  0
SECTION
  2
HEADER
  9
$ACADVER
  1
AC1015
  9
$ACADMAINTVER
 70
    13
  9
$DWGCODEPAGE
  3
ANSI_1252
  9
$INSBASE
 10
0.0
 20
0.0
 30
0.0
  9
$EXTMIN
 10
-33.57861375589152
 20
-55.9945947810437
 30
-0.000000000000013
  9
$EXTMAX
 10
76.89718904824985
 20
31.71813629335281
 30
0.0000000000000023
  9
$LIMMIN
 10
0.0
 20
0.0
  9
$LIMMAX
 10
420.0
 20
297.0
  9
$ORTHOMODE
 70
     0
  9
$REGENMODE
 70
     1
  9
$FILLMODE
 70
     1
  9
$QTEXTMODE
 70
     0
  9
$MIRRTEXT
 70
     1
  9
$LTSCALE
 40
1.0
  9
$ATTMODE
 70
     1
  9
$TEXTSIZE
 40
2.5
  9
$TRACEWID
 40
1.0
  9
$TEXTSTYLE
  7
STANDARD
  9
$CLAYER
  8
5
  9
$CELTYPE
  6
ByLayer
  9
$CECOLOR
 62
   256
  9
$CELTSCALE
 40
1.0
  9
$DISPSILH
 70
     0
  9
$DIMSCALE
 40
1.0
  9
$DIMASZ
 40
3.0
  9
$DIMEXO
 40
0.0
  9
$DIMDLI
 40
3.75
  9
$DIMRND
 40
0.0
  9
$DIMDLE
 40
0.0
  9
$DIMEXE
 40
1.0
  9
$DIMTP
 40
0.0
  9
$DIMTM
 40
0.0
  9
$DIMTXT
 40
2.0
  9
$DIMCEN
 40
2.5
  9
$DIMTSZ
 40
0.0
  9
$DIMTOL
 70
     0
  9
$DIMLIM
 70
     0
  9
$DIMTIH
 70
     1
  9
$DIMTOH
 70
     1
  9
$DIMSE1
 70
     0
  9
$DIMSE2
 70
     0
  9
$DIMTAD
 70
     1
  9
$DIMZIN
 70
     0
  9
$DIMBLK
  1

  9
$DIMASO
 70
     1
  9
$DIMSHO
 70
     1
  9
$DIMPOST
  1

  9
$DIMAPOST
  1

  9
$DIMALT
 70
     0
  9
$DIMALTD
 70
     3
  9
$DIMALTF
 40
0.0394
  9
$DIMLFAC
 40
1.0
  9
$DIMTOFL
 70
     1
  9
$DIMTVP
 40
0.0
  9
$DIMTIX
 70
     0
  9
$DIMSOXD
 70
     0
  9
$DIMSAH
 70
     0
  9
$DIMBLK1
  1

  9
$DIMBLK2
  1

  9
$DIMSTYLE
  2
ISO-25
  9
$DIMCLRD
 70
     0
  9
$DIMCLRE
 70
     0
  9
$DIMCLRT
 70
     0
  9
$DIMTFAC
 40
1.0
  9
$DIMGAP
 40
1.524
  9
$DIMJUST
 70
     0
  9
$DIMSD1
 70
     0
  9
$DIMSD2
 70
     0
  9
$DIMTOLJ
 70
     0
  9
$DIMTZIN
 70
     0
  9
$DIMALTZ
 70
     0
  9
$DIMALTTZ
 70
     0
  9
$DIMUPT
 70
     0
  9
$DIMDEC
 70
     2
  9
$DIMTDEC
 70
     2
  9
$DIMALTU
 70
     2
  9
$DIMALTTD
 70
     3
  9
$DIMTXSTY
  7
STANDARD
  9
$DIMAUNIT
 70
     0
  9
$DIMADEC
 70
     0
  9
$DIMALTRND
 40
0.0
  9
$DIMAZIN
 70
     0
  9
$DIMDSEP
 70
    44
  9
$DIMATFIT
 70
     3
  9
$DIMFRAC
 70
     0
  9
$DIMLDRBLK
  1

  9
$DIMLUNIT
 70
     2
  9
$DIMLWD
 70
    -2
  9
$DIMLWE
 70
    -2
  9
$DIMTMOVE
 70
     0
  9
$LUNITS
 70
     2
  9
$LUPREC
 70
     2
  9
$SKETCHINC
 40
1.0
  9
$FILLETRAD
 40
10.0
  9
$AUNITS
 70
     0
  9
$AUPREC
 70
     0
  9
$MENU
  1
.
  9
$ELEVATION
 40
0.0
  9
$PELEVATION
 40
0.0
  9
$THICKNESS
 40
0.0
  9
$LIMCHECK
 70
     0
  9
$CHAMFERA
 40
10.0
  9
$CHAMFERB
 40
10.0
  9
$CHAMFERC
 40
20.0
  9
$CHAMFERD
 40
0.0
  9
$SKPOLY
 70
     0
  9
$TDCREATE
 40
2454378.459298333
  9
$TDUCREATE
 40
2454378.375965000
  9
$TDUPDATE
 40
2454648.487268032
  9
$TDUUPDATE
 40
2454648.403934699
  9
$TDINDWG
 40
0.1516407060
  9
$TDUSRTIMER
 40
0.1516403472
  9
$USRTIMER
 70
     1
  9
$ANGBASE
 50
0.0
  9
$ANGDIR
 70
     0
  9
$PDMODE
 70
     0
  9
$PDSIZE
 40
-1.0
  9
$PLINEWID
 40
0.0
  9
$SPLFRAME
 70
     0
  9
$SPLINETYPE
 70
     6
  9
$SPLINESEGS
 70
     8
  9
$HANDSEED
  5
1A98
  9
$SURFTAB1
 70
     6
  9
$SURFTAB2
 70
     6
  9
$SURFTYPE
 70
     6
  9
$SURFU
 70
     6
  9
$SURFV
 70
     6
  9
$UCSBASE
  2

  9
$UCSNAME
  2

  9
$UCSORG
 10
0.0
 20
0.0
 30
0.0
  9
$UCSXDIR
 10
1.0
 20
0.0
 30
0.0
  9
$UCSYDIR
 10
0.0
 20
1.0
 30
0.0
  9
$UCSORTHOREF
  2

  9
$UCSORTHOVIEW
 70
     0
  9
$UCSORGTOP
 10
0.0
 20
0.0
 30
0.0
  9
$UCSORGBOTTOM
 10
0.0
 20
0.0
 30
0.0
  9
$UCSORGLEFT
 10
0.0
 20
0.0
 30
0.0
  9
$UCSORGRIGHT
 10
0.0
 20
0.0
 30
0.0
  9
$UCSORGFRONT
 10
0.0
 20
0.0
 30
0.0
  9
$UCSORGBACK
 10
0.0
 20
0.0
 30
0.0
  9
$PUCSBASE
  2

  9
$PUCSNAME
  2

  9
$PUCSORG
 10
0.0
 20
0.0
 30
0.0
  9
$PUCSXDIR
 10
1.0
 20
0.0
 30
0.0
  9
$PUCSYDIR
 10
0.0
 20
1.0
 30
0.0
  9
$PUCSORTHOREF
  2

  9
$PUCSORTHOVIEW
 70
     0
  9
$PUCSORGTOP
 10
0.0
 20
0.0
 30
0.0
  9
$PUCSORGBOTTOM
 10
0.0
 20
0.0
 30
0.0
  9
$PUCSORGLEFT
 10
0.0
 20
0.0
 30
0.0
  9
$PUCSORGRIGHT
 10
0.0
 20
0.0
 30
0.0
  9
$PUCSORGFRONT
 10
0.0
 20
0.0
 30
0.0
  9
$PUCSORGBACK
 10
0.0
 20
0.0
 30
0.0
  9
$USERI1
 70
     0
  9
$USERI2
 70
     0
  9
$USERI3
 70
     0
  9
$USERI4
 70
     0
  9
$USERI5
 70
     0
  9
$USERR1
 40
0.0
  9
$USERR2
 40
0.0
  9
$USERR3
 40
0.0
  9
$USERR4
 40
0.0
  9
$USERR5
 40
0.0
  9
$WORLDVIEW
 70
     1
  9
$SHADEDGE
 70
     3
  9
$SHADEDIF
 70
    70
  9
$TILEMODE
 70
     1
  9
$MAXACTVP
 70
    64
  9
$PINSBASE
 10
0.0
 20
0.0
 30
0.0
  9
$PLIMCHECK
 70
     0
  9
$PEXTMIN
 10
1.000000000000000E+20
 20
1.000000000000000E+20
 30
1.000000000000000E+20
  9
$PEXTMAX
 10
-1.000000000000000E+20
 20
-1.000000000000000E+20
 30
-1.000000000000000E+20
  9
$PLIMMIN
 10
0.0
 20
0.0
  9
$PLIMMAX
 10
420.0
 20
297.0
  9
$UNITMODE
 70
     0
  9
$VISRETAIN
 70
     1
  9
$PLINEGEN
 70
     0
  9
$PSLTSCALE
 70
     1
  9
$TREEDEPTH
 70
  3020
  9
$CMLSTYLE
  2
Standard
  9
$CMLJUST
 70
     0
  9
$CMLSCALE
 40
20.0
  9
$PROXYGRAPHICS
 70
     1
  9
$MEASUREMENT
 70
     1
  9
$CELWEIGHT
370
    -1
  9
$ENDCAPS
280
     0
  9
$JOINSTYLE
280
     0
  9
$LWDISPLAY
290
     1
  9
$INSUNITS
 70
     4
  9
$HYPERLINKBASE
  1

  9
$STYLESHEET
  1

  9
$XEDIT
290
     1
  9
$CEPSNTYPE
380
     0
  9
$PSTYLEMODE
290
     1
  9
$FINGERPRINTGUID
  2
{B670D01D-4751-421D-9EC6-3FC415A30308}
  9
$VERSIONGUID
  2
{898A0CEC-4456-4AB9-A67A-DE7EEDC9EDD0}
  9
$EXTNAMES
290
     1
  9
$PSVPSCALE
 40
0.0
  9
$OLESTARTUP
290
     0
  0
ENDSEC
  0
SECTION
  2
CLASSES
  0
CLASS
  1
ACDBDICTIONARYWDFLT
  2
AcDbDictionaryWithDefault
  3
AutoCAD 2000
 90
        0
280
     0
281
     0
  0
CLASS
  1
ACDBPLACEHOLDER
  2
AcDbPlaceHolder
  3
AutoCAD 2000
 90
        0
280
     0
281
     0
  0
CLASS
  1
LAYOUT
  2
AcDbLayout
  3
AutoCAD 2000
 90
        0
280
     0
281
     0
  0
CLASS
  1
DICTIONARYVAR
  2
AcDbDictionaryVar
  3
AutoCAD 2000
 90
        0
280
     0
281
     0
  0
ENDSEC
  0
SECTION
  2
TABLES
  0
TABLE
  2
VPORT
  5
8
330
0
100
AcDbSymbolTable
 70
     5
  0
VPORT
  5
1A97
330
8
100
AcDbSymbolTableRecord
100
AcDbViewportTableRecord
  2
*Active
 70
     0
 10
0.0
 20
0.0
 11
1.0
 21
1.0
 12
-68.64021199952083
 22
-79.64132628204544
 13
0.0
 23
0.0
 14
10.0
 24
10.0
 15
10.0
 25
10.0
 16
0.0
 26
0.0
 36
1.0
 17
90.29949964569999
 27
67.5030970382
 37
0.0
 40
88.35688821814972
 41
1.998774509803921
 42
50.0
 43
0.0
 44
0.0
 50
0.0
 51
0.0
 71
     0
 72
  2000
 73
     1
 74
     3
 75
     0
 76
     0
 77
     0
 78
     0
281
     0
 65
     1
110
0.0
120
0.0
130
0.0
111
1.0
121
0.0
131
0.0
112
0.0
122
1.0
132
0.0
 79
     0
146
0.0
  0
ENDTAB
  0
TABLE
  2
LTYPE
  5
5
330
0
100
AcDbSymbolTable
 70
    10
  0
LTYPE
  5
14
330
5
100
AcDbSymbolTableRecord
100
AcDbLinetypeTableRecord
  2
ByBlock
 70
     0
  3

 72
    65
 73
     0
 40
0.0
  0
LTYPE
  5
15
330
5
100
AcDbSymbolTableRecord
100
AcDbLinetypeTableRecord
  2
ByLayer
 70
     0
  3

 72
    65
 73
     0
 40
0.0
  0
LTYPE
  5
16
330
5
100
AcDbSymbolTableRecord
100
AcDbLinetypeTableRecord
  2
Continuous
 70
     0
  3
Solid line
 72
    65
 73
     0
 40
0.0
  0
LTYPE
  5
2A
330
5
100
AcDbSymbolTableRecord
100
AcDbLinetypeTableRecord
  2
SLD-Durchgehend
 70
     0
  3
SolidWorks Line Style
 72
    65
 73
     0
 40
0.0
  0
LTYPE
  5
2B
330
5
100
AcDbSymbolTableRecord
100
AcDbLinetypeTableRecord
  2
SLD-Gestrichelt
 70
     0
  3
SolidWorks Line Style
 72
    65
 73
     2
 40
1.905
 49
1.27
 74
     0
 49
-0.635
 74
     0
  0
LTYPE
  5
2C
330
5
100
AcDbSymbolTableRecord
100
AcDbLinetypeTableRecord
  2
SLD-Phantom
 70
     0
  3
SolidWorks Line Style
 72
    65
 73
     6
 40
12.7
 49
6.349999999999997
 74
     0
 49
-1.27
 74
     0
 49
1.27
 74
     0
 49
-1.27
 74
     0
 49
1.27
 74
     0
 49
-1.27
 74
     0
  0
LTYPE
  5
2D
330
5
100
AcDbSymbolTableRecord
100
AcDbLinetypeTableRecord
  2
SLD-Kette
 70
     0
  3
SolidWorks Line Style
 72
    65
 73
     4
 40
10.16
 49
6.349999999999997
 74
     0
 49
-1.27
 74
     0
 49
1.27
 74
     0
 49
-1.27
 74
     0
  0
LTYPE
  5
2E
330
5
100
AcDbSymbolTableRecord
100
AcDbLinetypeTableRecord
  2
SLD-Punktstrich
 70
     0
  3
SolidWorks Line Style
 72
    65
 73
     4
 40
19.05
 49
15.24
 74
     0
 49
-1.27
 74
     0
 49
1.27
 74
     0
 49
-1.27
 74
     0
  0
LTYPE
  5
2F
330
5
100
AcDbSymbolTableRecord
100
AcDbLinetypeTableRecord
  2
SLD-Naht
 70
     0
  3
SolidWorks Line Style
 72
    65
 73
     2
 40
0.635
 49
0.0
 74
     0
 49
-0.635
 74
     0
  0
LTYPE
  5
30
330
5
100
AcDbSymbolTableRecord
100
AcDbLinetypeTableRecord
  2
SLD-Dicke-Dünne-Kette
 70
     0
  3
SolidWorks Line Style
 72
    65
 73
     4
 40
10.16
 49
6.349999999999997
 74
     0
 49
-1.27
 74
     0
 49
1.27
 74
     0
 49
-1.27
 74
     0
  0
LTYPE
  5
2D5
330
5
100
AcDbSymbolTableRecord
100
AcDbLinetypeTableRecord
  2
GEN3A
 70
     0
  3
 - - - - -
 72
    65
 73
     2
 40
3.1
 49
2.5
 74
     0
 49
-0.6
 74
     0
  0
LTYPE
  5
362
330
5
100
AcDbSymbolTableRecord
100
AcDbLinetypeTableRecord
  2
GEN7A
 70
     0
  3
__ . __ . __
 72
    65
 73
     4
 40
7.5
 49
5.0
 74
     0
 49
-1.25
 74
     0
 49
0.0
 74
     0
 49
-1.25
 74
     0
  0
ENDTAB
  0
TABLE
  2
LAYER
  5
2
102
{ACAD_XDICTIONARY
360
296
102
}
330
0
100
AcDbSymbolTable
 70
    15
  0
LAYER
  5
10
330
2
100
AcDbSymbolTableRecord
100
AcDbLayerTableRecord
  2
0
 70
     0
 62
     7
  6
Continuous
370
    -3
390
F
  0
LAYER
  5
31
330
2
100
AcDbSymbolTableRecord
100
AcDbLayerTableRecord
  2
FORMAT
 70
     0
 62
     7
  6
SLD-Durchgehend
370
     0
390
F
  0
LAYER
  5
32
330
2
100
AcDbSymbolTableRecord
100
AcDbLayerTableRecord
  2
VERMASSUNG
 70
     0
 62
     7
  6
SLD-Durchgehend
370
     0
390
F
  0
LAYER
  5
33
330
2
100
AcDbSymbolTableRecord
100
AcDbLayerTableRecord
  2
KOPF__DÜNN
 70
     0
 62
     7
  6
SLD-Durchgehend
370
     0
390
F
  0
LAYER
  5
34
330
2
100
AcDbSymbolTableRecord
100
AcDbLayerTableRecord
  2
KOPF__DICK
 70
     0
 62
     7
  6
SLD-Durchgehend
370
    15
390
F
  0
LAYER
  5
24C
330
2
100
AcDbSymbolTableRecord
100
AcDbLayerTableRecord
  2
Defpoints
 70
     0
 62
     7
  6
Continuous
290
     0
370
    -3
390
F
  0
LAYER
  5
293
330
2
100
AcDbSymbolTableRecord
100
AcDbLayerTableRecord
  2
5
 70
     0
 62
     7
  6
Continuous
370
    -3
390
F
  0
LAYER
  5
2D6
330
2
100
AcDbSymbolTableRecord
100
AcDbLayerTableRecord
  2
3
 70
     0
 62
     1
  6
GEN3A
370
    -3
390
F
  0
LAYER
  5
2D7
330
2
100
AcDbSymbolTableRecord
100
AcDbLayerTableRecord
  2
SK1
 70
     0
 62
     4
  6
Continuous
370
    -3
390
F
  0
LAYER
  5
2D8
330
2
100
AcDbSymbolTableRecord
100
AcDbLayerTableRecord
  2
SK3
 70
     0
 62
     1
  6
GEN3A
370
    -3
390
F
  0
LAYER
  5
35B
330
2
100
AcDbSymbolTableRecord
100
AcDbLayerTableRecord
  2
1
 70
     0
 62
     4
  6
Continuous
370
    -3
390
F
  0
LAYER
  5
361
330
2
100
AcDbSymbolTableRecord
100
AcDbLayerTableRecord
  2
SK4
 70
     0
 62
     2
  6
GEN7A
370
    -3
390
F
  0
LAYER
  5
363
330
2
100
AcDbSymbolTableRecord
100
AcDbLayerTableRecord
  2
4
 70
     0
 62
     2
  6
GEN7A
370
    -3
390
F
  0
LAYER
  5
365
330
2
100
AcDbSymbolTableRecord
100
AcDbLayerTableRecord
  2
2
 70
     0
 62
     7
  6
Continuous
370
    -3
390
F
  0
LAYER
  5
37C
330
2
100
AcDbSymbolTableRecord
100
AcDbLayerTableRecord
  2
SK2
 70
     0
 62
     7
  6
Continuous
370
    -3
390
F
  0
ENDTAB
  0
TABLE
  2
STYLE
  5
3
330
0
100
AcDbSymbolTable
 70
     3
  0
STYLE
  5
11
330
3
100
AcDbSymbolTableRecord
100
AcDbTextStyleTableRecord
  2
STANDARD
 70
     0
 40
0.0
 41
1.0
 50
0.0
 71
     0
 42
2.5
  3
ISOCPEUR.TTF
  4

1001
ACAD
1000
ISOCPEUR
1071
       34
  0
STYLE
  5
35
330
3
100
AcDbSymbolTableRecord
100
AcDbTextStyleTableRecord
  2
SLDTEXTSTYLE0
 70
     0
 40
0.0
 41
1.0
 50
0.0
 71
     0
 42
0.2
  3
ISOCPEUR.TTF
  4

1001
ACAD
1000
ISOCPEUR
1071
       34
  0
STYLE
  5
294
330
3
100
AcDbSymbolTableRecord
100
AcDbTextStyleTableRecord
  2
GENPRESET
 70
     0
 40
0.0
 41
1.0
 50
0.0
 71
     0
 42
3.5
  3
simplex.shx
  4

  0
ENDTAB
  0
TABLE
  2
VIEW
  5
6
330
0
100
AcDbSymbolTable
 70
     0
  0
ENDTAB
  0
TABLE
  2
UCS
  5
7
330
0
100
AcDbSymbolTable
 70
     0
  0
ENDTAB
  0
TABLE
  2
APPID
  5
9
330
0
100
AcDbSymbolTable
 70
     1
  0
APPID
  5
12
330
9
100
AcDbSymbolTableRecord
100
AcDbRegAppTableRecord
  2
ACAD
 70
     0
  0
ENDTAB
  0
TABLE
  2
DIMSTYLE
  5
A
330
0
100
AcDbSymbolTable
 70
     4
100
AcDbDimStyleTable
 71
     2
340
295
340
27
  0
DIMSTYLE
105
27
330
A
100
AcDbSymbolTableRecord
100
AcDbDimStyleTableRecord
  2
ISO-25
 70
     0
 41
2.5
 42
0.625
 43
3.75
 44
1.25
 73
     0
 74
     0
 77
     1
 78
     8
140
2.5
141
2.5
143
0.0393700787
147
0.625
171
     3
172
     1
271
     2
272
     2
274
     3
278
    44
283
     0
284
     8
340
11
  0
DIMSTYLE
105
259
330
A
100
AcDbSymbolTableRecord
100
AcDbDimStyleTableRecord
  2
SLDDIMSTYLE0
 70
     0
 41
3.0
 44
0.0
 73
     0
 74
     0
 77
     2
 78
    12
140
2.0
147
0.5
173
     1
271
     2
272
     3
284
    12
340
35
  0
DIMSTYLE
105
295
102
{ACAD_REACTORS
330
174E
330
1A80
102
}
330
A
100
AcDbSymbolTableRecord
100
AcDbDimStyleTableRecord
  2
GEN-ISO_TDM
 70
     0
 41
4.57
 42
0.0
 43
8.0
 44
2.0
 47
0.1
 48
0.1
 73
     0
 74
     0
 77
     1
 78
     8
140
4.57
141
2.0
146
0.7
147
1.5
172
     1
178
     7
179
     1
271
     2
272
     2
284
     8
285
     8
286
     8
340
294
  0
DIMSTYLE
105
1490
102
{ACAD_REACTORS
330
151F
102
}
330
A
100
AcDbSymbolTableRecord
100
AcDbDimStyleTableRecord
  2
SLDDIMSTYLE1
 70
     0
 41
3.0
 44
0.0
 45
0.000000001
 73
     0
 74
     0
 77
     1
 78
    12
140
2.0
147
0.5
173
     1
271
     2
272
     3
284
    12
340
35
  0
ENDTAB
  0
TABLE
  2
BLOCK_RECORD
  5
1
330
0
100
AcDbSymbolTable
 70
    41
  0
BLOCK_RECORD
  5
1F
330
1
100
AcDbSymbolTableRecord
100
AcDbBlockTableRecord
  2
*Model_Space
340
22
  0
BLOCK_RECORD
  5
1B
330
1
100
AcDbSymbolTableRecord
100
AcDbBlockTableRecord
  2
*Paper_Space
340
1E
  0
BLOCK_RECORD
  5
23
330
1
100
AcDbSymbolTableRecord
100
AcDbBlockTableRecord
  2
*Paper_Space0
340
26
  0
BLOCK_RECORD
  5
24D
330
1
100
AcDbSymbolTableRecord
100
AcDbBlockTableRecord
  2
*D1
340
0
  0
BLOCK_RECORD
  5
261
330
1
100
AcDbSymbolTableRecord
100
AcDbBlockTableRecord
  2
*D2
340
0
  0
BLOCK_RECORD
  5
274
330
1
100
AcDbSymbolTableRecord
100
AcDbBlockTableRecord
  2
*D3
340
0
  0
BLOCK_RECORD
  5
398
330
1
100
AcDbSymbolTableRecord
100
AcDbBlockTableRecord
  2
*D4
340
0
  0
BLOCK_RECORD
  5
3A2
330
1
100
AcDbSymbolTableRecord
100
AcDbBlockTableRecord
  2
_None
340
0
  0
BLOCK_RECORD
  5
435
330
1
100
AcDbSymbolTableRecord
100
AcDbBlockTableRecord
  2
*D6
340
0
  0
BLOCK_RECORD
  5
48A
330
1
100
AcDbSymbolTableRecord
100
AcDbBlockTableRecord
  2
*D7
340
0
  0
BLOCK_RECORD
  5
496
330
1
100
AcDbSymbolTableRecord
100
AcDbBlockTableRecord
  2
*D8
340
0
  0
BLOCK_RECORD
  5
4A2
330
1
100
AcDbSymbolTableRecord
100
AcDbBlockTableRecord
  2
*D9
340
0
  0
BLOCK_RECORD
  5
4AE
330
1
100
AcDbSymbolTableRecord
100
AcDbBlockTableRecord
  2
SW_CENTERMARKSYMBOL_0
340
0
102
{BLKREFS
331
539
331
772
331
1495
331
1742
102
}
  0
BLOCK_RECORD
  5
929
330
1
100
AcDbSymbolTableRecord
100
AcDbBlockTableRecord
  2
*D11
340
0
  0
BLOCK_RECORD
  5
935
330
1
100
AcDbSymbolTableRecord
100
AcDbBlockTableRecord
  2
*D12
340
0
  0
BLOCK_RECORD
  5
941
330
1
100
AcDbSymbolTableRecord
100
AcDbBlockTableRecord
  2
*D13
340
0
  0
BLOCK_RECORD
  5
968
330
1
100
AcDbSymbolTableRecord
100
AcDbBlockTableRecord
  2
*D14
340
0
  0
BLOCK_RECORD
  5
9F0
330
1
100
AcDbSymbolTableRecord
100
AcDbBlockTableRecord
  2
*D15
340
0
  0
BLOCK_RECORD
  5
A2A
330
1
100
AcDbSymbolTableRecord
100
AcDbBlockTableRecord
  2
*D16
340
0
  0
BLOCK_RECORD
  5
A33
330
1
100
AcDbSymbolTableRecord
100
AcDbBlockTableRecord
  2
*D17
340
0
  0
BLOCK_RECORD
  5
A3C
330
1
100
AcDbSymbolTableRecord
100
AcDbBlockTableRecord
  2
*D18
340
0
  0
BLOCK_RECORD
  5
E05
330
1
100
AcDbSymbolTableRecord
100
AcDbBlockTableRecord
  2
*D19
340
0
  0
BLOCK_RECORD
  5
E11
330
1
100
AcDbSymbolTableRecord
100
AcDbBlockTableRecord
  2
*D20
340
0
  0
BLOCK_RECORD
  5
E1D
330
1
100
AcDbSymbolTableRecord
100
AcDbBlockTableRecord
  2
*D21
340
0
  0
BLOCK_RECORD
  5
E57
330
1
100
AcDbSymbolTableRecord
100
AcDbBlockTableRecord
  2
A$C2CBA1DD3
340
0
102
{BLKREFS
331
E94
102
}
  0
BLOCK_RECORD
  5
EEC
330
1
100
AcDbSymbolTableRecord
100
AcDbBlockTableRecord
  2
*D23
340
0
  0
BLOCK_RECORD
  5
EF7
330
1
100
AcDbSymbolTableRecord
100
AcDbBlockTableRecord
  2
*D24
340
0
  0
BLOCK_RECORD
  5
F00
330
1
100
AcDbSymbolTableRecord
100
AcDbBlockTableRecord
  2
*D25
340
0
  0
BLOCK_RECORD
  5
1375
330
1
100
AcDbSymbolTableRecord
100
AcDbBlockTableRecord
  2
*D26
340
0
  0
BLOCK_RECORD
  5
1381
330
1
100
AcDbSymbolTableRecord
100
AcDbBlockTableRecord
  2
*D27
340
0
  0
BLOCK_RECORD
  5
138D
330
1
100
AcDbSymbolTableRecord
100
AcDbBlockTableRecord
  2
*D28
340
0
  0
BLOCK_RECORD
  5
1466
330
1
100
AcDbSymbolTableRecord
100
AcDbBlockTableRecord
  2
*D29
340
0
  0
BLOCK_RECORD
  5
1471
330
1
100
AcDbSymbolTableRecord
100
AcDbBlockTableRecord
  2
*D30
340
0
  0
BLOCK_RECORD
  5
147A
330
1
100
AcDbSymbolTableRecord
100
AcDbBlockTableRecord
  2
*D31
340
0
  0
BLOCK_RECORD
  5
1485
330
1
100
AcDbSymbolTableRecord
100
AcDbBlockTableRecord
  2
*D32
340
0
  0
BLOCK_RECORD
  5
19E9
330
1
100
AcDbSymbolTableRecord
100
AcDbBlockTableRecord
  2
*D34
340
0
  0
BLOCK_RECORD
  5
19F5
330
1
100
AcDbSymbolTableRecord
100
AcDbBlockTableRecord
  2
*D35
340
0
  0
BLOCK_RECORD
  5
1A01
330
1
100
AcDbSymbolTableRecord
100
AcDbBlockTableRecord
  2
*D36
340
0
  0
BLOCK_RECORD
  5
1A0D
330
1
100
AcDbSymbolTableRecord
100
AcDbBlockTableRecord
  2
*D37
340
0
  0
BLOCK_RECORD
  5
1A81
330
1
100
AcDbSymbolTableRecord
100
AcDbBlockTableRecord
  2
*D40
340
0
  0
ENDTAB
  0
ENDSEC
  0
SECTION
  2
BLOCKS
  0
BLOCK
  5
20
330
1F
100
AcDbEntity
  8
0
100
AcDbBlockBegin
  2
*Model_Space
 70
     0
 10
0.0
 20
0.0
 30
0.0
  3
*Model_Space
  1

  0
ENDBLK
  5
21
330
1F
100
AcDbEntity
  8
0
100
AcDbBlockEnd
  0
BLOCK
  5
1C
330
1B
100
AcDbEntity
 67
     1
  8
0
100
AcDbBlockBegin
  2
*Paper_Space
 70
     0
 10
0.0
 20
0.0
 30
0.0
  3
*Paper_Space
  1

  0
ENDBLK
  5
1D
330
1B
100
AcDbEntity
 67
     1
  8
0
100
AcDbBlockEnd
  0
BLOCK
  5
24
330
23
100
AcDbEntity
  8
0
100
AcDbBlockBegin
  2
*Paper_Space0
 70
     0
 10
0.0
 20
0.0
 30
0.0
  3
*Paper_Space0
  1

  0
ENDBLK
  5
25
330
23
100
AcDbEntity
  8
0
100
AcDbBlockEnd
  0
BLOCK
  5
257
330
24D
100
AcDbEntity
  8
0
100
AcDbBlockBegin
  2
*D1
 70
     1
 10
0.0
 20
0.0
 30
0.0
  3
*D1
  1

  0
LINE
  5
478
330
24D
100
AcDbEntity
  8
2
 62
     0
370
    -2
100
AcDbLine
 10
-87.0244716539276
 20
-26.41566902687695
 30
0.0
 11
-87.0244716539276
 21
-17.72363367612226
 31
0.0
  0
LINE
  5
479
330
24D
100
AcDbEntity
  8
2
 62
     0
370
    -2
100
AcDbLine
 10
-51.0244716539276
 20
-32.39092980467695
 30
0.0
 11
-51.0244716539276
 21
-17.72363367612226
 31
0.0
  0
LINE
  5
47A
330
24D
100
AcDbEntity
  8
2
 62
     0
370
    -2
100
AcDbLine
 10
-82.45447165392761
 20
-19.72363367612226
 30
0.0
 11
-55.59447165392761
 21
-19.72363367612226
 31
0.0
  0
SOLID
  5
47B
330
24D
100
AcDbEntity
  8
2
 62
     0
100
AcDbTrace
 10
-82.45447165392761
 20
-18.96196700945559
 30
0.0
 11
-82.45447165392761
 21
-20.48530034278893
 31
0.0
 12
-87.0244716539276
 22
-19.72363367612226
 32
0.0
 13
-87.0244716539276
 23
-19.72363367612226
 33
0.0
  0
SOLID
  5
47C
330
24D
100
AcDbEntity
  8
2
 62
     0
100
AcDbTrace
 10
-55.59447165392761
 20
-18.96196700945559
 30
0.0
 11
-55.59447165392761
 21
-20.48530034278893
 31
0.0
 12
-51.0244716539276
 22
-19.72363367612226
 32
0.0
 13
-51.0244716539276
 23
-19.72363367612226
 33
0.0
  0
MTEXT
  5
47D
330
24D
100
AcDbEntity
  8
2
 62
     7
100
AcDbMText
 10
-69.02447165392761
 20
-15.93863367612225
 30
0.0
 40
4.57
 41
0.0
 71
     5
 72
     1
  1
\A1;36
  7
GENPRESET
 73
     1
 44
1.0
  0
POINT
  5
47E
330
24D
100
AcDbEntity
  8
Defpoints
 62
     0
100
AcDbPoint
 10
-87.0244716539276
 20
-26.41566902687695
 30
0.0
  0
POINT
  5
47F
330
24D
100
AcDbEntity
  8
Defpoints
 62
     0
100
AcDbPoint
 10
-51.0244716539276
 20
-32.39092980467695
 30
0.0
  0
POINT
  5
480
330
24D
100
AcDbEntity
  8
Defpoints
 62
     0
100
AcDbPoint
 10
-51.0244716539276
 20
-19.72363367612226
 30
0.0
  0
ENDBLK
  5
258
330
24D
100
AcDbEntity
  8
0
100
AcDbBlockEnd
  0
BLOCK
  5
26B
330
261
100
AcDbEntity
  8
0
100
AcDbBlockBegin
  2
*D2
 70
     1
 10
0.0
 20
0.0
 30
0.0
  3
*D2
  1

  0
LINE
  5
2BA
330
261
100
AcDbEntity
  8
VERMASSUNG
 62
     0
370
    -2
100
AcDbLine
 10
0.0
 20
9.799999999999997
 30
0.0
 11
0.0000000000000003
 21
15.42960572859999
 31
0.0
  0
LINE
  5
2BB
330
261
100
AcDbEntity
  8
VERMASSUNG
 62
     0
370
    -2
100
AcDbLine
 10
26.5
 20
8.074677142099986
 30
0.0
 11
26.5
 21
15.42960572859999
 31
0.0
  0
LINE
  5
2BC
330
261
100
AcDbEntity
  8
VERMASSUNG
 62
     0
370
    -2
100
AcDbLine
 10
3.0
 20
14.42960572859997
 30
0.0
 11
23.5
 21
14.42960572859997
 31
0.0
  0
SOLID
  5
2BD
330
261
100
AcDbEntity
  8
VERMASSUNG
 62
     0
100
AcDbTrace
 10
3.0
 20
14.92960572859999
 30
0.0
 11
3.0
 21
13.92960572859998
 31
0.0
 12
0.0000000000000003
 22
14.42960572859997
 32
0.0
 13
0.0000000000000003
 23
14.42960572859997
 33
0.0
  0
SOLID
  5
2BE
330
261
100
AcDbEntity
  8
VERMASSUNG
 62
     0
100
AcDbTrace
 10
23.5
 20
14.92960572859999
 30
0.0
 11
23.5
 21
13.92960572859998
 31
0.0
 12
26.5
 22
14.42960572859997
 32
0.0
 13
26.5
 23
14.42960572859997
 33
0.0
  0
MTEXT
  5
2BF
330
261
100
AcDbEntity
  8
VERMASSUNG
 62
     0
100
AcDbMText
 10
10.34999999999999
 20
17.95360572859999
 30
0.0
 40
2.0
 41
0.0
 71
     1
 72
     1
  1
\A1;26.50
  7
SLDTEXTSTYLE0
 73
     1
 44
1.0
  0
POINT
  5
2C0
330
261
100
AcDbEntity
  8
Defpoints
 62
     0
100
AcDbPoint
 10
0.0
 20
9.799999999999997
 30
0.0
  0
POINT
  5
2C1
330
261
100
AcDbEntity
  8
Defpoints
 62
     0
100
AcDbPoint
 10
26.5
 20
8.074677142099986
 30
0.0
  0
POINT
  5
2C2
330
261
100
AcDbEntity
  8
Defpoints
 62
     0
100
AcDbPoint
 10
26.5
 20
14.42960572859997
 30
0.0
  0
ENDBLK
  5
26C
330
261
100
AcDbEntity
  8
0
100
AcDbBlockEnd
  0
BLOCK
  5
27F
330
274
100
AcDbEntity
  8
0
100
AcDbBlockBegin
  2
*D3
 70
     1
 10
0.0
 20
0.0
 30
0.0
  3
*D3
  1

  0
LINE
  5
481
330
274
100
AcDbEntity
  8
SK2
 62
     0
370
    -2
100
AcDbLine
 10
-86.82447165392764
 20
-26.21566902687694
 30
0.0
 11
-104.5256577309275
 21
-26.21566902687694
 31
0.0
  0
LINE
  5
482
330
274
100
AcDbEntity
  8
SK2
 62
     0
370
    -2
100
AcDbLine
 10
-86.82447165392764
 20
-46.21566902687695
 30
0.0
 11
-104.5256577309276
 21
-46.21566902687695
 31
0.0
  0
LINE
  5
483
330
274
100
AcDbEntity
  8
SK2
 62
     0
370
    -2
100
AcDbLine
 10
-102.5256577309274
 20
-30.78566902687695
 30
0.0
 11
-102.5256577309276
 21
-41.64566902687695
 31
0.0
  0
SOLID
  5
484
330
274
100
AcDbEntity
  8
SK2
 62
     0
100
AcDbTrace
 10
-103.2873243975942
 20
-30.78566902687695
 30
0.0
 11
-101.7639910642609
 21
-30.78566902687695
 31
0.0
 12
-102.5256577309274
 22
-26.21566902687694
 32
0.0
 13
-102.5256577309274
 23
-26.21566902687694
 33
0.0
  0
SOLID
  5
485
330
274
100
AcDbEntity
  8
SK2
 62
     0
100
AcDbTrace
 10
-103.2873243975942
 20
-41.64566902687695
 30
0.0
 11
-101.7639910642609
 21
-41.64566902687695
 31
0.0
 12
-102.5256577309276
 22
-46.21566902687695
 32
0.0
 13
-102.5256577309276
 23
-46.21566902687695
 33
0.0
  0
MTEXT
  5
486
330
274
100
AcDbEntity
  8
SK2
 62
     7
100
AcDbMText
 10
-106.3106577309274
 20
-36.21566902687696
 30
0.0
 40
4.57
 41
0.0
 71
     5
 72
     1
  1
\A1;MBM %%c20
  7
GENPRESET
 11
0.0000000000000001
 21
1.0
 31
0.0
 73
     1
 44
1.0
  0
POINT
  5
487
330
274
100
AcDbEntity
  8
Defpoints
 62
     0
100
AcDbPoint
 10
-86.82447165392764
 20
-26.21566902687694
 30
0.0
  0
POINT
  5
488
330
274
100
AcDbEntity
  8
Defpoints
 62
     0
100
AcDbPoint
 10
-86.82447165392764
 20
-46.21566902687695
 30
0.0
  0
POINT
  5
489
330
274
100
AcDbEntity
  8
Defpoints
 62
     0
100
AcDbPoint
 10
-102.5256577309276
 20
-46.21566902687695
 30
0.0
  0
ENDBLK
  5
280
330
274
100
AcDbEntity
  8
0
100
AcDbBlockEnd
  0
BLOCK
  5
3A0
330
398
100
AcDbEntity
  8
0
100
AcDbBlockBegin
  2
*D4
 70
     1
 10
0.0
 20
0.0
 30
0.0
  3
*D4
  1

  0
LINE
  5
399
330
398
100
AcDbEntity
  8
SK2
 62
     0
370
    -2
100
AcDbLine
 10
13.49994397087499
 20
11.95
 30
0.0
 11
24.04200736209938
 21
11.94999999999999
 31
0.0
  0
LINE
  5
39A
330
398
100
AcDbEntity
  8
SK2
 62
     0
370
    -2
100
AcDbLine
 10
22.04200736209938
 20
7.379999999999997
 30
0.0
 11
22.04200736209937
 21
-11.94999999999999
 31
0.0
  0
SOLID
  5
39B
330
398
100
AcDbEntity
  8
SK2
 62
     0
100
AcDbTrace
 10
21.28034069543271
 20
7.379999999999997
 30
0.0
 11
22.80367402876604
 21
7.379999999999997
 31
0.0
 12
22.04200736209938
 22
11.94999999999999
 32
0.0
 13
22.04200736209938
 23
11.94999999999999
 33
0.0
  0
MTEXT
  5
39C
330
398
100
AcDbEntity
  8
SK2
 62
     7
100
AcDbMText
 10
18.25700736209937
 20
-2.284999999999993
 30
0.0
 40
4.57
 41
0.0
 71
     5
 72
     1
  1
\A1;ø23.9-31.1
  7
GENPRESET
 11
0.0000000000000001
 21
1.0
 31
0.0
 73
     1
 44
1.0
  0
POINT
  5
39D
330
398
100
AcDbEntity
  8
Defpoints
 62
     0
100
AcDbPoint
 10
13.49994397087499
 20
11.95
 30
0.0
  0
POINT
  5
39E
330
398
100
AcDbEntity
  8
Defpoints
 62
     0
100
AcDbPoint
 10
13.49994397087499
 20
-11.94999999999999
 30
0.0
  0
POINT
  5
39F
330
398
100
AcDbEntity
  8
Defpoints
 62
     0
100
AcDbPoint
 10
22.04200736209937
 20
-11.94999999999999
 30
0.0
  0
ENDBLK
  5
3A1
330
398
100
AcDbEntity
  8
0
100
AcDbBlockEnd
  0
BLOCK
  5
3A3
330
3A2
100
AcDbEntity
  8
0
100
AcDbBlockBegin
  2
_None
 70
     0
 10
0.0
 20
0.0
 30
0.0
  3
_None
  1

  0
ENDBLK
  5
3A4
330
3A2
100
AcDbEntity
  8
0
100
AcDbBlockEnd
  0
BLOCK
  5
43D
330
435
100
AcDbEntity
  8
0
100
AcDbBlockBegin
  2
*D6
 70
     1
 10
0.0
 20
0.0
 30
0.0
  3
*D6
  1

  0
LINE
  5
43F
330
435
100
AcDbEntity
  8
SK2
 62
     0
370
    -2
100
AcDbLine
 10
39.99994397087499
 20
11.95
 30
0.0
 11
50.54200736209939
 21
11.94999999999999
 31
0.0
  0
LINE
  5
440
330
435
100
AcDbEntity
  8
SK2
 62
     0
370
    -2
100
AcDbLine
 10
48.54200736209938
 20
7.379999999999997
 30
0.0
 11
48.54200736209938
 21
-11.94999999999999
 31
0.0
  0
SOLID
  5
441
330
435
100
AcDbEntity
  8
SK2
 62
     0
100
AcDbTrace
 10
47.78034069543271
 20
7.379999999999997
 30
0.0
 11
49.30367402876605
 21
7.379999999999997
 31
0.0
 12
48.54200736209938
 22
11.94999999999999
 32
0.0
 13
48.54200736209938
 23
11.94999999999999
 33
0.0
  0
MTEXT
  5
442
330
435
100
AcDbEntity
  8
SK2
 62
     7
100
AcDbMText
 10
44.75700736209938
 20
-2.284999999999989
 30
0.0
 40
4.57
 41
0.0
 71
     5
 72
     1
  1
\A1;ø23.9-31.1
  7
GENPRESET
 11
0.0000000000000001
 21
1.0
 31
0.0
 73
     1
 44
1.0
  0
POINT
  5
443
330
435
100
AcDbEntity
  8
Defpoints
 62
     0
100
AcDbPoint
 10
39.99994397087499
 20
11.95
 30
0.0
  0
POINT
  5
444
330
435
100
AcDbEntity
  8
Defpoints
 62
     0
100
AcDbPoint
 10
39.99994397087499
 20
-11.94999999999999
 30
0.0
  0
POINT
  5
445
330
435
100
AcDbEntity
  8
Defpoints
 62
     0
100
AcDbPoint
 10
48.54200736209938
 20
-11.94999999999999
 30
0.0
  0
ENDBLK
  5
43E
330
435
100
AcDbEntity
  8
0
100
AcDbBlockEnd
  0
BLOCK
  5
494
330
48A
100
AcDbEntity
  8
0
100
AcDbBlockBegin
  2
*D7
 70
     1
 10
0.0
 20
0.0
 30
0.0
  3
*D7
  1

  0
LINE
  5
48B
330
48A
100
AcDbEntity
  8
VERMASSUNG
 62
     0
370
    -2
100
AcDbLine
 10
129.7599624652999
 20
118.4207422387999
 30
0.0
 11
129.7599624652999
 21
131.47329334735
 31
0.0
  0
LINE
  5
48C
330
48A
100
AcDbEntity
  8
VERMASSUNG
 62
     0
370
    -2
100
AcDbLine
 10
94.1099624653
 20
126.1657422387999
 30
0.0
 11
94.1099624653
 21
131.47329334735
 31
0.0
  0
LINE
  5
48D
330
48A
100
AcDbEntity
  8
VERMASSUNG
 62
     0
370
    -2
100
AcDbLine
 10
126.7599624652999
 20
130.47329334735
 30
0.0
 11
97.10996246530001
 21
130.47329334735
 31
0.0
  0
SOLID
  5
48E
330
48A
100
AcDbEntity
  8
VERMASSUNG
 62
     0
100
AcDbTrace
 10
126.7599624652999
 20
130.9732933473499
 30
0.0
 11
126.7599624652999
 21
129.9732933473499
 31
0.0
 12
129.7599624652999
 22
130.47329334735
 32
0.0
 13
129.7599624652999
 23
130.47329334735
 33
0.0
  0
SOLID
  5
48F
330
48A
100
AcDbEntity
  8
VERMASSUNG
 62
     0
100
AcDbTrace
 10
97.10996246530001
 20
130.9732933473499
 30
0.0
 11
97.10996246530001
 21
129.9732933473499
 31
0.0
 12
94.1099624653
 22
130.47329334735
 32
0.0
 13
94.1099624653
 23
130.47329334735
 33
0.0
  0
MTEXT
  5
490
330
48A
100
AcDbEntity
  8
VERMASSUNG
 62
     0
100
AcDbMText
 10
109.2349624653
 20
133.9972933473499
 30
0.0
 40
2.0
 41
0.0
 71
     1
 72
     1
  1
\A1;17.83
  7
SLDTEXTSTYLE0
 73
     1
 44
1.0
  0
POINT
  5
491
330
48A
100
AcDbEntity
  8
Defpoints
 62
     0
100
AcDbPoint
 10
129.7599624652999
 20
118.4207422387999
 30
0.0
  0
POINT
  5
492
330
48A
100
AcDbEntity
  8
Defpoints
 62
     0
100
AcDbPoint
 10
94.1099624653
 20
126.1657422387999
 30
0.0
  0
POINT
  5
493
330
48A
100
AcDbEntity
  8
Defpoints
 62
     0
100
AcDbPoint
 10
94.1099624653
 20
130.47329334735
 30
0.0
  0
ENDBLK
  5
495
330
48A
100
AcDbEntity
  8
0
100
AcDbBlockEnd
  0
BLOCK
  5
4A0
330
496
100
AcDbEntity
  8
0
100
AcDbBlockBegin
  2
*D8
 70
     1
 10
0.0
 20
0.0
 30
0.0
  3
*D8
  1

  0
LINE
  5
497
330
496
100
AcDbEntity
  8
VERMASSUNG
 62
     0
370
    -2
100
AcDbLine
 10
94.1099624653
 20
126.1657422387999
 30
0.0
 11
94.1099624653
 21
134.4732933473499
 31
0.0
  0
LINE
  5
498
330
496
100
AcDbEntity
  8
VERMASSUNG
 62
     0
370
    -2
100
AcDbLine
 10
140.1099624652997
 20
120.08234397435
 30
0.0
 11
140.1099624652997
 21
134.4732933473499
 31
0.0
  0
LINE
  5
499
330
496
100
AcDbEntity
  8
VERMASSUNG
 62
     0
370
    -2
100
AcDbLine
 10
97.10996246530001
 20
133.4732933473499
 30
0.0
 11
137.1099624652995
 21
133.4732933473499
 31
0.0
  0
SOLID
  5
49A
330
496
100
AcDbEntity
  8
VERMASSUNG
 62
     0
100
AcDbTrace
 10
97.10996246530001
 20
133.9732933473499
 30
0.0
 11
97.10996246530001
 21
132.9732933473499
 31
0.0
 12
94.1099624653
 22
133.4732933473499
 32
0.0
 13
94.1099624653
 23
133.4732933473499
 33
0.0
  0
SOLID
  5
49B
330
496
100
AcDbEntity
  8
VERMASSUNG
 62
     0
100
AcDbTrace
 10
137.1099624652995
 20
133.9732933473499
 30
0.0
 11
137.1099624652995
 21
132.9732933473499
 31
0.0
 12
140.1099624652997
 22
133.4732933473499
 32
0.0
 13
140.1099624652997
 23
133.4732933473499
 33
0.0
  0
MTEXT
  5
49C
330
496
100
AcDbEntity
  8
VERMASSUNG
 62
     0
100
AcDbMText
 10
114.2099624653
 20
136.99729334735
 30
0.0
 40
2.0
 41
0.0
 71
     1
 72
     1
  1
\A1;23.00
  7
SLDTEXTSTYLE0
 73
     1
 44
1.0
  0
POINT
  5
49D
330
496
100
AcDbEntity
  8
Defpoints
 62
     0
100
AcDbPoint
 10
94.1099624653
 20
126.1657422387999
 30
0.0
  0
POINT
  5
49E
330
496
100
AcDbEntity
  8
Defpoints
 62
     0
100
AcDbPoint
 10
140.1099624652997
 20
120.08234397435
 30
0.0
  0
POINT
  5
49F
330
496
100
AcDbEntity
  8
Defpoints
 62
     0
100
AcDbPoint
 10
140.1099624652997
 20
133.4732933473499
 30
0.0
  0
ENDBLK
  5
4A1
330
496
100
AcDbEntity
  8
0
100
AcDbBlockEnd
  0
BLOCK
  5
4AC
330
4A2
100
AcDbEntity
  8
0
100
AcDbBlockBegin
  2
*D9
 70
     1
 10
0.0
 20
0.0
 30
0.0
  3
*D9
  1

  0
LINE
  5
4A3
330
4A2
100
AcDbEntity
  8
VERMASSUNG
 62
     0
370
    -2
100
AcDbLine
 10
94.3099624653
 20
126.3657422387999
 30
0.0
 11
76.69506171390003
 21
126.3657422387999
 31
0.0
  0
LINE
  5
4A4
330
4A2
100
AcDbEntity
  8
VERMASSUNG
 62
     0
370
    -2
100
AcDbLine
 10
94.3099624653
 20
101.3657422387999
 30
0.0
 11
76.69506171390003
 21
101.3657422387999
 31
0.0
  0
LINE
  5
4A5
330
4A2
100
AcDbEntity
  8
VERMASSUNG
 62
     0
370
    -2
100
AcDbLine
 10
77.69506171390003
 20
123.3657422387999
 30
0.0
 11
77.69506171390003
 21
104.3657422387999
 31
0.0
  0
SOLID
  5
4A6
330
4A2
100
AcDbEntity
  8
VERMASSUNG
 62
     0
100
AcDbTrace
 10
77.19506171390003
 20
123.3657422387999
 30
0.0
 11
78.19506171390003
 21
123.3657422387999
 31
0.0
 12
77.69506171390003
 22
126.3657422387999
 32
0.0
 13
77.69506171390003
 23
126.3657422387999
 33
0.0
  0
SOLID
  5
4A7
330
4A2
100
AcDbEntity
  8
VERMASSUNG
 62
     0
100
AcDbTrace
 10
77.19506171390003
 20
104.3657422387999
 30
0.0
 11
78.19506171390003
 21
104.3657422387999
 31
0.0
 12
77.69506171390003
 22
101.3657422387999
 32
0.0
 13
77.69506171390003
 23
101.3657422387999
 33
0.0
  0
MTEXT
  5
4A8
330
4A2
100
AcDbEntity
  8
VERMASSUNG
 62
     0
100
AcDbMText
 10
62.5710617139
 20
114.8664998145574
 30
0.0
 40
2.0
 41
0.0
 71
     1
 72
     1
  1
\A1;MBM %%c12.50
  7
SLDTEXTSTYLE0
 73
     1
 44
1.0
  0
POINT
  5
4A9
330
4A2
100
AcDbEntity
  8
Defpoints
 62
     0
100
AcDbPoint
 10
94.3099624653
 20
126.3657422387999
 30
0.0
  0
POINT
  5
4AA
330
4A2
100
AcDbEntity
  8
Defpoints
 62
     0
100
AcDbPoint
 10
94.3099624653
 20
101.3657422387999
 30
0.0
  0
POINT
  5
4AB
330
4A2
100
AcDbEntity
  8
Defpoints
 62
     0
100
AcDbPoint
 10
77.69506171390003
 20
101.3657422387999
 30
0.0
  0
ENDBLK
  5
4AD
330
4A2
100
AcDbEntity
  8
0
100
AcDbBlockEnd
  0
BLOCK
  5
4B7
330
4AE
100
AcDbEntity
  8
0
100
AcDbBlockBegin
  2
SW_CENTERMARKSYMBOL_0
 70
     0
 10
0.0
 20
0.0
 30
0.0
  3
SW_CENTERMARKSYMBOL_0
  1

  0
LINE
  5
4AF
330
4AE
100
AcDbEntity
  8
VERMASSUNG
100
AcDbLine
 10
0.0
 20
0.0
 30
0.0
 11
0.0
 21
5.0
 31
0.0
  0
LINE
  5
4B0
330
4AE
100
AcDbEntity
  8
VERMASSUNG
100
AcDbLine
 10
0.0
 20
0.0
 30
0.0
 11
-5.0
 21
0.0
 31
0.0
  0
LINE
  5
4B1
330
4AE
100
AcDbEntity
  8
VERMASSUNG
100
AcDbLine
 10
0.0
 20
0.0
 30
0.0
 11
0.0
 21
-5.0
 31
0.0
  0
LINE
  5
4B2
330
4AE
100
AcDbEntity
  8
VERMASSUNG
100
AcDbLine
 10
0.0
 20
0.0
 30
0.0
 11
5.0
 21
0.0
 31
0.0
  0
LINE
  5
4B3
330
4AE
100
AcDbEntity
  8
VERMASSUNG
100
AcDbLine
 10
0.0
 20
5.0
 30
0.0
 11
0.0
 21
9.109999999999999
 31
0.0
  0
LINE
  5
4B4
330
4AE
100
AcDbEntity
  8
VERMASSUNG
100
AcDbLine
 10
-5.0
 20
0.0
 30
0.0
 11
-9.109999999999999
 21
0.0
 31
0.0
  0
LINE
  5
4B5
330
4AE
100
AcDbEntity
  8
VERMASSUNG
100
AcDbLine
 10
0.0
 20
-5.0
 30
0.0
 11
0.0
 21
-9.109999999999999
 31
0.0
  0
LINE
  5
4B6
330
4AE
100
AcDbEntity
  8
VERMASSUNG
100
AcDbLine
 10
5.0
 20
0.0
 30
0.0
 11
9.109999999999999
 21
0.0
 31
0.0
  0
ENDBLK
  5
4B8
330
4AE
100
AcDbEntity
  8
0
100
AcDbBlockEnd
  0
BLOCK
  5
933
330
929
100
AcDbEntity
  8
0
100
AcDbBlockBegin
  2
*D11
 70
     1
 10
0.0
 20
0.0
 30
0.0
  3
*D11
  1

  0
LINE
  5
94D
330
929
100
AcDbEntity
  8
VERMASSUNG
 62
     0
370
    -2
100
AcDbLine
 10
0.2000000000000028
 20
12.49999999999998
 30
0.0
 11
-17.41490075139999
 21
12.49999999999999
 31
0.0
  0
LINE
  5
94E
330
929
100
AcDbEntity
  8
VERMASSUNG
 62
     0
370
    -2
100
AcDbLine
 10
0.2000000000000028
 20
-12.5
 30
0.0
 11
-17.4149007514
 21
-12.49999999999999
 31
0.0
  0
LINE
  5
94F
330
929
100
AcDbEntity
  8
VERMASSUNG
 62
     0
370
    -2
100
AcDbLine
 10
-16.41490075139999
 20
9.499999999999991
 30
0.0
 11
-16.4149007514
 21
-9.499999999999994
 31
0.0
  0
SOLID
  5
950
330
929
100
AcDbEntity
  8
VERMASSUNG
 62
     0
100
AcDbTrace
 10
-16.91490075139999
 20
9.499999999999991
 30
0.0
 11
-15.91490075139998
 21
9.499999999999991
 31
0.0
 12
-16.41490075139999
 22
12.49999999999999
 32
0.0
 13
-16.41490075139999
 23
12.49999999999999
 33
0.0
  0
SOLID
  5
951
330
929
100
AcDbEntity
  8
VERMASSUNG
 62
     0
100
AcDbTrace
 10
-16.9149007514
 20
-9.499999999999994
 30
0.0
 11
-15.9149007514
 21
-9.499999999999994
 31
0.0
 12
-16.4149007514
 22
-12.49999999999999
 32
0.0
 13
-16.4149007514
 23
-12.49999999999999
 33
0.0
  0
MTEXT
  5
952
330
929
100
AcDbEntity
  8
VERMASSUNG
 62
     0
100
AcDbMText
 10
-31.53890075139999
 20
1.000757575757574
 30
0.0
 40
2.0
 41
0.0
 71
     1
 72
     1
  1
\A1;MBM %%c12.50
  7
SLDTEXTSTYLE0
 73
     1
 44
1.0
  0
POINT
  5
953
330
929
100
AcDbEntity
  8
Defpoints
 62
     0
100
AcDbPoint
 10
0.2000000000000028
 20
12.49999999999998
 30
0.0
  0
POINT
  5
954
330
929
100
AcDbEntity
  8
Defpoints
 62
     0
100
AcDbPoint
 10
0.2000000000000028
 20
-12.5
 30
0.0
  0
POINT
  5
955
330
929
100
AcDbEntity
  8
Defpoints
 62
     0
100
AcDbPoint
 10
-16.4149007514
 20
-12.49999999999999
 30
0.0
  0
ENDBLK
  5
934
330
929
100
AcDbEntity
  8
0
100
AcDbBlockEnd
  0
BLOCK
  5
93F
330
935
100
AcDbEntity
  8
0
100
AcDbBlockBegin
  2
*D12
 70
     1
 10
0.0
 20
0.0
 30
0.0
  3
*D12
  1

  0
LINE
  5
956
330
935
100
AcDbEntity
  8
VERMASSUNG
 62
     0
370
    -2
100
AcDbLine
 10
35.64999999999999
 20
4.554999999999992
 30
0.0
 11
35.64999999999999
 21
17.60755110854998
 31
0.0
  0
LINE
  5
957
330
935
100
AcDbEntity
  8
VERMASSUNG
 62
     0
370
    -2
100
AcDbLine
 10
0.0
 20
12.29999999999999
 30
0.0
 11
0.0000000000000003
 21
17.60755110854998
 31
0.0
  0
LINE
  5
958
330
935
100
AcDbEntity
  8
VERMASSUNG
 62
     0
370
    -2
100
AcDbLine
 10
32.64999999999999
 20
16.60755110854999
 30
0.0
 11
3.0
 21
16.60755110854999
 31
0.0
  0
SOLID
  5
959
330
935
100
AcDbEntity
  8
VERMASSUNG
 62
     0
100
AcDbTrace
 10
32.64999999999999
 20
17.10755110854999
 30
0.0
 11
32.64999999999999
 21
16.10755110855
 31
0.0
 12
35.64999999999999
 22
16.60755110854999
 32
0.0
 13
35.64999999999999
 23
16.60755110854999
 33
0.0
  0
SOLID
  5
95A
330
935
100
AcDbEntity
  8
VERMASSUNG
 62
     0
100
AcDbTrace
 10
3.0
 20
17.10755110854999
 30
0.0
 11
3.0
 21
16.10755110855
 31
0.0
 12
0.0000000000000003
 22
16.60755110854999
 32
0.0
 13
0.0000000000000003
 23
16.60755110854999
 33
0.0
  0
MTEXT
  5
95B
330
935
100
AcDbEntity
  8
VERMASSUNG
 62
     0
100
AcDbMText
 10
15.125
 20
20.13155110855
 30
0.0
 40
2.0
 41
0.0
 71
     1
 72
     1
  1
\A1;17.83
  7
SLDTEXTSTYLE0
 73
     1
 44
1.0
  0
POINT
  5
95C
330
935
100
AcDbEntity
  8
Defpoints
 62
     0
100
AcDbPoint
 10
35.64999999999999
 20
4.554999999999992
 30
0.0
  0
POINT
  5
95D
330
935
100
AcDbEntity
  8
Defpoints
 62
     0
100
AcDbPoint
 10
0.0
 20
12.29999999999999
 30
0.0
  0
POINT
  5
95E
330
935
100
AcDbEntity
  8
Defpoints
 62
     0
100
AcDbPoint
 10
0.0000000000000003
 20
16.60755110854999
 30
0.0
  0
ENDBLK
  5
940
330
935
100
AcDbEntity
  8
0
100
AcDbBlockEnd
  0
BLOCK
  5
94B
330
941
100
AcDbEntity
  8
0
100
AcDbBlockBegin
  2
*D13
 70
     1
 10
0.0
 20
0.0
 30
0.0
  3
*D13
  1

  0
LINE
  5
A18
330
941
100
AcDbEntity
  8
2
 62
     0
370
    -2
100
AcDbLine
 10
-82.47180419026618
 20
-20.14998903838178
 30
0.0
 11
-82.47180419026618
 21
-10.84243792983176
 31
0.0
  0
LINE
  5
A19
330
941
100
AcDbEntity
  8
2
 62
     0
370
    -2
100
AcDbLine
 10
-36.47180419026619
 20
-26.23338730283176
 30
0.0
 11
-36.47180419026619
 21
-10.84243792983176
 31
0.0
  0
LINE
  5
A1A
330
941
100
AcDbEntity
  8
2
 62
     0
370
    -2
100
AcDbLine
 10
-77.90180419026619
 20
-12.84243792983176
 30
0.0
 11
-41.04180419026619
 21
-12.84243792983176
 31
0.0
  0
SOLID
  5
A1B
330
941
100
AcDbEntity
  8
2
 62
     0
100
AcDbTrace
 10
-77.90180419026619
 20
-12.08077126316511
 30
0.0
 11
-77.90180419026619
 21
-13.60410459649844
 31
0.0
 12
-82.47180419026618
 22
-12.84243792983176
 32
0.0
 13
-82.47180419026618
 23
-12.84243792983176
 33
0.0
  0
SOLID
  5
A1C
330
941
100
AcDbEntity
  8
2
 62
     0
100
AcDbTrace
 10
-41.04180419026619
 20
-12.08077126316511
 30
0.0
 11
-41.04180419026619
 21
-13.60410459649844
 31
0.0
 12
-36.47180419026619
 22
-12.84243792983176
 32
0.0
 13
-36.47180419026619
 23
-12.84243792983176
 33
0.0
  0
MTEXT
  5
A1D
330
941
100
AcDbEntity
  8
2
 62
     7
100
AcDbMText
 10
-59.47180419026615
 20
-9.057437929831783
 30
0.0
 40
4.57
 41
0.0
 71
     5
 72
     1
  1
\A1;46
  7
GENPRESET
 73
     1
 44
1.0
  0
POINT
  5
A1E
330
941
100
AcDbEntity
  8
Defpoints
 62
     0
100
AcDbPoint
 10
-82.47180419026618
 20
-20.14998903838178
 30
0.0
  0
POINT
  5
A1F
330
941
100
AcDbEntity
  8
Defpoints
 62
     0
100
AcDbPoint
 10
-36.47180419026619
 20
-26.23338730283176
 30
0.0
  0
POINT
  5
A20
330
941
100
AcDbEntity
  8
Defpoints
 62
     0
100
AcDbPoint
 10
-36.47180419026619
 20
-12.84243792983176
 30
0.0
  0
ENDBLK
  5
94C
330
941
100
AcDbEntity
  8
0
100
AcDbBlockEnd
  0
BLOCK
  5
972
330
968
100
AcDbEntity
  8
0
 62
     0
100
AcDbBlockBegin
  2
*D14
 70
     1
 10
0.0
 20
0.0
 30
0.0
  3
*D14
  1

  0
LINE
  5
969
330
968
100
AcDbEntity
  8
SK2
 62
     0
370
    -2
100
AcDbLine
 10
0.1999995677999919
 20
12.5
 30
0.0
 11
-19.38169290102023
 21
12.5
 31
0.0
  0
LINE
  5
96A
330
968
100
AcDbEntity
  8
SK2
 62
     0
370
    -2
100
AcDbLine
 10
0.1999995677999919
 20
-12.5
 30
0.0
 11
-19.38169290102023
 21
-12.49999999999999
 31
0.0
  0
LINE
  5
96B
330
968
100
AcDbEntity
  8
SK2
 62
     0
370
    -2
100
AcDbLine
 10
-16.88169290102024
 20
7.930000000000005
 30
0.0
 11
-16.88169290102024
 21
-7.929999999999994
 31
0.0
  0
SOLID
  5
96C
330
968
100
AcDbEntity
  8
SK2
 62
     0
100
AcDbTrace
 10
-17.64335956768691
 20
7.930000000000005
 30
0.0
 11
-16.12002623435357
 21
7.930000000000005
 31
0.0
 12
-16.88169290102024
 22
12.5
 32
0.0
 13
-16.88169290102024
 23
12.5
 33
0.0
  0
SOLID
  5
96D
330
968
100
AcDbEntity
  8
SK2
 62
     0
100
AcDbTrace
 10
-17.64335956768691
 20
-7.929999999999994
 30
0.0
 11
-16.12002623435357
 21
-7.929999999999994
 31
0.0
 12
-16.88169290102024
 22
-12.49999999999999
 32
0.0
 13
-16.88169290102024
 23
-12.49999999999999
 33
0.0
  0
MTEXT
  5
96E
330
968
100
AcDbEntity
  8
SK2
 62
     7
100
AcDbMText
 10
-22.95169290102023
 20
-13.2747619047619
 30
0.0
 40
4.57
 41
0.0
 71
     1
 72
     1
  1
\A1;MBM%%c25
  7
GENPRESET
 11
0.0000000000000001
 21
1.0
 31
0.0
 73
     1
 44
1.0
  0
POINT
  5
96F
330
968
100
AcDbEntity
  8
Defpoints
 62
     0
100
AcDbPoint
 10
0.1999995677999919
 20
12.5
 30
0.0
  0
POINT
  5
970
330
968
100
AcDbEntity
  8
Defpoints
 62
     0
100
AcDbPoint
 10
0.1999995677999919
 20
-12.5
 30
0.0
  0
POINT
  5
971
330
968
100
AcDbEntity
  8
Defpoints
 62
     0
100
AcDbPoint
 10
-16.88169290102024
 20
-12.49999999999999
 30
0.0
  0
ENDBLK
  5
973
330
968
100
AcDbEntity
  8
0
 62
     0
100
AcDbBlockEnd
  0
BLOCK
  5
9FA
330
9F0
100
AcDbEntity
  8
0
100
AcDbBlockBegin
  2
*D15
 70
     1
 10
0.0
 20
0.0
 30
0.0
  3
*D15
  1

  0
LINE
  5
A21
330
9F0
100
AcDbEntity
  8
SK2
 62
     0
370
    -2
100
AcDbLine
 10
-82.2718046224662
 20
-19.94998903838176
 30
0.0
 11
-101.3534970912864
 21
-19.94998903838176
 31
0.0
  0
LINE
  5
A22
330
9F0
100
AcDbEntity
  8
SK2
 62
     0
370
    -2
100
AcDbLine
 10
-82.2718046224662
 20
-44.94998903838178
 30
0.0
 11
-101.3534970912864
 21
-44.94998903838178
 31
0.0
  0
LINE
  5
A23
330
9F0
100
AcDbEntity
  8
SK2
 62
     0
370
    -2
100
AcDbLine
 10
-99.35349709128644
 20
-24.51998903838176
 30
0.0
 11
-99.35349709128644
 21
-40.37998903838177
 31
0.0
  0
SOLID
  5
A24
330
9F0
100
AcDbEntity
  8
SK2
 62
     0
100
AcDbTrace
 10
-100.1151637579529
 20
-24.51998903838176
 30
0.0
 11
-98.59183042461978
 21
-24.51998903838176
 31
0.0
 12
-99.35349709128644
 22
-19.94998903838176
 32
0.0
 13
-99.35349709128644
 23
-19.94998903838176
 33
0.0
  0
SOLID
  5
A25
330
9F0
100
AcDbEntity
  8
SK2
 62
     0
100
AcDbTrace
 10
-100.1151637579529
 20
-40.37998903838177
 30
0.0
 11
-98.59183042461978
 21
-40.37998903838177
 31
0.0
 12
-99.35349709128644
 22
-44.94998903838178
 32
0.0
 13
-99.35349709128644
 23
-44.94998903838178
 33
0.0
  0
MTEXT
  5
A26
330
9F0
100
AcDbEntity
  8
SK2
 62
     7
100
AcDbMText
 10
-103.1384970912864
 20
-32.44998903838178
 30
0.0
 40
4.57
 41
0.0
 71
     5
 72
     1
  1
\A1;MBM%%c25
  7
GENPRESET
 11
0.0000000000000001
 21
1.0
 31
0.0
 73
     1
 44
1.0
  0
POINT
  5
A27
330
9F0
100
AcDbEntity
  8
Defpoints
 62
     0
100
AcDbPoint
 10
-82.2718046224662
 20
-19.94998903838176
 30
0.0
  0
POINT
  5
A28
330
9F0
100
AcDbEntity
  8
Defpoints
 62
     0
100
AcDbPoint
 10
-82.2718046224662
 20
-44.94998903838178
 30
0.0
  0
POINT
  5
A29
330
9F0
100
AcDbEntity
  8
Defpoints
 62
     0
100
AcDbPoint
 10
-99.35349709128644
 20
-44.94998903838178
 30
0.0
  0
ENDBLK
  5
9FB
330
9F0
100
AcDbEntity
  8
0
100
AcDbBlockEnd
  0
BLOCK
  5
A31
330
A2A
100
AcDbEntity
  8
0
100
AcDbBlockBegin
  2
*D16
 70
     1
 10
0.0
 20
0.0
 30
0.0
  3
*D16
  1

  0
SOLID
  5
A2B
330
A2A
100
AcDbEntity
  8
VERMASSUNG
100
AcDbTrace
 10
110.6236652977
 20
141.7779015398999
 30
0.0
 11
113.6236652977
 21
141.3279015399
 31
0.0
 12
113.6236652977
 22
142.2279015398999
 32
0.0
 13
113.6236652977
 23
142.2279015398999
 33
0.0
  0
SOLID
  5
A2C
330
A2A
100
AcDbEntity
  8
VERMASSUNG
100
AcDbTrace
 10
158.7736652977
 20
141.7779015398999
 30
0.0
 11
155.7736652976999
 21
142.2279015398999
 31
0.0
 12
155.7736652976999
 22
141.3279015399
 32
0.0
 13
155.7736652976999
 23
141.3279015399
 33
0.0
  0
LINE
  5
A2D
330
A2A
100
AcDbEntity
  8
VERMASSUNG
100
AcDbLine
 10
110.6236652977
 20
136.2513347022999
 30
0.0
 11
110.6236652977
 21
142.7779015398999
 31
0.0
  0
LINE
  5
A2E
330
A2A
100
AcDbEntity
  8
VERMASSUNG
100
AcDbLine
 10
158.7736652977
 20
136.2513347022999
 30
0.0
 11
158.7736652977
 21
142.7779015398999
 31
0.0
  0
LINE
  5
A2F
330
A2A
100
AcDbEntity
  8
VERMASSUNG
100
AcDbLine
 10
110.6236652977
 20
141.7779015398999
 30
0.0
 11
158.7736652977
 21
141.7779015398999
 31
0.0
  0
MTEXT
  5
A30
330
A2A
100
AcDbEntity
  8
VERMASSUNG
100
AcDbMText
 10
131.6988128336999
 20
144.3779016563
 30
0.0
 40
2.0
 41
0.0
 71
     1
 72
     1
  1
{48.15}
  7
SLDTEXTSTYLE0
 73
     1
 44
1.0
  0
ENDBLK
  5
A32
330
A2A
100
AcDbEntity
  8
0
100
AcDbBlockEnd
  0
BLOCK
  5
A3A
330
A33
100
AcDbEntity
  8
0
100
AcDbBlockBegin
  2
*D17
 70
     1
 10
0.0
 20
0.0
 30
0.0
  3
*D17
  1

  0
SOLID
  5
A34
330
A33
100
AcDbEntity
  8
VERMASSUNG
100
AcDbTrace
 10
110.6236652977
 20
147.7779015399
 30
0.0
 11
113.6236652977
 21
147.3279015399
 31
0.0
 12
113.6236652977
 22
148.2279015398999
 32
0.0
 13
113.6236652977
 23
148.2279015398999
 33
0.0
  0
SOLID
  5
A35
330
A33
100
AcDbEntity
  8
VERMASSUNG
100
AcDbTrace
 10
171.6236652977
 20
147.7779015399
 30
0.0
 11
168.6236652977
 21
148.2279015398999
 31
0.0
 12
168.6236652977
 22
147.3279015399
 32
0.0
 13
168.6236652977
 23
147.3279015399
 33
0.0
  0
LINE
  5
A36
330
A33
100
AcDbEntity
  8
VERMASSUNG
100
AcDbLine
 10
110.6236652977
 20
136.2513347022999
 30
0.0
 11
110.6236652977
 21
148.7779015399
 31
0.0
  0
LINE
  5
A37
330
A33
100
AcDbEntity
  8
VERMASSUNG
100
AcDbLine
 10
171.6236652977
 20
129.3679364378
 30
0.0
 11
171.6236652977
 21
148.7779015399
 31
0.0
  0
LINE
  5
A38
330
A33
100
AcDbEntity
  8
VERMASSUNG
100
AcDbLine
 10
110.6236652977
 20
147.7779015399
 30
0.0
 11
171.6236652977
 21
147.7779015399
 31
0.0
  0
MTEXT
  5
A39
330
A33
100
AcDbEntity
  8
VERMASSUNG
100
AcDbMText
 10
139.9246573922
 20
150.3779016563
 30
0.0
 40
2.0
 41
0.0
 71
     1
 72
     1
  1
{61}
  7
SLDTEXTSTYLE0
 73
     1
 44
1.0
  0
ENDBLK
  5
A3B
330
A33
100
AcDbEntity
  8
0
100
AcDbBlockEnd
  0
BLOCK
  5
A45
330
A3C
100
AcDbEntity
  8
0
100
AcDbBlockBegin
  2
*D18
 70
     1
 10
0.0
 20
0.0
 30
0.0
  3
*D18
  1

  0
SOLID
  5
A3D
330
A3C
100
AcDbEntity
  8
VERMASSUNG
100
AcDbTrace
 10
88.4973261676
 20
136.5513347022998
 30
0.0
 11
88.0473261676
 21
133.5513347022998
 31
0.0
 12
88.9473261676
 22
133.5513347022998
 32
0.0
 13
88.9473261676
 23
133.5513347022998
 33
0.0
  0
SOLID
  5
A3E
330
A3C
100
AcDbEntity
  8
VERMASSUNG
100
AcDbTrace
 10
88.4973261676
 20
104.5513347023
 30
0.0
 11
88.9473261676
 21
107.5513347023
 31
0.0
 12
88.0473261676
 22
107.5513347023
 32
0.0
 13
88.0473261676
 23
107.5513347023
 33
0.0
  0
LINE
  5
A3F
330
A3C
100
AcDbEntity
  8
VERMASSUNG
100
AcDbLine
 10
110.9236652976999
 20
136.5513347022998
 30
0.0
 11
87.49732616760002
 21
136.5513347022998
 31
0.0
  0
LINE
  5
A40
330
A3C
100
AcDbEntity
  8
VERMASSUNG
100
AcDbLine
 10
110.9236652976999
 20
104.5513347023
 30
0.0
 11
87.49732616760002
 21
104.5513347023
 31
0.0
  0
LINE
  5
A41
330
A3C
100
AcDbEntity
  8
VERMASSUNG
100
AcDbLine
 10
88.4973261676
 20
136.5513347022998
 30
0.0
 11
88.4973261676
 21
104.5513347023
 31
0.0
  0
MTEXT
  5
A42
330
A3C
100
AcDbEntity
  8
VERMASSUNG
100
AcDbMText
 10
85.69732639100001
 20
114.1472950719
 30
0.0
 40
2.0
 41
0.0
 71
     1
 72
     1
  1
{MBM }
  7
SLDTEXTSTYLE0
 11
-0.000000000000007
 21
1.0
 31
0.0
 73
     1
 44
1.0
  0
MTEXT
  5
A43
330
A3C
100
AcDbEntity
  8
VERMASSUNG
100
AcDbMText
 10
85.8973263422
 20
120.5472949102
 30
0.0
 40
2.0
 41
0.0
 71
     1
 72
     1
  1
{%%c}
  7
SLDTEXTSTYLE0
 11
-0.000000000000007
 21
1.0
 31
0.0
 73
     1
 44
1.0
  0
MTEXT
  5
A44
330
A3C
100
AcDbEntity
  8
VERMASSUNG
100
AcDbMText
 10
85.8973260512
 20
124.1561340862
 30
0.0
 40
2.0
 41
0.0
 71
     1
 72
     1
  1
{32}
  7
SLDTEXTSTYLE0
 11
-0.000000000000007
 21
1.0
 31
0.0
 73
     1
 44
1.0
  0
ENDBLK
  5
A46
330
A3C
100
AcDbEntity
  8
0
100
AcDbBlockEnd
  0
BLOCK
  5
E0F
330
E05
100
AcDbEntity
  8
0
100
AcDbBlockBegin
  2
*D19
 70
     1
 10
0.0
 20
0.0
 30
0.0
  3
*D19
  1

  0
LINE
  5
EE3
330
E05
100
AcDbEntity
  8
SK2
 62
     0
370
    -2
100
AcDbLine
 10
-103.0000672613285
 20
-37.45747363963453
 30
0.0
 11
-127.4264063914285
 21
-37.45747363963452
 31
0.0
  0
LINE
  5
EE4
330
E05
100
AcDbEntity
  8
SK2
 62
     0
370
    -2
100
AcDbLine
 10
-103.0000672613285
 20
-69.45747363963453
 30
0.0
 11
-127.4264063914285
 21
-69.45747363963453
 31
0.0
  0
LINE
  5
EE5
330
E05
100
AcDbEntity
  8
SK2
 62
     0
370
    -2
100
AcDbLine
 10
-125.4264063914285
 20
-42.02747363963452
 30
0.0
 11
-125.4264063914285
 21
-64.88747363963452
 31
0.0
  0
SOLID
  5
EE6
330
E05
100
AcDbEntity
  8
SK2
 62
     0
100
AcDbTrace
 10
-126.1880730580952
 20
-42.02747363963452
 30
0.0
 11
-124.6647397247619
 21
-42.02747363963452
 31
0.0
 12
-125.4264063914285
 22
-37.45747363963452
 32
0.0
 13
-125.4264063914285
 23
-37.45747363963452
 33
0.0
  0
SOLID
  5
EE7
330
E05
100
AcDbEntity
  8
SK2
 62
     0
100
AcDbTrace
 10
-126.1880730580952
 20
-64.88747363963452
 30
0.0
 11
-124.6647397247619
 21
-64.88747363963452
 31
0.0
 12
-125.4264063914285
 22
-69.45747363963453
 32
0.0
 13
-125.4264063914285
 23
-69.45747363963453
 33
0.0
  0
MTEXT
  5
EE8
330
E05
100
AcDbEntity
  8
SK2
 62
     7
100
AcDbMText
 10
-129.2114063914286
 20
-53.45747363963454
 30
0.0
 40
4.57
 41
0.0
 71
     5
 72
     1
  1
\A1;MBM %%c32
  7
GENPRESET
 11
0.0000000000000001
 21
1.0
 31
0.0
 73
     1
 44
1.0
  0
POINT
  5
EE9
330
E05
100
AcDbEntity
  8
Defpoints
 62
     0
100
AcDbPoint
 10
-103.0000672613285
 20
-37.45747363963453
 30
0.0
  0
POINT
  5
EEA
330
E05
100
AcDbEntity
  8
Defpoints
 62
     0
100
AcDbPoint
 10
-103.0000672613285
 20
-69.45747363963453
 30
0.0
  0
POINT
  5
EEB
330
E05
100
AcDbEntity
  8
Defpoints
 62
     0
100
AcDbPoint
 10
-125.4264063914285
 20
-69.45747363963453
 30
0.0
  0
ENDBLK
  5
E10
330
E05
100
AcDbEntity
  8
0
100
AcDbBlockEnd
  0
BLOCK
  5
E1B
330
E11
100
AcDbEntity
  8
0
100
AcDbBlockBegin
  2
*D20
 70
     1
 10
0.0
 20
0.0
 30
0.0
  3
*D20
  1

  0
LINE
  5
EDA
330
E11
100
AcDbEntity
  8
2
 62
     0
370
    -2
100
AcDbLine
 10
-103.3000672613286
 20
-37.75747363963451
 30
0.0
 11
-103.3000672613286
 21
-24.23090680203451
 31
0.0
  0
LINE
  5
EDB
330
E11
100
AcDbEntity
  8
2
 62
     0
370
    -2
100
AcDbLine
 10
-42.30006726132861
 20
-44.6408719041345
 30
0.0
 11
-42.30006726132861
 21
-24.23090680203451
 31
0.0
  0
LINE
  5
EDC
330
E11
100
AcDbEntity
  8
2
 62
     0
370
    -2
100
AcDbLine
 10
-98.73006726132864
 20
-26.23090680203451
 30
0.0
 11
-46.87006726132862
 21
-26.23090680203451
 31
0.0
  0
SOLID
  5
EDD
330
E11
100
AcDbEntity
  8
2
 62
     0
100
AcDbTrace
 10
-98.73006726132864
 20
-25.46924013536784
 30
0.0
 11
-98.73006726132864
 21
-26.99257346870117
 31
0.0
 12
-103.3000672613286
 22
-26.23090680203451
 32
0.0
 13
-103.3000672613286
 23
-26.23090680203451
 33
0.0
  0
SOLID
  5
EDE
330
E11
100
AcDbEntity
  8
2
 62
     0
100
AcDbTrace
 10
-46.87006726132862
 20
-25.46924013536784
 30
0.0
 11
-46.87006726132862
 21
-26.99257346870117
 31
0.0
 12
-42.30006726132861
 22
-26.23090680203451
 32
0.0
 13
-42.30006726132861
 23
-26.23090680203451
 33
0.0
  0
MTEXT
  5
EDF
330
E11
100
AcDbEntity
  8
2
 62
     7
100
AcDbMText
 10
-72.80006726132862
 20
-22.4459068020345
 30
0.0
 40
4.57
 41
0.0
 71
     5
 72
     1
  1
\A1;61
  7
GENPRESET
 73
     1
 44
1.0
  0
POINT
  5
EE0
330
E11
100
AcDbEntity
  8
Defpoints
 62
     0
100
AcDbPoint
 10
-103.3000672613286
 20
-37.75747363963451
 30
0.0
  0
POINT
  5
EE1
330
E11
100
AcDbEntity
  8
Defpoints
 62
     0
100
AcDbPoint
 10
-42.30006726132861
 20
-44.6408719041345
 30
0.0
  0
POINT
  5
EE2
330
E11
100
AcDbEntity
  8
Defpoints
 62
     0
100
AcDbPoint
 10
-42.30006726132861
 20
-26.23090680203451
 30
0.0
  0
ENDBLK
  5
E1C
330
E11
100
AcDbEntity
  8
0
100
AcDbBlockEnd
  0
BLOCK
  5
E27
330
E1D
100
AcDbEntity
  8
0
100
AcDbBlockBegin
  2
*D21
 70
     1
 10
0.0
 20
0.0
 30
0.0
  3
*D21
  1

  0
LINE
  5
E3B
330
E1D
100
AcDbEntity
  8
VERMASSUNG
 62
     0
370
    -2
100
AcDbLine
 10
0.0
 20
15.7
 30
0.0
 11
0.0000000000000004
 21
22.2265668376
 31
0.0
  0
LINE
  5
E3C
330
E1D
100
AcDbEntity
  8
VERMASSUNG
 62
     0
370
    -2
100
AcDbLine
 10
48.15000000000001
 20
15.7
 30
0.0
 11
48.15000000000001
 21
22.2265668376
 31
0.0
  0
LINE
  5
E3D
330
E1D
100
AcDbEntity
  8
VERMASSUNG
 62
     0
370
    -2
100
AcDbLine
 10
3.0
 20
21.2265668376
 30
0.0
 11
45.14999999999999
 21
21.2265668376
 31
0.0
  0
SOLID
  5
E3E
330
E1D
100
AcDbEntity
  8
VERMASSUNG
 62
     0
100
AcDbTrace
 10
3.0
 20
21.7265668376
 30
0.0
 11
3.0
 21
20.7265668376
 31
0.0
 12
0.0000000000000003
 22
21.2265668376
 32
0.0
 13
0.0000000000000003
 23
21.2265668376
 33
0.0
  0
SOLID
  5
E3F
330
E1D
100
AcDbEntity
  8
VERMASSUNG
 62
     0
100
AcDbTrace
 10
45.14999999999999
 20
21.7265668376
 30
0.0
 11
45.14999999999999
 21
20.7265668376
 31
0.0
 12
48.15000000000001
 22
21.2265668376
 32
0.0
 13
48.15000000000001
 23
21.2265668376
 33
0.0
  0
MTEXT
  5
E40
330
E1D
100
AcDbEntity
  8
VERMASSUNG
 62
     0
100
AcDbMText
 10
21.27500000000001
 20
24.7505668376
 30
0.0
 40
2.0
 41
0.0
 71
     1
 72
     1
  1
\A1;48.15
  7
SLDTEXTSTYLE0
 73
     1
 44
1.0
  0
POINT
  5
E41
330
E1D
100
AcDbEntity
  8
Defpoints
 62
     0
100
AcDbPoint
 10
0.0
 20
15.7
 30
0.0
  0
POINT
  5
E42
330
E1D
100
AcDbEntity
  8
Defpoints
 62
     0
100
AcDbPoint
 10
48.15000000000001
 20
15.7
 30
0.0
  0
POINT
  5
E43
330
E1D
100
AcDbEntity
  8
Defpoints
 62
     0
100
AcDbPoint
 10
48.15000000000001
 20
21.2265668376
 30
0.0
  0
ENDBLK
  5
E28
330
E1D
100
AcDbEntity
  8
0
100
AcDbBlockEnd
  0
BLOCK
  5
E92
330
E57
100
AcDbEntity
  8
0
100
AcDbBlockBegin
  2
A$C2CBA1DD3
 70
     0
 10
0.0
 20
0.0
 30
0.0
  3
A$C2CBA1DD3
  1

  0
LINE
  5
E58
330
E57
100
AcDbEntity
  8
1
100
AcDbLine
 10
0.0
 20
-15.7
 30
0.0
 11
0.0
 21
15.7
 31
0.0
  0
LINE
  5
E59
330
E57
100
AcDbEntity
  8
SK1
100
AcDbLine
 10
-4.562004200450018
 20
9.0
 30
0.0
 11
-15.0
 21
9.0
 31
0.0
  0
LINE
  5
E5A
330
E57
100
AcDbEntity
  8
SK1
100
AcDbLine
 10
-15.0
 20
-9.0
 30
0.0
 11
-4.562004200450018
 21
-9.0
 31
0.0
  0
LINE
  5
E5B
330
E57
100
AcDbEntity
  8
SK4
100
AcDbLine
 10
0.0
 20
0.0
 30
0.0
 11
-18.0
 21
0.0
 31
0.0
  0
LINE
  5
E5C
330
E57
100
AcDbEntity
  8
SK3
100
AcDbLine
 10
0.0
 20
4.25
 30
0.0
 11
-14.7489234805
 21
4.249999999999999
 31
0.0
  0
LINE
  5
E5D
330
E57
100
AcDbEntity
  8
SK3
100
AcDbLine
 10
-14.7489234805
 20
-4.249999999999999
 30
0.0
 11
0.0
 21
-4.25
 31
0.0
  0
LINE
  5
E5E
330
E57
100
AcDbEntity
  8
SK3
100
AcDbLine
 10
-15.499999281
 20
-5.499999970199993
 30
0.0
 11
-15.499999281
 21
5.499999970200008
 31
0.0
  0
LINE
  5
E5F
330
E57
100
AcDbEntity
  8
SK3
100
AcDbLine
 10
-14.7489234805
 20
-4.250000231000001
 30
0.0
 11
-14.7489234805
 21
4.250000230899997
 31
0.0
  0
LINE
  5
E60
330
E57
100
AcDbEntity
  8
SK1
100
AcDbLine
 10
-15.0
 20
-9.0
 30
0.0
 11
-15.0
 21
9.0
 31
0.0
  0
LINE
  5
E61
330
E57
100
AcDbEntity
  8
SK1
100
AcDbLine
 10
-18.0
 20
-8.299999999999997
 30
0.0
 11
-18.0
 21
8.299999999999997
 31
0.0
  0
ARC
  5
E62
330
E57
100
AcDbEntity
  8
SK1
100
AcDbCircle
 10
-17.4
 20
-8.299999999999997
 30
0.0
 40
0.6000000000000015
100
AcDbArc
 50
180.0
 51
280.0
  0
LINE
  5
E63
330
E57
100
AcDbEntity
  8
SK1
100
AcDbLine
 10
-16.55916554539999
 20
-8.78087357279999
 30
0.0
 11
-15.0
 21
-9.0
 31
0.0
  0
ARC
  5
E64
330
E57
100
AcDbEntity
  8
SK1
100
AcDbCircle
 10
-16.6148347858
 20
-9.176980800299999
 30
0.0
 40
0.4000000000000077
100
AcDbArc
 50
81.99999999999922
 51
100.0
  0
LINE
  5
E65
330
E57
100
AcDbEntity
  8
SK1
100
AcDbLine
 10
-17.29581109339999
 20
-8.890884651799991
 30
0.0
 11
-16.68429405684999
 21
-8.783057699099996
 31
0.0
  0
ARC
  5
E66
330
E57
100
AcDbEntity
  8
SK3
100
AcDbCircle
 10
-17.49999922509999
 20
-6.0
 30
0.0
 40
0.5
100
AcDbArc
 50
90.0
 51
180.0
  0
LINE
  5
E67
330
E57
100
AcDbEntity
  8
SK3
100
AcDbLine
 10
-15.499999281
 20
-5.499999970199993
 30
0.0
 11
-14.7489234805
 21
-4.250000231000001
 31
0.0
  0
LINE
  5
E68
330
E57
100
AcDbEntity
  8
SK3
100
AcDbLine
 10
-17.49999920140001
 20
-5.499999970199993
 30
0.0
 11
-15.499999281
 21
-5.499999970199993
 31
0.0
  0
ARC
  5
E69
330
E57
100
AcDbEntity
  8
SK3
100
AcDbCircle
 10
-17.49999922509999
 20
6.0
 30
0.0
 40
0.5
100
AcDbArc
 50
180.0
 51
270.0
  0
LINE
  5
E6A
330
E57
100
AcDbEntity
  8
SK3
100
AcDbLine
 10
-14.7489234805
 20
4.250000230899997
 30
0.0
 11
-15.499999281
 21
5.499999970200008
 31
0.0
  0
LINE
  5
E6B
330
E57
100
AcDbEntity
  8
SK3
100
AcDbLine
 10
-15.499999281
 20
5.499999970200008
 30
0.0
 11
-17.49999920140001
 21
5.499999970200008
 31
0.0
  0
ARC
  5
E6C
330
E57
100
AcDbEntity
  8
SK1
100
AcDbCircle
 10
-17.4
 20
8.299999999999997
 30
0.0
 40
0.6000000000000015
100
AcDbArc
 50
79.9999999999998
 51
180.0
  0
LINE
  5
E6D
330
E57
100
AcDbEntity
  8
SK1
100
AcDbLine
 10
-15.0
 20
9.0
 30
0.0
 11
-16.55916554539999
 21
8.780873572849996
 31
0.0
  0
ARC
  5
E6E
330
E57
100
AcDbEntity
  8
SK1
100
AcDbCircle
 10
-16.6148347858
 20
9.176980800299999
 30
0.0
 40
0.4000000000000006
100
AcDbArc
 50
259.9999999999998
 51
278.0000000000006
  0
LINE
  5
E6F
330
E57
100
AcDbEntity
  8
SK1
100
AcDbLine
 10
-16.68429405684999
 20
8.783057699099996
 30
0.0
 11
-17.29581109339999
 21
8.890884651799991
 31
0.0
  0
ARC
  5
E70
330
E57
100
AcDbEntity
  8
1
100
AcDbCircle
 10
0.3000000000000114
 20
-15.7
 30
0.0
 40
0.2999999999999971
100
AcDbArc
 50
180.0
 51
270.0
  0
LINE
  5
E71
330
E57
100
AcDbEntity
  8
SK1
100
AcDbLine
 10
-0.1500000000000057
 20
6.714596780950002
 30
0.0
 11
-0.1500000000000057
 21
-6.714596780900007
 31
0.0
  0
LINE
  5
E72
330
E57
100
AcDbEntity
  8
3
100
AcDbLine
 10
0.3499999999999943
 20
-12.22500000000001
 30
0.0
 11
0.3499999999999943
 21
12.22500000000001
 31
0.0
  0
LINE
  5
E73
330
E57
100
AcDbEntity
  8
SK1
100
AcDbLine
 10
-2.949999999999988
 20
-11.975
 30
0.0
 11
-2.949999999999988
 21
11.975
 31
0.0
  0
LINE
  5
E74
330
E57
100
AcDbEntity
  8
SK1
100
AcDbLine
 10
-4.562004200450018
 20
-9.0
 30
0.0
 11
-4.562004200450018
 21
9.0
 31
0.0
  0
CIRCLE
  5
E75
330
E57
100
AcDbEntity
  8
SK1
100
AcDbCircle
 10
-8.950000000000002
 20
0.0
 30
0.0
 40
3.307218168049181
  0
CIRCLE
  5
E76
330
E57
100
AcDbEntity
  8
SK1
100
AcDbCircle
 10
-8.950000000000002
 20
0.0
 30
0.0
 40
2.500000000000003
  0
LWPOLYLINE
  5
E77
330
E57
100
AcDbEntity
  8
SK1
100
AcDbPolyline
 90
       20
 70
   128
 43
0.0
 10
-13.2
 20
0.0
 10
-13.1755844341
 20
0.3749430856000089
 10
-13.08054395474999
 20
0.8249312207999961
 10
-12.91384237159999
 20
1.264671190599994
 10
-12.67796373634999
 20
1.684631310600011
 10
-12.37978947869998
 20
2.073550630799998
 10
-11.7598388307
 20
2.638591057799982
 10
-11.13164869655
 20
3.022225890600012
 10
-10.4256478912
 20
3.306322071249993
 10
-9.69475909274999
 20
3.473681080950001
 10
-8.923505322099998
 20
3.529113110099998
 10
-8.155040296999999
 20
3.465881182499998
 10
-7.387340049149996
 20
3.278302629750001
 10
-6.684701534099986
 20
2.979187721850009
 10
-6.027815841499997
 20
2.552974276149996
 10
-5.580071497549994
 20
2.139848852149992
 10
-5.195983908899988
 20
1.644610373100004
 10
-4.957368162500016
 20
1.201361883350001
 10
-4.788214019549997
 20
0.7101462658499999
 10
-4.699999999999987
 20
0.0
  0
LWPOLYLINE
  5
E78
330
E57
100
AcDbEntity
  8
SK1
100
AcDbPolyline
 90
       21
 70
   128
 43
0.0
 10
-4.699999999999987
 20
0.0
 10
-4.717618049399987
 20
-0.3186218444499929
 10
-4.804289006949995
 20
-0.7714448498000053
 10
-4.963626371749995
 20
-1.215442090999985
 10
-5.190851402750013
 20
-1.6365786459
 10
-5.480609358399988
 20
-2.02786012365
 10
-5.872300312050012
 20
-2.4237432428
 10
-6.325020524600006
 20
-2.767063635699996
 10
-6.910850281400001
 20
-3.090608005849996
 10
-7.555529133749987
 20
-3.330832078
 10
-8.29616863915001
 20
-3.486478686449998
 10
-9.075681355850006
 20
-3.527613471399988
 10
-9.842230362899995
 20
-3.449265866900006
 10
-10.60515687379999
 20
-3.246485432850008
 10
-11.30103776210001
 20
-2.932734283300007
 10
-11.94817793599999
 20
-2.491472318350004
 10
-12.37882248194999
 20
-2.074647504249995
 10
-12.74528025014999
 20
-1.578573348599985
 10
-12.97131453119997
 20
-1.134309863649987
 10
-13.12754886565
 20
-0.644149273300002
 10
-13.2
 20
0.0
  0
ARC
  5
E79
330
E57
100
AcDbEntity
  8
SK1
100
AcDbCircle
 10
-0.2515999391499974
 20
-7.078003247300002
 30
0.0
 40
0.3773417648124474
100
AcDbArc
 50
74.38025216030019
 51
131.8938604266996
  0
ARC
  5
E7A
330
E57
100
AcDbEntity
  8
SK1
100
AcDbCircle
 10
-0.25
 20
-12.22500000000001
 30
0.0
 40
0.600000000000004
100
AcDbArc
 50
65.37568164780068
 51
114.9999999999996
  0
LINE
  5
E7B
330
E57
100
AcDbEntity
  8
SK1
100
AcDbLine
 10
-1.133594219799987
 20
-7.290447517099987
 30
0.0
 11
-0.5035709570499876
 21
-6.797116413149992
 31
0.0
  0
LINE
  5
E7C
330
E57
100
AcDbEntity
  8
SK1
100
AcDbLine
 10
-1.133594219799987
 20
-7.290447517099987
 30
0.0
 11
-2.949999999999988
 21
-7.290447517099987
 31
0.0
  0
ARC
  5
E7D
330
E57
100
AcDbEntity
  8
SK1
100
AcDbCircle
 10
-3.550000000000011
 20
-9.350000000000008
 30
0.0
 40
0.5999999999999967
100
AcDbArc
 50
0.0
 51
104.9999999999994
  0
LINE
  5
E7E
330
E57
100
AcDbEntity
  8
SK1
100
AcDbLine
 10
-2.949999999999988
 20
-11.975
 30
0.0
 11
-1.133594219799987
 21
-11.975
 31
0.0
  0
LINE
  5
E7F
330
E57
100
AcDbEntity
  8
SK1
100
AcDbLine
 10
-1.133594219799987
 20
-11.975
 30
0.0
 11
-0.5035709570499876
 21
-11.68121532774999
 31
0.0
  0
LINE
  5
E80
330
E57
100
AcDbEntity
  8
SK1
100
AcDbLine
 10
-1.133594219799987
 20
-11.975
 30
0.0
 11
-1.133594219799987
 21
-7.290447517099987
 31
0.0
  0
LINE
  5
E81
330
E57
100
AcDbEntity
  8
SK1
100
AcDbLine
 10
-4.562004200450018
 20
-9.0
 30
0.0
 11
-3.705291427049985
 21
-8.7704445042
 31
0.0
  0
LINE
  5
E82
330
E57
100
AcDbEntity
  8
3
100
AcDbLine
 10
0.0
 20
-13.10859421975
 30
0.0
 11
0.2937846721999904
 21
-12.47857095704999
 31
0.0
  0
ARC
  5
E83
330
E57
100
AcDbEntity
  8
3
100
AcDbCircle
 10
-0.25
 20
-12.22500000000001
 30
0.0
 40
0.5999999999999945
100
AcDbArc
 50
335.0
 51
0.0
  0
ARC
  5
E84
330
E57
100
AcDbEntity
  8
3
100
AcDbCircle
 10
-0.25
 20
-12.22500000000001
 30
0.0
 40
0.6000000000000038
100
AcDbArc
 50
0.0
 51
65.37568164780068
  0
LINE
  5
E85
330
E57
100
AcDbEntity
  8
SK1
100
AcDbLine
 10
-0.5035709570499876
 20
6.797116413149992
 30
0.0
 11
-1.133594219799987
 21
7.290447517149995
 31
0.0
  0
ARC
  5
E86
330
E57
100
AcDbEntity
  8
SK1
100
AcDbCircle
 10
-0.2491162109499783
 20
7.088645250249996
 30
0.0
 40
0.386957724655205
100
AcDbArc
 50
228.8846097785
 51
284.8412776345993
  0
ARC
  5
E87
330
E57
100
AcDbEntity
  8
SK1
100
AcDbCircle
 10
-0.25
 20
12.22500000000001
 30
0.0
 40
0.600000000000004
100
AcDbArc
 50
245.0000000000003
 51
294.6243183521993
  0
LINE
  5
E88
330
E57
100
AcDbEntity
  8
SK1
100
AcDbLine
 10
-0.5035709570499876
 20
11.68121532779998
 30
0.0
 11
-1.133594219799987
 21
11.975
 31
0.0
  0
LINE
  5
E89
330
E57
100
AcDbEntity
  8
SK1
100
AcDbLine
 10
-1.133594219799987
 20
11.975
 30
0.0
 11
-2.949999999999988
 21
11.975
 31
0.0
  0
LINE
  5
E8A
330
E57
100
AcDbEntity
  8
SK1
100
AcDbLine
 10
-1.133594219799987
 20
7.290447517149995
 30
0.0
 11
-2.949999999999988
 21
7.290447517149995
 31
0.0
  0
LINE
  5
E8B
330
E57
100
AcDbEntity
  8
SK1
100
AcDbLine
 10
-1.133594219799987
 20
7.290447517149995
 30
0.0
 11
-1.133594219799987
 21
11.975
 31
0.0
  0
ARC
  5
E8C
330
E57
100
AcDbEntity
  8
SK1
100
AcDbCircle
 10
-3.550000000000011
 20
9.350000000000008
 30
0.0
 40
0.5999999999999967
100
AcDbArc
 50
255.0000000000004
 51
0.0
  0
LINE
  5
E8D
330
E57
100
AcDbEntity
  8
SK1
100
AcDbLine
 10
-3.705291427049985
 20
8.770444504249994
 30
0.0
 11
-4.562004200450018
 21
9.0
 31
0.0
  0
LINE
  5
E8E
330
E57
100
AcDbEntity
  8
3
100
AcDbLine
 10
0.2937846721999904
 20
12.47857095704999
 30
0.0
 11
0.0
 21
13.10859421979999
 31
0.0
  0
ARC
  5
E8F
330
E57
100
AcDbEntity
  8
3
100
AcDbCircle
 10
-0.25
 20
12.22500000000001
 30
0.0
 40
0.599999999999988
100
AcDbArc
 50
345.6249999999998
 51
25.00000000000003
  0
ARC
  5
E90
330
E57
100
AcDbEntity
  8
3
100
AcDbCircle
 10
-0.25
 20
12.22500000000001
 30
0.0
 40
0.5999999999999904
100
AcDbArc
 50
294.6243183521993
 51
345.6249999999998
  0
ARC
  5
E91
330
E57
100
AcDbEntity
  8
1
100
AcDbCircle
 10
0.3000000000000114
 20
15.7
 30
0.0
 40
0.2999999999999971
100
AcDbArc
 50
90.0
 51
180.0
  0
ENDBLK
  5
E93
330
E57
100
AcDbEntity
  8
0
100
AcDbBlockEnd
  0
BLOCK
  5
EF5
330
EEC
100
AcDbEntity
  8
0
100
AcDbBlockBegin
  2
*D23
 70
     1
 10
0.0
 20
0.0
 30
0.0
  3
*D23
  1

  0
SOLID
  5
EED
330
EEC
100
AcDbEntity
  8
VERMASSUNG
100
AcDbTrace
 10
83.66461131260001
 20
126.8837240480997
 30
0.0
 11
83.21461131259999
 21
123.8837240480998
 31
0.0
 12
84.11461131260002
 22
123.8837240480998
 32
0.0
 13
84.11461131260002
 23
123.8837240480998
 33
0.0
  0
SOLID
  5
EEE
330
EEC
100
AcDbEntity
  8
VERMASSUNG
100
AcDbTrace
 10
83.66461131260001
 20
84.8837240481
 30
0.0
 11
84.11461131260002
 21
87.88372404809997
 31
0.0
 12
83.21461131259999
 22
87.88372404809997
 32
0.0
 13
83.21461131259999
 23
87.88372404809997
 33
0.0
  0
LINE
  5
EEF
330
EEC
100
AcDbEntity
  8
VERMASSUNG
100
AcDbLine
 10
115.7821680909
 20
126.8837240480997
 30
0.0
 11
82.66461131259999
 21
126.8837240480997
 31
0.0
  0
LINE
  5
EF0
330
EEC
100
AcDbEntity
  8
VERMASSUNG
100
AcDbLine
 10
115.7821680909
 20
84.8837240481
 30
0.0
 11
82.66461131259999
 21
84.8837240481
 31
0.0
  0
LINE
  5
EF1
330
EEC
100
AcDbEntity
  8
VERMASSUNG
100
AcDbLine
 10
83.66461131260001
 20
126.8837240480997
 30
0.0
 11
83.66461131260001
 21
84.8837240481
 31
0.0
  0
MTEXT
  5
EF2
330
EEC
100
AcDbEntity
  8
VERMASSUNG
100
AcDbMText
 10
80.86461153589999
 20
99.38015587569999
 30
0.0
 40
2.0
 41
0.0
 71
     1
 72
     1
  1
{MBM }
  7
SLDTEXTSTYLE0
 11
-0.000000000000007
 21
1.0
 31
0.0
 73
     1
 44
1.0
  0
MTEXT
  5
EF3
330
EEC
100
AcDbEntity
  8
VERMASSUNG
100
AcDbMText
 10
81.06461148719999
 20
105.780155714
 30
0.0
 40
2.0
 41
0.0
 71
     1
 72
     1
  1
{%%c}
  7
SLDTEXTSTYLE0
 11
-0.000000000000007
 21
1.0
 31
0.0
 73
     1
 44
1.0
  0
MTEXT
  5
EF4
330
EEC
100
AcDbEntity
  8
VERMASSUNG
100
AcDbMText
 10
81.0646111962
 20
109.38899489
 30
0.0
 40
2.0
 41
0.0
 71
     1
 72
     1
  1
{42}
  7
SLDTEXTSTYLE0
 11
-0.000000000000007
 21
1.0
 31
0.0
 73
     1
 44
1.0
  0
ENDBLK
  5
EF6
330
EEC
100
AcDbEntity
  8
0
100
AcDbBlockEnd
  0
BLOCK
  5
EFE
330
EF7
100
AcDbEntity
  8
0
100
AcDbBlockBegin
  2
*D24
 70
     1
 10
0.0
 20
0.0
 30
0.0
  3
*D24
  1

  0
SOLID
  5
EF8
330
EF7
100
AcDbEntity
  8
VERMASSUNG
100
AcDbTrace
 10
115.4821680909
 20
135.5019520854
 30
0.0
 11
118.4821680908999
 21
135.0519520854
 31
0.0
 12
118.4821680908999
 22
135.9519520854
 32
0.0
 13
118.4821680908999
 23
135.9519520854
 33
0.0
  0
SOLID
  5
EF9
330
EF7
100
AcDbEntity
  8
VERMASSUNG
100
AcDbTrace
 10
185.0821680909
 20
135.5019520854
 30
0.0
 11
182.0821680909
 21
135.9519520854
 31
0.0
 12
182.0821680909
 22
135.0519520854
 32
0.0
 13
182.0821680909
 23
135.0519520854
 33
0.0
  0
LINE
  5
EFA
330
EF7
100
AcDbEntity
  8
VERMASSUNG
100
AcDbLine
 10
115.4821680909
 20
126.5837240480998
 30
0.0
 11
115.4821680909
 21
136.5019520854
 31
0.0
  0
LINE
  5
EFB
330
EF7
100
AcDbEntity
  8
VERMASSUNG
100
AcDbLine
 10
185.0821680909
 20
125.0837240480999
 30
0.0
 11
185.0821680909
 21
136.5019520854
 31
0.0
  0
LINE
  5
EFC
330
EF7
100
AcDbEntity
  8
VERMASSUNG
100
AcDbLine
 10
115.4821680909
 20
135.5019520854
 30
0.0
 11
185.0821680909
 21
135.5019520854
 31
0.0
  0
MTEXT
  5
EFD
330
EF7
100
AcDbEntity
  8
VERMASSUNG
100
AcDbMText
 10
147.8825971463997
 20
138.1019522018
 30
0.0
 40
2.0
 41
0.0
 71
     1
 72
     1
  1
{69.6}
  7
SLDTEXTSTYLE0
 73
     1
 44
1.0
  0
ENDBLK
  5
EFF
330
EF7
100
AcDbEntity
  8
0
100
AcDbBlockEnd
  0
BLOCK
  5
F07
330
F00
100
AcDbEntity
  8
0
100
AcDbBlockBegin
  2
*D25
 70
     1
 10
0.0
 20
0.0
 30
0.0
  3
*D25
  1

  0
SOLID
  5
F01
330
F00
100
AcDbEntity
  8
VERMASSUNG
100
AcDbTrace
 10
115.4821680909
 20
141.5019520854
 30
0.0
 11
118.4821680908999
 21
141.0519520854
 31
0.0
 12
118.4821680908999
 22
141.9519520853999
 32
0.0
 13
118.4821680908999
 23
141.9519520853999
 33
0.0
  0
SOLID
  5
F02
330
F00
100
AcDbEntity
  8
VERMASSUNG
100
AcDbTrace
 10
201.4821680908999
 20
141.5019520854
 30
0.0
 11
198.4821680909
 21
141.9519520853999
 31
0.0
 12
198.4821680909
 22
141.0519520854
 32
0.0
 13
198.4821680909
 23
141.0519520854
 33
0.0
  0
LINE
  5
F03
330
F00
100
AcDbEntity
  8
VERMASSUNG
100
AcDbLine
 10
115.4821680909
 20
126.5837240480998
 30
0.0
 11
115.4821680909
 21
142.5019520854
 31
0.0
  0
LINE
  5
F04
330
F00
100
AcDbEntity
  8
VERMASSUNG
100
AcDbLine
 10
201.4821680908999
 20
117.2294762176
 30
0.0
 11
201.4821680908999
 21
142.5019520854
 31
0.0
  0
LINE
  5
F05
330
F00
100
AcDbEntity
  8
VERMASSUNG
100
AcDbLine
 10
115.4821680909
 20
141.5019520854
 30
0.0
 11
201.4821680908999
 21
141.5019520854
 31
0.0
  0
MTEXT
  5
F06
330
F00
100
AcDbEntity
  8
VERMASSUNG
100
AcDbMText
 10
157.0825479677
 20
144.1019522018
 30
0.0
 40
2.0
 41
0.0
 71
     1
 72
     1
  1
{86}
  7
SLDTEXTSTYLE0
 73
     1
 44
1.0
  0
ENDBLK
  5
F08
330
F00
100
AcDbEntity
  8
0
100
AcDbBlockEnd
  0
BLOCK
  5
137F
330
1375
100
AcDbEntity
  8
0
100
AcDbBlockBegin
  2
*D26
 70
     1
 10
0.0
 20
0.0
 30
0.0
  3
*D26
  1

  0
LINE
  5
1454
330
1375
100
AcDbEntity
  8
2
 62
     0
370
    -2
100
AcDbLine
 10
-158.2277643686512
 20
-40.43139180738847
 30
0.0
 11
-158.2277643686512
 21
-23.51316377008846
 31
0.0
  0
LINE
  5
1455
330
1375
100
AcDbEntity
  8
2
 62
     0
370
    -2
100
AcDbLine
 10
-72.22776436865131
 20
-49.78563963788847
 30
0.0
 11
-72.22776436865131
 21
-23.51316377008846
 31
0.0
  0
LINE
  5
1456
330
1375
100
AcDbEntity
  8
2
 62
     0
370
    -2
100
AcDbLine
 10
-153.6577643686513
 20
-25.51316377008846
 30
0.0
 11
-76.79776436865132
 21
-25.51316377008846
 31
0.0
  0
SOLID
  5
1457
330
1375
100
AcDbEntity
  8
2
 62
     0
100
AcDbTrace
 10
-153.6577643686513
 20
-24.75149710342179
 30
0.0
 11
-153.6577643686513
 21
-26.27483043675512
 31
0.0
 12
-158.2277643686512
 22
-25.51316377008846
 32
0.0
 13
-158.2277643686512
 23
-25.51316377008846
 33
0.0
  0
SOLID
  5
1458
330
1375
100
AcDbEntity
  8
2
 62
     0
100
AcDbTrace
 10
-76.79776436865132
 20
-24.75149710342179
 30
0.0
 11
-76.79776436865132
 21
-26.27483043675512
 31
0.0
 12
-72.22776436865131
 22
-25.51316377008846
 32
0.0
 13
-72.22776436865131
 23
-25.51316377008846
 33
0.0
  0
MTEXT
  5
1459
330
1375
100
AcDbEntity
  8
2
 62
     7
100
AcDbMText
 10
-115.2277643686513
 20
-21.72816377008846
 30
0.0
 40
4.57
 41
0.0
 71
     5
 72
     1
  1
\A1;86
  7
GENPRESET
 73
     1
 44
1.0
  0
POINT
  5
145A
330
1375
100
AcDbEntity
  8
Defpoints
 62
     0
100
AcDbPoint
 10
-158.2277643686512
 20
-40.43139180738847
 30
0.0
  0
POINT
  5
145B
330
1375
100
AcDbEntity
  8
Defpoints
 62
     0
100
AcDbPoint
 10
-72.22776436865131
 20
-49.78563963788847
 30
0.0
  0
POINT
  5
145C
330
1375
100
AcDbEntity
  8
Defpoints
 62
     0
100
AcDbPoint
 10
-72.22776436865131
 20
-25.51316377008846
 30
0.0
  0
ENDBLK
  5
1380
330
1375
100
AcDbEntity
  8
0
100
AcDbBlockEnd
  0
BLOCK
  5
138B
330
1381
100
AcDbEntity
  8
0
100
AcDbBlockBegin
  2
*D27
 70
     1
 10
0.0
 20
0.0
 30
0.0
  3
*D27
  1

  0
LINE
  5
13A2
330
1381
100
AcDbEntity
  8
VERMASSUNG
 62
     0
370
    -2
100
AcDbLine
 10
0.0
 20
20.69999999999998
 30
0.0
 11
0.0000000000000006
 21
30.61822803730001
 31
0.0
  0
LINE
  5
13A3
330
1381
100
AcDbEntity
  8
VERMASSUNG
 62
     0
370
    -2
100
AcDbLine
 10
69.59999999999999
 20
19.19999999999999
 30
0.0
 11
69.59999999999999
 21
30.61822803730001
 31
0.0
  0
LINE
  5
13A4
330
1381
100
AcDbEntity
  8
VERMASSUNG
 62
     0
370
    -2
100
AcDbLine
 10
3.0
 20
29.61822803730001
 30
0.0
 11
66.60000000000001
 21
29.61822803730001
 31
0.0
  0
SOLID
  5
13A5
330
1381
100
AcDbEntity
  8
VERMASSUNG
 62
     0
100
AcDbTrace
 10
3.0
 20
30.11822803730001
 30
0.0
 11
3.0
 21
29.11822803730001
 31
0.0
 12
0.0000000000000005
 22
29.61822803730001
 32
0.0
 13
0.0000000000000005
 23
29.61822803730001
 33
0.0
  0
SOLID
  5
13A6
330
1381
100
AcDbEntity
  8
VERMASSUNG
 62
     0
100
AcDbTrace
 10
66.60000000000001
 20
30.11822803730001
 30
0.0
 11
66.60000000000001
 21
29.11822803730001
 31
0.0
 12
69.59999999999999
 22
29.61822803730001
 32
0.0
 13
69.59999999999999
 23
29.61822803730001
 33
0.0
  0
MTEXT
  5
13A7
330
1381
100
AcDbEntity
  8
VERMASSUNG
 62
     0
100
AcDbMText
 10
31.89999999999999
 20
33.1422280373
 30
0.0
 40
2.0
 41
0.0
 71
     1
 72
     1
  1
\A1;69.60
  7
SLDTEXTSTYLE0
 73
     1
 44
1.0
  0
POINT
  5
13A8
330
1381
100
AcDbEntity
  8
Defpoints
 62
     0
100
AcDbPoint
 10
0.0
 20
20.69999999999998
 30
0.0
  0
POINT
  5
13A9
330
1381
100
AcDbEntity
  8
Defpoints
 62
     0
100
AcDbPoint
 10
69.59999999999999
 20
19.19999999999999
 30
0.0
  0
POINT
  5
13AA
330
1381
100
AcDbEntity
  8
Defpoints
 62
     0
100
AcDbPoint
 10
69.59999999999999
 20
29.61822803730001
 30
0.0
  0
ENDBLK
  5
138C
330
1381
100
AcDbEntity
  8
0
100
AcDbBlockEnd
  0
BLOCK
  5
1397
330
138D
100
AcDbEntity
  8
0
100
AcDbBlockBegin
  2
*D28
 70
     1
 10
0.0
 20
0.0
 30
0.0
  3
*D28
  1

  0
LINE
  5
145D
330
138D
100
AcDbEntity
  8
SK2
 62
     0
370
    -2
100
AcDbLine
 10
-157.9277643686513
 20
-40.13139180738846
 30
0.0
 11
-188.7773056165725
 21
-40.13139180738845
 31
0.0
  0
LINE
  5
145E
330
138D
100
AcDbEntity
  8
SK2
 62
     0
370
    -2
100
AcDbLine
 10
-157.9277643686513
 20
-82.13139180738846
 30
0.0
 11
-188.7773056165725
 21
-82.13139180738844
 31
0.0
  0
LINE
  5
145F
330
138D
100
AcDbEntity
  8
SK2
 62
     0
370
    -2
100
AcDbLine
 10
-186.7773056165725
 20
-44.70139180738846
 30
0.0
 11
-186.7773056165725
 21
-77.56139180738843
 31
0.0
  0
SOLID
  5
1460
330
138D
100
AcDbEntity
  8
SK2
 62
     0
100
AcDbTrace
 10
-187.5389722832391
 20
-44.70139180738846
 30
0.0
 11
-186.0156389499058
 21
-44.70139180738846
 31
0.0
 12
-186.7773056165725
 22
-40.13139180738845
 32
0.0
 13
-186.7773056165725
 23
-40.13139180738845
 33
0.0
  0
SOLID
  5
1461
330
138D
100
AcDbEntity
  8
SK2
 62
     0
100
AcDbTrace
 10
-187.5389722832392
 20
-77.56139180738843
 30
0.0
 11
-186.0156389499059
 21
-77.56139180738843
 31
0.0
 12
-186.7773056165725
 22
-82.13139180738844
 32
0.0
 13
-186.7773056165725
 23
-82.13139180738844
 33
0.0
  0
MTEXT
  5
1462
330
138D
100
AcDbEntity
  8
SK2
 62
     7
100
AcDbMText
 10
-190.5623056165725
 20
-61.13139180738847
 30
0.0
 40
4.57
 41
0.0
 71
     5
 72
     1
  1
\A1;MBM %%c42
  7
GENPRESET
 11
0.0000000000000001
 21
1.0
 31
0.0
 73
     1
 44
1.0
  0
POINT
  5
1463
330
138D
100
AcDbEntity
  8
Defpoints
 62
     0
100
AcDbPoint
 10
-157.9277643686513
 20
-40.13139180738846
 30
0.0
  0
POINT
  5
1464
330
138D
100
AcDbEntity
  8
Defpoints
 62
     0
100
AcDbPoint
 10
-157.9277643686513
 20
-82.13139180738846
 30
0.0
  0
POINT
  5
1465
330
138D
100
AcDbEntity
  8
Defpoints
 62
     0
100
AcDbPoint
 10
-186.7773056165725
 20
-82.13139180738844
 30
0.0
  0
ENDBLK
  5
1398
330
138D
100
AcDbEntity
  8
0
100
AcDbBlockEnd
  0
BLOCK
  5
146F
330
1466
100
AcDbEntity
  8
0
100
AcDbBlockBegin
  2
*D29
 70
     1
 10
0.0
 20
0.0
 30
0.0
  3
*D29
  1

  0
ARC
  5
1467
330
1466
100
AcDbEntity
  8
VERMASSUNG
100
AcDbCircle
 10
153.3219243928999
 20
134.9743444304
 30
0.0
 40
4.247798409719318
100
AcDbArc
 50
153.4349488229
 51
206.5650511771
  0
ARC
  5
1468
330
1466
100
AcDbEntity
  8
VERMASSUNG
100
AcDbCircle
 10
151.2972625609999
 20
134.9743444304
 30
0.0
 40
4.247798409719293
100
AcDbArc
 50
333.4349488229
 51
26.5650511771
  0
SOLID
  5
1469
330
1466
100
AcDbEntity
  8
VERMASSUNG
100
AcDbTrace
 10
192.809593477
 20
133.0746712305999
 30
0.0
 11
189.809593477
 21
133.5246712306
 31
0.0
 12
189.809593477
 22
132.6246712305999
 32
0.0
 13
189.809593477
 23
132.6246712305999
 33
0.0
  0
SOLID
  5
146A
330
1466
100
AcDbEntity
  8
VERMASSUNG
100
AcDbTrace
 10
111.809593477
 20
133.0746712305999
 30
0.0
 11
114.809593477
 21
132.6246712305999
 31
0.0
 12
114.809593477
 22
133.5246712306
 32
0.0
 13
114.809593477
 23
133.5246712306
 33
0.0
  0
LINE
  5
146B
330
1466
100
AcDbEntity
  8
VERMASSUNG
100
AcDbLine
 10
192.809593477
 20
123.0711208707
 30
0.0
 11
192.809593477
 21
134.0746712305999
 31
0.0
  0
LINE
  5
146C
330
1466
100
AcDbEntity
  8
VERMASSUNG
100
AcDbLine
 10
111.809593477
 20
106.5211208707
 30
0.0
 11
111.809593477
 21
134.0746712305999
 31
0.0
  0
LINE
  5
146D
330
1466
100
AcDbEntity
  8
VERMASSUNG
100
AcDbLine
 10
192.809593477
 20
133.0746712305999
 30
0.0
 11
111.809593477
 21
133.0746712305999
 31
0.0
  0
MTEXT
  5
146E
330
1466
100
AcDbEntity
  8
VERMASSUNG
100
AcDbMText
 10
151.1100779934
 20
135.6746713471
 30
0.0
 40
2.0
 41
0.0
 71
     1
 72
     1
  1
81
  7
SLDTEXTSTYLE0
 73
     1
 44
1.0
  0
ENDBLK
  5
1470
330
1466
100
AcDbEntity
  8
0
100
AcDbBlockEnd
  0
BLOCK
  5
1478
330
1471
100
AcDbEntity
  8
0
100
AcDbBlockBegin
  2
*D30
 70
     1
 10
0.0
 20
0.0
 30
0.0
  3
*D30
  1

  0
SOLID
  5
1472
330
1471
100
AcDbEntity
  8
VERMASSUNG
100
AcDbTrace
 10
192.809593477
 20
127.0746712305999
 30
0.0
 11
189.809593477
 21
127.5246712305999
 31
0.0
 12
189.809593477
 22
126.6246712305999
 32
0.0
 13
189.809593477
 23
126.6246712305999
 33
0.0
  0
SOLID
  5
1473
330
1471
100
AcDbEntity
  8
VERMASSUNG
100
AcDbTrace
 10
135.809593477
 20
127.0746712305999
 30
0.0
 11
138.809593477
 21
126.6246712305999
 31
0.0
 12
138.809593477
 22
127.5246712305999
 32
0.0
 13
138.809593477
 23
127.5246712305999
 33
0.0
  0
LINE
  5
1474
330
1471
100
AcDbEntity
  8
VERMASSUNG
100
AcDbLine
 10
192.809593477
 20
123.0711208707
 30
0.0
 11
192.809593477
 21
128.0746712305999
 31
0.0
  0
LINE
  5
1475
330
1471
100
AcDbEntity
  8
VERMASSUNG
100
AcDbLine
 10
135.809593477
 20
117.1211208706999
 30
0.0
 11
135.809593477
 21
128.0746712305999
 31
0.0
  0
LINE
  5
1476
330
1471
100
AcDbEntity
  8
VERMASSUNG
100
AcDbLine
 10
192.809593477
 20
127.0746712305999
 30
0.0
 11
135.809593477
 21
127.0746712305999
 31
0.0
  0
MTEXT
  5
1477
330
1471
100
AcDbEntity
  8
VERMASSUNG
100
AcDbMText
 10
162.9105990969
 20
129.6746713471
 30
0.0
 40
2.0
 41
0.0
 71
     1
 72
     1
  1
57
  7
SLDTEXTSTYLE0
 73
     1
 44
1.0
  0
ENDBLK
  5
1479
330
1471
100
AcDbEntity
  8
0
100
AcDbBlockEnd
  0
BLOCK
  5
1483
330
147A
100
AcDbEntity
  8
0
100
AcDbBlockBegin
  2
*D31
 70
     1
 10
0.0
 20
0.0
 30
0.0
  3
*D31
  1

  0
SOLID
  5
147B
330
147A
100
AcDbEntity
  8
VERMASSUNG
100
AcDbTrace
 10
202.8901919675999
 20
123.0711208707
 30
0.0
 11
202.4401919675999
 21
120.0711208706999
 31
0.0
 12
203.3401919675999
 22
120.0711208706999
 32
0.0
 13
203.3401919675999
 23
120.0711208706999
 33
0.0
  0
LINE
  5
147C
330
147A
100
AcDbEntity
  8
VERMASSUNG
100
AcDbLine
 10
192.809593477
 20
123.0711208707
 30
0.0
 11
203.8901919675999
 21
123.0711208707
 31
0.0
  0
LINE
  5
147D
330
147A
100
AcDbEntity
  8
VERMASSUNG
100
AcDbLine
 10
202.8901919675999
 20
123.0711208707
 30
0.0
 11
202.8901919675999
 21
99.6734273434
 31
0.0
  0
MTEXT
  5
147E
330
147A
100
AcDbEntity
  8
VERMASSUNG
100
AcDbMText
 10
196.2926876656
 20
101.2609273433999
 30
0.0
 40
2.0
 41
0.0
 71
     1
 72
     1
  1
%%c
  7
SLDTEXTSTYLE0
 11
-0.000000000000007
 21
1.0
 31
0.0
 73
     1
 44
1.0
  0
MTEXT
  5
147F
330
147A
100
AcDbEntity
  8
VERMASSUNG
100
AcDbMText
 10
196.2926876074
 20
104.8700422125
 30
0.0
 40
2.0
 41
0.0
 71
     1
 72
     1
  1
50.9
  7
SLDTEXTSTYLE0
 11
-0.000000000000007
 21
1.0
 31
0.0
 73
     1
 44
1.0
  0
MTEXT
  5
1480
330
147A
100
AcDbEntity
  8
VERMASSUNG
100
AcDbMText
 10
196.2926876074
 20
109.6681041469
 30
0.0
 40
2.0
 41
0.0
 71
     1
 72
     1
  1
-67.1
  7
SLDTEXTSTYLE0
 11
-0.000000000000007
 21
1.0
 31
0.0
 73
     1
 44
1.0
  0
MTEXT
  5
1481
330
147A
100
AcDbEntity
  8
VERMASSUNG
100
AcDbMText
 10
200.2901921422
 20
101.7568812654999
 30
0.0
 40
2.0
 41
0.0
 71
     1
 72
     1
  1
%%c
  7
SLDTEXTSTYLE0
 11
-0.000000000000007
 21
1.0
 31
0.0
 73
     1
 44
1.0
  0
MTEXT
  5
1482
330
147A
100
AcDbEntity
  8
VERMASSUNG
100
AcDbMText
 10
200.0901921909
 20
105.3668812798
 30
0.0
 40
2.0
 41
0.0
 71
     1
 72
     1
  1
64.9-81.1
  7
SLDTEXTSTYLE0
 11
-0.000000000000007
 21
1.0
 31
0.0
 73
     1
 44
1.0
  0
ENDBLK
  5
1484
330
147A
100
AcDbEntity
  8
0
100
AcDbBlockEnd
  0
BLOCK
  5
148E
330
1485
100
AcDbEntity
  8
0
100
AcDbBlockBegin
  2
*D32
 70
     1
 10
0.0
 20
0.0
 30
0.0
  3
*D32
  1

  0
SOLID
  5
1486
330
1485
100
AcDbEntity
  8
VERMASSUNG
100
AcDbTrace
 10
108.3070807229
 20
118.6211208707
 30
0.0
 11
107.8570807229
 21
115.6211208707
 31
0.0
 12
108.7570807229
 22
115.6211208707
 32
0.0
 13
108.7570807229
 23
115.6211208707
 33
0.0
  0
SOLID
  5
1487
330
1485
100
AcDbEntity
  8
VERMASSUNG
100
AcDbTrace
 10
108.3070807229
 20
76.62112087069999
 30
0.0
 11
108.7570807229
 21
79.6211208707
 31
0.0
 12
107.8570807229
 22
79.6211208707
 32
0.0
 13
107.8570807229
 23
79.6211208707
 33
0.0
  0
LINE
  5
1488
330
1485
100
AcDbEntity
  8
VERMASSUNG
100
AcDbLine
 10
137.1374990961
 20
118.6211208707
 30
0.0
 11
107.3070807229
 21
118.6211208707
 31
0.0
  0
LINE
  5
1489
330
1485
100
AcDbEntity
  8
VERMASSUNG
100
AcDbLine
 10
137.1374990961
 20
76.62112087069999
 30
0.0
 11
107.3070807229
 21
76.62112087069999
 31
0.0
  0
LINE
  5
148A
330
1485
100
AcDbEntity
  8
VERMASSUNG
100
AcDbLine
 10
108.3070807229
 20
118.6211208707
 30
0.0
 11
108.3070807229
 21
76.62112087069999
 31
0.0
  0
MTEXT
  5
148B
330
1485
100
AcDbEntity
  8
VERMASSUNG
100
AcDbMText
 10
105.5070809462
 20
91.3170593205
 30
0.0
 40
2.0
 41
0.0
 71
     1
 72
     1
  1
ST4 
  7
SLDTEXTSTYLE0
 11
-0.000000000000007
 21
1.0
 31
0.0
 73
     1
 44
1.0
  0
MTEXT
  5
148C
330
1485
100
AcDbEntity
  8
VERMASSUNG
100
AcDbMText
 10
105.7070808975
 20
97.3170593726
 30
0.0
 40
2.0
 41
0.0
 71
     1
 72
     1
  1
%%c
  7
SLDTEXTSTYLE0
 11
-0.000000000000007
 21
1.0
 31
0.0
 73
     1
 44
1.0
  0
MTEXT
  5
148D
330
1485
100
AcDbEntity
  8
VERMASSUNG
100
AcDbMText
 10
105.7070806065
 20
100.9263937120999
 30
0.0
 40
2.0
 41
0.0
 71
     1
 72
     1
  1
42
  7
SLDTEXTSTYLE0
 11
-0.000000000000007
 21
1.0
 31
0.0
 73
     1
 44
1.0
  0
ENDBLK
  5
148F
330
1485
100
AcDbEntity
  8
0
100
AcDbBlockEnd
  0
BLOCK
  5
19F3
330
19E9
100
AcDbEntity
  8
0
100
AcDbBlockBegin
  2
*D34
 70
     1
 10
0.0
 20
0.0
 30
0.0
  3
*D34
  1

  0
LINE
  5
1A19
330
19E9
100
AcDbEntity
  8
VERMASSUNG
 62
     0
370
    -2
100
AcDbLine
 10
57.0
 20
25.5125
 30
0.0
 11
57.0
 21
29.45355035989999
 31
0.0
  0
LINE
  5
1A1A
330
19E9
100
AcDbEntity
  8
VERMASSUNG
 62
     0
370
    -2
100
AcDbLine
 10
0.0
 20
19.5625
 30
0.0
 11
0.0000000000000006
 21
29.45355035989999
 31
0.0
  0
LINE
  5
1A1B
330
19E9
100
AcDbEntity
  8
VERMASSUNG
 62
     0
370
    -2
100
AcDbLine
 10
54.0
 20
29.45355035989999
 30
0.0
 11
3.0
 21
29.45355035989999
 31
0.0
  0
SOLID
  5
1A1C
330
19E9
100
AcDbEntity
  8
VERMASSUNG
 62
     0
100
AcDbTrace
 10
54.0
 20
29.95355035989999
 30
0.0
 11
54.0
 21
28.95355035989999
 31
0.0
 12
57.0
 22
29.45355035989999
 32
0.0
 13
57.0
 23
29.45355035989999
 33
0.0
  0
SOLID
  5
1A1D
330
19E9
100
AcDbEntity
  8
VERMASSUNG
 62
     0
100
AcDbTrace
 10
3.0
 20
29.95355035989999
 30
0.0
 11
3.0
 21
28.95355035989999
 31
0.0
 12
0.0000000000000006
 22
29.45355035989999
 32
0.0
 13
0.0000000000000006
 23
29.45355035989999
 33
0.0
  0
MTEXT
  5
1A1E
330
19E9
100
AcDbEntity
  8
VERMASSUNG
 62
     0
100
AcDbMText
 10
28.5
 20
31.95355035989999
 30
0.0
 40
2.0
 41
0.0
 71
     2
 72
     1
  1
\A1;57
  7
SLDTEXTSTYLE0
 73
     1
 44
1.0
  0
POINT
  5
1A1F
330
19E9
100
AcDbEntity
  8
Defpoints
 62
     0
100
AcDbPoint
 10
57.0
 20
25.45
 30
0.0
  0
POINT
  5
1A20
330
19E9
100
AcDbEntity
  8
Defpoints
 62
     0
100
AcDbPoint
 10
0.0
 20
19.5
 30
0.0
  0
POINT
  5
1A21
330
19E9
100
AcDbEntity
  8
Defpoints
 62
     0
100
AcDbPoint
 10
0.0000000000000006
 20
29.45355035989999
 30
0.0
  0
ENDBLK
  5
19F4
330
19E9
100
AcDbEntity
  8
0
100
AcDbBlockEnd
  0
BLOCK
  5
19FF
330
19F5
100
AcDbEntity
  8
0
100
AcDbBlockBegin
  2
*D35
 70
     1
 10
0.0
 20
0.0
 30
0.0
  3
*D35
  1

  0
LINE
  5
1A22
330
19F5
100
AcDbEntity
  8
VERMASSUNG
 62
     0
370
    -2
100
AcDbLine
 10
57.0
 20
25.5125
 30
0.0
 11
57.0
 21
35.45355035989999
 31
0.0
  0
LINE
  5
1A23
330
19F5
100
AcDbEntity
  8
VERMASSUNG
 62
     0
370
    -2
100
AcDbLine
 10
-24.00000000000001
 20
8.962500000000005
 30
0.0
 11
-24.00000000000001
 21
35.45355035989999
 31
0.0
  0
LINE
  5
1A24
330
19F5
100
AcDbEntity
  8
VERMASSUNG
 62
     0
370
    -2
100
AcDbLine
 10
54.0
 20
35.45355035989999
 30
0.0
 11
-21.00000000000001
 21
35.45355035989999
 31
0.0
  0
SOLID
  5
1A25
330
19F5
100
AcDbEntity
  8
VERMASSUNG
 62
     0
100
AcDbTrace
 10
54.0
 20
35.95355035989999
 30
0.0
 11
54.0
 21
34.95355035989999
 31
0.0
 12
57.0
 22
35.45355035989999
 32
0.0
 13
57.0
 23
35.45355035989999
 33
0.0
  0
SOLID
  5
1A26
330
19F5
100
AcDbEntity
  8
VERMASSUNG
 62
     0
100
AcDbTrace
 10
-21.00000000000001
 20
35.95355035989999
 30
0.0
 11
-21.00000000000001
 21
34.95355035989999
 31
0.0
 12
-24.00000000000001
 22
35.45355035989999
 32
0.0
 13
-24.00000000000001
 23
35.45355035989999
 33
0.0
  0
MTEXT
  5
1A27
330
19F5
100
AcDbEntity
  8
VERMASSUNG
 62
     0
100
AcDbMText
 10
16.5
 20
38.3535503599
 30
0.0
 40
2.0
 41
0.0
 71
     2
 72
     1
  1
\A1;(81)
  7
SLDTEXTSTYLE0
 73
     1
 44
1.0
  0
POINT
  5
1A28
330
19F5
100
AcDbEntity
  8
Defpoints
 62
     0
100
AcDbPoint
 10
57.0
 20
25.45
 30
0.0
  0
POINT
  5
1A29
330
19F5
100
AcDbEntity
  8
Defpoints
 62
     0
100
AcDbPoint
 10
-24.00000000000001
 20
8.900000000000005
 30
0.0
  0
POINT
  5
1A2A
330
19F5
100
AcDbEntity
  8
Defpoints
 62
     0
100
AcDbPoint
 10
-24.00000000000001
 20
35.45355035989999
 30
0.0
  0
ENDBLK
  5
1A00
330
19F5
100
AcDbEntity
  8
0
100
AcDbBlockEnd
  0
BLOCK
  5
1A0B
330
1A01
100
AcDbEntity
  8
0
100
AcDbBlockBegin
  2
*D36
 70
     1
 10
0.0
 20
0.0
 30
0.0
  3
*D36
  1

  0
LINE
  5
1A77
330
1A01
100
AcDbEntity
  8
SK2
 62
     0
370
    -2
100
AcDbLine
 10
1.327905619099993
 20
21.0
 30
0.0
 11
-29.5025127541
 21
21.0
 31
0.0
  0
LINE
  5
1A78
330
1A01
100
AcDbEntity
  8
SK2
 62
     0
370
    -2
100
AcDbLine
 10
1.327905619099993
 20
-21.0
 30
0.0
 11
-29.50251275410001
 21
-20.99999999999999
 31
0.0
  0
LINE
  5
1A79
330
1A01
100
AcDbEntity
  8
SK2
 62
     0
370
    -2
100
AcDbLine
 10
-27.50251275410001
 20
16.43
 30
0.0
 11
-27.50251275410001
 21
-16.42999999999999
 31
0.0
  0
SOLID
  5
1A7A
330
1A01
100
AcDbEntity
  8
SK2
 62
     0
100
AcDbTrace
 10
-28.26417942076667
 20
16.43
 30
0.0
 11
-26.74084608743334
 21
16.43
 31
0.0
 12
-27.50251275410001
 22
21.0
 32
0.0
 13
-27.50251275410001
 23
21.0
 33
0.0
  0
SOLID
  5
1A7B
330
1A01
100
AcDbEntity
  8
SK2
 62
     0
100
AcDbTrace
 10
-28.26417942076668
 20
-16.42999999999999
 30
0.0
 11
-26.74084608743334
 21
-16.42999999999999
 31
0.0
 12
-27.50251275410001
 22
-20.99999999999999
 32
0.0
 13
-27.50251275410001
 23
-20.99999999999999
 33
0.0
  0
MTEXT
  5
1A7C
330
1A01
100
AcDbEntity
  8
SK2
 62
     7
100
AcDbMText
 10
-33.57251275410001
 20
0.0000000000000005
 30
0.0
 40
4.57
 41
0.0
 71
     2
 72
     1
  1
\A1;ST4 %%c42
  7
GENPRESET
 11
0.0000000000000001
 21
1.0
 31
0.0
 73
     1
 44
1.0
  0
POINT
  5
1A7D
330
1A01
100
AcDbEntity
  8
Defpoints
 62
     0
100
AcDbPoint
 10
1.327905619099993
 20
21.0
 30
0.0
  0
POINT
  5
1A7E
330
1A01
100
AcDbEntity
  8
Defpoints
 62
     0
100
AcDbPoint
 10
1.327905619099993
 20
-21.0
 30
0.0
  0
POINT
  5
1A7F
330
1A01
100
AcDbEntity
  8
Defpoints
 62
     0
100
AcDbPoint
 10
-27.50251275410001
 20
-20.99999999999999
 30
0.0
  0
ENDBLK
  5
1A0C
330
1A01
100
AcDbEntity
  8
0
100
AcDbBlockEnd
  0
BLOCK
  5
1A17
330
1A0D
100
AcDbEntity
  8
0
100
AcDbBlockBegin
  2
*D37
 70
     1
 10
0.0
 20
0.0
 30
0.0
  3
*D37
  1

  0
LINE
  5
1A34
330
1A0D
100
AcDbEntity
  8
VERMASSUNG
 62
     0
370
    -2
100
AcDbLine
 10
57.0625
 20
25.45
 30
0.0
 11
67.08059849059996
 21
25.45
 31
0.0
  0
LINE
  5
1A35
330
1A0D
100
AcDbEntity
  8
VERMASSUNG
 62
     0
370
    -2
100
AcDbLine
 10
57.0625
 20
-25.45
 30
0.0
 11
67.08059849059996
 21
-25.45
 31
0.0
  0
LINE
  5
1A36
330
1A0D
100
AcDbEntity
  8
VERMASSUNG
 62
     0
370
    -2
100
AcDbLine
 10
67.08059849059996
 20
22.45
 30
0.0
 11
67.08059849059996
 21
-22.45
 31
0.0
  0
SOLID
  5
1A37
330
1A0D
100
AcDbEntity
  8
VERMASSUNG
 62
     0
100
AcDbTrace
 10
66.58059849059995
 20
22.45
 30
0.0
 11
67.58059849059995
 21
22.45
 31
0.0
 12
67.08059849059996
 22
25.45
 32
0.0
 13
67.08059849059996
 23
25.45
 33
0.0
  0
SOLID
  5
1A38
330
1A0D
100
AcDbEntity
  8
VERMASSUNG
 62
     0
100
AcDbTrace
 10
66.58059849059995
 20
-22.45
 30
0.0
 11
67.58059849059995
 21
-22.45
 31
0.0
 12
67.08059849059996
 22
-25.45
 32
0.0
 13
67.08059849059996
 23
-25.45
 33
0.0
  0
MTEXT
  5
1A39
330
1A0D
100
AcDbEntity
  8
VERMASSUNG
 62
     0
100
AcDbMText
 10
61.24726515726663
 20
10.7431046613
 30
0.0
 40
2.0
 41
0.0
 71
     2
 72
     1
  1
\A1;%%c50.9-67.1\P%%c64.9-81.1
  7
SLDTEXTSTYLE0
 11
0.0000000000000001
 21
1.0
 31
0.0
 73
     1
 44
1.0
  0
POINT
  5
1A3A
330
1A0D
100
AcDbEntity
  8
Defpoints
 62
     0
100
AcDbPoint
 10
57.0
 20
25.45
 30
0.0
  0
POINT
  5
1A3B
330
1A0D
100
AcDbEntity
  8
Defpoints
 62
     0
100
AcDbPoint
 10
57.0
 20
-25.45
 30
0.0
  0
POINT
  5
1A3C
330
1A0D
100
AcDbEntity
  8
Defpoints
 62
     0
100
AcDbPoint
 10
67.08059849059996
 20
-25.45
 30
0.0
  0
ENDBLK
  5
1A18
330
1A0D
100
AcDbEntity
  8
0
100
AcDbBlockEnd
  0
BLOCK
  5
1A8B
330
1A81
100
AcDbEntity
  8
0
100
AcDbBlockBegin
  2
*D40
 70
     1
 10
0.0
 20
0.0
 30
0.0
  3
*D40
  1

  0
LINE
  5
1A8D
330
1A81
100
AcDbEntity
  8
2
 62
     0
370
    -2
100
AcDbLine
 10
0.0
 20
19.5
 30
0.0
 11
0.0000000000000005
 21
27.63438540119483
 31
0.0
  0
LINE
  5
1A8E
330
1A81
100
AcDbEntity
  8
2
 62
     0
370
    -2
100
AcDbLine
 10
53.0
 20
11.3457521695
 30
0.0
 11
53.0
 21
27.63438540119483
 31
0.0
  0
LINE
  5
1A8F
330
1A81
100
AcDbEntity
  8
2
 62
     0
370
    -2
100
AcDbLine
 10
4.57
 20
25.63438540119483
 30
0.0
 11
48.42999999999999
 21
25.63438540119483
 31
0.0
  0
SOLID
  5
1A90
330
1A81
100
AcDbEntity
  8
2
 62
     0
100
AcDbTrace
 10
4.57
 20
26.3960520678615
 30
0.0
 11
4.57
 21
24.87271873452816
 31
0.0
 12
0.0000000000000004
 22
25.63438540119483
 32
0.0
 13
0.0000000000000004
 23
25.63438540119483
 33
0.0
  0
SOLID
  5
1A91
330
1A81
100
AcDbEntity
  8
2
 62
     0
100
AcDbTrace
 10
48.42999999999999
 20
26.3960520678615
 30
0.0
 11
48.42999999999999
 21
24.87271873452816
 31
0.0
 12
53.0
 22
25.63438540119483
 32
0.0
 13
53.0
 23
25.63438540119483
 33
0.0
  0
MTEXT
  5
1A92
330
1A81
100
AcDbEntity
  8
2
 62
     7
100
AcDbMText
 10
26.5
 20
29.41938540119483
 30
0.0
 40
4.57
 41
0.0
 71
     5
 72
     1
  1
\A1;53
  7
GENPRESET
 73
     1
 44
1.0
  0
POINT
  5
1A93
330
1A81
100
AcDbEntity
  8
Defpoints
 62
     0
100
AcDbPoint
 10
0.0
 20
19.5
 30
0.0
  0
POINT
  5
1A94
330
1A81
100
AcDbEntity
  8
Defpoints
 62
     0
100
AcDbPoint
 10
53.0
 20
11.3457521695
 30
0.0
  0
POINT
  5
1A95
330
1A81
100
AcDbEntity
  8
Defpoints
 62
     0
100
AcDbPoint
 10
53.0
 20
25.63438540119483
 30
0.0
  0
ENDBLK
  5
1A8C
330
1A81
100
AcDbEntity
  8
0
100
AcDbBlockEnd
  0
ENDSEC
  0
SECTION
  2
ENTITIES
  0
MTEXT
  5
36
330
1F
100
AcDbEntity
  8
5
100
AcDbMText
 10
-29.81221426715032
 20
-51.41206393591754
 30
0.0
 40
4.57
 41
0.0
 71
     1
 72
     1
  1
304.039.051.057
  7
GENPRESET
 73
     1
 44
1.0
  0
MTEXT
  5
37
330
1F
100
AcDbEntity
  8
5
100
AcDbMText
 10
-29.76843109435032
 20
-43.37292514301753
 30
0.0
 40
4.57
 41
0.0
 71
     1
 72
     1
  1
Feinbohrkopf_Fine boring head
  7
GENPRESET
 73
     1
 44
1.0
  0
REGION
  5
2AB
330
1F
100
AcDbEntity
  8
5
100
AcDbModelerGeometry
 70
     1
  1
koo mi n o          
  1
h J1410(1 nl ^ \VL kqoqm QK mk R01 U*1 lo nneknelf moog 
  1
rn fqfffffffffffffffj:rooh n:rono 
  1
=0;& {rn {n {rn {rn |
  1
3*2/ {rn {rn {m {o |
  1
,7:33 {rn {rn {rn {l {rn {n |
  1
9><: {rn {rn {k {m {rn {j 90-(>-; ;0*=3: 0*+ |
  1
300/ {rn {rn {i {l |
  1
/3>1:r,*-9><: {rn rmiqlioofnogfgonlon rlkqnjolkmmmgkjimih o o o n n o o 90-(>-;@) V V V V |
  1
<0:;8: {rn {h {g {rn {f 90-(>-; {k {rn |
  1
<0:;8: {rn {no {i {rn {nn 90-(>-; {k {rn |
  1
<0:;8: {rn {i {no {rn {nm 90-(>-; {k {rn |
  1
:;8: {rn {nl {nk {i {nj 90-(>-; |
  1
<0:;8: {rn {g {h {rn {ni -:):-,:; {k {rn |
  1
:;8: {rn {nk {nh {h {ng 90-(>-; |
  1
:;8: {rn {nf {nl {g {mo 90-(>-; |
  1
):-+:' {rn {f {mn |
  1
):-+:' {rn {f {mm |
  1
61+<*-):r<*-): {rn 90-(>-; $ :'><+<*- 1*=, l 0/:1 mg 
  1
 o l oqlfigjomnhmmhnoggk n oqhmihgjfojjnjijimj n nqongknlhimogofofh n nqmhjijkomimihfkmn n 
  1
 nqjjhhfooifjkllfmm n nqginnnojigjoifhom n mqjkkgnlhjikjngfjl n mqgnmoofmlhlingolh n lqokfffiohonmmmllj n 
  1
 lqlloonlmhgjlffngk n lqjhjiljhgilhmngkg n lqflkijnjffnhfgkfk n kqklfnimomimokiofi n kqihhohhmgmkfjfon n 
  1
 kqfjglhmkoiilonmjg n jqlmoknigoglljkill n jqijoooimimfnhomng n iqnnmooijfhfmfnkjk n iqillkinjnnhkjhlfi n 
  1
 iqfknhinkfmmgkfnmf n hqmokikooliljffifi n hqkfmhhkhgfkhifngl n hqhnffflnfkkoglkjn n gqmmhonmnijoikjmjg n 
  1
 gqhgfgkommjlomnifh n fqnlnohigkhjkjhkmm n fqlggifigilfmffjgm l 
  1
 rmlqklhlmolmonmknhm rlmqgkohkmnihmilohl o 
  1
 rmlqkmgfkkfjholmnkk rlmqjhomfjinlkhloli o 
  1
 rmlqknlioiklkghhfm rlmqohjooljffnnmlik o 
  1
 rmlqhijmnkmmgoojnil rlnqkhmjffghnkooiin o 
  1
 rmkqnjlfmngmiljfgil rlnqonfoijghhgfoijk o 
  1
 rmkqihohifhjjfnkjlk rloqhfgmkjkgokigoif o 
  1
 rmjqnhhjoknggmoghgi rloqjjnokhkngomjlhh o 
  1
 rmiqomlihnngohfmmlj rloqkllmgoifkljkmfj o 
  1
 rmiqgiionmkhoinhmj rloqknhjiomfknmgmli o 
  1
 rmhqikjkhnhijjlfgih rloqjgmffnhjkngkfnh o 
  1
 rmgqnmhglogmnhjgjhf rloqhfghkhmflffjfkj o 
  1
 rmgqjllohgmkhgnlmjn rlnqnogmhnjfnmkojlg o 
  1
 rmgqfgiifofohlnonoi rlnqkfkjgnmohloihlh o 
  1
 rmfqlnllgffjinlohm rlmqnhffiifjomhkfnh o 
  1
 rmfqljjfjnhgkmhmif rlmqfjhoihokmjofhkf o 
  1
 rmfqoiokkkkmkojifgm rllqjgooggjikgmffoh o 
  1
 rmgqifohhlnhhfnnilg rlkqojmhnnhmkoooki o 
  1
 rmgqofmlniljmkkmnig rlkqllfkfojfnlohkmk o 
  1
 rmhqlhjkiijolhfhjgl rlkqinonnjnljmnfmhk o 
  1
 rmiqjnomhfhhjmnmlmj rlkqhghfojlloklnjmg o 
  1
 rmjqihljooonlniljll rlkqfnllmnfhijfglgm o 
  1
 rmkqfjljjoigfiklgim rljqmonoohknhjnkiol o 
  1
 rmkqhmjgmojknlfmgoh rljqhgokmmfkohkhfnn o 
  1
 rmkqfooohlolmnlllhg rliqlkmfligknigjfnm o 
  1
 rmjqjikgjhfnfmglhmj rliqinfonoliikljlf o 
  1
 rmiqkohmmhgoilnhjij rliqiffmlhhfkkhjioh o 
  1
 rmhqkmfolmfkofoffoi rliqjjnllgmooglolnj o 
  1
 rmhqggkkionogglkji rljqgkfmhkhlimfnjoj o 
  1
 rmhqfmkihhgkgihojkn rljqkjoimljologkkhm o 
  1
 rmhqfknfhgfhjhlolog rljqmhfnmfnkofgjnfn o 
  1
 o 
  1
 1*33@,*-9><: 
  1
 1*33@,*-9><: 
  1
 1*33=, 
  1
 1*33=, 
  1
 V V 
  1
 o 
  1
 o 
  3
 mi oqlfigjomnhmmhnoggk oqhmihgjfojjnjijimj nqongknlhimogofofh nqmhjijkomimihfkmn nqjjhhfooifjkllfmm nqginnnojigjoifhom mqjkkgnlhjikjngfjl mqgnmoofmlhlingolh lqokfffiohonmmmllj lqlloonlmhgjlffngk lqjhjiljhgilhmngkg lqflkijnjffnhfgkfk kqklfnimomimokiofi kq
  1
ihhohhmgmkfjfon kqfjglhmkoiilonmjg jqlmoknigoglljkill jqijoooimimfnhomng iqnnmooijfhfmfnkjk iqillkinjnnhkjhlfi iqfknhinkfmmgkfnmf hqmokikooliljffifi hqkfmhhkhgfkhifngl hqhnffflnfkkoglkjn gqmmhonmnijoikjmjg gqhgfgkommjlomnifh fqnlnohigkhjkjhkmm 
  1
 Y n Y o " V V |
  1
:;8: {rn {nf {nh {no {ml 90-(>-; |
  1
):-+:' {rn {nn {mk |
  1
,+->687+r<*-): {rn rmhqfknfhgfhjhlolog rljqmhfnmfnkofgjnfn o roqffffffnohkimjmnfi roqoonllioiiihkhngjfkh o V V |
  1
):-+:' {rn {ni {mj |
  1
,+->687+r<*-): {rn rmjqongkgkmlfimliok rlmqglfokggkjiigmom o oqffffffkmijjnoghjl roqoonohoflloomjjmgofg o V V |
  1
/061+ {rn rmlqklhlmolmonmknhm rlmqgkohkmnihmilohl o |
  1
/061+ {rn rmhqfknfhgfhjhlolog rljqmhfnmfnkofgjnfn o |
  1
61+<*-):r<*-): {rn 90-(>-; $ :'><+<*- 1*=, l 0/:1 mk 
  1
 o l oqligokiljfljmjmjj n oqikiffjgmifofigklg n nqoigjglohkoojklhk n nqiohihjljnioiinng n 
  1
 nqfhmmojknmiffgfof n mqnfkhjgmkmhhogjlf n mqioinmmijimmmlmmg n lqnlhnlfiiikkokmkj n lqifnmlfgjmonggmhk n 
  1
 kqokoilfionkiiffnk n kqlffkggihjloikjmk n kqgnjjkihfkomhonmj n jqljoknhiinlnnjjjf n jqgnogkngnofmjifjk n 
  1
 iqmmhnfffmkgnlkoni n iqinkmilhmmmoihgkk n hqkgfigmoofjhoomml n hqgihgfiogmnmng n gqmjlnglnofmnkimnl n 
  1
 gqjjhhkmomokmlmfin n gqhimgololoifolglj n fqnknnhijkkiknoojg n fqmjiilgghlkomkimn l 
  1
 rmjqongkgkmlfimliok rlmqglfokggkjiigmom o 
  1
 rmjqokkllohkigghjfi rlmqjgogmhijlnihkok o 
  1
 rmjqogfhiigmmgkiiji rlmqnmigfjinjnffmln o 
  1
 rmjqhkinhfkgnffnihj rlnqhollllmkhigjgf o 
  1
 rmiqjlhoillgfkoggnk rlnqiimjkinngljlokf o 
  1
 rmhqimohmlnhmgkhikh rlnqifikmjgjnmljmoj o 
  1
 rmhqhkomfglfkmilohg rlmqikhkinkmihggnnm o 
  1
 rmhqmlkkjfofgommimi rllqnklilogjlhfhhol o 
  1
 rmiqklnmnnkgjofjhjg rllqmmfjjllmikjghgj o 
  1
 rmjqkhkmolnfohjllnj rllqkimkgngkjgkkomj o 
  1
 rmkqjmimmilfkiinnof rllqijfkghglgloglog o 
  1
 rmlqhggolgmgjmmknin rlkqogminlmfjokoiom o 
  1
 rmlqmhnnknlhmiknljl rlkqiionifgogomkjlk o 
  1
 rmlqogkiokhhmlnmokg rljqjlfmgflmliigokk o 
  1
 rmlqmmnnolflnmnnfgj rliqjniklgimgjkkfin o 
  1
 rmlqggfookmjlngomki rlhqmlhgkoflhgghnhn o 
  1
 rmkqiljohhfnlhiigj rlhqiljfnjflmlkighi o 
  1
 rmjqhoglfmnlgjnfoln rlhqffmkfloiljjkgok o 
  1
 rmiqgmfniifkjfgkgof rlhqghfmjhjifomhlkj o 
  1
 rmhqfomfllfhfjmghig rlhqigknhjngjmfijfi o 
  1
 rmgqjjimffmghojlhnf rlhqljflfkgmfohhfjh o 
  1
 rmgqfhnjlfjogmoofhi rliqfmnkngklilmgffm o 
  1
 rmfqljlmohhfmfhooig rliqkhfinlhnomjnoni o 
  1
 rmfqkkfnojmfllmjgjh rljqfnmllglnlfklhoh o 
  1
 rmfqjonfkiifkknnkjg rljqhnjilnfjigoffnj o 
  1
 rmfqjmhnmjighmfijhj rljqmgnmkhookjhnlmh o 
  1
 o 
  1
 1*33@,*-9><: 
  1
 1*33@,*-9><: 
  1
 1*33=, 
  1
 1*33=, 
  1
 V V 
  1
 o 
  1
 o 
  3
 mm oqligokiljfljmjmjj oqikiffjgmifofigklg nqoigjglohkoojklhk nqiohihjljnioiinng nqfhmmojknmiffgfof mqnfkhjgmkmhhogjlf mqioinmmijimmmlmmg lqnlhnlfiiikkokmkj lqifnmlfgjmonggmhk kqokoilfionkiiffnk kqlffkggihjloikjmk kqgnjjkihfkomhonmj jqljoknhiinlnnjjjf jqg
  1
nogkngnofmjifjk iqmmhnfffmkgnlkoni iqinkmilhmmmoihgkk hqkgfigmoofjhoomml hqgihgfiogmnmng gqmjlnglnofmnkimnl gqjjhhkmomokmlmfin gqhimgololoifolglj fqnknnhijkkiknoojg 
  1
 Y n Y o " V V |
  1
/061+ {rn rmfqjmhnmjighmfijhj rljqmgnmkhookjhnlmh o |
  1
/061+ {rn rmjqongkgkmlfimliok rlmqglfokggkjiigmom o |
  0
REGION
  5
2AC
330
1F
100
AcDbEntity
  8
5
100
AcDbModelerGeometry
 70
     1
  1
koo mi n o          
  1
h J1410(1 nl ^ \VL kqoqm QK mk R01 U*1 lo nneknelf moog 
  1
rn fqfffffffffffffffj:rooh n:rono 
  1
=0;& {rn {n {rn {rn |
  1
3*2/ {rn {rn {m {o |
  1
,7:33 {rn {rn {rn {l {rn {n |
  1
9><: {rn {rn {k {m {rn {j 90-(>-; ;0*=3: 0*+ |
  1
300/ {rn {rn {i {l |
  1
/3>1:r,*-9><: {rn noqmkinfijfimnnlkg rllqfkjnongfnggjnni o o o n n o o 90-(>-;@) V V V V |
  1
<0:;8: {rn {h {g {rn {f -:):-,:; {k {rn |
  1
<0:;8: {rn {no {i {rn {nn -:):-,:; {k {rn |
  1
<0:;8: {rn {i {no {rn {nm -:):-,:; {k {rn |
  1
:;8: {rn {nl {nk {i {nj 90-(>-; |
  1
<0:;8: {rn {g {h {rn {ni -:):-,:; {k {rn |
  1
:;8: {rn {nh {nl {h {ng 90-(>-; |
  1
:;8: {rn {nk {nf {g {mo 90-(>-; |
  1
):-+:' {rn {f {mn |
  1
):-+:' {rn {f {mm |
  1
,+->687+r<*-): {rn rmfqijghjnnjomiojnk rmhqfnkmkjkljlllik o n o o V V |
  1
:;8: {rn {nf {nh {no {ml 90-(>-; |
  1
):-+:' {rn {ni {mk |
  1
,+->687+r<*-): {rn rmfqijghjnnjomiojnk rlfqfhjfjglkgklijfm o o n o V V |
  1
):-+:' {rn {nm {mj |
  1
,+->687+r<*-): {rn joqnjnnkklkmiglmn rmhqfnkmkjkljlllik o o rn o V V |
  1
/061+ {rn rmfqijghjnnjomiojnk rmhqfnkmkjkljlllik o |
  1
/061+ {rn joqnjnnkklkmiglmn rmhqfnkmkjkljlllik o |
  1
,+->687+r<*-): {rn joqnjnnkklkmiglmn rlfqfhjfjglkgklijfm o rn o o V V |
  1
/061+ {rn rmfqijghjnnjomiojnk rlfqfhjfjglkgklijfm o |
  1
/061+ {rn joqnjnnkklkmiglmn rlfqfhjfjglkgklijfm o |
  0
REGION
  5
2AD
330
1F
100
AcDbEntity
  8
5
100
AcDbModelerGeometry
 70
     1
  1
koo mi n o          
  1
h J1410(1 nl ^ \VL kqoqm QK mk R01 U*1 lo nneknelf moog 
  1
rn fqfffffffffffffffj:rooh n:rono 
  1
=0;& {rn {n {rn {rn |
  1
3*2/ {rn {rn {m {o |
  1
,7:33 {rn {rn {rn {l {rn {n |
  1
9><: {rn {rn {k {m {rn {j 90-(>-; ;0*=3: 0*+ |
  1
300/ {rn {rn {i {l |
  1
/3>1:r,*-9><: {rn riqnhnofnjjolhlgghj rlkqnjolkmmmgkjimih o o o n n o o 90-(>-;@) V V V V |
  1
<0:;8: {rn {h {g {rn {f 90-(>-; {k {rn |
  1
<0:;8: {rn {no {i {rn {nn 90-(>-; {k {rn |
  1
<0:;8: {rn {i {no {rn {nm 90-(>-; {k {rn |
  1
:;8: {rn {nl {nk {i {nj 90-(>-; |
  1
<0:;8: {rn {g {h {rn {ni -:):-,:; {k {rn |
  1
:;8: {rn {nk {nh {h {ng 90-(>-; |
  1
:;8: {rn {nf {nl {g {mo 90-(>-; |
  1
):-+:' {rn {f {mn |
  1
):-+:' {rn {f {mm |
  1
61+<*-):r<*-): {rn 90-(>-; $ :'><+<*- 1*=, l 0/:1 mg 
  1
 o l oqlfigjomnhmmhnoggk n oqhmihgjfojjnjijimj n nqongknlhimogofofh n nqmhjijkomimihfkmn n 
  1
 nqjjhhfooifjkllfmm n nqginnnojigjoifhom n mqjkkgnlhjikjngfjl n mqgnmoofmlhlingolh n lqokfffiohonmmmllj n 
  1
 lqlloonlmhgjlffngk n lqjhjiljhgilhmngkg n lqflkijnjffnhfgkfk n kqklfnimomimokiofi n kqihhohhmgmkfjfon n 
  1
 kqfjglhmkoiilonmjg n jqlmoknigoglljkill n jqijoooimimfnhomng n iqnnmooijfhfmfnkjk n iqillkinjnnhkjhlfi n 
  1
 iqfknhinkfmmgkfnmf n hqmokikooliljffifi n hqkfmhhkhgfkhifngl n hqhnffflnfkkoglkjn n gqmmhonmnijoikjmjg n 
  1
 gqhgfgkommjlomnifh n fqnlnohigkhjkjhkmm n fqlggifigilfmffjgm l 
  1
 rlqmkglmohgoifihjgk rlmqgkohkmnihmilohl o 
  1
 rlqmlffkjknhiokhl rlmqjhomfjinlkhloli o 
  1
 rlqmmkioigfjkjojoil rlmqohjooljffnnmlik o 
  1
 rlqjhimnkiggjhhhkfh rlnqkhmjffghnkooiin o 
  1
 rlqfikfmmmgiflmkkf rlnqonfoijghhgfoijk o 
  1
 rkqkgnhhomnikghnmoh rloqhfgmkjkgokigoif o 
  1
 rkqfggjokikghgnlhmj rloqjjnokhkngomjlhh o 
  1
 rjqglkihniknlikgmn rloqkllmgoifkljkmfj o 
  1
 riqihhonmflnngfgljf rloqknhjiomfknmgmli o 
  1
 rhqkjikhmmminnmkjl rloqjgmffnhjkngkfnh o 
  1
 rhqflgglnmgmllnnijn rloqhfghkhmflffjfkj o 
  1
 rgqlkkohghoglgjglig rlnqnogmhnjfnmkojlg o 
  1
 rgqhfhifnlihggmifng rlnqkfkjgnmohloihlh o 
  1
 rfqnmklfokniholloij rlmqnhffiifjomhkfnh o 
  1
 rfqniifjmmkkgkjmhih rlmqfjhoihokmjofhkf o 
  1
 rgqghnkkkggkimfjigm rllqjgooggjikgmffoh o 
  1
 rgqjonhhlilgkgkmmlh rlkqojmhnnhmkoooki o 
  1
 rhqfollnignlonkhjkk rlkqllfkfojfnlohkmk o 
  1
 rhqngikiifiklhonigf rlkqinonnjnljmnfmhk o 
  1
 riqlmnmgomljhgkfnnk rlkqhghfojlloklnjmg o 
  1
 rjqkgkjookhlhlinnfk rlkqfnllmnfhijfglgm o 
  1
 rkqhikjjnnjomnikkgn rljqmonoohknhjnkiol o 
  1
 rkqjligmnoonfijlfl rljqhgokmmfkohkhfnn o 
  1
 rkqhnnohlkfmhojfilf rliqlkmfligknigjfnm o 
  1
 rjqlhjgjglhfgjilnof rliqinfonoliikljlf o 
  1
 riqmngmmgmiigfonjoh rliqiffmlhhfkkhjioh o 
  1
 rhqmkoollkonkgmkfmn rliqjjnllgmooglolnj o 
  1
 rhqifjkiojifkohnkin rljqgkfmhkhlimfnjoj o 
  1
 rhqhljihglofmklnmhm rljqkjoimljologkkhm o 
  1
 rhqhjmfhfklilomgfkn rljqmhfnmfnkofgjnfn o 
  1
 o 
  1
 1*33@,*-9><: 
  1
 1*33@,*-9><: 
  1
 1*33=, 
  1
 1*33=, 
  1
 V V 
  1
 o 
  1
 o 
  3
 mi oqlfigjomnhmmhnoggk oqhmihgjfojjnjijimj nqongknlhimogofofh nqmhjijkomimihfkmn nqjjhhfooifjkllfmm nqginnnojigjoifhom mqjkkgnlhjikjngfjl mqgnmoofmlhlingolh lqokfffiohonmmmllj lqlloonlmhgjlffngk lqjhjiljhgilhmngkg lqflkijnjffnhfgkfk kqklfnimomimokiofi kq
  1
ihhohhmgmkfjfon kqfjglhmkoiilonmjg jqlmoknigoglljkill jqijoooimimfnhomng iqnnmooijfhfmfnkjk iqillkinjnnhkjhlfi iqfknhinkfmmgkfnmf hqmokikooliljffifi hqkfmhhkhgfkhifngl hqhnffflnfkkoglkjn gqmmhonmnijoikjmjg gqhgfgkommjlomnifh fqnlnohigkhjkjhkmm 
  1
 Y n Y o " V V |
  1
:;8: {rn {nf {nh {no {ml 90-(>-; |
  1
):-+:' {rn {nn {mk |
  1
,+->687+r<*-): {rn rhqhjmfhfklilomgfkn rljqmhfnmfnkofgjnfn o roqffffffnohkimjmnfi roqoonllioiiihkhngjfkh o V V |
  1
):-+:' {rn {ni {mj |
  1
,+->687+r<*-): {rn rkqgmfkgkhoonfingfg rlmqglfokggkjiigmom o oqffffffkmijjnoghjl roqoonohoflloomjjmgofg o V V |
  1
/061+ {rn rlqmkglmohgoifihjgk rlmqgkohkmnihmilohl o |
  1
/061+ {rn rhqhjmfhfklilomgfkn rljqmhfnmfnkofgjnfn o |
  1
61+<*-):r<*-): {rn 90-(>-; $ :'><+<*- 1*=, l 0/:1 mk 
  1
 o l oqligokiljfljmjmjj n oqikiffjgmifofigklg n nqoigjglohkoojklhk n nqiohihjljnioiinng n 
  1
 nqfhmmojknmiffgfof n mqnfkhjgmkmhhogjlf n mqioinmmijimmmlmmg n lqnlhnlfiiikkokmkj n lqifnmlfgjmonggmhk n 
  1
 kqokoilfionkiiffnk n kqlffkggihjloikjmk n kqgnjjkihfkomhonmj n jqljoknhiinlnnjjjf n jqgnogkngnofmjifjk n 
  1
 iqmmhnfffmkgnlkoni n iqinkmilhmmmoihgkk n hqkgfigmoofjhoomml n hqgihgfiogmnmng n gqmjlnglnofmnkimnl n 
  1
 gqjjhhkmomokmlmfin n gqhimgololoifolglj n fqnknnhijkkiknoojg n fqmjiilgghlkomkimn l 
  1
 rkqgmfkgkhoonfingfg rlmqglfokggkjiigmom o 
  1
 rkqgjjllnmohkiongm rlmqjgogmhijlnihkok o 
  1
 rkqfoohihmglknfmknf rlmqnmigfjinjnffmln o 
  1
 rjqjjhnhffkmjikmin rlnqhollllmkhigjgf o 
  1
 riqlkgoilgkffgnkooi rlnqiimjkinngljlokf o 
  1
 rhqklnhmlillkmomllj rlnqifikmjgjnmljmoj o 
  1
 rhqjjnmfggjkgljiikj rlmqikhkinkmihggnnm o 
  1
 rhqokjkjfjjgjfjmnm rllqnklilogjlhfhhol o 
  1
 riqmkmmnnfkjiiglkkh rllqmmfjjllmikjghgj o 
  1
 rjqmgjmolijnlmjfoof rllqkimkgngkjgkkomj o 
  1
 rkqllhmmigjjmllifkg rllqijfkghglgloglog o 
  1
 rlqjffolghkjhfihkhm rlkqogminlmfjokoiom o 
  1
 rlqogmnkngllmnlflgg rlkqiionifgogomkjlk o 
  1
 rmqgfjiojmlmggkilk rljqjlfmgflmliigokk o 
  1
 rlqolmnoklfnhgkjhnk rliqjniklgimgjkkfin o 
  1
 rlqhooookhnlhjmglmh rlhqmlhgkoflhgghnhn o 
  1
 rkqkkiohglhkllfkljf rlhqiljfnjflmlkighi o 
  1
 rjqjnflfmjffofninhn rlhqffmkfloiljjkgok o 
  1
 riqikonihkoijjhlfjh rlhqghfmjhjifomhlkj o 
  1
 rhqhnlflkkkononljkj rlhqigknhjngjmfijfi o 
  1
 rgqlihmffhkhimilokf rlhqljflfkgmfohhfjh o 
  1
 rgqhgmjlffighhljimi rliqfmnkngklilmgffm o 
  1
 rfqnikmogmjljkmijlf rliqkhfinlhnomjnoni o 
  1
 rfqmionojhjlgfgkklj rljqfnmllglnlfklhoh o 
  1
 rfqlnmfkhnjkfgkokki rljqhnjilnfjigoffnj o 
  1
 rfqllgnminkhgifninl rljqmgnmkhookjhnlmh o 
  1
 o 
  1
 1*33@,*-9><: 
  1
 1*33@,*-9><: 
  1
 1*33=, 
  1
 1*33=, 
  1
 V V 
  1
 o 
  1
 o 
  3
 mm oqligokiljfljmjmjj oqikiffjgmifofigklg nqoigjglohkoojklhk nqiohihjljnioiinng nqfhmmojknmiffgfof mqnfkhjgmkmhhogjlf mqioinmmijimmmlmmg lqnlhnlfiiikkokmkj lqifnmlfgjmonggmhk kqokoilfionkiiffnk kqlffkggihjloikjmk kqgnjjkihfkomhonmj jqljoknhiinlnnjjjf jqg
  1
nogkngnofmjifjk iqmmhnfffmkgnlkoni iqinkmilhmmmoihgkk hqkgfigmoofjhoomml hqgihgfiogmnmng gqmjlnglnofmnkimnl gqjjhhkmomokmlmfin gqhimgololoifolglj fqnknnhijkkiknoojg 
  1
 Y n Y o " V V |
  1
/061+ {rn rfqllgnminkhgifninl rljqmgnmkhookjhnlmh o |
  1
/061+ {rn rkqgmfkgkhoonfingfg rlmqglfokggkjiigmom o |
  0
REGION
  5
2AE
330
1F
100
AcDbEntity
  8
5
100
AcDbModelerGeometry
 70
     1
  1
koo hn n o          
  1
h J1410(1 nl ^ \VL kqoqm QK mk R01 U*1 lo nneknelf moog 
  1
rn fqfffffffffffffffj:rooh n:rono 
  1
=0;& {rn {n {rn {rn |
  1
3*2/ {rn {rn {m {o |
  1
,7:33 {rn {rn {rn {l {rn {n |
  1
9><: {rn {rn {k {m {rn {j 90-(>-; ;0*=3: 0*+ |
  1
300/ {rn {rn {i {l |
  1
/3>1:r,*-9><: {rn rnhqhfmkilgkgnofhnf rllqihmhgklhkfjmknk o o o n n o o 90-(>-;@) V V V V |
  1
<0:;8: {rn {h {g {rn {f -:):-,:; {k {rn |
  1
<0:;8: {rn {no {i {rn {nn -:):-,:; {k {rn |
  1
<0:;8: {rn {i {nm {rn {nl -:):-,:; {k {rn |
  1
:;8: {rn {nk {nj {i {ni 90-(>-; |
  1
<0:;8: {rn {nh {h {rn {ng -:):-,:; {k {rn |
  1
:;8: {rn {nf {nk {h {mo 90-(>-; |
  1
<0:;8: {rn {g {mn {rn {mm -:):-,:; {k {rn |
  1
:;8: {rn {nj {ml {g {mk 90-(>-; |
  1
):-+:' {rn {f {mj |
  1
):-+:' {rn {f {mi |
  1
,+->687+r<*-): {rn rnjqhhlkggfkjfiflkg rljqmkhijhhgjomkohk o oqmiolomoihhijflglf oqfijjmhmlogjmomljm o V V |
  1
<0:;8: {rn {mh {no {rn {mg -:):-,:; {k {rn |
  1
:;8: {rn {mf {nf {no {lo 90-(>-; |
  1
):-+:' {rn {ng {ln |
  1
,+->687+r<*-): {rn rnhqoolmlohkihfnjgh rloqjlfogjgmlilfmgl o oqmjmifkglnjlkokkfl roqfihjkiolnooimihlj o V V |
  1
<0:;8: {rn {nm {lm {rn {ll -:):-,:; {k {rn |
  1
:;8: {rn {ml {lk {nm {lj 90-(>-; |
  1
):-+:' {rn {nl {li |
  1
,+->687+r<*-): {rn rnkqjokohhgnnnflnji rloqjlfogjgmlilfmgl o n o o V V |
  1
/061+ {rn rnjqhhlkggfkjfiflkg rljqmkhijhhgjomkohk o |
  1
/061+ {rn rnkqjokohhgnnnflnji rloqjlfogjgmlilfmgl o |
  1
<0:;8: {rn {lh {nh {rn {lg -:):-,:; {k {rn |
  1
:;8: {rn {lf {mf {nh {ko 90-(>-; |
  1
):-+:' {rn {mg {kn |
  1
,+->687+r<*-): {rn rngqjgoohgogifkglll rloqjlfogjgmlilfmgl o n o o V V |
  1
/061+ {rn rnhqoolmlohkihfnjgh rloqjlfogjgmlilfmgl o |
  1
<0:;8: {rn {mn {km {rn {kl -:):-,:; {k {rn |
  1
:;8: {rn {lk {kk {mn {kj 90-(>-; |
  1
):-+:' {rn {mm {ki |
  1
,+->687+r<*-): {rn rnmqgkihjmfffkgnlfi rloqjlfogjgmlilfmgl o roqmimioiiiomnmjnlhm roqfikfomfhomjhikigm o V V |
  1
/061+ {rn rnmqgkihjmfffkgnlfi rloqjlfogjgmlilfmgl o |
  1
<0:;8: {rn {kh {mh {rn {kg -:):-,:; {k {rn |
  1
:;8: {rn {kf {lf {mh {jo 90-(>-; |
  1
):-+:' {rn {lg {jn |
  1
,+->687+r<*-): {rn rnfqfngfofkmllgnjfm rljqmkhijhhgjomkohk o oqmhlkfgomkgonoohjk oqfinghmjikjkhgfii o V V |
  1
/061+ {rn rngqjgoohgogifkglll rloqjlfogjgmlilfmgl o |
  1
<0:;8: {rn {lm {jm {rn {jl -:):-,:; {k {rn |
  1
:;8: {rn {kk {jk {lm {jj 90-(>-; |
  1
):-+:' {rn {ll {ji |
  1
,+->687+r<*-): {rn rnkqgnmfnknnohnlnof rlhqhilkoilgffgkhlg o rn o o V V |
  1
/061+ {rn rnkqgnmfnknnohnlnof rlhqhilkoilgffgkhlg o |
  1
<0:;8: {rn {jm {lh {rn {jh -:):-,:; {k {rn |
  1
:;8: {rn {jg {kf {lh {jf 90-(>-; |
  1
):-+:' {rn {kg {io |
  1
,+->687+r<*-): {rn rmnqomfikkhlmifngj rloqjlfogjgmlilfmgl o oqmmfjfkhikgmiijolh roqfhlmgilnnkomgijmi o V V |
  1
/061+ {rn rnfqfngfofkmllgnjfm rljqmkhijhhgjomkohk o |
  1
<0:;8: {rn {km {kh {rn {in -:):-,:; {k {rn |
  1
:;8: {rn {jk {im {km {il 90-(>-; |
  1
):-+:' {rn {kl {ik |
  1
,+->687+r<*-): {rn rniqkiiljnmgmlgiffj rlhqhilkoilgffgkhlg o roqmhoiilkmjjoimflmk oqfimihkoknkjjfgkf o V V |
  1
/061+ {rn rniqkiiljnmgmlgiffj rlhqhilkoilgffgkhlg o |
  1
:;8: {rn {ij {jg {kh {ii 90-(>-; |
  1
):-+:' {rn {jh {ih |
  1
,+->687+r<*-): {rn rmmqhkjlllfgijnmnjn rloqjlfogjgmlilfmgl o n o o V V |
  1
/061+ {rn rmnqomfikkhlmifngj rloqjlfogjgmlilfmgl o |
  1
:;8: {rn {im {ij {jm {ig 90-(>-; |
  1
):-+:' {rn {jl {if |
  1
,+->687+r<*-): {rn rnhqgniofikojjoomhj rlmqfimhkogomjjgj o roqmkfjhmmgonhfinini roqfigljinhmjhjfjmnf o V V |
  1
/061+ {rn rnhqgniofikojjoomhj rlmqfimhkogomjjgj o |
  1
):-+:' {rn {in {ho |
  1
,+->687+r<*-): {rn rmoqhjnhfomljgjmonl rlhqhilkoilgffgkhlg o roqmiiooiglkhhmfmkkh oqfilfhnnkmikjfmkgh o V V |
  1
/061+ {rn rmmqhkjlllfgijnmnjn rloqjlfogjgmlilfmgl o |
  1
,+->687+r<*-): {rn rnfqojllinmjgookjkl rlhqhilkoilgffgkhlg o rn o o V V |
  1
/061+ {rn rnfqojllinmjgookjkl rlhqhilkoilgffgkhlg o |
  1
/061+ {rn rmoqhjnhfomljgjmonl rlhqhilkoilgffgkhlg o |
  0
REGION
  5
2AF
330
1F
100
AcDbEntity
  8
5
100
AcDbModelerGeometry
 70
     1
  1
koo mi n o          
  1
h J1410(1 nl ^ \VL kqoqm QK mk R01 U*1 lo nneknelf moog 
  1
rn fqfffffffffffffffj:rooh n:rono 
  1
=0;& {rn {n {rn {rn |
  1
3*2/ {rn {rn {m {o |
  1
,7:33 {rn {rn {rn {l {rn {n |
  1
9><: {rn {rn {k {m {rn {j 90-(>-; ;0*=3: 0*+ |
  1
300/ {rn {rn {i {l |
  1
/3>1:r,*-9><: {rn rnnqoffgijfimfhgifh rlkqnjjnmnhkghnohkn o o o n n o o 90-(>-;@) V V V V |
  1
<0:;8: {rn {h {g {rn {f -:):-,:; {k {rn |
  1
<0:;8: {rn {no {i {rn {nn -:):-,:; {k {rn |
  1
<0:;8: {rn {i {no {rn {nm -:):-,:; {k {rn |
  1
:;8: {rn {nl {nk {i {nj 90-(>-; |
  1
<0:;8: {rn {g {h {rn {ni -:):-,:; {k {rn |
  1
:;8: {rn {nh {nl {h {ng 90-(>-; |
  1
:;8: {rn {nk {nf {g {mo 90-(>-; |
  1
):-+:' {rn {f {mn |
  1
):-+:' {rn {f {mm |
  1
,+->687+r<*-): {rn rnoqmolllmfhkmmmnmn rloqjikiooffnnimhfn o o rn o V V |
  1
:;8: {rn {nf {nh {no {ml 90-(>-; |
  1
):-+:' {rn {ni {mk |
  1
,+->687+r<*-): {rn rnnqffilfgfjnhljmhl rloqjikiooffnnimhfn o n o o V V |
  1
):-+:' {rn {nm {mj |
  1
,+->687+r<*-): {rn rnoqmolllmfhkmmmnmn rlhqhkjikmjoimjgif o rn o o V V |
  1
/061+ {rn rnoqmolllmfhkmmmnmn rloqjikiooffnnimhfn o |
  1
/061+ {rn rnoqmolllmfhkmmmnmn rlhqhkjikmjoimjgif o |
  1
,+->687+r<*-): {rn rnnqffilfgfjnhljmhl rlhqhkjikmjoimjgif o o n o V V |
  1
/061+ {rn rnnqffilfgfjnhljmhl rloqjikiooffnnimhfn o |
  1
/061+ {rn rnnqffilfgfjnhljmhl rlhqhkjikmjoimjgif o |
  0
REGION
  5
2B0
330
1F
100
AcDbEntity
  8
5
100
AcDbModelerGeometry
 70
     1
  1
koo mi n o          
  1
h J1410(1 nl ^ \VL kqoqm QK mk R01 U*1 lo nneknelf moog 
  1
rn fqfffffffffffffffj:rooh n:rono 
  1
=0;& {rn {n {rn {rn |
  1
3*2/ {rn {rn {m {o |
  1
,7:33 {rn {rn {rn {l {rn {n |
  1
9><: {rn {rn {k {m {rn {j 90-(>-; ;0*=3: 0*+ |
  1
300/ {rn {rn {i {l |
  1
/3>1:r,*-9><: {rn oqgligjjlhgmnlhglhj rlkqnjolkmmmgkjimih o o o n n o o 90-(>-;@) V V V V |
  1
<0:;8: {rn {h {g {rn {f 90-(>-; {k {rn |
  1
<0:;8: {rn {no {i {rn {nn 90-(>-; {k {rn |
  1
<0:;8: {rn {i {no {rn {nm 90-(>-; {k {rn |
  1
:;8: {rn {nl {nk {i {nj 90-(>-; |
  1
<0:;8: {rn {g {h {rn {ni -:):-,:; {k {rn |
  1
:;8: {rn {nk {nh {h {ng 90-(>-; |
  1
:;8: {rn {nf {nl {g {mo 90-(>-; |
  1
):-+:' {rn {f {mn |
  1
):-+:' {rn {f {mm |
  1
61+<*-):r<*-): {rn 90-(>-; $ :'><+<*- 1*=, l 0/:1 mg 
  1
 o l oqlfigjomnhmmhnoggk n oqhmihgjfojjnjijimj n nqongknlhimogofofh n nqmhjijkomimihfkmn n 
  1
 nqjjhhfooifjkllfmm n nqginnnojigjoifhom n mqjkkgnlhjikjngfjl n mqgnmoofmlhlingolh n lqokfffiohonmmmllj n 
  1
 lqlloonlmhgjlffngk n lqjhjiljhgilhmngkg n lqflkijnjffnhfgkfk n kqklfnimomimokiofi n kqihhohhmgmkfjfon n 
  1
 kqfjglhmkoiilonmjg n jqlmoknigoglljkill n jqijoooimimfnhomng n iqnnmooijfhfmfnkjk n iqillkinjnnhkjhlfi n 
  1
 iqfknhinkfmmgkfnmf n hqmokikooliljffifi n hqkfmhhkhgfkhifngl n hqhnffflnfkkoglkjn n gqmmhonmnijoikjmjg n 
  1
 gqhgfgkommjlomnifh n fqnlnohigkhjkjhkmm n fqlggifigilfmffjgm l 
  1
 lqhjfiminkhgfofnmg rlmqgkohkmnihmilohl o 
  1
 lqhigoonjnofgmfnmg rlmqjhomfjinlkhloli o 
  1
 lqhgllkoollnlhnikf rlmqohjooljffnnmlik o 
  1
 lqklnhlmmkoooffmnj rlnqkhmjffghnkooiin o 
  1
 lqoklomkiknijjmmmm rlnqonfoijghhgfoijk o 
  1
 mqjminhihnmnoojjoj rloqhfgmkjkgokigoif o 
  1
 mqonfkkmmhfgoimfgg rloqjjnokhkngomjlhh o 
  1
 nqnhlmhjmghmmmgjom rloqkllmgoifkljkmfj o 
  1
 oqllofllffhlfhgljli rloqknhjiomfknmgmli o 
  1
 roqkkgjmjmfhjmkhgnhi rloqjgmffnhjkngkfnh o 
  1
 roqfloggkljlhklkflgg rloqhfghkhmflffjfkj o 
  1
 rnqllinlnhhfhfgniji rlnqnogmhnjfnmkojlg o 
  1
 rnqhgfhkkklfmfjomoi rlnqkfkjgnmohloihlh o 
  1
 rmqnnikklkggnnjiljl rlmqnhffiifjomhkfnh o 
  1
 rmqnjfoojlnimjhiojj rlmqfjhoihokmjofhkf o 
  1
 rnqgilkfhfjiokngfif rllqjgooggjikgmffoh o 
  1
 rnqkflgmihofgfijjmj rlkqojmhnnhmkoooki o 
  1
 roqgfjlifggkkmhoglmn rlkqllfkfojfnlohkmk o 
  1
 roqnhgjmooljhgmkfhik rlkqinonnjnljmnfmhk o 
  1
 oqigiiiiifmgomhjfgl rlkqhghfojlloklnjmg o 
  1
 nqjmlkkikjkgjnjjng rlkqfnllmnfhijfglgm o 
  1
 mqmkllfjhhglhnmmln rljqmonoohknhjnkiol o 
  1
 mqkhnnmjfmiimmmhgl rljqhgokmmfkohkhfnn o 
  1
 mqmfighlkljggnhohl rliqlkmfligknigjfnm o 
  1
 nqilmoggjkghlnliol rliqinfonoliikljlf o 
  1
 oqhgfhngiinifhjmokh rliqiffmlhhfkkhjioh o 
  1
 roqmlmogikhmgfkgmogh rliqjjnllgmooglolnj o 
  1
 roqighjnlikognfkhkgi rljqgkfmhkhlimfnjoj o 
  1
 roqhmhhlnlgoijjkjjfj rljqkjoimljologkkhm o 
  1
 roqhkjolmjohhnjmmmgf rljqmhfnmfnkofgjnfn o 
  1
 o 
  1
 1*33@,*-9><: 
  1
 1*33@,*-9><: 
  1
 1*33=, 
  1
 1*33=, 
  1
 V V 
  1
 o 
  1
 o 
  3
 mi oqlfigjomnhmmhnoggk oqhmihgjfojjnjijimj nqongknlhimogofofh nqmhjijkomimihfkmn nqjjhhfooifjkllfmm nqginnnojigjoifhom mqjkkgnlhjikjngfjl mqgnmoofmlhlingolh lqokfffiohonmmmllj lqlloonlmhgjlffngk lqjhjiljhgilhmngkg lqflkijnjffnhfgkfk kqklfnimomimokiofi kq
  1
ihhohhmgmkfjfon kqfjglhmkoiilonmjg jqlmoknigoglljkill jqijoooimimfnhomng iqnnmooijfhfmfnkjk iqillkinjnnhkjhlfi iqfknhinkfmmgkfnmf hqmokikooliljffifi hqkfmhhkhgfkhifngl hqhnffflnfkkoglkjn gqmmhonmnijoikjmjg gqhgfgkommjlomnifh fqnlnohigkhjkjhkmm 
  1
 Y n Y o " V V |
  1
:;8: {rn {nf {nh {no {ml 90-(>-; |
  1
):-+:' {rn {nn {mk |
  1
,+->687+r<*-): {rn roqhkjolmjohhnjmmmgf rljqmhfnmfnkofgjnfn o roqffffffnohkimjmnfi roqoonllioiiihkhngjfkh o V V |
  1
):-+:' {rn {ni {mj |
  1
,+->687+r<*-): {rn mqnhgkimmmglfnkgnk rlmqglfokggkjiigmom o oqffffffkmijjnoghjl roqoonohoflloomjjmgofg o V V |
  1
/061+ {rn lqhjfiminkhgfofnmg rlmqgkohkmnihmilohl o |
  1
/061+ {rn roqhkjolmjohhnjmmmgf rljqmhfnmfnkofgjnfn o |
  1
61+<*-):r<*-): {rn 90-(>-; $ :'><+<*- 1*=, l 0/:1 mk 
  1
 o l oqligokiljfljmjmjj n oqikiffjgmifofigklg n nqoigjglohkoojklhk n nqiohihjljnioiinng n 
  1
 nqfhmmojknmiffgfof n mqnfkhjgmkmhhogjlf n mqioinmmijimmmlmmg n lqnlhnlfiiikkokmkj n lqifnmlfgjmonggmhk n 
  1
 kqokoilfionkiiffnk n kqlffkggihjloikjmk n kqgnjjkihfkomhonmj n jqljoknhiinlnnjjjf n jqgnogkngnofmjifjk n 
  1
 iqmmhnfffmkgnlkoni n iqinkmilhmmmoihgkk n hqkgfigmoofjhoomml n hqgihgfiogmnmng n gqmjlnglnofmnkimnl n 
  1
 gqjjhhkmomokmlmfin n gqhimgololoifolglj n fqnknnhijkkiknoojg n fqmjiilgghlkomkimn l 
  1
 mqnhgkimmmglfnkgnk rlmqglfokggkjiigmom o 
  1
 mqnjminjhmnnmhkgfm rlmqjgogmhijlnihkok o 
  1
 mqnohnhfikjnigkmfl rlmqnmigfjinjnffmln o 
  1
 nqkjohiifgiomlknol rlnqhollllmkhigjgf o 
  1
 oqijfgglohgioimhoi rlnqiimjkinngljlokf o 
  1
 roqkmlhhihokglmjimmj rlnqifikmjgjnmljmoj o 
  1
 roqjklljnfmimkhfflll rlmqikhkinkmihggnnm o 
  1
 roqolhjnmilooohjkohfl rllqnklilogjlhfhhol o 
  1
 oqhijhlkfgmfnflmijn rllqmmfjjllmikjghgj o 
  1
 nqhmmhklmhhminhhol rllqkimkgngkjgkkomj o 
  1
 mqihohmoohlljlfhik rllqijfkghglgloglog o 
  1
 lqkogfogngmhfofmk rlkqogminlmfjokoiom o 
  1
 lqfmjgojofjlhlhlmj rlkqiionifgogomkjlk o 
  1
 kqnnmlknifjhololhm rljqjlfmgflmliigokk o 
  1
 lqfhjgkmjligoloffg rliqjniklgimgjkkfin o 
  1
 lqlohfkmmnkglkglgj rlhqmlhgkoflhgghnhn o 
  1
 mqjingigjjkmkgmljl rlhqiljfnjflmlkighi o 
  1
 nqkggjjklmfkfiojkm rlhqffmkfloiljjkgok o 
  1
 oqlihhhfjmmolomhjjl rlhqghfmjhjifomhlkj o 
  1
 roqhojfghjnnjnliglll rlhqigknhjngjmfijfi o 
  1
 rnqljfljmgnfolgillh rlhqljflfkgmfohhfjh o 
  1
 rnqhhkjflokongjgfnk rliqfmnkngklilmgffm o 
  1
 rmqnjiminlmkfjkfgmh rliqkhfinlhnomjnoni o 
  1
 rmqmjmnjggmjlnohhml rljqfnmllglnlfklhoh o 
  1
 rmqlojooommilfilhlk rljqhnjilnfjigoffnj o 
  1
 rmqllonhfmnfmgnkfon rljqmgnmkhookjhnlmh o 
  1
 o 
  1
 1*33@,*-9><: 
  1
 1*33@,*-9><: 
  1
 1*33=, 
  1
 1*33=, 
  1
 V V 
  1
 o 
  1
 o 
  3
 mm oqligokiljfljmjmjj oqikiffjgmifofigklg nqoigjglohkoojklhk nqiohihjljnioiinng nqfhmmojknmiffgfof mqnfkhjgmkmhhogjlf mqioinmmijimmmlmmg lqnlhnlfiiikkokmkj lqifnmlfgjmonggmhk kqokoilfionkiiffnk kqlffkggihjloikjmk kqgnjjkihfkomhonmj jqljoknhiinlnnjjjf jqg
  1
nogkngnofmjifjk iqmmhnfffmkgnlkoni iqinkmilhmmmoihgkk hqkgfigmoofjhoomml hqgihgfiogmnmng gqmjlnglnofmnkimnl gqjjhhkmomokmlmfin gqhimgololoifolglj fqnknnhijkkiknoojg 
  1
 Y n Y o " V V |
  1
/061+ {rn rmqllonhfmnfmgnkfon rljqmgnmkhookjhnlmh o |
  1
/061+ {rn mqnhgkimmmglfnkgnk rlmqglfokggkjiigmom o |
  0
REGION
  5
2B1
330
1F
100
AcDbEntity
  8
5
100
AcDbModelerGeometry
 70
     1
  1
koo ii n o          
  1
h J1410(1 nl ^ \VL kqoqm QK mk R01 U*1 lo nneknelf moog 
  1
rn fqfffffffffffffffj:rooh n:rono 
  1
=0;& {rn {n {rn {rn |
  1
3*2/ {rn {rn {m {o |
  1
,7:33 {rn {rn {rn {l {rn {n |
  1
9><: {rn {rn {k {m {rn {j 90-(>-; ;0*=3: 0*+ |
  1
300/ {rn {rn {i {l |
  1
/3>1:r,*-9><: {rn gqfgnnkggininhifhl rlkqnimhjhmokmhoflm o o o n n o o 90-(>-;@) V V V V |
  1
<0:;8: {rn {h {g {rn {f 90-(>-; {k {rn |
  1
<0:;8: {rn {no {i {rn {nn 90-(>-; {k {rn |
  1
<0:;8: {rn {i {nm {rn {nl 90-(>-; {k {rn |
  1
:;8: {rn {nk {nj {i {ni 90-(>-; |
  1
<0:;8: {rn {nh {h {rn {ng 90-(>-; {k {rn |
  1
:;8: {rn {nj {nf {h {mo 90-(>-; |
  1
<0:;8: {rn {g {mn {rn {mm 90-(>-; {k {rn |
  1
:;8: {rn {ml {nk {g {mk 90-(>-; |
  1
):-+:' {rn {f {mj |
  1
):-+:' {rn {f {mi |
  1
,+->687+r<*-): {rn gqokninoflnihngnmn rlnqnffnfnklmhlokl o o rn o V V |
  1
<0:;8: {rn {mh {no {rn {mg 90-(>-; {k {rn |
  1
:;8: {rn {nf {mf {no {lo 90-(>-; |
  1
):-+:' {rn {nn {ln |
  1
,+->687+r<*-): {rn gqokninoflnihngnmn rllqlgmghnimhfinkoh o rn o o V V |
  1
<0:;8: {rn {nm {lm {rn {ll 90-(>-; {k {rn |
  1
:;8: {rn {lk {ml {nm {lj 90-(>-; |
  1
):-+:' {rn {mm {li |
  1
,+->687+r<*-): {rn fqfnkngkhlimjjmijl rlnqnffnfnklmhlokl o rn o o V V |
  1
/061+ {rn gqokninoflnihngnmn rlnqnffnfnklmhlokl o |
  1
/061+ {rn gqokninoflnihngnmn rllqlgmghnimhfinkoh o |
  1
<0:;8: {rn {lh {nh {rn {lg 90-(>-; {k {rn |
  1
:;8: {rn {mf {lf {nh {ko 90-(>-; |
  1
):-+:' {rn {ng {kn |
  1
,+->687+r<*-): {rn jqgjifknkfmffnnjkj rllqlgmghnimhfinkoh o o rn o V V |
  1
/061+ {rn jqgjifknkfmffnnjkj rllqlgmghnimhfinkoh o |
  1
<0:;8: {rn {mn {km {rn {kl 90-(>-; {k {rn |
  1
:;8: {rn {kk {lk {mn {kj 90-(>-; |
  1
):-+:' {rn {ll {ki |
  1
,+->687+r<*-): {rn fqfnkngkhlimjjmijl rllqlillhkigmkogkm o o n o V V |
  1
/061+ {rn fqfnkngkhlimjjmijl rlnqnffnfnklmhlokl o |
  1
<0:;8: {rn {kh {mh {rn {kg 90-(>-; {k {rn |
  1
:;8: {rn {lf {kf {mh {jo 90-(>-; |
  1
):-+:' {rn {mg {jn |
  1
,+->687+r<*-): {rn jqgjifknkfmffnnjkj rlkqfkmikmhgojgokgj o n o o V V |
  1
/061+ {rn jqgjifknkfmffnnjkj rlkqfkmikmhgojgokgj o |
  1
<0:;8: {rn {lm {kh {rn {jm 90-(>-; {k {rn |
  1
:;8: {rn {jl {kk {lm {jk 90-(>-; |
  1
):-+:' {rn {kl {jj |
  1
,+->687+r<*-): {rn nmqnngliolkogiogng rllqlillhkigmkogkm o rn o o V V |
  1
/061+ {rn fqfnkngkhlimjjmijl rllqlillhkigmkogkm o |
  1
<0:;8: {rn {km {lh {rn {ji 90-(>-; {k {rn |
  1
:;8: {rn {kf {jh {lh {jg 90-(>-; |
  1
):-+:' {rn {lg {jf |
  1
,+->687+r<*-): {rn gqokninoflnihngnmn rlkqfkmikmhgojgokgj o o rn o V V |
  1
/061+ {rn gqokninoflnihngnmn rlkqfkmikmhgojgokgj o |
  1
:;8: {rn {io {jl {km {in 90-(>-; |
  1
):-+:' {rn {jm {im |
  1
,+->687+r<*-): {rn nmqnngliolkogiogng rlkqfimnlfhminllljg o o n o V V |
  1
/061+ {rn nmqnngliolkogiogng rllqlillhkigmkogkm o |
  1
:;8: {rn {jh {io {kh {il 90-(>-; |
  1
):-+:' {rn {kg {ik |
  1
,+->687+r<*-): {rn gqokninoflnihngnmn rlhqnmilmmfhjgnnkim o n o o V V |
  1
/061+ {rn gqokninoflnihngnmn rlhqnmilmmfhjgnnkim o |
  1
):-+:' {rn {ji {ij |
  1
,+->687+r<*-): {rn fqfnkngkhlimjjmijl rlkqfimnlfhminllljg o n o o V V |
  1
/061+ {rn nmqnngliolkogiogng rlkqfimnlfhminllljg o |
  1
,+->687+r<*-): {rn fqfnkngkhlimjjmijl rlhqnmilmmfhjgnnkim o o n o V V |
  1
/061+ {rn fqfnkngkhlimjjmijl rlhqnmilmmfhjgnnkim o |
  1
/061+ {rn fqfnkngkhlimjjmijl rlkqfimnlfhminllljg o |
  0
REGION
  5
2B2
330
1F
100
AcDbEntity
  8
5
100
AcDbModelerGeometry
 70
     1
  1
koo mi n o          
  1
h J1410(1 nl ^ \VL kqoqm QK mk R01 U*1 lo nneknelf moog 
  1
rn fqfffffffffffffffj:rooh n:rono 
  1
=0;& {rn {n {rn {rn |
  1
3*2/ {rn {rn {m {o |
  1
,7:33 {rn {rn {rn {l {rn {n |
  1
9><: {rn {rn {k {m {rn {j -:):-,:; ;0*=3: 0*+ |
  1
300/ {rn {rn {i {l |
  1
/3>1:r,*-9><: {rn gqfigkfmnlnkmknnlh rlkqnjnjlojgghnhoof o o o rn rn o o 90-(>-;@) V V V V |
  1
<0:;8: {rn {h {g {rn {f 90-(>-; {k {rn |
  1
<0:;8: {rn {no {i {rn {nn 90-(>-; {k {rn |
  1
<0:;8: {rn {i {no {rn {nm 90-(>-; {k {rn |
  1
:;8: {rn {nl {nk {i {nj 90-(>-; |
  1
<0:;8: {rn {g {h {rn {ni 90-(>-; {k {rn |
  1
:;8: {rn {nk {nh {h {ng 90-(>-; |
  1
:;8: {rn {nf {nl {g {mo 90-(>-; |
  1
):-+:' {rn {f {mn |
  1
):-+:' {rn {f {mm |
  1
,+->687+r<*-): {rn jqoigmjijlmkmohngf rloqkklmlokkjlggkg o o rn o V V |
  1
:;8: {rn {nh {nf {no {ml 90-(>-; |
  1
):-+:' {rn {nn {mk |
  1
,+->687+r<*-): {rn jqoigmjijlmkmohngf rlhqgjfglohlmokjjlg o n o o V V |
  1
):-+:' {rn {ni {mj |
  1
,+->687+r<*-): {rn nmqgighmhhlokmhjof rloqkklmlokkjlggkg o rn o o V V |
  1
/061+ {rn jqoigmjijlmkmohngf rloqkklmlokkjlggkg o |
  1
/061+ {rn jqoigmjijlmkmohngf rlhqgjfglohlmokjjlg o |
  1
,+->687+r<*-): {rn nmqgighmhhlokmhjof rlhqgjfglohlmokjjlg o o n o V V |
  1
/061+ {rn nmqgighmhhlokmhjof rlhqgjfglohlmokjjlg o |
  1
/061+ {rn nmqgighmhhlokmhjof rloqkklmlokkjlggkg o |
  0
REGION
  5
2B3
330
1F
100
AcDbEntity
  8
5
100
AcDbModelerGeometry
 70
     1
  1
koo nn n o          
  1
h J1410(1 nl ^ \VL kqoqm QK mk R01 U*1 lo nneknelf moog 
  1
rn fqfffffffffffffffj:rooh n:rono 
  1
=0;& {rn {n {rn {rn |
  1
3*2/ {rn {rn {m {o |
  1
,7:33 {rn {rn {rn {l {rn {n |
  1
9><: {rn {rn {k {m {rn {j 90-(>-; ;0*=3: 0*+ |
  1
300/ {rn {rn {i {l |
  1
/3>1:r,*-9><: {rn lmqhoonjmgikgojlng rlkqnjnmgnognggkloi o o o n n o o 90-(>-;@) V V V V |
  1
<0:;8: {rn {i {i {rn {h 90-(>-; {k {rn |
  1
:;8: {rn {g {g {i {f 90-(>-; |
  1
):-+:' {rn {h {no |
  1
61+<*-):r<*-): {rn 90-(>-; $ :'><+<*- 1*=, l <30,:; ml 
  1
 o l oqkoojgnkjmnohkngg n oqhmihiglnghjgffgin n nqojhklkhohmkfhol n nqklknomhhhhofhofh n 
  1
 nqgoifmlifgglhonh n mqljmfhomjhfinmnjn n mqhnlhonofgokhfhml n mqfgjifgglmmmggjih n lqljjojkfjnhjoihji n 
  1
 lqiffhngmihljfiggf n lqfhllnfokkkifnlfj n kqnfhlimgmimnjgnhi n kqljfofhlmhgfkhkg n kqjfkhggnfmglimhhf n 
  1
 kqfllohoihkgffhinh n jqlmjlmjimoogggkon n jqiklmikikjnoglgmn n iqonjoofjlkgojjgji n iqlkmfomgffhhgnjij n 
  1
 iqikfhmnlikhffhogm n iqfngojijnjjghhmfg n hqofnjnggkhoiliojh l 
  1
 lmqignmiljjlhlonoj rlnqhflggijjgkniki o 
  1
 lmqknkklnloiglhhfg rlnqgniniikinlhhfki o 
  1
 lnqflolmnfiknifffn rlnqgjijggjmnifnnml o 
  1
 lnqmhonnjfnmfnhjin rlmqnfimjnojfjojgfh o 
  1
 loqfkhijnoomnnnhkn rlmqgljmnillljlmkgi o 
  1
 loqhkfnonfolgiinnf rllqjnfiokmingnhloh o 
  1
 loqjhoomhginnfmnom rlkqlgmligjhmkiknhl o 
  1
 loqgnjjnfmnifigjlf rljqmnfomnmnnfmjfil o 
  1
 lnqnmfjnkinlokogk rljqfinghfmigkoohli o 
  1
 lnqifjkgiolhikklkl rliqljhoiijmofhkogh o 
  1
 lmqllngnjomknfnkmg rliqjkghojmkhlmnjmn o 
  1
 lmqffghjkjiiogkohk rliqjifkiimngoijool o 
  1
 llqjkfiojhnhkofilk rliqkmfokoinjfgihfl o 
  1
 llqflhgfofnkijjjjk rliqmnjlfoimjnfnom o 
  1
 lkqmjlnmnnijfngkjg rljqflfkmooigomkfl o 
  1
 lkqkgfliioffiongjl rljqkfgjkljjjkmnjkg o 
  1
 lkqiilnggihgfnhkli rlkqghfngnlmifolkmn o 
  1
 lkqgoofknngmhnlngg rlkqngioofkofinomhg o 
  1
 lkqiffinhhillmnglf rllqkionoomjjjkjhnn o 
  1
 lkqkkgohfonkinjgnk rlmqgloglilhlghigkf o 
  1
 lkqnnijoognofjnkfl rlmqmmfnghkoofonln o 
  1
 llqjgkmlimlkikglon rlnqfolnfjmgohjlnjm o 
  1
 llqofmmklnkhkmkhih rlnqhghhkhklghjlggl o 
  1
 lmqhfhnlmkjkgllhgi rlnqhfmnjjhljnlkhff o 
  1
 lmqignmiljjlhlonoj rlnqhflggijjgkniki o 
  1
 o 
  1
 1*33@,*-9><: 
  1
 1*33@,*-9><: 
  1
 1*33=, 
  1
 1*33=, 
  1
 V V 
  1
 o 
  1
 o 
  3
 mn oqkoojgnkjmnohkngg oqhmihiglnghjgffgin nqojhklkhohmkfhol nqklknomhhhhofhofh nqgoifmlifgglhonh mqljmfhomjhfinmnjn mqhnlhonofgokhfhml mqfgjifgglmmmggjih lqljjojkfjnhjoihji lqiffhngmihljfiggf lqfhllnfokkkifnlfj kqnfhlimgmimnjgnhi kqljfofhlmhgfkhkg kqjfkh
  1
ggnfmglimhhf kqfllohoihkgffhinh jqlmjlmjimoogggkon jqiklmikikjnoglgmn iqonjoofjlkgojjgji iqlkmfomgffhhgnjij iqikfhmnlikhffhogm iqfngojijnjjghhmfg 
  1
 Y n Y o " V V |
  1
/061+ {rn lmqignmiljjlhlonoj rlnqhflggijjgkniki o |
  0
REGION
  5
2B4
330
1F
100
AcDbEntity
  8
5
100
AcDbModelerGeometry
 70
     1
  1
koo nn n o          
  1
h J1410(1 nl ^ \VL kqoqm QK mk R01 U*1 lo nneknelf moog 
  1
rn fqfffffffffffffffj:rooh n:rono 
  1
=0;& {rn {n {rn {rn |
  1
3*2/ {rn {rn {m {o |
  1
,7:33 {rn {rn {rn {l {rn {n |
  1
9><: {rn {rn {k {m {rn {j 90-(>-; ;0*=3: 0*+ |
  1
300/ {rn {rn {i {l |
  1
/3>1:r,*-9><: {rn lmqifkfiggjhnmnonm rlkqnggmkknlhohnglk o o o n n o o 90-(>-;@) V V V V |
  1
<0:;8: {rn {i {i {rn {h 90-(>-; {k {rn |
  1
:;8: {rn {g {g {i {f 90-(>-; |
  1
):-+:' {rn {h {no |
  1
61+<*-):r<*-): {rn 90-(>-; $ :'><+<*- 1*=, l <30,:; mg 
  1
 o l oqjmgoifhjffkokifih n oqflmofglijffhhnlml n nqloihiinnoohnkhhg n nqhiljkmjkiinmjogl n 
  1
 mqnnnognoonkmogkkg n mqjillgijfimjkjnik n lqoflnkgomngmkggl n lqjiofnfmlfomimlli n lqfhkfokkklhhjkhig n 
  1
 kqmmmiimiinffogokn n kqimoijkgflgjimkgi n jqnhnhjmjiknoghohf n jqgjhnohgjlmjimmmm n iqmifnifjjikfnhhif n 
  1
 iqinofhklnkknfofok n hqojhfikfhomnjoklj n hqkjfhiggmgmmilljf n hqflgljnffjgoflgkm n gqlkmoookkglnihffl n 
  1
 gqjgkiohmfjkmmgjfi n fqnjglfmnhjohhikfk n fqijimfofkfkhflmmn n noqnoogkffjggjfkfl n noqjokghfmojlgjmoi n 
  1
 noqgklkglgogmlgfkh n nnqoiggghmhoijglhi n nnqhjkmognioiokmgh l 
  1
 lnqfgimhhiijiglkhk rloqjogjkmoimgjojml o 
  1
 lnqiknkjkkjggmnjji rloqjghookfgmmhilfh o 
  1
 lnqolmgojkmhgkgngf rloqhmjjoomkmgmomi o 
  1
 loqmhommlfkofkknil rlnqngioghlgggfhmkf o 
  1
 mfqhjoimhmjohngln rlnqglhlihjgofhfji o 
  1
 mfqlhnnhnjngiinohm rlmqjmhlgmjonfonffh o 
  1
 mfqohfnikiflmnilkm rllqlnfhgkoomonjngl o 
  1
 mfqonoljolfolofinn rlkqmofklnoffimnjmi o 
  1
 mfqojoolnnoghoonmj rljqngijmimiokhokon o 
  1
 mfqknlihoofknlkhni rliqoifligmfhfkjgmf o 
  1
 mfqgkgihkihnngjlfl rliqifkhkfoljhhghgk o 
  1
 loqlghliikflkhkjgg rlhqnjjmjgljljgfjhk o 
  1
 lnqojilgfggnjflhjf rlhqiommmgokolllngg o 
  1
 lmqnmhmoononkfnofg rlhqgfngjhhofnjjmin o 
  1
 llqmljoikolkomfmhg rlhqfollgjonfhlohfn o 
  1
 lkqngikingnfjomhih rlhqifjiigglgmnjlnm o 
  1
 lkqghhnilikhnomilk rlhqmgljmfjnfhjkfhg o 
  1
 ljqjlkmilmfohhljlg rliqgnhinkfffjnmfmi o 
  1
 liqoojmimggofhokoi rliqojooihnkkgkliof o 
  1
 liqlomiohffhnhohjl rljqmkmigllgkmomij o 
  1
 liqkoilfgfkgmklkik rlkqkfkkgigmgjnofon o 
  1
 liqkoikfkfgjmllfoj rllqigofmlnjnhjoloi o 
  1
 liqmjmkgjfgjmhjflf rlmqgolfklfnonijjnj o 
  1
 ljqhhffiofoglhklfm rlnqgfjflkmohkomfhl o 
  1
 ljqnhknfklmhijhooj rlnqmmomhlnfkghihfi o 
  1
 lkqkfknokigjojhglj rloqhfllhhmhoognmlh o 
  1
 llqghjnjhoojkmkoon rloqjffhjolimjlgi o 
  1
 llqojilohiiikjkjgi rloqklklgoklonolil o 
  1
 lmqkkjhlkjnnmlfiik rloqkhiifgoloiofhmj o 
  1
 lnqfgimhhiijiglkhk rloqjogjkmoimgjojml o 
  1
 o 
  1
 1*33@,*-9><: 
  1
 1*33@,*-9><: 
  1
 1*33=, 
  1
 1*33=, 
  1
 V V 
  1
 o 
  1
 o 
  3
 mi oqjmgoifhjffkokifih oqflmofglijffhhnlml nqloihiinnoohnkhhg nqhiljkmjkiinmjogl mqnnnognoonkmogkkg mqjillgijfimjkjnik lqoflnkgomngmkggl lqjiofnfmlfomimlli lqfhkfokkklhhjkhig kqmmmiimiinffogokn kqimoijkgflgjimkgi jqnhnhjmjiknoghohf jqgjhnohgjlmjimmmm iqm
  1
ifnifjjikfnhhif iqinofhklnkknfofok hqojhfikfhomnjoklj hqkjfhiggmgmmilljf hqflgljnffjgoflgkm gqlkmoookkglnihffl gqjgkiohmfjkmmgjfi fqnjglfmnhjohhikfk fqijimfofkfkhflmmn noqnoogkffjggjfkfl noqjokghfmojlgjmoi noqgklkglgogmlgfkh nnqoiggghmhoijglhi 
  1
 Y n Y o " V V |
  1
/061+ {rn lnqfgimhhiijiglkhk rloqjogjkmoimgjojml o |
  0
REGION
  5
2B5
330
1F
100
AcDbEntity
  8
5
100
AcDbModelerGeometry
 70
     1
  1
koo nn n o          
  1
h J1410(1 nl ^ \VL kqoqm QK mk R01 U*1 lo nneknelf moog 
  1
rn fqfffffffffffffffj:rooh n:rono 
  1
=0;& {rn {n {rn {rn |
  1
3*2/ {rn {rn {m {o |
  1
,7:33 {rn {rn {rn {l {rn {n |
  1
9><: {rn {rn {k {m {rn {j 90-(>-; ;0*=3: 0*+ |
  1
300/ {rn {rn {i {l |
  1
/3>1:r,*-9><: {rn mkqlhkgohfhnggnhjn rlkqnjnmgnognggkloi o o o n n o o 90-(>-;@) V V V V |
  1
<0:;8: {rn {i {i {rn {h 90-(>-; {k {rn |
  1
:;8: {rn {g {g {i {f 90-(>-; |
  1
):-+:' {rn {h {no |
  1
61+<*-):r<*-): {rn 90-(>-; $ :'><+<*- 1*=, l <30,:; ml 
  1
 o l oqkoojgnkjmnohkngg n oqhmihiglnghjgffgin n nqojhklkhohmkfhol n nqklknomhhhhofhofh n 
  1
 nqgoifmlifgglhonh n mqljmfhomjhfinmnjn n mqhnlhonofgokhfhml n mqfgjifgglmmmggjih n lqljjojkfjnhjoihji n 
  1
 lqiffhngmihljfiggf n lqfhllnfokkkifnlfj n kqnfhlimgmimnjgnhi n kqljfofhlmhgfkhkg n kqjfkhggnfmglimhhf n 
  1
 kqfllohoihkgffhinh n jqlmjlmjimoogggkon n jqiklmikikjnoglgmn n iqonjoofjlkgojjgji n iqlkmfomgffhhgnjij n 
  1
 iqikfhmnlikhffhogm n iqfngojijnjjghhmfg n hqofnjnggkhoiliojh l 
  1
 mkqljjfngiiogoijlh rlnqhflggijjgkniki o 
  1
 mkqogfogiknlfnkmln rlnqgniniikinlhhfki o 
  1
 mlqiokfhhohnmkikmk rlnqgjijggjmnifnnml o 
  1
 mmqfkkhhnonffflffl rlmqnfimjnojfjojgfh o 
  1
 mmqimmloinofnggnhl rlmqgljmnillljlmkgi o 
  1
 mmqkmlhjhonofkmjjm rllqjnfiokmingnhloh o 
  1
 mmqmkkigmfigmigjlj rlkqlgmligjhmkiknhl o 
  1
 mmqkfonhklmkokkfhm rljqmnfomnmnnfmjfil o 
  1
 mmqgoknifhmonnhmhm rljqfinghfmigkoohli o 
  1
 mlqlhonknnkkhmohhi rliqljhoiijmofhkogh o 
  1
 mkqooikhonlnmihgin rliqjkghojmkhlmnjmn o 
  1
 mkqihlkofihlniojoi rliqjifkiimngoijool o 
  1
 mjqmmkmiogmkkgioii rliqkmfokoinjfgihfl o 
  1
 mjqinmjkiomnhlnfgh rliqmnjlfoimjnfnom o 
  1
 mjqfmhhhimhmffkgf rljqflfkmooigomkfl o 
  1
 miqnikomnmoiihgmgj rljqkfgjkljjjkmnjkg o 
  1
 miqllhgklhgjfflgif rlkqghfngnlmifolkmn o 
  1
 miqkhjjfimgfhgfimn rlkqngioofkofinomhg o 
  1
 miqlhkmhmgholfgmhm rllqkionoomjjjkjhnn o 
  1
 miqnmmhlknmnifmmkh rlmqgloglilhlghigkf o 
  1
 mjqhfnnjjfngomhfmi rlmqmmfnghkoofonln o 
  1
 mjqmjggfnlknhmkhlk rlnqfolnfjmgohjlnjm o 
  1
 mkqhiigfgmjkjonm rlnqhghhkhklghjlggl o 
  1
 mkqkhnhghjinfnomnf rlnqhfmnjjhljnlkhff o 
  1
 mkqljjfngiiogoijlh rlnqhflggijjgkniki o 
  1
 o 
  1
 1*33@,*-9><: 
  1
 1*33@,*-9><: 
  1
 1*33=, 
  1
 1*33=, 
  1
 V V 
  1
 o 
  1
 o 
  3
 mn oqkoojgnkjmnohkngg oqhmihiglnghjgffgin nqojhklkhohmkfhol nqklknomhhhhofhofh nqgoifmlifgglhonh mqljmfhomjhfinmnjn mqhnlhonofgokhfhml mqfgjifgglmmmggjih lqljjojkfjnhjoihji lqiffhngmihljfiggf lqfhllnfokkkifnlfj kqnfhlimgmimnjgnhi kqljfofhlmhgfkhkg kqjfkh
  1
ggnfmglimhhf kqfllohoihkgffhinh jqlmjlmjimoogggkon jqiklmikikjnoglgmn iqonjoofjlkgojjgji iqlkmfomgffhhgnjij iqikfhmnlikhffhogm iqfngojijnjjghhmfg 
  1
 Y n Y o " V V |
  1
/061+ {rn mkqljjfngiiogoijlh rlnqhflggijjgkniki o |
  0
REGION
  5
2B6
330
1F
100
AcDbEntity
  8
5
100
AcDbModelerGeometry
 70
     1
  1
koo nn n o          
  1
h J1410(1 nl ^ \VL kqoqm QK mk R01 U*1 lo nneknelf moog 
  1
rn fqfffffffffffffffj:rooh n:rono 
  1
=0;& {rn {n {rn {rn |
  1
3*2/ {rn {rn {m {o |
  1
,7:33 {rn {rn {rn {l {rn {n |
  1
9><: {rn {rn {k {m {rn {j 90-(>-; ;0*=3: 0*+ |
  1
300/ {rn {rn {i {l |
  1
/3>1:r,*-9><: {rn mkqlifimlfiknfhkkk rlkqnggmkknlhohnglk o o o n n o o 90-(>-;@) V V V V |
  1
<0:;8: {rn {i {i {rn {h 90-(>-; {k {rn |
  1
:;8: {rn {g {g {i {f 90-(>-; |
  1
):-+:' {rn {h {no |
  1
61+<*-):r<*-): {rn 90-(>-; $ :'><+<*- 1*=, l <30,:; mg 
  1
 o l oqjmgoifhjffkokifih n oqflmofglijffhhnlml n nqloihiinnoohnkhhg n nqhiljkmjkiinmjogl n 
  1
 mqnnnognoonkmogkkg n mqjillgijfimjkjnik n lqoflnkgomngmkggl n lqjiofnfmlfomimlli n lqfhkfokkklhhjkhig n 
  1
 kqmmmiimiinffogokn n kqimoijkgflgjimkgi n jqnhnhjmjiknoghohf n jqgjhnohgjlmjimmmm n iqmifnifjjikfnhhif n 
  1
 iqinofhklnkknfofok n hqojhfikfhomnjoklj n hqkjfhiggmgmmilljf n hqflgljnffjgoflgkm n gqlkmoookkglnihffl n 
  1
 gqjgkiohmfjkmmgjfi n fqnjglfmnhjohhikfk n fqijimfofkfkhflmmn n noqnoogkffjggjfkfl n noqjokghfmojlgjmoi n 
  1
 noqgklkglgogmlgfkh n nnqoiggghmhoijglhi n nnqhjkmognioiokmgh l 
  1
 mlqiioflmhhmhjffoh rloqjogjkmoimgjojml o 
  1
 mlqlninofjijgfhfgf rloqjghookfgmmhilfh o 
  1
 mmqhohkiojlkfmkimn rloqhmjjoomkmgmomi o 
  1
 mnqfkkghfokgomojfi rlnqngioghlgggfhmkf o 
  1
 mnqkmjmgmljhhfkhkm rlnqglhlihjgofhfji o 
  1
 mnqokjgmiimjhlhjok rlmqjmhlgmjonfonffh o 
  1
 moqhjlgnfgoomfmhhk rllqlnfhgkoomonjngl o 
  1
 moqigjoojkfhlgiokk rlkqmofklnoffimnjmi o 
  1
 moqhmkigimnjhhijjg rljqngijmimiokhokon o 
  1
 mnqogglmjmonmnnnkg rliqoifligmfhfkjgmf o 
  1
 mnqjmllmfhhgmingmj rliqifkhkfoljhhghgk o 
  1
 mmqoimomnioojjnom rlhqnjjmjgljljgfjhk o 
  1
 mmqhlnokkfggihonfm rlhqiommmgokolllngg o 
  1
 mlqgongjjmogjihjln rlhqgfngjhhofnjjmin o 
  1
 mkqfofhnfnknnojhnn rlhqfollgjonfhlohfn o 
  1
 mjqginnnifmijhfm rlhqifjiigglgmnjlnm o 
  1
 miqjjngnghjknhfoih rlhqmgljmfjnfhjkfhg o 
  1
 mhqmogfnglfhgkffh rliqgnhinkfffjnmfmi o 
  1
 mhqihffnhfggokiglf rliqojooihnkkgkliof o 
  1
 mhqfhhmilnokmkhngi rljqmkmigllgkmomij o 
  1
 mgqognojkojjlnfgfi rlkqkfkkgigmgjnofon o 
  1
 mgqognnjoofmlnollg rllqigofmlnjnhjoloi o 
  1
 mhqfmhnknofmljmlhm rlmqgolfklfnonijjnj o 
  1
 mhqkjkinionjkjogmk rlnqgfjflkmohkomfhl o 
  1
 miqgkggkfklkhllklg rlnqmmomhlnfkghihfi o 
  1
 miqnighjfhfmnlkmih rloqhfllhhmhoognmlh o 
  1
 mjqjkfgnmnnmjookll rloqjffhjolimjlgi o 
  1
 mkqhlofimhhljlnonf rloqklklgoklonolil o 
  1
 mkqnmolgfinglniofi rloqkhiifgoloiofhmj o 
  1
 mlqiioflmhhmhjffoh rloqjogjkmoimgjojml o 
  1
 o 
  1
 1*33@,*-9><: 
  1
 1*33@,*-9><: 
  1
 1*33=, 
  1
 1*33=, 
  1
 V V 
  1
 o 
  1
 o 
  3
 mi oqjmgoifhjffkokifih oqflmofglijffhhnlml nqloihiinnoohnkhhg nqhiljkmjkiinmjogl mqnnnognoonkmogkkg mqjillgijfimjkjnik lqoflnkgomngmkggl lqjiofnfmlfomimlli lqfhkfokkklhhjkhig kqmmmiimiinffogokn kqimoijkgflgjimkgi jqnhnhjmjiknoghohf jqgjhnohgjlmjimmmm iqm
  1
ifnifjjikfnhhif iqinofhklnkknfofok hqojhfikfhomnjoklj hqkjfhiggmgmmilljf hqflgljnffjgoflgkm gqlkmoookkglnihffl gqjgkiohmfjkmmgjfi fqnjglfmnhjohhikfk fqijimfofkfkhflmmn noqnoogkffjggjfkfl noqjokghfmojlgjmoi noqgklkglgogmlgfkh nnqoiggghmhoijglhi 
  1
 Y n Y o " V V |
  1
/061+ {rn mlqiioflmhhmhjffoh rloqjogjkmoimgjojml o |
  0
REGION
  5
2B7
330
1F
100
AcDbEntity
  8
5
100
AcDbModelerGeometry
 70
     1
  1
koo ki n o          
  1
h J1410(1 nl ^ \VL kqoqm QK mk R01 U*1 lo nneknelf moog 
  1
rn fqfffffffffffffffj:rooh n:rono 
  1
=0;& {rn {n {rn {rn |
  1
3*2/ {rn {rn {m {o |
  1
,7:33 {rn {rn {rn {l {rn {n |
  1
9><: {rn {rn {k {m {rn {j 90-(>-; ;0*=3: 0*+ |
  1
300/ {rn {rn {i {l |
  1
/3>1:r,*-9><: {rn niqfommommmlkmkkih rllqoomihhlnmjglnln o o o n n o o 90-(>-;@) V V V V |
  1
<0:;8: {rn {h {g {rn {f -:):-,:; {k {rn |
  1
<0:;8: {rn {no {i {rn {nn -:):-,:; {k {rn |
  1
<0:;8: {rn {i {nm {rn {nl -:):-,:; {k {rn |
  1
:;8: {rn {nk {nj {i {ni 90-(>-; |
  1
<0:;8: {rn {nh {h {rn {ng -:):-,:; {k {rn |
  1
:;8: {rn {nf {nk {h {mo 90-(>-; |
  1
<0:;8: {rn {g {mn {rn {mm -:):-,:; {k {rn |
  1
:;8: {rn {nj {ml {g {mk 90-(>-; |
  1
):-+:' {rn {f {mj |
  1
):-+:' {rn {f {mi |
  1
,+->687+r<*-): {rn nlqglkggilmglfjkkm rloqjjjhgjkkkjijjkk o n o o V V |
  1
<0:;8: {rn {mh {no {rn {mg -:):-,:; {k {rn |
  1
:;8: {rn {mf {nf {no {lo 90-(>-; |
  1
):-+:' {rn {ng {ln |
  1
,+->687+r<*-): {rn nlqglkggilmglfjkkm rlnqgkmjfhkmogfjlni o o n o V V |
  1
<0:;8: {rn {nm {mh {rn {lm -:):-,:; {k {rn |
  1
:;8: {rn {ml {ll {nm {lk 90-(>-; |
  1
):-+:' {rn {nl {lj |
  1
,+->687+r<*-): {rn moqolhhggngggkojml rloqjjjhgjkkkjijjkk o o rn o V V |
  1
/061+ {rn nlqglkggilmglfjkkm rloqjjjhgjkkkjijjkk o |
  1
/061+ {rn moqolhhggngggkojml rloqjjjhgjkkkjijjkk o |
  1
<0:;8: {rn {mn {nh {rn {li -:):-,:; {k {rn |
  1
:;8: {rn {lh {mf {nh {lg 90-(>-; |
  1
):-+:' {rn {mg {lf |
  1
,+->687+r<*-): {rn niqonfjjhmhhkmjfhk rlnqgkmjfhkmogfjlni o rn o o V V |
  1
/061+ {rn nlqglkggilmglfjkkm rlnqgkmjfhkmogfjlni o |
  1
:;8: {rn {ll {ko {mn {kn 90-(>-; |
  1
):-+:' {rn {mm {km |
  1
,+->687+r<*-): {rn moqolhhggngggkojml rlnqgkmjfhkmogfjlni o rn o o V V |
  1
/061+ {rn moqolhhggngggkojml rlnqgkmjfhkmogfjlni o |
  1
:;8: {rn {ko {lh {mh {kl 90-(>-; |
  1
):-+:' {rn {li {kk |
  1
,+->687+r<*-): {rn niqonfjjhmhhkmjfhk rlhqhifhmgfilfhilkg o o n o V V |
  1
/061+ {rn niqonfjjhmhhkmjfhk rlnqgkmjfhkmogfjlni o |
  1
):-+:' {rn {lm {kj |
  1
,+->687+r<*-): {rn nhqhnijhhoffoljfln rlnqgkmjfhkmogfjlni o o rn o V V |
  1
/061+ {rn nhqhnijhhoffoljfln rlnqgkmjfhkmogfjlni o |
  1
,+->687+r<*-): {rn nhqhnijhhoffoljfln rlhqhifhmgfilfhilkg o rn o o V V |
  1
/061+ {rn niqonfjjhmhhkmjfhk rlhqhifhmgfilfhilkg o |
  1
/061+ {rn nhqhnijhhoffoljfln rlhqhifhmgfilfhilkg o |
  0
REGION
  5
2B8
330
1F
100
AcDbEntity
  8
5
100
AcDbModelerGeometry
 70
     1
  1
koo li n o          
  1
h J1410(1 nl ^ \VL kqoqm QK mk R01 U*1 lo nneknelf moog 
  1
rn fqfffffffffffffffj:rooh n:rono 
  1
=0;& {rn {n {rn {rn |
  1
3*2/ {rn {rn {m {o |
  1
,7:33 {rn {rn {rn {l {rn {n |
  1
9><: {rn {rn {k {m {rn {j -:):-,:; ;0*=3: 0*+ |
  1
300/ {rn {rn {i {l |
  1
/3>1:r,*-9><: {rn koqonmgliimfmogmlg rlkqfligiohlglimfmk o o o rn rn o o 90-(>-;@) V V V V |
  1
<0:;8: {rn {h {g {rn {f 90-(>-; {k {rn |
  1
<0:;8: {rn {no {i {rn {nn 90-(>-; {k {rn |
  1
<0:;8: {rn {i {nm {rn {nl 90-(>-; {k {rn |
  1
:;8: {rn {nk {nj {i {ni 90-(>-; |
  1
<0:;8: {rn {nh {h {rn {ng 90-(>-; {k {rn |
  1
:;8: {rn {nj {nf {h {mo 90-(>-; |
  1
<0:;8: {rn {g {nh {rn {mn 90-(>-; {k {rn |
  1
:;8: {rn {mm {nk {g {ml 90-(>-; |
  1
):-+:' {rn {f {mk |
  1
):-+:' {rn {f {mj |
  1
,+->687+r<*-): {rn lhqhnghinkgglgiif rloqjinlhkmhgnhjng o o rn o V V |
  1
<0:;8: {rn {nm {no {rn {mi 90-(>-; {k {rn |
  1
:;8: {rn {nf {mh {no {mg 90-(>-; |
  1
):-+:' {rn {nn {mf |
  1
,+->687+r<*-): {rn lhqhnghinkgglgiif rlhqhhlfohjolfgjmnk o n o o V V |
  1
:;8: {rn {lo {mm {nm {ln 90-(>-; |
  1
):-+:' {rn {mn {lm |
  1
,+->687+r<*-): {rn lfqlnikmnkkifmgkni rloqjinlhkmhgnhjng o rn o o V V |
  1
/061+ {rn lhqhnghinkgglgiif rloqjinlhkmhgnhjng o |
  1
/061+ {rn lhqhnghinkgglgiif rlhqhhlfohjolfgjmnk o |
  1
:;8: {rn {mh {lo {nh {ll 90-(>-; |
  1
):-+:' {rn {ng {lk |
  1
,+->687+r<*-): {rn klqoollmifjmlofilj rlhqhhlfohjolfgjmnk o o n o V V |
  1
/061+ {rn klqoollmifjmlofilj rlhqhhlfohjolfgjmnk o |
  1
):-+:' {rn {mi {lj |
  1
,+->687+r<*-): {rn lfqlnikmnkkifmgkni rliqkhjlooklmfmglhg o o n o V V |
  1
/061+ {rn lfqlnikmnkkifmgkni rloqjinlhkmhgnhjng o |
  1
,+->687+r<*-): {rn klqoollmifjmlofilj rliqkhjlooklmfmglhg o rn o o V V |
  1
/061+ {rn klqoollmifjmlofilj rliqkhjlooklmfmglhg o |
  1
/061+ {rn lfqlnikmnkkifmgkni rliqkhjlooklmfmglhg o |
  0
REGION
  5
2B9
330
1F
100
AcDbEntity
  8
5
100
AcDbModelerGeometry
 70
     1
  1
koo mi n o          
  1
h J1410(1 nl ^ \VL kqoqm QK mk R01 U*1 lo nneknelf moog 
  1
rn fqfffffffffffffffj:rooh n:rono 
  1
=0;& {rn {n {rn {rn |
  1
3*2/ {rn {rn {m {o |
  1
,7:33 {rn {rn {rn {l {rn {n |
  1
9><: {rn {rn {k {m {rn {j 90-(>-; ;0*=3: 0*+ |
  1
300/ {rn {rn {i {l |
  1
/3>1:r,*-9><: {rn kiqilnnlhjnjmgkhoi rlkqnjolkmmmgkjimih o o o n n o o 90-(>-;@) V V V V |
  1
<0:;8: {rn {h {g {rn {f 90-(>-; {k {rn |
  1
<0:;8: {rn {no {i {rn {nn 90-(>-; {k {rn |
  1
<0:;8: {rn {i {no {rn {nm 90-(>-; {k {rn |
  1
:;8: {rn {nl {nk {i {nj 90-(>-; |
  1
<0:;8: {rn {g {h {rn {ni -:):-,:; {k {rn |
  1
:;8: {rn {nk {nh {h {ng 90-(>-; |
  1
:;8: {rn {nf {nl {g {mo 90-(>-; |
  1
):-+:' {rn {f {mn |
  1
):-+:' {rn {f {mm |
  1
61+<*-):r<*-): {rn 90-(>-; $ :'><+<*- 1*=, l 0/:1 mg 
  1
 o l oqlfigjomnhmmhnoggk n oqhmihgjfojjnjijimj n nqongknlhimogofofh n nqmhjijkomimihfkmn n 
  1
 nqjjhhfooifjkllfmm n nqginnnojigjoifhom n mqjkkgnlhjikjngfjl n mqgnmoofmlhlingolh n lqokfffiohonmmmllj n 
  1
 lqlloonlmhgjlffngk n lqjhjiljhgilhmngkg n lqflkijnjffnhfgkfk n kqklfnimomimokiofi n kqihhohhmgmkfjfon n 
  1
 kqfjglhmkoiilonmjg n jqlmoknigoglljkill n jqijoooimimfnhomng n iqnnmooijfhfmfnkjk n iqillkinjnnhkjhlfi n 
  1
 iqfknhinkfmmgkfnmf n hqmokikooliljffifi n hqkfmhhkhgfkhifngl n hqhnffflnfkkoglkjn n gqmmhonmnijoikjmjg n 
  1
 gqhgfgkommjlomnifh n fqnlnohigkhjkjhkmm n fqlggifigilfmffjgm l 
  1
 kfqjjlfogmgkfinglj rlmqgkohkmnihmilohl o 
  1
 kfqjimmglikgojlglj rlmqjhomfjinlkhloli o 
  1
 kfqjhhimmnhomogogh rlmqohjooljffnnmlik o 
  1
 kfqmmionklhhogogkk rlnqkhmjffghnkooiin o 
  1
 kgqglhloihhghminkj rlnqonfoijghhgfoijk o 
  1
 kgqlmokjggkfnhnkhl rloqhfgmkjkgokigoif o 
  1
 khqgnlhmkknighhmmn rloqjjnokhkngomjlhh o 
  1
 kiqfihjjhkmkmflhhl rloqkllmgoifkljkmfj o 
  1
 kiqnmjmninlkkighjg rloqknhjiomfknmgmli o 
  1
 kjqlkjhjiglfjkinkn rloqjgmffnhjkngkfnh o 
  1
 kkqgillfhhgllmhkjh rloqhfghkhmflffjfkj o 
  1
 kkqkjgnjoljhmhmhjh rlnqnogmhnjfnmkojlg o 
  1
 kkqookjlhifhhhjfom rlnqkfkjgnmohloihlh o 
  1
 klqihhglgikgfjjmgh rlmqnhffiifjomhkfnh o 
  1
 klqiljmhigmognllnh rlmqfjhoihokmjofhkf o 
  1
 klqflohgkngnomfomi rllqjgooggjikgmffoh o 
  1
 kkqlookjjkmhnhklh rlkqojmhnnhmkoooki o 
  1
 kkqgfgfnmmjmiklgnn rlkqllfkfojfnlohkmk o 
  1
 kjqinjhimnonmggkjl rlkqinonnjnljmnfmhk o 
  1
 kiqkgofkggmfghligm rlkqhghfojlloklnjmg o 
  1
 khqlnhhmgjfnfmmjol rlkqfnllmnfhijfglgm o 
  1
 kgqolhihhfnjkkmnki rljqmonoohknhjnkiol o 
  1
 kgqmijkogoiliflmon rljqhgokmmfkohkhfnn o 
  1
 kgqofnnjjjhmfjmil rliqlkmfligknigjfnm o 
  1
 khqkmilhoigjgommgl rliqinfonoliikljlf o 
  1
 kiqjgkooohfghigkkl rliqiffmlhhfkkhjioh o 
  1
 kjqjimnfjiiknhinom rliqjjnllgmooglolnj o 
  1
 kjqnoihigkfimjnkkg rljqgkfmhkhlimfnjoj o 
  1
 kjqoiijjohjiknjkfj rljqkjoimljologkkhm o 
  1
 kjqokfmkfimfljjh rljqmhfnmfnkofgjnfn o 
  1
 o 
  1
 1*33@,*-9><: 
  1
 1*33@,*-9><: 
  1
 1*33=, 
  1
 1*33=, 
  1
 V V 
  1
 o 
  1
 o 
  3
 mi oqlfigjomnhmmhnoggk oqhmihgjfojjnjijimj nqongknlhimogofofh nqmhjijkomimihfkmn nqjjhhfooifjkllfmm nqginnnojigjoifhom mqjkkgnlhjikjngfjl mqgnmoofmlhlingolh lqokfffiohonmmmllj lqlloonlmhgjlffngk lqjhjiljhgilhmngkg lqflkijnjffnhfgkfk kqklfnimomimokiofi kq
  1
ihhohhmgmkfjfon kqfjglhmkoiilonmjg jqlmoknigoglljkill jqijoooimimfnhomng iqnnmooijfhfmfnkjk iqillkinjnnhkjhlfi iqfknhinkfmmgkfnmf hqmokikooliljffifi hqkfmhhkhgfkhifngl hqhnffflnfkkoglkjn gqmmhonmnijoikjmjg gqhgfgkommjlomnifh fqnlnohigkhjkjhkmm 
  1
 Y n Y o " V V |
  1
:;8: {rn {nf {nh {no {ml 90-(>-; |
  1
):-+:' {rn {nn {mk |
  1
,+->687+r<*-): {rn kjqokfmkfimfljjh rljqmhfnmfnkofgjnfn o roqffffffnohkimjmnfi roqoonllioiiihkhngjfkh o V V |
  1
):-+:' {rn {ni {mj |
  1
,+->687+r<*-): {rn khqfhmhkklijkimkok rlmqglfokggkjiigmom o oqffffffkmijjnoghjl roqoonohoflloomjjmgofg o V V |
  1
/061+ {rn kfqjjlfogmgkfinglj rlmqgkohkmnihmilohl o |
  1
/061+ {rn kjqokfmkfimfljjh rljqmhfnmfnkofgjnfn o |
  1
61+<*-):r<*-): {rn 90-(>-; $ :'><+<*- 1*=, l 0/:1 mk 
  1
 o l oqligokiljfljmjmjj n oqikiffjgmifofigklg n nqoigjglohkoojklhk n nqiohihjljnioiinng n 
  1
 nqfhmmojknmiffgfof n mqnfkhjgmkmhhogjlf n mqioinmmijimmmlmmg n lqnlhnlfiiikkokmkj n lqifnmlfgjmonggmhk n 
  1
 kqokoilfionkiiffnk n kqlffkggihjloikjmk n kqgnjjkihfkomhonmj n jqljoknhiinlnnjjjf n jqgnogkngnofmjifjk n 
  1
 iqmmhnfffmkgnlkoni n iqinkmilhmmmoihgkk n hqkgfigmoofjhoomml n hqgihgfiogmnmng n gqmjlnglnofmnkimnl n 
  1
 gqjjhhkmomokmlmfin n gqhimgololoifolglj n fqnknnhijkkiknoojg n fqmjiilgghlkomkimn l 
  1
 khqfhmhkklijkimkok rlmqglfokggkjiigmom o 
  1
 khqfkigfhgjgnfgkk rlmqjgogmhijlnihkok o 
  1
 khqfonkinhgmmlflml rlmqnmigfjinjnffmln o 
  1
 khqmkjokfnmlofklin rlnqhollllmkhigjgf o 
  1
 kiqkjknijmnjihhmmm rlnqiimjkinngljlokf o 
  1
 kjqlhojojklmmlgli rlnqifikmjgjnmljmoj o 
  1
 kjqmjoflomnogmmfon rlmqikhkinkmihggnnm o 
  1
 kjqhjihifjohoillgm rllqnklilogjlhfhhol o 
  1
 kiqjioonhnnfffomhh rllqmmfjjllmikjghgj o 
  1
 khqjnhomjknkllmifl rllqkimkgngkjgkkomj o 
  1
 kgqkijoommnokmkghn rllqijfkghglgloglog o 
  1
 kfqmolnfolnfgingkh rlkqogminlmfjokoiom o 
  1
 kfqhmooghmlmkkkijj rlkqiionifgogomkjlk o 
  1
 kfqfoiimlglmhhlfi rljqjlfmgflmliigokk o 
  1
 kfqhhonmkihlghkomm rliqjniklgimgjkkfin o 
  1
 kfqnommmkljnfojhin rlhqmlhgkoflhgghnhn o 
  1
 kgqljinjoifnlnfnjg rlhqiljfnjflmlkighi o 
  1
 khqmgmglikiijihooj rlhqffmkfloiljjkgok o 
  1
 kiqnimoinijfnonnfg rlhqghfmjhjifomhlkj o 
  1
 kjqoggmfkimjjjhmlf rlhqigknhjngjmfijfi o 
  1
 kkqklkfmflngolmmgf rlhqljflfkgmfohhfjh o 
  1
 kkqonfigfofiggjoln rliqfmnkngklilmgffm o 
  1
 klqilgomognmnnjfk rliqkhfinlhnomjnoni o 
  1
 klqjkmnmllnnhionmm rljqfnmllglnlfklhoh o 
  1
 klqkgfmgnfnoihkjkf rljqhnjilnfjigoffnj o 
  1
 klqkiknomfnhhgfklm rljqmgnmkhookjhnlmh o 
  1
 o 
  1
 1*33@,*-9><: 
  1
 1*33@,*-9><: 
  1
 1*33=, 
  1
 1*33=, 
  1
 V V 
  1
 o 
  1
 o 
  3
 mm oqligokiljfljmjmjj oqikiffjgmifofigklg nqoigjglohkoojklhk nqiohihjljnioiinng nqfhmmojknmiffgfof mqnfkhjgmkmhhogjlf mqioinmmijimmmlmmg lqnlhnlfiiikkokmkj lqifnmlfgjmonggmhk kqokoilfionkiiffnk kqlffkggihjloikjmk kqgnjjkihfkomhonmj jqljoknhiinlnnjjjf jqg
  1
nogkngnofmjifjk iqmmhnfffmkgnlkoni iqinkmilhmmmoihgkk hqkgfigmoofjhoomml hqgihgfiogmnmng gqmjlnglnofmnkimnl gqjjhhkmomokmlmfin gqhimgololoifolglj fqnknnhijkkiknoojg 
  1
 Y n Y o " V V |
  1
/061+ {rn klqkiknomfnhhgfklm rljqmgnmkhookjhnlmh o |
  1
/061+ {rn khqfhmhkklijkimkok rlmqglfokggkjiigmom o |
  0
LINE
  5
1740
330
1F
100
AcDbEntity
  8
4
100
AcDbLine
 10
53.00070044709997
 20
0.0
 30
0.0
 11
0.0
 21
0.0
 31
0.0
  0
LINE
  5
1745
330
1F
100
AcDbEntity
  8
3
100
AcDbLine
 10
19.44957820809998
 20
-18.29664658899999
 30
0.0
 11
12.49760533459996
 21
-15.7663353936
 31
0.0
  0
LINE
  5
1746
330
1F
100
AcDbEntity
  8
3
100
AcDbLine
 10
12.5
 20
-18.42765141169999
 30
0.0
 11
17.50183099080878
 21
-20.24816900919121
 31
0.0
  0
LINE
  5
1747
330
1F
100
AcDbEntity
  8
3
100
AcDbLine
 10
14.0
 20
4.25
 30
0.0
 11
0.0
 21
4.250000000000007
 31
0.0
  0
LINE
  5
1749
330
1F
100
AcDbEntity
  8
3
100
AcDbLine
 10
6.649999999999976
 20
5.178256239999995
 30
0.0
 11
49.0
 21
5.178256239999996
 31
0.0
  0
LINE
  5
174A
330
1F
100
AcDbEntity
  8
3
100
AcDbLine
 10
49.00000000000001
 20
8.478256239999993
 30
0.0
 11
6.369170583886017
 21
8.478256239999993
 31
0.0
  0
LINE
  5
174B
330
1F
100
AcDbEntity
  8
1
100
AcDbLine
 10
1.327905619099993
 20
-21.0
 30
0.0
 11
16.75
 21
-20.99999999999999
 31
0.0
  0
LINE
  5
174C
330
1F
100
AcDbEntity
  8
1
100
AcDbLine
 10
16.96017381389998
 20
20.99999999999999
 30
0.0
 11
1.327905619099993
 21
21.0
 31
0.0
  0
DIMENSION
  5
174E
330
1F
100
AcDbEntity
  8
SK2
100
AcDbDimension
  2
*D36
 10
-27.50251275410001
 20
-20.99999999999999
 30
0.0
 11
-27.50251275410001
 21
0.0
 31
0.0
 70
   160
  1
ST4 %%c<>
 71
     2
 42
42.0
  3
GEN-ISO_TDM
100
AcDbAlignedDimension
 13
1.327905619099993
 23
21.0
 33
0.0
 14
1.327905619099993
 24
-21.0
 34
0.0
 50
90.0
100
AcDbRotatedDimension
  0
LINE
  5
1751
330
1F
100
AcDbEntity
  8
3
100
AcDbLine
 10
3.349999999999994
 20
7.671495068800012
 30
0.0
 11
3.349999999999994
 21
1.859879333199998
 31
0.0
  0
LINE
  5
1754
330
1F
100
AcDbEntity
  8
SK1
100
AcDbLine
 10
-19.20000000000001
 20
11.0
 30
0.0
 11
-19.20000000000001
 21
-11.0
 31
0.0
  0
LINE
  5
1755
330
1F
100
AcDbEntity
  8
1
100
AcDbLine
 10
0.0
 20
-19.5
 30
0.0
 11
0.0
 21
19.5
 31
0.0
  0
LWPOLYLINE
  5
1757
330
1F
100
AcDbEntity
  8
3
100
AcDbPolyline
 90
       26
 70
   128
 43
0.0
 10
5.0
 20
6.1884848925
 10
4.589661686099987
 20
6.235076384199999
 10
4.205106437699981
 20
6.371923344700007
 10
3.870497275199966
 20
6.590427176100007
 10
3.606858922899988
 20
6.876858479099993
 10
3.43075674809998
 20
7.213219721499996
 10
3.353255898099973
 20
7.578376089400009
 10
3.379226036299968
 20
7.9493834652
 10
3.507035363399978
 20
8.302930091100009
 10
3.728653149399974
 20
8.616801332299999
 10
4.030154333699982
 20
8.871275504400003
 10
4.392594487999986
 20
9.050363059199995
 10
4.793200164599966
 20
9.142811267000013
 10
5.20679983529996
 20
9.142811267000013
 10
5.607405511899969
 20
9.050363059199995
 10
5.969845666199972
 20
8.871275504400003
 10
6.27134685049998
 20
8.616801332299999
 10
6.492964636499976
 20
8.302930091100009
 10
6.620773963699974
 20
7.9493834652
 10
6.646744101899969
 20
7.578376089400009
 10
6.569243251899962
 20
7.213219721499996
 10
6.393141076999967
 20
6.876858479099993
 10
6.129502724699989
 20
6.590427176100007
 10
5.794893562199973
 20
6.371923344700007
 10
5.410338313799968
 20
6.235076384199999
 10
5.0
 20
6.1884848925
  0
LINE
  5
175F
330
1F
100
AcDbEntity
  8
SK3
100
AcDbLine
 10
-20.25000000000001
 20
-4.25
 30
0.0
 11
0.0
 21
-4.25
 31
0.0
  0
CIRCLE
  5
1760
330
1F
100
AcDbEntity
  8
SK1
100
AcDbCircle
 10
-9.700000000000017
 20
0.0
 30
0.0
 40
2.499999999999985
  0
CIRCLE
  5
1762
330
1F
100
AcDbEntity
  8
SK1
100
AcDbCircle
 10
-9.700000000000017
 20
0.0
 30
0.0
 40
3.741863635817197
  0
LWPOLYLINE
  5
1763
330
1F
100
AcDbEntity
  8
SK1
100
AcDbPolyline
 90
       35
 70
   128
 43
0.0
 10
-12.82002265900003
 20
2.953327729500003
 10
-12.12314277400003
 20
3.387590941300004
 10
-11.36090116090001
 20
3.702652295400014
 10
-10.54910939980003
 20
3.895266566200007
 10
-9.714834477100026
 20
3.961765955000004
 10
-8.853685337300021
 20
3.895657258500008
 10
-8.016390602800015
 20
3.695276465500015
 10
-7.226573373900038
 20
3.361444622000007
 10
-6.509139208100037
 20
2.898991926000007
 10
-5.996738047700006
 20
2.428165078999995
 10
-5.568726797400017
 20
1.878693110300005
 10
-5.29217974520003
 20
1.36561738280001
 10
-5.101351890000017
 20
0.8128148860999999
 10
-5.008680362600017
 20
0.2302615713000051
 10
-5.019720303700012
 20
-0.3600265744999831
 10
-5.302140374900034
 20
-1.388899694100004
 10
-5.896995480200018
 20
-2.3169604765
 10
-6.85950021130003
 20
-3.147847304599991
 10
-7.524714018100013
 20
-3.50603786069999
 10
-8.238843211800016
 20
-3.762699545000003
 10
-9.069292571400026
 20
-3.925029573299994
 10
-9.916879511500027
 20
-3.957501002799986
 10
-10.77387043070002
 20
-3.855054603500008
 10
-11.60058366420001
 20
-3.618933836100012
 10
-12.37362511340001
 20
-3.250074224000002
 10
-13.06728128640003
 20
-2.753553323199994
 10
-13.54023466090001
 20
-2.272675895800006
 10
-13.92838830580001
 20
-1.719748993899997
 10
-14.17450514380002
 20
-1.203613580399988
 10
-14.33486453610001
 20
-0.6528090300000003
 10
-14.39848405840001
 20
-0.0785203440999993
 10
-14.36215221530001
 20
0.4983097129000101
 10
-14.04050114490003
 20
1.510450774099993
 10
-13.40335393570002
 20
2.428479778400003
 10
-12.8200226608
 20
2.953327729999998
  0
LINE
  5
1765
330
1F
100
AcDbEntity
  8
SK1
100
AcDbLine
 10
-24.00000000000001
 20
-8.900000000000005
 30
0.0
 11
-22.17573593130002
 21
-10.72426406869999
 31
0.0
  0
ARC
  5
1766
330
1F
100
AcDbEntity
  8
SK1
100
AcDbCircle
 10
-21.75147186260001
 20
-10.29999999999999
 30
0.0
 40
0.5999999999999888
100
AcDbArc
 50
225.0
 51
270.0
  0
LINE
  5
1767
330
1F
100
AcDbEntity
  8
SK1
100
AcDbLine
 10
-20.54544165190002
 20
-10.73507215799999
 30
0.0
 11
-19.20000000000001
 21
-11.0
 31
0.0
  0
ARC
  5
1768
330
1F
100
AcDbEntity
  8
SK1
100
AcDbCircle
 10
-20.70000000000001
 20
-11.51999999999999
 30
0.0
 40
0.8000000000000174
100
AcDbArc
 50
78.86052882869933
 51
102.4923677447007
  0
LINE
  5
1769
330
1F
100
AcDbEntity
  8
SK1
100
AcDbLine
 10
-21.53588450870002
 20
-10.88579489789998
 30
0.0
 11
-20.87304764930002
 21
-10.73894013600001
 31
0.0
  0
ARC
  5
176A
330
1F
100
AcDbEntity
  8
SK1
100
AcDbCircle
 10
-21.66567024560002
 20
-10.29999999999999
 30
0.0
 40
0.5999999999999882
100
AcDbArc
 50
270.0
 51
282.4923677447007
  0
LINE
  5
176B
330
1F
100
AcDbEntity
  8
SK1
100
AcDbLine
 10
-21.75147186260001
 20
-10.9
 30
0.0
 11
-21.66567024560002
 21
-10.9
 31
0.0
  0
LINE
  5
176C
330
1F
100
AcDbEntity
  8
SK3
100
AcDbLine
 10
-21.50000000000001
 20
5.5
 30
0.0
 11
-23.50000000000001
 21
5.5
 31
0.0
  0
LINE
  5
176D
330
1F
100
AcDbEntity
  8
SK3
100
AcDbLine
 10
-23.50000000000001
 20
-5.5
 30
0.0
 11
-21.50000000000001
 21
-5.5
 31
0.0
  0
LINE
  5
176E
330
1F
100
AcDbEntity
  8
SK1
100
AcDbLine
 10
-24.00000000000001
 20
8.900000000000009
 30
0.0
 11
-24.00000000000001
 21
-8.9
 31
0.0
  0
ARC
  5
176F
330
1F
100
AcDbEntity
  8
SK3
100
AcDbCircle
 10
-23.50000000000001
 20
-6.0
 30
0.0
 40
0.5
100
AcDbArc
 50
90.0
 51
180.0
  0
ARC
  5
1770
330
1F
100
AcDbEntity
  8
SK3
100
AcDbCircle
 10
-23.50000000000001
 20
6.0
 30
0.0
 40
0.5
100
AcDbArc
 50
180.0
 51
270.0
  0
LINE
  5
1771
330
1F
100
AcDbEntity
  8
SK3
100
AcDbLine
 10
-20.25000000000001
 20
4.25
 30
0.0
 11
-20.25000000000001
 21
-4.25
 31
0.0
  0
LINE
  5
1772
330
1F
100
AcDbEntity
  8
SK3
100
AcDbLine
 10
-21.50000000000001
 20
5.5
 30
0.0
 11
-21.50000000000001
 21
-5.5
 31
0.0
  0
LINE
  5
1773
330
1F
100
AcDbEntity
  8
SK3
100
AcDbLine
 10
-21.50000000000001
 20
-5.5
 30
0.0
 11
-20.25000000000001
 21
-4.25
 31
0.0
  0
LWPOLYLINE
  5
1774
330
1F
100
AcDbEntity
  8
SK3
100
AcDbPolyline
 90
        2
 70
   128
 43
0.0
 10
-21.50000000000001
 20
-5.5
 10
-21.50000000000001
 20
-5.5
  0
LINE
  5
1775
330
1F
100
AcDbEntity
  8
SK3
100
AcDbLine
 10
-20.25000000000001
 20
4.25
 30
0.0
 11
-21.50000000000001
 21
5.5
 31
0.0
  0
LINE
  5
1777
330
1F
100
AcDbEntity
  8
3
100
AcDbLine
 10
9.5
 20
-4.249844656999982
 30
0.0
 11
9.5
 21
-18.7
 31
0.0
  0
LINE
  5
1778
330
1F
100
AcDbEntity
  8
3
100
AcDbLine
 10
12.5
 20
-18.7
 30
0.0
 11
12.5
 21
-4.25
 31
0.0
  0
LINE
  5
177A
330
1F
100
AcDbEntity
  8
3
100
AcDbLine
 10
6.0
 20
-11.45
 30
0.0
 11
0.0
 21
-11.45
 31
0.0
  0
LINE
  5
177B
330
1F
100
AcDbEntity
  8
3
100
AcDbLine
 10
0.0
 20
-14.95
 30
0.0
 11
6.0
 21
-14.95
 31
0.0
  0
ARC
  5
177C
330
1F
100
AcDbEntity
  8
1
100
AcDbCircle
 10
1.327905619099993
 20
-20.2
 30
0.0
 40
0.7999999999999972
100
AcDbArc
 50
209.9999999999997
 51
270.0
  0
LINE
  5
177D
330
1F
100
AcDbEntity
  8
1
100
AcDbLine
 10
0.0
 20
-19.5
 30
0.0
 11
0.6350852960999874
 21
-20.59999999999999
 31
0.0
  0
LINE
  5
1786
330
1F
100
AcDbEntity
  8
SK1
100
AcDbLine
 10
-2.5
 20
-11.0
 30
0.0
 11
-1.453420590800021
 21
-10.7195698924
 31
0.0
  0
LINE
  5
1788
330
1F
100
AcDbEntity
  8
SK1
100
AcDbLine
 10
-19.20000000000001
 20
-11.0
 30
0.0
 11
-2.5
 21
-11.0
 31
0.0
  0
LINE
  5
1789
330
1F
100
AcDbEntity
  8
SK1
100
AcDbLine
 10
-2.5
 20
-11.0
 30
0.0
 11
-2.5
 21
11.0
 31
0.0
  0
LINE
  5
1792
330
1F
100
AcDbEntity
  8
SK1
100
AcDbLine
 10
-1.114790718800037
 20
-10.65
 30
0.0
 11
-0.4000000000000057
 21
-10.65
 31
0.0
  0
ARC
  5
1793
330
1F
100
AcDbEntity
  8
SK1
100
AcDbCircle
 10
-1.114790718800037
 20
-11.25
 30
0.0
 40
0.6000000000000086
100
AcDbArc
 50
90.0
 51
104.9999999999995
  0
LINE
  5
1794
330
1F
100
AcDbEntity
  8
SK1
100
AcDbLine
 10
-1.453420590800021
 20
-10.7195698924
 30
0.0
 11
-1.270082145900005
 21
-10.6704445042
 31
0.0
  0
ARC
  5
1795
330
1F
100
AcDbEntity
  8
SK1
100
AcDbCircle
 10
-0.4000000000000057
 20
-11.25
 30
0.0
 40
0.6000000000000086
100
AcDbArc
 50
48.18968510422158
 51
90.0
  0
LINE
  5
1797
330
1F
100
AcDbEntity
  8
3
100
AcDbLine
 10
9.5
 20
-18.7
 30
0.0
 11
12.5
 21
-18.7
 31
0.0
  0
LWPOLYLINE
  5
1799
330
1F
100
AcDbEntity
  8
3
100
AcDbPolyline
 90
        2
 70
   128
 43
0.0
 10
12.5
 20
-18.42765141169999
 10
12.5
 20
-18.42765141169999
  0
LINE
  5
179A
330
1F
100
AcDbEntity
  8
3
100
AcDbLine
 10
7.051506083299983
 20
-13.2
 30
0.0
 11
6.0
 21
-11.45
 31
0.0
  0
LINE
  5
179B
330
1F
100
AcDbEntity
  8
3
100
AcDbLine
 10
6.0
 20
-14.95
 30
0.0
 11
7.051506083299983
 21
-13.2
 31
0.0
  0
LINE
  5
179C
330
1F
100
AcDbEntity
  8
3
100
AcDbLine
 10
6.0
 20
-11.45
 30
0.0
 11
6.0
 21
-14.95
 31
0.0
  0
LWPOLYLINE
  5
179D
330
1F
100
AcDbEntity
  8
3
100
AcDbPolyline
 90
        2
 70
   128
 43
0.0
 10
6.0
 20
-14.95
 10
6.0
 20
-14.95
  0
LINE
  5
17A0
330
1F
100
AcDbEntity
  8
3
100
AcDbLine
 10
6.649999999999977
 20
1.860253622100003
 30
0.0
 11
6.649999999999977
 21
7.671495068800012
 31
0.0
  0
LWPOLYLINE
  5
17A1
330
1F
100
AcDbEntity
  8
3
100
AcDbPolyline
 90
       20
 70
   128
 43
0.0
 10
5.0
 20
0.2339279368000007
 10
5.522314278999971
 20
0.3253925902000105
 10
5.98512138129999
 20
0.5807309963999927
 10
6.362260704999982
 20
0.9810572047999954
 10
6.597525336799975
 20
1.483235899299998
 10
6.644601216399991
 20
1.982029568899989
 10
6.52235180629998
 20
2.41402490610001
 10
6.248900924799983
 20
2.771289645400003
 10
5.825134758099977
 20
3.038881126600003
 10
5.290421707199982
 20
3.181508956499996
 10
4.749933594099985
 20
3.186313663800007
 10
4.264720060799987
 20
3.074552209799989
 10
3.839051677199989
 20
2.844591113899994
 10
3.513824105399976
 20
2.480631329400011
 10
3.359130015699975
 20
2.017321389700015
 10
3.389398166299969
 20
1.534298589100004
 10
3.577744317299988
 20
1.074818014600012
 10
3.917063389899993
 20
0.6624612572999951
 10
4.398573369899992
 20
0.3560791645000023
 10
5.0
 20
0.2339279368000007
  0
ARC
  5
17A3
330
1F
100
AcDbEntity
  8
SK1
100
AcDbCircle
 10
-21.75147186260001
 20
10.29999999999999
 30
0.0
 40
0.6000000000000086
100
AcDbArc
 50
90.0
 51
135.0
  0
LINE
  5
17A4
330
1F
100
AcDbEntity
  8
SK1
100
AcDbLine
 10
-22.17573593130002
 20
10.72426406880001
 30
0.0
 11
-24.00000000000001
 21
8.900000000000005
 31
0.0
  0
LINE
  5
17A5
330
1F
100
AcDbEntity
  8
SK1
100
AcDbLine
 10
-19.20000000000001
 20
11.0
 30
0.0
 11
-20.54544165190002
 21
10.73507215809999
 31
0.0
  0
ARC
  5
17A6
330
1F
100
AcDbEntity
  8
SK1
100
AcDbCircle
 10
-20.70000000000001
 20
11.51999999999999
 30
0.0
 40
0.7999999999999896
100
AcDbArc
 50
257.5076322552992
 51
281.1394711713006
  0
LINE
  5
17A7
330
1F
100
AcDbEntity
  8
SK1
100
AcDbLine
 10
-20.87304764930002
 20
10.73894013610001
 30
0.0
 11
-21.53588450870002
 21
10.88579489800001
 31
0.0
  0
ARC
  5
17A8
330
1F
100
AcDbEntity
  8
SK1
100
AcDbCircle
 10
-21.66567024560002
 20
10.29999999999999
 30
0.0
 40
0.6000000000000086
100
AcDbArc
 50
77.50763225529921
 51
90.0
  0
LINE
  5
17A9
330
1F
100
AcDbEntity
  8
SK1
100
AcDbLine
 10
-21.66567024560002
 20
10.9
 30
0.0
 11
-21.75147186260001
 21
10.9
 31
0.0
  0
LINE
  5
17AB
330
1F
100
AcDbEntity
  8
3
100
AcDbLine
 10
6.0
 20
14.95
 30
0.0
 11
0.0
 21
14.95
 31
0.0
  0
LINE
  5
17AC
330
1F
100
AcDbEntity
  8
3
100
AcDbLine
 10
0.0
 20
11.45
 30
0.0
 11
6.0
 21
11.45
 31
0.0
  0
ARC
  5
17AD
330
1F
100
AcDbEntity
  8
1
100
AcDbCircle
 10
1.327905619099993
 20
20.2
 30
0.0
 40
0.8000000000000067
100
AcDbArc
 50
90.0
 51
150.0000000000002
  0
LINE
  5
17B2
330
1F
100
AcDbEntity
  8
SK1
100
AcDbLine
 10
-1.453420590800021
 20
10.7195698925
 30
0.0
 11
-2.5
 21
11.0
 31
0.0
  0
LINE
  5
17B4
330
1F
100
AcDbEntity
  8
SK1
100
AcDbLine
 10
-2.5
 20
11.0
 30
0.0
 11
-19.20000000000001
 21
11.0
 31
0.0
  0
LINE
  5
17BD
330
1F
100
AcDbEntity
  8
SK1
100
AcDbLine
 10
-0.4000000000000057
 20
10.65
 30
0.0
 11
-1.114790718800037
 21
10.65
 31
0.0
  0
ARC
  5
17BE
330
1F
100
AcDbEntity
  8
SK1
100
AcDbCircle
 10
-1.114790718800037
 20
11.25
 30
0.0
 40
0.5999999999999944
100
AcDbArc
 50
255.0000000000004
 51
270.0
  0
LINE
  5
17BF
330
1F
100
AcDbEntity
  8
SK1
100
AcDbLine
 10
-1.270082145900005
 20
10.6704445043
 30
0.0
 11
-1.453420590800021
 21
10.7195698925
 31
0.0
  0
ARC
  5
17C0
330
1F
100
AcDbEntity
  8
SK1
100
AcDbCircle
 10
-0.4000000000000057
 20
11.25
 30
0.0
 40
0.5999999999999944
100
AcDbArc
 50
270.0
 51
311.8103148957793
  0
LINE
  5
17C5
330
1F
100
AcDbEntity
  8
1
100
AcDbLine
 10
0.6350852960999874
 20
20.59999999999999
 30
0.0
 11
0.0
 21
19.5
 31
0.0
  0
LINE
  5
17C6
330
1F
100
AcDbEntity
  8
3
100
AcDbLine
 10
7.051506083299983
 20
13.2
 30
0.0
 11
6.0
 21
14.95
 31
0.0
  0
LINE
  5
17C7
330
1F
100
AcDbEntity
  8
3
100
AcDbLine
 10
6.0
 20
11.45
 30
0.0
 11
7.051506083299983
 21
13.2
 31
0.0
  0
LINE
  5
17C8
330
1F
100
AcDbEntity
  8
3
100
AcDbLine
 10
6.0
 20
14.95
 30
0.0
 11
6.0
 21
11.45
 31
0.0
  0
LWPOLYLINE
  5
17CA
330
1F
100
AcDbEntity
  8
3
100
AcDbPolyline
 90
        2
 70
   128
 43
0.0
 10
6.0
 20
11.45
 10
6.0
 20
11.45
  0
LINE
  5
17CD
330
1F
100
AcDbEntity
  8
3
100
AcDbLine
 10
25.44999999999999
 20
15.7092435004
 30
0.0
 11
25.44999999999999
 21
-17.54999999999999
 31
0.0
  0
LINE
  5
17CE
330
1F
100
AcDbEntity
  8
3
100
AcDbLine
 10
47.75000000000001
 20
-17.54999999999999
 30
0.0
 11
47.75
 21
12.17727048120001
 31
0.0
  0
LINE
  5
17D3
330
1F
100
AcDbEntity
  8
3
100
AcDbLine
 10
49.0
 20
5.178256239999996
 30
0.0
 11
49.0
 21
8.478256239999993
 31
0.0
  0
LWPOLYLINE
  5
17DE
330
1F
100
AcDbEntity
  8
1
100
AcDbPolyline
 90
       38
 70
   128
 43
0.0
 10
33.56036307649998
 20
3.016328924099994
 10
34.06785914079998
 20
3.383030798199996
 10
34.63259502809998
 20
3.682027599999997
 10
35.34817526009996
 20
3.933874602200006
 10
36.1155881711
 20
4.072600950400016
 10
36.9071734163
 20
4.086941360699995
 10
37.71242643309995
 20
3.9686287233
 10
38.47125602879998
 20
3.723498520100008
 10
39.19729500209996
 20
3.341754477800009
 10
39.81123513369997
 20
2.86516354950001
 10
40.34552821869996
 20
2.265593212499993
 10
40.71828668329996
 20
1.646779546499999
 10
40.97820187059997
 20
0.9438292080999985
 10
41.08761656489997
 20
0.3027538622999941
 10
41.08154872659997
 20
-0.3694360032999953
 10
40.97151997199998
 20
-0.9690167217000009
 10
40.75987915369998
 20
-1.558138645499994
 10
40.45939635159998
 20
-2.10172371969999
 10
40.06941032179997
 20
-2.603997298199999
 10
39.58030504689998
 20
-3.065032684499982
 10
39.01250804189996
 20
-3.454902391000004
 10
38.34829317049997
 20
-3.772914190999998
 10
37.62324025749999
 20
-3.988579690099996
 10
36.84681100069997
 20
-4.090352120800005
 10
36.04211010959997
 20
-4.064752048199991
 10
35.25906060289997
 20
-3.909329827299998
 10
34.49222469
 20
-3.616833186600004
 10
33.81531912499997
 20
-3.2140415267
 10
33.20227153229998
 20
-2.681099928099996
 10
32.73806004279999
 20
-2.097859757500003
 10
32.37815669379997
 20
-1.413995839799994
 10
32.18055714329997
 20
-0.7693210736000112
 10
32.10076875879997
 20
-0.0754810216999999
 10
32.13969332239997
 20
0.5412314962000125
 10
32.28533336189997
 20
1.160183568000007
 10
32.52055063869997
 20
1.724710798399996
 10
32.84904016349997
 20
2.258152483899991
 10
33.56036304709997
 20
3.016328936700006
  0
LINE
  5
17E1
330
1F
100
AcDbEntity
  8
1
100
AcDbLine
 10
39.89999999999998
 20
-19.65340116049999
 30
0.0
 11
33.29999999999998
 21
-19.65340116049999
 31
0.0
  0
LINE
  5
17E2
330
1F
100
AcDbEntity
  8
1
100
AcDbLine
 10
35.44529946159997
 20
-2.0
 30
0.0
 11
37.75470053829997
 21
-2.0
 31
0.0
  0
CIRCLE
  5
17E3
330
1F
100
AcDbEntity
  8
1
100
AcDbCircle
 10
36.59999999999999
 20
0.0
 30
0.0
 40
3.309499999999986
  0
LINE
  5
17E4
330
1F
100
AcDbEntity
  8
1
100
AcDbLine
 10
35.44529946159997
 20
2.0
 30
0.0
 11
37.75470053829997
 21
2.0
 31
0.0
  0
LINE
  5
17E8
330
1F
100
AcDbEntity
  8
1
100
AcDbLine
 10
20.19999999999999
 20
-17.54999999999999
 30
0.0
 11
16.75
 21
-21.0
 31
0.0
  0
LINE
  5
17E9
330
1F
100
AcDbEntity
  8
1
100
AcDbLine
 10
52.10510708269999
 20
-17.54999999999999
 30
0.0
 11
20.19999999999999
 21
-17.54999999999999
 31
0.0
  0
LINE
  5
17F4
330
1F
100
AcDbEntity
  8
1
100
AcDbLine
 10
25.44999999980699
 20
-17.54999999999999
 30
0.0
 11
33.29999999999998
 21
-19.65340116049999
 31
0.0
  0
LINE
  5
1869
330
1F
100
AcDbEntity
  8
3
100
AcDbLine
 10
18.5
 20
-4.0
 30
0.0
 11
53.0
 21
-4.0
 31
0.0
  0
LINE
  5
186A
330
1F
100
AcDbEntity
  8
3
100
AcDbLine
 10
53.0
 20
4.0
 30
0.0
 11
18.5
 21
4.0
 31
0.0
  0
LINE
  5
186B
330
1F
100
AcDbEntity
  8
3
100
AcDbLine
 10
14.0
 20
-4.25
 30
0.0
 11
16.55365763079998
 21
0.0
 31
0.0
  0
LINE
  5
186C
330
1F
100
AcDbEntity
  8
3
100
AcDbLine
 10
16.09655752389997
 20
0.0
 30
0.0
 11
18.5
 21
-4.0
 31
0.0
  0
LINE
  5
186D
330
1F
100
AcDbEntity
  8
3
100
AcDbLine
 10
14.0
 20
4.25
 30
0.0
 11
14.0
 21
-4.25
 31
0.0
  0
LINE
  5
186E
330
1F
100
AcDbEntity
  8
3
100
AcDbLine
 10
18.5
 20
-4.0
 30
0.0
 11
18.5
 21
4.0
 31
0.0
  0
LINE
  5
186F
330
1F
100
AcDbEntity
  8
3
100
AcDbLine
 10
18.5
 20
4.0
 30
0.0
 11
16.09655752389997
 21
0.0
 31
0.0
  0
LINE
  5
1870
330
1F
100
AcDbEntity
  8
3
100
AcDbLine
 10
16.55365763079998
 20
0.0
 30
0.0
 11
14.0
 21
4.25
 31
0.0
  0
LINE
  5
1872
330
1F
100
AcDbEntity
  8
1
100
AcDbLine
 10
35.44529946159997
 20
-2.0
 30
0.0
 11
34.29059892319997
 21
0.0
 31
0.0
  0
LINE
  5
1873
330
1F
100
AcDbEntity
  8
1
100
AcDbLine
 10
35.44529946159997
 20
2.0
 30
0.0
 11
34.29059892319997
 21
0.0
 31
0.0
  0
LINE
  5
18CE
330
1F
100
AcDbEntity
  8
1
100
AcDbLine
 10
39.89999999999998
 20
-19.65340116049999
 30
0.0
 11
47.7500000016181
 21
-17.54999999999999
 31
0.0
  0
LINE
  5
1920
330
1F
100
AcDbEntity
  8
1
100
AcDbLine
 10
52.10510708269999
 20
-17.54999999999999
 30
0.0
 11
53.0
 21
-16.0
 31
0.0
  0
LINE
  5
1956
330
1F
100
AcDbEntity
  8
3
100
AcDbLine
 10
47.74890185479998
 20
-14.2
 30
0.0
 11
53.0
 21
-14.2
 31
0.0
  0
LINE
  5
195A
330
1F
100
AcDbEntity
  8
3
100
AcDbLine
 10
53.0
 20
-12.2
 30
0.0
 11
47.75
 21
-12.2
 31
0.0
  0
LINE
  5
1961
330
1F
100
AcDbEntity
  8
1
100
AcDbLine
 10
37.75470053829997
 20
-2.0
 30
0.0
 11
38.90940107669996
 21
0.0
 31
0.0
  0
LINE
  5
1962
330
1F
100
AcDbEntity
  8
1
100
AcDbLine
 10
37.75470053829997
 20
2.0
 30
0.0
 11
38.90940107669996
 21
0.0
 31
0.0
  0
LINE
  5
1968
330
1F
100
AcDbEntity
  8
1
100
AcDbLine
 10
52.99999999999999
 20
11.3457521695
 30
0.0
 11
53.0
 21
-15.99999999999998
 31
0.0
  0
LINE
  5
1969
330
1F
100
AcDbEntity
  8
3
100
AcDbLine
 10
52.56698729809997
 20
-1.5
 30
0.0
 11
52.56698729809997
 21
1.5
 31
0.0
  0
LINE
  5
196D
330
1F
100
AcDbEntity
  8
3
100
AcDbLine
 10
47.74748151639997
 20
-1.5
 30
0.0
 11
52.56698729809997
 21
-1.5
 31
0.0
  0
LINE
  5
196E
330
1F
100
AcDbEntity
  8
3
100
AcDbLine
 10
52.56698729809997
 20
-1.5
 30
0.0
 11
53.0
 21
-1.75
 31
0.0
  0
LINE
  5
1970
330
1F
100
AcDbEntity
  8
3
100
AcDbLine
 10
52.56698729809997
 20
1.5
 30
0.0
 11
47.75
 21
1.5
 31
0.0
  0
LINE
  5
1972
330
1F
100
AcDbEntity
  8
3
100
AcDbLine
 10
53.0
 20
1.75
 30
0.0
 11
52.56698729809997
 21
1.5
 31
0.0
  0
LINE
  5
197E
330
1F
100
AcDbEntity
  8
1
100
AcDbLine
 10
16.96017381389998
 20
21.0
 30
0.0
 11
20.19999999999999
 21
16.54076181210001
 31
0.0
  0
LINE
  5
1990
330
1F
100
AcDbEntity
  8
3
100
AcDbLine
 10
46.80143139272499
 20
8.478256239999995
 30
0.0
 11
48.72934906139997
 21
12.02215682819999
 31
0.0
  0
LINE
  5
1995
330
1F
100
AcDbEntity
  8
3
100
AcDbLine
 10
45.27065093849998
 20
12.5699607946
 30
0.0
 11
43.04472238623961
 21
8.478256239999995
 31
0.0
  0
LINE
  5
1999
330
1F
100
AcDbEntity
  8
1
100
AcDbLine
 10
20.19999999999999
 20
16.54076181210001
 30
0.0
 11
53.0
 21
11.3457521695
 31
0.0
  0
LINE
  5
1A4D
330
1F
100
AcDbEntity
  8
SK1
100
AcDbLine
 10
0.0
 20
15.14999999999998
 30
0.0
 11
-3.300000000000011
 21
15.14999999999998
 31
0.0
  0
LINE
  5
1A4E
330
1F
100
AcDbEntity
  8
SK1
100
AcDbLine
 10
-3.300000000000011
 20
15.14999999999998
 30
0.0
 11
-3.5
 21
14.95
 31
0.0
  0
LINE
  5
1A4F
330
1F
100
AcDbEntity
  8
SK1
100
AcDbLine
 10
-3.300000000000011
 20
15.14999999999998
 30
0.0
 11
-3.300000000000011
 21
11.09999999999999
 31
0.0
  0
LINE
  5
1A50
330
1F
100
AcDbEntity
  8
SK1
100
AcDbLine
 10
-3.5
 20
11.29999999999999
 30
0.0
 11
-3.5
 21
14.95
 31
0.0
  0
LINE
  5
1A51
330
1F
100
AcDbEntity
  8
SK1
100
AcDbLine
 10
0.0
 20
11.09999999999999
 30
0.0
 11
-3.300000000000011
 21
11.09999999999999
 31
0.0
  0
LINE
  5
1A52
330
1F
100
AcDbEntity
  8
SK1
100
AcDbLine
 10
-3.300000000000011
 20
11.09999999999999
 30
0.0
 11
-3.5
 21
11.29999999999999
 31
0.0
  0
LINE
  5
1A53
330
1F
100
AcDbEntity
  8
SK1
100
AcDbLine
 10
-3.300000000000011
 20
-11.1
 30
0.0
 11
-3.300000000000011
 21
-15.15
 31
0.0
  0
LINE
  5
1A54
330
1F
100
AcDbEntity
  8
SK1
100
AcDbLine
 10
-3.5
 20
-14.95
 30
0.0
 11
-3.5
 21
-11.29999999999999
 31
0.0
  0
LINE
  5
1A55
330
1F
100
AcDbEntity
  8
SK1
100
AcDbLine
 10
-3.300000000000011
 20
-15.15
 30
0.0
 11
0.0
 21
-15.15
 31
0.0
  0
LINE
  5
1A56
330
1F
100
AcDbEntity
  8
SK1
100
AcDbLine
 10
-3.5
 20
-14.95
 30
0.0
 11
-3.300000000000011
 21
-15.15
 31
0.0
  0
LINE
  5
1A57
330
1F
100
AcDbEntity
  8
SK1
100
AcDbLine
 10
-3.300000000000011
 20
-11.1
 30
0.0
 11
0.0
 21
-11.1
 31
0.0
  0
LINE
  5
1A58
330
1F
100
AcDbEntity
  8
SK1
100
AcDbLine
 10
-3.5
 20
-11.29999999999999
 30
0.0
 11
-3.300000000000011
 21
-11.1
 31
0.0
  0
LINE
  5
1A59
330
1F
100
AcDbEntity
  8
SK3
100
AcDbLine
 10
0.0
 20
4.250000000000007
 30
0.0
 11
-20.25000000000001
 21
4.25
 31
0.0
  0
LINE
  5
1A5A
330
1F
100
AcDbEntity
  8
SK4
100
AcDbLine
 10
0.0
 20
0.0
 30
0.0
 11
-24.00000000000001
 21
0.0
 31
0.0
  0
LINE
  5
1A5B
330
1F
100
AcDbEntity
  8
3
100
AcDbLine
 10
0.0
 20
-4.25
 30
0.0
 11
14.0
 21
-4.25
 31
0.0
  0
LINE
  5
1A6C
330
1F
100
AcDbEntity
  8
SK1
100
AcDbLine
 10
47.20000000000001
 20
16.39999999999999
 30
0.0
 11
26.7836870466
 21
16.39999999999999
 31
0.0
  0
LINE
  5
1A6D
330
1F
100
AcDbEntity
  8
SK1
100
AcDbLine
 10
25.6
 20
16.0
 30
0.0
 11
47.59999999999999
 21
16.0
 31
0.0
  0
LINE
  5
1A6E
330
1F
100
AcDbEntity
  8
SK1
100
AcDbLine
 10
47.59999999999999
 20
16.0
 30
0.0
 11
47.20000000000001
 21
16.39999999999999
 31
0.0
  0
LINE
  5
1A6F
330
1F
100
AcDbEntity
  8
SK1
100
AcDbLine
 10
47.59999999999999
 20
12.29999999999999
 30
0.0
 11
47.59999999999999
 21
16.0
 31
0.0
  0
LINE
  5
1A70
330
1F
100
AcDbEntity
  8
SK1
100
AcDbLine
 10
47.74999999999998
 20
12.17727048120001
 30
0.0
 11
47.74999999999998
 21
12.29999999999999
 31
0.0
  0
LINE
  5
1A71
330
1F
100
AcDbEntity
  8
SK1
100
AcDbLine
 10
46.9751163145
 20
12.29999999999999
 30
0.0
 11
47.74999999999998
 21
12.29999999999999
 31
0.0
  0
LINE
  5
1A72
330
1F
100
AcDbEntity
  8
SK1
100
AcDbLine
 10
26.79999999999999
 20
17.19999999999998
 30
0.0
 11
31.59999999999999
 21
17.19999999999998
 31
0.0
  0
LWPOLYLINE
  5
1A73
330
1F
100
AcDbEntity
  8
SK1
100
AcDbPolyline
 90
        3
 70
   128
 43
0.0
 10
26.7836870466
 20
16.39999999999999
 10
27.07082286549996
 20
16.6653390544
 10
27.6534923015
 20
17.19999999999998
  0
LINE
  5
1A74
330
1F
100
AcDbEntity
  8
SK1
100
AcDbLine
 10
31.59999999999999
 20
17.19999999999998
 30
0.0
 11
31.59999999999999
 21
16.39999999999999
 31
0.0
  0
LINE
  5
1A75
330
1F
100
AcDbEntity
  8
SK1
100
AcDbLine
 10
26.79999999999999
 20
17.19999999999998
 30
0.0
 11
25.6
 21
16.0
 31
0.0
  0
LINE
  5
1A76
330
1F
100
AcDbEntity
  8
SK1
100
AcDbLine
 10
25.6
 20
16.0
 30
0.0
 11
25.6
 21
15.68548583440001
 31
0.0
  0
DIMENSION
  5
1A80
330
1F
100
AcDbEntity
  8
2
100
AcDbDimension
  2
*D40
 10
53.0
 20
25.63438540119483
 30
0.0
 11
26.5
 21
29.41938540119483
 31
0.0
 70
    32
 71
     5
 42
53.0
  3
GEN-ISO_TDM
100
AcDbAlignedDimension
 13
0.0
 23
19.5
 33
0.0
 14
53.0
 24
11.3457521695
 34
0.0
100
AcDbRotatedDimension
  0
ENDSEC
  0
SECTION
  2
OBJECTS
  0
DICTIONARY
  5
C
330
0
100
AcDbDictionary
281
     1
  3
ACAD_GROUP
350
D
  3
ACAD_LAYOUT
350
1A
  3
ACAD_MLINESTYLE
350
17
  3
ACAD_PLOTSETTINGS
350
19
  3
ACAD_PLOTSTYLENAME
350
E
  3
AcDbVariableDictionary
350
290
  0
DICTIONARY
  5
296
330
2
100
AcDbDictionary
280
     1
281
     1
  3
ACAD_LAYERSTATES
360
297
  0
DICTIONARY
  5
D
102
{ACAD_REACTORS
330
C
102
}
330
C
100
AcDbDictionary
281
     1
  0
DICTIONARY
  5
1A
102
{ACAD_REACTORS
330
C
102
}
330
C
100
AcDbDictionary
281
     1
  3
Layout1
350
1E
  3
Layout2
350
26
  3
Model
350
22
  0
DICTIONARY
  5
17
102
{ACAD_REACTORS
330
C
102
}
330
C
100
AcDbDictionary
281
     1
  3
Standard
350
18
  0
DICTIONARY
  5
19
102
{ACAD_REACTORS
330
C
102
}
330
C
100
AcDbDictionary
281
     1
  0
ACDBDICTIONARYWDFLT
  5
E
102
{ACAD_REACTORS
330
C
102
}
330
C
100
AcDbDictionary
281
     1
  3
Normal
350
F
100
AcDbDictionaryWithDefault
340
F
  0
DICTIONARY
  5
290
102
{ACAD_REACTORS
330
C
102
}
330
C
100
AcDbDictionary
281
     1
  3
DIMASSOC
350
291
  0
DICTIONARY
  5
297
102
{ACAD_REACTORS
330
296
102
}
330
296
100
AcDbDictionary
281
     1
  0
LAYOUT
  5
1E
102
{ACAD_REACTORS
330
1A
102
}
330
1A
100
AcDbPlotSettings
  1

  2

  4

  6

 40
0.0
 41
0.0
 42
0.0
 43
0.0
 44
0.0
 45
0.0
 46
0.0
 47
0.0
 48
0.0
 49
0.0
140
0.0
141
0.0
142
1.0
143
1.0
 70
   688
 72
     0
 73
     0
 74
     5
  7

 75
    16
147
1.0
148
0.0
149
0.0
100
AcDbLayout
  1
Layout1
 70
     1
 71
     1
 10
0.0
 20
0.0
 11
420.0
 21
297.0
 12
0.0
 22
0.0
 32
0.0
 14
1.000000000000000E+20
 24
1.000000000000000E+20
 34
1.000000000000000E+20
 15
-1.000000000000000E+20
 25
-1.000000000000000E+20
 35
-1.000000000000000E+20
146
0.0
 13
0.0
 23
0.0
 33
0.0
 16
1.0
 26
0.0
 36
0.0
 17
0.0
 27
1.0
 37
0.0
 76
     0
330
1B
  0
LAYOUT
  5
26
102
{ACAD_REACTORS
330
1A
102
}
330
1A
100
AcDbPlotSettings
  1

  2

  4

  6

 40
0.0
 41
0.0
 42
0.0
 43
0.0
 44
0.0
 45
0.0
 46
0.0
 47
0.0
 48
0.0
 49
0.0
140
0.0
141
0.0
142
1.0
143
1.0
 70
   688
 72
     0
 73
     0
 74
     5
  7

 75
    16
147
1.0
148
0.0
149
0.0
100
AcDbLayout
  1
Layout2
 70
     1
 71
     2
 10
0.0
 20
0.0
 11
0.0
 21
0.0
 12
0.0
 22
0.0
 32
0.0
 14
0.0
 24
0.0
 34
0.0
 15
0.0
 25
0.0
 35
0.0
146
0.0
 13
0.0
 23
0.0
 33
0.0
 16
1.0
 26
0.0
 36
0.0
 17
0.0
 27
1.0
 37
0.0
 76
     0
330
23
  0
LAYOUT
  5
22
102
{ACAD_REACTORS
330
1A
102
}
330
1A
100
AcDbPlotSettings
  1

  2

  4

  6

 40
0.0
 41
0.0
 42
0.0
 43
0.0
 44
0.0
 45
0.0
 46
0.0
 47
0.0
 48
0.0
 49
0.0
140
0.0
141
0.0
142
1.0
143
1.0
 70
  1712
 72
     0
 73
     0
 74
     0
  7

 75
     0
147
1.0
148
0.0
149
0.0
100
AcDbLayout
  1
Model
 70
     1
 71
     0
 10
0.0
 20
0.0
 11
0.0
 21
0.0
 12
0.0
 22
0.0
 32
0.0
 14
0.0
 24
0.0
 34
0.0
 15
297.0
 25
210.0
 35
0.0
146
0.0
 13
0.0
 23
0.0
 33
0.0
 16
1.0
 26
0.0
 36
0.0
 17
0.0
 27
1.0
 37
0.0
 76
     0
330
1F
  0
MLINESTYLE
  5
18
102
{ACAD_REACTORS
330
17
102
}
330
17
100
AcDbMlineStyle
  2
STANDARD
 70
     0
  3

 62
   256
 51
90.0
 52
90.0
 71
     2
 49
0.5
 62
   256
  6
BYLAYER
 49
-0.5
 62
   256
  6
BYLAYER
  0
ACDBPLACEHOLDER
  5
F
102
{ACAD_REACTORS
330
E
102
}
330
E
  0
DICTIONARYVAR
  5
291
102
{ACAD_REACTORS
330
290
102
}
330
290
100
DictionaryVariables
280
     0
  1
1
  0
ENDSEC
  0
EOF
