  0
SECTION
  2
HEADER
  9
$ACADVER
  1
AC1015
  9
$ACADMAINTVER
 70
     6
  9
$DWGCODEPAGE
  3
ANSI_1252
  9
$INSBASE
 10
0.0
 20
0.0
 30
0.0
  9
$EXTMIN
 10
0.0
 20
0.0
 30
0.0
  9
$EXTMAX
 10
297.0
 20
210.0
 30
0.0
  9
$LIMMIN
 10
0.0
 20
0.0
  9
$LIMMAX
 10
297.0
 20
210.0
  9
$ORTHOMODE
 70
     0
  9
$REGENMODE
 70
     1
  9
$FILLMODE
 70
     1
  9
$QTEXTMODE
 70
     0
  9
$MIRRTEXT
 70
     1
  9
$LTSCALE
 40
1.0
  9
$ATTMODE
 70
     1
  9
$TEXTSIZE
 40
2.0
  9
$TRACEWID
 40
1.0
  9
$TEXTSTYLE
  7
Standard
  9
$CLAYER
  8
0
  9
$CELTYPE
  6
ByLayer
  9
$CECOLOR
 62
   256
  9
$CELTSCALE
 40
1.0
  9
$DISPSILH
 70
     0
  9
$DIMSCALE
 40
1.0
  9
$DIMASZ
 40
3.0
  9
$DIMEXO
 40
0.0
  9
$DIMDLI
 40
3.75
  9
$DIMRND
 40
0.0
  9
$DIMDLE
 40
0.0
  9
$DIMEXE
 40
1.0
  9
$DIMTP
 40
0.0
  9
$DIMTM
 40
0.0
  9
$DIMTXT
 40
2.0
  9
$DIMCEN
 40
2.5
  9
$DIMTSZ
 40
0.0
  9
$DIMTOL
 70
     0
  9
$DIMLIM
 70
     0
  9
$DIMTIH
 70
     1
  9
$DIMTOH
 70
     1
  9
$DIMSE1
 70
     0
  9
$DIMSE2
 70
     0
  9
$DIMTAD
 70
     1
  9
$DIMZIN
 70
     0
  9
$DIMBLK
  1

  9
$DIMASO
 70
     1
  9
$DIMSHO
 70
     1
  9
$DIMPOST
  1

  9
$DIMAPOST
  1

  9
$DIMALT
 70
     0
  9
$DIMALTD
 70
     3
  9
$DIMALTF
 40
0.0393700787
  9
$DIMLFAC
 40
1.0
  9
$DIMTOFL
 70
     1
  9
$DIMTVP
 40
0.0
  9
$DIMTIX
 70
     0
  9
$DIMSOXD
 70
     0
  9
$DIMSAH
 70
     0
  9
$DIMBLK1
  1

  9
$DIMBLK2
  1

  9
$DIMSTYLE
  2
ISO-25
  9
$DIMCLRD
 70
     0
  9
$DIMCLRE
 70
     0
  9
$DIMCLRT
 70
     0
  9
$DIMTFAC
 40
1.0
  9
$DIMGAP
 40
1.524
  9
$DIMJUST
 70
     0
  9
$DIMSD1
 70
     0
  9
$DIMSD2
 70
     0
  9
$DIMTOLJ
 70
     0
  9
$DIMTZIN
 70
     0
  9
$DIMALTZ
 70
     0
  9
$DIMALTTZ
 70
     0
  9
$DIMUPT
 70
     0
  9
$DIMDEC
 70
     2
  9
$DIMTDEC
 70
     3
  9
$DIMALTU
 70
     2
  9
$DIMALTTD
 70
     3
  9
$DIMTXSTY
  7
Standard
  9
$DIMAUNIT
 70
     0
  9
$DIMADEC
 70
     2
  9
$DIMALTRND
 40
0.0
  9
$DIMAZIN
 70
     0
  9
$DIMDSEP
 70
    44
  9
$DIMATFIT
 70
     3
  9
$DIMFRAC
 70
     0
  9
$DIMLDRBLK
  1

  9
$DIMLUNIT
 70
     2
  9
$DIMLWD
 70
    -2
  9
$DIMLWE
 70
    -2
  9
$DIMTMOVE
 70
     0
  9
$LUNITS
 70
     2
  9
$LUPREC
 70
     2
  9
$SKETCHINC
 40
1.0
  9
$FILLETRAD
 40
10.0
  9
$AUNITS
 70
     0
  9
$AUPREC
 70
     2
  9
$MENU
  1
.
  9
$ELEVATION
 40
0.0
  9
$PELEVATION
 40
0.0
  9
$THICKNESS
 40
0.0
  9
$LIMCHECK
 70
     0
  9
$CHAMFERA
 40
0.0
  9
$CHAMFERB
 40
0.0
  9
$CHAMFERC
 40
0.0
  9
$CHAMFERD
 40
0.0
  9
$SKPOLY
 70
     0
  9
$TDCREATE
 40
2458066.390504259
  9
$TDUCREATE
 40
2458066.348837593
  9
$TDUPDATE
 40
2458066.390506447
  9
$TDUUPDATE
 40
2458066.34883978
  9
$TDINDWG
 40
0.0000000116
  9
$TDUSRTIMER
 40
0.0000000116
  9
$USRTIMER
 70
     1
  9
$ANGBASE
 50
0.0
  9
$ANGDIR
 70
     0
  9
$PDMODE
 70
     0
  9
$PDSIZE
 40
-1.0
  9
$PLINEWID
 40
0.0
  9
$SPLFRAME
 70
     0
  9
$SPLINETYPE
 70
     6
  9
$SPLINESEGS
 70
     8
  9
$HANDSEED
  5
3A3
  9
$SURFTAB1
 70
     6
  9
$SURFTAB2
 70
     6
  9
$SURFTYPE
 70
     6
  9
$SURFU
 70
     6
  9
$SURFV
 70
     6
  9
$UCSBASE
  2

  9
$UCSNAME
  2

  9
$UCSORG
 10
0.0
 20
0.0
 30
0.0
  9
$UCSXDIR
 10
1.0
 20
0.0
 30
0.0
  9
$UCSYDIR
 10
0.0
 20
1.0
 30
0.0
  9
$UCSORTHOREF
  2

  9
$UCSORTHOVIEW
 70
     0
  9
$UCSORGTOP
 10
0.0
 20
0.0
 30
0.0
  9
$UCSORGBOTTOM
 10
0.0
 20
0.0
 30
0.0
  9
$UCSORGLEFT
 10
0.0
 20
0.0
 30
0.0
  9
$UCSORGRIGHT
 10
0.0
 20
0.0
 30
0.0
  9
$UCSORGFRONT
 10
0.0
 20
0.0
 30
0.0
  9
$UCSORGBACK
 10
0.0
 20
0.0
 30
0.0
  9
$PUCSBASE
  2

  9
$PUCSNAME
  2

  9
$PUCSORG
 10
0.0
 20
0.0
 30
0.0
  9
$PUCSXDIR
 10
1.0
 20
0.0
 30
0.0
  9
$PUCSYDIR
 10
0.0
 20
1.0
 30
0.0
  9
$PUCSORTHOREF
  2

  9
$PUCSORTHOVIEW
 70
     0
  9
$PUCSORGTOP
 10
0.0
 20
0.0
 30
0.0
  9
$PUCSORGBOTTOM
 10
0.0
 20
0.0
 30
0.0
  9
$PUCSORGLEFT
 10
0.0
 20
0.0
 30
0.0
  9
$PUCSORGRIGHT
 10
0.0
 20
0.0
 30
0.0
  9
$PUCSORGFRONT
 10
0.0
 20
0.0
 30
0.0
  9
$PUCSORGBACK
 10
0.0
 20
0.0
 30
0.0
  9
$USERI1
 70
     0
  9
$USERI2
 70
     0
  9
$USERI3
 70
     0
  9
$USERI4
 70
     0
  9
$USERI5
 70
     0
  9
$USERR1
 40
0.0
  9
$USERR2
 40
0.0
  9
$USERR3
 40
0.0
  9
$USERR4
 40
0.0
  9
$USERR5
 40
0.0
  9
$WORLDVIEW
 70
     1
  9
$SHADEDGE
 70
     3
  9
$SHADEDIF
 70
    70
  9
$TILEMODE
 70
     1
  9
$MAXACTVP
 70
    64
  9
$PINSBASE
 10
0.0
 20
0.0
 30
0.0
  9
$PLIMCHECK
 70
     0
  9
$PEXTMIN
 10
1.0000000000E+20
 20
1.0000000000E+20
 30
1.0000000000E+20
  9
$PEXTMAX
 10
-1.0000000000E+20
 20
-1.0000000000E+20
 30
-1.0000000000E+20
  9
$PLIMMIN
 10
0.0
 20
0.0
  9
$PLIMMAX
 10
420.0
 20
297.0
  9
$UNITMODE
 70
     0
  9
$VISRETAIN
 70
     1
  9
$PLINEGEN
 70
     0
  9
$PSLTSCALE
 70
     1
  9
$TREEDEPTH
 70
  3020
  9
$CMLSTYLE
  2
Standard
  9
$CMLJUST
 70
     0
  9
$CMLSCALE
 40
20.0
  9
$PROXYGRAPHICS
 70
     1
  9
$MEASUREMENT
 70
     1
  9
$CELWEIGHT
370
    -1
  9
$ENDCAPS
280
     0
  9
$JOINSTYLE
280
     0
  9
$LWDISPLAY
290
     1
  9
$INSUNITS
 70
     4
  9
$HYPERLINKBASE
  1

  9
$STYLESHEET
  1

  9
$XEDIT
290
     1
  9
$CEPSNTYPE
380
     0
  9
$PSTYLEMODE
290
     1
  9
$FINGERPRINTGUID
  2
{EEBE77CA-19B0-4141-AE8A-6303AC7354A0}
  9
$VERSIONGUID
  2
{FAEB1C32-E019-11D5-929B-00C0DF256EC4}
  9
$EXTNAMES
290
     1
  9
$PSVPSCALE
 40
0.0
  9
$OLESTARTUP
290
     0
  0
ENDSEC
  0
SECTION
  2
CLASSES
  0
CLASS
  1
ACDBDICTIONARYWDFLT
  2
AcDbDictionaryWithDefault
  3
ObjectDBX Classes
 90
        0
280
     0
281
     0
  0
CLASS
  1
VISUALSTYLE
  2
AcDbVisualStyle
  3
ObjectDBX Classes
 90
     4095
280
     0
281
     0
  0
CLASS
  1
MATERIAL
  2
AcDbMaterial
  3
ObjectDBX Classes
 90
     1153
280
     0
281
     0
  0
CLASS
  1
SCALE
  2
AcDbScale
  3
ObjectDBX Classes
 90
     1153
280
     0
281
     0
  0
CLASS
  1
TABLESTYLE
  2
AcDbTableStyle
  3
ObjectDBX Classes
 90
     4095
280
     0
281
     0
  0
CLASS
  1
MLEADERSTYLE
  2
AcDbMLeaderStyle
  3
ACDB_MLEADERSTYLE_CLASS
 90
     4095
280
     0
281
     0
  0
CLASS
  1
SUN
  2
AcDbSun
  3
SCENEOE
 90
     1153
280
     0
281
     0
  0
CLASS
  1
ACDBPLACEHOLDER
  2
AcDbPlaceHolder
  3
ObjectDBX Classes
 90
        0
280
     0
281
     0
  0
CLASS
  1
LAYOUT
  2
AcDbLayout
  3
ObjectDBX Classes
 90
        0
280
     0
281
     0
  0
ENDSEC
  0
SECTION
  2
TABLES
  0
TABLE
  2
VPORT
  5
8
330
0
100
AcDbSymbolTable
 70
     1
  0
VPORT
  5
29
330
8
100
AcDbSymbolTableRecord
100
AcDbViewportTableRecord
  2
*Active
 70
     0
 10
0.0
 20
0.0
 11
1.0
 21
1.0
 12
148.5
 22
105.0
 13
0.0
 23
0.0
 14
10.0
 24
10.0
 15
10.0
 25
10.0
 16
0.0
 26
0.0
 36
1.0
 17
0.0
 27
0.0
 37
0.0
 40
210.0
 41
1.4142857143
 42
50.0
 43
0.0
 44
0.0
 50
0.0
 51
0.0
 71
     0
 72
  2000
 73
     1
 74
     3
 75
     0
 76
     0
 77
     0
 78
     0
281
     0
 65
     1
110
0.0
120
0.0
130
0.0
111
1.0
121
0.0
131
0.0
112
0.0
122
1.0
132
0.0
 79
     0
146
0.0
  0
ENDTAB
  0
TABLE
  2
LTYPE
  5
5
330
0
100
AcDbSymbolTable
 70
     6
  0
LTYPE
  5
14
330
5
100
AcDbSymbolTableRecord
100
AcDbLinetypeTableRecord
  2
ByBlock
 70
     0
  3

 72
    65
 73
     0
 40
0.0
  0
LTYPE
  5
15
330
5
100
AcDbSymbolTableRecord
100
AcDbLinetypeTableRecord
  2
ByLayer
 70
     0
  3

 72
    65
 73
     0
 40
0.0
  0
LTYPE
  5
16
330
5
100
AcDbSymbolTableRecord
100
AcDbLinetypeTableRecord
  2
Continuous
 70
     0
  3
Solid line
 72
    65
 73
     0
 40
0.0
  0
LTYPE
  5
6E
330
5
100
AcDbSymbolTableRecord
100
AcDbLinetypeTableRecord
  2
HIDDEN
 70
     0
  3
Hidden __ __ __ __ __ __ __ __ __ __ __ __ __ __
 72
    65
 73
     2
 40
1.905
 49
1.27
 74
     0
 49
-0.635
 74
     0
  0
LTYPE
  5
6F
330
5
100
AcDbSymbolTableRecord
100
AcDbLinetypeTableRecord
  2
PHANTOM
 70
     0
  3
Phantom ______  __  __  ______  __  __  ______
 72
    65
 73
     6
 40
12.7
 49
6.35
 74
     0
 49
-1.27
 74
     0
 49
1.27
 74
     0
 49
-1.27
 74
     0
 49
1.27
 74
     0
 49
-1.27
 74
     0
  0
LTYPE
  5
70
330
5
100
AcDbSymbolTableRecord
100
AcDbLinetypeTableRecord
  2
CENTER
 70
     0
  3
Center ____ _ ____ _ ____ _ ____ _ ____ _ ____
 72
    65
 73
     4
 40
10.16
 49
6.35
 74
     0
 49
-1.27
 74
     0
 49
1.27
 74
     0
 49
-1.27
 74
     0
  0
LTYPE
  5
71
330
5
100
AcDbSymbolTableRecord
100
AcDbLinetypeTableRecord
  2
CENTERX2
 70
     0
  3
Center (2x) ________  __  ________  __  _____
 72
    65
 73
     4
 40
20.32
 49
12.7
 74
     0
 49
-2.54
 74
     0
 49
2.54
 74
     0
 49
-2.54
 74
     0
  0
LTYPE
  5
72
330
5
100
AcDbSymbolTableRecord
100
AcDbLinetypeTableRecord
  2
DOT2
 70
     0
  3
Dot (.5x) ........................................
 72
    65
 73
     2
 40
0.635
 49
0.0
 74
     0
 49
-0.635
 74
     0
  0
ENDTAB
  0
TABLE
  2
LAYER
  5
2
330
0
100
AcDbSymbolTable
 70
     5
  0
LAYER
  5
10
330
2
100
AcDbSymbolTableRecord
100
AcDbLayerTableRecord
  2
0
 70
     0
 62
     7
  6
Continuous
370
    -3
390
F
  0
LAYER
  5
73
330
2
100
AcDbSymbolTableRecord
100
AcDbLayerTableRecord
  2
FORMAT
 70
     0
 62
     7
  6
Continuous
370
    -3
390
F
  0
LAYER
  5
74
330
2
100
AcDbSymbolTableRecord
100
AcDbLayerTableRecord
  2
VERMASSUNG
 70
     0
 62
     7
  6
Continuous
370
    -3
390
F
  0
LAYER
  5
75
330
2
100
AcDbSymbolTableRecord
100
AcDbLayerTableRecord
  2
KOPF_DÜNN
 70
     0
 62
     7
  6
Continuous
370
    -3
390
F
  0
LAYER
  5
76
330
2
100
AcDbSymbolTableRecord
100
AcDbLayerTableRecord
  2
KOPF_DICK
 70
     0
 62
     7
  6
Continuous
370
    25
390
F
  0
ENDTAB
  0
TABLE
  2
STYLE
  5
3
330
0
100
AcDbSymbolTable
 70
     2
  0
STYLE
  5
11
330
3
100
AcDbSymbolTableRecord
100
AcDbTextStyleTableRecord
  2
Standard
 70
     0
 40
0.0
 41
1.0
 50
0.0
 71
     0
 42
2.0
  3
txt
  4

  0
STYLE
  5
77
330
3
100
AcDbSymbolTableRecord
100
AcDbTextStyleTableRecord
  2
SLDTEXTSTYLE0
 70
     0
 40
0.0
 41
0.7
 50
0.0
 71
     0
 42
2.0
  3
TXT
  4

  0
ENDTAB
  0
TABLE
  2
VIEW
  5
6
330
0
100
AcDbSymbolTable
 70
     0
  0
ENDTAB
  0
TABLE
  2
UCS
  5
7
330
0
100
AcDbSymbolTable
 70
     0
  0
ENDTAB
  0
TABLE
  2
APPID
  5
9
330
0
100
AcDbSymbolTable
 70
     1
  0
APPID
  5
12
330
9
100
AcDbSymbolTableRecord
100
AcDbRegAppTableRecord
  2
ACAD
 70
     0
  0
ENDTAB
  0
TABLE
  2
DIMSTYLE
  5
A
330
0
100
AcDbSymbolTable
 70
     3
100
AcDbDimStyleTable
  0
DIMSTYLE
105
27
330
A
100
AcDbSymbolTableRecord
100
AcDbDimStyleTableRecord
  2
ISO-25
 70
     0
 41
2.5
 42
0.625
 43
3.75
 44
1.25
 73
     0
 74
     0
 77
     1
 78
     8
140
2.5
141
2.5
143
0.0393700787
147
0.625
171
     3
172
     1
178
     0
271
     2
272
     2
274
     3
278
    44
283
     0
284
     8
340
11
  0
DIMSTYLE
105
361
102
{ACAD_REACTORS
330
360
330
36D
330
384
102
}
330
A
100
AcDbSymbolTableRecord
100
AcDbDimStyleTableRecord
  2
SLDDIMSTYLE0
 70
     0
 41
3.0
 44
0.0
 45
0.000000001
 73
     0
 74
     0
 77
     1
 78
    12
 79
     3
140
2.0
147
0.5
173
     1
178
     0
271
     2
272
     3
276
     2
284
    12
340
77
  0
DIMSTYLE
105
378
102
{ACAD_REACTORS
330
377
102
}
330
A
100
AcDbSymbolTableRecord
100
AcDbDimStyleTableRecord
  2
SLDDIMSTYLE1
 70
     0
 41
3.0
 44
0.0
 45
0.000000001
 73
     0
 74
     0
 76
     1
 77
     1
 78
    12
 79
     3
140
2.0
147
0.5
173
     1
178
     0
271
     2
272
     3
276
     2
282
     1
284
    12
340
77
  0
ENDTAB
  0
TABLE
  2
BLOCK_RECORD
  5
1
330
0
100
AcDbSymbolTable
 70
     6
  0
BLOCK_RECORD
  5
1F
330
1
100
AcDbSymbolTableRecord
100
AcDbBlockTableRecord
  2
*Model_Space
340
22
  0
BLOCK_RECORD
  5
1B
330
1
100
AcDbSymbolTableRecord
100
AcDbBlockTableRecord
  2
*Paper_Space
340
1E
  0
BLOCK_RECORD
  5
23
330
1
100
AcDbSymbolTableRecord
100
AcDbBlockTableRecord
  2
*Paper_Space0
340
26
  0
BLOCK_RECORD
  5
362
330
1
100
AcDbSymbolTableRecord
100
AcDbBlockTableRecord
  2
_D
340
0
  0
BLOCK_RECORD
  5
36E
330
1
100
AcDbSymbolTableRecord
100
AcDbBlockTableRecord
  2
_D_1
340
0
  0
BLOCK_RECORD
  5
379
330
1
100
AcDbSymbolTableRecord
100
AcDbBlockTableRecord
  2
_D_2
340
0
  0
BLOCK_RECORD
  5
385
330
1
100
AcDbSymbolTableRecord
100
AcDbBlockTableRecord
  2
_D_3
340
0
  0
BLOCK_RECORD
  5
390
330
1
100
AcDbSymbolTableRecord
100
AcDbBlockTableRecord
  2
SW_CENTERMARKSYMBOL_0
340
0
102
{BLKREFS
331
39B
102
}
  0
ENDTAB
  0
ENDSEC
  0
SECTION
  2
BLOCKS
  0
BLOCK
  5
20
330
1F
100
AcDbEntity
  8
0
100
AcDbBlockBegin
  2
*Model_Space
 70
     0
 10
0.0
 20
0.0
 30
0.0
  3
*Model_Space
  1

  0
ENDBLK
  5
21
330
1F
100
AcDbEntity
  8
0
100
AcDbBlockEnd
  0
BLOCK
  5
1C
330
1B
100
AcDbEntity
 67
     1
  8
0
100
AcDbBlockBegin
  2
*Paper_Space
 70
     0
 10
0.0
 20
0.0
 30
0.0
  3
*Paper_Space
  1

  0
ENDBLK
  5
1D
330
1B
100
AcDbEntity
 67
     1
  8
0
100
AcDbBlockEnd
  0
BLOCK
  5
24
330
23
100
AcDbEntity
  8
0
100
AcDbBlockBegin
  2
*Paper_Space0
 70
     0
 10
0.0
 20
0.0
 30
0.0
  3
*Paper_Space0
  1

  0
ENDBLK
  5
25
330
23
100
AcDbEntity
  8
0
100
AcDbBlockEnd
  0
BLOCK
  5
363
330
362
100
AcDbEntity
  8
0
100
AcDbBlockBegin
  2
_D
 70
     0
 10
0.0
 20
0.0
 30
0.0
  3
_D
  1

  0
ARC
  5
365
330
362
100
AcDbEntity
  8
VERMASSUNG
100
AcDbCircle
 10
148.5695087465
 20
154.4205677979
 30
0.0
 40
4.246860806920076
100
AcDbArc
 50
153.4349488229
 51
206.5650511771
  0
ARC
  5
366
330
362
100
AcDbEntity
  8
VERMASSUNG
100
AcDbCircle
 10
148.1460320928
 20
154.4205677979
 30
0.0
 40
4.246860806920076
100
AcDbArc
 50
333.4349488229
 51
26.5650511771
  0
SOLID
  5
367
330
362
100
AcDbEntity
  8
VERMASSUNG
100
AcDbTrace
 10
218.3577704196
 20
152.5213139069
 30
0.0
 11
215.3577704196
 21
152.9713139069
 31
0.0
 12
215.3577704196
 22
152.0713139069
 32
0.0
 13
215.3577704196
 23
152.0713139069
 33
0.0
  0
SOLID
  5
368
330
362
100
AcDbEntity
  8
VERMASSUNG
100
AcDbTrace
 10
78.3577704196
 20
152.5213139069
 30
0.0
 11
81.3577704196
 21
152.0713139069
 31
0.0
 12
81.3577704196
 22
152.9713139069
 32
0.0
 13
81.3577704196
 23
152.9713139069
 33
0.0
  0
LINE
  5
369
330
362
100
AcDbEntity
  8
VERMASSUNG
100
AcDbLine
 10
218.3577704196
 20
142.5211422764
 30
0.0
 11
218.3577704196
 21
153.5213139069
 31
0.0
  0
LINE
  5
36A
330
362
100
AcDbEntity
  8
VERMASSUNG
100
AcDbLine
 10
78.3577704196
 20
114.6363469547
 30
0.0
 11
78.3577704196
 21
153.5213139069
 31
0.0
  0
LINE
  5
36B
330
362
100
AcDbEntity
  8
VERMASSUNG
100
AcDbLine
 10
218.3577704196
 20
152.5213139069
 30
0.0
 11
78.3577704196
 21
152.5213139069
 31
0.0
  0
MTEXT
  5
36C
330
362
100
AcDbEntity
  8
VERMASSUNG
100
AcDbMText
 10
146.3585009644
 20
155.0994495029
 30
0.0
 40
2.0
 41
0.0
 71
     1
 72
     1
  1
140
  7
SLDTEXTSTYLE0
 73
     1
 44
1.0
  0
ENDBLK
  5
364
330
362
100
AcDbEntity
  8
0
100
AcDbBlockEnd
  0
BLOCK
  5
36F
330
36E
100
AcDbEntity
  8
0
100
AcDbBlockBegin
  2
_D_1
 70
     0
 10
0.0
 20
0.0
 30
0.0
  3
_D_1
  1

  0
SOLID
  5
371
330
36E
100
AcDbEntity
  8
VERMASSUNG
100
AcDbTrace
 10
218.3577704196
 20
146.5213139069
 30
0.0
 11
215.3577704196
 21
146.9713139069
 31
0.0
 12
215.3577704196
 22
146.0713139069
 32
0.0
 13
215.3577704196
 23
146.0713139069
 33
0.0
  0
SOLID
  5
372
330
36E
100
AcDbEntity
  8
VERMASSUNG
100
AcDbTrace
 10
118.3577704196
 20
146.5213139069
 30
0.0
 11
121.3577704196
 21
146.0713139069
 31
0.0
 12
121.3577704196
 22
146.9713139069
 32
0.0
 13
121.3577704196
 23
146.9713139069
 33
0.0
  0
LINE
  5
373
330
36E
100
AcDbEntity
  8
VERMASSUNG
100
AcDbLine
 10
218.3577704196
 20
142.5211422764
 30
0.0
 11
218.3577704196
 21
147.5213139069
 31
0.0
  0
LINE
  5
374
330
36E
100
AcDbEntity
  8
VERMASSUNG
100
AcDbLine
 10
118.3577704196
 20
130.7363469547
 30
0.0
 11
118.3577704196
 21
147.5213139069
 31
0.0
  0
LINE
  5
375
330
36E
100
AcDbEntity
  8
VERMASSUNG
100
AcDbLine
 10
218.3577704196
 20
146.5213139069
 30
0.0
 11
118.3577704196
 21
146.5213139069
 31
0.0
  0
MTEXT
  5
376
330
36E
100
AcDbEntity
  8
VERMASSUNG
100
AcDbMText
 10
166.4585165286
 20
149.0994495029
 30
0.0
 40
2.0
 41
0.0
 71
     1
 72
     1
  1
100
  7
SLDTEXTSTYLE0
 73
     1
 44
1.0
  0
ENDBLK
  5
370
330
36E
100
AcDbEntity
  8
0
100
AcDbBlockEnd
  0
BLOCK
  5
37A
330
379
100
AcDbEntity
  8
0
100
AcDbBlockBegin
  2
_D_2
 70
     0
 10
0.0
 20
0.0
 30
0.0
  3
_D_2
  1

  0
SOLID
  5
37C
330
379
100
AcDbEntity
  8
VERMASSUNG
100
AcDbTrace
 10
228.3577704196
 20
142.5211422764
 30
0.0
 11
227.9077704196
 21
139.5211422764
 31
0.0
 12
228.8077704196
 22
139.5211422764
 32
0.0
 13
228.8077704196
 23
139.5211422764
 33
0.0
  0
LINE
  5
37D
330
379
100
AcDbEntity
  8
VERMASSUNG
100
AcDbLine
 10
218.3577704196
 20
142.5211422764
 30
0.0
 11
229.3577704196
 21
142.5211422764
 31
0.0
  0
LINE
  5
37E
330
379
100
AcDbEntity
  8
VERMASSUNG
100
AcDbLine
 10
228.3577704196
 20
142.5211422764
 30
0.0
 11
228.3577704196
 21
103.2700868807
 31
0.0
  0
MTEXT
  5
37F
330
379
100
AcDbEntity
  8
VERMASSUNG
100
AcDbMText
 10
221.7810959714
 20
105.7587687873
 30
0.0
 40
2.0
 41
0.0
 71
     1
 72
     1
  1
%%c
  7
SLDTEXTSTYLE0
 11
-7.044195017643634E-15
 21
1.0
 31
0.0
 73
     1
 44
1.0
  0
MTEXT
  5
380
330
379
100
AcDbEntity
  8
VERMASSUNG
100
AcDbMText
 10
221.7810959131
 20
109.3676637289
 30
0.0
 40
2.0
 41
0.0
 71
     1
 72
     1
  1
86.9
  7
SLDTEXTSTYLE0
 11
-7.044195017643634E-15
 21
1.0
 31
0.0
 73
     1
 44
1.0
  0
MTEXT
  5
381
330
379
100
AcDbEntity
  8
VERMASSUNG
100
AcDbMText
 10
221.7810959131
 20
114.1663271531
 30
0.0
 40
2.0
 41
0.0
 71
     1
 72
     1
  1
-116.1
  7
SLDTEXTSTYLE0
 11
-7.044195017643634E-15
 21
1.0
 31
0.0
 73
     1
 44
1.0
  0
MTEXT
  5
382
330
379
100
AcDbEntity
  8
VERMASSUNG
100
AcDbMText
 10
225.7796351147
 20
105.2544618807
 30
0.0
 40
2.0
 41
0.0
 71
     1
 72
     1
  1
%%c
  7
SLDTEXTSTYLE0
 11
-7.044195017643634E-15
 21
1.0
 31
0.0
 73
     1
 44
1.0
  0
MTEXT
  5
383
330
379
100
AcDbEntity
  8
VERMASSUNG
100
AcDbMText
 10
225.5796351634
 20
108.864461895
 30
0.0
 40
2.0
 41
0.0
 71
     1
 72
     1
  1
104.9-134.1
  7
SLDTEXTSTYLE0
 11
-7.044195017643634E-15
 21
1.0
 31
0.0
 73
     1
 44
1.0
  0
ENDBLK
  5
37B
330
379
100
AcDbEntity
  8
0
100
AcDbBlockEnd
  0
BLOCK
  5
386
330
385
100
AcDbEntity
  8
0
100
AcDbBlockBegin
  2
_D_3
 70
     0
 10
0.0
 20
0.0
 30
0.0
  3
_D_3
  1

  0
SOLID
  5
388
330
385
100
AcDbEntity
  8
VERMASSUNG
100
AcDbTrace
 10
74.4058245651
 20
134.7363469547
 30
0.0
 11
73.9558245651
 21
131.7363469547
 31
0.0
 12
74.8558245651
 22
131.7363469547
 32
0.0
 13
74.8558245651
 23
131.7363469547
 33
0.0
  0
SOLID
  5
389
330
385
100
AcDbEntity
  8
VERMASSUNG
100
AcDbTrace
 10
74.4058245651
 20
62.7363469547
 30
0.0
 11
74.8558245651
 21
65.7363469547
 31
0.0
 12
73.9558245651
 22
65.7363469547
 32
0.0
 13
73.9558245651
 23
65.7363469547
 33
0.0
  0
LINE
  5
38A
330
385
100
AcDbEntity
  8
VERMASSUNG
100
AcDbLine
 10
121.2445217656
 20
134.7363469547
 30
0.0
 11
73.4058245651
 21
134.7363469547
 31
0.0
  0
LINE
  5
38B
330
385
100
AcDbEntity
  8
VERMASSUNG
100
AcDbLine
 10
121.2445217656
 20
62.7363469547
 30
0.0
 11
73.4058245651
 21
62.7363469547
 31
0.0
  0
LINE
  5
38C
330
385
100
AcDbEntity
  8
VERMASSUNG
100
AcDbLine
 10
74.4058245651
 20
134.7363469547
 30
0.0
 11
74.4058245651
 21
62.7363469547
 31
0.0
  0
MTEXT
  5
38D
330
385
100
AcDbEntity
  8
VERMASSUNG
100
AcDbMText
 10
71.6276893089
 20
92.632272052
 30
0.0
 40
2.0
 41
0.0
 71
     1
 72
     1
  1
ST6
  7
SLDTEXTSTYLE0
 11
-7.044195017643634E-15
 21
1.0
 31
0.0
 73
     1
 44
1.0
  0
MTEXT
  5
38E
330
385
100
AcDbEntity
  8
VERMASSUNG
100
AcDbMText
 10
71.8276892602
 20
98.4322719783
 30
0.0
 40
2.0
 41
0.0
 71
     1
 72
     1
  1
%%c
  7
SLDTEXTSTYLE0
 11
-7.044195017643634E-15
 21
1.0
 31
0.0
 73
     1
 44
1.0
  0
MTEXT
  5
38F
330
385
100
AcDbEntity
  8
VERMASSUNG
100
AcDbMText
 10
71.8276889691
 20
102.0420697174
 30
0.0
 40
2.0
 41
0.0
 71
     1
 72
     1
  1
72
  7
SLDTEXTSTYLE0
 11
-7.044195017643634E-15
 21
1.0
 31
0.0
 73
     1
 44
1.0
  0
ENDBLK
  5
387
330
385
100
AcDbEntity
  8
0
100
AcDbBlockEnd
  0
BLOCK
  5
391
330
390
100
AcDbEntity
  8
0
100
AcDbBlockBegin
  2
SW_CENTERMARKSYMBOL_0
 70
     0
 10
0.0
 20
0.0
 30
0.0
  3
SW_CENTERMARKSYMBOL_0
  1

  0
LINE
  5
393
330
390
100
AcDbEntity
  8
VERMASSUNG
 62
     0
100
AcDbLine
 10
0.0
 20
0.0
 30
0.0
 11
0.0
 21
2.5
 31
0.0
  0
LINE
  5
394
330
390
100
AcDbEntity
  8
VERMASSUNG
 62
     0
100
AcDbLine
 10
0.0
 20
0.0
 30
0.0
 11
-2.5
 21
0.0
 31
0.0
  0
LINE
  5
395
330
390
100
AcDbEntity
  8
VERMASSUNG
 62
     0
100
AcDbLine
 10
0.0
 20
0.0
 30
0.0
 11
0.0
 21
-2.5
 31
0.0
  0
LINE
  5
396
330
390
100
AcDbEntity
  8
VERMASSUNG
 62
     0
100
AcDbLine
 10
0.0
 20
0.0
 30
0.0
 11
2.5
 21
0.0
 31
0.0
  0
LINE
  5
397
330
390
100
AcDbEntity
  8
VERMASSUNG
 62
     0
100
AcDbLine
 10
0.0
 20
5.0
 30
0.0
 11
0.0
 21
41.8778822814
 31
0.0
  0
LINE
  5
398
330
390
100
AcDbEntity
  8
VERMASSUNG
 62
     0
100
AcDbLine
 10
-5.0
 20
0.0
 30
0.0
 11
-114.796289162
 21
0.0
 31
0.0
  0
LINE
  5
399
330
390
100
AcDbEntity
  8
VERMASSUNG
 62
     0
100
AcDbLine
 10
0.0
 20
-5.0
 30
0.0
 11
0.0
 21
-36.3989295873
 31
0.0
  0
LINE
  5
39A
330
390
100
AcDbEntity
  8
VERMASSUNG
 62
     0
100
AcDbLine
 10
5.0
 20
0.0
 30
0.0
 11
23.4510955054
 21
0.0
 31
0.0
  0
ENDBLK
  5
392
330
390
100
AcDbEntity
  8
0
100
AcDbBlockEnd
  0
ENDSEC
  0
SECTION
  2
ENTITIES
  0
MTEXT
  5
78
330
1F
100
AcDbEntity
  8
KOPF_DÜNN
100
AcDbMText
 10
13.8892156294
 20
23.8442973028
 30
0.0
 40
3.0
 41
0.0
 71
     1
 72
     1
  1
304.064.087.100 + 314.030.067.009
  7
SLDTEXTSTYLE0
 73
     1
 44
1.0
  0
MTEXT
  5
79
330
1F
100
AcDbEntity
  8
VERMASSUNG
100
AcDbMText
 10
13.9329988022
 20
28.8834360957
 30
0.0
 40
3.0
 41
0.0
 71
     1
 72
     1
  1
Feinbohrkopf_Fine boring head
  7
SLDTEXTSTYLE0
 73
     1
 44
1.0
  0
MTEXT
  5
7A
330
1F
100
AcDbEntity
  8
VERMASSUNG
100
AcDbMText
 10
98.8601118557
 20
13.8365368761
 30
0.0
 40
2.0
 41
0.0
 71
     1
 72
     1
  1
Datum: 30.06.2008
  7
SLDTEXTSTYLE0
 73
     1
 44
1.0
  0
MTEXT
  5
7B
330
1F
100
AcDbEntity
  8
VERMASSUNG
100
AcDbMText
 10
13.933048693
 20
18.0482802738
 30
0.0
 40
2.0
 41
0.0
 71
     1
 72
     1
  1
ST6+
  7
SLDTEXTSTYLE0
 73
     1
 44
1.0
  0
MTEXT
  5
7C
330
1F
100
AcDbEntity
  8
VERMASSUNG
100
AcDbMText
 10
13.9808475933
 20
13.9090974274
 30
0.0
 40
2.0
 41
0.0
 71
     1
 72
     1
  1
Gewicht: 3146g
  7
SLDTEXTSTYLE0
 73
     1
 44
1.0
  0
LINE
  5
7D
330
1F
100
AcDbEntity
  8
0
  6
Continuous
 62
     7
370
    25
100
AcDbLine
 10
177.8285225105
 20
129.1418943673
 30
0.0
 11
176.9266528467
 21
128.2400247035
 31
0.0
  0
LINE
  5
7E
330
1F
100
AcDbEntity
  8
0
  6
Continuous
 62
     7
370
    25
100
AcDbLine
 10
206.8577704196
 20
123.4699824266
 30
0.0
 11
206.8577704196
 21
124.5441131841
 31
0.0
  0
LINE
  5
7F
330
1F
100
AcDbEntity
  8
0
  6
Continuous
 62
     7
370
    25
100
AcDbLine
 10
176.9077704196
 20
66.2863469547
 30
0.0
 11
176.9077704196
 21
66.2711422764
 31
0.0
  0
LINE
  5
80
330
1F
100
AcDbEntity
  8
0
  6
Continuous
 62
     7
370
    25
100
AcDbLine
 10
206.8077704196
 20
66.2711422764
 30
0.0
 11
206.8077704196
 21
66.2863469547
 31
0.0
  0
LINE
  5
81
330
1F
100
AcDbEntity
  8
0
  6
Continuous
 62
     7
370
    25
100
AcDbLine
 10
176.9077704196
 20
66.2711422764
 30
0.0
 11
176.9261527314
 21
66.2655523336
 31
0.0
  0
LINE
  5
82
330
1F
100
AcDbEntity
  8
0
  6
Continuous
 62
     7
370
    25
100
AcDbLine
 10
179.9323190922
 20
65.3513964812
 30
0.0
 11
182.9670596827
 21
64.4285513894
 31
0.0
  0
LINE
  5
83
330
1F
100
AcDbEntity
  8
0
  6
Continuous
 62
     7
370
    25
100
AcDbLine
 10
184.4945974308
 20
63.9640369864
 30
0.0
 11
185.4577704196
 21
63.6711422764
 31
0.0
  0
LINE
  5
84
330
1F
100
AcDbEntity
  8
0
  6
Continuous
 62
     7
370
    25
100
AcDbLine
 10
198.2577704196
 20
63.6711422764
 30
0.0
 11
199.8058341557
 21
64.1418985002
 31
0.0
  0
LINE
  5
85
330
1F
100
AcDbEntity
  8
0
  6
Continuous
 62
     7
370
    25
100
AcDbLine
 10
200.1430227319
 20
64.2444353772
 30
0.0
 11
203.7738173526
 21
65.3485366654
 31
0.0
  0
LINE
  5
86
330
1F
100
AcDbEntity
  8
0
  6
Continuous
 62
     7
370
    25
100
AcDbLine
 10
206.7784024983
 20
66.2622116804
 30
0.0
 11
206.8077704196
 21
66.2711422764
 31
0.0
  0
LINE
  5
87
330
1F
100
AcDbEntity
  8
0
  6
Continuous
 62
     7
370
    25
100
AcDbLine
 10
185.5169371312
 20
63.8879309698
 30
0.0
 11
185.5169371312
 21
63.9019181347
 31
0.0
  0
LINE
  5
88
330
1F
100
AcDbEntity
  8
0
  6
Continuous
 62
     7
370
    25
100
AcDbLine
 10
184.7767549981
 20
63.9200583822
 30
0.0
 11
184.7767549981
 21
63.931857782
 31
0.0
  0
LINE
  5
89
330
1F
100
AcDbEntity
  8
0
  6
Continuous
 62
     7
370
    25
100
AcDbLine
 10
182.4874999439
 20
64.6224815154
 30
0.0
 11
182.4874999439
 21
64.6100830963
 31
0.0
  0
ARC
  5
8A
330
1F
100
AcDbEntity
  8
0
  6
Continuous
 62
     7
370
    25
100
AcDbCircle
 10
187.6449933109
 20
135.8539193851
 30
0.0
 40
4.000000000000016
100
AcDbArc
 50
108.7721625519
 51
124.7340358203
  0
ARC
  5
8B
330
1F
100
AcDbEntity
  8
0
  6
Continuous
 62
     7
370
    25
100
AcDbCircle
 10
196.0705475283
 20
135.8539193851
 30
0.0
 40
4.000000000000027
100
AcDbArc
 50
55.2659641797
 51
71.2278374481
  0
LINE
  5
8C
330
1F
100
AcDbEntity
  8
0
  6
Continuous
 62
     7
370
    25
100
AcDbLine
 10
113.6577704196
 20
123.6363469547
 30
0.0
 11
113.3577704196
 21
123.3363469547
 31
0.0
  0
LINE
  5
8D
330
1F
100
AcDbEntity
  8
0
  6
Continuous
 62
     7
370
    25
100
AcDbLine
 10
118.3577704196
 20
123.6363469547
 30
0.0
 11
113.6577704196
 21
123.6363469547
 31
0.0
  0
LINE
  5
8E
330
1F
100
AcDbEntity
  8
0
  6
Continuous
 62
     7
370
    25
100
AcDbLine
 10
113.3577704196
 20
116.5151856644
 30
0.0
 11
113.6577704196
 21
116.2151856644
 31
0.0
  0
LINE
  5
8F
330
1F
100
AcDbEntity
  8
0
  6
Continuous
 62
     7
370
    25
100
AcDbLine
 10
113.6577704196
 20
116.2151856644
 30
0.0
 11
118.3577704196
 21
116.2151856644
 31
0.0
  0
LINE
  5
90
330
1F
100
AcDbEntity
  8
0
  6
Continuous
 62
     7
370
    25
100
AcDbLine
 10
113.3577704196
 20
74.1363469547
 30
0.0
 11
113.6577704196
 21
73.8363469547
 31
0.0
  0
LINE
  5
91
330
1F
100
AcDbEntity
  8
0
  6
Continuous
 62
     7
370
    25
100
AcDbLine
 10
113.6577704196
 20
73.8363469547
 30
0.0
 11
118.3577704196
 21
73.8363469547
 31
0.0
  0
LINE
  5
92
330
1F
100
AcDbEntity
  8
0
  6
Continuous
 62
     7
370
    25
100
AcDbLine
 10
113.6577704196
 20
81.2575082451
 30
0.0
 11
113.3577704196
 21
80.9575082451
 31
0.0
  0
LINE
  5
93
330
1F
100
AcDbEntity
  8
0
  6
Continuous
 62
     7
370
    25
100
AcDbLine
 10
118.3577704196
 20
81.2575082451
 30
0.0
 11
113.6577704196
 21
81.2575082451
 31
0.0
  0
LINE
  5
94
330
1F
100
AcDbEntity
  8
0
  6
Continuous
 62
     7
370
    25
100
AcDbLine
 10
212.5434171014
 20
135.5482433066
 30
0.0
 11
212.5434171014
 21
135.5949326093
 31
0.0
  0
LINE
  5
95
330
1F
100
AcDbEntity
  8
0
  6
Continuous
 62
     7
370
    25
100
AcDbLine
 10
214.4773455304
 20
135.5978158673
 30
0.0
 11
214.4773455304
 21
135.5511378838
 31
0.0
  0
LINE
  5
96
330
1F
100
AcDbEntity
  8
0
  6
Continuous
 62
     7
370
    25
100
AcDbLine
 10
212.5417448978
 20
137.3406480462
 30
0.0
 11
212.5417448978
 21
137.3873351768
 31
0.0
  0
LINE
  5
97
330
1F
100
AcDbEntity
  8
0
  6
Continuous
 62
     7
370
    25
100
AcDbLine
 10
214.4756733268
 20
137.3902019523
 30
0.0
 11
214.4756733268
 21
137.3435426234
 31
0.0
  0
LINE
  5
98
330
1F
100
AcDbEntity
  8
0
  6
Continuous
 62
     7
370
    25
100
AcDbLine
 10
210.8867080304
 20
136.4863901688
 30
0.0
 11
210.8867080304
 21
136.4611033941
 31
0.0
  0
LINE
  5
99
330
1F
100
AcDbEntity
  8
0
  6
Continuous
 62
     7
370
    25
100
AcDbLine
 10
216.1367080304
 20
136.4611033941
 30
0.0
 11
216.1367080304
 21
136.4863901688
 31
0.0
  0
LINE
  5
9A
330
1F
100
AcDbEntity
  8
0
  6
Continuous
 62
     7
370
    25
100
AcDbLine
 10
176.4577704196
 20
134.6411422764
 30
0.0
 11
176.4577704196
 21
130.6411422764
 31
0.0
  0
LINE
  5
9B
330
1F
100
AcDbEntity
  8
0
  6
Continuous
 62
     7
370
    25
100
AcDbLine
 10
180.9577704196
 20
139.1411422764
 30
0.0
 11
176.4577704196
 21
134.6411422764
 31
0.0
  0
ARC
  5
9C
330
1F
100
AcDbEntity
  8
0
  6
Continuous
 62
     7
370
    25
100
AcDbCircle
 10
121.2445217656
 20
63.7363469547
 30
0.0
 40
1.000000000000008
100
AcDbArc
 50
210.0
 51
270.0
  0
ARC
  5
9D
330
1F
100
AcDbEntity
  8
0
  6
Continuous
 62
     7
370
    25
100
AcDbCircle
 10
121.2445217656
 20
133.7363469547
 30
0.0
 40
1.000000000000008
100
AcDbArc
 50
90.0
 51
150.0
  0
LINE
  5
9E
330
1F
100
AcDbEntity
  8
0
  6
Continuous
 62
     7
370
    25
100
AcDbLine
 10
121.2445217656
 20
62.7363469547
 30
0.0
 11
165.816634039
 21
62.7363469547
 31
0.0
  0
LINE
  5
9F
330
1F
100
AcDbEntity
  8
0
  6
Continuous
 62
     7
370
    25
100
AcDbLine
 10
165.5100778094
 20
134.7363469547
 30
0.0
 11
121.2445217656
 21
134.7363469547
 31
0.0
  0
LINE
  5
A0
330
1F
100
AcDbEntity
  8
0
  6
Continuous
 62
     7
370
    25
100
AcDbLine
 10
120.3784963618
 20
134.2363469547
 30
0.0
 11
118.3577704196
 21
130.7363469547
 31
0.0
  0
LINE
  5
A1
330
1F
100
AcDbEntity
  8
0
  6
Continuous
 62
     7
370
    25
100
AcDbLine
 10
118.3577704196
 20
66.7363469547
 30
0.0
 11
120.3784963618
 21
63.2363469547
 31
0.0
  0
LINE
  5
A2
330
1F
100
AcDbEntity
  8
0
  6
Continuous
 62
     7
370
    25
100
AcDbLine
 10
213.5206125293
 20
66.2863469547
 30
0.0
 11
214.3577704196
 21
67.7363469547
 31
0.0
  0
LINE
  5
A3
330
1F
100
AcDbEntity
  8
0
  6
Continuous
 62
     7
370
    25
100
AcDbLine
 10
83.1577704196
 20
116.7363469547
 30
0.0
 11
81.8123287677
 21
116.4714191128
 31
0.0
  0
LINE
  5
A4
330
1F
100
AcDbEntity
  8
0
  6
Continuous
 62
     7
370
    25
100
AcDbLine
 10
81.8123287677
 20
81.0012747967
 30
0.0
 11
83.1577704196
 21
80.7363469547
 31
0.0
  0
LINE
  5
A5
330
1F
100
AcDbEntity
  8
0
  6
Continuous
 62
     7
370
    25
100
AcDbLine
 10
83.1577704196
 20
80.7363469547
 30
0.0
 11
113.3577704196
 21
80.7363469547
 31
0.0
  0
LINE
  5
A6
330
1F
100
AcDbEntity
  8
0
  6
Continuous
 62
     7
370
    25
100
AcDbLine
 10
113.3577704196
 20
116.7363469547
 30
0.0
 11
83.1577704196
 21
116.7363469547
 31
0.0
  0
LINE
  5
A7
330
1F
100
AcDbEntity
  8
0
  6
Continuous
 62
     7
370
    25
100
AcDbLine
 10
80.606298557
 20
80.8363469547
 30
0.0
 11
80.692100174
 21
80.8363469547
 31
0.0
  0
LINE
  5
A8
330
1F
100
AcDbEntity
  8
0
  6
Continuous
 62
     7
370
    25
100
AcDbLine
 10
80.692100174
 20
116.6363469547
 30
0.0
 11
80.606298557
 21
116.6363469547
 31
0.0
  0
ARC
  5
A9
330
1F
100
AcDbEntity
  8
0
  6
Continuous
 62
     7
370
    25
100
AcDbCircle
 10
80.692100174
 20
81.4363469547
 30
0.0
 40
0.5999999999999943
100
AcDbArc
 50
270.0
 51
282.4923677447
  0
ARC
  5
AA
330
1F
100
AcDbEntity
  8
0
  6
Continuous
 62
     7
370
    25
100
AcDbCircle
 10
80.692100174
 20
116.0363469547
 30
0.0
 40
0.6000000000000085
100
AcDbArc
 50
77.5076322553
 51
90.0
  0
ARC
  5
AB
330
1F
100
AcDbEntity
  8
0
  6
Continuous
 62
     7
370
    25
100
AcDbCircle
 10
80.606298557
 20
81.4363469547
 30
0.0
 40
0.5999999999999943
100
AcDbArc
 50
225.0
 51
270.0
  0
ARC
  5
AC
330
1F
100
AcDbEntity
  8
0
  6
Continuous
 62
     7
370
    25
100
AcDbCircle
 10
80.606298557
 20
116.0363469547
 30
0.0
 40
0.6000000000000085
100
AcDbArc
 50
90.0
 51
135.0
  0
LINE
  5
AD
330
1F
100
AcDbEntity
  8
0
  6
Continuous
 62
     7
370
    25
100
AcDbLine
 10
80.821885911
 20
80.8505520568
 30
0.0
 11
81.4847227703
 21
80.9974068187
 31
0.0
  0
LINE
  5
AE
330
1F
100
AcDbEntity
  8
0
  6
Continuous
 62
     7
370
    25
100
AcDbLine
 10
81.4847227703
 20
116.4752870908
 30
0.0
 11
80.821885911
 21
116.6221418527
 31
0.0
  0
ARC
  5
AF
330
1F
100
AcDbEntity
  8
0
  6
Continuous
 62
     7
370
    25
100
AcDbCircle
 10
81.6577704196
 20
80.2163469547
 30
0.0
 40
0.8000000000000036
100
AcDbArc
 50
78.8605288287
 51
102.4923677447
  0
ARC
  5
B0
330
1F
100
AcDbEntity
  8
0
  6
Continuous
 62
     7
370
    25
100
AcDbCircle
 10
81.6577704196
 20
117.2563469547
 30
0.0
 40
0.7999999999999896
100
AcDbArc
 50
257.5076322553
 51
281.1394711713
  0
LINE
  5
B1
330
1F
100
AcDbEntity
  8
0
  6
Continuous
 62
     7
370
    25
100
AcDbLine
 10
80.1820344883
 20
116.4606110235
 30
0.0
 11
78.3577704196
 21
114.6363469547
 31
0.0
  0
LINE
  5
B2
330
1F
100
AcDbEntity
  8
0
  6
Continuous
 62
     7
370
    25
100
AcDbLine
 10
78.3577704196
 20
82.8363469547
 30
0.0
 11
80.1820344883
 21
81.012082886
 31
0.0
  0
LINE
  5
B3
330
1F
100
AcDbEntity
  8
0
  6
Continuous
 62
     7
370
    25
100
AcDbLine
 10
177.1758152974
 20
128.1711422764
 30
0.0
 11
183.9576099947
 21
128.1711422764
 31
0.0
  0
LINE
  5
B4
330
1F
100
AcDbEntity
  8
0
  6
Continuous
 62
     7
370
    25
100
AcDbLine
 10
181.4321093888
 20
128.5711422764
 30
0.0
 11
178.14062786
 21
128.5711422764
 31
0.0
  0
LINE
  5
B5
330
1F
100
AcDbEntity
  8
0
  6
Continuous
 62
     7
370
    25
100
AcDbLine
 10
178.6168227739
 20
129.0170398712
 30
0.0
 11
178.14062786
 21
128.5711422764
 31
0.0
  0
LINE
  5
B6
330
1F
100
AcDbEntity
  8
0
  6
Continuous
 62
     7
370
    25
100
AcDbLine
 10
206.7893881079
 20
66.2606901335
 30
0.0
 11
206.7893881079
 21
66.2655523336
 31
0.0
  0
LINE
  5
B7
330
1F
100
AcDbEntity
  8
0
  6
Continuous
 62
     7
370
    25
100
AcDbLine
 10
206.7784024983
 20
66.2711422764
 30
0.0
 11
206.8077704196
 21
66.2711422764
 31
0.0
  0
LINE
  5
B8
330
1F
100
AcDbEntity
  8
0
  6
Continuous
 62
     7
370
    25
100
AcDbLine
 10
206.7784024983
 20
66.2606901335
 30
0.0
 11
206.7784024983
 21
66.2711422764
 31
0.0
  0
LINE
  5
B9
330
1F
100
AcDbEntity
  8
0
  6
Continuous
 62
     7
370
    25
100
AcDbLine
 10
206.7784024983
 20
66.2606901335
 30
0.0
 11
206.7645377137
 21
66.2606901335
 31
0.0
  0
LINE
  5
BA
330
1F
100
AcDbEntity
  8
0
  6
Continuous
 62
     7
370
    25
100
AcDbLine
 10
206.7645377137
 20
66.2606901335
 30
0.0
 11
206.7645377137
 21
66.2711422764
 31
0.0
  0
LINE
  5
BB
330
1F
100
AcDbEntity
  8
0
  6
Continuous
 62
     7
370
    25
100
AcDbLine
 10
206.5433604925
 20
66.2711422764
 30
0.0
 11
206.7645377137
 21
66.2711422764
 31
0.0
  0
LINE
  5
BC
330
1F
100
AcDbEntity
  8
0
  6
Continuous
 62
     7
370
    25
100
AcDbLine
 10
206.5433604925
 20
66.2606901335
 30
0.0
 11
206.5433604925
 21
66.2711422764
 31
0.0
  0
LINE
  5
BD
330
1F
100
AcDbEntity
  8
0
  6
Continuous
 62
     7
370
    25
100
AcDbLine
 10
206.5433604925
 20
66.2606901335
 30
0.0
 11
206.5045986945
 21
66.2606901335
 31
0.0
  0
LINE
  5
BE
330
1F
100
AcDbEntity
  8
0
  6
Continuous
 62
     7
370
    25
100
AcDbLine
 10
206.5045986945
 20
66.2606901335
 30
0.0
 11
206.5045986945
 21
66.2711422764
 31
0.0
  0
LINE
  5
BF
330
1F
100
AcDbEntity
  8
0
  6
Continuous
 62
     7
370
    25
100
AcDbLine
 10
206.0767179586
 20
66.2711422764
 30
0.0
 11
206.5045986945
 21
66.2711422764
 31
0.0
  0
LINE
  5
C0
330
1F
100
AcDbEntity
  8
0
  6
Continuous
 62
     7
370
    25
100
AcDbLine
 10
206.0767179586
 20
66.2606901335
 30
0.0
 11
206.0767179586
 21
66.2711422764
 31
0.0
  0
LINE
  5
C1
330
1F
100
AcDbEntity
  8
0
  6
Continuous
 62
     7
370
    25
100
AcDbLine
 10
206.0767179586
 20
66.2606901335
 30
0.0
 11
206.0136704437
 21
66.2606901335
 31
0.0
  0
LINE
  5
C2
330
1F
100
AcDbEntity
  8
0
  6
Continuous
 62
     7
370
    25
100
AcDbLine
 10
206.0136704437
 20
66.2606901335
 30
0.0
 11
206.0136704437
 21
66.2711422764
 31
0.0
  0
LINE
  5
C3
330
1F
100
AcDbEntity
  8
0
  6
Continuous
 62
     7
370
    25
100
AcDbLine
 10
205.3858341279
 20
66.2711422764
 30
0.0
 11
206.0136704437
 21
66.2711422764
 31
0.0
  0
LINE
  5
C4
330
1F
100
AcDbEntity
  8
0
  6
Continuous
 62
     7
370
    25
100
AcDbLine
 10
205.3858341279
 20
66.2606901335
 30
0.0
 11
205.3858341279
 21
66.2711422764
 31
0.0
  0
LINE
  5
C5
330
1F
100
AcDbEntity
  8
0
  6
Continuous
 62
     7
370
    25
100
AcDbLine
 10
205.3858341279
 20
66.2606901335
 30
0.0
 11
205.2994951933
 21
66.2606901335
 31
0.0
  0
LINE
  5
C6
330
1F
100
AcDbEntity
  8
0
  6
Continuous
 62
     7
370
    25
100
AcDbLine
 10
205.2994951933
 20
66.2606901335
 30
0.0
 11
205.2994951933
 21
66.2711422764
 31
0.0
  0
LINE
  5
C7
330
1F
100
AcDbEntity
  8
0
  6
Continuous
 62
     7
370
    25
100
AcDbLine
 10
204.4816046513
 20
66.2711422764
 30
0.0
 11
205.2994951933
 21
66.2711422764
 31
0.0
  0
LINE
  5
C8
330
1F
100
AcDbEntity
  8
0
  6
Continuous
 62
     7
370
    25
100
AcDbLine
 10
204.4816046513
 20
66.2606901335
 30
0.0
 11
204.4816046513
 21
66.2711422764
 31
0.0
  0
LINE
  5
C9
330
1F
100
AcDbEntity
  8
0
  6
Continuous
 62
     7
370
    25
100
AcDbLine
 10
204.4816046513
 20
66.2606901335
 30
0.0
 11
204.3733359134
 21
66.2606901335
 31
0.0
  0
LINE
  5
CA
330
1F
100
AcDbEntity
  8
0
  6
Continuous
 62
     7
370
    25
100
AcDbLine
 10
204.3733359134
 20
66.2606901335
 30
0.0
 11
204.3733359134
 21
66.2711422764
 31
0.0
  0
LINE
  5
CB
330
1F
100
AcDbEntity
  8
0
  6
Continuous
 62
     7
370
    25
100
AcDbLine
 10
203.3782897678
 20
66.2711422764
 30
0.0
 11
204.3733359134
 21
66.2711422764
 31
0.0
  0
LINE
  5
CC
330
1F
100
AcDbEntity
  8
0
  6
Continuous
 62
     7
370
    25
100
AcDbLine
 10
203.3782897678
 20
66.2606901335
 30
0.0
 11
203.3782897678
 21
66.2711422764
 31
0.0
  0
LINE
  5
CD
330
1F
100
AcDbEntity
  8
0
  6
Continuous
 62
     7
370
    25
100
AcDbLine
 10
203.3782897678
 20
66.2606901335
 30
0.0
 11
203.2497986893
 21
66.2606901335
 31
0.0
  0
LINE
  5
CE
330
1F
100
AcDbEntity
  8
0
  6
Continuous
 62
     7
370
    25
100
AcDbLine
 10
203.2497986893
 20
66.2606901335
 30
0.0
 11
203.2497986893
 21
66.2711422764
 31
0.0
  0
LINE
  5
CF
330
1F
100
AcDbEntity
  8
0
  6
Continuous
 62
     7
370
    25
100
AcDbLine
 10
202.0932894121
 20
66.2711422764
 30
0.0
 11
203.2497986893
 21
66.2711422764
 31
0.0
  0
LINE
  5
D0
330
1F
100
AcDbEntity
  8
0
  6
Continuous
 62
     7
370
    25
100
AcDbLine
 10
202.0932894121
 20
66.2606901335
 30
0.0
 11
202.0932894121
 21
66.2711422764
 31
0.0
  0
LINE
  5
D1
330
1F
100
AcDbEntity
  8
0
  6
Continuous
 62
     7
370
    25
100
AcDbLine
 10
202.0932894121
 20
66.2606901335
 30
0.0
 11
201.9466023742
 21
66.2606901335
 31
0.0
  0
LINE
  5
D2
330
1F
100
AcDbEntity
  8
0
  6
Continuous
 62
     7
370
    25
100
AcDbLine
 10
201.9466023742
 20
66.2606901335
 30
0.0
 11
201.9466023742
 21
66.2711422764
 31
0.0
  0
LINE
  5
D3
330
1F
100
AcDbEntity
  8
0
  6
Continuous
 62
     7
370
    25
100
AcDbLine
 10
200.6468688075
 20
66.2711422764
 30
0.0
 11
201.9466023742
 21
66.2711422764
 31
0.0
  0
LINE
  5
D4
330
1F
100
AcDbEntity
  8
0
  6
Continuous
 62
     7
370
    25
100
AcDbLine
 10
200.6468688075
 20
66.2606901335
 30
0.0
 11
200.6468688075
 21
66.2711422764
 31
0.0
  0
LINE
  5
D5
330
1F
100
AcDbEntity
  8
0
  6
Continuous
 62
     7
370
    25
100
AcDbLine
 10
200.6468688075
 20
66.2606901335
 30
0.0
 11
200.4842991523
 21
66.2606901335
 31
0.0
  0
LINE
  5
D6
330
1F
100
AcDbEntity
  8
0
  6
Continuous
 62
     7
370
    25
100
AcDbLine
 10
200.4842991523
 20
66.2606901335
 30
0.0
 11
200.4842991523
 21
66.2711422764
 31
0.0
  0
LINE
  5
D7
330
1F
100
AcDbEntity
  8
0
  6
Continuous
 62
     7
370
    25
100
AcDbLine
 10
199.0618388709
 20
66.2711422764
 30
0.0
 11
200.4842991523
 21
66.2711422764
 31
0.0
  0
LINE
  5
D8
330
1F
100
AcDbEntity
  8
0
  6
Continuous
 62
     7
370
    25
100
AcDbLine
 10
199.0618388709
 20
66.2606901335
 30
0.0
 11
199.0618388709
 21
66.2711422764
 31
0.0
  0
LINE
  5
D9
330
1F
100
AcDbEntity
  8
0
  6
Continuous
 62
     7
370
    25
100
AcDbLine
 10
199.0618388709
 20
66.2606901335
 30
0.0
 11
198.8859504191
 21
66.2606901335
 31
0.0
  0
LINE
  5
DA
330
1F
100
AcDbEntity
  8
0
  6
Continuous
 62
     7
370
    25
100
AcDbLine
 10
198.8859504191
 20
66.2606901335
 30
0.0
 11
198.8859504191
 21
66.2711422764
 31
0.0
  0
LINE
  5
DB
330
1F
100
AcDbEntity
  8
0
  6
Continuous
 62
     7
370
    25
100
AcDbLine
 10
197.3631964714
 20
66.2711422764
 30
0.0
 11
198.8859504191
 21
66.2711422764
 31
0.0
  0
LINE
  5
DC
330
1F
100
AcDbEntity
  8
0
  6
Continuous
 62
     7
370
    25
100
AcDbLine
 10
197.3631964714
 20
66.2606901335
 30
0.0
 11
197.3631964714
 21
66.2711422764
 31
0.0
  0
LINE
  5
DD
330
1F
100
AcDbEntity
  8
0
  6
Continuous
 62
     7
370
    25
100
AcDbLine
 10
197.3631964714
 20
66.2606901335
 30
0.0
 11
197.1767630888
 21
66.2606901335
 31
0.0
  0
LINE
  5
DE
330
1F
100
AcDbEntity
  8
0
  6
Continuous
 62
     7
370
    25
100
AcDbLine
 10
197.1767630888
 20
66.2606901335
 30
0.0
 11
197.1767630888
 21
66.2711422764
 31
0.0
  0
LINE
  5
DF
330
1F
100
AcDbEntity
  8
0
  6
Continuous
 62
     7
370
    25
100
AcDbLine
 10
195.5777302143
 20
66.2711422764
 30
0.0
 11
197.1767630888
 21
66.2711422764
 31
0.0
  0
LINE
  5
E0
330
1F
100
AcDbEntity
  8
0
  6
Continuous
 62
     7
370
    25
100
AcDbLine
 10
195.5777302143
 20
66.2606901335
 30
0.0
 11
195.5777302143
 21
66.2711422764
 31
0.0
  0
LINE
  5
E1
330
1F
100
AcDbEntity
  8
0
  6
Continuous
 62
     7
370
    25
100
AcDbLine
 10
195.5777302143
 20
66.2606901335
 30
0.0
 11
195.3836920667
 21
66.2606901335
 31
0.0
  0
LINE
  5
E2
330
1F
100
AcDbEntity
  8
0
  6
Continuous
 62
     7
370
    25
100
AcDbLine
 10
195.3836920667
 20
66.2606901335
 30
0.0
 11
195.3836920667
 21
66.2711422764
 31
0.0
  0
LINE
  5
E3
330
1F
100
AcDbEntity
  8
0
  6
Continuous
 62
     7
370
    25
100
AcDbLine
 10
193.733597969
 20
66.2711422764
 30
0.0
 11
195.3836920667
 21
66.2711422764
 31
0.0
  0
LINE
  5
E4
330
1F
100
AcDbEntity
  8
0
  6
Continuous
 62
     7
370
    25
100
AcDbLine
 10
193.733597969
 20
66.2606901335
 30
0.0
 11
193.733597969
 21
66.2711422764
 31
0.0
  0
LINE
  5
E5
330
1F
100
AcDbEntity
  8
0
  6
Continuous
 62
     7
370
    25
100
AcDbLine
 10
193.733597969
 20
66.2606901335
 30
0.0
 11
193.535015154
 21
66.2606901335
 31
0.0
  0
LINE
  5
E6
330
1F
100
AcDbEntity
  8
0
  6
Continuous
 62
     7
370
    25
100
AcDbLine
 10
193.535015154
 20
66.2606901335
 30
0.0
 11
193.535015154
 21
66.2711422764
 31
0.0
  0
LINE
  5
E7
330
1F
100
AcDbEntity
  8
0
  6
Continuous
 62
     7
370
    25
100
AcDbLine
 10
191.8598828027
 20
66.2711422764
 30
0.0
 11
193.535015154
 21
66.2711422764
 31
0.0
  0
LINE
  5
E8
330
1F
100
AcDbEntity
  8
0
  6
Continuous
 62
     7
370
    25
100
AcDbLine
 10
191.8598828027
 20
66.2606901335
 30
0.0
 11
191.8598828027
 21
66.2711422764
 31
0.0
  0
LINE
  5
E9
330
1F
100
AcDbEntity
  8
0
  6
Continuous
 62
     7
370
    25
100
AcDbLine
 10
191.8598828027
 20
66.2606901335
 30
0.0
 11
191.6598870899
 21
66.2606901335
 31
0.0
  0
LINE
  5
EA
330
1F
100
AcDbEntity
  8
0
  6
Continuous
 62
     7
370
    25
100
AcDbLine
 10
191.6598870899
 20
66.2606901335
 30
0.0
 11
191.6598870899
 21
66.2711422764
 31
0.0
  0
LINE
  5
EB
330
1F
100
AcDbEntity
  8
0
  6
Continuous
 62
     7
370
    25
100
AcDbLine
 10
189.9861343228
 20
66.2711422764
 30
0.0
 11
191.6598870899
 21
66.2711422764
 31
0.0
  0
LINE
  5
EC
330
1F
100
AcDbEntity
  8
0
  6
Continuous
 62
     7
370
    25
100
AcDbLine
 10
189.9861343228
 20
66.2606901335
 30
0.0
 11
189.9861343228
 21
66.2711422764
 31
0.0
  0
LINE
  5
ED
330
1F
100
AcDbEntity
  8
0
  6
Continuous
 62
     7
370
    25
100
AcDbLine
 10
189.9861343228
 20
66.2606901335
 30
0.0
 11
189.7878797641
 21
66.2606901335
 31
0.0
  0
LINE
  5
EE
330
1F
100
AcDbEntity
  8
0
  6
Continuous
 62
     7
370
    25
100
AcDbLine
 10
189.7878797641
 20
66.2606901335
 30
0.0
 11
189.7878797641
 21
66.2711422764
 31
0.0
  0
LINE
  5
EF
330
1F
100
AcDbEntity
  8
0
  6
Continuous
 62
     7
370
    25
100
AcDbLine
 10
188.1419026623
 20
66.2711422764
 30
0.0
 11
189.7878797641
 21
66.2711422764
 31
0.0
  0
LINE
  5
F0
330
1F
100
AcDbEntity
  8
0
  6
Continuous
 62
     7
370
    25
100
AcDbLine
 10
188.1419026623
 20
66.2606901335
 30
0.0
 11
188.1419026623
 21
66.2711422764
 31
0.0
  0
LINE
  5
F1
330
1F
100
AcDbEntity
  8
0
  6
Continuous
 62
     7
370
    25
100
AcDbLine
 10
188.1419026623
 20
66.2606901335
 30
0.0
 11
187.9485158504
 21
66.2606901335
 31
0.0
  0
LINE
  5
F2
330
1F
100
AcDbEntity
  8
0
  6
Continuous
 62
     7
370
    25
100
AcDbLine
 10
187.9485158504
 20
66.2606901335
 30
0.0
 11
187.9485158504
 21
66.2711422764
 31
0.0
  0
LINE
  5
F3
330
1F
100
AcDbEntity
  8
0
  6
Continuous
 62
     7
370
    25
100
AcDbLine
 10
186.356272456
 20
66.2711422764
 30
0.0
 11
187.9485158504
 21
66.2711422764
 31
0.0
  0
LINE
  5
F4
330
1F
100
AcDbEntity
  8
0
  6
Continuous
 62
     7
370
    25
100
AcDbLine
 10
186.356272456
 20
66.2606901335
 30
0.0
 11
186.356272456
 21
66.2711422764
 31
0.0
  0
LINE
  5
F5
330
1F
100
AcDbEntity
  8
0
  6
Continuous
 62
     7
370
    25
100
AcDbLine
 10
186.356272456
 20
66.2606901335
 30
0.0
 11
186.1708032166
 21
66.2606901335
 31
0.0
  0
LINE
  5
F6
330
1F
100
AcDbEntity
  8
0
  6
Continuous
 62
     7
370
    25
100
AcDbLine
 10
186.1708032166
 20
66.2606901335
 30
0.0
 11
186.1708032166
 21
66.2711422764
 31
0.0
  0
LINE
  5
F7
330
1F
100
AcDbEntity
  8
0
  6
Continuous
 62
     7
370
    25
100
AcDbLine
 10
184.6574041591
 20
66.2711422764
 30
0.0
 11
186.1708032166
 21
66.2711422764
 31
0.0
  0
LINE
  5
F8
330
1F
100
AcDbEntity
  8
0
  6
Continuous
 62
     7
370
    25
100
AcDbLine
 10
184.6574041591
 20
66.2606901335
 30
0.0
 11
184.6574041591
 21
66.2711422764
 31
0.0
  0
LINE
  5
F9
330
1F
100
AcDbEntity
  8
0
  6
Continuous
 62
     7
370
    25
100
AcDbLine
 10
184.6574041591
 20
66.2606901335
 30
0.0
 11
184.4827774528
 21
66.2606901335
 31
0.0
  0
LINE
  5
FA
330
1F
100
AcDbEntity
  8
0
  6
Continuous
 62
     7
370
    25
100
AcDbLine
 10
184.4827774528
 20
66.2606901335
 30
0.0
 11
184.4827774528
 21
66.2711422764
 31
0.0
  0
LINE
  5
FB
330
1F
100
AcDbEntity
  8
0
  6
Continuous
 62
     7
370
    25
100
AcDbLine
 10
183.0720899394
 20
66.2711422764
 30
0.0
 11
184.4827774528
 21
66.2711422764
 31
0.0
  0
LINE
  5
FC
330
1F
100
AcDbEntity
  8
0
  6
Continuous
 62
     7
370
    25
100
AcDbLine
 10
183.0720899394
 20
66.2606901335
 30
0.0
 11
183.0720899394
 21
66.2711422764
 31
0.0
  0
LINE
  5
FD
330
1F
100
AcDbEntity
  8
0
  6
Continuous
 62
     7
370
    25
100
AcDbLine
 10
183.0720899394
 20
66.2606901335
 30
0.0
 11
182.9110597337
 21
66.2606901335
 31
0.0
  0
LINE
  5
FE
330
1F
100
AcDbEntity
  8
0
  6
Continuous
 62
     7
370
    25
100
AcDbLine
 10
182.9110597337
 20
66.2606901335
 30
0.0
 11
182.9110597337
 21
66.2711422764
 31
0.0
  0
LINE
  5
FF
330
1F
100
AcDbEntity
  8
0
  6
Continuous
 62
     7
370
    25
100
AcDbLine
 10
181.6253311491
 20
66.2711422764
 30
0.0
 11
182.9110597337
 21
66.2711422764
 31
0.0
  0
LINE
  5
100
330
1F
100
AcDbEntity
  8
0
  6
Continuous
 62
     7
370
    25
100
AcDbLine
 10
181.6253311491
 20
66.2606901335
 30
0.0
 11
181.6253311491
 21
66.2711422764
 31
0.0
  0
LINE
  5
101
330
1F
100
AcDbEntity
  8
0
  6
Continuous
 62
     7
370
    25
100
AcDbLine
 10
181.6253311491
 20
66.2606901335
 30
0.0
 11
181.4804369866
 21
66.2606901335
 31
0.0
  0
LINE
  5
102
330
1F
100
AcDbEntity
  8
0
  6
Continuous
 62
     7
370
    25
100
AcDbLine
 10
181.4804369866
 20
66.2606901335
 30
0.0
 11
181.4804369866
 21
66.2711422764
 31
0.0
  0
LINE
  5
103
330
1F
100
AcDbEntity
  8
0
  6
Continuous
 62
     7
370
    25
100
AcDbLine
 10
180.3399440387
 20
66.2711422764
 30
0.0
 11
181.4804369866
 21
66.2711422764
 31
0.0
  0
LINE
  5
104
330
1F
100
AcDbEntity
  8
0
  6
Continuous
 62
     7
370
    25
100
AcDbLine
 10
180.3399440387
 20
66.2606901335
 30
0.0
 11
180.3399440387
 21
66.2711422764
 31
0.0
  0
LINE
  5
105
330
1F
100
AcDbEntity
  8
0
  6
Continuous
 62
     7
370
    25
100
AcDbLine
 10
180.3399440387
 20
66.2606901335
 30
0.0
 11
180.2134709868
 21
66.2606901335
 31
0.0
  0
LINE
  5
106
330
1F
100
AcDbEntity
  8
0
  6
Continuous
 62
     7
370
    25
100
AcDbLine
 10
180.2134709868
 20
66.2606901335
 30
0.0
 11
180.2134709868
 21
66.2711422764
 31
0.0
  0
LINE
  5
107
330
1F
100
AcDbEntity
  8
0
  6
Continuous
 62
     7
370
    25
100
AcDbLine
 10
179.2361999308
 20
66.2711422764
 30
0.0
 11
180.2134709868
 21
66.2711422764
 31
0.0
  0
LINE
  5
108
330
1F
100
AcDbEntity
  8
0
  6
Continuous
 62
     7
370
    25
100
AcDbLine
 10
179.2361999308
 20
66.2606901335
 30
0.0
 11
179.2361999308
 21
66.2711422764
 31
0.0
  0
LINE
  5
109
330
1F
100
AcDbEntity
  8
0
  6
Continuous
 62
     7
370
    25
100
AcDbLine
 10
179.2361999308
 20
66.2606901335
 30
0.0
 11
179.1301425451
 21
66.2606901335
 31
0.0
  0
LINE
  5
10A
330
1F
100
AcDbEntity
  8
0
  6
Continuous
 62
     7
370
    25
100
AcDbLine
 10
179.1301425451
 20
66.2606901335
 30
0.0
 11
179.1301425451
 21
66.2711422764
 31
0.0
  0
LINE
  5
10B
330
1F
100
AcDbEntity
  8
0
  6
Continuous
 62
     7
370
    25
100
AcDbLine
 10
178.3315055292
 20
66.2711422764
 30
0.0
 11
179.1301425451
 21
66.2711422764
 31
0.0
  0
LINE
  5
10C
330
1F
100
AcDbEntity
  8
0
  6
Continuous
 62
     7
370
    25
100
AcDbLine
 10
178.3315055292
 20
66.2606901335
 30
0.0
 11
178.3315055292
 21
66.2711422764
 31
0.0
  0
LINE
  5
10D
330
1F
100
AcDbEntity
  8
0
  6
Continuous
 62
     7
370
    25
100
AcDbLine
 10
178.3315055292
 20
66.2606901335
 30
0.0
 11
178.2475363981
 21
66.2606901335
 31
0.0
  0
LINE
  5
10E
330
1F
100
AcDbEntity
  8
0
  6
Continuous
 62
     7
370
    25
100
AcDbLine
 10
178.2475363981
 20
66.2606901335
 30
0.0
 11
178.2475363981
 21
66.2711422764
 31
0.0
  0
LINE
  5
10F
330
1F
100
AcDbEntity
  8
0
  6
Continuous
 62
     7
370
    25
100
AcDbLine
 10
177.6401284052
 20
66.2711422764
 30
0.0
 11
178.2475363981
 21
66.2711422764
 31
0.0
  0
LINE
  5
110
330
1F
100
AcDbEntity
  8
0
  6
Continuous
 62
     7
370
    25
100
AcDbLine
 10
177.6401284052
 20
66.2606901335
 30
0.0
 11
177.6401284052
 21
66.2711422764
 31
0.0
  0
LINE
  5
111
330
1F
100
AcDbEntity
  8
0
  6
Continuous
 62
     7
370
    25
100
AcDbLine
 10
177.6401284052
 20
66.2606901335
 30
0.0
 11
177.579571772
 21
66.2606901335
 31
0.0
  0
LINE
  5
112
330
1F
100
AcDbEntity
  8
0
  6
Continuous
 62
     7
370
    25
100
AcDbLine
 10
177.579571772
 20
66.2606901335
 30
0.0
 11
177.579571772
 21
66.2711422764
 31
0.0
  0
LINE
  5
113
330
1F
100
AcDbEntity
  8
0
  6
Continuous
 62
     7
370
    25
100
AcDbLine
 10
177.1729719889
 20
66.2711422764
 30
0.0
 11
177.579571772
 21
66.2711422764
 31
0.0
  0
LINE
  5
114
330
1F
100
AcDbEntity
  8
0
  6
Continuous
 62
     7
370
    25
100
AcDbLine
 10
177.1729719889
 20
66.2606901335
 30
0.0
 11
177.1729719889
 21
66.2711422764
 31
0.0
  0
LINE
  5
115
330
1F
100
AcDbEntity
  8
0
  6
Continuous
 62
     7
370
    25
100
AcDbLine
 10
177.1729719889
 20
66.2606901335
 30
0.0
 11
177.1367828679
 21
66.2606901335
 31
0.0
  0
LINE
  5
116
330
1F
100
AcDbEntity
  8
0
  6
Continuous
 62
     7
370
    25
100
AcDbLine
 10
177.1367828679
 20
66.2606901335
 30
0.0
 11
177.1367828679
 21
66.2711422764
 31
0.0
  0
LINE
  5
117
330
1F
100
AcDbEntity
  8
0
  6
Continuous
 62
     7
370
    25
100
AcDbLine
 10
176.9374036162
 20
66.2711422764
 30
0.0
 11
177.1367828679
 21
66.2711422764
 31
0.0
  0
LINE
  5
118
330
1F
100
AcDbEntity
  8
0
  6
Continuous
 62
     7
370
    25
100
AcDbLine
 10
176.9374036162
 20
66.2606901335
 30
0.0
 11
176.9374036162
 21
66.2711422764
 31
0.0
  0
LINE
  5
119
330
1F
100
AcDbEntity
  8
0
  6
Continuous
 62
     7
370
    25
100
AcDbLine
 10
176.9374036162
 20
66.2606901335
 30
0.0
 11
176.9261527314
 21
66.2606901335
 31
0.0
  0
LINE
  5
11A
330
1F
100
AcDbEntity
  8
0
  6
Continuous
 62
     7
370
    25
100
AcDbLine
 10
176.9261527314
 20
66.2606901335
 30
0.0
 11
176.9261527314
 21
66.2711422764
 31
0.0
  0
LINE
  5
11B
330
1F
100
AcDbEntity
  8
0
  6
Continuous
 62
     7
370
    25
100
AcDbLine
 10
176.9077704196
 20
66.2711422764
 30
0.0
 11
176.9261527314
 21
66.2711422764
 31
0.0
  0
LINE
  5
11C
330
1F
100
AcDbEntity
  8
0
  6
Continuous
 62
     7
370
    25
100
AcDbLine
 10
185.4577704196
 20
63.6711422764
 30
0.0
 11
198.2577704196
 21
63.6711422764
 31
0.0
  0
LINE
  5
11D
330
1F
100
AcDbEntity
  8
0
  6
Continuous
 62
     7
370
    25
100
AcDbLine
 10
176.9374036162
 20
66.2711422764
 30
0.0
 11
179.9323190922
 21
65.3589888082
 31
0.0
  0
LINE
  5
11E
330
1F
100
AcDbEntity
  8
0
  6
Continuous
 62
     7
370
    25
100
AcDbLine
 10
177.1729719889
 20
66.2711422764
 30
0.0
 11
180.1231223733
 21
65.3589888082
 31
0.0
  0
LWPOLYLINE
  5
11F
330
1F
100
AcDbEntity
  8
0
  6
Continuous
 62
     7
370
    25
100
AcDbPolyline
 90
        3
 70
   128
 43
0.0
 10
177.6401284052
 20
66.2711422764
 10
178.3883786745
 20
66.0324030076
 10
182.405107005
 20
64.7508272471
  0
LINE
  5
120
330
1F
100
AcDbEntity
  8
0
  6
Continuous
 62
     7
370
    25
100
AcDbLine
 10
178.3315055292
 20
66.2711422764
 30
0.0
 11
181.053988538
 21
65.3589888082
 31
0.0
  0
LINE
  5
121
330
1F
100
AcDbEntity
  8
0
  6
Continuous
 62
     7
370
    25
100
AcDbLine
 10
179.2361999308
 20
66.2711422764
 30
0.0
 11
181.779371106
 21
65.3589888082
 31
0.0
  0
LINE
  5
122
330
1F
100
AcDbEntity
  8
0
  6
Continuous
 62
     7
370
    25
100
AcDbLine
 10
180.3399440387
 20
66.2711422764
 30
0.0
 11
182.6636960518
 21
65.3589888082
 31
0.0
  0
LINE
  5
123
330
1F
100
AcDbEntity
  8
0
  6
Continuous
 62
     7
370
    25
100
AcDbLine
 10
181.6253311491
 20
66.2711422764
 30
0.0
 11
183.6930170426
 21
65.3589888082
 31
0.0
  0
LWPOLYLINE
  5
124
330
1F
100
AcDbEntity
  8
0
  6
Continuous
 62
     7
370
    25
100
AcDbPolyline
 90
        3
 70
   128
 43
0.0
 10
183.0720899394
 20
66.2711422764
 10
183.5377111022
 20
66.0324030076
 10
186.0372407286
 20
64.7508272471
  0
LINE
  5
125
330
1F
100
AcDbEntity
  8
0
  6
Continuous
 62
     7
370
    25
100
AcDbLine
 10
184.6574041591
 20
66.2711422764
 30
0.0
 11
186.1196844618
 21
65.3589888082
 31
0.0
  0
LINE
  5
126
330
1F
100
AcDbEntity
  8
0
  6
Continuous
 62
     7
370
    25
100
AcDbLine
 10
186.356272456
 20
66.2711422764
 30
0.0
 11
187.4787608952
 21
65.3589888082
 31
0.0
  0
LINE
  5
127
330
1F
100
AcDbEntity
  8
0
  6
Continuous
 62
     7
370
    25
100
AcDbLine
 10
188.1419026623
 20
66.2711422764
 30
0.0
 11
188.9068969248
 21
65.3589888082
 31
0.0
  0
LINE
  5
128
330
1F
100
AcDbEntity
  8
0
  6
Continuous
 62
     7
370
    25
100
AcDbLine
 10
189.9861343228
 20
66.2711422764
 30
0.0
 11
190.3815699922
 21
65.3589888082
 31
0.0
  0
LWPOLYLINE
  5
129
330
1F
100
AcDbEntity
  8
0
  6
Continuous
 62
     7
370
    25
100
AcDbPolyline
 90
        3
 70
   128
 43
0.0
 10
191.8598828027
 20
66.2711422764
 10
191.8650234007
 20
66.0324030076
 10
191.8926189617
 20
64.7508272471
  0
LINE
  5
12A
330
1F
100
AcDbEntity
  8
0
  6
Continuous
 62
     7
370
    25
100
AcDbLine
 10
193.1785513761
 20
65.3589888082
 30
0.0
 11
193.535015154
 21
66.2711422764
 31
0.0
  0
LINE
  5
12B
330
1F
100
AcDbEntity
  8
0
  6
Continuous
 62
     7
370
    25
100
AcDbLine
 10
194.6567453382
 20
65.3589888082
 30
0.0
 11
195.3836920667
 21
66.2711422764
 31
0.0
  0
LINE
  5
12C
330
1F
100
AcDbEntity
  8
0
  6
Continuous
 62
     7
370
    25
100
AcDbLine
 10
196.0907977938
 20
65.3589888082
 30
0.0
 11
197.1767630888
 21
66.2711422764
 31
0.0
  0
LINE
  5
12D
330
1F
100
AcDbEntity
  8
0
  6
Continuous
 62
     7
370
    25
100
AcDbLine
 10
197.458092879
 20
65.3589888082
 30
0.0
 11
198.8859504191
 21
66.2711422764
 31
0.0
  0
LWPOLYLINE
  5
12E
330
1F
100
AcDbEntity
  8
0
  6
Continuous
 62
     7
370
    25
100
AcDbPolyline
 90
        3
 70
   128
 43
0.0
 10
197.572116581
 20
64.7508272471
 10
200.0269956518
 20
66.0324030076
 10
200.4842991523
 20
66.2711422764
  0
LINE
  5
12F
330
1F
100
AcDbEntity
  8
0
  6
Continuous
 62
     7
370
    25
100
AcDbLine
 10
199.9075515631
 20
65.3589888082
 30
0.0
 11
201.9466023742
 21
66.2711422764
 31
0.0
  0
LINE
  5
130
330
1F
100
AcDbEntity
  8
0
  6
Continuous
 62
     7
370
    25
100
AcDbLine
 10
200.9510857353
 20
65.3589888082
 30
0.0
 11
203.2497986893
 21
66.2711422764
 31
0.0
  0
LINE
  5
131
330
1F
100
AcDbEntity
  8
0
  6
Continuous
 62
     7
370
    25
100
AcDbLine
 10
201.8512128929
 20
65.3589888082
 30
0.0
 11
204.3733359134
 21
66.2711422764
 31
0.0
  0
LINE
  5
132
330
1F
100
AcDbEntity
  8
0
  6
Continuous
 62
     7
370
    25
100
AcDbLine
 10
202.5937374929
 20
65.3589888082
 30
0.0
 11
205.2994951933
 21
66.2711422764
 31
0.0
  0
LWPOLYLINE
  5
133
330
1F
100
AcDbEntity
  8
0
  6
Continuous
 62
     7
370
    25
100
AcDbPolyline
 90
        3
 70
   128
 43
0.0
 10
201.2689239028
 20
64.7508272471
 10
205.2685972387
 20
66.0324030076
 10
206.0136704437
 20
66.2711422764
  0
LINE
  5
134
330
1F
100
AcDbEntity
  8
0
  6
Continuous
 62
     7
370
    25
100
AcDbLine
 10
203.5618089552
 20
65.3589888082
 30
0.0
 11
206.5045986945
 21
66.2711422764
 31
0.0
  0
LINE
  5
135
330
1F
100
AcDbEntity
  8
0
  6
Continuous
 62
     7
370
    25
100
AcDbLine
 10
203.7720887522
 20
65.3589888082
 30
0.0
 11
206.7645377137
 21
66.2711422764
 31
0.0
  0
LINE
  5
136
330
1F
100
AcDbEntity
  8
0
  6
Continuous
 62
     7
370
    25
100
AcDbLine
 10
200.895504963
 20
64.5367660045
 30
0.0
 11
200.7463265282
 21
64.524891024
 31
0.0
  0
SPLINE
  5
137
330
1F
100
AcDbEntity
  8
0
  6
Continuous
 62
     7
370
    25
100
AcDbSpline
210
0.0
220
0.0
230
1.0
 70
     8
 71
     3
 72
    10
 73
     6
 74
     0
 42
0.000000001
 43
0.00000001
 40
0.0
 40
0.0
 40
0.0
 40
0.0
 40
0.4925312759104353
 40
0.7448772101140744
 40
1.0
 40
1.0
 40
1.0
 40
1.0
 10
200.7463265281566
 20
64.52489102397
 30
0.0
 10
200.6088506495082
 20
64.47465208051894
 30
0.0
 10
200.4009396924705
 20
64.39867346582542
 30
0.0
 10
200.1569797431297
 20
64.30626323080455
 30
0.0
 10
200.0559535157871
 20
64.26627023921407
 30
0.0
 10
200.0051639956694
 20
64.24616432311304
 30
0.0
  0
LINE
  5
138
330
1F
100
AcDbEntity
  8
0
  6
Continuous
 62
     7
370
    25
100
AcDbLine
 10
200.0051639957
 20
64.2461643231
 30
0.0
 11
199.0248494341
 21
64.2964967338
 31
0.0
  0
LINE
  5
139
330
1F
100
AcDbEntity
  8
0
  6
Continuous
 62
     7
370
    25
100
AcDbLine
 10
199.0248494341
 20
64.2964967338
 30
0.0
 11
198.5619651607
 21
64.1526187943
 31
0.0
  0
LINE
  5
13A
330
1F
100
AcDbEntity
  8
0
  6
Continuous
 62
     7
370
    25
100
AcDbLine
 10
190.277846599
 20
63.9104388361
 30
0.0
 11
190.2655614199
 21
64.488613895
 31
0.0
  0
SPLINE
  5
13B
330
1F
100
AcDbEntity
  8
0
  6
Continuous
 62
     7
370
    25
100
AcDbSpline
210
0.0
220
0.0
230
1.0
 70
     8
 71
     3
 72
    12
 73
     8
 74
     0
 42
0.000000001
 43
0.00000001
 40
0.0
 40
0.0
 40
0.0
 40
0.0
 40
0.2808116079531751
 40
0.4712335317383938
 40
0.6626183215570969
 40
0.8411771594512106
 40
1.0
 40
1.0
 40
1.0
 40
1.0
 10
193.7680160292223
 20
64.30609733323075
 30
0.0
 10
193.755068005705
 20
64.35758598562427
 30
0.0
 10
193.7333397627184
 20
64.4439897482347
 30
0.0
 10
193.5328764085986
 20
64.54509371753386
 30
0.0
 10
193.2607243759626
 20
64.60524678068383
 30
0.0
 10
192.9381502882578
 20
64.63267505440548
 30
0.0
 10
192.7200897402397
 20
64.63531040548554
 30
0.0
 10
192.6174374687598
 20
64.63655100025143
 30
0.0
  0
LINE
  5
13C
330
1F
100
AcDbEntity
  8
0
  6
Continuous
 62
     7
370
    25
100
AcDbLine
 10
192.6174374688
 20
64.6365510003
 30
0.0
 11
192.5705045459
 21
64.4843579138
 31
0.0
  0
SPLINE
  5
13D
330
1F
100
AcDbEntity
  8
0
  6
Continuous
 62
     7
370
    25
100
AcDbSpline
210
0.0
220
0.0
230
1.0
 70
     8
 71
     3
 72
    12
 73
     8
 74
     0
 42
0.000000001
 43
0.00000001
 40
0.0
 40
0.0
 40
0.0
 40
0.0
 40
0.2910311327882625
 40
0.5057414519184128
 40
0.7207557263826803
 40
0.9292889668851395
 40
1.0
 40
1.0
 40
1.0
 40
1.0
 10
193.3669493177119
 20
64.28383940285468
 30
0.0
 10
193.3586611794558
 20
64.25084422910918
 30
0.0
 10
193.3442584073701
 20
64.19350662774511
 30
0.0
 10
193.1985345455475
 20
64.11576694876797
 30
0.0
 10
193.0086503339867
 20
64.06005286316571
 30
0.0
 10
192.8220756627201
 20
64.03499064174027
 30
0.0
 10
192.7144716138686
 20
64.02988298150883
 30
0.0
 10
192.6872238090594
 20
64.02858960518607
 30
0.0
  0
SPLINE
  5
13E
330
1F
100
AcDbEntity
  8
0
  6
Continuous
 62
     7
370
    25
100
AcDbSpline
210
0.0
220
0.0
230
1.0
 70
     8
 71
     3
 72
    11
 73
     7
 74
     0
 42
0.000000001
 43
0.00000001
 40
0.0
 40
0.0
 40
0.0
 40
0.0
 40
0.1612415584191118
 40
0.3770619507320413
 40
0.6863922113119104
 40
0.9999999999999999
 40
0.9999999999999999
 40
0.9999999999999999
 40
0.9999999999999999
 10
192.6872238090594
 20
64.02858960518607
 30
0.0
 10
192.5862160944408
 20
64.02973118343247
 30
0.0
 10
192.3500104518849
 20
64.03240075401169
 30
0.0
 10
191.9901964126064
 20
64.10321749295986
 30
0.0
 10
191.6294032200153
 20
64.21330937038613
 30
0.0
 10
191.3849927838193
 20
64.30542353227393
 30
0.0
 10
191.2619484192668
 20
64.3517968733316
 30
0.0
  0
SPLINE
  5
13F
330
1F
100
AcDbEntity
  8
0
  6
Continuous
 62
     7
370
    25
100
AcDbSpline
210
0.0
220
0.0
230
1.0
 70
     8
 71
     3
 72
    10
 73
     6
 74
     0
 42
0.000000001
 43
0.00000001
 40
0.0
 40
0.0
 40
0.0
 40
0.0
 40
0.4883609778106724
 40
0.73972902951697
 40
1.0
 40
1.0
 40
1.0
 40
1.0
 10
191.2619484192668
 20
64.3517968733316
 30
0.0
 10
191.1044731750012
 20
64.4110301946912
 30
0.0
 10
190.8659426311897
 20
64.50075195649293
 30
0.0
 10
190.4851614043774
 20
64.61332013219594
 30
0.0
 10
190.2514564749375
 20
64.65752394039777
 30
0.0
 10
190.1325706860238
 20
64.6800104349003
 30
0.0
  0
SPLINE
  5
140
330
1F
100
AcDbEntity
  8
0
  6
Continuous
 62
     7
370
    25
100
AcDbSpline
210
0.0
220
0.0
230
1.0
 70
     8
 71
     3
 72
    10
 73
     6
 74
     0
 42
0.000000001
 43
0.00000001
 40
0.0
 40
0.0
 40
0.0
 40
0.0
 40
0.4904246181683285
 40
0.7437455899569195
 40
1.0
 40
1.0
 40
1.0
 40
1.0
 10
190.1325706860238
 20
64.6800104349003
 30
0.0
 10
190.0791096535178
 20
64.68810250188078
 30
0.0
 10
189.9980341820022
 20
64.70037439629108
 30
0.0
 10
189.8833310007569
 20
64.71076058964789
 30
0.0
 10
189.8246923149409
 20
64.7142483667516
 30
0.0
 10
189.7952041913478
 20
64.71600229422914
 30
0.0
  0
LINE
  5
141
330
1F
100
AcDbEntity
  8
0
  6
Continuous
 62
     7
370
    25
100
AcDbLine
 10
184.9698077286
 20
64.0186990318
 30
0.0
 11
185.0092182346
 21
64.0415315245
 31
0.0
  0
SPLINE
  5
142
330
1F
100
AcDbEntity
  8
0
  6
Continuous
 62
     7
370
    25
100
AcDbSpline
210
0.0
220
0.0
230
1.0
 70
     8
 71
     3
 72
    12
 73
     8
 74
     0
 42
0.000000001
 43
0.00000001
 40
0.0
 40
0.0
 40
0.0
 40
0.0
 40
0.2841659208337605
 40
0.4915370135269151
 40
0.6988408064273012
 40
0.8928946527513703
 40
0.9999999999999999
 40
0.9999999999999999
 40
0.9999999999999999
 40
0.9999999999999999
 10
184.0004151784091
 20
64.23956633634862
 30
0.0
 10
184.1122249385994
 20
64.20494290077478
 30
0.0
 10
184.3056282694629
 20
64.14505288979083
 30
0.0
 10
184.5820544075121
 20
64.07370830185533
 30
0.0
 10
184.7891031976634
 20
64.0298474141554
 30
0.0
 10
184.9121707599668
 20
64.01527185832067
 30
0.0
 10
184.9546870729758
 20
64.01779993680215
 30
0.0
 10
184.9698077286482
 20
64.0186990317971
 30
0.0
  0
SPLINE
  5
143
330
1F
100
AcDbEntity
  8
0
  6
Continuous
 62
     7
370
    25
100
AcDbSpline
210
0.0
220
0.0
230
1.0
 70
     8
 71
     3
 72
    10
 73
     6
 74
     0
 42
0.000000001
 43
0.00000001
 40
0.0
 40
0.0
 40
0.0
 40
0.0
 40
0.4975544842004492
 40
0.7480487417091594
 40
1.0
 40
1.0
 40
1.0
 40
1.0
 10
183.6908369999289
 20
64.3436691317587
 30
0.0
 10
183.74025495059
 20
64.32657910148524
 30
0.0
 10
183.8145524134485
 20
64.30088507993018
 30
0.0
 10
183.9183294805678
 20
64.2660519870102
 30
0.0
 10
183.9730004338488
 20
64.24841193754952
 30
0.0
 10
184.0004151784091
 20
64.23956633634862
 30
0.0
  0
LINE
  5
144
330
1F
100
AcDbEntity
  8
0
  6
Continuous
 62
     7
370
    25
100
AcDbLine
 10
183.613156436
 20
64.3286207404
 30
0.0
 11
183.6908369999
 21
64.3436691318
 31
0.0
  0
LINE
  5
145
330
1F
100
AcDbEntity
  8
0
  6
Continuous
 62
     7
370
    25
100
AcDbLine
 10
184.2574112376
 20
64.0761046988
 30
0.0
 11
184.2878765944
 21
64.0800383475
 31
0.0
  0
SPLINE
  5
146
330
1F
100
AcDbEntity
  8
0
  6
Continuous
 62
     7
370
    25
100
AcDbSpline
210
0.0
220
0.0
230
1.0
 70
     8
 71
     3
 72
    12
 73
     8
 74
     0
 42
0.000000001
 43
0.00000001
 40
0.0
 40
0.0
 40
0.0
 40
0.0
 40
0.2830217253683237
 40
0.5008157800087134
 40
0.7189599488588289
 40
0.9257839458424518
 40
1.0
 40
1.0
 40
1.0
 40
1.0
 10
183.4551102968545
 20
64.29912162181128
 30
0.0
 10
183.5466948282549
 20
64.27071851504179
 30
0.0
 10
183.7087565161706
 20
64.22045833076467
 30
0.0
 10
183.9427598102867
 20
64.15224902914125
 30
0.0
 10
184.1224477800151
 20
64.1032565372407
 30
0.0
 10
184.2173532932463
 20
64.08180541756029
 30
0.0
 10
184.2490427886597
 20
64.07729562793496
 30
0.0
 10
184.2574112375632
 20
64.0761046987784
 30
0.0
  0
SPLINE
  5
147
330
1F
100
AcDbEntity
  8
0
  6
Continuous
 62
     7
370
    25
100
AcDbSpline
210
0.0
220
0.0
230
1.0
 70
     8
 71
     3
 72
    12
 73
     8
 74
     0
 42
0.000000001
 43
0.00000001
 40
0.0
 40
0.0
 40
0.0
 40
0.0
 40
0.2324777573301627
 40
0.4725004380670813
 40
0.712857586684514
 40
0.9477183923040919
 40
1.0
 40
1.0
 40
1.0
 40
1.0
 10
182.9924079763806
 20
64.4719536878235
 30
0.0
 10
182.9876603574859
 20
64.4690166360106
 30
0.0
 10
182.9780110386295
 20
64.46304721216478
 30
0.0
 10
183.0714851819434
 20
64.42561764016038
 30
0.0
 10
183.2177319404563
 20
64.3747359485514
 30
0.0
 10
183.3596837427067
 20
64.32912598349392
 30
0.0
 10
183.4404117093684
 20
64.30374320475637
 30
0.0
 10
183.4551102968545
 20
64.29912162181128
 30
0.0
  0
LINE
  5
148
330
1F
100
AcDbEntity
  8
0
  6
Continuous
 62
     7
370
    25
100
AcDbLine
 10
182.5019764837
 20
64.6333139163
 30
0.0
 11
182.9895762445
 21
64.4842016046
 31
0.0
  0
SPLINE
  5
149
330
1F
100
AcDbEntity
  8
0
  6
Continuous
 62
     7
370
    25
100
AcDbSpline
210
0.0
220
0.0
230
1.0
 70
     8
 71
     3
 72
     9
 73
     5
 74
     0
 42
0.000000001
 43
0.00000001
 40
0.0
 40
0.0
 40
0.0
 40
0.0
 40
0.4893220475154577
 40
1.0
 40
1.0
 40
1.0
 40
1.0
 10
182.497283894938
 20
64.6224815153724
 30
0.0
 10
182.4940366940669
 20
64.6252584327639
 30
0.0
 10
182.4874005719311
 20
64.63093346295234
 30
0.0
 10
182.4970491616411
 20
64.63250921463981
 30
0.0
 10
182.5019764836784
 20
64.63331391628519
 30
0.0
  0
SPLINE
  5
14A
330
1F
100
AcDbEntity
  8
0
  6
Continuous
 62
     7
370
    25
100
AcDbSpline
210
0.0
220
0.0
230
1.0
 70
     8
 71
     3
 72
    10
 73
     6
 74
     0
 42
0.000000001
 43
0.00000001
 40
0.0
 40
0.0
 40
0.0
 40
0.0
 40
0.5276208323937315
 40
0.8804287916025099
 40
1.0
 40
1.0
 40
1.0
 40
1.0
 10
184.4590728689664
 20
64.07259182897718
 30
0.0
 10
184.5478641706402
 20
64.03839208082564
 30
0.0
 10
184.6960281809254
 20
63.98132374483606
 30
0.0
 10
184.7804702584576
 20
63.93710518937718
 30
0.0
 10
184.7694541453472
 20
63.93291773379261
 30
0.0
 10
184.7666656863152
 20
63.93185778204477
 30
0.0
  0
SPLINE
  5
14B
330
1F
100
AcDbEntity
  8
0
  6
Continuous
 62
     7
370
    25
100
AcDbSpline
210
0.0
220
0.0
230
1.0
 70
     8
 71
     3
 72
    11
 73
     7
 74
     0
 42
0.000000001
 43
0.00000001
 40
0.0
 40
0.0
 40
0.0
 40
0.0
 40
0.3698932595827413
 40
0.6409518602335377
 40
0.9119341328887964
 40
0.9999999999999999
 40
0.9999999999999999
 40
0.9999999999999999
 40
0.9999999999999999
 10
184.5632630111685
 20
64.32963549953344
 30
0.0
 10
184.7514071144479
 20
64.26818475557917
 30
0.0
 10
185.0774236337132
 20
64.16170277022307
 30
0.0
 10
185.3778542510022
 20
64.01983123180317
 30
0.0
 10
185.5234721008034
 20
63.92959385997168
 30
0.0
 10
185.5041304930549
 20
63.907369287473
 30
0.0
 10
185.4993864621881
 20
63.90191813474025
 30
0.0
  0
SPLINE
  5
14C
330
1F
100
AcDbEntity
  8
0
  6
Continuous
 62
     7
370
    25
100
AcDbSpline
210
0.0
220
0.0
230
1.0
 70
     8
 71
     3
 72
    12
 73
     8
 74
     0
 42
0.000000001
 43
0.00000001
 40
0.0
 40
0.0
 40
0.0
 40
0.0
 40
0.2384061041062032
 40
0.4793717892115866
 40
0.6857141162939764
 40
0.8937440343221023
 40
0.9999999999999999
 40
0.9999999999999999
 40
0.9999999999999999
 40
0.9999999999999999
 10
183.0302476308285
 20
64.64860239712331
 30
0.0
 10
183.1016341617548
 20
64.64537272155307
 30
0.0
 10
183.245173645293
 20
64.6388786958968
 30
0.0
 10
183.6078066322783
 20
64.57674406664682
 30
0.0
 10
183.9989329376999
 20
64.4897546058747
 30
0.0
 10
184.3198112565833
 20
64.40370990756195
 30
0.0
 10
184.5017514129356
 20
64.34835146744156
 30
0.0
 10
184.5632630111685
 20
64.32963549953344
 30
0.0
  0
SPLINE
  5
14D
330
1F
100
AcDbEntity
  8
0
  6
Continuous
 62
     7
370
    25
100
AcDbSpline
210
0.0
220
0.0
230
1.0
 70
     8
 71
     3
 72
     9
 73
     5
 74
     0
 42
0.000000001
 43
0.00000001
 40
0.0
 40
0.0
 40
0.0
 40
0.0
 40
0.4999999999999307
 40
1.0
 40
1.0
 40
1.0
 40
1.0
 10
191.69262324893
 20
64.74037510426783
 30
0.0
 10
191.7259558677227
 20
64.74029870077821
 30
0.0
 10
191.7926211053081
 20
64.74014589379898
 30
0.0
 10
191.8592863428934
 20
64.74029870077821
 30
0.0
 10
191.8926189616861
 20
64.74037510426783
 30
0.0
  0
LWPOLYLINE
  5
14E
330
1F
100
AcDbEntity
  8
0
  6
Continuous
 62
     7
370
    25
100
AcDbPolyline
 90
        3
 70
   128
 43
0.0
 10
191.6598870899
 20
66.2606901335
 10
191.663851089
 20
66.0765943319
 10
191.6926232489
 20
64.7403751043
  0
LWPOLYLINE
  5
14F
330
1F
100
AcDbEntity
  8
0
  6
Continuous
 62
     7
370
    25
100
AcDbPolyline
 90
        3
 70
   128
 43
0.0
 10
191.8926189617
 20
64.7403751043
 10
191.8638468018
 20
66.0765943319
 10
191.8598828027
 20
66.2606901335
  0
LINE
  5
150
330
1F
100
AcDbEntity
  8
0
  6
Continuous
 62
     7
370
    25
100
AcDbLine
 10
191.8926189617
 20
64.7403751043
 30
0.0
 11
191.8926189617
 21
64.7508272471
 31
0.0
  0
LINE
  5
151
330
1F
100
AcDbEntity
  8
0
  6
Continuous
 62
     7
370
    25
100
AcDbLine
 10
193.1785513761
 20
65.3485366654
 30
0.0
 11
193.3771341911
 21
65.3485366654
 31
0.0
  0
LINE
  5
152
330
1F
100
AcDbEntity
  8
0
  6
Continuous
 62
     7
370
    25
100
AcDbLine
 10
193.535015154
 20
66.2606901335
 30
0.0
 11
193.1785513761
 21
65.3485366654
 31
0.0
  0
LINE
  5
153
330
1F
100
AcDbEntity
  8
0
  6
Continuous
 62
     7
370
    25
100
AcDbLine
 10
193.3771341911
 20
65.3485366654
 30
0.0
 11
193.733597969
 21
66.2606901335
 31
0.0
  0
LINE
  5
154
330
1F
100
AcDbEntity
  8
0
  6
Continuous
 62
     7
370
    25
100
AcDbLine
 10
190.1833154335
 20
65.3485366654
 30
0.0
 11
190.3815699922
 21
65.3485366654
 31
0.0
  0
LINE
  5
155
330
1F
100
AcDbEntity
  8
0
  6
Continuous
 62
     7
370
    25
100
AcDbLine
 10
189.7878797641
 20
66.2606901335
 30
0.0
 11
190.1833154335
 21
65.3485366654
 31
0.0
  0
LINE
  5
156
330
1F
100
AcDbEntity
  8
0
  6
Continuous
 62
     7
370
    25
100
AcDbLine
 10
190.3815699922
 20
65.3485366654
 30
0.0
 11
189.9861343228
 21
66.2606901335
 31
0.0
  0
LINE
  5
157
330
1F
100
AcDbEntity
  8
0
  6
Continuous
 62
     7
370
    25
100
AcDbLine
 10
193.1785513761
 20
65.3485366654
 30
0.0
 11
193.1785513761
 21
65.3589888082
 31
0.0
  0
LINE
  5
158
330
1F
100
AcDbEntity
  8
0
  6
Continuous
 62
     7
370
    25
100
AcDbLine
 10
190.3815699922
 20
65.3485366654
 30
0.0
 11
190.3815699922
 21
65.3589888082
 31
0.0
  0
LINE
  5
159
330
1F
100
AcDbEntity
  8
0
  6
Continuous
 62
     7
370
    25
100
AcDbLine
 10
194.6567453382
 20
65.3485366654
 30
0.0
 11
194.8507834857
 21
65.3485366654
 31
0.0
  0
LINE
  5
15A
330
1F
100
AcDbEntity
  8
0
  6
Continuous
 62
     7
370
    25
100
AcDbLine
 10
195.3836920667
 20
66.2606901335
 30
0.0
 11
194.6567453382
 21
65.3485366654
 31
0.0
  0
LINE
  5
15B
330
1F
100
AcDbEntity
  8
0
  6
Continuous
 62
     7
370
    25
100
AcDbLine
 10
194.8507834857
 20
65.3485366654
 30
0.0
 11
195.5777302143
 21
66.2606901335
 31
0.0
  0
LINE
  5
15C
330
1F
100
AcDbEntity
  8
0
  6
Continuous
 62
     7
370
    25
100
AcDbLine
 10
188.713510113
 20
65.3485366654
 30
0.0
 11
188.9068969248
 21
65.3485366654
 31
0.0
  0
LINE
  5
15D
330
1F
100
AcDbEntity
  8
0
  6
Continuous
 62
     7
370
    25
100
AcDbLine
 10
187.9485158504
 20
66.2606901335
 30
0.0
 11
188.713510113
 21
65.3485366654
 31
0.0
  0
LINE
  5
15E
330
1F
100
AcDbEntity
  8
0
  6
Continuous
 62
     7
370
    25
100
AcDbLine
 10
188.9068969248
 20
65.3485366654
 30
0.0
 11
188.1419026623
 21
66.2606901335
 31
0.0
  0
LINE
  5
15F
330
1F
100
AcDbEntity
  8
0
  6
Continuous
 62
     7
370
    25
100
AcDbLine
 10
194.6567453382
 20
65.3485366654
 30
0.0
 11
194.6567453382
 21
65.3589888082
 31
0.0
  0
LINE
  5
160
330
1F
100
AcDbEntity
  8
0
  6
Continuous
 62
     7
370
    25
100
AcDbLine
 10
188.9068969248
 20
65.3485366654
 30
0.0
 11
188.9068969248
 21
65.3589888082
 31
0.0
  0
LINE
  5
161
330
1F
100
AcDbEntity
  8
0
  6
Continuous
 62
     7
370
    25
100
AcDbLine
 10
196.0907977938
 20
65.3485366654
 30
0.0
 11
196.2772311764
 21
65.3485366654
 31
0.0
  0
LINE
  5
162
330
1F
100
AcDbEntity
  8
0
  6
Continuous
 62
     7
370
    25
100
AcDbLine
 10
197.1767630888
 20
66.2606901335
 30
0.0
 11
196.0907977938
 21
65.3485366654
 31
0.0
  0
LINE
  5
163
330
1F
100
AcDbEntity
  8
0
  6
Continuous
 62
     7
370
    25
100
AcDbLine
 10
196.2772311764
 20
65.3485366654
 30
0.0
 11
197.3631964714
 21
66.2606901335
 31
0.0
  0
LINE
  5
164
330
1F
100
AcDbEntity
  8
0
  6
Continuous
 62
     7
370
    25
100
AcDbLine
 10
196.0907977938
 20
65.3485366654
 30
0.0
 11
196.0907977938
 21
65.3589888082
 31
0.0
  0
LINE
  5
165
330
1F
100
AcDbEntity
  8
0
  6
Continuous
 62
     7
370
    25
100
AcDbLine
 10
187.2932916558
 20
65.3485366654
 30
0.0
 11
187.4787608952
 21
65.3485366654
 31
0.0
  0
LINE
  5
166
330
1F
100
AcDbEntity
  8
0
  6
Continuous
 62
     7
370
    25
100
AcDbLine
 10
186.1708032166
 20
66.2606901335
 30
0.0
 11
187.2932916558
 21
65.3485366654
 31
0.0
  0
LINE
  5
167
330
1F
100
AcDbEntity
  8
0
  6
Continuous
 62
     7
370
    25
100
AcDbLine
 10
187.4787608952
 20
65.3485366654
 30
0.0
 11
186.356272456
 21
66.2606901335
 31
0.0
  0
LINE
  5
168
330
1F
100
AcDbEntity
  8
0
  6
Continuous
 62
     7
370
    25
100
AcDbLine
 10
187.4787608952
 20
65.3485366654
 30
0.0
 11
187.4787608952
 21
65.3589888082
 31
0.0
  0
LINE
  5
169
330
1F
100
AcDbEntity
  8
0
  6
Continuous
 62
     7
370
    25
100
AcDbLine
 10
197.458092879
 20
65.3485366654
 30
0.0
 11
197.6339813308
 21
65.3485366654
 31
0.0
  0
LINE
  5
16A
330
1F
100
AcDbEntity
  8
0
  6
Continuous
 62
     7
370
    25
100
AcDbLine
 10
198.8859504191
 20
66.2606901335
 30
0.0
 11
197.458092879
 21
65.3485366654
 31
0.0
  0
LINE
  5
16B
330
1F
100
AcDbEntity
  8
0
  6
Continuous
 62
     7
370
    25
100
AcDbLine
 10
197.6339813308
 20
65.3485366654
 30
0.0
 11
199.0618388709
 21
66.2606901335
 31
0.0
  0
LINE
  5
16C
330
1F
100
AcDbEntity
  8
0
  6
Continuous
 62
     7
370
    25
100
AcDbLine
 10
197.458092879
 20
65.3485366654
 30
0.0
 11
197.458092879
 21
65.3589888082
 31
0.0
  0
LINE
  5
16D
330
1F
100
AcDbEntity
  8
0
  6
Continuous
 62
     7
370
    25
100
AcDbLine
 10
185.9450577555
 20
65.3485366654
 30
0.0
 11
186.1196844618
 21
65.3485366654
 31
0.0
  0
LINE
  5
16E
330
1F
100
AcDbEntity
  8
0
  6
Continuous
 62
     7
370
    25
100
AcDbLine
 10
184.4827774528
 20
66.2606901335
 30
0.0
 11
185.9450577555
 21
65.3485366654
 31
0.0
  0
LINE
  5
16F
330
1F
100
AcDbEntity
  8
0
  6
Continuous
 62
     7
370
    25
100
AcDbLine
 10
186.1196844618
 20
65.3485366654
 30
0.0
 11
184.6574041591
 21
66.2606901335
 31
0.0
  0
LINE
  5
170
330
1F
100
AcDbEntity
  8
0
  6
Continuous
 62
     7
370
    25
100
AcDbLine
 10
186.1196844618
 20
65.3485366654
 30
0.0
 11
186.1196844618
 21
65.3589888082
 31
0.0
  0
SPLINE
  5
171
330
1F
100
AcDbEntity
  8
0
  6
Continuous
 62
     7
370
    25
100
AcDbSpline
210
0.0
220
0.0
230
1.0
 70
     8
 71
     3
 72
     9
 73
     5
 74
     0
 42
0.000000001
 43
0.00000001
 40
0.0
 40
0.0
 40
0.0
 40
0.0
 40
0.4999999999999975
 40
1.0
 40
1.0
 40
1.0
 40
1.0
 10
197.5721165809523
 20
64.74037510426783
 30
0.0
 10
197.5992115234804
 20
64.74029870077821
 30
0.0
 10
197.6534014085366
 20
64.74014589379898
 30
0.0
 10
197.7075912935927
 20
64.74029870077821
 30
0.0
 10
197.7346862361208
 20
64.74037510426783
 30
0.0
  0
LWPOLYLINE
  5
172
330
1F
100
AcDbEntity
  8
0
  6
Continuous
 62
     7
370
    25
100
AcDbPolyline
 90
        3
 70
   128
 43
0.0
 10
200.4842991523
 20
66.2606901335
 10
200.1316649583
 20
66.0765943319
 10
197.572116581
 20
64.7403751043
  0
LWPOLYLINE
  5
173
330
1F
100
AcDbEntity
  8
0
  6
Continuous
 62
     7
370
    25
100
AcDbPolyline
 90
        3
 70
   128
 43
0.0
 10
197.7346862361
 20
64.7403751043
 10
200.2942346135
 20
66.0765943319
 10
200.6468688075
 20
66.2606901335
  0
LINE
  5
174
330
1F
100
AcDbEntity
  8
0
  6
Continuous
 62
     7
370
    25
100
AcDbLine
 10
197.572116581
 20
64.7403751043
 30
0.0
 11
197.572116581
 21
64.7508272471
 31
0.0
  0
SPLINE
  5
175
330
1F
100
AcDbEntity
  8
0
  6
Continuous
 62
     7
370
    25
100
AcDbSpline
210
0.0
220
0.0
230
1.0
 70
     8
 71
     3
 72
     9
 73
     5
 74
     0
 42
0.000000001
 43
0.00000001
 40
0.0
 40
0.0
 40
0.0
 40
0.0
 40
0.5000000000000026
 40
1.0
 40
1.0
 40
1.0
 40
1.0
 10
185.8762105229634
 20
64.74037510426783
 30
0.0
 10
185.9030488905759
 20
64.74029870077821
 30
0.0
 10
185.9567256258009
 20
64.74014589379898
 30
0.0
 10
186.010402361026
 20
64.74029870077821
 30
0.0
 10
186.0372407286385
 20
64.74037510426783
 30
0.0
  0
LWPOLYLINE
  5
176
330
1F
100
AcDbEntity
  8
0
  6
Continuous
 62
     7
370
    25
100
AcDbPolyline
 90
        3
 70
   128
 43
0.0
 10
182.9110597337
 20
66.2606901335
 10
183.2701078129
 20
66.0765943319
 10
185.876210523
 20
64.7403751043
  0
LWPOLYLINE
  5
177
330
1F
100
AcDbEntity
  8
0
  6
Continuous
 62
     7
370
    25
100
AcDbPolyline
 90
        3
 70
   128
 43
0.0
 10
186.0372407286
 20
64.7403751043
 10
183.4311380186
 20
66.0765943319
 10
183.0720899394
 20
66.2606901335
  0
LINE
  5
178
330
1F
100
AcDbEntity
  8
0
  6
Continuous
 62
     7
370
    25
100
AcDbLine
 10
186.0372407286
 20
64.7403751043
 30
0.0
 11
186.0372407286
 21
64.7508272471
 31
0.0
  0
LINE
  5
179
330
1F
100
AcDbEntity
  8
0
  6
Continuous
 62
     7
370
    25
100
AcDbLine
 10
190.277846599
 20
63.9004388361
 30
0.0
 11
189.8121007138
 21
63.9350848739
 31
0.0
  0
LINE
  5
17A
330
1F
100
AcDbEntity
  8
0
  6
Continuous
 62
     7
370
    25
100
AcDbLine
 10
189.8121007138
 20
63.9350848739
 30
0.0
 11
189.7952041913
 21
64.7060022942
 31
0.0
  0
SPLINE
  5
17B
330
1F
100
AcDbEntity
  8
0
  6
Continuous
 62
     7
370
    25
100
AcDbSpline
210
0.0
220
0.0
230
1.0
 70
     8
 71
     3
 72
    10
 73
     6
 74
     0
 42
0.000000001
 43
0.00000001
 40
0.0
 40
0.0
 40
0.0
 40
0.0
 40
0.2493621587600308
 40
0.4991237536853695
 40
1.0
 40
1.0
 40
1.0
 40
1.0
 10
189.7952041913478
 20
64.70600229422912
 30
0.0
 10
189.8238960066369
 20
64.70429744559061
 30
0.0
 10
189.8813255966689
 20
64.7008850174333
 30
0.0
 10
189.99607764296
 20
64.69063747599019
 30
0.0
 10
190.0779439553
 20
64.67826571146205
 30
0.0
 10
190.1325706860238
 20
64.6700104349003
 30
0.0
  0
SPLINE
  5
17C
330
1F
100
AcDbEntity
  8
0
  6
Continuous
 62
     7
370
    25
100
AcDbSpline
210
0.0
220
0.0
230
1.0
 70
     8
 71
     3
 72
    10
 73
     6
 74
     0
 42
0.000000001
 43
0.00000001
 40
0.0
 40
0.0
 40
0.0
 40
0.0
 40
0.4451026191550871
 40
0.7215802072398576
 40
1.0
 40
1.0
 40
1.0
 40
1.0
 10
190.1325706860238
 20
64.6700104349003
 30
0.0
 10
190.3304760965565
 20
64.6288665388033
 30
0.0
 10
190.6513113848707
 20
64.56216591787974
 30
0.0
 10
190.9946176907674
 20
64.44242861902191
 30
0.0
 10
191.17263048801
 20
64.37541896905654
 30
0.0
 10
191.2619484192668
 20
64.34179687333157
 30
0.0
  0
SPLINE
  5
17D
330
1F
100
AcDbEntity
  8
0
  6
Continuous
 62
     7
370
    25
100
AcDbSpline
210
0.0
220
0.0
230
1.0
 70
     8
 71
     3
 72
    11
 73
     7
 74
     0
 42
0.000000001
 43
0.00000001
 40
0.0
 40
0.0
 40
0.0
 40
0.0
 40
0.47372557112244
 40
0.7206682458961275
 40
0.890028941837361
 40
1.0
 40
1.0
 40
1.0
 40
1.0
 10
191.2619484192668
 20
64.34179687333157
 30
0.0
 10
191.4479716589488
 20
64.27182205608462
 30
0.0
 10
191.730964703888
 20
64.16537091247676
 30
0.0
 10
192.144851004463
 20
64.05874422611713
 30
0.0
 10
192.4433554808238
 20
64.01782814663497
 30
0.0
 10
192.6183353827152
 20
64.01837450681028
 30
0.0
 10
192.6872238090594
 20
64.01858960518608
 30
0.0
  0
SPLINE
  5
17E
330
1F
100
AcDbEntity
  8
0
  6
Continuous
 62
     7
370
    25
100
AcDbSpline
210
0.0
220
0.0
230
1.0
 70
     8
 71
     3
 72
    12
 73
     8
 74
     0
 42
0.000000001
 43
0.00000001
 40
0.0
 40
0.0
 40
0.0
 40
0.0
 40
0.2018644632607518
 40
0.4057551388779871
 40
0.5900454728758946
 40
0.8014435422941428
 40
1.0
 40
1.0
 40
1.0
 40
1.0
 10
192.6872238090594
 20
64.01858960518608
 30
0.0
 10
192.7657263642761
 20
64.02363495013314
 30
0.0
 10
192.9235194432546
 20
64.03377628262236
 30
0.0
 10
193.1196521243688
 20
64.07997950271825
 30
0.0
 10
193.2686232949772
 20
64.1386368443912
 30
0.0
 10
193.3561853652246
 20
64.20568306603275
 30
0.0
 10
193.3634370519844
 20
64.25160006593728
 30
0.0
 10
193.3669493177119
 20
64.27383940285466
 30
0.0
  0
SPLINE
  5
17F
330
1F
100
AcDbEntity
  8
0
  6
Continuous
 62
     7
370
    25
100
AcDbSpline
210
0.0
220
0.0
230
1.0
 70
     8
 71
     3
 72
    12
 73
     8
 74
     0
 42
0.000000001
 43
0.00000001
 40
0.0
 40
0.0
 40
0.0
 40
0.0
 40
0.2667815659415516
 40
0.4518832426286039
 40
0.6371812322234575
 40
0.8190662991060934
 40
1.0
 40
1.0
 40
1.0
 40
1.0
 10
193.3669493177119
 20
64.27383940285466
 30
0.0
 10
193.3576524542787
 20
64.30599252073758
 30
0.0
 10
193.3419051263865
 20
64.36045451146123
 30
0.0
 10
193.203578365159
 20
64.42293597082282
 30
0.0
 10
193.022131371271
 20
64.4599672518123
 30
0.0
 10
192.8008084327452
 20
64.47665342253894
 30
0.0
 10
192.6471381926105
 20
64.4751217446234
 30
0.0
 10
192.5705045459136
 20
64.47435791381182
 30
0.0
  0
LINE
  5
180
330
1F
100
AcDbEntity
  8
0
  6
Continuous
 62
     7
370
    25
100
AcDbLine
 10
192.5705045459
 20
64.4743579138
 30
0.0
 11
192.6174374688
 21
64.6265510003
 31
0.0
  0
SPLINE
  5
181
330
1F
100
AcDbEntity
  8
0
  6
Continuous
 62
     7
370
    25
100
AcDbSpline
210
0.0
220
0.0
230
1.0
 70
     8
 71
     3
 72
    12
 73
     8
 74
     0
 42
0.000000001
 43
0.00000001
 40
0.0
 40
0.0
 40
0.0
 40
0.0
 40
0.2724817471014641
 40
0.4514039744596253
 40
0.6302376402358346
 40
0.8642336471129225
 40
0.9999999999999999
 40
0.9999999999999999
 40
0.9999999999999999
 40
0.9999999999999999
 10
192.6174374687598
 20
64.62655100025141
 30
0.0
 10
192.7949077820161
 20
64.62322334875705
 30
0.0
 10
193.0889120799357
 20
64.61771063046984
 30
0.0
 10
193.4325730526679
 20
64.56284084273472
 30
0.0
 10
193.6567461854519
 20
64.48280322757377
 30
0.0
 10
193.7557527678037
 20
64.3886874720477
 30
0.0
 10
193.7647225698487
 20
64.32096362696618
 30
0.0
 10
193.7680160292223
 20
64.29609733323075
 30
0.0
  0
SPLINE
  5
182
330
1F
100
AcDbEntity
  8
0
  6
Continuous
 62
     7
370
    25
100
AcDbSpline
210
0.0
220
0.0
230
1.0
 70
     8
 71
     3
 72
    12
 73
     8
 74
     0
 42
0.000000001
 43
0.00000001
 40
0.0
 40
0.0
 40
0.0
 40
0.0
 40
0.2961109645965028
 40
0.5031333860931317
 40
0.7103028553862661
 40
0.9109538465087665
 40
0.9999999999999999
 40
0.9999999999999999
 40
0.9999999999999999
 40
0.9999999999999999
 10
193.7680160292223
 20
64.29609733323075
 30
0.0
 10
193.7559371370848
 20
64.24159185419337
 30
0.0
 10
193.7354134327037
 20
64.14897952466997
 30
0.0
 10
193.5149531761617
 20
64.02004877585873
 30
0.0
 10
193.2220327908754
 20
63.92723083124103
 30
0.0
 10
192.9192465474851
 20
63.87992704066554
 30
0.0
 10
192.7361560367182
 20
63.87069336558168
 30
0.0
 10
192.6798782789713
 20
63.8678551489679
 30
0.0
  0
SPLINE
  5
183
330
1F
100
AcDbEntity
  8
0
  6
Continuous
 62
     7
370
    25
100
AcDbSpline
210
0.0
220
0.0
230
1.0
 70
     8
 71
     3
 72
    11
 73
     7
 74
     0
 42
0.000000001
 43
0.00000001
 40
0.0
 40
0.0
 40
0.0
 40
0.0
 40
0.1940562404875515
 40
0.3880955329069093
 40
0.6911763970765099
 40
1.0
 40
1.0
 40
1.0
 40
1.0
 10
192.6798782789713
 20
63.8678551489679
 30
0.0
 10
192.5421501693113
 20
63.86794017538616
 30
0.0
 10
192.2667059785938
 20
63.86811022079686
 30
0.0
 10
191.8416375008092
 20
63.94142412423464
 30
0.0
 10
191.4431979179687
 20
64.06236740367241
 30
0.0
 10
191.1686085110043
 20
64.16553150118027
 30
0.0
 10
191.0300252932902
 20
64.21759764875404
 30
0.0
  0
SPLINE
  5
184
330
1F
100
AcDbEntity
  8
0
  6
Continuous
 62
     7
370
    25
100
AcDbSpline
210
0.0
220
0.0
230
1.0
 70
     8
 71
     3
 72
    10
 73
     6
 74
     0
 42
0.000000001
 43
0.00000001
 40
0.0
 40
0.0
 40
0.0
 40
0.0
 40
0.4964543902185285
 40
0.7459703600789795
 40
1.0
 40
1.0
 40
1.0
 40
1.0
 10
191.0300252932902
 20
64.21759764875404
 30
0.0
 10
190.913592632981
 20
64.26239917647248
 30
0.0
 10
190.73864138822
 20
64.32971777093493
 30
0.0
 10
190.4933873083157
 20
64.42032718756352
 30
0.0
 10
190.3419558486207
 20
64.45906923417571
 30
0.0
 10
190.2655614199298
 20
64.47861389499596
 30
0.0
  0
LINE
  5
185
330
1F
100
AcDbEntity
  8
0
  6
Continuous
 62
     7
370
    25
100
AcDbLine
 10
190.2655614199
 20
64.478613895
 30
0.0
 11
190.277846599
 21
63.9004388361
 31
0.0
  0
LINE
  5
186
330
1F
100
AcDbEntity
  8
0
  6
Continuous
 62
     7
370
    25
100
AcDbLine
 10
183.6930170426
 20
65.3485366654
 30
0.0
 11
183.6930170426
 21
65.3589888082
 31
0.0
  0
LINE
  5
187
330
1F
100
AcDbEntity
  8
0
  6
Continuous
 62
     7
370
    25
100
AcDbLine
 10
183.6930170426
 20
65.3485366654
 30
0.0
 11
181.6253311491
 21
66.2606901335
 31
0.0
  0
LINE
  5
188
330
1F
100
AcDbEntity
  8
0
  6
Continuous
 62
     7
370
    25
100
AcDbLine
 10
183.5481228801
 20
65.3485366654
 30
0.0
 11
183.6930170426
 21
65.3485366654
 31
0.0
  0
LINE
  5
189
330
1F
100
AcDbEntity
  8
0
  6
Continuous
 62
     7
370
    25
100
AcDbLine
 10
181.4804369866
 20
66.2606901335
 30
0.0
 11
183.5481228801
 21
65.3485366654
 31
0.0
  0
LINE
  5
18A
330
1F
100
AcDbEntity
  8
0
  6
Continuous
 62
     7
370
    25
100
AcDbLine
 10
199.9075515631
 20
65.3485366654
 30
0.0
 11
200.054238601
 21
65.3485366654
 31
0.0
  0
LINE
  5
18B
330
1F
100
AcDbEntity
  8
0
  6
Continuous
 62
     7
370
    25
100
AcDbLine
 10
201.9466023742
 20
66.2606901335
 30
0.0
 11
199.9075515631
 21
65.3485366654
 31
0.0
  0
LINE
  5
18C
330
1F
100
AcDbEntity
  8
0
  6
Continuous
 62
     7
370
    25
100
AcDbLine
 10
200.054238601
 20
65.3485366654
 30
0.0
 11
202.0932894121
 21
66.2606901335
 31
0.0
  0
LINE
  5
18D
330
1F
100
AcDbEntity
  8
0
  6
Continuous
 62
     7
370
    25
100
AcDbLine
 10
199.9075515631
 20
65.3485366654
 30
0.0
 11
199.9075515631
 21
65.3589888082
 31
0.0
  0
LINE
  5
18E
330
1F
100
AcDbEntity
  8
0
  6
Continuous
 62
     7
370
    25
100
AcDbLine
 10
182.6636960518
 20
65.3485366654
 30
0.0
 11
182.6636960518
 21
65.3589888082
 31
0.0
  0
LINE
  5
18F
330
1F
100
AcDbEntity
  8
0
  6
Continuous
 62
     7
370
    25
100
AcDbLine
 10
182.6636960518
 20
65.3485366654
 30
0.0
 11
180.3399440387
 21
66.2606901335
 31
0.0
  0
LINE
  5
190
330
1F
100
AcDbEntity
  8
0
  6
Continuous
 62
     7
370
    25
100
AcDbLine
 10
182.5372229999
 20
65.3485366654
 30
0.0
 11
182.6636960518
 21
65.3485366654
 31
0.0
  0
LINE
  5
191
330
1F
100
AcDbEntity
  8
0
  6
Continuous
 62
     7
370
    25
100
AcDbLine
 10
180.2134709868
 20
66.2606901335
 30
0.0
 11
182.5372229999
 21
65.3485366654
 31
0.0
  0
LINE
  5
192
330
1F
100
AcDbEntity
  8
0
  6
Continuous
 62
     7
370
    25
100
AcDbLine
 10
192.6174374688
 20
64.6265510003
 30
0.0
 11
192.6174374688
 21
64.6365510003
 31
0.0
  0
LINE
  5
193
330
1F
100
AcDbEntity
  8
0
  6
Continuous
 62
     7
370
    25
100
AcDbLine
 10
193.7680160292
 20
64.2960973332
 30
0.0
 11
193.7680160292
 21
64.3060973332
 31
0.0
  0
LINE
  5
194
330
1F
100
AcDbEntity
  8
0
  6
Continuous
 62
     7
370
    25
100
AcDbLine
 10
190.132570686
 20
64.6700104349
 30
0.0
 11
190.132570686
 21
64.6800104349
 31
0.0
  0
LINE
  5
195
330
1F
100
AcDbEntity
  8
0
  6
Continuous
 62
     7
370
    25
100
AcDbLine
 10
189.7952041913
 20
64.7060022942
 30
0.0
 11
189.7952041913
 21
64.7160022942
 31
0.0
  0
LINE
  5
196
330
1F
100
AcDbEntity
  8
0
  6
Continuous
 62
     7
370
    25
100
AcDbLine
 10
200.9510857353
 20
65.3485366654
 30
0.0
 11
201.0795768137
 21
65.3485366654
 31
0.0
  0
LINE
  5
197
330
1F
100
AcDbEntity
  8
0
  6
Continuous
 62
     7
370
    25
100
AcDbLine
 10
203.2497986893
 20
66.2606901335
 30
0.0
 11
200.9510857353
 21
65.3485366654
 31
0.0
  0
LINE
  5
198
330
1F
100
AcDbEntity
  8
0
  6
Continuous
 62
     7
370
    25
100
AcDbLine
 10
201.0795768137
 20
65.3485366654
 30
0.0
 11
203.3782897678
 21
66.2606901335
 31
0.0
  0
LINE
  5
199
330
1F
100
AcDbEntity
  8
0
  6
Continuous
 62
     7
370
    25
100
AcDbLine
 10
200.9510857353
 20
65.3485366654
 30
0.0
 11
200.9510857353
 21
65.3589888082
 31
0.0
  0
LINE
  5
19A
330
1F
100
AcDbEntity
  8
0
  6
Continuous
 62
     7
370
    25
100
AcDbLine
 10
192.5705045459
 20
64.4743579138
 30
0.0
 11
192.5705045459
 21
64.4843579138
 31
0.0
  0
LINE
  5
19B
330
1F
100
AcDbEntity
  8
0
  6
Continuous
 62
     7
370
    25
100
AcDbLine
 10
192.6872238091
 20
64.0185896052
 30
0.0
 11
192.6872238091
 21
64.0285896052
 31
0.0
  0
LINE
  5
19C
330
1F
100
AcDbEntity
  8
0
  6
Continuous
 62
     7
370
    25
100
AcDbLine
 10
190.277846599
 20
63.9004388361
 30
0.0
 11
190.277846599
 21
63.9104388361
 31
0.0
  0
LINE
  5
19D
330
1F
100
AcDbEntity
  8
0
  6
Continuous
 62
     7
370
    25
100
AcDbLine
 10
181.779371106
 20
65.3485366654
 30
0.0
 11
181.779371106
 21
65.3589888082
 31
0.0
  0
LINE
  5
19E
330
1F
100
AcDbEntity
  8
0
  6
Continuous
 62
     7
370
    25
100
AcDbLine
 10
181.779371106
 20
65.3485366654
 30
0.0
 11
179.2361999308
 21
66.2606901335
 31
0.0
  0
LINE
  5
19F
330
1F
100
AcDbEntity
  8
0
  6
Continuous
 62
     7
370
    25
100
AcDbLine
 10
181.6733137203
 20
65.3485366654
 30
0.0
 11
181.779371106
 21
65.3485366654
 31
0.0
  0
LINE
  5
1A0
330
1F
100
AcDbEntity
  8
0
  6
Continuous
 62
     7
370
    25
100
AcDbLine
 10
179.1301425451
 20
66.2606901335
 30
0.0
 11
181.6733137203
 21
65.3485366654
 31
0.0
  0
LINE
  5
1A1
330
1F
100
AcDbEntity
  8
0
  6
Continuous
 62
     7
370
    25
100
AcDbLine
 10
201.8512128929
 20
65.3485366654
 30
0.0
 11
201.9594816308
 21
65.3485366654
 31
0.0
  0
LINE
  5
1A2
330
1F
100
AcDbEntity
  8
0
  6
Continuous
 62
     7
370
    25
100
AcDbLine
 10
204.3733359134
 20
66.2606901335
 30
0.0
 11
201.8512128929
 21
65.3485366654
 31
0.0
  0
LINE
  5
1A3
330
1F
100
AcDbEntity
  8
0
  6
Continuous
 62
     7
370
    25
100
AcDbLine
 10
201.9594816308
 20
65.3485366654
 30
0.0
 11
204.4816046513
 21
66.2606901335
 31
0.0
  0
LINE
  5
1A4
330
1F
100
AcDbEntity
  8
0
  6
Continuous
 62
     7
370
    25
100
AcDbLine
 10
201.8512128929
 20
65.3485366654
 30
0.0
 11
201.8512128929
 21
65.3589888082
 31
0.0
  0
LINE
  5
1A5
330
1F
100
AcDbEntity
  8
0
  6
Continuous
 62
     7
370
    25
100
AcDbLine
 10
180.9700194068
 20
65.3485366654
 30
0.0
 11
181.053988538
 21
65.3485366654
 31
0.0
  0
LINE
  5
1A6
330
1F
100
AcDbEntity
  8
0
  6
Continuous
 62
     7
370
    25
100
AcDbLine
 10
178.2475363981
 20
66.2606901335
 30
0.0
 11
180.9700194068
 21
65.3485366654
 31
0.0
  0
LINE
  5
1A7
330
1F
100
AcDbEntity
  8
0
  6
Continuous
 62
     7
370
    25
100
AcDbLine
 10
181.053988538
 20
65.3485366654
 30
0.0
 11
178.3315055292
 21
66.2606901335
 31
0.0
  0
LINE
  5
1A8
330
1F
100
AcDbEntity
  8
0
  6
Continuous
 62
     7
370
    25
100
AcDbLine
 10
181.053988538
 20
65.3485366654
 30
0.0
 11
181.053988538
 21
65.3589888082
 31
0.0
  0
LINE
  5
1A9
330
1F
100
AcDbEntity
  8
0
  6
Continuous
 62
     7
370
    25
100
AcDbLine
 10
205.2994951933
 20
66.2606901335
 30
0.0
 11
202.5937374929
 21
65.3485366654
 31
0.0
  0
LINE
  5
1AA
330
1F
100
AcDbEntity
  8
0
  6
Continuous
 62
     7
370
    25
100
AcDbLine
 10
202.5937374929
 20
65.3485366654
 30
0.0
 11
202.5937374929
 21
65.3589888082
 31
0.0
  0
LINE
  5
1AB
330
1F
100
AcDbEntity
  8
0
  6
Continuous
 62
     7
370
    25
100
AcDbLine
 10
202.5937374929
 20
65.3485366654
 30
0.0
 11
202.6800764276
 21
65.3485366654
 31
0.0
  0
LINE
  5
1AC
330
1F
100
AcDbEntity
  8
0
  6
Continuous
 62
     7
370
    25
100
AcDbLine
 10
202.6800764276
 20
65.3485366654
 30
0.0
 11
205.3858341279
 21
66.2606901335
 31
0.0
  0
SPLINE
  5
1AD
330
1F
100
AcDbEntity
  8
0
  6
Continuous
 62
     7
370
    25
100
AcDbSpline
210
0.0
220
0.0
230
1.0
 70
     8
 71
     3
 72
     9
 73
     5
 74
     0
 42
0.000000001
 43
0.00000001
 40
0.0
 40
0.0
 40
0.0
 40
0.0
 40
0.5000000000000384
 40
1.0
 40
1.0
 40
1.0
 40
1.0
 10
182.3445503717742
 20
64.74037510426783
 30
0.0
 10
182.3546431439811
 20
64.74029870077821
 30
0.0
 10
182.374828688395
 20
64.74014589379898
 30
0.0
 10
182.3950142328089
 20
64.74029870077821
 30
0.0
 10
182.4051070050159
 20
64.74037510426783
 30
0.0
  0
LWPOLYLINE
  5
1AE
330
1F
100
AcDbEntity
  8
0
  6
Continuous
 62
     7
370
    25
100
AcDbPolyline
 90
        3
 70
   128
 43
0.0
 10
177.579571772
 20
66.2606901335
 10
178.1565597687
 20
66.0765943319
 10
182.3445503718
 20
64.7403751043
  0
LWPOLYLINE
  5
1AF
330
1F
100
AcDbEntity
  8
0
  6
Continuous
 62
     7
370
    25
100
AcDbPolyline
 90
        3
 70
   128
 43
0.0
 10
182.405107005
 20
64.7403751043
 10
178.2171164019
 20
66.0765943319
 10
177.6401284052
 20
66.2606901335
  0
LINE
  5
1B0
330
1F
100
AcDbEntity
  8
0
  6
Continuous
 62
     7
370
    25
100
AcDbLine
 10
182.405107005
 20
64.7403751043
 30
0.0
 11
182.405107005
 21
64.7508272471
 31
0.0
  0
SPLINE
  5
1B1
330
1F
100
AcDbEntity
  8
0
  6
Continuous
 62
     7
370
    25
100
AcDbSpline
210
0.0
220
0.0
230
1.0
 70
     8
 71
     3
 72
     9
 73
     5
 74
     0
 42
0.000000001
 43
0.00000001
 40
0.0
 40
0.0
 40
0.0
 40
0.0
 40
0.4999999999999989
 40
0.9999999999999999
 40
0.9999999999999999
 40
0.9999999999999999
 40
0.9999999999999999
 10
201.2689239028261
 20
64.74037510426783
 30
0.0
 10
201.279431821967
 20
64.74029870077821
 30
0.0
 10
201.300447660249
 20
64.74014589379898
 30
0.0
 10
201.3214634985309
 20
64.74029870077821
 30
0.0
 10
201.3319714176719
 20
64.74037510426783
 30
0.0
  0
LWPOLYLINE
  5
1B2
330
1F
100
AcDbEntity
  8
0
  6
Continuous
 62
     7
370
    25
100
AcDbPolyline
 90
        3
 70
   128
 43
0.0
 10
206.0136704437
 20
66.2606901335
 10
205.4391323332
 20
66.0765943319
 10
201.2689239028
 20
64.7403751043
  0
LWPOLYLINE
  5
1B3
330
1F
100
AcDbEntity
  8
0
  6
Continuous
 62
     7
370
    25
100
AcDbPolyline
 90
        3
 70
   128
 43
0.0
 10
201.3319714177
 20
64.7403751043
 10
205.502179848
 20
66.0765943319
 10
206.0767179586
 20
66.2606901335
  0
LINE
  5
1B4
330
1F
100
AcDbEntity
  8
0
  6
Continuous
 62
     7
370
    25
100
AcDbLine
 10
201.2689239028
 20
64.7403751043
 30
0.0
 11
201.2689239028
 21
64.7508272471
 31
0.0
  0
SPLINE
  5
1B5
330
1F
100
AcDbEntity
  8
0
  6
Continuous
 62
     7
370
    25
100
AcDbSpline
210
0.0
220
0.0
230
1.0
 70
     8
 71
     3
 72
    12
 73
     8
 74
     0
 42
0.000000001
 43
0.00000001
 40
0.0
 40
0.0
 40
0.0
 40
0.0
 40
0.3080375797782899
 40
0.5292248514773392
 40
0.750702957100472
 40
0.9727277852936923
 40
1.0
 40
1.0
 40
1.0
 40
1.0
 10
184.4590728689664
 20
64.06259182897719
 30
0.0
 10
184.5940354919462
 20
64.02343313955485
 30
0.0
 10
184.8259084152204
 20
63.95615644036609
 30
0.0
 10
185.1241709905909
 20
63.88558782061097
 30
0.0
 10
185.3278760425743
 20
63.85117664849106
 30
0.0
 10
185.4179638004541
 20
63.84897436885774
 30
0.0
 10
185.453166766504
 20
63.8525407663461
 30
0.0
 10
185.4570178464736
 20
63.85293091761665
 30
0.0
  0
SPLINE
  5
1B6
330
1F
100
AcDbEntity
  8
0
  6
Continuous
 62
     7
370
    25
100
AcDbSpline
210
0.0
220
0.0
230
1.0
 70
     8
 71
     3
 72
    11
 73
     7
 74
     0
 42
0.000000001
 43
0.00000001
 40
0.0
 40
0.0
 40
0.0
 40
0.0
 40
0.2826611408228388
 40
0.5674481104873227
 40
0.8280823218570792
 40
1.0
 40
1.0
 40
1.0
 40
1.0
 10
184.735220814317
 20
63.91547671127309
 30
0.0
 10
184.7561975895155
 20
63.91474655429011
 30
0.0
 10
184.7983089013706
 20
63.91328074898292
 30
0.0
 10
184.7309873074393
 20
63.95397089124019
 30
0.0
 10
184.6035518071545
 20
64.00829002277264
 30
0.0
 10
184.5001642405142
 20
64.04714780839917
 30
0.0
 10
184.4590728689664
 20
64.06259182897719
 30
0.0
  0
SPLINE
  5
1B7
330
1F
100
AcDbEntity
  8
0
  6
Continuous
 62
     7
370
    25
100
AcDbSpline
210
0.0
220
0.0
230
1.0
 70
     8
 71
     3
 72
    12
 73
     8
 74
     0
 42
0.000000001
 43
0.00000001
 40
0.0
 40
0.0
 40
0.0
 40
0.0
 40
0.2922742600753129
 40
0.5176773065729805
 40
0.7449842024588657
 40
0.9408789159072708
 40
1.0
 40
1.0
 40
1.0
 40
1.0
 10
183.3241332937945
 20
64.31748506871968
 30
0.0
 10
183.4868516018004
 20
64.2673763002199
 30
0.0
 10
183.7750589020152
 20
64.17862345449896
 30
0.0
 10
184.1961232288656
 20
64.05301024686854
 30
0.0
 10
184.5094755745271
 20
63.96440228032627
 30
0.0
 10
184.6736348098026
 20
63.92480343173401
 30
0.0
 10
184.7236302257401
 20
63.91723201559078
 30
0.0
 10
184.735220814317
 20
63.91547671127309
 30
0.0
  0
SPLINE
  5
1B8
330
1F
100
AcDbEntity
  8
0
  6
Continuous
 62
     7
370
    25
100
AcDbSpline
210
0.0
220
0.0
230
1.0
 70
     8
 71
     3
 72
    12
 73
     8
 74
     0
 42
0.000000001
 43
0.00000001
 40
0.0
 40
0.0
 40
0.0
 40
0.0
 40
0.2736264658353577
 40
0.4865062486657926
 40
0.6993570519723225
 40
0.9151724950121791
 40
1.0
 40
1.0
 40
1.0
 40
1.0
 10
182.5019764836784
 20
64.62331391628517
 30
0.0
 10
182.492802767641
 20
64.61660885839663
 30
0.0
 10
182.4764919544231
 20
64.60468730486387
 30
0.0
 10
182.6275406113309
 20
64.54318133312
 30
0.0
 10
182.868365101581
 20
64.46110866204982
 30
0.0
 10
183.120557935109
 20
64.3808568675695
 30
0.0
 10
183.279334037148
 20
64.3314308109704
 30
0.0
 10
183.3241332937945
 20
64.31748506871968
 30
0.0
  0
LINE
  5
1B9
330
1F
100
AcDbEntity
  8
0
  6
Continuous
 62
     7
370
    25
100
AcDbLine
 10
182.9895762445
 20
64.4742016046
 30
0.0
 11
182.5019764837
 21
64.6233139163
 31
0.0
  0
SPLINE
  5
1BA
330
1F
100
AcDbEntity
  8
0
  6
Continuous
 62
     7
370
    25
100
AcDbSpline
210
0.0
220
0.0
230
1.0
 70
     8
 71
     3
 72
    12
 73
     8
 74
     0
 42
0.000000001
 43
0.00000001
 40
0.0
 40
0.0
 40
0.0
 40
0.0
 40
0.2632700033723426
 40
0.4607234682375667
 40
0.6581735642401134
 40
0.9295161011806192
 40
0.9999999999999999
 40
0.9999999999999999
 40
0.9999999999999999
 40
0.9999999999999999
 10
183.4551102968545
 20
64.28912162181128
 30
0.0
 10
183.3662181228022
 20
64.31733308701216
 30
0.0
 10
183.2106564932814
 20
64.36670325423565
 30
0.0
 10
183.0540132277594
 20
64.42198654015732
 30
0.0
 10
182.9692242041588
 20
64.45886582078073
 30
0.0
 10
182.9685596131399
 20
64.47069598686805
 30
0.0
 10
182.9859834795428
 20
64.47360232394534
 30
0.0
 10
182.9895762444904
 20
64.474201604595
 30
0.0
  0
SPLINE
  5
1BB
330
1F
100
AcDbEntity
  8
0
  6
Continuous
 62
     7
370
    25
100
AcDbSpline
210
0.0
220
0.0
230
1.0
 70
     8
 71
     3
 72
    12
 73
     8
 74
     0
 42
0.000000001
 43
0.00000001
 40
0.0
 40
0.0
 40
0.0
 40
0.0
 40
0.2084242676669954
 40
0.4191169075298151
 40
0.6049259772319525
 40
0.8152771645789728
 40
1.0
 40
1.0
 40
1.0
 40
1.0
 10
184.2574112375632
 20
64.0661046987784
 30
0.0
 10
184.2304870185988
 20
64.07061029013721
 30
0.0
 10
184.1763455526538
 20
64.07967050917036
 30
0.0
 10
184.0190790342592
 20
64.12102103247733
 30
0.0
 10
183.8339182319945
 20
64.17365898110943
 30
0.0
 10
183.63965554457
 20
64.23168428988663
 30
0.0
 10
183.5139062715825
 20
64.27082213180493
 30
0.0
 10
183.4551102968545
 20
64.28912162181128
 30
0.0
  0
SPLINE
  5
1BC
330
1F
100
AcDbEntity
  8
0
  6
Continuous
 62
     7
370
    25
100
AcDbSpline
210
0.0
220
0.0
230
1.0
 70
     8
 71
     3
 72
    12
 73
     8
 74
     0
 42
0.000000001
 43
0.00000001
 40
0.0
 40
0.0
 40
0.0
 40
0.0
 40
0.395525001131821
 40
0.5727798989747026
 40
0.716593006957908
 40
0.8603097462559647
 40
1.0
 40
1.0
 40
1.0
 40
1.0
 10
183.689442294881
 20
64.29476955365001
 30
0.0
 10
183.8285743363127
 20
64.2488109947508
 30
0.0
 10
184.0300585317677
 20
64.1822560648526
 30
0.0
 10
184.2162523133574
 20
64.11119528660862
 30
0.0
 10
184.2897364378407
 20
64.07731782213818
 30
0.0
 10
184.3007014904576
 20
64.06260505564438
 30
0.0
 10
184.2717039952151
 20
64.06494925274059
 30
0.0
 10
184.2574112375632
 20
64.0661046987784
 30
0.0
  0
SPLINE
  5
1BD
330
1F
100
AcDbEntity
  8
0
  6
Continuous
 62
     7
370
    25
100
AcDbSpline
210
0.0
220
0.0
230
1.0
 70
     8
 71
     3
 72
    10
 73
     6
 74
     0
 42
0.000000001
 43
0.00000001
 40
0.0
 40
0.0
 40
0.0
 40
0.0
 40
0.499586777092437
 40
0.7497289403212478
 40
1.0
 40
1.0
 40
1.0
 40
1.0
 10
183.6131564359652
 20
64.31862074040659
 30
0.0
 10
183.6259719045115
 20
64.31465388869908
 30
0.0
 10
183.6452040541469
 20
64.30870084177424
 30
0.0
 10
183.6705418888054
 20
64.30074310744055
 30
0.0
 10
183.683141077756
 20
64.29676108014377
 30
0.0
 10
183.689442294881
 20
64.29476955365001
 30
0.0
  0
LINE
  5
1BE
330
1F
100
AcDbEntity
  8
0
  6
Continuous
 62
     7
370
    25
100
AcDbLine
 10
183.6908369999
 20
64.3336691318
 30
0.0
 11
183.613156436
 21
64.3186207404
 31
0.0
  0
SPLINE
  5
1BF
330
1F
100
AcDbEntity
  8
0
  6
Continuous
 62
     7
370
    25
100
AcDbSpline
210
0.0
220
0.0
230
1.0
 70
     8
 71
     3
 72
    10
 73
     6
 74
     0
 42
0.000000001
 43
0.00000001
 40
0.0
 40
0.0
 40
0.0
 40
0.0
 40
0.4966242525305326
 40
0.7481213859349453
 40
1.0
 40
1.0
 40
1.0
 40
1.0
 10
184.0004151784091
 20
64.22956633634863
 30
0.0
 10
183.9469705479495
 20
64.2469907440489
 30
0.0
 10
183.8664608450776
 20
64.27323910379249
 30
0.0
 10
183.7655184260279
 20
64.30777558888765
 30
0.0
 10
183.7157433825468
 20
64.32503359117297
 30
0.0
 10
183.6908369999289
 20
64.33366913175873
 30
0.0
  0
SPLINE
  5
1C0
330
1F
100
AcDbEntity
  8
0
  6
Continuous
 62
     7
370
    25
100
AcDbSpline
210
0.0
220
0.0
230
1.0
 70
     8
 71
     3
 72
    12
 73
     8
 74
     0
 42
0.000000001
 43
0.00000001
 40
0.0
 40
0.0
 40
0.0
 40
0.0
 40
0.2225811806893823
 40
0.4473821619582242
 40
0.6381184734765233
 40
0.8534515955624935
 40
1.0
 40
1.0
 40
1.0
 40
1.0
 10
184.9698077286482
 20
64.0086990317971
 30
0.0
 10
184.9346354648045
 20
64.00806725133278
 30
0.0
 10
184.8639401643723
 20
64.00679738966194
 30
0.0
 10
184.6588907672244
 20
64.04598078668717
 30
0.0
 10
184.4210089514303
 20
64.10436978372321
 30
0.0
 10
184.1954601210174
 20
64.16828314683775
 30
0.0
 10
184.056634380687
 20
64.21190224323614
 30
0.0
 10
184.0004151784091
 20
64.2295663363486
 30
0.0
  0
SPLINE
  5
1C1
330
1F
100
AcDbEntity
  8
0
  6
Continuous
 62
     7
370
    25
100
AcDbSpline
210
0.0
220
0.0
230
1.0
 70
     8
 71
     3
 72
    12
 73
     8
 74
     0
 42
0.000000001
 43
0.00000001
 40
0.0
 40
0.0
 40
0.0
 40
0.0
 40
0.2848562030226593
 40
0.5294458598331068
 40
0.7525912637967065
 40
0.9554412183757774
 40
1.0
 40
1.0
 40
1.0
 40
1.0
 10
184.4437603858543
 20
64.29216139784857
 30
0.0
 10
184.5551719407085
 20
64.25519030185889
 30
0.0
 10
184.7622461972254
 20
64.18647424969812
 30
0.0
 10
184.9497496473205
 20
64.09637936266657
 30
0.0
 10
185.0273043726708
 20
64.0357562044788
 30
0.0
 10
185.0069417436825
 20
64.0137019236148
 30
0.0
 10
184.9754749565613
 20
64.00946255085447
 30
0.0
 10
184.9698077286482
 20
64.0086990317971
 30
0.0
  0
SPLINE
  5
1C2
330
1F
100
AcDbEntity
  8
0
  6
Continuous
 62
     7
370
    25
100
AcDbSpline
210
0.0
220
0.0
230
1.0
 70
     8
 71
     3
 72
    11
 73
     7
 74
     0
 42
0.000000001
 43
0.00000001
 40
0.0
 40
0.0
 40
0.0
 40
0.0
 40
0.3915122078745896
 40
0.5877709513888405
 40
0.7839729939671387
 40
1.0
 40
1.0
 40
1.0
 40
1.0
 10
183.4725331245355
 20
64.48998056010934
 30
0.0
 10
183.5577573544964
 20
64.4834630131235
 30
0.0
 10
183.6857031138315
 20
64.47367832514814
 30
0.0
 10
183.9608757844534
 20
64.42211636092925
 30
0.0
 10
184.2027875598565
 20
64.36441459014648
 30
0.0
 10
184.3609014340769
 20
64.31700579161614
 30
0.0
 10
184.4437603858543
 20
64.29216139784857
 30
0.0
  0
LINE
  5
1C3
330
1F
100
AcDbEntity
  8
0
  6
Continuous
 62
     7
370
    25
100
AcDbLine
 10
183.0302476308
 20
64.6386023971
 30
0.0
 11
183.4725331245
 21
64.4899805601
 31
0.0
  0
SPLINE
  5
1C4
330
1F
100
AcDbEntity
  8
0
  6
Continuous
 62
     7
370
    25
100
AcDbSpline
210
0.0
220
0.0
230
1.0
 70
     8
 71
     3
 72
    12
 73
     8
 74
     0
 42
0.000000001
 43
0.00000001
 40
0.0
 40
0.0
 40
0.0
 40
0.0
 40
0.296111579375377
 40
0.5096630886826743
 40
0.7229094132748503
 40
0.9301778448477721
 40
1.0
 40
1.0
 40
1.0
 40
1.0
 10
184.5632630111685
 20
64.31963549953343
 30
0.0
 10
184.3865131511863
 20
64.37166801296979
 30
0.0
 10
184.0822937763384
 20
64.4612256437988
 30
0.0
 10
183.6431988312389
 20
64.55928652400502
 30
0.0
 10
183.3094177954274
 20
64.61831660956324
 30
0.0
 10
183.1215413423892
 20
64.63714654065339
 30
0.0
 10
183.0486220602556
 20
64.6383093809724
 30
0.0
 10
183.0302476308285
 20
64.6386023971233
 30
0.0
  0
SPLINE
  5
1C5
330
1F
100
AcDbEntity
  8
0
  6
Continuous
 62
     7
370
    25
100
AcDbSpline
210
0.0
220
0.0
230
1.0
 70
     8
 71
     3
 72
    12
 73
     8
 74
     0
 42
0.000000001
 43
0.00000001
 40
0.0
 40
0.0
 40
0.0
 40
0.0
 40
0.1979289068801613
 40
0.3972944321210744
 40
0.5826256190613356
 40
0.8037406290875181
 40
1.0
 40
1.0
 40
1.0
 40
1.0
 10
185.4570178464736
 20
63.85293091761665
 30
0.0
 10
185.4872929063205
 20
63.86230373922436
 30
0.0
 10
185.548062770101
 20
63.88111741276352
 30
0.0
 10
185.452343390645
 20
63.96596780316433
 30
0.0
 10
185.2497573139767
 20
64.07428458597491
 30
0.0
 10
184.9454402636666
 20
64.19735066670181
 30
0.0
 10
184.6854953149263
 20
64.28052496447685
 30
0.0
 10
184.5632630111685
 20
64.31963549953343
 30
0.0
  0
LINE
  5
1C6
330
1F
100
AcDbEntity
  8
0
  6
Continuous
 62
     7
370
    25
100
AcDbLine
 10
184.5632630112
 20
64.3196354995
 30
0.0
 11
184.5632630112
 21
64.3296354995
 31
0.0
  0
LINE
  5
1C7
330
1F
100
AcDbEntity
  8
0
  6
Continuous
 62
     7
370
    25
100
AcDbLine
 10
183.0302476308
 20
64.6386023971
 30
0.0
 11
183.0302476308
 21
64.6486023971
 31
0.0
  0
LINE
  5
1C8
330
1F
100
AcDbEntity
  8
0
  6
Continuous
 62
     7
370
    25
100
AcDbLine
 10
198.5619651607
 20
64.1426187943
 30
0.0
 11
199.0248494341
 21
64.2864967338
 31
0.0
  0
LINE
  5
1C9
330
1F
100
AcDbEntity
  8
0
  6
Continuous
 62
     7
370
    25
100
AcDbLine
 10
199.0248494341
 20
64.2864967338
 30
0.0
 11
200.0051639957
 21
64.2361643231
 31
0.0
  0
SPLINE
  5
1CA
330
1F
100
AcDbEntity
  8
0
  6
Continuous
 62
     7
370
    25
100
AcDbSpline
210
0.0
220
0.0
230
1.0
 70
     8
 71
     3
 72
    10
 73
     6
 74
     0
 42
0.000000001
 43
0.00000001
 40
0.0
 40
0.0
 40
0.0
 40
0.0
 40
0.4047562307364571
 40
0.7011301893778416
 40
1.0
 40
1.0
 40
1.0
 40
1.0
 10
200.0051639956694
 20
64.23616432311304
 30
0.0
 10
200.0893907226425
 20
64.26915697143443
 30
0.0
 10
200.2352906410352
 20
64.32630776988802
 30
0.0
 10
200.4921841855518
 20
64.42269578620012
 30
0.0
 10
200.6613759407658
 20
64.48407349264912
 30
0.0
 10
200.7463265281566
 20
64.51489102396998
 30
0.0
  0
LINE
  5
1CB
330
1F
100
AcDbEntity
  8
0
  6
Continuous
 62
     7
370
    25
100
AcDbLine
 10
200.7463265282
 20
64.514891024
 30
0.0
 11
200.895504963
 21
64.5267660045
 31
0.0
  0
SPLINE
  5
1CC
330
1F
100
AcDbEntity
  8
0
  6
Continuous
 62
     7
370
    25
100
AcDbSpline
210
0.0
220
0.0
230
1.0
 70
     8
 71
     3
 72
    10
 73
     6
 74
     0
 42
0.000000001
 43
0.00000001
 40
0.0
 40
0.0
 40
0.0
 40
0.0
 40
0.3514627194286906
 40
0.6677271013951741
 40
1.0
 40
1.0
 40
1.0
 40
1.0
 10
200.8955049629623
 20
64.52676600451618
 30
0.0
 10
200.7718595692791
 20
64.48199230247705
 30
0.0
 10
200.5369516380506
 20
64.39692890135757
 30
0.0
 10
200.2569050018399
 20
64.2909937032771
 30
0.0
 10
200.1651546496506
 20
64.25365031620889
 30
0.0
 10
200.1181470891243
 20
64.23451772994656
 30
0.0
  0
LINE
  5
1CD
330
1F
100
AcDbEntity
  8
0
  6
Continuous
 62
     7
370
    25
100
AcDbLine
 10
200.1181470891
 20
64.2345177299
 30
0.0
 11
199.8200038336
 21
64.1418902949
 31
0.0
  0
LINE
  5
1CE
330
1F
100
AcDbEntity
  8
0
  6
Continuous
 62
     7
370
    25
100
AcDbLine
 10
199.8200038336
 20
64.1418902949
 30
0.0
 11
198.5619651607
 21
64.1426187943
 31
0.0
  0
LINE
  5
1CF
330
1F
100
AcDbEntity
  8
0
  6
Continuous
 62
     7
370
    25
100
AcDbLine
 10
198.5619651607
 20
64.1426187943
 30
0.0
 11
198.5619651607
 21
64.1526187943
 31
0.0
  0
LINE
  5
1D0
330
1F
100
AcDbEntity
  8
0
  6
Continuous
 62
     7
370
    25
100
AcDbLine
 10
199.0248494341
 20
64.2864967338
 30
0.0
 11
199.0248494341
 21
64.2964967338
 31
0.0
  0
LINE
  5
1D1
330
1F
100
AcDbEntity
  8
0
  6
Continuous
 62
     7
370
    25
100
AcDbLine
 10
200.0051639957
 20
64.2361643231
 30
0.0
 11
200.0051639957
 21
64.2461643231
 31
0.0
  0
LINE
  5
1D2
330
1F
100
AcDbEntity
  8
0
  6
Continuous
 62
     7
370
    25
100
AcDbLine
 10
184.9698077286
 20
64.0086990318
 30
0.0
 11
184.9698077286
 21
64.0186990318
 31
0.0
  0
LINE
  5
1D3
330
1F
100
AcDbEntity
  8
0
  6
Continuous
 62
     7
370
    25
100
AcDbLine
 10
206.5045986945
 20
66.2606901335
 30
0.0
 11
203.5618089552
 21
65.3485366654
 31
0.0
  0
LINE
  5
1D4
330
1F
100
AcDbEntity
  8
0
  6
Continuous
 62
     7
370
    25
100
AcDbLine
 10
203.5618089552
 20
65.3485366654
 30
0.0
 11
203.5618089552
 21
65.3589888082
 31
0.0
  0
LINE
  5
1D5
330
1F
100
AcDbEntity
  8
0
  6
Continuous
 62
     7
370
    25
100
AcDbLine
 10
203.5618089552
 20
65.3485366654
 30
0.0
 11
203.6005707533
 21
65.3485366654
 31
0.0
  0
LINE
  5
1D6
330
1F
100
AcDbEntity
  8
0
  6
Continuous
 62
     7
370
    25
100
AcDbLine
 10
203.6005707533
 20
65.3485366654
 30
0.0
 11
206.5433604925
 21
66.2606901335
 31
0.0
  0
LINE
  5
1D7
330
1F
100
AcDbEntity
  8
0
  6
Continuous
 62
     7
370
    25
100
AcDbLine
 10
180.1231223733
 20
65.3485366654
 30
0.0
 11
180.1231223733
 21
65.3589888082
 31
0.0
  0
LINE
  5
1D8
330
1F
100
AcDbEntity
  8
0
  6
Continuous
 62
     7
370
    25
100
AcDbLine
 10
180.1231223733
 20
65.3485366654
 30
0.0
 11
177.1729719889
 21
66.2606901335
 31
0.0
  0
LINE
  5
1D9
330
1F
100
AcDbEntity
  8
0
  6
Continuous
 62
     7
370
    25
100
AcDbLine
 10
180.0869332523
 20
65.3485366654
 30
0.0
 11
180.1231223733
 21
65.3485366654
 31
0.0
  0
LINE
  5
1DA
330
1F
100
AcDbEntity
  8
0
  6
Continuous
 62
     7
370
    25
100
AcDbLine
 10
177.1367828679
 20
66.2606901335
 30
0.0
 11
180.0869332523
 21
65.3485366654
 31
0.0
  0
LINE
  5
1DB
330
1F
100
AcDbEntity
  8
0
  6
Continuous
 62
     7
370
    25
100
AcDbLine
 10
184.0004151784
 20
64.2295663363
 30
0.0
 11
184.0004151784
 21
64.2395663363
 31
0.0
  0
LINE
  5
1DC
330
1F
100
AcDbEntity
  8
0
  6
Continuous
 62
     7
370
    25
100
AcDbLine
 10
183.6908369999
 20
64.3336691318
 30
0.0
 11
183.6908369999
 21
64.3436691318
 31
0.0
  0
LINE
  5
1DD
330
1F
100
AcDbEntity
  8
0
  6
Continuous
 62
     7
370
    25
100
AcDbLine
 10
183.613156436
 20
64.3186207404
 30
0.0
 11
183.613156436
 21
64.3286207404
 31
0.0
  0
LINE
  5
1DE
330
1F
100
AcDbEntity
  8
0
  6
Continuous
 62
     7
370
    25
100
AcDbLine
 10
184.2574112376
 20
64.0661046988
 30
0.0
 11
184.2574112376
 21
64.0761046988
 31
0.0
  0
LINE
  5
1DF
330
1F
100
AcDbEntity
  8
0
  6
Continuous
 62
     7
370
    25
100
AcDbLine
 10
200.7463265282
 20
64.514891024
 30
0.0
 11
200.7463265282
 21
64.524891024
 31
0.0
  0
LINE
  5
1E0
330
1F
100
AcDbEntity
  8
0
  6
Continuous
 62
     7
370
    25
100
AcDbLine
 10
206.7645377137
 20
66.2606901335
 30
0.0
 11
203.7720887522
 21
65.3485366654
 31
0.0
  0
LINE
  5
1E1
330
1F
100
AcDbEntity
  8
0
  6
Continuous
 62
     7
370
    25
100
AcDbLine
 10
203.7720887522
 20
65.3485366654
 30
0.0
 11
203.7720887522
 21
65.3589888082
 31
0.0
  0
LINE
  5
1E2
330
1F
100
AcDbEntity
  8
0
  6
Continuous
 62
     7
370
    25
100
AcDbLine
 10
203.7720887522
 20
65.3485366654
 30
0.0
 11
203.7859535368
 21
65.3485366654
 31
0.0
  0
LINE
  5
1E3
330
1F
100
AcDbEntity
  8
0
  6
Continuous
 62
     7
370
    25
100
AcDbLine
 10
203.7859535368
 20
65.3485366654
 30
0.0
 11
206.7784024983
 21
66.2606901335
 31
0.0
  0
LINE
  5
1E4
330
1F
100
AcDbEntity
  8
0
  6
Continuous
 62
     7
370
    25
100
AcDbLine
 10
200.895504963
 20
64.5267660045
 30
0.0
 11
200.895504963
 21
64.5367660045
 31
0.0
  0
LINE
  5
1E5
330
1F
100
AcDbEntity
  8
0
  6
Continuous
 62
     7
370
    25
100
AcDbLine
 10
179.9210682074
 20
65.3485366654
 30
0.0
 11
179.9323190922
 21
65.3485366654
 31
0.0
  0
LINE
  5
1E6
330
1F
100
AcDbEntity
  8
0
  6
Continuous
 62
     7
370
    25
100
AcDbLine
 10
176.9261527314
 20
66.2606901335
 30
0.0
 11
179.9210682074
 21
65.3485366654
 31
0.0
  0
LINE
  5
1E7
330
1F
100
AcDbEntity
  8
0
  6
Continuous
 62
     7
370
    25
100
AcDbLine
 10
179.9323190922
 20
65.3485366654
 30
0.0
 11
176.9374036162
 21
66.2606901335
 31
0.0
  0
LINE
  5
1E8
330
1F
100
AcDbEntity
  8
0
  6
Continuous
 62
     7
370
    25
100
AcDbLine
 10
179.9323190922
 20
65.3485366654
 30
0.0
 11
179.9323190922
 21
65.3589888082
 31
0.0
  0
LINE
  5
1E9
330
1F
100
AcDbEntity
  8
0
  6
Continuous
 62
     7
370
    25
100
AcDbLine
 10
182.9895762445
 20
64.4742016046
 30
0.0
 11
182.9895762445
 21
64.4842016046
 31
0.0
  0
LINE
  5
1EA
330
1F
100
AcDbEntity
  8
0
  6
Continuous
 62
     7
370
    25
100
AcDbLine
 10
182.5019764837
 20
64.6233139163
 30
0.0
 11
182.5019764837
 21
64.6333139163
 31
0.0
  0
LINE
  5
1EB
330
1F
100
AcDbEntity
  8
0
  6
Continuous
 62
     7
370
    25
100
AcDbLine
 10
183.4551102969
 20
64.2891216218
 30
0.0
 11
183.4551102969
 21
64.2991216218
 31
0.0
  0
LINE
  5
1EC
330
1F
100
AcDbEntity
  8
0
  6
Continuous
 62
     7
370
    25
100
AcDbLine
 10
203.7944726319
 20
65.3485366654
 30
0.0
 11
203.7944726319
 21
65.3511334422
 31
0.0
  0
LINE
  5
1ED
330
1F
100
AcDbEntity
  8
0
  6
Continuous
 62
     7
370
    25
100
AcDbLine
 10
206.7893881079
 20
66.2606901335
 30
0.0
 11
203.7944726319
 21
65.3485366654
 31
0.0
  0
LINE
  5
1EE
330
1F
100
AcDbEntity
  8
0
  6
Continuous
 62
     7
370
    25
100
AcDbLine
 10
203.7944726319
 20
65.3485366654
 30
0.0
 11
203.7859535368
 21
65.3485366654
 31
0.0
  0
LINE
  5
1EF
330
1F
100
AcDbEntity
  8
0
  6
Continuous
 62
     7
370
    25
100
AcDbLine
 10
179.9417234866
 20
65.3485366654
 30
0.0
 11
179.9323190922
 21
65.3485366654
 31
0.0
  0
LINE
  5
1F0
330
1F
100
AcDbEntity
  8
0
  6
Continuous
 62
     7
370
    25
100
AcDbLine
 10
194.7033587882
 20
98.2505896386
 30
0.0
 11
193.7012427797
 21
100.9578201125
 31
0.0
  0
LINE
  5
1F1
330
1F
100
AcDbEntity
  8
0
  6
Continuous
 62
     7
370
    25
100
AcDbLine
 10
189.0121820511
 20
99.2221042709
 30
0.0
 11
190.8556544112
 21
101.4435774287
 31
0.0
  0
LINE
  5
1F2
330
1F
100
AcDbEntity
  8
0
  6
Continuous
 62
     7
370
    25
100
AcDbLine
 10
192.859886428
 20
96.0291164808
 30
0.0
 11
190.0142980595
 21
96.5148737969
 31
0.0
  0
LINE
  5
1F3
330
1F
100
AcDbEntity
  8
0
  6
Continuous
 62
     7
370
    25
100
AcDbLine
 10
192.859886428
 20
96.0291164808
 30
0.0
 11
194.7033587882
 21
98.2505896386
 31
0.0
  0
CIRCLE
  5
1F4
330
1F
100
AcDbEntity
  8
0
  6
Continuous
 62
     7
370
    25
100
AcDbCircle
 10
191.8577704196
 20
98.7363469547
 30
0.0
 40
4.171999999999989
  0
LINE
  5
1F5
330
1F
100
AcDbEntity
  8
0
  6
Continuous
 62
     7
370
    25
100
AcDbLine
 10
190.8556544112
 20
101.4435774287
 30
0.0
 11
193.7012427797
 21
100.9578201125
 31
0.0
  0
LINE
  5
1F6
330
1F
100
AcDbEntity
  8
0
  6
Continuous
 62
     7
370
    25
100
AcDbLine
 10
189.0121820511
 20
99.2221042709
 30
0.0
 11
190.0142980595
 21
96.5148737969
 31
0.0
  0
LINE
  5
1F7
330
1F
100
AcDbEntity
  8
0
  6
Continuous
 62
     7
370
    25
100
AcDbLine
 10
186.3577704196
 20
139.6411422764
 30
0.0
 11
197.3577704196
 21
139.6411422764
 31
0.0
  0
LINE
  5
1F8
330
1F
100
AcDbEntity
  8
0
  6
Continuous
 62
     7
370
    25
100
AcDbLine
 10
113.3577704196
 20
116.6570485271
 30
0.0
 11
113.3577704196
 21
123.3363469547
 31
0.0
  0
LINE
  5
1F9
330
1F
100
AcDbEntity
  8
0
  6
Continuous
 62
     7
370
    25
100
AcDbLine
 10
113.6577704196
 20
123.6363469547
 30
0.0
 11
113.6577704196
 21
116.5698428212
 31
0.0
  0
LINE
  5
1FA
330
1F
100
AcDbEntity
  8
0
  6
Continuous
 62
     7
370
    25
100
AcDbLine
 10
113.3577704196
 20
116.5151856644
 30
0.0
 11
113.3577704196
 21
116.6570485271
 31
0.0
  0
LINE
  5
1FB
330
1F
100
AcDbEntity
  8
0
  6
Continuous
 62
     7
370
    25
100
AcDbLine
 10
113.6577704196
 20
116.5698428212
 30
0.0
 11
113.6577704196
 21
116.2151856644
 31
0.0
  0
LINE
  5
1FC
330
1F
100
AcDbEntity
  8
0
  6
Continuous
 62
     7
370
    25
100
AcDbLine
 10
113.3577704196
 20
74.1363469547
 30
0.0
 11
113.3577704196
 21
80.8156453824
 31
0.0
  0
LINE
  5
1FD
330
1F
100
AcDbEntity
  8
0
  6
Continuous
 62
     7
370
    25
100
AcDbLine
 10
113.6577704196
 20
80.9028510883
 30
0.0
 11
113.6577704196
 21
73.8363469547
 31
0.0
  0
LINE
  5
1FE
330
1F
100
AcDbEntity
  8
0
  6
Continuous
 62
     7
370
    25
100
AcDbLine
 10
113.6577704196
 20
81.2575082451
 30
0.0
 11
113.6577704196
 21
80.9028510883
 31
0.0
  0
LINE
  5
1FF
330
1F
100
AcDbEntity
  8
0
  6
Continuous
 62
     7
370
    25
100
AcDbLine
 10
113.3577704196
 20
80.8156453824
 30
0.0
 11
113.3577704196
 21
80.9575082451
 31
0.0
  0
ARC
  5
200
330
1F
100
AcDbEntity
  8
0
  6
Continuous
 62
     7
370
    25
100
AcDbCircle
 10
213.5129372107
 20
136.4961838854
 30
0.0
 40
1.673770829421587
100
AcDbArc
 50
301.3764572948
 51
359.9938042734
  0
ARC
  5
201
330
1F
100
AcDbEntity
  8
0
  6
Continuous
 62
     7
370
    25
100
AcDbCircle
 10
213.5129022473
 20
136.4958093976
 30
0.0
 40
1.673805794288945
100
AcDbArc
 50
0.0066234346
 51
60.1304915257
  0
ARC
  5
202
330
1F
100
AcDbEntity
  8
0
  6
Continuous
 62
     7
370
    25
100
AcDbCircle
 10
213.5117069104
 20
136.4941145523
 30
0.0
 40
1.675870819828956
100
AcDbArc
 50
60.1239111325
 51
118.6904281253
  0
LINE
  5
203
330
1F
100
AcDbEntity
  8
0
  6
Continuous
 62
     7
370
    25
100
AcDbLine
 10
212.6336978668
 20
137.9215711674
 30
0.0
 11
212.7071599519
 21
137.9642326415
 31
0.0
  0
ARC
  5
204
330
1F
100
AcDbEntity
  8
0
  6
Continuous
 62
     7
370
    25
100
AcDbCircle
 10
213.5105031679
 20
136.495799756
 30
0.0
 40
1.673801557374648
100
AcDbArc
 50
121.5902293389
 51
178.0499595078
  0
LINE
  5
205
330
1F
100
AcDbEntity
  8
0
  6
Continuous
 62
     7
370
    25
100
AcDbLine
 10
211.8378939976
 20
136.433020778
 30
0.0
 11
211.8376709459
 21
136.5527559705
 31
0.0
  0
ARC
  5
206
330
1F
100
AcDbEntity
  8
0
  6
Continuous
 62
     7
370
    25
100
AcDbCircle
 10
213.5104963373
 20
136.4962049028
 30
0.0
 40
1.673795334088501
100
AcDbArc
 50
182.1633732332
 51
237.9737417271
  0
LINE
  5
207
330
1F
100
AcDbEntity
  8
0
  6
Continuous
 62
     7
370
    25
100
AcDbLine
 10
212.726626794
 20
135.017285212
 30
0.0
 11
212.62286951
 21
135.0771526008
 31
0.0
  0
ARC
  5
208
330
1F
100
AcDbEntity
  8
0
  6
Continuous
 62
     7
370
    25
100
AcDbCircle
 10
213.5117075531
 20
136.497902309
 30
0.0
 40
1.675881495211116
100
AcDbArc
 50
242.0657257919
 51
298.4770973738
  0
LINE
  5
209
330
1F
100
AcDbEntity
  8
0
  6
Continuous
 62
     7
370
    25
100
AcDbLine
 10
214.3844008324
 20
135.0671772565
 30
0.0
 11
214.3107803117
 21
135.0247894442
 31
0.0
  0
CIRCLE
  5
20A
330
1F
100
AcDbEntity
  8
0
  6
Continuous
 62
     7
370
    25
100
AcDbCircle
 10
213.5114798575
 20
136.4967689536
 30
0.0
 40
1.799669565881608
  0
CIRCLE
  5
20B
330
1F
100
AcDbEntity
  8
0
  6
Continuous
 62
     7
370
    25
100
AcDbCircle
 10
213.5114321996
 20
136.4874383784
 30
0.0
 40
2.624449145071683
  0
SPLINE
  5
20C
330
1F
100
AcDbEntity
  8
0
  6
Continuous
 62
     7
370
    25
100
AcDbSpline
210
0.0
220
0.0
230
1.0
 70
     8
 71
     3
 72
    11
 73
     7
 74
     0
 42
0.000000001
 43
0.00000001
 40
0.0
 40
0.0
 40
0.0
 40
0.0
 40
0.2657596322625151
 40
0.5530029385954641
 40
0.8418208483438079
 40
1.0
 40
1.0
 40
1.0
 40
1.0
 10
212.726626794016
 20
135.0172852120494
 30
0.0
 10
212.7602931431866
 20
135.008519888438
 30
0.0
 10
212.8303473868075
 20
134.9902806634904
 30
0.0
 10
212.940671599418
 20
135.0068501764619
 30
0.0
 10
213.0274954721008
 20
135.0486530554118
 30
0.0
 10
213.0690767422111
 20
135.0880629280819
 30
0.0
 10
213.0837911343151
 20
135.1020089263088
 30
0.0
  0
SPLINE
  5
20D
330
1F
100
AcDbEntity
  8
0
  6
Continuous
 62
     7
370
    25
100
AcDbSpline
210
0.0
220
0.0
230
1.0
 70
     8
 71
     3
 72
    12
 73
     8
 74
     0
 42
0.000000001
 43
0.00000001
 40
0.0
 40
0.0
 40
0.0
 40
0.0
 40
0.205790461420417
 40
0.4120344203360554
 40
0.6141302471427758
 40
0.8132633242113014
 40
1.0
 40
1.0
 40
1.0
 40
1.0
 10
213.0837911343151
 20
135.1020089263089
 30
0.0
 10
213.1330568281531
 20
135.1448856317703
 30
0.0
 10
213.2316967819337
 20
135.2307335294755
 30
0.0
 10
213.4241354059686
 20
135.2895395233189
 30
0.0
 10
213.6204218452161
 20
135.2855006175297
 30
0.0
 10
213.801895635061
 20
135.2228126400481
 30
0.0
 10
213.8935431265874
 20
135.1419361213789
 30
0.0
 10
213.9378947446795
 20
135.1027969762818
 30
0.0
  0
SPLINE
  5
20E
330
1F
100
AcDbEntity
  8
0
  6
Continuous
 62
     7
370
    25
100
AcDbSpline
210
0.0
220
0.0
230
1.0
 70
     8
 71
     3
 72
    11
 73
     7
 74
     0
 42
0.000000001
 43
0.00000001
 40
0.0
 40
0.0
 40
0.0
 40
0.0
 40
0.2802371411013054
 40
0.5612869875923858
 40
0.8399906057824063
 40
1.0
 40
1.0
 40
1.0
 40
1.0
 10
213.9378947446795
 20
135.1027969762818
 30
0.0
 10
213.966434337043
 20
135.0780993999552
 30
0.0
 10
214.0235962883885
 20
135.0286326227724
 30
0.0
 10
214.1347869971498
 20
134.9960093773395
 30
0.0
 10
214.2340958379985
 20
134.9978023523055
 30
0.0
 10
214.2902862796317
 20
135.0175771064199
 30
0.0
 10
214.3107803116579
 20
135.0247894441832
 30
0.0
  0
LINE
  5
20F
330
1F
100
AcDbEntity
  8
0
  6
Continuous
 62
     7
370
    25
100
AcDbLine
 10
212.5045475438
 20
135.2836286253
 30
0.0
 11
212.5186819284
 21
135.3798521458
 31
0.0
  0
SPLINE
  5
210
330
1F
100
AcDbEntity
  8
0
  6
Continuous
 62
     7
370
    25
100
AcDbSpline
210
0.0
220
0.0
230
1.0
 70
     8
 71
     3
 72
    11
 73
     7
 74
     0
 42
0.000000001
 43
0.00000001
 40
0.0
 40
0.0
 40
0.0
 40
0.0
 40
0.2928993220619802
 40
0.5864344719079577
 40
0.8775178868033046
 40
1.0
 40
1.0
 40
1.0
 40
1.0
 10
212.5186819283926
 20
135.4273778494352
 30
0.0
 10
212.5113771848555
 20
135.3904033643335
 30
0.0
 10
212.4967518405957
 20
135.3163741296735
 30
0.0
 10
212.5237010151166
 20
135.2039574764614
 30
0.0
 10
212.5718104337168
 20
135.1242708098584
 30
0.0
 10
212.6112029657102
 20
135.0879186920411
 30
0.0
 10
212.6228695100303
 20
135.0771526008004
 30
0.0
  0
SPLINE
  5
211
330
1F
100
AcDbEntity
  8
0
  6
Continuous
 62
     7
370
    25
100
AcDbSpline
210
0.0
220
0.0
230
1.0
 70
     8
 71
     3
 72
    11
 73
     7
 74
     0
 42
0.000000001
 43
0.00000001
 40
0.0
 40
0.0
 40
0.0
 40
0.0
 40
0.2669010467950237
 40
0.5546143410792361
 40
0.8439070439785844
 40
1.0
 40
1.0
 40
1.0
 40
1.0
 10
211.8378939976225
 20
136.4330207779877
 30
0.0
 10
211.8472667473105
 20
136.3994056092635
 30
0.0
 10
211.8667431092608
 20
136.3295540486342
 30
0.0
 10
211.936866810607
 20
136.2422866976997
 30
0.0
 10
212.016759722925
 20
136.1882302752308
 30
0.0
 10
212.0716894259996
 20
136.1719207166681
 30
0.0
 10
212.090940471817
 20
136.1662047553288
 30
0.0
  0
SPLINE
  5
212
330
1F
100
AcDbEntity
  8
0
  6
Continuous
 62
     7
370
    25
100
AcDbSpline
210
0.0
220
0.0
230
1.0
 70
     8
 71
     3
 72
    12
 73
     8
 74
     0
 42
0.000000001
 43
0.00000001
 40
0.0
 40
0.0
 40
0.0
 40
0.0
 40
0.2058401281337984
 40
0.4120619935509807
 40
0.6141387330969476
 40
0.8132772113524539
 40
0.9999999999999999
 40
0.9999999999999999
 40
0.9999999999999999
 40
0.9999999999999999
 10
212.090940471817
 20
136.1662047553288
 30
0.0
 10
212.1530400585732
 20
136.1448263877593
 30
0.0
 10
212.2773543978103
 20
136.1020300057351
 30
0.0
 10
212.4250035680001
 20
135.9645880886737
 30
0.0
 10
212.5195988943536
 20
135.7927116957212
 30
0.0
 10
212.5555052485771
 20
135.604605505353
 30
0.0
 10
212.5306902142774
 20
135.4851727562574
 30
0.0
 10
212.5186819283926
 20
135.4273778494352
 30
0.0
  0
LINE
  5
213
330
1F
100
AcDbEntity
  8
0
  6
Continuous
 62
     7
370
    25
100
AcDbLine
 10
214.5023958766
 20
135.3817005751
 30
0.0
 11
214.5167103601
 21
135.2848792558
 31
0.0
  0
SPLINE
  5
214
330
1F
100
AcDbEntity
  8
0
  6
Continuous
 62
     7
370
    25
100
AcDbSpline
210
0.0
220
0.0
230
1.0
 70
     8
 71
     3
 72
    11
 73
     7
 74
     0
 42
0.000000001
 43
0.00000001
 40
0.0
 40
0.0
 40
0.0
 40
0.0
 40
0.2423611237745077
 40
0.5166847928458298
 40
0.7923341374633371
 40
0.9999999999999999
 40
0.9999999999999999
 40
0.9999999999999999
 40
0.9999999999999999
 10
214.3844008323593
 20
135.0671772564686
 30
0.0
 10
214.4089765764394
 20
135.0893893846935
 30
0.0
 10
214.4613691097024
 20
135.1367429729746
 30
0.0
 10
214.5080862560871
 20
135.2357984493989
 30
0.0
 10
214.5227639386555
 20
135.3387424921872
 30
0.0
 10
214.5085172471329
 20
135.4020198061984
 30
0.0
 10
214.5023958765666
 20
135.4292081458133
 30
0.0
  0
SPLINE
  5
215
330
1F
100
AcDbEntity
  8
0
  6
Continuous
 62
     7
370
    25
100
AcDbSpline
210
0.0
220
0.0
230
1.0
 70
     8
 71
     3
 72
    12
 73
     8
 74
     0
 42
0.000000001
 43
0.00000001
 40
0.0
 40
0.0
 40
0.0
 40
0.0
 40
0.2058585741213882
 40
0.4121026961456907
 40
0.6141937841967314
 40
0.813318096741633
 40
0.9999999999999999
 40
0.9999999999999999
 40
0.9999999999999999
 40
0.9999999999999999
 10
214.5023958765666
 20
135.4292081458133
 30
0.0
 10
214.4895759620845
 20
135.4931370495103
 30
0.0
 10
214.4639121229903
 20
135.6211145879132
 30
0.0
 10
214.5087235179441
 20
135.8168138503435
 30
0.0
 10
214.6104163594024
 20
135.9846853142825
 30
0.0
 10
214.7559704383238
 20
136.1106651911132
 30
0.0
 10
214.8724139500751
 20
136.1498584559205
 30
0.0
 10
214.9287580303554
 20
136.1688230888617
 30
0.0
  0
SPLINE
  5
216
330
1F
100
AcDbEntity
  8
0
  6
Continuous
 62
     7
370
    25
100
AcDbSpline
210
0.0
220
0.0
230
1.0
 70
     8
 71
     3
 72
    11
 73
     7
 74
     0
 42
0.000000001
 43
0.00000001
 40
0.0
 40
0.0
 40
0.0
 40
0.0
 40
0.2524782265335813
 40
0.5068902417933493
 40
0.7591786113117137
 40
1.0
 40
1.0
 40
1.0
 40
1.0
 10
214.9287580303554
 20
136.1688230888617
 30
0.0
 10
214.9644461312723
 20
136.1812017878203
 30
0.0
 10
215.036095676468
 20
136.2060539970361
 30
0.0
 10
215.1201911824647
 20
136.2859060781911
 30
0.0
 10
215.1763004646104
 20
136.3857112950279
 30
0.0
 10
215.183293044568
 20
136.459813426222
 30
0.0
 10
215.1867080303553
 20
136.4960028908229
 30
0.0
  0
ARC
  5
217
330
1F
100
AcDbEntity
  8
0
  6
Continuous
 62
     7
370
    25
100
AcDbCircle
 10
212.1672214267
 20
136.444571112
 30
0.0
 40
0.3348390365322701
100
AcDbArc
 50
103.2752789134
 51
179.9878127923
  0
SPLINE
  5
218
330
1F
100
AcDbEntity
  8
0
  6
Continuous
 62
     7
370
    25
100
AcDbSpline
210
0.0
220
0.0
230
1.0
 70
     8
 71
     3
 72
    11
 73
     7
 74
     0
 42
0.000000001
 43
0.00000001
 40
0.0
 40
0.0
 40
0.0
 40
0.0
 40
0.2908641666076333
 40
0.5839560789892129
 40
0.8745988053617678
 40
1.0
 40
1.0
 40
1.0
 40
1.0
 10
212.0903323977816
 20
136.8179848579433
 30
0.0
 10
212.0546565190148
 20
136.8060036630656
 30
0.0
 10
211.9830315178258
 20
136.7819495086333
 30
0.0
 10
211.8987243699472
 20
136.7029320492741
 30
0.0
 10
211.8531632067568
 20
136.6212809093998
 30
0.0
 10
211.8412590252044
 20
136.5686266634882
 30
0.0
 10
211.8376709458876
 20
136.5527559704998
 30
0.0
  0
LWPOLYLINE
  5
219
330
1F
100
AcDbEntity
  8
0
  6
Continuous
 62
     7
370
    25
100
AcDbPolyline
 90
        3
 70
   128
 43
0.0
 10
212.5186819284
 20
135.3798521458
 10
212.541173883
 20
135.4970383838
 10
212.5434171014
 20
135.5482433066
  0
LWPOLYLINE
  5
21A
330
1F
100
AcDbEntity
  8
0
  6
Continuous
 62
     7
370
    25
100
AcDbPolyline
 90
        3
 70
   128
 43
0.0
 10
214.4773455304
 20
135.5511378838
 10
214.4796853061
 20
135.4988446932
 10
214.5023958766
 20
135.3817005751
  0
SPLINE
  5
21B
330
1F
100
AcDbEntity
  8
0
  6
Continuous
 62
     7
370
    25
100
AcDbSpline
210
0.0
220
0.0
230
1.0
 70
     8
 71
     3
 72
    11
 73
     7
 74
     0
 42
0.000000001
 43
0.00000001
 40
0.0
 40
0.0
 40
0.0
 40
0.0
 40
0.2431090893443287
 40
0.518279365562274
 40
0.7947794085752037
 40
1.0
 40
1.0
 40
1.0
 40
1.0
 10
212.6336978668161
 20
137.9215711673548
 30
0.0
 10
212.6092053605736
 20
137.8991987101903
 30
0.0
 10
212.5569902803779
 20
137.8515033198757
 30
0.0
 10
212.5106404734856
 20
137.751639528211
 30
0.0
 10
212.4964175718462
 20
137.6482115153254
 30
0.0
 10
212.5106368953771
 20
137.5846696507551
 30
0.0
 10
212.5166945515704
 20
137.5575998138099
 30
0.0
  0
SPLINE
  5
21C
330
1F
100
AcDbEntity
  8
0
  6
Continuous
 62
     7
370
    25
100
AcDbSpline
210
0.0
220
0.0
230
1.0
 70
     8
 71
     3
 72
    12
 73
     8
 74
     0
 42
0.000000001
 43
0.00000001
 40
0.0
 40
0.0
 40
0.0
 40
0.0
 40
0.2058179564998932
 40
0.4120215045907401
 40
0.6140779969167939
 40
0.8132130006453775
 40
1.0
 40
1.0
 40
1.0
 40
1.0
 10
212.5166945515704
 20
137.5575998138099
 30
0.0
 10
212.5295135134793
 20
137.4929993608696
 30
0.0
 10
212.5551754531022
 20
137.3636774286613
 30
0.0
 10
212.5103851603065
 20
137.1669077064881
 30
0.0
 10
212.4087257621151
 20
136.9991254518748
 30
0.0
 10
212.2631789057068
 20
136.8742675407941
 30
0.0
 10
212.1467056701186
 20
136.8363412542992
 30
0.0
 10
212.0903323977816
 20
136.8179848579434
 30
0.0
  0
ARC
  5
21D
330
1F
100
AcDbEntity
  8
0
  6
Continuous
 62
     7
370
    25
100
AcDbCircle
 10
214.8518979646
 20
136.447095504
 30
0.0
 40
0.3348100691834673
100
AcDbArc
 50
0.0082298468
 51
76.8355350796
  0
SPLINE
  5
21E
330
1F
100
AcDbEntity
  8
0
  6
Continuous
 62
     7
370
    25
100
AcDbSpline
210
0.0
220
0.0
230
1.0
 70
     8
 71
     3
 72
    12
 73
     8
 74
     0
 42
0.000000001
 43
0.00000001
 40
0.0
 40
0.0
 40
0.0
 40
0.0
 40
0.0091681771491529
 40
0.2573268097002525
 40
0.5054934687429575
 40
0.7549925359452915
 40
1.0
 40
1.0
 40
1.0
 40
1.0
 10
215.1867080303553
 20
136.4960028908229
 30
0.0
 10
215.1867025110542
 20
136.4973747054746
 30
0.0
 10
215.1865475986717
 20
136.5358779632201
 30
0.0
 10
215.1726896821513
 20
136.6120136607795
 30
0.0
 10
215.1168226929274
 20
136.7098810434784
 30
0.0
 10
215.0328282009382
 20
136.7859623242013
 30
0.0
 10
214.9628307756394
 20
136.8091263620562
 30
0.0
 10
214.92814995632
 20
136.8206031814982
 30
0.0
  0
SPLINE
  5
21F
330
1F
100
AcDbEntity
  8
0
  6
Continuous
 62
     7
370
    25
100
AcDbSpline
210
0.0
220
0.0
230
1.0
 70
     8
 71
     3
 72
    12
 73
     8
 74
     0
 42
0.000000001
 43
0.00000001
 40
0.0
 40
0.0
 40
0.0
 40
0.0
 40
0.2058435564095132
 40
0.4120691620553122
 40
0.6141397217727085
 40
0.8132604579561326
 40
0.9999999999999999
 40
0.9999999999999999
 40
0.9999999999999999
 40
0.9999999999999999
 10
214.92814995632
 20
136.8206031814982
 30
0.0
 10
214.8660497402445
 20
136.8413002218872
 30
0.0
 10
214.7417340490078
 20
136.8827327167338
 30
0.0
 10
214.5940850301209
 20
137.0190800543625
 30
0.0
 10
214.4994930439853
 20
137.1910345178905
 30
0.0
 10
214.4635855023522
 20
137.3802947544967
 30
0.0
 10
214.4883995723465
 20
137.5010094437862
 30
0.0
 10
214.5004084997444
 20
137.5594300873919
 30
0.0
  0
SPLINE
  5
220
330
1F
100
AcDbEntity
  8
0
  6
Continuous
 62
     7
370
    25
100
AcDbSpline
210
0.0
220
0.0
230
1.0
 70
     8
 71
     3
 72
    11
 73
     7
 74
     0
 42
0.000000001
 43
0.00000001
 40
0.0
 40
0.0
 40
0.0
 40
0.0
 40
0.2535086227484052
 40
0.5075674742604934
 40
0.7595056251924953
 40
1.0
 40
1.0
 40
1.0
 40
1.0
 10
214.5004084997444
 20
137.5594300873918
 30
0.0
 10
214.5077190019792
 20
137.5968176775481
 30
0.0
 10
214.5223558735563
 20
137.6716740058993
 30
0.0
 10
214.4953193245118
 20
137.7847605073708
 30
0.0
 10
214.436948714957
 20
137.8832577203677
 30
0.0
 10
214.3761798956981
 20
137.9262657502362
 30
0.0
 10
214.3465015977962
 20
137.9472700273996
 30
0.0
  0
ARC
  5
221
330
1F
100
AcDbEntity
  8
0
  6
Continuous
 62
     7
370
    25
100
AcDbCircle
 10
211.9558123292
 20
137.3407443968
 30
0.0
 40
0.5859325765063808
100
AcDbArc
 50
283.2725134102
 51
359.9905782955
  0
ARC
  5
222
330
1F
100
AcDbEntity
  8
0
  6
Continuous
 62
     7
370
    25
100
AcDbCircle
 10
215.0616588309
 20
137.3436806339
 30
0.0
 40
0.5859855203625187
100
AcDbArc
 50
180.0134942174
 51
256.830270709
  0
ARC
  5
223
330
1F
100
AcDbEntity
  8
0
  6
Continuous
 62
     7
370
    25
100
AcDbCircle
 10
212.8373922279
 20
137.6067360271
 30
0.0
 40
0.3350122033195774
100
AcDbArc
 50
43.302319008
 51
179.9708149073
  0
SPLINE
  5
224
330
1F
100
AcDbEntity
  8
0
  6
Continuous
 62
     7
370
    25
100
AcDbSpline
210
0.0
220
0.0
230
1.0
 70
     8
 71
     3
 72
    11
 73
     7
 74
     0
 42
0.000000001
 43
0.00000001
 40
0.0
 40
0.0
 40
0.0
 40
0.0
 40
0.2794069064555805
 40
0.5596240257156159
 40
0.8375007392219621
 40
1.0
 40
1.0
 40
1.0
 40
1.0
 10
213.0811956834575
 20
137.8840109833414
 30
0.0
 10
213.0526534502579
 20
137.9091088629005
 30
0.0
 10
212.9954862182495
 20
137.9593773998309
 30
0.0
 10
212.8842882469845
 20
137.9928616988303
 30
0.0
 10
212.7845519312324
 20
137.9915539287853
 30
0.0
 10
212.7280202206228
 20
137.9715968335267
 30
0.0
 10
212.7071599518501
 20
137.9642326415267
 30
0.0
  0
SPLINE
  5
225
330
1F
100
AcDbEntity
  8
0
  6
Continuous
 62
     7
370
    25
100
AcDbSpline
210
0.0
220
0.0
230
1.0
 70
     8
 71
     3
 72
    12
 73
     8
 74
     0
 42
0.000000001
 43
0.00000001
 40
0.0
 40
0.0
 40
0.0
 40
0.0
 40
0.0091735205190007
 40
0.2576775215525081
 40
0.5061895192299419
 40
0.7560357430219053
 40
1.0
 40
1.0
 40
1.0
 40
1.0
 10
214.3465015977962
 20
137.9472700273996
 30
0.0
 10
214.3453097606259
 20
137.9479483780051
 30
0.0
 10
214.3118319210657
 20
137.9670027533019
 30
0.0
 10
214.2388216986377
 20
137.9929069561266
 30
0.0
 10
214.1258357112362
 20
137.9931392358703
 30
0.0
 10
214.0178061656563
 20
137.9581283650701
 30
0.0
 10
213.9625823202699
 20
137.9090472607087
 30
0.0
 10
213.9352992938219
 20
137.8847990204962
 30
0.0
  0
SPLINE
  5
226
330
1F
100
AcDbEntity
  8
0
  6
Continuous
 62
     7
370
    25
100
AcDbSpline
210
0.0
220
0.0
230
1.0
 70
     8
 71
     3
 72
    12
 73
     8
 74
     0
 42
0.000000001
 43
0.00000001
 40
0.0
 40
0.0
 40
0.0
 40
0.0
 40
0.2057532787804111
 40
0.4119604088044625
 40
0.6140154573249064
 40
0.813141468404098
 40
1.0
 40
1.0
 40
1.0
 40
1.0
 10
213.9352992938219
 20
137.8847990204962
 30
0.0
 10
213.886041270154
 20
137.8412463740202
 30
0.0
 10
213.7874165693114
 20
137.7540450125005
 30
0.0
 10
213.5950094802664
 20
137.694138137674
 30
0.0
 10
213.3987511106664
 20
137.6982342396877
 30
0.0
 10
213.2172525585553
 20
137.762052760321
 30
0.0
 10
213.1255767522636
 20
137.8442288239802
 30
0.0
 10
213.0811956834575
 20
137.8840109833414
 30
0.0
  0
ARC
  5
227
330
1F
100
AcDbEntity
  8
0
  6
Continuous
 62
     7
370
    25
100
AcDbCircle
 10
214.179530547
 20
137.6079864027
 30
0.0
 40
0.3350123808868274
100
AcDbArc
 50
0.0292286552
 51
136.8044317401
  0
ARC
  5
228
330
1F
100
AcDbEntity
  8
0
  6
Continuous
 62
     7
370
    25
100
AcDbCircle
 10
213.5078729239
 20
138.2388801325
 30
0.0
 40
0.5864814508467815
100
AcDbArc
 50
223.3210758224
 51
316.7857008272
  0
ARC
  5
229
330
1F
100
AcDbEntity
  8
0
  6
Continuous
 62
     7
370
    25
100
AcDbCircle
 10
213.5125073264
 20
136.4619031773
 30
0.0
 40
2.624200825867373
100
AcDbArc
 50
269.9825484818
 51
359.9825378443
  0
ARC
  5
22A
330
1F
100
AcDbEntity
  8
0
  6
Continuous
 62
     7
370
    25
100
AcDbCircle
 10
213.5109087343
 20
136.4619031773
 30
0.0
 40
2.624200825867349
100
AcDbArc
 50
180.0174621557
 51
270.0174515182
  0
LINE
  5
22B
330
1F
100
AcDbEntity
  8
0
  6
Continuous
 62
     7
370
    25
100
AcDbLine
 10
217.9577704196
 20
132.9291260906
 30
0.0
 11
218.0272296907
 21
132.5435026502
 31
0.0
  0
LINE
  5
22C
330
1F
100
AcDbEntity
  8
0
  6
Continuous
 62
     7
370
    25
100
AcDbLine
 10
209.3022296907
 20
131.0059869275
 30
0.0
 11
218.0272296907
 21
132.5435026502
 31
0.0
  0
LINE
  5
22D
330
1F
100
AcDbEntity
  8
0
  6
Continuous
 62
     7
370
    25
100
AcDbLine
 10
209.2327704196
 20
131.3916103678
 30
0.0
 11
209.3022296907
 21
131.0059869275
 31
0.0
  0
LINE
  5
22E
330
1F
100
AcDbEntity
  8
0
  6
Continuous
 62
     7
370
    25
100
AcDbLine
 10
209.5255907426
 20
131.7344673517
 30
0.0
 11
209.2327704196
 21
131.3916103678
 31
0.0
  0
LINE
  5
22F
330
1F
100
AcDbEntity
  8
0
  6
Continuous
 62
     7
370
    25
100
AcDbLine
 10
209.5255907426
 20
131.7344673517
 30
0.0
 11
209.6366013091
 21
131.7540295857
 31
0.0
  0
LINE
  5
230
330
1F
100
AcDbEntity
  8
0
  6
Continuous
 62
     7
370
    25
100
AcDbLine
 10
217.8081280528
 20
133.0515992756
 30
0.0
 11
217.9577704196
 21
132.9291260906
 31
0.0
  0
ARC
  5
231
330
1F
100
AcDbEntity
  8
0
  6
Continuous
 62
     7
370
    25
100
AcDbCircle
 10
209.2326952635
 20
131.3998204797
 30
0.0
 40
0.3999248721945436
100
AcDbArc
 50
180.0215498833
 51
280.0128315546
  0
LINE
  5
232
330
1F
100
AcDbEntity
  8
0
  6
Continuous
 62
     7
370
    25
100
AcDbLine
 10
209.2327704196
 20
131.3916103678
 30
0.0
 11
208.8327704196
 21
131.3996700614
 31
0.0
  0
LINE
  5
233
330
1F
100
AcDbEntity
  8
0
  6
Continuous
 62
     7
370
    25
100
AcDbLine
 10
208.8327704196
 20
140.2538702228
 30
0.0
 11
208.8327704196
 21
131.3996700614
 31
0.0
  0
LINE
  5
234
330
1F
100
AcDbEntity
  8
0
  6
Continuous
 62
     7
370
    25
100
AcDbLine
 10
209.2327704196
 20
140.2458105293
 30
0.0
 11
208.8327704196
 21
140.2538702228
 31
0.0
  0
LINE
  5
235
330
1F
100
AcDbEntity
  8
0
  6
Continuous
 62
     7
370
    25
100
AcDbLine
 10
209.3824127864
 20
140.1173069862
 30
0.0
 11
209.2327704196
 21
140.2458105293
 31
0.0
  0
LINE
  5
236
330
1F
100
AcDbEntity
  8
0
  6
Continuous
 62
     7
370
    25
100
AcDbLine
 10
209.5255907426
 20
131.8471217673
 30
0.0
 11
209.5255907426
 21
131.7344673517
 31
0.0
  0
SPLINE
  5
237
330
1F
100
AcDbEntity
  8
0
  6
Continuous
 62
     7
370
    25
100
AcDbSpline
210
0.0
220
0.0
230
1.0
 70
     8
 71
     3
 72
     9
 73
     5
 74
     0
 42
0.000000001
 43
0.00000001
 40
0.0
 40
0.0
 40
0.0
 40
0.0
 40
0.0433040437556111
 40
1.0
 40
1.0
 40
1.0
 40
1.0
 10
210.0056546142914
 20
132.3081490766033
 30
0.0
 10
210.0046567907657
 20
132.3069294642666
 30
0.0
 10
209.9816145194405
 20
132.2787655278084
 30
0.0
 10
209.9573366770813
 20
132.2492564632722
 30
0.0
 10
209.9341101634699
 20
132.2210252605578
 30
0.0
  0
SPLINE
  5
238
330
1F
100
AcDbEntity
  8
0
  6
Continuous
 62
     7
370
    25
100
AcDbSpline
210
0.0
220
0.0
230
1.0
 70
     8
 71
     3
 72
    14
 73
    10
 74
     0
 42
0.000000001
 43
0.00000001
 40
0.0
 40
0.0
 40
0.0
 40
0.0
 40
0.3240421732223142
 40
0.4390834530314724
 40
0.5550339035678917
 40
0.6320175773806425
 40
0.7091777148392694
 40
0.8120429782633948
 40
1.0
 40
1.0
 40
1.0
 40
1.0
 10
209.6366013091017
 20
131.7540295857019
 30
0.0
 10
209.7141958263201
 20
131.7711261009102
 30
0.0
 10
209.819337907728
 20
131.7942922118451
 30
0.0
 10
209.9370780448589
 20
131.8616341817585
 30
0.0
 10
209.9925435561211
 20
131.9140201436138
 30
0.0
 10
210.0214933611358
 20
131.9743491772961
 30
0.0
 10
210.0265799420273
 20
132.0378121533959
 30
0.0
 10
210.002021194103
 20
132.1255786945337
 30
0.0
 10
209.9607703697005
 20
132.1835552779867
 30
0.0
 10
209.9341101634698
 20
132.2210252605578
 30
0.0
  0
SPLINE
  5
239
330
1F
100
AcDbEntity
  8
0
  6
Continuous
 62
     7
370
    25
100
AcDbSpline
210
0.0
220
0.0
230
1.0
 70
     8
 71
     3
 72
    14
 73
    10
 74
     0
 42
0.000000001
 43
0.00000001
 40
0.0
 40
0.0
 40
0.0
 40
0.0
 40
0.1215026613260203
 40
0.2571357003576365
 40
0.3367055246585178
 40
0.4166989189531199
 40
0.5090573836363275
 40
0.659989833553351
 40
1.0
 40
1.0
 40
1.0
 40
1.0
 10
209.9341101634699
 20
132.2210252605578
 30
0.0
 10
209.9075592162896
 20
132.2338961716429
 30
0.0
 10
209.8513695302049
 20
132.2611348403269
 30
0.0
 10
209.7702539791378
 20
132.2806797084239
 30
0.0
 10
209.6977417813167
 20
132.2727720899597
 30
0.0
 10
209.6421570485801
 20
132.2437606910634
 30
0.0
 10
209.5896483719378
 20
132.1835569771126
 30
0.0
 10
209.5344925660657
 20
132.0504390371953
 30
0.0
 10
209.5292332004647
 20
131.9303153496456
 30
0.0
 10
209.5255907426422
 20
131.8471217672663
 30
0.0
  0
ARC
  5
23A
330
1F
100
AcDbEntity
  8
0
  6
Continuous
 62
     7
370
    25
100
AcDbCircle
 10
211.0325825289
 20
133.5438958022
 30
0.0
 40
0.9998121803124036
100
AcDbArc
 50
180.0215498687
 51
280.0128315836
  0
SPLINE
  5
23B
330
1F
100
AcDbEntity
  8
0
  6
Continuous
 62
     7
370
    25
100
AcDbSpline
210
0.0
220
0.0
230
1.0
 70
     8
 71
     3
 72
    11
 73
     7
 74
     0
 42
0.000000001
 43
0.00000001
 40
0.0
 40
0.0
 40
0.0
 40
0.0
 40
0.3360297136121999
 40
0.6712269697199647
 40
0.9920227009419749
 40
1.0
 40
1.0
 40
1.0
 40
1.0
 10
217.808128052794
 20
133.051599275628
 30
0.0
 10
217.7489764505131
 20
133.1003316356878
 30
0.0
 10
217.6308197841686
 20
133.1976756295228
 30
0.0
 10
217.445430586588
 20
133.3540583759236
 30
0.0
 10
217.3311944543895
 20
133.4519169556786
 30
0.0
 10
217.2789632639319
 20
133.4970843557909
 30
0.0
 10
217.2776959342301
 20
133.4981802907527
 30
0.0
  0
LINE
  5
23C
330
1F
100
AcDbEntity
  8
0
  6
Continuous
 62
     7
370
    25
100
AcDbLine
 10
211.2064185973
 20
132.5593119219
 30
0.0
 11
216.3314185973
 21
133.4624372032
 31
0.0
  0
LINE
  5
23D
330
1F
100
AcDbEntity
  8
0
  6
Continuous
 62
     7
370
    25
100
AcDbLine
 10
217.9577704196
 20
132.9291260906
 30
0.0
 11
218.3577704196
 21
132.9371857841
 31
0.0
  0
ARC
  5
23E
330
1F
100
AcDbEntity
  8
0
  6
Continuous
 62
     7
370
    25
100
AcDbCircle
 10
217.9579444678
 20
132.9372796918
 30
0.0
 40
0.3998259628667196
100
AcDbArc
 50
279.9790720631
 51
359.9865428617
  0
LINE
  5
23F
330
1F
100
AcDbEntity
  8
0
  6
Continuous
 62
     7
370
    25
100
AcDbLine
 10
215.9841222419
 20
140.631744085
 30
0.0
 11
210.8591222419
 21
139.7286188037
 31
0.0
  0
ARC
  5
240
330
1F
100
AcDbEntity
  8
0
  6
Continuous
 62
     7
370
    25
100
AcDbCircle
 10
216.1579583098
 20
139.6471602045
 30
0.0
 40
0.999812180498082
100
AcDbArc
 50
0.021549884
 51
100.0128315538
  0
LINE
  5
241
330
1F
100
AcDbEntity
  8
0
  6
Continuous
 62
     7
370
    25
100
AcDbLine
 10
217.1577704196
 20
134.4466450379
 30
0.0
 11
217.1577704196
 21
139.6475362503
 31
0.0
  0
ARC
  5
242
330
1F
100
AcDbEntity
  8
0
  6
Continuous
 62
     7
370
    25
100
AcDbCircle
 10
216.15820554
 20
134.4468798071
 30
0.0
 40
0.9995649071669038
100
AcDbArc
 50
279.9790720631
 51
359.9865428609
  0
LINE
  5
243
330
1F
100
AcDbEntity
  8
0
  6
Continuous
 62
     7
370
    25
100
AcDbLine
 10
210.0327704196
 20
138.744410969
 30
0.0
 11
210.0327704193
 21
133.5435197567
 31
0.0
  0
ARC
  5
244
330
1F
100
AcDbEntity
  8
0
  6
Continuous
 62
     7
370
    25
100
AcDbCircle
 10
211.0323352992
 20
138.7441761998
 30
0.0
 40
0.9995649071669368
100
AcDbArc
 50
99.9790720631
 51
179.9865428609
  0
CIRCLE
  5
245
330
1F
100
AcDbEntity
  8
0
  6
Continuous
 62
     7
370
    25
100
AcDbCircle
 10
213.5939030473
 20
136.5952493551
 30
0.0
 40
3.048632640369799
  0
LINE
  5
246
330
1F
100
AcDbEntity
  8
0
  6
Continuous
 62
     7
370
    25
100
AcDbLine
 10
217.6649500966
 20
141.4286690578
 30
0.0
 11
217.9577704196
 21
141.783326252
 31
0.0
  0
LINE
  5
247
330
1F
100
AcDbEntity
  8
0
  6
Continuous
 62
     7
370
    25
100
AcDbLine
 10
217.9577704196
 20
141.783326252
 30
0.0
 11
218.3577704196
 21
141.7913859456
 31
0.0
  0
LINE
  5
248
330
1F
100
AcDbEntity
  8
0
  6
Continuous
 62
     7
370
    25
100
AcDbLine
 10
218.3577704196
 20
132.9371857841
 30
0.0
 11
218.3577704196
 21
141.7913859456
 31
0.0
  0
LINE
  5
249
330
1F
100
AcDbEntity
  8
0
  6
Continuous
 62
     7
370
    25
100
AcDbLine
 10
217.6649500966
 20
141.3160146423
 30
0.0
 11
217.6649500966
 21
141.4286690578
 31
0.0
  0
ARC
  5
24A
330
1F
100
AcDbEntity
  8
0
  6
Continuous
 62
     7
370
    25
100
AcDbCircle
 10
213.5952704196
 20
136.5539569562
 30
0.0
 40
3.050000338343351
100
AcDbArc
 50
0.0269877382
 51
179.9730122618
  0
SPLINE
  5
24B
330
1F
100
AcDbEntity
  8
0
  6
Continuous
 62
     7
370
    25
100
AcDbSpline
210
0.0
220
0.0
230
1.0
 70
     8
 71
     3
 72
    11
 73
     7
 74
     0
 42
0.000000001
 43
0.00000001
 40
0.0
 40
0.0
 40
0.0
 40
0.0
 40
0.0079772990479533
 40
0.3287730302731886
 40
0.6639702863843784
 40
1.0
 40
1.0
 40
1.0
 40
1.0
 10
209.9128449049971
 20
139.6742594791937
 30
0.0
 10
209.911577575296
 20
139.6752890803956
 30
0.0
 10
209.859346384801
 20
139.7177226290296
 30
0.0
 10
209.7451102526587
 20
139.8114582567537
 30
0.0
 10
209.5597210550562
 20
139.9660059991358
 30
0.0
 10
209.4415643887147
 20
140.0668316424216
 30
0.0
 10
209.3824127864352
 20
140.1173069861823
 30
0.0
  0
SPLINE
  5
24C
330
1F
100
AcDbEntity
  8
0
  6
Continuous
 62
     7
370
    25
100
AcDbSpline
210
0.0
220
0.0
230
1.0
 70
     8
 71
     3
 72
    14
 73
    10
 74
     0
 42
0.000000001
 43
0.00000001
 40
0.0
 40
0.0
 40
0.0
 40
0.0
 40
0.121502661328627
 40
0.2571357003598794
 40
0.3367055246605384
 40
0.4166989189548728
 40
0.5090573836378561
 40
0.6599898335543612
 40
1.0
 40
1.0
 40
1.0
 40
1.0
 10
217.2564306757571
 20
140.9421111490188
 30
0.0
 10
217.2829816229381
 20
140.9292402379338
 30
0.0
 10
217.3391713090237
 20
140.9020015692501
 30
0.0
 10
217.4202868600914
 20
140.8824567011526
 30
0.0
 10
217.4927990579126
 20
140.8903643196169
 30
0.0
 10
217.5483837906491
 20
140.9193757185132
 30
0.0
 10
217.6008924672915
 20
140.979579432464
 30
0.0
 10
217.6560482731635
 20
141.1126973723813
 30
0.0
 10
217.6613076387645
 20
141.232821059931
 30
0.0
 10
217.664950096587
 20
141.3160146423103
 30
0.0
  0
SPLINE
  5
24D
330
1F
100
AcDbEntity
  8
0
  6
Continuous
 62
     7
370
    25
100
AcDbSpline
210
0.0
220
0.0
230
1.0
 70
     8
 71
     3
 72
     9
 73
     5
 74
     0
 42
0.000000001
 43
0.00000001
 40
0.0
 40
0.0
 40
0.0
 40
0.0
 40
0.9566959562428778
 40
1.0
 40
1.0
 40
1.0
 40
1.0
 10
217.256430675757
 20
140.9421111490188
 30
0.0
 10
217.2332041621463
 20
140.9150155138126
 30
0.0
 10
217.2089263197878
 20
140.8866934172996
 30
0.0
 10
217.1858840484636
 20
140.8599693911387
 30
0.0
 10
217.1848862249379
 20
140.8588121327406
 30
0.0
  0
LINE
  5
24E
330
1F
100
AcDbEntity
  8
0
  6
Continuous
 62
     7
370
    25
100
AcDbLine
 10
209.2327704196
 20
140.2458105293
 30
0.0
 11
209.1633111485
 21
140.6475533567
 31
0.0
  0
LINE
  5
24F
330
1F
100
AcDbEntity
  8
0
  6
Continuous
 62
     7
370
    25
100
AcDbLine
 10
217.8883111485
 20
142.1850690795
 30
0.0
 11
209.1633111485
 21
140.6475533567
 31
0.0
  0
LINE
  5
250
330
1F
100
AcDbEntity
  8
0
  6
Continuous
 62
     7
370
    25
100
AcDbLine
 10
217.9577704196
 20
141.783326252
 30
0.0
 11
217.8883111485
 21
142.1850690795
 31
0.0
  0
LINE
  5
251
330
1F
100
AcDbEntity
  8
0
  6
Continuous
 62
     7
370
    25
100
AcDbLine
 10
217.6649500966
 20
141.4286690578
 30
0.0
 11
217.5539395301
 21
141.4091068239
 31
0.0
  0
ARC
  5
252
330
1F
100
AcDbEntity
  8
0
  6
Continuous
 62
     7
370
    25
100
AcDbCircle
 10
209.2325963715
 20
140.2537763152
 30
0.0
 40
0.3998259628695942
100
AcDbArc
 50
99.9790720634
 51
179.9865428605
  0
SPLINE
  5
253
330
1F
100
AcDbEntity
  8
0
  6
Continuous
 62
     7
370
    25
100
AcDbSpline
210
0.0
220
0.0
230
1.0
 70
     8
 71
     3
 72
    14
 73
    10
 74
     0
 42
0.000000001
 43
0.00000001
 40
0.0
 40
0.0
 40
0.0
 40
0.0
 40
0.324042173222866
 40
0.4390834530322173
 40
0.55503390356887
 40
0.6320175773817698
 40
0.7091777148405388
 40
0.8120429782648226
 40
0.9999999999999999
 40
0.9999999999999999
 40
0.9999999999999999
 40
0.9999999999999999
 10
217.5539395301275
 20
141.4091068238748
 30
0.0
 10
217.4763450129091
 20
141.3920103086664
 30
0.0
 10
217.3712029315012
 20
141.3688441977315
 30
0.0
 10
217.2534627943703
 20
141.3015022278181
 30
0.0
 10
217.1979972831082
 20
141.2491162659628
 30
0.0
 10
217.1690474780935
 20
141.1887872322805
 30
0.0
 10
217.1639608972019
 20
141.1253242561807
 30
0.0
 10
217.1885196451264
 20
141.0375577150434
 30
0.0
 10
217.2297704695274
 20
140.9795811315901
 30
0.0
 10
217.256430675757
 20
140.9421111490188
 30
0.0
  0
ARC
  5
254
330
1F
100
AcDbEntity
  8
0
  6
Continuous
 62
     7
370
    25
100
AcDbCircle
 10
217.9578455757
 20
141.7912355273
 30
0.0
 40
0.3999248722038392
100
AcDbArc
 50
0.0215498848
 51
100.012831553
  0
LINE
  5
255
330
1F
100
AcDbEntity
  8
0
  6
Continuous
 62
     7
370
    25
100
AcDbLine
 10
181.370169795
 20
134.6411422764
 30
0.0
 11
205.0268675384
 21
134.6411422764
 31
0.0
  0
ELLIPSE
  5
256
330
1F
100
AcDbEntity
  8
0
  6
Continuous
 62
     7
370
    25
100
AcDbEllipse
 10
191.8577704196
 20
1362.4372614699
 30
0.0
 11
-15.36206475077023
 21
1273.723570984438
 31
0.0
210
0.0
220
0.0
230
1.0
 40
0.004833911
 41
2.872177969533686
 42
2.902975286991358
  0
LINE
  5
257
330
1F
100
AcDbEntity
  8
0
  6
Continuous
 62
     7
370
    25
100
AcDbLine
 10
181.370169795
 20
128.5809525443
 30
0.0
 11
205.3292813582
 21
124.7862020687
 31
0.0
  0
LINE
  5
258
330
1F
100
AcDbEntity
  8
0
  6
Continuous
 62
     7
370
    25
100
AcDbLine
 10
184.2217832579
 20
139.1411422764
 30
0.0
 11
201.4482741068
 21
139.1411422764
 31
0.0
  0
LINE
  5
259
330
1F
100
AcDbEntity
  8
0
  6
Continuous
 62
     7
370
    25
100
AcDbLine
 10
205.0268675384
 20
134.6411422764
 30
0.0
 11
205.0287157894
 21
134.6424919779
 31
0.0
  0
LINE
  5
25A
330
1F
100
AcDbEntity
  8
0
  6
Continuous
 62
     7
370
    25
100
AcDbLine
 10
178.853252071
 20
134.6411422764
 30
0.0
 11
181.370169795
 21
134.6411422764
 31
0.0
  0
LINE
  5
25B
330
1F
100
AcDbEntity
  8
0
  6
Continuous
 62
     7
370
    25
100
AcDbLine
 10
178.853252071
 20
128.9795931493
 30
0.0
 11
181.370169795
 21
128.5809525443
 31
0.0
  0
LINE
  5
25C
330
1F
100
AcDbEntity
  8
0
  6
Continuous
 62
     7
370
    25
100
AcDbLine
 10
182.8374785097
 20
139.1411422764
 30
0.0
 11
184.2217832579
 21
139.1411422764
 31
0.0
  0
ELLIPSE
  5
25D
330
1F
100
AcDbEntity
  8
0
  6
Continuous
 62
     7
370
    25
100
AcDbEllipse
 10
232.1754959261
 20
145.0419328879
 30
0.0
 11
-21.74192341935168
 21
22.55008370900703
 31
0.0
210
0.0
220
0.0
230
1.0
 40
0.9166690727
 41
1.199821565641515
 42
1.438599773868573
  0
SPLINE
  5
25E
330
1F
100
AcDbEntity
  8
0
  6
Continuous
 62
     7
370
    25
100
AcDbSpline
210
0.0
220
0.0
230
1.0
 70
     8
 71
     3
 72
     9
 73
     5
 74
     0
 42
0.000000001
 43
0.00000001
 40
0.0
 40
0.0
 40
0.0
 40
0.0
 40
0.4500949102656204
 40
1.0
 40
1.0
 40
1.0
 40
1.0
 10
208.8190477917132
 20
128.2580477352304
 30
0.0
 10
208.8297854262635
 20
128.2452814787136
 30
0.0
 10
208.8536418047859
 20
128.2169180019766
 30
0.0
 10
208.8794936551611
 20
128.2165606378951
 30
0.0
 10
208.8937097192615
 20
128.2163641215679
 30
0.0
  0
LINE
  5
25F
330
1F
100
AcDbEntity
  8
0
  6
Continuous
 62
     7
370
    25
100
AcDbLine
 10
208.8937097193
 20
124.2216520776
 30
0.0
 11
205.3292813582
 21
124.7862020687
 31
0.0
  0
SPLINE
  5
260
330
1F
100
AcDbEntity
  8
0
  6
Continuous
 62
     7
370
    25
100
AcDbSpline
210
0.0
220
0.0
230
1.0
 70
     8
 71
     3
 72
     9
 73
     5
 74
     0
 42
0.000000001
 43
0.00000001
 40
0.0
 40
0.0
 40
0.0
 40
0.0
 40
0.4986755202356127
 40
1.0
 40
1.0
 40
1.0
 40
1.0
 10
205.0287157893924
 20
134.6424919778952
 30
0.0
 10
204.684298250136
 20
135.3927186313378
 30
0.0
 10
203.9936336289938
 20
136.8971571349325
 30
0.0
 10
203.5259518553235
 20
138.3918274554996
 30
0.0
 10
203.2914915334431
 20
139.1411422763771
 30
0.0
  0
LINE
  5
261
330
1F
100
AcDbEntity
  8
0
  6
Continuous
 62
     7
370
    25
100
AcDbLine
 10
201.4482741068
 20
139.1411422764
 30
0.0
 11
203.2914915334
 21
139.1411422764
 31
0.0
  0
LINE
  5
262
330
1F
100
AcDbEntity
  8
0
  6
Continuous
 62
     7
370
    25
100
AcDbLine
 10
177.0646681432
 20
130.6411422764
 30
0.0
 11
177.0646681432
 21
129.2628770137
 31
0.0
  0
LINE
  5
263
330
1F
100
AcDbEntity
  8
0
  6
Continuous
 62
     7
370
    25
100
AcDbLine
 10
177.0646681432
 20
130.6411422764
 30
0.0
 11
176.4577704196
 21
130.6411422764
 31
0.0
  0
LINE
  5
264
330
1F
100
AcDbEntity
  8
0
  6
Continuous
 62
     7
370
    25
100
AcDbLine
 10
176.4577704196
 20
134.6411422764
 30
0.0
 11
178.853252071
 21
134.6411422764
 31
0.0
  0
LINE
  5
265
330
1F
100
AcDbEntity
  8
0
  6
Continuous
 62
     7
370
    25
100
AcDbLine
 10
177.0646681432
 20
129.2628770137
 30
0.0
 11
178.853252071
 21
128.9795931493
 31
0.0
  0
LINE
  5
266
330
1F
100
AcDbEntity
  8
0
  6
Continuous
 62
     7
370
    25
100
AcDbLine
 10
180.9577704196
 20
139.1411422764
 30
0.0
 11
182.8374785097
 21
139.1411422764
 31
0.0
  0
LINE
  5
267
330
1F
100
AcDbEntity
  8
0
  6
Continuous
 62
     7
370
    25
100
AcDbLine
 10
203.3577704196
 20
139.1411422764
 30
0.0
 11
203.4756094524
 21
139.1552266846
 31
0.0
  0
SPLINE
  5
268
330
1F
100
AcDbEntity
  8
0
  6
Continuous
 62
     7
370
    25
100
AcDbSpline
210
0.0
220
0.0
230
1.0
 70
    24
 71
     3
 72
     9
 73
     5
 74
     0
 42
0.000000001
 43
0.00000001
 40
0.0
 40
0.0
 40
0.0
 40
0.0
 40
0.5911502122518791
 40
1.0
 40
1.0
 40
1.0
 40
1.0
 10
203.4756094524235
 20
139.155226684585
 30
0.0
 10
203.5242715956308
 20
139.1670277051467
 30
0.0
 10
203.6065893250314
 20
139.1869905171647
 30
0.0
 10
203.6992489831098
 20
139.2094613427007
 30
0.0
 10
203.7371328646479
 20
139.2186485349516
 30
0.0
  0
SPLINE
  5
269
330
1F
100
AcDbEntity
  8
0
  6
Continuous
 62
     7
370
    25
100
AcDbSpline
210
0.0
220
0.0
230
1.0
 70
     8
 71
     3
 72
    12
 73
     8
 74
     0
 42
0.000000001
 43
0.00000001
 40
0.0
 40
0.0
 40
0.0
 40
0.0
 40
0.2129306224148068
 40
0.4799428473166495
 40
0.7615382554800545
 40
0.9908839127975178
 40
1.0
 40
1.0
 40
1.0
 40
1.0
 10
208.8937097192615
 20
128.2163641215679
 30
0.0
 10
208.9129451007005
 20
128.2218157591347
 30
0.0
 10
208.9563013997256
 20
128.2341036791467
 30
0.0
 10
209.0696818122705
 20
128.2706241638465
 30
0.0
 10
209.2088874644401
 20
128.3178201453671
 30
0.0
 10
209.3098861487984
 20
128.3533333552283
 30
0.0
 10
209.356007268264
 20
128.3698002117522
 30
0.0
 10
209.3577704196146
 20
128.3704297185954
 30
0.0
  0
ARC
  5
26A
330
1F
100
AcDbEntity
  8
0
  6
Continuous
 62
     7
370
    25
100
AcDbCircle
 10
232.1500985871
 20
147.0774214282
 30
0.0
 40
29.97510229190713
100
AcDbArc
 50
195.3528333225
 51
218.8904631103
  0
LINE
  5
26B
330
1F
100
AcDbEntity
  8
0
  6
Continuous
 62
     7
370
    25
100
AcDbLine
 10
209.3577704196
 20
124.1481520833
 30
0.0
 11
208.8937097193
 21
124.2216520776
 31
0.0
  0
LINE
  5
26C
330
1F
100
AcDbEntity
  8
0
  6
Continuous
 62
     7
370
    25
100
AcDbLine
 10
218.2324625249
 20
132.597609344
 30
0.0
 11
218.1399764812
 21
132.5813114934
 31
0.0
  0
LINE
  5
26D
330
1F
100
AcDbEntity
  8
0
  6
Continuous
 62
     7
370
    25
100
AcDbLine
 10
218.2324625249
 20
132.597609344
 30
0.0
 11
218.2324625249
 21
130.1914724528
 31
0.0
  0
LINE
  5
26E
330
1F
100
AcDbEntity
  8
0
  6
Continuous
 62
     7
370
    25
100
AcDbLine
 10
218.2324625249
 20
130.1914724528
 30
0.0
 11
212.1329797848
 21
124.1411422764
 31
0.0
  0
LINE
  5
26F
330
1F
100
AcDbEntity
  8
0
  6
Continuous
 62
     7
370
    25
100
AcDbLine
 10
209.4020285989
 20
124.1411422764
 30
0.0
 11
212.1329797848
 21
124.1411422764
 31
0.0
  0
LINE
  5
270
330
1F
100
AcDbEntity
  8
0
  6
Continuous
 62
     7
370
    25
100
AcDbLine
 10
208.8444525228
 20
140.4572208692
 30
0.0
 11
203.7371328646
 21
139.218648535
 31
0.0
  0
LINE
  5
271
330
1F
100
AcDbEntity
  8
0
  6
Continuous
 62
     7
370
    25
100
AcDbLine
 10
208.8444525228
 20
140.4572208692
 30
0.0
 11
208.8573273318
 21
140.4594896624
 31
0.0
  0
LINE
  5
272
330
1F
100
AcDbEntity
  8
0
  6
Continuous
 62
     7
370
    25
100
AcDbLine
 10
208.8573273318
 20
140.3917806812
 30
0.0
 11
208.8573273318
 21
140.4594896624
 31
0.0
  0
ARC
  5
273
330
1F
100
AcDbEntity
  8
0
  6
Continuous
 62
     7
370
    25
100
AcDbCircle
 10
209.8293969939
 20
132.1029188146
 30
0.0
 40
1.649528501699442
100
AcDbArc
 50
126.1074579739
 51
333.9269234639
  0
LINE
  5
274
330
1F
100
AcDbEntity
  8
0
  6
Continuous
 62
     7
370
    25
100
AcDbLine
 10
209.3577704196
 20
124.1481520833
 30
0.0
 11
209.4020285989
 21
124.1411422764
 31
0.0
  0
ARC
  5
275
330
1F
100
AcDbEntity
  8
0
  6
Continuous
 62
     7
370
    25
100
AcDbCircle
 10
209.8277491835
 20
131.9666760412
 30
0.0
 40
1.648663210695728
100
AcDbArc
 50
127.1214384461
 51
177.6293644094
  0
LINE
  5
276
330
1F
100
AcDbEntity
  8
0
  6
Continuous
 62
     7
370
    25
100
AcDbLine
 10
218.2324625249
 20
132.597609344
 30
0.0
 11
218.1973562341
 21
132.6170706877
 31
0.0
  0
LINE
  5
277
330
1F
100
AcDbEntity
  8
0
  6
Continuous
 62
     7
370
    25
100
AcDbLine
 10
208.8772644417
 20
140.4371038355
 30
0.0
 11
208.8573273318
 21
140.4594896624
 31
0.0
  0
SPLINE
  5
278
330
1F
100
AcDbEntity
  8
0
  6
Continuous
 62
     7
370
    25
100
AcDbSpline
210
0.0
220
0.0
230
1.0
 70
    11
 71
     3
 72
    81
 73
    77
 74
     0
 42
0.000000001
 43
0.00000001
 40
0.0
 40
0.0
 40
0.0
 40
0.0
 40
0.0312500000000005
 40
0.0312500000000005
 40
0.062500000000001
 40
0.062500000000001
 40
0.0937500000000015
 40
0.0937500000000015
 40
0.1093750000000017
 40
0.1093750000000017
 40
0.125000000000002
 40
0.1406250000000022
 40
0.1406250000000022
 40
0.1562500000000024
 40
0.1562500000000024
 40
0.1875000000000029
 40
0.1875000000000029
 40
0.2031250000000034
 40
0.2031250000000034
 40
0.2187500000000039
 40
0.2187500000000039
 40
0.2500000000000043
 40
0.2500000000000043
 40
0.2812500000000046
 40
0.2812500000000046
 40
0.3125000000000048
 40
0.3125000000000048
 40
0.3437500000000051
 40
0.3437500000000051
 40
0.3750000000000054
 40
0.3750000000000054
 40
0.4062500000000057
 40
0.4062500000000057
 40
0.4375000000000059
 40
0.4375000000000059
 40
0.4687500000000062
 40
0.4687500000000062
 40
0.5000000000000064
 40
0.5000000000000064
 40
0.5312500000000068
 40
0.5312500000000068
 40
0.5625000000000071
 40
0.5625000000000071
 40
0.578125000000007
 40
0.578125000000007
 40
0.5937500000000069
 40
0.5937500000000069
 40
0.6250000000000067
 40
0.6250000000000067
 40
0.6406250000000066
 40
0.6406250000000066
 40
0.6562500000000064
 40
0.6562500000000064
 40
0.6718750000000064
 40
0.6718750000000064
 40
0.6875000000000063
 40
0.6875000000000063
 40
0.7187500000000056
 40
0.7187500000000056
 40
0.7500000000000049
 40
0.7500000000000049
 40
0.7812500000000042
 40
0.7812500000000042
 40
0.8125000000000037
 40
0.8125000000000037
 40
0.843750000000003
 40
0.843750000000003
 40
0.8750000000000024
 40
0.8750000000000024
 40
0.9062500000000018
 40
0.9062500000000018
 40
0.9375000000000012
 40
0.9375000000000012
 40
0.9687500000000006
 40
0.9687500000000006
 40
1.0
 40
1.0
 40
1.0
 40
1.0
 10
187.9413912216827
 20
102.6499593034772
 30
0.0
 10
187.6647737717544
 20
102.4102346843141
 30
0.0
 10
187.4153124118443
 20
102.1472860256019
 30
0.0
 10
186.9713109754649
 20
101.5741430582983
 30
0.0
 10
186.7757811248872
 20
101.2606242661503
 30
0.0
 10
186.4595141621494
 20
100.6098562749045
 30
0.0
 10
186.3363009526059
 20
100.270485539098
 30
0.0
 10
186.2067144525989
 20
99.73923280632793
 30
0.0
 10
186.1728635344633
 20
99.55787612070262
 30
0.0
 10
186.1258640336554
 20
99.19697107979857
 30
0.0
 10
186.0988880169926
 20
98.8356435231904
 30
0.0
 10
186.1114025350126
 20
98.47348236541585
 30
0.0
 10
186.1439949276334
 20
98.11089746004045
 30
0.0
 10
186.1706120078491
 20
97.92833961466368
 30
0.0
 10
186.279208229541
 20
97.39196041969338
 30
0.0
 10
186.3893500407207
 20
97.04699308286608
 30
0.0
 10
186.6091093789827
 20
96.54772364107714
 30
0.0
 10
186.69207700057
 20
96.38348839175751
 30
0.0
 10
186.8732547419814
 20
96.06717646689576
 30
0.0
 10
186.9714818381353
 20
95.91475528271252
 30
0.0
 10
187.2881304043214
 20
95.47394280201559
 30
0.0
 10
187.5301382120076
 20
95.2001982452435
 30
0.0
 10
188.064520398956
 20
94.70379289585154
 30
0.0
 10
188.3523276424646
 20
94.48466034822793
 30
0.0
 10
188.9669534132288
 20
94.10107565099591
 30
0.0
 10
189.2967782805641
 20
93.93593949131325
 30
0.0
 10
189.9721457978103
 20
93.67162592384268
 30
0.0
 10
190.3195866095093
 20
93.57067536666912
 30
0.0
 10
191.0338834514425
 20
93.43064925886067
 30
0.0
 10
191.4002683903669
 20
93.39249328072705
 30
0.0
 10
192.1242456262505
 20
93.38125573492664
 30
0.0
 10
192.4853970491593
 20
93.40731486917039
 30
0.0
 10
193.2059764240299
 20
93.52471015849895
 30
0.0
 10
193.5606163791954
 20
93.61581224729734
 30
0.0
 10
194.2412965352536
 20
93.85737999053708
 30
0.0
 10
194.5701163372312
 20
94.00822683717469
 30
0.0
 10
195.2032521339037
 20
94.37418214951764
 30
0.0
 10
195.4989406755581
 20
94.58454131140515
 30
0.0
 10
196.043838726091
 20
95.05614729767824
 30
0.0
 10
196.2953933667814
 20
95.31971160962344
 30
0.0
 10
196.7430594477708
 20
95.89650217410055
 30
0.0
 10
196.9343473843443
 20
96.20278731787867
 30
0.0
 10
197.1721460182695
 20
96.68935646669426
 30
0.0
 10
197.2431639923293
 20
96.85610213100138
 30
0.0
 10
197.3678601563358
 20
97.19918947511016
 30
0.0
 10
197.4213311004504
 20
97.375464103631
 30
0.0
 10
197.5510121019807
 20
97.90503413044135
 30
0.0
 10
197.5986016363794
 20
98.26357821878756
 30
0.0
 10
197.6105701070666
 20
98.80980975913361
 30
0.0
 10
197.6044098911004
 20
98.99437234824096
 30
0.0
 10
197.5720542418498
 20
99.35791611256856
 30
0.0
 10
197.5459944042119
 20
99.53757547693449
 30
0.0
 10
197.4746767475196
 20
99.89279312067042
 30
0.0
 10
197.4294176891455
 20
100.0683511307695
 30
0.0
 10
197.3196634076455
 20
100.4153629878975
 30
0.0
 10
197.2546928429642
 20
100.587773454277
 30
0.0
 10
197.0345910245227
 20
101.0888979180664
 30
0.0
 10
196.8546184204256
 20
101.4031072224034
 30
0.0
 10
196.4315133394963
 20
101.9939393405987
 30
0.0
 10
196.1874656517996
 20
102.2700477971667
 30
0.0
 10
195.6576916875356
 20
102.7632266399564
 30
0.0
 10
195.3691511611444
 20
102.9840677222315
 30
0.0
 10
194.7485641216195
 20
103.3718903238268
 30
0.0
 10
194.4245226276563
 20
103.5340479621985
 30
0.0
 10
193.7504885489077
 20
103.7987354935388
 30
0.0
 10
193.3969155280995
 20
103.9017797503941
 30
0.0
 10
192.68232120415
 20
104.0419647517455
 30
0.0
 10
192.3222680724303
 20
104.0797220782083
 30
0.0
 10
191.5967403350157
 20
104.0917173304762
 30
0.0
 10
191.2281008885744
 20
104.0650463759031
 30
0.0
 10
190.5116020303924
 20
103.9483155541519
 30
0.0
 10
190.1613725302214
 20
103.8588496485853
 30
0.0
 10
189.477171495718
 20
103.6166687744122
 30
0.0
 10
189.141932083134
 20
103.4625182699463
 30
0.0
 10
188.5140904383269
 20
103.0994831500672
 30
0.0
 10
188.218008671611
 20
102.8896839226404
 30
0.0
 10
187.9413912216827
 20
102.6499593034772
 30
0.0
  0
SPLINE
  5
279
330
1F
100
AcDbEntity
  8
0
  6
Continuous
 62
     7
370
    25
100
AcDbSpline
210
0.0
220
0.0
230
1.0
 70
     8
 71
     3
 72
    13
 73
     9
 74
     0
 42
0.000000001
 43
0.00000001
 40
0.0
 40
0.0
 40
0.0
 40
0.0
 40
0.2092244675347333
 40
0.422038109499802
 40
0.610861284772185
 40
0.8046709777589826
 40
0.9937607369609718
 40
1.0
 40
1.0
 40
1.0
 40
1.0
 10
172.1439989700035
 20
66.28634695473967
 30
0.0
 10
171.4034860463385
 20
65.88006303855849
 30
0.0
 10
169.9097569521929
 20
65.06052554408825
 30
0.0
 10
168.1570335661239
 20
64.07524807940717
 30
0.0
 10
166.8161650317923
 20
63.31413274701448
 30
0.0
 10
166.0514340336079
 20
62.8763105229215
 30
0.0
 10
165.7214938707773
 20
62.68685173269693
 30
0.0
 10
165.8136891087995
 20
62.73974246371319
 30
0.0
 10
165.8166340390222
 20
62.74143191661349
 30
0.0
  0
SPLINE
  5
27A
330
1F
100
AcDbEntity
  8
0
  6
Continuous
 62
     7
370
    25
100
AcDbSpline
210
0.0
220
0.0
230
1.0
 70
     8
 71
     3
 72
    17
 73
    13
 74
     0
 42
0.000000001
 43
0.00000001
 40
0.0
 40
0.0
 40
0.0
 40
0.0
 40
0.012718878929334
 40
0.1520911690042677
 40
0.2770472776869963
 40
0.4050287203324913
 40
0.4912319241702795
 40
0.5781109623832827
 40
0.666844015321782
 40
0.7561085733929751
 40
0.8775686611175515
 40
0.9999999999999999
 40
0.9999999999999999
 40
0.9999999999999999
 40
0.9999999999999999
 10
165.5100778093821
 20
134.7222369607662
 30
0.0
 10
165.5027032315883
 20
134.7268488584515
 30
0.0
 10
165.4145187175434
 20
134.7819975012043
 30
0.0
 10
165.752476645285
 20
134.5702288209296
 30
0.0
 10
166.5108764017525
 20
134.0987466865485
 30
0.0
 10
167.5684574369675
 20
133.4503352585768
 30
0.0
 10
168.7251886195371
 20
132.7544133254245
 30
0.0
 10
169.876661867128
 20
132.0739178016387
 30
0.0
 10
171.1707344478051
 20
131.3253142891596
 30
0.0
 10
172.7675381914066
 20
130.4265613273347
 30
0.0
 10
174.6887116547861
 20
129.3780628843139
 30
0.0
 10
176.2337019519672
 20
128.5920775864626
 30
0.0
 10
177.009273415367
 20
128.1975199191571
 30
0.0
  0
LINE
  5
27B
330
1F
100
AcDbEntity
  8
0
  6
Continuous
 62
     7
370
    25
100
AcDbLine
 10
177.0092734154
 20
128.1975199192
 30
0.0
 11
210.3163185353
 21
122.922202219
 31
0.0
  0
LINE
  5
27C
330
1F
100
AcDbEntity
  8
0
  6
Continuous
 62
     7
370
    25
100
AcDbLine
 10
210.3163185353
 20
66.2863469547
 30
0.0
 11
172.14399897
 21
66.2863469547
 31
0.0
  0
CIRCLE
  5
27D
330
1F
100
AcDbEntity
  8
0
  6
Continuous
 62
     7
370
    25
100
AcDbCircle
 10
191.8577704196
 20
98.7363469547
 30
0.0
 40
4.250000000000014
  0
SPLINE
  5
27E
330
1F
100
AcDbEntity
  8
0
  6
Continuous
 62
     7
370
    25
100
AcDbSpline
210
0.0
220
0.0
230
1.0
 70
    24
 71
     3
 72
    18
 73
    14
 74
     0
 42
0.000000001
 43
0.00000001
 40
0.0
 40
0.0
 40
0.0
 40
0.0
 40
0.2499999999999987
 40
0.2499999999999987
 40
0.4999999999999973
 40
0.4999999999999973
 40
0.624999999999998
 40
0.624999999999998
 40
0.7499999999999987
 40
0.7499999999999987
 40
0.8749999999999993
 40
0.8749999999999993
 40
1.0
 40
1.0
 40
1.0
 40
1.0
 10
212.0483693428561
 20
122.6478723212043
 30
0.0
 10
211.9718267255333
 20
122.6599954808099
 30
0.0
 10
211.878670615882
 20
122.6747499590999
 30
0.0
 10
211.6512497842511
 20
122.7107698802359
 30
0.0
 10
211.5170521736549
 20
122.732024693683
 30
0.0
 10
211.2896781818378
 20
122.7680371961214
 30
0.0
 10
211.2082023069421
 20
122.7809417069667
 30
0.0
 10
211.0408709179455
 20
122.8074443953616
 30
0.0
 10
210.9546441833156
 20
122.821101368467
 30
0.0
 10
210.7769182948729
 20
122.8492503838392
 30
0.0
 10
210.6844488610166
 20
122.8638961033676
 30
0.0
 10
210.5002109209239
 20
122.8930765263957
 30
0.0
 10
210.408208400909
 20
122.9076482940368
 30
0.0
 10
210.3163185352872
 20
122.9222022189748
 30
0.0
  0
SPLINE
  5
27F
330
1F
100
AcDbEntity
  8
0
  6
Continuous
 62
     7
370
    25
100
AcDbSpline
210
0.0
220
0.0
230
1.0
 70
    24
 71
     3
 72
    18
 73
    14
 74
     0
 42
0.000000001
 43
0.00000001
 40
0.0
 40
0.0
 40
0.0
 40
0.0
 40
0.1249999999999981
 40
0.1249999999999981
 40
0.2499999999999962
 40
0.2499999999999962
 40
0.3749999999999943
 40
0.3749999999999943
 40
0.4999999999999925
 40
0.4999999999999925
 40
0.7499999999999962
 40
0.7499999999999962
 40
1.0
 40
1.0
 40
1.0
 40
1.0
 10
210.3163185352872
 20
66.2863469547397
 30
0.0
 10
210.4519064774868
 20
66.28634695473968
 30
0.0
 10
210.5867452489237
 20
66.2863469547397
 30
0.0
 10
210.83223104598
 20
66.2863469547397
 30
0.0
 10
210.9428837794541
 20
66.2863469547397
 30
0.0
 10
211.1423175902658
 20
66.2863469547397
 30
0.0
 10
211.2297110602895
 20
66.2863469547397
 30
0.0
 10
211.3885549361768
 20
66.2863469547397
 30
0.0
 10
211.4599560950464
 20
66.2863469547397
 30
0.0
 10
211.6518242689048
 20
66.28634695473967
 30
0.0
 10
211.7528373623996
 20
66.2863469547397
 30
0.0
 10
211.9233370241519
 20
66.2863469547397
 30
0.0
 10
211.9920521514901
 20
66.28634695473968
 30
0.0
 10
212.0483693428566
 20
66.2863469547397
 30
0.0
  0
LINE
  5
280
330
1F
100
AcDbEntity
  8
0
  6
Continuous
 62
     7
370
    25
100
AcDbLine
 10
118.3577704196
 20
66.7363469547
 30
0.0
 11
118.3577704196
 21
130.7363469547
 31
0.0
  0
SPLINE
  5
281
330
1F
100
AcDbEntity
  8
0
  6
Continuous
 62
     7
370
    25
100
AcDbSpline
210
0.0
220
0.0
230
1.0
 70
    24
 71
     3
 72
     8
 73
     4
 74
     0
 42
0.000000001
 43
0.00000001
 40
0.0
 40
0.0
 40
0.0
 40
0.0
 40
1.0
 40
1.0
 40
1.0
 40
1.0
 10
214.3577704196146
 20
122.2820991241771
 30
0.0
 10
213.6254670623637
 20
122.398084581563
 30
0.0
 10
212.8505766763545
 20
122.5208151616639
 30
0.0
 10
212.0483693428561
 20
122.6478723212043
 30
0.0
  0
LINE
  5
282
330
1F
100
AcDbEntity
  8
0
  6
Continuous
 62
     7
370
    25
100
AcDbLine
 10
214.3577704196
 20
122.2820991242
 30
0.0
 11
214.3577704196
 21
67.7363469547
 31
0.0
  0
SPLINE
  5
283
330
1F
100
AcDbEntity
  8
0
  6
Continuous
 62
     7
370
    25
100
AcDbSpline
210
0.0
220
0.0
230
1.0
 70
    24
 71
     3
 72
    11
 73
     7
 74
     0
 42
0.000000001
 43
0.00000001
 40
0.0
 40
0.0
 40
0.0
 40
0.0
 40
0.2719676747791944
 40
0.5447050789067646
 40
0.8993868977319612
 40
1.0
 40
1.0
 40
1.0
 40
1.0
 10
212.0483693428561
 20
66.2863469547397
 30
0.0
 10
212.2866428886086
 20
66.2863469547397
 30
0.0
 10
212.7638643475406
 20
66.2863469547397
 30
0.0
 10
213.2706606301496
 20
66.28634695473967
 30
0.0
 10
213.5429270918778
 20
66.2863469547397
 30
0.0
 10
213.4912288671834
 20
66.2863469547397
 30
0.0
 10
213.4798043629175
 20
66.2863469547397
 30
0.0
  0
LINE
  5
284
330
1F
100
AcDbEntity
  8
0
  6
Continuous
 62
     7
370
    25
100
AcDbLine
 10
83.1577704196
 20
80.7363469547
 30
0.0
 11
83.1577704196
 21
116.7363469547
 31
0.0
  0
SPLINE
  5
285
330
1F
100
AcDbEntity
  8
0
  6
Continuous
 62
     7
370
    25
100
AcDbSpline
210
0.0
220
0.0
230
1.0
 70
    11
 71
     3
 72
    90
 73
    86
 74
     0
 42
0.000000001
 43
0.00000001
 40
0.0
 40
0.0
 40
0.0
 40
0.0
 40
0.03125
 40
0.03125
 40
0.0625000000000001
 40
0.0625000000000001
 40
0.0937500000000001
 40
0.0937500000000001
 40
0.1250000000000001
 40
0.1250000000000001
 40
0.15625
 40
0.15625
 40
0.1874999999999999
 40
0.1874999999999999
 40
0.2187499999999999
 40
0.2187499999999999
 40
0.2343749999999998
 40
0.2343749999999998
 40
0.2499999999999997
 40
0.2499999999999997
 40
0.2812499999999996
 40
0.2812499999999996
 40
0.2968749999999996
 40
0.2968749999999996
 40
0.3124999999999996
 40
0.3124999999999996
 40
0.3437499999999995
 40
0.3437499999999995
 40
0.3593749999999995
 40
0.3593749999999995
 40
0.3749999999999994
 40
0.3749999999999994
 40
0.4062499999999993
 40
0.4062499999999993
 40
0.4218749999999994
 40
0.4218749999999994
 40
0.4374999999999994
 40
0.4374999999999994
 40
0.4687499999999993
 40
0.4687499999999993
 40
0.4843749999999993
 40
0.4843749999999993
 40
0.4999999999999992
 40
0.4999999999999992
 40
0.5156249999999992
 40
0.5156249999999992
 40
0.5312499999999992
 40
0.5312499999999992
 40
0.5624999999999992
 40
0.5624999999999992
 40
0.5937499999999993
 40
0.5937499999999993
 40
0.6249999999999993
 40
0.6249999999999993
 40
0.6562499999999993
 40
0.6562499999999993
 40
0.6874999999999993
 40
0.6874999999999993
 40
0.7187499999999994
 40
0.7187499999999994
 40
0.7499999999999994
 40
0.7499999999999994
 40
0.7812499999999994
 40
0.7812499999999994
 40
0.8124999999999994
 40
0.8124999999999994
 40
0.8281249999999996
 40
0.8281249999999996
 40
0.8437499999999996
 40
0.8437499999999996
 40
0.8593749999999996
 40
0.8593749999999996
 40
0.8749999999999996
 40
0.8749999999999996
 40
0.9062499999999996
 40
0.9062499999999996
 40
0.9374999999999996
 40
0.9374999999999996
 40
0.9531249999999998
 40
0.9531249999999998
 40
0.9687499999999999
 40
0.9687499999999999
 40
0.984375
 40
0.984375
 40
1.0
 40
1.0
 40
1.0
 40
1.0
 10
98.20229764147462
 20
103.1874861447959
 30
0.0
 10
98.54065105614853
 20
103.445928825501
 30
0.0
 10
98.8978048157593
 20
103.6693095267594
 30
0.0
 10
99.64651687639356
 20
104.053752187144
 30
0.0
 10
100.0396248547502
 20
104.2152042000456
 30
0.0
 10
100.8548528874567
 20
104.4734563114618
 30
0.0
 10
101.2687036919777
 20
104.5678997477247
 30
0.0
 10
102.108430537391
 20
104.6910136874624
 30
0.0
 10
102.5369444558348
 20
104.7195999552908
 30
0.0
 10
103.3947498279929
 20
104.7081294036573
 30
0.0
 10
103.8178726207535
 20
104.6685999347763
 30
0.0
 10
104.6529157316716
 20
104.5235744566353
 30
0.0
 10
105.0672575953005
 20
104.4172435068845
 30
0.0
 10
105.8732813816075
 20
104.1373346206405
 30
0.0
 10
106.2587690523889
 20
103.9663945822656
 30
0.0
 10
106.8109832908339
 20
103.6627875419184
 30
0.0
 10
106.9906901090562
 20
103.5536656310006
 30
0.0
 10
107.3410354627464
 20
103.3187285135767
 30
0.0
 10
107.5125237964666
 20
103.1922077146712
 30
0.0
 10
108.0059767529966
 20
102.7907259722876
 30
0.0
 10
108.3046585049337
 20
102.496721193451
 30
0.0
 10
108.7052609140243
 20
102.0133752582325
 30
0.0
 10
108.830831187313
 20
101.8451506935888
 30
0.0
 10
109.0648209016517
 20
101.4932190042665
 30
0.0
 10
109.1739119911498
 20
101.3081194545556
 30
0.0
 10
109.4665059280121
 20
100.7386494221791
 30
0.0
 10
109.6161109631772
 20
100.341424364402
 30
0.0
 10
109.7663584493997
 20
99.71655569207083
 30
0.0
 10
109.8038377182277
 20
99.50264357768594
 30
0.0
 10
109.8507408887859
 20
99.07750260078002
 30
0.0
 10
109.8606310773689
 20
98.86476900613614
 30
0.0
 10
109.8499252580607
 20
98.2260822287137
 30
0.0
 10
109.7869770582011
 20
97.79398805226266
 30
0.0
 10
109.617081412689
 20
97.17722938223699
 30
0.0
 10
109.5481167069009
 20
96.97600861832028
 30
0.0
 10
109.3864490471637
 20
96.58192255898607
 30
0.0
 10
109.2931034136101
 20
96.38797950562017
 30
0.0
 10
108.9828798235641
 20
95.82761973671145
 30
0.0
 10
108.7373911260692
 20
95.48303074017524
 30
0.0
 10
108.3170356869524
 20
95.0043755563501
 30
0.0
 10
108.1677532873922
 20
94.85104286283533
 30
0.0
 10
107.8577984161326
 20
94.56224611673053
 30
0.0
 10
107.6965073170141
 20
94.42600718883861
 30
0.0
 10
107.3618926300757
 20
94.16885902991238
 30
0.0
 10
107.188566553534
 20
94.04795342510923
 30
0.0
 10
106.8300588431177
 20
93.82103122547869
 30
0.0
 10
106.6441238543233
 20
93.71468360071222
 30
0.0
 10
106.0773584086227
 20
93.42237323118138
 30
0.0
 10
105.6859095914662
 20
93.26145061264529
 30
0.0
 10
104.8767320810327
 20
93.00355023241993
 30
0.0
 10
104.4551795313847
 20
92.90634339782652
 30
0.0
 10
103.6106720310565
 20
92.78188083529976
 30
0.0
 10
103.1864039430506
 20
92.75354712988566
 30
0.0
 10
102.3338676354387
 20
92.76384556094959
 30
0.0
 10
101.9018380650194
 20
92.80345508074055
 30
0.0
 10
101.0615512236471
 20
92.94922097156018
 30
0.0
 10
100.6512701817857
 20
93.05475734304048
 30
0.0
 10
99.85039264056095
 20
93.33219539744
 30
0.0
 10
99.45631807118576
 20
93.50634362225956
 30
0.0
 10
98.7154819774927
 20
93.91406667164173
 30
0.0
 10
98.3666208859935
 20
94.1475565506978
 30
0.0
 10
97.7139331353468
 20
94.67823293718916
 30
0.0
 10
97.40722504863763
 20
94.97937495639046
 30
0.0
 10
96.86834996758446
 20
95.6315972037724
 30
0.0
 10
96.63397279216312
 20
95.98308214086185
 30
0.0
 10
96.3418846249387
 20
96.55424869408881
 30
0.0
 10
96.25507244501529
 20
96.75144564037547
 30
0.0
 10
96.10732066833164
 20
97.15009244841477
 30
0.0
 10
96.04568328964356
 20
97.35282829422458
 30
0.0
 10
95.94747386033234
 20
97.76532360726526
 30
0.0
 10
95.9108964265858
 20
97.97508155057236
 30
0.0
 10
95.86430078596258
 20
98.4020611658254
 30
0.0
 10
95.85457191410742
 20
98.61960042642835
 30
0.0
 10
95.86699202871324
 20
99.26209054915985
 30
0.0
 10
95.92916903477403
 20
99.68416364830811
 30
0.0
 10
96.16012996062263
 20
100.5160006132771
 30
0.0
 10
96.3244526509186
 20
100.9095349040649
 30
0.0
 10
96.63511726268652
 20
101.4679362205745
 30
0.0
 10
96.75022712137047
 20
101.6497309821211
 30
0.0
 10
96.99727588911114
 20
101.9968380585186
 30
0.0
 10
97.1293171642524
 20
102.1626161345904
 30
0.0
 10
97.40935082010905
 20
102.4797815266565
 30
0.0
 10
97.55734773087656
 20
102.6311643720244
 30
0.0
 10
97.86883323849258
 20
102.920134197282
 30
0.0
 10
98.03312093413764
 20
103.0582648044434
 30
0.0
 10
98.20229764147459
 20
103.1874861447959
 30
0.0
  0
CIRCLE
  5
286
330
1F
100
AcDbEntity
  8
0
  6
Continuous
 62
     7
370
    25
100
AcDbCircle
 10
102.8577704196
 20
98.7363469547
 30
0.0
 40
5.545419629966943
  0
LINE
  5
287
330
1F
100
AcDbEntity
  8
0
  6
Continuous
 62
     7
370
    25
100
AcDbLine
 10
115.8577704196
 20
81.2575082451
 30
0.0
 11
115.8577704196
 21
116.2151856644
 31
0.0
  0
LINE
  5
288
330
1F
100
AcDbEntity
  8
0
  6
Continuous
 62
     7
370
    25
100
AcDbLine
 10
78.3577704196
 20
82.8363469547
 30
0.0
 11
78.3577704196
 21
114.6363469547
 31
0.0
  0
CIRCLE
  5
289
330
1F
100
AcDbEntity
  8
0
  6
Continuous
 62
     7
370
    25
100
AcDbCircle
 10
102.8577704196
 20
98.7363469547
 30
0.0
 40
4.25
  0
LINE
  5
28A
330
1F
100
AcDbEntity
  8
0
  6
Continuous
 62
     7
370
    25
100
AcDbLine
 10
206.8570204009
 20
66.2763469548
 30
0.0
 11
206.8570204009
 21
66.2863469547
 31
0.0
  0
LINE
  5
28B
330
1F
100
AcDbEntity
  8
0
  6
Continuous
 62
     7
370
    25
100
AcDbLine
 10
210.2287055426
 20
66.2763469548
 30
0.0
 11
206.8570204009
 21
66.2763469548
 31
0.0
  0
LINE
  5
28C
330
1F
100
AcDbEntity
  8
0
  6
Continuous
 62
     7
370
    25
100
AcDbLine
 10
206.8570204009
 20
66.2763469548
 30
0.0
 11
206.8077704196
 21
66.2763469548
 31
0.0
  0
SPLINE
  5
28D
330
1F
100
AcDbEntity
  8
0
  6
HIDDEN
 62
     7
370
    18
100
AcDbSpline
210
0.0
220
0.0
230
1.0
 70
     8
 71
     3
 72
    13
 73
     9
 74
     0
 42
0.000000001
 43
0.00000001
 40
0.0
 40
0.0
 40
0.0
 40
0.0
 40
0.1896703632029519
 40
0.3603642974124838
 40
0.5351343723728745
 40
0.64997988380431
 40
0.7648488120317988
 40
1.0
 40
1.0
 40
1.0
 40
1.0
 10
165.8166340390222
 20
62.74143191661349
 30
0.0
 10
165.8652422865618
 20
62.76937718869724
 30
0.0
 10
165.9575955497561
 20
62.82247182177755
 30
0.0
 10
166.710034962648
 20
63.25332739368972
 30
0.0
 10
167.6606886830434
 20
63.79410868563743
 30
0.0
 10
168.7136013508003
 20
64.38776770498689
 30
0.0
 10
170.0771220117118
 20
65.1518239218151
 30
0.0
 10
171.3134241132599
 20
65.83043868126293
 30
0.0
 10
172.1439989700035
 20
66.28634695473967
 30
0.0
  0
LINE
  5
28E
330
1F
100
AcDbEntity
  8
0
  6
HIDDEN
 62
     7
370
    18
100
AcDbLine
 10
172.14399897
 20
66.2863469547
 30
0.0
 11
210.3163185353
 21
66.2863469547
 31
0.0
  0
LINE
  5
28F
330
1F
100
AcDbEntity
  8
0
  6
HIDDEN
 62
     7
370
    18
100
AcDbLine
 10
210.3163185353
 20
122.922202219
 30
0.0
 11
177.0092734154
 21
128.1975199192
 31
0.0
  0
SPLINE
  5
290
330
1F
100
AcDbEntity
  8
0
  6
HIDDEN
 62
     7
370
    18
100
AcDbSpline
210
0.0
220
0.0
230
1.0
 70
     8
 71
     3
 72
    15
 73
    11
 74
     0
 42
0.000000001
 43
0.00000001
 40
0.0
 40
0.0
 40
0.0
 40
0.0
 40
0.1381307056908821
 40
0.2776407294350079
 40
0.4393581493451722
 40
0.5218774913226664
 40
0.6049727717072689
 40
0.7396168177117262
 40
0.8779339270746759
 40
0.9999999999999999
 40
0.9999999999999999
 40
0.9999999999999999
 40
0.9999999999999999
 10
177.009273415367
 20
128.1975199191571
 30
0.0
 10
176.136429557037
 20
128.6426722998276
 30
0.0
 10
174.3820259702492
 20
129.5374221750341
 30
0.0
 10
171.8933275452695
 20
130.909713765972
 30
0.0
 10
169.9689291134174
 20
132.0175892434079
 30
0.0
 10
168.5617410712454
 20
132.8522719236029
 30
0.0
 10
167.4285407744152
 20
133.53543852486
 30
0.0
 10
166.374423153828
 20
134.1828754325708
 30
0.0
 10
165.6137033368282
 20
134.657197022139
 30
0.0
 10
165.5431518996509
 20
134.7014782070667
 30
0.0
 10
165.5100778093821
 20
134.7222369607662
 30
0.0
  0
LINE
  5
291
330
1F
100
AcDbEntity
  8
0
  6
HIDDEN
 62
     7
370
    18
100
AcDbLine
 10
118.3577704196
 20
130.7363469547
 30
0.0
 11
118.3577704196
 21
66.7363469547
 31
0.0
  0
LINE
  5
292
330
1F
100
AcDbEntity
  8
0
  6
HIDDEN
 62
     7
370
    18
100
AcDbLine
 10
214.3577704196
 20
67.7363469547
 30
0.0
 11
214.3577704196
 21
122.2820991242
 31
0.0
  0
SPLINE
  5
293
330
1F
100
AcDbEntity
  8
0
  6
HIDDEN
 62
     7
370
    18
100
AcDbSpline
210
0.0
220
0.0
230
1.0
 70
    24
 71
     3
 72
     8
 73
     4
 74
     0
 42
0.000000001
 43
0.00000001
 40
0.0
 40
0.0
 40
0.0
 40
0.0
 40
1.0
 40
1.0
 40
1.0
 40
1.0
 10
212.0483693428561
 20
122.6478723212043
 30
0.0
 10
212.8505766763545
 20
122.5208151616639
 30
0.0
 10
213.6254670623637
 20
122.398084581563
 30
0.0
 10
214.3577704196146
 20
122.2820991241771
 30
0.0
  0
SPLINE
  5
294
330
1F
100
AcDbEntity
  8
0
  6
HIDDEN
 62
     7
370
    18
100
AcDbSpline
210
0.0
220
0.0
230
1.0
 70
    24
 71
     3
 72
    11
 73
     7
 74
     0
 42
0.000000001
 43
0.00000001
 40
0.0
 40
0.0
 40
0.0
 40
0.0
 40
0.2540439371801663
 40
0.6181135906433863
 40
0.9822743188482779
 40
0.9999999999999999
 40
0.9999999999999999
 40
0.9999999999999999
 40
0.9999999999999999
 10
213.4798043629175
 20
66.2863469547397
 30
0.0
 10
213.4767037767316
 20
66.2863469547397
 30
0.0
 10
213.4691597491838
 20
66.2863469547397
 30
0.0
 10
212.9880143272738
 20
66.2863469547397
 30
0.0
 10
212.4190504437792
 20
66.28634695473964
 30
0.0
 10
212.0648117257569
 20
66.2863469547397
 30
0.0
 10
212.0483693428561
 20
66.2863469547397
 30
0.0
  0
SPLINE
  5
295
330
1F
100
AcDbEntity
  8
0
  6
HIDDEN
 62
     7
370
    18
100
AcDbSpline
210
0.0
220
0.0
230
1.0
 70
    11
 71
     3
 72
    58
 73
    54
 74
     0
 42
0.000000001
 43
0.00000001
 40
0.0
 40
0.0
 40
0.0
 40
0.0
 40
0.0312499999999996
 40
0.0312499999999996
 40
0.0624999999999993
 40
0.0624999999999993
 40
0.0937499999999989
 40
0.0937499999999989
 40
0.1249999999999986
 40
0.1249999999999986
 40
0.1874999999999978
 40
0.1874999999999978
 40
0.2499999999999971
 40
0.2499999999999971
 40
0.2812499999999967
 40
0.2812499999999967
 40
0.3124999999999963
 40
0.3124999999999963
 40
0.3749999999999956
 40
0.3749999999999956
 40
0.4062499999999952
 40
0.4062499999999952
 40
0.4374999999999948
 40
0.4374999999999948
 40
0.4687499999999943
 40
0.4687499999999943
 40
0.4999999999999939
 40
0.4999999999999939
 40
0.562499999999995
 40
0.562499999999995
 40
0.5937499999999956
 40
0.5937499999999956
 40
0.624999999999996
 40
0.624999999999996
 40
0.6562499999999966
 40
0.6562499999999966
 40
0.6874999999999971
 40
0.6874999999999971
 40
0.7499999999999973
 40
0.7499999999999973
 40
0.7812499999999974
 40
0.7812499999999974
 40
0.8124999999999974
 40
0.8124999999999974
 40
0.8437499999999976
 40
0.8437499999999976
 40
0.8749999999999976
 40
0.8749999999999976
 40
0.9374999999999979
 40
0.9374999999999979
 40
0.9687499999999989
 40
0.9687499999999989
 40
1.0
 40
1.0
 40
1.0
 40
1.0
 10
159.3577704196146
 20
100.4129292093395
 30
0.0
 10
159.4670925466143
 20
100.4129292093395
 30
0.0
 10
159.5745274535908
 20
100.4236872053949
 30
0.0
 10
159.7857962559818
 20
100.4656750854854
 30
0.0
 10
159.890744762343
 20
100.4974330169683
 30
0.0
 10
160.0904075841333
 20
100.5797228943465
 30
0.0
 10
160.1850584559179
 20
100.6299037472584
 30
0.0
 10
160.3641885029135
 20
100.7477504193491
 30
0.0
 10
160.4487666339427
 20
100.8158518985532
 30
0.0
 10
160.6763697754963
 20
101.0374754487969
 30
0.0
 10
160.7992129400386
 20
101.2142987678742
 30
0.0
 10
160.9640000428591
 20
101.5896256184777
 30
0.0
 10
161.0076415163182
 20
101.7921308657812
 30
0.0
 10
161.0078344319816
 20
102.0879475663202
 30
0.0
 10
160.9970518337587
 20
102.1872194739857
 30
0.0
 10
160.9548269650985
 20
102.3772712083856
 30
0.0
 10
160.9235886120971
 20
102.4688183627038
 30
0.0
 10
160.799216471238
 20
102.7334014799432
 30
0.0
 10
160.6779684774433
 20
102.8902591130162
 30
0.0
 10
160.4480615545535
 20
103.0865742664151
 30
0.0
 10
160.3650776500344
 20
103.1442088852848
 30
0.0
 10
160.1866830485136
 20
103.2448948413733
 30
0.0
 10
160.0900881618852
 20
103.2882738815336
 30
0.0
 10
159.8907186249131
 20
103.3573524915622
 30
0.0
 10
159.7878770309905
 20
103.3833776592447
 30
0.0
 10
159.575801607246
 20
103.41861726048
 30
0.0
 10
159.4662813288354
 20
103.4275925378445
 30
0.0
 10
159.1427763025494
 20
103.427702239192
 30
0.0
 10
158.9250868609676
 20
103.3919289046547
 30
0.0
 10
158.6270564895577
 20
103.2889107061032
 30
0.0
 10
158.5306740519183
 20
103.2458189519563
 30
0.0
 10
158.3510929079661
 20
103.1446639197647
 30
0.0
 10
158.2682045068823
 20
103.08704940012
 30
0.0
 10
158.1159636797981
 20
102.9573384471499
 30
0.0
 10
158.0464010182447
 20
102.8846353916985
 30
0.0
 10
157.9268795515662
 20
102.7299170155135
 30
0.0
 10
157.8760506793822
 20
102.6473221116565
 30
0.0
 10
157.7510638650106
 20
102.3826266695282
 30
0.0
 10
157.7079191543732
 20
102.1902931371988
 30
0.0
 10
157.7076966259773
 20
101.8917530726778
 30
0.0
 10
157.7183067932586
 20
101.792804876391
 30
0.0
 10
157.7602521522315
 20
101.5960944986341
 30
0.0
 10
157.7921432134405
 20
101.4973510912214
 30
0.0
 10
157.8747354092729
 20
101.3088307535974
 30
0.0
 10
157.9253343716502
 20
101.2184591499914
 30
0.0
 10
158.0452480591333
 20
101.045873235566
 30
0.0
 10
158.1144597514717
 20
100.9642486277683
 30
0.0
 10
158.3417566471329
 20
100.742672758094
 30
0.0
 10
158.5252562979445
 20
100.6210778982814
 30
0.0
 10
158.8229089909973
 20
100.4981160391656
 30
0.0
 10
158.9276358295381
 20
100.4661815883043
 30
0.0
 10
159.1405675689738
 20
100.423689444034
 30
0.0
 10
159.2484482926149
 20
100.4129292093395
 30
0.0
 10
159.3577704196146
 20
100.4129292093395
 30
0.0
  0
LWPOLYLINE
  5
296
330
1F
100
AcDbEntity
  8
0
  6
HIDDEN
 62
     7
370
    18
100
AcDbPolyline
 90
       20
 70
   128
 43
0.0
 10
159.3577704196
 20
111.0580428142
 10
159.8935245438
 20
111.1397151952
 10
160.3712213956
 20
111.3758818684
 10
160.7390951087
 20
111.7409505104
 10
160.9572808584
 20
112.195360269
 10
161.0021348331
 20
112.6898687961
 10
160.8687964086
 20
113.1708884197
 10
160.5717148722
 20
113.5862931998
 10
160.1430836181
 20
113.8910675827
 10
159.6293514936
 20
114.052184535
 10
159.0861893457
 20
114.052184535
 10
158.5724572211
 20
113.8910675827
 10
158.143825967
 20
113.5862931998
 10
157.8467444306
 20
113.1708884197
 10
157.7134060062
 20
112.6898687961
 10
157.7582599808
 20
112.195360269
 10
157.9764457305
 20
111.7409505104
 10
158.3443194437
 20
111.3758818684
 10
158.8220162954
 20
111.1397151952
 10
159.3577704196
 20
111.0580428142
  0
ELLIPSE
  5
297
330
1F
100
AcDbEntity
  8
0
  6
HIDDEN
 62
     7
370
    18
100
AcDbEllipse
 10
159.3577704196
 20
109.3114996747
 30
0.0
 11
1.383806437109939
 21
-1.383806437109968
 31
0.0
210
0.0
220
0.0
230
1.0
 40
0.6494075932
 41
5.288347633542846
 42
8.429940287132625
  0
ELLIPSE
  5
298
330
1F
100
AcDbEntity
  8
0
  6
HIDDEN
 62
     7
370
    18
100
AcDbEllipse
 10
159.3577704196
 20
109.3114996747
 30
0.0
 11
1.383806437109939
 21
1.383806437109953
 31
0.0
210
0.0
220
0.0
230
1.0
 40
0.6494075932
 41
4.136430327226561
 42
7.278022980816342
  0
SPLINE
  5
299
330
1F
100
AcDbEntity
  8
0
  6
HIDDEN
 62
     7
370
    18
100
AcDbSpline
210
0.0
220
0.0
230
1.0
 70
     8
 71
     3
 72
     8
 73
     4
 74
     0
 42
0.000000001
 43
0.00000001
 40
0.0
 40
0.0
 40
0.0
 40
0.0
 40
1.0
 40
1.0
 40
1.0
 40
1.0
 10
198.2850620498163
 20
108.9442593173779
 30
0.0
 10
198.4928728161236
 20
108.8197958955562
 30
0.0
 10
198.7104514564988
 20
108.720970033382
 30
0.0
 10
198.9396011781079
 20
108.6472125361423
 30
0.0
  0
ELLIPSE
  5
29A
330
1F
100
AcDbEntity
  8
0
  6
HIDDEN
 62
     7
370
    18
100
AcDbEllipse
 10
198.612331614
 20
109.3114996747
 30
0.0
 11
2.562355746355707
 21
1.523029872047716
 31
0.0
210
0.0
220
0.0
230
1.0
 40
0.2477127917
 41
4.692900688259257
 42
7.581096298104378
  0
SPLINE
  5
29B
330
1F
100
AcDbEntity
  8
0
  6
HIDDEN
 62
     7
370
    18
100
AcDbSpline
210
0.0
220
0.0
230
1.0
 70
     8
 71
     3
 72
     8
 73
     4
 74
     0
 42
0.000000001
 43
0.00000001
 40
0.0
 40
0.0
 40
0.0
 40
0.0
 40
1.0
 40
1.0
 40
1.0
 40
1.0
 10
198.9396011781079
 20
110.3332147886522
 30
0.0
 10
198.7096816465957
 20
110.3966970298729
 30
0.0
 10
198.4921715229853
 20
110.4761726649868
 30
0.0
 10
198.2850620498163
 20
110.5594113995789
 30
0.0
  0
ELLIPSE
  5
29C
330
1F
100
AcDbEntity
  8
0
  6
HIDDEN
 62
     7
370
    18
100
AcDbEllipse
 10
198.612331614
 20
109.3114996747
 30
0.0
 11
-0.9702770378030724
 21
1.632400643612414
 31
0.0
210
0.0
220
0.0
230
1.0
 40
0.2477127917
 41
5.423856587899183
 42
7.932244534700911
  0
LINE
  5
29D
330
1F
100
AcDbEntity
  8
0
  6
HIDDEN
 62
     7
370
    18
100
AcDbLine
 10
212.3577704196
 20
107.6614996747
 30
0.0
 11
212.3577704196
 21
110.9614996747
 31
0.0
  0
ARC
  5
29E
330
1F
100
AcDbEntity
  8
0
  6
HIDDEN
 62
     7
370
    18
100
AcDbCircle
 10
197.6258210023
 20
107.5916735256
 30
0.0
 40
3.040076783115744
100
AcDbArc
 50
64.3956881193
 51
77.4759069275
  0
ARC
  5
29F
330
1F
100
AcDbEntity
  8
0
  6
HIDDEN
 62
     7
370
    18
100
AcDbCircle
 10
200.0093713995
 20
111.874096849
 30
0.0
 40
3.399586841815218
100
AcDbArc
 50
239.5217367376
 51
251.6587121413
  0
LINE
  5
2A0
330
1F
100
AcDbEntity
  8
0
  6
HIDDEN
 62
     7
370
    18
100
AcDbLine
 10
204.6304033596
 20
123.8227627118
 30
0.0
 11
208.0851374797
 21
123.2755865817
 31
0.0
  0
LINE
  5
2A1
330
1F
100
AcDbEntity
  8
0
  6
HIDDEN
 62
     7
370
    18
100
AcDbLine
 10
177.0092734154
 20
128.1975199192
 30
0.0
 11
169.3577704196
 21
129.4093989388
 31
0.0
  0
SPLINE
  5
2A2
330
1F
100
AcDbEntity
  8
0
  6
HIDDEN
 62
     7
370
    18
100
AcDbSpline
210
0.0
220
0.0
230
1.0
 70
    11
 71
     3
 72
    20
 73
    16
 74
     0
 42
0.000000001
 43
0.00000001
 40
0.0
 40
0.0
 40
0.0
 40
0.0
 40
0.1249999999999999
 40
0.1249999999999999
 40
0.2499999999999998
 40
0.2499999999999998
 40
0.3749999999999997
 40
0.3749999999999997
 40
0.4999999999999996
 40
0.4999999999999996
 40
0.6249999999999994
 40
0.6249999999999994
 40
0.7499999999999993
 40
0.7499999999999993
 40
1.0
 40
1.0
 40
1.0
 40
1.0
 10
118.3577704196146
 20
118.3161704233114
 30
0.0
 10
118.3809654497492
 20
118.1680677525053
 30
0.0
 10
118.4017988458253
 20
118.0368907686743
 30
0.0
 10
118.4386066601875
 20
117.8071735321167
 30
0.0
 10
118.4547081023382
 20
117.7078635522192
 30
0.0
 10
118.4807166076652
 20
117.5483969672912
 30
0.0
 10
118.4906043902565
 20
117.4883247431447
 30
0.0
 10
118.50400934733
 20
117.4070503356485
 30
0.0
 10
118.5074761221279
 20
117.3861505953445
 30
0.0
 10
118.5075038616711
 20
117.3859830622164
 30
0.0
 10
118.5041763169376
 20
117.4060411063395
 30
0.0
 10
118.4908353602993
 20
117.4869213512015
 30
0.0
 10
118.4807824138613
 20
117.5479989457274
 30
0.0
 10
118.442118734674
 20
117.7850422498844
 30
0.0
 10
118.4041644764976
 20
118.019939562906
 30
0.0
 10
118.3577704196146
 20
118.3161704233114
 30
0.0
  0
SPLINE
  5
2A3
330
1F
100
AcDbEntity
  8
0
  6
HIDDEN
 62
     7
370
    18
100
AcDbSpline
210
0.0
220
0.0
230
1.0
 70
    11
 71
     3
 72
    20
 73
    16
 74
     0
 42
0.000000001
 43
0.00000001
 40
0.0
 40
0.0
 40
0.0
 40
0.0
 40
0.125
 40
0.125
 40
0.2499999999999998
 40
0.2499999999999998
 40
0.3749999999999997
 40
0.3749999999999997
 40
0.4999999999999996
 40
0.4999999999999996
 40
0.6249999999999994
 40
0.6249999999999994
 40
0.7499999999999994
 40
0.7499999999999994
 40
1.0
 40
1.0
 40
1.0
 40
1.0
 10
118.3577704196146
 20
79.15652348616801
 30
0.0
 10
118.3809654497492
 20
79.30462615697417
 30
0.0
 10
118.4017988458253
 20
79.43580314080513
 30
0.0
 10
118.4386066601875
 20
79.66552037736268
 30
0.0
 10
118.4547081023382
 20
79.76483035726021
 30
0.0
 10
118.4807166076652
 20
79.92429694218818
 30
0.0
 10
118.4906043902565
 20
79.98436916633473
 30
0.0
 10
118.50400934733
 20
80.0656435738309
 30
0.0
 10
118.5074761221279
 20
80.08654331413493
 30
0.0
 10
118.5075038616711
 20
80.08671084726305
 30
0.0
 10
118.5041763169376
 20
80.0666528031399
 30
0.0
 10
118.4908353602993
 20
79.9857725582779
 30
0.0
 10
118.4807824138613
 20
79.92469496375203
 30
0.0
 10
118.442118734674
 20
79.68765165959505
 30
0.0
 10
118.4041644764976
 20
79.45275434657343
 30
0.0
 10
118.3577704196146
 20
79.156523486168
 30
0.0
  0
LINE
  5
2A4
330
1F
100
AcDbEntity
  8
0
  6
HIDDEN
 62
     7
370
    18
100
AcDbLine
 10
118.3577704196
 20
118.3161704233
 30
0.0
 11
118.3577704196
 21
79.1565234862
 31
0.0
  0
LINE
  5
2A5
330
1F
100
AcDbEntity
  8
0
  6
HIDDEN
 62
     7
370
    18
100
AcDbLine
 10
118.3577704196
 20
79.1565234862
 30
0.0
 11
118.3577704196
 21
118.3161704233
 31
0.0
  0
SPLINE
  5
2A6
330
1F
100
AcDbEntity
  8
0
  6
HIDDEN
 62
     7
370
    18
100
AcDbSpline
210
0.0
220
0.0
230
1.0
 70
    11
 71
     3
 72
   110
 73
   106
 74
     0
 42
0.000000001
 43
0.00000001
 40
0.0
 40
0.0
 40
0.0
 40
0.0
 40
0.0312499999999999
 40
0.0312499999999999
 40
0.0624999999999999
 40
0.0624999999999999
 40
0.0937499999999998
 40
0.0937499999999998
 40
0.1249999999999998
 40
0.1249999999999998
 40
0.1562499999999997
 40
0.1562499999999997
 40
0.171875
 40
0.171875
 40
0.1875000000000003
 40
0.1875000000000003
 40
0.2031250000000006
 40
0.2031250000000006
 40
0.2187500000000008
 40
0.2187500000000008
 40
0.2343750000000011
 40
0.2343750000000011
 40
0.2500000000000014
 40
0.2500000000000014
 40
0.2656250000000017
 40
0.2656250000000017
 40
0.2734375000000018
 40
0.2734375000000018
 40
0.281250000000002
 40
0.281250000000002
 40
0.2890625000000022
 40
0.2890625000000022
 40
0.2968750000000023
 40
0.2968750000000023
 40
0.3125000000000026
 40
0.3125000000000026
 40
0.3203125000000027
 40
0.3203125000000027
 40
0.3281250000000027
 40
0.3281250000000027
 40
0.3437500000000028
 40
0.3437500000000028
 40
0.3593750000000029
 40
0.3593750000000029
 40
0.375000000000003
 40
0.375000000000003
 40
0.3906250000000031
 40
0.3906250000000031
 40
0.4062500000000032
 40
0.4062500000000032
 40
0.4218750000000032
 40
0.4218750000000032
 40
0.4375000000000033
 40
0.4375000000000033
 40
0.4687500000000035
 40
0.4687500000000035
 40
0.5000000000000037
 40
0.5000000000000037
 40
0.5312500000000038
 40
0.5312500000000038
 40
0.562500000000004
 40
0.562500000000004
 40
0.5937500000000041
 40
0.5937500000000041
 40
0.6250000000000043
 40
0.6250000000000043
 40
0.6562500000000044
 40
0.6562500000000044
 40
0.6875000000000047
 40
0.6875000000000047
 40
0.7187500000000048
 40
0.7187500000000048
 40
0.7343750000000049
 40
0.7343750000000049
 40
0.750000000000005
 40
0.750000000000005
 40
0.7656250000000051
 40
0.7656250000000051
 40
0.773437500000005
 40
0.773437500000005
 40
0.7812500000000048
 40
0.7812500000000048
 40
0.7968750000000044
 40
0.7968750000000044
 40
0.8125000000000041
 40
0.8125000000000041
 40
0.8203125000000039
 40
0.8203125000000039
 40
0.8281250000000037
 40
0.8281250000000037
 40
0.8437500000000032
 40
0.8437500000000032
 40
0.8593750000000029
 40
0.8593750000000029
 40
0.8750000000000026
 40
0.8750000000000026
 40
0.8906250000000022
 40
0.8906250000000022
 40
0.9062500000000018
 40
0.9062500000000018
 40
0.9375000000000012
 40
0.9375000000000012
 40
0.9687500000000006
 40
0.9687500000000006
 40
1.0
 40
1.0
 40
1.0
 40
1.0
 10
188.0171975456804
 20
103.7363469547397
 30
0.0
 10
188.654563357432
 20
103.7363469547397
 30
0.0
 10
189.2958683833047
 20
103.7283971905113
 30
0.0
 10
190.5861181650325
 20
103.7158261512166
 30
0.0
 10
191.2350638068905
 20
103.7111554626371
 30
0.0
 10
192.5407063460606
 20
103.7114188941379
 30
0.0
 10
193.2019283116022
 20
103.7164578065543
 30
0.0
 10
194.4987557865239
 20
103.7292521727889
 30
0.0
 10
195.1367246768897
 20
103.7369134645965
 30
0.0
 10
196.3920206774353
 20
103.7357181395255
 30
0.0
 10
197.0093496824212
 20
103.7270399034882
 30
0.0
 10
197.9191956365817
 20
103.6775064726292
 30
0.0
 10
198.219647739929
 20
103.6547031188206
 30
0.0
 10
198.8053671334814
 20
103.5919907473325
 30
0.0
 10
199.0918204526583
 20
103.5520510531815
 30
0.0
 10
199.6514213048172
 20
103.4488773758481
 30
0.0
 10
199.9245718578199
 20
103.3856809013004
 30
0.0
 10
200.4568204867397
 20
103.2279311613212
 30
0.0
 10
200.7154026315986
 20
103.1332332683521
 30
0.0
 10
201.2052691338578
 20
102.9082199693061
 30
0.0
 10
201.4381085931917
 20
102.7775618876229
 30
0.0
 10
201.8783412640907
 20
102.4702583593172
 30
0.0
 10
202.0867355800782
 20
102.2919848231343
 30
0.0
 10
202.4619860957204
 20
101.8919358872035
 30
0.0
 10
202.6307789893454
 20
101.669337569143
 30
0.0
 10
202.8549283067644
 20
101.2949353701832
 30
0.0
 10
202.9244176541787
 20
101.1637180695586
 30
0.0
 10
203.0501844067135
 20
100.8939360831414
 30
0.0
 10
203.1069451745435
 20
100.7546054941519
 30
0.0
 10
203.2085383238159
 20
100.4668027339705
 30
0.0
 10
203.2533740947447
 20
100.3183337313716
 30
0.0
 10
203.3309986529241
 20
100.0117106623195
 30
0.0
 10
203.3639548236749
 20
99.85224403459092
 30
0.0
 10
203.4418574609861
 20
99.37120119233431
 30
0.0
 10
203.4670521075485
 20
99.04573430994758
 30
0.0
 10
203.4653560281198
 20
98.5502815219811
 30
0.0
 10
203.4579655076126
 20
98.3830155966353
 30
0.0
 10
203.4299587554297
 20
98.05544660408786
 30
0.0
 10
203.409408124287
 20
97.89412978838095
 30
0.0
 10
203.3282347340504
 20
97.4173674218008
 30
0.0
 10
203.2467217014448
 20
97.10570568672246
 30
0.0
 10
203.0366084513215
 20
96.52858953347702
 30
0.0
 10
202.9073455212707
 20
96.25923263276758
 30
0.0
 10
202.6030301316655
 20
95.76418591187571
 30
0.0
 10
202.4313971122709
 20
95.5434835834055
 30
0.0
 10
202.050027479081
 20
95.14714839504525
 30
0.0
 10
201.8397101515998
 20
94.97197329234423
 30
0.0
 10
201.3967351106026
 20
94.67044550307861
 30
0.0
 10
201.1623134235895
 20
94.54211581522014
 30
0.0
 10
200.6687333492103
 20
94.32117820929798
 30
0.0
 10
200.4080149061163
 20
94.2283131908691
 30
0.0
 10
199.874594001685
 20
94.07459176223904
 30
0.0
 10
199.6010000799403
 20
94.01311447915863
 30
0.0
 10
198.7606701548044
 20
93.86282230362114
 30
0.0
 10
198.1731392732008
 20
93.80762059363443
 30
0.0
 10
196.9547468648024
 20
93.7441978867527
 30
0.0
 10
196.3352833279083
 20
93.73641496533178
 30
0.0
 10
195.0766666151583
 20
93.73627976308236
 30
0.0
 10
194.4375113190984
 20
93.74410671322029
 30
0.0
 10
193.1392807231813
 20
93.75678756584323
 30
0.0
 10
192.4776747166433
 20
93.76155226515245
 30
0.0
 10
191.1710470379951
 20
93.76125979472782
 30
0.0
 10
190.52171343295
 20
93.75630555469982
 30
0.0
 10
189.2308975011877
 20
93.74359126213835
 30
0.0
 10
188.5883648892319
 20
93.73577967837862
 30
0.0
 10
187.3157373058969
 20
93.73697486649691
 30
0.0
 10
186.6966463343294
 20
93.74604704693212
 30
0.0
 10
185.4935422048082
 20
93.81180005490847
 30
0.0
 10
184.909513081826
 20
93.86798406183327
 30
0.0
 10
183.7793811840541
 20
94.07628096902317
 30
0.0
 10
183.2478605599915
 20
94.2258044925211
 30
0.0
 10
182.5103906103452
 20
94.56435370756564
 30
0.0
 10
182.2733370382569
 20
94.6976204682416
 30
0.0
 10
181.8336074141085
 20
95.0053197815599
 30
0.0
 10
181.6292881246056
 20
95.18018129136699
 30
0.0
 10
181.2529018579082
 20
95.58146707905914
 30
0.0
 10
181.0810720297394
 20
95.80894907071529
 30
0.0
 10
180.8592014062728
 20
96.18040713327282
 30
0.0
 10
180.7906961326722
 20
96.30978361590468
 30
0.0
 10
180.6646223760488
 20
96.58044174408352
 30
0.0
 10
180.6067142935105
 20
96.72273619773023
 30
0.0
 10
180.4526724638333
 20
97.16121594632308
 30
0.0
 10
180.3762480282558
 20
97.46654964985053
 30
0.0
 10
180.2735178719014
 20
98.10415210896313
 30
0.0
 10
180.2480006354928
 20
98.43873664060219
 30
0.0
 10
180.2504923207226
 20
98.93149134752443
 30
0.0
 10
180.2579153907962
 20
99.09542754948798
 30
0.0
 10
180.2862018265046
 20
99.4226624864785
 30
0.0
 10
180.3072986335725
 20
99.58696254736746
 30
0.0
 10
180.3897338722544
 20
100.0663456755528
 30
0.0
 10
180.4698592253534
 20
100.3710236308787
 30
0.0
 10
180.682250339166
 20
100.9520146795915
 30
0.0
 10
180.8122938493468
 20
101.2209739462249
 30
0.0
 10
181.1150859871512
 20
101.7118331253431
 30
0.0
 10
181.2901189065472
 20
101.9362130025584
 30
0.0
 10
181.6703953073971
 20
102.3298030219245
 30
0.0
 10
181.8769357735427
 20
102.5016758589995
 30
0.0
 10
182.3219998445529
 20
102.8042176083358
 30
0.0
 10
182.5607350873115
 20
102.9343953170521
 30
0.0
 10
183.3005191214813
 20
103.264148894791
 30
0.0
 10
183.8325429061925
 20
103.409448909832
 30
0.0
 10
184.966807749687
 20
103.6116993106499
 30
0.0
 10
185.5526599310559
 20
103.6657230016331
 30
0.0
 10
186.7590388511075
 20
103.7282881495804
 30
0.0
 10
187.3798317339289
 20
103.7363469547397
 30
0.0
 10
188.0171975456804
 20
103.7363469547397
 30
0.0
  0
SPLINE
  5
2A7
330
1F
100
AcDbEntity
  8
0
  6
HIDDEN
 62
     7
370
    18
100
AcDbSpline
210
0.0
220
0.0
230
1.0
 70
    11
 71
     3
 72
   110
 73
   106
 74
     0
 42
0.000000001
 43
0.00000001
 40
0.0
 40
0.0
 40
0.0
 40
0.0
 40
0.0312499999999999
 40
0.0312499999999999
 40
0.0624999999999999
 40
0.0624999999999999
 40
0.0937499999999998
 40
0.0937499999999998
 40
0.1249999999999998
 40
0.1249999999999998
 40
0.1562499999999997
 40
0.1562499999999997
 40
0.171875
 40
0.171875
 40
0.1875000000000003
 40
0.1875000000000003
 40
0.2031250000000006
 40
0.2031250000000006
 40
0.2187500000000008
 40
0.2187500000000008
 40
0.2343750000000011
 40
0.2343750000000011
 40
0.2500000000000014
 40
0.2500000000000014
 40
0.2656250000000017
 40
0.2656250000000017
 40
0.2734375000000018
 40
0.2734375000000018
 40
0.281250000000002
 40
0.281250000000002
 40
0.2890625000000022
 40
0.2890625000000022
 40
0.2968750000000023
 40
0.2968750000000023
 40
0.3125000000000026
 40
0.3125000000000026
 40
0.3203125000000027
 40
0.3203125000000027
 40
0.3281250000000027
 40
0.3281250000000027
 40
0.3437500000000028
 40
0.3437500000000028
 40
0.3593750000000029
 40
0.3593750000000029
 40
0.375000000000003
 40
0.375000000000003
 40
0.3906250000000031
 40
0.3906250000000031
 40
0.4062500000000032
 40
0.4062500000000032
 40
0.4218750000000032
 40
0.4218750000000032
 40
0.4375000000000033
 40
0.4375000000000033
 40
0.4687500000000035
 40
0.4687500000000035
 40
0.5000000000000037
 40
0.5000000000000037
 40
0.5312500000000038
 40
0.5312500000000038
 40
0.562500000000004
 40
0.562500000000004
 40
0.5937500000000041
 40
0.5937500000000041
 40
0.6250000000000043
 40
0.6250000000000043
 40
0.6562500000000044
 40
0.6562500000000044
 40
0.6875000000000047
 40
0.6875000000000047
 40
0.7187500000000048
 40
0.7187500000000048
 40
0.7343750000000049
 40
0.7343750000000049
 40
0.750000000000005
 40
0.750000000000005
 40
0.7656250000000051
 40
0.7656250000000051
 40
0.773437500000005
 40
0.773437500000005
 40
0.7812500000000048
 40
0.7812500000000048
 40
0.7968750000000044
 40
0.7968750000000044
 40
0.8125000000000041
 40
0.8125000000000041
 40
0.8203125000000039
 40
0.8203125000000039
 40
0.8281250000000037
 40
0.8281250000000037
 40
0.8437500000000032
 40
0.8437500000000032
 40
0.8593750000000029
 40
0.8593750000000029
 40
0.8750000000000026
 40
0.8750000000000026
 40
0.8906250000000022
 40
0.8906250000000022
 40
0.9062500000000018
 40
0.9062500000000018
 40
0.9375000000000012
 40
0.9375000000000012
 40
0.9687500000000006
 40
0.9687500000000006
 40
1.0
 40
1.0
 40
1.0
 40
1.0
 10
188.0171975456804
 20
103.7363469547397
 30
0.0
 10
188.654563357432
 20
103.7363469547397
 30
0.0
 10
189.2958683833047
 20
103.7283971905113
 30
0.0
 10
190.5861181650325
 20
103.7158261512166
 30
0.0
 10
191.2350638068905
 20
103.7111554626371
 30
0.0
 10
192.5407063460606
 20
103.7114188941379
 30
0.0
 10
193.2019283116022
 20
103.7164578065543
 30
0.0
 10
194.4987557865239
 20
103.7292521727889
 30
0.0
 10
195.1367246768897
 20
103.7369134645965
 30
0.0
 10
196.3920206774353
 20
103.7357181395255
 30
0.0
 10
197.0093496824212
 20
103.7270399034882
 30
0.0
 10
197.9191956365817
 20
103.6775064726292
 30
0.0
 10
198.219647739929
 20
103.6547031188206
 30
0.0
 10
198.8053671334814
 20
103.5919907473325
 30
0.0
 10
199.0918204526583
 20
103.5520510531815
 30
0.0
 10
199.6514213048172
 20
103.4488773758481
 30
0.0
 10
199.9245718578199
 20
103.3856809013004
 30
0.0
 10
200.4568204867397
 20
103.2279311613212
 30
0.0
 10
200.7154026315986
 20
103.1332332683521
 30
0.0
 10
201.2052691338578
 20
102.9082199693061
 30
0.0
 10
201.4381085931917
 20
102.7775618876229
 30
0.0
 10
201.8783412640907
 20
102.4702583593172
 30
0.0
 10
202.0867355800782
 20
102.2919848231343
 30
0.0
 10
202.4619860957204
 20
101.8919358872035
 30
0.0
 10
202.6307789893454
 20
101.669337569143
 30
0.0
 10
202.8549283067644
 20
101.2949353701832
 30
0.0
 10
202.9244176541787
 20
101.1637180695586
 30
0.0
 10
203.0501844067135
 20
100.8939360831414
 30
0.0
 10
203.1069451745435
 20
100.7546054941519
 30
0.0
 10
203.2085383238159
 20
100.4668027339705
 30
0.0
 10
203.2533740947447
 20
100.3183337313716
 30
0.0
 10
203.3309986529241
 20
100.0117106623195
 30
0.0
 10
203.3639548236749
 20
99.85224403459092
 30
0.0
 10
203.4418574609861
 20
99.37120119233431
 30
0.0
 10
203.4670521075485
 20
99.04573430994758
 30
0.0
 10
203.4653560281198
 20
98.5502815219811
 30
0.0
 10
203.4579655076126
 20
98.3830155966353
 30
0.0
 10
203.4299587554297
 20
98.05544660408786
 30
0.0
 10
203.409408124287
 20
97.89412978838095
 30
0.0
 10
203.3282347340504
 20
97.4173674218008
 30
0.0
 10
203.2467217014448
 20
97.10570568672246
 30
0.0
 10
203.0366084513215
 20
96.52858953347702
 30
0.0
 10
202.9073455212707
 20
96.25923263276758
 30
0.0
 10
202.6030301316655
 20
95.76418591187571
 30
0.0
 10
202.4313971122709
 20
95.5434835834055
 30
0.0
 10
202.050027479081
 20
95.14714839504525
 30
0.0
 10
201.8397101515998
 20
94.97197329234423
 30
0.0
 10
201.3967351106026
 20
94.67044550307861
 30
0.0
 10
201.1623134235895
 20
94.54211581522014
 30
0.0
 10
200.6687333492103
 20
94.32117820929798
 30
0.0
 10
200.4080149061163
 20
94.2283131908691
 30
0.0
 10
199.874594001685
 20
94.07459176223904
 30
0.0
 10
199.6010000799403
 20
94.01311447915863
 30
0.0
 10
198.7606701548044
 20
93.86282230362114
 30
0.0
 10
198.1731392732008
 20
93.80762059363443
 30
0.0
 10
196.9547468648024
 20
93.7441978867527
 30
0.0
 10
196.3352833279083
 20
93.73641496533178
 30
0.0
 10
195.0766666151583
 20
93.73627976308236
 30
0.0
 10
194.4375113190984
 20
93.74410671322029
 30
0.0
 10
193.1392807231813
 20
93.75678756584323
 30
0.0
 10
192.4776747166433
 20
93.76155226515245
 30
0.0
 10
191.1710470379951
 20
93.76125979472782
 30
0.0
 10
190.52171343295
 20
93.75630555469982
 30
0.0
 10
189.2308975011877
 20
93.74359126213835
 30
0.0
 10
188.5883648892319
 20
93.73577967837862
 30
0.0
 10
187.3157373058969
 20
93.73697486649691
 30
0.0
 10
186.6966463343294
 20
93.74604704693212
 30
0.0
 10
185.4935422048082
 20
93.81180005490847
 30
0.0
 10
184.909513081826
 20
93.86798406183327
 30
0.0
 10
183.7793811840541
 20
94.07628096902317
 30
0.0
 10
183.2478605599915
 20
94.2258044925211
 30
0.0
 10
182.5103906103452
 20
94.56435370756564
 30
0.0
 10
182.2733370382569
 20
94.6976204682416
 30
0.0
 10
181.8336074141085
 20
95.0053197815599
 30
0.0
 10
181.6292881246056
 20
95.18018129136699
 30
0.0
 10
181.2529018579082
 20
95.58146707905914
 30
0.0
 10
181.0810720297394
 20
95.80894907071529
 30
0.0
 10
180.8592014062728
 20
96.18040713327282
 30
0.0
 10
180.7906961326722
 20
96.30978361590468
 30
0.0
 10
180.6646223760488
 20
96.58044174408352
 30
0.0
 10
180.6067142935105
 20
96.72273619773023
 30
0.0
 10
180.4526724638333
 20
97.16121594632308
 30
0.0
 10
180.3762480282558
 20
97.46654964985053
 30
0.0
 10
180.2735178719014
 20
98.10415210896313
 30
0.0
 10
180.2480006354928
 20
98.43873664060219
 30
0.0
 10
180.2504923207226
 20
98.93149134752443
 30
0.0
 10
180.2579153907962
 20
99.09542754948798
 30
0.0
 10
180.2862018265046
 20
99.4226624864785
 30
0.0
 10
180.3072986335725
 20
99.58696254736746
 30
0.0
 10
180.3897338722544
 20
100.0663456755528
 30
0.0
 10
180.4698592253534
 20
100.3710236308787
 30
0.0
 10
180.682250339166
 20
100.9520146795915
 30
0.0
 10
180.8122938493468
 20
101.2209739462249
 30
0.0
 10
181.1150859871512
 20
101.7118331253431
 30
0.0
 10
181.2901189065472
 20
101.9362130025584
 30
0.0
 10
181.6703953073971
 20
102.3298030219245
 30
0.0
 10
181.8769357735427
 20
102.5016758589995
 30
0.0
 10
182.3219998445529
 20
102.8042176083358
 30
0.0
 10
182.5607350873115
 20
102.9343953170521
 30
0.0
 10
183.3005191214813
 20
103.264148894791
 30
0.0
 10
183.8325429061925
 20
103.409448909832
 30
0.0
 10
184.966807749687
 20
103.6116993106499
 30
0.0
 10
185.5526599310559
 20
103.6657230016331
 30
0.0
 10
186.7590388511075
 20
103.7282881495804
 30
0.0
 10
187.3798317339289
 20
103.7363469547397
 30
0.0
 10
188.0171975456804
 20
103.7363469547397
 30
0.0
  0
LINE
  5
2A8
330
1F
100
AcDbEntity
  8
0
  6
HIDDEN
 62
     7
370
    18
100
AcDbLine
 10
173.3577704196
 20
93.7363469547
 30
0.0
 11
173.3577704196
 21
103.7363469547
 31
0.0
  0
LINE
  5
2A9
330
1F
100
AcDbEntity
  8
0
  6
HIDDEN
 62
     7
370
    18
100
AcDbLine
 10
214.3577704196
 20
103.7363469547
 30
0.0
 11
214.3577704196
 21
93.7589873419
 31
0.0
  0
SPLINE
  5
2AA
330
1F
100
AcDbEntity
  8
0
  6
HIDDEN
 62
     7
370
    18
100
AcDbSpline
210
0.0
220
0.0
230
1.0
 70
    11
 71
     3
 72
    85
 73
    81
 74
     0
 42
0.000000001
 43
0.00000001
 40
0.0
 40
0.0
 40
0.0
 40
0.0
 40
0.0312499999999995
 40
0.0312499999999995
 40
0.062499999999999
 40
0.062499999999999
 40
0.0937499999999985
 40
0.0937499999999985
 40
0.1249999999999981
 40
0.1249999999999981
 40
0.1562499999999976
 40
0.1562499999999976
 40
0.1874999999999971
 40
0.1874999999999971
 40
0.2187499999999966
 40
0.2187499999999966
 40
0.2343749999999962
 40
0.2343749999999962
 40
0.2499999999999958
 40
0.2656249999999954
 40
0.2656249999999954
 40
0.2812499999999949
 40
0.2812499999999949
 40
0.3124999999999938
 40
0.3124999999999938
 40
0.3437499999999927
 40
0.3437499999999927
 40
0.3749999999999915
 40
0.3749999999999915
 40
0.4062499999999903
 40
0.4062499999999903
 40
0.4374999999999892
 40
0.4374999999999892
 40
0.4531249999999892
 40
0.4531249999999892
 40
0.4687499999999893
 40
0.4687499999999893
 40
0.4843749999999893
 40
0.4843749999999893
 40
0.4999999999999893
 40
0.4999999999999893
 40
0.5156249999999893
 40
0.5156249999999893
 40
0.5312499999999893
 40
0.5312499999999893
 40
0.5624999999999895
 40
0.5624999999999895
 40
0.5937499999999896
 40
0.5937499999999896
 40
0.6249999999999897
 40
0.6249999999999897
 40
0.6562499999999897
 40
0.6562499999999897
 40
0.6718749999999898
 40
0.6718749999999898
 40
0.6874999999999899
 40
0.6874999999999899
 40
0.7187499999999906
 40
0.7187499999999906
 40
0.7499999999999913
 40
0.7499999999999913
 40
0.7812499999999921
 40
0.7812499999999921
 40
0.8124999999999928
 40
0.8124999999999928
 40
0.8437499999999936
 40
0.8437499999999936
 40
0.8749999999999943
 40
0.8749999999999943
 40
0.9062499999999952
 40
0.9062499999999952
 40
0.9374999999999961
 40
0.9374999999999961
 40
0.9531249999999971
 40
0.9531249999999971
 40
0.968749999999998
 40
0.968749999999998
 40
0.984374999999999
 40
0.984374999999999
 40
1.0
 40
1.0
 40
1.0
 40
1.0
 10
191.8577704196146
 20
102.9863469547397
 30
0.0
 10
192.1605628690836
 20
102.9863469547397
 30
0.0
 10
192.4525963323272
 20
102.9543607475244
 30
0.0
 10
193.0162575793115
 20
102.8355378167726
 30
0.0
 10
193.2757673197651
 20
102.7517554788105
 30
0.0
 10
193.7685995497627
 20
102.5419944501593
 30
0.0
 10
194.0013707647812
 20
102.4153160432443
 30
0.0
 10
194.4330319617003
 20
102.1271969932736
 30
0.0
 10
194.6341521551712
 20
101.9648237096073
 30
0.0
 10
195.0102216192563
 20
101.5987601206069
 30
0.0
 10
195.1856124895598
 20
101.3936181037711
 30
0.0
 10
195.4955586764768
 20
100.9504199888123
 30
0.0
 10
195.6319877559696
 20
100.711011984956
 30
0.0
 10
195.8621971464599
 20
100.1884437397127
 30
0.0
 10
195.9518791578555
 20
99.9140798016988
 30
0.0
 10
196.0442005193238
 20
99.48325610255183
 30
0.0
 10
196.0680333723512
 20
99.33506224089828
 30
0.0
 10
196.0996599734648
 20
99.03825210757054
 30
0.0
 10
196.1155179015447
 20
98.74145175878476
 30
0.0
 10
196.1003736156669
 20
98.44467068499515
 30
0.0
 10
196.0694786696773
 20
98.14789938541993
 30
0.0
 10
196.0459941617674
 20
97.99951314645541
 30
0.0
 10
195.9545329653396
 20
97.56775577498607
 30
0.0
 10
195.8647291463741
 20
97.2913374315647
 30
0.0
 10
195.6358451562268
 20
96.76913521102911
 30
0.0
 10
195.4994934035089
 20
96.52849278879366
 30
0.0
 10
195.1876846086293
 20
96.08145754022397
 30
0.0
 10
195.0132189811772
 20
95.87731109132278
 30
0.0
 10
194.6387424619389
 20
95.51188790045128
 30
0.0
 10
194.4374598895344
 20
95.34871008004977
 30
0.0
 10
194.0026974632834
 20
95.05800910547784
 30
0.0
 10
193.7706302900436
 20
94.93177110871447
 30
0.0
 10
193.4021254500237
 20
94.77461752139062
 30
0.0
 10
193.2754597298168
 20
94.72739191684492
 30
0.0
 10
193.0122656521691
 20
94.64382887486119
 30
0.0
 10
192.8749776295638
 20
94.60739813951892
 30
0.0
 10
192.5952761562104
 20
94.5483863394552
 30
0.0
 10
192.4521943350662
 20
94.52552308721138
 30
0.0
 10
192.1580171010501
 20
94.49438639800488
 30
0.0
 10
192.0065013199152
 20
94.48634040518105
 30
0.0
 10
191.708665445967
 20
94.48635351252958
 30
0.0
 10
191.5606737474882
 20
94.4941638823075
 30
0.0
 10
191.2664318200891
 20
94.52508796088405
 30
0.0
 10
191.1209206443789
 20
94.54828591402861
 30
0.0
 10
190.7026409106477
 20
94.63642167426667
 30
0.0
 10
190.4392336241245
 20
94.72108854984978
 30
0.0
 10
189.9453405977077
 20
94.93146077057078
 30
0.0
 10
189.7165140974045
 20
95.0560007306801
 30
0.0
 10
189.2843892440984
 20
95.34405624021458
 30
0.0
 10
189.0796161191672
 20
95.50936607263657
 30
0.0
 10
188.7032609541065
 20
95.87616916960586
 30
0.0
 10
188.5318151956949
 20
96.07683577901004
 30
0.0
 10
188.3000628931743
 20
96.40754111962858
 30
0.0
 10
188.2270940785086
 20
96.52276202309065
 30
0.0
 10
188.0903869693671
 20
96.7643959202838
 30
0.0
 10
188.0265858398038
 20
96.89119078866756
 30
0.0
 10
187.8550033672202
 20
97.28009760405868
 30
0.0
 10
187.7649406340441
 20
97.55347277385299
 30
0.0
 10
187.6403253324662
 20
98.13335116839512
 30
0.0
 10
187.6084648478629
 20
98.42910141753411
 30
0.0
 10
187.607098408418
 20
99.024070981339
 30
0.0
 10
187.6387371163177
 20
99.32662133575258
 30
0.0
 10
187.7599505472211
 20
99.90105213315444
 30
0.0
 10
187.8506848694997
 20
100.1807567787465
 30
0.0
 10
188.0783303124275
 20
100.7007519083612
 30
0.0
 10
188.2152178399246
 20
100.9429505130247
 30
0.0
 10
188.5280636469075
 20
101.3915948465628
 30
0.0
 10
188.7003586870387
 20
101.5932305283879
 30
0.0
 10
189.0748484695351
 20
101.959137364021
 30
0.0
 10
189.2783513543575
 20
102.1242199894158
 30
0.0
 10
189.7138163825492
 20
102.4152798843062
 30
0.0
 10
189.9428489512531
 20
102.5398041273026
 30
0.0
 10
190.3096210292615
 20
102.6965756272443
 30
0.0
 10
190.4358101006152
 20
102.7437788892213
 30
0.0
 10
190.6983452716634
 20
102.8274611287282
 30
0.0
 10
190.8359215467537
 20
102.8641697075328
 30
0.0
 10
191.1167051642194
 20
102.9236991114957
 30
0.0
 10
191.2600895677951
 20
102.9467088994638
 30
0.0
 10
191.554193174682
 20
102.978069595669
 30
0.0
 10
191.7063741948801
 20
102.9863469547397
 30
0.0
 10
191.8577704196146
 20
102.9863469547397
 30
0.0
  0
LINE
  5
2AB
330
1F
100
AcDbEntity
  8
0
  6
HIDDEN
 62
     7
370
    18
100
AcDbLine
 10
83.1577704196
 20
116.7363469547
 30
0.0
 11
83.1577704196
 21
80.7363469547
 31
0.0
  0
LINE
  5
2AC
330
1F
100
AcDbEntity
  8
0
  6
HIDDEN
 62
     7
370
    18
100
AcDbLine
 10
115.8577704196
 20
80.7363469547
 30
0.0
 11
115.8577704196
 21
81.2575082451
 31
0.0
  0
LINE
  5
2AD
330
1F
100
AcDbEntity
  8
0
  6
HIDDEN
 62
     7
370
    18
100
AcDbLine
 10
115.8577704196
 20
80.7363469547
 30
0.0
 11
115.8577704196
 21
116.7363469547
 31
0.0
  0
LINE
  5
2AE
330
1F
100
AcDbEntity
  8
0
  6
HIDDEN
 62
     7
370
    18
100
AcDbLine
 10
78.3577704196
 20
114.6363469547
 30
0.0
 11
78.3577704196
 21
82.8363469547
 31
0.0
  0
SPLINE
  5
2AF
330
1F
100
AcDbEntity
  8
0
  6
HIDDEN
 62
     7
370
    18
100
AcDbSpline
210
0.0
220
0.0
230
1.0
 70
    11
 71
     3
 72
    52
 73
    48
 74
     0
 42
0.000000001
 43
0.00000001
 40
0.0
 40
0.0
 40
0.0
 40
0.0
 40
0.03125
 40
0.03125
 40
0.0625
 40
0.0625
 40
0.09375
 40
0.09375
 40
0.125
 40
0.125
 40
0.1875
 40
0.1875
 40
0.2187500000000003
 40
0.2187500000000003
 40
0.2500000000000006
 40
0.2500000000000006
 40
0.2812500000000009
 40
0.2812500000000009
 40
0.3125000000000012
 40
0.3125000000000012
 40
0.3750000000000018
 40
0.3750000000000018
 40
0.4375000000000024
 40
0.4375000000000024
 40
0.5000000000000031
 40
0.5000000000000031
 40
0.5625000000000038
 40
0.5625000000000038
 40
0.6250000000000043
 40
0.6250000000000043
 40
0.6562500000000047
 40
0.6562500000000047
 40
0.687500000000005
 40
0.687500000000005
 40
0.7187500000000053
 40
0.7187500000000053
 40
0.7500000000000058
 40
0.7500000000000058
 40
0.8125000000000047
 40
0.8125000000000047
 40
0.8750000000000036
 40
0.8750000000000036
 40
0.9062500000000023
 40
0.9062500000000023
 40
0.9375000000000011
 40
0.9375000000000011
 40
1.0
 40
1.0
 40
1.0
 40
1.0
 10
168.5774782870369
 20
65.48530513308899
 30
0.0
 10
168.6460919558057
 20
65.55566121345015
 30
0.0
 10
168.7096876597556
 20
65.6211468479649
 30
0.0
 10
168.826815514012
 20
65.74213473081937
 30
0.0
 10
168.8808887895136
 20
65.798201428036
 30
0.0
 10
168.9746296239296
 20
65.89564022928133
 30
0.0
 10
169.0143906748662
 20
65.93710311450783
 30
0.0
 10
169.0792358240985
 20
66.00482743314706
 30
0.0
 10
169.1041752498196
 20
66.0309380783805
 30
0.0
 10
169.1519566330683
 20
66.0809888452803
 30
0.0
 10
169.1489054037074
 20
66.07778006110547
 30
0.0
 10
169.0922781840747
 20
66.01848482705923
 30
0.0
 10
169.0644581300555
 20
65.98937434548687
 30
0.0
 10
168.994315315533
 20
65.91616838637357
 30
0.0
 10
168.9519369251061
 20
65.87201367866453
 30
0.0
 10
168.8526492882363
 20
65.76891325298703
 30
0.0
 10
168.7973569684374
 20
65.71164893264553
 30
0.0
 10
168.6763427300147
 20
65.58679902725511
 30
0.0
 10
168.6099202203594
 20
65.51849769092318
 30
0.0
 10
168.4017959611695
 20
65.30538766658725
 30
0.0
 10
168.2476184232662
 20
65.14870419918704
 30
0.0
 10
167.9323105619897
 20
64.83118228896245
 30
0.0
 10
167.7681153371439
 20
64.66726300487649
 30
0.0
 10
167.4527082092085
 20
64.35495637128923
 30
0.0
 10
167.2972822918681
 20
64.20239086905508
 30
0.0
 10
167.0199686513353
 20
63.93192915030136
 30
0.0
 10
166.8938944458898
 20
63.80992957473013
 30
0.0
 10
166.6982827984931
 20
63.62136151782724
 30
0.0
 10
166.6261251846063
 20
63.55222079185603
 30
0.0
 10
166.5744488010457
 20
63.50272233410742
 30
0.0
 10
166.5661895905399
 20
63.49482079182907
 30
0.0
 10
166.5690703307294
 20
63.49757807287726
 30
0.0
 10
166.5798414011708
 20
63.50788370914487
 30
0.0
 10
166.6201699640274
 20
63.54652256553053
 30
0.0
 10
166.6492966167795
 20
63.57444452425828
 30
0.0
 10
166.7231887731421
 20
63.64543076750531
 30
0.0
 10
166.76867556429
 20
63.68919078730062
 30
0.0
 10
166.9228382908498
 20
63.83791505217629
 30
0.0
 10
167.0519683751894
 20
63.962998638325
 30
0.0
 10
167.3354977757633
 20
64.23984111328988
 30
0.0
 10
167.4921843840447
 20
64.39385200268593
 30
0.0
 10
167.730669717412
 20
64.63032413394293
 30
0.0
 10
167.812171811674
 20
64.71147064279006
 30
0.0
 10
167.972862738069
 20
64.87215258987034
 30
0.0
 10
168.0522625482398
 20
64.95189022456704
 30
0.0
 10
168.2876273066454
 20
65.18925744598508
 30
0.0
 10
168.4402509494992
 20
65.34459297236668
 30
0.0
 10
168.5774782870369
 20
65.48530513308899
 30
0.0
  0
LINE
  5
2B0
330
1F
100
AcDbEntity
  8
0
  6
HIDDEN
 62
     7
370
    18
100
AcDbLine
 10
172.14399897
 20
66.2863469547
 30
0.0
 11
169.3577704196
 21
66.2863469547
 31
0.0
  0
LINE
  5
2B1
330
1F
100
AcDbEntity
  8
0
  6
HIDDEN
 62
     7
370
    18
100
AcDbLine
 10
206.8570204009
 20
66.2763469548
 30
0.0
 11
206.8577704196
 21
66.2763469548
 31
0.0
  0
LINE
  5
2B2
330
1F
100
AcDbEntity
  8
0
  6
HIDDEN
 62
     7
370
    18
100
AcDbLine
 10
206.8570204009
 20
66.2763469548
 30
0.0
 11
206.8570204009
 21
66.2863469548
 31
0.0
  0
LINE
  5
2B3
330
1F
100
AcDbEntity
  8
0
  6
HIDDEN
 62
     7
370
    18
100
AcDbLine
 10
206.7093389217
 20
66.2763469548
 30
0.0
 11
206.7093389217
 21
66.2863469547
 31
0.0
  0
LINE
  5
2B4
330
1F
100
AcDbEntity
  8
0
  6
HIDDEN
 62
     7
370
    18
100
AcDbLine
 10
206.7093389217
 20
66.2763469548
 30
0.0
 11
206.664271245
 21
66.2763469548
 31
0.0
  0
LINE
  5
2B5
330
1F
100
AcDbEntity
  8
0
  6
HIDDEN
 62
     7
370
    18
100
AcDbLine
 10
206.664271245
 20
66.2763469548
 30
0.0
 11
206.664271245
 21
66.2863469548
 31
0.0
  0
LINE
  5
2B6
330
1F
100
AcDbEntity
  8
0
  6
HIDDEN
 62
     7
370
    18
100
AcDbLine
 10
206.2245786617
 20
66.2763469548
 30
0.0
 11
206.2245786617
 21
66.2863469547
 31
0.0
  0
LINE
  5
2B7
330
1F
100
AcDbEntity
  8
0
  6
HIDDEN
 62
     7
370
    18
100
AcDbLine
 10
206.2245786617
 20
66.2763469548
 30
0.0
 11
206.1354661873
 21
66.2763469548
 31
0.0
  0
LINE
  5
2B8
330
1F
100
AcDbEntity
  8
0
  6
HIDDEN
 62
     7
370
    18
100
AcDbLine
 10
206.1354661873
 20
66.2763469548
 30
0.0
 11
206.1354661873
 21
66.2863469548
 31
0.0
  0
LINE
  5
2B9
330
1F
100
AcDbEntity
  8
0
  6
HIDDEN
 62
     7
370
    18
100
AcDbLine
 10
205.4137419873
 20
66.2763469548
 30
0.0
 11
205.4137419873
 21
66.2863469547
 31
0.0
  0
LINE
  5
2BA
330
1F
100
AcDbEntity
  8
0
  6
HIDDEN
 62
     7
370
    18
100
AcDbLine
 10
205.4137419873
 20
66.2763469548
 30
0.0
 11
205.2826072573
 21
66.2763469548
 31
0.0
  0
LINE
  5
2BB
330
1F
100
AcDbEntity
  8
0
  6
HIDDEN
 62
     7
370
    18
100
AcDbLine
 10
205.2826072573
 20
66.2763469548
 30
0.0
 11
205.2826072573
 21
66.2863469548
 31
0.0
  0
LINE
  5
2BC
330
1F
100
AcDbEntity
  8
0
  6
HIDDEN
 62
     7
370
    18
100
AcDbLine
 10
204.2952320615
 20
66.2763469548
 30
0.0
 11
204.2952320615
 21
66.2863469547
 31
0.0
  0
LINE
  5
2BD
330
1F
100
AcDbEntity
  8
0
  6
HIDDEN
 62
     7
370
    18
100
AcDbLine
 10
204.2952320615
 20
66.2763469548
 30
0.0
 11
204.1250513768
 21
66.2763469548
 31
0.0
  0
LINE
  5
2BE
330
1F
100
AcDbEntity
  8
0
  6
HIDDEN
 62
     7
370
    18
100
AcDbLine
 10
204.1250513768
 20
66.2763469548
 30
0.0
 11
204.1250513768
 21
66.2863469548
 31
0.0
  0
LINE
  5
2BF
330
1F
100
AcDbEntity
  8
0
  6
HIDDEN
 62
     7
370
    18
100
AcDbLine
 10
202.8944351567
 20
66.2763469548
 30
0.0
 11
202.8944351567
 21
66.2863469547
 31
0.0
  0
LINE
  5
2C0
330
1F
100
AcDbEntity
  8
0
  6
HIDDEN
 62
     7
370
    18
100
AcDbLine
 10
202.8944351567
 20
66.2763469548
 30
0.0
 11
202.6890710249
 21
66.2763469548
 31
0.0
  0
LINE
  5
2C1
330
1F
100
AcDbEntity
  8
0
  6
HIDDEN
 62
     7
370
    18
100
AcDbLine
 10
202.6890710249
 20
66.2763469548
 30
0.0
 11
202.6890710249
 21
66.2863469548
 31
0.0
  0
SPLINE
  5
2C2
330
1F
100
AcDbEntity
  8
0
  6
HIDDEN
 62
     7
370
    18
100
AcDbSpline
210
0.0
220
0.0
230
1.0
 70
    11
 71
     3
 72
    58
 73
    54
 74
     0
 42
0.000000001
 43
0.00000001
 40
0.0
 40
0.0
 40
0.0
 40
0.0
 40
0.0312499999999999
 40
0.0312499999999999
 40
0.0624999999999999
 40
0.0624999999999999
 40
0.0937499999999998
 40
0.0937499999999998
 40
0.1249999999999997
 40
0.1249999999999997
 40
0.1874999999999998
 40
0.1874999999999998
 40
0.2499999999999998
 40
0.2499999999999998
 40
0.2812499999999998
 40
0.2812499999999998
 40
0.3124999999999998
 40
0.3124999999999998
 40
0.3437499999999999
 40
0.3437499999999999
 40
0.3749999999999999
 40
0.3749999999999999
 40
0.40625
 40
0.40625
 40
0.4375
 40
0.4375
 40
0.4687500000000001
 40
0.4687500000000001
 40
0.5000000000000001
 40
0.5000000000000001
 40
0.5625000000000002
 40
0.5625000000000002
 40
0.6250000000000002
 40
0.6250000000000002
 40
0.6562500000000002
 40
0.6562500000000002
 40
0.6875000000000001
 40
0.6875000000000001
 40
0.7187500000000001
 40
0.7187500000000001
 40
0.75
 40
0.75
 40
0.7812499999999999
 40
0.7812499999999999
 40
0.8124999999999999
 40
0.8124999999999999
 40
0.8437499999999998
 40
0.8437499999999998
 40
0.8749999999999997
 40
0.8749999999999997
 40
0.9374999999999998
 40
0.9374999999999998
 40
1.0
 40
1.0
 40
1.0
 40
1.0
 10
206.8577704196146
 20
100.3863469547397
 30
0.0
 10
206.8577704196146
 20
100.3863469547397
 30
0.0
 10
206.8565812504015
 20
100.3756338088202
 30
0.0
 10
206.8520531744324
 20
100.3336729651891
 30
0.0
 10
206.8486606352103
 20
100.3019099974918
 30
0.0
 10
206.8402350639084
 20
100.2190623698822
 30
0.0
 10
206.8352420003504
 20
100.1683766160822
 30
0.0
 10
206.824268469645
 20
100.0486418456771
 30
0.0
 10
206.8182499244597
 20
99.97900376909406
 30
0.0
 10
206.8004511252332
 20
99.75084310729468
 30
0.0
 10
206.7885430935135
 20
99.56689198547139
 30
0.0
 10
206.7717278148252
 20
99.16988771935834
 30
0.0
 10
206.766757366317
 20
98.95264576428772
 30
0.0
 10
206.7667376993126
 20
98.62955886260197
 30
0.0
 10
206.767936152234
 20
98.52015547620337
 30
0.0
 10
206.7725072590711
 20
98.30847831665564
 30
0.0
 10
206.7758546973161
 20
98.20558602374291
 30
0.0
 10
206.7843020116384
 20
98.00572118394273
 30
0.0
 10
206.789404925723
 20
97.90920531528668
 30
0.0
 10
206.8003700422016
 20
97.73049520192073
 30
0.0
 10
206.8062806215036
 20
97.6471471250579
 30
0.0
 10
206.8182966143994
 20
97.49306780754839
 30
0.0
 10
206.8241989441622
 20
97.42485020236657
 30
0.0
 10
206.8351450603629
 20
97.30533609509344
 30
0.0
 10
206.8402358088729
 20
97.25362401767556
 30
0.0
 10
206.8486613784118
 20
97.17077680098711
 30
0.0
 10
206.8519990186433
 20
97.139527156722
 30
0.0
 10
206.8565631307406
 20
97.09722371997762
 30
0.0
 10
206.8577660184359
 20
97.08638696545779
 30
0.0
 10
206.8577791846223
 20
97.08626727284597
 30
0.0
 10
206.852864286204
 20
97.1294802231542
 30
0.0
 10
206.836146578867
 20
97.29380302358508
 30
0.0
 10
206.8242808430074
 20
97.41654166980945
 30
0.0
 10
206.8064801992013
 20
97.6444852380079
 30
0.0
 10
206.8004515973302
 20
97.7292646275132
 30
0.0
 10
206.7894470256529
 20
97.90842165480717
 30
0.0
 10
206.7844312541544
 20
98.00309873721326
 30
0.0
 10
206.7759557712806
 20
98.2027708441579
 30
0.0
 10
206.7725353714929
 20
98.30759090052335
 30
0.0
 10
206.7679624958768
 20
98.51852607584844
 30
0.0
 10
206.7667555939805
 20
98.62574926471235
 30
0.0
 10
206.7667330204347
 20
98.84385859237798
 30
0.0
 10
206.7679194613643
 20
98.95122383056159
 30
0.0
 10
206.7724532449348
 20
99.16224765264484
 30
0.0
 10
206.775853529323
 20
99.26707771869215
 30
0.0
 10
206.7843018266693
 20
99.46697088086732
 30
0.0
 10
206.7893072116964
 20
99.56175952276179
 30
0.0
 10
206.8002973764715
 20
99.74114882105395
 30
0.0
 10
206.8063216842262
 20
99.82604531020776
 30
0.0
 10
206.824121741337
 20
100.0543766455931
 30
0.0
 10
206.8360050368966
 20
100.1774392447842
 30
0.0
 10
206.8527779821143
 20
100.3424249533147
 30
0.0
 10
206.8577704196146
 20
100.3863469547397
 30
0.0
 10
206.8577704196146
 20
100.3863469547397
 30
0.0
  0
SPLINE
  5
2C3
330
1F
100
AcDbEntity
  8
0
  6
HIDDEN
 62
     7
370
    18
100
AcDbSpline
210
0.0
220
0.0
230
1.0
 70
    11
 71
     3
 72
    58
 73
    54
 74
     0
 42
0.000000001
 43
0.00000001
 40
0.0
 40
0.0
 40
0.0
 40
0.0
 40
0.0312499999999999
 40
0.0312499999999999
 40
0.0624999999999999
 40
0.0624999999999999
 40
0.0937499999999998
 40
0.0937499999999998
 40
0.1249999999999997
 40
0.1249999999999997
 40
0.1874999999999998
 40
0.1874999999999998
 40
0.2499999999999998
 40
0.2499999999999998
 40
0.2812499999999998
 40
0.2812499999999998
 40
0.3124999999999998
 40
0.3124999999999998
 40
0.3437499999999999
 40
0.3437499999999999
 40
0.3749999999999999
 40
0.3749999999999999
 40
0.40625
 40
0.40625
 40
0.4375
 40
0.4375
 40
0.4687500000000001
 40
0.4687500000000001
 40
0.5000000000000001
 40
0.5000000000000001
 40
0.5625000000000002
 40
0.5625000000000002
 40
0.6250000000000002
 40
0.6250000000000002
 40
0.6562500000000002
 40
0.6562500000000002
 40
0.6875000000000001
 40
0.6875000000000001
 40
0.7187500000000001
 40
0.7187500000000001
 40
0.75
 40
0.75
 40
0.7812499999999999
 40
0.7812499999999999
 40
0.8124999999999999
 40
0.8124999999999999
 40
0.8437499999999998
 40
0.8437499999999998
 40
0.8749999999999997
 40
0.8749999999999997
 40
0.9374999999999998
 40
0.9374999999999998
 40
1.0
 40
1.0
 40
1.0
 40
1.0
 10
206.8577704196146
 20
100.3863469547397
 30
0.0
 10
206.8577704196146
 20
100.3863469547397
 30
0.0
 10
206.8565812504015
 20
100.3756338088202
 30
0.0
 10
206.8520531744324
 20
100.3336729651891
 30
0.0
 10
206.8486606352103
 20
100.3019099974918
 30
0.0
 10
206.8402350639084
 20
100.2190623698822
 30
0.0
 10
206.8352420003504
 20
100.1683766160822
 30
0.0
 10
206.824268469645
 20
100.0486418456771
 30
0.0
 10
206.8182499244597
 20
99.97900376909406
 30
0.0
 10
206.8004511252332
 20
99.75084310729468
 30
0.0
 10
206.7885430935135
 20
99.56689198547139
 30
0.0
 10
206.7717278148252
 20
99.16988771935834
 30
0.0
 10
206.766757366317
 20
98.95264576428772
 30
0.0
 10
206.7667376993126
 20
98.62955886260197
 30
0.0
 10
206.767936152234
 20
98.52015547620337
 30
0.0
 10
206.7725072590711
 20
98.30847831665564
 30
0.0
 10
206.7758546973161
 20
98.20558602374291
 30
0.0
 10
206.7843020116384
 20
98.00572118394273
 30
0.0
 10
206.789404925723
 20
97.90920531528668
 30
0.0
 10
206.8003700422016
 20
97.73049520192073
 30
0.0
 10
206.8062806215036
 20
97.6471471250579
 30
0.0
 10
206.8182966143994
 20
97.49306780754839
 30
0.0
 10
206.8241989441622
 20
97.42485020236657
 30
0.0
 10
206.8351450603629
 20
97.30533609509344
 30
0.0
 10
206.8402358088729
 20
97.25362401767556
 30
0.0
 10
206.8486613784118
 20
97.17077680098711
 30
0.0
 10
206.8519990186433
 20
97.139527156722
 30
0.0
 10
206.8565631307406
 20
97.09722371997762
 30
0.0
 10
206.8577660184359
 20
97.08638696545779
 30
0.0
 10
206.8577791846223
 20
97.08626727284597
 30
0.0
 10
206.852864286204
 20
97.1294802231542
 30
0.0
 10
206.836146578867
 20
97.29380302358508
 30
0.0
 10
206.8242808430074
 20
97.41654166980945
 30
0.0
 10
206.8064801992013
 20
97.6444852380079
 30
0.0
 10
206.8004515973302
 20
97.7292646275132
 30
0.0
 10
206.7894470256529
 20
97.90842165480717
 30
0.0
 10
206.7844312541544
 20
98.00309873721326
 30
0.0
 10
206.7759557712806
 20
98.2027708441579
 30
0.0
 10
206.7725353714929
 20
98.30759090052335
 30
0.0
 10
206.7679624958768
 20
98.51852607584844
 30
0.0
 10
206.7667555939805
 20
98.62574926471235
 30
0.0
 10
206.7667330204347
 20
98.84385859237798
 30
0.0
 10
206.7679194613643
 20
98.95122383056159
 30
0.0
 10
206.7724532449348
 20
99.16224765264484
 30
0.0
 10
206.775853529323
 20
99.26707771869215
 30
0.0
 10
206.7843018266693
 20
99.46697088086732
 30
0.0
 10
206.7893072116964
 20
99.56175952276179
 30
0.0
 10
206.8002973764715
 20
99.74114882105395
 30
0.0
 10
206.8063216842262
 20
99.82604531020776
 30
0.0
 10
206.824121741337
 20
100.0543766455931
 30
0.0
 10
206.8360050368966
 20
100.1774392447842
 30
0.0
 10
206.8527779821143
 20
100.3424249533147
 30
0.0
 10
206.8577704196146
 20
100.3863469547397
 30
0.0
 10
206.8577704196146
 20
100.3863469547397
 30
0.0
  0
LINE
  5
2C4
330
1F
100
AcDbEntity
  8
0
  6
HIDDEN
 62
     7
370
    18
100
AcDbLine
 10
202.8944351567
 20
66.2863469547
 30
0.0
 11
204.1250513768
 21
66.2863469548
 31
0.0
  0
LINE
  5
2C5
330
1F
100
AcDbEntity
  8
0
  6
HIDDEN
 62
     7
370
    18
100
AcDbLine
 10
204.2952320615
 20
66.2863469547
 30
0.0
 11
205.2826072573
 21
66.2863469548
 31
0.0
  0
LINE
  5
2C6
330
1F
100
AcDbEntity
  8
0
  6
HIDDEN
 62
     7
370
    18
100
AcDbLine
 10
205.4137419873
 20
66.2863469547
 30
0.0
 11
206.1354661873
 21
66.2863469548
 31
0.0
  0
LINE
  5
2C7
330
1F
100
AcDbEntity
  8
0
  6
HIDDEN
 62
     7
370
    18
100
AcDbLine
 10
206.2245786617
 20
66.2863469547
 30
0.0
 11
206.664271245
 21
66.2863469548
 31
0.0
  0
LINE
  5
2C8
330
1F
100
AcDbEntity
  8
0
  6
HIDDEN
 62
     7
370
    18
100
AcDbLine
 10
206.7093389217
 20
66.2863469547
 30
0.0
 11
206.8570204009
 21
66.2863469548
 31
0.0
  0
LINE
  5
2C9
330
1F
100
AcDbEntity
  8
0
  6
HIDDEN
 62
     7
370
    18
100
AcDbLine
 10
206.8570204009
 20
66.2863469547
 30
0.0
 11
176.8739418366
 21
66.2863469547
 31
0.0
  0
LINE
  5
2CA
330
1F
100
AcDbEntity
  8
0
  6
HIDDEN
 62
     7
370
    18
100
AcDbLine
 10
206.8577704196
 20
123.4699824266
 30
0.0
 11
176.8577704196
 21
128.2215156363
 31
0.0
  0
LINE
  5
2CB
330
1F
100
AcDbEntity
  8
0
  6
HIDDEN
 62
     7
370
    18
100
AcDbLine
 10
78.3577704196
 20
88.2363469547
 30
0.0
 11
78.3577704196
 21
109.2363469547
 31
0.0
  0
LINE
  5
2CC
330
1F
100
AcDbEntity
  8
0
  6
HIDDEN
 62
     7
370
    18
100
AcDbLine
 10
81.3577704196
 20
108.2363469547
 30
0.0
 11
81.3577704196
 21
89.2363469547
 31
0.0
  0
LINE
  5
2CD
330
1F
100
AcDbEntity
  8
0
  6
HIDDEN
 62
     7
370
    18
100
AcDbLine
 10
82.2590613482
 20
106.7363469547
 30
0.0
 11
82.2590613482
 21
90.7363469547
 31
0.0
  0
LINE
  5
2CE
330
1F
100
AcDbEntity
  8
0
  6
HIDDEN
 62
     7
370
    18
100
AcDbLine
 10
161.3577704196
 20
106.7363469547
 30
0.0
 11
161.3577704196
 21
90.7363469547
 31
0.0
  0
SPLINE
  5
2CF
330
1F
100
AcDbEntity
  8
0
  6
HIDDEN
 62
     7
370
    18
100
AcDbSpline
210
0.0
220
0.0
230
1.0
 70
    11
 71
     3
 72
    58
 73
    54
 74
     0
 42
0.000000001
 43
0.00000001
 40
0.0
 40
0.0
 40
0.0
 40
0.0
 40
0.0312500000000022
 40
0.0312500000000022
 40
0.0625000000000043
 40
0.0625000000000043
 40
0.0937500000000065
 40
0.0937500000000065
 40
0.1250000000000086
 40
0.1250000000000086
 40
0.1875000000000128
 40
0.1875000000000128
 40
0.2500000000000169
 40
0.2500000000000169
 40
0.2812500000000181
 40
0.2812500000000181
 40
0.3125000000000192
 40
0.3125000000000192
 40
0.3750000000000195
 40
0.3750000000000195
 40
0.406250000000019
 40
0.406250000000019
 40
0.4375000000000185
 40
0.4375000000000185
 40
0.468750000000018
 40
0.468750000000018
 40
0.5000000000000174
 40
0.5000000000000174
 40
0.5625000000000165
 40
0.5625000000000165
 40
0.593750000000016
 40
0.593750000000016
 40
0.6250000000000154
 40
0.6250000000000154
 40
0.656250000000015
 40
0.656250000000015
 40
0.6875000000000144
 40
0.6875000000000144
 40
0.7500000000000115
 40
0.7500000000000115
 40
0.7812500000000101
 40
0.7812500000000101
 40
0.8125000000000088
 40
0.8125000000000088
 40
0.8437500000000073
 40
0.8437500000000073
 40
0.8750000000000059
 40
0.8750000000000059
 40
0.937500000000003
 40
0.937500000000003
 40
0.9687500000000016
 40
0.9687500000000016
 40
1.0
 40
1.0
 40
1.0
 40
1.0
 10
161.0077704196146
 20
90.73634695473972
 30
0.0
 10
161.0077704196146
 20
90.73634695473972
 30
0.0
 10
160.9970136697149
 20
90.73858516564182
 30
0.0
 10
160.9549208836597
 20
90.74710638964501
 30
0.0
 10
160.9230535068834
 20
90.75349315484902
 30
0.0
 10
160.8401290071222
 20
90.76933806626113
 30
0.0
 10
160.7894273917627
 20
90.77873019531057
 30
0.0
 10
160.669694700096
 20
90.79939740710091
 30
0.0
 10
160.6002050459846
 20
90.8107233405302
 30
0.0
 10
160.3725359335052
 20
90.84428052436607
 30
0.0
 10
160.1889381786736
 20
90.86683404319652
 30
0.0
 10
159.7921414741773
 20
90.89880449333718
 30
0.0
 10
159.5746160273825
 20
90.90832498548876
 30
0.0
 10
159.250831142973
 20
90.90836589368345
 30
0.0
 10
159.1411654558914
 20
90.90607125524856
 30
0.0
 10
158.9293240685322
 20
90.89735045675046
 30
0.0
 10
158.826329563125
 20
90.89096732265673
 30
0.0
 10
158.5261413231765
 20
90.86682881801329
 30
0.0
 10
158.3446107259423
 20
90.84451606708483
 30
0.0
 10
158.1146236009188
 20
90.81061894013759
 30
0.0
 10
158.0465635479964
 20
90.79951504292993
 30
0.0
 10
157.9270835040599
 20
90.77890374812597
 30
0.0
 10
157.8752661654798
 20
90.76931058968285
 30
0.0
 10
157.7924901353234
 20
90.75349333294497
 30
0.0
 10
157.761149260958
 20
90.74721268281509
 30
0.0
 10
157.7186666674945
 20
90.73861425098016
 30
0.0
 10
157.7078145359567
 20
90.73635605373454
 30
0.0
 10
157.7076825985956
 20
90.73632884165599
 30
0.0
 10
157.7510570301217
 20
90.74557086751628
 30
0.0
 10
157.874503529433
 20
90.76916744706259
 30
0.0
 10
157.9259803708757
 20
90.77870739650999
 30
0.0
 10
158.0460260938307
 20
90.79942829752387
 30
0.0
 10
158.1140619586772
 20
90.81052444717494
 30
0.0
 10
158.2660356820525
 20
90.83294664709915
 30
0.0
 10
158.3506647273998
 20
90.84433192142528
 30
0.0
 10
158.5291993692494
 20
90.86512281892242
 30
0.0
 10
158.6237930469459
 20
90.87465091031005
 30
0.0
 10
158.924143556434
 20
90.89889201693518
 30
0.0
 10
159.1387564559203
 20
90.90832075153432
 30
0.0
 10
159.4655805343354
 20
90.90836798176844
 30
0.0
 10
159.5729093539311
 20
90.9061096379738
 30
0.0
 10
159.7844474685466
 20
90.89744492831407
 30
0.0
 10
159.8896825892844
 20
90.89093029128053
 30
0.0
 10
160.0890031143016
 20
90.8749009477497
 30
0.0
 10
160.1837457710537
 20
90.86540217046971
 30
0.0
 10
160.3634397739752
 20
90.8445216040276
 30
0.0
 10
160.4477587947131
 20
90.8331866556102
 30
0.0
 10
160.6753809127098
 20
90.79965560159626
 30
0.0
 10
160.7984526983945
 20
90.77729612141755
 30
0.0
 10
160.9223662146645
 20
90.75362710580089
 30
0.0
 10
160.9544133168018
 20
90.74720848603235
 30
0.0
 10
160.9970116657273
 20
90.73858621850869
 30
0.0
 10
161.0077704196146
 20
90.73634695473972
 30
0.0
 10
161.0077704196146
 20
90.73634695473972
 30
0.0
  0
SPLINE
  5
2D0
330
1F
100
AcDbEntity
  8
0
  6
HIDDEN
 62
     7
370
    18
100
AcDbSpline
210
0.0
220
0.0
230
1.0
 70
    11
 71
     3
 72
    58
 73
    54
 74
     0
 42
0.000000001
 43
0.00000001
 40
0.0
 40
0.0
 40
0.0
 40
0.0
 40
0.0312500000000022
 40
0.0312500000000022
 40
0.0625000000000043
 40
0.0625000000000043
 40
0.0937500000000065
 40
0.0937500000000065
 40
0.1250000000000086
 40
0.1250000000000086
 40
0.1875000000000128
 40
0.1875000000000128
 40
0.2500000000000169
 40
0.2500000000000169
 40
0.2812500000000181
 40
0.2812500000000181
 40
0.3125000000000192
 40
0.3125000000000192
 40
0.3750000000000195
 40
0.3750000000000195
 40
0.406250000000019
 40
0.406250000000019
 40
0.4375000000000185
 40
0.4375000000000185
 40
0.468750000000018
 40
0.468750000000018
 40
0.5000000000000174
 40
0.5000000000000174
 40
0.5625000000000165
 40
0.5625000000000165
 40
0.593750000000016
 40
0.593750000000016
 40
0.6250000000000154
 40
0.6250000000000154
 40
0.656250000000015
 40
0.656250000000015
 40
0.6875000000000144
 40
0.6875000000000144
 40
0.7500000000000115
 40
0.7500000000000115
 40
0.7812500000000101
 40
0.7812500000000101
 40
0.8125000000000088
 40
0.8125000000000088
 40
0.8437500000000073
 40
0.8437500000000073
 40
0.8750000000000059
 40
0.8750000000000059
 40
0.937500000000003
 40
0.937500000000003
 40
0.9687500000000016
 40
0.9687500000000016
 40
1.0
 40
1.0
 40
1.0
 40
1.0
 10
161.0077704196146
 20
90.73634695473972
 30
0.0
 10
161.0077704196146
 20
90.73634695473972
 30
0.0
 10
160.9970136697149
 20
90.73858516564182
 30
0.0
 10
160.9549208836597
 20
90.74710638964501
 30
0.0
 10
160.9230535068834
 20
90.75349315484902
 30
0.0
 10
160.8401290071222
 20
90.76933806626113
 30
0.0
 10
160.7894273917627
 20
90.77873019531057
 30
0.0
 10
160.669694700096
 20
90.79939740710091
 30
0.0
 10
160.6002050459846
 20
90.8107233405302
 30
0.0
 10
160.3725359335052
 20
90.84428052436607
 30
0.0
 10
160.1889381786736
 20
90.86683404319652
 30
0.0
 10
159.7921414741773
 20
90.89880449333718
 30
0.0
 10
159.5746160273825
 20
90.90832498548876
 30
0.0
 10
159.250831142973
 20
90.90836589368345
 30
0.0
 10
159.1411654558914
 20
90.90607125524856
 30
0.0
 10
158.9293240685322
 20
90.89735045675046
 30
0.0
 10
158.826329563125
 20
90.89096732265673
 30
0.0
 10
158.5261413231765
 20
90.86682881801329
 30
0.0
 10
158.3446107259423
 20
90.84451606708483
 30
0.0
 10
158.1146236009188
 20
90.81061894013759
 30
0.0
 10
158.0465635479964
 20
90.79951504292993
 30
0.0
 10
157.9270835040599
 20
90.77890374812597
 30
0.0
 10
157.8752661654798
 20
90.76931058968285
 30
0.0
 10
157.7924901353234
 20
90.75349333294497
 30
0.0
 10
157.761149260958
 20
90.74721268281509
 30
0.0
 10
157.7186666674945
 20
90.73861425098016
 30
0.0
 10
157.7078145359567
 20
90.73635605373454
 30
0.0
 10
157.7076825985956
 20
90.73632884165599
 30
0.0
 10
157.7510570301217
 20
90.74557086751628
 30
0.0
 10
157.874503529433
 20
90.76916744706259
 30
0.0
 10
157.9259803708757
 20
90.77870739650999
 30
0.0
 10
158.0460260938307
 20
90.79942829752387
 30
0.0
 10
158.1140619586772
 20
90.81052444717494
 30
0.0
 10
158.2660356820525
 20
90.83294664709915
 30
0.0
 10
158.3506647273998
 20
90.84433192142528
 30
0.0
 10
158.5291993692494
 20
90.86512281892242
 30
0.0
 10
158.6237930469459
 20
90.87465091031005
 30
0.0
 10
158.924143556434
 20
90.89889201693518
 30
0.0
 10
159.1387564559203
 20
90.90832075153432
 30
0.0
 10
159.4655805343354
 20
90.90836798176844
 30
0.0
 10
159.5729093539311
 20
90.9061096379738
 30
0.0
 10
159.7844474685466
 20
90.89744492831407
 30
0.0
 10
159.8896825892844
 20
90.89093029128053
 30
0.0
 10
160.0890031143016
 20
90.8749009477497
 30
0.0
 10
160.1837457710537
 20
90.86540217046971
 30
0.0
 10
160.3634397739752
 20
90.8445216040276
 30
0.0
 10
160.4477587947131
 20
90.8331866556102
 30
0.0
 10
160.6753809127098
 20
90.79965560159626
 30
0.0
 10
160.7984526983945
 20
90.77729612141755
 30
0.0
 10
160.9223662146645
 20
90.75362710580089
 30
0.0
 10
160.9544133168018
 20
90.74720848603235
 30
0.0
 10
160.9970116657273
 20
90.73858621850869
 30
0.0
 10
161.0077704196146
 20
90.73634695473972
 30
0.0
 10
161.0077704196146
 20
90.73634695473972
 30
0.0
  0
SPLINE
  5
2D1
330
1F
100
AcDbEntity
  8
0
  6
HIDDEN
 62
     7
370
    18
100
AcDbSpline
210
0.0
220
0.0
230
1.0
 70
    11
 71
     3
 72
    74
 73
    70
 74
     0
 42
0.000000001
 43
0.00000001
 40
0.0
 40
0.0
 40
0.0
 40
0.0
 40
0.0312499999999998
 40
0.0312499999999998
 40
0.0624999999999997
 40
0.0624999999999997
 40
0.0937499999999996
 40
0.0937499999999996
 40
0.1249999999999994
 40
0.1249999999999994
 40
0.1562499999999993
 40
0.1562499999999993
 40
0.1874999999999991
 40
0.1874999999999991
 40
0.218749999999999
 40
0.218749999999999
 40
0.2499999999999989
 40
0.2499999999999989
 40
0.2656249999999988
 40
0.2656249999999988
 40
0.2812499999999987
 40
0.2812499999999987
 40
0.3124999999999988
 40
0.3124999999999988
 40
0.3437499999999988
 40
0.3437499999999988
 40
0.3749999999999988
 40
0.3749999999999988
 40
0.4062499999999988
 40
0.4062499999999988
 40
0.4374999999999988
 40
0.4374999999999988
 40
0.4531249999999989
 40
0.4531249999999989
 40
0.4687499999999989
 40
0.4687499999999989
 40
0.499999999999999
 40
0.499999999999999
 40
0.5312499999999991
 40
0.5312499999999991
 40
0.5624999999999991
 40
0.5624999999999991
 40
0.5937499999999992
 40
0.5937499999999992
 40
0.6249999999999992
 40
0.6249999999999992
 40
0.6562499999999993
 40
0.6562499999999993
 40
0.6874999999999994
 40
0.6874999999999994
 40
0.7187499999999994
 40
0.7187499999999994
 40
0.7499999999999996
 40
0.7499999999999996
 40
0.7812499999999997
 40
0.7812499999999997
 40
0.8124999999999997
 40
0.8124999999999997
 40
0.8437499999999998
 40
0.8437499999999998
 40
0.8749999999999998
 40
0.8749999999999998
 40
0.9062499999999999
 40
0.9062499999999999
 40
0.9375
 40
0.9375
 40
0.96875
 40
0.96875
 40
1.0
 40
1.0
 40
1.0
 40
1.0
 10
98.60777041961462
 20
98.7363469547397
 30
0.0
 10
98.60777041961462
 20
98.449887860582
 30
0.0
 10
98.63642786550179
 20
98.16919594309834
 30
0.0
 10
98.74778256688454
 20
97.61858442200707
 30
0.0
 10
98.8320121101377
 20
97.34598513863071
 30
0.0
 10
99.04751574492255
 20
96.83324547031917
 30
0.0
 10
99.17860116686252
 20
96.59102929703845
 30
0.0
 10
99.48696841391765
 20
96.13320114990465
 30
0.0
 10
99.66198507902786
 20
95.92152217476655
 30
0.0
 10
100.046330209568
 20
95.53758368897692
 30
0.0
 10
100.2587023319368
 20
95.3625578882537
 30
0.0
 10
100.713537794688
 20
95.05669017186906
 30
0.0
 10
100.9536502118407
 20
94.92678839262513
 30
0.0
 10
101.4614512216684
 20
94.71282823336158
 30
0.0
 10
101.7331605743784
 20
94.62824480479145
 30
0.0
 10
102.2830811215533
 20
94.51604094816798
 30
0.0
 10
102.5621173263089
 20
94.48718646494892
 30
0.0
 10
102.9871098263599
 20
94.4859540055222
 30
0.0
 10
103.1308761049236
 20
94.49274826802245
 30
0.0
 10
103.4138893603373
 20
94.52049019092217
 30
0.0
 10
103.5534181001857
 20
94.54131643774991
 30
0.0
 10
103.9663855983749
 20
94.62389035056002
 30
0.0
 10
104.2367679474239
 20
94.70666904347907
 30
0.0
 10
104.750444029398
 20
94.92088828545295
 30
0.0
 10
104.9921538259419
 20
95.05094040258888
 30
0.0
 10
105.4484054560411
 20
95.35604754671665
 30
0.0
 10
105.6615664513492
 20
95.53087377334323
 30
0.0
 10
106.0469448903315
 20
95.91402580016668
 30
0.0
 10
106.2215679117028
 20
96.12405669048832
 30
0.0
 10
106.5321257038323
 20
96.58267399028512
 30
0.0
 10
106.6634593425454
 20
96.82437549377987
 30
0.0
 10
106.8251545757021
 20
97.20616274379086
 30
0.0
 10
106.8731203108032
 20
97.33665263035009
 30
0.0
 10
106.9566805827889
 20
97.60448370123963
 30
0.0
 10
106.9924190754007
 20
97.74276443274753
 30
0.0
 10
107.0778222399889
 20
98.15862247666838
 30
0.0
 10
107.1067618861715
 20
98.43868042968725
 30
0.0
 10
107.1087276526937
 20
99.00448208026982
 30
0.0
 10
107.0806546905175
 20
99.29229329087016
 30
0.0
 10
106.9703601656219
 20
99.84469413641663
 30
0.0
 10
106.8881847694332
 20
100.1137309112475
 30
0.0
 10
106.6718085783098
 20
100.6322739889067
 30
0.0
 10
106.540617711748
 20
100.8751820569872
 30
0.0
 10
106.234592163042
 20
101.3315453450167
 30
0.0
 10
106.0581517798473
 20
101.5460173407781
 30
0.0
 10
105.6733078791386
 20
101.9315679710581
 30
0.0
 10
105.4639025483841
 20
102.1047460076225
 30
0.0
 10
105.0083537574095
 20
102.412354049301
 30
0.0
 10
104.764550157486
 20
102.5445549795933
 30
0.0
 10
104.2574244786399
 20
102.7586877961367
 30
0.0
 10
103.992142901135
 20
102.8420541094358
 30
0.0
 10
103.4341257238959
 20
102.9567079262894
 30
0.0
 10
103.1533985830063
 20
102.9854254992625
 30
0.0
 10
102.589257895519
 20
102.9872251596425
 30
0.0
 10
102.3018885021587
 20
102.9592823440618
 30
0.0
 10
101.7482499562543
 20
102.8486641056813
 30
0.0
 10
101.4811825553563
 20
102.7669420924674
 30
0.0
 10
100.9649527106061
 20
102.5518328258655
 30
0.0
 10
100.7214742930173
 20
102.4205884154655
 30
0.0
 10
100.2665952906839
 20
102.1161705792291
 30
0.0
 10
100.0523488908351
 20
101.9405039372903
 30
0.0
 10
99.66549797381387
 20
101.5552844415863
 30
0.0
 10
99.49181473606721
 20
101.3456556968464
 30
0.0
 10
99.18356992230837
 20
100.8900415665252
 30
0.0
 10
99.04932187748696
 20
100.6429224068218
 30
0.0
 10
98.83396901839961
 20
100.1321737835751
 30
0.0
 10
98.75083773065313
 20
99.8660147903725
 30
0.0
 10
98.63709939194565
 20
99.30991613689608
 30
0.0
 10
98.60777041961462
 20
99.02280604889742
 30
0.0
 10
98.60777041961462
 20
98.7363469547397
 30
0.0
  0
LINE
  5
2D2
330
1F
100
AcDbEntity
  8
0
  6
HIDDEN
 62
     7
370
    18
100
AcDbLine
 10
211.8577704196
 20
100.8363469547
 30
0.0
 11
211.8577704196
 21
96.6363469547
 31
0.0
  0
LINE
  5
2D3
330
1F
100
AcDbEntity
  8
0
  6
HIDDEN
 62
     7
370
    18
100
AcDbLine
 10
214.3577704196
 20
95.1929712818
 30
0.0
 11
214.3577704196
 21
102.2797226277
 31
0.0
  0
LINE
  5
2D4
330
1F
100
AcDbEntity
  8
0
  6
HIDDEN
 62
     7
370
    18
100
AcDbLine
 10
118.8577704196
 20
122.7363469547
 30
0.0
 11
118.8577704196
 21
117.7363469547
 31
0.0
  0
LINE
  5
2D5
330
1F
100
AcDbEntity
  8
0
  6
HIDDEN
 62
     7
370
    18
100
AcDbLine
 10
118.3577704196
 20
118.3161704233
 30
0.0
 11
118.3577704196
 21
123.2363469547
 31
0.0
  0
LINE
  5
2D6
330
1F
100
AcDbEntity
  8
0
  6
HIDDEN
 62
     7
370
    18
100
AcDbLine
 10
118.8577704196
 20
79.7363469547
 30
0.0
 11
118.8577704196
 21
74.7363469547
 31
0.0
  0
LINE
  5
2D7
330
1F
100
AcDbEntity
  8
0
  6
HIDDEN
 62
     7
370
    18
100
AcDbLine
 10
118.3577704196
 20
79.1565234862
 30
0.0
 11
118.3577704196
 21
74.2363469547
 31
0.0
  0
LINE
  5
2D8
330
1F
100
AcDbEntity
  8
0
  6
HIDDEN
 62
     7
370
    18
100
AcDbLine
 10
126.3577704196
 20
79.7363469547
 30
0.0
 11
126.3577704196
 21
74.7363469547
 31
0.0
  0
LINE
  5
2D9
330
1F
100
AcDbEntity
  8
0
  6
HIDDEN
 62
     7
370
    18
100
AcDbLine
 10
126.3577704196
 20
122.7363469547
 30
0.0
 11
126.3577704196
 21
117.7363469547
 31
0.0
  0
LINE
  5
2DA
330
1F
100
AcDbEntity
  8
0
  6
HIDDEN
 62
     7
370
    18
100
AcDbLine
 10
210.8577704196
 20
100.8363469547
 30
0.0
 11
210.8577704196
 21
96.6363469547
 31
0.0
  0
LINE
  5
2DB
330
1F
100
AcDbEntity
  8
0
  6
HIDDEN
 62
     7
370
    18
100
AcDbLine
 10
210.5873831411
 20
100.3863469547
 30
0.0
 11
210.5873831411
 21
97.0863469547
 31
0.0
  0
LINE
  5
2DC
330
1F
100
AcDbEntity
  8
0
  6
HIDDEN
 62
     7
370
    18
100
AcDbLine
 10
159.3577704196
 20
67.8760492974
 30
0.0
 11
161.0077704196
 21
69.0313917354
 31
0.0
  0
LINE
  5
2DD
330
1F
100
AcDbEntity
  8
0
  6
HIDDEN
 62
     7
370
    18
100
AcDbLine
 10
159.3577704196
 20
67.8760492974
 30
0.0
 11
161.0077704196
 21
65.5196050863
 31
0.0
  0
LINE
  5
2DE
330
1F
100
AcDbEntity
  8
0
  6
HIDDEN
 62
     7
370
    18
100
AcDbLine
 10
157.7077704196
 20
64.7363469547
 30
0.0
 11
161.0077704196
 21
64.7363469547
 31
0.0
  0
SPLINE
  5
2DF
330
1F
100
AcDbEntity
  8
0
  6
HIDDEN
 62
     7
370
    18
100
AcDbSpline
210
0.0
220
0.0
230
1.0
 70
     8
 71
     3
 72
    10
 73
     6
 74
     0
 42
0.000000001
 43
0.00000001
 40
0.0
 40
0.0
 40
0.0
 40
0.0
 40
0.5
 40
0.5
 40
1.0
 40
1.0
 40
1.0
 40
1.0
 10
158.8461759912587
 20
67.51782702216084
 30
0.0
 10
158.8719024726052
 20
67.6437379463532
 30
0.0
 10
158.9075895549753
 20
67.76857219872333
 30
0.0
 10
158.9957072217325
 20
68.00707867983405
 30
0.0
 10
159.0482239458806
 20
68.12213528009495
 30
0.0
 10
159.1069404821363
 20
68.23427157264258
 30
0.0
  0
LINE
  5
2E0
330
1F
100
AcDbEntity
  8
0
  6
HIDDEN
 62
     7
370
    18
100
AcDbLine
 10
159.3577704196
 20
67.8760492974
 30
0.0
 11
158.8461759913
 21
67.5178270222
 31
0.0
  0
LINE
  5
2E1
330
1F
100
AcDbEntity
  8
0
  6
HIDDEN
 62
     7
370
    18
100
AcDbLine
 10
158.8461759913
 20
67.5178270222
 30
0.0
 11
159.3577704196
 21
67.8760492974
 31
0.0
  0
SPLINE
  5
2E2
330
1F
100
AcDbEntity
  8
0
  6
HIDDEN
 62
     7
370
    18
100
AcDbSpline
210
0.0
220
0.0
230
1.0
 70
     8
 71
     3
 72
    10
 73
     6
 74
     0
 42
0.000000001
 43
0.00000001
 40
0.0
 40
0.0
 40
0.0
 40
0.0
 40
0.5
 40
0.5
 40
1.0
 40
1.0
 40
1.0
 40
1.0
 10
159.1069404821363
 20
68.23427157264258
 30
0.0
 10
159.0475286483848
 20
68.12080740743133
 30
0.0
 10
158.9939392093534
 20
68.00295081733854
 30
0.0
 10
158.9060826791864
 20
67.76381107581089
 30
0.0
 10
158.8715440799597
 20
67.64198389578549
 30
0.0
 10
158.8461759912587
 20
67.51782702216086
 30
0.0
  0
LINE
  5
2E3
330
1F
100
AcDbEntity
  8
0
  6
HIDDEN
 62
     7
370
    18
100
AcDbLine
 10
159.3577704196
 20
67.8760492974
 30
0.0
 11
159.1069404821
 21
68.2342715726
 31
0.0
  0
LINE
  5
2E4
330
1F
100
AcDbEntity
  8
0
  6
HIDDEN
 62
     7
370
    18
100
AcDbLine
 10
159.1069404821
 20
68.2342715726
 30
0.0
 11
159.3577704196
 21
67.8760492974
 31
0.0
  0
LINE
  5
2E5
330
1F
100
AcDbEntity
  8
0
  6
HIDDEN
 62
     7
370
    18
100
AcDbLine
 10
158.8461759913
 20
67.5178270222
 30
0.0
 11
159.1069404821
 21
68.2342715726
 31
0.0
  0
LINE
  5
2E6
330
1F
100
AcDbEntity
  8
0
  6
HIDDEN
 62
     7
370
    18
100
AcDbLine
 10
211.8577704196
 20
66.2763469548
 30
0.0
 11
211.8577704196
 21
66.2863469548
 31
0.0
  0
LINE
  5
2E7
330
1F
100
AcDbEntity
  8
0
  6
HIDDEN
 62
     7
370
    18
100
AcDbLine
 10
211.8577704196
 20
66.2763469548
 30
0.0
 11
210.2287055426
 21
66.2763469548
 31
0.0
  0
LINE
  5
2E8
330
1F
100
AcDbEntity
  8
0
  6
HIDDEN
 62
     7
370
    18
100
AcDbLine
 10
211.8577704196
 20
66.2863469548
 30
0.0
 11
206.8570204009
 21
66.2863469547
 31
0.0
  0
LINE
  5
2E9
330
1F
100
AcDbEntity
  8
0
  6
HIDDEN
 62
     7
370
    18
100
AcDbLine
 10
206.8570204009
 20
66.2763469548
 30
0.0
 11
211.8577704196
 21
66.2763469548
 31
0.0
  0
LINE
  5
2EA
330
1F
100
AcDbEntity
  8
0
  6
HIDDEN
 62
     7
370
    18
100
AcDbLine
 10
159.1069404821
 20
68.2342715726
 30
0.0
 11
158.8461759913
 21
67.5178270222
 31
0.0
  0
LINE
  5
2EB
330
1F
100
AcDbEntity
  8
0
  6
HIDDEN
 62
     7
370
    18
100
AcDbLine
 10
210.664687408
 20
66.2763469548
 30
0.0
 11
210.664687408
 21
66.2863469548
 31
0.0
  0
LINE
  5
2EC
330
1F
100
AcDbEntity
  8
0
  6
HIDDEN
 62
     7
370
    18
100
AcDbLine
 10
210.664687408
 20
66.2763469548
 30
0.0
 11
206.8570204009
 21
66.2763469548
 31
0.0
  0
LINE
  5
2ED
330
1F
100
AcDbEntity
  8
0
  6
HIDDEN
 62
     7
370
    18
100
AcDbLine
 10
206.8077704196
 20
66.2763469548
 30
0.0
 11
206.7093389217
 21
66.2763469548
 31
0.0
  0
LINE
  5
2EE
330
1F
100
AcDbEntity
  8
0
  6
HIDDEN
 62
     7
370
    18
100
AcDbLine
 10
210.664687408
 20
66.2863469548
 30
0.0
 11
206.7093389217
 21
66.2863469547
 31
0.0
  0
LINE
  5
2EF
330
1F
100
AcDbEntity
  8
0
  6
HIDDEN
 62
     7
370
    18
100
AcDbLine
 10
206.664271245
 20
66.2763469548
 30
0.0
 11
210.6196197313
 21
66.2763469548
 31
0.0
  0
LINE
  5
2F0
330
1F
100
AcDbEntity
  8
0
  6
HIDDEN
 62
     7
370
    18
100
AcDbLine
 10
206.664271245
 20
66.2863469548
 30
0.0
 11
210.6196197313
 21
66.2863469548
 31
0.0
  0
LINE
  5
2F1
330
1F
100
AcDbEntity
  8
0
  6
HIDDEN
 62
     7
370
    18
100
AcDbLine
 10
210.6196197313
 20
66.2763469548
 30
0.0
 11
210.6196197313
 21
66.2863469548
 31
0.0
  0
LINE
  5
2F2
330
1F
100
AcDbEntity
  8
0
  6
HIDDEN
 62
     7
370
    18
100
AcDbLine
 10
210.6196197313
 20
66.2763469548
 30
0.0
 11
210.664687408
 21
66.2763469548
 31
0.0
  0
LINE
  5
2F3
330
1F
100
AcDbEntity
  8
0
  6
HIDDEN
 62
     7
370
    18
100
AcDbLine
 10
210.6196197313
 20
66.2863469548
 30
0.0
 11
210.664687408
 21
66.2863469548
 31
0.0
  0
LINE
  5
2F4
330
1F
100
AcDbEntity
  8
0
  6
HIDDEN
 62
     7
370
    18
100
AcDbLine
 10
210.044753007
 20
66.2763469548
 30
0.0
 11
210.044753007
 21
66.2863469548
 31
0.0
  0
LINE
  5
2F5
330
1F
100
AcDbEntity
  8
0
  6
HIDDEN
 62
     7
370
    18
100
AcDbLine
 10
210.044753007
 20
66.2763469548
 30
0.0
 11
206.2245786617
 21
66.2763469548
 31
0.0
  0
LINE
  5
2F6
330
1F
100
AcDbEntity
  8
0
  6
HIDDEN
 62
     7
370
    18
100
AcDbLine
 10
210.044753007
 20
66.2863469548
 30
0.0
 11
206.2245786617
 21
66.2863469547
 31
0.0
  0
LINE
  5
2F7
330
1F
100
AcDbEntity
  8
0
  6
HIDDEN
 62
     7
370
    18
100
AcDbLine
 10
206.1354661873
 20
66.2763469548
 30
0.0
 11
209.9556405326
 21
66.2763469548
 31
0.0
  0
LINE
  5
2F8
330
1F
100
AcDbEntity
  8
0
  6
HIDDEN
 62
     7
370
    18
100
AcDbLine
 10
206.1354661873
 20
66.2863469548
 30
0.0
 11
209.9556405326
 21
66.2863469548
 31
0.0
  0
LINE
  5
2F9
330
1F
100
AcDbEntity
  8
0
  6
HIDDEN
 62
     7
370
    18
100
AcDbLine
 10
209.9556405326
 20
66.2763469548
 30
0.0
 11
209.9556405326
 21
66.2863469548
 31
0.0
  0
LINE
  5
2FA
330
1F
100
AcDbEntity
  8
0
  6
HIDDEN
 62
     7
370
    18
100
AcDbLine
 10
209.9556405326
 20
66.2763469548
 30
0.0
 11
210.044753007
 21
66.2763469548
 31
0.0
  0
LINE
  5
2FB
330
1F
100
AcDbEntity
  8
0
  6
HIDDEN
 62
     7
370
    18
100
AcDbLine
 10
209.9556405326
 20
66.2863469548
 30
0.0
 11
210.044753007
 21
66.2863469548
 31
0.0
  0
LINE
  5
2FC
330
1F
100
AcDbEntity
  8
0
  6
HIDDEN
 62
     7
370
    18
100
AcDbLine
 10
209.0120375644
 20
66.2763469548
 30
0.0
 11
209.0120375644
 21
66.2863469548
 31
0.0
  0
LINE
  5
2FD
330
1F
100
AcDbEntity
  8
0
  6
HIDDEN
 62
     7
370
    18
100
AcDbLine
 10
209.0120375644
 20
66.2763469548
 30
0.0
 11
205.4137419873
 21
66.2763469548
 31
0.0
  0
LINE
  5
2FE
330
1F
100
AcDbEntity
  8
0
  6
HIDDEN
 62
     7
370
    18
100
AcDbLine
 10
209.0120375644
 20
66.2863469548
 30
0.0
 11
205.4137419873
 21
66.2863469547
 31
0.0
  0
LINE
  5
2FF
330
1F
100
AcDbEntity
  8
0
  6
HIDDEN
 62
     7
370
    18
100
AcDbLine
 10
205.2826072573
 20
66.2763469548
 30
0.0
 11
208.8809028344
 21
66.2763469548
 31
0.0
  0
LINE
  5
300
330
1F
100
AcDbEntity
  8
0
  6
HIDDEN
 62
     7
370
    18
100
AcDbLine
 10
205.2826072573
 20
66.2863469548
 30
0.0
 11
208.8809028344
 21
66.2863469548
 31
0.0
  0
LINE
  5
301
330
1F
100
AcDbEntity
  8
0
  6
HIDDEN
 62
     7
370
    18
100
AcDbLine
 10
208.8809028344
 20
66.2763469548
 30
0.0
 11
208.8809028344
 21
66.2863469548
 31
0.0
  0
LINE
  5
302
330
1F
100
AcDbEntity
  8
0
  6
HIDDEN
 62
     7
370
    18
100
AcDbLine
 10
208.8809028344
 20
66.2763469548
 30
0.0
 11
209.0120375644
 21
66.2763469548
 31
0.0
  0
LINE
  5
303
330
1F
100
AcDbEntity
  8
0
  6
HIDDEN
 62
     7
370
    18
100
AcDbLine
 10
208.8809028344
 20
66.2863469548
 30
0.0
 11
209.0120375644
 21
66.2863469548
 31
0.0
  0
LINE
  5
304
330
1F
100
AcDbEntity
  8
0
  6
HIDDEN
 62
     7
370
    18
100
AcDbLine
 10
207.5899801169
 20
66.2763469548
 30
0.0
 11
207.5899801169
 21
66.2863469548
 31
0.0
  0
LINE
  5
305
330
1F
100
AcDbEntity
  8
0
  6
HIDDEN
 62
     7
370
    18
100
AcDbLine
 10
207.5899801169
 20
66.2763469548
 30
0.0
 11
204.2952320615
 21
66.2763469548
 31
0.0
  0
LINE
  5
306
330
1F
100
AcDbEntity
  8
0
  6
HIDDEN
 62
     7
370
    18
100
AcDbLine
 10
207.5899801169
 20
66.2863469548
 30
0.0
 11
204.2952320615
 21
66.2863469547
 31
0.0
  0
LINE
  5
307
330
1F
100
AcDbEntity
  8
0
  6
HIDDEN
 62
     7
370
    18
100
AcDbLine
 10
204.1250513768
 20
66.2763469548
 30
0.0
 11
207.4197994322
 21
66.2763469548
 31
0.0
  0
LINE
  5
308
330
1F
100
AcDbEntity
  8
0
  6
HIDDEN
 62
     7
370
    18
100
AcDbLine
 10
204.1250513768
 20
66.2863469548
 30
0.0
 11
207.4197994322
 21
66.2863469548
 31
0.0
  0
LINE
  5
309
330
1F
100
AcDbEntity
  8
0
  6
HIDDEN
 62
     7
370
    18
100
AcDbLine
 10
206.5398250339
 20
66.2763469548
 30
0.0
 11
206.5398250339
 21
66.2863469548
 31
0.0
  0
LINE
  5
30A
330
1F
100
AcDbEntity
  8
0
  6
HIDDEN
 62
     7
370
    18
100
AcDbLine
 10
206.5398250339
 20
66.2763469548
 30
0.0
 11
202.8944351567
 21
66.2763469548
 31
0.0
  0
LINE
  5
30B
330
1F
100
AcDbEntity
  8
0
  6
HIDDEN
 62
     7
370
    18
100
AcDbLine
 10
206.5398250339
 20
66.2863469548
 30
0.0
 11
202.8944351567
 21
66.2863469547
 31
0.0
  0
LINE
  5
30C
330
1F
100
AcDbEntity
  8
0
  6
HIDDEN
 62
     7
370
    18
100
AcDbLine
 10
202.6890710249
 20
66.2763469548
 30
0.0
 11
206.3344609022
 21
66.2763469548
 31
0.0
  0
LINE
  5
30D
330
1F
100
AcDbEntity
  8
0
  6
HIDDEN
 62
     7
370
    18
100
AcDbLine
 10
202.6890710249
 20
66.2863469548
 30
0.0
 11
206.3344609022
 21
66.2863469548
 31
0.0
  0
LINE
  5
30E
330
1F
100
AcDbEntity
  8
0
  6
HIDDEN
 62
     7
370
    18
100
AcDbLine
 10
207.4197994322
 20
66.2763469548
 30
0.0
 11
207.4197994322
 21
66.2863469548
 31
0.0
  0
LINE
  5
30F
330
1F
100
AcDbEntity
  8
0
  6
HIDDEN
 62
     7
370
    18
100
AcDbLine
 10
207.4197994322
 20
66.2763469548
 30
0.0
 11
207.5899801169
 21
66.2763469548
 31
0.0
  0
LINE
  5
310
330
1F
100
AcDbEntity
  8
0
  6
HIDDEN
 62
     7
370
    18
100
AcDbLine
 10
207.4197994322
 20
66.2863469548
 30
0.0
 11
207.5899801169
 21
66.2863469548
 31
0.0
  0
SPLINE
  5
311
330
1F
100
AcDbEntity
  8
0
  6
HIDDEN
 62
     7
370
    18
100
AcDbSpline
210
0.0
220
0.0
230
1.0
 70
    24
 71
     3
 72
    18
 73
    14
 74
     0
 42
0.000000001
 43
0.00000001
 40
0.0
 40
0.0
 40
0.0
 40
0.0
 40
0.25
 40
0.25
 40
0.5
 40
0.5
 40
0.625
 40
0.625
 40
0.75
 40
0.75
 40
0.875
 40
0.875
 40
1.0
 40
1.0
 40
1.0
 40
1.0
 10
212.0483693428561
 20
66.2863469547397
 30
0.0
 10
211.991765378099
 20
66.2863469547397
 30
0.0
 10
211.9229856753051
 20
66.2863469547397
 30
0.0
 10
211.75332144157
 20
66.2863469547397
 30
0.0
 10
211.65277885758
 20
66.2863469547397
 30
0.0
 10
211.4613035544458
 20
66.2863469547397
 30
0.0
 10
211.3898909325365
 20
66.2863469547397
 30
0.0
 10
211.23091969083
 20
66.28634695473968
 30
0.0
 10
211.1434795521922
 20
66.2863469547397
 30
0.0
 10
210.9441036838451
 20
66.28634695473968
 30
0.0
 10
210.8330225119048
 20
66.2863469547397
 30
0.0
 10
210.5865224283617
 20
66.2863469547397
 30
0.0
 10
210.4518730848178
 20
66.2863469547397
 30
0.0
 10
210.3163185352873
 20
66.2863469547397
 30
0.0
  0
SPLINE
  5
312
330
1F
100
AcDbEntity
  8
0
  6
HIDDEN
 62
     7
370
    18
100
AcDbSpline
210
0.0
220
0.0
230
1.0
 70
    24
 71
     3
 72
    14
 73
    10
 74
     0
 42
0.000000001
 43
0.00000001
 40
0.0
 40
0.0
 40
0.0
 40
0.0
 40
0.25
 40
0.25
 40
0.5
 40
0.5
 40
0.75
 40
0.75
 40
1.0
 40
1.0
 40
1.0
 40
1.0
 10
210.3163185352872
 20
122.9222022189747
 30
0.0
 10
210.4999240219734
 20
122.8931219667254
 30
0.0
 10
210.6844550915049
 20
122.8638951165552
 30
0.0
 10
211.0436281088699
 20
122.8070076992202
 30
0.0
 10
211.2127541791587
 20
122.7802207612332
 30
0.0
 10
211.5171860899983
 20
122.732003483418
 30
0.0
 10
211.6514278354233
 20
122.7107416797006
 30
0.0
 10
211.8787086828648
 20
122.6747439298821
 30
0.0
 10
211.9718379825472
 20
122.6599936978741
 30
0.0
 10
212.0483693428561
 20
122.6478723212043
 30
0.0
  0
LINE
  5
313
330
1F
100
AcDbEntity
  8
0
  6
HIDDEN
 62
     7
370
    18
100
AcDbLine
 10
206.3344609022
 20
66.2763469548
 30
0.0
 11
206.3344609022
 21
66.2863469548
 31
0.0
  0
LINE
  5
314
330
1F
100
AcDbEntity
  8
0
  6
HIDDEN
 62
     7
370
    18
100
AcDbLine
 10
206.3344609022
 20
66.2763469548
 30
0.0
 11
206.5398250339
 21
66.2763469548
 31
0.0
  0
LINE
  5
315
330
1F
100
AcDbEntity
  8
0
  6
HIDDEN
 62
     7
370
    18
100
AcDbLine
 10
206.3344609022
 20
66.2863469548
 30
0.0
 11
206.5398250339
 21
66.2863469548
 31
0.0
  0
LINE
  5
316
330
1F
100
AcDbEntity
  8
0
  6
HIDDEN
 62
     7
370
    18
100
AcDbLine
 10
157.7077704196
 20
112.5653928193
 30
0.0
 11
157.7077704196
 21
101.9897751535
 31
0.0
  0
LINE
  5
317
330
1F
100
AcDbEntity
  8
0
  6
HIDDEN
 62
     7
370
    18
100
AcDbLine
 10
161.0077704196
 20
109.9826151358
 30
0.0
 11
161.0077704196
 21
112.5653928193
 31
0.0
  0
LINE
  5
318
330
1F
100
AcDbEntity
  8
0
  6
HIDDEN
 62
     7
370
    18
100
AcDbLine
 10
161.0077704196
 20
101.9885783905
 30
0.0
 11
161.0077704196
 21
108.6403842136
 31
0.0
  0
LINE
  5
319
330
1F
100
AcDbEntity
  8
0
  6
HIDDEN
 62
     7
370
    18
100
AcDbLine
 10
197.7113065509
 20
110.9614996747
 30
0.0
 11
160.0288858807
 21
110.9614996747
 31
0.0
  0
LINE
  5
31A
330
1F
100
AcDbEntity
  8
0
  6
HIDDEN
 62
     7
370
    18
100
AcDbLine
 10
212.3577704196
 20
110.9614996747
 30
0.0
 11
200.83237881
 21
110.9614996747
 31
0.0
  0
LINE
  5
31B
330
1F
100
AcDbEntity
  8
0
  6
HIDDEN
 62
     7
370
    18
100
AcDbLine
 10
160.0288858807
 20
107.6614996747
 30
0.0
 11
212.3577704196
 21
107.6614996747
 31
0.0
  0
LINE
  5
31C
330
1F
100
AcDbEntity
  8
0
  6
HIDDEN
 62
     7
370
    18
100
AcDbLine
 10
204.6284213582
 20
123.82307663
 30
0.0
 11
197.593501088
 21
110.8914776884
 31
0.0
  0
LINE
  5
31D
330
1F
100
AcDbEntity
  8
0
  6
HIDDEN
 62
     7
370
    18
100
AcDbLine
 10
201.1226411992
 20
110.47316027
 30
0.0
 11
208.087119481
 21
123.2752726636
 31
0.0
  0
LINE
  5
31E
330
1F
100
AcDbEntity
  8
0
  6
HIDDEN
 62
     7
370
    18
100
AcDbLine
 10
165.4875161415
 20
134.7363469547
 30
0.0
 11
169.3577704196
 21
129.4093989388
 31
0.0
  0
LINE
  5
31F
330
1F
100
AcDbEntity
  8
0
  6
HIDDEN
 62
     7
370
    18
100
AcDbLine
 10
118.5022071008
 20
80.0490373109
 30
0.0
 11
118.5519312609
 21
80.4028430942
 31
0.0
  0
LINE
  5
320
330
1F
100
AcDbEntity
  8
0
  6
HIDDEN
 62
     7
370
    18
100
AcDbLine
 10
118.5519312609
 20
117.0698508153
 30
0.0
 11
118.5022071008
 21
117.4236565986
 31
0.0
  0
LINE
  5
321
330
1F
100
AcDbEntity
  8
0
  6
HIDDEN
 62
     7
370
    18
100
AcDbLine
 10
188.0171975457
 20
103.7363469547
 30
0.0
 11
173.3577704196
 21
103.7363469547
 31
0.0
  0
LINE
  5
322
330
1F
100
AcDbEntity
  8
0
  6
HIDDEN
 62
     7
370
    18
100
AcDbLine
 10
214.3577704196
 20
103.7363469547
 30
0.0
 11
195.6428140903
 21
103.7363469547
 31
0.0
  0
LINE
  5
323
330
1F
100
AcDbEntity
  8
0
  6
HIDDEN
 62
     7
370
    18
100
AcDbLine
 10
195.6237377241
 20
93.7363469547
 30
0.0
 11
214.3577704196
 21
93.7363469547
 31
0.0
  0
LINE
  5
324
330
1F
100
AcDbEntity
  8
0
  6
HIDDEN
 62
     7
370
    18
100
AcDbLine
 10
173.3577704196
 20
93.7363469547
 30
0.0
 11
188.0206113543
 21
93.7363469547
 31
0.0
  0
LINE
  5
325
330
1F
100
AcDbEntity
  8
0
  6
HIDDEN
 62
     7
370
    18
100
AcDbLine
 10
173.3577704196
 20
103.7363469547
 30
0.0
 11
170.3534673245
 21
98.7363469547
 31
0.0
  0
LINE
  5
326
330
1F
100
AcDbEntity
  8
0
  6
HIDDEN
 62
     7
370
    18
100
AcDbLine
 10
170.3534673245
 20
98.7363469547
 30
0.0
 11
173.3577704196
 21
93.7363469547
 31
0.0
  0
ARC
  5
327
330
1F
100
AcDbEntity
  8
0
  6
HIDDEN
 62
     7
370
    18
100
AcDbCircle
 10
117.9577704196
 20
80.4863469547
 30
0.0
 40
0.6000000000000133
100
AcDbArc
 50
352.0
 51
0.0
  0
ARC
  5
328
330
1F
100
AcDbEntity
  8
0
  6
HIDDEN
 62
     7
370
    18
100
AcDbCircle
 10
117.9577704196
 20
80.4863469547
 30
0.0
 40
0.6000000000000085
100
AcDbArc
 50
0.0
 51
90.0
  0
ARC
  5
329
330
1F
100
AcDbEntity
  8
0
  6
HIDDEN
 62
     7
370
    18
100
AcDbCircle
 10
117.9577704196
 20
116.9863469547
 30
0.0
 40
0.6000000000000133
100
AcDbArc
 50
0.0
 51
8.0
  0
ARC
  5
32A
330
1F
100
AcDbEntity
  8
0
  6
HIDDEN
 62
     7
370
    18
100
AcDbCircle
 10
117.9577704196
 20
116.9863469547
 30
0.0
 40
0.6000000000000085
100
AcDbArc
 50
270.0
 51
0.0
  0
LINE
  5
32B
330
1F
100
AcDbEntity
  8
0
  6
HIDDEN
 62
     7
370
    18
100
AcDbLine
 10
118.5577704196
 20
80.4863469547
 30
0.0
 11
118.5577704196
 21
116.9863469547
 31
0.0
  0
LINE
  5
32C
330
1F
100
AcDbEntity
  8
0
  6
HIDDEN
 62
     7
370
    18
100
AcDbLine
 10
118.5577704196
 20
80.4863469547
 30
0.0
 11
118.5577704196
 21
116.9863469547
 31
0.0
  0
LINE
  5
32D
330
1F
100
AcDbEntity
  8
0
  6
HIDDEN
 62
     7
370
    18
100
AcDbLine
 10
115.8577704196
 20
80.7363469547
 30
0.0
 11
117.0876882738
 21
81.0659024505
 31
0.0
  0
LINE
  5
32E
330
1F
100
AcDbEntity
  8
0
  6
HIDDEN
 62
     7
370
    18
100
AcDbLine
 10
117.0876882738
 20
116.406791459
 30
0.0
 11
115.8577704196
 21
116.7363469547
 31
0.0
  0
LINE
  5
32F
330
1F
100
AcDbEntity
  8
0
  6
HIDDEN
 62
     7
370
    18
100
AcDbLine
 10
113.3577704196
 20
80.7363469547
 30
0.0
 11
115.8577704196
 21
80.7363469547
 31
0.0
  0
LINE
  5
330
330
1F
100
AcDbEntity
  8
0
  6
HIDDEN
 62
     7
370
    18
100
AcDbLine
 10
115.8577704196
 20
116.7363469547
 30
0.0
 11
113.3577704196
 21
116.7363469547
 31
0.0
  0
ARC
  5
331
330
1F
100
AcDbEntity
  8
0
  6
HIDDEN
 62
     7
370
    18
100
AcDbCircle
 10
117.2429797008
 20
80.4863469547
 30
0.0
 40
0.6000000000000085
100
AcDbArc
 50
90.0
 51
105.0
  0
ARC
  5
332
330
1F
100
AcDbEntity
  8
0
  6
HIDDEN
 62
     7
370
    18
100
AcDbCircle
 10
117.2429797008
 20
116.9863469547
 30
0.0
 40
0.6000000000000085
100
AcDbArc
 50
255.0
 51
270.0
  0
LINE
  5
333
330
1F
100
AcDbEntity
  8
0
  6
HIDDEN
 62
     7
370
    18
100
AcDbLine
 10
117.2429797008
 20
81.0863469547
 30
0.0
 11
117.9577704196
 21
81.0863469547
 31
0.0
  0
LINE
  5
334
330
1F
100
AcDbEntity
  8
0
  6
HIDDEN
 62
     7
370
    18
100
AcDbLine
 10
117.9577704196
 20
116.3863469547
 30
0.0
 11
117.2429797008
 21
116.3863469547
 31
0.0
  0
LINE
  5
335
330
1F
100
AcDbEntity
  8
0
  6
HIDDEN
 62
     7
370
    18
100
AcDbLine
 10
166.5784624451
 20
63.5070389802
 30
0.0
 11
165.8077704196
 21
62.7363469547
 31
0.0
  0
LINE
  5
336
330
1F
100
AcDbEntity
  8
0
  6
HIDDEN
 62
     7
370
    18
100
AcDbLine
 10
169.3577704196
 20
66.2863469547
 30
0.0
 11
169.1391430702
 21
66.0677196054
 31
0.0
  0
LINE
  5
337
330
1F
100
AcDbEntity
  8
0
  6
HIDDEN
 62
     7
370
    18
100
AcDbLine
 10
206.8577704196
 20
100.3863469547
 30
0.0
 11
206.8577704196
 21
123.4699824266
 31
0.0
  0
LINE
  5
338
330
1F
100
AcDbEntity
  8
0
  6
HIDDEN
 62
     7
370
    18
100
AcDbLine
 10
206.8577704196
 20
66.2763469548
 30
0.0
 11
206.8577704196
 21
97.1069704959
 31
0.0
  0
LINE
  5
339
330
1F
100
AcDbEntity
  8
0
  6
HIDDEN
 62
     7
370
    18
100
AcDbLine
 10
176.8577704196
 20
128.2215156363
 30
0.0
 11
176.8577704196
 21
66.2863469547
 31
0.0
  0
ARC
  5
33A
330
1F
100
AcDbEntity
  8
0
  6
HIDDEN
 62
     7
370
    18
100
AcDbCircle
 10
79.3577704196
 20
88.2363469547
 30
0.0
 40
1.0
100
AcDbArc
 50
90.0
 51
180.0
  0
ARC
  5
33B
330
1F
100
AcDbEntity
  8
0
  6
HIDDEN
 62
     7
370
    18
100
AcDbCircle
 10
79.3577704196
 20
109.2363469547
 30
0.0
 40
1.0
100
AcDbArc
 50
180.0
 51
270.0
  0
LINE
  5
33C
330
1F
100
AcDbEntity
  8
0
  6
HIDDEN
 62
     7
370
    18
100
AcDbLine
 10
79.3577704196
 20
89.2363469547
 30
0.0
 11
81.3577704196
 21
89.2363469547
 31
0.0
  0
LINE
  5
33D
330
1F
100
AcDbEntity
  8
0
  6
HIDDEN
 62
     7
370
    18
100
AcDbLine
 10
81.3577704196
 20
108.2363469547
 30
0.0
 11
79.3577704196
 21
108.2363469547
 31
0.0
  0
LINE
  5
33E
330
1F
100
AcDbEntity
  8
0
  6
HIDDEN
 62
     7
370
    18
100
AcDbLine
 10
81.3577704196
 20
89.2363469547
 30
0.0
 11
82.2590613482
 21
90.7363469547
 31
0.0
  0
LINE
  5
33F
330
1F
100
AcDbEntity
  8
0
  6
HIDDEN
 62
     7
370
    18
100
AcDbLine
 10
82.2590613482
 20
106.7363469547
 30
0.0
 11
81.3577704196
 21
108.2363469547
 31
0.0
  0
LINE
  5
340
330
1F
100
AcDbEntity
  8
0
  6
HIDDEN
 62
     7
370
    18
100
AcDbLine
 10
161.3577704196
 20
90.7363469547
 30
0.0
 11
166.1646553718
 21
98.7363469547
 31
0.0
  0
LINE
  5
341
330
1F
100
AcDbEntity
  8
0
  6
HIDDEN
 62
     7
370
    18
100
AcDbLine
 10
166.1646553718
 20
98.7363469547
 30
0.0
 11
161.3577704196
 21
106.7363469547
 31
0.0
  0
LINE
  5
342
330
1F
100
AcDbEntity
  8
0
  6
HIDDEN
 62
     7
370
    18
100
AcDbLine
 10
161.0077704196
 20
90.7363469547
 30
0.0
 11
161.3577704196
 21
90.7363469547
 31
0.0
  0
LINE
  5
343
330
1F
100
AcDbEntity
  8
0
  6
HIDDEN
 62
     7
370
    18
100
AcDbLine
 10
82.2590613482
 20
90.7363469547
 30
0.0
 11
157.729338619
 21
90.7363469547
 31
0.0
  0
LINE
  5
344
330
1F
100
AcDbEntity
  8
0
  6
HIDDEN
 62
     7
370
    18
100
AcDbLine
 10
161.3577704196
 20
106.7363469547
 30
0.0
 11
82.2590613482
 21
106.7363469547
 31
0.0
  0
LINE
  5
345
330
1F
100
AcDbEntity
  8
0
  6
HIDDEN
 62
     7
370
    18
100
AcDbLine
 10
214.3577704196
 20
102.2797226277
 30
0.0
 11
211.8577704196
 21
100.8363469547
 31
0.0
  0
LINE
  5
346
330
1F
100
AcDbEntity
  8
0
  6
HIDDEN
 62
     7
370
    18
100
AcDbLine
 10
211.8577704196
 20
96.6363469547
 30
0.0
 11
214.3577704196
 21
95.1929712818
 31
0.0
  0
LINE
  5
347
330
1F
100
AcDbEntity
  8
0
  6
HIDDEN
 62
     7
370
    18
100
AcDbLine
 10
118.5230705279
 20
117.4016470631
 30
0.0
 11
118.8577704196
 21
117.7363469547
 31
0.0
  0
LINE
  5
348
330
1F
100
AcDbEntity
  8
0
  6
HIDDEN
 62
     7
370
    18
100
AcDbLine
 10
118.8577704196
 20
122.7363469547
 30
0.0
 11
118.3577704196
 21
123.2363469547
 31
0.0
  0
LINE
  5
349
330
1F
100
AcDbEntity
  8
0
  6
HIDDEN
 62
     7
370
    18
100
AcDbLine
 10
118.3577704196
 20
74.2363469547
 30
0.0
 11
118.8577704196
 21
74.7363469547
 31
0.0
  0
LINE
  5
34A
330
1F
100
AcDbEntity
  8
0
  6
HIDDEN
 62
     7
370
    18
100
AcDbLine
 10
118.8577704196
 20
79.7363469547
 30
0.0
 11
118.5230705279
 21
80.0710468464
 31
0.0
  0
LINE
  5
34B
330
1F
100
AcDbEntity
  8
0
  6
HIDDEN
 62
     7
370
    18
100
AcDbLine
 10
118.8577704196
 20
74.7363469547
 30
0.0
 11
126.3577704196
 21
74.7363469547
 31
0.0
  0
LINE
  5
34C
330
1F
100
AcDbEntity
  8
0
  6
HIDDEN
 62
     7
370
    18
100
AcDbLine
 10
126.3577704196
 20
79.7363469547
 30
0.0
 11
118.8577704196
 21
79.7363469547
 31
0.0
  0
LINE
  5
34D
330
1F
100
AcDbEntity
  8
0
  6
HIDDEN
 62
     7
370
    18
100
AcDbLine
 10
118.8577704196
 20
117.7363469547
 30
0.0
 11
126.3577704196
 21
117.7363469547
 31
0.0
  0
LINE
  5
34E
330
1F
100
AcDbEntity
  8
0
  6
HIDDEN
 62
     7
370
    18
100
AcDbLine
 10
126.3577704196
 20
122.7363469547
 30
0.0
 11
118.8577704196
 21
122.7363469547
 31
0.0
  0
LINE
  5
34F
330
1F
100
AcDbEntity
  8
0
  6
HIDDEN
 62
     7
370
    18
100
AcDbLine
 10
126.3577704196
 20
117.7363469547
 30
0.0
 11
127.8599219672
 21
120.2363469547
 31
0.0
  0
LINE
  5
350
330
1F
100
AcDbEntity
  8
0
  6
HIDDEN
 62
     7
370
    18
100
AcDbLine
 10
127.8599219672
 20
120.2363469547
 30
0.0
 11
126.3577704196
 21
122.7363469547
 31
0.0
  0
LINE
  5
351
330
1F
100
AcDbEntity
  8
0
  6
HIDDEN
 62
     7
370
    18
100
AcDbLine
 10
126.3577704196
 20
74.7363469547
 30
0.0
 11
127.8599219672
 21
77.2363469547
 31
0.0
  0
LINE
  5
352
330
1F
100
AcDbEntity
  8
0
  6
HIDDEN
 62
     7
370
    18
100
AcDbLine
 10
127.8599219672
 20
77.2363469547
 30
0.0
 11
126.3577704196
 21
79.7363469547
 31
0.0
  0
LINE
  5
353
330
1F
100
AcDbEntity
  8
0
  6
HIDDEN
 62
     7
370
    18
100
AcDbLine
 10
210.8577704196
 20
96.6363469547
 30
0.0
 11
211.8577704196
 21
96.6363469547
 31
0.0
  0
LINE
  5
354
330
1F
100
AcDbEntity
  8
0
  6
HIDDEN
 62
     7
370
    18
100
AcDbLine
 10
211.8577704196
 20
100.8363469547
 30
0.0
 11
210.8577704196
 21
100.8363469547
 31
0.0
  0
LINE
  5
355
330
1F
100
AcDbEntity
  8
0
  6
HIDDEN
 62
     7
370
    18
100
AcDbLine
 10
210.8577704196
 20
100.8363469547
 30
0.0
 11
210.5873831411
 21
100.3863469547
 31
0.0
  0
LINE
  5
356
330
1F
100
AcDbEntity
  8
0
  6
HIDDEN
 62
     7
370
    18
100
AcDbLine
 10
210.5873831411
 20
97.0863469547
 30
0.0
 11
210.8577704196
 21
96.6363469547
 31
0.0
  0
LINE
  5
357
330
1F
100
AcDbEntity
  8
0
  6
HIDDEN
 62
     7
370
    18
100
AcDbLine
 10
161.0077704196
 20
65.5196050863
 30
0.0
 11
166.5738828759
 21
63.4937058316
 31
0.0
  0
LINE
  5
358
330
1F
100
AcDbEntity
  8
0
  6
HIDDEN
 62
     7
370
    18
100
AcDbLine
 10
169.1405777308
 20
66.0712919531
 30
0.0
 11
161.0077704196
 21
69.0313917354
 31
0.0
  0
LINE
  5
359
330
1F
100
AcDbEntity
  8
0
  6
HIDDEN
 62
     7
370
    18
100
AcDbLine
 10
206.8555302175
 20
97.0863469547
 30
0.0
 11
210.5873831411
 21
97.0863469547
 31
0.0
  0
LINE
  5
35A
330
1F
100
AcDbEntity
  8
0
  6
HIDDEN
 62
     7
370
    18
100
AcDbLine
 10
210.5873831411
 20
100.3863469547
 30
0.0
 11
206.8577704196
 21
100.3863469547
 31
0.0
  0
LINE
  5
35B
330
1F
100
AcDbEntity
  8
0
  6
HIDDEN
 62
     7
370
    18
100
AcDbLine
 10
161.0077704196
 20
69.0313917354
 30
0.0
 11
161.0077704196
 21
90.7363469547
 31
0.0
  0
LINE
  5
35C
330
1F
100
AcDbEntity
  8
0
  6
HIDDEN
 62
     7
370
    18
100
AcDbLine
 10
161.0077704196
 20
64.7363469547
 30
0.0
 11
161.0077704196
 21
65.5196050863
 31
0.0
  0
LINE
  5
35D
330
1F
100
AcDbEntity
  8
0
  6
HIDDEN
 62
     7
370
    18
100
AcDbLine
 10
157.7077704196
 20
90.7407533923
 30
0.0
 11
157.7077704196
 21
64.7363469547
 31
0.0
  0
POINT
  5
35E
330
1F
100
AcDbEntity
  8
VERMASSUNG
100
AcDbPoint
 10
218.3577704196
 20
142.5211422764
 30
0.0
  0
POINT
  5
35F
330
1F
100
AcDbEntity
  8
0
  6
Continuous
 62
     7
370
    18
100
AcDbPoint
 10
218.3577704196
 20
55.6211422764
 30
0.0
  0
DIMENSION
  5
360
330
1F
100
AcDbEntity
  8
VERMASSUNG
100
AcDbDimension
  2
_D
 10
78.3577704196
 20
152.5213139069
 30
0.0
 11
148.3577704196
 21
152.5213139069
 31
0.0
 70
   160
  1
(<>)
 71
     2
 42
-1.0
  3
SLDDIMSTYLE0
100
AcDbAlignedDimension
 13
218.3577704196
 23
142.5211422764
 33
0.0
 14
78.3577704196
 24
114.6363469547
 34
0.0
100
AcDbRotatedDimension
  0
DIMENSION
  5
36D
330
1F
100
AcDbEntity
  8
VERMASSUNG
100
AcDbDimension
  2
_D_1
 10
118.3577704196
 20
146.5213139069
 30
0.0
 11
168.3577704196
 21
146.5213139069
 31
0.0
 70
   160
  1
<>
 71
     2
 42
-1.0
  3
SLDDIMSTYLE0
100
AcDbAlignedDimension
 13
218.3577704196
 23
142.5211422764
 33
0.0
 14
118.3577704196
 24
130.7363469547
 34
0.0
100
AcDbRotatedDimension
  0
DIMENSION
  5
377
330
1F
100
AcDbEntity
  8
VERMASSUNG
100
AcDbDimension
  2
_D_2
 10
228.3577704196
 20
55.6211422764
 30
0.0
 11
228.3577704196
 21
113.1620041959
 31
0.0
 70
   160
  1
%%c<>-116.1\P%%c104.9-134.1
 71
     2
 42
-1.0
  3
SLDDIMSTYLE1
100
AcDbAlignedDimension
 13
218.3577704196
 23
142.5211422764
 33
0.0
 14
218.3577704196
 24
55.6211422764
 34
0.0
 50
90.0
100
AcDbRotatedDimension
  0
DIMENSION
  5
384
330
1F
100
AcDbEntity
  8
VERMASSUNG
100
AcDbDimension
  2
_D_3
 10
74.4058245651
 20
62.7363469547
 30
0.0
 11
74.4058245651
 21
98.7363469547
 31
0.0
 70
   160
  1
ST6 %%c<>
 71
     2
 42
-1.0
  3
SLDDIMSTYLE0
100
AcDbAlignedDimension
 13
121.2445217656
 23
134.7363469547
 33
0.0
 14
121.2445217656
 24
62.7363469547
 34
0.0
 50
90.0
100
AcDbRotatedDimension
  0
INSERT
  5
39B
330
1F
100
AcDbEntity
  8
VERMASSUNG
100
AcDbBlockReference
  2
SW_CENTERMARKSYMBOL_0
 10
191.8577704196
 20
98.7363469547
 30
0.0
  0
LINE
  5
39C
330
1F
100
AcDbEntity
  8
VERMASSUNG
  6
CENTERX2
370
    18
100
AcDbLine
 10
112.9439469187
 20
120.2363469547
 30
0.0
 11
128.3577704196
 21
120.2363469547
 31
0.0
  0
LINE
  5
39D
330
1F
100
AcDbEntity
  8
VERMASSUNG
  6
CENTERX2
370
    18
100
AcDbLine
 10
112.4627016346
 20
77.2363469547
 30
0.0
 11
128.3577704196
 21
77.2363469547
 31
0.0
  0
LINE
  5
39E
330
1F
100
AcDbEntity
  8
VERMASSUNG
  6
CENTERX2
370
    18
100
AcDbLine
 10
159.3577704196
 20
63.9634744632
 30
0.0
 11
159.3577704196
 21
114.8150594869
 31
0.0
  0
LINE
  5
39F
330
1F
100
AcDbEntity
  8
VERMASSUNG
  6
CENTERX2
370
    18
100
AcDbLine
 10
159.128385178
 20
67.9595386975
 30
0.0
 11
169.4661249381
 21
64.1969091352
 31
0.0
  0
LINE
  5
3A0
330
1F
100
AcDbEntity
  8
VERMASSUNG
  6
CENTERX2
370
    18
100
AcDbLine
 10
159.9455696693
 20
109.3114996747
 30
0.0
 11
212.8825509242
 21
109.3114996747
 31
0.0
  0
LINE
  5
3A1
330
1F
100
AcDbEntity
  8
VERMASSUNG
  6
CENTERX2
370
    18
100
AcDbLine
 10
198.4023232881
 20
108.9254621163
 30
0.0
 11
206.4563476131
 21
123.7303793629
 31
0.0
  0
OLE2FRAME
  5
3A2
330
1F
100
AcDbEntity
  8
0
100
AcDbOle2Frame
 70
     2
  3
Paintbrush-Bild
 10
13.8511154363
 20
38.264191557
 30
0.0
 11
51.6290888628
 21
31.9806341108
 31
0.0
 71
     2
 72
     0
 73
     1
 90
    12928
310
80552BED0767C5B32B40DDAF6807D121434000000000000000006FFBDDFB85D0
310
4940DDAF6807D121434000000000000000006FFBDDFB85D04940416F4BD60AFB
310
3F4000000000000000002BED0767C5B32B40416F4BD60AFB3F40000000000000
310
0000000000000100000000010000010000000100000000000100000000320000
310
D0CF11E0A1B11AE1000000000000000000000000000000003E000300FEFF0900
310
0600000000000000000000000100000001000000000000000010000002000000
310
01000000FEFFFFFF0000000000000000FFFFFFFFFFFFFFFFFFFFFFFFFFFFFFFF
310
FFFFFFFFFFFFFFFFFFFFFFFFFFFFFFFFFFFFFFFFFFFFFFFFFFFFFFFFFFFFFFFF
310
FFFFFFFFFFFFFFFFFFFFFFFFFFFFFFFFFFFFFFFFFFFFFFFFFFFFFFFFFFFFFFFF
310
FFFFFFFFFFFFFFFFFFFFFFFFFFFFFFFFFFFFFFFFFFFFFFFFFFFFFFFFFFFFFFFF
310
FFFFFFFFFFFFFFFFFFFFFFFFFFFFFFFFFFFFFFFFFFFFFFFFFFFFFFFFFFFFFFFF
310
FFFFFFFFFFFFFFFFFFFFFFFFFFFFFFFFFFFFFFFFFFFFFFFFFFFFFFFFFFFFFFFF
310
FFFFFFFFFFFFFFFFFFFFFFFFFFFFFFFFFFFFFFFFFFFFFFFFFFFFFFFFFFFFFFFF
310
FFFFFFFFFFFFFFFFFFFFFFFFFFFFFFFFFFFFFFFFFFFFFFFFFFFFFFFFFFFFFFFF
310
FFFFFFFFFFFFFFFFFFFFFFFFFFFFFFFFFFFFFFFFFFFFFFFFFFFFFFFFFFFFFFFF
310
FFFFFFFFFFFFFFFFFFFFFFFFFFFFFFFFFFFFFFFFFFFFFFFFFFFFFFFFFFFFFFFF
310
FFFFFFFFFFFFFFFFFFFFFFFFFFFFFFFFFFFFFFFFFFFFFFFFFFFFFFFFFFFFFFFF
310
FFFFFFFFFFFFFFFFFFFFFFFFFFFFFFFFFFFFFFFFFFFFFFFFFFFFFFFFFFFFFFFF
310
FFFFFFFFFFFFFFFFFFFFFFFFFFFFFFFFFFFFFFFFFFFFFFFFFFFFFFFFFFFFFFFF
310
FFFFFFFFFFFFFFFFFFFFFFFFFFFFFFFFFFFFFFFFFFFFFFFFFFFFFFFFFFFFFFFF
310
FDFFFFFFFEFFFFFFFEFFFFFFFEFFFFFF05000000060000000700000008000000
310
090000000A0000000B0000000C0000000D0000000E0000000F00000010000000
310
11000000120000001300000014000000150000001600000017000000FEFFFFFF
310
FFFFFFFFFFFFFFFFFFFFFFFFFFFFFFFFFFFFFFFFFFFFFFFFFFFFFFFFFFFFFFFF
310
FFFFFFFFFFFFFFFFFFFFFFFFFFFFFFFFFFFFFFFFFFFFFFFFFFFFFFFFFFFFFFFF
310
FFFFFFFFFFFFFFFFFFFFFFFFFFFFFFFFFFFFFFFFFFFFFFFFFFFFFFFFFFFFFFFF
310
FFFFFFFFFFFFFFFFFFFFFFFFFFFFFFFFFFFFFFFFFFFFFFFFFFFFFFFFFFFFFFFF
310
FFFFFFFFFFFFFFFFFFFFFFFFFFFFFFFFFFFFFFFFFFFFFFFFFFFFFFFFFFFFFFFF
310
FFFFFFFFFFFFFFFFFFFFFFFFFFFFFFFFFFFFFFFFFFFFFFFFFFFFFFFFFFFFFFFF
310
FFFFFFFFFFFFFFFFFFFFFFFFFFFFFFFFFFFFFFFFFFFFFFFFFFFFFFFFFFFFFFFF
310
FFFFFFFFFFFFFFFFFFFFFFFFFFFFFFFFFFFFFFFFFFFFFFFFFFFFFFFFFFFFFFFF
310
FFFFFFFFFFFFFFFFFFFFFFFFFFFFFFFFFFFFFFFFFFFFFFFFFFFFFFFFFFFFFFFF
310
FFFFFFFFFFFFFFFFFFFFFFFFFFFFFFFFFFFFFFFFFFFFFFFFFFFFFFFFFFFFFFFF
310
FFFFFFFFFFFFFFFFFFFFFFFFFFFFFFFFFFFFFFFFFFFFFFFFFFFFFFFFFFFFFFFF
310
FFFFFFFFFFFFFFFFFFFFFFFFFFFFFFFFFFFFFFFFFFFFFFFFFFFFFFFFFFFFFFFF
310
FFFFFFFFFFFFFFFFFFFFFFFFFFFFFFFFFFFFFFFFFFFFFFFFFFFFFFFFFFFFFFFF
310
52006F006F007400200045006E00740072007900000000000000000000000000
310
0000000000000000000000000000000000000000000000000000000000000000
310
16000500FFFFFFFFFFFFFFFF020000000A00030000000000C000000000000046
310
000000000000000000000000B0A3DAB16A58D30103000000C000000000000000
310
01004F006C006500000000000000000000000000000000000000000000000000
310
0000000000000000000000000000000000000000000000000000000000000000
310
0A000200FFFFFFFFFFFFFFFFFFFFFFFF00000000000000000000000000000000
310
0000000000000000000000000000000000000000000000001400000000000000
310
010043006F006D0070004F0062006A0000000000000000000000000000000000
310
0000000000000000000000000000000000000000000000000000000000000000
310
120002010100000003000000FFFFFFFF00000000000000000000000000000000
310
0000000000000000000000000000000000000000010000004D00000000000000
310
01004F006C006500310030004E00610074006900760065000000000000000000
310
0000000000000000000000000000000000000000000000000000000000000000
310
1A000200FFFFFFFFFFFFFFFFFFFFFFFF00000000000000000000000000000000
310
0000000000000000000000000000000000000000040000002426000000000000
310
FEFFFFFF02000000FEFFFFFFFFFFFFFFFFFFFFFFFFFFFFFFFFFFFFFFFFFFFFFF
310
FFFFFFFFFFFFFFFFFFFFFFFFFFFFFFFFFFFFFFFFFFFFFFFFFFFFFFFFFFFFFFFF
310
FFFFFFFFFFFFFFFFFFFFFFFFFFFFFFFFFFFFFFFFFFFFFFFFFFFFFFFFFFFFFFFF
310
FFFFFFFFFFFFFFFFFFFFFFFFFFFFFFFFFFFFFFFFFFFFFFFFFFFFFFFFFFFFFFFF
310
FFFFFFFFFFFFFFFFFFFFFFFFFFFFFFFFFFFFFFFFFFFFFFFFFFFFFFFFFFFFFFFF
310
FFFFFFFFFFFFFFFFFFFFFFFFFFFFFFFFFFFFFFFFFFFFFFFFFFFFFFFFFFFFFFFF
310
FFFFFFFFFFFFFFFFFFFFFFFFFFFFFFFFFFFFFFFFFFFFFFFFFFFFFFFFFFFFFFFF
310
FFFFFFFFFFFFFFFFFFFFFFFFFFFFFFFFFFFFFFFFFFFFFFFFFFFFFFFFFFFFFFFF
310
FFFFFFFFFFFFFFFFFFFFFFFFFFFFFFFFFFFFFFFFFFFFFFFFFFFFFFFFFFFFFFFF
310
FFFFFFFFFFFFFFFFFFFFFFFFFFFFFFFFFFFFFFFFFFFFFFFFFFFFFFFFFFFFFFFF
310
FFFFFFFFFFFFFFFFFFFFFFFFFFFFFFFFFFFFFFFFFFFFFFFFFFFFFFFFFFFFFFFF
310
FFFFFFFFFFFFFFFFFFFFFFFFFFFFFFFFFFFFFFFFFFFFFFFFFFFFFFFFFFFFFFFF
310
FFFFFFFFFFFFFFFFFFFFFFFFFFFFFFFFFFFFFFFFFFFFFFFFFFFFFFFFFFFFFFFF
310
FFFFFFFFFFFFFFFFFFFFFFFFFFFFFFFFFFFFFFFFFFFFFFFFFFFFFFFFFFFFFFFF
310
FFFFFFFFFFFFFFFFFFFFFFFFFFFFFFFFFFFFFFFFFFFFFFFFFFFFFFFFFFFFFFFF
310
FFFFFFFFFFFFFFFFFFFFFFFFFFFFFFFFFFFFFFFFFFFFFFFFFFFFFFFFFFFFFFFF
310
0100000200000000000000000000000000000000000000000000000000000000
310
0000000000000000000000000000000000000000000000000000000000000000
310
0100FEFF030A0000FFFFFFFF0A00030000000000C00000000000004607000000
310
5042727573680007000000504272757368000700000050427275736800F439B2
310
7100000000000000000000000000000000000000000000000000000000000000
310
0000000000000000000000000000000000000000000000000000000000000000
310
0000000000000000000000000000000000000000000000000000000000000000
310
0000000000000000000000000000000000000000000000000000000000000000
310
0000000000000000000000000000000000000000000000000000000000000000
310
0000000000000000000000000000000000000000000000000000000000000000
310
0000000000000000000000000000000000000000000000000000000000000000
310
0000000000000000000000000000000000000000000000000000000000000000
310
0000000000000000000000000000000000000000000000000000000000000000
310
0000000000000000000000000000000000000000000000000000000000000000
310
0000000000000000000000000000000000000000000000000000000000000000
310
0000000000000000000000000000000000000000000000000000000000000000
310
20260000424D0E260000000000003E00000028000000B40200006E0000000100
310
01000000000000000000130B0000130B00000200000002000000000000FFFFFF
310
FFFFFFFFFFFFFFFFFFFFFFFFFFFFFFFFFFFFFFFFFFFFFFFFFFFFFFFFFFFFFFFF
310
FFFFFFFFFFFFFFFFFFFFFFFFFFFFFFFFFFFFFFFFFFFFFFFFFFFFFFFFFFFFFFFF
310
FFFFFFFFFFFFFFFFFFFFFFFFFFFFFFFFFFFFFFFFFFFFFFFFF000FFFFFFFFFFFF
310
FFFFFFFFFFFFFFFFFFFFFFFFFFFFFFFFFFFFFFFFFFFFFFFFFFFFFFFFFFFFFFFF
310
FFFFFFFFFFFFFFFFFFFFFFFFFFFFFFFFFFFFFFFFFFFFFFFFFFFFFFFFFFFFFFFF
310
FFFFFFFFFFFFFFFFFFFFFFFFFFFFFFFFF000FFFFFFFFFFFFFFFFFFFFFFFFFFFF
310
FFFFFFFFFFFFFFFFFFFFFFFFFFFFFFFFFFFFFFFFFFFFFFFFFFFFFFFFFFFFFFFF
310
FFFFFFFFFFFFFFFFFFFFFFFFFFFFFFFFFFFFFFFFFFFFFFFFFFFFFFFFFFFFFFFF
310
FFFFFFFFFFFFFFFFF000FFFFFFFFFFFFFFFFFFFFFFFFFFFFFFFFFFFFFFFFFFFF
310
FFFFFFFFFFFFFFFFFFFFFFFFFFFFFFFFFFFFFFFFFFFFFFFFFFFFFFFFFFFFFFFF
310
FFFFFFFFFFFFFFFFFFFFFFFFFFFFFFFFFFFFFFFFFFFFFFFFFFFFFFFFFFFFFFFF
310
F000FFFFFFFFFFFFFFFFFFFFFFFFFFFFFFFFFFFFFFFFFFFFFFFFFFFFFFFFFFFF
310
FFFFFFFFFFFFFFFFFFFFFFFFFFFFFFFFFFFFFFFFFFFFFFFFFFFFFFFFFFFFFFFF
310
FFFFFFFFFFFFFFFFFFFFFFFFFFFFFFFFFFFFFFFFFFFFFFFFF000FFFFFFFFFFFF
310
FFFFFFFFFFFFFFFFFFFFFFFFFFFFFFFFFFFFFFFFFFFFFFFFFFFFFFFFFFFFFFFF
310
FFFFFFFFFFFFFFFFFFFFFFFFFFFFFFFFFFFFFFFFFFFFFFFFFFFFFFFFFFFFFFFF
310
FFFFFFFFFFFFFFFFFFFFFFFFFFFFFFFFF000FFFFFFFFFFFFFFFFFFFFFFFFFFFF
310
FFFFFFFFFFFFFFFFFFFFFFFFFFFFFFFFFFFFFFFFFFFFFFFFFFFFFFFFFFFFFFFF
310
FFFFFFFFFFFFFFFFFFFFFFFFFFFFFFFFFFFFFFFFFFFFFFFFFFFFFFFFFFFFFFFF
310
FFFFFFFFFFFFFFFFF000FFFFFFFFFFFFFFFFFFFFFFFFFFFFFFFFFFFFFFFFFFFF
310
FFFFFFFFFFFFFFFFFFFFFFFFFFFFFFFFFFFFFFFFFFFFFFFFFFFFFFFFFFFFFFFF
310
FFFFFFFFFFFFFFFFFFFFFFFFFFFFFFFFFFFFFFFFFFFFFFFFFFFFFFFFFFFFFFFF
310
F000FFFFFFFFFFFFFFFFFFFFFFFFFFFFFFFFFFFFFFFFFFFFFFFFFFFFFFFFFFFF
310
FFFFFFFFFFFFFFFFFFFFFFFFFFFFFFFFFFFFFFFFFFFFFFFFFFFFFFFFFFFFFFFF
310
FFFFFFFFFFFFFFFFFFFFFFFFFFFFFFFFFFFFFFFFFFFFFFFFF000FFFFFFFFFFFF
310
FFFFFFFFFFFFFFFFFFFFFFFFFFFFFFFFFFFFFFFFFFFFFFFFFFFFFFFFFFFFFFFF
310
FFFFFFFFFFFFFFFFFFFFFFFFFFFFFFFFFFFFFFFFFFFFFFFFFFFFFFFFFFFFFFFF
310
FFFFFFFFFFFFFFFFFFFFFFFFFFFFFFFFF000FFFFFFFFFFFFFFFFFFFFFFFFFFFF
310
FFFFFFFFFFFFFFFFFFFFFFFFFFFFFFFFFFFFFFFFFFFFFFFFFFFFFFFFFFFFFFFF
310
FFFFFFFFFFFFFFFFFFFFFFFFFFFFFFFFFFFFFFFFFFFFFFFFFFFFFFFFFFFFFFFF
310
FFFFFFFFFFFFFFFFF000FFFFFFFFFFFFFFFFFFFFFFFFFFFFFFFFFFFFFFFFFFFF
310
FFFFFFFFFFFFFFFFFFFFFFFFFFFFFFFFFFFFFFFFFFFFFFFFFFFFFFFFFFFFFFFF
310
FFFFFFFFFFFFFFFFFFFFFFFFFFFFFFFFFFFFFFFFFFFFFFFFFFFFFFFFFFFFFFFF
310
F000FFFFFFFFFFFFFFFFFFFFFFFFFFFFFFFFFFFFFFFFFFFFFFFFFFFFFFFFFFFF
310
FFFFFFFFFFFFFFFFFFFFFFFFFFFFFFFFFFFFFFFFFFFFFFFFFFFFFFFFFFFFFFFF
310
FFFFFFFFFFFFFFFFFFFFFFFFFFFFFFFFFFFFFFFFFFFFFFFFF000FFFFFFFFFFFF
310
FFFFFFFFFFFFFFFFFFFFFFFFFFFFFFFFFFFFFFFFFFFFFFFFFFFFFFFFFFFFFFFF
310
FFFFFFFFFFFFFFFFFFFFFFFFFFFFFFFFFFFFFFFFFFFFFFFFFFFFFFFFFFFFFFFF
310
FFFFFFFFFFFFFFFFFFFFFFFFFFFFFFFFF000FFFFFFFFFFFFFFFFFFFFFFFFFFFF
310
FFFFFFFFFFFFFFFFFFFFFFFFFFFFFFFFFFFFFFFFFFFFFFFFFFFFFFFFFFFFFFFF
310
FFFFFFFFFFFFFFFFFFFFFFFFFFFFFFFFFFFFFFFFFFFFFFFFFFFFFFFFFFFFFFFF
310
FFFFFFFFFFFFFFFFF000FFFFFFFFFFFFFFFFFFFFFFFFFFFFFFFFFFFFFFFFFFFF
310
FFFFFFFFFFFFFFFFFFFFFFFFFFFFFFFFFFFFFFFFFFFFFFFFFFFFFFFFFFFFFFFF
310
FFFFFFFFFFFFFFFFFFFFFFFFFFFFFFFFFFFFFFFFFFFFFFFFFFFFFFFFFFFFFFFF
310
F000FFFFFFFFFFFFFFFFFFFFFFFFFFFFFFFFFFFFFFFFFFFFFFFFFFFFFFFFFFFF
310
FFFFFFFFFFFFFFFFFFFFFFFFFFFFFFFFFFFFFFFFFFFFFFFFFFFFFFFFFFFFFFFF
310
FFFFFFFFFFFFFFFFFFFFFFFFFFFFFFFFFFFFFFFFFFFFFFFFF000FFFFFFFFFFFF
310
FFFFFFFFFFFFFFFFFFFFFFFFFFFFFFFFFFFFFFFFFFFFFFFFFFFFFFFFFFFFFFFF
310
FFFFFFFFFFFFFFFFFFFFFFFFFFFFFFFFFFFFFFFFFFFFFFFFFFFFFFFFFFFFFFFF
310
FFFFFFFFFFFFFFFFFFFFFFFFFFFFFFFFF000FFFFFFFFFFFFFFFFFFFFFFFFFFFF
310
FFFFFFFFFFFFFFFFFFFFFFFFFFFFFFFFFFFFFFFFFFFFFFFFFFFFFFFFFFFFFFFF
310
FFFFFFFFFFFFFFFFFFFFFFFFFFFFFFFFFFFFFFFFFFFFFFFFFFFFFFFFFFFFFFFF
310
FFFFFFFFFFFFFFFFF000FFFFF80003FFFFFFFFFFFFFFFFFFFFFFFFFFFFFFFFFF
310
FFFFF00007FFFFFFFFFF00007FFFFFF800000000000000007FFFFFFFFFFFFFFF
310
FFFFFFFC001FFFFFFFFFFFFFFC001FFFFFFFFFFFFFFFFFFFFFFFFFFE0007FFFF
310
F000FFFF8000007FFFFFFFF8000FFFFFC0007FFFFF80007FFFFF0000007FFFFF
310
FFF8000007FFFFF800000000000000007FFFFFF0001FFFFFFFFFFFC00001FFFF
310
FFFFFFFFC00001FFFFFFFF000000000003FFFFE000007FFFF000FFFE0000000F
310
FFFFFFF0000FFFFF80007FFFFF80007FFFFC0000001FFFFFFFC0000001FFFFF8
310
00000000000000007FFFFFF0001FFFFFFFFFFE0000003FFFFFFFFFFE0000003F
310
FFFFFF000000000003FFFF0000000FFFF000FFF800000003FFFFFFF00007FFFF
310
80007FFFFF80007FFFF000000007FFFFFF000000003FFFF80000000000000000
310
7FFFFFF0001FFFFFFFFFF80000000FFFFFFFFFF80000000FFFFFFF0000000000
310
03FFFC00000003FFF000FFE000000000FFFFFFF00007FFFF80003FFFFF80007F
310
FFC000000001FFFFFC000000001FFFF800000000000000007FFFFFF0001FFFFF
310
FFFFE000000003FFFFFFFFE000000003FFFFFF000000000003FFF000000000FF
310
F000FF80000000007FFFFFF00007FFFF80003FFFFF80007FFF8000000000FFFF
310
F80000000007FFF800000000000000007FFFFFF0001FFFFFFFFFC000000001FF
310
FFFFFFC000000001FFFFFF000000000003FFC0000000007FF000FF0000000000
310
3FFFFFE00007FFFF00003FFFFF80007FFE00000000003FFFF00000000003FFF8
310
00000000000000007FFFFFF0001FFFFFFFFF8000000000FFFFFFFF8000000000
310
FFFFFF000000000003FF80000000003FF000FE00000000001FFFFFE00003FFFF
310
00003FFFFF80007FFC00000000001FFFE00000000001FFF8000001FFFE000000
310
7FFFFFF0001FFFFFFFFE00000000003FFFFFFE00000000003FFFFF0000000000
310
03FF00000000001FF000FC00000000000FFFFFE00003FFFF00001FFFFF80007F
310
F800000000001FFFC00000000000FFF8000001FFFE0000007FFFFFF0001FFFFF
310
FFFC00000000001FFFFFFC00000000001FFFFF000000000003FE00000000000F
310
F000F8000000000007FFFFE00003FFFF00001FFFFF80007FF800000000000FFF
310
800000000000FFF8000001FFFE0000007FFFFFF0001FFFFFFFF800000000000F
310
FFFFF800000000000FFFFF000000000003FC000000000007F000F80000000000
310
03FFFFC00003FFFE00001FFFFF80007FF0000000000007FF0000000000007FF8
310
000001FFFE0000007FFFFFF0001FFFFFFFF0000000000007FFFFF00000000000
310
07FFFF000000000003F8000000000003F000F0000000000003FFFFC00001FFFE
310
00001FFFFF80007FE0000000000007FE0000000000003FF8000001FFFE000000
310
7FFFFFF0001FFFFFFFF0000000000007FFFFF0000000000007FFFF0000000000
310
03F800001F800003F000E00001FFF00001FFFFC00001FFFE00000FFFFF80007F
310
E00001FFE00003FE00001FFF00003FF8000001FFFE0000007FFFFFF0001FFFFF
310
FFE000003E000003FFFFE000003E000003FFFF000000000003F00001FFF80001
310
F000E00007FFFC0001FFFFC00001FFFE00000FFFFF80007FC0000FFFFC0003FC
310
0000FFFFC0001FF8000001FFFE0000007FFFFFF0001FFFFFFFC00003FFE00001
310
FFFFC00003FFE00001FFFF0001FFFFFFFFF00007FFFE0001F000E0000FFFFF00
310
00FFFF800001FFFC00000FFFFF80007FC0001FFFFE0001FC0001FFFFE0001FF8
310
000001FFFE0000007FFFFFF0001FFFFFFF80000FFFF80000FFFF80000FFFF800
310
00FFFF0003FFFFFFFFE0000FFFFF8000F000C0003FFFFF8000FFFF800000FFFC
310
000007FFFF80007F80003FFFFF0001FC0003FFFFF0001FF8000001FFFE000000
310
7FFFFFF0001FFFFFFF80003FFFFE0000FFFF80003FFFFE0000FFFF0003FFFFFF
310
FFE0003FFFFF8000F000C0003FFFFF8000FFFF800000FFFC000007FFFF80007F
310
80007FFFFF8001F80007FFFFF8000FF8000001FFFE0000007FFFFFF0001FFFFF
310
FF00007FFFFF00007FFF00007FFFFF00007FFF0003FFFFFFFFE0003FFFFFC000
310
F000C0007FFFFFC000FFFF000000FFFC000007FFFF80007F8000FFFFFF8000F8
310
000FFFFFF8000FF8000001FFFE0000007FFFFFF0001FFFFFFF0000FFFFFF8000
310
7FFF0000FFFFFF80007FFF0003FFFFFFFFC0007FFFFFC00070008000FFFFFFC0
310
00FFFF000000FFF8000007FFFF80007F8000FFFFFF8000F8000FFFFFF8000FF8
310
000001FFFE0000007FFFFFF0001FFFFFFE0001FFFFFFC0003FFE0001FFFFFFC0
310
003FFF0003FFFFFFFFC0007FFFFFE00070008000FFFFFFC0007FFF0000007FF8
310
000003FFFF80007F0001FFFFFF8000F8000FFFFFF8000FF8000001FFFE000000
310
7FFFFFF0001FFFFFFE0001FFFFFFC0003FFE0001FFFFFFC0003FFF0003FFFFFF
310
FFC000FFFFFFE00070008000FFFFFFC0007FFF0000007FF8000003FFFF80007F
310
0001FFFFFF8000F8001FFFFFF8000FF8000001FFFE0000007FFFFFF0001FFFFF
310
FE0003FFFFFFE0003FFE0003FFFFFFE0003FFF0003FFFFFFFFC000FFFFFFE000
310
70008000FFFFFFC0007FFE0000007FF8000003FFFF80007F0001FFFFFF8000F0
310
001FFFFFF8000FF8000001FFFE0000007FFFFFF0001FFFFFFC0003FFFFFFE000
310
1FFC0003FFFFFFE0001FFF0003FFFFFFFFC000FFFFFFC00070008000FFFFFF80
310
007FFE0000007FF0000003FFFF80007F0001FFFFFF0000F0001FFFFFF8000FF8
310
000001FFFE0000007FFFFFF0001FFFFFFC0007FFFFFFF0001FFC0007FFFFFFF0
310
001FFF0003FFFFFFFFC000FFFFFFC00070008001FFFFFF0000FFFE0000003FF0
310
000001FFFF80007F0001FFFFFF0000F8001FFFFFF0000FF8000001FFFE000000
310
7FFFFFF0001FFFFFFC0007FFFFFFF0001FFC0007FFFFFFF0001FFF0003FFFFFF
310
FFC001FFFFFF80007000FFFFFFFFFE0000FFFE0008003FF0008001FFFF80007F
310
FFFFFFFFFC0000FFFFFFFFFFE0000FF8000001FFFE0000007FFFFFF0001FFFFF
310
F8000FFFFFFFF8000FF8000FFFFFFFF8000FFF0003FFFFFFFFFFFFFFFFFF0000
310
7000FFFFFFFFFC0000FFFC0008003FF0008001FFFF80007FFFFFFFFFF80001FF
310
FFFFFFFF80000FF8000001FFFE0000007FFFFFF0001FFFFFF8000FFFFFFFF800
310
0FF8000FFFFFFFF8000FFF0003FFFFFFFFFFFFFFFFFE0000F000FFFFFFFFE000
310
00FFFC000C003FE000C001FFFF80007FFFFFFFFFC00001FFFFFFFFFE00001FF8
310
000001FFFE0000007FFFFFF0001FFFFFF8000FFFFFFFF8000FF8000FFFFFFFF8
310
000FFF0003FFFFFFFFFFFFFFFFF00000F000FFFFFFFE000001FFFC000C001FE0
310
00C000FFFF80007FFFFFFFFE000001FFFFFFFFE000001FF80FFFFFFFFFFFFFC0
310
7FFFFFF0001FFFFFF8000FFFFFFFF8000FF8000FFFFFFFF8000FFF0003FFFFFF
310
FFFFFFFFFF800000F000FFFFFFC0000001FFFC001C001FE001C000FFFF80007F
310
FFFFFF80000003FFFFFFF80000001FF80FFFFFFFFFFFFFC07FFFFFF0001FFFFF
310
F8001FFFFFFFFC000FF8001FFFFFFFFC000FFF0003FFFFFFFFFFFFFFF0000001
310
F000FFFFF800000001FFF8001C001FE001C000FFFF80007FFFFFF800000003FF
310
FFFF800000003FF80FFFFFFFFFFFFFC07FFFFFF0001FFFFFF8001FFFFFFFFC00
310
0FF8001FFFFFFFFC000FFF0003FFFFFFFFFFFFFE00000001F000FFFFC0000000
310
03FFF8001E001FC001E000FFFF80007FFFFF8000000007FFFFFC000000003FF8
310
0FFFFFFFFFFFFFC07FFFFFF0001FFFFFF8001FFFFFFFFC000FF8001FFFFFFFFC
310
000FFF0003FFFFFFFFFFFFE000000003F000FFFE0000000007FFF8001E000FC0
310
01E0007FFF80007FFFFE0000000007FFFFE0000000007FF80FFFFFFFFFFFFFC0
310
7FFFFFF0001FFFFFF0001FFFFFFFFC0007F0001FFFFFFFFC0007FF0003FFFFFF
310
FFFFFF0000000003F000FFF80000000007FFF8001E000FC003E0007FFF80007F
310
FFF0000000000FFFFF8000000000FFF80FFFFFFFFFFFFFC07FFFFFF0001FFFFF
310
F0001FFFFFFFFC0007F0001FFFFFFFFC0007FF0003FFFFFFFFFFFC0000000007
310
F000FFE0000000000FFFF0003E000FC003E0007FFF80007FFFC0000000001FFF
310
FE0000000001FFF80FFFFFFFFFFFFFC07FFFFFF0001FFFFFF0001FFFFFFFFC00
310
07F0001FFFFFFFFC0007FF0003FFFFFFFFFFF0000000000FF000FFC000000000
310
1FFFF0003F000F8003F0003FFF80007FFF80000000003FFFF80000000003FFF8
310
0FFFFFFFFFFFFFC07FFFFFF0001FFFFFF0001FFFFFFFFC0007F0001FFFFFFFFC
310
0007FF0003FFFFFFFFFFE0000000001FF000FF00000000007FFFF0003F000780
310
03F0003FFF80007FFF00000000007FFFF00000000007FFF80FFFFFFFFFFFFFC0
310
7FFFFFF0001FFFFFF0001FFFFFFFFC0007F0001FFFFFFFFC0007FF0003FFFFFF
310
FFFF80000000007FF000FE0000000000FFFFE0003F00078007F0003FFF80007F
310
FE0000000001FFFFE0000000001FFFF80FFFFFFFFFFFFFC07FFFFFF0001FFFFF
310
F0001FFFFFFFFC0007F0001FFFFFFFFC0007FF0003FFFFFFFFFF0000000000FF
310
F000FC0000000003FFFFE0007F00078007F0003FFF80007FFC0000000007FFFF
310
C0000000007FFFF80FFFFFFFFFFFFFC07FFFFFF0001FFFFFF8001FFFFFFFFC00
310
0FF8001FFFFFFFFC000FFF0003FFFFFFFFFE0000000003FFF000FC000000000F
310
FFFFE0007F80070007F8001FFF80007FF8000000001FFFFF8000000001FFFFF8
310
0FFFFFFFFFFFFFC07FFFFFF0001FFFFFF8001FFFFFFFFC000FF8001FFFFFFFFC
310
000FFF0003FFFFFFFFFC000000000FFFF000F8000000007FFFFFE0007F800700
310
07F8001FFF80007FF000000000FFFFFF800000000FFFFFF80FFFFFFFFFFFFFC0
310
7FFFFFF0001FFFFFF8000FFFFFFFF8000FF8000FFFFFFFF8000FFF0003FFFFFF
310
FFFC000000007FFFF000F800000007FFFFFFC0007F8003000FF8001FFF80007F
310
F000000007FFFFFF000000007FFFFFF80FFFFFFFFFFFFFC07FFFFFF0001FFFFF
310
F8000FFFFFFFF8000FF8000FFFFFFFF8000FFF0003FFFFFFFFF80000000FFFFF
310
F000F0000000FFFFFFFFC000FF8003000FF8001FFF80007FE0000000FFFFFFFF
310
0000000FFFFFFFF8000001FFFE0000007FFFFFF0001FFFFFF8000FFFFFFFF800
310
0FF8000FFFFFFFF8000FFF0003FFFFFFFFF8000000FFFFFFF000F000000FFFFF
310
FFFFC000FFC002000FF8000FFF80007FE000001FFFFFFFFE000001FFFFFFFFF8
310
000001FFFE0000007FFFFFF0001FFFFFF8000FFFFFFFF8000FF8000FFFFFFFF8
310
000FFF0003FFFFFFFFF000001FFFFFFFF000E00000FFFFFFFFFFC000FFC00200
310
0FFC000FFF80007FE00001FFFFFFFFFE00001FFFFFFFFFF8000001FFFE000000
310
7FFFFFF0001FFFFFFC000FFFFFFFF8001FFC000FFFFFFFF8001FFF0003FFFFFF
310
FFF00001FFFFFFFFF000E00007FFFFFFFFFF8000FFC000001FFC000FFF80007F
310
C0000FFFFFFFFFFE0000FFFFFFFFFFF8000001FFFE0000007FFFFFF0001FFFFF
310
FC0007FFFFFFF0001FFC0007FFFFFFF0001FFF0003FFFFFFFFF00007FFFFFFFF
310
F000E0001FFFFFFFFFFF8000FFC000001FFC000FFF80007FC0003FFFFFFFFFFE
310
0001FFFFFFFFFFF8000001FFFE0000007FFFFFF0001FFFFFFC0007FFFFFFF000
310
1FFC0007FFFFFFF0001FFF0003FFFFFFFFF0001FFFFFFFFFF000E0003FFFFF00
310
03FF8001FFE000001FFC0007FF80007FC0007FFFFF0007FC0003FFFFF0003FF8
310
000001FFFE0000007FFFFFF0001FFFFFFC0003FFFFFFE0001FFC0003FFFFFFE0
310
001FFF0003FFFFFFFFF0003FFFFFFFFFF000E0003FFFFF0001FF8001FFE00000
310
1FFE0007FF80007FC0007FFFFE0003FC0007FFFFE0003FF8000001FFFE000000
310
7FFFFFF0001FFFFFFE0003FFFFFFE0003FFE0003FFFFFFE0003FFF0003FFFFFF
310
FFF0003FFFFF8001F000E0003FFFFF0001FF0001FFE000001FFE0007FF80007F
310
C0007FFFFE0003FC0007FFFFE0003FF8000001FFFE0000007FFFFFF0001FFFFF
310
FE0001FFFFFFC0003FFE0001FFFFFFC0003FFF0003FFFFFFFFF0003FFFFF0001
310
F000E0003FFFFF0003FF0001FFE000003FFE0007FF80007FC0007FFFFE0003FC
310
0007FFFFE0003FF8000001FFFE0000007FFFFFF0001FFFFFFF0001FFFFFFC000
310
7FFF0001FFFFFFC0007FFF0003FFFFFFFFF0003FFFFF0001F000E0003FFFFE00
310
03FF0003FFF000003FFE0003FF80007FC0007FFFFC0003FE0007FFFFE0003FF8
310
000001FFFE0000007FFFFFF0001FFFFFFF0000FFFFFF80007FFF0000FFFFFF80
310
007FFF0003FFFFFFFFF0003FFFFF0001F000E0003FFFFE0003FF0003FFF00000
310
3FFF0003FF80007FC0007FFFFC0007FE0007FFFFC0003FF8000001FFFE000000
310
7FFFFFF0001FFFFFFF80007FFFFF0000FFFF80007FFFFF0000FFFF0003FFFFFF
310
FFF0003FFFFF0003F000E0003FFFFC0003FE0003FFF000003FFF0003FF80007F
310
E0003FFFF80007FE0003FFFFC0007FF8000001FFFE0000007FFFFFF0001FFFFF
310
FF80003FFFFE0000FFFF80003FFFFE0000FFFF0003FFFFFFFFF0001FFFFE0003
310
F000F0001FFFF80003FE0003FFF000007FFF0001FF80007FE0003FFFF00007FE
310
0001FFFF80007FF8000001FFFE0000007FFFFFF0001FFFFFFFC0000FFFF80001
310
FFFFC0000FFFF80001FFFF0003FFFFFFFFF0001FFFFC0003F000F0000FFFF000
310
07FE0007FFF800007FFF0001FF80007FE0001FFFE00007FF0000FFFE00007FF8
310
000001FFFE0000007FFFFFF0001FFFFFFFC00003FFE00001FFFFC00003FFE000
310
01FFFF0003FFFFFFFFF8000FFFF80003F000F00003FFC00007FC0007FFF80000
310
7FFF8001FF80007FF00007FF80000FFF00007FF80000FFF8000001FFFE000000
310
7F80000000000001FFE000003E000003FFFFE000003E000003FFFF0003FFFFFF
310
FFF80003FFE00007F000F800000000000FFC0007FFF800007FFF8001FF80007F
310
F000000000000FFF000000000000FFF8000001FFFE0000007F80000000000001
310
FFF0000000000007FFFFF0000000000007FFFF0003FFFFFFFFFC00007E000007
310
F000F800000000000FFC0007FFF80000FFFF8000FF80007FF800000000001FFF
310
800000000001FFF8000001FFFE0000007F80000000000001FFF800000000000F
310
FFFFF800000000000FFFFF0003FFFFFFFFFC00000000000FF000FC0000000000
310
1FFC0007FFFC0000FFFF8000FF80007FF800000000003FFFC00000000001FFF8
310
000001FFFE0000007F80000000000001FFF800000000000FFFFFF80000000000
310
0FFFFF0003FFFFFFFFFE00000000001FF000FE00000000003FF8000FFFFC0000
310
FFFF8000FF80007FFC00000000003FFFC00000000003FFF8000001FFFE000000
310
7F80000000000001FFFC00000000001FFFFFFC00000000001FFFFF0003FFFFFF
310
FFFF00000000001FF000FF00000000003FF8000FFFFC0000FFFFC000FF80007F
310
FE00000000007FFFE00000000007FFF8000001FFFE0000007F80000000000001
310
FFFE00000000003FFFFFFE00000000003FFFFF0003FFFFFFFFFF80000000003F
310
F000FF80000000007FF8000FFFFC0001FFFFC0007F80007FFF0000000000FFFF
310
F0000000000FFFF800000000000000007F80000000000001FFFF8000000000FF
310
FFFFFF8000000000FFFFFF0003FFFFFFFFFFC0000000007FF000FFC000000000
310
FFF8000FFFFE0001FFFFC0007F80007FFF8000000001FFFFF8000000001FFFF8
310
00000000000000007F80000000000001FFFFC000000001FFFFFFFFC000000001
310
FFFFFF0003FFFFFFFFFFE000000000FFF000FFE000000003FFF0001FFFFE0001
310
FFFFC0007F80007FFFC000000007FFFFFE000000003FFFF80000000000000000
310
7F80000000000001FFFFE000000003FFFFFFFFE000000003FFFFFF0003FFFFFF
310
FFFFF000000003FFF000FFF80000000FFFF0001FFFFE0001FFFFE0007F80007F
310
FFF00000000FFFFFFF00000000FFFFF800000000000000007F80000000000001
310
FFFFF80000000FFFFFFFFFF80000000FFFFFFF0003FFFFFFFFFFFC0000000FFF
310
F000FFFE0000003FFFF0001FFFFE0003FFFFE0003F80007FFFFC0000003FFFFF
310
FFC0000003FFFFF800000000000000007F80000000000001FFFFFE0000003FFF
310
FFFFFFFE0000003FFFFFFF0003FFFFFFFFFFFF0000003FFFF000FFFF800000FF
310
FFF0001FFFFF0003FFFFE0003F80007FFFFF000001FFFFFFFFF800001FFFFFF8
310
00000000000000007F80000000000001FFFFFFC00001FFFFFFFFFFFFC00001FF
310
FFFFFF0003FFFFFFFFFFFFC00000FFFFF000FFFFF8000FFFFFFFFFFFFFFFFFFF
310
FFFFFFFFFFFFFFFFFFFFF0001FFFFFFFFFFF0000FFFFFFF80000000000000000
310
7FFFFFFFFFFFFFFFFFFFFFFC001FFFFFFFFFFFFFFC001FFFFFFFFFFFFFFFFFFF
310
FFFFFFFC001FFFFFF000FFFFFFFFFFFFFFFFFFFFFFFFFFFFFFFFFFFFFFFFFFFF
310
FFFFFFFFFFFFFFFFFFFFFFFFFFFFFFFFFFFFFFFFFFFFFFFFFFFFFFFFFFFFFFFF
310
FFFFFFFFFFFFFFFFFFFFFFFFFFFFFFFFFFFFFFFFFFFFFFFFFFFFFFFFFFFFFFFF
310
F000FFFFFFFFFFFFFFFFFFFFFFFFFFFFFFFFFFFFFFFFFFFFFFFFFFFFFFFFFFFF
310
FFFFFFFFFFFFFFFFFFFFFFFFFFFFFFFFFFFFFFFFFFFFFFFFFFFFFFFFFFFFFFFF
310
FFFFFFFFFFFFFFFFFFFFFFFFFFFFFFFFFFFFFFFFFFFFFFFFF000FFFFFFFFFFFF
310
FFFFFFFFFFFFFFFFFFFFFFFFFFFFFFFFFFFFFFFFFFFFFFFFFFFFFFFFFFFFFFFF
310
FFFFFFFFFFFFFFFFFFFFFFFFFFFFFFFFFFFFFFFFFFFFFFFFFFFFFFFFFFFFFFFF
310
FFFFFFFFFFFFFFFFFFFFFFFFFFFFFFFFF000FFFFFFFFFFFFFFFFFFFFFFFFFFFF
310
FFFFFFFFFFFFFFFFFFFFFFFFFFFFFFFFFFFFFFFFFFFFFFFFFFFFFFFFFFFFFFFF
310
FFFFFFFFFFFFFFFFFFFFFFFFFFFFFFFFFFFFFFFFFFFFFFFFFFFFFFFFFFFFFFFF
310
FFFFFFFFFFFFFFFFF000FFFFFFFFFFFFFFFFFFFFFFFFFFFFFFFFFFFFFFFFFFFF
310
FFFFFFFFFFFFFFFFFFFFFFFFFFFFFFFFFFFFFFFFFFFFFFFFFFFFFFFFFFFFFFFF
310
FFFFFFFFFFFFFFFFFFFFFFFFFFFFFFFFFFFFFFFFFFFFFFFFFFFFFFFFFFFFFFFF
310
F000FFFFFFFFFFFFFFFFFFFFFFFFFFFFFFFFFFFFFFFFFFFFFFFFFFFFFFFFFFFF
310
FFFFFFFFFFFFFFFFFFFFFFFFFFFFFFFFFFFFFFFFFFFFFFFFFFFFFFFFFFFFFFFF
310
FFFFFFFFFFFFFFFFFFFFFFFFFFFFFFFFFFFFFFFFFFFFFFFFF000FFFFFFFFFFFF
310
FFFFFFFFFFFFFFFFFFFFFFFFFFFFFFFFFFFFFFFFFFFFFFFFFFFFFFFFFFFFFFFF
310
FFFFFFFFFFFFFFFFFFFFFFFFFFFFFFFFFFFFFFFFFFFFFFFFFFFFFFFFFFFFFFFF
310
FFFFFFFFFFFFFFFFFFFFFFFFFFFFFFFFF000FFFFFFFFFFFFFFFFFFFFFFFFFFFF
310
FFFFFFFFFFFFFFFFFFFFFFFFFFFFFFFFFFFFFFFFFFFFFFFFFFFFFFFFFFFFFFFF
310
FFFFFFFFFFFFFFFFFFFFFFFFFFFFFFFFFFFFFFFFFFFFFFFFFFFFFFFFFFFFFFFF
310
FFFFFFFFFFFFFFFFF000FFFFFFFFFFFFFFFFFFFFFFFFFFFFFFFFFFFFFFFFFFFF
310
FFFFFFFFFFFFFFFFFFFFFFFFFFFFFFFFFFFFFFFFFFFFFFFFFFFFFFFFFFFFFFFF
310
FFFFFFFFFFFFFFFFFFFFFFFFFFFFFFFFFFFFFFFFFFFFFFFFFFFFFFFFFFFFFFFF
310
F000FFFFFFFFFFFFFFFFFFFFFFFFFFFFFFFFFFFFFFFFFFFFFFFFFFFFFFFFFFFF
310
FFFFFFFFFFFFFFFFFFFFFFFFFFFFFFFFFFFFFFFFFFFFFFFFFFFFFFFFFFFFFFFF
310
FFFFFFFFFFFFFFFFFFFFFFFFFFFFFFFFFFFFFFFFFFFFFFFFF000FFFFFFFFFFFF
310
FFFFFFFFFFFFFFFFFFFFFFFFFFFFFFFFFFFFFFFFFFFFFFFFFFFFFFFFFFFFFFFF
310
FFFFFFFFFFFFFFFFFFFFFFFFFFFFFFFFFFFFFFFFFFFFFFFFFFFFFFFFFFFFFFFF
310
FFFFFFFFFFFFFFFFFFFFFFFFFFFFFFFFF000FFFFFFFFFFFFFFFFFFFFFFFFFFFF
310
FFFFFFFFFFFFFFFFFFFFFFFFFFFFFFFFFFFFFFFFFFFFFFFFFFFFFFFFFFFFFFFF
310
FFFFFFFFFFFFFFFFFFFFFFFFFFFFFFFFFFFFFFFFFFFFFFFFFFFFFFFFFFFFFFFF
310
FFFFFFFFFFFFFFFFF000FFFFFFFFFFFFFFFFFFFFFFFFFFFFFFFFFFFFFFFFFFFF
310
FFFFFFFFFFFFFFFFFFFFFFFFFFFFFFFFFFFFFFFFFFFFFFFFFFFFFFFFFFFFFFFF
310
FFFFFFFFFFFFFFFFFFFFFFFFFFFFFFFFFFFFFFFFFFFFFFFFFFFFFFFFFFFFFFFF
310
F000FFFFFFFFFFFFFFFFFFFFFFFFFFFFFFFFFFFFFFFFFFFFFFFFFFFFFFFFFFFF
310
FFFFFFFFFFFFFFFFFFFFFFFFFFFFFFFFFFFFFFFFFFFFFFFFFFFFFFFFFFFFFFFF
310
FFFFFFFFFFFFFFFFFFFFFFFFFFFFFFFFFFFFFFFFFFFFFFFFF000FFFFFFFFFFFF
310
FFFFFFFFFFFFFFFFFFFFFFFFFFFFFFFFFFFFFFFFFFFFFFFFFFFFFFFFFFFFFFFF
310
FFFFFFFFFFFFFFFFFFFFFFFFFFFFFFFFFFFFFFFFFFFFFFFFFFFFFFFFFFFFFFFF
310
FFFFFFFFFFFFFFFFFFFFFFFFFFFFFFFFF000FFFFFFFFFFFFFFFFFFFFFFFFFFFF
310
FFFFFFFFFFFFFFFFFFFFFFFFFFFFFFFFFFFFFFFFFFFFFFFFFFFFFFFFFFFFFFFF
310
FFFFFFFFFFFFFFFFFFFFFFFFFFFFFFFFFFFFFFFFFFFFFFFFFFFFFFFFFFFFFFFF
310
FFFFFFFFFFFFFFFFF000FFFFFFFFFFFFFFFFFFFFFFFFFFFFFFFFFFFFFFFFFFFF
310
FFFFFFFFFFFFFFFFFFFFFFFFFFFFFFFFFFFFFFFFFFFFFFFFFFFFFFFFFFFFFFFF
310
FFFFFFFFFFFFFFFFFFFFFFFFFFFFFFFFFFFFFFFFFFFFFFFFFFFFFFFFFFFFFFFF
310
F000FFFFFFFFFFFFFFFFFFFFFFFFFFFFFFFFFFFFFFFFFFFFFFFFFFFFFFFFFFFF
310
FFFFFFFFFFFFFFFFFFFFFFFFFFFFFFFFFFFFFFFFFFFFFFFFFFFFFFFFFFFFFFFF
310
FFFFFFFFFFFFFFFFFFFFFFFFFFFFFFFFFFFFFFFFFFFFFFFFF000FFFFFFFFFFFF
310
FFFFFFFFFFFFFFFFFFFFFFFFFFFFFFFFFFFFFFFFFFFFFFFFFFFFFFFFFFFFFFFF
310
FFFFFFFFFFFFFFFFFFFFFFFFFFFFFFFFFFFFFFFFFFFFFFFFFFFFFFFFFFFFFFFF
310
FFFFFFFFFFFFFFFFFFFFFFFFFFFFFFFFF000FFFFFFFFFFFFFFFFFFFFFFFFFFFF
310
FFFFFFFFFFFFFFFFFFFFFFFFFFFFFFFFFFFFFFFFFFFFFFFFFFFFFFFFFFFFFFFF
310
FFFFFFFFFFFFFFFFFFFFFFFFFFFFFFFFFFFFFFFFFFFFFFFFFFFFFFFFFFFFFFFF
310
FFFFFFFFFFFFFFFFF000FFFFFFFFFFFFFFFFFFFFFFFFFFFFFFFFFFFFFFFFFFFF
310
FFFFFFFFFFFFFFFFFFFFFFFFFFFFFFFFFFFFFFFFFFFFFFFFFFFFFFFFFFFFFFFF
310
FFFFFFFFFFFFFFFFFFFFFFFFFFFFFFFFFFFFFFFFFFFFFFFFFFFFFFFFFFFFFFFF
310
F000FFFFFFFFFFFFFFFFFFFFFFFFFFFFFFFFFFFFFFFFFFFFFFFFFFFFFFFFFFFF
310
FFFFFFFFFFFFFFFFFFFFFFFFFFFFFFFFFFFFFFFFFFFFFFFFFFFFFFFFFFFFFFFF
310
FFFFFFFFFFFFFFFFFFFFFFFFFFFFFFFFFFFFFFFFFFFFFFFFF000FFFFFFFFFFFF
310
FFFFFFFFFFFFFFFFFFFFFFFFFFFFFFFFFFFFFFFFFFFFFFFFFFFFFFFFFFFFFFFF
310
FFFFFFFFFFFFFFFFFFFFFFFFFFFFFFFFFFFFFFFFFFFFFFFFFFFFFFFFFFFFFFFF
310
FFFFFFFFFFFFFFFFFFFFFFFFFFFFFFFFF0000000000000000000000000000000
310
0000000000000000000000000000000000000000000000000000000000000000
310
0000000000000000000000000000000000000000000000000000000000000000
310
0000000000000000000000000000000000000000000000000000000000000000
310
0000000000000000000000000000000000000000000000000000000000000000
310
0000000000000000000000000000000000000000000000000000000000000000
310
0000000000000000000000000000000000000000000000000000000000000000
310
0000000000000000000000000000000000000000000000000000000000000000
310
0000000000000000000000000000000000000000000000000000000000000000
310
0000000000000000000000000000000000000000000000000000000000000000
310
0000000000000000000000000000000000000000000000000000000000000000
310
0000000000000000000000000000000000000000000000000000000000000000
310
0000000000000000000000000000000000000000000000000000000000000000
310
0000000000000000000000000000000000000000000000000000000000000000
310
0000000000000000000000000000000000000000000000000000000000000000
310
0000000000000000000000000000000000000000000000000000000000000000
  1
OLE
  0
ENDSEC
  0
SECTION
  2
OBJECTS
  0
DICTIONARY
  5
C
330
0
100
AcDbDictionary
281
     1
  3
ACAD_GROUP
350
D
  3
ACAD_LAYOUT
350
1A
  3
ACAD_MLINESTYLE
350
17
  3
ACAD_PLOTSETTINGS
350
19
  3
ACAD_PLOTSTYLENAME
350
E
  3
ACAD_SCALELIST
350
47
  0
DICTIONARY
  5
D
102
{ACAD_REACTORS
330
C
102
}
330
C
100
AcDbDictionary
281
     1
  0
DICTIONARY
  5
1A
102
{ACAD_REACTORS
330
C
102
}
330
C
100
AcDbDictionary
281
     1
  3
Layout1
350
1E
  3
Layout2
350
26
  3
Model
350
22
  0
DICTIONARY
  5
17
102
{ACAD_REACTORS
330
C
102
}
330
C
100
AcDbDictionary
281
     1
  3
Standard
350
18
  0
DICTIONARY
  5
19
102
{ACAD_REACTORS
330
C
102
}
330
C
100
AcDbDictionary
281
     1
  0
ACDBDICTIONARYWDFLT
  5
E
102
{ACAD_REACTORS
330
C
102
}
330
C
100
AcDbDictionary
281
     1
  3
Normal
350
F
100
AcDbDictionaryWithDefault
340
F
  0
DICTIONARY
  5
47
102
{ACAD_REACTORS
330
C
102
}
330
C
100
AcDbDictionary
281
     1
  3
A0
350
48
  3
A1
350
49
  3
A2
350
4A
  3
A3
350
4B
  3
A4
350
4C
  3
A5
350
4D
  3
A6
350
4E
  3
A7
350
4F
  3
A8
350
50
  3
A9
350
51
  3
B0
350
52
  3
B1
350
53
  3
B2
350
54
  3
B3
350
55
  3
B4
350
56
  3
B5
350
57
  3
B6
350
58
  3
B7
350
59
  3
B8
350
5A
  3
B9
350
5B
  3
C0
350
5C
  3
C1
350
5D
  3
C2
350
5E
  3
C3
350
5F
  3
C4
350
60
  3
C5
350
61
  3
C6
350
62
  3
C7
350
63
  3
C8
350
64
  3
C9
350
65
  3
D0
350
66
  3
D1
350
67
  3
D2
350
68
  0
LAYOUT
  5
1E
102
{ACAD_REACTORS
330
1A
102
}
330
1A
100
AcDbPlotSettings
  1

  2
none_device
  4

  6

 40
0.0
 41
0.0
 42
0.0
 43
0.0
 44
0.0
 45
0.0
 46
0.0
 47
0.0
 48
0.0
 49
0.0
140
0.0
141
0.0
142
1.0
143
1.0
 70
   688
 72
     1
 73
     0
 74
     5
  7

 75
    16
147
1.0
148
0.0
149
0.0
100
AcDbLayout
  1
Layout1
 70
     1
 71
     1
 10
0.0
 20
0.0
 11
420.0
 21
297.0
 12
0.0
 22
0.0
 32
0.0
 14
1.0000000000E+20
 24
1.0000000000E+20
 34
1.0000000000E+20
 15
-1.0000000000E+20
 25
-1.0000000000E+20
 35
-1.0000000000E+20
146
0.0
 13
0.0
 23
0.0
 33
0.0
 16
1.0
 26
0.0
 36
0.0
 17
0.0
 27
1.0
 37
0.0
 76
     0
330
1B
  0
LAYOUT
  5
26
102
{ACAD_REACTORS
330
1A
102
}
330
1A
100
AcDbPlotSettings
  1

  2
none_device
  4

  6

 40
0.0
 41
0.0
 42
0.0
 43
0.0
 44
0.0
 45
0.0
 46
0.0
 47
0.0
 48
0.0
 49
0.0
140
0.0
141
0.0
142
1.0
143
1.0
 70
   688
 72
     1
 73
     0
 74
     5
  7

 75
    16
147
1.0
148
0.0
149
0.0
100
AcDbLayout
  1
Layout2
 70
     1
 71
     2
 10
0.0
 20
0.0
 11
0.0
 21
0.0
 12
0.0
 22
0.0
 32
0.0
 14
0.0
 24
0.0
 34
0.0
 15
0.0
 25
0.0
 35
0.0
146
0.0
 13
0.0
 23
0.0
 33
0.0
 16
1.0
 26
0.0
 36
0.0
 17
0.0
 27
1.0
 37
0.0
 76
     0
330
23
  0
LAYOUT
  5
22
102
{ACAD_REACTORS
330
1A
102
}
330
1A
100
AcDbPlotSettings
  1

  2
none_device
  4
Letter_(8.50_x_11.00_Inches)
  6

 40
6.35
 41
6.35
 42
6.35000508
 43
6.35000508
 44
215.9
 45
279.4
 46
0.0
 47
0.0
 48
0.0
 49
0.0
140
0.0
141
0.0
142
1.0
143
1.0
 70
  1712
 72
     1
 73
     0
 74
     0
  7

 75
     0
147
1.0
148
0.0
149
0.0
100
AcDbLayout
  1
Model
 70
     1
 71
     0
 10
0.0
 20
0.0
 11
297.0
 21
210.0
 12
0.0
 22
0.0
 32
0.0
 14
0.0
 24
0.0
 34
0.0
 15
297.0
 25
210.0
 35
0.0
146
0.0
 13
0.0
 23
0.0
 33
0.0
 16
1.0
 26
0.0
 36
0.0
 17
0.0
 27
1.0
 37
0.0
 76
     0
330
1F
331
29
  0
MLINESTYLE
  5
18
102
{ACAD_REACTORS
330
17
102
}
330
17
100
AcDbMlineStyle
  2
Standard
 70
     0
  3

 62
   256
 51
90.0
 52
90.0
 71
     2
 49
0.5
 62
   256
  6
BYLAYER
 49
-0.5
 62
   256
  6
BYLAYER
  0
ACDBPLACEHOLDER
  5
F
102
{ACAD_REACTORS
330
E
102
}
330
E
  0
SCALE
  5
48
102
{ACAD_REACTORS
330
47
102
}
330
47
100
AcDbScale
 70
     0
300
1:1
140
1.0
141
1.0
290
     1
  0
SCALE
  5
49
102
{ACAD_REACTORS
330
47
102
}
330
47
100
AcDbScale
 70
     0
300
1:2
140
1.0
141
2.0
290
     0
  0
SCALE
  5
4A
102
{ACAD_REACTORS
330
47
102
}
330
47
100
AcDbScale
 70
     0
300
1:4
140
1.0
141
4.0
290
     0
  0
SCALE
  5
4B
102
{ACAD_REACTORS
330
47
102
}
330
47
100
AcDbScale
 70
     0
300
1:5
140
1.0
141
5.0
290
     0
  0
SCALE
  5
4C
102
{ACAD_REACTORS
330
47
102
}
330
47
100
AcDbScale
 70
     0
300
1:8
140
1.0
141
8.0
290
     0
  0
SCALE
  5
4D
102
{ACAD_REACTORS
330
47
102
}
330
47
100
AcDbScale
 70
     0
300
1:10
140
1.0
141
10.0
290
     0
  0
SCALE
  5
4E
102
{ACAD_REACTORS
330
47
102
}
330
47
100
AcDbScale
 70
     0
300
1:16
140
1.0
141
16.0
290
     0
  0
SCALE
  5
4F
102
{ACAD_REACTORS
330
47
102
}
330
47
100
AcDbScale
 70
     0
300
1:20
140
1.0
141
20.0
290
     0
  0
SCALE
  5
50
102
{ACAD_REACTORS
330
47
102
}
330
47
100
AcDbScale
 70
     0
300
1:30
140
1.0
141
30.0
290
     0
  0
SCALE
  5
51
102
{ACAD_REACTORS
330
47
102
}
330
47
100
AcDbScale
 70
     0
300
1:40
140
1.0
141
40.0
290
     0
  0
SCALE
  5
52
102
{ACAD_REACTORS
330
47
102
}
330
47
100
AcDbScale
 70
     0
300
1:50
140
1.0
141
50.0
290
     0
  0
SCALE
  5
53
102
{ACAD_REACTORS
330
47
102
}
330
47
100
AcDbScale
 70
     0
300
1:100
140
1.0
141
100.0
290
     0
  0
SCALE
  5
54
102
{ACAD_REACTORS
330
47
102
}
330
47
100
AcDbScale
 70
     0
300
2:1
140
2.0
141
1.0
290
     0
  0
SCALE
  5
55
102
{ACAD_REACTORS
330
47
102
}
330
47
100
AcDbScale
 70
     0
300
4:1
140
4.0
141
1.0
290
     0
  0
SCALE
  5
56
102
{ACAD_REACTORS
330
47
102
}
330
47
100
AcDbScale
 70
     0
300
8:1
140
8.0
141
1.0
290
     0
  0
SCALE
  5
57
102
{ACAD_REACTORS
330
47
102
}
330
47
100
AcDbScale
 70
     0
300
10:1
140
10.0
141
1.0
290
     0
  0
SCALE
  5
58
102
{ACAD_REACTORS
330
47
102
}
330
47
100
AcDbScale
 70
     0
300
100:1
140
100.0
141
1.0
290
     0
  0
SCALE
  5
59
102
{ACAD_REACTORS
330
47
102
}
330
47
100
AcDbScale
 70
     0
300
1/128" = 1'-0"
140
0.0078125
141
12.0
290
     0
  0
SCALE
  5
5A
102
{ACAD_REACTORS
330
47
102
}
330
47
100
AcDbScale
 70
     0
300
1/64" = 1'-0"
140
0.015625
141
12.0
290
     0
  0
SCALE
  5
5B
102
{ACAD_REACTORS
330
47
102
}
330
47
100
AcDbScale
 70
     0
300
1/32" = 1'-0"
140
0.03125
141
12.0
290
     0
  0
SCALE
  5
5C
102
{ACAD_REACTORS
330
47
102
}
330
47
100
AcDbScale
 70
     0
300
1/16" = 1'-0"
140
0.0625
141
12.0
290
     0
  0
SCALE
  5
5D
102
{ACAD_REACTORS
330
47
102
}
330
47
100
AcDbScale
 70
     0
300
3/32" = 1'-0"
140
0.09375
141
12.0
290
     0
  0
SCALE
  5
5E
102
{ACAD_REACTORS
330
47
102
}
330
47
100
AcDbScale
 70
     0
300
1/8" = 1'-0"
140
0.125
141
12.0
290
     0
  0
SCALE
  5
5F
102
{ACAD_REACTORS
330
47
102
}
330
47
100
AcDbScale
 70
     0
300
3/16" = 1'-0"
140
0.1875
141
12.0
290
     0
  0
SCALE
  5
60
102
{ACAD_REACTORS
330
47
102
}
330
47
100
AcDbScale
 70
     0
300
1/4" = 1'-0"
140
0.25
141
12.0
290
     0
  0
SCALE
  5
61
102
{ACAD_REACTORS
330
47
102
}
330
47
100
AcDbScale
 70
     0
300
3/8" = 1'-0"
140
0.375
141
12.0
290
     0
  0
SCALE
  5
62
102
{ACAD_REACTORS
330
47
102
}
330
47
100
AcDbScale
 70
     0
300
1/2" = 1'-0"
140
0.5
141
12.0
290
     0
  0
SCALE
  5
63
102
{ACAD_REACTORS
330
47
102
}
330
47
100
AcDbScale
 70
     0
300
3/4" = 1'-0"
140
0.75
141
12.0
290
     0
  0
SCALE
  5
64
102
{ACAD_REACTORS
330
47
102
}
330
47
100
AcDbScale
 70
     0
300
1" = 1'-0"
140
1.0
141
12.0
290
     0
  0
SCALE
  5
65
102
{ACAD_REACTORS
330
47
102
}
330
47
100
AcDbScale
 70
     0
300
1-1/2" = 1'-0"
140
1.5
141
12.0
290
     0
  0
SCALE
  5
66
102
{ACAD_REACTORS
330
47
102
}
330
47
100
AcDbScale
 70
     0
300
3" = 1'-0"
140
3.0
141
12.0
290
     0
  0
SCALE
  5
67
102
{ACAD_REACTORS
330
47
102
}
330
47
100
AcDbScale
 70
     0
300
6" = 1'-0"
140
6.0
141
12.0
290
     0
  0
SCALE
  5
68
102
{ACAD_REACTORS
330
47
102
}
330
47
100
AcDbScale
 70
     0
300
1'-0" = 1'-0"
140
12.0
141
12.0
290
     0
  0
ENDSEC
  0
EOF
