  0
SECTION
  2
HEADER
  9
$ACADVER
  1
AC1015
  9
$ACADMAINTVER
 70
    13
  9
$DWGCODEPAGE
  3
ANSI_1252
  9
$INSBASE
 10
0.0
 20
0.0
 30
0.0
  9
$EXTMIN
 10
-29.18174597626273
 20
-51.3808663336805
 30
-0.000000000000013
  9
$EXTMAX
 10
122.2293716133646
 20
24.92612086620226
 30
0.0000000000000023
  9
$LIMMIN
 10
0.0
 20
0.0
  9
$LIMMAX
 10
420.0
 20
297.0
  9
$ORTHOMODE
 70
     0
  9
$REGENMODE
 70
     1
  9
$FILLMODE
 70
     1
  9
$QTEXTMODE
 70
     0
  9
$MIRRTEXT
 70
     1
  9
$LTSCALE
 40
1.0
  9
$ATTMODE
 70
     1
  9
$TEXTSIZE
 40
2.5
  9
$TRACEWID
 40
1.0
  9
$TEXTSTYLE
  7
STANDARD
  9
$CLAYER
  8
3
  9
$CELTYPE
  6
ByLayer
  9
$CECOLOR
 62
     0
  9
$CELTSCALE
 40
1.0
  9
$DISPSILH
 70
     0
  9
$DIMSCALE
 40
1.0
  9
$DIMASZ
 40
4.57
  9
$DIMEXO
 40
0.0
  9
$DIMDLI
 40
2.299999999999998
  9
$DIMRND
 40
0.0
  9
$DIMDLE
 40
0.0
  9
$DIMEXE
 40
2.5
  9
$DIMTP
 40
0.1
  9
$DIMTM
 40
0.1
  9
$DIMTXT
 40
4.57
  9
$DIMCEN
 40
2.0
  9
$DIMTSZ
 40
0.0
  9
$DIMTOL
 70
     0
  9
$DIMLIM
 70
     0
  9
$DIMTIH
 70
     0
  9
$DIMTOH
 70
     0
  9
$DIMSE1
 70
     0
  9
$DIMSE2
 70
     0
  9
$DIMTAD
 70
     1
  9
$DIMZIN
 70
     8
  9
$DIMBLK
  1

  9
$DIMASO
 70
     1
  9
$DIMSHO
 70
     1
  9
$DIMPOST
  1

  9
$DIMAPOST
  1

  9
$DIMALT
 70
     0
  9
$DIMALTD
 70
     2
  9
$DIMALTF
 40
25.4
  9
$DIMLFAC
 40
1.0
  9
$DIMTOFL
 70
     1
  9
$DIMTVP
 40
0.0
  9
$DIMTIX
 70
     0
  9
$DIMSOXD
 70
     0
  9
$DIMSAH
 70
     0
  9
$DIMBLK1
  1

  9
$DIMBLK2
  1

  9
$DIMSTYLE
  2
GEN-ISO_TDM
  9
$DIMCLRD
 70
     0
  9
$DIMCLRE
 70
     0
  9
$DIMCLRT
 70
     7
  9
$DIMTFAC
 40
0.7
  9
$DIMGAP
 40
1.5
  9
$DIMJUST
 70
     0
  9
$DIMSD1
 70
     0
  9
$DIMSD2
 70
     0
  9
$DIMTOLJ
 70
     1
  9
$DIMTZIN
 70
     8
  9
$DIMALTZ
 70
     8
  9
$DIMALTTZ
 70
     8
  9
$DIMUPT
 70
     0
  9
$DIMDEC
 70
     2
  9
$DIMTDEC
 70
     2
  9
$DIMALTU
 70
     2
  9
$DIMALTTD
 70
     2
  9
$DIMTXSTY
  7
GENPRESET
  9
$DIMAUNIT
 70
     0
  9
$DIMADEC
 70
     1
  9
$DIMALTRND
 40
0.0
  9
$DIMAZIN
 70
     0
  9
$DIMDSEP
 70
    46
  9
$DIMATFIT
 70
     3
  9
$DIMFRAC
 70
     0
  9
$DIMLDRBLK
  1

  9
$DIMLUNIT
 70
     2
  9
$DIMLWD
 70
    -2
  9
$DIMLWE
 70
    -2
  9
$DIMTMOVE
 70
     0
  9
$LUNITS
 70
     2
  9
$LUPREC
 70
     0
  9
$SKETCHINC
 40
1.0
  9
$FILLETRAD
 40
10.0
  9
$AUNITS
 70
     0
  9
$AUPREC
 70
     0
  9
$MENU
  1
.
  9
$ELEVATION
 40
0.0
  9
$PELEVATION
 40
0.0
  9
$THICKNESS
 40
0.0
  9
$LIMCHECK
 70
     0
  9
$CHAMFERA
 40
10.0
  9
$CHAMFERB
 40
10.0
  9
$CHAMFERC
 40
20.0
  9
$CHAMFERD
 40
0.0
  9
$SKPOLY
 70
     0
  9
$TDCREATE
 40
2454355.591707847
  9
$TDUCREATE
 40
2454355.508374514
  9
$TDUPDATE
 40
2454655.348811030
  9
$TDUUPDATE
 40
2454655.265477696
  9
$TDINDWG
 40
0.3057425926
  9
$TDUSRTIMER
 40
0.3057424074
  9
$USRTIMER
 70
     1
  9
$ANGBASE
 50
0.0
  9
$ANGDIR
 70
     0
  9
$PDMODE
 70
     0
  9
$PDSIZE
 40
-1.0
  9
$PLINEWID
 40
0.0
  9
$SPLFRAME
 70
     0
  9
$SPLINETYPE
 70
     6
  9
$SPLINESEGS
 70
     8
  9
$HANDSEED
  5
24B5
  9
$SURFTAB1
 70
     6
  9
$SURFTAB2
 70
     6
  9
$SURFTYPE
 70
     6
  9
$SURFU
 70
     6
  9
$SURFV
 70
     6
  9
$UCSBASE
  2

  9
$UCSNAME
  2

  9
$UCSORG
 10
0.0
 20
0.0
 30
0.0
  9
$UCSXDIR
 10
1.0
 20
0.0
 30
0.0
  9
$UCSYDIR
 10
0.0
 20
1.0
 30
0.0
  9
$UCSORTHOREF
  2

  9
$UCSORTHOVIEW
 70
     0
  9
$UCSORGTOP
 10
0.0
 20
0.0
 30
0.0
  9
$UCSORGBOTTOM
 10
0.0
 20
0.0
 30
0.0
  9
$UCSORGLEFT
 10
0.0
 20
0.0
 30
0.0
  9
$UCSORGRIGHT
 10
0.0
 20
0.0
 30
0.0
  9
$UCSORGFRONT
 10
0.0
 20
0.0
 30
0.0
  9
$UCSORGBACK
 10
0.0
 20
0.0
 30
0.0
  9
$PUCSBASE
  2

  9
$PUCSNAME
  2

  9
$PUCSORG
 10
0.0
 20
0.0
 30
0.0
  9
$PUCSXDIR
 10
1.0
 20
0.0
 30
0.0
  9
$PUCSYDIR
 10
0.0
 20
1.0
 30
0.0
  9
$PUCSORTHOREF
  2

  9
$PUCSORTHOVIEW
 70
     0
  9
$PUCSORGTOP
 10
0.0
 20
0.0
 30
0.0
  9
$PUCSORGBOTTOM
 10
0.0
 20
0.0
 30
0.0
  9
$PUCSORGLEFT
 10
0.0
 20
0.0
 30
0.0
  9
$PUCSORGRIGHT
 10
0.0
 20
0.0
 30
0.0
  9
$PUCSORGFRONT
 10
0.0
 20
0.0
 30
0.0
  9
$PUCSORGBACK
 10
0.0
 20
0.0
 30
0.0
  9
$USERI1
 70
     0
  9
$USERI2
 70
     0
  9
$USERI3
 70
     0
  9
$USERI4
 70
     0
  9
$USERI5
 70
     0
  9
$USERR1
 40
0.0
  9
$USERR2
 40
0.0
  9
$USERR3
 40
0.0
  9
$USERR4
 40
0.0
  9
$USERR5
 40
0.0
  9
$WORLDVIEW
 70
     1
  9
$SHADEDGE
 70
     3
  9
$SHADEDIF
 70
    70
  9
$TILEMODE
 70
     1
  9
$MAXACTVP
 70
    64
  9
$PINSBASE
 10
0.0
 20
0.0
 30
0.0
  9
$PLIMCHECK
 70
     0
  9
$PEXTMIN
 10
1.000000000000000E+20
 20
1.000000000000000E+20
 30
1.000000000000000E+20
  9
$PEXTMAX
 10
-1.000000000000000E+20
 20
-1.000000000000000E+20
 30
-1.000000000000000E+20
  9
$PLIMMIN
 10
0.0
 20
0.0
  9
$PLIMMAX
 10
420.0
 20
297.0
  9
$UNITMODE
 70
     0
  9
$VISRETAIN
 70
     1
  9
$PLINEGEN
 70
     0
  9
$PSLTSCALE
 70
     1
  9
$TREEDEPTH
 70
  3020
  9
$CMLSTYLE
  2
Standard
  9
$CMLJUST
 70
     0
  9
$CMLSCALE
 40
20.0
  9
$PROXYGRAPHICS
 70
     1
  9
$MEASUREMENT
 70
     1
  9
$CELWEIGHT
370
    -1
  9
$ENDCAPS
280
     0
  9
$JOINSTYLE
280
     0
  9
$LWDISPLAY
290
     1
  9
$INSUNITS
 70
     4
  9
$HYPERLINKBASE
  1

  9
$STYLESHEET
  1

  9
$XEDIT
290
     1
  9
$CEPSNTYPE
380
     0
  9
$PSTYLEMODE
290
     1
  9
$FINGERPRINTGUID
  2
{245634DB-B981-41E4-8F20-D13C5AF96EA0}
  9
$VERSIONGUID
  2
{3865DCA9-A7B5-4446-86B4-F24C1BAC268E}
  9
$EXTNAMES
290
     1
  9
$PSVPSCALE
 40
0.0
  9
$OLESTARTUP
290
     0
  0
ENDSEC
  0
SECTION
  2
CLASSES
  0
CLASS
  1
ACDBDICTIONARYWDFLT
  2
AcDbDictionaryWithDefault
  3
AutoCAD 2000
 90
        0
280
     0
281
     0
  0
CLASS
  1
ACDBPLACEHOLDER
  2
AcDbPlaceHolder
  3
AutoCAD 2000
 90
        0
280
     0
281
     0
  0
CLASS
  1
LAYOUT
  2
AcDbLayout
  3
AutoCAD 2000
 90
        0
280
     0
281
     0
  0
CLASS
  1
DICTIONARYVAR
  2
AcDbDictionaryVar
  3
AutoCAD 2000
 90
        0
280
     0
281
     0
  0
ENDSEC
  0
SECTION
  2
TABLES
  0
TABLE
  2
VPORT
  5
8
330
0
100
AcDbSymbolTable
 70
     3
  0
VPORT
  5
24B4
330
8
100
AcDbSymbolTableRecord
100
AcDbViewportTableRecord
  2
*Active
 70
     0
 10
0.0
 20
0.0
 11
1.0
 21
1.0
 12
-52.29661142934906
 22
-88.73350857693912
 13
0.0
 23
0.0
 14
10.0
 24
10.0
 15
10.0
 25
10.0
 16
0.0
 26
0.0
 36
1.0
 17
98.8204242479
 27
75.5061358432
 37
0.0
 40
76.86738123072647
 41
1.998774509803921
 42
50.0
 43
0.0
 44
0.0
 50
0.0
 51
0.0
 71
     0
 72
  2000
 73
     1
 74
     3
 75
     0
 76
     0
 77
     0
 78
     0
281
     0
 65
     1
110
0.0
120
0.0
130
0.0
111
1.0
121
0.0
131
0.0
112
0.0
122
1.0
132
0.0
 79
     0
146
0.0
  0
ENDTAB
  0
TABLE
  2
LTYPE
  5
5
330
0
100
AcDbSymbolTable
 70
    10
  0
LTYPE
  5
14
330
5
100
AcDbSymbolTableRecord
100
AcDbLinetypeTableRecord
  2
ByBlock
 70
     0
  3

 72
    65
 73
     0
 40
0.0
  0
LTYPE
  5
15
330
5
100
AcDbSymbolTableRecord
100
AcDbLinetypeTableRecord
  2
ByLayer
 70
     0
  3

 72
    65
 73
     0
 40
0.0
  0
LTYPE
  5
16
330
5
100
AcDbSymbolTableRecord
100
AcDbLinetypeTableRecord
  2
Continuous
 70
     0
  3
Solid line
 72
    65
 73
     0
 40
0.0
  0
LTYPE
  5
2A
330
5
100
AcDbSymbolTableRecord
100
AcDbLinetypeTableRecord
  2
SLD-Durchgehend
 70
     0
  3
SolidWorks Line Style
 72
    65
 73
     0
 40
0.0
  0
LTYPE
  5
2B
330
5
100
AcDbSymbolTableRecord
100
AcDbLinetypeTableRecord
  2
SLD-Gestrichelt
 70
     0
  3
SolidWorks Line Style
 72
    65
 73
     2
 40
1.905
 49
1.27
 74
     0
 49
-0.635
 74
     0
  0
LTYPE
  5
2C
330
5
100
AcDbSymbolTableRecord
100
AcDbLinetypeTableRecord
  2
SLD-Phantom
 70
     0
  3
SolidWorks Line Style
 72
    65
 73
     6
 40
12.7
 49
6.349999999999997
 74
     0
 49
-1.27
 74
     0
 49
1.27
 74
     0
 49
-1.27
 74
     0
 49
1.27
 74
     0
 49
-1.27
 74
     0
  0
LTYPE
  5
2D
330
5
100
AcDbSymbolTableRecord
100
AcDbLinetypeTableRecord
  2
SLD-Kette
 70
     0
  3
SolidWorks Line Style
 72
    65
 73
     4
 40
10.16
 49
6.349999999999997
 74
     0
 49
-1.27
 74
     0
 49
1.27
 74
     0
 49
-1.27
 74
     0
  0
LTYPE
  5
2E
330
5
100
AcDbSymbolTableRecord
100
AcDbLinetypeTableRecord
  2
SLD-Punktstrich
 70
     0
  3
SolidWorks Line Style
 72
    65
 73
     4
 40
19.05
 49
15.24
 74
     0
 49
-1.27
 74
     0
 49
1.27
 74
     0
 49
-1.27
 74
     0
  0
LTYPE
  5
2F
330
5
100
AcDbSymbolTableRecord
100
AcDbLinetypeTableRecord
  2
SLD-Naht
 70
     0
  3
SolidWorks Line Style
 72
    65
 73
     2
 40
0.635
 49
0.0
 74
     0
 49
-0.635
 74
     0
  0
LTYPE
  5
30
330
5
100
AcDbSymbolTableRecord
100
AcDbLinetypeTableRecord
  2
SLD-Dicke-Dünne-Kette
 70
     0
  3
SolidWorks Line Style
 72
    65
 73
     4
 40
10.16
 49
6.349999999999997
 74
     0
 49
-1.27
 74
     0
 49
1.27
 74
     0
 49
-1.27
 74
     0
  0
LTYPE
  5
205
330
5
100
AcDbSymbolTableRecord
100
AcDbLinetypeTableRecord
  2
GEN3A
 70
     0
  3
 - - - - -
 72
    65
 73
     2
 40
3.1
 49
2.5
 74
     0
 49
-0.6
 74
     0
  0
LTYPE
  5
207
330
5
100
AcDbSymbolTableRecord
100
AcDbLinetypeTableRecord
  2
GEN7A
 70
     0
  3
__ . __ . __
 72
    65
 73
     4
 40
7.5
 49
5.0
 74
     0
 49
-1.25
 74
     0
 49
0.0
 74
     0
 49
-1.25
 74
     0
  0
ENDTAB
  0
TABLE
  2
LAYER
  5
2
102
{ACAD_XDICTIONARY
360
268
102
}
330
0
100
AcDbSymbolTable
 70
    16
  0
LAYER
  5
10
330
2
100
AcDbSymbolTableRecord
100
AcDbLayerTableRecord
  2
0
 70
     0
 62
     7
  6
Continuous
370
    -3
390
F
  0
LAYER
  5
31
330
2
100
AcDbSymbolTableRecord
100
AcDbLayerTableRecord
  2
FORMAT
 70
     0
 62
     7
  6
SLD-Durchgehend
370
     0
390
F
  0
LAYER
  5
32
330
2
100
AcDbSymbolTableRecord
100
AcDbLayerTableRecord
  2
VERMASSUNG
 70
     0
 62
     7
  6
SLD-Durchgehend
370
     0
390
F
  0
LAYER
  5
33
330
2
100
AcDbSymbolTableRecord
100
AcDbLayerTableRecord
  2
KOPF__DÜNN
 70
     0
 62
     7
  6
SLD-Durchgehend
370
     0
390
F
  0
LAYER
  5
34
330
2
100
AcDbSymbolTableRecord
100
AcDbLayerTableRecord
  2
KOPF__DICK
 70
     0
 62
     7
  6
SLD-Durchgehend
370
    15
390
F
  0
LAYER
  5
1C4
330
2
100
AcDbSymbolTableRecord
100
AcDbLayerTableRecord
  2
Defpoints
 70
     0
 62
     7
  6
Continuous
290
     0
370
    -3
390
F
  0
LAYER
  5
203
330
2
100
AcDbSymbolTableRecord
100
AcDbLayerTableRecord
  2
1
 70
     0
 62
     4
  6
Continuous
370
    -3
390
F
  0
LAYER
  5
204
330
2
100
AcDbSymbolTableRecord
100
AcDbLayerTableRecord
  2
3
 70
     0
 62
     1
  6
GEN3A
370
    -3
390
F
  0
LAYER
  5
206
330
2
100
AcDbSymbolTableRecord
100
AcDbLayerTableRecord
  2
4
 70
     0
 62
     2
  6
GEN7A
370
    -3
390
F
  0
LAYER
  5
208
330
2
100
AcDbSymbolTableRecord
100
AcDbLayerTableRecord
  2
SK1
 70
     0
 62
     4
  6
Continuous
370
    -3
390
F
  0
LAYER
  5
212
330
2
100
AcDbSymbolTableRecord
100
AcDbLayerTableRecord
  2
SK4
 70
     0
 62
     2
  6
GEN7A
370
    -3
390
F
  0
LAYER
  5
238
330
2
100
AcDbSymbolTableRecord
100
AcDbLayerTableRecord
  2
SK2
 70
     0
 62
     7
  6
Continuous
370
    -3
390
F
  0
LAYER
  5
251
330
2
100
AcDbSymbolTableRecord
100
AcDbLayerTableRecord
  2
2
 70
     0
 62
     7
  6
Continuous
370
    -3
390
F
  0
LAYER
  5
267
330
2
100
AcDbSymbolTableRecord
100
AcDbLayerTableRecord
  2
5
 70
     0
 62
     7
  6
Continuous
370
    -3
390
F
  0
LAYER
  5
28C
330
2
100
AcDbSymbolTableRecord
100
AcDbLayerTableRecord
  2
SK3
 70
     0
 62
     1
  6
GEN3A
370
    -3
390
F
  0
LAYER
  5
400
330
2
100
AcDbSymbolTableRecord
100
AcDbLayerTableRecord
  2
1L
 70
     0
 62
     4
  6
Continuous
370
    -3
390
F
  0
ENDTAB
  0
TABLE
  2
STYLE
  5
3
330
0
100
AcDbSymbolTable
 70
     3
  0
STYLE
  5
11
330
3
100
AcDbSymbolTableRecord
100
AcDbTextStyleTableRecord
  2
STANDARD
 70
     0
 40
0.0
 41
1.0
 50
0.0
 71
     0
 42
2.5
  3
ISOCPEUR.TTF
  4

1001
ACAD
1000
ISOCPEUR
1071
       34
  0
STYLE
  5
35
330
3
100
AcDbSymbolTableRecord
100
AcDbTextStyleTableRecord
  2
SLDTEXTSTYLE0
 70
     0
 40
0.0
 41
1.0
 50
0.0
 71
     0
 42
0.2
  3
ISOCPEUR.TTF
  4

1001
ACAD
1000
ISOCPEUR
1071
       34
  0
STYLE
  5
23A
330
3
100
AcDbSymbolTableRecord
100
AcDbTextStyleTableRecord
  2
GENPRESET
 70
     0
 40
0.0
 41
1.0
 50
0.0
 71
     0
 42
3.5
  3
simplex.shx
  4

  0
ENDTAB
  0
TABLE
  2
VIEW
  5
6
330
0
100
AcDbSymbolTable
 70
     0
  0
ENDTAB
  0
TABLE
  2
UCS
  5
7
330
0
100
AcDbSymbolTable
 70
     0
  0
ENDTAB
  0
TABLE
  2
APPID
  5
9
330
0
100
AcDbSymbolTable
 70
     1
  0
APPID
  5
12
330
9
100
AcDbSymbolTableRecord
100
AcDbRegAppTableRecord
  2
ACAD
 70
     0
  0
ENDTAB
  0
TABLE
  2
DIMSTYLE
  5
A
330
0
100
AcDbSymbolTable
 70
     3
100
AcDbDimStyleTable
 71
     1
340
239
  0
DIMSTYLE
105
27
330
A
100
AcDbSymbolTableRecord
100
AcDbDimStyleTableRecord
  2
ISO-25
 70
     0
 41
2.5
 42
0.625
 43
3.75
 44
1.25
 73
     0
 74
     0
 77
     1
 78
     8
140
2.5
141
2.5
143
0.0393700787
147
0.625
171
     3
172
     1
271
     2
272
     2
274
     3
278
    44
283
     0
284
     8
340
11
  0
DIMSTYLE
105
1D2
102
{ACAD_REACTORS
330
499
330
49B
102
}
330
A
100
AcDbSymbolTableRecord
100
AcDbDimStyleTableRecord
  2
SLDDIMSTYLE0
 70
     0
 41
3.0
 44
0.0
 73
     0
 74
     0
 77
     2
 78
    12
140
2.0
144
0.5
147
0.5
173
     1
271
     0
272
     3
284
    12
340
35
  0
DIMSTYLE
105
239
102
{ACAD_REACTORS
330
2173
330
2497
102
}
330
A
100
AcDbSymbolTableRecord
100
AcDbDimStyleTableRecord
  2
GEN-ISO_TDM
 70
     0
 41
4.57
 42
0.0
 43
2.299999999999998
 44
2.5
 47
0.1
 48
0.1
 73
     0
 74
     0
 77
     1
 78
     8
140
4.57
141
2.0
146
0.7
147
1.5
172
     1
178
     7
179
     1
271
     2
272
     2
284
     8
285
     8
286
     8
340
23A
  0
ENDTAB
  0
TABLE
  2
BLOCK_RECORD
  5
1
330
0
100
AcDbSymbolTable
 70
    29
  0
BLOCK_RECORD
  5
1F
330
1
100
AcDbSymbolTableRecord
100
AcDbBlockTableRecord
  2
*Model_Space
340
22
  0
BLOCK_RECORD
  5
1B
330
1
100
AcDbSymbolTableRecord
100
AcDbBlockTableRecord
  2
*Paper_Space
340
1E
  0
BLOCK_RECORD
  5
23
330
1
100
AcDbSymbolTableRecord
100
AcDbBlockTableRecord
  2
*Paper_Space0
340
26
  0
BLOCK_RECORD
  5
1C5
330
1
100
AcDbSymbolTableRecord
100
AcDbBlockTableRecord
  2
*D1
340
0
  0
BLOCK_RECORD
  5
1DC
330
1
100
AcDbSymbolTableRecord
100
AcDbBlockTableRecord
  2
*D2
340
0
  0
BLOCK_RECORD
  5
2A0
330
1
100
AcDbSymbolTableRecord
100
AcDbBlockTableRecord
  2
A$C31AB3320
340
0
102
{BLKREFS
331
320
102
}
  0
BLOCK_RECORD
  5
374
330
1
100
AcDbSymbolTableRecord
100
AcDbBlockTableRecord
  2
A$C44845C43
340
0
  0
BLOCK_RECORD
  5
38E
330
1
100
AcDbSymbolTableRecord
100
AcDbBlockTableRecord
  2
*D5
340
0
  0
BLOCK_RECORD
  5
484
330
1
100
AcDbSymbolTableRecord
100
AcDbBlockTableRecord
  2
*D6
340
0
  0
BLOCK_RECORD
  5
48F
330
1
100
AcDbSymbolTableRecord
100
AcDbBlockTableRecord
  2
*D7
340
0
  0
BLOCK_RECORD
  5
498
330
1
100
AcDbSymbolTableRecord
100
AcDbBlockTableRecord
  2
A$C3FCB2D76
340
0
  0
BLOCK_RECORD
  5
BDE
330
1
100
AcDbSymbolTableRecord
100
AcDbBlockTableRecord
  2
*D9
340
0
  0
BLOCK_RECORD
  5
105F
330
1
100
AcDbSymbolTableRecord
100
AcDbBlockTableRecord
  2
*D10
340
0
  0
BLOCK_RECORD
  5
1074
330
1
100
AcDbSymbolTableRecord
100
AcDbBlockTableRecord
  2
*D11
340
0
  0
BLOCK_RECORD
  5
1083
330
1
100
AcDbSymbolTableRecord
100
AcDbBlockTableRecord
  2
*D12
340
0
  0
BLOCK_RECORD
  5
1098
330
1
100
AcDbSymbolTableRecord
100
AcDbBlockTableRecord
  2
*D13
340
0
  0
BLOCK_RECORD
  5
10A7
330
1
100
AcDbSymbolTableRecord
100
AcDbBlockTableRecord
  2
*D14
340
0
  0
BLOCK_RECORD
  5
10BC
330
1
100
AcDbSymbolTableRecord
100
AcDbBlockTableRecord
  2
*D15
340
0
  0
BLOCK_RECORD
  5
10CB
330
1
100
AcDbSymbolTableRecord
100
AcDbBlockTableRecord
  2
*D16
340
0
  0
BLOCK_RECORD
  5
11E5
330
1
100
AcDbSymbolTableRecord
100
AcDbBlockTableRecord
  2
*D17
340
0
  0
BLOCK_RECORD
  5
14CC
330
1
100
AcDbSymbolTableRecord
100
AcDbBlockTableRecord
  2
*D18
340
0
  0
BLOCK_RECORD
  5
14D7
330
1
100
AcDbSymbolTableRecord
100
AcDbBlockTableRecord
  2
*D19
340
0
  0
BLOCK_RECORD
  5
169C
330
1
100
AcDbSymbolTableRecord
100
AcDbBlockTableRecord
  2
*D20
340
0
  0
BLOCK_RECORD
  5
16A8
330
1
100
AcDbSymbolTableRecord
100
AcDbBlockTableRecord
  2
*D21
340
0
  0
BLOCK_RECORD
  5
16C6
330
1
100
AcDbSymbolTableRecord
100
AcDbBlockTableRecord
  2
*D22
340
0
  0
BLOCK_RECORD
  5
16D1
330
1
100
AcDbSymbolTableRecord
100
AcDbBlockTableRecord
  2
*D23
340
0
  0
BLOCK_RECORD
  5
1ABA
330
1
100
AcDbSymbolTableRecord
100
AcDbBlockTableRecord
  2
*D24
340
0
  0
BLOCK_RECORD
  5
1AC6
330
1
100
AcDbSymbolTableRecord
100
AcDbBlockTableRecord
  2
*D25
340
0
  0
BLOCK_RECORD
  5
1F56
330
1
100
AcDbSymbolTableRecord
100
AcDbBlockTableRecord
  2
*D26
340
0
  0
BLOCK_RECORD
  5
232E
330
1
100
AcDbSymbolTableRecord
100
AcDbBlockTableRecord
  2
*D27
340
0
  0
BLOCK_RECORD
  5
2498
330
1
100
AcDbSymbolTableRecord
100
AcDbBlockTableRecord
  2
*D28
340
0
  0
ENDTAB
  0
ENDSEC
  0
SECTION
  2
BLOCKS
  0
BLOCK
  5
20
330
1F
100
AcDbEntity
  8
0
100
AcDbBlockBegin
  2
*Model_Space
 70
     0
 10
0.0
 20
0.0
 30
0.0
  3
*Model_Space
  1

  0
ENDBLK
  5
21
330
1F
100
AcDbEntity
  8
0
100
AcDbBlockEnd
  0
BLOCK
  5
1C
330
1B
100
AcDbEntity
 67
     1
  8
0
100
AcDbBlockBegin
  2
*Paper_Space
 70
     0
 10
0.0
 20
0.0
 30
0.0
  3
*Paper_Space
  1

  0
ENDBLK
  5
1D
330
1B
100
AcDbEntity
 67
     1
  8
0
100
AcDbBlockEnd
  0
BLOCK
  5
24
330
23
100
AcDbEntity
  8
0
100
AcDbBlockBegin
  2
*Paper_Space0
 70
     0
 10
0.0
 20
0.0
 30
0.0
  3
*Paper_Space0
  1

  0
ENDBLK
  5
25
330
23
100
AcDbEntity
  8
0
100
AcDbBlockEnd
  0
BLOCK
  5
1D0
330
1C5
100
AcDbEntity
  8
0
100
AcDbBlockBegin
  2
*D1
 70
     1
 10
0.0
 20
0.0
 30
0.0
  3
*D1
  1

  0
LINE
  5
47B
330
1C5
100
AcDbEntity
  8
SK2
 62
     0
370
    -2
100
AcDbLine
 10
-62.31679969333526
 20
-28.82836833438853
 30
0.0
 11
-78.97402244213523
 21
-28.82836833438853
 31
0.0
  0
LINE
  5
47C
330
1C5
100
AcDbEntity
  8
SK2
 62
     0
370
    -2
100
AcDbLine
 10
-62.31679969333526
 20
-48.82836833438854
 30
0.0
 11
-78.97402244213525
 21
-48.82836833438854
 31
0.0
  0
LINE
  5
47D
330
1C5
100
AcDbEntity
  8
SK2
 62
     0
370
    -2
100
AcDbLine
 10
-76.47402244213525
 20
-33.39836833438853
 30
0.0
 11
-76.47402244213525
 21
-44.25836833438854
 31
0.0
  0
SOLID
  5
47E
330
1C5
100
AcDbEntity
  8
SK2
 62
     0
100
AcDbTrace
 10
-77.23568910880192
 20
-33.39836833438853
 30
0.0
 11
-75.71235577546858
 21
-33.39836833438853
 31
0.0
 12
-76.47402244213523
 22
-28.82836833438853
 32
0.0
 13
-76.47402244213523
 23
-28.82836833438853
 33
0.0
  0
SOLID
  5
47F
330
1C5
100
AcDbEntity
  8
SK2
 62
     0
100
AcDbTrace
 10
-77.23568910880192
 20
-44.25836833438854
 30
0.0
 11
-75.71235577546858
 21
-44.25836833438854
 31
0.0
 12
-76.47402244213525
 22
-48.82836833438854
 32
0.0
 13
-76.47402244213525
 23
-48.82836833438854
 33
0.0
  0
MTEXT
  5
480
330
1C5
100
AcDbEntity
  8
SK2
 62
     7
100
AcDbMText
 10
-80.25902244213524
 20
-38.82836833438853
 30
0.0
 40
4.57
 41
0.0
 71
     5
 72
     1
  1
\A1;MBM %%c20
  7
GENPRESET
 11
0.0000000000000001
 21
1.0
 31
0.0
 73
     1
 44
1.0
  0
POINT
  5
481
330
1C5
100
AcDbEntity
  8
Defpoints
 62
     0
100
AcDbPoint
 10
-62.31679969333526
 20
-28.82836833438853
 30
0.0
  0
POINT
  5
482
330
1C5
100
AcDbEntity
  8
Defpoints
 62
     0
100
AcDbPoint
 10
-62.31679969333526
 20
-48.82836833438854
 30
0.0
  0
POINT
  5
483
330
1C5
100
AcDbEntity
  8
Defpoints
 62
     0
100
AcDbPoint
 10
-76.47402244213525
 20
-48.82836833438854
 30
0.0
  0
ENDBLK
  5
1D1
330
1C5
100
AcDbEntity
  8
0
100
AcDbBlockEnd
  0
BLOCK
  5
1E6
330
1DC
100
AcDbEntity
  8
0
100
AcDbBlockBegin
  2
*D2
 70
     1
 10
0.0
 20
0.0
 30
0.0
  3
*D2
  1

  0
LINE
  5
290
330
1DC
100
AcDbEntity
  8
2
 62
     0
370
    -2
100
AcDbLine
 10
0.0
 20
9.799999999999997
 30
0.0
 11
0.0000000000000004
 21
15.8969279116
 31
0.0
  0
LINE
  5
291
330
1DC
100
AcDbEntity
  8
2
 62
     0
370
    -2
100
AcDbLine
 10
25.32261682625
 20
9.693581069650006
 30
0.0
 11
25.32261682625
 21
15.8969279116
 31
0.0
  0
LINE
  5
292
330
1DC
100
AcDbEntity
  8
2
 62
     0
370
    -2
100
AcDbLine
 10
4.57
 20
13.3969279116
 30
0.0
 11
20.75261682624998
 21
13.3969279116
 31
0.0
  0
SOLID
  5
293
330
1DC
100
AcDbEntity
  8
2
 62
     0
100
AcDbTrace
 10
4.57
 20
14.15859457826668
 30
0.0
 11
4.57
 21
12.63526124493335
 31
0.0
 12
0.0000000000000002
 22
13.3969279116
 32
0.0
 13
0.0000000000000002
 23
13.3969279116
 33
0.0
  0
SOLID
  5
294
330
1DC
100
AcDbEntity
  8
2
 62
     0
100
AcDbTrace
 10
20.75261682624998
 20
14.15859457826668
 30
0.0
 11
20.75261682624998
 21
12.63526124493335
 31
0.0
 12
25.32261682625
 22
13.3969279116
 32
0.0
 13
25.32261682625
 23
13.3969279116
 33
0.0
  0
MTEXT
  5
295
330
1DC
100
AcDbEntity
  8
2
 62
     7
100
AcDbMText
 10
5.468459072990476
 20
19.46692791160001
 30
0.0
 40
4.57
 41
0.0
 71
     1
 72
     1
  1
\A1;25.3
  7
GENPRESET
 73
     1
 44
1.0
  0
POINT
  5
296
330
1DC
100
AcDbEntity
  8
Defpoints
 62
     0
100
AcDbPoint
 10
0.0
 20
9.799999999999997
 30
0.0
  0
POINT
  5
297
330
1DC
100
AcDbEntity
  8
Defpoints
 62
     0
100
AcDbPoint
 10
25.32261682625
 20
9.693581069650006
 30
0.0
  0
POINT
  5
298
330
1DC
100
AcDbEntity
  8
Defpoints
 62
     0
100
AcDbPoint
 10
25.32261682625
 20
13.3969279116
 30
0.0
  0
ENDBLK
  5
1E7
330
1DC
100
AcDbEntity
  8
0
100
AcDbBlockEnd
  0
BLOCK
  5
2DE
330
2A0
100
AcDbEntity
  8
0
100
AcDbBlockBegin
  2
A$C31AB3320
 70
     0
 10
0.0
 20
0.0
 30
0.0
  3
A$C31AB3320
  1

  0
LINE
  5
2A1
330
2A0
100
AcDbEntity
  8
0
  6
SLD-Durchgehend
 62
     7
370
    15
100
AcDbLine
 10
39.99411425280001
 20
20.0
 30
0.0
 11
0.4000000000000057
 21
20.0
 31
0.0
  0
LINE
  5
2A2
330
2A0
100
AcDbEntity
  8
0
  6
SLD-Durchgehend
 62
     7
370
    15
100
AcDbLine
 10
42.95281331090001
 20
20.0
 30
0.0
 11
41.47589540960001
 21
20.0
 31
0.0
  0
LINE
  5
2A3
330
2A0
100
AcDbEntity
  8
0
  6
SLD-Durchgehend
 62
     7
370
    15
100
AcDbLine
 10
45.88735441639999
 20
20.0
 30
0.0
 11
45.5463962403
 21
20.0
 31
0.0
  0
ELLIPSE
  5
2A4
330
2A0
100
AcDbEntity
  8
0
  6
SLD-Durchgehend
 62
     7
370
    15
100
AcDbEllipse
 10
68.44807653610001
 20
0.0
 30
0.0
 11
74.64101615137959
 21
0.0
 31
0.0
210
0.0
220
0.0
230
1.0
 40
0.2679491924
 41
2.111407825341649
 42
2.14349425706625
  0
LINE
  5
2A5
330
2A0
100
AcDbEntity
  8
0
  6
SLD-Durchgehend
 62
     7
370
    15
100
AcDbLine
 10
28.0
 20
14.2546501681
 30
0.0
 11
28.0
 21
16.80884046529999
 31
0.0
  0
ELLIPSE
  5
2A6
330
2A0
100
AcDbEntity
  8
0
  6
SLD-Durchgehend
 62
     7
370
    15
100
AcDbEllipse
 10
31.75898384859998
 20
0.0
 30
0.0
 11
0.0
 21
20.00000000000001
 31
0.0
210
0.0
220
0.0
230
1.0
 40
0.2679491924
 41
0.7774101950689281
 42
2.364182458520864
  0
LINE
  5
2A7
330
2A0
100
AcDbEntity
  8
0
  6
SLD-Durchgehend
 62
     7
370
    15
100
AcDbLine
 10
28.0
 20
14.2546501681
 30
0.0
 11
28.0
 21
-14.2546501681
 31
0.0
  0
LWPOLYLINE
  5
2A8
330
2A0
100
AcDbEntity
  8
0
  6
SLD-Durchgehend
 62
     7
370
    15
100
AcDbPolyline
 90
       26
 70
   128
 43
0.0
 10
26.55223489089999
 20
0.0
 10
26.5684974433
 20
-0.4973797743999884
 10
26.61626326480001
 20
-0.9635073481999969
 10
26.69253105300001
 20
-1.369094211899991
 10
26.79250862220001
 20
-1.688655850999975
 10
26.9099140143
 20
-1.902113032599999
 10
27.03737021649998
 20
-1.996053456899985
 10
27.1668686869
 20
-1.964574501499994
 10
27.29027256040001
 20
-1.809654105000004
 10
27.39982791779999
 20
-1.541026485599999
 10
27.48865099300002
 20
-1.175570504599988
 10
27.55116070559997
 20
-0.7362491053999918
 10
27.5834293403
 20
-0.2506664671999914
 10
27.5834293403
 20
0.2506664671000038
 10
27.55116070559997
 20
0.7362491053000042
 10
27.48865099300002
 20
1.175570504600002
 10
27.39982791779999
 20
1.541026485500012
 10
27.29027256040001
 20
1.809654104899989
 10
27.1668686869
 20
1.964574501400008
 10
27.03737021649998
 20
1.996053456799995
 10
26.9099140143
 20
1.902113032599999
 10
26.79250862220001
 20
1.688655851000004
 10
26.69253105300001
 20
1.369094211800003
 10
26.61626326480001
 20
0.9635073482000107
 10
26.5684974433
 20
0.4973797743000006
 10
26.55223489089999
 20
0.0
  0
LINE
  5
2A9
330
2A0
100
AcDbEntity
  8
0
  6
SLD-Durchgehend
 62
     7
370
    15
100
AcDbLine
 10
28.0
 20
-16.80884046529999
 30
0.0
 11
28.0
 21
-14.2546501681
 31
0.0
  0
ELLIPSE
  5
2AA
330
2A0
100
AcDbEntity
  8
0
  6
SLD-Durchgehend
 62
     7
370
    15
100
AcDbEllipse
 10
68.44807653610001
 20
0.0
 30
0.0
 11
74.64101615137959
 21
0.0
 31
0.0
210
0.0
220
0.0
230
1.0
 40
0.2679491924
 41
4.139691050113353
 42
4.171777481837953
  0
ELLIPSE
  5
2AB
330
2A0
100
AcDbEntity
  8
0
  6
SLD-Durchgehend
 62
     7
370
    15
100
AcDbEllipse
 10
32.79135924870002
 20
0.0
 30
0.0
 11
0.0
 21
20.00000000000001
 31
0.0
210
0.0
220
0.0
230
1.0
 40
0.2679491924
 41
2.600981155043037
 42
2.727882188683329
  0
ARC
  5
2AC
330
2A0
100
AcDbEntity
  8
0
  6
SLD-Durchgehend
 62
     7
370
    15
100
AcDbCircle
 10
23.1059231844
 20
0.0
 30
0.0
 40
19.99999999999995
100
AcDbArc
 50
293.3676760770996
 51
298.6263915198997
  0
ELLIPSE
  5
2AD
330
2A0
100
AcDbEntity
  8
0
  6
SLD-Durchgehend
 62
     7
370
    15
100
AcDbEllipse
 10
68.44807653610001
 20
0.0
 30
0.0
 11
74.64101615137234
 21
0.0
 31
0.0
210
0.0
220
0.0
230
1.0
 40
0.2679491924
 41
4.212764195397959
 42
4.220881740161178
  0
LINE
  5
2AE
330
2A0
100
AcDbEntity
  8
0
  6
SLD-Durchgehend
 62
     7
370
    15
100
AcDbLine
 10
32.6878476386
 20
-16.55524775539999
 30
0.0
 11
32.6878476386
 21
-17.55524775539998
 31
0.0
  0
LINE
  5
2AF
330
2A0
100
AcDbEntity
  8
0
  6
SLD-Durchgehend
 62
     7
370
    15
100
AcDbLine
 10
33.22085779490001
 20
-16.6324502076
 30
0.0
 11
33.22085779490001
 21
-17.6324502076
 31
0.0
  0
LINE
  5
2B0
330
2A0
100
AcDbEntity
  8
0
  6
SLD-Durchgehend
 62
     7
370
    15
100
AcDbLine
 10
30.03330256809999
 20
17.1478825522
 30
0.0
 11
30.03330256809999
 21
-17.14788255219998
 31
0.0
  0
ARC
  5
2B1
330
2A0
100
AcDbEntity
  8
0
  6
SLD-Durchgehend
 62
     7
370
    15
100
AcDbCircle
 10
30.8747269204
 20
-18.01939469389999
 30
0.0
 40
0.3775571019692143
100
AcDbArc
 50
230.9754271568999
 51
295.7112097526001
  0
ARC
  5
2B2
330
2A0
100
AcDbEntity
  8
0
  6
SLD-Durchgehend
 62
     7
370
    15
100
AcDbCircle
 10
27.14758126000001
 20
0.0
 30
0.0
 40
19.99999999999996
100
AcDbArc
 50
290.7275699381999
 51
295.8738435549999
  0
ARC
  5
2B3
330
2A0
100
AcDbEntity
  8
0
  6
SLD-Durchgehend
 62
     7
370
    15
100
AcDbCircle
 10
34.06233237309999
 20
-18.32302838679999
 30
0.0
 40
0.4160287584363235
100
AcDbArc
 50
235.1417530788999
 51
293.1784604144997
  0
ELLIPSE
  5
2B4
330
2A0
100
AcDbEntity
  8
0
  6
SLD-Durchgehend
 62
     7
370
    15
100
AcDbEllipse
 10
35.7500583069
 20
0.0
 30
0.0
 11
0.0
 21
20.00000000000001
 31
0.0
210
0.0
220
0.0
230
1.0
 40
0.2679491924
 41
2.650085413366265
 42
2.77407026621315
  0
ARC
  5
2B5
330
2A0
100
AcDbEntity
  8
0
  6
SLD-Durchgehend
 62
     7
370
    15
100
AcDbCircle
 10
31.1892393356
 20
0.0
 30
0.0
 40
19.99999999999998
100
AcDbArc
 50
288.1327556642998
 51
293.1840445404001
  0
ARC
  5
2B6
330
2A0
100
AcDbEntity
  8
0
  6
SLD-Durchgehend
 62
     7
370
    15
100
AcDbCircle
 10
37.24989234439997
 20
-18.57107995479998
 30
0.0
 40
0.4654332800627607
100
AcDbArc
 50
239.2768748912995
 51
290.5978750330003
  0
ELLIPSE
  5
2B7
330
2A0
100
AcDbEntity
  8
0
  6
SLD-Durchgehend
 62
     7
370
    15
100
AcDbEllipse
 10
38.708757365
 20
0.0
 30
0.0
 11
0.0
 21
20.00000000000001
 31
0.0
210
0.0
220
0.0
230
1.0
 40
0.2679491924
 41
2.697930325922373
 42
2.819450509897253
  0
ELLIPSE
  5
2B8
330
2A0
100
AcDbEntity
  8
0
  6
SLD-Durchgehend
 62
     7
370
    15
100
AcDbEllipse
 10
68.44807653610001
 20
0.0
 30
0.0
 11
74.64101615137233
 21
0.0
 31
0.0
210
0.0
220
0.0
230
1.0
 40
0.2679491924
 41
4.260805220204373
 42
4.268726652717287
  0
LINE
  5
2B9
330
2A0
100
AcDbEntity
  8
0
  6
SLD-Durchgehend
 62
     7
370
    15
100
AcDbLine
 10
35.87540286540003
 20
-16.9951418451
 30
0.0
 11
35.87540286540003
 21
-17.9951418451
 31
0.0
  0
LINE
  5
2BA
330
2A0
100
AcDbEntity
  8
0
  6
SLD-Durchgehend
 62
     7
370
    15
100
AcDbLine
 10
36.4084130216
 20
-17.06371338539999
 30
0.0
 11
36.4084130216
 21
-18.06371338539999
 31
0.0
  0
ARC
  5
2BB
330
2A0
100
AcDbEntity
  8
0
  6
SLD-Durchgehend
 62
     7
370
    15
100
AcDbCircle
 10
35.23089741119999
 20
0.0
 30
0.0
 40
19.99999999999999
100
AcDbArc
 50
285.5758984239002
 51
290.5473166738999
  0
ARC
  5
2BC
330
2A0
100
AcDbEntity
  8
0
  6
SLD-Durchgehend
 62
     7
370
    15
100
AcDbCircle
 10
40.43742667979997
 20
-18.76027612599997
 30
0.0
 40
0.5311137844315037
100
AcDbArc
 50
243.4056393987003
 51
287.9592107037002
  0
ELLIPSE
  5
2BD
330
2A0
100
AcDbEntity
  8
0
  6
SLD-Durchgehend
 62
     7
370
    15
100
AcDbEllipse
 10
41.66745642320001
 20
0.0
 30
0.0
 11
0.0
 21
20.00000000000001
 31
0.0
210
0.0
220
0.0
230
1.0
 40
0.2679491924
 41
2.744710252465837
 42
2.864153017737922
  0
ELLIPSE
  5
2BE
330
2A0
100
AcDbEntity
  8
0
  6
SLD-Durchgehend
 62
     7
370
    15
100
AcDbEllipse
 10
68.44807653610001
 20
0.0
 30
0.0
 11
74.64101615137233
 21
0.0
 31
0.0
210
0.0
220
0.0
230
1.0
 40
0.2679491924
 41
4.307751069225161
 42
4.315506579260746
  0
LINE
  5
2BF
330
2A0
100
AcDbEntity
  8
0
  6
SLD-Durchgehend
 62
     7
370
    15
100
AcDbLine
 10
39.06295809210002
 20
-17.38490013419999
 30
0.0
 11
39.06295809210002
 21
-18.38490013419998
 31
0.0
  0
LINE
  5
2C0
330
2A0
100
AcDbEntity
  8
0
  6
SLD-Durchgehend
 62
     7
370
    15
100
AcDbLine
 10
39.5959682484
 20
-17.44541132269998
 30
0.0
 11
39.5959682484
 21
-18.44541132269998
 31
0.0
  0
ELLIPSE
  5
2C1
330
2A0
100
AcDbEntity
  8
0
  6
SLD-Durchgehend
 62
     7
370
    15
100
AcDbEllipse
 10
44.6261554813
 20
0.0
 30
0.0
 11
0.0
 21
20.00000000000001
 31
0.0
210
0.0
220
0.0
230
1.0
 40
0.2679491924
 41
2.790589666699016
 42
2.908293089774283
  0
ARC
  5
2C2
330
2A0
100
AcDbEntity
  8
0
  6
SLD-Durchgehend
 62
     7
370
    15
100
AcDbCircle
 10
39.2725554868
 20
0.0
 30
0.0
 40
19.99999999999998
100
AcDbArc
 50
283.0504841283998
 51
287.9553440187993
  0
ARC
  5
2C3
330
2A0
100
AcDbEntity
  8
0
  6
SLD-Durchgehend
 62
     7
370
    15
100
AcDbCircle
 10
43.6249521762
 20
-18.88294387029998
 30
0.0
 40
0.6224237501524714
100
AcDbArc
 50
247.5454975120998
 51
285.2572897326996
  0
ELLIPSE
  5
2C4
330
2A0
100
AcDbEntity
  8
0
  6
SLD-Durchgehend
 62
     7
370
    15
100
AcDbEllipse
 10
68.44807653610001
 20
0.0
 30
0.0
 11
74.64101615137237
 21
0.0
 31
0.0
210
0.0
220
0.0
230
1.0
 40
0.2679491924
 41
4.353770651974881
 42
4.36138599349393
  0
LINE
  5
2C5
330
2A0
100
AcDbEntity
  8
0
  6
SLD-Durchgehend
 62
     7
370
    15
100
AcDbLine
 10
42.7835234751
 20
-17.78056636809997
 30
0.0
 11
42.7835234751
 21
-18.78056636809996
 31
0.0
  0
LINE
  5
2C6
330
2A0
100
AcDbEntity
  8
0
  6
SLD-Durchgehend
 62
     7
370
    15
100
AcDbLine
 10
42.25051331889999
 20
-17.72765315009999
 30
0.0
 11
42.25051331889999
 21
-18.72765315009998
 31
0.0
  0
ARC
  5
2C7
330
2A0
100
AcDbEntity
  8
0
  6
SLD-Durchgehend
 62
     7
370
    15
100
AcDbCircle
 10
43.31421356239999
 20
0.0
 30
0.0
 40
19.99999999999995
100
AcDbArc
 50
280.5506322361999
 51
285.4008553724998
  0
ARC
  5
2C8
330
2A0
100
AcDbEntity
  8
0
  6
SLD-Durchgehend
 62
     7
370
    15
100
AcDbCircle
 10
46.81248476229995
 20
-18.92244745219999
 30
0.0
 40
0.7573511961178385
100
AcDbArc
 50
251.7072233264
 51
282.4918727109997
  0
ELLIPSE
  5
2C9
330
2A0
100
AcDbEntity
  8
0
  6
SLD-Durchgehend
 62
     7
370
    15
100
AcDbEllipse
 10
47.5848545395
 20
0.0
 30
0.0
 11
0.0
 21
20.00000000000001
 31
0.0
210
0.0
220
0.0
230
1.0
 40
0.2679491924
 41
2.835710318445196
 42
2.951974599548689
  0
ELLIPSE
  5
2CA
330
2A0
100
AcDbEntity
  8
0
  6
SLD-Durchgehend
 62
     7
370
    15
100
AcDbEllipse
 10
68.44807653610001
 20
0.0
 30
0.0
 11
74.64101615134492
 21
0.0
 31
0.0
210
0.0
220
0.0
230
1.0
 40
0.2679491924
 41
4.39900910892815
 42
4.40650664524009
  0
LINE
  5
2CB
330
2A0
100
AcDbEntity
  8
0
  6
SLD-Durchgehend
 62
     7
370
    15
100
AcDbLine
 10
45.4380685456
 20
-18.02594146739998
 30
0.0
 11
45.4380685456
 21
-19.0259414674
 31
0.0
  0
LINE
  5
2CC
330
2A0
100
AcDbEntity
  8
0
  6
SLD-Durchgehend
 62
     7
370
    15
100
AcDbLine
 10
45.9710787019
 20
-18.07163244179998
 30
0.0
 11
45.9710787019
 21
-19.07163244179998
 31
0.0
  0
ELLIPSE
  5
2CD
330
2A0
100
AcDbEntity
  8
0
  6
SLD-Durchgehend
 62
     7
370
    15
100
AcDbEllipse
 10
68.44807653610001
 20
0.0
 30
0.0
 11
74.64101615138531
 21
0.0
 31
0.0
210
0.0
220
0.0
230
1.0
 40
0.2679491924
 41
4.443593346511213
 42
4.450992828118821
  0
LINE
  5
2CE
330
2A0
100
AcDbEntity
  8
0
  6
SLD-Durchgehend
 62
     7
370
    15
100
AcDbLine
 10
48.62562377240003
 20
-18.2818287925
 30
0.0
 11
48.62562377240003
 21
-19.2818287925
 31
0.0
  0
LINE
  5
2CF
330
2A0
100
AcDbEntity
  8
0
  6
SLD-Durchgehend
 62
     7
370
    15
100
AcDbLine
 10
49.1586339286
 20
-18.3206022559
 30
0.0
 11
49.1586339286
 21
-19.32060225589999
 31
0.0
  0
ELLIPSE
  5
2D0
330
2A0
100
AcDbEntity
  8
0
  6
SLD-Durchgehend
 62
     7
370
    15
100
AcDbEllipse
 10
50.54355359760001
 20
0.0
 30
0.0
 11
0.0
 21
20.00000000000001
 31
0.0
210
0.0
220
0.0
230
1.0
 40
0.2679491924
 41
2.880196501323913
 42
2.995292652286758
  0
ELLIPSE
  5
2D1
330
2A0
100
AcDbEntity
  8
0
  6
SLD-Durchgehend
 62
     7
370
    15
100
AcDbEllipse
 10
60.179751463
 20
0.0
 30
0.0
 11
74.64101615137528
 21
0.0
 31
0.0
210
0.0
220
0.0
230
1.0
 40
0.2679491924
 41
4.574660577400869
 42
4.578284064409112
  0
LINE
  5
2D2
330
2A0
100
AcDbEntity
  8
0
  6
SLD-Durchgehend
 62
     7
370
    15
100
AcDbLine
 10
50.19999999999999
 20
-19.82042807769998
 30
0.0
 11
50.64523365240001
 21
-19.38716213939999
 31
0.0
  0
LINE
  5
2D3
330
2A0
100
AcDbEntity
  8
0
  6
SLD-Durchgehend
 62
     7
370
    15
100
AcDbLine
 10
50.64523365240001
 20
-19.38716213939999
 30
0.0
 11
50.80000000000001
 21
-19.25097400139996
 31
0.0
  0
LINE
  5
2D4
330
2A0
100
AcDbEntity
  8
0
  6
SLD-Durchgehend
 62
     7
370
    15
100
AcDbLine
 10
50.64523365240001
 20
-18.31555791479998
 30
0.0
 11
50.64523365240001
 21
-19.38716213939999
 31
0.0
  0
LINE
  5
2D5
330
2A0
100
AcDbEntity
  8
0
  6
SLD-Durchgehend
 62
     7
370
    15
100
AcDbLine
 10
50.19999999999999
 20
-20.0
 30
0.0
 11
50.80000000000001
 21
-19.39999999999998
 31
0.0
  0
LINE
  5
2D6
330
2A0
100
AcDbEntity
  8
0
  6
SLD-Durchgehend
 62
     7
370
    15
100
AcDbLine
 10
50.19999999999999
 20
-19.82042807769998
 30
0.0
 11
50.19999999999999
 21
-20.0
 31
0.0
  0
ARC
  5
2D7
330
2A0
100
AcDbEntity
  8
0
  6
SLD-Durchgehend
 62
     7
370
    15
100
AcDbCircle
 10
49.9080917777
 20
-19.3724568601
 30
0.0
 40
0.4388053186748643
100
AcDbArc
 50
250.5986673819995
 51
273.1277037893995
  0
LINE
  5
2D8
330
2A0
100
AcDbEntity
  8
0
  6
SLD-Durchgehend
 62
     7
370
    15
100
AcDbLine
 10
0.4000000000000057
 20
-20.0
 30
0.0
 11
50.19999999999999
 21
-20.0
 31
0.0
  0
LINE
  5
2D9
330
2A0
100
AcDbEntity
  8
0
  6
SLD-Durchgehend
 62
     7
370
    15
100
AcDbLine
 10
39.5959682484
 20
0.201717850700021
 30
0.0
 11
39.5959682484
 21
-3.709960361199988
 31
0.0
  0
LINE
  5
2DA
330
2A0
100
AcDbEntity
  8
0
  6
SLD-Durchgehend
 62
     7
370
    15
100
AcDbLine
 10
39.06295809210002
 20
0.5067328673000162
 30
0.0
 11
39.06295809210002
 21
-3.069442679700002
 31
0.0
  0
LINE
  5
2DB
330
2A0
100
AcDbEntity
  8
0
  6
SLD-Durchgehend
 62
     7
370
    15
100
AcDbLine
 10
42.25051331889999
 20
-0.5722074336999869
 30
0.0
 11
42.25051331889999
 21
-4.844022210600002
 31
0.0
  0
LINE
  5
2DC
330
2A0
100
AcDbEntity
  8
0
  6
SLD-Durchgehend
 62
     7
370
    15
100
AcDbLine
 10
42.7835234751
 20
-0.5993738952999906
 30
0.0
 11
42.7835234751
 21
-4.6584085992
 31
0.0
  0
LINE
  5
2DD
330
2A0
100
AcDbEntity
  8
0
  6
SLD-Durchgehend
 62
     7
370
    15
100
AcDbLine
 10
45.4380685456
 20
-0.1952915882999946
 30
0.0
 11
45.4380685456
 21
-1.410156087799989
 31
0.0
  0
ENDBLK
  5
2DF
330
2A0
100
AcDbEntity
  8
0
100
AcDbBlockEnd
  0
BLOCK
  5
378
330
374
100
AcDbEntity
  8
0
 62
     0
100
AcDbBlockBegin
  2
A$C44845C43
 70
     0
 10
0.0
 20
0.0
 30
0.0
  3
A$C44845C43
  1

  0
LINE
  5
375
330
374
100
AcDbEntity
  8
0
  6
SLD-Durchgehend
 62
     7
370
    15
100
AcDbLine
 10
-2.254766347590788
 20
-7.315557914812287
 30
0.0
 11
-2.254766347590788
 21
-8.387162139412282
 31
0.0
  0
LINE
  5
376
330
374
100
AcDbEntity
  8
0
  6
SLD-Durchgehend
 62
     7
370
    15
100
AcDbLine
 10
-2.099999999990784
 20
-7.259748394212294
 30
0.0
 11
-2.099999999990784
 21
-8.250974001412284
 31
0.0
  0
LINE
  5
377
330
374
100
AcDbEntity
  8
0
  6
SLD-Durchgehend
 62
     7
370
    15
100
AcDbLine
 10
-2.099999999990784
 20
-8.28600528881229
 30
0.0
 11
-2.099999999990784
 21
-9.813082026112283
 31
0.0
  0
ENDBLK
  5
379
330
374
100
AcDbEntity
  8
0
 62
     0
100
AcDbBlockEnd
  0
BLOCK
  5
398
330
38E
100
AcDbEntity
  8
0
 62
     0
100
AcDbBlockBegin
  2
*D5
 70
     1
 10
0.0
 20
0.0
 30
0.0
  3
*D5
  1

  0
LINE
  5
472
330
38E
100
AcDbEntity
  8
2
 62
     0
370
    -2
100
AcDbLine
 10
-62.51679969333526
 20
-29.02836833558854
 30
0.0
 11
-62.51679969333526
 21
-22.43543669795835
 31
0.0
  0
LINE
  5
473
330
38E
100
AcDbEntity
  8
2
 62
     0
370
    -2
100
AcDbLine
 10
-37.11679969333526
 20
-29.20288133373853
 30
0.0
 11
-37.11679969333526
 21
-22.43543669795835
 31
0.0
  0
LINE
  5
474
330
38E
100
AcDbEntity
  8
2
 62
     0
370
    -2
100
AcDbLine
 10
-57.94679969333524
 20
-24.93543669795835
 30
0.0
 11
-41.68679969333526
 21
-24.93543669795835
 31
0.0
  0
SOLID
  5
475
330
38E
100
AcDbEntity
  8
2
 62
     0
100
AcDbTrace
 10
-57.94679969333524
 20
-24.17377003129168
 30
0.0
 11
-57.94679969333524
 21
-25.69710336462502
 31
0.0
 12
-62.51679969333526
 22
-24.93543669795835
 32
0.0
 13
-62.51679969333526
 23
-24.93543669795835
 33
0.0
  0
SOLID
  5
476
330
38E
100
AcDbEntity
  8
2
 62
     0
100
AcDbTrace
 10
-41.68679969333526
 20
-24.17377003129168
 30
0.0
 11
-41.68679969333526
 21
-25.69710336462502
 31
0.0
 12
-37.11679969333526
 22
-24.93543669795835
 32
0.0
 13
-37.11679969333526
 23
-24.93543669795835
 33
0.0
  0
MTEXT
  5
477
330
38E
100
AcDbEntity
  8
2
 62
     7
100
AcDbMText
 10
-49.81679969333526
 20
-21.15043669795835
 30
0.0
 40
4.57
 41
0.0
 71
     5
 72
     1
  1
\A1;25.4
  7
GENPRESET
 73
     1
 44
1.0
  0
POINT
  5
478
330
38E
100
AcDbEntity
  8
Defpoints
 62
     0
100
AcDbPoint
 10
-62.51679969333526
 20
-29.02836833558854
 30
0.0
  0
POINT
  5
479
330
38E
100
AcDbEntity
  8
Defpoints
 62
     0
100
AcDbPoint
 10
-37.11679969333526
 20
-29.20288133373853
 30
0.0
  0
POINT
  5
47A
330
38E
100
AcDbEntity
  8
Defpoints
 62
     0
100
AcDbPoint
 10
-37.11679969333526
 20
-24.93543669795835
 30
0.0
  0
ENDBLK
  5
399
330
38E
100
AcDbEntity
  8
0
 62
     0
100
AcDbBlockEnd
  0
BLOCK
  5
48D
330
484
100
AcDbEntity
  8
0
100
AcDbBlockBegin
  2
*D6
 70
     1
 10
0.0
 20
0.0
 30
0.0
  3
*D6
  1

  0
SOLID
  5
485
330
484
100
AcDbEntity
  8
VERMASSUNG
100
AcDbTrace
 10
81.1245196267
 20
83.7205338809
 30
0.0
 11
81.5745196267
 21
86.72053388090002
 31
0.0
 12
80.6745196267
 22
86.72053388090002
 32
0.0
 13
80.6745196267
 23
86.72053388090002
 33
0.0
  0
SOLID
  5
486
330
484
100
AcDbEntity
  8
VERMASSUNG
100
AcDbTrace
 10
81.1245196267
 20
138.7205338808996
 30
0.0
 11
80.6745196267
 21
135.7205338809
 31
0.0
 12
81.5745196267
 22
135.7205338809
 32
0.0
 13
81.5745196267
 23
135.7205338809
 33
0.0
  0
LINE
  5
487
330
484
100
AcDbEntity
  8
VERMASSUNG
100
AcDbLine
 10
117.2859342916
 20
83.7205338809
 30
0.0
 11
80.12451962670002
 21
83.7205338809
 31
0.0
  0
LINE
  5
488
330
484
100
AcDbEntity
  8
VERMASSUNG
100
AcDbLine
 10
117.2859342916
 20
138.7205338808996
 30
0.0
 11
80.12451962670002
 21
138.7205338808996
 31
0.0
  0
LINE
  5
489
330
484
100
AcDbEntity
  8
VERMASSUNG
100
AcDbLine
 10
81.1245196267
 20
83.7205338809
 30
0.0
 11
81.1245196267
 21
138.7205338808996
 31
0.0
  0
MTEXT
  5
48A
330
484
100
AcDbEntity
  8
VERMASSUNG
100
AcDbMText
 10
78.3245198501
 20
104.8164942504999
 30
0.0
 40
2.0
 41
0.0
 71
     1
 72
     1
  1
{MBM }
  7
SLDTEXTSTYLE0
 11
0.0000000000000001
 21
1.0
 31
0.0
 73
     1
 44
1.0
  0
MTEXT
  5
48B
330
484
100
AcDbEntity
  8
VERMASSUNG
100
AcDbMText
 10
78.5245198013
 20
111.2164940887999
 30
0.0
 40
2.0
 41
0.0
 71
     1
 72
     1
  1
{%%c}
  7
SLDTEXTSTYLE0
 11
0.0000000000000001
 21
1.0
 31
0.0
 73
     1
 44
1.0
  0
MTEXT
  5
48C
330
484
100
AcDbEntity
  8
VERMASSUNG
100
AcDbMText
 10
78.52451951029998
 20
114.8253332649
 30
0.0
 40
2.0
 41
0.0
 71
     1
 72
     1
  1
{55}
  7
SLDTEXTSTYLE0
 11
0.0000000000000001
 21
1.0
 31
0.0
 73
     1
 44
1.0
  0
ENDBLK
  5
48E
330
484
100
AcDbEntity
  8
0
100
AcDbBlockEnd
  0
BLOCK
  5
496
330
48F
100
AcDbEntity
  8
0
100
AcDbBlockBegin
  2
*D7
 70
     1
 10
0.0
 20
0.0
 30
0.0
  3
*D7
  1

  0
SOLID
  5
490
330
48F
100
AcDbEntity
  8
VERMASSUNG
100
AcDbTrace
 10
116.8859342915999
 20
144.3929717519999
 30
0.0
 11
119.8859342915999
 21
143.942971752
 31
0.0
 12
119.8859342915999
 22
144.842971752
 32
0.0
 13
119.8859342915999
 23
144.842971752
 33
0.0
  0
SOLID
  5
491
330
48F
100
AcDbEntity
  8
VERMASSUNG
100
AcDbTrace
 10
194.8859342915999
 20
144.3929717519999
 30
0.0
 11
191.8859342915999
 21
144.842971752
 31
0.0
 12
191.8859342915999
 22
143.942971752
 32
0.0
 13
191.8859342915999
 23
143.942971752
 33
0.0
  0
LINE
  5
492
330
48F
100
AcDbEntity
  8
VERMASSUNG
100
AcDbLine
 10
116.8859342915999
 20
138.3205338808999
 30
0.0
 11
116.8859342915999
 21
145.3929717519999
 31
0.0
  0
LINE
  5
493
330
48F
100
AcDbEntity
  8
VERMASSUNG
100
AcDbLine
 10
194.8859342915999
 20
137.8920542724999
 30
0.0
 11
194.8859342915999
 21
145.3929717519999
 31
0.0
  0
LINE
  5
494
330
48F
100
AcDbEntity
  8
VERMASSUNG
100
AcDbLine
 10
116.8859342915999
 20
144.3929717519999
 30
0.0
 11
194.8859342915999
 21
144.3929717519999
 31
0.0
  0
MTEXT
  5
495
330
48F
100
AcDbEntity
  8
VERMASSUNG
100
AcDbMText
 10
154.4863141684
 20
146.9929718683999
 30
0.0
 40
2.0
 41
0.0
 71
     1
 72
     1
  1
{78}
  7
SLDTEXTSTYLE0
 73
     1
 44
1.0
  0
ENDBLK
  5
497
330
48F
100
AcDbEntity
  8
0
100
AcDbBlockEnd
  0
BLOCK
  5
59B
330
498
100
AcDbEntity
  8
0
 62
     0
100
AcDbBlockBegin
  2
A$C3FCB2D76
 70
     0
 10
0.0
 20
0.0
 30
0.0
  3
A$C3FCB2D76
  1

  0
DIMENSION
  5
499
330
498
100
AcDbEntity
  8
VERMASSUNG
100
AcDbDimension
  2
*D6
 10
-35.76141466489998
 20
27.5
 30
0.0
 11
-35.76141466489998
 21
0.0
 31
0.0
 12
-116.8859342915999
 22
-111.2205338809
 32
0.0
 70
   128
  1
MBM %%c<>
 71
     5
 42
55.0
  3
SLDDIMSTYLE0
100
AcDbAlignedDimension
 13
0.4000000000000057
 23
-27.5
 33
0.0
 14
0.4000000000000057
 24
27.5
 34
0.0
 50
90.0
100
AcDbRotatedDimension
1001
ACAD
1000
DSTYLE
1002
{
1070
   143
1040
0.0394
1070
    41
1040
3.0
1070
    44
1040
1.0
1070
    42
1040
0.0
1070
   147
1040
1.524
1070
    73
1070
     1
1070
    74
1070
     1
1070
   140
1040
2.0
1070
   284
1070
     0
1070
    78
1070
     0
1002
}
  0
LINE
  5
49A
330
498
100
AcDbEntity
  8
VERMASSUNG
  6
SLD-Punktstrich
370
     0
100
AcDbLine
 10
-31.00929299789999
 20
0.0
 30
0.0
 11
81.25625161900002
 21
0.0
 31
0.0
  0
DIMENSION
  5
49B
330
498
100
AcDbEntity
  8
VERMASSUNG
100
AcDbDimension
  2
*D7
 10
78.0
 20
33.17243787109998
 30
0.0
 11
39.0
 21
33.17243787109998
 31
0.0
 12
-116.8859342915999
 22
-111.2205338809
 32
0.0
 70
   128
 71
     5
 42
78.0
  3
SLDDIMSTYLE0
100
AcDbAlignedDimension
 13
0.0
 23
27.09999999999999
 33
0.0
 14
78.0
 24
26.67152039159998
 34
0.0
100
AcDbRotatedDimension
1001
ACAD
1000
DSTYLE
1002
{
1070
   143
1040
0.0394
1070
    41
1040
3.0
1070
    44
1040
1.0
1070
    42
1040
0.0
1070
   147
1040
1.524
1070
    73
1070
     1
1070
    74
1070
     1
1070
   140
1040
2.0
1070
   284
1070
     0
1070
    78
1070
     0
1002
}
  0
LINE
  5
49C
330
498
100
AcDbEntity
  8
0
  6
SLD-Durchgehend
 62
     7
370
    15
100
AcDbLine
 10
77.59999999999998
 20
27.5
 30
0.0
 11
0.4000000000000057
 21
27.5
 31
0.0
  0
LINE
  5
49D
330
498
100
AcDbEntity
  8
0
  6
SLD-Durchgehend
 62
     7
370
    15
100
AcDbLine
 10
0.4000000000000057
 20
-27.5
 30
0.0
 11
77.59999999999998
 21
-27.5
 31
0.0
  0
LINE
  5
49E
330
498
100
AcDbEntity
  8
0
  6
SLD-Durchgehend
 62
     7
370
     0
100
AcDbLine
 10
-28.119731976
 20
-14.72186089049999
 30
0.0
 11
-28.119731976
 21
14.72186089049998
 31
0.0
  0
LINE
  5
49F
330
498
100
AcDbEntity
  8
0
  6
SLD-Durchgehend
 62
     7
370
     0
100
AcDbLine
 10
-29.06108145789998
 20
-14.88784620239998
 30
0.0
 11
-29.06108145789998
 21
14.88784620239998
 31
0.0
  0
LINE
  5
4A0
330
498
100
AcDbEntity
  8
0
  6
SLD-Durchgehend
 62
     7
370
     0
100
AcDbLine
 10
-27.99460346459998
 20
-14.7196767642
 30
0.0
 11
-27.99460346459998
 21
14.71967676419998
 31
0.0
  0
LINE
  5
4A1
330
498
100
AcDbEntity
  8
0
  6
SLD-Durchgehend
 62
     7
370
     0
100
AcDbLine
 10
-4.957055236100003
 20
-14.77725933899999
 30
0.0
 11
-4.957055236100003
 21
14.77725933899999
 31
0.0
  0
LINE
  5
4A2
330
498
100
AcDbEntity
  8
0
  6
SLD-Durchgehend
 62
     7
370
     0
100
AcDbLine
 10
0.4000000000000057
 20
-27.5
 30
0.0
 11
0.4000000000000057
 21
27.5
 31
0.0
  0
LINE
  5
4A3
330
498
100
AcDbEntity
  8
0
  6
SLD-Durchgehend
 62
     7
370
    15
100
AcDbLine
 10
-30.0
 20
-14.10000000000001
 30
0.0
 11
-30.0
 21
14.09999997989999
 31
0.0
  0
LINE
  5
4A4
330
498
100
AcDbEntity
  8
0
  6
SLD-Durchgehend
 62
     7
370
    15
100
AcDbLine
 10
-26.0
 20
-15.0
 30
0.0
 11
-26.0
 21
15.0
 31
0.0
  0
LINE
  5
4A5
330
498
100
AcDbEntity
  8
0
  6
SLD-Durchgehend
 62
     7
370
    15
100
AcDbLine
 10
-5.788334699999992
 20
-15.0
 30
0.0
 11
-5.788334699999992
 21
15.0
 31
0.0
  0
LINE
  5
4A6
330
498
100
AcDbEntity
  8
0
  6
SLD-Durchgehend
 62
     7
370
    15
100
AcDbLine
 10
-3.950000000000001
 20
-13.64003757329999
 30
0.0
 11
-3.950000000000001
 21
13.64003757329999
 31
0.0
  0
LINE
  5
4A7
330
498
100
AcDbEntity
  8
0
  6
SLD-Durchgehend
 62
     7
370
    15
100
AcDbLine
 10
-0.1499999999999915
 20
12.7860318127
 30
0.0
 11
-0.1499999999999915
 21
-12.7860318127
 31
0.0
  0
LINE
  5
4A8
330
498
100
AcDbEntity
  8
0
  6
SLD-Durchgehend
 62
     7
370
    15
100
AcDbLine
 10
0.0
 20
-27.1
 30
0.0
 11
0.0
 21
27.09999999489999
 31
0.0
  0
LINE
  5
4A9
330
498
100
AcDbEntity
  8
0
  6
SLD-Durchgehend
 62
     7
370
    15
100
AcDbLine
 10
-5.788334699999992
 20
-15.0
 30
0.0
 11
-4.957055236100003
 21
-14.77725933899999
 31
0.0
  0
LINE
  5
4AA
330
498
100
AcDbEntity
  8
0
  6
SLD-Durchgehend
 62
     7
370
    15
100
AcDbLine
 10
-26.0
 20
-15.0
 30
0.0
 11
-5.788334699999992
 21
-15.0
 31
0.0
  0
ARC
  5
4AB
330
498
100
AcDbEntity
  8
0
  6
SLD-Durchgehend
 62
     7
370
    15
100
AcDbCircle
 10
-29.19999999999999
 20
-14.10000000000001
 30
0.0
 40
0.8000000000000161
100
AcDbArc
 50
180.0
 51
280.0
  0
LINE
  5
4AC
330
498
100
AcDbEntity
  8
0
  6
SLD-Durchgehend
 62
     7
370
    15
100
AcDbLine
 10
-27.99460346459998
 20
-14.7196767642
 30
0.0
 11
-26.0
 21
-15.0
 31
0.0
  0
ARC
  5
4AD
330
498
100
AcDbEntity
  8
0
  6
SLD-Durchgehend
 62
     7
370
    15
100
AcDbCircle
 10
-28.050272705
 20
-15.1157839917
 30
0.0
 40
0.4000000000000015
100
AcDbArc
 50
82.00000000000008
 51
100.0000000000001
  0
LINE
  5
4AE
330
498
100
AcDbEntity
  8
0
  6
SLD-Durchgehend
 62
     7
370
    15
100
AcDbLine
 10
-29.06108145789998
 20
-14.88784620239998
 30
0.0
 11
-28.119731976
 21
-14.72186089049999
 31
0.0
  0
LINE
  5
4AF
330
498
100
AcDbEntity
  8
0
  6
SLD-Durchgehend
 62
     7
370
    15
100
AcDbLine
 10
-3.950000000000001
 20
-21.025
 30
0.0
 11
-3.950000000000001
 21
-13.64003757329999
 31
0.0
  0
LINE
  5
4B0
330
498
100
AcDbEntity
  8
0
  6
SLD-Durchgehend
 62
     7
370
    15
100
AcDbLine
 10
-1.606834536399985
 20
-21.025
 30
0.0
 11
-1.606834536399985
 21
-13.64003757329999
 31
0.0
  0
LINE
  5
4B1
330
498
100
AcDbEntity
  8
0
  6
SLD-Durchgehend
 62
     7
370
    15
100
AcDbLine
 10
-1.606834536399985
 20
-21.025
 30
0.0
 11
-0.5880946094000024
 21
-20.5499537704
 31
0.0
  0
ARC
  5
4B2
330
498
100
AcDbEntity
  8
0
  6
SLD-Durchgehend
 62
     7
370
    15
100
AcDbCircle
 10
0.4000000000000057
 20
-27.1
 30
0.0
 40
0.3999999999999915
100
AcDbArc
 50
180.0
 51
270.0
  0
LINE
  5
4B3
330
498
100
AcDbEntity
  8
0
  6
SLD-Durchgehend
 62
     7
370
    15
100
AcDbLine
 10
-3.950000000000001
 20
-21.025
 30
0.0
 11
-1.606834536399985
 21
-21.025
 31
0.0
  0
LINE
  5
4B4
330
498
100
AcDbEntity
  8
0
  6
SLD-Durchgehend
 62
     7
370
     0
100
AcDbLine
 10
-0.5880946094000024
 20
-20.5499537704
 30
0.0
 11
-0.5880946094000024
 21
-12.8957589914
 31
0.0
  0
ARC
  5
4B5
330
498
100
AcDbEntity
  8
0
  6
SLD-Durchgehend
 62
     7
370
    15
100
AcDbCircle
 10
-4.75
 20
-15.55000000000001
 30
0.0
 40
0.7999999999999972
100
AcDbArc
 50
0.0
 51
105.0000000000002
  0
ARC
  5
4B6
330
498
100
AcDbEntity
  8
0
  6
SLD-Durchgehend
 62
     7
370
    15
100
AcDbCircle
 10
-0.25
 20
-21.27499999999999
 30
0.0
 40
0.8000000000000115
100
AcDbArc
 50
71.79004313569997
 51
114.9999999999996
  0
LWPOLYLINE
  5
4B7
330
498
100
AcDbEntity
  8
0
  6
SLD-Durchgehend
 62
     7
370
    15
100
AcDbPolyline
 90
        3
 70
   128
 43
0.0
 10
-1.606834536399985
 20
-13.64003757329999
 10
-0.8737795698999946
 20
-13.10700410569999
 10
-0.5880946094000024
 20
-12.8957589914
  0
LINE
  5
4B8
330
498
100
AcDbEntity
  8
0
  6
SLD-Durchgehend
 62
     7
370
    15
100
AcDbLine
 10
-1.606834536399985
 20
-13.64003757329999
 30
0.0
 11
-3.950000000000001
 21
-13.64003757329999
 31
0.0
  0
ARC
  5
4B9
330
498
100
AcDbEntity
  8
0
  6
SLD-Durchgehend
 62
     7
370
    15
100
AcDbCircle
 10
-0.2491211378999907
 20
-13.31971029360001
 30
0.0
 40
0.5428054172534368
100
AcDbArc
 50
79.47823807240006
 51
128.6443478603997
  0
LINE
  5
4BA
330
498
100
AcDbEntity
  8
0
  6
SLD-Durchgehend
 62
     7
370
    15
100
AcDbLine
 10
-4.957055236100003
 20
14.77725933899999
 30
0.0
 11
-5.788334699999992
 21
15.0
 31
0.0
  0
CIRCLE
  5
4BB
330
498
100
AcDbEntity
  8
0
  6
SLD-Durchgehend
 62
     7
370
    15
100
AcDbCircle
 10
-14.19999999999999
 20
0.0
 30
0.0
 40
4.0
  0
CIRCLE
  5
4BC
330
498
100
AcDbEntity
  8
0
  6
SLD-Durchgehend
 62
     7
370
    15
100
AcDbCircle
 10
-14.19999999999999
 20
0.0
 30
0.0
 40
4.942344702964476
  0
LWPOLYLINE
  5
4BD
330
498
100
AcDbEntity
  8
0
  6
SLD-Durchgehend
 62
     7
370
    15
100
AcDbPolyline
 90
       17
 70
   128
 43
0.0
 10
-20.95
 20
0.0
 10
-20.90063933879999
 20
0.6767369768000009
 10
-20.4561218859
 20
2.106737529299989
 10
-19.56836317909997
 20
3.406654401099997
 10
-18.64420103779998
 20
4.235854434999993
 10
-17.63263297299998
 20
4.8516662395
 10
-16.52821761889998
 20
5.295072258399997
 10
-15.35360711809998
 20
5.561713012599994
 10
-14.14818960759999
 20
5.6464416469
 10
-12.91131613529999
 20
5.54055707789999
 10
-11.7107588844
 20
5.242960059099996
 10
-10.580185732
 20
4.754787970699993
 10
-9.555473373299989
 20
4.082530322599993
 10
-8.834776801700002
 20
3.409524616699997
 10
-8.234052702499994
 20
2.62606167839999
 10
-7.585777725300004
 20
1.118966402899985
 10
-7.450000000000001
 20
0.0
  0
LWPOLYLINE
  5
4BE
330
498
100
AcDbEntity
  8
0
  6
SLD-Durchgehend
 62
     7
370
    15
100
AcDbPolyline
 90
       17
 70
   128
 43
0.0
 10
-7.450000000000001
 20
0.0
 10
-7.480888330699997
 20
-0.5356843696999932
 10
-7.88567064419999
 20
-1.982905565300015
 10
-8.730205990000001
 20
-3.29235696639999
 10
-10.10061297549998
 20
-4.473194231300011
 10
-11.05387813989999
 20
-4.986920057100021
 10
-12.07741448309998
 20
-5.355942475300011
 10
-13.27273556989999
 20
-5.591681761599998
 10
-14.49335345289997
 20
-5.641189766700009
 10
-15.72541346099999
 20
-5.497724631500003
 10
-16.91451420679999
 20
-5.163268941600009
 10
-18.02788078459998
 20
-4.638678717100018
 10
-19.0280286353
 20
-3.930759756800012
 10
-19.70702479799999
 20
-3.248246645700007
 10
-20.26584749769998
 20
-2.4622338283
 10
-20.8514107009
 20
-0.9547501941000009
 10
-20.95
 20
0.0
  0
LINE
  5
4BF
330
498
100
AcDbEntity
  8
0
  6
SLD-Durchgehend
 62
     7
370
    15
100
AcDbLine
 10
-5.788334699999992
 20
15.0
 30
0.0
 11
-26.0
 21
15.0
 31
0.0
  0
ARC
  5
4C0
330
498
100
AcDbEntity
  8
0
  6
SLD-Durchgehend
 62
     7
370
    15
100
AcDbCircle
 10
-29.19999999999999
 20
14.09999999999999
 30
0.0
 40
0.8000000000000021
100
AcDbArc
 50
79.9999999999998
 51
180.0
  0
ARC
  5
4C1
330
498
100
AcDbEntity
  8
0
  6
SLD-Durchgehend
 62
     7
370
    15
100
AcDbCircle
 10
-28.050272705
 20
15.1157839917
 30
0.0
 40
0.3999999999999916
100
AcDbArc
 50
259.9999999999998
 51
277.9999999999999
  0
LINE
  5
4C2
330
498
100
AcDbEntity
  8
0
  6
SLD-Durchgehend
 62
     7
370
    15
100
AcDbLine
 10
-28.119731976
 20
14.72186089049998
 30
0.0
 11
-29.06108145789998
 21
14.88784620239998
 31
0.0
  0
LINE
  5
4C3
330
498
100
AcDbEntity
  8
0
  6
SLD-Durchgehend
 62
     7
370
    15
100
AcDbLine
 10
-26.0
 20
15.0
 30
0.0
 11
-27.99460346459998
 21
14.71967676419998
 31
0.0
  0
LINE
  5
4C4
330
498
100
AcDbEntity
  8
0
  6
SLD-Durchgehend
 62
     7
370
     0
100
AcDbLine
 10
-0.5880946094000024
 20
12.89575899139998
 30
0.0
 11
-0.5880946094000024
 21
20.54995377039998
 31
0.0
  0
LINE
  5
4C5
330
498
100
AcDbEntity
  8
0
  6
SLD-Durchgehend
 62
     7
370
    15
100
AcDbLine
 10
-1.606834536399985
 20
13.64003757329999
 30
0.0
 11
-1.606834536399985
 21
21.025
 31
0.0
  0
LINE
  5
4C6
330
498
100
AcDbEntity
  8
0
  6
SLD-Durchgehend
 62
     7
370
    15
100
AcDbLine
 10
-3.950000000000001
 20
13.64003757329999
 30
0.0
 11
-3.950000000000001
 21
21.025
 31
0.0
  0
LINE
  5
4C7
330
498
100
AcDbEntity
  8
0
  6
SLD-Durchgehend
 62
     7
370
    15
100
AcDbLine
 10
-0.5880946094000024
 20
12.89575899139998
 30
0.0
 11
-1.606834536399985
 21
13.64003757329999
 31
0.0
  0
LINE
  5
4C8
330
498
100
AcDbEntity
  8
0
  6
SLD-Durchgehend
 62
     7
370
    15
100
AcDbLine
 10
-1.606834536399985
 20
13.64003757329999
 30
0.0
 11
-3.950000000000001
 21
13.64003757329999
 31
0.0
  0
ARC
  5
4C9
330
498
100
AcDbEntity
  8
0
  6
SLD-Durchgehend
 62
     7
370
    15
100
AcDbCircle
 10
-0.2490740635000037
 20
13.3198982419
 30
0.0
 40
0.5429816151344861
100
AcDbArc
 50
231.3641575190001
 51
280.5132565493002
  0
ARC
  5
4CA
330
498
100
AcDbEntity
  8
0
  6
SLD-Durchgehend
 62
     7
370
    15
100
AcDbCircle
 10
-4.75
 20
15.54999999999999
 30
0.0
 40
0.8000000000000081
100
AcDbArc
 50
254.9999999999995
 51
0.0
  0
LINE
  5
4CB
330
498
100
AcDbEntity
  8
0
  6
SLD-Durchgehend
 62
     7
370
    15
100
AcDbLine
 10
-0.5880946094000024
 20
20.54995377039998
 30
0.0
 11
-1.606834536399985
 21
21.025
 31
0.0
  0
LINE
  5
4CC
330
498
100
AcDbEntity
  8
0
  6
SLD-Durchgehend
 62
     7
370
    15
100
AcDbLine
 10
-1.606834536399985
 20
21.025
 30
0.0
 11
-3.950000000000001
 21
21.025
 31
0.0
  0
ARC
  5
4CD
330
498
100
AcDbEntity
  8
0
  6
SLD-Durchgehend
 62
     7
370
    15
100
AcDbCircle
 10
-0.25
 20
21.27499999999999
 30
0.0
 40
0.8000000000000115
100
AcDbArc
 50
245.0000000000003
 51
288.2099568642999
  0
ARC
  5
4CE
330
498
100
AcDbEntity
  8
0
  6
SLD-Durchgehend
 62
     7
370
    15
100
AcDbCircle
 10
0.4000000000000057
 20
27.09999999999999
 30
0.0
 40
0.4000000000000057
100
AcDbArc
 50
90.0
 51
180.0
  0
LINE
  5
4CF
330
498
100
AcDbEntity
  8
0
  6
SLD-Durchgehend
 62
     7
370
     0
100
AcDbLine
 10
77.4731565326
 20
-2.562827085499999
 30
0.0
 11
77.4731565326
 21
-26.99277736
 31
0.0
  0
LINE
  5
4D0
330
498
100
AcDbEntity
  8
0
  6
SLD-Durchgehend
 62
     7
370
     0
100
AcDbLine
 10
77.23274022700002
 20
-2.568705470900013
 30
0.0
 11
77.23274022700002
 21
-26.94483834140001
 31
0.0
  0
LINE
  5
4D1
330
498
100
AcDbEntity
  8
0
  6
SLD-Durchgehend
 62
     7
370
     0
100
AcDbLine
 10
73.26171992999999
 20
2.159756774099987
 30
0.0
 11
73.26171992999999
 21
-26.705664304
 31
0.0
  0
LINE
  5
4D2
330
498
100
AcDbEntity
  8
0
  6
SLD-Durchgehend
 62
     7
370
     0
100
AcDbLine
 10
72.69288884339998
 20
1.472134495699988
 30
0.0
 11
72.69288884339998
 21
-26.6677520181
 31
0.0
  0
LINE
  5
4D3
330
498
100
AcDbEntity
  8
0
  6
SLD-Durchgehend
 62
     7
370
     0
100
AcDbLine
 10
68.7218685464
 20
-0.9606947246000171
 30
0.0
 11
68.7218685464
 21
-26.37704511
 31
0.0
  0
LINE
  5
4D4
330
498
100
AcDbEntity
  8
0
  6
SLD-Durchgehend
 62
     7
370
     0
100
AcDbLine
 10
68.15303745990002
 20
-1.094456682500009
 30
0.0
 11
68.15303745990002
 21
-26.33161945889999
 31
0.0
  0
LINE
  5
4D5
330
498
100
AcDbEntity
  8
0
  6
SLD-Durchgehend
 62
     7
370
     0
100
AcDbLine
 10
64.18201716279998
 20
-0.9238265924000046
 30
0.0
 11
64.18201716279998
 21
-25.9874010382
 31
0.0
  0
LINE
  5
4D6
330
498
100
AcDbEntity
  8
0
  6
SLD-Durchgehend
 62
     7
370
     0
100
AcDbLine
 10
63.61318607630003
 20
-0.735682994100003
 30
0.0
 11
63.61318607630003
 21
-25.93414486969999
 31
0.0
  0
LINE
  5
4D7
330
498
100
AcDbEntity
  8
0
  6
SLD-Durchgehend
 62
     7
370
     0
100
AcDbLine
 10
50.56246301219999
 20
24.42084215789998
 30
0.0
 11
50.56246301219999
 21
-24.42084215790001
 31
0.0
  0
LINE
  5
4D8
330
498
100
AcDbEntity
  8
0
  6
SLD-Durchgehend
 62
     7
370
     0
100
AcDbLine
 10
49.9936319256
 20
24.34132160609999
 30
0.0
 11
49.9936319256
 21
-24.34132160610001
 31
0.0
  0
LINE
  5
4D9
330
498
100
AcDbEntity
  8
0
  6
SLD-Durchgehend
 62
     7
370
    15
100
AcDbLine
 10
78.0
 20
-2.552369869500009
 30
0.0
 11
78.0
 21
-26.67152039159998
 31
0.0
  0
LINE
  5
4DA
330
498
100
AcDbEntity
  8
0
  6
SLD-Durchgehend
 62
     7
370
    15
100
AcDbLine
 10
77.56805501689999
 20
-2.5622207266
 30
0.0
 11
77.56805501689999
 21
-26.9977175275
 31
0.0
  0
LINE
  5
4DB
330
498
100
AcDbEntity
  8
0
  6
SLD-Durchgehend
 62
     7
370
    15
100
AcDbLine
 10
77.2073122548
 20
-26.9253011828
 30
0.0
 11
77.2073122548
 21
-2.571098207199995
 31
0.0
  0
LINE
  5
4DC
330
498
100
AcDbEntity
  8
0
  6
SLD-Durchgehend
 62
     7
370
    15
100
AcDbLine
 10
77.09999999999998
 20
-2.581647507200003
 30
0.0
 11
77.09999999999998
 21
-26.838997059
 31
0.0
  0
LINE
  5
4DD
330
498
100
AcDbEntity
  8
0
  6
SLD-Durchgehend
 62
     7
370
    15
100
AcDbLine
 10
76.37143005670004
 20
-2.672574892800013
 30
0.0
 11
76.37143005670004
 21
-26.0834589208
 31
0.0
  0
LINE
  5
4DE
330
498
100
AcDbEntity
  8
0
  6
SLD-Durchgehend
 62
     7
370
    15
100
AcDbLine
 10
75.61486307619998
 20
-2.680702814099999
 30
0.0
 11
75.61486307619998
 21
-26.01486911929999
 31
0.0
  0
LINE
  5
4DF
330
498
100
AcDbEntity
  8
0
  6
SLD-Durchgehend
 62
     7
370
    15
100
AcDbLine
 10
71.07501169259998
 20
0.0988885284999981
 30
0.0
 11
71.07501169259998
 21
-25.5656890861
 31
0.0
  0
LINE
  5
4E0
330
498
100
AcDbEntity
  8
0
  6
SLD-Durchgehend
 62
     7
370
    15
100
AcDbLine
 10
71.8315786732
 20
0.6552073755999857
 30
0.0
 11
71.8315786732
 21
-25.6450984282
 31
0.0
  0
LINE
  5
4E1
330
498
100
AcDbEntity
  8
0
  6
SLD-Durchgehend
 62
     7
370
    15
100
AcDbLine
 10
67.2917272896
 20
-1.21772828840001
 30
0.0
 11
67.2917272896
 21
-25.14032256520001
 31
0.0
  0
LINE
  5
4E2
330
498
100
AcDbEntity
  8
0
  6
SLD-Durchgehend
 62
     7
370
    15
100
AcDbLine
 10
66.53516030910001
 20
-1.25
 30
0.0
 11
66.53516030910001
 21
-25.04947110760001
 31
0.0
  0
LINE
  5
4E3
330
498
100
AcDbEntity
  8
0
  6
SLD-Durchgehend
 62
     7
370
    15
100
AcDbLine
 10
62.75187590599998
 20
-0.3587682442000073
 30
0.0
 11
62.75187590599998
 21
-24.5650374546
 31
0.0
  0
ELLIPSE
  5
4E4
330
498
100
AcDbEntity
  8
0
  6
SLD-Durchgehend
 62
     7
370
    15
100
AcDbEllipse
 10
57.93467112150003
 20
-7.5
 30
0.0
 11
4.740259054514268
 21
0.0
 31
0.0
210
0.0
220
0.0
230
1.0
 40
0.8965754721999999
 41
5.741086702161187
 42
6.825283912198016
  0
LINE
  5
4E5
330
498
100
AcDbEntity
  8
0
  6
SLD-Durchgehend
 62
     7
370
    15
100
AcDbLine
 10
52.91560615840001
 20
23.05067553809999
 30
0.0
 11
52.91560615840001
 21
-23.05067553809999
 31
0.0
  0
ELLIPSE
  5
4E6
330
498
100
AcDbEntity
  8
0
  6
SLD-Durchgehend
 62
     7
370
    15
100
AcDbEllipse
 10
57.93467112150003
 20
-7.5
 30
0.0
 11
4.74025905451424
 21
0.0
 31
0.0
210
0.0
220
0.0
230
1.0
 40
0.8965754722000001
 41
2.68876148222489
 42
3.594423824954711
  0
LINE
  5
4E7
330
498
100
AcDbEntity
  8
0
  6
SLD-Durchgehend
 62
     7
370
    15
100
AcDbLine
 10
49.1323217554
 20
22.35843938079999
 30
0.0
 11
49.1323217554
 21
-22.35843938079999
 31
0.0
  0
LINE
  5
4E8
330
498
100
AcDbEntity
  8
0
  6
SLD-Durchgehend
 62
     7
370
    15
100
AcDbLine
 10
48.0
 20
18.00959887069998
 30
0.0
 11
48.0
 21
-18.0095988707
 31
0.0
  0
ELLIPSE
  5
4E9
330
498
100
AcDbEntity
  8
0
  6
SLD-Durchgehend
 62
     7
370
    15
100
AcDbEllipse
 10
53.56860279180001
 20
0.0
 30
0.0
 11
0.0
 21
27.5
 31
0.0
210
0.0
220
0.0
230
1.0
 40
0.2679491924
 41
0.8567533108677761
 42
2.284839342722018
  0
ARC
  5
4EA
330
498
100
AcDbEntity
  8
0
  6
SLD-Durchgehend
 62
     7
370
    15
100
AcDbCircle
 10
60.1513284671
 20
-7.5
 30
0.0
 40
4.184252510249616
100
AcDbArc
 50
95.86431172879994
 51
264.1356882711999
  0
ELLIPSE
  5
4EB
330
498
100
AcDbEntity
  8
0
  6
SLD-Durchgehend
 62
     7
370
    15
100
AcDbEllipse
 10
59.02271574180001
 20
-7.5
 30
0.0
 11
0.0
 21
4.250000000000013
 31
0.0
210
0.0
220
0.0
230
1.0
 40
0.8164965808999998
 41
3.321064754170042
 42
4.170290375366294
  0
ARC
  5
4EC
330
498
100
AcDbEntity
  8
0
  6
SLD-Durchgehend
 62
     7
370
    15
100
AcDbCircle
 10
49.43099630069999
 20
0.0
 30
0.0
 40
27.50000000000019
100
AcDbArc
 50
291.7967552762003
 51
297.1862259202003
  0
LINE
  5
4ED
330
498
100
AcDbEntity
  8
0
  6
SLD-Durchgehend
 62
     7
370
     0
100
AcDbLine
 10
59.6421657793
 20
-11.6817367775
 30
0.0
 11
59.6421657793
 21
-25.5339385501
 31
0.0
  0
LINE
  5
4EE
330
498
100
AcDbEntity
  8
0
  6
SLD-Durchgehend
 62
     7
370
     0
100
AcDbLine
 10
59.0733346927
 20
-11.74271895110001
 30
0.0
 11
59.0733346927
 21
-25.4724568523
 31
0.0
  0
LINE
  5
4EF
330
498
100
AcDbEntity
  8
0
  6
SLD-Durchgehend
 62
     7
370
     0
100
AcDbLine
 10
55.1023143957
 20
-10.16373172790001
 30
0.0
 11
55.1023143957
 21
-25.01318700620001
 31
0.0
  0
LINE
  5
4F0
330
498
100
AcDbEntity
  8
0
  6
SLD-Durchgehend
 62
     7
370
     0
100
AcDbLine
 10
54.53348330919999
 20
-9.359430707000015
 30
0.0
 11
54.53348330919999
 21
-24.94298994159999
 31
0.0
  0
LINE
  5
4F1
330
498
100
AcDbEntity
  8
0
  6
SLD-Durchgehend
 62
     7
370
    15
100
AcDbLine
 10
58.2120245225
 20
-11.74271895110001
 30
0.0
 11
58.2120245225
 21
-23.91415507130001
 31
0.0
  0
LINE
  5
4F2
330
498
100
AcDbEntity
  8
0
  6
SLD-Durchgehend
 62
     7
370
    15
100
AcDbLine
 10
57.45545754200001
 20
-11.72822656639999
 30
0.0
 11
57.45545754200001
 21
-23.7979115665
 31
0.0
  0
LINE
  5
4F3
330
498
100
AcDbEntity
  8
0
  6
SLD-Durchgehend
 62
     7
370
    15
100
AcDbLine
 10
53.67217313890001
 20
-9.359430707000015
 30
0.0
 11
53.67217313890001
 21
-23.1813084526
 31
0.0
  0
LINE
  5
4F4
330
498
100
AcDbEntity
  8
0
  6
SLD-Durchgehend
 62
     7
370
    15
100
AcDbLine
 10
48.0
 20
-22.13802539639999
 30
0.0
 11
48.0
 21
-18.0095988707
 31
0.0
  0
ARC
  5
4F5
330
498
100
AcDbEntity
  8
0
  6
SLD-Durchgehend
 62
     7
370
    15
100
AcDbCircle
 10
37.91839450959999
 20
0.0
 30
0.0
 40
27.50000000000027
100
AcDbArc
 50
297.3731902453998
 51
303.0488000289001
  0
ARC
  5
4F6
330
498
100
AcDbEntity
  8
0
  6
SLD-Durchgehend
 62
     7
370
    15
100
AcDbCircle
 10
50.33012210040002
 20
-24.0085785663
 30
0.0
 40
0.4732267620314758
100
AcDbArc
 50
224.6791958832
 51
299.4044636119001
  0
ELLIPSE
  5
4F7
330
498
100
AcDbEntity
  8
0
  6
SLD-Durchgehend
 62
     7
370
    15
100
AcDbEllipse
 10
53.42244010449999
 20
0.0
 30
0.0
 11
0.0
 21
27.5
 31
0.0
210
0.0
220
0.0
230
1.0
 40
0.2679491924
 41
2.520141037206201
 42
2.657588898028584
  0
ELLIPSE
  5
4F8
330
498
100
AcDbEntity
  8
0
  6
SLD-Durchgehend
 62
     7
370
    15
100
AcDbEllipse
 10
108.8859620036
 20
0.0
 30
0.0
 11
102.6313972081432
 21
0.0
 31
0.0
210
0.0
220
0.0
230
1.0
 40
0.2679491924
 41
4.077300325667915
 42
4.090937364001113
  0
ARC
  5
4F9
330
498
100
AcDbEntity
  8
0
  6
SLD-Durchgehend
 62
     7
370
    15
100
AcDbCircle
 10
43.67469540510001
 20
0.0
 30
0.0
 40
27.50000000000022
100
AcDbArc
 50
294.5539436115002
 51
300.0740351490996
  0
ARC
  5
4FA
330
498
100
AcDbEntity
  8
0
  6
SLD-Durchgehend
 62
     7
370
    15
100
AcDbCircle
 10
54.8702128236
 20
-24.5541702765
 30
0.0
 40
0.5143612523261938
100
AcDbArc
 50
229.106453196
 51
296.8234187934998
  0
ELLIPSE
  5
4FB
330
498
100
AcDbEntity
  8
0
  6
SLD-Durchgehend
 62
     7
370
    15
100
AcDbEllipse
 10
57.6363448237
 20
0.0
 30
0.0
 11
0.0
 21
27.5
 31
0.0
210
0.0
220
0.0
230
1.0
 40
0.2679491924
 41
2.573551974805392
 42
2.70694345072497
  0
ELLIPSE
  5
4FC
330
498
100
AcDbEntity
  8
0
  6
SLD-Durchgehend
 62
     7
370
    15
100
AcDbEllipse
 10
108.8859620036
 20
0.0
 30
0.0
 11
102.6313972081432
 21
0.0
 31
0.0
210
0.0
220
0.0
230
1.0
 40
0.2679491924
 41
4.135578606046896
 42
4.144348301600301
  0
ARC
  5
4FD
330
498
100
AcDbEntity
  8
0
  6
SLD-Durchgehend
 62
     7
370
    15
100
AcDbCircle
 10
59.4101770297
 20
-25.01814294350001
 30
0.0
 40
0.5655651047614742
100
AcDbArc
 50
233.4456225547003
 51
294.2167263445996
  0
ELLIPSE
  5
4FE
330
498
100
AcDbEntity
  8
0
  6
SLD-Durchgehend
 62
     7
370
    15
100
AcDbEllipse
 10
61.8502495429
 20
0.0
 30
0.0
 11
0.0
 21
27.5
 31
0.0
210
0.0
220
0.0
230
1.0
 40
0.2679491924
 41
2.625199373813681
 42
2.755191105186957
  0
ELLIPSE
  5
4FF
330
498
100
AcDbEntity
  8
0
  6
SLD-Durchgehend
 62
     7
370
    15
100
AcDbEllipse
 10
108.8859620036
 20
0.0
 30
0.0
 11
102.6313972081432
 21
0.0
 31
0.0
210
0.0
220
0.0
230
1.0
 40
0.2679491924
 41
4.187498047672733
 42
4.195995700608595
  0
ELLIPSE
  5
500
330
498
100
AcDbEntity
  8
0
  6
SLD-Durchgehend
 62
     7
370
    15
100
AcDbEllipse
 10
57.80626622990002
 20
-7.5
 30
0.0
 11
0.0
 21
4.250000000000013
 31
0.0
210
0.0
220
0.0
230
1.0
 40
0.8164965808999998
 41
2.248185026420109
 42
3.040325271894996
  0
LINE
  5
501
330
498
100
AcDbEntity
  8
0
  6
SLD-Durchgehend
 62
     7
370
    15
100
AcDbLine
 10
53.67217313890001
 20
-9.359430707000015
 30
0.0
 11
54.53348330919999
 21
-9.359430707000015
 31
0.0
  0
ARC
  5
502
330
498
100
AcDbEntity
  8
0
  6
SLD-Durchgehend
 62
     7
370
    15
100
AcDbCircle
 10
52.1209942195
 20
-11.66893077029999
 30
0.0
 40
3.339744623542478
100
AcDbArc
 50
26.78814556020016
 51
43.75054750309987
  0
ELLIPSE
  5
503
330
498
100
AcDbEntity
  8
0
  6
SLD-Durchgehend
 62
     7
370
    15
100
AcDbEllipse
 10
57.93467112150003
 20
-7.5
 30
0.0
 11
4.74025905451424
 21
0.0
 31
0.0
210
0.0
220
0.0
230
1.0
 40
0.8965754722000001
 41
4.611121598689901
 42
4.77093259426591
  0
LINE
  5
504
330
498
100
AcDbEntity
  8
0
  6
SLD-Durchgehend
 62
     7
370
    15
100
AcDbLine
 10
58.2120245225
 20
-11.74271895110001
 30
0.0
 11
59.0733346927
 21
-11.74271895110001
 31
0.0
  0
ARC
  5
505
330
498
100
AcDbEntity
  8
0
  6
SLD-Durchgehend
 62
     7
370
    15
100
AcDbCircle
 10
59.02803549310002
 20
-8.636706208800021
 30
0.0
 40
3.10634305462091
100
AcDbArc
 50
270.8355628816004
 51
281.4026112887998
  0
ELLIPSE
  5
506
330
498
100
AcDbEntity
  8
0
  6
SLD-Durchgehend
 62
     7
370
    15
100
AcDbEllipse
 10
78.70586841959998
 20
0.0
 30
0.0
 11
0.0
 21
27.5
 31
0.0
210
0.0
220
0.0
230
1.0
 40
0.2679491924
 41
2.819229550890116
 42
2.921895659608308
  0
LINE
  5
507
330
498
100
AcDbEntity
  8
0
  6
SLD-Durchgehend
 62
     7
370
    15
100
AcDbLine
 10
61.99530892549997
 20
-9.692723112100011
 30
0.0
 11
61.99530892549997
 21
-24.46197147130002
 31
0.0
  0
ARC
  5
508
330
498
100
AcDbEntity
  8
0
  6
SLD-Durchgehend
 62
     7
370
    15
100
AcDbCircle
 10
68.48988957759999
 20
-25.6977087055
 30
0.0
 40
0.7178524865907738
100
AcDbArc
 50
242.0143911885002
 51
288.8539473687998
  0
ARC
  5
509
330
498
100
AcDbEntity
  8
0
  6
SLD-Durchgehend
 62
     7
370
    15
100
AcDbCircle
 10
55.18729719620001
 20
0.0
 30
0.0
 40
27.50000000000016
100
AcDbArc
 50
289.0916829028997
 51
294.3713855335999
  0
ARC
  5
50A
330
498
100
AcDbEntity
  8
0
  6
SLD-Durchgehend
 62
     7
370
    15
100
AcDbCircle
 10
63.95005795970002
 20
-25.400484864
 30
0.0
 40
0.631090855154883
100
AcDbArc
 50
237.7379071105001
 51
291.5647703206999
  0
ELLIPSE
  5
50B
330
498
100
AcDbEntity
  8
0
  6
SLD-Durchgehend
 62
     7
370
    15
100
AcDbEllipse
 10
66.064154262
 20
0.0
 30
0.0
 11
0.0
 21
27.5
 31
0.0
210
0.0
220
0.0
230
1.0
 40
0.2679491924
 41
2.675373242038153
 42
2.80250886191846
  0
ELLIPSE
  5
50C
330
498
100
AcDbEntity
  8
0
  6
SLD-Durchgehend
 62
     7
370
    15
100
AcDbEllipse
 10
108.8859620036
 20
0.0
 30
0.0
 11
102.6313972081432
 21
0.0
 31
0.0
210
0.0
220
0.0
230
1.0
 40
0.2679491924
 41
4.23789982688593
 42
4.246169568833058
  0
ELLIPSE
  5
50D
330
498
100
AcDbEntity
  8
0
  6
SLD-Durchgehend
 62
     7
370
    15
100
AcDbEllipse
 10
70.27805898119999
 20
0.0
 30
0.0
 11
0.0
 21
27.5
 31
0.0
210
0.0
220
0.0
230
1.0
 40
0.2679491924
 41
2.724309885471869
 42
2.849049076202071
  0
ELLIPSE
  5
50E
330
498
100
AcDbEntity
  8
0
  6
SLD-Durchgehend
 62
     7
370
    15
100
AcDbEllipse
 10
108.8859620036
 20
0.0
 30
0.0
 11
102.6313972081432
 21
0.0
 31
0.0
210
0.0
220
0.0
230
1.0
 40
0.2679491924
 41
4.287028059550633
 42
4.295106212266769
  0
ARC
  5
50F
330
498
100
AcDbEntity
  8
0
  6
SLD-Durchgehend
 62
     7
370
    15
100
AcDbCircle
 10
66.69989898729999
 20
0.0
 30
0.0
 40
27.5000000000001
100
AcDbArc
 50
283.8046145243998
 51
288.9159339754
  0
ELLIPSE
  5
510
330
498
100
AcDbEntity
  8
0
  6
SLD-Durchgehend
 62
     7
370
    15
100
AcDbEllipse
 10
74.49196370040002
 20
0.0
 30
0.0
 11
0.0
 21
27.5
 31
0.0
210
0.0
220
0.0
230
1.0
 40
0.2679491924
 41
2.772206188349358
 42
2.894945317480673
  0
ARC
  5
511
330
498
100
AcDbEntity
  8
0
  6
SLD-Durchgehend
 62
     7
370
    15
100
AcDbCircle
 10
73.0296998119
 20
-25.90057390480001
 30
0.0
 40
0.8378567216336474
100
AcDbArc
 50
246.2972873601995
 51
286.0765257671001
  0
ELLIPSE
  5
512
330
498
100
AcDbEntity
  8
0
  6
SLD-Durchgehend
 62
     7
370
    15
100
AcDbEllipse
 10
108.8859620036
 20
0.0
 30
0.0
 11
102.6313972081432
 21
0.0
 31
0.0
210
0.0
220
0.0
230
1.0
 40
0.2679491924
 41
4.335085415548687
 42
4.343002515144259
  0
ARC
  5
513
330
498
100
AcDbEntity
  8
0
  6
SLD-Durchgehend
 62
     7
370
    15
100
AcDbCircle
 10
60.94359809180001
 20
0.0
 30
0.0
 40
27.50000000000012
100
AcDbArc
 50
286.4301484182996
 51
291.6179018602993
  0
ELLIPSE
  5
514
330
498
100
AcDbEntity
  8
0
  6
SLD-Durchgehend
 62
     7
370
    15
100
AcDbEllipse
 10
108.8859620036
 20
0.0
 30
0.0
 11
102.6313972081412
 21
0.0
 31
0.0
210
0.0
220
0.0
230
1.0
 40
0.2679491924
 41
4.382243651423392
 42
4.39002587768502
  0
LINE
  5
515
330
498
100
AcDbEntity
  8
0
  6
SLD-Durchgehend
 62
     7
370
    15
100
AcDbLine
 10
78.0
 20
-26.67152039159998
 30
0.0
 11
78.0
 21
-27.1
 31
0.0
  0
LINE
  5
516
330
498
100
AcDbEntity
  8
0
  6
SLD-Durchgehend
 62
     7
370
    15
100
AcDbLine
 10
77.59999999999998
 20
-27.00388860890001
 30
0.0
 11
78.0
 21
-26.67152039159998
 31
0.0
  0
LINE
  5
517
330
498
100
AcDbEntity
  8
0
  6
SLD-Durchgehend
 62
     7
370
    15
100
AcDbLine
 10
77.59999999999998
 20
-27.00388860890001
 30
0.0
 11
77.59999999999998
 21
-27.5
 31
0.0
  0
ARC
  5
518
330
498
100
AcDbEntity
  8
0
  6
SLD-Durchgehend
 62
     7
370
    15
100
AcDbCircle
 10
82.80000000000002
 20
0.0
 30
0.0
 40
27.50000000000003
100
AcDbArc
 50
259.0324772103999
 51
259.1002645458995
  0
ELLIPSE
  5
519
330
498
100
AcDbEntity
  8
0
  6
SLD-Durchgehend
 62
     7
370
    15
100
AcDbEllipse
 10
97.09393951630005
 20
0.0
 30
0.0
 11
102.6313972081419
 21
0.0
 31
0.0
210
0.0
220
0.0
230
1.0
 40
0.2679491924
 41
4.520027654438329
 42
4.520969596918976
  0
ARC
  5
51A
330
498
100
AcDbEntity
  8
0
  6
SLD-Durchgehend
 62
     7
370
    15
100
AcDbCircle
 10
77.4425668884
 20
-26.5193670536
 30
0.0
 40
0.474397559589808
100
AcDbArc
 50
243.7491938788997
 51
273.6970559474995
  0
ELLIPSE
  5
51B
330
498
100
AcDbEntity
  8
0
  6
SLD-Durchgehend
 62
     7
370
    15
100
AcDbEllipse
 10
78.70586841959998
 20
0.0
 30
0.0
 11
0.0
 21
27.5
 31
0.0
210
0.0
220
0.0
230
1.0
 40
0.2679491924
 41
2.936793552551801
 42
2.940316780334101
  0
ARC
  5
51C
330
498
100
AcDbEntity
  8
0
  6
SLD-Durchgehend
 62
     7
370
    15
100
AcDbCircle
 10
82.80000000000002
 20
0.0
 30
0.0
 40
27.50000000000005
100
AcDbArc
 50
258.0374252062998
 51
258.2658758624003
  0
LINE
  5
51D
330
498
100
AcDbEntity
  8
0
  6
SLD-Durchgehend
 62
     7
370
    15
100
AcDbLine
 10
77.09999999999998
 20
-26.9027879596
 30
0.0
 11
77.09999999999998
 21
-26.838997059
 31
0.0
  0
LINE
  5
51E
330
498
100
AcDbEntity
  8
0
  6
SLD-Durchgehend
 62
     7
370
    15
100
AcDbLine
 10
77.59999999999998
 20
-27.5
 30
0.0
 11
78.0
 21
-27.1
 31
0.0
  0
ELLIPSE
  5
51F
330
498
100
AcDbEntity
  8
0
  6
SLD-Durchgehend
 62
     7
370
    15
100
AcDbEllipse
 10
59.02271574180001
 20
-7.5
 30
0.0
 11
0.0
 21
4.250000000000013
 31
0.0
210
0.0
220
0.0
230
1.0
 40
0.8164965808999998
 41
5.254487585403111
 42
6.10371320659937
  0
ARC
  5
520
330
498
100
AcDbEntity
  8
0
  6
SLD-Durchgehend
 62
     7
370
    15
100
AcDbCircle
 10
49.43099630069999
 20
0.0
 30
0.0
 40
27.50000000000019
100
AcDbArc
 50
62.81377407979958
 51
68.20324472379964
  0
ARC
  5
521
330
498
100
AcDbEntity
  8
0
  6
SLD-Durchgehend
 62
     7
370
    15
100
AcDbCircle
 10
66.7435435461
 20
7.493713559500007
 30
0.0
 40
8.760616043469244
100
AcDbArc
 50
91.80140859369991
 51
209.3463129404002
  0
ARC
  5
522
330
498
100
AcDbEntity
  8
0
  6
SLD-Durchgehend
 62
     7
370
    15
100
AcDbCircle
 10
66.52113163230001
 20
7.150550173199987
 30
0.0
 40
8.400717242801134
100
AcDbArc
 50
208.0494832056994
 51
269.6386492716998
  0
LWPOLYLINE
  5
523
330
498
100
AcDbEntity
  8
0
  6
SLD-Durchgehend
 62
     7
370
    15
100
AcDbPolyline
 90
       46
 70
   128
 43
0.0
 10
59.20549869459998
 20
3.200247798899993
 10
59.85515499799999
 20
2.181500236000005
 10
60.63544003509996
 20
1.266271221299985
 10
61.5311664452
 20
0.4723746465999882
 10
62.52489993250001
 20
-0.1847371945000162
 10
63.59729860519999
 20
-0.6922743673000014
 10
64.72748944279999
 20
-1.040358238199998
 10
65.89347456630003
 20
-1.222213750400015
 10
67.07255940159999
 20
-1.234301293400008
 10
68.2417944035
 20
-1.076385596800008
 10
69.37842174279999
 20
-0.7515403101000118
 10
70.460318261
 20
-0.2660881772000039
 10
71.46642607320001
 20
0.3705220282999875
 10
72.37716243520002
 20
1.145899412800004
 10
73.17480089970001
 20
2.044952137599989
 10
73.84381634119998
 20
3.05018116389999
 10
74.37118713520002
 20
4.142020852399991
 10
74.74664860909999
 20
5.299219785299996
 10
74.96289283240002
 20
6.499254401699999
 10
75.01571085710001
 20
7.718767392800002
 10
74.90407464060002
 20
8.934022325599983
 10
74.63015705480001
 20
10.12136564489999
 10
74.19928959400002
 20
11.25768706369999
 10
73.61985860310003
 20
12.32086937809998
 10
72.90314204730001
 20
13.29021895369997
 10
72.06308999920003
 20
14.14686850369997
 10
71.11605311619998
 20
14.87414431889997
 10
70.08046439410001
 20
15.45789080299998
 10
68.97648038939999
 20
15.8867459945
 10
67.82558889500001
 20
16.15236271499999
 10
66.65019070470001
 20
16.24957103719998
 10
65.4731636072
 20
16.1764789117
 10
64.31741709619998
 20
15.9345089934
 10
63.2054464629
 20
15.5283709518
 10
62.15889495080002
 20
14.96596980169999
 10
61.19813249470002
 20
14.25825204179999
 10
60.34185924279999
 20
13.41899259329998
 10
59.60674158009999
 20
12.46452668679999
 10
59.00708773569999
 20
11.41343191529998
 10
58.55456928959998
 20
10.28616664309998
 10
58.25799399849998
 20
9.104671806399991
 10
58.1231343632
 20
7.891943858299995
 10
58.15261527310003
 20
6.671587168799987
 10
58.34586291580001
 20
5.467354592700003
 10
58.69911594580003
 20
4.302685147399998
 10
59.20549869459998
 20
3.200247798899993
  0
LINE
  5
524
330
498
100
AcDbEntity
  8
0
  6
SLD-Durchgehend
 62
     7
370
     0
100
AcDbLine
 10
59.6421657793
 20
25.5339385501
 30
0.0
 11
59.6421657793
 21
12.6597603127
 31
0.0
  0
LINE
  5
525
330
498
100
AcDbEntity
  8
0
  6
SLD-Durchgehend
 62
     7
370
     0
100
AcDbLine
 10
59.0733346927
 20
25.47245685229998
 30
0.0
 11
59.0733346927
 21
11.73711128299999
 31
0.0
  0
LINE
  5
526
330
498
100
AcDbEntity
  8
0
  6
SLD-Durchgehend
 62
     7
370
     0
100
AcDbLine
 10
55.1023143957
 20
25.01318700619998
 30
0.0
 11
55.1023143957
 21
-4.836268272100013
 31
0.0
  0
LINE
  5
527
330
498
100
AcDbEntity
  8
0
  6
SLD-Durchgehend
 62
     7
370
     0
100
AcDbLine
 10
54.53348330919999
 20
24.94298994159999
 30
0.0
 11
54.53348330919999
 21
-5.640569292999995
 31
0.0
  0
LINE
  5
528
330
498
100
AcDbEntity
  8
0
  6
SLD-Durchgehend
 62
     7
370
    15
100
AcDbLine
 10
58.2120245225
 20
23.91415507129996
 30
0.0
 11
58.2120245225
 21
9.372152042399987
 31
0.0
  0
LINE
  5
529
330
498
100
AcDbEntity
  8
0
  6
SLD-Durchgehend
 62
     7
370
    15
100
AcDbLine
 10
57.45545754200001
 20
23.79791156649996
 30
0.0
 11
57.45545754200001
 21
-3.271773433600016
 31
0.0
  0
LINE
  5
52A
330
498
100
AcDbEntity
  8
0
  6
SLD-Durchgehend
 62
     7
370
    15
100
AcDbLine
 10
53.67217313890001
 20
23.1813084526
 30
0.0
 11
53.67217313890001
 21
-5.640569292999995
 31
0.0
  0
LINE
  5
52B
330
498
100
AcDbEntity
  8
0
  6
SLD-Durchgehend
 62
     7
370
     0
100
AcDbLine
 10
59.0733346927
 20
3.262888716999995
 30
0.0
 11
59.0733346927
 21
-3.257281048899996
 31
0.0
  0
LINE
  5
52C
330
498
100
AcDbEntity
  8
0
  6
SLD-Durchgehend
 62
     7
370
    15
100
AcDbLine
 10
58.2120245225
 20
5.627847957599996
 30
0.0
 11
58.2120245225
 21
-3.257281048899996
 31
0.0
  0
LWPOLYLINE
  5
52D
330
498
100
AcDbEntity
  8
0
  6
SLD-Durchgehend
 62
     7
370
    15
100
AcDbPolyline
 90
       23
 70
   128
 43
0.0
 10
46.66128947689999
 20
0.0
 10
46.68330585559999
 20
-0.5916383694000161
 10
46.74757135589999
 20
-1.1353457167
 10
46.8488795689
 20
-1.587074106100003
 10
46.97902310590001
 20
-1.910227190200004
 10
47.12745851149999
 20
-2.078625027900014
 10
47.28216043169999
 20
-2.078625027900014
 10
47.4305958373
 20
-1.910227190200004
 10
47.5607393743
 20
-1.587074106100003
 10
47.66204758729999
 20
-1.1353457167
 10
47.72631308750002
 20
-0.5916383694000161
 10
47.74832946630001
 20
0.0
 10
47.72631308750002
 20
0.5916383694000018
 10
47.66204758729999
 20
1.1353457167
 10
47.5607393743
 20
1.587074106100003
 10
47.4305958373
 20
1.910227190200004
 10
47.28216043169999
 20
2.07862502799999
 10
47.12745851149999
 20
2.07862502799999
 10
46.97902310590001
 20
1.910227190200004
 10
46.8488795689
 20
1.587074106100003
 10
46.74757135589999
 20
1.1353457167
 10
46.68330585559999
 20
0.5916383694000018
 10
46.66128947689999
 20
0.0
  0
ELLIPSE
  5
52E
330
498
100
AcDbEntity
  8
0
  6
SLD-Durchgehend
 62
     7
370
    15
100
AcDbEllipse
 10
57.80626622990002
 20
-7.5
 30
0.0
 11
0.0
 21
4.250000000000013
 31
0.0
210
0.0
220
0.0
230
1.0
 40
0.8164965808999998
 41
0.1012673816947972
 42
0.8934076271696802
  0
ARC
  5
52F
330
498
100
AcDbEntity
  8
0
  6
SLD-Durchgehend
 62
     7
370
    15
100
AcDbCircle
 10
53.04288976410001
 20
-3.983067462500001
 30
0.0
 40
2.229166085039858
100
AcDbArc
 50
311.9650872609001
 51
337.4962196758995
  0
LINE
  5
530
330
498
100
AcDbEntity
  8
0
  6
SLD-Durchgehend
 62
     7
370
    15
100
AcDbLine
 10
54.53348330919999
 20
-5.640569292999995
 30
0.0
 11
53.67217313890001
 21
-5.640569292999995
 31
0.0
  0
LINE
  5
531
330
498
100
AcDbEntity
  8
0
  6
SLD-Durchgehend
 62
     7
370
     0
100
AcDbLine
 10
59.6421657793
 20
2.340239687299983
 30
0.0
 11
59.6421657793
 21
-3.318263222500006
 31
0.0
  0
ARC
  5
532
330
498
100
AcDbEntity
  8
0
  6
SLD-Durchgehend
 62
     7
370
    15
100
AcDbCircle
 10
59.00577395869999
 20
-6.570945504300012
 30
0.0
 40
3.314353115779055
100
AcDbArc
 50
78.92984049569967
 51
88.8319853339002
  0
LINE
  5
533
330
498
100
AcDbEntity
  8
0
  6
SLD-Durchgehend
 62
     7
370
    15
100
AcDbLine
 10
59.0733346927
 20
-3.257281048899996
 30
0.0
 11
58.2120245225
 21
-3.257281048899996
 31
0.0
  0
ELLIPSE
  5
534
330
498
100
AcDbEntity
  8
0
  6
SLD-Durchgehend
 62
     7
370
    15
100
AcDbEllipse
 10
57.93467112150003
 20
-7.5
 30
0.0
 11
4.74025905451424
 21
0.0
 31
0.0
210
0.0
220
0.0
230
1.0
 40
0.8965754722000001
 41
1.512252712913688
 42
1.672063708489698
  0
ARC
  5
535
330
498
100
AcDbEntity
  8
0
  6
SLD-Durchgehend
 62
     7
370
    15
100
AcDbCircle
 10
37.91839450959999
 20
0.0
 30
0.0
 40
27.50000000000026
100
AcDbArc
 50
56.95119997109976
 51
62.62680975470013
  0
LINE
  5
536
330
498
100
AcDbEntity
  8
0
  6
SLD-Durchgehend
 62
     7
370
    15
100
AcDbLine
 10
48.0
 20
18.00959887069998
 30
0.0
 11
48.0
 21
22.13802539639999
 31
0.0
  0
ELLIPSE
  5
537
330
498
100
AcDbEntity
  8
0
  6
SLD-Durchgehend
 62
     7
370
    15
100
AcDbEllipse
 10
108.8859620036
 20
0.0
 30
0.0
 11
102.6313972081432
 21
0.0
 31
0.0
210
0.0
220
0.0
230
1.0
 40
0.2679491924
 41
2.19224794317849
 42
2.205884981511688
  0
ELLIPSE
  5
538
330
498
100
AcDbEntity
  8
0
  6
SLD-Durchgehend
 62
     7
370
    15
100
AcDbEllipse
 10
53.42244010449999
 20
0.0
 30
0.0
 11
0.0
 21
27.5
 31
0.0
210
0.0
220
0.0
230
1.0
 40
0.2679491924
 41
0.4840037555612029
 42
0.6214516163835923
  0
ARC
  5
539
330
498
100
AcDbEntity
  8
0
  6
SLD-Durchgehend
 62
     7
370
    15
100
AcDbCircle
 10
50.33819461870002
 20
23.9508337538
 30
0.0
 40
0.5207727069075096
100
AcDbArc
 50
64.49147139919985
 51
131.4248691056997
  0
ARC
  5
53A
330
498
100
AcDbEntity
  8
0
  6
SLD-Durchgehend
 62
     7
370
    15
100
AcDbCircle
 10
43.67469540510001
 20
0.0
 30
0.0
 40
27.50000000000019
100
AcDbArc
 50
59.92596485090039
 51
65.44605638849971
  0
ELLIPSE
  5
53B
330
498
100
AcDbEntity
  8
0
  6
SLD-Durchgehend
 62
     7
370
    15
100
AcDbEllipse
 10
108.8859620036
 20
0.0
 30
0.0
 11
102.6313972081432
 21
0.0
 31
0.0
210
0.0
220
0.0
230
1.0
 40
0.2679491924
 41
2.138837005579301
 42
2.147606701132706
  0
ELLIPSE
  5
53C
330
498
100
AcDbEntity
  8
0
  6
SLD-Durchgehend
 62
     7
370
    15
100
AcDbEllipse
 10
57.6363448237
 20
0.0
 30
0.0
 11
0.0
 21
27.5
 31
0.0
210
0.0
220
0.0
230
1.0
 40
0.2679491924
 41
0.4346492028648224
 42
0.5680406787844002
  0
ARC
  5
53D
330
498
100
AcDbEntity
  8
0
  6
SLD-Durchgehend
 62
     7
370
    15
100
AcDbCircle
 10
54.87927027880002
 20
24.48077458590001
 30
0.0
 40
0.5772448903366172
100
AcDbArc
 50
67.26967455270008
 51
126.8004534577999
  0
ELLIPSE
  5
53E
330
498
100
AcDbEntity
  8
0
  6
SLD-Durchgehend
 62
     7
370
    15
100
AcDbEllipse
 10
108.8859620036
 20
0.0
 30
0.0
 11
102.6313972081432
 21
0.0
 31
0.0
210
0.0
220
0.0
230
1.0
 40
0.2679491924
 41
2.087189606571004
 42
2.095687259506866
  0
ELLIPSE
  5
53F
330
498
100
AcDbEntity
  8
0
  6
SLD-Durchgehend
 62
     7
370
    15
100
AcDbEllipse
 10
61.8502495429
 20
0.0
 30
0.0
 11
0.0
 21
27.5
 31
0.0
210
0.0
220
0.0
230
1.0
 40
0.2679491924
 41
0.386401548402836
 42
0.5163932797761098
  0
ARC
  5
540
330
498
100
AcDbEntity
  8
0
  6
SLD-Durchgehend
 62
     7
370
    15
100
AcDbCircle
 10
59.42013285450002
 20
24.92603126099998
 30
0.0
 40
0.6471861337961129
100
AcDbArc
 50
69.9357123494002
 51
122.4019387512999
  0
LINE
  5
541
330
498
100
AcDbEntity
  8
0
  6
SLD-Durchgehend
 62
     7
370
     0
100
AcDbLine
 10
77.4731565326
 20
26.99277735999999
 30
0.0
 11
77.4731565326
 21
2.562827085499989
 31
0.0
  0
LINE
  5
542
330
498
100
AcDbEntity
  8
0
  6
SLD-Durchgehend
 62
     7
370
     0
100
AcDbLine
 10
77.23274022700002
 20
26.94483834139997
 30
0.0
 11
77.23274022700002
 21
2.568705470899999
 31
0.0
  0
LINE
  5
543
330
498
100
AcDbEntity
  8
0
  6
SLD-Durchgehend
 62
     7
370
     0
100
AcDbLine
 10
73.26171992999999
 20
26.70566430399998
 30
0.0
 11
73.26171992999999
 21
12.84024322589998
 31
0.0
  0
LINE
  5
544
330
498
100
AcDbEntity
  8
0
  6
SLD-Durchgehend
 62
     7
370
     0
100
AcDbLine
 10
72.69288884339998
 20
26.6677520181
 30
0.0
 11
72.69288884339998
 21
13.52786550429999
 31
0.0
  0
LINE
  5
545
330
498
100
AcDbEntity
  8
0
  6
SLD-Durchgehend
 62
     7
370
    15
100
AcDbLine
 10
78.0
 20
26.67152039159998
 30
0.0
 11
78.0
 21
2.552369869599985
 31
0.0
  0
LINE
  5
546
330
498
100
AcDbEntity
  8
0
  6
SLD-Durchgehend
 62
     7
370
    15
100
AcDbLine
 10
77.56805501689999
 20
26.99771752749998
 30
0.0
 11
77.56805501689999
 21
2.56222072669999
 31
0.0
  0
LINE
  5
547
330
498
100
AcDbEntity
  8
0
  6
SLD-Durchgehend
 62
     7
370
    15
100
AcDbLine
 10
77.2073122548
 20
2.571098207199979
 30
0.0
 11
77.2073122548
 21
26.92530118280001
 31
0.0
  0
LINE
  5
548
330
498
100
AcDbEntity
  8
0
  6
SLD-Durchgehend
 62
     7
370
    15
100
AcDbLine
 10
77.09999999999998
 20
26.83899705899998
 30
0.0
 11
77.09999999999998
 21
2.581647507199988
 31
0.0
  0
LINE
  5
549
330
498
100
AcDbEntity
  8
0
  6
SLD-Durchgehend
 62
     7
370
    15
100
AcDbLine
 10
75.61486307619998
 20
26.01486911929999
 30
0.0
 11
75.61486307619998
 21
2.680702814099984
 31
0.0
  0
LINE
  5
54A
330
498
100
AcDbEntity
  8
0
  6
SLD-Durchgehend
 62
     7
370
    15
100
AcDbLine
 10
76.37143005670004
 20
26.08345892079998
 30
0.0
 11
76.37143005670004
 21
2.6725748928
 31
0.0
  0
ELLIPSE
  5
54B
330
498
100
AcDbEntity
  8
0
  6
SLD-Durchgehend
 62
     7
370
    15
100
AcDbEllipse
 10
78.70586841959998
 20
-222.5
 30
0.0
 11
0.0
 21
220.0
 31
0.0
210
0.0
220
0.0
230
1.0
 40
0.2679491924
 41
0.0272451093140951
 42
0.039611460656775
  0
ELLIPSE
  5
54C
330
498
100
AcDbEntity
  8
0
  6
SLD-Durchgehend
 62
     7
370
    15
100
AcDbEllipse
 10
78.70586841959998
 20
222.5
 30
0.0
 11
0.0
 21
220.0
 31
0.0
210
0.0
220
0.0
230
1.0
 40
0.2679491924
 41
3.101981192933015
 42
3.114347544275698
  0
LINE
  5
54D
330
498
100
AcDbEntity
  8
0
  6
SLD-Durchgehend
 62
     7
370
    15
100
AcDbLine
 10
78.0
 20
-2.5
 30
0.0
 11
75.0
 21
-2.5
 31
0.0
  0
LINE
  5
54E
330
498
100
AcDbEntity
  8
0
  6
SLD-Durchgehend
 62
     7
370
    15
100
AcDbLine
 10
75.0
 20
2.5
 30
0.0
 11
78.0
 21
2.5
 31
0.0
  0
LINE
  5
54F
330
498
100
AcDbEntity
  8
0
  6
SLD-Durchgehend
 62
     7
370
    15
100
AcDbLine
 10
75.0
 20
-2.656627747900017
 30
0.0
 11
75.0
 21
2.656627747899989
 31
0.0
  0
LINE
  5
550
330
498
100
AcDbEntity
  8
0
  6
SLD-Durchgehend
 62
     7
370
    15
100
AcDbLine
 10
61.99530892549997
 20
0.0757291265999953
 30
0.0
 11
61.99530892549997
 21
-5.307276887900016
 31
0.0
  0
LINE
  5
551
330
498
100
AcDbEntity
  8
0
  6
SLD-Durchgehend
 62
     7
370
    15
100
AcDbLine
 10
66.46815067630001
 20
-1.25
 30
0.0
 11
66.56650191349999
 21
-1.25
 31
0.0
  0
ARC
  5
552
330
498
100
AcDbEntity
  8
0
  6
SLD-Durchgehend
 62
     7
370
    15
100
AcDbCircle
 10
66.69989898729999
 20
-222.5
 30
0.0
 40
220.0
100
AcDbArc
 50
87.67759221359991
 51
87.83784705769999
  0
ELLIPSE
  5
553
330
498
100
AcDbEntity
  8
0
  6
SLD-Durchgehend
 62
     7
370
    15
100
AcDbEllipse
 10
108.8859620036
 20
-222.5
 30
0.0
 11
821.0511776651305
 21
0.0
 31
0.0
210
0.0
220
0.0
230
1.0
 40
0.2679491924
 41
1.610407787451672
 42
1.611329989241444
  0
ARC
  5
554
330
498
100
AcDbEntity
  8
0
  6
SLD-Durchgehend
 62
     7
370
    15
100
AcDbCircle
 10
67.06240986570001
 20
7.382797634400005
 30
0.0
 40
2.884104759707066
100
AcDbArc
 50
274.1402211141998
 51
330.7678732218001
  0
ARC
  5
555
330
498
100
AcDbEntity
  8
0
  6
SLD-Durchgehend
 62
     7
370
    15
100
AcDbCircle
 10
67.06386399180002
 20
7.616692626199977
 30
0.0
 40
2.883576132799283
100
AcDbArc
 50
28.08444799420048
 51
89.02694791580014
  0
LINE
  5
556
330
498
100
AcDbEntity
  8
0
  6
SLD-Durchgehend
 62
     7
370
    15
100
AcDbLine
 10
67.11283330349999
 20
10.499852927
 30
0.0
 11
68.78578389170002
 21
10.4827024545
 31
0.0
  0
LINE
  5
557
330
498
100
AcDbEntity
  8
0
  6
SLD-Durchgehend
 62
     7
370
    15
100
AcDbLine
 10
66.24739813599997
 20
10.51700339959998
 30
0.0
 11
69.59329931240003
 21
10.4827024545
 31
0.0
  0
LINE
  5
558
330
498
100
AcDbEntity
  8
0
  6
SLD-Durchgehend
 62
     7
370
    15
100
AcDbLine
 10
69.53591271279998
 20
4.482996600399985
 30
0.0
 11
66.19001153639999
 21
4.517297545499983
 31
0.0
  0
LWPOLYLINE
  5
559
330
498
100
AcDbEntity
  8
0
  6
SLD-Durchgehend
 62
     7
370
    15
100
AcDbPolyline
 90
       32
 70
   128
 43
0.0
 10
64.21115381490003
 20
5.350123899400003
 10
64.7045146028
 20
4.627117062499991
 10
65.32835731029999
 20
4.021726390499991
 10
66.0571417438
 20
3.558736648899993
 10
66.86103138290002
 20
3.2571026918
 10
67.70711489140001
 20
3.129173449099992
 10
68.560753511
 20
3.180186358999989
 10
69.38699917630001
 20
3.408052946799998
 10
70.15202529270002
 20
3.803444327800006
 10
70.8245116011
 20
4.350173132399986
 10
71.37692643310001
 20
5.025856218999988
 10
71.78665386040002
 20
5.802831042699992
 10
72.03691959420002
 20
6.649288162899977
 10
72.11747772570001
 20
7.530573525699992
 10
72.02503019580001
 20
8.410607204699985
 10
71.763361817
 20
9.253360517800004
 10
71.3431853237
 20
10.0243310453
 10
70.7817027907
 20
10.69195516319999
 10
70.10190137900004
 20
11.22890026169999
 10
69.33161223819999
 20
11.61318374529999
 10
68.5023710962
 20
11.82907300309999
 10
67.64812718290001
 20
11.86772950349997
 10
66.8038533445
 20
11.72757064489999
 10
66.00411425090001
 20
11.41433454739998
 10
65.2816513148
 20
10.9408451335
 10
64.6660422537
 20
10.32648711559998
 10
64.1824901747
 20
9.596412383099988
 10
63.85079175680002
 20
8.780510281399982
 10
63.68452677229999
 20
7.912183938199987
 10
63.6905021291
 20
7.026982736199982
 10
63.86847319540001
 20
6.161146916499987
 10
64.21115381490003
 20
5.350123899400003
  0
LINE
  5
55A
330
498
100
AcDbEntity
  8
0
  6
SLD-Durchgehend
 62
     7
370
    15
100
AcDbLine
 10
64.54575424800001
 20
7.5343009451
 30
0.0
 11
66.24739813599997
 21
10.51700339959998
 31
0.0
  0
ARC
  5
55B
330
498
100
AcDbEntity
  8
0
  6
SLD-Durchgehend
 62
     7
370
    15
100
AcDbCircle
 10
67.08533881550001
 20
7.310637684199988
 30
0.0
 40
2.810699370738845
100
AcDbArc
 50
249.5397300935003
 51
265.0009446247995
  0
LINE
  5
55C
330
498
100
AcDbEntity
  8
0
  6
SLD-Durchgehend
 62
     7
370
    15
100
AcDbLine
 10
66.19001153639999
 20
4.517297545499983
 30
0.0
 11
64.54575424800001
 21
7.5343009451
 31
0.0
  0
ARC
  5
55D
330
498
100
AcDbEntity
  8
0
  6
SLD-Durchgehend
 62
     7
370
    15
100
AcDbCircle
 10
67.08528750759999
 20
7.688670129099987
 30
0.0
 40
2.811317750532227
100
AcDbArc
 50
89.43859668579969
 51
109.5313074730997
  0
LINE
  5
55E
330
498
100
AcDbEntity
  8
0
  6
SLD-Durchgehend
 62
     7
370
    15
100
AcDbLine
 10
66.24270276479997
 20
10.5087731845
 30
0.0
 11
67.11283330349999
 21
10.499852927
 31
0.0
  0
ARC
  5
55F
330
498
100
AcDbEntity
  8
0
  6
SLD-Durchgehend
 62
     7
370
    15
100
AcDbCircle
 10
66.89005563380002
 20
7.500133102299982
 30
0.0
 40
3.091863771902108
100
AcDbArc
 50
330.4301673993996
 51
28.47380896990017
  0
LINE
  5
560
330
498
100
AcDbEntity
  8
0
  6
SLD-Durchgehend
 62
     7
370
    15
100
AcDbLine
 10
69.6079125359
 20
8.974200754699991
 30
0.0
 11
70.43004118009998
 21
7.465699054899985
 31
0.0
  0
LINE
  5
561
330
498
100
AcDbEntity
  8
0
  6
SLD-Durchgehend
 62
     7
370
    15
100
AcDbLine
 10
69.59329931240003
 20
10.4827024545
 30
0.0
 11
71.23755660080002
 21
7.465699054899985
 31
0.0
  0
LINE
  5
562
330
498
100
AcDbEntity
  8
0
  6
SLD-Durchgehend
 62
     7
370
    15
100
AcDbLine
 10
70.43004118009998
 20
7.465699054899985
 30
0.0
 11
69.5792192361
 21
5.974347827599999
 31
0.0
  0
LINE
  5
563
330
498
100
AcDbEntity
  8
0
  6
SLD-Durchgehend
 62
     7
370
    15
100
AcDbLine
 10
69.5792192361
 20
5.974347827599999
 30
0.0
 11
68.73309266330003
 21
4.491226815499985
 31
0.0
  0
LINE
  5
564
330
498
100
AcDbEntity
  8
0
  6
SLD-Durchgehend
 62
     7
370
    15
100
AcDbLine
 10
70.43004118009998
 20
7.465699054899985
 30
0.0
 11
71.23755660080002
 21
7.465699054899985
 31
0.0
  0
LINE
  5
565
330
498
100
AcDbEntity
  8
0
  6
SLD-Durchgehend
 62
     7
370
    15
100
AcDbLine
 10
71.23755660080002
 20
7.465699054899985
 30
0.0
 11
69.53591271279998
 21
4.482996600399985
 31
0.0
  0
ARC
  5
566
330
498
100
AcDbEntity
  8
0
  6
SLD-Durchgehend
 62
     7
370
    15
100
AcDbCircle
 10
66.69989898729999
 20
222.5
 30
0.0
 40
220.0000000000001
100
AcDbArc
 50
272.1621529422999
 51
272.3224077863999
  0
ELLIPSE
  5
567
330
498
100
AcDbEntity
  8
0
  6
SLD-Durchgehend
 62
     7
370
    15
100
AcDbEllipse
 10
108.8859620036
 20
222.5
 30
0.0
 11
821.0511776651308
 21
0.0
 31
0.0
210
0.0
220
0.0
230
1.0
 40
0.2679491924
 41
4.671855317938143
 42
4.672777519727913
  0
LINE
  5
568
330
498
100
AcDbEntity
  8
0
  6
SLD-Durchgehend
 62
     7
370
    15
100
AcDbLine
 10
68.78578389170002
 20
10.4827024545
 30
0.0
 11
69.6079125359
 21
8.974200754699991
 31
0.0
  0
LINE
  5
569
330
498
100
AcDbEntity
  8
0
  6
SLD-Durchgehend
 62
     7
370
    15
100
AcDbLine
 10
68.78578389170002
 20
10.4827024545
 30
0.0
 11
69.59329931240003
 21
10.4827024545
 31
0.0
  0
LINE
  5
56A
330
498
100
AcDbEntity
  8
0
  6
SLD-Durchgehend
 62
     7
370
    15
100
AcDbLine
 10
77.09999999999998
 20
-2.5738533052
 30
0.0
 11
77.09999999999998
 21
-2.581647507200003
 31
0.0
  0
ARC
  5
56B
330
498
100
AcDbEntity
  8
0
  6
SLD-Durchgehend
 62
     7
370
    15
100
AcDbCircle
 10
82.80000000000002
 20
-222.5
 30
0.0
 40
220.0000000000001
100
AcDbArc
 50
91.4566905789999
 51
91.48464769429962
  0
ELLIPSE
  5
56C
330
498
100
AcDbEntity
  8
0
  6
SLD-Durchgehend
 62
     7
370
    15
100
AcDbEllipse
 10
78.70586841959998
 20
-222.5
 30
0.0
 11
0.0
 21
220.0
 31
0.0
210
0.0
220
0.0
230
1.0
 40
0.2679491924
 41
0.0249925529450352
 42
0.0254240467859909
  0
ARC
  5
56D
330
498
100
AcDbEntity
  8
0
  6
SLD-Durchgehend
 62
     7
370
    15
100
AcDbCircle
 10
77.47328900920002
 20
-7.48750034290002
 30
0.0
 40
4.924673259186698
100
AcDbArc
 50
90.00154129070031
 51
92.7997626911002
  0
ELLIPSE
  5
56E
330
498
100
AcDbEntity
  8
0
  6
SLD-Durchgehend
 62
     7
370
    15
100
AcDbEllipse
 10
97.09393951630005
 20
-222.5
 30
0.0
 11
821.0511776651358
 21
0.0
 31
0.0
210
0.0
220
0.0
230
1.0
 40
0.2679491924
 41
1.594580137133136
 42
1.594695751682534
  0
ARC
  5
56F
330
498
100
AcDbEntity
  8
0
  6
SLD-Durchgehend
 62
     7
370
    15
100
AcDbCircle
 10
82.80000000000002
 20
-222.5
 30
0.0
 40
220.0
100
AcDbArc
 50
91.25018893679971
 51
91.36271195310028
  0
LINE
  5
570
330
498
100
AcDbEntity
  8
0
  6
SLD-Durchgehend
 62
     7
370
    15
100
AcDbLine
 10
78.0
 20
-2.552369869500009
 30
0.0
 11
78.0
 21
-2.5
 31
0.0
  0
LINE
  5
571
330
498
100
AcDbEntity
  8
0
  6
SLD-Durchgehend
 62
     7
370
    15
100
AcDbLine
 10
78.0
 20
2.5
 30
0.0
 11
78.0
 21
2.552369869599985
 31
0.0
  0
ARC
  5
572
330
498
100
AcDbEntity
  8
0
  6
SLD-Durchgehend
 62
     7
370
    15
100
AcDbCircle
 10
82.80000000000002
 20
222.5
 30
0.0
 40
220.0000000000001
100
AcDbArc
 50
268.6372880468997
 51
268.7498110632001
  0
ELLIPSE
  5
573
330
498
100
AcDbEntity
  8
0
  6
SLD-Durchgehend
 62
     7
370
    15
100
AcDbEllipse
 10
97.09393951630005
 20
222.5
 30
0.0
 11
821.0511776651358
 21
0.0
 31
0.0
210
0.0
220
0.0
230
1.0
 40
0.2679491924
 41
4.688489555497054
 42
4.688605170046454
  0
ARC
  5
574
330
498
100
AcDbEntity
  8
0
  6
SLD-Durchgehend
 62
     7
370
    15
100
AcDbCircle
 10
77.43712577380001
 20
6.008483418599992
 30
0.0
 40
3.445844712290633
100
AcDbArc
 50
266.5995836951997
 51
270.5991123228999
  0
ELLIPSE
  5
575
330
498
100
AcDbEntity
  8
0
  6
SLD-Durchgehend
 62
     7
370
    15
100
AcDbEllipse
 10
78.70586841959998
 20
222.5
 30
0.0
 11
0.0
 21
220.0
 31
0.0
210
0.0
220
0.0
230
1.0
 40
0.2679491924
 41
3.116168606803801
 42
3.116600100644758
  0
ARC
  5
576
330
498
100
AcDbEntity
  8
0
  6
SLD-Durchgehend
 62
     7
370
    15
100
AcDbCircle
 10
82.80000000000002
 20
222.5
 30
0.0
 40
220.0000000000001
100
AcDbArc
 50
268.5153523056996
 51
268.5433094210001
  0
LINE
  5
577
330
498
100
AcDbEntity
  8
0
  6
SLD-Durchgehend
 62
     7
370
    15
100
AcDbLine
 10
77.09999999999998
 20
2.581647507199988
 30
0.0
 11
77.09999999999998
 21
2.573853305300005
 31
0.0
  0
ELLIPSE
  5
578
330
498
100
AcDbEntity
  8
0
  6
SLD-Durchgehend
 62
     7
370
    15
100
AcDbEllipse
 10
78.70586841959998
 20
0.0
 30
0.0
 11
0.0
 21
27.5
 31
0.0
210
0.0
220
0.0
230
1.0
 40
0.2679491924
 41
0.2196969939814834
 42
0.3223631026996744
  0
LINE
  5
579
330
498
100
AcDbEntity
  8
0
  6
SLD-Durchgehend
 62
     7
370
     0
100
AcDbLine
 10
68.7218685464
 20
26.37704510999998
 30
0.0
 11
68.7218685464
 21
15.96069472459999
 31
0.0
  0
LINE
  5
57A
330
498
100
AcDbEntity
  8
0
  6
SLD-Durchgehend
 62
     7
370
     0
100
AcDbLine
 10
68.15303745990002
 20
26.33161945889998
 30
0.0
 11
68.15303745990002
 21
16.09445668249999
 31
0.0
  0
LINE
  5
57B
330
498
100
AcDbEntity
  8
0
  6
SLD-Durchgehend
 62
     7
370
     0
100
AcDbLine
 10
64.18201716279998
 20
25.9874010382
 30
0.0
 11
64.18201716279998
 21
15.92382659239999
 31
0.0
  0
LINE
  5
57C
330
498
100
AcDbEntity
  8
0
  6
SLD-Durchgehend
 62
     7
370
     0
100
AcDbLine
 10
63.61318607630003
 20
25.93414486969999
 30
0.0
 11
63.61318607630003
 21
15.73568299419999
 31
0.0
  0
ELLIPSE
  5
57D
330
498
100
AcDbEntity
  8
0
  6
SLD-Durchgehend
 62
     7
370
    15
100
AcDbEllipse
 10
66.064154262
 20
0.0
 30
0.0
 11
0.0
 21
27.5
 31
0.0
210
0.0
220
0.0
230
1.0
 40
0.2679491924
 41
0.3390837916713305
 42
0.4662194115516403
  0
ARC
  5
57E
330
498
100
AcDbEntity
  8
0
  6
SLD-Durchgehend
 62
     7
370
    15
100
AcDbCircle
 10
55.18729719620001
 20
0.0
 30
0.0
 40
27.50000000000012
100
AcDbArc
 50
65.62861446640008
 51
70.90831709710027
  0
ELLIPSE
  5
57F
330
498
100
AcDbEntity
  8
0
  6
SLD-Durchgehend
 62
     7
370
    15
100
AcDbEllipse
 10
70.27805898119999
 20
0.0
 30
0.0
 11
0.0
 21
27.5
 31
0.0
210
0.0
220
0.0
230
1.0
 40
0.2679491924
 41
0.2925435773877222
 42
0.4172827681179249
  0
ARC
  5
580
330
498
100
AcDbEntity
  8
0
  6
SLD-Durchgehend
 62
     7
370
    15
100
AcDbCircle
 10
60.94359809180001
 20
0.0
 30
0.0
 40
27.5000000000001
100
AcDbArc
 50
68.38209813970036
 51
73.56985158170037
  0
ELLIPSE
  5
581
330
498
100
AcDbEntity
  8
0
  6
SLD-Durchgehend
 62
     7
370
    15
100
AcDbEllipse
 10
74.49196370040002
 20
0.0
 30
0.0
 11
0.0
 21
27.5
 31
0.0
210
0.0
220
0.0
230
1.0
 40
0.2679491924
 41
0.2466473361091183
 42
0.3693864652404357
  0
LINE
  5
582
330
498
100
AcDbEntity
  8
0
  6
SLD-Durchgehend
 62
     7
370
    15
100
AcDbLine
 10
66.53516030910001
 20
25.04947110759998
 30
0.0
 11
66.53516030910001
 21
16.25
 31
0.0
  0
LINE
  5
583
330
498
100
AcDbEntity
  8
0
  6
SLD-Durchgehend
 62
     7
370
    15
100
AcDbLine
 10
67.2917272896
 20
25.14032256519999
 30
0.0
 11
67.2917272896
 21
16.21772828839999
 31
0.0
  0
LINE
  5
584
330
498
100
AcDbEntity
  8
0
  6
SLD-Durchgehend
 62
     7
370
    15
100
AcDbLine
 10
61.99530892549997
 20
24.46197147139997
 30
0.0
 11
61.99530892549997
 21
14.92427087339999
 31
0.0
  0
LINE
  5
585
330
498
100
AcDbEntity
  8
0
  6
SLD-Durchgehend
 62
     7
370
    15
100
AcDbLine
 10
62.75187590599998
 20
24.56503745459996
 30
0.0
 11
62.75187590599998
 21
15.35876824419999
 31
0.0
  0
LINE
  5
586
330
498
100
AcDbEntity
  8
0
  6
SLD-Durchgehend
 62
     7
370
    15
100
AcDbLine
 10
66.56650191349999
 20
16.25
 30
0.0
 11
66.46815067630001
 21
16.25
 31
0.0
  0
ELLIPSE
  5
587
330
498
100
AcDbEntity
  8
0
  6
SLD-Durchgehend
 62
     7
370
    15
100
AcDbEllipse
 10
108.8859620036
 20
0.0
 30
0.0
 11
102.6313972081432
 21
0.0
 31
0.0
210
0.0
220
0.0
230
1.0
 40
0.2679491924
 41
2.037015738346533
 42
2.045285480293668
  0
ELLIPSE
  5
588
330
498
100
AcDbEntity
  8
0
  6
SLD-Durchgehend
 62
     7
370
    15
100
AcDbEllipse
 10
108.8859620036
 20
0.0
 30
0.0
 11
102.6313972081432
 21
0.0
 31
0.0
210
0.0
220
0.0
230
1.0
 40
0.2679491924
 41
1.988079094912828
 42
1.996157247628964
  0
LINE
  5
589
330
498
100
AcDbEntity
  8
0
  6
SLD-Durchgehend
 62
     7
370
    15
100
AcDbLine
 10
71.07501169259998
 20
25.5656890861
 30
0.0
 11
71.07501169259998
 21
14.90111147149996
 31
0.0
  0
LINE
  5
58A
330
498
100
AcDbEntity
  8
0
  6
SLD-Durchgehend
 62
     7
370
    15
100
AcDbLine
 10
71.8315786732
 20
25.64509842819998
 30
0.0
 11
71.8315786732
 21
14.3447926244
 31
0.0
  0
ELLIPSE
  5
58B
330
498
100
AcDbEntity
  8
0
  6
SLD-Durchgehend
 62
     7
370
    15
100
AcDbEllipse
 10
108.8859620036
 20
0.0
 30
0.0
 11
102.6313972081432
 21
0.0
 31
0.0
210
0.0
220
0.0
230
1.0
 40
0.2679491924
 41
1.940182792035331
 42
1.94809989163091
  0
ARC
  5
58C
330
498
100
AcDbEntity
  8
0
  6
SLD-Durchgehend
 62
     7
370
    15
100
AcDbCircle
 10
68.50140096540002
 20
25.55356029799998
 30
0.0
 40
0.8524864749176501
100
AcDbArc
 50
75.0119783604001
 51
114.1196830824003
  0
ARC
  5
58D
330
498
100
AcDbEntity
  8
0
  6
SLD-Durchgehend
 62
     7
370
    15
100
AcDbCircle
 10
63.96083026099996
 20
25.285425519
 30
0.0
 40
0.7359981489170231
100
AcDbArc
 50
72.51077507170015
 51
118.1865474971997
  0
ARC
  5
58E
330
498
100
AcDbEntity
  8
0
  6
SLD-Durchgehend
 62
     7
370
    15
100
AcDbCircle
 10
73.0418798734
 20
25.71782581989998
 30
0.0
 40
1.012005198183004
100
AcDbArc
 50
77.45348482029989
 51
110.1727020525
  0
ARC
  5
58F
330
498
100
AcDbEntity
  8
0
  6
SLD-Durchgehend
 62
     7
370
    15
100
AcDbCircle
 10
66.69989898729999
 20
0.0
 30
0.0
 40
27.50000000000005
100
AcDbArc
 50
71.08406602459997
 51
76.19538547559996
  0
ELLIPSE
  5
590
330
498
100
AcDbEntity
  8
0
  6
SLD-Durchgehend
 62
     7
370
    15
100
AcDbEllipse
 10
108.8859620036
 20
0.0
 30
0.0
 11
102.6313972081412
 21
0.0
 31
0.0
210
0.0
220
0.0
230
1.0
 40
0.2679491924
 41
1.893159429494575
 42
1.900941655756199
  0
LINE
  5
591
330
498
100
AcDbEntity
  8
0
  6
SLD-Durchgehend
 62
     7
370
    15
100
AcDbLine
 10
78.0
 20
27.09999999999999
 30
0.0
 11
78.0
 21
26.67152039159998
 31
0.0
  0
LINE
  5
592
330
498
100
AcDbEntity
  8
0
  6
SLD-Durchgehend
 62
     7
370
    15
100
AcDbLine
 10
78.0
 20
26.67152039159998
 30
0.0
 11
77.59999999999998
 21
27.00388860889998
 31
0.0
  0
LINE
  5
593
330
498
100
AcDbEntity
  8
0
  6
SLD-Durchgehend
 62
     7
370
    15
100
AcDbLine
 10
77.09999999999998
 20
26.83899705899998
 30
0.0
 11
77.09999999999998
 21
26.90278795959996
 31
0.0
  0
ARC
  5
594
330
498
100
AcDbEntity
  8
0
  6
SLD-Durchgehend
 62
     7
370
    15
100
AcDbCircle
 10
82.80000000000002
 20
0.0
 30
0.0
 40
27.50000000000005
100
AcDbArc
 50
101.7341241375996
 51
101.9625747936999
  0
ELLIPSE
  5
595
330
498
100
AcDbEntity
  8
0
  6
SLD-Durchgehend
 62
     7
370
    15
100
AcDbEllipse
 10
78.70586841959998
 20
0.0
 30
0.0
 11
0.0
 21
27.5
 31
0.0
210
0.0
220
0.0
230
1.0
 40
0.2679491924
 41
0.2012758732556922
 42
0.2047991010379932
  0
ARC
  5
596
330
498
100
AcDbEntity
  8
0
  6
SLD-Durchgehend
 62
     7
370
    15
100
AcDbCircle
 10
77.47732509599998
 20
26.34505310049998
 30
0.0
 40
0.6477376732413341
100
AcDbArc
 50
90.36873374700016
 51
112.1850164266995
  0
ELLIPSE
  5
597
330
498
100
AcDbEntity
  8
0
  6
SLD-Durchgehend
 62
     7
370
    15
100
AcDbEllipse
 10
97.09393951630005
 20
0.0
 30
0.0
 11
102.6313972081419
 21
0.0
 31
0.0
210
0.0
220
0.0
230
1.0
 40
0.2679491924
 41
1.762215710260615
 42
1.763157652741263
  0
ARC
  5
598
330
498
100
AcDbEntity
  8
0
  6
SLD-Durchgehend
 62
     7
370
    15
100
AcDbCircle
 10
82.80000000000002
 20
0.0
 30
0.0
 40
27.50000000000003
100
AcDbArc
 50
100.8997354541002
 51
100.9675227896
  0
LINE
  5
599
330
498
100
AcDbEntity
  8
0
  6
SLD-Durchgehend
 62
     7
370
    15
100
AcDbLine
 10
77.59999999999998
 20
27.5
 30
0.0
 11
77.59999999999998
 21
27.00388860889998
 31
0.0
  0
LINE
  5
59A
330
498
100
AcDbEntity
  8
0
  6
SLD-Durchgehend
 62
     7
370
    15
100
AcDbLine
 10
78.0
 20
27.09999999999999
 30
0.0
 11
77.59999999999998
 21
27.5
 31
0.0
  0
ENDBLK
  5
59C
330
498
100
AcDbEntity
  8
0
 62
     0
100
AcDbBlockEnd
  0
BLOCK
  5
BE7
330
BDE
100
AcDbEntity
  8
0
100
AcDbBlockBegin
  2
*D9
 70
     1
 10
0.0
 20
0.0
 30
0.0
  3
*D9
  1

  0
SOLID
  5
BDF
330
BDE
100
AcDbEntity
  8
VERMASSUNG
100
AcDbTrace
 10
105.9531674968
 20
123.7115945607
 30
0.0
 11
105.5031674967999
 21
120.7115945606999
 31
0.0
 12
106.4031674968
 22
120.7115945606999
 32
0.0
 13
106.4031674968
 23
120.7115945606999
 33
0.0
  0
SOLID
  5
BE0
330
BDE
100
AcDbEntity
  8
VERMASSUNG
100
AcDbTrace
 10
105.9531674968
 20
98.7115945607
 30
0.0
 11
106.4031674968
 21
101.7115945607
 31
0.0
 12
105.5031674967999
 22
101.7115945607
 32
0.0
 13
105.5031674967999
 23
101.7115945607
 33
0.0
  0
LINE
  5
BE1
330
BDE
100
AcDbEntity
  8
VERMASSUNG
100
AcDbLine
 10
127.1576804564999
 20
123.7115945607
 30
0.0
 11
104.9531674968
 21
123.7115945607
 31
0.0
  0
LINE
  5
BE2
330
BDE
100
AcDbEntity
  8
VERMASSUNG
100
AcDbLine
 10
127.1576804564999
 20
98.7115945607
 30
0.0
 11
104.9531674968
 21
98.7115945607
 31
0.0
  0
LINE
  5
BE3
330
BDE
100
AcDbEntity
  8
VERMASSUNG
100
AcDbLine
 10
105.9531674968
 20
123.7115945607
 30
0.0
 11
105.9531674968
 21
98.7115945607
 31
0.0
  0
MTEXT
  5
BE4
330
BDE
100
AcDbEntity
  8
VERMASSUNG
100
AcDbMText
 10
103.1531677202
 20
105.0544898519
 30
0.0
 40
2.0
 41
0.0
 71
     1
 72
     1
  1
{MBM}
  7
SLDTEXTSTYLE0
 11
-0.000000000000007
 21
1.0
 31
0.0
 73
     1
 44
1.0
  0
MTEXT
  5
BE5
330
BDE
100
AcDbEntity
  8
VERMASSUNG
100
AcDbMText
 10
103.3531676715
 20
110.2544898661
 30
0.0
 40
2.0
 41
0.0
 71
     1
 72
     1
  1
{%%c}
  7
SLDTEXTSTYLE0
 11
-0.000000000000007
 21
1.0
 31
0.0
 73
     1
 44
1.0
  0
MTEXT
  5
BE6
330
BDE
100
AcDbEntity
  8
VERMASSUNG
100
AcDbMText
 10
103.3531673804
 20
113.8634686428
 30
0.0
 40
2.0
 41
0.0
 71
     1
 72
     1
  1
{25}
  7
SLDTEXTSTYLE0
 11
-0.000000000000007
 21
1.0
 31
0.0
 73
     1
 44
1.0
  0
ENDBLK
  5
BE8
330
BDE
100
AcDbEntity
  8
0
100
AcDbBlockEnd
  0
BLOCK
  5
1069
330
105F
100
AcDbEntity
  8
0
 62
     0
100
AcDbBlockBegin
  2
*D10
 70
     1
 10
0.0
 20
0.0
 30
0.0
  3
*D10
  1

  0
LINE
  5
14C2
330
105F
100
AcDbEntity
  8
SK2
 62
     0
370
    -2
100
AcDbLine
 10
-71.61113140067083
 20
-30.69591496137629
 30
0.0
 11
-91.19282386949107
 21
-30.69591496137628
 31
0.0
  0
LINE
  5
14C3
330
105F
100
AcDbEntity
  8
SK2
 62
     0
370
    -2
100
AcDbLine
 10
-71.61113140067083
 20
-55.69591496137629
 30
0.0
 11
-91.19282386949107
 21
-55.69591496137629
 31
0.0
  0
LINE
  5
14C4
330
105F
100
AcDbEntity
  8
SK2
 62
     0
370
    -2
100
AcDbLine
 10
-88.69282386949107
 20
-35.26591496137628
 30
0.0
 11
-88.69282386949107
 21
-51.12591496137628
 31
0.0
  0
SOLID
  5
14C5
330
105F
100
AcDbEntity
  8
SK2
 62
     0
100
AcDbTrace
 10
-89.45449053615773
 20
-35.26591496137628
 30
0.0
 11
-87.93115720282441
 21
-35.26591496137628
 31
0.0
 12
-88.69282386949107
 22
-30.69591496137628
 32
0.0
 13
-88.69282386949107
 23
-30.69591496137628
 33
0.0
  0
SOLID
  5
14C6
330
105F
100
AcDbEntity
  8
SK2
 62
     0
100
AcDbTrace
 10
-89.45449053615773
 20
-51.12591496137628
 30
0.0
 11
-87.93115720282441
 21
-51.12591496137628
 31
0.0
 12
-88.69282386949107
 22
-55.69591496137629
 32
0.0
 13
-88.69282386949107
 23
-55.69591496137629
 33
0.0
  0
MTEXT
  5
14C7
330
105F
100
AcDbEntity
  8
SK2
 62
     7
100
AcDbMText
 10
-92.47782386949106
 20
-43.19591496137628
 30
0.0
 40
4.57
 41
0.0
 71
     5
 72
     1
  1
\A1;MBM%%c25
  7
GENPRESET
 11
0.0000000000000001
 21
1.0
 31
0.0
 73
     1
 44
1.0
  0
POINT
  5
14C8
330
105F
100
AcDbEntity
  8
Defpoints
 62
     0
100
AcDbPoint
 10
-71.61113140067083
 20
-30.69591496137629
 30
0.0
  0
POINT
  5
14C9
330
105F
100
AcDbEntity
  8
Defpoints
 62
     0
100
AcDbPoint
 10
-71.61113140067083
 20
-55.69591496137629
 30
0.0
  0
POINT
  5
14CA
330
105F
100
AcDbEntity
  8
Defpoints
 62
     0
100
AcDbPoint
 10
-88.69282386949107
 20
-55.69591496137629
 30
0.0
  0
ENDBLK
  5
106A
330
105F
100
AcDbEntity
  8
0
 62
     0
100
AcDbBlockEnd
  0
BLOCK
  5
107B
330
1074
100
AcDbEntity
  8
0
100
AcDbBlockBegin
  2
*D11
 70
     1
 10
0.0
 20
0.0
 30
0.0
  3
*D11
  1

  0
SOLID
  5
1075
330
1074
100
AcDbEntity
  8
VERMASSUNG
100
AcDbTrace
 10
126.9576804564999
 20
127.1266100962999
 30
0.0
 11
129.9576804564999
 21
126.6766100963
 31
0.0
 12
129.9576804564999
 22
127.5766100962999
 32
0.0
 13
129.9576804564999
 23
127.5766100962999
 33
0.0
  0
SOLID
  5
1076
330
1074
100
AcDbEntity
  8
VERMASSUNG
100
AcDbTrace
 10
160.7576804565
 20
127.1266100962999
 30
0.0
 11
157.7576804565
 21
127.5766100962999
 31
0.0
 12
157.7576804565
 22
126.6766100963
 32
0.0
 13
157.7576804565
 23
126.6766100963
 33
0.0
  0
LINE
  5
1077
330
1074
100
AcDbEntity
  8
VERMASSUNG
100
AcDbLine
 10
126.9576804564999
 20
123.5115945606999
 30
0.0
 11
126.9576804564999
 21
128.1266100962999
 31
0.0
  0
LINE
  5
1078
330
1074
100
AcDbEntity
  8
VERMASSUNG
100
AcDbLine
 10
160.7576804565
 20
123.1915517012
 30
0.0
 11
160.7576804565
 21
128.1266100962999
 31
0.0
  0
LINE
  5
1079
330
1074
100
AcDbEntity
  8
VERMASSUNG
100
AcDbLine
 10
126.9576804564999
 20
127.1266100962999
 30
0.0
 11
160.7576804565
 21
127.1266100962999
 31
0.0
  0
MTEXT
  5
107A
330
1074
100
AcDbEntity
  8
VERMASSUNG
100
AcDbMText
 10
141.2353683079
 20
129.7266102126999
 30
0.0
 40
2.0
 41
0.0
 71
     1
 72
     1
  1
{33.8}
  7
SLDTEXTSTYLE0
 73
     1
 44
1.0
  0
ENDBLK
  5
107C
330
1074
100
AcDbEntity
  8
0
100
AcDbBlockEnd
  0
BLOCK
  5
108D
330
1083
100
AcDbEntity
  8
0
 62
     0
100
AcDbBlockBegin
  2
*D12
 70
     1
 10
0.0
 20
0.0
 30
0.0
  3
*D12
  1

  0
LINE
  5
108F
330
1083
100
AcDbEntity
  8
VERMASSUNG
 62
     0
370
    -2
100
AcDbLine
 10
126.9576804564999
 20
123.5115945606999
 30
0.0
 11
126.9576804564999
 21
128.1266100962999
 31
0.0
  0
LINE
  5
1090
330
1083
100
AcDbEntity
  8
VERMASSUNG
 62
     0
370
    -2
100
AcDbLine
 10
160.7576804565
 20
123.1915517012
 30
0.0
 11
160.7576804565
 21
128.1266100962999
 31
0.0
  0
LINE
  5
1091
330
1083
100
AcDbEntity
  8
VERMASSUNG
 62
     0
370
    -2
100
AcDbLine
 10
129.9576804564999
 20
127.1266100962999
 30
0.0
 11
157.7576804565
 21
127.1266100962999
 31
0.0
  0
SOLID
  5
1092
330
1083
100
AcDbEntity
  8
VERMASSUNG
 62
     0
100
AcDbTrace
 10
129.9576804564999
 20
127.6266100963
 30
0.0
 11
129.9576804564999
 21
126.6266100963
 31
0.0
 12
126.9576804564999
 22
127.1266100962999
 32
0.0
 13
126.9576804564999
 23
127.1266100962999
 33
0.0
  0
SOLID
  5
1093
330
1083
100
AcDbEntity
  8
VERMASSUNG
 62
     0
100
AcDbTrace
 10
157.7576804565
 20
127.6266100963
 30
0.0
 11
157.7576804565
 21
126.6266100963
 31
0.0
 12
160.7576804565
 22
127.1266100962999
 32
0.0
 13
160.7576804565
 23
127.1266100962999
 33
0.0
  0
MTEXT
  5
1094
330
1083
100
AcDbEntity
  8
VERMASSUNG
 62
     0
100
AcDbMText
 10
142.6342688033999
 20
130.6506100963
 30
0.0
 40
2.0
 41
0.0
 71
     1
 72
     1
  1
\A1;17
  7
SLDTEXTSTYLE0
 73
     1
 44
1.0
  0
POINT
  5
1095
330
1083
100
AcDbEntity
  8
Defpoints
 62
     0
100
AcDbPoint
 10
126.9576804564999
 20
123.5115945606999
 30
0.0
  0
POINT
  5
1096
330
1083
100
AcDbEntity
  8
Defpoints
 62
     0
100
AcDbPoint
 10
160.7576804565
 20
123.1915517012
 30
0.0
  0
POINT
  5
1097
330
1083
100
AcDbEntity
  8
Defpoints
 62
     0
100
AcDbPoint
 10
160.7576804565
 20
127.1266100962999
 30
0.0
  0
ENDBLK
  5
108E
330
1083
100
AcDbEntity
  8
0
 62
     0
100
AcDbBlockEnd
  0
BLOCK
  5
109F
330
1098
100
AcDbEntity
  8
0
100
AcDbBlockBegin
  2
*D13
 70
     1
 10
0.0
 20
0.0
 30
0.0
  3
*D13
  1

  0
SOLID
  5
1099
330
1098
100
AcDbEntity
  8
VERMASSUNG
100
AcDbTrace
 10
126.9576804564999
 20
127.1266100962999
 30
0.0
 11
129.9576804564999
 21
126.6766100963
 31
0.0
 12
129.9576804564999
 22
127.5766100962999
 32
0.0
 13
129.9576804564999
 23
127.5766100962999
 33
0.0
  0
SOLID
  5
109A
330
1098
100
AcDbEntity
  8
VERMASSUNG
100
AcDbTrace
 10
160.7576804565
 20
127.1266100962999
 30
0.0
 11
157.7576804565
 21
127.5766100962999
 31
0.0
 12
157.7576804565
 22
126.6766100963
 32
0.0
 13
157.7576804565
 23
126.6766100963
 33
0.0
  0
LINE
  5
109B
330
1098
100
AcDbEntity
  8
VERMASSUNG
100
AcDbLine
 10
126.9576804564999
 20
123.5115945606999
 30
0.0
 11
126.9576804564999
 21
128.1266100962999
 31
0.0
  0
LINE
  5
109C
330
1098
100
AcDbEntity
  8
VERMASSUNG
100
AcDbLine
 10
160.7576804565
 20
123.1915517012
 30
0.0
 11
160.7576804565
 21
128.1266100962999
 31
0.0
  0
LINE
  5
109D
330
1098
100
AcDbEntity
  8
VERMASSUNG
100
AcDbLine
 10
126.9576804564999
 20
127.1266100962999
 30
0.0
 11
160.7576804565
 21
127.1266100962999
 31
0.0
  0
MTEXT
  5
109E
330
1098
100
AcDbEntity
  8
VERMASSUNG
100
AcDbMText
 10
141.2353683079
 20
129.7266102126999
 30
0.0
 40
2.0
 41
0.0
 71
     1
 72
     1
  1
{33.8}
  7
SLDTEXTSTYLE0
 73
     1
 44
1.0
  0
ENDBLK
  5
10A0
330
1098
100
AcDbEntity
  8
0
100
AcDbBlockEnd
  0
BLOCK
  5
10B1
330
10A7
100
AcDbEntity
  8
0
 62
     0
100
AcDbBlockBegin
  2
*D14
 70
     1
 10
0.0
 20
0.0
 30
0.0
  3
*D14
  1

  0
LINE
  5
10B3
330
10A7
100
AcDbEntity
  8
VERMASSUNG
 62
     0
370
    -2
100
AcDbLine
 10
126.9576804564999
 20
123.5115945606999
 30
0.0
 11
126.9576804564999
 21
128.1266100962999
 31
0.0
  0
LINE
  5
10B4
330
10A7
100
AcDbEntity
  8
VERMASSUNG
 62
     0
370
    -2
100
AcDbLine
 10
160.7576804565
 20
123.1915517012
 30
0.0
 11
160.7576804565
 21
128.1266100962999
 31
0.0
  0
LINE
  5
10B5
330
10A7
100
AcDbEntity
  8
VERMASSUNG
 62
     0
370
    -2
100
AcDbLine
 10
129.9576804564999
 20
127.1266100962999
 30
0.0
 11
157.7576804565
 21
127.1266100962999
 31
0.0
  0
SOLID
  5
10B6
330
10A7
100
AcDbEntity
  8
VERMASSUNG
 62
     0
100
AcDbTrace
 10
129.9576804564999
 20
127.6266100963
 30
0.0
 11
129.9576804564999
 21
126.6266100963
 31
0.0
 12
126.9576804564999
 22
127.1266100962999
 32
0.0
 13
126.9576804564999
 23
127.1266100962999
 33
0.0
  0
SOLID
  5
10B7
330
10A7
100
AcDbEntity
  8
VERMASSUNG
 62
     0
100
AcDbTrace
 10
157.7576804565
 20
127.6266100963
 30
0.0
 11
157.7576804565
 21
126.6266100963
 31
0.0
 12
160.7576804565
 22
127.1266100962999
 32
0.0
 13
160.7576804565
 23
127.1266100962999
 33
0.0
  0
MTEXT
  5
10B8
330
10A7
100
AcDbEntity
  8
VERMASSUNG
 62
     0
100
AcDbMText
 10
142.6342688033999
 20
130.6506100963
 30
0.0
 40
2.0
 41
0.0
 71
     1
 72
     1
  1
\A1;17
  7
SLDTEXTSTYLE0
 73
     1
 44
1.0
  0
POINT
  5
10B9
330
10A7
100
AcDbEntity
  8
Defpoints
 62
     0
100
AcDbPoint
 10
126.9576804564999
 20
123.5115945606999
 30
0.0
  0
POINT
  5
10BA
330
10A7
100
AcDbEntity
  8
Defpoints
 62
     0
100
AcDbPoint
 10
160.7576804565
 20
123.1915517012
 30
0.0
  0
POINT
  5
10BB
330
10A7
100
AcDbEntity
  8
Defpoints
 62
     0
100
AcDbPoint
 10
160.7576804565
 20
127.1266100962999
 30
0.0
  0
ENDBLK
  5
10B2
330
10A7
100
AcDbEntity
  8
0
 62
     0
100
AcDbBlockEnd
  0
BLOCK
  5
10C3
330
10BC
100
AcDbEntity
  8
0
100
AcDbBlockBegin
  2
*D15
 70
     1
 10
0.0
 20
0.0
 30
0.0
  3
*D15
  1

  0
SOLID
  5
10BD
330
10BC
100
AcDbEntity
  8
VERMASSUNG
100
AcDbTrace
 10
126.9576804564999
 20
127.1266100962999
 30
0.0
 11
129.9576804564999
 21
126.6766100963
 31
0.0
 12
129.9576804564999
 22
127.5766100962999
 32
0.0
 13
129.9576804564999
 23
127.5766100962999
 33
0.0
  0
SOLID
  5
10BE
330
10BC
100
AcDbEntity
  8
VERMASSUNG
100
AcDbTrace
 10
160.7576804565
 20
127.1266100962999
 30
0.0
 11
157.7576804565
 21
127.5766100962999
 31
0.0
 12
157.7576804565
 22
126.6766100963
 32
0.0
 13
157.7576804565
 23
126.6766100963
 33
0.0
  0
LINE
  5
10BF
330
10BC
100
AcDbEntity
  8
VERMASSUNG
100
AcDbLine
 10
126.9576804564999
 20
123.5115945606999
 30
0.0
 11
126.9576804564999
 21
128.1266100962999
 31
0.0
  0
LINE
  5
10C0
330
10BC
100
AcDbEntity
  8
VERMASSUNG
100
AcDbLine
 10
160.7576804565
 20
123.1915517012
 30
0.0
 11
160.7576804565
 21
128.1266100962999
 31
0.0
  0
LINE
  5
10C1
330
10BC
100
AcDbEntity
  8
VERMASSUNG
100
AcDbLine
 10
126.9576804564999
 20
127.1266100962999
 30
0.0
 11
160.7576804565
 21
127.1266100962999
 31
0.0
  0
MTEXT
  5
10C2
330
10BC
100
AcDbEntity
  8
VERMASSUNG
100
AcDbMText
 10
141.2353683079
 20
129.7266102126999
 30
0.0
 40
2.0
 41
0.0
 71
     1
 72
     1
  1
{33.8}
  7
SLDTEXTSTYLE0
 73
     1
 44
1.0
  0
ENDBLK
  5
10C4
330
10BC
100
AcDbEntity
  8
0
100
AcDbBlockEnd
  0
BLOCK
  5
10D5
330
10CB
100
AcDbEntity
  8
0
 62
     0
100
AcDbBlockBegin
  2
*D16
 70
     1
 10
0.0
 20
0.0
 30
0.0
  3
*D16
  1

  0
LINE
  5
10D7
330
10CB
100
AcDbEntity
  8
VERMASSUNG
 62
     0
370
    -2
100
AcDbLine
 10
110.4019750842718
 20
139.9283070962312
 30
0.0
 11
110.4019750842718
 21
144.5433226318313
 31
0.0
  0
LINE
  5
10D8
330
10CB
100
AcDbEntity
  8
VERMASSUNG
 62
     0
370
    -2
100
AcDbLine
 10
144.2019750842718
 20
139.6082642367312
 30
0.0
 11
144.2019750842718
 21
144.5433226318313
 31
0.0
  0
LINE
  5
10D9
330
10CB
100
AcDbEntity
  8
VERMASSUNG
 62
     0
370
    -2
100
AcDbLine
 10
113.4019750842717
 20
143.5433226318313
 30
0.0
 11
141.2019750842718
 21
143.5433226318313
 31
0.0
  0
SOLID
  5
10DA
330
10CB
100
AcDbEntity
  8
VERMASSUNG
 62
     0
100
AcDbTrace
 10
113.4019750842717
 20
144.0433226318313
 30
0.0
 11
113.4019750842717
 21
143.0433226318313
 31
0.0
 12
110.4019750842718
 22
143.5433226318313
 32
0.0
 13
110.4019750842718
 23
143.5433226318313
 33
0.0
  0
SOLID
  5
10DB
330
10CB
100
AcDbEntity
  8
VERMASSUNG
 62
     0
100
AcDbTrace
 10
141.2019750842718
 20
144.0433226318313
 30
0.0
 11
141.2019750842718
 21
143.0433226318313
 31
0.0
 12
144.2019750842718
 22
143.5433226318313
 32
0.0
 13
144.2019750842718
 23
143.5433226318313
 33
0.0
  0
MTEXT
  5
10DC
330
10CB
100
AcDbEntity
  8
VERMASSUNG
 62
     0
100
AcDbMText
 10
126.0785634311718
 20
147.0673226318313
 30
0.0
 40
2.0
 41
0.0
 71
     1
 72
     1
  1
\A1;17
  7
SLDTEXTSTYLE0
 73
     1
 44
1.0
  0
POINT
  5
10DD
330
10CB
100
AcDbEntity
  8
Defpoints
 62
     0
100
AcDbPoint
 10
110.4019750842718
 20
139.9283070962312
 30
0.0
  0
POINT
  5
10DE
330
10CB
100
AcDbEntity
  8
Defpoints
 62
     0
100
AcDbPoint
 10
144.2019750842718
 20
139.6082642367312
 30
0.0
  0
POINT
  5
10DF
330
10CB
100
AcDbEntity
  8
Defpoints
 62
     0
100
AcDbPoint
 10
144.2019750842718
 20
143.5433226318313
 30
0.0
  0
ENDBLK
  5
10D6
330
10CB
100
AcDbEntity
  8
0
 62
     0
100
AcDbBlockEnd
  0
BLOCK
  5
11EF
330
11E5
100
AcDbEntity
  8
0
 62
     0
100
AcDbBlockBegin
  2
*D17
 70
     1
 10
0.0
 20
0.0
 30
0.0
  3
*D17
  1

  0
LINE
  5
14B9
330
11E5
100
AcDbEntity
  8
2
 62
     0
370
    -2
100
AcDbLine
 10
-71.81113096847083
 20
-30.8959149613763
 30
0.0
 11
-71.81113096847083
 21
-24.33980063421055
 31
0.0
  0
LINE
  5
14BA
330
11E5
100
AcDbEntity
  8
2
 62
     0
370
    -2
100
AcDbLine
 10
-38.01113064367082
 20
-31.21595785027629
 30
0.0
 11
-38.01113064367082
 21
-24.33980063421055
 31
0.0
  0
LINE
  5
14BB
330
11E5
100
AcDbEntity
  8
2
 62
     0
370
    -2
100
AcDbLine
 10
-67.24113096847083
 20
-26.83980063421055
 30
0.0
 11
-42.58113064367083
 21
-26.83980063421055
 31
0.0
  0
SOLID
  5
14BC
330
11E5
100
AcDbEntity
  8
2
 62
     0
100
AcDbTrace
 10
-67.24113096847083
 20
-26.07813396754387
 30
0.0
 11
-67.24113096847083
 21
-27.60146730087722
 31
0.0
 12
-71.81113096847083
 22
-26.83980063421055
 32
0.0
 13
-71.81113096847083
 23
-26.83980063421055
 33
0.0
  0
SOLID
  5
14BD
330
11E5
100
AcDbEntity
  8
2
 62
     0
100
AcDbTrace
 10
-42.58113064367083
 20
-26.07813396754387
 30
0.0
 11
-42.58113064367083
 21
-27.60146730087722
 31
0.0
 12
-38.01113064367082
 22
-26.83980063421055
 32
0.0
 13
-38.01113064367082
 23
-26.83980063421055
 33
0.0
  0
MTEXT
  5
14BE
330
11E5
100
AcDbEntity
  8
2
 62
     7
100
AcDbMText
 10
-54.91113080607082
 20
-23.05480063421053
 30
0.0
 40
4.57
 41
0.0
 71
     5
 72
     1
  1
\A1;33.8
  7
GENPRESET
 73
     1
 44
1.0
  0
POINT
  5
14BF
330
11E5
100
AcDbEntity
  8
Defpoints
 62
     0
100
AcDbPoint
 10
-71.81113096847083
 20
-30.8959149613763
 30
0.0
  0
POINT
  5
14C0
330
11E5
100
AcDbEntity
  8
Defpoints
 62
     0
100
AcDbPoint
 10
-38.01113064367082
 20
-31.21595785027629
 30
0.0
  0
POINT
  5
14C1
330
11E5
100
AcDbEntity
  8
Defpoints
 62
     0
100
AcDbPoint
 10
-38.01113064367082
 20
-26.83980063421055
 30
0.0
  0
ENDBLK
  5
11F0
330
11E5
100
AcDbEntity
  8
0
 62
     0
100
AcDbBlockEnd
  0
BLOCK
  5
14D5
330
14CC
100
AcDbEntity
  8
0
100
AcDbBlockBegin
  2
*D18
 70
     1
 10
0.0
 20
0.0
 30
0.0
  3
*D18
  1

  0
SOLID
  5
14CD
330
14CC
100
AcDbEntity
  8
VERMASSUNG
100
AcDbTrace
 10
114.5756814937
 20
124.1347265840999
 30
0.0
 11
114.1256814937
 21
121.1347265841
 31
0.0
 12
115.0256814937
 22
121.1347265841
 32
0.0
 13
115.0256814937
 23
121.1347265841
 33
0.0
  0
SOLID
  5
14CE
330
14CC
100
AcDbEntity
  8
VERMASSUNG
100
AcDbTrace
 10
114.5756814937
 20
92.13472658409999
 30
0.0
 11
115.0256814937
 21
95.1347265841
 31
0.0
 12
114.1256814937
 22
95.1347265841
 32
0.0
 13
114.1256814937
 23
95.1347265841
 33
0.0
  0
LINE
  5
14CF
330
14CC
100
AcDbEntity
  8
VERMASSUNG
100
AcDbLine
 10
136.3849106761
 20
124.1347265840999
 30
0.0
 11
113.5756814937
 21
124.1347265840999
 31
0.0
  0
LINE
  5
14D0
330
14CC
100
AcDbEntity
  8
VERMASSUNG
100
AcDbLine
 10
136.3849106761
 20
92.13472658409999
 30
0.0
 11
113.5756814937
 21
92.13472658409999
 31
0.0
  0
LINE
  5
14D1
330
14CC
100
AcDbEntity
  8
VERMASSUNG
100
AcDbLine
 10
114.5756814937
 20
124.1347265840999
 30
0.0
 11
114.5756814937
 21
92.13472658409999
 31
0.0
  0
MTEXT
  5
14D2
330
14CC
100
AcDbEntity
  8
VERMASSUNG
100
AcDbMText
 10
111.775681717
 20
102.1889793797999
 30
0.0
 40
2.0
 41
0.0
 71
     1
 72
     1
  1
{MBM}
  7
SLDTEXTSTYLE0
 11
-0.000000000000007
 21
1.0
 31
0.0
 73
     1
 44
1.0
  0
MTEXT
  5
14D3
330
14CC
100
AcDbEntity
  8
VERMASSUNG
100
AcDbMText
 10
111.9756816683
 20
107.388979394
 30
0.0
 40
2.0
 41
0.0
 71
     1
 72
     1
  1
{%%c}
  7
SLDTEXTSTYLE0
 11
-0.000000000000007
 21
1.0
 31
0.0
 73
     1
 44
1.0
  0
MTEXT
  5
14D4
330
14CC
100
AcDbEntity
  8
VERMASSUNG
100
AcDbMText
 10
111.9756813772999
 20
110.9979581706999
 30
0.0
 40
2.0
 41
0.0
 71
     1
 72
     1
  1
{32}
  7
SLDTEXTSTYLE0
 11
-0.000000000000007
 21
1.0
 31
0.0
 73
     1
 44
1.0
  0
ENDBLK
  5
14D6
330
14CC
100
AcDbEntity
  8
0
100
AcDbBlockEnd
  0
BLOCK
  5
14DE
330
14D7
100
AcDbEntity
  8
0
100
AcDbBlockBegin
  2
*D19
 70
     1
 10
0.0
 20
0.0
 30
0.0
  3
*D19
  1

  0
SOLID
  5
14D8
330
14D7
100
AcDbEntity
  8
VERMASSUNG
100
AcDbTrace
 10
136.0849106761
 20
127.5351377513999
 30
0.0
 11
139.0849106761
 21
127.0851377514
 31
0.0
 12
139.0849106761
 22
127.9851377513999
 32
0.0
 13
139.0849106761
 23
127.9851377513999
 33
0.0
  0
SOLID
  5
14D9
330
14D7
100
AcDbEntity
  8
VERMASSUNG
100
AcDbTrace
 10
179.8849106761
 20
127.5351377513999
 30
0.0
 11
176.8849106761
 21
127.9851377513999
 31
0.0
 12
176.8849106761
 22
127.0851377514
 32
0.0
 13
176.8849106761
 23
127.0851377514
 33
0.0
  0
LINE
  5
14DA
330
14D7
100
AcDbEntity
  8
VERMASSUNG
100
AcDbLine
 10
136.0849106761
 20
123.8347265840999
 30
0.0
 11
136.0849106761
 21
128.5351377513999
 31
0.0
  0
LINE
  5
14DB
330
14D7
100
AcDbEntity
  8
VERMASSUNG
100
AcDbLine
 10
179.8849106761
 20
123.6344040001
 30
0.0
 11
179.8849106761
 21
128.5351377513999
 31
0.0
  0
LINE
  5
14DC
330
14D7
100
AcDbEntity
  8
VERMASSUNG
100
AcDbLine
 10
136.0849106761
 20
127.5351377513999
 30
0.0
 11
179.8849106761
 21
127.5351377513999
 31
0.0
  0
MTEXT
  5
14DD
330
14D7
100
AcDbEntity
  8
VERMASSUNG
100
AcDbMText
 10
154.4105395906998
 20
130.1351378678
 30
0.0
 40
2.0
 41
0.0
 71
     1
 72
     1
  1
{43.8}
  7
SLDTEXTSTYLE0
 73
     1
 44
1.0
  0
ENDBLK
  5
14DF
330
14D7
100
AcDbEntity
  8
0
100
AcDbBlockEnd
  0
BLOCK
  5
16A6
330
169C
100
AcDbEntity
  8
0
 62
     0
100
AcDbBlockBegin
  2
*D20
 70
     1
 10
0.0
 20
0.0
 30
0.0
  3
*D20
  1

  0
LINE
  5
16B4
330
169C
100
AcDbEntity
  8
VERMASSUNG
 62
     0
370
    -2
100
AcDbLine
 10
0.0000007749000019
 20
15.7
 30
0.0
 11
0.0000007749000022
 21
20.40041116729998
 31
0.0
  0
LINE
  5
16B5
330
169C
100
AcDbEntity
  8
VERMASSUNG
 62
     0
370
    -2
100
AcDbLine
 10
43.8000007749
 20
15.49967741599999
 30
0.0
 11
43.8000007749
 21
20.40041116729998
 31
0.0
  0
LINE
  5
16B6
330
169C
100
AcDbEntity
  8
VERMASSUNG
 62
     0
370
    -2
100
AcDbLine
 10
3.000000774900001
 20
19.40041116729998
 30
0.0
 11
40.80000077490001
 21
19.40041116729998
 31
0.0
  0
SOLID
  5
16B7
330
169C
100
AcDbEntity
  8
VERMASSUNG
 62
     0
100
AcDbTrace
 10
3.000000774900001
 20
19.90041116729998
 30
0.0
 11
3.000000774900001
 21
18.90041116729999
 31
0.0
 12
0.0000007749000022
 22
19.40041116729998
 32
0.0
 13
0.0000007749000022
 23
19.40041116729998
 33
0.0
  0
SOLID
  5
16B8
330
169C
100
AcDbEntity
  8
VERMASSUNG
 62
     0
100
AcDbTrace
 10
40.80000077490001
 20
19.90041116729998
 30
0.0
 11
40.80000077490001
 21
18.90041116729999
 31
0.0
 12
43.8000007749
 22
19.40041116729998
 32
0.0
 13
43.8000007749
 23
19.40041116729998
 33
0.0
  0
MTEXT
  5
16B9
330
169C
100
AcDbEntity
  8
VERMASSUNG
 62
     0
100
AcDbMText
 10
19.62510986789998
 20
22.9244111673
 30
0.0
 40
2.0
 41
0.0
 71
     1
 72
     1
  1
\A1;22
  7
SLDTEXTSTYLE0
 73
     1
 44
1.0
  0
POINT
  5
16BA
330
169C
100
AcDbEntity
  8
Defpoints
 62
     0
100
AcDbPoint
 10
0.0000007749000019
 20
15.7
 30
0.0
  0
POINT
  5
16BB
330
169C
100
AcDbEntity
  8
Defpoints
 62
     0
100
AcDbPoint
 10
43.8000007749
 20
15.49967741599999
 30
0.0
  0
POINT
  5
16BC
330
169C
100
AcDbEntity
  8
Defpoints
 62
     0
100
AcDbPoint
 10
43.8000007749
 20
19.40041116729998
 30
0.0
  0
ENDBLK
  5
16A7
330
169C
100
AcDbEntity
  8
0
 62
     0
100
AcDbBlockEnd
  0
BLOCK
  5
16B2
330
16A8
100
AcDbEntity
  8
0
 62
     0
100
AcDbBlockBegin
  2
*D21
 70
     1
 10
0.0
 20
0.0
 30
0.0
  3
*D21
  1

  0
LINE
  5
16BD
330
16A8
100
AcDbEntity
  8
VERMASSUNG
 62
     0
370
    -2
100
AcDbLine
 10
0.3000007749000133
 20
16.0
 30
0.0
 11
-22.50922840749999
 21
16.0
 31
0.0
  0
LINE
  5
16BE
330
16A8
100
AcDbEntity
  8
VERMASSUNG
 62
     0
370
    -2
100
AcDbLine
 10
0.3000007749000133
 20
-16.0
 30
0.0
 11
-22.50922840749999
 21
-15.99999999999999
 31
0.0
  0
LINE
  5
16BF
330
16A8
100
AcDbEntity
  8
VERMASSUNG
 62
     0
370
    -2
100
AcDbLine
 10
-21.5092284075
 20
13.0
 30
0.0
 11
-21.5092284075
 21
-12.99999999999999
 31
0.0
  0
SOLID
  5
16C0
330
16A8
100
AcDbEntity
  8
VERMASSUNG
 62
     0
100
AcDbTrace
 10
-22.0092284075
 20
13.0
 30
0.0
 11
-21.0092284075
 21
13.0
 31
0.0
 12
-21.5092284075
 22
16.0
 32
0.0
 13
-21.5092284075
 23
16.0
 33
0.0
  0
SOLID
  5
16C1
330
16A8
100
AcDbEntity
  8
VERMASSUNG
 62
     0
100
AcDbTrace
 10
-22.0092284075
 20
-12.99999999999999
 30
0.0
 11
-21.0092284075
 21
-12.99999999999999
 31
0.0
 12
-21.5092284075
 22
-15.99999999999999
 32
0.0
 13
-21.5092284075
 23
-15.99999999999999
 33
0.0
  0
MTEXT
  5
16C2
330
16A8
100
AcDbEntity
  8
VERMASSUNG
 62
     0
100
AcDbMText
 10
-32.03322840749999
 20
0.8578506153000098
 30
0.0
 40
2.0
 41
0.0
 71
     1
 72
     1
  1
\A1;MBM%%c16
  7
SLDTEXTSTYLE0
 73
     1
 44
1.0
  0
POINT
  5
16C3
330
16A8
100
AcDbEntity
  8
Defpoints
 62
     0
100
AcDbPoint
 10
0.3000007749000133
 20
16.0
 30
0.0
  0
POINT
  5
16C4
330
16A8
100
AcDbEntity
  8
Defpoints
 62
     0
100
AcDbPoint
 10
0.3000007749000133
 20
-16.0
 30
0.0
  0
POINT
  5
16C5
330
16A8
100
AcDbEntity
  8
Defpoints
 62
     0
100
AcDbPoint
 10
-21.5092284075
 20
-15.99999999999999
 30
0.0
  0
ENDBLK
  5
16B3
330
16A8
100
AcDbEntity
  8
0
 62
     0
100
AcDbBlockEnd
  0
BLOCK
  5
16CF
330
16C6
100
AcDbEntity
  8
0
100
AcDbBlockBegin
  2
*D22
 70
     1
 10
0.0
 20
0.0
 30
0.0
  3
*D22
  1

  0
SOLID
  5
16C7
330
16C6
100
AcDbEntity
  8
VERMASSUNG
100
AcDbTrace
 10
114.5756814937
 20
124.1347265840999
 30
0.0
 11
114.1256814937
 21
121.1347265841
 31
0.0
 12
115.0256814937
 22
121.1347265841
 32
0.0
 13
115.0256814937
 23
121.1347265841
 33
0.0
  0
SOLID
  5
16C8
330
16C6
100
AcDbEntity
  8
VERMASSUNG
100
AcDbTrace
 10
114.5756814937
 20
92.13472658409999
 30
0.0
 11
115.0256814937
 21
95.1347265841
 31
0.0
 12
114.1256814937
 22
95.1347265841
 32
0.0
 13
114.1256814937
 23
95.1347265841
 33
0.0
  0
LINE
  5
16C9
330
16C6
100
AcDbEntity
  8
VERMASSUNG
100
AcDbLine
 10
136.3849106761
 20
124.1347265840999
 30
0.0
 11
113.5756814937
 21
124.1347265840999
 31
0.0
  0
LINE
  5
16CA
330
16C6
100
AcDbEntity
  8
VERMASSUNG
100
AcDbLine
 10
136.3849106761
 20
92.13472658409999
 30
0.0
 11
113.5756814937
 21
92.13472658409999
 31
0.0
  0
LINE
  5
16CB
330
16C6
100
AcDbEntity
  8
VERMASSUNG
100
AcDbLine
 10
114.5756814937
 20
124.1347265840999
 30
0.0
 11
114.5756814937
 21
92.13472658409999
 31
0.0
  0
MTEXT
  5
16CC
330
16C6
100
AcDbEntity
  8
VERMASSUNG
100
AcDbMText
 10
111.775681717
 20
102.1889793797999
 30
0.0
 40
2.0
 41
0.0
 71
     1
 72
     1
  1
{MBM}
  7
SLDTEXTSTYLE0
 11
-0.000000000000007
 21
1.0
 31
0.0
 73
     1
 44
1.0
  0
MTEXT
  5
16CD
330
16C6
100
AcDbEntity
  8
VERMASSUNG
100
AcDbMText
 10
111.9756816683
 20
107.388979394
 30
0.0
 40
2.0
 41
0.0
 71
     1
 72
     1
  1
{%%c}
  7
SLDTEXTSTYLE0
 11
-0.000000000000007
 21
1.0
 31
0.0
 73
     1
 44
1.0
  0
MTEXT
  5
16CE
330
16C6
100
AcDbEntity
  8
VERMASSUNG
100
AcDbMText
 10
111.9756813772999
 20
110.9979581706999
 30
0.0
 40
2.0
 41
0.0
 71
     1
 72
     1
  1
{32}
  7
SLDTEXTSTYLE0
 11
-0.000000000000007
 21
1.0
 31
0.0
 73
     1
 44
1.0
  0
ENDBLK
  5
16D0
330
16C6
100
AcDbEntity
  8
0
100
AcDbBlockEnd
  0
BLOCK
  5
16D8
330
16D1
100
AcDbEntity
  8
0
100
AcDbBlockBegin
  2
*D23
 70
     1
 10
0.0
 20
0.0
 30
0.0
  3
*D23
  1

  0
SOLID
  5
16D2
330
16D1
100
AcDbEntity
  8
VERMASSUNG
100
AcDbTrace
 10
136.0849106761
 20
127.5351377513999
 30
0.0
 11
139.0849106761
 21
127.0851377514
 31
0.0
 12
139.0849106761
 22
127.9851377513999
 32
0.0
 13
139.0849106761
 23
127.9851377513999
 33
0.0
  0
SOLID
  5
16D3
330
16D1
100
AcDbEntity
  8
VERMASSUNG
100
AcDbTrace
 10
179.8849106761
 20
127.5351377513999
 30
0.0
 11
176.8849106761
 21
127.9851377513999
 31
0.0
 12
176.8849106761
 22
127.0851377514
 32
0.0
 13
176.8849106761
 23
127.0851377514
 33
0.0
  0
LINE
  5
16D4
330
16D1
100
AcDbEntity
  8
VERMASSUNG
100
AcDbLine
 10
136.0849106761
 20
123.8347265840999
 30
0.0
 11
136.0849106761
 21
128.5351377513999
 31
0.0
  0
LINE
  5
16D5
330
16D1
100
AcDbEntity
  8
VERMASSUNG
100
AcDbLine
 10
179.8849106761
 20
123.6344040001
 30
0.0
 11
179.8849106761
 21
128.5351377513999
 31
0.0
  0
LINE
  5
16D6
330
16D1
100
AcDbEntity
  8
VERMASSUNG
100
AcDbLine
 10
136.0849106761
 20
127.5351377513999
 30
0.0
 11
179.8849106761
 21
127.5351377513999
 31
0.0
  0
MTEXT
  5
16D7
330
16D1
100
AcDbEntity
  8
VERMASSUNG
100
AcDbMText
 10
154.4105395906998
 20
130.1351378678
 30
0.0
 40
2.0
 41
0.0
 71
     1
 72
     1
  1
{43.8}
  7
SLDTEXTSTYLE0
 73
     1
 44
1.0
  0
ENDBLK
  5
16D9
330
16D1
100
AcDbEntity
  8
0
100
AcDbBlockEnd
  0
BLOCK
  5
1AC4
330
1ABA
100
AcDbEntity
  8
0
 62
     0
100
AcDbBlockBegin
  2
*D24
 70
     1
 10
0.0
 20
0.0
 30
0.0
  3
*D24
  1

  0
LINE
  5
1F4D
330
1ABA
100
AcDbEntity
  8
2
 62
     0
370
    -2
100
AcDbLine
 10
-104.7733533247066
 20
-29.35502729057294
 30
0.0
 11
-104.7733533247066
 21
-23.15461612327295
 31
0.0
  0
LINE
  5
1F4E
330
1ABA
100
AcDbEntity
  8
2
 62
     0
370
    -2
100
AcDbLine
 10
-60.97335399820678
 20
-29.35502788367294
 30
0.0
 11
-60.97335399820678
 21
-23.15461612327295
 31
0.0
  0
LINE
  5
1F4F
330
1ABA
100
AcDbEntity
  8
2
 62
     0
370
    -2
100
AcDbLine
 10
-100.2033533247067
 20
-25.65461612327295
 30
0.0
 11
-65.54335399820678
 21
-25.65461612327295
 31
0.0
  0
SOLID
  5
1F50
330
1ABA
100
AcDbEntity
  8
2
 62
     0
100
AcDbTrace
 10
-100.2033533247067
 20
-24.89294945660629
 30
0.0
 11
-100.2033533247067
 21
-26.41628278993962
 31
0.0
 12
-104.7733533247066
 22
-25.65461612327295
 32
0.0
 13
-104.7733533247066
 23
-25.65461612327295
 33
0.0
  0
SOLID
  5
1F51
330
1ABA
100
AcDbEntity
  8
2
 62
     0
100
AcDbTrace
 10
-65.54335399820678
 20
-24.89294945660629
 30
0.0
 11
-65.54335399820678
 21
-26.41628278993962
 31
0.0
 12
-60.97335399820678
 22
-25.65461612327295
 32
0.0
 13
-60.97335399820678
 23
-25.65461612327295
 33
0.0
  0
MTEXT
  5
1F52
330
1ABA
100
AcDbEntity
  8
2
 62
     7
100
AcDbMText
 10
-83.94824423170678
 20
-21.86961612327294
 30
0.0
 40
4.57
 41
0.0
 71
     5
 72
     1
  1
\A1;43.8
  7
GENPRESET
 73
     1
 44
1.0
  0
POINT
  5
1F53
330
1ABA
100
AcDbEntity
  8
Defpoints
 62
     0
100
AcDbPoint
 10
-104.7733533247066
 20
-29.35502729057294
 30
0.0
  0
POINT
  5
1F54
330
1ABA
100
AcDbEntity
  8
Defpoints
 62
     0
100
AcDbPoint
 10
-60.97335399820678
 20
-29.35502788367294
 30
0.0
  0
POINT
  5
1F55
330
1ABA
100
AcDbEntity
  8
Defpoints
 62
     0
100
AcDbPoint
 10
-60.97335399820678
 20
-25.65461612327295
 30
0.0
  0
ENDBLK
  5
1AC5
330
1ABA
100
AcDbEntity
  8
0
 62
     0
100
AcDbBlockEnd
  0
BLOCK
  5
1AD0
330
1AC6
100
AcDbEntity
  8
0
 62
     0
100
AcDbBlockBegin
  2
*D25
 70
     1
 10
0.0
 20
0.0
 30
0.0
  3
*D25
  1

  0
LINE
  5
1F44
330
1AC6
100
AcDbEntity
  8
SK2
 62
     0
370
    -2
100
AcDbLine
 10
-104.4733533247067
 20
-29.05502729057293
 30
0.0
 11
-128.7825825071067
 21
-29.05502729057293
 31
0.0
  0
LINE
  5
1F45
330
1AC6
100
AcDbEntity
  8
SK2
 62
     0
370
    -2
100
AcDbLine
 10
-104.4733533247067
 20
-61.05502729057294
 30
0.0
 11
-128.7825825071067
 21
-61.05502729057293
 31
0.0
  0
LINE
  5
1F46
330
1AC6
100
AcDbEntity
  8
SK2
 62
     0
370
    -2
100
AcDbLine
 10
-126.2825825071067
 20
-33.62502729057293
 30
0.0
 11
-126.2825825071067
 21
-56.48502729057293
 31
0.0
  0
SOLID
  5
1F47
330
1AC6
100
AcDbEntity
  8
SK2
 62
     0
100
AcDbTrace
 10
-127.0442491737734
 20
-33.62502729057293
 30
0.0
 11
-125.5209158404399
 21
-33.62502729057293
 31
0.0
 12
-126.2825825071067
 22
-29.05502729057293
 32
0.0
 13
-126.2825825071067
 23
-29.05502729057293
 33
0.0
  0
SOLID
  5
1F48
330
1AC6
100
AcDbEntity
  8
SK2
 62
     0
100
AcDbTrace
 10
-127.0442491737734
 20
-56.48502729057293
 30
0.0
 11
-125.5209158404399
 21
-56.48502729057293
 31
0.0
 12
-126.2825825071067
 22
-61.05502729057293
 32
0.0
 13
-126.2825825071067
 23
-61.05502729057293
 33
0.0
  0
MTEXT
  5
1F49
330
1AC6
100
AcDbEntity
  8
SK2
 62
     7
100
AcDbMText
 10
-130.0675825071067
 20
-45.19717667527292
 30
0.0
 40
4.57
 41
0.0
 71
     5
 72
     1
  1
\A1;MBM%%c32
  7
GENPRESET
 11
0.0000000000000001
 21
1.0
 31
0.0
 73
     1
 44
1.0
  0
POINT
  5
1F4A
330
1AC6
100
AcDbEntity
  8
Defpoints
 62
     0
100
AcDbPoint
 10
-104.4733533247067
 20
-29.05502729057293
 30
0.0
  0
POINT
  5
1F4B
330
1AC6
100
AcDbEntity
  8
Defpoints
 62
     0
100
AcDbPoint
 10
-104.4733533247067
 20
-61.05502729057294
 30
0.0
  0
POINT
  5
1F4C
330
1AC6
100
AcDbEntity
  8
Defpoints
 62
     0
100
AcDbPoint
 10
-126.2825825071067
 20
-61.05502729057293
 30
0.0
  0
ENDBLK
  5
1AD1
330
1AC6
100
AcDbEntity
  8
0
 62
     0
100
AcDbBlockEnd
  0
BLOCK
  5
1F60
330
1F56
100
AcDbEntity
  8
0
100
AcDbBlockBegin
  2
*D26
 70
     1
 10
0.0
 20
0.0
 30
0.0
  3
*D26
  1

  0
LINE
  5
1F57
330
1F56
100
AcDbEntity
  8
VERMASSUNG
 62
     0
370
    -2
100
AcDbLine
 10
123.4350615157
 20
119.7189640276
 30
0.0
 11
99.89163149075004
 21
119.7189640276
 31
0.0
  0
LINE
  5
1F58
330
1F56
100
AcDbEntity
  8
VERMASSUNG
 62
     0
370
    -2
100
AcDbLine
 10
123.4350615157
 20
87.71896402760003
 30
0.0
 11
99.89163149075
 21
87.71896402760003
 31
0.0
  0
LINE
  5
1F59
330
1F56
100
AcDbEntity
  8
VERMASSUNG
 62
     0
370
    -2
100
AcDbLine
 10
99.89163149075004
 20
116.7189640276
 30
0.0
 11
99.89163149075
 21
90.71896402760001
 31
0.0
  0
SOLID
  5
1F5A
330
1F56
100
AcDbEntity
  8
VERMASSUNG
 62
     0
100
AcDbTrace
 10
99.39163149075005
 20
116.7189640276
 30
0.0
 11
100.39163149075
 21
116.7189640276
 31
0.0
 12
99.89163149075004
 22
119.7189640276
 32
0.0
 13
99.89163149075004
 23
119.7189640276
 33
0.0
  0
SOLID
  5
1F5B
330
1F56
100
AcDbEntity
  8
VERMASSUNG
 62
     0
100
AcDbTrace
 10
99.39163149075
 20
90.71896402760001
 30
0.0
 11
100.39163149075
 21
90.71896402760001
 31
0.0
 12
99.89163149075
 22
87.71896402760003
 32
0.0
 13
99.89163149075
 23
87.71896402760003
 33
0.0
  0
MTEXT
  5
1F5C
330
1F56
100
AcDbEntity
  8
VERMASSUNG
 62
     0
100
AcDbMText
 10
97.39011633923485
 20
103.7189640276
 30
0.0
 40
2.0
 41
0.0
 71
     2
 72
     1
  1
\A1;ST3 %%c16
  7
SLDTEXTSTYLE0
 11
0.0000000000000001
 21
1.0
 31
0.0
 73
     1
 44
1.0
  0
POINT
  5
1F5D
330
1F56
100
AcDbEntity
  8
Defpoints
 62
     0
100
AcDbPoint
 10
123.4975615156999
 20
119.7189640276
 30
0.0
  0
POINT
  5
1F5E
330
1F56
100
AcDbEntity
  8
Defpoints
 62
     0
100
AcDbPoint
 10
123.4975615156999
 20
87.71896402760003
 30
0.0
  0
POINT
  5
1F5F
330
1F56
100
AcDbEntity
  8
Defpoints
 62
     0
100
AcDbPoint
 10
99.89163149075
 20
87.71896402760003
 30
0.0
  0
ENDBLK
  5
1F61
330
1F56
100
AcDbEntity
  8
0
100
AcDbBlockEnd
  0
BLOCK
  5
2338
330
232E
100
AcDbEntity
  8
0
 62
     0
100
AcDbBlockBegin
  2
*D27
 70
     1
 10
0.0
 20
0.0
 30
0.0
  3
*D27
  1

  0
LINE
  5
248E
330
232E
100
AcDbEntity
  8
SK2
 62
     0
370
    -2
100
AcDbLine
 10
0.5
 20
16.0
 30
0.0
 11
-25.60593002494998
 21
16.0
 31
0.0
  0
LINE
  5
248F
330
232E
100
AcDbEntity
  8
SK2
 62
     0
370
    -2
100
AcDbLine
 10
0.5
 20
-16.0
 30
0.0
 11
-25.60593002495
 21
-15.99999999999999
 31
0.0
  0
LINE
  5
2490
330
232E
100
AcDbEntity
  8
SK2
 62
     0
370
    -2
100
AcDbLine
 10
-23.10593002494998
 20
11.43
 30
0.0
 11
-23.10593002495
 21
-11.42999999999999
 31
0.0
  0
SOLID
  5
2491
330
232E
100
AcDbEntity
  8
SK2
 62
     0
100
AcDbTrace
 10
-23.86759669161665
 20
11.43
 30
0.0
 11
-22.34426335828332
 21
11.43
 31
0.0
 12
-23.10593002494998
 22
16.0
 32
0.0
 13
-23.10593002494998
 23
16.0
 33
0.0
  0
SOLID
  5
2492
330
232E
100
AcDbEntity
  8
SK2
 62
     0
100
AcDbTrace
 10
-23.86759669161667
 20
-11.42999999999999
 30
0.0
 11
-22.34426335828332
 21
-11.42999999999999
 31
0.0
 12
-23.10593002495
 22
-15.99999999999999
 32
0.0
 13
-23.10593002495
 23
-15.99999999999999
 33
0.0
  0
MTEXT
  5
2493
330
232E
100
AcDbEntity
  8
SK2
 62
     7
100
AcDbMText
 10
-29.17593002494998
 20
0.0000000000000005
 30
0.0
 40
4.57
 41
0.0
 71
     2
 72
     1
  1
\A1;ST3 %%c32
  7
GENPRESET
 11
0.0000000000000001
 21
1.0
 31
0.0
 73
     1
 44
1.0
  0
POINT
  5
2494
330
232E
100
AcDbEntity
  8
Defpoints
 62
     0
100
AcDbPoint
 10
0.5
 20
16.0
 30
0.0
  0
POINT
  5
2495
330
232E
100
AcDbEntity
  8
Defpoints
 62
     0
100
AcDbPoint
 10
0.5
 20
-16.0
 30
0.0
  0
POINT
  5
2496
330
232E
100
AcDbEntity
  8
Defpoints
 62
     0
100
AcDbPoint
 10
-23.10593002495
 20
-15.99999999999999
 30
0.0
  0
ENDBLK
  5
2339
330
232E
100
AcDbEntity
  8
0
 62
     0
100
AcDbBlockEnd
  0
BLOCK
  5
24A2
330
2498
100
AcDbEntity
  8
0
 62
     0
100
AcDbBlockBegin
  2
*D28
 70
     1
 10
0.0
 20
0.0
 30
0.0
  3
*D28
  1

  0
LINE
  5
24A4
330
2498
100
AcDbEntity
  8
2
 62
     0
370
    -2
100
AcDbLine
 10
0.0
 20
15.5
 30
0.0
 11
0.0000000000000004
 21
21.34326387930467
 31
0.0
  0
LINE
  5
24A5
330
2498
100
AcDbEntity
  8
2
 62
     0
370
    -2
100
AcDbLine
 10
25.79999994489996
 20
15.49967750899999
 30
0.0
 11
25.79999994489996
 21
21.34326387930467
 31
0.0
  0
LINE
  5
24A6
330
2498
100
AcDbEntity
  8
2
 62
     0
370
    -2
100
AcDbLine
 10
4.57
 20
18.84326387930467
 30
0.0
 11
21.22999994489997
 21
18.84326387930467
 31
0.0
  0
SOLID
  5
24A7
330
2498
100
AcDbEntity
  8
2
 62
     0
100
AcDbTrace
 10
4.57
 20
19.60493054597132
 30
0.0
 11
4.57
 21
18.08159721263799
 31
0.0
 12
0.0000000000000002
 22
18.84326387930467
 32
0.0
 13
0.0000000000000002
 23
18.84326387930467
 33
0.0
  0
SOLID
  5
24A8
330
2498
100
AcDbEntity
  8
2
 62
     0
100
AcDbTrace
 10
21.22999994489997
 20
19.60493054597132
 30
0.0
 11
21.22999994489997
 21
18.08159721263799
 31
0.0
 12
25.79999994489996
 22
18.84326387930467
 32
0.0
 13
25.79999994489996
 23
18.84326387930467
 33
0.0
  0
MTEXT
  5
24A9
330
2498
100
AcDbEntity
  8
2
 62
     7
100
AcDbMText
 10
12.89999997244998
 20
22.62826387930467
 30
0.0
 40
4.57
 41
0.0
 71
     5
 72
     1
  1
\A1;25.8
  7
GENPRESET
 73
     1
 44
1.0
  0
POINT
  5
24AA
330
2498
100
AcDbEntity
  8
Defpoints
 62
     0
100
AcDbPoint
 10
0.0
 20
15.5
 30
0.0
  0
POINT
  5
24AB
330
2498
100
AcDbEntity
  8
Defpoints
 62
     0
100
AcDbPoint
 10
25.79999994489996
 20
15.49967750899999
 30
0.0
  0
POINT
  5
24AC
330
2498
100
AcDbEntity
  8
Defpoints
 62
     0
100
AcDbPoint
 10
25.79999994489996
 20
18.84326387930467
 30
0.0
  0
ENDBLK
  5
24A3
330
2498
100
AcDbEntity
  8
0
 62
     0
100
AcDbBlockEnd
  0
ENDSEC
  0
SECTION
  2
ENTITIES
  0
MTEXT
  5
36
330
1F
100
AcDbEntity
  8
5
100
AcDbMText
 10
-28.64696631810282
 20
-46.7873189265986
 30
0.0
 40
4.57
 41
0.0
 71
     1
 72
     1
  1
404.032.040.047
  7
GENPRESET
 73
     1
 44
1.0
  0
MTEXT
  5
37
330
1F
100
AcDbEntity
  8
5
100
AcDbMText
 10
-28.60318314530282
 20
-38.74818013369859
 30
0.0
 40
4.57
 41
0.0
 71
     1
 72
     1
  1
{Zweischneiderkopf_Twin cutter boring head}
  7
GENPRESET
 73
     1
 44
1.0
  0
REGION
  5
27D
330
1F
100
AcDbEntity
  8
5
100
AcDbModelerGeometry
 70
     1
  1
koo mi n o          
  1
h J1410(1 nl ^ \VL kqoqm QK mk R01 U*3 oh ogemmenh moog 
  1
rn fqfffffffffffffffj:rooh n:rono 
  1
=0;& {rn {n {rn {rn |
  1
3*2/ {rn {rn {m {o |
  1
,7:33 {rn {rn {rn {l {rn {n |
  1
9><: {rn {rn {k {m {rn {j 90-(>-; ;0*=3: 0*+ |
  1
300/ {rn {rn {i {l |
  1
/3>1:r,*-9><: {rn nnqlnginnifhhmnnih rmfqmmgfohnhjiijglf o o o n m o o 90-(>-;@) V V V V |
  1
<0:;8: {rn {h {g {rn {f -:):-,:; {k {rn |
  1
<0:;8: {rn {no {i {rn {nn -:):-,:; {k {rn |
  1
<0:;8: {rn {i {no {rn {nm -:):-,:; {k {rn |
  1
:;8: {rn {nl {nk {i {nj 90-(>-; |
  1
<0:;8: {rn {g {h {rn {ni -:):-,:; {k {rn |
  1
:;8: {rn {nh {nl {h {ng 90-(>-; |
  1
:;8: {rn {nk {nf {g {mo 90-(>-; |
  1
):-+:' {rn {f {mn |
  1
):-+:' {rn {f {mm |
  1
,+->687+r<*-): {rn jnqmmljjfkkknflomf rljqmjfhililmmnhlnk o rm o o V V |
  1
:;8: {rn {nf {nh {no {ml 90-(>-; |
  1
):-+:' {rn {ni {mk |
  1
,+->687+r<*-): {rn jnqmmljjfkkknflomf rmlqnfgojohnfnnklil o mqljiljhikkijlllgm:ronj rm o V V |
  1
):-+:' {rn {nm {mj |
  1
,+->687+r<*-): {rn rmgqjgilliokghjoifj rljqmjfhililmmnhlnk o o m o V V |
  1
/061+ {rn jnqmmljjfkkknflomf rljqmjfhililmmnhlnk o |
  1
/061+ {rn rmgqjgilliokghjoifj rljqmjfhililmmnhlnk o |
  1
,+->687+r<*-): {rn rmgqjgilliokghjoifj rmlqnfgojohnfnnklil o m o o V V |
  1
/061+ {rn jnqmmljjfkkknflomf rmlqnfgojohnfnnklil o |
  1
/061+ {rn rmgqjgilliokghjoifj rmlqnfgojohnfnnklil o |
  0
REGION
  5
27E
330
1F
100
AcDbEntity
  8
5
100
AcDbModelerGeometry
 70
     1
  1
koo hn n o          
  1
h J1410(1 nl ^ \VL kqoqm QK mk R01 U*3 oh ogemmenh moog 
  1
rn fqfffffffffffffffj:rooh n:rono 
  1
=0;& {rn {n {rn {rn |
  1
3*2/ {rn {rn {m {o |
  1
,7:33 {rn {rn {rn {l {rn {n |
  1
9><: {rn {rn {k {m {rn {j 90-(>-; ;0*=3: 0*+ |
  1
300/ {rn {rn {i {l |
  1
/3>1:r,*-9><: {rn rniqhmookghkijfffnj rmgqfjijgfijghllnlh o o o n m o o 90-(>-;@) V V V V |
  1
<0:;8: {rn {h {g {rn {f -:):-,:; {k {rn |
  1
<0:;8: {rn {no {i {rn {nn -:):-,:; {k {rn |
  1
<0:;8: {rn {i {nm {rn {nl -:):-,:; {k {rn |
  1
:;8: {rn {nk {nj {i {ni 90-(>-; |
  1
<0:;8: {rn {nh {h {rn {ng -:):-,:; {k {rn |
  1
:;8: {rn {nf {nk {h {mo 90-(>-; |
  1
<0:;8: {rn {g {mn {rn {mm -:):-,:; {k {rn |
  1
:;8: {rn {nj {ml {g {mk 90-(>-; |
  1
):-+:' {rn {f {mj |
  1
):-+:' {rn {f {mi |
  1
,+->687+r<*-): {rn rnfqihflhjnlklkmnfj rllqokhmnnihlhijki o roqjlmonliifjkjgkgfk nqfmhfkmmgjmfngkfh o V V |
  1
<0:;8: {rn {mh {no {rn {mg -:):-,:; {k {rn |
  1
:;8: {rn {mf {nf {no {lo 90-(>-; |
  1
):-+:' {rn {ng {ln |
  1
,+->687+r<*-): {rn rnhqfgofkinjikfkhmk rllqokhmnnihlhijki o rm o o V V |
  1
<0:;8: {rn {nm {lm {rn {ll -:):-,:; {k {rn |
  1
:;8: {rn {ml {lk {nm {lj 90-(>-; |
  1
):-+:' {rn {nl {li |
  1
,+->687+r<*-): {rn rmnqihmfngggjoomllm rmjqgmmgfnnohkmoooi o m o o V V |
  1
/061+ {rn rnfqihflhjnlklkmnfj rllqokhmnnihlhijki o |
  1
/061+ {rn rmnqihmfngggjoomllm rmjqgmmgfnnohkmoooi o |
  1
<0:;8: {rn {lh {nh {rn {lg -:):-,:; {k {rn |
  1
:;8: {rn {lf {mf {nh {ko 90-(>-; |
  1
):-+:' {rn {mg {kn |
  1
,+->687+r<*-): {rn rniqhklignlolffokji rmgqmkijkiogillfmmm o roqkffnkkjioljfmlmll rnqflihnmlkjnjnfokk o V V |
  1
/061+ {rn rnhqfgofkinjikfkhmk rllqokhmnnihlhijki o |
  1
<0:;8: {rn {mn {km {rn {kl -:):-,:; {k {rn |
  1
:;8: {rn {lk {kk {mn {kj 90-(>-; |
  1
):-+:' {rn {mm {ki |
  1
,+->687+r<*-): {rn rnfqfjhmmfilnngmoln rmjqgmmgfnnohkmoooi o oqkjfngfjmfijlloohl rnqfkijhmimmgojhloj o V V |
  1
/061+ {rn rnfqfjhmmfilnngmoln rmjqgmmgfnnohkmoooi o |
  1
<0:;8: {rn {kh {mh {rn {kg -:):-,:; {k {rn |
  1
:;8: {rn {kf {lf {mh {jo 90-(>-; |
  1
):-+:' {rn {lg {jn |
  1
,+->687+r<*-): {rn rnjqlflflingoghhnhi rllqokhmnnihlhijki o roqjknlmigjnonmjgikf nqfmjlkgogmfnnfifg o V V |
  1
/061+ {rn rniqhklignlolffokji rmgqmkijkiogillfmmm o |
  1
<0:;8: {rn {lm {jm {rn {jl -:):-,:; {k {rn |
  1
:;8: {rn {kk {jk {lm {jj 90-(>-; |
  1
):-+:' {rn {ll {ji |
  1
,+->687+r<*-): {rn rngqgkikfklmnghnhhk rloqjlnkiloiggokhfh o oqjkiffiokfiomonjof nqfmlhkjnmfofjhflm o V V |
  1
/061+ {rn rngqgkikfklmnghnhhk rloqjlnkiloiggokhfh o |
  1
<0:;8: {rn {jm {lh {rn {jh -:):-,:; {k {rn |
  1
:;8: {rn {jg {kf {lh {jf 90-(>-; |
  1
):-+:' {rn {kg {io |
  1
,+->687+r<*-): {rn rnlqhkokffoofmolmf rllqokhmnnihlhijki o rm o o V V |
  1
/061+ {rn rnjqlflflingoghhnhi rllqokhmnnihlhijki o |
  1
<0:;8: {rn {km {kh {rn {in -:):-,:; {k {rn |
  1
:;8: {rn {jk {im {km {il 90-(>-; |
  1
):-+:' {rn {kl {ik |
  1
,+->687+r<*-): {rn rnhqjohiimfgjklgjnj rmjqgmmgfnnohkmoooi o m o o V V |
  1
/061+ {rn rnhqjohiimfgjklgjnj rmjqgmmgfnnohkmoooi o |
  1
:;8: {rn {ij {jg {kh {ii 90-(>-; |
  1
):-+:' {rn {jh {ih |
  1
,+->687+r<*-): {rn rnnqhhkllhgfhfhnjhh rmjqgmmgfnnohkmoooi o roqjmjmnllmokmjomhkk rnqfmfgojfkojnjmfli o V V |
  1
/061+ {rn rnlqhkokffoofmolmf rllqokhmnnihlhijki o |
  1
:;8: {rn {im {ij {jm {ig 90-(>-; |
  1
):-+:' {rn {jl {if |
  1
,+->687+r<*-): {rn rnjqflognjikjmgnhig rmjqgmmgfnnohkmoooi o oqjojlgfiiloigogfgi rnqfljofmoimonmjlkh o V V |
  1
/061+ {rn rnjqflognjikjmgnhig rmjqgmmgfnnohkmoooi o |
  1
):-+:' {rn {in {ho |
  1
,+->687+r<*-): {rn rnlqklniimhofiglllh rmjqgmmgfnnohkmoooi o m o o V V |
  1
/061+ {rn rnnqhhkllhgfhfhnjhh rmjqgmmgfnnohkmoooi o |
  1
,+->687+r<*-): {rn rnkqhonohlgkkkjfjmf rloqjlnkiloiggokhfh o oqjmoioknljjlnghihf nqflnojkkinhokokh o V V |
  1
/061+ {rn rnkqhonohlgkkkjfjmf rloqjlnkiloiggokhfh o |
  1
/061+ {rn rnlqklniimhofiglllh rmjqgmmgfnnohkmoooi o |
  0
REGION
  5
27F
330
1F
100
AcDbEntity
  8
5
100
AcDbModelerGeometry
 70
     1
  1
koo mi n o          
  1
h J1410(1 nl ^ \VL kqoqm QK mk R01 U*3 oh ogemmenh moog 
  1
rn fqfffffffffffffffj:rooh n:rono 
  1
=0;& {rn {n {rn {rn |
  1
3*2/ {rn {rn {m {o |
  1
,7:33 {rn {rn {rn {l {rn {n |
  1
9><: {rn {rn {k {m {rn {j -:):-,:; ;0*=3: 0*+ |
  1
300/ {rn {rn {i {l |
  1
/3>1:r,*-9><: {rn rmjqmghihjfggmfnkgl rmfqklknkhjnmmlifhi o o o rn rm o o 90-(>-;@) V V V V |
  1
<0:;8: {rn {h {g {rn {f -:):-,:; {k {rn |
  1
<0:;8: {rn {no {i {rn {nn 90-(>-; {k {rn |
  1
<0:;8: {rn {i {no {rn {nm 90-(>-; {k {rn |
  1
:;8: {rn {nl {nk {i {nj 90-(>-; |
  1
<0:;8: {rn {g {h {rn {ni 90-(>-; {k {rn |
  1
:;8: {rn {nl {nh {h {ng 90-(>-; |
  1
:;8: {rn {nf {nk {g {mo 90-(>-; |
  1
):-+:' {rn {f {mn |
  1
):-+:' {rn {f {mm |
  1
61+<*-):r<*-): {rn 90-(>-; $ :'><+<*- 1*=, l 0/:1 mk 
  1
 o l oqligokiljfljmjmjj n oqikiffjgmifofigklg n nqoigjglohkoojklhk n nqiohihjljnioiinng n 
  1
 nqfhmmojknmiffgfof n mqnfkhjgmkmhhogjlf n mqioinmmijimmmlmmg n lqnlhnlfiiikkokmkj n lqifnmlfgjmonggmhk n 
  1
 kqokoilfionkiiffnk n kqlffkggihjloikjmk n kqgnjjkihfkomhonmj n jqljoknhiinlnnjjjf n jqgnogkngnofmjifjk n 
  1
 iqmmhnfffmkgnlkoni n iqinkmilhmmmoihgkk n hqkgfigmoofjhoomml n hqgihgfiogmnmng n gqmjlnglnofmnkimnl n 
  1
 gqjjhhkmomokmlmfin n gqhimgololoifolglj n fqnknnhijkkiknoojg n fqmjiilgghlkomkimn l 
  1
 rmlqfkioifnlgnnlhgj rmgqnmmgjknmfkkgfmj o 
  1
 rmlqfhnfnjikjlhhhfn rmhqgikilmflifkgnmi o 
  1
 rmkqonhljnhmnlligjn rmhqknohoogfgfhffjk o 
  1
 rmkqihlhiklgokgngh rmiqfghnlgjlnkiiinl o 
  1
 rmjqkikikgmghgffon rmiqfkiljnkomnllhhm o 
  1
 rmiqjkglogohnllhgkl rmiqfgomlnnljonjfmh o 
  1
 rmiqiihgglmfmhjlmhk rmhqflnmiihnojigglj o 
  1
 rmiqnimoklffijnmgmn rmgqkmhklinlhjhgkmj o 
  1
 rmjqljghfilgljgjfjk rmgqjnlljginomlfjoh o 
  1
 rmkqkonhggogfmkljn rmgqhkimghnmfimkhkh o 
  1
 rmlqkjlgnnmflnjnlok rmgqfklmflnmmogfoln o 
  1
 rmmqhnjimlnglhnkljh rmfqliikngjhggmnlmj o 
  1
 rmmqnfghmimhnnlnjlk rmfqfklfhjofngojmjh o 
  1
 rmmqonmngfihogommkl rloqgmlofkiohkkghii o 
  1
 rmmqnkgigggmfhomnfj rlnqgoomklfnmlmjigl o 
  1
 rmmqgnijgfnjnihokkm rlmqjmnikimmniihgfl o 
  1
 rmlqjimiimgnmmjhokj rlmqfnfhmnmninmhjfg o 
  1
 rmkqiljfhholhoofmmi rllqmhimfglkhlljjmi o 
  1
 rmjqhjihjngkkkhjooj rllqniloimgjmgogoig o 
  1
 rmiqglojngghgongfj rlmqfihfgokifohhlng o 
  1
 rmhqkglggkngjjklfnk rlmqiklmoonnmgjgihf o 
  1
 rmhqgffnmkkoiifnnhm rlmqmojmmlhmonofhnk o 
  1
 rmgqmgohfmifnkiomil rlnqhilkngffkolnhlg o 
  1
 rmgqlhiifonfngniojl rlnqnfinkljfhhmkkmf o 
  1
 rmgqkmfjlnjfmfoniig rloqfffklhmkojfoilg o 
  1
 rmgqkjkhnojgjhgihji rloqjijojmmggljmokf o 
  1
 o 
  1
 1*33@,*-9><: 
  1
 1*33@,*-9><: 
  1
 1*33=, 
  1
 1*33=, 
  1
 V V 
  1
 o 
  1
 o 
  3
 mm oqligokiljfljmjmjj oqikiffjgmifofigklg nqoigjglohkoojklhk nqiohihjljnioiinng nqfhmmojknmiffgfof mqnfkhjgmkmhhogjlf mqioinmmijimmmlmmg lqnlhnlfiiikkokmkj lqifnmlfgjmonggmhk kqokoilfionkiiffnk kqlffkggihjloikjmk kqgnjjkihfkomhonmj jqljoknhiinlnnjjjf jqg
  1
nogkngnofmjifjk iqmmhnfffmkgnlkoni iqinkmilhmmmoihgkk hqkgfigmoofjhoomml hqgihgfiogmnmng gqmjlnglnofmnkimnl gqjjhhkmomokmlmfin gqhimgololoifolglj fqnknnhijkkiknoojg 
  1
 Y n Y o " V V |
  1
:;8: {rn {nh {nf {no {ml 90-(>-; |
  1
):-+:' {rn {ni {mk |
  1
,+->687+r<*-): {rn rmlqfkioifnlgnnlhgj rmgqnmmgjknmfkkgfmj o nqfffffggjlnomnhjn roqoomnkngiioojnojinfi o V V |
  1
):-+:' {rn {nm {mj |
  1
,+->687+r<*-): {rn rmiqgifjilghkmmokgf rloqjimflkkmkhijfnl o rnqfffffgmnkfmjoklf roqoomihmnlllkfklhngfk o V V |
  1
/061+ {rn rmlqfkioifnlgnnlhgj rmgqnmmgjknmfkkgfmj o |
  1
/061+ {rn rmgqkjkhnojgjhgihji rloqjijojmmggljmokf o |
  1
61+<*-):r<*-): {rn 90-(>-; $ :'><+<*- 1*=, l 0/:1 mg 
  1
 o l oqlfigjomnhmmhnoggk n oqhmihgjfojjnjijimj n nqongknlhimogofofh n nqmhjijkomimihfkmn n 
  1
 nqjjhhfooifjkllfmm n nqginnnojigjoifhom n mqjkkgnlhjikjngfjl n mqgnmoofmlhlingolh n lqokfffiohonmmmllj n 
  1
 lqlloonlmhgjlffngk n lqjhjiljhgilhmngkg n lqflkijnjffnhfgkfk n kqklfnimomimokiofi n kqihhohhmgmkfjfon n 
  1
 kqfjglhmkoiilonmjg n jqlmoknigoglljkill n jqijoooimimfnhomng n iqnnmooijfhfmfnkjk n iqillkinjnnhkjhlfi n 
  1
 iqfknhinkfmmgkfnmf n hqmokikooliljffifi n hqkfmhhkhgfkhifngl n hqhnffflnfkkoglkjn n gqmmhonmnijoikjmjg n 
  1
 gqhgfgkommjlomnifh n fqnlnohigkhjkjhkmm n fqlggifigilfmffjgm l 
  1
 rmmqlikfojmnginkljk rmgqnmkjkhkjnoklhfi o 
  1
 rmmqljijmfgjjjmmllf rmhqgjknoogfhmjlhjg o 
  1
 rmmqlknnfnllllignni rmhqljggogggmgflogi o 
  1
 rmmqifmhffnmikfjljf rmiqhjikojnjjngnlgl o 
  1
 rmlqognjoihmkgjoohm rmiqlomghnninihnlhi o 
  1
 rmlqjfgljkijkkokhkk rmiqogmojohikmkghfn o 
  1
 rmkqnojogfogiifgfgm rmjqglkgjmhongoioff o 
  1
 rmkqfjnmjiohfmgmkl rmjqhnhogjfhgnljonh o 
  1
 rmjqhfljfhlifnohkjf rmjqhonlijjhhfogfjf o 
  1
 rmiqjhlojiiikolookg rmjqgiihfholhfijik o 
  1
 rmhqojjknjhmomkghhk rmiqogmjjmjhhhhiiih o 
  1
 rmhqkioiilnkilolki rmiqlfmohighjomnmi o 
  1
 rmhqfnkmhjgojgoolnj rmiqhhglgikfnoghki o 
  1
 rmgqmkofhkgjkimofl rmhqkilhhmmlkojjilf o 
  1
 rmgqmgljliigmhimghm rmgqmkoghmlmimfokhm o 
  1
 rmhqfggomflmmjkhnhh rmgqgilgflgkginoil o 
  1
 rmhqingljgohikongll rmfqllijnhoohhgnngl o 
  1
 rmhqonffonmjoflmlik rmfqimlmfjghjoggnkh o 
  1
 rmiqlolojnkommghhhg rmfqgflfmokngfffffh o 
  1
 rmjqklhgikihlhomjoi rloqohnhnoinkmnmmj o 
  1
 rmkqionogkfnnijlhmf rloqnfhnmhmiolhfnoj o 
  1
 rmlqggnnljjggnlkojh rloqkgkgnmhonmfjlmi o 
  1
 rmlqijlkojklfggloni rlnqoikmmgmmkjmgilk o 
  1
 rmlqgmhijhfloimljhl rlnqimihkmnmjkiiilj o 
  1
 rmkqkfmkkmgnhhhlfm rlnqfomgnjijomninnm o 
  1
 rmjqllkgnmhokgohhki rlnqfgloklohgmjill o 
  1
 rmiqljiinhglfkoonni rlnqgljnklkgkinnolg o 
  1
 rmiqgnmokjoohlmkhjj rlnqnllogoomoohmmmg o 
  1
 rmiqgjmmimhkhniohli rloqhlkkmghgigijnfj o 
  1
 rmiqgifjilghkmmokgf rloqjimflkkmkhijfnl o 
  1
 o 
  1
 1*33@,*-9><: 
  1
 1*33@,*-9><: 
  1
 1*33=, 
  1
 1*33=, 
  1
 V V 
  1
 o 
  1
 o 
  3
 mi oqlfigjomnhmmhnoggk oqhmihgjfojjnjijimj nqongknlhimogofofh nqmhjijkomimihfkmn nqjjhhfooifjkllfmm nqginnnojigjoifhom mqjkkgnlhjikjngfjl mqgnmoofmlhlingolh lqokfffiohonmmmllj lqlloonlmhgjlffngk lqjhjiljhgilhmngkg lqflkijnjffnhfgkfk kqklfnimomimokiofi kq
  1
ihhohhmgmkfjfon kqfjglhmkoiilonmjg jqlmoknigoglljkill jqijoooimimfnhomng iqnnmooijfhfmfnkjk iqillkinjnnhkjhlfi iqfknhinkfmmgkfnmf hqmokikooliljffifi hqkfmhhkhgfkhifngl hqhnffflnfkkoglkjn gqmmhonmnijoikjmjg gqhgfgkommjlomnifh fqnlnohigkhjkjhkmm 
  1
 Y n Y o " V V |
  1
/061+ {rn rmmqlikfojmnginkljk rmgqnmkjkhkjnoklhfi o |
  1
/061+ {rn rmiqgifjilghkmmokgf rloqjimflkkmkhijfnl o |
  0
REGION
  5
280
330
1F
100
AcDbEntity
  8
5
100
AcDbModelerGeometry
 70
     1
  1
koo mi n o          
  1
h J1410(1 nl ^ \VL kqoqm QK mk R01 U*3 oh ogemmenh moog 
  1
rn fqfffffffffffffffj:rooh n:rono 
  1
=0;& {rn {n {rn {rn |
  1
3*2/ {rn {rn {m {o |
  1
,7:33 {rn {rn {rn {l {rn {n |
  1
9><: {rn {rn {k {m {rn {j -:):-,:; ;0*=3: 0*+ |
  1
300/ {rn {rn {i {l |
  1
/3>1:r,*-9><: {rn nqfofmhokhfhmlinii rmfqklknkhjnmmlifhi o o o rn rm o o 90-(>-;@) V V V V |
  1
<0:;8: {rn {h {g {rn {f -:):-,:; {k {rn |
  1
<0:;8: {rn {no {i {rn {nn 90-(>-; {k {rn |
  1
<0:;8: {rn {i {no {rn {nm 90-(>-; {k {rn |
  1
:;8: {rn {nl {nk {i {nj 90-(>-; |
  1
<0:;8: {rn {g {h {rn {ni 90-(>-; {k {rn |
  1
:;8: {rn {nl {nh {h {ng 90-(>-; |
  1
:;8: {rn {nf {nk {g {mo 90-(>-; |
  1
):-+:' {rn {f {mn |
  1
):-+:' {rn {f {mm |
  1
61+<*-):r<*-): {rn 90-(>-; $ :'><+<*- 1*=, l 0/:1 mk 
  1
 o l oqligokiljfljmjmjj n oqikiffjgmifofigklg n nqoigjglohkoojklhk n nqiohihjljnioiinng n 
  1
 nqfhmmojknmiffgfof n mqnfkhjgmkmhhogjlf n mqioinmmijimmmlmmg n lqnlhnlfiiikkokmkj n lqifnmlfgjmonggmhk n 
  1
 kqokoilfionkiiffnk n kqlffkggihjloikjmk n kqgnjjkihfkomhonmj n jqljoknhiinlnnjjjf n jqgnogkngnofmjifjk n 
  1
 iqmmhnfffmkgnlkoni n iqinkmilhmmmoihgkk n hqkgfigmoofjhoomml n hqgihgfiogmnmng n gqmjlnglnofmnkimnl n 
  1
 gqjjhhkmomokmlmfin n gqhimgololoifolglj n fqnknnhijkkiknoojg n fqmjiilgghlkomkimn l 
  1
 lqmjoghhlmffonloon rmgqnmmgjknmfkkgfmj o 
  1
 lqmmjologmmilhmflh rmhqgikilmflifkgnmi o 
  1
 lqnhfjfkhkiihgmllh rmhqknohoogfgfhffjk o 
  1
 mqjmlngmoghjllmnkh rmiqfghnlgjlnkiiinl o 
  1
 nqhlmmfgngonniohjn rmiqfkiljnkomnllhhm o 
  1
 oqikgilglfiihhmkmmn rmiqfgomlnnljonjfmh o 
  1
 oqjmfoilnhjmingnnnm rmhqflnmiihnojigglj o 
  1
 nqolkfomkhnjommilh rmgqkmhklinlhjhgkmj o 
  1
 nqglgnjoogkkmfnln rmgqjnlljginomlfjoh o 
  1
 mqhfjnjglhghhnjhkg rmgqhkimghnmfimkhkh o 
  1
 lqhklnljnhkgilhgof rmgqfklmflnmmogfoln o 
  1
 kqkgnlmlmgkloohkmh rmfqliikngjhggmnlmj o 
  1
 kqffgmmonfiggljjnn rmfqfklfhjofngojmjh o 
  1
 jqngkhjihfhmnmgjjf rloqgmlofkiohkkghii o 
  1
 jqokgmjhilglnmgfon rlnqgoomklfnmlmjigl o 
  1
 kqlgoljhlnilkkikl rlmqjmnikimmniihgfl o 
  1
 lqilkmglijjhjgolfg rlmqfnfhmnmninmhjfg o 
  1
 mqjiofifklnoojgjgi rllqmhimfglkhlljjmi o 
  1
 nqkkonfkimljkoog rllqniloimgjmgogoig o 
  1
 oqliikmhjgfffinljlk rlmqfihfgokifohhlng o 
  1
 roqmgiflhhnhjmggmfmk rlmqiklmoonnmgjgihf o 
  1
 roqhomnhhflgihiogifn rlmqmojmmlhmonofhnk o 
  1
 rnqoglgkimmlkkjnhgm rlnqhilkngffkolnhlg o 
  1
 rnqnhfhklhmlgoofihg rlnqnfinkljfhhmkkmf o 
  1
 rnqmlmjgjnmkggijgln rloqfffklhmkojfoilg o 
  1
 rnqmjhhiknnhhhnihnk rloqjijojmmggljmokf o 
  1
 o 
  1
 1*33@,*-9><: 
  1
 1*33@,*-9><: 
  1
 1*33=, 
  1
 1*33=, 
  1
 V V 
  1
 o 
  1
 o 
  3
 mm oqligokiljfljmjmjj oqikiffjgmifofigklg nqoigjglohkoojklhk nqiohihjljnioiinng nqfhmmojknmiffgfof mqnfkhjgmkmhhogjlf mqioinmmijimmmlmmg lqnlhnlfiiikkokmkj lqifnmlfgjmonggmhk kqokoilfionkiiffnk kqlffkggihjloikjmk kqgnjjkihfkomhonmj jqljoknhiinlnnjjjf jqg
  1
nogkngnofmjifjk iqmmhnfffmkgnlkoni iqinkmilhmmmoihgkk hqkgfigmoofjhoomml hqgihgfiogmnmng gqmjlnglnofmnkimnl gqjjhhkmomokmlmfin gqhimgololoifolglj fqnknnhijkkiknoojg 
  1
 Y n Y o " V V |
  1
:;8: {rn {nh {nf {no {ml 90-(>-; |
  1
):-+:' {rn {ni {mk |
  1
,+->687+r<*-): {rn lqmjoghhlmffonloon rmgqnmmgjknmfkkgfmj o nqfffffggjlnomnhjn roqoomnkngiioojnojinfi o V V |
  1
):-+:' {rn {nm {mj |
  1
,+->687+r<*-): {rn oqlmhlgmjflhfkjfjhg rloqjimflkkmkhijfnl o rnqfffffgmnkfmjoklf roqoomihmnlllkfklhngfk o V V |
  1
/061+ {rn lqmjoghhlmffonloon rmgqnmmgjknmfkkgfmj o |
  1
/061+ {rn rnqmjhhiknnhhhnihnk rloqjijojmmggljmokf o |
  1
61+<*-):r<*-): {rn 90-(>-; $ :'><+<*- 1*=, l 0/:1 mg 
  1
 o l oqlfigjomnhmmhnoggk n oqhmihgjfojjnjijimj n nqongknlhimogofofh n nqmhjijkomimihfkmn n 
  1
 nqjjhhfooifjkllfmm n nqginnnojigjoifhom n mqjkkgnlhjikjngfjl n mqgnmoofmlhlingolh n lqokfffiohonmmmllj n 
  1
 lqlloonlmhgjlffngk n lqjhjiljhgilhmngkg n lqflkijnjffnhfgkfk n kqklfnimomimokiofi n kqihhohhmgmkfjfon n 
  1
 kqfjglhmkoiilonmjg n jqlmoknigoglljkill n jqijoooimimfnhomng n iqnnmooijfhfmfnkjk n iqillkinjnnhkjhlfi n 
  1
 iqfknhinkfmmgkfnmf n hqmokikooliljffifi n hqkfmhhkhgfkhifngl n hqhnffflnfkkoglkjn n gqmmhonmnijoikjmjg n 
  1
 gqhgfgkommjlomnifh n fqnlnohigkhjkjhkmm n fqlggifigilfmffjgm l 
  1
 kqglmoknmkfkoohlnk rmgqnmkjkhkjnoklhfi o 
  1
 kqgkokniinmkfmhlnj rmhqgjknoogfhmjlhjg o 
  1
 kqgjjhjjnlkikififk rmhqljggogggmgflogi o 
  1
 kqjoknkhlknjnfhnnh rmiqhjikojnjjngnlgl o 
  1
 kqnnjklfhklnijonmj rmiqlomghnninihnlhi o 
  1
 lqjfgjfngnlinolkog rmiqogmojohikmkghfn o 
  1
 lqofngjhlgnlninolm rmjqglkgjmhongoioff o 
  1
 mqmkjifolgghlmijkh rmjqhnhogjfhgnljonh o 
  1
 nqkollkfofgfohimji rmjqhonlijjhhfogfjf o 
  1
 oqimlggfgolfgjolifn rmjqgiihfholhfijik o 
  1
 oqnknjlohkhhiilnojg rmiqogmjjmjhhhhiiih o 
  1
 roqmilhniihgmgglhjln rmiqlfmohighjomnmi o 
  1
 roqhnhlmfllhhgjmlolk rmiqhhglgikfnoghki o 
  1
 rnqokkomglgiiojgkjn rmhqkilhhmmlkojjilf o 
  1
 rnqogijfomnkhkhhgig rmgqmkoghmlmimfokhm o 
  1
 roqhfnogmgjkjlmofmkg rmgqgilgflgkginoil o 
  1
 roqkmnknnioglgihkgoh rmfqllijnhoohhgnngl o 
  1
 oqnhhokjmnhogmhmnmj rmfqimlmfjghjoggnkh o 
  1
 oqgflgfjoijhmhloign rmfqgflfmokngfffffh o 
  1
 nqhjfognhfklnmjhgj rloqohnhnoinkmnmmj o 
  1
 mqjfjginjjilinljil rloqnfhnmhmiolhfnoj o 
  1
 lqlnjgnoghfggnomhj rloqkgkgnmhonmfjlmi o 
  1
 lqjkljknomgnlmoigj rlnqoikmmgmmkjmgilk o 
  1
 lqlifmggjlhlfnjnng rlnqimihkmnmjkiiilj o 
  1
 mqhokjolijomknnikg rlnqfomgnjijomninnm o 
  1
 nqgimnllhilmohllfn rlnqfgloklohgmjill o 
  1
 oqgkolmgimginkfiflg rlnqgljnklkgkinnolg o 
  1
 oqlgkfonkioifolmfi rlnqnllogoomoohmmmg o 
  1
 oqlkkiglhmogjklkgjn rloqhlkkmghgigijnfj o 
  1
 oqlmhlgmjflhfkjfjhg rloqjimflkkmkhijfnl o 
  1
 o 
  1
 1*33@,*-9><: 
  1
 1*33@,*-9><: 
  1
 1*33=, 
  1
 1*33=, 
  1
 V V 
  1
 o 
  1
 o 
  3
 mi oqlfigjomnhmmhnoggk oqhmihgjfojjnjijimj nqongknlhimogofofh nqmhjijkomimihfkmn nqjjhhfooifjkllfmm nqginnnojigjoifhom mqjkkgnlhjikjngfjl mqgnmoofmlhlingolh lqokfffiohonmmmllj lqlloonlmhgjlffngk lqjhjiljhgilhmngkg lqflkijnjffnhfgkfk kqklfnimomimokiofi kq
  1
ihhohhmgmkfjfon kqfjglhmkoiilonmjg jqlmoknigoglljkill jqijoooimimfnhomng iqnnmooijfhfmfnkjk iqillkinjnnhkjhlfi iqfknhinkfmmgkfnmf hqmokikooliljffifi hqkfmhhkhgfkhifngl hqhnffflnfkkoglkjn gqmmhonmnijoikjmjg gqhgfgkommjlomnifh fqnlnohigkhjkjhkmm 
  1
 Y n Y o " V V |
  1
/061+ {rn kqglmoknmkfkoohlnk rmgqnmkjkhkjnoklhfi o |
  1
/061+ {rn oqlmhlgmjflhfkjfjhg rloqjimflkkmkhijfnl o |
  0
REGION
  5
281
330
1F
100
AcDbEntity
  8
5
100
AcDbModelerGeometry
 70
     1
  1
koo mi n o          
  1
h J1410(1 nl ^ \VL kqoqm QK mk R01 U*3 oh ogemmenh moog 
  1
rn fqfffffffffffffffj:rooh n:rono 
  1
=0;& {rn {n {rn {rn |
  1
3*2/ {rn {rn {m {o |
  1
,7:33 {rn {rn {rn {l {rn {n |
  1
9><: {rn {rn {k {m {rn {j 90-(>-; ;0*=3: 0*+ |
  1
300/ {rn {rn {i {l |
  1
/3>1:r,*-9><: {rn rjqofgihikkggikoigg rmfqklknkhjnmmlifhi o o o n m o o 90-(>-;@) V V V V |
  1
<0:;8: {rn {h {g {rn {f 90-(>-; {k {rn |
  1
<0:;8: {rn {no {i {rn {nn -:):-,:; {k {rn |
  1
<0:;8: {rn {i {no {rn {nm 90-(>-; {k {rn |
  1
:;8: {rn {nl {nk {i {nj 90-(>-; |
  1
<0:;8: {rn {g {h {rn {ni 90-(>-; {k {rn |
  1
:;8: {rn {nh {nk {h {ng 90-(>-; |
  1
:;8: {rn {nf {nl {g {mo 90-(>-; |
  1
):-+:' {rn {f {mn |
  1
):-+:' {rn {f {mm |
  1
,+->687+r<*-): {rn riqigojikllkhflohjk rloqjimflkkmkhijfnl o rnqfffffgmnkfmjoklf roqoomihmnlllkfklhngfk o V V |
  1
:;8: {rn {nh {nf {no {ml 90-(>-; |
  1
):-+:' {rn {nn {mk |
  1
61+<*-):r<*-): {rn 90-(>-; $ :'><+<*- 1*=, l 0/:1 mk 
  1
 o l oqligokiljfljmjmjj n oqikiffjgmifofigklg n nqoigjglohkoojklhk n nqiohihjljnioiinng n 
  1
 nqfhmmojknmiffgfof n mqnfkhjgmkmhhogjlf n mqioinmmijimmmlmmg n lqnlhnlfiiikkokmkj n lqifnmlfgjmonggmhk n 
  1
 kqokoilfionkiiffnk n kqlffkggihjloikjmk n kqgnjjkihfkomhonmj n jqljoknhiinlnnjjjf n jqgnogkngnofmjifjk n 
  1
 iqmmhnfffmkgnlkoni n iqinkmilhmmmoihgkk n hqkgfigmoofjhoomml n hqgihgfiogmnmng n gqmjlnglnofmnkimnl n 
  1
 gqjjhhkmomokmlmfin n gqhimgololoifolglj n fqnknnhijkkiknoojg n fqmjiilgghlkomkimn l 
  1
 rlqhjhoifjfgigilhnn rmgqnmmgjknmfkkgfmj o 
  1
 rlqhgmfninojfjolhhj rmhqgikilmflifkgnmi o 
  1
 rlqgmgljmngnfofklhj rmhqknohoogfgfhffjk o 
  1
 rkqkgkhikgknojkkjij rmiqfghnlgjlnkiiinl o 
  1
 rjqmhjikghkgkhnjfim rmiqfkiljnkomnllhhm o 
  1
 riqljflogjlnfnokmf rmiqfgomlnnljonjfmh o 
  1
 riqkhggglhjllmjgion rmhqflnmiihnojigglj o 
  1
 rjqfhlokkkjhogjkohj rmgqkmhklinlhjhgkmj o 
  1
 rjqnifhfigkknjgjkom rmgqjnlljginomlfjoh o 
  1
 rkqmnmhggjkfgniofik rmgqhkimghnmfimkhkh o 
  1
 rlqmikgnnhjlhmlgfol rmgqfklmflnmmogfoln o 
  1
 rmqjmiimlikkmgifkmh rmfqliikngjhggmnlmj o 
  1
 rmqoofhmihlnhoknmon rmfqfklfhjofngojmjh o 
  1
 rnqgmlnfonlnlhkgmfj rloqgmlofkiohkkghii o 
  1
 rnqfjfigfmfomhkhgnn rlnqgoomklfnmlmjigl o 
  1
 rmqimhjgfinmmklomgm rlmqjmnikimmniihgfl o 
  1
 rlqlhliilmhmgmfilnk rlmqfnfhmnmninmhjfg o 
  1
 rkqkkifhhkfhjgngnmi rllqmhimfglkhlljjmi o 
  1
 rjqjihhjmlojokhjfnm rllqniloimgjmgogoig o 
  1
 riqiknjnfllgjfnjljf rlmqfihfgokifohhlng o 
  1
 rhqmfkggkikinnijook rlmqiklmoonnmgjgihf o 
  1
 rhqhnonmkgihmilhjgn rlmqmojmmlhmonofhnk o 
  1
 rgqofnhflnjmolmgkfk rlnqhilkngffkolnhlg o 
  1
 rgqnghifoijmlggilf rlnqnfinkljfhhmkkmf o 
  1
 rgqmkojlmojlkhkmjkl rloqfffklhmkojfoilg o 
  1
 rgqmijhnnokiljflkmi rloqjijojmmggljmokf o 
  1
 o 
  1
 1*33@,*-9><: 
  1
 1*33@,*-9><: 
  1
 1*33=, 
  1
 1*33=, 
  1
 V V 
  1
 o 
  1
 o 
  3
 mm oqligokiljfljmjmjj oqikiffjgmifofigklg nqoigjglohkoojklhk nqiohihjljnioiinng nqfhmmojknmiffgfof mqnfkhjgmkmhhogjlf mqioinmmijimmmlmmg lqnlhnlfiiikkokmkj lqifnmlfgjmonggmhk kqokoilfionkiiffnk kqlffkggihjloikjmk kqgnjjkihfkomhonmj jqljoknhiinlnnjjjf jqg
  1
nogkngnofmjifjk iqmmhnfffmkgnlkoni iqinkmilhmmmoihgkk hqkgfigmoofjhoomml hqgihgfiogmnmng gqmjlnglnofmnkimnl gqjjhhkmomokmlmfin gqhimgololoifolglj fqnknnhijkkiknoojg 
  1
 Y n Y o " V V |
  1
):-+:' {rn {ni {mj |
  1
61+<*-):r<*-): {rn 90-(>-; $ :'><+<*- 1*=, l 0/:1 mg 
  1
 o l oqlfigjomnhmmhnoggk n oqhmihgjfojjnjijimj n nqongknlhimogofofh n nqmhjijkomimihfkmn n 
  1
 nqjjhhfooifjkllfmm n nqginnnojigjoifhom n mqjkkgnlhjikjngfjl n mqgnmoofmlhlingolh n lqokfffiohonmmmllj n 
  1
 lqlloonlmhgjlffngk n lqjhjiljhgilhmngkg n lqflkijnjffnhfgkfk n kqklfnimomimokiofi n kqihhohhmgmkfjfon n 
  1
 kqfjglhmkoiilonmjg n jqlmoknigoglljkill n jqijoooimimfnhomng n iqnnmooijfhfmfnkjk n iqillkinjnnhkjhlfi n 
  1
 iqfknhinkfmmgkfnmf n hqmokikooliljffifi n hqkfmhhkhgfkhifngl n hqhnffflnfkkoglkjn n gqmmhonmnijoikjmjg n 
  1
 gqhgfgkommjlomnifh n fqnlnohigkhjkjhkmm n fqlggifigilfmffjgm l 
  1
 rmqnhjfojihfngiflfg rmgqnmkjkhkjnoklhfi o 
  1
 rmqnihjlolniofkfmjj rmhqgjknoogfhmjlhjg o 
  1
 rmqnjmnfnhflfkohong rmhqljggogggmgflogi o 
  1
 rmqjolhffjghoihfkjl rmiqhjikojnjjngnlgl o 
  1
 rmqgfmjohngjkmmijgh rmiqlomghnninihnlhi o 
  1
 rlqkofljjnnkfhhlloj rmiqogmojohikmkghfn o 
  1
 rlqfniogfjkhmhnjig rmjqglkgjmhongoioff o 
  1
 rkqhimmjijlfgjjonij rmjqhnhogjfhgnljonh o 
  1
 rjqiokjfhgmfigookji rmjqhonlijjhhfogfjf o 
  1
 riqlgkojhnmkiomilkl rmjqgiihfholhfijik o 
  1
 riqgiikningogmnlioi rmiqogmjjmjhhhhiiih o 
  1
 rhqmhniilioighiokij rmiqlfmohighjomnmi o 
  1
 rhqhmjmhimiilhmfonj rmiqhhglgikfnoghki o 
  1
 rgqojnfhjlnjnfljnil rmhqkilhhmmlkojjilf o 
  1
 rgqofkjlhnkllljkjg rmgqmkoghmlmimfokhm o 
  1
 rhqhffomfhglnnfhilh rmgqgilgflgkginoil o 
  1
 rhqkmfljgjlifhkknfl rmfqllijnhoohhgnngl o 
  1
 riqglofonhnnjokfj rmfqimlmfjghjoggnkh o 
  1
 riqnnkojngimgiolikk rmfqgflfmokngfffffh o 
  1
 rjqmkggijnlkmhjofmh rloqohnhnoinkmnmmj o 
  1
 rkqknmogjlhmmmilnkf rloqnfhnmhmiolhfnoj o 
  1
 rlqifmnliokghoiiklh rloqkgkgnmhonmfjlmi o 
  1
 rlqkikkojfookjjiomh rlnqoikmmgmmkjmgilk o 
  1
 rlqilgijglfnnfinjfk rlnqimihkmnmjkiiilj o 
  1
 rkqlolkklmhglkijoik rlnqfomgnjijomninnm o 
  1
 rjqnkjgnlnijlgollmn rlnqfgloklohgmjill o 
  1
 riqnihingmfffhmhong rlnqgljnklkgkinnolg o 
  1
 riqimlokjkihgfhlkni rlnqnllogoomoohmmmg o 
  1
 riqiilmilmohhlllmmh rloqhlkkmghgigijnfj o 
  1
 riqigojikllkhflohjk rloqjimflkkmkhijfnl o 
  1
 o 
  1
 1*33@,*-9><: 
  1
 1*33@,*-9><: 
  1
 1*33=, 
  1
 1*33=, 
  1
 V V 
  1
 o 
  1
 o 
  3
 mi oqlfigjomnhmmhnoggk oqhmihgjfojjnjijimj nqongknlhimogofofh nqmhjijkomimihfkmn nqjjhhfooifjkllfmm nqginnnojigjoifhom mqjkkgnlhjikjngfjl mqgnmoofmlhlingolh lqokfffiohonmmmllj lqlloonlmhgjlffngk lqjhjiljhgilhmngkg lqflkijnjffnhfgkfk kqklfnimomimokiofi kq
  1
ihhohhmgmkfjfon kqfjglhmkoiilonmjg jqlmoknigoglljkill jqijoooimimfnhomng iqnnmooijfhfmfnkjk iqillkinjnnhkjhlfi iqfknhinkfmmgkfnmf hqmokikooliljffifi hqkfmhhkhgfkhifngl hqhnffflnfkkoglkjn gqmmhonmnijoikjmjg gqhgfgkommjlomnifh fqnlnohigkhjkjhkmm 
  1
 Y n Y o " V V |
  1
/061+ {rn riqigojikllkhflohjk rloqjimflkkmkhijfnl o |
  1
/061+ {rn rgqmijhnnokiljflkmi rloqjijojmmggljmokf o |
  1
,+->687+r<*-): {rn rlqhjhoifjfgigilhnn rmgqnmmgjknmfkkgfmj o nqfffffggjlnomnhjn roqoomnkngiioojnojinfi o V V |
  1
/061+ {rn rlqhjhoifjfgigilhnn rmgqnmmgjknmfkkgfmj o |
  1
/061+ {rn rmqnhjfojihfngiflfg rmgqnmkjkhkjnoklhfi o |
  0
REGION
  5
282
330
1F
100
AcDbEntity
  8
5
100
AcDbModelerGeometry
 70
     1
  1
koo mi n o          
  1
h J1410(1 nl ^ \VL kqoqm QK mk R01 U*3 oh ogemmenh moog 
  1
rn fqfffffffffffffffj:rooh n:rono 
  1
=0;& {rn {n {rn {rn |
  1
3*2/ {rn {rn {m {o |
  1
,7:33 {rn {rn {rn {l {rn {n |
  1
9><: {rn {rn {k {m {rn {j 90-(>-; ;0*=3: 0*+ |
  1
300/ {rn {rn {i {l |
  1
/3>1:r,*-9><: {rn rnoqomhkjoginkigghg rmfqklgfmholmkfnkil o o o n m o o 90-(>-;@) V V V V |
  1
<0:;8: {rn {h {g {rn {f -:):-,:; {k {rn |
  1
<0:;8: {rn {no {i {rn {nn -:):-,:; {k {rn |
  1
<0:;8: {rn {i {no {rn {nm -:):-,:; {k {rn |
  1
:;8: {rn {nl {nk {i {nj 90-(>-; |
  1
<0:;8: {rn {g {h {rn {ni -:):-,:; {k {rn |
  1
:;8: {rn {nh {nl {h {ng 90-(>-; |
  1
:;8: {rn {nk {nf {g {mo 90-(>-; |
  1
):-+:' {rn {f {mn |
  1
):-+:' {rn {f {mm |
  1
,+->687+r<*-): {rn rnoqfmlfglgjommjkjk rllqomfkkhhfoolfknl o o m o V V |
  1
:;8: {rn {nf {nh {no {ml 90-(>-; |
  1
):-+:' {rn {ni {mk |
  1
,+->687+r<*-): {rn rfqnlofnhghmhnmlomi rllqomfkkhhfoolfknl o rm o o V V |
  1
):-+:' {rn {nm {mj |
  1
,+->687+r<*-): {rn rnoqfmlfglgjommjkjk rmjqgkgkoimhkfkljnk o m o o V V |
  1
/061+ {rn rnoqfmlfglgjommjkjk rllqomfkkhhfoolfknl o |
  1
/061+ {rn rnoqfmlfglgjommjkjk rmjqgkgkoimhkfkljnk o |
  1
,+->687+r<*-): {rn rfqnlofnhghmhnmlomi rmjqgkgkoimhkfkljnk o o rm o V V |
  1
/061+ {rn rfqnlofnhghmhnmlomi rllqomfkkhhfoolfknl o |
  1
/061+ {rn rfqnlofnhghmhnmlomi rmjqgkgkoimhkfkljnk o |
  0
REGION
  5
283
330
1F
100
AcDbEntity
  8
5
100
AcDbModelerGeometry
 70
     1
  1
koo ki n o          
  1
h J1410(1 nl ^ \VL kqoqm QK mk R01 U*3 oh ogemmenh moog 
  1
rn fqfffffffffffffffj:rooh n:rono 
  1
=0;& {rn {n {rn {rn |
  1
3*2/ {rn {rn {m {o |
  1
,7:33 {rn {rn {rn {l {rn {n |
  1
9><: {rn {rn {k {m {rn {j -:):-,:; ;0*=3: 0*+ |
  1
300/ {rn {rn {i {l |
  1
/3>1:r,*-9><: {rn nhqfhkinhlmkflkmgi rmgqmgikgmjfililgjk o o o rn rm o o 90-(>-;@) V V V V |
  1
<0:;8: {rn {h {g {rn {f -:):-,:; {k {rn |
  1
<0:;8: {rn {no {i {rn {nn -:):-,:; {k {rn |
  1
<0:;8: {rn {i {nm {rn {nl -:):-,:; {k {rn |
  1
:;8: {rn {nk {nj {i {ni 90-(>-; |
  1
<0:;8: {rn {nh {h {rn {ng -:):-,:; {k {rn |
  1
:;8: {rn {nf {nk {h {mo 90-(>-; |
  1
<0:;8: {rn {g {mn {rn {mm -:):-,:; {k {rn |
  1
:;8: {rn {nj {ml {g {mk 90-(>-; |
  1
):-+:' {rn {f {mj |
  1
):-+:' {rn {f {mi |
  1
,+->687+r<*-): {rn mnqnnomolmfoljolkn rmhqnmikomhokihiolf o rm o o V V |
  1
<0:;8: {rn {mh {no {rn {mg -:):-,:; {k {rn |
  1
:;8: {rn {mf {nf {no {lo 90-(>-; |
  1
):-+:' {rn {ng {ln |
  1
,+->687+r<*-): {rn mnqnnomolmfoljolkn rmjqglfjfohmglkimii o o rm o V V |
  1
<0:;8: {rn {nm {mh {rn {lm -:):-,:; {k {rn |
  1
:;8: {rn {ml {ll {nm {lk 90-(>-; |
  1
):-+:' {rn {nl {lj |
  1
,+->687+r<*-): {rn ngqhggffmmoojkjhkf rmhqnmikomhokihiolf o o rm o V V |
  1
/061+ {rn mnqnnomolmfoljolkn rmhqnmikomhokihiolf o |
  1
/061+ {rn ngqhggffmmoojkjhkf rmhqnmikomhokihiolf o |
  1
<0:;8: {rn {mn {nh {rn {li -:):-,:; {k {rn |
  1
:;8: {rn {lh {mf {nh {lg 90-(>-; |
  1
):-+:' {rn {mg {lf |
  1
,+->687+r<*-): {rn nkqfohlonkmffojmki rmjqglfjfohmglkimii o m o o V V |
  1
/061+ {rn mnqnnomolmfoljolkn rmjqglfjfohmglkimii o |
  1
:;8: {rn {ll {ko {mn {kn 90-(>-; |
  1
):-+:' {rn {mm {km |
  1
,+->687+r<*-): {rn ngqhggffmmoojkjhkf rllqojljlkmkhhjhohn o rm o o V V |
  1
/061+ {rn ngqhggffmmoojkjhkf rllqojljlkmkhhjhohn o |
  1
:;8: {rn {ko {lh {mh {kl 90-(>-; |
  1
):-+:' {rn {li {kk |
  1
,+->687+r<*-): {rn nkqfohlonkmffojmki rmhqnmikomhokihiolf o o m o V V |
  1
/061+ {rn nkqfohlonkmffojmki rmjqglfjfohmglkimii o |
  1
):-+:' {rn {lm {kj |
  1
,+->687+r<*-): {rn nhqofnfhmlhgfljhfl rllqojljlkmkhhjhohn o o m o V V |
  1
/061+ {rn nhqofnfhmlhgfljhfl rllqojljlkmkhhjhohn o |
  1
,+->687+r<*-): {rn nhqofnfhmlhgfljhfl rmhqnmikomhokihiolf o rm o o V V |
  1
/061+ {rn nkqfohlonkmffojmki rmhqnmikomhokihiolf o |
  1
/061+ {rn nhqofnfhmlhgfljhfl rmhqnmikomhokihiolf o |
  0
REGION
  5
284
330
1F
100
AcDbEntity
  8
5
100
AcDbModelerGeometry
 70
     1
  1
koo mi n o          
  1
h J1410(1 nl ^ \VL kqoqm QK mk R01 U*3 oh ogemmenh moog 
  1
rn fqfffffffffffffffj:rooh n:rono 
  1
=0;& {rn {n {rn {rn |
  1
3*2/ {rn {rn {m {o |
  1
,7:33 {rn {rn {rn {l {rn {n |
  1
9><: {rn {rn {k {m {rn {j -:):-,:; ;0*=3: 0*+ |
  1
300/ {rn {rn {i {l |
  1
/3>1:r,*-9><: {rn noqokofohmlmfllflm rmfqkljlljghmkfhhln o o o rn rm o o 90-(>-;@) V V V V |
  1
<0:;8: {rn {h {g {rn {f 90-(>-; {k {rn |
  1
<0:;8: {rn {no {i {rn {nn 90-(>-; {k {rn |
  1
<0:;8: {rn {i {no {rn {nm 90-(>-; {k {rn |
  1
:;8: {rn {nl {nk {i {nj 90-(>-; |
  1
<0:;8: {rn {g {h {rn {ni 90-(>-; {k {rn |
  1
:;8: {rn {nk {nh {h {ng 90-(>-; |
  1
:;8: {rn {nf {nl {g {mo 90-(>-; |
  1
):-+:' {rn {f {mn |
  1
):-+:' {rn {f {mm |
  1
,+->687+r<*-): {rn nlqfknnkmglnflhlnl rllqnklilionjgmimi o o m o V V |
  1
:;8: {rn {nh {nf {no {ml 90-(>-; |
  1
):-+:' {rn {nn {mk |
  1
,+->687+r<*-): {rn nlqfknnkmglnflhlnl rmjqhmholjhmfnifmom o rm o o V V |
  1
):-+:' {rn {ni {mj |
  1
,+->687+r<*-): {rn iqnkoihnillflojlhi rllqnklilionjgmimi o m o o V V |
  1
/061+ {rn nlqfknnkmglnflhlnl rllqnklilionjgmimi o |
  1
/061+ {rn nlqfknnkmglnflhlnl rmjqhmholjhmfnifmom o |
  1
,+->687+r<*-): {rn iqnkoihnillflojlhi rmjqhmholjhmfnifmom o o rm o V V |
  1
/061+ {rn iqnkoihnillflojlhi rmjqhmholjhmfnifmom o |
  1
/061+ {rn iqnkoihnillflojlhi rllqnklilionjgmimi o |
  0
REGION
  5
285
330
1F
100
AcDbEntity
  8
5
100
AcDbModelerGeometry
 70
     1
  1
koo ii n o          
  1
h J1410(1 nl ^ \VL kqoqm QK mk R01 U*3 oh ogemmenh moog 
  1
rn fqfffffffffffffffj:rooh n:rono 
  1
=0;& {rn {n {rn {rn |
  1
3*2/ {rn {rn {m {o |
  1
,7:33 {rn {rn {rn {l {rn {n |
  1
9><: {rn {rn {k {m {rn {j -:):-,:; ;0*=3: 0*+ |
  1
300/ {rn {rn {i {l |
  1
/3>1:r,*-9><: {rn noqojljilfilnmhjom rmfqkkijimkggojnik o o o rn rm o o 90-(>-;@) V V V V |
  1
<0:;8: {rn {h {g {rn {f 90-(>-; {k {rn |
  1
<0:;8: {rn {no {i {rn {nn 90-(>-; {k {rn |
  1
<0:;8: {rn {i {nm {rn {nl 90-(>-; {k {rn |
  1
:;8: {rn {nk {nj {i {ni 90-(>-; |
  1
<0:;8: {rn {nh {h {rn {ng 90-(>-; {k {rn |
  1
:;8: {rn {nj {nf {h {mo 90-(>-; |
  1
<0:;8: {rn {g {mn {rn {mm 90-(>-; {k {rn |
  1
:;8: {rn {ml {nk {g {mk 90-(>-; |
  1
):-+:' {rn {f {mj |
  1
):-+:' {rn {f {mi |
  1
,+->687+r<*-): {rn nlqnfohhjkkmlhoili rloqmkjfkjooffnkogn o o m o V V |
  1
<0:;8: {rn {mh {no {rn {mg 90-(>-; {k {rn |
  1
:;8: {rn {nf {mf {no {lo 90-(>-; |
  1
):-+:' {rn {nn {ln |
  1
,+->687+r<*-): {rn nlqnfohhjkkmlhoili rmgqikhnhffiingfnkm o rm o o V V |
  1
<0:;8: {rn {nm {lm {rn {ll 90-(>-; {k {rn |
  1
:;8: {rn {lk {ml {nm {lj 90-(>-; |
  1
):-+:' {rn {mm {li |
  1
,+->687+r<*-): {rn noqfgijffglhhijogk rloqmkjfkjooffnkogn o m o o V V |
  1
/061+ {rn nlqnfohhjkkmlhoili rloqmkjfkjooffnkogn o |
  1
/061+ {rn nlqnfohhjkkmlhoili rmgqikhnhffiingfnkm o |
  1
<0:;8: {rn {lh {nh {rn {lg 90-(>-; {k {rn |
  1
:;8: {rn {mf {lf {nh {ko 90-(>-; |
  1
):-+:' {rn {ng {kn |
  1
,+->687+r<*-): {rn noqfgijffglhhijogk rmgqikhnhffiingfnkm o o m o V V |
  1
/061+ {rn noqfgijffglhhijogk rmgqikhnhffiingfnkm o |
  1
<0:;8: {rn {mn {km {rn {kl 90-(>-; {k {rn |
  1
:;8: {rn {kk {lk {mn {kj 90-(>-; |
  1
):-+:' {rn {ll {ki |
  1
,+->687+r<*-): {rn noqfgijffglhhijogk rlmqknonmgmjfjfmngk o o m o V V |
  1
/061+ {rn noqfgijffglhhijogk rloqmkjfkjooffnkogn o |
  1
<0:;8: {rn {kh {mh {rn {kg 90-(>-; {k {rn |
  1
:;8: {rn {lf {kf {mh {jo 90-(>-; |
  1
):-+:' {rn {mg {jn |
  1
,+->687+r<*-): {rn noqfgijffglhhijogk rmiqkgmffihnijnnnjl o rm o o V V |
  1
/061+ {rn noqfgijffglhhijogk rmiqkgmffihnijnnnjl o |
  1
<0:;8: {rn {lm {kh {rn {jm 90-(>-; {k {rn |
  1
:;8: {rn {jl {kk {lm {jk 90-(>-; |
  1
):-+:' {rn {kl {jj |
  1
,+->687+r<*-): {rn fqnnkomiollngniloh rlmqknonmgmjfjfmngk o m o o V V |
  1
/061+ {rn noqfgijffglhhijogk rlmqknonmgmjfjfmngk o |
  1
<0:;8: {rn {km {lh {rn {ji 90-(>-; {k {rn |
  1
:;8: {rn {kf {jh {lh {jg 90-(>-; |
  1
):-+:' {rn {lg {jf |
  1
,+->687+r<*-): {rn fqnnkomiollngniloh rmiqkgmffihnijnnnjl o o rm o V V |
  1
/061+ {rn fqnnkomiollngniloh rmiqkgmffihnijnnnjl o |
  1
:;8: {rn {io {jl {km {in 90-(>-; |
  1
):-+:' {rn {jm {im |
  1
,+->687+r<*-): {rn fqnnkomiollngniloh rloqmmikkgoiklinmoh o o rm o V V |
  1
/061+ {rn fqnnkomiollngniloh rlmqknonmgmjfjfmngk o |
  1
:;8: {rn {jh {io {kh {il 90-(>-; |
  1
):-+:' {rn {kg {ik |
  1
,+->687+r<*-): {rn fqnnkomiollngniloh rmgqiiiihifnnhkmnl o rm o o V V |
  1
/061+ {rn fqnnkomiollngniloh rmgqiiiihifnnhkmnl o |
  1
):-+:' {rn {ji {ij |
  1
,+->687+r<*-): {rn iqfmfljijfkjoofhlm rloqmmikkgoiklinmoh o m o o V V |
  1
/061+ {rn fqnnkomiollngniloh rloqmmikkgoiklinmoh o |
  1
,+->687+r<*-): {rn iqfmfljijfkjoofhlm rmgqiiiihifnnhkmnl o o rm o V V |
  1
/061+ {rn iqfmfljijfkjoofhlm rmgqiiiihifnnhkmnl o |
  1
/061+ {rn iqfmfljijfkjoofhlm rloqmmikkgoiklinmoh o |
  0
REGION
  5
286
330
1F
100
AcDbEntity
  8
5
100
AcDbModelerGeometry
 70
     1
  1
koo li n o          
  1
h J1410(1 nl ^ \VL kqoqm QK mk R01 U*3 oh ogemmenh moog 
  1
rn fqfffffffffffffffj:rooh n:rono 
  1
=0;& {rn {n {rn {rn |
  1
3*2/ {rn {rn {m {o |
  1
,7:33 {rn {rn {rn {l {rn {n |
  1
9><: {rn {rn {k {m {rn {j -:):-,:; ;0*=3: 0*+ |
  1
300/ {rn {rn {i {l |
  1
/3>1:r,*-9><: {rn knqogjmjnhlohngogj rloqmmoiiiommnklikh o o o rn rm o o 90-(>-;@) V V V V |
  1
<0:;8: {rn {h {g {rn {f 90-(>-; {k {rn |
  1
<0:;8: {rn {no {i {rn {nn 90-(>-; {k {rn |
  1
<0:;8: {rn {i {nm {rn {nl 90-(>-; {k {rn |
  1
:;8: {rn {nk {nj {i {ni 90-(>-; |
  1
<0:;8: {rn {nh {h {rn {ng 90-(>-; {k {rn |
  1
:;8: {rn {nj {nf {h {mo 90-(>-; |
  1
<0:;8: {rn {g {nh {rn {mn 90-(>-; {k {rn |
  1
:;8: {rn {mm {nk {g {ml 90-(>-; |
  1
):-+:' {rn {f {mk |
  1
):-+:' {rn {f {mj |
  1
,+->687+r<*-): {rn koqlggglijkgklgmlj rlnqhjfnojhnihofnon o o m o V V |
  1
<0:;8: {rn {nm {no {rn {mi 90-(>-; {k {rn |
  1
:;8: {rn {nf {mh {no {mg 90-(>-; |
  1
):-+:' {rn {nn {mf |
  1
,+->687+r<*-): {rn koqlggglijkgklgmlj rmjqgkjnhfjinfjjfom o rm o o V V |
  1
:;8: {rn {lo {mm {nm {ln 90-(>-; |
  1
):-+:' {rn {mn {lm |
  1
,+->687+r<*-): {rn kkqohjhkmojlgnfkjk rlnqhjfnojhnihofnon o rm o o V V |
  1
/061+ {rn koqlggglijkgklgmlj rlnqhjfnojhnihofnon o |
  1
/061+ {rn koqlggglijkgklgmlj rmjqgkjnhfjinfjjfom o |
  1
:;8: {rn {mh {lo {nh {ll 90-(>-; |
  1
):-+:' {rn {ng {lk |
  1
,+->687+r<*-): {rn lgqhfnnhijgfgfijof rmjqgkjnhfjinfjjfom o o rm o V V |
  1
/061+ {rn lgqhfnnhijgfgfijof rmjqgkjnhfjinfjjfom o |
  1
):-+:' {rn {mi {lj |
  1
,+->687+r<*-): {rn kkqohjhkmojlgnfkjk rllqojhhnmhghhijfli o o m o V V |
  1
/061+ {rn kkqohjhkmojlgnfkjk rlnqhjfnojhnihofnon o |
  1
,+->687+r<*-): {rn lgqhfnnhijgfgfijof rllqojhhnmhghhijfli o m o o V V |
  1
/061+ {rn lgqhfnnhijgfgfijof rllqojhhnmhghhijfli o |
  1
/061+ {rn kkqohjhkmojlgnfkjk rllqojhhnmhghhijfli o |
  0
REGION
  5
287
330
1F
100
AcDbEntity
  8
5
100
AcDbModelerGeometry
 70
     1
  1
koo nn n o          
  1
h J1410(1 nl ^ \VL kqoqm QK mk R01 U*3 oh ogemmenh moog 
  1
rn fqfffffffffffffffj:rooh n:rono 
  1
=0;& {rn {n {rn {rn |
  1
3*2/ {rn {rn {m {o |
  1
,7:33 {rn {rn {rn {l {rn {n |
  1
9><: {rn {rn {k {m {rn {j 90-(>-; ;0*=3: 0*+ |
  1
300/ {rn {rn {i {l |
  1
/3>1:r,*-9><: {rn llqhihlglfjgilogl rmfqkhmokfkmogjmjhn o o o n m o o 90-(>-;@) V V V V |
  1
<0:;8: {rn {i {i {rn {h 90-(>-; {k {rn |
  1
:;8: {rn {g {g {i {f 90-(>-; |
  1
):-+:' {rn {h {no |
  1
61+<*-):r<*-): {rn 90-(>-; $ :'><+<*- 1*=, l <30,:; mg 
  1
 o l oqjmgoifhjffkokifih n oqflmofglijffhhnlml n nqloihiinnoohnkhhg n nqhiljkmjkiinmjogl n 
  1
 mqnnnognoonkmogkkg n mqjillgijfimjkjnik n lqoflnkgomngmkggl n lqjiofnfmlfomimlli n lqfhkfokkklhhjkhig n 
  1
 kqmmmiimiinffogokn n kqimoijkgflgjimkgi n jqnhnhjmjiknoghohf n jqgjhnohgjlmjimmmm n iqmifnifjjikfnhhif n 
  1
 iqinofhklnkknfofok n hqojhfikfhomnjoklj n hqkjfhiggmgmmilljf n hqflgljnffjgoflgkm n gqlkmoookkglnihffl n 
  1
 gqjgkiohmfjkmmgjfi n fqnjglfmnhjohhikfk n fqijimfofkfkhflmmn n noqnoogkffjggjfkfl n noqjokghfmojlgjmoi n 
  1
 noqgklkglgogmlgfkh n nnqoiggghmhoijglhi n nnqhjkmognioiokmgh l 
  1
 llqojgifmhihnflmfl rmjqhfmlkhlkiilnmki o 
  1
 lmqhnlgifjiollnlhj rmjqghognomiiojhnm o 
  1
 lmqnojmmojmfljgooh rmiqooflojjmiioofgl o 
  1
 lnqlkmilfokmkjlfmj rmiqkifgfmihmihhfhm o 
  1
 loqgmlokmljmmmgnmg rmhqnmnnhmgikhiomgl o 
  1
 loqkkljgiimonhogf rmhqgnnnghhgjigmhnf o 
  1
 loqnjnjhfhfkhminok rmgqioljgfmgjhfjfoi o 
  1
 loqogmhijkfngnfkl rmfqkflmlilglkommkg o 
  1
 loqnmmkkimnomoffkk rloqkhollnjkkmjnnmk o 
  1
 loqkgiogjnfjikkjlk rlnqljlnhljgnhmijjn o 
  1
 loqfmnogfhhmifjmnn rlnqfhgjjklnfjjfjoh o 
  1
 lnqkjfhgnjfkfgkkoi rlmqklfoililhlhomfi o 
  1
 lmqnmggokfglnoljhg rlmqggiolllmknnlfn o 
  1
 llqnffinjmolooofnh rllqnhjiimffmfljfgl o 
  1
 lkqlohkhfnljjlfofh rllqnghnfololjnnjnk o 
  1
 ljqmjgghifmnonmjgi rlmqfhfkhknmnffiolk o 
  1
 ljqfkfjhghkginmkjl rlmqjihllkgoljljhon o 
  1
 liqioiihglfmmglljh rlmqnonkmomglmflikf o 
  1
 lhqohhihhfgmkgommj rlnqlllghmkmgimkllm o 
  1
 lhqlhjomlofgigojhm rloqjmikggiihfgllhm o 
  1
 lhqkhggnkokfhjlmgm rmfqhhgmfmnnmmfnimk o 
  1
 lhqkhgfnoogihklhmk rmgqfikhmgkljjlnomf o 
  1
 lhqlmkfonogihgjhjg rmgqoghhkfnflfkimlh o 
  1
 liqgjmlhioofggkmn rmhqnhfhlfkfnnglifi o 
  1
 liqmkiiofkmfniigmk rmiqjokohgkhgijhjnf o 
  1
 ljqjiijnfhgijihijl rmiqohhngmjjlginfjf o 
  1
 lkqfkhjhmnoifllhim rmjqggljjjikilnflml o 
  1
 lkqnmghmmhihfikkoj rmjqhngngjhnlggkljl o 
  1
 llqjngnkfinmhkfkgm rmjqhiojollnklfokkg o 
  1
 llqojgifmhihnflmfl rmjqhfmlkhlkiilnmki o 
  1
 o 
  1
 1*33@,*-9><: 
  1
 1*33@,*-9><: 
  1
 1*33=, 
  1
 1*33=, 
  1
 V V 
  1
 o 
  1
 o 
  3
 mi oqjmgoifhjffkokifih oqflmofglijffhhnlml nqloihiinnoohnkhhg nqhiljkmjkiinmjogl mqnnnognoonkmogkkg mqjillgijfimjkjnik lqoflnkgomngmkggl lqjiofnfmlfomimlli lqfhkfokkklhhjkhig kqmmmiimiinffogokn kqimoijkgflgjimkgi jqnhnhjmjiknoghohf jqgjhnohgjlmjimmmm iqm
  1
ifnifjjikfnhhif iqinofhklnkknfofok hqojhfikfhomnjoklj hqkjfhiggmgmmilljf hqflgljnffjgoflgkm gqlkmoookkglnihffl gqjgkiohmfjkmmgjfi fqnjglfmnhjohhikfk fqijimfofkfkhflmmn noqnoogkffjggjfkfl noqjokghfmojlgjmoi noqgklkglgogmlgfkh nnqoiggghmhoijglhi 
  1
 Y n Y o " V V |
  1
/061+ {rn llqojgifmhihnflmfl rmjqhfmlkhlkiilnmki o |
  0
REGION
  5
288
330
1F
100
AcDbEntity
  8
5
100
AcDbModelerGeometry
 70
     1
  1
koo nn n o          
  1
h J1410(1 nl ^ \VL kqoqm QK mk R01 U*3 oh ogemmenh moog 
  1
rn fqfffffffffffffffj:rooh n:rono 
  1
=0;& {rn {n {rn {rn |
  1
3*2/ {rn {rn {m {o |
  1
,7:33 {rn {rn {rn {l {rn {n |
  1
9><: {rn {rn {k {m {rn {j 90-(>-; ;0*=3: 0*+ |
  1
300/ {rn {rn {i {l |
  1
/3>1:r,*-9><: {rn mjqkkmolfoijhohmil rmfqkhmokfkmogjmjhn o o o n m o o 90-(>-;@) V V V V |
  1
<0:;8: {rn {i {i {rn {h 90-(>-; {k {rn |
  1
:;8: {rn {g {g {i {f 90-(>-; |
  1
):-+:' {rn {h {no |
  1
61+<*-):r<*-): {rn 90-(>-; $ :'><+<*- 1*=, l <30,:; mg 
  1
 o l oqjmgoifhjffkokifih n oqflmofglijffhhnlml n nqloihiinnoohnkhhg n nqhiljkmjkiinmjogl n 
  1
 mqnnnognoonkmogkkg n mqjillgijfimjkjnik n lqoflnkgomngmkggl n lqjiofnfmlfomimlli n lqfhkfokkklhhjkhig n 
  1
 kqmmmiimiinffogokn n kqimoijkgflgjimkgi n jqnhnhjmjiknoghohf n jqgjhnohgjlmjimmmm n iqmifnifjjikfnhhif n 
  1
 iqinofhklnkknfofok n hqojhfikfhomnjoklj n hqkjfhiggmgmmilljf n hqflgljnffjgoflgkm n gqlkmoookkglnihffl n 
  1
 gqjgkiohmfjkmmgjfi n fqnjglfmnhjohhikfk n fqijimfofkfkhflmmn n noqnoogkffjggjfkfl n noqjokghfmojlgjmoi n 
  1
 noqgklkglgogmlgfkh n nnqoiggghmhoijglhi n nnqhjkmognioiokmgh l 
  1
 mkqhlllkhghkmifhmj rmjqhfmlkhlkiilnmki o 
  1
 mkqlggjmkiihkohgog rmjqghognomiiojhnm o 
  1
 mlqhhfghjiliklkkk rmiqooflojjmiioofgl o 
  1
 mlqonhmfknkfjloljg rmiqkifgfmihmihhfhm o 
  1
 mmqkfhifhkjflokjin rmhqnmnnhmgikhiomgl o 
  1
 mmqnngmknhmhmkhlml rmhqgnnnghhgjigmhnf o 
  1
 mnqgmimlkfongomjli rmgqioljgfmgjhfjfoi o 
  1
 mnqhjhkmojfggfjgim rmfqkflmlilglkommkg o 
  1
 mnqhfhnonlnhmgilhi rloqkhollnjkkmjnnmk o 
  1
 mmqniohkolomhmofih rlnqljlnhljgnhmijjn o 
  1
 mmqjfjhkkghfhhnikk rlnqfhgjjklnfjjfjoh o 
  1
 mlqnlkklihomoioglf rlmqklfoililhlhomfi o 
  1
 mlqgolkioofongoon rlmqggiolllmknnlfn o 
  1
 mkqghkmholnoohhlj rllqnhjiimffmfljfgl o 
  1
 mjqfgmnlkmkminjjl rllqnghnfololjnnjnk o 
  1
 miqflljlmomgogfonf rlmqfhfkhknmnffiolk o 
  1
 mhqimkmllgjjiggggj rlmqjihllkgoljljhon o 
  1
 mgqmgnlllkffljfhgf rlmqnonkmomglmflikf o 
  1
 mgqhjmlllogfjjiijh rlnqlllghmkmgimkllm o 
  1
 mfqokfihgmojhjhook rloqjmikggiihfgllhm o 
  1
 mfqnjlkifnjigmfhnj rmfqhhgmfmnnmmfnimk o 
  1
 mfqnjljijnflgmonjh rmgqfikhmgkljjlnomf o 
  1
 mgqfffjjinflgimnf rmgqoghhkfnflfkimlh o 
  1
 mgqjmholnnnifioikl rmhqnhfhlfkfnnglifi o 
  1
 mhqfmnmikjlimklmjh rmiqjokohgkhgijhjnf o 
  1
 mhqmknnhkgflikkogi rmiqohhngmjjlginfjf o 
  1
 miqimmmmhmnkononfj rmjqggljjjikilnflml o 
  1
 mjqgollhhghjokoglh rmjqhngngjhnlggkljl o 
  1
 mjqnfmgokhnfgmjfnj rmjqhiojollnklfokkg o 
  1
 mkqhlllkhghkmifhmj rmjqhfmlkhlkiilnmki o 
  1
 o 
  1
 1*33@,*-9><: 
  1
 1*33@,*-9><: 
  1
 1*33=, 
  1
 1*33=, 
  1
 V V 
  1
 o 
  1
 o 
  3
 mi oqjmgoifhjffkokifih oqflmofglijffhhnlml nqloihiinnoohnkhhg nqhiljkmjkiinmjogl mqnnnognoonkmogkkg mqjillgijfimjkjnik lqoflnkgomngmkggl lqjiofnfmlfomimlli lqfhkfokkklhhjkhig kqmmmiimiinffogokn kqimoijkgflgjimkgi jqnhnhjmjiknoghohf jqgjhnohgjlmjimmmm iqm
  1
ifnifjjikfnhhif iqinofhklnkknfofok hqojhfikfhomnjoklj hqkjfhiggmgmmilljf hqflgljnffjgoflgkm gqlkmoookkglnihffl gqjgkiohmfjkmmgjfi fqnjglfmnhjohhikfk fqijimfofkfkhflmmn noqnoogkffjggjfkfl noqjokghfmojlgjmoi noqgklkglgogmlgfkh nnqoiggghmhoijglhi 
  1
 Y n Y o " V V |
  1
/061+ {rn mkqhlllkhghkmifhmj rmjqhfmlkhlkiilnmki o |
  0
REGION
  5
289
330
1F
100
AcDbEntity
  8
5
100
AcDbModelerGeometry
 70
     1
  1
koo nn n o          
  1
h J1410(1 nl ^ \VL kqoqm QK mk R01 U*3 oh ogemmenh moog 
  1
rn fqfffffffffffffffj:rooh n:rono 
  1
=0;& {rn {n {rn {rn |
  1
3*2/ {rn {rn {m {o |
  1
,7:33 {rn {rn {rn {l {rn {n |
  1
9><: {rn {rn {k {m {rn {j 90-(>-; ;0*=3: 0*+ |
  1
300/ {rn {rn {i {l |
  1
/3>1:r,*-9><: {rn mjqkkhmmlohllfnjif rmfqkljogilijiijokl o o o n m o o 90-(>-;@) V V V V |
  1
<0:;8: {rn {i {i {rn {h 90-(>-; {k {rn |
  1
:;8: {rn {g {g {i {f 90-(>-; |
  1
):-+:' {rn {h {no |
  1
61+<*-):r<*-): {rn 90-(>-; $ :'><+<*- 1*=, l <30,:; ml 
  1
 o l oqkoojgnkjmnohkngg n oqhmihiglnghjgffgin n nqojhklkhohmkfhol n nqklknomhhhhofhofh n 
  1
 nqgoifmlifgglhonh n mqljmfhomjhfinmnjn n mqhnlhonofgokhfhml n mqfgjifgglmmmggjih n lqljjojkfjnhjoihji n 
  1
 lqiffhngmihljfiggf n lqfhllnfokkkifnlfj n kqnfhlimgmimnjgnhi n kqljfofhlmhgfkhkg n kqjfkhggnfmglimhhf n 
  1
 kqfllohoihkgffhinh n jqlmjlmjimoogggkon n jqiklmikikjnoglgmn n iqonjoofjlkgojjgji n iqlkmfomgffhhgnjij n 
  1
 iqikfhmnlikhffhogm n iqfngojijnjjghhmfg n hqofnjnggkhoiliojh l 
  1
 mjqkmglllhimlnilji rmhqohhifngkmnfhngl o 
  1
 mjqninjonjnjkmkoj rmhqofffhnhkjnjgiif o 
  1
 mkqihhlfmnhmhjimkm rmhqnkolflgojkhngkj o 
  1
 mkqonhnginmnjolgnm rmhqkgoojilklmgiim o 
  1
 mlqifkhmnmnoifhffm rmgqnnfomninhlnlmof o 
  1
 mlqkfinhmnnmkjmlhn rmgqgolkofjkjjfgomf o 
  1
 mlqlnhofgoifhhgljl rmfqiiinhlgjimkkgfi o 
  1
 mlqjimjgfkmjjjkhfn rloqjomgmikfjhoiigj o 
  1
 mlqghijgkgmnimhofn rlnqmkjigkjjmngnkjf o 
  1
 mkqkkmjjimkimlojfj rlnqikoghngokhjkgof o 
  1
 mjqohgggjmlmhhhihf rlnqglmjnojlnnommkk o 
  1
 mjqhkjgmkhhkihomig rlnqgjlmhnjongkjhmj o 
  1
 miqmfiihjfmjffjggj rlnqhnmgkjgffhihjnj o 
  1
 miqigkfinnmlmkngoi rlnqkffnfjfogfhnhkl o 
  1
 mhqooonfnlhkjokhof rlnqmmlmmjljngojijm o 
  1
 mhqmliklilognggnok rloqhgmlkgglfmommhn o 
  1
 mhqknomjggghjoligh rloqnimfgiinoigknkl o 
  1
 mhqjkgonnlfnmffkk rmfqkifgnkifllfnoon o 
  1
 mhqkkiighfhnfogofn rmgqhklfojjlflmiklk o 
  1
 mhqnfjnkfmmlmomoii rmgqnnkiknijhijhjhm o 
  1
 miqgiljhnonfjlhhkk rmhqjnmffmigkigmoll o 
  1
 miqllnloikklmlkjjl rmhqnghooojikjllghj o 
  1
 mjqglflnlljionnonf rmhqohnjjmhmmjlkioj o 
  1
 mjqjkkmomiilkmoolh rmhqohjfinongfnjjmn o 
  1
 mjqkmglllhimlnilji rmhqohhifngkmnfhngl o 
  1
 o 
  1
 1*33@,*-9><: 
  1
 1*33@,*-9><: 
  1
 1*33=, 
  1
 1*33=, 
  1
 V V 
  1
 o 
  1
 o 
  3
 mn oqkoojgnkjmnohkngg oqhmihiglnghjgffgin nqojhklkhohmkfhol nqklknomhhhhofhofh nqgoifmlifgglhonh mqljmfhomjhfinmnjn mqhnlhonofgokhfhml mqfgjifgglmmmggjih lqljjojkfjnhjoihji lqiffhngmihljfiggf lqfhllnfokkkifnlfj kqnfhlimgmimnjgnhi kqljfofhlmhgfkhkg kqjfkh
  1
ggnfmglimhhf kqfllohoihkgffhinh jqlmjlmjimoogggkon jqiklmikikjnoglgmn iqonjoofjlkgojjgji iqlkmfomgffhhgnjij iqikfhmnlikhffhogm iqfngojijnjjghhmfg 
  1
 Y n Y o " V V |
  1
/061+ {rn mjqkmglllhimlnilji rmhqohhifngkmnfhngl o |
  0
REGION
  5
28A
330
1F
100
AcDbEntity
  8
5
100
AcDbModelerGeometry
 70
     1
  1
koo nn n o          
  1
h J1410(1 nl ^ \VL kqoqm QK mk R01 U*3 oh ogemmenh moog 
  1
rn fqfffffffffffffffj:rooh n:rono 
  1
=0;& {rn {n {rn {rn |
  1
3*2/ {rn {rn {m {o |
  1
,7:33 {rn {rn {rn {l {rn {n |
  1
9><: {rn {rn {k {m {rn {j 90-(>-; ;0*=3: 0*+ |
  1
300/ {rn {rn {i {l |
  1
/3>1:r,*-9><: {rn llqhhmjihfiilnjnlh rmfqkljogilijiijokl o o o n m o o 90-(>-;@) V V V V |
  1
<0:;8: {rn {i {i {rn {h 90-(>-; {k {rn |
  1
:;8: {rn {g {g {i {f 90-(>-; |
  1
):-+:' {rn {h {no |
  1
61+<*-):r<*-): {rn 90-(>-; $ :'><+<*- 1*=, l <30,:; ml 
  1
 o l oqkoojgnkjmnohkngg n oqhmihiglnghjgffgin n nqojhklkhohmkfhol n nqklknomhhhhofhofh n 
  1
 nqgoifmlifgglhonh n mqljmfhomjhfinmnjn n mqhnlhonofgokhfhml n mqfgjifgglmmmggjih n lqljjojkfjnhjoihji n 
  1
 lqiffhngmihljfiggf n lqfhllnfokkkifnlfj n kqnfhlimgmimnjgnhi n kqljfofhlmhgfkhkg n kqjfkhggnfmglimhhf n 
  1
 kqfllohoihkgffhinh n jqlmjlmjimoogggkon n jqiklmikikjnoglgmn n iqonjoofjlkgojjgji n iqlkmfomgffhhgnjij n 
  1
 iqikfhmnlikhffhogm n iqfngojijnjjghhmfg n hqofnjnggkhoiliojh l 
  1
 llqhjlihgijjmlffmk rmhqohhifngkmnfhngl o 
  1
 llqkgigkikoglkhinh rmhqofffhnhkjnjgiif o 
  1
 llqoomhlhoijihfgn rmhqnkolflgojkhngkj o 
  1
 lmqlkmjlnonkkmhlhf rmhqkgoojilklmgiim o 
  1
 lmqomooiinolimnjjf rmgqnnfomninhlnlmof o 
  1
 lnqgmnjnhoojlhjflg rmgqgolkofjkjjfgomf o 
  1
 lnqikmkkmfimhonfmn rmfqiiinhlgjimkkgfi o 
  1
 lnqgghflklngkhgljg rloqjomgmikfjhoiigj o 
  1
 lmqmonfmfhnkjjoijg rlnqmkjigkjjmngnkjf o 
  1
 lmqhihfonnlfnjknim rlnqikoghngokhjkgof o 
  1
 llqkokmlonmjhonmkh rlnqglmjnojlnnommkk o 
  1
 lkqohnnifiihjflgli rlnqgjlmhnjongkjhmj o 
  1
 lkqimmomogngfnfkjm rlnqhnmgkjgffhihjnj o 
  1
 ljqonoloioninijlhl rlnqkffnfjfogfhnhkl o 
  1
 ljqlmjjlimihkmgmhi rlnqmmlmmjljngojijm o 
  1
 ljqjinhgnmonnnnihn rloqhgmlkgglfmommhn o 
  1
 ljqhljiolhgokmhmjj rloqnimfgiinoigknkl o 
  1
 ljqghlljimgkmmlooh rmfqkifgnkifllfnoon o 
  1
 ljqhhmolmgikglnijg rmgqhklfojjlflmiklk o 
  1
 ljqjmokfknninmjill rmgqnnkiknijhijhjhm o 
  1
 ljqnggfnjfnmkinlnm rmhqjnmffmigkigmoll o 
  1
 lkqijiijnllinjgnm rmhqnghooojikjllghj o 
  1
 lkqnikijgmkgflkjgi rmhqohnjjmhmmjlkioj o 
  1
 llqgifjkhjjilklioj rmhqohjfinongfnjjmn o 
  1
 llqhjlihgijjmlffmk rmhqohhifngkmnfhngl o 
  1
 o 
  1
 1*33@,*-9><: 
  1
 1*33@,*-9><: 
  1
 1*33=, 
  1
 1*33=, 
  1
 V V 
  1
 o 
  1
 o 
  3
 mn oqkoojgnkjmnohkngg oqhmihiglnghjgffgin nqojhklkhohmkfhol nqklknomhhhhofhofh nqgoifmlifgglhonh mqljmfhomjhfinmnjn mqhnlhonofgokhfhml mqfgjifgglmmmggjih lqljjojkfjnhjoihji lqiffhngmihljfiggf lqfhllnfokkkifnlfj kqnfhlimgmimnjgnhi kqljfofhlmhgfkhkg kqjfkh
  1
ggnfmglimhhf kqfllohoihkgffhinh jqlmjlmjimoogggkon jqiklmikikjnoglgmn iqonjoofjlkgojjgji iqlkmfomgffhhgnjij iqikfhmnlikhffhogm iqfngojijnjjghhmfg 
  1
 Y n Y o " V V |
  1
/061+ {rn llqhjlihgijjmlffmk rmhqohhifngkmnfhngl o |
  0
REGION
  5
28B
330
1F
100
AcDbEntity
  8
5
100
AcDbModelerGeometry
 70
     1
  1
koo mi n o          
  1
h J1410(1 nl ^ \VL kqoqm QK mk R01 U*3 oh ogemmenh moog 
  1
rn fqfffffffffffffffj:rooh n:rono 
  1
=0;& {rn {n {rn {rn |
  1
3*2/ {rn {rn {m {o |
  1
,7:33 {rn {rn {rn {l {rn {n |
  1
9><: {rn {rn {k {m {rn {j 90-(>-; ;0*=3: 0*+ |
  1
300/ {rn {rn {i {l |
  1
/3>1:r,*-9><: {rn khqholjjminihfkjmj rmfqklknkhjnmmlifhi o o o n m o o 90-(>-;@) V V V V |
  1
<0:;8: {rn {h {g {rn {f 90-(>-; {k {rn |
  1
<0:;8: {rn {no {i {rn {nn -:):-,:; {k {rn |
  1
<0:;8: {rn {i {no {rn {nm 90-(>-; {k {rn |
  1
:;8: {rn {nl {nk {i {nj 90-(>-; |
  1
<0:;8: {rn {g {h {rn {ni 90-(>-; {k {rn |
  1
:;8: {rn {nh {nk {h {ng 90-(>-; |
  1
:;8: {rn {nf {nl {g {mo 90-(>-; |
  1
):-+:' {rn {f {mn |
  1
):-+:' {rn {f {mm |
  1
,+->687+r<*-): {rn kiqnmniikhlogijjng rloqjimflkkmkhijfnl o rnqfffffgmnkfmjoklf roqoomihmnlllkfklhngfk o V V |
  1
:;8: {rn {nh {nf {no {ml 90-(>-; |
  1
):-+:' {rn {nn {mk |
  1
61+<*-):r<*-): {rn 90-(>-; $ :'><+<*- 1*=, l 0/:1 mk 
  1
 o l oqligokiljfljmjmjj n oqikiffjgmifofigklg n nqoigjglohkoojklhk n nqiohihjljnioiinng n 
  1
 nqfhmmojknmiffgfof n mqnfkhjgmkmhhogjlf n mqioinmmijimmmlmmg n lqnlhnlfiiikkokmkj n lqifnmlfgjmonggmhk n 
  1
 kqokoilfionkiiffnk n kqlffkggihjloikjmk n kqgnjjkihfkomhonmj n jqljoknhiinlnnjjjf n jqgnogkngnofmjifjk n 
  1
 iqmmhnfffmkgnlkoni n iqinkmilhmmmoihgkk n hqkgfigmoofjhoomml n hqgihgfiogmnmng n gqmjlnglnofmnkimnl n 
  1
 gqjjhhkmomokmlmfin n gqhimgololoifolglj n fqnknnhijkkiknoojg n fqmjiilgghlkomkimn l 
  1
 kfqokjnjfkiifhmmml rmgqnmmgjknmfkkgfmj o 
  1
 kfqonflnmfjfhogmjf rmhqgikilmflifkgnmi o 
  1
 kgqfhlghigglhkfnkm rmhqknohoogfgfhffjk o 
  1
 kgqlnhkikmmkioknml rmiqfghnlgjlnkiiinl o 
  1
 khqjmijgolnhnghok rmiqfkiljnkomnllhhm o 
  1
 kiqkkmfmojllhkgnhf rmiqfgomlnnljonjfmh o 
  1
 kiqlmllkjlnmllmhnf rmhqflnmiihnojigglj o 
  1
 kiqgmfngkiogjhlm rmgqkmhklinlhjhgkmj o 
  1
 khqilmklmmmnjooofi rmgqjnlljginomlfjoh o 
  1
 kgqjgfkkojnjgkmjnm rmgqhkimghnmfimkhkh o 
  1
 kfqjlhknhlnnflkigf rmgqfklmflnmmogfoln o 
  1
 joqmhjiojkmnlhniij rmfqliikngjhggmnlmj o 
  1
 joqhfmjomlllfjkkhk rmfqfklfhjofngojmjh o 
  1
 joqfhfolgflkmglhhg rloqgmlofkiohkkghii o 
  1
 joqgkmjlfhhjlglgkn rlnqgoomklfnmlmjigl o 
  1
 joqnhkilfkjlknjjg rlmqjmnikimmniihgfl o 
  1
 kfqkmgjijhfmgmgfhh rlmqfnfhmnmninmhjfg o 
  1
 kgqljjmjnjigohigmk rllqmhimfglkhlljjmi o 
  1
 khqmlkkhihioinnonh rllqniloimgjmgogoig o 
  1
 kiqniohofhmhoihojg rlmqfihfgokifohhlng o 
  1
 kjqjohlkkknfjkmnog rlmqiklmoonnmgjgihf o 
  1
 kjqofmnoknfglfkgj rlmqmojmmlhmonofhnk o 
  1
 kkqhnokljfnlimjhjf rlnqhilkngffkolnhlg o 
  1
 kkqinkjlgknlmiffkn rlnqnfinkljfhhmkkmf o 
  1
 kkqjinifhonmngklig rloqfffklhmkojfoilg o 
  1
 kkqjlijngonfmffmjn rloqjijojmmggljmokf o 
  1
 o 
  1
 1*33@,*-9><: 
  1
 1*33@,*-9><: 
  1
 1*33=, 
  1
 1*33=, 
  1
 V V 
  1
 o 
  1
 o 
  3
 mm oqligokiljfljmjmjj oqikiffjgmifofigklg nqoigjglohkoojklhk nqiohihjljnioiinng nqfhmmojknmiffgfof mqnfkhjgmkmhhogjlf mqioinmmijimmmlmmg lqnlhnlfiiikkokmkj lqifnmlfgjmonggmhk kqokoilfionkiiffnk kqlffkggihjloikjmk kqgnjjkihfkomhonmj jqljoknhiinlnnjjjf jqg
  1
nogkngnofmjifjk iqmmhnfffmkgnlkoni iqinkmilhmmmoihgkk hqkgfigmoofjhoomml hqgihgfiogmnmng gqmjlnglnofmnkimnl gqjjhhkmomokmlmfin gqhimgololoifolglj fqnknnhijkkiknoojg 
  1
 Y n Y o " V V |
  1
):-+:' {rn {ni {mj |
  1
61+<*-):r<*-): {rn 90-(>-; $ :'><+<*- 1*=, l 0/:1 mg 
  1
 o l oqlfigjomnhmmhnoggk n oqhmihgjfojjnjijimj n nqongknlhimogofofh n nqmhjijkomimihfkmn n 
  1
 nqjjhhfooifjkllfmm n nqginnnojigjoifhom n mqjkkgnlhjikjngfjl n mqgnmoofmlhlingolh n lqokfffiohonmmmllj n 
  1
 lqlloonlmhgjlffngk n lqjhjiljhgilhmngkg n lqflkijnjffnhfgkfk n kqklfnimomimokiofi n kqihhohhmgmkfjfon n 
  1
 kqfjglhmkoiilonmjg n jqlmoknigoglljkill n jqijoooimimfnhomng n iqnnmooijfhfmfnkjk n iqillkinjnnhkjhlfi n 
  1
 iqfknhinkfmmgkfnmf n hqmokikooliljffifi n hqkfmhhkhgfkhifngl n hqhnffflnfkkoglkjn n gqmmhonmnijoikjmjg n 
  1
 gqhgfgkommjlomnifh n fqnlnohigkhjkjhkmm n fqlggifigilfmffjgm l 
  1
 joqimilmllgikhnijk rmgqnmkjkhkjnoklhfi o 
  1
 joqilkifghkfjilijk rmhqgjknoogfhmjlhjg o 
  1
 joqijoolhmhnhnhfoi rmhqljggogggmgflogi o 
  1
 joqmfgkmfkhgjfoiil rmiqhjikojnjjngnlgl o 
  1
 kfqfofhmnggomljfil rmiqlomghnninihnlhi o 
  1
 kfqlfmghlfjoignmfm rmiqogmojohikmkghfn o 
  1
 kgqgginlfjnglghok rmjqglkgjmhongoioff o 
  1
 kgqolffhmjmjgoljfn rmjqhnhogjfhgnljonh o 
  1
 khqnfhilnmljfhgjhh rmjqhonlijjhhfogfjf o 
  1
 kiqkngnhnfknojjfjf rmjqgiihfholhfijik o 
  1
 kjqfljgnmggkglhmnf rmiqogmjjmjhhhhiiih o 
  1
 kjqjlojijkjghgmjhi rmiqlfmohighjomnmi o 
  1
 kjqohifjmhffmgjhmn rmiqhhglgikfnoghki o 
  1
 kkqhjomjlhjokijnoi rmhqkilhhmmlkojjilf o 
  1
 kkqhohifnfmmlmlnli rmgqmkoghmlmimfokhm o 
  1
 kjqoolnffmgmjlggkk rmgqgilgflgkginoil o 
  1
 kjqlhmghojmgigkngf rmfqllijnhoohhgnngl o 
  1
 kjqfhnlmhljknjlil rmfqimlmfjghjoggnkh o 
  1
 kiqiggnhhmomhfgmnj rmfqgflfmokngfffffh o 
  1
 khqjjllilflnlgljon rloqohnhnoinkmnmmj o 
  1
 kgqlfonkliflklmmij rloqnfhnmhmiolhfnoj o 
  1
 kfqnnooflonifjnfik rloqkgkgnmhonmfjlmi o 
  1
 kfqllhgmlnijmolonf rlnqoikmmgmmkjmgilk o 
  1
 kfqniljhoihkkimkkf rlnqimihkmnmjkiiilj o 
  1
 kgqkfghgjhghlnmnom rlnqfomgnjijomninnm o 
  1
 khqijiknjfoomhgmim rlnqfgloklohgmjill o 
  1
 kiqilkinohijigjfm rlnqgljnklkgkinnolg o 
  1
 kiqnhfngljfhhinmii rlnqnllogoomoohmmmg o 
  1
 kiqnlgfijgjhfmjlnk rloqhlkkmghgigijnfj o 
  1
 kiqnmniikhlogijjng rloqjimflkkmkhijfnl o 
  1
 o 
  1
 1*33@,*-9><: 
  1
 1*33@,*-9><: 
  1
 1*33=, 
  1
 1*33=, 
  1
 V V 
  1
 o 
  1
 o 
  3
 mi oqlfigjomnhmmhnoggk oqhmihgjfojjnjijimj nqongknlhimogofofh nqmhjijkomimihfkmn nqjjhhfooifjkllfmm nqginnnojigjoifhom mqjkkgnlhjikjngfjl mqgnmoofmlhlingolh lqokfffiohonmmmllj lqlloonlmhgjlffngk lqjhjiljhgilhmngkg lqflkijnjffnhfgkfk kqklfnimomimokiofi kq
  1
ihhohhmgmkfjfon kqfjglhmkoiilonmjg jqlmoknigoglljkill jqijoooimimfnhomng iqnnmooijfhfmfnkjk iqillkinjnnhkjhlfi iqfknhinkfmmgkfnmf hqmokikooliljffifi hqkfmhhkhgfkhifngl hqhnffflnfkkoglkjn gqmmhonmnijoikjmjg gqhgfgkommjlomnifh fqnlnohigkhjkjhkmm 
  1
 Y n Y o " V V |
  1
/061+ {rn kiqnmniikhlogijjng rloqjimflkkmkhijfnl o |
  1
/061+ {rn kkqjlijngonfmffmjn rloqjijojmmggljmokf o |
  1
,+->687+r<*-): {rn kfqokjnjfkiifhmmml rmgqnmmgjknmfkkgfmj o nqfffffggjlnomnhjn roqoomnkngiioojnojinfi o V V |
  1
/061+ {rn kfqokjnjfkiifhmmml rmgqnmmgjknmfkkgfmj o |
  1
/061+ {rn joqimilmllgikhnijk rmgqnmkjkhkjnoklhfi o |
  0
LINE
  5
2152
330
1F
100
AcDbEntity
  8
SK4
100
AcDbLine
 10
-19.99999955294999
 20
0.0
 30
0.0
 11
0.0
 21
0.0
 31
0.0
  0
LINE
  5
2162
330
1F
100
AcDbEntity
  8
1
100
AcDbLine
 10
0.0
 20
-15.49999974670001
 30
0.0
 11
0.0
 21
15.49999974664999
 31
0.0
  0
ELLIPSE
  5
2163
330
1F
100
AcDbEntity
  8
1
100
AcDbEllipse
 10
11.18718707889998
 20
0.0
 30
0.0
 11
0.0
 21
16.0
 31
0.0
210
0.0
220
0.0
230
1.0
 40
0.2679491924
 41
0.8381716299743512
 42
2.30342102361544
  0
LWPOLYLINE
  5
2166
330
1F
100
AcDbEntity
  8
SK1
100
AcDbPolyline
 90
       40
 70
   128
 43
0.0
 10
-10.07496658709998
 20
2.227682853099991
 10
-9.560242295249992
 20
2.553323749449986
 10
-8.996727876350007
 20
2.790600759900002
 10
-8.39649140835
 20
2.936722710699996
 10
-7.779265753899991
 20
2.989014144950003
 10
-7.139279972749988
 20
2.942333696399998
 10
-6.516503635749996
 20
2.794930012899996
 10
-5.92843908815
 20
2.547361189499994
 10
-5.39389904584999
 20
2.20366730354999
 10
-4.945775959599997
 20
1.780323567799995
 10
-4.589195828849994
 20
1.276853610749995
 10
-4.407975356999997
 20
0.8817964698999958
 10
-4.292510915549995
 20
0.4615351208499874
 10
-4.250542260700001
 20
0.025074230499996
 10
-4.28386451675
 20
-0.412178691500003
 10
-4.382803570449993
 20
-0.8099350962000071
 10
-4.541066009550006
 20
-1.186883659100004
 10
-4.766505211549997
 20
-1.5551223187
 10
-5.04217296835
 20
-1.886347541600001
 10
-5.412637256050003
 20
-2.218036446750005
 10
-5.827867891599992
 20
-2.49288068154999
 10
-6.353395059700004
 20
-2.737626899049999
 10
-6.912034936249995
 20
-2.901027444750013
 10
-7.540261838549993
 20
-2.983377082300008
 10
-8.174252696300001
 20
-2.966774394750003
 10
-8.804324083000011
 20
-2.848184900399998
 10
-9.404490701849994
 20
-2.630023052950008
 10
-9.955301880799991
 20
-2.314527286250011
 10
-10.438863188
 20
-1.90597656185001
 10
-10.75057964769998
 20
-1.530937850500009
 10
-10.9972320497
 20
-1.109062577600012
 10
-11.16608083245
 20
-0.6443920428999946
 10
-11.24522183089998
 20
-0.1551369205500066
 10
-11.23466063289999
 20
0.2743552613499958
 10
-11.15270797159999
 20
0.6955965072499879
 10
-11.0099473968
 20
1.081311376749994
 10
-10.81202365455
 20
1.440559164599989
 10
-10.53831912574999
 20
1.798893907099994
 10
-10.21627802399999
 20
2.113875932949994
 10
-10.07496658709998
 20
2.227682853099991
  0
CIRCLE
  5
2167
330
1F
100
AcDbEntity
  8
SK1
100
AcDbCircle
 10
-7.75
 20
0.0
 30
0.0
 40
2.730278017606977
  0
LINE
  5
2168
330
1F
100
AcDbEntity
  8
SK1
100
AcDbLine
 10
-2.499999944099997
 20
-8.999999612600008
 30
0.0
 11
-2.499999944099997
 21
8.999999612549997
 31
0.0
  0
LINE
  5
2169
330
1F
100
AcDbEntity
  8
SK1
100
AcDbLine
 10
-16.49999991055
 20
-8.999999612600008
 30
0.0
 11
-16.49999991055
 21
8.999999612549997
 31
0.0
  0
LINE
  5
216A
330
1F
100
AcDbEntity
  8
SK1
100
AcDbLine
 10
-19.99999955295
 20
-7.350000087200014
 30
0.0
 11
-19.99999955295
 21
7.350000087149991
 31
0.0
  0
CIRCLE
  5
216D
330
1F
100
AcDbEntity
  8
SK1
100
AcDbCircle
 10
-7.75
 20
0.0
 30
0.0
 40
1.649999999999997
  0
LINE
  5
216E
330
1F
100
AcDbEntity
  8
SK3
100
AcDbLine
 10
-17.5000000745
 20
-4.499999806299996
 30
0.0
 11
-17.5000000745
 21
4.499999806250001
 31
0.0
  0
LINE
  5
216F
330
1F
100
AcDbEntity
  8
SK3
100
AcDbLine
 10
-16.8390534818
 20
-3.4000000451
 30
0.0
 11
-16.8390534818
 21
3.400000045050006
 31
0.0
  0
LINE
  5
2170
330
1F
100
AcDbEntity
  8
3
100
AcDbLine
 10
4.000000189999993
 20
-3.4000000451
 30
0.0
 11
4.000000189999993
 21
3.400000045050006
 31
0.0
  0
LINE
  5
2172
330
1F
100
AcDbEntity
  8
3
100
AcDbLine
 10
6.042926106599992
 20
0.0
 30
0.0
 11
4.000000189999993
 21
3.400000045050006
 31
0.0
  0
DIMENSION
  5
2173
330
1F
100
AcDbEntity
  8
SK2
100
AcDbDimension
  2
*D27
 10
-23.10593002495
 20
-15.99999999999999
 30
0.0
 11
-23.10593002495
 21
0.0
 31
0.0
 70
   160
  1
ST3 %%c<>
 71
     2
 42
32.0
  3
GEN-ISO_TDM
100
AcDbAlignedDimension
 13
0.5
 23
16.0
 33
0.0
 14
0.5
 24
-16.0
 34
0.0
 50
90.0
100
AcDbRotatedDimension
  0
LINE
  5
217A
330
1F
100
AcDbEntity
  8
3
100
AcDbLine
 10
6.500000134150013
 20
-9.449999779500004
 30
0.0
 11
0.0
 21
-9.449999779500004
 31
0.0
  0
LINE
  5
217B
330
1F
100
AcDbEntity
  8
3
100
AcDbLine
 10
0.0
 20
-12.24999967965
 30
0.0
 11
6.500000134150013
 21
-12.24999967965
 31
0.0
  0
LINE
  5
217E
330
1F
100
AcDbEntity
  8
SK3
100
AcDbLine
 10
-16.8390534818
 20
-3.4000000451
 30
0.0
 11
0.0
 21
-3.4000000451
 31
0.0
  0
ARC
  5
217F
330
1F
100
AcDbEntity
  8
3
100
AcDbCircle
 10
2.299999999999997
 20
0.0
 30
0.0
 40
1.249999999999998
100
AcDbArc
 50
68.07718923170006
 51
291.9228107682998
  0
LINE
  5
2180
330
1F
100
AcDbEntity
  8
1
100
AcDbLine
 10
0.5000000237500048
 20
-16.00000075999999
 30
0.0
 11
25.49999952319998
 21
-16.00000075999999
 31
0.0
  0
ARC
  5
2181
330
1F
100
AcDbEntity
  8
1
100
AcDbCircle
 10
0.5
 20
-15.5
 30
0.0
 40
0.5
100
AcDbArc
 50
180.0
 51
270.0
  0
LINE
  5
2182
330
1F
100
AcDbEntity
  8
SK1
100
AcDbLine
 10
-16.49999991055
 20
-8.999999612600008
 30
0.0
 11
-2.499999944099997
 21
-8.999999612600008
 31
0.0
  0
LINE
  5
2183
330
1F
100
AcDbEntity
  8
SK1
100
AcDbLine
 10
-18.10981333255
 20
-8.891665376750012
 30
0.0
 11
-17.36245676875
 21
-8.736669085950012
 31
0.0
  0
ARC
  5
2184
330
1F
100
AcDbEntity
  8
SK1
100
AcDbCircle
 10
-18.1910419891
 20
-8.5
 30
0.0
 40
0.4000000000000057
100
AcDbArc
 50
270.0
 51
281.7166617758001
  0
LINE
  5
2185
330
1F
100
AcDbEntity
  8
SK1
100
AcDbLine
 10
-18.28431524334998
 20
-8.899999782450008
 30
0.0
 11
-18.19104142485
 21
-8.899999782450008
 31
0.0
  0
ARC
  5
2186
330
1F
100
AcDbEntity
  8
SK1
100
AcDbCircle
 10
-18.28431457505
 20
-8.5
 30
0.0
 40
0.3999999999999992
100
AcDbArc
 50
225.0
 51
270.0
  0
LINE
  5
2187
330
1F
100
AcDbEntity
  8
SK1
100
AcDbLine
 10
-19.99999955295
 20
-7.350000087200014
 30
0.0
 11
-18.56715790924998
 21
-8.78284312785
 31
0.0
  0
LINE
  5
2188
330
1F
100
AcDbEntity
  8
SK1
100
AcDbLine
 10
-16.80066622789999
 20
-8.826795034149993
 30
0.0
 11
-16.49999991055
 21
-8.999999612600008
 31
0.0
  0
ARC
  5
2189
330
1F
100
AcDbEntity
  8
SK1
100
AcDbCircle
 10
-17.19999999999999
 20
-9.52000000000001
 30
0.0
 40
0.8000000000000044
100
AcDbArc
 50
60.05508191230003
 51
101.7166617758
  0
LINE
  5
218A
330
1F
100
AcDbEntity
  8
SK3
100
AcDbLine
 10
-19.50000040229999
 20
-4.499999806299996
 30
0.0
 11
-17.5000000745
 21
-4.499999806299996
 31
0.0
  0
ARC
  5
218B
330
1F
100
AcDbEntity
  8
SK3
100
AcDbCircle
 10
-19.5
 20
-5.0
 30
0.0
 40
0.5000000000000071
100
AcDbArc
 50
90.0
 51
180.0
  0
LINE
  5
218C
330
1F
100
AcDbEntity
  8
SK3
100
AcDbLine
 10
-17.5000000745
 20
-4.499999806299996
 30
0.0
 11
-16.8390534818
 21
-3.4000000451
 31
0.0
  0
LINE
  5
218D
330
1F
100
AcDbEntity
  8
SK1
100
AcDbLine
 10
-2.300000050999996
 20
-9.100000374050011
 30
0.0
 11
-2.300000050999996
 21
-12.55000010135
 31
0.0
  0
LINE
  5
218E
330
1F
100
AcDbEntity
  8
SK1
100
AcDbLine
 10
-2.499999944099997
 20
-12.35000044109999
 30
0.0
 11
-2.499999944099997
 21
-9.300000034300014
 31
0.0
  0
LINE
  5
2190
330
1F
100
AcDbEntity
  8
SK1
100
AcDbLine
 10
-2.300000050999996
 20
-12.55000010135
 30
0.0
 11
0.0
 21
-12.55000010135
 31
0.0
  0
LINE
  5
2191
330
1F
100
AcDbEntity
  8
SK1
100
AcDbLine
 10
-2.499999944099997
 20
-12.35000044109999
 30
0.0
 11
-2.300000050999996
 21
-12.55000010135
 31
0.0
  0
LINE
  5
2194
330
1F
100
AcDbEntity
  8
SK1
100
AcDbLine
 10
-1.114790677049995
 20
-8.650000207150013
 30
0.0
 11
-0.399999989899996
 21
-8.650000207150013
 31
0.0
  0
LINE
  5
2196
330
1F
100
AcDbEntity
  8
SK1
100
AcDbLine
 10
-2.300000050999996
 20
-9.100000374050011
 30
0.0
 11
0.0
 21
-9.100000374050011
 31
0.0
  0
ARC
  5
2197
330
1F
100
AcDbEntity
  8
SK1
100
AcDbCircle
 10
-1.114790718800009
 20
-9.25
 30
0.0
 40
0.6000000000000015
100
AcDbArc
 50
90.0
 51
105.0000000000002
  0
LINE
  5
2199
330
1F
100
AcDbEntity
  8
SK1
100
AcDbLine
 10
-2.499999944099997
 20
-8.999999612600008
 30
0.0
 11
-1.270082145861525
 21
-8.670444504226558
 31
0.0
  0
LINE
  5
219C
330
1F
100
AcDbEntity
  8
SK1
100
AcDbLine
 10
-2.499999944099997
 20
-9.30000003430001
 30
0.0
 11
-2.300000050999996
 21
-9.100000374050011
 31
0.0
  0
ARC
  5
21A4
330
1F
100
AcDbEntity
  8
SK1
100
AcDbCircle
 10
-0.4000000000000057
 20
-9.25
 30
0.0
 40
0.6000000000000015
100
AcDbArc
 50
48.18968510420022
 51
90.0
  0
ELLIPSE
  5
21D4
330
1F
100
AcDbEntity
  8
1
100
AcDbEllipse
 10
43.38438235069998
 20
0.0
 30
0.0
 11
59.7128129210909
 21
0.0
 31
0.0
210
0.0
220
0.0
230
0.9999999999999998
 40
0.2679491924
 41
4.078135878752326
 42
4.093870467585488
  0
LINE
  5
21D5
330
1F
100
AcDbEntity
  8
1
100
AcDbLine
 10
8.000000380000017
 20
-12.88823224604999
 30
0.0
 11
8.000000380000017
 21
12.88823231647651
 31
0.0
  0
LINE
  5
21D8
330
1F
100
AcDbEntity
  8
3
100
AcDbLine
 10
6.500000134150012
 20
-12.24999967965
 30
0.0
 11
6.500000134150012
 21
-9.449999779500004
 31
0.0
  0
LINE
  5
21D9
330
1F
100
AcDbEntity
  8
3
100
AcDbLine
 10
6.500000134150012
 20
-12.24999967965
 30
0.0
 11
7.341204676800002
 21
-10.8500001952
 31
0.0
  0
LINE
  5
21DE
330
1F
100
AcDbEntity
  8
3
100
AcDbLine
 10
7.341204676800002
 20
-10.8500001952
 30
0.0
 11
6.500000134150012
 21
-9.449999779500004
 31
0.0
  0
LINE
  5
21E8
330
1F
100
AcDbEntity
  8
3
100
AcDbLine
 10
4.000000189999993
 20
-3.4000000451
 30
0.0
 11
6.042926106599992
 21
0.0
 31
0.0
  0
LINE
  5
21E9
330
1F
100
AcDbEntity
  8
3
100
AcDbLine
 10
7.368911057750011
 20
1.249999972050004
 30
0.0
 11
2.300000051050004
 21
1.249999972050004
 31
0.0
  0
LINE
  5
21EA
330
1F
100
AcDbEntity
  8
3
100
AcDbLine
 10
2.300000051050004
 20
-1.249999972099999
 30
0.0
 11
7.368911057750011
 21
-1.249999972099999
 31
0.0
  0
ARC
  5
21EB
330
1F
100
AcDbEntity
  8
3
100
AcDbCircle
 10
2.299999999999997
 20
0.0
 30
0.0
 40
1.249999999999998
100
AcDbArc
 50
291.9228107682998
 51
68.07718923170006
  0
LWPOLYLINE
  5
21EC
330
1F
100
AcDbEntity
  8
1
100
AcDbPolyline
 90
       28
 70
   128
 43
0.0
 10
7.04538729044998
 20
0.0
 10
7.054107729349992
 20
-0.2882698318000081
 10
7.079799659549991
 20
-0.5609989748500084
 10
7.121077273049991
 20
-0.8034845231999979
 10
7.17571610585
 20
-1.002653967599997
 10
7.240769919049994
 20
-1.147770090050001
 10
7.312731817399991
 20
-1.231009722700008
 10
7.387722376749991
 20
-1.247885171350005
 10
7.461698725849997
 20
-1.197486883050004
 10
7.530672941399982
 20
-1.082531758599997
 10
7.590926717999991
 20
-0.9092170512500103
 10
7.639211136850008
 20
-0.6868861965000122
 10
7.672924082749999
 20
-0.4275251704000027
 10
7.690247148299987
 20
-0.1451161370000022
 10
7.690247148299987
 20
0.1451161369499943
 10
7.672924082749999
 20
0.4275251703499947
 10
7.639211136850008
 20
0.68688619644999
 10
7.590926717999991
 20
0.909217051199988
 10
7.530672941399982
 20
1.08253175854999
 10
7.461698725849997
 20
1.197486882999995
 10
7.387722376749991
 20
1.247885171299998
 10
7.312731817399991
 20
1.23100972265
 10
7.240769919049994
 20
1.147770089999994
 10
7.17571610585
 20
1.002653967550003
 10
7.121077273049991
 20
0.8034845231999836
 10
7.079799659549991
 20
0.5609989747999862
 10
7.054107729349992
 20
0.2882698317999939
 10
7.04538729044998
 20
0.0
  0
LINE
  5
225D
330
1F
100
AcDbEntity
  8
3
100
AcDbLine
 10
6.500000134150013
 20
12.24999967959999
 30
0.0
 11
0.0
 21
12.24999967959999
 31
0.0
  0
LINE
  5
225E
330
1F
100
AcDbEntity
  8
3
100
AcDbLine
 10
0.0
 20
9.449999779449994
 30
0.0
 11
6.500000134150013
 21
9.449999779449996
 31
0.0
  0
LINE
  5
2261
330
1F
100
AcDbEntity
  8
3
100
AcDbLine
 10
4.000000189999993
 20
3.400000045050006
 30
0.0
 11
0.0
 21
3.400000045050006
 31
0.0
  0
LINE
  5
2263
330
1F
100
AcDbEntity
  8
SK1
100
AcDbLine
 10
-2.499999944099997
 20
8.999999612549997
 30
0.0
 11
-16.49999991055
 21
8.999999612549997
 31
0.0
  0
LINE
  5
2264
330
1F
100
AcDbEntity
  8
SK3
100
AcDbLine
 10
-17.5000000745
 20
4.499999806250001
 30
0.0
 11
-19.50000040229999
 21
4.499999806250001
 31
0.0
  0
ARC
  5
2265
330
1F
100
AcDbEntity
  8
SK3
100
AcDbCircle
 10
-19.5
 20
5.0
 30
0.0
 40
0.5000000000000071
100
AcDbArc
 50
180.0
 51
270.0
  0
LINE
  5
2266
330
1F
100
AcDbEntity
  8
SK3
100
AcDbLine
 10
-16.8390534818
 20
3.400000045050006
 30
0.0
 11
-17.5000000745
 21
4.499999806250001
 31
0.0
  0
LINE
  5
2267
330
1F
100
AcDbEntity
  8
SK1
100
AcDbLine
 10
-17.36245676875
 20
8.73666908589999
 30
0.0
 11
-18.10981333255
 21
8.89166537669999
 31
0.0
  0
ARC
  5
2268
330
1F
100
AcDbEntity
  8
SK1
100
AcDbCircle
 10
-18.1910419891
 20
8.5
 30
0.0
 40
0.4000000000000057
100
AcDbArc
 50
78.28333822419985
 51
90.0
  0
LINE
  5
2269
330
1F
100
AcDbEntity
  8
SK1
100
AcDbLine
 10
-18.19104142485
 20
8.899999782449993
 30
0.0
 11
-18.28431524334998
 21
8.899999782449993
 31
0.0
  0
LINE
  5
226A
330
1F
100
AcDbEntity
  8
SK1
100
AcDbLine
 10
-18.56715790924998
 20
8.782843127849986
 30
0.0
 11
-19.99999955295
 21
7.350000087149991
 31
0.0
  0
ARC
  5
226B
330
1F
100
AcDbEntity
  8
SK1
100
AcDbCircle
 10
-18.28431457505
 20
8.5
 30
0.0
 40
0.3999999999999992
100
AcDbArc
 50
90.0
 51
135.0
  0
ARC
  5
226C
330
1F
100
AcDbEntity
  8
SK1
100
AcDbCircle
 10
-17.19999999999999
 20
9.519999999999996
 30
0.0
 40
0.8000000000000044
100
AcDbArc
 50
258.2833382241998
 51
299.9449180876998
  0
LINE
  5
226D
330
1F
100
AcDbEntity
  8
SK1
100
AcDbLine
 10
-16.49999991055
 20
8.999999612549997
 30
0.0
 11
-16.80066622789999
 21
8.826795034100001
 31
0.0
  0
LINE
  5
2271
330
1F
100
AcDbEntity
  8
SK1
100
AcDbLine
 10
-2.300000050999996
 20
12.5500001013
 30
0.0
 11
-2.300000050999996
 21
9.100000373999987
 31
0.0
  0
LINE
  5
2272
330
1F
100
AcDbEntity
  8
SK1
100
AcDbLine
 10
-2.499999944099997
 20
9.300000034249991
 30
0.0
 11
-2.499999944099997
 21
12.35000044104998
 31
0.0
  0
LINE
  5
2274
330
1F
100
AcDbEntity
  8
SK1
100
AcDbLine
 10
0.0
 20
9.100000373999987
 30
0.0
 11
-2.300000050999996
 21
9.100000373999987
 31
0.0
  0
LINE
  5
2275
330
1F
100
AcDbEntity
  8
SK1
100
AcDbLine
 10
-0.399999989899996
 20
8.650000207099992
 30
0.0
 11
-1.114790677049995
 21
8.650000207099992
 31
0.0
  0
LINE
  5
2277
330
1F
100
AcDbEntity
  8
SK1
100
AcDbLine
 10
-1.270082145861525
 20
8.670444504226558
 30
0.0
 11
-2.499999944099997
 21
8.999999612549997
 31
0.0
  0
LINE
  5
227A
330
1F
100
AcDbEntity
  8
SK1
100
AcDbLine
 10
-2.300000050999996
 20
9.100000373999987
 30
0.0
 11
-2.499999944099997
 21
9.30000003424999
 31
0.0
  0
ARC
  5
227C
330
1F
100
AcDbEntity
  8
SK1
100
AcDbCircle
 10
-1.114790718800009
 20
9.25
 30
0.0
 40
0.6000000000000015
100
AcDbArc
 50
254.9999999999995
 51
270.0
  0
ARC
  5
2281
330
1F
100
AcDbEntity
  8
SK1
100
AcDbCircle
 10
-0.4000000000000057
 20
9.25
 30
0.0
 40
0.6000000000000015
100
AcDbArc
 50
270.0
 51
311.8103148957996
  0
LINE
  5
2283
330
1F
100
AcDbEntity
  8
SK1
100
AcDbLine
 10
0.0
 20
12.5500001013
 30
0.0
 11
-2.300000050999996
 21
12.5500001013
 31
0.0
  0
LINE
  5
2284
330
1F
100
AcDbEntity
  8
SK1
100
AcDbLine
 10
-2.300000050999996
 20
12.5500001013
 30
0.0
 11
-2.499999944099997
 21
12.35000044104998
 31
0.0
  0
ARC
  5
2287
330
1F
100
AcDbEntity
  8
1
100
AcDbCircle
 10
0.5
 20
15.5
 30
0.0
 40
0.5
100
AcDbArc
 50
90.0
 51
180.0
  0
LINE
  5
2291
330
1F
100
AcDbEntity
  8
3
100
AcDbLine
 10
6.500000134150012
 20
9.449999779449996
 30
0.0
 11
6.500000134150012
 21
12.24999967959999
 31
0.0
  0
LINE
  5
2294
330
1F
100
AcDbEntity
  8
3
100
AcDbLine
 10
6.500000134150012
 20
9.449999779449996
 30
0.0
 11
7.341204676800002
 21
10.85000019519998
 31
0.0
  0
ELLIPSE
  5
229F
330
1F
100
AcDbEntity
  8
1
100
AcDbEllipse
 10
43.38438235069998
 20
0.0
 30
0.0
 11
59.7128129210909
 21
0.0
 31
0.0
210
0.0
220
0.0
230
0.9999999999999998
 40
0.2679491924
 41
2.189314839594118
 42
2.205049428427279
  0
LINE
  5
22A3
330
1F
100
AcDbEntity
  8
3
100
AcDbLine
 10
7.341204676800002
 20
10.85000019519998
 30
0.0
 11
6.500000134150012
 21
12.24999967959999
 31
0.0
  0
LINE
  5
23E9
330
1F
100
AcDbEntity
  8
1
100
AcDbLine
 10
17.78344716880002
 20
4.04488807540001
 30
0.0
 11
17.43232738229999
 21
6.325501482900008
 31
0.0
  0
LINE
  5
23EA
330
1F
100
AcDbEntity
  8
1
100
AcDbLine
 10
8.761177770800003
 20
13.0358133465
 30
0.0
 11
8.761177770800003
 21
-13.03581334649999
 31
0.0
  0
LINE
  5
23EB
330
1F
100
AcDbEntity
  8
SK1
100
AcDbLine
 10
11.41747366639997
 20
13.51414341479999
 30
0.0
 11
11.41747366639997
 21
-4.080400336599993
 31
0.0
  0
LINE
  5
23EC
330
1F
100
AcDbEntity
  8
SK1
100
AcDbLine
 10
10.97515504809999
 20
13.4382918477
 30
0.0
 11
10.97515504809999
 21
-5.024779122399991
 31
0.0
  0
ARC
  5
23ED
330
1F
100
AcDbEntity
  8
1
100
AcDbCircle
 10
18.72009590119015
 20
5.364897775364005
 30
0.0
 40
5.113378713227008
100
AcDbArc
 50
187.769426480945
 51
268.270663730347
  0
LINE
  5
23EE
330
1F
100
AcDbEntity
  8
SK1
100
AcDbLine
 10
13.63145094359998
 20
4.815671054182131
 30
0.0
 11
13.63145094359998
 21
-3.001061500999994
 31
0.0
  0
LWPOLYLINE
  5
23EF
330
1F
100
AcDbEntity
  8
1
100
AcDbPolyline
 90
       33
 70
   128
 43
0.0
 10
13.7520087883
 20
4.673636052700003
 10
14.00395762170001
 20
3.678057575599992
 10
14.43867292250001
 20
2.752495463900003
 10
15.03945048899999
 20
1.932518323899998
 10
15.78320469709999
 20
1.249637571100009
 10
16.6413513943
 20
0.7300958386000076
 10
17.58091431109999
 20
0.3938588488000221
 10
18.56578420849998
 20
0.2538480039000035
 10
19.55811213700002
 20
0.3154438454000115
 10
20.51976602519999
 20
0.5762793007000086
 10
21.41379099339999
 20
1.026330515699996
 10
22.20582868899994
 20
1.648302422800013
 10
22.86543976509996
 20
2.418292919099997
 10
23.36728107179999
 20
3.306711558200007
 10
23.69205933060001
 20
4.279416985799996
 10
23.82729854430001
 20
5.299028940499994
 10
23.76780193299996
 20
6.326363887600009
 10
23.51585309950001
 20
7.321942597600012
 10
23.08113779869997
 20
8.247504942100007
 10
22.4803602323
 20
9.067481383700011
 10
21.7366060242
 20
9.750362485599993
 10
20.87845932689998
 20
10.2699045092
 10
19.93889641020001
 20
10.6061408296
 10
18.95403023810001
 20
10.74615214020001
 10
17.96169858419996
 20
10.68455632769998
 10
17.00004469599997
 20
10.42372081430001
 10
16.10601972789999
 20
9.973669424600016
 10
15.31398203219998
 20
9.351697750400004
 10
14.65437095609996
 20
8.581707253999994
 10
14.1525333747
 20
7.693288382100007
 10
13.82775139059998
 20
6.720582954600017
 10
13.69251217689998
 20
5.700970999900007
 10
13.7520087883
 20
4.673636052700003
  0
ARC
  5
23F0
330
1F
100
AcDbEntity
  8
1
100
AcDbCircle
 10
18.87301677069997
 20
5.497084847700008
 30
0.0
 40
2.036996877330694
100
AcDbArc
 50
310.4481076062004
 51
8.973339607400227
  0
LINE
  5
23F1
330
1F
100
AcDbEntity
  8
1
100
AcDbLine
 10
21.06064464899997
 20
4.674498923100003
 30
0.0
 11
20.19453700630001
 21
3.946942742900019
 31
0.0
  0
LINE
  5
23F2
330
1F
100
AcDbEntity
  8
1
100
AcDbLine
 10
21.59898635
 20
4.674498923100003
 30
0.0
 11
19.86677851529998
 21
3.2193867955
 31
0.0
  0
LINE
  5
23F3
330
1F
100
AcDbEntity
  8
SK1
100
AcDbLine
 10
25.79999994489996
 20
15.69999940689999
 30
0.0
 11
25.79999994489996
 21
2.014205092500005
 31
0.0
  0
LINE
  5
23F4
330
1F
100
AcDbEntity
  8
SK1
100
AcDbLine
 10
25.0000013038
 20
15.6522508654212
 30
0.0
 11
25.0000013038
 21
2.000000095000004
 31
0.0
  0
LINE
  5
23F5
330
1F
100
AcDbEntity
  8
SK1
100
AcDbLine
 10
24.69895314419996
 20
15.19646309309997
 30
0.0
 11
24.69895314419996
 21
2.000000095000004
 31
0.0
  0
LINE
  5
23F6
330
1F
100
AcDbEntity
  8
SK1
100
AcDbLine
 10
24.25663452589998
 20
15.15690144149997
 30
0.0
 11
24.25663452589998
 21
2.000000095000004
 31
0.0
  0
LINE
  5
23F7
330
1F
100
AcDbEntity
  8
SK3
100
AcDbLine
 10
14.50000237669999
 20
-1.249999972099985
 30
0.0
 11
23.0500018224
 21
-1.249999972099985
 31
0.0
  0
LINE
  5
23F8
330
1F
100
AcDbEntity
  8
SK3
100
AcDbLine
 10
23.0500018224
 20
1.249999972000011
 30
0.0
 11
14.50000237669999
 21
1.249999972000011
 31
0.0
  0
LINE
  5
23F9
330
1F
100
AcDbEntity
  8
SK4
100
AcDbLine
 10
9.000002406499959
 20
0.0
 30
0.0
 11
23.30000232900001
 21
0.0
 31
0.0
  0
ARC
  5
23FA
330
1F
100
AcDbEntity
  8
1
100
AcDbCircle
 10
15.76332307199997
 20
0.0
 30
0.0
 40
16.00000000000009
100
AcDbArc
 50
286.1901642321006
 51
291.3961085711992
  0
LINE
  5
23FB
330
1F
100
AcDbEntity
  8
SK1
100
AcDbLine
 10
14.07376956189995
 20
-7.978952489799992
 30
0.0
 11
14.07376956189995
 21
-10.639892280245
 31
0.0
  0
LINE
  5
23FC
330
1F
100
AcDbEntity
  8
SK1
100
AcDbLine
 10
13.63145094359998
 20
-7.998938672299986
 30
0.0
 11
13.63145094359998
 21
-10.61770369800701
 31
0.0
  0
LINE
  5
23FD
330
1F
100
AcDbEntity
  8
SK1
100
AcDbLine
 10
16.28774683919998
 20
-6.45906291899999
 30
0.0
 11
16.28774683919998
 21
-11.00365758105054
 31
0.0
  0
LINE
  5
23FE
330
1F
100
AcDbEntity
  8
SK1
100
AcDbLine
 10
19.38636135310003
 20
0.3047829199551373
 30
0.0
 11
19.38636135310003
 21
-11.36207984502527
 31
0.0
  0
LINE
  5
23FF
330
1F
100
AcDbEntity
  8
SK1
100
AcDbLine
 10
18.9440427348
 20
0.2773272909006437
 30
0.0
 11
18.9440427348
 21
-11.34476343674867
 31
0.0
  0
LINE
  5
2400
330
1F
100
AcDbEntity
  8
SK1
100
AcDbLine
 10
11.41747366639997
 20
-6.919599603899982
 30
0.0
 11
11.41747366639997
 21
-10.20798834654897
 31
0.0
  0
LINE
  5
2401
330
1F
100
AcDbEntity
  8
SK1
100
AcDbLine
 10
10.97515504809999
 20
-5.975220818099983
 30
0.0
 11
10.97515504809999
 21
-10.18303666443596
 31
0.0
  0
LINE
  5
2402
330
1F
100
AcDbEntity
  8
SK1
100
AcDbLine
 10
16.73006545750001
 20
0.6546514232005052
 30
0.0
 11
16.73006545750001
 21
-11.02331717738191
 31
0.0
  0
ARC
  5
2403
330
1F
100
AcDbEntity
  8
1
100
AcDbCircle
 10
12.11913343099999
 20
-14.304674582
 30
0.0
 40
0.3045558478055603
100
AcDbArc
 50
229.4274715540993
 51
296.6327118593003
  0
ARC
  5
2404
330
1F
100
AcDbEntity
  8
1
100
AcDbCircle
 10
2.291129486599984
 20
0.0
 30
0.0
 40
16.00000000000017
100
AcDbArc
 50
297.1785128822003
 51
302.8711521760998
  0
ARC
  5
2405
330
1F
100
AcDbEntity
  8
1
100
AcDbCircle
 10
9.462702918500012
 20
-13.98916607399999
 30
0.0
 40
0.2798703594165344
100
AcDbArc
 50
224.9845513411989
 51
299.2282080839991
  0
ELLIPSE
  5
2406
330
1F
100
AcDbEntity
  8
1
100
AcDbEllipse
 10
43.38438296910001
 20
0.0
 30
0.0
 11
59.71281292109614
 21
0.0
 31
0.0
210
0.0
220
0.0
230
0.9999999999999998
 40
0.2679491924
 41
4.138679145987513
 42
4.147473713512126
  0
ELLIPSE
  5
2407
330
1F
100
AcDbEntity
  8
1
100
AcDbEllipse
 10
13.71259290199996
 20
0.0
 30
0.0
 11
0.0
 21
16.0
 31
0.0
210
0.0
220
0.0
230
1.0
 40
0.2679491924
 41
2.576677386717207
 42
2.710478337602054
  0
ELLIPSE
  5
2408
330
1F
100
AcDbEntity
  8
1
100
AcDbEllipse
 10
11.24701035349999
 20
0.0
 30
0.0
 11
0.0
 21
16.0
 31
0.0
210
0.0
220
0.0
230
1.0
 40
0.2679491924
 41
2.52307414079058
 42
2.660928762398193
  0
LINE
  5
2409
330
1F
100
AcDbEntity
  8
1
100
AcDbLine
 10
10.97515504809997
 20
-10.18303666443596
 30
0.0
 11
10.97515574789861
 21
-13.43829185023649
 31
0.0
  0
LINE
  5
240A
330
1F
100
AcDbEntity
  8
1
100
AcDbLine
 10
11.41747366639997
 20
-10.20798834654897
 30
0.0
 11
11.41747195296748
 21
-13.5141434359957
 31
0.0
  0
ELLIPSE
  5
240B
330
1F
100
AcDbEntity
  8
1
100
AcDbEllipse
 10
43.38438296910001
 20
0.0
 30
0.0
 11
59.71281292109525
 21
0.0
 31
0.0
210
0.0
220
0.0
230
1.0
 40
0.2679491924
 41
4.241383405901973
 42
4.249678503611236
  0
ARC
  5
240C
330
1F
100
AcDbEntity
  8
1
100
AcDbCircle
 10
14.77549216769999
 20
-14.57212782569999
 30
0.0
 40
0.3353961881061139
100
AcDbArc
 50
233.7868420970996
 51
294.0079179017005
  0
ARC
  5
240D
330
1F
100
AcDbEntity
  8
1
100
AcDbCircle
 10
5.659177882999983
 20
0.0
 30
0.0
 40
16.00000000000014
100
AcDbArc
 50
294.3481303217001
 51
299.8854195167004
  0
ELLIPSE
  5
240E
330
1F
100
AcDbEntity
  8
1
100
AcDbEllipse
 10
43.38438296910001
 20
0.0
 30
0.0
 11
59.71281292109525
 21
0.0
 31
0.0
210
0.0
220
0.0
230
1.0
 40
0.2679491924
 41
4.190790011477993
 42
4.19931271543573
  0
ELLIPSE
  5
240F
330
1F
100
AcDbEntity
  8
1
100
AcDbEllipse
 10
16.1781754504
 20
0.0
 30
0.0
 11
0.0
 21
16.0
 31
0.0
210
0.0
220
0.0
230
1.0
 40
0.2679491924
 41
2.628516388640812
 42
2.758922420556407
  0
ARC
  5
2410
330
1F
100
AcDbEntity
  8
1
100
AcDbCircle
 10
9.027226279300007
 20
0.0
 30
0.0
 40
16.00000000000014
100
AcDbArc
 50
291.579711726899
 51
296.9866315450003
  0
LINE
  5
2411
330
1F
100
AcDbEntity
  8
1
100
AcDbLine
 10
13.63145094359998
 20
-10.61770369800701
 30
0.0
 11
13.63145177019376
 21
-13.87237719436056
 31
0.0
  0
LINE
  5
2412
330
1F
100
AcDbEntity
  8
1
100
AcDbLine
 10
14.07376956189995
 20
-10.639892280245
 30
0.0
 11
14.07376797526265
 21
-13.93981788472091
 31
0.0
  0
LINE
  5
2413
330
1F
100
AcDbEntity
  8
1
100
AcDbLine
 10
16.28774683919998
 20
-11.00365758105054
 30
0.0
 11
16.28774779248838
 21
-14.25779882413331
 31
0.0
  0
ELLIPSE
  5
2414
330
1F
100
AcDbEntity
  8
1
100
AcDbEllipse
 10
43.38438296910001
 20
0.0
 30
0.0
 11
59.71281292109523
 21
0.0
 31
0.0
210
0.0
220
0.0
230
1.0
 40
0.2679491924
 41
4.290704371811226
 42
4.298808303108546
  0
ELLIPSE
  5
2415
330
1F
100
AcDbEntity
  8
1
100
AcDbEllipse
 10
18.64375799889997
 20
0.0
 30
0.0
 11
0.0
 21
16.0
 31
0.0
210
0.0
220
0.0
230
1.0
 40
0.2679491924
 41
2.67888217681632
 42
2.806438900787897
  0
ARC
  5
2416
330
1F
100
AcDbEntity
  8
1
100
AcDbCircle
 10
17.43180201219995
 20
-14.79137821069999
 30
0.0
 40
0.3750106741458825
100
AcDbArc
 50
238.1012648064004
 51
291.3366100413997
  0
ARC
  5
2417
330
1F
100
AcDbEntity
  8
1
100
AcDbCircle
 10
12.3952746756
 20
0.0
 30
0.0
 40
16.0000000000001
100
AcDbArc
 50
288.8632651731997
 51
294.1607483568996
  0
ARC
  5
2418
330
1F
100
AcDbEntity
  8
1
100
AcDbCircle
 10
20.08808436829996
 20
-14.960092077
 30
0.0
 40
0.4277244251211334
100
AcDbArc
 50
242.4020529363995
 51
288.6046873869002
  0
ELLIPSE
  5
2419
330
1F
100
AcDbEntity
  8
1
100
AcDbEllipse
 10
21.10934054739996
 20
0.0
 30
0.0
 11
0.0
 21
16.0
 31
0.0
210
0.0
220
0.0
230
1.0
 40
0.2679491924
 41
2.728011976313634
 42
2.853180993196076
  0
LINE
  5
241A
330
1F
100
AcDbEntity
  8
1
100
AcDbLine
 10
16.73006545750001
 20
-11.02331717738191
 30
0.0
 11
16.73006399755723
 21
-14.31753434171065
 31
0.0
  0
LINE
  5
241B
330
1F
100
AcDbEntity
  8
1
100
AcDbLine
 10
18.9440427348
 20
-11.34476343674867
 30
0.0
 11
18.94404381478297
 21
-14.59841165033566
 31
0.0
  0
LINE
  5
241C
330
1F
100
AcDbEntity
  8
1
100
AcDbLine
 10
19.38636135310003
 20
-11.36207984502527
 30
0.0
 11
19.38636001985185
 21
-14.65100248137647
 31
0.0
  0
ARC
  5
241D
330
1F
100
AcDbEntity
  8
SK1
100
AcDbCircle
 10
10.88879242659999
 20
-8.219701339899996
 30
0.0
 40
1.660064610042694
100
AcDbArc
 50
34.57540323419959
 51
51.55112684860057
  0
ARC
  5
241E
330
1F
100
AcDbEntity
  8
SK1
100
AcDbCircle
 10
10.9217858635
 20
-2.811134251499993
 30
0.0
 40
1.61541316059012
100
AcDbArc
 50
308.2124717634998
 51
325.6610353285991
  0
LINE
  5
241F
330
1F
100
AcDbEntity
  8
SK1
100
AcDbLine
 10
11.92104723299999
 20
-4.080400336599993
 30
0.0
 11
11.41747366639997
 21
-4.080400336599993
 31
0.0
  0
ELLIPSE
  5
2420
330
1F
100
AcDbEntity
  8
SK1
100
AcDbEllipse
 10
13.71270275069998
 20
-5.5
 30
0.0
 11
2.78838767912606
 21
0.0
 31
0.0
210
0.0
220
0.0
230
1.0
 40
0.8965754721999999
 41
2.537713462533318
 42
2.950340571891037
  0
ELLIPSE
  5
2421
330
1F
100
AcDbEntity
  8
SK1
100
AcDbEllipse
 10
12.97917924209998
 20
-5.5
 30
0.0
 11
0.0
 21
2.500000000000028
 31
0.0
210
0.0
220
0.0
230
1.0
 40
0.8164965808999999
 41
1.379544245096139
 42
1.762048408493643
  0
LINE
  5
2422
330
1F
100
AcDbEntity
  8
SK1
100
AcDbLine
 10
11.41747366639997
 20
-6.919599603899982
 30
0.0
 11
11.92104723299999
 21
-6.919599603899982
 31
0.0
  0
ELLIPSE
  5
2423
330
1F
100
AcDbEntity
  8
SK1
100
AcDbEllipse
 10
13.71270275069998
 20
-5.5
 30
0.0
 11
2.78838767912606
 21
0.0
 31
0.0
210
0.0
220
0.0
230
1.0
 40
0.8965754721999999
 41
3.332844735288551
 42
3.745471844646267
  0
LINE
  5
2424
330
1F
100
AcDbEntity
  8
SK1
100
AcDbLine
 10
14.07376956189995
 20
3.229881753479993
 30
0.0
 11
14.07376956189995
 21
-3.02104791629999
 31
0.0
  0
LINE
  5
2425
330
1F
100
AcDbEntity
  8
SK1
100
AcDbLine
 10
16.28774683919998
 20
0.8670849840710275
 30
0.0
 11
16.28774683919998
 21
-4.540937021399983
 31
0.0
  0
ELLIPSE
  5
2426
330
1F
100
AcDbEntity
  8
SK1
100
AcDbEllipse
 10
13.71270275069998
 20
-5.5
 30
0.0
 11
2.788387679126086
 21
0.0
 31
0.0
210
0.0
220
0.0
230
1.0
 40
0.8965754721999998
 41
5.889466681094633
 42
6.676903933264576
  0
ARC
  5
2427
330
1F
100
AcDbEntity
  8
SK1
100
AcDbCircle
 10
14.587900587
 20
-5.499999737399988
 30
0.0
 40
2.430834571464509
100
AcDbArc
 50
80.84776503439959
 51
279.1522349656003
  0
ARC
  5
2428
330
1F
100
AcDbEntity
  8
SK1
100
AcDbCircle
 10
14.49247984879997
 20
-4.50464245709999
 30
0.0
 40
1.486019696285774
100
AcDbArc
 50
73.60371313129937
 51
86.72618433350004
  0
LINE
  5
2429
330
1F
100
AcDbEntity
  8
SK1
100
AcDbLine
 10
14.57734312859997
 20
-3.02104791629999
 30
0.0
 11
14.07376956189995
 21
-3.02104791629999
 31
0.0
  0
ELLIPSE
  5
242A
330
1F
100
AcDbEntity
  8
SK1
100
AcDbEllipse
 10
13.71270275069998
 20
-5.5
 30
0.0
 11
2.788387679126086
 21
0.0
 31
0.0
210
0.0
220
0.0
230
1.0
 40
0.8965754721999998
 41
1.44094281444168
 42
1.599939506459849
  0
ELLIPSE
  5
242B
330
1F
100
AcDbEntity
  8
SK1
100
AcDbEllipse
 10
13.69093161609997
 20
-5.5
 30
0.0
 11
0.0
 21
2.500000000000028
 31
0.0
210
0.0
220
0.0
230
1.0
 40
0.8164965808999999
 41
0.02914317966494
 42
0.7798025765634204
  0
ELLIPSE
  5
242C
330
1F
100
AcDbEntity
  8
SK1
100
AcDbEllipse
 10
14.40268399009999
 20
-5.5
 30
0.0
 11
0.0
 21
2.500000000000028
 31
0.0
210
0.0
220
0.0
230
1.0
 40
0.8164965808999999
 41
5.106107606469675
 42
6.031032888581885
  0
ARC
  5
242D
330
1F
100
AcDbEntity
  8
SK1
100
AcDbCircle
 10
14.49088720899999
 20
-6.486182577499986
 30
0.0
 40
1.495271425876081
100
AcDbArc
 50
273.3146647639001
 51
286.3555925903998
  0
ELLIPSE
  5
242E
330
1F
100
AcDbEntity
  8
SK1
100
AcDbEllipse
 10
13.69093161609997
 20
-5.5
 30
0.0
 11
0.0
 21
2.500000000000028
 31
0.0
210
0.0
220
0.0
230
1.0
 40
0.8164965808999999
 41
2.361790077026364
 42
3.112449473924853
  0
ELLIPSE
  5
242F
330
1F
100
AcDbEntity
  8
SK1
100
AcDbEllipse
 10
13.71270275069998
 20
-5.5
 30
0.0
 11
2.788387679126086
 21
0.0
 31
0.0
210
0.0
220
0.0
230
1.0
 40
0.8965754721999998
 41
4.683245800719745
 42
4.842242492737919
  0
LINE
  5
2430
330
1F
100
AcDbEntity
  8
SK1
100
AcDbLine
 10
14.07376956189995
 20
-7.978952489799992
 30
0.0
 11
14.57734312859997
 21
-7.978952489799992
 31
0.0
  0
ELLIPSE
  5
2431
330
1F
100
AcDbEntity
  8
SK1
100
AcDbEllipse
 10
14.40268399009999
 20
-5.5
 30
0.0
 11
0.0
 21
2.500000000000028
 31
0.0
210
0.0
220
0.0
230
1.0
 40
0.8164965808999999
 41
3.393745072187531
 42
4.31867035429973
  0
LINE
  5
2432
330
1F
100
AcDbEntity
  8
SK3
100
AcDbLine
 10
13.74892424789999
 20
0.0
 30
0.0
 11
14.50000237669999
 21
-1.249999972099985
 31
0.0
  0
LINE
  5
2433
330
1F
100
AcDbEntity
  8
SK3
100
AcDbLine
 10
14.50000237669999
 20
1.249999972000011
 30
0.0
 11
14.50000237669999
 21
-1.249999972099985
 31
0.0
  0
LINE
  5
2434
330
1F
100
AcDbEntity
  8
SK3
100
AcDbLine
 10
14.50000237669999
 20
1.249999972000011
 30
0.0
 11
13.74892424789999
 21
0.0
 31
0.0
  0
LINE
  5
2435
330
1F
100
AcDbEntity
  8
1
100
AcDbLine
 10
19.86677851529998
 20
3.2193867955
 30
0.0
 11
17.78344716880002
 21
4.04488807540001
 31
0.0
  0
ARC
  5
2436
330
1F
100
AcDbEntity
  8
1
100
AcDbCircle
 10
18.97054701269996
 20
5.397447096300012
 30
0.0
 40
1.897923703404995
100
AcDbArc
 50
275.1387664375002
 51
310.1589286288005
  0
LINE
  5
2437
330
1F
100
AcDbEntity
  8
1
100
AcDbLine
 10
20.19453700630001
 20
3.946942742900019
 30
0.0
 11
19.50098108499999
 21
3.364330856100011
 31
0.0
  0
LINE
  5
2438
330
1F
100
AcDbEntity
  8
SK1
100
AcDbLine
 10
25.79999994489996
 20
-2.000000094999989
 30
0.0
 11
25.79999994489996
 21
-10.95870950038815
 31
0.0
  0
LINE
  5
2439
330
1F
100
AcDbEntity
  8
SK1
100
AcDbLine
 10
25.0000013038
 20
-2.000000094999989
 30
0.0
 11
25.0000013038
 21
-12.01355573867505
 31
0.0
  0
LINE
  5
243A
330
1F
100
AcDbEntity
  8
SK1
100
AcDbLine
 10
24.69895314419996
 20
-2.000000094999989
 30
0.0
 11
24.69895314419996
 21
-11.91719885410333
 31
0.0
  0
LINE
  5
243B
330
1F
100
AcDbEntity
  8
SK1
100
AcDbLine
 10
24.25663452589998
 20
-2.000000094999989
 30
0.0
 11
24.25663452589998
 21
-11.90415127007499
 31
0.0
  0
LINE
  5
243C
330
1F
100
AcDbEntity
  8
SK1
100
AcDbLine
 10
22.04265724869995
 20
1.520167041780331
 30
0.0
 11
22.04265724869995
 21
-11.6592249969065
 31
0.0
  0
LINE
  5
243D
330
1F
100
AcDbEntity
  8
SK1
100
AcDbLine
 10
21.60033863040002
 20
1.172822772564116
 30
0.0
 11
21.60033863040002
 21
-11.64410292255135
 31
0.0
  0
LINE
  5
243E
330
1F
100
AcDbEntity
  8
1
100
AcDbLine
 10
25.50000231709996
 20
-15.75309410689999
 30
0.0
 11
25.50000231709996
 21
-16.00000075999999
 31
0.0
  0
LINE
  5
243F
330
1F
100
AcDbEntity
  8
1
100
AcDbLine
 10
25.50000231709996
 20
-16.00000075999999
 30
0.0
 11
25.79999994489996
 21
-15.69999940699999
 31
0.0
  0
LWPOLYLINE
  5
2440
330
1F
100
AcDbEntity
  8
1
100
AcDbPolyline
 90
        3
 70
   128
 43
0.0
 10
25.50000231709996
 20
-15.75309410689999
 10
25.25429334489997
 20
-15.7081764192
 10
25.0000013038
 20
-15.65225086552096
  0
ARC
  5
2441
330
1F
100
AcDbEntity
  8
1
100
AcDbCircle
 10
19.13137146829996
 20
0.0
 30
0.0
 40
15.99999999999996
100
AcDbArc
 50
283.5528230953997
 51
288.6828240499992
  0
ARC
  5
2442
330
1F
100
AcDbEntity
  8
1
100
AcDbCircle
 10
22.74435567649996
 20
-15.07232473489999
 30
0.0
 40
0.5010890862572716
100
AcDbArc
 50
246.7097941203996
 51
285.8056777145997
  0
ELLIPSE
  5
2443
330
1F
100
AcDbEntity
  8
1
100
AcDbEllipse
 10
23.57492309579998
 20
0.0
 30
0.0
 11
0.0
 21
16.0
 31
0.0
210
0.0
220
0.0
230
1.0
 40
0.2679491924
 41
2.776103527622725
 42
2.899283123298508
  0
ELLIPSE
  5
2444
330
1F
100
AcDbEntity
  8
1
100
AcDbEllipse
 10
43.38438296910001
 20
0.0
 30
0.0
 11
59.7128129210333
 21
0.0
 31
0.0
210
0.0
220
0.0
230
1.0
 40
0.2679491924
 41
4.338956438702544
 42
4.346899854417626
  0
ELLIPSE
  5
2445
330
1F
100
AcDbEntity
  8
1
100
AcDbEllipse
 10
43.38438296910001
 20
0.0
 30
0.0
 11
59.71281292111967
 21
0.0
 31
0.0
210
0.0
220
0.0
230
1.0
 40
0.2679491924
 41
4.386312187141321
 42
4.394121381847837
  0
ELLIPSE
  5
2446
330
1F
100
AcDbEntity
  8
1
100
AcDbEllipse
 10
26.04050564429998
 20
0.0
 30
0.0
 11
0.0
 21
16.0
 31
0.0
210
0.0
220
0.0
230
1.0
 40
0.2679491924
 41
2.823325055052928
 42
2.896443417704583
  0
LINE
  5
2447
330
1F
100
AcDbEntity
  8
1
100
AcDbLine
 10
21.60033863040002
 20
-11.64410292255135
 30
0.0
 11
21.60033983710027
 21
-14.89728952634502
 31
0.0
  0
LINE
  5
2448
330
1F
100
AcDbEntity
  8
1
100
AcDbLine
 10
22.04265724869995
 20
-11.6592249969065
 30
0.0
 11
22.04265604216907
 21
-14.94318489842203
 31
0.0
  0
LINE
  5
2449
330
1F
100
AcDbEntity
  8
1
100
AcDbLine
 10
24.25663452589998
 20
-11.90415127007499
 30
0.0
 11
24.25663585937746
 21
-15.15690156072643
 31
0.0
  0
LINE
  5
244A
330
1F
100
AcDbEntity
  8
1
100
AcDbLine
 10
24.69895314419996
 20
-11.91719885410333
 30
0.0
 11
24.69895206443286
 21
-15.1964631814453
 31
0.0
  0
LINE
  5
244B
330
1F
100
AcDbEntity
  8
1
100
AcDbLine
 10
25.0000013038
 20
-12.01355573867505
 30
0.0
 11
25.0000013038
 21
-15.65225086552096
 31
0.0
  0
LINE
  5
244C
330
1F
100
AcDbEntity
  8
1
100
AcDbLine
 10
25.79999994489996
 20
-15.49967750909998
 30
0.0
 11
25.50000231709996
 21
-15.75309410689999
 31
0.0
  0
LINE
  5
244D
330
1F
100
AcDbEntity
  8
1
100
AcDbLine
 10
25.79999994489996
 20
-10.95870950038815
 30
0.0
 11
25.79999994489996
 21
-15.69999940699999
 31
0.0
  0
LINE
  5
244E
330
1F
100
AcDbEntity
  8
SK1
100
AcDbLine
 10
23.30000232900001
 20
2.000000095000004
 30
0.0
 11
25.79999994489996
 21
2.000000095000004
 31
0.0
  0
LINE
  5
244F
330
1F
100
AcDbEntity
  8
SK1
100
AcDbLine
 10
25.79999994489996
 20
-2.000000094999989
 30
0.0
 11
23.30000232900001
 21
-2.000000094999989
 31
0.0
  0
LINE
  5
2450
330
1F
100
AcDbEntity
  8
SK3
100
AcDbLine
 10
23.30000232900001
 20
1.500000012999989
 30
0.0
 11
23.0500018224
 21
1.249999972000011
 31
0.0
  0
LINE
  5
2452
330
1F
100
AcDbEntity
  8
SK3
100
AcDbLine
 10
23.0500018224
 20
-1.249999972099985
 30
0.0
 11
23.30000232900001
 21
-1.500000013099992
 31
0.0
  0
LINE
  5
2454
330
1F
100
AcDbEntity
  8
SK3
100
AcDbLine
 10
23.0500018224
 20
1.249999972000011
 30
0.0
 11
23.0500018224
 21
-1.249999972099985
 31
0.0
  0
LINE
  5
2455
330
1F
100
AcDbEntity
  8
SK1
100
AcDbLine
 10
23.30000232900001
 20
-2.000000094999989
 30
0.0
 11
23.30000232900001
 21
2.000000095000004
 31
0.0
  0
ARC
  5
2457
330
1F
100
AcDbEntity
  8
SK1
100
AcDbCircle
 10
15.76332307199997
 20
0.0
 30
0.0
 40
16.00000000000008
100
AcDbArc
 50
68.60389142880042
 51
73.80983576789929
  0
LINE
  5
2458
330
1F
100
AcDbEntity
  8
SK1
100
AcDbLine
 10
9.000002406499959
 20
16.0000007599
 30
0.0
 11
25.50000231709996
 21
16.0000007599
 31
0.0
  0
ARC
  5
2459
330
1F
100
AcDbEntity
  8
1
100
AcDbCircle
 10
18.91957999259996
 20
5.527857221100005
 30
0.0
 40
1.986338534071905
100
AcDbArc
 50
8.306053252899943
 51
67.86978461860059
  0
LINE
  5
245A
330
1F
100
AcDbEntity
  8
1
100
AcDbLine
 10
20.70952486250001
 20
6.955111864900003
 30
0.0
 11
20.88508289310002
 21
5.814805161200013
 31
0.0
  0
LINE
  5
245B
330
1F
100
AcDbEntity
  8
1
100
AcDbLine
 10
20.70952486250001
 20
6.955111864900003
 30
0.0
 11
21.24786656349998
 21
6.955111864900003
 31
0.0
  0
LINE
  5
245C
330
1F
100
AcDbEntity
  8
1
100
AcDbLine
 10
19.1645389423
 20
7.780613377700007
 30
0.0
 11
21.24786656349998
 21
6.955111864900003
 31
0.0
  0
ARC
  5
245D
330
1F
100
AcDbEntity
  8
SK1
100
AcDbCircle
 10
12.12450490309999
 20
14.26073669139999
 30
0.0
 40
0.3423017291099896
100
AcDbArc
 50
67.47129360870083
 51
126.4685229777993
  0
ARC
  5
245E
330
1F
100
AcDbEntity
  8
SK1
100
AcDbCircle
 10
9.467493721799995
 20
13.9546123552
 30
0.0
 40
0.3084048880376279
100
AcDbArc
 50
64.68609534279941
 51
131.101145232
  0
ELLIPSE
  5
245F
330
1F
100
AcDbEntity
  8
SK1
100
AcDbEllipse
 10
43.38438296910001
 20
0.0
 30
0.0
 11
59.71281292109614
 21
0.0
 31
0.0
210
0.0
220
0.0
230
0.9999999999999998
 40
0.2679491924
 41
2.135711593667473
 42
2.14450616119209
  0
LINE
  5
2460
330
1F
100
AcDbEntity
  8
1
100
AcDbLine
 10
9.000002406499987
 20
13.62629366665704
 30
0.0
 11
8.761175930618634
 21
13.03581374809442
 31
0.0
  0
ARC
  5
2461
330
1F
100
AcDbEntity
  8
SK1
100
AcDbCircle
 10
2.291129486599984
 20
0.0
 30
0.0
 40
16.00000000000017
100
AcDbArc
 50
57.12884782389978
 51
62.82148711779964
  0
ELLIPSE
  5
2462
330
1F
100
AcDbEntity
  8
SK1
100
AcDbEllipse
 10
11.24701035349999
 20
0.0
 30
0.0
 11
0.0
 21
16.0
 31
0.0
210
0.0
220
0.0
230
1.0
 40
0.2679491924
 41
0.480663891191596
 42
0.5516835310210416
  0
ELLIPSE
  5
2463
330
1F
100
AcDbEntity
  8
SK1
100
AcDbEllipse
 10
13.71259290199996
 20
0.0
 30
0.0
 11
0.0
 21
16.0
 31
0.0
210
0.0
220
0.0
230
1.0
 40
0.2679491924
 41
0.4311143159877401
 42
0.5649152668725864
  0
LINE
  5
2464
330
1F
100
AcDbEntity
  8
SK1
100
AcDbLine
 10
14.07376956189995
 20
13.93981743600001
 30
0.0
 11
14.07376956189995
 21
7.760794302820322
 31
0.0
  0
ARC
  5
2465
330
1F
100
AcDbEntity
  8
1
100
AcDbCircle
 10
18.78109787840198
 20
5.548038923317966
 30
0.0
 40
5.201463856344513
100
AcDbArc
 50
99.06369914024706
 51
189.6777785535684
  0
LINE
  5
2466
330
1F
100
AcDbEntity
  8
SK1
100
AcDbLine
 10
13.63145094359998
 20
13.87237757439999
 30
0.0
 11
13.63145094359998
 21
6.280406792453837
 31
0.0
  0
LINE
  5
2467
330
1F
100
AcDbEntity
  8
SK1
100
AcDbLine
 10
19.38636135310003
 20
14.65100236229999
 30
0.0
 11
19.38636135310003
 21
10.68469074804431
 31
0.0
  0
LINE
  5
2468
330
1F
100
AcDbEntity
  8
SK1
100
AcDbLine
 10
18.9440427348
 20
14.59841150789999
 30
0.0
 11
18.9440427348
 21
10.74553219788717
 31
0.0
  0
LINE
  5
2469
330
1F
100
AcDbEntity
  8
SK1
100
AcDbLine
 10
16.28774683919998
 20
14.2577989027
 30
0.0
 11
16.28774683919998
 21
10.11295150125071
 31
0.0
  0
LINE
  5
246A
330
1F
100
AcDbEntity
  8
SK1
100
AcDbLine
 10
16.73006545750001
 20
14.3175339326
 30
0.0
 11
16.73006545750001
 21
10.32804857364999
 31
0.0
  0
ARC
  5
246B
330
1F
100
AcDbEntity
  8
1
100
AcDbCircle
 10
18.9772609407
 20
5.628978946800002
 30
0.0
 40
1.871000150869743
100
AcDbArc
 50
68.33947888270086
 51
94.73341535070076
  0
LINE
  5
246C
330
1F
100
AcDbEntity
  8
1
100
AcDbLine
 10
18.99199094619996
 20
7.63566931710001
 30
0.0
 11
19.66785918919998
 21
7.367862388500013
 31
0.0
  0
LINE
  5
246D
330
1F
100
AcDbEntity
  8
1
100
AcDbLine
 10
17.43232738229999
 20
6.325501482900008
 30
0.0
 11
19.1645389423
 21
7.780613377700007
 31
0.0
  0
LINE
  5
246E
330
1F
100
AcDbEntity
  8
1
100
AcDbLine
 10
19.66785918919998
 20
7.367862388500013
 30
0.0
 11
20.70952486250001
 21
6.955111864900003
 31
0.0
  0
ELLIPSE
  5
246F
330
1F
100
AcDbEntity
  8
SK1
100
AcDbEllipse
 10
43.38438296910001
 20
0.0
 30
0.0
 11
59.71281292109525
 21
0.0
 31
0.0
210
0.0
220
0.0
230
1.0
 40
0.2679491924
 41
2.03350680356836
 42
2.041801901277627
  0
ARC
  5
2470
330
1F
100
AcDbEntity
  8
SK1
100
AcDbCircle
 10
14.78139050000001
 20
14.51695961700001
 30
0.0
 40
0.3844009748390183
100
AcDbArc
 50
70.1444265996996
 51
122.0608134014997
  0
ARC
  5
2471
330
1F
100
AcDbEntity
  8
SK1
100
AcDbCircle
 10
9.027226279300007
 20
0.0
 30
0.0
 40
16.00000000000012
100
AcDbArc
 50
63.01336845499952
 51
68.42028827309913
  0
ELLIPSE
  5
2472
330
1F
100
AcDbEntity
  8
SK1
100
AcDbEllipse
 10
43.38438296910001
 20
0.0
 30
0.0
 11
59.71281292109525
 21
0.0
 31
0.0
210
0.0
220
0.0
230
1.0
 40
0.2679491924
 41
2.083872591743872
 42
2.092395295701609
  0
ELLIPSE
  5
2473
330
1F
100
AcDbEntity
  8
SK1
100
AcDbEllipse
 10
16.1781754504
 20
0.0
 30
0.0
 11
0.0
 21
16.0
 31
0.0
210
0.0
220
0.0
230
1.0
 40
0.2679491924
 41
0.3826702330333858
 42
0.5130762649489761
  0
ARC
  5
2474
330
1F
100
AcDbEntity
  8
SK1
100
AcDbCircle
 10
5.659177882999983
 20
0.0
 30
0.0
 40
16.00000000000014
100
AcDbArc
 50
60.11458048329958
 51
65.65186967829979
  0
ELLIPSE
  5
2475
330
1F
100
AcDbEntity
  8
SK1
100
AcDbEllipse
 10
43.38438296910001
 20
0.0
 30
0.0
 11
59.71281292109523
 21
0.0
 31
0.0
210
0.0
220
0.0
230
1.0
 40
0.2679491924
 41
1.984377004071049
 42
1.99248093536837
  0
ARC
  5
2476
330
1F
100
AcDbEntity
  8
SK1
100
AcDbCircle
 10
12.3952746756
 20
0.0
 30
0.0
 40
16.0000000000001
100
AcDbArc
 50
65.83925164310037
 51
71.13673482680029
  0
ARC
  5
2477
330
1F
100
AcDbEntity
  8
SK1
100
AcDbCircle
 10
17.43818009069999
 20
14.72237665789998
 30
0.0
 40
0.4380637236145688
100
AcDbArc
 50
72.72752089910077
 51
117.8346042531994
  0
ELLIPSE
  5
2478
330
1F
100
AcDbEntity
  8
SK1
100
AcDbEllipse
 10
18.64375799889997
 20
0.0
 30
0.0
 11
0.0
 21
16.0
 31
0.0
210
0.0
220
0.0
230
1.0
 40
0.2679491924
 41
0.3351537528018954
 42
0.4627104767734731
  0
ARC
  5
2479
330
1F
100
AcDbEntity
  8
SK1
100
AcDbCircle
 10
20.09489461999997
 20
14.87349450299999
 30
0.0
 40
0.5087667516734195
100
AcDbArc
 50
75.23642171900061
 51
113.7568379576997
  0
ELLIPSE
  5
247A
330
1F
100
AcDbEntity
  8
SK1
100
AcDbEllipse
 10
21.10934054739996
 20
0.0
 30
0.0
 11
0.0
 21
16.0
 31
0.0
210
0.0
220
0.0
230
1.0
 40
0.2679491924
 41
0.2884116603937173
 42
0.4135806772761578
  0
LINE
  5
247B
330
1F
100
AcDbEntity
  8
SK1
100
AcDbLine
 10
22.04265724869995
 20
14.9431852624
 30
0.0
 11
22.04265724869995
 21
9.469360247026726
 31
0.0
  0
LINE
  5
247C
330
1F
100
AcDbEntity
  8
SK1
100
AcDbLine
 10
21.60033863040002
 20
14.89728968589997
 30
0.0
 11
21.60033863040002
 21
9.8328619437326
 31
0.0
  0
LINE
  5
247D
330
1F
100
AcDbEntity
  8
1
100
AcDbLine
 10
20.88508289310002
 20
5.814805161200013
 30
0.0
 11
21.06064464899997
 21
4.674498923100003
 31
0.0
  0
LINE
  5
247E
330
1F
100
AcDbEntity
  8
1
100
AcDbLine
 10
21.24786656349998
 20
6.955111864900003
 30
0.0
 11
21.59898635
 21
4.674498923100003
 31
0.0
  0
LINE
  5
247F
330
1F
100
AcDbEntity
  8
1
100
AcDbLine
 10
21.06064464899997
 20
4.674498923100003
 30
0.0
 11
21.59898635
 21
4.674498923100003
 31
0.0
  0
LWPOLYLINE
  5
2480
330
1F
100
AcDbEntity
  8
SK1
100
AcDbPolyline
 90
        3
 70
   128
 43
0.0
 10
25.0000013038
 20
15.6522508654212
 10
25.25429334489997
 20
15.70817641909999
 10
25.50000231709996
 20
15.7530941069
  0
ARC
  5
2481
330
1F
100
AcDbEntity
  8
SK1
100
AcDbCircle
 10
19.13137146829996
 20
0.0
 30
0.0
 40
15.99999999999996
100
AcDbArc
 50
71.31717595000066
 51
76.44717690460026
  0
ARC
  5
2482
330
1F
100
AcDbEntity
  8
SK1
100
AcDbCircle
 10
22.75156014459999
 20
14.96217792130001
 30
0.0
 40
0.6062351217047649
100
AcDbArc
 50
77.68708910790066
 51
109.7974390572007
  0
ELLIPSE
  5
2483
330
1F
100
AcDbEntity
  8
SK1
100
AcDbEllipse
 10
23.57492309579998
 20
0.0
 30
0.0
 11
0.0
 21
16.0
 31
0.0
210
0.0
220
0.0
230
1.0
 40
0.2679491924
 41
0.2423095302912858
 42
0.3654891259670673
  0
ELLIPSE
  5
2484
330
1F
100
AcDbEntity
  8
SK1
100
AcDbEllipse
 10
43.38438296910001
 20
0.0
 30
0.0
 11
59.7128129210333
 21
0.0
 31
0.0
210
0.0
220
0.0
230
1.0
 40
0.2679491924
 41
1.936285452761971
 42
1.944228868477053
  0
ELLIPSE
  5
2485
330
1F
100
AcDbEntity
  8
SK1
100
AcDbEllipse
 10
26.04050564429998
 20
0.0
 30
0.0
 11
0.0
 21
16.0
 31
0.0
210
0.0
220
0.0
230
1.0
 40
0.2679491924
 41
0.245149235885209
 42
0.3182675985368646
  0
ELLIPSE
  5
2486
330
1F
100
AcDbEntity
  8
SK1
100
AcDbEllipse
 10
43.38438296910001
 20
0.0
 30
0.0
 11
59.71281292111967
 21
0.0
 31
0.0
210
0.0
220
0.0
230
1.0
 40
0.2679491924
 41
1.889063925331754
 42
1.896873120038273
  0
LINE
  5
2487
330
1F
100
AcDbEntity
  8
SK1
100
AcDbLine
 10
25.50000231709996
 20
15.7530941069
 30
0.0
 11
25.79999994489996
 21
15.49967750899999
 31
0.0
  0
LINE
  5
2488
330
1F
100
AcDbEntity
  8
SK1
100
AcDbLine
 10
25.50000231709996
 20
16.0000007599
 30
0.0
 11
25.50000231709996
 21
15.7530941069
 31
0.0
  0
LINE
  5
2489
330
1F
100
AcDbEntity
  8
SK1
100
AcDbLine
 10
25.79999994489996
 20
15.69999940689999
 30
0.0
 11
25.50000231709996
 21
16.0000007599
 31
0.0
  0
LINE
  5
248A
330
1F
100
AcDbEntity
  8
1
100
AcDbLine
 10
0.5
 20
16.0
 30
0.0
 11
9.000002406499959
 21
16.0000007599
 31
0.0
  0
LINE
  5
248B
330
1F
100
AcDbEntity
  8
4
100
AcDbLine
 10
0.0
 20
0.0
 30
0.0
 11
9.000002406499959
 21
0.0
 31
0.0
  0
LINE
  5
248C
330
1F
100
AcDbEntity
  8
SK3
100
AcDbLine
 10
0.0
 20
3.400000045050006
 30
0.0
 11
-16.8390534818
 21
3.400000045050006
 31
0.0
  0
LINE
  5
248D
330
1F
100
AcDbEntity
  8
3
100
AcDbLine
 10
0.0
 20
-3.4000000451
 30
0.0
 11
4.000000189999993
 21
-3.4000000451
 31
0.0
  0
DIMENSION
  5
2497
330
1F
100
AcDbEntity
  8
2
100
AcDbDimension
  2
*D28
 10
25.79999994489996
 20
18.84326387930467
 30
0.0
 11
12.89999997244998
 21
22.62826387930467
 31
0.0
 70
    32
 71
     5
 42
25.79999994489996
  3
GEN-ISO_TDM
100
AcDbAlignedDimension
 13
0.0
 23
15.5
 33
0.0
 14
25.79999994489996
 24
15.49967750899999
 34
0.0
100
AcDbRotatedDimension
  0
ENDSEC
  0
SECTION
  2
OBJECTS
  0
DICTIONARY
  5
C
330
0
100
AcDbDictionary
281
     1
  3
ACAD_GROUP
350
D
  3
ACAD_LAYOUT
350
1A
  3
ACAD_MLINESTYLE
350
17
  3
ACAD_PLOTSETTINGS
350
19
  3
ACAD_PLOTSTYLENAME
350
E
  3
AcDbVariableDictionary
350
28D
  0
DICTIONARY
  5
268
330
2
100
AcDbDictionary
280
     1
281
     1
  3
ACAD_LAYERSTATES
360
269
  0
DICTIONARY
  5
D
102
{ACAD_REACTORS
330
C
102
}
330
C
100
AcDbDictionary
281
     1
  0
DICTIONARY
  5
1A
102
{ACAD_REACTORS
330
C
102
}
330
C
100
AcDbDictionary
281
     1
  3
Layout1
350
1E
  3
Layout2
350
26
  3
Model
350
22
  0
DICTIONARY
  5
17
102
{ACAD_REACTORS
330
C
102
}
330
C
100
AcDbDictionary
281
     1
  3
Standard
350
18
  0
DICTIONARY
  5
19
102
{ACAD_REACTORS
330
C
102
}
330
C
100
AcDbDictionary
281
     1
  0
ACDBDICTIONARYWDFLT
  5
E
102
{ACAD_REACTORS
330
C
102
}
330
C
100
AcDbDictionary
281
     1
  3
Normal
350
F
100
AcDbDictionaryWithDefault
340
F
  0
DICTIONARY
  5
28D
102
{ACAD_REACTORS
330
C
102
}
330
C
100
AcDbDictionary
281
     1
  3
DIMASSOC
350
28E
  0
DICTIONARY
  5
269
102
{ACAD_REACTORS
330
268
102
}
330
268
100
AcDbDictionary
281
     1
  0
LAYOUT
  5
1E
102
{ACAD_REACTORS
330
1A
102
}
330
1A
100
AcDbPlotSettings
  1

  2

  4

  6

 40
0.0
 41
0.0
 42
0.0
 43
0.0
 44
0.0
 45
0.0
 46
0.0
 47
0.0
 48
0.0
 49
0.0
140
0.0
141
0.0
142
1.0
143
1.0
 70
   688
 72
     0
 73
     0
 74
     5
  7

 75
    16
147
1.0
148
0.0
149
0.0
100
AcDbLayout
  1
Layout1
 70
     1
 71
     1
 10
0.0
 20
0.0
 11
420.0
 21
297.0
 12
0.0
 22
0.0
 32
0.0
 14
1.000000000000000E+20
 24
1.000000000000000E+20
 34
1.000000000000000E+20
 15
-1.000000000000000E+20
 25
-1.000000000000000E+20
 35
-1.000000000000000E+20
146
0.0
 13
0.0
 23
0.0
 33
0.0
 16
1.0
 26
0.0
 36
0.0
 17
0.0
 27
1.0
 37
0.0
 76
     0
330
1B
  0
LAYOUT
  5
26
102
{ACAD_REACTORS
330
1A
102
}
330
1A
100
AcDbPlotSettings
  1

  2

  4

  6

 40
0.0
 41
0.0
 42
0.0
 43
0.0
 44
0.0
 45
0.0
 46
0.0
 47
0.0
 48
0.0
 49
0.0
140
0.0
141
0.0
142
1.0
143
1.0
 70
   688
 72
     0
 73
     0
 74
     5
  7

 75
    16
147
1.0
148
0.0
149
0.0
100
AcDbLayout
  1
Layout2
 70
     1
 71
     2
 10
0.0
 20
0.0
 11
0.0
 21
0.0
 12
0.0
 22
0.0
 32
0.0
 14
0.0
 24
0.0
 34
0.0
 15
0.0
 25
0.0
 35
0.0
146
0.0
 13
0.0
 23
0.0
 33
0.0
 16
1.0
 26
0.0
 36
0.0
 17
0.0
 27
1.0
 37
0.0
 76
     0
330
23
  0
LAYOUT
  5
22
102
{ACAD_REACTORS
330
1A
102
}
330
1A
100
AcDbPlotSettings
  1

  2

  4

  6

 40
0.0
 41
0.0
 42
0.0
 43
0.0
 44
0.0
 45
0.0
 46
0.0
 47
0.0
 48
0.0
 49
0.0
140
0.0
141
0.0
142
1.0
143
1.0
 70
  1712
 72
     0
 73
     0
 74
     0
  7

 75
     0
147
1.0
148
0.0
149
0.0
100
AcDbLayout
  1
Model
 70
     1
 71
     0
 10
0.0
 20
0.0
 11
0.0
 21
0.0
 12
0.0
 22
0.0
 32
0.0
 14
0.0
 24
0.0
 34
0.0
 15
297.0
 25
210.0
 35
0.0
146
0.0
 13
0.0
 23
0.0
 33
0.0
 16
1.0
 26
0.0
 36
0.0
 17
0.0
 27
1.0
 37
0.0
 76
     0
330
1F
  0
MLINESTYLE
  5
18
102
{ACAD_REACTORS
330
17
102
}
330
17
100
AcDbMlineStyle
  2
STANDARD
 70
     0
  3

 62
   256
 51
90.0
 52
90.0
 71
     2
 49
0.5
 62
   256
  6
BYLAYER
 49
-0.5
 62
   256
  6
BYLAYER
  0
ACDBPLACEHOLDER
  5
F
102
{ACAD_REACTORS
330
E
102
}
330
E
  0
DICTIONARYVAR
  5
28E
102
{ACAD_REACTORS
330
28D
102
}
330
28D
100
DictionaryVariables
280
     0
  1
1
  0
ENDSEC
  0
EOF
