  0
SECTION
  2
HEADER
  9
$ACADVER
  1
AC1015
  9
$ACADMAINTVER
 70
     6
  9
$DWGCODEPAGE
  3
ANSI_1252
  9
$INSBASE
 10
0.0
 20
0.0
 30
0.0
  9
$EXTMIN
 10
0.0
 20
0.0
 30
0.0
  9
$EXTMAX
 10
297.0
 20
210.0
 30
0.0
  9
$LIMMIN
 10
0.0
 20
0.0
  9
$LIMMAX
 10
297.0
 20
210.0
  9
$ORTHOMODE
 70
     0
  9
$REGENMODE
 70
     1
  9
$FILLMODE
 70
     1
  9
$QTEXTMODE
 70
     0
  9
$MIRRTEXT
 70
     1
  9
$LTSCALE
 40
1.0
  9
$ATTMODE
 70
     1
  9
$TEXTSIZE
 40
2.0
  9
$TRACEWID
 40
1.0
  9
$TEXTSTYLE
  7
Standard
  9
$CLAYER
  8
0
  9
$CELTYPE
  6
ByLayer
  9
$CECOLOR
 62
   256
  9
$CELTSCALE
 40
1.0
  9
$DISPSILH
 70
     0
  9
$DIMSCALE
 40
1.0
  9
$DIMASZ
 40
3.0
  9
$DIMEXO
 40
0.0
  9
$DIMDLI
 40
3.75
  9
$DIMRND
 40
0.0
  9
$DIMDLE
 40
0.0
  9
$DIMEXE
 40
1.0
  9
$DIMTP
 40
0.0
  9
$DIMTM
 40
0.0
  9
$DIMTXT
 40
2.0
  9
$DIMCEN
 40
2.5
  9
$DIMTSZ
 40
0.0
  9
$DIMTOL
 70
     0
  9
$DIMLIM
 70
     0
  9
$DIMTIH
 70
     1
  9
$DIMTOH
 70
     1
  9
$DIMSE1
 70
     0
  9
$DIMSE2
 70
     0
  9
$DIMTAD
 70
     1
  9
$DIMZIN
 70
     0
  9
$DIMBLK
  1

  9
$DIMASO
 70
     1
  9
$DIMSHO
 70
     1
  9
$DIMPOST
  1

  9
$DIMAPOST
  1

  9
$DIMALT
 70
     0
  9
$DIMALTD
 70
     3
  9
$DIMALTF
 40
0.0393700787
  9
$DIMLFAC
 40
1.0
  9
$DIMTOFL
 70
     1
  9
$DIMTVP
 40
0.0
  9
$DIMTIX
 70
     0
  9
$DIMSOXD
 70
     0
  9
$DIMSAH
 70
     0
  9
$DIMBLK1
  1

  9
$DIMBLK2
  1

  9
$DIMSTYLE
  2
ISO-25
  9
$DIMCLRD
 70
     0
  9
$DIMCLRE
 70
     0
  9
$DIMCLRT
 70
     0
  9
$DIMTFAC
 40
1.0
  9
$DIMGAP
 40
1.524
  9
$DIMJUST
 70
     0
  9
$DIMSD1
 70
     0
  9
$DIMSD2
 70
     0
  9
$DIMTOLJ
 70
     0
  9
$DIMTZIN
 70
     0
  9
$DIMALTZ
 70
     0
  9
$DIMALTTZ
 70
     0
  9
$DIMUPT
 70
     0
  9
$DIMDEC
 70
     2
  9
$DIMTDEC
 70
     3
  9
$DIMALTU
 70
     2
  9
$DIMALTTD
 70
     3
  9
$DIMTXSTY
  7
Standard
  9
$DIMAUNIT
 70
     0
  9
$DIMADEC
 70
     2
  9
$DIMALTRND
 40
0.0
  9
$DIMAZIN
 70
     0
  9
$DIMDSEP
 70
    44
  9
$DIMATFIT
 70
     3
  9
$DIMFRAC
 70
     0
  9
$DIMLDRBLK
  1

  9
$DIMLUNIT
 70
     2
  9
$DIMLWD
 70
    -2
  9
$DIMLWE
 70
    -2
  9
$DIMTMOVE
 70
     0
  9
$LUNITS
 70
     2
  9
$LUPREC
 70
     2
  9
$SKETCHINC
 40
1.0
  9
$FILLETRAD
 40
10.0
  9
$AUNITS
 70
     0
  9
$AUPREC
 70
     2
  9
$MENU
  1
.
  9
$ELEVATION
 40
0.0
  9
$PELEVATION
 40
0.0
  9
$THICKNESS
 40
0.0
  9
$LIMCHECK
 70
     0
  9
$CHAMFERA
 40
10.0
  9
$CHAMFERB
 40
10.0
  9
$CHAMFERC
 40
20.0
  9
$CHAMFERD
 40
0.0
  9
$SKPOLY
 70
     0
  9
$TDCREATE
 40
2456755.493421782
  9
$TDUCREATE
 40
2456755.410088449
  9
$TDUPDATE
 40
2456755.493423044
  9
$TDUUPDATE
 40
2456755.410089711
  9
$TDINDWG
 40
0.0000000116
  9
$TDUSRTIMER
 40
0.0000000116
  9
$USRTIMER
 70
     1
  9
$ANGBASE
 50
0.0
  9
$ANGDIR
 70
     0
  9
$PDMODE
 70
     0
  9
$PDSIZE
 40
-1.0
  9
$PLINEWID
 40
0.0
  9
$SPLFRAME
 70
     0
  9
$SPLINETYPE
 70
     6
  9
$SPLINESEGS
 70
     8
  9
$HANDSEED
  5
282
  9
$SURFTAB1
 70
     6
  9
$SURFTAB2
 70
     6
  9
$SURFTYPE
 70
     6
  9
$SURFU
 70
     6
  9
$SURFV
 70
     6
  9
$UCSBASE
  2

  9
$UCSNAME
  2

  9
$UCSORG
 10
0.0
 20
0.0
 30
0.0
  9
$UCSXDIR
 10
1.0
 20
0.0
 30
0.0
  9
$UCSYDIR
 10
0.0
 20
1.0
 30
0.0
  9
$UCSORTHOREF
  2

  9
$UCSORTHOVIEW
 70
     0
  9
$UCSORGTOP
 10
0.0
 20
0.0
 30
0.0
  9
$UCSORGBOTTOM
 10
0.0
 20
0.0
 30
0.0
  9
$UCSORGLEFT
 10
0.0
 20
0.0
 30
0.0
  9
$UCSORGRIGHT
 10
0.0
 20
0.0
 30
0.0
  9
$UCSORGFRONT
 10
0.0
 20
0.0
 30
0.0
  9
$UCSORGBACK
 10
0.0
 20
0.0
 30
0.0
  9
$PUCSBASE
  2

  9
$PUCSNAME
  2

  9
$PUCSORG
 10
0.0
 20
0.0
 30
0.0
  9
$PUCSXDIR
 10
1.0
 20
0.0
 30
0.0
  9
$PUCSYDIR
 10
0.0
 20
1.0
 30
0.0
  9
$PUCSORTHOREF
  2

  9
$PUCSORTHOVIEW
 70
     0
  9
$PUCSORGTOP
 10
0.0
 20
0.0
 30
0.0
  9
$PUCSORGBOTTOM
 10
0.0
 20
0.0
 30
0.0
  9
$PUCSORGLEFT
 10
0.0
 20
0.0
 30
0.0
  9
$PUCSORGRIGHT
 10
0.0
 20
0.0
 30
0.0
  9
$PUCSORGFRONT
 10
0.0
 20
0.0
 30
0.0
  9
$PUCSORGBACK
 10
0.0
 20
0.0
 30
0.0
  9
$USERI1
 70
     0
  9
$USERI2
 70
     0
  9
$USERI3
 70
     0
  9
$USERI4
 70
     0
  9
$USERI5
 70
     0
  9
$USERR1
 40
0.0
  9
$USERR2
 40
0.0
  9
$USERR3
 40
0.0
  9
$USERR4
 40
0.0
  9
$USERR5
 40
0.0
  9
$WORLDVIEW
 70
     1
  9
$SHADEDGE
 70
     3
  9
$SHADEDIF
 70
    70
  9
$TILEMODE
 70
     1
  9
$MAXACTVP
 70
    64
  9
$PINSBASE
 10
0.0
 20
0.0
 30
0.0
  9
$PLIMCHECK
 70
     0
  9
$PEXTMIN
 10
1.0000000000E+20
 20
1.0000000000E+20
 30
1.0000000000E+20
  9
$PEXTMAX
 10
-1.0000000000E+20
 20
-1.0000000000E+20
 30
-1.0000000000E+20
  9
$PLIMMIN
 10
0.0
 20
0.0
  9
$PLIMMAX
 10
420.0
 20
297.0
  9
$UNITMODE
 70
     0
  9
$VISRETAIN
 70
     1
  9
$PLINEGEN
 70
     0
  9
$PSLTSCALE
 70
     1
  9
$TREEDEPTH
 70
  3020
  9
$CMLSTYLE
  2
Standard
  9
$CMLJUST
 70
     0
  9
$CMLSCALE
 40
20.0
  9
$PROXYGRAPHICS
 70
     1
  9
$MEASUREMENT
 70
     1
  9
$CELWEIGHT
370
    -1
  9
$ENDCAPS
280
     0
  9
$JOINSTYLE
280
     0
  9
$LWDISPLAY
290
     1
  9
$INSUNITS
 70
     4
  9
$HYPERLINKBASE
  1

  9
$STYLESHEET
  1

  9
$XEDIT
290
     1
  9
$CEPSNTYPE
380
     0
  9
$PSTYLEMODE
290
     1
  9
$FINGERPRINTGUID
  2
{9162B3C1-E100-4680-AFA4-7D22AC69C632}
  9
$VERSIONGUID
  2
{FAEB1C32-E019-11D5-929B-00C0DF256EC4}
  9
$EXTNAMES
290
     1
  9
$PSVPSCALE
 40
0.0
  9
$OLESTARTUP
290
     0
  0
ENDSEC
  0
SECTION
  2
CLASSES
  0
CLASS
  1
ACDBDICTIONARYWDFLT
  2
AcDbDictionaryWithDefault
  3
ObjectDBX Classes
 90
        0
280
     0
281
     0
  0
CLASS
  1
VISUALSTYLE
  2
AcDbVisualStyle
  3
ObjectDBX Classes
 90
     4095
280
     0
281
     0
  0
CLASS
  1
MATERIAL
  2
AcDbMaterial
  3
ObjectDBX Classes
 90
     1153
280
     0
281
     0
  0
CLASS
  1
ACDBPLACEHOLDER
  2
AcDbPlaceHolder
  3
ObjectDBX Classes
 90
        0
280
     0
281
     0
  0
CLASS
  1
LAYOUT
  2
AcDbLayout
  3
ObjectDBX Classes
 90
        0
280
     0
281
     0
  0
ENDSEC
  0
SECTION
  2
TABLES
  0
TABLE
  2
VPORT
  5
8
330
0
100
AcDbSymbolTable
 70
     1
  0
VPORT
  5
29
330
8
100
AcDbSymbolTableRecord
100
AcDbViewportTableRecord
  2
*Active
 70
     0
 10
0.0
 20
0.0
 11
1.0
 21
1.0
 12
148.5
 22
105.0
 13
0.0
 23
0.0
 14
10.0
 24
10.0
 15
10.0
 25
10.0
 16
0.0
 26
0.0
 36
1.0
 17
0.0
 27
0.0
 37
0.0
 40
210.0
 41
1.4142857143
 42
50.0
 43
0.0
 44
0.0
 50
0.0
 51
0.0
 71
     0
 72
  2000
 73
     1
 74
     3
 75
     0
 76
     0
 77
     0
 78
     0
281
     0
 65
     1
110
0.0
120
0.0
130
0.0
111
1.0
121
0.0
131
0.0
112
0.0
122
1.0
132
0.0
 79
     0
146
0.0
  0
ENDTAB
  0
TABLE
  2
LTYPE
  5
5
330
0
100
AcDbSymbolTable
 70
     6
  0
LTYPE
  5
14
330
5
100
AcDbSymbolTableRecord
100
AcDbLinetypeTableRecord
  2
ByBlock
 70
     0
  3

 72
    65
 73
     0
 40
0.0
  0
LTYPE
  5
15
330
5
100
AcDbSymbolTableRecord
100
AcDbLinetypeTableRecord
  2
ByLayer
 70
     0
  3

 72
    65
 73
     0
 40
0.0
  0
LTYPE
  5
16
330
5
100
AcDbSymbolTableRecord
100
AcDbLinetypeTableRecord
  2
Continuous
 70
     0
  3
Solid line
 72
    65
 73
     0
 40
0.0
  0
LTYPE
  5
3F
330
5
100
AcDbSymbolTableRecord
100
AcDbLinetypeTableRecord
  2
HIDDEN
 70
     0
  3
Hidden __ __ __ __ __ __ __ __ __ __ __ __ __ __
 72
    65
 73
     2
 40
1.905
 49
1.27
 74
     0
 49
-0.635
 74
     0
  0
LTYPE
  5
40
330
5
100
AcDbSymbolTableRecord
100
AcDbLinetypeTableRecord
  2
PHANTOM
 70
     0
  3
Phantom ______  __  __  ______  __  __  ______
 72
    65
 73
     6
 40
12.7
 49
6.35
 74
     0
 49
-1.27
 74
     0
 49
1.27
 74
     0
 49
-1.27
 74
     0
 49
1.27
 74
     0
 49
-1.27
 74
     0
  0
LTYPE
  5
41
330
5
100
AcDbSymbolTableRecord
100
AcDbLinetypeTableRecord
  2
CENTER
 70
     0
  3
Center ____ _ ____ _ ____ _ ____ _ ____ _ ____
 72
    65
 73
     4
 40
10.16
 49
6.35
 74
     0
 49
-1.27
 74
     0
 49
1.27
 74
     0
 49
-1.27
 74
     0
  0
LTYPE
  5
42
330
5
100
AcDbSymbolTableRecord
100
AcDbLinetypeTableRecord
  2
CENTERX2
 70
     0
  3
Center (2x) ________  __  ________  __  _____
 72
    65
 73
     4
 40
20.32
 49
12.7
 74
     0
 49
-2.54
 74
     0
 49
2.54
 74
     0
 49
-2.54
 74
     0
  0
LTYPE
  5
43
330
5
100
AcDbSymbolTableRecord
100
AcDbLinetypeTableRecord
  2
DOT2
 70
     0
  3
Dot (.5x) ........................................
 72
    65
 73
     2
 40
0.635
 49
0.0
 74
     0
 49
-0.635
 74
     0
  0
ENDTAB
  0
TABLE
  2
LAYER
  5
2
330
0
100
AcDbSymbolTable
 70
     5
  0
LAYER
  5
10
330
2
100
AcDbSymbolTableRecord
100
AcDbLayerTableRecord
  2
0
 70
     0
 62
     7
  6
Continuous
370
    -3
390
F
  0
LAYER
  5
44
330
2
100
AcDbSymbolTableRecord
100
AcDbLayerTableRecord
  2
FORMAT
 70
     0
 62
     7
  6
Continuous
370
    -3
390
F
  0
LAYER
  5
45
330
2
100
AcDbSymbolTableRecord
100
AcDbLayerTableRecord
  2
VERMASSUNG
 70
     0
 62
     7
  6
Continuous
370
    -3
390
F
  0
LAYER
  5
46
330
2
100
AcDbSymbolTableRecord
100
AcDbLayerTableRecord
  2
KOPF_DÜNN
 70
     0
 62
     7
  6
Continuous
370
    -3
390
F
  0
LAYER
  5
47
330
2
100
AcDbSymbolTableRecord
100
AcDbLayerTableRecord
  2
KOPF_DICK
 70
     0
 62
     7
  6
Continuous
370
    15
390
F
  0
ENDTAB
  0
TABLE
  2
STYLE
  5
3
330
0
100
AcDbSymbolTable
 70
     2
  0
STYLE
  5
11
330
3
100
AcDbSymbolTableRecord
100
AcDbTextStyleTableRecord
  2
Standard
 70
     0
 40
0.0
 41
1.0
 50
0.0
 71
     0
 42
2.0
  3
txt
  4

  0
STYLE
  5
48
330
3
100
AcDbSymbolTableRecord
100
AcDbTextStyleTableRecord
  2
SLDTEXTSTYLE0
 70
     0
 40
0.0
 41
0.7
 50
0.0
 71
     0
 42
0.2
  3
TXT
  4

  0
ENDTAB
  0
TABLE
  2
VIEW
  5
6
330
0
100
AcDbSymbolTable
 70
     0
  0
ENDTAB
  0
TABLE
  2
UCS
  5
7
330
0
100
AcDbSymbolTable
 70
     0
  0
ENDTAB
  0
TABLE
  2
APPID
  5
9
330
0
100
AcDbSymbolTable
 70
     1
  0
APPID
  5
12
330
9
100
AcDbSymbolTableRecord
100
AcDbRegAppTableRecord
  2
ACAD
 70
     0
  0
ENDTAB
  0
TABLE
  2
DIMSTYLE
  5
A
330
0
100
AcDbSymbolTable
 70
     2
100
AcDbDimStyleTable
  0
DIMSTYLE
105
27
330
A
100
AcDbSymbolTableRecord
100
AcDbDimStyleTableRecord
  2
ISO-25
 70
     0
 41
2.5
 42
0.625
 43
3.75
 44
1.25
 73
     0
 74
     0
 77
     1
 78
     8
140
2.5
141
2.5
143
0.0393700787
147
0.625
171
     3
172
     1
178
     0
271
     2
272
     2
274
     3
278
    44
283
     0
284
     8
340
11
  0
DIMSTYLE
105
261
102
{ACAD_REACTORS
330
260
330
26D
330
277
102
}
330
A
100
AcDbSymbolTableRecord
100
AcDbDimStyleTableRecord
  2
SLDDIMSTYLE0
 70
     0
 41
3.0
 44
0.0
 45
0.000000001
 73
     0
 74
     0
 77
     1
 78
    12
 79
     3
140
2.0
147
0.5
173
     1
178
     0
271
     2
272
     3
276
     2
284
    12
340
48
  0
ENDTAB
  0
TABLE
  2
BLOCK_RECORD
  5
1
330
0
100
AcDbSymbolTable
 70
     4
  0
BLOCK_RECORD
  5
1F
330
1
100
AcDbSymbolTableRecord
100
AcDbBlockTableRecord
  2
*Model_Space
340
22
  0
BLOCK_RECORD
  5
1B
330
1
100
AcDbSymbolTableRecord
100
AcDbBlockTableRecord
  2
*Paper_Space
340
1E
  0
BLOCK_RECORD
  5
23
330
1
100
AcDbSymbolTableRecord
100
AcDbBlockTableRecord
  2
*Paper_Space0
340
26
  0
BLOCK_RECORD
  5
262
330
1
100
AcDbSymbolTableRecord
100
AcDbBlockTableRecord
  2
_D
340
0
  0
BLOCK_RECORD
  5
26E
330
1
100
AcDbSymbolTableRecord
100
AcDbBlockTableRecord
  2
_D_1
340
0
  0
BLOCK_RECORD
  5
278
330
1
100
AcDbSymbolTableRecord
100
AcDbBlockTableRecord
  2
_D_2
340
0
  0
ENDTAB
  0
ENDSEC
  0
SECTION
  2
BLOCKS
  0
BLOCK
  5
20
330
1F
100
AcDbEntity
  8
0
100
AcDbBlockBegin
  2
*Model_Space
 70
     0
 10
0.0
 20
0.0
 30
0.0
  3
*Model_Space
  1

  0
ENDBLK
  5
21
330
1F
100
AcDbEntity
  8
0
100
AcDbBlockEnd
  0
BLOCK
  5
1C
330
1B
100
AcDbEntity
 67
     1
  8
0
100
AcDbBlockBegin
  2
*Paper_Space
 70
     0
 10
0.0
 20
0.0
 30
0.0
  3
*Paper_Space
  1

  0
ENDBLK
  5
1D
330
1B
100
AcDbEntity
 67
     1
  8
0
100
AcDbBlockEnd
  0
BLOCK
  5
24
330
23
100
AcDbEntity
  8
0
100
AcDbBlockBegin
  2
*Paper_Space0
 70
     0
 10
0.0
 20
0.0
 30
0.0
  3
*Paper_Space0
  1

  0
ENDBLK
  5
25
330
23
100
AcDbEntity
  8
0
100
AcDbBlockEnd
  0
BLOCK
  5
263
330
262
100
AcDbEntity
  8
0
100
AcDbBlockBegin
  2
_D
 70
     0
 10
0.0
 20
0.0
 30
0.0
  3
_D
  1

  0
SOLID
  5
265
330
262
100
AcDbEntity
  8
VERMASSUNG
100
AcDbTrace
 10
199.0474356001
 20
149.3574048738
 30
0.0
 11
198.5974356001
 21
146.3574048738
 31
0.0
 12
199.4974356001
 22
146.3574048738
 32
0.0
 13
199.4974356001
 23
146.3574048738
 33
0.0
  0
SOLID
  5
266
330
262
100
AcDbEntity
  8
VERMASSUNG
100
AcDbTrace
 10
199.0474356001
 20
63.3574048738
 30
0.0
 11
199.4974356001
 21
66.3574048738
 31
0.0
 12
198.5974356001
 22
66.3574048738
 32
0.0
 13
198.5974356001
 23
66.3574048738
 33
0.0
  0
LINE
  5
267
330
262
100
AcDbEntity
  8
VERMASSUNG
100
AcDbLine
 10
189.8444045839
 20
149.3574048738
 30
0.0
 11
200.0474356001
 21
149.3574048738
 31
0.0
  0
LINE
  5
268
330
262
100
AcDbEntity
  8
VERMASSUNG
100
AcDbLine
 10
189.8444045839
 20
63.3574048738
 30
0.0
 11
200.0474356001
 21
63.3574048738
 31
0.0
  0
LINE
  5
269
330
262
100
AcDbEntity
  8
VERMASSUNG
100
AcDbLine
 10
199.0474356001
 20
149.3574048738
 30
0.0
 11
199.0474356001
 21
63.3574048738
 31
0.0
  0
MTEXT
  5
26A
330
262
100
AcDbEntity
  8
VERMASSUNG
100
AcDbMText
 10
196.4693001206
 20
98.5536853755
 30
0.0
 40
2.0
 41
0.0
 71
     1
 72
     1
  1
%%c
  7
SLDTEXTSTYLE0
 11
-1.770233605404514E-14
 21
1.0
 31
0.0
 73
     1
 44
1.0
  0
MTEXT
  5
26B
330
262
100
AcDbEntity
  8
VERMASSUNG
100
AcDbMText
 10
196.469300237
 20
102.1620904917
 30
0.0
 40
2.0
 41
0.0
 71
     1
 72
     1
  1
86
  7
SLDTEXTSTYLE0
 11
-1.770233605404514E-14
 21
1.0
 31
0.0
 73
     1
 44
1.0
  0
MTEXT
  5
26C
330
262
100
AcDbEntity
  8
VERMASSUNG
100
AcDbMText
 10
196.469300237
 20
106.1486962214
 30
0.0
 40
2.0
 41
0.0
 71
     1
 72
     1
  1
- 115.5
  7
SLDTEXTSTYLE0
 11
-1.770233605404514E-14
 21
1.0
 31
0.0
 73
     1
 44
1.0
  0
ENDBLK
  5
264
330
262
100
AcDbEntity
  8
0
100
AcDbBlockEnd
  0
BLOCK
  5
26F
330
26E
100
AcDbEntity
  8
0
100
AcDbBlockBegin
  2
_D_1
 70
     0
 10
0.0
 20
0.0
 30
0.0
  3
_D_1
  1

  0
SOLID
  5
271
330
26E
100
AcDbEntity
  8
VERMASSUNG
100
AcDbTrace
 10
189.8444045839
 20
159.3574048739
 30
0.0
 11
186.8444045839
 21
159.8074048739
 31
0.0
 12
186.8444045839
 22
158.9074048739
 32
0.0
 13
186.8444045839
 23
158.9074048739
 33
0.0
  0
SOLID
  5
272
330
26E
100
AcDbEntity
  8
VERMASSUNG
100
AcDbTrace
 10
140.3444045839
 20
159.3574048739
 30
0.0
 11
143.3444045839
 21
158.9074048739
 31
0.0
 12
143.3444045839
 22
159.8074048739
 32
0.0
 13
143.3444045839
 23
159.8074048739
 33
0.0
  0
LINE
  5
273
330
26E
100
AcDbEntity
  8
VERMASSUNG
100
AcDbLine
 10
189.8444045839
 20
149.3574048738
 30
0.0
 11
189.8444045839
 21
160.3574048739
 31
0.0
  0
LINE
  5
274
330
26E
100
AcDbEntity
  8
VERMASSUNG
100
AcDbLine
 10
140.3444045839
 20
143.1074048738
 30
0.0
 11
140.3444045839
 21
160.3574048739
 31
0.0
  0
LINE
  5
275
330
26E
100
AcDbEntity
  8
VERMASSUNG
100
AcDbLine
 10
189.8444045839
 20
159.3574048739
 30
0.0
 11
140.3444045839
 21
159.3574048739
 31
0.0
  0
MTEXT
  5
276
330
26E
100
AcDbEntity
  8
VERMASSUNG
100
AcDbMText
 10
162.5946058588
 20
161.935540237
 30
0.0
 40
2.0
 41
0.0
 71
     1
 72
     1
  1
49.5
  7
SLDTEXTSTYLE0
 73
     1
 44
1.0
  0
ENDBLK
  5
270
330
26E
100
AcDbEntity
  8
0
100
AcDbBlockEnd
  0
BLOCK
  5
279
330
278
100
AcDbEntity
  8
0
100
AcDbBlockBegin
  2
_D_2
 70
     0
 10
0.0
 20
0.0
 30
0.0
  3
_D_2
  1

  0
SOLID
  5
27B
330
278
100
AcDbEntity
  8
VERMASSUNG
100
AcDbTrace
 10
102.3444045839
 20
165.3574048739
 30
0.0
 11
105.3444045839
 21
164.9074048739
 31
0.0
 12
105.3444045839
 22
165.8074048739
 32
0.0
 13
105.3444045839
 23
165.8074048739
 33
0.0
  0
SOLID
  5
27C
330
278
100
AcDbEntity
  8
VERMASSUNG
100
AcDbTrace
 10
189.8444045839
 20
165.3574048739
 30
0.0
 11
186.8444045839
 21
165.8074048739
 31
0.0
 12
186.8444045839
 22
164.9074048739
 32
0.0
 13
186.8444045839
 23
164.9074048739
 33
0.0
  0
LINE
  5
27D
330
278
100
AcDbEntity
  8
VERMASSUNG
100
AcDbLine
 10
102.3444045839
 20
136.4595645859
 30
0.0
 11
102.3444045839
 21
166.3574048739
 31
0.0
  0
LINE
  5
27E
330
278
100
AcDbEntity
  8
VERMASSUNG
100
AcDbLine
 10
189.8444045839
 20
149.3574048738
 30
0.0
 11
189.8444045839
 21
166.3574048739
 31
0.0
  0
LINE
  5
27F
330
278
100
AcDbEntity
  8
VERMASSUNG
100
AcDbLine
 10
102.3444045839
 20
165.3574048739
 30
0.0
 11
189.8444045839
 21
165.3574048739
 31
0.0
  0
MTEXT
  5
280
330
278
100
AcDbEntity
  8
VERMASSUNG
100
AcDbMText
 10
143.694932229
 20
167.935540237
 30
0.0
 40
2.0
 41
0.0
 71
     1
 72
     1
  1
87.5
  7
SLDTEXTSTYLE0
 73
     1
 44
1.0
  0
ENDBLK
  5
27A
330
278
100
AcDbEntity
  8
0
100
AcDbBlockEnd
  0
ENDSEC
  0
SECTION
  2
ENTITIES
  0
MTEXT
  5
49
330
1F
100
AcDbEntity
  8
KOPF_DÜNN
100
AcDbMText
 10
13.8892156294
 20
23.8442973028
 30
0.0
 40
3.0
 41
0.0
 71
     1
 72
     1
  1
414.064.087.116
  7
SLDTEXTSTYLE0
 73
     1
 44
1.0
  0
MTEXT
  5
4A
330
1F
100
AcDbEntity
  8
VERMASSUNG
100
AcDbMText
 10
13.9329988022
 20
28.8834360957
 30
0.0
 40
3.0
 41
0.0
 71
     1
 72
     1
  1
Wendeplattenhalter_Insert holder 90°
  7
SLDTEXTSTYLE0
 73
     1
 44
1.0
  0
MTEXT
  5
4B
330
1F
100
AcDbEntity
  8
VERMASSUNG
100
AcDbMText
 10
98.8601118557
 20
13.8365368179
 30
0.0
 40
2.0
 41
0.0
 71
     1
 72
     1
  1
Datum: 30.07.2007
  7
SLDTEXTSTYLE0
 73
     1
 44
1.0
  0
MTEXT
  5
4C
330
1F
100
AcDbEntity
  8
VERMASSUNG
100
AcDbMText
 10
13.933048693
 20
18.0482802738
 30
0.0
 40
2.0
 41
0.0
 71
     1
 72
     1
  1
zu Zweischneiderkopf ø72 / für CN.. 1606..
  7
SLDTEXTSTYLE0
 73
     1
 44
1.0
  0
MTEXT
  5
4D
330
1F
100
AcDbEntity
  8
VERMASSUNG
100
AcDbMText
 10
13.9808475933
 20
13.9090973692
 30
0.0
 40
2.0
 41
0.0
 71
     1
 72
     1
  1
Gewicht: 1170g
  7
SLDTEXTSTYLE0
 73
     1
 44
1.0
  0
LINE
  5
4E
330
1F
100
AcDbEntity
  8
0
  6
Continuous
 62
     7
370
    15
100
AcDbLine
 10
161.881040087
 20
69.6074049036
 30
0.0
 11
162.1301912275
 21
69.6074049036
 31
0.0
  0
LINE
  5
4F
330
1F
100
AcDbEntity
  8
0
  6
Continuous
 62
     7
370
    15
100
AcDbLine
 10
149.5839108285
 20
69.6074049036
 30
0.0
 11
160.0196838883
 21
69.6074049036
 31
0.0
  0
LINE
  5
50
330
1F
100
AcDbEntity
  8
0
  6
Continuous
 62
     7
370
    15
100
AcDbLine
 10
140.3444048521
 20
69.6074049036
 30
0.0
 11
143.1370202956
 21
69.6074049036
 31
0.0
  0
ARC
  5
51
330
1F
100
AcDbEntity
  8
0
  6
Continuous
 62
     7
370
    15
100
AcDbCircle
 10
162.1301910215
 20
68.6074048738
 30
0.0
 40
1.000000000000015
100
AcDbArc
 50
57.1283916685
 51
90.0
  0
LINE
  5
52
330
1F
100
AcDbEntity
  8
0
  6
Continuous
 62
     7
370
    15
100
AcDbLine
 10
162.684708139
 20
69.4370771806
 30
0.0
 11
173.4872788694
 21
67.1409199993
 31
0.0
  0
ARC
  5
53
330
1F
100
AcDbEntity
  8
0
  6
Continuous
 62
     7
370
    15
100
AcDbCircle
 10
160.9167625974
 20
66.7458453856
 30
0.0
 40
3.000000000000014
100
AcDbArc
 50
78.0
 51
107.3275442993
  0
LINE
  5
54
330
1F
100
AcDbEntity
  8
0
  6
Continuous
 62
     7
370
    15
100
AcDbLine
 10
161.5404982623
 20
69.680286483
 30
0.0
 11
161.8833870199
 21
69.6074049036
 31
0.0
  0
SPLINE
  5
55
330
1F
100
AcDbEntity
  8
0
  6
Continuous
 62
     7
370
    15
100
AcDbSpline
210
0.0
220
0.0
230
1.0
 70
     8
 71
     3
 72
    14
 73
    10
 74
     0
 42
0.00000001
 43
0.00000001
 12
1.0
 22
0.0
 32
0.0
 13
1.0
 23
0.0
 33
0.0
 40
0.0
 40
0.0
 40
0.0
 40
0.0
 40
0.07694343770623
 40
0.2484909118958453
 40
0.424161785024995
 40
0.5870504498116631
 40
0.7404199458873261
 40
0.8874778426136174
 40
1.0
 40
1.0
 40
1.0
 40
1.0
 10
146.1217564102986
 20
103.8574049297089
 30
0.0
 10
146.0686726832148
 20
103.8840953658403
 30
0.0
 10
145.8972373517154
 20
103.9702928507839
 30
0.0
 10
145.6122103928497
 20
104.2226452150655
 30
0.0
 10
145.2934079056747
 20
104.608564247681
 30
0.0
 10
145.0313125561921
 20
105.084476961985
 30
0.0
 10
144.8468027335025
 20
105.6086057359251
 30
0.0
 10
144.745057149667
 20
106.1248935711025
 30
0.0
 10
144.7338899244294
 20
106.4614954758577
 30
0.0
 10
144.7290491816379
 20
106.6074048857039
 30
0.0
  0
LINE
  5
56
330
1F
100
AcDbEntity
  8
0
  6
Continuous
 62
     7
370
    15
100
AcDbLine
 10
143.1370202956
 20
143.107404844
 30
0.0
 11
140.3444048521
 21
143.107404844
 31
0.0
  0
LINE
  5
57
330
1F
100
AcDbEntity
  8
0
  6
Continuous
 62
     7
370
    15
100
AcDbLine
 10
160.0196838883
 20
143.107404844
 30
0.0
 11
149.5839108285
 21
143.107404844
 31
0.0
  0
LINE
  5
58
330
1F
100
AcDbEntity
  8
0
  6
Continuous
 62
     7
370
    15
100
AcDbLine
 10
162.1301912275
 20
143.107404844
 30
0.0
 11
161.881040087
 21
143.107404844
 31
0.0
  0
ARC
  5
59
330
1F
100
AcDbEntity
  8
0
  6
Continuous
 62
     7
370
    15
100
AcDbCircle
 10
143.7290495122
 20
85.8448431565
 30
0.0
 40
1.0
100
AcDbArc
 50
348.4187261198
 51
360.0
  0
SPLINE
  5
5A
330
1F
100
AcDbEntity
  8
0
  6
Continuous
 62
     7
370
    15
100
AcDbSpline
210
0.0
220
0.0
230
1.0
 70
     8
 71
     3
 72
    19
 73
    15
 74
     0
 42
0.00000001
 43
0.00000001
 12
1.0
 22
0.0
 32
0.0
 13
1.0
 23
0.0
 33
0.0
 40
0.0
 40
0.0
 40
0.0
 40
0.0
 40
0.0414770863306609
 40
0.135316872842924
 40
0.2298429637202557
 40
0.3243738701767774
 40
0.4183148943401648
 40
0.511543044211575
 40
0.6040710561637697
 40
0.6959547259336144
 40
0.7872562038207346
 40
0.8780329266712638
 40
0.9683353291337207
 40
1.0
 40
1.0
 40
1.0
 40
1.0
 10
139.3842448052746
 20
72.56591124938072
 30
0.0
 10
139.4778749671245
 20
72.66051782691255
 30
0.0
 10
139.7833385815238
 20
72.96916694753585
 30
0.0
 10
140.2776050878929
 20
73.58129477994197
 30
0.0
 10
140.860636262489
 20
74.44285112116086
 30
0.0
 10
141.4184432415812
 20
75.4228899084101
 30
0.0
 10
141.9507597314639
 20
76.51161848190876
 30
0.0
 10
142.4567900346634
 20
77.70328219509224
 30
0.0
 10
142.9366150136269
 20
78.99272118225309
 30
0.0
 10
143.390078543372
 20
80.37549153713545
 30
0.0
 10
143.8169929164229
 20
81.84669189235842
 30
0.0
 10
144.2164590055567
 20
83.40249786818285
 30
0.0
 10
144.5091608118184
 20
84.68354253062759
 30
0.0
 10
144.6675658901267
 20
85.44610979030098
 30
0.0
 10
144.7086904701571
 20
85.64408487186975
 30
0.0
  0
LINE
  5
5B
330
1F
100
AcDbEntity
  8
0
  6
Continuous
 62
     7
370
    15
100
AcDbLine
 10
144.7290491816
 20
85.8448426287
 30
0.0
 11
144.7290491816
 21
106.107404862
 31
0.0
  0
SPLINE
  5
5C
330
1F
100
AcDbEntity
  8
0
  6
Continuous
 62
     7
370
    15
100
AcDbSpline
210
0.0
220
0.0
230
1.0
 70
     8
 71
     3
 72
    16
 73
    12
 74
     0
 42
0.00000001
 43
0.00000001
 12
1.0
 22
0.0
 32
0.0
 13
1.0
 23
0.0
 33
0.0
 40
0.0
 40
0.0
 40
0.0
 40
0.0
 40
0.0501966439074731
 40
0.1516178916347903
 40
0.2552836833303084
 40
0.3628236076498051
 40
0.475776212018621
 40
0.5954091257654076
 40
0.7228818320328859
 40
0.8594239840632963
 40
1.0
 40
1.0
 40
1.0
 40
1.0
 10
144.7290491816379
 20
106.1074048619552
 30
0.0
 10
144.7310425770851
 20
106.1999392381779
 30
0.0
 10
144.7370635854908
 20
106.4794373467065
 30
0.0
 10
144.8068699791159
 20
106.9418801805551
 30
0.0
 10
144.9631295489908
 20
107.4638283392086
 30
0.0
 10
145.1899515863973
 20
107.9369842426099
 30
0.0
 10
145.4768200308578
 20
108.3460466187722
 30
0.0
 10
145.8133945854397
 20
108.6788750445811
 30
0.0
 10
146.1883671512911
 20
108.9234492136283
 30
0.0
 10
146.5866946519616
 20
109.0786340136913
 30
0.0
 10
146.8576071978633
 20
109.0977219594426
 30
0.0
 10
146.9950352367736
 20
109.1074048589284
 30
0.0
  0
ARC
  5
5D
330
1F
100
AcDbEntity
  8
0
  6
Continuous
 62
     7
370
    15
100
AcDbCircle
 10
160.9167625974
 20
145.9689643621
 30
0.0
 40
2.999999999999991
100
AcDbArc
 50
252.6911289908
 51
282.0
  0
LINE
  5
5E
330
1F
100
AcDbEntity
  8
0
  6
Continuous
 62
     7
370
    15
100
AcDbLine
 10
161.8833870199
 20
143.107404844
 30
0.0
 11
161.5404982623
 21
143.0345232646
 31
0.0
  0
ARC
  5
5F
330
1F
100
AcDbEntity
  8
0
  6
Continuous
 62
     7
370
    15
100
AcDbCircle
 10
162.1301910215
 20
144.1074048738
 30
0.0
 40
1.0
100
AcDbArc
 50
270.0
 51
303.0131410795
  0
LINE
  5
60
330
1F
100
AcDbEntity
  8
0
  6
Continuous
 62
     7
370
    15
100
AcDbLine
 10
173.8483954725
 20
145.6506456296
 30
0.0
 11
162.684708139
 21
143.2777325671
 31
0.0
  0
LINE
  5
61
330
1F
100
AcDbEntity
  8
0
  6
Continuous
 62
     7
370
    15
100
AcDbLine
 10
189.7198482513
 20
78.9826939862
 30
0.0
 11
188.9459778942
 21
79.7507966916
 31
0.0
  0
LINE
  5
62
330
1F
100
AcDbEntity
  8
0
  6
Continuous
 62
     7
370
    15
100
AcDbLine
 10
173.7143073735
 20
66.8235587935
 30
0.0
 11
174.4881777596
 21
66.055456088
 31
0.0
  0
LINE
  5
63
330
1F
100
AcDbEntity
  8
0
  6
Continuous
 62
     7
370
    15
100
AcDbLine
 10
174.4881777596
 20
146.6593536596
 30
0.0
 11
173.7143073735
 21
145.8912509541
 31
0.0
  0
LINE
  5
64
330
1F
100
AcDbEntity
  8
0
  6
Continuous
 62
     7
370
    15
100
AcDbLine
 10
188.9772460601
 20
132.9950484495
 30
0.0
 11
189.7198482513
 21
133.7321157615
 31
0.0
  0
LINE
  5
65
330
1F
100
AcDbEntity
  8
0
  6
Continuous
 62
     7
370
    15
100
AcDbLine
 10
188.393415887
 20
78.9871010046
 30
0.0
 11
187.8498785701
 21
79.5265882324
 31
0.0
  0
LINE
  5
66
330
1F
100
AcDbEntity
  8
0
  6
Continuous
 62
     7
370
    15
100
AcDbLine
 10
174.0596157071
 20
67.7186044912
 30
0.0
 11
174.6031532568
 21
67.1791154008
 31
0.0
  0
LINE
  5
67
330
1F
100
AcDbEntity
  8
0
  6
Continuous
 62
     7
370
    15
100
AcDbLine
 10
180.2591385823
 20
142.2986592214
 30
0.0
 11
179.2134291065
 21
141.4941492538
 31
0.0
  0
LINE
  5
68
330
1F
100
AcDbEntity
  8
0
  6
Continuous
 62
     7
370
    15
100
AcDbLine
 10
173.313263109
 20
86.4136218141
 30
0.0
 11
173.606110042
 21
86.1229579012
 31
0.0
  0
LINE
  5
69
330
1F
100
AcDbEntity
  8
0
  6
Continuous
 62
     7
370
    15
100
AcDbLine
 10
179.1713184249
 20
91.7299593847
 30
0.0
 11
178.8784705606
 21
92.0206242289
 31
0.0
  0
LINE
  5
6A
330
1F
100
AcDbEntity
  8
0
  6
Continuous
 62
     7
370
    15
100
AcDbLine
 10
148.3444061634
 20
103.6074048887
 30
0.0
 11
148.3444061634
 21
103.8574049297
 31
0.0
  0
LINE
  5
6B
330
1F
100
AcDbEntity
  8
0
  6
Continuous
 62
     7
370
    15
100
AcDbLine
 10
148.3444061634
 20
108.857404818
 30
0.0
 11
148.3444061634
 21
109.1074048589
 31
0.0
  0
LINE
  5
6C
330
1F
100
AcDbEntity
  8
0
  6
Continuous
 62
     7
370
    15
100
AcDbLine
 10
147.2463917491
 20
103.6074048887
 30
0.0
 11
175.5391203371
 21
103.6074048887
 31
0.0
  0
ELLIPSE
  5
6D
330
1F
100
AcDbEntity
  8
0
  6
Continuous
 62
     7
370
    15
100
AcDbEllipse
 10
175.5825069993
 20
89.7266569039
 30
0.0
 11
3.909357488728148
 21
-2.088225304438524
 31
0.0
210
0.0
220
0.0
230
1.0
 40
0.9427838111
 41
0.0
 42
6.283185307179586
  0
LINE
  5
6E
330
1F
100
AcDbEntity
  8
0
  6
Continuous
 62
     7
370
    15
100
AcDbLine
 10
186.4783784878
 20
91.9269657742
 30
0.0
 11
186.8215336037
 21
69.7432662408
 31
0.0
  0
LINE
  5
6F
330
1F
100
AcDbEntity
  8
0
  6
Continuous
 62
     7
370
    15
100
AcDbLine
 10
185.9566457608
 20
68.9289140563
 30
0.0
 11
186.8215347678
 21
69.7432662408
 31
0.0
  0
ELLIPSE
  5
70
330
1F
100
AcDbEntity
  8
0
  6
Continuous
 62
     7
370
    15
100
AcDbEllipse
 10
251.7831195908
 20
89.347569361
 30
0.0
 11
141.5649994032372
 21
-32.40975870700228
 31
0.0
210
0.0
220
0.0
230
1.0
 40
0.2612235458
 41
4.107476001632495
 42
4.289433974330447
  0
SPLINE
  5
71
330
1F
100
AcDbEntity
  8
0
  6
Continuous
 62
     7
370
    15
100
AcDbSpline
210
0.0
220
0.0
230
1.0
 70
     8
 71
     3
 72
    12
 73
     8
 74
     0
 42
0.00000001
 43
0.00000001
 12
1.0
 22
0.0
 32
0.0
 13
1.0
 23
0.0
 33
0.0
 40
0.0
 40
0.0
 40
0.0
 40
0.0
 40
0.2222269766564096
 40
0.4447567673712655
 40
0.6601139961588095
 40
0.8695023466191187
 40
1.0
 40
1.0
 40
1.0
 40
1.0
 10
141.6335341092926
 20
70.14531074569764
 30
0.0
 10
141.5193125535542
 20
70.1561344559047
 30
0.0
 10
141.2907137998896
 20
70.17779662507553
 30
0.0
 10
140.9885277531636
 20
70.35072525283765
 30
0.0
 10
140.7680192161878
 20
70.60393979700652
 30
0.0
 10
140.6589122841299
 20
70.87443657891306
 30
0.0
 10
140.6484305993354
 20
71.04850864868148
 30
0.0
 10
140.6444062051159
 20
71.11534281180442
 30
0.0
  0
LINE
  5
72
330
1F
100
AcDbEntity
  8
0
  6
Continuous
 62
     7
370
    15
100
AcDbLine
 10
146.3444058356
 20
69.7489957373
 30
0.0
 11
146.1602088568
 21
69.746309803
 31
0.0
  0
SPLINE
  5
73
330
1F
100
AcDbEntity
  8
0
  6
Continuous
 62
     7
370
    15
100
AcDbSpline
210
0.0
220
0.0
230
1.0
 70
     8
 71
     3
 72
    17
 73
    13
 74
     0
 42
0.00000001
 43
0.00000001
 12
1.0
 22
0.0
 32
0.0
 13
1.0
 23
0.0
 33
0.0
 40
0.0
 40
0.0
 40
0.0
 40
0.0
 40
0.0404827445834816
 40
0.1447025287765585
 40
0.2494265212382857
 40
0.3557693739810099
 40
0.4640428242682346
 40
0.5737359453320695
 40
0.6838397904681975
 40
0.7932006880771004
 40
0.9008635514265523
 40
1.0
 40
1.0
 40
1.0
 40
1.0
 10
143.1370202955586
 20
69.61108921573702
 30
0.0
 10
143.1260484035699
 20
69.61014231448101
 30
0.0
 10
143.0868302000475
 20
69.6067576870883
 30
0.0
 10
143.391023934344
 20
69.63312896994232
 30
0.0
 10
144.0099408157214
 20
69.67850745739607
 30
0.0
 10
144.9113779126733
 20
69.72595981779239
 30
0.0
 10
145.9773274081466
 20
69.75272816412266
 30
0.0
 10
147.0979142019267
 20
69.74687027927041
 30
0.0
 10
148.1399044150041
 20
69.70978185356246
 30
0.0
 10
148.9640774565079
 20
69.65915284285317
 30
0.0
 10
149.500344771076
 20
69.6158114466202
 30
0.0
 10
149.5568318033646
 20
69.61073334032037
 30
0.0
 10
149.583910828529
 20
69.60829897330355
 30
0.0
  0
SPLINE
  5
74
330
1F
100
AcDbEntity
  8
0
  6
Continuous
 62
     7
370
    15
100
AcDbSpline
210
0.0
220
0.0
230
1.0
 70
     8
 71
     3
 72
     9
 73
     5
 74
     0
 42
0.00000001
 43
0.00000001
 12
1.0
 22
0.0
 32
0.0
 13
1.0
 23
0.0
 33
0.0
 40
0.0
 40
0.0
 40
0.0
 40
0.0
 40
0.0163331204306844
 40
1.0
 40
1.0
 40
1.0
 40
1.0
 10
147.0727224406582
 20
69.74173887179442
 30
0.0
 10
147.0690229317401
 20
69.7418599948406
 30
0.0
 10
146.8425194332905
 20
69.74927578820906
 30
0.0
 10
146.5914119500464
 20
69.74913460981055
 30
0.0
 10
146.3444058355671
 20
69.74899573729581
 30
0.0
  0
SPLINE
  5
75
330
1F
100
AcDbEntity
  8
0
  6
Continuous
 62
     7
370
    15
100
AcDbSpline
210
0.0
220
0.0
230
1.0
 70
     8
 71
     3
 72
    24
 73
    20
 74
     0
 42
0.00000001
 43
0.00000001
 12
1.0
 22
0.0
 32
0.0
 13
1.0
 23
0.0
 33
0.0
 40
0.0
 40
0.0
 40
0.0
 40
0.0
 40
0.0815932223796198
 40
0.1634558372208845
 40
0.1887209443510635
 40
0.2013961131826845
 40
0.205299561600308
 40
0.2076114188490567
 40
0.2094114665426809
 40
0.2112202013059267
 40
0.2133251943165829
 40
0.2168907414074144
 40
0.2278725216061808
 40
0.2780727819356503
 40
0.3775352045518687
 40
0.4776363898174725
 40
0.6559689045921986
 40
0.8343262737741357
 40
1.0
 40
1.0
 40
1.0
 40
1.0
 10
161.7325220760685
 20
70.58368800685966
 30
0.0
 10
161.7149587120328
 20
70.67934209785103
 30
0.0
 10
161.6797739958377
 20
70.87096609639654
 30
0.0
 10
161.6045228297257
 20
71.13035910695498
 30
0.0
 10
161.4895250752857
 20
71.30219532020475
 30
0.0
 10
161.4200175988906
 20
71.36200654836821
 30
0.0
 10
161.3655575387884
 20
71.38539209509717
 30
0.0
 10
161.3346118973304
 20
71.39308937820492
 30
0.0
 10
161.3070213852135
 20
71.39629827690297
 30
0.0
 10
161.2784533927208
 20
71.39612007076052
 30
0.0
 10
161.2441085580918
 20
71.39168524848102
 30
0.0
 10
161.1823791843034
 20
71.37469950463898
 30
0.0
 10
161.0254757821669
 20
71.28845957612349
 30
0.0
 10
160.8226246519968
 20
71.0614801100279
 30
0.0
 10
160.598923193859
 20
70.73927522421283
 30
0.0
 10
160.3600551536992
 20
70.31702547621717
 30
0.0
 10
160.1639319149598
 20
69.93130322706062
 30
0.0
 10
160.0375279768325
 20
69.65341160223967
 30
0.0
 10
160.0254839052848
 20
69.62836330746278
 30
0.0
 10
160.0196838882547
 20
69.61630089686476
 30
0.0
  0
ELLIPSE
  5
76
330
1F
100
AcDbEntity
  8
0
  6
Continuous
 62
     7
370
    15
100
AcDbEllipse
 10
107.9293986141
 20
105.6074048738
 30
0.0
 11
-3.694822225952521E-13
 21
36.0
 31
0.0
210
0.0
220
0.0
230
1.0
 40
0.2679491924
 41
2.524108664341451
 42
2.631823698934117
  0
ELLIPSE
  5
77
330
1F
100
AcDbEntity
  8
0
  6
Continuous
 62
     7
370
    15
100
AcDbEllipse
 10
168.7836917122
 20
105.6074048738
 30
0.0
 11
134.3538290724818
 21
1.364242052659392E-12
 31
0.0
210
0.0
220
0.0
230
1.0
 40
0.2679491924
 41
4.20262002572903
 42
4.209059879698565
  0
ARC
  5
78
330
1F
100
AcDbEntity
  8
0
  6
Continuous
 62
     7
370
    15
100
AcDbCircle
 10
86.6144699028
 20
105.6074048738
 30
0.0
 40
35.99999999999984
100
AcDbArc
 50
298.8386331754
 51
303.2123480488
  0
SPLINE
  5
79
330
1F
100
AcDbEntity
  8
0
  6
Continuous
 62
     7
370
    15
100
AcDbSpline
210
0.0
220
0.0
230
1.0
 70
     8
 71
     3
 72
    14
 73
    10
 74
     0
 42
0.00000001
 43
0.00000001
 12
1.0
 22
0.0
 32
0.0
 13
1.0
 23
0.0
 33
0.0
 40
0.0
 40
0.0
 40
0.0
 40
0.0
 40
0.2296621029928208
 40
0.3885113757829601
 40
0.5482462728815728
 40
0.6863120615501773
 40
0.8133302209560578
 40
0.9451089450310668
 40
0.9999999999999999
 40
0.9999999999999999
 40
0.9999999999999999
 40
0.9999999999999999
 10
106.9003988561015
 20
75.38919141994026
 30
0.0
 10
106.881706802783
 20
75.41934342258264
 30
0.0
 10
106.8500861076122
 20
75.47035051463898
 30
0.0
 10
106.7503562651471
 20
75.52513227303415
 30
0.0
 10
106.6443820959523
 20
75.5526320497927
 30
0.0
 10
106.5353008857114
 20
75.55532848098854
 30
0.0
 10
106.4390459898243
 20
75.5383077387972
 30
0.0
 10
106.3736399947893
 20
75.51288714453024
 30
0.0
 10
106.342418982782
 20
75.49376253083572
 30
0.0
 10
106.3332383093219
 20
75.4881388555577
 30
0.0
  0
ELLIPSE
  5
7A
330
1F
100
AcDbEntity
  8
0
  6
Continuous
 62
     7
370
    15
100
AcDbEllipse
 10
112.1433033333
 20
105.6074048738
 30
0.0
 11
-3.694822225952521E-13
 21
35.99999999999999
 31
0.0
210
0.0
220
0.0
230
1.0
 40
0.2679491924
 41
2.566965135385656
 42
2.67013508465642
  0
ELLIPSE
  5
7B
330
1F
100
AcDbEntity
  8
0
  6
Continuous
 62
     7
370
    15
100
AcDbEllipse
 10
168.7836917122
 20
105.6074048738
 30
0.0
 11
134.3538290724851
 21
1.364242052659392E-12
 31
0.0
210
0.0
220
0.0
230
1.0
 40
0.2679491924
 41
4.240931411451331
 42
4.247241997602369
  0
ARC
  5
7C
330
1F
100
AcDbEntity
  8
0
  6
Continuous
 62
     7
370
    15
100
AcDbCircle
 10
92.3707707983
 20
105.6074048738
 30
0.0
 40
35.99999999999988
100
AcDbArc
 50
296.6509589667
 51
300.9275164702
  0
SPLINE
  5
7D
330
1F
100
AcDbEntity
  8
0
  6
Continuous
 62
     7
370
    15
100
AcDbSpline
210
0.0
220
0.0
230
1.0
 70
     8
 71
     3
 72
    14
 73
    10
 74
     0
 42
0.00000001
 43
0.00000001
 12
1.0
 22
0.0
 32
0.0
 13
1.0
 23
0.0
 33
0.0
 40
0.0
 40
0.0
 40
0.0
 40
0.0
 40
0.1886983980289159
 40
0.3782418108971218
 40
0.5443853417040987
 40
0.6858786168175124
 40
0.8172850662768002
 40
0.9529702224570966
 40
0.9999999999999999
 40
0.9999999999999999
 40
0.9999999999999999
 40
0.9999999999999999
 10
111.440246230064
 20
74.63540686772377
 30
0.0
 10
111.425495981443
 20
74.65835287874414
 30
0.0
 10
111.3959294307576
 20
74.70434765586924
 30
0.0
 10
111.3005631737549
 20
74.75704776939064
 30
0.0
 10
111.1862226575877
 20
74.78490108865807
 30
0.0
 10
111.0746199504707
 20
74.78752811955113
 30
0.0
 10
110.9763476835171
 20
74.77136331120556
 30
0.0
 10
110.9114850838871
 20
74.74765984056673
 30
0.0
 10
110.8809462136015
 20
74.73039414069518
 30
0.0
 10
110.8730856832843
 20
74.72595004842789
 30
0.0
  0
ELLIPSE
  5
7E
330
1F
100
AcDbEntity
  8
0
  6
Continuous
 62
     7
370
    15
100
AcDbEllipse
 10
116.3572080524
 20
105.6074048738
 30
0.0
 11
-3.694822225952521E-13
 21
35.99999999999996
 31
0.0
210
0.0
220
0.0
230
1.0
 40
0.2679491924
 41
2.606719509825437
 42
2.707711971340439
  0
ELLIPSE
  5
7F
330
1F
100
AcDbEntity
  8
0
  6
Continuous
 62
     7
370
    15
100
AcDbEllipse
 10
168.7836917122
 20
105.6074048738
 30
0.0
 11
134.3538290724818
 21
1.364242052659392E-12
 31
0.0
210
0.0
220
0.0
230
1.0
 40
0.2679491924
 41
4.278508298135348
 42
4.28470565390734
  0
ARC
  5
80
330
1F
100
AcDbEntity
  8
0
  6
Continuous
 62
     7
370
    15
100
AcDbCircle
 10
98.1270716938
 20
105.6074048738
 30
0.0
 40
35.99999999999989
100
AcDbArc
 50
294.5044495753
 51
298.6960494412
  0
SPLINE
  5
81
330
1F
100
AcDbEntity
  8
0
  6
Continuous
 62
     7
370
    15
100
AcDbSpline
210
0.0
220
0.0
230
1.0
 70
     8
 71
     3
 72
    14
 73
    10
 74
     0
 42
0.00000001
 43
0.00000001
 12
1.0
 22
0.0
 32
0.0
 13
1.0
 23
0.0
 33
0.0
 40
0.0
 40
0.0
 40
0.0
 40
0.0
 40
0.183980588361575
 40
0.3686428395366976
 40
0.5344062146173837
 40
0.6791918727466747
 40
0.8147176538729464
 40
0.9535334152054551
 40
1.0
 40
1.0
 40
1.0
 40
1.0
 10
115.980101054607
 20
73.94623933837927
 30
0.0
 10
115.9655851609194
 20
73.96692207287387
 30
0.0
 10
115.9364995909956
 20
74.0083641730507
 30
0.0
 10
115.8434212044671
 20
74.05608384180454
 30
0.0
 10
115.7310703615558
 20
74.08219572131225
 30
0.0
 10
115.6187533460776
 20
74.08557513995541
 30
0.0
 10
115.5181989623243
 20
74.0710560093293
 30
0.0
 10
115.4518184423371
 20
74.04903938807789
 30
0.0
 10
115.42073568873
 20
74.03297956853358
 30
0.0
 10
115.4129405078273
 20
74.02895195887602
 30
0.0
  0
ELLIPSE
  5
82
330
1F
100
AcDbEntity
  8
0
  6
Continuous
 62
     7
370
    15
100
AcDbEllipse
 10
120.5711127716
 20
105.6074048738
 30
0.0
 11
-3.836930773104541E-13
 21
35.99999999999999
 31
0.0
210
0.0
220
0.0
230
1.0
 40
0.2679491924
 41
2.645558248972395
 42
2.74464536622854
  0
ELLIPSE
  5
83
330
1F
100
AcDbEntity
  8
0
  6
Continuous
 62
     7
370
    15
100
AcDbEllipse
 10
168.7836917122
 20
105.6074048738
 30
0.0
 11
134.3538290724841
 21
1.364242052659392E-12
 31
0.0
210
0.0
220
0.0
230
1.0
 40
0.2679491924
 41
4.31544169302345
 42
4.321539851961859
  0
ARC
  5
84
330
1F
100
AcDbEntity
  8
0
  6
Continuous
 62
     7
370
    15
100
AcDbCircle
 10
103.8833725894
 20
105.6074048738
 30
0.0
 40
35.99999999999991
100
AcDbArc
 50
292.394005485
 51
296.5112005806
  0
SPLINE
  5
85
330
1F
100
AcDbEntity
  8
0
  6
Continuous
 62
     7
370
    15
100
AcDbSpline
210
0.0
220
0.0
230
1.0
 70
     8
 71
     3
 72
    14
 73
    10
 74
     0
 42
0.00000001
 43
0.00000001
 12
1.0
 22
0.0
 32
0.0
 13
1.0
 23
0.0
 33
0.0
 40
0.0
 40
0.0
 40
0.0
 40
0.0
 40
0.1799727331316243
 40
0.3605027477835889
 40
0.5257877826591206
 40
0.6733808746631339
 40
0.8126381943899478
 40
0.9544398763709407
 40
1.0
 40
1.0
 40
1.0
 40
1.0
 10
120.5199484285694
 20
73.31754817173999
 30
0.0
 10
120.5056308252365
 20
73.33618048675524
 30
0.0
 10
120.4769512844341
 20
73.37350281133013
 30
0.0
 10
120.3857676014843
 20
73.41665027578024
 30
0.0
 10
120.2750903367081
 20
73.44092654043772
 30
0.0
 10
120.1622103807342
 20
73.44477329373584
 30
0.0
 10
120.0596557031013
 20
73.43172919494029
 30
0.0
 10
119.9919780769403
 20
73.41138532068966
 30
0.0
 10
119.9604595771779
 20
73.39652146232622
 30
0.0
 10
119.9527953323703
 20
73.39290706918756
 30
0.0
  0
ELLIPSE
  5
86
330
1F
100
AcDbEntity
  8
0
  6
Continuous
 62
     7
370
    15
100
AcDbEllipse
 10
124.7850174908
 20
105.6074048738
 30
0.0
 11
-3.694822225952521E-13
 21
35.99999999999999
 31
0.0
210
0.0
220
0.0
230
1.0
 40
0.2679491924
 41
2.683596822015747
 42
2.781015283445652
  0
ELLIPSE
  5
87
330
1F
100
AcDbEntity
  8
0
  6
Continuous
 62
     7
370
    15
100
AcDbEllipse
 10
168.7836917122
 20
105.6074048738
 30
0.0
 11
134.3538290724789
 21
1.364242052659392E-12
 31
0.0
210
0.0
220
0.0
230
1.0
 40
0.2679491924
 41
4.35181161024057
 42
4.357822994908364
  0
ARC
  5
88
330
1F
100
AcDbEntity
  8
0
  6
Continuous
 62
     7
370
    15
100
AcDbCircle
 10
109.6396734849
 20
105.6074048738
 30
0.0
 40
35.99999999999997
100
AcDbArc
 50
290.3151345267
 51
294.3671662542
  0
SPLINE
  5
89
330
1F
100
AcDbEntity
  8
0
  6
Continuous
 62
     7
370
    15
100
AcDbSpline
210
0.0
220
0.0
230
1.0
 70
     8
 71
     3
 72
    14
 73
    10
 74
     0
 42
0.00000001
 43
0.00000001
 12
1.0
 22
0.0
 32
0.0
 13
1.0
 23
0.0
 33
0.0
 40
0.0
 40
0.0
 40
0.0
 40
0.0
 40
0.1765627476302042
 40
0.3535706773755968
 40
0.5183433685277984
 40
0.668321391742748
 40
0.8109720994432659
 40
0.9555525488711427
 40
1.0
 40
1.0
 40
1.0
 40
1.0
 10
125.0598032531124
 20
72.74586884782835
 30
0.0
 10
125.045645842057
 20
72.76262168480035
 30
0.0
 10
125.0172953237064
 20
72.79616959904418
 30
0.0
 10
124.9277059417
 20
72.8350766548921
 30
0.0
 10
124.818436627411
 20
72.8574788534735
 30
0.0
 10
124.7051034890014
 20
72.86156452117295
 30
0.0
 10
124.6007855747821
 20
72.84986643462047
 30
0.0
 10
124.5320247548742
 20
72.83114674281354
 30
0.0
 10
124.5001399931567
 20
72.81748802365732
 30
0.0
 10
124.4926427063327
 20
72.814276353579
 30
0.0
  0
ELLIPSE
  5
8A
330
1F
100
AcDbEntity
  8
0
  6
Continuous
 62
     7
370
    15
100
AcDbEllipse
 10
128.99892221
 20
105.6074048738
 30
0.0
 11
-3.410605131648481E-13
 21
35.99999999999999
 31
0.0
210
0.0
220
0.0
230
1.0
 40
0.2679491924
 41
2.720934724846483
 42
2.816892872090758
  0
ELLIPSE
  5
8B
330
1F
100
AcDbEntity
  8
0
  6
Continuous
 62
     7
370
    15
100
AcDbEllipse
 10
168.7836917122
 20
105.6074048738
 30
0.0
 11
134.3538290724837
 21
1.364242052659393E-12
 31
0.0
210
0.0
220
0.0
230
1.0
 40
0.2679491924
 41
4.387689198885656
 42
4.393624927271026
  0
ARC
  5
8C
330
1F
100
AcDbEntity
  8
0
  6
Continuous
 62
     7
370
    15
100
AcDbCircle
 10
115.3959743805
 20
105.6074048738
 30
0.0
 40
36.00000000000121
100
AcDbArc
 50
288.2638349039
 51
292.2588902932
  0
SPLINE
  5
8D
330
1F
100
AcDbEntity
  8
0
  6
Continuous
 62
     7
370
    15
100
AcDbSpline
210
0.0
220
0.0
230
1.0
 70
     8
 71
     3
 72
    14
 73
    10
 74
     0
 42
0.00000001
 43
0.00000001
 12
1.0
 22
0.0
 32
0.0
 13
1.0
 23
0.0
 33
0.0
 40
0.0
 40
0.0
 40
0.0
 40
0.0
 40
0.1736508469516713
 40
0.3476537944746953
 40
0.5119064355159375
 40
0.663934177140858
 40
0.809641131716918
 40
0.9568034828392445
 40
1.0
 40
1.0
 40
1.0
 40
1.0
 10
129.5996543523651
 20
72.22826583788921
 30
0.0
 10
129.5856306004309
 20
72.2432764730708
 30
0.0
 10
129.5575546615094
 20
72.27332817952633
 30
0.0
 10
129.4693052462961
 20
72.30827457880132
 30
0.0
 10
129.3612264749328
 20
72.32879043137251
 30
0.0
 10
129.2475196525963
 20
72.3329360133175
 30
0.0
 10
129.141649701085
 20
72.32248666660706
 30
0.0
 10
129.0719659776616
 20
72.3053644710555
 30
0.0
 10
129.0397942596308
 20
72.2928913683535
 30
0.0
 10
129.0324938055855
 20
72.2900609533601
 30
0.0
  0
ELLIPSE
  5
8E
330
1F
100
AcDbEntity
  8
0
  6
Continuous
 62
     7
370
    15
100
AcDbEllipse
 10
133.2128269292
 20
105.6074048738
 30
0.0
 11
-3.410605131648481E-13
 21
36.0
 31
0.0
210
0.0
220
0.0
230
1.0
 40
0.2679491924
 41
2.757658770523889
 42
2.852342086921567
  0
ELLIPSE
  5
8F
330
1F
100
AcDbEntity
  8
0
  6
Continuous
 62
     7
370
    15
100
AcDbEllipse
 10
168.7836917122
 20
105.6074048738
 30
0.0
 11
134.3538290724815
 21
1.364242052659392E-12
 31
0.0
210
0.0
220
0.0
230
1.0
 40
0.2679491924
 41
4.423138413716466
 42
4.42900854219787
  0
ARC
  5
90
330
1F
100
AcDbEntity
  8
0
  6
Continuous
 62
     7
370
    15
100
AcDbCircle
 10
121.152275276
 20
105.6074048738
 30
0.0
 40
35.99999999999904
100
AcDbArc
 50
286.2365031047
 51
290.1819154101
  0
SPLINE
  5
91
330
1F
100
AcDbEntity
  8
0
  6
Continuous
 62
     7
370
    15
100
AcDbSpline
210
0.0
220
0.0
230
1.0
 70
     8
 71
     3
 72
    14
 73
    10
 74
     0
 42
0.00000001
 43
0.00000001
 12
1.0
 22
0.0
 32
0.0
 13
1.0
 23
0.0
 33
0.0
 40
0.0
 40
0.0
 40
0.0
 40
0.0
 40
0.1711630418279307
 40
0.3426056647807372
 40
0.5063540345550489
 40
0.6601347898219206
 40
0.8085828428236578
 40
0.9581120825911899
 40
0.9999999999999999
 40
0.9999999999999999
 40
0.9999999999999999
 40
0.9999999999999999
 10
134.1395054516178
 20
71.76226182387407
 30
0.0
 10
134.1255938450831
 20
71.77564343689214
 30
0.0
 10
134.0977479085184
 20
71.80242852072175
 30
0.0
 10
134.0106240441432
 20
71.83364853609932
 30
0.0
 10
133.903551742405
 20
71.85226635461773
 30
0.0
 10
133.7895350727071
 20
71.85635312212673
 30
0.0
 10
133.6823037440984
 20
71.84704491690552
 30
0.0
 10
133.6118396900632
 20
71.83150333922335
 30
0.0
 10
133.5794358534792
 20
71.82020708662031
 30
0.0
 10
133.5723449048382
 20
71.81773512170845
 30
0.0
  0
ELLIPSE
  5
92
330
1F
100
AcDbEntity
  8
0
  6
Continuous
 62
     7
370
    15
100
AcDbEllipse
 10
137.4267316484
 20
105.6074048738
 30
0.0
 11
-3.979039320256561E-13
 21
35.99999999999999
 31
0.0
210
0.0
220
0.0
230
1.0
 40
0.2679491924
 41
2.793845598778873
 42
2.88742102171899
  0
ELLIPSE
  5
93
330
1F
100
AcDbEntity
  8
0
  6
Continuous
 62
     7
370
    15
100
AcDbEllipse
 10
168.7836917122
 20
105.6074048738
 30
0.0
 11
134.3538290724837
 21
1.364242052659393E-12
 31
0.0
210
0.0
220
0.0
230
1.0
 40
0.2679491924
 41
4.458217348513898
 42
4.464031067663216
  0
ARC
  5
94
330
1F
100
AcDbEntity
  8
0
  6
Continuous
 62
     7
370
    15
100
AcDbCircle
 10
126.9085761715
 20
105.6074048738
 30
0.0
 40
35.99999999999984
100
AcDbArc
 50
284.2298602076
 51
288.1322680755
  0
SPLINE
  5
95
330
1F
100
AcDbEntity
  8
0
  6
Continuous
 62
     7
370
    15
100
AcDbSpline
210
0.0
220
0.0
230
1.0
 70
     8
 71
     3
 72
    14
 73
    10
 74
     0
 42
0.00000001
 43
0.00000001
 12
1.0
 22
0.0
 32
0.0
 13
1.0
 23
0.0
 33
0.0
 40
0.0
 40
0.0
 40
0.0
 40
0.0
 40
0.1690426118881189
 40
0.3383021354070015
 40
0.5015761940871538
 40
0.6568669550716716
 40
0.8077412051850437
 40
0.9594262893325041
 40
1.0
 40
1.0
 40
1.0
 40
1.0
 10
138.6793565508705
 20
71.34574829147398
 30
0.0
 10
138.6655385697719
 20
71.35759396843515
 30
0.0
 10
138.6378848766561
 20
71.38130052246045
 30
0.0
 10
138.5517067195759
 20
71.4089848366663
 30
0.0
 10
138.4454855400748
 20
71.42573003313366
 30
0.0
 10
138.3312074418277
 20
71.4296293775888
 30
0.0
 10
138.222785802587
 20
71.421403282876
 30
0.0
 10
138.1516600966407
 20
71.40741604001092
 30
0.0
 10
138.1190730708026
 20
71.39728082124904
 30
0.0
 10
138.1121960040909
 20
71.39514191554127
 30
0.0
  0
ELLIPSE
  5
96
330
1F
100
AcDbEntity
  8
0
  6
Continuous
 62
     7
370
    15
100
AcDbEllipse
 10
141.6406363676
 20
105.6074048738
 30
0.0
 11
-3.410605131648481E-13
 21
35.99999999999997
 31
0.0
210
0.0
220
0.0
230
1.0
 40
0.2679491924
 41
2.829563624626996
 42
2.922182990784196
  0
ELLIPSE
  5
97
330
1F
100
AcDbEntity
  8
0
  6
Continuous
 62
     7
370
    15
100
AcDbEllipse
 10
168.7836917125
 20
105.6074048738
 30
0.0
 11
134.3538290737741
 21
1.364242052659392E-12
 31
0.0
210
0.0
220
0.0
230
1.0
 40
0.2679491924
 41
4.492979317579117
 42
4.499100956629442
  0
LINE
  5
98
330
1F
100
AcDbEntity
  8
0
  6
Continuous
 62
     7
370
    15
100
AcDbLine
 10
140.3444048521
 20
70.1453107457
 30
0.0
 11
140.3444048521
 21
69.6074049036
 31
0.0
  0
LINE
  5
99
330
1F
100
AcDbEntity
  8
0
  6
Continuous
 62
     7
370
    15
100
AcDbLine
 10
140.3444048521
 20
70.1453107457
 30
0.0
 11
141.6335341093
 21
70.1453107457
 31
0.0
  0
SPLINE
  5
9A
330
1F
100
AcDbEntity
  8
0
  6
Continuous
 62
     7
370
    15
100
AcDbSpline
210
0.0
220
0.0
230
1.0
 70
     8
 71
     3
 72
    11
 73
     7
 74
     0
 42
0.00000001
 43
0.00000001
 12
1.0
 22
0.0
 32
0.0
 13
1.0
 23
0.0
 33
0.0
 40
0.0
 40
0.0
 40
0.0
 40
0.0
 40
0.2012248263424143
 40
0.4884500014909114
 40
0.7756745944994975
 40
1.0
 40
1.0
 40
1.0
 40
1.0
 10
161.8810400870424
 20
69.62342737720573
 30
0.0
 10
161.8808508498985
 20
69.62464498789909
 30
0.0
 10
161.88039149861
 20
69.62760059708408
 30
0.0
 10
161.8518245922448
 20
69.81984344183967
 30
0.0
 10
161.8036133955928
 20
70.13724060283164
 30
0.0
 10
161.7541936647545
 20
70.44759228413602
 30
0.0
 10
161.7325220760685
 20
70.58368800685966
 30
0.0
  0
LINE
  5
9B
330
1F
100
AcDbEntity
  8
0
  6
Continuous
 62
     7
370
    15
100
AcDbLine
 10
144.7290491816
 20
103.6074048887
 30
0.0
 11
147.2463917491
 21
103.6074048887
 31
0.0
  0
LINE
  5
9C
330
1F
100
AcDbEntity
  8
0
  6
Continuous
 62
     7
370
    15
100
AcDbLine
 10
140.6444062051
 20
74.1487498443
 30
0.0
 11
140.6444062051
 21
71.1153428118
 31
0.0
  0
SPLINE
  5
9D
330
1F
100
AcDbEntity
  8
0
  6
Continuous
 62
     7
370
    15
100
AcDbSpline
210
0.0
220
0.0
230
1.0
 70
     8
 71
     3
 72
    11
 73
     7
 74
     0
 42
0.00000001
 43
0.00000001
 12
1.0
 22
0.0
 32
0.0
 13
1.0
 23
0.0
 33
0.0
 40
0.0
 40
0.0
 40
0.0
 40
0.0
 40
0.2010661128150042
 40
0.4637167832116005
 40
0.7302217020819088
 40
1.0
 40
1.0
 40
1.0
 40
1.0
 10
162.6923803743702
 20
69.47317151830758
 30
0.0
 10
162.6929955237792
 20
69.48266367289602
 30
0.0
 10
162.6944142367645
 20
69.50455533494628
 30
0.0
 10
162.7262787418569
 20
70.05917186619565
 30
0.0
 10
162.7754471574311
 20
71.02375071404258
 30
0.0
 10
162.8165972563197
 20
72.04655311734646
 30
0.0
 10
162.8372978922706
 20
72.56107582257356
 30
0.0
  0
SPLINE
  5
9E
330
1F
100
AcDbEntity
  8
0
  6
Continuous
 62
     7
370
    15
100
AcDbSpline
210
0.0
220
0.0
230
1.0
 70
     8
 71
     3
 72
    10
 73
     6
 74
     0
 42
0.00000001
 43
0.00000001
 12
1.0
 22
0.0
 32
0.0
 13
1.0
 23
0.0
 33
0.0
 40
0.0
 40
0.0
 40
0.0
 40
0.0
 40
0.3105694461508811
 40
0.705791371118508
 40
1.0
 40
1.0
 40
1.0
 40
1.0
 10
163.2116821166854
 20
77.54259361432162
 30
0.0
 10
163.1762797674338
 20
77.52343880187829
 30
0.0
 10
163.0958253862036
 20
77.47990811492426
 30
0.0
 10
163.0423427391614
 20
77.38442961851703
 30
0.0
 10
163.0335766500677
 20
77.31577296268162
 30
0.0
 10
163.0298357960563
 20
77.2864743183669
 30
0.0
  0
SPLINE
  5
9F
330
1F
100
AcDbEntity
  8
0
  6
Continuous
 62
     7
370
    15
100
AcDbSpline
210
0.0
220
0.0
230
1.0
 70
     8
 71
     3
 72
    11
 73
     7
 74
     0
 42
0.00000001
 43
0.00000001
 12
1.0
 22
0.0
 32
0.0
 13
1.0
 23
0.0
 33
0.0
 40
0.0
 40
0.0
 40
0.0
 40
0.0
 40
0.503040312995798
 40
0.7088100530635073
 40
0.916753532443805
 40
0.9999999999999999
 40
0.9999999999999999
 40
0.9999999999999999
 40
0.9999999999999999
 10
164.3125705924611
 20
77.36064298556414
 30
0.0
 10
164.1313414746186
 20
77.43127583692905
 30
0.0
 10
163.8759801898151
 20
77.53080121060306
 30
0.0
 10
163.5211421734294
 20
77.58593593487115
 30
0.0
 10
163.3284473296211
 20
77.58137256702646
 30
0.0
 10
163.2376419088801
 20
77.55121513376592
 30
0.0
 10
163.2116821166854
 20
77.54259361432162
 30
0.0
  0
ELLIPSE
  5
A0
330
1F
100
AcDbEntity
  8
0
  6
Continuous
 62
     7
370
    15
100
AcDbEllipse
 10
174.6544936525
 20
105.7417648968
 30
0.0
 11
-0.1226598013141427
 21
38.86178735419466
 31
0.0
210
0.0
220
0.0
230
1.0
 40
0.1209221839
 41
2.885109611805189
 42
3.005314665462833
  0
ELLIPSE
  5
A1
330
1F
100
AcDbEntity
  8
0
  6
Continuous
 62
     7
370
    15
100
AcDbEllipse
 10
177.8936560031
 20
105.0532596849
 30
0.0
 11
255.5476892121347
 21
-50.58930668210863
 31
0.0
210
0.0
220
0.0
230
1.0
 40
0.1452100801
 41
4.723338024588129
 42
4.726434916957484
  0
ELLIPSE
  5
A2
330
1F
100
AcDbEntity
  8
0
  6
Continuous
 62
     7
370
    15
100
AcDbEllipse
 10
173.8483955599
 20
105.9131063357
 30
0.0
 11
-0.1226598013141711
 21
38.86178735419468
 31
0.0
210
0.0
220
0.0
230
1.0
 40
0.1209221839
 41
3.008411557832178
 42
3.023801288384107
  0
SPLINE
  5
A3
330
1F
100
AcDbEntity
  8
0
  6
Continuous
 62
     7
370
    15
100
AcDbSpline
210
0.0
220
0.0
230
1.0
 70
     8
 71
     3
 72
     9
 73
     5
 74
     0
 42
0.00000001
 43
0.00000001
 12
1.0
 22
0.0
 32
0.0
 13
1.0
 23
0.0
 33
0.0
 40
0.0
 40
0.0
 40
0.0
 40
0.0
 40
0.4971930754462345
 40
1.0
 40
1.0
 40
1.0
 40
1.0
 10
162.9946634677034
 20
76.52159957693185
 30
0.0
 10
162.9640972546291
 20
75.77336630545194
 30
0.0
 10
162.902619702781
 20
74.268451397278
 30
0.0
 10
162.8591531672979
 20
73.13232702440726
 30
0.0
 10
162.8372978922706
 20
72.56107582257356
 30
0.0
  0
SPLINE
  5
A4
330
1F
100
AcDbEntity
  8
0
  6
Continuous
 62
     7
370
    15
100
AcDbSpline
210
0.0
220
0.0
230
1.0
 70
     8
 71
     3
 72
     9
 73
     5
 74
     0
 42
0.00000001
 43
0.00000001
 12
1.0
 22
0.0
 32
0.0
 13
1.0
 23
0.0
 33
0.0
 40
0.0
 40
0.0
 40
0.0
 40
0.0
 40
0.4890692947139337
 40
1.0
 40
1.0
 40
1.0
 40
1.0
 10
186.8265410923195
 20
65.8471713821708
 30
0.0
 10
186.6810904369481
 20
66.26266376492974
 30
0.0
 10
186.3836874780147
 20
67.11222105108477
 30
0.0
 10
186.1010546021558
 20
68.31461256496785
 30
0.0
 10
185.9566487875563
 20
68.9289513091861
 30
0.0
  0
ELLIPSE
  5
A5
330
1F
100
AcDbEntity
  8
0
  6
Continuous
 62
     7
370
    15
100
AcDbEllipse
 10
146.6564427984
 20
111.6929343198
 30
0.0
 11
255.5476892121348
 21
-50.5893066821086
 31
0.0
210
0.0
220
0.0
230
1.0
 40
0.1452100801
 41
4.846639970615124
 42
4.898908587399017
  0
LINE
  5
A6
330
1F
100
AcDbEntity
  8
0
  6
Continuous
 62
     7
370
    15
100
AcDbLine
 10
163.0298357961
 20
77.2864743184
 30
0.0
 11
162.9946634677
 21
76.5215995769
 31
0.0
  0
ARC
  5
A7
330
1F
100
AcDbEntity
  8
0
  6
Continuous
 62
     7
370
    15
100
AcDbCircle
 10
175.5391203986
 20
102.6074048738
 30
0.0
 40
1.000000000000018
100
AcDbArc
 50
45.0
 51
90.0
  0
LINE
  5
A8
330
1F
100
AcDbEntity
  8
0
  6
Continuous
 62
     7
370
    15
100
AcDbLine
 10
176.2462270018
 20
103.3145116224
 30
0.0
 11
186.5684569386
 21
92.9922823842
 31
0.0
  0
ELLIPSE
  5
A9
330
1F
100
AcDbEntity
  8
0
  6
Continuous
 62
     7
370
    15
100
AcDbEllipse
 10
186.6149216745
 20
91.5316035979
 30
0.0
 11
-0.05827440475107438
 21
1.466464742208714
 31
0.0
210
0.0
220
0.0
230
1.0
 40
0.0855122968
 41
6.190858822457882
 42
7.577605107886317
  0
SPLINE
  5
AA
330
1F
100
AcDbEntity
  8
0
  6
Continuous
 62
     7
370
    15
100
AcDbSpline
210
0.0
220
0.0
230
1.0
 70
     8
 71
     3
 72
     9
 73
     5
 74
     0
 42
0.00000001
 43
0.00000001
 12
1.0
 22
0.0
 32
0.0
 13
1.0
 23
0.0
 33
0.0
 40
0.0
 40
0.0
 40
0.0
 40
0.0
 40
0.5007688215893429
 40
0.9999999999999999
 40
0.9999999999999999
 40
0.9999999999999999
 40
0.9999999999999999
 10
186.8215336036664
 20
69.7432662408172
 30
0.0
 10
186.9643103223239
 20
69.15500861698666
 30
0.0
 10
187.2494253544547
 20
67.98029965255166
 30
0.0
 10
187.5475602415008
 20
67.14458607310264
 30
0.0
 10
187.6963984724862
 20
66.72737179802051
 30
0.0
  0
LINE
  5
AB
330
1F
100
AcDbEntity
  8
0
  6
Continuous
 62
     7
370
    15
100
AcDbLine
 10
187.6963998695
 20
66.727371798
 30
0.0
 11
186.8265362029
 21
65.8471415798
 31
0.0
  0
LINE
  5
AC
330
1F
100
AcDbEntity
  8
0
  6
Continuous
 62
     7
370
    15
100
AcDbLine
 10
188.9772460601
 20
90.5834919821
 30
0.0
 11
188.9772460601
 21
79.7197612982
 31
0.0
  0
LINE
  5
AD
330
1F
100
AcDbEntity
  8
0
  6
Continuous
 62
     7
370
    15
100
AcDbLine
 10
188.2764973017
 20
80.0807642798
 30
0.0
 11
188.258216953
 21
80.0989083062
 31
0.0
  0
LINE
  5
AE
330
1F
100
AcDbEntity
  8
0
  6
Continuous
 62
     7
370
    15
100
AcDbLine
 10
188.258216953
 20
80.0989083062
 30
0.0
 11
188.258216953
 21
79.2903992395
 31
0.0
  0
LINE
  5
AF
330
1F
100
AcDbEntity
  8
0
  6
Continuous
 62
     7
370
    15
100
AcDbLine
 10
188.258216953
 20
79.2903992395
 30
0.0
 11
187.696399171
 21
79.8480286311
 31
0.0
  0
LINE
  5
B0
330
1F
100
AcDbEntity
  8
0
  6
Continuous
 62
     7
370
    15
100
AcDbLine
 10
187.696399171
 20
66.727371798
 30
0.0
 11
187.696399171
 21
79.8480286311
 31
0.0
  0
LINE
  5
B1
330
1F
100
AcDbEntity
  8
0
  6
Continuous
 62
     7
370
    15
100
AcDbLine
 10
188.9772460601
 20
90.5834919821
 30
0.0
 11
186.5684569386
 21
92.9922823842
 31
0.0
  0
LINE
  5
B2
330
1F
100
AcDbEntity
  8
0
  6
Continuous
 62
     7
370
    15
100
AcDbLine
 10
188.258216953
 20
79.2903992395
 30
0.0
 11
188.0509058284
 21
79.3270579587
 31
0.0
  0
LINE
  5
B3
330
1F
100
AcDbEntity
  8
0
  6
Continuous
 62
     7
370
    15
100
AcDbLine
 10
174.1435315964
 20
67.6353144507
 30
0.0
 11
174.137591621
 21
67.2382692854
 31
0.0
  0
LINE
  5
B4
330
1F
100
AcDbEntity
  8
0
  6
Continuous
 62
     7
370
    15
100
AcDbLine
 10
140.3444048521
 20
70.1453107457
 30
0.0
 11
140.3444048521
 21
73.704609559
 31
0.0
  0
LINE
  5
B5
330
1F
100
AcDbEntity
  8
0
  6
Continuous
 62
     7
370
    15
100
AcDbLine
 10
139.5411130545
 20
70.4704652588
 30
0.0
 11
139.5411130545
 21
72.7279129486
 31
0.0
  0
LINE
  5
B6
330
1F
100
AcDbEntity
  8
0
  6
Continuous
 62
     7
370
    15
100
AcDbLine
 10
135.0012619552
 20
70.764014409
 30
0.0
 11
135.0012619552
 21
72.2640174489
 31
0.0
  0
LINE
  5
B7
330
1F
100
AcDbEntity
  8
0
  6
Continuous
 62
     7
370
    15
100
AcDbLine
 10
135.7578311619
 20
70.7119795542
 30
0.0
 11
135.7578311619
 21
72.2119788687
 31
0.0
  0
LINE
  5
B8
330
1F
100
AcDbEntity
  8
0
  6
Continuous
 62
     7
370
    15
100
AcDbLine
 10
131.2179763374
 20
71.0432398181
 30
0.0
 11
131.2179763374
 21
72.5432391326
 31
0.0
  0
LINE
  5
B9
330
1F
100
AcDbEntity
  8
0
  6
Continuous
 62
     7
370
    15
100
AcDbLine
 10
130.4614108559
 20
71.1029189687
 30
0.0
 11
130.4614108559
 21
72.6029220085
 31
0.0
  0
LINE
  5
BA
330
1F
100
AcDbEntity
  8
0
  6
Continuous
 62
     7
370
    15
100
AcDbLine
 10
126.6781289634
 20
116.7205077644
 30
0.0
 11
126.6781289634
 21
122.2205068033
 31
0.0
  0
ARC
  5
BB
330
1F
100
AcDbEntity
  8
0
  6
Continuous
 62
     7
370
    15
100
AcDbCircle
 10
121.6506590795
 20
112.7540359181
 30
0.0
 40
6.403776412473688
100
AcDbArc
 50
38.2720218101
 51
48.1690782514
  0
LINE
  5
BC
330
1F
100
AcDbEntity
  8
0
  6
Continuous
 62
     7
370
    15
100
AcDbLine
 10
125.9215597567
 20
117.5255932893
 30
0.0
 11
125.9215597567
 21
123.0255941908
 31
0.0
  0
LINE
  5
BD
330
1F
100
AcDbEntity
  8
0
  6
Continuous
 62
     7
370
    15
100
AcDbLine
 10
126.6781289634
 20
71.4209581773
 30
0.0
 11
126.6781289634
 21
72.9209612171
 31
0.0
  0
ELLIPSE
  5
BE
330
1F
100
AcDbEntity
  8
0
  6
Continuous
 62
     7
370
    15
100
AcDbEllipse
 10
119.56020748
 20
112.6074048738
 30
0.0
 11
9.192388155424439
 21
9.947598300641403E-14
 31
0.0
210
0.0
220
0.0
230
1.0
 40
0.7071067812
 41
0.0
 42
0.6851446619412662
  0
LINE
  5
BF
330
1F
100
AcDbEntity
  8
0
  6
Continuous
 62
     7
370
    15
100
AcDbLine
 10
125.9215597567
 20
71.4885274927
 30
0.0
 11
125.9215597567
 21
72.9885305326
 31
0.0
  0
ARC
  5
C0
330
1F
100
AcDbEntity
  8
0
  6
Continuous
 62
     7
370
    15
100
AcDbCircle
 10
124.9633440974
 20
112.6961468086
 30
0.0
 40
6.437380404976398
100
AcDbArc
 50
102.8503431986
 51
180.7898700602
  0
ELLIPSE
  5
C1
330
1F
100
AcDbEntity
  8
0
  6
Continuous
 62
     7
370
    15
100
AcDbEllipse
 10
123.7741121992
 20
112.6074048738
 30
0.0
 11
9.192388155425263
 21
9.947598300641403E-14
 31
0.0
210
0.0
220
0.0
230
1.0
 40
0.7071067812
 41
1.999514000304729
 42
2.178345369183106
  0
SPLINE
  5
C2
330
1F
100
AcDbEntity
  8
0
  6
Continuous
 62
     7
370
    15
100
AcDbSpline
210
0.0
220
0.0
230
1.0
 70
     8
 71
     3
 72
    13
 73
     9
 74
     0
 42
0.00000001
 43
0.00000001
 12
1.0
 22
0.0
 32
0.0
 13
1.0
 23
0.0
 33
0.0
 40
0.0
 40
0.0
 40
0.0
 40
0.0
 40
0.1611933738902849
 40
0.321985823119521
 40
0.4929859312154261
 40
0.6701969305338309
 40
0.8441637444004447
 40
1.0
 40
1.0
 40
1.0
 40
1.0
 10
119.9527953323699
 20
118.5191524262838
 30
0.0
 10
119.9831004484526
 20
118.5295428369923
 30
0.0
 10
120.0436353048872
 20
118.5502978150898
 30
0.0
 10
120.1574180066234
 20
118.5946841775412
 30
0.0
 10
120.2762224329198
 20
118.6427467368838
 30
0.0
 10
120.3884615382292
 20
118.6899471887091
 30
0.0
 10
120.4776832795983
 20
118.7295389643276
 30
0.0
 10
120.5063860125577
 20
118.7459574032214
 30
0.0
 10
120.5199484285689
 20
118.7537153299264
 30
0.0
  0
ELLIPSE
  5
C3
330
1F
100
AcDbEntity
  8
0
  6
Continuous
 62
     7
370
    15
100
AcDbEllipse
 10
121.6147110373
 20
112.6074048738
 30
0.0
 11
-7.105427357601002E-14
 21
6.5
 31
0.0
210
0.0
220
0.0
230
1.0
 40
0.5176380902
 41
0.069305765354477
 42
0.3314048521359554
  0
ARC
  5
C4
330
1F
100
AcDbEntity
  8
0
  6
Continuous
 62
     7
370
    15
100
AcDbCircle
 10
121.8164904041
 20
113.0424439798
 30
0.0
 40
6.064960890671111
100
AcDbArc
 50
86.9586760641
 51
94.1109513859
  0
ELLIPSE
  5
C5
330
1F
100
AcDbEntity
  8
0
  6
Continuous
 62
     7
370
    15
100
AcDbEllipse
 10
121.6671598396
 20
112.6074048738
 30
0.0
 11
9.192388155425249
 21
9.947598300641401E-14
 31
0.0
210
0.0
220
0.0
230
1.0
 40
0.7071067812
 41
1.258366169311325
 42
1.519523272029136
  0
SPLINE
  5
C6
330
1F
100
AcDbEntity
  8
0
  6
Continuous
 62
     7
370
    15
100
AcDbSpline
210
0.0
220
0.0
230
1.0
 70
     8
 71
     3
 72
    13
 73
     9
 74
     0
 42
0.00000001
 43
0.00000001
 12
1.0
 22
0.0
 32
0.0
 13
1.0
 23
0.0
 33
0.0
 40
0.0
 40
0.0
 40
0.0
 40
0.0
 40
0.1568175153429587
 40
0.3133974492957033
 40
0.4762672126351809
 40
0.6474528680080769
 40
0.8230746969993522
 40
0.9999999999999999
 40
0.9999999999999999
 40
0.9999999999999999
 40
0.9999999999999999
 10
124.4926427063323
 20
118.7927358831577
 30
0.0
 10
124.5223944931177
 20
118.7854318673827
 30
0.0
 10
124.58185299219
 20
118.7708349015495
 30
0.0
 10
124.693752817395
 20
118.7364301871863
 30
0.0
 10
124.8095431342241
 20
118.6952833243453
 30
0.0
 10
124.9195339952183
 20
118.6497123923738
 30
0.0
 10
125.0130292590274
 20
118.6039781058071
 30
0.0
 10
125.0441735384582
 20
118.5821804314018
 30
0.0
 10
125.0598032531119
 20
118.5712412978821
 30
0.0
  0
ELLIPSE
  5
C7
330
1F
100
AcDbEntity
  8
0
  6
Continuous
 62
     7
370
    15
100
AcDbEllipse
 10
123.7216633969
 20
112.6074048738
 30
0.0
 11
-7.105427357601002E-14
 21
6.5
 31
0.0
210
0.0
220
0.0
230
1.0
 40
0.5176380902
 41
5.570554486608728
 42
5.874170967083547
  0
LINE
  5
C8
330
1F
100
AcDbEntity
  8
0
  6
Continuous
 62
     7
370
    15
100
AcDbLine
 10
122.1382741389
 20
119.0988625448
 30
0.0
 11
122.1382741389
 21
123.9919158678
 31
0.0
  0
LINE
  5
C9
330
1F
100
AcDbEntity
  8
0
  6
Continuous
 62
     7
370
    15
100
AcDbLine
 10
121.3817049322
 20
119.0918003257
 30
0.0
 11
121.3817049322
 21
123.5561667989
 31
0.0
  0
LINE
  5
CA
330
1F
100
AcDbEntity
  8
0
  6
Continuous
 62
     7
370
    15
100
AcDbLine
 10
121.3817049322
 20
71.9224455814
 30
0.0
 11
121.3817049322
 21
73.4224486213
 31
0.0
  0
LINE
  5
CB
330
1F
100
AcDbEntity
  8
0
  6
Continuous
 62
     7
370
    15
100
AcDbLine
 10
122.1382741389
 20
71.8467029791
 30
0.0
 11
122.1382741389
 21
73.3467022936
 31
0.0
  0
LINE
  5
CC
330
1F
100
AcDbEntity
  8
0
  6
Continuous
 62
     7
370
    15
100
AcDbLine
 10
117.5984267649
 20
72.3223107915
 30
0.0
 11
117.5984267649
 21
73.8223138313
 31
0.0
  0
LINE
  5
CD
330
1F
100
AcDbEntity
  8
0
  6
Continuous
 62
     7
370
    15
100
AcDbLine
 10
116.8418575582
 20
72.4065656822
 30
0.0
 11
116.8418575582
 21
73.906568722
 31
0.0
  0
LINE
  5
CE
330
1F
100
AcDbEntity
  8
0
  6
Continuous
 62
     7
370
    15
100
AcDbLine
 10
113.0585719404
 20
72.8499571841
 30
0.0
 11
113.0585719404
 21
74.3499602239
 31
0.0
  0
LINE
  5
CF
330
1F
100
AcDbEntity
  8
0
  6
Continuous
 62
     7
370
    15
100
AcDbLine
 10
112.3020027336
 20
72.9431229691
 30
0.0
 11
112.3020027336
 21
74.4431222837
 31
0.0
  0
LINE
  5
D0
330
1F
100
AcDbEntity
  8
0
  6
Continuous
 62
     7
370
    15
100
AcDbLine
 10
107.7621553597
 20
73.534743772
 30
0.0
 11
107.7621553597
 21
75.0347430866
 31
0.0
  0
LINE
  5
D1
330
1F
100
AcDbEntity
  8
0
  6
Continuous
 62
     7
370
    15
100
AcDbLine
 10
108.5187245664
 20
73.4322014313
 30
0.0
 11
108.5187245664
 21
74.9322007458
 31
0.0
  0
LINE
  5
D2
330
1F
100
AcDbEntity
  8
0
  6
Continuous
 62
     7
370
    15
100
AcDbLine
 10
103.2223005351
 20
74.1845424335
 30
0.0
 11
103.2223005351
 21
75.6845436107
 31
0.0
  0
LINE
  5
D3
330
1F
100
AcDbEntity
  8
0
  6
Continuous
 62
     7
370
    15
100
AcDbLine
 10
103.9788697419
 20
74.0720647435
 30
0.0
 11
103.9788697419
 21
75.5720659207
 31
0.0
  0
ARC
  5
D4
330
1F
100
AcDbEntity
  8
0
  6
Continuous
 62
     7
370
    15
100
AcDbCircle
 10
90.6444045839
 20
115.6074048738
 30
0.0
 40
11.99999999999999
100
AcDbArc
 50
0.0
 51
12.838568141
  0
LINE
  5
D5
330
1F
100
AcDbEntity
  8
0
  6
Continuous
 62
     7
370
    15
100
AcDbLine
 10
102.344406074
 20
118.2738634805
 30
0.0
 11
102.344406074
 21
119.7738627951
 31
0.0
  0
LINE
  5
D6
330
1F
100
AcDbEntity
  8
0
  6
Continuous
 62
     7
370
    15
100
AcDbLine
 10
102.344406074
 20
76.2552450459
 30
0.0
 11
102.344406074
 21
77.7552443604
 31
0.0
  0
ARC
  5
D7
330
1F
100
AcDbEntity
  8
0
  6
Continuous
 62
     7
370
    15
100
AcDbCircle
 10
124.6035684268
 20
99.9233898333
 30
0.0
 40
10.82827281687181
100
AcDbArc
 50
274.2903044265
 51
0.9737275343
  0
SPLINE
  5
D8
330
1F
100
AcDbEntity
  8
0
  6
Continuous
 62
     7
370
    15
100
AcDbSpline
210
0.0
220
0.0
230
1.0
 70
     8
 71
     3
 72
    36
 73
    32
 74
     0
 42
0.00000001
 43
0.00000001
 12
1.0
 22
0.0
 32
0.0
 13
1.0
 23
0.0
 33
0.0
 40
0.0
 40
0.0
 40
0.0
 40
0.0
 40
0.0584256055932616
 40
0.1188765484250631
 40
0.181524038650746
 40
0.2029553302183633
 40
0.2246540340675316
 40
0.2466250161646719
 40
0.2657822448316212
 40
0.2856781363439448
 40
0.3063148034763719
 40
0.3276944591557357
 40
0.349819284075703
 40
0.3726908538626465
 40
0.4057352539284229
 40
0.4481838543174222
 40
0.5000308302977786
 40
0.5271449557141591
 40
0.5519075372247403
 40
0.5743183625469485
 40
0.5943773415263803
 40
0.6120843741038775
 40
0.6274397234699485
 40
0.6614487450585628
 40
0.6937871457087149
 40
0.724461094362061
 40
0.7534781331508406
 40
0.818474506298869
 40
0.8811215385459437
 40
0.941572955821012
 40
1.0
 40
1.0
 40
1.0
 40
1.0
 10
114.6895934399941
 20
100.107404780697
 30
0.0
 10
114.7286702563387
 20
99.41968120537946
 30
0.0
 10
114.8081784959765
 20
98.02039395667839
 30
0.0
 10
115.4589638090087
 20
95.96671889561507
 30
0.0
 10
116.2708949810184
 20
94.46315802608396
 30
0.0
 10
117.0075254963717
 20
93.4607933473952
 30
0.0
 10
117.5019411788078
 20
92.87624295092189
 30
0.0
 10
118.0170151148885
 20
92.34650942124532
 30
0.0
 10
118.549340709789
 20
91.86548681069748
 30
0.0
 10
119.0976792697961
 20
91.42747370375878
 30
0.0
 10
119.6937394726166
 20
91.00959656359362
 30
0.0
 10
120.3378487339896
 20
90.61728802277885
 30
0.0
 10
121.0298353236607
 20
90.25629607637008
 30
0.0
 10
121.870368715187
 20
89.88813964364293
 30
0.0
 10
122.9660162537585
 20
89.51452588751368
 30
0.0
 10
124.4309588031316
 20
89.19254618973547
 30
0.0
 10
125.8594789952696
 20
89.08296250480011
 30
0.0
 10
127.0782169731375
 20
89.13183047567195
 30
0.0
 10
127.9459143350401
 20
89.23356725595937
 30
0.0
 10
128.7226847832035
 20
89.3802022364066
 30
0.0
 10
129.4081909748996
 20
89.55493880306194
 30
0.0
 10
130.0036392070285
 20
89.74291719501869
 30
0.0
 10
130.7426527044109
 20
90.01708621851374
 30
0.0
 10
131.6171210606701
 20
90.41767630265151
 30
0.0
 10
132.6020865849085
 20
90.9950700078244
 30
0.0
 10
133.4792932227085
 20
91.63036606735491
 30
0.0
 10
134.5824462029213
 20
92.59655110152673
 30
0.0
 10
135.7847070209621
 20
94.01126299846781
 30
0.0
 10
136.8407572411379
 20
95.96632028797453
 30
0.0
 10
137.4917153507173
 20
98.02043571816886
 30
0.0
 10
137.5712048177961
 20
99.41969103384444
 30
0.0
 10
137.6102727410176
 20
100.1074047806972
 30
0.0
  0
SPLINE
  5
D9
330
1F
100
AcDbEntity
  8
0
  6
Continuous
 62
     7
370
    15
100
AcDbSpline
210
0.0
220
0.0
230
1.0
 70
     8
 71
     3
 72
    26
 73
    22
 74
     0
 42
0.00000001
 43
0.00000001
 12
1.0
 22
0.0
 32
0.0
 13
1.0
 23
0.0
 33
0.0
 40
0.0
 40
0.0
 40
0.0
 40
0.0
 40
0.0470617037856639
 40
0.0941398506742579
 40
0.1411129768711682
 40
0.1880900165474117
 40
0.2409850718266879
 40
0.2938881785708535
 40
0.3469901316025523
 40
0.4000949961024786
 40
0.4553659725892598
 40
0.5106357520781363
 40
0.5670717052198231
 40
0.623504309827487
 40
0.6798771820793275
 40
0.7362439911670731
 40
0.7912682545766362
 40
0.8462936657487444
 40
0.8991696629531379
 40
0.9520307582909068
 40
1.0
 40
1.0
 40
1.0
 40
1.0
 10
114.2196629700043
 20
100.107404780697
 30
0.0
 10
114.2449406442924
 20
99.53858859701121
 30
0.0
 10
114.2955048247504
 20
98.40075748836381
 30
0.0
 10
114.7114168105545
 20
96.7375715896098
 30
0.0
 10
115.3574843623379
 20
95.15712204539213
 30
0.0
 10
116.268930899988
 20
93.6282216461685
 30
0.0
 10
117.4614597377062
 20
92.20966200085267
 30
0.0
 10
118.9277770992073
 20
90.95891846144588
 30
0.0
 10
120.5833960334464
 20
89.96811010800869
 30
0.0
 10
122.4012854368807
 20
89.24098848490146
 30
0.0
 10
124.3406741254517
 20
88.81890859626536
 30
0.0
 10
126.3629350078161
 20
88.71232559989055
 30
0.0
 10
128.3884189858353
 20
88.95178198291208
 30
0.0
 10
130.3600011513988
 20
89.52466050511315
 30
0.0
 10
132.2015070739028
 20
90.43088577500018
 30
0.0
 10
133.8512586823167
 20
91.62388689019677
 30
0.0
 10
135.2501023302003
 20
93.08007690356777
 30
0.0
 10
136.3560158563015
 20
94.72000844981515
 30
0.0
 10
137.1430423979695
 20
96.50186302901415
 30
0.0
 10
137.6243283349744
 20
98.30867469614911
 30
0.0
 10
137.6790410556644
 20
99.5275394415848
 30
0.0
 10
137.7050702032425
 20
100.1074047806972
 30
0.0
  0
SPLINE
  5
DA
330
1F
100
AcDbEntity
  8
0
  6
Continuous
 62
     7
370
    15
100
AcDbSpline
210
0.0
220
0.0
230
1.0
 70
     8
 71
     3
 72
    17
 73
    13
 74
     0
 42
0.00000001
 43
0.00000001
 12
1.0
 22
0.0
 32
0.0
 13
1.0
 23
0.0
 33
0.0
 40
0.0
 40
0.0
 40
0.0
 40
0.0
 40
0.1196809756799562
 40
0.2417997468684975
 40
0.3039034105115395
 40
0.3667073352344361
 40
0.430239565891347
 40
0.4945267825280045
 40
0.6054959638312817
 40
0.7266795521875845
 40
0.8581598421046498
 40
1.0
 40
1.0
 40
1.0
 40
1.0
 10
137.6103397962428
 20
118.1074044714981
 30
0.0
 10
137.5832700775721
 20
118.6810588096868
 30
0.0
 10
137.5285792540292
 20
119.8400523170172
 30
0.0
 10
137.1576349603131
 20
121.2583970882547
 30
0.0
 10
136.7318077454055
 20
122.3623148194222
 30
0.0
 10
136.3360435181242
 20
123.1745628018813
 30
0.0
 10
135.8689293677248
 20
123.9599039822712
 30
0.0
 10
135.2032703407519
 20
124.8908349226827
 30
0.0
 10
134.2482810679559
 20
125.948364677611
 30
0.0
 10
132.896517565728
 20
127.0532681250987
 30
0.0
 10
131.2638751428441
 20
128.0285013669295
 30
0.0
 10
130.020351825417
 20
128.4461292819378
 30
0.0
 10
129.3750230726575
 20
128.6628580699973
 30
0.0
  0
LINE
  5
DB
330
1F
100
AcDbEntity
  8
0
  6
Continuous
 62
     7
370
    15
100
AcDbLine
 10
129.3750230727
 20
128.66285807
 30
0.0
 11
131.1166298148
 21
128.3019221436
 31
0.0
  0
SPLINE
  5
DC
330
1F
100
AcDbEntity
  8
0
  6
Continuous
 62
     7
370
    15
100
AcDbSpline
210
0.0
220
0.0
230
1.0
 70
     8
 71
     3
 72
    14
 73
    10
 74
     0
 42
0.00000001
 43
0.00000001
 12
1.0
 22
0.0
 32
0.0
 13
1.0
 23
0.0
 33
0.0
 40
0.0
 40
0.0
 40
0.0
 40
0.0
 40
0.1133150979981363
 40
0.226647047867713
 40
0.3744782625790754
 40
0.5223006550507118
 40
0.6696631114860159
 40
0.8170765090932898
 40
1.0
 40
1.0
 40
1.0
 40
1.0
 10
137.7059754487849
 20
118.1074044714981
 30
0.0
 10
137.6867259229675
 20
118.5910276007198
 30
0.0
 10
137.6482240086026
 20
119.5583457821015
 30
0.0
 10
137.3188348881948
 20
121.1281460563502
 30
0.0
 10
136.7205965097937
 20
122.7739622225609
 30
0.0
 10
135.7825997231107
 20
124.4261851959249
 30
0.0
 10
134.5734789223675
 20
125.8845819760031
 30
0.0
 10
133.0438303419368
 20
127.2513621672852
 30
0.0
 10
131.8022015307986
 20
127.927241566864
 30
0.0
 10
131.1146516856527
 20
128.3015086363368
 30
0.0
  0
ARC
  5
DD
330
1F
100
AcDbEntity
  8
0
  6
Continuous
 62
     7
370
    15
100
AcDbCircle
 10
124.6084776832
 20
118.2933886696
 30
0.0
 40
10.82339792928999
100
AcDbArc
 50
359.0154077158
 51
86.601817279
  0
SPLINE
  5
DE
330
1F
100
AcDbEntity
  8
0
  6
Continuous
 62
     7
370
    15
100
AcDbSpline
210
0.0
220
0.0
230
1.0
 70
     8
 71
     3
 72
    17
 73
    13
 74
     0
 42
0.00000001
 43
0.00000001
 12
1.0
 22
0.0
 32
0.0
 13
1.0
 23
0.0
 33
0.0
 40
0.0
 40
0.0
 40
0.0
 40
0.0
 40
0.1443854034781212
 40
0.2767706501313602
 40
0.3385306559655404
 40
0.3973061989161593
 40
0.453108487239009
 40
0.5059498985987642
 40
0.6340096322157351
 40
0.7588712292349946
 40
0.8807799507602423
 40
1.0
 40
1.0
 40
1.0
 40
1.0
 10
123.6479703840589
 20
128.8420668850951
 30
0.0
 10
122.9443135367735
 20
128.6516995064137
 30
0.0
 10
121.5954821563074
 20
128.286786558898
 30
0.0
 10
120.0813728805638
 20
127.4737005225606
 30
0.0
 10
119.0358947225795
 20
126.7462009962273
 30
0.0
 10
118.3500400808332
 20
126.1807156588642
 30
0.0
 10
117.7417058036528
 20
125.5960875819384
 30
0.0
 10
116.9450231200216
 20
124.7087998566591
 30
0.0
 10
116.0592266185482
 20
123.4378180598628
 30
0.0
 10
115.2701643821619
 20
121.7152099996806
 30
0.0
 10
114.7797590292947
 20
119.9241608852491
 30
0.0
 10
114.7193695440291
 20
118.7084714851243
 30
0.0
 10
114.6895114836074
 20
118.1074044714979
 30
0.0
  0
SPLINE
  5
DF
330
1F
100
AcDbEntity
  8
0
  6
Continuous
 62
     7
370
    15
100
AcDbSpline
210
0.0
220
0.0
230
1.0
 70
     8
 71
     3
 72
    11
 73
     7
 74
     0
 42
0.00000001
 43
0.00000001
 12
1.0
 22
0.0
 32
0.0
 13
1.0
 23
0.0
 33
0.0
 40
0.0
 40
0.0
 40
0.0
 40
0.0
 40
0.3621736173496899
 40
0.6139537633887486
 40
0.8715208862190365
 40
1.0
 40
1.0
 40
1.0
 40
1.0
 10
123.6479703840589
 20
128.8420668850951
 30
0.0
 10
124.3380153185449
 20
128.9573653577916
 30
0.0
 10
125.5077738656618
 20
129.1528183886973
 30
0.0
 10
127.2050534886929
 20
129.0799980213336
 30
0.0
 10
128.4236195436758
 20
128.9016575849891
 30
0.0
 10
129.1374536659053
 20
128.7224872992162
 30
0.0
 10
129.3750230726575
 20
128.6628580699973
 30
0.0
  0
SPLINE
  5
E0
330
1F
100
AcDbEntity
  8
0
  6
Continuous
 62
     7
370
    15
100
AcDbSpline
210
0.0
220
0.0
230
1.0
 70
     8
 71
     3
 72
    15
 73
    11
 74
     0
 42
0.00000001
 43
0.00000001
 12
1.0
 22
0.0
 32
0.0
 13
1.0
 23
0.0
 33
0.0
 40
0.0
 40
0.0
 40
0.0
 40
0.0
 40
0.0384407115383613
 40
0.1710082288643395
 40
0.3035585205218698
 40
0.4600021234628074
 40
0.6164358049871278
 40
0.7644572002510391
 40
0.9124512793373624
 40
1.0
 40
1.0
 40
1.0
 40
1.0
 10
120.8162654694891
 20
128.3015086363367
 30
0.0
 10
120.6689250364513
 20
128.2294132452292
 30
0.0
 10
120.0134630149236
 20
127.9086880388221
 30
0.0
 10
118.9104316318672
 20
127.2196041825008
 30
0.0
 10
117.5234684430218
 20
126.0654112719428
 30
0.0
 10
116.2767614173279
 20
124.6172468074824
 30
0.0
 10
115.2665486602265
 20
122.9170709880997
 30
0.0
 10
114.5891554758972
 20
121.1011485563345
 30
0.0
 10
114.2617653034913
 20
119.4864607932731
 30
0.0
 10
114.2302133131157
 20
118.4810899725576
 30
0.0
 10
114.2184857782698
 20
118.1074044714979
 30
0.0
  0
LINE
  5
E1
330
1F
100
AcDbEntity
  8
0
  6
Continuous
 62
     7
370
    15
100
AcDbLine
 10
120.8119888362
 20
128.3024641733
 30
0.0
 11
123.6479703841
 21
128.8420668851
 31
0.0
  0
SPLINE
  5
E2
330
1F
100
AcDbEntity
  8
0
  6
Continuous
 62
     7
370
    15
100
AcDbSpline
210
0.0
220
0.0
230
1.0
 70
     8
 71
     3
 72
    12
 73
     8
 74
     0
 42
0.00000001
 43
0.00000001
 12
1.0
 22
0.0
 32
0.0
 13
1.0
 23
0.0
 33
0.0
 40
0.0
 40
0.0
 40
0.0
 40
0.0
 40
0.2193376332740822
 40
0.4387325652036448
 40
0.6565833526480424
 40
0.8706608597588993
 40
1.0
 40
1.0
 40
1.0
 40
1.0
 10
146.3444058355663
 20
142.9658140103633
 30
0.0
 10
145.9747636760248
 20
142.969090497254
 30
0.0
 10
145.235382793491
 20
142.9756443269683
 30
0.0
 10
144.2488094818473
 20
143.0217539132263
 30
0.0
 10
143.5225563844018
 20
143.0709024475215
 30
0.0
 10
143.1245736096216
 20
143.1047513221075
 30
0.0
 10
143.1336150624541
 20
143.1040025411959
 30
0.0
 10
143.1370202955578
 20
143.103720531922
 30
0.0
  0
LINE
  5
E3
330
1F
100
AcDbEntity
  8
0
  6
Continuous
 62
     7
370
    15
100
AcDbLine
 10
146.1602088568
 20
142.9684999447
 30
0.0
 11
147.0727224407
 21
142.9730708759
 31
0.0
  0
SPLINE
  5
E4
330
1F
100
AcDbEntity
  8
0
  6
Continuous
 62
     7
370
    15
100
AcDbSpline
210
0.0
220
0.0
230
1.0
 70
     8
 71
     3
 72
    13
 73
     9
 74
     0
 42
0.00000001
 43
0.00000001
 12
1.0
 22
0.0
 32
0.0
 13
1.0
 23
0.0
 33
0.0
 40
0.0
 40
0.0
 40
0.0
 40
0.0
 40
0.0130683182486901
 40
0.2216582774413957
 40
0.4303329799760944
 40
0.6416664889694844
 40
0.8568536834545323
 40
1.0
 40
1.0
 40
1.0
 40
1.0
 10
149.5839108285282
 20
143.1065107743557
 30
0.0
 10
149.5873817774513
 20
143.1068061815742
 30
0.0
 10
149.646254276938
 20
143.1118167310545
 30
0.0
 10
149.4272701143285
 20
143.0926365304197
 30
0.0
 10
148.9201754957421
 20
143.0527244487251
 30
0.0
 10
148.0912705427402
 20
143.0030321278121
 30
0.0
 10
147.1885125955616
 20
142.970735896759
 30
0.0
 10
146.5853542582547
 20
142.9672189520364
 30
0.0
 10
146.3444058355663
 20
142.9658140103633
 30
0.0
  0
SPLINE
  5
E5
330
1F
100
AcDbEntity
  8
0
  6
Continuous
 62
     7
370
    15
100
AcDbSpline
210
0.0
220
0.0
230
1.0
 70
     8
 71
     3
 72
    12
 73
     8
 74
     0
 42
0.00000001
 43
0.00000001
 12
1.0
 22
0.0
 32
0.0
 13
1.0
 23
0.0
 33
0.0
 40
0.0
 40
0.0
 40
0.0
 40
0.0
 40
0.0306002877647291
 40
0.3481528665956347
 40
0.6441558519327631
 40
0.9994641073536844
 40
1.0
 40
1.0
 40
1.0
 40
1.0
 10
160.019683888254
 20
143.0985088507947
 30
0.0
 10
160.0183606010492
 20
143.1013520379456
 30
0.0
 10
160.003304983363
 20
143.1337002225267
 30
0.0
 10
160.0598986198503
 20
143.0109709866999
 30
0.0
 10
160.2024849565209
 20
142.7101251677924
 30
0.0
 10
160.3816422106265
 20
142.3539529334817
 30
0.0
 10
160.516888421975
 20
142.1238835286892
 30
0.0
 10
160.5170920994852
 20
142.1235370497521
 30
0.0
  0
LINE
  5
E6
330
1F
100
AcDbEntity
  8
0
  6
Continuous
 62
     7
370
    15
100
AcDbLine
 10
131.1182950196
 20
128.3015086363
 30
0.0
 11
143.2385232803
 21
128.3015086363
 31
0.0
  0
LINE
  5
E7
330
1F
100
AcDbEntity
  8
0
  6
Continuous
 62
     7
370
    15
100
AcDbLine
 10
103.3444081005
 20
128.3015086363
 30
0.0
 11
120.8085243162
 21
128.3015086363
 31
0.0
  0
ARC
  5
E8
330
1F
100
AcDbEntity
  8
0
  6
Continuous
 62
     7
370
    15
100
AcDbCircle
 10
74.2444045839
 20
107.1074048738
 30
0.0
 40
36.00000000000001
100
AcDbArc
 50
36.0665882598
 51
38.6885302761
  0
LINE
  5
E9
330
1F
100
AcDbEntity
  8
0
  6
Continuous
 62
     7
370
    15
100
AcDbLine
 10
102.344406074
 20
136.4595647018
 30
0.0
 11
102.344406074
 21
129.6105160426
 31
0.0
  0
ELLIPSE
  5
EA
330
1F
100
AcDbEntity
  8
0
  6
Continuous
 62
     7
370
    15
100
AcDbEllipse
 10
107.9293986141
 20
107.1074048738
 30
0.0
 11
-3.694822225952521E-13
 21
35.99999999999999
 31
0.0
210
0.0
220
0.0
230
1.0
 40
0.2679491924
 41
0.5097689546556757
 42
0.6174839892483421
  0
ELLIPSE
  5
EB
330
1F
100
AcDbEntity
  8
0
  6
Continuous
 62
     7
370
    15
100
AcDbEllipse
 10
168.7836917122
 20
107.1074048738
 30
0.0
 11
134.3538290724817
 21
1.421085471520200E-12
 31
0.0
210
0.0
220
0.0
230
1.0
 40
0.2679491924
 41
2.074125427481038
 42
2.080565281450573
  0
ARC
  5
EC
330
1F
100
AcDbEntity
  8
0
  6
Continuous
 62
     7
370
    15
100
AcDbCircle
 10
86.6144699028
 20
107.1074048738
 30
0.0
 40
35.99999999999985
100
AcDbArc
 50
56.7876519512
 51
61.1613668246
  0
SPLINE
  5
ED
330
1F
100
AcDbEntity
  8
0
  6
Continuous
 62
     7
370
    15
100
AcDbSpline
210
0.0
220
0.0
230
1.0
 70
     8
 71
     3
 72
    14
 73
    10
 74
     0
 42
0.00000001
 43
0.00000001
 12
1.0
 22
0.0
 32
0.0
 13
1.0
 23
0.0
 33
0.0
 40
0.0
 40
0.0
 40
0.0
 40
0.0
 40
0.2296621029928208
 40
0.3885113757829601
 40
0.5482462728815728
 40
0.6863120615501773
 40
0.8133302209560578
 40
0.9451089450310668
 40
0.9999999999999999
 40
0.9999999999999999
 40
0.9999999999999999
 40
0.9999999999999999
 10
106.9003988561009
 20
137.325618327718
 30
0.0
 10
106.8817068027823
 20
137.2954663250757
 30
0.0
 10
106.8500861076116
 20
137.2444592330193
 30
0.0
 10
106.7503562651465
 20
137.1896774746241
 30
0.0
 10
106.6443820959516
 20
137.1621776978656
 30
0.0
 10
106.5353008857107
 20
137.1594812666698
 30
0.0
 10
106.4390459898236
 20
137.1765020088611
 30
0.0
 10
106.3736399947887
 20
137.2019226031281
 30
0.0
 10
106.3424189827814
 20
137.2210472168225
 30
0.0
 10
106.3332383093213
 20
137.2266708921006
 30
0.0
  0
ELLIPSE
  5
EE
330
1F
100
AcDbEntity
  8
0
  6
Continuous
 62
     7
370
    15
100
AcDbEllipse
 10
112.1433033333
 20
107.1074048738
 30
0.0
 11
-3.694822225952521E-13
 21
36.0
 31
0.0
210
0.0
220
0.0
230
1.0
 40
0.2679491924
 41
0.4714575689333741
 42
0.5746275182041369
  0
ELLIPSE
  5
EF
330
1F
100
AcDbEntity
  8
0
  6
Continuous
 62
     7
370
    15
100
AcDbEllipse
 10
168.7836917122
 20
107.1074048738
 30
0.0
 11
134.353829072485
 21
1.421085471520200E-12
 31
0.0
210
0.0
220
0.0
230
1.0
 40
0.2679491924
 41
2.035943309577231
 42
2.042253895728269
  0
ARC
  5
F0
330
1F
100
AcDbEntity
  8
0
  6
Continuous
 62
     7
370
    15
100
AcDbCircle
 10
92.3707707983
 20
107.1074048738
 30
0.0
 40
35.99999999999989
100
AcDbArc
 50
59.0724835298
 51
63.3490410333
  0
SPLINE
  5
F1
330
1F
100
AcDbEntity
  8
0
  6
Continuous
 62
     7
370
    15
100
AcDbSpline
210
0.0
220
0.0
230
1.0
 70
     8
 71
     3
 72
    14
 73
    10
 74
     0
 42
0.00000001
 43
0.00000001
 12
1.0
 22
0.0
 32
0.0
 13
1.0
 23
0.0
 33
0.0
 40
0.0
 40
0.0
 40
0.0
 40
0.0
 40
0.1886983980289159
 40
0.3782418108971218
 40
0.5443853417040987
 40
0.6858786168175124
 40
0.8172850662768002
 40
0.9529702224570966
 40
0.9999999999999999
 40
0.9999999999999999
 40
0.9999999999999999
 40
0.9999999999999999
 10
111.4402462300633
 20
138.0794028799346
 30
0.0
 10
111.4254959814423
 20
138.0564568689143
 30
0.0
 10
111.395929430757
 20
138.0104620917892
 30
0.0
 10
111.3005631737542
 20
137.9577619782678
 30
0.0
 10
111.186222657587
 20
137.9299086590003
 30
0.0
 10
111.0746199504701
 20
137.9272816281072
 30
0.0
 10
110.9763476835164
 20
137.9434464364528
 30
0.0
 10
110.9114850838864
 20
137.9671499070917
 30
0.0
 10
110.8809462136009
 20
137.9844156069632
 30
0.0
 10
110.8730856832837
 20
137.9888596992305
 30
0.0
  0
ELLIPSE
  5
F2
330
1F
100
AcDbEntity
  8
0
  6
Continuous
 62
     7
370
    15
100
AcDbEllipse
 10
116.3572080524
 20
107.1074048738
 30
0.0
 11
-3.694822225952521E-13
 21
36.0
 31
0.0
210
0.0
220
0.0
230
1.0
 40
0.2679491924
 41
0.4338806822493548
 42
0.5348731437643576
  0
ELLIPSE
  5
F3
330
1F
100
AcDbEntity
  8
0
  6
Continuous
 62
     7
370
    15
100
AcDbEllipse
 10
168.7836917122
 20
107.1074048738
 30
0.0
 11
134.3538290724818
 21
1.421085471520200E-12
 31
0.0
210
0.0
220
0.0
230
1.0
 40
0.2679491924
 41
1.998479653272259
 42
2.004677009044252
  0
ARC
  5
F4
330
1F
100
AcDbEntity
  8
0
  6
Continuous
 62
     7
370
    15
100
AcDbCircle
 10
98.1270716938
 20
107.1074048738
 30
0.0
 40
35.99999999999991
100
AcDbArc
 50
61.3039505588
 51
65.4955504247
  0
SPLINE
  5
F5
330
1F
100
AcDbEntity
  8
0
  6
Continuous
 62
     7
370
    15
100
AcDbSpline
210
0.0
220
0.0
230
1.0
 70
     8
 71
     3
 72
    14
 73
    10
 74
     0
 42
0.00000001
 43
0.00000001
 12
1.0
 22
0.0
 32
0.0
 13
1.0
 23
0.0
 33
0.0
 40
0.0
 40
0.0
 40
0.0
 40
0.0
 40
0.183980588361575
 40
0.3686428395366976
 40
0.5344062146173837
 40
0.6791918727466747
 40
0.8147176538729464
 40
0.9535334152054551
 40
1.0
 40
1.0
 40
1.0
 40
1.0
 10
115.9801010546063
 20
138.7685704092792
 30
0.0
 10
115.9655851609187
 20
138.7478876747846
 30
0.0
 10
115.9364995909949
 20
138.7064455746078
 30
0.0
 10
115.8434212044665
 20
138.658725905854
 30
0.0
 10
115.7310703615551
 20
138.6326140263462
 30
0.0
 10
115.6187533460769
 20
138.6292346077031
 30
0.0
 10
115.5181989623236
 20
138.6437537383292
 30
0.0
 10
115.4518184423365
 20
138.6657703595806
 30
0.0
 10
115.4207356887293
 20
138.6818301791249
 30
0.0
 10
115.4129405078267
 20
138.6858577887825
 30
0.0
  0
ELLIPSE
  5
F6
330
1F
100
AcDbEntity
  8
0
  6
Continuous
 62
     7
370
    15
100
AcDbEllipse
 10
120.5711127716
 20
107.1074048738
 30
0.0
 11
-3.836930773104541E-13
 21
35.99999999999999
 31
0.0
210
0.0
220
0.0
230
1.0
 40
0.2679491924
 41
0.3969472873612515
 42
0.4960344046173943
  0
ELLIPSE
  5
F7
330
1F
100
AcDbEntity
  8
0
  6
Continuous
 62
     7
370
    15
100
AcDbEllipse
 10
168.7836917122
 20
107.1074048738
 30
0.0
 11
134.3538290724841
 21
1.421085471520200E-12
 31
0.0
210
0.0
220
0.0
230
1.0
 40
0.2679491924
 41
1.961645455217739
 42
1.967743614156147
  0
ARC
  5
F8
330
1F
100
AcDbEntity
  8
0
  6
Continuous
 62
     7
370
    15
100
AcDbCircle
 10
103.8833725894
 20
107.1074048738
 30
0.0
 40
35.99999999999991
100
AcDbArc
 50
63.4887994194
 51
67.605994515
  0
SPLINE
  5
F9
330
1F
100
AcDbEntity
  8
0
  6
Continuous
 62
     7
370
    15
100
AcDbSpline
210
0.0
220
0.0
230
1.0
 70
     8
 71
     3
 72
    14
 73
    10
 74
     0
 42
0.00000001
 43
0.00000001
 12
1.0
 22
0.0
 32
0.0
 13
1.0
 23
0.0
 33
0.0
 40
0.0
 40
0.0
 40
0.0
 40
0.0
 40
0.1799727331316243
 40
0.3605027477835889
 40
0.5257877826591206
 40
0.6733808746631339
 40
0.8126381943899478
 40
0.9544398763709407
 40
1.0
 40
1.0
 40
1.0
 40
1.0
 10
120.5199484285687
 20
139.3972615759186
 30
0.0
 10
120.5056308252358
 20
139.3786292609033
 30
0.0
 10
120.4769512844335
 20
139.3413069363285
 30
0.0
 10
120.3857676014836
 20
139.2981594718783
 30
0.0
 10
120.2750903367074
 20
139.2738832072209
 30
0.0
 10
120.1622103807335
 20
139.2700364539228
 30
0.0
 10
120.0596557031006
 20
139.2830805527183
 30
0.0
 10
119.9919780769396
 20
139.3034244269689
 30
0.0
 10
119.9604595771772
 20
139.3182882853324
 30
0.0
 10
119.9527953323696
 20
139.321902678471
 30
0.0
  0
ELLIPSE
  5
FA
330
1F
100
AcDbEntity
  8
0
  6
Continuous
 62
     7
370
    15
100
AcDbEllipse
 10
124.7850174908
 20
107.1074048738
 30
0.0
 11
-3.694822225952521E-13
 21
35.99999999999997
 31
0.0
210
0.0
220
0.0
230
1.0
 40
0.2679491924
 41
0.360577370144139
 42
0.457995831574046
  0
ELLIPSE
  5
FB
330
1F
100
AcDbEntity
  8
0
  6
Continuous
 62
     7
370
    15
100
AcDbEllipse
 10
168.7836917122
 20
107.1074048738
 30
0.0
 11
134.3538290724789
 21
1.421085471520200E-12
 31
0.0
210
0.0
220
0.0
230
1.0
 40
0.2679491924
 41
1.925362312271232
 42
1.931373696939026
  0
ARC
  5
FC
330
1F
100
AcDbEntity
  8
0
  6
Continuous
 62
     7
370
    15
100
AcDbCircle
 10
109.6396734849
 20
107.1074048738
 30
0.0
 40
35.99999999999994
100
AcDbArc
 50
65.6328337458
 51
69.6848654733
  0
SPLINE
  5
FD
330
1F
100
AcDbEntity
  8
0
  6
Continuous
 62
     7
370
    15
100
AcDbSpline
210
0.0
220
0.0
230
1.0
 70
     8
 71
     3
 72
    14
 73
    10
 74
     0
 42
0.00000001
 43
0.00000001
 12
1.0
 22
0.0
 32
0.0
 13
1.0
 23
0.0
 33
0.0
 40
0.0
 40
0.0
 40
0.0
 40
0.0
 40
0.1765627476302042
 40
0.3535706773755968
 40
0.5183433685277984
 40
0.668321391742748
 40
0.8109720994432659
 40
0.9555525488711427
 40
1.0
 40
1.0
 40
1.0
 40
1.0
 10
125.0598032531117
 20
139.9689408998303
 30
0.0
 10
125.0456458420563
 20
139.9521880628583
 30
0.0
 10
125.0172953237057
 20
139.9186401486145
 30
0.0
 10
124.9277059416993
 20
139.8797330927666
 30
0.0
 10
124.8184366274103
 20
139.8573308941852
 30
0.0
 10
124.7051034890007
 20
139.8532452264857
 30
0.0
 10
124.6007855747814
 20
139.8649433130382
 30
0.0
 10
124.5320247548735
 20
139.8836630048451
 30
0.0
 10
124.500139993156
 20
139.8973217240014
 30
0.0
 10
124.492642706332
 20
139.9005333940796
 30
0.0
  0
ELLIPSE
  5
FE
330
1F
100
AcDbEntity
  8
0
  6
Continuous
 62
     7
370
    15
100
AcDbEllipse
 10
128.99892221
 20
107.1074048738
 30
0.0
 11
-3.410605131648481E-13
 21
35.99999999999999
 31
0.0
210
0.0
220
0.0
230
1.0
 40
0.2679491924
 41
0.3246997814990429
 42
0.4206579287433158
  0
ELLIPSE
  5
FF
330
1F
100
AcDbEntity
  8
0
  6
Continuous
 62
     7
370
    15
100
AcDbEllipse
 10
168.7836917122
 20
107.1074048738
 30
0.0
 11
134.3538290724838
 21
1.421085471520201E-12
 31
0.0
210
0.0
220
0.0
230
1.0
 40
0.2679491924
 41
1.889560379908569
 42
1.895496108293938
  0
ARC
  5
100
330
1F
100
AcDbEntity
  8
0
  6
Continuous
 62
     7
370
    15
100
AcDbCircle
 10
115.3959743805
 20
107.1074048738
 30
0.0
 40
36.00000000000119
100
AcDbArc
 50
67.7411097068
 51
71.7361650961
  0
SPLINE
  5
101
330
1F
100
AcDbEntity
  8
0
  6
Continuous
 62
     7
370
    15
100
AcDbSpline
210
0.0
220
0.0
230
1.0
 70
     8
 71
     3
 72
    14
 73
    10
 74
     0
 42
0.00000001
 43
0.00000001
 12
1.0
 22
0.0
 32
0.0
 13
1.0
 23
0.0
 33
0.0
 40
0.0
 40
0.0
 40
0.0
 40
0.0
 40
0.1736508469516713
 40
0.3476537944746953
 40
0.5119064355159375
 40
0.663934177140858
 40
0.809641131716918
 40
0.9568034828392445
 40
1.0
 40
1.0
 40
1.0
 40
1.0
 10
129.5996543523644
 20
140.4865439097696
 30
0.0
 10
129.5856306004302
 20
140.471533274588
 30
0.0
 10
129.5575546615087
 20
140.4414815681324
 30
0.0
 10
129.4693052462954
 20
140.4065351688575
 30
0.0
 10
129.3612264749322
 20
140.3860193162863
 30
0.0
 10
129.2475196525956
 20
140.3818737343413
 30
0.0
 10
129.1416497010843
 20
140.3923230810517
 30
0.0
 10
129.0719659776609
 20
140.4094452766033
 30
0.0
 10
129.03979425963
 20
140.4219183793053
 30
0.0
 10
129.0324938055847
 20
140.4247487942987
 30
0.0
  0
ELLIPSE
  5
102
330
1F
100
AcDbEntity
  8
0
  6
Continuous
 62
     7
370
    15
100
AcDbEllipse
 10
133.2128269292
 20
107.1074048738
 30
0.0
 11
-3.694822225952521E-13
 21
35.99999999999997
 31
0.0
210
0.0
220
0.0
230
1.0
 40
0.2679491924
 41
0.2892505666682346
 42
0.383933883065909
  0
ELLIPSE
  5
103
330
1F
100
AcDbEntity
  8
0
  6
Continuous
 62
     7
370
    15
100
AcDbEllipse
 10
168.7836917122
 20
107.1074048738
 30
0.0
 11
134.3538290724814
 21
1.421085471520200E-12
 31
0.0
210
0.0
220
0.0
230
1.0
 40
0.2679491924
 41
1.854176764981724
 42
1.860046893463128
  0
ARC
  5
104
330
1F
100
AcDbEntity
  8
0
  6
Continuous
 62
     7
370
    15
100
AcDbCircle
 10
121.152275276
 20
107.1074048738
 30
0.0
 40
35.99999999999907
100
AcDbArc
 50
69.8180845899
 51
73.7634968953
  0
SPLINE
  5
105
330
1F
100
AcDbEntity
  8
0
  6
Continuous
 62
     7
370
    15
100
AcDbSpline
210
0.0
220
0.0
230
1.0
 70
     8
 71
     3
 72
    14
 73
    10
 74
     0
 42
0.00000001
 43
0.00000001
 12
1.0
 22
0.0
 32
0.0
 13
1.0
 23
0.0
 33
0.0
 40
0.0
 40
0.0
 40
0.0
 40
0.0
 40
0.1711630418279307
 40
0.3426056647807372
 40
0.5063540345550489
 40
0.6601347898219206
 40
0.8085828428236578
 40
0.9581120825911899
 40
0.9999999999999999
 40
0.9999999999999999
 40
0.9999999999999999
 40
0.9999999999999999
 10
134.1395054516171
 20
140.9525479237848
 30
0.0
 10
134.1255938450824
 20
140.9391663107668
 30
0.0
 10
134.0977479085176
 20
140.9123812269371
 30
0.0
 10
134.0106240441424
 20
140.8811612115595
 30
0.0
 10
133.9035517424043
 20
140.8625433930412
 30
0.0
 10
133.7895350727063
 20
140.8584566255321
 30
0.0
 10
133.6823037440977
 20
140.8677648307533
 30
0.0
 10
133.6118396900625
 20
140.8833064084355
 30
0.0
 10
133.5794358534785
 20
140.8946026610385
 30
0.0
 10
133.5723449048375
 20
140.8970746259504
 30
0.0
  0
ELLIPSE
  5
106
330
1F
100
AcDbEntity
  8
0
  6
Continuous
 62
     7
370
    15
100
AcDbEllipse
 10
137.4267316484
 20
107.1074048738
 30
0.0
 11
-3.979039320256561E-13
 21
35.99999999999999
 31
0.0
210
0.0
220
0.0
230
1.0
 40
0.2679491924
 41
0.2541716318707982
 42
0.3477470548109187
  0
ELLIPSE
  5
107
330
1F
100
AcDbEntity
  8
0
  6
Continuous
 62
     7
370
    15
100
AcDbEllipse
 10
168.7836917122
 20
107.1074048738
 30
0.0
 11
134.3538290724838
 21
1.421085471520200E-12
 31
0.0
210
0.0
220
0.0
230
1.0
 40
0.2679491924
 41
1.819154239516377
 42
1.824967958665695
  0
ARC
  5
108
330
1F
100
AcDbEntity
  8
0
  6
Continuous
 62
     7
370
    15
100
AcDbCircle
 10
126.9085761715
 20
107.1074048738
 30
0.0
 40
35.99999999999983
100
AcDbArc
 50
71.8677319245
 51
75.7701397924
  0
SPLINE
  5
109
330
1F
100
AcDbEntity
  8
0
  6
Continuous
 62
     7
370
    15
100
AcDbSpline
210
0.0
220
0.0
230
1.0
 70
     8
 71
     3
 72
    14
 73
    10
 74
     0
 42
0.00000001
 43
0.00000001
 12
1.0
 22
0.0
 32
0.0
 13
1.0
 23
0.0
 33
0.0
 40
0.0
 40
0.0
 40
0.0
 40
0.0
 40
0.1690426118881189
 40
0.3383021354070015
 40
0.5015761940871538
 40
0.6568669550716716
 40
0.8077412051850437
 40
0.9594262893325041
 40
1.0
 40
1.0
 40
1.0
 40
1.0
 10
138.6793565508698
 20
141.369061456185
 30
0.0
 10
138.6655385697712
 20
141.3572157792238
 30
0.0
 10
138.6378848766553
 20
141.3335092251985
 30
0.0
 10
138.5517067195751
 20
141.3058249109927
 30
0.0
 10
138.4454855400741
 20
141.2890797145253
 30
0.0
 10
138.331207441827
 20
141.2851803700702
 30
0.0
 10
138.2227858025862
 20
141.2934064647829
 30
0.0
 10
138.15166009664
 20
141.3073937076481
 30
0.0
 10
138.1190730708019
 20
141.3175289264099
 30
0.0
 10
138.1121960040902
 20
141.3196678321177
 30
0.0
  0
ELLIPSE
  5
10A
330
1F
100
AcDbEntity
  8
0
  6
Continuous
 62
     7
370
    15
100
AcDbEllipse
 10
141.6406363676
 20
107.1074048738
 30
0.0
 11
-3.694822225952521E-13
 21
36.0
 31
0.0
210
0.0
220
0.0
230
1.0
 40
0.2679491924
 41
0.2194096628056061
 42
0.3120290289628038
  0
ELLIPSE
  5
10B
330
1F
100
AcDbEntity
  8
0
  6
Continuous
 62
     7
370
    15
100
AcDbEllipse
 10
168.7836917125
 20
107.1074048738
 30
0.0
 11
134.3538290737742
 21
1.421085471520200E-12
 31
0.0
210
0.0
220
0.0
230
1.0
 40
0.2679491924
 41
1.78408435055015
 42
1.790205989600475
  0
LINE
  5
10C
330
1F
100
AcDbEntity
  8
0
  6
Continuous
 62
     7
370
    15
100
AcDbLine
 10
140.3444048521
 20
143.107404844
 30
0.0
 11
140.3444048521
 21
142.2916519503
 31
0.0
  0
LINE
  5
10D
330
1F
100
AcDbEntity
  8
0
  6
Continuous
 62
     7
370
    15
100
AcDbLine
 10
161.8641607967
 20
142.9782639305
 30
0.0
 11
162.1301912275
 21
142.9956498604
 31
0.0
  0
SPLINE
  5
10E
330
1F
100
AcDbEntity
  8
0
  6
Continuous
 62
     7
370
    15
100
AcDbSpline
210
0.0
220
0.0
230
1.0
 70
     8
 71
     3
 72
     9
 73
     5
 74
     0
 42
0.00000001
 43
0.00000001
 12
1.0
 22
0.0
 32
0.0
 13
1.0
 23
0.0
 33
0.0
 40
0.0
 40
0.0
 40
0.0
 40
0.0
 40
0.7772468257796357
 40
1.0
 40
1.0
 40
1.0
 40
1.0
 10
161.8641607966993
 20
142.9782639305409
 30
0.0
 10
161.8732757177788
 20
143.0393349016232
 30
0.0
 10
161.8850029076201
 20
143.1179083599594
 30
0.0
 10
161.8817620077705
 20
143.096214701693
 30
0.0
 10
161.8810400870417
 20
143.0913823704537
 30
0.0
  0
SPLINE
  5
10F
330
1F
100
AcDbEntity
  8
0
  6
Continuous
 62
     7
370
    15
100
AcDbSpline
210
0.0
220
0.0
230
1.0
 70
     8
 71
     3
 72
    11
 73
     7
 74
     0
 42
0.00000001
 43
0.00000001
 12
1.0
 22
0.0
 32
0.0
 13
1.0
 23
0.0
 33
0.0
 40
0.0
 40
0.0
 40
0.0
 40
0.0
 40
0.2491387949295543
 40
0.374722826616573
 40
0.5004744926230696
 40
1.0
 40
1.0
 40
1.0
 40
1.0
 10
107.9674784597733
 20
96.94915162877349
 30
0.0
 10
107.9542681923957
 20
96.83611153140612
 30
0.0
 10
107.9343989916415
 20
96.66609102208122
 30
0.0
 10
107.7860571443151
 20
96.49302031926992
 30
0.0
 10
107.5053980923312
 20
96.30733735018849
 30
0.0
 10
107.219509594022
 20
96.2924082416197
 30
0.0
 10
106.9911171254495
 20
96.28048157797363
 30
0.0
  0
SPLINE
  5
110
330
1F
100
AcDbEntity
  8
0
  6
Continuous
 62
     7
370
    15
100
AcDbSpline
210
0.0
220
0.0
230
1.0
 70
     8
 71
     3
 72
    12
 73
     8
 74
     0
 42
0.00000001
 43
0.00000001
 12
1.0
 22
0.0
 32
0.0
 13
1.0
 23
0.0
 33
0.0
 40
0.0
 40
0.0
 40
0.0
 40
0.0
 40
0.2509489884039451
 40
0.5012377294149348
 40
0.6265851256011506
 40
0.751760285794713
 40
1.0
 40
1.0
 40
1.0
 40
1.0
 10
106.9911171254495
 20
97.61381512985733
 30
0.0
 10
107.102387787904
 20
97.6101364442298
 30
0.0
 10
107.3246363594322
 20
97.60278875160546
 30
0.0
 10
107.5978754927764
 20
97.52580039051497
 30
0.0
 10
107.7848217098856
 20
97.40355789794417
 30
0.0
 10
107.9340978914056
 20
97.23151929211765
 30
0.0
 10
107.9541488987864
 20
97.06190695839595
 30
0.0
 10
107.9674784597733
 20
96.94915162877349
 30
0.0
  0
SPLINE
  5
111
330
1F
100
AcDbEntity
  8
0
  6
Continuous
 62
     7
370
    15
100
AcDbSpline
210
0.0
220
0.0
230
1.0
 70
     8
 71
     3
 72
    11
 73
     7
 74
     0
 42
0.00000001
 43
0.00000001
 12
1.0
 22
0.0
 32
0.0
 13
1.0
 23
0.0
 33
0.0
 40
0.0
 40
0.0
 40
0.0
 40
0.0
 40
0.2491338018993867
 40
0.3747130431318499
 40
0.5004510246862564
 40
1.0
 40
1.0
 40
1.0
 40
1.0
 10
106.0187642034867
 20
96.94915162877346
 30
0.0
 10
106.0318564568097
 20
97.06172187384838
 30
0.0
 10
106.0515480363813
 20
97.23103466390951
 30
0.0
 10
106.1996372656697
 20
97.4029672930422
 30
0.0
 10
106.4790579279545
 20
97.58767715447672
 30
0.0
 10
106.7637073849796
 20
97.60220703800624
 30
0.0
 10
106.9911171254494
 20
97.61381512985733
 30
0.0
  0
SPLINE
  5
112
330
1F
100
AcDbEntity
  8
0
  6
Continuous
 62
     7
370
    15
100
AcDbSpline
210
0.0
220
0.0
230
1.0
 70
     8
 71
     3
 72
    12
 73
     8
 74
     0
 42
0.00000001
 43
0.00000001
 12
1.0
 22
0.0
 32
0.0
 13
1.0
 23
0.0
 33
0.0
 40
0.0
 40
0.0
 40
0.0
 40
0.0
 40
0.2509021448231684
 40
0.5011063383993143
 40
0.6264305979158348
 40
0.7516211966249129
 40
1.0
 40
1.0
 40
1.0
 40
1.0
 10
106.9911171254495
 20
96.28048157797363
 30
0.0
 10
106.8798711008433
 20
96.28433866326802
 30
0.0
 10
106.6576885121247
 20
96.29204210434516
 30
0.0
 10
106.3846413404943
 20
96.3696998983135
 30
0.0
 10
106.1983369435942
 20
96.49305996889268
 30
0.0
 10
106.0509419043799
 20
96.66673008987767
 30
0.0
 10
106.0316145642934
 20
96.83636486733167
 30
0.0
 10
106.0187642034867
 20
96.94915162877346
 30
0.0
  0
LINE
  5
113
330
1F
100
AcDbEntity
  8
0
  6
Continuous
 62
     7
370
    15
100
AcDbLine
 10
107.9674784598
 20
99.9659787911
 30
0.0
 11
107.9674784598
 21
99.7933022726
 31
0.0
  0
SPLINE
  5
114
330
1F
100
AcDbEntity
  8
0
  6
Continuous
 62
     7
370
    15
100
AcDbSpline
210
0.0
220
0.0
230
1.0
 70
     8
 71
     3
 72
    11
 73
     7
 74
     0
 42
0.00000001
 43
0.00000001
 12
1.0
 22
0.0
 32
0.0
 13
1.0
 23
0.0
 33
0.0
 40
0.0
 40
0.0
 40
0.0
 40
0.0
 40
0.2810661132169124
 40
0.560365598098319
 40
0.7796792725830501
 40
0.9999999999999999
 40
0.9999999999999999
 40
0.9999999999999999
 40
0.9999999999999999
 10
107.6085094866135
 20
100.4599690485111
 30
0.0
 10
107.6117118749723
 20
100.3962815338479
 30
0.0
 10
107.6180965232229
 20
100.269306809513
 30
0.0
 10
107.6837844420962
 20
100.0976352224992
 30
0.0
 10
107.8185287211315
 20
99.99223897163793
 30
0.0
 10
107.9177527840292
 20
99.97474554179833
 30
0.0
 10
107.9674784597733
 20
99.96597879112868
 30
0.0
  0
LINE
  5
115
330
1F
100
AcDbEntity
  8
0
  6
Continuous
 62
     7
370
    15
100
AcDbLine
 10
107.4033801016
 20
100.4599690485
 30
0.0
 11
107.6085094866
 21
100.4599690485
 31
0.0
  0
LINE
  5
116
330
1F
100
AcDbEntity
  8
0
  6
Continuous
 62
     7
370
    15
100
AcDbLine
 10
107.4033801016
 20
100.0240714337
 30
0.0
 11
107.4033801016
 21
100.4599690485
 31
0.0
  0
LINE
  5
117
330
1F
100
AcDbEntity
  8
0
  6
Continuous
 62
     7
370
    15
100
AcDbLine
 10
106.0444016513
 20
100.0240714337
 30
0.0
 11
107.4033801016
 21
100.0240714337
 31
0.0
  0
LINE
  5
118
330
1F
100
AcDbEntity
  8
0
  6
Continuous
 62
     7
370
    15
100
AcDbLine
 10
106.0444016513
 20
99.7933022726
 30
0.0
 11
106.0444016513
 21
100.0240714337
 31
0.0
  0
LINE
  5
119
330
1F
100
AcDbEntity
  8
0
  6
Continuous
 62
     7
370
    15
100
AcDbLine
 10
107.9674784598
 20
99.7933022726
 30
0.0
 11
106.0444016513
 21
99.7933022726
 31
0.0
  0
SPLINE
  5
11A
330
1F
100
AcDbEntity
  8
0
  6
Continuous
 62
     7
370
    15
100
AcDbSpline
210
0.0
220
0.0
230
1.0
 70
     8
 71
     3
 72
     9
 73
     5
 74
     0
 42
0.00000001
 43
0.00000001
 12
1.0
 22
0.0
 32
0.0
 13
1.0
 23
0.0
 33
0.0
 40
0.0
 40
0.0
 40
0.0
 40
0.0
 40
0.5599667200870363
 40
1.0
 40
1.0
 40
1.0
 40
1.0
 10
106.0187642034867
 20
101.5649367171636
 30
0.0
 10
106.0239922831778
 20
101.6632537112385
 30
0.0
 10
106.0333286946171
 20
101.8388302063195
 30
0.0
 10
106.1383959428736
 20
101.9783175062635
 30
0.0
 10
106.1846290287354
 20
102.039696560364
 30
0.0
  0
SPLINE
  5
11B
330
1F
100
AcDbEntity
  8
0
  6
Continuous
 62
     7
370
    15
100
AcDbSpline
210
0.0
220
0.0
230
1.0
 70
     8
 71
     3
 72
    11
 73
     7
 74
     0
 42
0.00000001
 43
0.00000001
 12
1.0
 22
0.0
 32
0.0
 13
1.0
 23
0.0
 33
0.0
 40
0.0
 40
0.0
 40
0.0
 40
0.0
 40
0.2806894924332177
 40
0.5595462633734554
 40
0.7793503281254018
 40
1.0
 40
1.0
 40
1.0
 40
1.0
 10
106.7739699539521
 20
100.8702254901936
 30
0.0
 10
106.6647471322286
 20
100.8768867512838
 30
0.0
 10
106.4470146434179
 20
100.890165779722
 30
0.0
 10
106.1776874180889
 20
101.057234803116
 30
0.0
 10
106.0356730519651
 20
101.3079316556682
 30
0.0
 10
106.0244076955948
 20
101.4791587862683
 30
0.0
 10
106.0187642034867
 20
101.5649367171636
 30
0.0
  0
SPLINE
  5
11C
330
1F
100
AcDbEntity
  8
0
  6
Continuous
 62
     7
370
    15
100
AcDbSpline
210
0.0
220
0.0
230
1.0
 70
     8
 71
     3
 72
     9
 73
     5
 74
     0
 42
0.00000001
 43
0.00000001
 12
1.0
 22
0.0
 32
0.0
 13
1.0
 23
0.0
 33
0.0
 40
0.0
 40
0.0
 40
0.0
 40
0.0
 40
0.5587322306733556
 40
1.0
 40
1.0
 40
1.0
 40
1.0
 10
107.2747756299355
 20
100.9956262122205
 30
0.0
 10
107.1861568275543
 20
100.9522071494232
 30
0.0
 10
107.0275499000922
 20
100.8744971831574
 30
0.0
 10
106.8516076140459
 20
100.8715333390649
 30
0.0
 10
106.7739699539521
 20
100.8702254901936
 30
0.0
  0
LINE
  5
11D
330
1F
100
AcDbEntity
  8
0
  6
Continuous
 62
     7
370
    15
100
AcDbLine
 10
107.4654806909
 20
100.8365716833
 30
0.0
 11
107.2747756299
 21
100.9956262122
 31
0.0
  0
LINE
  5
11E
330
1F
100
AcDbEntity
  8
0
  6
Continuous
 62
     7
370
    15
100
AcDbLine
 10
107.542400485
 20
100.9207059677
 30
0.0
 11
107.4654806909
 21
100.8365716833
 31
0.0
  0
LINE
  5
11F
330
1F
100
AcDbEntity
  8
0
  6
Continuous
 62
     7
370
    15
100
AcDbLine
 10
107.3601071295
 20
101.0713473941
 30
0.0
 11
107.542400485
 21
100.9207059677
 31
0.0
  0
SPLINE
  5
120
330
1F
100
AcDbEntity
  8
0
  6
Continuous
 62
     7
370
    15
100
AcDbSpline
210
0.0
220
0.0
230
1.0
 70
     8
 71
     3
 72
     9
 73
     5
 74
     0
 42
0.00000001
 43
0.00000001
 12
1.0
 22
0.0
 32
0.0
 13
1.0
 23
0.0
 33
0.0
 40
0.0
 40
0.0
 40
0.0
 40
0.0
 40
0.5598507232800227
 40
1.0
 40
1.0
 40
1.0
 40
1.0
 10
107.5315822419503
 20
101.5517156618943
 30
0.0
 10
107.5250488003945
 20
101.4522900444406
 30
0.0
 10
107.513378829661
 20
101.2746969587851
 30
0.0
 10
107.4069511817591
 20
101.1334966207905
 30
0.0
 10
107.3601071295121
 20
101.0713473941496
 30
0.0
  0
SPLINE
  5
121
330
1F
100
AcDbEntity
  8
0
  6
Continuous
 62
     7
370
    15
100
AcDbSpline
210
0.0
220
0.0
230
1.0
 70
     8
 71
     3
 72
    11
 73
     7
 74
     0
 42
0.00000001
 43
0.00000001
 12
1.0
 22
0.0
 32
0.0
 13
1.0
 23
0.0
 33
0.0
 40
0.0
 40
0.0
 40
0.0
 40
0.0
 40
0.2806222584114809
 40
0.5594423381805772
 40
0.7793139576901722
 40
1.0
 40
1.0
 40
1.0
 40
1.0
 10
106.7747746166565
 20
102.2548409226647
 30
0.0
 10
106.8846897762873
 20
102.247798628625
 30
0.0
 10
107.1038142115813
 20
102.2337592667227
 30
0.0
 10
107.3742986744204
 20
102.0640006365292
 30
0.0
 10
107.5149265699101
 20
101.8104090287139
 30
0.0
 10
107.5260235132674
 20
101.6380529909891
 30
0.0
 10
107.5315822419503
 20
101.5517156618943
 30
0.0
  0
SPLINE
  5
122
330
1F
100
AcDbEntity
  8
0
  6
Continuous
 62
     7
370
    15
100
AcDbSpline
210
0.0
220
0.0
230
1.0
 70
     8
 71
     3
 72
     9
 73
     5
 74
     0
 42
0.00000001
 43
0.00000001
 12
1.0
 22
0.0
 32
0.0
 13
1.0
 23
0.0
 33
0.0
 40
0.0
 40
0.0
 40
0.0
 40
0.0
 40
0.558436933143394
 40
1.0
 40
1.0
 40
1.0
 40
1.0
 10
106.272769397197
 20
102.1186228889337
 30
0.0
 10
106.3608222372138
 20
102.1654175703791
 30
0.0
 10
106.5184995590218
 20
102.2492133916583
 30
0.0
 10
106.6962753799532
 20
102.2531171619031
 30
0.0
 10
106.7747746166565
 20
102.2548409226647
 30
0.0
  0
LINE
  5
123
330
1F
100
AcDbEntity
  8
0
  6
Continuous
 62
     7
370
    15
100
AcDbLine
 10
106.0564268884
 20
102.2912989418
 30
0.0
 11
106.2727693972
 21
102.1186228889
 31
0.0
  0
LINE
  5
124
330
1F
100
AcDbEntity
  8
0
  6
Continuous
 62
     7
370
    15
100
AcDbLine
 10
105.9999365863
 20
102.2063632543
 30
0.0
 11
106.0564268884
 21
102.2912989418
 31
0.0
  0
LINE
  5
125
330
1F
100
AcDbEntity
  8
0
  6
Continuous
 62
     7
370
    15
100
AcDbLine
 10
106.1846290287
 20
102.0396965604
 30
0.0
 11
105.9999365863
 21
102.2063632543
 31
0.0
  0
LINE
  5
126
330
1F
100
AcDbEntity
  8
0
  6
Continuous
 62
     7
370
    15
100
AcDbLine
 10
107.9674784598
 20
98.4531584244
 30
0.0
 11
107.9674784598
 21
98.2804819058
 31
0.0
  0
SPLINE
  5
127
330
1F
100
AcDbEntity
  8
0
  6
Continuous
 62
     7
370
    15
100
AcDbSpline
210
0.0
220
0.0
230
1.0
 70
     8
 71
     3
 72
    11
 73
     7
 74
     0
 42
0.00000001
 43
0.00000001
 12
1.0
 22
0.0
 32
0.0
 13
1.0
 23
0.0
 33
0.0
 40
0.0
 40
0.0
 40
0.0
 40
0.0
 40
0.2810660436419432
 40
0.5603654593856909
 40
0.7796795011118687
 40
1.0
 40
1.0
 40
1.0
 40
1.0
 10
107.6085094866135
 20
98.94714868174104
 30
0.0
 10
107.6117118629788
 20
98.88346114962637
 30
0.0
 10
107.6180964873176
 20
98.75648639049813
 30
0.0
 10
107.6837846074289
 20
98.58481495181125
 30
0.0
 10
107.8185284932328
 20
98.47941797845202
 30
0.0
 10
107.917752752758
 20
98.46192495800432
 30
0.0
 10
107.9674784597733
 20
98.45315842435865
 30
0.0
  0
LINE
  5
128
330
1F
100
AcDbEntity
  8
0
  6
Continuous
 62
     7
370
    15
100
AcDbLine
 10
107.4033801016
 20
98.9471486817
 30
0.0
 11
107.6085094866
 21
98.9471486817
 31
0.0
  0
LINE
  5
129
330
1F
100
AcDbEntity
  8
0
  6
Continuous
 62
     7
370
    15
100
AcDbLine
 10
107.4033801016
 20
98.5112506013
 30
0.0
 11
107.4033801016
 21
98.9471486817
 31
0.0
  0
LINE
  5
12A
330
1F
100
AcDbEntity
  8
0
  6
Continuous
 62
     7
370
    15
100
AcDbLine
 10
106.0444016513
 20
98.5112506013
 30
0.0
 11
107.4033801016
 21
98.5112506013
 31
0.0
  0
LINE
  5
12B
330
1F
100
AcDbEntity
  8
0
  6
Continuous
 62
     7
370
    15
100
AcDbLine
 10
106.0444016513
 20
98.2804819058
 30
0.0
 11
106.0444016513
 21
98.5112506013
 31
0.0
  0
LINE
  5
12C
330
1F
100
AcDbEntity
  8
0
  6
Continuous
 62
     7
370
    15
100
AcDbLine
 10
107.9674784598
 20
98.2804819058
 30
0.0
 11
106.0444016513
 21
98.2804819058
 31
0.0
  0
LINE
  5
12D
330
1F
100
AcDbEntity
  8
0
  6
Continuous
 62
     7
370
    15
100
AcDbLine
 10
103.3444081005
 20
99.2574048276
 30
0.0
 11
103.3444081005
 21
98.4574052553
 31
0.0
  0
LINE
  5
12E
330
1F
100
AcDbEntity
  8
0
  6
Continuous
 62
     7
370
    15
100
AcDbLine
 10
103.3444081005
 20
99.2574048276
 30
0.0
 11
105.8444057164
 21
99.2574048276
 31
0.0
  0
LINE
  5
12F
330
1F
100
AcDbEntity
  8
0
  6
Continuous
 62
     7
370
    15
100
AcDbLine
 10
105.8444057164
 20
99.2574048276
 30
0.0
 11
105.8444057164
 21
99.4574049536
 31
0.0
  0
LINE
  5
130
330
1F
100
AcDbEntity
  8
0
  6
Continuous
 62
     7
370
    15
100
AcDbLine
 10
105.8444057164
 20
99.4574049536
 30
0.0
 11
103.3444081005
 21
99.4574049536
 31
0.0
  0
LINE
  5
131
330
1F
100
AcDbEntity
  8
0
  6
Continuous
 62
     7
370
    15
100
AcDbLine
 10
103.3444081005
 20
100.2574049915
 30
0.0
 11
103.3444081005
 21
99.4574049536
 31
0.0
  0
LINE
  5
132
330
1F
100
AcDbEntity
  8
0
  6
Continuous
 62
     7
370
    15
100
AcDbLine
 10
103.3444081005
 20
100.2574049915
 30
0.0
 11
104.8444036898
 21
100.2574049915
 31
0.0
  0
LINE
  5
133
330
1F
100
AcDbEntity
  8
0
  6
Continuous
 62
     7
370
    15
100
AcDbLine
 10
104.8444036898
 20
100.2574049915
 30
0.0
 11
104.8444036898
 21
100.4574046518
 31
0.0
  0
LINE
  5
134
330
1F
100
AcDbEntity
  8
0
  6
Continuous
 62
     7
370
    15
100
AcDbLine
 10
104.8444036898
 20
100.4574046518
 30
0.0
 11
103.3444081005
 21
100.4574046518
 31
0.0
  0
LINE
  5
135
330
1F
100
AcDbEntity
  8
0
  6
Continuous
 62
     7
370
    15
100
AcDbLine
 10
103.3444081005
 20
101.2574046898
 30
0.0
 11
103.3444081005
 21
100.4574046518
 31
0.0
  0
LINE
  5
136
330
1F
100
AcDbEntity
  8
0
  6
Continuous
 62
     7
370
    15
100
AcDbLine
 10
103.3444081005
 20
101.2574046898
 30
0.0
 11
104.8444036898
 21
101.2574046898
 31
0.0
  0
LINE
  5
137
330
1F
100
AcDbEntity
  8
0
  6
Continuous
 62
     7
370
    15
100
AcDbLine
 10
104.8444036898
 20
101.2574046898
 30
0.0
 11
104.8444036898
 21
101.4574048157
 31
0.0
  0
LINE
  5
138
330
1F
100
AcDbEntity
  8
0
  6
Continuous
 62
     7
370
    15
100
AcDbLine
 10
104.8444036898
 20
101.4574048157
 30
0.0
 11
103.3444081005
 21
101.4574048157
 31
0.0
  0
LINE
  5
139
330
1F
100
AcDbEntity
  8
0
  6
Continuous
 62
     7
370
    15
100
AcDbLine
 10
103.3444081005
 20
102.2574048537
 30
0.0
 11
103.3444081005
 21
101.4574048157
 31
0.0
  0
LINE
  5
13A
330
1F
100
AcDbEntity
  8
0
  6
Continuous
 62
     7
370
    15
100
AcDbLine
 10
103.3444081005
 20
102.2574048537
 30
0.0
 11
104.8444036898
 21
102.2574048537
 31
0.0
  0
LINE
  5
13B
330
1F
100
AcDbEntity
  8
0
  6
Continuous
 62
     7
370
    15
100
AcDbLine
 10
104.8444036898
 20
102.2574048537
 30
0.0
 11
104.8444036898
 21
102.4574049796
 31
0.0
  0
LINE
  5
13C
330
1F
100
AcDbEntity
  8
0
  6
Continuous
 62
     7
370
    15
100
AcDbLine
 10
104.8444036898
 20
102.4574049796
 30
0.0
 11
103.3444081005
 21
102.4574049796
 31
0.0
  0
LINE
  5
13D
330
1F
100
AcDbEntity
  8
0
  6
Continuous
 62
     7
370
    15
100
AcDbLine
 10
103.3444081005
 20
103.2574047848
 30
0.0
 11
103.3444081005
 21
102.4574049796
 31
0.0
  0
LINE
  5
13E
330
1F
100
AcDbEntity
  8
0
  6
Continuous
 62
     7
370
    15
100
AcDbLine
 10
103.3444081005
 20
103.2574047848
 30
0.0
 11
104.8444036898
 21
103.2574047848
 31
0.0
  0
LINE
  5
13F
330
1F
100
AcDbEntity
  8
0
  6
Continuous
 62
     7
370
    15
100
AcDbLine
 10
104.8444036898
 20
103.2574047848
 30
0.0
 11
104.8444036898
 21
103.4574049107
 31
0.0
  0
LINE
  5
140
330
1F
100
AcDbEntity
  8
0
  6
Continuous
 62
     7
370
    15
100
AcDbLine
 10
104.8444036898
 20
103.4574049107
 30
0.0
 11
103.3444081005
 21
103.4574049107
 31
0.0
  0
LINE
  5
141
330
1F
100
AcDbEntity
  8
0
  6
Continuous
 62
     7
370
    15
100
AcDbLine
 10
103.3444081005
 20
104.2574049487
 30
0.0
 11
103.3444081005
 21
103.4574049107
 31
0.0
  0
LINE
  5
142
330
1F
100
AcDbEntity
  8
0
  6
Continuous
 62
     7
370
    15
100
AcDbLine
 10
103.3444081005
 20
104.2574049487
 30
0.0
 11
105.8444057164
 21
104.2574049487
 31
0.0
  0
LINE
  5
143
330
1F
100
AcDbEntity
  8
0
  6
Continuous
 62
     7
370
    15
100
AcDbLine
 10
105.8444057164
 20
104.2574049487
 30
0.0
 11
105.8444057164
 21
104.4574048418
 31
0.0
  0
LINE
  5
144
330
1F
100
AcDbEntity
  8
0
  6
Continuous
 62
     7
370
    15
100
AcDbLine
 10
105.8444057164
 20
104.4574048418
 30
0.0
 11
103.3444081005
 21
104.4574048418
 31
0.0
  0
LINE
  5
145
330
1F
100
AcDbEntity
  8
0
  6
Continuous
 62
     7
370
    15
100
AcDbLine
 10
103.3444081005
 20
105.2574048798
 30
0.0
 11
103.3444081005
 21
104.4574048418
 31
0.0
  0
LINE
  5
146
330
1F
100
AcDbEntity
  8
0
  6
Continuous
 62
     7
370
    15
100
AcDbLine
 10
103.3444081005
 20
105.2574048798
 30
0.0
 11
104.8444036898
 21
105.2574048798
 31
0.0
  0
LINE
  5
147
330
1F
100
AcDbEntity
  8
0
  6
Continuous
 62
     7
370
    15
100
AcDbLine
 10
104.8444036898
 20
105.2574048798
 30
0.0
 11
104.8444036898
 21
105.4574048893
 31
0.0
  0
LINE
  5
148
330
1F
100
AcDbEntity
  8
0
  6
Continuous
 62
     7
370
    15
100
AcDbLine
 10
104.8444036898
 20
105.4574048893
 30
0.0
 11
103.3444081005
 21
105.4574048893
 31
0.0
  0
LINE
  5
149
330
1F
100
AcDbEntity
  8
0
  6
Continuous
 62
     7
370
    15
100
AcDbLine
 10
103.3444081005
 20
106.2574048764
 30
0.0
 11
103.3444081005
 21
105.4574048893
 31
0.0
  0
LINE
  5
14A
330
1F
100
AcDbEntity
  8
0
  6
Continuous
 62
     7
370
    15
100
AcDbLine
 10
103.3444081005
 20
106.2574048764
 30
0.0
 11
104.8444036898
 21
106.2574048764
 31
0.0
  0
LINE
  5
14B
330
1F
100
AcDbEntity
  8
0
  6
Continuous
 62
     7
370
    15
100
AcDbLine
 10
104.8444036898
 20
106.2574048764
 30
0.0
 11
104.8444036898
 21
106.4574048713
 31
0.0
  0
LINE
  5
14C
330
1F
100
AcDbEntity
  8
0
  6
Continuous
 62
     7
370
    15
100
AcDbLine
 10
104.8444036898
 20
106.4574048713
 30
0.0
 11
103.3444081005
 21
106.4574048713
 31
0.0
  0
LINE
  5
14D
330
1F
100
AcDbEntity
  8
0
  6
Continuous
 62
     7
370
    15
100
AcDbLine
 10
103.3444081005
 20
107.2574048584
 30
0.0
 11
103.3444081005
 21
106.4574048713
 31
0.0
  0
LINE
  5
14E
330
1F
100
AcDbEntity
  8
0
  6
Continuous
 62
     7
370
    15
100
AcDbLine
 10
103.3444081005
 20
107.2574048584
 30
0.0
 11
104.8444036898
 21
107.2574048584
 31
0.0
  0
LINE
  5
14F
330
1F
100
AcDbEntity
  8
0
  6
Continuous
 62
     7
370
    15
100
AcDbLine
 10
104.8444036898
 20
107.2574048584
 30
0.0
 11
104.8444036898
 21
107.4574048679
 31
0.0
  0
LINE
  5
150
330
1F
100
AcDbEntity
  8
0
  6
Continuous
 62
     7
370
    15
100
AcDbLine
 10
104.8444036898
 20
107.4574048679
 30
0.0
 11
103.3444081005
 21
107.4574048679
 31
0.0
  0
LINE
  5
151
330
1F
100
AcDbEntity
  8
0
  6
Continuous
 62
     7
370
    15
100
AcDbLine
 10
103.3444081005
 20
108.2574049059
 30
0.0
 11
103.3444081005
 21
107.4574048679
 31
0.0
  0
LINE
  5
152
330
1F
100
AcDbEntity
  8
0
  6
Continuous
 62
     7
370
    15
100
AcDbLine
 10
103.3444081005
 20
108.2574049059
 30
0.0
 11
104.8444036898
 21
108.2574049059
 31
0.0
  0
LINE
  5
153
330
1F
100
AcDbEntity
  8
0
  6
Continuous
 62
     7
370
    15
100
AcDbLine
 10
104.8444036898
 20
108.2574049059
 30
0.0
 11
104.8444036898
 21
108.457404799
 31
0.0
  0
LINE
  5
154
330
1F
100
AcDbEntity
  8
0
  6
Continuous
 62
     7
370
    15
100
AcDbLine
 10
104.8444036898
 20
108.457404799
 30
0.0
 11
103.3444081005
 21
108.457404799
 31
0.0
  0
LINE
  5
155
330
1F
100
AcDbEntity
  8
0
  6
Continuous
 62
     7
370
    15
100
AcDbLine
 10
103.3444081005
 20
109.2574048369
 30
0.0
 11
103.3444081005
 21
108.457404799
 31
0.0
  0
LINE
  5
156
330
1F
100
AcDbEntity
  8
0
  6
Continuous
 62
     7
370
    15
100
AcDbLine
 10
103.3444081005
 20
109.2574048369
 30
0.0
 11
105.8444057164
 21
109.2574048369
 31
0.0
  0
LINE
  5
157
330
1F
100
AcDbEntity
  8
0
  6
Continuous
 62
     7
370
    15
100
AcDbLine
 10
105.8444057164
 20
109.2574048369
 30
0.0
 11
105.8444057164
 21
109.4574049629
 31
0.0
  0
LINE
  5
158
330
1F
100
AcDbEntity
  8
0
  6
Continuous
 62
     7
370
    15
100
AcDbLine
 10
105.8444057164
 20
109.4574049629
 30
0.0
 11
103.3444081005
 21
109.4574049629
 31
0.0
  0
LINE
  5
159
330
1F
100
AcDbEntity
  8
0
  6
Continuous
 62
     7
370
    15
100
AcDbLine
 10
103.3444081005
 20
110.257404768
 30
0.0
 11
103.3444081005
 21
109.4574049629
 31
0.0
  0
LINE
  5
15A
330
1F
100
AcDbEntity
  8
0
  6
Continuous
 62
     7
370
    15
100
AcDbLine
 10
103.3444081005
 20
110.257404768
 30
0.0
 11
104.8444036898
 21
110.257404768
 31
0.0
  0
LINE
  5
15B
330
1F
100
AcDbEntity
  8
0
  6
Continuous
 62
     7
370
    15
100
AcDbLine
 10
104.8444036898
 20
110.257404768
 30
0.0
 11
104.8444036898
 21
110.4574048939
 31
0.0
  0
LINE
  5
15C
330
1F
100
AcDbEntity
  8
0
  6
Continuous
 62
     7
370
    15
100
AcDbLine
 10
104.8444036898
 20
110.4574048939
 30
0.0
 11
103.3444081005
 21
110.4574048939
 31
0.0
  0
LINE
  5
15D
330
1F
100
AcDbEntity
  8
0
  6
Continuous
 62
     7
370
    15
100
AcDbLine
 10
103.3444081005
 20
111.2574049319
 30
0.0
 11
103.3444081005
 21
110.4574048939
 31
0.0
  0
LINE
  5
15E
330
1F
100
AcDbEntity
  8
0
  6
Continuous
 62
     7
370
    15
100
AcDbLine
 10
103.3444081005
 20
111.2574049319
 30
0.0
 11
104.8444036898
 21
111.2574049319
 31
0.0
  0
LINE
  5
15F
330
1F
100
AcDbEntity
  8
0
  6
Continuous
 62
     7
370
    15
100
AcDbLine
 10
104.8444036898
 20
111.2574049319
 30
0.0
 11
104.8444036898
 21
111.4574050579
 31
0.0
  0
LINE
  5
160
330
1F
100
AcDbEntity
  8
0
  6
Continuous
 62
     7
370
    15
100
AcDbLine
 10
104.8444036898
 20
111.4574050579
 30
0.0
 11
103.3444081005
 21
111.4574050579
 31
0.0
  0
LINE
  5
161
330
1F
100
AcDbEntity
  8
0
  6
Continuous
 62
     7
370
    15
100
AcDbLine
 10
103.3444081005
 20
128.3015086363
 30
0.0
 11
103.3444081005
 21
111.4574050579
 31
0.0
  0
LINE
  5
162
330
1F
100
AcDbEntity
  8
0
  6
Continuous
 62
     7
370
    15
100
AcDbLine
 10
114.21966297
 20
118.1074044715
 30
0.0
 11
114.21966297
 21
100.1074047807
 31
0.0
  0
LINE
  5
163
330
1F
100
AcDbEntity
  8
0
  6
Continuous
 62
     7
370
    15
100
AcDbLine
 10
137.7050702032
 20
100.1074047807
 30
0.0
 11
137.7050702032
 21
118.1074044715
 31
0.0
  0
SPLINE
  5
164
330
1F
100
AcDbEntity
  8
0
  6
Continuous
 62
     7
370
    15
100
AcDbSpline
210
0.0
220
0.0
230
1.0
 70
     8
 71
     3
 72
    12
 73
     8
 74
     0
 42
0.00000001
 43
0.00000001
 12
1.0
 22
0.0
 32
0.0
 13
1.0
 23
0.0
 33
0.0
 40
0.0
 40
0.0
 40
0.0
 40
0.0
 40
0.1811639045500574
 40
0.3635912223030192
 40
0.5301654930479566
 40
0.7426729705347291
 40
1.0
 40
1.0
 40
1.0
 40
1.0
 10
143.2385232803201
 20
128.301508636337
 30
0.0
 10
143.3033318826258
 20
128.2969384602288
 30
0.0
 10
143.4334010538915
 20
128.2877662362063
 30
0.0
 10
143.6066108764341
 20
128.1985325548433
 30
0.0
 10
143.7419747094266
 20
128.0472891253465
 30
0.0
 10
143.8302328859453
 20
127.8328862112657
 30
0.0
 10
143.8393894630835
 20
127.6650164678629
 30
0.0
 10
143.844404494462
 20
127.5730746846015
 30
0.0
  0
LINE
  5
165
330
1F
100
AcDbEntity
  8
0
  6
Continuous
 62
     7
370
    15
100
AcDbLine
 10
143.8444044945
 20
86.6417362402
 30
0.0
 11
143.8444044945
 21
127.5730746846
 31
0.0
  0
SPLINE
  5
166
330
1F
100
AcDbEntity
  8
0
  6
Continuous
 62
     7
370
    15
100
AcDbSpline
210
0.0
220
0.0
230
1.0
 70
     8
 71
     3
 72
    12
 73
     8
 74
     0
 42
0.00000001
 43
0.00000001
 12
1.0
 22
0.0
 32
0.0
 13
1.0
 23
0.0
 33
0.0
 40
0.0
 40
0.0
 40
0.0
 40
0.0
 40
0.2708399329588483
 40
0.4755707821756163
 40
0.6418902384086421
 40
0.8084757110803908
 40
1.0
 40
1.0
 40
1.0
 40
1.0
 10
143.8444044944624
 20
86.64173624024933
 30
0.0
 10
143.8388822870553
 20
86.54486122366924
 30
0.0
 10
143.8291857830457
 20
86.37475732907382
 30
0.0
 10
143.7368798236763
 20
86.16005519132415
 30
0.0
 10
143.6054743774435
 20
86.01681319931022
 30
0.0
 10
143.435395975162
 20
85.92796824098635
 30
0.0
 10
143.307125112489
 20
85.91841275449755
 30
0.0
 10
143.2385232803205
 20
85.91330228851382
 30
0.0
  0
LINE
  5
167
330
1F
100
AcDbEntity
  8
0
  6
Continuous
 62
     7
370
    15
100
AcDbLine
 10
143.2385232803
 20
85.9133022885
 30
0.0
 11
103.3444081005
 21
85.9133022885
 31
0.0
  0
LINE
  5
168
330
1F
100
AcDbEntity
  8
0
  6
Continuous
 62
     7
370
    15
100
AcDbLine
 10
103.3444081005
 20
96.2574052672
 30
0.0
 11
103.3444081005
 21
85.9133022885
 31
0.0
  0
LINE
  5
169
330
1F
100
AcDbEntity
  8
0
  6
Continuous
 62
     7
370
    15
100
AcDbLine
 10
103.3444081005
 20
96.2574052672
 30
0.0
 11
104.8444036898
 21
96.2574052672
 31
0.0
  0
LINE
  5
16A
330
1F
100
AcDbEntity
  8
0
  6
Continuous
 62
     7
370
    15
100
AcDbLine
 10
104.8444036898
 20
96.2574052672
 30
0.0
 11
104.8444036898
 21
96.4574049275
 31
0.0
  0
LINE
  5
16B
330
1F
100
AcDbEntity
  8
0
  6
Continuous
 62
     7
370
    15
100
AcDbLine
 10
104.8444036898
 20
96.4574049275
 30
0.0
 11
103.3444081005
 21
96.4574049275
 31
0.0
  0
LINE
  5
16C
330
1F
100
AcDbEntity
  8
0
  6
Continuous
 62
     7
370
    15
100
AcDbLine
 10
103.3444081005
 20
97.2574044998
 30
0.0
 11
103.3444081005
 21
96.4574049275
 31
0.0
  0
LINE
  5
16D
330
1F
100
AcDbEntity
  8
0
  6
Continuous
 62
     7
370
    15
100
AcDbLine
 10
103.3444081005
 20
97.2574044998
 30
0.0
 11
104.8444036898
 21
97.2574044998
 31
0.0
  0
LINE
  5
16E
330
1F
100
AcDbEntity
  8
0
  6
Continuous
 62
     7
370
    15
100
AcDbLine
 10
104.8444036898
 20
97.2574044998
 30
0.0
 11
104.8444036898
 21
97.4574050914
 31
0.0
  0
LINE
  5
16F
330
1F
100
AcDbEntity
  8
0
  6
Continuous
 62
     7
370
    15
100
AcDbLine
 10
104.8444036898
 20
97.4574050914
 30
0.0
 11
103.3444081005
 21
97.4574050914
 31
0.0
  0
LINE
  5
170
330
1F
100
AcDbEntity
  8
0
  6
Continuous
 62
     7
370
    15
100
AcDbLine
 10
103.3444081005
 20
98.2574046637
 30
0.0
 11
103.3444081005
 21
97.4574050914
 31
0.0
  0
LINE
  5
171
330
1F
100
AcDbEntity
  8
0
  6
Continuous
 62
     7
370
    15
100
AcDbLine
 10
103.3444081005
 20
98.2574046637
 30
0.0
 11
104.8444036898
 21
98.2574046637
 31
0.0
  0
LINE
  5
172
330
1F
100
AcDbEntity
  8
0
  6
Continuous
 62
     7
370
    15
100
AcDbLine
 10
104.8444036898
 20
98.2574046637
 30
0.0
 11
104.8444036898
 21
98.4574052553
 31
0.0
  0
LINE
  5
173
330
1F
100
AcDbEntity
  8
0
  6
Continuous
 62
     7
370
    15
100
AcDbLine
 10
104.8444036898
 20
98.4574052553
 30
0.0
 11
103.3444081005
 21
98.4574052553
 31
0.0
  0
LINE
  5
174
330
1F
100
AcDbEntity
  8
0
  6
Continuous
 62
     7
370
    15
100
AcDbLine
 10
114.68959344
 20
118.1074044715
 30
0.0
 11
114.68959344
 21
100.1074047807
 31
0.0
  0
LINE
  5
175
330
1F
100
AcDbEntity
  8
0
  6
Continuous
 62
     7
370
    15
100
AcDbLine
 10
137.610272741
 20
100.1074047807
 30
0.0
 11
137.610272741
 21
118.1074044715
 31
0.0
  0
LINE
  5
176
330
1F
100
AcDbEntity
  8
0
  6
Continuous
 62
     7
370
    15
100
AcDbLine
 10
135.4302775618
 20
100.1074047807
 30
0.0
 11
135.4302775618
 21
118.1074044715
 31
0.0
  0
SPLINE
  5
177
330
1F
100
AcDbEntity
  8
0
  6
Continuous
 62
     7
370
    15
100
AcDbSpline
210
0.0
220
0.0
230
1.0
 70
     8
 71
     3
 72
    12
 73
     8
 74
     0
 42
0.00000001
 43
0.00000001
 12
1.0
 22
0.0
 32
0.0
 13
1.0
 23
0.0
 33
0.0
 40
0.0
 40
0.0
 40
0.0
 40
0.0
 40
0.1251063440857342
 40
0.2499655763700485
 40
0.3749021895676825
 40
0.5001469491280411
 40
1.0
 40
1.0
 40
1.0
 40
1.0
 10
106.2495310363152
 20
96.94714835391547
 30
0.0
 10
106.2521136510784
 20
96.90716624336076
 30
0.0
 10
106.2572737793879
 20
96.82728099547559
 30
0.0
 10
106.3134191275151
 20
96.71763551472056
 30
0.0
 10
106.4064169772253
 20
96.63926929769791
 30
0.0
 10
106.6279932067213
 20
96.5450248557823
 30
0.0
 10
106.829769101403
 20
96.54050590806989
 30
0.0
 10
106.9911171254494
 20
96.53689237789419
 30
0.0
  0
SPLINE
  5
178
330
1F
100
AcDbEntity
  8
0
  6
Continuous
 62
     7
370
    15
100
AcDbSpline
210
0.0
220
0.0
230
1.0
 70
     8
 71
     3
 72
    12
 73
     8
 74
     0
 42
0.00000001
 43
0.00000001
 12
1.0
 22
0.0
 32
0.0
 13
1.0
 23
0.0
 33
0.0
 40
0.0
 40
0.0
 40
0.0
 40
0.0
 40
0.4998958143816452
 40
0.625163970185547
 40
0.7500830989209749
 40
0.8748823290249793
 40
0.9999999999999999
 40
0.9999999999999999
 40
0.9999999999999999
 40
0.9999999999999999
 10
106.9911171254495
 20
97.35740526125934
 30
0.0
 10
106.829907490016
 20
97.35374705806699
 30
0.0
 10
106.6283005694931
 20
97.34917215112502
 30
0.0
 10
106.4070806686553
 20
97.25443248709423
 30
0.0
 10
106.3146102433849
 20
97.17586933968484
 30
0.0
 10
106.2575361000447
 20
97.06693462442249
 30
0.0
 10
106.2522016565846
 20
96.9871110141538
 30
0.0
 10
106.2495310363152
 20
96.94714835391547
 30
0.0
  0
SPLINE
  5
179
330
1F
100
AcDbEntity
  8
0
  6
Continuous
 62
     7
370
    15
100
AcDbSpline
210
0.0
220
0.0
230
1.0
 70
     8
 71
     3
 72
    12
 73
     8
 74
     0
 42
0.00000001
 43
0.00000001
 12
1.0
 22
0.0
 32
0.0
 13
1.0
 23
0.0
 33
0.0
 40
0.0
 40
0.0
 40
0.0
 40
0.0
 40
0.1250760262702149
 40
0.2498562068401024
 40
0.3747885201433616
 40
0.5000571642289906
 40
0.9999999999999999
 40
0.9999999999999999
 40
0.9999999999999999
 40
0.9999999999999999
 10
107.7367116269448
 20
96.9471483539155
 30
0.0
 10
107.7339495019365
 20
96.98722870423462
 30
0.0
 10
107.7284317852486
 20
97.06729460173864
 30
0.0
 10
107.6708819437636
 20
97.1765694196068
 30
0.0
 10
107.5772942797799
 20
97.25446603912576
 30
0.0
 10
107.3553445135823
 20
97.3493868303371
 30
0.0
 10
107.1529552580144
 20
97.35384241033479
 30
0.0
 10
106.9911171254495
 20
97.35740526125934
 30
0.0
  0
SPLINE
  5
17A
330
1F
100
AcDbEntity
  8
0
  6
Continuous
 62
     7
370
    15
100
AcDbSpline
210
0.0
220
0.0
230
1.0
 70
     8
 71
     3
 72
    12
 73
     8
 74
     0
 42
0.00000001
 43
0.00000001
 12
1.0
 22
0.0
 32
0.0
 13
1.0
 23
0.0
 33
0.0
 40
0.0
 40
0.0
 40
0.0
 40
0.0
 40
0.4999069470786705
 40
0.6251723631750669
 40
0.75008751021008
 40
0.8748740821755833
 40
1.0
 40
1.0
 40
1.0
 40
1.0
 10
106.9911171254495
 20
96.53689237789419
 30
0.0
 10
107.1530137328056
 20
96.54049284382354
 30
0.0
 10
107.3554779818071
 20
96.54499550538235
 30
0.0
 10
107.5779962722985
 20
96.63908869517398
 30
0.0
 10
107.6716592397869
 20
96.71719607703254
 30
0.0
 10
107.7287250383595
 20
96.82686271433812
 30
0.0
 10
107.7340470219157
 20
96.90701686138661
 30
0.0
 10
107.7367116269448
 20
96.9471483539155
 30
0.0
  0
SPLINE
  5
17B
330
1F
100
AcDbEntity
  8
0
  6
Continuous
 62
     7
370
    15
100
AcDbSpline
210
0.0
220
0.0
230
1.0
 70
     8
 71
     3
 72
    11
 73
     7
 74
     0
 42
0.00000001
 43
0.00000001
 12
1.0
 22
0.0
 32
0.0
 13
1.0
 23
0.0
 33
0.0
 40
0.0
 40
0.0
 40
0.0
 40
0.0
 40
0.2799792521324866
 40
0.5580451761525074
 40
0.7787039596799201
 40
0.9999999999999999
 40
0.9999999999999999
 40
0.9999999999999999
 40
0.9999999999999999
 10
106.2238935884812
 20
101.5641357797494
 30
0.0
 10
106.2300472479971
 20
101.4878632870786
 30
0.0
 10
106.242312514021
 20
101.3358395343045
 30
0.0
 10
106.3958596424296
 20
101.1719576019761
 30
0.0
 10
106.5812886112585
 20
101.1090182004767
 30
0.0
 10
106.6995383140089
 20
101.1036717374082
 30
0.0
 10
106.7587484177926
 20
101.1009946513286
 30
0.0
  0
LINE
  5
17C
330
1F
100
AcDbEntity
  8
0
  6
Continuous
 62
     7
370
    15
100
AcDbLine
 10
107.0992921051
 20
101.1582863565
 30
0.0
 11
106.3532952723
 21
101.9014752518
 31
0.0
  0
SPLINE
  5
17D
330
1F
100
AcDbEntity
  8
0
  6
Continuous
 62
     7
370
    15
100
AcDbSpline
210
0.0
220
0.0
230
1.0
 70
     8
 71
     3
 72
     9
 73
     5
 74
     0
 42
0.00000001
 43
0.00000001
 12
1.0
 22
0.0
 32
0.0
 13
1.0
 23
0.0
 33
0.0
 40
0.0
 40
0.0
 40
0.0
 40
0.0
 40
0.5604634443475023
 40
1.0
 40
1.0
 40
1.0
 40
1.0
 10
106.7587484177926
 20
101.1009946513286
 30
0.0
 10
106.8240972076912
 20
101.102163420551
 30
0.0
 10
106.9406949814757
 20
101.1042487826459
 30
0.0
 10
107.0508673303735
 20
101.1417869567422
 30
0.0
 10
107.0992921051362
 20
101.1582863564899
 30
0.0
  0
SPLINE
  5
17E
330
1F
100
AcDbEntity
  8
0
  6
Continuous
 62
     7
370
    15
100
AcDbSpline
210
0.0
220
0.0
230
1.0
 70
     8
 71
     3
 72
     9
 73
     5
 74
     0
 42
0.00000001
 43
0.00000001
 12
1.0
 22
0.0
 32
0.0
 13
1.0
 23
0.0
 33
0.0
 40
0.0
 40
0.0
 40
0.0
 40
0.0
 40
0.5582085238473129
 40
1.0
 40
1.0
 40
1.0
 40
1.0
 10
106.3532952722885
 20
101.9014752517751
 30
0.0
 10
106.3098018548046
 20
101.8456082266487
 30
0.0
 10
106.2318857793134
 20
101.7455255107108
 30
0.0
 10
106.2263425430241
 20
101.6197169357805
 30
0.0
 10
106.2238935884812
 20
101.5641357797494
 30
0.0
  0
SPLINE
  5
17F
330
1F
100
AcDbEntity
  8
0
  6
Continuous
 62
     7
370
    15
100
AcDbSpline
210
0.0
220
0.0
230
1.0
 70
     8
 71
     3
 72
    11
 73
     7
 74
     0
 42
0.00000001
 43
0.00000001
 12
1.0
 22
0.0
 32
0.0
 13
1.0
 23
0.0
 33
0.0
 40
0.0
 40
0.0
 40
0.0
 40
0.0
 40
0.1875653872135762
 40
0.3744425199228775
 40
0.5612278093885726
 40
1.0
 40
1.0
 40
1.0
 40
1.0
 10
107.3264528569558
 20
101.561331101816
 30
0.0
 10
107.3235189126571
 20
101.6126190558309
 30
0.0
 10
107.3176617899073
 20
101.7150067672757
 30
0.0
 10
107.2518880979375
 20
101.8583577814394
 30
0.0
 10
107.075351265917
 20
102.0052793091838
 30
0.0
 10
106.8991565450155
 20
102.0163245327247
 30
0.0
 10
106.7755718287804
 20
102.0240717615297
 30
0.0
  0
SPLINE
  5
180
330
1F
100
AcDbEntity
  8
0
  6
Continuous
 62
     7
370
    15
100
AcDbSpline
210
0.0
220
0.0
230
1.0
 70
     8
 71
     3
 72
     9
 73
     5
 74
     0
 42
0.00000001
 43
0.00000001
 12
1.0
 22
0.0
 32
0.0
 13
1.0
 23
0.0
 33
0.0
 40
0.0
 40
0.0
 40
0.0
 40
0.0
 40
0.5583889576371617
 40
0.9999999999999999
 40
0.9999999999999999
 40
0.9999999999999999
 40
0.9999999999999999
 10
107.1918432173111
 20
101.2251935015729
 30
0.0
 10
107.2360904552641
 20
101.2806158610943
 30
0.0
 10
107.3153313452349
 20
101.3798699003502
 30
0.0
 10
107.3230459862816
 20
101.5057437984638
 30
0.0
 10
107.3264528569558
 20
101.561331101816
 30
0.0
  0
SPLINE
  5
181
330
1F
100
AcDbEntity
  8
0
  6
Continuous
 62
     7
370
    15
100
AcDbSpline
210
0.0
220
0.0
230
1.0
 70
     8
 71
     3
 72
     9
 73
     5
 74
     0
 42
0.00000001
 43
0.00000001
 12
1.0
 22
0.0
 32
0.0
 13
1.0
 23
0.0
 33
0.0
 40
0.0
 40
0.0
 40
0.0
 40
0.0
 40
0.5606500040445714
 40
1.0
 40
1.0
 40
1.0
 40
1.0
 10
106.7755718287804
 20
102.0240717615297
 30
0.0
 10
106.7122146632404
 20
102.0238117913322
 30
0.0
 10
106.5992080368551
 20
102.0233480970567
 30
0.0
 10
106.4943307552468
 20
101.9820984226977
 30
0.0
 10
106.4482529219963
 20
101.9639753784349
 30
0.0
  0
LINE
  5
182
330
1F
100
AcDbEntity
  8
0
  6
Continuous
 62
     7
370
    15
100
AcDbLine
 10
106.448252922
 20
101.9639753784
 30
0.0
 11
107.1918432173
 21
101.2251935016
 31
0.0
  0
SPLINE
  5
183
330
1F
100
AcDbEntity
  8
0
  6
Continuous
 62
     7
370
    15
100
AcDbSpline
210
0.0
220
0.0
230
1.0
 70
     8
 71
     3
 72
    12
 73
     8
 74
     0
 42
0.00000001
 43
0.00000001
 12
1.0
 22
0.0
 32
0.0
 13
1.0
 23
0.0
 33
0.0
 40
0.0
 40
0.0
 40
0.0
 40
0.0
 40
0.0130640499690013
 40
0.1608471677267499
 40
0.4410176128530835
 40
0.7204939602147411
 40
1.0
 40
1.0
 40
1.0
 40
1.0
 10
153.7754323837136
 20
138.1315569441135
 30
0.0
 10
153.7796691944456
 20
138.129975957178
 30
0.0
 10
153.8318336463619
 20
138.1105105332548
 30
0.0
 10
153.9749677214943
 20
138.0419326593287
 30
0.0
 10
154.1928687004905
 20
137.8737440787192
 30
0.0
 10
154.410486640208
 20
137.6063589059026
 30
0.0
 10
154.4927965177009
 20
137.4021105050278
 30
0.0
 10
154.5339536425446
 20
137.2999808798845
 30
0.0
  0
LINE
  5
184
330
1F
100
AcDbEntity
  8
0
  6
Continuous
 62
     7
370
    15
100
AcDbLine
 10
102.344406074
 20
129.6105160426
 30
0.0
 11
102.344406074
 21
119.7738627951
 31
0.0
  0
ARC
  5
185
330
1F
100
AcDbEntity
  8
0
  6
Continuous
 62
     7
370
    15
100
AcDbCircle
 10
74.2444045839
 20
107.1074048738
 30
0.0
 40
35.99999999999999
100
AcDbArc
 50
321.3114697239
 51
323.9334117402
  0
LINE
  5
186
330
1F
100
AcDbEntity
  8
0
  6
Continuous
 62
     7
370
    15
100
AcDbLine
 10
102.344406074
 20
94.4409462671
 30
0.0
 11
102.344406074
 21
84.6042948823
 31
0.0
  0
ARC
  5
187
330
1F
100
AcDbEntity
  8
0
  6
Continuous
 62
     7
370
    15
100
AcDbCircle
 10
90.6444045839
 20
97.1074048738
 30
0.0
 40
12.0
100
AcDbArc
 50
347.161431859
 51
0.0
  0
LINE
  5
188
330
1F
100
AcDbEntity
  8
0
  6
Continuous
 62
     7
370
    15
100
AcDbLine
 10
102.6444037017
 20
97.1074047546
 30
0.0
 11
102.6444037017
 21
117.1074052389
 31
0.0
  0
ARC
  5
189
330
1F
100
AcDbEntity
  8
0
  6
Continuous
 62
     7
370
    15
100
AcDbCircle
 10
90.6444045839
 20
117.1074048738
 30
0.0
 40
12.0
100
AcDbArc
 50
0.0
 51
12.838568141
  0
LINE
  5
18A
330
1F
100
AcDbEntity
  8
0
  6
Continuous
 62
     7
370
    15
100
AcDbLine
 10
103.3444081005
 20
110.4574048939
 30
0.0
 11
103.3444081005
 21
110.257404768
 31
0.0
  0
LINE
  5
18B
330
1F
100
AcDbEntity
  8
0
  6
Continuous
 62
     7
370
    15
100
AcDbLine
 10
103.3444081005
 20
98.4574052553
 30
0.0
 11
103.3444081005
 21
98.2574046637
 31
0.0
  0
LINE
  5
18C
330
1F
100
AcDbEntity
  8
0
  6
Continuous
 62
     7
370
    15
100
AcDbLine
 10
103.3444081005
 20
109.4574049629
 30
0.0
 11
103.3444081005
 21
109.2574048369
 31
0.0
  0
LINE
  5
18D
330
1F
100
AcDbEntity
  8
0
  6
Continuous
 62
     7
370
    15
100
AcDbLine
 10
103.3444081005
 20
97.4574050914
 30
0.0
 11
103.3444081005
 21
97.2574044998
 31
0.0
  0
LINE
  5
18E
330
1F
100
AcDbEntity
  8
0
  6
Continuous
 62
     7
370
    15
100
AcDbLine
 10
103.3444081005
 20
105.4574048893
 30
0.0
 11
103.3444081005
 21
105.2574048798
 31
0.0
  0
LINE
  5
18F
330
1F
100
AcDbEntity
  8
0
  6
Continuous
 62
     7
370
    15
100
AcDbLine
 10
103.3444081005
 20
103.4574049107
 30
0.0
 11
103.3444081005
 21
103.2574047848
 31
0.0
  0
LINE
  5
190
330
1F
100
AcDbEntity
  8
0
  6
Continuous
 62
     7
370
    15
100
AcDbLine
 10
103.3444081005
 20
104.4574048418
 30
0.0
 11
103.3444081005
 21
104.2574049487
 31
0.0
  0
LINE
  5
191
330
1F
100
AcDbEntity
  8
0
  6
Continuous
 62
     7
370
    15
100
AcDbLine
 10
103.3444081005
 20
100.4574046518
 30
0.0
 11
103.3444081005
 21
100.2574049915
 31
0.0
  0
LINE
  5
192
330
1F
100
AcDbEntity
  8
0
  6
Continuous
 62
     7
370
    15
100
AcDbLine
 10
103.3444081005
 20
96.4574049275
 30
0.0
 11
103.3444081005
 21
96.2574052672
 31
0.0
  0
LINE
  5
193
330
1F
100
AcDbEntity
  8
0
  6
Continuous
 62
     7
370
    15
100
AcDbLine
 10
103.3444081005
 20
108.457404799
 30
0.0
 11
103.3444081005
 21
108.2574049059
 31
0.0
  0
LINE
  5
194
330
1F
100
AcDbEntity
  8
0
  6
Continuous
 62
     7
370
    15
100
AcDbLine
 10
103.3444081005
 20
102.4574049796
 30
0.0
 11
103.3444081005
 21
102.2574048537
 31
0.0
  0
LINE
  5
195
330
1F
100
AcDbEntity
  8
0
  6
Continuous
 62
     7
370
    15
100
AcDbLine
 10
103.3444081005
 20
107.4574048679
 30
0.0
 11
103.3444081005
 21
107.2574048584
 31
0.0
  0
LINE
  5
196
330
1F
100
AcDbEntity
  8
0
  6
Continuous
 62
     7
370
    15
100
AcDbLine
 10
103.3444081005
 20
99.4574049536
 30
0.0
 11
103.3444081005
 21
99.2574048276
 31
0.0
  0
LINE
  5
197
330
1F
100
AcDbEntity
  8
0
  6
Continuous
 62
     7
370
    15
100
AcDbLine
 10
103.3444081005
 20
111.4574050579
 30
0.0
 11
103.3444081005
 21
111.2574049319
 31
0.0
  0
LINE
  5
198
330
1F
100
AcDbEntity
  8
0
  6
Continuous
 62
     7
370
    15
100
AcDbLine
 10
103.3444081005
 20
101.4574048157
 30
0.0
 11
103.3444081005
 21
101.2574046898
 31
0.0
  0
LINE
  5
199
330
1F
100
AcDbEntity
  8
0
  6
Continuous
 62
     7
370
    15
100
AcDbLine
 10
103.3444081005
 20
106.4574048713
 30
0.0
 11
103.3444081005
 21
106.2574048764
 31
0.0
  0
SPLINE
  5
19A
330
1F
100
AcDbEntity
  8
0
  6
Continuous
 62
     7
370
    15
100
AcDbSpline
210
0.0
220
0.0
230
1.0
 70
     8
 71
     3
 72
     9
 73
     5
 74
     0
 42
0.00000001
 43
0.00000001
 12
1.0
 22
0.0
 32
0.0
 13
1.0
 23
0.0
 33
0.0
 40
0.0
 40
0.0
 40
0.0
 40
0.0
 40
0.7935243240489154
 40
1.0
 40
1.0
 40
1.0
 40
1.0
 10
154.5444030818318
 20
137.2274755548056
 30
0.0
 10
154.5434162087038
 20
137.247338159103
 30
0.0
 10
154.5421725503834
 20
137.2723690292294
 30
0.0
 10
154.5353602225407
 20
137.2952554008368
 30
0.0
 10
154.5339536425446
 20
137.2999808798845
 30
0.0
  0
LINE
  5
19B
330
1F
100
AcDbEntity
  8
0
  6
Continuous
 62
     7
370
    15
100
AcDbLine
 10
154.5444030818
 20
110.10740479
 30
0.0
 11
154.5444030818
 21
137.2274755548
 31
0.0
  0
ARC
  5
19C
330
1F
100
AcDbEntity
  8
0
  6
Continuous
 62
     7
370
    15
100
AcDbCircle
 10
126.9085761715
 20
107.1074048738
 30
0.0
 40
35.99999999999982
100
AcDbArc
 50
284.2298602076
 51
288.1322680755
  0
ELLIPSE
  5
19D
330
1F
100
AcDbEntity
  8
0
  6
Continuous
 62
     7
370
    15
100
AcDbEllipse
 10
168.7836917122
 20
107.1074048738
 30
0.0
 11
134.3538290724838
 21
1.421085471520200E-12
 31
0.0
210
0.0
220
0.0
230
1.0
 40
0.2679491924
 41
4.458217348513898
 42
4.464031067663216
  0
ELLIPSE
  5
19E
330
1F
100
AcDbEntity
  8
0
  6
Continuous
 62
     7
370
    15
100
AcDbEllipse
 10
137.4267316484
 20
107.1074048738
 30
0.0
 11
-3.979039320256561E-13
 21
35.99999999999999
 31
0.0
210
0.0
220
0.0
230
1.0
 40
0.2679491924
 41
2.793845598778874
 42
2.887421021718991
  0
SPLINE
  5
19F
330
1F
100
AcDbEntity
  8
0
  6
Continuous
 62
     7
370
    15
100
AcDbSpline
210
0.0
220
0.0
230
1.0
 70
     8
 71
     3
 72
    14
 73
    10
 74
     0
 42
0.00000001
 43
0.00000001
 12
1.0
 22
0.0
 32
0.0
 13
1.0
 23
0.0
 33
0.0
 40
0.0
 40
0.0
 40
0.0
 40
0.0
 40
0.1560980732626204
 40
0.3124518554384387
 40
0.4632268630931523
 40
0.611287783951949
 40
0.7628357221625645
 40
0.9224332027999054
 40
1.0
 40
1.0
 40
1.0
 40
1.0
 10
133.5723449048382
 20
73.31773443625504
 30
0.0
 10
133.6007582888593
 20
73.32641221568936
 30
0.0
 10
133.657631601714
 20
73.34378198988753
 30
0.0
 10
133.7674302183098
 20
73.35549848406123
 30
0.0
 10
133.8786732299179
 20
73.35416367068392
 30
0.0
 10
133.9814759067081
 20
73.34001190083713
 30
0.0
 10
134.0668961852711
 20
73.31488725970996
 30
0.0
 10
134.1177187307642
 20
73.28704876695784
 30
0.0
 10
134.1341360226286
 20
73.26837015373026
 30
0.0
 10
134.1395054516178
 20
73.26226113842066
 30
0.0
  0
ARC
  5
1A0
330
1F
100
AcDbEntity
  8
0
  6
Continuous
 62
     7
370
    15
100
AcDbCircle
 10
121.152275276
 20
107.1074048738
 30
0.0
 40
35.99999999999906
100
AcDbArc
 50
286.2365031047
 51
290.1819154101
  0
ELLIPSE
  5
1A1
330
1F
100
AcDbEntity
  8
0
  6
Continuous
 62
     7
370
    15
100
AcDbEllipse
 10
168.7836917122
 20
107.1074048738
 30
0.0
 11
134.3538290724814
 21
1.421085471520200E-12
 31
0.0
210
0.0
220
0.0
230
1.0
 40
0.2679491924
 41
4.423138413716466
 42
4.42900854219787
  0
ELLIPSE
  5
1A2
330
1F
100
AcDbEntity
  8
0
  6
Continuous
 62
     7
370
    15
100
AcDbEllipse
 10
133.2128269292
 20
107.1074048738
 30
0.0
 11
-3.694822225952521E-13
 21
35.99999999999997
 31
0.0
210
0.0
220
0.0
230
1.0
 40
0.2679491924
 41
2.757658770523887
 42
2.852342086921562
  0
SPLINE
  5
1A3
330
1F
100
AcDbEntity
  8
0
  6
Continuous
 62
     7
370
    15
100
AcDbSpline
210
0.0
220
0.0
230
1.0
 70
     8
 71
     3
 72
    14
 73
    10
 74
     0
 42
0.00000001
 43
0.00000001
 12
1.0
 22
0.0
 32
0.0
 13
1.0
 23
0.0
 33
0.0
 40
0.0
 40
0.0
 40
0.0
 40
0.0
 40
0.1551012914878441
 40
0.3105169523046052
 40
0.4591752088450188
 40
0.6044756190741121
 40
0.7538140391700545
 40
0.9126903237774981
 40
1.0
 40
1.0
 40
1.0
 40
1.0
 10
129.0324938055854
 20
73.79006399319698
 30
0.0
 10
129.0606613097812
 20
73.79965965613475
 30
0.0
 10
129.117053409892
 20
73.81887043112052
 30
0.0
 10
129.2261995267829
 20
73.83201128706577
 30
0.0
 10
129.3366059186017
 20
73.83072953582237
 30
0.0
 10
129.4384255332529
 20
73.81552724438603
 30
0.0
 10
129.5235763803919
 20
73.78834084014893
 30
0.0
 10
129.5763710603164
 20
73.75728121248048
 30
0.0
 10
129.5935587503112
 20
73.735861602063
 30
0.0
 10
129.5996543523651
 20
73.7282651524358
 30
0.0
  0
ARC
  5
1A4
330
1F
100
AcDbEntity
  8
0
  6
Continuous
 62
     7
370
    15
100
AcDbCircle
 10
115.3959743805
 20
107.1074048738
 30
0.0
 40
36.00000000000119
100
AcDbArc
 50
288.2638349039
 51
292.2588902932
  0
ELLIPSE
  5
1A5
330
1F
100
AcDbEntity
  8
0
  6
Continuous
 62
     7
370
    15
100
AcDbEllipse
 10
168.7836917122
 20
107.1074048738
 30
0.0
 11
134.3538290724838
 21
1.421085471520201E-12
 31
0.0
210
0.0
220
0.0
230
1.0
 40
0.2679491924
 41
4.387689198885656
 42
4.393624927271026
  0
ELLIPSE
  5
1A6
330
1F
100
AcDbEntity
  8
0
  6
Continuous
 62
     7
370
    15
100
AcDbEllipse
 10
128.99892221
 20
107.1074048738
 30
0.0
 11
-3.410605131648481E-13
 21
35.99999999999999
 31
0.0
210
0.0
220
0.0
230
1.0
 40
0.2679491924
 41
2.72093472484648
 42
2.816892872090755
  0
SPLINE
  5
1A7
330
1F
100
AcDbEntity
  8
0
  6
Continuous
 62
     7
370
    15
100
AcDbSpline
210
0.0
220
0.0
230
1.0
 70
     8
 71
     3
 72
    14
 73
    10
 74
     0
 42
0.00000001
 43
0.00000001
 12
1.0
 22
0.0
 32
0.0
 13
1.0
 23
0.0
 33
0.0
 40
0.0
 40
0.0
 40
0.0
 40
0.0
 40
0.1540348764206138
 40
0.3084348870528809
 40
0.4547803462731448
 40
0.5970191152171419
 40
0.7438455480461551
 40
0.901765413184654
 40
1.0
 40
1.0
 40
1.0
 40
1.0
 10
124.4926427063327
 20
74.31427566812559
 30
0.0
 10
124.5205428055862
 20
74.32481764642881
 30
0.0
 10
124.5764091402888
 20
74.34592659242091
 30
0.0
 10
124.6848558661049
 20
74.3605661496845
 30
0.0
 10
124.7943534930534
 20
74.3594075536791
 30
0.0
 10
124.8950646388428
 20
74.34322923325362
 30
0.0
 10
124.979861019444
 20
74.31410864627006
 30
0.0
 10
125.0348387916879
 20
74.27968101906131
 30
0.0
 10
125.0528832491483
 20
74.25524089020301
 30
0.0
 10
125.0598032531124
 20
74.24586816237493
 30
0.0
  0
ARC
  5
1A8
330
1F
100
AcDbEntity
  8
0
  6
Continuous
 62
     7
370
    15
100
AcDbCircle
 10
109.6396734849
 20
107.1074048738
 30
0.0
 40
35.99999999999996
100
AcDbArc
 50
290.3151345267
 51
294.3671662542
  0
ELLIPSE
  5
1A9
330
1F
100
AcDbEntity
  8
0
  6
Continuous
 62
     7
370
    15
100
AcDbEllipse
 10
168.7836917122
 20
107.1074048738
 30
0.0
 11
134.3538290724789
 21
1.421085471520200E-12
 31
0.0
210
0.0
220
0.0
230
1.0
 40
0.2679491924
 41
4.35181161024057
 42
4.357822994908364
  0
ELLIPSE
  5
1AA
330
1F
100
AcDbEntity
  8
0
  6
Continuous
 62
     7
370
    15
100
AcDbEllipse
 10
124.7850174908
 20
107.1074048738
 30
0.0
 11
-3.694822225952521E-13
 21
35.99999999999997
 31
0.0
210
0.0
220
0.0
230
1.0
 40
0.2679491924
 41
2.683596822015749
 42
2.781015283445655
  0
SPLINE
  5
1AB
330
1F
100
AcDbEntity
  8
0
  6
Continuous
 62
     7
370
    15
100
AcDbSpline
210
0.0
220
0.0
230
1.0
 70
     8
 71
     3
 72
    14
 73
    10
 74
     0
 42
0.00000001
 43
0.00000001
 12
1.0
 22
0.0
 32
0.0
 13
1.0
 23
0.0
 33
0.0
 40
0.0
 40
0.0
 40
0.0
 40
0.0
 40
0.1528961862034209
 40
0.3062320390005229
 40
0.4500645128832644
 40
0.5889215359893404
 40
0.7329075244672983
 40
0.889595818170105
 40
1.0
 40
1.0
 40
1.0
 40
1.0
 10
119.9527953323703
 20
74.89291010902444
 30
0.0
 10
119.9804051754143
 20
74.90442548454753
 30
0.0
 10
120.0357042560637
 20
74.92748934908106
 30
0.0
 10
120.1434115498949
 20
74.94374074403524
 30
0.0
 10
120.2519337133099
 20
74.9427561908653
 30
0.0
 10
120.3514008703951
 20
74.92568890584435
 30
0.0
 10
120.4357328798682
 20
74.89477515216595
 30
0.0
 10
120.4931214917752
 20
74.85681299342103
 30
0.0
 10
120.5121025153672
 20
74.82903123350596
 30
0.0
 10
120.5199484285694
 20
74.81754748628656
 30
0.0
  0
ARC
  5
1AC
330
1F
100
AcDbEntity
  8
0
  6
Continuous
 62
     7
370
    15
100
AcDbCircle
 10
103.8833725894
 20
107.1074048738
 30
0.0
 40
35.99999999999991
100
AcDbArc
 50
292.394005485
 51
296.5112005806
  0
ELLIPSE
  5
1AD
330
1F
100
AcDbEntity
  8
0
  6
Continuous
 62
     7
370
    15
100
AcDbEllipse
 10
168.7836917122
 20
107.1074048738
 30
0.0
 11
134.3538290724841
 21
1.421085471520200E-12
 31
0.0
210
0.0
220
0.0
230
1.0
 40
0.2679491924
 41
4.31544169302345
 42
4.321539851961859
  0
ELLIPSE
  5
1AE
330
1F
100
AcDbEntity
  8
0
  6
Continuous
 62
     7
370
    15
100
AcDbEllipse
 10
120.5711127716
 20
107.1074048738
 30
0.0
 11
-3.836930773104541E-13
 21
35.99999999999999
 31
0.0
210
0.0
220
0.0
230
1.0
 40
0.2679491924
 41
2.645558248972397
 42
2.744645366228541
  0
SPLINE
  5
1AF
330
1F
100
AcDbEntity
  8
0
  6
Continuous
 62
     7
370
    15
100
AcDbSpline
210
0.0
220
0.0
230
1.0
 70
     8
 71
     3
 72
    14
 73
    10
 74
     0
 42
0.00000001
 43
0.00000001
 12
1.0
 22
0.0
 32
0.0
 13
1.0
 23
0.0
 33
0.0
 40
0.0
 40
0.0
 40
0.0
 40
0.0
 40
0.1517093179253311
 40
0.3039373417755509
 40
0.4450375841173061
 40
0.5801931838897684
 40
0.7209815476583438
 40
0.8761091606240407
 40
1.0
 40
1.0
 40
1.0
 40
1.0
 10
115.4129405078273
 20
75.52895127342259
 30
0.0
 10
115.4402414603524
 20
75.54147899516983
 30
0.0
 10
115.4949367094766
 20
75.56657727191666
 30
0.0
 10
115.6018733312078
 20
75.58456104968187
 30
0.0
 10
115.7093576948426
 20
75.58380568603543
 30
0.0
 10
115.807436764316
 20
75.56595263269092
 30
0.0
 10
115.8911743328088
 20
75.53338785748822
 30
0.0
 10
115.9512158000314
 20
75.49171120064804
 30
0.0
 10
115.9712191089469
 20
75.46022103611152
 30
0.0
 10
115.9801010546069
 20
75.44623865292586
 30
0.0
  0
ARC
  5
1B0
330
1F
100
AcDbEntity
  8
0
  6
Continuous
 62
     7
370
    15
100
AcDbCircle
 10
98.1270716938
 20
107.1074048738
 30
0.0
 40
35.99999999999989
100
AcDbArc
 50
294.5044495753
 51
298.6960494412
  0
ELLIPSE
  5
1B1
330
1F
100
AcDbEntity
  8
0
  6
Continuous
 62
     7
370
    15
100
AcDbEllipse
 10
168.7836917122
 20
107.1074048738
 30
0.0
 11
134.3538290724818
 21
1.421085471520200E-12
 31
0.0
210
0.0
220
0.0
230
1.0
 40
0.2679491924
 41
4.278508298135347
 42
4.28470565390734
  0
ELLIPSE
  5
1B2
330
1F
100
AcDbEntity
  8
0
  6
Continuous
 62
     7
370
    15
100
AcDbEllipse
 10
116.3572080524
 20
107.1074048738
 30
0.0
 11
-3.694822225952521E-13
 21
36.0
 31
0.0
210
0.0
220
0.0
230
1.0
 40
0.2679491924
 41
2.606719509825438
 42
2.70771197134044
  0
SPLINE
  5
1B3
330
1F
100
AcDbEntity
  8
0
  6
Continuous
 62
     7
370
    15
100
AcDbSpline
210
0.0
220
0.0
230
1.0
 70
     8
 71
     3
 72
    14
 73
    10
 74
     0
 42
0.00000001
 43
0.00000001
 12
1.0
 22
0.0
 32
0.0
 13
1.0
 23
0.0
 33
0.0
 40
0.0
 40
0.0
 40
0.0
 40
0.0
 40
0.1504847920142237
 40
0.3015763041761617
 40
0.4397390355923324
 40
0.5708566065082878
 40
0.7080665729943179
 40
0.8612362183658864
 40
1.0
 40
1.0
 40
1.0
 40
1.0
 10
110.8730856832843
 20
76.22595122561962
 30
0.0
 10
110.9000583509769
 20
76.23953669107276
 30
0.0
 10
110.9541124339685
 20
76.2667623954581
 30
0.0
 10
111.0602598468275
 20
76.28662070002694
 30
0.0
 10
111.1666546135847
 20
76.28615758636137
 30
0.0
 10
111.2631924969044
 20
76.26760715543573
 30
0.0
 10
111.3461856457276
 20
76.23355560551273
 30
0.0
 10
111.409102384003
 20
76.18795326952966
 30
0.0
 10
111.4302121788388
 20
76.15233601695628
 30
0.0
 10
111.4402462300639
 20
76.13540618227036
 30
0.0
  0
ARC
  5
1B4
330
1F
100
AcDbEntity
  8
0
  6
Continuous
 62
     7
370
    15
100
AcDbCircle
 10
92.3707707983
 20
107.1074048738
 30
0.0
 40
35.99999999999987
100
AcDbArc
 50
296.6509589667
 51
300.9275164702
  0
ELLIPSE
  5
1B5
330
1F
100
AcDbEntity
  8
0
  6
Continuous
 62
     7
370
    15
100
AcDbEllipse
 10
168.7836917122
 20
107.1074048738
 30
0.0
 11
134.353829072485
 21
1.421085471520200E-12
 31
0.0
210
0.0
220
0.0
230
1.0
 40
0.2679491924
 41
4.240931411451331
 42
4.247241997602368
  0
ELLIPSE
  5
1B6
330
1F
100
AcDbEntity
  8
0
  6
Continuous
 62
     7
370
    15
100
AcDbEllipse
 10
112.1433033333
 20
107.1074048738
 30
0.0
 11
-3.694822225952521E-13
 21
36.0
 31
0.0
210
0.0
220
0.0
230
1.0
 40
0.2679491924
 41
2.566965135385657
 42
2.670135084656421
  0
SPLINE
  5
1B7
330
1F
100
AcDbEntity
  8
0
  6
Continuous
 62
     7
370
    15
100
AcDbSpline
210
0.0
220
0.0
230
1.0
 70
     8
 71
     3
 72
    14
 73
    10
 74
     0
 42
0.00000001
 43
0.00000001
 12
1.0
 22
0.0
 32
0.0
 13
1.0
 23
0.0
 33
0.0
 40
0.0
 40
0.0
 40
0.0
 40
0.0
 40
0.1492403531047784
 40
0.2991968797179455
 40
0.434216489321429
 40
0.5609253773990807
 40
0.6941463301793684
 40
0.8449215041302791
 40
1.0
 40
1.0
 40
1.0
 40
1.0
 10
106.3332383093219
 20
76.98813817010428
 30
0.0
 10
106.3598649812504
 20
77.00283867041173
 30
0.0
 10
106.4132461009847
 20
77.03231021567935
 30
0.0
 10
106.5186038034689
 20
77.05421227491318
 30
0.0
 10
106.6238674490802
 20
77.05409641220099
 30
0.0
 10
106.7186928460286
 20
77.03494477813108
 30
0.0
 10
106.8007554330244
 20
76.99957691158221
 30
0.0
 10
106.8667979968504
 20
76.94980844862415
 30
0.0
 10
106.8890940023715
 20
76.9095852841217
 30
0.0
 10
106.9003988561015
 20
76.88919073448685
 30
0.0
  0
ARC
  5
1B8
330
1F
100
AcDbEntity
  8
0
  6
Continuous
 62
     7
370
    15
100
AcDbCircle
 10
86.6144699028
 20
107.1074048738
 30
0.0
 40
35.99999999999985
100
AcDbArc
 50
298.8386331754
 51
303.2123480488
  0
ELLIPSE
  5
1B9
330
1F
100
AcDbEntity
  8
0
  6
Continuous
 62
     7
370
    15
100
AcDbEllipse
 10
168.7836917122
 20
107.1074048738
 30
0.0
 11
134.3538290724817
 21
1.421085471520200E-12
 31
0.0
210
0.0
220
0.0
230
1.0
 40
0.2679491924
 41
4.202620025729029
 42
4.209059879698565
  0
ELLIPSE
  5
1BA
330
1F
100
AcDbEntity
  8
0
  6
Continuous
 62
     7
370
    15
100
AcDbEllipse
 10
107.9293986141
 20
107.1074048738
 30
0.0
 11
-3.694822225952521E-13
 21
35.99999999999999
 31
0.0
210
0.0
220
0.0
230
1.0
 40
0.2679491924
 41
2.524108664341453
 42
2.631823698934119
  0
LINE
  5
1BB
330
1F
100
AcDbEntity
  8
0
  6
Continuous
 62
     7
370
    15
100
AcDbLine
 10
102.344406074
 20
84.6042948823
 30
0.0
 11
102.344406074
 21
77.7552443604
 31
0.0
  0
ELLIPSE
  5
1BC
330
1F
100
AcDbEntity
  8
0
  6
Continuous
 62
     7
370
    15
100
AcDbEllipse
 10
141.6406363676
 20
107.1074048738
 30
0.0
 11
-3.694822225952521E-13
 21
36.0
 31
0.0
210
0.0
220
0.0
230
1.0
 40
0.2679491924
 41
2.829563624626994
 42
2.855933635488668
  0
SPLINE
  5
1BD
330
1F
100
AcDbEntity
  8
0
  6
Continuous
 62
     7
370
    15
100
AcDbSpline
210
0.0
220
0.0
230
1.0
 70
     8
 71
     3
 72
    14
 73
    10
 74
     0
 42
0.00000001
 43
0.00000001
 12
1.0
 22
0.0
 32
0.0
 13
1.0
 23
0.0
 33
0.0
 40
0.0
 40
0.0
 40
0.0
 40
0.0
 40
0.1570147924886195
 40
0.3142293509732779
 40
0.4669238728673361
 40
0.6174565341573871
 40
0.7709327984835878
 40
0.9310610630495142
 40
1.0
 40
1.0
 40
1.0
 40
1.0
 10
138.1121960040909
 20
72.89514123008786
 30
0.0
 10
138.1408330875975
 20
72.9029216104837
 30
0.0
 10
138.1981436888564
 20
72.91849227005888
 30
0.0
 10
138.3085415361933
 20
72.92886822511163
 30
0.0
 10
138.4205472534912
 20
72.9275188587442
 30
0.0
 10
138.5242184497848
 20
72.91450636555959
 30
0.0
 10
138.6098349430958
 20
72.89154391855452
 30
0.0
 10
138.6588932509016
 20
72.86679919549805
 30
0.0
 10
138.6746226948714
 20
72.85062041685926
 30
0.0
 10
138.6793565508705
 20
72.84575133131086
 30
0.0
  0
LINE
  5
1BE
330
1F
100
AcDbEntity
  8
0
  6
Continuous
 62
     7
370
    15
100
AcDbLine
 10
139.3767234442
 20
72.5740212064
 30
0.0
 11
139.22819612
 21
72.4376085262
 31
0.0
  0
SPLINE
  5
1BF
330
1F
100
AcDbEntity
  8
0
  6
Continuous
 62
     7
370
    15
100
AcDbSpline
210
0.0
220
0.0
230
1.0
 70
     8
 71
     3
 72
     9
 73
     5
 74
     0
 42
0.00000001
 43
0.00000001
 12
1.0
 22
0.0
 32
0.0
 13
1.0
 23
0.0
 33
0.0
 40
0.0
 40
0.0
 40
0.0
 40
0.0
 40
0.8476709205227296
 40
1.0
 40
1.0
 40
1.0
 40
1.0
 10
138.922442918716
 20
72.56626142666876
 30
0.0
 10
139.0084336145522
 20
72.49273591765345
 30
0.0
 10
139.1098771037108
 20
72.40599764784234
 30
0.0
 10
139.212555252131
 20
72.43342981017514
 30
0.0
 10
139.2281961199623
 20
72.43760852621139
 30
0.0
  0
LINE
  5
1C0
330
1F
100
AcDbEntity
  8
0
  6
Continuous
 62
     7
370
    15
100
AcDbLine
 10
118.5265753922
 20
118.1074044715
 30
0.0
 11
118.5265753922
 21
100.1074047807
 31
0.0
  0
ARC
  5
1C1
330
1F
100
AcDbEntity
  8
0
  6
Continuous
 62
     7
370
    15
100
AcDbCircle
 10
124.8050921169
 20
99.9363172787
 30
0.0
 40
6.280847331032938
100
AcDbArc
 50
178.439095249
 51
1.560904751
  0
LINE
  5
1C2
330
1F
100
AcDbEntity
  8
0
  6
Continuous
 62
     7
370
    15
100
AcDbLine
 10
131.0836088416
 20
100.1074047807
 30
0.0
 11
131.0836088416
 21
118.1074044715
 31
0.0
  0
ARC
  5
1C3
330
1F
100
AcDbEntity
  8
0
  6
Continuous
 62
     7
370
    15
100
AcDbCircle
 10
124.8050921169
 20
118.2784916133
 30
0.0
 40
6.28084732122184
100
AcDbArc
 50
358.4390985335
 51
181.5609014665
  0
ELLIPSE
  5
1C4
330
1F
100
AcDbEntity
  8
0
  6
Continuous
 62
     7
370
    15
100
AcDbEllipse
 10
121.6671598396
 20
100.1074048738
 30
0.0
 11
9.192388155425249
 21
9.947598300641401E-14
 31
0.0
210
0.0
220
0.0
230
1.0
 40
0.7071067812
 41
4.916634060963816
 42
5.024819137868267
  0
SPLINE
  5
1C5
330
1F
100
AcDbEntity
  8
0
  6
Continuous
 62
     7
370
    15
100
AcDbSpline
210
0.0
220
0.0
230
1.0
 70
     8
 71
     3
 72
    13
 73
     9
 74
     0
 42
0.00000001
 43
0.00000001
 12
1.0
 22
0.0
 32
0.0
 13
1.0
 23
0.0
 33
0.0
 40
0.0
 40
0.0
 40
0.0
 40
0.0
 40
0.1568175153429587
 40
0.3133974492957033
 40
0.4762672126351809
 40
0.6474528680080769
 40
0.8230746969993522
 40
0.9999999999999999
 40
0.9999999999999999
 40
0.9999999999999999
 40
0.9999999999999999
 10
124.4926427063325
 20
93.92207386450096
 30
0.0
 10
124.5223944931179
 20
93.92937788027596
 30
0.0
 10
124.5818529921902
 20
93.94397484610911
 30
0.0
 10
124.6937528173953
 20
93.97837956047238
 30
0.0
 10
124.8095431342244
 20
94.01952642331338
 30
0.0
 10
124.9195339952185
 20
94.06509735528483
 30
0.0
 10
125.0130292590277
 20
94.11083164185156
 30
0.0
 10
125.0441735384584
 20
94.13262931625687
 30
0.0
 10
125.0598032531122
 20
94.14356844977662
 30
0.0
  0
ELLIPSE
  5
1C6
330
1F
100
AcDbEntity
  8
0
  6
Continuous
 62
     7
370
    15
100
AcDbEllipse
 10
123.7216633969
 20
100.1074048738
 30
0.0
 11
-7.105427357601002E-14
 21
6.5
 31
0.0
210
0.0
220
0.0
230
1.0
 40
0.5176380902
 41
3.550606993685875
 42
3.854223474160678
  0
ARC
  5
1C7
330
1F
100
AcDbEntity
  8
0
  6
Continuous
 62
     7
370
    15
100
AcDbCircle
 10
121.6506590795
 20
99.9607738295
 30
0.0
 40
6.403776412474724
100
AcDbArc
 50
311.8309217486
 51
321.7279781899
  0
ELLIPSE
  5
1C8
330
1F
100
AcDbEntity
  8
0
  6
Continuous
 62
     7
370
    15
100
AcDbEllipse
 10
119.56020748
 20
100.1074048738
 30
0.0
 11
9.19238815542441
 21
9.947598300641403E-14
 31
0.0
210
0.0
220
0.0
230
1.0
 40
0.7071067812
 41
5.598040645238338
 42
6.283185307179586
  0
ARC
  5
1C9
330
1F
100
AcDbEntity
  8
0
  6
Continuous
 62
     7
370
    15
100
AcDbCircle
 10
121.6506399416
 20
118.254028012
 30
0.0
 40
6.403795738901587
100
AcDbArc
 50
38.2719645351
 51
48.1690032228
  0
ELLIPSE
  5
1CA
330
1F
100
AcDbEntity
  8
0
  6
Continuous
 62
     7
370
    15
100
AcDbEllipse
 10
123.7216633969
 20
118.1074048738
 30
0.0
 11
-7.105427357601002E-14
 21
6.500000000000014
 31
0.0
210
0.0
220
0.0
230
1.0
 40
0.5176380902
 41
5.57055448660873
 42
5.874170967083548
  0
SPLINE
  5
1CB
330
1F
100
AcDbEntity
  8
0
  6
Continuous
 62
     7
370
    15
100
AcDbSpline
210
0.0
220
0.0
230
1.0
 70
     8
 71
     3
 72
    13
 73
     9
 74
     0
 42
0.00000001
 43
0.00000001
 12
1.0
 22
0.0
 32
0.0
 13
1.0
 23
0.0
 33
0.0
 40
0.0
 40
0.0
 40
0.0
 40
0.0
 40
0.161267524516859
 40
0.3221630252601907
 40
0.4922364637237406
 40
0.6678096229564067
 40
0.8403995385005028
 40
1.0
 40
1.0
 40
1.0
 40
1.0
 10
125.0598032531118
 20
124.0712403367571
 30
0.0
 10
125.0459355256563
 20
124.0810707564713
 30
0.0
 10
125.0182320618377
 20
124.1007089183652
 30
0.0
 10
124.9346022328641
 20
124.1427192541008
 30
0.0
 10
124.8284169278642
 20
124.1880322855233
 30
0.0
 10
124.7066029386506
 20
124.2323258781888
 30
0.0
 10
124.5861337776236
 20
124.2697526970707
 30
0.0
 10
124.5229832839818
 20
124.2852777783245
 30
0.0
 10
124.4926427063322
 20
124.2927367846779
 30
0.0
  0
ELLIPSE
  5
1CC
330
1F
100
AcDbEntity
  8
0
  6
Continuous
 62
     7
370
    15
100
AcDbEllipse
 10
121.6671598396
 20
118.1074048738
 30
0.0
 11
9.192388155425249
 21
1.136868377216160E-13
 31
0.0
210
0.0
220
0.0
230
1.0
 40
0.7071067812
 41
1.258366169311326
 42
1.366551246215767
  0
ELLIPSE
  5
1CD
330
1F
100
AcDbEntity
  8
0
  6
Continuous
 62
     7
370
    15
100
AcDbEllipse
 10
119.56020748
 20
118.1074048738
 30
0.0
 11
9.192388155424439
 21
9.947598300641403E-14
 31
0.0
210
0.0
220
0.0
230
1.0
 40
0.7071067812
 41
0.0
 42
0.6851446619412652
  0
ELLIPSE
  5
1CE
330
1F
100
AcDbEntity
  8
0
  6
Continuous
 62
     7
370
    15
100
AcDbEllipse
 10
153.7754339754
 20
110.1074048738
 30
0.0
 11
0.0
 21
1.0
 31
0.0
210
0.0
220
0.0
230
1.0
 40
0.7689706084
 41
3.141592653589793
 42
4.7123889803847
  0
LINE
  5
1CF
330
1F
100
AcDbEntity
  8
0
  6
Continuous
 62
     7
370
    15
100
AcDbLine
 10
153.7754323837
 20
109.1074048589
 30
0.0
 11
146.9950352368
 21
109.1074048589
 31
0.0
  0
LINE
  5
1D0
330
1F
100
AcDbEntity
  8
0
  6
Continuous
 62
     7
370
    15
100
AcDbLine
 10
128.752594119
 20
100.1074047807
 30
0.0
 11
128.752594119
 21
118.1074044715
 31
0.0
  0
SPLINE
  5
1D1
330
1F
100
AcDbEntity
  8
0
  6
Continuous
 62
     7
370
    15
100
AcDbSpline
210
0.0
220
0.0
230
1.0
 70
    24
 71
     3
 72
    11
 73
     7
 74
     0
 42
0.00000001
 43
0.00000001
 12
1.0
 22
0.0
 32
0.0
 13
1.0
 23
0.0
 33
0.0
 40
0.0
 40
0.0
 40
0.0
 40
0.0
 40
0.1806255229248845
 40
0.4091272648039663
 40
0.7811100362218031
 40
1.0
 40
1.0
 40
1.0
 40
1.0
 10
160.8444054183338
 20
140.975488261443
 30
0.0
 10
160.8444054183338
 20
141.0687659247556
 30
0.0
 10
160.8444054183338
 20
141.2800452314696
 30
0.0
 10
160.8444054183338
 20
141.6164959184354
 30
0.0
 10
160.8444054183338
 20
141.8829553154391
 30
0.0
 10
160.8444054183338
 20
142.0145687336981
 30
0.0
 10
160.8444054183338
 20
142.0633251826581
 30
0.0
  0
SPLINE
  5
1D2
330
1F
100
AcDbEntity
  8
0
  6
Continuous
 62
     7
370
    15
100
AcDbSpline
210
0.0
220
0.0
230
1.0
 70
     8
 71
     3
 72
    15
 73
    11
 74
     0
 42
0.00000001
 43
0.00000001
 12
1.0
 22
0.0
 32
0.0
 13
1.0
 23
0.0
 33
0.0
 40
0.0
 40
0.0
 40
0.0
 40
0.0
 40
0.1793871322810315
 40
0.2817900204670569
 40
0.3628164175933439
 40
0.4443040780526654
 40
0.5177206595351038
 40
0.6473600146837429
 40
0.91036689533571
 40
0.9999999999999999
 40
0.9999999999999999
 40
0.9999999999999999
 40
0.9999999999999999
 10
160.5170920994852
 20
142.1235370497521
 30
0.0
 10
160.5219880875264
 20
142.1169843992227
 30
0.0
 10
160.5296789433463
 20
142.1066911774999
 30
0.0
 10
160.5561478742756
 20
142.0913065299508
 30
0.0
 10
160.5853044849031
 20
142.0799373584168
 30
0.0
 10
160.6190052980278
 20
142.0711259999973
 30
0.0
 10
160.6623184238786
 20
142.063686498381
 30
0.0
 10
160.7309359425949
 20
142.057807700206
 30
0.0
 10
160.7928567992169
 20
142.0591332265552
 30
0.0
 10
160.8339583373848
 20
142.0624756214964
 30
0.0
 10
160.8444054183338
 20
142.0633251826581
 30
0.0
  0
LINE
  5
1D3
330
1F
100
AcDbEntity
  8
0
  6
Continuous
 62
     7
370
    15
100
AcDbLine
 10
160.8444054183
 20
140.9754882614
 30
0.0
 11
160.8444054183
 21
110.10740479
 31
0.0
  0
LINE
  5
1D4
330
1F
100
AcDbEntity
  8
0
  6
Continuous
 62
     7
370
    15
100
AcDbLine
 10
160.8444054183
 20
109.929675148
 30
0.0
 11
160.8444054183
 21
110.10740479
 31
0.0
  0
SPLINE
  5
1D5
330
1F
100
AcDbEntity
  8
0
  6
Continuous
 62
     7
370
    15
100
AcDbSpline
210
0.0
220
0.0
230
1.0
 70
     8
 71
     3
 72
    11
 73
     7
 74
     0
 42
0.00000001
 43
0.00000001
 12
1.0
 22
0.0
 32
0.0
 13
1.0
 23
0.0
 33
0.0
 40
0.0
 40
0.0
 40
0.0
 40
0.0
 40
0.4771897753163838
 40
0.7233114548615768
 40
0.9357725284957553
 40
1.0
 40
1.0
 40
1.0
 40
1.0
 10
160.9753959384538
 20
109.328412828159
 30
0.0
 10
160.9341614077009
 20
109.3777315959615
 30
0.0
 10
160.8716592126157
 20
109.452487660606
 30
0.0
 10
160.8481343090358
 20
109.6609477589069
 30
0.0
 10
160.8445259967565
 20
109.8159356574489
 30
0.0
 10
160.8444281349177
 20
109.9082469969779
 30
0.0
 10
160.8444054183342
 20
109.929675147992
 30
0.0
  0
LINE
  5
1D6
330
1F
100
AcDbEntity
  8
0
  6
Continuous
 62
     7
370
    15
100
AcDbLine
 10
160.4617603627
 20
109.1074048589
 30
0.0
 11
153.7754323837
 21
109.1074048589
 31
0.0
  0
SPLINE
  5
1D7
330
1F
100
AcDbEntity
  8
0
  6
Continuous
 62
     7
370
    15
100
AcDbSpline
210
0.0
220
0.0
230
1.0
 70
     8
 71
     3
 72
    10
 73
     6
 74
     0
 42
0.00000001
 43
0.00000001
 12
1.0
 22
0.0
 32
0.0
 13
1.0
 23
0.0
 33
0.0
 40
0.0
 40
0.0
 40
0.0
 40
0.0
 40
0.1073261639234756
 40
0.599765456783232
 40
1.0
 40
1.0
 40
1.0
 40
1.0
 10
160.8444054183338
 20
142.6016966860112
 30
0.0
 10
160.846265410678
 20
142.6122002246391
 30
0.0
 10
160.8566595132632
 20
142.6708966264548
 30
0.0
 10
161.0325851720995
 20
142.7366475878019
 30
0.0
 10
161.4045751143578
 20
142.8420680409603
 30
0.0
 10
161.5713585671757
 20
142.889333800536
 30
0.0
  0
SPLINE
  5
1D8
330
1F
100
AcDbEntity
  8
0
  6
Continuous
 62
     7
370
    15
100
AcDbSpline
210
0.0
220
0.0
230
1.0
 70
    24
 71
     3
 72
     9
 73
     5
 74
     0
 42
0.00000001
 43
0.00000001
 12
1.0
 22
0.0
 32
0.0
 13
1.0
 23
0.0
 33
0.0
 40
0.0
 40
0.0
 40
0.0
 40
0.0
 40
0.639136692233138
 40
1.0
 40
1.0
 40
1.0
 40
1.0
 10
160.8444054183338
 20
142.0633251826581
 30
0.0
 10
160.8444054183338
 20
142.1949542731618
 30
0.0
 10
160.8444054183338
 20
142.4009025344702
 30
0.0
 10
160.8444054183338
 20
142.5484516309849
 30
0.0
 10
160.8444054183338
 20
142.6016966860112
 30
0.0
  0
SPLINE
  5
1D9
330
1F
100
AcDbEntity
  8
0
  6
Continuous
 62
     7
370
    15
100
AcDbSpline
210
0.0
220
0.0
230
1.0
 70
     8
 71
     3
 72
    11
 73
     7
 74
     0
 42
0.00000001
 43
0.00000001
 12
1.0
 22
0.0
 32
0.0
 13
1.0
 23
0.0
 33
0.0
 40
0.0
 40
0.0
 40
0.0
 40
0.0
 40
0.2464342846078522
 40
0.5789895906289884
 40
0.9117913751572252
 40
1.0
 40
1.0
 40
1.0
 40
1.0
 10
163.0654532965995
 20
109.1074048589286
 30
0.0
 10
162.8297462924546
 20
109.1078008281029
 30
0.0
 10
162.2759601094344
 20
109.1087311452074
 30
0.0
 10
161.5534174902032
 20
109.1386794907159
 30
0.0
 10
161.1380477698014
 20
109.2159342300194
 30
0.0
 10
161.0035710328775
 20
109.3089289090603
 30
0.0
 10
160.9753959384538
 20
109.328412828159
 30
0.0
  0
LINE
  5
1DA
330
1F
100
AcDbEntity
  8
0
  6
Continuous
 62
     7
370
    15
100
AcDbLine
 10
161.5713585672
 20
142.8893338005
 30
0.0
 11
161.8641607967
 21
142.9782639305
 31
0.0
  0
SPLINE
  5
1DB
330
1F
100
AcDbEntity
  8
0
  6
Continuous
 62
     7
370
    15
100
AcDbSpline
210
0.0
220
0.0
230
1.0
 70
     8
 71
     3
 72
    10
 73
     6
 74
     0
 42
0.00000001
 43
0.00000001
 12
1.0
 22
0.0
 32
0.0
 13
1.0
 23
0.0
 33
0.0
 40
0.0
 40
0.0
 40
0.0
 40
0.0
 40
0.2794896711260902
 40
0.8449446908476698
 40
1.0
 40
1.0
 40
1.0
 40
1.0
 10
162.695120325384
 20
143.1958879391965
 30
0.0
 10
162.6452092788114
 20
143.163678607326
 30
0.0
 10
162.494319717683
 20
143.0663043328135
 30
0.0
 10
162.2960030907568
 20
143.0093839092777
 30
0.0
 10
162.1595551136518
 20
142.9980820448944
 30
0.0
 10
162.1301912274931
 20
142.9956498603638
 30
0.0
  0
SPLINE
  5
1DC
330
1F
100
AcDbEntity
  8
0
  6
Continuous
 62
     7
370
    15
100
AcDbSpline
210
0.0
220
0.0
230
1.0
 70
     8
 71
     3
 72
     9
 73
     5
 74
     0
 42
0.00000001
 43
0.00000001
 12
1.0
 22
0.0
 32
0.0
 13
1.0
 23
0.0
 33
0.0
 40
0.0
 40
0.0
 40
0.0
 40
0.0
 40
0.6025350767821177
 40
1.0
 40
1.0
 40
1.0
 40
1.0
 10
162.695120325384
 20
143.1958879391965
 30
0.0
 10
162.9191478213748
 20
143.2490009090754
 30
0.0
 10
163.2909560440385
 20
143.3371500839957
 30
0.0
 10
163.6869931782759
 20
143.4228651853804
 30
0.0
 10
163.844404047427
 20
143.4569339315709
 30
0.0
  0
LINE
  5
1DD
330
1F
100
AcDbEntity
  8
0
  6
Continuous
 62
     7
370
    15
100
AcDbLine
 10
163.0654532966
 20
109.1074048589
 30
0.0
 11
163.8444040474
 21
109.1074048589
 31
0.0
  0
LINE
  5
1DE
330
1F
100
AcDbEntity
  8
0
  6
Continuous
 62
     7
370
    15
100
AcDbLine
 10
163.0654532966
 20
109.1074048589
 30
0.0
 11
160.4617603627
 21
109.1074048589
 31
0.0
  0
CIRCLE
  5
1DF
330
1F
100
AcDbEntity
  8
0
  6
Continuous
 62
     7
370
    15
100
AcDbCircle
 10
178.5659085508
 20
126.0017887816
 30
0.0
 40
3.875541677676479
  0
LINE
  5
1E0
330
1F
100
AcDbEntity
  8
0
  6
Continuous
 62
     7
370
    15
100
AcDbLine
 10
173.9674836901
 20
130.6753492962
 30
0.0
 11
188.9772460601
 21
133.3295702051
 31
0.0
  0
LINE
  5
1E1
330
1F
100
AcDbEntity
  8
0
  6
Continuous
 62
     7
370
    15
100
AcDbLine
 10
188.9772460601
 20
122.1313177656
 30
0.0
 11
188.9772460601
 21
133.3295702051
 31
0.0
  0
LINE
  5
1E2
330
1F
100
AcDbEntity
  8
0
  6
Continuous
 62
     7
370
    15
100
AcDbLine
 10
176.2462270018
 20
109.4002981252
 30
0.0
 11
188.9772460601
 21
122.1313177656
 31
0.0
  0
ARC
  5
1E3
330
1F
100
AcDbEntity
  8
0
  6
Continuous
 62
     7
370
    15
100
AcDbCircle
 10
175.5391203986
 20
110.1074048738
 30
0.0
 40
1.000000000000028
100
AcDbArc
 50
270.0
 51
315.0
  0
LINE
  5
1E4
330
1F
100
AcDbEntity
  8
0
  6
Continuous
 62
     7
370
    15
100
AcDbLine
 10
172.7045786139
 20
109.1074048589
 30
0.0
 11
172.7045786139
 21
130.6857782464
 31
0.0
  0
ARC
  5
1E5
330
1F
100
AcDbEntity
  8
0
  6
Continuous
 62
     7
370
    15
100
AcDbCircle
 10
173.3642402278
 20
134.0965725094
 30
0.0
 40
3.473999273090036
100
AcDbArc
 50
259.0539057942
 51
279.9998295024
  0
LINE
  5
1E6
330
1F
100
AcDbEntity
  8
0
  6
Continuous
 62
     7
370
    15
100
AcDbLine
 10
172.7045786139
 20
109.1074048589
 30
0.0
 11
175.5391203371
 21
109.1074048589
 31
0.0
  0
LINE
  5
1E7
330
1F
100
AcDbEntity
  8
0
  6
Continuous
 62
     7
370
    15
100
AcDbLine
 10
172.7045786139
 20
137.5264859806
 30
0.0
 11
172.7045786139
 21
145.3535202007
 31
0.0
  0
LINE
  5
1E8
330
1F
100
AcDbEntity
  8
0
  6
Continuous
 62
     7
370
    15
100
AcDbLine
 10
172.7045786139
 20
137.5264859806
 30
0.0
 11
172.6580776778
 21
137.5176998834
 31
0.0
  0
ELLIPSE
  5
1E9
330
1F
100
AcDbEntity
  8
0
  6
Continuous
 62
     7
370
    15
100
AcDbEllipse
 10
173.3223010487
 20
134.1059726315
 30
0.0
 11
3.526284389105967
 21
5.684341886080800E-14
 31
0.0
210
0.0
220
0.0
230
1.0
 40
0.9851478631
 41
1.760291809115474
 42
4.536304122047196
  0
ELLIPSE
  5
1EA
330
1F
100
AcDbEntity
  8
0
  6
Continuous
 62
     7
370
    15
100
AcDbEllipse
 10
431.9630573847
 20
161.665668446
 30
0.0
 11
1467.419349928369
 21
307.2741536090721
 31
0.0
210
0.0
220
0.0
230
1.0
 40
0.0251651217
 41
1.743133143970083
 42
1.749270906205331
  0
LINE
  5
1EB
330
1F
100
AcDbEntity
  8
0
  6
Continuous
 62
     7
370
    15
100
AcDbLine
 10
163.8444040474
 20
109.1074048589
 30
0.0
 11
172.7045786139
 21
109.1074048589
 31
0.0
  0
CIRCLE
  5
1EC
330
1F
100
AcDbEntity
  8
0
  6
Continuous
 62
     7
370
    15
100
AcDbCircle
 10
178.5081120532
 20
125.9478572954
 30
0.0
 40
3.469481373939037
  0
ARC
  5
1ED
330
1F
100
AcDbEntity
  8
0
  6
Continuous
 62
     7
370
    15
100
AcDbCircle
 10
172.5318920626
 20
133.440877683
 30
0.0
 40
3.415559176235143
100
AcDbArc
 50
99.9837702253
 51
126.5892390566
  0
LINE
  5
1EE
330
1F
100
AcDbEntity
  8
0
  6
Continuous
 62
     7
370
    15
100
AcDbLine
 10
173.4693304208
 20
137.0751968633
 30
0.0
 11
174.1883598772
 21
137.7888674896
 31
0.0
  0
LINE
  5
1EF
330
1F
100
AcDbEntity
  8
0
  6
Continuous
 62
     7
370
    15
100
AcDbLine
 10
173.4693304208
 20
137.0751968633
 30
0.0
 11
173.4878339377
 21
137.0784695308
 31
0.0
  0
LINE
  5
1F0
330
1F
100
AcDbEntity
  8
0
  6
Continuous
 62
     7
370
    15
100
AcDbLine
 10
171.3779226449
 20
136.247085319
 30
0.0
 11
173.494671708
 21
136.6213969003
 31
0.0
  0
LINE
  5
1F1
330
1F
100
AcDbEntity
  8
0
  6
Continuous
 62
     7
370
    15
100
AcDbLine
 10
174.1883598772
 20
137.7888674896
 30
0.0
 11
172.7045786139
 21
137.5264859806
 31
0.0
  0
LINE
  5
1F2
330
1F
100
AcDbEntity
  8
0
  6
Continuous
 62
     7
370
    15
100
AcDbLine
 10
174.0706891325
 20
145.6544342499
 30
0.0
 11
174.1883598772
 21
137.7888674896
 31
0.0
  0
ELLIPSE
  5
1F3
330
1F
100
AcDbEntity
  8
0
  6
Continuous
 62
     7
370
    15
100
AcDbEllipse
 10
217.8718681307
 20
116.1591813744
 30
0.0
 11
255.5476892121332
 21
50.58930668211384
 31
0.0
210
0.0
220
0.0
230
1.0
 40
0.1452100801
 41
1.714237736096112
 42
1.71966412208293
  0
SPLINE
  5
1F4
330
1F
100
AcDbEntity
  8
0
  6
Continuous
 62
     7
370
    15
100
AcDbSpline
210
0.0
220
0.0
230
1.0
 70
     8
 71
     3
 72
     9
 73
     5
 74
     0
 42
0.00000001
 43
0.00000001
 12
1.0
 22
0.0
 32
0.0
 13
1.0
 23
0.0
 33
0.0
 40
0.0
 40
0.0
 40
0.0
 40
0.0
 40
0.6384470982010495
 40
1.0
 40
1.0
 40
1.0
 40
1.0
 10
162.695120325384
 20
143.1958879391965
 30
0.0
 10
162.6929310968135
 20
143.2325649725855
 30
0.0
 10
162.6895021070404
 20
143.2900122277963
 30
0.0
 10
162.6916160662742
 20
143.2544836791953
 30
0.0
 10
162.6923803743694
 20
143.2416382293519
 30
0.0
  0
ELLIPSE
  5
1F5
330
1F
100
AcDbEntity
  8
0
  6
Continuous
 62
     7
370
    15
100
AcDbEllipse
 10
173.8483955599
 20
106.8017034119
 30
0.0
 11
0.1226598013133184
 21
38.86178735419469
 31
0.0
210
0.0
220
0.0
230
1.0
 40
0.1209221839
 41
6.261975949432649
 42
6.309281364791032
  0
LINE
  5
1F6
330
1F
100
AcDbEntity
  8
0
  6
Continuous
 62
     7
370
    15
100
AcDbLine
 10
173.0988875535
 20
130.7437400381
 30
0.0
 11
172.6391494778
 21
130.6978761266
 31
0.0
  0
ARC
  5
1F7
330
1F
100
AcDbEntity
  8
0
  6
Continuous
 62
     7
370
    15
100
AcDbCircle
 10
172.4629514148
 20
133.8287899327
 30
0.0
 40
3.021569002983917
100
AcDbArc
 50
99.971546544
 51
134.7559670736
  0
LINE
  5
1F8
330
1F
100
AcDbEntity
  8
0
  6
Continuous
 62
     7
370
    15
100
AcDbLine
 10
173.7427499649
 20
130.8575960855
 30
0.0
 11
173.0988875535
 21
130.7437400381
 31
0.0
  0
LWPOLYLINE
  5
1F9
330
1F
100
AcDbEntity
  8
0
  6
Continuous
 62
     7
370
    15
100
AcDbPolyline
 90
        3
 70
   128
 43
0.0
 10
170.2415973452
 20
135.7962823521
 10
170.7200363782
 20
136.0521986197
 10
171.3779226449
 20
136.247085319
  0
LINE
  5
1FA
330
1F
100
AcDbEntity
  8
0
  6
Continuous
 62
     7
370
    15
100
AcDbLine
 10
189.291552004
 20
78.8991003345
 30
0.0
 11
189.0883548223
 21
65.316693769
 31
0.0
  0
ARC
  5
1FB
330
1F
100
AcDbEntity
  8
0
  6
Continuous
 62
     7
370
    15
100
AcDbCircle
 10
187.8779576424
 20
65.3367035141
 30
0.0
 40
1.210562564698751
100
AcDbArc
 50
260.2563362675
 51
359.0528980576
  0
LINE
  5
1FC
330
1F
100
AcDbEntity
  8
0
  6
Continuous
 62
     7
370
    15
100
AcDbLine
 10
187.6730814148
 20
64.1436035793
 30
0.0
 11
174.335303953
 21
66.5021630983
 31
0.0
  0
ARC
  5
1FD
330
1F
100
AcDbEntity
  8
0
  6
Continuous
 62
     7
370
    15
100
AcDbCircle
 10
174.5373108845
 20
67.6526660156
 30
0.0
 40
1.168102633842012
100
AcDbArc
 50
193.3616582217
 51
260.0414348795
  0
LINE
  5
1FE
330
1F
100
AcDbEntity
  8
0
  6
Continuous
 62
     7
370
    15
100
AcDbLine
 10
188.258216953
 20
80.0839978318
 30
0.0
 11
188.3249812565
 21
80.0721905242
 31
0.0
  0
ARC
  5
1FF
330
1F
100
AcDbEntity
  8
0
  6
Continuous
 62
     7
370
    15
100
AcDbCircle
 10
188.122023738
 20
78.9202137932
 30
0.0
 40
1.169718830779284
100
AcDbArc
 50
358.9657533593
 51
80.0080587206
  0
ARC
  5
200
330
1F
100
AcDbEntity
  8
0
  6
Continuous
 62
     7
370
    15
100
AcDbCircle
 10
188.6518280176
 20
64.568600702
 30
0.0
 40
1.210562457780263
100
AcDbArc
 50
260.2563359257
 51
359.0530793615
  0
LINE
  5
201
330
1F
100
AcDbEntity
  8
0
  6
Continuous
 62
     7
370
    15
100
AcDbLine
 10
190.0654223174
 20
78.130997629
 30
0.0
 11
189.8622251539
 21
64.5485947888
 31
0.0
  0
LINE
  5
202
330
1F
100
AcDbEntity
  8
0
  6
Continuous
 62
     7
370
    15
100
AcDbLine
 10
188.446951801
 20
63.3755008738
 30
0.0
 11
175.1091743392
 21
65.7340603928
 31
0.0
  0
ARC
  5
203
330
1F
100
AcDbEntity
  8
0
  6
Continuous
 62
     7
370
    15
100
AcDbCircle
 10
188.8918408236
 20
78.1507754889
 30
0.0
 40
1.173748135817732
100
AcDbArc
 50
359.0345104763
 51
45.1349984148
  0
ARC
  5
204
330
1F
100
AcDbEntity
  8
0
  6
Continuous
 62
     7
370
    15
100
AcDbCircle
 10
175.3116857892
 20
66.8859889831
 30
0.0
 40
1.169594102419637
100
AcDbArc
 50
225.2433390376
 51
260.0291699747
  0
LINE
  5
205
330
1F
100
AcDbEntity
  8
0
  6
Continuous
 62
     7
370
    15
100
AcDbLine
 10
188.446951801
 20
149.3393088739
 30
0.0
 11
175.1091743392
 21
146.9807493548
 31
0.0
  0
ARC
  5
206
330
1F
100
AcDbEntity
  8
0
  6
Continuous
 62
     7
370
    15
100
AcDbCircle
 10
188.6518280176
 20
148.1462090457
 30
0.0
 40
1.210562457780231
100
AcDbArc
 50
0.9469206385
 51
99.7436640743
  0
LINE
  5
207
330
1F
100
AcDbEntity
  8
0
  6
Continuous
 62
     7
370
    15
100
AcDbLine
 10
190.0654223174
 20
134.5838121186
 30
0.0
 11
189.8622251539
 21
148.1662149589
 31
0.0
  0
ARC
  5
208
330
1F
100
AcDbEntity
  8
0
  6
Continuous
 62
     7
370
    15
100
AcDbCircle
 10
188.8958927524
 20
134.5626979087
 30
0.0
 40
1.169720143139948
100
AcDbArc
 50
279.9919923914
 51
1.034282284
  0
LINE
  5
209
330
1F
100
AcDbEntity
  8
0
  6
Continuous
 62
     7
370
    15
100
AcDbLine
 10
175.7610740644
 20
131.0521605472
 30
0.0
 11
189.0988515262
 21
133.4107200663
 31
0.0
  0
ARC
  5
20A
330
1F
100
AcDbEntity
  8
0
  6
Continuous
 62
     7
370
    15
100
AcDbCircle
 10
175.5561965341
 20
132.2452586383
 30
0.0
 40
1.210560968077073
100
AcDbArc
 50
180.9469277469
 51
279.7437392701
  0
LINE
  5
20B
330
1F
100
AcDbEntity
  8
0
  6
Continuous
 62
     7
370
    15
100
AcDbLine
 10
174.1426039991
 20
145.8076554398
 30
0.0
 11
174.3458008897
 21
132.2252525996
 31
0.0
  0
ARC
  5
20C
330
1F
100
AcDbEntity
  8
0
  6
Continuous
 62
     7
370
    15
100
AcDbCircle
 10
175.3121353436
 20
145.8287700907
 30
0.0
 40
1.169721930371911
100
AcDbArc
 50
99.9920879144
 51
181.0343023031
  0
ARC
  5
20D
330
1F
100
AcDbEntity
  8
0
  6
Continuous
 62
     7
370
    15
100
AcDbCircle
 10
188.895536637
 20
134.5630501087
 30
0.0
 40
1.150224381044465
100
AcDbArc
 50
279.9919738654
 51
1.0342678932
  0
LINE
  5
20E
330
1F
100
AcDbEntity
  8
0
  6
Continuous
 62
     7
370
    15
100
AcDbLine
 10
190.0455736215
 20
134.5838121186
 30
0.0
 11
189.8423764521
 21
148.1662149589
 31
0.0
  0
ARC
  5
20F
330
1F
100
AcDbEntity
  8
0
  6
Continuous
 62
     7
370
    15
100
AcDbCircle
 10
188.6521538309
 20
148.1465414427
 30
0.0
 40
1.190385204522607
100
AcDbArc
 50
0.9469714197
 51
99.7437362724
  0
LINE
  5
210
330
1F
100
AcDbEntity
  8
0
  6
Continuous
 62
     7
370
    15
100
AcDbLine
 10
188.4506909448
 20
149.3197548251
 30
0.0
 11
175.1129135993
 21
146.961195306
 31
0.0
  0
ARC
  5
211
330
1F
100
AcDbEntity
  8
0
  6
Continuous
 62
     7
370
    15
100
AcDbCircle
 10
175.3124844754
 20
145.8284214574
 30
0.0
 40
1.150219599332816
100
AcDbArc
 50
99.9917724799
 51
181.0344718618
  0
LINE
  5
212
330
1F
100
AcDbEntity
  8
0
  6
Continuous
 62
     7
370
    15
100
AcDbLine
 10
174.1624523458
 20
145.8076554398
 30
0.0
 11
174.3656492364
 21
132.2252525996
 31
0.0
  0
ARC
  5
213
330
1F
100
AcDbEntity
  8
0
  6
Continuous
 62
     7
370
    15
100
AcDbCircle
 10
175.5558725063
 20
132.2449268878
 30
0.0
 40
1.190385865906393
100
AcDbArc
 50
180.9470080601
 51
279.7437020788
  0
LINE
  5
214
330
1F
100
AcDbEntity
  8
0
  6
Continuous
 62
     7
370
    15
100
AcDbLine
 10
175.7573348042
 20
131.0717127334
 30
0.0
 11
189.0951123243
 21
133.4302722524
 31
0.0
  0
ARC
  5
215
330
1F
100
AcDbEntity
  8
0
  6
Continuous
 62
     7
370
    15
100
AcDbCircle
 10
174.7811629879
 20
131.4774290039
 30
0.0
 40
1.209402515109133
100
AcDbArc
 50
180.9607734768
 51
222.3811728128
  0
LINE
  5
216
330
1F
100
AcDbEntity
  8
0
  6
Continuous
 62
     7
370
    15
100
AcDbLine
 10
173.4876104203
 20
137.0933408897
 30
0.0
 11
173.5719305035
 21
131.4571498941
 31
0.0
  0
LINE
  5
217
330
1F
100
AcDbEntity
  8
0
  6
Continuous
 62
     7
370
    15
100
AcDbLine
 10
176.0352749881
 20
132.8586897861
 30
0.0
 11
175.4536966366
 21
132.1428454529
 31
0.0
  0
LINE
  5
218
330
1F
100
AcDbEntity
  8
0
  6
Continuous
 62
     7
370
    15
100
AcDbLine
 10
175.6120140237
 20
145.3760209541
 30
0.0
 11
175.2504997459
 21
145.7252482931
 31
0.0
  0
LINE
  5
219
330
1F
100
AcDbEntity
  8
0
  6
Continuous
 62
     7
370
    15
100
AcDbLine
 10
188.3755221535
 20
134.7966025631
 30
0.0
 11
188.791473982
 21
134.5014049719
 31
0.0
  0
ARC
  5
21A
330
1F
100
AcDbEntity
  8
0
  6
Continuous
 62
     7
370
    15
100
AcDbCircle
 10
178.3017107475
 20
135.5779940404
 30
0.0
 40
1.008802858859704
100
AcDbArc
 50
180.9470109702
 51
279.7436024094
  0
SPLINE
  5
21B
330
1F
100
AcDbEntity
  8
0
  6
Continuous
 62
     7
370
    15
100
AcDbSpline
210
0.0
220
0.0
230
1.0
 70
     8
 71
     3
 72
    11
 73
     7
 74
     0
 42
0.00000001
 43
0.00000001
 12
1.0
 22
0.0
 32
0.0
 13
1.0
 23
0.0
 33
0.0
 40
0.0
 40
0.0
 40
0.0
 40
0.0
 40
0.0077074199082875
 40
0.2978243192068546
 40
0.648268230229594
 40
1.0
 40
1.0
 40
1.0
 40
1.0
 10
176.4786404129838
 20
133.3947720985232
 30
0.0
 10
176.4775275485504
 20
133.393446400495
 30
0.0
 10
176.434525078699
 20
133.3422197750605
 30
0.0
 10
176.3372516293839
 20
133.2257888009781
 30
0.0
 10
176.1820719189045
 20
133.0385430668251
 30
0.0
 10
176.0842670929094
 20
132.9187141389646
 30
0.0
 10
176.0352749881123
 20
132.8586897860585
 30
0.0
  0
LINE
  5
21C
330
1F
100
AcDbEntity
  8
0
  6
Continuous
 62
     7
370
    15
100
AcDbLine
 10
177.1748971698
 20
143.4587704997
 30
0.0
 11
177.2930456829
 21
135.5613208424
 31
0.0
  0
LINE
  5
21D
330
1F
100
AcDbEntity
  8
0
  6
Continuous
 62
     7
370
    15
100
AcDbLine
 10
185.7355854046
 20
145.8077262204
 30
0.0
 11
177.9803729188
 21
144.4363462786
 31
0.0
  0
ARC
  5
21E
330
1F
100
AcDbEntity
  8
0
  6
Continuous
 62
     7
370
    15
100
AcDbCircle
 10
185.9063130078
 20
144.8134731883
 30
0.0
 40
1.00880474136844
100
AcDbArc
 50
0.9470279366
 51
99.7434892831
  0
LINE
  5
21F
330
1F
100
AcDbEntity
  8
0
  6
Continuous
 62
     7
370
    15
100
AcDbLine
 10
187.0331284628
 20
136.9326989214
 30
0.0
 11
186.9149799497
 21
144.8301467161
 31
0.0
  0
ARC
  5
220
330
1F
100
AcDbEntity
  8
0
  6
Continuous
 62
     7
370
    15
100
AcDbCircle
 10
186.0585185977
 20
136.9151044083
 30
0.0
 40
0.9747686680166321
100
AcDbArc
 50
279.9920806061
 51
1.034241381
  0
LINE
  5
221
330
1F
100
AcDbEntity
  8
0
  6
Continuous
 62
     7
370
    15
100
AcDbLine
 10
178.4724399951
 20
134.5837432008
 30
0.0
 11
186.2276527137
 21
135.9551212798
 31
0.0
  0
ARC
  5
222
330
1F
100
AcDbEntity
  8
0
  6
Continuous
 62
     7
370
    15
100
AcDbCircle
 10
178.1495039007
 20
143.4763657661
 30
0.0
 40
0.9747655479190547
100
AcDbArc
 50
99.9919258547
 51
181.0342889781
  0
CIRCLE
  5
223
330
1F
100
AcDbEntity
  8
0
  6
Continuous
 62
     7
370
    15
100
AcDbCircle
 10
182.0994950243
 20
140.2424210097
 30
0.0
 40
3.146810077061486
  0
ARC
  5
224
330
1F
100
AcDbEntity
  8
0
  6
Continuous
 62
     7
370
    15
100
AcDbCircle
 10
181.2743454004
 20
139.4777091971
 30
0.0
 40
3.100631277661114
100
AcDbArc
 50
103.6764794703
 51
124.5777287407
  0
ARC
  5
225
330
1F
100
AcDbEntity
  8
0
  6
Continuous
 62
     7
370
    15
100
AcDbCircle
 10
174.5362084387
 20
145.0634087265
 30
0.0
 40
1.166552234054724
100
AcDbArc
 50
134.7936636199
 51
154.0492704526
  0
LINE
  5
226
330
1F
100
AcDbEntity
  8
0
  6
Continuous
 62
     7
370
    15
100
AcDbLine
 10
187.916203755
 20
147.2781430046
 30
0.0
 11
188.5882767421
 21
148.0838078122
 31
0.0
  0
SPLINE
  5
227
330
1F
100
AcDbEntity
  8
0
  6
Continuous
 62
     7
370
    15
100
AcDbSpline
210
0.0
220
0.0
230
1.0
 70
     8
 71
     3
 72
    11
 73
     7
 74
     0
 42
0.00000001
 43
0.00000001
 12
1.0
 22
0.0
 32
0.0
 13
1.0
 23
0.0
 33
0.0
 40
0.0
 40
0.0
 40
0.0
 40
0.0
 40
0.0082253737752146
 40
0.3243959235038802
 40
0.6617842012014388
 40
1.0
 40
1.0
 40
1.0
 40
1.0
 10
176.1531096455429
 20
144.9384930591403
 30
0.0
 10
176.1516720434576
 20
144.939466823905
 30
0.0
 10
176.0949752575345
 20
144.9778705887411
 30
0.0
 10
175.9729291335523
 20
145.0659213631529
 30
0.0
 10
175.7827785905162
 20
145.2176977416756
 30
0.0
 10
175.6689820076111
 20
145.3232034733484
 30
0.0
 10
175.612014023659
 20
145.376020954114
 30
0.0
  0
SPLINE
  5
228
330
1F
100
AcDbEntity
  8
0
  6
Continuous
 62
     7
370
    15
100
AcDbSpline
210
0.0
220
0.0
230
1.0
 70
     8
 71
     3
 72
    11
 73
     7
 74
     0
 42
0.00000001
 43
0.00000001
 12
1.0
 22
0.0
 32
0.0
 13
1.0
 23
0.0
 33
0.0
 40
0.0
 40
0.0
 40
0.0
 40
0.0
 40
0.3382155315904185
 40
0.6756046140463404
 40
0.9917745975581678
 40
0.9999999999999999
 40
0.9999999999999999
 40
0.9999999999999999
 40
0.9999999999999999
 10
188.375522153524
 20
134.7966025631248
 30
0.0
 10
188.3124076883893
 20
134.8433192406631
 30
0.0
 10
188.186332981951
 20
134.936638440847
 30
0.0
 10
188.0025972708852
 20
135.094779695469
 30
0.0
 10
187.894926660774
 20
135.1971034168788
 30
0.0
 10
187.8476777564311
 20
135.2448809141603
 30
0.0
 10
187.8464797084008
 20
135.2460923652469
 30
0.0
  0
SPLINE
  5
229
330
1F
100
AcDbEntity
  8
0
  6
Continuous
 62
     7
370
    15
100
AcDbSpline
210
0.0
220
0.0
230
1.0
 70
     8
 71
     3
 72
    11
 73
     7
 74
     0
 42
0.00000001
 43
0.00000001
 12
1.0
 22
0.0
 32
0.0
 13
1.0
 23
0.0
 33
0.0
 40
0.0
 40
0.0
 40
0.0
 40
0.0
 40
0.3517330808197427
 40
0.7021775016844906
 40
0.9922945476353597
 40
1.0
 40
1.0
 40
1.0
 40
1.0
 10
187.9162037550259
 20
147.2781430046379
 30
0.0
 10
187.862111033613
 20
147.2130550964666
 30
0.0
 10
187.7541237726692
 20
147.0831177455552
 30
0.0
 10
187.6087526626942
 20
146.9056147143787
 30
0.0
 10
187.5263010396808
 20
146.8038804915054
 30
0.0
 10
187.4919458383104
 20
146.7612481255102
 30
0.0
 10
187.4910569787745
 20
146.7601451139271
 30
0.0
  0
ARC
  5
22A
330
1F
100
AcDbEntity
  8
0
  6
Continuous
 62
     7
370
    15
100
AcDbCircle
 10
186.5619331428
 20
66.8056451357
 30
0.0
 40
1.210562608949709
100
AcDbArc
 50
260.2563387109
 51
359.0528956141
  0
ARC
  5
22B
330
1F
100
AcDbEntity
  8
0
  6
Continuous
 62
     7
370
    15
100
AcDbCircle
 10
186.5936262539
 20
66.7743571914
 30
0.0
 40
1.513202058986449
100
AcDbArc
 50
260.2562884246
 51
359.0529835112
  0
LINE
  5
22C
330
1F
100
AcDbEntity
  8
0
  6
Continuous
 62
     7
370
    15
100
AcDbLine
 10
187.7723303661
 20
66.7856353383
 30
0.0
 11
187.9475548669
 21
78.4982553731
 31
0.0
  0
LINE
  5
22D
330
1F
100
AcDbEntity
  8
0
  6
Continuous
 62
     7
370
    15
100
AcDbLine
 10
174.8553889376
 20
67.6464195411
 30
0.0
 11
186.3570569587
 21
65.6125451486
 31
0.0
  0
ARC
  5
22E
330
1F
100
AcDbEntity
  8
0
  6
Continuous
 62
     7
370
    15
100
AcDbCircle
 10
175.057708409
 20
68.7977992767
 30
0.0
 40
1.169020300950429
100
AcDbArc
 50
220.1549135212
 51
260.0337793653
  0
ARC
  5
22F
330
1F
100
AcDbEntity
  8
0
  6
Continuous
 62
     7
370
    15
100
AcDbCircle
 10
186.7721223482
 20
78.5176146702
 30
0.0
 40
1.175591931014773
100
AcDbArc
 50
359.0564275484
 51
38.1661139815
  0
LINE
  5
230
330
1F
100
AcDbEntity
  8
0
  6
Continuous
 62
     7
370
    15
100
AcDbLine
 10
188.2818462365
 20
78.4619673203
 30
0.0
 11
188.1066216194
 21
66.7493472855
 31
0.0
  0
LINE
  5
231
330
1F
100
AcDbEntity
  8
0
  6
Continuous
 62
     7
370
    15
100
AcDbLine
 10
186.3375299183
 20
65.282983617
 30
0.0
 11
174.8358618972
 21
67.3168580096
 31
0.0
  0
ARC
  5
232
330
1F
100
AcDbEntity
  8
0
  6
Continuous
 62
     7
370
    15
100
AcDbCircle
 10
187.1371635216
 20
66.2348718855
 30
0.0
 40
1.513202109109598
100
AcDbArc
 50
260.2562906387
 51
359.052981297
  0
LINE
  5
233
330
1F
100
AcDbEntity
  8
0
  6
Continuous
 62
     7
370
    15
100
AcDbLine
 10
188.8253835534
 20
77.9224819552
 30
0.0
 11
188.6501589362
 21
66.2098619203
 31
0.0
  0
LINE
  5
234
330
1F
100
AcDbEntity
  8
0
  6
Continuous
 62
     7
370
    15
100
AcDbLine
 10
186.8810672351
 20
64.7434982519
 30
0.0
 11
175.3793994468
 21
66.7773726444
 31
0.0
  0
ARC
  5
235
330
1F
100
AcDbEntity
  8
0
  6
Continuous
 62
     7
370
    15
100
AcDbCircle
 10
186.8174873742
 20
78.4874943908
 30
0.0
 40
1.464581342526073
100
AcDbArc
 50
359.0013067744
 51
53.122131478
  0
ARC
  5
236
330
1F
100
AcDbEntity
  8
0
  6
Continuous
 62
     7
370
    15
100
AcDbCircle
 10
175.0881071043
 20
68.754623549
 30
0.0
 40
1.459725107991181
100
AcDbArc
 50
206.0914707059
 51
260.0491553123
  0
ARC
  5
237
330
1F
100
AcDbEntity
  8
0
  6
Continuous
 62
     7
370
    15
100
AcDbCircle
 10
187.3584170233
 20
77.9472070284
 30
0.0
 40
1.46717488033472
100
AcDbArc
 50
359.0343963586
 51
45.1351726519
  0
ARC
  5
238
330
1F
100
AcDbEntity
  8
0
  6
Continuous
 62
     7
370
    15
100
AcDbCircle
 10
175.6325486176
 20
68.217308437
 30
0.0
 40
1.462019011294581
100
AcDbArc
 50
225.2437944732
 51
260.0289594773
  0
LWPOLYLINE
  5
239
330
1F
100
AcDbEntity
  8
0
  6
Continuous
 62
     7
370
    15
100
AcDbPolyline
 90
        3
 70
   128
 43
0.0
 10
179.4770772141
 20
141.9757659595
 10
179.6666190532
 20
142.0156787197
 10
179.9421415237
 20
142.0547793667
  0
ELLIPSE
  5
23A
330
1F
100
AcDbEntity
  8
0
  6
Continuous
 62
     7
370
    15
100
AcDbEllipse
 10
182.0993442447
 20
139.9293066795
 30
0.0
 11
2.142313802535767
 21
-2.101494032444549
 31
0.0
210
0.0
220
0.0
230
1.0
 40
0.9831856447
 41
2.093019233784307
 42
4.593559240251825
  0
ELLIPSE
  5
23B
330
1F
100
AcDbEntity
  8
0
  6
Continuous
 62
     7
370
    15
100
AcDbEllipse
 10
182.0993442447
 20
139.9293066795
 30
0.0
 11
2.142313802535767
 21
-2.101494032444549
 31
0.0
210
0.0
220
0.0
230
1.0
 40
0.9831856447
 41
0.1183750829795682
 42
2.093019233784319
  0
CIRCLE
  5
23C
330
1F
100
AcDbEntity
  8
0
  6
Continuous
 62
     7
370
    15
100
AcDbCircle
 10
176.0211071428
 20
89.2414836869
 30
0.0
 40
3.323448498263337
  0
ARC
  5
23D
330
1F
100
AcDbEntity
  8
0
  6
Continuous
 62
     7
370
    15
100
AcDbCircle
 10
176.0192445825
 20
89.1403319644
 30
0.0
 40
3.841394530076176
100
AcDbArc
 50
194.1340927454
 51
239.7291556384
  0
ARC
  5
23E
330
1F
100
AcDbEntity
  8
0
  6
Continuous
 62
     7
370
    15
100
AcDbCircle
 10
176.1015698713
 20
89.1957560464
 30
0.0
 40
3.934905522331705
100
AcDbArc
 50
15.2667008178
 51
194.6239717657
  0
LWPOLYLINE
  5
23F
330
1F
100
AcDbEntity
  8
0
  6
Continuous
 62
     7
370
    15
100
AcDbPolyline
 90
        3
 70
   128
 43
0.0
 10
173.606110042
 20
86.1229579012
 10
173.7084009257
 20
86.0251131515
 10
173.791219717
 20
85.9509612481
  0
LWPOLYLINE
  5
240
330
1F
100
AcDbEntity
  8
0
  6
Continuous
 62
     7
370
    15
100
AcDbPolyline
 90
        3
 70
   128
 43
0.0
 10
179.5775287357
 20
91.2550165366
 10
179.3288693336
 20
91.563957655
 10
179.1713184249
 20
91.7299593847
  0
LINE
  5
241
330
1F
100
AcDbEntity
  8
0
  6
Continuous
 62
     7
370
    15
100
AcDbLine
 10
179.5258254316
 20
91.356458054
 30
0.0
 11
179.4586882499
 21
91.4108454298
 31
0.0
  0
ARC
  5
242
330
1F
100
AcDbEntity
  8
0
  6
Continuous
 62
     7
370
    15
100
AcDbCircle
 10
178.4917643044
 20
125.8581879442
 30
0.0
 40
3.487668227953431
100
AcDbArc
 50
315.2860708408
 51
164.6771376954
  0
CIRCLE
  5
243
330
1F
100
AcDbEntity
  8
0
  6
Continuous
 62
     7
370
    15
100
AcDbCircle
 10
178.4977504961
 20
125.9093901513
 30
0.0
 40
1.986124911560689
  0
SPLINE
  5
244
330
1F
100
AcDbEntity
  8
0
  6
Continuous
 62
     7
370
    15
100
AcDbSpline
210
0.0
220
0.0
230
1.0
 70
     8
 71
     3
 72
    11
 73
     7
 74
     0
 42
0.00000001
 43
0.00000001
 12
1.0
 22
0.0
 32
0.0
 13
1.0
 23
0.0
 33
0.0
 40
0.0
 40
0.0
 40
0.0
 40
0.0
 40
0.1081101455248961
 40
0.4711581498427412
 40
0.8135807626755177
 40
1.0
 40
1.0
 40
1.0
 40
1.0
 10
179.6977066007233
 20
124.6324534575759
 30
0.0
 10
179.7084976715706
 20
124.6852115186203
 30
0.0
 10
179.75552656928
 20
124.9151380468871
 30
0.0
 10
179.8577959157715
 20
125.3655105934376
 30
0.0
 10
180.0011662329236
 20
125.8975314571254
 30
0.0
 10
180.087370046785
 20
126.1900771719382
 30
0.0
 10
180.1177572962618
 20
126.2932009111462
 30
0.0
  0
SPLINE
  5
245
330
1F
100
AcDbEntity
  8
0
  6
Continuous
 62
     7
370
    15
100
AcDbSpline
210
0.0
220
0.0
230
1.0
 70
     8
 71
     3
 72
    10
 73
     6
 74
     0
 42
0.00000001
 43
0.00000001
 12
1.0
 22
0.0
 32
0.0
 13
1.0
 23
0.0
 33
0.0
 40
0.0
 40
0.0
 40
0.0
 40
0.0
 40
0.4391165836991962
 40
0.7513667507987255
 40
1.0
 40
1.0
 40
1.0
 40
1.0
 10
180.1177572962618
 20
126.2932009111462
 30
0.0
 10
179.9286282472508
 20
126.4548186504047
 30
0.0
 10
179.6050119587474
 20
126.7313606898675
 30
0.0
 10
179.1752422502147
 20
127.1737240145071
 30
0.0
 10
178.9735133571955
 20
127.4059915599943
 30
0.0
 10
178.8840892297005
 20
127.5089531253396
 30
0.0
  0
SPLINE
  5
246
330
1F
100
AcDbEntity
  8
0
  6
Continuous
 62
     7
370
    15
100
AcDbSpline
210
0.0
220
0.0
230
1.0
 70
     8
 71
     3
 72
    10
 73
     6
 74
     0
 42
0.00000001
 43
0.00000001
 12
1.0
 22
0.0
 32
0.0
 13
1.0
 23
0.0
 33
0.0
 40
0.0
 40
0.0
 40
0.0
 40
0.0
 40
0.4391166699538339
 40
0.7513667732974997
 40
1.0
 40
1.0
 40
1.0
 40
1.0
 10
178.8840892297005
 20
127.5089531253396
 30
0.0
 10
178.6348264263159
 20
127.4328215179462
 30
0.0
 10
178.2083161134602
 20
127.3025537232866
 30
0.0
 10
177.6289726247729
 20
127.1535485789362
 30
0.0
 10
177.3527963027268
 20
127.0914745845289
 30
0.0
 10
177.2303704676008
 20
127.0639578859625
 30
0.0
  0
SPLINE
  5
247
330
1F
100
AcDbEntity
  8
0
  6
Continuous
 62
     7
370
    15
100
AcDbSpline
210
0.0
220
0.0
230
1.0
 70
     8
 71
     3
 72
    11
 73
     7
 74
     0
 42
0.00000001
 43
0.00000001
 12
1.0
 22
0.0
 32
0.0
 13
1.0
 23
0.0
 33
0.0
 40
0.0
 40
0.0
 40
0.0
 40
0.0
 40
0.1864192240786643
 40
0.5288418721579785
 40
0.8918899138453921
 40
1.0
 40
1.0
 40
1.0
 40
1.0
 10
177.2303704676008
 20
127.0639578859625
 30
0.0
 10
177.199983217357
 20
126.9608341441683
 30
0.0
 10
177.1137793916084
 20
126.6682883890621
 30
0.0
 10
176.9704090825124
 20
126.1362675407322
 30
0.0
 10
176.8681397703053
 20
125.6858951638361
 30
0.0
 10
176.8211108440398
 20
125.4559684984012
 30
0.0
 10
176.8103197720623
 20
125.4032104323922
 30
0.0
  0
SPLINE
  5
248
330
1F
100
AcDbEntity
  8
0
  6
Continuous
 62
     7
370
    15
100
AcDbSpline
210
0.0
220
0.0
230
1.0
 70
     8
 71
     3
 72
    10
 73
     6
 74
     0
 42
0.00000001
 43
0.00000001
 12
1.0
 22
0.0
 32
0.0
 13
1.0
 23
0.0
 33
0.0
 40
0.0
 40
0.0
 40
0.0
 40
0.0
 40
0.4391167643659775
 40
0.751366944051714
 40
1.0
 40
1.0
 40
1.0
 40
1.0
 10
176.8103197720623
 20
125.4032104323922
 30
0.0
 10
176.9744087071874
 20
125.2167392477827
 30
0.0
 10
177.2551791348792
 20
124.8976708461562
 30
0.0
 10
177.7039926971042
 20
124.4742096206158
 30
0.0
 10
177.9395618322716
 20
124.2755304141778
 30
0.0
 10
178.0439869073009
 20
124.1874582181988
 30
0.0
  0
SPLINE
  5
249
330
1F
100
AcDbEntity
  8
0
  6
Continuous
 62
     7
370
    15
100
AcDbSpline
210
0.0
220
0.0
230
1.0
 70
     8
 71
     3
 72
    10
 73
     6
 74
     0
 42
0.00000001
 43
0.00000001
 12
1.0
 22
0.0
 32
0.0
 13
1.0
 23
0.0
 33
0.0
 40
0.0
 40
0.0
 40
0.0
 40
0.0
 40
0.4391164697729227
 40
0.7513667695634767
 40
1.0
 40
1.0
 40
1.0
 40
1.0
 10
178.0439869073009
 20
124.1874582181988
 30
0.0
 10
178.2682095814235
 20
124.2387352375551
 30
0.0
 10
178.6518742305894
 20
124.3264747122472
 30
0.0
 10
179.2502622099011
 20
124.4943853626167
 30
0.0
 10
179.5602794963856
 20
124.5900475209257
 30
0.0
 10
179.6977066007233
 20
124.6324534575759
 30
0.0
  0
LINE
  5
24A
330
1F
100
AcDbEntity
  8
0
  6
Continuous
 62
     7
370
    15
100
AcDbLine
 10
178.4292666745
 20
127.0575205843
 30
0.0
 11
178.8840892297
 21
127.5089531253
 31
0.0
  0
LINE
  5
24B
330
1F
100
AcDbEntity
  8
0
  6
Continuous
 62
     7
370
    15
100
AcDbLine
 10
178.4292666745
 20
127.0575205843
 30
0.0
 11
177.6024077591
 21
126.835023896
 31
0.0
  0
LINE
  5
24C
330
1F
100
AcDbEntity
  8
0
  6
Continuous
 62
     7
370
    15
100
AcDbLine
 10
177.6024077591
 20
126.835023896
 30
0.0
 11
177.1274183449
 21
126.7072091858
 31
0.0
  0
LINE
  5
24D
330
1F
100
AcDbEntity
  8
0
  6
Continuous
 62
     7
370
    15
100
AcDbLine
 10
179.3286746871
 20
124.5202123235
 30
0.0
 11
179.4529093933
 21
125.0113955747
 31
0.0
  0
LINE
  5
24E
330
1F
100
AcDbEntity
  8
0
  6
Continuous
 62
     7
370
    15
100
AcDbLine
 10
179.4529093933
 20
125.0113955747
 30
0.0
 11
179.6629347411
 21
125.8417702328
 31
0.0
  0
LINE
  5
24F
330
1F
100
AcDbEntity
  8
0
  6
Continuous
 62
     7
370
    15
100
AcDbLine
 10
179.6629347411
 20
125.8417702328
 30
0.0
 11
180.1177572963
 21
126.2932009111
 31
0.0
  0
LINE
  5
250
330
1F
100
AcDbEntity
  8
0
  6
Continuous
 62
     7
370
    15
100
AcDbLine
 10
179.6629347411
 20
125.8417702328
 30
0.0
 11
179.0461011735
 21
126.4496444772
 31
0.0
  0
LINE
  5
251
330
1F
100
AcDbEntity
  8
0
  6
Continuous
 62
     7
370
    15
100
AcDbLine
 10
179.0461011735
 20
126.4496444772
 30
0.0
 11
178.4292666745
 21
127.0575205843
 31
0.0
  0
ARC
  5
252
330
1F
100
AcDbEntity
  8
0
  6
Continuous
 62
     7
370
    15
100
AcDbCircle
 10
177.98776083
 20
125.3817747921
 30
0.0
 40
1.503472629279498
100
AcDbArc
 50
45.2567890251
 51
104.8511438698
  0
ARC
  5
253
330
1F
100
AcDbEntity
  8
0
  6
Continuous
 62
     7
370
    15
100
AcDbCircle
 10
177.9928820785
 20
125.3750845738
 30
0.0
 40
1.504642631310461
100
AcDbArc
 50
346.0124402904
 51
45.5746354592
  0
ARC
  5
254
330
1F
100
AcDbEntity
  8
0
  6
Continuous
 62
     7
370
    15
100
AcDbCircle
 10
178.0348699346
 20
125.3692554608
 30
0.0
 40
1.46249772806336
100
AcDbArc
 50
322.6598882987
 51
345.8364323472
  0
ARC
  5
255
330
1F
100
AcDbEntity
  8
0
  6
Continuous
 62
     7
370
    15
100
AcDbCircle
 10
177.9815381536
 20
125.423320795
 30
0.0
 40
1.46172689008388
100
AcDbArc
 50
105.0327764483
 51
128.9157757824
  0
LINE
  5
256
330
1F
100
AcDbEntity
  8
0
  6
Continuous
 62
     7
370
    15
100
AcDbLine
 10
148.3444061634
 20
103.8574049297
 30
0.0
 11
144.7290491816
 21
103.8574049297
 31
0.0
  0
LINE
  5
257
330
1F
100
AcDbEntity
  8
0
  6
Continuous
 62
     7
370
    15
100
AcDbLine
 10
146.112692779
 20
108.857404818
 30
0.0
 11
148.3444061634
 21
108.857404818
 31
0.0
  0
ELLIPSE
  5
258
330
1F
100
AcDbEntity
  8
0
  6
Continuous
 62
     7
370
    15
100
AcDbEllipse
 10
171.5301910215
 20
107.1074048738
 30
0.0
 11
-2.557953848736361E-13
 21
35.99999999999999
 31
0.0
210
0.0
220
0.0
230
1.0
 40
0.9722222222
 41
0.5320241702276365
 42
0.941315611700461
  0
ELLIPSE
  5
259
330
1F
100
AcDbEntity
  8
0
  6
Continuous
 62
     7
370
    15
100
AcDbEllipse
 10
166.2074486982
 20
107.1074048738
 30
0.0
 11
-3.410605131648481E-13
 21
35.99999999999999
 31
0.0
210
0.0
220
0.0
230
1.0
 40
0.6807573288
 41
0.2343292407410068
 42
0.5320241702276344
  0
SPLINE
  5
25A
330
1F
100
AcDbEntity
  8
0
  6
Continuous
 62
     7
370
    15
100
AcDbSpline
210
0.0
220
0.0
230
1.0
 70
     8
 71
     3
 72
    10
 73
     6
 74
     0
 42
0.00000001
 43
0.00000001
 12
1.0
 22
0.0
 32
0.0
 13
1.0
 23
0.0
 33
0.0
 40
0.0
 40
0.0
 40
0.0
 40
0.0
 40
0.5503503221376991
 40
0.914777525586688
 40
0.9999999999999999
 40
0.9999999999999999
 40
0.9999999999999999
 40
0.9999999999999999
 10
162.8372978922706
 20
77.5801333646592
 30
0.0
 10
162.741683962603
 20
77.76962414814315
 30
0.0
 10
162.5827570564587
 20
78.08459063960193
 30
0.0
 10
162.3110998405582
 20
78.36326489437825
 30
0.0
 10
162.1590158346124
 20
78.44485033545557
 30
0.0
 10
162.1301912274938
 20
78.46031329141223
 30
0.0
  0
ELLIPSE
  5
25B
330
1F
100
AcDbEntity
  8
0
  6
Continuous
 62
     7
370
    15
100
AcDbEllipse
 10
247.9194162856
 20
105.6074048738
 30
0.0
 11
130.6217782649096
 21
1.350031197944190E-12
 31
0.0
210
0.0
220
0.0
230
1.0
 40
0.2756048836
 41
3.832416138009419
 42
3.995853839830507
  0
ARC
  5
25C
330
1F
100
AcDbEntity
  8
0
  6
Continuous
 62
     7
370
    15
100
AcDbCircle
 10
144.1787550141
 20
84.2864503985
 30
0.0
 40
3.467832599292907
100
AcDbArc
 50
332.2020544929
 51
343.5835325882
  0
LINE
  5
25D
330
1F
100
AcDbEntity
  8
0
  6
Continuous
 62
     7
370
    15
100
AcDbLine
 10
147.5052137431
 20
102.6074049576
 30
0.0
 11
147.5052137431
 21
83.3063813906
 31
0.0
  0
ARC
  5
25E
330
1F
100
AcDbEntity
  8
0
  6
Continuous
 62
     7
370
    15
100
AcDbCircle
 10
146.3451793006
 20
102.8406568895
 30
0.0
 40
1.183252454718372
100
AcDbArc
 50
348.630950429
 51
40.3910055953
  0
ELLIPSE
  5
25F
330
1F
100
AcDbEntity
  8
0
  6
Continuous
 62
     7
370
    15
100
AcDbEllipse
 10
140.0183957712
 20
105.6074048738
 30
0.0
 11
-3.979039320256561E-13
 21
35.99999999999999
 31
0.0
210
0.0
220
0.0
230
1.0
 40
0.2605061593
 41
3.314677809971282
 42
4.021565495965119
  0
DIMENSION
  5
260
330
1F
100
AcDbEntity
  8
VERMASSUNG
100
AcDbDimension
  2
_D
 10
199.0474356001
 20
63.3574048738
 30
0.0
 11
199.0474356001
 21
106.3574048738
 31
0.0
 70
   160
  1
%%c<> - 115.5
 71
     2
 42
-1.0
  3
SLDDIMSTYLE0
100
AcDbAlignedDimension
 13
189.8444045839
 23
149.3574048738
 33
0.0
 14
189.8444045839
 24
63.3574048738
 34
0.0
 50
90.0
100
AcDbRotatedDimension
  0
DIMENSION
  5
26D
330
1F
100
AcDbEntity
  8
VERMASSUNG
100
AcDbDimension
  2
_D_1
 10
140.3444045839
 20
159.3574048739
 30
0.0
 11
165.0944045839
 21
159.3574048739
 31
0.0
 70
   160
  1
<>
 71
     2
 42
-1.0
  3
SLDDIMSTYLE0
100
AcDbAlignedDimension
 13
189.8444045839
 23
149.3574048738
 33
0.0
 14
140.3444045839
 24
143.1074048738
 34
0.0
 50
0.0
100
AcDbRotatedDimension
  0
DIMENSION
  5
277
330
1F
100
AcDbEntity
  8
VERMASSUNG
100
AcDbDimension
  2
_D_2
 10
189.8444045839
 20
165.3574048739
 30
0.0
 11
146.0944045839
 21
165.3574048739
 31
0.0
 70
   160
  1
<>
 71
     2
 42
-1.0
  3
SLDDIMSTYLE0
100
AcDbAlignedDimension
 13
102.3444045839
 23
136.4595645859
 33
0.0
 14
189.8444045839
 24
149.3574048738
 34
0.0
 50
0.0
100
AcDbRotatedDimension
  0
OLE2FRAME
  5
281
330
1F
100
AcDbEntity
  8
0
100
AcDbOle2Frame
 70
     2
  3
Paintbrush-Bild
 10
13.8511154363
 20
38.264191557
 30
0.0
 11
51.6290888628
 21
31.9806341108
 31
0.0
 71
     2
 72
     0
 73
     1
 90
    12928
310
80552BED0767C5B32B40DDAF6807D121434000000000000000006FFBDDFB85D0
310
4940DDAF6807D121434000000000000000006FFBDDFB85D04940416F4BD60AFB
310
3F4000000000000000002BED0767C5B32B40416F4BD60AFB3F40000000000000
310
0000000000000100000000010000010000000100000000000100000000320000
310
D0CF11E0A1B11AE1000000000000000000000000000000003E000300FEFF0900
310
0600000000000000000000000100000001000000000000000010000002000000
310
01000000FEFFFFFF0000000000000000FFFFFFFFFFFFFFFFFFFFFFFFFFFFFFFF
310
FFFFFFFFFFFFFFFFFFFFFFFFFFFFFFFFFFFFFFFFFFFFFFFFFFFFFFFFFFFFFFFF
310
FFFFFFFFFFFFFFFFFFFFFFFFFFFFFFFFFFFFFFFFFFFFFFFFFFFFFFFFFFFFFFFF
310
FFFFFFFFFFFFFFFFFFFFFFFFFFFFFFFFFFFFFFFFFFFFFFFFFFFFFFFFFFFFFFFF
310
FFFFFFFFFFFFFFFFFFFFFFFFFFFFFFFFFFFFFFFFFFFFFFFFFFFFFFFFFFFFFFFF
310
FFFFFFFFFFFFFFFFFFFFFFFFFFFFFFFFFFFFFFFFFFFFFFFFFFFFFFFFFFFFFFFF
310
FFFFFFFFFFFFFFFFFFFFFFFFFFFFFFFFFFFFFFFFFFFFFFFFFFFFFFFFFFFFFFFF
310
FFFFFFFFFFFFFFFFFFFFFFFFFFFFFFFFFFFFFFFFFFFFFFFFFFFFFFFFFFFFFFFF
310
FFFFFFFFFFFFFFFFFFFFFFFFFFFFFFFFFFFFFFFFFFFFFFFFFFFFFFFFFFFFFFFF
310
FFFFFFFFFFFFFFFFFFFFFFFFFFFFFFFFFFFFFFFFFFFFFFFFFFFFFFFFFFFFFFFF
310
FFFFFFFFFFFFFFFFFFFFFFFFFFFFFFFFFFFFFFFFFFFFFFFFFFFFFFFFFFFFFFFF
310
FFFFFFFFFFFFFFFFFFFFFFFFFFFFFFFFFFFFFFFFFFFFFFFFFFFFFFFFFFFFFFFF
310
FFFFFFFFFFFFFFFFFFFFFFFFFFFFFFFFFFFFFFFFFFFFFFFFFFFFFFFFFFFFFFFF
310
FFFFFFFFFFFFFFFFFFFFFFFFFFFFFFFFFFFFFFFFFFFFFFFFFFFFFFFFFFFFFFFF
310
FDFFFFFFFEFFFFFFFEFFFFFFFEFFFFFF05000000060000000700000008000000
310
090000000A0000000B0000000C0000000D0000000E0000000F00000010000000
310
11000000120000001300000014000000150000001600000017000000FEFFFFFF
310
FFFFFFFFFFFFFFFFFFFFFFFFFFFFFFFFFFFFFFFFFFFFFFFFFFFFFFFFFFFFFFFF
310
FFFFFFFFFFFFFFFFFFFFFFFFFFFFFFFFFFFFFFFFFFFFFFFFFFFFFFFFFFFFFFFF
310
FFFFFFFFFFFFFFFFFFFFFFFFFFFFFFFFFFFFFFFFFFFFFFFFFFFFFFFFFFFFFFFF
310
FFFFFFFFFFFFFFFFFFFFFFFFFFFFFFFFFFFFFFFFFFFFFFFFFFFFFFFFFFFFFFFF
310
FFFFFFFFFFFFFFFFFFFFFFFFFFFFFFFFFFFFFFFFFFFFFFFFFFFFFFFFFFFFFFFF
310
FFFFFFFFFFFFFFFFFFFFFFFFFFFFFFFFFFFFFFFFFFFFFFFFFFFFFFFFFFFFFFFF
310
FFFFFFFFFFFFFFFFFFFFFFFFFFFFFFFFFFFFFFFFFFFFFFFFFFFFFFFFFFFFFFFF
310
FFFFFFFFFFFFFFFFFFFFFFFFFFFFFFFFFFFFFFFFFFFFFFFFFFFFFFFFFFFFFFFF
310
FFFFFFFFFFFFFFFFFFFFFFFFFFFFFFFFFFFFFFFFFFFFFFFFFFFFFFFFFFFFFFFF
310
FFFFFFFFFFFFFFFFFFFFFFFFFFFFFFFFFFFFFFFFFFFFFFFFFFFFFFFFFFFFFFFF
310
FFFFFFFFFFFFFFFFFFFFFFFFFFFFFFFFFFFFFFFFFFFFFFFFFFFFFFFFFFFFFFFF
310
FFFFFFFFFFFFFFFFFFFFFFFFFFFFFFFFFFFFFFFFFFFFFFFFFFFFFFFFFFFFFFFF
310
FFFFFFFFFFFFFFFFFFFFFFFFFFFFFFFFFFFFFFFFFFFFFFFFFFFFFFFFFFFFFFFF
310
52006F006F007400200045006E00740072007900000000000000000000000000
310
0000000000000000000000000000000000000000000000000000000000000000
310
16000500FFFFFFFFFFFFFFFF020000000A00030000000000C000000000000046
310
00000000000000000000000070E592D04652CF0103000000C000000000000000
310
01004F006C006500000000000000000000000000000000000000000000000000
310
0000000000000000000000000000000000000000000000000000000000000000
310
0A000200FFFFFFFFFFFFFFFFFFFFFFFF00000000000000000000000000000000
310
0000000000000000000000000000000000000000000000001400000000000000
310
010043006F006D0070004F0062006A0000000000000000000000000000000000
310
0000000000000000000000000000000000000000000000000000000000000000
310
120002010100000003000000FFFFFFFF00000000000000000000000000000000
310
0000000000000000000000000000000000000000010000004D00000000000000
310
01004F006C006500310030004E00610074006900760065000000000000000000
310
0000000000000000000000000000000000000000000000000000000000000000
310
1A000200FFFFFFFFFFFFFFFFFFFFFFFF00000000000000000000000000000000
310
0000000000000000000000000000000000000000040000002426000000000000
310
FEFFFFFF02000000FEFFFFFFFFFFFFFFFFFFFFFFFFFFFFFFFFFFFFFFFFFFFFFF
310
FFFFFFFFFFFFFFFFFFFFFFFFFFFFFFFFFFFFFFFFFFFFFFFFFFFFFFFFFFFFFFFF
310
FFFFFFFFFFFFFFFFFFFFFFFFFFFFFFFFFFFFFFFFFFFFFFFFFFFFFFFFFFFFFFFF
310
FFFFFFFFFFFFFFFFFFFFFFFFFFFFFFFFFFFFFFFFFFFFFFFFFFFFFFFFFFFFFFFF
310
FFFFFFFFFFFFFFFFFFFFFFFFFFFFFFFFFFFFFFFFFFFFFFFFFFFFFFFFFFFFFFFF
310
FFFFFFFFFFFFFFFFFFFFFFFFFFFFFFFFFFFFFFFFFFFFFFFFFFFFFFFFFFFFFFFF
310
FFFFFFFFFFFFFFFFFFFFFFFFFFFFFFFFFFFFFFFFFFFFFFFFFFFFFFFFFFFFFFFF
310
FFFFFFFFFFFFFFFFFFFFFFFFFFFFFFFFFFFFFFFFFFFFFFFFFFFFFFFFFFFFFFFF
310
FFFFFFFFFFFFFFFFFFFFFFFFFFFFFFFFFFFFFFFFFFFFFFFFFFFFFFFFFFFFFFFF
310
FFFFFFFFFFFFFFFFFFFFFFFFFFFFFFFFFFFFFFFFFFFFFFFFFFFFFFFFFFFFFFFF
310
FFFFFFFFFFFFFFFFFFFFFFFFFFFFFFFFFFFFFFFFFFFFFFFFFFFFFFFFFFFFFFFF
310
FFFFFFFFFFFFFFFFFFFFFFFFFFFFFFFFFFFFFFFFFFFFFFFFFFFFFFFFFFFFFFFF
310
FFFFFFFFFFFFFFFFFFFFFFFFFFFFFFFFFFFFFFFFFFFFFFFFFFFFFFFFFFFFFFFF
310
FFFFFFFFFFFFFFFFFFFFFFFFFFFFFFFFFFFFFFFFFFFFFFFFFFFFFFFFFFFFFFFF
310
FFFFFFFFFFFFFFFFFFFFFFFFFFFFFFFFFFFFFFFFFFFFFFFFFFFFFFFFFFFFFFFF
310
FFFFFFFFFFFFFFFFFFFFFFFFFFFFFFFFFFFFFFFFFFFFFFFFFFFFFFFFFFFFFFFF
310
0100000200000000000000000000000000000000000000000000000000000000
310
0000000000000000000000000000000000000000000000000000000000000000
310
0100FEFF030A0000FFFFFFFF0A00030000000000C00000000000004607000000
310
5042727573680007000000504272757368000700000050427275736800F439B2
310
7100000000000000000000000000000000000000000000000000000000000000
310
0000000000000000000000000000000000000000000000000000000000000000
310
0000000000000000000000000000000000000000000000000000000000000000
310
0000000000000000000000000000000000000000000000000000000000000000
310
0000000000000000000000000000000000000000000000000000000000000000
310
0000000000000000000000000000000000000000000000000000000000000000
310
0000000000000000000000000000000000000000000000000000000000000000
310
0000000000000000000000000000000000000000000000000000000000000000
310
0000000000000000000000000000000000000000000000000000000000000000
310
0000000000000000000000000000000000000000000000000000000000000000
310
0000000000000000000000000000000000000000000000000000000000000000
310
0000000000000000000000000000000000000000000000000000000000000000
310
20260000424D0E260000000000003E00000028000000B40200006E0000000100
310
01000000000000000000130B0000130B00000200000002000000000000FFFFFF
310
FFFFFFFFFFFFFFFFFFFFFFFFFFFFFFFFFFFFFFFFFFFFFFFFFFFFFFFFFFFFFFFF
310
FFFFFFFFFFFFFFFFFFFFFFFFFFFFFFFFFFFFFFFFFFFFFFFFFFFFFFFFFFFFFFFF
310
FFFFFFFFFFFFFFFFFFFFFFFFFFFFFFFFFFFFFFFFFFFFFFFFF000FFFFFFFFFFFF
310
FFFFFFFFFFFFFFFFFFFFFFFFFFFFFFFFFFFFFFFFFFFFFFFFFFFFFFFFFFFFFFFF
310
FFFFFFFFFFFFFFFFFFFFFFFFFFFFFFFFFFFFFFFFFFFFFFFFFFFFFFFFFFFFFFFF
310
FFFFFFFFFFFFFFFFFFFFFFFFFFFFFFFFF000FFFFFFFFFFFFFFFFFFFFFFFFFFFF
310
FFFFFFFFFFFFFFFFFFFFFFFFFFFFFFFFFFFFFFFFFFFFFFFFFFFFFFFFFFFFFFFF
310
FFFFFFFFFFFFFFFFFFFFFFFFFFFFFFFFFFFFFFFFFFFFFFFFFFFFFFFFFFFFFFFF
310
FFFFFFFFFFFFFFFFF000FFFFFFFFFFFFFFFFFFFFFFFFFFFFFFFFFFFFFFFFFFFF
310
FFFFFFFFFFFFFFFFFFFFFFFFFFFFFFFFFFFFFFFFFFFFFFFFFFFFFFFFFFFFFFFF
310
FFFFFFFFFFFFFFFFFFFFFFFFFFFFFFFFFFFFFFFFFFFFFFFFFFFFFFFFFFFFFFFF
310
F000FFFFFFFFFFFFFFFFFFFFFFFFFFFFFFFFFFFFFFFFFFFFFFFFFFFFFFFFFFFF
310
FFFFFFFFFFFFFFFFFFFFFFFFFFFFFFFFFFFFFFFFFFFFFFFFFFFFFFFFFFFFFFFF
310
FFFFFFFFFFFFFFFFFFFFFFFFFFFFFFFFFFFFFFFFFFFFFFFFF000FFFFFFFFFFFF
310
FFFFFFFFFFFFFFFFFFFFFFFFFFFFFFFFFFFFFFFFFFFFFFFFFFFFFFFFFFFFFFFF
310
FFFFFFFFFFFFFFFFFFFFFFFFFFFFFFFFFFFFFFFFFFFFFFFFFFFFFFFFFFFFFFFF
310
FFFFFFFFFFFFFFFFFFFFFFFFFFFFFFFFF000FFFFFFFFFFFFFFFFFFFFFFFFFFFF
310
FFFFFFFFFFFFFFFFFFFFFFFFFFFFFFFFFFFFFFFFFFFFFFFFFFFFFFFFFFFFFFFF
310
FFFFFFFFFFFFFFFFFFFFFFFFFFFFFFFFFFFFFFFFFFFFFFFFFFFFFFFFFFFFFFFF
310
FFFFFFFFFFFFFFFFF000FFFFFFFFFFFFFFFFFFFFFFFFFFFFFFFFFFFFFFFFFFFF
310
FFFFFFFFFFFFFFFFFFFFFFFFFFFFFFFFFFFFFFFFFFFFFFFFFFFFFFFFFFFFFFFF
310
FFFFFFFFFFFFFFFFFFFFFFFFFFFFFFFFFFFFFFFFFFFFFFFFFFFFFFFFFFFFFFFF
310
F000FFFFFFFFFFFFFFFFFFFFFFFFFFFFFFFFFFFFFFFFFFFFFFFFFFFFFFFFFFFF
310
FFFFFFFFFFFFFFFFFFFFFFFFFFFFFFFFFFFFFFFFFFFFFFFFFFFFFFFFFFFFFFFF
310
FFFFFFFFFFFFFFFFFFFFFFFFFFFFFFFFFFFFFFFFFFFFFFFFF000FFFFFFFFFFFF
310
FFFFFFFFFFFFFFFFFFFFFFFFFFFFFFFFFFFFFFFFFFFFFFFFFFFFFFFFFFFFFFFF
310
FFFFFFFFFFFFFFFFFFFFFFFFFFFFFFFFFFFFFFFFFFFFFFFFFFFFFFFFFFFFFFFF
310
FFFFFFFFFFFFFFFFFFFFFFFFFFFFFFFFF000FFFFFFFFFFFFFFFFFFFFFFFFFFFF
310
FFFFFFFFFFFFFFFFFFFFFFFFFFFFFFFFFFFFFFFFFFFFFFFFFFFFFFFFFFFFFFFF
310
FFFFFFFFFFFFFFFFFFFFFFFFFFFFFFFFFFFFFFFFFFFFFFFFFFFFFFFFFFFFFFFF
310
FFFFFFFFFFFFFFFFF000FFFFFFFFFFFFFFFFFFFFFFFFFFFFFFFFFFFFFFFFFFFF
310
FFFFFFFFFFFFFFFFFFFFFFFFFFFFFFFFFFFFFFFFFFFFFFFFFFFFFFFFFFFFFFFF
310
FFFFFFFFFFFFFFFFFFFFFFFFFFFFFFFFFFFFFFFFFFFFFFFFFFFFFFFFFFFFFFFF
310
F000FFFFFFFFFFFFFFFFFFFFFFFFFFFFFFFFFFFFFFFFFFFFFFFFFFFFFFFFFFFF
310
FFFFFFFFFFFFFFFFFFFFFFFFFFFFFFFFFFFFFFFFFFFFFFFFFFFFFFFFFFFFFFFF
310
FFFFFFFFFFFFFFFFFFFFFFFFFFFFFFFFFFFFFFFFFFFFFFFFF000FFFFFFFFFFFF
310
FFFFFFFFFFFFFFFFFFFFFFFFFFFFFFFFFFFFFFFFFFFFFFFFFFFFFFFFFFFFFFFF
310
FFFFFFFFFFFFFFFFFFFFFFFFFFFFFFFFFFFFFFFFFFFFFFFFFFFFFFFFFFFFFFFF
310
FFFFFFFFFFFFFFFFFFFFFFFFFFFFFFFFF000FFFFFFFFFFFFFFFFFFFFFFFFFFFF
310
FFFFFFFFFFFFFFFFFFFFFFFFFFFFFFFFFFFFFFFFFFFFFFFFFFFFFFFFFFFFFFFF
310
FFFFFFFFFFFFFFFFFFFFFFFFFFFFFFFFFFFFFFFFFFFFFFFFFFFFFFFFFFFFFFFF
310
FFFFFFFFFFFFFFFFF000FFFFFFFFFFFFFFFFFFFFFFFFFFFFFFFFFFFFFFFFFFFF
310
FFFFFFFFFFFFFFFFFFFFFFFFFFFFFFFFFFFFFFFFFFFFFFFFFFFFFFFFFFFFFFFF
310
FFFFFFFFFFFFFFFFFFFFFFFFFFFFFFFFFFFFFFFFFFFFFFFFFFFFFFFFFFFFFFFF
310
F000FFFFFFFFFFFFFFFFFFFFFFFFFFFFFFFFFFFFFFFFFFFFFFFFFFFFFFFFFFFF
310
FFFFFFFFFFFFFFFFFFFFFFFFFFFFFFFFFFFFFFFFFFFFFFFFFFFFFFFFFFFFFFFF
310
FFFFFFFFFFFFFFFFFFFFFFFFFFFFFFFFFFFFFFFFFFFFFFFFF000FFFFFFFFFFFF
310
FFFFFFFFFFFFFFFFFFFFFFFFFFFFFFFFFFFFFFFFFFFFFFFFFFFFFFFFFFFFFFFF
310
FFFFFFFFFFFFFFFFFFFFFFFFFFFFFFFFFFFFFFFFFFFFFFFFFFFFFFFFFFFFFFFF
310
FFFFFFFFFFFFFFFFFFFFFFFFFFFFFFFFF000FFFFFFFFFFFFFFFFFFFFFFFFFFFF
310
FFFFFFFFFFFFFFFFFFFFFFFFFFFFFFFFFFFFFFFFFFFFFFFFFFFFFFFFFFFFFFFF
310
FFFFFFFFFFFFFFFFFFFFFFFFFFFFFFFFFFFFFFFFFFFFFFFFFFFFFFFFFFFFFFFF
310
FFFFFFFFFFFFFFFFF000FFFFF80003FFFFFFFFFFFFFFFFFFFFFFFFFFFFFFFFFF
310
FFFFF00007FFFFFFFFFF00007FFFFFF800000000000000007FFFFFFFFFFFFFFF
310
FFFFFFFC001FFFFFFFFFFFFFFC001FFFFFFFFFFFFFFFFFFFFFFFFFFE0007FFFF
310
F000FFFF8000007FFFFFFFF8000FFFFFC0007FFFFF80007FFFFF0000007FFFFF
310
FFF8000007FFFFF800000000000000007FFFFFF0001FFFFFFFFFFFC00001FFFF
310
FFFFFFFFC00001FFFFFFFF000000000003FFFFE000007FFFF000FFFE0000000F
310
FFFFFFF0000FFFFF80007FFFFF80007FFFFC0000001FFFFFFFC0000001FFFFF8
310
00000000000000007FFFFFF0001FFFFFFFFFFE0000003FFFFFFFFFFE0000003F
310
FFFFFF000000000003FFFF0000000FFFF000FFF800000003FFFFFFF00007FFFF
310
80007FFFFF80007FFFF000000007FFFFFF000000003FFFF80000000000000000
310
7FFFFFF0001FFFFFFFFFF80000000FFFFFFFFFF80000000FFFFFFF0000000000
310
03FFFC00000003FFF000FFE000000000FFFFFFF00007FFFF80003FFFFF80007F
310
FFC000000001FFFFFC000000001FFFF800000000000000007FFFFFF0001FFFFF
310
FFFFE000000003FFFFFFFFE000000003FFFFFF000000000003FFF000000000FF
310
F000FF80000000007FFFFFF00007FFFF80003FFFFF80007FFF8000000000FFFF
310
F80000000007FFF800000000000000007FFFFFF0001FFFFFFFFFC000000001FF
310
FFFFFFC000000001FFFFFF000000000003FFC0000000007FF000FF0000000000
310
3FFFFFE00007FFFF00003FFFFF80007FFE00000000003FFFF00000000003FFF8
310
00000000000000007FFFFFF0001FFFFFFFFF8000000000FFFFFFFF8000000000
310
FFFFFF000000000003FF80000000003FF000FE00000000001FFFFFE00003FFFF
310
00003FFFFF80007FFC00000000001FFFE00000000001FFF8000001FFFE000000
310
7FFFFFF0001FFFFFFFFE00000000003FFFFFFE00000000003FFFFF0000000000
310
03FF00000000001FF000FC00000000000FFFFFE00003FFFF00001FFFFF80007F
310
F800000000001FFFC00000000000FFF8000001FFFE0000007FFFFFF0001FFFFF
310
FFFC00000000001FFFFFFC00000000001FFFFF000000000003FE00000000000F
310
F000F8000000000007FFFFE00003FFFF00001FFFFF80007FF800000000000FFF
310
800000000000FFF8000001FFFE0000007FFFFFF0001FFFFFFFF800000000000F
310
FFFFF800000000000FFFFF000000000003FC000000000007F000F80000000000
310
03FFFFC00003FFFE00001FFFFF80007FF0000000000007FF0000000000007FF8
310
000001FFFE0000007FFFFFF0001FFFFFFFF0000000000007FFFFF00000000000
310
07FFFF000000000003F8000000000003F000F0000000000003FFFFC00001FFFE
310
00001FFFFF80007FE0000000000007FE0000000000003FF8000001FFFE000000
310
7FFFFFF0001FFFFFFFF0000000000007FFFFF0000000000007FFFF0000000000
310
03F800001F800003F000E00001FFF00001FFFFC00001FFFE00000FFFFF80007F
310
E00001FFE00003FE00001FFF00003FF8000001FFFE0000007FFFFFF0001FFFFF
310
FFE000003E000003FFFFE000003E000003FFFF000000000003F00001FFF80001
310
F000E00007FFFC0001FFFFC00001FFFE00000FFFFF80007FC0000FFFFC0003FC
310
0000FFFFC0001FF8000001FFFE0000007FFFFFF0001FFFFFFFC00003FFE00001
310
FFFFC00003FFE00001FFFF0001FFFFFFFFF00007FFFE0001F000E0000FFFFF00
310
00FFFF800001FFFC00000FFFFF80007FC0001FFFFE0001FC0001FFFFE0001FF8
310
000001FFFE0000007FFFFFF0001FFFFFFF80000FFFF80000FFFF80000FFFF800
310
00FFFF0003FFFFFFFFE0000FFFFF8000F000C0003FFFFF8000FFFF800000FFFC
310
000007FFFF80007F80003FFFFF0001FC0003FFFFF0001FF8000001FFFE000000
310
7FFFFFF0001FFFFFFF80003FFFFE0000FFFF80003FFFFE0000FFFF0003FFFFFF
310
FFE0003FFFFF8000F000C0003FFFFF8000FFFF800000FFFC000007FFFF80007F
310
80007FFFFF8001F80007FFFFF8000FF8000001FFFE0000007FFFFFF0001FFFFF
310
FF00007FFFFF00007FFF00007FFFFF00007FFF0003FFFFFFFFE0003FFFFFC000
310
F000C0007FFFFFC000FFFF000000FFFC000007FFFF80007F8000FFFFFF8000F8
310
000FFFFFF8000FF8000001FFFE0000007FFFFFF0001FFFFFFF0000FFFFFF8000
310
7FFF0000FFFFFF80007FFF0003FFFFFFFFC0007FFFFFC00070008000FFFFFFC0
310
00FFFF000000FFF8000007FFFF80007F8000FFFFFF8000F8000FFFFFF8000FF8
310
000001FFFE0000007FFFFFF0001FFFFFFE0001FFFFFFC0003FFE0001FFFFFFC0
310
003FFF0003FFFFFFFFC0007FFFFFE00070008000FFFFFFC0007FFF0000007FF8
310
000003FFFF80007F0001FFFFFF8000F8000FFFFFF8000FF8000001FFFE000000
310
7FFFFFF0001FFFFFFE0001FFFFFFC0003FFE0001FFFFFFC0003FFF0003FFFFFF
310
FFC000FFFFFFE00070008000FFFFFFC0007FFF0000007FF8000003FFFF80007F
310
0001FFFFFF8000F8001FFFFFF8000FF8000001FFFE0000007FFFFFF0001FFFFF
310
FE0003FFFFFFE0003FFE0003FFFFFFE0003FFF0003FFFFFFFFC000FFFFFFE000
310
70008000FFFFFFC0007FFE0000007FF8000003FFFF80007F0001FFFFFF8000F0
310
001FFFFFF8000FF8000001FFFE0000007FFFFFF0001FFFFFFC0003FFFFFFE000
310
1FFC0003FFFFFFE0001FFF0003FFFFFFFFC000FFFFFFC00070008000FFFFFF80
310
007FFE0000007FF0000003FFFF80007F0001FFFFFF0000F0001FFFFFF8000FF8
310
000001FFFE0000007FFFFFF0001FFFFFFC0007FFFFFFF0001FFC0007FFFFFFF0
310
001FFF0003FFFFFFFFC000FFFFFFC00070008001FFFFFF0000FFFE0000003FF0
310
000001FFFF80007F0001FFFFFF0000F8001FFFFFF0000FF8000001FFFE000000
310
7FFFFFF0001FFFFFFC0007FFFFFFF0001FFC0007FFFFFFF0001FFF0003FFFFFF
310
FFC001FFFFFF80007000FFFFFFFFFE0000FFFE0008003FF0008001FFFF80007F
310
FFFFFFFFFC0000FFFFFFFFFFE0000FF8000001FFFE0000007FFFFFF0001FFFFF
310
F8000FFFFFFFF8000FF8000FFFFFFFF8000FFF0003FFFFFFFFFFFFFFFFFF0000
310
7000FFFFFFFFFC0000FFFC0008003FF0008001FFFF80007FFFFFFFFFF80001FF
310
FFFFFFFF80000FF8000001FFFE0000007FFFFFF0001FFFFFF8000FFFFFFFF800
310
0FF8000FFFFFFFF8000FFF0003FFFFFFFFFFFFFFFFFE0000F000FFFFFFFFE000
310
00FFFC000C003FE000C001FFFF80007FFFFFFFFFC00001FFFFFFFFFE00001FF8
310
000001FFFE0000007FFFFFF0001FFFFFF8000FFFFFFFF8000FF8000FFFFFFFF8
310
000FFF0003FFFFFFFFFFFFFFFFF00000F000FFFFFFFE000001FFFC000C001FE0
310
00C000FFFF80007FFFFFFFFE000001FFFFFFFFE000001FF80FFFFFFFFFFFFFC0
310
7FFFFFF0001FFFFFF8000FFFFFFFF8000FF8000FFFFFFFF8000FFF0003FFFFFF
310
FFFFFFFFFF800000F000FFFFFFC0000001FFFC001C001FE001C000FFFF80007F
310
FFFFFF80000003FFFFFFF80000001FF80FFFFFFFFFFFFFC07FFFFFF0001FFFFF
310
F8001FFFFFFFFC000FF8001FFFFFFFFC000FFF0003FFFFFFFFFFFFFFF0000001
310
F000FFFFF800000001FFF8001C001FE001C000FFFF80007FFFFFF800000003FF
310
FFFF800000003FF80FFFFFFFFFFFFFC07FFFFFF0001FFFFFF8001FFFFFFFFC00
310
0FF8001FFFFFFFFC000FFF0003FFFFFFFFFFFFFE00000001F000FFFFC0000000
310
03FFF8001E001FC001E000FFFF80007FFFFF8000000007FFFFFC000000003FF8
310
0FFFFFFFFFFFFFC07FFFFFF0001FFFFFF8001FFFFFFFFC000FF8001FFFFFFFFC
310
000FFF0003FFFFFFFFFFFFE000000003F000FFFE0000000007FFF8001E000FC0
310
01E0007FFF80007FFFFE0000000007FFFFE0000000007FF80FFFFFFFFFFFFFC0
310
7FFFFFF0001FFFFFF0001FFFFFFFFC0007F0001FFFFFFFFC0007FF0003FFFFFF
310
FFFFFF0000000003F000FFF80000000007FFF8001E000FC003E0007FFF80007F
310
FFF0000000000FFFFF8000000000FFF80FFFFFFFFFFFFFC07FFFFFF0001FFFFF
310
F0001FFFFFFFFC0007F0001FFFFFFFFC0007FF0003FFFFFFFFFFFC0000000007
310
F000FFE0000000000FFFF0003E000FC003E0007FFF80007FFFC0000000001FFF
310
FE0000000001FFF80FFFFFFFFFFFFFC07FFFFFF0001FFFFFF0001FFFFFFFFC00
310
07F0001FFFFFFFFC0007FF0003FFFFFFFFFFF0000000000FF000FFC000000000
310
1FFFF0003F000F8003F0003FFF80007FFF80000000003FFFF80000000003FFF8
310
0FFFFFFFFFFFFFC07FFFFFF0001FFFFFF0001FFFFFFFFC0007F0001FFFFFFFFC
310
0007FF0003FFFFFFFFFFE0000000001FF000FF00000000007FFFF0003F000780
310
03F0003FFF80007FFF00000000007FFFF00000000007FFF80FFFFFFFFFFFFFC0
310
7FFFFFF0001FFFFFF0001FFFFFFFFC0007F0001FFFFFFFFC0007FF0003FFFFFF
310
FFFF80000000007FF000FE0000000000FFFFE0003F00078007F0003FFF80007F
310
FE0000000001FFFFE0000000001FFFF80FFFFFFFFFFFFFC07FFFFFF0001FFFFF
310
F0001FFFFFFFFC0007F0001FFFFFFFFC0007FF0003FFFFFFFFFF0000000000FF
310
F000FC0000000003FFFFE0007F00078007F0003FFF80007FFC0000000007FFFF
310
C0000000007FFFF80FFFFFFFFFFFFFC07FFFFFF0001FFFFFF8001FFFFFFFFC00
310
0FF8001FFFFFFFFC000FFF0003FFFFFFFFFE0000000003FFF000FC000000000F
310
FFFFE0007F80070007F8001FFF80007FF8000000001FFFFF8000000001FFFFF8
310
0FFFFFFFFFFFFFC07FFFFFF0001FFFFFF8001FFFFFFFFC000FF8001FFFFFFFFC
310
000FFF0003FFFFFFFFFC000000000FFFF000F8000000007FFFFFE0007F800700
310
07F8001FFF80007FF000000000FFFFFF800000000FFFFFF80FFFFFFFFFFFFFC0
310
7FFFFFF0001FFFFFF8000FFFFFFFF8000FF8000FFFFFFFF8000FFF0003FFFFFF
310
FFFC000000007FFFF000F800000007FFFFFFC0007F8003000FF8001FFF80007F
310
F000000007FFFFFF000000007FFFFFF80FFFFFFFFFFFFFC07FFFFFF0001FFFFF
310
F8000FFFFFFFF8000FF8000FFFFFFFF8000FFF0003FFFFFFFFF80000000FFFFF
310
F000F0000000FFFFFFFFC000FF8003000FF8001FFF80007FE0000000FFFFFFFF
310
0000000FFFFFFFF8000001FFFE0000007FFFFFF0001FFFFFF8000FFFFFFFF800
310
0FF8000FFFFFFFF8000FFF0003FFFFFFFFF8000000FFFFFFF000F000000FFFFF
310
FFFFC000FFC002000FF8000FFF80007FE000001FFFFFFFFE000001FFFFFFFFF8
310
000001FFFE0000007FFFFFF0001FFFFFF8000FFFFFFFF8000FF8000FFFFFFFF8
310
000FFF0003FFFFFFFFF000001FFFFFFFF000E00000FFFFFFFFFFC000FFC00200
310
0FFC000FFF80007FE00001FFFFFFFFFE00001FFFFFFFFFF8000001FFFE000000
310
7FFFFFF0001FFFFFFC000FFFFFFFF8001FFC000FFFFFFFF8001FFF0003FFFFFF
310
FFF00001FFFFFFFFF000E00007FFFFFFFFFF8000FFC000001FFC000FFF80007F
310
C0000FFFFFFFFFFE0000FFFFFFFFFFF8000001FFFE0000007FFFFFF0001FFFFF
310
FC0007FFFFFFF0001FFC0007FFFFFFF0001FFF0003FFFFFFFFF00007FFFFFFFF
310
F000E0001FFFFFFFFFFF8000FFC000001FFC000FFF80007FC0003FFFFFFFFFFE
310
0001FFFFFFFFFFF8000001FFFE0000007FFFFFF0001FFFFFFC0007FFFFFFF000
310
1FFC0007FFFFFFF0001FFF0003FFFFFFFFF0001FFFFFFFFFF000E0003FFFFF00
310
03FF8001FFE000001FFC0007FF80007FC0007FFFFF0007FC0003FFFFF0003FF8
310
000001FFFE0000007FFFFFF0001FFFFFFC0003FFFFFFE0001FFC0003FFFFFFE0
310
001FFF0003FFFFFFFFF0003FFFFFFFFFF000E0003FFFFF0001FF8001FFE00000
310
1FFE0007FF80007FC0007FFFFE0003FC0007FFFFE0003FF8000001FFFE000000
310
7FFFFFF0001FFFFFFE0003FFFFFFE0003FFE0003FFFFFFE0003FFF0003FFFFFF
310
FFF0003FFFFF8001F000E0003FFFFF0001FF0001FFE000001FFE0007FF80007F
310
C0007FFFFE0003FC0007FFFFE0003FF8000001FFFE0000007FFFFFF0001FFFFF
310
FE0001FFFFFFC0003FFE0001FFFFFFC0003FFF0003FFFFFFFFF0003FFFFF0001
310
F000E0003FFFFF0003FF0001FFE000003FFE0007FF80007FC0007FFFFE0003FC
310
0007FFFFE0003FF8000001FFFE0000007FFFFFF0001FFFFFFF0001FFFFFFC000
310
7FFF0001FFFFFFC0007FFF0003FFFFFFFFF0003FFFFF0001F000E0003FFFFE00
310
03FF0003FFF000003FFE0003FF80007FC0007FFFFC0003FE0007FFFFE0003FF8
310
000001FFFE0000007FFFFFF0001FFFFFFF0000FFFFFF80007FFF0000FFFFFF80
310
007FFF0003FFFFFFFFF0003FFFFF0001F000E0003FFFFE0003FF0003FFF00000
310
3FFF0003FF80007FC0007FFFFC0007FE0007FFFFC0003FF8000001FFFE000000
310
7FFFFFF0001FFFFFFF80007FFFFF0000FFFF80007FFFFF0000FFFF0003FFFFFF
310
FFF0003FFFFF0003F000E0003FFFFC0003FE0003FFF000003FFF0003FF80007F
310
E0003FFFF80007FE0003FFFFC0007FF8000001FFFE0000007FFFFFF0001FFFFF
310
FF80003FFFFE0000FFFF80003FFFFE0000FFFF0003FFFFFFFFF0001FFFFE0003
310
F000F0001FFFF80003FE0003FFF000007FFF0001FF80007FE0003FFFF00007FE
310
0001FFFF80007FF8000001FFFE0000007FFFFFF0001FFFFFFFC0000FFFF80001
310
FFFFC0000FFFF80001FFFF0003FFFFFFFFF0001FFFFC0003F000F0000FFFF000
310
07FE0007FFF800007FFF0001FF80007FE0001FFFE00007FF0000FFFE00007FF8
310
000001FFFE0000007FFFFFF0001FFFFFFFC00003FFE00001FFFFC00003FFE000
310
01FFFF0003FFFFFFFFF8000FFFF80003F000F00003FFC00007FC0007FFF80000
310
7FFF8001FF80007FF00007FF80000FFF00007FF80000FFF8000001FFFE000000
310
7F80000000000001FFE000003E000003FFFFE000003E000003FFFF0003FFFFFF
310
FFF80003FFE00007F000F800000000000FFC0007FFF800007FFF8001FF80007F
310
F000000000000FFF000000000000FFF8000001FFFE0000007F80000000000001
310
FFF0000000000007FFFFF0000000000007FFFF0003FFFFFFFFFC00007E000007
310
F000F800000000000FFC0007FFF80000FFFF8000FF80007FF800000000001FFF
310
800000000001FFF8000001FFFE0000007F80000000000001FFF800000000000F
310
FFFFF800000000000FFFFF0003FFFFFFFFFC00000000000FF000FC0000000000
310
1FFC0007FFFC0000FFFF8000FF80007FF800000000003FFFC00000000001FFF8
310
000001FFFE0000007F80000000000001FFF800000000000FFFFFF80000000000
310
0FFFFF0003FFFFFFFFFE00000000001FF000FE00000000003FF8000FFFFC0000
310
FFFF8000FF80007FFC00000000003FFFC00000000003FFF8000001FFFE000000
310
7F80000000000001FFFC00000000001FFFFFFC00000000001FFFFF0003FFFFFF
310
FFFF00000000001FF000FF00000000003FF8000FFFFC0000FFFFC000FF80007F
310
FE00000000007FFFE00000000007FFF8000001FFFE0000007F80000000000001
310
FFFE00000000003FFFFFFE00000000003FFFFF0003FFFFFFFFFF80000000003F
310
F000FF80000000007FF8000FFFFC0001FFFFC0007F80007FFF0000000000FFFF
310
F0000000000FFFF800000000000000007F80000000000001FFFF8000000000FF
310
FFFFFF8000000000FFFFFF0003FFFFFFFFFFC0000000007FF000FFC000000000
310
FFF8000FFFFE0001FFFFC0007F80007FFF8000000001FFFFF8000000001FFFF8
310
00000000000000007F80000000000001FFFFC000000001FFFFFFFFC000000001
310
FFFFFF0003FFFFFFFFFFE000000000FFF000FFE000000003FFF0001FFFFE0001
310
FFFFC0007F80007FFFC000000007FFFFFE000000003FFFF80000000000000000
310
7F80000000000001FFFFE000000003FFFFFFFFE000000003FFFFFF0003FFFFFF
310
FFFFF000000003FFF000FFF80000000FFFF0001FFFFE0001FFFFE0007F80007F
310
FFF00000000FFFFFFF00000000FFFFF800000000000000007F80000000000001
310
FFFFF80000000FFFFFFFFFF80000000FFFFFFF0003FFFFFFFFFFFC0000000FFF
310
F000FFFE0000003FFFF0001FFFFE0003FFFFE0003F80007FFFFC0000003FFFFF
310
FFC0000003FFFFF800000000000000007F80000000000001FFFFFE0000003FFF
310
FFFFFFFE0000003FFFFFFF0003FFFFFFFFFFFF0000003FFFF000FFFF800000FF
310
FFF0001FFFFF0003FFFFE0003F80007FFFFF000001FFFFFFFFF800001FFFFFF8
310
00000000000000007F80000000000001FFFFFFC00001FFFFFFFFFFFFC00001FF
310
FFFFFF0003FFFFFFFFFFFFC00000FFFFF000FFFFF8000FFFFFFFFFFFFFFFFFFF
310
FFFFFFFFFFFFFFFFFFFFF0001FFFFFFFFFFF0000FFFFFFF80000000000000000
310
7FFFFFFFFFFFFFFFFFFFFFFC001FFFFFFFFFFFFFFC001FFFFFFFFFFFFFFFFFFF
310
FFFFFFFC001FFFFFF000FFFFFFFFFFFFFFFFFFFFFFFFFFFFFFFFFFFFFFFFFFFF
310
FFFFFFFFFFFFFFFFFFFFFFFFFFFFFFFFFFFFFFFFFFFFFFFFFFFFFFFFFFFFFFFF
310
FFFFFFFFFFFFFFFFFFFFFFFFFFFFFFFFFFFFFFFFFFFFFFFFFFFFFFFFFFFFFFFF
310
F000FFFFFFFFFFFFFFFFFFFFFFFFFFFFFFFFFFFFFFFFFFFFFFFFFFFFFFFFFFFF
310
FFFFFFFFFFFFFFFFFFFFFFFFFFFFFFFFFFFFFFFFFFFFFFFFFFFFFFFFFFFFFFFF
310
FFFFFFFFFFFFFFFFFFFFFFFFFFFFFFFFFFFFFFFFFFFFFFFFF000FFFFFFFFFFFF
310
FFFFFFFFFFFFFFFFFFFFFFFFFFFFFFFFFFFFFFFFFFFFFFFFFFFFFFFFFFFFFFFF
310
FFFFFFFFFFFFFFFFFFFFFFFFFFFFFFFFFFFFFFFFFFFFFFFFFFFFFFFFFFFFFFFF
310
FFFFFFFFFFFFFFFFFFFFFFFFFFFFFFFFF000FFFFFFFFFFFFFFFFFFFFFFFFFFFF
310
FFFFFFFFFFFFFFFFFFFFFFFFFFFFFFFFFFFFFFFFFFFFFFFFFFFFFFFFFFFFFFFF
310
FFFFFFFFFFFFFFFFFFFFFFFFFFFFFFFFFFFFFFFFFFFFFFFFFFFFFFFFFFFFFFFF
310
FFFFFFFFFFFFFFFFF000FFFFFFFFFFFFFFFFFFFFFFFFFFFFFFFFFFFFFFFFFFFF
310
FFFFFFFFFFFFFFFFFFFFFFFFFFFFFFFFFFFFFFFFFFFFFFFFFFFFFFFFFFFFFFFF
310
FFFFFFFFFFFFFFFFFFFFFFFFFFFFFFFFFFFFFFFFFFFFFFFFFFFFFFFFFFFFFFFF
310
F000FFFFFFFFFFFFFFFFFFFFFFFFFFFFFFFFFFFFFFFFFFFFFFFFFFFFFFFFFFFF
310
FFFFFFFFFFFFFFFFFFFFFFFFFFFFFFFFFFFFFFFFFFFFFFFFFFFFFFFFFFFFFFFF
310
FFFFFFFFFFFFFFFFFFFFFFFFFFFFFFFFFFFFFFFFFFFFFFFFF000FFFFFFFFFFFF
310
FFFFFFFFFFFFFFFFFFFFFFFFFFFFFFFFFFFFFFFFFFFFFFFFFFFFFFFFFFFFFFFF
310
FFFFFFFFFFFFFFFFFFFFFFFFFFFFFFFFFFFFFFFFFFFFFFFFFFFFFFFFFFFFFFFF
310
FFFFFFFFFFFFFFFFFFFFFFFFFFFFFFFFF000FFFFFFFFFFFFFFFFFFFFFFFFFFFF
310
FFFFFFFFFFFFFFFFFFFFFFFFFFFFFFFFFFFFFFFFFFFFFFFFFFFFFFFFFFFFFFFF
310
FFFFFFFFFFFFFFFFFFFFFFFFFFFFFFFFFFFFFFFFFFFFFFFFFFFFFFFFFFFFFFFF
310
FFFFFFFFFFFFFFFFF000FFFFFFFFFFFFFFFFFFFFFFFFFFFFFFFFFFFFFFFFFFFF
310
FFFFFFFFFFFFFFFFFFFFFFFFFFFFFFFFFFFFFFFFFFFFFFFFFFFFFFFFFFFFFFFF
310
FFFFFFFFFFFFFFFFFFFFFFFFFFFFFFFFFFFFFFFFFFFFFFFFFFFFFFFFFFFFFFFF
310
F000FFFFFFFFFFFFFFFFFFFFFFFFFFFFFFFFFFFFFFFFFFFFFFFFFFFFFFFFFFFF
310
FFFFFFFFFFFFFFFFFFFFFFFFFFFFFFFFFFFFFFFFFFFFFFFFFFFFFFFFFFFFFFFF
310
FFFFFFFFFFFFFFFFFFFFFFFFFFFFFFFFFFFFFFFFFFFFFFFFF000FFFFFFFFFFFF
310
FFFFFFFFFFFFFFFFFFFFFFFFFFFFFFFFFFFFFFFFFFFFFFFFFFFFFFFFFFFFFFFF
310
FFFFFFFFFFFFFFFFFFFFFFFFFFFFFFFFFFFFFFFFFFFFFFFFFFFFFFFFFFFFFFFF
310
FFFFFFFFFFFFFFFFFFFFFFFFFFFFFFFFF000FFFFFFFFFFFFFFFFFFFFFFFFFFFF
310
FFFFFFFFFFFFFFFFFFFFFFFFFFFFFFFFFFFFFFFFFFFFFFFFFFFFFFFFFFFFFFFF
310
FFFFFFFFFFFFFFFFFFFFFFFFFFFFFFFFFFFFFFFFFFFFFFFFFFFFFFFFFFFFFFFF
310
FFFFFFFFFFFFFFFFF000FFFFFFFFFFFFFFFFFFFFFFFFFFFFFFFFFFFFFFFFFFFF
310
FFFFFFFFFFFFFFFFFFFFFFFFFFFFFFFFFFFFFFFFFFFFFFFFFFFFFFFFFFFFFFFF
310
FFFFFFFFFFFFFFFFFFFFFFFFFFFFFFFFFFFFFFFFFFFFFFFFFFFFFFFFFFFFFFFF
310
F000FFFFFFFFFFFFFFFFFFFFFFFFFFFFFFFFFFFFFFFFFFFFFFFFFFFFFFFFFFFF
310
FFFFFFFFFFFFFFFFFFFFFFFFFFFFFFFFFFFFFFFFFFFFFFFFFFFFFFFFFFFFFFFF
310
FFFFFFFFFFFFFFFFFFFFFFFFFFFFFFFFFFFFFFFFFFFFFFFFF000FFFFFFFFFFFF
310
FFFFFFFFFFFFFFFFFFFFFFFFFFFFFFFFFFFFFFFFFFFFFFFFFFFFFFFFFFFFFFFF
310
FFFFFFFFFFFFFFFFFFFFFFFFFFFFFFFFFFFFFFFFFFFFFFFFFFFFFFFFFFFFFFFF
310
FFFFFFFFFFFFFFFFFFFFFFFFFFFFFFFFF000FFFFFFFFFFFFFFFFFFFFFFFFFFFF
310
FFFFFFFFFFFFFFFFFFFFFFFFFFFFFFFFFFFFFFFFFFFFFFFFFFFFFFFFFFFFFFFF
310
FFFFFFFFFFFFFFFFFFFFFFFFFFFFFFFFFFFFFFFFFFFFFFFFFFFFFFFFFFFFFFFF
310
FFFFFFFFFFFFFFFFF000FFFFFFFFFFFFFFFFFFFFFFFFFFFFFFFFFFFFFFFFFFFF
310
FFFFFFFFFFFFFFFFFFFFFFFFFFFFFFFFFFFFFFFFFFFFFFFFFFFFFFFFFFFFFFFF
310
FFFFFFFFFFFFFFFFFFFFFFFFFFFFFFFFFFFFFFFFFFFFFFFFFFFFFFFFFFFFFFFF
310
F000FFFFFFFFFFFFFFFFFFFFFFFFFFFFFFFFFFFFFFFFFFFFFFFFFFFFFFFFFFFF
310
FFFFFFFFFFFFFFFFFFFFFFFFFFFFFFFFFFFFFFFFFFFFFFFFFFFFFFFFFFFFFFFF
310
FFFFFFFFFFFFFFFFFFFFFFFFFFFFFFFFFFFFFFFFFFFFFFFFF000FFFFFFFFFFFF
310
FFFFFFFFFFFFFFFFFFFFFFFFFFFFFFFFFFFFFFFFFFFFFFFFFFFFFFFFFFFFFFFF
310
FFFFFFFFFFFFFFFFFFFFFFFFFFFFFFFFFFFFFFFFFFFFFFFFFFFFFFFFFFFFFFFF
310
FFFFFFFFFFFFFFFFFFFFFFFFFFFFFFFFF000FFFFFFFFFFFFFFFFFFFFFFFFFFFF
310
FFFFFFFFFFFFFFFFFFFFFFFFFFFFFFFFFFFFFFFFFFFFFFFFFFFFFFFFFFFFFFFF
310
FFFFFFFFFFFFFFFFFFFFFFFFFFFFFFFFFFFFFFFFFFFFFFFFFFFFFFFFFFFFFFFF
310
FFFFFFFFFFFFFFFFF000FFFFFFFFFFFFFFFFFFFFFFFFFFFFFFFFFFFFFFFFFFFF
310
FFFFFFFFFFFFFFFFFFFFFFFFFFFFFFFFFFFFFFFFFFFFFFFFFFFFFFFFFFFFFFFF
310
FFFFFFFFFFFFFFFFFFFFFFFFFFFFFFFFFFFFFFFFFFFFFFFFFFFFFFFFFFFFFFFF
310
F000FFFFFFFFFFFFFFFFFFFFFFFFFFFFFFFFFFFFFFFFFFFFFFFFFFFFFFFFFFFF
310
FFFFFFFFFFFFFFFFFFFFFFFFFFFFFFFFFFFFFFFFFFFFFFFFFFFFFFFFFFFFFFFF
310
FFFFFFFFFFFFFFFFFFFFFFFFFFFFFFFFFFFFFFFFFFFFFFFFF000FFFFFFFFFFFF
310
FFFFFFFFFFFFFFFFFFFFFFFFFFFFFFFFFFFFFFFFFFFFFFFFFFFFFFFFFFFFFFFF
310
FFFFFFFFFFFFFFFFFFFFFFFFFFFFFFFFFFFFFFFFFFFFFFFFFFFFFFFFFFFFFFFF
310
FFFFFFFFFFFFFFFFFFFFFFFFFFFFFFFFF0000000000000000000000000000000
310
0000000000000000000000000000000000000000000000000000000000000000
310
0000000000000000000000000000000000000000000000000000000000000000
310
0000000000000000000000000000000000000000000000000000000000000000
310
0000000000000000000000000000000000000000000000000000000000000000
310
0000000000000000000000000000000000000000000000000000000000000000
310
0000000000000000000000000000000000000000000000000000000000000000
310
0000000000000000000000000000000000000000000000000000000000000000
310
0000000000000000000000000000000000000000000000000000000000000000
310
0000000000000000000000000000000000000000000000000000000000000000
310
0000000000000000000000000000000000000000000000000000000000000000
310
0000000000000000000000000000000000000000000000000000000000000000
310
0000000000000000000000000000000000000000000000000000000000000000
310
0000000000000000000000000000000000000000000000000000000000000000
310
0000000000000000000000000000000000000000000000000000000000000000
310
0000000000000000000000000000000000000000000000000000000000000000
  1
OLE
  0
ENDSEC
  0
SECTION
  2
OBJECTS
  0
DICTIONARY
  5
C
330
0
100
AcDbDictionary
281
     1
  3
ACAD_GROUP
350
D
  3
ACAD_LAYOUT
350
1A
  3
ACAD_MLINESTYLE
350
17
  3
ACAD_PLOTSETTINGS
350
19
  3
ACAD_PLOTSTYLENAME
350
E
  0
DICTIONARY
  5
D
102
{ACAD_REACTORS
330
C
102
}
330
C
100
AcDbDictionary
281
     1
  0
DICTIONARY
  5
1A
102
{ACAD_REACTORS
330
C
102
}
330
C
100
AcDbDictionary
281
     1
  3
Layout1
350
1E
  3
Layout2
350
26
  3
Model
350
22
  0
DICTIONARY
  5
17
102
{ACAD_REACTORS
330
C
102
}
330
C
100
AcDbDictionary
281
     1
  3
Standard
350
18
  0
DICTIONARY
  5
19
102
{ACAD_REACTORS
330
C
102
}
330
C
100
AcDbDictionary
281
     1
  0
ACDBDICTIONARYWDFLT
  5
E
102
{ACAD_REACTORS
330
C
102
}
330
C
100
AcDbDictionary
281
     1
  3
Normal
350
F
100
AcDbDictionaryWithDefault
340
F
  0
LAYOUT
  5
1E
102
{ACAD_REACTORS
330
1A
102
}
330
1A
100
AcDbPlotSettings
  1

  2
none_device
  4

  6

 40
0.0
 41
0.0
 42
0.0
 43
0.0
 44
0.0
 45
0.0
 46
0.0
 47
0.0
 48
0.0
 49
0.0
140
0.0
141
0.0
142
1.0
143
1.0
 70
   688
 72
     0
 73
     0
 74
     5
  7

 75
    16
147
1.0
148
0.0
149
0.0
100
AcDbLayout
  1
Layout1
 70
     1
 71
     1
 10
0.0
 20
0.0
 11
420.0
 21
297.0
 12
0.0
 22
0.0
 32
0.0
 14
1.0000000000E+20
 24
1.0000000000E+20
 34
1.0000000000E+20
 15
-1.0000000000E+20
 25
-1.0000000000E+20
 35
-1.0000000000E+20
146
0.0
 13
0.0
 23
0.0
 33
0.0
 16
1.0
 26
0.0
 36
0.0
 17
0.0
 27
1.0
 37
0.0
 76
     0
330
1B
  0
LAYOUT
  5
26
102
{ACAD_REACTORS
330
1A
102
}
330
1A
100
AcDbPlotSettings
  1

  2
none_device
  4

  6

 40
0.0
 41
0.0
 42
0.0
 43
0.0
 44
0.0
 45
0.0
 46
0.0
 47
0.0
 48
0.0
 49
0.0
140
0.0
141
0.0
142
1.0
143
1.0
 70
   688
 72
     0
 73
     0
 74
     5
  7

 75
    16
147
1.0
148
0.0
149
0.0
100
AcDbLayout
  1
Layout2
 70
     1
 71
     2
 10
0.0
 20
0.0
 11
0.0
 21
0.0
 12
0.0
 22
0.0
 32
0.0
 14
0.0
 24
0.0
 34
0.0
 15
0.0
 25
0.0
 35
0.0
146
0.0
 13
0.0
 23
0.0
 33
0.0
 16
1.0
 26
0.0
 36
0.0
 17
0.0
 27
1.0
 37
0.0
 76
     0
330
23
  0
LAYOUT
  5
22
102
{ACAD_REACTORS
330
1A
102
}
330
1A
100
AcDbPlotSettings
  1

  2
none_device
  4

  6

 40
0.0
 41
0.0
 42
0.0
 43
0.0
 44
0.0
 45
0.0
 46
0.0
 47
0.0
 48
0.0
 49
0.0
140
0.0
141
0.0
142
1.0
143
1.0
 70
  1712
 72
     0
 73
     0
 74
     0
  7

 75
     0
147
1.0
148
0.0
149
0.0
100
AcDbLayout
  1
Model
 70
     1
 71
     0
 10
0.0
 20
0.0
 11
297.0
 21
210.0
 12
0.0
 22
0.0
 32
0.0
 14
0.0
 24
0.0
 34
0.0
 15
297.0
 25
210.0
 35
0.0
146
0.0
 13
0.0
 23
0.0
 33
0.0
 16
1.0
 26
0.0
 36
0.0
 17
0.0
 27
1.0
 37
0.0
 76
     0
330
1F
331
29
  0
MLINESTYLE
  5
18
102
{ACAD_REACTORS
330
17
102
}
330
17
100
AcDbMlineStyle
  2
Standard
 70
     0
  3

 62
   256
 51
90.0
 52
90.0
 71
     2
 49
0.5
 62
   256
  6
BYLAYER
 49
-0.5
 62
   256
  6
BYLAYER
  0
ACDBPLACEHOLDER
  5
F
102
{ACAD_REACTORS
330
E
102
}
330
E
  0
ENDSEC
  0
EOF
