  0
SECTION
  2
HEADER
  9
$ACADVER
  1
AC1015
  9
$ACADMAINTVER
 70
     6
  9
$DWGCODEPAGE
  3
ANSI_1252
  9
$INSBASE
 10
0.0
 20
0.0
 30
0.0
  9
$EXTMIN
 10
0.0
 20
0.0
 30
0.0
  9
$EXTMAX
 10
297.0
 20
210.0
 30
0.0
  9
$LIMMIN
 10
0.0
 20
0.0
  9
$LIMMAX
 10
297.0
 20
210.0
  9
$ORTHOMODE
 70
     0
  9
$REGENMODE
 70
     1
  9
$FILLMODE
 70
     1
  9
$QTEXTMODE
 70
     0
  9
$MIRRTEXT
 70
     1
  9
$LTSCALE
 40
1.0
  9
$ATTMODE
 70
     1
  9
$TEXTSIZE
 40
2.0
  9
$TRACEWID
 40
1.0
  9
$TEXTSTYLE
  7
Standard
  9
$CLAYER
  8
0
  9
$CELTYPE
  6
ByLayer
  9
$CECOLOR
 62
   256
  9
$CELTSCALE
 40
1.0
  9
$DISPSILH
 70
     0
  9
$DIMSCALE
 40
1.0
  9
$DIMASZ
 40
3.0
  9
$DIMEXO
 40
0.0
  9
$DIMDLI
 40
3.75
  9
$DIMRND
 40
0.0
  9
$DIMDLE
 40
0.0
  9
$DIMEXE
 40
1.0
  9
$DIMTP
 40
0.0
  9
$DIMTM
 40
0.0
  9
$DIMTXT
 40
2.0
  9
$DIMCEN
 40
2.5
  9
$DIMTSZ
 40
0.0
  9
$DIMTOL
 70
     0
  9
$DIMLIM
 70
     0
  9
$DIMTIH
 70
     1
  9
$DIMTOH
 70
     1
  9
$DIMSE1
 70
     0
  9
$DIMSE2
 70
     0
  9
$DIMTAD
 70
     1
  9
$DIMZIN
 70
     0
  9
$DIMBLK
  1

  9
$DIMASO
 70
     1
  9
$DIMSHO
 70
     1
  9
$DIMPOST
  1

  9
$DIMAPOST
  1

  9
$DIMALT
 70
     0
  9
$DIMALTD
 70
     3
  9
$DIMALTF
 40
0.0393700787
  9
$DIMLFAC
 40
2.0
  9
$DIMTOFL
 70
     1
  9
$DIMTVP
 40
0.0
  9
$DIMTIX
 70
     0
  9
$DIMSOXD
 70
     0
  9
$DIMSAH
 70
     0
  9
$DIMBLK1
  1

  9
$DIMBLK2
  1

  9
$DIMSTYLE
  2
ISO-25
  9
$DIMCLRD
 70
     0
  9
$DIMCLRE
 70
     0
  9
$DIMCLRT
 70
     0
  9
$DIMTFAC
 40
1.0
  9
$DIMGAP
 40
1.524
  9
$DIMJUST
 70
     0
  9
$DIMSD1
 70
     0
  9
$DIMSD2
 70
     0
  9
$DIMTOLJ
 70
     0
  9
$DIMTZIN
 70
     0
  9
$DIMALTZ
 70
     0
  9
$DIMALTTZ
 70
     0
  9
$DIMUPT
 70
     0
  9
$DIMDEC
 70
     2
  9
$DIMTDEC
 70
     3
  9
$DIMALTU
 70
     2
  9
$DIMALTTD
 70
     3
  9
$DIMTXSTY
  7
Standard
  9
$DIMAUNIT
 70
     0
  9
$DIMADEC
 70
     2
  9
$DIMALTRND
 40
0.0
  9
$DIMAZIN
 70
     0
  9
$DIMDSEP
 70
    44
  9
$DIMATFIT
 70
     3
  9
$DIMFRAC
 70
     0
  9
$DIMLDRBLK
  1

  9
$DIMLUNIT
 70
     2
  9
$DIMLWD
 70
    -2
  9
$DIMLWE
 70
    -2
  9
$DIMTMOVE
 70
     0
  9
$LUNITS
 70
     2
  9
$LUPREC
 70
     2
  9
$SKETCHINC
 40
1.0
  9
$FILLETRAD
 40
10.0
  9
$AUNITS
 70
     0
  9
$AUPREC
 70
     2
  9
$MENU
  1
.
  9
$ELEVATION
 40
0.0
  9
$PELEVATION
 40
0.0
  9
$THICKNESS
 40
0.0
  9
$LIMCHECK
 70
     0
  9
$CHAMFERA
 40
0.0
  9
$CHAMFERB
 40
0.0
  9
$CHAMFERC
 40
0.0
  9
$CHAMFERD
 40
0.0
  9
$SKPOLY
 70
     0
  9
$TDCREATE
 40
2457675.661727303
  9
$TDUCREATE
 40
2457675.57839397
  9
$TDUPDATE
 40
2457675.66172853
  9
$TDUUPDATE
 40
2457675.578395197
  9
$TDINDWG
 40
0.0000000116
  9
$TDUSRTIMER
 40
0.0000000116
  9
$USRTIMER
 70
     1
  9
$ANGBASE
 50
0.0
  9
$ANGDIR
 70
     0
  9
$PDMODE
 70
     0
  9
$PDSIZE
 40
-1.0
  9
$PLINEWID
 40
0.0
  9
$SPLFRAME
 70
     0
  9
$SPLINETYPE
 70
     6
  9
$SPLINESEGS
 70
     8
  9
$HANDSEED
  5
219
  9
$SURFTAB1
 70
     6
  9
$SURFTAB2
 70
     6
  9
$SURFTYPE
 70
     6
  9
$SURFU
 70
     6
  9
$SURFV
 70
     6
  9
$UCSBASE
  2

  9
$UCSNAME
  2

  9
$UCSORG
 10
0.0
 20
0.0
 30
0.0
  9
$UCSXDIR
 10
1.0
 20
0.0
 30
0.0
  9
$UCSYDIR
 10
0.0
 20
1.0
 30
0.0
  9
$UCSORTHOREF
  2

  9
$UCSORTHOVIEW
 70
     0
  9
$UCSORGTOP
 10
0.0
 20
0.0
 30
0.0
  9
$UCSORGBOTTOM
 10
0.0
 20
0.0
 30
0.0
  9
$UCSORGLEFT
 10
0.0
 20
0.0
 30
0.0
  9
$UCSORGRIGHT
 10
0.0
 20
0.0
 30
0.0
  9
$UCSORGFRONT
 10
0.0
 20
0.0
 30
0.0
  9
$UCSORGBACK
 10
0.0
 20
0.0
 30
0.0
  9
$PUCSBASE
  2

  9
$PUCSNAME
  2

  9
$PUCSORG
 10
0.0
 20
0.0
 30
0.0
  9
$PUCSXDIR
 10
1.0
 20
0.0
 30
0.0
  9
$PUCSYDIR
 10
0.0
 20
1.0
 30
0.0
  9
$PUCSORTHOREF
  2

  9
$PUCSORTHOVIEW
 70
     0
  9
$PUCSORGTOP
 10
0.0
 20
0.0
 30
0.0
  9
$PUCSORGBOTTOM
 10
0.0
 20
0.0
 30
0.0
  9
$PUCSORGLEFT
 10
0.0
 20
0.0
 30
0.0
  9
$PUCSORGRIGHT
 10
0.0
 20
0.0
 30
0.0
  9
$PUCSORGFRONT
 10
0.0
 20
0.0
 30
0.0
  9
$PUCSORGBACK
 10
0.0
 20
0.0
 30
0.0
  9
$USERI1
 70
     0
  9
$USERI2
 70
     0
  9
$USERI3
 70
     0
  9
$USERI4
 70
     0
  9
$USERI5
 70
     0
  9
$USERR1
 40
0.0
  9
$USERR2
 40
0.0
  9
$USERR3
 40
0.0
  9
$USERR4
 40
0.0
  9
$USERR5
 40
0.0
  9
$WORLDVIEW
 70
     1
  9
$SHADEDGE
 70
     3
  9
$SHADEDIF
 70
    70
  9
$TILEMODE
 70
     1
  9
$MAXACTVP
 70
    64
  9
$PINSBASE
 10
0.0
 20
0.0
 30
0.0
  9
$PLIMCHECK
 70
     0
  9
$PEXTMIN
 10
1.0000000000E+20
 20
1.0000000000E+20
 30
1.0000000000E+20
  9
$PEXTMAX
 10
-1.0000000000E+20
 20
-1.0000000000E+20
 30
-1.0000000000E+20
  9
$PLIMMIN
 10
0.0
 20
0.0
  9
$PLIMMAX
 10
420.0
 20
297.0
  9
$UNITMODE
 70
     0
  9
$VISRETAIN
 70
     1
  9
$PLINEGEN
 70
     0
  9
$PSLTSCALE
 70
     1
  9
$TREEDEPTH
 70
  3020
  9
$CMLSTYLE
  2
Standard
  9
$CMLJUST
 70
     0
  9
$CMLSCALE
 40
20.0
  9
$PROXYGRAPHICS
 70
     1
  9
$MEASUREMENT
 70
     1
  9
$CELWEIGHT
370
    -1
  9
$ENDCAPS
280
     0
  9
$JOINSTYLE
280
     0
  9
$LWDISPLAY
290
     1
  9
$INSUNITS
 70
     4
  9
$HYPERLINKBASE
  1

  9
$STYLESHEET
  1

  9
$XEDIT
290
     1
  9
$CEPSNTYPE
380
     0
  9
$PSTYLEMODE
290
     1
  9
$FINGERPRINTGUID
  2
{20EF37DC-3EAD-465C-B3D8-B8B53CC3714D}
  9
$VERSIONGUID
  2
{FAEB1C32-E019-11D5-929B-00C0DF256EC4}
  9
$EXTNAMES
290
     1
  9
$PSVPSCALE
 40
0.0
  9
$OLESTARTUP
290
     0
  0
ENDSEC
  0
SECTION
  2
CLASSES
  0
CLASS
  1
ACDBDICTIONARYWDFLT
  2
AcDbDictionaryWithDefault
  3
ObjectDBX Classes
 90
        0
280
     0
281
     0
  0
CLASS
  1
VISUALSTYLE
  2
AcDbVisualStyle
  3
ObjectDBX Classes
 90
     4095
280
     0
281
     0
  0
CLASS
  1
MATERIAL
  2
AcDbMaterial
  3
ObjectDBX Classes
 90
     1153
280
     0
281
     0
  0
CLASS
  1
SCALE
  2
AcDbScale
  3
ObjectDBX Classes
 90
     1153
280
     0
281
     0
  0
CLASS
  1
TABLESTYLE
  2
AcDbTableStyle
  3
ObjectDBX Classes
 90
     4095
280
     0
281
     0
  0
CLASS
  1
MLEADERSTYLE
  2
AcDbMLeaderStyle
  3
ACDB_MLEADERSTYLE_CLASS
 90
     4095
280
     0
281
     0
  0
CLASS
  1
SUN
  2
AcDbSun
  3
SCENEOE
 90
     1153
280
     0
281
     0
  0
CLASS
  1
ACDBPLACEHOLDER
  2
AcDbPlaceHolder
  3
ObjectDBX Classes
 90
        0
280
     0
281
     0
  0
CLASS
  1
LAYOUT
  2
AcDbLayout
  3
ObjectDBX Classes
 90
        0
280
     0
281
     0
  0
ENDSEC
  0
SECTION
  2
TABLES
  0
TABLE
  2
VPORT
  5
8
330
0
100
AcDbSymbolTable
 70
     1
  0
VPORT
  5
29
330
8
100
AcDbSymbolTableRecord
100
AcDbViewportTableRecord
  2
*Active
 70
     0
 10
0.0
 20
0.0
 11
1.0
 21
1.0
 12
148.5
 22
105.0
 13
0.0
 23
0.0
 14
10.0
 24
10.0
 15
10.0
 25
10.0
 16
0.0
 26
0.0
 36
1.0
 17
0.0
 27
0.0
 37
0.0
 40
210.0
 41
1.4142857143
 42
50.0
 43
0.0
 44
0.0
 50
0.0
 51
0.0
 71
     0
 72
  2000
 73
     1
 74
     3
 75
     0
 76
     0
 77
     0
 78
     0
281
     0
 65
     1
110
0.0
120
0.0
130
0.0
111
1.0
121
0.0
131
0.0
112
0.0
122
1.0
132
0.0
 79
     0
146
0.0
  0
ENDTAB
  0
TABLE
  2
LTYPE
  5
5
330
0
100
AcDbSymbolTable
 70
     6
  0
LTYPE
  5
14
330
5
100
AcDbSymbolTableRecord
100
AcDbLinetypeTableRecord
  2
ByBlock
 70
     0
  3

 72
    65
 73
     0
 40
0.0
  0
LTYPE
  5
15
330
5
100
AcDbSymbolTableRecord
100
AcDbLinetypeTableRecord
  2
ByLayer
 70
     0
  3

 72
    65
 73
     0
 40
0.0
  0
LTYPE
  5
16
330
5
100
AcDbSymbolTableRecord
100
AcDbLinetypeTableRecord
  2
Continuous
 70
     0
  3
Solid line
 72
    65
 73
     0
 40
0.0
  0
LTYPE
  5
6E
330
5
100
AcDbSymbolTableRecord
100
AcDbLinetypeTableRecord
  2
HIDDEN
 70
     0
  3
Hidden __ __ __ __ __ __ __ __ __ __ __ __ __ __
 72
    65
 73
     2
 40
1.905
 49
1.27
 74
     0
 49
-0.635
 74
     0
  0
LTYPE
  5
6F
330
5
100
AcDbSymbolTableRecord
100
AcDbLinetypeTableRecord
  2
PHANTOM
 70
     0
  3
Phantom ______  __  __  ______  __  __  ______
 72
    65
 73
     6
 40
12.7
 49
6.35
 74
     0
 49
-1.27
 74
     0
 49
1.27
 74
     0
 49
-1.27
 74
     0
 49
1.27
 74
     0
 49
-1.27
 74
     0
  0
LTYPE
  5
70
330
5
100
AcDbSymbolTableRecord
100
AcDbLinetypeTableRecord
  2
CENTER
 70
     0
  3
Center ____ _ ____ _ ____ _ ____ _ ____ _ ____
 72
    65
 73
     4
 40
10.16
 49
6.35
 74
     0
 49
-1.27
 74
     0
 49
1.27
 74
     0
 49
-1.27
 74
     0
  0
LTYPE
  5
71
330
5
100
AcDbSymbolTableRecord
100
AcDbLinetypeTableRecord
  2
CENTERX2
 70
     0
  3
Center (2x) ________  __  ________  __  _____
 72
    65
 73
     4
 40
20.32
 49
12.7
 74
     0
 49
-2.54
 74
     0
 49
2.54
 74
     0
 49
-2.54
 74
     0
  0
LTYPE
  5
72
330
5
100
AcDbSymbolTableRecord
100
AcDbLinetypeTableRecord
  2
DOT2
 70
     0
  3
Dot (.5x) ........................................
 72
    65
 73
     2
 40
0.635
 49
0.0
 74
     0
 49
-0.635
 74
     0
  0
ENDTAB
  0
TABLE
  2
LAYER
  5
2
330
0
100
AcDbSymbolTable
 70
     5
  0
LAYER
  5
10
330
2
100
AcDbSymbolTableRecord
100
AcDbLayerTableRecord
  2
0
 70
     0
 62
     7
  6
Continuous
370
    -3
390
F
  0
LAYER
  5
73
330
2
100
AcDbSymbolTableRecord
100
AcDbLayerTableRecord
  2
FORMAT
 70
     0
 62
     7
  6
Continuous
370
    -3
390
F
  0
LAYER
  5
74
330
2
100
AcDbSymbolTableRecord
100
AcDbLayerTableRecord
  2
VERMASSUNG
 70
     0
 62
     7
  6
Continuous
370
    -3
390
F
  0
LAYER
  5
75
330
2
100
AcDbSymbolTableRecord
100
AcDbLayerTableRecord
  2
KOPF_DÜNN
 70
     0
 62
     7
  6
Continuous
370
    -3
390
F
  0
LAYER
  5
76
330
2
100
AcDbSymbolTableRecord
100
AcDbLayerTableRecord
  2
KOPF_DICK
 70
     0
 62
     7
  6
Continuous
370
    15
390
F
  0
ENDTAB
  0
TABLE
  2
STYLE
  5
3
330
0
100
AcDbSymbolTable
 70
     2
  0
STYLE
  5
11
330
3
100
AcDbSymbolTableRecord
100
AcDbTextStyleTableRecord
  2
Standard
 70
     0
 40
0.0
 41
1.0
 50
0.0
 71
     0
 42
2.0
  3
txt
  4

  0
STYLE
  5
77
330
3
100
AcDbSymbolTableRecord
100
AcDbTextStyleTableRecord
  2
SLDTEXTSTYLE0
 70
     0
 40
0.0
 41
0.7
 50
0.0
 71
     0
 42
2.0
  3
TXT
  4

  0
ENDTAB
  0
TABLE
  2
VIEW
  5
6
330
0
100
AcDbSymbolTable
 70
     0
  0
ENDTAB
  0
TABLE
  2
UCS
  5
7
330
0
100
AcDbSymbolTable
 70
     0
  0
ENDTAB
  0
TABLE
  2
APPID
  5
9
330
0
100
AcDbSymbolTable
 70
     1
  0
APPID
  5
12
330
9
100
AcDbSymbolTableRecord
100
AcDbRegAppTableRecord
  2
ACAD
 70
     0
  0
ENDTAB
  0
TABLE
  2
DIMSTYLE
  5
A
330
0
100
AcDbSymbolTable
 70
     2
100
AcDbDimStyleTable
  0
DIMSTYLE
105
27
330
A
100
AcDbSymbolTableRecord
100
AcDbDimStyleTableRecord
  2
ISO-25
 70
     0
 41
2.5
 42
0.625
 43
3.75
 44
1.25
 73
     0
 74
     0
 77
     1
 78
     8
140
2.5
141
2.5
143
0.0393700787
147
0.625
171
     3
172
     1
178
     0
271
     2
272
     2
274
     3
278
    44
283
     0
284
     8
340
11
  0
DIMSTYLE
105
172
102
{ACAD_REACTORS
330
171
330
17E
330
188
330
192
330
19C
330
1A8
102
}
330
A
100
AcDbSymbolTableRecord
100
AcDbDimStyleTableRecord
  2
SLDDIMSTYLE0
 70
     0
 41
3.0
 44
0.0
 45
0.000000001
 73
     0
 74
     0
 77
     1
 78
    12
 79
     3
140
2.0
147
0.5
173
     1
178
     0
271
     2
272
     3
276
     2
284
    12
340
77
  0
ENDTAB
  0
TABLE
  2
BLOCK_RECORD
  5
1
330
0
100
AcDbSymbolTable
 70
     7
  0
BLOCK_RECORD
  5
1F
330
1
100
AcDbSymbolTableRecord
100
AcDbBlockTableRecord
  2
*Model_Space
340
22
  0
BLOCK_RECORD
  5
1B
330
1
100
AcDbSymbolTableRecord
100
AcDbBlockTableRecord
  2
*Paper_Space
340
1E
  0
BLOCK_RECORD
  5
23
330
1
100
AcDbSymbolTableRecord
100
AcDbBlockTableRecord
  2
*Paper_Space0
340
26
  0
BLOCK_RECORD
  5
173
330
1
100
AcDbSymbolTableRecord
100
AcDbBlockTableRecord
  2
_D
340
0
  0
BLOCK_RECORD
  5
17F
330
1
100
AcDbSymbolTableRecord
100
AcDbBlockTableRecord
  2
_D_1
340
0
  0
BLOCK_RECORD
  5
189
330
1
100
AcDbSymbolTableRecord
100
AcDbBlockTableRecord
  2
_D_2
340
0
  0
BLOCK_RECORD
  5
193
330
1
100
AcDbSymbolTableRecord
100
AcDbBlockTableRecord
  2
_D_3
340
0
  0
BLOCK_RECORD
  5
19D
330
1
100
AcDbSymbolTableRecord
100
AcDbBlockTableRecord
  2
_D_4
340
0
  0
BLOCK_RECORD
  5
1A9
330
1
100
AcDbSymbolTableRecord
100
AcDbBlockTableRecord
  2
_D_5
340
0
  0
ENDTAB
  0
ENDSEC
  0
SECTION
  2
BLOCKS
  0
BLOCK
  5
20
330
1F
100
AcDbEntity
  8
0
100
AcDbBlockBegin
  2
*Model_Space
 70
     0
 10
0.0
 20
0.0
 30
0.0
  3
*Model_Space
  1

  0
ENDBLK
  5
21
330
1F
100
AcDbEntity
  8
0
100
AcDbBlockEnd
  0
BLOCK
  5
1C
330
1B
100
AcDbEntity
 67
     1
  8
0
100
AcDbBlockBegin
  2
*Paper_Space
 70
     0
 10
0.0
 20
0.0
 30
0.0
  3
*Paper_Space
  1

  0
ENDBLK
  5
1D
330
1B
100
AcDbEntity
 67
     1
  8
0
100
AcDbBlockEnd
  0
BLOCK
  5
24
330
23
100
AcDbEntity
  8
0
100
AcDbBlockBegin
  2
*Paper_Space0
 70
     0
 10
0.0
 20
0.0
 30
0.0
  3
*Paper_Space0
  1

  0
ENDBLK
  5
25
330
23
100
AcDbEntity
  8
0
100
AcDbBlockEnd
  0
BLOCK
  5
174
330
173
100
AcDbEntity
  8
0
100
AcDbBlockBegin
  2
_D
 70
     0
 10
0.0
 20
0.0
 30
0.0
  3
_D
  1

  0
SOLID
  5
176
330
173
100
AcDbEntity
  8
VERMASSUNG
100
AcDbTrace
 10
58.756846421
 20
78.6267078415
 30
0.0
 11
59.206846421
 21
81.6267078415
 31
0.0
 12
58.306846421
 22
81.6267078415
 32
0.0
 13
58.306846421
 23
81.6267078415
 33
0.0
  0
SOLID
  5
177
330
173
100
AcDbEntity
  8
VERMASSUNG
100
AcDbTrace
 10
58.756846421
 20
141.6267078415
 30
0.0
 11
58.306846421
 21
138.6267078415
 31
0.0
 12
59.206846421
 22
138.6267078415
 32
0.0
 13
59.206846421
 23
138.6267078415
 33
0.0
  0
LINE
  5
178
330
173
100
AcDbEntity
  8
VERMASSUNG
100
AcDbLine
 10
160.156846421
 20
78.6267078415
 30
0.0
 11
57.756846421
 21
78.6267078415
 31
0.0
  0
LINE
  5
179
330
173
100
AcDbEntity
  8
VERMASSUNG
100
AcDbLine
 10
160.156846421
 20
141.6267078415
 30
0.0
 11
57.756846421
 21
141.6267078415
 31
0.0
  0
LINE
  5
17A
330
173
100
AcDbEntity
  8
VERMASSUNG
100
AcDbLine
 10
58.756846421
 20
78.6267078415
 30
0.0
 11
58.756846421
 21
141.6267078415
 31
0.0
  0
MTEXT
  5
17B
330
173
100
AcDbEntity
  8
VERMASSUNG
100
AcDbMText
 10
55.9787111648
 20
99.3229539795
 30
0.0
 40
2.0
 41
0.0
 71
     1
 72
     1
  1
MAS-BT 40
  7
SLDTEXTSTYLE0
 11
3.391901413832837E-15
 21
1.0
 31
0.0
 73
     1
 44
1.0
  0
MTEXT
  5
17C
330
173
100
AcDbEntity
  8
VERMASSUNG
100
AcDbMText
 10
56.1787111161
 20
114.5229542358
 30
0.0
 40
2.0
 41
0.0
 71
     1
 72
     1
  1
%%c
  7
SLDTEXTSTYLE0
 11
3.391901413832837E-15
 21
1.0
 31
0.0
 73
     1
 44
1.0
  0
MTEXT
  5
17D
330
173
100
AcDbEntity
  8
VERMASSUNG
100
AcDbMText
 10
56.178710825
 20
118.1310816829
 30
0.0
 40
2.0
 41
0.0
 71
     1
 72
     1
  1
63
  7
SLDTEXTSTYLE0
 11
3.391901413832837E-15
 21
1.0
 31
0.0
 73
     1
 44
1.0
  0
ENDBLK
  5
175
330
173
100
AcDbEntity
  8
0
100
AcDbBlockEnd
  0
BLOCK
  5
180
330
17F
100
AcDbEntity
  8
0
100
AcDbBlockBegin
  2
_D_1
 70
     0
 10
0.0
 20
0.0
 30
0.0
  3
_D_1
  1

  0
SOLID
  5
182
330
17F
100
AcDbEntity
  8
VERMASSUNG
100
AcDbTrace
 10
68.756846421
 20
158.9960543064
 30
0.0
 11
71.756846421
 21
158.5460543064
 31
0.0
 12
71.756846421
 22
159.4460543064
 32
0.0
 13
71.756846421
 23
159.4460543064
 33
0.0
  0
SOLID
  5
183
330
17F
100
AcDbEntity
  8
VERMASSUNG
100
AcDbTrace
 10
227.156846421
 20
158.9960543064
 30
0.0
 11
224.156846421
 21
159.4460543064
 31
0.0
 12
224.156846421
 22
158.5460543064
 32
0.0
 13
224.156846421
 23
158.5460543064
 33
0.0
  0
LINE
  5
184
330
17F
100
AcDbEntity
  8
VERMASSUNG
100
AcDbLine
 10
68.756846421
 20
121.9494634385
 30
0.0
 11
68.756846421
 21
159.9960543064
 31
0.0
  0
LINE
  5
185
330
17F
100
AcDbEntity
  8
VERMASSUNG
100
AcDbLine
 10
227.156846421
 20
119.9267078415
 30
0.0
 11
227.156846421
 21
159.9960543064
 31
0.0
  0
LINE
  5
186
330
17F
100
AcDbEntity
  8
VERMASSUNG
100
AcDbLine
 10
68.756846421
 20
158.9960543064
 30
0.0
 11
227.156846421
 21
158.9960543064
 31
0.0
  0
MTEXT
  5
187
330
17F
100
AcDbEntity
  8
VERMASSUNG
100
AcDbMText
 10
144.9568463949
 20
161.5741899023
 30
0.0
 40
2.0
 41
0.0
 71
     1
 72
     1
  1
158.4
  7
SLDTEXTSTYLE0
 73
     1
 44
1.0
  0
ENDBLK
  5
181
330
17F
100
AcDbEntity
  8
0
100
AcDbBlockEnd
  0
BLOCK
  5
18A
330
189
100
AcDbEntity
  8
0
100
AcDbBlockBegin
  2
_D_2
 70
     0
 10
0.0
 20
0.0
 30
0.0
  3
_D_2
  1

  0
SOLID
  5
18C
330
189
100
AcDbEntity
  8
VERMASSUNG
100
AcDbTrace
 10
134.156846421
 20
152.9960543064
 30
0.0
 11
137.156846421
 21
152.5460543064
 31
0.0
 12
137.156846421
 22
153.4460543064
 32
0.0
 13
137.156846421
 23
153.4460543064
 33
0.0
  0
SOLID
  5
18D
330
189
100
AcDbEntity
  8
VERMASSUNG
100
AcDbTrace
 10
227.156846421
 20
152.9960543064
 30
0.0
 11
224.156846421
 21
153.4460543064
 31
0.0
 12
224.156846421
 22
152.5460543064
 32
0.0
 13
224.156846421
 23
152.5460543064
 33
0.0
  0
LINE
  5
18E
330
189
100
AcDbEntity
  8
VERMASSUNG
100
AcDbLine
 10
134.156846421
 20
132.3517078415
 30
0.0
 11
134.156846421
 21
153.9960543064
 31
0.0
  0
LINE
  5
18F
330
189
100
AcDbEntity
  8
VERMASSUNG
100
AcDbLine
 10
227.156846421
 20
119.9267078415
 30
0.0
 11
227.156846421
 21
153.9960543064
 31
0.0
  0
LINE
  5
190
330
189
100
AcDbEntity
  8
VERMASSUNG
100
AcDbLine
 10
134.156846421
 20
152.9960543064
 30
0.0
 11
227.156846421
 21
152.9960543064
 31
0.0
  0
MTEXT
  5
191
330
189
100
AcDbEntity
  8
VERMASSUNG
100
AcDbMText
 10
179.2568464709
 20
155.5741899023
 30
0.0
 40
2.0
 41
0.0
 71
     1
 72
     1
  1
93
  7
SLDTEXTSTYLE0
 73
     1
 44
1.0
  0
ENDBLK
  5
18B
330
189
100
AcDbEntity
  8
0
100
AcDbBlockEnd
  0
BLOCK
  5
194
330
193
100
AcDbEntity
  8
0
100
AcDbBlockBegin
  2
_D_3
 70
     0
 10
0.0
 20
0.0
 30
0.0
  3
_D_3
  1

  0
SOLID
  5
196
330
193
100
AcDbEntity
  8
VERMASSUNG
100
AcDbTrace
 10
161.156846421
 20
146.9960543064
 30
0.0
 11
164.156846421
 21
146.5460543064
 31
0.0
 12
164.156846421
 22
147.4460543064
 32
0.0
 13
164.156846421
 23
147.4460543064
 33
0.0
  0
SOLID
  5
197
330
193
100
AcDbEntity
  8
VERMASSUNG
100
AcDbTrace
 10
227.156846421
 20
146.9960543064
 30
0.0
 11
224.156846421
 21
147.4460543064
 31
0.0
 12
224.156846421
 22
146.5460543064
 32
0.0
 13
224.156846421
 23
146.5460543064
 33
0.0
  0
LINE
  5
198
330
193
100
AcDbEntity
  8
VERMASSUNG
100
AcDbLine
 10
161.156846421
 20
140.6267078415
 30
0.0
 11
161.156846421
 21
147.9960543064
 31
0.0
  0
LINE
  5
199
330
193
100
AcDbEntity
  8
VERMASSUNG
100
AcDbLine
 10
227.156846421
 20
119.9267078415
 30
0.0
 11
227.156846421
 21
147.9960543064
 31
0.0
  0
LINE
  5
19A
330
193
100
AcDbEntity
  8
VERMASSUNG
100
AcDbLine
 10
161.156846421
 20
146.9960543064
 30
0.0
 11
227.156846421
 21
146.9960543064
 31
0.0
  0
MTEXT
  5
19B
330
193
100
AcDbEntity
  8
VERMASSUNG
100
AcDbMText
 10
192.7568464709
 20
149.5741899023
 30
0.0
 40
2.0
 41
0.0
 71
     1
 72
     1
  1
66
  7
SLDTEXTSTYLE0
 73
     1
 44
1.0
  0
ENDBLK
  5
195
330
193
100
AcDbEntity
  8
0
100
AcDbBlockEnd
  0
BLOCK
  5
19E
330
19D
100
AcDbEntity
  8
0
100
AcDbBlockBegin
  2
_D_4
 70
     0
 10
0.0
 20
0.0
 30
0.0
  3
_D_4
  1

  0
SOLID
  5
1A0
330
19D
100
AcDbEntity
  8
VERMASSUNG
100
AcDbTrace
 10
240.5844468381
 20
120.1267078415
 30
0.0
 11
240.1344468381
 21
117.1267078415
 31
0.0
 12
241.0344468381
 22
117.1267078415
 32
0.0
 13
241.0344468381
 23
117.1267078415
 33
0.0
  0
SOLID
  5
1A1
330
19D
100
AcDbEntity
  8
VERMASSUNG
100
AcDbTrace
 10
240.5844468381
 20
100.1267078415
 30
0.0
 11
241.0344468381
 21
103.1267078415
 31
0.0
 12
240.1344468381
 22
103.1267078415
 32
0.0
 13
240.1344468381
 23
103.1267078415
 33
0.0
  0
LINE
  5
1A2
330
19D
100
AcDbEntity
  8
VERMASSUNG
100
AcDbLine
 10
226.956846421
 20
120.1267078415
 30
0.0
 11
241.5844468381
 21
120.1267078415
 31
0.0
  0
LINE
  5
1A3
330
19D
100
AcDbEntity
  8
VERMASSUNG
100
AcDbLine
 10
226.956846421
 20
100.1267078415
 30
0.0
 11
241.5844468381
 21
100.1267078415
 31
0.0
  0
LINE
  5
1A4
330
19D
100
AcDbEntity
  8
VERMASSUNG
100
AcDbLine
 10
240.5844468381
 20
120.1267078415
 30
0.0
 11
240.5844468381
 21
100.1267078415
 31
0.0
  0
MTEXT
  5
1A5
330
19D
100
AcDbEntity
  8
VERMASSUNG
100
AcDbMText
 10
237.8063115819
 20
105.0217078522
 30
0.0
 40
2.0
 41
0.0
 71
     1
 72
     1
  1
WH
  7
SLDTEXTSTYLE0
 11
-7.044195017643634E-15
 21
1.0
 31
0.0
 73
     1
 44
1.0
  0
MTEXT
  5
1A6
330
19D
100
AcDbEntity
  8
VERMASSUNG
100
AcDbMText
 10
238.0063115331
 20
108.8217079163
 30
0.0
 40
2.0
 41
0.0
 71
     1
 72
     1
  1
%%c
  7
SLDTEXTSTYLE0
 11
-7.044195017643634E-15
 21
1.0
 31
0.0
 73
     1
 44
1.0
  0
MTEXT
  5
1A7
330
19D
100
AcDbEntity
  8
VERMASSUNG
100
AcDbMText
 10
237.8063115819
 20
112.4317079306
 30
0.0
 40
2.0
 41
0.0
 71
     1
 72
     1
  1
20
  7
SLDTEXTSTYLE0
 11
-7.044195017643634E-15
 21
1.0
 31
0.0
 73
     1
 44
1.0
  0
ENDBLK
  5
19F
330
19D
100
AcDbEntity
  8
0
100
AcDbBlockEnd
  0
BLOCK
  5
1AA
330
1A9
100
AcDbEntity
  8
0
100
AcDbBlockBegin
  2
_D_5
 70
     0
 10
0.0
 20
0.0
 30
0.0
  3
_D_5
  1

  0
SOLID
  5
1AC
330
1A9
100
AcDbEntity
  8
VERMASSUNG
100
AcDbTrace
 10
234.5844468381
 20
115.6267078415
 30
0.0
 11
234.1344468381
 21
112.6267078415
 31
0.0
 12
235.0344468381
 22
112.6267078415
 32
0.0
 13
235.0344468381
 23
112.6267078415
 33
0.0
  0
SOLID
  5
1AD
330
1A9
100
AcDbEntity
  8
VERMASSUNG
100
AcDbTrace
 10
234.5844468381
 20
104.6267078415
 30
0.0
 11
235.0344468381
 21
107.6267078415
 31
0.0
 12
234.1344468381
 22
107.6267078415
 32
0.0
 13
234.1344468381
 23
107.6267078415
 33
0.0
  0
LINE
  5
1AE
330
1A9
100
AcDbEntity
  8
VERMASSUNG
100
AcDbLine
 10
226.156846421
 20
115.6267078415
 30
0.0
 11
235.5844468381
 21
115.6267078415
 31
0.0
  0
LINE
  5
1AF
330
1A9
100
AcDbEntity
  8
VERMASSUNG
100
AcDbLine
 10
226.156846421
 20
104.6267078415
 30
0.0
 11
235.5844468381
 21
104.6267078415
 31
0.0
  0
LINE
  5
1B0
330
1A9
100
AcDbEntity
  8
VERMASSUNG
100
AcDbLine
 10
234.5844468381
 20
115.6267078415
 30
0.0
 11
234.5844468381
 21
104.6267078415
 31
0.0
  0
MTEXT
  5
1B1
330
1A9
100
AcDbEntity
  8
VERMASSUNG
100
AcDbMText
 10
232.0063115331
 20
107.3217076704
 30
0.0
 40
2.0
 41
0.0
 71
     1
 72
     1
  1
%%c
  7
SLDTEXTSTYLE0
 11
-7.044195017643634E-15
 21
1.0
 31
0.0
 73
     1
 44
1.0
  0
MTEXT
  5
1B2
330
1A9
100
AcDbEntity
  8
VERMASSUNG
100
AcDbMText
 10
231.8063115819
 20
110.9317076847
 30
0.0
 40
2.0
 41
0.0
 71
     1
 72
     1
  1
11
  7
SLDTEXTSTYLE0
 11
-7.044195017643634E-15
 21
1.0
 31
0.0
 73
     1
 44
1.0
  0
ENDBLK
  5
1AB
330
1A9
100
AcDbEntity
  8
0
100
AcDbBlockEnd
  0
ENDSEC
  0
SECTION
  2
ENTITIES
  0
MTEXT
  5
78
330
1F
100
AcDbEntity
  8
KOPF_DÜNN
100
AcDbMText
 10
13.8892156294
 20
23.8442973028
 30
0.0
 40
3.0
 41
0.0
 71
     1
 72
     1
  1
A34.540.020.093
  7
SLDTEXTSTYLE0
 73
     1
 44
1.0
  0
MTEXT
  5
79
330
1F
100
AcDbEntity
  8
VERMASSUNG
100
AcDbMText
 10
13.9329988022
 20
28.8834360957
 30
0.0
 40
3.0
 41
0.0
 71
     1
 72
     1
  1
Aufnahme_Master shank WH20
  7
SLDTEXTSTYLE0
 73
     1
 44
1.0
  0
MTEXT
  5
7A
330
1F
100
AcDbEntity
  8
VERMASSUNG
100
AcDbMText
 10
98.8601118557
 20
13.8365368761
 30
0.0
 40
2.0
 41
0.0
 71
     1
 72
     1
  1
Datum: 17.11.2011
  7
SLDTEXTSTYLE0
 73
     1
 44
1.0
  0
MTEXT
  5
7B
330
1F
100
AcDbEntity
  8
VERMASSUNG
100
AcDbMText
 10
13.933048693
 20
18.0482802738
 30
0.0
 40
2.0
 41
0.0
 71
     1
 72
     1
  1
MAS-BT AD/B
  7
SLDTEXTSTYLE0
 73
     1
 44
1.0
  0
MTEXT
  5
7C
330
1F
100
AcDbEntity
  8
VERMASSUNG
100
AcDbMText
 10
13.9808475933
 20
13.9090974274
 30
0.0
 40
2.0
 41
0.0
 71
     1
 72
     1
  1
Gewicht: 1132g
  7
SLDTEXTSTYLE0
 73
     1
 44
1.0
  0
LINE
  5
7D
330
1F
100
AcDbEntity
  8
0
  6
Continuous
 62
     7
370
    15
100
AcDbLine
 10
158.1568488624
 20
78.6267078415
 30
0.0
 11
160.156846421
 21
78.6267078415
 31
0.0
  0
LINE
  5
7E
330
1F
100
AcDbEntity
  8
0
  6
Continuous
 62
     7
370
    15
100
AcDbLine
 10
160.156846421
 20
141.6267078415
 30
0.0
 11
158.156346251
 21
141.6267078415
 31
0.0
  0
ARC
  5
7F
330
1F
100
AcDbEntity
  8
0
  6
Continuous
 62
     7
370
    15
100
AcDbCircle
 10
160.156846421
 20
79.6267078415
 30
0.0
 40
1.0
100
AcDbArc
 50
270.0
 51
0.0
  0
ARC
  5
80
330
1F
100
AcDbEntity
  8
0
  6
Continuous
 62
     7
370
    15
100
AcDbCircle
 10
160.156846421
 20
140.6267078415
 30
0.0
 40
1.0
100
AcDbArc
 50
0.0
 51
90.0
  0
ARC
  5
81
330
1F
100
AcDbEntity
  8
0
  6
Continuous
 62
     7
370
    15
100
AcDbCircle
 10
135.156846421
 20
86.9017078415
 30
0.0
 40
1.0
100
AcDbArc
 50
46.4299366488
 51
90.0
  0
ARC
  5
82
330
1F
100
AcDbEntity
  8
0
  6
Continuous
 62
     7
370
    15
100
AcDbCircle
 10
135.156846421
 20
133.3517078415
 30
0.0
 40
1.0
100
AcDbArc
 50
270.0
 51
313.5373955816
  0
LINE
  5
83
330
1F
100
AcDbEntity
  8
0
  6
Continuous
 62
     7
370
    15
100
AcDbLine
 10
134.156846421
 20
87.9017078415
 30
0.0
 11
135.156846421
 21
87.9017078415
 31
0.0
  0
LINE
  5
84
330
1F
100
AcDbEntity
  8
0
  6
Continuous
 62
     7
370
    15
100
AcDbLine
 10
135.156846421
 20
132.3517078415
 30
0.0
 11
134.156846421
 21
132.3517078415
 31
0.0
  0
LINE
  5
85
330
1F
100
AcDbEntity
  8
0
  6
Continuous
 62
     7
370
    15
100
AcDbLine
 10
134.156846421
 20
132.3517078415
 30
0.0
 11
69.6125395279
 21
122.9389964196
 31
0.0
  0
LINE
  5
86
330
1F
100
AcDbEntity
  8
0
  6
Continuous
 62
     7
370
    15
100
AcDbLine
 10
69.6125395279
 20
97.3144192634
 30
0.0
 11
134.156846421
 21
87.9017078415
 31
0.0
  0
ARC
  5
87
330
1F
100
AcDbEntity
  8
0
  6
Continuous
 62
     7
370
    15
100
AcDbCircle
 10
164.156846421
 20
97.1267078415
 30
0.0
 40
3.0
100
AcDbArc
 50
90.0
 51
180.0
  0
ARC
  5
88
330
1F
100
AcDbEntity
  8
0
  6
Continuous
 62
     7
370
    15
100
AcDbCircle
 10
164.156846421
 20
123.1267078415
 30
0.0
 40
3.000000000000014
100
AcDbArc
 50
180.0
 51
270.0
  0
ARC
  5
89
330
1F
100
AcDbEntity
  8
0
  6
Continuous
 62
     7
370
    15
100
AcDbCircle
 10
69.756846421
 20
98.3039522444
 30
0.0
 40
1.0
100
AcDbArc
 50
180.0
 51
261.7028550302
  0
ARC
  5
8A
330
1F
100
AcDbEntity
  8
0
  6
Continuous
 62
     7
370
    15
100
AcDbCircle
 10
69.756846421
 20
121.9494634385
 30
0.0
 40
1.00000000000001
100
AcDbArc
 50
98.2971449698
 51
180.0
  0
LINE
  5
8B
330
1F
100
AcDbEntity
  8
0
  6
Continuous
 62
     7
370
    15
100
AcDbLine
 10
226.956846421
 20
100.1267078415
 30
0.0
 11
227.156846421
 21
100.3267078415
 31
0.0
  0
LINE
  5
8C
330
1F
100
AcDbEntity
  8
0
  6
Continuous
 62
     7
370
    15
100
AcDbLine
 10
227.156846421
 20
119.9267078415
 30
0.0
 11
226.956846421
 21
120.1267078415
 31
0.0
  0
LINE
  5
8D
330
1F
100
AcDbEntity
  8
0
  6
Continuous
 62
     7
370
    15
100
AcDbLine
 10
164.156846421
 20
100.1267078415
 30
0.0
 11
226.956846421
 21
100.1267078415
 31
0.0
  0
LINE
  5
8E
330
1F
100
AcDbEntity
  8
0
  6
Continuous
 62
     7
370
    15
100
AcDbLine
 10
226.956846421
 20
120.1267078415
 30
0.0
 11
164.156846421
 21
120.1267078415
 31
0.0
  0
SPLINE
  5
8F
330
1F
100
AcDbEntity
  8
0
  6
Continuous
 62
     7
370
    15
100
AcDbSpline
210
0.0
220
0.0
230
1.0
 70
     8
 71
     3
 72
    11
 73
     7
 74
     0
 42
0.000000001
 43
0.00000001
 40
0.0
 40
0.0
 40
0.0
 40
0.0
 40
0.2488814606714261
 40
0.5011921284371436
 40
0.7520447562616431
 40
1.0
 40
1.0
 40
1.0
 40
1.0
 10
158.1563462509654
 20
141.626558096072
 30
0.0
 10
158.1265679214733
 20
141.6174260699275
 30
0.0
 10
158.0666009625075
 20
141.5990361922405
 30
0.0
 10
157.5746789007287
 20
141.4549989437539
 30
0.0
 10
156.8466094781
 20
141.2455958656431
 30
0.0
 10
156.1358660069278
 20
141.0733915962935
 30
0.0
 10
155.7825584897914
 20
140.987789595977
 30
0.0
  0
SPLINE
  5
90
330
1F
100
AcDbEntity
  8
0
  6
Continuous
 62
     7
370
    15
100
AcDbSpline
210
0.0
220
0.0
230
1.0
 70
     8
 71
     3
 72
    24
 73
    20
 74
     0
 42
0.000000001
 43
0.00000001
 40
0.0
 40
0.0
 40
0.0
 40
0.0
 40
0.0452123390553297
 40
0.0902993246598282
 40
0.1353091570720049
 40
0.1802902845531662
 40
0.2252912480536735
 40
0.2703605244088471
 40
0.315546370566241
 40
0.3608966713275183
 40
0.4064587929582132
 40
0.4522794448058856
 40
0.4984045507850309
 40
0.5831172992473144
 40
0.6669885232160451
 40
0.7503119012110596
 40
0.8333869220130001
 40
0.9165157587062372
 40
1.0
 40
1.0
 40
1.0
 40
1.0
 10
155.7824651144002
 20
79.26560982194302
 30
0.0
 10
155.8501688563079
 20
79.24985078092442
 30
0.0
 10
155.9853886281434
 20
79.21837639160951
 30
0.0
 10
156.1780503449935
 20
79.1719155882684
 30
0.0
 10
156.3627872166512
 20
79.12628460863486
 30
0.0
 10
156.5389051579486
 20
79.0816593112008
 30
0.0
 10
156.7065889505634
 20
79.03817202460169
 30
0.0
 10
156.8657884348555
 20
78.99597097680403
 30
0.0
 10
157.0165165733346
 20
78.95520438449249
 30
0.0
 10
157.1587695267689
 20
78.9160246318863
 30
0.0
 10
157.2925482818436
 20
78.87858734008216
 30
0.0
 10
157.4178521927698
 20
78.84305075612235
 30
0.0
 10
157.5669572823643
 20
78.80033254294847
 30
0.0
 10
157.7278120024432
 20
78.7537977980606
 30
0.0
 10
157.8838216348183
 20
78.70811274928464
 30
0.0
 10
158.0054753553063
 20
78.67207312260541
 30
0.0
 10
158.0919236557389
 20
78.64619908249614
 30
0.0
 10
158.1462636615136
 20
78.62978639203162
 30
0.0
 10
158.1533137284289
 20
78.62773548961924
 30
0.0
 10
158.1568462811829
 20
78.62670785100926
 30
0.0
  0
LINE
  5
91
330
1F
100
AcDbEntity
  8
0
  6
Continuous
 62
     7
370
    15
100
AcDbLine
 10
155.781846421
 20
79.2656098219
 30
0.0
 11
155.781846421
 21
140.987789596
 31
0.0
  0
SPLINE
  5
92
330
1F
100
AcDbEntity
  8
0
  6
Continuous
 62
     7
370
    15
100
AcDbSpline
210
0.0
220
0.0
230
1.0
 70
     8
 71
     3
 72
    10
 73
     6
 74
     0
 42
0.000000001
 43
0.00000001
 40
0.0
 40
0.0
 40
0.0
 40
0.0
 40
0.5
 40
0.5
 40
1.0
 40
1.0
 40
1.0
 40
1.0
 10
155.1334548250281
 20
140.0311685628326
 30
0.0
 10
154.8173509938886
 20
139.4113060045555
 30
0.0
 10
154.4875719495438
 20
138.7654052692567
 30
0.0
 10
153.815348677155
 20
137.4509866289561
 30
0.0
 10
153.4732155112244
 20
136.7830644019438
 30
0.0
 10
153.1260351827102
 20
136.1067266694624
 30
0.0
  0
SPLINE
  5
93
330
1F
100
AcDbEntity
  8
0
  6
Continuous
 62
     7
370
    15
100
AcDbSpline
210
0.0
220
0.0
230
1.0
 70
     8
 71
     3
 72
     9
 73
     5
 74
     0
 42
0.000000001
 43
0.00000001
 40
0.0
 40
0.0
 40
0.0
 40
0.0
 40
0.5067583433954557
 40
1.0
 40
1.0
 40
1.0
 40
1.0
 10
155.7824769639671
 20
140.9888429488275
 30
0.0
 10
155.6720770066187
 20
140.8267686891629
 30
0.0
 10
155.4542217728822
 20
140.5069431514547
 30
0.0
 10
155.2396284268082
 20
140.1885946065026
 30
0.0
 10
155.1337820492944
 20
140.0315718428128
 30
0.0
  0
SPLINE
  5
94
330
1F
100
AcDbEntity
  8
0
  6
Continuous
 62
     7
370
    15
100
AcDbSpline
210
0.0
220
0.0
230
1.0
 70
     8
 71
     3
 72
     9
 73
     5
 74
     0
 42
0.000000001
 43
0.00000001
 40
0.0
 40
0.0
 40
0.0
 40
0.0
 40
0.4932438861072345
 40
1.0
 40
1.0
 40
1.0
 40
1.0
 10
155.1337681342715
 20
80.2218417397737
 30
0.0
 10
155.2396146247646
 20
80.0648178278681
 30
0.0
 10
155.4542072299124
 20
79.74646839399097
 30
0.0
 10
155.6720612788989
 20
79.42664290625075
 30
0.0
 10
155.7824601501592
 20
79.26456938495966
 30
0.0
  0
SPLINE
  5
95
330
1F
100
AcDbEntity
  8
0
  6
Continuous
 62
     7
370
    15
100
AcDbSpline
210
0.0
220
0.0
230
1.0
 70
     8
 71
     3
 72
    10
 73
     6
 74
     0
 42
0.000000001
 43
0.00000001
 40
0.0
 40
0.0
 40
0.0
 40
0.0
 40
0.5
 40
0.5
 40
1.0
 40
1.0
 40
1.0
 40
1.0
 10
155.1334489053602
 20
80.22225872827345
 30
0.0
 10
154.8172698026861
 20
80.84226888028715
 30
0.0
 10
154.4868275755191
 20
81.48946694615488
 30
0.0
 10
153.8151160548364
 20
82.80288287074865
 30
0.0
 10
153.4731421798044
 20
83.47049413705145
 30
0.0
 10
153.1260351827102
 20
84.14668901349462
 30
0.0
  0
SPLINE
  5
96
330
1F
100
AcDbEntity
  8
0
  6
Continuous
 62
     7
370
    15
100
AcDbSpline
210
0.0
220
0.0
230
1.0
 70
     8
 71
     3
 72
     8
 73
     4
 74
     0
 42
0.000000001
 43
0.00000001
 40
0.0
 40
0.0
 40
0.0
 40
0.0
 40
0.0012389803509652
 40
0.0012389803509652
 40
0.0012389803509652
 40
0.0012389803509652
 10
146.2894079645163
 20
139.580730564265
 30
0.0
 10
146.1042879913835
 20
139.841780545644
 30
0.0
 10
145.9184095436245
 20
140.102562158763
 30
0.0
 10
145.7318464209825
 20
140.3630979444803
 30
0.0
  0
SPLINE
  5
97
330
1F
100
AcDbEntity
  8
0
  6
Continuous
 62
     7
370
    15
100
AcDbSpline
210
0.0
220
0.0
230
1.0
 70
     8
 71
     3
 72
     8
 73
     4
 74
     0
 42
0.000000001
 43
0.00000001
 40
0.0
 40
0.0
 40
0.0
 40
0.0
 40
1.0
 40
1.0
 40
1.0
 40
1.0
 10
148.3876576592548
 20
135.7939535059435
 30
0.0
 10
147.6913642932133
 20
137.0578918740583
 30
0.0
 10
146.9915691280222
 20
138.3199473195666
 30
0.0
 10
146.2894079645163
 20
139.580730564265
 30
0.0
  0
SPLINE
  5
98
330
1F
100
AcDbEntity
  8
0
  6
Continuous
 62
     7
370
    15
100
AcDbSpline
210
0.0
220
0.0
230
1.0
 70
     8
 71
     3
 72
     8
 73
     4
 74
     0
 42
0.000000001
 43
0.00000001
 40
0.0
 40
0.0
 40
0.0
 40
0.0
 40
1.0
 40
1.0
 40
1.0
 40
1.0
 10
148.3876576592548
 20
84.45946217701345
 30
0.0
 10
147.6913395185968
 20
83.19547883706666
 30
0.0
 10
146.9915423264864
 20
81.93342023921468
 30
0.0
 10
146.2894079645163
 20
80.672685118692
 30
0.0
  0
SPLINE
  5
99
330
1F
100
AcDbEntity
  8
0
  6
Continuous
 62
     7
370
    15
100
AcDbSpline
210
0.0
220
0.0
230
1.0
 70
     8
 71
     3
 72
     8
 73
     4
 74
     0
 42
0.000000001
 43
0.00000001
 40
0.0
 40
0.0
 40
0.0
 40
0.0
 40
0.0012389803509652
 40
0.0012389803509652
 40
0.0012389803509652
 40
0.0012389803509652
 10
145.7318464209825
 20
79.89031773847664
 30
0.0
 10
145.9184095436245
 20
80.150853524194
 30
0.0
 10
146.1042879913834
 20
80.411635137313
 30
0.0
 10
146.2894079645163
 20
80.672685118692
 30
0.0
  0
LINE
  5
9A
330
1F
100
AcDbEntity
  8
0
  6
Continuous
 62
     7
370
    15
100
AcDbLine
 10
145.731846421
 20
79.8903177385
 30
0.0
 11
145.731846421
 21
140.3630979445
 31
0.0
  0
LINE
  5
9B
330
1F
100
AcDbEntity
  8
0
  6
Continuous
 62
     7
370
    15
100
AcDbLine
 10
145.731846421
 20
140.3630979445
 30
0.0
 11
137.156846421
 21
140.3630979445
 31
0.0
  0
LINE
  5
9C
330
1F
100
AcDbEntity
  8
0
  6
Continuous
 62
     7
370
    15
100
AcDbLine
 10
137.156846421
 20
79.8903177385
 30
0.0
 11
145.731846421
 21
79.8903177385
 31
0.0
  0
LINE
  5
9D
330
1F
100
AcDbEntity
  8
0
  6
Continuous
 62
     7
370
    15
100
AcDbLine
 10
161.156846421
 20
79.6267078415
 30
0.0
 11
161.156846421
 21
140.6267078341
 31
0.0
  0
LINE
  5
9E
330
1F
100
AcDbEntity
  8
0
  6
Continuous
 62
     7
370
    15
100
AcDbLine
 10
136.156846421
 20
81.000302296
 30
0.0
 11
136.156846421
 21
139.253113387
 31
0.0
  0
SPLINE
  5
9F
330
1F
100
AcDbEntity
  8
0
  6
Continuous
 62
     7
370
    15
100
AcDbSpline
210
0.0
220
0.0
230
1.0
 70
     8
 71
     3
 72
    12
 73
     8
 74
     0
 42
0.000000001
 43
0.00000001
 40
0.0
 40
0.0
 40
0.0
 40
0.0
 40
0.25
 40
0.25
 40
0.5
 40
0.5
 40
1.0
 40
1.0
 40
1.0
 40
1.0
 10
136.5438792439481
 20
140.1936977412994
 30
0.0
 10
136.49201849276
 20
140.1368851689851
 30
0.0
 10
136.4432866957411
 20
140.0748929827332
 30
0.0
 10
136.3531136858236
 20
139.9388399096093
 30
0.0
 10
136.3113364375386
 20
139.8639338070105
 30
0.0
 10
136.2052475676927
 20
139.6258071717131
 30
0.0
 10
136.1568464209825
 20
139.4424004401443
 30
0.0
 10
136.1568464209825
 20
139.2531133869625
 30
0.0
  0
SPLINE
  5
A0
330
1F
100
AcDbEntity
  8
0
  6
Continuous
 62
     7
370
    15
100
AcDbSpline
210
0.0
220
0.0
230
1.0
 70
     8
 71
     3
 72
     8
 73
     4
 74
     0
 42
0.000000001
 43
0.00000001
 40
0.0
 40
0.0
 40
0.0
 40
0.0
 40
1.0
 40
1.0
 40
1.0
 40
1.0
 10
137.1568464209825
 20
140.3630979444803
 30
0.0
 10
136.9305021073827
 20
140.3630979444803
 30
0.0
 10
136.7130499869775
 20
140.2997294754594
 30
0.0
 10
136.5438792439481
 20
140.1936977412994
 30
0.0
  0
SPLINE
  5
A1
330
1F
100
AcDbEntity
  8
0
  6
Continuous
 62
     7
370
    15
100
AcDbSpline
210
0.0
220
0.0
230
1.0
 70
     8
 71
     3
 72
     8
 73
     4
 74
     0
 42
0.000000001
 43
0.00000001
 40
0.0
 40
0.0
 40
0.0
 40
0.0
 40
1.0
 40
1.0
 40
1.0
 40
1.0
 10
136.5438792439481
 20
80.05971794165752
 30
0.0
 10
136.7134727496
 20
79.95342123110034
 30
0.0
 10
136.9298414419332
 20
79.89031773847664
 30
0.0
 10
137.1568464209825
 20
79.89031773847664
 30
0.0
  0
SPLINE
  5
A2
330
1F
100
AcDbEntity
  8
0
  6
Continuous
 62
     7
370
    15
100
AcDbSpline
210
0.0
220
0.0
230
1.0
 70
     8
 71
     3
 72
    12
 73
     8
 74
     0
 42
0.000000001
 43
0.00000001
 40
0.0
 40
0.0
 40
0.0
 40
0.0
 40
0.2499999999999977
 40
0.2499999999999977
 40
0.4999999999999953
 40
0.4999999999999953
 40
1.0
 40
1.0
 40
1.0
 40
1.0
 10
136.5438792439481
 20
80.05971794165754
 30
0.0
 10
136.49201849276
 20
80.11653051397191
 30
0.0
 10
136.4432866957411
 20
80.17852270022372
 30
0.0
 10
136.3531136858236
 20
80.31457577334773
 30
0.0
 10
136.3113364375386
 20
80.38948187594644
 30
0.0
 10
136.2052475676927
 20
80.62760851124385
 30
0.0
 10
136.1568464209825
 20
80.81101524281263
 30
0.0
 10
136.1568464209825
 20
81.0003022959945
 30
0.0
  0
SPLINE
  5
A3
330
1F
100
AcDbEntity
  8
0
  6
Continuous
 62
     7
370
    15
100
AcDbSpline
210
0.0
220
0.0
230
1.0
 70
     8
 71
     3
 72
    10
 73
     6
 74
     0
 42
0.000000001
 43
0.00000001
 40
0.0
 40
0.0
 40
0.0
 40
0.0
 40
0.5
 40
0.5
 40
1.0
 40
1.0
 40
1.0
 40
1.0
 10
149.0804779822824
 20
135.374430511058
 30
0.0
 10
148.9384606698354
 20
135.374430511058
 30
0.0
 10
148.7980136229731
 20
135.4149203632675
 30
0.0
 10
148.5564237037118
 20
135.5628561932066
 30
0.0
 10
148.4557462614585
 20
135.6703564691861
 30
0.0
 10
148.3876576592549
 20
135.7939535059432
 30
0.0
  0
SPLINE
  5
A4
330
1F
100
AcDbEntity
  8
0
  6
Continuous
 62
     7
370
    15
100
AcDbSpline
210
0.0
220
0.0
230
1.0
 70
     8
 71
     3
 72
    10
 73
     6
 74
     0
 42
0.000000001
 43
0.00000001
 40
0.0
 40
0.0
 40
0.0
 40
0.0
 40
0.5
 40
0.5
 40
1.0
 40
1.0
 40
1.0
 40
1.0
 10
149.0804779822824
 20
84.87898517189896
 30
0.0
 10
148.9396206177717
 20
84.87898517189896
 30
0.0
 10
148.7967864862975
 20
84.83788126608027
 30
0.0
 10
148.5565247955242
 20
84.6904833727793
 30
0.0
 10
148.4558185264447
 20
84.58319039193967
 30
0.0
 10
148.3876576592548
 20
84.45946217701345
 30
0.0
  0
SPLINE
  5
A5
330
1F
100
AcDbEntity
  8
0
  6
Continuous
 62
     7
370
    15
100
AcDbSpline
210
0.0
220
0.0
230
1.0
 70
     8
 71
     3
 72
    12
 73
     8
 74
     0
 42
0.000000001
 43
0.00000001
 40
0.0
 40
0.0
 40
0.0
 40
0.0
 40
0.25
 40
0.25
 40
0.5
 40
0.5
 40
1.0
 40
1.0
 40
1.0
 40
1.0
 10
153.1260351827103
 20
136.1067266694624
 30
0.0
 10
153.0901310323737
 20
136.0367822353142
 30
0.0
 10
153.0475994802442
 20
135.9735308722564
 30
0.0
 10
152.9508052034042
 20
135.8584722173404
 30
0.0
 10
152.8957155251399
 20
135.8061436836285
 30
0.0
 10
152.717582291586
 20
135.6723587805434
 30
0.0
 10
152.5802051995834
 20
135.6118110133852
 30
0.0
 10
152.4332148596835
 20
135.5926110650013
 30
0.0
  0
SPLINE
  5
A6
330
1F
100
AcDbEntity
  8
0
  6
Continuous
 62
     7
370
    15
100
AcDbSpline
210
0.0
220
0.0
230
1.0
 70
     8
 71
     3
 72
    12
 73
     8
 74
     0
 42
0.000000001
 43
0.00000001
 40
0.0
 40
0.0
 40
0.0
 40
0.0
 40
0.25
 40
0.25
 40
0.5
 40
0.5
 40
1.0
 40
1.0
 40
1.0
 40
1.0
 10
153.1260351827103
 20
84.1466890134946
 30
0.0
 10
153.0901310323737
 20
84.21663344764275
 30
0.0
 10
153.0475994802442
 20
84.2798848107006
 30
0.0
 10
152.9508052034042
 20
84.39494346561654
 30
0.0
 10
152.8957155251399
 20
84.44727199932849
 30
0.0
 10
152.717582291586
 20
84.58105690241361
 30
0.0
 10
152.5802051995834
 20
84.64160466957176
 30
0.0
 10
152.4332148596835
 20
84.66080461795565
 30
0.0
  0
LINE
  5
A7
330
1F
100
AcDbEntity
  8
0
  6
Continuous
 62
     7
370
    15
100
AcDbLine
 10
149.106846421
 20
84.8789851719
 30
0.0
 11
149.0804779823
 21
84.8789851719
 31
0.0
  0
LINE
  5
A8
330
1F
100
AcDbEntity
  8
0
  6
Continuous
 62
     7
370
    15
100
AcDbLine
 10
149.106846421
 20
135.3744305111
 30
0.0
 11
149.0804779823
 21
135.3744305111
 31
0.0
  0
SPLINE
  5
A9
330
1F
100
AcDbEntity
  8
0
  6
Continuous
 62
     7
370
    15
100
AcDbSpline
210
0.0
220
0.0
230
1.0
 70
     8
 71
     3
 72
    10
 73
     6
 74
     0
 42
0.000000001
 43
0.00000001
 40
0.0
 40
0.0
 40
0.0
 40
0.0
 40
0.5000000000000001
 40
0.5000000000000001
 40
1.0
 40
1.0
 40
1.0
 40
1.0
 10
152.4332148596827
 20
135.5926110650043
 30
0.0
 10
151.9113001352868
 20
135.5244383144961
 30
0.0
 10
151.3724489551774
 20
135.4698150495381
 30
0.0
 10
150.2610863131453
 20
135.3947191966468
 30
0.0
 10
149.6842455359493
 20
135.374430511058
 30
0.0
 10
149.1068464209825
 20
135.374430511058
 30
0.0
  0
SPLINE
  5
AA
330
1F
100
AcDbEntity
  8
0
  6
Continuous
 62
     7
370
    15
100
AcDbSpline
210
0.0
220
0.0
230
1.0
 70
     8
 71
     3
 72
    10
 73
     6
 74
     0
 42
0.000000001
 43
0.00000001
 40
0.0
 40
0.0
 40
0.0
 40
0.0
 40
0.5000000000000001
 40
0.5000000000000001
 40
1.0
 40
1.0
 40
1.0
 40
1.0
 10
152.4332148596827
 20
84.66080461795272
 30
0.0
 10
151.9113001352868
 20
84.72897736846092
 30
0.0
 10
151.3724489551774
 20
84.78360063341884
 30
0.0
 10
150.2610863131453
 20
84.8586964863102
 30
0.0
 10
149.6842455359492
 20
84.87898517189896
 30
0.0
 10
149.1068464209825
 20
84.87898517189896
 30
0.0
  0
SPLINE
  5
AB
330
1F
100
AcDbEntity
  8
0
  6
Continuous
 62
     7
370
    15
100
AcDbSpline
210
0.0
220
0.0
230
1.0
 70
     8
 71
     3
 72
    10
 73
     6
 74
     0
 42
0.000000001
 43
0.00000001
 40
0.0
 40
0.0
 40
0.0
 40
0.0
 40
0.1265642595179343
 40
0.9999912776279503
 40
1.0
 40
1.0
 40
1.0
 40
1.0
 10
135.9620228578123
 20
132.6267078414785
 30
0.0
 10
135.9541537455515
 20
132.6267078414794
 30
0.0
 10
135.8919794504266
 20
132.6267078414869
 30
0.0
 10
135.8161869050539
 20
132.6267078413174
 30
0.0
 10
135.8455958740431
 20
132.6267078414785
 30
0.0
 10
135.8455961677292
 20
132.6267078414785
 30
0.0
  0
SPLINE
  5
AC
330
1F
100
AcDbEntity
  8
0
  6
Continuous
 62
     7
370
    15
100
AcDbSpline
210
0.0
220
0.0
230
1.0
 70
    24
 71
     3
 72
     9
 73
     5
 74
     0
 42
0.000000001
 43
0.00000001
 40
0.0
 40
0.0
 40
0.0
 40
0.0
 40
0.8279593837915585
 40
1.0
 40
1.0
 40
1.0
 40
1.0
 10
135.84559625744
 20
87.62670784147849
 30
0.0
 10
135.8628773943098
 20
87.62670784147849
 30
0.0
 10
135.8837493563989
 20
87.62670784147849
 30
0.0
 10
135.9496384623629
 20
87.62670784147849
 30
0.0
 10
135.9609740647544
 20
87.62670784147849
 30
0.0
  0
LINE
  5
AD
330
1F
100
AcDbEntity
  8
0
  6
Continuous
 62
     7
370
    15
100
AcDbLine
 10
134.156846421
 20
87.9017078415
 30
0.0
 11
134.156846421
 21
132.3517078415
 31
0.0
  0
LINE
  5
AE
330
1F
100
AcDbEntity
  8
0
  6
Continuous
 62
     7
370
    15
100
AcDbLine
 10
68.756846421
 20
98.3039522444
 30
0.0
 11
68.756846421
 21
121.9494634385
 31
0.0
  0
LINE
  5
AF
330
1F
100
AcDbEntity
  8
0
  6
Continuous
 62
     7
370
    15
100
AcDbLine
 10
227.156846421
 20
100.3267078415
 30
0.0
 11
227.156846421
 21
119.9267078415
 31
0.0
  0
LINE
  5
B0
330
1F
100
AcDbEntity
  8
0
  6
Continuous
 62
     7
370
    15
100
AcDbLine
 10
226.956846421
 20
100.1267078415
 30
0.0
 11
226.956846421
 21
120.1267078415
 31
0.0
  0
SPLINE
  5
B1
330
1F
100
AcDbEntity
  8
0
  6
Continuous
 62
     7
370
    15
100
AcDbSpline
210
0.0
220
0.0
230
1.0
 70
    11
 71
     3
 72
    62
 73
    58
 74
     0
 42
0.000000001
 43
0.00000001
 40
0.0
 40
0.0
 40
0.0
 40
0.0
 40
0.0312500000000001
 40
0.0312500000000001
 40
0.0625000000000002
 40
0.0625000000000002
 40
0.0937500000000003
 40
0.0937500000000003
 40
0.1250000000000004
 40
0.1250000000000004
 40
0.1562500000000005
 40
0.1562500000000005
 40
0.1875000000000006
 40
0.1875000000000006
 40
0.2187500000000007
 40
0.2187500000000007
 40
0.2500000000000008
 40
0.2500000000000008
 40
0.3125000000000026
 40
0.3125000000000026
 40
0.3437500000000025
 40
0.3437500000000025
 40
0.3750000000000024
 40
0.3750000000000024
 40
0.4062500000000022
 40
0.4062500000000022
 40
0.4375000000000021
 40
0.4375000000000021
 40
0.468750000000002
 40
0.468750000000002
 40
0.5000000000000019
 40
0.5000000000000019
 40
0.5312500000000018
 40
0.5312500000000018
 40
0.5625000000000017
 40
0.5625000000000017
 40
0.5937500000000016
 40
0.5937500000000016
 40
0.6250000000000014
 40
0.6250000000000014
 40
0.6562500000000013
 40
0.6562500000000013
 40
0.6875000000000012
 40
0.6875000000000012
 40
0.7187500000000011
 40
0.7187500000000011
 40
0.7500000000000009
 40
0.7500000000000009
 40
0.7812500000000008
 40
0.7812500000000008
 40
0.8125000000000007
 40
0.8125000000000007
 40
0.8750000000000004
 40
0.8750000000000004
 40
0.9375000000000002
 40
0.9375000000000002
 40
1.0
 40
1.0
 40
1.0
 40
1.0
 10
218.953269661854
 20
112.247500562332
 30
0.0
 10
218.7952251693688
 20
112.1249243165823
 30
0.0
 10
218.6508120742839
 20
111.9893261822809
 30
0.0
 10
218.3904411690162
 20
111.6903894627663
 30
0.0
 10
218.2738338964409
 20
111.5251976866849
 30
0.0
 10
218.0826208638196
 20
111.1789546341505
 30
0.0
 10
218.0064653502794
 20
110.996725680231
 30
0.0
 10
217.8970943252062
 20
110.6119441809579
 30
0.0
 10
217.865328365447
 20
110.4115175969475
 30
0.0
 10
217.8513806841846
 20
110.0139050438771
 30
0.0
 10
217.8690969031318
 20
109.8110931090082
 30
0.0
 10
217.952119587239
 20
109.4193012308962
 30
0.0
 10
218.0164226503884
 20
109.230753454098
 30
0.0
 10
218.1885110777161
 20
108.8675511345817
 30
0.0
 10
218.2938528913901
 20
108.6982859070806
 30
0.0
 10
218.5372712449379
 20
108.3843742187582
 30
0.0
 10
218.6767062396937
 20
108.2387604700727
 30
0.0
 10
219.1269068885687
 20
107.8505839660431
 30
0.0
 10
219.4786177759752
 20
107.6481954589969
 30
0.0
 10
220.0373655777156
 20
107.4419819082818
 30
0.0
 10
220.231314253099
 20
107.388422132755
 30
0.0
 10
220.6255909344842
 20
107.314140686686
 30
0.0
 10
220.8237234053927
 20
107.2935718909332
 30
0.0
 10
221.221921220415
 20
107.2844745913231
 30
0.0
 10
221.4237172995371
 20
107.2962343501899
 30
0.0
 10
221.8206545629572
 20
107.352522199941
 30
0.0
 10
222.014431858595
 20
107.3965211672726
 30
0.0
 10
222.3927531081999
 20
107.5160828238542
 30
0.0
 10
222.5789876057115
 20
107.5925556321559
 30
0.0
 10
222.9327195692302
 20
107.7757021569503
 30
0.0
 10
223.0992783077778
 20
107.8814483769857
 30
0.0
 10
223.4113554997753
 20
108.1224775263846
 30
0.0
 10
223.5584639751731
 20
108.2596323622907
 30
0.0
 10
223.8199352208853
 20
108.5586225890934
 30
0.0
 10
223.9339801927777
 20
108.7192450249981
 30
0.0
 10
224.1264987515812
 20
109.0645965866259
 30
0.0
 10
224.2055869615905
 20
109.2524449119289
 30
0.0
 10
224.315368353313
 20
109.6356566648931
 30
0.0
 10
224.3473595312915
 20
109.8318429097892
 30
0.0
 10
224.3627455094095
 20
110.2339781346861
 30
0.0
 10
224.3453406836121
 20
110.4361766642401
 30
0.0
 10
224.2635912788371
 20
110.8271356984214
 30
0.0
 10
224.1980775085443
 20
111.02025373111
 30
0.0
 10
224.0277631113228
 20
111.3811072214635
 30
0.0
 10
223.9223744864589
 20
111.5515468428583
 30
0.0
 10
223.6772454964898
 20
111.8682890922341
 30
0.0
 10
223.5400719007499
 20
112.0116947073838
 30
0.0
 10
223.2391151432479
 20
112.2717839032164
 30
0.0
 10
223.0745528214714
 20
112.3884591442927
 30
0.0
 10
222.7313395326551
 20
112.5884166187214
 30
0.0
 10
222.5513645737914
 20
112.6729897756673
 30
0.0
 10
221.9864497261233
 20
112.8815732251736
 30
0.0
 10
221.5926665438042
 20
112.9554570155367
 30
0.0
 10
220.7846212989294
 20
112.9734282582206
 30
0.0
 10
220.3897245223607
 20
112.9176214154651
 30
0.0
 10
219.6218438349204
 20
112.6738718175184
 30
0.0
 10
219.2693586468243
 20
112.4926530538317
 30
0.0
 10
218.953269661854
 20
112.2475005623321
 30
0.0
  0
SPLINE
  5
B2
330
1F
100
AcDbEntity
  8
0
  6
Continuous
 62
     7
370
    15
100
AcDbSpline
210
0.0
220
0.0
230
1.0
 70
    24
 71
     3
 72
    10
 73
     6
 74
     0
 42
0.000000001
 43
0.00000001
 40
0.0
 40
0.0
 40
0.0
 40
0.0
 40
0.4391119879276994
 40
0.7513633230734794
 40
0.9999999999999999
 40
0.9999999999999999
 40
0.9999999999999999
 40
0.9999999999999999
 10
221.8994764352496
 20
108.9204446057723
 30
0.0
 10
221.9922902019948
 20
109.105054320702
 30
0.0
 10
222.1511035847444
 20
109.420939499642
 30
0.0
 10
222.381968407021
 20
109.8801374238548
 30
0.0
 10
222.496877744568
 20
110.108695974932
 30
0.0
 10
222.5478160338888
 20
110.2100139517827
 30
0.0
  0
SPLINE
  5
B3
330
1F
100
AcDbEntity
  8
0
  6
Continuous
 62
     7
370
    15
100
AcDbSpline
210
0.0
220
0.0
230
1.0
 70
    24
 71
     3
 72
    10
 73
     6
 74
     0
 42
0.000000001
 43
0.00000001
 40
0.0
 40
0.0
 40
0.0
 40
0.0
 40
0.439111987927701
 40
0.7513633230734872
 40
1.0
 40
1.0
 40
1.0
 40
1.0
 10
222.5478160338888
 20
110.2100139517827
 30
0.0
 10
222.4343462143469
 20
110.3826978890699
 30
0.0
 10
222.2401883160807
 20
110.6781769024619
 30
0.0
 10
221.9579436594857
 20
111.1077106655
 30
0.0
 10
221.8174608167741
 20
111.3215043464864
 30
0.0
 10
221.7551860196217
 20
111.4162771874889
 30
0.0
  0
SPLINE
  5
B4
330
1F
100
AcDbEntity
  8
0
  6
Continuous
 62
     7
370
    15
100
AcDbSpline
210
0.0
220
0.0
230
1.0
 70
    24
 71
     3
 72
    11
 73
     7
 74
     0
 42
0.000000001
 43
0.00000001
 40
0.0
 40
0.0
 40
0.0
 40
0.0
 40
0.1855070912791278
 40
0.5226425778602978
 40
0.8775754485095912
 40
1.0
 40
1.0
 40
1.0
 40
1.0
 10
221.7551860196217
 20
111.4162771874889
 30
0.0
 10
221.6710576805952
 20
111.4114135147036
 30
0.0
 10
221.434036811599
 20
111.3977107367407
 30
0.0
 10
220.9905130265091
 20
111.3720695011225
 30
0.0
 10
220.584814645315
 20
111.3486150480991
 30
0.0
 10
220.3694495905241
 20
111.3361642477148
 30
0.0
 10
220.3142164067154
 20
111.3329710771847
 30
0.0
  0
SPLINE
  5
B5
330
1F
100
AcDbEntity
  8
0
  6
Continuous
 62
     7
370
    15
100
AcDbSpline
210
0.0
220
0.0
230
1.0
 70
    24
 71
     3
 72
    10
 73
     6
 74
     0
 42
0.000000001
 43
0.00000001
 40
0.0
 40
0.0
 40
0.0
 40
0.0
 40
0.4391119879276925
 40
0.7513633230734763
 40
1.0
 40
1.0
 40
1.0
 40
1.0
 10
220.3142164067154
 20
111.3329710771847
 30
0.0
 10
220.2214026399702
 20
111.1483613622549
 30
0.0
 10
220.0625892572207
 20
110.832476183315
 30
0.0
 10
219.8317244349441
 20
110.3732782591022
 30
0.0
 10
219.716815097397
 20
110.144719708025
 30
0.0
 10
219.6658768080762
 20
110.0434017311742
 30
0.0
  0
SPLINE
  5
B6
330
1F
100
AcDbEntity
  8
0
  6
Continuous
 62
     7
370
    15
100
AcDbSpline
210
0.0
220
0.0
230
1.0
 70
    24
 71
     3
 72
    11
 73
     7
 74
     0
 42
0.000000001
 43
0.00000001
 40
0.0
 40
0.0
 40
0.0
 40
0.0
 40
0.1224245514904106
 40
0.4773574221397103
 40
0.8144929087208865
 40
1.0
 40
1.0
 40
1.0
 40
1.0
 10
220.4585068223433
 20
108.8371384954681
 30
0.0
 10
220.513740006152
 20
108.8403316659983
 30
0.0
 10
220.7291050609429
 20
108.8527824663825
 30
0.0
 10
221.134803442137
 20
108.8762369194059
 30
0.0
 10
221.5783272272269
 20
108.9018781550241
 30
0.0
 10
221.815348096223
 20
108.9155809329871
 30
0.0
 10
221.8994764352496
 20
108.9204446057723
 30
0.0
  0
CIRCLE
  5
B7
330
1F
100
AcDbEntity
  8
0
  6
Continuous
 62
     7
370
    15
100
AcDbCircle
 10
221.106846421
 20
110.1267078415
 30
0.0
 40
1.550000000000007
  0
SPLINE
  5
B8
330
1F
100
AcDbEntity
  8
0
  6
Continuous
 62
     7
370
    15
100
AcDbSpline
210
0.0
220
0.0
230
1.0
 70
    24
 71
     3
 72
    10
 73
     6
 74
     0
 42
0.000000001
 43
0.00000001
 40
0.0
 40
0.0
 40
0.0
 40
0.0
 40
0.4391119879276911
 40
0.7513633230734871
 40
1.0
 40
1.0
 40
1.0
 40
1.0
 10
219.6658768080762
 20
110.0434017311742
 30
0.0
 10
219.7793466276181
 20
109.8707177938871
 30
0.0
 10
219.9735045258844
 20
109.575238780495
 30
0.0
 10
220.2557491824795
 20
109.145705017457
 30
0.0
 10
220.396232025191
 20
108.9319113364706
 30
0.0
 10
220.4585068223433
 20
108.8371384954681
 30
0.0
  0
CIRCLE
  5
B9
330
1F
100
AcDbEntity
  8
0
  6
Continuous
 62
     7
370
    15
100
AcDbCircle
 10
221.106846421
 20
110.1267078415
 30
0.0
 40
2.200000000000012
  0
CIRCLE
  5
BA
330
1F
100
AcDbEntity
  8
0
  6
Continuous
 62
     7
370
    15
100
AcDbCircle
 10
221.106846421
 20
110.1267078415
 30
0.0
 40
2.5
  0
ARC
  5
BB
330
1F
100
AcDbEntity
  8
0
  6
Continuous
 62
     7
370
    15
100
AcDbCircle
 10
221.106846421
 20
110.1267078415
 30
0.0
 40
1.250000000000005
100
AcDbArc
 50
33.308731456
 51
93.308731456
  0
ARC
  5
BC
330
1F
100
AcDbEntity
  8
0
  6
Continuous
 62
     7
370
    15
100
AcDbCircle
 10
221.106846421
 20
110.1267078415
 30
0.0
 40
1.250000000000005
100
AcDbArc
 50
273.308731456
 51
333.308731456
  0
ARC
  5
BD
330
1F
100
AcDbEntity
  8
0
  6
Continuous
 62
     7
370
    15
100
AcDbCircle
 10
221.106846421
 20
110.1267078415
 30
0.0
 40
1.249999999999997
100
AcDbArc
 50
333.308731456
 51
33.308731456
  0
ARC
  5
BE
330
1F
100
AcDbEntity
  8
0
  6
Continuous
 62
     7
370
    15
100
AcDbCircle
 10
221.106846421
 20
110.1267078415
 30
0.0
 40
1.250000000000041
100
AcDbArc
 50
153.308731456
 51
213.308731456
  0
ARC
  5
BF
330
1F
100
AcDbEntity
  8
0
  6
Continuous
 62
     7
370
    15
100
AcDbCircle
 10
221.106846421
 20
110.1267078415
 30
0.0
 40
1.250000000000005
100
AcDbArc
 50
213.308731456
 51
273.308731456
  0
ARC
  5
C0
330
1F
100
AcDbEntity
  8
0
  6
Continuous
 62
     7
370
    15
100
AcDbCircle
 10
221.106846421
 20
110.1267078415
 30
0.0
 40
1.250000000000041
100
AcDbArc
 50
93.308731456
 51
153.308731456
  0
SPLINE
  5
C1
330
1F
100
AcDbEntity
  8
0
  6
HIDDEN
 62
     7
370
     0
100
AcDbSpline
210
0.0
220
0.0
230
1.0
 70
     8
 71
     3
 72
    17
 73
    13
 74
     0
 42
0.000000001
 43
0.00000001
 40
0.0
 40
0.0
 40
0.0
 40
0.0
 40
0.0000911568563012
 40
0.0001118962256225
 40
0.2495351486518076
 40
0.5019954014616274
 40
0.5864123905084778
 40
0.6698717771552243
 40
0.7526625357481239
 40
0.8350806749679495
 40
0.9174262229421157
 40
1.0
 40
1.0
 40
1.0
 40
1.0
 10
158.1568462811829
 20
78.62670785100926
 30
0.0
 10
158.1568465454078
 20
78.62670784695332
 30
0.0
 10
158.1568468697473
 20
78.62670784197459
 30
0.0
 10
158.157461297829
 20
78.62670670037826
 30
0.0
 10
158.0533223607742
 20
78.65892336685292
 30
0.0
 10
157.6848356589821
 20
78.76728451785367
 30
0.0
 10
157.3182232658704
 20
78.87211519610662
 30
0.0
 10
157.0686917065933
 20
78.94180790085865
 30
0.0
 10
156.7909059203382
 20
79.0169496097784
 30
0.0
 10
156.4842461436363
 20
79.09661460336285
 30
0.0
 10
156.1510593110052
 20
79.17976378480083
 30
0.0
 10
155.9060618688568
 20
79.23707626702839
 30
0.0
 10
155.7833936238601
 20
79.26577216503289
 30
0.0
  0
LWPOLYLINE
  5
C2
330
1F
100
AcDbEntity
  8
0
  6
HIDDEN
 62
     7
370
     0
100
AcDbPolyline
 90
       22
 70
   128
 43
0.0
 10
136.4054173993
 20
101.138995749
 10
136.5429498825
 20
100.5291279898
 10
136.7572433643
 20
99.9734496574
 10
137.0292569284
 20
99.5213352101
 10
137.3348209759
 20
99.2129570007
 10
137.6467848003
 20
99.0757157863
 10
137.9374290468
 20
99.1218060512
 10
138.1809286985
 20
99.3471324731
 10
138.3556477429
 20
99.7316738104
 10
138.4460616261
 20
100.241261878
 10
138.4441366778
 20
100.8306175396
 10
138.3500439381
 20
101.4473739584
 10
138.1721439598
 20
102.03672962
 10
137.9262439368
 20
102.5463176875
 10
137.6341931651
 20
102.9308590248
 10
137.3219416375
 20
103.1561854467
 10
137.0172342726
 20
103.2022757116
 10
136.7471456568
 20
103.0650344972
 10
136.535674349
 20
102.7566562878
 10
136.4016105028
 20
102.3045418406
 10
136.3568662794
 20
101.7488635081
 10
136.4054173993
 20
101.138995749
  0
LWPOLYLINE
  5
C3
330
1F
100
AcDbEntity
  8
0
  6
HIDDEN
 62
     7
370
     0
100
AcDbPolyline
 90
       19
 70
   128
 43
0.0
 10
136.7618526936
 20
101.1670049081
 10
136.8941315613
 20
100.6109847061
 10
137.1053598106
 20
100.1220287465
 10
137.3700601974
 20
99.7591123342
 10
137.6563059484
 20
99.5660085445
 10
137.9295716014
 20
99.5660085445
 10
138.1568972859
 20
99.7591123342
 10
138.3108641692
 20
100.1220287465
 10
138.3729015729
 20
100.6109847061
 10
138.3355268705
 20
101.1670049081
 10
138.2032480029
 20
101.72302511
 10
137.9920197535
 20
102.2119810697
 10
137.7273193667
 20
102.574897482
 10
137.4410736158
 20
102.7680012716
 10
137.1678079627
 20
102.7680012716
 10
136.9404822783
 20
102.574897482
 10
136.786515395
 20
102.2119810697
 10
136.7244779913
 20
101.72302511
 10
136.7618526936
 20
101.1670049081
  0
SPLINE
  5
C4
330
1F
100
AcDbEntity
  8
0
  6
HIDDEN
 62
     7
370
     0
100
AcDbSpline
210
0.0
220
0.0
230
1.0
 70
     8
 71
     3
 72
    12
 73
     8
 74
     0
 42
0.000000001
 43
0.00000001
 40
0.0
 40
0.0
 40
0.0
 40
0.0
 40
0.500000000000001
 40
0.500000000000001
 40
0.7500000000000004
 40
0.7500000000000004
 40
1.0
 40
1.0
 40
1.0
 40
1.0
 10
148.7479280336612
 20
103.3481385182721
 30
0.0
 10
148.8210283941365
 20
103.1534035505109
 30
0.0
 10
148.8569321434688
 20
102.945825375482
 30
0.0
 10
148.856984261519
 20
102.6500637254105
 30
0.0
 10
148.8479474514287
 20
102.5523677328367
 30
0.0
 10
148.8118949783129
 20
102.368499824008
 30
0.0
 10
148.7849473372102
 20
102.281210117401
 30
0.0
 10
148.7479280336612
 20
102.1984110016811
 30
0.0
  0
SPLINE
  5
C5
330
1F
100
AcDbEntity
  8
0
  6
HIDDEN
 62
     7
370
     0
100
AcDbSpline
210
0.0
220
0.0
230
1.0
 70
     8
 71
     3
 72
    50
 73
    46
 74
     0
 42
0.000000001
 43
0.00000001
 40
0.0
 40
0.0
 40
0.0
 40
0.0
 40
0.0624999999999994
 40
0.0624999999999994
 40
0.1249999999999989
 40
0.1249999999999989
 40
0.1874999999999983
 40
0.1874999999999983
 40
0.2499999999999977
 40
0.2499999999999977
 40
0.2812499999999973
 40
0.2812499999999973
 40
0.3124999999999969
 40
0.3124999999999969
 40
0.3749999999999968
 40
0.3749999999999968
 40
0.4062499999999969
 40
0.4062499999999969
 40
0.437499999999997
 40
0.437499999999997
 40
0.4687499999999971
 40
0.4687499999999971
 40
0.4999999999999972
 40
0.4999999999999972
 40
0.5312499999999972
 40
0.5312499999999972
 40
0.5624999999999973
 40
0.5624999999999973
 40
0.5937499999999973
 40
0.5937499999999973
 40
0.6249999999999974
 40
0.6249999999999974
 40
0.6874999999999979
 40
0.6874999999999979
 40
0.718749999999998
 40
0.718749999999998
 40
0.7499999999999981
 40
0.7499999999999981
 40
0.8124999999999986
 40
0.8124999999999986
 40
0.874999999999999
 40
0.874999999999999
 40
0.9374999999999994
 40
0.9374999999999994
 40
1.0
 40
1.0
 40
1.0
 40
1.0
 10
148.7479280336612
 20
102.1984110016811
 30
0.0
 10
148.8031143290057
 20
102.0675861357427
 30
0.0
 10
148.8722709572867
 20
101.9816692088556
 30
0.0
 10
149.019809405593
 20
101.8583717017493
 30
0.0
 10
149.096094326816
 20
101.8243468515776
 30
0.0
 10
149.2408864539775
 20
101.7949944289781
 30
0.0
 10
149.3107414470569
 20
101.8000016194713
 30
0.0
 10
149.4193677207508
 20
101.8506241382705
 30
0.0
 10
149.4592709504528
 20
101.896427541192
 30
0.0
 10
149.4570159269501
 20
102.0101388917172
 30
0.0
 10
149.4451244996826
 20
102.0567156268097
 30
0.0
 10
149.3977902106344
 20
102.1646861143548
 30
0.0
 10
149.3622001838004
 20
102.2270372549573
 30
0.0
 10
149.2309964339342
 20
102.4377114568568
 30
0.0
 10
149.116756838079
 20
102.6048849686109
 30
0.0
 10
148.9634198282516
 20
102.8796239560394
 30
0.0
 10
148.9139854669033
 20
102.9769196949066
 30
0.0
 10
148.8262201320331
 20
103.1761395064944
 30
0.0
 10
148.7877400079362
 20
103.2779715388821
 30
0.0
 10
148.7239043500028
 20
103.4869150454096
 30
0.0
 10
148.6987506750138
 20
103.5941133914799
 30
0.0
 10
148.6654382828192
 20
103.8044533580127
 30
0.0
 10
148.6568296288652
 20
103.9088274355582
 30
0.0
 10
148.6568632619624
 20
104.1160098457468
 30
0.0
 10
148.6655628691713
 20
104.2157023641096
 30
0.0
 10
148.6990478054048
 20
104.405585106948
 30
0.0
 10
148.7242617537851
 20
104.4970408877272
 30
0.0
 10
148.7882617867753
 20
104.6648836234258
 30
0.0
 10
148.8268289389265
 20
104.7414210288413
 30
0.0
 10
148.9147785002841
 20
104.8796641514515
 30
0.0
 10
148.9642145010399
 20
104.9410192974045
 30
0.0
 10
149.1174952921511
 20
105.0941618828454
 30
0.0
 10
149.2318087960768
 20
105.158967834356
 30
0.0
 10
149.3622553625995
 20
105.179820196002
 30
0.0
 10
149.398280272392
 20
105.1738509408442
 30
0.0
 10
149.4454085654369
 20
105.1388978710094
 30
0.0
 10
149.4571452711957
 20
105.1094395006594
 30
0.0
 10
149.4590475000319
 20
104.998728560081
 30
0.0
 10
149.4189241065838
 20
104.8953886555379
 30
0.0
 10
149.3106518291423
 20
104.6649588405316
 30
0.0
 10
149.2412793532357
 20
104.5348463326178
 30
0.0
 10
149.0957737453231
 20
104.2481609072989
 30
0.0
 10
149.0198744976119
 20
104.0931314837515
 30
0.0
 10
148.8734477745679
 20
103.7472059916762
 30
0.0
 10
148.8029171928327
 20
103.557153033946
 30
0.0
 10
148.7479280336612
 20
103.3481385182721
 30
0.0
  0
ELLIPSE
  5
C6
330
1F
100
AcDbEntity
  8
0
  6
HIDDEN
 62
     7
370
     0
100
AcDbEllipse
 10
150.756846421
 20
110.1267078415
 30
0.0
 11
-1.720219293006892
 21
1.720219293006892
 31
0.0
210
0.0
220
0.0
230
1.0
 40
0.7002075382
 41
2.181661564992917
 42
5.323254218582723
  0
ELLIPSE
  5
C7
330
1F
100
AcDbEntity
  8
0
  6
HIDDEN
 62
     7
370
     0
100
AcDbEllipse
 10
150.756846421
 20
110.1267078415
 30
0.0
 11
1.720219293006892
 21
1.720219293006892
 31
0.0
210
0.0
220
0.0
230
1.0
 40
0.7002075382
 41
0.959931088596879
 42
4.101523742186686
  0
LWPOLYLINE
  5
C8
330
1F
100
AcDbEntity
  8
0
  6
HIDDEN
 62
     7
370
     0
100
AcDbPolyline
 90
       20
 70
   128
 43
0.0
 10
148.7479280337
 20
102.1984110017
 10
149.0179433213
 20
101.6669025167
 10
149.4428565058
 20
101.2339473861
 10
149.9848171981
 20
100.9381123588
 10
150.5955486592
 20
100.8057498081
 10
151.2206481917
 20
100.8486503166
 10
151.8044332204
 20
101.0629923956
 10
152.2949013806
 20
101.4296828954
 10
152.6483627815
 20
101.9160577835
 10
152.8333318115
 20
102.4787917896
 10
152.8333318115
 20
103.0677577304
 10
152.6483627815
 20
103.6304917364
 10
152.2949013806
 20
104.1168666246
 10
151.8044332204
 20
104.4835571244
 10
151.2206481917
 20
104.6978992034
 10
150.5955486592
 20
104.7407997118
 10
149.9848171981
 20
104.6084371611
 10
149.4428565058
 20
104.3126021339
 10
149.0179433213
 20
103.8796470033
 10
148.7479280337
 20
103.3481385183
  0
CIRCLE
  5
C9
330
1F
100
AcDbEntity
  8
0
  6
HIDDEN
 62
     7
370
     0
100
AcDbCircle
 10
221.106846421
 20
110.1267078415
 30
0.0
 40
2.25
  0
ELLIPSE
  5
CA
330
1F
100
AcDbEntity
  8
0
  6
HIDDEN
 62
     7
370
     0
100
AcDbEllipse
 10
136.4941047212
 20
86.0267078415
 30
0.0
 11
0.0
 21
1.599999999999994
 31
0.0
210
0.0
220
0.0
230
1.0
 40
0.4142135624
 41
4.712388980384695
 42
6.283185307179586
  0
LINE
  5
CB
330
1F
100
AcDbEntity
  8
0
  6
HIDDEN
 62
     7
370
     0
100
AcDbLine
 10
136.4941047212
 20
87.6267078415
 30
0.0
 11
136.156846421
 21
87.6267078415
 31
0.0
  0
LINE
  5
CC
330
1F
100
AcDbEntity
  8
0
  6
HIDDEN
 62
     7
370
     0
100
AcDbLine
 10
136.156846421
 20
132.6267078415
 30
0.0
 11
136.4941047212
 21
132.6267078415
 31
0.0
  0
ELLIPSE
  5
CD
330
1F
100
AcDbEntity
  8
0
  6
HIDDEN
 62
     7
370
     0
100
AcDbEllipse
 10
136.4941047212
 20
134.2267078415
 30
0.0
 11
0.0
 21
1.599999999999994
 31
0.0
210
0.0
220
0.0
230
1.0
 40
0.4142135624
 41
3.141592653589793
 42
4.712388980384695
  0
LINE
  5
CE
330
1F
100
AcDbEntity
  8
0
  6
HIDDEN
 62
     7
370
     0
100
AcDbLine
 10
137.156846421
 20
80.6726851187
 30
0.0
 11
136.5438792439
 21
80.0597179417
 31
0.0
  0
LINE
  5
CF
330
1F
100
AcDbEntity
  8
0
  6
HIDDEN
 62
     7
370
     0
100
AcDbLine
 10
136.5438792439
 20
140.1936977413
 30
0.0
 11
137.156846421
 21
139.5807305643
 31
0.0
  0
LINE
  5
D0
330
1F
100
AcDbEntity
  8
0
  6
HIDDEN
 62
     7
370
     0
100
AcDbLine
 10
75.756846421
 20
101.6267078415
 30
0.0
 11
75.756846421
 21
118.6267078415
 31
0.0
  0
LINE
  5
D1
330
1F
100
AcDbEntity
  8
0
  6
HIDDEN
 62
     7
370
     0
100
AcDbLine
 10
78.7527756353
 20
103.1267078415
 30
0.0
 11
78.7527756353
 21
117.1267078415
 31
0.0
  0
LINE
  5
D2
330
1F
100
AcDbEntity
  8
0
  6
HIDDEN
 62
     7
370
     0
100
AcDbLine
 10
137.156846421
 20
139.5807305643
 30
0.0
 11
146.2894079645
 21
139.5807305643
 31
0.0
  0
LINE
  5
D3
330
1F
100
AcDbEntity
  8
0
  6
HIDDEN
 62
     7
370
     0
100
AcDbLine
 10
137.156846421
 20
139.5807305643
 30
0.0
 11
137.156846421
 21
134.2267078415
 31
0.0
  0
LINE
  5
D4
330
1F
100
AcDbEntity
  8
0
  6
HIDDEN
 62
     7
370
     0
100
AcDbLine
 10
146.2894079645
 20
80.6726851187
 30
0.0
 11
137.156846421
 21
80.6726851187
 31
0.0
  0
LINE
  5
D5
330
1F
100
AcDbEntity
  8
0
  6
HIDDEN
 62
     7
370
     0
100
AcDbLine
 10
137.156846421
 20
80.6726851187
 30
0.0
 11
137.156846421
 21
86.0267078415
 31
0.0
  0
LINE
  5
D6
330
1F
100
AcDbEntity
  8
0
  6
HIDDEN
 62
     7
370
     0
100
AcDbLine
 10
136.4941047212
 20
132.6267078415
 30
0.0
 11
149.106846421
 21
132.6267078415
 31
0.0
  0
LINE
  5
D7
330
1F
100
AcDbEntity
  8
0
  6
HIDDEN
 62
     7
370
     0
100
AcDbLine
 10
149.106846421
 20
87.6267078415
 30
0.0
 11
136.4941047212
 21
87.6267078415
 31
0.0
  0
LINE
  5
D8
330
1F
100
AcDbEntity
  8
0
  6
HIDDEN
 62
     7
370
     0
100
AcDbLine
 10
155.556846421
 20
87.6267078415
 30
0.0
 11
149.106846421
 21
87.6267078415
 31
0.0
  0
LINE
  5
D9
330
1F
100
AcDbEntity
  8
0
  6
HIDDEN
 62
     7
370
     0
100
AcDbLine
 10
155.1330881872
 20
80.2216599481
 30
0.0
 11
155.2270309168
 21
80.1966762767
 31
0.0
  0
SPLINE
  5
DA
330
1F
100
AcDbEntity
  8
0
  6
HIDDEN
 62
     7
370
     0
100
AcDbSpline
210
0.0
220
0.0
230
1.0
 70
     8
 71
     3
 72
    13
 73
     9
 74
     0
 42
0.000000001
 43
0.00000001
 40
0.0
 40
0.0
 40
0.0
 40
0.0
 40
0.0000729225244412
 40
0.1576810837163452
 40
0.3241445774555209
 40
0.4996852408391247
 40
0.7294243771609252
 40
1.0
 40
1.0
 40
1.0
 40
1.0
 10
157.1568138458064
 20
79.62672028059177
 30
0.0
 10
157.1568247045477
 20
79.62671599073887
 30
0.0
 10
157.1803046664089
 20
79.61744000010727
 30
0.0
 10
157.1087194513586
 20
79.64560550216997
 30
0.0
 10
156.9531031129129
 20
79.69919443202883
 30
0.0
 10
156.6168498905967
 20
79.80771772083742
 30
0.0
 10
156.0595368246056
 20
79.97878378417512
 30
0.0
 10
155.4582790593338
 20
80.13654777320207
 30
0.0
 10
155.1331123690724
 20
80.22186824158909
 30
0.0
  0
LINE
  5
DB
330
1F
100
AcDbEntity
  8
0
  6
HIDDEN
 62
     7
370
     0
100
AcDbLine
 10
149.106846421
 20
132.6267078415
 30
0.0
 11
155.556846421
 21
132.6267078415
 31
0.0
  0
SPLINE
  5
DC
330
1F
100
AcDbEntity
  8
0
  6
HIDDEN
 62
     7
370
     0
100
AcDbSpline
210
0.0
220
0.0
230
1.0
 70
     8
 71
     3
 72
    33
 73
    29
 74
     0
 42
0.000000001
 43
0.00000001
 40
0.0
 40
0.0
 40
0.0
 40
0.0
 40
0.0239762613845764
 40
0.0473863621509931
 40
0.0702306060110498
 40
0.0925093201713509
 40
0.1142228577582503
 40
0.1353716005628283
 40
0.1559559621575778
 40
0.1759763914463686
 40
0.195433376721415
 40
0.2143274503158743
 40
0.2326591939591371
 40
0.2504292449647751
 40
0.380200003881057
 40
0.4998707672066848
 40
0.5332981986539205
 40
0.5681928386643808
 40
0.6045672022946817
 40
0.642432331270675
 40
0.6817980067524365
 40
0.7226729265437746
 40
0.7650648533222179
 40
0.8089807391664525
 40
0.8544268306233358
 40
0.9014087577334912
 40
0.9499316097796215
 40
1.0
 40
1.0
 40
1.0
 40
1.0
 10
155.133110051595
 20
140.0315686171896
 30
0.0
 10
155.1937721992588
 20
140.0470548081378
 30
0.0
 10
155.3136640561228
 20
140.0776615086922
 30
0.0
 10
155.4824789127491
 20
140.121823252351
 30
0.0
 10
155.6408043355754
 20
140.1639982567198
 30
0.0
 10
155.7883631588005
 20
140.2041063959056
 30
0.0
 10
155.9256672492355
 20
140.2421684243679
 30
0.0
 10
156.0530452141429
 20
140.27817904335
 30
0.0
 10
156.1708897819052
 20
140.3121397430527
 30
0.0
 10
156.2795905734867
 20
140.3440500488281
 30
0.0
 10
156.3795484727623
 20
140.3739108011833
 30
0.0
 10
156.4711681727618
 20
140.4017196523938
 30
0.0
 10
156.5548601597777
 20
140.4274852958489
 30
0.0
 10
156.7918490638236
 20
140.5012008208102
 30
0.0
 10
157.0712930007651
 20
140.5933905330429
 30
0.0
 10
157.1682866937156
 20
140.6314275380627
 30
0.0
 10
157.1503245183422
 20
140.6239131554083
 30
0.0
 10
157.1199619294653
 20
140.6113662156794
 30
0.0
 10
157.0662811686487
 20
140.5906278719771
 30
0.0
 10
156.9867492482615
 20
140.5615981797593
 30
0.0
 10
156.878832308431
 20
140.5243047418271
 30
0.0
 10
156.740034292705
 20
140.4787383372793
 30
0.0
 10
156.5679485549665
 20
140.4249023848884
 30
0.0
 10
156.3602323352038
 20
140.3627884147375
 30
0.0
 10
156.1149209008348
 20
140.2924242709819
 30
0.0
 10
155.8294253873466
 20
140.2136984643732
 30
0.0
 10
155.5047170406657
 20
140.1270451676008
 30
0.0
 10
155.2582522481773
 20
140.063849308886
 30
0.0
 10
155.1330880335656
 20
140.0317560433819
 30
0.0
  0
LINE
  5
DD
330
1F
100
AcDbEntity
  8
0
  6
HIDDEN
 62
     7
370
     0
100
AcDbLine
 10
111.756846421
 20
103.1267078415
 30
0.0
 11
111.756846421
 21
117.1267078415
 31
0.0
  0
LINE
  5
DE
330
1F
100
AcDbEntity
  8
0
  6
HIDDEN
 62
     7
370
     0
100
AcDbLine
 10
114.7010634542
 20
112.2267078415
 30
0.0
 11
114.7010634542
 21
108.0267078415
 31
0.0
  0
SPLINE
  5
DF
330
1F
100
AcDbEntity
  8
0
  6
HIDDEN
 62
     7
370
     0
100
AcDbSpline
210
0.0
220
0.0
230
1.0
 70
     8
 71
     3
 72
     9
 73
     5
 74
     0
 42
0.000000001
 43
0.00000001
 40
0.0
 40
0.0
 40
0.0
 40
0.0
 40
0.493237740338934
 40
1.0
 40
1.0
 40
1.0
 40
1.0
 10
155.13390595968
 20
140.0315393526508
 30
0.0
 10
155.2397543008412
 20
140.188561413427
 30
0.0
 10
155.4543533319058
 20
140.5069110609384
 30
0.0
 10
155.6722129748677
 20
140.8267366097145
 30
0.0
 10
155.782616019824
 20
140.9888121275096
 30
0.0
  0
SPLINE
  5
E0
330
1F
100
AcDbEntity
  8
0
  6
HIDDEN
 62
     7
370
     0
100
AcDbSpline
210
0.0
220
0.0
230
1.0
 70
     8
 71
     3
 72
     9
 73
     5
 74
     0
 42
0.000000001
 43
0.00000001
 40
0.0
 40
0.0
 40
0.0
 40
0.0
 40
0.5067649320089164
 40
1.0
 40
1.0
 40
1.0
 40
1.0
 10
155.78261970511
 20
79.26461769100135
 30
0.0
 10
155.6722152653382
 20
79.4266944265198
 30
0.0
 10
155.4543540188345
 20
79.74652069167975
 30
0.0
 10
155.2397540571289
 20
80.06486977320465
 30
0.0
 10
155.1339058304262
 20
80.22189070407548
 30
0.0
  0
LINE
  5
E1
330
1F
100
AcDbEntity
  8
0
  6
HIDDEN
 62
     7
370
     0
100
AcDbLine
 10
213.656846421
 20
104.9267078415
 30
0.0
 11
213.656846421
 21
115.3267077004
 31
0.0
  0
LINE
  5
E2
330
1F
100
AcDbEntity
  8
0
  6
HIDDEN
 62
     7
370
     0
100
AcDbLine
 10
217.0228718248
 20
104.6267078415
 30
0.0
 11
217.0228718248
 21
115.6267078415
 31
0.0
  0
ELLIPSE
  5
E3
330
1F
100
AcDbEntity
  8
0
  6
HIDDEN
 62
     7
370
     0
100
AcDbEllipse
 10
150.756846421
 20
110.1267078415
 30
0.0
 11
-1.720219293006892
 21
1.720219293006892
 31
0.0
210
0.0
220
0.0
230
1.0
 40
0.7002075382
 41
5.323254218582715
 42
8.464846872172494
  0
ELLIPSE
  5
E4
330
1F
100
AcDbEntity
  8
0
  6
HIDDEN
 62
     7
370
     0
100
AcDbEllipse
 10
150.756846421
 20
110.1267078415
 30
0.0
 11
1.720219293006892
 21
1.720219293006892
 31
0.0
210
0.0
220
0.0
230
1.0
 40
0.7002075382
 41
4.101523742186688
 42
7.243116395776468
  0
SPLINE
  5
E5
330
1F
100
AcDbEntity
  8
0
  6
HIDDEN
 62
     7
370
     0
100
AcDbSpline
210
0.0
220
0.0
230
1.0
 70
    11
 71
     3
 72
    56
 73
    52
 74
     0
 42
0.000000001
 43
0.00000001
 40
0.0
 40
0.0
 40
0.0
 40
0.0
 40
0.0312500000000002
 40
0.0312500000000002
 40
0.0625000000000004
 40
0.0625000000000004
 40
0.1250000000000001
 40
0.1250000000000001
 40
0.1562500000000003
 40
0.1562500000000003
 40
0.1875000000000006
 40
0.1875000000000006
 40
0.2187500000000009
 40
0.2187500000000009
 40
0.2500000000000011
 40
0.2500000000000011
 40
0.3125000000000015
 40
0.3125000000000015
 40
0.3437500000000018
 40
0.3437500000000018
 40
0.3750000000000021
 40
0.3750000000000021
 40
0.4375000000000023
 40
0.4375000000000023
 40
0.4687500000000025
 40
0.4687500000000025
 40
0.5000000000000026
 40
0.5000000000000026
 40
0.5312500000000027
 40
0.5312500000000027
 40
0.5625000000000026
 40
0.5625000000000026
 40
0.6250000000000024
 40
0.6250000000000024
 40
0.6875000000000024
 40
0.6875000000000024
 40
0.7500000000000023
 40
0.7500000000000023
 40
0.7812500000000021
 40
0.7812500000000021
 40
0.8125000000000018
 40
0.8125000000000018
 40
0.8437500000000016
 40
0.8437500000000016
 40
0.8750000000000012
 40
0.8750000000000012
 40
0.906250000000001
 40
0.906250000000001
 40
0.9375000000000008
 40
0.9375000000000008
 40
1.0
 40
1.0
 40
1.0
 40
1.0
 10
148.7162704201453
 20
115.7935879304548
 30
0.0
 10
148.7449419367423
 20
115.6917738655819
 30
0.0
 10
148.7827118563261
 20
115.5993709479322
 30
0.0
 10
148.8730099930958
 20
115.4325928632366
 30
0.0
 10
148.926285689269
 20
115.3577231741136
 30
0.0
 10
149.0952167660433
 20
115.1716025095987
 30
0.0
 10
149.2264034820276
 20
115.0935860120153
 30
0.0
 10
149.371689002031
 20
115.0730114614606
 30
0.0
 10
149.4098299348327
 20
115.0825596813932
 30
0.0
 10
149.4546064679968
 20
115.1299159105733
 30
0.0
 10
149.4615012060368
 20
115.1680166728335
 30
0.0
 10
149.4502526604229
 20
115.2601371507976
 30
0.0
 10
149.4325918152182
 20
115.3151925929369
 30
0.0
 10
149.3838678094562
 20
115.4347993511163
 30
0.0
 10
149.3529288110648
 20
115.499477220219
 30
0.0
 10
149.2492732757461
 20
115.7068386026425
 30
0.0
 10
149.165467939084
 20
115.8636263578654
 30
0.0
 10
149.0400176746317
 20
116.1227716205182
 30
0.0
 10
148.9979244945841
 20
116.213523995068
 30
0.0
 10
148.9151835032712
 20
116.4065252171062
 30
0.0
 10
148.8743532698635
 20
116.5093061796346
 30
0.0
 10
148.7615035137034
 20
116.8315472928145
 30
0.0
 10
148.6968133303395
 20
117.0704938315256
 30
0.0
 10
148.6563436526016
 20
117.4392609365029
 30
0.0
 10
148.6533018564116
 20
117.5590203471479
 30
0.0
 10
148.669105012989
 20
117.778118608357
 30
0.0
 10
148.6878481105338
 20
117.8764476166808
 30
0.0
 10
148.7391220139273
 20
118.0433226638874
 30
0.0
 10
148.7716465599596
 20
118.1131973099836
 30
0.0
 10
148.8437997084015
 20
118.2298063702761
 30
0.0
 10
148.8829048851543
 20
118.2760270100492
 30
0.0
 10
149.0049026236007
 20
118.3888458275373
 30
0.0
 10
149.0924344363305
 20
118.429299116897
 30
0.0
 10
149.254550989283
 20
118.4601572363194
 30
0.0
 10
149.3321086465716
 20
118.4512540507509
 30
0.0
 10
149.4432534696755
 20
118.3801780023128
 30
0.0
 10
149.4759864560175
 20
118.3179390836026
 30
0.0
 10
149.4323580736974
 20
118.1600378003297
 30
0.0
 10
149.4020428127014
 20
118.0967823974594
 30
0.0
 10
149.3171858290643
 20
117.9514683315997
 30
0.0
 10
149.2623367548013
 20
117.8680964158405
 30
0.0
 10
149.1474980693889
 20
117.6895032583499
 30
0.0
 10
149.0860786402094
 20
117.5917565099325
 30
0.0
 10
148.9698706533224
 20
117.386778210833
 30
0.0
 10
148.9143565883539
 20
117.2784962755195
 30
0.0
 10
148.8161526130085
 20
117.0531463713911
 30
0.0
 10
148.7742621947624
 20
116.93824041593
 30
0.0
 10
148.7077555144577
 20
116.7029730128969
 30
0.0
 10
148.6833120195304
 20
116.5819756784012
 30
0.0
 10
148.6428220937349
 20
116.2287742462248
 30
0.0
 10
148.6589273869513
 20
115.9972160602005
 30
0.0
 10
148.7162704201453
 20
115.7935879304548
 30
0.0
  0
SPLINE
  5
E6
330
1F
100
AcDbEntity
  8
0
  6
HIDDEN
 62
     7
370
     0
100
AcDbSpline
210
0.0
220
0.0
230
1.0
 70
     8
 71
     3
 72
    22
 73
    18
 74
     0
 42
0.000000001
 43
0.00000001
 40
0.0
 40
0.0
 40
0.0
 40
0.0
 40
0.1250000000000006
 40
0.1250000000000006
 40
0.2500000000000012
 40
0.2500000000000012
 40
0.3750000000000018
 40
0.3750000000000018
 40
0.5000000000000023
 40
0.5000000000000023
 40
0.6250000000000029
 40
0.6250000000000029
 40
0.7500000000000036
 40
0.7500000000000036
 40
0.8750000000000018
 40
0.8750000000000018
 40
1.0
 40
1.0
 40
1.0
 40
1.0
 10
152.4332148596827
 20
117.9913628171337
 30
0.0
 10
152.3349366361272
 20
117.8668340972015
 30
0.0
 10
152.2236138688201
 20
117.7552309577692
 30
0.0
 10
151.9758052604553
 20
117.5572471145808
 30
0.0
 10
151.8378537349052
 20
117.4705925923921
 30
0.0
 10
151.5495927733212
 20
117.3320690171691
 30
0.0
 10
151.3971492544089
 20
117.2786252658926
 30
0.0
 10
151.0802375161333
 20
117.2064451157474
 30
0.0
 10
150.9202490120248
 20
117.188527076354
 30
0.0
 10
150.5972789054029
 20
117.1882419348564
 30
0.0
 10
150.4337164217501
 20
117.2065402447248
 30
0.0
 10
150.1202181906102
 20
117.2776356669156
 30
0.0
 10
149.9667162243813
 20
117.3309462191796
 30
0.0
 10
149.6761135265071
 20
117.4703276572041
 30
0.0
 10
149.5412932830934
 20
117.5548815543119
 30
0.0
 10
149.292345206464
 20
117.753073002218
 30
0.0
 10
149.1787559732949
 20
117.8668343918575
 30
0.0
 10
149.0804779822823
 20
117.9913628171337
 30
0.0
  0
SPLINE
  5
E7
330
1F
100
AcDbEntity
  8
0
  6
HIDDEN
 62
     7
370
     0
100
AcDbSpline
210
0.0
220
0.0
230
1.0
 70
     8
 71
     3
 72
    18
 73
    14
 74
     0
 42
0.000000001
 43
0.00000001
 40
0.0
 40
0.0
 40
0.0
 40
0.0
 40
0.2499999999999999
 40
0.2499999999999999
 40
0.3749999999999997
 40
0.3749999999999997
 40
0.4999999999999996
 40
0.4999999999999996
 40
0.6249999999999994
 40
0.6249999999999994
 40
0.7499999999999992
 40
0.7499999999999992
 40
1.0
 40
1.0
 40
1.0
 40
1.0
 10
152.4332148596827
 20
120.3684611417125
 30
0.0
 10
152.5717852084131
 20
120.1988811474768
 30
0.0
 10
152.6762706279636
 20
120.0252699393349
 30
0.0
 10
152.7838268611016
 20
119.7422386769314
 30
0.0
 10
152.8108368350736
 20
119.6455656418386
 30
0.0
 10
152.8473777971862
 20
119.4444972146671
 30
0.0
 10
152.8568536176984
 20
119.3387533175805
 30
0.0
 10
152.8568392158876
 20
119.1245038253012
 30
0.0
 10
152.8476171028657
 20
119.016475826891
 30
0.0
 10
152.8113723568343
 20
118.7994829373595
 30
0.0
 10
152.7839980655555
 20
118.6896333196245
 30
0.0
 10
152.6767379436575
 20
118.3700495297086
 30
0.0
 10
152.5715474215182
 20
118.1666445451409
 30
0.0
 10
152.4332148596829
 20
117.9913628171335
 30
0.0
  0
SPLINE
  5
E8
330
1F
100
AcDbEntity
  8
0
  6
HIDDEN
 62
     7
370
     0
100
AcDbSpline
210
0.0
220
0.0
230
1.0
 70
     8
 71
     3
 72
    22
 73
    18
 74
     0
 42
0.000000001
 43
0.00000001
 40
0.0
 40
0.0
 40
0.0
 40
0.0
 40
0.1249999999999982
 40
0.1249999999999982
 40
0.2499999999999963
 40
0.2499999999999963
 40
0.3749999999999969
 40
0.3749999999999969
 40
0.4999999999999976
 40
0.4999999999999976
 40
0.6249999999999981
 40
0.6249999999999981
 40
0.7499999999999988
 40
0.7499999999999988
 40
0.8749999999999993
 40
0.8749999999999993
 40
1.0
 40
1.0
 40
1.0
 40
1.0
 10
149.0804779822823
 20
120.3684611417125
 30
0.0
 10
149.1787562058378
 20
120.4887323305833
 30
0.0
 10
149.290078973145
 20
120.5958805389793
 30
0.0
 10
149.5378875815097
 20
120.7852585773998
 30
0.0
 10
149.6758391070599
 20
120.8677387309573
 30
0.0
 10
149.9641000686439
 20
120.9992735622688
 30
0.0
 10
150.1165435875561
 20
121.0498335680539
 30
0.0
 10
150.4334553258318
 20
121.1180602434537
 30
0.0
 10
150.5934438299402
 20
121.1349573150794
 30
0.0
 10
150.9164139365621
 20
121.1352264200619
 30
0.0
 10
151.079976420215
 20
121.1179698907612
 30
0.0
 10
151.3934746513548
 20
121.0507693931151
 30
0.0
 10
151.5469766175837
 20
121.000338387483
 30
0.0
 10
151.837579315458
 20
120.8679916123479
 30
0.0
 10
151.9723995588717
 20
120.7875150750132
 30
0.0
 10
152.221347635501
 20
120.5979507918065
 30
0.0
 10
152.3349368686701
 20
120.4887320460013
 30
0.0
 10
152.4332148596827
 20
120.3684611417125
 30
0.0
  0
SPLINE
  5
E9
330
1F
100
AcDbEntity
  8
0
  6
HIDDEN
 62
     7
370
     0
100
AcDbSpline
210
0.0
220
0.0
230
1.0
 70
     8
 71
     3
 72
    18
 73
    14
 74
     0
 42
0.000000001
 43
0.00000001
 40
0.0
 40
0.0
 40
0.0
 40
0.0
 40
0.2499999999999989
 40
0.2499999999999989
 40
0.3749999999999989
 40
0.3749999999999989
 40
0.499999999999999
 40
0.499999999999999
 40
0.624999999999999
 40
0.624999999999999
 40
0.749999999999999
 40
0.749999999999999
 40
1.0
 40
1.0
 40
1.0
 40
1.0
 10
149.0804779822823
 20
117.9913628171337
 30
0.0
 10
148.9419076335519
 20
118.1669458458423
 30
0.0
 10
148.8374222140014
 20
118.3689388614732
 30
0.0
 10
148.7298659808635
 20
118.6889831522711
 30
0.0
 10
148.7028560068914
 20
118.7970424281162
 30
0.0
 10
148.6663150447789
 20
119.0142936572329
 30
0.0
 10
148.6568392242667
 20
119.1247565904209
 30
0.0
 10
148.6568536260775
 20
119.3389991558637
 30
0.0
 10
148.6660757390993
 20
119.4424304426551
 30
0.0
 10
148.7023204851308
 20
119.6433530799383
 30
0.0
 10
148.7296947764095
 20
119.7416583227975
 30
0.0
 10
148.8369548983075
 20
120.0242984158665
 30
0.0
 10
148.9421454204468
 20
120.1991721469631
 30
0.0
 10
149.0804779822821
 20
120.3684611417126
 30
0.0
  0
LWPOLYLINE
  5
EA
330
1F
100
AcDbEntity
  8
0
  6
HIDDEN
 62
     7
370
     0
100
AcDbPolyline
 90
       19
 70
   128
 43
0.0
 10
136.7618526936
 20
118.1541720694
 10
136.8941315613
 20
117.7548748819
 10
137.1053598106
 20
117.5161805744
 10
137.3700601974
 20
117.4668792032
 10
137.6563059484
 20
117.6129172414
 10
137.9295716014
 20
117.9366803461
 10
138.1568972859
 20
118.3991179087
 10
138.3108641692
 20
118.9444531344
 10
138.3729015729
 20
119.5069105465
 10
138.3355268705
 20
120.0186494803
 10
138.2032480029
 20
120.4179466679
 10
137.9920197535
 20
120.6566409753
 10
137.7273193667
 20
120.7059423465
 10
137.4410736158
 20
120.5599043084
 10
137.1678079627
 20
120.2361412037
 10
136.9404822783
 20
119.773703641
 10
136.786515395
 20
119.2283684154
 10
136.7244779913
 20
118.6659110032
 10
136.7618526936
 20
118.1541720694
  0
LWPOLYLINE
  5
EB
330
1F
100
AcDbEntity
  8
0
  6
HIDDEN
 62
     7
370
     0
100
AcDbPolyline
 90
       22
 70
   128
 43
0.0
 10
136.4054173993
 20
117.9279343089
 10
136.5429498825
 20
117.4810140085
 10
136.7572433643
 20
117.1792289927
 10
137.0292569284
 20
117.0493941845
 10
137.3348209759
 20
117.1030459764
 10
137.6467848003
 20
117.3354171711
 10
137.9374290468
 20
117.7258605684
 10
138.1809286985
 20
118.2396835589
 10
138.3556477429
 20
118.831230715
 10
138.4460616261
 20
119.447940476
 10
138.4441366778
 20
120.0350154732
 10
138.3500439381
 20
120.5402915168
 10
138.1721439598
 20
120.9188726129
 10
137.9262439368
 20
121.1371201698
 10
137.6341931651
 20
121.1756419342
 10
137.3219416375
 20
121.0310150785
 10
137.0172342726
 20
120.7160903332
 10
136.7471456568
 20
120.2588501442
 10
136.535674349
 20
119.6999223088
 10
136.4016105028
 20
119.088970018
 10
136.3568662794
 20
118.4802790638
 10
136.4054173993
 20
117.9279343089
  0
LWPOLYLINE
  5
EC
330
1F
100
AcDbEntity
  8
0
  6
HIDDEN
 62
     7
370
     0
100
AcDbPolyline
 90
       21
 70
   128
 43
0.0
 10
138.8847610488
 20
116.7926137261
 10
138.635142829
 20
116.9992315022
 10
138.4560287498
 20
117.3752344305
 10
138.3649517453
 20
117.8838167245
 10
138.3708270672
 20
118.4751948058
 10
138.473079598
 20
119.0914804674
 10
138.6617001477
 20
119.672347375
 10
138.9182252226
 20
120.1609362283
 10
139.217544361
 20
120.5094205463
 10
139.5303581203
 20
120.6836882559
 10
139.8260461102
 20
120.6666808194
 10
140.07566433
 20
120.4600630433
 10
140.2547784092
 20
120.084060115
 10
140.3458554137
 20
119.575477821
 10
140.3399800918
 20
118.9840997397
 10
140.237727561
 20
118.3678140781
 10
140.0491070113
 20
117.7869471706
 10
139.7925819364
 20
117.2983583172
 10
139.493262798
 20
116.9498739992
 10
139.1804490387
 20
116.7756062897
 10
138.8847610488
 20
116.7926137261
  0
LWPOLYLINE
  5
ED
330
1F
100
AcDbEntity
  8
0
  6
HIDDEN
 62
     7
370
     0
100
AcDbPolyline
 90
       17
 70
   128
 43
0.0
 10
139.7107710507
 20
117.3907437524
 10
139.5221302755
 20
117.5694409199
 10
139.4069902602
 20
117.9052429374
 10
139.3828800282
 20
118.3470269918
 10
139.4534701439
 20
118.8275354657
 10
139.608013902
 20
119.2736152996
 10
139.8229834164
 20
119.6173548827
 10
140.0656515271
 20
119.8064229793
 10
140.299074214
 20
119.8120356857
 10
140.4877149892
 20
119.6333385182
 10
140.6028550045
 20
119.2975365006
 10
140.6269652365
 20
118.8557524462
 10
140.5563751208
 20
118.3752439723
 10
140.4018313626
 20
117.9291641384
 10
140.1868618483
 20
117.5854245554
 10
139.9441937376
 20
117.3963564588
 10
139.7107710507
 20
117.3907437524
  0
LWPOLYLINE
  5
EE
330
1F
100
AcDbEntity
  8
0
  6
HIDDEN
 62
     7
370
     0
100
AcDbPolyline
 90
       21
 70
   128
 43
0.0
 10
137.1312038903
 20
117.1388806301
 10
136.8815856705
 20
117.3454984062
 10
136.7024715913
 20
117.7215013345
 10
136.6113945868
 20
118.2300836285
 10
136.6172699086
 20
118.8214617098
 10
136.7195224395
 20
119.4377473714
 10
136.9081429892
 20
120.018614279
 10
137.1646680641
 20
120.5072031323
 10
137.4639872025
 20
120.8556874503
 10
137.7768009618
 20
121.0299551598
 10
138.0724889517
 20
121.0129477234
 10
138.3221071715
 20
120.8063299473
 10
138.5012212506
 20
120.430327019
 10
138.5922982552
 20
119.921744725
 10
138.5864229333
 20
119.3303666437
 10
138.4841704025
 20
118.7140809821
 10
138.2955498528
 20
118.1332140745
 10
138.0390247779
 20
117.6446252212
 10
137.7397056394
 20
117.2961409032
 10
137.4268918801
 20
117.1218731937
 10
137.1312038903
 20
117.1388806301
  0
LWPOLYLINE
  5
EF
330
1F
100
AcDbEntity
  8
0
  6
HIDDEN
 62
     7
370
     0
100
AcDbPolyline
 90
       19
 70
   128
 43
0.0
 10
137.0279791838
 20
117.555107929
 10
136.8079007514
 20
117.7487681135
 10
136.6600640062
 20
118.1071460624
 10
136.6023002416
 20
118.587016106
 10
136.6415766201
 20
119.1304988349
 10
136.7731558307
 20
119.6720422111
 10
136.9811674788
 20
120.146328111
 10
137.2405222897
 20
120.4961506555
 10
137.5199382455
 20
120.6793160827
 10
137.7857136582
 20
120.673731939
 10
138.0057920906
 20
120.4800717545
 10
138.1536288358
 20
120.1216938056
 10
138.2113926004
 20
119.641823762
 10
138.1721162219
 20
119.0983410331
 10
138.0405370113
 20
118.5567976569
 10
137.8325253632
 20
118.082511757
 10
137.5731705523
 20
117.7326892125
 10
137.2937545965
 20
117.5495237853
 10
137.0279791838
 20
117.555107929
  0
LINE
  5
F0
330
1F
100
AcDbEntity
  8
0
  6
HIDDEN
 62
     7
370
     0
100
AcDbLine
 10
138.12885974
 20
118.4796480041
 30
0.0
 11
138.4341589349
 21
117.7395579869
 31
0.0
  0
LINE
  5
F1
330
1F
100
AcDbEntity
  8
0
  6
HIDDEN
 62
     7
370
     0
100
AcDbLine
 10
138.12885974
 20
118.4796480041
 30
0.0
 11
136.8298216343
 21
118.7361631116
 31
0.0
  0
LINE
  5
F2
330
1F
100
AcDbEntity
  8
0
  6
HIDDEN
 62
     7
370
     0
100
AcDbLine
 10
138.12885974
 20
118.4796480041
 30
0.0
 11
138.4005853318
 21
119.5979948436
 31
0.0
  0
LINE
  5
F3
330
1F
100
AcDbEntity
  8
0
  6
HIDDEN
 62
     7
370
     0
100
AcDbLine
 10
136.8298216343
 20
118.7361631116
 30
0.0
 11
137.1015472261
 21
119.8545099511
 31
0.0
  0
LINE
  5
F4
330
1F
100
AcDbEntity
  8
0
  6
HIDDEN
 62
     7
370
     0
100
AcDbLine
 10
136.8298216343
 20
118.7361631116
 30
0.0
 11
137.1351208292
 21
117.9960730944
 31
0.0
  0
LINE
  5
F5
330
1F
100
AcDbEntity
  8
0
  6
HIDDEN
 62
     7
370
     0
100
AcDbLine
 10
137.1015472261
 20
119.8545099511
 30
0.0
 11
137.6785720128
 21
120.2327667736
 31
0.0
  0
LINE
  5
F6
330
1F
100
AcDbEntity
  8
0
  6
HIDDEN
 62
     7
370
     0
100
AcDbLine
 10
138.4005853318
 20
119.5979948436
 30
0.0
 11
137.1015472261
 21
119.8545099511
 31
0.0
  0
LINE
  5
F7
330
1F
100
AcDbEntity
  8
0
  6
HIDDEN
 62
     7
370
     0
100
AcDbLine
 10
138.4005853318
 20
119.5979948436
 30
0.0
 11
138.9776101184
 21
119.9762516661
 31
0.0
  0
LINE
  5
F8
330
1F
100
AcDbEntity
  8
0
  6
HIDDEN
 62
     7
370
     0
100
AcDbLine
 10
139.0111837215
 20
118.1178148094
 30
0.0
 11
137.7121456158
 21
118.3743299169
 31
0.0
  0
LINE
  5
F9
330
1F
100
AcDbEntity
  8
0
  6
HIDDEN
 62
     7
370
     0
100
AcDbLine
 10
137.7121456158
 20
118.3743299169
 30
0.0
 11
137.1351208292
 21
117.9960730944
 31
0.0
  0
LINE
  5
FA
330
1F
100
AcDbEntity
  8
0
  6
HIDDEN
 62
     7
370
     0
100
AcDbLine
 10
138.4341589349
 20
117.7395579869
 30
0.0
 11
137.1351208292
 21
117.9960730944
 31
0.0
  0
LINE
  5
FB
330
1F
100
AcDbEntity
  8
0
  6
HIDDEN
 62
     7
370
     0
100
AcDbLine
 10
139.0111837215
 20
118.1178148094
 30
0.0
 11
138.4341589349
 21
117.7395579869
 31
0.0
  0
LINE
  5
FC
330
1F
100
AcDbEntity
  8
0
  6
HIDDEN
 62
     7
370
     0
100
AcDbLine
 10
139.2829093133
 20
119.236161649
 30
0.0
 11
137.9838712076
 21
119.4926767564
 31
0.0
  0
LINE
  5
FD
330
1F
100
AcDbEntity
  8
0
  6
HIDDEN
 62
     7
370
     0
100
AcDbLine
 10
138.9776101184
 20
119.9762516661
 30
0.0
 11
137.6785720128
 21
120.2327667736
 31
0.0
  0
LINE
  5
FE
330
1F
100
AcDbEntity
  8
0
  6
HIDDEN
 62
     7
370
     0
100
AcDbLine
 10
137.9838712076
 20
119.4926767564
 30
0.0
 11
137.6785720128
 21
120.2327667736
 31
0.0
  0
LINE
  5
FF
330
1F
100
AcDbEntity
  8
0
  6
HIDDEN
 62
     7
370
     0
100
AcDbLine
 10
139.2829093133
 20
119.236161649
 30
0.0
 11
138.9776101184
 21
119.9762516661
 31
0.0
  0
LINE
  5
100
330
1F
100
AcDbEntity
  8
0
  6
HIDDEN
 62
     7
370
     0
100
AcDbLine
 10
137.7121456158
 20
118.3743299169
 30
0.0
 11
137.9838712076
 21
119.4926767564
 31
0.0
  0
LINE
  5
101
330
1F
100
AcDbEntity
  8
0
  6
HIDDEN
 62
     7
370
     0
100
AcDbLine
 10
139.0111837215
 20
118.1178148094
 30
0.0
 11
139.2829093133
 21
119.236161649
 31
0.0
  0
LWPOLYLINE
  5
102
330
1F
100
AcDbEntity
  8
0
  6
HIDDEN
 62
     7
370
     0
100
AcDbPolyline
 90
       19
 70
   128
 43
0.0
 10
137.0279791838
 20
102.698307754
 10
136.8079007514
 20
102.5046475695
 10
136.6600640062
 20
102.1462696206
 10
136.6023002416
 20
101.666399577
 10
136.6415766201
 20
101.122916848
 10
136.7731558307
 20
100.5813734718
 10
136.9811674788
 20
100.1070875719
 10
137.2405222897
 20
99.7572650275
 10
137.5199382455
 20
99.5740996002
 10
137.7857136582
 20
99.5796837439
 10
138.0057920906
 20
99.7733439284
 10
138.1536288358
 20
100.1317218773
 10
138.2113926004
 20
100.611591921
 10
138.1721162219
 20
101.1550746499
 10
138.0405370113
 20
101.6966180261
 10
137.8325253632
 20
102.170903926
 10
137.5731705523
 20
102.5207264704
 10
137.2937545965
 20
102.7038918977
 10
137.0279791838
 20
102.698307754
  0
LWPOLYLINE
  5
103
330
1F
100
AcDbEntity
  8
0
  6
HIDDEN
 62
     7
370
     0
100
AcDbPolyline
 90
       21
 70
   128
 43
0.0
 10
137.1312038903
 20
103.1145350528
 10
136.8815856705
 20
102.9079172767
 10
136.7024715913
 20
102.5319143485
 10
136.6113945868
 20
102.0233320545
 10
136.6172699087
 20
101.4319539732
 10
136.7195224395
 20
100.8156683115
 10
136.9081429892
 20
100.234801404
 10
137.1646680641
 20
99.7462125507
 10
137.4639872025
 20
99.3977282327
 10
137.7768009618
 20
99.2234605231
 10
138.0724889517
 20
99.2404679596
 10
138.3221071715
 20
99.4470857357
 10
138.5012212507
 20
99.8230886639
 10
138.5922982552
 20
100.3316709579
 10
138.5864229333
 20
100.9230490392
 10
138.4841704025
 20
101.5393347009
 10
138.2955498528
 20
102.1202016084
 10
138.0390247779
 20
102.6087904617
 10
137.7397056394
 20
102.9572747797
 10
137.4268918801
 20
103.1315424893
 10
137.1312038903
 20
103.1145350528
  0
LWPOLYLINE
  5
104
330
1F
100
AcDbEntity
  8
0
  6
HIDDEN
 62
     7
370
     0
100
AcDbPolyline
 90
       21
 70
   128
 43
0.0
 10
138.8847610488
 20
103.4608019568
 10
138.635142829
 20
103.2541841807
 10
138.4560287498
 20
102.8781812525
 10
138.3649517453
 20
102.3695989585
 10
138.3708270672
 20
101.7782208772
 10
138.473079598
 20
101.1619352155
 10
138.6617001477
 20
100.581068308
 10
138.9182252226
 20
100.0924794547
 10
139.217544361
 20
99.7439951367
 10
139.5303581203
 20
99.5697274271
 10
139.8260461102
 20
99.5867348636
 10
140.07566433
 20
99.7933526397
 10
140.2547784092
 20
100.1693555679
 10
140.3458554137
 20
100.6779378619
 10
140.3399800918
 20
101.2693159432
 10
140.237727561
 20
101.8856016049
 10
140.0491070113
 20
102.4664685124
 10
139.7925819364
 20
102.9550573657
 10
139.493262798
 20
103.3035416837
 10
139.1804490387
 20
103.4778093933
 10
138.8847610488
 20
103.4608019568
  0
LINE
  5
105
330
1F
100
AcDbEntity
  8
0
  6
HIDDEN
 62
     7
370
     0
100
AcDbLine
 10
137.1015472261
 20
100.3989057318
 30
0.0
 11
137.6785720128
 21
100.0206489094
 31
0.0
  0
LINE
  5
106
330
1F
100
AcDbEntity
  8
0
  6
HIDDEN
 62
     7
370
     0
100
AcDbLine
 10
137.9838712076
 20
100.7607389265
 30
0.0
 11
137.6785720128
 21
100.0206489094
 31
0.0
  0
LINE
  5
107
330
1F
100
AcDbEntity
  8
0
  6
HIDDEN
 62
     7
370
     0
100
AcDbLine
 10
137.7121456158
 20
101.8790857661
 30
0.0
 11
137.9838712076
 21
100.7607389265
 31
0.0
  0
LINE
  5
108
330
1F
100
AcDbEntity
  8
0
  6
HIDDEN
 62
     7
370
     0
100
AcDbLine
 10
137.7121456158
 20
101.8790857661
 30
0.0
 11
137.1351208292
 21
102.2573425885
 31
0.0
  0
LINE
  5
109
330
1F
100
AcDbEntity
  8
0
  6
HIDDEN
 62
     7
370
     0
100
AcDbLine
 10
136.8298216344
 20
101.5172525714
 30
0.0
 11
137.1351208292
 21
102.2573425885
 31
0.0
  0
LINE
  5
10A
330
1F
100
AcDbEntity
  8
0
  6
HIDDEN
 62
     7
370
     0
100
AcDbLine
 10
136.8298216344
 20
101.5172525714
 30
0.0
 11
137.1015472261
 21
100.3989057318
 31
0.0
  0
LINE
  5
10B
330
1F
100
AcDbEntity
  8
0
  6
HIDDEN
 62
     7
370
     0
100
AcDbLine
 10
139.2829093133
 20
101.017254034
 30
0.0
 11
137.9838712076
 21
100.7607389265
 31
0.0
  0
LWPOLYLINE
  5
10C
330
1F
100
AcDbEntity
  8
0
  6
HIDDEN
 62
     7
370
     0
100
AcDbPolyline
 90
       17
 70
   128
 43
0.0
 10
139.7107710507
 20
102.8626719306
 10
139.5221302755
 20
102.6839747631
 10
139.4069902602
 20
102.3481727456
 10
139.3828800282
 20
101.9063886911
 10
139.4534701439
 20
101.4258802173
 10
139.608013902
 20
100.9798003833
 10
139.8229834164
 20
100.6360608003
 10
140.0656515271
 20
100.4469927037
 10
140.299074214
 20
100.4413799973
 10
140.4877149892
 20
100.6200771648
 10
140.6028550045
 20
100.9558791823
 10
140.6269652365
 20
101.3976632368
 10
140.5563751208
 20
101.8781717106
 10
140.4018313626
 20
102.3242515446
 10
140.1868618483
 20
102.6679911276
 10
139.9441937376
 20
102.8570592242
 10
139.7107710507
 20
102.8626719306
  0
LINE
  5
10D
330
1F
100
AcDbEntity
  8
0
  6
HIDDEN
 62
     7
370
     0
100
AcDbLine
 10
139.0111837215
 20
102.1356008736
 30
0.0
 11
137.7121456158
 21
101.8790857661
 31
0.0
  0
LINE
  5
10E
330
1F
100
AcDbEntity
  8
0
  6
HIDDEN
 62
     7
370
     0
100
AcDbLine
 10
138.4005853318
 20
100.6554208393
 30
0.0
 11
138.9776101185
 21
100.2771640169
 31
0.0
  0
LINE
  5
10F
330
1F
100
AcDbEntity
  8
0
  6
HIDDEN
 62
     7
370
     0
100
AcDbLine
 10
138.12885974
 20
101.7737676789
 30
0.0
 11
138.4005853318
 21
100.6554208393
 31
0.0
  0
LINE
  5
110
330
1F
100
AcDbEntity
  8
0
  6
HIDDEN
 62
     7
370
     0
100
AcDbLine
 10
138.12885974
 20
101.7737676789
 30
0.0
 11
138.4341589349
 21
102.513857696
 31
0.0
  0
LINE
  5
111
330
1F
100
AcDbEntity
  8
0
  6
HIDDEN
 62
     7
370
     0
100
AcDbLine
 10
139.0111837215
 20
102.1356008736
 30
0.0
 11
138.4341589349
 21
102.513857696
 31
0.0
  0
LINE
  5
112
330
1F
100
AcDbEntity
  8
0
  6
HIDDEN
 62
     7
370
     0
100
AcDbLine
 10
139.0111837215
 20
102.1356008736
 30
0.0
 11
139.2829093133
 21
101.017254034
 31
0.0
  0
LINE
  5
113
330
1F
100
AcDbEntity
  8
0
  6
HIDDEN
 62
     7
370
     0
100
AcDbLine
 10
139.2829093133
 20
101.017254034
 30
0.0
 11
138.9776101185
 21
100.2771640169
 31
0.0
  0
LINE
  5
114
330
1F
100
AcDbEntity
  8
0
  6
HIDDEN
 62
     7
370
     0
100
AcDbLine
 10
138.4005853318
 20
100.6554208393
 30
0.0
 11
137.1015472261
 21
100.3989057318
 31
0.0
  0
LINE
  5
115
330
1F
100
AcDbEntity
  8
0
  6
HIDDEN
 62
     7
370
     0
100
AcDbLine
 10
138.9776101185
 20
100.2771640169
 30
0.0
 11
137.6785720128
 21
100.0206489094
 31
0.0
  0
LINE
  5
116
330
1F
100
AcDbEntity
  8
0
  6
HIDDEN
 62
     7
370
     0
100
AcDbLine
 10
138.12885974
 20
101.7737676789
 30
0.0
 11
136.8298216344
 21
101.5172525714
 31
0.0
  0
LINE
  5
117
330
1F
100
AcDbEntity
  8
0
  6
HIDDEN
 62
     7
370
     0
100
AcDbLine
 10
138.4341589349
 20
102.513857696
 30
0.0
 11
137.1351208292
 21
102.2573425885
 31
0.0
  0
LWPOLYLINE
  5
118
330
1F
100
AcDbEntity
  8
0
  6
HIDDEN
 62
     7
370
     0
100
AcDbPolyline
 90
       24
 70
   128
 43
0.0
 10
151.4246315619
 20
115.8148041347
 10
150.7498840667
 20
115.7294537321
 10
150.0756529375
 20
115.8183344109
 10
149.4519428126
 20
116.0748542979
 10
148.9250114189
 20
116.4799884866
 10
148.5339388471
 20
117.0036900275
 10
148.3077291611
 20
117.6071183732
 10
148.2631592982
 20
118.2455200037
 10
148.4035348013
 20
118.8715475906
 10
148.7184446616
 20
119.4387715316
 10
149.1845334553
 20
119.905123422
 10
149.7672335088
 20
120.2360160755
 10
150.4233286249
 20
120.4069086976
 10
151.1041592301
 20
120.4051269643
 10
151.7592312332
 20
120.2308030188
 10
152.3399609403
 20
119.8968656704
 10
152.8032782858
 20
119.4280815248
 10
153.1148211417
 20
118.8592181574
 10
153.2514837995
 20
118.2324655618
 10
153.2031306152
 20
117.5943071109
 10
152.9733477233
 20
116.9920720975
 10
152.5791770695
 20
116.4704255376
 10
152.0498524882
 20
116.06805557
 10
151.4246315619
 20
115.8148041347
  0
LWPOLYLINE
  5
119
330
1F
100
AcDbEntity
  8
0
  6
HIDDEN
 62
     7
370
     0
100
AcDbPolyline
 90
       20
 70
   128
 43
0.0
 10
151.2242960196
 20
116.237450639
 10
150.6513907062
 20
116.1806874769
 10
150.0899131557
 20
116.3018034483
 10
149.600708173
 20
116.5876737584
 10
149.2367887089
 20
117.0073199233
 10
149.037591084
 20
117.5152667697
 10
149.0247014518
 20
118.056470375
 10
149.1995166041
 20
118.5722829311
 10
149.5430926065
 20
119.0068081438
 10
150.018197668
 20
119.3129584639
 10
150.5733467832
 20
119.4575577539
 10
151.1483809314
 20
119.424936437
 10
151.6809862402
 20
119.2186295391
 10
152.1134466601
 20
118.8609936137
 10
152.3988983942
 20
118.3907840626
 10
152.5064083179
 20
117.8589553868
 10
152.4243260629
 20
117.3231394755
 10
152.1615465151
 20
116.8414002966
 10
151.7465459159
 20
116.4659417652
 10
151.2242960196
 20
116.237450639
  0
LWPOLYLINE
  5
11A
330
1F
100
AcDbEntity
  8
0
  6
HIDDEN
 62
     7
370
     0
100
AcDbPolyline
 90
       24
 70
   128
 43
0.0
 10
151.4246315619
 20
116.8384974878
 10
150.7498840667
 20
116.7531470852
 10
150.0756529375
 20
116.842027764
 10
149.4519428126
 20
117.098547651
 10
148.9250114189
 20
117.5036818397
 10
148.5339388471
 20
118.0273833806
 10
148.3077291611
 20
118.6308117263
 10
148.2631592982
 20
119.2692133568
 10
148.4035348013
 20
119.8952409437
 10
148.7184446616
 20
120.4624648847
 10
149.1845334553
 20
120.9288167751
 10
149.7672335088
 20
121.2597094286
 10
150.4233286249
 20
121.4306020507
 10
151.1041592301
 20
121.4288203174
 10
151.7592312332
 20
121.2544963719
 10
152.3399609403
 20
120.9205590235
 10
152.8032782858
 20
120.4517748779
 10
153.1148211417
 20
119.8829115105
 10
153.2514837995
 20
119.2561589149
 10
153.2031306152
 20
118.618000464
 10
152.9733477233
 20
118.0157654506
 10
152.5791770695
 20
117.4941188907
 10
152.0498524882
 20
117.0917489231
 10
151.4246315619
 20
116.8384974878
  0
LINE
  5
11B
330
1F
100
AcDbEntity
  8
0
  6
HIDDEN
 62
     7
370
     0
100
AcDbLine
 10
151.7686546074
 20
119.4734813031
 30
0.0
 11
150.3713004901
 21
119.8132484841
 31
0.0
  0
LINE
  5
11C
330
1F
100
AcDbEntity
  8
0
  6
HIDDEN
 62
     7
370
     0
100
AcDbLine
 10
150.3713004901
 20
119.8132484841
 30
0.0
 11
150.3713004901
 21
120.4972887708
 31
0.0
  0
LINE
  5
11D
330
1F
100
AcDbEntity
  8
0
  6
HIDDEN
 62
     7
370
     0
100
AcDbLine
 10
149.3594923037
 20
118.8459685339
 30
0.0
 11
150.3713004901
 21
119.8132484841
 31
0.0
  0
LINE
  5
11E
330
1F
100
AcDbEntity
  8
0
  6
HIDDEN
 62
     7
370
     0
100
AcDbLine
 10
151.7686546074
 20
119.4734813031
 30
0.0
 11
151.7686546074
 21
120.1575215898
 31
0.0
  0
LINE
  5
11F
330
1F
100
AcDbEntity
  8
0
  6
HIDDEN
 62
     7
370
     0
100
AcDbLine
 10
152.1542005383
 20
118.166434172
 30
0.0
 11
151.7686546074
 21
119.4734813031
 31
0.0
  0
LINE
  5
120
330
1F
100
AcDbEntity
  8
0
  6
HIDDEN
 62
     7
370
     0
100
AcDbLine
 10
149.7450382346
 20
117.5389214028
 30
0.0
 11
149.7450382346
 21
118.2229616894
 31
0.0
  0
LINE
  5
121
330
1F
100
AcDbEntity
  8
0
  6
HIDDEN
 62
     7
370
     0
100
AcDbLine
 10
149.7450382346
 20
118.2229616894
 30
0.0
 11
149.3594923037
 21
119.5300088206
 31
0.0
  0
LINE
  5
122
330
1F
100
AcDbEntity
  8
0
  6
HIDDEN
 62
     7
370
     0
100
AcDbLine
 10
149.3594923037
 20
118.8459685339
 30
0.0
 11
149.3594923037
 21
119.5300088206
 31
0.0
  0
LINE
  5
123
330
1F
100
AcDbEntity
  8
0
  6
HIDDEN
 62
     7
370
     0
100
AcDbLine
 10
149.7450382346
 20
117.5389214028
 30
0.0
 11
149.3594923037
 21
118.8459685339
 31
0.0
  0
LINE
  5
124
330
1F
100
AcDbEntity
  8
0
  6
HIDDEN
 62
     7
370
     0
100
AcDbLine
 10
151.1423923519
 20
117.1991542218
 30
0.0
 11
151.1423923519
 21
117.8831945085
 31
0.0
  0
LINE
  5
125
330
1F
100
AcDbEntity
  8
0
  6
HIDDEN
 62
     7
370
     0
100
AcDbLine
 10
152.1542005383
 20
118.8504744586
 30
0.0
 11
151.1423923519
 21
117.8831945085
 31
0.0
  0
LINE
  5
126
330
1F
100
AcDbEntity
  8
0
  6
HIDDEN
 62
     7
370
     0
100
AcDbLine
 10
152.1542005383
 20
118.166434172
 30
0.0
 11
152.1542005383
 21
118.8504744586
 31
0.0
  0
LINE
  5
127
330
1F
100
AcDbEntity
  8
0
  6
HIDDEN
 62
     7
370
     0
100
AcDbLine
 10
152.1542005383
 20
118.166434172
 30
0.0
 11
151.1423923519
 21
117.1991542218
 31
0.0
  0
LINE
  5
128
330
1F
100
AcDbEntity
  8
0
  6
HIDDEN
 62
     7
370
     0
100
AcDbLine
 10
149.7450382346
 20
118.2229616894
 30
0.0
 11
151.1423923519
 21
117.8831945085
 31
0.0
  0
LINE
  5
129
330
1F
100
AcDbEntity
  8
0
  6
HIDDEN
 62
     7
370
     0
100
AcDbLine
 10
149.7450382346
 20
117.5389214028
 30
0.0
 11
151.1423923519
 21
117.1991542218
 31
0.0
  0
LWPOLYLINE
  5
12A
330
1F
100
AcDbEntity
  8
0
  6
HIDDEN
 62
     7
370
     0
100
AcDbPolyline
 90
       22
 70
   128
 43
0.0
 10
151.3057658068
 20
117.3293388235
 10
150.6976659275
 20
117.2599742278
 10
150.0948244946
 20
117.3621223624
 10
149.5508066152
 20
117.6267069174
 10
149.1139506651
 20
118.0302183939
 10
148.8230732127
 20
118.5368030264
 10
148.7040199961
 20
119.1014485474
 10
148.7673694159
 20
119.6739837242
 10
149.0074925984
 20
120.2035362939
 10
149.4030535449
 20
120.6430531869
 10
149.9189049295
 20
120.9534813983
 10
150.5092110928
 20
121.1072380193
 10
151.1215207418
 20
121.0906610993
 10
151.701427477
 20
120.9052235705
 10
152.1974040402
 20
120.5674023711
 10
152.5653807371
 20
120.1072143971
 10
152.7726612234
 20
119.5655493696
 10
152.8008277183
 20
118.9905366032
 10
152.647377505
 20
118.4332685057
 10
152.3259453085
 20
117.943260793
 10
151.8650917899
 20
117.5640528009
 10
151.3057658068
 20
117.3293388235
  0
LINE
  5
12B
330
1F
100
AcDbEntity
  8
0
  6
HIDDEN
 62
     7
370
     0
100
AcDbLine
 10
152.1542005383
 20
118.8504744586
 30
0.0
 11
151.7686546074
 21
120.1575215898
 31
0.0
  0
LINE
  5
12C
330
1F
100
AcDbEntity
  8
0
  6
HIDDEN
 62
     7
370
     0
100
AcDbLine
 10
149.3594923037
 20
119.5300088206
 30
0.0
 11
150.3713004901
 21
120.4972887708
 31
0.0
  0
LINE
  5
12D
330
1F
100
AcDbEntity
  8
0
  6
HIDDEN
 62
     7
370
     0
100
AcDbLine
 10
151.7686546074
 20
120.1575215898
 30
0.0
 11
150.3713004901
 21
120.4972887708
 31
0.0
  0
LINE
  5
12E
330
1F
100
AcDbEntity
  8
0
  6
HIDDEN
 62
     7
370
     0
100
AcDbLine
 10
136.156846421
 20
98.7516132635
 30
0.0
 11
137.813668136
 21
99.0787782623
 31
0.0
  0
LINE
  5
12F
330
1F
100
AcDbEntity
  8
0
  6
HIDDEN
 62
     7
370
     0
100
AcDbLine
 10
137.000024706
 20
103.1992132356
 30
0.0
 11
136.156846421
 21
103.0327146799
 31
0.0
  0
LINE
  5
130
330
1F
100
AcDbEntity
  8
0
  6
HIDDEN
 62
     7
370
     0
100
AcDbLine
 10
137.8683354153
 20
99.5482625972
 30
0.0
 11
149.3061187658
 21
101.8068293111
 31
0.0
  0
LINE
  5
131
330
1F
100
AcDbEntity
  8
0
  6
HIDDEN
 62
     7
370
     0
100
AcDbLine
 10
149.3011031472
 20
105.1695614413
 30
0.0
 11
137.2290441488
 21
102.785747219
 31
0.0
  0
LINE
  5
132
330
1F
100
AcDbEntity
  8
0
  6
HIDDEN
 62
     7
370
     0
100
AcDbLine
 10
152.856846421
 20
102.77327476
 30
0.0
 11
152.856846421
 21
109.4084655405
 31
0.0
  0
LINE
  5
133
330
1F
100
AcDbEntity
  8
0
  6
HIDDEN
 62
     7
370
     0
100
AcDbLine
 10
148.656846421
 20
109.4084655405
 30
0.0
 11
148.656846421
 21
104.0114720735
 31
0.0
  0
ARC
  5
134
330
1F
100
AcDbEntity
  8
0
  6
HIDDEN
 62
     7
370
     0
100
AcDbCircle
 10
69.556846421
 20
100.8267078415
 30
0.0
 40
0.8000000000000114
100
AcDbArc
 50
90.0
 51
180.0
  0
ARC
  5
135
330
1F
100
AcDbEntity
  8
0
  6
HIDDEN
 62
     7
370
     0
100
AcDbCircle
 10
69.556846421
 20
119.4267078415
 30
0.0
 40
0.8000000000000114
100
AcDbArc
 50
180.0
 51
270.0
  0
LINE
  5
136
330
1F
100
AcDbEntity
  8
0
  6
HIDDEN
 62
     7
370
     0
100
AcDbLine
 10
76.6492188517
 20
101.4017078415
 30
0.0
 11
77.5259063133
 21
101.4017078415
 31
0.0
  0
LINE
  5
137
330
1F
100
AcDbEntity
  8
0
  6
HIDDEN
 62
     7
370
     0
100
AcDbLine
 10
77.5259063133
 20
118.8517078415
 30
0.0
 11
76.6492188517
 21
118.8517078415
 31
0.0
  0
ARC
  5
138
330
1F
100
AcDbEntity
  8
0
  6
HIDDEN
 62
     7
370
     0
100
AcDbCircle
 10
77.5259063133
 20
101.8017078415
 30
0.0
 40
0.3999999999999927
100
AcDbArc
 50
270.0
 51
330.0
  0
ARC
  5
139
330
1F
100
AcDbEntity
  8
0
  6
HIDDEN
 62
     7
370
     0
100
AcDbCircle
 10
77.5259063133
 20
118.4517078415
 30
0.0
 40
0.4000000000000057
100
AcDbArc
 50
30.0
 51
90.0
  0
ARC
  5
13A
330
1F
100
AcDbEntity
  8
0
  6
HIDDEN
 62
     7
370
     0
100
AcDbCircle
 10
76.6492188517
 20
101.8017078415
 30
0.0
 40
0.400000000000006
100
AcDbArc
 50
255.0
 51
270.0
  0
ARC
  5
13B
330
1F
100
AcDbEntity
  8
0
  6
HIDDEN
 62
     7
370
     0
100
AcDbCircle
 10
76.6492188517
 20
118.4517078415
 30
0.0
 40
0.400000000000006
100
AcDbArc
 50
90.0
 51
105.0
  0
LINE
  5
13C
330
1F
100
AcDbEntity
  8
0
  6
HIDDEN
 62
     7
370
     0
100
AcDbLine
 10
76.5456912337
 20
118.838078172
 30
0.0
 11
75.756846421
 21
118.6267078415
 31
0.0
  0
LINE
  5
13D
330
1F
100
AcDbEntity
  8
0
  6
HIDDEN
 62
     7
370
     0
100
AcDbLine
 10
75.756846421
 20
101.6267078415
 30
0.0
 11
76.5456912337
 21
101.415337511
 31
0.0
  0
LINE
  5
13E
330
1F
100
AcDbEntity
  8
0
  6
HIDDEN
 62
     7
370
     0
100
AcDbLine
 10
77.8723164748
 20
101.6017078415
 30
0.0
 11
78.7527756353
 21
103.1267078415
 31
0.0
  0
LINE
  5
13F
330
1F
100
AcDbEntity
  8
0
  6
HIDDEN
 62
     7
370
     0
100
AcDbLine
 10
78.7527756353
 20
117.1267078415
 30
0.0
 11
77.8723164748
 21
118.6517078415
 31
0.0
  0
LINE
  5
140
330
1F
100
AcDbEntity
  8
0
  6
HIDDEN
 62
     7
370
     0
100
AcDbLine
 10
69.556846421
 20
101.6267078415
 30
0.0
 11
75.756846421
 21
101.6267078415
 31
0.0
  0
LINE
  5
141
330
1F
100
AcDbEntity
  8
0
  6
HIDDEN
 62
     7
370
     0
100
AcDbLine
 10
75.756846421
 20
118.6267078415
 30
0.0
 11
69.556846421
 21
118.6267078415
 31
0.0
  0
ARC
  5
142
330
1F
100
AcDbEntity
  8
0
  6
HIDDEN
 62
     7
370
     0
100
AcDbCircle
 10
155.556846421
 20
86.0267078415
 30
0.0
 40
1.599999999999994
100
AcDbArc
 50
0.0
 51
90.0
  0
LINE
  5
143
330
1F
100
AcDbEntity
  8
0
  6
HIDDEN
 62
     7
370
     0
100
AcDbLine
 10
157.156846421
 20
79.5263503806
 30
0.0
 11
157.156846421
 21
86.0267078415
 31
0.0
  0
ARC
  5
144
330
1F
100
AcDbEntity
  8
0
  6
HIDDEN
 62
     7
370
     0
100
AcDbCircle
 10
155.556846421
 20
134.2267078415
 30
0.0
 40
1.599999999999994
100
AcDbArc
 50
270.0
 51
0.0
  0
LINE
  5
145
330
1F
100
AcDbEntity
  8
0
  6
HIDDEN
 62
     7
370
     0
100
AcDbLine
 10
157.156846421
 20
134.2267078415
 30
0.0
 11
157.156846421
 21
140.7270018551
 31
0.0
  0
LINE
  5
146
330
1F
100
AcDbEntity
  8
0
  6
HIDDEN
 62
     7
370
     0
100
AcDbLine
 10
78.7527756353
 20
103.1267078415
 30
0.0
 11
111.756846421
 21
103.1267078415
 31
0.0
  0
LINE
  5
147
330
1F
100
AcDbEntity
  8
0
  6
HIDDEN
 62
     7
370
     0
100
AcDbLine
 10
111.756846421
 20
117.1267078415
 30
0.0
 11
78.7527756353
 21
117.1267078415
 31
0.0
  0
LINE
  5
148
330
1F
100
AcDbEntity
  8
0
  6
HIDDEN
 62
     7
370
     0
100
AcDbLine
 10
111.756846421
 20
103.1267078415
 30
0.0
 11
114.7010634542
 21
108.0267078415
 31
0.0
  0
LINE
  5
149
330
1F
100
AcDbEntity
  8
0
  6
HIDDEN
 62
     7
370
     0
100
AcDbLine
 10
114.7010634542
 20
112.2267078415
 30
0.0
 11
111.756846421
 21
117.1267078415
 31
0.0
  0
ARC
  5
14A
330
1F
100
AcDbEntity
  8
0
  6
HIDDEN
 62
     7
370
     0
100
AcDbCircle
 10
226.156846421
 20
103.6267078415
 30
0.0
 40
1.0
100
AcDbArc
 50
0.0
 51
90.0
  0
ARC
  5
14B
330
1F
100
AcDbEntity
  8
0
  6
HIDDEN
 62
     7
370
     0
100
AcDbCircle
 10
226.156846421
 20
116.6267078415
 30
0.0
 40
1.0
100
AcDbArc
 50
270.0
 51
0.0
  0
LINE
  5
14C
330
1F
100
AcDbEntity
  8
0
  6
HIDDEN
 62
     7
370
     0
100
AcDbLine
 10
157.156845511
 20
140.6267076296
 30
0.0
 11
158.1568448803
 21
141.6267073763
 31
0.0
  0
LINE
  5
14D
330
1F
100
AcDbEntity
  8
0
  6
HIDDEN
 62
     7
370
     0
100
AcDbLine
 10
158.1568527824
 20
78.6267067038
 30
0.0
 11
157.1568525335
 21
79.6267065083
 31
0.0
  0
ARC
  5
14E
330
1F
100
AcDbEntity
  8
0
  6
HIDDEN
 62
     7
370
     0
100
AcDbCircle
 10
214.456846421
 20
104.9267078415
 30
0.0
 40
0.8000000000000114
100
AcDbArc
 50
180.0
 51
270.0
  0
ARC
  5
14F
330
1F
100
AcDbEntity
  8
0
  6
HIDDEN
 62
     7
370
     0
100
AcDbCircle
 10
214.456846421
 20
115.3267078415
 30
0.0
 40
0.8000000000000114
100
AcDbArc
 50
90.0
 51
180.0
  0
LINE
  5
150
330
1F
100
AcDbEntity
  8
0
  6
HIDDEN
 62
     7
370
     0
100
AcDbLine
 10
214.456846421
 20
104.1267078415
 30
0.0
 11
215.0515244229
 21
104.1267078415
 31
0.0
  0
LINE
  5
151
330
1F
100
AcDbEntity
  8
0
  6
HIDDEN
 62
     7
370
     0
100
AcDbLine
 10
215.0515244229
 20
116.1267078415
 30
0.0
 11
214.456846421
 21
116.1267078415
 31
0.0
  0
ARC
  5
152
330
1F
100
AcDbEntity
  8
0
  6
HIDDEN
 62
     7
370
     0
100
AcDbCircle
 10
215.0515244229
 20
104.9267078415
 30
0.0
 40
0.8000000000000114
100
AcDbArc
 50
270.0
 51
285.0
  0
ARC
  5
153
330
1F
100
AcDbEntity
  8
0
  6
HIDDEN
 62
     7
370
     0
100
AcDbCircle
 10
215.0515244229
 20
115.3267078415
 30
0.0
 40
0.8000000000000114
100
AcDbArc
 50
75.0
 51
90.0
  0
LINE
  5
154
330
1F
100
AcDbEntity
  8
0
  6
HIDDEN
 62
     7
370
     0
100
AcDbLine
 10
215.258579659
 20
104.1539671804
 30
0.0
 11
217.0228718248
 21
104.6267078415
 31
0.0
  0
LINE
  5
155
330
1F
100
AcDbEntity
  8
0
  6
HIDDEN
 62
     7
370
     0
100
AcDbLine
 10
217.0228718248
 20
115.6267078415
 30
0.0
 11
215.258579659
 21
116.0994485025
 31
0.0
  0
LINE
  5
156
330
1F
100
AcDbEntity
  8
0
  6
HIDDEN
 62
     7
370
     0
100
AcDbLine
 10
217.0228718248
 20
104.6267078415
 30
0.0
 11
226.156846421
 21
104.6267078415
 31
0.0
  0
LINE
  5
157
330
1F
100
AcDbEntity
  8
0
  6
HIDDEN
 62
     7
370
     0
100
AcDbLine
 10
226.156846421
 20
115.6267078415
 30
0.0
 11
217.0228718248
 21
115.6267078415
 31
0.0
  0
LINE
  5
158
330
1F
100
AcDbEntity
  8
0
  6
HIDDEN
 62
     7
370
     0
100
AcDbLine
 10
150.03860412
 20
112.2267078415
 30
0.0
 11
114.7010634542
 21
112.2267078415
 31
0.0
  0
LINE
  5
159
330
1F
100
AcDbEntity
  8
0
  6
HIDDEN
 62
     7
370
     0
100
AcDbLine
 10
114.7010634542
 20
108.0267078415
 30
0.0
 11
150.03860412
 21
108.0267078415
 31
0.0
  0
LINE
  5
15A
330
1F
100
AcDbEntity
  8
0
  6
HIDDEN
 62
     7
370
     0
100
AcDbLine
 10
151.475088722
 20
108.0267078415
 30
0.0
 11
213.656846421
 21
108.0267078415
 31
0.0
  0
LINE
  5
15B
330
1F
100
AcDbEntity
  8
0
  6
HIDDEN
 62
     7
370
     0
100
AcDbLine
 10
213.656846421
 20
112.2267078415
 30
0.0
 11
151.475088722
 21
112.2267078415
 31
0.0
  0
LINE
  5
15C
330
1F
100
AcDbEntity
  8
0
  6
HIDDEN
 62
     7
370
     0
100
AcDbLine
 10
152.856846421
 20
110.8449501425
 30
0.0
 11
152.856846421
 21
119.2304840572
 31
0.0
  0
LINE
  5
15D
330
1F
100
AcDbEntity
  8
0
  6
HIDDEN
 62
     7
370
     0
100
AcDbLine
 10
148.656846421
 20
116.2426348447
 30
0.0
 11
148.656846421
 21
110.8449501425
 31
0.0
  0
LINE
  5
15E
330
1F
100
AcDbEntity
  8
0
  6
HIDDEN
 62
     7
370
     0
100
AcDbLine
 10
148.656846421
 20
119.2304840572
 30
0.0
 11
148.656846421
 21
117.5417465338
 31
0.0
  0
LINE
  5
15F
330
1F
100
AcDbEntity
  8
0
  6
HIDDEN
 62
     7
370
     0
100
AcDbLine
 10
137.2290441488
 20
117.467668464
 30
0.0
 11
149.3062358247
 21
115.0828407153
 31
0.0
  0
LINE
  5
160
330
1F
100
AcDbEntity
  8
0
  6
HIDDEN
 62
     7
370
     0
100
AcDbLine
 10
149.3061132484
 20
118.4465874613
 30
0.0
 11
137.8683354153
 21
120.7051530858
 31
0.0
  0
LINE
  5
161
330
1F
100
AcDbEntity
  8
0
  6
HIDDEN
 62
     7
370
     0
100
AcDbLine
 10
136.156846421
 20
117.2207010031
 30
0.0
 11
137.000024706
 21
117.0542024474
 31
0.0
  0
LINE
  5
162
330
1F
100
AcDbEntity
  8
0
  6
HIDDEN
 62
     7
370
     0
100
AcDbLine
 10
137.813668136
 20
121.1746374206
 30
0.0
 11
136.156846421
 21
121.5018024195
 31
0.0
  0
LINE
  5
163
330
1F
100
AcDbEntity
  8
0
  6
HIDDEN
 62
     7
370
     0
100
AcDbLine
 10
139.5180751966
 20
116.9716610033
 30
0.0
 11
140.106592393
 21
117.5026483006
 31
0.0
  0
LINE
  5
164
330
1F
100
AcDbEntity
  8
0
  6
HIDDEN
 62
     7
370
     0
100
AcDbLine
 10
140.5166031506
 20
119.5790156658
 30
0.0
 11
140.1740924088
 21
120.2938487877
 31
0.0
  0
LINE
  5
165
330
1F
100
AcDbEntity
  8
0
  6
HIDDEN
 62
     7
370
     0
100
AcDbLine
 10
137.2143971686
 20
117.1138022847
 30
0.0
 11
138.9679543271
 21
116.7675353807
 31
0.0
  0
LINE
  5
166
330
1F
100
AcDbEntity
  8
0
  6
HIDDEN
 62
     7
370
     0
100
AcDbLine
 10
139.7428528319
 20
120.6917591648
 30
0.0
 11
137.9892956734
 21
121.0380260688
 31
0.0
  0
LINE
  5
167
330
1F
100
AcDbEntity
  8
0
  6
HIDDEN
 62
     7
370
     0
100
AcDbLine
 10
136.9020802674
 20
120.0039554827
 30
0.0
 11
136.8435346673
 21
119.8614931853
 31
0.0
  0
LINE
  5
168
330
1F
100
AcDbEntity
  8
0
  6
HIDDEN
 62
     7
370
     0
100
AcDbLine
 10
136.601846421
 20
118.6375409403
 30
0.0
 11
136.601846421
 21
118.4835179113
 31
0.0
  0
LINE
  5
169
330
1F
100
AcDbEntity
  8
0
  6
HIDDEN
 62
     7
370
     0
100
AcDbLine
 10
136.601846421
 20
101.7698977717
 30
0.0
 11
136.601846421
 21
101.6158747426
 31
0.0
  0
LINE
  5
16A
330
1F
100
AcDbEntity
  8
0
  6
HIDDEN
 62
     7
370
     0
100
AcDbLine
 10
136.8435346673
 20
100.3919224977
 30
0.0
 11
136.9020802674
 21
100.2494602002
 31
0.0
  0
LINE
  5
16B
330
1F
100
AcDbEntity
  8
0
  6
HIDDEN
 62
     7
370
     0
100
AcDbLine
 10
137.9892956734
 20
99.2153896142
 30
0.0
 11
139.7428528319
 21
99.5616565182
 31
0.0
  0
LINE
  5
16C
330
1F
100
AcDbEntity
  8
0
  6
HIDDEN
 62
     7
370
     0
100
AcDbLine
 10
138.9679543271
 20
103.4858803022
 30
0.0
 11
137.2143971686
 21
103.1396133982
 31
0.0
  0
LINE
  5
16D
330
1F
100
AcDbEntity
  8
0
  6
HIDDEN
 62
     7
370
     0
100
AcDbLine
 10
140.1740924088
 20
99.9595668953
 30
0.0
 11
140.5166031506
 21
100.6744000171
 31
0.0
  0
LINE
  5
16E
330
1F
100
AcDbEntity
  8
0
  6
HIDDEN
 62
     7
370
     0
100
AcDbLine
 10
140.106592393
 20
102.7507673823
 30
0.0
 11
139.5180751966
 21
103.2817546796
 31
0.0
  0
LINE
  5
16F
330
1F
100
AcDbEntity
  8
0
  6
HIDDEN
 62
     7
370
     0
100
AcDbLine
 10
148.256846421
 20
119.1023695269
 30
0.0
 11
148.256846421
 21
118.0786761738
 31
0.0
  0
LINE
  5
170
330
1F
100
AcDbEntity
  8
0
  6
HIDDEN
 62
     7
370
     0
100
AcDbLine
 10
153.256846421
 20
118.0786761738
 30
0.0
 11
153.256846421
 21
119.1023695269
 31
0.0
  0
DIMENSION
  5
171
330
1F
100
AcDbEntity
  8
VERMASSUNG
100
AcDbDimension
  2
_D
 10
58.756846421
 20
141.6267078415
 30
0.0
 11
58.756846421
 21
110.1267078415
 31
0.0
 70
   160
  1
MAS-BT 40 %%c<>
 71
     2
 42
-1.0
  3
SLDDIMSTYLE0
100
AcDbAlignedDimension
 13
160.156846421
 23
78.6267078415
 33
0.0
 14
160.156846421
 24
141.6267078415
 34
0.0
 50
90.0
100
AcDbRotatedDimension
  0
DIMENSION
  5
17E
330
1F
100
AcDbEntity
  8
VERMASSUNG
100
AcDbDimension
  2
_D_1
 10
227.156846421
 20
158.9960543064
 30
0.0
 11
147.956846421
 21
158.9960543064
 31
0.0
 70
   160
  1
<>
 71
     2
 42
-1.0
  3
SLDDIMSTYLE0
100
AcDbAlignedDimension
 13
68.756846421
 23
121.9494634385
 33
0.0
 14
227.156846421
 24
119.9267078415
 34
0.0
100
AcDbRotatedDimension
  0
DIMENSION
  5
188
330
1F
100
AcDbEntity
  8
VERMASSUNG
100
AcDbDimension
  2
_D_2
 10
227.156846421
 20
152.9960543064
 30
0.0
 11
180.656846421
 21
152.9960543064
 31
0.0
 70
   160
  1
<>
 71
     2
 42
-1.0
  3
SLDDIMSTYLE0
100
AcDbAlignedDimension
 13
134.156846421
 23
132.3517078415
 33
0.0
 14
227.156846421
 24
119.9267078415
 34
0.0
100
AcDbRotatedDimension
  0
DIMENSION
  5
192
330
1F
100
AcDbEntity
  8
VERMASSUNG
100
AcDbDimension
  2
_D_3
 10
227.156846421
 20
146.9960543064
 30
0.0
 11
194.156846421
 21
146.9960543064
 31
0.0
 70
   160
  1
<>
 71
     2
 42
-1.0
  3
SLDDIMSTYLE0
100
AcDbAlignedDimension
 13
161.156846421
 23
140.6267078415
 33
0.0
 14
227.156846421
 24
119.9267078415
 34
0.0
100
AcDbRotatedDimension
  0
DIMENSION
  5
19C
330
1F
100
AcDbEntity
  8
VERMASSUNG
100
AcDbDimension
  2
_D_4
 10
240.5844468381
 20
100.1267078415
 30
0.0
 11
240.5844468381
 21
110.1267078415
 31
0.0
 70
   160
  1
WH%%c<>
 71
     2
 42
-1.0
  3
SLDDIMSTYLE0
100
AcDbAlignedDimension
 13
226.956846421
 23
120.1267078415
 33
0.0
 14
226.956846421
 24
100.1267078415
 34
0.0
 50
90.0
100
AcDbRotatedDimension
  0
DIMENSION
  5
1A8
330
1F
100
AcDbEntity
  8
VERMASSUNG
100
AcDbDimension
  2
_D_5
 10
234.5844468381
 20
104.6267078415
 30
0.0
 11
234.5844468381
 21
110.1267078415
 31
0.0
 70
   160
  1
%%c<>
 71
     2
 42
-1.0
  3
SLDDIMSTYLE0
100
AcDbAlignedDimension
 13
226.156846421
 23
115.6267078415
 33
0.0
 14
226.156846421
 24
104.6267078415
 34
0.0
 50
90.0
100
AcDbRotatedDimension
  0
LINE
  5
1B3
330
1F
100
AcDbEntity
  8
VERMASSUNG
  6
CENTERX2
370
     0
100
AcDbLine
 10
228.2872115196
 20
110.1267078415
 30
0.0
 11
66.4777515934
 21
110.1267078415
 31
0.0
  0
LINE
  5
1B4
330
1F
100
AcDbEntity
  8
0
  6
Continuous
 62
     7
370
    15
100
AcDbLine
 10
266.6555973209
 20
29.533938261
 30
0.0
 11
266.7262965066
 21
29.574765301
 31
0.0
  0
LINE
  5
1B5
330
1F
100
AcDbEntity
  8
0
  6
Continuous
 62
     7
370
    15
100
AcDbLine
 10
270.1905566032
 20
35.5756900117
 30
0.0
 11
270.1905566032
 21
35.6573308229
 31
0.0
  0
LINE
  5
1B6
330
1F
100
AcDbEntity
  8
0
  6
Continuous
 62
     7
370
    15
100
AcDbLine
 10
241.9520729364
 20
42.103673587
 30
0.0
 11
264.1552258656
 21
29.2860662314
 31
0.0
  0
LINE
  5
1B7
330
1F
100
AcDbEntity
  8
0
  6
Continuous
 62
     7
370
    15
100
AcDbLine
 10
269.1548195288
 20
37.9465548552
 30
0.0
 11
246.9516665996
 21
50.7641622108
 31
0.0
  0
SPLINE
  5
1B8
330
1F
100
AcDbEntity
  8
0
  6
Continuous
 62
     7
370
    15
100
AcDbSpline
210
0.0
220
0.0
230
1.0
 70
     8
 71
     3
 72
    12
 73
     8
 74
     0
 42
0.000000001
 43
0.00000001
 40
0.0
 40
0.0
 40
0.0
 40
0.0
 40
0.1706661813922618
 40
0.4310491540113685
 40
0.6771578792784217
 40
0.9206115647054693
 40
1.0
 40
1.0
 40
1.0
 40
1.0
 10
264.9856992274742
 20
31.41799777474453
 30
0.0
 10
264.9473112249177
 20
31.44001099944912
 30
0.0
 10
264.8503551912664
 20
31.49560948890126
 30
0.0
 10
264.727831013454
 20
31.67294882954859
 30
0.0
 10
264.6198264572338
 20
31.95373573158089
 30
0.0
 10
264.5776954890567
 20
32.23167178833282
 30
0.0
 10
264.57479595526
 20
32.40925934649228
 30
0.0
 10
264.5740829459083
 20
32.45292898395638
 30
0.0
  0
SPLINE
  5
1B9
330
1F
100
AcDbEntity
  8
0
  6
Continuous
 62
     7
370
    15
100
AcDbSpline
210
0.0
220
0.0
230
1.0
 70
     8
 71
     3
 72
    20
 73
    16
 74
     0
 42
0.000000001
 43
0.00000001
 40
0.0
 40
0.0
 40
0.0
 40
0.0
 40
0.0427191326965889
 40
0.1251763491699411
 40
0.2083051349645921
 40
0.2920146022723076
 40
0.3760598713910636
 40
0.4601320262108572
 40
0.5438037159061085
 40
0.6267598904918079
 40
0.7087698835133316
 40
0.7899255251049004
 40
0.8710518223658251
 40
0.9543687205789972
 40
1.0
 40
1.0
 40
1.0
 40
1.0
 10
264.5740829459083
 20
32.45292898395638
 30
0.0
 10
264.5760639435405
 20
32.52951788630679
 30
0.0
 10
264.5818686974216
 20
32.75394002641084
 30
0.0
 10
264.6490285920447
 20
33.16799553133694
 30
0.0
 10
264.8020347347816
 20
33.6858352932641
 30
0.0
 10
265.0286314278308
 20
34.20985212049739
 30
0.0
 10
265.3186576250608
 20
34.71424521055216
 30
0.0
 10
265.659142092379
 20
35.17542261844658
 30
0.0
 10
266.0328769400634
 20
35.57176633060808
 30
0.0
 10
266.419778584711
 20
35.88591492626352
 30
0.0
 10
266.7975338544886
 20
36.10588893084867
 30
0.0
 10
267.1438644426377
 20
36.22889360196597
 30
0.0
 10
267.4354155431477
 20
36.25630200381731
 30
0.0
 10
267.6305002319638
 20
36.22803037042212
 30
0.0
 10
267.7178680903203
 20
36.16850320538521
 30
0.0
 10
267.748785217109
 20
36.14743814847028
 30
0.0
  0
SPLINE
  5
1BA
330
1F
100
AcDbEntity
  8
0
  6
Continuous
 62
     7
370
    15
100
AcDbSpline
210
0.0
220
0.0
230
1.0
 70
     8
 71
     3
 72
    20
 73
    16
 74
     0
 42
0.000000001
 43
0.00000001
 40
0.0
 40
0.0
 40
0.0
 40
0.0
 40
0.0203088556511635
 40
0.1025726692946502
 40
0.1853785154643862
 40
0.2687524294548481
 40
0.3526089998165448
 40
0.4368100956933592
 40
0.521217113259909
 40
0.6057198104146798
 40
0.690235386795321
 40
0.7747189812953126
 40
0.8591547170679658
 40
0.9435391012205575
 40
1.0
 40
1.0
 40
1.0
 40
1.0
 10
236.9496978829329
 20
32.95871352144951
 30
0.0
 10
237.017117072642
 20
32.94222350035706
 30
0.0
 10
237.3576269649235
 20
32.85893838034681
 30
0.0
 10
238.0148758066382
 20
32.8185686313736
 30
0.0
 10
238.9157495854332
 20
32.84235776992059
 30
0.0
 10
239.8525134034393
 20
32.98641159408053
 30
0.0
 10
240.8136217743582
 20
33.23877482929302
 30
0.0
 10
241.79254698566
 20
33.60084882508213
 30
0.0
 10
242.7808792847816
 20
34.06889471315
 30
0.0
 10
243.7706617872387
 20
34.63906010298633
 30
0.0
 10
244.7538543060683
 20
35.3066210298042
 30
0.0
 10
245.7233867468155
 20
36.06509459236258
 30
0.0
 10
246.6700760877901
 20
36.91163485297484
 30
0.0
 10
247.4922783884593
 20
37.72633863432533
 30
0.0
 10
247.9805151792982
 20
38.2861346007525
 30
0.0
 10
248.1762355289904
 20
38.51054100428704
 30
0.0
  0
SPLINE
  5
1BB
330
1F
100
AcDbEntity
  8
0
  6
Continuous
 62
     7
370
    15
100
AcDbSpline
210
0.0
220
0.0
230
1.0
 70
     8
 71
     3
 72
    19
 73
    15
 74
     0
 42
0.000000001
 43
0.00000001
 40
0.0
 40
0.0
 40
0.0
 40
0.0
 40
0.0802594570738001
 40
0.1647865160120453
 40
0.2493755630010674
 40
0.3340350247631055
 40
0.4187685174234793
 40
0.5035709181526601
 40
0.5884222785266789
 40
0.6732627091991301
 40
0.7579989800825458
 40
0.8425014475042477
 40
0.9266109838602787
 40
1.0
 40
1.0
 40
1.0
 40
1.0
 10
253.1814654869849
 20
47.16777586435596
 30
0.0
 10
253.3123421556876
 20
47.56752438487959
 30
0.0
 10
253.5810545423534
 20
48.38827708343683
 30
0.0
 10
253.8878778710906
 20
49.62199496259139
 30
0.0
 10
254.1231879762071
 20
50.85931087622767
 30
0.0
 10
254.2716568867554
 20
52.07018315495093
 30
0.0
 10
254.3338230930011
 20
53.24560815551934
 30
0.0
 10
254.3080167832687
 20
54.37674982038698
 30
0.0
 10
254.1939183119538
 20
55.45495434987699
 30
0.0
 10
253.9914265796032
 20
56.47137407459584
 30
0.0
 10
253.7021672733354
 20
57.41832034024795
 30
0.0
 10
253.3255020812589
 20
58.28437078003429
 30
0.0
 10
252.8922686517345
 20
59.04133062749357
 30
0.0
 10
252.5464380821238
 20
59.46183882653457
 30
0.0
 10
252.3852926947371
 20
59.65778147183054
 30
0.0
  0
LINE
  5
1BC
330
1F
100
AcDbEntity
  8
0
  6
Continuous
 62
     7
370
    15
100
AcDbLine
 10
233.6165001023
 20
34.5030028006
 30
0.0
 11
235.1632961861
 21
33.6100564282
 31
0.0
  0
LINE
  5
1BD
330
1F
100
AcDbEntity
  8
0
  6
Continuous
 62
     7
370
    15
100
AcDbLine
 10
250.9120162251
 20
60.8905955932
 30
0.0
 11
249.3652201413
 21
61.7835419655
 31
0.0
  0
LINE
  5
1BE
330
1F
100
AcDbEntity
  8
0
  6
Continuous
 62
     7
370
    15
100
AcDbLine
 10
245.8120085658
 20
63.8347673465
 30
0.0
 11
242.7802882415
 21
65.5849422362
 31
0.0
  0
SPLINE
  5
1BF
330
1F
100
AcDbEntity
  8
0
  6
Continuous
 62
     7
370
    15
100
AcDbSpline
210
0.0
220
0.0
230
1.0
 70
     8
 71
     3
 72
    30
 73
    26
 74
     0
 42
0.000000001
 43
0.00000001
 40
0.0
 40
0.0
 40
0.0
 40
0.0
 40
0.0096062853002342
 40
0.0557805914097045
 40
0.1022586308020489
 40
0.149055746748717
 40
0.1961244478664849
 40
0.2433873251448109
 40
0.2907664791225567
 40
0.3381998400872971
 40
0.3856408138750606
 40
0.4330639669452814
 40
0.4804603027610324
 40
0.5278278090994905
 40
0.5751686223556888
 40
0.6224872095853877
 40
0.6697892813197582
 40
0.7170811817849314
 40
0.7643695714212617
 40
0.8116609789202428
 40
0.8589603338852264
 40
0.9062746093862575
 40
0.9536107466793406
 40
0.9984956308336588
 40
1.0
 40
1.0
 40
1.0
 40
1.0
 10
240.9699306208933
 20
66.24216700252721
 30
0.0
 10
240.9131165859612
 20
66.25605099037338
 30
0.0
 10
240.5832158626501
 20
66.33667081676613
 30
0.0
 10
239.9370742760883
 20
66.3758060415578
 30
0.0
 10
239.0367321696482
 20
66.35357115925636
 30
0.0
 10
238.1001961625824
 20
66.21045538105696
 30
0.0
 10
237.1393085730355
 20
65.95918762044768
 30
0.0
 10
236.1605118689152
 20
65.59813819362529
 30
0.0
 10
235.1722271275194
 20
65.13110899245605
 30
0.0
 10
234.1824427176808
 20
64.56186330261195
 30
0.0
 10
233.1990661863698
 20
63.89536083721168
 30
0.0
 10
232.2296810533198
 20
63.13718494509481
 30
0.0
 10
231.2815675738158
 20
62.2935047981516
 30
0.0
 10
230.3617405072674
 20
61.37099916485563
 30
0.0
 10
229.4769838210783
 20
60.37685330601019
 30
0.0
 10
228.6338274357065
 20
59.31872116509641
 30
0.0
 10
227.8385162659937
 20
58.20468503512681
 30
0.0
 10
227.0969633203573
 20
57.04320466762655
 30
0.0
 10
226.4147383427147
 20
55.84307053487628
 30
0.0
 10
225.7969291525568
 20
54.61333093391526
 30
0.0
 10
225.2484861268336
 20
53.36330483805025
 30
0.0
 10
224.7727190096963
 20
52.10214979039913
 30
0.0
 10
224.3836741915456
 20
50.86214818312933
 30
0.0
 10
224.167626835209
 20
50.03320309260444
 30
0.0
 10
224.0801310139394
 20
49.62726556884344
 30
0.0
 10
224.0772935891852
 20
49.61410131526114
 30
0.0
  0
LINE
  5
1C0
330
1F
100
AcDbEntity
  8
0
  6
Continuous
 62
     7
370
    15
100
AcDbLine
 10
233.7768120745
 20
64.2700265723
 30
0.0
 11
213.880790564
 21
71.4397640736
 31
0.0
  0
LINE
  5
1C1
330
1F
100
AcDbEntity
  8
0
  6
Continuous
 62
     7
370
    15
100
AcDbLine
 10
207.5093211526
 20
60.4028594626
 30
0.0
 11
226.537195239
 21
44.3358798853
 31
0.0
  0
LINE
  5
1C2
330
1F
100
AcDbEntity
  8
0
  6
Continuous
 62
     7
370
    15
100
AcDbLine
 10
227.0315682025
 20
38.3044030712
 30
0.0
 11
230.0632885268
 21
36.5542281815
 31
0.0
  0
SPLINE
  5
1C3
330
1F
100
AcDbEntity
  8
0
  6
Continuous
 62
     7
370
    15
100
AcDbSpline
210
0.0
220
0.0
230
1.0
 70
     8
 71
     3
 72
    12
 73
     8
 74
     0
 42
0.000000001
 43
0.00000001
 40
0.0
 40
0.0
 40
0.0
 40
0.0
 40
0.098810989550198
 40
0.3820254461422846
 40
0.6643744439911058
 40
0.9450278620500971
 40
1.0
 40
1.0
 40
1.0
 40
1.0
 10
224.068630903964
 20
42.3714534174071
 30
0.0
 10
224.1010343725914
 20
42.2608083516481
 30
0.0
 10
224.2263134494963
 20
41.83302971283031
 30
0.0
 10
224.5053525490051
 20
41.13978448958659
 30
0.0
 10
224.9437298326386
 20
40.33915394979687
 30
0.0
 10
225.3072828074271
 20
39.79649600933296
 30
0.0
 10
225.5452714794411
 20
39.55205697803854
 30
0.0
 10
225.5842516639779
 20
39.51202028861461
 30
0.0
  0
SPLINE
  5
1C4
330
1F
100
AcDbEntity
  8
0
  6
Continuous
 62
     7
370
    15
100
AcDbSpline
210
0.0
220
0.0
230
1.0
 70
     8
 71
     3
 72
    29
 73
    25
 74
     0
 42
0.000000001
 43
0.00000001
 40
0.0
 40
0.0
 40
0.0
 40
0.0
 40
0.0441906272078238
 40
0.0899341016775402
 40
0.1366759503669055
 40
0.184368152399783
 40
0.2326654030866259
 40
0.2812052096015781
 40
0.3297248128801215
 40
0.3781563091556156
 40
0.4265007956542285
 40
0.4747868261250456
 40
0.5230536913433877
 40
0.5713424341671365
 40
0.6196860666677361
 40
0.66813070108621
 40
0.716719985917185
 40
0.7591465030186806
 40
0.7850002704614917
 40
0.8339190781082437
 40
0.8828358662315523
 40
0.931279907760884
 40
0.9787604031332029
 40
0.9999999999999999
 40
0.9999999999999999
 40
0.9999999999999999
 40
0.9999999999999999
 10
213.7076727181158
 20
71.49399795240603
 30
0.0
 10
213.5307440227599
 20
71.5331699175483
 30
0.0
 10
213.1706694032489
 20
71.61289034060198
 30
0.0
 10
212.584817677494
 20
71.59359196694011
 30
0.0
 10
211.9705556496634
 20
71.47277467380815
 30
0.0
 10
211.3363534584614
 20
71.23974596171776
 30
0.0
 10
210.6952166709738
 20
70.90049321133428
 30
0.0
 10
210.0605422458683
 20
70.46110958821733
 30
0.0
 10
209.4455622172703
 20
69.93165744731233
 30
0.0
 10
208.8619869488996
 20
69.32343627547357
 30
0.0
 10
208.3201498744816
 20
68.6484573936475
 30
0.0
 10
207.8295124149437
 20
67.9194311189236
 30
0.0
 10
207.3987426208886
 20
67.14973461782259
 30
0.0
 10
207.0356673173763
 20
66.35330465242633
 30
0.0
 10
206.74712826399
 20
65.54435108723422
 30
0.0
 10
206.5389344645163
 20
64.73709070552334
 30
0.0
 10
206.4212209573325
 20
63.97984639268518
 30
0.0
 10
206.3894323339663
 20
63.36917621653826
 30
0.0
 10
206.4088128245151
 20
62.78132974949624
 30
0.0
 10
206.4895372857422
 20
62.19278374984511
 30
0.0
 10
206.678222643189
 20
61.55688004189783
 30
0.0
 10
206.963728746091
 20
61.00603759840586
 30
0.0
 10
207.2560774975066
 20
60.61185123978799
 30
0.0
 10
207.4776450889658
 20
60.44424011637696
 30
0.0
 10
207.5461258806529
 20
60.39243586851225
 30
0.0
  0
LINE
  5
1C5
330
1F
100
AcDbEntity
  8
0
  6
Continuous
 62
     7
370
    15
100
AcDbLine
 10
265.4707624597
 20
39.2807024903
 30
0.0
 11
265.364679208
 21
39.3419629546
 31
0.0
  0
LINE
  5
1C6
330
1F
100
AcDbEntity
  8
0
  6
Continuous
 62
     7
370
    15
100
AcDbLine
 10
263.8087915166
 20
39.3419629546
 30
0.0
 11
263.7027082649
 21
39.2807024903
 31
0.0
  0
LINE
  5
1C7
330
1F
100
AcDbEntity
  8
0
  6
Continuous
 62
     7
370
    15
100
AcDbLine
 10
263.3367353623
 20
38.7705303445
 30
0.0
 11
263.3367353623
 21
38.5868086618
 31
0.0
  0
LINE
  5
1C8
330
1F
100
AcDbEntity
  8
0
  6
Continuous
 62
     7
370
    15
100
AcDbLine
 10
265.8367353623
 20
38.5868086618
 30
0.0
 11
265.8367353623
 21
38.7705303445
 31
0.0
  0
LWPOLYLINE
  5
1C9
330
1F
100
AcDbEntity
  8
0
  6
Continuous
 62
     7
370
    15
100
AcDbPolyline
 90
       38
 70
   128
 43
0.0
 10
263.2609101475
 20
31.5752902637
 10
263.3107484755
 20
32.2802420465
 10
263.4588297013
 20
33.0224557586
 10
263.7008937979
 20
33.7805792629
 10
264.0299770217
 20
34.5328027265
 10
264.4366122477
 20
35.2574860499
 10
264.9091013208
 20
35.9337814132
 10
265.4338515905
 20
36.5422330303
 10
265.9957669471
 20
37.0653368559
 10
266.5786821087
 20
37.4880441454
 10
267.1658276676
 20
37.7981943797
 10
267.7403125149
 20
37.9868651011
 10
268.2856097677
 20
38.0486285967
 10
268.7860322166
 20
37.981708043
 10
269.2271836192
 20
37.7880286225
 10
269.5963728525
 20
37.4731621396
 10
269.8829790147
 20
37.0461667297
 10
270.0787569682
 20
36.5193262732
 10
270.1780745378
 20
35.907797011
 10
270.1780745378
 20
35.2291715264
 10
270.0787569682
 20
34.5029726392
 10
269.8829790147
 20
33.750091769
 10
269.5963728525
 20
32.9921879278
 10
269.2271836192
 20
32.2510646292
 10
268.7860322166
 20
31.5480426411
 10
268.2856097677
 20
30.903346626
 10
267.7403125149
 20
30.3355233147
 10
267.1658276676
 20
29.8609079499
 10
266.5786821087
 20
29.4931543514
 10
265.9957669471
 20
29.2428421209
 10
265.4338515905
 20
29.1171722854
 10
264.9091013208
 20
29.1197601372
 10
264.4366122477
 20
29.2505312287
 10
264.0299770217
 20
29.5057235135
 10
263.7008937979
 20
29.8779955743
 10
263.4588297013
 20
30.3566378216
 10
263.3107484755
 20
30.9278805896
 10
263.2609101475
 20
31.5752902637
  0
LWPOLYLINE
  5
1CA
330
1F
100
AcDbEntity
  8
0
  6
Continuous
 62
     7
370
    15
100
AcDbPolyline
 90
       20
 70
   128
 43
0.0
 10
263.1194887913
 20
31.5752902637
 10
263.1677088656
 20
32.275118122
 10
263.3110537704
 20
33.0115302133
 10
263.5456134305
 20
33.7644391354
 10
263.8649896697
 20
34.5133074957
 10
264.2604707369
 20
35.2377081174
 10
264.7212689394
 20
35.9178812399
 10
265.2348149035
 20
36.5352735136
 10
265.787100434
 20
37.0730440867
 10
266.3630606214
 20
37.5165239797
 10
266.9469847731
 20
37.8536162172
 10
267.5229449604
 20
38.0751258019
 10
268.075230491
 20
38.1750105295
 10
268.5887764551
 20
38.1505458051
 10
269.0495746576
 20
38.0023989627
 10
269.4450557248
 20
37.7346110619
 10
269.764431964
 20
37.3544866585
 10
269.9989916241
 20
36.8723945554
 10
270.1423365289
 20
36.3014849684
 10
270.1905566032
 20
35.6573308229
  0
LWPOLYLINE
  5
1CB
330
1F
100
AcDbEntity
  8
0
  6
Continuous
 62
     7
370
    15
100
AcDbPolyline
 90
       11
 70
   128
 43
0.0
 10
266.6555973209
 20
29.533938261
 10
266.3630606214
 20
29.3790048694
 10
265.787100434
 20
29.1574952848
 10
265.2348149035
 20
29.0576105571
 10
264.7212689394
 20
29.0820752815
 10
264.2604707369
 20
29.2302221239
 10
263.8649896697
 20
29.4980100248
 10
263.5456134305
 20
29.8781344281
 10
263.3110537704
 20
30.3602265312
 10
263.1677088656
 20
30.9311361182
 10
263.1194887913
 20
31.5752902637
  0
SPLINE
  5
1CC
330
1F
100
AcDbEntity
  8
0
  6
Continuous
 62
     7
370
    15
100
AcDbSpline
210
0.0
220
0.0
230
1.0
 70
    11
 71
     3
 72
    62
 73
    58
 74
     0
 42
0.000000001
 43
0.00000001
 40
0.0
 40
0.0
 40
0.0
 40
0.0
 40
0.0312500000000001
 40
0.0312500000000001
 40
0.0625000000000002
 40
0.0625000000000002
 40
0.0937500000000003
 40
0.0937500000000003
 40
0.1250000000000004
 40
0.1250000000000004
 40
0.1562500000000005
 40
0.1562500000000005
 40
0.1875000000000006
 40
0.1875000000000006
 40
0.2187500000000007
 40
0.2187500000000007
 40
0.2500000000000008
 40
0.2500000000000008
 40
0.3125000000000026
 40
0.3125000000000026
 40
0.3437500000000025
 40
0.3437500000000025
 40
0.3750000000000024
 40
0.3750000000000024
 40
0.4062500000000022
 40
0.4062500000000022
 40
0.4375000000000021
 40
0.4375000000000021
 40
0.468750000000002
 40
0.468750000000002
 40
0.5000000000000019
 40
0.5000000000000019
 40
0.5312500000000018
 40
0.5312500000000018
 40
0.5625000000000017
 40
0.5625000000000017
 40
0.5937500000000016
 40
0.5937500000000016
 40
0.6250000000000014
 40
0.6250000000000014
 40
0.6562500000000013
 40
0.6562500000000013
 40
0.6875000000000012
 40
0.6875000000000012
 40
0.7187500000000011
 40
0.7187500000000011
 40
0.7500000000000009
 40
0.7500000000000009
 40
0.7812500000000008
 40
0.7812500000000008
 40
0.8125000000000007
 40
0.8125000000000007
 40
0.8750000000000004
 40
0.8750000000000004
 40
0.9375000000000002
 40
0.9375000000000002
 40
1.0
 40
1.0
 40
1.0
 40
1.0
 10
264.5751444543791
 20
39.67254761973062
 30
0.0
 10
264.4759300409054
 20
39.69064715658808
 30
0.0
 10
264.3769311213517
 20
39.70348868049523
 30
0.0
 10
264.1791860142253
 20
39.71683954677587
 30
0.0
 10
264.0795550051067
 20
39.71717557012648
 30
0.0
 10
263.8895355839049
 20
39.70298706188363
 30
0.0
 10
263.7981828793579
 20
39.68865885115164
 30
0.0
 10
263.623473578905
 20
39.6431167154228
 30
0.0
 10
263.5413811177848
 20
39.61189304249172
 30
0.0
 10
263.3958726015031
 20
39.53498243978144
 30
0.0
 10
263.3304313835546
 20
39.48817689440834
 30
0.0
 10
263.2212649881035
 20
39.38307358178186
 30
0.0
 10
263.1773378483297
 20
39.32517128626073
 30
0.0
 10
263.1097688837569
 20
39.19984527185286
 30
0.0
 10
263.08716854406
 20
39.13426031754295
 30
0.0
 10
263.0622453865363
 20
38.99992952969188
 30
0.0
 10
263.0600608671348
 20
38.93061587960759
 30
0.0
 10
263.0819897138435
 20
38.72685929798046
 30
0.0
 10
263.1347831477113
 20
38.59250618198434
 30
0.0
 10
263.2594228274616
 20
38.41355715397628
 30
0.0
 10
263.3090577990076
 20
38.35680440451643
 30
0.0
 10
263.4221931994273
 20
38.25240952910573
 30
0.0
 10
263.4849714388249
 20
38.205269820466
 30
0.0
 10
263.6225392453304
 20
38.12104091795557
 30
0.0
 10
263.6980426359323
 20
38.08369203545497
 30
0.0
 10
263.8582819113961
 20
38.02087354435439
 30
0.0
 10
263.9423485153715
 20
37.99550936728308
 30
0.0
 10
264.1183767049721
 20
37.95622239842121
 30
0.0
 10
264.2112577636761
 20
37.94223778013532
 30
0.0
 10
264.4010729735558
 20
37.92625540646822
 30
0.0
 10
264.4973473149382
 20
37.92416954207841
 30
0.0
 10
264.6928999372975
 20
37.93106562823962
 30
0.0
 10
264.7934021948302
 20
37.94024378129862
 30
0.0
 10
264.9915552487348
 20
37.96918406632109
 30
0.0
 10
265.0886648420469
 20
37.98870550479429
 30
0.0
 10
265.2788306468242
 20
38.03744339857531
 30
0.0
 10
265.3732069639571
 20
38.06723646084869
 30
0.0
 10
265.5475063618003
 20
38.13374956982445
 30
0.0
 10
265.6281792633145
 20
38.17048402184138
 30
0.0
 10
265.775795300285
 20
38.25096035872356
 30
0.0
 10
265.8411297408084
 20
38.29401828359416
 30
0.0
 10
265.9504518536891
 20
38.38242890563485
 30
0.0
 10
265.9955667733133
 20
38.428803083414
 30
0.0
 10
266.0629325157307
 20
38.52130109248662
 30
0.0
 10
266.0859315161156
 20
38.56804420931716
 30
0.0
 10
266.1112506267903
 20
38.66198823498734
 30
0.0
 10
266.1134539783829
 20
38.70829240904505
 30
0.0
 10
266.0990051133894
 20
38.8009579788927
 30
0.0
 10
266.0820744736423
 20
38.84745195100297
 30
0.0
 10
266.0314258947433
 20
38.93847251496156
 30
0.0
 10
265.9976962642065
 20
38.98342333580187
 30
0.0
 10
265.8717140902116
 20
39.11821648658099
 30
0.0
 10
265.7586125755369
 20
39.2044592374885
 30
0.0
 10
265.4792792332426
 20
39.37087953480842
 30
0.0
 10
265.3199314404779
 20
39.44712051768177
 30
0.0
 10
264.9622661230525
 20
39.58165769958491
 30
0.0
 10
264.7735732813267
 20
39.6363485460157
 30
0.0
 10
264.5751444543791
 20
39.67254761973063
 30
0.0
  0
ARC
  5
1CD
330
1F
100
AcDbEntity
  8
0
  6
Continuous
 62
     7
370
    15
100
AcDbCircle
 10
248.2186060548
 20
56.2247770707
 30
0.0
 40
5.385418431242446
100
AcDbArc
 50
40.6396958219
 51
79.200585758
  0
ARC
  5
1CE
330
1F
100
AcDbEntity
  8
0
  6
Continuous
 62
     7
370
    15
100
AcDbCircle
 10
237.8567670633
 20
38.2760760489
 30
0.0
 40
5.385617906332066
100
AcDbArc
 50
220.5828918272
 51
259.1743886033
  0
ARC
  5
1CF
330
1F
100
AcDbEntity
  8
0
  6
Continuous
 62
     7
370
    15
100
AcDbCircle
 10
237.3351652963
 20
40.2230893349
 30
0.0
 40
6.822599269022637
100
AcDbArc
 50
188.054640006
 51
236.9718447289
  0
SPLINE
  5
1D0
330
1F
100
AcDbEntity
  8
0
  6
Continuous
 62
     7
370
    15
100
AcDbSpline
210
0.0
220
0.0
230
1.0
 70
     8
 71
     3
 72
    29
 73
    25
 74
     0
 42
0.000000001
 43
0.00000001
 40
0.0
 40
0.0
 40
0.0
 40
0.0
 40
0.0226170105032921
 40
0.0451713142240263
 40
0.0676870228488737
 40
0.0901883721253699
 40
0.1126996441678027
 40
0.135245089017566
 40
0.1578488467194459
 40
0.1805348711560506
 40
0.2033268568175892
 40
0.2262481695777687
 40
0.2493217824054336
 40
0.3751991801893576
 40
0.4999614246459921
 40
0.4999717960761083
 40
0.6247044141127994
 40
0.7509557879396762
 40
0.7931713871196463
 40
0.834908104506354
 40
0.8763104515934291
 40
0.9175264576337788
 40
0.9587061619419142
 40
1.0
 40
1.0
 40
1.0
 40
1.0
 10
230.5800330206804
 20
44.42137777658672
 30
0.0
 10
230.598398245804
 20
44.37253788678481
 30
0.0
 10
230.6350777775542
 20
44.27499351819604
 30
0.0
 10
230.6867676062207
 20
44.1275309087902
 30
0.0
 10
230.7359489660445
 20
43.9795936192667
 30
0.0
 10
230.7824386359443
 20
43.83110175403363
 30
0.0
 10
230.8263487324039
 20
43.68210978790042
 30
0.0
 10
230.8677139238595
 20
43.5326379993223
 30
0.0
 10
230.9065912105639
 20
43.38271789601446
 30
0.0
 10
230.9430330555857
 20
43.232379086035
 30
0.0
 10
230.9770950366718
 20
43.08165663441263
 30
0.0
 10
231.0088320897679
 20
42.93057493768061
 30
0.0
 10
231.0819903616349
 20
42.55485373073081
 30
0.0
 10
231.167666901666
 20
41.96608330902188
 30
0.0
 10
231.1933992634949
 20
41.46459970501056
 30
0.0
 10
231.1938364197281
 20
40.99414687976785
 30
0.0
 10
231.1684053630052
 20
40.54770434988316
 30
0.0
 10
231.0764380469701
 20
40.1116776783896
 30
0.0
 10
230.9838841529252
 20
39.84348479576827
 30
0.0
 10
230.920301529036
 20
39.69723368493108
 30
0.0
 10
230.8486560250003
 20
39.56631335308438
 30
0.0
 10
230.7684012506881
 20
39.45086702063467
 30
0.0
 10
230.6799995910948
 20
39.3493450161922
 30
0.0
 10
230.6136429371832
 20
39.29434613923223
 30
0.0
 10
230.5804186952981
 20
39.26680864474126
 30
0.0
  0
LWPOLYLINE
  5
1D1
330
1F
100
AcDbEntity
  8
0
  6
Continuous
 62
     7
370
    15
100
AcDbPolyline
 90
       24
 70
   128
 43
0.0
 10
230.5798142795
 20
44.4215040532
 10
230.8388056568
 20
45.7473938446
 10
231.1926847878
 20
47.0946259539
 10
231.6382993422
 20
48.4511993321
 10
232.1716798166
 20
49.8050297186
 10
232.7880748954
 20
51.1440572873
 10
233.4819937743
 20
52.4563540747
 10
234.2472550726
 20
53.730230233
 10
235.0770418965
 20
54.9543381627
 10
235.9639625632
 20
56.1177735964
 10
236.9001164454
 20
57.2101727329
 10
237.8771643503
 20
58.2218045572
 10
238.8864028035
 20
59.143657524
 10
239.9188415798
 20
59.9675198319
 10
240.9652837869
 20
60.6860525731
 10
242.0164077911
 20
61.2928551085
 10
243.0628502536
 20
61.7825220836
 10
244.0952895383
 20
62.1506915794
 10
245.1045287485
 20
62.3940839678
 10
246.0815776521
 20
62.5105311265
 10
247.0177327661
 20
62.4989957525
 10
247.9046548863
 20
62.3595806019
 10
248.7344433728
 20
62.0935275752
 10
249.3652201413
 20
61.7835419655
  0
SPLINE
  5
1D2
330
1F
100
AcDbEntity
  8
0
  6
Continuous
 62
     7
370
    15
100
AcDbSpline
210
0.0
220
0.0
230
1.0
 70
     8
 71
     3
 72
     8
 73
     4
 74
     0
 42
0.000000001
 43
0.00000001
 40
0.0
 40
0.0
 40
0.0
 40
0.0
 40
1.0
 40
1.0
 40
1.0
 40
1.0
 10
229.8018778825054
 20
47.70028118009107
 30
0.0
 10
229.1088066474525
 20
47.58441956171637
 30
0.0
 10
228.4151858810563
 20
47.4696608685633
 30
0.0
 10
227.7212067202289
 20
47.35564932092515
 30
0.0
  0
SPLINE
  5
1D3
330
1F
100
AcDbEntity
  8
0
  6
Continuous
 62
     7
370
    15
100
AcDbSpline
210
0.0
220
0.0
230
1.0
 70
     8
 71
     3
 72
     8
 73
     4
 74
     0
 42
0.000000001
 43
0.00000001
 40
0.0
 40
0.0
 40
0.0
 40
0.0
 40
0.0012389803509652
 40
0.0012389803509652
 40
0.0012389803509652
 40
0.0012389803509652
 10
227.2474703060834
 20
47.62918344167915
 30
0.0
 10
227.4055436410644
 20
47.53791236122864
 30
0.0
 10
227.5634618200304
 20
47.44673083412839
 30
0.0
 10
227.7212067202289
 20
47.35564932092515
 30
0.0
  0
LWPOLYLINE
  5
1D4
330
1F
100
AcDbEntity
  8
0
  6
Continuous
 62
     7
370
    15
100
AcDbPolyline
 90
       26
 70
   128
 43
0.0
 10
227.2474703061
 20
47.6291834417
 10
227.5931356968
 20
48.9870701197
 10
228.0326861033
 20
50.355915203
 10
228.562132242
 20
51.7232952894
 10
229.1766689508
 20
53.0768002729
 10
229.8707188005
 20
54.4041459756
 10
230.6379827144
 20
55.6932856366
 10
231.4714971373
 20
56.9325192466
 10
232.3636972361
 20
58.1105997348
 10
233.3064855563
 20
59.2168350458
 10
234.2913055136
 20
60.2411851786
 10
235.3092190519
 20
61.1743533079
 10
236.3509877633
 20
62.0078701605
 10
237.4071567346
 20
62.7341708811
 10
238.468140358
 20
63.3466636897
 10
239.5243093293
 20
63.839789707
 10
240.5660780407
 20
64.2090734062
 10
241.583991579
 20
64.4511632322
 10
242.5688115363
 20
64.5638620195
 10
243.5115998565
 20
64.5461469332
 10
244.4037999553
 20
64.3981787524
 10
245.2373143782
 20
64.1213004108
 10
246.0045782921
 20
63.7180248086
 10
246.6986281418
 20
63.1920120056
 10
247.3131648506
 20
62.5480360033
 10
247.3856455644
 20
62.4575643053
  0
LINE
  5
1D5
330
1F
100
AcDbEntity
  8
0
  6
Continuous
 62
     7
370
    15
100
AcDbLine
 10
224.2157499817
 20
49.3793583314
 30
0.0
 11
227.2474703061
 21
47.6291834417
 31
0.0
  0
ARC
  5
1D6
330
1F
100
AcDbEntity
  8
0
  6
Continuous
 62
     7
370
    15
100
AcDbCircle
 10
240.0677381823
 20
60.8507022142
 30
0.0
 40
5.456276790029754
100
AcDbArc
 50
60.1888352859
 51
79.3502771967
  0
LINE
  5
1D7
330
1F
100
AcDbEntity
  8
0
  6
Continuous
 62
     7
370
    15
100
AcDbLine
 10
230.204473285
 20
47.6391187894
 30
0.0
 11
230.1951506341
 21
47.6445006412
 31
0.0
  0
SPLINE
  5
1D8
330
1F
100
AcDbEntity
  8
0
  6
Continuous
 62
     7
370
    15
100
AcDbSpline
210
0.0
220
0.0
230
1.0
 70
     8
 71
     3
 72
    10
 73
     6
 74
     0
 42
0.000000001
 43
0.00000001
 40
0.0
 40
0.0
 40
0.0
 40
0.0
 40
0.2467742107334164
 40
0.7153638603754585
 40
1.0
 40
1.0
 40
1.0
 40
1.0
 10
231.1280645425227
 20
46.82916374749489
 30
0.0
 10
231.0601316402392
 20
46.91279973122008
 30
0.0
 10
230.8632036748753
 20
47.15524872946075
 30
0.0
 10
230.5480558563275
 20
47.42325807994816
 30
0.0
 10
230.2987016346443
 20
47.57991846867577
 30
0.0
 10
230.2044732849644
 20
47.63911878936968
 30
0.0
  0
SPLINE
  5
1D9
330
1F
100
AcDbEntity
  8
0
  6
Continuous
 62
     7
370
    15
100
AcDbSpline
210
0.0
220
0.0
230
1.0
 70
     8
 71
     3
 72
    10
 73
     6
 74
     0
 42
0.000000001
 43
0.00000001
 40
0.0
 40
0.0
 40
0.0
 40
0.0
 40
0.5
 40
0.5
 40
1.0
 40
1.0
 40
1.0
 40
1.0
 10
230.1951506340573
 20
47.64450064118241
 30
0.0
 10
230.1453500352445
 20
47.67324991493153
 30
0.0
 10
230.0803181185006
 20
47.6940132602922
 30
0.0
 10
229.9432597581551
 20
47.71296694967998
 30
0.0
 10
229.8697209181053
 20
47.71162258845218
 30
0.0
 10
229.8018778825054
 20
47.70028118009107
 30
0.0
  0
SPLINE
  5
1DA
330
1F
100
AcDbEntity
  8
0
  6
Continuous
 62
     7
370
    15
100
AcDbSpline
210
0.0
220
0.0
230
1.0
 70
     8
 71
     3
 72
     8
 73
     4
 74
     0
 42
0.000000001
 43
0.00000001
 40
0.0
 40
0.0
 40
0.0
 40
0.0
 40
1.0
 40
1.0
 40
1.0
 40
1.0
 10
224.058925374185
 20
49.46988001058794
 30
0.0
 10
224.0813041707044
 20
49.45696805913609
 30
0.0
 10
224.1354916017216
 20
49.42569050797907
 30
0.0
 10
224.2157499817461
 20
49.37935833139908
 30
0.0
  0
LINE
  5
1DB
330
1F
100
AcDbEntity
  8
0
  6
Continuous
 62
     7
370
    15
100
AcDbLine
 10
224.0589253742
 20
49.4698800106
 30
0.0
 11
224.0815819601
 21
49.6132967531
 31
0.0
  0
SPLINE
  5
1DC
330
1F
100
AcDbEntity
  8
0
  6
Continuous
 62
     7
370
    15
100
AcDbSpline
210
0.0
220
0.0
230
1.0
 70
     8
 71
     3
 72
    11
 73
     7
 74
     0
 42
0.000000001
 43
0.00000001
 40
0.0
 40
0.0
 40
0.0
 40
0.0
 40
0.2913010432653671
 40
0.5549855813085073
 40
0.791374822372444
 40
0.9999999999999999
 40
0.9999999999999999
 40
0.9999999999999999
 40
0.9999999999999999
 10
230.6884583699641
 20
39.99293738350175
 30
0.0
 10
230.7793952206843
 20
40.0844948995642
 30
0.0
 10
230.9526477445805
 20
40.25892991258537
 30
0.0
 10
231.1037380032442
 20
40.67632860298905
 30
0.0
 10
231.1823242335584
 20
41.13043157211018
 30
0.0
 10
231.1899527683334
 20
41.47436553064907
 30
0.0
 10
231.1935290668884
 20
41.63560363930025
 30
0.0
  0
SPLINE
  5
1DD
330
1F
100
AcDbEntity
  8
0
  6
Continuous
 62
     7
370
    15
100
AcDbSpline
210
0.0
220
0.0
230
1.0
 70
     8
 71
     3
 72
     9
 73
     5
 74
     0
 42
0.000000001
 43
0.00000001
 40
0.0
 40
0.0
 40
0.0
 40
0.0
 40
0.5067649320089164
 40
1.0
 40
1.0
 40
1.0
 40
1.0
 10
230.5797369054917
 20
39.26630661695761
 30
0.0
 10
230.5980058208526
 20
39.38876073569382
 30
0.0
 10
230.6340558989205
 20
39.63039963176103
 30
0.0
 10
230.6707367520037
 20
39.87254990214764
 30
0.0
 10
230.6888290350681
 20
39.99198690722585
 30
0.0
  0
SPLINE
  5
1DE
330
1F
100
AcDbEntity
  8
0
  6
Continuous
 62
     7
370
    15
100
AcDbSpline
210
0.0
220
0.0
230
1.0
 70
     8
 71
     3
 72
    10
 73
     6
 74
     0
 42
0.000000001
 43
0.00000001
 40
0.0
 40
0.0
 40
0.0
 40
0.0
 40
0.4807908150166064
 40
0.975781759036066
 40
1.0
 40
1.0
 40
1.0
 40
1.0
 10
230.2044732849644
 20
41.0659652536894
 30
0.0
 10
230.3542642318646
 20
40.98579487832738
 30
0.0
 10
230.658270192646
 20
40.823086300189
 30
0.0
 10
230.9478856368438
 20
40.71158486946782
 30
0.0
 10
231.0822240675217
 20
40.68335325198858
 30
0.0
 10
231.0884902133815
 20
40.68203640295224
 30
0.0
  0
LINE
  5
1DF
330
1F
100
AcDbEntity
  8
0
  6
Continuous
 62
     7
370
    15
100
AcDbLine
 10
224.4923586217
 20
49.2196236524
 30
0.0
 11
224.0589253742
 21
49.4698800106
 31
0.0
  0
LINE
  5
1E0
330
1F
100
AcDbEntity
  8
0
  6
Continuous
 62
     7
370
    15
100
AcDbLine
 10
227.7212067202
 20
47.3556493209
 30
0.0
 11
224.4923586217
 21
49.2196236524
 31
0.0
  0
SPLINE
  5
1E1
330
1F
100
AcDbEntity
  8
0
  6
Continuous
 62
     7
370
    15
100
AcDbSpline
210
0.0
220
0.0
230
1.0
 70
     8
 71
     3
 72
    11
 73
     7
 74
     0
 42
0.000000001
 43
0.00000001
 40
0.0
 40
0.0
 40
0.0
 40
0.0
 40
0.2180025369760411
 40
0.5290085500344824
 40
0.8400525035994066
 40
1.0
 40
1.0
 40
1.0
 40
1.0
 10
226.5974235430214
 20
45.2057977066032
 30
0.0
 10
226.5927013583962
 20
45.41219203724254
 30
0.0
 10
226.5812424273389
 20
45.91303192241715
 30
0.0
 10
226.5161700149648
 20
46.73175846503896
 30
0.0
 10
226.4754420528567
 20
47.4859248533464
 30
0.0
 10
226.4963270844433
 20
47.91346972068545
 30
0.0
 10
226.5034195879585
 20
48.05866286832074
 30
0.0
  0
LINE
  5
1E2
330
1F
100
AcDbEntity
  8
0
  6
Continuous
 62
     7
370
    15
100
AcDbLine
 10
226.597423543
 20
44.7854423512
 30
0.0
 11
226.597423543
 21
45.2057977066
 31
0.0
  0
LINE
  5
1E3
330
1F
100
AcDbEntity
  8
0
  6
Continuous
 62
     7
370
    15
100
AcDbLine
 10
225.9875439442
 20
48.0208111663
 30
0.0
 11
225.9927318389
 21
48.3534766305
 31
0.0
  0
ARC
  5
1E4
330
1F
100
AcDbEntity
  8
0
  6
Continuous
 62
     7
370
    15
100
AcDbCircle
 10
233.4813400051
 20
47.8349457652
 30
0.0
 40
7.496100676305757
100
AcDbArc
 50
178.5792087138
 51
203.3164212113
  0
LINE
  5
1E5
330
1F
100
AcDbEntity
  8
0
  6
Continuous
 62
     7
370
    15
100
AcDbLine
 10
213.7304871528
 20
71.4879749067
 30
0.0
 11
213.880790564
 21
71.4397640736
 31
0.0
  0
LINE
  5
1E6
330
1F
100
AcDbEntity
  8
0
  6
Continuous
 62
     7
370
    15
100
AcDbLine
 10
230.1951506341
 20
41.0713471055
 30
0.0
 11
230.204473285
 21
41.0659652537
 31
0.0
  0
ARC
  5
1E7
330
1F
100
AcDbEntity
  8
0
  6
Continuous
 62
     7
370
    15
100
AcDbCircle
 10
233.0011617861
 20
41.6958357714
 30
0.0
 40
5.894055296995453
100
AcDbArc
 50
192.5292124781
 51
260.6428941703
  0
SPLINE
  5
1E8
330
1F
100
AcDbEntity
  8
0
  6
Continuous
 62
     7
370
    15
100
AcDbSpline
210
0.0
220
0.0
230
1.0
 70
     8
 71
     3
 72
     8
 73
     4
 74
     0
 42
0.000000001
 43
0.00000001
 40
0.0
 40
0.0
 40
0.0
 40
0.0
 40
0.0012389803509652
 40
0.0012389803509652
 40
0.0012389803509652
 40
0.0012389803509652
 10
227.7212067202289
 20
40.78249578524485
 30
0.0
 10
227.5634618200304
 20
40.66041933471013
 30
0.0
 10
227.4055436410644
 20
40.53866203170932
 30
0.0
 10
227.2474703060834
 20
40.41719501016489
 30
0.0
  0
SPLINE
  5
1E9
330
1F
100
AcDbEntity
  8
0
  6
Continuous
 62
     7
370
    15
100
AcDbSpline
210
0.0
220
0.0
230
1.0
 70
     8
 71
     3
 72
     8
 73
     4
 74
     0
 42
0.000000001
 43
0.00000001
 40
0.0
 40
0.0
 40
0.0
 40
0.0
 40
1.0
 40
1.0
 40
1.0
 40
1.0
 10
227.7212067202289
 20
40.78249578524485
 30
0.0
 10
228.4151873031705
 20
40.89650756651747
 30
0.0
 10
229.1088203639325
 20
41.01126831903784
 30
0.0
 10
229.8018778825054
 20
41.12712764441079
 30
0.0
  0
SPLINE
  5
1EA
330
1F
100
AcDbEntity
  8
0
  6
Continuous
 62
     7
370
    15
100
AcDbSpline
210
0.0
220
0.0
230
1.0
 70
     8
 71
     3
 72
    12
 73
     8
 74
     0
 42
0.000000001
 43
0.00000001
 40
0.0
 40
0.0
 40
0.0
 40
0.0
 40
0.2499999999999987
 40
0.2499999999999987
 40
0.4999999999999973
 40
0.4999999999999973
 40
1.0
 40
1.0
 40
1.0
 40
1.0
 10
229.8018778825054
 20
41.12712764441079
 30
0.0
 10
229.8356663984295
 20
41.13277611449504
 30
0.0
 10
229.8712381744984
 20
41.13603657801048
 30
0.0
 10
229.9418204208909
 20
41.13717416755861
 30
0.0
 10
229.9768433793397
 20
41.13515755110058
 30
0.0
 10
230.0810486746047
 20
41.12078181376098
 30
0.0
 10
230.1447591065444
 20
41.10043751512858
 30
0.0
 10
230.1951506340573
 20
41.07134710550213
 30
0.0
  0
LINE
  5
1EB
330
1F
100
AcDbEntity
  8
0
  6
Continuous
 62
     7
370
    15
100
AcDbLine
 10
224.4923586217
 20
42.6464701167
 30
0.0
 11
227.7212067202
 21
40.7824957852
 31
0.0
  0
LINE
  5
1EC
330
1F
100
AcDbEntity
  8
0
  6
Continuous
 62
     7
370
    15
100
AcDbLine
 10
224.4923586217
 20
42.6464701167
 30
0.0
 11
226.3852915087
 21
43.7392370122
 31
0.0
  0
LINE
  5
1ED
330
1F
100
AcDbEntity
  8
0
  6
Continuous
 62
     7
370
    15
100
AcDbLine
 10
224.0589253742
 20
42.3962137585
 30
0.0
 11
224.4923586217
 21
42.6464701167
 31
0.0
  0
LINE
  5
1EE
330
1F
100
AcDbEntity
  8
0
  6
Continuous
 62
     7
370
    15
100
AcDbLine
 10
227.2474703061
 20
40.4171950102
 30
0.0
 11
224.2157499817
 21
42.1673698999
 31
0.0
  0
SPLINE
  5
1EF
330
1F
100
AcDbEntity
  8
0
  6
Continuous
 62
     7
370
    15
100
AcDbSpline
210
0.0
220
0.0
230
1.0
 70
     8
 71
     3
 72
     8
 73
     4
 74
     0
 42
0.000000001
 43
0.00000001
 40
0.0
 40
0.0
 40
0.0
 40
0.0
 40
1.0
 40
1.0
 40
1.0
 40
1.0
 10
224.2157499817461
 20
42.16736989988483
 30
0.0
 10
224.1357251822313
 20
42.21356723330678
 30
0.0
 10
224.0812483848494
 20
42.29675475567148
 30
0.0
 10
224.058925374185
 20
42.3962137585126
 30
0.0
  0
ARC
  5
1F0
330
1F
100
AcDbEntity
  8
0
  6
Continuous
 62
     7
370
    15
100
AcDbCircle
 10
229.7421222847
 20
42.9808186641
 30
0.0
 40
5.405179574300105
100
AcDbArc
 50
220.9676728376
 51
239.9024689524
  0
ELLIPSE
  5
1F1
330
1F
100
AcDbEntity
  8
0
  6
Continuous
 62
     7
370
    15
100
AcDbEllipse
 10
226.1509769336
 20
44.5277365866
 30
0.0
 11
-6.005970385558612E-5
 21
0.8534489614827194
 31
0.0
210
0.0
220
0.0
230
1.0
 40
0.7174342186
 41
3.534193645557484
 42
5.104989972352339
  0
ELLIPSE
  5
1F2
330
1F
100
AcDbEntity
  8
0
  6
Continuous
 62
     7
370
    15
100
AcDbEllipse
 10
226.0317381181
 20
44.4588791065
 30
0.0
 11
0.2600075789209484
 21
0.9705436209909308
 31
0.0
210
0.0
220
0.0
230
1.0
 40
0.5176380889
 41
3.61917435134774
 42
5.189970678142644
  0
LWPOLYLINE
  5
1F3
330
1F
100
AcDbEntity
  8
0
  6
Continuous
 62
     7
370
    15
100
AcDbPolyline
 90
       11
 70
   128
 43
0.0
 10
263.7553396563
 20
38.2316758867
 10
264.1034693882
 20
38.105031528
 10
264.5039684871
 20
38.0505042924
 10
264.9134366611
 20
38.0740030519
 10
265.2875016801
 20
38.1729813513
 10
265.5856277951
 20
38.336713356
 10
265.7755084155
 20
38.5474561628
 10
265.83656703
 20
38.7823725185
 10
265.76218699
 20
39.0160055909
 10
265.5604285272
 20
39.2230376115
 10
265.4707624597
 20
39.2807024903
  0
LWPOLYLINE
  5
1F4
330
1F
100
AcDbEntity
  8
0
  6
Continuous
 62
     7
370
    15
100
AcDbPolyline
 90
        6
 70
   128
 43
0.0
 10
263.7027082649
 20
39.2807024903
 10
263.4777778846
 20
39.1035174395
 10
263.3505733633
 20
38.8776067306
 10
263.3573261756
 20
38.6400926339
 10
263.4973045496
 20
38.416713487
 10
263.7553396563
 20
38.2316758867
  0
LWPOLYLINE
  5
1F5
330
1F
100
AcDbEntity
  8
0
  6
Continuous
 62
     7
370
    15
100
AcDbPolyline
 90
       18
 70
   128
 43
0.0
 10
263.855107141
 20
38.4188195434
 10
264.2012411468
 20
38.2982666432
 10
264.5994382825
 20
38.2580373269
 10
264.9959198184
 20
38.3035647867
 10
265.3371387262
 20
38.4287002868
 10
265.5770115015
 20
38.6165435845
 10
265.6831419969
 20
38.8417254016
 10
265.6411967009
 20
39.0738336859
 10
265.4568405581
 20
39.2815209275
 10
265.1549718873
 20
39.4367378136
 10
264.776359725
 20
39.5185214435
 10
264.3721377418
 20
39.515826485
 10
263.9968983563
 20
39.429016907
 10
263.7013197269
 20
39.2698168242
 10
263.5253213854
 20
39.0597270898
 10
263.4926728829
 20
38.8271214867
 10
263.6077835806
 20
38.6034146904
 10
263.855107141
 20
38.4188195434
  0
LWPOLYLINE
  5
1F6
330
1F
100
AcDbEntity
  8
0
  6
Continuous
 62
     7
370
    15
100
AcDbPolyline
 90
       17
 70
   128
 43
0.0
 10
264.0712700246
 20
38.5589217024
 10
264.3319752489
 20
38.4704769716
 10
264.6314653911
 20
38.4463592872
 10
264.9241457919
 20
38.4902403482
 10
265.1654585134
 20
38.5954396608
 10
265.3186658813
 20
38.7459415833
 10
265.3604434626
 20
38.9188335623
 10
265.2844309993
 20
39.0877943612
 10
265.1022007
 20
39.2271012301
 10
264.8414954756
 20
39.315545961
 10
264.5420053334
 20
39.3396636453
 10
264.2493249326
 20
39.2957825843
 10
264.0080122111
 20
39.1905832717
 10
263.8548048433
 20
39.0400813492
 10
263.8130272619
 20
38.8671893703
 10
263.8890397252
 20
38.6982285713
 10
264.0712700246
 20
38.5589217024
  0
SPLINE
  5
1F7
330
1F
100
AcDbEntity
  8
0
  6
Continuous
 62
     7
370
    15
100
AcDbSpline
210
0.0
220
0.0
230
1.0
 70
     8
 71
     3
 72
    10
 73
     6
 74
     0
 42
0.000000001
 43
0.00000001
 40
0.0
 40
0.0
 40
0.0
 40
0.0
 40
0.4391119879276966
 40
0.7513633230734827
 40
1.0
 40
1.0
 40
1.0
 40
1.0
 10
265.1256482124087
 20
38.57237803483245
 30
0.0
 10
265.1465835645085
 20
38.59582999672701
 30
0.0
 10
265.1824059882999
 20
38.63595858466388
 30
0.0
 10
265.2344805512803
 20
38.80781689734786
 30
0.0
 10
265.2603998467196
 20
38.92736263603053
 30
0.0
 10
265.2718896403105
 20
38.98035620081891
 30
0.0
  0
SPLINE
  5
1F8
330
1F
100
AcDbEntity
  8
0
  6
Continuous
 62
     7
370
    15
100
AcDbSpline
210
0.0
220
0.0
230
1.0
 70
     8
 71
     3
 72
    11
 73
     7
 74
     0
 42
0.000000001
 43
0.00000001
 40
0.0
 40
0.0
 40
0.0
 40
0.0
 40
0.1855070912791278
 40
0.5226425778602978
 40
0.8775754485095912
 40
1.0
 40
1.0
 40
1.0
 40
1.0
 10
265.2718896403105
 20
38.98035620081891
 30
0.0
 10
265.2404262127987
 20
38.98056400629007
 30
0.0
 10
265.1517820173144
 20
38.98114947171029
 30
0.0
 10
264.9859071334953
 20
39.03346171023472
 30
0.0
 10
264.834178693875
 20
39.15285041668155
 30
0.0
 10
264.7536336258469
 20
39.23610607339936
 30
0.0
 10
264.7329767901704
 20
39.25745807498139
 30
0.0
  0
SPLINE
  5
1F9
330
1F
100
AcDbEntity
  8
0
  6
Continuous
 62
     7
370
    15
100
AcDbSpline
210
0.0
220
0.0
230
1.0
 70
     8
 71
     3
 72
    10
 73
     6
 74
     0
 42
0.000000001
 43
0.00000001
 40
0.0
 40
0.0
 40
0.0
 40
0.0
 40
0.4391119879276927
 40
0.7513633230734764
 40
1.0
 40
1.0
 40
1.0
 40
1.0
 10
264.7329767901704
 20
39.25745807498139
 30
0.0
 10
264.634892777594
 20
39.20376973561744
 30
0.0
 10
264.4670614915989
 20
39.11190376478578
 30
0.0
 10
264.2230874678555
 20
39.091883409413
 30
0.0
 10
264.1016532312725
 20
39.11592455619473
 30
0.0
 10
264.0478225121285
 20
39.12658178315743
 30
0.0
  0
SPLINE
  5
1FA
330
1F
100
AcDbEntity
  8
0
  6
Continuous
 62
     7
370
    15
100
AcDbSpline
210
0.0
220
0.0
230
1.0
 70
     8
 71
     3
 72
    10
 73
     6
 74
     0
 42
0.000000001
 43
0.00000001
 40
0.0
 40
0.0
 40
0.0
 40
0.0
 40
0.4391119879276915
 40
0.7513633230734826
 40
1.0
 40
1.0
 40
1.0
 40
1.0
 10
264.0478225121285
 20
39.12658178315743
 30
0.0
 10
264.0268871600287
 20
39.03322462090009
 30
0.0
 10
263.9910647362373
 20
38.87348143557413
 30
0.0
 10
263.9389901732569
 20
38.75478891045372
 30
0.0
 10
263.9130708778176
 20
38.7297175352487
 30
0.0
 10
263.9015810842267
 20
38.71860361717098
 30
0.0
  0
SPLINE
  5
1FB
330
1F
100
AcDbEntity
  8
0
  6
Continuous
 62
     7
370
    15
100
AcDbSpline
210
0.0
220
0.0
230
1.0
 70
     8
 71
     3
 72
     9
 73
     5
 74
     0
 42
0.000000001
 43
0.00000001
 40
0.0
 40
0.0
 40
0.0
 40
0.0
 40
0.4445014438482454
 40
1.0
 40
1.0
 40
1.0
 40
1.0
 10
263.9015810842267
 20
38.71860361717098
 30
0.0
 10
263.9220905198185
 20
38.6966335310949
 30
0.0
 10
263.9682308324668
 20
38.64720717628745
 30
0.0
 10
264.0193987871697
 20
38.61158784560431
 30
0.0
 10
264.0478225121285
 20
38.59180135883872
 30
0.0
  0
LINE
  5
1FC
330
1F
100
AcDbEntity
  8
0
  6
Continuous
 62
     7
370
    15
100
AcDbLine
 10
264.0478225121
 20
38.5918013588
 30
0.0
 11
264.0478225121
 21
39.1265817832
 31
0.0
  0
LINE
  5
1FD
330
1F
100
AcDbEntity
  8
0
  6
Continuous
 62
     7
370
    15
100
AcDbLine
 10
264.7329767902
 20
38.4536509734
 30
0.0
 11
264.7329767902
 21
39.257458075
 31
0.0
  0
ARC
  5
1FE
330
1F
100
AcDbEntity
  8
0
  6
Continuous
 62
     7
370
     0
100
AcDbCircle
 10
243.3728517007
 20
44.1254076567
 30
0.0
 40
2.471036411269254
100
AcDbArc
 50
173.7855481268
 51
234.9022714798
  0
LWPOLYLINE
  5
1FF
330
1F
100
AcDbEntity
  8
0
  6
Continuous
 62
     7
370
     0
100
AcDbPolyline
 90
       16
 70
   128
 43
0.0
 10
246.9516665996
 20
50.7641622108
 10
246.8464217283
 20
50.8200063183
 10
246.3856235258
 20
50.9681531607
 10
245.8720775617
 20
50.9926178851
 10
245.3197920312
 20
50.8927331575
 10
244.7438318438
 20
50.6712235729
 10
244.1599076921
 20
50.3341313353
 10
243.5839475048
 20
49.8906514423
 10
243.0316619743
 20
49.3528808692
 10
242.5181160102
 20
48.7354885955
 10
242.0573178076
 20
48.055315473
 10
241.6618367405
 20
47.3309148513
 10
241.3424605012
 20
46.582046491
 10
241.1079008411
 20
45.8291375689
 10
240.9645559363
 20
45.0927254776
 10
240.916335862
 20
44.3928976194
  0
LWPOLYLINE
  5
200
330
1F
100
AcDbEntity
  8
0
  6
Continuous
 62
     7
370
     0
100
AcDbPolyline
 90
       31
 70
   128
 43
0.0
 10
264.4276363365
 20
32.248826956
 10
264.4778552705
 20
32.8295649672
 10
264.6263172643
 20
33.4429034877
 10
264.8665338162
 20
34.062036681
 10
265.1880063103
 20
34.6599054557
 10
265.5766848559
 20
35.2103800774
 10
266.0155823356
 20
35.6894021636
 10
266.4855168234
 20
36.0760361507
 10
266.9659499273
 20
36.353384278
 10
267.4358844151
 20
36.5093251016
 10
267.8747818948
 20
36.5370432591
 10
268.2634604404
 20
36.4353273341
 10
268.5849329345
 20
36.2086228007
 10
268.8251494864
 20
35.8668377347
 10
268.9736114802
 20
35.4249097836
 10
269.0238304142
 20
34.9021533194
 10
268.9736114802
 20
34.3214153082
 10
268.8251494864
 20
33.7080767877
 10
268.5849329345
 20
33.0889435944
 10
268.2634604404
 20
32.4910748197
 10
267.8747818948
 20
31.940600198
 10
267.4358844151
 20
31.4615781118
 10
266.9659499273
 20
31.0749441248
 10
266.4855168234
 20
30.7975959974
 10
266.0155823356
 20
30.6416551739
 10
265.5766848559
 20
30.6139370163
 10
265.1880063103
 20
30.7156529413
 10
264.8665338162
 20
30.9423574748
 10
264.6263172643
 20
31.2841425408
 10
264.4778552705
 20
31.7260704919
 10
264.4276363365
 20
32.248826956
  0
LWPOLYLINE
  5
201
330
1F
100
AcDbEntity
  8
0
  6
Continuous
 62
     7
370
     0
100
AcDbPolyline
 90
       16
 70
   128
 43
0.0
 10
267.7578356037
 20
36.1549125579
 10
267.892485428
 20
36.0572842065
 10
268.1241532741
 20
35.7652652142
 10
268.2679698639
 20
35.3736762838
 10
268.316723633
 20
34.9021533194
 10
268.2679698639
 20
34.3743404514
 10
268.1241532741
 20
33.8167044209
 10
267.892485428
 20
33.2572074269
 10
267.5845831187
 20
32.723904985
 10
267.2158858538
 20
32.2435391065
 10
266.8048816535
 20
31.8401973424
 10
266.3721799848
 20
31.534104933
 10
265.939478316
 20
31.3406106297
 10
265.5284741158
 20
31.269417045
 10
265.1597768508
 20
31.3240941223
 10
264.9710796224
 20
31.4136779231
  0
LWPOLYLINE
  5
202
330
1F
100
AcDbEntity
  8
0
  6
Continuous
 62
     7
370
     0
100
AcDbPolyline
 90
       40
 70
   128
 43
0.0
 10
232.6078311831
 20
40.8211121301
 10
232.6552135417
 20
42.0145123764
 10
232.7969442197
 20
43.2521314851
 10
233.0317776827
 20
44.5230932151
 10
233.3576502059
 20
45.8162283091
 10
233.7716980097
 20
47.1201726492
 10
234.2702824273
 20
48.4234671259
 10
234.8490218808
 20
49.7146583402
 10
235.502830387
 20
50.9823992575
 10
236.2259622534
 20
52.2155489249
 10
237.0120625711
 20
53.4032703789
 10
237.8542230622
 20
54.5351258805
 10
238.74504279
 20
55.601168643
 10
239.6766931988
 20
56.5920302443
 10
240.6409869113
 20
57.4990029569
 10
241.6294496796
 20
58.314116272
 10
242.6333948574
 20
59.0302069445
 10
243.6439997383
 20
59.6409819438
 10
244.6523830905
 20
60.1410737574
 10
245.6496832045
 20
60.5260875603
 10
246.6271357714
 20
60.7926398373
 10
247.5761509026
 20
60.9383881176
 10
248.4883886192
 20
60.9620515599
 10
249.3558321432
 20
60.8634222092
 10
250.1708583498
 20
60.6433668236
 10
250.9263047594
 20
60.3038192578
 10
251.6155324818
 20
59.8477634681
 10
252.232484559
 20
59.279207289
 10
252.7717391938
 20
58.6031472129
 10
253.2285573973
 20
57.8255244798
 10
253.5989246346
 20
56.9531728664
 10
253.8795861051
 20
55.9937586299
 10
254.0680753458
 20
54.9557131373
 10
254.1627359063
 20
53.8481587696
 10
254.1627359063
 20
52.6808287544
 10
254.0680753458
 20
51.4639816299
 10
253.8795861051
 20
50.2083110923
 10
253.5989246346
 20
48.9248520195
 10
253.2285573973
 20
47.624883496
 10
253.095106558
 20
47.2176298129
  0
LWPOLYLINE
  5
203
330
1F
100
AcDbEntity
  8
0
  6
Continuous
 62
     7
370
     0
100
AcDbPolyline
 90
       23
 70
   128
 43
0.0
 10
248.0955128948
 20
38.5571411891
 10
247.5761509026
 20
37.9858902319
 10
246.6271357714
 20
37.0359289645
 10
245.6496832045
 20
36.1739385297
 10
244.6523830905
 20
35.4074941303
 10
243.6439997383
 20
34.7433313073
 10
242.6333948574
 20
34.1872867476
 10
241.6294496796
 20
33.7442469906
 10
240.6409869113
 20
33.4181054857
 10
239.6766931988
 20
33.2117283762
 10
238.74504279
 20
33.1269293115
 10
237.8542230622
 20
33.1644535089
 10
237.0120625711
 20
33.3239712043
 10
236.2259622534
 20
33.6040805506
 10
235.502830387
 20
34.0023199366
 10
234.8490218808
 20
34.5151896205
 10
234.2702824273
 20
35.1381824848
 10
233.7716980097
 20
35.8658236461
 10
233.3576502059
 20
36.6917185674
 10
233.0317776827
 20
37.6086092547
 10
232.7969442197
 20
38.6084380396
 10
232.6552135417
 20
39.6824183907
 10
232.6078311831
 20
40.8211121301
  0
LWPOLYLINE
  5
204
330
1F
100
AcDbEntity
  8
0
  6
Continuous
 62
     7
370
     0
100
AcDbPolyline
 90
       25
 70
   128
 43
0.0
 10
231.9007244019
 20
40.8211121301
 10
231.9482325896
 20
42.0351569012
 10
232.0903518296
 20
43.2936956563
 10
232.3258696106
 20
44.5859909865
 10
232.6527765779
 20
45.9010174837
 10
233.0682836766
 20
47.2275558055
 10
233.5688459467
 20
48.5542883946
 10
234.1501927672
 20
49.8698960365
 10
234.8073642922
 20
51.1631544305
 10
235.5347537659
 20
52.4230299521
 10
236.3261553577
 20
53.6387737875
 10
237.1748171084
 20
54.800013639
 10
238.073498535
 20
55.8968422176
 10
239.0145324046
 20
56.9199017686
 10
239.989890148
 20
57.8604639086
 10
240.9912503567
 20
58.7105040931
 10
242.0100697786
 20
59.4627700789
 10
243.0376562056
 20
60.1108437979
 10
244.0652426326
 20
60.6491961137
 10
245.0840620545
 20
61.0732339941
 10
246.0854222632
 20
61.3793396973
 10
247.0607800066
 20
61.5649016376
 10
248.0018138762
 20
61.6283366657
 10
248.9004953028
 20
61.5691035765
 10
249.2276787579
 20
61.514815252
  0
ARC
  5
205
330
1F
100
AcDbEntity
  8
0
  6
Continuous
 62
     7
370
     0
100
AcDbCircle
 10
241.1611309092
 20
40.3656111172
 30
0.0
 40
9.27160233467599
100
AcDbArc
 50
177.1840039461
 51
217.1033364391
  0
LWPOLYLINE
  5
206
330
1F
100
AcDbEntity
  8
0
  6
Continuous
 62
     7
370
     0
100
AcDbPolyline
 90
       22
 70
   128
 43
0.0
 10
238.7950155185
 20
44.3928976194
 10
238.843995467
 20
45.1939535639
 10
238.9898913901
 20
46.0344874367
 10
239.2295937694
 20
46.8965847173
 10
239.5579937648
 20
47.7618712992
 10
239.9680921006
 20
48.6119051009
 10
240.4511482428
 20
49.4285691279
 10
240.9968666884
 20
50.1944576042
 10
241.5936163961
 20
50.8932469467
 10
242.228678682
 20
51.5100436737
 10
242.888518296
 20
52.0317018339
 10
243.5590719023
 20
52.4471031892
 10
244.226047815
 20
52.747394181
 10
244.8752306004
 20
52.926174628
 10
245.4927840547
 20
52.9796341356
 10
246.065546098
 20
52.906633307
 10
246.5813093018
 20
52.7087280283
 10
247.0290810689
 20
52.3901363067
 10
247.3993179214
 20
51.9576483718
 10
247.6841289036
 20
51.4204819531
 10
247.877443764
 20
50.79008582
 10
247.9678311442
 20
50.1775429058
  0
LWPOLYLINE
  5
207
330
1F
100
AcDbEntity
  8
0
  6
Continuous
 62
     7
370
     0
100
AcDbPolyline
 90
       12
 70
   128
 43
0.0
 10
242.968237481
 20
41.517054282
 10
242.888518296
 20
41.4803511105
 10
242.228678682
 20
41.2401746685
 10
241.5936163961
 20
41.1237440874
 10
240.9968666884
 20
41.133540883
 10
240.4511482428
 20
41.2693562535
 10
239.9680921006
 20
41.5282955302
 10
239.5579937648
 20
41.9048398719
 10
239.2295937694
 20
42.3909638897
 10
238.9898913901
 20
42.9763066942
 10
238.843995467
 20
43.6483927197
 10
238.7950155185
 20
44.3928976194
  0
LWPOLYLINE
  5
208
330
1F
100
AcDbEntity
  8
0
  6
Continuous
 62
     7
370
     0
100
AcDbPolyline
 90
       19
 70
   128
 43
0.0
 10
229.8018778825
 20
47.7002811801
 10
230.1364066125
 20
48.9367890985
 10
230.5606375646
 20
50.1806418714
 10
231.0702167878
 20
51.4190736363
 10
231.6599143881
 20
52.6393741673
 10
232.3236782035
 20
53.8290193225
 10
233.0546959182
 20
54.9757995807
 10
233.8454649791
 20
56.0679453504
 10
234.6878695953
 20
57.0942477626
 10
235.5732640315
 20
58.0441737095
 10
236.4925613413
 20
58.9079739469
 10
237.4363266274
 20
59.6767831533
 10
238.3948738739
 20
60.3427109151
 10
239.3583653549
 20
60.8989227078
 10
240.3169126013
 20
61.3397100396
 10
241.2606778874
 20
61.6605490388
 10
242.1799751972
 20
61.8581468827
 10
243.0653696335
 20
61.9304755927
 10
243.4211250025
 20
61.9234692631
  0
LWPOLYLINE
  5
209
330
1F
100
AcDbEntity
  8
0
  6
Continuous
 62
     7
370
     0
100
AcDbPolyline
 90
       21
 70
   128
 43
0.0
 10
224.2157499817
 20
49.3793583314
 10
224.5614153724
 20
50.7372450094
 10
225.000965779
 20
52.1060900927
 10
225.5304119176
 20
53.4734701791
 10
226.1449486265
 20
54.8269751626
 10
226.8389984762
 20
56.1543208653
 10
227.6062623901
 20
57.4434605264
 10
228.439776813
 20
58.6826941363
 10
229.3319769117
 20
59.8607746246
 10
230.2747652319
 20
60.9670099356
 10
231.2595851893
 20
61.9913600683
 10
232.2774987276
 20
62.9245281976
 10
233.319267439
 20
63.7580450502
 10
234.3754364102
 20
64.4843457709
 10
235.4364200337
 20
65.0968385794
 10
236.4925890049
 20
65.5899645967
 10
237.5343577163
 20
65.9592482959
 10
238.5522712546
 20
66.201338122
 10
239.537091212
 20
66.3140369092
 10
240.4798795322
 20
66.2963218229
 10
241.0760815881
 20
66.2129964979
  0
LWPOLYLINE
  5
20A
330
1F
100
AcDbEntity
  8
0
  6
Continuous
 62
     7
370
     0
100
AcDbPolyline
 90
       18
 70
   128
 43
0.0
 10
230.1951506341
 20
47.6445006412
 10
230.5275033942
 20
48.8586619056
 10
230.9474005582
 20
50.079468644
 10
231.4505647967
 20
51.2944849725
 10
232.0318705712
 20
52.4913339917
 10
232.6853963455
 20
53.6578238654
 10
233.4044849064
 20
54.7820720145
 10
234.181811178
 20
55.8526261598
 10
235.0094568396
 20
56.858580982
 10
235.8789909863
 20
57.7896892101
 10
236.7815560114
 20
58.6364660063
 10
237.7079578357
 20
59.3902855843
 10
238.6487595637
 20
60.0434690768
 10
239.5943776136
 20
60.5893627573
 10
240.5351793415
 20
61.0224058189
 10
241.4615811659
 20
61.3381870202
 10
242.364146191
 20
61.5334896208
 10
242.5560597295
 20
61.5597570148
  0
LINE
  5
20B
330
1F
100
AcDbEntity
  8
0
  6
Continuous
 62
     7
370
     0
100
AcDbLine
 10
230.204473285
 20
41.0659652537
 30
0.0
 11
230.6102545263
 21
41.3002177781
 31
0.0
  0
LWPOLYLINE
  5
20C
330
1F
100
AcDbEntity
  8
0
  6
Continuous
 62
     7
370
     0
100
AcDbPolyline
 90
        3
 70
   128
 43
0.0
 10
231.1564415085
 20
41.0459978657
 10
231.1332249099
 20
41.0542736168
 10
230.6102545263
 20
41.3002177781
  0
ARC
  5
20D
330
1F
100
AcDbEntity
  8
0
  6
Continuous
 62
     7
370
     0
100
AcDbCircle
 10
229.9222653568
 20
42.3568193732
 30
0.0
 40
1.260847345344067
100
AcDbArc
 50
303.0695173616
 51
345.5982002281
  0
LINE
  5
20E
330
1F
100
AcDbEntity
  8
0
  6
Continuous
 62
     7
370
     0
100
AcDbLine
 10
226.7166623586
 20
44.8542998313
 30
0.0
 11
231.1016528642
 21
42.3228986948
 31
0.0
  0
LINE
  5
20F
330
1F
100
AcDbEntity
  8
0
  6
Continuous
 62
     7
370
     0
100
AcDbLine
 10
226.597423543
 20
44.7854423512
 30
0.0
 11
226.7166623586
 21
44.8542998313
 31
0.0
  0
LINE
  5
210
330
1F
100
AcDbEntity
  8
0
  6
Continuous
 62
     7
370
     0
100
AcDbLine
 10
226.3410973348
 20
47.8167091383
 30
0.0
 11
226.3462852295
 21
48.1493746026
 31
0.0
  0
LWPOLYLINE
  5
211
330
1F
100
AcDbEntity
  8
0
  6
Continuous
 62
     7
370
     0
100
AcDbPolyline
 90
        3
 70
   128
 43
0.0
 10
226.5229101405
 20
45.9810421672
 10
226.388788398
 20
46.8460469324
 10
226.3410973348
 20
47.8167091383
  0
LWPOLYLINE
  5
212
330
1F
100
AcDbEntity
  8
0
  6
Continuous
 62
     7
370
     0
100
AcDbPolyline
 90
       17
 70
   128
 43
0.0
 10
206.4955814366
 20
63.1155885859
 10
206.543854147
 20
63.9050778112
 10
206.6876434292
 20
64.7334749295
 10
206.9238846643
 20
65.5831240943
 10
207.2475427805
 20
66.4359165088
 10
207.651719567
 20
67.2736763834
 10
208.1278006972
 20
68.0785483207
 10
208.6656393285
 20
68.8333778728
 10
209.2537723642
 20
69.5220771583
 10
209.8796647697
 20
70.1299677475
 10
210.5299767351
 20
70.6440935081
 10
211.1908479898
 20
71.0534967419
 10
211.8481932104
 20
71.3494517299
 10
212.4880022248
 20
71.5256507053
 10
213.0966386146
 20
71.5783382928
 10
213.661130352
 20
71.5063915481
 10
213.7304871528
 20
71.4879749067
  0
ARC
  5
213
330
1F
100
AcDbEntity
  8
0
  6
Continuous
 62
     7
370
     0
100
AcDbCircle
 10
209.9645116067
 20
62.8661381477
 30
0.0
 40
3.477887583905765
100
AcDbArc
 50
175.8869457832
 51
225.0942205936
  0
LWPOLYLINE
  5
214
330
1F
100
AcDbEntity
  8
0
  6
Continuous
 62
     7
370
     0
100
AcDbPolyline
 90
        3
 70
   128
 43
0.0
 10
230.65934727
 20
39.9820768212
 10
230.5397106953
 20
40.2156367316
 10
230.1951506341
 20
41.0713471055
  0
ARC
  5
215
330
1F
100
AcDbEntity
  8
0
  6
Continuous
 62
     7
370
     0
100
AcDbCircle
 10
235.8070830813
 20
42.9863101496
 30
0.0
 40
6.286417824774178
100
AcDbArc
 50
197.2022721654
 51
213.8013536742
  0
LINE
  5
216
330
1F
100
AcDbEntity
  8
0
  6
Continuous
 62
     7
370
     0
100
AcDbLine
 10
230.6102545263
 20
41.3002177781
 30
0.0
 11
226.3852915087
 21
43.7392370122
 31
0.0
  0
ARC
  5
217
330
1F
100
AcDbEntity
  8
0
  6
Continuous
 62
     7
370
     0
100
AcDbCircle
 10
231.0568001415
 20
44.0403881835
 30
0.0
 40
7.092824880084099
100
AcDbArc
 50
195.3118335283
 51
220.46774401
  0
OLE2FRAME
  5
218
330
1F
100
AcDbEntity
  8
0
100
AcDbOle2Frame
 70
     2
  3
Paintbrush-Bild
 10
13.8511154363
 20
38.264191557
 30
0.0
 11
51.6290888628
 21
31.9806341108
 31
0.0
 71
     2
 72
     0
 73
     1
 90
    12928
310
80552BED0767C5B32B40DDAF6807D121434000000000000000006FFBDDFB85D0
310
4940DDAF6807D121434000000000000000006FFBDDFB85D04940416F4BD60AFB
310
3F4000000000000000002BED0767C5B32B40416F4BD60AFB3F40000000000000
310
0000000000000100000000010000010000000100000000000100000000320000
310
D0CF11E0A1B11AE1000000000000000000000000000000003E000300FEFF0900
310
0600000000000000000000000100000001000000000000000010000002000000
310
01000000FEFFFFFF0000000000000000FFFFFFFFFFFFFFFFFFFFFFFFFFFFFFFF
310
FFFFFFFFFFFFFFFFFFFFFFFFFFFFFFFFFFFFFFFFFFFFFFFFFFFFFFFFFFFFFFFF
310
FFFFFFFFFFFFFFFFFFFFFFFFFFFFFFFFFFFFFFFFFFFFFFFFFFFFFFFFFFFFFFFF
310
FFFFFFFFFFFFFFFFFFFFFFFFFFFFFFFFFFFFFFFFFFFFFFFFFFFFFFFFFFFFFFFF
310
FFFFFFFFFFFFFFFFFFFFFFFFFFFFFFFFFFFFFFFFFFFFFFFFFFFFFFFFFFFFFFFF
310
FFFFFFFFFFFFFFFFFFFFFFFFFFFFFFFFFFFFFFFFFFFFFFFFFFFFFFFFFFFFFFFF
310
FFFFFFFFFFFFFFFFFFFFFFFFFFFFFFFFFFFFFFFFFFFFFFFFFFFFFFFFFFFFFFFF
310
FFFFFFFFFFFFFFFFFFFFFFFFFFFFFFFFFFFFFFFFFFFFFFFFFFFFFFFFFFFFFFFF
310
FFFFFFFFFFFFFFFFFFFFFFFFFFFFFFFFFFFFFFFFFFFFFFFFFFFFFFFFFFFFFFFF
310
FFFFFFFFFFFFFFFFFFFFFFFFFFFFFFFFFFFFFFFFFFFFFFFFFFFFFFFFFFFFFFFF
310
FFFFFFFFFFFFFFFFFFFFFFFFFFFFFFFFFFFFFFFFFFFFFFFFFFFFFFFFFFFFFFFF
310
FFFFFFFFFFFFFFFFFFFFFFFFFFFFFFFFFFFFFFFFFFFFFFFFFFFFFFFFFFFFFFFF
310
FFFFFFFFFFFFFFFFFFFFFFFFFFFFFFFFFFFFFFFFFFFFFFFFFFFFFFFFFFFFFFFF
310
FFFFFFFFFFFFFFFFFFFFFFFFFFFFFFFFFFFFFFFFFFFFFFFFFFFFFFFFFFFFFFFF
310
FDFFFFFFFEFFFFFFFEFFFFFFFEFFFFFF05000000060000000700000008000000
310
090000000A0000000B0000000C0000000D0000000E0000000F00000010000000
310
11000000120000001300000014000000150000001600000017000000FEFFFFFF
310
FFFFFFFFFFFFFFFFFFFFFFFFFFFFFFFFFFFFFFFFFFFFFFFFFFFFFFFFFFFFFFFF
310
FFFFFFFFFFFFFFFFFFFFFFFFFFFFFFFFFFFFFFFFFFFFFFFFFFFFFFFFFFFFFFFF
310
FFFFFFFFFFFFFFFFFFFFFFFFFFFFFFFFFFFFFFFFFFFFFFFFFFFFFFFFFFFFFFFF
310
FFFFFFFFFFFFFFFFFFFFFFFFFFFFFFFFFFFFFFFFFFFFFFFFFFFFFFFFFFFFFFFF
310
FFFFFFFFFFFFFFFFFFFFFFFFFFFFFFFFFFFFFFFFFFFFFFFFFFFFFFFFFFFFFFFF
310
FFFFFFFFFFFFFFFFFFFFFFFFFFFFFFFFFFFFFFFFFFFFFFFFFFFFFFFFFFFFFFFF
310
FFFFFFFFFFFFFFFFFFFFFFFFFFFFFFFFFFFFFFFFFFFFFFFFFFFFFFFFFFFFFFFF
310
FFFFFFFFFFFFFFFFFFFFFFFFFFFFFFFFFFFFFFFFFFFFFFFFFFFFFFFFFFFFFFFF
310
FFFFFFFFFFFFFFFFFFFFFFFFFFFFFFFFFFFFFFFFFFFFFFFFFFFFFFFFFFFFFFFF
310
FFFFFFFFFFFFFFFFFFFFFFFFFFFFFFFFFFFFFFFFFFFFFFFFFFFFFFFFFFFFFFFF
310
FFFFFFFFFFFFFFFFFFFFFFFFFFFFFFFFFFFFFFFFFFFFFFFFFFFFFFFFFFFFFFFF
310
FFFFFFFFFFFFFFFFFFFFFFFFFFFFFFFFFFFFFFFFFFFFFFFFFFFFFFFFFFFFFFFF
310
FFFFFFFFFFFFFFFFFFFFFFFFFFFFFFFFFFFFFFFFFFFFFFFFFFFFFFFFFFFFFFFF
310
52006F006F007400200045006E00740072007900000000000000000000000000
310
0000000000000000000000000000000000000000000000000000000000000000
310
16000500FFFFFFFFFFFFFFFF020000000A00030000000000C000000000000046
310
000000000000000000000000F0BE13185925D20103000000C000000000000000
310
01004F006C006500000000000000000000000000000000000000000000000000
310
0000000000000000000000000000000000000000000000000000000000000000
310
0A000200FFFFFFFFFFFFFFFFFFFFFFFF00000000000000000000000000000000
310
0000000000000000000000000000000000000000000000001400000000000000
310
010043006F006D0070004F0062006A0000000000000000000000000000000000
310
0000000000000000000000000000000000000000000000000000000000000000
310
120002010100000003000000FFFFFFFF00000000000000000000000000000000
310
0000000000000000000000000000000000000000010000004D00000000000000
310
01004F006C006500310030004E00610074006900760065000000000000000000
310
0000000000000000000000000000000000000000000000000000000000000000
310
1A000200FFFFFFFFFFFFFFFFFFFFFFFF00000000000000000000000000000000
310
0000000000000000000000000000000000000000040000002426000000000000
310
FEFFFFFF02000000FEFFFFFFFFFFFFFFFFFFFFFFFFFFFFFFFFFFFFFFFFFFFFFF
310
FFFFFFFFFFFFFFFFFFFFFFFFFFFFFFFFFFFFFFFFFFFFFFFFFFFFFFFFFFFFFFFF
310
FFFFFFFFFFFFFFFFFFFFFFFFFFFFFFFFFFFFFFFFFFFFFFFFFFFFFFFFFFFFFFFF
310
FFFFFFFFFFFFFFFFFFFFFFFFFFFFFFFFFFFFFFFFFFFFFFFFFFFFFFFFFFFFFFFF
310
FFFFFFFFFFFFFFFFFFFFFFFFFFFFFFFFFFFFFFFFFFFFFFFFFFFFFFFFFFFFFFFF
310
FFFFFFFFFFFFFFFFFFFFFFFFFFFFFFFFFFFFFFFFFFFFFFFFFFFFFFFFFFFFFFFF
310
FFFFFFFFFFFFFFFFFFFFFFFFFFFFFFFFFFFFFFFFFFFFFFFFFFFFFFFFFFFFFFFF
310
FFFFFFFFFFFFFFFFFFFFFFFFFFFFFFFFFFFFFFFFFFFFFFFFFFFFFFFFFFFFFFFF
310
FFFFFFFFFFFFFFFFFFFFFFFFFFFFFFFFFFFFFFFFFFFFFFFFFFFFFFFFFFFFFFFF
310
FFFFFFFFFFFFFFFFFFFFFFFFFFFFFFFFFFFFFFFFFFFFFFFFFFFFFFFFFFFFFFFF
310
FFFFFFFFFFFFFFFFFFFFFFFFFFFFFFFFFFFFFFFFFFFFFFFFFFFFFFFFFFFFFFFF
310
FFFFFFFFFFFFFFFFFFFFFFFFFFFFFFFFFFFFFFFFFFFFFFFFFFFFFFFFFFFFFFFF
310
FFFFFFFFFFFFFFFFFFFFFFFFFFFFFFFFFFFFFFFFFFFFFFFFFFFFFFFFFFFFFFFF
310
FFFFFFFFFFFFFFFFFFFFFFFFFFFFFFFFFFFFFFFFFFFFFFFFFFFFFFFFFFFFFFFF
310
FFFFFFFFFFFFFFFFFFFFFFFFFFFFFFFFFFFFFFFFFFFFFFFFFFFFFFFFFFFFFFFF
310
FFFFFFFFFFFFFFFFFFFFFFFFFFFFFFFFFFFFFFFFFFFFFFFFFFFFFFFFFFFFFFFF
310
0100000200000000000000000000000000000000000000000000000000000000
310
0000000000000000000000000000000000000000000000000000000000000000
310
0100FEFF030A0000FFFFFFFF0A00030000000000C00000000000004607000000
310
5042727573680007000000504272757368000700000050427275736800F439B2
310
7100000000000000000000000000000000000000000000000000000000000000
310
0000000000000000000000000000000000000000000000000000000000000000
310
0000000000000000000000000000000000000000000000000000000000000000
310
0000000000000000000000000000000000000000000000000000000000000000
310
0000000000000000000000000000000000000000000000000000000000000000
310
0000000000000000000000000000000000000000000000000000000000000000
310
0000000000000000000000000000000000000000000000000000000000000000
310
0000000000000000000000000000000000000000000000000000000000000000
310
0000000000000000000000000000000000000000000000000000000000000000
310
0000000000000000000000000000000000000000000000000000000000000000
310
0000000000000000000000000000000000000000000000000000000000000000
310
0000000000000000000000000000000000000000000000000000000000000000
310
20260000424D0E260000000000003E00000028000000B40200006E0000000100
310
01000000000000000000130B0000130B00000200000002000000000000FFFFFF
310
FFFFFFFFFFFFFFFFFFFFFFFFFFFFFFFFFFFFFFFFFFFFFFFFFFFFFFFFFFFFFFFF
310
FFFFFFFFFFFFFFFFFFFFFFFFFFFFFFFFFFFFFFFFFFFFFFFFFFFFFFFFFFFFFFFF
310
FFFFFFFFFFFFFFFFFFFFFFFFFFFFFFFFFFFFFFFFFFFFFFFFF000FFFFFFFFFFFF
310
FFFFFFFFFFFFFFFFFFFFFFFFFFFFFFFFFFFFFFFFFFFFFFFFFFFFFFFFFFFFFFFF
310
FFFFFFFFFFFFFFFFFFFFFFFFFFFFFFFFFFFFFFFFFFFFFFFFFFFFFFFFFFFFFFFF
310
FFFFFFFFFFFFFFFFFFFFFFFFFFFFFFFFF000FFFFFFFFFFFFFFFFFFFFFFFFFFFF
310
FFFFFFFFFFFFFFFFFFFFFFFFFFFFFFFFFFFFFFFFFFFFFFFFFFFFFFFFFFFFFFFF
310
FFFFFFFFFFFFFFFFFFFFFFFFFFFFFFFFFFFFFFFFFFFFFFFFFFFFFFFFFFFFFFFF
310
FFFFFFFFFFFFFFFFF000FFFFFFFFFFFFFFFFFFFFFFFFFFFFFFFFFFFFFFFFFFFF
310
FFFFFFFFFFFFFFFFFFFFFFFFFFFFFFFFFFFFFFFFFFFFFFFFFFFFFFFFFFFFFFFF
310
FFFFFFFFFFFFFFFFFFFFFFFFFFFFFFFFFFFFFFFFFFFFFFFFFFFFFFFFFFFFFFFF
310
F000FFFFFFFFFFFFFFFFFFFFFFFFFFFFFFFFFFFFFFFFFFFFFFFFFFFFFFFFFFFF
310
FFFFFFFFFFFFFFFFFFFFFFFFFFFFFFFFFFFFFFFFFFFFFFFFFFFFFFFFFFFFFFFF
310
FFFFFFFFFFFFFFFFFFFFFFFFFFFFFFFFFFFFFFFFFFFFFFFFF000FFFFFFFFFFFF
310
FFFFFFFFFFFFFFFFFFFFFFFFFFFFFFFFFFFFFFFFFFFFFFFFFFFFFFFFFFFFFFFF
310
FFFFFFFFFFFFFFFFFFFFFFFFFFFFFFFFFFFFFFFFFFFFFFFFFFFFFFFFFFFFFFFF
310
FFFFFFFFFFFFFFFFFFFFFFFFFFFFFFFFF000FFFFFFFFFFFFFFFFFFFFFFFFFFFF
310
FFFFFFFFFFFFFFFFFFFFFFFFFFFFFFFFFFFFFFFFFFFFFFFFFFFFFFFFFFFFFFFF
310
FFFFFFFFFFFFFFFFFFFFFFFFFFFFFFFFFFFFFFFFFFFFFFFFFFFFFFFFFFFFFFFF
310
FFFFFFFFFFFFFFFFF000FFFFFFFFFFFFFFFFFFFFFFFFFFFFFFFFFFFFFFFFFFFF
310
FFFFFFFFFFFFFFFFFFFFFFFFFFFFFFFFFFFFFFFFFFFFFFFFFFFFFFFFFFFFFFFF
310
FFFFFFFFFFFFFFFFFFFFFFFFFFFFFFFFFFFFFFFFFFFFFFFFFFFFFFFFFFFFFFFF
310
F000FFFFFFFFFFFFFFFFFFFFFFFFFFFFFFFFFFFFFFFFFFFFFFFFFFFFFFFFFFFF
310
FFFFFFFFFFFFFFFFFFFFFFFFFFFFFFFFFFFFFFFFFFFFFFFFFFFFFFFFFFFFFFFF
310
FFFFFFFFFFFFFFFFFFFFFFFFFFFFFFFFFFFFFFFFFFFFFFFFF000FFFFFFFFFFFF
310
FFFFFFFFFFFFFFFFFFFFFFFFFFFFFFFFFFFFFFFFFFFFFFFFFFFFFFFFFFFFFFFF
310
FFFFFFFFFFFFFFFFFFFFFFFFFFFFFFFFFFFFFFFFFFFFFFFFFFFFFFFFFFFFFFFF
310
FFFFFFFFFFFFFFFFFFFFFFFFFFFFFFFFF000FFFFFFFFFFFFFFFFFFFFFFFFFFFF
310
FFFFFFFFFFFFFFFFFFFFFFFFFFFFFFFFFFFFFFFFFFFFFFFFFFFFFFFFFFFFFFFF
310
FFFFFFFFFFFFFFFFFFFFFFFFFFFFFFFFFFFFFFFFFFFFFFFFFFFFFFFFFFFFFFFF
310
FFFFFFFFFFFFFFFFF000FFFFFFFFFFFFFFFFFFFFFFFFFFFFFFFFFFFFFFFFFFFF
310
FFFFFFFFFFFFFFFFFFFFFFFFFFFFFFFFFFFFFFFFFFFFFFFFFFFFFFFFFFFFFFFF
310
FFFFFFFFFFFFFFFFFFFFFFFFFFFFFFFFFFFFFFFFFFFFFFFFFFFFFFFFFFFFFFFF
310
F000FFFFFFFFFFFFFFFFFFFFFFFFFFFFFFFFFFFFFFFFFFFFFFFFFFFFFFFFFFFF
310
FFFFFFFFFFFFFFFFFFFFFFFFFFFFFFFFFFFFFFFFFFFFFFFFFFFFFFFFFFFFFFFF
310
FFFFFFFFFFFFFFFFFFFFFFFFFFFFFFFFFFFFFFFFFFFFFFFFF000FFFFFFFFFFFF
310
FFFFFFFFFFFFFFFFFFFFFFFFFFFFFFFFFFFFFFFFFFFFFFFFFFFFFFFFFFFFFFFF
310
FFFFFFFFFFFFFFFFFFFFFFFFFFFFFFFFFFFFFFFFFFFFFFFFFFFFFFFFFFFFFFFF
310
FFFFFFFFFFFFFFFFFFFFFFFFFFFFFFFFF000FFFFFFFFFFFFFFFFFFFFFFFFFFFF
310
FFFFFFFFFFFFFFFFFFFFFFFFFFFFFFFFFFFFFFFFFFFFFFFFFFFFFFFFFFFFFFFF
310
FFFFFFFFFFFFFFFFFFFFFFFFFFFFFFFFFFFFFFFFFFFFFFFFFFFFFFFFFFFFFFFF
310
FFFFFFFFFFFFFFFFF000FFFFFFFFFFFFFFFFFFFFFFFFFFFFFFFFFFFFFFFFFFFF
310
FFFFFFFFFFFFFFFFFFFFFFFFFFFFFFFFFFFFFFFFFFFFFFFFFFFFFFFFFFFFFFFF
310
FFFFFFFFFFFFFFFFFFFFFFFFFFFFFFFFFFFFFFFFFFFFFFFFFFFFFFFFFFFFFFFF
310
F000FFFFFFFFFFFFFFFFFFFFFFFFFFFFFFFFFFFFFFFFFFFFFFFFFFFFFFFFFFFF
310
FFFFFFFFFFFFFFFFFFFFFFFFFFFFFFFFFFFFFFFFFFFFFFFFFFFFFFFFFFFFFFFF
310
FFFFFFFFFFFFFFFFFFFFFFFFFFFFFFFFFFFFFFFFFFFFFFFFF000FFFFFFFFFFFF
310
FFFFFFFFFFFFFFFFFFFFFFFFFFFFFFFFFFFFFFFFFFFFFFFFFFFFFFFFFFFFFFFF
310
FFFFFFFFFFFFFFFFFFFFFFFFFFFFFFFFFFFFFFFFFFFFFFFFFFFFFFFFFFFFFFFF
310
FFFFFFFFFFFFFFFFFFFFFFFFFFFFFFFFF000FFFFFFFFFFFFFFFFFFFFFFFFFFFF
310
FFFFFFFFFFFFFFFFFFFFFFFFFFFFFFFFFFFFFFFFFFFFFFFFFFFFFFFFFFFFFFFF
310
FFFFFFFFFFFFFFFFFFFFFFFFFFFFFFFFFFFFFFFFFFFFFFFFFFFFFFFFFFFFFFFF
310
FFFFFFFFFFFFFFFFF000FFFFF80003FFFFFFFFFFFFFFFFFFFFFFFFFFFFFFFFFF
310
FFFFF00007FFFFFFFFFF00007FFFFFF800000000000000007FFFFFFFFFFFFFFF
310
FFFFFFFC001FFFFFFFFFFFFFFC001FFFFFFFFFFFFFFFFFFFFFFFFFFE0007FFFF
310
F000FFFF8000007FFFFFFFF8000FFFFFC0007FFFFF80007FFFFF0000007FFFFF
310
FFF8000007FFFFF800000000000000007FFFFFF0001FFFFFFFFFFFC00001FFFF
310
FFFFFFFFC00001FFFFFFFF000000000003FFFFE000007FFFF000FFFE0000000F
310
FFFFFFF0000FFFFF80007FFFFF80007FFFFC0000001FFFFFFFC0000001FFFFF8
310
00000000000000007FFFFFF0001FFFFFFFFFFE0000003FFFFFFFFFFE0000003F
310
FFFFFF000000000003FFFF0000000FFFF000FFF800000003FFFFFFF00007FFFF
310
80007FFFFF80007FFFF000000007FFFFFF000000003FFFF80000000000000000
310
7FFFFFF0001FFFFFFFFFF80000000FFFFFFFFFF80000000FFFFFFF0000000000
310
03FFFC00000003FFF000FFE000000000FFFFFFF00007FFFF80003FFFFF80007F
310
FFC000000001FFFFFC000000001FFFF800000000000000007FFFFFF0001FFFFF
310
FFFFE000000003FFFFFFFFE000000003FFFFFF000000000003FFF000000000FF
310
F000FF80000000007FFFFFF00007FFFF80003FFFFF80007FFF8000000000FFFF
310
F80000000007FFF800000000000000007FFFFFF0001FFFFFFFFFC000000001FF
310
FFFFFFC000000001FFFFFF000000000003FFC0000000007FF000FF0000000000
310
3FFFFFE00007FFFF00003FFFFF80007FFE00000000003FFFF00000000003FFF8
310
00000000000000007FFFFFF0001FFFFFFFFF8000000000FFFFFFFF8000000000
310
FFFFFF000000000003FF80000000003FF000FE00000000001FFFFFE00003FFFF
310
00003FFFFF80007FFC00000000001FFFE00000000001FFF8000001FFFE000000
310
7FFFFFF0001FFFFFFFFE00000000003FFFFFFE00000000003FFFFF0000000000
310
03FF00000000001FF000FC00000000000FFFFFE00003FFFF00001FFFFF80007F
310
F800000000001FFFC00000000000FFF8000001FFFE0000007FFFFFF0001FFFFF
310
FFFC00000000001FFFFFFC00000000001FFFFF000000000003FE00000000000F
310
F000F8000000000007FFFFE00003FFFF00001FFFFF80007FF800000000000FFF
310
800000000000FFF8000001FFFE0000007FFFFFF0001FFFFFFFF800000000000F
310
FFFFF800000000000FFFFF000000000003FC000000000007F000F80000000000
310
03FFFFC00003FFFE00001FFFFF80007FF0000000000007FF0000000000007FF8
310
000001FFFE0000007FFFFFF0001FFFFFFFF0000000000007FFFFF00000000000
310
07FFFF000000000003F8000000000003F000F0000000000003FFFFC00001FFFE
310
00001FFFFF80007FE0000000000007FE0000000000003FF8000001FFFE000000
310
7FFFFFF0001FFFFFFFF0000000000007FFFFF0000000000007FFFF0000000000
310
03F800001F800003F000E00001FFF00001FFFFC00001FFFE00000FFFFF80007F
310
E00001FFE00003FE00001FFF00003FF8000001FFFE0000007FFFFFF0001FFFFF
310
FFE000003E000003FFFFE000003E000003FFFF000000000003F00001FFF80001
310
F000E00007FFFC0001FFFFC00001FFFE00000FFFFF80007FC0000FFFFC0003FC
310
0000FFFFC0001FF8000001FFFE0000007FFFFFF0001FFFFFFFC00003FFE00001
310
FFFFC00003FFE00001FFFF0001FFFFFFFFF00007FFFE0001F000E0000FFFFF00
310
00FFFF800001FFFC00000FFFFF80007FC0001FFFFE0001FC0001FFFFE0001FF8
310
000001FFFE0000007FFFFFF0001FFFFFFF80000FFFF80000FFFF80000FFFF800
310
00FFFF0003FFFFFFFFE0000FFFFF8000F000C0003FFFFF8000FFFF800000FFFC
310
000007FFFF80007F80003FFFFF0001FC0003FFFFF0001FF8000001FFFE000000
310
7FFFFFF0001FFFFFFF80003FFFFE0000FFFF80003FFFFE0000FFFF0003FFFFFF
310
FFE0003FFFFF8000F000C0003FFFFF8000FFFF800000FFFC000007FFFF80007F
310
80007FFFFF8001F80007FFFFF8000FF8000001FFFE0000007FFFFFF0001FFFFF
310
FF00007FFFFF00007FFF00007FFFFF00007FFF0003FFFFFFFFE0003FFFFFC000
310
F000C0007FFFFFC000FFFF000000FFFC000007FFFF80007F8000FFFFFF8000F8
310
000FFFFFF8000FF8000001FFFE0000007FFFFFF0001FFFFFFF0000FFFFFF8000
310
7FFF0000FFFFFF80007FFF0003FFFFFFFFC0007FFFFFC00070008000FFFFFFC0
310
00FFFF000000FFF8000007FFFF80007F8000FFFFFF8000F8000FFFFFF8000FF8
310
000001FFFE0000007FFFFFF0001FFFFFFE0001FFFFFFC0003FFE0001FFFFFFC0
310
003FFF0003FFFFFFFFC0007FFFFFE00070008000FFFFFFC0007FFF0000007FF8
310
000003FFFF80007F0001FFFFFF8000F8000FFFFFF8000FF8000001FFFE000000
310
7FFFFFF0001FFFFFFE0001FFFFFFC0003FFE0001FFFFFFC0003FFF0003FFFFFF
310
FFC000FFFFFFE00070008000FFFFFFC0007FFF0000007FF8000003FFFF80007F
310
0001FFFFFF8000F8001FFFFFF8000FF8000001FFFE0000007FFFFFF0001FFFFF
310
FE0003FFFFFFE0003FFE0003FFFFFFE0003FFF0003FFFFFFFFC000FFFFFFE000
310
70008000FFFFFFC0007FFE0000007FF8000003FFFF80007F0001FFFFFF8000F0
310
001FFFFFF8000FF8000001FFFE0000007FFFFFF0001FFFFFFC0003FFFFFFE000
310
1FFC0003FFFFFFE0001FFF0003FFFFFFFFC000FFFFFFC00070008000FFFFFF80
310
007FFE0000007FF0000003FFFF80007F0001FFFFFF0000F0001FFFFFF8000FF8
310
000001FFFE0000007FFFFFF0001FFFFFFC0007FFFFFFF0001FFC0007FFFFFFF0
310
001FFF0003FFFFFFFFC000FFFFFFC00070008001FFFFFF0000FFFE0000003FF0
310
000001FFFF80007F0001FFFFFF0000F8001FFFFFF0000FF8000001FFFE000000
310
7FFFFFF0001FFFFFFC0007FFFFFFF0001FFC0007FFFFFFF0001FFF0003FFFFFF
310
FFC001FFFFFF80007000FFFFFFFFFE0000FFFE0008003FF0008001FFFF80007F
310
FFFFFFFFFC0000FFFFFFFFFFE0000FF8000001FFFE0000007FFFFFF0001FFFFF
310
F8000FFFFFFFF8000FF8000FFFFFFFF8000FFF0003FFFFFFFFFFFFFFFFFF0000
310
7000FFFFFFFFFC0000FFFC0008003FF0008001FFFF80007FFFFFFFFFF80001FF
310
FFFFFFFF80000FF8000001FFFE0000007FFFFFF0001FFFFFF8000FFFFFFFF800
310
0FF8000FFFFFFFF8000FFF0003FFFFFFFFFFFFFFFFFE0000F000FFFFFFFFE000
310
00FFFC000C003FE000C001FFFF80007FFFFFFFFFC00001FFFFFFFFFE00001FF8
310
000001FFFE0000007FFFFFF0001FFFFFF8000FFFFFFFF8000FF8000FFFFFFFF8
310
000FFF0003FFFFFFFFFFFFFFFFF00000F000FFFFFFFE000001FFFC000C001FE0
310
00C000FFFF80007FFFFFFFFE000001FFFFFFFFE000001FF80FFFFFFFFFFFFFC0
310
7FFFFFF0001FFFFFF8000FFFFFFFF8000FF8000FFFFFFFF8000FFF0003FFFFFF
310
FFFFFFFFFF800000F000FFFFFFC0000001FFFC001C001FE001C000FFFF80007F
310
FFFFFF80000003FFFFFFF80000001FF80FFFFFFFFFFFFFC07FFFFFF0001FFFFF
310
F8001FFFFFFFFC000FF8001FFFFFFFFC000FFF0003FFFFFFFFFFFFFFF0000001
310
F000FFFFF800000001FFF8001C001FE001C000FFFF80007FFFFFF800000003FF
310
FFFF800000003FF80FFFFFFFFFFFFFC07FFFFFF0001FFFFFF8001FFFFFFFFC00
310
0FF8001FFFFFFFFC000FFF0003FFFFFFFFFFFFFE00000001F000FFFFC0000000
310
03FFF8001E001FC001E000FFFF80007FFFFF8000000007FFFFFC000000003FF8
310
0FFFFFFFFFFFFFC07FFFFFF0001FFFFFF8001FFFFFFFFC000FF8001FFFFFFFFC
310
000FFF0003FFFFFFFFFFFFE000000003F000FFFE0000000007FFF8001E000FC0
310
01E0007FFF80007FFFFE0000000007FFFFE0000000007FF80FFFFFFFFFFFFFC0
310
7FFFFFF0001FFFFFF0001FFFFFFFFC0007F0001FFFFFFFFC0007FF0003FFFFFF
310
FFFFFF0000000003F000FFF80000000007FFF8001E000FC003E0007FFF80007F
310
FFF0000000000FFFFF8000000000FFF80FFFFFFFFFFFFFC07FFFFFF0001FFFFF
310
F0001FFFFFFFFC0007F0001FFFFFFFFC0007FF0003FFFFFFFFFFFC0000000007
310
F000FFE0000000000FFFF0003E000FC003E0007FFF80007FFFC0000000001FFF
310
FE0000000001FFF80FFFFFFFFFFFFFC07FFFFFF0001FFFFFF0001FFFFFFFFC00
310
07F0001FFFFFFFFC0007FF0003FFFFFFFFFFF0000000000FF000FFC000000000
310
1FFFF0003F000F8003F0003FFF80007FFF80000000003FFFF80000000003FFF8
310
0FFFFFFFFFFFFFC07FFFFFF0001FFFFFF0001FFFFFFFFC0007F0001FFFFFFFFC
310
0007FF0003FFFFFFFFFFE0000000001FF000FF00000000007FFFF0003F000780
310
03F0003FFF80007FFF00000000007FFFF00000000007FFF80FFFFFFFFFFFFFC0
310
7FFFFFF0001FFFFFF0001FFFFFFFFC0007F0001FFFFFFFFC0007FF0003FFFFFF
310
FFFF80000000007FF000FE0000000000FFFFE0003F00078007F0003FFF80007F
310
FE0000000001FFFFE0000000001FFFF80FFFFFFFFFFFFFC07FFFFFF0001FFFFF
310
F0001FFFFFFFFC0007F0001FFFFFFFFC0007FF0003FFFFFFFFFF0000000000FF
310
F000FC0000000003FFFFE0007F00078007F0003FFF80007FFC0000000007FFFF
310
C0000000007FFFF80FFFFFFFFFFFFFC07FFFFFF0001FFFFFF8001FFFFFFFFC00
310
0FF8001FFFFFFFFC000FFF0003FFFFFFFFFE0000000003FFF000FC000000000F
310
FFFFE0007F80070007F8001FFF80007FF8000000001FFFFF8000000001FFFFF8
310
0FFFFFFFFFFFFFC07FFFFFF0001FFFFFF8001FFFFFFFFC000FF8001FFFFFFFFC
310
000FFF0003FFFFFFFFFC000000000FFFF000F8000000007FFFFFE0007F800700
310
07F8001FFF80007FF000000000FFFFFF800000000FFFFFF80FFFFFFFFFFFFFC0
310
7FFFFFF0001FFFFFF8000FFFFFFFF8000FF8000FFFFFFFF8000FFF0003FFFFFF
310
FFFC000000007FFFF000F800000007FFFFFFC0007F8003000FF8001FFF80007F
310
F000000007FFFFFF000000007FFFFFF80FFFFFFFFFFFFFC07FFFFFF0001FFFFF
310
F8000FFFFFFFF8000FF8000FFFFFFFF8000FFF0003FFFFFFFFF80000000FFFFF
310
F000F0000000FFFFFFFFC000FF8003000FF8001FFF80007FE0000000FFFFFFFF
310
0000000FFFFFFFF8000001FFFE0000007FFFFFF0001FFFFFF8000FFFFFFFF800
310
0FF8000FFFFFFFF8000FFF0003FFFFFFFFF8000000FFFFFFF000F000000FFFFF
310
FFFFC000FFC002000FF8000FFF80007FE000001FFFFFFFFE000001FFFFFFFFF8
310
000001FFFE0000007FFFFFF0001FFFFFF8000FFFFFFFF8000FF8000FFFFFFFF8
310
000FFF0003FFFFFFFFF000001FFFFFFFF000E00000FFFFFFFFFFC000FFC00200
310
0FFC000FFF80007FE00001FFFFFFFFFE00001FFFFFFFFFF8000001FFFE000000
310
7FFFFFF0001FFFFFFC000FFFFFFFF8001FFC000FFFFFFFF8001FFF0003FFFFFF
310
FFF00001FFFFFFFFF000E00007FFFFFFFFFF8000FFC000001FFC000FFF80007F
310
C0000FFFFFFFFFFE0000FFFFFFFFFFF8000001FFFE0000007FFFFFF0001FFFFF
310
FC0007FFFFFFF0001FFC0007FFFFFFF0001FFF0003FFFFFFFFF00007FFFFFFFF
310
F000E0001FFFFFFFFFFF8000FFC000001FFC000FFF80007FC0003FFFFFFFFFFE
310
0001FFFFFFFFFFF8000001FFFE0000007FFFFFF0001FFFFFFC0007FFFFFFF000
310
1FFC0007FFFFFFF0001FFF0003FFFFFFFFF0001FFFFFFFFFF000E0003FFFFF00
310
03FF8001FFE000001FFC0007FF80007FC0007FFFFF0007FC0003FFFFF0003FF8
310
000001FFFE0000007FFFFFF0001FFFFFFC0003FFFFFFE0001FFC0003FFFFFFE0
310
001FFF0003FFFFFFFFF0003FFFFFFFFFF000E0003FFFFF0001FF8001FFE00000
310
1FFE0007FF80007FC0007FFFFE0003FC0007FFFFE0003FF8000001FFFE000000
310
7FFFFFF0001FFFFFFE0003FFFFFFE0003FFE0003FFFFFFE0003FFF0003FFFFFF
310
FFF0003FFFFF8001F000E0003FFFFF0001FF0001FFE000001FFE0007FF80007F
310
C0007FFFFE0003FC0007FFFFE0003FF8000001FFFE0000007FFFFFF0001FFFFF
310
FE0001FFFFFFC0003FFE0001FFFFFFC0003FFF0003FFFFFFFFF0003FFFFF0001
310
F000E0003FFFFF0003FF0001FFE000003FFE0007FF80007FC0007FFFFE0003FC
310
0007FFFFE0003FF8000001FFFE0000007FFFFFF0001FFFFFFF0001FFFFFFC000
310
7FFF0001FFFFFFC0007FFF0003FFFFFFFFF0003FFFFF0001F000E0003FFFFE00
310
03FF0003FFF000003FFE0003FF80007FC0007FFFFC0003FE0007FFFFE0003FF8
310
000001FFFE0000007FFFFFF0001FFFFFFF0000FFFFFF80007FFF0000FFFFFF80
310
007FFF0003FFFFFFFFF0003FFFFF0001F000E0003FFFFE0003FF0003FFF00000
310
3FFF0003FF80007FC0007FFFFC0007FE0007FFFFC0003FF8000001FFFE000000
310
7FFFFFF0001FFFFFFF80007FFFFF0000FFFF80007FFFFF0000FFFF0003FFFFFF
310
FFF0003FFFFF0003F000E0003FFFFC0003FE0003FFF000003FFF0003FF80007F
310
E0003FFFF80007FE0003FFFFC0007FF8000001FFFE0000007FFFFFF0001FFFFF
310
FF80003FFFFE0000FFFF80003FFFFE0000FFFF0003FFFFFFFFF0001FFFFE0003
310
F000F0001FFFF80003FE0003FFF000007FFF0001FF80007FE0003FFFF00007FE
310
0001FFFF80007FF8000001FFFE0000007FFFFFF0001FFFFFFFC0000FFFF80001
310
FFFFC0000FFFF80001FFFF0003FFFFFFFFF0001FFFFC0003F000F0000FFFF000
310
07FE0007FFF800007FFF0001FF80007FE0001FFFE00007FF0000FFFE00007FF8
310
000001FFFE0000007FFFFFF0001FFFFFFFC00003FFE00001FFFFC00003FFE000
310
01FFFF0003FFFFFFFFF8000FFFF80003F000F00003FFC00007FC0007FFF80000
310
7FFF8001FF80007FF00007FF80000FFF00007FF80000FFF8000001FFFE000000
310
7F80000000000001FFE000003E000003FFFFE000003E000003FFFF0003FFFFFF
310
FFF80003FFE00007F000F800000000000FFC0007FFF800007FFF8001FF80007F
310
F000000000000FFF000000000000FFF8000001FFFE0000007F80000000000001
310
FFF0000000000007FFFFF0000000000007FFFF0003FFFFFFFFFC00007E000007
310
F000F800000000000FFC0007FFF80000FFFF8000FF80007FF800000000001FFF
310
800000000001FFF8000001FFFE0000007F80000000000001FFF800000000000F
310
FFFFF800000000000FFFFF0003FFFFFFFFFC00000000000FF000FC0000000000
310
1FFC0007FFFC0000FFFF8000FF80007FF800000000003FFFC00000000001FFF8
310
000001FFFE0000007F80000000000001FFF800000000000FFFFFF80000000000
310
0FFFFF0003FFFFFFFFFE00000000001FF000FE00000000003FF8000FFFFC0000
310
FFFF8000FF80007FFC00000000003FFFC00000000003FFF8000001FFFE000000
310
7F80000000000001FFFC00000000001FFFFFFC00000000001FFFFF0003FFFFFF
310
FFFF00000000001FF000FF00000000003FF8000FFFFC0000FFFFC000FF80007F
310
FE00000000007FFFE00000000007FFF8000001FFFE0000007F80000000000001
310
FFFE00000000003FFFFFFE00000000003FFFFF0003FFFFFFFFFF80000000003F
310
F000FF80000000007FF8000FFFFC0001FFFFC0007F80007FFF0000000000FFFF
310
F0000000000FFFF800000000000000007F80000000000001FFFF8000000000FF
310
FFFFFF8000000000FFFFFF0003FFFFFFFFFFC0000000007FF000FFC000000000
310
FFF8000FFFFE0001FFFFC0007F80007FFF8000000001FFFFF8000000001FFFF8
310
00000000000000007F80000000000001FFFFC000000001FFFFFFFFC000000001
310
FFFFFF0003FFFFFFFFFFE000000000FFF000FFE000000003FFF0001FFFFE0001
310
FFFFC0007F80007FFFC000000007FFFFFE000000003FFFF80000000000000000
310
7F80000000000001FFFFE000000003FFFFFFFFE000000003FFFFFF0003FFFFFF
310
FFFFF000000003FFF000FFF80000000FFFF0001FFFFE0001FFFFE0007F80007F
310
FFF00000000FFFFFFF00000000FFFFF800000000000000007F80000000000001
310
FFFFF80000000FFFFFFFFFF80000000FFFFFFF0003FFFFFFFFFFFC0000000FFF
310
F000FFFE0000003FFFF0001FFFFE0003FFFFE0003F80007FFFFC0000003FFFFF
310
FFC0000003FFFFF800000000000000007F80000000000001FFFFFE0000003FFF
310
FFFFFFFE0000003FFFFFFF0003FFFFFFFFFFFF0000003FFFF000FFFF800000FF
310
FFF0001FFFFF0003FFFFE0003F80007FFFFF000001FFFFFFFFF800001FFFFFF8
310
00000000000000007F80000000000001FFFFFFC00001FFFFFFFFFFFFC00001FF
310
FFFFFF0003FFFFFFFFFFFFC00000FFFFF000FFFFF8000FFFFFFFFFFFFFFFFFFF
310
FFFFFFFFFFFFFFFFFFFFF0001FFFFFFFFFFF0000FFFFFFF80000000000000000
310
7FFFFFFFFFFFFFFFFFFFFFFC001FFFFFFFFFFFFFFC001FFFFFFFFFFFFFFFFFFF
310
FFFFFFFC001FFFFFF000FFFFFFFFFFFFFFFFFFFFFFFFFFFFFFFFFFFFFFFFFFFF
310
FFFFFFFFFFFFFFFFFFFFFFFFFFFFFFFFFFFFFFFFFFFFFFFFFFFFFFFFFFFFFFFF
310
FFFFFFFFFFFFFFFFFFFFFFFFFFFFFFFFFFFFFFFFFFFFFFFFFFFFFFFFFFFFFFFF
310
F000FFFFFFFFFFFFFFFFFFFFFFFFFFFFFFFFFFFFFFFFFFFFFFFFFFFFFFFFFFFF
310
FFFFFFFFFFFFFFFFFFFFFFFFFFFFFFFFFFFFFFFFFFFFFFFFFFFFFFFFFFFFFFFF
310
FFFFFFFFFFFFFFFFFFFFFFFFFFFFFFFFFFFFFFFFFFFFFFFFF000FFFFFFFFFFFF
310
FFFFFFFFFFFFFFFFFFFFFFFFFFFFFFFFFFFFFFFFFFFFFFFFFFFFFFFFFFFFFFFF
310
FFFFFFFFFFFFFFFFFFFFFFFFFFFFFFFFFFFFFFFFFFFFFFFFFFFFFFFFFFFFFFFF
310
FFFFFFFFFFFFFFFFFFFFFFFFFFFFFFFFF000FFFFFFFFFFFFFFFFFFFFFFFFFFFF
310
FFFFFFFFFFFFFFFFFFFFFFFFFFFFFFFFFFFFFFFFFFFFFFFFFFFFFFFFFFFFFFFF
310
FFFFFFFFFFFFFFFFFFFFFFFFFFFFFFFFFFFFFFFFFFFFFFFFFFFFFFFFFFFFFFFF
310
FFFFFFFFFFFFFFFFF000FFFFFFFFFFFFFFFFFFFFFFFFFFFFFFFFFFFFFFFFFFFF
310
FFFFFFFFFFFFFFFFFFFFFFFFFFFFFFFFFFFFFFFFFFFFFFFFFFFFFFFFFFFFFFFF
310
FFFFFFFFFFFFFFFFFFFFFFFFFFFFFFFFFFFFFFFFFFFFFFFFFFFFFFFFFFFFFFFF
310
F000FFFFFFFFFFFFFFFFFFFFFFFFFFFFFFFFFFFFFFFFFFFFFFFFFFFFFFFFFFFF
310
FFFFFFFFFFFFFFFFFFFFFFFFFFFFFFFFFFFFFFFFFFFFFFFFFFFFFFFFFFFFFFFF
310
FFFFFFFFFFFFFFFFFFFFFFFFFFFFFFFFFFFFFFFFFFFFFFFFF000FFFFFFFFFFFF
310
FFFFFFFFFFFFFFFFFFFFFFFFFFFFFFFFFFFFFFFFFFFFFFFFFFFFFFFFFFFFFFFF
310
FFFFFFFFFFFFFFFFFFFFFFFFFFFFFFFFFFFFFFFFFFFFFFFFFFFFFFFFFFFFFFFF
310
FFFFFFFFFFFFFFFFFFFFFFFFFFFFFFFFF000FFFFFFFFFFFFFFFFFFFFFFFFFFFF
310
FFFFFFFFFFFFFFFFFFFFFFFFFFFFFFFFFFFFFFFFFFFFFFFFFFFFFFFFFFFFFFFF
310
FFFFFFFFFFFFFFFFFFFFFFFFFFFFFFFFFFFFFFFFFFFFFFFFFFFFFFFFFFFFFFFF
310
FFFFFFFFFFFFFFFFF000FFFFFFFFFFFFFFFFFFFFFFFFFFFFFFFFFFFFFFFFFFFF
310
FFFFFFFFFFFFFFFFFFFFFFFFFFFFFFFFFFFFFFFFFFFFFFFFFFFFFFFFFFFFFFFF
310
FFFFFFFFFFFFFFFFFFFFFFFFFFFFFFFFFFFFFFFFFFFFFFFFFFFFFFFFFFFFFFFF
310
F000FFFFFFFFFFFFFFFFFFFFFFFFFFFFFFFFFFFFFFFFFFFFFFFFFFFFFFFFFFFF
310
FFFFFFFFFFFFFFFFFFFFFFFFFFFFFFFFFFFFFFFFFFFFFFFFFFFFFFFFFFFFFFFF
310
FFFFFFFFFFFFFFFFFFFFFFFFFFFFFFFFFFFFFFFFFFFFFFFFF000FFFFFFFFFFFF
310
FFFFFFFFFFFFFFFFFFFFFFFFFFFFFFFFFFFFFFFFFFFFFFFFFFFFFFFFFFFFFFFF
310
FFFFFFFFFFFFFFFFFFFFFFFFFFFFFFFFFFFFFFFFFFFFFFFFFFFFFFFFFFFFFFFF
310
FFFFFFFFFFFFFFFFFFFFFFFFFFFFFFFFF000FFFFFFFFFFFFFFFFFFFFFFFFFFFF
310
FFFFFFFFFFFFFFFFFFFFFFFFFFFFFFFFFFFFFFFFFFFFFFFFFFFFFFFFFFFFFFFF
310
FFFFFFFFFFFFFFFFFFFFFFFFFFFFFFFFFFFFFFFFFFFFFFFFFFFFFFFFFFFFFFFF
310
FFFFFFFFFFFFFFFFF000FFFFFFFFFFFFFFFFFFFFFFFFFFFFFFFFFFFFFFFFFFFF
310
FFFFFFFFFFFFFFFFFFFFFFFFFFFFFFFFFFFFFFFFFFFFFFFFFFFFFFFFFFFFFFFF
310
FFFFFFFFFFFFFFFFFFFFFFFFFFFFFFFFFFFFFFFFFFFFFFFFFFFFFFFFFFFFFFFF
310
F000FFFFFFFFFFFFFFFFFFFFFFFFFFFFFFFFFFFFFFFFFFFFFFFFFFFFFFFFFFFF
310
FFFFFFFFFFFFFFFFFFFFFFFFFFFFFFFFFFFFFFFFFFFFFFFFFFFFFFFFFFFFFFFF
310
FFFFFFFFFFFFFFFFFFFFFFFFFFFFFFFFFFFFFFFFFFFFFFFFF000FFFFFFFFFFFF
310
FFFFFFFFFFFFFFFFFFFFFFFFFFFFFFFFFFFFFFFFFFFFFFFFFFFFFFFFFFFFFFFF
310
FFFFFFFFFFFFFFFFFFFFFFFFFFFFFFFFFFFFFFFFFFFFFFFFFFFFFFFFFFFFFFFF
310
FFFFFFFFFFFFFFFFFFFFFFFFFFFFFFFFF000FFFFFFFFFFFFFFFFFFFFFFFFFFFF
310
FFFFFFFFFFFFFFFFFFFFFFFFFFFFFFFFFFFFFFFFFFFFFFFFFFFFFFFFFFFFFFFF
310
FFFFFFFFFFFFFFFFFFFFFFFFFFFFFFFFFFFFFFFFFFFFFFFFFFFFFFFFFFFFFFFF
310
FFFFFFFFFFFFFFFFF000FFFFFFFFFFFFFFFFFFFFFFFFFFFFFFFFFFFFFFFFFFFF
310
FFFFFFFFFFFFFFFFFFFFFFFFFFFFFFFFFFFFFFFFFFFFFFFFFFFFFFFFFFFFFFFF
310
FFFFFFFFFFFFFFFFFFFFFFFFFFFFFFFFFFFFFFFFFFFFFFFFFFFFFFFFFFFFFFFF
310
F000FFFFFFFFFFFFFFFFFFFFFFFFFFFFFFFFFFFFFFFFFFFFFFFFFFFFFFFFFFFF
310
FFFFFFFFFFFFFFFFFFFFFFFFFFFFFFFFFFFFFFFFFFFFFFFFFFFFFFFFFFFFFFFF
310
FFFFFFFFFFFFFFFFFFFFFFFFFFFFFFFFFFFFFFFFFFFFFFFFF000FFFFFFFFFFFF
310
FFFFFFFFFFFFFFFFFFFFFFFFFFFFFFFFFFFFFFFFFFFFFFFFFFFFFFFFFFFFFFFF
310
FFFFFFFFFFFFFFFFFFFFFFFFFFFFFFFFFFFFFFFFFFFFFFFFFFFFFFFFFFFFFFFF
310
FFFFFFFFFFFFFFFFFFFFFFFFFFFFFFFFF000FFFFFFFFFFFFFFFFFFFFFFFFFFFF
310
FFFFFFFFFFFFFFFFFFFFFFFFFFFFFFFFFFFFFFFFFFFFFFFFFFFFFFFFFFFFFFFF
310
FFFFFFFFFFFFFFFFFFFFFFFFFFFFFFFFFFFFFFFFFFFFFFFFFFFFFFFFFFFFFFFF
310
FFFFFFFFFFFFFFFFF000FFFFFFFFFFFFFFFFFFFFFFFFFFFFFFFFFFFFFFFFFFFF
310
FFFFFFFFFFFFFFFFFFFFFFFFFFFFFFFFFFFFFFFFFFFFFFFFFFFFFFFFFFFFFFFF
310
FFFFFFFFFFFFFFFFFFFFFFFFFFFFFFFFFFFFFFFFFFFFFFFFFFFFFFFFFFFFFFFF
310
F000FFFFFFFFFFFFFFFFFFFFFFFFFFFFFFFFFFFFFFFFFFFFFFFFFFFFFFFFFFFF
310
FFFFFFFFFFFFFFFFFFFFFFFFFFFFFFFFFFFFFFFFFFFFFFFFFFFFFFFFFFFFFFFF
310
FFFFFFFFFFFFFFFFFFFFFFFFFFFFFFFFFFFFFFFFFFFFFFFFF000FFFFFFFFFFFF
310
FFFFFFFFFFFFFFFFFFFFFFFFFFFFFFFFFFFFFFFFFFFFFFFFFFFFFFFFFFFFFFFF
310
FFFFFFFFFFFFFFFFFFFFFFFFFFFFFFFFFFFFFFFFFFFFFFFFFFFFFFFFFFFFFFFF
310
FFFFFFFFFFFFFFFFFFFFFFFFFFFFFFFFF0000000000000000000000000000000
310
0000000000000000000000000000000000000000000000000000000000000000
310
0000000000000000000000000000000000000000000000000000000000000000
310
0000000000000000000000000000000000000000000000000000000000000000
310
0000000000000000000000000000000000000000000000000000000000000000
310
0000000000000000000000000000000000000000000000000000000000000000
310
0000000000000000000000000000000000000000000000000000000000000000
310
0000000000000000000000000000000000000000000000000000000000000000
310
0000000000000000000000000000000000000000000000000000000000000000
310
0000000000000000000000000000000000000000000000000000000000000000
310
0000000000000000000000000000000000000000000000000000000000000000
310
0000000000000000000000000000000000000000000000000000000000000000
310
0000000000000000000000000000000000000000000000000000000000000000
310
0000000000000000000000000000000000000000000000000000000000000000
310
0000000000000000000000000000000000000000000000000000000000000000
310
0000000000000000000000000000000000000000000000000000000000000000
  1
OLE
  0
ENDSEC
  0
SECTION
  2
OBJECTS
  0
DICTIONARY
  5
C
330
0
100
AcDbDictionary
281
     1
  3
ACAD_GROUP
350
D
  3
ACAD_LAYOUT
350
1A
  3
ACAD_MLINESTYLE
350
17
  3
ACAD_PLOTSETTINGS
350
19
  3
ACAD_PLOTSTYLENAME
350
E
  3
ACAD_SCALELIST
350
47
  0
DICTIONARY
  5
D
102
{ACAD_REACTORS
330
C
102
}
330
C
100
AcDbDictionary
281
     1
  0
DICTIONARY
  5
1A
102
{ACAD_REACTORS
330
C
102
}
330
C
100
AcDbDictionary
281
     1
  3
Layout1
350
1E
  3
Layout2
350
26
  3
Model
350
22
  0
DICTIONARY
  5
17
102
{ACAD_REACTORS
330
C
102
}
330
C
100
AcDbDictionary
281
     1
  3
Standard
350
18
  0
DICTIONARY
  5
19
102
{ACAD_REACTORS
330
C
102
}
330
C
100
AcDbDictionary
281
     1
  0
ACDBDICTIONARYWDFLT
  5
E
102
{ACAD_REACTORS
330
C
102
}
330
C
100
AcDbDictionary
281
     1
  3
Normal
350
F
100
AcDbDictionaryWithDefault
340
F
  0
DICTIONARY
  5
47
102
{ACAD_REACTORS
330
C
102
}
330
C
100
AcDbDictionary
281
     1
  3
A0
350
48
  3
A1
350
49
  3
A2
350
4A
  3
A3
350
4B
  3
A4
350
4C
  3
A5
350
4D
  3
A6
350
4E
  3
A7
350
4F
  3
A8
350
50
  3
A9
350
51
  3
B0
350
52
  3
B1
350
53
  3
B2
350
54
  3
B3
350
55
  3
B4
350
56
  3
B5
350
57
  3
B6
350
58
  3
B7
350
59
  3
B8
350
5A
  3
B9
350
5B
  3
C0
350
5C
  3
C1
350
5D
  3
C2
350
5E
  3
C3
350
5F
  3
C4
350
60
  3
C5
350
61
  3
C6
350
62
  3
C7
350
63
  3
C8
350
64
  3
C9
350
65
  3
D0
350
66
  3
D1
350
67
  3
D2
350
68
  0
LAYOUT
  5
1E
102
{ACAD_REACTORS
330
1A
102
}
330
1A
100
AcDbPlotSettings
  1

  2
none_device
  4

  6

 40
0.0
 41
0.0
 42
0.0
 43
0.0
 44
0.0
 45
0.0
 46
0.0
 47
0.0
 48
0.0
 49
0.0
140
0.0
141
0.0
142
1.0
143
1.0
 70
   688
 72
     1
 73
     0
 74
     5
  7

 75
    16
147
1.0
148
0.0
149
0.0
100
AcDbLayout
  1
Layout1
 70
     1
 71
     1
 10
0.0
 20
0.0
 11
420.0
 21
297.0
 12
0.0
 22
0.0
 32
0.0
 14
1.0000000000E+20
 24
1.0000000000E+20
 34
1.0000000000E+20
 15
-1.0000000000E+20
 25
-1.0000000000E+20
 35
-1.0000000000E+20
146
0.0
 13
0.0
 23
0.0
 33
0.0
 16
1.0
 26
0.0
 36
0.0
 17
0.0
 27
1.0
 37
0.0
 76
     0
330
1B
  0
LAYOUT
  5
26
102
{ACAD_REACTORS
330
1A
102
}
330
1A
100
AcDbPlotSettings
  1

  2
none_device
  4

  6

 40
0.0
 41
0.0
 42
0.0
 43
0.0
 44
0.0
 45
0.0
 46
0.0
 47
0.0
 48
0.0
 49
0.0
140
0.0
141
0.0
142
1.0
143
1.0
 70
   688
 72
     1
 73
     0
 74
     5
  7

 75
    16
147
1.0
148
0.0
149
0.0
100
AcDbLayout
  1
Layout2
 70
     1
 71
     2
 10
0.0
 20
0.0
 11
0.0
 21
0.0
 12
0.0
 22
0.0
 32
0.0
 14
0.0
 24
0.0
 34
0.0
 15
0.0
 25
0.0
 35
0.0
146
0.0
 13
0.0
 23
0.0
 33
0.0
 16
1.0
 26
0.0
 36
0.0
 17
0.0
 27
1.0
 37
0.0
 76
     0
330
23
  0
LAYOUT
  5
22
102
{ACAD_REACTORS
330
1A
102
}
330
1A
100
AcDbPlotSettings
  1

  2
none_device
  4
Letter_(8.50_x_11.00_Inches)
  6

 40
6.35
 41
6.35
 42
6.35000508
 43
6.35000508
 44
215.9
 45
279.4
 46
0.0
 47
0.0
 48
0.0
 49
0.0
140
0.0
141
0.0
142
1.0
143
1.0
 70
  1712
 72
     1
 73
     0
 74
     0
  7

 75
     0
147
1.0
148
0.0
149
0.0
100
AcDbLayout
  1
Model
 70
     1
 71
     0
 10
0.0
 20
0.0
 11
297.0
 21
210.0
 12
0.0
 22
0.0
 32
0.0
 14
0.0
 24
0.0
 34
0.0
 15
297.0
 25
210.0
 35
0.0
146
0.0
 13
0.0
 23
0.0
 33
0.0
 16
1.0
 26
0.0
 36
0.0
 17
0.0
 27
1.0
 37
0.0
 76
     0
330
1F
331
29
  0
MLINESTYLE
  5
18
102
{ACAD_REACTORS
330
17
102
}
330
17
100
AcDbMlineStyle
  2
Standard
 70
     0
  3

 62
   256
 51
90.0
 52
90.0
 71
     2
 49
0.5
 62
   256
  6
BYLAYER
 49
-0.5
 62
   256
  6
BYLAYER
  0
ACDBPLACEHOLDER
  5
F
102
{ACAD_REACTORS
330
E
102
}
330
E
  0
SCALE
  5
48
102
{ACAD_REACTORS
330
47
102
}
330
47
100
AcDbScale
 70
     0
300
1:1
140
1.0
141
1.0
290
     1
  0
SCALE
  5
49
102
{ACAD_REACTORS
330
47
102
}
330
47
100
AcDbScale
 70
     0
300
1:2
140
1.0
141
2.0
290
     0
  0
SCALE
  5
4A
102
{ACAD_REACTORS
330
47
102
}
330
47
100
AcDbScale
 70
     0
300
1:4
140
1.0
141
4.0
290
     0
  0
SCALE
  5
4B
102
{ACAD_REACTORS
330
47
102
}
330
47
100
AcDbScale
 70
     0
300
1:5
140
1.0
141
5.0
290
     0
  0
SCALE
  5
4C
102
{ACAD_REACTORS
330
47
102
}
330
47
100
AcDbScale
 70
     0
300
1:8
140
1.0
141
8.0
290
     0
  0
SCALE
  5
4D
102
{ACAD_REACTORS
330
47
102
}
330
47
100
AcDbScale
 70
     0
300
1:10
140
1.0
141
10.0
290
     0
  0
SCALE
  5
4E
102
{ACAD_REACTORS
330
47
102
}
330
47
100
AcDbScale
 70
     0
300
1:16
140
1.0
141
16.0
290
     0
  0
SCALE
  5
4F
102
{ACAD_REACTORS
330
47
102
}
330
47
100
AcDbScale
 70
     0
300
1:20
140
1.0
141
20.0
290
     0
  0
SCALE
  5
50
102
{ACAD_REACTORS
330
47
102
}
330
47
100
AcDbScale
 70
     0
300
1:30
140
1.0
141
30.0
290
     0
  0
SCALE
  5
51
102
{ACAD_REACTORS
330
47
102
}
330
47
100
AcDbScale
 70
     0
300
1:40
140
1.0
141
40.0
290
     0
  0
SCALE
  5
52
102
{ACAD_REACTORS
330
47
102
}
330
47
100
AcDbScale
 70
     0
300
1:50
140
1.0
141
50.0
290
     0
  0
SCALE
  5
53
102
{ACAD_REACTORS
330
47
102
}
330
47
100
AcDbScale
 70
     0
300
1:100
140
1.0
141
100.0
290
     0
  0
SCALE
  5
54
102
{ACAD_REACTORS
330
47
102
}
330
47
100
AcDbScale
 70
     0
300
2:1
140
2.0
141
1.0
290
     0
  0
SCALE
  5
55
102
{ACAD_REACTORS
330
47
102
}
330
47
100
AcDbScale
 70
     0
300
4:1
140
4.0
141
1.0
290
     0
  0
SCALE
  5
56
102
{ACAD_REACTORS
330
47
102
}
330
47
100
AcDbScale
 70
     0
300
8:1
140
8.0
141
1.0
290
     0
  0
SCALE
  5
57
102
{ACAD_REACTORS
330
47
102
}
330
47
100
AcDbScale
 70
     0
300
10:1
140
10.0
141
1.0
290
     0
  0
SCALE
  5
58
102
{ACAD_REACTORS
330
47
102
}
330
47
100
AcDbScale
 70
     0
300
100:1
140
100.0
141
1.0
290
     0
  0
SCALE
  5
59
102
{ACAD_REACTORS
330
47
102
}
330
47
100
AcDbScale
 70
     0
300
1/128" = 1'-0"
140
0.0078125
141
12.0
290
     0
  0
SCALE
  5
5A
102
{ACAD_REACTORS
330
47
102
}
330
47
100
AcDbScale
 70
     0
300
1/64" = 1'-0"
140
0.015625
141
12.0
290
     0
  0
SCALE
  5
5B
102
{ACAD_REACTORS
330
47
102
}
330
47
100
AcDbScale
 70
     0
300
1/32" = 1'-0"
140
0.03125
141
12.0
290
     0
  0
SCALE
  5
5C
102
{ACAD_REACTORS
330
47
102
}
330
47
100
AcDbScale
 70
     0
300
1/16" = 1'-0"
140
0.0625
141
12.0
290
     0
  0
SCALE
  5
5D
102
{ACAD_REACTORS
330
47
102
}
330
47
100
AcDbScale
 70
     0
300
3/32" = 1'-0"
140
0.09375
141
12.0
290
     0
  0
SCALE
  5
5E
102
{ACAD_REACTORS
330
47
102
}
330
47
100
AcDbScale
 70
     0
300
1/8" = 1'-0"
140
0.125
141
12.0
290
     0
  0
SCALE
  5
5F
102
{ACAD_REACTORS
330
47
102
}
330
47
100
AcDbScale
 70
     0
300
3/16" = 1'-0"
140
0.1875
141
12.0
290
     0
  0
SCALE
  5
60
102
{ACAD_REACTORS
330
47
102
}
330
47
100
AcDbScale
 70
     0
300
1/4" = 1'-0"
140
0.25
141
12.0
290
     0
  0
SCALE
  5
61
102
{ACAD_REACTORS
330
47
102
}
330
47
100
AcDbScale
 70
     0
300
3/8" = 1'-0"
140
0.375
141
12.0
290
     0
  0
SCALE
  5
62
102
{ACAD_REACTORS
330
47
102
}
330
47
100
AcDbScale
 70
     0
300
1/2" = 1'-0"
140
0.5
141
12.0
290
     0
  0
SCALE
  5
63
102
{ACAD_REACTORS
330
47
102
}
330
47
100
AcDbScale
 70
     0
300
3/4" = 1'-0"
140
0.75
141
12.0
290
     0
  0
SCALE
  5
64
102
{ACAD_REACTORS
330
47
102
}
330
47
100
AcDbScale
 70
     0
300
1" = 1'-0"
140
1.0
141
12.0
290
     0
  0
SCALE
  5
65
102
{ACAD_REACTORS
330
47
102
}
330
47
100
AcDbScale
 70
     0
300
1-1/2" = 1'-0"
140
1.5
141
12.0
290
     0
  0
SCALE
  5
66
102
{ACAD_REACTORS
330
47
102
}
330
47
100
AcDbScale
 70
     0
300
3" = 1'-0"
140
3.0
141
12.0
290
     0
  0
SCALE
  5
67
102
{ACAD_REACTORS
330
47
102
}
330
47
100
AcDbScale
 70
     0
300
6" = 1'-0"
140
6.0
141
12.0
290
     0
  0
SCALE
  5
68
102
{ACAD_REACTORS
330
47
102
}
330
47
100
AcDbScale
 70
     0
300
1'-0" = 1'-0"
140
12.0
141
12.0
290
     0
  0
ENDSEC
  0
EOF
