  0
SECTION
  2
HEADER
  9
$ACADVER
  1
AC1015
  9
$ACADMAINTVER
 70
     6
  9
$DWGCODEPAGE
  3
ANSI_1252
  9
$INSBASE
 10
0.0
 20
0.0
 30
0.0
  9
$EXTMIN
 10
0.0
 20
0.0
 30
0.0
  9
$EXTMAX
 10
297.0
 20
210.0
 30
0.0
  9
$LIMMIN
 10
0.0
 20
0.0
  9
$LIMMAX
 10
297.0
 20
210.0
  9
$ORTHOMODE
 70
     0
  9
$REGENMODE
 70
     1
  9
$FILLMODE
 70
     1
  9
$QTEXTMODE
 70
     0
  9
$MIRRTEXT
 70
     1
  9
$LTSCALE
 40
1.0
  9
$ATTMODE
 70
     1
  9
$TEXTSIZE
 40
2.0
  9
$TRACEWID
 40
1.0
  9
$TEXTSTYLE
  7
Standard
  9
$CLAYER
  8
0
  9
$CELTYPE
  6
ByLayer
  9
$CECOLOR
 62
   256
  9
$CELTSCALE
 40
1.0
  9
$DISPSILH
 70
     0
  9
$DIMSCALE
 40
1.0
  9
$DIMASZ
 40
3.0
  9
$DIMEXO
 40
0.0
  9
$DIMDLI
 40
3.75
  9
$DIMRND
 40
0.0
  9
$DIMDLE
 40
0.0
  9
$DIMEXE
 40
1.0
  9
$DIMTP
 40
0.0
  9
$DIMTM
 40
0.0
  9
$DIMTXT
 40
2.0
  9
$DIMCEN
 40
2.5
  9
$DIMTSZ
 40
0.0
  9
$DIMTOL
 70
     0
  9
$DIMLIM
 70
     0
  9
$DIMTIH
 70
     1
  9
$DIMTOH
 70
     1
  9
$DIMSE1
 70
     0
  9
$DIMSE2
 70
     0
  9
$DIMTAD
 70
     1
  9
$DIMZIN
 70
     0
  9
$DIMBLK
  1

  9
$DIMASO
 70
     1
  9
$DIMSHO
 70
     1
  9
$DIMPOST
  1

  9
$DIMAPOST
  1

  9
$DIMALT
 70
     0
  9
$DIMALTD
 70
     3
  9
$DIMALTF
 40
0.0393700787
  9
$DIMLFAC
 40
2.0
  9
$DIMTOFL
 70
     1
  9
$DIMTVP
 40
0.0
  9
$DIMTIX
 70
     0
  9
$DIMSOXD
 70
     0
  9
$DIMSAH
 70
     0
  9
$DIMBLK1
  1

  9
$DIMBLK2
  1

  9
$DIMSTYLE
  2
ISO-25
  9
$DIMCLRD
 70
     0
  9
$DIMCLRE
 70
     0
  9
$DIMCLRT
 70
     0
  9
$DIMTFAC
 40
1.0
  9
$DIMGAP
 40
1.524
  9
$DIMJUST
 70
     0
  9
$DIMSD1
 70
     0
  9
$DIMSD2
 70
     0
  9
$DIMTOLJ
 70
     0
  9
$DIMTZIN
 70
     0
  9
$DIMALTZ
 70
     0
  9
$DIMALTTZ
 70
     0
  9
$DIMUPT
 70
     0
  9
$DIMDEC
 70
     2
  9
$DIMTDEC
 70
     3
  9
$DIMALTU
 70
     2
  9
$DIMALTTD
 70
     3
  9
$DIMTXSTY
  7
Standard
  9
$DIMAUNIT
 70
     0
  9
$DIMADEC
 70
     2
  9
$DIMALTRND
 40
0.0
  9
$DIMAZIN
 70
     0
  9
$DIMDSEP
 70
    44
  9
$DIMATFIT
 70
     3
  9
$DIMFRAC
 70
     0
  9
$DIMLDRBLK
  1

  9
$DIMLUNIT
 70
     2
  9
$DIMLWD
 70
    -2
  9
$DIMLWE
 70
    -2
  9
$DIMTMOVE
 70
     0
  9
$LUNITS
 70
     2
  9
$LUPREC
 70
     2
  9
$SKETCHINC
 40
1.0
  9
$FILLETRAD
 40
10.0
  9
$AUNITS
 70
     0
  9
$AUPREC
 70
     2
  9
$MENU
  1
.
  9
$ELEVATION
 40
0.0
  9
$PELEVATION
 40
0.0
  9
$THICKNESS
 40
0.0
  9
$LIMCHECK
 70
     0
  9
$CHAMFERA
 40
0.0
  9
$CHAMFERB
 40
0.0
  9
$CHAMFERC
 40
0.0
  9
$CHAMFERD
 40
0.0
  9
$SKPOLY
 70
     0
  9
$TDCREATE
 40
2457675.618667558
  9
$TDUCREATE
 40
2457675.535334224
  9
$TDUPDATE
 40
2457675.618668878
  9
$TDUUPDATE
 40
2457675.535335544
  9
$TDINDWG
 40
0.0000000116
  9
$TDUSRTIMER
 40
0.0000000116
  9
$USRTIMER
 70
     1
  9
$ANGBASE
 50
0.0
  9
$ANGDIR
 70
     0
  9
$PDMODE
 70
     0
  9
$PDSIZE
 40
-1.0
  9
$PLINEWID
 40
0.0
  9
$SPLFRAME
 70
     0
  9
$SPLINETYPE
 70
     6
  9
$SPLINESEGS
 70
     8
  9
$HANDSEED
  5
21D
  9
$SURFTAB1
 70
     6
  9
$SURFTAB2
 70
     6
  9
$SURFTYPE
 70
     6
  9
$SURFU
 70
     6
  9
$SURFV
 70
     6
  9
$UCSBASE
  2

  9
$UCSNAME
  2

  9
$UCSORG
 10
0.0
 20
0.0
 30
0.0
  9
$UCSXDIR
 10
1.0
 20
0.0
 30
0.0
  9
$UCSYDIR
 10
0.0
 20
1.0
 30
0.0
  9
$UCSORTHOREF
  2

  9
$UCSORTHOVIEW
 70
     0
  9
$UCSORGTOP
 10
0.0
 20
0.0
 30
0.0
  9
$UCSORGBOTTOM
 10
0.0
 20
0.0
 30
0.0
  9
$UCSORGLEFT
 10
0.0
 20
0.0
 30
0.0
  9
$UCSORGRIGHT
 10
0.0
 20
0.0
 30
0.0
  9
$UCSORGFRONT
 10
0.0
 20
0.0
 30
0.0
  9
$UCSORGBACK
 10
0.0
 20
0.0
 30
0.0
  9
$PUCSBASE
  2

  9
$PUCSNAME
  2

  9
$PUCSORG
 10
0.0
 20
0.0
 30
0.0
  9
$PUCSXDIR
 10
1.0
 20
0.0
 30
0.0
  9
$PUCSYDIR
 10
0.0
 20
1.0
 30
0.0
  9
$PUCSORTHOREF
  2

  9
$PUCSORTHOVIEW
 70
     0
  9
$PUCSORGTOP
 10
0.0
 20
0.0
 30
0.0
  9
$PUCSORGBOTTOM
 10
0.0
 20
0.0
 30
0.0
  9
$PUCSORGLEFT
 10
0.0
 20
0.0
 30
0.0
  9
$PUCSORGRIGHT
 10
0.0
 20
0.0
 30
0.0
  9
$PUCSORGFRONT
 10
0.0
 20
0.0
 30
0.0
  9
$PUCSORGBACK
 10
0.0
 20
0.0
 30
0.0
  9
$USERI1
 70
     0
  9
$USERI2
 70
     0
  9
$USERI3
 70
     0
  9
$USERI4
 70
     0
  9
$USERI5
 70
     0
  9
$USERR1
 40
0.0
  9
$USERR2
 40
0.0
  9
$USERR3
 40
0.0
  9
$USERR4
 40
0.0
  9
$USERR5
 40
0.0
  9
$WORLDVIEW
 70
     1
  9
$SHADEDGE
 70
     3
  9
$SHADEDIF
 70
    70
  9
$TILEMODE
 70
     1
  9
$MAXACTVP
 70
    64
  9
$PINSBASE
 10
0.0
 20
0.0
 30
0.0
  9
$PLIMCHECK
 70
     0
  9
$PEXTMIN
 10
1.0000000000E+20
 20
1.0000000000E+20
 30
1.0000000000E+20
  9
$PEXTMAX
 10
-1.0000000000E+20
 20
-1.0000000000E+20
 30
-1.0000000000E+20
  9
$PLIMMIN
 10
0.0
 20
0.0
  9
$PLIMMAX
 10
420.0
 20
297.0
  9
$UNITMODE
 70
     0
  9
$VISRETAIN
 70
     1
  9
$PLINEGEN
 70
     0
  9
$PSLTSCALE
 70
     1
  9
$TREEDEPTH
 70
  3020
  9
$CMLSTYLE
  2
Standard
  9
$CMLJUST
 70
     0
  9
$CMLSCALE
 40
20.0
  9
$PROXYGRAPHICS
 70
     1
  9
$MEASUREMENT
 70
     1
  9
$CELWEIGHT
370
    -1
  9
$ENDCAPS
280
     0
  9
$JOINSTYLE
280
     0
  9
$LWDISPLAY
290
     1
  9
$INSUNITS
 70
     4
  9
$HYPERLINKBASE
  1

  9
$STYLESHEET
  1

  9
$XEDIT
290
     1
  9
$CEPSNTYPE
380
     0
  9
$PSTYLEMODE
290
     1
  9
$FINGERPRINTGUID
  2
{349D04DF-3F7D-490B-B880-8FB6BDDEEF89}
  9
$VERSIONGUID
  2
{FAEB1C32-E019-11D5-929B-00C0DF256EC4}
  9
$EXTNAMES
290
     1
  9
$PSVPSCALE
 40
0.0
  9
$OLESTARTUP
290
     0
  0
ENDSEC
  0
SECTION
  2
CLASSES
  0
CLASS
  1
ACDBDICTIONARYWDFLT
  2
AcDbDictionaryWithDefault
  3
ObjectDBX Classes
 90
        0
280
     0
281
     0
  0
CLASS
  1
VISUALSTYLE
  2
AcDbVisualStyle
  3
ObjectDBX Classes
 90
     4095
280
     0
281
     0
  0
CLASS
  1
MATERIAL
  2
AcDbMaterial
  3
ObjectDBX Classes
 90
     1153
280
     0
281
     0
  0
CLASS
  1
SCALE
  2
AcDbScale
  3
ObjectDBX Classes
 90
     1153
280
     0
281
     0
  0
CLASS
  1
TABLESTYLE
  2
AcDbTableStyle
  3
ObjectDBX Classes
 90
     4095
280
     0
281
     0
  0
CLASS
  1
MLEADERSTYLE
  2
AcDbMLeaderStyle
  3
ACDB_MLEADERSTYLE_CLASS
 90
     4095
280
     0
281
     0
  0
CLASS
  1
SUN
  2
AcDbSun
  3
SCENEOE
 90
     1153
280
     0
281
     0
  0
CLASS
  1
ACDBPLACEHOLDER
  2
AcDbPlaceHolder
  3
ObjectDBX Classes
 90
        0
280
     0
281
     0
  0
CLASS
  1
LAYOUT
  2
AcDbLayout
  3
ObjectDBX Classes
 90
        0
280
     0
281
     0
  0
ENDSEC
  0
SECTION
  2
TABLES
  0
TABLE
  2
VPORT
  5
8
330
0
100
AcDbSymbolTable
 70
     1
  0
VPORT
  5
29
330
8
100
AcDbSymbolTableRecord
100
AcDbViewportTableRecord
  2
*Active
 70
     0
 10
0.0
 20
0.0
 11
1.0
 21
1.0
 12
148.5
 22
105.0
 13
0.0
 23
0.0
 14
10.0
 24
10.0
 15
10.0
 25
10.0
 16
0.0
 26
0.0
 36
1.0
 17
0.0
 27
0.0
 37
0.0
 40
210.0
 41
1.4142857143
 42
50.0
 43
0.0
 44
0.0
 50
0.0
 51
0.0
 71
     0
 72
  2000
 73
     1
 74
     3
 75
     0
 76
     0
 77
     0
 78
     0
281
     0
 65
     1
110
0.0
120
0.0
130
0.0
111
1.0
121
0.0
131
0.0
112
0.0
122
1.0
132
0.0
 79
     0
146
0.0
  0
ENDTAB
  0
TABLE
  2
LTYPE
  5
5
330
0
100
AcDbSymbolTable
 70
     6
  0
LTYPE
  5
14
330
5
100
AcDbSymbolTableRecord
100
AcDbLinetypeTableRecord
  2
ByBlock
 70
     0
  3

 72
    65
 73
     0
 40
0.0
  0
LTYPE
  5
15
330
5
100
AcDbSymbolTableRecord
100
AcDbLinetypeTableRecord
  2
ByLayer
 70
     0
  3

 72
    65
 73
     0
 40
0.0
  0
LTYPE
  5
16
330
5
100
AcDbSymbolTableRecord
100
AcDbLinetypeTableRecord
  2
Continuous
 70
     0
  3
Solid line
 72
    65
 73
     0
 40
0.0
  0
LTYPE
  5
6E
330
5
100
AcDbSymbolTableRecord
100
AcDbLinetypeTableRecord
  2
HIDDEN
 70
     0
  3
Hidden __ __ __ __ __ __ __ __ __ __ __ __ __ __
 72
    65
 73
     2
 40
1.905
 49
1.27
 74
     0
 49
-0.635
 74
     0
  0
LTYPE
  5
6F
330
5
100
AcDbSymbolTableRecord
100
AcDbLinetypeTableRecord
  2
PHANTOM
 70
     0
  3
Phantom ______  __  __  ______  __  __  ______
 72
    65
 73
     6
 40
12.7
 49
6.35
 74
     0
 49
-1.27
 74
     0
 49
1.27
 74
     0
 49
-1.27
 74
     0
 49
1.27
 74
     0
 49
-1.27
 74
     0
  0
LTYPE
  5
70
330
5
100
AcDbSymbolTableRecord
100
AcDbLinetypeTableRecord
  2
CENTER
 70
     0
  3
Center ____ _ ____ _ ____ _ ____ _ ____ _ ____
 72
    65
 73
     4
 40
10.16
 49
6.35
 74
     0
 49
-1.27
 74
     0
 49
1.27
 74
     0
 49
-1.27
 74
     0
  0
LTYPE
  5
71
330
5
100
AcDbSymbolTableRecord
100
AcDbLinetypeTableRecord
  2
CENTERX2
 70
     0
  3
Center (2x) ________  __  ________  __  _____
 72
    65
 73
     4
 40
20.32
 49
12.7
 74
     0
 49
-2.54
 74
     0
 49
2.54
 74
     0
 49
-2.54
 74
     0
  0
LTYPE
  5
72
330
5
100
AcDbSymbolTableRecord
100
AcDbLinetypeTableRecord
  2
DOT2
 70
     0
  3
Dot (.5x) ........................................
 72
    65
 73
     2
 40
0.635
 49
0.0
 74
     0
 49
-0.635
 74
     0
  0
ENDTAB
  0
TABLE
  2
LAYER
  5
2
330
0
100
AcDbSymbolTable
 70
     5
  0
LAYER
  5
10
330
2
100
AcDbSymbolTableRecord
100
AcDbLayerTableRecord
  2
0
 70
     0
 62
     7
  6
Continuous
370
    -3
390
F
  0
LAYER
  5
73
330
2
100
AcDbSymbolTableRecord
100
AcDbLayerTableRecord
  2
FORMAT
 70
     0
 62
     7
  6
Continuous
370
    -3
390
F
  0
LAYER
  5
74
330
2
100
AcDbSymbolTableRecord
100
AcDbLayerTableRecord
  2
VERMASSUNG
 70
     0
 62
     7
  6
Continuous
370
    -3
390
F
  0
LAYER
  5
75
330
2
100
AcDbSymbolTableRecord
100
AcDbLayerTableRecord
  2
KOPF_DÜNN
 70
     0
 62
     7
  6
Continuous
370
    -3
390
F
  0
LAYER
  5
76
330
2
100
AcDbSymbolTableRecord
100
AcDbLayerTableRecord
  2
KOPF_DICK
 70
     0
 62
     7
  6
Continuous
370
    15
390
F
  0
ENDTAB
  0
TABLE
  2
STYLE
  5
3
330
0
100
AcDbSymbolTable
 70
     2
  0
STYLE
  5
11
330
3
100
AcDbSymbolTableRecord
100
AcDbTextStyleTableRecord
  2
Standard
 70
     0
 40
0.0
 41
1.0
 50
0.0
 71
     0
 42
2.0
  3
txt
  4

  0
STYLE
  5
77
330
3
100
AcDbSymbolTableRecord
100
AcDbTextStyleTableRecord
  2
SLDTEXTSTYLE0
 70
     0
 40
0.0
 41
0.7
 50
0.0
 71
     0
 42
2.0
  3
TXT
  4

  0
ENDTAB
  0
TABLE
  2
VIEW
  5
6
330
0
100
AcDbSymbolTable
 70
     0
  0
ENDTAB
  0
TABLE
  2
UCS
  5
7
330
0
100
AcDbSymbolTable
 70
     0
  0
ENDTAB
  0
TABLE
  2
APPID
  5
9
330
0
100
AcDbSymbolTable
 70
     1
  0
APPID
  5
12
330
9
100
AcDbSymbolTableRecord
100
AcDbRegAppTableRecord
  2
ACAD
 70
     0
  0
ENDTAB
  0
TABLE
  2
DIMSTYLE
  5
A
330
0
100
AcDbSymbolTable
 70
     2
100
AcDbDimStyleTable
  0
DIMSTYLE
105
27
330
A
100
AcDbSymbolTableRecord
100
AcDbDimStyleTableRecord
  2
ISO-25
 70
     0
 41
2.5
 42
0.625
 43
3.75
 44
1.25
 73
     0
 74
     0
 77
     1
 78
     8
140
2.5
141
2.5
143
0.0393700787
147
0.625
171
     3
172
     1
178
     0
271
     2
272
     2
274
     3
278
    44
283
     0
284
     8
340
11
  0
DIMSTYLE
105
16A
102
{ACAD_REACTORS
330
169
330
176
330
180
330
18A
330
194
330
19F
330
1A9
102
}
330
A
100
AcDbSymbolTableRecord
100
AcDbDimStyleTableRecord
  2
SLDDIMSTYLE0
 70
     0
 41
3.0
 44
0.0
 45
0.000000001
 73
     0
 74
     0
 77
     1
 78
    12
 79
     3
140
2.0
147
0.5
173
     1
178
     0
271
     2
272
     3
276
     2
284
    12
340
77
  0
ENDTAB
  0
TABLE
  2
BLOCK_RECORD
  5
1
330
0
100
AcDbSymbolTable
 70
     8
  0
BLOCK_RECORD
  5
1F
330
1
100
AcDbSymbolTableRecord
100
AcDbBlockTableRecord
  2
*Model_Space
340
22
  0
BLOCK_RECORD
  5
1B
330
1
100
AcDbSymbolTableRecord
100
AcDbBlockTableRecord
  2
*Paper_Space
340
1E
  0
BLOCK_RECORD
  5
23
330
1
100
AcDbSymbolTableRecord
100
AcDbBlockTableRecord
  2
*Paper_Space0
340
26
  0
BLOCK_RECORD
  5
16B
330
1
100
AcDbSymbolTableRecord
100
AcDbBlockTableRecord
  2
_D
340
0
  0
BLOCK_RECORD
  5
177
330
1
100
AcDbSymbolTableRecord
100
AcDbBlockTableRecord
  2
_D_1
340
0
  0
BLOCK_RECORD
  5
181
330
1
100
AcDbSymbolTableRecord
100
AcDbBlockTableRecord
  2
_D_2
340
0
  0
BLOCK_RECORD
  5
18B
330
1
100
AcDbSymbolTableRecord
100
AcDbBlockTableRecord
  2
_D_3
340
0
  0
BLOCK_RECORD
  5
195
330
1
100
AcDbSymbolTableRecord
100
AcDbBlockTableRecord
  2
_D_4
340
0
  0
BLOCK_RECORD
  5
1A0
330
1
100
AcDbSymbolTableRecord
100
AcDbBlockTableRecord
  2
_D_5
340
0
  0
BLOCK_RECORD
  5
1AA
330
1
100
AcDbSymbolTableRecord
100
AcDbBlockTableRecord
  2
_D_6
340
0
  0
ENDTAB
  0
ENDSEC
  0
SECTION
  2
BLOCKS
  0
BLOCK
  5
20
330
1F
100
AcDbEntity
  8
0
100
AcDbBlockBegin
  2
*Model_Space
 70
     0
 10
0.0
 20
0.0
 30
0.0
  3
*Model_Space
  1

  0
ENDBLK
  5
21
330
1F
100
AcDbEntity
  8
0
100
AcDbBlockEnd
  0
BLOCK
  5
1C
330
1B
100
AcDbEntity
 67
     1
  8
0
100
AcDbBlockBegin
  2
*Paper_Space
 70
     0
 10
0.0
 20
0.0
 30
0.0
  3
*Paper_Space
  1

  0
ENDBLK
  5
1D
330
1B
100
AcDbEntity
 67
     1
  8
0
100
AcDbBlockEnd
  0
BLOCK
  5
24
330
23
100
AcDbEntity
  8
0
100
AcDbBlockBegin
  2
*Paper_Space0
 70
     0
 10
0.0
 20
0.0
 30
0.0
  3
*Paper_Space0
  1

  0
ENDBLK
  5
25
330
23
100
AcDbEntity
  8
0
100
AcDbBlockEnd
  0
BLOCK
  5
16C
330
16B
100
AcDbEntity
  8
0
100
AcDbBlockBegin
  2
_D
 70
     0
 10
0.0
 20
0.0
 30
0.0
  3
_D
  1

  0
SOLID
  5
16E
330
16B
100
AcDbEntity
  8
VERMASSUNG
100
AcDbTrace
 10
61.3297281731
 20
79.3096967222
 30
0.0
 11
61.7797281731
 21
82.3096967222
 31
0.0
 12
60.8797281731
 22
82.3096967222
 32
0.0
 13
60.8797281731
 23
82.3096967222
 33
0.0
  0
SOLID
  5
16F
330
16B
100
AcDbEntity
  8
VERMASSUNG
100
AcDbTrace
 10
61.3297281731
 20
142.3096967222
 30
0.0
 11
60.8797281731
 21
139.3096967222
 31
0.0
 12
61.7797281731
 22
139.3096967222
 32
0.0
 13
61.7797281731
 23
139.3096967222
 33
0.0
  0
LINE
  5
170
330
16B
100
AcDbEntity
  8
VERMASSUNG
100
AcDbLine
 10
162.7297281731
 20
79.3096967222
 30
0.0
 11
60.3297281731
 21
79.3096967222
 31
0.0
  0
LINE
  5
171
330
16B
100
AcDbEntity
  8
VERMASSUNG
100
AcDbLine
 10
162.7297281731
 20
142.3096967222
 30
0.0
 11
60.3297281731
 21
142.3096967222
 31
0.0
  0
LINE
  5
172
330
16B
100
AcDbEntity
  8
VERMASSUNG
100
AcDbLine
 10
61.3297281731
 20
79.3096967222
 30
0.0
 11
61.3297281731
 21
142.3096967222
 31
0.0
  0
MTEXT
  5
173
330
16B
100
AcDbEntity
  8
VERMASSUNG
100
AcDbMText
 10
58.5515929168
 20
100.0059428602
 30
0.0
 40
2.0
 41
0.0
 71
     1
 72
     1
  1
MAS-BT 40
  7
SLDTEXTSTYLE0
 11
3.391901413832837E-15
 21
1.0
 31
0.0
 73
     1
 44
1.0
  0
MTEXT
  5
174
330
16B
100
AcDbEntity
  8
VERMASSUNG
100
AcDbMText
 10
58.7515928681
 20
115.2059431165
 30
0.0
 40
2.0
 41
0.0
 71
     1
 72
     1
  1
%%c
  7
SLDTEXTSTYLE0
 11
3.391901413832837E-15
 21
1.0
 31
0.0
 73
     1
 44
1.0
  0
MTEXT
  5
175
330
16B
100
AcDbEntity
  8
VERMASSUNG
100
AcDbMText
 10
58.7515925771
 20
118.8140705636
 30
0.0
 40
2.0
 41
0.0
 71
     1
 72
     1
  1
63
  7
SLDTEXTSTYLE0
 11
3.391901413832837E-15
 21
1.0
 31
0.0
 73
     1
 44
1.0
  0
ENDBLK
  5
16D
330
16B
100
AcDbEntity
  8
0
100
AcDbBlockEnd
  0
BLOCK
  5
178
330
177
100
AcDbEntity
  8
0
100
AcDbBlockBegin
  2
_D_1
 70
     0
 10
0.0
 20
0.0
 30
0.0
  3
_D_1
  1

  0
SOLID
  5
17A
330
177
100
AcDbEntity
  8
VERMASSUNG
100
AcDbTrace
 10
71.3297281731
 20
158.5882911217
 30
0.0
 11
74.3297281731
 21
158.1382911217
 31
0.0
 12
74.3297281731
 22
159.0382911217
 32
0.0
 13
74.3297281731
 23
159.0382911217
 33
0.0
  0
SOLID
  5
17B
330
177
100
AcDbEntity
  8
VERMASSUNG
100
AcDbTrace
 10
229.7297281731
 20
158.5882911217
 30
0.0
 11
226.7297281731
 21
159.0382911217
 31
0.0
 12
226.7297281731
 22
158.1382911217
 32
0.0
 13
226.7297281731
 23
158.1382911217
 33
0.0
  0
LINE
  5
17C
330
177
100
AcDbEntity
  8
VERMASSUNG
100
AcDbLine
 10
71.3297281731
 20
122.6324523192
 30
0.0
 11
71.3297281731
 21
159.5882911217
 31
0.0
  0
LINE
  5
17D
330
177
100
AcDbEntity
  8
VERMASSUNG
100
AcDbLine
 10
229.7297281731
 20
123.1096967222
 30
0.0
 11
229.7297281731
 21
159.5882911217
 31
0.0
  0
LINE
  5
17E
330
177
100
AcDbEntity
  8
VERMASSUNG
100
AcDbLine
 10
71.3297281731
 20
158.5882911217
 30
0.0
 11
229.7297281731
 21
158.5882911217
 31
0.0
  0
MTEXT
  5
17F
330
177
100
AcDbEntity
  8
VERMASSUNG
100
AcDbMText
 10
147.529728147
 20
161.1664267177
 30
0.0
 40
2.0
 41
0.0
 71
     1
 72
     1
  1
158.4
  7
SLDTEXTSTYLE0
 73
     1
 44
1.0
  0
ENDBLK
  5
179
330
177
100
AcDbEntity
  8
0
100
AcDbBlockEnd
  0
BLOCK
  5
182
330
181
100
AcDbEntity
  8
0
100
AcDbBlockBegin
  2
_D_2
 70
     0
 10
0.0
 20
0.0
 30
0.0
  3
_D_2
  1

  0
SOLID
  5
184
330
181
100
AcDbEntity
  8
VERMASSUNG
100
AcDbTrace
 10
136.7297281731
 20
152.5882911217
 30
0.0
 11
139.7297281731
 21
152.1382911217
 31
0.0
 12
139.7297281731
 22
153.0382911217
 32
0.0
 13
139.7297281731
 23
153.0382911217
 33
0.0
  0
SOLID
  5
185
330
181
100
AcDbEntity
  8
VERMASSUNG
100
AcDbTrace
 10
229.7297281731
 20
152.5882911217
 30
0.0
 11
226.7297281731
 21
153.0382911217
 31
0.0
 12
226.7297281731
 22
152.1382911217
 32
0.0
 13
226.7297281731
 23
152.1382911217
 33
0.0
  0
LINE
  5
186
330
181
100
AcDbEntity
  8
VERMASSUNG
100
AcDbLine
 10
136.7297281731
 20
133.0346967222
 30
0.0
 11
136.7297281731
 21
153.5882911217
 31
0.0
  0
LINE
  5
187
330
181
100
AcDbEntity
  8
VERMASSUNG
100
AcDbLine
 10
229.7297281731
 20
123.1096967222
 30
0.0
 11
229.7297281731
 21
153.5882911217
 31
0.0
  0
LINE
  5
188
330
181
100
AcDbEntity
  8
VERMASSUNG
100
AcDbLine
 10
136.7297281731
 20
152.5882911217
 30
0.0
 11
229.7297281731
 21
152.5882911217
 31
0.0
  0
MTEXT
  5
189
330
181
100
AcDbEntity
  8
VERMASSUNG
100
AcDbMText
 10
181.829728223
 20
155.1664267177
 30
0.0
 40
2.0
 41
0.0
 71
     1
 72
     1
  1
93
  7
SLDTEXTSTYLE0
 73
     1
 44
1.0
  0
ENDBLK
  5
183
330
181
100
AcDbEntity
  8
0
100
AcDbBlockEnd
  0
BLOCK
  5
18C
330
18B
100
AcDbEntity
  8
0
100
AcDbBlockBegin
  2
_D_3
 70
     0
 10
0.0
 20
0.0
 30
0.0
  3
_D_3
  1

  0
SOLID
  5
18E
330
18B
100
AcDbEntity
  8
VERMASSUNG
100
AcDbTrace
 10
163.7297281731
 20
146.5882911217
 30
0.0
 11
166.7297281731
 21
146.1382911217
 31
0.0
 12
166.7297281731
 22
147.0382911217
 32
0.0
 13
166.7297281731
 23
147.0382911217
 33
0.0
  0
SOLID
  5
18F
330
18B
100
AcDbEntity
  8
VERMASSUNG
100
AcDbTrace
 10
229.7297281731
 20
146.5882911217
 30
0.0
 11
226.7297281731
 21
147.0382911217
 31
0.0
 12
226.7297281731
 22
146.1382911217
 32
0.0
 13
226.7297281731
 23
146.1382911217
 33
0.0
  0
LINE
  5
190
330
18B
100
AcDbEntity
  8
VERMASSUNG
100
AcDbLine
 10
163.7297281731
 20
141.3096967222
 30
0.0
 11
163.7297281731
 21
147.5882911217
 31
0.0
  0
LINE
  5
191
330
18B
100
AcDbEntity
  8
VERMASSUNG
100
AcDbLine
 10
229.7297281731
 20
123.1096967222
 30
0.0
 11
229.7297281731
 21
147.5882911217
 31
0.0
  0
LINE
  5
192
330
18B
100
AcDbEntity
  8
VERMASSUNG
100
AcDbLine
 10
163.7297281731
 20
146.5882911217
 30
0.0
 11
229.7297281731
 21
146.5882911217
 31
0.0
  0
MTEXT
  5
193
330
18B
100
AcDbEntity
  8
VERMASSUNG
100
AcDbMText
 10
195.329728223
 20
149.1664267177
 30
0.0
 40
2.0
 41
0.0
 71
     1
 72
     1
  1
66
  7
SLDTEXTSTYLE0
 73
     1
 44
1.0
  0
ENDBLK
  5
18D
330
18B
100
AcDbEntity
  8
0
100
AcDbBlockEnd
  0
BLOCK
  5
196
330
195
100
AcDbEntity
  8
0
100
AcDbBlockBegin
  2
_D_4
 70
     0
 10
0.0
 20
0.0
 30
0.0
  3
_D_4
  1

  0
SOLID
  5
198
330
195
100
AcDbEntity
  8
VERMASSUNG
100
AcDbTrace
 10
237.6290816213
 20
117.8096967222
 30
0.0
 11
237.1790816213
 21
114.8096967222
 31
0.0
 12
238.0790816213
 22
114.8096967222
 32
0.0
 13
238.0790816213
 23
114.8096967222
 33
0.0
  0
SOLID
  5
199
330
195
100
AcDbEntity
  8
VERMASSUNG
100
AcDbTrace
 10
237.6290816213
 20
103.8096967222
 30
0.0
 11
238.0790816213
 21
106.8096967222
 31
0.0
 12
237.1790816213
 22
106.8096967222
 32
0.0
 13
237.1790816213
 23
106.8096967222
 33
0.0
  0
LINE
  5
19A
330
195
100
AcDbEntity
  8
VERMASSUNG
100
AcDbLine
 10
228.7297281731
 20
117.8096967222
 30
0.0
 11
238.6290816213
 21
117.8096967222
 31
0.0
  0
LINE
  5
19B
330
195
100
AcDbEntity
  8
VERMASSUNG
100
AcDbLine
 10
228.7297281731
 20
103.8096967222
 30
0.0
 11
238.6290816213
 21
103.8096967222
 31
0.0
  0
LINE
  5
19C
330
195
100
AcDbEntity
  8
VERMASSUNG
100
AcDbLine
 10
237.6290816213
 20
117.8096967222
 30
0.0
 11
237.6290816213
 21
103.8096967222
 31
0.0
  0
MTEXT
  5
19D
330
195
100
AcDbEntity
  8
VERMASSUNG
100
AcDbMText
 10
235.0509463164
 20
107.7046965951
 30
0.0
 40
2.0
 41
0.0
 71
     1
 72
     1
  1
%%c
  7
SLDTEXTSTYLE0
 11
-7.044195017643634E-15
 21
1.0
 31
0.0
 73
     1
 44
1.0
  0
MTEXT
  5
19E
330
195
100
AcDbEntity
  8
VERMASSUNG
100
AcDbMText
 10
234.8509463651
 20
111.3146966094
 30
0.0
 40
2.0
 41
0.0
 71
     1
 72
     1
  1
14
  7
SLDTEXTSTYLE0
 11
-7.044195017643634E-15
 21
1.0
 31
0.0
 73
     1
 44
1.0
  0
ENDBLK
  5
197
330
195
100
AcDbEntity
  8
0
100
AcDbBlockEnd
  0
BLOCK
  5
1A1
330
1A0
100
AcDbEntity
  8
0
100
AcDbBlockBegin
  2
_D_5
 70
     0
 10
0.0
 20
0.0
 30
0.0
  3
_D_5
  1

  0
SOLID
  5
1A3
330
1A0
100
AcDbEntity
  8
VERMASSUNG
100
AcDbTrace
 10
197.6290816213
 20
123.3096967222
 30
0.0
 11
197.1790816213
 21
120.3096967222
 31
0.0
 12
198.0790816213
 22
120.3096967222
 32
0.0
 13
198.0790816213
 23
120.3096967222
 33
0.0
  0
SOLID
  5
1A4
330
1A0
100
AcDbEntity
  8
VERMASSUNG
100
AcDbTrace
 10
197.6290816213
 20
98.3096967222
 30
0.0
 11
198.0790816213
 21
101.3096967222
 31
0.0
 12
197.1790816213
 22
101.3096967222
 32
0.0
 13
197.1790816213
 23
101.3096967222
 33
0.0
  0
LINE
  5
1A5
330
1A0
100
AcDbEntity
  8
VERMASSUNG
100
AcDbLine
 10
197.6290816213
 20
123.3096967222
 30
0.0
 11
197.6290816213
 21
98.3096967222
 31
0.0
  0
MTEXT
  5
1A6
330
1A0
100
AcDbEntity
  8
VERMASSUNG
100
AcDbMText
 10
194.8509463651
 20
105.7046967329
 30
0.0
 40
2.0
 41
0.0
 71
     1
 72
     1
  1
WH
  7
SLDTEXTSTYLE0
 11
-7.044195017643634E-15
 21
1.0
 31
0.0
 73
     1
 44
1.0
  0
MTEXT
  5
1A7
330
1A0
100
AcDbEntity
  8
VERMASSUNG
100
AcDbMText
 10
195.0509463164
 20
109.504696797
 30
0.0
 40
2.0
 41
0.0
 71
     1
 72
     1
  1
%%c
  7
SLDTEXTSTYLE0
 11
-7.044195017643634E-15
 21
1.0
 31
0.0
 73
     1
 44
1.0
  0
MTEXT
  5
1A8
330
1A0
100
AcDbEntity
  8
VERMASSUNG
100
AcDbMText
 10
194.8509463651
 20
113.1146968113
 30
0.0
 40
2.0
 41
0.0
 71
     1
 72
     1
  1
25
  7
SLDTEXTSTYLE0
 11
-7.044195017643634E-15
 21
1.0
 31
0.0
 73
     1
 44
1.0
  0
ENDBLK
  5
1A2
330
1A0
100
AcDbEntity
  8
0
100
AcDbBlockEnd
  0
BLOCK
  5
1AB
330
1AA
100
AcDbEntity
  8
0
100
AcDbBlockBegin
  2
_D_6
 70
     0
 10
0.0
 20
0.0
 30
0.0
  3
_D_6
  1

  0
SOLID
  5
1AD
330
1AA
100
AcDbEntity
  8
VERMASSUNG
100
AcDbTrace
 10
244.0642230596
 20
123.3096967222
 30
0.0
 11
243.6142230596
 21
120.3096967222
 31
0.0
 12
244.5142230596
 22
120.3096967222
 32
0.0
 13
244.5142230596
 23
120.3096967222
 33
0.0
  0
SOLID
  5
1AE
330
1AA
100
AcDbEntity
  8
VERMASSUNG
100
AcDbTrace
 10
244.0642230596
 20
98.3096967222
 30
0.0
 11
244.5142230596
 21
101.3096967222
 31
0.0
 12
243.6142230596
 22
101.3096967222
 32
0.0
 13
243.6142230596
 23
101.3096967222
 33
0.0
  0
LINE
  5
1AF
330
1AA
100
AcDbEntity
  8
VERMASSUNG
100
AcDbLine
 10
229.5297281731
 20
123.3096967222
 30
0.0
 11
245.0642230596
 21
123.3096967222
 31
0.0
  0
LINE
  5
1B0
330
1AA
100
AcDbEntity
  8
VERMASSUNG
100
AcDbLine
 10
229.5297281731
 20
98.3096967222
 30
0.0
 11
245.0642230596
 21
98.3096967222
 31
0.0
  0
LINE
  5
1B1
330
1AA
100
AcDbEntity
  8
VERMASSUNG
100
AcDbLine
 10
244.0642230596
 20
123.3096967222
 30
0.0
 11
244.0642230596
 21
98.3096967222
 31
0.0
  0
MTEXT
  5
1B2
330
1AA
100
AcDbEntity
  8
VERMASSUNG
100
AcDbMText
 10
241.2860878034
 20
105.1046968208
 30
0.0
 40
2.0
 41
0.0
 71
     1
 72
     1
  1
WH
  7
SLDTEXTSTYLE0
 11
-7.044195017643634E-15
 21
1.0
 31
0.0
 73
     1
 44
1.0
  0
MTEXT
  5
1B3
330
1AA
100
AcDbEntity
  8
VERMASSUNG
100
AcDbMText
 10
241.4860877547
 20
110.1046967091
 30
0.0
 40
2.0
 41
0.0
 71
     1
 72
     1
  1
%%c
  7
SLDTEXTSTYLE0
 11
-7.044195017643634E-15
 21
1.0
 31
0.0
 73
     1
 44
1.0
  0
MTEXT
  5
1B4
330
1AA
100
AcDbEntity
  8
VERMASSUNG
100
AcDbMText
 10
241.2860878034
 20
113.7146967234
 30
0.0
 40
2.0
 41
0.0
 71
     1
 72
     1
  1
25
  7
SLDTEXTSTYLE0
 11
-7.044195017643634E-15
 21
1.0
 31
0.0
 73
     1
 44
1.0
  0
ENDBLK
  5
1AC
330
1AA
100
AcDbEntity
  8
0
100
AcDbBlockEnd
  0
ENDSEC
  0
SECTION
  2
ENTITIES
  0
MTEXT
  5
78
330
1F
100
AcDbEntity
  8
KOPF_DÜNN
100
AcDbMText
 10
13.8892156294
 20
23.8442973028
 30
0.0
 40
3.0
 41
0.0
 71
     1
 72
     1
  1
A34.540.025.127
  7
SLDTEXTSTYLE0
 73
     1
 44
1.0
  0
MTEXT
  5
79
330
1F
100
AcDbEntity
  8
VERMASSUNG
100
AcDbMText
 10
13.9329988022
 20
28.8834360957
 30
0.0
 40
3.0
 41
0.0
 71
     1
 72
     1
  1
Aufnahme_Master shank WH25
  7
SLDTEXTSTYLE0
 73
     1
 44
1.0
  0
MTEXT
  5
7A
330
1F
100
AcDbEntity
  8
VERMASSUNG
100
AcDbMText
 10
98.8601118557
 20
13.8365368761
 30
0.0
 40
2.0
 41
0.0
 71
     1
 72
     1
  1
Datum: 17.11.2011
  7
SLDTEXTSTYLE0
 73
     1
 44
1.0
  0
MTEXT
  5
7B
330
1F
100
AcDbEntity
  8
VERMASSUNG
100
AcDbMText
 10
13.933048693
 20
18.0482802738
 30
0.0
 40
2.0
 41
0.0
 71
     1
 72
     1
  1
MAS-BT AD/B
  7
SLDTEXTSTYLE0
 73
     1
 44
1.0
  0
MTEXT
  5
7C
330
1F
100
AcDbEntity
  8
VERMASSUNG
100
AcDbMText
 10
13.9808475933
 20
13.9090974274
 30
0.0
 40
2.0
 41
0.0
 71
     1
 72
     1
  1
Gewicht: 1206g
  7
SLDTEXTSTYLE0
 73
     1
 44
1.0
  0
LINE
  5
7D
330
1F
100
AcDbEntity
  8
0
  6
Continuous
 62
     7
370
    15
100
AcDbLine
 10
160.7297306144
 20
79.3096967222
 30
0.0
 11
162.7297281731
 21
79.3096967222
 31
0.0
  0
LINE
  5
7E
330
1F
100
AcDbEntity
  8
0
  6
Continuous
 62
     7
370
    15
100
AcDbLine
 10
162.7297281731
 20
142.3096967222
 30
0.0
 11
160.729228003
 21
142.3096967222
 31
0.0
  0
ARC
  5
7F
330
1F
100
AcDbEntity
  8
0
  6
Continuous
 62
     7
370
    15
100
AcDbCircle
 10
162.7297281731
 20
80.3096967222
 30
0.0
 40
1.0
100
AcDbArc
 50
270.0
 51
0.0
  0
ARC
  5
80
330
1F
100
AcDbEntity
  8
0
  6
Continuous
 62
     7
370
    15
100
AcDbCircle
 10
162.7297281731
 20
141.3096967222
 30
0.0
 40
1.0
100
AcDbArc
 50
0.0
 51
90.0
  0
ARC
  5
81
330
1F
100
AcDbEntity
  8
0
  6
Continuous
 62
     7
370
    15
100
AcDbCircle
 10
137.7297281731
 20
87.5846967222
 30
0.0
 40
1.0
100
AcDbArc
 50
46.4299366488
 51
90.0
  0
ARC
  5
82
330
1F
100
AcDbEntity
  8
0
  6
Continuous
 62
     7
370
    15
100
AcDbCircle
 10
137.7297281731
 20
134.0346967222
 30
0.0
 40
1.000000000000006
100
AcDbArc
 50
270.0
 51
313.5373955816
  0
LINE
  5
83
330
1F
100
AcDbEntity
  8
0
  6
Continuous
 62
     7
370
    15
100
AcDbLine
 10
136.7297281731
 20
88.5846967222
 30
0.0
 11
137.7297281731
 21
88.5846967222
 31
0.0
  0
LINE
  5
84
330
1F
100
AcDbEntity
  8
0
  6
Continuous
 62
     7
370
    15
100
AcDbLine
 10
137.7297281731
 20
133.0346967222
 30
0.0
 11
136.7297281731
 21
133.0346967222
 31
0.0
  0
LINE
  5
85
330
1F
100
AcDbEntity
  8
0
  6
Continuous
 62
     7
370
    15
100
AcDbLine
 10
136.7297281731
 20
133.0346967222
 30
0.0
 11
72.18542128
 21
123.6219853003
 31
0.0
  0
LINE
  5
86
330
1F
100
AcDbEntity
  8
0
  6
Continuous
 62
     7
370
    15
100
AcDbLine
 10
72.18542128
 20
97.9974081441
 30
0.0
 11
136.7297281731
 21
88.5846967222
 31
0.0
  0
ARC
  5
87
330
1F
100
AcDbEntity
  8
0
  6
Continuous
 62
     7
370
    15
100
AcDbCircle
 10
166.7297281731
 20
95.3096967222
 30
0.0
 40
3.0
100
AcDbArc
 50
90.0
 51
180.0
  0
ARC
  5
88
330
1F
100
AcDbEntity
  8
0
  6
Continuous
 62
     7
370
    15
100
AcDbCircle
 10
166.7297281731
 20
126.3096967222
 30
0.0
 40
3.0
100
AcDbArc
 50
180.0
 51
270.0
  0
ARC
  5
89
330
1F
100
AcDbEntity
  8
0
  6
Continuous
 62
     7
370
    15
100
AcDbCircle
 10
72.3297281731
 20
98.9869411252
 30
0.0
 40
1.000000000000014
100
AcDbArc
 50
180.0
 51
261.7028550302
  0
ARC
  5
8A
330
1F
100
AcDbEntity
  8
0
  6
Continuous
 62
     7
370
    15
100
AcDbCircle
 10
72.3297281731
 20
122.6324523192
 30
0.0
 40
1.000000000000014
100
AcDbArc
 50
98.2971449698
 51
180.0
  0
LINE
  5
8B
330
1F
100
AcDbEntity
  8
0
  6
Continuous
 62
     7
370
    15
100
AcDbLine
 10
229.5297281731
 20
123.3096967222
 30
0.0
 11
166.7297281731
 21
123.3096967222
 31
0.0
  0
LINE
  5
8C
330
1F
100
AcDbEntity
  8
0
  6
Continuous
 62
     7
370
    15
100
AcDbLine
 10
166.7297281731
 20
98.3096967222
 30
0.0
 11
229.5297281731
 21
98.3096967222
 31
0.0
  0
LINE
  5
8D
330
1F
100
AcDbEntity
  8
0
  6
Continuous
 62
     7
370
    15
100
AcDbLine
 10
229.5297281731
 20
98.3096967222
 30
0.0
 11
229.7297281731
 21
98.5096967222
 31
0.0
  0
LINE
  5
8E
330
1F
100
AcDbEntity
  8
0
  6
Continuous
 62
     7
370
    15
100
AcDbLine
 10
229.7297281731
 20
123.1096967222
 30
0.0
 11
229.5297281731
 21
123.3096967222
 31
0.0
  0
SPLINE
  5
8F
330
1F
100
AcDbEntity
  8
0
  6
Continuous
 62
     7
370
    15
100
AcDbSpline
210
0.0
220
0.0
230
1.0
 70
     8
 71
     3
 72
    11
 73
     7
 74
     0
 42
0.000000001
 43
0.00000001
 40
0.0
 40
0.0
 40
0.0
 40
0.0
 40
0.2488814606714261
 40
0.5011921284371436
 40
0.7520447562616431
 40
1.0
 40
1.0
 40
1.0
 40
1.0
 10
160.7292280030356
 20
142.3095469767782
 30
0.0
 10
160.6994496735435
 20
142.3004149506337
 30
0.0
 10
160.6394827145776
 20
142.2820250729467
 30
0.0
 10
160.1475606527989
 20
142.1379878244601
 30
0.0
 10
159.4194912301702
 20
141.9285847463493
 30
0.0
 10
158.708747758998
 20
141.7563804769997
 30
0.0
 10
158.3554402418616
 20
141.6707784766832
 30
0.0
  0
SPLINE
  5
90
330
1F
100
AcDbEntity
  8
0
  6
Continuous
 62
     7
370
    15
100
AcDbSpline
210
0.0
220
0.0
230
1.0
 70
     8
 71
     3
 72
    24
 73
    20
 74
     0
 42
0.000000001
 43
0.00000001
 40
0.0
 40
0.0
 40
0.0
 40
0.0
 40
0.0452123390553297
 40
0.0902993246598282
 40
0.1353091570720049
 40
0.1802902845531662
 40
0.2252912480536735
 40
0.2703605244088471
 40
0.315546370566241
 40
0.3608966713275183
 40
0.4064587929582132
 40
0.4522794448058856
 40
0.4984045507850309
 40
0.5831172992473144
 40
0.6669885232160451
 40
0.7503119012110596
 40
0.8333869220130001
 40
0.9165157587062372
 40
1.0
 40
1.0
 40
1.0
 40
1.0
 10
158.3553468664703
 20
79.94859870264915
 30
0.0
 10
158.423050608378
 20
79.93283966163057
 30
0.0
 10
158.5582703802136
 20
79.90136527231566
 30
0.0
 10
158.7509320970636
 20
79.85490446897454
 30
0.0
 10
158.9356689687214
 20
79.809273489341
 30
0.0
 10
159.1117869100188
 20
79.76464819190694
 30
0.0
 10
159.2794707026336
 20
79.72116090530784
 30
0.0
 10
159.4386701869256
 20
79.67895985751016
 30
0.0
 10
159.5893983254048
 20
79.63819326519864
 30
0.0
 10
159.7316512788391
 20
79.59901351259245
 30
0.0
 10
159.8654300339138
 20
79.5615762207883
 30
0.0
 10
159.99073394484
 20
79.5260396368285
 30
0.0
 10
160.1398390344345
 20
79.4833214236546
 30
0.0
 10
160.3006937545134
 20
79.43678667876675
 30
0.0
 10
160.4567033868885
 20
79.39110162999077
 30
0.0
 10
160.5783571073765
 20
79.35506200331155
 30
0.0
 10
160.664805407809
 20
79.32918796320227
 30
0.0
 10
160.7191454135838
 20
79.31277527273777
 30
0.0
 10
160.7261954804991
 20
79.31072437032537
 30
0.0
 10
160.729728033253
 20
79.30969673171539
 30
0.0
  0
LINE
  5
91
330
1F
100
AcDbEntity
  8
0
  6
Continuous
 62
     7
370
    15
100
AcDbLine
 10
158.3547281731
 20
79.9485987026
 30
0.0
 11
158.3547281731
 21
141.6707784767
 31
0.0
  0
SPLINE
  5
92
330
1F
100
AcDbEntity
  8
0
  6
Continuous
 62
     7
370
    15
100
AcDbSpline
210
0.0
220
0.0
230
1.0
 70
     8
 71
     3
 72
    10
 73
     6
 74
     0
 42
0.000000001
 43
0.00000001
 40
0.0
 40
0.0
 40
0.0
 40
0.0
 40
0.5
 40
0.5
 40
1.0
 40
1.0
 40
1.0
 40
1.0
 10
157.7063365770982
 20
140.7141574435388
 30
0.0
 10
157.3902327459588
 20
140.0942948852616
 30
0.0
 10
157.0604537016139
 20
139.4483941499628
 30
0.0
 10
156.3882304292251
 20
138.1339755096622
 30
0.0
 10
156.0460972632945
 20
137.46605328265
 30
0.0
 10
155.6989169347804
 20
136.7897155501685
 30
0.0
  0
SPLINE
  5
93
330
1F
100
AcDbEntity
  8
0
  6
Continuous
 62
     7
370
    15
100
AcDbSpline
210
0.0
220
0.0
230
1.0
 70
     8
 71
     3
 72
     9
 73
     5
 74
     0
 42
0.000000001
 43
0.00000001
 40
0.0
 40
0.0
 40
0.0
 40
0.0
 40
0.5067583433954557
 40
1.0
 40
1.0
 40
1.0
 40
1.0
 10
158.3553587160372
 20
141.6718318295336
 30
0.0
 10
158.2449587586889
 20
141.5097575698691
 30
0.0
 10
158.0271035249523
 20
141.1899320321608
 30
0.0
 10
157.8125101788783
 20
140.8715834872087
 30
0.0
 10
157.7066638013645
 20
140.7145607235189
 30
0.0
  0
SPLINE
  5
94
330
1F
100
AcDbEntity
  8
0
  6
Continuous
 62
     7
370
    15
100
AcDbSpline
210
0.0
220
0.0
230
1.0
 70
     8
 71
     3
 72
     9
 73
     5
 74
     0
 42
0.000000001
 43
0.00000001
 40
0.0
 40
0.0
 40
0.0
 40
0.0
 40
0.4932438861072345
 40
1.0
 40
1.0
 40
1.0
 40
1.0
 10
157.7066498863417
 20
80.90483062047983
 30
0.0
 10
157.8124963768347
 20
80.74780670857425
 30
0.0
 10
158.0270889819826
 20
80.42945727469711
 30
0.0
 10
158.2449430309691
 20
80.10963178695688
 30
0.0
 10
158.3553419022293
 20
79.94755826566579
 30
0.0
  0
SPLINE
  5
95
330
1F
100
AcDbEntity
  8
0
  6
Continuous
 62
     7
370
    15
100
AcDbSpline
210
0.0
220
0.0
230
1.0
 70
     8
 71
     3
 72
    10
 73
     6
 74
     0
 42
0.000000001
 43
0.00000001
 40
0.0
 40
0.0
 40
0.0
 40
0.0
 40
0.5
 40
0.5
 40
1.0
 40
1.0
 40
1.0
 40
1.0
 10
157.7063306574304
 20
80.9052476089796
 30
0.0
 10
157.3901515547563
 20
81.5252577609933
 30
0.0
 10
157.0597093275892
 20
82.17245582686101
 30
0.0
 10
156.3879978069066
 20
83.4858717514548
 30
0.0
 10
156.0460239318746
 20
84.1534830177576
 30
0.0
 10
155.6989169347804
 20
84.82967789420076
 30
0.0
  0
LINE
  5
96
330
1F
100
AcDbEntity
  8
0
  6
Continuous
 62
     7
370
    15
100
AcDbLine
 10
163.7297281731
 20
80.3096967222
 30
0.0
 11
163.7297281731
 21
141.3096967148
 31
0.0
  0
LINE
  5
97
330
1F
100
AcDbEntity
  8
0
  6
Continuous
 62
     7
370
    15
100
AcDbLine
 10
138.7297281731
 20
81.6832911767
 30
0.0
 11
138.7297281731
 21
139.9361022677
 31
0.0
  0
SPLINE
  5
98
330
1F
100
AcDbEntity
  8
0
  6
Continuous
 62
     7
370
    15
100
AcDbSpline
210
0.0
220
0.0
230
1.0
 70
     8
 71
     3
 72
    12
 73
     8
 74
     0
 42
0.000000001
 43
0.00000001
 40
0.0
 40
0.0
 40
0.0
 40
0.0
 40
0.25
 40
0.25
 40
0.5
 40
0.5
 40
1.0
 40
1.0
 40
1.0
 40
1.0
 10
139.1167609960182
 20
140.8766866220056
 30
0.0
 10
139.0649002448301
 20
140.8198740496912
 30
0.0
 10
139.0161684478112
 20
140.7578818634394
 30
0.0
 10
138.9259954378937
 20
140.6218287903154
 30
0.0
 10
138.8842181896088
 20
140.5469226877167
 30
0.0
 10
138.7781293197629
 20
140.3087960524193
 30
0.0
 10
138.7297281730527
 20
140.1253893208505
 30
0.0
 10
138.7297281730527
 20
139.9361022676686
 30
0.0
  0
SPLINE
  5
99
330
1F
100
AcDbEntity
  8
0
  6
Continuous
 62
     7
370
    15
100
AcDbSpline
210
0.0
220
0.0
230
1.0
 70
     8
 71
     3
 72
     8
 73
     4
 74
     0
 42
0.000000001
 43
0.00000001
 40
0.0
 40
0.0
 40
0.0
 40
0.0
 40
1.0
 40
1.0
 40
1.0
 40
1.0
 10
139.7297281730527
 20
141.0460868251864
 30
0.0
 10
139.5033838594528
 20
141.0460868251864
 30
0.0
 10
139.2859317390477
 20
140.9827183561656
 30
0.0
 10
139.1167609960182
 20
140.8766866220056
 30
0.0
  0
SPLINE
  5
9A
330
1F
100
AcDbEntity
  8
0
  6
Continuous
 62
     7
370
    15
100
AcDbSpline
210
0.0
220
0.0
230
1.0
 70
     8
 71
     3
 72
     8
 73
     4
 74
     0
 42
0.000000001
 43
0.00000001
 40
0.0
 40
0.0
 40
0.0
 40
0.0
 40
1.0
 40
1.0
 40
1.0
 40
1.0
 10
139.1167609960182
 20
80.74270682236366
 30
0.0
 10
139.2863545016702
 20
80.63641011180647
 30
0.0
 10
139.5027231940034
 20
80.57330661918279
 30
0.0
 10
139.7297281730527
 20
80.57330661918279
 30
0.0
  0
SPLINE
  5
9B
330
1F
100
AcDbEntity
  8
0
  6
Continuous
 62
     7
370
    15
100
AcDbSpline
210
0.0
220
0.0
230
1.0
 70
     8
 71
     3
 72
    12
 73
     8
 74
     0
 42
0.000000001
 43
0.00000001
 40
0.0
 40
0.0
 40
0.0
 40
0.0
 40
0.2499999999999977
 40
0.2499999999999977
 40
0.4999999999999953
 40
0.4999999999999953
 40
1.0
 40
1.0
 40
1.0
 40
1.0
 10
139.1167609960182
 20
80.74270682236367
 30
0.0
 10
139.0649002448301
 20
80.79951939467806
 30
0.0
 10
139.0161684478112
 20
80.86151158092987
 30
0.0
 10
138.9259954378938
 20
80.99756465405387
 30
0.0
 10
138.8842181896088
 20
81.07247075665258
 30
0.0
 10
138.7781293197629
 20
81.31059739195
 30
0.0
 10
138.7297281730527
 20
81.49400412351878
 30
0.0
 10
138.7297281730527
 20
81.68329117670065
 30
0.0
  0
LINE
  5
9C
330
1F
100
AcDbEntity
  8
0
  6
Continuous
 62
     7
370
    15
100
AcDbLine
 10
148.3047281731
 20
141.0460868252
 30
0.0
 11
139.7297281731
 21
141.0460868252
 31
0.0
  0
LINE
  5
9D
330
1F
100
AcDbEntity
  8
0
  6
Continuous
 62
     7
370
    15
100
AcDbLine
 10
148.3047281731
 20
80.5733066192
 30
0.0
 11
148.3047281731
 21
141.0460868252
 31
0.0
  0
LINE
  5
9E
330
1F
100
AcDbEntity
  8
0
  6
Continuous
 62
     7
370
    15
100
AcDbLine
 10
139.7297281731
 20
80.5733066192
 30
0.0
 11
148.3047281731
 21
80.5733066192
 31
0.0
  0
SPLINE
  5
9F
330
1F
100
AcDbEntity
  8
0
  6
Continuous
 62
     7
370
    15
100
AcDbSpline
210
0.0
220
0.0
230
1.0
 70
     8
 71
     3
 72
     8
 73
     4
 74
     0
 42
0.000000001
 43
0.00000001
 40
0.0
 40
0.0
 40
0.0
 40
0.0
 40
0.0012389803509652
 40
0.0012389803509652
 40
0.0012389803509652
 40
0.0012389803509652
 10
148.8622897165864
 20
140.2637194449711
 30
0.0
 10
148.6771697434536
 20
140.5247694263501
 30
0.0
 10
148.4912912956947
 20
140.7855510394691
 30
0.0
 10
148.3047281730527
 20
141.0460868251864
 30
0.0
  0
SPLINE
  5
A0
330
1F
100
AcDbEntity
  8
0
  6
Continuous
 62
     7
370
    15
100
AcDbSpline
210
0.0
220
0.0
230
1.0
 70
     8
 71
     3
 72
     8
 73
     4
 74
     0
 42
0.000000001
 43
0.00000001
 40
0.0
 40
0.0
 40
0.0
 40
0.0
 40
1.0
 40
1.0
 40
1.0
 40
1.0
 10
150.960539411325
 20
136.4769423866496
 30
0.0
 10
150.2642460452834
 20
137.7408807547644
 30
0.0
 10
149.5644508800923
 20
139.0029362002727
 30
0.0
 10
148.8622897165864
 20
140.2637194449711
 30
0.0
  0
SPLINE
  5
A1
330
1F
100
AcDbEntity
  8
0
  6
Continuous
 62
     7
370
    15
100
AcDbSpline
210
0.0
220
0.0
230
1.0
 70
     8
 71
     3
 72
     8
 73
     4
 74
     0
 42
0.000000001
 43
0.00000001
 40
0.0
 40
0.0
 40
0.0
 40
0.0
 40
1.0
 40
1.0
 40
1.0
 40
1.0
 10
150.9605394113249
 20
85.14245105771958
 30
0.0
 10
150.264221270667
 20
83.87846771777279
 30
0.0
 10
149.5644240785566
 20
82.61640911992083
 30
0.0
 10
148.8622897165864
 20
81.35567399939814
 30
0.0
  0
SPLINE
  5
A2
330
1F
100
AcDbEntity
  8
0
  6
Continuous
 62
     7
370
    15
100
AcDbSpline
210
0.0
220
0.0
230
1.0
 70
     8
 71
     3
 72
     8
 73
     4
 74
     0
 42
0.000000001
 43
0.00000001
 40
0.0
 40
0.0
 40
0.0
 40
0.0
 40
0.0012389803509652
 40
0.0012389803509652
 40
0.0012389803509652
 40
0.0012389803509652
 10
148.3047281730527
 20
80.57330661918279
 30
0.0
 10
148.4912912956947
 20
80.83384240490014
 30
0.0
 10
148.6771697434536
 20
81.09462401801915
 30
0.0
 10
148.8622897165864
 20
81.35567399939814
 30
0.0
  0
SPLINE
  5
A3
330
1F
100
AcDbEntity
  8
0
  6
Continuous
 62
     7
370
    15
100
AcDbSpline
210
0.0
220
0.0
230
1.0
 70
     8
 71
     3
 72
    10
 73
     6
 74
     0
 42
0.000000001
 43
0.00000001
 40
0.0
 40
0.0
 40
0.0
 40
0.0
 40
0.5
 40
0.5
 40
1.0
 40
1.0
 40
1.0
 40
1.0
 10
151.6533597343525
 20
136.0574193917642
 30
0.0
 10
151.5113424219055
 20
136.0574193917642
 30
0.0
 10
151.3708953750432
 20
136.0979092439736
 30
0.0
 10
151.1293054557819
 20
136.2458450739128
 30
0.0
 10
151.0286280135287
 20
136.3533453498923
 30
0.0
 10
150.9605394113251
 20
136.4769423866494
 30
0.0
  0
SPLINE
  5
A4
330
1F
100
AcDbEntity
  8
0
  6
Continuous
 62
     7
370
    15
100
AcDbSpline
210
0.0
220
0.0
230
1.0
 70
     8
 71
     3
 72
    10
 73
     6
 74
     0
 42
0.000000001
 43
0.00000001
 40
0.0
 40
0.0
 40
0.0
 40
0.0
 40
0.5
 40
0.5
 40
1.0
 40
1.0
 40
1.0
 40
1.0
 10
151.6533597343525
 20
85.5619740526051
 30
0.0
 10
151.5125023698418
 20
85.5619740526051
 30
0.0
 10
151.3696682383677
 20
85.52087014678642
 30
0.0
 10
151.1294065475943
 20
85.37347225348545
 30
0.0
 10
151.0287002785148
 20
85.2661792726458
 30
0.0
 10
150.9605394113249
 20
85.14245105771958
 30
0.0
  0
SPLINE
  5
A5
330
1F
100
AcDbEntity
  8
0
  6
Continuous
 62
     7
370
    15
100
AcDbSpline
210
0.0
220
0.0
230
1.0
 70
     8
 71
     3
 72
    12
 73
     8
 74
     0
 42
0.000000001
 43
0.00000001
 40
0.0
 40
0.0
 40
0.0
 40
0.0
 40
0.25
 40
0.25
 40
0.5
 40
0.5
 40
1.0
 40
1.0
 40
1.0
 40
1.0
 10
155.6989169347804
 20
136.7897155501685
 30
0.0
 10
155.6630127844439
 20
136.7197711160204
 30
0.0
 10
155.6204812323144
 20
136.6565197529625
 30
0.0
 10
155.5236869554744
 20
136.5414610980466
 30
0.0
 10
155.4685972772101
 20
136.4891325643346
 30
0.0
 10
155.2904640436561
 20
136.3553476612495
 30
0.0
 10
155.1530869516535
 20
136.2947998940913
 30
0.0
 10
155.0060966117536
 20
136.2755999457075
 30
0.0
  0
SPLINE
  5
A6
330
1F
100
AcDbEntity
  8
0
  6
Continuous
 62
     7
370
    15
100
AcDbSpline
210
0.0
220
0.0
230
1.0
 70
     8
 71
     3
 72
    12
 73
     8
 74
     0
 42
0.000000001
 43
0.00000001
 40
0.0
 40
0.0
 40
0.0
 40
0.0
 40
0.25
 40
0.25
 40
0.5
 40
0.5
 40
1.0
 40
1.0
 40
1.0
 40
1.0
 10
155.6989169347804
 20
84.82967789420073
 30
0.0
 10
155.6630127844439
 20
84.8996223283489
 30
0.0
 10
155.6204812323143
 20
84.96287369140673
 30
0.0
 10
155.5236869554744
 20
85.07793234632267
 30
0.0
 10
155.4685972772101
 20
85.13026088003464
 30
0.0
 10
155.2904640436561
 20
85.26404578311974
 30
0.0
 10
155.1530869516535
 20
85.32459355027791
 30
0.0
 10
155.0060966117536
 20
85.3437934986618
 30
0.0
  0
LINE
  5
A7
330
1F
100
AcDbEntity
  8
0
  6
Continuous
 62
     7
370
    15
100
AcDbLine
 10
151.6797281731
 20
85.5619740526
 30
0.0
 11
151.6533597344
 21
85.5619740526
 31
0.0
  0
LINE
  5
A8
330
1F
100
AcDbEntity
  8
0
  6
Continuous
 62
     7
370
    15
100
AcDbLine
 10
151.6797281731
 20
136.0574193918
 30
0.0
 11
151.6533597344
 21
136.0574193918
 31
0.0
  0
SPLINE
  5
A9
330
1F
100
AcDbEntity
  8
0
  6
Continuous
 62
     7
370
    15
100
AcDbSpline
210
0.0
220
0.0
230
1.0
 70
     8
 71
     3
 72
    10
 73
     6
 74
     0
 42
0.000000001
 43
0.00000001
 40
0.0
 40
0.0
 40
0.0
 40
0.0
 40
0.5000000000000001
 40
0.5000000000000001
 40
1.0
 40
1.0
 40
1.0
 40
1.0
 10
155.0060966117529
 20
136.2755999457104
 30
0.0
 10
154.4841818873569
 20
136.2074271952022
 30
0.0
 10
153.9453307072476
 20
136.1528039302443
 30
0.0
 10
152.8339680652154
 20
136.0777080773529
 30
0.0
 10
152.2571272880194
 20
136.0574193917642
 30
0.0
 10
151.6797281730527
 20
136.0574193917642
 30
0.0
  0
SPLINE
  5
AA
330
1F
100
AcDbEntity
  8
0
  6
Continuous
 62
     7
370
    15
100
AcDbSpline
210
0.0
220
0.0
230
1.0
 70
     8
 71
     3
 72
    10
 73
     6
 74
     0
 42
0.000000001
 43
0.00000001
 40
0.0
 40
0.0
 40
0.0
 40
0.0
 40
0.5000000000000001
 40
0.5000000000000001
 40
1.0
 40
1.0
 40
1.0
 40
1.0
 10
155.0060966117529
 20
85.34379349865887
 30
0.0
 10
154.4841818873569
 20
85.41196624916705
 30
0.0
 10
153.9453307072476
 20
85.46658951412499
 30
0.0
 10
152.8339680652154
 20
85.54168536701634
 30
0.0
 10
152.2571272880194
 20
85.5619740526051
 30
0.0
 10
151.6797281730527
 20
85.5619740526051
 30
0.0
  0
SPLINE
  5
AB
330
1F
100
AcDbEntity
  8
0
  6
Continuous
 62
     7
370
    15
100
AcDbSpline
210
0.0
220
0.0
230
1.0
 70
     8
 71
     3
 72
    10
 73
     6
 74
     0
 42
0.000000001
 43
0.00000001
 40
0.0
 40
0.0
 40
0.0
 40
0.0
 40
0.1265642595179343
 40
0.9999912776279503
 40
1.0
 40
1.0
 40
1.0
 40
1.0
 10
138.5349046098825
 20
133.3096967221846
 30
0.0
 10
138.5270354976216
 20
133.3096967221856
 30
0.0
 10
138.4648612024967
 20
133.3096967221931
 30
0.0
 10
138.3890686571241
 20
133.3096967220235
 30
0.0
 10
138.4184776261132
 20
133.3096967221846
 30
0.0
 10
138.4184779197994
 20
133.3096967221846
 30
0.0
  0
SPLINE
  5
AC
330
1F
100
AcDbEntity
  8
0
  6
Continuous
 62
     7
370
    15
100
AcDbSpline
210
0.0
220
0.0
230
1.0
 70
    24
 71
     3
 72
     9
 73
     5
 74
     0
 42
0.000000001
 43
0.00000001
 40
0.0
 40
0.0
 40
0.0
 40
0.0
 40
0.8279593837915585
 40
1.0
 40
1.0
 40
1.0
 40
1.0
 10
138.4184780095102
 20
88.30969672218464
 30
0.0
 10
138.43575914638
 20
88.30969672218464
 30
0.0
 10
138.4566311084691
 20
88.30969672218464
 30
0.0
 10
138.5225202144331
 20
88.30969672218464
 30
0.0
 10
138.5338558168246
 20
88.30969672218464
 30
0.0
  0
LINE
  5
AD
330
1F
100
AcDbEntity
  8
0
  6
Continuous
 62
     7
370
    15
100
AcDbLine
 10
136.7297281731
 20
88.5846967222
 30
0.0
 11
136.7297281731
 21
133.0346967222
 31
0.0
  0
LINE
  5
AE
330
1F
100
AcDbEntity
  8
0
  6
Continuous
 62
     7
370
    15
100
AcDbLine
 10
71.3297281731
 20
98.9869411252
 30
0.0
 11
71.3297281731
 21
122.6324523192
 31
0.0
  0
SPLINE
  5
AF
330
1F
100
AcDbEntity
  8
0
  6
Continuous
 62
     7
370
    15
100
AcDbSpline
210
0.0
220
0.0
230
1.0
 70
    11
 71
     3
 72
    74
 73
    70
 74
     0
 42
0.000000001
 43
0.00000001
 40
0.0
 40
0.0
 40
0.0
 40
0.0
 40
0.0624999999999991
 40
0.0624999999999991
 40
0.0937499999999987
 40
0.0937499999999987
 40
0.1249999999999983
 40
0.1249999999999983
 40
0.1562499999999979
 40
0.1562499999999979
 40
0.1874999999999975
 40
0.1874999999999975
 40
0.2499999999999979
 40
0.2499999999999979
 40
0.2812499999999981
 40
0.2812499999999981
 40
0.3124999999999983
 40
0.3124999999999983
 40
0.3437499999999986
 40
0.3437499999999986
 40
0.3749999999999988
 40
0.3749999999999988
 40
0.3906249999999989
 40
0.3906249999999989
 40
0.4062499999999989
 40
0.4062499999999989
 40
0.4374999999999991
 40
0.4374999999999991
 40
0.4687499999999993
 40
0.4687499999999993
 40
0.4999999999999994
 40
0.4999999999999994
 40
0.5312499999999996
 40
0.5312499999999996
 40
0.5624999999999997
 40
0.5624999999999997
 40
0.5937499999999998
 40
0.5937499999999998
 40
0.6249999999999999
 40
0.6249999999999999
 40
0.6562500000000001
 40
0.6562500000000001
 40
0.6875000000000002
 40
0.6875000000000002
 40
0.7187500000000004
 40
0.7187500000000004
 40
0.7500000000000007
 40
0.7500000000000007
 40
0.7812500000000009
 40
0.7812500000000009
 40
0.796875000000001
 40
0.796875000000001
 40
0.8125000000000011
 40
0.8125000000000011
 40
0.8437500000000007
 40
0.8437500000000007
 40
0.8593750000000004
 40
0.8593750000000004
 40
0.8750000000000002
 40
0.8750000000000002
 40
0.9062499999999999
 40
0.9062499999999999
 40
0.9218749999999999
 40
0.9218749999999999
 40
0.9374999999999999
 40
0.9374999999999999
 40
0.9687499999999999
 40
0.9687499999999999
 40
1.0
 40
1.0
 40
1.0
 40
1.0
 10
217.2414967733604
 20
114.1518282521973
 30
0.0
 10
217.7531397355786
 20
114.5283105036909
 30
0.0
 10
218.3188088647709
 20
114.8041225489974
 30
0.0
 10
219.2363871151006
 20
115.0814905154906
 30
0.0
 10
219.5464438586679
 20
115.1483066874862
 30
0.0
 10
220.1746544746177
 20
115.2333797124435
 30
0.0
 10
220.4942231405625
 20
115.2515822628334
 30
0.0
 10
221.1357759141246
 20
115.2373983035726
 30
0.0
 10
221.4517717661528
 20
115.2053738145858
 30
0.0
 10
222.074547403799
 20
115.0928250984396
 30
0.0
 10
222.3824052682103
 20
115.0119413213842
 30
0.0
 10
223.2846317042538
 20
114.6935813648769
 30
0.0
 10
223.8352323103416
 20
114.3921408123624
 30
0.0
 10
224.5714717098589
 20
113.7893614640142
 30
0.0
 10
224.7945627579328
 20
113.5684086507259
 30
0.0
 10
225.1933354484103
 20
113.0827008161312
 30
0.0
 10
225.370598783582
 20
112.8142225138753
 30
0.0
 10
225.655540934554
 20
112.2486958843469
 30
0.0
 10
225.7652081311047
 20
111.9499796786248
 30
0.0
 10
225.9078932839216
 20
111.3225076874125
 30
0.0
 10
225.9382516576126
 20
111.0062436934395
 30
0.0
 10
225.9224342261315
 20
110.5280501173511
 30
0.0
 10
225.9065949185411
 20
110.3667574661733
 30
0.0
 10
225.8546644537307
 20
110.0502383446887
 30
0.0
 10
225.8187996995966
 20
109.8950501722216
 30
0.0
 10
225.6831122141999
 20
109.4381655000961
 30
0.0
 10
225.5532311142722
 20
109.142053326274
 30
0.0
 10
225.2346083714615
 20
108.5944621491924
 30
0.0
 10
225.0450831876437
 20
108.3397512276561
 30
0.0
 10
224.6164100463144
 20
107.8716796651189
 30
0.0
 10
224.3814785257877
 20
107.6624263925878
 30
0.0
 10
223.8743366781868
 20
107.287380228399
 30
0.0
 10
223.6006783301269
 20
107.1214746926003
 30
0.0
 10
223.0351815528046
 20
106.8412614178759
 30
0.0
 10
222.7413266830371
 20
106.7252359715489
 30
0.0
 10
222.1314085150502
 20
106.5399899061207
 30
0.0
 10
221.8174070757831
 20
106.4718987078707
 30
0.0
 10
221.1885027138286
 20
106.3863008468334
 30
0.0
 10
220.8711847173572
 20
106.3680219033785
 30
0.0
 10
220.2306697438948
 20
106.3815051596672
 30
0.0
 10
219.9103192067102
 20
106.4136591665064
 30
0.0
 10
219.2865263064662
 20
106.5261611704071
 30
0.0
 10
218.9804866675805
 20
106.6064968062624
 30
0.0
 10
218.3804377438603
 20
106.8177198930396
 30
0.0
 10
218.0888578758319
 20
106.9482898012385
 30
0.0
 10
217.5399547082265
 20
107.2527651260861
 30
0.0
 10
217.279947295237
 20
107.4274771973106
 30
0.0
 10
216.7911914854602
 20
107.827179955709
 30
0.0
 10
216.5643761690567
 20
108.0515165103532
 30
0.0
 10
216.2652119868493
 20
108.416048475806
 30
0.0
 10
216.1717452620249
 20
108.5427533844179
 30
0.0
 10
215.9982057368323
 20
108.8074245744351
 30
0.0
 10
215.9176869797622
 20
108.9463546172089
 30
0.0
 10
215.7027048197612
 20
109.3732388598343
 30
0.0
 10
215.5938086636127
 20
109.6711063654741
 30
0.0
 10
215.4872445030116
 20
110.1400936521983
 30
0.0
 10
215.4614905239231
 20
110.3001827095551
 30
0.0
 10
215.431256900358
 20
110.6180746177656
 30
0.0
 10
215.4264459936276
 20
110.7771075760194
 30
0.0
 10
215.4427892727361
 20
111.254466408517
 30
0.0
 10
215.4963368505176
 20
111.5766153469036
 30
0.0
 10
215.632897195448
 20
112.0341629659534
 30
0.0
 10
215.6876875825466
 20
112.1833473163624
 30
0.0
 10
215.8151453310452
 20
112.475333253377
 30
0.0
 10
215.8882636429977
 20
112.6187541865477
 30
0.0
 10
216.1287005700505
 20
113.0306867941339
 30
0.0
 10
216.3176320258381
 20
113.2837584728442
 30
0.0
 10
216.7473446882058
 20
113.7518394441676
 30
0.0
 10
216.9856752922513
 20
113.9635871264505
 30
0.0
 10
217.2414967733604
 20
114.1518282521973
 30
0.0
  0
LINE
  5
B0
330
1F
100
AcDbEntity
  8
0
  6
Continuous
 62
     7
370
    15
100
AcDbLine
 10
229.5297281731
 20
110.8096967222
 30
0.0
 11
229.5297281731
 21
98.3096967222
 31
0.0
  0
LINE
  5
B1
330
1F
100
AcDbEntity
  8
0
  6
Continuous
 62
     7
370
    15
100
AcDbLine
 10
229.5297281731
 20
123.3096967222
 30
0.0
 11
229.5297281731
 21
110.8096967222
 31
0.0
  0
LINE
  5
B2
330
1F
100
AcDbEntity
  8
0
  6
Continuous
 62
     7
370
    15
100
AcDbLine
 10
229.7297281731
 20
110.8096967222
 30
0.0
 11
229.7297281731
 21
98.5096967222
 31
0.0
  0
LINE
  5
B3
330
1F
100
AcDbEntity
  8
0
  6
Continuous
 62
     7
370
    15
100
AcDbLine
 10
229.7297281731
 20
123.1096967222
 30
0.0
 11
229.7297281731
 21
110.8096967222
 31
0.0
  0
LINE
  5
B4
330
1F
100
AcDbEntity
  8
0
  6
Continuous
 62
     7
370
    15
100
AcDbLine
 10
220.0388743265
 20
108.5909944707
 30
0.0
 11
218.4378487366
 21
110.2553413077
 31
0.0
  0
LINE
  5
B5
330
1F
100
AcDbEntity
  8
0
  6
Continuous
 62
     7
370
    15
100
AcDbLine
 10
222.9216076095
 20
111.3640521367
 30
0.0
 11
222.280753763
 21
109.1453498852
 31
0.0
  0
LINE
  5
B6
330
1F
100
AcDbEntity
  8
0
  6
Continuous
 62
     7
370
    15
100
AcDbLine
 10
221.3205820196
 20
113.0283989737
 30
0.0
 11
222.9216076095
 21
111.3640521367
 31
0.0
  0
LINE
  5
B7
330
1F
100
AcDbEntity
  8
0
  6
Continuous
 62
     7
370
    15
100
AcDbLine
 10
219.0787025831
 20
112.4740435591
 30
0.0
 11
221.3205820196
 21
113.0283989737
 31
0.0
  0
CIRCLE
  5
B8
330
1F
100
AcDbEntity
  8
0
  6
Continuous
 62
     7
370
    15
100
AcDbCircle
 10
220.6797281731
 20
110.8096967222
 30
0.0
 40
4.000000000000026
  0
LINE
  5
B9
330
1F
100
AcDbEntity
  8
0
  6
Continuous
 62
     7
370
    15
100
AcDbLine
 10
218.4378487366
 20
110.2553413077
 30
0.0
 11
219.0787025831
 21
112.4740435591
 31
0.0
  0
LINE
  5
BA
330
1F
100
AcDbEntity
  8
0
  6
Continuous
 62
     7
370
    15
100
AcDbLine
 10
222.280753763
 20
109.1453498852
 30
0.0
 11
220.0388743265
 21
108.5909944707
 31
0.0
  0
SPLINE
  5
BB
330
1F
100
AcDbEntity
  8
0
  6
HIDDEN
 62
     7
370
     0
100
AcDbSpline
210
0.0
220
0.0
230
1.0
 70
     8
 71
     3
 72
    17
 73
    13
 74
     0
 42
0.000000001
 43
0.00000001
 40
0.0
 40
0.0
 40
0.0
 40
0.0
 40
0.0000911568563012
 40
0.0001118962256225
 40
0.2495351486518076
 40
0.5019954014616274
 40
0.5864123905084778
 40
0.6698717771552243
 40
0.7526625357481239
 40
0.8350806749679495
 40
0.9174262229421157
 40
1.0
 40
1.0
 40
1.0
 40
1.0
 10
160.729728033253
 20
79.30969673171539
 30
0.0
 10
160.7297282974779
 20
79.30969672765946
 30
0.0
 10
160.7297286218175
 20
79.30969672268074
 30
0.0
 10
160.7303430498992
 20
79.3096955810844
 30
0.0
 10
160.6262041128444
 20
79.34191224755905
 30
0.0
 10
160.2577174110523
 20
79.45027339855982
 30
0.0
 10
159.8911050179405
 20
79.55510407681277
 30
0.0
 10
159.6415734586635
 20
79.6247967815648
 30
0.0
 10
159.3637876724084
 20
79.69993849048454
 30
0.0
 10
159.0571278957065
 20
79.779603484069
 30
0.0
 10
158.7239410630754
 20
79.86275266550696
 30
0.0
 10
158.4789436209269
 20
79.92006514773453
 30
0.0
 10
158.3562753759303
 20
79.94876104573903
 30
0.0
  0
LWPOLYLINE
  5
BC
330
1F
100
AcDbEntity
  8
0
  6
HIDDEN
 62
     7
370
     0
100
AcDbPolyline
 90
       22
 70
   128
 43
0.0
 10
138.9782991514
 20
101.8219846297
 10
139.1158316345
 20
101.2121168705
 10
139.3301251163
 20
100.6564385381
 10
139.6021386804
 20
100.2043240908
 10
139.907702728
 20
99.8959458814
 10
140.2196665524
 20
99.7587046671
 10
140.5103107989
 20
99.804794932
 10
140.7538104506
 20
100.0301213538
 10
140.928529495
 20
100.4146626911
 10
141.0189433782
 20
100.9242507587
 10
141.0170184298
 20
101.5136064203
 10
140.9229256901
 20
102.1303628391
 10
140.7450257119
 20
102.7197185007
 10
140.4991256888
 20
103.2293065682
 10
140.2070749172
 20
103.6138479055
 10
139.8948233896
 20
103.8391743274
 10
139.5901160247
 20
103.8852645923
 10
139.3200274089
 20
103.7480233779
 10
139.108556101
 20
103.4396451685
 10
138.9744922549
 20
102.9875307213
 10
138.9297480314
 20
102.4318523888
 10
138.9782991514
 20
101.8219846297
  0
LWPOLYLINE
  5
BD
330
1F
100
AcDbEntity
  8
0
  6
HIDDEN
 62
     7
370
     0
100
AcDbPolyline
 90
       19
 70
   128
 43
0.0
 10
139.3347344457
 20
101.8499937888
 10
139.4670133134
 20
101.2939735868
 10
139.6782415627
 20
100.8050176272
 10
139.9429419495
 20
100.4421012149
 10
140.2291877004
 20
100.2489974253
 10
140.5024533535
 20
100.2489974253
 10
140.7297790379
 20
100.4421012149
 10
140.8837459212
 20
100.8050176272
 10
140.945783325
 20
101.2939735868
 10
140.9084086226
 20
101.8499937888
 10
140.7761297549
 20
102.4060139908
 10
140.5649015056
 20
102.8949699504
 10
140.3002011188
 20
103.2578863627
 10
140.0139553678
 20
103.4509901523
 10
139.7406897148
 20
103.4509901523
 10
139.5133640303
 20
103.2578863627
 10
139.3593971471
 20
102.8949699504
 10
139.2973597433
 20
102.4060139908
 10
139.3347344457
 20
101.8499937888
  0
SPLINE
  5
BE
330
1F
100
AcDbEntity
  8
0
  6
HIDDEN
 62
     7
370
     0
100
AcDbSpline
210
0.0
220
0.0
230
1.0
 70
     8
 71
     3
 72
    12
 73
     8
 74
     0
 42
0.000000001
 43
0.00000001
 40
0.0
 40
0.0
 40
0.0
 40
0.0
 40
0.5000000000000014
 40
0.5000000000000014
 40
0.7500000000000007
 40
0.7500000000000007
 40
1.0
 40
1.0
 40
1.0
 40
1.0
 10
151.3208097857313
 20
104.0311273989783
 30
0.0
 10
151.3939101462067
 20
103.836392431217
 30
0.0
 10
151.4298138955389
 20
103.6288142561882
 30
0.0
 10
151.4298660135892
 20
103.3330526061166
 30
0.0
 10
151.4208292034988
 20
103.2353566135428
 30
0.0
 10
151.3847767303831
 20
103.0514887047141
 30
0.0
 10
151.3578290892803
 20
102.9641989981071
 30
0.0
 10
151.3208097857313
 20
102.8813998823872
 30
0.0
  0
SPLINE
  5
BF
330
1F
100
AcDbEntity
  8
0
  6
HIDDEN
 62
     7
370
     0
100
AcDbSpline
210
0.0
220
0.0
230
1.0
 70
     8
 71
     3
 72
    50
 73
    46
 74
     0
 42
0.000000001
 43
0.00000001
 40
0.0
 40
0.0
 40
0.0
 40
0.0
 40
0.0625000000000016
 40
0.0625000000000016
 40
0.1250000000000032
 40
0.1250000000000032
 40
0.1875000000000049
 40
0.1875000000000049
 40
0.2500000000000065
 40
0.2500000000000065
 40
0.2812500000000068
 40
0.2812500000000068
 40
0.312500000000007
 40
0.312500000000007
 40
0.3750000000000069
 40
0.3750000000000069
 40
0.4062500000000066
 40
0.4062500000000066
 40
0.4375000000000063
 40
0.4375000000000063
 40
0.468750000000006
 40
0.468750000000006
 40
0.5000000000000057
 40
0.5000000000000057
 40
0.5312500000000053
 40
0.5312500000000053
 40
0.5625000000000051
 40
0.5625000000000051
 40
0.5937500000000048
 40
0.5937500000000048
 40
0.6250000000000044
 40
0.6250000000000044
 40
0.6875000000000037
 40
0.6875000000000037
 40
0.7187500000000037
 40
0.7187500000000037
 40
0.7500000000000037
 40
0.7500000000000037
 40
0.8125000000000028
 40
0.8125000000000028
 40
0.8750000000000019
 40
0.8750000000000019
 40
0.9375000000000009
 40
0.9375000000000009
 40
1.0
 40
1.0
 40
1.0
 40
1.0
 10
151.3208097857313
 20
102.8813998823872
 30
0.0
 10
151.3759960810759
 20
102.7505750164489
 30
0.0
 10
151.4451527093568
 20
102.6646580895618
 30
0.0
 10
151.5926911576631
 20
102.5413605824554
 30
0.0
 10
151.6689760788862
 20
102.5073357322837
 30
0.0
 10
151.8137682060476
 20
102.4779833096843
 30
0.0
 10
151.883623199127
 20
102.4829905001774
 30
0.0
 10
151.992249472821
 20
102.5336130189767
 30
0.0
 10
152.0321527025229
 20
102.5794164218982
 30
0.0
 10
152.0298976790203
 20
102.6931277724233
 30
0.0
 10
152.0180062517528
 20
102.7397045075159
 30
0.0
 10
151.9706719627045
 20
102.8476749950609
 30
0.0
 10
151.9350819358705
 20
102.9100261356635
 30
0.0
 10
151.8038781860043
 20
103.120700337563
 30
0.0
 10
151.6896385901492
 20
103.2878738493171
 30
0.0
 10
151.5363015803218
 20
103.5626128367455
 30
0.0
 10
151.4868672189735
 20
103.6599085756127
 30
0.0
 10
151.3991018841033
 20
103.8591283872005
 30
0.0
 10
151.3606217600063
 20
103.9609604195882
 30
0.0
 10
151.296786102073
 20
104.1699039261158
 30
0.0
 10
151.2716324270839
 20
104.277102272186
 30
0.0
 10
151.2383200348893
 20
104.4874422387188
 30
0.0
 10
151.2297113809353
 20
104.5918163162644
 30
0.0
 10
151.2297450140325
 20
104.7989987264529
 30
0.0
 10
151.2384446212415
 20
104.8986912448157
 30
0.0
 10
151.271929557475
 20
105.0885739876541
 30
0.0
 10
151.2971435058553
 20
105.1800297684333
 30
0.0
 10
151.3611435388455
 20
105.347872504132
 30
0.0
 10
151.3997106909967
 20
105.4244099095475
 30
0.0
 10
151.4876602523543
 20
105.5626530321576
 30
0.0
 10
151.53709625311
 20
105.6240081781106
 30
0.0
 10
151.6903770442213
 20
105.7771507635515
 30
0.0
 10
151.8046905481469
 20
105.8419567150622
 30
0.0
 10
151.9351371146697
 20
105.8628090767081
 30
0.0
 10
151.9711620244621
 20
105.8568398215503
 30
0.0
 10
152.0182903175071
 20
105.8218867517155
 30
0.0
 10
152.0300270232659
 20
105.7924283813656
 30
0.0
 10
152.031929252102
 20
105.6817174407871
 30
0.0
 10
151.991805858654
 20
105.5783775362441
 30
0.0
 10
151.8835335812124
 20
105.3479477212378
 30
0.0
 10
151.8141611053058
 20
105.2178352133239
 30
0.0
 10
151.6686554973932
 20
104.9311497880051
 30
0.0
 10
151.5927562496821
 20
104.7761203644576
 30
0.0
 10
151.4463295266381
 20
104.4301948723823
 30
0.0
 10
151.3757989449029
 20
104.2401419146521
 30
0.0
 10
151.3208097857313
 20
104.0311273989783
 30
0.0
  0
SPLINE
  5
C0
330
1F
100
AcDbEntity
  8
0
  6
HIDDEN
 62
     7
370
     0
100
AcDbSpline
210
0.0
220
0.0
230
1.0
 70
    11
 71
     3
 72
    66
 73
    62
 74
     0
 42
0.000000001
 43
0.00000001
 40
0.0
 40
0.0
 40
0.0
 40
0.0
 40
0.03125
 40
0.03125
 40
0.0625
 40
0.0625
 40
0.0937500000000001
 40
0.0937500000000001
 40
0.1250000000000001
 40
0.1250000000000001
 40
0.1562500000000001
 40
0.1562500000000001
 40
0.1875000000000001
 40
0.1875000000000001
 40
0.2187500000000001
 40
0.2187500000000001
 40
0.2500000000000002
 40
0.2500000000000002
 40
0.2812500000000002
 40
0.2812500000000002
 40
0.3125000000000002
 40
0.3125000000000002
 40
0.3437500000000002
 40
0.3437500000000002
 40
0.3750000000000002
 40
0.3750000000000002
 40
0.4062500000000003
 40
0.4062500000000003
 40
0.4375000000000003
 40
0.4375000000000003
 40
0.4687500000000003
 40
0.4687500000000003
 40
0.5000000000000003
 40
0.5000000000000003
 40
0.5312500000000003
 40
0.5312500000000003
 40
0.5625000000000003
 40
0.5625000000000003
 40
0.5937500000000004
 40
0.5937500000000004
 40
0.6250000000000004
 40
0.6250000000000004
 40
0.6562500000000004
 40
0.6562500000000004
 40
0.6875000000000004
 40
0.6875000000000004
 40
0.7187500000000004
 40
0.7187500000000004
 40
0.7500000000000004
 40
0.7500000000000004
 40
0.7812500000000006
 40
0.7812500000000006
 40
0.8125000000000006
 40
0.8125000000000006
 40
0.8750000000000006
 40
0.8750000000000006
 40
0.9375000000000007
 40
0.9375000000000007
 40
0.9687500000000003
 40
0.9687500000000003
 40
1.0
 40
1.0
 40
1.0
 40
1.0
 10
153.3297281730527
 20
108.3724035239521
 30
0.0
 10
153.1805927979254
 20
108.3724035239521
 30
0.0
 10
153.0368644900072
 20
108.3785945129614
 30
0.0
 10
152.7579262223127
 20
108.4047675509468
 30
0.0
 10
152.6293690792317
 20
108.4242448987456
 30
0.0
 10
152.3853514285041
 20
108.4785671446456
 30
0.0
 10
152.2698949346704
 20
108.5137065025535
 30
0.0
 10
152.0560582811982
 20
108.6002874883492
 30
0.0
 10
151.9565661759665
 20
108.6518951304955
 30
0.0
 10
151.7707625640306
 20
108.775495265756
 30
0.0
 10
151.6841191104431
 20
108.8481461814547
 30
0.0
 10
151.5311578111139
 20
109.013006523229
 30
0.0
 10
151.463950162151
 20
109.1055595300819
 30
0.0
 10
151.3506852752098
 20
109.3159961669035
 30
0.0
 10
151.3064409306125
 20
109.4308824540552
 30
0.0
 10
151.2459191510045
 20
109.679494037289
 30
0.0
 10
151.22993139915
 20
109.8145678782923
 30
0.0
 10
151.2295289234548
 20
110.0892950417231
 30
0.0
 10
151.2450032896966
 20
110.2329931521891
 30
0.0
 10
151.3049293938478
 20
110.5169913795638
 30
0.0
 10
151.3489118508716
 20
110.6572398158018
 30
0.0
 10
151.4616742681219
 20
110.931358121507
 30
0.0
 10
151.5288542076189
 20
111.0616579946185
 30
0.0
 10
151.6824362694506
 20
111.3104676474057
 30
0.0
 10
151.7687399083303
 20
111.4283470995997
 30
0.0
 10
151.9538691685626
 20
111.6450190022924
 30
0.0
 10
152.0533817899956
 20
111.745030848852
 30
0.0
 10
152.2682924231313
 20
111.9283192281683
 30
0.0
 10
152.3835070541284
 20
112.0112229893194
 30
0.0
 10
152.6269650189538
 20
112.1521352845146
 30
0.0
 10
152.7578164289843
 20
112.2116314572012
 30
0.0
 10
153.03439205968
 20
112.2952820356954
 30
0.0
 10
153.1819574942623
 20
112.3190320484275
 30
0.0
 10
153.475937734861
 20
112.319192587824
 30
0.0
 10
153.6231326083965
 20
112.2956564636594
 30
0.0
 10
153.8992358314773
 20
112.2125651162557
 30
0.0
 10
154.0289297603477
 20
112.1539681621842
 30
0.0
 10
154.2744782494356
 20
112.0122983245604
 30
0.0
 10
154.3879381570453
 20
111.930704261592
 30
0.0
 10
154.6017258995304
 20
111.7490929752086
 30
0.0
 10
154.7025525770738
 20
111.6482998415123
 30
0.0
 10
154.8893459046067
 20
111.4302156323664
 30
0.0
 10
154.9740833939067
 20
111.3145371000414
 30
0.0
 10
155.1263265624059
 20
111.06924080835
 30
0.0
 10
155.1943563419183
 20
110.9384243213324
 30
0.0
 10
155.3077276338942
 20
110.6652810968791
 30
0.0
 10
155.3520283067442
 20
110.5259538763685
 30
0.0
 10
155.4132577347923
 20
110.2413666673064
 30
0.0
 10
155.4292907282831
 20
110.0980862811632
 30
0.0
 10
155.4301476233283
 20
109.8227646174076
 30
0.0
 10
155.4147495225956
 20
109.687137155728
 30
0.0
 10
155.3552669849024
 20
109.4376176621089
 30
0.0
 10
155.3109769060428
 20
109.3211753104181
 30
0.0
 10
155.1426488309337
 20
109.0052699399168
 30
0.0
 10
154.984390482431
 20
108.8399210135382
 30
0.0
 10
154.6143625944764
 20
108.5922531108809
 30
0.0
 10
154.3984835046758
 20
108.5065664296175
 30
0.0
 10
154.0334593512062
 20
108.4248431597168
 30
0.0
 10
153.9021108348611
 20
108.4048908271517
 30
0.0
 10
153.6258196224858
 20
108.3788295311198
 30
0.0
 10
153.4788635481799
 20
108.3724035239521
 30
0.0
 10
153.3297281730527
 20
108.3724035239521
 30
0.0
  0
LWPOLYLINE
  5
C1
330
1F
100
AcDbEntity
  8
0
  6
HIDDEN
 62
     7
370
     0
100
AcDbPolyline
 90
       20
 70
   128
 43
0.0
 10
151.3208097857
 20
102.8813998824
 10
151.5908250734
 20
102.3498913974
 10
152.0157382579
 20
101.9169362668
 10
152.5576989502
 20
101.6211012395
 10
153.1684304113
 20
101.4887386888
 10
153.7935299438
 20
101.5316391973
 10
154.3773149725
 20
101.7459812763
 10
154.8677831326
 20
102.1126717761
 10
155.2212445335
 20
102.5990466642
 10
155.4062135636
 20
103.1617806703
 10
155.4062135636
 20
103.7507466111
 10
155.2212445335
 20
104.3134806171
 10
154.8677831326
 20
104.7998555053
 10
154.3773149725
 20
105.1665460051
 10
153.7935299438
 20
105.3808880841
 10
153.1684304113
 20
105.4237885926
 10
152.5576989502
 20
105.2914260418
 10
152.0157382579
 20
104.9955910146
 10
151.5908250734
 20
104.562635884
 10
151.3208097857
 20
104.031127399
  0
CIRCLE
  5
C2
330
1F
100
AcDbEntity
  8
0
  6
HIDDEN
 62
     7
370
     0
100
AcDbCircle
 10
220.6797281731
 20
110.8096967222
 30
0.0
 40
3.5
  0
ELLIPSE
  5
C3
330
1F
100
AcDbEntity
  8
0
  6
HIDDEN
 62
     7
370
     0
100
AcDbEllipse
 10
139.0669864733
 20
86.7096967222
 30
0.0
 11
0.0
 21
1.600000000000009
 31
0.0
210
0.0
220
0.0
230
1.0
 40
0.4142135624
 41
4.712388980384695
 42
6.283185307179586
  0
LINE
  5
C4
330
1F
100
AcDbEntity
  8
0
  6
HIDDEN
 62
     7
370
     0
100
AcDbLine
 10
139.0669864733
 20
88.3096967222
 30
0.0
 11
138.7297281731
 21
88.3096967222
 31
0.0
  0
LINE
  5
C5
330
1F
100
AcDbEntity
  8
0
  6
HIDDEN
 62
     7
370
     0
100
AcDbLine
 10
138.7297281731
 20
133.3096967222
 30
0.0
 11
139.0669864733
 21
133.3096967222
 31
0.0
  0
ELLIPSE
  5
C6
330
1F
100
AcDbEntity
  8
0
  6
HIDDEN
 62
     7
370
     0
100
AcDbEllipse
 10
139.0669864733
 20
134.9096967222
 30
0.0
 11
0.0
 21
1.599999999999994
 31
0.0
210
0.0
220
0.0
230
1.0
 40
0.4142135624
 41
3.141592653589793
 42
4.712388980384677
  0
LINE
  5
C7
330
1F
100
AcDbEntity
  8
0
  6
HIDDEN
 62
     7
370
     0
100
AcDbLine
 10
139.7297281731
 20
81.3556739994
 30
0.0
 11
139.116760996
 21
80.7427068224
 31
0.0
  0
LINE
  5
C8
330
1F
100
AcDbEntity
  8
0
  6
HIDDEN
 62
     7
370
     0
100
AcDbLine
 10
139.116760996
 20
140.876686622
 30
0.0
 11
139.7297281731
 21
140.263719445
 31
0.0
  0
LINE
  5
C9
330
1F
100
AcDbEntity
  8
0
  6
HIDDEN
 62
     7
370
     0
100
AcDbLine
 10
78.3297281731
 20
102.3096967222
 30
0.0
 11
78.3297281731
 21
119.3096967222
 31
0.0
  0
LINE
  5
CA
330
1F
100
AcDbEntity
  8
0
  6
HIDDEN
 62
     7
370
     0
100
AcDbLine
 10
81.3256573874
 20
103.8096967222
 30
0.0
 11
81.3256573874
 21
117.8096967222
 31
0.0
  0
LINE
  5
CB
330
1F
100
AcDbEntity
  8
0
  6
HIDDEN
 62
     7
370
     0
100
AcDbLine
 10
139.7297281731
 20
140.263719445
 30
0.0
 11
148.8622897166
 21
140.263719445
 31
0.0
  0
LINE
  5
CC
330
1F
100
AcDbEntity
  8
0
  6
HIDDEN
 62
     7
370
     0
100
AcDbLine
 10
139.7297281731
 20
140.263719445
 30
0.0
 11
139.7297281731
 21
134.9096967222
 31
0.0
  0
LINE
  5
CD
330
1F
100
AcDbEntity
  8
0
  6
HIDDEN
 62
     7
370
     0
100
AcDbLine
 10
148.8622897166
 20
81.3556739994
 30
0.0
 11
139.7297281731
 21
81.3556739994
 31
0.0
  0
LINE
  5
CE
330
1F
100
AcDbEntity
  8
0
  6
HIDDEN
 62
     7
370
     0
100
AcDbLine
 10
139.7297281731
 20
81.3556739994
 30
0.0
 11
139.7297281731
 21
86.7096967222
 31
0.0
  0
LINE
  5
CF
330
1F
100
AcDbEntity
  8
0
  6
HIDDEN
 62
     7
370
     0
100
AcDbLine
 10
139.0669864733
 20
133.3096967222
 30
0.0
 11
151.6797281731
 21
133.3096967222
 31
0.0
  0
LINE
  5
D0
330
1F
100
AcDbEntity
  8
0
  6
HIDDEN
 62
     7
370
     0
100
AcDbLine
 10
151.6797281731
 20
88.3096967222
 30
0.0
 11
139.0669864733
 21
88.3096967222
 31
0.0
  0
SPLINE
  5
D1
330
1F
100
AcDbEntity
  8
0
  6
HIDDEN
 62
     7
370
     0
100
AcDbSpline
210
0.0
220
0.0
230
1.0
 70
     8
 71
     3
 72
    33
 73
    29
 74
     0
 42
0.000000001
 43
0.00000001
 40
0.0
 40
0.0
 40
0.0
 40
0.0
 40
0.0239762613845764
 40
0.0473863621509931
 40
0.0702306060110498
 40
0.0925093201713509
 40
0.1142228577582503
 40
0.1353716005628283
 40
0.1559559621575778
 40
0.1759763914463686
 40
0.195433376721415
 40
0.2143274503158743
 40
0.2326591939591371
 40
0.2504292449647751
 40
0.380200003881057
 40
0.4998707672066848
 40
0.5332981986539205
 40
0.5681928386643808
 40
0.6045672022946817
 40
0.642432331270675
 40
0.6817980067524365
 40
0.7226729265437746
 40
0.7650648533222179
 40
0.8089807391664525
 40
0.8544268306233358
 40
0.9014087577334912
 40
0.9499316097796215
 40
1.0
 40
1.0
 40
1.0
 40
1.0
 10
157.7059918036651
 20
140.7145574978957
 30
0.0
 10
157.7666539513289
 20
140.7300436888439
 30
0.0
 10
157.8865458081929
 20
140.7606503893984
 30
0.0
 10
158.0553606648192
 20
140.8048121330572
 30
0.0
 10
158.2136860876456
 20
140.8469871374259
 30
0.0
 10
158.3612449108707
 20
140.8870952766117
 30
0.0
 10
158.4985490013056
 20
140.9251573050741
 30
0.0
 10
158.6259269662131
 20
140.9611679240562
 30
0.0
 10
158.7437715339753
 20
140.9951286237588
 30
0.0
 10
158.8524723255568
 20
141.0270389295343
 30
0.0
 10
158.9524302248324
 20
141.0568996818894
 30
0.0
 10
159.044049924832
 20
141.0847085331
 30
0.0
 10
159.1277419118479
 20
141.110474176555
 30
0.0
 10
159.3647308158938
 20
141.1841897015164
 30
0.0
 10
159.6441747528353
 20
141.2763794137491
 30
0.0
 10
159.7411684457858
 20
141.3144164187688
 30
0.0
 10
159.7232062704123
 20
141.3069020361145
 30
0.0
 10
159.6928436815355
 20
141.2943550963856
 30
0.0
 10
159.6391629207188
 20
141.2736167526832
 30
0.0
 10
159.5596310003316
 20
141.2445870604654
 30
0.0
 10
159.4517140605012
 20
141.2072936225332
 30
0.0
 10
159.3129160447752
 20
141.1617272179854
 30
0.0
 10
159.1408303070367
 20
141.1078912655945
 30
0.0
 10
158.933114087274
 20
141.0457772954437
 30
0.0
 10
158.6878026529049
 20
140.9754131516881
 30
0.0
 10
158.4023071394168
 20
140.8966873450794
 30
0.0
 10
158.0775987927358
 20
140.8100340483069
 30
0.0
 10
157.8311340002475
 20
140.7468381895922
 30
0.0
 10
157.7059697856357
 20
140.7147449240881
 30
0.0
  0
LINE
  5
D2
330
1F
100
AcDbEntity
  8
0
  6
HIDDEN
 62
     7
370
     0
100
AcDbLine
 10
158.1297281731
 20
88.3096967222
 30
0.0
 11
151.6797281731
 21
88.3096967222
 31
0.0
  0
LINE
  5
D3
330
1F
100
AcDbEntity
  8
0
  6
HIDDEN
 62
     7
370
     0
100
AcDbLine
 10
157.7059699393
 20
80.9046488288
 30
0.0
 11
157.7999126688
 21
80.8796651574
 31
0.0
  0
SPLINE
  5
D4
330
1F
100
AcDbEntity
  8
0
  6
HIDDEN
 62
     7
370
     0
100
AcDbSpline
210
0.0
220
0.0
230
1.0
 70
     8
 71
     3
 72
    13
 73
     9
 74
     0
 42
0.000000001
 43
0.00000001
 40
0.0
 40
0.0
 40
0.0
 40
0.0
 40
0.0000729225244412
 40
0.1576810837163452
 40
0.3241445774555209
 40
0.4996852408391247
 40
0.7294243771609252
 40
1.0
 40
1.0
 40
1.0
 40
1.0
 10
159.7296955978765
 20
80.30970916129792
 30
0.0
 10
159.7297064566178
 20
80.309704871445
 30
0.0
 10
159.7531864184791
 20
80.3004288808134
 30
0.0
 10
159.6816012034288
 20
80.3285943828761
 30
0.0
 10
159.525984864983
 20
80.38218331273497
 30
0.0
 10
159.1897316426668
 20
80.49070660154356
 30
0.0
 10
158.6324185766758
 20
80.66177266488127
 30
0.0
 10
158.0311608114039
 20
80.81953665390822
 30
0.0
 10
157.7059941211426
 20
80.90485712229524
 30
0.0
  0
LINE
  5
D5
330
1F
100
AcDbEntity
  8
0
  6
HIDDEN
 62
     7
370
     0
100
AcDbLine
 10
151.6797281731
 20
133.3096967222
 30
0.0
 11
158.1297281731
 21
133.3096967222
 31
0.0
  0
LINE
  5
D6
330
1F
100
AcDbEntity
  8
0
  6
HIDDEN
 62
     7
370
     0
100
AcDbLine
 10
211.2297281731
 20
110.8096967222
 30
0.0
 11
211.2297281731
 21
104.1096967222
 31
0.0
  0
LINE
  5
D7
330
1F
100
AcDbEntity
  8
0
  6
HIDDEN
 62
     7
370
     0
100
AcDbLine
 10
211.2297281731
 20
117.5096967222
 30
0.0
 11
211.2297281731
 21
110.8096967222
 31
0.0
  0
LINE
  5
D8
330
1F
100
AcDbEntity
  8
0
  6
HIDDEN
 62
     7
370
     0
100
AcDbLine
 10
214.5957535768
 20
110.8096967222
 30
0.0
 11
214.5957535768
 21
103.8096967222
 31
0.0
  0
LINE
  5
D9
330
1F
100
AcDbEntity
  8
0
  6
HIDDEN
 62
     7
370
     0
100
AcDbLine
 10
214.5957535768
 20
117.8096967222
 30
0.0
 11
214.5957535768
 21
110.8096967222
 31
0.0
  0
LINE
  5
DA
330
1F
100
AcDbEntity
  8
0
  6
HIDDEN
 62
     7
370
     0
100
AcDbLine
 10
114.3297281731
 20
103.8096967222
 30
0.0
 11
114.3297281731
 21
117.8096967222
 31
0.0
  0
LINE
  5
DB
330
1F
100
AcDbEntity
  8
0
  6
HIDDEN
 62
     7
370
     0
100
AcDbLine
 10
117.0336009587
 20
108.3096967222
 30
0.0
 11
117.0336009587
 21
113.3096967222
 31
0.0
  0
SPLINE
  5
DC
330
1F
100
AcDbEntity
  8
0
  6
HIDDEN
 62
     7
370
     0
100
AcDbSpline
210
0.0
220
0.0
230
1.0
 70
     8
 71
     3
 72
     9
 73
     5
 74
     0
 42
0.000000001
 43
0.00000001
 40
0.0
 40
0.0
 40
0.0
 40
0.0
 40
0.493237740338934
 40
1.0
 40
1.0
 40
1.0
 40
1.0
 10
157.7067877117502
 20
140.714528233357
 30
0.0
 10
157.8126360529114
 20
140.8715502941332
 30
0.0
 10
158.027235083976
 20
141.1898999416445
 30
0.0
 10
158.2450947269379
 20
141.5097254904207
 30
0.0
 10
158.3554977718942
 20
141.6718010082158
 30
0.0
  0
SPLINE
  5
DD
330
1F
100
AcDbEntity
  8
0
  6
HIDDEN
 62
     7
370
     0
100
AcDbSpline
210
0.0
220
0.0
230
1.0
 70
     8
 71
     3
 72
     9
 73
     5
 74
     0
 42
0.000000001
 43
0.00000001
 40
0.0
 40
0.0
 40
0.0
 40
0.0
 40
0.5067649320089164
 40
1.0
 40
1.0
 40
1.0
 40
1.0
 10
158.3555014571801
 20
79.9476065717075
 30
0.0
 10
158.2450970174083
 20
80.10968330722594
 30
0.0
 10
158.0272357709047
 20
80.42950957238588
 30
0.0
 10
157.8126358091991
 20
80.7478586539108
 30
0.0
 10
157.7067875824963
 20
80.90487958478163
 30
0.0
  0
SPLINE
  5
DE
330
1F
100
AcDbEntity
  8
0
  6
HIDDEN
 62
     7
370
     0
100
AcDbSpline
210
0.0
220
0.0
230
1.0
 70
    11
 71
     3
 72
    66
 73
    62
 74
     0
 42
0.000000001
 43
0.00000001
 40
0.0
 40
0.0
 40
0.0
 40
0.0
 40
0.03125
 40
0.03125
 40
0.0625
 40
0.0625
 40
0.09375
 40
0.09375
 40
0.125
 40
0.125
 40
0.15625
 40
0.15625
 40
0.1874999999999999
 40
0.1874999999999999
 40
0.2187499999999999
 40
0.2187499999999999
 40
0.2499999999999999
 40
0.2499999999999999
 40
0.2812499999999999
 40
0.2812499999999999
 40
0.3124999999999999
 40
0.3124999999999999
 40
0.3437499999999999
 40
0.3437499999999999
 40
0.3749999999999999
 40
0.3749999999999999
 40
0.4062499999999998
 40
0.4062499999999998
 40
0.4374999999999997
 40
0.4374999999999997
 40
0.4687499999999997
 40
0.4687499999999997
 40
0.4999999999999996
 40
0.4999999999999996
 40
0.5312499999999996
 40
0.5312499999999996
 40
0.5624999999999994
 40
0.5624999999999994
 40
0.5937499999999993
 40
0.5937499999999993
 40
0.6249999999999992
 40
0.6249999999999992
 40
0.6562499999999991
 40
0.6562499999999991
 40
0.6874999999999991
 40
0.6874999999999991
 40
0.7187499999999991
 40
0.7187499999999991
 40
0.7499999999999991
 40
0.7499999999999991
 40
0.781249999999999
 40
0.781249999999999
 40
0.812499999999999
 40
0.812499999999999
 40
0.874999999999999
 40
0.874999999999999
 40
0.937499999999999
 40
0.937499999999999
 40
0.9687499999999994
 40
0.9687499999999994
 40
1.0
 40
1.0
 40
1.0
 40
1.0
 10
153.3297281730526
 20
109.3002809131163
 30
0.0
 10
153.4788635481799
 20
109.3002809131163
 30
0.0
 10
153.6225918560981
 20
109.3234894547696
 30
0.0
 10
153.9015301237926
 20
109.4076041044558
 30
0.0
 10
154.0300872668737
 20
109.4660581465241
 30
0.0
 10
154.2741049176013
 20
109.6069147996259
 30
0.0
 10
154.389561411435
 20
109.6899129405195
 30
0.0
 10
154.6033980649071
 20
109.8718785584707
 30
0.0
 10
154.7028901701389
 20
109.9715067334005
 30
0.0
 10
154.8886937820748
 20
110.18839749537
 30
0.0
 10
154.9753372356623
 20
110.3065787167708
 30
0.0
 10
155.1282985349914
 20
110.5536340821501
 30
0.0
 10
155.1955061839544
 20
110.6833161390356
 30
0.0
 10
155.3087710708955
 20
110.9570578198662
 30
0.0
 10
155.3530154154929
 20
111.0971087073523
 30
0.0
 10
155.4135371951008
 20
111.380263868721
 30
0.0
 10
155.4295249469554
 20
111.5245518224892
 30
0.0
 10
155.4299274226506
 20
111.7995102459111
 30
0.0
 10
155.4144530564088
 20
111.9342888538806
 30
0.0
 10
155.3545269522575
 20
112.184077355354
 30
0.0
 10
155.3105444952338
 20
112.2993038736885
 30
0.0
 10
155.1977820779834
 20
112.5103759318636
 30
0.0
 10
155.1306021384864
 20
112.6035419186996
 30
0.0
 10
154.9770200766548
 20
112.7697864409195
 30
0.0
 10
154.890716437775
 20
112.8422997886828
 30
0.0
 10
154.7055871775428
 20
112.9659507327399
 30
0.0
 10
154.6060745561097
 20
113.0178667645952
 30
0.0
 10
154.391163922974
 20
113.1051905306387
 30
0.0
 10
154.275949291977
 20
113.14030686537
 30
0.0
 10
154.0324913271516
 20
113.1947203280843
 30
0.0
 10
153.9016399171211
 20
113.2145690229062
 30
0.0
 10
153.6250642864254
 20
113.2406130768084
 30
0.0
 10
153.4774988518431
 20
113.2469674495971
 30
0.0
 10
153.1835186112443
 20
113.2470122722269
 30
0.0
 10
153.0363237377088
 20
113.2407167068583
 30
0.0
 10
152.760220514628
 20
113.2148724549055
 30
0.0
 10
152.6305265857577
 20
113.1953861372382
 30
0.0
 10
152.3849780966698
 20
113.140763213929
 30
0.0
 10
152.2715181890601
 20
113.1062256618194
 30
0.0
 10
152.0577304465749
 20
113.0198997149807
 30
0.0
 10
151.9569037690315
 20
112.9677396234588
 30
0.0
 10
151.7701104414986
 20
112.8434476097767
 30
0.0
 10
151.6853729521987
 20
112.7723107101615
 30
0.0
 10
151.5331297836994
 20
112.608794185352
 30
0.0
 10
151.4651000041871
 20
112.5155443392914
 30
0.0
 10
151.3517287122112
 20
112.3057536082964
 30
0.0
 10
151.3074280393612
 20
112.1916183791621
 30
0.0
 10
151.246198611313
 20
111.9419753726561
 30
0.0
 10
151.2301656178223
 20
111.807935645035
 30
0.0
 10
151.229308722777
 20
111.5331063472736
 30
0.0
 10
151.2447068235097
 20
111.3886034103984
 30
0.0
 10
151.304189361203
 20
111.1051248086517
 30
0.0
 10
151.3484794400626
 20
110.9634849653337
 30
0.0
 10
151.5168075151716
 20
110.5534547758758
 30
0.0
 10
151.6750658636744
 20
110.3009774173911
 30
0.0
 10
152.0450937516289
 20
109.8673121312892
 30
0.0
 10
152.2609728414295
 20
109.6792558849366
 30
0.0
 10
152.6259969948991
 20
109.4677372968367
 30
0.0
 10
152.7573455112443
 20
109.4079634652206
 30
0.0
 10
153.0336367236195
 20
109.3242810738125
 30
0.0
 10
153.1805927979254
 20
109.3002809131163
 30
0.0
 10
153.3297281730527
 20
109.3002809131163
 30
0.0
  0
SPLINE
  5
DF
330
1F
100
AcDbEntity
  8
0
  6
HIDDEN
 62
     7
370
     0
100
AcDbSpline
210
0.0
220
0.0
230
1.0
 70
    11
 71
     3
 72
    56
 73
    52
 74
     0
 42
0.000000001
 43
0.00000001
 40
0.0
 40
0.0
 40
0.0
 40
0.0
 40
0.0312499999999997
 40
0.0312499999999997
 40
0.0624999999999993
 40
0.0624999999999993
 40
0.124999999999999
 40
0.124999999999999
 40
0.1562499999999993
 40
0.1562499999999993
 40
0.1874999999999997
 40
0.1874999999999997
 40
0.21875
 40
0.21875
 40
0.2500000000000003
 40
0.2500000000000003
 40
0.3125000000000003
 40
0.3125000000000003
 40
0.3437500000000002
 40
0.3437500000000002
 40
0.3750000000000001
 40
0.3750000000000001
 40
0.4374999999999995
 40
0.4374999999999995
 40
0.4687499999999993
 40
0.4687499999999993
 40
0.499999999999999
 40
0.499999999999999
 40
0.5312499999999988
 40
0.5312499999999988
 40
0.5624999999999986
 40
0.5624999999999986
 40
0.624999999999998
 40
0.624999999999998
 40
0.6874999999999976
 40
0.6874999999999976
 40
0.7499999999999971
 40
0.7499999999999971
 40
0.7812499999999973
 40
0.7812499999999973
 40
0.8124999999999976
 40
0.8124999999999976
 40
0.8437499999999979
 40
0.8437499999999979
 40
0.8749999999999982
 40
0.8749999999999982
 40
0.9062499999999986
 40
0.9062499999999986
 40
0.9374999999999989
 40
0.9374999999999989
 40
1.0
 40
1.0
 40
1.0
 40
1.0
 10
151.2891521722155
 20
116.476576811161
 30
0.0
 10
151.3178236888125
 20
116.3747627462881
 30
0.0
 10
151.3555936083962
 20
116.2823598286384
 30
0.0
 10
151.4458917451659
 20
116.1155817439428
 30
0.0
 10
151.4991674413392
 20
116.0407120548198
 30
0.0
 10
151.6680985181135
 20
115.8545913903049
 30
0.0
 10
151.7992852340977
 20
115.7765748927214
 30
0.0
 10
151.9445707541012
 20
115.7560003421668
 30
0.0
 10
151.9827116869028
 20
115.7655485620994
 30
0.0
 10
152.027488220067
 20
115.8129047912795
 30
0.0
 10
152.034382958107
 20
115.8510055535396
 30
0.0
 10
152.0231344124931
 20
115.9431260315037
 30
0.0
 10
152.0054735672883
 20
115.998181473643
 30
0.0
 10
151.9567495615264
 20
116.1177882318224
 30
0.0
 10
151.9258105631349
 20
116.1824661009252
 30
0.0
 10
151.8221550278163
 20
116.3898274833487
 30
0.0
 10
151.7383496911541
 20
116.5466152385716
 30
0.0
 10
151.6128994267018
 20
116.8057605012244
 30
0.0
 10
151.5708062466542
 20
116.8965128757742
 30
0.0
 10
151.4880652553414
 20
117.0895140978123
 30
0.0
 10
151.4472350219337
 20
117.1922950603407
 30
0.0
 10
151.3343852657736
 20
117.5145361735207
 30
0.0
 10
151.2696950824097
 20
117.7534827122318
 30
0.0
 10
151.2292254046717
 20
118.122249817209
 30
0.0
 10
151.2261836084817
 20
118.242009227854
 30
0.0
 10
151.2419867650592
 20
118.4611074890632
 30
0.0
 10
151.260729862604
 20
118.559436497387
 30
0.0
 10
151.3120037659974
 20
118.7263115445936
 30
0.0
 10
151.3445283120298
 20
118.7961861906897
 30
0.0
 10
151.4166814604717
 20
118.9127952509823
 30
0.0
 10
151.4557866372245
 20
118.9590158907554
 30
0.0
 10
151.5777843756709
 20
119.0718347082434
 30
0.0
 10
151.6653161884007
 20
119.1122879976031
 30
0.0
 10
151.8274327413532
 20
119.1431461170255
 30
0.0
 10
151.9049903986418
 20
119.1342429314571
 30
0.0
 10
152.0161352217457
 20
119.063166883019
 30
0.0
 10
152.0488682080877
 20
119.0009279643087
 30
0.0
 10
152.0052398257676
 20
118.8430266810358
 30
0.0
 10
151.9749245647715
 20
118.7797712781655
 30
0.0
 10
151.8900675811344
 20
118.6344572123058
 30
0.0
 10
151.8352185068714
 20
118.5510852965466
 30
0.0
 10
151.720379821459
 20
118.3724921390561
 30
0.0
 10
151.6589603922795
 20
118.2747453906386
 30
0.0
 10
151.5427524053925
 20
118.0697670915392
 30
0.0
 10
151.4872383404241
 20
117.9614851562257
 30
0.0
 10
151.3890343650787
 20
117.7361352520972
 30
0.0
 10
151.3471439468326
 20
117.6212292966362
 30
0.0
 10
151.2806372665279
 20
117.3859618936031
 30
0.0
 10
151.2561937716006
 20
117.2649645591073
 30
0.0
 10
151.2157038458051
 20
116.9117631269309
 30
0.0
 10
151.2318091390215
 20
116.6802049409067
 30
0.0
 10
151.2891521722155
 20
116.476576811161
 30
0.0
  0
SPLINE
  5
E0
330
1F
100
AcDbEntity
  8
0
  6
HIDDEN
 62
     7
370
     0
100
AcDbSpline
210
0.0
220
0.0
230
1.0
 70
     8
 71
     3
 72
    22
 73
    18
 74
     0
 42
0.000000001
 43
0.00000001
 40
0.0
 40
0.0
 40
0.0
 40
0.0
 40
0.1250000000000006
 40
0.1250000000000006
 40
0.2500000000000012
 40
0.2500000000000012
 40
0.3750000000000018
 40
0.3750000000000018
 40
0.5000000000000023
 40
0.5000000000000023
 40
0.6250000000000029
 40
0.6250000000000029
 40
0.7500000000000036
 40
0.7500000000000036
 40
0.8750000000000018
 40
0.8750000000000018
 40
1.0
 40
1.0
 40
1.0
 40
1.0
 10
155.0060966117529
 20
118.6743516978399
 30
0.0
 10
154.9078183881974
 20
118.5498229779076
 30
0.0
 10
154.7964956208902
 20
118.4382198384753
 30
0.0
 10
154.5486870125255
 20
118.240235995287
 30
0.0
 10
154.4107354869753
 20
118.1535814730982
 30
0.0
 10
154.1224745253913
 20
118.0150578978753
 30
0.0
 10
153.9700310064791
 20
117.9616141465987
 30
0.0
 10
153.6531192682034
 20
117.8894339964535
 30
0.0
 10
153.493130764095
 20
117.8715159570601
 30
0.0
 10
153.170160657473
 20
117.8712308155626
 30
0.0
 10
153.0065981738203
 20
117.8895291254309
 30
0.0
 10
152.6930999426804
 20
117.9606245476217
 30
0.0
 10
152.5395979764515
 20
118.0139350998857
 30
0.0
 10
152.2489952785772
 20
118.1533165379102
 30
0.0
 10
152.1141750351635
 20
118.237870435018
 30
0.0
 10
151.8652269585342
 20
118.4360618829242
 30
0.0
 10
151.7516377253651
 20
118.5498232725636
 30
0.0
 10
151.6533597343525
 20
118.6743516978399
 30
0.0
  0
SPLINE
  5
E1
330
1F
100
AcDbEntity
  8
0
  6
HIDDEN
 62
     7
370
     0
100
AcDbSpline
210
0.0
220
0.0
230
1.0
 70
     8
 71
     3
 72
    18
 73
    14
 74
     0
 42
0.000000001
 43
0.00000001
 40
0.0
 40
0.0
 40
0.0
 40
0.0
 40
0.2499999999999999
 40
0.2499999999999999
 40
0.3749999999999997
 40
0.3749999999999997
 40
0.4999999999999996
 40
0.4999999999999996
 40
0.6249999999999994
 40
0.6249999999999994
 40
0.7499999999999992
 40
0.7499999999999992
 40
1.0
 40
1.0
 40
1.0
 40
1.0
 10
155.0060966117529
 20
121.0514500224187
 30
0.0
 10
155.1446669604832
 20
120.8818700281829
 30
0.0
 10
155.2491523800338
 20
120.7082588200411
 30
0.0
 10
155.3567086131717
 20
120.4252275576375
 30
0.0
 10
155.3837185871438
 20
120.3285545225447
 30
0.0
 10
155.4202595492563
 20
120.1274860953733
 30
0.0
 10
155.4297353697685
 20
120.0217421982867
 30
0.0
 10
155.4297209679577
 20
119.8074927060074
 30
0.0
 10
155.4204988549359
 20
119.6994647075971
 30
0.0
 10
155.3842541089044
 20
119.4824718180657
 30
0.0
 10
155.3568798176257
 20
119.3726222003306
 30
0.0
 10
155.2496196957277
 20
119.0530384104147
 30
0.0
 10
155.1444291735884
 20
118.849633425847
 30
0.0
 10
155.0060966117531
 20
118.6743516978396
 30
0.0
  0
SPLINE
  5
E2
330
1F
100
AcDbEntity
  8
0
  6
HIDDEN
 62
     7
370
     0
100
AcDbSpline
210
0.0
220
0.0
230
1.0
 70
     8
 71
     3
 72
    22
 73
    18
 74
     0
 42
0.000000001
 43
0.00000001
 40
0.0
 40
0.0
 40
0.0
 40
0.0
 40
0.1249999999999982
 40
0.1249999999999982
 40
0.2499999999999963
 40
0.2499999999999963
 40
0.3749999999999969
 40
0.3749999999999969
 40
0.4999999999999976
 40
0.4999999999999976
 40
0.6249999999999981
 40
0.6249999999999981
 40
0.7499999999999988
 40
0.7499999999999988
 40
0.8749999999999993
 40
0.8749999999999993
 40
1.0
 40
1.0
 40
1.0
 40
1.0
 10
151.6533597343525
 20
121.0514500224187
 30
0.0
 10
151.7516379579079
 20
121.1717212112894
 30
0.0
 10
151.8629607252151
 20
121.2788694196854
 30
0.0
 10
152.1107693335799
 20
121.468247458106
 30
0.0
 10
152.24872085913
 20
121.5507276116635
 30
0.0
 10
152.536981820714
 20
121.6822624429749
 30
0.0
 10
152.6894253396263
 20
121.73282244876
 30
0.0
 10
153.0063370779019
 20
121.8010491241599
 30
0.0
 10
153.1663255820104
 20
121.8179461957855
 30
0.0
 10
153.4892956886323
 20
121.818215300768
 30
0.0
 10
153.6528581722851
 20
121.8009587714674
 30
0.0
 10
153.966356403425
 20
121.7337582738213
 30
0.0
 10
154.1198583696538
 20
121.6833272681891
 30
0.0
 10
154.4104610675281
 20
121.5509804930541
 30
0.0
 10
154.5452813109419
 20
121.4705039557194
 30
0.0
 10
154.7942293875712
 20
121.2809396725126
 30
0.0
 10
154.9078186207403
 20
121.1717209267075
 30
0.0
 10
155.0060966117529
 20
121.0514500224187
 30
0.0
  0
SPLINE
  5
E3
330
1F
100
AcDbEntity
  8
0
  6
HIDDEN
 62
     7
370
     0
100
AcDbSpline
210
0.0
220
0.0
230
1.0
 70
     8
 71
     3
 72
    18
 73
    14
 74
     0
 42
0.000000001
 43
0.00000001
 40
0.0
 40
0.0
 40
0.0
 40
0.0
 40
0.2499999999999989
 40
0.2499999999999989
 40
0.3749999999999989
 40
0.3749999999999989
 40
0.499999999999999
 40
0.499999999999999
 40
0.624999999999999
 40
0.624999999999999
 40
0.749999999999999
 40
0.749999999999999
 40
1.0
 40
1.0
 40
1.0
 40
1.0
 10
151.6533597343525
 20
118.6743516978399
 30
0.0
 10
151.5147893856221
 20
118.8499347265484
 30
0.0
 10
151.4103039660716
 20
119.0519277421793
 30
0.0
 10
151.3027477329336
 20
119.3719720329772
 30
0.0
 10
151.2757377589616
 20
119.4800313088224
 30
0.0
 10
151.239196796849
 20
119.697282537939
 30
0.0
 10
151.2297209763369
 20
119.807745471127
 30
0.0
 10
151.2297353781476
 20
120.0219880365698
 30
0.0
 10
151.2389574911695
 20
120.1254193233612
 30
0.0
 10
151.2752022372009
 20
120.3263419606444
 30
0.0
 10
151.3025765284797
 20
120.4246472035037
 30
0.0
 10
151.4098366503777
 20
120.7072872965727
 30
0.0
 10
151.5150271725169
 20
120.8821610276693
 30
0.0
 10
151.6533597343522
 20
121.0514500224187
 30
0.0
  0
LWPOLYLINE
  5
E4
330
1F
100
AcDbEntity
  8
0
  6
HIDDEN
 62
     7
370
     0
100
AcDbPolyline
 90
       19
 70
   128
 43
0.0
 10
139.3347344457
 20
118.8371609501
 10
139.4670133134
 20
118.4378637626
 10
139.6782415627
 20
118.1991694551
 10
139.9429419495
 20
118.149868084
 10
140.2291877004
 20
118.2959061221
 10
140.5024533535
 20
118.6196692268
 10
140.7297790379
 20
119.0821067894
 10
140.8837459212
 20
119.6274420151
 10
140.945783325
 20
120.1898994272
 10
140.9084086226
 20
120.701638361
 10
140.7761297549
 20
121.1009355486
 10
140.5649015056
 20
121.339629856
 10
140.3002011188
 20
121.3889312272
 10
140.0139553678
 20
121.2428931891
 10
139.7406897148
 20
120.9191300844
 10
139.5133640303
 20
120.4566925217
 10
139.3593971471
 20
119.9113572961
 10
139.2973597433
 20
119.3488998839
 10
139.3347344457
 20
118.8371609501
  0
LWPOLYLINE
  5
E5
330
1F
100
AcDbEntity
  8
0
  6
HIDDEN
 62
     7
370
     0
100
AcDbPolyline
 90
       22
 70
   128
 43
0.0
 10
138.9782991514
 20
118.6109231896
 10
139.1158316345
 20
118.1640028892
 10
139.3301251163
 20
117.8622178734
 10
139.6021386804
 20
117.7323830652
 10
139.907702728
 20
117.7860348571
 10
140.2196665524
 20
118.0184060518
 10
140.5103107989
 20
118.4088494491
 10
140.7538104506
 20
118.9226724396
 10
140.928529495
 20
119.5142195957
 10
141.0189433782
 20
120.1309293567
 10
141.0170184298
 20
120.7180043539
 10
140.9229256901
 20
121.2232803975
 10
140.7450257119
 20
121.6018614936
 10
140.4991256888
 20
121.8201090505
 10
140.2070749172
 20
121.858630815
 10
139.8948233896
 20
121.7140039592
 10
139.5901160247
 20
121.399079214
 10
139.3200274089
 20
120.941839025
 10
139.108556101
 20
120.3829111895
 10
138.9744922549
 20
119.7719588987
 10
138.9297480314
 20
119.1632679445
 10
138.9782991514
 20
118.6109231896
  0
LWPOLYLINE
  5
E6
330
1F
100
AcDbEntity
  8
0
  6
HIDDEN
 62
     7
370
     0
100
AcDbPolyline
 90
       21
 70
   128
 43
0.0
 10
141.5049489371
 20
117.4591817775
 10
141.2457075746
 20
117.6348005182
 10
141.0532816787
 20
117.9844461978
 10
140.9465072368
 20
118.473893061
 10
140.9358360753
 20
119.0552306387
 10
141.0223127618
 20
119.6715535584
 10
141.1974723557
 20
120.2625318386
 10
141.4441690156
 20
120.7703164074
 10
141.7382543535
 20
121.1452017736
 10
142.0509412476
 20
121.3504915453
 10
142.351621726
 20
121.3660905294
 10
142.6108630886
 20
121.1904717887
 10
142.8032889845
 20
120.8408261091
 10
142.9100634263
 20
120.3513792459
 10
142.9207345878
 20
119.7700416682
 10
142.8342579013
 20
119.1537187485
 10
142.6590983074
 20
118.5627404684
 10
142.4124016475
 20
118.0549558995
 10
142.1183163096
 20
117.6800705334
 10
141.8056294156
 20
117.4747807616
 10
141.5049489371
 20
117.4591817775
  0
LWPOLYLINE
  5
E7
330
1F
100
AcDbEntity
  8
0
  6
HIDDEN
 62
     7
370
     0
100
AcDbPolyline
 90
       17
 70
   128
 43
0.0
 10
142.3132191379
 20
118.0634696147
 10
142.1166715577
 20
118.2183329032
 10
141.9903272701
 20
118.5354919852
 10
141.9534210477
 20
118.9666622657
 10
142.0115715283
 20
119.4462019778
 10
142.1559258283
 20
119.9011055476
 10
142.3645073141
 20
120.2621180302
 10
142.6055613454
 20
120.4742785478
 10
142.8423896309
 20
120.5052875847
 10
143.0389372112
 20
120.3504242962
 10
143.1652814987
 20
120.0332652142
 10
143.2021877211
 20
119.6020949338
 10
143.1440372405
 20
119.1225552216
 10
142.9996829405
 20
118.6676516518
 10
142.7911014547
 20
118.3066391692
 10
142.5500474234
 20
118.0944786517
 10
142.3132191379
 20
118.0634696147
  0
LWPOLYLINE
  5
E8
330
1F
100
AcDbEntity
  8
0
  6
HIDDEN
 62
     7
370
     0
100
AcDbPolyline
 90
       21
 70
   128
 43
0.0
 10
139.7513917786
 20
117.8054486815
 10
139.4921504161
 20
117.9810674222
 10
139.2997245201
 20
118.3307131018
 10
139.1929500783
 20
118.820159965
 10
139.1822789168
 20
119.4014975427
 10
139.2687556033
 20
120.0178204624
 10
139.4439151972
 20
120.6087987425
 10
139.6906118571
 20
121.1165833114
 10
139.984697195
 20
121.4914686775
 10
140.2973840891
 20
121.6967584493
 10
140.5980645675
 20
121.7123574334
 10
140.8573059301
 20
121.5367386927
 10
141.049731826
 20
121.1870930131
 10
141.1565062678
 20
120.6976461499
 10
141.1671774293
 20
120.1163085722
 10
141.0807007428
 20
119.4999856525
 10
140.9055411489
 20
118.9090073724
 10
140.658844489
 20
118.4012228035
 10
140.3647591511
 20
118.0263374374
 10
140.052072257
 20
117.8210476656
 10
139.7513917786
 20
117.8054486815
  0
LWPOLYLINE
  5
E9
330
1F
100
AcDbEntity
  8
0
  6
HIDDEN
 62
     7
370
     0
100
AcDbPolyline
 90
       19
 70
   128
 43
0.0
 10
139.6389423755
 20
118.2248780421
 10
139.410056275
 20
118.3910000009
 10
139.2498810128
 20
118.7267556191
 10
139.1777360896
 20
119.1916478138
 10
139.2023232477
 20
119.7296037253
 10
139.3206769131
 20
120.2757379313
 10
139.5185218871
 20
120.7641785864
 10
139.7719951458
 20
121.1360125391
 10
140.0505240734
 20
121.3463911269
 10
140.3205139706
 20
121.3699395874
 10
140.5494000711
 20
121.2038176285
 10
140.7095753333
 20
120.8680620103
 10
140.7817202565
 20
120.4031698156
 10
140.7571330984
 20
119.8652139041
 10
140.638779433
 20
119.3190796981
 10
140.440934459
 20
118.830639043
 10
140.1874612003
 20
118.4588050903
 10
139.9089322727
 20
118.2484265025
 10
139.6389423755
 20
118.2248780421
  0
LINE
  5
EA
330
1F
100
AcDbEntity
  8
0
  6
HIDDEN
 62
     7
370
     0
100
AcDbLine
 10
140.7035733032
 20
119.1064387048
 30
0.0
 11
141.0343528975
 21
118.4130662974
 31
0.0
  0
LINE
  5
EB
330
1F
100
AcDbEntity
  8
0
  6
HIDDEN
 62
     7
370
     0
100
AcDbLine
 10
140.7035733032
 20
119.1064387048
 30
0.0
 11
140.9479866845
 21
120.2342661146
 31
0.0
  0
LINE
  5
EC
330
1F
100
AcDbEntity
  8
0
  6
HIDDEN
 62
     7
370
     0
100
AcDbLine
 10
140.7035733032
 20
119.1064387048
 30
0.0
 11
139.4045351975
 21
119.3629538123
 31
0.0
  0
LINE
  5
ED
330
1F
100
AcDbEntity
  8
0
  6
HIDDEN
 62
     7
370
     0
100
AcDbLine
 10
140.9479866845
 20
120.2342661146
 30
0.0
 11
139.6489485788
 21
120.4907812221
 31
0.0
  0
LINE
  5
EE
330
1F
100
AcDbEntity
  8
0
  6
HIDDEN
 62
     7
370
     0
100
AcDbLine
 10
140.9479866845
 20
120.2342661146
 30
0.0
 11
141.52317966
 21
120.668721117
 31
0.0
  0
LINE
  5
EF
330
1F
100
AcDbEntity
  8
0
  6
HIDDEN
 62
     7
370
     0
100
AcDbLine
 10
139.6489485788
 20
120.4907812221
 30
0.0
 11
140.2241415543
 21
120.9252362245
 31
0.0
  0
LINE
  5
F0
330
1F
100
AcDbEntity
  8
0
  6
HIDDEN
 62
     7
370
     0
100
AcDbLine
 10
139.4045351975
 20
119.3629538123
 30
0.0
 11
139.6489485788
 21
120.4907812221
 31
0.0
  0
LINE
  5
F1
330
1F
100
AcDbEntity
  8
0
  6
HIDDEN
 62
     7
370
     0
100
AcDbLine
 10
139.4045351975
 20
119.3629538123
 30
0.0
 11
139.7353147918
 21
118.6695814049
 31
0.0
  0
LINE
  5
F2
330
1F
100
AcDbEntity
  8
0
  6
HIDDEN
 62
     7
370
     0
100
AcDbLine
 10
141.609545873
 20
118.8475212998
 30
0.0
 11
140.3105077673
 21
119.1040364073
 31
0.0
  0
LINE
  5
F3
330
1F
100
AcDbEntity
  8
0
  6
HIDDEN
 62
     7
370
     0
100
AcDbLine
 10
140.3105077673
 20
119.1040364073
 30
0.0
 11
139.7353147918
 21
118.6695814049
 31
0.0
  0
LINE
  5
F4
330
1F
100
AcDbEntity
  8
0
  6
HIDDEN
 62
     7
370
     0
100
AcDbLine
 10
141.609545873
 20
118.8475212998
 30
0.0
 11
141.0343528975
 21
118.4130662974
 31
0.0
  0
LINE
  5
F5
330
1F
100
AcDbEntity
  8
0
  6
HIDDEN
 62
     7
370
     0
100
AcDbLine
 10
141.0343528975
 20
118.4130662974
 30
0.0
 11
139.7353147918
 21
118.6695814049
 31
0.0
  0
LINE
  5
F6
330
1F
100
AcDbEntity
  8
0
  6
HIDDEN
 62
     7
370
     0
100
AcDbLine
 10
141.8539592543
 20
119.9753487096
 30
0.0
 11
140.5549211486
 21
120.2318638171
 31
0.0
  0
LINE
  5
F7
330
1F
100
AcDbEntity
  8
0
  6
HIDDEN
 62
     7
370
     0
100
AcDbLine
 10
140.5549211486
 20
120.2318638171
 30
0.0
 11
140.2241415543
 21
120.9252362245
 31
0.0
  0
LINE
  5
F8
330
1F
100
AcDbEntity
  8
0
  6
HIDDEN
 62
     7
370
     0
100
AcDbLine
 10
141.52317966
 20
120.668721117
 30
0.0
 11
140.2241415543
 21
120.9252362245
 31
0.0
  0
LINE
  5
F9
330
1F
100
AcDbEntity
  8
0
  6
HIDDEN
 62
     7
370
     0
100
AcDbLine
 10
141.8539592543
 20
119.9753487096
 30
0.0
 11
141.52317966
 21
120.668721117
 31
0.0
  0
LINE
  5
FA
330
1F
100
AcDbEntity
  8
0
  6
HIDDEN
 62
     7
370
     0
100
AcDbLine
 10
140.3105077673
 20
119.1040364073
 30
0.0
 11
140.5549211486
 21
120.2318638171
 31
0.0
  0
LINE
  5
FB
330
1F
100
AcDbEntity
  8
0
  6
HIDDEN
 62
     7
370
     0
100
AcDbLine
 10
141.609545873
 20
118.8475212998
 30
0.0
 11
141.8539592543
 21
119.9753487096
 31
0.0
  0
LWPOLYLINE
  5
FC
330
1F
100
AcDbEntity
  8
0
  6
HIDDEN
 62
     7
370
     0
100
AcDbPolyline
 90
       19
 70
   128
 43
0.0
 10
139.6389423755
 20
103.3945154023
 10
139.410056275
 20
103.2283934435
 10
139.2498810128
 20
102.8926378253
 10
139.1777360896
 20
102.4277456306
 10
139.2023232477
 20
101.8897897191
 10
139.3206769131
 20
101.3436555131
 10
139.5185218871
 20
100.8552148579
 10
139.7719951458
 20
100.4833809053
 10
140.0505240734
 20
100.2730023174
 10
140.3205139706
 20
100.249453857
 10
140.5494000711
 20
100.4155758159
 10
140.7095753333
 20
100.751331434
 10
140.7817202565
 20
101.2162236287
 10
140.7571330984
 20
101.7541795403
 10
140.638779433
 20
102.3003137462
 10
140.440934459
 20
102.7887544014
 10
140.1874612003
 20
103.1605883541
 10
139.9089322727
 20
103.3709669419
 10
139.6389423755
 20
103.3945154023
  0
LWPOLYLINE
  5
FD
330
1F
100
AcDbEntity
  8
0
  6
HIDDEN
 62
     7
370
     0
100
AcDbPolyline
 90
       21
 70
   128
 43
0.0
 10
139.7513917786
 20
103.8139447629
 10
139.4921504161
 20
103.6383260222
 10
139.2997245201
 20
103.2886803426
 10
139.1929500783
 20
102.7992334794
 10
139.1822789168
 20
102.2178959016
 10
139.2687556033
 20
101.6015729819
 10
139.4439151972
 20
101.0105947018
 10
139.6906118571
 20
100.5028101329
 10
139.984697195
 20
100.1279247668
 10
140.2973840891
 20
99.9226349951
 10
140.5980645675
 20
99.907036011
 10
140.85730593
 20
100.0826547517
 10
141.049731826
 20
100.4323004312
 10
141.1565062678
 20
100.9217472945
 10
141.1671774293
 20
101.5030848722
 10
141.0807007428
 20
102.1194077919
 10
140.9055411489
 20
102.710386072
 10
140.658844489
 20
103.2181706409
 10
140.3647591511
 20
103.593056007
 10
140.052072257
 20
103.7983457787
 10
139.7513917786
 20
103.8139447629
  0
LWPOLYLINE
  5
FE
330
1F
100
AcDbEntity
  8
0
  6
HIDDEN
 62
     7
370
     0
100
AcDbPolyline
 90
       21
 70
   128
 43
0.0
 10
141.5049489371
 20
104.1602116669
 10
141.2457075746
 20
103.9845929262
 10
141.0532816787
 20
103.6349472466
 10
140.9465072368
 20
103.1455003834
 10
140.9358360753
 20
102.5641628056
 10
141.0223127618
 20
101.9478398859
 10
141.1974723557
 20
101.3568616058
 10
141.4441690156
 20
100.8490770369
 10
141.7382543535
 20
100.4741916708
 10
142.0509412476
 20
100.2689018991
 10
142.351621726
 20
100.2533029149
 10
142.6108630886
 20
100.4289216556
 10
142.8032889845
 20
100.7785673352
 10
142.9100634263
 20
101.2680141985
 10
142.9207345878
 20
101.8493517762
 10
142.8342579013
 20
102.4656746959
 10
142.6590983074
 20
103.056652976
 10
142.4124016475
 20
103.5644375449
 10
142.1183163096
 20
103.939322911
 10
141.8056294156
 20
104.1446126827
 10
141.5049489371
 20
104.1602116669
  0
LINE
  5
FF
330
1F
100
AcDbEntity
  8
0
  6
HIDDEN
 62
     7
370
     0
100
AcDbLine
 10
139.6489485788
 20
101.1286122223
 30
0.0
 11
140.2241415543
 21
100.6941572199
 31
0.0
  0
LINE
  5
100
330
1F
100
AcDbEntity
  8
0
  6
HIDDEN
 62
     7
370
     0
100
AcDbLine
 10
140.5549211486
 20
101.3875296272
 30
0.0
 11
140.2241415543
 21
100.6941572199
 31
0.0
  0
LINE
  5
101
330
1F
100
AcDbEntity
  8
0
  6
HIDDEN
 62
     7
370
     0
100
AcDbLine
 10
140.3105077673
 20
102.5153570371
 30
0.0
 11
140.5549211486
 21
101.3875296272
 31
0.0
  0
LINE
  5
102
330
1F
100
AcDbEntity
  8
0
  6
HIDDEN
 62
     7
370
     0
100
AcDbLine
 10
140.3105077673
 20
102.5153570371
 30
0.0
 11
139.7353147918
 21
102.9498120395
 31
0.0
  0
LINE
  5
103
330
1F
100
AcDbEntity
  8
0
  6
HIDDEN
 62
     7
370
     0
100
AcDbLine
 10
139.4045351975
 20
102.2564396321
 30
0.0
 11
139.7353147918
 21
102.9498120395
 31
0.0
  0
LINE
  5
104
330
1F
100
AcDbEntity
  8
0
  6
HIDDEN
 62
     7
370
     0
100
AcDbLine
 10
139.4045351975
 20
102.2564396321
 30
0.0
 11
139.6489485788
 21
101.1286122223
 31
0.0
  0
LINE
  5
105
330
1F
100
AcDbEntity
  8
0
  6
HIDDEN
 62
     7
370
     0
100
AcDbLine
 10
141.8539592542
 20
101.6440447347
 30
0.0
 11
140.5549211486
 21
101.3875296272
 31
0.0
  0
LINE
  5
106
330
1F
100
AcDbEntity
  8
0
  6
HIDDEN
 62
     7
370
     0
100
AcDbLine
 10
141.609545873
 20
102.7718721446
 30
0.0
 11
140.3105077673
 21
102.5153570371
 31
0.0
  0
LWPOLYLINE
  5
107
330
1F
100
AcDbEntity
  8
0
  6
HIDDEN
 62
     7
370
     0
100
AcDbPolyline
 90
       17
 70
   128
 43
0.0
 10
142.3132191379
 20
103.5559238296
 10
142.1166715577
 20
103.4010605412
 10
141.9903272701
 20
103.0839014591
 10
141.9534210477
 20
102.6527311787
 10
142.0115715283
 20
102.1731914665
 10
142.1559258283
 20
101.7182878968
 10
142.3645073141
 20
101.3572754141
 10
142.6055613454
 20
101.1451148966
 10
142.8423896309
 20
101.1141058597
 10
143.0389372112
 20
101.2689691481
 10
143.1652814987
 20
101.5861282302
 10
143.2021877211
 20
102.0172985106
 10
143.1440372405
 20
102.4968382228
 10
142.9996829405
 20
102.9517417925
 10
142.7911014547
 20
103.3127542752
 10
142.5500474234
 20
103.5249147927
 10
142.3132191379
 20
103.5559238296
  0
LINE
  5
108
330
1F
100
AcDbEntity
  8
0
  6
HIDDEN
 62
     7
370
     0
100
AcDbLine
 10
140.9479866845
 20
101.3851273298
 30
0.0
 11
141.52317966
 21
100.9506723273
 31
0.0
  0
LINE
  5
109
330
1F
100
AcDbEntity
  8
0
  6
HIDDEN
 62
     7
370
     0
100
AcDbLine
 10
140.7035733032
 20
102.5129547396
 30
0.0
 11
140.9479866845
 21
101.3851273298
 31
0.0
  0
LINE
  5
10A
330
1F
100
AcDbEntity
  8
0
  6
HIDDEN
 62
     7
370
     0
100
AcDbLine
 10
140.7035733032
 20
102.5129547396
 30
0.0
 11
141.0343528974
 21
103.206327147
 31
0.0
  0
LINE
  5
10B
330
1F
100
AcDbEntity
  8
0
  6
HIDDEN
 62
     7
370
     0
100
AcDbLine
 10
141.609545873
 20
102.7718721446
 30
0.0
 11
141.0343528974
 21
103.206327147
 31
0.0
  0
LINE
  5
10C
330
1F
100
AcDbEntity
  8
0
  6
HIDDEN
 62
     7
370
     0
100
AcDbLine
 10
141.609545873
 20
102.7718721446
 30
0.0
 11
141.8539592542
 21
101.6440447347
 31
0.0
  0
LINE
  5
10D
330
1F
100
AcDbEntity
  8
0
  6
HIDDEN
 62
     7
370
     0
100
AcDbLine
 10
141.8539592542
 20
101.6440447347
 30
0.0
 11
141.52317966
 21
100.9506723273
 31
0.0
  0
LINE
  5
10E
330
1F
100
AcDbEntity
  8
0
  6
HIDDEN
 62
     7
370
     0
100
AcDbLine
 10
140.9479866845
 20
101.3851273298
 30
0.0
 11
139.6489485788
 21
101.1286122223
 31
0.0
  0
LINE
  5
10F
330
1F
100
AcDbEntity
  8
0
  6
HIDDEN
 62
     7
370
     0
100
AcDbLine
 10
141.52317966
 20
100.9506723273
 30
0.0
 11
140.2241415543
 21
100.6941572199
 31
0.0
  0
LINE
  5
110
330
1F
100
AcDbEntity
  8
0
  6
HIDDEN
 62
     7
370
     0
100
AcDbLine
 10
140.7035733032
 20
102.5129547396
 30
0.0
 11
139.4045351975
 21
102.2564396321
 31
0.0
  0
LINE
  5
111
330
1F
100
AcDbEntity
  8
0
  6
HIDDEN
 62
     7
370
     0
100
AcDbLine
 10
141.0343528974
 20
103.206327147
 30
0.0
 11
139.7353147918
 21
102.9498120395
 31
0.0
  0
LWPOLYLINE
  5
112
330
1F
100
AcDbEntity
  8
0
  6
HIDDEN
 62
     7
370
     0
100
AcDbPolyline
 90
       24
 70
   128
 43
0.0
 10
150.920241693
 20
118.1352523203
 10
150.8297415459
 20
118.7693489573
 10
150.9246539702
 20
119.4028757144
 10
151.1979397457
 20
119.9888468102
 10
151.6293305165
 20
120.4838034492
 10
152.1868320028
 20
120.8510369617
 10
152.8290968695
 20
121.063311318
 10
153.5084912699
 20
121.1048831004
 10
154.1746276291
 20
120.9726691198
 10
154.7781016608
 20
120.6764750823
 10
155.2741564568
 20
120.2382683448
 10
155.6260019022
 20
119.6905486962
 10
155.8075432298
 20
119.0739379973
 10
155.8053163499
 20
118.4341674427
 10
155.61948642
 20
117.8186858879
 10
155.2638355959
 20
117.2731407839
 10
154.7647408722
 20
116.8379927156
 10
154.1592178213
 20
116.5455146245
 10
153.4921753179
 20
116.4173982725
 10
152.8130848529
 20
116.4631454634
 10
152.1723114594
 20
116.6793633374
 10
151.6173783688
 20
117.0500160039
 10
151.1894424297
 20
117.5476138501
 10
150.920241693
 20
118.1352523203
  0
LWPOLYLINE
  5
113
330
1F
100
AcDbEntity
  8
0
  6
HIDDEN
 62
     7
370
     0
100
AcDbPolyline
 90
       20
 70
   128
 43
0.0
 10
151.643087637
 20
118.0666610331
 10
151.5829599096
 20
118.6050434449
 10
151.7121216275
 20
119.1326008462
 10
152.0165761144
 20
119.5921642066
 10
152.4633310024
 20
119.9339327053
 10
153.0039734674
 20
120.1208704223
 10
153.5799165094
 20
120.1327197553
 10
154.1287477631
 20
119.9681966452
 10
154.5909928461
 20
119.6451297238
 10
154.9165603313
 20
119.1985283051
 10
155.0701699298
 20
118.6767885823
 10
155.0351756583
 20
118.1364491502
 10
154.8153696891
 20
117.6360641704
 10
154.4345714094
 20
117.2298581197
 10
153.9340462217
 20
116.9618497268
 10
153.3680337965
 20
116.8610818594
 10
152.7978703626
 20
116.9384742797
 10
152.285341975
 20
117.185640318
 10
151.8859890374
 20
117.5757956989
 10
151.643087637
 20
118.0666610331
  0
LWPOLYLINE
  5
114
330
1F
100
AcDbEntity
  8
0
  6
HIDDEN
 62
     7
370
     0
100
AcDbPolyline
 90
       24
 70
   128
 43
0.0
 10
150.920241693
 20
119.1589456734
 10
150.8297415459
 20
119.7930423104
 10
150.9246539702
 20
120.4265690675
 10
151.1979397457
 20
121.0125401633
 10
151.6293305165
 20
121.5074968023
 10
152.1868320028
 20
121.8747303148
 10
152.8290968695
 20
122.0870046711
 10
153.5084912699
 20
122.1285764535
 10
154.1746276291
 20
121.9963624729
 10
154.7781016608
 20
121.7001684354
 10
155.2741564568
 20
121.2619616979
 10
155.6260019022
 20
120.7142420493
 10
155.8075432298
 20
120.0976313504
 10
155.8053163499
 20
119.4578607958
 10
155.61948642
 20
118.842379241
 10
155.2638355959
 20
118.296834137
 10
154.7647408722
 20
117.8616860687
 10
154.1592178213
 20
117.5692079776
 10
153.4921753179
 20
117.4410916256
 10
152.8130848529
 20
117.4868388165
 10
152.1723114594
 20
117.7030566905
 10
151.6173783688
 20
118.073709357
 10
151.1894424297
 20
118.5713072032
 10
150.920241693
 20
119.1589456734
  0
LINE
  5
115
330
1F
100
AcDbEntity
  8
0
  6
HIDDEN
 62
     7
370
     0
100
AcDbLine
 10
153.6919797529
 20
120.5021083466
 30
0.0
 11
154.7208458409
 21
119.5508497944
 31
0.0
  0
LINE
  5
116
330
1F
100
AcDbEntity
  8
0
  6
HIDDEN
 62
     7
370
     0
100
AcDbLine
 10
153.6919797529
 20
120.5021083466
 30
0.0
 11
153.6919797529
 21
121.1861486333
 31
0.0
  0
LINE
  5
117
330
1F
100
AcDbEntity
  8
0
  6
HIDDEN
 62
     7
370
     0
100
AcDbLine
 10
152.300862085
 20
120.1404487859
 30
0.0
 11
153.6919797529
 21
120.5021083466
 31
0.0
  0
LINE
  5
118
330
1F
100
AcDbEntity
  8
0
  6
HIDDEN
 62
     7
370
     0
100
AcDbLine
 10
152.300862085
 20
120.1404487859
 30
0.0
 11
152.300862085
 21
120.8244890725
 31
0.0
  0
LINE
  5
119
330
1F
100
AcDbEntity
  8
0
  6
HIDDEN
 62
     7
370
     0
100
AcDbLine
 10
152.300862085
 20
120.1404487859
 30
0.0
 11
151.9386105052
 21
118.8275306729
 31
0.0
  0
LINE
  5
11A
330
1F
100
AcDbEntity
  8
0
  6
HIDDEN
 62
     7
370
     0
100
AcDbLine
 10
154.3585942611
 20
118.2379316814
 30
0.0
 11
154.3585942611
 21
118.9219719681
 31
0.0
  0
LINE
  5
11B
330
1F
100
AcDbEntity
  8
0
  6
HIDDEN
 62
     7
370
     0
100
AcDbLine
 10
154.3585942611
 20
118.9219719681
 30
0.0
 11
154.7208458409
 21
120.234890081
 31
0.0
  0
LINE
  5
11C
330
1F
100
AcDbEntity
  8
0
  6
HIDDEN
 62
     7
370
     0
100
AcDbLine
 10
154.7208458409
 20
119.5508497944
 30
0.0
 11
154.7208458409
 21
120.234890081
 31
0.0
  0
LINE
  5
11D
330
1F
100
AcDbEntity
  8
0
  6
HIDDEN
 62
     7
370
     0
100
AcDbLine
 10
154.3585942611
 20
118.2379316814
 30
0.0
 11
154.7208458409
 21
119.5508497944
 31
0.0
  0
LINE
  5
11E
330
1F
100
AcDbEntity
  8
0
  6
HIDDEN
 62
     7
370
     0
100
AcDbLine
 10
152.9674765932
 20
117.8762721207
 30
0.0
 11
152.9674765932
 21
118.5603124074
 31
0.0
  0
LINE
  5
11F
330
1F
100
AcDbEntity
  8
0
  6
HIDDEN
 62
     7
370
     0
100
AcDbLine
 10
152.9674765932
 20
118.5603124074
 30
0.0
 11
151.9386105052
 21
119.5115709596
 31
0.0
  0
LINE
  5
120
330
1F
100
AcDbEntity
  8
0
  6
HIDDEN
 62
     7
370
     0
100
AcDbLine
 10
151.9386105052
 20
118.8275306729
 30
0.0
 11
151.9386105052
 21
119.5115709596
 31
0.0
  0
LINE
  5
121
330
1F
100
AcDbEntity
  8
0
  6
HIDDEN
 62
     7
370
     0
100
AcDbLine
 10
152.9674765932
 20
117.8762721207
 30
0.0
 11
151.9386105052
 21
118.8275306729
 31
0.0
  0
LINE
  5
122
330
1F
100
AcDbEntity
  8
0
  6
HIDDEN
 62
     7
370
     0
100
AcDbLine
 10
152.9674765932
 20
118.5603124074
 30
0.0
 11
154.3585942611
 21
118.9219719681
 31
0.0
  0
LINE
  5
123
330
1F
100
AcDbEntity
  8
0
  6
HIDDEN
 62
     7
370
     0
100
AcDbLine
 10
152.9674765932
 20
117.8762721207
 30
0.0
 11
154.3585942611
 21
118.2379316814
 31
0.0
  0
LWPOLYLINE
  5
124
330
1F
100
AcDbEntity
  8
0
  6
HIDDEN
 62
     7
370
     0
100
AcDbPolyline
 90
       22
 70
   128
 43
0.0
 10
151.3491302865
 20
119.3583192528
 10
151.2756094953
 20
119.9297798573
 10
151.384606163
 20
120.496215805
 10
151.6664354573
 20
121.0072967763
 10
152.0960556086
 20
121.4176109839
 10
152.6352929812
 20
121.69070021
 10
153.236233968
 20
121.8022992783
 10
153.8454823253
 20
121.7424921219
 10
154.4089036628
 20
121.516592869
 10
154.8764355221
 20
121.1446736597
 10
155.2065356459
 20
120.6597811478
 10
155.3698731895
 20
120.105000161
 10
155.3519348953
 20
119.5296254245
 10
155.1543146595
 20
118.9847815086
 10
154.7945719074
 20
118.5188801863
 10
154.3046713611
 20
118.1733188346
 10
153.7281428341
 20
117.9788020962
 10
153.116213416
 20
117.9526136368
 10
152.5232557211
 20
118.097080416
 10
152.0019566427
 20
118.3993659265
 10
151.5986358916
 20
118.8326107741
 10
151.3491302865
 20
119.3583192528
  0
LINE
  5
125
330
1F
100
AcDbEntity
  8
0
  6
HIDDEN
 62
     7
370
     0
100
AcDbLine
 10
152.300862085
 20
120.8244890725
 30
0.0
 11
151.9386105052
 21
119.5115709596
 31
0.0
  0
LINE
  5
126
330
1F
100
AcDbEntity
  8
0
  6
HIDDEN
 62
     7
370
     0
100
AcDbLine
 10
152.300862085
 20
120.8244890725
 30
0.0
 11
153.6919797529
 21
121.1861486333
 31
0.0
  0
LINE
  5
127
330
1F
100
AcDbEntity
  8
0
  6
HIDDEN
 62
     7
370
     0
100
AcDbLine
 10
153.6919797529
 20
121.1861486333
 30
0.0
 11
154.7208458409
 21
120.234890081
 31
0.0
  0
LINE
  5
128
330
1F
100
AcDbEntity
  8
0
  6
HIDDEN
 62
     7
370
     0
100
AcDbLine
 10
138.7297281731
 20
99.4346021442
 30
0.0
 11
140.3865498881
 21
99.761767143
 31
0.0
  0
LINE
  5
129
330
1F
100
AcDbEntity
  8
0
  6
HIDDEN
 62
     7
370
     0
100
AcDbLine
 10
139.572906458
 20
103.8822021163
 30
0.0
 11
138.7297281731
 21
103.7157035606
 31
0.0
  0
LINE
  5
12A
330
1F
100
AcDbEntity
  8
0
  6
HIDDEN
 62
     7
370
     0
100
AcDbLine
 10
140.4412171674
 20
100.2312514779
 30
0.0
 11
151.8790005179
 21
102.4898181918
 31
0.0
  0
LINE
  5
12B
330
1F
100
AcDbEntity
  8
0
  6
HIDDEN
 62
     7
370
     0
100
AcDbLine
 10
151.8739848993
 20
105.852550322
 30
0.0
 11
139.8019259009
 21
103.4687360997
 31
0.0
  0
LINE
  5
12C
330
1F
100
AcDbEntity
  8
0
  6
HIDDEN
 62
     7
370
     0
100
AcDbLine
 10
155.4297281731
 20
103.4562636407
 30
0.0
 11
155.4297281731
 21
109.9604205967
 31
0.0
  0
LINE
  5
12D
330
1F
100
AcDbEntity
  8
0
  6
HIDDEN
 62
     7
370
     0
100
AcDbLine
 10
151.2297281731
 20
109.9604681086
 30
0.0
 11
151.2297281731
 21
104.6944609542
 31
0.0
  0
ARC
  5
12E
330
1F
100
AcDbEntity
  8
0
  6
HIDDEN
 62
     7
370
     0
100
AcDbCircle
 10
72.1297281731
 20
101.5096967222
 30
0.0
 40
0.8000000000000114
100
AcDbArc
 50
90.0
 51
180.0
  0
ARC
  5
12F
330
1F
100
AcDbEntity
  8
0
  6
HIDDEN
 62
     7
370
     0
100
AcDbCircle
 10
72.1297281731
 20
120.1096967222
 30
0.0
 40
0.8000000000000114
100
AcDbArc
 50
180.0
 51
270.0
  0
ARC
  5
130
330
1F
100
AcDbEntity
  8
0
  6
HIDDEN
 62
     7
370
     0
100
AcDbCircle
 10
79.2221006038
 20
102.4846967222
 30
0.0
 40
0.400000000000006
100
AcDbArc
 50
255.0
 51
270.0
  0
ARC
  5
131
330
1F
100
AcDbEntity
  8
0
  6
HIDDEN
 62
     7
370
     0
100
AcDbCircle
 10
79.2221006038
 20
119.1346967222
 30
0.0
 40
0.400000000000006
100
AcDbArc
 50
90.0
 51
105.0
  0
ARC
  5
132
330
1F
100
AcDbEntity
  8
0
  6
HIDDEN
 62
     7
370
     0
100
AcDbCircle
 10
80.0987880654
 20
102.4846967222
 30
0.0
 40
0.4000000000000057
100
AcDbArc
 50
270.0
 51
330.0
  0
ARC
  5
133
330
1F
100
AcDbEntity
  8
0
  6
HIDDEN
 62
     7
370
     0
100
AcDbCircle
 10
80.0987880654
 20
119.1346967222
 30
0.0
 40
0.4000000000000057
100
AcDbArc
 50
30.0
 51
90.0
  0
LINE
  5
134
330
1F
100
AcDbEntity
  8
0
  6
HIDDEN
 62
     7
370
     0
100
AcDbLine
 10
79.2221006038
 20
102.0846967222
 30
0.0
 11
80.0987880654
 21
102.0846967222
 31
0.0
  0
LINE
  5
135
330
1F
100
AcDbEntity
  8
0
  6
HIDDEN
 62
     7
370
     0
100
AcDbLine
 10
80.0987880654
 20
119.5346967222
 30
0.0
 11
79.2221006038
 21
119.5346967222
 31
0.0
  0
LINE
  5
136
330
1F
100
AcDbEntity
  8
0
  6
HIDDEN
 62
     7
370
     0
100
AcDbLine
 10
79.1185729857
 20
119.5210670527
 30
0.0
 11
78.3297281731
 21
119.3096967222
 31
0.0
  0
LINE
  5
137
330
1F
100
AcDbEntity
  8
0
  6
HIDDEN
 62
     7
370
     0
100
AcDbLine
 10
78.3297281731
 20
102.3096967222
 30
0.0
 11
79.1185729857
 21
102.0983263917
 31
0.0
  0
LINE
  5
138
330
1F
100
AcDbEntity
  8
0
  6
HIDDEN
 62
     7
370
     0
100
AcDbLine
 10
80.4451982269
 20
102.2846967222
 30
0.0
 11
81.3256573874
 21
103.8096967222
 31
0.0
  0
LINE
  5
139
330
1F
100
AcDbEntity
  8
0
  6
HIDDEN
 62
     7
370
     0
100
AcDbLine
 10
81.3256573874
 20
117.8096967222
 30
0.0
 11
80.4451982269
 21
119.3346967222
 31
0.0
  0
LINE
  5
13A
330
1F
100
AcDbEntity
  8
0
  6
HIDDEN
 62
     7
370
     0
100
AcDbLine
 10
72.1297281731
 20
102.3096967222
 30
0.0
 11
78.3297281731
 21
102.3096967222
 31
0.0
  0
LINE
  5
13B
330
1F
100
AcDbEntity
  8
0
  6
HIDDEN
 62
     7
370
     0
100
AcDbLine
 10
78.3297281731
 20
119.3096967222
 30
0.0
 11
72.1297281731
 21
119.3096967222
 31
0.0
  0
LINE
  5
13C
330
1F
100
AcDbEntity
  8
0
  6
HIDDEN
 62
     7
370
     0
100
AcDbLine
 10
159.7297281731
 20
134.9096967222
 30
0.0
 11
159.7297281731
 21
141.4099907358
 31
0.0
  0
ARC
  5
13D
330
1F
100
AcDbEntity
  8
0
  6
HIDDEN
 62
     7
370
     0
100
AcDbCircle
 10
158.1297281731
 20
86.7096967222
 30
0.0
 40
1.600000000000009
100
AcDbArc
 50
0.0
 51
90.0
  0
LINE
  5
13E
330
1F
100
AcDbEntity
  8
0
  6
HIDDEN
 62
     7
370
     0
100
AcDbLine
 10
159.7297281731
 20
80.2093392613
 30
0.0
 11
159.7297281731
 21
86.7096967222
 31
0.0
  0
ARC
  5
13F
330
1F
100
AcDbEntity
  8
0
  6
HIDDEN
 62
     7
370
     0
100
AcDbCircle
 10
158.1297281731
 20
134.9096967222
 30
0.0
 40
1.600000000000023
100
AcDbArc
 50
270.0
 51
0.0
  0
ARC
  5
140
330
1F
100
AcDbEntity
  8
0
  6
HIDDEN
 62
     7
370
     0
100
AcDbCircle
 10
228.7297281731
 20
118.8096967222
 30
0.0
 40
1.0
100
AcDbArc
 50
270.0
 51
0.0
  0
ARC
  5
141
330
1F
100
AcDbEntity
  8
0
  6
HIDDEN
 62
     7
370
     0
100
AcDbCircle
 10
228.7297281731
 20
102.8096967222
 30
0.0
 40
1.0
100
AcDbArc
 50
0.0
 51
90.0
  0
ARC
  5
142
330
1F
100
AcDbEntity
  8
0
  6
HIDDEN
 62
     7
370
     0
100
AcDbCircle
 10
212.624406175
 20
117.5096967222
 30
0.0
 40
0.8000000000000114
100
AcDbArc
 50
75.0
 51
90.0
  0
ARC
  5
143
330
1F
100
AcDbEntity
  8
0
  6
HIDDEN
 62
     7
370
     0
100
AcDbCircle
 10
212.624406175
 20
104.1096967222
 30
0.0
 40
0.8000000000000114
100
AcDbArc
 50
270.0
 51
285.0
  0
LINE
  5
144
330
1F
100
AcDbEntity
  8
0
  6
HIDDEN
 62
     7
370
     0
100
AcDbLine
 10
212.624406175
 20
118.3096967222
 30
0.0
 11
212.0297281731
 21
118.3096967222
 31
0.0
  0
LINE
  5
145
330
1F
100
AcDbEntity
  8
0
  6
HIDDEN
 62
     7
370
     0
100
AcDbLine
 10
212.0297281731
 20
103.3096967222
 30
0.0
 11
212.624406175
 21
103.3096967222
 31
0.0
  0
ARC
  5
146
330
1F
100
AcDbEntity
  8
0
  6
HIDDEN
 62
     7
370
     0
100
AcDbCircle
 10
212.0297281731
 20
117.5096967222
 30
0.0
 40
0.7999999999999972
100
AcDbArc
 50
90.0
 51
180.0
  0
ARC
  5
147
330
1F
100
AcDbEntity
  8
0
  6
HIDDEN
 62
     7
370
     0
100
AcDbCircle
 10
212.0297281731
 20
104.1096967222
 30
0.0
 40
0.7999999999999972
100
AcDbArc
 50
180.0
 51
270.0
  0
LINE
  5
148
330
1F
100
AcDbEntity
  8
0
  6
HIDDEN
 62
     7
370
     0
100
AcDbLine
 10
212.8314614111
 20
103.3369560612
 30
0.0
 11
214.5957535768
 21
103.8096967222
 31
0.0
  0
LINE
  5
149
330
1F
100
AcDbEntity
  8
0
  6
HIDDEN
 62
     7
370
     0
100
AcDbLine
 10
214.5957535768
 20
117.8096967222
 30
0.0
 11
212.8314614111
 21
118.2824373832
 31
0.0
  0
LINE
  5
14A
330
1F
100
AcDbEntity
  8
0
  6
HIDDEN
 62
     7
370
     0
100
AcDbLine
 10
228.7297281731
 20
117.8096967222
 30
0.0
 11
214.5957535768
 21
117.8096967222
 31
0.0
  0
LINE
  5
14B
330
1F
100
AcDbEntity
  8
0
  6
HIDDEN
 62
     7
370
     0
100
AcDbLine
 10
214.5957535768
 20
103.8096967222
 30
0.0
 11
228.7297281731
 21
103.8096967222
 31
0.0
  0
LINE
  5
14C
330
1F
100
AcDbEntity
  8
0
  6
HIDDEN
 62
     7
370
     0
100
AcDbLine
 10
81.3256573874
 20
103.8096967222
 30
0.0
 11
114.3297281731
 21
103.8096967222
 31
0.0
  0
LINE
  5
14D
330
1F
100
AcDbEntity
  8
0
  6
HIDDEN
 62
     7
370
     0
100
AcDbLine
 10
114.3297281731
 20
117.8096967222
 30
0.0
 11
81.3256573874
 21
117.8096967222
 31
0.0
  0
LINE
  5
14E
330
1F
100
AcDbEntity
  8
0
  6
HIDDEN
 62
     7
370
     0
100
AcDbLine
 10
114.3297281731
 20
103.8096967222
 30
0.0
 11
117.0336009587
 21
108.3096967222
 31
0.0
  0
LINE
  5
14F
330
1F
100
AcDbEntity
  8
0
  6
HIDDEN
 62
     7
370
     0
100
AcDbLine
 10
117.0336009587
 20
113.3096967222
 30
0.0
 11
114.3297281731
 21
117.8096967222
 31
0.0
  0
LINE
  5
150
330
1F
100
AcDbEntity
  8
0
  6
HIDDEN
 62
     7
370
     0
100
AcDbLine
 10
159.7297272631
 20
141.3096965103
 30
0.0
 11
160.7297266324
 21
142.309696257
 31
0.0
  0
LINE
  5
151
330
1F
100
AcDbEntity
  8
0
  6
HIDDEN
 62
     7
370
     0
100
AcDbLine
 10
160.7297345344
 20
79.3096955845
 30
0.0
 11
159.7297342855
 21
80.309695389
 31
0.0
  0
LINE
  5
152
330
1F
100
AcDbEntity
  8
0
  6
HIDDEN
 62
     7
370
     0
100
AcDbLine
 10
211.2297281731
 20
113.3096967222
 30
0.0
 11
117.0336009587
 21
113.3096967222
 31
0.0
  0
LINE
  5
153
330
1F
100
AcDbEntity
  8
0
  6
HIDDEN
 62
     7
370
     0
100
AcDbLine
 10
117.0336009587
 20
108.3096967222
 30
0.0
 11
211.2297281731
 21
108.3096967222
 31
0.0
  0
LINE
  5
154
330
1F
100
AcDbEntity
  8
0
  6
HIDDEN
 62
     7
370
     0
100
AcDbLine
 10
155.4297281731
 20
111.6589253358
 30
0.0
 11
155.4297281731
 21
119.9118571711
 31
0.0
  0
LINE
  5
155
330
1F
100
AcDbEntity
  8
0
  6
HIDDEN
 62
     7
370
     0
100
AcDbLine
 10
151.2297281731
 20
116.9276389707
 30
0.0
 11
151.2297281731
 21
111.6589728477
 31
0.0
  0
LINE
  5
156
330
1F
100
AcDbEntity
  8
0
  6
HIDDEN
 62
     7
370
     0
100
AcDbLine
 10
151.2297281731
 20
119.9118571711
 30
0.0
 11
151.2297281731
 21
118.2247354145
 31
0.0
  0
LINE
  5
157
330
1F
100
AcDbEntity
  8
0
  6
HIDDEN
 62
     7
370
     0
100
AcDbLine
 10
139.8019259009
 20
118.1506573447
 30
0.0
 11
151.874505202
 21
115.7667403806
 31
0.0
  0
LINE
  5
158
330
1F
100
AcDbEntity
  8
0
  6
HIDDEN
 62
     7
370
     0
100
AcDbLine
 10
151.8804570247
 20
119.1292876428
 30
0.0
 11
140.4412171674
 21
121.3881419665
 31
0.0
  0
LINE
  5
159
330
1F
100
AcDbEntity
  8
0
  6
HIDDEN
 62
     7
370
     0
100
AcDbLine
 10
138.7297281731
 20
117.9036898838
 30
0.0
 11
139.572906458
 21
117.7371913281
 31
0.0
  0
LINE
  5
15A
330
1F
100
AcDbEntity
  8
0
  6
HIDDEN
 62
     7
370
     0
100
AcDbLine
 10
140.3865498881
 20
121.8576263013
 30
0.0
 11
138.7297281731
 21
122.1847913002
 31
0.0
  0
LINE
  5
15B
330
1F
100
AcDbEntity
  8
0
  6
HIDDEN
 62
     7
370
     0
100
AcDbLine
 10
142.0909569487
 20
117.6546498841
 30
0.0
 11
142.6794741451
 21
118.1856371813
 31
0.0
  0
LINE
  5
15C
330
1F
100
AcDbEntity
  8
0
  6
HIDDEN
 62
     7
370
     0
100
AcDbLine
 10
143.0894849027
 20
120.2620045465
 30
0.0
 11
142.7469741608
 21
120.9768376684
 31
0.0
  0
LINE
  5
15D
330
1F
100
AcDbEntity
  8
0
  6
HIDDEN
 62
     7
370
     0
100
AcDbLine
 10
139.7872789206
 20
117.7967911654
 30
0.0
 11
141.5408360792
 21
117.4505242614
 31
0.0
  0
LINE
  5
15E
330
1F
100
AcDbEntity
  8
0
  6
HIDDEN
 62
     7
370
     0
100
AcDbLine
 10
142.315734584
 20
121.3747480455
 30
0.0
 11
140.5621774255
 21
121.7210149495
 31
0.0
  0
LINE
  5
15F
330
1F
100
AcDbEntity
  8
0
  6
HIDDEN
 62
     7
370
     0
100
AcDbLine
 10
139.4749620194
 20
120.6869443634
 30
0.0
 11
139.4164164194
 21
120.544482066
 31
0.0
  0
LINE
  5
160
330
1F
100
AcDbEntity
  8
0
  6
HIDDEN
 62
     7
370
     0
100
AcDbLine
 10
139.1747281731
 20
119.320529821
 30
0.0
 11
139.1747281731
 21
119.166506792
 31
0.0
  0
LINE
  5
161
330
1F
100
AcDbEntity
  8
0
  6
HIDDEN
 62
     7
370
     0
100
AcDbLine
 10
139.1747281731
 20
102.4528866524
 30
0.0
 11
139.1747281731
 21
102.2988636234
 31
0.0
  0
LINE
  5
162
330
1F
100
AcDbEntity
  8
0
  6
HIDDEN
 62
     7
370
     0
100
AcDbLine
 10
139.4164164194
 20
101.0749113784
 30
0.0
 11
139.4749620194
 21
100.932449081
 31
0.0
  0
LINE
  5
163
330
1F
100
AcDbEntity
  8
0
  6
HIDDEN
 62
     7
370
     0
100
AcDbLine
 10
140.5621774255
 20
99.8983784949
 30
0.0
 11
142.315734584
 21
100.2446453989
 31
0.0
  0
LINE
  5
164
330
1F
100
AcDbEntity
  8
0
  6
HIDDEN
 62
     7
370
     0
100
AcDbLine
 10
141.5408360792
 20
104.1688691829
 30
0.0
 11
139.7872789206
 21
103.8226022789
 31
0.0
  0
LINE
  5
165
330
1F
100
AcDbEntity
  8
0
  6
HIDDEN
 62
     7
370
     0
100
AcDbLine
 10
142.7469741608
 20
100.642555776
 30
0.0
 11
143.0894849027
 21
101.3573888978
 31
0.0
  0
LINE
  5
166
330
1F
100
AcDbEntity
  8
0
  6
HIDDEN
 62
     7
370
     0
100
AcDbLine
 10
142.6794741451
 20
103.433756263
 30
0.0
 11
142.0909569486
 21
103.9647435603
 31
0.0
  0
LINE
  5
167
330
1F
100
AcDbEntity
  8
0
  6
HIDDEN
 62
     7
370
     0
100
AcDbLine
 10
150.8297281731
 20
119.7853584076
 30
0.0
 11
150.8297281731
 21
118.7616650545
 31
0.0
  0
LINE
  5
168
330
1F
100
AcDbEntity
  8
0
  6
HIDDEN
 62
     7
370
     0
100
AcDbLine
 10
155.8297281731
 20
118.7616650545
 30
0.0
 11
155.8297281731
 21
119.7853584076
 31
0.0
  0
DIMENSION
  5
169
330
1F
100
AcDbEntity
  8
VERMASSUNG
100
AcDbDimension
  2
_D
 10
61.3297281731
 20
142.3096967222
 30
0.0
 11
61.3297281731
 21
110.8096967222
 31
0.0
 70
   160
  1
MAS-BT 40 %%c<>
 71
     2
 42
-1.0
  3
SLDDIMSTYLE0
100
AcDbAlignedDimension
 13
162.7297281731
 23
79.3096967222
 33
0.0
 14
162.7297281731
 24
142.3096967222
 34
0.0
 50
90.0
100
AcDbRotatedDimension
  0
DIMENSION
  5
176
330
1F
100
AcDbEntity
  8
VERMASSUNG
100
AcDbDimension
  2
_D_1
 10
229.7297281731
 20
158.5882911217
 30
0.0
 11
150.5297281731
 21
158.5882911217
 31
0.0
 70
   160
  1
<>
 71
     2
 42
-1.0
  3
SLDDIMSTYLE0
100
AcDbAlignedDimension
 13
71.3297281731
 23
122.6324523192
 33
0.0
 14
229.7297281731
 24
123.1096967222
 34
0.0
100
AcDbRotatedDimension
  0
DIMENSION
  5
180
330
1F
100
AcDbEntity
  8
VERMASSUNG
100
AcDbDimension
  2
_D_2
 10
229.7297281731
 20
152.5882911217
 30
0.0
 11
183.2297281731
 21
152.5882911217
 31
0.0
 70
   160
  1
<>
 71
     2
 42
-1.0
  3
SLDDIMSTYLE0
100
AcDbAlignedDimension
 13
136.7297281731
 23
133.0346967222
 33
0.0
 14
229.7297281731
 24
123.1096967222
 34
0.0
100
AcDbRotatedDimension
  0
DIMENSION
  5
18A
330
1F
100
AcDbEntity
  8
VERMASSUNG
100
AcDbDimension
  2
_D_3
 10
229.7297281731
 20
146.5882911217
 30
0.0
 11
196.7297281731
 21
146.5882911217
 31
0.0
 70
   160
  1
<>
 71
     2
 42
-1.0
  3
SLDDIMSTYLE0
100
AcDbAlignedDimension
 13
163.7297281731
 23
141.3096967222
 33
0.0
 14
229.7297281731
 24
123.1096967222
 34
0.0
100
AcDbRotatedDimension
  0
DIMENSION
  5
194
330
1F
100
AcDbEntity
  8
VERMASSUNG
100
AcDbDimension
  2
_D_4
 10
237.6290816213
 20
103.8096967222
 30
0.0
 11
237.6290816213
 21
110.8096967222
 31
0.0
 70
   160
  1
%%c<>
 71
     2
 42
-1.0
  3
SLDDIMSTYLE0
100
AcDbAlignedDimension
 13
228.7297281731
 23
117.8096967222
 33
0.0
 14
228.7297281731
 24
103.8096967222
 34
0.0
 50
90.0
100
AcDbRotatedDimension
  0
DIMENSION
  5
19F
330
1F
100
AcDbEntity
  8
VERMASSUNG
100
AcDbDimension
  2
_D_5
 10
197.6290816213
 20
98.3096967222
 30
0.0
 11
197.6290816213
 21
110.8096967222
 31
0.0
 70
   160
  1
WH%%c<>
 71
     2
 42
-1.0
  3
SLDDIMSTYLE0
100
AcDbAlignedDimension
 13
166.7297281731
 23
123.3096967222
 33
0.0
 14
166.7297281731
 24
98.3096967222
 34
0.0
 50
90.0
100
AcDbRotatedDimension
  0
DIMENSION
  5
1A9
330
1F
100
AcDbEntity
  8
VERMASSUNG
100
AcDbDimension
  2
_D_6
 10
244.0642230596
 20
98.3096967222
 30
0.0
 11
244.0642230596
 21
110.8096967222
 31
0.0
 70
   160
  1
WH %%c<>
 71
     2
 42
-1.0
  3
SLDDIMSTYLE0
100
AcDbAlignedDimension
 13
229.5297281731
 23
123.3096967222
 33
0.0
 14
229.5297281731
 24
98.3096967222
 34
0.0
 50
90.0
100
AcDbRotatedDimension
  0
LINE
  5
1B5
330
1F
100
AcDbEntity
  8
VERMASSUNG
  6
CENTERX2
370
     0
100
AcDbLine
 10
152.4598365754
 20
117.3330189447
 30
0.0
 11
139.9797281731
 21
119.7974088147
 31
0.0
  0
LINE
  5
1B6
330
1F
100
AcDbEntity
  8
VERMASSUNG
  6
CENTERX2
370
     0
100
AcDbLine
 10
151.6797281731
 20
143.9959163157
 30
0.0
 11
151.6797281731
 21
128.4876985556
 31
0.0
  0
LINE
  5
1B7
330
1F
100
AcDbEntity
  8
VERMASSUNG
  6
CENTERX2
370
     0
100
AcDbLine
 10
151.6797281731
 20
77.6234411045
 30
0.0
 11
151.6797281731
 21
93.1316717662
 31
0.0
  0
LINE
  5
1B8
330
1F
100
AcDbEntity
  8
VERMASSUNG
  6
CENTERX2
370
     0
100
AcDbLine
 10
139.9797281731
 20
119.7974088147
 30
0.0
 11
137.817616281
 21
120.2243511515
 31
0.0
  0
LINE
  5
1B9
330
1F
100
AcDbEntity
  8
VERMASSUNG
  6
CENTERX2
370
     0
100
AcDbLine
 10
79.3256573874
 20
110.8096967222
 30
0.0
 11
116.3297281731
 21
110.8096967222
 31
0.0
  0
LINE
  5
1BA
330
1F
100
AcDbEntity
  8
VERMASSUNG
  6
CENTERX2
370
     0
100
AcDbLine
 10
69.3297281731
 20
110.8096967222
 30
0.0
 11
230.6539259215
 21
110.8096967222
 31
0.0
  0
LINE
  5
1BB
330
1F
100
AcDbEntity
  8
0
  6
Continuous
 62
     7
370
    15
100
AcDbLine
 10
269.0823115227
 20
27.1897612563
 30
0.0
 11
269.1530107083
 21
27.2305882964
 31
0.0
  0
LINE
  5
1BC
330
1F
100
AcDbEntity
  8
0
  6
Continuous
 62
     7
370
    15
100
AcDbLine
 10
273.5010106255
 20
34.7623611475
 30
0.0
 11
273.5010106255
 21
34.8440019587
 31
0.0
  0
LINE
  5
1BD
330
1F
100
AcDbEntity
  8
0
  6
Continuous
 62
     7
370
    15
100
AcDbLine
 10
272.2063392826
 20
37.7055319991
 30
0.0
 11
250.0031863533
 21
50.5231393547
 31
0.0
  0
LINE
  5
1BE
330
1F
100
AcDbEntity
  8
0
  6
Continuous
 62
     7
370
    15
100
AcDbLine
 10
243.7536942743
 20
39.697528575
 30
0.0
 11
265.9568472036
 21
26.8799212193
 31
0.0
  0
SPLINE
  5
1BF
330
1F
100
AcDbEntity
  8
0
  6
Continuous
 62
     7
370
    15
100
AcDbSpline
210
0.0
220
0.0
230
1.0
 70
     8
 71
     3
 72
    21
 73
    17
 74
     0
 42
0.000000001
 43
0.00000001
 40
0.0
 40
0.0
 40
0.0
 40
0.0
 40
0.0568621545045617
 40
0.1322861891227237
 40
0.2035919198267459
 40
0.2795953044358681
 40
0.354145480308222
 40
0.4285501020880343
 40
0.5032575687675575
 40
0.5783643342827887
 40
0.6537652632299039
 40
0.729293631405129
 40
0.8047441789067115
 40
0.8798899566796896
 40
0.954551709248299
 40
1.0
 40
1.0
 40
1.0
 40
1.0
 10
267.0605854003218
 20
29.43094934876362
 30
0.0
 10
267.0030682254022
 20
29.46348760300823
 30
0.0
 10
266.8692581729076
 20
29.5391857838498
 30
0.0
 10
266.705916459654
 20
29.75464803320538
 30
0.0
 10
266.560591321619
 20
30.07539297670522
 30
0.0
 10
266.4750989491886
 20
30.48890739096541
 30
0.0
 10
266.4615754776379
 20
30.98368958121311
 30
0.0
 10
266.5261836732606
 20
31.52941340499263
 30
0.0
 10
266.6691501682458
 20
32.10836002291058
 30
0.0
 10
266.8877470619399
 20
32.7005385711398
 30
0.0
 10
267.1756907230939
 20
33.28464056992751
 30
0.0
 10
267.5232148719267
 20
33.83908396480133
 30
0.0
 10
267.917559471156
 20
34.34399370394627
 30
0.0
 10
268.3428890586166
 20
34.77932456516453
 30
0.0
 10
268.7267429427569
 20
35.09139265830304
 30
0.0
 10
268.9603397911709
 20
35.23486044830165
 30
0.0
 10
269.0487302137528
 20
35.2891470479324
 30
0.0
  0
SPLINE
  5
1C0
330
1F
100
AcDbEntity
  8
0
  6
Continuous
 62
     7
370
    15
100
AcDbSpline
210
0.0
220
0.0
230
1.0
 70
     8
 71
     3
 72
    12
 73
     8
 74
     0
 42
0.000000001
 43
0.00000001
 40
0.0
 40
0.0
 40
0.0
 40
0.0
 40
0.1173662125210536
 40
0.3413928753464514
 40
0.565349867141073
 40
0.7930668075572542
 40
1.0
 40
1.0
 40
1.0
 40
1.0
 10
269.0487302137528
 20
35.2891470479324
 30
0.0
 10
269.1226783537657
 20
35.32947682932206
 30
0.0
 10
269.3377774662212
 20
35.44678742267737
 30
0.0
 10
269.677278450479
 20
35.56852481185754
 30
0.0
 10
270.0362646811712
 20
35.62030320863389
 30
0.0
 10
270.3293965976819
 20
35.59345538323874
 30
0.0
 10
270.476889495404
 20
35.51756720653997
 30
0.0
 10
270.5471095963101
 20
35.48143749787143
 30
0.0
  0
SPLINE
  5
1C1
330
1F
100
AcDbEntity
  8
0
  6
Continuous
 62
     7
370
    15
100
AcDbSpline
210
0.0
220
0.0
230
1.0
 70
     8
 71
     3
 72
    19
 73
    15
 74
     0
 42
0.000000001
 43
0.00000001
 40
0.0
 40
0.0
 40
0.0
 40
0.0
 40
0.022119239897078
 40
0.11171626397778
 40
0.201903638774744
 40
0.2927097204363523
 40
0.3840414837142258
 40
0.4757484844082514
 40
0.5676797631873404
 40
0.6597152506821475
 40
0.751764765490537
 40
0.8437794474702037
 40
0.9357420044710264
 40
1.0
 40
1.0
 40
1.0
 40
1.0
 10
239.376268428762
 20
31.63512958736096
 30
0.0
 10
239.4436876186841
 20
31.6186395658036
 30
0.0
 10
239.7841975120415
 20
31.53535444344527
 30
0.0
 10
240.4414463262385
 20
31.49498475452802
 30
0.0
 10
241.3423202266148
 20
31.51877362772976
 30
0.0
 10
242.2790835908478
 20
31.66282844222775
 30
0.0
 10
243.2401936682058
 20
31.91518795321871
 30
0.0
 10
244.2191124735079
 20
32.27727592979578
 30
0.0
 10
245.2074687648288
 20
32.74526945603564
 30
0.0
 10
246.197161582407
 20
33.31563057883287
 30
0.0
 10
247.180688887802
 20
33.98246084997585
 30
0.0
 10
248.1489725562979
 20
34.74365979827721
 30
0.0
 10
249.0049761594555
 20
35.49621685472784
 30
0.0
 10
249.5223946427453
 20
36.02638979134181
 30
0.0
 10
249.7352237106716
 20
36.24446513187056
 30
0.0
  0
SPLINE
  5
1C2
330
1F
100
AcDbEntity
  8
0
  6
Continuous
 62
     7
370
    15
100
AcDbSpline
210
0.0
220
0.0
230
1.0
 70
     8
 71
     3
 72
    18
 73
    14
 74
     0
 42
0.000000001
 43
0.00000001
 40
0.0
 40
0.0
 40
0.0
 40
0.0
 40
0.090285859590147
 40
0.1824202104417152
 40
0.2746312570314802
 40
0.3669229380414677
 40
0.4592896736881244
 40
0.5517097361572911
 40
0.6441178940005663
 40
0.7364126010498058
 40
0.8284526494766985
 40
0.920064717568623
 40
1.0
 40
1.0
 40
1.0
 40
1.0
 10
255.9911414089398
 20
47.06636648056876
 30
0.0
 10
256.1002702833571
 20
47.47704322007121
 30
0.0
 10
256.3207623108667
 20
48.30680479717348
 30
0.0
 10
256.548460814813
 20
49.53561292864318
 30
0.0
 10
256.698575603198
 20
50.74662981031131
 30
0.0
 10
256.7603002295845
 20
51.92201601471478
 30
0.0
 10
256.7346123829149
 20
53.05316808746771
 30
0.0
 10
256.6204821436342
 20
54.13136982589916
 30
0.0
 10
256.4179989221098
 20
55.14779029835913
 30
0.0
 10
256.1287373394081
 20
56.09473636400914
 30
0.0
 10
255.7520727547916
 20
56.96078685716547
 30
0.0
 10
255.3188391703927
 20
57.71774669101785
 30
0.0
 10
254.9730086193165
 20
58.13825489168725
 30
0.0
 10
254.8118632405663
 20
58.33419753774199
 30
0.0
  0
LINE
  5
1C3
330
1F
100
AcDbEntity
  8
0
  6
Continuous
 62
     7
370
    15
100
AcDbLine
 10
236.0430706481
 20
33.1794188665
 30
0.0
 11
237.5898667319
 21
32.2864724942
 31
0.0
  0
LINE
  5
1C4
330
1F
100
AcDbEntity
  8
0
  6
Continuous
 62
     7
370
    15
100
AcDbLine
 10
253.3385867709
 20
59.5670116592
 30
0.0
 11
251.7917906871
 21
60.4599580315
 31
0.0
  0
LINE
  5
1C5
330
1F
100
AcDbEntity
  8
0
  6
Continuous
 62
     7
370
    15
100
AcDbLine
 10
248.2385791116
 20
62.5111834124
 30
0.0
 11
245.2068587873
 21
64.2613583021
 31
0.0
  0
SPLINE
  5
1C6
330
1F
100
AcDbEntity
  8
0
  6
Continuous
 62
     7
370
    15
100
AcDbSpline
210
0.0
220
0.0
230
1.0
 70
     8
 71
     3
 72
    30
 73
    26
 74
     0
 42
0.000000001
 43
0.00000001
 40
0.0
 40
0.0
 40
0.0
 40
0.0
 40
0.0096062853002342
 40
0.0557805914097045
 40
0.1022586308020489
 40
0.149055746748717
 40
0.1961244478664849
 40
0.2433873251448109
 40
0.2907664791225567
 40
0.3381998400872971
 40
0.3856408138750606
 40
0.4330639669452814
 40
0.4804603027610324
 40
0.5278278090994905
 40
0.5751686223556888
 40
0.6224872095853877
 40
0.6697892813197582
 40
0.7170811817849314
 40
0.7643695714212617
 40
0.8116609789202428
 40
0.8589603338852264
 40
0.9062746093862575
 40
0.9536107466793406
 40
0.9984956308336588
 40
1.0
 40
1.0
 40
1.0
 40
1.0
 10
243.3965011667224
 20
64.91858306843866
 30
0.0
 10
243.3396871317904
 20
64.93246705628484
 30
0.0
 10
243.0097864084792
 20
65.01308688267758
 30
0.0
 10
242.3636448219174
 20
65.05222210746925
 30
0.0
 10
241.4633027154773
 20
65.02998722516782
 30
0.0
 10
240.5267667084115
 20
64.88687144696841
 30
0.0
 10
239.5658791188646
 20
64.63560368635913
 30
0.0
 10
238.5870824147443
 20
64.27455425953674
 30
0.0
 10
237.5987976733485
 20
63.80752505836751
 30
0.0
 10
236.6090132635099
 20
63.23827936852341
 30
0.0
 10
235.6256367321989
 20
62.57177690312313
 30
0.0
 10
234.6562515991489
 20
61.81360101100626
 30
0.0
 10
233.7081381196449
 20
60.96992086406306
 30
0.0
 10
232.7883110530965
 20
60.04741523076709
 30
0.0
 10
231.9035543669074
 20
59.05326937192164
 30
0.0
 10
231.0603979815356
 20
57.99513723100786
 30
0.0
 10
230.2650868118228
 20
56.88110110103826
 30
0.0
 10
229.5235338661864
 20
55.71962073353801
 30
0.0
 10
228.8413088885438
 20
54.51948660078774
 30
0.0
 10
228.2234996983859
 20
53.28974699982672
 30
0.0
 10
227.6750566726627
 20
52.0397209039617
 30
0.0
 10
227.1992895555255
 20
50.77856585631059
 30
0.0
 10
226.8102447373747
 20
49.53856424904078
 30
0.0
 10
226.5941973810382
 20
48.70961915851589
 30
0.0
 10
226.5067015597685
 20
48.30368163475489
 30
0.0
 10
226.5038641350143
 20
48.29051738117259
 30
0.0
  0
LINE
  5
1C7
330
1F
100
AcDbEntity
  8
0
  6
Continuous
 62
     7
370
    15
100
AcDbLine
 10
236.2033826204
 20
62.9464426382
 30
0.0
 11
216.3073611098
 21
70.1161801395
 31
0.0
  0
LINE
  5
1C8
330
1F
100
AcDbEntity
  8
0
  6
Continuous
 62
     7
370
    15
100
AcDbLine
 10
209.9358916985
 20
59.0792755285
 30
0.0
 11
228.9637657848
 21
43.0122959512
 31
0.0
  0
LINE
  5
1C9
330
1F
100
AcDbEntity
  8
0
  6
Continuous
 62
     7
370
    15
100
AcDbLine
 10
229.4581387483
 20
36.9808191371
 30
0.0
 11
232.4898590726
 21
35.2306442474
 31
0.0
  0
SPLINE
  5
1CA
330
1F
100
AcDbEntity
  8
0
  6
Continuous
 62
     7
370
    15
100
AcDbSpline
210
0.0
220
0.0
230
1.0
 70
     8
 71
     3
 72
    12
 73
     8
 74
     0
 42
0.000000001
 43
0.00000001
 40
0.0
 40
0.0
 40
0.0
 40
0.0
 40
0.098810989550198
 40
0.3820254461422846
 40
0.6643744439911058
 40
0.9450278620500971
 40
1.0
 40
1.0
 40
1.0
 40
1.0
 10
226.4952014497932
 20
41.04786948331855
 30
0.0
 10
226.5276049184205
 20
40.93722441755956
 30
0.0
 10
226.6528839953254
 20
40.50944577874176
 30
0.0
 10
226.9319230948342
 20
39.81620055549804
 30
0.0
 10
227.3703003784677
 20
39.01557001570833
 30
0.0
 10
227.7338533532563
 20
38.47291207524442
 30
0.0
 10
227.9718420252703
 20
38.22847304394999
 30
0.0
 10
228.010822209807
 20
38.18843635452607
 30
0.0
  0
SPLINE
  5
1CB
330
1F
100
AcDbEntity
  8
0
  6
Continuous
 62
     7
370
    15
100
AcDbSpline
210
0.0
220
0.0
230
1.0
 70
     8
 71
     3
 72
    29
 73
    25
 74
     0
 42
0.000000001
 43
0.00000001
 40
0.0
 40
0.0
 40
0.0
 40
0.0
 40
0.0441906272078238
 40
0.0899341016775402
 40
0.1366759503669055
 40
0.184368152399783
 40
0.2326654030866259
 40
0.2812052096015781
 40
0.3297248128801215
 40
0.3781563091556156
 40
0.4265007956542285
 40
0.4747868261250456
 40
0.5230536913433877
 40
0.5713424341671365
 40
0.6196860666677361
 40
0.66813070108621
 40
0.716719985917185
 40
0.7591465030186806
 40
0.7850002704614917
 40
0.8339190781082437
 40
0.8828358662315523
 40
0.931279907760884
 40
0.9787604031332029
 40
0.9999999999999999
 40
0.9999999999999999
 40
0.9999999999999999
 40
0.9999999999999999
 10
216.1342432639449
 20
70.17041401831749
 30
0.0
 10
215.9573145685891
 20
70.20958598345976
 30
0.0
 10
215.597239949078
 20
70.28930640651343
 30
0.0
 10
215.0113882233231
 20
70.27000803285156
 30
0.0
 10
214.3971261954925
 20
70.1491907397196
 30
0.0
 10
213.7629240042905
 20
69.91616202762921
 30
0.0
 10
213.1217872168029
 20
69.57690927724573
 30
0.0
 10
212.4871127916974
 20
69.13752565412878
 30
0.0
 10
211.8721327630994
 20
68.60807351322379
 30
0.0
 10
211.2885574947287
 20
67.99985234138502
 30
0.0
 10
210.7467204203107
 20
67.32487345955896
 30
0.0
 10
210.2560829607729
 20
66.59584718483505
 30
0.0
 10
209.8253131667177
 20
65.82615068373404
 30
0.0
 10
209.4622378632054
 20
65.02972071833779
 30
0.0
 10
209.1736988098191
 20
64.22076715314567
 30
0.0
 10
208.9655050103455
 20
63.4135067714348
 30
0.0
 10
208.8477915031616
 20
62.65626245859664
 30
0.0
 10
208.8160028797954
 20
62.04559228244971
 30
0.0
 10
208.8353833703442
 20
61.45774581540768
 30
0.0
 10
208.9161078315713
 20
60.86919981575656
 30
0.0
 10
209.1047931890182
 20
60.23329610780928
 30
0.0
 10
209.3902992919201
 20
59.68245366431731
 30
0.0
 10
209.6826480433357
 20
59.28826730569944
 30
0.0
 10
209.904215634795
 20
59.12065618228841
 30
0.0
 10
209.972696426482
 20
59.06885193442371
 30
0.0
  0
LINE
  5
1CC
330
1F
100
AcDbEntity
  8
0
  6
Continuous
 62
     7
370
    15
100
AcDbLine
 10
263.9526457363
 20
39.2024096309
 30
0.0
 11
263.9526457363
 21
38.6920716235
 31
0.0
  0
LINE
  5
1CD
330
1F
100
AcDbEntity
  8
0
  6
Continuous
 62
     7
370
    15
100
AcDbLine
 10
267.9526457363
 20
38.6920716235
 30
0.0
 11
267.9526457363
 21
39.2024096309
 31
0.0
  0
LWPOLYLINE
  5
1CE
330
1F
100
AcDbEntity
  8
0
  6
Continuous
 62
     7
370
    15
100
AcDbPolyline
 90
       43
 70
   128
 43
0.0
 10
269.1523039212
 20
37.2736321967
 10
268.504162819
 20
36.8433797725
 10
267.8705001181
 20
36.3105614159
 10
267.265470796
 20
35.6870794086
 10
266.702590208
 20
34.9868613084
 10
266.1944321764
 20
34.2255488305
 10
265.7523481117
 20
33.4201484376
 10
265.3862134417
 20
32.5886514437
 10
265.1042070096
 20
31.7496321176
 10
264.9126283733
 20
30.9218327646
 10
264.8157570828
 20
30.1237450544
 10
264.8157570828
 20
29.3731969475
 10
264.9126283733
 20
28.6869544485
 10
265.1042070096
 20
28.0803470808
 10
265.3862134417
 20
27.5669254506
 10
265.7523481117
 20
27.1581585488
 10
266.1944321764
 20
26.8631775524
 10
266.702590208
 20
26.6885718494
 10
267.265470796
 20
26.6382418428
 10
267.8705001181
 20
26.7133118217
 10
268.504162819
 20
26.9121048468
 10
269.1523039212
 20
27.2301802105
 10
269.8004450233
 20
27.6604326348
 10
270.4341077243
 20
28.1932509913
 10
271.0391370464
 20
28.8167329986
 10
271.6020176344
 20
29.5169510989
 10
272.110175666
 20
30.2782635768
 10
272.5522597306
 20
31.0836639696
 10
272.9183944007
 20
31.9151609635
 10
273.2004008328
 20
32.7541802896
 10
273.3919794691
 20
33.5819796426
 10
273.4888507595
 20
34.3800673529
 10
273.4888507595
 20
35.1306154597
 10
273.3919794691
 20
35.8168579587
 10
273.2004008328
 20
36.4234653264
 10
272.9183944007
 20
36.9368869566
 10
272.5522597306
 20
37.3456538585
 10
272.110175666
 20
37.6406348549
 10
271.6020176344
 20
37.8152405579
 10
271.0391370464
 20
37.8655705645
 10
270.4341077243
 20
37.7905005856
 10
269.8004450233
 20
37.5917075604
 10
269.1523039212
 20
37.2736321967
  0
LWPOLYLINE
  5
1CF
330
1F
100
AcDbEntity
  8
0
  6
Continuous
 62
     7
370
    15
100
AcDbPolyline
 90
       23
 70
   128
 43
0.0
 10
269.0815932431
 20
37.3961066835
 10
268.4229132612
 20
36.9588582849
 10
267.7789471017
 20
36.4173762152
 10
267.1640799045
 20
35.7837562891
 10
266.5920467866
 20
35.0721525287
 10
266.0756260227
 20
34.2984609861
 10
265.6263535993
 20
33.4799646519
 10
265.25426552
 20
32.6349473817
 10
264.9676736175
 20
31.7822854649
 10
264.7729798814
 20
30.9410259598
 10
264.674533448
 20
30.1299612137
 10
264.674533448
 20
29.3672090725
 10
264.7729798814
 20
28.6698081589
 10
264.9676736175
 20
28.0533372568
 10
265.25426552
 20
27.5315673074
 10
265.6263535993
 20
27.1161537892
 10
266.0756260227
 20
26.8163763539
 10
266.5920467866
 20
26.6389315338
 10
267.1640799045
 20
26.5877831531
 10
267.7789471017
 20
26.664073782
 10
268.4229132612
 20
26.8660992141
 10
269.0815932431
 20
27.1893465349
 10
269.0823115227
 20
27.1897612563
  0
LWPOLYLINE
  5
1D0
330
1F
100
AcDbEntity
  8
0
  6
Continuous
 62
     7
370
    15
100
AcDbPolyline
 90
       12
 70
   128
 43
0.0
 10
273.5010106255
 20
34.8440019587
 10
273.4886530381
 20
35.2182441459
 10
273.3902066048
 20
35.9156450595
 10
273.1955128687
 20
36.5321159616
 10
272.9089209662
 20
37.053885911
 10
272.5368328868
 20
37.4692994292
 10
272.0875604634
 20
37.7690768646
 10
271.5711396995
 20
37.9465216846
 10
270.9991065817
 20
37.9976700654
 10
270.3842393844
 20
37.9213794364
 10
269.7402732249
 20
37.7193540043
 10
269.0815932431
 20
37.3961066835
  0
LINE
  5
1D1
330
1F
100
AcDbEntity
  8
0
  6
Continuous
 62
     7
370
    15
100
AcDbLine
 10
265.9186693016
 20
40.4005011094
 30
0.0
 11
266.1280197865
 21
40.3349090156
 31
0.0
  0
LWPOLYLINE
  5
1D2
330
1F
100
AcDbEntity
  8
0
  6
Continuous
 62
     7
370
    15
100
AcDbPolyline
 90
       20
 70
   128
 43
0.0
 10
267.8348937932
 20
39.5504045502
 10
268.0948687229
 20
39.3617101888
 10
268.3641338087
 20
38.9486792205
 10
268.3223674183
 20
38.6055267407
 10
268.0779542932
 20
38.3155663794
 10
267.64122094
 20
38.0419223334
 10
267.11776796
 20
37.8357272728
 10
266.5093708884
 20
37.6898572059
 10
265.7947640202
 20
37.6280862824
 10
265.0056663418
 20
37.7189478893
 10
264.2726943453
 20
38.0339297571
 10
263.7529847852
 20
38.5582484133
 10
263.5302293089
 20
39.2109574431
 10
263.6105890065
 20
39.7341966077
 10
263.8810433023
 20
40.1172651251
 10
264.3315298816
 20
40.3825940131
 10
264.864837605
 20
40.492674648
 10
265.4870977911
 20
40.4754293312
 10
265.9186693016
 20
40.4005011094
 10
265.9186692254
 20
40.4005008305
  0
ARC
  5
1D3
330
1F
100
AcDbEntity
  8
0
  6
Continuous
 62
     7
370
    15
100
AcDbCircle
 10
250.6451766006
 20
54.9011931366
 30
0.0
 40
5.385418431242448
100
AcDbArc
 50
40.6396958219
 51
79.200585758
  0
ARC
  5
1D4
330
1F
100
AcDbEntity
  8
0
  6
Continuous
 62
     7
370
    15
100
AcDbCircle
 10
240.2833376091
 20
36.9524921148
 30
0.0
 40
5.385617906332066
100
AcDbArc
 50
220.5828918272
 51
259.1743886033
  0
ARC
  5
1D5
330
1F
100
AcDbEntity
  8
0
  6
Continuous
 62
     7
370
    15
100
AcDbCircle
 10
239.7617358421
 20
38.8995054008
 30
0.0
 40
6.822599269022631
100
AcDbArc
 50
188.054640006
 51
236.9718447289
  0
SPLINE
  5
1D6
330
1F
100
AcDbEntity
  8
0
  6
Continuous
 62
     7
370
    15
100
AcDbSpline
210
0.0
220
0.0
230
1.0
 70
     8
 71
     3
 72
    29
 73
    25
 74
     0
 42
0.000000001
 43
0.00000001
 40
0.0
 40
0.0
 40
0.0
 40
0.0
 40
0.0226170105032921
 40
0.0451713142240263
 40
0.0676870228488737
 40
0.0901883721253699
 40
0.1126996441678027
 40
0.135245089017566
 40
0.1578488467194459
 40
0.1805348711560506
 40
0.2033268568175892
 40
0.2262481695777687
 40
0.2493217824054336
 40
0.3751991801893576
 40
0.4999614246459921
 40
0.4999717960761083
 40
0.6247044141127994
 40
0.7509557879396762
 40
0.7931713871196463
 40
0.834908104506354
 40
0.8763104515934291
 40
0.9175264576337788
 40
0.9587061619419142
 40
1.0
 40
1.0
 40
1.0
 40
1.0
 10
233.0066035665095
 20
43.09779384249818
 30
0.0
 10
233.0249687916331
 20
43.04895395269626
 30
0.0
 10
233.0616483233833
 20
42.95140958410749
 30
0.0
 10
233.1133381520498
 20
42.80394697470165
 30
0.0
 10
233.1625195118736
 20
42.65600968517816
 30
0.0
 10
233.2090091817734
 20
42.50751781994508
 30
0.0
 10
233.252919278233
 20
42.35852585381188
 30
0.0
 10
233.2942844696886
 20
42.20905406523376
 30
0.0
 10
233.3331617563931
 20
42.05913396192592
 30
0.0
 10
233.3696036014149
 20
41.90879515194646
 30
0.0
 10
233.4036655825009
 20
41.75807270032409
 30
0.0
 10
233.435402635597
 20
41.60699100359206
 30
0.0
 10
233.508560907464
 20
41.23126979664227
 30
0.0
 10
233.5942374474951
 20
40.64249937493334
 30
0.0
 10
233.6199698093241
 20
40.14101577092201
 30
0.0
 10
233.6204069655572
 20
39.67056294567931
 30
0.0
 10
233.5949759088344
 20
39.22412041579462
 30
0.0
 10
233.5030085927993
 20
38.78809374430106
 30
0.0
 10
233.4104546987543
 20
38.51990086167972
 30
0.0
 10
233.3468720748651
 20
38.37364975084254
 30
0.0
 10
233.2752265708294
 20
38.24272941899583
 30
0.0
 10
233.1949717965172
 20
38.12728308654612
 30
0.0
 10
233.1065701369239
 20
38.02576108210365
 30
0.0
 10
233.0402134830123
 20
37.97076220514369
 30
0.0
 10
233.0069892411272
 20
37.94322471065271
 30
0.0
  0
LWPOLYLINE
  5
1D7
330
1F
100
AcDbEntity
  8
0
  6
Continuous
 62
     7
370
    15
100
AcDbPolyline
 90
       24
 70
   128
 43
0.0
 10
233.0063848254
 20
43.0979201191
 10
233.2653762026
 20
44.4238099105
 10
233.6192553337
 20
45.7710420198
 10
234.064869888
 20
47.127615398
 10
234.5982503625
 20
48.4814457845
 10
235.2146454412
 20
49.8204733532
 10
235.9085643201
 20
51.1327701406
 10
236.6738256185
 20
52.4066462989
 10
237.5036124424
 20
53.6307542286
 10
238.390533109
 20
54.7941896624
 10
239.3266869913
 20
55.8865887988
 10
240.3037348961
 20
56.8982206231
 10
241.3129733493
 20
57.8200735899
 10
242.3454121256
 20
58.6439358978
 10
243.3918543327
 20
59.362468639
 10
244.442978337
 20
59.9692711744
 10
245.4894207994
 20
60.4589381495
 10
246.5218600841
 20
60.8271076453
 10
247.5310992943
 20
61.0705000337
 10
248.5081481979
 20
61.1869471924
 10
249.4443033119
 20
61.1754118184
 10
250.3312254321
 20
61.0359966678
 10
251.1610139186
 20
60.7699436411
 10
251.7917906871
 20
60.4599580315
  0
SPLINE
  5
1D8
330
1F
100
AcDbEntity
  8
0
  6
Continuous
 62
     7
370
    15
100
AcDbSpline
210
0.0
220
0.0
230
1.0
 70
     8
 71
     3
 72
     8
 73
     4
 74
     0
 42
0.000000001
 43
0.00000001
 40
0.0
 40
0.0
 40
0.0
 40
0.0
 40
1.0
 40
1.0
 40
1.0
 40
1.0
 10
232.2284484283345
 20
46.37669724600253
 30
0.0
 10
231.5353771932816
 20
46.26083562762782
 30
0.0
 10
230.8417564268854
 20
46.14607693447476
 30
0.0
 10
230.147777266058
 20
46.0320653868366
 30
0.0
  0
SPLINE
  5
1D9
330
1F
100
AcDbEntity
  8
0
  6
Continuous
 62
     7
370
    15
100
AcDbSpline
210
0.0
220
0.0
230
1.0
 70
     8
 71
     3
 72
     8
 73
     4
 74
     0
 42
0.000000001
 43
0.00000001
 40
0.0
 40
0.0
 40
0.0
 40
0.0
 40
0.0012389803509652
 40
0.0012389803509652
 40
0.0012389803509652
 40
0.0012389803509652
 10
229.6740408519125
 20
46.3055995075906
 30
0.0
 10
229.8321141868935
 20
46.2143284271401
 30
0.0
 10
229.9900323658595
 20
46.12314690003984
 30
0.0
 10
230.147777266058
 20
46.0320653868366
 30
0.0
  0
LWPOLYLINE
  5
1DA
330
1F
100
AcDbEntity
  8
0
  6
Continuous
 62
     7
370
    15
100
AcDbPolyline
 90
       26
 70
   128
 43
0.0
 10
229.6740408519
 20
46.3055995076
 10
230.0197062426
 20
47.6634861856
 10
230.4592566492
 20
49.0323312689
 10
230.9887027878
 20
50.3997113553
 10
231.6032394966
 20
51.7532163388
 10
232.2972893464
 20
53.0805620415
 10
233.0645532602
 20
54.3697017026
 10
233.8980676832
 20
55.6089353125
 10
234.7902677819
 20
56.7870158007
 10
235.7330561021
 20
57.8932511118
 10
236.7178760594
 20
58.9176012445
 10
237.7357895978
 20
59.8507693738
 10
238.7775583092
 20
60.6842862264
 10
239.8337272804
 20
61.410586947
 10
240.8947109039
 20
62.0230797556
 10
241.9508798751
 20
62.5162057729
 10
242.9926485865
 20
62.8854894721
 10
244.0105621248
 20
63.1275792982
 10
244.9953820822
 20
63.2402780854
 10
245.9381704024
 20
63.2225629991
 10
246.8303705011
 20
63.0745948183
 10
247.663884924
 20
62.7977164767
 10
248.4311488379
 20
62.3944408745
 10
249.1251986876
 20
61.8684280715
 10
249.7397353965
 20
61.2244520692
 10
249.8122161102
 20
61.1339803712
  0
LINE
  5
1DB
330
1F
100
AcDbEntity
  8
0
  6
Continuous
 62
     7
370
    15
100
AcDbLine
 10
226.6423205276
 20
48.0557743973
 30
0.0
 11
229.6740408519
 21
46.3055995076
 31
0.0
  0
ARC
  5
1DC
330
1F
100
AcDbEntity
  8
0
  6
Continuous
 62
     7
370
    15
100
AcDbCircle
 10
242.4943087282
 20
59.5271182801
 30
0.0
 40
5.456276790029785
100
AcDbArc
 50
60.1888352859
 51
79.3502771967
  0
LINE
  5
1DD
330
1F
100
AcDbEntity
  8
0
  6
Continuous
 62
     7
370
    15
100
AcDbLine
 10
232.6310438308
 20
46.3155348553
 30
0.0
 11
232.6217211799
 21
46.3209167071
 31
0.0
  0
SPLINE
  5
1DE
330
1F
100
AcDbEntity
  8
0
  6
Continuous
 62
     7
370
    15
100
AcDbSpline
210
0.0
220
0.0
230
1.0
 70
     8
 71
     3
 72
    13
 73
     9
 74
     0
 42
0.000000001
 43
0.00000001
 40
0.0
 40
0.0
 40
0.0
 40
0.0
 40
0.0153049242038778
 40
0.2445618952702316
 40
0.4787278413374146
 40
0.7146305634157978
 40
0.8571171621797657
 40
0.9999999999999999
 40
0.9999999999999999
 40
0.9999999999999999
 40
0.9999999999999999
 10
233.5572522068462
 20
45.51707297837057
 30
0.0
 10
233.5531115069633
 20
45.52233657261903
 30
0.0
 10
233.4869460429846
 20
45.60644509665928
 30
0.0
 10
233.3469486875123
 20
45.75413005853157
 30
0.0
 10
233.1366355978028
 20
45.95652395603611
 30
0.0
 10
232.9428152376496
 20
46.11162507019051
 30
0.0
 10
232.7734880472172
 20
46.23014216004905
 30
0.0
 10
232.6785691682877
 20
46.28704428709712
 30
0.0
 10
232.6310438307935
 20
46.31553485528114
 30
0.0
  0
SPLINE
  5
1DF
330
1F
100
AcDbEntity
  8
0
  6
Continuous
 62
     7
370
    15
100
AcDbSpline
210
0.0
220
0.0
230
1.0
 70
     8
 71
     3
 72
    10
 73
     6
 74
     0
 42
0.000000001
 43
0.00000001
 40
0.0
 40
0.0
 40
0.0
 40
0.0
 40
0.5
 40
0.5
 40
1.0
 40
1.0
 40
1.0
 40
1.0
 10
232.6217211798864
 20
46.32091670709386
 30
0.0
 10
232.5719205810736
 20
46.34966598084299
 30
0.0
 10
232.5068886643297
 20
46.37042932620366
 30
0.0
 10
232.3698303039842
 20
46.38938301559143
 30
0.0
 10
232.2962914639345
 20
46.38803865436363
 30
0.0
 10
232.2284484283345
 20
46.37669724600254
 30
0.0
  0
SPLINE
  5
1E0
330
1F
100
AcDbEntity
  8
0
  6
Continuous
 62
     7
370
    15
100
AcDbSpline
210
0.0
220
0.0
230
1.0
 70
     8
 71
     3
 72
     8
 73
     4
 74
     0
 42
0.000000001
 43
0.00000001
 40
0.0
 40
0.0
 40
0.0
 40
0.0
 40
1.0
 40
1.0
 40
1.0
 40
1.0
 10
226.4854959200141
 20
48.14629607649939
 30
0.0
 10
226.5078747165335
 20
48.13338412504755
 30
0.0
 10
226.5620621475508
 20
48.10210657389052
 30
0.0
 10
226.6423205275752
 20
48.05577439731054
 30
0.0
  0
LINE
  5
1E1
330
1F
100
AcDbEntity
  8
0
  6
Continuous
 62
     7
370
    15
100
AcDbLine
 10
226.48549592
 20
48.1462960765
 30
0.0
 11
226.508152506
 21
48.289712819
 31
0.0
  0
SPLINE
  5
1E2
330
1F
100
AcDbEntity
  8
0
  6
Continuous
 62
     7
370
    15
100
AcDbSpline
210
0.0
220
0.0
230
1.0
 70
     8
 71
     3
 72
    11
 73
     7
 74
     0
 42
0.000000001
 43
0.00000001
 40
0.0
 40
0.0
 40
0.0
 40
0.0
 40
0.2913010432653671
 40
0.5549855813085073
 40
0.791374822372444
 40
0.9999999999999999
 40
0.9999999999999999
 40
0.9999999999999999
 40
0.9999999999999999
 10
233.1150289157933
 20
38.66935344941321
 30
0.0
 10
233.2059657665134
 20
38.76091096547565
 30
0.0
 10
233.3792182904096
 20
38.93534597849682
 30
0.0
 10
233.5303085490734
 20
39.35274466890051
 30
0.0
 10
233.6088947793875
 20
39.80684763802163
 30
0.0
 10
233.6165233141625
 20
40.15078159656052
 30
0.0
 10
233.6200996127175
 20
40.3120197052117
 30
0.0
  0
SPLINE
  5
1E3
330
1F
100
AcDbEntity
  8
0
  6
Continuous
 62
     7
370
    15
100
AcDbSpline
210
0.0
220
0.0
230
1.0
 70
     8
 71
     3
 72
     9
 73
     5
 74
     0
 42
0.000000001
 43
0.00000001
 40
0.0
 40
0.0
 40
0.0
 40
0.0
 40
0.5067649320089164
 40
1.0
 40
1.0
 40
1.0
 40
1.0
 10
233.0063074513208
 20
37.94272268286907
 30
0.0
 10
233.0245763666818
 20
38.06517680160528
 30
0.0
 10
233.0606264447496
 20
38.30681569767248
 30
0.0
 10
233.0973072978328
 20
38.54896596805909
 30
0.0
 10
233.1153995808972
 20
38.6684029731373
 30
0.0
  0
SPLINE
  5
1E4
330
1F
100
AcDbEntity
  8
0
  6
Continuous
 62
     7
370
    15
100
AcDbSpline
210
0.0
220
0.0
230
1.0
 70
     8
 71
     3
 72
    10
 73
     6
 74
     0
 42
0.000000001
 43
0.00000001
 40
0.0
 40
0.0
 40
0.0
 40
0.0
 40
0.4807908150166064
 40
0.975781759036066
 40
1.0
 40
1.0
 40
1.0
 40
1.0
 10
232.6310438307935
 20
39.74238131960085
 30
0.0
 10
232.7808347776938
 20
39.66221094423883
 30
0.0
 10
233.0848407384752
 20
39.49950236610046
 30
0.0
 10
233.3744561826729
 20
39.38800093537927
 30
0.0
 10
233.5087946133508
 20
39.35976931790005
 30
0.0
 10
233.5150607592107
 20
39.35845246886369
 30
0.0
  0
LINE
  5
1E5
330
1F
100
AcDbEntity
  8
0
  6
Continuous
 62
     7
370
    15
100
AcDbLine
 10
226.9189291675
 20
47.8960397183
 30
0.0
 11
226.48549592
 21
48.1462960765
 31
0.0
  0
LINE
  5
1E6
330
1F
100
AcDbEntity
  8
0
  6
Continuous
 62
     7
370
    15
100
AcDbLine
 10
230.1477772661
 20
46.0320653868
 30
0.0
 11
226.9189291675
 21
47.8960397183
 31
0.0
  0
SPLINE
  5
1E7
330
1F
100
AcDbEntity
  8
0
  6
Continuous
 62
     7
370
    15
100
AcDbSpline
210
0.0
220
0.0
230
1.0
 70
     8
 71
     3
 72
    11
 73
     7
 74
     0
 42
0.000000001
 43
0.00000001
 40
0.0
 40
0.0
 40
0.0
 40
0.0
 40
0.2180025369760411
 40
0.5290085500344824
 40
0.8400525035994066
 40
1.0
 40
1.0
 40
1.0
 40
1.0
 10
229.0239940888505
 20
43.88221377251465
 30
0.0
 10
229.0192719042253
 20
44.08860810315399
 30
0.0
 10
229.0078129731681
 20
44.5894479883286
 30
0.0
 10
228.9427405607939
 20
45.40817453095041
 30
0.0
 10
228.9020125986859
 20
46.16234091925786
 30
0.0
 10
228.9228976302724
 20
46.5898857865969
 30
0.0
 10
228.9299901337876
 20
46.73507893423219
 30
0.0
  0
LINE
  5
1E8
330
1F
100
AcDbEntity
  8
0
  6
Continuous
 62
     7
370
    15
100
AcDbLine
 10
229.0239940889
 20
43.4618584171
 30
0.0
 11
229.0239940889
 21
43.8822137725
 31
0.0
  0
LINE
  5
1E9
330
1F
100
AcDbEntity
  8
0
  6
Continuous
 62
     7
370
    15
100
AcDbLine
 10
228.4141144901
 20
46.6972272322
 30
0.0
 11
228.4193023848
 21
47.0298926964
 31
0.0
  0
ARC
  5
1EA
330
1F
100
AcDbEntity
  8
0
  6
Continuous
 62
     7
370
    15
100
AcDbCircle
 10
235.907910551
 20
46.5113618311
 30
0.0
 40
7.496100676305757
100
AcDbArc
 50
178.5792087138
 51
203.3164212113
  0
LINE
  5
1EB
330
1F
100
AcDbEntity
  8
0
  6
Continuous
 62
     7
370
    15
100
AcDbLine
 10
216.1570576986
 20
70.1643909726
 30
0.0
 11
216.3073611098
 21
70.1161801395
 31
0.0
  0
LINE
  5
1EC
330
1F
100
AcDbEntity
  8
0
  6
Continuous
 62
     7
370
    15
100
AcDbLine
 10
232.6217211799
 20
39.7477631714
 30
0.0
 11
232.6310438308
 21
39.7423813196
 31
0.0
  0
ARC
  5
1ED
330
1F
100
AcDbEntity
  8
0
  6
Continuous
 62
     7
370
    15
100
AcDbCircle
 10
235.427732332
 20
40.3722518373
 30
0.0
 40
5.894055296995454
100
AcDbArc
 50
192.5292124781
 51
260.6428941703
  0
SPLINE
  5
1EE
330
1F
100
AcDbEntity
  8
0
  6
Continuous
 62
     7
370
    15
100
AcDbSpline
210
0.0
220
0.0
230
1.0
 70
     8
 71
     3
 72
     8
 73
     4
 74
     0
 42
0.000000001
 43
0.00000001
 40
0.0
 40
0.0
 40
0.0
 40
0.0
 40
0.0012389803509652
 40
0.0012389803509652
 40
0.0012389803509652
 40
0.0012389803509652
 10
230.147777266058
 20
39.45891185115631
 30
0.0
 10
229.9900323658595
 20
39.3368354006216
 30
0.0
 10
229.8321141868935
 20
39.21507809762078
 30
0.0
 10
229.6740408519125
 20
39.09361107607634
 30
0.0
  0
SPLINE
  5
1EF
330
1F
100
AcDbEntity
  8
0
  6
Continuous
 62
     7
370
    15
100
AcDbSpline
210
0.0
220
0.0
230
1.0
 70
     8
 71
     3
 72
     8
 73
     4
 74
     0
 42
0.000000001
 43
0.00000001
 40
0.0
 40
0.0
 40
0.0
 40
0.0
 40
1.0
 40
1.0
 40
1.0
 40
1.0
 10
230.147777266058
 20
39.45891185115631
 30
0.0
 10
230.8417578489996
 20
39.57292363242892
 30
0.0
 10
231.5353909097616
 20
39.68768438494929
 30
0.0
 10
232.2284484283345
 20
39.80354371032224
 30
0.0
  0
SPLINE
  5
1F0
330
1F
100
AcDbEntity
  8
0
  6
Continuous
 62
     7
370
    15
100
AcDbSpline
210
0.0
220
0.0
230
1.0
 70
     8
 71
     3
 72
    12
 73
     8
 74
     0
 42
0.000000001
 43
0.00000001
 40
0.0
 40
0.0
 40
0.0
 40
0.0
 40
0.2499999999999987
 40
0.2499999999999987
 40
0.4999999999999973
 40
0.4999999999999973
 40
1.0
 40
1.0
 40
1.0
 40
1.0
 10
232.2284484283345
 20
39.80354371032224
 30
0.0
 10
232.2622369442586
 20
39.80919218040649
 30
0.0
 10
232.2978087203275
 20
39.81245264392194
 30
0.0
 10
232.36839096672
 20
39.81359023347006
 30
0.0
 10
232.4034139251688
 20
39.81157361701204
 30
0.0
 10
232.5076192204338
 20
39.79719787967244
 30
0.0
 10
232.5713296523735
 20
39.77685358104004
 30
0.0
 10
232.6217211798864
 20
39.74776317141358
 30
0.0
  0
LINE
  5
1F1
330
1F
100
AcDbEntity
  8
0
  6
Continuous
 62
     7
370
    15
100
AcDbLine
 10
226.9189291675
 20
41.3228861826
 30
0.0
 11
230.1477772661
 21
39.4589118512
 31
0.0
  0
LINE
  5
1F2
330
1F
100
AcDbEntity
  8
0
  6
Continuous
 62
     7
370
    15
100
AcDbLine
 10
226.9189291675
 20
41.3228861826
 30
0.0
 11
228.8118620545
 21
42.4156530781
 31
0.0
  0
LINE
  5
1F3
330
1F
100
AcDbEntity
  8
0
  6
Continuous
 62
     7
370
    15
100
AcDbLine
 10
226.48549592
 20
41.0726298244
 30
0.0
 11
226.9189291675
 21
41.3228861826
 31
0.0
  0
LINE
  5
1F4
330
1F
100
AcDbEntity
  8
0
  6
Continuous
 62
     7
370
    15
100
AcDbLine
 10
229.6740408519
 20
39.0936110761
 30
0.0
 11
226.6423205276
 21
40.8437859658
 31
0.0
  0
SPLINE
  5
1F5
330
1F
100
AcDbEntity
  8
0
  6
Continuous
 62
     7
370
    15
100
AcDbSpline
210
0.0
220
0.0
230
1.0
 70
     8
 71
     3
 72
     8
 73
     4
 74
     0
 42
0.000000001
 43
0.00000001
 40
0.0
 40
0.0
 40
0.0
 40
0.0
 40
1.0
 40
1.0
 40
1.0
 40
1.0
 10
226.6423205275752
 20
40.84378596579629
 30
0.0
 10
226.5622957280605
 20
40.88998329921824
 30
0.0
 10
226.5078189306786
 20
40.97317082158294
 30
0.0
 10
226.4854959200141
 20
41.07262982442406
 30
0.0
  0
ARC
  5
1F6
330
1F
100
AcDbEntity
  8
0
  6
Continuous
 62
     7
370
    15
100
AcDbCircle
 10
232.1686928305
 20
41.6572347301
 30
0.0
 40
5.405179574300105
100
AcDbArc
 50
220.9676728376
 51
239.9024689524
  0
ELLIPSE
  5
1F7
330
1F
100
AcDbEntity
  8
0
  6
Continuous
 62
     7
370
    15
100
AcDbEllipse
 10
228.5775474794
 20
43.2041526525
 30
0.0
 11
-6.005970385558612E-5
 21
0.8534489614827194
 31
0.0
210
0.0
220
0.0
230
1.0
 40
0.7174342186
 41
3.534193645557484
 42
5.104989972352339
  0
ELLIPSE
  5
1F8
330
1F
100
AcDbEntity
  8
0
  6
Continuous
 62
     7
370
    15
100
AcDbEllipse
 10
228.4583086639
 20
43.1352951724
 30
0.0
 11
0.2600075789209484
 21
0.9705436209909308
 31
0.0
210
0.0
220
0.0
230
1.0
 40
0.5176380889
 41
3.61917435134774
 42
5.189970678142644
  0
LWPOLYLINE
  5
1F9
330
1F
100
AcDbEntity
  8
0
  6
Continuous
 62
     7
370
    15
100
AcDbPolyline
 90
       25
 70
   128
 43
0.0
 10
267.9522698028
 20
39.1800246151
 10
267.8941702805
 20
39.4795573054
 10
267.7037590691
 20
39.7602028397
 10
267.3940123778
 20
40.0028356887
 10
266.9860389319
 20
40.1909208245
 10
266.5076414475
 20
40.3116405561
 10
265.9914219226
 20
40.3567680333
 10
265.4725598646
 20
40.323227893
 10
264.9864148654
 20
40.2133058404
 10
264.5661169033
 20
40.0344928817
 10
264.2403085898
 20
39.7989748245
 10
264.0311932231
 20
39.5228018353
 10
263.9530216698
 20
39.2247946468
 10
264.0111211921
 20
38.9252619564
 10
264.2015324036
 20
38.6446164221
 10
264.5112790948
 20
38.4019835732
 10
264.9192525407
 20
38.2138984373
 10
265.3976500251
 20
38.0931787057
 10
265.9138695501
 20
38.0480512285
 10
266.432731608
 20
38.0815913688
 10
266.9188766072
 20
38.1915134214
 10
267.3391745693
 20
38.3703263802
 10
267.6649828828
 20
38.6058444373
 10
267.8740982495
 20
38.8820174266
 10
267.9522698028
 20
39.1800246151
  0
LINE
  5
1FA
330
1F
100
AcDbEntity
  8
0
  6
Continuous
 62
     7
370
    15
100
AcDbLine
 10
264.9416399823
 20
38.8803675717
 30
0.0
 11
264.9640274238
 21
39.546836706
 31
0.0
  0
LINE
  5
1FB
330
1F
100
AcDbEntity
  8
0
  6
Continuous
 62
     7
370
    15
100
AcDbLine
 10
265.9302582947
 20
38.5359404965
 30
0.0
 11
264.9416399823
 21
38.8803675717
 31
0.0
  0
LINE
  5
1FC
330
1F
100
AcDbEntity
  8
0
  6
Continuous
 62
     7
370
    15
100
AcDbLine
 10
266.9412640488
 20
38.8579825558
 30
0.0
 11
265.9302582947
 21
38.5359404965
 31
0.0
  0
LINE
  5
1FD
330
1F
100
AcDbEntity
  8
0
  6
Continuous
 62
     7
370
    15
100
AcDbLine
 10
266.9636514904
 20
39.5244516902
 30
0.0
 11
266.9412640488
 21
38.8579825558
 31
0.0
  0
LINE
  5
1FE
330
1F
100
AcDbEntity
  8
0
  6
Continuous
 62
     7
370
    15
100
AcDbLine
 10
265.9750331779
 20
39.8688787653
 30
0.0
 11
266.9636514904
 21
39.5244516902
 31
0.0
  0
LINE
  5
1FF
330
1F
100
AcDbEntity
  8
0
  6
Continuous
 62
     7
370
    15
100
AcDbLine
 10
264.9640274238
 20
39.546836706
 30
0.0
 11
265.9750331779
 21
39.8688787653
 31
0.0
  0
LINE
  5
200
330
1F
100
AcDbEntity
  8
0
  6
Continuous
 62
     7
370
    15
100
AcDbLine
 10
264.9640274238
 20
38.8725679579
 30
0.0
 11
264.9640274238
 21
39.546836706
 31
0.0
  0
LINE
  5
201
330
1F
100
AcDbEntity
  8
0
  6
Continuous
 62
     7
370
    15
100
AcDbLine
 10
265.9750331779
 20
38.5502029234
 30
0.0
 11
265.9750331779
 21
39.8688787653
 31
0.0
  0
ARC
  5
202
330
1F
100
AcDbEntity
  8
0
  6
Continuous
 62
     7
370
     0
100
AcDbCircle
 10
245.5329627833
 20
42.2261869769
 30
0.0
 40
3.091910370737504
100
AcDbArc
 50
173.8196216534
 51
234.8681979532
  0
LWPOLYLINE
  5
203
330
1F
100
AcDbEntity
  8
0
  6
Continuous
 62
     7
370
     0
100
AcDbPolyline
 90
       17
 70
   128
 43
0.0
 10
250.0031863533
 20
50.5231393547
 10
249.6339019819
 20
50.691011336
 10
249.088149005
 20
50.8056284291
 10
248.4930347874
 20
50.7930220549
 10
247.8618531973
 20
50.6534738193
 10
247.2087037884
 20
50.390100999
 10
246.5481768392
 20
50.0087869077
 10
245.8950274303
 20
49.5180494722
 10
245.2638458402
 20
48.9288509557
 10
244.6687316226
 20
48.2543530796
 10
244.1229786457
 20
47.5096230118
 10
243.6387781292
 20
46.7112967914
 10
243.2269463126
 20
45.8772077069
 10
242.896682838
 20
45.0259879303
 10
242.6553652458
 20
44.1766523047
 10
242.5083841721
 20
43.3481735845
 10
242.4590229314
 20
42.5590586154
  0
LWPOLYLINE
  5
204
330
1F
100
AcDbEntity
  8
0
  6
Continuous
 62
     7
370
     0
100
AcDbPolyline
 90
       35
 70
   128
 43
0.0
 10
269.1523039212
 20
35.5180694512
 10
268.6325818008
 20
35.1624276214
 10
268.130558194
 20
34.7076714755
 10
267.6633289124
 20
34.1692871886
 10
267.2468048889
 20
33.5656087919
 10
266.8951703495
 20
32.9171938292
 10
266.6203997868
 20
32.2461232943
 10
266.4318501828
 20
31.5752496895
 10
266.3359423679
 20
30.9274188107
 10
266.3359423679
 20
30.3246917615
 10
266.4318501828
 20
29.7875936887
 10
266.6203997868
 20
29.334414823
 10
266.8951703495
 20
28.9805876271
 10
267.2468048889
 20
28.7381612618
 10
267.6633289124
 20
28.6153912663
 10
268.130558194
 20
28.6164584254
 10
268.6325818008
 20
28.7413263983
 10
269.1523039212
 20
28.9857429561
 10
269.6720260415
 20
29.3413847859
 10
270.1740496484
 20
29.7961409318
 10
270.64127893
 20
30.3345252187
 10
271.0578029535
 20
30.9382036153
 10
271.4094374928
 20
31.586618578
 10
271.6842080555
 20
32.2576891129
 10
271.8727576596
 20
32.9285627177
 10
271.9686654745
 20
33.5763935965
 10
271.9686654745
 20
34.1791206457
 10
271.8727576596
 20
34.7162187185
 10
271.6842080555
 20
35.1693975842
 10
271.4094374928
 20
35.5232247801
 10
271.0578029535
 20
35.7656511454
 10
270.64127893
 20
35.888421141
 10
270.1740496484
 20
35.8873539819
 10
269.6720260415
 20
35.7624860089
 10
269.1523039212
 20
35.5180694512
  0
LWPOLYLINE
  5
205
330
1F
100
AcDbEntity
  8
0
  6
Continuous
 62
     7
370
     0
100
AcDbPolyline
 90
       17
 70
   128
 43
0.0
 10
267.0587190429
 20
29.4192279581
 10
267.4237843534
 20
29.2860061
 10
267.8516573553
 20
29.2689142768
 10
268.3159266168
 20
29.3743006871
 10
268.7987505306
 20
29.59811539
 10
269.2815744443
 20
29.9317573121
 10
269.7458437058
 20
30.3624047814
 10
270.1737167078
 20
30.8735082572
 10
270.5487505306
 20
31.4454263195
 10
270.8565328348
 20
32.056180478
 10
271.0852357191
 20
32.6822997928
 10
271.2260702599
 20
33.2997228499
 10
271.2736242647
 20
33.8847224273
 10
271.2260702599
 20
34.4148173194
 10
271.0852357191
 20
34.8696362767
 10
270.8565328348
 20
35.2317008619
 10
270.5506814277
 20
35.4859796275
  0
LWPOLYLINE
  5
206
330
1F
100
AcDbEntity
  8
0
  6
Continuous
 62
     7
370
     0
100
AcDbPolyline
 90
       39
 70
   128
 43
0.0
 10
235.0344017289
 20
39.4975281961
 10
235.0817840875
 20
40.6909284423
 10
235.2235147655
 20
41.928547551
 10
235.4583482285
 20
43.1995092811
 10
235.7842207517
 20
44.492644375
 10
236.1982685556
 20
45.7965887152
 10
236.6968529731
 20
47.0998831918
 10
237.2755924266
 20
48.3910744061
 10
237.9294009328
 20
49.6588153234
 10
238.6525327992
 20
50.8919649908
 10
239.4386331169
 20
52.0796864448
 10
240.280793608
 20
53.2115419464
 10
241.1716133358
 20
54.277584709
 10
242.1032637446
 20
55.2684463102
 10
243.0675574571
 20
56.1754190228
 10
244.0560202254
 20
56.9905323379
 10
245.0599654032
 20
57.7066230104
 10
246.0705702842
 20
58.3173980098
 10
247.0789536363
 20
58.8174898233
 10
248.0762537504
 20
59.2025036262
 10
249.0537063172
 20
59.4690559032
 10
250.0027214484
 20
59.6148041835
 10
250.914959165
 20
59.6384676259
 10
251.782402689
 20
59.5398382751
 10
252.5974288957
 20
59.3197828895
 10
253.3528753053
 20
58.9802353237
 10
254.0421030277
 20
58.524179534
 10
254.6590551048
 20
57.9556233549
 10
255.1983097397
 20
57.2795632788
 10
255.6551279432
 20
56.5019405457
 10
256.0254951805
 20
55.6295889323
 10
256.306156651
 20
54.6701746958
 10
256.4946458916
 20
53.6321292032
 10
256.5893064521
 20
52.5245748355
 10
256.5893064521
 20
51.3572448203
 10
256.4946458916
 20
50.1403976958
 10
256.306156651
 20
48.8847271582
 10
256.0254951805
 20
47.6012680854
 10
255.8983052391
 20
47.1199596607
  0
LWPOLYLINE
  5
207
330
1F
100
AcDbEntity
  8
0
  6
Continuous
 62
     7
370
     0
100
AcDbPolyline
 90
       22
 70
   128
 43
0.0
 10
249.6488131601
 20
36.2943488809
 10
249.0537063172
 20
35.7123450304
 10
248.0762537504
 20
34.8503545956
 10
247.0789536363
 20
34.0839101962
 10
246.0705702842
 20
33.4197473732
 10
245.0599654032
 20
32.8637028135
 10
244.0560202254
 20
32.4206630565
 10
243.0675574571
 20
32.0945215516
 10
242.1032637446
 20
31.8881444421
 10
241.1716133358
 20
31.8033453774
 10
240.280793608
 20
31.8408695748
 10
239.4386331169
 20
32.0003872702
 10
238.6525327992
 20
32.2804966165
 10
237.9294009328
 20
32.6787360025
 10
237.2755924266
 20
33.1916056864
 10
236.6968529731
 20
33.8145985507
 10
236.1982685556
 20
34.542239712
 10
235.7842207517
 20
35.3681346334
 10
235.4583482285
 20
36.2850253206
 10
235.2235147655
 20
37.2848541055
 10
235.0817840875
 20
38.3588344566
 10
235.0344017289
 20
39.4975281961
  0
LWPOLYLINE
  5
208
330
1F
100
AcDbEntity
  8
0
  6
Continuous
 62
     7
370
     0
100
AcDbPolyline
 90
       25
 70
   128
 43
0.0
 10
234.3272949477
 20
39.4975281961
 10
234.3748031354
 20
40.7115729671
 10
234.5169223754
 20
41.9701117222
 10
234.7524401564
 20
43.2624070524
 10
235.0793471237
 20
44.5774335496
 10
235.4948542225
 20
45.9039718714
 10
235.9954164925
 20
47.2307044605
 10
236.576763313
 20
48.5463121024
 10
237.233934838
 20
49.8395704964
 10
237.9613243117
 20
51.099446018
 10
238.7527259035
 20
52.3151898534
 10
239.6013876542
 20
53.4764297049
 10
240.5000690809
 20
54.5732582835
 10
241.4411029505
 20
55.5963178345
 10
242.4164606938
 20
56.5368799745
 10
243.4178209026
 20
57.386920159
 10
244.4366403245
 20
58.1391861448
 10
245.4642267514
 20
58.7872598639
 10
246.4918131784
 20
59.3256121796
 10
247.5106326003
 20
59.74965006
 10
248.5119928091
 20
60.0557557632
 10
249.4873505524
 20
60.2413177035
 10
250.428384422
 20
60.3047527317
 10
251.3270658487
 20
60.2455196425
 10
251.6542493037
 20
60.1912313179
  0
ARC
  5
209
330
1F
100
AcDbEntity
  8
0
  6
Continuous
 62
     7
370
     0
100
AcDbCircle
 10
243.587701455
 20
39.0420271831
 30
0.0
 40
9.271602334675967
100
AcDbArc
 50
177.1840039461
 51
217.1033364391
  0
LWPOLYLINE
  5
20A
330
1F
100
AcDbEntity
  8
0
  6
Continuous
 62
     7
370
     0
100
AcDbPolyline
 90
       24
 70
   128
 43
0.0
 10
240.3377025878
 20
42.5590586154
 10
240.3865986447
 20
43.4307510585
 10
240.5324142641
 20
44.343342315
 10
240.7725473628
 20
45.2805471723
 10
241.1027127599
 20
46.2256411873
 10
241.5170186462
 20
47.1617591352
 10
242.0080717233
 20
48.0721959688
 10
242.5671091373
 20
48.9407049214
 10
243.1841548525
 20
49.7517874301
 10
243.8481976733
 20
50.4909697083
 10
244.5473877399
 20
51.1450610308
 10
245.2692479891
 20
51.7023891224
 10
246.0008968075
 20
52.1530084501
 10
246.7292779047
 20
52.4888777014
 10
247.4413933027
 20
52.7040032814
 10
248.1245352854
 20
52.7945462692
 10
248.7665131679
 20
52.7588909229
 10
249.3558708397
 20
52.5976735131
 10
249.8820911992
 20
52.3137709683
 10
250.3357838316
 20
51.912249536
 10
250.7088525811
 20
51.4002743758
 10
250.9946400271
 20
50.7869816965
 10
251.1880462858
 20
50.0833157206
 10
251.2340002208
 20
49.8126056331
  0
LWPOLYLINE
  5
20B
330
1F
100
AcDbEntity
  8
0
  6
Continuous
 62
     7
370
     0
100
AcDbPolyline
 90
       12
 70
   128
 43
0.0
 10
244.9845081418
 20
38.9869948534
 10
244.5473877399
 20
38.8334552201
 10
243.8481976733
 20
38.6802788748
 10
243.1841548525
 20
38.6527736315
 10
242.5671091373
 20
38.7514303219
 10
242.0080717233
 20
38.974488415
 10
241.5170186462
 20
39.3179674339
 10
241.1027127599
 20
39.7757379874
 10
240.7725473628
 20
40.339631149
 10
240.5324142641
 20
40.999584232
 10
240.3865986447
 20
41.7438203578
 10
240.3377025878
 20
42.5590586154
  0
LWPOLYLINE
  5
20C
330
1F
100
AcDbEntity
  8
0
  6
Continuous
 62
     7
370
     0
100
AcDbPolyline
 90
       19
 70
   128
 43
0.0
 10
232.2284484283
 20
46.376697246
 10
232.5629771583
 20
47.6132051644
 10
232.9872081104
 20
48.8570579373
 10
233.4967873337
 20
50.0954897022
 10
234.086484934
 20
51.3157902332
 10
234.7502487493
 20
52.5054353884
 10
235.481266464
 20
53.6522156466
 10
236.272035525
 20
54.7443614163
 10
237.1144401411
 20
55.7706638286
 10
237.9998345773
 20
56.7205897754
 10
238.9191318871
 20
57.5843900128
 10
239.8628971733
 20
58.3531992192
 10
240.8214444197
 20
59.019126981
 10
241.7849359007
 20
59.5753387737
 10
242.7434831471
 20
60.0161261055
 10
243.6872484333
 20
60.3369651047
 10
244.6065457431
 20
60.5345629487
 10
245.4919401793
 20
60.6068916586
 10
245.8476955483
 20
60.5998853291
  0
LWPOLYLINE
  5
20D
330
1F
100
AcDbEntity
  8
0
  6
Continuous
 62
     7
370
     0
100
AcDbPolyline
 90
       21
 70
   128
 43
0.0
 10
226.6423205276
 20
48.0557743973
 10
226.9879859183
 20
49.4136610754
 10
227.4275363248
 20
50.7825061586
 10
227.9569824635
 20
52.149886245
 10
228.5715191723
 20
53.5033912285
 10
229.265569022
 20
54.8307369312
 10
230.0328329359
 20
56.1198765923
 10
230.8663473588
 20
57.3591102022
 10
231.7585474576
 20
58.5371906905
 10
232.7013357778
 20
59.6434260015
 10
233.6861557351
 20
60.6677761342
 10
234.7040692734
 20
61.6009442635
 10
235.7458379848
 20
62.4344611161
 10
236.802006956
 20
63.1607618368
 10
237.8629905795
 20
63.7732546453
 10
238.9191595508
 20
64.2663806626
 10
239.9609282622
 20
64.6356643619
 10
240.9788418005
 20
64.8777541879
 10
241.9636617578
 20
64.9904529751
 10
242.906450078
 20
64.9727378888
 10
243.5026521339
 20
64.8894125639
  0
LWPOLYLINE
  5
20E
330
1F
100
AcDbEntity
  8
0
  6
Continuous
 62
     7
370
     0
100
AcDbPolyline
 90
       18
 70
   128
 43
0.0
 10
232.6217211799
 20
46.3209167071
 10
232.95407394
 20
47.5350779715
 10
233.373971104
 20
48.7558847099
 10
233.8771353426
 20
49.9709010384
 10
234.4584411171
 20
51.1677500576
 10
235.1119668914
 20
52.3342399313
 10
235.8310554522
 20
53.4584880804
 10
236.6083817238
 20
54.5290422257
 10
237.4360273854
 20
55.5349970479
 10
238.3055615321
 20
56.466105276
 10
239.2081265572
 20
57.3128820722
 10
240.1345283816
 20
58.0667016502
 10
241.0753301095
 20
58.7198851427
 10
242.0209481594
 20
59.2657788232
 10
242.9617498874
 20
59.6988218848
 10
243.8881517117
 20
60.0146030862
 10
244.7907167369
 20
60.2099056867
 10
244.9826302753
 20
60.2361730807
  0
LINE
  5
20F
330
1F
100
AcDbEntity
  8
0
  6
Continuous
 62
     7
370
     0
100
AcDbLine
 10
232.6310438308
 20
39.7423813196
 30
0.0
 11
233.0368250721
 21
39.976633844
 31
0.0
  0
LWPOLYLINE
  5
210
330
1F
100
AcDbEntity
  8
0
  6
Continuous
 62
     7
370
     0
100
AcDbPolyline
 90
        3
 70
   128
 43
0.0
 10
233.5830120543
 20
39.7224139316
 10
233.5597954557
 20
39.7306896828
 10
233.0368250721
 20
39.976633844
  0
ARC
  5
211
330
1F
100
AcDbEntity
  8
0
  6
Continuous
 62
     7
370
     0
100
AcDbCircle
 10
232.3488359026
 20
41.0332354392
 30
0.0
 40
1.260847345344079
100
AcDbArc
 50
303.0695173616
 51
345.5982002281
  0
LINE
  5
212
330
1F
100
AcDbEntity
  8
0
  6
Continuous
 62
     7
370
     0
100
AcDbLine
 10
229.1432329044
 20
43.5307158972
 30
0.0
 11
233.52822341
 21
40.9993147608
 31
0.0
  0
LINE
  5
213
330
1F
100
AcDbEntity
  8
0
  6
Continuous
 62
     7
370
     0
100
AcDbLine
 10
229.0239940889
 20
43.4618584171
 30
0.0
 11
229.1432329044
 21
43.5307158972
 31
0.0
  0
LINE
  5
214
330
1F
100
AcDbEntity
  8
0
  6
Continuous
 62
     7
370
     0
100
AcDbLine
 10
228.7676678807
 20
46.4931252042
 30
0.0
 11
228.7728557754
 21
46.8257906685
 31
0.0
  0
LWPOLYLINE
  5
215
330
1F
100
AcDbEntity
  8
0
  6
Continuous
 62
     7
370
     0
100
AcDbPolyline
 90
        3
 70
   128
 43
0.0
 10
228.9494806863
 20
44.6574582331
 10
228.8153589438
 20
45.5224629983
 10
228.7676678807
 20
46.4931252042
  0
LWPOLYLINE
  5
216
330
1F
100
AcDbEntity
  8
0
  6
Continuous
 62
     7
370
     0
100
AcDbPolyline
 90
       17
 70
   128
 43
0.0
 10
208.9221519824
 20
61.7920046518
 10
208.9704246928
 20
62.5814938771
 10
209.114213975
 20
63.4098909954
 10
209.3504552101
 20
64.2595401602
 10
209.6741133263
 20
65.1123325747
 10
210.0782901128
 20
65.9500924493
 10
210.554371243
 20
66.7549643866
 10
211.0922098744
 20
67.5097939387
 10
211.6803429101
 20
68.1984932242
 10
212.3062353156
 20
68.8063838134
 10
212.9565472809
 20
69.320509574
 10
213.6174185356
 20
69.7299128078
 10
214.2747637562
 20
70.0258677958
 10
214.9145727706
 20
70.2020667712
 10
215.5232091605
 20
70.2547543587
 10
216.0877008978
 20
70.182807614
 10
216.1570576986
 20
70.1643909726
  0
ARC
  5
217
330
1F
100
AcDbEntity
  8
0
  6
Continuous
 62
     7
370
     0
100
AcDbCircle
 10
212.3910821525
 20
61.5425542136
 30
0.0
 40
3.47788758390574
100
AcDbArc
 50
175.8869457832
 51
225.0942205936
  0
LWPOLYLINE
  5
218
330
1F
100
AcDbEntity
  8
0
  6
Continuous
 62
     7
370
     0
100
AcDbPolyline
 90
        3
 70
   128
 43
0.0
 10
233.0859178158
 20
38.6584928871
 10
232.9662812412
 20
38.8920527975
 10
232.6217211799
 20
39.7477631714
  0
ARC
  5
219
330
1F
100
AcDbEntity
  8
0
  6
Continuous
 62
     7
370
     0
100
AcDbCircle
 10
238.2336536272
 20
41.6627262155
 30
0.0
 40
6.286417824774178
100
AcDbArc
 50
197.2022721654
 51
213.8013536742
  0
LINE
  5
21A
330
1F
100
AcDbEntity
  8
0
  6
Continuous
 62
     7
370
     0
100
AcDbLine
 10
233.0368250721
 20
39.976633844
 30
0.0
 11
228.8118620545
 21
42.4156530781
 31
0.0
  0
ARC
  5
21B
330
1F
100
AcDbEntity
  8
0
  6
Continuous
 62
     7
370
     0
100
AcDbCircle
 10
233.4833706874
 20
42.7168042494
 30
0.0
 40
7.092824880084095
100
AcDbArc
 50
195.3118335283
 51
220.46774401
  0
OLE2FRAME
  5
21C
330
1F
100
AcDbEntity
  8
0
100
AcDbOle2Frame
 70
     2
  3
Paintbrush-Bild
 10
13.8511154363
 20
38.264191557
 30
0.0
 11
51.6290888628
 21
31.9806341108
 31
0.0
 71
     2
 72
     0
 73
     1
 90
    12928
310
80552BED0767C5B32B40DDAF6807D121434000000000000000006FFBDDFB85D0
310
4940DDAF6807D121434000000000000000006FFBDDFB85D04940416F4BD60AFB
310
3F4000000000000000002BED0767C5B32B40416F4BD60AFB3F40000000000000
310
0000000000000100000000010000010000000100000000000100000000320000
310
D0CF11E0A1B11AE1000000000000000000000000000000003E000300FEFF0900
310
0600000000000000000000000100000001000000000000000010000002000000
310
01000000FEFFFFFF0000000000000000FFFFFFFFFFFFFFFFFFFFFFFFFFFFFFFF
310
FFFFFFFFFFFFFFFFFFFFFFFFFFFFFFFFFFFFFFFFFFFFFFFFFFFFFFFFFFFFFFFF
310
FFFFFFFFFFFFFFFFFFFFFFFFFFFFFFFFFFFFFFFFFFFFFFFFFFFFFFFFFFFFFFFF
310
FFFFFFFFFFFFFFFFFFFFFFFFFFFFFFFFFFFFFFFFFFFFFFFFFFFFFFFFFFFFFFFF
310
FFFFFFFFFFFFFFFFFFFFFFFFFFFFFFFFFFFFFFFFFFFFFFFFFFFFFFFFFFFFFFFF
310
FFFFFFFFFFFFFFFFFFFFFFFFFFFFFFFFFFFFFFFFFFFFFFFFFFFFFFFFFFFFFFFF
310
FFFFFFFFFFFFFFFFFFFFFFFFFFFFFFFFFFFFFFFFFFFFFFFFFFFFFFFFFFFFFFFF
310
FFFFFFFFFFFFFFFFFFFFFFFFFFFFFFFFFFFFFFFFFFFFFFFFFFFFFFFFFFFFFFFF
310
FFFFFFFFFFFFFFFFFFFFFFFFFFFFFFFFFFFFFFFFFFFFFFFFFFFFFFFFFFFFFFFF
310
FFFFFFFFFFFFFFFFFFFFFFFFFFFFFFFFFFFFFFFFFFFFFFFFFFFFFFFFFFFFFFFF
310
FFFFFFFFFFFFFFFFFFFFFFFFFFFFFFFFFFFFFFFFFFFFFFFFFFFFFFFFFFFFFFFF
310
FFFFFFFFFFFFFFFFFFFFFFFFFFFFFFFFFFFFFFFFFFFFFFFFFFFFFFFFFFFFFFFF
310
FFFFFFFFFFFFFFFFFFFFFFFFFFFFFFFFFFFFFFFFFFFFFFFFFFFFFFFFFFFFFFFF
310
FFFFFFFFFFFFFFFFFFFFFFFFFFFFFFFFFFFFFFFFFFFFFFFFFFFFFFFFFFFFFFFF
310
FDFFFFFFFEFFFFFFFEFFFFFFFEFFFFFF05000000060000000700000008000000
310
090000000A0000000B0000000C0000000D0000000E0000000F00000010000000
310
11000000120000001300000014000000150000001600000017000000FEFFFFFF
310
FFFFFFFFFFFFFFFFFFFFFFFFFFFFFFFFFFFFFFFFFFFFFFFFFFFFFFFFFFFFFFFF
310
FFFFFFFFFFFFFFFFFFFFFFFFFFFFFFFFFFFFFFFFFFFFFFFFFFFFFFFFFFFFFFFF
310
FFFFFFFFFFFFFFFFFFFFFFFFFFFFFFFFFFFFFFFFFFFFFFFFFFFFFFFFFFFFFFFF
310
FFFFFFFFFFFFFFFFFFFFFFFFFFFFFFFFFFFFFFFFFFFFFFFFFFFFFFFFFFFFFFFF
310
FFFFFFFFFFFFFFFFFFFFFFFFFFFFFFFFFFFFFFFFFFFFFFFFFFFFFFFFFFFFFFFF
310
FFFFFFFFFFFFFFFFFFFFFFFFFFFFFFFFFFFFFFFFFFFFFFFFFFFFFFFFFFFFFFFF
310
FFFFFFFFFFFFFFFFFFFFFFFFFFFFFFFFFFFFFFFFFFFFFFFFFFFFFFFFFFFFFFFF
310
FFFFFFFFFFFFFFFFFFFFFFFFFFFFFFFFFFFFFFFFFFFFFFFFFFFFFFFFFFFFFFFF
310
FFFFFFFFFFFFFFFFFFFFFFFFFFFFFFFFFFFFFFFFFFFFFFFFFFFFFFFFFFFFFFFF
310
FFFFFFFFFFFFFFFFFFFFFFFFFFFFFFFFFFFFFFFFFFFFFFFFFFFFFFFFFFFFFFFF
310
FFFFFFFFFFFFFFFFFFFFFFFFFFFFFFFFFFFFFFFFFFFFFFFFFFFFFFFFFFFFFFFF
310
FFFFFFFFFFFFFFFFFFFFFFFFFFFFFFFFFFFFFFFFFFFFFFFFFFFFFFFFFFFFFFFF
310
FFFFFFFFFFFFFFFFFFFFFFFFFFFFFFFFFFFFFFFFFFFFFFFFFFFFFFFFFFFFFFFF
310
52006F006F007400200045006E00740072007900000000000000000000000000
310
0000000000000000000000000000000000000000000000000000000000000000
310
16000500FFFFFFFFFFFFFFFF020000000A00030000000000C000000000000046
310
000000000000000000000000E0ED926E5025D20103000000C000000000000000
310
01004F006C006500000000000000000000000000000000000000000000000000
310
0000000000000000000000000000000000000000000000000000000000000000
310
0A000200FFFFFFFFFFFFFFFFFFFFFFFF00000000000000000000000000000000
310
0000000000000000000000000000000000000000000000001400000000000000
310
010043006F006D0070004F0062006A0000000000000000000000000000000000
310
0000000000000000000000000000000000000000000000000000000000000000
310
120002010100000003000000FFFFFFFF00000000000000000000000000000000
310
0000000000000000000000000000000000000000010000004D00000000000000
310
01004F006C006500310030004E00610074006900760065000000000000000000
310
0000000000000000000000000000000000000000000000000000000000000000
310
1A000200FFFFFFFFFFFFFFFFFFFFFFFF00000000000000000000000000000000
310
0000000000000000000000000000000000000000040000002426000000000000
310
FEFFFFFF02000000FEFFFFFFFFFFFFFFFFFFFFFFFFFFFFFFFFFFFFFFFFFFFFFF
310
FFFFFFFFFFFFFFFFFFFFFFFFFFFFFFFFFFFFFFFFFFFFFFFFFFFFFFFFFFFFFFFF
310
FFFFFFFFFFFFFFFFFFFFFFFFFFFFFFFFFFFFFFFFFFFFFFFFFFFFFFFFFFFFFFFF
310
FFFFFFFFFFFFFFFFFFFFFFFFFFFFFFFFFFFFFFFFFFFFFFFFFFFFFFFFFFFFFFFF
310
FFFFFFFFFFFFFFFFFFFFFFFFFFFFFFFFFFFFFFFFFFFFFFFFFFFFFFFFFFFFFFFF
310
FFFFFFFFFFFFFFFFFFFFFFFFFFFFFFFFFFFFFFFFFFFFFFFFFFFFFFFFFFFFFFFF
310
FFFFFFFFFFFFFFFFFFFFFFFFFFFFFFFFFFFFFFFFFFFFFFFFFFFFFFFFFFFFFFFF
310
FFFFFFFFFFFFFFFFFFFFFFFFFFFFFFFFFFFFFFFFFFFFFFFFFFFFFFFFFFFFFFFF
310
FFFFFFFFFFFFFFFFFFFFFFFFFFFFFFFFFFFFFFFFFFFFFFFFFFFFFFFFFFFFFFFF
310
FFFFFFFFFFFFFFFFFFFFFFFFFFFFFFFFFFFFFFFFFFFFFFFFFFFFFFFFFFFFFFFF
310
FFFFFFFFFFFFFFFFFFFFFFFFFFFFFFFFFFFFFFFFFFFFFFFFFFFFFFFFFFFFFFFF
310
FFFFFFFFFFFFFFFFFFFFFFFFFFFFFFFFFFFFFFFFFFFFFFFFFFFFFFFFFFFFFFFF
310
FFFFFFFFFFFFFFFFFFFFFFFFFFFFFFFFFFFFFFFFFFFFFFFFFFFFFFFFFFFFFFFF
310
FFFFFFFFFFFFFFFFFFFFFFFFFFFFFFFFFFFFFFFFFFFFFFFFFFFFFFFFFFFFFFFF
310
FFFFFFFFFFFFFFFFFFFFFFFFFFFFFFFFFFFFFFFFFFFFFFFFFFFFFFFFFFFFFFFF
310
FFFFFFFFFFFFFFFFFFFFFFFFFFFFFFFFFFFFFFFFFFFFFFFFFFFFFFFFFFFFFFFF
310
0100000200000000000000000000000000000000000000000000000000000000
310
0000000000000000000000000000000000000000000000000000000000000000
310
0100FEFF030A0000FFFFFFFF0A00030000000000C00000000000004607000000
310
5042727573680007000000504272757368000700000050427275736800F439B2
310
7100000000000000000000000000000000000000000000000000000000000000
310
0000000000000000000000000000000000000000000000000000000000000000
310
0000000000000000000000000000000000000000000000000000000000000000
310
0000000000000000000000000000000000000000000000000000000000000000
310
0000000000000000000000000000000000000000000000000000000000000000
310
0000000000000000000000000000000000000000000000000000000000000000
310
0000000000000000000000000000000000000000000000000000000000000000
310
0000000000000000000000000000000000000000000000000000000000000000
310
0000000000000000000000000000000000000000000000000000000000000000
310
0000000000000000000000000000000000000000000000000000000000000000
310
0000000000000000000000000000000000000000000000000000000000000000
310
0000000000000000000000000000000000000000000000000000000000000000
310
20260000424D0E260000000000003E00000028000000B40200006E0000000100
310
01000000000000000000130B0000130B00000200000002000000000000FFFFFF
310
FFFFFFFFFFFFFFFFFFFFFFFFFFFFFFFFFFFFFFFFFFFFFFFFFFFFFFFFFFFFFFFF
310
FFFFFFFFFFFFFFFFFFFFFFFFFFFFFFFFFFFFFFFFFFFFFFFFFFFFFFFFFFFFFFFF
310
FFFFFFFFFFFFFFFFFFFFFFFFFFFFFFFFFFFFFFFFFFFFFFFFF000FFFFFFFFFFFF
310
FFFFFFFFFFFFFFFFFFFFFFFFFFFFFFFFFFFFFFFFFFFFFFFFFFFFFFFFFFFFFFFF
310
FFFFFFFFFFFFFFFFFFFFFFFFFFFFFFFFFFFFFFFFFFFFFFFFFFFFFFFFFFFFFFFF
310
FFFFFFFFFFFFFFFFFFFFFFFFFFFFFFFFF000FFFFFFFFFFFFFFFFFFFFFFFFFFFF
310
FFFFFFFFFFFFFFFFFFFFFFFFFFFFFFFFFFFFFFFFFFFFFFFFFFFFFFFFFFFFFFFF
310
FFFFFFFFFFFFFFFFFFFFFFFFFFFFFFFFFFFFFFFFFFFFFFFFFFFFFFFFFFFFFFFF
310
FFFFFFFFFFFFFFFFF000FFFFFFFFFFFFFFFFFFFFFFFFFFFFFFFFFFFFFFFFFFFF
310
FFFFFFFFFFFFFFFFFFFFFFFFFFFFFFFFFFFFFFFFFFFFFFFFFFFFFFFFFFFFFFFF
310
FFFFFFFFFFFFFFFFFFFFFFFFFFFFFFFFFFFFFFFFFFFFFFFFFFFFFFFFFFFFFFFF
310
F000FFFFFFFFFFFFFFFFFFFFFFFFFFFFFFFFFFFFFFFFFFFFFFFFFFFFFFFFFFFF
310
FFFFFFFFFFFFFFFFFFFFFFFFFFFFFFFFFFFFFFFFFFFFFFFFFFFFFFFFFFFFFFFF
310
FFFFFFFFFFFFFFFFFFFFFFFFFFFFFFFFFFFFFFFFFFFFFFFFF000FFFFFFFFFFFF
310
FFFFFFFFFFFFFFFFFFFFFFFFFFFFFFFFFFFFFFFFFFFFFFFFFFFFFFFFFFFFFFFF
310
FFFFFFFFFFFFFFFFFFFFFFFFFFFFFFFFFFFFFFFFFFFFFFFFFFFFFFFFFFFFFFFF
310
FFFFFFFFFFFFFFFFFFFFFFFFFFFFFFFFF000FFFFFFFFFFFFFFFFFFFFFFFFFFFF
310
FFFFFFFFFFFFFFFFFFFFFFFFFFFFFFFFFFFFFFFFFFFFFFFFFFFFFFFFFFFFFFFF
310
FFFFFFFFFFFFFFFFFFFFFFFFFFFFFFFFFFFFFFFFFFFFFFFFFFFFFFFFFFFFFFFF
310
FFFFFFFFFFFFFFFFF000FFFFFFFFFFFFFFFFFFFFFFFFFFFFFFFFFFFFFFFFFFFF
310
FFFFFFFFFFFFFFFFFFFFFFFFFFFFFFFFFFFFFFFFFFFFFFFFFFFFFFFFFFFFFFFF
310
FFFFFFFFFFFFFFFFFFFFFFFFFFFFFFFFFFFFFFFFFFFFFFFFFFFFFFFFFFFFFFFF
310
F000FFFFFFFFFFFFFFFFFFFFFFFFFFFFFFFFFFFFFFFFFFFFFFFFFFFFFFFFFFFF
310
FFFFFFFFFFFFFFFFFFFFFFFFFFFFFFFFFFFFFFFFFFFFFFFFFFFFFFFFFFFFFFFF
310
FFFFFFFFFFFFFFFFFFFFFFFFFFFFFFFFFFFFFFFFFFFFFFFFF000FFFFFFFFFFFF
310
FFFFFFFFFFFFFFFFFFFFFFFFFFFFFFFFFFFFFFFFFFFFFFFFFFFFFFFFFFFFFFFF
310
FFFFFFFFFFFFFFFFFFFFFFFFFFFFFFFFFFFFFFFFFFFFFFFFFFFFFFFFFFFFFFFF
310
FFFFFFFFFFFFFFFFFFFFFFFFFFFFFFFFF000FFFFFFFFFFFFFFFFFFFFFFFFFFFF
310
FFFFFFFFFFFFFFFFFFFFFFFFFFFFFFFFFFFFFFFFFFFFFFFFFFFFFFFFFFFFFFFF
310
FFFFFFFFFFFFFFFFFFFFFFFFFFFFFFFFFFFFFFFFFFFFFFFFFFFFFFFFFFFFFFFF
310
FFFFFFFFFFFFFFFFF000FFFFFFFFFFFFFFFFFFFFFFFFFFFFFFFFFFFFFFFFFFFF
310
FFFFFFFFFFFFFFFFFFFFFFFFFFFFFFFFFFFFFFFFFFFFFFFFFFFFFFFFFFFFFFFF
310
FFFFFFFFFFFFFFFFFFFFFFFFFFFFFFFFFFFFFFFFFFFFFFFFFFFFFFFFFFFFFFFF
310
F000FFFFFFFFFFFFFFFFFFFFFFFFFFFFFFFFFFFFFFFFFFFFFFFFFFFFFFFFFFFF
310
FFFFFFFFFFFFFFFFFFFFFFFFFFFFFFFFFFFFFFFFFFFFFFFFFFFFFFFFFFFFFFFF
310
FFFFFFFFFFFFFFFFFFFFFFFFFFFFFFFFFFFFFFFFFFFFFFFFF000FFFFFFFFFFFF
310
FFFFFFFFFFFFFFFFFFFFFFFFFFFFFFFFFFFFFFFFFFFFFFFFFFFFFFFFFFFFFFFF
310
FFFFFFFFFFFFFFFFFFFFFFFFFFFFFFFFFFFFFFFFFFFFFFFFFFFFFFFFFFFFFFFF
310
FFFFFFFFFFFFFFFFFFFFFFFFFFFFFFFFF000FFFFFFFFFFFFFFFFFFFFFFFFFFFF
310
FFFFFFFFFFFFFFFFFFFFFFFFFFFFFFFFFFFFFFFFFFFFFFFFFFFFFFFFFFFFFFFF
310
FFFFFFFFFFFFFFFFFFFFFFFFFFFFFFFFFFFFFFFFFFFFFFFFFFFFFFFFFFFFFFFF
310
FFFFFFFFFFFFFFFFF000FFFFFFFFFFFFFFFFFFFFFFFFFFFFFFFFFFFFFFFFFFFF
310
FFFFFFFFFFFFFFFFFFFFFFFFFFFFFFFFFFFFFFFFFFFFFFFFFFFFFFFFFFFFFFFF
310
FFFFFFFFFFFFFFFFFFFFFFFFFFFFFFFFFFFFFFFFFFFFFFFFFFFFFFFFFFFFFFFF
310
F000FFFFFFFFFFFFFFFFFFFFFFFFFFFFFFFFFFFFFFFFFFFFFFFFFFFFFFFFFFFF
310
FFFFFFFFFFFFFFFFFFFFFFFFFFFFFFFFFFFFFFFFFFFFFFFFFFFFFFFFFFFFFFFF
310
FFFFFFFFFFFFFFFFFFFFFFFFFFFFFFFFFFFFFFFFFFFFFFFFF000FFFFFFFFFFFF
310
FFFFFFFFFFFFFFFFFFFFFFFFFFFFFFFFFFFFFFFFFFFFFFFFFFFFFFFFFFFFFFFF
310
FFFFFFFFFFFFFFFFFFFFFFFFFFFFFFFFFFFFFFFFFFFFFFFFFFFFFFFFFFFFFFFF
310
FFFFFFFFFFFFFFFFFFFFFFFFFFFFFFFFF000FFFFFFFFFFFFFFFFFFFFFFFFFFFF
310
FFFFFFFFFFFFFFFFFFFFFFFFFFFFFFFFFFFFFFFFFFFFFFFFFFFFFFFFFFFFFFFF
310
FFFFFFFFFFFFFFFFFFFFFFFFFFFFFFFFFFFFFFFFFFFFFFFFFFFFFFFFFFFFFFFF
310
FFFFFFFFFFFFFFFFF000FFFFF80003FFFFFFFFFFFFFFFFFFFFFFFFFFFFFFFFFF
310
FFFFF00007FFFFFFFFFF00007FFFFFF800000000000000007FFFFFFFFFFFFFFF
310
FFFFFFFC001FFFFFFFFFFFFFFC001FFFFFFFFFFFFFFFFFFFFFFFFFFE0007FFFF
310
F000FFFF8000007FFFFFFFF8000FFFFFC0007FFFFF80007FFFFF0000007FFFFF
310
FFF8000007FFFFF800000000000000007FFFFFF0001FFFFFFFFFFFC00001FFFF
310
FFFFFFFFC00001FFFFFFFF000000000003FFFFE000007FFFF000FFFE0000000F
310
FFFFFFF0000FFFFF80007FFFFF80007FFFFC0000001FFFFFFFC0000001FFFFF8
310
00000000000000007FFFFFF0001FFFFFFFFFFE0000003FFFFFFFFFFE0000003F
310
FFFFFF000000000003FFFF0000000FFFF000FFF800000003FFFFFFF00007FFFF
310
80007FFFFF80007FFFF000000007FFFFFF000000003FFFF80000000000000000
310
7FFFFFF0001FFFFFFFFFF80000000FFFFFFFFFF80000000FFFFFFF0000000000
310
03FFFC00000003FFF000FFE000000000FFFFFFF00007FFFF80003FFFFF80007F
310
FFC000000001FFFFFC000000001FFFF800000000000000007FFFFFF0001FFFFF
310
FFFFE000000003FFFFFFFFE000000003FFFFFF000000000003FFF000000000FF
310
F000FF80000000007FFFFFF00007FFFF80003FFFFF80007FFF8000000000FFFF
310
F80000000007FFF800000000000000007FFFFFF0001FFFFFFFFFC000000001FF
310
FFFFFFC000000001FFFFFF000000000003FFC0000000007FF000FF0000000000
310
3FFFFFE00007FFFF00003FFFFF80007FFE00000000003FFFF00000000003FFF8
310
00000000000000007FFFFFF0001FFFFFFFFF8000000000FFFFFFFF8000000000
310
FFFFFF000000000003FF80000000003FF000FE00000000001FFFFFE00003FFFF
310
00003FFFFF80007FFC00000000001FFFE00000000001FFF8000001FFFE000000
310
7FFFFFF0001FFFFFFFFE00000000003FFFFFFE00000000003FFFFF0000000000
310
03FF00000000001FF000FC00000000000FFFFFE00003FFFF00001FFFFF80007F
310
F800000000001FFFC00000000000FFF8000001FFFE0000007FFFFFF0001FFFFF
310
FFFC00000000001FFFFFFC00000000001FFFFF000000000003FE00000000000F
310
F000F8000000000007FFFFE00003FFFF00001FFFFF80007FF800000000000FFF
310
800000000000FFF8000001FFFE0000007FFFFFF0001FFFFFFFF800000000000F
310
FFFFF800000000000FFFFF000000000003FC000000000007F000F80000000000
310
03FFFFC00003FFFE00001FFFFF80007FF0000000000007FF0000000000007FF8
310
000001FFFE0000007FFFFFF0001FFFFFFFF0000000000007FFFFF00000000000
310
07FFFF000000000003F8000000000003F000F0000000000003FFFFC00001FFFE
310
00001FFFFF80007FE0000000000007FE0000000000003FF8000001FFFE000000
310
7FFFFFF0001FFFFFFFF0000000000007FFFFF0000000000007FFFF0000000000
310
03F800001F800003F000E00001FFF00001FFFFC00001FFFE00000FFFFF80007F
310
E00001FFE00003FE00001FFF00003FF8000001FFFE0000007FFFFFF0001FFFFF
310
FFE000003E000003FFFFE000003E000003FFFF000000000003F00001FFF80001
310
F000E00007FFFC0001FFFFC00001FFFE00000FFFFF80007FC0000FFFFC0003FC
310
0000FFFFC0001FF8000001FFFE0000007FFFFFF0001FFFFFFFC00003FFE00001
310
FFFFC00003FFE00001FFFF0001FFFFFFFFF00007FFFE0001F000E0000FFFFF00
310
00FFFF800001FFFC00000FFFFF80007FC0001FFFFE0001FC0001FFFFE0001FF8
310
000001FFFE0000007FFFFFF0001FFFFFFF80000FFFF80000FFFF80000FFFF800
310
00FFFF0003FFFFFFFFE0000FFFFF8000F000C0003FFFFF8000FFFF800000FFFC
310
000007FFFF80007F80003FFFFF0001FC0003FFFFF0001FF8000001FFFE000000
310
7FFFFFF0001FFFFFFF80003FFFFE0000FFFF80003FFFFE0000FFFF0003FFFFFF
310
FFE0003FFFFF8000F000C0003FFFFF8000FFFF800000FFFC000007FFFF80007F
310
80007FFFFF8001F80007FFFFF8000FF8000001FFFE0000007FFFFFF0001FFFFF
310
FF00007FFFFF00007FFF00007FFFFF00007FFF0003FFFFFFFFE0003FFFFFC000
310
F000C0007FFFFFC000FFFF000000FFFC000007FFFF80007F8000FFFFFF8000F8
310
000FFFFFF8000FF8000001FFFE0000007FFFFFF0001FFFFFFF0000FFFFFF8000
310
7FFF0000FFFFFF80007FFF0003FFFFFFFFC0007FFFFFC00070008000FFFFFFC0
310
00FFFF000000FFF8000007FFFF80007F8000FFFFFF8000F8000FFFFFF8000FF8
310
000001FFFE0000007FFFFFF0001FFFFFFE0001FFFFFFC0003FFE0001FFFFFFC0
310
003FFF0003FFFFFFFFC0007FFFFFE00070008000FFFFFFC0007FFF0000007FF8
310
000003FFFF80007F0001FFFFFF8000F8000FFFFFF8000FF8000001FFFE000000
310
7FFFFFF0001FFFFFFE0001FFFFFFC0003FFE0001FFFFFFC0003FFF0003FFFFFF
310
FFC000FFFFFFE00070008000FFFFFFC0007FFF0000007FF8000003FFFF80007F
310
0001FFFFFF8000F8001FFFFFF8000FF8000001FFFE0000007FFFFFF0001FFFFF
310
FE0003FFFFFFE0003FFE0003FFFFFFE0003FFF0003FFFFFFFFC000FFFFFFE000
310
70008000FFFFFFC0007FFE0000007FF8000003FFFF80007F0001FFFFFF8000F0
310
001FFFFFF8000FF8000001FFFE0000007FFFFFF0001FFFFFFC0003FFFFFFE000
310
1FFC0003FFFFFFE0001FFF0003FFFFFFFFC000FFFFFFC00070008000FFFFFF80
310
007FFE0000007FF0000003FFFF80007F0001FFFFFF0000F0001FFFFFF8000FF8
310
000001FFFE0000007FFFFFF0001FFFFFFC0007FFFFFFF0001FFC0007FFFFFFF0
310
001FFF0003FFFFFFFFC000FFFFFFC00070008001FFFFFF0000FFFE0000003FF0
310
000001FFFF80007F0001FFFFFF0000F8001FFFFFF0000FF8000001FFFE000000
310
7FFFFFF0001FFFFFFC0007FFFFFFF0001FFC0007FFFFFFF0001FFF0003FFFFFF
310
FFC001FFFFFF80007000FFFFFFFFFE0000FFFE0008003FF0008001FFFF80007F
310
FFFFFFFFFC0000FFFFFFFFFFE0000FF8000001FFFE0000007FFFFFF0001FFFFF
310
F8000FFFFFFFF8000FF8000FFFFFFFF8000FFF0003FFFFFFFFFFFFFFFFFF0000
310
7000FFFFFFFFFC0000FFFC0008003FF0008001FFFF80007FFFFFFFFFF80001FF
310
FFFFFFFF80000FF8000001FFFE0000007FFFFFF0001FFFFFF8000FFFFFFFF800
310
0FF8000FFFFFFFF8000FFF0003FFFFFFFFFFFFFFFFFE0000F000FFFFFFFFE000
310
00FFFC000C003FE000C001FFFF80007FFFFFFFFFC00001FFFFFFFFFE00001FF8
310
000001FFFE0000007FFFFFF0001FFFFFF8000FFFFFFFF8000FF8000FFFFFFFF8
310
000FFF0003FFFFFFFFFFFFFFFFF00000F000FFFFFFFE000001FFFC000C001FE0
310
00C000FFFF80007FFFFFFFFE000001FFFFFFFFE000001FF80FFFFFFFFFFFFFC0
310
7FFFFFF0001FFFFFF8000FFFFFFFF8000FF8000FFFFFFFF8000FFF0003FFFFFF
310
FFFFFFFFFF800000F000FFFFFFC0000001FFFC001C001FE001C000FFFF80007F
310
FFFFFF80000003FFFFFFF80000001FF80FFFFFFFFFFFFFC07FFFFFF0001FFFFF
310
F8001FFFFFFFFC000FF8001FFFFFFFFC000FFF0003FFFFFFFFFFFFFFF0000001
310
F000FFFFF800000001FFF8001C001FE001C000FFFF80007FFFFFF800000003FF
310
FFFF800000003FF80FFFFFFFFFFFFFC07FFFFFF0001FFFFFF8001FFFFFFFFC00
310
0FF8001FFFFFFFFC000FFF0003FFFFFFFFFFFFFE00000001F000FFFFC0000000
310
03FFF8001E001FC001E000FFFF80007FFFFF8000000007FFFFFC000000003FF8
310
0FFFFFFFFFFFFFC07FFFFFF0001FFFFFF8001FFFFFFFFC000FF8001FFFFFFFFC
310
000FFF0003FFFFFFFFFFFFE000000003F000FFFE0000000007FFF8001E000FC0
310
01E0007FFF80007FFFFE0000000007FFFFE0000000007FF80FFFFFFFFFFFFFC0
310
7FFFFFF0001FFFFFF0001FFFFFFFFC0007F0001FFFFFFFFC0007FF0003FFFFFF
310
FFFFFF0000000003F000FFF80000000007FFF8001E000FC003E0007FFF80007F
310
FFF0000000000FFFFF8000000000FFF80FFFFFFFFFFFFFC07FFFFFF0001FFFFF
310
F0001FFFFFFFFC0007F0001FFFFFFFFC0007FF0003FFFFFFFFFFFC0000000007
310
F000FFE0000000000FFFF0003E000FC003E0007FFF80007FFFC0000000001FFF
310
FE0000000001FFF80FFFFFFFFFFFFFC07FFFFFF0001FFFFFF0001FFFFFFFFC00
310
07F0001FFFFFFFFC0007FF0003FFFFFFFFFFF0000000000FF000FFC000000000
310
1FFFF0003F000F8003F0003FFF80007FFF80000000003FFFF80000000003FFF8
310
0FFFFFFFFFFFFFC07FFFFFF0001FFFFFF0001FFFFFFFFC0007F0001FFFFFFFFC
310
0007FF0003FFFFFFFFFFE0000000001FF000FF00000000007FFFF0003F000780
310
03F0003FFF80007FFF00000000007FFFF00000000007FFF80FFFFFFFFFFFFFC0
310
7FFFFFF0001FFFFFF0001FFFFFFFFC0007F0001FFFFFFFFC0007FF0003FFFFFF
310
FFFF80000000007FF000FE0000000000FFFFE0003F00078007F0003FFF80007F
310
FE0000000001FFFFE0000000001FFFF80FFFFFFFFFFFFFC07FFFFFF0001FFFFF
310
F0001FFFFFFFFC0007F0001FFFFFFFFC0007FF0003FFFFFFFFFF0000000000FF
310
F000FC0000000003FFFFE0007F00078007F0003FFF80007FFC0000000007FFFF
310
C0000000007FFFF80FFFFFFFFFFFFFC07FFFFFF0001FFFFFF8001FFFFFFFFC00
310
0FF8001FFFFFFFFC000FFF0003FFFFFFFFFE0000000003FFF000FC000000000F
310
FFFFE0007F80070007F8001FFF80007FF8000000001FFFFF8000000001FFFFF8
310
0FFFFFFFFFFFFFC07FFFFFF0001FFFFFF8001FFFFFFFFC000FF8001FFFFFFFFC
310
000FFF0003FFFFFFFFFC000000000FFFF000F8000000007FFFFFE0007F800700
310
07F8001FFF80007FF000000000FFFFFF800000000FFFFFF80FFFFFFFFFFFFFC0
310
7FFFFFF0001FFFFFF8000FFFFFFFF8000FF8000FFFFFFFF8000FFF0003FFFFFF
310
FFFC000000007FFFF000F800000007FFFFFFC0007F8003000FF8001FFF80007F
310
F000000007FFFFFF000000007FFFFFF80FFFFFFFFFFFFFC07FFFFFF0001FFFFF
310
F8000FFFFFFFF8000FF8000FFFFFFFF8000FFF0003FFFFFFFFF80000000FFFFF
310
F000F0000000FFFFFFFFC000FF8003000FF8001FFF80007FE0000000FFFFFFFF
310
0000000FFFFFFFF8000001FFFE0000007FFFFFF0001FFFFFF8000FFFFFFFF800
310
0FF8000FFFFFFFF8000FFF0003FFFFFFFFF8000000FFFFFFF000F000000FFFFF
310
FFFFC000FFC002000FF8000FFF80007FE000001FFFFFFFFE000001FFFFFFFFF8
310
000001FFFE0000007FFFFFF0001FFFFFF8000FFFFFFFF8000FF8000FFFFFFFF8
310
000FFF0003FFFFFFFFF000001FFFFFFFF000E00000FFFFFFFFFFC000FFC00200
310
0FFC000FFF80007FE00001FFFFFFFFFE00001FFFFFFFFFF8000001FFFE000000
310
7FFFFFF0001FFFFFFC000FFFFFFFF8001FFC000FFFFFFFF8001FFF0003FFFFFF
310
FFF00001FFFFFFFFF000E00007FFFFFFFFFF8000FFC000001FFC000FFF80007F
310
C0000FFFFFFFFFFE0000FFFFFFFFFFF8000001FFFE0000007FFFFFF0001FFFFF
310
FC0007FFFFFFF0001FFC0007FFFFFFF0001FFF0003FFFFFFFFF00007FFFFFFFF
310
F000E0001FFFFFFFFFFF8000FFC000001FFC000FFF80007FC0003FFFFFFFFFFE
310
0001FFFFFFFFFFF8000001FFFE0000007FFFFFF0001FFFFFFC0007FFFFFFF000
310
1FFC0007FFFFFFF0001FFF0003FFFFFFFFF0001FFFFFFFFFF000E0003FFFFF00
310
03FF8001FFE000001FFC0007FF80007FC0007FFFFF0007FC0003FFFFF0003FF8
310
000001FFFE0000007FFFFFF0001FFFFFFC0003FFFFFFE0001FFC0003FFFFFFE0
310
001FFF0003FFFFFFFFF0003FFFFFFFFFF000E0003FFFFF0001FF8001FFE00000
310
1FFE0007FF80007FC0007FFFFE0003FC0007FFFFE0003FF8000001FFFE000000
310
7FFFFFF0001FFFFFFE0003FFFFFFE0003FFE0003FFFFFFE0003FFF0003FFFFFF
310
FFF0003FFFFF8001F000E0003FFFFF0001FF0001FFE000001FFE0007FF80007F
310
C0007FFFFE0003FC0007FFFFE0003FF8000001FFFE0000007FFFFFF0001FFFFF
310
FE0001FFFFFFC0003FFE0001FFFFFFC0003FFF0003FFFFFFFFF0003FFFFF0001
310
F000E0003FFFFF0003FF0001FFE000003FFE0007FF80007FC0007FFFFE0003FC
310
0007FFFFE0003FF8000001FFFE0000007FFFFFF0001FFFFFFF0001FFFFFFC000
310
7FFF0001FFFFFFC0007FFF0003FFFFFFFFF0003FFFFF0001F000E0003FFFFE00
310
03FF0003FFF000003FFE0003FF80007FC0007FFFFC0003FE0007FFFFE0003FF8
310
000001FFFE0000007FFFFFF0001FFFFFFF0000FFFFFF80007FFF0000FFFFFF80
310
007FFF0003FFFFFFFFF0003FFFFF0001F000E0003FFFFE0003FF0003FFF00000
310
3FFF0003FF80007FC0007FFFFC0007FE0007FFFFC0003FF8000001FFFE000000
310
7FFFFFF0001FFFFFFF80007FFFFF0000FFFF80007FFFFF0000FFFF0003FFFFFF
310
FFF0003FFFFF0003F000E0003FFFFC0003FE0003FFF000003FFF0003FF80007F
310
E0003FFFF80007FE0003FFFFC0007FF8000001FFFE0000007FFFFFF0001FFFFF
310
FF80003FFFFE0000FFFF80003FFFFE0000FFFF0003FFFFFFFFF0001FFFFE0003
310
F000F0001FFFF80003FE0003FFF000007FFF0001FF80007FE0003FFFF00007FE
310
0001FFFF80007FF8000001FFFE0000007FFFFFF0001FFFFFFFC0000FFFF80001
310
FFFFC0000FFFF80001FFFF0003FFFFFFFFF0001FFFFC0003F000F0000FFFF000
310
07FE0007FFF800007FFF0001FF80007FE0001FFFE00007FF0000FFFE00007FF8
310
000001FFFE0000007FFFFFF0001FFFFFFFC00003FFE00001FFFFC00003FFE000
310
01FFFF0003FFFFFFFFF8000FFFF80003F000F00003FFC00007FC0007FFF80000
310
7FFF8001FF80007FF00007FF80000FFF00007FF80000FFF8000001FFFE000000
310
7F80000000000001FFE000003E000003FFFFE000003E000003FFFF0003FFFFFF
310
FFF80003FFE00007F000F800000000000FFC0007FFF800007FFF8001FF80007F
310
F000000000000FFF000000000000FFF8000001FFFE0000007F80000000000001
310
FFF0000000000007FFFFF0000000000007FFFF0003FFFFFFFFFC00007E000007
310
F000F800000000000FFC0007FFF80000FFFF8000FF80007FF800000000001FFF
310
800000000001FFF8000001FFFE0000007F80000000000001FFF800000000000F
310
FFFFF800000000000FFFFF0003FFFFFFFFFC00000000000FF000FC0000000000
310
1FFC0007FFFC0000FFFF8000FF80007FF800000000003FFFC00000000001FFF8
310
000001FFFE0000007F80000000000001FFF800000000000FFFFFF80000000000
310
0FFFFF0003FFFFFFFFFE00000000001FF000FE00000000003FF8000FFFFC0000
310
FFFF8000FF80007FFC00000000003FFFC00000000003FFF8000001FFFE000000
310
7F80000000000001FFFC00000000001FFFFFFC00000000001FFFFF0003FFFFFF
310
FFFF00000000001FF000FF00000000003FF8000FFFFC0000FFFFC000FF80007F
310
FE00000000007FFFE00000000007FFF8000001FFFE0000007F80000000000001
310
FFFE00000000003FFFFFFE00000000003FFFFF0003FFFFFFFFFF80000000003F
310
F000FF80000000007FF8000FFFFC0001FFFFC0007F80007FFF0000000000FFFF
310
F0000000000FFFF800000000000000007F80000000000001FFFF8000000000FF
310
FFFFFF8000000000FFFFFF0003FFFFFFFFFFC0000000007FF000FFC000000000
310
FFF8000FFFFE0001FFFFC0007F80007FFF8000000001FFFFF8000000001FFFF8
310
00000000000000007F80000000000001FFFFC000000001FFFFFFFFC000000001
310
FFFFFF0003FFFFFFFFFFE000000000FFF000FFE000000003FFF0001FFFFE0001
310
FFFFC0007F80007FFFC000000007FFFFFE000000003FFFF80000000000000000
310
7F80000000000001FFFFE000000003FFFFFFFFE000000003FFFFFF0003FFFFFF
310
FFFFF000000003FFF000FFF80000000FFFF0001FFFFE0001FFFFE0007F80007F
310
FFF00000000FFFFFFF00000000FFFFF800000000000000007F80000000000001
310
FFFFF80000000FFFFFFFFFF80000000FFFFFFF0003FFFFFFFFFFFC0000000FFF
310
F000FFFE0000003FFFF0001FFFFE0003FFFFE0003F80007FFFFC0000003FFFFF
310
FFC0000003FFFFF800000000000000007F80000000000001FFFFFE0000003FFF
310
FFFFFFFE0000003FFFFFFF0003FFFFFFFFFFFF0000003FFFF000FFFF800000FF
310
FFF0001FFFFF0003FFFFE0003F80007FFFFF000001FFFFFFFFF800001FFFFFF8
310
00000000000000007F80000000000001FFFFFFC00001FFFFFFFFFFFFC00001FF
310
FFFFFF0003FFFFFFFFFFFFC00000FFFFF000FFFFF8000FFFFFFFFFFFFFFFFFFF
310
FFFFFFFFFFFFFFFFFFFFF0001FFFFFFFFFFF0000FFFFFFF80000000000000000
310
7FFFFFFFFFFFFFFFFFFFFFFC001FFFFFFFFFFFFFFC001FFFFFFFFFFFFFFFFFFF
310
FFFFFFFC001FFFFFF000FFFFFFFFFFFFFFFFFFFFFFFFFFFFFFFFFFFFFFFFFFFF
310
FFFFFFFFFFFFFFFFFFFFFFFFFFFFFFFFFFFFFFFFFFFFFFFFFFFFFFFFFFFFFFFF
310
FFFFFFFFFFFFFFFFFFFFFFFFFFFFFFFFFFFFFFFFFFFFFFFFFFFFFFFFFFFFFFFF
310
F000FFFFFFFFFFFFFFFFFFFFFFFFFFFFFFFFFFFFFFFFFFFFFFFFFFFFFFFFFFFF
310
FFFFFFFFFFFFFFFFFFFFFFFFFFFFFFFFFFFFFFFFFFFFFFFFFFFFFFFFFFFFFFFF
310
FFFFFFFFFFFFFFFFFFFFFFFFFFFFFFFFFFFFFFFFFFFFFFFFF000FFFFFFFFFFFF
310
FFFFFFFFFFFFFFFFFFFFFFFFFFFFFFFFFFFFFFFFFFFFFFFFFFFFFFFFFFFFFFFF
310
FFFFFFFFFFFFFFFFFFFFFFFFFFFFFFFFFFFFFFFFFFFFFFFFFFFFFFFFFFFFFFFF
310
FFFFFFFFFFFFFFFFFFFFFFFFFFFFFFFFF000FFFFFFFFFFFFFFFFFFFFFFFFFFFF
310
FFFFFFFFFFFFFFFFFFFFFFFFFFFFFFFFFFFFFFFFFFFFFFFFFFFFFFFFFFFFFFFF
310
FFFFFFFFFFFFFFFFFFFFFFFFFFFFFFFFFFFFFFFFFFFFFFFFFFFFFFFFFFFFFFFF
310
FFFFFFFFFFFFFFFFF000FFFFFFFFFFFFFFFFFFFFFFFFFFFFFFFFFFFFFFFFFFFF
310
FFFFFFFFFFFFFFFFFFFFFFFFFFFFFFFFFFFFFFFFFFFFFFFFFFFFFFFFFFFFFFFF
310
FFFFFFFFFFFFFFFFFFFFFFFFFFFFFFFFFFFFFFFFFFFFFFFFFFFFFFFFFFFFFFFF
310
F000FFFFFFFFFFFFFFFFFFFFFFFFFFFFFFFFFFFFFFFFFFFFFFFFFFFFFFFFFFFF
310
FFFFFFFFFFFFFFFFFFFFFFFFFFFFFFFFFFFFFFFFFFFFFFFFFFFFFFFFFFFFFFFF
310
FFFFFFFFFFFFFFFFFFFFFFFFFFFFFFFFFFFFFFFFFFFFFFFFF000FFFFFFFFFFFF
310
FFFFFFFFFFFFFFFFFFFFFFFFFFFFFFFFFFFFFFFFFFFFFFFFFFFFFFFFFFFFFFFF
310
FFFFFFFFFFFFFFFFFFFFFFFFFFFFFFFFFFFFFFFFFFFFFFFFFFFFFFFFFFFFFFFF
310
FFFFFFFFFFFFFFFFFFFFFFFFFFFFFFFFF000FFFFFFFFFFFFFFFFFFFFFFFFFFFF
310
FFFFFFFFFFFFFFFFFFFFFFFFFFFFFFFFFFFFFFFFFFFFFFFFFFFFFFFFFFFFFFFF
310
FFFFFFFFFFFFFFFFFFFFFFFFFFFFFFFFFFFFFFFFFFFFFFFFFFFFFFFFFFFFFFFF
310
FFFFFFFFFFFFFFFFF000FFFFFFFFFFFFFFFFFFFFFFFFFFFFFFFFFFFFFFFFFFFF
310
FFFFFFFFFFFFFFFFFFFFFFFFFFFFFFFFFFFFFFFFFFFFFFFFFFFFFFFFFFFFFFFF
310
FFFFFFFFFFFFFFFFFFFFFFFFFFFFFFFFFFFFFFFFFFFFFFFFFFFFFFFFFFFFFFFF
310
F000FFFFFFFFFFFFFFFFFFFFFFFFFFFFFFFFFFFFFFFFFFFFFFFFFFFFFFFFFFFF
310
FFFFFFFFFFFFFFFFFFFFFFFFFFFFFFFFFFFFFFFFFFFFFFFFFFFFFFFFFFFFFFFF
310
FFFFFFFFFFFFFFFFFFFFFFFFFFFFFFFFFFFFFFFFFFFFFFFFF000FFFFFFFFFFFF
310
FFFFFFFFFFFFFFFFFFFFFFFFFFFFFFFFFFFFFFFFFFFFFFFFFFFFFFFFFFFFFFFF
310
FFFFFFFFFFFFFFFFFFFFFFFFFFFFFFFFFFFFFFFFFFFFFFFFFFFFFFFFFFFFFFFF
310
FFFFFFFFFFFFFFFFFFFFFFFFFFFFFFFFF000FFFFFFFFFFFFFFFFFFFFFFFFFFFF
310
FFFFFFFFFFFFFFFFFFFFFFFFFFFFFFFFFFFFFFFFFFFFFFFFFFFFFFFFFFFFFFFF
310
FFFFFFFFFFFFFFFFFFFFFFFFFFFFFFFFFFFFFFFFFFFFFFFFFFFFFFFFFFFFFFFF
310
FFFFFFFFFFFFFFFFF000FFFFFFFFFFFFFFFFFFFFFFFFFFFFFFFFFFFFFFFFFFFF
310
FFFFFFFFFFFFFFFFFFFFFFFFFFFFFFFFFFFFFFFFFFFFFFFFFFFFFFFFFFFFFFFF
310
FFFFFFFFFFFFFFFFFFFFFFFFFFFFFFFFFFFFFFFFFFFFFFFFFFFFFFFFFFFFFFFF
310
F000FFFFFFFFFFFFFFFFFFFFFFFFFFFFFFFFFFFFFFFFFFFFFFFFFFFFFFFFFFFF
310
FFFFFFFFFFFFFFFFFFFFFFFFFFFFFFFFFFFFFFFFFFFFFFFFFFFFFFFFFFFFFFFF
310
FFFFFFFFFFFFFFFFFFFFFFFFFFFFFFFFFFFFFFFFFFFFFFFFF000FFFFFFFFFFFF
310
FFFFFFFFFFFFFFFFFFFFFFFFFFFFFFFFFFFFFFFFFFFFFFFFFFFFFFFFFFFFFFFF
310
FFFFFFFFFFFFFFFFFFFFFFFFFFFFFFFFFFFFFFFFFFFFFFFFFFFFFFFFFFFFFFFF
310
FFFFFFFFFFFFFFFFFFFFFFFFFFFFFFFFF000FFFFFFFFFFFFFFFFFFFFFFFFFFFF
310
FFFFFFFFFFFFFFFFFFFFFFFFFFFFFFFFFFFFFFFFFFFFFFFFFFFFFFFFFFFFFFFF
310
FFFFFFFFFFFFFFFFFFFFFFFFFFFFFFFFFFFFFFFFFFFFFFFFFFFFFFFFFFFFFFFF
310
FFFFFFFFFFFFFFFFF000FFFFFFFFFFFFFFFFFFFFFFFFFFFFFFFFFFFFFFFFFFFF
310
FFFFFFFFFFFFFFFFFFFFFFFFFFFFFFFFFFFFFFFFFFFFFFFFFFFFFFFFFFFFFFFF
310
FFFFFFFFFFFFFFFFFFFFFFFFFFFFFFFFFFFFFFFFFFFFFFFFFFFFFFFFFFFFFFFF
310
F000FFFFFFFFFFFFFFFFFFFFFFFFFFFFFFFFFFFFFFFFFFFFFFFFFFFFFFFFFFFF
310
FFFFFFFFFFFFFFFFFFFFFFFFFFFFFFFFFFFFFFFFFFFFFFFFFFFFFFFFFFFFFFFF
310
FFFFFFFFFFFFFFFFFFFFFFFFFFFFFFFFFFFFFFFFFFFFFFFFF000FFFFFFFFFFFF
310
FFFFFFFFFFFFFFFFFFFFFFFFFFFFFFFFFFFFFFFFFFFFFFFFFFFFFFFFFFFFFFFF
310
FFFFFFFFFFFFFFFFFFFFFFFFFFFFFFFFFFFFFFFFFFFFFFFFFFFFFFFFFFFFFFFF
310
FFFFFFFFFFFFFFFFFFFFFFFFFFFFFFFFF000FFFFFFFFFFFFFFFFFFFFFFFFFFFF
310
FFFFFFFFFFFFFFFFFFFFFFFFFFFFFFFFFFFFFFFFFFFFFFFFFFFFFFFFFFFFFFFF
310
FFFFFFFFFFFFFFFFFFFFFFFFFFFFFFFFFFFFFFFFFFFFFFFFFFFFFFFFFFFFFFFF
310
FFFFFFFFFFFFFFFFF000FFFFFFFFFFFFFFFFFFFFFFFFFFFFFFFFFFFFFFFFFFFF
310
FFFFFFFFFFFFFFFFFFFFFFFFFFFFFFFFFFFFFFFFFFFFFFFFFFFFFFFFFFFFFFFF
310
FFFFFFFFFFFFFFFFFFFFFFFFFFFFFFFFFFFFFFFFFFFFFFFFFFFFFFFFFFFFFFFF
310
F000FFFFFFFFFFFFFFFFFFFFFFFFFFFFFFFFFFFFFFFFFFFFFFFFFFFFFFFFFFFF
310
FFFFFFFFFFFFFFFFFFFFFFFFFFFFFFFFFFFFFFFFFFFFFFFFFFFFFFFFFFFFFFFF
310
FFFFFFFFFFFFFFFFFFFFFFFFFFFFFFFFFFFFFFFFFFFFFFFFF000FFFFFFFFFFFF
310
FFFFFFFFFFFFFFFFFFFFFFFFFFFFFFFFFFFFFFFFFFFFFFFFFFFFFFFFFFFFFFFF
310
FFFFFFFFFFFFFFFFFFFFFFFFFFFFFFFFFFFFFFFFFFFFFFFFFFFFFFFFFFFFFFFF
310
FFFFFFFFFFFFFFFFFFFFFFFFFFFFFFFFF0000000000000000000000000000000
310
0000000000000000000000000000000000000000000000000000000000000000
310
0000000000000000000000000000000000000000000000000000000000000000
310
0000000000000000000000000000000000000000000000000000000000000000
310
0000000000000000000000000000000000000000000000000000000000000000
310
0000000000000000000000000000000000000000000000000000000000000000
310
0000000000000000000000000000000000000000000000000000000000000000
310
0000000000000000000000000000000000000000000000000000000000000000
310
0000000000000000000000000000000000000000000000000000000000000000
310
0000000000000000000000000000000000000000000000000000000000000000
310
0000000000000000000000000000000000000000000000000000000000000000
310
0000000000000000000000000000000000000000000000000000000000000000
310
0000000000000000000000000000000000000000000000000000000000000000
310
0000000000000000000000000000000000000000000000000000000000000000
310
0000000000000000000000000000000000000000000000000000000000000000
310
0000000000000000000000000000000000000000000000000000000000000000
  1
OLE
  0
ENDSEC
  0
SECTION
  2
OBJECTS
  0
DICTIONARY
  5
C
330
0
100
AcDbDictionary
281
     1
  3
ACAD_GROUP
350
D
  3
ACAD_LAYOUT
350
1A
  3
ACAD_MLINESTYLE
350
17
  3
ACAD_PLOTSETTINGS
350
19
  3
ACAD_PLOTSTYLENAME
350
E
  3
ACAD_SCALELIST
350
47
  0
DICTIONARY
  5
D
102
{ACAD_REACTORS
330
C
102
}
330
C
100
AcDbDictionary
281
     1
  0
DICTIONARY
  5
1A
102
{ACAD_REACTORS
330
C
102
}
330
C
100
AcDbDictionary
281
     1
  3
Layout1
350
1E
  3
Layout2
350
26
  3
Model
350
22
  0
DICTIONARY
  5
17
102
{ACAD_REACTORS
330
C
102
}
330
C
100
AcDbDictionary
281
     1
  3
Standard
350
18
  0
DICTIONARY
  5
19
102
{ACAD_REACTORS
330
C
102
}
330
C
100
AcDbDictionary
281
     1
  0
ACDBDICTIONARYWDFLT
  5
E
102
{ACAD_REACTORS
330
C
102
}
330
C
100
AcDbDictionary
281
     1
  3
Normal
350
F
100
AcDbDictionaryWithDefault
340
F
  0
DICTIONARY
  5
47
102
{ACAD_REACTORS
330
C
102
}
330
C
100
AcDbDictionary
281
     1
  3
A0
350
48
  3
A1
350
49
  3
A2
350
4A
  3
A3
350
4B
  3
A4
350
4C
  3
A5
350
4D
  3
A6
350
4E
  3
A7
350
4F
  3
A8
350
50
  3
A9
350
51
  3
B0
350
52
  3
B1
350
53
  3
B2
350
54
  3
B3
350
55
  3
B4
350
56
  3
B5
350
57
  3
B6
350
58
  3
B7
350
59
  3
B8
350
5A
  3
B9
350
5B
  3
C0
350
5C
  3
C1
350
5D
  3
C2
350
5E
  3
C3
350
5F
  3
C4
350
60
  3
C5
350
61
  3
C6
350
62
  3
C7
350
63
  3
C8
350
64
  3
C9
350
65
  3
D0
350
66
  3
D1
350
67
  3
D2
350
68
  0
LAYOUT
  5
1E
102
{ACAD_REACTORS
330
1A
102
}
330
1A
100
AcDbPlotSettings
  1

  2
none_device
  4

  6

 40
0.0
 41
0.0
 42
0.0
 43
0.0
 44
0.0
 45
0.0
 46
0.0
 47
0.0
 48
0.0
 49
0.0
140
0.0
141
0.0
142
1.0
143
1.0
 70
   688
 72
     1
 73
     0
 74
     5
  7

 75
    16
147
1.0
148
0.0
149
0.0
100
AcDbLayout
  1
Layout1
 70
     1
 71
     1
 10
0.0
 20
0.0
 11
420.0
 21
297.0
 12
0.0
 22
0.0
 32
0.0
 14
1.0000000000E+20
 24
1.0000000000E+20
 34
1.0000000000E+20
 15
-1.0000000000E+20
 25
-1.0000000000E+20
 35
-1.0000000000E+20
146
0.0
 13
0.0
 23
0.0
 33
0.0
 16
1.0
 26
0.0
 36
0.0
 17
0.0
 27
1.0
 37
0.0
 76
     0
330
1B
  0
LAYOUT
  5
26
102
{ACAD_REACTORS
330
1A
102
}
330
1A
100
AcDbPlotSettings
  1

  2
none_device
  4

  6

 40
0.0
 41
0.0
 42
0.0
 43
0.0
 44
0.0
 45
0.0
 46
0.0
 47
0.0
 48
0.0
 49
0.0
140
0.0
141
0.0
142
1.0
143
1.0
 70
   688
 72
     1
 73
     0
 74
     5
  7

 75
    16
147
1.0
148
0.0
149
0.0
100
AcDbLayout
  1
Layout2
 70
     1
 71
     2
 10
0.0
 20
0.0
 11
0.0
 21
0.0
 12
0.0
 22
0.0
 32
0.0
 14
0.0
 24
0.0
 34
0.0
 15
0.0
 25
0.0
 35
0.0
146
0.0
 13
0.0
 23
0.0
 33
0.0
 16
1.0
 26
0.0
 36
0.0
 17
0.0
 27
1.0
 37
0.0
 76
     0
330
23
  0
LAYOUT
  5
22
102
{ACAD_REACTORS
330
1A
102
}
330
1A
100
AcDbPlotSettings
  1

  2
none_device
  4
Letter_(8.50_x_11.00_Inches)
  6

 40
6.35
 41
6.35
 42
6.35000508
 43
6.35000508
 44
215.9
 45
279.4
 46
0.0
 47
0.0
 48
0.0
 49
0.0
140
0.0
141
0.0
142
1.0
143
1.0
 70
  1712
 72
     1
 73
     0
 74
     0
  7

 75
     0
147
1.0
148
0.0
149
0.0
100
AcDbLayout
  1
Model
 70
     1
 71
     0
 10
0.0
 20
0.0
 11
297.0
 21
210.0
 12
0.0
 22
0.0
 32
0.0
 14
0.0
 24
0.0
 34
0.0
 15
297.0
 25
210.0
 35
0.0
146
0.0
 13
0.0
 23
0.0
 33
0.0
 16
1.0
 26
0.0
 36
0.0
 17
0.0
 27
1.0
 37
0.0
 76
     0
330
1F
331
29
  0
MLINESTYLE
  5
18
102
{ACAD_REACTORS
330
17
102
}
330
17
100
AcDbMlineStyle
  2
Standard
 70
     0
  3

 62
   256
 51
90.0
 52
90.0
 71
     2
 49
0.5
 62
   256
  6
BYLAYER
 49
-0.5
 62
   256
  6
BYLAYER
  0
ACDBPLACEHOLDER
  5
F
102
{ACAD_REACTORS
330
E
102
}
330
E
  0
SCALE
  5
48
102
{ACAD_REACTORS
330
47
102
}
330
47
100
AcDbScale
 70
     0
300
1:1
140
1.0
141
1.0
290
     1
  0
SCALE
  5
49
102
{ACAD_REACTORS
330
47
102
}
330
47
100
AcDbScale
 70
     0
300
1:2
140
1.0
141
2.0
290
     0
  0
SCALE
  5
4A
102
{ACAD_REACTORS
330
47
102
}
330
47
100
AcDbScale
 70
     0
300
1:4
140
1.0
141
4.0
290
     0
  0
SCALE
  5
4B
102
{ACAD_REACTORS
330
47
102
}
330
47
100
AcDbScale
 70
     0
300
1:5
140
1.0
141
5.0
290
     0
  0
SCALE
  5
4C
102
{ACAD_REACTORS
330
47
102
}
330
47
100
AcDbScale
 70
     0
300
1:8
140
1.0
141
8.0
290
     0
  0
SCALE
  5
4D
102
{ACAD_REACTORS
330
47
102
}
330
47
100
AcDbScale
 70
     0
300
1:10
140
1.0
141
10.0
290
     0
  0
SCALE
  5
4E
102
{ACAD_REACTORS
330
47
102
}
330
47
100
AcDbScale
 70
     0
300
1:16
140
1.0
141
16.0
290
     0
  0
SCALE
  5
4F
102
{ACAD_REACTORS
330
47
102
}
330
47
100
AcDbScale
 70
     0
300
1:20
140
1.0
141
20.0
290
     0
  0
SCALE
  5
50
102
{ACAD_REACTORS
330
47
102
}
330
47
100
AcDbScale
 70
     0
300
1:30
140
1.0
141
30.0
290
     0
  0
SCALE
  5
51
102
{ACAD_REACTORS
330
47
102
}
330
47
100
AcDbScale
 70
     0
300
1:40
140
1.0
141
40.0
290
     0
  0
SCALE
  5
52
102
{ACAD_REACTORS
330
47
102
}
330
47
100
AcDbScale
 70
     0
300
1:50
140
1.0
141
50.0
290
     0
  0
SCALE
  5
53
102
{ACAD_REACTORS
330
47
102
}
330
47
100
AcDbScale
 70
     0
300
1:100
140
1.0
141
100.0
290
     0
  0
SCALE
  5
54
102
{ACAD_REACTORS
330
47
102
}
330
47
100
AcDbScale
 70
     0
300
2:1
140
2.0
141
1.0
290
     0
  0
SCALE
  5
55
102
{ACAD_REACTORS
330
47
102
}
330
47
100
AcDbScale
 70
     0
300
4:1
140
4.0
141
1.0
290
     0
  0
SCALE
  5
56
102
{ACAD_REACTORS
330
47
102
}
330
47
100
AcDbScale
 70
     0
300
8:1
140
8.0
141
1.0
290
     0
  0
SCALE
  5
57
102
{ACAD_REACTORS
330
47
102
}
330
47
100
AcDbScale
 70
     0
300
10:1
140
10.0
141
1.0
290
     0
  0
SCALE
  5
58
102
{ACAD_REACTORS
330
47
102
}
330
47
100
AcDbScale
 70
     0
300
100:1
140
100.0
141
1.0
290
     0
  0
SCALE
  5
59
102
{ACAD_REACTORS
330
47
102
}
330
47
100
AcDbScale
 70
     0
300
1/128" = 1'-0"
140
0.0078125
141
12.0
290
     0
  0
SCALE
  5
5A
102
{ACAD_REACTORS
330
47
102
}
330
47
100
AcDbScale
 70
     0
300
1/64" = 1'-0"
140
0.015625
141
12.0
290
     0
  0
SCALE
  5
5B
102
{ACAD_REACTORS
330
47
102
}
330
47
100
AcDbScale
 70
     0
300
1/32" = 1'-0"
140
0.03125
141
12.0
290
     0
  0
SCALE
  5
5C
102
{ACAD_REACTORS
330
47
102
}
330
47
100
AcDbScale
 70
     0
300
1/16" = 1'-0"
140
0.0625
141
12.0
290
     0
  0
SCALE
  5
5D
102
{ACAD_REACTORS
330
47
102
}
330
47
100
AcDbScale
 70
     0
300
3/32" = 1'-0"
140
0.09375
141
12.0
290
     0
  0
SCALE
  5
5E
102
{ACAD_REACTORS
330
47
102
}
330
47
100
AcDbScale
 70
     0
300
1/8" = 1'-0"
140
0.125
141
12.0
290
     0
  0
SCALE
  5
5F
102
{ACAD_REACTORS
330
47
102
}
330
47
100
AcDbScale
 70
     0
300
3/16" = 1'-0"
140
0.1875
141
12.0
290
     0
  0
SCALE
  5
60
102
{ACAD_REACTORS
330
47
102
}
330
47
100
AcDbScale
 70
     0
300
1/4" = 1'-0"
140
0.25
141
12.0
290
     0
  0
SCALE
  5
61
102
{ACAD_REACTORS
330
47
102
}
330
47
100
AcDbScale
 70
     0
300
3/8" = 1'-0"
140
0.375
141
12.0
290
     0
  0
SCALE
  5
62
102
{ACAD_REACTORS
330
47
102
}
330
47
100
AcDbScale
 70
     0
300
1/2" = 1'-0"
140
0.5
141
12.0
290
     0
  0
SCALE
  5
63
102
{ACAD_REACTORS
330
47
102
}
330
47
100
AcDbScale
 70
     0
300
3/4" = 1'-0"
140
0.75
141
12.0
290
     0
  0
SCALE
  5
64
102
{ACAD_REACTORS
330
47
102
}
330
47
100
AcDbScale
 70
     0
300
1" = 1'-0"
140
1.0
141
12.0
290
     0
  0
SCALE
  5
65
102
{ACAD_REACTORS
330
47
102
}
330
47
100
AcDbScale
 70
     0
300
1-1/2" = 1'-0"
140
1.5
141
12.0
290
     0
  0
SCALE
  5
66
102
{ACAD_REACTORS
330
47
102
}
330
47
100
AcDbScale
 70
     0
300
3" = 1'-0"
140
3.0
141
12.0
290
     0
  0
SCALE
  5
67
102
{ACAD_REACTORS
330
47
102
}
330
47
100
AcDbScale
 70
     0
300
6" = 1'-0"
140
6.0
141
12.0
290
     0
  0
SCALE
  5
68
102
{ACAD_REACTORS
330
47
102
}
330
47
100
AcDbScale
 70
     0
300
1'-0" = 1'-0"
140
12.0
141
12.0
290
     0
  0
ENDSEC
  0
EOF
