  0
SECTION
  2
HEADER
  9
$ACADVER
  1
AC1015
  9
$ACADMAINTVER
 70
     6
  9
$DWGCODEPAGE
  3
ANSI_1252
  9
$INSBASE
 10
0.0
 20
0.0
 30
0.0
  9
$EXTMIN
 10
0.0
 20
0.0
 30
0.0
  9
$EXTMAX
 10
297.0
 20
210.0
 30
0.0
  9
$LIMMIN
 10
0.0
 20
0.0
  9
$LIMMAX
 10
297.0
 20
210.0
  9
$ORTHOMODE
 70
     0
  9
$REGENMODE
 70
     1
  9
$FILLMODE
 70
     1
  9
$QTEXTMODE
 70
     0
  9
$MIRRTEXT
 70
     1
  9
$LTSCALE
 40
1.0
  9
$ATTMODE
 70
     1
  9
$TEXTSIZE
 40
2.0
  9
$TRACEWID
 40
1.0
  9
$TEXTSTYLE
  7
Standard
  9
$CLAYER
  8
0
  9
$CELTYPE
  6
ByLayer
  9
$CECOLOR
 62
   256
  9
$CELTSCALE
 40
1.0
  9
$DISPSILH
 70
     0
  9
$DIMSCALE
 40
1.0
  9
$DIMASZ
 40
3.0
  9
$DIMEXO
 40
0.0
  9
$DIMDLI
 40
3.75
  9
$DIMRND
 40
0.0
  9
$DIMDLE
 40
0.0
  9
$DIMEXE
 40
1.0
  9
$DIMTP
 40
0.0
  9
$DIMTM
 40
0.0
  9
$DIMTXT
 40
2.0
  9
$DIMCEN
 40
2.5
  9
$DIMTSZ
 40
0.0
  9
$DIMTOL
 70
     0
  9
$DIMLIM
 70
     0
  9
$DIMTIH
 70
     1
  9
$DIMTOH
 70
     1
  9
$DIMSE1
 70
     0
  9
$DIMSE2
 70
     0
  9
$DIMTAD
 70
     1
  9
$DIMZIN
 70
     0
  9
$DIMBLK
  1

  9
$DIMASO
 70
     1
  9
$DIMSHO
 70
     1
  9
$DIMPOST
  1

  9
$DIMAPOST
  1

  9
$DIMALT
 70
     0
  9
$DIMALTD
 70
     3
  9
$DIMALTF
 40
0.0393700787
  9
$DIMLFAC
 40
1.0
  9
$DIMTOFL
 70
     1
  9
$DIMTVP
 40
0.0
  9
$DIMTIX
 70
     0
  9
$DIMSOXD
 70
     0
  9
$DIMSAH
 70
     0
  9
$DIMBLK1
  1

  9
$DIMBLK2
  1

  9
$DIMSTYLE
  2
ISO-25
  9
$DIMCLRD
 70
     0
  9
$DIMCLRE
 70
     0
  9
$DIMCLRT
 70
     0
  9
$DIMTFAC
 40
1.0
  9
$DIMGAP
 40
1.524
  9
$DIMJUST
 70
     0
  9
$DIMSD1
 70
     0
  9
$DIMSD2
 70
     0
  9
$DIMTOLJ
 70
     0
  9
$DIMTZIN
 70
     0
  9
$DIMALTZ
 70
     0
  9
$DIMALTTZ
 70
     0
  9
$DIMUPT
 70
     0
  9
$DIMDEC
 70
     2
  9
$DIMTDEC
 70
     3
  9
$DIMALTU
 70
     2
  9
$DIMALTTD
 70
     3
  9
$DIMTXSTY
  7
Standard
  9
$DIMAUNIT
 70
     0
  9
$DIMADEC
 70
     2
  9
$DIMALTRND
 40
0.0
  9
$DIMAZIN
 70
     0
  9
$DIMDSEP
 70
    44
  9
$DIMATFIT
 70
     3
  9
$DIMFRAC
 70
     0
  9
$DIMLDRBLK
  1

  9
$DIMLUNIT
 70
     2
  9
$DIMLWD
 70
    -2
  9
$DIMLWE
 70
    -2
  9
$DIMTMOVE
 70
     0
  9
$LUNITS
 70
     2
  9
$LUPREC
 70
     2
  9
$SKETCHINC
 40
1.0
  9
$FILLETRAD
 40
10.0
  9
$AUNITS
 70
     0
  9
$AUPREC
 70
     2
  9
$MENU
  1
.
  9
$ELEVATION
 40
0.0
  9
$PELEVATION
 40
0.0
  9
$THICKNESS
 40
0.0
  9
$LIMCHECK
 70
     0
  9
$CHAMFERA
 40
0.0
  9
$CHAMFERB
 40
0.0
  9
$CHAMFERC
 40
0.0
  9
$CHAMFERD
 40
0.0
  9
$SKPOLY
 70
     0
  9
$TDCREATE
 40
2457675.617604525
  9
$TDUCREATE
 40
2457675.534271192
  9
$TDUPDATE
 40
2457675.617605891
  9
$TDUUPDATE
 40
2457675.534272558
  9
$TDINDWG
 40
0.0000000116
  9
$TDUSRTIMER
 40
0.0000000116
  9
$USRTIMER
 70
     1
  9
$ANGBASE
 50
0.0
  9
$ANGDIR
 70
     0
  9
$PDMODE
 70
     0
  9
$PDSIZE
 40
-1.0
  9
$PLINEWID
 40
0.0
  9
$SPLFRAME
 70
     0
  9
$SPLINETYPE
 70
     6
  9
$SPLINESEGS
 70
     8
  9
$HANDSEED
  5
254
  9
$SURFTAB1
 70
     6
  9
$SURFTAB2
 70
     6
  9
$SURFTYPE
 70
     6
  9
$SURFU
 70
     6
  9
$SURFV
 70
     6
  9
$UCSBASE
  2

  9
$UCSNAME
  2

  9
$UCSORG
 10
0.0
 20
0.0
 30
0.0
  9
$UCSXDIR
 10
1.0
 20
0.0
 30
0.0
  9
$UCSYDIR
 10
0.0
 20
1.0
 30
0.0
  9
$UCSORTHOREF
  2

  9
$UCSORTHOVIEW
 70
     0
  9
$UCSORGTOP
 10
0.0
 20
0.0
 30
0.0
  9
$UCSORGBOTTOM
 10
0.0
 20
0.0
 30
0.0
  9
$UCSORGLEFT
 10
0.0
 20
0.0
 30
0.0
  9
$UCSORGRIGHT
 10
0.0
 20
0.0
 30
0.0
  9
$UCSORGFRONT
 10
0.0
 20
0.0
 30
0.0
  9
$UCSORGBACK
 10
0.0
 20
0.0
 30
0.0
  9
$PUCSBASE
  2

  9
$PUCSNAME
  2

  9
$PUCSORG
 10
0.0
 20
0.0
 30
0.0
  9
$PUCSXDIR
 10
1.0
 20
0.0
 30
0.0
  9
$PUCSYDIR
 10
0.0
 20
1.0
 30
0.0
  9
$PUCSORTHOREF
  2

  9
$PUCSORTHOVIEW
 70
     0
  9
$PUCSORGTOP
 10
0.0
 20
0.0
 30
0.0
  9
$PUCSORGBOTTOM
 10
0.0
 20
0.0
 30
0.0
  9
$PUCSORGLEFT
 10
0.0
 20
0.0
 30
0.0
  9
$PUCSORGRIGHT
 10
0.0
 20
0.0
 30
0.0
  9
$PUCSORGFRONT
 10
0.0
 20
0.0
 30
0.0
  9
$PUCSORGBACK
 10
0.0
 20
0.0
 30
0.0
  9
$USERI1
 70
     0
  9
$USERI2
 70
     0
  9
$USERI3
 70
     0
  9
$USERI4
 70
     0
  9
$USERI5
 70
     0
  9
$USERR1
 40
0.0
  9
$USERR2
 40
0.0
  9
$USERR3
 40
0.0
  9
$USERR4
 40
0.0
  9
$USERR5
 40
0.0
  9
$WORLDVIEW
 70
     1
  9
$SHADEDGE
 70
     3
  9
$SHADEDIF
 70
    70
  9
$TILEMODE
 70
     1
  9
$MAXACTVP
 70
    64
  9
$PINSBASE
 10
0.0
 20
0.0
 30
0.0
  9
$PLIMCHECK
 70
     0
  9
$PEXTMIN
 10
1.0000000000E+20
 20
1.0000000000E+20
 30
1.0000000000E+20
  9
$PEXTMAX
 10
-1.0000000000E+20
 20
-1.0000000000E+20
 30
-1.0000000000E+20
  9
$PLIMMIN
 10
0.0
 20
0.0
  9
$PLIMMAX
 10
420.0
 20
297.0
  9
$UNITMODE
 70
     0
  9
$VISRETAIN
 70
     1
  9
$PLINEGEN
 70
     0
  9
$PSLTSCALE
 70
     1
  9
$TREEDEPTH
 70
  3020
  9
$CMLSTYLE
  2
Standard
  9
$CMLJUST
 70
     0
  9
$CMLSCALE
 40
20.0
  9
$PROXYGRAPHICS
 70
     1
  9
$MEASUREMENT
 70
     1
  9
$CELWEIGHT
370
    -1
  9
$ENDCAPS
280
     0
  9
$JOINSTYLE
280
     0
  9
$LWDISPLAY
290
     1
  9
$INSUNITS
 70
     4
  9
$HYPERLINKBASE
  1

  9
$STYLESHEET
  1

  9
$XEDIT
290
     1
  9
$CEPSNTYPE
380
     0
  9
$PSTYLEMODE
290
     1
  9
$FINGERPRINTGUID
  2
{03B43523-9D22-41D3-A74A-7F8CD60A8C9E}
  9
$VERSIONGUID
  2
{FAEB1C32-E019-11D5-929B-00C0DF256EC4}
  9
$EXTNAMES
290
     1
  9
$PSVPSCALE
 40
0.0
  9
$OLESTARTUP
290
     0
  0
ENDSEC
  0
SECTION
  2
CLASSES
  0
CLASS
  1
ACDBDICTIONARYWDFLT
  2
AcDbDictionaryWithDefault
  3
ObjectDBX Classes
 90
        0
280
     0
281
     0
  0
CLASS
  1
VISUALSTYLE
  2
AcDbVisualStyle
  3
ObjectDBX Classes
 90
     4095
280
     0
281
     0
  0
CLASS
  1
MATERIAL
  2
AcDbMaterial
  3
ObjectDBX Classes
 90
     1153
280
     0
281
     0
  0
CLASS
  1
SCALE
  2
AcDbScale
  3
ObjectDBX Classes
 90
     1153
280
     0
281
     0
  0
CLASS
  1
TABLESTYLE
  2
AcDbTableStyle
  3
ObjectDBX Classes
 90
     4095
280
     0
281
     0
  0
CLASS
  1
MLEADERSTYLE
  2
AcDbMLeaderStyle
  3
ACDB_MLEADERSTYLE_CLASS
 90
     4095
280
     0
281
     0
  0
CLASS
  1
SUN
  2
AcDbSun
  3
SCENEOE
 90
     1153
280
     0
281
     0
  0
CLASS
  1
ACDBPLACEHOLDER
  2
AcDbPlaceHolder
  3
ObjectDBX Classes
 90
        0
280
     0
281
     0
  0
CLASS
  1
LAYOUT
  2
AcDbLayout
  3
ObjectDBX Classes
 90
        0
280
     0
281
     0
  0
ENDSEC
  0
SECTION
  2
TABLES
  0
TABLE
  2
VPORT
  5
8
330
0
100
AcDbSymbolTable
 70
     1
  0
VPORT
  5
29
330
8
100
AcDbSymbolTableRecord
100
AcDbViewportTableRecord
  2
*Active
 70
     0
 10
0.0
 20
0.0
 11
1.0
 21
1.0
 12
148.5
 22
105.0
 13
0.0
 23
0.0
 14
10.0
 24
10.0
 15
10.0
 25
10.0
 16
0.0
 26
0.0
 36
1.0
 17
0.0
 27
0.0
 37
0.0
 40
210.0
 41
1.4142857143
 42
50.0
 43
0.0
 44
0.0
 50
0.0
 51
0.0
 71
     0
 72
  2000
 73
     1
 74
     3
 75
     0
 76
     0
 77
     0
 78
     0
281
     0
 65
     1
110
0.0
120
0.0
130
0.0
111
1.0
121
0.0
131
0.0
112
0.0
122
1.0
132
0.0
 79
     0
146
0.0
  0
ENDTAB
  0
TABLE
  2
LTYPE
  5
5
330
0
100
AcDbSymbolTable
 70
     6
  0
LTYPE
  5
14
330
5
100
AcDbSymbolTableRecord
100
AcDbLinetypeTableRecord
  2
ByBlock
 70
     0
  3

 72
    65
 73
     0
 40
0.0
  0
LTYPE
  5
15
330
5
100
AcDbSymbolTableRecord
100
AcDbLinetypeTableRecord
  2
ByLayer
 70
     0
  3

 72
    65
 73
     0
 40
0.0
  0
LTYPE
  5
16
330
5
100
AcDbSymbolTableRecord
100
AcDbLinetypeTableRecord
  2
Continuous
 70
     0
  3
Solid line
 72
    65
 73
     0
 40
0.0
  0
LTYPE
  5
6E
330
5
100
AcDbSymbolTableRecord
100
AcDbLinetypeTableRecord
  2
HIDDEN
 70
     0
  3
Hidden __ __ __ __ __ __ __ __ __ __ __ __ __ __
 72
    65
 73
     2
 40
1.905
 49
1.27
 74
     0
 49
-0.635
 74
     0
  0
LTYPE
  5
6F
330
5
100
AcDbSymbolTableRecord
100
AcDbLinetypeTableRecord
  2
PHANTOM
 70
     0
  3
Phantom ______  __  __  ______  __  __  ______
 72
    65
 73
     6
 40
12.7
 49
6.35
 74
     0
 49
-1.27
 74
     0
 49
1.27
 74
     0
 49
-1.27
 74
     0
 49
1.27
 74
     0
 49
-1.27
 74
     0
  0
LTYPE
  5
70
330
5
100
AcDbSymbolTableRecord
100
AcDbLinetypeTableRecord
  2
CENTER
 70
     0
  3
Center ____ _ ____ _ ____ _ ____ _ ____ _ ____
 72
    65
 73
     4
 40
10.16
 49
6.35
 74
     0
 49
-1.27
 74
     0
 49
1.27
 74
     0
 49
-1.27
 74
     0
  0
LTYPE
  5
71
330
5
100
AcDbSymbolTableRecord
100
AcDbLinetypeTableRecord
  2
CENTERX2
 70
     0
  3
Center (2x) ________  __  ________  __  _____
 72
    65
 73
     4
 40
20.32
 49
12.7
 74
     0
 49
-2.54
 74
     0
 49
2.54
 74
     0
 49
-2.54
 74
     0
  0
LTYPE
  5
72
330
5
100
AcDbSymbolTableRecord
100
AcDbLinetypeTableRecord
  2
DOT2
 70
     0
  3
Dot (.5x) ........................................
 72
    65
 73
     2
 40
0.635
 49
0.0
 74
     0
 49
-0.635
 74
     0
  0
ENDTAB
  0
TABLE
  2
LAYER
  5
2
330
0
100
AcDbSymbolTable
 70
     5
  0
LAYER
  5
10
330
2
100
AcDbSymbolTableRecord
100
AcDbLayerTableRecord
  2
0
 70
     0
 62
     7
  6
Continuous
370
    -3
390
F
  0
LAYER
  5
73
330
2
100
AcDbSymbolTableRecord
100
AcDbLayerTableRecord
  2
FORMAT
 70
     0
 62
     7
  6
Continuous
370
    -3
390
F
  0
LAYER
  5
74
330
2
100
AcDbSymbolTableRecord
100
AcDbLayerTableRecord
  2
VERMASSUNG
 70
     0
 62
     7
  6
Continuous
370
    -3
390
F
  0
LAYER
  5
75
330
2
100
AcDbSymbolTableRecord
100
AcDbLayerTableRecord
  2
KOPF_DÜNN
 70
     0
 62
     7
  6
Continuous
370
    -3
390
F
  0
LAYER
  5
76
330
2
100
AcDbSymbolTableRecord
100
AcDbLayerTableRecord
  2
KOPF_DICK
 70
     0
 62
     7
  6
Continuous
370
    15
390
F
  0
ENDTAB
  0
TABLE
  2
STYLE
  5
3
330
0
100
AcDbSymbolTable
 70
     2
  0
STYLE
  5
11
330
3
100
AcDbSymbolTableRecord
100
AcDbTextStyleTableRecord
  2
Standard
 70
     0
 40
0.0
 41
1.0
 50
0.0
 71
     0
 42
2.0
  3
txt
  4

  0
STYLE
  5
77
330
3
100
AcDbSymbolTableRecord
100
AcDbTextStyleTableRecord
  2
SLDTEXTSTYLE0
 70
     0
 40
0.0
 41
0.7
 50
0.0
 71
     0
 42
2.0
  3
TXT
  4

  0
ENDTAB
  0
TABLE
  2
VIEW
  5
6
330
0
100
AcDbSymbolTable
 70
     0
  0
ENDTAB
  0
TABLE
  2
UCS
  5
7
330
0
100
AcDbSymbolTable
 70
     0
  0
ENDTAB
  0
TABLE
  2
APPID
  5
9
330
0
100
AcDbSymbolTable
 70
     1
  0
APPID
  5
12
330
9
100
AcDbSymbolTableRecord
100
AcDbRegAppTableRecord
  2
ACAD
 70
     0
  0
ENDTAB
  0
TABLE
  2
DIMSTYLE
  5
A
330
0
100
AcDbSymbolTable
 70
     2
100
AcDbDimStyleTable
  0
DIMSTYLE
105
27
330
A
100
AcDbSymbolTableRecord
100
AcDbDimStyleTableRecord
  2
ISO-25
 70
     0
 41
2.5
 42
0.625
 43
3.75
 44
1.25
 73
     0
 74
     0
 77
     1
 78
     8
140
2.5
141
2.5
143
0.0393700787
147
0.625
171
     3
172
     1
178
     0
271
     2
272
     2
274
     3
278
    44
283
     0
284
     8
340
11
  0
DIMSTYLE
105
1A8
102
{ACAD_REACTORS
330
1A7
330
1B4
330
1BF
330
1CB
330
1D5
330
1DF
102
}
330
A
100
AcDbSymbolTableRecord
100
AcDbDimStyleTableRecord
  2
SLDDIMSTYLE0
 70
     0
 41
3.0
 44
0.0
 45
0.000000001
 73
     0
 74
     0
 77
     1
 78
    12
 79
     3
140
2.0
147
0.5
173
     1
178
     0
271
     2
272
     3
276
     2
284
    12
340
77
  0
ENDTAB
  0
TABLE
  2
BLOCK_RECORD
  5
1
330
0
100
AcDbSymbolTable
 70
     7
  0
BLOCK_RECORD
  5
1F
330
1
100
AcDbSymbolTableRecord
100
AcDbBlockTableRecord
  2
*Model_Space
340
22
  0
BLOCK_RECORD
  5
1B
330
1
100
AcDbSymbolTableRecord
100
AcDbBlockTableRecord
  2
*Paper_Space
340
1E
  0
BLOCK_RECORD
  5
23
330
1
100
AcDbSymbolTableRecord
100
AcDbBlockTableRecord
  2
*Paper_Space0
340
26
  0
BLOCK_RECORD
  5
1A9
330
1
100
AcDbSymbolTableRecord
100
AcDbBlockTableRecord
  2
_D
340
0
  0
BLOCK_RECORD
  5
1B5
330
1
100
AcDbSymbolTableRecord
100
AcDbBlockTableRecord
  2
_D_1
340
0
  0
BLOCK_RECORD
  5
1C0
330
1
100
AcDbSymbolTableRecord
100
AcDbBlockTableRecord
  2
_D_2
340
0
  0
BLOCK_RECORD
  5
1CC
330
1
100
AcDbSymbolTableRecord
100
AcDbBlockTableRecord
  2
_D_3
340
0
  0
BLOCK_RECORD
  5
1D6
330
1
100
AcDbSymbolTableRecord
100
AcDbBlockTableRecord
  2
_D_4
340
0
  0
BLOCK_RECORD
  5
1E0
330
1
100
AcDbSymbolTableRecord
100
AcDbBlockTableRecord
  2
_D_5
340
0
  0
ENDTAB
  0
ENDSEC
  0
SECTION
  2
BLOCKS
  0
BLOCK
  5
20
330
1F
100
AcDbEntity
  8
0
100
AcDbBlockBegin
  2
*Model_Space
 70
     0
 10
0.0
 20
0.0
 30
0.0
  3
*Model_Space
  1

  0
ENDBLK
  5
21
330
1F
100
AcDbEntity
  8
0
100
AcDbBlockEnd
  0
BLOCK
  5
1C
330
1B
100
AcDbEntity
 67
     1
  8
0
100
AcDbBlockBegin
  2
*Paper_Space
 70
     0
 10
0.0
 20
0.0
 30
0.0
  3
*Paper_Space
  1

  0
ENDBLK
  5
1D
330
1B
100
AcDbEntity
 67
     1
  8
0
100
AcDbBlockEnd
  0
BLOCK
  5
24
330
23
100
AcDbEntity
  8
0
100
AcDbBlockBegin
  2
*Paper_Space0
 70
     0
 10
0.0
 20
0.0
 30
0.0
  3
*Paper_Space0
  1

  0
ENDBLK
  5
25
330
23
100
AcDbEntity
  8
0
100
AcDbBlockEnd
  0
BLOCK
  5
1AA
330
1A9
100
AcDbEntity
  8
0
100
AcDbBlockBegin
  2
_D
 70
     0
 10
0.0
 20
0.0
 30
0.0
  3
_D
  1

  0
SOLID
  5
1AC
330
1A9
100
AcDbEntity
  8
VERMASSUNG
100
AcDbTrace
 10
80.0640558546
 20
85.5416516458
 30
0.0
 11
80.5140558546
 21
88.5416516458
 31
0.0
 12
79.6140558546
 22
88.5416516458
 32
0.0
 13
79.6140558546
 23
88.5416516458
 33
0.0
  0
SOLID
  5
1AD
330
1A9
100
AcDbEntity
  8
VERMASSUNG
100
AcDbTrace
 10
80.0640558546
 20
148.5416516458
 30
0.0
 11
79.6140558546
 21
145.5416516458
 31
0.0
 12
80.5140558546
 22
145.5416516458
 32
0.0
 13
80.5140558546
 23
145.5416516458
 33
0.0
  0
LINE
  5
1AE
330
1A9
100
AcDbEntity
  8
VERMASSUNG
100
AcDbLine
 10
177.0701262293
 20
85.5416516458
 30
0.0
 11
79.0640558546
 21
85.5416516458
 31
0.0
  0
LINE
  5
1AF
330
1A9
100
AcDbEntity
  8
VERMASSUNG
100
AcDbLine
 10
177.0701262293
 20
148.5416516458
 30
0.0
 11
79.0640558546
 21
148.5416516458
 31
0.0
  0
LINE
  5
1B0
330
1A9
100
AcDbEntity
  8
VERMASSUNG
100
AcDbLine
 10
80.0640558546
 20
85.5416516458
 30
0.0
 11
80.0640558546
 21
148.5416516458
 31
0.0
  0
MTEXT
  5
1B1
330
1A9
100
AcDbEntity
  8
VERMASSUNG
100
AcDbMText
 10
77.2859205984
 20
106.2378977838
 30
0.0
 40
2.0
 41
0.0
 71
     1
 72
     1
  1
MAS-BT 40
  7
SLDTEXTSTYLE0
 11
3.391901413832837E-15
 21
1.0
 31
0.0
 73
     1
 44
1.0
  0
MTEXT
  5
1B2
330
1A9
100
AcDbEntity
  8
VERMASSUNG
100
AcDbMText
 10
77.4859205497
 20
121.4378980401
 30
0.0
 40
2.0
 41
0.0
 71
     1
 72
     1
  1
%%c
  7
SLDTEXTSTYLE0
 11
3.391901413832837E-15
 21
1.0
 31
0.0
 73
     1
 44
1.0
  0
MTEXT
  5
1B3
330
1A9
100
AcDbEntity
  8
VERMASSUNG
100
AcDbMText
 10
77.4859202587
 20
125.0460254872
 30
0.0
 40
2.0
 41
0.0
 71
     1
 72
     1
  1
63
  7
SLDTEXTSTYLE0
 11
3.391901413832837E-15
 21
1.0
 31
0.0
 73
     1
 44
1.0
  0
ENDBLK
  5
1AB
330
1A9
100
AcDbEntity
  8
0
100
AcDbBlockEnd
  0
BLOCK
  5
1B6
330
1B5
100
AcDbEntity
  8
0
100
AcDbBlockBegin
  2
_D_1
 70
     0
 10
0.0
 20
0.0
 30
0.0
  3
_D_1
  1

  0
SOLID
  5
1B8
330
1B5
100
AcDbEntity
  8
VERMASSUNG
100
AcDbTrace
 10
210.8718316159
 20
126.0416516458
 30
0.0
 11
210.4218316159
 21
123.0416516458
 31
0.0
 12
211.3218316159
 22
123.0416516458
 32
0.0
 13
211.3218316159
 23
123.0416516458
 33
0.0
  0
SOLID
  5
1B9
330
1B5
100
AcDbEntity
  8
VERMASSUNG
100
AcDbTrace
 10
210.8718316159
 20
108.0416516458
 30
0.0
 11
211.3218316159
 21
111.0416516458
 31
0.0
 12
210.4218316159
 22
111.0416516458
 32
0.0
 13
210.4218316159
 23
111.0416516458
 33
0.0
  0
LINE
  5
1BA
330
1B5
100
AcDbEntity
  8
VERMASSUNG
100
AcDbLine
 10
204.0701262293
 20
126.0416516458
 30
0.0
 11
211.8718316159
 21
126.0416516458
 31
0.0
  0
LINE
  5
1BB
330
1B5
100
AcDbEntity
  8
VERMASSUNG
100
AcDbLine
 10
204.0701262293
 20
108.0416516458
 30
0.0
 11
211.8718316159
 21
108.0416516458
 31
0.0
  0
LINE
  5
1BC
330
1B5
100
AcDbEntity
  8
VERMASSUNG
100
AcDbLine
 10
210.8718316159
 20
126.0416516458
 30
0.0
 11
210.8718316159
 21
108.0416516458
 31
0.0
  0
MTEXT
  5
1BD
330
1B5
100
AcDbEntity
  8
VERMASSUNG
100
AcDbMText
 10
208.2936960781
 20
114.038219102
 30
0.0
 40
2.0
 41
0.0
 71
     1
 72
     1
  1
%%c
  7
SLDTEXTSTYLE0
 11
-7.044195017643634E-15
 21
1.0
 31
0.0
 73
     1
 44
1.0
  0
MTEXT
  5
1BE
330
1B5
100
AcDbEntity
  8
VERMASSUNG
100
AcDbMText
 10
208.2936960199
 20
117.6471912956
 30
0.0
 40
2.0
 41
0.0
 71
     1
 72
     1
  1
18
  7
SLDTEXTSTYLE0
 11
-7.044195017643634E-15
 21
1.0
 31
0.0
 73
     1
 44
1.0
  0
ENDBLK
  5
1B7
330
1B5
100
AcDbEntity
  8
0
100
AcDbBlockEnd
  0
BLOCK
  5
1C1
330
1C0
100
AcDbEntity
  8
0
100
AcDbBlockBegin
  2
_D_2
 70
     0
 10
0.0
 20
0.0
 30
0.0
  3
_D_2
  1

  0
SOLID
  5
1C3
330
1C0
100
AcDbEntity
  8
VERMASSUNG
100
AcDbTrace
 10
217.0718316159
 20
133.0416516458
 30
0.0
 11
216.6218316159
 21
130.0416516458
 31
0.0
 12
217.5218316159
 22
130.0416516458
 32
0.0
 13
217.5218316159
 23
130.0416516458
 33
0.0
  0
SOLID
  5
1C4
330
1C0
100
AcDbEntity
  8
VERMASSUNG
100
AcDbTrace
 10
217.0718316159
 20
101.0416516458
 30
0.0
 11
217.5218316159
 21
104.0416516458
 31
0.0
 12
216.6218316159
 22
104.0416516458
 32
0.0
 13
216.6218316159
 23
104.0416516458
 33
0.0
  0
LINE
  5
1C5
330
1C0
100
AcDbEntity
  8
VERMASSUNG
100
AcDbLine
 10
204.7701262293
 20
133.0416516458
 30
0.0
 11
218.0718316159
 21
133.0416516458
 31
0.0
  0
LINE
  5
1C6
330
1C0
100
AcDbEntity
  8
VERMASSUNG
100
AcDbLine
 10
204.7701262293
 20
101.0416516458
 30
0.0
 11
218.0718316159
 21
101.0416516458
 31
0.0
  0
LINE
  5
1C7
330
1C0
100
AcDbEntity
  8
VERMASSUNG
100
AcDbLine
 10
217.0718316159
 20
133.0416516458
 30
0.0
 11
217.0718316159
 21
101.0416516458
 31
0.0
  0
MTEXT
  5
1C8
330
1C0
100
AcDbEntity
  8
VERMASSUNG
100
AcDbMText
 10
214.2936963597
 20
111.3370048899
 30
0.0
 40
2.0
 41
0.0
 71
     1
 72
     1
  1
WH
  7
SLDTEXTSTYLE0
 11
-7.044195017643634E-15
 21
1.0
 31
0.0
 73
     1
 44
1.0
  0
MTEXT
  5
1C9
330
1C0
100
AcDbEntity
  8
VERMASSUNG
100
AcDbMText
 10
214.493696311
 20
116.3370047781
 30
0.0
 40
2.0
 41
0.0
 71
     1
 72
     1
  1
%%c
  7
SLDTEXTSTYLE0
 11
-7.044195017643634E-15
 21
1.0
 31
0.0
 73
     1
 44
1.0
  0
MTEXT
  5
1CA
330
1C0
100
AcDbEntity
  8
VERMASSUNG
100
AcDbMText
 10
214.4936960199
 20
119.9469183811
 30
0.0
 40
2.0
 41
0.0
 71
     1
 72
     1
  1
32
  7
SLDTEXTSTYLE0
 11
-7.044195017643634E-15
 21
1.0
 31
0.0
 73
     1
 44
1.0
  0
ENDBLK
  5
1C2
330
1C0
100
AcDbEntity
  8
0
100
AcDbBlockEnd
  0
BLOCK
  5
1CD
330
1CC
100
AcDbEntity
  8
0
100
AcDbBlockBegin
  2
_D_3
 70
     0
 10
0.0
 20
0.0
 30
0.0
  3
_D_3
  1

  0
SOLID
  5
1CF
330
1CC
100
AcDbEntity
  8
VERMASSUNG
100
AcDbTrace
 10
205.0701262293
 20
152.6416516458
 30
0.0
 11
202.0701262293
 21
153.0916516458
 31
0.0
 12
202.0701262293
 22
152.1916516458
 32
0.0
 13
202.0701262293
 23
152.1916516458
 33
0.0
  0
SOLID
  5
1D0
330
1CC
100
AcDbEntity
  8
VERMASSUNG
100
AcDbTrace
 10
178.0701262293
 20
152.6416516458
 30
0.0
 11
181.0701262293
 21
152.1916516458
 31
0.0
 12
181.0701262293
 22
153.0916516458
 32
0.0
 13
181.0701262293
 23
153.0916516458
 33
0.0
  0
LINE
  5
1D1
330
1CC
100
AcDbEntity
  8
VERMASSUNG
100
AcDbLine
 10
205.0701262293
 20
132.7416516458
 30
0.0
 11
205.0701262293
 21
153.6416516458
 31
0.0
  0
LINE
  5
1D2
330
1CC
100
AcDbEntity
  8
VERMASSUNG
100
AcDbLine
 10
178.0701262293
 20
147.5416516458
 30
0.0
 11
178.0701262293
 21
153.6416516458
 31
0.0
  0
LINE
  5
1D3
330
1CC
100
AcDbEntity
  8
VERMASSUNG
100
AcDbLine
 10
205.0701262293
 20
152.6416516458
 30
0.0
 11
178.0701262293
 21
152.6416516458
 31
0.0
  0
MTEXT
  5
1D4
330
1CC
100
AcDbEntity
  8
VERMASSUNG
100
AcDbMText
 10
190.170436219
 20
155.2197872418
 30
0.0
 40
2.0
 41
0.0
 71
     1
 72
     1
  1
27
  7
SLDTEXTSTYLE0
 73
     1
 44
1.0
  0
ENDBLK
  5
1CE
330
1CC
100
AcDbEntity
  8
0
100
AcDbBlockEnd
  0
BLOCK
  5
1D7
330
1D6
100
AcDbEntity
  8
0
100
AcDbBlockBegin
  2
_D_4
 70
     0
 10
0.0
 20
0.0
 30
0.0
  3
_D_4
  1

  0
SOLID
  5
1D9
330
1D6
100
AcDbEntity
  8
VERMASSUNG
100
AcDbTrace
 10
205.0701262293
 20
158.6416516458
 30
0.0
 11
202.0701262293
 21
159.0916516458
 31
0.0
 12
202.0701262293
 22
158.1916516458
 32
0.0
 13
202.0701262293
 23
158.1916516458
 33
0.0
  0
SOLID
  5
1DA
330
1D6
100
AcDbEntity
  8
VERMASSUNG
100
AcDbTrace
 10
151.0701262293
 20
158.6416516458
 30
0.0
 11
154.0701262293
 21
158.1916516458
 31
0.0
 12
154.0701262293
 22
159.0916516458
 32
0.0
 13
154.0701262293
 23
159.0916516458
 33
0.0
  0
LINE
  5
1DB
330
1D6
100
AcDbEntity
  8
VERMASSUNG
100
AcDbLine
 10
205.0701262293
 20
132.7416516458
 30
0.0
 11
205.0701262293
 21
159.6416516458
 31
0.0
  0
LINE
  5
1DC
330
1D6
100
AcDbEntity
  8
VERMASSUNG
100
AcDbLine
 10
151.0701262293
 20
139.2666516458
 30
0.0
 11
151.0701262293
 21
159.6416516458
 31
0.0
  0
LINE
  5
1DD
330
1D6
100
AcDbEntity
  8
VERMASSUNG
100
AcDbLine
 10
205.0701262293
 20
158.6416516458
 30
0.0
 11
151.0701262293
 21
158.6416516458
 31
0.0
  0
MTEXT
  5
1DE
330
1D6
100
AcDbEntity
  8
VERMASSUNG
100
AcDbMText
 10
176.5711674239
 20
161.2197872418
 30
0.0
 40
2.0
 41
0.0
 71
     1
 72
     1
  1
54
  7
SLDTEXTSTYLE0
 73
     1
 44
1.0
  0
ENDBLK
  5
1D8
330
1D6
100
AcDbEntity
  8
0
100
AcDbBlockEnd
  0
BLOCK
  5
1E1
330
1E0
100
AcDbEntity
  8
0
100
AcDbBlockBegin
  2
_D_5
 70
     0
 10
0.0
 20
0.0
 30
0.0
  3
_D_5
  1

  0
SOLID
  5
1E3
330
1E0
100
AcDbEntity
  8
VERMASSUNG
100
AcDbTrace
 10
205.0701262293
 20
164.6416516458
 30
0.0
 11
202.0701262293
 21
165.0916516458
 31
0.0
 12
202.0701262293
 22
164.1916516458
 32
0.0
 13
202.0701262293
 23
164.1916516458
 33
0.0
  0
SOLID
  5
1E4
330
1E0
100
AcDbEntity
  8
VERMASSUNG
100
AcDbTrace
 10
85.6701262293
 20
164.6416516458
 30
0.0
 11
88.6701262293
 21
164.1916516458
 31
0.0
 12
88.6701262293
 22
165.0916516458
 32
0.0
 13
88.6701262293
 23
165.0916516458
 33
0.0
  0
LINE
  5
1E5
330
1E0
100
AcDbEntity
  8
VERMASSUNG
100
AcDbLine
 10
205.0701262293
 20
132.7416516458
 30
0.0
 11
205.0701262293
 21
165.6416516458
 31
0.0
  0
LINE
  5
1E6
330
1E0
100
AcDbEntity
  8
VERMASSUNG
100
AcDbLine
 10
85.6701262293
 20
128.8644072428
 30
0.0
 11
85.6701262293
 21
165.6416516458
 31
0.0
  0
LINE
  5
1E7
330
1E0
100
AcDbEntity
  8
VERMASSUNG
100
AcDbLine
 10
205.0701262293
 20
164.6416516458
 30
0.0
 11
85.6701262293
 21
164.6416516458
 31
0.0
  0
MTEXT
  5
1E8
330
1E0
100
AcDbEntity
  8
VERMASSUNG
100
AcDbMText
 10
142.5701260963
 20
167.2197872418
 30
0.0
 40
2.0
 41
0.0
 71
     1
 72
     1
  1
119.4
  7
SLDTEXTSTYLE0
 73
     1
 44
1.0
  0
ENDBLK
  5
1E2
330
1E0
100
AcDbEntity
  8
0
100
AcDbBlockEnd
  0
ENDSEC
  0
SECTION
  2
ENTITIES
  0
MTEXT
  5
78
330
1F
100
AcDbEntity
  8
KOPF_DÜNN
100
AcDbMText
 10
13.8892156294
 20
23.8442973028
 30
0.0
 40
3.0
 41
0.0
 71
     1
 72
     1
  1
A34.540.032.054
  7
SLDTEXTSTYLE0
 73
     1
 44
1.0
  0
MTEXT
  5
79
330
1F
100
AcDbEntity
  8
VERMASSUNG
100
AcDbMText
 10
13.9329988022
 20
28.8834360957
 30
0.0
 40
3.0
 41
0.0
 71
     1
 72
     1
  1
Aufnahme_Master shank
  7
SLDTEXTSTYLE0
 73
     1
 44
1.0
  0
MTEXT
  5
7A
330
1F
100
AcDbEntity
  8
VERMASSUNG
100
AcDbMText
 10
98.8601118557
 20
13.8365368761
 30
0.0
 40
2.0
 41
0.0
 71
     1
 72
     1
  1
Datum: 01.09.2011
  7
SLDTEXTSTYLE0
 73
     1
 44
1.0
  0
MTEXT
  5
7B
330
1F
100
AcDbEntity
  8
VERMASSUNG
100
AcDbMText
 10
13.933048693
 20
18.0482802738
 30
0.0
 40
2.0
 41
0.0
 71
     1
 72
     1
  1
MAS-BT A/D
  7
SLDTEXTSTYLE0
 73
     1
 44
1.0
  0
MTEXT
  5
7C
330
1F
100
AcDbEntity
  8
VERMASSUNG
100
AcDbMText
 10
13.9808475933
 20
13.9090974274
 30
0.0
 40
2.0
 41
0.0
 71
     1
 72
     1
  1
Gewicht: 1102g
  7
SLDTEXTSTYLE0
 73
     1
 44
1.0
  0
LINE
  5
7D
330
1F
100
AcDbEntity
  8
0
  6
Continuous
 62
     7
370
    15
100
AcDbLine
 10
175.0701286707
 20
85.5416516458
 30
0.0
 11
177.0701262293
 21
85.5416516458
 31
0.0
  0
LINE
  5
7E
330
1F
100
AcDbEntity
  8
0
  6
Continuous
 62
     7
370
    15
100
AcDbLine
 10
177.0701262293
 20
148.5416516458
 30
0.0
 11
175.0696260593
 21
148.5416516458
 31
0.0
  0
ARC
  5
7F
330
1F
100
AcDbEntity
  8
0
  6
Continuous
 62
     7
370
    15
100
AcDbCircle
 10
177.0701262293
 20
86.5416516458
 30
0.0
 40
1.000000000000014
100
AcDbArc
 50
270.0
 51
0.0
  0
ARC
  5
80
330
1F
100
AcDbEntity
  8
0
  6
Continuous
 62
     7
370
    15
100
AcDbCircle
 10
177.0701262293
 20
147.5416516458
 30
0.0
 40
1.0
100
AcDbArc
 50
0.0
 51
90.0
  0
ARC
  5
81
330
1F
100
AcDbEntity
  8
0
  6
Continuous
 62
     7
370
    15
100
AcDbCircle
 10
152.0701262293
 20
93.8166516458
 30
0.0
 40
1.0
100
AcDbArc
 50
46.4333463416
 51
90.0
  0
ARC
  5
82
330
1F
100
AcDbEntity
  8
0
  6
Continuous
 62
     7
370
    15
100
AcDbCircle
 10
152.0701262293
 20
140.2666516458
 30
0.0
 40
1.0
100
AcDbArc
 50
270.0
 51
313.5375610145
  0
LINE
  5
83
330
1F
100
AcDbEntity
  8
0
  6
Continuous
 62
     7
370
    15
100
AcDbLine
 10
151.0701262293
 20
139.2666516458
 30
0.0
 11
86.5258193362
 21
129.8539402239
 31
0.0
  0
LINE
  5
84
330
1F
100
AcDbEntity
  8
0
  6
Continuous
 62
     7
370
    15
100
AcDbLine
 10
86.5258193362
 20
104.2293630677
 30
0.0
 11
151.0701262293
 21
94.8166516458
 31
0.0
  0
LINE
  5
85
330
1F
100
AcDbEntity
  8
0
  6
Continuous
 62
     7
370
    15
100
AcDbLine
 10
151.0701262293
 20
94.8166516458
 30
0.0
 11
152.0701262293
 21
94.8166516458
 31
0.0
  0
LINE
  5
86
330
1F
100
AcDbEntity
  8
0
  6
Continuous
 62
     7
370
    15
100
AcDbLine
 10
152.0701262293
 20
139.2666516458
 30
0.0
 11
151.0701262293
 21
139.2666516458
 31
0.0
  0
ARC
  5
87
330
1F
100
AcDbEntity
  8
0
  6
Continuous
 62
     7
370
    15
100
AcDbCircle
 10
181.0701262293
 20
98.0416516458
 30
0.0
 40
3.0
100
AcDbArc
 50
90.0
 51
180.0
  0
ARC
  5
88
330
1F
100
AcDbEntity
  8
0
  6
Continuous
 62
     7
370
    15
100
AcDbCircle
 10
181.0701262293
 20
136.0416516458
 30
0.0
 40
3.0
100
AcDbArc
 50
180.0
 51
270.0
  0
LINE
  5
89
330
1F
100
AcDbEntity
  8
0
  6
Continuous
 62
     7
370
    15
100
AcDbLine
 10
188.0369336124
 20
133.0416516458
 30
0.0
 11
181.0701262293
 21
133.0416516458
 31
0.0
  0
LINE
  5
8A
330
1F
100
AcDbEntity
  8
0
  6
Continuous
 62
     7
370
    15
100
AcDbLine
 10
204.7701262293
 20
133.0416516458
 30
0.0
 11
198.0103470212
 21
133.0416516458
 31
0.0
  0
LINE
  5
8B
330
1F
100
AcDbEntity
  8
0
  6
Continuous
 62
     7
370
    15
100
AcDbLine
 10
181.0701262293
 20
101.0416516458
 30
0.0
 11
204.7701262293
 21
101.0416516458
 31
0.0
  0
LINE
  5
8C
330
1F
100
AcDbEntity
  8
0
  6
Continuous
 62
     7
370
    15
100
AcDbLine
 10
204.7701262293
 20
101.0416516458
 30
0.0
 11
205.0701262293
 21
101.3416516458
 31
0.0
  0
LINE
  5
8D
330
1F
100
AcDbEntity
  8
0
  6
Continuous
 62
     7
370
    15
100
AcDbLine
 10
205.0701262293
 20
132.7416516458
 30
0.0
 11
204.7701262293
 21
133.0416516458
 31
0.0
  0
ARC
  5
8E
330
1F
100
AcDbEntity
  8
0
  6
Continuous
 62
     7
370
    15
100
AcDbCircle
 10
86.6701262293
 20
105.2188960488
 30
0.0
 40
1.00000000000001
100
AcDbArc
 50
180.0
 51
261.7028550302
  0
ARC
  5
8F
330
1F
100
AcDbEntity
  8
0
  6
Continuous
 62
     7
370
    15
100
AcDbCircle
 10
86.6701262293
 20
128.8644072428
 30
0.0
 40
1.000000000000038
100
AcDbArc
 50
98.2971449698
 51
180.0
  0
SPLINE
  5
90
330
1F
100
AcDbEntity
  8
0
  6
Continuous
 62
     7
370
    15
100
AcDbSpline
210
0.0
220
0.0
230
1.0
 70
    24
 71
     3
 72
    11
 73
     7
 74
     0
 42
0.000000001
 43
0.00000001
 40
0.0
 40
0.0
 40
0.0
 40
0.0
 40
0.1849308168246111
 40
0.5198464202157757
 40
0.8714438233692658
 40
0.9999999999999999
 40
0.9999999999999999
 40
0.9999999999999999
 40
0.9999999999999999
 10
192.5605632735682
 20
119.3048651185089
 30
0.0
 10
192.4598560804728
 20
119.2158349287312
 30
0.0
 10
192.1767649509382
 20
118.9655682276926
 30
0.0
 10
191.6483212969473
 20
118.4983976378317
 30
0.0
 10
191.160281961247
 20
118.0669464838391
 30
0.0
 10
190.9000254032797
 20
117.8368666848245
 30
0.0
 10
190.8303443898623
 20
117.7752651878731
 30
0.0
  0
SPLINE
  5
91
330
1F
100
AcDbEntity
  8
0
  6
Continuous
 62
     7
370
    15
100
AcDbSpline
210
0.0
220
0.0
230
1.0
 70
    24
 71
     3
 72
    11
 73
     7
 74
     0
 42
0.000000001
 43
0.00000001
 40
0.0
 40
0.0
 40
0.0
 40
0.0
 40
0.1285561766307341
 40
0.4801535797842241
 40
0.8150691831753886
 40
0.9999999999999999
 40
0.9999999999999999
 40
0.9999999999999999
 40
0.9999999999999999
 10
193.4796891849772
 20
114.7784381730794
 30
0.0
 10
193.5493701983946
 20
114.8400396700308
 30
0.0
 10
193.8096267563618
 20
115.0701194690453
 30
0.0
 10
194.2976660920622
 20
115.5015706230379
 30
0.0
 10
194.8261097460531
 20
115.9687412128988
 30
0.0
 10
195.1092008755877
 20
116.2190079139374
 30
0.0
 10
195.2099080686831
 20
116.3080381037151
 30
0.0
  0
CIRCLE
  5
92
330
1F
100
AcDbEntity
  8
0
  6
Continuous
 62
     7
370
    15
100
AcDbCircle
 10
193.0201262293
 20
117.0416516458
 30
0.0
 40
2.399999999999994
  0
SPLINE
  5
93
330
1F
100
AcDbEntity
  8
0
  6
Continuous
 62
     7
370
    15
100
AcDbSpline
210
0.0
220
0.0
230
1.0
 70
    24
 71
     3
 72
    10
 73
     6
 74
     0
 42
0.000000001
 43
0.00000001
 40
0.0
 40
0.0
 40
0.0
 40
0.0
 40
0.439122227423046
 40
0.7513714712594598
 40
0.9999999999999999
 40
0.9999999999999999
 40
0.9999999999999999
 40
0.9999999999999999
 10
191.2899073455668
 20
115.5120517151584
 30
0.0
 10
191.6033959113751
 20
115.4070278022622
 30
0.0
 10
192.1397986489379
 20
115.227323913408
 30
0.0
 10
192.9195483423243
 20
114.9660947241778
 30
0.0
 10
193.3076497661739
 20
114.8360742558772
 30
0.0
 10
193.4796891849772
 20
114.7784381730794
 30
0.0
  0
SPLINE
  5
94
330
1F
100
AcDbEntity
  8
0
  6
Continuous
 62
     7
370
    15
100
AcDbSpline
210
0.0
220
0.0
230
1.0
 70
    24
 71
     3
 72
    10
 73
     6
 74
     0
 42
0.000000001
 43
0.00000001
 40
0.0
 40
0.0
 40
0.0
 40
0.0
 40
0.4391222274230469
 40
0.7513714712594601
 40
1.0
 40
1.0
 40
1.0
 40
1.0
 10
195.2099080686831
 20
116.3080381037151
 30
0.0
 10
195.1441171623519
 20
116.6320391219491
 30
0.0
 10
195.0315439264771
 20
117.1864294637652
 30
0.0
 10
194.8679001938673
 20
117.992327101446
 30
0.0
 10
194.7864505105027
 20
118.3934430278949
 30
0.0
 10
194.7503451129786
 20
118.5712515764298
 30
0.0
  0
SPLINE
  5
95
330
1F
100
AcDbEntity
  8
0
  6
Continuous
 62
     7
370
    15
100
AcDbSpline
210
0.0
220
0.0
230
1.0
 70
    24
 71
     3
 72
    10
 73
     6
 74
     0
 42
0.000000001
 43
0.00000001
 40
0.0
 40
0.0
 40
0.0
 40
0.0
 40
0.4391222274230471
 40
0.7513714712594606
 40
1.0
 40
1.0
 40
1.0
 40
1.0
 10
190.8303443898623
 20
117.7752651878731
 30
0.0
 10
190.8961352961935
 20
117.4512641696391
 30
0.0
 10
191.0087085320684
 20
116.8968738278231
 30
0.0
 10
191.1723522646782
 20
116.0909761901422
 30
0.0
 10
191.2538019480427
 20
115.6898602636933
 30
0.0
 10
191.2899073455668
 20
115.5120517151584
 30
0.0
  0
SPLINE
  5
96
330
1F
100
AcDbEntity
  8
0
  6
Continuous
 62
     7
370
    15
100
AcDbSpline
210
0.0
220
0.0
230
1.0
 70
    24
 71
     3
 72
    10
 73
     6
 74
     0
 42
0.000000001
 43
0.00000001
 40
0.0
 40
0.0
 40
0.0
 40
0.0
 40
0.4391222274230461
 40
0.7513714712594602
 40
1.0
 40
1.0
 40
1.0
 40
1.0
 10
194.7503451129786
 20
118.5712515764298
 30
0.0
 10
194.4368565471703
 20
118.676275489326
 30
0.0
 10
193.9004538096075
 20
118.8559793781802
 30
0.0
 10
193.1207041162211
 20
119.1172085674104
 30
0.0
 10
192.7326026923716
 20
119.247229035711
 30
0.0
 10
192.5605632735682
 20
119.3048651185089
 30
0.0
  0
CIRCLE
  5
97
330
1F
100
AcDbEntity
  8
0
  6
Continuous
 62
     7
370
    15
100
AcDbCircle
 10
193.0201262293
 20
117.0416516458
 30
0.0
 40
3.300000000000006
  0
ARC
  5
98
330
1F
100
AcDbEntity
  8
0
  6
Continuous
 62
     7
370
    15
100
AcDbCircle
 10
193.0201262293
 20
117.0416516458
 30
0.0
 40
1.999999999999993
100
AcDbArc
 50
311.4782889041
 51
11.4782889041
  0
ARC
  5
99
330
1F
100
AcDbEntity
  8
0
  6
Continuous
 62
     7
370
    15
100
AcDbCircle
 10
193.0201262293
 20
117.0416516458
 30
0.0
 40
2.0
100
AcDbArc
 50
251.4782889041
 51
311.4782889041
  0
ARC
  5
9A
330
1F
100
AcDbEntity
  8
0
  6
Continuous
 62
     7
370
    15
100
AcDbCircle
 10
193.0201262293
 20
117.0416516458
 30
0.0
 40
2.000000000000022
100
AcDbArc
 50
131.4782889041
 51
191.4782889041
  0
ARC
  5
9B
330
1F
100
AcDbEntity
  8
0
  6
Continuous
 62
     7
370
    15
100
AcDbCircle
 10
193.0201262293
 20
117.0416516458
 30
0.0
 40
2.000000000000014
100
AcDbArc
 50
11.4782889041
 51
71.4782889041
  0
ARC
  5
9C
330
1F
100
AcDbEntity
  8
0
  6
Continuous
 62
     7
370
    15
100
AcDbCircle
 10
193.0201262293
 20
117.0416516458
 30
0.0
 40
2.000000000000012
100
AcDbArc
 50
191.4782889041
 51
251.4782889041
  0
ARC
  5
9D
330
1F
100
AcDbEntity
  8
0
  6
Continuous
 62
     7
370
    15
100
AcDbCircle
 10
193.0201262293
 20
117.0416516458
 30
0.0
 40
2.000000000000022
100
AcDbArc
 50
71.4782889041
 51
131.4782889041
  0
SPLINE
  5
9E
330
1F
100
AcDbEntity
  8
0
  6
Continuous
 62
     7
370
    15
100
AcDbSpline
210
0.0
220
0.0
230
1.0
 70
     8
 71
     3
 72
    10
 73
     6
 74
     0
 42
0.000000001
 43
0.00000001
 40
0.0
 40
0.0
 40
0.0
 40
0.0
 40
0.5
 40
0.5
 40
1.0
 40
1.0
 40
1.0
 40
1.0
 10
172.0467346333182
 20
146.9461123671482
 30
0.0
 10
171.7306308021788
 20
146.326249808871
 30
0.0
 10
171.4008517578339
 20
145.6803490735722
 30
0.0
 10
170.7286284854451
 20
144.3659304332716
 30
0.0
 10
170.3864953195146
 20
143.6980082062593
 30
0.0
 10
170.0393149910004
 20
143.0216704737779
 30
0.0
  0
SPLINE
  5
9F
330
1F
100
AcDbEntity
  8
0
  6
Continuous
 62
     7
370
    15
100
AcDbSpline
210
0.0
220
0.0
230
1.0
 70
     8
 71
     3
 72
     9
 73
     5
 74
     0
 42
0.000000001
 43
0.00000001
 40
0.0
 40
0.0
 40
0.0
 40
0.0
 40
0.5067583433954557
 40
1.0
 40
1.0
 40
1.0
 40
1.0
 10
172.6957567722572
 20
147.903786753143
 30
0.0
 10
172.5853568149089
 20
147.7417124934784
 30
0.0
 10
172.3675015811723
 20
147.4218869557702
 30
0.0
 10
172.1529082350983
 20
147.1035384108181
 30
0.0
 10
172.0470618575845
 20
146.9465156471283
 30
0.0
  0
LINE
  5
A0
330
1F
100
AcDbEntity
  8
0
  6
Continuous
 62
     7
370
    15
100
AcDbLine
 10
172.6951262293
 20
86.1805536263
 30
0.0
 11
172.6951262293
 21
147.9027334003
 31
0.0
  0
SPLINE
  5
A1
330
1F
100
AcDbEntity
  8
0
  6
Continuous
 62
     7
370
    15
100
AcDbSpline
210
0.0
220
0.0
230
1.0
 70
     8
 71
     3
 72
     9
 73
     5
 74
     0
 42
0.000000001
 43
0.00000001
 40
0.0
 40
0.0
 40
0.0
 40
0.0
 40
0.4932438861072345
 40
1.0
 40
1.0
 40
1.0
 40
1.0
 10
172.0470479425617
 20
87.13678554408922
 30
0.0
 10
172.1528944330547
 20
86.97976163218364
 30
0.0
 10
172.3674870382025
 20
86.66141219830651
 30
0.0
 10
172.5853410871891
 20
86.34158671056629
 30
0.0
 10
172.6957399584493
 20
86.1795131892752
 30
0.0
  0
SPLINE
  5
A2
330
1F
100
AcDbEntity
  8
0
  6
Continuous
 62
     7
370
    15
100
AcDbSpline
210
0.0
220
0.0
230
1.0
 70
     8
 71
     3
 72
    10
 73
     6
 74
     0
 42
0.000000001
 43
0.00000001
 40
0.0
 40
0.0
 40
0.0
 40
0.0
 40
0.5
 40
0.5
 40
1.0
 40
1.0
 40
1.0
 40
1.0
 10
172.0467287136504
 20
87.13720253258899
 30
0.0
 10
171.7305496109763
 20
87.75721268460269
 30
0.0
 10
171.4001073838093
 20
88.4044107504704
 30
0.0
 10
170.7283958631265
 20
89.71782667506419
 30
0.0
 10
170.3864219880946
 20
90.38543794136699
 30
0.0
 10
170.0393149910004
 20
91.06163281781015
 30
0.0
  0
SPLINE
  5
A3
330
1F
100
AcDbEntity
  8
0
  6
Continuous
 62
     7
370
    15
100
AcDbSpline
210
0.0
220
0.0
230
1.0
 70
     8
 71
     3
 72
    11
 73
     7
 74
     0
 42
0.000000001
 43
0.00000001
 40
0.0
 40
0.0
 40
0.0
 40
0.0
 40
0.2488814606714261
 40
0.5011921284371436
 40
0.7520447562616431
 40
1.0
 40
1.0
 40
1.0
 40
1.0
 10
175.0696260592556
 20
148.5415019003876
 30
0.0
 10
175.0398477297635
 20
148.5323698742431
 30
0.0
 10
174.9798807707976
 20
148.5139799965561
 30
0.0
 10
174.4879587090189
 20
148.3699427480695
 30
0.0
 10
173.7598892863902
 20
148.1605396699586
 30
0.0
 10
173.049145815218
 20
147.988335400609
 30
0.0
 10
172.6958382980816
 20
147.9027334002926
 30
0.0
  0
SPLINE
  5
A4
330
1F
100
AcDbEntity
  8
0
  6
Continuous
 62
     7
370
    15
100
AcDbSpline
210
0.0
220
0.0
230
1.0
 70
     8
 71
     3
 72
    24
 73
    20
 74
     0
 42
0.000000001
 43
0.00000001
 40
0.0
 40
0.0
 40
0.0
 40
0.0
 40
0.0452116620202646
 40
0.0902979724668112
 40
0.1353071308763714
 40
0.18028758478476
 40
0.2252878744154589
 40
0.2703564758778689
 40
0.3155416453969173
 40
0.3608912670572131
 40
0.4064527064150013
 40
0.4522726721183896
 40
0.4983970873941831
 40
0.5831110774795425
 40
0.6669835141650492
 40
0.7503080981450883
 40
0.8333843407995101
 40
0.9165144378022373
 40
1.0
 40
1.0
 40
1.0
 40
1.0
 10
172.6957449226903
 20
86.18055362625854
 30
0.0
 10
172.7634486645981
 20
86.16479458523996
 30
0.0
 10
172.8986684364336
 20
86.13332019592505
 30
0.0
 10
173.0913301532836
 20
86.08685939258395
 30
0.0
 10
173.2760670249414
 20
86.04122841295037
 30
0.0
 10
173.4521849662388
 20
85.99660311551634
 30
0.0
 10
173.6198687588536
 20
85.95311582891725
 30
0.0
 10
173.7790682431457
 20
85.91091478111953
 30
0.0
 10
173.9297963816245
 20
85.87014818880822
 30
0.0
 10
174.0720493350601
 20
85.83096843620118
 30
0.0
 10
174.2058280901295
 20
85.7935311444002
 30
0.0
 10
174.3311320010759
 20
85.75799456042837
 30
0.0
 10
174.4802392092555
 20
85.71527574031582
 30
0.0
 10
174.6410972693168
 20
85.66874001923985
 30
0.0
 10
174.7971100310371
 20
85.62305402810239
 30
0.0
 10
174.9187648249189
 20
85.58701405139107
 30
0.0
 10
175.0052120945808
 20
85.56114029265599
 30
0.0
 10
175.0595491400286
 20
85.5447284796876
 30
0.0
 10
175.0665955138379
 20
85.54267871954062
 30
0.0
 10
175.0701262172649
 20
85.54165165294278
 30
0.0
  0
SPLINE
  5
A5
330
1F
100
AcDbEntity
  8
0
  6
Continuous
 62
     7
370
    15
100
AcDbSpline
210
0.0
220
0.0
230
1.0
 70
     8
 71
     3
 72
     8
 73
     4
 74
     0
 42
0.000000001
 43
0.00000001
 40
0.0
 40
0.0
 40
0.0
 40
0.0
 40
0.0012389803509652
 40
0.0012389803509652
 40
0.0012389803509652
 40
0.0012389803509652
 10
163.2026877728064
 20
146.4956743685805
 30
0.0
 10
163.0175677996736
 20
146.7567243499595
 30
0.0
 10
162.8316893519147
 20
147.0175059630785
 30
0.0
 10
162.6451262292727
 20
147.2780417487959
 30
0.0
  0
SPLINE
  5
A6
330
1F
100
AcDbEntity
  8
0
  6
Continuous
 62
     7
370
    15
100
AcDbSpline
210
0.0
220
0.0
230
1.0
 70
     8
 71
     3
 72
     8
 73
     4
 74
     0
 42
0.000000001
 43
0.00000001
 40
0.0
 40
0.0
 40
0.0
 40
0.0
 40
1.0
 40
1.0
 40
1.0
 40
1.0
 10
165.300937467545
 20
142.708897310259
 30
0.0
 10
164.6046441015034
 20
143.9728356783739
 30
0.0
 10
163.9048489363123
 20
145.2348911238821
 30
0.0
 10
163.2026877728065
 20
146.4956743685805
 30
0.0
  0
SPLINE
  5
A7
330
1F
100
AcDbEntity
  8
0
  6
Continuous
 62
     7
370
    15
100
AcDbSpline
210
0.0
220
0.0
230
1.0
 70
     8
 71
     3
 72
     8
 73
     4
 74
     0
 42
0.000000001
 43
0.00000001
 40
0.0
 40
0.0
 40
0.0
 40
0.0
 40
1.0
 40
1.0
 40
1.0
 40
1.0
 10
165.3009374675449
 20
91.37440598132898
 30
0.0
 10
164.604619326887
 20
90.11042264138219
 30
0.0
 10
163.9048221347765
 20
88.84836404353022
 30
0.0
 10
163.2026877728064
 20
87.58762892300753
 30
0.0
  0
SPLINE
  5
A8
330
1F
100
AcDbEntity
  8
0
  6
Continuous
 62
     7
370
    15
100
AcDbSpline
210
0.0
220
0.0
230
1.0
 70
     8
 71
     3
 72
     8
 73
     4
 74
     0
 42
0.000000001
 43
0.00000001
 40
0.0
 40
0.0
 40
0.0
 40
0.0
 40
0.0012389803509652
 40
0.0012389803509652
 40
0.0012389803509652
 40
0.0012389803509652
 10
162.6451262292727
 20
86.80526154279218
 30
0.0
 10
162.8316893519147
 20
87.06579732850953
 30
0.0
 10
163.0175677996736
 20
87.32657894162854
 30
0.0
 10
163.2026877728064
 20
87.58762892300753
 30
0.0
  0
LINE
  5
A9
330
1F
100
AcDbEntity
  8
0
  6
Continuous
 62
     7
370
    15
100
AcDbLine
 10
162.6451262293
 20
86.8052615428
 30
0.0
 11
162.6451262293
 21
147.2780417488
 31
0.0
  0
LINE
  5
AA
330
1F
100
AcDbEntity
  8
0
  6
Continuous
 62
     7
370
    15
100
AcDbLine
 10
178.0701262293
 20
86.5416516458
 30
0.0
 11
178.0701262293
 21
147.5416516455
 31
0.0
  0
LINE
  5
AB
330
1F
100
AcDbEntity
  8
0
  6
Continuous
 62
     7
370
    15
100
AcDbLine
 10
162.6451262293
 20
147.2780417488
 30
0.0
 11
154.0701262293
 21
147.2780417488
 31
0.0
  0
LINE
  5
AC
330
1F
100
AcDbEntity
  8
0
  6
Continuous
 62
     7
370
    15
100
AcDbLine
 10
154.0701262293
 20
86.8052615428
 30
0.0
 11
162.6451262293
 21
86.8052615428
 31
0.0
  0
LINE
  5
AD
330
1F
100
AcDbEntity
  8
0
  6
Continuous
 62
     7
370
    15
100
AcDbLine
 10
153.0701262293
 20
87.9152461003
 30
0.0
 11
153.0701262293
 21
146.1680571913
 31
0.0
  0
SPLINE
  5
AE
330
1F
100
AcDbEntity
  8
0
  6
Continuous
 62
     7
370
    15
100
AcDbSpline
210
0.0
220
0.0
230
1.0
 70
     8
 71
     3
 72
    12
 73
     8
 74
     0
 42
0.000000001
 43
0.00000001
 40
0.0
 40
0.0
 40
0.0
 40
0.0
 40
0.25
 40
0.25
 40
0.5
 40
0.5
 40
1.0
 40
1.0
 40
1.0
 40
1.0
 10
153.4571590522382
 20
147.108641545615
 30
0.0
 10
153.4052983010501
 20
147.0518289733006
 30
0.0
 10
153.3565665040312
 20
146.9898367870488
 30
0.0
 10
153.2663934941137
 20
146.8537837139248
 30
0.0
 10
153.2246162458288
 20
146.778877611326
 30
0.0
 10
153.1185273759829
 20
146.5407509760287
 30
0.0
 10
153.0701262292727
 20
146.3573442444599
 30
0.0
 10
153.0701262292727
 20
146.168057191278
 30
0.0
  0
SPLINE
  5
AF
330
1F
100
AcDbEntity
  8
0
  6
Continuous
 62
     7
370
    15
100
AcDbSpline
210
0.0
220
0.0
230
1.0
 70
     8
 71
     3
 72
     8
 73
     4
 74
     0
 42
0.000000001
 43
0.00000001
 40
0.0
 40
0.0
 40
0.0
 40
0.0
 40
1.0
 40
1.0
 40
1.0
 40
1.0
 10
154.0701262292727
 20
147.2780417487959
 30
0.0
 10
153.8437819156728
 20
147.2780417487959
 30
0.0
 10
153.6263297952677
 20
147.214673279775
 30
0.0
 10
153.4571590522382
 20
147.108641545615
 30
0.0
  0
SPLINE
  5
B0
330
1F
100
AcDbEntity
  8
0
  6
Continuous
 62
     7
370
    15
100
AcDbSpline
210
0.0
220
0.0
230
1.0
 70
     8
 71
     3
 72
     8
 73
     4
 74
     0
 42
0.000000001
 43
0.00000001
 40
0.0
 40
0.0
 40
0.0
 40
0.0
 40
1.0
 40
1.0
 40
1.0
 40
1.0
 10
153.4571590522382
 20
86.97466174597305
 30
0.0
 10
153.6267525578902
 20
86.86836503541586
 30
0.0
 10
153.8431212502234
 20
86.80526154279218
 30
0.0
 10
154.0701262292727
 20
86.80526154279218
 30
0.0
  0
SPLINE
  5
B1
330
1F
100
AcDbEntity
  8
0
  6
Continuous
 62
     7
370
    15
100
AcDbSpline
210
0.0
220
0.0
230
1.0
 70
     8
 71
     3
 72
    12
 73
     8
 74
     0
 42
0.000000001
 43
0.00000001
 40
0.0
 40
0.0
 40
0.0
 40
0.0
 40
0.2499999999999977
 40
0.2499999999999977
 40
0.4999999999999953
 40
0.4999999999999953
 40
1.0
 40
1.0
 40
1.0
 40
1.0
 10
153.4571590522382
 20
86.97466174597307
 30
0.0
 10
153.4052983010501
 20
87.03147431828745
 30
0.0
 10
153.3565665040312
 20
87.09346650453926
 30
0.0
 10
153.2663934941137
 20
87.22951957766327
 30
0.0
 10
153.2246162458288
 20
87.30442568026197
 30
0.0
 10
153.1185273759829
 20
87.54255231555939
 30
0.0
 10
153.0701262292727
 20
87.72595904712817
 30
0.0
 10
153.0701262292727
 20
87.91524610031004
 30
0.0
  0
SPLINE
  5
B2
330
1F
100
AcDbEntity
  8
0
  6
Continuous
 62
     7
370
    15
100
AcDbSpline
210
0.0
220
0.0
230
1.0
 70
     8
 71
     3
 72
    12
 73
     8
 74
     0
 42
0.000000001
 43
0.00000001
 40
0.0
 40
0.0
 40
0.0
 40
0.0
 40
0.25
 40
0.25
 40
0.5
 40
0.5
 40
1.0
 40
1.0
 40
1.0
 40
1.0
 10
170.0393149910004
 20
143.0216704737779
 30
0.0
 10
170.0034108406638
 20
142.9517260396297
 30
0.0
 10
169.9608792885344
 20
142.8884746765719
 30
0.0
 10
169.8640850116944
 20
142.773416021656
 30
0.0
 10
169.80899533343
 20
142.721087487944
 30
0.0
 10
169.6308620998761
 20
142.5873025848589
 30
0.0
 10
169.4934850078735
 20
142.5267548177007
 30
0.0
 10
169.3464946679736
 20
142.5075548693169
 30
0.0
  0
SPLINE
  5
B3
330
1F
100
AcDbEntity
  8
0
  6
Continuous
 62
     7
370
    15
100
AcDbSpline
210
0.0
220
0.0
230
1.0
 70
     8
 71
     3
 72
    12
 73
     8
 74
     0
 42
0.000000001
 43
0.00000001
 40
0.0
 40
0.0
 40
0.0
 40
0.0
 40
0.25
 40
0.25
 40
0.5
 40
0.5
 40
1.0
 40
1.0
 40
1.0
 40
1.0
 10
170.0393149910004
 20
91.06163281781014
 30
0.0
 10
170.0034108406638
 20
91.13157725195829
 30
0.0
 10
169.9608792885344
 20
91.19482861501612
 30
0.0
 10
169.8640850116944
 20
91.30988726993206
 30
0.0
 10
169.80899533343
 20
91.36221580364403
 30
0.0
 10
169.6308620998761
 20
91.49600070672915
 30
0.0
 10
169.4934850078735
 20
91.5565484738873
 30
0.0
 10
169.3464946679736
 20
91.57574842227119
 30
0.0
  0
SPLINE
  5
B4
330
1F
100
AcDbEntity
  8
0
  6
Continuous
 62
     7
370
    15
100
AcDbSpline
210
0.0
220
0.0
230
1.0
 70
     8
 71
     3
 72
    10
 73
     6
 74
     0
 42
0.000000001
 43
0.00000001
 40
0.0
 40
0.0
 40
0.0
 40
0.0
 40
0.5
 40
0.5
 40
1.0
 40
1.0
 40
1.0
 40
1.0
 10
165.9937577905725
 20
142.2893743153735
 30
0.0
 10
165.8517404781255
 20
142.2893743153735
 30
0.0
 10
165.7112934312632
 20
142.329864167583
 30
0.0
 10
165.4697035120019
 20
142.4777999975222
 30
0.0
 10
165.3690260697487
 20
142.5853002735017
 30
0.0
 10
165.3009374675451
 20
142.7088973102588
 30
0.0
  0
SPLINE
  5
B5
330
1F
100
AcDbEntity
  8
0
  6
Continuous
 62
     7
370
    15
100
AcDbSpline
210
0.0
220
0.0
230
1.0
 70
     8
 71
     3
 72
    10
 73
     6
 74
     0
 42
0.000000001
 43
0.00000001
 40
0.0
 40
0.0
 40
0.0
 40
0.0
 40
0.5
 40
0.5
 40
1.0
 40
1.0
 40
1.0
 40
1.0
 10
165.9937577905725
 20
91.79392897621449
 30
0.0
 10
165.8529004260618
 20
91.79392897621449
 30
0.0
 10
165.7100662945877
 20
91.75282507039582
 30
0.0
 10
165.4698046038143
 20
91.60542717709484
 30
0.0
 10
165.3690983347348
 20
91.49813419625521
 30
0.0
 10
165.3009374675449
 20
91.37440598132898
 30
0.0
  0
LINE
  5
B6
330
1F
100
AcDbEntity
  8
0
  6
Continuous
 62
     7
370
    15
100
AcDbLine
 10
166.0201262293
 20
91.7939289762
 30
0.0
 11
165.9937577906
 21
91.7939289762
 31
0.0
  0
LINE
  5
B7
330
1F
100
AcDbEntity
  8
0
  6
Continuous
 62
     7
370
    15
100
AcDbLine
 10
166.0201262293
 20
142.2893743154
 30
0.0
 11
165.9937577906
 21
142.2893743154
 31
0.0
  0
SPLINE
  5
B8
330
1F
100
AcDbEntity
  8
0
  6
Continuous
 62
     7
370
    15
100
AcDbSpline
210
0.0
220
0.0
230
1.0
 70
     8
 71
     3
 72
    10
 73
     6
 74
     0
 42
0.000000001
 43
0.00000001
 40
0.0
 40
0.0
 40
0.0
 40
0.0
 40
0.5000000000000001
 40
0.5000000000000001
 40
1.0
 40
1.0
 40
1.0
 40
1.0
 10
169.3464946679728
 20
142.5075548693198
 30
0.0
 10
168.8245799435769
 20
142.4393821188116
 30
0.0
 10
168.2857287634675
 20
142.3847588538537
 30
0.0
 10
167.1743661214354
 20
142.3096630009623
 30
0.0
 10
166.5975253442394
 20
142.2893743153735
 30
0.0
 10
166.0201262292727
 20
142.2893743153735
 30
0.0
  0
SPLINE
  5
B9
330
1F
100
AcDbEntity
  8
0
  6
Continuous
 62
     7
370
    15
100
AcDbSpline
210
0.0
220
0.0
230
1.0
 70
     8
 71
     3
 72
    10
 73
     6
 74
     0
 42
0.000000001
 43
0.00000001
 40
0.0
 40
0.0
 40
0.0
 40
0.0
 40
0.5000000000000001
 40
0.5000000000000001
 40
1.0
 40
1.0
 40
1.0
 40
1.0
 10
169.3464946679728
 20
91.57574842226826
 30
0.0
 10
168.8245799435769
 20
91.64392117277644
 30
0.0
 10
168.2857287634675
 20
91.69854443773438
 30
0.0
 10
167.1743661214354
 20
91.77364029062574
 30
0.0
 10
166.5975253442394
 20
91.79392897621449
 30
0.0
 10
166.0201262292727
 20
91.79392897621449
 30
0.0
  0
SPLINE
  5
BA
330
1F
100
AcDbEntity
  8
0
  6
Continuous
 62
     7
370
    15
100
AcDbSpline
210
0.0
220
0.0
230
1.0
 70
    24
 71
     3
 72
    16
 73
    12
 74
     0
 42
0.000000001
 43
0.00000001
 40
0.0
 40
0.0
 40
0.0
 40
0.0
 40
0.5
 40
0.5
 40
0.75
 40
0.75
 40
0.875
 40
0.875
 40
0.9375
 40
0.9375
 40
1.0
 40
1.0
 40
1.0
 40
1.0
 10
153.0701262292727
 20
139.541651645794
 30
0.0
 10
153.0701262292727
 20
139.541651645794
 30
0.0
 10
152.9893262048086
 20
139.541651645794
 30
0.0
 10
152.8717543118137
 20
139.541651645794
 30
0.0
 10
152.8328125838498
 20
139.541651645794
 30
0.0
 10
152.7902373695992
 20
139.541651645794
 30
0.0
 10
152.7787031249883
 20
139.541651645794
 30
0.0
 10
152.7669335848497
 20
139.541651645794
 30
0.0
 10
152.7639263044187
 20
139.541651645794
 30
0.0
 10
152.7598967700221
 20
139.541651645794
 30
0.0
 10
152.7588749905644
 20
139.541651645794
 30
0.0
 10
152.7588750949783
 20
139.541651645794
 30
0.0
  0
SPLINE
  5
BB
330
1F
100
AcDbEntity
  8
0
  6
Continuous
 62
     7
370
    15
100
AcDbSpline
210
0.0
220
0.0
230
1.0
 70
    24
 71
     3
 72
     9
 73
     5
 74
     0
 42
0.000000001
 43
0.00000001
 40
0.0
 40
0.0
 40
0.0
 40
0.0
 40
0.7022321769713785
 40
1.0
 40
1.0
 40
1.0
 40
1.0
 10
152.7588759492805
 20
94.54165164579403
 30
0.0
 10
152.7777191628679
 20
94.54165164579403
 30
0.0
 10
152.8045524727125
 20
94.54165164579403
 30
0.0
 10
152.8844628422618
 20
94.54165164579403
 30
0.0
 10
152.9082575790399
 20
94.54165164579403
 30
0.0
  0
LINE
  5
BC
330
1F
100
AcDbEntity
  8
0
  6
Continuous
 62
     7
370
    15
100
AcDbLine
 10
151.0701262293
 20
94.8166516458
 30
0.0
 11
151.0701262293
 21
139.2666516458
 31
0.0
  0
SPLINE
  5
BD
330
1F
100
AcDbEntity
  8
0
  6
Continuous
 62
     7
370
    15
100
AcDbSpline
210
0.0
220
0.0
230
1.0
 70
     8
 71
     3
 72
    27
 73
    23
 74
     0
 42
0.000000001
 43
0.00000001
 40
0.0
 40
0.0
 40
0.0
 40
0.0
 40
0.009898300336937
 40
0.0556282744578162
 40
0.0974760349851181
 40
0.1403999949143479
 40
0.185098036838144
 40
0.2308133414762761
 40
0.2814854769637676
 40
0.3333262154045108
 40
0.3902022827682718
 40
0.4485460817944094
 40
0.5087623350449074
 40
0.5706879324915763
 40
0.6315060688979272
 40
0.694134564707641
 40
0.7539772961212987
 40
0.8158557964373698
 40
0.8706958385340859
 40
0.9277136605178236
 40
0.9744358888433879
 40
1.0
 40
1.0
 40
1.0
 40
1.0
 10
198.0103470211976
 20
133.0393288468689
 30
0.0
 10
198.0133437600776
 20
133.0400405806237
 30
0.0
 10
198.0301853800752
 20
133.0440405118548
 30
0.0
 10
197.9478388730124
 20
133.0244116944864
 30
0.0
 10
197.7674794766641
 20
132.9825037646698
 30
0.0
 10
197.4876272959937
 20
132.9201539517148
 30
0.0
 10
197.1160209029728
 20
132.842701107268
 30
0.0
 10
196.6427295869662
 20
132.7528950159321
 30
0.0
 10
196.0720132998924
 20
132.6582131491801
 30
0.0
 10
195.3919145256352
 20
132.5655174924568
 30
0.0
 10
194.6233086171504
 20
132.4877553857787
 30
0.0
 10
193.7754688459563
 20
132.4365272413079
 30
0.0
 10
192.882847662702
 20
132.4220214156555
 30
0.0
 10
191.9814604209266
 20
132.4490328599261
 30
0.0
 10
191.0978340613082
 20
132.5154488291281
 30
0.0
 10
190.2784478894225
 20
132.611904362773
 30
0.0
 10
189.5351731311907
 20
132.7273513285385
 30
0.0
 10
188.9268932594894
 20
132.8413099285909
 30
0.0
 10
188.4530779374966
 20
132.941511687228
 30
0.0
 10
188.1638019422165
 20
133.0075688391075
 30
0.0
 10
188.0258827485563
 20
133.0402759279758
 30
0.0
 10
188.034046497291
 20
133.0383404221711
 30
0.0
 10
188.0369336123615
 20
133.0376559292795
 30
0.0
  0
SPLINE
  5
BE
330
1F
100
AcDbEntity
  8
0
  6
Continuous
 62
     7
370
    15
100
AcDbSpline
210
0.0
220
0.0
230
1.0
 70
    11
 71
     3
 72
    82
 73
    78
 74
     0
 42
0.000000001
 43
0.00000001
 40
0.0
 40
0.0
 40
0.0
 40
0.0
 40
0.0312499999999996
 40
0.0312499999999996
 40
0.0624999999999993
 40
0.0624999999999993
 40
0.0937499999999989
 40
0.0937499999999989
 40
0.1249999999999986
 40
0.1249999999999986
 40
0.1562499999999983
 40
0.1562499999999983
 40
0.1874999999999979
 40
0.1874999999999979
 40
0.2187499999999976
 40
0.2187499999999976
 40
0.2343749999999978
 40
0.2343749999999978
 40
0.2499999999999979
 40
0.2499999999999979
 40
0.2812499999999976
 40
0.2812499999999976
 40
0.2968749999999977
 40
0.2968749999999977
 40
0.3124999999999978
 40
0.3124999999999978
 40
0.343749999999998
 40
0.343749999999998
 40
0.3593749999999981
 40
0.3593749999999981
 40
0.3749999999999982
 40
0.3749999999999982
 40
0.3906249999999983
 40
0.3906249999999983
 40
0.4062499999999984
 40
0.4062499999999984
 40
0.4374999999999984
 40
0.4374999999999984
 40
0.4687499999999984
 40
0.4687499999999984
 40
0.4999999999999984
 40
0.4999999999999984
 40
0.5312499999999984
 40
0.5312499999999984
 40
0.5624999999999983
 40
0.5624999999999983
 40
0.5937499999999983
 40
0.5937499999999983
 40
0.6249999999999983
 40
0.6249999999999983
 40
0.6562499999999982
 40
0.6562499999999982
 40
0.6874999999999982
 40
0.6874999999999982
 40
0.7187499999999982
 40
0.7187499999999982
 40
0.7499999999999981
 40
0.7499999999999981
 40
0.7812499999999981
 40
0.7812499999999981
 40
0.8124999999999981
 40
0.8124999999999981
 40
0.8281249999999981
 40
0.8281249999999981
 40
0.8437499999999982
 40
0.8437499999999982
 40
0.8749999999999983
 40
0.8749999999999983
 40
0.8906249999999986
 40
0.8906249999999986
 40
0.9062499999999987
 40
0.9062499999999987
 40
0.9374999999999991
 40
0.9374999999999991
 40
0.9687499999999994
 40
0.9687499999999994
 40
1.0
 40
1.0
 40
1.0
 40
1.0
 10
189.6999432050909
 20
120.3140502125417
 30
0.0
 10
189.943000729969
 20
120.5040907353966
 30
0.0
 10
190.2000878269387
 20
120.6684864044275
 30
0.0
 10
190.7399977507621
 20
120.9511568103909
 30
0.0
 10
191.0244539393222
 20
121.0698801151204
 30
0.0
 10
191.6127957255412
 20
121.2583442878332
 30
0.0
 10
191.9117115443178
 20
121.3267995790696
 30
0.0
 10
192.5186871557865
 20
121.4145687049764
 30
0.0
 10
192.8293673397945
 20
121.4337544149824
 30
0.0
 10
193.4473785668875
 20
121.4207882786104
 30
0.0
 10
193.7523624522995
 20
121.3891742499421
 30
0.0
 10
194.3544526360459
 20
121.2764691288696
 30
0.0
 10
194.6542450024432
 20
121.1943240750187
 30
0.0
 10
195.2314702037848
 20
120.9816000050273
 30
0.0
 10
195.5073950290837
 20
120.8521928518331
 30
0.0
 10
195.9021642854934
 20
120.6227437993906
 30
0.0
 10
196.0305469773607
 20
120.5403316556589
 30
0.0
 10
196.2805980303602
 20
120.3629710930707
 30
0.0
 10
196.4026606979464
 20
120.2675927656336
 30
0.0
 10
196.750384072985
 20
119.9680200441194
 30
0.0
 10
196.9603129591642
 20
119.7490047560636
 30
0.0
 10
197.2406731916373
 20
119.3894716215794
 30
0.0
 10
197.3283283611413
 20
119.2644210249505
 30
0.0
 10
197.4911194384094
 20
119.0029897406858
 30
0.0
 10
197.5659949433234
 20
118.8667263671264
 30
0.0
 10
197.7645007443109
 20
118.4519897812596
 30
0.0
 10
197.8647517476728
 20
118.1639624521375
 30
0.0
 10
197.9636847679481
 20
117.7132647375857
 30
0.0
 10
197.9880981920127
 20
117.5586351024874
 30
0.0
 10
198.0175876830413
 20
117.2498260353828
 30
0.0
 10
198.022837996912
 20
117.0958330574728
 30
0.0
 10
198.0148200206799
 20
116.7886501906231
 30
0.0
 10
198.0015508898445
 20
116.6354603375437
 30
0.0
 10
197.9563561102567
 20
116.3298887885197
 30
0.0
 10
197.9240995015694
 20
116.1765705509573
 30
0.0
 10
197.8016823581676
 20
115.7289054159711
 30
0.0
 10
197.6862959668424
 20
115.4443115954134
 30
0.0
 10
197.3923121038249
 20
114.9007843148195
 30
0.0
 10
197.2158902936142
 20
114.6468957694335
 30
0.0
 10
196.8176722531311
 20
114.1819897242055
 30
0.0
 10
196.5924054432111
 20
113.9675353490152
 30
0.0
 10
196.1109396134029
 20
113.5887938965318
 30
0.0
 10
195.8540714859462
 20
113.4229743180666
 30
0.0
 10
195.3091521929882
 20
113.1359641869686
 30
0.0
 10
195.0229835093757
 20
113.0163316327428
 30
0.0
 10
194.4395418236605
 20
112.8282430652503
 30
0.0
 10
194.1400940825324
 20
112.7586146308291
 30
0.0
 10
193.5253639184163
 20
112.6688544070125
 30
0.0
 10
193.2168453720471
 20
112.6498659699853
 30
0.0
 10
192.6029331567931
 20
112.6618732122701
 30
0.0
 10
192.296650129709
 20
112.692734851452
 30
0.0
 10
191.6854901257863
 20
112.806649892567
 30
0.0
 10
191.3891444387399
 20
112.8881407194226
 30
0.0
 10
190.8154540907412
 20
113.098932337127
 30
0.0
 10
190.5376986201931
 20
113.2283504105602
 30
0.0
 10
190.0029928811718
 20
113.5390263617106
 30
0.0
 10
189.7541259839766
 20
113.7155481225966
 30
0.0
 10
189.2934872380906
 20
114.1119328094918
 30
0.0
 10
189.0808100119263
 20
114.3328175062605
 30
0.0
 10
188.7012721022211
 20
114.8202690199108
 30
0.0
 10
188.540040482401
 20
115.0792471085996
 30
0.0
 10
188.3425271400244
 20
115.4917453126619
 30
0.0
 10
188.2841347569608
 20
115.6332793883605
 30
0.0
 10
188.1832967683664
 20
115.92503363197
 30
0.0
 10
188.1407957450706
 20
116.0760871783189
 30
0.0
 10
188.0422579262234
 20
116.5291504277712
 30
0.0
 10
188.0131606181248
 20
116.8348874323243
 30
0.0
 10
188.0256883657762
 20
117.299178542333
 30
0.0
 10
188.0395385836474
 20
117.4557842593066
 30
0.0
 10
188.0855690676179
 20
117.7623131505705
 30
0.0
 10
188.1176668328658
 20
117.9131196703657
 30
0.0
 10
188.2401619006314
 20
118.3584679812684
 30
0.0
 10
188.3585917238185
 20
118.6490849046278
 30
0.0
 10
188.6528353815518
 20
119.1899953583119
 30
0.0
 10
188.8282059677688
 20
119.4419733374807
 30
0.0
 10
189.2323130094252
 20
119.9115610773561
 30
0.0
 10
189.4568856802128
 20
120.1240096896868
 30
0.0
 10
189.6999432050909
 20
120.3140502125417
 30
0.0
  0
LINE
  5
BF
330
1F
100
AcDbEntity
  8
0
  6
Continuous
 62
     7
370
    15
100
AcDbLine
 10
204.7701262293
 20
117.0416516458
 30
0.0
 11
204.7701262293
 21
101.0416516458
 31
0.0
  0
LINE
  5
C0
330
1F
100
AcDbEntity
  8
0
  6
Continuous
 62
     7
370
    15
100
AcDbLine
 10
204.7701262293
 20
133.0416516458
 30
0.0
 11
204.7701262293
 21
117.0416516458
 31
0.0
  0
CIRCLE
  5
C1
330
1F
100
AcDbEntity
  8
0
  6
Continuous
 62
     7
370
    15
100
AcDbCircle
 10
193.0201262293
 20
117.0416516458
 30
0.0
 40
3.5
  0
LINE
  5
C2
330
1F
100
AcDbEntity
  8
0
  6
Continuous
 62
     7
370
    15
100
AcDbLine
 10
205.0701262293
 20
117.0416516458
 30
0.0
 11
205.0701262293
 21
101.3416516458
 31
0.0
  0
LINE
  5
C3
330
1F
100
AcDbEntity
  8
0
  6
Continuous
 62
     7
370
    15
100
AcDbLine
 10
205.0701262293
 20
132.7416516458
 30
0.0
 11
205.0701262293
 21
117.0416516458
 31
0.0
  0
LINE
  5
C4
330
1F
100
AcDbEntity
  8
0
  6
Continuous
 62
     7
370
    15
100
AcDbLine
 10
85.6701262293
 20
105.2188960488
 30
0.0
 11
85.6701262293
 21
128.8644072413
 31
0.0
  0
CIRCLE
  5
C5
330
1F
100
AcDbEntity
  8
0
  6
HIDDEN
 62
     7
370
     0
100
AcDbCircle
 10
193.0201262293
 20
117.0416516458
 30
0.0
 40
3.999999999999977
  0
LINE
  5
C6
330
1F
100
AcDbEntity
  8
0
  6
HIDDEN
 62
     7
370
     0
100
AcDbLine
 10
195.6694710244
 20
130.8416516458
 30
0.0
 11
197.0201262293
 21
130.8416516458
 31
0.0
  0
LINE
  5
C7
330
1F
100
AcDbEntity
  8
0
  6
HIDDEN
 62
     7
370
     0
100
AcDbLine
 10
189.0201262293
 20
130.8416516458
 30
0.0
 11
195.6694710244
 21
130.8416516458
 31
0.0
  0
LINE
  5
C8
330
1F
100
AcDbEntity
  8
0
  6
HIDDEN
 62
     7
370
     0
100
AcDbLine
 10
195.6694710244
 20
125.6469075341
 30
0.0
 11
197.0201262293
 21
125.6469075341
 31
0.0
  0
LINE
  5
C9
330
1F
100
AcDbEntity
  8
0
  6
HIDDEN
 62
     7
370
     0
100
AcDbLine
 10
189.0201262293
 20
125.6469075341
 30
0.0
 11
195.6694710244
 21
125.6469075341
 31
0.0
  0
LINE
  5
CA
330
1F
100
AcDbEntity
  8
0
  6
HIDDEN
 62
     7
370
     0
100
AcDbLine
 10
194.7884326736
 20
121.5416516458
 30
0.0
 11
195.6899281329
 21
121.5416516458
 31
0.0
  0
LINE
  5
CB
330
1F
100
AcDbEntity
  8
0
  6
HIDDEN
 62
     7
370
     0
100
AcDbLine
 10
190.3503243257
 20
121.5416516458
 30
0.0
 11
194.7884326736
 21
121.5416516458
 31
0.0
  0
SPLINE
  5
CC
330
1F
100
AcDbEntity
  8
0
  6
HIDDEN
 62
     7
370
     0
100
AcDbSpline
210
0.0
220
0.0
230
1.0
 70
     8
 71
     3
 72
    10
 73
     6
 74
     0
 42
0.000000001
 43
0.00000001
 40
0.0
 40
0.0
 40
0.0
 40
0.0
 40
0.4391222274230467
 40
0.7513714712594599
 40
1.0
 40
1.0
 40
1.0
 40
1.0
 10
195.2099080686831
 20
131.4510527225525
 30
0.0
 10
195.1441171623519
 20
131.3140718987219
 30
0.0
 10
195.0315439264771
 20
131.0796873089462
 30
0.0
 10
194.8679001938673
 20
131.1838746015992
 30
0.0
 10
194.7864505105027
 20
131.3689927027403
 30
0.0
 10
194.7503451129786
 20
131.4510527225526
 30
0.0
  0
SPLINE
  5
CD
330
1F
100
AcDbEntity
  8
0
  6
HIDDEN
 62
     7
370
     0
100
AcDbSpline
210
0.0
220
0.0
230
1.0
 70
     8
 71
     3
 72
    10
 73
     6
 74
     0
 42
0.000000001
 43
0.00000001
 40
0.0
 40
0.0
 40
0.0
 40
0.0
 40
0.439122227423046
 40
0.7513714712594599
 40
0.9999999999999999
 40
0.9999999999999999
 40
0.9999999999999999
 40
0.9999999999999999
 10
194.7503451129786
 20
131.4510527225526
 30
0.0
 10
194.4368565471703
 20
131.3140718987219
 30
0.0
 10
193.9004538096075
 20
131.0796873089463
 30
0.0
 10
193.1207041162211
 20
131.1838746015992
 30
0.0
 10
192.7326026923716
 20
131.3689927027403
 30
0.0
 10
192.5605632735682
 20
131.4510527225526
 30
0.0
  0
SPLINE
  5
CE
330
1F
100
AcDbEntity
  8
0
  6
HIDDEN
 62
     7
370
     0
100
AcDbSpline
210
0.0
220
0.0
230
1.0
 70
     8
 71
     3
 72
    11
 73
     7
 74
     0
 42
0.000000001
 43
0.00000001
 40
0.0
 40
0.0
 40
0.0
 40
0.0
 40
0.1849308168246111
 40
0.5198464202157757
 40
0.8714438233692658
 40
0.9999999999999999
 40
0.9999999999999999
 40
0.9999999999999999
 40
0.9999999999999999
 10
192.5605632735682
 20
131.4510527225526
 30
0.0
 10
192.4598560804728
 20
131.3886489341415
 30
0.0
 10
192.1767649509382
 20
131.2132298959822
 30
0.0
 10
191.6483212969473
 20
131.0836264311662
 30
0.0
 10
191.160281961247
 20
131.242333668477
 30
0.0
 10
190.9000254032797
 20
131.4069723980643
 30
0.0
 10
190.8303443898623
 20
131.4510527225525
 30
0.0
  0
SPLINE
  5
CF
330
1F
100
AcDbEntity
  8
0
  6
HIDDEN
 62
     7
370
     0
100
AcDbSpline
210
0.0
220
0.0
230
1.0
 70
     8
 71
     3
 72
    10
 73
     6
 74
     0
 42
0.000000001
 43
0.00000001
 40
0.0
 40
0.0
 40
0.0
 40
0.0
 40
0.4391222274230474
 40
0.7513714712594607
 40
1.0
 40
1.0
 40
1.0
 40
1.0
 10
190.8303443898623
 20
131.4510527225525
 30
0.0
 10
190.8961352961935
 20
131.3140718987219
 30
0.0
 10
191.0087085320683
 20
131.0796873089462
 30
0.0
 10
191.1723522646782
 20
131.1838746015992
 30
0.0
 10
191.2538019480427
 20
131.3689927027402
 30
0.0
 10
191.2899073455668
 20
131.4510527225525
 30
0.0
  0
SPLINE
  5
D0
330
1F
100
AcDbEntity
  8
0
  6
HIDDEN
 62
     7
370
     0
100
AcDbSpline
210
0.0
220
0.0
230
1.0
 70
     8
 71
     3
 72
    10
 73
     6
 74
     0
 42
0.000000001
 43
0.00000001
 40
0.0
 40
0.0
 40
0.0
 40
0.0
 40
0.4391222274230461
 40
0.75137147125946
 40
1.0
 40
1.0
 40
1.0
 40
1.0
 10
191.2899073455668
 20
131.4510527225525
 30
0.0
 10
191.6033959113751
 20
131.3140718987219
 30
0.0
 10
192.1397986489379
 20
131.0796873089462
 30
0.0
 10
192.9195483423243
 20
131.1838746015991
 30
0.0
 10
193.3076497661739
 20
131.3689927027402
 30
0.0
 10
193.4796891849772
 20
131.4510527225525
 30
0.0
  0
SPLINE
  5
D1
330
1F
100
AcDbEntity
  8
0
  6
HIDDEN
 62
     7
370
     0
100
AcDbSpline
210
0.0
220
0.0
230
1.0
 70
     8
 71
     3
 72
    11
 73
     7
 74
     0
 42
0.000000001
 43
0.00000001
 40
0.0
 40
0.0
 40
0.0
 40
0.0
 40
0.1285561766307342
 40
0.4801535797842242
 40
0.8150691831753888
 40
0.9999999999999999
 40
0.9999999999999999
 40
0.9999999999999999
 40
0.9999999999999999
 10
193.4796891849772
 20
131.4510527225525
 30
0.0
 10
193.5493701983946
 20
131.4069723980643
 30
0.0
 10
193.8096267563619
 20
131.242333668477
 30
0.0
 10
194.2976660920621
 20
131.0836264311661
 30
0.0
 10
194.8261097460531
 20
131.2132298959822
 30
0.0
 10
195.1092008755877
 20
131.3886489341415
 30
0.0
 10
195.2099080686831
 20
131.4510527225525
 30
0.0
  0
LINE
  5
D2
330
1F
100
AcDbEntity
  8
0
  6
HIDDEN
 62
     7
370
     0
100
AcDbLine
 10
195.0201262293
 20
125.5416516458
 30
0.0
 11
194.3447986268
 21
125.5416516458
 31
0.0
  0
LINE
  5
D3
330
1F
100
AcDbEntity
  8
0
  6
HIDDEN
 62
     7
370
     0
100
AcDbLine
 10
191.0201262293
 20
125.5416516458
 30
0.0
 11
194.3447986268
 21
125.5416516458
 31
0.0
  0
LINE
  5
D4
330
1F
100
AcDbEntity
  8
0
  6
HIDDEN
 62
     7
370
     0
100
AcDbLine
 10
193.479689185
 20
126.5416516458
 30
0.0
 11
192.3847982653
 21
126.5416516458
 31
0.0
  0
LINE
  5
D5
330
1F
100
AcDbEntity
  8
0
  6
HIDDEN
 62
     7
370
     0
100
AcDbLine
 10
192.3847982653
 20
126.5416516458
 30
0.0
 11
191.2899073456
 21
126.5416516458
 31
0.0
  0
LINE
  5
D6
330
1F
100
AcDbEntity
  8
0
  6
HIDDEN
 62
     7
370
     0
100
AcDbLine
 10
194.3447986268
 20
126.5416516458
 30
0.0
 11
193.479689185
 21
126.5416516458
 31
0.0
  0
LINE
  5
D7
330
1F
100
AcDbEntity
  8
0
  6
HIDDEN
 62
     7
370
     0
100
AcDbLine
 10
193.479689185
 20
126.5416516458
 30
0.0
 11
193.479689185
 21
131.4510527226
 31
0.0
  0
LINE
  5
D8
330
1F
100
AcDbEntity
  8
0
  6
HIDDEN
 62
     7
370
     0
100
AcDbLine
 10
191.2899073456
 20
126.5416516458
 30
0.0
 11
191.0601258677
 21
126.5416516458
 31
0.0
  0
LINE
  5
D9
330
1F
100
AcDbEntity
  8
0
  6
HIDDEN
 62
     7
370
     0
100
AcDbLine
 10
191.2899073456
 20
126.5416516458
 30
0.0
 11
191.2899073456
 21
131.4510527226
 31
0.0
  0
LINE
  5
DA
330
1F
100
AcDbEntity
  8
0
  6
HIDDEN
 62
     7
370
     0
100
AcDbLine
 10
195.2099080687
 20
126.5416516458
 30
0.0
 11
194.3447986268
 21
126.5416516458
 31
0.0
  0
LINE
  5
DB
330
1F
100
AcDbEntity
  8
0
  6
HIDDEN
 62
     7
370
     0
100
AcDbLine
 10
194.750345113
 20
126.5416516458
 30
0.0
 11
194.750345113
 21
131.4510527226
 31
0.0
  0
LINE
  5
DC
330
1F
100
AcDbEntity
  8
0
  6
HIDDEN
 62
     7
370
     0
100
AcDbLine
 10
195.2099080687
 20
126.5416516458
 30
0.0
 11
195.2099080687
 21
131.4510527226
 31
0.0
  0
LINE
  5
DD
330
1F
100
AcDbEntity
  8
0
  6
HIDDEN
 62
     7
370
     0
100
AcDbLine
 10
191.0601258677
 20
126.5416516458
 30
0.0
 11
190.8303443899
 21
126.5416516458
 31
0.0
  0
LINE
  5
DE
330
1F
100
AcDbEntity
  8
0
  6
HIDDEN
 62
     7
370
     0
100
AcDbLine
 10
192.5605632736
 20
126.5416516458
 30
0.0
 11
192.5605632736
 21
131.4510527226
 31
0.0
  0
LINE
  5
DF
330
1F
100
AcDbEntity
  8
0
  6
HIDDEN
 62
     7
370
     0
100
AcDbLine
 10
190.8303443899
 20
126.5416516458
 30
0.0
 11
190.8303443899
 21
131.4510527226
 31
0.0
  0
SPLINE
  5
E0
330
1F
100
AcDbEntity
  8
0
  6
HIDDEN
 62
     7
370
     0
100
AcDbSpline
210
0.0
220
0.0
230
1.0
 70
     8
 71
     3
 72
    17
 73
    13
 74
     0
 42
0.000000001
 43
0.00000001
 40
0.0
 40
0.0
 40
0.0
 40
0.0
 40
0.0000761713254959
 40
0.000096911005636
 40
0.2495239015124056
 40
0.5019879379180217
 40
0.5864061921135888
 40
0.6698668295575636
 40
0.7526588289270318
 40
0.8350782033390178
 40
0.9174249854174269
 40
0.9999999999999999
 40
0.9999999999999999
 40
0.9999999999999999
 40
0.9999999999999999
 10
175.0701262172649
 20
85.54165165294278
 30
0.0
 10
175.0701264364329
 20
85.54165164998619
 30
0.0
 10
175.0701267152753
 20
85.54165164622457
 30
0.0
 10
175.0707403933013
 20
85.54165049833611
 30
0.0
 10
174.9666025168674
 20
85.57386717427053
 30
0.0
 10
174.5981154393337
 20
85.68222832192005
 30
0.0
 10
174.2315030781738
 20
85.78705900045794
 30
0.0
 10
173.9819715138227
 20
85.85675170516474
 30
0.0
 10
173.7041857289101
 20
85.93189341409644
 30
0.0
 10
173.3975259518515
 20
86.01155840767774
 30
0.0
 10
173.0643391193142
 20
86.09470758911651
 30
0.0
 10
172.8193416771532
 20
86.15202007134397
 30
0.0
 10
172.6966734321502
 20
86.18071596934843
 30
0.0
  0
LWPOLYLINE
  5
E1
330
1F
100
AcDbEntity
  8
0
  6
HIDDEN
 62
     7
370
     0
100
AcDbPolyline
 90
       24
 70
   128
 43
0.0
 10
153.3186972076
 20
108.0539395533
 10
153.4409963964
 20
107.4957123649
 10
153.6284966233
 20
106.9788863334
 10
153.8672918539
 20
106.5417920812
 10
154.1396717387
 20
106.2168468894
 10
154.4254351075
 20
106.0281504563
 10
154.7033881985
 20
105.9896975331
 10
154.9529165026
 20
106.1043399973
 10
155.1555136469
 20
106.3635753418
 10
155.2961539281
 20
106.7481772669
 10
155.3644067
 20
107.2296216073
 10
155.3552099665
 20
107.7722018388
 10
155.2692458075
 20
108.3356772677
 10
155.1128897913
 20
108.8782574992
 10
154.8977381283
 20
109.3597018396
 10
154.6397476332
 20
109.7443037647
 10
154.3580522808
 20
110.0035391092
 10
154.0735441266
 20
110.1181815734
 10
153.8073238389
 20
110.0797286503
 10
153.5791357586
 20
109.8910322172
 10
153.4059035517
 20
109.5660870253
 10
153.3004750585
 20
109.1289927731
 10
153.270669428
 20
108.6121667416
 10
153.3186972076
 20
108.0539395533
  0
LWPOLYLINE
  5
E2
330
1F
100
AcDbEntity
  8
0
  6
HIDDEN
 62
     7
370
     0
100
AcDbPolyline
 90
       21
 70
   128
 43
0.0
 10
153.6751325019
 20
108.0819487124
 10
153.7902844955
 20
107.579581542
 10
153.9711857061
 20
107.1263895704
 10
154.2001282628
 20
106.7667343855
 10
154.454701673
 20
106.5358215425
 10
154.7099865176
 20
106.4562543993
 10
154.9409937373
 20
106.5358215425
 10
155.125110736
 20
106.7667343855
 10
155.2443148589
 20
107.1263895704
 10
155.286937576
 20
107.579581542
 10
155.2488066788
 20
108.0819487124
 10
155.1336546852
 20
108.5843158828
 10
154.9527534746
 20
109.0375078544
 10
154.7238109179
 20
109.3971630393
 10
154.4692375077
 20
109.6280758824
 10
154.2139526631
 20
109.7076430255
 10
153.9829454434
 20
109.6280758824
 10
153.7988284448
 20
109.3971630393
 10
153.6796243218
 20
109.0375078544
 10
153.6370016047
 20
108.5843158828
 10
153.6751325019
 20
108.0819487124
  0
SPLINE
  5
E3
330
1F
100
AcDbEntity
  8
0
  6
HIDDEN
 62
     7
370
     0
100
AcDbSpline
210
0.0
220
0.0
230
1.0
 70
     8
 71
     3
 72
    50
 73
    46
 74
     0
 42
0.000000001
 43
0.00000001
 40
0.0
 40
0.0
 40
0.0
 40
0.0
 40
0.0624999999999993
 40
0.0624999999999993
 40
0.1249999999999985
 40
0.1249999999999985
 40
0.1874999999999978
 40
0.1874999999999978
 40
0.2499999999999971
 40
0.2499999999999971
 40
0.2812499999999968
 40
0.2812499999999968
 40
0.3124999999999966
 40
0.3124999999999966
 40
0.3749999999999966
 40
0.3749999999999966
 40
0.4062499999999966
 40
0.4062499999999966
 40
0.4374999999999965
 40
0.4374999999999965
 40
0.4687499999999965
 40
0.4687499999999965
 40
0.4999999999999964
 40
0.4999999999999964
 40
0.5312499999999964
 40
0.5312499999999964
 40
0.5624999999999963
 40
0.5624999999999963
 40
0.5937499999999963
 40
0.5937499999999963
 40
0.6249999999999963
 40
0.6249999999999963
 40
0.6874999999999963
 40
0.6874999999999963
 40
0.7187499999999963
 40
0.7187499999999963
 40
0.7499999999999962
 40
0.7499999999999962
 40
0.8124999999999972
 40
0.8124999999999972
 40
0.8749999999999981
 40
0.8749999999999981
 40
0.9374999999999991
 40
0.9374999999999991
 40
1.0
 40
1.0
 40
1.0
 40
1.0
 10
165.6612078419514
 20
109.1133548059965
 30
0.0
 10
165.7163941372959
 20
108.9825299400582
 30
0.0
 10
165.7855507655768
 20
108.8966130131711
 30
0.0
 10
165.9330892138831
 20
108.7733155060648
 30
0.0
 10
166.0093741351062
 20
108.7392906558931
 30
0.0
 10
166.1541662622676
 20
108.7099382332937
 30
0.0
 10
166.2240212553471
 20
108.7149454237868
 30
0.0
 10
166.3326475290409
 20
108.7655679425861
 30
0.0
 10
166.3725507587429
 20
108.8113713455076
 30
0.0
 10
166.3702957352403
 20
108.9250826960327
 30
0.0
 10
166.3584043079727
 20
108.9716594311253
 30
0.0
 10
166.3110700189245
 20
109.0796299186703
 30
0.0
 10
166.2754799920905
 20
109.1419810592729
 30
0.0
 10
166.1442762422244
 20
109.3526552611724
 30
0.0
 10
166.0300366463692
 20
109.5198287729265
 30
0.0
 10
165.8766996365418
 20
109.7945677603549
 30
0.0
 10
165.8272652751935
 20
109.8918634992221
 30
0.0
 10
165.7394999403233
 20
110.0910833108099
 30
0.0
 10
165.7010198162263
 20
110.1929153431976
 30
0.0
 10
165.637184158293
 20
110.4018588497252
 30
0.0
 10
165.6120304833039
 20
110.5090571957954
 30
0.0
 10
165.5787180911094
 20
110.7193971623282
 30
0.0
 10
165.5701094371553
 20
110.8237712398738
 30
0.0
 10
165.5701430702525
 20
111.0309536500623
 30
0.0
 10
165.5788426774615
 20
111.1306461684251
 30
0.0
 10
165.612327613695
 20
111.3205289112635
 30
0.0
 10
165.6375415620753
 20
111.4119846920427
 30
0.0
 10
165.7015415950655
 20
111.5798274277414
 30
0.0
 10
165.7401087472167
 20
111.6563648331569
 30
0.0
 10
165.8280583085743
 20
111.794607955767
 30
0.0
 10
165.87749430933
 20
111.85596310172
 30
0.0
 10
166.0307751004413
 20
112.0091056871609
 30
0.0
 10
166.1450886043669
 20
112.0739116386715
 30
0.0
 10
166.2755351708896
 20
112.0947640003175
 30
0.0
 10
166.3115600806821
 20
112.0887947451597
 30
0.0
 10
166.3586883737271
 20
112.0538416753249
 30
0.0
 10
166.3704250794858
 20
112.024383304975
 30
0.0
 10
166.372327308322
 20
111.9136723643965
 30
0.0
 10
166.332203914874
 20
111.8103324598535
 30
0.0
 10
166.2239316374325
 20
111.5799026448472
 30
0.0
 10
166.1545591615258
 20
111.4497901369333
 30
0.0
 10
166.0090535536132
 20
111.1631047116145
 30
0.0
 10
165.9331543059021
 20
111.008075288067
 30
0.0
 10
165.786727582858
 20
110.6621497959918
 30
0.0
 10
165.7161970011229
 20
110.4720968382615
 30
0.0
 10
165.6612078419514
 20
110.2630823225877
 30
0.0
  0
SPLINE
  5
E4
330
1F
100
AcDbEntity
  8
0
  6
HIDDEN
 62
     7
370
     0
100
AcDbSpline
210
0.0
220
0.0
230
1.0
 70
     8
 71
     3
 72
    12
 73
     8
 74
     0
 42
0.000000001
 43
0.00000001
 40
0.0
 40
0.0
 40
0.0
 40
0.0
 40
0.5000000000000014
 40
0.5000000000000014
 40
0.7500000000000007
 40
0.7500000000000007
 40
1.0
 40
1.0
 40
1.0
 40
1.0
 10
165.6612078419514
 20
110.2630823225877
 30
0.0
 10
165.7343082024267
 20
110.0683473548264
 30
0.0
 10
165.7702119517589
 20
109.8607691797976
 30
0.0
 10
165.7702640698092
 20
109.565007529726
 30
0.0
 10
165.7612272597189
 20
109.4673115371522
 30
0.0
 10
165.7251747866031
 20
109.2834436283235
 30
0.0
 10
165.6982271455003
 20
109.1961539217165
 30
0.0
 10
165.6612078419514
 20
109.1133548059965
 30
0.0
  0
SPLINE
  5
E5
330
1F
100
AcDbEntity
  8
0
  6
HIDDEN
 62
     7
370
     0
100
AcDbSpline
210
0.0
220
0.0
230
1.0
 70
    11
 71
     3
 72
    62
 73
    58
 74
     0
 42
0.000000001
 43
0.00000001
 40
0.0
 40
0.0
 40
0.0
 40
0.0
 40
0.0312500000000002
 40
0.0312500000000002
 40
0.0625000000000004
 40
0.0625000000000004
 40
0.1250000000000005
 40
0.1250000000000005
 40
0.1562500000000004
 40
0.1562500000000004
 40
0.1875000000000004
 40
0.1875000000000004
 40
0.2187500000000003
 40
0.2187500000000003
 40
0.2500000000000002
 40
0.2500000000000002
 40
0.3125000000000002
 40
0.3125000000000002
 40
0.375
 40
0.375
 40
0.4062500000000001
 40
0.4062500000000001
 40
0.4375000000000002
 40
0.4375000000000002
 40
0.4687500000000003
 40
0.4687500000000003
 40
0.5000000000000004
 40
0.5000000000000004
 40
0.5312500000000006
 40
0.5312500000000006
 40
0.5625000000000007
 40
0.5625000000000007
 40
0.5937500000000008
 40
0.5937500000000008
 40
0.6250000000000009
 40
0.6250000000000009
 40
0.656250000000001
 40
0.656250000000001
 40
0.6875000000000011
 40
0.6875000000000011
 40
0.7500000000000009
 40
0.7500000000000009
 40
0.7812500000000008
 40
0.7812500000000008
 40
0.8125000000000007
 40
0.8125000000000007
 40
0.8437500000000006
 40
0.8437500000000006
 40
0.8750000000000004
 40
0.8750000000000004
 40
0.9062500000000003
 40
0.9062500000000003
 40
0.9375000000000002
 40
0.9375000000000002
 40
0.9687500000000001
 40
0.9687500000000001
 40
1.0
 40
1.0
 40
1.0
 40
1.0
 10
167.6701262292727
 20
114.1537529300632
 30
0.0
 10
167.527302157583
 20
114.1537529300633
 30
0.0
 10
167.3879389229731
 20
114.1633634437128
 30
0.0
 10
167.1153788635228
 20
114.2010321190641
 30
0.0
 10
166.9812147435189
 20
114.2295985984779
 30
0.0
 10
166.6045203445223
 20
114.3410055627962
 30
0.0
 10
166.3789924646329
 20
114.4513281630487
 30
0.0
 10
166.0954807579356
 20
114.6690735378968
 30
0.0
 10
166.008537473478
 20
114.7517777851386
 30
0.0
 10
165.8571439675646
 20
114.9330605187049
 30
0.0
 10
165.7922432099839
 20
115.0315872027685
 30
0.0
 10
165.6847566246937
 20
115.2468621453934
 30
0.0
 10
165.6420957047384
 20
115.3651615934327
 30
0.0
 10
165.585510125067
 20
115.6099913042322
 30
0.0
 10
165.5707288109772
 20
115.7375464071252
 30
0.0
 10
165.5689746456264
 20
116.1368522022408
 30
0.0
 10
165.6267421937825
 20
116.4147967913615
 30
0.0
 10
165.8400283015353
 20
116.935739788072
 30
0.0
 10
165.9948520104408
 20
117.1799224270789
 30
0.0
 10
166.2773164629479
 20
117.4930350544047
 30
0.0
 10
166.3813798910975
 20
117.590175089784
 30
0.0
 10
166.6035285255913
 20
117.7621927649842
 30
0.0
 10
166.7210284832599
 20
117.8369958482418
 30
0.0
 10
166.9707029563885
 20
117.9622743029619
 30
0.0
 10
167.1047647703456
 20
118.0130473687691
 30
0.0
 10
167.378097882489
 20
118.0814074309852
 30
0.0
 10
167.5186844618141
 20
118.0997208382032
 30
0.0
 10
167.8040515486965
 20
118.1011589009491
 30
0.0
 10
167.9439233463892
 20
118.0844272543918
 30
0.0
 10
168.2185335952565
 20
118.0186418112889
 30
0.0
 10
168.3527801246962
 20
117.9692660180958
 30
0.0
 10
168.6049199588144
 20
117.8454303980279
 30
0.0
 10
168.7255234763156
 20
117.7697790245717
 30
0.0
 10
168.9490124147745
 20
117.5987988621266
 30
0.0
 10
169.0522184988197
 20
117.5036319160982
 30
0.0
 10
169.2428903433967
 20
117.2947160588981
 30
0.0
 10
169.3297096045424
 20
117.1812473905338
 30
0.0
 10
169.4810861132478
 20
116.9443600683735
 30
0.0
 10
169.5465871102521
 20
116.8199769745851
 30
0.0
 10
169.7101339267331
 20
116.4277065147376
 30
0.0
 10
169.7690286012247
 20
116.1540213459745
 30
0.0
 10
169.770652271156
 20
115.7524241794286
 30
0.0
 10
169.7568639596023
 20
115.6237505210682
 30
0.0
 10
169.7016558109058
 20
115.3761581680918
 30
0.0
 10
169.6598250360185
 20
115.2575049067897
 30
0.0
 10
169.5531300492282
 20
115.0400371453683
 30
0.0
 10
169.4872759118831
 20
114.9387988078001
 30
0.0
 10
169.3353319693389
 20
114.7553980337469
 30
0.0
 10
169.2499513096017
 20
114.6736075896247
 30
0.0
 10
169.0603228760427
 20
114.5268832160254
 30
0.0
 10
168.955738061268
 20
114.4620919334499
 30
0.0
 10
168.7340115140764
 20
114.3519803527991
 30
0.0
 10
168.6160300432252
 20
114.3058994148791
 30
0.0
 10
168.363132830885
 20
114.2305255202198
 30
0.0
 10
168.2298438607995
 20
114.2019372683213
 30
0.0
 10
167.9562494590526
 20
114.1636961466117
 30
0.0
 10
167.8129503009624
 20
114.1537529300633
 30
0.0
 10
167.6701262292727
 20
114.1537529300633
 30
0.0
  0
LWPOLYLINE
  5
E6
330
1F
100
AcDbEntity
  8
0
  6
HIDDEN
 62
     7
370
     0
100
AcDbPolyline
 90
       22
 70
   128
 43
0.0
 10
165.661207842
 20
109.113354806
 10
165.8983433541
 20
108.6289113448
 10
166.2648505622
 20
108.2218161712
 10
166.7339679144
 20
107.9217944812
 10
167.2714414916
 20
107.7507531998
 10
167.8380261531
 20
107.7211813859
 10
168.3923511307
 20
107.8352383085
 10
168.8939408316
 20
108.0845957814
 10
169.3061702769
 20
108.4510462695
 10
169.5989393775
 20
108.9078323626
 10
169.7508707764
 20
109.4216005428
 10
169.7508707764
 20
109.9548365857
 10
169.5989393775
 20
110.468604766
 10
169.3061702769
 20
110.9253908591
 10
168.8939408316
 20
111.2918413471
 10
168.3923511307
 20
111.5411988201
 10
167.8380261531
 20
111.6552557427
 10
167.2714414916
 20
111.6256839288
 10
166.7339679144
 20
111.4546426474
 10
166.2648505622
 20
111.1546209574
 10
165.8983433541
 20
110.7475257838
 10
165.661207842
 20
110.2630823226
  0
LINE
  5
E7
330
1F
100
AcDbEntity
  8
0
  6
HIDDEN
 62
     7
370
     0
100
AcDbLine
 10
189.6999432051
 20
132.7034337881
 30
0.0
 11
189.9947361706
 21
132.6602245488
 31
0.0
  0
LINE
  5
E8
330
1F
100
AcDbEntity
  8
0
  6
HIDDEN
 62
     7
370
     0
100
AcDbLine
 10
182.5701262293
 20
117.0416516458
 30
0.0
 11
182.5701262293
 21
108.3416516458
 31
0.0
  0
LINE
  5
E9
330
1F
100
AcDbEntity
  8
0
  6
HIDDEN
 62
     7
370
     0
100
AcDbLine
 10
182.5701262293
 20
125.7416516458
 30
0.0
 11
182.5701262293
 21
117.0416516458
 31
0.0
  0
LINE
  5
EA
330
1F
100
AcDbEntity
  8
0
  6
HIDDEN
 62
     7
370
     0
100
AcDbLine
 10
185.9361516331
 20
117.0416516458
 30
0.0
 11
185.9361516331
 21
108.0416516458
 31
0.0
  0
LINE
  5
EB
330
1F
100
AcDbEntity
  8
0
  6
HIDDEN
 62
     7
370
     0
100
AcDbLine
 10
185.9361516331
 20
126.0416516458
 30
0.0
 11
185.9361516331
 21
117.0416516458
 31
0.0
  0
ELLIPSE
  5
EC
330
1F
100
AcDbEntity
  8
0
  6
HIDDEN
 62
     7
370
     0
100
AcDbEllipse
 10
153.4073845295
 20
92.9416516458
 30
0.0
 11
0.0
 21
1.600000000000009
 31
0.0
210
0.0
220
0.0
230
1.0
 40
0.4142135624
 41
4.712388980384695
 42
6.283185307179586
  0
LINE
  5
ED
330
1F
100
AcDbEntity
  8
0
  6
HIDDEN
 62
     7
370
     0
100
AcDbLine
 10
153.4073845295
 20
94.5416516458
 30
0.0
 11
153.0701262293
 21
94.5416516458
 31
0.0
  0
LINE
  5
EE
330
1F
100
AcDbEntity
  8
0
  6
HIDDEN
 62
     7
370
     0
100
AcDbLine
 10
153.0701262293
 20
139.5416516458
 30
0.0
 11
153.4073845295
 21
139.5416516458
 31
0.0
  0
ELLIPSE
  5
EF
330
1F
100
AcDbEntity
  8
0
  6
HIDDEN
 62
     7
370
     0
100
AcDbEllipse
 10
153.4073845295
 20
141.1416516458
 30
0.0
 11
0.0
 21
1.599999999999994
 31
0.0
210
0.0
220
0.0
230
1.0
 40
0.4142135624
 41
3.141592653589793
 42
4.712388980384677
  0
SPLINE
  5
F0
330
1F
100
AcDbEntity
  8
0
  6
HIDDEN
 62
     7
370
     0
100
AcDbSpline
210
0.0
220
0.0
230
1.0
 70
     8
 71
     3
 72
    12
 73
     8
 74
     0
 42
0.000000001
 43
0.00000001
 40
0.0
 40
0.0
 40
0.0
 40
0.0
 40
0.2035645350420963
 40
0.4067378086347478
 40
0.6198469032652829
 40
0.8406846156411466
 40
1.0
 40
1.0
 40
1.0
 40
1.0
 10
193.0201262292727
 20
125.3332136216825
 30
0.0
 10
193.3965841243505
 20
125.3486687796466
 30
0.0
 10
194.1487763431747
 20
125.3795493899705
 30
0.0
 10
195.1636081185349
 20
125.5927461606387
 30
0.0
 10
195.9632138939831
 20
125.8315946964273
 30
0.0
 10
196.4582068527944
 20
126.0172934658233
 30
0.0
 10
196.4766397768391
 20
126.0247621872252
 30
0.0
 10
196.4843646866301
 20
126.0278921951905
 30
0.0
  0
LINE
  5
F1
330
1F
100
AcDbEntity
  8
0
  6
HIDDEN
 62
     7
370
     0
100
AcDbLine
 10
193.3413464687
 20
125.3545764643
 30
0.0
 11
192.77969822
 21
125.3516276902
 31
0.0
  0
SPLINE
  5
F2
330
1F
100
AcDbEntity
  8
0
  6
HIDDEN
 62
     7
370
     0
100
AcDbSpline
210
0.0
220
0.0
230
1.0
 70
     8
 71
     3
 72
    14
 73
    10
 74
     0
 42
0.000000001
 43
0.00000001
 40
0.0
 40
0.0
 40
0.0
 40
0.0
 40
0.0102922760405153
 40
0.178286004732036
 40
0.3358371296343992
 40
0.4890923825618971
 40
0.6490479140769222
 40
0.8182047356723389
 40
1.0
 40
1.0
 40
1.0
 40
1.0
 10
189.9104597102775
 20
125.8985448781373
 30
0.0
 10
189.8962138227292
 20
125.903094985892
 30
0.0
 10
189.6494421305559
 20
125.9819133667325
 30
0.0
 10
189.498142874032
 20
126.0543030176013
 30
0.0
 10
189.537583732404
 20
126.0333993885105
 30
0.0
 10
189.9621840349059
 20
125.873658315787
 30
0.0
 10
190.6946395785353
 20
125.6416137401073
 30
0.0
 10
191.7389760289375
 20
125.3950922672475
 30
0.0
 10
192.5829451917625
 20
125.3543291555682
 30
0.0
 10
193.0201262292727
 20
125.3332136216825
 30
0.0
  0
LINE
  5
F3
330
1F
100
AcDbEntity
  8
0
  6
HIDDEN
 62
     7
370
     0
100
AcDbLine
 10
154.0701262293
 20
87.587628923
 30
0.0
 11
153.4571590522
 21
86.974661746
 31
0.0
  0
LINE
  5
F4
330
1F
100
AcDbEntity
  8
0
  6
HIDDEN
 62
     7
370
     0
100
AcDbLine
 10
153.4571590522
 20
147.1086415456
 30
0.0
 11
154.0701262293
 21
146.4956743686
 31
0.0
  0
LINE
  5
F5
330
1F
100
AcDbEntity
  8
0
  6
HIDDEN
 62
     7
370
     0
100
AcDbLine
 10
92.6701262293
 20
108.5416516458
 30
0.0
 11
92.6701262293
 21
125.5416516458
 31
0.0
  0
LINE
  5
F6
330
1F
100
AcDbEntity
  8
0
  6
HIDDEN
 62
     7
370
     0
100
AcDbLine
 10
95.6660554436
 20
110.0416516458
 30
0.0
 11
95.6660554436
 21
124.0416516458
 31
0.0
  0
LINE
  5
F7
330
1F
100
AcDbEntity
  8
0
  6
HIDDEN
 62
     7
370
     0
100
AcDbLine
 10
154.0701262293
 20
146.4956743686
 30
0.0
 11
163.2026877728
 21
146.4956743686
 31
0.0
  0
LINE
  5
F8
330
1F
100
AcDbEntity
  8
0
  6
HIDDEN
 62
     7
370
     0
100
AcDbLine
 10
154.0701262293
 20
146.4956743686
 30
0.0
 11
154.0701262293
 21
141.1416516458
 31
0.0
  0
LINE
  5
F9
330
1F
100
AcDbEntity
  8
0
  6
HIDDEN
 62
     7
370
     0
100
AcDbLine
 10
163.2026877728
 20
87.587628923
 30
0.0
 11
154.0701262293
 21
87.587628923
 31
0.0
  0
LINE
  5
FA
330
1F
100
AcDbEntity
  8
0
  6
HIDDEN
 62
     7
370
     0
100
AcDbLine
 10
154.0701262293
 20
87.587628923
 30
0.0
 11
154.0701262293
 21
92.9416516458
 31
0.0
  0
LINE
  5
FB
330
1F
100
AcDbEntity
  8
0
  6
HIDDEN
 62
     7
370
     0
100
AcDbLine
 10
153.4073845295
 20
139.5416516458
 30
0.0
 11
166.0201262293
 21
139.5416516458
 31
0.0
  0
LINE
  5
FC
330
1F
100
AcDbEntity
  8
0
  6
HIDDEN
 62
     7
370
     0
100
AcDbLine
 10
166.0201262293
 20
94.5416516458
 30
0.0
 11
153.4073845295
 21
94.5416516458
 31
0.0
  0
SPLINE
  5
FD
330
1F
100
AcDbEntity
  8
0
  6
HIDDEN
 62
     7
370
     0
100
AcDbSpline
210
0.0
220
0.0
230
1.0
 70
     8
 71
     3
 72
    13
 73
     9
 74
     0
 42
0.000000001
 43
0.00000001
 40
0.0
 40
0.0
 40
0.0
 40
0.0
 40
0.185045465315833
 40
0.3520092965873052
 40
0.5010298177386137
 40
0.6766227814616118
 40
0.843096261484258
 40
0.9999999999999999
 40
0.9999999999999999
 40
0.9999999999999999
 40
0.9999999999999999
 10
172.0463898598852
 20
146.9465124215051
 30
0.0
 10
172.2731799755068
 20
147.0053490930453
 30
0.0
 10
172.7045995130604
 20
147.117273237347
 30
0.0
 10
173.1920549840112
 20
147.2575393089755
 30
0.0
 10
173.5811641605566
 20
147.3768340682313
 30
0.0
 10
173.8620640809817
 20
147.4675018778563
 30
0.0
 10
174.0389488560444
 20
147.5294176382063
 30
0.0
 10
174.059811235867
 20
147.5376068943623
 30
0.0
 10
174.0699337343017
 20
147.5415803496118
 30
0.0
  0
LINE
  5
FE
330
1F
100
AcDbEntity
  8
0
  6
HIDDEN
 62
     7
370
     0
100
AcDbLine
 10
172.7966204032
 20
147.1462255008
 30
0.0
 11
172.0463678419
 21
146.9466998477
 31
0.0
  0
LINE
  5
FF
330
1F
100
AcDbEntity
  8
0
  6
HIDDEN
 62
     7
370
     0
100
AcDbLine
 10
172.4701262293
 20
94.5416516458
 30
0.0
 11
166.0201262293
 21
94.5416516458
 31
0.0
  0
LINE
  5
100
330
1F
100
AcDbEntity
  8
0
  6
HIDDEN
 62
     7
370
     0
100
AcDbLine
 10
172.0463679955
 20
87.1366037524
 30
0.0
 11
172.1403107251
 21
87.111620081
 31
0.0
  0
SPLINE
  5
101
330
1F
100
AcDbEntity
  8
0
  6
HIDDEN
 62
     7
370
     0
100
AcDbSpline
210
0.0
220
0.0
230
1.0
 70
     8
 71
     3
 72
    13
 73
     9
 74
     0
 42
0.000000001
 43
0.00000001
 40
0.0
 40
0.0
 40
0.0
 40
0.0
 40
0.0000730266253414
 40
0.1576811714088974
 40
0.3241446478178098
 40
0.4996852929261399
 40
0.7294244053301453
 40
1.0
 40
1.0
 40
1.0
 40
1.0
 10
174.0701049222205
 20
86.54165994684584
 30
0.0
 10
174.0701120239283
 20
86.54165703671093
 30
0.0
 10
174.0854462338316
 20
86.53537339043146
 30
0.0
 10
174.0259851617344
 20
86.55908508348043
 30
0.0
 10
173.8652347596314
 20
86.6145600140375
 30
0.0
 10
173.5305501233716
 20
86.7225070820208
 30
0.0
 10
172.9726758648355
 20
86.8937792997038
 30
0.0
 10
172.371509459295
 20
87.05150972769049
 30
0.0
 10
172.0463921773626
 20
87.13681204590463
 30
0.0
  0
LINE
  5
102
330
1F
100
AcDbEntity
  8
0
  6
HIDDEN
 62
     7
370
     0
100
AcDbLine
 10
166.0201262293
 20
139.5416516458
 30
0.0
 11
172.4701262293
 21
139.5416516458
 31
0.0
  0
LINE
  5
103
330
1F
100
AcDbEntity
  8
0
  6
HIDDEN
 62
     7
370
     0
100
AcDbLine
 10
128.6701262293
 20
110.0416516458
 30
0.0
 11
128.6701262293
 21
124.0416516458
 31
0.0
  0
LINE
  5
104
330
1F
100
AcDbEntity
  8
0
  6
HIDDEN
 62
     7
370
     0
100
AcDbLine
 10
130.8332244578
 20
113.6416516458
 30
0.0
 11
130.8332244578
 21
120.4416516458
 31
0.0
  0
SPLINE
  5
105
330
1F
100
AcDbEntity
  8
0
  6
HIDDEN
 62
     7
370
     0
100
AcDbSpline
210
0.0
220
0.0
230
1.0
 70
     8
 71
     3
 72
     9
 73
     5
 74
     0
 42
0.000000001
 43
0.00000001
 40
0.0
 40
0.0
 40
0.0
 40
0.0
 40
0.493237740338934
 40
1.0
 40
1.0
 40
1.0
 40
1.0
 10
172.0471857679701
 20
146.9464831569663
 30
0.0
 10
172.1530341091314
 20
147.1035052177426
 30
0.0
 10
172.3676331401959
 20
147.4218548652539
 30
0.0
 10
172.5854927831579
 20
147.74168041403
 30
0.0
 10
172.6958958281142
 20
147.9037559318252
 30
0.0
  0
SPLINE
  5
106
330
1F
100
AcDbEntity
  8
0
  6
HIDDEN
 62
     7
370
     0
100
AcDbSpline
210
0.0
220
0.0
230
1.0
 70
     8
 71
     3
 72
     9
 73
     5
 74
     0
 42
0.000000001
 43
0.00000001
 40
0.0
 40
0.0
 40
0.0
 40
0.0
 40
0.5067649320089164
 40
1.0
 40
1.0
 40
1.0
 40
1.0
 10
172.6958995134001
 20
86.17956149531689
 30
0.0
 10
172.5854950736283
 20
86.34163823083533
 30
0.0
 10
172.3676338271246
 20
86.66146449599528
 30
0.0
 10
172.1530338654191
 20
86.97981357752019
 30
0.0
 10
172.0471856387163
 20
87.13683450839102
 30
0.0
  0
LINE
  5
107
330
1F
100
AcDbEntity
  8
0
  6
HIDDEN
 62
     7
370
     0
100
AcDbLine
 10
193.0201262293
 20
131.5416516458
 30
0.0
 11
196.5201262293
 21
131.5416516458
 31
0.0
  0
LINE
  5
108
330
1F
100
AcDbEntity
  8
0
  6
HIDDEN
 62
     7
370
     0
100
AcDbLine
 10
189.5201262293
 20
131.5416516458
 30
0.0
 11
193.0201262293
 21
131.5416516458
 31
0.0
  0
SPLINE
  5
109
330
1F
100
AcDbEntity
  8
0
  6
HIDDEN
 62
     7
370
     0
100
AcDbSpline
210
0.0
220
0.0
230
1.0
 70
    11
 71
     3
 72
    62
 73
    58
 74
     0
 42
0.000000001
 43
0.00000001
 40
0.0
 40
0.0
 40
0.0
 40
0.0
 40
0.0312500000000002
 40
0.0312500000000002
 40
0.0625000000000003
 40
0.0625000000000003
 40
0.1250000000000007
 40
0.1250000000000007
 40
0.1562500000000008
 40
0.1562500000000008
 40
0.187500000000001
 40
0.187500000000001
 40
0.2187500000000012
 40
0.2187500000000012
 40
0.2500000000000013
 40
0.2500000000000013
 40
0.3125000000000017
 40
0.3125000000000017
 40
0.3750000000000021
 40
0.3750000000000021
 40
0.4062500000000021
 40
0.4062500000000021
 40
0.437500000000002
 40
0.437500000000002
 40
0.4687500000000019
 40
0.4687500000000019
 40
0.5000000000000019
 40
0.5000000000000019
 40
0.5312500000000018
 40
0.5312500000000018
 40
0.5625000000000018
 40
0.5625000000000018
 40
0.5937500000000017
 40
0.5937500000000017
 40
0.6250000000000017
 40
0.6250000000000017
 40
0.6562500000000016
 40
0.6562500000000016
 40
0.6875000000000016
 40
0.6875000000000016
 40
0.7500000000000013
 40
0.7500000000000013
 40
0.7812500000000011
 40
0.7812500000000011
 40
0.812500000000001
 40
0.812500000000001
 40
0.8437500000000008
 40
0.8437500000000008
 40
0.8750000000000007
 40
0.8750000000000007
 40
0.9062500000000004
 40
0.9062500000000004
 40
0.9375000000000003
 40
0.9375000000000003
 40
0.9687500000000001
 40
0.9687500000000001
 40
1.0
 40
1.0
 40
1.0
 40
1.0
 10
167.6701262292727
 20
115.982841354224
 30
0.0
 10
167.8129503009624
 20
115.982841354224
 30
0.0
 10
167.9523135355722
 20
116.0003015648773
 30
0.0
 10
168.2248735950225
 20
116.066797159964
 30
0.0
 10
168.3590377150265
 20
116.1166289765718
 30
0.0
 10
168.735732114023
 20
116.3031169405751
 30
0.0
 10
168.9612599939125
 20
116.479329527739
 30
0.0
 10
169.2447717006097
 20
116.7909960636223
 30
0.0
 10
169.3317149850673
 20
116.9048045572588
 30
0.0
 10
169.4831084909807
 20
117.1425080490147
 30
0.0
 10
169.5480092485614
 20
117.2664784843591
 30
0.0
 10
169.6554958338516
 20
117.5248081755692
 30
0.0
 10
169.698156753807
 20
117.660767041753
 30
0.0
 10
169.7547423334783
 20
117.9291926771208
 30
0.0
 10
169.7695236475681
 20
118.0630287950179
 30
0.0
 10
169.7712778129189
 20
118.4630757131513
 30
0.0
 10
169.7135102647629
 20
118.7160570425003
 30
0.0
 10
169.50022415701
 20
119.151417866798
 30
0.0
 10
169.3454004481046
 20
119.3354047787322
 30
0.0
 10
169.0629359955974
 20
119.5546135327954
 30
0.0
 10
168.9588725674479
 20
119.6194280694147
 30
0.0
 10
168.736723932954
 20
119.7301967028194
 30
0.0
 10
168.6192239752855
 20
119.7761691740371
 30
0.0
 10
168.3695495021568
 20
119.8511374424735
 30
0.0
 10
168.2354876881998
 20
119.8802924111047
 30
0.0
 10
167.9621545760563
 20
119.9190547485337
 30
0.0
 10
167.8215679967312
 20
119.9291387543211
 30
0.0
 10
167.5362009098488
 20
119.929937455891
 30
0.0
 10
167.3963291121561
 20
119.9207343271754
 30
0.0
 10
167.1217188632888
 20
119.8834933711407
 30
0.0
 10
166.9874723338492
 20
119.8552154190155
 30
0.0
 10
166.7353324997309
 20
119.7813100548452
 30
0.0
 10
166.6147289822297
 20
119.734936981683
 30
0.0
 10
166.3912400437709
 20
119.6251129345254
 30
0.0
 10
166.2880339597257
 20
119.5618107999149
 30
0.0
 10
166.0973621151486
 20
119.4159716172404
 30
0.0
 10
166.0105428540029
 20
119.3335501153887
 30
0.0
 10
165.8591663452975
 20
119.1530312082457
 30
0.0
 10
165.7936653482932
 20
119.0543034622506
 30
0.0
 10
165.6301185318122
 20
118.7275287125308
 30
0.0
 10
165.5712238573206
 20
118.4792945797689
 30
0.0
 10
165.5696001873893
 20
118.0783834033484
 30
0.0
 10
165.5833884989431
 20
117.9438469830542
 30
0.0
 10
165.6385966476395
 20
117.6732133320903
 30
0.0
 10
165.6804274225269
 20
117.5372208627117
 30
0.0
 10
165.7871224093171
 20
117.2769468270669
 30
0.0
 10
165.8529765466623
 20
117.1498451379926
 30
0.0
 10
166.0049204892064
 20
116.9097293522436
 30
0.0
 10
166.0903011489436
 20
116.797327038363
 30
0.0
 10
166.2799295825027
 20
116.5876249494854
 30
0.0
 10
166.3845143972773
 20
116.4904179410532
 30
0.0
 10
166.6062409444689
 20
116.3193008718388
 30
0.0
 10
166.7242224153202
 20
116.2442959764538
 30
0.0
 10
166.9771196276604
 20
116.1182340150495
 30
0.0
 10
167.1104085977458
 20
116.0683806514363
 30
0.0
 10
167.3840029994927
 20
116.0009027665539
 30
0.0
 10
167.527302157583
 20
115.982841354224
 30
0.0
 10
167.6701262292727
 20
115.982841354224
 30
0.0
  0
SPLINE
  5
10A
330
1F
100
AcDbEntity
  8
0
  6
HIDDEN
 62
     7
370
     0
100
AcDbSpline
210
0.0
220
0.0
230
1.0
 70
    11
 71
     3
 72
    56
 73
    52
 74
     0
 42
0.000000001
 43
0.00000001
 40
0.0
 40
0.0
 40
0.0
 40
0.0
 40
0.0312500000000003
 40
0.0312500000000003
 40
0.0625000000000005
 40
0.0625000000000005
 40
0.1250000000000007
 40
0.1250000000000007
 40
0.1562500000000009
 40
0.1562500000000009
 40
0.187500000000001
 40
0.187500000000001
 40
0.2187500000000011
 40
0.2187500000000011
 40
0.2500000000000012
 40
0.2500000000000012
 40
0.3125000000000019
 40
0.3125000000000019
 40
0.3437500000000023
 40
0.3437500000000023
 40
0.3750000000000028
 40
0.3750000000000028
 40
0.4375000000000031
 40
0.4375000000000031
 40
0.4687500000000032
 40
0.4687500000000032
 40
0.5000000000000033
 40
0.5000000000000033
 40
0.5312500000000034
 40
0.5312500000000034
 40
0.5625000000000037
 40
0.5625000000000037
 40
0.6250000000000032
 40
0.6250000000000032
 40
0.6875000000000029
 40
0.6875000000000029
 40
0.7500000000000026
 40
0.7500000000000026
 40
0.7812500000000022
 40
0.7812500000000022
 40
0.812500000000002
 40
0.812500000000002
 40
0.8437500000000017
 40
0.8437500000000017
 40
0.8750000000000013
 40
0.8750000000000013
 40
0.9062500000000011
 40
0.9062500000000011
 40
0.9375000000000008
 40
0.9375000000000008
 40
1.0
 40
1.0
 40
1.0
 40
1.0
 10
165.6295502284354
 20
122.7085317347703
 30
0.0
 10
165.6582217450324
 20
122.6067176698975
 30
0.0
 10
165.6959916646162
 20
122.5143147522478
 30
0.0
 10
165.7862898013859
 20
122.3475366675522
 30
0.0
 10
165.8395654975592
 20
122.2726669784292
 30
0.0
 10
166.0084965743334
 20
122.0865463139143
 30
0.0
 10
166.1396832903177
 20
122.0085298163308
 30
0.0
 10
166.2849688103212
 20
121.9879552657762
 30
0.0
 10
166.3231097431228
 20
121.9975034857088
 30
0.0
 10
166.367886276287
 20
122.0448597148889
 30
0.0
 10
166.3747810143269
 20
122.082960477149
 30
0.0
 10
166.3635324687131
 20
122.1750809551131
 30
0.0
 10
166.3458716235083
 20
122.2301363972524
 30
0.0
 10
166.2971476177464
 20
122.3497431554318
 30
0.0
 10
166.2662086193549
 20
122.4144210245346
 30
0.0
 10
166.1625530840363
 20
122.6217824069581
 30
0.0
 10
166.0787477473741
 20
122.778570162181
 30
0.0
 10
165.9532974829218
 20
123.0377154248338
 30
0.0
 10
165.9112043028742
 20
123.1284677993836
 30
0.0
 10
165.8284633115614
 20
123.3214690214218
 30
0.0
 10
165.7876330781537
 20
123.4242499839501
 30
0.0
 10
165.6747833219936
 20
123.7464910971301
 30
0.0
 10
165.6100931386297
 20
123.9854376358412
 30
0.0
 10
165.5696234608917
 20
124.3542047408184
 30
0.0
 10
165.5665816647017
 20
124.4739641514634
 30
0.0
 10
165.5823848212792
 20
124.6930624126726
 30
0.0
 10
165.601127918824
 20
124.7913914209964
 30
0.0
 10
165.6524018222174
 20
124.958266468203
 30
0.0
 10
165.6849263682497
 20
125.0281411142991
 30
0.0
 10
165.7570795166917
 20
125.1447501745917
 30
0.0
 10
165.7961846934444
 20
125.1909708143648
 30
0.0
 10
165.9181824318909
 20
125.3037896318528
 30
0.0
 10
166.0057142446207
 20
125.3442429212125
 30
0.0
 10
166.1678307975732
 20
125.3751010406349
 30
0.0
 10
166.2453884548617
 20
125.3661978550665
 30
0.0
 10
166.3565332779657
 20
125.2951218066284
 30
0.0
 10
166.3892662643077
 20
125.2328828879182
 30
0.0
 10
166.3456378819876
 20
125.0749816046452
 30
0.0
 10
166.3153226209915
 20
125.0117262017749
 30
0.0
 10
166.2304656373544
 20
124.8664121359152
 30
0.0
 10
166.1756165630914
 20
124.783040220156
 30
0.0
 10
166.060777877679
 20
124.6044470626654
 30
0.0
 10
165.9993584484995
 20
124.506700314248
 30
0.0
 10
165.8831504616126
 20
124.3017220151486
 30
0.0
 10
165.827636396644
 20
124.1934400798351
 30
0.0
 10
165.7294324212987
 20
123.9680901757066
 30
0.0
 10
165.6875420030526
 20
123.8531842202456
 30
0.0
 10
165.6210353227479
 20
123.6179168172125
 30
0.0
 10
165.5965918278205
 20
123.4969194827167
 30
0.0
 10
165.5561019020251
 20
123.1437180505403
 30
0.0
 10
165.5722071952415
 20
122.9121598645161
 30
0.0
 10
165.6295502284354
 20
122.7085317347703
 30
0.0
  0
SPLINE
  5
10B
330
1F
100
AcDbEntity
  8
0
  6
HIDDEN
 62
     7
370
     0
100
AcDbSpline
210
0.0
220
0.0
230
1.0
 70
     8
 71
     3
 72
    22
 73
    18
 74
     0
 42
0.000000001
 43
0.00000001
 40
0.0
 40
0.0
 40
0.0
 40
0.0
 40
0.1250000000000006
 40
0.1250000000000006
 40
0.2500000000000012
 40
0.2500000000000012
 40
0.3750000000000018
 40
0.3750000000000018
 40
0.5000000000000024
 40
0.5000000000000024
 40
0.6250000000000031
 40
0.6250000000000031
 40
0.7500000000000037
 40
0.7500000000000037
 40
0.8750000000000018
 40
0.8750000000000018
 40
1.0
 40
1.0
 40
1.0
 40
1.0
 10
169.3464946679728
 20
124.9063066214493
 30
0.0
 10
169.2482164444174
 20
124.781777901517
 30
0.0
 10
169.1368936771102
 20
124.6701747620847
 30
0.0
 10
168.8890850687455
 20
124.4721909188964
 30
0.0
 10
168.7511335431953
 20
124.3855363967076
 30
0.0
 10
168.4628725816113
 20
124.2470128214847
 30
0.0
 10
168.3104290626991
 20
124.1935690702081
 30
0.0
 10
167.9935173244234
 20
124.1213889200629
 30
0.0
 10
167.833528820315
 20
124.1034708806695
 30
0.0
 10
167.510558713693
 20
124.103185739172
 30
0.0
 10
167.3469962300402
 20
124.1214840490403
 30
0.0
 10
167.0334979989003
 20
124.1925794712312
 30
0.0
 10
166.8799960326715
 20
124.2458900234951
 30
0.0
 10
166.5893933347972
 20
124.3852714615196
 30
0.0
 10
166.4545730913835
 20
124.4698253586274
 30
0.0
 10
166.2056250147542
 20
124.6680168065336
 30
0.0
 10
166.0920357815851
 20
124.781778196173
 30
0.0
 10
165.9937577905725
 20
124.9063066214493
 30
0.0
  0
SPLINE
  5
10C
330
1F
100
AcDbEntity
  8
0
  6
HIDDEN
 62
     7
370
     0
100
AcDbSpline
210
0.0
220
0.0
230
1.0
 70
     8
 71
     3
 72
    18
 73
    14
 74
     0
 42
0.000000001
 43
0.00000001
 40
0.0
 40
0.0
 40
0.0
 40
0.0
 40
0.2500000000000022
 40
0.2500000000000022
 40
0.3750000000000017
 40
0.3750000000000017
 40
0.5000000000000011
 40
0.5000000000000011
 40
0.6250000000000006
 40
0.6250000000000006
 40
0.75
 40
0.75
 40
1.0
 40
1.0
 40
1.0
 40
1.0
 10
169.3464946679728
 20
127.2834049460281
 30
0.0
 10
169.4850650167032
 20
127.1138249517923
 30
0.0
 10
169.5895504362538
 20
126.9402137436504
 30
0.0
 10
169.6971066693917
 20
126.6571824812469
 30
0.0
 10
169.7241166433638
 20
126.5605094461541
 30
0.0
 10
169.7606576054763
 20
126.3594410189826
 30
0.0
 10
169.7701334259885
 20
126.2536971218961
 30
0.0
 10
169.7701190241777
 20
126.0394476296168
 30
0.0
 10
169.7608969111559
 20
125.9314196312065
 30
0.0
 10
169.7246521651244
 20
125.7144267416751
 30
0.0
 10
169.6972778738456
 20
125.60457712394
 30
0.0
 10
169.5900177519476
 20
125.2849933340241
 30
0.0
 10
169.4848272298084
 20
125.0815883494565
 30
0.0
 10
169.3464946679731
 20
124.906306621449
 30
0.0
  0
SPLINE
  5
10D
330
1F
100
AcDbEntity
  8
0
  6
HIDDEN
 62
     7
370
     0
100
AcDbSpline
210
0.0
220
0.0
230
1.0
 70
     8
 71
     3
 72
    22
 73
    18
 74
     0
 42
0.000000001
 43
0.00000001
 40
0.0
 40
0.0
 40
0.0
 40
0.0
 40
0.1249999999999982
 40
0.1249999999999982
 40
0.2499999999999963
 40
0.2499999999999963
 40
0.3749999999999969
 40
0.3749999999999969
 40
0.4999999999999976
 40
0.4999999999999976
 40
0.6249999999999981
 40
0.6249999999999981
 40
0.7499999999999988
 40
0.7499999999999988
 40
0.8749999999999993
 40
0.8749999999999993
 40
1.0
 40
1.0
 40
1.0
 40
1.0
 10
165.9937577905725
 20
127.2834049460281
 30
0.0
 10
166.092036014128
 20
127.4036761348988
 30
0.0
 10
166.2033587814351
 20
127.5108243432948
 30
0.0
 10
166.4511673897999
 20
127.7002023817154
 30
0.0
 10
166.58911891535
 20
127.7826825352729
 30
0.0
 10
166.877379876934
 20
127.9142173665843
 30
0.0
 10
167.0298233958463
 20
127.9647773723694
 30
0.0
 10
167.3467351341219
 20
128.0330040477692
 30
0.0
 10
167.5067236382303
 20
128.0499011193949
 30
0.0
 10
167.8296937448523
 20
128.0501702243774
 30
0.0
 10
167.9932562285051
 20
128.0329136950768
 30
0.0
 10
168.306754459645
 20
127.9657131974307
 30
0.0
 10
168.4602564258738
 20
127.9152821917985
 30
0.0
 10
168.7508591237481
 20
127.7829354166635
 30
0.0
 10
168.8856793671618
 20
127.7024588793288
 30
0.0
 10
169.1346274437911
 20
127.512894596122
 30
0.0
 10
169.2482166769603
 20
127.4036758503169
 30
0.0
 10
169.3464946679728
 20
127.2834049460281
 30
0.0
  0
SPLINE
  5
10E
330
1F
100
AcDbEntity
  8
0
  6
HIDDEN
 62
     7
370
     0
100
AcDbSpline
210
0.0
220
0.0
230
1.0
 70
     8
 71
     3
 72
    18
 73
    14
 74
     0
 42
0.000000001
 43
0.00000001
 40
0.0
 40
0.0
 40
0.0
 40
0.0
 40
0.2499999999999994
 40
0.2499999999999994
 40
0.3749999999999997
 40
0.3749999999999997
 40
0.5
 40
0.5
 40
0.6250000000000002
 40
0.6250000000000002
 40
0.7500000000000006
 40
0.7500000000000006
 40
1.0
 40
1.0
 40
1.0
 40
1.0
 10
165.9937577905725
 20
124.9063066214493
 30
0.0
 10
165.8551874418421
 20
125.0818896501578
 30
0.0
 10
165.7507020222915
 20
125.2838826657887
 30
0.0
 10
165.6431457891536
 20
125.6039269565866
 30
0.0
 10
165.6161358151815
 20
125.7119862324318
 30
0.0
 10
165.579594853069
 20
125.9292374615484
 30
0.0
 10
165.5701190325568
 20
126.0397003947364
 30
0.0
 10
165.5701334343676
 20
126.2539429601792
 30
0.0
 10
165.5793555473894
 20
126.3573742469706
 30
0.0
 10
165.6156002934209
 20
126.5582968842538
 30
0.0
 10
165.6429745846997
 20
126.656602127113
 30
0.0
 10
165.7502347065977
 20
126.9392422201821
 30
0.0
 10
165.8554252287369
 20
127.1141159512787
 30
0.0
 10
165.9937577905722
 20
127.2834049460281
 30
0.0
  0
LWPOLYLINE
  5
10F
330
1F
100
AcDbEntity
  8
0
  6
HIDDEN
 62
     7
370
     0
100
AcDbPolyline
 90
       21
 70
   128
 43
0.0
 10
153.6751325019
 20
125.0691158737
 10
153.7902844955
 20
124.7031799253
 10
153.9711857061
 20
124.4643183569
 10
154.2001282628
 20
124.3759126031
 10
154.454701673
 20
124.4466164351
 10
154.7099865176
 20
124.6695088691
 10
154.9409937373
 20
125.0227716407
 10
155.125110736
 20
125.4718249285
 10
155.2443148589
 20
125.972712268
 10
155.286937576
 20
126.4764033164
 10
155.2488066788
 20
126.9335932846
 10
155.1336546852
 20
127.2995292331
 10
154.9527534746
 20
127.5383908015
 10
154.7238109179
 20
127.6267965553
 10
154.4692375077
 20
127.5560927233
 10
154.2139526631
 20
127.3332002893
 10
153.9829454434
 20
126.9799375177
 10
153.7988284448
 20
126.5308842299
 10
153.6796243218
 20
126.0299968904
 10
153.6370016047
 20
125.5263058419
 10
153.6751325019
 20
125.0691158737
  0
LWPOLYLINE
  5
110
330
1F
100
AcDbEntity
  8
0
  6
HIDDEN
 62
     7
370
     0
100
AcDbPolyline
 90
       24
 70
   128
 43
0.0
 10
153.3186972076
 20
124.8428781132
 10
153.4409963964
 20
124.4295500903
 10
153.6284966233
 20
124.1348729271
 10
153.8672918539
 20
123.9807014806
 10
154.1396717387
 20
123.9784699418
 10
154.4254351075
 20
124.1283438136
 10
154.7033881985
 20
124.4192076367
 10
154.9529165026
 20
124.8294893718
 10
155.1555136469
 20
125.3287602997
 10
155.2961539281
 20
125.8799917795
 10
155.3644067
 20
126.4423014942
 10
155.3552099665
 20
126.9739855046
 10
155.2692458075
 20
127.43561124
 10
155.1128897913
 20
127.7929420313
 10
154.8977381283
 20
128.0194762885
 10
154.6397476332
 20
128.0984130019
 10
154.3580522808
 20
128.0238977968
 10
154.0735441266
 20
127.8014571249
 10
153.8073238389
 20
127.4475883933
 10
153.5791357586
 20
126.9885364271
 10
153.4059035517
 20
126.4583470104
 10
153.3004750585
 20
125.8963418669
 10
153.270669428
 20
125.344202347
 10
153.3186972076
 20
124.8428781132
  0
LWPOLYLINE
  5
111
330
1F
100
AcDbEntity
  8
0
  6
HIDDEN
 62
     7
370
     0
100
AcDbPolyline
 90
       23
 70
   128
 43
0.0
 10
155.7306795596
 20
123.7416661223
 10
155.5149881787
 20
123.9629275557
 10
155.3603567013
 20
124.3204273664
 10
155.27931245
 20
124.7852030458
 10
155.278421148
 20
125.3196012325
 10
155.3577550034
 20
125.8803281637
 10
155.510886859
 20
126.421957078
 10
155.7254108826
 20
126.9006084222
 10
155.9839476136
 20
127.2775047108
 10
156.2655519436
 20
127.5221120482
 10
156.5474099646
 20
127.6146138026
 10
156.806687216
 20
127.5475160318
 10
157.0223785969
 20
127.3262545984
 10
157.1770100743
 20
126.9687547878
 10
157.2580543256
 20
126.5039791084
 10
157.2589456276
 20
125.9695809216
 10
157.1796117722
 20
125.4088539905
 10
157.0264799165
 20
124.8672250761
 10
156.811955893
 20
124.388573732
 10
156.553419162
 20
124.0116774433
 10
156.271814832
 20
123.7670701059
 10
155.989956811
 20
123.6745683516
 10
155.7306795596
 20
123.7416661223
  0
LWPOLYLINE
  5
112
330
1F
100
AcDbEntity
  8
0
  6
HIDDEN
 62
     7
370
     0
100
AcDbPolyline
 90
       19
 70
   128
 43
0.0
 10
156.581950048
 20
124.3270054266
 10
156.4220389994
 20
124.5081259429
 10
156.3219725844
 20
124.8108511729
 10
156.2938202895
 20
125.1986679862
 10
156.3409776969
 20
125.6247999515
 10
156.4577569273
 20
126.0378492648
 10
156.6300726821
 20
126.3879960829
 10
156.8371411381
 20
126.633007532
 10
157.0539867836
 20
126.7433316152
 10
157.2544548333
 20
126.7056616201
 10
157.4143658819
 20
126.5245411038
 10
157.5144322969
 20
126.2218158738
 10
157.5425845918
 20
125.8339990605
 10
157.4954271844
 20
125.4078670952
 10
157.3786479539
 20
124.9948177819
 10
157.2063321992
 20
124.6446709637
 10
156.9992637431
 20
124.3996595147
 10
156.7824180977
 20
124.2893354314
 10
156.581950048
 20
124.3270054266
  0
LWPOLYLINE
  5
113
330
1F
100
AcDbEntity
  8
0
  6
HIDDEN
 62
     7
370
     0
100
AcDbPolyline
 90
       23
 70
   128
 43
0.0
 10
153.977122401
 20
124.0879330263
 10
153.7614310202
 20
124.3091944597
 10
153.6067995428
 20
124.6666942704
 10
153.5257552914
 20
125.1314699498
 10
153.5248639895
 20
125.6658681365
 10
153.6041978449
 20
126.2265950677
 10
153.7573297005
 20
126.768223982
 10
153.9718537241
 20
127.2468753262
 10
154.2303904551
 20
127.6237716148
 10
154.5119947851
 20
127.8683789522
 10
154.7938528061
 20
127.9608807065
 10
155.0531300575
 20
127.8937829358
 10
155.2688214384
 20
127.6725215024
 10
155.4234529158
 20
127.3150216917
 10
155.5044971671
 20
126.8502460123
 10
155.505388469
 20
126.3158478256
 10
155.4260546136
 20
125.7551208945
 10
155.272922758
 20
125.2134919801
 10
155.0583987345
 20
124.734840636
 10
154.7998620035
 20
124.3579443473
 10
154.5182576735
 20
124.1133370099
 10
154.2363996524
 20
124.0208352556
 10
153.977122401
 20
124.0879330263
  0
LWPOLYLINE
  5
114
330
1F
100
AcDbEntity
  8
0
  6
HIDDEN
 62
     7
370
     0
100
AcDbPolyline
 90
       21
 70
   128
 43
0.0
 10
153.8870331476
 20
124.4975091497
 10
153.6985409939
 20
124.6997883235
 10
153.570893934
 20
125.0322156026
 10
153.5165869513
 20
125.4622506887
 10
153.5409359917
 20
125.9477987514
 10
153.6415576015
 20
126.4413309634
 10
153.8086022365
 20
126.894536953
 10
154.0257184039
 20
127.2630537604
 10
154.2716532605
 20
127.5108083927
 10
154.522332989
 20
127.6135489005
 10
154.753219311
 20
127.5612183269
 10
154.9417114646
 20
127.3589391531
 10
155.0693585246
 20
127.0265118741
 10
155.1236655073
 20
126.5964767879
 10
155.0993164668
 20
126.1109287252
 10
154.998694857
 20
125.6173965132
 10
154.831650222
 20
125.1641905236
 10
154.6145340547
 20
124.7956737163
 10
154.3685991981
 20
124.5479190839
 10
154.1179194696
 20
124.4451785761
 10
153.8870331476
 20
124.4975091497
  0
LINE
  5
115
330
1F
100
AcDbEntity
  8
0
  6
HIDDEN
 62
     7
370
     0
100
AcDbLine
 10
155.0423848101
 20
125.4794017774
 30
0.0
 11
155.3085476799
 21
124.6741943959
 31
0.0
  0
LINE
  5
116
330
1F
100
AcDbEntity
  8
0
  6
HIDDEN
 62
     7
370
     0
100
AcDbLine
 10
155.0423848101
 20
125.4794017774
 30
0.0
 11
153.7433467044
 21
125.7359168849
 31
0.0
  0
LINE
  5
117
330
1F
100
AcDbEntity
  8
0
  6
HIDDEN
 62
     7
370
     0
100
AcDbLine
 10
155.0423848101
 20
125.4794017774
 30
0.0
 11
155.3530014651
 21
126.5780560123
 31
0.0
  0
LINE
  5
118
330
1F
100
AcDbEntity
  8
0
  6
HIDDEN
 62
     7
370
     0
100
AcDbLine
 10
153.7433467044
 20
125.7359168849
 30
0.0
 11
154.0539633594
 21
126.8345711198
 31
0.0
  0
LINE
  5
119
330
1F
100
AcDbEntity
  8
0
  6
HIDDEN
 62
     7
370
     0
100
AcDbLine
 10
153.7433467044
 20
125.7359168849
 30
0.0
 11
154.0095095742
 21
124.9307095034
 31
0.0
  0
LINE
  5
11A
330
1F
100
AcDbEntity
  8
0
  6
HIDDEN
 62
     7
370
     0
100
AcDbLine
 10
154.0539633594
 20
126.8345711198
 30
0.0
 11
154.6307428843
 21
127.1280179732
 31
0.0
  0
LINE
  5
11B
330
1F
100
AcDbEntity
  8
0
  6
HIDDEN
 62
     7
370
     0
100
AcDbLine
 10
155.3530014651
 20
126.5780560123
 30
0.0
 11
154.0539633594
 21
126.8345711198
 31
0.0
  0
LINE
  5
11C
330
1F
100
AcDbEntity
  8
0
  6
HIDDEN
 62
     7
370
     0
100
AcDbLine
 10
155.3530014651
 20
126.5780560123
 30
0.0
 11
155.92978099
 21
126.8715028657
 31
0.0
  0
LINE
  5
11D
330
1F
100
AcDbEntity
  8
0
  6
HIDDEN
 62
     7
370
     0
100
AcDbLine
 10
155.8853272048
 20
124.9676412494
 30
0.0
 11
154.5862890991
 21
125.2241563568
 31
0.0
  0
LINE
  5
11E
330
1F
100
AcDbEntity
  8
0
  6
HIDDEN
 62
     7
370
     0
100
AcDbLine
 10
154.5862890991
 20
125.2241563568
 30
0.0
 11
154.0095095742
 21
124.9307095034
 31
0.0
  0
LINE
  5
11F
330
1F
100
AcDbEntity
  8
0
  6
HIDDEN
 62
     7
370
     0
100
AcDbLine
 10
155.3085476799
 20
124.6741943959
 30
0.0
 11
154.0095095742
 21
124.9307095034
 31
0.0
  0
LINE
  5
120
330
1F
100
AcDbEntity
  8
0
  6
HIDDEN
 62
     7
370
     0
100
AcDbLine
 10
155.8853272048
 20
124.9676412494
 30
0.0
 11
155.3085476799
 21
124.6741943959
 31
0.0
  0
LINE
  5
121
330
1F
100
AcDbEntity
  8
0
  6
HIDDEN
 62
     7
370
     0
100
AcDbLine
 10
156.1959438598
 20
126.0662954842
 30
0.0
 11
154.8969057542
 21
126.3228105917
 31
0.0
  0
LINE
  5
122
330
1F
100
AcDbEntity
  8
0
  6
HIDDEN
 62
     7
370
     0
100
AcDbLine
 10
155.92978099
 20
126.8715028657
 30
0.0
 11
154.6307428843
 21
127.1280179732
 31
0.0
  0
LINE
  5
123
330
1F
100
AcDbEntity
  8
0
  6
HIDDEN
 62
     7
370
     0
100
AcDbLine
 10
154.8969057542
 20
126.3228105917
 30
0.0
 11
154.6307428843
 21
127.1280179732
 31
0.0
  0
LINE
  5
124
330
1F
100
AcDbEntity
  8
0
  6
HIDDEN
 62
     7
370
     0
100
AcDbLine
 10
156.1959438598
 20
126.0662954842
 30
0.0
 11
155.92978099
 21
126.8715028657
 31
0.0
  0
LINE
  5
125
330
1F
100
AcDbEntity
  8
0
  6
HIDDEN
 62
     7
370
     0
100
AcDbLine
 10
154.5862890991
 20
125.2241563568
 30
0.0
 11
154.8969057542
 21
126.3228105917
 31
0.0
  0
LINE
  5
126
330
1F
100
AcDbEntity
  8
0
  6
HIDDEN
 62
     7
370
     0
100
AcDbLine
 10
155.8853272048
 20
124.9676412494
 30
0.0
 11
156.1959438598
 21
126.0662954842
 31
0.0
  0
LWPOLYLINE
  5
127
330
1F
100
AcDbEntity
  8
0
  6
HIDDEN
 62
     7
370
     0
100
AcDbPolyline
 90
       21
 70
   128
 43
0.0
 10
153.8870331476
 20
109.5857941419
 10
153.6985409939
 20
109.3835149681
 10
153.570893934
 20
109.051087689
 10
153.5165869513
 20
108.6210526029
 10
153.5409359917
 20
108.1355045401
 10
153.6415576015
 20
107.6419723282
 10
153.8086022365
 20
107.1887663386
 10
154.0257184039
 20
106.8202495312
 10
154.2716532605
 20
106.5724948989
 10
154.522332989
 20
106.4697543911
 10
154.753219311
 20
106.5220849647
 10
154.9417114646
 20
106.7243641385
 10
155.0693585246
 20
107.0567914175
 10
155.1236655073
 20
107.4868265037
 10
155.0993164668
 20
107.9723745664
 10
154.998694857
 20
108.4659067784
 10
154.831650222
 20
108.919112768
 10
154.6145340547
 20
109.2876295753
 10
154.3685991981
 20
109.5353842077
 10
154.1179194696
 20
109.6381247154
 10
153.8870331476
 20
109.5857941419
  0
LWPOLYLINE
  5
128
330
1F
100
AcDbEntity
  8
0
  6
HIDDEN
 62
     7
370
     0
100
AcDbPolyline
 90
       23
 70
   128
 43
0.0
 10
153.977122401
 20
109.9953702653
 10
153.7614310202
 20
109.7741088319
 10
153.6067995428
 20
109.4166090212
 10
153.5257552914
 20
108.9518333418
 10
153.5248639895
 20
108.4174351551
 10
153.6041978449
 20
107.8567082239
 10
153.7573297005
 20
107.3150793096
 10
153.9718537241
 20
106.8364279654
 10
154.2303904551
 20
106.4595316768
 10
154.5119947851
 20
106.2149243394
 10
154.7938528061
 20
106.1224225851
 10
155.0531300575
 20
106.1895203558
 10
155.2688214384
 20
106.4107817892
 10
155.4234529158
 20
106.7682815998
 10
155.5044971671
 20
107.2330572793
 10
155.505388469
 20
107.767455466
 10
155.4260546136
 20
108.3281823971
 10
155.272922758
 20
108.8698113115
 10
155.0583987345
 20
109.3484626556
 10
154.7998620035
 20
109.7253589443
 10
154.5182576735
 20
109.9699662817
 10
154.2363996524
 20
110.062468036
 10
153.977122401
 20
109.9953702653
  0
LWPOLYLINE
  5
129
330
1F
100
AcDbEntity
  8
0
  6
HIDDEN
 62
     7
370
     0
100
AcDbPolyline
 90
       23
 70
   128
 43
0.0
 10
155.7306795596
 20
110.3416371693
 10
155.5149881787
 20
110.1203757359
 10
155.3603567013
 20
109.7628759252
 10
155.27931245
 20
109.2981002458
 10
155.278421148
 20
108.7637020591
 10
155.3577550034
 20
108.2029751279
 10
155.510886859
 20
107.6613462136
 10
155.7254108826
 20
107.1826948694
 10
155.9839476136
 20
106.8057985807
 10
156.2655519436
 20
106.5611912434
 10
156.5474099646
 20
106.468689489
 10
156.806687216
 20
106.5357872597
 10
157.0223785969
 20
106.7570486932
 10
157.1770100743
 20
107.1145485038
 10
157.2580543256
 20
107.5793241832
 10
157.2589456276
 20
108.11372237
 10
157.1796117722
 20
108.6744493011
 10
157.0264799165
 20
109.2160782155
 10
156.811955893
 20
109.6947295596
 10
156.553419162
 20
110.0716258483
 10
156.271814832
 20
110.3162331857
 10
155.989956811
 20
110.40873494
 10
155.7306795596
 20
110.3416371693
  0
LINE
  5
12A
330
1F
100
AcDbEntity
  8
0
  6
HIDDEN
 62
     7
370
     0
100
AcDbLine
 10
154.0539633594
 20
107.2487321718
 30
0.0
 11
154.6307428843
 21
106.9552853184
 31
0.0
  0
LINE
  5
12B
330
1F
100
AcDbEntity
  8
0
  6
HIDDEN
 62
     7
370
     0
100
AcDbLine
 10
154.8969057542
 20
107.7604926999
 30
0.0
 11
154.6307428843
 21
106.9552853184
 31
0.0
  0
LINE
  5
12C
330
1F
100
AcDbEntity
  8
0
  6
HIDDEN
 62
     7
370
     0
100
AcDbLine
 10
154.5862890991
 20
108.8591469347
 30
0.0
 11
154.8969057542
 21
107.7604926999
 31
0.0
  0
LINE
  5
12D
330
1F
100
AcDbEntity
  8
0
  6
HIDDEN
 62
     7
370
     0
100
AcDbLine
 10
154.5862890991
 20
108.8591469347
 30
0.0
 11
154.0095095742
 21
109.1525937882
 31
0.0
  0
LINE
  5
12E
330
1F
100
AcDbEntity
  8
0
  6
HIDDEN
 62
     7
370
     0
100
AcDbLine
 10
153.7433467044
 20
108.3473864067
 30
0.0
 11
154.0095095742
 21
109.1525937882
 31
0.0
  0
LINE
  5
12F
330
1F
100
AcDbEntity
  8
0
  6
HIDDEN
 62
     7
370
     0
100
AcDbLine
 10
153.7433467044
 20
108.3473864067
 30
0.0
 11
154.0539633594
 21
107.2487321718
 31
0.0
  0
LWPOLYLINE
  5
130
330
1F
100
AcDbEntity
  8
0
  6
HIDDEN
 62
     7
370
     0
100
AcDbPolyline
 90
       19
 70
   128
 43
0.0
 10
156.581950048
 20
109.756297865
 10
156.4220389994
 20
109.5751773487
 10
156.3219725844
 20
109.2724521187
 10
156.2938202895
 20
108.8846353054
 10
156.3409776969
 20
108.4585033401
 10
156.4577569273
 20
108.0454540268
 10
156.6300726821
 20
107.6953072087
 10
156.8371411381
 20
107.4502957596
 10
157.0539867836
 20
107.3399716763
 10
157.2544548333
 20
107.3776416715
 10
157.4143658819
 20
107.5587621878
 10
157.5144322969
 20
107.8614874178
 10
157.5425845918
 20
108.2493042311
 10
157.4954271844
 20
108.6754361964
 10
157.3786479539
 20
109.0884855097
 10
157.2063321992
 20
109.4386323278
 10
156.9992637431
 20
109.6836437769
 10
156.7824180977
 20
109.7939678602
 10
156.581950048
 20
109.756297865
  0
LINE
  5
131
330
1F
100
AcDbEntity
  8
0
  6
HIDDEN
 62
     7
370
     0
100
AcDbLine
 10
156.1959438598
 20
108.0170078074
 30
0.0
 11
154.8969057542
 21
107.7604926999
 31
0.0
  0
LINE
  5
132
330
1F
100
AcDbEntity
  8
0
  6
HIDDEN
 62
     7
370
     0
100
AcDbLine
 10
155.8853272048
 20
109.1156620422
 30
0.0
 11
154.5862890991
 21
108.8591469347
 31
0.0
  0
LINE
  5
133
330
1F
100
AcDbEntity
  8
0
  6
HIDDEN
 62
     7
370
     0
100
AcDbLine
 10
155.3530014651
 20
107.5052472793
 30
0.0
 11
155.92978099
 21
107.2118004259
 31
0.0
  0
LINE
  5
134
330
1F
100
AcDbEntity
  8
0
  6
HIDDEN
 62
     7
370
     0
100
AcDbLine
 10
155.0423848101
 20
108.6039015142
 30
0.0
 11
155.3530014651
 21
107.5052472793
 31
0.0
  0
LINE
  5
135
330
1F
100
AcDbEntity
  8
0
  6
HIDDEN
 62
     7
370
     0
100
AcDbLine
 10
155.0423848101
 20
108.6039015142
 30
0.0
 11
155.3085476799
 21
109.4091088957
 31
0.0
  0
LINE
  5
136
330
1F
100
AcDbEntity
  8
0
  6
HIDDEN
 62
     7
370
     0
100
AcDbLine
 10
155.8853272048
 20
109.1156620422
 30
0.0
 11
155.3085476799
 21
109.4091088957
 31
0.0
  0
LINE
  5
137
330
1F
100
AcDbEntity
  8
0
  6
HIDDEN
 62
     7
370
     0
100
AcDbLine
 10
155.8853272048
 20
109.1156620422
 30
0.0
 11
156.1959438598
 21
108.0170078074
 31
0.0
  0
LINE
  5
138
330
1F
100
AcDbEntity
  8
0
  6
HIDDEN
 62
     7
370
     0
100
AcDbLine
 10
156.1959438598
 20
108.0170078074
 30
0.0
 11
155.92978099
 21
107.2118004259
 31
0.0
  0
LINE
  5
139
330
1F
100
AcDbEntity
  8
0
  6
HIDDEN
 62
     7
370
     0
100
AcDbLine
 10
155.3530014651
 20
107.5052472793
 30
0.0
 11
154.0539633594
 21
107.2487321718
 31
0.0
  0
LINE
  5
13A
330
1F
100
AcDbEntity
  8
0
  6
HIDDEN
 62
     7
370
     0
100
AcDbLine
 10
155.92978099
 20
107.2118004259
 30
0.0
 11
154.6307428843
 21
106.9552853184
 31
0.0
  0
LINE
  5
13B
330
1F
100
AcDbEntity
  8
0
  6
HIDDEN
 62
     7
370
     0
100
AcDbLine
 10
155.0423848101
 20
108.6039015142
 30
0.0
 11
153.7433467044
 21
108.3473864067
 31
0.0
  0
LINE
  5
13C
330
1F
100
AcDbEntity
  8
0
  6
HIDDEN
 62
     7
370
     0
100
AcDbLine
 10
155.3085476799
 20
109.4091088957
 30
0.0
 11
154.0095095742
 21
109.1525937882
 31
0.0
  0
LWPOLYLINE
  5
13D
330
1F
100
AcDbEntity
  8
0
  6
HIDDEN
 62
     7
370
     0
100
AcDbPolyline
 90
       26
 70
   128
 43
0.0
 10
166.4025993696
 20
127.0185159979
 10
166.9783102949
 20
127.2511111185
 10
167.5974905597
 20
127.3418597683
 10
168.2212347907
 20
127.2850598758
 10
168.810350844
 20
127.0842803873
 10
169.3278223913
 20
126.7521370163
 10
169.7411347921
 20
126.3094995524
 10
170.0243181083
 20
125.7841805355
 10
170.1595788906
 20
125.2091876912
 10
170.1384182067
 20
124.6206499347
 10
169.9621656601
 20
124.0555472577
 10
169.6418958465
 20
123.5493871398
 10
169.1977324962
 20
123.1339734826
 10
168.657584026
 20
122.835408254
 10
168.0553899508
 20
122.6724514054
 10
167.4289883391
 20
122.6553421148
 10
166.8177383079
 20
122.785155422
 10
166.2600469446
 20
123.0537346795
 10
165.7909560487
 20
123.4442040646
 10
165.4399403264
 20
123.9320289499
 10
165.2290553864
 20
124.4865575038
 10
165.171551905
 20
125.0729466578
 10
165.2710430376
 20
125.6543514248
 10
165.5212773903
 20
126.194240005
 10
165.9065318185
 20
126.6586892133
 10
166.4025993696
 20
127.0185159979
  0
LWPOLYLINE
  5
13E
330
1F
100
AcDbEntity
  8
0
  6
HIDDEN
 62
     7
370
     0
100
AcDbPolyline
 90
       22
 70
   128
 43
0.0
 10
166.7828574275
 20
126.1545320845
 10
167.2668833851
 20
126.3373148285
 10
167.7867392391
 20
126.3779118955
 10
168.2962335154
 20
126.2727160577
 10
168.7500954116
 20
126.031074427
 10
169.1079973067
 20
125.6744579227
 10
169.3381380465
 20
125.2345534863
 10
169.4200686165
 20
124.7504485573
 10
169.3465091258
 20
124.2651579832
 10
169.1239956581
 20
123.8218019612
 10
168.7722995114
 20
123.4597746194
 10
168.3226704318
 20
123.2112436759
 10
167.8150599362
 20
123.0982921957
 10
167.2945714447
 20
123.1309564134
 10
166.8074526439
 20
123.3063339701
 10
166.3969861769
 20
123.6088418001
 10
166.0996437907
 20
124.0116007552
 10
165.9418456611
 20
124.4788239348
 10
165.9376128444
 20
124.968996509
 10
166.0873214449
 20
125.4385644934
 10
166.3776691966
 20
125.8458047121
 10
166.7828574275
 20
126.1545320845
  0
LWPOLYLINE
  5
13F
330
1F
100
AcDbEntity
  8
0
  6
HIDDEN
 62
     7
370
     0
100
AcDbPolyline
 90
       26
 70
   128
 43
0.0
 10
166.4025993696
 20
128.042209351
 10
166.9783102949
 20
128.2748044716
 10
167.5974905597
 20
128.3655531214
 10
168.2212347907
 20
128.3087532289
 10
168.810350844
 20
128.1079737404
 10
169.3278223913
 20
127.7758303694
 10
169.7411347921
 20
127.3331929055
 10
170.0243181083
 20
126.8078738886
 10
170.1595788906
 20
126.2328810443
 10
170.1384182067
 20
125.6443432878
 10
169.9621656601
 20
125.0792406108
 10
169.6418958465
 20
124.5730804929
 10
169.1977324962
 20
124.1576668357
 10
168.657584026
 20
123.8591016071
 10
168.0553899508
 20
123.6961447585
 10
167.4289883391
 20
123.6790354679
 10
166.8177383079
 20
123.8088487751
 10
166.2600469446
 20
124.0774280326
 10
165.7909560487
 20
124.4678974177
 10
165.4399403264
 20
124.955722303
 10
165.2290553864
 20
125.5102508569
 10
165.171551905
 20
126.0966400109
 10
165.2710430376
 20
126.6780447779
 10
165.5212773903
 20
127.2179333581
 10
165.9065318185
 20
127.6823825664
 10
166.4025993696
 20
128.042209351
  0
LINE
  5
140
330
1F
100
AcDbEntity
  8
0
  6
HIDDEN
 62
     7
370
     0
100
AcDbLine
 10
168.3816474104
 20
126.6012251067
 30
0.0
 11
166.9383192556
 21
126.5902194194
 31
0.0
  0
LINE
  5
141
330
1F
100
AcDbEntity
  8
0
  6
HIDDEN
 62
     7
370
     0
100
AcDbLine
 10
168.3816474104
 20
126.6012251067
 30
0.0
 11
168.3816474104
 21
127.2852653933
 31
0.0
  0
LINE
  5
142
330
1F
100
AcDbEntity
  8
0
  6
HIDDEN
 62
     7
370
     0
100
AcDbLine
 10
168.3816474104
 20
126.6012251067
 30
0.0
 11
169.113454384
 21
125.4321508446
 31
0.0
  0
LINE
  5
143
330
1F
100
AcDbEntity
  8
0
  6
HIDDEN
 62
     7
370
     0
100
AcDbLine
 10
166.9383192556
 20
126.5902194194
 30
0.0
 11
166.9383192556
 21
127.274259706
 31
0.0
  0
LINE
  5
144
330
1F
100
AcDbEntity
  8
0
  6
HIDDEN
 62
     7
370
     0
100
AcDbLine
 10
166.2267980746
 20
125.41013947
 30
0.0
 11
166.9383192556
 21
126.5902194194
 31
0.0
  0
LINE
  5
145
330
1F
100
AcDbEntity
  8
0
  6
HIDDEN
 62
     7
370
     0
100
AcDbLine
 10
168.4019332029
 20
124.2520708952
 30
0.0
 11
168.4019332029
 21
124.9361111818
 31
0.0
  0
LINE
  5
146
330
1F
100
AcDbEntity
  8
0
  6
HIDDEN
 62
     7
370
     0
100
AcDbLine
 10
169.113454384
 20
126.1161911312
 30
0.0
 11
168.4019332029
 21
124.9361111818
 31
0.0
  0
LINE
  5
147
330
1F
100
AcDbEntity
  8
0
  6
HIDDEN
 62
     7
370
     0
100
AcDbLine
 10
169.113454384
 20
125.4321508446
 30
0.0
 11
169.113454384
 21
126.1161911312
 31
0.0
  0
LINE
  5
148
330
1F
100
AcDbEntity
  8
0
  6
HIDDEN
 62
     7
370
     0
100
AcDbLine
 10
169.113454384
 20
125.4321508446
 30
0.0
 11
168.4019332029
 21
124.2520708952
 31
0.0
  0
LINE
  5
149
330
1F
100
AcDbEntity
  8
0
  6
HIDDEN
 62
     7
370
     0
100
AcDbLine
 10
166.9586050482
 20
124.2410652079
 30
0.0
 11
166.9586050482
 21
124.9251054945
 31
0.0
  0
LINE
  5
14A
330
1F
100
AcDbEntity
  8
0
  6
HIDDEN
 62
     7
370
     0
100
AcDbLine
 10
166.2267980746
 20
126.0941797566
 30
0.0
 11
166.9586050482
 21
124.9251054945
 31
0.0
  0
LINE
  5
14B
330
1F
100
AcDbEntity
  8
0
  6
HIDDEN
 62
     7
370
     0
100
AcDbLine
 10
166.2267980746
 20
125.41013947
 30
0.0
 11
166.2267980746
 21
126.0941797566
 31
0.0
  0
LINE
  5
14C
330
1F
100
AcDbEntity
  8
0
  6
HIDDEN
 62
     7
370
     0
100
AcDbLine
 10
166.2267980746
 20
125.41013947
 30
0.0
 11
166.9586050482
 21
124.2410652079
 31
0.0
  0
LINE
  5
14D
330
1F
100
AcDbEntity
  8
0
  6
HIDDEN
 62
     7
370
     0
100
AcDbLine
 10
166.9586050482
 20
124.9251054945
 30
0.0
 11
168.4019332029
 21
124.9361111818
 31
0.0
  0
LINE
  5
14E
330
1F
100
AcDbEntity
  8
0
  6
HIDDEN
 62
     7
370
     0
100
AcDbLine
 10
166.9586050482
 20
124.2410652079
 30
0.0
 11
168.4019332029
 21
124.2520708952
 31
0.0
  0
LWPOLYLINE
  5
14F
330
1F
100
AcDbEntity
  8
0
  6
HIDDEN
 62
     7
370
     0
100
AcDbPolyline
 90
       24
 70
   128
 43
0.0
 10
166.6282191506
 20
127.7696499722
 10
167.1447431766
 20
127.9720776828
 10
167.7002324601
 20
128.0360465365
 10
168.2534889022
 20
127.9568122561
 10
168.7634800035
 20
127.7402512857
 10
169.1923820572
 20
127.4024249617
 10
169.50838536
 20
126.9683883172
 10
169.6880533925
 20
126.4703318644
 10
169.7180609988
 20
125.9451941721
 10
169.5961826518
 20
125.4319223005
 10
169.3314575111
 20
124.9685832762
 10
168.9435190294
 20
124.5895408351
 10
168.461138829
 20
124.3229068211
 10
167.9200928427
 20
124.1884562591
 10
167.3605079763
 20
124.1961607323
 10
166.8238860793
 20
124.3454488352
 10
166.3500259429
 20
124.6252485521
 10
165.9740716056
 20
125.0148084179
 10
165.7239058809
 20
125.4852365597
 10
165.6180824161
 20
126.0016434741
 10
165.6644496534
 20
126.5257296228
 10
165.859568747
 20
127.0186259335
 10
166.1889686063
 20
127.4437765419
 10
166.6282191506
 20
127.7696499722
  0
LINE
  5
150
330
1F
100
AcDbEntity
  8
0
  6
HIDDEN
 62
     7
370
     0
100
AcDbLine
 10
166.2267980746
 20
126.0941797566
 30
0.0
 11
166.9383192556
 21
127.274259706
 31
0.0
  0
LINE
  5
151
330
1F
100
AcDbEntity
  8
0
  6
HIDDEN
 62
     7
370
     0
100
AcDbLine
 10
168.3816474104
 20
127.2852653933
 30
0.0
 11
169.113454384
 21
126.1161911312
 31
0.0
  0
LINE
  5
152
330
1F
100
AcDbEntity
  8
0
  6
HIDDEN
 62
     7
370
     0
100
AcDbLine
 10
168.3816474104
 20
127.2852653933
 30
0.0
 11
166.9383192556
 21
127.274259706
 31
0.0
  0
LINE
  5
153
330
1F
100
AcDbEntity
  8
0
  6
HIDDEN
 62
     7
370
     0
100
AcDbLine
 10
197.0201262293
 20
130.8416516458
 30
0.0
 11
196.3201262293
 21
131.5416516458
 31
0.0
  0
LINE
  5
154
330
1F
100
AcDbEntity
  8
0
  6
HIDDEN
 62
     7
370
     0
100
AcDbLine
 10
189.7201262293
 20
131.5416516458
 30
0.0
 11
189.0201262293
 21
130.8416516458
 31
0.0
  0
LINE
  5
155
330
1F
100
AcDbEntity
  8
0
  6
HIDDEN
 62
     7
370
     0
100
AcDbLine
 10
189.0201262293
 20
130.8416516458
 30
0.0
 11
189.0201262293
 21
125.6469075341
 31
0.0
  0
LINE
  5
156
330
1F
100
AcDbEntity
  8
0
  6
HIDDEN
 62
     7
370
     0
100
AcDbLine
 10
197.0201262293
 20
125.6469075341
 30
0.0
 11
197.0201262293
 21
130.8416516458
 31
0.0
  0
LINE
  5
157
330
1F
100
AcDbEntity
  8
0
  6
HIDDEN
 62
     7
370
     0
100
AcDbLine
 10
189.0201262293
 20
125.6469075341
 30
0.0
 11
190.0605465778
 21
121.7640059323
 31
0.0
  0
LINE
  5
158
330
1F
100
AcDbEntity
  8
0
  6
HIDDEN
 62
     7
370
     0
100
AcDbLine
 10
195.9797058808
 20
121.7640059323
 30
0.0
 11
197.0201262293
 21
125.6469075341
 31
0.0
  0
ARC
  5
159
330
1F
100
AcDbEntity
  8
0
  6
HIDDEN
 62
     7
370
     0
100
AcDbCircle
 10
190.3503243257
 20
121.8416516458
 30
0.0
 40
0.2999999999999972
100
AcDbArc
 50
195.0
 51
270.0
  0
ARC
  5
15A
330
1F
100
AcDbEntity
  8
0
  6
HIDDEN
 62
     7
370
     0
100
AcDbCircle
 10
195.6899281329
 20
121.8416516458
 30
0.0
 40
0.2999999999999972
100
AcDbArc
 50
270.0
 51
345.0
  0
LINE
  5
15B
330
1F
100
AcDbEntity
  8
0
  6
HIDDEN
 62
     7
370
     0
100
AcDbLine
 10
190.6201262293
 20
131.5416516458
 30
0.0
 11
190.9583394103
 21
131.2034384648
 31
0.0
  0
LINE
  5
15C
330
1F
100
AcDbEntity
  8
0
  6
HIDDEN
 62
     7
370
     0
100
AcDbLine
 10
195.0819130483
 20
131.2034384648
 30
0.0
 11
195.4201262293
 21
131.5416516458
 31
0.0
  0
LINE
  5
15D
330
1F
100
AcDbEntity
  8
0
  6
HIDDEN
 62
     7
370
     0
100
AcDbLine
 10
191.0201262293
 20
126.5416516458
 30
0.0
 11
191.0201262293
 21
125.5416516458
 31
0.0
  0
LINE
  5
15E
330
1F
100
AcDbEntity
  8
0
  6
HIDDEN
 62
     7
370
     0
100
AcDbLine
 10
195.0201262293
 20
125.5416516458
 30
0.0
 11
195.0201262293
 21
126.5416516458
 31
0.0
  0
LINE
  5
15F
330
1F
100
AcDbEntity
  8
0
  6
HIDDEN
 62
     7
370
     0
100
AcDbLine
 10
191.0201262293
 20
125.5416516458
 30
0.0
 11
193.0201262293
 21
124.8137111773
 31
0.0
  0
LINE
  5
160
330
1F
100
AcDbEntity
  8
0
  6
HIDDEN
 62
     7
370
     0
100
AcDbLine
 10
193.0201262293
 20
124.8137111773
 30
0.0
 11
195.0201262293
 21
125.5416516458
 31
0.0
  0
LINE
  5
161
330
1F
100
AcDbEntity
  8
0
  6
HIDDEN
 62
     7
370
     0
100
AcDbLine
 10
153.0701262293
 20
105.6665570678
 30
0.0
 11
154.7269479443
 21
105.9937220667
 31
0.0
  0
LINE
  5
162
330
1F
100
AcDbEntity
  8
0
  6
HIDDEN
 62
     7
370
     0
100
AcDbLine
 10
153.9133045142
 20
110.1141570399
 30
0.0
 11
153.0701262293
 21
109.9476584842
 31
0.0
  0
LINE
  5
163
330
1F
100
AcDbEntity
  8
0
  6
HIDDEN
 62
     7
370
     0
100
AcDbLine
 10
154.7816152236
 20
106.4632064015
 30
0.0
 11
166.2193985741
 21
108.7217731155
 31
0.0
  0
LINE
  5
164
330
1F
100
AcDbEntity
  8
0
  6
HIDDEN
 62
     7
370
     0
100
AcDbLine
 10
166.2143829555
 20
112.0845052456
 30
0.0
 11
154.1423239571
 21
109.7006910233
 31
0.0
  0
LINE
  5
165
330
1F
100
AcDbEntity
  8
0
  6
HIDDEN
 62
     7
370
     0
100
AcDbLine
 10
169.7701262293
 20
109.6882185643
 30
0.0
 11
169.7701262293
 21
115.8807471431
 31
0.0
  0
LINE
  5
166
330
1F
100
AcDbEntity
  8
0
  6
HIDDEN
 62
     7
370
     0
100
AcDbLine
 10
165.5701262293
 20
115.8808595203
 30
0.0
 11
165.5701262293
 21
110.9264158778
 31
0.0
  0
ARC
  5
167
330
1F
100
AcDbEntity
  8
0
  6
HIDDEN
 62
     7
370
     0
100
AcDbCircle
 10
204.0701262293
 20
127.0416516458
 30
0.0
 40
1.0
100
AcDbArc
 50
270.0
 51
0.0
  0
ARC
  5
168
330
1F
100
AcDbEntity
  8
0
  6
HIDDEN
 62
     7
370
     0
100
AcDbCircle
 10
204.0701262293
 20
107.0416516458
 30
0.0
 40
1.0
100
AcDbArc
 50
0.0
 51
90.0
  0
ARC
  5
169
330
1F
100
AcDbEntity
  8
0
  6
HIDDEN
 62
     7
370
     0
100
AcDbCircle
 10
183.3701262293
 20
125.7416516458
 30
0.0
 40
0.8000000000000256
100
AcDbArc
 50
90.0
 51
180.0
  0
ARC
  5
16A
330
1F
100
AcDbEntity
  8
0
  6
HIDDEN
 62
     7
370
     0
100
AcDbCircle
 10
183.3701262293
 20
108.3416516458
 30
0.0
 40
0.8000000000000114
100
AcDbArc
 50
180.0
 51
270.0
  0
LINE
  5
16B
330
1F
100
AcDbEntity
  8
0
  6
HIDDEN
 62
     7
370
     0
100
AcDbLine
 10
183.9648042312
 20
126.5416516458
 30
0.0
 11
183.3701262293
 21
126.5416516458
 31
0.0
  0
LINE
  5
16C
330
1F
100
AcDbEntity
  8
0
  6
HIDDEN
 62
     7
370
     0
100
AcDbLine
 10
183.3701262293
 20
107.5416516458
 30
0.0
 11
183.9648042312
 21
107.5416516458
 31
0.0
  0
ARC
  5
16D
330
1F
100
AcDbEntity
  8
0
  6
HIDDEN
 62
     7
370
     0
100
AcDbCircle
 10
183.9648042312
 20
125.7416516458
 30
0.0
 40
0.8000000000000256
100
AcDbArc
 50
75.0
 51
90.0
  0
ARC
  5
16E
330
1F
100
AcDbEntity
  8
0
  6
HIDDEN
 62
     7
370
     0
100
AcDbCircle
 10
183.9648042312
 20
108.3416516458
 30
0.0
 40
0.7999999999999982
100
AcDbArc
 50
270.0
 51
285.0
  0
LINE
  5
16F
330
1F
100
AcDbEntity
  8
0
  6
HIDDEN
 62
     7
370
     0
100
AcDbLine
 10
184.1718594673
 20
107.5689109848
 30
0.0
 11
185.9361516331
 21
108.0416516458
 31
0.0
  0
LINE
  5
170
330
1F
100
AcDbEntity
  8
0
  6
HIDDEN
 62
     7
370
     0
100
AcDbLine
 10
185.9361516331
 20
126.0416516458
 30
0.0
 11
184.1718594673
 21
126.5143923068
 31
0.0
  0
ARC
  5
171
330
1F
100
AcDbEntity
  8
0
  6
HIDDEN
 62
     7
370
     0
100
AcDbCircle
 10
86.4701262293
 20
107.7416516458
 30
0.0
 40
0.8000000000000114
100
AcDbArc
 50
90.0
 51
180.0
  0
ARC
  5
172
330
1F
100
AcDbEntity
  8
0
  6
HIDDEN
 62
     7
370
     0
100
AcDbCircle
 10
86.4701262293
 20
126.3416516458
 30
0.0
 40
0.7999999999999972
100
AcDbArc
 50
180.0
 51
270.0
  0
LINE
  5
173
330
1F
100
AcDbEntity
  8
0
  6
HIDDEN
 62
     7
370
     0
100
AcDbLine
 10
189.5604755299
 20
126.0416516458
 30
0.0
 11
185.9361516331
 21
126.0416516458
 31
0.0
  0
LINE
  5
174
330
1F
100
AcDbEntity
  8
0
  6
HIDDEN
 62
     7
370
     0
100
AcDbLine
 10
204.0701262293
 20
126.0416516458
 30
0.0
 11
196.4843646866
 21
126.0416516458
 31
0.0
  0
LINE
  5
175
330
1F
100
AcDbEntity
  8
0
  6
HIDDEN
 62
     7
370
     0
100
AcDbLine
 10
185.9361516331
 20
108.0416516458
 30
0.0
 11
204.0701262293
 21
108.0416516458
 31
0.0
  0
ARC
  5
176
330
1F
100
AcDbEntity
  8
0
  6
HIDDEN
 62
     7
370
     0
100
AcDbCircle
 10
94.4391861216
 20
108.7166516458
 30
0.0
 40
0.4000000000000057
100
AcDbArc
 50
270.0
 51
330.0
  0
ARC
  5
177
330
1F
100
AcDbEntity
  8
0
  6
HIDDEN
 62
     7
370
     0
100
AcDbCircle
 10
94.4391861216
 20
125.3666516458
 30
0.0
 40
0.3999999999999998
100
AcDbArc
 50
30.0
 51
90.0
  0
LINE
  5
178
330
1F
100
AcDbEntity
  8
0
  6
HIDDEN
 62
     7
370
     0
100
AcDbLine
 10
93.56249866
 20
108.3166516458
 30
0.0
 11
94.4391861216
 21
108.3166516458
 31
0.0
  0
LINE
  5
179
330
1F
100
AcDbEntity
  8
0
  6
HIDDEN
 62
     7
370
     0
100
AcDbLine
 10
94.4391861216
 20
125.7666516458
 30
0.0
 11
93.56249866
 21
125.7666516458
 31
0.0
  0
ARC
  5
17A
330
1F
100
AcDbEntity
  8
0
  6
HIDDEN
 62
     7
370
     0
100
AcDbCircle
 10
93.56249866
 20
108.7166516458
 30
0.0
 40
0.4000000000000057
100
AcDbArc
 50
255.0
 51
270.0
  0
ARC
  5
17B
330
1F
100
AcDbEntity
  8
0
  6
HIDDEN
 62
     7
370
     0
100
AcDbCircle
 10
93.56249866
 20
125.3666516458
 30
0.0
 40
0.4000000000000199
100
AcDbArc
 50
90.0
 51
105.0
  0
LINE
  5
17C
330
1F
100
AcDbEntity
  8
0
  6
HIDDEN
 62
     7
370
     0
100
AcDbLine
 10
93.458971042
 20
125.7530219763
 30
0.0
 11
92.6701262293
 21
125.5416516458
 31
0.0
  0
LINE
  5
17D
330
1F
100
AcDbEntity
  8
0
  6
HIDDEN
 62
     7
370
     0
100
AcDbLine
 10
92.6701262293
 20
108.5416516458
 30
0.0
 11
93.458971042
 21
108.3302813153
 31
0.0
  0
LINE
  5
17E
330
1F
100
AcDbEntity
  8
0
  6
HIDDEN
 62
     7
370
     0
100
AcDbLine
 10
94.7855962831
 20
108.5166516458
 30
0.0
 11
95.6660554436
 21
110.0416516458
 31
0.0
  0
LINE
  5
17F
330
1F
100
AcDbEntity
  8
0
  6
HIDDEN
 62
     7
370
     0
100
AcDbLine
 10
95.6660554436
 20
124.0416516458
 30
0.0
 11
94.7855962831
 21
125.5666516458
 31
0.0
  0
LINE
  5
180
330
1F
100
AcDbEntity
  8
0
  6
HIDDEN
 62
     7
370
     0
100
AcDbLine
 10
86.4701262293
 20
108.5416516458
 30
0.0
 11
92.6701262293
 21
108.5416516458
 31
0.0
  0
LINE
  5
181
330
1F
100
AcDbEntity
  8
0
  6
HIDDEN
 62
     7
370
     0
100
AcDbLine
 10
92.6701262293
 20
125.5416516458
 30
0.0
 11
86.4701262293
 21
125.5416516458
 31
0.0
  0
LINE
  5
182
330
1F
100
AcDbEntity
  8
0
  6
HIDDEN
 62
     7
370
     0
100
AcDbLine
 10
174.0701262293
 20
141.1416516458
 30
0.0
 11
174.0701262293
 21
147.5415803496
 31
0.0
  0
ARC
  5
183
330
1F
100
AcDbEntity
  8
0
  6
HIDDEN
 62
     7
370
     0
100
AcDbCircle
 10
172.4701262293
 20
92.9416516458
 30
0.0
 40
1.600000000000023
100
AcDbArc
 50
0.0
 51
90.0
  0
LINE
  5
184
330
1F
100
AcDbEntity
  8
0
  6
HIDDEN
 62
     7
370
     0
100
AcDbLine
 10
174.0701262293
 20
86.5416599468
 30
0.0
 11
174.0701262293
 21
92.9416516458
 31
0.0
  0
ARC
  5
185
330
1F
100
AcDbEntity
  8
0
  6
HIDDEN
 62
     7
370
     0
100
AcDbCircle
 10
172.4701262293
 20
141.1416516458
 30
0.0
 40
1.600000000000023
100
AcDbArc
 50
270.0
 51
0.0
  0
LINE
  5
186
330
1F
100
AcDbEntity
  8
0
  6
HIDDEN
 62
     7
370
     0
100
AcDbLine
 10
95.6660554436
 20
110.0416516458
 30
0.0
 11
128.6701262293
 21
110.0416516458
 31
0.0
  0
LINE
  5
187
330
1F
100
AcDbEntity
  8
0
  6
HIDDEN
 62
     7
370
     0
100
AcDbLine
 10
128.6701262293
 20
124.0416516458
 30
0.0
 11
95.6660554436
 21
124.0416516458
 31
0.0
  0
LINE
  5
188
330
1F
100
AcDbEntity
  8
0
  6
HIDDEN
 62
     7
370
     0
100
AcDbLine
 10
128.6701262293
 20
110.0416516458
 30
0.0
 11
130.8332244578
 21
113.6416516458
 31
0.0
  0
LINE
  5
189
330
1F
100
AcDbEntity
  8
0
  6
HIDDEN
 62
     7
370
     0
100
AcDbLine
 10
130.8332244578
 20
120.4416516458
 30
0.0
 11
128.6701262293
 21
124.0416516458
 31
0.0
  0
LINE
  5
18A
330
1F
100
AcDbEntity
  8
0
  6
HIDDEN
 62
     7
370
     0
100
AcDbLine
 10
174.0701253193
 20
147.5416514339
 30
0.0
 11
175.0701246886
 21
148.5416511806
 31
0.0
  0
LINE
  5
18B
330
1F
100
AcDbEntity
  8
0
  6
HIDDEN
 62
     7
370
     0
100
AcDbLine
 10
175.0701325907
 20
85.5416505081
 30
0.0
 11
174.0701323417
 21
86.5416503126
 31
0.0
  0
LINE
  5
18C
330
1F
100
AcDbEntity
  8
0
  6
HIDDEN
 62
     7
370
     0
100
AcDbLine
 10
188.0201262293
 20
133.0416516458
 30
0.0
 11
189.5201262293
 21
131.5416516458
 31
0.0
  0
LINE
  5
18D
330
1F
100
AcDbEntity
  8
0
  6
HIDDEN
 62
     7
370
     0
100
AcDbLine
 10
196.5201262293
 20
131.5416516458
 30
0.0
 11
198.0201262293
 21
133.0416516458
 31
0.0
  0
LINE
  5
18E
330
1F
100
AcDbEntity
  8
0
  6
HIDDEN
 62
     7
370
     0
100
AcDbLine
 10
189.5201262293
 20
131.5416516458
 30
0.0
 11
189.5201262293
 21
126.0261216259
 31
0.0
  0
LINE
  5
18F
330
1F
100
AcDbEntity
  8
0
  6
HIDDEN
 62
     7
370
     0
100
AcDbLine
 10
196.5201262293
 20
126.0279785497
 30
0.0
 11
196.5201262293
 21
131.5416516458
 31
0.0
  0
LINE
  5
190
330
1F
100
AcDbEntity
  8
0
  6
HIDDEN
 62
     7
370
     0
100
AcDbLine
 10
182.5701262293
 20
120.4416516458
 30
0.0
 11
130.8332244578
 21
120.4416516458
 31
0.0
  0
LINE
  5
191
330
1F
100
AcDbEntity
  8
0
  6
HIDDEN
 62
     7
370
     0
100
AcDbLine
 10
130.8332244578
 20
113.6416516458
 30
0.0
 11
182.5701262293
 21
113.6416516458
 31
0.0
  0
LINE
  5
192
330
1F
100
AcDbEntity
  8
0
  6
HIDDEN
 62
     7
370
     0
100
AcDbLine
 10
169.7701262293
 20
118.2024437713
 30
0.0
 11
169.7701262293
 21
126.1438120947
 31
0.0
  0
LINE
  5
193
330
1F
100
AcDbEntity
  8
0
  6
HIDDEN
 62
     7
370
     0
100
AcDbLine
 10
165.5701262293
 20
123.1595938943
 30
0.0
 11
165.5701262293
 21
118.2025561485
 31
0.0
  0
LINE
  5
194
330
1F
100
AcDbEntity
  8
0
  6
HIDDEN
 62
     7
370
     0
100
AcDbLine
 10
165.5701262293
 20
126.1438120947
 30
0.0
 11
165.5701262293
 21
124.4566903381
 31
0.0
  0
LINE
  5
195
330
1F
100
AcDbEntity
  8
0
  6
HIDDEN
 62
     7
370
     0
100
AcDbLine
 10
154.1423239571
 20
124.3826122683
 30
0.0
 11
166.2149032582
 21
121.9986953042
 31
0.0
  0
LINE
  5
196
330
1F
100
AcDbEntity
  8
0
  6
HIDDEN
 62
     7
370
     0
100
AcDbLine
 10
166.2208550809
 20
125.3612425664
 30
0.0
 11
154.7816152236
 21
127.6200968901
 31
0.0
  0
LINE
  5
197
330
1F
100
AcDbEntity
  8
0
  6
HIDDEN
 62
     7
370
     0
100
AcDbLine
 10
153.0701262293
 20
124.1356448074
 30
0.0
 11
153.9133045142
 21
123.9691462517
 31
0.0
  0
LINE
  5
198
330
1F
100
AcDbEntity
  8
0
  6
HIDDEN
 62
     7
370
     0
100
AcDbLine
 10
154.7269479443
 20
128.0895812249
 30
0.0
 11
153.0701262293
 21
128.4167462238
 31
0.0
  0
LINE
  5
199
330
1F
100
AcDbEntity
  8
0
  6
HIDDEN
 62
     7
370
     0
100
AcDbLine
 10
156.4313550049
 20
123.8866048077
 30
0.0
 11
157.0198722013
 21
124.4175921049
 31
0.0
  0
LINE
  5
19A
330
1F
100
AcDbEntity
  8
0
  6
HIDDEN
 62
     7
370
     0
100
AcDbLine
 10
157.4298829589
 20
126.4939594702
 30
0.0
 11
157.0873722171
 21
127.208792592
 31
0.0
  0
LINE
  5
19B
330
1F
100
AcDbEntity
  8
0
  6
HIDDEN
 62
     7
370
     0
100
AcDbLine
 10
154.1276769769
 20
124.028746089
 30
0.0
 11
155.8812341354
 21
123.6824791851
 31
0.0
  0
LINE
  5
19C
330
1F
100
AcDbEntity
  8
0
  6
HIDDEN
 62
     7
370
     0
100
AcDbLine
 10
156.6561326402
 20
127.6067029691
 30
0.0
 11
154.9025754817
 21
127.9529698731
 31
0.0
  0
LINE
  5
19D
330
1F
100
AcDbEntity
  8
0
  6
HIDDEN
 62
     7
370
     0
100
AcDbLine
 10
153.8153600757
 20
126.918899287
 30
0.0
 11
153.7568144756
 21
126.7764369896
 31
0.0
  0
LINE
  5
19E
330
1F
100
AcDbEntity
  8
0
  6
HIDDEN
 62
     7
370
     0
100
AcDbLine
 10
153.5151262293
 20
125.5524847446
 30
0.0
 11
153.5151262293
 21
125.3984617156
 31
0.0
  0
LINE
  5
19F
330
1F
100
AcDbEntity
  8
0
  6
HIDDEN
 62
     7
370
     0
100
AcDbLine
 10
153.5151262293
 20
108.684841576
 30
0.0
 11
153.5151262293
 21
108.530818547
 31
0.0
  0
LINE
  5
1A0
330
1F
100
AcDbEntity
  8
0
  6
HIDDEN
 62
     7
370
     0
100
AcDbLine
 10
153.7568144756
 20
107.306866302
 30
0.0
 11
153.8153600757
 21
107.1644040046
 31
0.0
  0
LINE
  5
1A1
330
1F
100
AcDbEntity
  8
0
  6
HIDDEN
 62
     7
370
     0
100
AcDbLine
 10
154.9025754817
 20
106.1303334185
 30
0.0
 11
156.6561326402
 21
106.4766003225
 31
0.0
  0
LINE
  5
1A2
330
1F
100
AcDbEntity
  8
0
  6
HIDDEN
 62
     7
370
     0
100
AcDbLine
 10
155.8812341354
 20
110.4008241065
 30
0.0
 11
154.1276769769
 21
110.0545572025
 31
0.0
  0
LINE
  5
1A3
330
1F
100
AcDbEntity
  8
0
  6
HIDDEN
 62
     7
370
     0
100
AcDbLine
 10
157.0873722171
 20
106.8745106996
 30
0.0
 11
157.4298829589
 21
107.5893438214
 31
0.0
  0
LINE
  5
1A4
330
1F
100
AcDbEntity
  8
0
  6
HIDDEN
 62
     7
370
     0
100
AcDbLine
 10
157.0198722013
 20
109.6657111866
 30
0.0
 11
156.4313550049
 21
110.1966984839
 31
0.0
  0
LINE
  5
1A5
330
1F
100
AcDbEntity
  8
0
  6
HIDDEN
 62
     7
370
     0
100
AcDbLine
 10
165.1701262293
 20
126.0173133312
 30
0.0
 11
165.1701262293
 21
124.9936199781
 31
0.0
  0
LINE
  5
1A6
330
1F
100
AcDbEntity
  8
0
  6
HIDDEN
 62
     7
370
     0
100
AcDbLine
 10
170.1701262293
 20
124.9936199781
 30
0.0
 11
170.1701262293
 21
126.0173133312
 31
0.0
  0
DIMENSION
  5
1A7
330
1F
100
AcDbEntity
  8
VERMASSUNG
100
AcDbDimension
  2
_D
 10
80.0640558546
 20
148.5416516458
 30
0.0
 11
80.0640558546
 21
117.0416516458
 31
0.0
 70
   160
  1
MAS-BT 40 %%c<>
 71
     2
 42
-1.0
  3
SLDDIMSTYLE0
100
AcDbAlignedDimension
 13
177.0701262293
 23
85.5416516458
 33
0.0
 14
177.0701262293
 24
148.5416516458
 34
0.0
 50
90.0
100
AcDbRotatedDimension
  0
DIMENSION
  5
1B4
330
1F
100
AcDbEntity
  8
VERMASSUNG
100
AcDbDimension
  2
_D_1
 10
210.8718316159
 20
108.0416516458
 30
0.0
 11
210.8718316159
 21
117.0416516458
 31
0.0
 70
   160
  1
%%c<>
 71
     2
 42
-1.0
  3
SLDDIMSTYLE0
100
AcDbAlignedDimension
 13
204.0701262293
 23
126.0416516458
 33
0.0
 14
204.0701262293
 24
108.0416516458
 34
0.0
 50
90.0
100
AcDbRotatedDimension
  0
DIMENSION
  5
1BF
330
1F
100
AcDbEntity
  8
VERMASSUNG
100
AcDbDimension
  2
_D_2
 10
217.0718316159
 20
101.0416516458
 30
0.0
 11
217.0718316159
 21
117.0416516458
 31
0.0
 70
   160
  1
WH %%c<>
 71
     2
 42
-1.0
  3
SLDDIMSTYLE0
100
AcDbAlignedDimension
 13
204.7701262293
 23
133.0416516458
 33
0.0
 14
204.7701262293
 24
101.0416516458
 34
0.0
 50
90.0
100
AcDbRotatedDimension
  0
DIMENSION
  5
1CB
330
1F
100
AcDbEntity
  8
VERMASSUNG
100
AcDbDimension
  2
_D_3
 10
178.0701262293
 20
152.6416516458
 30
0.0
 11
191.5701262293
 21
152.6416516458
 31
0.0
 70
   160
  1
<>
 71
     2
 42
-1.0
  3
SLDDIMSTYLE0
100
AcDbAlignedDimension
 13
205.0701262293
 23
132.7416516458
 33
0.0
 14
178.0701262293
 24
147.5416516458
 34
0.0
100
AcDbRotatedDimension
  0
DIMENSION
  5
1D5
330
1F
100
AcDbEntity
  8
VERMASSUNG
100
AcDbDimension
  2
_D_4
 10
151.0701262293
 20
158.6416516458
 30
0.0
 11
178.0701262293
 21
158.6416516458
 31
0.0
 70
   160
  1
<>
 71
     2
 42
-1.0
  3
SLDDIMSTYLE0
100
AcDbAlignedDimension
 13
205.0701262293
 23
132.7416516458
 33
0.0
 14
151.0701262293
 24
139.2666516458
 34
0.0
100
AcDbRotatedDimension
  0
DIMENSION
  5
1DF
330
1F
100
AcDbEntity
  8
VERMASSUNG
100
AcDbDimension
  2
_D_5
 10
85.6701262293
 20
164.6416516458
 30
0.0
 11
145.3701262293
 21
164.6416516458
 31
0.0
 70
   160
  1
<>
 71
     2
 42
-1.0
  3
SLDDIMSTYLE0
100
AcDbAlignedDimension
 13
205.0701262293
 23
132.7416516458
 33
0.0
 14
85.6701262293
 24
128.8644072428
 34
0.0
100
AcDbRotatedDimension
  0
LINE
  5
1E9
330
1F
100
AcDbEntity
  8
VERMASSUNG
  6
CENTERX2
370
     0
100
AcDbLine
 10
166.0201262293
 20
150.2278712393
 30
0.0
 11
166.0201262293
 21
134.7196534792
 31
0.0
  0
LINE
  5
1EA
330
1F
100
AcDbEntity
  8
VERMASSUNG
  6
CENTERX2
370
     0
100
AcDbLine
 10
166.0201262293
 20
83.8553960281
 30
0.0
 11
166.0201262293
 21
99.3636266898
 31
0.0
  0
LINE
  5
1EB
330
1F
100
AcDbEntity
  8
VERMASSUNG
  6
CENTERX2
370
     0
100
AcDbLine
 10
83.6701262293
 20
117.0416516458
 30
0.0
 11
206.7418110616
 21
117.0416516458
 31
0.0
  0
LINE
  5
1EC
330
1F
100
AcDbEntity
  8
0
  6
Continuous
 62
     7
370
    15
100
AcDbLine
 10
258.7941377396
 20
45.9056249618
 30
0.0
 11
258.7234155718
 21
45.9464652713
 31
0.0
  0
LINE
  5
1ED
330
1F
100
AcDbEntity
  8
0
  6
Continuous
 62
     7
370
    15
100
AcDbLine
 10
256.3895840347
 20
45.9464652713
 30
0.0
 11
256.3188618669
 21
45.9056249618
 31
0.0
  0
LINE
  5
1EE
330
1F
100
AcDbEntity
  8
0
  6
Continuous
 62
     7
370
    15
100
AcDbLine
 10
259.8123262505
 20
38.9776647986
 30
0.0
 11
261.3024474137
 21
39.2812658263
 31
0.0
  0
SPLINE
  5
1EF
330
1F
100
AcDbEntity
  8
0
  6
Continuous
 62
     7
370
    15
100
AcDbSpline
210
0.0
220
0.0
230
1.0
 70
     8
 71
     3
 72
    18
 73
    14
 74
     0
 42
0.000000001
 43
0.00000001
 40
0.0
 40
0.0
 40
0.0
 40
0.0
 40
0.0651996261439588
 40
0.157405520407819
 40
0.2501835109506957
 40
0.3435520457451384
 40
0.4374301815014485
 40
0.5316866103679383
 40
0.6261847517327561
 40
0.7208102037180115
 40
0.8154780716129252
 40
0.9101255544996877
 40
1.0
 40
1.0
 40
1.0
 40
1.0
 10
245.5466929372261
 20
28.37851806978569
 30
0.0
 10
245.7259103411905
 20
28.33540531966742
 30
0.0
 10
246.1585786002824
 20
28.23132213284673
 30
0.0
 10
246.8875119999826
 20
28.17615285547823
 30
0.0
 10
247.7219043645619
 20
28.1974867644292
 30
0.0
 10
248.5859361897752
 20
28.31772322611584
 30
0.0
 10
249.47223320602
 20
28.5321741950954
 30
0.0
 10
250.3751419767189
 20
28.84078898086166
 30
0.0
 10
251.2880972990242
 20
29.24127774248018
 30
0.0
 10
252.2048580243837
 20
29.73025607564315
 30
0.0
 10
253.1185645199831
 20
30.30605535471395
 30
0.0
 10
254.0100029982352
 20
30.94620286942499
 30
0.0
 10
254.586427213587
 20
31.43176898282059
 30
0.0
 10
254.8671841251397
 20
31.66827195879007
 30
0.0
  0
SPLINE
  5
1F0
330
1F
100
AcDbEntity
  8
0
  6
Continuous
 62
     7
370
    15
100
AcDbSpline
210
0.0
220
0.0
230
1.0
 70
     8
 71
     3
 72
    18
 73
    14
 74
     0
 42
0.000000001
 43
0.00000001
 40
0.0
 40
0.0
 40
0.0
 40
0.0
 40
0.0862847167654935
 40
0.180994127868788
 40
0.2757789523389546
 40
0.3706313048767925
 40
0.4655287296383231
 40
0.5604090106773171
 40
0.6551838756491067
 40
0.7497316364431106
 40
0.8439022754291844
 40
0.9375453126123455
 40
1.0
 40
1.0
 40
1.0
 40
1.0
 10
262.8655183170866
 20
45.52564009019593
 30
0.0
 10
262.9280631805731
 20
45.87268237810612
 30
0.0
 10
263.0592596826161
 20
46.6006515780817
 30
0.0
 10
263.1687235925484
 20
47.6799453082879
 30
0.0
 10
263.2133411951061
 20
48.76165436071012
 30
0.0
 10
263.1808854161087
 20
49.80392475256329
 30
0.0
 10
263.0731582266724
 20
50.80040979259036
 30
0.0
 10
262.8897595803921
 20
51.74418177524443
 30
0.0
 10
262.6313310898048
 20
52.62820675113397
 30
0.0
 10
262.3001343070051
 20
53.44696159975157
 30
0.0
 10
261.8952781992784
 20
54.18999239178613
 30
0.0
 10
261.4823630577941
 20
54.79305319329311
 30
0.0
 10
261.177452385656
 20
55.11150626595393
 30
0.0
 10
261.0554576495898
 20
55.23891931540967
 30
0.0
  0
LINE
  5
1F1
330
1F
100
AcDbEntity
  8
0
  6
Continuous
 62
     7
370
    15
100
AcDbLine
 10
242.49616712
 20
29.8612212884
 30
0.0
 11
244.0429632038
 21
28.9682749161
 31
0.0
  0
LINE
  5
1F2
330
1F
100
AcDbEntity
  8
0
  6
Continuous
 62
     7
370
    15
100
AcDbLine
 10
259.7916832428
 20
56.2488140811
 30
0.0
 11
258.244887159
 21
57.1417604534
 31
0.0
  0
LINE
  5
1F3
330
1F
100
AcDbEntity
  8
0
  6
Continuous
 62
     7
370
    15
100
AcDbLine
 10
261.7116715407
 20
30.4231226725
 30
0.0
 11
261.8177203191
 21
30.4843632326
 31
0.0
  0
LINE
  5
1F4
330
1F
100
AcDbEntity
  8
0
  6
Continuous
 62
     7
370
    15
100
AcDbLine
 10
267.3676063922
 20
40.0980895547
 30
0.0
 11
267.3676063922
 21
40.2205507715
 31
0.0
  0
LINE
  5
1F5
330
1F
100
AcDbEntity
  8
0
  6
Continuous
 62
     7
370
    15
100
AcDbLine
 10
265.7104270733
 20
43.8833092232
 30
0.0
 11
257.3312117162
 21
48.7205272858
 31
0.0
  0
LINE
  5
1F6
330
1F
100
AcDbEntity
  8
0
  6
Continuous
 62
     7
370
    15
100
AcDbLine
 10
249.3318618551
 20
34.8637454877
 30
0.0
 11
257.7110772122
 21
30.0265274251
 31
0.0
  0
SPLINE
  5
1F7
330
1F
100
AcDbEntity
  8
0
  6
Continuous
 62
     7
370
    15
100
AcDbSpline
210
0.0
220
0.0
230
1.0
 70
     8
 71
     3
 72
    24
 73
    20
 74
     0
 42
0.000000001
 43
0.00000001
 40
0.0
 40
0.0
 40
0.0
 40
0.0
 40
0.0050413061322013
 40
0.0746514445943299
 40
0.1359195680721685
 40
0.2011673089600526
 40
0.2637793583458239
 40
0.3253652845252015
 40
0.3867640603734814
 40
0.4482345585562148
 40
0.5099149635016391
 40
0.5718068328773863
 40
0.6338567440949271
 40
0.6959912458369667
 40
0.758130293673769
 40
0.8201647196497768
 40
0.8820117851331783
 40
0.9435943586514812
 40
1.0
 40
1.0
 40
1.0
 40
1.0
 10
259.2312037898797
 20
33.19411855290685
 30
0.0
 10
259.2234707264194
 20
33.19724133955193
 30
0.0
 10
259.1089598549673
 20
33.24348343001443
 30
0.0
 10
258.9440435451874
 20
33.39992195220043
 30
0.0
 10
258.7252500115452
 20
33.68161795240258
 30
0.0
 10
258.5631140970378
 20
34.04709316508572
 30
0.0
 10
258.4569938615074
 20
34.49327602448153
 30
0.0
 10
258.4168775564715
 20
34.99741208629421
 30
0.0
 10
258.4439719111106
 20
35.54972876674633
 30
0.0
 10
258.5393966615844
 20
36.13897074836744
 30
0.0
 10
258.7024586841232
 20
36.75161341529819
 30
0.0
 10
258.9305979811073
 20
37.37327980169633
 30
0.0
 10
259.2192301113694
 20
37.98896127618567
 30
0.0
 10
259.5618993103224
 20
38.58375509896059
 30
0.0
 10
259.9503835951019
 20
39.14304864711516
 30
0.0
 10
260.3750285920044
 20
39.65390329123431
 30
0.0
 10
260.8245784663968
 20
40.10230160036951
 30
0.0
 10
261.2757401266376
 20
40.47535296905294
 30
0.0
 10
261.5717388247787
 20
40.65945652244785
 30
0.0
 10
261.7132444524877
 20
40.74746937199813
 30
0.0
  0
SPLINE
  5
1F8
330
1F
100
AcDbEntity
  8
0
  6
Continuous
 62
     7
370
    15
100
AcDbSpline
210
0.0
220
0.0
230
1.0
 70
     8
 71
     3
 72
    13
 73
     9
 74
     0
 42
0.000000001
 43
0.00000001
 40
0.0
 40
0.0
 40
0.0
 40
0.0
 40
0.0956615333817235
 40
0.2782863357688647
 40
0.460752392395342
 40
0.6444446361157938
 40
0.8327718766298909
 40
1.0
 40
1.0
 40
1.0
 40
1.0
 10
261.7132444524877
 20
40.74746937199813
 30
0.0
 10
261.792433987031
 20
40.79109868613351
 30
0.0
 10
262.0228020840107
 20
40.91801952394191
 30
0.0
 10
262.3927522558262
 20
41.06486173092709
 30
0.0
 10
262.8032257661156
 20
41.15916138054645
 30
0.0
 10
263.1728912462241
 20
41.16905855240186
 30
0.0
 10
263.4864384609719
 20
41.11342055405206
 30
0.0
 10
263.6549086371488
 20
41.01966101427622
 30
0.0
 10
263.7341451056923
 20
40.97556315082825
 30
0.0
  0
LINE
  5
1F9
330
1F
100
AcDbEntity
  8
0
  6
Continuous
 62
     7
370
    15
100
AcDbLine
 10
254.6916755835
 20
59.1929858343
 30
0.0
 11
251.6599552592
 21
60.943160724
 31
0.0
  0
SPLINE
  5
1FA
330
1F
100
AcDbEntity
  8
0
  6
Continuous
 62
     7
370
    15
100
AcDbSpline
210
0.0
220
0.0
230
1.0
 70
     8
 71
     3
 72
    31
 73
    27
 74
     0
 42
0.000000001
 43
0.00000001
 40
0.0
 40
0.0
 40
0.0
 40
0.0
 40
0.0396213087942862
 40
0.0817320545073401
 40
0.1241106274718147
 40
0.1667532974967826
 40
0.2096157690052376
 40
0.2526360152946524
 40
0.2957532968829231
 40
0.3389186297236279
 40
0.3820950489194797
 40
0.4252589794936977
 40
0.4684014551647881
 40
0.5115193559945972
 40
0.5546132360446228
 40
0.5976858445699988
 40
0.640741183340291
 40
0.6837839377990366
 40
0.7268191528819771
 40
0.7698520607461425
 40
0.812887616794979
 40
0.855929811443491
 40
0.8989840730411293
 40
0.9420558070823387
 40
0.9851502771087408
 40
1.0
 40
1.0
 40
1.0
 40
1.0
 10
250.1628121663227
 20
61.5392913643548
 30
0.0
 10
249.9215957145619
 20
61.59070758375454
 30
0.0
 10
249.4240069982035
 20
61.69677054266284
 30
0.0
 10
248.6257646279525
 20
61.73902212127976
 30
0.0
 10
247.783973660369
 20
61.69462787219236
 30
0.0
 10
246.9143110714679
 20
61.55266721877196
 30
0.0
 10
246.0236156811243
 20
61.31633309349252
 30
0.0
 10
245.1178189693337
 20
60.98631071571302
 30
0.0
 10
244.2034200981548
 20
60.56510951512651
 30
0.0
 10
243.2868058971586
 20
60.05578937723451
 30
0.0
 10
242.3742525488688
 20
59.46214206193982
 30
0.0
 10
241.4718146359276
 20
58.78847255131026
 30
0.0
 10
240.585323300539
 20
58.03952328101923
 30
0.0
 10
239.7204049417003
 20
57.22041579411488
 30
0.0
 10
238.8825234391027
 20
56.33665394288872
 30
0.0
 10
238.0769692640756
 20
55.3941005752208
 30
0.0
 10
237.3088393990415
 20
54.39895210065323
 30
0.0
 10
236.583014026533
 20
53.35770892169768
 30
0.0
 10
235.9041217715202
 20
52.27713902921597
 30
0.0
 10
235.2765392589955
 20
51.16424787094797
 30
0.0
 10
234.7042710080036
 20
50.02622299256529
 30
0.0
 10
234.1912768337393
 20
48.87045838864503
 30
0.0
 10
233.7401004510751
 20
47.70419704763471
 30
0.0
 10
233.3568858995573
 20
46.53561263321605
 30
0.0
 10
233.1034887385336
 20
45.62451651715453
 30
0.0
 10
232.9897596079967
 20
45.10808111835619
 30
0.0
 10
232.9606135281551
 20
44.97573096940701
 30
0.0
  0
LINE
  5
1FB
330
1F
100
AcDbEntity
  8
0
  6
Continuous
 62
     7
370
    15
100
AcDbLine
 10
242.6534771051
 20
59.6293268572
 30
0.0
 11
222.7604575817
 21
66.7979825614
 31
0.0
  0
LINE
  5
1FC
330
1F
100
AcDbEntity
  8
0
  6
Continuous
 62
     7
370
    15
100
AcDbLine
 10
216.3889881703
 20
55.7610779505
 30
0.0
 11
235.4168622567
 21
39.6940983731
 31
0.0
  0
LINE
  5
1FD
330
1F
100
AcDbEntity
  8
0
  6
Continuous
 62
     7
370
    15
100
AcDbLine
 10
235.9112352202
 20
33.662621559
 30
0.0
 11
238.9429555445
 21
31.9124466693
 31
0.0
  0
SPLINE
  5
1FE
330
1F
100
AcDbEntity
  8
0
  6
Continuous
 62
     7
370
    15
100
AcDbSpline
210
0.0
220
0.0
230
1.0
 70
     8
 71
     3
 72
    12
 73
     8
 74
     0
 42
0.000000001
 43
0.00000001
 40
0.0
 40
0.0
 40
0.0
 40
0.0
 40
0.0808437189434832
 40
0.3227039237445101
 40
0.5638986797775591
 40
0.803803724362314
 40
1.0
 40
1.0
 40
1.0
 40
1.0
 10
232.9480048390614
 20
37.72935377286649
 30
0.0
 10
232.9766303441518
 20
37.6311213150844
 30
0.0
 10
233.0908947908217
 20
37.2390067515831
 30
0.0
 10
233.3435173297034
 20
36.59790931181652
 30
0.0
 10
233.7343869015228
 20
35.84057979422946
 30
0.0
 10
234.162275923408
 20
35.19336858736371
 30
0.0
 10
234.4892936777964
 20
34.83824654294554
 30
0.0
 10
234.6364146850103
 20
34.67848178351729
 30
0.0
  0
SPLINE
  5
1FF
330
1F
100
AcDbEntity
  8
0
  6
Continuous
 62
     7
370
    15
100
AcDbSpline
210
0.0
220
0.0
230
1.0
 70
     8
 71
     3
 72
    25
 73
    21
 74
     0
 42
0.000000001
 43
0.00000001
 40
0.0
 40
0.0
 40
0.0
 40
0.0
 40
0.0333577104700368
 40
0.0887768915458268
 40
0.1452004606039748
 40
0.2027887059325798
 40
0.2612993771215977
 40
0.3203259364499876
 40
0.3795169970656934
 40
0.4386506694187138
 40
0.4976782556562464
 40
0.5566054513852589
 40
0.6154628315212841
 40
0.6742912600645882
 40
0.7331357734201538
 40
0.7920284861096858
 40
0.8510167595871929
 40
0.9101474451418875
 40
0.9694604150355839
 40
1.0
 40
1.0
 40
1.0
 40
1.0
 10
222.5871460929544
 20
66.84111280697331
 30
0.0
 10
222.4882317779714
 20
66.87034426471338
 30
0.0
 10
222.2249851315487
 20
66.94813971041239
 30
0.0
 10
221.7593759093616
 20
66.9681159864613
 30
0.0
 10
221.2033273639354
 20
66.91220027471537
 30
0.0
 10
220.6245351222435
 20
66.75723087715299
 30
0.0
 10
220.0333291459205
 20
66.50954207509521
 30
0.0
 10
219.4395257583016
 20
66.171243015585
 30
0.0
 10
218.8542154145607
 20
65.74912512768691
 30
0.0
 10
218.2874855833266
 20
65.25121912837203
 30
0.0
 10
217.7483772934163
 20
64.68658518119359
 30
0.0
 10
217.2449754745238
 20
64.06469547103649
 30
0.0
 10
216.7847826226533
 20
63.3955844053572
 30
0.0
 10
216.3747391474556
 20
62.68978069784102
 30
0.0
 10
216.021165510593
 20
61.95824710878213
 30
0.0
 10
215.7297990498123
 20
61.21226026322111
 30
0.0
 10
215.5051785782709
 20
60.46293420755287
 30
0.0
 10
215.3527522121966
 20
59.72209344814473
 30
0.0
 10
215.284333630743
 20
59.11598033837988
 30
0.0
 10
215.2782045665445
 20
58.76545718642453
 30
0.0
 10
215.2761213861927
 20
58.64631943237803
 30
0.0
  0
SPLINE
  5
200
330
1F
100
AcDbEntity
  8
0
  6
Continuous
 62
     7
370
    15
100
AcDbSpline
210
0.0
220
0.0
230
1.0
 70
     8
 71
     3
 72
    13
 73
     9
 74
     0
 42
0.000000001
 43
0.00000001
 40
0.0
 40
0.0
 40
0.0
 40
0.0
 40
0.1043412342946585
 40
0.301655808070682
 40
0.4990049681465095
 40
0.6948144373748241
 40
0.8873793154613151
 40
1.0
 40
1.0
 40
1.0
 40
1.0
 10
215.2761213861927
 20
58.64631943237802
 30
0.0
 10
215.2783328187824
 20
58.52539998313284
 30
0.0
 10
215.2847261827229
 20
58.17581571359555
 30
0.0
 10
215.3564828079924
 20
57.62912480293607
 30
0.0
 10
215.517332314852
 20
57.03105555036611
 30
0.0
 10
215.7619606623786
 20
56.50271958104877
 30
0.0
 10
216.0293586001815
 20
56.09864007415012
 30
0.0
 10
216.2414803860862
 20
55.90914835737279
 30
0.0
 10
216.3197583377974
 20
55.83922143594734
 30
0.0
  0
LWPOLYLINE
  5
201
330
1F
100
AcDbEntity
  8
0
  6
Continuous
 62
     7
370
    15
100
AcDbPolyline
 90
       19
 70
   128
 43
0.0
 10
258.7449538278
 20
44.6122826257
 10
258.9721143767
 20
44.7836916454
 10
259.1483167372
 20
45.0223204176
 10
259.2064613176
 20
45.2795437688
 10
259.1422358007
 20
45.5362846198
 10
258.9604034991
 20
45.7735016761
 10
258.6744500828
 20
45.973601634
 10
258.3055834085
 20
46.1217439948
 10
257.8811606301
 20
46.2069417175
 10
257.4326592433
 20
46.2228760766
 10
256.9933425444
 20
46.1683652937
 10
256.5957926431
 20
46.0474521841
 10
256.2694939969
 20
45.8691043202
 10
256.0386466837
 20
45.6465489469
 10
255.9203715927
 20
45.3962919783
 10
255.9234406463
 20
45.1368938288
 10
256.0476262268
 20
44.8875928726
 10
256.2837180578
 20
44.6668786211
 10
256.4812793617
 20
44.5505281601
  0
LWPOLYLINE
  5
202
330
1F
100
AcDbEntity
  8
0
  6
Continuous
 62
     7
370
    15
100
AcDbPolyline
 90
       21
 70
   128
 43
0.0
 10
257.4827876931
 20
44.5816009689
 10
257.8565155542
 20
44.6022926782
 10
258.2008757833
 20
44.6886416168
 10
258.4821600018
 20
44.8321953489
 10
258.6728341507
 20
45.018901835
 10
258.7542337156
 20
45.2304849434
 10
258.7183907401
 20
45.4462334453
 10
258.5688137844
 20
45.6450283741
 10
258.3201444829
 20
45.807410297
 10
257.9967243196
 20
45.9174841402
 10
257.6302119134
 20
45.9644751088
 10
257.2564840523
 20
45.9437833995
 10
256.9121238232
 20
45.8574344609
 10
256.6308396047
 20
45.7138807288
 10
256.4401654559
 20
45.5271742427
 10
256.3587658909
 20
45.3155911343
 10
256.3946088664
 20
45.0998426324
 10
256.5441858222
 20
44.9010477036
 10
256.7928551236
 20
44.7386657806
 10
257.1162752869
 20
44.6285919375
 10
257.4827876931
 20
44.5816009689
  0
SPLINE
  5
203
330
1F
100
AcDbEntity
  8
0
  6
Continuous
 62
     7
370
    15
100
AcDbSpline
210
0.0
220
0.0
230
1.0
 70
     8
 71
     3
 72
    16
 73
    12
 74
     0
 42
0.000000001
 43
0.00000001
 40
0.0
 40
0.0
 40
0.0
 40
0.0
 40
0.0171991838608006
 40
0.1178674343232469
 40
0.2190182436327055
 40
0.3560546842975689
 40
0.4604587740053747
 40
0.5652733462555374
 40
0.7274592067570861
 40
0.8907253590322787
 40
1.0
 40
1.0
 40
1.0
 40
1.0
 10
258.3436586401258
 20
44.75384679733845
 30
0.0
 10
258.3458134577745
 20
44.75526224278985
 30
0.0
 10
258.3605806019453
 20
44.76496240793315
 30
0.0
 10
258.388415597265
 20
44.78917481428945
 30
0.0
 10
258.4312677047322
 20
44.82790876360836
 30
0.0
 10
258.4744326130863
 20
44.8729437638161
 30
0.0
 10
258.5174910329059
 20
44.92266158956129
 30
0.0
 10
258.5630448802736
 20
44.97968712121894
 30
0.0
 10
258.6147198499648
 20
45.05038024013759
 30
0.0
 10
258.6655721273768
 20
45.12594679682526
 30
0.0
 10
258.6965851810714
 20
45.17531026772456
 30
0.0
 10
258.7090197978033
 20
45.19510244450388
 30
0.0
  0
SPLINE
  5
204
330
1F
100
AcDbEntity
  8
0
  6
Continuous
 62
     7
370
    15
100
AcDbSpline
210
0.0
220
0.0
230
1.0
 70
     8
 71
     3
 72
    10
 73
     6
 74
     0
 42
0.000000001
 43
0.00000001
 40
0.0
 40
0.0
 40
0.0
 40
0.0
 40
0.4391222274230637
 40
0.7513714712594409
 40
1.0
 40
1.0
 40
1.0
 40
1.0
 10
258.7090197978033
 20
45.19510244450388
 30
0.0
 10
258.6353164129474
 20
45.22459647358053
 30
0.0
 10
258.5092043255657
 20
45.27506299665028
 30
0.0
 10
258.3258796432292
 20
45.53006548591686
 30
0.0
 10
258.2346342463472
 20
45.71139345713316
 30
0.0
 10
258.1941865590073
 20
45.79177337038215
 30
0.0
  0
SPLINE
  5
205
330
1F
100
AcDbEntity
  8
0
  6
Continuous
 62
     7
370
    15
100
AcDbSpline
210
0.0
220
0.0
230
1.0
 70
     8
 71
     3
 72
    11
 73
     7
 74
     0
 42
0.000000001
 43
0.00000001
 40
0.0
 40
0.0
 40
0.0
 40
0.0
 40
0.1849308168245924
 40
0.5198464202157559
 40
0.8714438233692321
 40
1.0
 40
1.0
 40
1.0
 40
1.0
 10
258.1941865590073
 20
45.79177337038215
 30
0.0
 10
258.1271042639702
 20
45.76867905041279
 30
0.0
 10
257.9385337945716
 20
45.7037601809159
 30
0.0
 10
257.5865310029349
 20
45.66335287837188
 30
0.0
 10
257.2614420226857
 20
45.73969810921969
 30
0.0
 10
257.0880819411436
 20
45.81307436788161
 30
0.0
 10
257.0416665644771
 20
45.83272010555013
 30
0.0
  0
SPLINE
  5
206
330
1F
100
AcDbEntity
  8
0
  6
Continuous
 62
     7
370
    15
100
AcDbSpline
210
0.0
220
0.0
230
1.0
 70
     8
 71
     3
 72
    18
 73
    14
 74
     0
 42
0.000000001
 43
0.00000001
 40
0.0
 40
0.0
 40
0.0
 40
0.0
 40
0.2165245286302287
 40
0.3272628409232251
 40
0.4396960873216219
 40
0.497087995926435
 40
0.554755015831154
 40
0.632880768906598
 40
0.6924025143124501
 40
0.7521582796446057
 40
0.8446219515584367
 40
0.9377015078891936
 40
1.0
 40
1.0
 40
1.0
 40
1.0
 10
257.0416665644771
 20
45.83272010555013
 30
0.0
 10
256.9978747287126
 20
45.76480984263462
 30
0.0
 10
256.931686197223
 20
45.6621678661797
 30
0.0
 10
256.8369538126956
 20
45.54311677380896
 30
0.0
 10
256.7751238125568
 20
45.4762899846509
 30
0.0
 10
256.7246169170116
 20
45.42945258714519
 30
0.0
 10
256.6817194314491
 20
45.39406181881146
 30
0.0
 10
256.6385697743819
 20
45.36367356278353
 30
0.0
 10
256.5955079217355
 20
45.33838589331792
 30
0.0
 10
256.5499550104518
 20
45.31600226905476
 30
0.0
 10
256.4982796656015
 20
45.29663378904163
 30
0.0
 10
256.4474274934282
 20
45.28356667916073
 30
0.0
 10
256.4164144295555
 20
45.27887645147539
 30
0.0
 10
256.4039798087428
 20
45.27699591483984
 30
0.0
  0
SPLINE
  5
207
330
1F
100
AcDbEntity
  8
0
  6
Continuous
 62
     7
370
    15
100
AcDbSpline
210
0.0
220
0.0
230
1.0
 70
     8
 71
     3
 72
    10
 73
     6
 74
     0
 42
0.000000001
 43
0.00000001
 40
0.0
 40
0.0
 40
0.0
 40
0.0
 40
0.5612560504516497
 40
0.9603517154117647
 40
0.9999999999999999
 40
0.9999999999999999
 40
0.9999999999999999
 40
0.9999999999999999
 10
256.4039798087428
 20
45.27699591483984
 30
0.0
 10
256.47733908794
 20
45.13758750874595
 30
0.0
 10
256.6028623844135
 20
44.89904914140479
 30
0.0
 10
256.748828222731
 20
44.75184021771861
 30
0.0
 10
256.8054973461894
 20
44.72873342661672
 30
0.0
 10
256.810618404922
 20
44.7266453188936
 30
0.0
  0
LINE
  5
208
330
1F
100
AcDbEntity
  8
0
  6
Continuous
 62
     7
370
    15
100
AcDbLine
 10
258.194186559
 20
44.6862014116
 30
0.0
 11
258.194186559
 21
45.7917733704
 31
0.0
  0
LINE
  5
209
330
1F
100
AcDbEntity
  8
0
  6
Continuous
 62
     7
370
    15
100
AcDbLine
 10
257.0416665645
 20
44.647287254
 30
0.0
 11
257.0416665645
 21
45.8327201056
 31
0.0
  0
ARC
  5
20A
330
1F
100
AcDbEntity
  8
0
  6
Continuous
 62
     7
370
    15
100
AcDbCircle
 10
260.7724568221
 20
40.3458995212
 30
0.0
 40
1.273166379742491
100
AcDbArc
 50
310.4718167596
 51
23.5032784283
  0
ARC
  5
20B
330
1F
100
AcDbEntity
  8
0
  6
Continuous
 62
     7
370
    15
100
AcDbCircle
 10
257.1143854953
 20
51.6110707783
 30
0.0
 40
5.353755168683079
100
AcDbArc
 50
43.6359469001
 51
76.3341348135
  0
ARC
  5
20C
330
1F
100
AcDbEntity
  8
0
  6
Continuous
 62
     7
370
    15
100
AcDbCircle
 10
246.7197554361
 20
33.6050940699
 30
0.0
 40
5.352739929525331
100
AcDbArc
 50
223.690011534
 51
256.3478001937
  0
ARC
  5
20D
330
1F
100
AcDbEntity
  8
0
  6
Continuous
 62
     7
370
    15
100
AcDbCircle
 10
246.2779934158
 20
35.621566408
 30
0.0
 40
6.890847990550952
100
AcDbArc
 50
188.312493873
 51
236.7139908619
  0
SPLINE
  5
20E
330
1F
100
AcDbEntity
  8
0
  6
Continuous
 62
     7
370
    15
100
AcDbSpline
210
0.0
220
0.0
230
1.0
 70
     8
 71
     3
 72
    29
 73
    25
 74
     0
 42
0.000000001
 43
0.00000001
 40
0.0
 40
0.0
 40
0.0
 40
0.0
 40
0.0226170105032921
 40
0.0451713142240263
 40
0.0676870228488737
 40
0.0901883721253699
 40
0.1126996441678027
 40
0.135245089017566
 40
0.1578488467194459
 40
0.1805348711560506
 40
0.2033268568175892
 40
0.2262481695777687
 40
0.2493217824054336
 40
0.3751991801893576
 40
0.4999614246459921
 40
0.4999717960761083
 40
0.6247044141127994
 40
0.7509557879396762
 40
0.7931713871196463
 40
0.834908104506354
 40
0.8763104515934291
 40
0.9175264576337788
 40
0.9587061619419142
 40
1.0
 40
1.0
 40
1.0
 40
1.0
 10
239.4597000383821
 20
39.77959626440673
 30
0.0
 10
239.4780652635056
 20
39.73075637460482
 30
0.0
 10
239.5147447952559
 20
39.63321200601605
 30
0.0
 10
239.5664346239224
 20
39.48574939661022
 30
0.0
 10
239.6156159837462
 20
39.33781210708672
 30
0.0
 10
239.6621056536461
 20
39.18932024185364
 30
0.0
 10
239.7060157501056
 20
39.04032827572044
 30
0.0
 10
239.7473809415611
 20
38.89085648714232
 30
0.0
 10
239.7862582282656
 20
38.74093638383448
 30
0.0
 10
239.8227000732875
 20
38.59059757385501
 30
0.0
 10
239.8567620543735
 20
38.43987512223264
 30
0.0
 10
239.8884991074696
 20
38.28879342550062
 30
0.0
 10
239.9616573793366
 20
37.91307221855082
 30
0.0
 10
240.0473339193677
 20
37.3243017968419
 30
0.0
 10
240.0730662811966
 20
36.82281819283057
 30
0.0
 10
240.0735034374298
 20
36.35236536758786
 30
0.0
 10
240.0480723807069
 20
35.90592283770318
 30
0.0
 10
239.9561050646718
 20
35.46989616620962
 30
0.0
 10
239.8635511706269
 20
35.20170328358829
 30
0.0
 10
239.7999685467377
 20
35.0554521727511
 30
0.0
 10
239.728323042702
 20
34.92453184090438
 30
0.0
 10
239.6480682683898
 20
34.80908550845469
 30
0.0
 10
239.5596666087965
 20
34.70756350401221
 30
0.0
 10
239.4933099548849
 20
34.65256462705225
 30
0.0
 10
239.4600857129997
 20
34.62502713256127
 30
0.0
  0
LWPOLYLINE
  5
20F
330
1F
100
AcDbEntity
  8
0
  6
Continuous
 62
     7
370
    15
100
AcDbPolyline
 90
       27
 70
   128
 43
0.0
 10
239.4594812972
 20
39.779722541
 10
239.6901193118
 20
40.9802188774
 10
239.9989054091
 20
42.1991632521
 10
240.3835802148
 20
43.4276367017
 10
240.8413290797
 20
44.6566505391
 10
241.3688026754
 20
45.8772121231
 10
241.9621415002
 20
47.0803906573
 10
242.6170041196
 20
48.2573825364
 10
243.3285989321
 20
49.3995757614
 10
244.0917192292
 20
50.4986129541
 10
244.9007812926
 20
51.5464525067
 10
245.7498652501
 20
52.5354274224
 10
246.6327583911
 20
53.4583014145
 10
247.5430006247
 20
54.3083218538
 10
248.4739317476
 20
55.0792691776
 10
249.4187401771
 20
55.7655023975
 10
250.3705127907
 20
56.3620003747
 10
251.3222855093
 20
56.8643985593
 10
252.267094253
 20
57.2690209254
 10
253.1980258971
 20
57.5729068686
 10
254.1082688548
 20
57.7738328687
 10
254.9911629179
 20
57.8703287588
 10
255.8402479884
 20
57.8616884826
 10
256.6493113478
 20
57.7479752606
 10
257.4124331143
 20
57.5300211276
 10
258.1240295588
 20
57.2094208446
 10
258.244887159
 20
57.1417604534
  0
LWPOLYLINE
  5
210
330
1F
100
AcDbEntity
  8
0
  6
Continuous
 62
     7
370
    15
100
AcDbPolyline
 90
       52
 70
   128
 43
0.0
 10
261.8168181599
 20
43.3035330891
 10
261.1346912822
 20
42.8611662635
 10
260.4629047526
 20
42.328338546
 10
259.8116421702
 20
41.7131270618
 10
259.1907760119
 20
41.0248577897
 10
258.6097179756
 20
40.2739641903
 10
258.077276309
 20
39.4718290453
 10
257.601522285
 20
38.6306119058
 10
257.1896678496
 20
37.763064766
 10
256.8479562963
 20
36.8823387563
 10
256.5815676238
 20
36.0017847854
 10
256.3945400129
 20
35.1347511536
 10
256.2897086116
 20
34.2943812072
 10
256.268662557
 20
33.4934140979
 10
256.3317208859
 20
32.7439916706
 10
256.4779276983
 20
32.0574744054
 10
256.7050666478
 20
31.4442692041
 10
257.0096945397
 20
30.9136716327
 10
257.3871935256
 20
30.4737250094
 10
257.8318411055
 20
30.1310984766
 10
258.3368968756
 20
29.8909859033
 10
258.8947047051
 20
29.7570271513
 10
259.496808796
 20
29.7312528987
 10
260.1340818639
 20
29.8140538569
 10
260.7968634987
 20
30.0041748479
 10
261.4751066066
 20
30.2987338312
 10
262.1585297133
 20
30.6932655928
 10
262.8367728211
 20
31.1817894335
 10
263.499554456
 20
31.7568998297
 10
264.1368275239
 20
32.4098786942
 10
264.7389316147
 20
33.1308275328
 10
265.2967394442
 20
33.9088174962
 10
265.8017952143
 20
34.7320550495
 10
266.2464427943
 20
35.5880607506
 10
266.6239417801
 20
36.4638584256
 10
266.928569672
 20
37.3461718745
 10
267.1557086216
 20
38.2216261247
 10
267.3019154339
 20
39.0769501824
 10
267.3649737628
 20
39.8991782065
 10
267.3439277082
 20
40.6758460584
 10
267.2390963069
 20
41.3951802452
 10
267.052068696
 20
42.0462763937
 10
266.7856800236
 20
42.6192645502
 10
266.4439684702
 20
43.1054587982
 10
266.0321140349
 20
43.4974889286
 10
265.5563600108
 20
43.789412164
 10
265.0239183442
 20
43.976803246
 10
264.442860308
 20
44.0568215167
 10
263.8219941496
 20
44.0282539806
 10
263.1707315672
 20
43.8915336925
 10
262.4989450376
 20
43.6487331927
 10
261.8168181599
 20
43.3035330891
  0
LWPOLYLINE
  5
211
330
1F
100
AcDbEntity
  8
0
  6
Continuous
 62
     7
370
    15
100
AcDbPolyline
 90
       28
 70
   128
 43
0.0
 10
261.7107521427
 20
43.4872448193
 10
261.0288937108
 20
43.0459883102
 10
260.3569783102
 20
42.5159102849
 10
259.7048039806
 20
41.9047404745
 10
259.0818808921
 20
41.2213911112
 10
258.4972926662
 20
40.4758269673
 10
257.9595639155
 20
39.678920047
 10
257.4765359362
 20
38.8422910477
 10
257.0552523637
 20
37.9781399041
 10
256.7018564613
 20
37.0990678858
 10
256.421501537
 20
36.2178938422
 10
256.2182757968
 20
35.3474672753
 10
256.0951427298
 20
34.5004809643
 10
256.0538978933
 20
33.6892858769
 10
256.0951427298
 20
32.9257110642
 10
256.2182757968
 20
32.2208911663
 10
256.421501537
 20
31.5851040444
 10
256.7018564613
 20
31.0276209065
 10
257.0552523637
 20
30.5565711121
 10
257.4765359362
 20
30.1788236279
 10
257.9595639155
 20
29.8998868628
 10
258.4972926662
 20
29.7238283429
 10
259.0818808921
 20
29.6532153979
 10
259.7048039806
 20
29.6890777237
 10
260.3569783102
 20
29.8308923666
 10
261.0288937108
 20
30.0765913499
 10
261.7107521427
 20
30.4225918291
 10
261.7116715407
 20
30.4231226725
  0
LWPOLYLINE
  5
212
330
1F
100
AcDbEntity
  8
0
  6
Continuous
 62
     7
370
    15
100
AcDbPolyline
 90
       14
 70
   128
 43
0.0
 10
267.3676063922
 20
40.2205507715
 10
267.3263615557
 20
40.9841255842
 10
267.2032284887
 20
41.6889454821
 10
267.0000027485
 20
42.324732604
 10
266.7196478242
 20
42.8822157418
 10
266.3662519218
 20
43.3532655362
 10
265.9449683493
 20
43.7310130205
 10
265.4619403699
 20
44.0099497856
 10
264.9242116193
 20
44.1860083055
 10
264.3396233934
 20
44.2566212504
 10
263.7167003049
 20
44.2207589247
 10
263.0645259752
 20
44.0789442818
 10
262.3926105747
 20
43.8332452985
 10
261.7107521427
 20
43.4872448193
  0
SPLINE
  5
213
330
1F
100
AcDbEntity
  8
0
  6
Continuous
 62
     7
370
    15
100
AcDbSpline
210
0.0
220
0.0
230
1.0
 70
    11
 71
     3
 72
    82
 73
    78
 74
     0
 42
0.000000001
 43
0.00000001
 40
0.0
 40
0.0
 40
0.0
 40
0.0
 40
0.0312499999999996
 40
0.0312499999999996
 40
0.0624999999999993
 40
0.0624999999999993
 40
0.0937499999999989
 40
0.0937499999999989
 40
0.1249999999999986
 40
0.1249999999999986
 40
0.1562499999999983
 40
0.1562499999999983
 40
0.1874999999999979
 40
0.1874999999999979
 40
0.2187499999999976
 40
0.2187499999999976
 40
0.2343749999999978
 40
0.2343749999999978
 40
0.2499999999999979
 40
0.2499999999999979
 40
0.2812499999999976
 40
0.2812499999999976
 40
0.2968749999999977
 40
0.2968749999999977
 40
0.3124999999999978
 40
0.3124999999999978
 40
0.343749999999998
 40
0.343749999999998
 40
0.3593749999999981
 40
0.3593749999999981
 40
0.3749999999999982
 40
0.3749999999999982
 40
0.3906249999999983
 40
0.3906249999999983
 40
0.4062499999999984
 40
0.4062499999999984
 40
0.4374999999999984
 40
0.4374999999999984
 40
0.4687499999999984
 40
0.4687499999999984
 40
0.4999999999999984
 40
0.4999999999999984
 40
0.5312499999999984
 40
0.5312499999999984
 40
0.5624999999999983
 40
0.5624999999999983
 40
0.5937499999999983
 40
0.5937499999999983
 40
0.6249999999999983
 40
0.6249999999999983
 40
0.6562499999999982
 40
0.6562499999999982
 40
0.6874999999999982
 40
0.6874999999999982
 40
0.7187499999999982
 40
0.7187499999999982
 40
0.7499999999999981
 40
0.7499999999999981
 40
0.7812499999999981
 40
0.7812499999999981
 40
0.8124999999999981
 40
0.8124999999999981
 40
0.8281249999999981
 40
0.8281249999999981
 40
0.8437499999999982
 40
0.8437499999999982
 40
0.8749999999999983
 40
0.8749999999999983
 40
0.8906249999999986
 40
0.8906249999999986
 40
0.9062499999999987
 40
0.9062499999999987
 40
0.9374999999999991
 40
0.9374999999999991
 40
0.9687499999999994
 40
0.9687499999999994
 40
1.0
 40
1.0
 40
1.0
 40
1.0
 10
257.5396054463295
 20
47.09291857786007
 30
0.0
 10
257.6927287295649
 20
47.06588635208955
 30
0.0
 10
257.841745390561
 20
47.03150376447066
 30
0.0
 10
258.1325714551925
 20
46.95103469448873
 30
0.0
 10
258.2751169320627
 20
46.90464392165666
 30
0.0
 10
258.549759312676
 20
46.80251035420962
 30
0.0
 10
258.6796446142271
 20
46.74767241865449
 30
0.0
 10
258.9252739717231
 20
46.63163041156144
 30
0.0
 10
259.0418991769928
 20
46.56987802405352
 30
0.0
 10
259.2558149202791
 20
46.44260305693007
 30
0.0
 10
259.3524657600168
 20
46.37760603516985
 30
0.0
 10
259.5254895082309
 20
46.24452509544484
 30
0.0
 10
259.6024394535351
 20
46.17579424233795
 30
0.0
 10
259.7313100643991
 20
46.03726554437115
 30
0.0
 10
259.7831118841535
 20
45.96789082985293
 30
0.0
 10
259.8415614027997
 20
45.86248354416829
 30
0.0
 10
259.8578144459605
 20
45.82712003229906
 30
0.0
 10
259.8835144153093
 20
45.75567996535021
 30
0.0
 10
259.8929487542448
 20
45.71946686551527
 30
0.0
 10
259.9099725810576
 20
45.61171831509215
 30
0.0
 10
259.9067600528658
 20
45.54038605390217
 30
0.0
 10
259.8787682049168
 20
45.43269544549432
 30
0.0
 10
259.865546924864
 20
45.39668371726305
 30
0.0
 10
259.8306723452315
 20
45.32417583783109
 30
0.0
 10
259.8089684561306
 20
45.28773603399882
 30
0.0
 10
259.732519328986
 20
45.18052342397733
 30
0.0
 10
259.6661303723403
 20
45.11077916151361
 30
0.0
 10
259.5417627719878
 20
45.00806246813278
 30
0.0
 10
259.4957243890667
 20
44.97388148093572
 30
0.0
 10
259.3969700058859
 20
44.90769186064244
 30
0.0
 10
259.3443815326889
 20
44.87570209500749
 30
0.0
 10
259.2329412058995
 20
44.81386270809681
 30
0.0
 10
259.1740890677417
 20
44.78401320916998
 30
0.0
 10
259.050074442955
 20
44.72650864245153
 30
0.0
 10
258.9844638268547
 20
44.6986986343377
 30
0.0
 10
258.7829093044134
 20
44.62070509959987
 30
0.0
 10
258.641494944332
 20
44.57537399788329
 30
0.0
 10
258.3453900398485
 20
44.49834012396234
 30
0.0
 10
258.1932523546199
 20
44.46743939358564
 30
0.0
 10
257.888091907614
 20
44.42223291516181
 30
0.0
 10
257.7326269917026
 20
44.40768376752202
 30
0.0
 10
257.4284977904354
 20
44.39643340622688
 30
0.0
 10
257.2790551188446
 20
44.39947319815131
 30
0.0
 10
256.9849236502353
 20
44.42376543081447
 30
0.0
 10
256.8414512466906
 20
44.44509861668438
 30
0.0
 10
256.5686741097238
 20
44.50533061751391
 30
0.0
 10
256.4381859764711
 20
44.54431186387617
 30
0.0
 10
256.1891110111771
 20
44.64116278103253
 30
0.0
 10
256.0733198067543
 20
44.69802039685603
 30
0.0
 10
255.8605142627461
 20
44.82716909494145
 30
0.0
 10
255.7631380972114
 20
44.89959919750359
 30
0.0
 10
255.5873354546553
 20
45.06053880345449
 30
0.0
 10
255.5113727903494
 20
45.14680413288892
 30
0.0
 10
255.3830687138118
 20
45.32942453457779
 30
0.0
 10
255.3306235241101
 20
45.42590797294034
 30
0.0
 10
255.2514170330145
 20
45.62823946300463
 30
0.0
 10
255.2258391647794
 20
45.73100408201727
 30
0.0
 10
255.2031219243638
 20
45.93818404499023
 30
0.0
 10
255.2060237034243
 20
46.04307579112618
 30
0.0
 10
255.2441769239902
 20
46.25106225171262
 30
0.0
 10
255.2787355194772
 20
46.35097116181101
 30
0.0
 10
255.3547441462524
 20
46.49333644557743
 30
0.0
 10
255.3841391735832
 20
46.53953598457084
 30
0.0
 10
255.4516382628632
 20
46.62909310403403
 30
0.0
 10
255.490017375446
 20
46.67263775683104
 30
0.0
 10
255.615361043488
 20
46.79464962862028
 30
0.0
 10
255.7131679461422
 20
46.86585141243823
 30
0.0
 10
255.8817488699667
 20
46.95683974244413
 30
0.0
 10
255.9420141436779
 20
46.98462864471494
 30
0.0
 10
256.0666627061774
 20
47.03335611377764
 30
0.0
 10
256.1313291363084
 20
47.05449998020126
 30
0.0
 10
256.3320920881625
 20
47.1087811132241
 30
0.0
 10
256.4767119523152
 20
47.13285426900892
 30
0.0
 10
256.7719835200747
 20
47.15709978460494
 30
0.0
 10
256.9230740543321
 20
47.15773810178271
 30
0.0
 10
257.2319718066863
 20
47.13909063436241
 30
0.0
 10
257.3864821630942
 20
47.1199508036306
 30
0.0
 10
257.5396054463295
 20
47.09291857786008
 30
0.0
  0
SPLINE
  5
214
330
1F
100
AcDbEntity
  8
0
  6
Continuous
 62
     7
370
    15
100
AcDbSpline
210
0.0
220
0.0
230
1.0
 70
     8
 71
     3
 72
     8
 73
     4
 74
     0
 42
0.000000001
 43
0.00000001
 40
0.0
 40
0.0
 40
0.0
 40
0.0
 40
1.0
 40
1.0
 40
1.0
 40
1.0
 10
238.6815449002071
 20
43.05849966791109
 30
0.0
 10
237.9884736651542
 20
42.94263804953637
 30
0.0
 10
237.294852898758
 20
42.82787935638332
 30
0.0
 10
236.6008737379306
 20
42.71386780874516
 30
0.0
  0
SPLINE
  5
215
330
1F
100
AcDbEntity
  8
0
  6
Continuous
 62
     7
370
    15
100
AcDbSpline
210
0.0
220
0.0
230
1.0
 70
     8
 71
     3
 72
     8
 73
     4
 74
     0
 42
0.000000001
 43
0.00000001
 40
0.0
 40
0.0
 40
0.0
 40
0.0
 40
0.0012389803509652
 40
0.0012389803509652
 40
0.0012389803509652
 40
0.0012389803509652
 10
236.1271373237851
 20
42.98740192949915
 30
0.0
 10
236.2852106587661
 20
42.89613084904865
 30
0.0
 10
236.4431288377321
 20
42.80494932194841
 30
0.0
 10
236.6008737379306
 20
42.71386780874516
 30
0.0
  0
LWPOLYLINE
  5
216
330
1F
100
AcDbEntity
  8
0
  6
Continuous
 62
     7
370
    15
100
AcDbPolyline
 90
       28
 70
   128
 43
0.0
 10
236.1271373238
 20
42.9874019295
 10
236.4339528015
 20
44.2088023166
 10
236.8171117236
 20
45.4400838011
 10
237.2737969228
 20
46.6721934132
 10
237.8006506312
 20
47.8960720942
 10
238.3937991686
 20
49.1027213034
 10
239.0488814235
 20
50.2832691792
 10
239.7610809183
 20
51.4290357695
 10
240.5251612217
 20
52.5315968508
 10
241.3355044505
 20
53.5828458672
 10
242.186152574
 20
54.5750535337
 10
243.0708512206
 20
55.5009246653
 10
243.9830956633
 20
56.3536518152
 10
244.9161786449
 20
57.1269653258
 10
245.8632396936
 20
57.8151794267
 10
246.817315564
 20
58.413234039
 10
247.7713914344
 20
58.9167319794
 10
248.7184524831
 20
59.3219712905
 10
249.6515354647
 20
59.6259724592
 10
250.5637799074
 20
59.8265003237
 10
251.448478554
 20
59.9220805073
 10
252.2991266775
 20
59.9120102588
 10
253.1094699063
 20
59.7963636194
 10
253.8735502098
 20
59.5759908786
 10
254.5857497045
 20
59.2525123221
 10
255.2408319594
 20
58.8283063186
 10
255.8339804968
 20
58.3064918336
 10
256.2653125821
 20
57.8157827931
  0
LINE
  5
217
330
1F
100
AcDbEntity
  8
0
  6
Continuous
 62
     7
370
    15
100
AcDbLine
 10
263.7444235724
 20
40.9764052825
 30
0.0
 11
263.7130819178
 21
40.9950096245
 31
0.0
  0
LINE
  5
218
330
1F
100
AcDbEntity
  8
0
  6
Continuous
 62
     7
370
    15
100
AcDbLine
 10
233.0954169994
 20
44.7375768192
 30
0.0
 11
236.1271373238
 21
42.9874019295
 31
0.0
  0
ARC
  5
219
330
1F
100
AcDbEntity
  8
0
  6
Continuous
 62
     7
370
    15
100
AcDbCircle
 10
248.984750788
 20
56.2982865702
 30
0.0
 40
5.360184219583593
100
AcDbArc
 50
60.0603086361
 51
76.3483600426
  0
LINE
  5
21A
330
1F
100
AcDbEntity
  8
0
  6
Continuous
 62
     7
370
    15
100
AcDbLine
 10
239.0841403027
 20
42.9973372772
 30
0.0
 11
239.0748176518
 21
43.002719129
 31
0.0
  0
SPLINE
  5
21B
330
1F
100
AcDbEntity
  8
0
  6
Continuous
 62
     7
370
    15
100
AcDbSpline
210
0.0
220
0.0
230
1.0
 70
     8
 71
     3
 72
    10
 73
     6
 74
     0
 42
0.000000001
 43
0.00000001
 40
0.0
 40
0.0
 40
0.0
 40
0.0
 40
0.2386821730236696
 40
0.7123059640471328
 40
1.0
 40
1.0
 40
1.0
 40
1.0
 10
239.9988074347718
 20
42.19792927934949
 30
0.0
 10
239.933771320007
 20
42.27791098123637
 30
0.0
 10
239.7396822020867
 20
42.51660263778925
 30
0.0
 10
239.4276941612418
 20
42.7814254954223
 30
0.0
 10
239.1783607777948
 20
42.93812294978163
 30
0.0
 10
239.0841403026661
 20
42.9973372771897
 30
0.0
  0
LWPOLYLINE
  5
21C
330
1F
100
AcDbEntity
  8
0
  6
Continuous
 62
     7
370
    15
100
AcDbPolyline
 90
       19
 70
   128
 43
0.0
 10
258.9729736716
 20
44.6797778568
 10
259.0720442599
 20
44.7679112908
 10
259.2468699993
 20
45.0115651937
 10
259.3064998033
 20
45.2730380388
 10
259.2468699993
 20
45.534510884
 10
259.0720442599
 20
45.7781647869
 10
258.7939366703
 20
45.9873951367
 10
258.4314998033
 20
46.1479432308
 10
258.0094331322
 20
46.2488679819
 10
257.5564998033
 20
46.283291535
 10
257.1035664743
 20
46.2488679819
 10
256.6814998033
 20
46.1479432308
 10
256.3190629362
 20
45.9873951367
 10
256.0409553467
 20
45.7781647869
 10
255.8661296073
 20
45.534510884
 10
255.8064998033
 20
45.2730380388
 10
255.8661296073
 20
45.0115651937
 10
256.0409553467
 20
44.7679112908
 10
256.1441918921
 20
44.6764770721
  0
SPLINE
  5
21D
330
1F
100
AcDbEntity
  8
0
  6
Continuous
 62
     7
370
    15
100
AcDbSpline
210
0.0
220
0.0
230
1.0
 70
     8
 71
     3
 72
    10
 73
     6
 74
     0
 42
0.000000001
 43
0.00000001
 40
0.0
 40
0.0
 40
0.0
 40
0.0
 40
0.5
 40
0.5
 40
1.0
 40
1.0
 40
1.0
 40
1.0
 10
239.074817651759
 20
43.00271912900243
 30
0.0
 10
239.0250170529462
 20
43.03146840275154
 30
0.0
 10
238.9599851362022
 20
43.05223174811221
 30
0.0
 10
238.8229267758568
 20
43.07118543749999
 30
0.0
 10
238.7493879358071
 20
43.0698410762722
 30
0.0
 10
238.6815449002071
 20
43.05849966791109
 30
0.0
  0
SPLINE
  5
21E
330
1F
100
AcDbEntity
  8
0
  6
Continuous
 62
     7
370
    15
100
AcDbSpline
210
0.0
220
0.0
230
1.0
 70
     8
 71
     3
 72
     8
 73
     4
 74
     0
 42
0.000000001
 43
0.00000001
 40
0.0
 40
0.0
 40
0.0
 40
0.0
 40
1.0
 40
1.0
 40
1.0
 40
1.0
 10
232.9385923918867
 20
44.82809849840795
 30
0.0
 10
232.9609711884061
 20
44.81518654695611
 30
0.0
 10
233.0151586194233
 20
44.78390899579909
 30
0.0
 10
233.0954169994478
 20
44.73757681921909
 30
0.0
  0
LINE
  5
21F
330
1F
100
AcDbEntity
  8
0
  6
Continuous
 62
     7
370
    15
100
AcDbLine
 10
232.9385923919
 20
44.8280984984
 30
0.0
 11
232.9618765125
 21
44.9754875508
 31
0.0
  0
SPLINE
  5
220
330
1F
100
AcDbEntity
  8
0
  6
Continuous
 62
     7
370
    15
100
AcDbSpline
210
0.0
220
0.0
230
1.0
 70
     8
 71
     3
 72
    11
 73
     7
 74
     0
 42
0.000000001
 43
0.00000001
 40
0.0
 40
0.0
 40
0.0
 40
0.0
 40
0.3095641458220321
 40
0.5897803711770564
 40
0.8409900224408633
 40
1.0
 40
1.0
 40
1.0
 40
1.0
 10
239.5681253876658
 20
35.35115587132177
 30
0.0
 10
239.6591213506453
 20
35.44263008773746
 30
0.0
 10
239.8324864949812
 20
35.61690639860518
 30
0.0
 10
239.9828194786784
 20
36.03537222360913
 30
0.0
 10
240.0571002177726
 20
36.44852145177722
 30
0.0
 10
240.0646448497082
 20
36.74555270336263
 30
0.0
 10
240.0675693118023
 20
36.86068842415804
 30
0.0
  0
SPLINE
  5
221
330
1F
100
AcDbEntity
  8
0
  6
Continuous
 62
     7
370
    15
100
AcDbSpline
210
0.0
220
0.0
230
1.0
 70
     8
 71
     3
 72
     9
 73
     5
 74
     0
 42
0.000000001
 43
0.00000001
 40
0.0
 40
0.0
 40
0.0
 40
0.0
 40
0.5067649320089164
 40
1.0
 40
1.0
 40
1.0
 40
1.0
 10
239.4594039231934
 20
34.62452510477762
 30
0.0
 10
239.4776728385543
 20
34.74697922351383
 30
0.0
 10
239.5137229166222
 20
34.98861811958104
 30
0.0
 10
239.5504037697054
 20
35.23076838996766
 30
0.0
 10
239.5684960527698
 20
35.35020539504587
 30
0.0
  0
SPLINE
  5
222
330
1F
100
AcDbEntity
  8
0
  6
Continuous
 62
     7
370
    15
100
AcDbSpline
210
0.0
220
0.0
230
1.0
 70
     8
 71
     3
 72
    10
 73
     6
 74
     0
 42
0.000000001
 43
0.00000001
 40
0.0
 40
0.0
 40
0.0
 40
0.0
 40
0.4807908150166064
 40
0.975781759036066
 40
1.0
 40
1.0
 40
1.0
 40
1.0
 10
239.0841403026661
 20
36.42418374150941
 30
0.0
 10
239.2339312495664
 20
36.34401336614739
 30
0.0
 10
239.5379372103477
 20
36.18130478800902
 30
0.0
 10
239.8275526545455
 20
36.06980335728784
 30
0.0
 10
239.9618910852234
 20
36.0415717398086
 30
0.0
 10
239.9681572310832
 20
36.04025489077224
 30
0.0
  0
LINE
  5
223
330
1F
100
AcDbEntity
  8
0
  6
Continuous
 62
     7
370
    15
100
AcDbLine
 10
233.3720256394
 20
44.5778421402
 30
0.0
 11
232.9385923919
 21
44.8280984984
 31
0.0
  0
LINE
  5
224
330
1F
100
AcDbEntity
  8
0
  6
Continuous
 62
     7
370
    15
100
AcDbLine
 10
236.6008737379
 20
42.7138678087
 30
0.0
 11
233.3720256394
 21
44.5778421402
 31
0.0
  0
SPLINE
  5
225
330
1F
100
AcDbEntity
  8
0
  6
Continuous
 62
     7
370
    15
100
AcDbSpline
210
0.0
220
0.0
230
1.0
 70
     8
 71
     3
 72
    11
 73
     7
 74
     0
 42
0.000000001
 43
0.00000001
 40
0.0
 40
0.0
 40
0.0
 40
0.0
 40
0.2163155055778993
 40
0.5249147718327557
 40
0.8335516849882196
 40
1.0
 40
1.0
 40
1.0
 40
1.0
 10
235.477090560723
 20
40.56401619442322
 30
0.0
 10
235.4723729690902
 20
40.77040782640634
 30
0.0
 10
235.4609251834636
 20
41.2712411629773
 30
0.0
 10
235.3957416261157
 20
42.09003300988395
 30
0.0
 10
235.3549875561056
 20
42.85149745760021
 30
0.0
 10
235.3763753796713
 20
43.2860296241997
 30
0.0
 10
235.3838687029389
 20
43.43826998584581
 30
0.0
  0
LINE
  5
226
330
1F
100
AcDbEntity
  8
0
  6
Continuous
 62
     7
370
    15
100
AcDbLine
 10
235.4770905607
 20
40.143660839
 30
0.0
 11
235.4770905607
 21
40.5640161944
 31
0.0
  0
LINE
  5
227
330
1F
100
AcDbEntity
  8
0
  6
Continuous
 62
     7
370
    15
100
AcDbLine
 10
234.8672109619
 20
43.3790296541
 30
0.0
 11
234.8723988567
 21
43.7116951184
 31
0.0
  0
ARC
  5
228
330
1F
100
AcDbEntity
  8
0
  6
Continuous
 62
     7
370
    15
100
AcDbCircle
 10
242.4210405489
 20
43.2047768539
 30
0.0
 40
7.555839163670706
100
AcDbArc
 50
178.6785272924
 51
203.2171026327
  0
LINE
  5
229
330
1F
100
AcDbEntity
  8
0
  6
Continuous
 62
     7
370
    15
100
AcDbLine
 10
222.6131467983
 20
66.8453459818
 30
0.0
 11
222.7604575817
 21
66.7979825614
 31
0.0
  0
LINE
  5
22A
330
1F
100
AcDbEntity
  8
0
  6
Continuous
 62
     7
370
    15
100
AcDbLine
 10
216.3889881703
 20
55.7610779505
 30
0.0
 11
216.3208368892
 21
55.8210589801
 31
0.0
  0
LINE
  5
22B
330
1F
100
AcDbEntity
  8
0
  6
Continuous
 62
     7
370
    15
100
AcDbLine
 10
239.0748176518
 20
36.4295655933
 30
0.0
 11
239.0841403027
 21
36.4241837415
 31
0.0
  0
ARC
  5
22C
330
1F
100
AcDbEntity
  8
0
  6
Continuous
 62
     7
370
    15
100
AcDbCircle
 10
241.9020334178
 20
37.0764665793
 30
0.0
 40
5.919642220385752
100
AcDbArc
 50
192.6964501329
 51
260.4756565155
  0
SPLINE
  5
22D
330
1F
100
AcDbEntity
  8
0
  6
Continuous
 62
     7
370
    15
100
AcDbSpline
210
0.0
220
0.0
230
1.0
 70
     8
 71
     3
 72
     8
 73
     4
 74
     0
 42
0.000000001
 43
0.00000001
 40
0.0
 40
0.0
 40
0.0
 40
0.0
 40
0.0012389803509652
 40
0.0012389803509652
 40
0.0012389803509652
 40
0.0012389803509652
 10
236.6008737379306
 20
36.14071427306487
 30
0.0
 10
236.4431288377321
 20
36.01863782253015
 30
0.0
 10
236.2852106587661
 20
35.89688051952933
 30
0.0
 10
236.1271373237851
 20
35.7754134979849
 30
0.0
  0
SPLINE
  5
22E
330
1F
100
AcDbEntity
  8
0
  6
Continuous
 62
     7
370
    15
100
AcDbSpline
210
0.0
220
0.0
230
1.0
 70
     8
 71
     3
 72
     8
 73
     4
 74
     0
 42
0.000000001
 43
0.00000001
 40
0.0
 40
0.0
 40
0.0
 40
0.0
 40
1.0
 40
1.0
 40
1.0
 40
1.0
 10
236.6008737379306
 20
36.14071427306487
 30
0.0
 10
237.2948543208722
 20
36.25472605433749
 30
0.0
 10
237.9884873816342
 20
36.36948680685785
 30
0.0
 10
238.6815449002071
 20
36.4853461322308
 30
0.0
  0
SPLINE
  5
22F
330
1F
100
AcDbEntity
  8
0
  6
Continuous
 62
     7
370
    15
100
AcDbSpline
210
0.0
220
0.0
230
1.0
 70
     8
 71
     3
 72
    12
 73
     8
 74
     0
 42
0.000000001
 43
0.00000001
 40
0.0
 40
0.0
 40
0.0
 40
0.0
 40
0.2499999999999987
 40
0.2499999999999987
 40
0.4999999999999973
 40
0.4999999999999973
 40
1.0
 40
1.0
 40
1.0
 40
1.0
 10
238.6815449002071
 20
36.4853461322308
 30
0.0
 10
238.7153334161312
 20
36.49099460231504
 30
0.0
 10
238.7509051922
 20
36.49425506583049
 30
0.0
 10
238.8214874385926
 20
36.49539265537862
 30
0.0
 10
238.8565103970415
 20
36.49337603892059
 30
0.0
 10
238.9607156923064
 20
36.479000301581
 30
0.0
 10
239.024426124246
 20
36.45865600294859
 30
0.0
 10
239.074817651759
 20
36.42956559332215
 30
0.0
  0
LINE
  5
230
330
1F
100
AcDbEntity
  8
0
  6
Continuous
 62
     7
370
    15
100
AcDbLine
 10
233.3720256394
 20
38.0046886045
 30
0.0
 11
236.6008737379
 21
36.1407142731
 31
0.0
  0
LINE
  5
231
330
1F
100
AcDbEntity
  8
0
  6
Continuous
 62
     7
370
    15
100
AcDbLine
 10
233.3720256394
 20
38.0046886045
 30
0.0
 11
235.2649585264
 21
39.0974555
 31
0.0
  0
LINE
  5
232
330
1F
100
AcDbEntity
  8
0
  6
Continuous
 62
     7
370
    15
100
AcDbLine
 10
232.9385923919
 20
37.7544322463
 30
0.0
 11
233.3720256394
 21
38.0046886045
 31
0.0
  0
LINE
  5
233
330
1F
100
AcDbEntity
  8
0
  6
Continuous
 62
     7
370
    15
100
AcDbLine
 10
236.1271373238
 20
35.775413498
 30
0.0
 11
233.0954169994
 21
37.5255883877
 31
0.0
  0
SPLINE
  5
234
330
1F
100
AcDbEntity
  8
0
  6
Continuous
 62
     7
370
    15
100
AcDbSpline
210
0.0
220
0.0
230
1.0
 70
     8
 71
     3
 72
     8
 73
     4
 74
     0
 42
0.000000001
 43
0.00000001
 40
0.0
 40
0.0
 40
0.0
 40
0.0
 40
1.0
 40
1.0
 40
1.0
 40
1.0
 10
233.0954169994478
 20
37.52558838770484
 30
0.0
 10
233.015392199933
 20
37.5717857211268
 30
0.0
 10
232.9609154025511
 20
37.65497324349149
 30
0.0
 10
232.9385923918867
 20
37.75443224633261
 30
0.0
  0
ARC
  5
235
330
1F
100
AcDbEntity
  8
0
  6
Continuous
 62
     7
370
    15
100
AcDbCircle
 10
238.6295255851
 20
38.3451442786
 30
0.0
 40
5.414344053264164
100
AcDbArc
 50
223.5450461559
 51
239.8640484934
  0
ELLIPSE
  5
236
330
1F
100
AcDbEntity
  8
0
  6
Continuous
 62
     7
370
    15
100
AcDbEllipse
 10
235.0306439513
 20
39.8859550744
 30
0.0
 11
-6.005970385558612E-5
 21
0.8534489614827194
 31
0.0
210
0.0
220
0.0
230
1.0
 40
0.7174342186
 41
3.534193645557425
 42
5.104989972352355
  0
ELLIPSE
  5
237
330
1F
100
AcDbEntity
  8
0
  6
Continuous
 62
     7
370
    15
100
AcDbEllipse
 10
234.9114051358
 20
39.8170975943
 30
0.0
 11
0.2600075789209199
 21
0.9705436209909308
 31
0.0
210
0.0
220
0.0
230
1.0
 40
0.5176380889
 41
3.619174351347695
 42
5.18997067814264
  0
LWPOLYLINE
  5
238
330
1F
100
AcDbEntity
  8
0
  6
Continuous
 62
     7
370
     0
100
AcDbPolyline
 90
        3
 70
   128
 43
0.0
 10
260.2431495313
 20
39.4457792053
 10
260.2271101671
 20
39.3871702836
 10
260.107268908
 20
39.1566375959
  0
LWPOLYLINE
  5
239
330
1F
100
AcDbEntity
  8
0
  6
Continuous
 62
     7
370
     0
100
AcDbPolyline
 90
       40
 70
   128
 43
0.0
 10
241.4874982008
 20
36.179330618
 10
241.5285322113
 20
37.2883039174
 10
241.651321949
 20
38.4362141204
 10
241.85493291
 20
39.6143249372
 10
242.137815492
 20
40.8136702332
 10
242.4978167876
 20
42.0251222664
 10
242.9321969695
 20
43.2394611554
 10
243.4376501425
 20
44.4474450481
 10
244.0103295025
 20
45.6398804575
 10
244.6458766139
 20
46.8076922303
 10
245.3394545794
 20
47.9419926136
 10
246.0857848519
 20
49.0341488966
 10
246.8791874074
 20
50.0758491107
 10
247.7136239733
 20
51.059165288
 10
248.5827439835
 20
51.9766137989
 10
249.47993291
 20
52.8212123061
 10
250.3983626034
 20
53.5865329051
 10
251.331043259
 20
54.2667510439
 10
252.2708766139
 20
54.8566898519
 10
253.2107099688
 20
55.3518595383
 10
254.1433906244
 20
55.7484915631
 10
255.0618203178
 20
56.0435673169
 10
255.9590092443
 20
56.234841095
 10
256.8281292545
 20
56.3208571887
 10
257.6625658205
 20
56.3009609633
 10
258.4559683759
 20
56.1753038413
 10
259.2022986484
 20
55.9448421492
 10
259.8958766139
 20
55.6113298396
 10
260.5314237253
 20
55.1773051425
 10
261.1041030853
 20
54.6460712481
 10
261.6095562583
 20
54.021671167
 10
262.0439364403
 20
53.3088569609
 10
262.4039377358
 20
52.5130535762
 10
262.6868203178
 20
51.6403175572
 10
262.8904312788
 20
50.6972909521
 10
263.0132210165
 20
49.6911507626
 10
263.054255027
 20
48.6295543233
 10
263.0132210165
 20
47.5205810239
 10
262.8904312788
 20
46.3726708209
 10
262.7626601416
 20
45.585018851
  0
LWPOLYLINE
  5
23A
330
1F
100
AcDbEntity
  8
0
  6
Continuous
 62
     7
370
     0
100
AcDbPolyline
 90
       22
 70
   128
 43
0.0
 10
254.7633102805
 20
31.7282370529
 10
254.1433906244
 20
31.2223520361
 10
253.2107099688
 20
30.5421338973
 10
252.2708766139
 20
29.9521950893
 10
251.331043259
 20
29.4570254029
 10
250.3983626034
 20
29.0603933781
 10
249.47993291
 20
28.7653176244
 10
248.5827439835
 20
28.5740438462
 10
247.7136239733
 20
28.4880277526
 10
246.8791874074
 20
28.5079239779
 10
246.0857848519
 20
28.6335810999
 10
245.3394545794
 20
28.8640427921
 10
244.6458766139
 20
29.1975551017
 10
244.0103295025
 20
29.6315797987
 10
243.4376501425
 20
30.1628136931
 10
242.9321969695
 20
30.7872137742
 10
242.4978167876
 20
31.5000279803
 10
242.137815492
 20
32.295831365
 10
241.85493291
 20
33.168567384
 10
241.651321949
 20
34.1115939891
 10
241.5285322113
 20
35.1177341786
 10
241.4874982008
 20
36.179330618
  0
LWPOLYLINE
  5
23B
330
1F
100
AcDbEntity
  8
0
  6
Continuous
 62
     7
370
     0
100
AcDbPolyline
 90
       27
 70
   128
 43
0.0
 10
240.7803914196
 20
36.179330618
 10
240.8216183929
 20
37.3086822663
 10
240.9449940827
 20
38.4772722403
 10
241.1496050586
 20
39.6764487088
 10
241.4339364525
 20
40.8973333886
 10
241.7958831743
 20
42.1308872767
 10
242.2327654969
 20
43.3679775719
 10
242.7413488967
 20
44.5994452902
 10
243.317868
 20
45.8161730757
 10
243.958054461
 20
47.0091527014
 10
244.6571685633
 20
48.1695517636
 10
245.4100343106
 20
49.2887790736
 10
246.2110777483
 20
50.3585482641
 10
247.054368231
 20
51.3709391382
 10
247.9336623311
 20
52.318456308
 10
248.8424500627
 20
53.194084688
 10
249.7740030794
 20
53.991341432
 10
250.7214244885
 20
54.70432393
 10
251.6776999135
 20
55.3277535091
 10
252.6357494256
 20
55.8570145146
 10
253.5884799615
 20
56.2881884834
 10
254.5288378375
 20
56.6180831543
 10
255.4498609731
 20
56.8442561024
 10
256.344730435
 20
56.9650328225
 10
257.206820923
 20
56.9795191259
 10
258.0297498207
 20
56.8876077611
 10
258.3792598861
 20
56.8132613921
  0
ARC
  5
23C
330
1F
100
AcDbEntity
  8
0
  6
Continuous
 62
     7
370
     0
100
AcDbCircle
 10
249.5531926154
 20
35.5961813763
 30
0.0
 40
8.792161500912979
100
AcDbArc
 50
176.1970061233
 51
220.3157775657
  0
LWPOLYLINE
  5
23D
330
1F
100
AcDbEntity
  8
0
  6
Continuous
 62
     7
370
     0
100
AcDbPolyline
 90
       28
 70
   128
 43
0.0
 10
245.5533621926
 20
38.5265039394
 10
245.5941329553
 20
39.4033893195
 10
245.7159503414
 20
40.3167034196
 10
245.9173356529
 20
41.2553598435
 10
246.1958443449
 20
42.207964574
 10
246.5480956993
 20
43.16295428
 10
246.9698138616
 20
44.1087366801
 10
247.4558797448
 20
45.0338312572
 10
248.0003931674
 20
45.9270086163
 10
248.596744474
 20
46.7774267942
 10
249.2376947678
 20
47.5747628662
 10
249.9154637803
 20
48.3093382525
 10
250.6218243138
 20
48.972236203
 10
251.3482021084
 20
49.5554100346
 10
252.0857799217
 20
50.0517808069
 10
252.825604558
 20
50.4553232511
 10
253.5586955486
 20
50.7611389087
 10
254.2761541618
 20
50.9655155918
 10
254.969271422
 20
51.0659724443
 10
255.6296338245
 20
51.0612900562
 10
256.2492254645
 20
50.9515252653
 10
256.8205253386
 20
50.7380104674
 10
257.3365986403
 20
50.423337443
 10
257.7911809388
 20
50.0113258964
 10
258.1787542208
 20
49.5069770894
 10
258.4946138716
 20
48.9164131336
 10
258.7349257831
 20
48.2468026753
 10
258.8324974047
 20
47.8538535055
  0
LWPOLYLINE
  5
23E
330
1F
100
AcDbEntity
  8
0
  6
Continuous
 62
     7
370
     0
100
AcDbPolyline
 90
       14
 70
   128
 43
0.0
 10
250.8331475436
 20
33.9970717074
 10
250.6218243138
 20
33.9326934794
 10
249.9154637803
 20
33.7800449172
 10
249.2376947678
 20
33.7320848584
 10
248.596744474
 20
33.7893954732
 10
248.0003931674
 20
33.9512810882
 10
247.4558797448
 20
34.2157766315
 10
246.9698138616
 20
34.5796714854
 10
246.5480956993
 20
35.0385484593
 10
246.1958443449
 20
35.5868374084
 10
245.9173356529
 20
36.2178828477
 10
245.7159503414
 20
36.9240247402
 10
245.5941329553
 20
37.6966914799
 10
245.5533621926
 20
38.5265039394
  0
LWPOLYLINE
  5
23F
330
1F
100
AcDbEntity
  8
0
  6
Continuous
 62
     7
370
     0
100
AcDbPolyline
 90
        8
 70
   128
 43
0.0
 10
247.6746825362
 20
38.5265039394
 10
247.7159273727
 20
37.7629291267
 10
247.8390604398
 20
37.0581092288
 10
248.0422861799
 20
36.422322107
 10
248.3226411042
 20
35.8648389691
 10
248.6760370066
 20
35.3937891747
 10
249.0973205791
 20
35.0160416904
 10
249.3318618551
 20
34.8637454877
  0
LWPOLYLINE
  5
240
330
1F
100
AcDbEntity
  8
0
  6
Continuous
 62
     7
370
     0
100
AcDbPolyline
 90
       21
 70
   128
 43
0.0
 10
257.3312117162
 20
48.7205272858
 10
257.0827250129
 20
48.8471678482
 10
256.5449962622
 20
49.023226368
 10
255.9604080363
 20
49.093839313
 10
255.3374849478
 20
49.0579769873
 10
254.6853106182
 20
48.9161623443
 10
254.0133952176
 20
48.670463361
 10
253.3315367857
 20
48.3244628818
 10
252.6496783538
 20
47.8832063728
 10
251.9777629532
 20
47.3531283475
 10
251.3255886235
 20
46.7419585371
 10
250.7026655351
 20
46.0586091737
 10
250.1180773092
 20
45.3130450299
 10
249.5803485585
 20
44.5161381096
 10
249.0973205791
 20
43.6795091103
 10
248.6760370066
 20
42.8153579667
 10
248.3226411042
 20
41.9362859483
 10
248.0422861799
 20
41.0551119048
 10
247.8390604398
 20
40.1846853378
 10
247.7159273727
 20
39.3376990268
 10
247.6746825362
 20
38.5265039394
  0
LWPOLYLINE
  5
241
330
1F
100
AcDbEntity
  8
0
  6
Continuous
 62
     7
370
     0
100
AcDbPolyline
 90
       42
 70
   128
 43
0.0
 10
261.8168181599
 20
40.9763917752
 10
261.2771214398
 20
40.6169839291
 10
260.7500747535
 20
40.1703051754
 10
260.2480316284
 20
39.6468252856
 10
259.78275953
 20
39.0588141846
 10
259.3651640419
 20
38.4200543543
 10
259.0050332484
 20
37.7455177836
 10
258.71080831
 20
37.0510150382
 10
258.4893856101
 20
36.3528246736
 10
258.3459551088
 20
35.6673116803
 10
258.2838786958
 20
35.0105439019
 10
258.3046113894
 20
34.3979154184
 10
258.4076672328
 20
33.8437857223
 10
258.5906306846
 20
33.3611431438
 10
258.8492132364
 20
32.9613004161
 10
259.1773539323
 20
32.6536295138
 10
259.5673614327
 20
32.445341982
 10
260.0100942922
 20
32.341319904
 10
260.4951752278
 20
32.3440014691
 10
261.0112343536
 20
32.4533238237
 10
261.546175681
 20
32.6667245444
 10
262.0874606388
 20
32.9792016992
 10
262.6224019662
 20
33.3834310885
 10
263.138461092
 20
33.869937918
 10
263.6235420277
 20
34.42731888
 10
264.0662748872
 20
35.042509437
 10
264.4562823875
 20
35.701090044
 10
264.7844230835
 20
36.3876241295
 10
265.0430056353
 20
37.0860199166
 10
265.225969087
 20
37.7799076
 10
265.3290249305
 20
38.4530230403
 10
265.3497576241
 20
39.0895889823
 10
265.287681211
 20
39.6746848598
 10
265.1442507098
 20
40.1945965213
 10
264.9228280098
 20
40.6371376781
 10
264.6286030715
 20
40.9919355405
 10
264.2684722779
 20
41.2506739475
 10
263.8508767898
 20
41.40728829
 10
263.3856046914
 20
41.4581076607
 10
262.8835615664
 20
41.4019408964
 10
262.35651488
 20
41.2401044986
 10
261.8168181599
 20
40.9763917752
  0
LWPOLYLINE
  5
242
330
1F
100
AcDbEntity
  8
0
  6
Continuous
 62
     7
370
     0
100
AcDbPolyline
 90
       20
 70
   128
 43
0.0
 10
238.6815449002
 20
43.0584996679
 10
238.9881698219
 20
44.2030059464
 10
239.3719548903
 20
45.3546196449
 10
239.8295227652
 20
46.5032064685
 10
240.356846812
 20
47.6386587591
 10
240.9492865356
 20
48.7509844433
 10
241.6016284181
 20
49.830394964
 10
242.3081317974
 20
50.8673914201
 10
243.0625793859
 20
51.8528481578
 10
243.8583319828
 20
52.778093077
 10
244.6883869001
 20
53.6349839466
 10
245.5454395866
 20
54.4159800567
 10
246.4219479083
 20
55.1142085776
 10
247.3101985202
 20
55.7235250409
 10
248.202374744
 20
56.2385674119
 10
249.0906253558
 20
56.6548032755
 10
249.9671336775
 20
56.968569722
 10
250.824186364
 20
57.1771055809
 10
251.6542412814
 20
57.2785757196
 10
252.3007920202
 20
57.281687751
  0
LWPOLYLINE
  5
243
330
1F
100
AcDbEntity
  8
0
  6
Continuous
 62
     7
370
     0
100
AcDbPolyline
 90
       22
 70
   128
 43
0.0
 10
259.2338250999
 20
33.1890173532
 10
259.3532213915
 20
33.1293345467
 10
259.7626049245
 20
33.010424819
 10
260.2160346541
 20
32.9973756958
 10
260.7017669886
 20
33.0905251426
 10
261.2072217155
 20
33.2874606377
 10
261.7193078231
 20
33.5830816551
 10
262.2247625501
 20
33.9697317659
 10
262.7104948846
 20
34.4373969351
 10
263.1639246142
 20
34.9739648807
 10
263.5733081471
 20
35.5655387747
 10
263.9280426649
 20
36.1967971638
 10
264.21894073
 20
36.8513907876
 10
264.4384682351
 20
37.5123660149
 10
264.5809395332
 20
38.1626039345
 10
264.6426646927
 20
38.7852637259
 10
264.6220450641
 20
39.3642188275
 10
264.5196146852
 20
39.8844746064
 10
264.3380264488
 20
40.3325567111
 10
264.081983395
 20
40.6968600505
 10
263.7581169044
 20
40.9679493595
 10
263.7444235724
 20
40.9764052825
  0
LWPOLYLINE
  5
244
330
1F
100
AcDbEntity
  8
0
  6
Continuous
 62
     7
370
     0
100
AcDbPolyline
 90
       24
 70
   128
 43
0.0
 10
233.0954169994
 20
44.7375768192
 10
233.4022324771
 20
45.9589772063
 10
233.7853913993
 20
47.1902586908
 10
234.2420765985
 20
48.4223683029
 10
234.7689303069
 20
49.646246984
 10
235.3620788443
 20
50.8528961932
 10
236.0171610992
 20
52.0334440689
 10
236.7293605939
 20
53.1792106592
 10
237.4934408974
 20
54.2817717405
 10
238.3037841262
 20
55.3330207569
 10
239.1544322496
 20
56.3252284234
 10
240.0391308963
 20
57.251099555
 10
240.9513753389
 20
58.1038267049
 10
241.8844583206
 20
58.8771402155
 10
242.8315193693
 20
59.5653543164
 10
243.7855952397
 20
60.1634089287
 10
244.73967111
 20
60.6669068692
 10
245.6867321587
 20
61.0721461803
 10
246.6198151404
 20
61.376147349
 10
247.5320595831
 20
61.5766752134
 10
248.4167582297
 20
61.672255397
 10
249.2674063532
 20
61.6621851485
 10
250.0777495819
 20
61.5465385092
 10
250.249850927
 20
61.5070384846
  0
LWPOLYLINE
  5
245
330
1F
100
AcDbEntity
  8
0
  6
Continuous
 62
     7
370
     0
100
AcDbPolyline
 90
       19
 70
   128
 43
0.0
 10
239.0748176518
 20
43.002719129
 10
239.3795025452
 20
44.1265620585
 10
239.759493417
 20
45.2568919814
 10
240.2114712609
 20
46.3838361029
 10
240.7314883054
 20
47.4975512014
 10
241.3150024946
 20
48.5883096033
 10
241.9569171611
 20
49.6465841489
 10
242.651625542
 20
50.6631314064
 10
243.3930597514
 20
51.6290724086
 10
244.1747437792
 20
52.5359702054
 10
244.9898500562
 20
53.3759035557
 10
245.8312590884
 20
54.1415361152
 10
246.6916216424
 20
54.826180515
 10
247.5634229361
 20
55.4238567723
 10
248.4390482766
 20
55.9293445218
 10
249.3108495703
 20
56.338228613
 10
250.1712121243
 20
56.6469376738
 10
251.0126211565
 20
56.8527753046
 10
251.4357267472
 20
56.9179755026
  0
LINE
  5
246
330
1F
100
AcDbEntity
  8
0
  6
Continuous
 62
     7
370
     0
100
AcDbLine
 10
239.0841403027
 20
36.4241837415
 30
0.0
 11
239.489921544
 21
36.6584362659
 31
0.0
  0
LWPOLYLINE
  5
247
330
1F
100
AcDbEntity
  8
0
  6
Continuous
 62
     7
370
     0
100
AcDbPolyline
 90
        3
 70
   128
 43
0.0
 10
240.048033476
 20
36.4000554715
 10
239.9841424549
 20
36.4230590929
 10
239.489921544
 20
36.6584362659
  0
ARC
  5
248
330
1F
100
AcDbEntity
  8
0
  6
Continuous
 62
     7
370
     0
100
AcDbCircle
 10
238.8019323745
 20
37.7150378611
 30
0.0
 40
1.260847345344086
100
AcDbArc
 50
303.0695173616
 51
345.5982002281
  0
LINE
  5
249
330
1F
100
AcDbEntity
  8
0
  6
Continuous
 62
     7
370
     0
100
AcDbLine
 10
235.5963293763
 20
40.2125183191
 30
0.0
 11
239.9813198819
 21
37.6811171827
 31
0.0
  0
LINE
  5
24A
330
1F
100
AcDbEntity
  8
0
  6
Continuous
 62
     7
370
     0
100
AcDbLine
 10
235.4770905607
 20
40.143660839
 30
0.0
 11
235.5963293763
 21
40.2125183191
 31
0.0
  0
LINE
  5
24B
330
1F
100
AcDbEntity
  8
0
  6
Continuous
 62
     7
370
     0
100
AcDbLine
 10
235.2207643525
 20
43.1749276261
 30
0.0
 11
235.2259522472
 21
43.5075930904
 31
0.0
  0
ARC
  5
24C
330
1F
100
AcDbEntity
  8
0
  6
Continuous
 62
     7
370
     0
100
AcDbCircle
 10
243.7670496164
 20
43.0964945379
 30
0.0
 40
8.546645164039676
100
AcDbArc
 50
179.4741857274
 51
192.6038112494
  0
LWPOLYLINE
  5
24D
330
1F
100
AcDbEntity
  8
0
  6
Continuous
 62
     7
370
     0
100
AcDbPolyline
 90
       18
 70
   128
 43
0.0
 10
215.3752484543
 20
58.4738070737
 10
215.4174395174
 20
59.2104346203
 10
215.5432267669
 20
59.9820529541
 10
215.7502670245
 20
60.7742882853
 10
216.0347035218
 20
61.5723827687
 10
216.391237745
 20
62.3614694143
 10
216.8132281363
 20
63.1268490307
 10
217.2928138129
 20
63.8542640439
 10
217.8210610013
 20
64.5301640885
 10
218.3881294557
 20
65.1419584255
 10
218.9834557638
 20
65.678250484
 10
219.5959501229
 20
66.1290501577
 10
220.2142029218
 20
66.4859599015
 10
220.8266972809
 20
66.7423311622
 10
221.422023589
 20
66.8933882284
 10
221.9890920434
 20
66.9363171927
 10
222.5173392318
 20
66.8703183696
 10
222.6131467983
 20
66.8453459818
  0
ARC
  5
24E
330
1F
100
AcDbEntity
  8
0
  6
Continuous
 62
     7
370
     0
100
AcDbCircle
 10
218.9259850851
 20
58.2445846021
 30
0.0
 40
3.558127817134196
100
AcDbArc
 50
176.3063210893
 51
222.9315250867
  0
LWPOLYLINE
  5
24F
330
1F
100
AcDbEntity
  8
0
  6
Continuous
 62
     7
370
     0
100
AcDbPolyline
 90
        3
 70
   128
 43
0.0
 10
239.5464354211
 20
35.3265893228
 10
239.395069733
 20
35.6244722878
 10
239.0748176518
 20
36.4295655933
  0
ARC
  5
250
330
1F
100
AcDbEntity
  8
0
  6
Continuous
 62
     7
370
     0
100
AcDbCircle
 10
244.7185036667
 20
38.3597406058
 30
0.0
 40
6.321251916425287
100
AcDbArc
 50
197.2488655996
 51
213.7856470572
  0
LINE
  5
251
330
1F
100
AcDbEntity
  8
0
  6
Continuous
 62
     7
370
     0
100
AcDbLine
 10
239.489921544
 20
36.6584362659
 30
0.0
 11
235.2649585264
 21
39.0974555
 31
0.0
  0
ARC
  5
252
330
1F
100
AcDbEntity
  8
0
  6
Continuous
 62
     7
370
     0
100
AcDbCircle
 10
239.9132003174
 20
39.3957040278
 30
0.0
 40
7.069618227152421
100
AcDbArc
 50
195.3389392146
 51
222.5491558567
  0
OLE2FRAME
  5
253
330
1F
100
AcDbEntity
  8
0
100
AcDbOle2Frame
 70
     2
  3
Paintbrush-Bild
 10
13.8511154363
 20
38.264191557
 30
0.0
 11
51.6290888628
 21
31.9806341108
 31
0.0
 71
     2
 72
     0
 73
     1
 90
    12928
310
80552BED0767C5B32B40DDAF6807D121434000000000000000006FFBDDFB85D0
310
4940DDAF6807D121434000000000000000006FFBDDFB85D04940416F4BD60AFB
310
3F4000000000000000002BED0767C5B32B40416F4BD60AFB3F40000000000000
310
0000000000000100000000010000010000000100000000000100000000320000
310
D0CF11E0A1B11AE1000000000000000000000000000000003E000300FEFF0900
310
0600000000000000000000000100000001000000000000000010000002000000
310
01000000FEFFFFFF0000000000000000FFFFFFFFFFFFFFFFFFFFFFFFFFFFFFFF
310
FFFFFFFFFFFFFFFFFFFFFFFFFFFFFFFFFFFFFFFFFFFFFFFFFFFFFFFFFFFFFFFF
310
FFFFFFFFFFFFFFFFFFFFFFFFFFFFFFFFFFFFFFFFFFFFFFFFFFFFFFFFFFFFFFFF
310
FFFFFFFFFFFFFFFFFFFFFFFFFFFFFFFFFFFFFFFFFFFFFFFFFFFFFFFFFFFFFFFF
310
FFFFFFFFFFFFFFFFFFFFFFFFFFFFFFFFFFFFFFFFFFFFFFFFFFFFFFFFFFFFFFFF
310
FFFFFFFFFFFFFFFFFFFFFFFFFFFFFFFFFFFFFFFFFFFFFFFFFFFFFFFFFFFFFFFF
310
FFFFFFFFFFFFFFFFFFFFFFFFFFFFFFFFFFFFFFFFFFFFFFFFFFFFFFFFFFFFFFFF
310
FFFFFFFFFFFFFFFFFFFFFFFFFFFFFFFFFFFFFFFFFFFFFFFFFFFFFFFFFFFFFFFF
310
FFFFFFFFFFFFFFFFFFFFFFFFFFFFFFFFFFFFFFFFFFFFFFFFFFFFFFFFFFFFFFFF
310
FFFFFFFFFFFFFFFFFFFFFFFFFFFFFFFFFFFFFFFFFFFFFFFFFFFFFFFFFFFFFFFF
310
FFFFFFFFFFFFFFFFFFFFFFFFFFFFFFFFFFFFFFFFFFFFFFFFFFFFFFFFFFFFFFFF
310
FFFFFFFFFFFFFFFFFFFFFFFFFFFFFFFFFFFFFFFFFFFFFFFFFFFFFFFFFFFFFFFF
310
FFFFFFFFFFFFFFFFFFFFFFFFFFFFFFFFFFFFFFFFFFFFFFFFFFFFFFFFFFFFFFFF
310
FFFFFFFFFFFFFFFFFFFFFFFFFFFFFFFFFFFFFFFFFFFFFFFFFFFFFFFFFFFFFFFF
310
FDFFFFFFFEFFFFFFFEFFFFFFFEFFFFFF05000000060000000700000008000000
310
090000000A0000000B0000000C0000000D0000000E0000000F00000010000000
310
11000000120000001300000014000000150000001600000017000000FEFFFFFF
310
FFFFFFFFFFFFFFFFFFFFFFFFFFFFFFFFFFFFFFFFFFFFFFFFFFFFFFFFFFFFFFFF
310
FFFFFFFFFFFFFFFFFFFFFFFFFFFFFFFFFFFFFFFFFFFFFFFFFFFFFFFFFFFFFFFF
310
FFFFFFFFFFFFFFFFFFFFFFFFFFFFFFFFFFFFFFFFFFFFFFFFFFFFFFFFFFFFFFFF
310
FFFFFFFFFFFFFFFFFFFFFFFFFFFFFFFFFFFFFFFFFFFFFFFFFFFFFFFFFFFFFFFF
310
FFFFFFFFFFFFFFFFFFFFFFFFFFFFFFFFFFFFFFFFFFFFFFFFFFFFFFFFFFFFFFFF
310
FFFFFFFFFFFFFFFFFFFFFFFFFFFFFFFFFFFFFFFFFFFFFFFFFFFFFFFFFFFFFFFF
310
FFFFFFFFFFFFFFFFFFFFFFFFFFFFFFFFFFFFFFFFFFFFFFFFFFFFFFFFFFFFFFFF
310
FFFFFFFFFFFFFFFFFFFFFFFFFFFFFFFFFFFFFFFFFFFFFFFFFFFFFFFFFFFFFFFF
310
FFFFFFFFFFFFFFFFFFFFFFFFFFFFFFFFFFFFFFFFFFFFFFFFFFFFFFFFFFFFFFFF
310
FFFFFFFFFFFFFFFFFFFFFFFFFFFFFFFFFFFFFFFFFFFFFFFFFFFFFFFFFFFFFFFF
310
FFFFFFFFFFFFFFFFFFFFFFFFFFFFFFFFFFFFFFFFFFFFFFFFFFFFFFFFFFFFFFFF
310
FFFFFFFFFFFFFFFFFFFFFFFFFFFFFFFFFFFFFFFFFFFFFFFFFFFFFFFFFFFFFFFF
310
FFFFFFFFFFFFFFFFFFFFFFFFFFFFFFFFFFFFFFFFFFFFFFFFFFFFFFFFFFFFFFFF
310
52006F006F007400200045006E00740072007900000000000000000000000000
310
0000000000000000000000000000000000000000000000000000000000000000
310
16000500FFFFFFFFFFFFFFFF020000000A00030000000000C000000000000046
310
000000000000000000000000B0CCD4375025D20103000000C000000000000000
310
01004F006C006500000000000000000000000000000000000000000000000000
310
0000000000000000000000000000000000000000000000000000000000000000
310
0A000200FFFFFFFFFFFFFFFFFFFFFFFF00000000000000000000000000000000
310
0000000000000000000000000000000000000000000000001400000000000000
310
010043006F006D0070004F0062006A0000000000000000000000000000000000
310
0000000000000000000000000000000000000000000000000000000000000000
310
120002010100000003000000FFFFFFFF00000000000000000000000000000000
310
0000000000000000000000000000000000000000010000004D00000000000000
310
01004F006C006500310030004E00610074006900760065000000000000000000
310
0000000000000000000000000000000000000000000000000000000000000000
310
1A000200FFFFFFFFFFFFFFFFFFFFFFFF00000000000000000000000000000000
310
0000000000000000000000000000000000000000040000002426000000000000
310
FEFFFFFF02000000FEFFFFFFFFFFFFFFFFFFFFFFFFFFFFFFFFFFFFFFFFFFFFFF
310
FFFFFFFFFFFFFFFFFFFFFFFFFFFFFFFFFFFFFFFFFFFFFFFFFFFFFFFFFFFFFFFF
310
FFFFFFFFFFFFFFFFFFFFFFFFFFFFFFFFFFFFFFFFFFFFFFFFFFFFFFFFFFFFFFFF
310
FFFFFFFFFFFFFFFFFFFFFFFFFFFFFFFFFFFFFFFFFFFFFFFFFFFFFFFFFFFFFFFF
310
FFFFFFFFFFFFFFFFFFFFFFFFFFFFFFFFFFFFFFFFFFFFFFFFFFFFFFFFFFFFFFFF
310
FFFFFFFFFFFFFFFFFFFFFFFFFFFFFFFFFFFFFFFFFFFFFFFFFFFFFFFFFFFFFFFF
310
FFFFFFFFFFFFFFFFFFFFFFFFFFFFFFFFFFFFFFFFFFFFFFFFFFFFFFFFFFFFFFFF
310
FFFFFFFFFFFFFFFFFFFFFFFFFFFFFFFFFFFFFFFFFFFFFFFFFFFFFFFFFFFFFFFF
310
FFFFFFFFFFFFFFFFFFFFFFFFFFFFFFFFFFFFFFFFFFFFFFFFFFFFFFFFFFFFFFFF
310
FFFFFFFFFFFFFFFFFFFFFFFFFFFFFFFFFFFFFFFFFFFFFFFFFFFFFFFFFFFFFFFF
310
FFFFFFFFFFFFFFFFFFFFFFFFFFFFFFFFFFFFFFFFFFFFFFFFFFFFFFFFFFFFFFFF
310
FFFFFFFFFFFFFFFFFFFFFFFFFFFFFFFFFFFFFFFFFFFFFFFFFFFFFFFFFFFFFFFF
310
FFFFFFFFFFFFFFFFFFFFFFFFFFFFFFFFFFFFFFFFFFFFFFFFFFFFFFFFFFFFFFFF
310
FFFFFFFFFFFFFFFFFFFFFFFFFFFFFFFFFFFFFFFFFFFFFFFFFFFFFFFFFFFFFFFF
310
FFFFFFFFFFFFFFFFFFFFFFFFFFFFFFFFFFFFFFFFFFFFFFFFFFFFFFFFFFFFFFFF
310
FFFFFFFFFFFFFFFFFFFFFFFFFFFFFFFFFFFFFFFFFFFFFFFFFFFFFFFFFFFFFFFF
310
0100000200000000000000000000000000000000000000000000000000000000
310
0000000000000000000000000000000000000000000000000000000000000000
310
0100FEFF030A0000FFFFFFFF0A00030000000000C00000000000004607000000
310
5042727573680007000000504272757368000700000050427275736800F439B2
310
7100000000000000000000000000000000000000000000000000000000000000
310
0000000000000000000000000000000000000000000000000000000000000000
310
0000000000000000000000000000000000000000000000000000000000000000
310
0000000000000000000000000000000000000000000000000000000000000000
310
0000000000000000000000000000000000000000000000000000000000000000
310
0000000000000000000000000000000000000000000000000000000000000000
310
0000000000000000000000000000000000000000000000000000000000000000
310
0000000000000000000000000000000000000000000000000000000000000000
310
0000000000000000000000000000000000000000000000000000000000000000
310
0000000000000000000000000000000000000000000000000000000000000000
310
0000000000000000000000000000000000000000000000000000000000000000
310
0000000000000000000000000000000000000000000000000000000000000000
310
20260000424D0E260000000000003E00000028000000B40200006E0000000100
310
01000000000000000000130B0000130B00000200000002000000000000FFFFFF
310
FFFFFFFFFFFFFFFFFFFFFFFFFFFFFFFFFFFFFFFFFFFFFFFFFFFFFFFFFFFFFFFF
310
FFFFFFFFFFFFFFFFFFFFFFFFFFFFFFFFFFFFFFFFFFFFFFFFFFFFFFFFFFFFFFFF
310
FFFFFFFFFFFFFFFFFFFFFFFFFFFFFFFFFFFFFFFFFFFFFFFFF000FFFFFFFFFFFF
310
FFFFFFFFFFFFFFFFFFFFFFFFFFFFFFFFFFFFFFFFFFFFFFFFFFFFFFFFFFFFFFFF
310
FFFFFFFFFFFFFFFFFFFFFFFFFFFFFFFFFFFFFFFFFFFFFFFFFFFFFFFFFFFFFFFF
310
FFFFFFFFFFFFFFFFFFFFFFFFFFFFFFFFF000FFFFFFFFFFFFFFFFFFFFFFFFFFFF
310
FFFFFFFFFFFFFFFFFFFFFFFFFFFFFFFFFFFFFFFFFFFFFFFFFFFFFFFFFFFFFFFF
310
FFFFFFFFFFFFFFFFFFFFFFFFFFFFFFFFFFFFFFFFFFFFFFFFFFFFFFFFFFFFFFFF
310
FFFFFFFFFFFFFFFFF000FFFFFFFFFFFFFFFFFFFFFFFFFFFFFFFFFFFFFFFFFFFF
310
FFFFFFFFFFFFFFFFFFFFFFFFFFFFFFFFFFFFFFFFFFFFFFFFFFFFFFFFFFFFFFFF
310
FFFFFFFFFFFFFFFFFFFFFFFFFFFFFFFFFFFFFFFFFFFFFFFFFFFFFFFFFFFFFFFF
310
F000FFFFFFFFFFFFFFFFFFFFFFFFFFFFFFFFFFFFFFFFFFFFFFFFFFFFFFFFFFFF
310
FFFFFFFFFFFFFFFFFFFFFFFFFFFFFFFFFFFFFFFFFFFFFFFFFFFFFFFFFFFFFFFF
310
FFFFFFFFFFFFFFFFFFFFFFFFFFFFFFFFFFFFFFFFFFFFFFFFF000FFFFFFFFFFFF
310
FFFFFFFFFFFFFFFFFFFFFFFFFFFFFFFFFFFFFFFFFFFFFFFFFFFFFFFFFFFFFFFF
310
FFFFFFFFFFFFFFFFFFFFFFFFFFFFFFFFFFFFFFFFFFFFFFFFFFFFFFFFFFFFFFFF
310
FFFFFFFFFFFFFFFFFFFFFFFFFFFFFFFFF000FFFFFFFFFFFFFFFFFFFFFFFFFFFF
310
FFFFFFFFFFFFFFFFFFFFFFFFFFFFFFFFFFFFFFFFFFFFFFFFFFFFFFFFFFFFFFFF
310
FFFFFFFFFFFFFFFFFFFFFFFFFFFFFFFFFFFFFFFFFFFFFFFFFFFFFFFFFFFFFFFF
310
FFFFFFFFFFFFFFFFF000FFFFFFFFFFFFFFFFFFFFFFFFFFFFFFFFFFFFFFFFFFFF
310
FFFFFFFFFFFFFFFFFFFFFFFFFFFFFFFFFFFFFFFFFFFFFFFFFFFFFFFFFFFFFFFF
310
FFFFFFFFFFFFFFFFFFFFFFFFFFFFFFFFFFFFFFFFFFFFFFFFFFFFFFFFFFFFFFFF
310
F000FFFFFFFFFFFFFFFFFFFFFFFFFFFFFFFFFFFFFFFFFFFFFFFFFFFFFFFFFFFF
310
FFFFFFFFFFFFFFFFFFFFFFFFFFFFFFFFFFFFFFFFFFFFFFFFFFFFFFFFFFFFFFFF
310
FFFFFFFFFFFFFFFFFFFFFFFFFFFFFFFFFFFFFFFFFFFFFFFFF000FFFFFFFFFFFF
310
FFFFFFFFFFFFFFFFFFFFFFFFFFFFFFFFFFFFFFFFFFFFFFFFFFFFFFFFFFFFFFFF
310
FFFFFFFFFFFFFFFFFFFFFFFFFFFFFFFFFFFFFFFFFFFFFFFFFFFFFFFFFFFFFFFF
310
FFFFFFFFFFFFFFFFFFFFFFFFFFFFFFFFF000FFFFFFFFFFFFFFFFFFFFFFFFFFFF
310
FFFFFFFFFFFFFFFFFFFFFFFFFFFFFFFFFFFFFFFFFFFFFFFFFFFFFFFFFFFFFFFF
310
FFFFFFFFFFFFFFFFFFFFFFFFFFFFFFFFFFFFFFFFFFFFFFFFFFFFFFFFFFFFFFFF
310
FFFFFFFFFFFFFFFFF000FFFFFFFFFFFFFFFFFFFFFFFFFFFFFFFFFFFFFFFFFFFF
310
FFFFFFFFFFFFFFFFFFFFFFFFFFFFFFFFFFFFFFFFFFFFFFFFFFFFFFFFFFFFFFFF
310
FFFFFFFFFFFFFFFFFFFFFFFFFFFFFFFFFFFFFFFFFFFFFFFFFFFFFFFFFFFFFFFF
310
F000FFFFFFFFFFFFFFFFFFFFFFFFFFFFFFFFFFFFFFFFFFFFFFFFFFFFFFFFFFFF
310
FFFFFFFFFFFFFFFFFFFFFFFFFFFFFFFFFFFFFFFFFFFFFFFFFFFFFFFFFFFFFFFF
310
FFFFFFFFFFFFFFFFFFFFFFFFFFFFFFFFFFFFFFFFFFFFFFFFF000FFFFFFFFFFFF
310
FFFFFFFFFFFFFFFFFFFFFFFFFFFFFFFFFFFFFFFFFFFFFFFFFFFFFFFFFFFFFFFF
310
FFFFFFFFFFFFFFFFFFFFFFFFFFFFFFFFFFFFFFFFFFFFFFFFFFFFFFFFFFFFFFFF
310
FFFFFFFFFFFFFFFFFFFFFFFFFFFFFFFFF000FFFFFFFFFFFFFFFFFFFFFFFFFFFF
310
FFFFFFFFFFFFFFFFFFFFFFFFFFFFFFFFFFFFFFFFFFFFFFFFFFFFFFFFFFFFFFFF
310
FFFFFFFFFFFFFFFFFFFFFFFFFFFFFFFFFFFFFFFFFFFFFFFFFFFFFFFFFFFFFFFF
310
FFFFFFFFFFFFFFFFF000FFFFFFFFFFFFFFFFFFFFFFFFFFFFFFFFFFFFFFFFFFFF
310
FFFFFFFFFFFFFFFFFFFFFFFFFFFFFFFFFFFFFFFFFFFFFFFFFFFFFFFFFFFFFFFF
310
FFFFFFFFFFFFFFFFFFFFFFFFFFFFFFFFFFFFFFFFFFFFFFFFFFFFFFFFFFFFFFFF
310
F000FFFFFFFFFFFFFFFFFFFFFFFFFFFFFFFFFFFFFFFFFFFFFFFFFFFFFFFFFFFF
310
FFFFFFFFFFFFFFFFFFFFFFFFFFFFFFFFFFFFFFFFFFFFFFFFFFFFFFFFFFFFFFFF
310
FFFFFFFFFFFFFFFFFFFFFFFFFFFFFFFFFFFFFFFFFFFFFFFFF000FFFFFFFFFFFF
310
FFFFFFFFFFFFFFFFFFFFFFFFFFFFFFFFFFFFFFFFFFFFFFFFFFFFFFFFFFFFFFFF
310
FFFFFFFFFFFFFFFFFFFFFFFFFFFFFFFFFFFFFFFFFFFFFFFFFFFFFFFFFFFFFFFF
310
FFFFFFFFFFFFFFFFFFFFFFFFFFFFFFFFF000FFFFFFFFFFFFFFFFFFFFFFFFFFFF
310
FFFFFFFFFFFFFFFFFFFFFFFFFFFFFFFFFFFFFFFFFFFFFFFFFFFFFFFFFFFFFFFF
310
FFFFFFFFFFFFFFFFFFFFFFFFFFFFFFFFFFFFFFFFFFFFFFFFFFFFFFFFFFFFFFFF
310
FFFFFFFFFFFFFFFFF000FFFFF80003FFFFFFFFFFFFFFFFFFFFFFFFFFFFFFFFFF
310
FFFFF00007FFFFFFFFFF00007FFFFFF800000000000000007FFFFFFFFFFFFFFF
310
FFFFFFFC001FFFFFFFFFFFFFFC001FFFFFFFFFFFFFFFFFFFFFFFFFFE0007FFFF
310
F000FFFF8000007FFFFFFFF8000FFFFFC0007FFFFF80007FFFFF0000007FFFFF
310
FFF8000007FFFFF800000000000000007FFFFFF0001FFFFFFFFFFFC00001FFFF
310
FFFFFFFFC00001FFFFFFFF000000000003FFFFE000007FFFF000FFFE0000000F
310
FFFFFFF0000FFFFF80007FFFFF80007FFFFC0000001FFFFFFFC0000001FFFFF8
310
00000000000000007FFFFFF0001FFFFFFFFFFE0000003FFFFFFFFFFE0000003F
310
FFFFFF000000000003FFFF0000000FFFF000FFF800000003FFFFFFF00007FFFF
310
80007FFFFF80007FFFF000000007FFFFFF000000003FFFF80000000000000000
310
7FFFFFF0001FFFFFFFFFF80000000FFFFFFFFFF80000000FFFFFFF0000000000
310
03FFFC00000003FFF000FFE000000000FFFFFFF00007FFFF80003FFFFF80007F
310
FFC000000001FFFFFC000000001FFFF800000000000000007FFFFFF0001FFFFF
310
FFFFE000000003FFFFFFFFE000000003FFFFFF000000000003FFF000000000FF
310
F000FF80000000007FFFFFF00007FFFF80003FFFFF80007FFF8000000000FFFF
310
F80000000007FFF800000000000000007FFFFFF0001FFFFFFFFFC000000001FF
310
FFFFFFC000000001FFFFFF000000000003FFC0000000007FF000FF0000000000
310
3FFFFFE00007FFFF00003FFFFF80007FFE00000000003FFFF00000000003FFF8
310
00000000000000007FFFFFF0001FFFFFFFFF8000000000FFFFFFFF8000000000
310
FFFFFF000000000003FF80000000003FF000FE00000000001FFFFFE00003FFFF
310
00003FFFFF80007FFC00000000001FFFE00000000001FFF8000001FFFE000000
310
7FFFFFF0001FFFFFFFFE00000000003FFFFFFE00000000003FFFFF0000000000
310
03FF00000000001FF000FC00000000000FFFFFE00003FFFF00001FFFFF80007F
310
F800000000001FFFC00000000000FFF8000001FFFE0000007FFFFFF0001FFFFF
310
FFFC00000000001FFFFFFC00000000001FFFFF000000000003FE00000000000F
310
F000F8000000000007FFFFE00003FFFF00001FFFFF80007FF800000000000FFF
310
800000000000FFF8000001FFFE0000007FFFFFF0001FFFFFFFF800000000000F
310
FFFFF800000000000FFFFF000000000003FC000000000007F000F80000000000
310
03FFFFC00003FFFE00001FFFFF80007FF0000000000007FF0000000000007FF8
310
000001FFFE0000007FFFFFF0001FFFFFFFF0000000000007FFFFF00000000000
310
07FFFF000000000003F8000000000003F000F0000000000003FFFFC00001FFFE
310
00001FFFFF80007FE0000000000007FE0000000000003FF8000001FFFE000000
310
7FFFFFF0001FFFFFFFF0000000000007FFFFF0000000000007FFFF0000000000
310
03F800001F800003F000E00001FFF00001FFFFC00001FFFE00000FFFFF80007F
310
E00001FFE00003FE00001FFF00003FF8000001FFFE0000007FFFFFF0001FFFFF
310
FFE000003E000003FFFFE000003E000003FFFF000000000003F00001FFF80001
310
F000E00007FFFC0001FFFFC00001FFFE00000FFFFF80007FC0000FFFFC0003FC
310
0000FFFFC0001FF8000001FFFE0000007FFFFFF0001FFFFFFFC00003FFE00001
310
FFFFC00003FFE00001FFFF0001FFFFFFFFF00007FFFE0001F000E0000FFFFF00
310
00FFFF800001FFFC00000FFFFF80007FC0001FFFFE0001FC0001FFFFE0001FF8
310
000001FFFE0000007FFFFFF0001FFFFFFF80000FFFF80000FFFF80000FFFF800
310
00FFFF0003FFFFFFFFE0000FFFFF8000F000C0003FFFFF8000FFFF800000FFFC
310
000007FFFF80007F80003FFFFF0001FC0003FFFFF0001FF8000001FFFE000000
310
7FFFFFF0001FFFFFFF80003FFFFE0000FFFF80003FFFFE0000FFFF0003FFFFFF
310
FFE0003FFFFF8000F000C0003FFFFF8000FFFF800000FFFC000007FFFF80007F
310
80007FFFFF8001F80007FFFFF8000FF8000001FFFE0000007FFFFFF0001FFFFF
310
FF00007FFFFF00007FFF00007FFFFF00007FFF0003FFFFFFFFE0003FFFFFC000
310
F000C0007FFFFFC000FFFF000000FFFC000007FFFF80007F8000FFFFFF8000F8
310
000FFFFFF8000FF8000001FFFE0000007FFFFFF0001FFFFFFF0000FFFFFF8000
310
7FFF0000FFFFFF80007FFF0003FFFFFFFFC0007FFFFFC00070008000FFFFFFC0
310
00FFFF000000FFF8000007FFFF80007F8000FFFFFF8000F8000FFFFFF8000FF8
310
000001FFFE0000007FFFFFF0001FFFFFFE0001FFFFFFC0003FFE0001FFFFFFC0
310
003FFF0003FFFFFFFFC0007FFFFFE00070008000FFFFFFC0007FFF0000007FF8
310
000003FFFF80007F0001FFFFFF8000F8000FFFFFF8000FF8000001FFFE000000
310
7FFFFFF0001FFFFFFE0001FFFFFFC0003FFE0001FFFFFFC0003FFF0003FFFFFF
310
FFC000FFFFFFE00070008000FFFFFFC0007FFF0000007FF8000003FFFF80007F
310
0001FFFFFF8000F8001FFFFFF8000FF8000001FFFE0000007FFFFFF0001FFFFF
310
FE0003FFFFFFE0003FFE0003FFFFFFE0003FFF0003FFFFFFFFC000FFFFFFE000
310
70008000FFFFFFC0007FFE0000007FF8000003FFFF80007F0001FFFFFF8000F0
310
001FFFFFF8000FF8000001FFFE0000007FFFFFF0001FFFFFFC0003FFFFFFE000
310
1FFC0003FFFFFFE0001FFF0003FFFFFFFFC000FFFFFFC00070008000FFFFFF80
310
007FFE0000007FF0000003FFFF80007F0001FFFFFF0000F0001FFFFFF8000FF8
310
000001FFFE0000007FFFFFF0001FFFFFFC0007FFFFFFF0001FFC0007FFFFFFF0
310
001FFF0003FFFFFFFFC000FFFFFFC00070008001FFFFFF0000FFFE0000003FF0
310
000001FFFF80007F0001FFFFFF0000F8001FFFFFF0000FF8000001FFFE000000
310
7FFFFFF0001FFFFFFC0007FFFFFFF0001FFC0007FFFFFFF0001FFF0003FFFFFF
310
FFC001FFFFFF80007000FFFFFFFFFE0000FFFE0008003FF0008001FFFF80007F
310
FFFFFFFFFC0000FFFFFFFFFFE0000FF8000001FFFE0000007FFFFFF0001FFFFF
310
F8000FFFFFFFF8000FF8000FFFFFFFF8000FFF0003FFFFFFFFFFFFFFFFFF0000
310
7000FFFFFFFFFC0000FFFC0008003FF0008001FFFF80007FFFFFFFFFF80001FF
310
FFFFFFFF80000FF8000001FFFE0000007FFFFFF0001FFFFFF8000FFFFFFFF800
310
0FF8000FFFFFFFF8000FFF0003FFFFFFFFFFFFFFFFFE0000F000FFFFFFFFE000
310
00FFFC000C003FE000C001FFFF80007FFFFFFFFFC00001FFFFFFFFFE00001FF8
310
000001FFFE0000007FFFFFF0001FFFFFF8000FFFFFFFF8000FF8000FFFFFFFF8
310
000FFF0003FFFFFFFFFFFFFFFFF00000F000FFFFFFFE000001FFFC000C001FE0
310
00C000FFFF80007FFFFFFFFE000001FFFFFFFFE000001FF80FFFFFFFFFFFFFC0
310
7FFFFFF0001FFFFFF8000FFFFFFFF8000FF8000FFFFFFFF8000FFF0003FFFFFF
310
FFFFFFFFFF800000F000FFFFFFC0000001FFFC001C001FE001C000FFFF80007F
310
FFFFFF80000003FFFFFFF80000001FF80FFFFFFFFFFFFFC07FFFFFF0001FFFFF
310
F8001FFFFFFFFC000FF8001FFFFFFFFC000FFF0003FFFFFFFFFFFFFFF0000001
310
F000FFFFF800000001FFF8001C001FE001C000FFFF80007FFFFFF800000003FF
310
FFFF800000003FF80FFFFFFFFFFFFFC07FFFFFF0001FFFFFF8001FFFFFFFFC00
310
0FF8001FFFFFFFFC000FFF0003FFFFFFFFFFFFFE00000001F000FFFFC0000000
310
03FFF8001E001FC001E000FFFF80007FFFFF8000000007FFFFFC000000003FF8
310
0FFFFFFFFFFFFFC07FFFFFF0001FFFFFF8001FFFFFFFFC000FF8001FFFFFFFFC
310
000FFF0003FFFFFFFFFFFFE000000003F000FFFE0000000007FFF8001E000FC0
310
01E0007FFF80007FFFFE0000000007FFFFE0000000007FF80FFFFFFFFFFFFFC0
310
7FFFFFF0001FFFFFF0001FFFFFFFFC0007F0001FFFFFFFFC0007FF0003FFFFFF
310
FFFFFF0000000003F000FFF80000000007FFF8001E000FC003E0007FFF80007F
310
FFF0000000000FFFFF8000000000FFF80FFFFFFFFFFFFFC07FFFFFF0001FFFFF
310
F0001FFFFFFFFC0007F0001FFFFFFFFC0007FF0003FFFFFFFFFFFC0000000007
310
F000FFE0000000000FFFF0003E000FC003E0007FFF80007FFFC0000000001FFF
310
FE0000000001FFF80FFFFFFFFFFFFFC07FFFFFF0001FFFFFF0001FFFFFFFFC00
310
07F0001FFFFFFFFC0007FF0003FFFFFFFFFFF0000000000FF000FFC000000000
310
1FFFF0003F000F8003F0003FFF80007FFF80000000003FFFF80000000003FFF8
310
0FFFFFFFFFFFFFC07FFFFFF0001FFFFFF0001FFFFFFFFC0007F0001FFFFFFFFC
310
0007FF0003FFFFFFFFFFE0000000001FF000FF00000000007FFFF0003F000780
310
03F0003FFF80007FFF00000000007FFFF00000000007FFF80FFFFFFFFFFFFFC0
310
7FFFFFF0001FFFFFF0001FFFFFFFFC0007F0001FFFFFFFFC0007FF0003FFFFFF
310
FFFF80000000007FF000FE0000000000FFFFE0003F00078007F0003FFF80007F
310
FE0000000001FFFFE0000000001FFFF80FFFFFFFFFFFFFC07FFFFFF0001FFFFF
310
F0001FFFFFFFFC0007F0001FFFFFFFFC0007FF0003FFFFFFFFFF0000000000FF
310
F000FC0000000003FFFFE0007F00078007F0003FFF80007FFC0000000007FFFF
310
C0000000007FFFF80FFFFFFFFFFFFFC07FFFFFF0001FFFFFF8001FFFFFFFFC00
310
0FF8001FFFFFFFFC000FFF0003FFFFFFFFFE0000000003FFF000FC000000000F
310
FFFFE0007F80070007F8001FFF80007FF8000000001FFFFF8000000001FFFFF8
310
0FFFFFFFFFFFFFC07FFFFFF0001FFFFFF8001FFFFFFFFC000FF8001FFFFFFFFC
310
000FFF0003FFFFFFFFFC000000000FFFF000F8000000007FFFFFE0007F800700
310
07F8001FFF80007FF000000000FFFFFF800000000FFFFFF80FFFFFFFFFFFFFC0
310
7FFFFFF0001FFFFFF8000FFFFFFFF8000FF8000FFFFFFFF8000FFF0003FFFFFF
310
FFFC000000007FFFF000F800000007FFFFFFC0007F8003000FF8001FFF80007F
310
F000000007FFFFFF000000007FFFFFF80FFFFFFFFFFFFFC07FFFFFF0001FFFFF
310
F8000FFFFFFFF8000FF8000FFFFFFFF8000FFF0003FFFFFFFFF80000000FFFFF
310
F000F0000000FFFFFFFFC000FF8003000FF8001FFF80007FE0000000FFFFFFFF
310
0000000FFFFFFFF8000001FFFE0000007FFFFFF0001FFFFFF8000FFFFFFFF800
310
0FF8000FFFFFFFF8000FFF0003FFFFFFFFF8000000FFFFFFF000F000000FFFFF
310
FFFFC000FFC002000FF8000FFF80007FE000001FFFFFFFFE000001FFFFFFFFF8
310
000001FFFE0000007FFFFFF0001FFFFFF8000FFFFFFFF8000FF8000FFFFFFFF8
310
000FFF0003FFFFFFFFF000001FFFFFFFF000E00000FFFFFFFFFFC000FFC00200
310
0FFC000FFF80007FE00001FFFFFFFFFE00001FFFFFFFFFF8000001FFFE000000
310
7FFFFFF0001FFFFFFC000FFFFFFFF8001FFC000FFFFFFFF8001FFF0003FFFFFF
310
FFF00001FFFFFFFFF000E00007FFFFFFFFFF8000FFC000001FFC000FFF80007F
310
C0000FFFFFFFFFFE0000FFFFFFFFFFF8000001FFFE0000007FFFFFF0001FFFFF
310
FC0007FFFFFFF0001FFC0007FFFFFFF0001FFF0003FFFFFFFFF00007FFFFFFFF
310
F000E0001FFFFFFFFFFF8000FFC000001FFC000FFF80007FC0003FFFFFFFFFFE
310
0001FFFFFFFFFFF8000001FFFE0000007FFFFFF0001FFFFFFC0007FFFFFFF000
310
1FFC0007FFFFFFF0001FFF0003FFFFFFFFF0001FFFFFFFFFF000E0003FFFFF00
310
03FF8001FFE000001FFC0007FF80007FC0007FFFFF0007FC0003FFFFF0003FF8
310
000001FFFE0000007FFFFFF0001FFFFFFC0003FFFFFFE0001FFC0003FFFFFFE0
310
001FFF0003FFFFFFFFF0003FFFFFFFFFF000E0003FFFFF0001FF8001FFE00000
310
1FFE0007FF80007FC0007FFFFE0003FC0007FFFFE0003FF8000001FFFE000000
310
7FFFFFF0001FFFFFFE0003FFFFFFE0003FFE0003FFFFFFE0003FFF0003FFFFFF
310
FFF0003FFFFF8001F000E0003FFFFF0001FF0001FFE000001FFE0007FF80007F
310
C0007FFFFE0003FC0007FFFFE0003FF8000001FFFE0000007FFFFFF0001FFFFF
310
FE0001FFFFFFC0003FFE0001FFFFFFC0003FFF0003FFFFFFFFF0003FFFFF0001
310
F000E0003FFFFF0003FF0001FFE000003FFE0007FF80007FC0007FFFFE0003FC
310
0007FFFFE0003FF8000001FFFE0000007FFFFFF0001FFFFFFF0001FFFFFFC000
310
7FFF0001FFFFFFC0007FFF0003FFFFFFFFF0003FFFFF0001F000E0003FFFFE00
310
03FF0003FFF000003FFE0003FF80007FC0007FFFFC0003FE0007FFFFE0003FF8
310
000001FFFE0000007FFFFFF0001FFFFFFF0000FFFFFF80007FFF0000FFFFFF80
310
007FFF0003FFFFFFFFF0003FFFFF0001F000E0003FFFFE0003FF0003FFF00000
310
3FFF0003FF80007FC0007FFFFC0007FE0007FFFFC0003FF8000001FFFE000000
310
7FFFFFF0001FFFFFFF80007FFFFF0000FFFF80007FFFFF0000FFFF0003FFFFFF
310
FFF0003FFFFF0003F000E0003FFFFC0003FE0003FFF000003FFF0003FF80007F
310
E0003FFFF80007FE0003FFFFC0007FF8000001FFFE0000007FFFFFF0001FFFFF
310
FF80003FFFFE0000FFFF80003FFFFE0000FFFF0003FFFFFFFFF0001FFFFE0003
310
F000F0001FFFF80003FE0003FFF000007FFF0001FF80007FE0003FFFF00007FE
310
0001FFFF80007FF8000001FFFE0000007FFFFFF0001FFFFFFFC0000FFFF80001
310
FFFFC0000FFFF80001FFFF0003FFFFFFFFF0001FFFFC0003F000F0000FFFF000
310
07FE0007FFF800007FFF0001FF80007FE0001FFFE00007FF0000FFFE00007FF8
310
000001FFFE0000007FFFFFF0001FFFFFFFC00003FFE00001FFFFC00003FFE000
310
01FFFF0003FFFFFFFFF8000FFFF80003F000F00003FFC00007FC0007FFF80000
310
7FFF8001FF80007FF00007FF80000FFF00007FF80000FFF8000001FFFE000000
310
7F80000000000001FFE000003E000003FFFFE000003E000003FFFF0003FFFFFF
310
FFF80003FFE00007F000F800000000000FFC0007FFF800007FFF8001FF80007F
310
F000000000000FFF000000000000FFF8000001FFFE0000007F80000000000001
310
FFF0000000000007FFFFF0000000000007FFFF0003FFFFFFFFFC00007E000007
310
F000F800000000000FFC0007FFF80000FFFF8000FF80007FF800000000001FFF
310
800000000001FFF8000001FFFE0000007F80000000000001FFF800000000000F
310
FFFFF800000000000FFFFF0003FFFFFFFFFC00000000000FF000FC0000000000
310
1FFC0007FFFC0000FFFF8000FF80007FF800000000003FFFC00000000001FFF8
310
000001FFFE0000007F80000000000001FFF800000000000FFFFFF80000000000
310
0FFFFF0003FFFFFFFFFE00000000001FF000FE00000000003FF8000FFFFC0000
310
FFFF8000FF80007FFC00000000003FFFC00000000003FFF8000001FFFE000000
310
7F80000000000001FFFC00000000001FFFFFFC00000000001FFFFF0003FFFFFF
310
FFFF00000000001FF000FF00000000003FF8000FFFFC0000FFFFC000FF80007F
310
FE00000000007FFFE00000000007FFF8000001FFFE0000007F80000000000001
310
FFFE00000000003FFFFFFE00000000003FFFFF0003FFFFFFFFFF80000000003F
310
F000FF80000000007FF8000FFFFC0001FFFFC0007F80007FFF0000000000FFFF
310
F0000000000FFFF800000000000000007F80000000000001FFFF8000000000FF
310
FFFFFF8000000000FFFFFF0003FFFFFFFFFFC0000000007FF000FFC000000000
310
FFF8000FFFFE0001FFFFC0007F80007FFF8000000001FFFFF8000000001FFFF8
310
00000000000000007F80000000000001FFFFC000000001FFFFFFFFC000000001
310
FFFFFF0003FFFFFFFFFFE000000000FFF000FFE000000003FFF0001FFFFE0001
310
FFFFC0007F80007FFFC000000007FFFFFE000000003FFFF80000000000000000
310
7F80000000000001FFFFE000000003FFFFFFFFE000000003FFFFFF0003FFFFFF
310
FFFFF000000003FFF000FFF80000000FFFF0001FFFFE0001FFFFE0007F80007F
310
FFF00000000FFFFFFF00000000FFFFF800000000000000007F80000000000001
310
FFFFF80000000FFFFFFFFFF80000000FFFFFFF0003FFFFFFFFFFFC0000000FFF
310
F000FFFE0000003FFFF0001FFFFE0003FFFFE0003F80007FFFFC0000003FFFFF
310
FFC0000003FFFFF800000000000000007F80000000000001FFFFFE0000003FFF
310
FFFFFFFE0000003FFFFFFF0003FFFFFFFFFFFF0000003FFFF000FFFF800000FF
310
FFF0001FFFFF0003FFFFE0003F80007FFFFF000001FFFFFFFFF800001FFFFFF8
310
00000000000000007F80000000000001FFFFFFC00001FFFFFFFFFFFFC00001FF
310
FFFFFF0003FFFFFFFFFFFFC00000FFFFF000FFFFF8000FFFFFFFFFFFFFFFFFFF
310
FFFFFFFFFFFFFFFFFFFFF0001FFFFFFFFFFF0000FFFFFFF80000000000000000
310
7FFFFFFFFFFFFFFFFFFFFFFC001FFFFFFFFFFFFFFC001FFFFFFFFFFFFFFFFFFF
310
FFFFFFFC001FFFFFF000FFFFFFFFFFFFFFFFFFFFFFFFFFFFFFFFFFFFFFFFFFFF
310
FFFFFFFFFFFFFFFFFFFFFFFFFFFFFFFFFFFFFFFFFFFFFFFFFFFFFFFFFFFFFFFF
310
FFFFFFFFFFFFFFFFFFFFFFFFFFFFFFFFFFFFFFFFFFFFFFFFFFFFFFFFFFFFFFFF
310
F000FFFFFFFFFFFFFFFFFFFFFFFFFFFFFFFFFFFFFFFFFFFFFFFFFFFFFFFFFFFF
310
FFFFFFFFFFFFFFFFFFFFFFFFFFFFFFFFFFFFFFFFFFFFFFFFFFFFFFFFFFFFFFFF
310
FFFFFFFFFFFFFFFFFFFFFFFFFFFFFFFFFFFFFFFFFFFFFFFFF000FFFFFFFFFFFF
310
FFFFFFFFFFFFFFFFFFFFFFFFFFFFFFFFFFFFFFFFFFFFFFFFFFFFFFFFFFFFFFFF
310
FFFFFFFFFFFFFFFFFFFFFFFFFFFFFFFFFFFFFFFFFFFFFFFFFFFFFFFFFFFFFFFF
310
FFFFFFFFFFFFFFFFFFFFFFFFFFFFFFFFF000FFFFFFFFFFFFFFFFFFFFFFFFFFFF
310
FFFFFFFFFFFFFFFFFFFFFFFFFFFFFFFFFFFFFFFFFFFFFFFFFFFFFFFFFFFFFFFF
310
FFFFFFFFFFFFFFFFFFFFFFFFFFFFFFFFFFFFFFFFFFFFFFFFFFFFFFFFFFFFFFFF
310
FFFFFFFFFFFFFFFFF000FFFFFFFFFFFFFFFFFFFFFFFFFFFFFFFFFFFFFFFFFFFF
310
FFFFFFFFFFFFFFFFFFFFFFFFFFFFFFFFFFFFFFFFFFFFFFFFFFFFFFFFFFFFFFFF
310
FFFFFFFFFFFFFFFFFFFFFFFFFFFFFFFFFFFFFFFFFFFFFFFFFFFFFFFFFFFFFFFF
310
F000FFFFFFFFFFFFFFFFFFFFFFFFFFFFFFFFFFFFFFFFFFFFFFFFFFFFFFFFFFFF
310
FFFFFFFFFFFFFFFFFFFFFFFFFFFFFFFFFFFFFFFFFFFFFFFFFFFFFFFFFFFFFFFF
310
FFFFFFFFFFFFFFFFFFFFFFFFFFFFFFFFFFFFFFFFFFFFFFFFF000FFFFFFFFFFFF
310
FFFFFFFFFFFFFFFFFFFFFFFFFFFFFFFFFFFFFFFFFFFFFFFFFFFFFFFFFFFFFFFF
310
FFFFFFFFFFFFFFFFFFFFFFFFFFFFFFFFFFFFFFFFFFFFFFFFFFFFFFFFFFFFFFFF
310
FFFFFFFFFFFFFFFFFFFFFFFFFFFFFFFFF000FFFFFFFFFFFFFFFFFFFFFFFFFFFF
310
FFFFFFFFFFFFFFFFFFFFFFFFFFFFFFFFFFFFFFFFFFFFFFFFFFFFFFFFFFFFFFFF
310
FFFFFFFFFFFFFFFFFFFFFFFFFFFFFFFFFFFFFFFFFFFFFFFFFFFFFFFFFFFFFFFF
310
FFFFFFFFFFFFFFFFF000FFFFFFFFFFFFFFFFFFFFFFFFFFFFFFFFFFFFFFFFFFFF
310
FFFFFFFFFFFFFFFFFFFFFFFFFFFFFFFFFFFFFFFFFFFFFFFFFFFFFFFFFFFFFFFF
310
FFFFFFFFFFFFFFFFFFFFFFFFFFFFFFFFFFFFFFFFFFFFFFFFFFFFFFFFFFFFFFFF
310
F000FFFFFFFFFFFFFFFFFFFFFFFFFFFFFFFFFFFFFFFFFFFFFFFFFFFFFFFFFFFF
310
FFFFFFFFFFFFFFFFFFFFFFFFFFFFFFFFFFFFFFFFFFFFFFFFFFFFFFFFFFFFFFFF
310
FFFFFFFFFFFFFFFFFFFFFFFFFFFFFFFFFFFFFFFFFFFFFFFFF000FFFFFFFFFFFF
310
FFFFFFFFFFFFFFFFFFFFFFFFFFFFFFFFFFFFFFFFFFFFFFFFFFFFFFFFFFFFFFFF
310
FFFFFFFFFFFFFFFFFFFFFFFFFFFFFFFFFFFFFFFFFFFFFFFFFFFFFFFFFFFFFFFF
310
FFFFFFFFFFFFFFFFFFFFFFFFFFFFFFFFF000FFFFFFFFFFFFFFFFFFFFFFFFFFFF
310
FFFFFFFFFFFFFFFFFFFFFFFFFFFFFFFFFFFFFFFFFFFFFFFFFFFFFFFFFFFFFFFF
310
FFFFFFFFFFFFFFFFFFFFFFFFFFFFFFFFFFFFFFFFFFFFFFFFFFFFFFFFFFFFFFFF
310
FFFFFFFFFFFFFFFFF000FFFFFFFFFFFFFFFFFFFFFFFFFFFFFFFFFFFFFFFFFFFF
310
FFFFFFFFFFFFFFFFFFFFFFFFFFFFFFFFFFFFFFFFFFFFFFFFFFFFFFFFFFFFFFFF
310
FFFFFFFFFFFFFFFFFFFFFFFFFFFFFFFFFFFFFFFFFFFFFFFFFFFFFFFFFFFFFFFF
310
F000FFFFFFFFFFFFFFFFFFFFFFFFFFFFFFFFFFFFFFFFFFFFFFFFFFFFFFFFFFFF
310
FFFFFFFFFFFFFFFFFFFFFFFFFFFFFFFFFFFFFFFFFFFFFFFFFFFFFFFFFFFFFFFF
310
FFFFFFFFFFFFFFFFFFFFFFFFFFFFFFFFFFFFFFFFFFFFFFFFF000FFFFFFFFFFFF
310
FFFFFFFFFFFFFFFFFFFFFFFFFFFFFFFFFFFFFFFFFFFFFFFFFFFFFFFFFFFFFFFF
310
FFFFFFFFFFFFFFFFFFFFFFFFFFFFFFFFFFFFFFFFFFFFFFFFFFFFFFFFFFFFFFFF
310
FFFFFFFFFFFFFFFFFFFFFFFFFFFFFFFFF000FFFFFFFFFFFFFFFFFFFFFFFFFFFF
310
FFFFFFFFFFFFFFFFFFFFFFFFFFFFFFFFFFFFFFFFFFFFFFFFFFFFFFFFFFFFFFFF
310
FFFFFFFFFFFFFFFFFFFFFFFFFFFFFFFFFFFFFFFFFFFFFFFFFFFFFFFFFFFFFFFF
310
FFFFFFFFFFFFFFFFF000FFFFFFFFFFFFFFFFFFFFFFFFFFFFFFFFFFFFFFFFFFFF
310
FFFFFFFFFFFFFFFFFFFFFFFFFFFFFFFFFFFFFFFFFFFFFFFFFFFFFFFFFFFFFFFF
310
FFFFFFFFFFFFFFFFFFFFFFFFFFFFFFFFFFFFFFFFFFFFFFFFFFFFFFFFFFFFFFFF
310
F000FFFFFFFFFFFFFFFFFFFFFFFFFFFFFFFFFFFFFFFFFFFFFFFFFFFFFFFFFFFF
310
FFFFFFFFFFFFFFFFFFFFFFFFFFFFFFFFFFFFFFFFFFFFFFFFFFFFFFFFFFFFFFFF
310
FFFFFFFFFFFFFFFFFFFFFFFFFFFFFFFFFFFFFFFFFFFFFFFFF000FFFFFFFFFFFF
310
FFFFFFFFFFFFFFFFFFFFFFFFFFFFFFFFFFFFFFFFFFFFFFFFFFFFFFFFFFFFFFFF
310
FFFFFFFFFFFFFFFFFFFFFFFFFFFFFFFFFFFFFFFFFFFFFFFFFFFFFFFFFFFFFFFF
310
FFFFFFFFFFFFFFFFFFFFFFFFFFFFFFFFF000FFFFFFFFFFFFFFFFFFFFFFFFFFFF
310
FFFFFFFFFFFFFFFFFFFFFFFFFFFFFFFFFFFFFFFFFFFFFFFFFFFFFFFFFFFFFFFF
310
FFFFFFFFFFFFFFFFFFFFFFFFFFFFFFFFFFFFFFFFFFFFFFFFFFFFFFFFFFFFFFFF
310
FFFFFFFFFFFFFFFFF000FFFFFFFFFFFFFFFFFFFFFFFFFFFFFFFFFFFFFFFFFFFF
310
FFFFFFFFFFFFFFFFFFFFFFFFFFFFFFFFFFFFFFFFFFFFFFFFFFFFFFFFFFFFFFFF
310
FFFFFFFFFFFFFFFFFFFFFFFFFFFFFFFFFFFFFFFFFFFFFFFFFFFFFFFFFFFFFFFF
310
F000FFFFFFFFFFFFFFFFFFFFFFFFFFFFFFFFFFFFFFFFFFFFFFFFFFFFFFFFFFFF
310
FFFFFFFFFFFFFFFFFFFFFFFFFFFFFFFFFFFFFFFFFFFFFFFFFFFFFFFFFFFFFFFF
310
FFFFFFFFFFFFFFFFFFFFFFFFFFFFFFFFFFFFFFFFFFFFFFFFF000FFFFFFFFFFFF
310
FFFFFFFFFFFFFFFFFFFFFFFFFFFFFFFFFFFFFFFFFFFFFFFFFFFFFFFFFFFFFFFF
310
FFFFFFFFFFFFFFFFFFFFFFFFFFFFFFFFFFFFFFFFFFFFFFFFFFFFFFFFFFFFFFFF
310
FFFFFFFFFFFFFFFFFFFFFFFFFFFFFFFFF0000000000000000000000000000000
310
0000000000000000000000000000000000000000000000000000000000000000
310
0000000000000000000000000000000000000000000000000000000000000000
310
0000000000000000000000000000000000000000000000000000000000000000
310
0000000000000000000000000000000000000000000000000000000000000000
310
0000000000000000000000000000000000000000000000000000000000000000
310
0000000000000000000000000000000000000000000000000000000000000000
310
0000000000000000000000000000000000000000000000000000000000000000
310
0000000000000000000000000000000000000000000000000000000000000000
310
0000000000000000000000000000000000000000000000000000000000000000
310
0000000000000000000000000000000000000000000000000000000000000000
310
0000000000000000000000000000000000000000000000000000000000000000
310
0000000000000000000000000000000000000000000000000000000000000000
310
0000000000000000000000000000000000000000000000000000000000000000
310
0000000000000000000000000000000000000000000000000000000000000000
310
0000000000000000000000000000000000000000000000000000000000000000
  1
OLE
  0
ENDSEC
  0
SECTION
  2
OBJECTS
  0
DICTIONARY
  5
C
330
0
100
AcDbDictionary
281
     1
  3
ACAD_GROUP
350
D
  3
ACAD_LAYOUT
350
1A
  3
ACAD_MLINESTYLE
350
17
  3
ACAD_PLOTSETTINGS
350
19
  3
ACAD_PLOTSTYLENAME
350
E
  3
ACAD_SCALELIST
350
47
  0
DICTIONARY
  5
D
102
{ACAD_REACTORS
330
C
102
}
330
C
100
AcDbDictionary
281
     1
  0
DICTIONARY
  5
1A
102
{ACAD_REACTORS
330
C
102
}
330
C
100
AcDbDictionary
281
     1
  3
Layout1
350
1E
  3
Layout2
350
26
  3
Model
350
22
  0
DICTIONARY
  5
17
102
{ACAD_REACTORS
330
C
102
}
330
C
100
AcDbDictionary
281
     1
  3
Standard
350
18
  0
DICTIONARY
  5
19
102
{ACAD_REACTORS
330
C
102
}
330
C
100
AcDbDictionary
281
     1
  0
ACDBDICTIONARYWDFLT
  5
E
102
{ACAD_REACTORS
330
C
102
}
330
C
100
AcDbDictionary
281
     1
  3
Normal
350
F
100
AcDbDictionaryWithDefault
340
F
  0
DICTIONARY
  5
47
102
{ACAD_REACTORS
330
C
102
}
330
C
100
AcDbDictionary
281
     1
  3
A0
350
48
  3
A1
350
49
  3
A2
350
4A
  3
A3
350
4B
  3
A4
350
4C
  3
A5
350
4D
  3
A6
350
4E
  3
A7
350
4F
  3
A8
350
50
  3
A9
350
51
  3
B0
350
52
  3
B1
350
53
  3
B2
350
54
  3
B3
350
55
  3
B4
350
56
  3
B5
350
57
  3
B6
350
58
  3
B7
350
59
  3
B8
350
5A
  3
B9
350
5B
  3
C0
350
5C
  3
C1
350
5D
  3
C2
350
5E
  3
C3
350
5F
  3
C4
350
60
  3
C5
350
61
  3
C6
350
62
  3
C7
350
63
  3
C8
350
64
  3
C9
350
65
  3
D0
350
66
  3
D1
350
67
  3
D2
350
68
  0
LAYOUT
  5
1E
102
{ACAD_REACTORS
330
1A
102
}
330
1A
100
AcDbPlotSettings
  1

  2
none_device
  4

  6

 40
0.0
 41
0.0
 42
0.0
 43
0.0
 44
0.0
 45
0.0
 46
0.0
 47
0.0
 48
0.0
 49
0.0
140
0.0
141
0.0
142
1.0
143
1.0
 70
   688
 72
     1
 73
     0
 74
     5
  7

 75
    16
147
1.0
148
0.0
149
0.0
100
AcDbLayout
  1
Layout1
 70
     1
 71
     1
 10
0.0
 20
0.0
 11
420.0
 21
297.0
 12
0.0
 22
0.0
 32
0.0
 14
1.0000000000E+20
 24
1.0000000000E+20
 34
1.0000000000E+20
 15
-1.0000000000E+20
 25
-1.0000000000E+20
 35
-1.0000000000E+20
146
0.0
 13
0.0
 23
0.0
 33
0.0
 16
1.0
 26
0.0
 36
0.0
 17
0.0
 27
1.0
 37
0.0
 76
     0
330
1B
  0
LAYOUT
  5
26
102
{ACAD_REACTORS
330
1A
102
}
330
1A
100
AcDbPlotSettings
  1

  2
none_device
  4

  6

 40
0.0
 41
0.0
 42
0.0
 43
0.0
 44
0.0
 45
0.0
 46
0.0
 47
0.0
 48
0.0
 49
0.0
140
0.0
141
0.0
142
1.0
143
1.0
 70
   688
 72
     1
 73
     0
 74
     5
  7

 75
    16
147
1.0
148
0.0
149
0.0
100
AcDbLayout
  1
Layout2
 70
     1
 71
     2
 10
0.0
 20
0.0
 11
0.0
 21
0.0
 12
0.0
 22
0.0
 32
0.0
 14
0.0
 24
0.0
 34
0.0
 15
0.0
 25
0.0
 35
0.0
146
0.0
 13
0.0
 23
0.0
 33
0.0
 16
1.0
 26
0.0
 36
0.0
 17
0.0
 27
1.0
 37
0.0
 76
     0
330
23
  0
LAYOUT
  5
22
102
{ACAD_REACTORS
330
1A
102
}
330
1A
100
AcDbPlotSettings
  1

  2
none_device
  4
Letter_(8.50_x_11.00_Inches)
  6

 40
6.35
 41
6.35
 42
6.35000508
 43
6.35000508
 44
215.9
 45
279.4
 46
0.0
 47
0.0
 48
0.0
 49
0.0
140
0.0
141
0.0
142
1.0
143
1.0
 70
  1712
 72
     1
 73
     0
 74
     0
  7

 75
     0
147
1.0
148
0.0
149
0.0
100
AcDbLayout
  1
Model
 70
     1
 71
     0
 10
0.0
 20
0.0
 11
297.0
 21
210.0
 12
0.0
 22
0.0
 32
0.0
 14
0.0
 24
0.0
 34
0.0
 15
297.0
 25
210.0
 35
0.0
146
0.0
 13
0.0
 23
0.0
 33
0.0
 16
1.0
 26
0.0
 36
0.0
 17
0.0
 27
1.0
 37
0.0
 76
     0
330
1F
331
29
  0
MLINESTYLE
  5
18
102
{ACAD_REACTORS
330
17
102
}
330
17
100
AcDbMlineStyle
  2
Standard
 70
     0
  3

 62
   256
 51
90.0
 52
90.0
 71
     2
 49
0.5
 62
   256
  6
BYLAYER
 49
-0.5
 62
   256
  6
BYLAYER
  0
ACDBPLACEHOLDER
  5
F
102
{ACAD_REACTORS
330
E
102
}
330
E
  0
SCALE
  5
48
102
{ACAD_REACTORS
330
47
102
}
330
47
100
AcDbScale
 70
     0
300
1:1
140
1.0
141
1.0
290
     1
  0
SCALE
  5
49
102
{ACAD_REACTORS
330
47
102
}
330
47
100
AcDbScale
 70
     0
300
1:2
140
1.0
141
2.0
290
     0
  0
SCALE
  5
4A
102
{ACAD_REACTORS
330
47
102
}
330
47
100
AcDbScale
 70
     0
300
1:4
140
1.0
141
4.0
290
     0
  0
SCALE
  5
4B
102
{ACAD_REACTORS
330
47
102
}
330
47
100
AcDbScale
 70
     0
300
1:5
140
1.0
141
5.0
290
     0
  0
SCALE
  5
4C
102
{ACAD_REACTORS
330
47
102
}
330
47
100
AcDbScale
 70
     0
300
1:8
140
1.0
141
8.0
290
     0
  0
SCALE
  5
4D
102
{ACAD_REACTORS
330
47
102
}
330
47
100
AcDbScale
 70
     0
300
1:10
140
1.0
141
10.0
290
     0
  0
SCALE
  5
4E
102
{ACAD_REACTORS
330
47
102
}
330
47
100
AcDbScale
 70
     0
300
1:16
140
1.0
141
16.0
290
     0
  0
SCALE
  5
4F
102
{ACAD_REACTORS
330
47
102
}
330
47
100
AcDbScale
 70
     0
300
1:20
140
1.0
141
20.0
290
     0
  0
SCALE
  5
50
102
{ACAD_REACTORS
330
47
102
}
330
47
100
AcDbScale
 70
     0
300
1:30
140
1.0
141
30.0
290
     0
  0
SCALE
  5
51
102
{ACAD_REACTORS
330
47
102
}
330
47
100
AcDbScale
 70
     0
300
1:40
140
1.0
141
40.0
290
     0
  0
SCALE
  5
52
102
{ACAD_REACTORS
330
47
102
}
330
47
100
AcDbScale
 70
     0
300
1:50
140
1.0
141
50.0
290
     0
  0
SCALE
  5
53
102
{ACAD_REACTORS
330
47
102
}
330
47
100
AcDbScale
 70
     0
300
1:100
140
1.0
141
100.0
290
     0
  0
SCALE
  5
54
102
{ACAD_REACTORS
330
47
102
}
330
47
100
AcDbScale
 70
     0
300
2:1
140
2.0
141
1.0
290
     0
  0
SCALE
  5
55
102
{ACAD_REACTORS
330
47
102
}
330
47
100
AcDbScale
 70
     0
300
4:1
140
4.0
141
1.0
290
     0
  0
SCALE
  5
56
102
{ACAD_REACTORS
330
47
102
}
330
47
100
AcDbScale
 70
     0
300
8:1
140
8.0
141
1.0
290
     0
  0
SCALE
  5
57
102
{ACAD_REACTORS
330
47
102
}
330
47
100
AcDbScale
 70
     0
300
10:1
140
10.0
141
1.0
290
     0
  0
SCALE
  5
58
102
{ACAD_REACTORS
330
47
102
}
330
47
100
AcDbScale
 70
     0
300
100:1
140
100.0
141
1.0
290
     0
  0
SCALE
  5
59
102
{ACAD_REACTORS
330
47
102
}
330
47
100
AcDbScale
 70
     0
300
1/128" = 1'-0"
140
0.0078125
141
12.0
290
     0
  0
SCALE
  5
5A
102
{ACAD_REACTORS
330
47
102
}
330
47
100
AcDbScale
 70
     0
300
1/64" = 1'-0"
140
0.015625
141
12.0
290
     0
  0
SCALE
  5
5B
102
{ACAD_REACTORS
330
47
102
}
330
47
100
AcDbScale
 70
     0
300
1/32" = 1'-0"
140
0.03125
141
12.0
290
     0
  0
SCALE
  5
5C
102
{ACAD_REACTORS
330
47
102
}
330
47
100
AcDbScale
 70
     0
300
1/16" = 1'-0"
140
0.0625
141
12.0
290
     0
  0
SCALE
  5
5D
102
{ACAD_REACTORS
330
47
102
}
330
47
100
AcDbScale
 70
     0
300
3/32" = 1'-0"
140
0.09375
141
12.0
290
     0
  0
SCALE
  5
5E
102
{ACAD_REACTORS
330
47
102
}
330
47
100
AcDbScale
 70
     0
300
1/8" = 1'-0"
140
0.125
141
12.0
290
     0
  0
SCALE
  5
5F
102
{ACAD_REACTORS
330
47
102
}
330
47
100
AcDbScale
 70
     0
300
3/16" = 1'-0"
140
0.1875
141
12.0
290
     0
  0
SCALE
  5
60
102
{ACAD_REACTORS
330
47
102
}
330
47
100
AcDbScale
 70
     0
300
1/4" = 1'-0"
140
0.25
141
12.0
290
     0
  0
SCALE
  5
61
102
{ACAD_REACTORS
330
47
102
}
330
47
100
AcDbScale
 70
     0
300
3/8" = 1'-0"
140
0.375
141
12.0
290
     0
  0
SCALE
  5
62
102
{ACAD_REACTORS
330
47
102
}
330
47
100
AcDbScale
 70
     0
300
1/2" = 1'-0"
140
0.5
141
12.0
290
     0
  0
SCALE
  5
63
102
{ACAD_REACTORS
330
47
102
}
330
47
100
AcDbScale
 70
     0
300
3/4" = 1'-0"
140
0.75
141
12.0
290
     0
  0
SCALE
  5
64
102
{ACAD_REACTORS
330
47
102
}
330
47
100
AcDbScale
 70
     0
300
1" = 1'-0"
140
1.0
141
12.0
290
     0
  0
SCALE
  5
65
102
{ACAD_REACTORS
330
47
102
}
330
47
100
AcDbScale
 70
     0
300
1-1/2" = 1'-0"
140
1.5
141
12.0
290
     0
  0
SCALE
  5
66
102
{ACAD_REACTORS
330
47
102
}
330
47
100
AcDbScale
 70
     0
300
3" = 1'-0"
140
3.0
141
12.0
290
     0
  0
SCALE
  5
67
102
{ACAD_REACTORS
330
47
102
}
330
47
100
AcDbScale
 70
     0
300
6" = 1'-0"
140
6.0
141
12.0
290
     0
  0
SCALE
  5
68
102
{ACAD_REACTORS
330
47
102
}
330
47
100
AcDbScale
 70
     0
300
1'-0" = 1'-0"
140
12.0
141
12.0
290
     0
  0
ENDSEC
  0
EOF
