  0
SECTION
  2
HEADER
  9
$ACADVER
  1
AC1015
  9
$ACADMAINTVER
 70
     6
  9
$DWGCODEPAGE
  3
ANSI_1252
  9
$INSBASE
 10
0.0
 20
0.0
 30
0.0
  9
$EXTMIN
 10
0.0
 20
0.0
 30
0.0
  9
$EXTMAX
 10
297.0
 20
210.0
 30
0.0
  9
$LIMMIN
 10
0.0
 20
0.0
  9
$LIMMAX
 10
297.0
 20
210.0
  9
$ORTHOMODE
 70
     0
  9
$REGENMODE
 70
     1
  9
$FILLMODE
 70
     1
  9
$QTEXTMODE
 70
     0
  9
$MIRRTEXT
 70
     1
  9
$LTSCALE
 40
1.0
  9
$ATTMODE
 70
     1
  9
$TEXTSIZE
 40
2.0
  9
$TRACEWID
 40
1.0
  9
$TEXTSTYLE
  7
Standard
  9
$CLAYER
  8
0
  9
$CELTYPE
  6
ByLayer
  9
$CECOLOR
 62
   256
  9
$CELTSCALE
 40
1.0
  9
$DISPSILH
 70
     0
  9
$DIMSCALE
 40
1.0
  9
$DIMASZ
 40
3.0
  9
$DIMEXO
 40
0.0
  9
$DIMDLI
 40
3.75
  9
$DIMRND
 40
0.0
  9
$DIMDLE
 40
0.0
  9
$DIMEXE
 40
1.0
  9
$DIMTP
 40
0.0
  9
$DIMTM
 40
0.0
  9
$DIMTXT
 40
2.0
  9
$DIMCEN
 40
2.5
  9
$DIMTSZ
 40
0.0
  9
$DIMTOL
 70
     0
  9
$DIMLIM
 70
     0
  9
$DIMTIH
 70
     1
  9
$DIMTOH
 70
     1
  9
$DIMSE1
 70
     0
  9
$DIMSE2
 70
     0
  9
$DIMTAD
 70
     1
  9
$DIMZIN
 70
     0
  9
$DIMBLK
  1

  9
$DIMASO
 70
     1
  9
$DIMSHO
 70
     1
  9
$DIMPOST
  1

  9
$DIMAPOST
  1

  9
$DIMALT
 70
     0
  9
$DIMALTD
 70
     3
  9
$DIMALTF
 40
0.0393700787
  9
$DIMLFAC
 40
2.0
  9
$DIMTOFL
 70
     1
  9
$DIMTVP
 40
0.0
  9
$DIMTIX
 70
     0
  9
$DIMSOXD
 70
     0
  9
$DIMSAH
 70
     0
  9
$DIMBLK1
  1

  9
$DIMBLK2
  1

  9
$DIMSTYLE
  2
ISO-25
  9
$DIMCLRD
 70
     0
  9
$DIMCLRE
 70
     0
  9
$DIMCLRT
 70
     0
  9
$DIMTFAC
 40
1.0
  9
$DIMGAP
 40
1.524
  9
$DIMJUST
 70
     0
  9
$DIMSD1
 70
     0
  9
$DIMSD2
 70
     0
  9
$DIMTOLJ
 70
     0
  9
$DIMTZIN
 70
     0
  9
$DIMALTZ
 70
     0
  9
$DIMALTTZ
 70
     0
  9
$DIMUPT
 70
     0
  9
$DIMDEC
 70
     2
  9
$DIMTDEC
 70
     3
  9
$DIMALTU
 70
     2
  9
$DIMALTTD
 70
     3
  9
$DIMTXSTY
  7
Standard
  9
$DIMAUNIT
 70
     0
  9
$DIMADEC
 70
     2
  9
$DIMALTRND
 40
0.0
  9
$DIMAZIN
 70
     0
  9
$DIMDSEP
 70
    44
  9
$DIMATFIT
 70
     3
  9
$DIMFRAC
 70
     0
  9
$DIMLDRBLK
  1

  9
$DIMLUNIT
 70
     2
  9
$DIMLWD
 70
    -2
  9
$DIMLWE
 70
    -2
  9
$DIMTMOVE
 70
     0
  9
$LUNITS
 70
     2
  9
$LUPREC
 70
     2
  9
$SKETCHINC
 40
1.0
  9
$FILLETRAD
 40
10.0
  9
$AUNITS
 70
     0
  9
$AUPREC
 70
     2
  9
$MENU
  1
.
  9
$ELEVATION
 40
0.0
  9
$PELEVATION
 40
0.0
  9
$THICKNESS
 40
0.0
  9
$LIMCHECK
 70
     0
  9
$CHAMFERA
 40
0.0
  9
$CHAMFERB
 40
0.0
  9
$CHAMFERC
 40
0.0
  9
$CHAMFERD
 40
0.0
  9
$SKPOLY
 70
     0
  9
$TDCREATE
 40
2457675.613551042
  9
$TDUCREATE
 40
2457675.530217709
  9
$TDUPDATE
 40
2457675.613552454
  9
$TDUUPDATE
 40
2457675.53021912
  9
$TDINDWG
 40
0.0000000116
  9
$TDUSRTIMER
 40
0.0000000116
  9
$USRTIMER
 70
     1
  9
$ANGBASE
 50
0.0
  9
$ANGDIR
 70
     0
  9
$PDMODE
 70
     0
  9
$PDSIZE
 40
-1.0
  9
$PLINEWID
 40
0.0
  9
$SPLFRAME
 70
     0
  9
$SPLINETYPE
 70
     6
  9
$SPLINESEGS
 70
     8
  9
$HANDSEED
  5
24F
  9
$SURFTAB1
 70
     6
  9
$SURFTAB2
 70
     6
  9
$SURFTYPE
 70
     6
  9
$SURFU
 70
     6
  9
$SURFV
 70
     6
  9
$UCSBASE
  2

  9
$UCSNAME
  2

  9
$UCSORG
 10
0.0
 20
0.0
 30
0.0
  9
$UCSXDIR
 10
1.0
 20
0.0
 30
0.0
  9
$UCSYDIR
 10
0.0
 20
1.0
 30
0.0
  9
$UCSORTHOREF
  2

  9
$UCSORTHOVIEW
 70
     0
  9
$UCSORGTOP
 10
0.0
 20
0.0
 30
0.0
  9
$UCSORGBOTTOM
 10
0.0
 20
0.0
 30
0.0
  9
$UCSORGLEFT
 10
0.0
 20
0.0
 30
0.0
  9
$UCSORGRIGHT
 10
0.0
 20
0.0
 30
0.0
  9
$UCSORGFRONT
 10
0.0
 20
0.0
 30
0.0
  9
$UCSORGBACK
 10
0.0
 20
0.0
 30
0.0
  9
$PUCSBASE
  2

  9
$PUCSNAME
  2

  9
$PUCSORG
 10
0.0
 20
0.0
 30
0.0
  9
$PUCSXDIR
 10
1.0
 20
0.0
 30
0.0
  9
$PUCSYDIR
 10
0.0
 20
1.0
 30
0.0
  9
$PUCSORTHOREF
  2

  9
$PUCSORTHOVIEW
 70
     0
  9
$PUCSORGTOP
 10
0.0
 20
0.0
 30
0.0
  9
$PUCSORGBOTTOM
 10
0.0
 20
0.0
 30
0.0
  9
$PUCSORGLEFT
 10
0.0
 20
0.0
 30
0.0
  9
$PUCSORGRIGHT
 10
0.0
 20
0.0
 30
0.0
  9
$PUCSORGFRONT
 10
0.0
 20
0.0
 30
0.0
  9
$PUCSORGBACK
 10
0.0
 20
0.0
 30
0.0
  9
$USERI1
 70
     0
  9
$USERI2
 70
     0
  9
$USERI3
 70
     0
  9
$USERI4
 70
     0
  9
$USERI5
 70
     0
  9
$USERR1
 40
0.0
  9
$USERR2
 40
0.0
  9
$USERR3
 40
0.0
  9
$USERR4
 40
0.0
  9
$USERR5
 40
0.0
  9
$WORLDVIEW
 70
     1
  9
$SHADEDGE
 70
     3
  9
$SHADEDIF
 70
    70
  9
$TILEMODE
 70
     1
  9
$MAXACTVP
 70
    64
  9
$PINSBASE
 10
0.0
 20
0.0
 30
0.0
  9
$PLIMCHECK
 70
     0
  9
$PEXTMIN
 10
1.0000000000E+20
 20
1.0000000000E+20
 30
1.0000000000E+20
  9
$PEXTMAX
 10
-1.0000000000E+20
 20
-1.0000000000E+20
 30
-1.0000000000E+20
  9
$PLIMMIN
 10
0.0
 20
0.0
  9
$PLIMMAX
 10
420.0
 20
297.0
  9
$UNITMODE
 70
     0
  9
$VISRETAIN
 70
     1
  9
$PLINEGEN
 70
     0
  9
$PSLTSCALE
 70
     1
  9
$TREEDEPTH
 70
  3020
  9
$CMLSTYLE
  2
Standard
  9
$CMLJUST
 70
     0
  9
$CMLSCALE
 40
20.0
  9
$PROXYGRAPHICS
 70
     1
  9
$MEASUREMENT
 70
     1
  9
$CELWEIGHT
370
    -1
  9
$ENDCAPS
280
     0
  9
$JOINSTYLE
280
     0
  9
$LWDISPLAY
290
     1
  9
$INSUNITS
 70
     4
  9
$HYPERLINKBASE
  1

  9
$STYLESHEET
  1

  9
$XEDIT
290
     1
  9
$CEPSNTYPE
380
     0
  9
$PSTYLEMODE
290
     1
  9
$FINGERPRINTGUID
  2
{285990F8-3864-4A3D-8837-F3DA0EBBB375}
  9
$VERSIONGUID
  2
{FAEB1C32-E019-11D5-929B-00C0DF256EC4}
  9
$EXTNAMES
290
     1
  9
$PSVPSCALE
 40
0.0
  9
$OLESTARTUP
290
     0
  0
ENDSEC
  0
SECTION
  2
CLASSES
  0
CLASS
  1
ACDBDICTIONARYWDFLT
  2
AcDbDictionaryWithDefault
  3
ObjectDBX Classes
 90
        0
280
     0
281
     0
  0
CLASS
  1
VISUALSTYLE
  2
AcDbVisualStyle
  3
ObjectDBX Classes
 90
     4095
280
     0
281
     0
  0
CLASS
  1
MATERIAL
  2
AcDbMaterial
  3
ObjectDBX Classes
 90
     1153
280
     0
281
     0
  0
CLASS
  1
SCALE
  2
AcDbScale
  3
ObjectDBX Classes
 90
     1153
280
     0
281
     0
  0
CLASS
  1
TABLESTYLE
  2
AcDbTableStyle
  3
ObjectDBX Classes
 90
     4095
280
     0
281
     0
  0
CLASS
  1
MLEADERSTYLE
  2
AcDbMLeaderStyle
  3
ACDB_MLEADERSTYLE_CLASS
 90
     4095
280
     0
281
     0
  0
CLASS
  1
SUN
  2
AcDbSun
  3
SCENEOE
 90
     1153
280
     0
281
     0
  0
CLASS
  1
ACDBPLACEHOLDER
  2
AcDbPlaceHolder
  3
ObjectDBX Classes
 90
        0
280
     0
281
     0
  0
CLASS
  1
LAYOUT
  2
AcDbLayout
  3
ObjectDBX Classes
 90
        0
280
     0
281
     0
  0
ENDSEC
  0
SECTION
  2
TABLES
  0
TABLE
  2
VPORT
  5
8
330
0
100
AcDbSymbolTable
 70
     1
  0
VPORT
  5
29
330
8
100
AcDbSymbolTableRecord
100
AcDbViewportTableRecord
  2
*Active
 70
     0
 10
0.0
 20
0.0
 11
1.0
 21
1.0
 12
148.5
 22
105.0
 13
0.0
 23
0.0
 14
10.0
 24
10.0
 15
10.0
 25
10.0
 16
0.0
 26
0.0
 36
1.0
 17
0.0
 27
0.0
 37
0.0
 40
210.0
 41
1.4142857143
 42
50.0
 43
0.0
 44
0.0
 50
0.0
 51
0.0
 71
     0
 72
  2000
 73
     1
 74
     3
 75
     0
 76
     0
 77
     0
 78
     0
281
     0
 65
     1
110
0.0
120
0.0
130
0.0
111
1.0
121
0.0
131
0.0
112
0.0
122
1.0
132
0.0
 79
     0
146
0.0
  0
ENDTAB
  0
TABLE
  2
LTYPE
  5
5
330
0
100
AcDbSymbolTable
 70
     6
  0
LTYPE
  5
14
330
5
100
AcDbSymbolTableRecord
100
AcDbLinetypeTableRecord
  2
ByBlock
 70
     0
  3

 72
    65
 73
     0
 40
0.0
  0
LTYPE
  5
15
330
5
100
AcDbSymbolTableRecord
100
AcDbLinetypeTableRecord
  2
ByLayer
 70
     0
  3

 72
    65
 73
     0
 40
0.0
  0
LTYPE
  5
16
330
5
100
AcDbSymbolTableRecord
100
AcDbLinetypeTableRecord
  2
Continuous
 70
     0
  3
Solid line
 72
    65
 73
     0
 40
0.0
  0
LTYPE
  5
6E
330
5
100
AcDbSymbolTableRecord
100
AcDbLinetypeTableRecord
  2
HIDDEN
 70
     0
  3
Hidden __ __ __ __ __ __ __ __ __ __ __ __ __ __
 72
    65
 73
     2
 40
1.905
 49
1.27
 74
     0
 49
-0.635
 74
     0
  0
LTYPE
  5
6F
330
5
100
AcDbSymbolTableRecord
100
AcDbLinetypeTableRecord
  2
PHANTOM
 70
     0
  3
Phantom ______  __  __  ______  __  __  ______
 72
    65
 73
     6
 40
12.7
 49
6.35
 74
     0
 49
-1.27
 74
     0
 49
1.27
 74
     0
 49
-1.27
 74
     0
 49
1.27
 74
     0
 49
-1.27
 74
     0
  0
LTYPE
  5
70
330
5
100
AcDbSymbolTableRecord
100
AcDbLinetypeTableRecord
  2
CENTER
 70
     0
  3
Center ____ _ ____ _ ____ _ ____ _ ____ _ ____
 72
    65
 73
     4
 40
10.16
 49
6.35
 74
     0
 49
-1.27
 74
     0
 49
1.27
 74
     0
 49
-1.27
 74
     0
  0
LTYPE
  5
71
330
5
100
AcDbSymbolTableRecord
100
AcDbLinetypeTableRecord
  2
CENTERX2
 70
     0
  3
Center (2x) ________  __  ________  __  _____
 72
    65
 73
     4
 40
20.32
 49
12.7
 74
     0
 49
-2.54
 74
     0
 49
2.54
 74
     0
 49
-2.54
 74
     0
  0
LTYPE
  5
72
330
5
100
AcDbSymbolTableRecord
100
AcDbLinetypeTableRecord
  2
DOT2
 70
     0
  3
Dot (.5x) ........................................
 72
    65
 73
     2
 40
0.635
 49
0.0
 74
     0
 49
-0.635
 74
     0
  0
ENDTAB
  0
TABLE
  2
LAYER
  5
2
330
0
100
AcDbSymbolTable
 70
     5
  0
LAYER
  5
10
330
2
100
AcDbSymbolTableRecord
100
AcDbLayerTableRecord
  2
0
 70
     0
 62
     7
  6
Continuous
370
    -3
390
F
  0
LAYER
  5
73
330
2
100
AcDbSymbolTableRecord
100
AcDbLayerTableRecord
  2
FORMAT
 70
     0
 62
     7
  6
Continuous
370
    -3
390
F
  0
LAYER
  5
74
330
2
100
AcDbSymbolTableRecord
100
AcDbLayerTableRecord
  2
VERMASSUNG
 70
     0
 62
     7
  6
Continuous
370
    -3
390
F
  0
LAYER
  5
75
330
2
100
AcDbSymbolTableRecord
100
AcDbLayerTableRecord
  2
KOPF_DÜNN
 70
     0
 62
     7
  6
Continuous
370
    -3
390
F
  0
LAYER
  5
76
330
2
100
AcDbSymbolTableRecord
100
AcDbLayerTableRecord
  2
KOPF_DICK
 70
     0
 62
     7
  6
Continuous
370
    15
390
F
  0
ENDTAB
  0
TABLE
  2
STYLE
  5
3
330
0
100
AcDbSymbolTable
 70
     2
  0
STYLE
  5
11
330
3
100
AcDbSymbolTableRecord
100
AcDbTextStyleTableRecord
  2
Standard
 70
     0
 40
0.0
 41
1.0
 50
0.0
 71
     0
 42
2.0
  3
txt
  4

  0
STYLE
  5
77
330
3
100
AcDbSymbolTableRecord
100
AcDbTextStyleTableRecord
  2
SLDTEXTSTYLE0
 70
     0
 40
0.0
 41
0.7
 50
0.0
 71
     0
 42
2.0
  3
TXT
  4

  0
ENDTAB
  0
TABLE
  2
VIEW
  5
6
330
0
100
AcDbSymbolTable
 70
     0
  0
ENDTAB
  0
TABLE
  2
UCS
  5
7
330
0
100
AcDbSymbolTable
 70
     0
  0
ENDTAB
  0
TABLE
  2
APPID
  5
9
330
0
100
AcDbSymbolTable
 70
     1
  0
APPID
  5
12
330
9
100
AcDbSymbolTableRecord
100
AcDbRegAppTableRecord
  2
ACAD
 70
     0
  0
ENDTAB
  0
TABLE
  2
DIMSTYLE
  5
A
330
0
100
AcDbSymbolTable
 70
     2
100
AcDbDimStyleTable
  0
DIMSTYLE
105
27
330
A
100
AcDbSymbolTableRecord
100
AcDbDimStyleTableRecord
  2
ISO-25
 70
     0
 41
2.5
 42
0.625
 43
3.75
 44
1.25
 73
     0
 74
     0
 77
     1
 78
     8
140
2.5
141
2.5
143
0.0393700787
147
0.625
171
     3
172
     1
178
     0
271
     2
272
     2
274
     3
278
    44
283
     0
284
     8
340
11
  0
DIMSTYLE
105
1A2
102
{ACAD_REACTORS
330
1A1
330
1AE
330
1B8
330
1C2
330
1CC
330
1D7
102
}
330
A
100
AcDbSymbolTableRecord
100
AcDbDimStyleTableRecord
  2
SLDDIMSTYLE0
 70
     0
 41
3.0
 44
0.0
 45
0.000000001
 73
     0
 74
     0
 77
     1
 78
    12
 79
     3
140
2.0
147
0.5
173
     1
178
     0
271
     2
272
     3
276
     2
284
    12
340
77
  0
ENDTAB
  0
TABLE
  2
BLOCK_RECORD
  5
1
330
0
100
AcDbSymbolTable
 70
     7
  0
BLOCK_RECORD
  5
1F
330
1
100
AcDbSymbolTableRecord
100
AcDbBlockTableRecord
  2
*Model_Space
340
22
  0
BLOCK_RECORD
  5
1B
330
1
100
AcDbSymbolTableRecord
100
AcDbBlockTableRecord
  2
*Paper_Space
340
1E
  0
BLOCK_RECORD
  5
23
330
1
100
AcDbSymbolTableRecord
100
AcDbBlockTableRecord
  2
*Paper_Space0
340
26
  0
BLOCK_RECORD
  5
1A3
330
1
100
AcDbSymbolTableRecord
100
AcDbBlockTableRecord
  2
_D
340
0
  0
BLOCK_RECORD
  5
1AF
330
1
100
AcDbSymbolTableRecord
100
AcDbBlockTableRecord
  2
_D_1
340
0
  0
BLOCK_RECORD
  5
1B9
330
1
100
AcDbSymbolTableRecord
100
AcDbBlockTableRecord
  2
_D_2
340
0
  0
BLOCK_RECORD
  5
1C3
330
1
100
AcDbSymbolTableRecord
100
AcDbBlockTableRecord
  2
_D_3
340
0
  0
BLOCK_RECORD
  5
1CD
330
1
100
AcDbSymbolTableRecord
100
AcDbBlockTableRecord
  2
_D_4
340
0
  0
BLOCK_RECORD
  5
1D8
330
1
100
AcDbSymbolTableRecord
100
AcDbBlockTableRecord
  2
_D_5
340
0
  0
ENDTAB
  0
ENDSEC
  0
SECTION
  2
BLOCKS
  0
BLOCK
  5
20
330
1F
100
AcDbEntity
  8
0
100
AcDbBlockBegin
  2
*Model_Space
 70
     0
 10
0.0
 20
0.0
 30
0.0
  3
*Model_Space
  1

  0
ENDBLK
  5
21
330
1F
100
AcDbEntity
  8
0
100
AcDbBlockEnd
  0
BLOCK
  5
1C
330
1B
100
AcDbEntity
 67
     1
  8
0
100
AcDbBlockBegin
  2
*Paper_Space
 70
     0
 10
0.0
 20
0.0
 30
0.0
  3
*Paper_Space
  1

  0
ENDBLK
  5
1D
330
1B
100
AcDbEntity
 67
     1
  8
0
100
AcDbBlockEnd
  0
BLOCK
  5
24
330
23
100
AcDbEntity
  8
0
100
AcDbBlockBegin
  2
*Paper_Space0
 70
     0
 10
0.0
 20
0.0
 30
0.0
  3
*Paper_Space0
  1

  0
ENDBLK
  5
25
330
23
100
AcDbEntity
  8
0
100
AcDbBlockEnd
  0
BLOCK
  5
1A4
330
1A3
100
AcDbEntity
  8
0
100
AcDbBlockBegin
  2
_D
 70
     0
 10
0.0
 20
0.0
 30
0.0
  3
_D
  1

  0
SOLID
  5
1A6
330
1A3
100
AcDbEntity
  8
VERMASSUNG
100
AcDbTrace
 10
58.0550978373
 20
80.7600126806
 30
0.0
 11
58.5050978373
 21
83.7600126806
 31
0.0
 12
57.6050978373
 22
83.7600126806
 32
0.0
 13
57.6050978373
 23
83.7600126806
 33
0.0
  0
SOLID
  5
1A7
330
1A3
100
AcDbEntity
  8
VERMASSUNG
100
AcDbTrace
 10
58.0550978373
 20
143.7600126806
 30
0.0
 11
57.6050978373
 21
140.7600126806
 31
0.0
 12
58.5050978373
 22
140.7600126806
 32
0.0
 13
58.5050978373
 23
140.7600126806
 33
0.0
  0
LINE
  5
1A8
330
1A3
100
AcDbEntity
  8
VERMASSUNG
100
AcDbLine
 10
157.215013044
 20
80.7600126806
 30
0.0
 11
57.0550978373
 21
80.7600126806
 31
0.0
  0
LINE
  5
1A9
330
1A3
100
AcDbEntity
  8
VERMASSUNG
100
AcDbLine
 10
157.215013044
 20
143.7600126806
 30
0.0
 11
57.0550978373
 21
143.7600126806
 31
0.0
  0
LINE
  5
1AA
330
1A3
100
AcDbEntity
  8
VERMASSUNG
100
AcDbLine
 10
58.0550978373
 20
80.7600126806
 30
0.0
 11
58.0550978373
 21
143.7600126806
 31
0.0
  0
MTEXT
  5
1AB
330
1A3
100
AcDbEntity
  8
VERMASSUNG
100
AcDbMText
 10
55.2769625811
 20
101.4562588186
 30
0.0
 40
2.0
 41
0.0
 71
     1
 72
     1
  1
MAS-BT 40
  7
SLDTEXTSTYLE0
 11
3.391901413832837E-15
 21
1.0
 31
0.0
 73
     1
 44
1.0
  0
MTEXT
  5
1AC
330
1A3
100
AcDbEntity
  8
VERMASSUNG
100
AcDbMText
 10
55.4769625324
 20
116.6562590749
 30
0.0
 40
2.0
 41
0.0
 71
     1
 72
     1
  1
%%c
  7
SLDTEXTSTYLE0
 11
3.391901413832837E-15
 21
1.0
 31
0.0
 73
     1
 44
1.0
  0
MTEXT
  5
1AD
330
1A3
100
AcDbEntity
  8
VERMASSUNG
100
AcDbMText
 10
55.4769622413
 20
120.264386522
 30
0.0
 40
2.0
 41
0.0
 71
     1
 72
     1
  1
63
  7
SLDTEXTSTYLE0
 11
3.391901413832837E-15
 21
1.0
 31
0.0
 73
     1
 44
1.0
  0
ENDBLK
  5
1A5
330
1A3
100
AcDbEntity
  8
0
100
AcDbBlockEnd
  0
BLOCK
  5
1B0
330
1AF
100
AcDbEntity
  8
0
100
AcDbBlockBegin
  2
_D_1
 70
     0
 10
0.0
 20
0.0
 30
0.0
  3
_D_1
  1

  0
SOLID
  5
1B2
330
1AF
100
AcDbEntity
  8
VERMASSUNG
100
AcDbTrace
 10
65.815013044
 20
161.7997605982
 30
0.0
 11
68.815013044
 21
161.3497605982
 31
0.0
 12
68.815013044
 22
162.2497605982
 32
0.0
 13
68.815013044
 23
162.2497605982
 33
0.0
  0
SOLID
  5
1B3
330
1AF
100
AcDbEntity
  8
VERMASSUNG
100
AcDbTrace
 10
238.215013044
 20
161.7997605982
 30
0.0
 11
235.215013044
 21
162.2497605982
 31
0.0
 12
235.215013044
 22
161.3497605982
 32
0.0
 13
235.215013044
 23
161.3497605982
 33
0.0
  0
LINE
  5
1B4
330
1AF
100
AcDbEntity
  8
VERMASSUNG
100
AcDbLine
 10
65.815013044
 20
124.0827682777
 30
0.0
 11
65.815013044
 21
162.7997605982
 31
0.0
  0
LINE
  5
1B5
330
1AF
100
AcDbEntity
  8
VERMASSUNG
100
AcDbLine
 10
238.215013044
 20
131.8600126806
 30
0.0
 11
238.215013044
 21
162.7997605982
 31
0.0
  0
LINE
  5
1B6
330
1AF
100
AcDbEntity
  8
VERMASSUNG
100
AcDbLine
 10
65.815013044
 20
161.7997605982
 30
0.0
 11
238.215013044
 21
161.7997605982
 31
0.0
  0
MTEXT
  5
1B7
330
1AF
100
AcDbEntity
  8
VERMASSUNG
100
AcDbMText
 10
149.015013018
 20
164.3778961942
 30
0.0
 40
2.0
 41
0.0
 71
     1
 72
     1
  1
172.4
  7
SLDTEXTSTYLE0
 73
     1
 44
1.0
  0
ENDBLK
  5
1B1
330
1AF
100
AcDbEntity
  8
0
100
AcDbBlockEnd
  0
BLOCK
  5
1BA
330
1B9
100
AcDbEntity
  8
0
100
AcDbBlockBegin
  2
_D_2
 70
     0
 10
0.0
 20
0.0
 30
0.0
  3
_D_2
  1

  0
SOLID
  5
1BC
330
1B9
100
AcDbEntity
  8
VERMASSUNG
100
AcDbTrace
 10
238.215013044
 20
155.7997605982
 30
0.0
 11
235.215013044
 21
156.2497605982
 31
0.0
 12
235.215013044
 22
155.3497605982
 32
0.0
 13
235.215013044
 23
155.3497605982
 33
0.0
  0
SOLID
  5
1BD
330
1B9
100
AcDbEntity
  8
VERMASSUNG
100
AcDbTrace
 10
131.215013044
 20
155.7997605982
 30
0.0
 11
134.215013044
 21
155.3497605982
 31
0.0
 12
134.215013044
 22
156.2497605982
 32
0.0
 13
134.215013044
 23
156.2497605982
 33
0.0
  0
LINE
  5
1BE
330
1B9
100
AcDbEntity
  8
VERMASSUNG
100
AcDbLine
 10
238.215013044
 20
131.8600126806
 30
0.0
 11
238.215013044
 21
156.7997605982
 31
0.0
  0
LINE
  5
1BF
330
1B9
100
AcDbEntity
  8
VERMASSUNG
100
AcDbLine
 10
131.215013044
 20
134.4850126806
 30
0.0
 11
131.215013044
 21
156.7997605982
 31
0.0
  0
LINE
  5
1C0
330
1B9
100
AcDbEntity
  8
VERMASSUNG
100
AcDbLine
 10
238.215013044
 20
155.7997605982
 30
0.0
 11
131.215013044
 21
155.7997605982
 31
0.0
  0
MTEXT
  5
1C1
330
1B9
100
AcDbEntity
  8
VERMASSUNG
100
AcDbMText
 10
182.815013012
 20
158.3778961942
 30
0.0
 40
2.0
 41
0.0
 71
     1
 72
     1
  1
107
  7
SLDTEXTSTYLE0
 73
     1
 44
1.0
  0
ENDBLK
  5
1BB
330
1B9
100
AcDbEntity
  8
0
100
AcDbBlockEnd
  0
BLOCK
  5
1C4
330
1C3
100
AcDbEntity
  8
0
100
AcDbBlockBegin
  2
_D_3
 70
     0
 10
0.0
 20
0.0
 30
0.0
  3
_D_3
  1

  0
SOLID
  5
1C6
330
1C3
100
AcDbEntity
  8
VERMASSUNG
100
AcDbTrace
 10
238.215013044
 20
149.7997605982
 30
0.0
 11
235.215013044
 21
150.2497605982
 31
0.0
 12
235.215013044
 22
149.3497605982
 32
0.0
 13
235.215013044
 23
149.3497605982
 33
0.0
  0
SOLID
  5
1C7
330
1C3
100
AcDbEntity
  8
VERMASSUNG
100
AcDbTrace
 10
158.215013044
 20
149.7997605982
 30
0.0
 11
161.215013044
 21
149.3497605982
 31
0.0
 12
161.215013044
 22
150.2497605982
 32
0.0
 13
161.215013044
 23
150.2497605982
 33
0.0
  0
LINE
  5
1C8
330
1C3
100
AcDbEntity
  8
VERMASSUNG
100
AcDbLine
 10
238.215013044
 20
131.8600126806
 30
0.0
 11
238.215013044
 21
150.7997605982
 31
0.0
  0
LINE
  5
1C9
330
1C3
100
AcDbEntity
  8
VERMASSUNG
100
AcDbLine
 10
158.215013044
 20
142.7600126806
 30
0.0
 11
158.215013044
 21
150.7997605982
 31
0.0
  0
LINE
  5
1CA
330
1C3
100
AcDbEntity
  8
VERMASSUNG
100
AcDbLine
 10
238.215013044
 20
149.7997605982
 30
0.0
 11
158.215013044
 21
149.7997605982
 31
0.0
  0
MTEXT
  5
1CB
330
1C3
100
AcDbEntity
  8
VERMASSUNG
100
AcDbMText
 10
196.815013094
 20
152.3778961942
 30
0.0
 40
2.0
 41
0.0
 71
     1
 72
     1
  1
80
  7
SLDTEXTSTYLE0
 73
     1
 44
1.0
  0
ENDBLK
  5
1C5
330
1C3
100
AcDbEntity
  8
0
100
AcDbBlockEnd
  0
BLOCK
  5
1CE
330
1CD
100
AcDbEntity
  8
0
100
AcDbBlockBegin
  2
_D_4
 70
     0
 10
0.0
 20
0.0
 30
0.0
  3
_D_4
  1

  0
SOLID
  5
1D0
330
1CD
100
AcDbEntity
  8
VERMASSUNG
100
AcDbTrace
 10
246.9321167286
 20
123.2600126806
 30
0.0
 11
246.4821167286
 21
120.2600126806
 31
0.0
 12
247.3821167286
 22
120.2600126806
 32
0.0
 13
247.3821167286
 23
120.2600126806
 33
0.0
  0
SOLID
  5
1D1
330
1CD
100
AcDbEntity
  8
VERMASSUNG
100
AcDbTrace
 10
246.9321167286
 20
101.2600126806
 30
0.0
 11
247.3821167286
 21
104.2600126806
 31
0.0
 12
246.4821167286
 22
104.2600126806
 32
0.0
 13
246.4821167286
 23
104.2600126806
 33
0.0
  0
LINE
  5
1D2
330
1CD
100
AcDbEntity
  8
VERMASSUNG
100
AcDbLine
 10
237.215013044
 20
123.2600126806
 30
0.0
 11
247.9321167286
 21
123.2600126806
 31
0.0
  0
LINE
  5
1D3
330
1CD
100
AcDbEntity
  8
VERMASSUNG
100
AcDbLine
 10
237.215013044
 20
101.2600126806
 30
0.0
 11
247.9321167286
 21
101.2600126806
 31
0.0
  0
LINE
  5
1D4
330
1CD
100
AcDbEntity
  8
VERMASSUNG
100
AcDbLine
 10
246.9321167286
 20
123.2600126806
 30
0.0
 11
246.9321167286
 21
101.2600126806
 31
0.0
  0
MTEXT
  5
1D5
330
1CD
100
AcDbEntity
  8
VERMASSUNG
100
AcDbMText
 10
244.3539814237
 20
109.0550127234
 30
0.0
 40
2.0
 41
0.0
 71
     1
 72
     1
  1
%%c
  7
SLDTEXTSTYLE0
 11
-7.044195017643634E-15
 21
1.0
 31
0.0
 73
     1
 44
1.0
  0
MTEXT
  5
1D6
330
1CD
100
AcDbEntity
  8
VERMASSUNG
100
AcDbMText
 10
244.1539814724
 20
112.6650127377
 30
0.0
 40
2.0
 41
0.0
 71
     1
 72
     1
  1
22
  7
SLDTEXTSTYLE0
 11
-7.044195017643634E-15
 21
1.0
 31
0.0
 73
     1
 44
1.0
  0
ENDBLK
  5
1CF
330
1CD
100
AcDbEntity
  8
0
100
AcDbBlockEnd
  0
BLOCK
  5
1D9
330
1D8
100
AcDbEntity
  8
0
100
AcDbBlockBegin
  2
_D_5
 70
     0
 10
0.0
 20
0.0
 30
0.0
  3
_D_5
  1

  0
SOLID
  5
1DB
330
1D8
100
AcDbEntity
  8
VERMASSUNG
100
AcDbTrace
 10
253.0321167286
 20
132.2600126806
 30
0.0
 11
252.5821167286
 21
129.2600126806
 31
0.0
 12
253.4821167286
 22
129.2600126806
 32
0.0
 13
253.4821167286
 23
129.2600126806
 33
0.0
  0
SOLID
  5
1DC
330
1D8
100
AcDbEntity
  8
VERMASSUNG
100
AcDbTrace
 10
253.0321167286
 20
92.2600126806
 30
0.0
 11
253.4821167286
 21
95.2600126806
 31
0.0
 12
252.5821167286
 22
95.2600126806
 32
0.0
 13
252.5821167286
 23
95.2600126806
 33
0.0
  0
LINE
  5
1DD
330
1D8
100
AcDbEntity
  8
VERMASSUNG
100
AcDbLine
 10
237.815013044
 20
132.2600126806
 30
0.0
 11
254.0321167286
 21
132.2600126806
 31
0.0
  0
LINE
  5
1DE
330
1D8
100
AcDbEntity
  8
VERMASSUNG
100
AcDbLine
 10
237.815013044
 20
92.2600126806
 30
0.0
 11
254.0321167286
 21
92.2600126806
 31
0.0
  0
LINE
  5
1DF
330
1D8
100
AcDbEntity
  8
VERMASSUNG
100
AcDbLine
 10
253.0321167286
 20
132.2600126806
 30
0.0
 11
253.0321167286
 21
92.2600126806
 31
0.0
  0
MTEXT
  5
1E0
330
1D8
100
AcDbEntity
  8
VERMASSUNG
100
AcDbMText
 10
250.2539814724
 20
107.0550128612
 30
0.0
 40
2.0
 41
0.0
 71
     1
 72
     1
  1
WH
  7
SLDTEXTSTYLE0
 11
-7.044195017643634E-15
 21
1.0
 31
0.0
 73
     1
 44
1.0
  0
MTEXT
  5
1E1
330
1D8
100
AcDbEntity
  8
VERMASSUNG
100
AcDbMText
 10
250.4539814237
 20
110.8550129253
 30
0.0
 40
2.0
 41
0.0
 71
     1
 72
     1
  1
%%c
  7
SLDTEXTSTYLE0
 11
-7.044195017643634E-15
 21
1.0
 31
0.0
 73
     1
 44
1.0
  0
MTEXT
  5
1E2
330
1D8
100
AcDbEntity
  8
VERMASSUNG
100
AcDbMText
 10
250.2539814724
 20
114.4650129396
 30
0.0
 40
2.0
 41
0.0
 71
     1
 72
     1
  1
40
  7
SLDTEXTSTYLE0
 11
-7.044195017643634E-15
 21
1.0
 31
0.0
 73
     1
 44
1.0
  0
ENDBLK
  5
1DA
330
1D8
100
AcDbEntity
  8
0
100
AcDbBlockEnd
  0
ENDSEC
  0
SECTION
  2
ENTITIES
  0
MTEXT
  5
78
330
1F
100
AcDbEntity
  8
KOPF_DÜNN
100
AcDbMText
 10
13.8892156294
 20
23.8442973028
 30
0.0
 40
3.0
 41
0.0
 71
     1
 72
     1
  1
A34.540.040.107
  7
SLDTEXTSTYLE0
 73
     1
 44
1.0
  0
MTEXT
  5
79
330
1F
100
AcDbEntity
  8
VERMASSUNG
100
AcDbMText
 10
13.9329988022
 20
28.8834360957
 30
0.0
 40
3.0
 41
0.0
 71
     1
 72
     1
  1
Aufnahme_Master shank
  7
SLDTEXTSTYLE0
 73
     1
 44
1.0
  0
MTEXT
  5
7A
330
1F
100
AcDbEntity
  8
VERMASSUNG
100
AcDbMText
 10
98.8601118557
 20
13.8365368761
 30
0.0
 40
2.0
 41
0.0
 71
     1
 72
     1
  1
Datum: 17.11.2011
  7
SLDTEXTSTYLE0
 73
     1
 44
1.0
  0
MTEXT
  5
7B
330
1F
100
AcDbEntity
  8
VERMASSUNG
100
AcDbMText
 10
13.933048693
 20
18.0482802738
 30
0.0
 40
2.0
 41
0.0
 71
     1
 72
     1
  1
MAS-BT A/D
  7
SLDTEXTSTYLE0
 73
     1
 44
1.0
  0
MTEXT
  5
7C
330
1F
100
AcDbEntity
  8
VERMASSUNG
100
AcDbMText
 10
13.9808475933
 20
13.9090974274
 30
0.0
 40
2.0
 41
0.0
 71
     1
 72
     1
  1
Gewicht: 1669g
  7
SLDTEXTSTYLE0
 73
     1
 44
1.0
  0
LINE
  5
7D
330
1F
100
AcDbEntity
  8
0
  6
Continuous
 62
     7
370
    15
100
AcDbLine
 10
155.2150154854
 20
80.7600126806
 30
0.0
 11
157.215013044
 21
80.7600126806
 31
0.0
  0
LINE
  5
7E
330
1F
100
AcDbEntity
  8
0
  6
Continuous
 62
     7
370
    15
100
AcDbLine
 10
157.215013044
 20
143.7600126806
 30
0.0
 11
155.214512874
 21
143.7600126806
 31
0.0
  0
ARC
  5
7F
330
1F
100
AcDbEntity
  8
0
  6
Continuous
 62
     7
370
    15
100
AcDbCircle
 10
157.215013044
 20
81.7600126806
 30
0.0
 40
1.000000000000014
100
AcDbArc
 50
270.0
 51
0.0
  0
ARC
  5
80
330
1F
100
AcDbEntity
  8
0
  6
Continuous
 62
     7
370
    15
100
AcDbCircle
 10
157.215013044
 20
142.7600126806
 30
0.0
 40
1.0
100
AcDbArc
 50
0.0
 51
90.0
  0
ARC
  5
81
330
1F
100
AcDbEntity
  8
0
  6
Continuous
 62
     7
370
    15
100
AcDbCircle
 10
132.215013044
 20
89.0350126806
 30
0.0
 40
1.0
100
AcDbArc
 50
46.4289202303
 51
90.0
  0
ARC
  5
82
330
1F
100
AcDbEntity
  8
0
  6
Continuous
 62
     7
370
    15
100
AcDbCircle
 10
132.215013044
 20
135.4850126806
 30
0.0
 40
1.0
100
AcDbArc
 50
270.0
 51
313.5373327693
  0
ARC
  5
83
330
1F
100
AcDbEntity
  8
0
  6
Continuous
 62
     7
370
    15
100
AcDbCircle
 10
161.215013044
 20
89.2600126806
 30
0.0
 40
3.0
100
AcDbArc
 50
90.0
 51
180.0
  0
ARC
  5
84
330
1F
100
AcDbEntity
  8
0
  6
Continuous
 62
     7
370
    15
100
AcDbCircle
 10
161.215013044
 20
135.2600126806
 30
0.0
 40
3.0
100
AcDbArc
 50
180.0
 51
270.0
  0
LINE
  5
85
330
1F
100
AcDbEntity
  8
0
  6
Continuous
 62
     7
370
    15
100
AcDbLine
 10
131.215013044
 20
134.4850126806
 30
0.0
 11
66.670706151
 21
125.0723012587
 31
0.0
  0
LINE
  5
86
330
1F
100
AcDbEntity
  8
0
  6
Continuous
 62
     7
370
    15
100
AcDbLine
 10
66.670706151
 20
99.4477241025
 30
0.0
 11
131.215013044
 21
90.0350126806
 31
0.0
  0
LINE
  5
87
330
1F
100
AcDbEntity
  8
0
  6
Continuous
 62
     7
370
    15
100
AcDbLine
 10
131.215013044
 20
90.0350126806
 30
0.0
 11
132.215013044
 21
90.0350126806
 31
0.0
  0
LINE
  5
88
330
1F
100
AcDbEntity
  8
0
  6
Continuous
 62
     7
370
    15
100
AcDbLine
 10
132.215013044
 20
134.4850126806
 30
0.0
 11
131.215013044
 21
134.4850126806
 31
0.0
  0
LINE
  5
89
330
1F
100
AcDbEntity
  8
0
  6
Continuous
 62
     7
370
    15
100
AcDbLine
 10
237.815013044
 20
92.2600126806
 30
0.0
 11
238.215013044
 21
92.6600126806
 31
0.0
  0
LINE
  5
8A
330
1F
100
AcDbEntity
  8
0
  6
Continuous
 62
     7
370
    15
100
AcDbLine
 10
238.215013044
 20
131.8600126806
 30
0.0
 11
237.815013044
 21
132.2600126806
 31
0.0
  0
LINE
  5
8B
330
1F
100
AcDbEntity
  8
0
  6
Continuous
 62
     7
370
    15
100
AcDbLine
 10
219.9360063059
 20
132.2600126806
 30
0.0
 11
161.215013044
 21
132.2600126806
 31
0.0
  0
LINE
  5
8C
330
1F
100
AcDbEntity
  8
0
  6
Continuous
 62
     7
370
    15
100
AcDbLine
 10
237.815013044
 20
132.2600126806
 30
0.0
 11
232.4031595999
 21
132.2600126806
 31
0.0
  0
LINE
  5
8D
330
1F
100
AcDbEntity
  8
0
  6
Continuous
 62
     7
370
    15
100
AcDbLine
 10
161.215013044
 20
92.2600126806
 30
0.0
 11
237.815013044
 21
92.2600126806
 31
0.0
  0
ARC
  5
8E
330
1F
100
AcDbEntity
  8
0
  6
Continuous
 62
     7
370
    15
100
AcDbCircle
 10
66.815013044
 20
100.4372570836
 30
0.0
 40
1.000000000000008
100
AcDbArc
 50
180.0
 51
261.7028550302
  0
ARC
  5
8F
330
1F
100
AcDbEntity
  8
0
  6
Continuous
 62
     7
370
    15
100
AcDbCircle
 10
66.815013044
 20
124.0827682777
 30
0.0
 40
1.0
100
AcDbArc
 50
98.2971449698
 51
180.0
  0
SPLINE
  5
90
330
1F
100
AcDbEntity
  8
0
  6
Continuous
 62
     7
370
    15
100
AcDbSpline
210
0.0
220
0.0
230
1.0
 70
     8
 71
     3
 72
    10
 73
     6
 74
     0
 42
0.000000001
 43
0.00000001
 40
0.0
 40
0.0
 40
0.0
 40
0.0
 40
0.5
 40
0.5
 40
1.0
 40
1.0
 40
1.0
 40
1.0
 10
152.19162144809
 20
142.1644734019935
 30
0.0
 10
151.8755176169505
 20
141.5446108437163
 30
0.0
 10
151.5457385726057
 20
140.8987101084175
 30
0.0
 10
150.8735153002169
 20
139.584291468117
 30
0.0
 10
150.5313821342863
 20
138.9163692411047
 30
0.0
 10
150.1842018057721
 20
138.2400315086233
 30
0.0
  0
SPLINE
  5
91
330
1F
100
AcDbEntity
  8
0
  6
Continuous
 62
     7
370
    15
100
AcDbSpline
210
0.0
220
0.0
230
1.0
 70
     8
 71
     3
 72
     9
 73
     5
 74
     0
 42
0.000000001
 43
0.00000001
 40
0.0
 40
0.0
 40
0.0
 40
0.0
 40
0.5067583433955531
 40
1.0
 40
1.0
 40
1.0
 40
1.0
 10
152.840643587029
 20
143.1221477879884
 30
0.0
 10
152.7302436296806
 20
142.9600735283238
 30
0.0
 10
152.512388395944
 20
142.6402479906155
 30
0.0
 10
152.2977950498701
 20
142.3218994456634
 30
0.0
 10
152.1919486723563
 20
142.1648766819737
 30
0.0
  0
LINE
  5
92
330
1F
100
AcDbEntity
  8
0
  6
Continuous
 62
     7
370
    15
100
AcDbLine
 10
152.840013044
 20
81.3989146611
 30
0.0
 11
152.840013044
 21
143.1210944351
 31
0.0
  0
SPLINE
  5
93
330
1F
100
AcDbEntity
  8
0
  6
Continuous
 62
     7
370
    15
100
AcDbSpline
210
0.0
220
0.0
230
1.0
 70
     8
 71
     3
 72
     9
 73
     5
 74
     0
 42
0.000000001
 43
0.00000001
 40
0.0
 40
0.0
 40
0.0
 40
0.0
 40
0.4932438861071711
 40
0.9999999999999999
 40
0.9999999999999999
 40
0.9999999999999999
 40
0.9999999999999999
 10
152.1919347573335
 20
82.35514657893462
 30
0.0
 10
152.2977812478264
 20
82.19812266702905
 30
0.0
 10
152.5123738529743
 20
81.87977323315194
 30
0.0
 10
152.7302279019608
 20
81.55994774541168
 30
0.0
 10
152.8406267732211
 20
81.39787422412057
 30
0.0
  0
SPLINE
  5
94
330
1F
100
AcDbEntity
  8
0
  6
Continuous
 62
     7
370
    15
100
AcDbSpline
210
0.0
220
0.0
230
1.0
 70
     8
 71
     3
 72
    10
 73
     6
 74
     0
 42
0.000000001
 43
0.00000001
 40
0.0
 40
0.0
 40
0.0
 40
0.0
 40
0.5
 40
0.5
 40
1.0
 40
1.0
 40
1.0
 40
1.0
 10
152.1916155284221
 20
82.35556356743436
 30
0.0
 10
151.875436425748
 20
82.97557371944808
 30
0.0
 10
151.544994198581
 20
83.62277178531578
 30
0.0
 10
150.8732826778983
 20
84.93618770990956
 30
0.0
 10
150.5313088028664
 20
85.60379897621236
 30
0.0
 10
150.1842018057721
 20
86.27999385265552
 30
0.0
  0
SPLINE
  5
95
330
1F
100
AcDbEntity
  8
0
  6
Continuous
 62
     7
370
    15
100
AcDbSpline
210
0.0
220
0.0
230
1.0
 70
     8
 71
     3
 72
    11
 73
     7
 74
     0
 42
0.000000001
 43
0.00000001
 40
0.0
 40
0.0
 40
0.0
 40
0.0
 40
0.2488814606662326
 40
0.5011921284372279
 40
0.7520447562616803
 40
0.9999999999999999
 40
0.9999999999999999
 40
0.9999999999999999
 40
0.9999999999999999
 10
155.2145128740274
 20
143.7598629352329
 30
0.0
 10
155.1847345445399
 20
143.7507309090888
 30
0.0
 10
155.124767585582
 20
143.732341031402
 30
0.0
 10
154.6328455237932
 20
143.5883037829164
 30
0.0
 10
153.9047761011627
 20
143.378900704804
 30
0.0
 10
153.1940326299899
 20
143.2066964354544
 30
0.0
 10
152.8407251128533
 20
143.121094435138
 30
0.0
  0
SPLINE
  5
96
330
1F
100
AcDbEntity
  8
0
  6
Continuous
 62
     7
370
    15
100
AcDbSpline
210
0.0
220
0.0
230
1.0
 70
     8
 71
     3
 72
    24
 73
    20
 74
     0
 42
0.000000001
 43
0.00000001
 40
0.0
 40
0.0
 40
0.0
 40
0.0
 40
0.0452125937745432
 40
0.0902998333923186
 40
0.1353099193833892
 40
0.1802913002820134
 40
0.225292517312021
 40
0.2703620475818443
 40
0.3155481483109035
 40
0.3608987045706354
 40
0.406461082893424
 40
0.4522819928899755
 40
0.4984073587335087
 40
0.5831196400567015
 40
0.6669904077626623
 40
0.750313332028954
 40
0.8333878931341699
 40
0.9165162556642423
 40
0.9999999999999999
 40
0.9999999999999999
 40
0.9999999999999999
 40
0.9999999999999999
 10
152.8406317374621
 20
81.39891466110393
 30
0.0
 10
152.9083354793675
 20
81.3831556200858
 30
0.0
 10
153.0435552511988
 20
81.35168123077173
 30
0.0
 10
153.2362169680433
 20
81.30522042743162
 30
0.0
 10
153.4209538396968
 20
81.25958944779872
 30
0.0
 10
153.5970717809915
 20
81.21496415036502
 30
0.0
 10
153.7647555736049
 20
81.17147686376597
 30
0.0
 10
153.9239550578968
 20
81.12927581596816
 30
0.0
 10
154.0746831963775
 20
81.08850922365612
 30
0.0
 10
154.2169361498139
 20
81.0493294710497
 30
0.0
 10
154.3507149048948
 20
81.01189217924365
 30
0.0
 10
154.4760188158189
 20
80.9763555952876
 30
0.0
 10
154.6251231083592
 20
80.93363761045781
 30
0.0
 10
154.7859765718607
 20
80.88710323283559
 30
0.0
 10
154.9419850268828
 20
80.84141853860399
 30
0.0
 10
155.0636383434965
 20
80.80537904362585
 30
0.0
 10
155.1500870316718
 20
80.77950489767362
 30
0.0
 10
155.2044281511156
 20
80.76309187709721
 30
0.0
 10
155.2114796073998
 20
80.76104054495866
 30
0.0
 10
155.2150128558816
 20
80.76001269115484
 30
0.0
  0
LINE
  5
97
330
1F
100
AcDbEntity
  8
0
  6
Continuous
 62
     7
370
    15
100
AcDbLine
 10
133.215013044
 20
83.1336071352
 30
0.0
 11
133.215013044
 21
141.3864182261
 31
0.0
  0
SPLINE
  5
98
330
1F
100
AcDbEntity
  8
0
  6
Continuous
 62
     7
370
    15
100
AcDbSpline
210
0.0
220
0.0
230
1.0
 70
     8
 71
     3
 72
    12
 73
     8
 74
     0
 42
0.000000001
 43
0.00000001
 40
0.0
 40
0.0
 40
0.0
 40
0.0
 40
0.2500000000000015
 40
0.2500000000000015
 40
0.500000000000003
 40
0.500000000000003
 40
1.0
 40
1.0
 40
1.0
 40
1.0
 10
133.60204586701
 20
142.3270025804603
 30
0.0
 10
133.5501851158219
 20
142.270190008146
 30
0.0
 10
133.501453318803
 20
142.2081978218942
 30
0.0
 10
133.4112803088855
 20
142.0721447487702
 30
0.0
 10
133.3695030606006
 20
141.9972386461714
 30
0.0
 10
133.2634141907546
 20
141.759112010874
 30
0.0
 10
133.2150130440445
 20
141.5757052793053
 30
0.0
 10
133.2150130440444
 20
141.3864182261234
 30
0.0
  0
SPLINE
  5
99
330
1F
100
AcDbEntity
  8
0
  6
Continuous
 62
     7
370
    15
100
AcDbSpline
210
0.0
220
0.0
230
1.0
 70
     8
 71
     3
 72
     8
 73
     4
 74
     0
 42
0.000000001
 43
0.00000001
 40
0.0
 40
0.0
 40
0.0
 40
0.0
 40
1.0
 40
1.0
 40
1.0
 40
1.0
 10
134.2150130440444
 20
142.4964027836412
 30
0.0
 10
133.9886687304446
 20
142.4964027836412
 30
0.0
 10
133.7712166100395
 20
142.4330343146204
 30
0.0
 10
133.60204586701
 20
142.3270025804603
 30
0.0
  0
SPLINE
  5
9A
330
1F
100
AcDbEntity
  8
0
  6
Continuous
 62
     7
370
    15
100
AcDbSpline
210
0.0
220
0.0
230
1.0
 70
     8
 71
     3
 72
     8
 73
     4
 74
     0
 42
0.000000001
 43
0.00000001
 40
0.0
 40
0.0
 40
0.0
 40
0.0
 40
1.0
 40
1.0
 40
1.0
 40
1.0
 10
133.60204586701
 20
82.19302278081842
 30
0.0
 10
133.771639372662
 20
82.08672607026124
 30
0.0
 10
133.9880080649952
 20
82.02362257763754
 30
0.0
 10
134.2150130440444
 20
82.02362257763754
 30
0.0
  0
SPLINE
  5
9B
330
1F
100
AcDbEntity
  8
0
  6
Continuous
 62
     7
370
    15
100
AcDbSpline
210
0.0
220
0.0
230
1.0
 70
     8
 71
     3
 72
    12
 73
     8
 74
     0
 42
0.000000001
 43
0.00000001
 40
0.0
 40
0.0
 40
0.0
 40
0.0
 40
0.2500000000000017
 40
0.2500000000000017
 40
0.5000000000000033
 40
0.5000000000000033
 40
1.0
 40
1.0
 40
1.0
 40
1.0
 10
133.60204586701
 20
82.19302278081842
 30
0.0
 10
133.5501851158219
 20
82.24983535313282
 30
0.0
 10
133.501453318803
 20
82.31182753938464
 30
0.0
 10
133.4112803088855
 20
82.44788061250863
 30
0.0
 10
133.3695030606006
 20
82.52278671510736
 30
0.0
 10
133.2634141907546
 20
82.76091335040475
 30
0.0
 10
133.2150130440445
 20
82.94432008197354
 30
0.0
 10
133.2150130440444
 20
83.13360713515542
 30
0.0
  0
LINE
  5
9C
330
1F
100
AcDbEntity
  8
0
  6
Continuous
 62
     7
370
    15
100
AcDbLine
 10
158.215013044
 20
81.7600126806
 30
0.0
 11
158.215013044
 21
142.7600126806
 31
0.0
  0
LINE
  5
9D
330
1F
100
AcDbEntity
  8
0
  6
Continuous
 62
     7
370
    15
100
AcDbLine
 10
142.790013044
 20
142.4964027836
 30
0.0
 11
134.215013044
 21
142.4964027836
 31
0.0
  0
LINE
  5
9E
330
1F
100
AcDbEntity
  8
0
  6
Continuous
 62
     7
370
    15
100
AcDbLine
 10
142.790013044
 20
82.0236225776
 30
0.0
 11
142.790013044
 21
142.4964027836
 31
0.0
  0
LINE
  5
9F
330
1F
100
AcDbEntity
  8
0
  6
Continuous
 62
     7
370
    15
100
AcDbLine
 10
134.215013044
 20
82.0236225776
 30
0.0
 11
142.790013044
 21
82.0236225776
 31
0.0
  0
SPLINE
  5
A0
330
1F
100
AcDbEntity
  8
0
  6
Continuous
 62
     7
370
    15
100
AcDbSpline
210
0.0
220
0.0
230
1.0
 70
     8
 71
     3
 72
     8
 73
     4
 74
     0
 42
0.000000001
 43
0.00000001
 40
0.0
 40
0.0
 40
0.0
 40
0.0
 40
0.0012389803509652
 40
0.0012389803509652
 40
0.0012389803509652
 40
0.0012389803509652
 10
143.3475745875782
 20
141.7140354034259
 30
0.0
 10
143.1624546144454
 20
141.9750853848049
 30
0.0
 10
142.9765761666864
 20
142.2358669979239
 30
0.0
 10
142.7900130440444
 20
142.4964027836412
 30
0.0
  0
SPLINE
  5
A1
330
1F
100
AcDbEntity
  8
0
  6
Continuous
 62
     7
370
    15
100
AcDbSpline
210
0.0
220
0.0
230
1.0
 70
     8
 71
     3
 72
     8
 73
     4
 74
     0
 42
0.000000001
 43
0.00000001
 40
0.0
 40
0.0
 40
0.0
 40
0.0
 40
1.0
 40
1.0
 40
1.0
 40
1.0
 10
145.4458242823167
 20
137.9272583451044
 30
0.0
 10
144.7495309162752
 20
139.1911967132193
 30
0.0
 10
144.0497357510841
 20
140.4532521587275
 30
0.0
 10
143.3475745875782
 20
141.7140354034259
 30
0.0
  0
SPLINE
  5
A2
330
1F
100
AcDbEntity
  8
0
  6
Continuous
 62
     7
370
    15
100
AcDbSpline
210
0.0
220
0.0
230
1.0
 70
     8
 71
     3
 72
     8
 73
     4
 74
     0
 42
0.000000001
 43
0.00000001
 40
0.0
 40
0.0
 40
0.0
 40
0.0
 40
1.0
 40
1.0
 40
1.0
 40
1.0
 10
145.4458242823167
 20
86.59276701617434
 30
0.0
 10
144.7495061416587
 20
85.32878367622754
 30
0.0
 10
144.0497089495483
 20
84.06672507837558
 30
0.0
 10
143.3475745875782
 20
82.80598995785289
 30
0.0
  0
SPLINE
  5
A3
330
1F
100
AcDbEntity
  8
0
  6
Continuous
 62
     7
370
    15
100
AcDbSpline
210
0.0
220
0.0
230
1.0
 70
     8
 71
     3
 72
     8
 73
     4
 74
     0
 42
0.000000001
 43
0.00000001
 40
0.0
 40
0.0
 40
0.0
 40
0.0
 40
0.0012389803509652
 40
0.0012389803509652
 40
0.0012389803509652
 40
0.0012389803509652
 10
142.7900130440444
 20
82.02362257763755
 30
0.0
 10
142.9765761666864
 20
82.28415836335489
 30
0.0
 10
143.1624546144454
 20
82.5449399764739
 30
0.0
 10
143.3475745875782
 20
82.80598995785289
 30
0.0
  0
SPLINE
  5
A4
330
1F
100
AcDbEntity
  8
0
  6
Continuous
 62
     7
370
    15
100
AcDbSpline
210
0.0
220
0.0
230
1.0
 70
     8
 71
     3
 72
    10
 73
     6
 74
     0
 42
0.000000001
 43
0.00000001
 40
0.0
 40
0.0
 40
0.0
 40
0.0
 40
0.5
 40
0.5
 40
1.0
 40
1.0
 40
1.0
 40
1.0
 10
146.1386446053443
 20
137.5077353502189
 30
0.0
 10
145.9966272928973
 20
137.5077353502189
 30
0.0
 10
145.856180246035
 20
137.5482252024284
 30
0.0
 10
145.6145903267737
 20
137.6961610323676
 30
0.0
 10
145.5139128845204
 20
137.8036613083471
 30
0.0
 10
145.4458242823168
 20
137.9272583451042
 30
0.0
  0
SPLINE
  5
A5
330
1F
100
AcDbEntity
  8
0
  6
Continuous
 62
     7
370
    15
100
AcDbSpline
210
0.0
220
0.0
230
1.0
 70
     8
 71
     3
 72
    10
 73
     6
 74
     0
 42
0.000000001
 43
0.00000001
 40
0.0
 40
0.0
 40
0.0
 40
0.0
 40
0.5
 40
0.5
 40
1.0
 40
1.0
 40
1.0
 40
1.0
 10
146.1386446053443
 20
87.01229001105986
 30
0.0
 10
145.9977872408336
 20
87.01229001105986
 30
0.0
 10
145.8549531093595
 20
86.97118610524117
 30
0.0
 10
145.6146914185861
 20
86.82378821194021
 30
0.0
 10
145.5139851495066
 20
86.71649523110057
 30
0.0
 10
145.4458242823167
 20
86.59276701617435
 30
0.0
  0
SPLINE
  5
A6
330
1F
100
AcDbEntity
  8
0
  6
Continuous
 62
     7
370
    15
100
AcDbSpline
210
0.0
220
0.0
230
1.0
 70
     8
 71
     3
 72
    12
 73
     8
 74
     0
 42
0.000000001
 43
0.00000001
 40
0.0
 40
0.0
 40
0.0
 40
0.0
 40
0.25
 40
0.25
 40
0.5
 40
0.5
 40
1.0
 40
1.0
 40
1.0
 40
1.0
 10
150.1842018057721
 20
138.2400315086233
 30
0.0
 10
150.1482976554356
 20
138.1700870744751
 30
0.0
 10
150.1057661033061
 20
138.1068357114173
 30
0.0
 10
150.0089718264661
 20
137.9917770565013
 30
0.0
 10
149.9538821482018
 20
137.9394485227894
 30
0.0
 10
149.7757489146479
 20
137.8056636197043
 30
0.0
 10
149.6383718226453
 20
137.7451158525461
 30
0.0
 10
149.4913814827453
 20
137.7259159041622
 30
0.0
  0
SPLINE
  5
A7
330
1F
100
AcDbEntity
  8
0
  6
Continuous
 62
     7
370
    15
100
AcDbSpline
210
0.0
220
0.0
230
1.0
 70
     8
 71
     3
 72
    12
 73
     8
 74
     0
 42
0.000000001
 43
0.00000001
 40
0.0
 40
0.0
 40
0.0
 40
0.0
 40
0.25
 40
0.25
 40
0.5
 40
0.5
 40
1.0
 40
1.0
 40
1.0
 40
1.0
 10
150.1842018057721
 20
86.27999385265551
 30
0.0
 10
150.1482976554356
 20
86.34993828680366
 30
0.0
 10
150.1057661033061
 20
86.4131896498615
 30
0.0
 10
150.0089718264661
 20
86.52824830477743
 30
0.0
 10
149.9538821482018
 20
86.5805768384894
 30
0.0
 10
149.7757489146479
 20
86.7143617415745
 30
0.0
 10
149.6383718226453
 20
86.77490950873268
 30
0.0
 10
149.4913814827453
 20
86.79410945711656
 30
0.0
  0
LINE
  5
A8
330
1F
100
AcDbEntity
  8
0
  6
Continuous
 62
     7
370
    15
100
AcDbLine
 10
146.165013044
 20
87.0122900111
 30
0.0
 11
146.1386446053
 21
87.0122900111
 31
0.0
  0
LINE
  5
A9
330
1F
100
AcDbEntity
  8
0
  6
Continuous
 62
     7
370
    15
100
AcDbLine
 10
146.165013044
 20
137.5077353502
 30
0.0
 11
146.1386446053
 21
137.5077353502
 31
0.0
  0
SPLINE
  5
AA
330
1F
100
AcDbEntity
  8
0
  6
Continuous
 62
     7
370
    15
100
AcDbSpline
210
0.0
220
0.0
230
1.0
 70
     8
 71
     3
 72
    10
 73
     6
 74
     0
 42
0.000000001
 43
0.00000001
 40
0.0
 40
0.0
 40
0.0
 40
0.0
 40
0.5000000000000001
 40
0.5000000000000001
 40
1.0
 40
1.0
 40
1.0
 40
1.0
 10
149.4913814827446
 20
137.7259159041652
 30
0.0
 10
148.9694667583487
 20
137.657743153657
 30
0.0
 10
148.4306155782393
 20
137.603119888699
 30
0.0
 10
147.3192529362072
 20
137.5280240358077
 30
0.0
 10
146.7424121590112
 20
137.5077353502189
 30
0.0
 10
146.1650130440445
 20
137.5077353502189
 30
0.0
  0
SPLINE
  5
AB
330
1F
100
AcDbEntity
  8
0
  6
Continuous
 62
     7
370
    15
100
AcDbSpline
210
0.0
220
0.0
230
1.0
 70
     8
 71
     3
 72
    10
 73
     6
 74
     0
 42
0.000000001
 43
0.00000001
 40
0.0
 40
0.0
 40
0.0
 40
0.0
 40
0.5000000000000001
 40
0.5000000000000001
 40
1.0
 40
1.0
 40
1.0
 40
1.0
 10
149.4913814827446
 20
86.79410945711363
 30
0.0
 10
148.9694667583487
 20
86.86228220762182
 30
0.0
 10
148.4306155782393
 20
86.91690547257976
 30
0.0
 10
147.3192529362072
 20
86.99200132547111
 30
0.0
 10
146.7424121590112
 20
87.01229001105986
 30
0.0
 10
146.1650130440445
 20
87.01229001105986
 30
0.0
  0
SPLINE
  5
AC
330
1F
100
AcDbEntity
  8
0
  6
Continuous
 62
     7
370
    15
100
AcDbSpline
210
0.0
220
0.0
230
1.0
 70
    24
 71
     3
 72
    16
 73
    12
 74
     0
 42
0.000000001
 43
0.00000001
 40
0.0
 40
0.0
 40
0.0
 40
0.0
 40
0.5
 40
0.5
 40
0.7500000000000001
 40
0.7500000000000001
 40
0.8750000000000001
 40
0.8750000000000001
 40
0.9375000000000001
 40
0.9375000000000001
 40
1.0
 40
1.0
 40
1.0
 40
1.0
 10
133.2150130440444
 20
134.7600126806394
 30
0.0
 10
133.2150130440444
 20
134.7600126806394
 30
0.0
 10
133.1342129049948
 20
134.7600126806394
 30
0.0
 10
133.0166409295746
 20
134.7600126806394
 30
0.0
 10
132.9776991894794
 20
134.7600126806394
 30
0.0
 10
132.9351240126766
 20
134.7600126806394
 30
0.0
 10
132.9235897897818
 20
134.7600126806394
 30
0.0
 10
132.9118202964114
 20
134.7600126806394
 30
0.0
 10
132.9088130338882
 20
134.7600126806394
 30
0.0
 10
132.9047835393607
 20
134.7600126806394
 30
0.0
 10
132.9037617811807
 20
134.7600126806394
 30
0.0
 10
132.9037619097541
 20
134.7600126806394
 30
0.0
  0
SPLINE
  5
AD
330
1F
100
AcDbEntity
  8
0
  6
Continuous
 62
     7
370
    15
100
AcDbSpline
210
0.0
220
0.0
230
1.0
 70
    24
 71
     3
 72
     9
 73
     5
 74
     0
 42
0.000000001
 43
0.00000001
 40
0.0
 40
0.0
 40
0.0
 40
0.0
 40
0.884959784145506
 40
1.0
 40
1.0
 40
1.0
 40
1.0
 10
132.9037629241892
 20
89.7600126806394
 30
0.0
 10
132.9203358723631
 20
89.7600126806394
 30
0.0
 10
132.9390632184763
 20
89.76001268063939
 30
0.0
 10
132.999908124824
 20
89.7600126806394
 30
0.0
 10
133.006907735984
 20
89.7600126806394
 30
0.0
  0
LINE
  5
AE
330
1F
100
AcDbEntity
  8
0
  6
Continuous
 62
     7
370
    15
100
AcDbLine
 10
131.215013044
 20
90.0350126806
 30
0.0
 11
131.215013044
 21
134.4850126806
 31
0.0
  0
LINE
  5
AF
330
1F
100
AcDbEntity
  8
0
  6
Continuous
 62
     7
370
    15
100
AcDbLine
 10
238.215013044
 20
112.2600126806
 30
0.0
 11
238.215013044
 21
92.6600126806
 31
0.0
  0
LINE
  5
B0
330
1F
100
AcDbEntity
  8
0
  6
Continuous
 62
     7
370
    15
100
AcDbLine
 10
238.215013044
 20
131.8600126806
 30
0.0
 11
238.215013044
 21
112.2600126806
 31
0.0
  0
LINE
  5
B1
330
1F
100
AcDbEntity
  8
0
  6
Continuous
 62
     7
370
    15
100
AcDbLine
 10
237.815013044
 20
112.2600126806
 30
0.0
 11
237.815013044
 21
92.2600126806
 31
0.0
  0
LINE
  5
B2
330
1F
100
AcDbEntity
  8
0
  6
Continuous
 62
     7
370
    15
100
AcDbLine
 10
237.815013044
 20
132.2600126806
 30
0.0
 11
237.815013044
 21
112.2600126806
 31
0.0
  0
SPLINE
  5
B3
330
1F
100
AcDbEntity
  8
0
  6
Continuous
 62
     7
370
    15
100
AcDbSpline
210
0.0
220
0.0
230
1.0
 70
     8
 71
     3
 72
    27
 73
    23
 74
     0
 42
0.000000001
 43
0.00000001
 40
0.0
 40
0.0
 40
0.0
 40
0.0
 40
0.009475514979092
 40
0.0552335167809365
 40
0.0970789766715533
 40
0.1400015331534209
 40
0.1846774098274234
 40
0.2303702970998515
 40
0.2810116210876495
 40
0.3328204291960566
 40
0.38967278602137
 40
0.4479914059491984
 40
0.5082002424342789
 40
0.5701177672069995
 40
0.630936306505115
 40
0.6935646321281034
 40
0.7534187651691395
 40
0.8153072813720537
 40
0.8701820454296487
 40
0.9272353594654761
 40
0.9739917504996864
 40
1.0
 40
1.0
 40
1.0
 40
1.0
 10
232.4031595998758
 20
132.257197438507
 30
0.0
 10
232.4068164578886
 20
132.258065878424
 30
0.0
 10
232.4281325688188
 20
132.2631280825188
 30
0.0
 10
232.3261191310634
 20
132.2388096531422
 30
0.0
 10
232.101917513527
 20
132.1866984002064
 30
0.0
 10
231.7531492056305
 20
132.108955104915
 30
0.0
 10
231.2897421797521
 20
132.0122987645729
 30
0.0
 10
230.6993085996475
 20
131.9001490498164
 30
0.0
 10
229.9871086842143
 20
131.7818198731815
 30
0.0
 10
229.1381451956195
 20
131.6658535404936
 30
0.0
 10
228.1784057824419
 20
131.5684160061133
 30
0.0
 10
227.1193057282958
 20
131.5040037907505
 30
0.0
 10
226.0038841438848
 20
131.4854059437255
 30
0.0
 10
224.8770579203757
 20
131.5186925804703
 30
0.0
 10
223.772084447983
 20
131.6012933373515
 30
0.0
 10
222.7470092781269
 20
131.7215780720274
 30
0.0
 10
221.8167266651753
 20
131.86577037056
 30
0.0
 10
221.0547817474356
 20
132.0083177531061
 30
0.0
 10
220.4606634805382
 20
132.1338470923212
 30
0.0
 10
220.0970647311292
 20
132.2168336114534
 30
0.0
 10
219.9228876383292
 20
132.2581309929737
 30
0.0
 10
219.9325519817629
 20
132.2558405620134
 30
0.0
 10
219.9360063059159
 20
132.2550218937778
 30
0.0
  0
SPLINE
  5
B4
330
1F
100
AcDbEntity
  8
0
  6
Continuous
 62
     7
370
    15
100
AcDbSpline
210
0.0
220
0.0
230
1.0
 70
    11
 71
     3
 72
    88
 73
    84
 74
     0
 42
0.000000001
 43
0.00000001
 40
0.0
 40
0.0
 40
0.0
 40
0.0
 40
0.0312499999999979
 40
0.0312499999999979
 40
0.0624999999999957
 40
0.0624999999999957
 40
0.0937499999999936
 40
0.0937499999999936
 40
0.1093749999999931
 40
0.1093749999999931
 40
0.1249999999999926
 40
0.1249999999999926
 40
0.1562499999999905
 40
0.1562499999999905
 40
0.1718749999999899
 40
0.1718749999999899
 40
0.1874999999999894
 40
0.1874999999999894
 40
0.2187499999999883
 40
0.2187499999999883
 40
0.2343749999999883
 40
0.2343749999999883
 40
0.2499999999999882
 40
0.2499999999999882
 40
0.281249999999989
 40
0.281249999999989
 40
0.2968749999999893
 40
0.2968749999999893
 40
0.3124999999999897
 40
0.3124999999999897
 40
0.34374999999999
 40
0.34374999999999
 40
0.3593749999999902
 40
0.3593749999999902
 40
0.3749999999999903
 40
0.3749999999999903
 40
0.3906249999999905
 40
0.3906249999999905
 40
0.4062499999999906
 40
0.4062499999999906
 40
0.437499999999991
 40
0.437499999999991
 40
0.4531249999999911
 40
0.4531249999999911
 40
0.4687499999999913
 40
0.4687499999999913
 40
0.4999999999999916
 40
0.4999999999999916
 40
0.5312499999999919
 40
0.5312499999999919
 40
0.5624999999999921
 40
0.5624999999999921
 40
0.5937499999999925
 40
0.5937499999999925
 40
0.6249999999999928
 40
0.6249999999999928
 40
0.656249999999993
 40
0.656249999999993
 40
0.6874999999999933
 40
0.6874999999999933
 40
0.7187499999999937
 40
0.7187499999999937
 40
0.7499999999999939
 40
0.7499999999999939
 40
0.7812499999999942
 40
0.7812499999999942
 40
0.8124999999999946
 40
0.8124999999999946
 40
0.8281249999999949
 40
0.8281249999999949
 40
0.8437499999999953
 40
0.8437499999999953
 40
0.874999999999996
 40
0.874999999999996
 40
0.8906249999999964
 40
0.8906249999999964
 40
0.9062499999999968
 40
0.9062499999999968
 40
0.9374999999999979
 40
0.9374999999999979
 40
0.9687499999999989
 40
0.9687499999999989
 40
1.0
 40
1.0
 40
1.0
 40
1.0
 10
222.0077669308517
 20
116.3450160429682
 30
0.0
 10
222.3112418386794
 20
116.5830087474028
 30
0.0
 10
222.6323072520556
 20
116.7889512685217
 30
0.0
 10
223.3066995971044
 20
117.1432075246321
 30
0.0
 10
223.6620767142202
 20
117.2920870442742
 30
0.0
 10
224.397167362995
 20
117.5286226306949
 30
0.0
 10
224.7706935401793
 20
117.6146729400185
 30
0.0
 10
225.3396271753649
 20
117.6976854709752
 30
0.0
 10
225.5307214877266
 20
117.7176267894879
 30
0.0
 10
225.9158591959689
 20
117.7418266690168
 30
0.0
 10
226.1107373597073
 20
117.7460258006994
 30
0.0
 10
226.690123127691
 20
117.7346069051251
 30
0.0
 10
227.071404453494
 20
117.6955761029659
 30
0.0
 10
227.6360159910975
 20
117.5906376370216
 30
0.0
 10
227.8229945250258
 20
117.5478787576609
 30
0.0
 10
228.1944391844426
 20
117.4463241774303
 30
0.0
 10
228.379589336843
 20
117.387216238424
 30
0.0
 10
228.9209974409336
 20
117.1885028926733
 30
0.0
 10
229.266127702618
 20
117.0272061612093
 30
0.0
 10
229.7600033579892
 20
116.7410677221709
 30
0.0
 10
229.9206328130502
 20
116.6382734336665
 30
0.0
 10
230.2335265314199
 20
116.4170080989363
 30
0.0
 10
230.3862752093057
 20
116.2980072998629
 30
0.0
 10
230.8214691452528
 20
115.9241947053042
 30
0.0
 10
231.0842985301
 20
115.6508315633145
 30
0.0
 10
231.4354682022912
 20
115.2019754375907
 30
0.0
 10
231.5452924156326
 20
115.0458407927428
 30
0.0
 10
231.7493252075392
 20
114.7193909219063
 30
0.0
 10
231.8432016288851
 20
114.5492336522604
 30
0.0
 10
232.0922198043556
 20
114.03127040176
 30
0.0
 10
232.2181772675185
 20
113.6714776349058
 30
0.0
 10
232.3428780557097
 20
113.1083577495127
 30
0.0
 10
232.3737545825045
 20
112.9151369997388
 30
0.0
 10
232.4113410547392
 20
112.5291933837575
 30
0.0
 10
232.4182666950506
 20
112.3367155318269
 30
0.0
 10
232.4089676741004
 20
111.9527238538452
 30
0.0
 10
232.392741973982
 20
111.7612100702976
 30
0.0
 10
232.3369650275145
 20
111.3791527545857
 30
0.0
 10
232.2970010989937
 20
111.1874293383292
 30
0.0
 10
232.144997024019
 20
110.6275346031813
 30
0.0
 10
232.0013939058975
 20
110.2715302568985
 30
0.0
 10
231.7266624312015
 20
109.7615069169252
 30
0.0
 10
231.6252108713013
 20
109.5960079727137
 30
0.0
 10
231.4075478872891
 20
109.2798630356494
 30
0.0
 10
231.2908437067798
 20
109.1282609383013
 30
0.0
 10
230.9181992866745
 20
108.6918188324637
 30
0.0
 10
230.6370203989181
 20
108.4233240713647
 30
0.0
 10
230.0358760542616
 20
107.9490169059336
 30
0.0
 10
229.7150849191412
 20
107.7412928935362
 30
0.0
 10
229.0344351971082
 20
107.3816016519638
 30
0.0
 10
228.6769359765408
 20
107.2315892886547
 30
0.0
 10
227.9479548208685
 20
106.9955256953524
 30
0.0
 10
227.5737586675
 20
106.9080068163864
 30
0.0
 10
226.8054769207384
 20
106.7948221403588
 30
0.0
 10
226.4198883089895
 20
106.7705991935762
 30
0.0
 10
225.6524753861759
 20
106.7846317583762
 30
0.0
 10
225.2695605042416
 20
106.8227216603549
 30
0.0
 10
224.5053844557097
 20
106.964144287867
 30
0.0
 10
224.1348489616113
 20
107.0655213685579
 30
0.0
 10
223.4173684883712
 20
107.3280710631576
 30
0.0
 10
223.0699115295579
 20
107.4894008222054
 30
0.0
 10
222.4010139087387
 20
107.8768115430942
 30
0.0
 10
222.0896168838015
 20
108.0970191187033
 30
0.0
 10
221.5130789584598
 20
108.5916555525864
 30
0.0
 10
221.2467891277158
 20
108.8673799994241
 30
0.0
 10
220.771424933535
 20
109.4758970958636
 30
0.0
 10
220.5693524888981
 20
109.7992693140684
 30
0.0
 10
220.3215736641484
 20
110.3144483381911
 30
0.0
 10
220.2482727229853
 20
110.4912317673862
 30
0.0
 10
220.1215744369232
 20
110.8556870201255
 30
0.0
 10
220.0681056203094
 20
111.0444007841821
 30
0.0
 10
219.9438925262181
 20
111.6104868012992
 30
0.0
 10
219.9068022254876
 20
111.9925764360606
 30
0.0
 10
219.9213669320793
 20
112.5729441485693
 30
0.0
 10
219.9383102672352
 20
112.7687356947961
 30
0.0
 10
219.995134501468
 20
113.1520201913953
 30
0.0
 10
220.0349084531369
 20
113.3406068031301
 30
0.0
 10
220.1870090223591
 20
113.8975752190054
 30
0.0
 10
220.334398973355
 20
114.2611144626893
 30
0.0
 10
220.7010622565819
 20
114.9379134742192
 30
0.0
 10
220.9197610836655
 20
115.2532481952816
 30
0.0
 10
221.4239613020402
 20
115.8410220037371
 30
0.0
 10
221.704292023024
 20
116.1070233385336
 30
0.0
 10
222.0077669308517
 20
116.3450160429682
 30
0.0
  0
CIRCLE
  5
B5
330
1F
100
AcDbEntity
  8
0
  6
Continuous
 62
     7
370
    15
100
AcDbCircle
 10
226.165013044
 20
112.2600126806
 30
0.0
 40
4.5
  0
LINE
  5
B6
330
1F
100
AcDbEntity
  8
0
  6
Continuous
 62
     7
370
    15
100
AcDbLine
 10
65.815013044
 20
100.4372570836
 30
0.0
 11
65.815013044
 21
124.0827681747
 31
0.0
  0
SPLINE
  5
B7
330
1F
100
AcDbEntity
  8
0
  6
Continuous
 62
     7
370
    15
100
AcDbSpline
210
0.0
220
0.0
230
1.0
 70
    24
 71
     3
 72
    11
 73
     7
 74
     0
 42
0.000000001
 43
0.00000001
 40
0.0
 40
0.0
 40
0.0
 40
0.0
 40
0.2164543009645112
 40
0.4403089937225453
 40
0.7518987489759573
 40
1.0
 40
1.0
 40
1.0
 40
1.0
 10
223.9818685910635
 20
110.3713058132956
 30
0.0
 10
224.1686862502245
 20
110.3064833242807
 30
0.0
 10
224.5487087083058
 20
110.1746221194833
 30
0.0
 10
225.2539305178345
 20
109.9299223774646
 30
0.0
 10
226.0104110815775
 20
109.6674367363671
 30
0.0
 10
226.4945143973925
 20
109.4994612783058
 30
0.0
 10
226.7091089449758
 20
109.4250006905549
 30
0.0
  0
SPLINE
  5
B8
330
1F
100
AcDbEntity
  8
0
  6
Continuous
 62
     7
370
    15
100
AcDbSpline
210
0.0
220
0.0
230
1.0
 70
    24
 71
     3
 72
    11
 73
     7
 74
     0
 42
0.000000001
 43
0.00000001
 40
0.0
 40
0.0
 40
0.0
 40
0.0
 40
0.2164543009645067
 40
0.4403089937225366
 40
0.7518987489759565
 40
1.0
 40
1.0
 40
1.0
 40
1.0
 10
226.7091089449759
 20
109.4250006905549
 30
0.0
 10
226.8586556967798
 20
109.5543782847564
 30
0.0
 10
227.1628620789486
 20
109.8175567850648
 30
0.0
 10
227.7273891766006
 20
110.30594691641
 30
0.0
 10
228.3329486917913
 20
110.8298354815318
 30
0.0
 10
228.7204713635921
 20
111.1650935220533
 30
0.0
 10
228.8922533979568
 20
111.3137075578987
 30
0.0
  0
SPLINE
  5
B9
330
1F
100
AcDbEntity
  8
0
  6
Continuous
 62
     7
370
    15
100
AcDbSpline
210
0.0
220
0.0
230
1.0
 70
    24
 71
     3
 72
    11
 73
     7
 74
     0
 42
0.000000001
 43
0.00000001
 40
0.0
 40
0.0
 40
0.0
 40
0.0
 40
0.1849308168246139
 40
0.5198464202157742
 40
0.871443823369267
 40
1.0
 40
1.0
 40
1.0
 40
1.0
 10
228.8922533979568
 20
111.3137075578987
 30
0.0
 10
228.8605843580027
 20
111.4787191079413
 30
0.0
 10
228.7715616773347
 20
111.9425718343653
 30
0.0
 10
228.6053838435835
 20
112.808441528227
 30
0.0
 10
228.4519118149585
 20
113.6081076175138
 30
0.0
 10
228.3700698424115
 20
114.0345452603368
 30
0.0
 10
228.3481574970255
 20
114.1487195479832
 30
0.0
  0
SPLINE
  5
BA
330
1F
100
AcDbEntity
  8
0
  6
Continuous
 62
     7
370
    15
100
AcDbSpline
210
0.0
220
0.0
230
1.0
 70
    24
 71
     3
 72
    11
 73
     7
 74
     0
 42
0.000000001
 43
0.00000001
 40
0.0
 40
0.0
 40
0.0
 40
0.0
 40
0.2164543009645016
 40
0.4403089937225237
 40
0.7518987489759441
 40
1.0
 40
1.0
 40
1.0
 40
1.0
 10
228.3481574970255
 20
114.1487195479832
 30
0.0
 10
228.1613398378644
 20
114.2135420369981
 30
0.0
 10
227.7813173797831
 20
114.3454032417955
 30
0.0
 10
227.0760955702545
 20
114.5901029838142
 30
0.0
 10
226.3196150065115
 20
114.8525886249118
 30
0.0
 10
225.8355116906964
 20
115.020564082973
 30
0.0
 10
225.6209171431131
 20
115.0950246707239
 30
0.0
  0
SPLINE
  5
BB
330
1F
100
AcDbEntity
  8
0
  6
Continuous
 62
     7
370
    15
100
AcDbSpline
210
0.0
220
0.0
230
1.0
 70
    24
 71
     3
 72
    11
 73
     7
 74
     0
 42
0.000000001
 43
0.00000001
 40
0.0
 40
0.0
 40
0.0
 40
0.0
 40
0.216454300964497
 40
0.4403089937225282
 40
0.7518987489759447
 40
1.0
 40
1.0
 40
1.0
 40
1.0
 10
225.6209171431131
 20
115.0950246707239
 30
0.0
 10
225.4713703913091
 20
114.9656470765224
 30
0.0
 10
225.1671640091404
 20
114.702468576214
 30
0.0
 10
224.6026369114884
 20
114.2140784448688
 30
0.0
 10
223.9970773962977
 20
113.690189879747
 30
0.0
 10
223.6095547244968
 20
113.3549318392255
 30
0.0
 10
223.4377726901321
 20
113.2063178033801
 30
0.0
  0
SPLINE
  5
BC
330
1F
100
AcDbEntity
  8
0
  6
Continuous
 62
     7
370
    15
100
AcDbSpline
210
0.0
220
0.0
230
1.0
 70
    24
 71
     3
 72
    11
 73
     7
 74
     0
 42
0.000000001
 43
0.00000001
 40
0.0
 40
0.0
 40
0.0
 40
0.0
 40
0.1285561766307342
 40
0.4801535797842218
 40
0.815069183175385
 40
1.0
 40
1.0
 40
1.0
 40
1.0
 10
223.4377726901321
 20
113.2063178033801
 30
0.0
 10
223.4596850355181
 20
113.0921435157337
 30
0.0
 10
223.5415270080651
 20
112.6657058729107
 30
0.0
 10
223.6949990366901
 20
111.8660397836239
 30
0.0
 10
223.8611768704414
 20
111.0001700897622
 30
0.0
 10
223.9501995511093
 20
110.5363173633382
 30
0.0
 10
223.9818685910635
 20
110.3713058132956
 30
0.0
  0
CIRCLE
  5
BD
330
1F
100
AcDbEntity
  8
0
  6
Continuous
 62
     7
370
    15
100
AcDbCircle
 10
226.165013044
 20
112.2600126806
 30
0.0
 40
3.000000000000005
  0
CIRCLE
  5
BE
330
1F
100
AcDbEntity
  8
0
  6
Continuous
 62
     7
370
    15
100
AcDbCircle
 10
226.165013044
 20
112.2600126806
 30
0.0
 40
4.299999999999992
  0
ARC
  5
BF
330
1F
100
AcDbEntity
  8
0
  6
Continuous
 62
     7
370
    15
100
AcDbCircle
 10
226.165013044
 20
112.2600126806
 30
0.0
 40
2.500000000000019
100
AcDbArc
 50
310.8641123698
 51
10.8641123698
  0
ARC
  5
C0
330
1F
100
AcDbEntity
  8
0
  6
Continuous
 62
     7
370
    15
100
AcDbCircle
 10
226.165013044
 20
112.2600126806
 30
0.0
 40
2.500000000000018
100
AcDbArc
 50
70.8641123698
 51
130.8641123698
  0
ARC
  5
C1
330
1F
100
AcDbEntity
  8
0
  6
Continuous
 62
     7
370
    15
100
AcDbCircle
 10
226.165013044
 20
112.2600126806
 30
0.0
 40
2.499999999999996
100
AcDbArc
 50
250.8641123698
 51
310.8641123698
  0
ARC
  5
C2
330
1F
100
AcDbEntity
  8
0
  6
Continuous
 62
     7
370
    15
100
AcDbCircle
 10
226.165013044
 20
112.2600126806
 30
0.0
 40
2.500000000000019
100
AcDbArc
 50
10.8641123698
 51
70.8641123698
  0
ARC
  5
C3
330
1F
100
AcDbEntity
  8
0
  6
Continuous
 62
     7
370
    15
100
AcDbCircle
 10
226.165013044
 20
112.2600126806
 30
0.0
 40
2.499999999999987
100
AcDbArc
 50
190.8641123698
 51
250.8641123698
  0
ARC
  5
C4
330
1F
100
AcDbEntity
  8
0
  6
Continuous
 62
     7
370
    15
100
AcDbCircle
 10
226.165013044
 20
112.2600126806
 30
0.0
 40
2.500000000000018
100
AcDbArc
 50
130.8641123698
 51
190.8641123698
  0
SPLINE
  5
C5
330
1F
100
AcDbEntity
  8
0
  6
HIDDEN
 62
     7
370
     0
100
AcDbSpline
210
0.0
220
0.0
230
1.0
 70
     8
 71
     3
 72
    17
 73
    13
 74
     0
 42
0.000000001
 43
0.00000001
 40
0.0
 40
0.0
 40
0.0
 40
0.0
 40
0.0000967946242774
 40
0.0001175338766653
 40
0.2495393799843792
 40
0.5019982093521933
 40
0.5864147224260519
 40
0.6698736385015485
 40
0.752663930295611
 40
0.8350816048199919
 40
0.9174266885103952
 40
0.9999999999999999
 40
0.9999999999999999
 40
0.9999999999999999
 40
0.9999999999999999
 10
155.2150128558816
 20
80.76001269115484
 30
0.0
 10
155.2150131372044
 20
80.76001268664109
 30
0.0
 10
155.2150134788035
 20
80.76001268116022
 30
0.0
 10
155.215628142002
 20
80.76001154149607
 30
0.0
 10
155.1114888759495
 20
80.79222820505899
 30
0.0
 10
154.7430022907157
 20
80.90058935709021
 30
0.0
 10
154.3763898877003
 20
81.0054200352523
 30
0.0
 10
154.1268583300056
 20
81.0751127400141
 30
0.0
 10
153.8490725433367
 20
81.15025444892778
 30
0.0
 10
153.5424127667422
 20
81.22991944251346
 30
0.0
 10
153.2092259340725
 20
81.31306862395455
 30
0.0
 10
152.9642284919216
 20
81.37038110618663
 30
0.0
 10
152.841560246922
 20
81.39907700419381
 30
0.0
  0
LWPOLYLINE
  5
C6
330
1F
100
AcDbEntity
  8
0
  6
HIDDEN
 62
     7
370
     0
100
AcDbPolyline
 90
       21
 70
   128
 43
0.0
 10
133.4635840224
 20
103.2723005881
 10
133.6101411052
 20
102.6329241894
 10
133.8403790096
 20
102.0561344074
 10
134.1317604454
 20
101.5983914447
 10
134.4557629674
 20
101.3045023718
 10
134.7806709515
 20
101.2032350988
 10
135.0746801402
 20
101.3045023718
 10
135.3090108657
 20
101.5983914447
 10
135.460725204
 20
102.0561344074
 10
135.5149722985
 20
102.6329241894
 10
135.4664420657
 20
103.2723005881
 10
135.3198849829
 20
103.9116769868
 10
135.0896470785
 20
104.4884667688
 10
134.7982656427
 20
104.9462097315
 10
134.4742631206
 20
105.2400988044
 10
134.1493551366
 20
105.3413660775
 10
133.8553459479
 20
105.2400988044
 10
133.6210152224
 20
104.9462097315
 10
133.4693008841
 20
104.4884667688
 10
133.4150537896
 20
103.9116769868
 10
133.4635840224
 20
103.2723005881
  0
LWPOLYLINE
  5
C7
330
1F
100
AcDbEntity
  8
0
  6
HIDDEN
 62
     7
370
     0
100
AcDbPolyline
 90
       19
 70
   128
 43
0.0
 10
133.8200193167
 20
103.3003097472
 10
133.9522981843
 20
102.7442895453
 10
134.1635264337
 20
102.2553335857
 10
134.4282268205
 20
101.8924171733
 10
134.7144725714
 20
101.6993133837
 10
134.9877382245
 20
101.6993133837
 10
135.2150639089
 20
101.8924171733
 10
135.3690307922
 20
102.2553335857
 10
135.4310681959
 20
102.7442895453
 10
135.3936934936
 20
103.3003097472
 10
135.2614146259
 20
103.8563299492
 10
135.0501863766
 20
104.3452859088
 10
134.7854859898
 20
104.7082023212
 10
134.4992402388
 20
104.9013061108
 10
134.2259745858
 20
104.9013061108
 10
133.9986489013
 20
104.7082023212
 10
133.844682018
 20
104.3452859088
 10
133.7826446143
 20
103.8563299492
 10
133.8200193167
 20
103.3003097472
  0
SPLINE
  5
C8
330
1F
100
AcDbEntity
  8
0
  6
HIDDEN
 62
     7
370
     0
100
AcDbSpline
210
0.0
220
0.0
230
1.0
 70
     8
 71
     3
 72
    12
 73
     8
 74
     0
 42
0.000000001
 43
0.00000001
 40
0.0
 40
0.0
 40
0.0
 40
0.0
 40
0.4999999999999996
 40
0.4999999999999996
 40
0.7499999999999998
 40
0.7499999999999998
 40
1.0
 40
1.0
 40
1.0
 40
1.0
 10
145.8060946567231
 20
105.4814433574331
 30
0.0
 10
145.8791950171984
 20
105.2867083896718
 30
0.0
 10
145.9150987665307
 20
105.0791302146429
 30
0.0
 10
145.9151508845809
 20
104.7833685645714
 30
0.0
 10
145.9061140744906
 20
104.6856725719976
 30
0.0
 10
145.8700616013749
 20
104.5018046631689
 30
0.0
 10
145.8431139602721
 20
104.4145149565619
 30
0.0
 10
145.8060946567231
 20
104.3317158408419
 30
0.0
  0
SPLINE
  5
C9
330
1F
100
AcDbEntity
  8
0
  6
HIDDEN
 62
     7
370
     0
100
AcDbSpline
210
0.0
220
0.0
230
1.0
 70
     8
 71
     3
 72
    50
 73
    46
 74
     0
 42
0.000000001
 43
0.00000001
 40
0.0
 40
0.0
 40
0.0
 40
0.0
 40
0.0624999999999984
 40
0.0624999999999984
 40
0.1249999999999969
 40
0.1249999999999969
 40
0.1874999999999953
 40
0.1874999999999953
 40
0.2499999999999937
 40
0.2499999999999937
 40
0.2812499999999934
 40
0.2812499999999934
 40
0.3124999999999931
 40
0.3124999999999931
 40
0.3749999999999928
 40
0.3749999999999928
 40
0.4062499999999928
 40
0.4062499999999928
 40
0.4374999999999927
 40
0.4374999999999927
 40
0.4687499999999927
 40
0.4687499999999927
 40
0.4999999999999926
 40
0.4999999999999926
 40
0.5312499999999925
 40
0.5312499999999925
 40
0.5624999999999923
 40
0.5624999999999923
 40
0.5937499999999922
 40
0.5937499999999922
 40
0.6249999999999921
 40
0.6249999999999921
 40
0.687499999999992
 40
0.687499999999992
 40
0.7187499999999925
 40
0.7187499999999925
 40
0.7499999999999928
 40
0.7499999999999928
 40
0.8124999999999947
 40
0.8124999999999947
 40
0.8749999999999964
 40
0.8749999999999964
 40
0.9374999999999982
 40
0.9374999999999982
 40
1.0
 40
1.0
 40
1.0
 40
1.0
 10
145.8060946567231
 20
104.3317158408419
 30
0.0
 10
145.8612809520676
 20
104.2008909749036
 30
0.0
 10
145.9304375803486
 20
104.1149740480165
 30
0.0
 10
146.0779760286549
 20
103.9916765409102
 30
0.0
 10
146.154260949878
 20
103.9576516907385
 30
0.0
 10
146.2990530770394
 20
103.9282992681391
 30
0.0
 10
146.3689080701188
 20
103.9333064586322
 30
0.0
 10
146.4775343438127
 20
103.9839289774314
 30
0.0
 10
146.5174375735147
 20
104.0297323803529
 30
0.0
 10
146.515182550012
 20
104.1434437308781
 30
0.0
 10
146.5032911227445
 20
104.1900204659707
 30
0.0
 10
146.4559568336963
 20
104.2979909535157
 30
0.0
 10
146.4203668068623
 20
104.3603420941183
 30
0.0
 10
146.2891630569961
 20
104.5710162960178
 30
0.0
 10
146.1749234611409
 20
104.7381898077718
 30
0.0
 10
146.0215864513135
 20
105.0129287952003
 30
0.0
 10
145.9721520899653
 20
105.1102245340675
 30
0.0
 10
145.8843867550951
 20
105.3094443456553
 30
0.0
 10
145.8459066309981
 20
105.411276378043
 30
0.0
 10
145.7820709730647
 20
105.6202198845705
 30
0.0
 10
145.7569172980757
 20
105.7274182306408
 30
0.0
 10
145.7236049058811
 20
105.9377581971736
 30
0.0
 10
145.7149962519271
 20
106.0421322747191
 30
0.0
 10
145.7150298850243
 20
106.2493146849077
 30
0.0
 10
145.7237294922333
 20
106.3490072032705
 30
0.0
 10
145.7572144284668
 20
106.5388899461089
 30
0.0
 10
145.782428376847
 20
106.6303457268881
 30
0.0
 10
145.8464284098372
 20
106.7981884625867
 30
0.0
 10
145.8849955619884
 20
106.8747258680022
 30
0.0
 10
145.9729451233461
 20
107.0129689906124
 30
0.0
 10
146.0223811241018
 20
107.0743241365654
 30
0.0
 10
146.1756619152131
 20
107.2274667220063
 30
0.0
 10
146.2899754191387
 20
107.2922726735169
 30
0.0
 10
146.4204219856614
 20
107.3131250351629
 30
0.0
 10
146.4564468954539
 20
107.3071557800051
 30
0.0
 10
146.5035751884988
 20
107.2722027101703
 30
0.0
 10
146.5153118942576
 20
107.2427443398203
 30
0.0
 10
146.5172141230938
 20
107.1320333992419
 30
0.0
 10
146.4770907296457
 20
107.0286934946989
 30
0.0
 10
146.3688184522042
 20
106.7982636796925
 30
0.0
 10
146.2994459762976
 20
106.6681511717787
 30
0.0
 10
146.153940368385
 20
106.3814657464599
 30
0.0
 10
146.0780411206739
 20
106.2264363229124
 30
0.0
 10
145.9316143976298
 20
105.8805108308371
 30
0.0
 10
145.8610838158946
 20
105.6904578731069
 30
0.0
 10
145.8060946567231
 20
105.4814433574331
 30
0.0
  0
SPLINE
  5
CA
330
1F
100
AcDbEntity
  8
0
  6
HIDDEN
 62
     7
370
     0
100
AcDbSpline
210
0.0
220
0.0
230
1.0
 70
    11
 71
     3
 72
    62
 73
    58
 74
     0
 42
0.000000001
 43
0.00000001
 40
0.0
 40
0.0
 40
0.0
 40
0.0
 40
0.03125
 40
0.03125
 40
0.0624999999999999
 40
0.0624999999999999
 40
0.1249999999999999
 40
0.1249999999999999
 40
0.1562499999999998
 40
0.1562499999999998
 40
0.1874999999999998
 40
0.1874999999999998
 40
0.2187499999999997
 40
0.2187499999999997
 40
0.2499999999999997
 40
0.2499999999999997
 40
0.3124999999999996
 40
0.3124999999999996
 40
0.3749999999999996
 40
0.3749999999999996
 40
0.4062499999999995
 40
0.4062499999999995
 40
0.4374999999999994
 40
0.4374999999999994
 40
0.4687499999999994
 40
0.4687499999999994
 40
0.4999999999999994
 40
0.4999999999999994
 40
0.5312499999999994
 40
0.5312499999999994
 40
0.5624999999999993
 40
0.5624999999999993
 40
0.5937499999999993
 40
0.5937499999999993
 40
0.6249999999999993
 40
0.6249999999999993
 40
0.6562499999999992
 40
0.6562499999999992
 40
0.6874999999999992
 40
0.6874999999999992
 40
0.7499999999999992
 40
0.7499999999999992
 40
0.7812499999999993
 40
0.7812499999999993
 40
0.8124999999999994
 40
0.8124999999999994
 40
0.8437499999999996
 40
0.8437499999999996
 40
0.8749999999999996
 40
0.8749999999999996
 40
0.9062499999999997
 40
0.9062499999999997
 40
0.9374999999999998
 40
0.9374999999999998
 40
0.9687499999999998
 40
0.9687499999999998
 40
1.0
 40
1.0
 40
1.0
 40
1.0
 10
147.8150130440444
 20
109.3721139649086
 30
0.0
 10
147.9578371157341
 20
109.3721139649086
 30
0.0
 10
148.097200350344
 20
109.3817244785582
 30
0.0
 10
148.3697604097943
 20
109.4193931539094
 30
0.0
 10
148.5039245297982
 20
109.4479596333233
 30
0.0
 10
148.8806189287947
 20
109.5593665976415
 30
0.0
 10
149.1061468086843
 20
109.6696891978941
 30
0.0
 10
149.3896585153815
 20
109.8874345727422
 30
0.0
 10
149.4766017998391
 20
109.970138819984
 30
0.0
 10
149.6279953057525
 20
110.1514215535502
 30
0.0
 10
149.6928960633332
 20
110.2499482376139
 30
0.0
 10
149.8003826486234
 20
110.4652231802388
 30
0.0
 10
149.8430435685788
 20
110.5835226282781
 30
0.0
 10
149.8996291482501
 20
110.8283523390776
 30
0.0
 10
149.9144104623399
 20
110.9559074419705
 30
0.0
 10
149.9161646276907
 20
111.3552132370861
 30
0.0
 10
149.8583970795347
 20
111.6331578262068
 30
0.0
 10
149.6451109717818
 20
112.1541008229174
 30
0.0
 10
149.4902872628764
 20
112.3982834619243
 30
0.0
 10
149.2078228103692
 20
112.7113960892501
 30
0.0
 10
149.1037593822197
 20
112.8085361246293
 30
0.0
 10
148.8816107477258
 20
112.9805537998295
 30
0.0
 10
148.7641107900572
 20
113.0553568830872
 30
0.0
 10
148.5144363169286
 20
113.1806353378073
 30
0.0
 10
148.3803745029716
 20
113.2314084036145
 30
0.0
 10
148.1070413908281
 20
113.2997684658306
 30
0.0
 10
147.966454811503
 20
113.3180818730486
 30
0.0
 10
147.6810877246206
 20
113.3195199357945
 30
0.0
 10
147.5412159269279
 20
113.3027882892372
 30
0.0
 10
147.2666056780606
 20
113.2370028461343
 30
0.0
 10
147.132359148621
 20
113.1876270529411
 30
0.0
 10
146.8802193145027
 20
113.0637914328732
 30
0.0
 10
146.7596157970015
 20
112.988140059417
 30
0.0
 10
146.5361268585426
 20
112.817159896972
 30
0.0
 10
146.4329207744974
 20
112.7219929509435
 30
0.0
 10
146.2422489299204
 20
112.5130770937435
 30
0.0
 10
146.1554296687747
 20
112.3996084253792
 30
0.0
 10
146.0040531600693
 20
112.1627211032188
 30
0.0
 10
145.938552163065
 20
112.0383380094305
 30
0.0
 10
145.775005346584
 20
111.646067549583
 30
0.0
 10
145.7161106720924
 20
111.3723823808198
 30
0.0
 10
145.7144870021611
 20
110.9707852142739
 30
0.0
 10
145.7282753137148
 20
110.8421115559135
 30
0.0
 10
145.7834834624113
 20
110.5945192029372
 30
0.0
 10
145.8253142372986
 20
110.4758659416351
 30
0.0
 10
145.9320092240889
 20
110.2583981802137
 30
0.0
 10
145.997863361434
 20
110.1571598426455
 30
0.0
 10
146.1498073039782
 20
109.9737590685923
 30
0.0
 10
146.2351879637154
 20
109.8919686244701
 30
0.0
 10
146.4248163972744
 20
109.7452442508708
 30
0.0
 10
146.5294012120491
 20
109.6804529682953
 30
0.0
 10
146.7511277592407
 20
109.5703413876445
 30
0.0
 10
146.8691092300919
 20
109.5242604497245
 30
0.0
 10
147.1220064424321
 20
109.4488865550652
 30
0.0
 10
147.2552954125176
 20
109.4202983031667
 30
0.0
 10
147.5288898142645
 20
109.382057181457
 30
0.0
 10
147.6721889723547
 20
109.3721139649086
 30
0.0
 10
147.8150130440444
 20
109.3721139649086
 30
0.0
  0
LWPOLYLINE
  5
CB
330
1F
100
AcDbEntity
  8
0
  6
HIDDEN
 62
     7
370
     0
100
AcDbPolyline
 90
       19
 70
   128
 43
0.0
 10
145.8060946567
 20
104.3317158408
 10
146.0959452308
 20
103.7731662162
 10
146.5562681093
 20
103.3270121525
 10
147.1414151211
 20
103.0374967627
 10
147.793359841
 20
102.9333299996
 10
148.4474518127
 20
103.0248416174
 10
149.0388276464
 20
103.3029568163
 10
149.5088432324
 20
103.7400961497
 10
149.810889217
 20
104.2929104555
 10
149.915013044
 20
104.9065795991
 10
149.810889217
 20
105.5202487428
 10
149.5088432324
 20
106.0730630485
 10
149.0388276464
 20
106.510202382
 10
148.4474518127
 20
106.7883175809
 10
147.793359841
 20
106.8798291987
 10
147.1414151211
 20
106.7756624356
 10
146.5562681093
 20
106.4861470458
 10
146.0959452308
 20
106.0399929821
 10
145.8060946567
 20
105.4814433574
  0
LINE
  5
CC
330
1F
100
AcDbEntity
  8
0
  6
HIDDEN
 62
     7
370
     0
100
AcDbLine
 10
222.0077669309
 20
131.8383874879
 30
0.0
 11
222.3882509045
 21
131.7825086978
 31
0.0
  0
LINE
  5
CD
330
1F
100
AcDbEntity
  8
0
  6
HIDDEN
 62
     7
370
     0
100
AcDbLine
 10
209.715013044
 20
112.2600126806
 30
0.0
 11
209.715013044
 21
101.7600126806
 31
0.0
  0
LINE
  5
CE
330
1F
100
AcDbEntity
  8
0
  6
HIDDEN
 62
     7
370
     0
100
AcDbLine
 10
209.715013044
 20
122.7600126806
 30
0.0
 11
209.715013044
 21
112.2600126806
 31
0.0
  0
LINE
  5
CF
330
1F
100
AcDbEntity
  8
0
  6
HIDDEN
 62
     7
370
     0
100
AcDbLine
 10
213.5810384478
 20
112.2600126806
 30
0.0
 11
213.5810384478
 21
101.2600126806
 31
0.0
  0
LINE
  5
D0
330
1F
100
AcDbEntity
  8
0
  6
HIDDEN
 62
     7
370
     0
100
AcDbLine
 10
213.5810384478
 20
123.2600126806
 30
0.0
 11
213.5810384478
 21
112.2600126806
 31
0.0
  0
SPLINE
  5
D1
330
1F
100
AcDbEntity
  8
0
  6
HIDDEN
 62
     7
370
     0
100
AcDbSpline
210
0.0
220
0.0
230
1.0
 70
     8
 71
     3
 72
    23
 73
    19
 74
     0
 42
0.000000001
 43
0.00000001
 40
0.0
 40
0.0
 40
0.0
 40
0.0
 40
0.0496379100584468
 40
0.1507191781645389
 40
0.2022728257491684
 40
0.2519055354140383
 40
0.3527220019295737
 40
0.4039851185790564
 40
0.4563101469956967
 40
0.5625956856621613
 40
0.6166735122522572
 40
0.6710090739617419
 40
0.7257454565572935
 40
0.7817945218764751
 40
0.8383206859664198
 40
0.889872305399394
 40
0.9949379420502079
 40
1.0
 40
1.0
 40
1.0
 40
1.0
 10
226.1650130440444
 20
122.2974426305817
 30
0.0
 10
226.2832287519147
 20
122.2987031313366
 30
0.0
 10
226.6421756599407
 20
122.3025304809897
 30
0.0
 10
227.1193930742876
 20
122.3382157630723
 30
0.0
 10
227.5795391203848
 20
122.3947262130078
 30
0.0
 10
228.0255101212844
 20
122.4644269034901
 30
0.0
 10
228.4473606683524
 20
122.5504382452399
 30
0.0
 10
228.8424650368501
 20
122.6471357301734
 30
0.0
 10
229.2240832912616
 20
122.7505305795586
 30
0.0
 10
229.5709268819566
 20
122.8577615085771
 30
0.0
 10
229.8729344556119
 20
122.9597800542647
 30
0.0
 10
230.0765829317746
 20
123.0321940995844
 30
0.0
 10
230.2547141718805
 20
123.0982768752955
 30
0.0
 10
230.4046070485277
 20
123.1558370491464
 30
0.0
 10
230.520492425199
 20
123.2015693163495
 30
0.0
 10
230.6264065381352
 20
123.2441390152447
 30
0.0
 10
230.6737731722609
 20
123.2635929214264
 30
0.0
 10
230.6640639779357
 20
123.2596248886448
 30
0.0
 10
230.6636176914272
 20
123.259442496632
 30
0.0
  0
SPLINE
  5
D2
330
1F
100
AcDbEntity
  8
0
  6
HIDDEN
 62
     7
370
     0
100
AcDbSpline
210
0.0
220
0.0
230
1.0
 70
     8
 71
     3
 72
    23
 73
    19
 74
     0
 42
0.000000001
 43
0.00000001
 40
0.0
 40
0.0
 40
0.0
 40
0.0
 40
0.0776728694925424
 40
0.1296683099425248
 40
0.1781666082216663
 40
0.2767003291562132
 40
0.3268191917232771
 40
0.3775380533532954
 40
0.4805116525365538
 40
0.5328573792006047
 40
0.586794664823772
 40
0.6411020412243083
 40
0.6966026960975985
 40
0.7525328618150772
 40
0.8058480527596277
 40
0.9145760789337462
 40
0.9701868906433405
 40
0.9999999999999999
 40
0.9999999999999999
 40
0.9999999999999999
 40
0.9999999999999999
 10
221.6756964789872
 20
123.255653081569
 30
0.0
 10
221.6774566555944
 20
123.2549191559764
 30
0.0
 10
221.680395122106
 20
123.2536939290491
 30
0.0
 10
221.7544933900716
 20
123.2236369691652
 30
0.0
 10
221.8674627357672
 20
123.1785070823332
 30
0.0
 10
222.0329211279574
 20
123.1139949597771
 30
0.0
 10
222.2479401209802
 20
123.0342695066508
 30
0.0
 10
222.499819859855
 20
122.9444343322666
 30
0.0
 10
222.8017218261348
 20
122.8438408297827
 30
0.0
 10
223.1502475547284
 20
122.7393053534803
 30
0.0
 10
223.4385940034102
 20
122.6597790888132
 30
0.0
 10
223.7525379973966
 20
122.5816774398542
 30
0.0
 10
224.0889705538278
 20
122.5079950864939
 30
0.0
 10
224.4402155919159
 20
122.4425448445737
 30
0.0
 10
224.9233597203379
 20
122.3688843791685
 30
0.0
 10
225.4299480559852
 20
122.3187658651997
 30
0.0
 10
225.8905712837851
 20
122.2992062869119
 30
0.0
 10
226.0940118894623
 20
122.2978989082109
 30
0.0
 10
226.1650130440444
 20
122.2974426305817
 30
0.0
  0
LINE
  5
D3
330
1F
100
AcDbEntity
  8
0
  6
HIDDEN
 62
     7
370
     0
100
AcDbLine
 10
133.215013044
 20
134.7600126806
 30
0.0
 11
133.5522713442
 21
134.7600126806
 31
0.0
  0
ELLIPSE
  5
D4
330
1F
100
AcDbEntity
  8
0
  6
HIDDEN
 62
     7
370
     0
100
AcDbEllipse
 10
133.5522713442
 20
136.3600126806
 30
0.0
 11
0.0
 21
1.599999999999994
 31
0.0
210
0.0
220
0.0
230
1.0
 40
0.4142135624
 41
3.141592653589793
 42
4.712388980384695
  0
ELLIPSE
  5
D5
330
1F
100
AcDbEntity
  8
0
  6
HIDDEN
 62
     7
370
     0
100
AcDbEllipse
 10
133.5522713442
 20
88.1600126806
 30
0.0
 11
0.0
 21
1.600000000000009
 31
0.0
210
0.0
220
0.0
230
1.0
 40
0.4142135624
 41
4.712388980384695
 42
6.283185307179586
  0
LINE
  5
D6
330
1F
100
AcDbEntity
  8
0
  6
HIDDEN
 62
     7
370
     0
100
AcDbLine
 10
133.5522713442
 20
89.7600126806
 30
0.0
 11
133.215013044
 21
89.7600126806
 31
0.0
  0
LINE
  5
D7
330
1F
100
AcDbEntity
  8
0
  6
HIDDEN
 62
     7
370
     0
100
AcDbLine
 10
134.215013044
 20
82.8059899579
 30
0.0
 11
133.602045867
 21
82.1930227808
 31
0.0
  0
LINE
  5
D8
330
1F
100
AcDbEntity
  8
0
  6
HIDDEN
 62
     7
370
     0
100
AcDbLine
 10
133.602045867
 20
142.3270025805
 30
0.0
 11
134.215013044
 21
141.7140354034
 31
0.0
  0
LINE
  5
D9
330
1F
100
AcDbEntity
  8
0
  6
HIDDEN
 62
     7
370
     0
100
AcDbLine
 10
72.815013044
 20
103.7600126806
 30
0.0
 11
72.815013044
 21
120.7600126806
 31
0.0
  0
LINE
  5
DA
330
1F
100
AcDbEntity
  8
0
  6
HIDDEN
 62
     7
370
     0
100
AcDbLine
 10
75.8109422584
 20
105.2600126806
 30
0.0
 11
75.8109422584
 21
119.2600126806
 31
0.0
  0
LINE
  5
DB
330
1F
100
AcDbEntity
  8
0
  6
HIDDEN
 62
     7
370
     0
100
AcDbLine
 10
134.215013044
 20
141.7140354034
 30
0.0
 11
143.3475745876
 21
141.7140354034
 31
0.0
  0
LINE
  5
DC
330
1F
100
AcDbEntity
  8
0
  6
HIDDEN
 62
     7
370
     0
100
AcDbLine
 10
134.215013044
 20
141.7140354034
 30
0.0
 11
134.215013044
 21
136.3600126806
 31
0.0
  0
LINE
  5
DD
330
1F
100
AcDbEntity
  8
0
  6
HIDDEN
 62
     7
370
     0
100
AcDbLine
 10
143.3475745876
 20
82.8059899579
 30
0.0
 11
134.215013044
 21
82.8059899579
 31
0.0
  0
LINE
  5
DE
330
1F
100
AcDbEntity
  8
0
  6
HIDDEN
 62
     7
370
     0
100
AcDbLine
 10
134.215013044
 20
82.8059899579
 30
0.0
 11
134.215013044
 21
88.1600126806
 31
0.0
  0
LINE
  5
DF
330
1F
100
AcDbEntity
  8
0
  6
HIDDEN
 62
     7
370
     0
100
AcDbLine
 10
133.5522713442
 20
134.7600126806
 30
0.0
 11
146.165013044
 21
134.7600126806
 31
0.0
  0
LINE
  5
E0
330
1F
100
AcDbEntity
  8
0
  6
HIDDEN
 62
     7
370
     0
100
AcDbLine
 10
146.165013044
 20
89.7600126806
 30
0.0
 11
133.5522713442
 21
89.7600126806
 31
0.0
  0
LINE
  5
E1
330
1F
100
AcDbEntity
  8
0
  6
HIDDEN
 62
     7
370
     0
100
AcDbLine
 10
146.165013044
 20
134.7600126806
 30
0.0
 11
152.615013044
 21
134.7600126806
 31
0.0
  0
LINE
  5
E2
330
1F
100
AcDbEntity
  8
0
  6
HIDDEN
 62
     7
370
     0
100
AcDbLine
 10
152.615013044
 20
89.7600126806
 30
0.0
 11
146.165013044
 21
89.7600126806
 31
0.0
  0
SPLINE
  5
E3
330
1F
100
AcDbEntity
  8
0
  6
HIDDEN
 62
     7
370
     0
100
AcDbSpline
210
0.0
220
0.0
230
1.0
 70
     8
 71
     3
 72
    22
 73
    18
 74
     0
 42
0.000000001
 43
0.00000001
 40
0.0
 40
0.0
 40
0.0
 40
0.0
 40
0.04793664067658
 40
0.0947413351471304
 40
0.1404146906340693
 40
0.1849573613338597
 40
0.228370053265296
 40
0.270653529757638
 40
0.3118086176819161
 40
0.3518362145485119
 40
0.3907372966184057
 40
0.4285129282052885
 40
0.4651642723825996
 40
0.5006926033553193
 40
0.7601481598668187
 40
0.9994104155412957
 40
1.0
 40
1.0
 40
1.0
 40
1.0
 10
152.1912766746569
 20
142.1648734563504
 30
0.0
 10
152.2519388223177
 20
142.1803596472983
 30
0.0
 10
152.3718306791762
 20
142.2109663478521
 30
0.0
 10
152.540645535797
 20
142.2551280915037
 30
0.0
 10
152.6989709586156
 20
142.2973030958909
 30
0.0
 10
152.8465297818501
 20
142.3374112350045
 30
0.0
 10
152.983833872241
 20
142.3754732637221
 30
0.0
 10
153.1112118373037
 20
142.4114838817859
 30
0.0
 10
153.2290564045133
 20
142.4454445847787
 30
0.0
 10
153.3377571980825
 20
142.4773548787776
 30
0.0
 10
153.4377150902644
 20
142.5072156732446
 30
0.0
 10
153.5293348156148
 20
142.5350243740661
 30
0.0
 10
153.6130267122317
 20
142.5607905539231
 30
0.0
 10
153.8500166181761
 20
142.6345001342247
 30
0.0
 10
154.1294303581366
 20
142.7268690166884
 30
0.0
 10
154.2151474020424
 20
142.7599508057553
 30
0.0
 10
154.2150126310913
 20
142.7600123282932
 30
0.0
 10
154.2150122998083
 20
142.7600124795229
 30
0.0
  0
LINE
  5
E4
330
1F
100
AcDbEntity
  8
0
  6
HIDDEN
 62
     7
370
     0
100
AcDbLine
 10
152.1912548102
 20
82.3549647872
 30
0.0
 11
152.2851975402
 21
82.3299811158
 31
0.0
  0
SPLINE
  5
E5
330
1F
100
AcDbEntity
  8
0
  6
HIDDEN
 62
     7
370
     0
100
AcDbSpline
210
0.0
220
0.0
230
1.0
 70
     8
 71
     3
 72
    13
 73
     9
 74
     0
 42
0.000000001
 43
0.00000001
 40
0.0
 40
0.0
 40
0.0
 40
0.0
 40
0.0000729225245184
 40
0.1576810837176015
 40
0.3241445774567602
 40
0.4996852408392112
 40
0.7294243771557649
 40
1.0
 40
1.0
 40
1.0
 40
1.0
 10
154.2149804688682
 20
81.76002511975271
 30
0.0
 10
154.2149913276095
 20
81.7600208298998
 30
0.0
 10
154.2384712894791
 20
81.7507448392557
 30
0.0
 10
154.1668860744161
 20
81.77891034133042
 30
0.0
 10
154.0112697359745
 20
81.83249927118267
 30
0.0
 10
153.6750165136601
 20
81.94102255999887
 30
0.0
 10
153.1177034476736
 20
82.11208862334269
 30
0.0
 10
152.5164456824019
 20
82.26985261236428
 30
0.0
 10
152.1912789921344
 20
82.35517308075002
 30
0.0
  0
LINE
  5
E6
330
1F
100
AcDbEntity
  8
0
  6
HIDDEN
 62
     7
370
     0
100
AcDbLine
 10
108.815013044
 20
105.2600126806
 30
0.0
 11
108.815013044
 21
119.2600126806
 31
0.0
  0
LINE
  5
E7
330
1F
100
AcDbEntity
  8
0
  6
HIDDEN
 62
     7
370
     0
100
AcDbLine
 10
110.9781112725
 20
115.6600126806
 30
0.0
 11
110.9781112725
 21
108.8600126806
 31
0.0
  0
SPLINE
  5
E8
330
1F
100
AcDbEntity
  8
0
  6
HIDDEN
 62
     7
370
     0
100
AcDbSpline
210
0.0
220
0.0
230
1.0
 70
     8
 71
     3
 72
     9
 73
     5
 74
     0
 42
0.000000001
 43
0.00000001
 40
0.0
 40
0.0
 40
0.0
 40
0.0
 40
0.4932377403388442
 40
1.0
 40
1.0
 40
1.0
 40
1.0
 10
152.1920725827419
 20
142.1648441918117
 30
0.0
 10
152.2979209239031
 20
142.3218662525879
 30
0.0
 10
152.5125199549677
 20
142.6402159000993
 30
0.0
 10
152.7303795979296
 20
142.9600414488754
 30
0.0
 10
152.840782642886
 20
143.1221169666705
 30
0.0
  0
SPLINE
  5
E9
330
1F
100
AcDbEntity
  8
0
  6
HIDDEN
 62
     7
370
     0
100
AcDbSpline
210
0.0
220
0.0
230
1.0
 70
     8
 71
     3
 72
     9
 73
     5
 74
     0
 42
0.000000001
 43
0.00000001
 40
0.0
 40
0.0
 40
0.0
 40
0.0
 40
0.506764932008893
 40
1.0
 40
1.0
 40
1.0
 40
1.0
 10
152.8407863281719
 20
81.39792253016226
 30
0.0
 10
152.7303818884001
 20
81.5599992656807
 30
0.0
 10
152.5125206418964
 20
81.87982553084066
 30
0.0
 10
152.2979206801908
 20
82.19817461236562
 30
0.0
 10
152.1920724534881
 20
82.35519554323646
 30
0.0
  0
LINE
  5
EA
330
1F
100
AcDbEntity
  8
0
  6
HIDDEN
 62
     7
370
     0
100
AcDbLine
 10
226.165013044
 20
130.5100126806
 30
0.0
 11
230.665013044
 21
130.5100126806
 31
0.0
  0
LINE
  5
EB
330
1F
100
AcDbEntity
  8
0
  6
HIDDEN
 62
     7
370
     0
100
AcDbLine
 10
221.665013044
 20
130.5100126806
 30
0.0
 11
226.165013044
 21
130.5100126806
 31
0.0
  0
SPLINE
  5
EC
330
1F
100
AcDbEntity
  8
0
  6
HIDDEN
 62
     7
370
     0
100
AcDbSpline
210
0.0
220
0.0
230
1.0
 70
    11
 71
     3
 72
    62
 73
    58
 74
     0
 42
0.000000001
 43
0.00000001
 40
0.0
 40
0.0
 40
0.0
 40
0.0
 40
0.03125
 40
0.03125
 40
0.0625
 40
0.0625
 40
0.1249999999999996
 40
0.1249999999999996
 40
0.1562499999999996
 40
0.1562499999999996
 40
0.1874999999999995
 40
0.1874999999999995
 40
0.2187499999999995
 40
0.2187499999999995
 40
0.2499999999999994
 40
0.2499999999999994
 40
0.3124999999999994
 40
0.3124999999999994
 40
0.3749999999999993
 40
0.3749999999999993
 40
0.4062499999999994
 40
0.4062499999999994
 40
0.4374999999999995
 40
0.4374999999999995
 40
0.4687499999999996
 40
0.4687499999999996
 40
0.4999999999999997
 40
0.4999999999999997
 40
0.5312499999999998
 40
0.5312499999999998
 40
0.5624999999999999
 40
0.5624999999999999
 40
0.59375
 40
0.59375
 40
0.625
 40
0.625
 40
0.6562500000000001
 40
0.6562500000000001
 40
0.6875000000000002
 40
0.6875000000000002
 40
0.7500000000000001
 40
0.7500000000000001
 40
0.7812500000000001
 40
0.7812500000000001
 40
0.8125000000000001
 40
0.8125000000000001
 40
0.8437500000000001
 40
0.8437500000000001
 40
0.875
 40
0.875
 40
0.90625
 40
0.90625
 40
0.9375
 40
0.9375
 40
0.96875
 40
0.96875
 40
1.0
 40
1.0
 40
1.0
 40
1.0
 10
147.8150130440445
 20
111.2012023890693
 30
0.0
 10
147.6721889723547
 20
111.2012023890693
 30
0.0
 10
147.5328257377449
 20
111.2186625997227
 30
0.0
 10
147.2602656782946
 20
111.2851581948093
 30
0.0
 10
147.1261015582907
 20
111.3349900114172
 30
0.0
 10
146.7494071592941
 20
111.5214779754205
 30
0.0
 10
146.5238792794046
 20
111.6976905625844
 30
0.0
 10
146.2403675727074
 20
112.0093570984676
 30
0.0
 10
146.1534242882498
 20
112.1231655921042
 30
0.0
 10
146.0020307823364
 20
112.36086908386
 30
0.0
 10
145.9371300247557
 20
112.4848395192045
 30
0.0
 10
145.8296434394655
 20
112.7431692104146
 30
0.0
 10
145.7869825195101
 20
112.8791280765984
 30
0.0
 10
145.7303969398388
 20
113.1475537119662
 30
0.0
 10
145.715615625749
 20
113.2813898298633
 30
0.0
 10
145.7138614603982
 20
113.6814367479967
 30
0.0
 10
145.7716290085542
 20
113.9344180773457
 30
0.0
 10
145.9849151163071
 20
114.3697789016434
 30
0.0
 10
146.1397388252125
 20
114.5537658135776
 30
0.0
 10
146.4222032777197
 20
114.7729745676407
 30
0.0
 10
146.5262667058692
 20
114.83778910426
 30
0.0
 10
146.7484153403631
 20
114.9485577376648
 30
0.0
 10
146.8659152980317
 20
114.9945302088825
 30
0.0
 10
147.1155897711603
 20
115.0694984773189
 30
0.0
 10
147.2496515851173
 20
115.0986534459501
 30
0.0
 10
147.5229846972607
 20
115.1374157833791
 30
0.0
 10
147.6635712765859
 20
115.1474997891665
 30
0.0
 10
147.9489383634683
 20
115.1482984907364
 30
0.0
 10
148.088810161161
 20
115.1390953620208
 30
0.0
 10
148.3634204100283
 20
115.1018544059861
 30
0.0
 10
148.4976669394679
 20
115.0735764538609
 30
0.0
 10
148.7498067735862
 20
114.9996710896905
 30
0.0
 10
148.8704102910874
 20
114.9532980165284
 30
0.0
 10
149.0938992295463
 20
114.8434739693708
 30
0.0
 10
149.1971053135915
 20
114.7801718347603
 30
0.0
 10
149.3877771581685
 20
114.6343326520858
 30
0.0
 10
149.4745964193142
 20
114.551911150234
 30
0.0
 10
149.6259729280196
 20
114.3713922430911
 30
0.0
 10
149.6914739250239
 20
114.272664497096
 30
0.0
 10
149.8550207415049
 20
113.9458897473762
 30
0.0
 10
149.9139154159965
 20
113.6976556146143
 30
0.0
 10
149.9155390859278
 20
113.2967444381938
 30
0.0
 10
149.9017507743741
 20
113.1622080178996
 30
0.0
 10
149.8465426256776
 20
112.8915743669357
 30
0.0
 10
149.8047118507903
 20
112.755581897557
 30
0.0
 10
149.698016864
 20
112.4953078619123
 30
0.0
 10
149.6321627266549
 20
112.368206172838
 30
0.0
 10
149.4802187841107
 20
112.1280903870889
 30
0.0
 10
149.3948381243735
 20
112.0156880732084
 30
0.0
 10
149.2052096908144
 20
111.8059859843308
 30
0.0
 10
149.1006248760398
 20
111.7087789758986
 30
0.0
 10
148.8788983288482
 20
111.5376619066842
 30
0.0
 10
148.7609168579969
 20
111.4626570112992
 30
0.0
 10
148.5080196456567
 20
111.3365950498949
 30
0.0
 10
148.3747306755713
 20
111.2867416862817
 30
0.0
 10
148.1011362738244
 20
111.2192638013993
 30
0.0
 10
147.9578371157342
 20
111.2012023890693
 30
0.0
 10
147.8150130440445
 20
111.2012023890693
 30
0.0
  0
SPLINE
  5
ED
330
1F
100
AcDbEntity
  8
0
  6
HIDDEN
 62
     7
370
     0
100
AcDbSpline
210
0.0
220
0.0
230
1.0
 70
    11
 71
     3
 72
    56
 73
    52
 74
     0
 42
0.000000001
 43
0.00000001
 40
0.0
 40
0.0
 40
0.0
 40
0.0
 40
0.031250000000001
 40
0.031250000000001
 40
0.062500000000002
 40
0.062500000000002
 40
0.1250000000000037
 40
0.1250000000000037
 40
0.156250000000004
 40
0.156250000000004
 40
0.1875000000000044
 40
0.1875000000000044
 40
0.2187500000000047
 40
0.2187500000000047
 40
0.2500000000000051
 40
0.2500000000000051
 40
0.3125000000000057
 40
0.3125000000000057
 40
0.3437500000000059
 40
0.3437500000000059
 40
0.3750000000000061
 40
0.3750000000000061
 40
0.4375000000000058
 40
0.4375000000000058
 40
0.4687500000000057
 40
0.4687500000000057
 40
0.5000000000000054
 40
0.5000000000000054
 40
0.5312500000000053
 40
0.5312500000000053
 40
0.5625000000000052
 40
0.5625000000000052
 40
0.6250000000000041
 40
0.6250000000000041
 40
0.687500000000003
 40
0.687500000000003
 40
0.7500000000000018
 40
0.7500000000000018
 40
0.7812500000000017
 40
0.7812500000000017
 40
0.8125000000000016
 40
0.8125000000000016
 40
0.8437500000000013
 40
0.8437500000000013
 40
0.8750000000000011
 40
0.8750000000000011
 40
0.9062500000000009
 40
0.9062500000000009
 40
0.9375000000000007
 40
0.9375000000000007
 40
1.0
 40
1.0
 40
1.0
 40
1.0
 10
145.7744370432072
 20
117.9268927696157
 30
0.0
 10
145.8031085598042
 20
117.8250787047429
 30
0.0
 10
145.840878479388
 20
117.7326757870931
 30
0.0
 10
145.9311766161577
 20
117.5658977023975
 30
0.0
 10
145.984452312331
 20
117.4910280132746
 30
0.0
 10
146.1533833891052
 20
117.3049073487596
 30
0.0
 10
146.2845701050895
 20
117.2268908511762
 30
0.0
 10
146.429855625093
 20
117.2063163006215
 30
0.0
 10
146.4679965578946
 20
117.2158645205542
 30
0.0
 10
146.5127730910588
 20
117.2632207497343
 30
0.0
 10
146.5196678290987
 20
117.3013215119944
 30
0.0
 10
146.5084192834848
 20
117.3934419899585
 30
0.0
 10
146.4907584382801
 20
117.4484974320978
 30
0.0
 10
146.4420344325182
 20
117.5681041902772
 30
0.0
 10
146.4110954341267
 20
117.6327820593799
 30
0.0
 10
146.307439898808
 20
117.8401434418034
 30
0.0
 10
146.2236345621459
 20
117.9969311970263
 30
0.0
 10
146.0981842976936
 20
118.2560764596792
 30
0.0
 10
146.056091117646
 20
118.3468288342289
 30
0.0
 10
145.9733501263331
 20
118.5398300562671
 30
0.0
 10
145.9325198929255
 20
118.6426110187955
 30
0.0
 10
145.8196701367654
 20
118.9648521319754
 30
0.0
 10
145.7549799534014
 20
119.2037986706866
 30
0.0
 10
145.7145102756635
 20
119.5725657756638
 30
0.0
 10
145.7114684794735
 20
119.6923251863088
 30
0.0
 10
145.7272716360509
 20
119.9114234475179
 30
0.0
 10
145.7460147335957
 20
120.0097524558418
 30
0.0
 10
145.7972886369892
 20
120.1766275030484
 30
0.0
 10
145.8298131830215
 20
120.2465021491445
 30
0.0
 10
145.9019663314635
 20
120.3631112094371
 30
0.0
 10
145.9410715082162
 20
120.4093318492101
 30
0.0
 10
146.0630692466626
 20
120.5221506666982
 30
0.0
 10
146.1506010593924
 20
120.5626039560579
 30
0.0
 10
146.312717612345
 20
120.5934620754803
 30
0.0
 10
146.3902752696335
 20
120.5845588899119
 30
0.0
 10
146.5014200927374
 20
120.5134828414737
 30
0.0
 10
146.5341530790794
 20
120.4512439227635
 30
0.0
 10
146.4905246967594
 20
120.2933426394906
 30
0.0
 10
146.4602094357633
 20
120.2300872366203
 30
0.0
 10
146.3753524521262
 20
120.0847731707606
 30
0.0
 10
146.3205033778632
 20
120.0014012550014
 30
0.0
 10
146.2056646924508
 20
119.8228080975108
 30
0.0
 10
146.1442452632713
 20
119.7250613490934
 30
0.0
 10
146.0280372763843
 20
119.5200830499939
 30
0.0
 10
145.9725232114158
 20
119.4118011146804
 30
0.0
 10
145.8743192360705
 20
119.186451210552
 30
0.0
 10
145.8324288178243
 20
119.071545255091
 30
0.0
 10
145.7659221375197
 20
118.8362778520578
 30
0.0
 10
145.7414786425923
 20
118.7152805175621
 30
0.0
 10
145.7009887167969
 20
118.3620790853857
 30
0.0
 10
145.7170940100133
 20
118.1305208993614
 30
0.0
 10
145.7744370432072
 20
117.9268927696157
 30
0.0
  0
SPLINE
  5
EE
330
1F
100
AcDbEntity
  8
0
  6
HIDDEN
 62
     7
370
     0
100
AcDbSpline
210
0.0
220
0.0
230
1.0
 70
     8
 71
     3
 72
    22
 73
    18
 74
     0
 42
0.000000001
 43
0.00000001
 40
0.0
 40
0.0
 40
0.0
 40
0.0
 40
0.1250000000000006
 40
0.1250000000000006
 40
0.2500000000000012
 40
0.2500000000000012
 40
0.3750000000000018
 40
0.3750000000000018
 40
0.5000000000000023
 40
0.5000000000000023
 40
0.6250000000000029
 40
0.6250000000000029
 40
0.7500000000000036
 40
0.7500000000000036
 40
0.8750000000000018
 40
0.8750000000000018
 40
1.0
 40
1.0
 40
1.0
 40
1.0
 10
149.4913814827446
 20
120.1246676562946
 30
0.0
 10
149.3931032591892
 20
120.0001389363624
 30
0.0
 10
149.281780491882
 20
119.8885357969301
 30
0.0
 10
149.0339718835172
 20
119.6905519537418
 30
0.0
 10
148.8960203579671
 20
119.603897431553
 30
0.0
 10
148.6077593963831
 20
119.46537385633
 30
0.0
 10
148.4553158774708
 20
119.4119301050535
 30
0.0
 10
148.1384041391952
 20
119.3397499549083
 30
0.0
 10
147.9784156350867
 20
119.3218319155149
 30
0.0
 10
147.6554455284648
 20
119.3215467740174
 30
0.0
 10
147.491883044812
 20
119.3398450838857
 30
0.0
 10
147.1783848136721
 20
119.4109405060765
 30
0.0
 10
147.0248828474433
 20
119.4642510583405
 30
0.0
 10
146.734280149569
 20
119.603632496365
 30
0.0
 10
146.5994599061553
 20
119.6881863934728
 30
0.0
 10
146.3505118295259
 20
119.8863778413789
 30
0.0
 10
146.2369225963568
 20
120.0001392310184
 30
0.0
 10
146.1386446053443
 20
120.1246676562946
 30
0.0
  0
SPLINE
  5
EF
330
1F
100
AcDbEntity
  8
0
  6
HIDDEN
 62
     7
370
     0
100
AcDbSpline
210
0.0
220
0.0
230
1.0
 70
     8
 71
     3
 72
    18
 73
    14
 74
     0
 42
0.000000001
 43
0.00000001
 40
0.0
 40
0.0
 40
0.0
 40
0.0
 40
0.2499999999999999
 40
0.2499999999999999
 40
0.3749999999999997
 40
0.3749999999999997
 40
0.4999999999999996
 40
0.4999999999999996
 40
0.6249999999999994
 40
0.6249999999999994
 40
0.7499999999999992
 40
0.7499999999999992
 40
1.0
 40
1.0
 40
1.0
 40
1.0
 10
149.4913814827446
 20
122.5017659808734
 30
0.0
 10
149.629951831475
 20
122.3321859866377
 30
0.0
 10
149.7344372510256
 20
122.1585747784958
 30
0.0
 10
149.8419934841635
 20
121.8755435160923
 30
0.0
 10
149.8690034581356
 20
121.7788704809995
 30
0.0
 10
149.9055444202481
 20
121.577802053828
 30
0.0
 10
149.9150202407602
 20
121.4720581567414
 30
0.0
 10
149.9150058389495
 20
121.2578086644621
 30
0.0
 10
149.9057837259277
 20
121.1497806660519
 30
0.0
 10
149.8695389798962
 20
120.9327877765204
 30
0.0
 10
149.8421646886174
 20
120.8229381587854
 30
0.0
 10
149.7349045667194
 20
120.5033543688695
 30
0.0
 10
149.6297140445802
 20
120.2999493843018
 30
0.0
 10
149.4913814827449
 20
120.1246676562944
 30
0.0
  0
SPLINE
  5
F0
330
1F
100
AcDbEntity
  8
0
  6
HIDDEN
 62
     7
370
     0
100
AcDbSpline
210
0.0
220
0.0
230
1.0
 70
     8
 71
     3
 72
    22
 73
    18
 74
     0
 42
0.000000001
 43
0.00000001
 40
0.0
 40
0.0
 40
0.0
 40
0.0
 40
0.1249999999999982
 40
0.1249999999999982
 40
0.2499999999999963
 40
0.2499999999999963
 40
0.3749999999999969
 40
0.3749999999999969
 40
0.4999999999999976
 40
0.4999999999999976
 40
0.6249999999999981
 40
0.6249999999999981
 40
0.7499999999999988
 40
0.7499999999999988
 40
0.8749999999999993
 40
0.8749999999999993
 40
1.0
 40
1.0
 40
1.0
 40
1.0
 10
146.1386446053443
 20
122.5017659808734
 30
0.0
 10
146.2369228288997
 20
122.6220371697442
 30
0.0
 10
146.3482455962069
 20
122.7291853781402
 30
0.0
 10
146.5960542045716
 20
122.9185634165607
 30
0.0
 10
146.7340057301218
 20
123.0010435701182
 30
0.0
 10
147.0222666917058
 20
123.1325784014297
 30
0.0
 10
147.174710210618
 20
123.1831384072148
 30
0.0
 10
147.4916219488937
 20
123.2513650826146
 30
0.0
 10
147.6516104530021
 20
123.2682621542403
 30
0.0
 10
147.9745805596241
 20
123.2685312592228
 30
0.0
 10
148.1381430432768
 20
123.2512747299221
 30
0.0
 10
148.4516412744168
 20
123.184074232276
 30
0.0
 10
148.6051432406456
 20
123.1336432266439
 30
0.0
 10
148.8957459385199
 20
123.0012964515088
 30
0.0
 10
149.0305661819336
 20
122.9208199141742
 30
0.0
 10
149.2795142585629
 20
122.7312556309674
 30
0.0
 10
149.393103491732
 20
122.6220368851622
 30
0.0
 10
149.4913814827446
 20
122.5017659808734
 30
0.0
  0
SPLINE
  5
F1
330
1F
100
AcDbEntity
  8
0
  6
HIDDEN
 62
     7
370
     0
100
AcDbSpline
210
0.0
220
0.0
230
1.0
 70
     8
 71
     3
 72
    18
 73
    14
 74
     0
 42
0.000000001
 43
0.00000001
 40
0.0
 40
0.0
 40
0.0
 40
0.0
 40
0.2500000000000013
 40
0.2500000000000013
 40
0.3750000000000007
 40
0.3750000000000007
 40
0.5000000000000001
 40
0.5000000000000001
 40
0.6249999999999996
 40
0.6249999999999996
 40
0.7499999999999989
 40
0.7499999999999989
 40
1.0
 40
1.0
 40
1.0
 40
1.0
 10
146.1386446053443
 20
120.1246676562946
 30
0.0
 10
146.0000742566139
 20
120.3002506850032
 30
0.0
 10
145.8955888370633
 20
120.5022437006341
 30
0.0
 10
145.7880326039254
 20
120.822287991432
 30
0.0
 10
145.7610226299533
 20
120.9303472672771
 30
0.0
 10
145.7244816678408
 20
121.1475984963938
 30
0.0
 10
145.7150058473286
 20
121.2580614295818
 30
0.0
 10
145.7150202491394
 20
121.4723039950246
 30
0.0
 10
145.7242423621612
 20
121.575735281816
 30
0.0
 10
145.7604871081927
 20
121.7766579190992
 30
0.0
 10
145.7878613994714
 20
121.8749631619584
 30
0.0
 10
145.8951215213695
 20
122.1576032550275
 30
0.0
 10
146.0003120435087
 20
122.332476986124
 30
0.0
 10
146.138644605344
 20
122.5017659808735
 30
0.0
  0
LWPOLYLINE
  5
F2
330
1F
100
AcDbEntity
  8
0
  6
HIDDEN
 62
     7
370
     0
100
AcDbPolyline
 90
       19
 70
   128
 43
0.0
 10
133.8200193167
 20
120.2874769086
 10
133.9522981843
 20
119.888179721
 10
134.1635264337
 20
119.6494854136
 10
134.4282268205
 20
119.6001840424
 10
134.7144725714
 20
119.7462220805
 10
134.9877382245
 20
120.0699851852
 10
135.2150639089
 20
120.5324227479
 10
135.3690307922
 20
121.0777579735
 10
135.4310681959
 20
121.6402153857
 10
135.3936934936
 20
122.1519543195
 10
135.2614146259
 20
122.551251507
 10
135.0501863766
 20
122.7899458145
 10
134.7854859898
 20
122.8392471857
 10
134.4992402388
 20
122.6932091475
 10
134.2259745858
 20
122.3694460428
 10
133.9986489013
 20
121.9070084802
 10
133.844682018
 20
121.3616732545
 10
133.7826446143
 20
120.7992158424
 10
133.8200193167
 20
120.2874769086
  0
LWPOLYLINE
  5
F3
330
1F
100
AcDbEntity
  8
0
  6
HIDDEN
 62
     7
370
     0
100
AcDbPolyline
 90
       21
 70
   128
 43
0.0
 10
133.4635840224
 20
120.061239148
 10
133.6101411052
 20
119.5955024864
 10
133.8403790096
 20
119.2914968539
 10
134.1317604454
 20
119.17898044
 10
134.4557629674
 20
119.2689671352
 10
134.7806709515
 20
119.5526484148
 10
135.0746801402
 20
120.0022555787
 10
135.3090108657
 20
120.573777945
 10
135.460725204
 20
121.2112709225
 10
135.5149722985
 20
121.8523322569
 10
135.4664420657
 20
122.4342103983
 10
135.3198849829
 20
122.8999470599
 10
135.0896470785
 20
123.2039526924
 10
134.7982656427
 20
123.3164691063
 10
134.4742631206
 20
123.2264824111
 10
134.1493551366
 20
122.9428011315
 10
133.8553459479
 20
122.4931939676
 10
133.6210152224
 20
121.9216716013
 10
133.4693008841
 20
121.2841786238
 10
133.4150537896
 20
120.6431172894
 10
133.4635840224
 20
120.061239148
  0
LINE
  5
F4
330
1F
100
AcDbEntity
  8
0
  6
HIDDEN
 62
     7
370
     0
100
AcDbLine
 10
221.165013044
 20
129.8100126806
 30
0.0
 11
231.165013044
 21
129.8100126806
 31
0.0
  0
LINE
  5
F5
330
1F
100
AcDbEntity
  8
0
  6
HIDDEN
 62
     7
370
     0
100
AcDbLine
 10
221.165013044
 20
123.2875117554
 30
0.0
 11
231.165013044
 21
123.2875117554
 31
0.0
  0
SPLINE
  5
F6
330
1F
100
AcDbEntity
  8
0
  6
HIDDEN
 62
     7
370
     0
100
AcDbSpline
210
0.0
220
0.0
230
1.0
 70
     8
 71
     3
 72
    11
 73
     7
 74
     0
 42
0.000000001
 43
0.00000001
 40
0.0
 40
0.0
 40
0.0
 40
0.0
 40
0.216454300964511
 40
0.4403089937225452
 40
0.7518987489759574
 40
1.0
 40
1.0
 40
1.0
 40
1.0
 10
223.9818685910635
 20
130.3967640265875
 30
0.0
 10
224.1686862502245
 20
130.3062159761914
 30
0.0
 10
224.5487087083058
 20
130.122024113171
 30
0.0
 10
225.2539305178345
 20
129.9684982080726
 30
0.0
 10
226.0104110815775
 20
130.0610595345832
 30
0.0
 10
226.4945143973925
 20
130.2936574373774
 30
0.0
 10
226.7091089449758
 20
130.3967640265875
 30
0.0
  0
SPLINE
  5
F7
330
1F
100
AcDbEntity
  8
0
  6
HIDDEN
 62
     7
370
     0
100
AcDbSpline
210
0.0
220
0.0
230
1.0
 70
     8
 71
     3
 72
    11
 73
     7
 74
     0
 42
0.000000001
 43
0.00000001
 40
0.0
 40
0.0
 40
0.0
 40
0.0
 40
0.2164543009645064
 40
0.4403089937225366
 40
0.7518987489759567
 40
1.0
 40
1.0
 40
1.0
 40
1.0
 10
226.7091089449759
 20
130.3967640265875
 30
0.0
 10
226.8586556967799
 20
130.3062159761914
 30
0.0
 10
227.1628620789486
 20
130.122024113171
 30
0.0
 10
227.7273891766006
 20
129.9684982080726
 30
0.0
 10
228.3329486917913
 20
130.0610595345832
 30
0.0
 10
228.7204713635921
 20
130.2936574373774
 30
0.0
 10
228.8922533979568
 20
130.3967640265875
 30
0.0
  0
SPLINE
  5
F8
330
1F
100
AcDbEntity
  8
0
  6
HIDDEN
 62
     7
370
     0
100
AcDbSpline
210
0.0
220
0.0
230
1.0
 70
     8
 71
     3
 72
    11
 73
     7
 74
     0
 42
0.000000001
 43
0.00000001
 40
0.0
 40
0.0
 40
0.0
 40
0.0
 40
0.1849308168246137
 40
0.5198464202157741
 40
0.871443823369267
 40
1.0
 40
1.0
 40
1.0
 40
1.0
 10
228.8922533979568
 20
130.3967640265875
 30
0.0
 10
228.8605843580027
 20
130.3187592910737
 30
0.0
 10
228.7715616773347
 20
130.0994854933747
 30
0.0
 10
228.6053838435835
 20
129.9374811623545
 30
0.0
 10
228.4519118149584
 20
130.1358652089931
 30
0.0
 10
228.3700698424115
 20
130.3416636209772
 30
0.0
 10
228.3481574970255
 20
130.3967640265876
 30
0.0
  0
SPLINE
  5
F9
330
1F
100
AcDbEntity
  8
0
  6
HIDDEN
 62
     7
370
     0
100
AcDbSpline
210
0.0
220
0.0
230
1.0
 70
     8
 71
     3
 72
    11
 73
     7
 74
     0
 42
0.000000001
 43
0.00000001
 40
0.0
 40
0.0
 40
0.0
 40
0.0
 40
0.2164543009645018
 40
0.4403089937225237
 40
0.751898748975944
 40
1.0
 40
1.0
 40
1.0
 40
1.0
 10
228.3481574970255
 20
130.3967640265876
 30
0.0
 10
228.1613398378644
 20
130.3062159761915
 30
0.0
 10
227.7813173797831
 20
130.122024113171
 30
0.0
 10
227.0760955702545
 20
129.9684982080727
 30
0.0
 10
226.3196150065115
 20
130.0610595345833
 30
0.0
 10
225.8355116906964
 20
130.2936574373775
 30
0.0
 10
225.6209171431131
 20
130.3967640265876
 30
0.0
  0
SPLINE
  5
FA
330
1F
100
AcDbEntity
  8
0
  6
HIDDEN
 62
     7
370
     0
100
AcDbSpline
210
0.0
220
0.0
230
1.0
 70
     8
 71
     3
 72
    11
 73
     7
 74
     0
 42
0.000000001
 43
0.00000001
 40
0.0
 40
0.0
 40
0.0
 40
0.0
 40
0.2164543009644972
 40
0.4403089937225281
 40
0.7518987489759444
 40
0.9999999999999999
 40
0.9999999999999999
 40
0.9999999999999999
 40
0.9999999999999999
 10
225.6209171431131
 20
130.3967640265876
 30
0.0
 10
225.4713703913091
 20
130.3062159761915
 30
0.0
 10
225.1671640091404
 20
130.122024113171
 30
0.0
 10
224.6026369114883
 20
129.9684982080727
 30
0.0
 10
223.9970773962977
 20
130.0610595345833
 30
0.0
 10
223.6095547244968
 20
130.2936574373775
 30
0.0
 10
223.4377726901321
 20
130.3967640265875
 30
0.0
  0
SPLINE
  5
FB
330
1F
100
AcDbEntity
  8
0
  6
HIDDEN
 62
     7
370
     0
100
AcDbSpline
210
0.0
220
0.0
230
1.0
 70
     8
 71
     3
 72
    11
 73
     7
 74
     0
 42
0.000000001
 43
0.00000001
 40
0.0
 40
0.0
 40
0.0
 40
0.0
 40
0.1285561766307342
 40
0.4801535797842218
 40
0.8150691831753852
 40
1.0
 40
1.0
 40
1.0
 40
1.0
 10
223.4377726901321
 20
130.3967640265875
 30
0.0
 10
223.4596850355181
 20
130.3416636209772
 30
0.0
 10
223.5415270080651
 20
130.1358652089931
 30
0.0
 10
223.6949990366901
 20
129.9374811623545
 30
0.0
 10
223.8611768704414
 20
130.0994854933746
 30
0.0
 10
223.9501995511093
 20
130.3187592910737
 30
0.0
 10
223.9818685910635
 20
130.3967640265875
 30
0.0
  0
LINE
  5
FC
330
1F
100
AcDbEntity
  8
0
  6
HIDDEN
 62
     7
370
     0
100
AcDbLine
 10
223.3452111404
 20
116.0100126806
 30
0.0
 11
228.9848149477
 21
116.0100126806
 31
0.0
  0
LINE
  5
FD
330
1F
100
AcDbEntity
  8
0
  6
HIDDEN
 62
     7
370
     0
100
AcDbLine
 10
226.709108945
 20
123.5100126806
 30
0.0
 11
226.709108945
 21
130.3967640266
 31
0.0
  0
LINE
  5
FE
330
1F
100
AcDbEntity
  8
0
  6
HIDDEN
 62
     7
370
     0
100
AcDbLine
 10
227.8006811715
 20
123.5100126806
 30
0.0
 11
226.709108945
 21
123.5100126806
 31
0.0
  0
LINE
  5
FF
330
1F
100
AcDbEntity
  8
0
  6
HIDDEN
 62
     7
370
     0
100
AcDbLine
 10
226.709108945
 20
123.5100126806
 30
0.0
 11
225.345488768
 21
123.5100126806
 31
0.0
  0
LINE
  5
100
330
1F
100
AcDbEntity
  8
0
  6
HIDDEN
 62
     7
370
     0
100
AcDbLine
 10
223.665013044
 20
122.5100126806
 30
0.0
 11
228.665013044
 21
122.5100126806
 31
0.0
  0
LINE
  5
101
330
1F
100
AcDbEntity
  8
0
  6
HIDDEN
 62
     7
370
     0
100
AcDbLine
 10
225.345488768
 20
123.5100126806
 30
0.0
 11
223.9818685911
 21
123.5100126806
 31
0.0
  0
LINE
  5
102
330
1F
100
AcDbEntity
  8
0
  6
HIDDEN
 62
     7
370
     0
100
AcDbLine
 10
228.892253398
 20
123.5100126806
 30
0.0
 11
227.8006811715
 21
123.5100126806
 31
0.0
  0
LINE
  5
103
330
1F
100
AcDbEntity
  8
0
  6
HIDDEN
 62
     7
370
     0
100
AcDbLine
 10
223.9818685911
 20
123.5100126806
 30
0.0
 11
223.7098206406
 21
123.5100126806
 31
0.0
  0
LINE
  5
104
330
1F
100
AcDbEntity
  8
0
  6
HIDDEN
 62
     7
370
     0
100
AcDbLine
 10
223.9818685911
 20
123.5100126806
 30
0.0
 11
223.9818685911
 21
130.3967640266
 31
0.0
  0
LINE
  5
105
330
1F
100
AcDbEntity
  8
0
  6
HIDDEN
 62
     7
370
     0
100
AcDbLine
 10
228.348157497
 20
123.5100126806
 30
0.0
 11
228.348157497
 21
130.3967640266
 31
0.0
  0
LINE
  5
106
330
1F
100
AcDbEntity
  8
0
  6
HIDDEN
 62
     7
370
     0
100
AcDbLine
 10
228.892253398
 20
123.5100126806
 30
0.0
 11
228.892253398
 21
130.3967640266
 31
0.0
  0
LINE
  5
107
330
1F
100
AcDbEntity
  8
0
  6
HIDDEN
 62
     7
370
     0
100
AcDbLine
 10
223.7098206406
 20
123.5100126806
 30
0.0
 11
223.4377726901
 21
123.5100126806
 31
0.0
  0
LINE
  5
108
330
1F
100
AcDbEntity
  8
0
  6
HIDDEN
 62
     7
370
     0
100
AcDbLine
 10
225.6209171431
 20
123.5100126806
 30
0.0
 11
225.6209171431
 21
130.3967640266
 31
0.0
  0
LINE
  5
109
330
1F
100
AcDbEntity
  8
0
  6
HIDDEN
 62
     7
370
     0
100
AcDbLine
 10
223.4377726901
 20
123.5100126806
 30
0.0
 11
223.4377726901
 21
130.3967640266
 31
0.0
  0
CIRCLE
  5
10A
330
1F
100
AcDbEntity
  8
0
  6
HIDDEN
 62
     7
370
     0
100
AcDbCircle
 10
226.165013044
 20
112.2600126806
 30
0.0
 40
5.000000000000002
  0
LWPOLYLINE
  5
10B
330
1F
100
AcDbEntity
  8
0
  6
HIDDEN
 62
     7
370
     0
100
AcDbPolyline
 90
       21
 70
   128
 43
0.0
 10
135.9045271629
 20
118.9437328588
 10
135.6634578853
 20
119.1757312764
 10
135.4958148276
 20
119.5728866249
 10
135.4180080604
 20
120.0963225717
 10
135.4376538522
 20
120.6948015593
 10
135.5528291359
 20
121.3097402946
 10
135.7522597524
 20
121.8809442896
 10
136.0164240434
 20
122.3525001174
 10
136.3194637675
 20
122.6782486083
 10
136.6317152851
 20
122.8263032301
 10
136.9226132422
 20
122.782171365
 10
137.1636825198
 20
122.5501729474
 10
137.3313255775
 20
122.153017599
 10
137.4091323447
 20
121.6295816522
 10
137.3894865529
 20
121.0311026646
 10
137.2743112692
 20
120.4161639293
 10
137.0748806527
 20
119.8449599343
 10
136.8107163617
 20
119.3734041064
 10
136.5076766376
 20
119.0476556156
 10
136.19542512
 20
118.8996009938
 10
135.9045271629
 20
118.9437328588
  0
LWPOLYLINE
  5
10C
330
1F
100
AcDbEntity
  8
0
  6
HIDDEN
 62
     7
370
     0
100
AcDbPolyline
 90
       17
 70
   128
 43
0.0
 10
136.7449373556
 20
119.535182525
 10
136.5632856359
 20
119.7333514638
 10
136.4577244865
 20
120.0839658115
 10
136.4443246355
 20
120.533647712
 10
136.5251260888
 20
121.0139371723
 10
136.6878275575
 20
121.451714476
 10
136.907659218
 20
121.780331997
 10
137.1511536927
 20
121.9497606967
 10
137.3812411552
 20
121.9342065914
 10
137.5628928749
 20
121.7360376526
 10
137.6684540243
 20
121.3854233049
 10
137.6818538753
 20
120.9357414044
 10
137.601052422
 20
120.455451944
 10
137.4383509533
 20
120.0176746403
 10
137.2185192928
 20
119.6890571193
 10
136.9750248181
 20
119.5196284197
 10
136.7449373556
 20
119.535182525
  0
LWPOLYLINE
  5
10D
330
1F
100
AcDbEntity
  8
0
  6
HIDDEN
 62
     7
370
     0
100
AcDbPolyline
 90
       21
 70
   128
 43
0.0
 10
134.1509700044
 20
119.2899997628
 10
133.9099007268
 20
119.5219981804
 10
133.7422576691
 20
119.9191535289
 10
133.6644509019
 20
120.4425894757
 10
133.6840966937
 20
121.0410684633
 10
133.7992719774
 20
121.6560071985
 10
133.9987025939
 20
122.2272111935
 10
134.2628668849
 20
122.6987670214
 10
134.565906609
 20
123.0245155122
 10
134.8781581266
 20
123.1725701341
 10
135.1690560837
 20
123.128438269
 10
135.4101253613
 20
122.8964398514
 10
135.577768419
 20
122.4992845029
 10
135.6555751862
 20
121.9758485562
 10
135.6359293944
 20
121.3773695685
 10
135.5207541107
 20
120.7624308333
 10
135.3213234942
 20
120.1912268383
 10
135.0571592032
 20
119.7196710104
 10
134.7541194791
 20
119.3939225196
 10
134.4418679615
 20
119.2458678977
 10
134.1509700044
 20
119.2899997628
  0
LWPOLYLINE
  5
10E
330
1F
100
AcDbEntity
  8
0
  6
HIDDEN
 62
     7
370
     0
100
AcDbPolyline
 90
       19
 70
   128
 43
0.0
 10
134.0552333971
 20
119.7027532744
 10
133.8429615534
 20
119.9189389559
 10
133.7057182999
 20
120.2953958177
 10
133.6600571986
 20
120.7867176064
 10
133.7114856521
 20
121.3336436632
 10
133.85380063
 20
121.8702066338
 10
134.0698368455
 20
122.3316891051
 10
134.3335371428
 20
122.6624294804
 10
134.6130953741
 20
122.8225355892
 10
134.874792691
 20
122.7926962719
 10
135.0870645347
 20
122.5765105904
 10
135.2243077882
 20
122.2000537286
 10
135.2699688895
 20
121.7087319399
 10
135.218540436
 20
121.1618058832
 10
135.0762254581
 20
120.6252429126
 10
134.8601892426
 20
120.1637604412
 10
134.5964889453
 20
119.8330200659
 10
134.316930714
 20
119.6729139571
 10
134.0552333971
 20
119.7027532744
  0
LINE
  5
10F
330
1F
100
AcDbEntity
  8
0
  6
HIDDEN
 62
     7
370
     0
100
AcDbLine
 10
135.1867325484
 20
120.6605728808
 30
0.0
 11
135.4701550138
 21
119.8831479133
 31
0.0
  0
LINE
  5
110
330
1F
100
AcDbEntity
  8
0
  6
HIDDEN
 62
     7
370
     0
100
AcDbLine
 10
135.1867325484
 20
120.6605728808
 30
0.0
 11
133.8876944427
 21
120.9170879883
 31
0.0
  0
LINE
  5
111
330
1F
100
AcDbEntity
  8
0
  6
HIDDEN
 62
     7
370
     0
100
AcDbLine
 10
135.1867325484
 20
120.6605728808
 30
0.0
 11
135.4806286844
 21
121.7686346332
 31
0.0
  0
LINE
  5
112
330
1F
100
AcDbEntity
  8
0
  6
HIDDEN
 62
     7
370
     0
100
AcDbLine
 10
133.8876944427
 20
120.9170879883
 30
0.0
 11
134.1815905787
 21
122.0251497407
 31
0.0
  0
LINE
  5
113
330
1F
100
AcDbEntity
  8
0
  6
HIDDEN
 62
     7
370
     0
100
AcDbLine
 10
133.8876944427
 20
120.9170879883
 30
0.0
 11
134.1711169081
 21
120.1396630208
 31
0.0
  0
LINE
  5
114
330
1F
100
AcDbEntity
  8
0
  6
HIDDEN
 62
     7
370
     0
100
AcDbLine
 10
134.1815905787
 20
122.0251497407
 30
0.0
 11
134.75890918
 21
122.3557865256
 31
0.0
  0
LINE
  5
115
330
1F
100
AcDbEntity
  8
0
  6
HIDDEN
 62
     7
370
     0
100
AcDbLine
 10
135.4806286844
 20
121.7686346332
 30
0.0
 11
134.1815905787
 21
122.0251497407
 31
0.0
  0
LINE
  5
116
330
1F
100
AcDbEntity
  8
0
  6
HIDDEN
 62
     7
370
     0
100
AcDbLine
 10
135.4806286844
 20
121.7686346332
 30
0.0
 11
136.0579472857
 21
122.0992714181
 31
0.0
  0
LINE
  5
117
330
1F
100
AcDbEntity
  8
0
  6
HIDDEN
 62
     7
370
     0
100
AcDbLine
 10
136.0474736151
 20
120.2137846982
 30
0.0
 11
134.7484355094
 21
120.4702998056
 31
0.0
  0
LINE
  5
118
330
1F
100
AcDbEntity
  8
0
  6
HIDDEN
 62
     7
370
     0
100
AcDbLine
 10
134.7484355094
 20
120.4702998056
 30
0.0
 11
134.1711169081
 21
120.1396630208
 31
0.0
  0
LINE
  5
119
330
1F
100
AcDbEntity
  8
0
  6
HIDDEN
 62
     7
370
     0
100
AcDbLine
 10
135.4701550138
 20
119.8831479133
 30
0.0
 11
134.1711169081
 21
120.1396630208
 31
0.0
  0
LINE
  5
11A
330
1F
100
AcDbEntity
  8
0
  6
HIDDEN
 62
     7
370
     0
100
AcDbLine
 10
136.0474736151
 20
120.2137846982
 30
0.0
 11
135.4701550138
 21
119.8831479133
 31
0.0
  0
LINE
  5
11B
330
1F
100
AcDbEntity
  8
0
  6
HIDDEN
 62
     7
370
     0
100
AcDbLine
 10
136.341369751
 20
121.3218464506
 30
0.0
 11
135.0423316453
 21
121.578361558
 31
0.0
  0
LINE
  5
11C
330
1F
100
AcDbEntity
  8
0
  6
HIDDEN
 62
     7
370
     0
100
AcDbLine
 10
136.0579472857
 20
122.0992714181
 30
0.0
 11
134.75890918
 21
122.3557865256
 31
0.0
  0
LINE
  5
11D
330
1F
100
AcDbEntity
  8
0
  6
HIDDEN
 62
     7
370
     0
100
AcDbLine
 10
135.0423316453
 20
121.578361558
 30
0.0
 11
134.75890918
 21
122.3557865256
 31
0.0
  0
LINE
  5
11E
330
1F
100
AcDbEntity
  8
0
  6
HIDDEN
 62
     7
370
     0
100
AcDbLine
 10
136.341369751
 20
121.3218464506
 30
0.0
 11
136.0579472857
 21
122.0992714181
 31
0.0
  0
LINE
  5
11F
330
1F
100
AcDbEntity
  8
0
  6
HIDDEN
 62
     7
370
     0
100
AcDbLine
 10
134.7484355094
 20
120.4702998056
 30
0.0
 11
135.0423316453
 21
121.578361558
 31
0.0
  0
LINE
  5
120
330
1F
100
AcDbEntity
  8
0
  6
HIDDEN
 62
     7
370
     0
100
AcDbLine
 10
136.0474736151
 20
120.2137846982
 30
0.0
 11
136.341369751
 21
121.3218464506
 31
0.0
  0
LWPOLYLINE
  5
121
330
1F
100
AcDbEntity
  8
0
  6
HIDDEN
 62
     7
370
     0
100
AcDbPolyline
 90
       19
 70
   128
 43
0.0
 10
134.0552333971
 20
104.8172720869
 10
133.8429615534
 20
104.6010864054
 10
133.7057182999
 20
104.2246295436
 10
133.6600571986
 20
103.7333077549
 10
133.7114856521
 20
103.1863816981
 10
133.85380063
 20
102.6498187275
 10
134.0698368455
 20
102.1883362562
 10
134.3335371428
 20
101.8575958808
 10
134.6130953741
 20
101.697489772
 10
134.874792691
 20
101.7273290894
 10
135.0870645347
 20
101.9435147708
 10
135.2243077882
 20
102.3199716326
 10
135.2699688895
 20
102.8112934213
 10
135.218540436
 20
103.3582194781
 10
135.0762254581
 20
103.8947824487
 10
134.8601892426
 20
104.3562649201
 10
134.5964889453
 20
104.6870052954
 10
134.316930714
 20
104.8471114042
 10
134.0552333971
 20
104.8172720869
  0
LWPOLYLINE
  5
122
330
1F
100
AcDbEntity
  8
0
  6
HIDDEN
 62
     7
370
     0
100
AcDbPolyline
 90
       21
 70
   128
 43
0.0
 10
134.1509700044
 20
105.2300255985
 10
133.9099007268
 20
104.9980271809
 10
133.7422576691
 20
104.6008718324
 10
133.6644509019
 20
104.0774358856
 10
133.6840966937
 20
103.478956898
 10
133.7992719774
 20
102.8640181627
 10
133.9987025939
 20
102.2928141677
 10
134.2628668849
 20
101.8212583399
 10
134.565906609
 20
101.495509849
 10
134.8781581266
 20
101.3474552272
 10
135.1690560837
 20
101.3915870923
 10
135.4101253613
 20
101.6235855098
 10
135.577768419
 20
102.0207408583
 10
135.6555751862
 20
102.5441768051
 10
135.6359293944
 20
103.1426557927
 10
135.5207541107
 20
103.757594528
 10
135.3213234942
 20
104.328798523
 10
135.0571592032
 20
104.8003543509
 10
134.7541194791
 20
105.1261028417
 10
134.4418679615
 20
105.2741574635
 10
134.1509700044
 20
105.2300255985
  0
LWPOLYLINE
  5
123
330
1F
100
AcDbEntity
  8
0
  6
HIDDEN
 62
     7
370
     0
100
AcDbPolyline
 90
       21
 70
   128
 43
0.0
 10
135.9045271629
 20
105.5762925024
 10
135.6634578853
 20
105.3442940849
 10
135.4958148276
 20
104.9471387364
 10
135.4180080604
 20
104.4237027896
 10
135.4376538522
 20
103.825223802
 10
135.5528291359
 20
103.2102850667
 10
135.7522597524
 20
102.6390810717
 10
136.0164240434
 20
102.1675252438
 10
136.3194637675
 20
101.841776753
 10
136.6317152851
 20
101.6937221312
 10
136.9226132422
 20
101.7378539963
 10
137.1636825198
 20
101.9698524138
 10
137.3313255775
 20
102.3670077623
 10
137.4091323447
 20
102.8904437091
 10
137.3894865529
 20
103.4889226967
 10
137.2743112692
 20
104.103861432
 10
137.0748806527
 20
104.675065427
 10
136.8107163617
 20
105.1466212549
 10
136.5076766376
 20
105.4723697457
 10
136.19542512
 20
105.6204243675
 10
135.9045271629
 20
105.5762925024
  0
LINE
  5
124
330
1F
100
AcDbEntity
  8
0
  6
HIDDEN
 62
     7
370
     0
100
AcDbLine
 10
134.1815905787
 20
102.4948756206
 30
0.0
 11
134.75890918
 21
102.1642388357
 31
0.0
  0
LINE
  5
125
330
1F
100
AcDbEntity
  8
0
  6
HIDDEN
 62
     7
370
     0
100
AcDbLine
 10
135.0423316453
 20
102.9416638032
 30
0.0
 11
134.75890918
 21
102.1642388357
 31
0.0
  0
LINE
  5
126
330
1F
100
AcDbEntity
  8
0
  6
HIDDEN
 62
     7
370
     0
100
AcDbLine
 10
134.7484355094
 20
104.0497255556
 30
0.0
 11
135.0423316453
 21
102.9416638032
 31
0.0
  0
LINE
  5
127
330
1F
100
AcDbEntity
  8
0
  6
HIDDEN
 62
     7
370
     0
100
AcDbLine
 10
134.7484355094
 20
104.0497255556
 30
0.0
 11
134.1711169081
 21
104.3803623405
 31
0.0
  0
LINE
  5
128
330
1F
100
AcDbEntity
  8
0
  6
HIDDEN
 62
     7
370
     0
100
AcDbLine
 10
133.8876944427
 20
103.602937373
 30
0.0
 11
134.1711169081
 21
104.3803623405
 31
0.0
  0
LINE
  5
129
330
1F
100
AcDbEntity
  8
0
  6
HIDDEN
 62
     7
370
     0
100
AcDbLine
 10
133.8876944427
 20
103.602937373
 30
0.0
 11
134.1815905787
 21
102.4948756206
 31
0.0
  0
LINE
  5
12A
330
1F
100
AcDbEntity
  8
0
  6
HIDDEN
 62
     7
370
     0
100
AcDbLine
 10
136.341369751
 20
103.1981789107
 30
0.0
 11
135.0423316453
 21
102.9416638032
 31
0.0
  0
LWPOLYLINE
  5
12B
330
1F
100
AcDbEntity
  8
0
  6
HIDDEN
 62
     7
370
     0
100
AcDbPolyline
 90
       17
 70
   128
 43
0.0
 10
136.7449373556
 20
104.9848428363
 10
136.5632856359
 20
104.7866738975
 10
136.4577244865
 20
104.4360595498
 10
136.4443246355
 20
103.9863776493
 10
136.5251260888
 20
103.506088189
 10
136.6878275575
 20
103.0683108853
 10
136.907659218
 20
102.7396933643
 10
137.1511536927
 20
102.5702646646
 10
137.3812411552
 20
102.5858187699
 10
137.5628928749
 20
102.7839877087
 10
137.6684540243
 20
103.1346020564
 10
137.6818538753
 20
103.5842839569
 10
137.601052422
 20
104.0645734173
 10
137.4383509533
 20
104.5023507209
 10
137.2185192928
 20
104.8309682419
 10
136.9750248181
 20
105.0003969416
 10
136.7449373556
 20
104.9848428363
  0
LINE
  5
12C
330
1F
100
AcDbEntity
  8
0
  6
HIDDEN
 62
     7
370
     0
100
AcDbLine
 10
136.0474736151
 20
104.3062406631
 30
0.0
 11
134.7484355094
 21
104.0497255556
 31
0.0
  0
LINE
  5
12D
330
1F
100
AcDbEntity
  8
0
  6
HIDDEN
 62
     7
370
     0
100
AcDbLine
 10
135.4806286844
 20
102.7513907281
 30
0.0
 11
136.0579472857
 21
102.4207539432
 31
0.0
  0
LINE
  5
12E
330
1F
100
AcDbEntity
  8
0
  6
HIDDEN
 62
     7
370
     0
100
AcDbLine
 10
135.1867325484
 20
103.8594524805
 30
0.0
 11
135.4806286844
 21
102.7513907281
 31
0.0
  0
LINE
  5
12F
330
1F
100
AcDbEntity
  8
0
  6
HIDDEN
 62
     7
370
     0
100
AcDbLine
 10
135.1867325484
 20
103.8594524805
 30
0.0
 11
135.4701550138
 21
104.636877448
 31
0.0
  0
LINE
  5
130
330
1F
100
AcDbEntity
  8
0
  6
HIDDEN
 62
     7
370
     0
100
AcDbLine
 10
136.0474736151
 20
104.3062406631
 30
0.0
 11
135.4701550138
 21
104.636877448
 31
0.0
  0
LINE
  5
131
330
1F
100
AcDbEntity
  8
0
  6
HIDDEN
 62
     7
370
     0
100
AcDbLine
 10
136.0474736151
 20
104.3062406631
 30
0.0
 11
136.341369751
 21
103.1981789107
 31
0.0
  0
LINE
  5
132
330
1F
100
AcDbEntity
  8
0
  6
HIDDEN
 62
     7
370
     0
100
AcDbLine
 10
136.341369751
 20
103.1981789107
 30
0.0
 11
136.0579472857
 21
102.4207539432
 31
0.0
  0
LINE
  5
133
330
1F
100
AcDbEntity
  8
0
  6
HIDDEN
 62
     7
370
     0
100
AcDbLine
 10
135.4806286844
 20
102.7513907281
 30
0.0
 11
134.1815905787
 21
102.4948756206
 31
0.0
  0
LINE
  5
134
330
1F
100
AcDbEntity
  8
0
  6
HIDDEN
 62
     7
370
     0
100
AcDbLine
 10
136.0579472857
 20
102.4207539432
 30
0.0
 11
134.75890918
 21
102.1642388357
 31
0.0
  0
LINE
  5
135
330
1F
100
AcDbEntity
  8
0
  6
HIDDEN
 62
     7
370
     0
100
AcDbLine
 10
135.1867325484
 20
103.8594524805
 30
0.0
 11
133.8876944427
 21
103.602937373
 31
0.0
  0
LINE
  5
136
330
1F
100
AcDbEntity
  8
0
  6
HIDDEN
 62
     7
370
     0
100
AcDbLine
 10
135.4701550138
 20
104.636877448
 30
0.0
 11
134.1711169081
 21
104.3803623405
 31
0.0
  0
LWPOLYLINE
  5
137
330
1F
100
AcDbEntity
  8
0
  6
HIDDEN
 62
     7
370
     0
100
AcDbPolyline
 90
       23
 70
   128
 43
0.0
 10
145.4012825164
 20
120.823795921
 10
145.6824859466
 20
121.4380289771
 10
146.1364540397
 20
121.9529349187
 10
146.7264090005
 20
122.3267991287
 10
147.4045561868
 20
122.5293333523
 10
148.1159561465
 20
122.5441294712
 10
148.8029754859
 20
122.3699887918
 10
149.4099559838
 20
122.0210191563
 10
149.8877236903
 20
121.5254920093
 10
150.1975727071
 20
120.923552013
 10
150.3144009096
 20
120.2639647662
 10
150.2287435717
 20
119.6001661049
 10
149.9475401414
 20
118.9859330489
 10
149.4935720484
 20
118.4710271072
 10
148.9036170876
 20
118.0971628972
 10
148.2254699013
 20
117.8946286736
 10
147.5140699416
 20
117.8798325547
 10
146.8270506022
 20
118.0539732341
 10
146.2200701043
 20
118.4029428696
 10
145.7423023978
 20
118.8984700167
 10
145.432453381
 20
119.5004100129
 10
145.3156251785
 20
120.1599972597
 10
145.4012825164
 20
120.823795921
  0
LWPOLYLINE
  5
138
330
1F
100
AcDbEntity
  8
0
  6
HIDDEN
 62
     7
370
     0
100
AcDbPolyline
 90
       19
 70
   128
 43
0.0
 10
146.1254016747
 20
120.3837363411
 10
146.383175399
 20
120.9009391002
 10
146.8136498751
 20
121.3041038384
 10
147.3649035278
 20
121.5446029381
 10
147.9704470311
 20
121.5934286584
 10
148.5572429016
 20
121.444691897
 10
149.0545148972
 20
121.1163325024
 10
149.4022846761
 20
120.6479554637
 10
149.5586060706
 20
120.0960539641
 10
149.5046244134
 20
119.5271954698
 10
149.246850689
 20
119.0099927107
 10
148.816376213
 20
118.6068279726
 10
148.2651225603
 20
118.3663288729
 10
147.659579057
 20
118.3175031525
 10
147.0727831865
 20
118.4662399139
 10
146.5755111909
 20
118.7945993085
 10
146.227741412
 20
119.2629763473
 10
146.0714200175
 20
119.8148778468
 10
146.1254016747
 20
120.3837363411
  0
LWPOLYLINE
  5
139
330
1F
100
AcDbEntity
  8
0
  6
HIDDEN
 62
     7
370
     0
100
AcDbPolyline
 90
       23
 70
   128
 43
0.0
 10
145.4012825164
 20
121.8474892741
 10
145.6824859466
 20
122.4617223302
 10
146.1364540397
 20
122.9766282718
 10
146.7264090005
 20
123.3504924818
 10
147.4045561868
 20
123.5530267054
 10
148.1159561465
 20
123.5678228243
 10
148.8029754859
 20
123.3936821449
 10
149.4099559838
 20
123.0447125094
 10
149.8877236903
 20
122.5491853624
 10
150.1975727071
 20
121.9472453661
 10
150.3144009096
 20
121.2876581193
 10
150.2287435717
 20
120.623859458
 10
149.9475401414
 20
120.0096264019
 10
149.4935720484
 20
119.4947204603
 10
148.9036170876
 20
119.1208562503
 10
148.2254699013
 20
118.9183220267
 10
147.5140699416
 20
118.9035259078
 10
146.8270506022
 20
119.0776665872
 10
146.2200701043
 20
119.4266362227
 10
145.7423023978
 20
119.9221633698
 10
145.432453381
 20
120.524103366
 10
145.3156251785
 20
121.1836906128
 10
145.4012825164
 20
121.8474892741
  0
LINE
  5
13A
330
1F
100
AcDbEntity
  8
0
  6
HIDDEN
 62
     7
370
     0
100
AcDbLine
 10
147.4437689721
 20
121.9502043257
 30
0.0
 11
146.4214450741
 21
120.992737694
 31
0.0
  0
LINE
  5
13B
330
1F
100
AcDbEntity
  8
0
  6
HIDDEN
 62
     7
370
     0
100
AcDbLine
 10
147.4437689721
 20
121.9502043257
 30
0.0
 11
147.4437689721
 21
122.6342446124
 31
0.0
  0
LINE
  5
13C
330
1F
100
AcDbEntity
  8
0
  6
HIDDEN
 62
     7
370
     0
100
AcDbLine
 10
147.4437689721
 20
121.9502043257
 30
0.0
 11
148.837336942
 21
121.5969728239
 31
0.0
  0
LINE
  5
13D
330
1F
100
AcDbEntity
  8
0
  6
HIDDEN
 62
     7
370
     0
100
AcDbLine
 10
148.837336942
 20
121.5969728239
 30
0.0
 11
148.837336942
 21
122.2810131106
 31
0.0
  0
LINE
  5
13E
330
1F
100
AcDbEntity
  8
0
  6
HIDDEN
 62
     7
370
     0
100
AcDbLine
 10
148.837336942
 20
121.5969728239
 30
0.0
 11
149.2085810139
 21
120.2862746903
 31
0.0
  0
LINE
  5
13F
330
1F
100
AcDbEntity
  8
0
  6
HIDDEN
 62
     7
370
     0
100
AcDbLine
 10
146.7926891461
 20
119.6820395603
 30
0.0
 11
146.7926891461
 21
120.366079847
 31
0.0
  0
LINE
  5
140
330
1F
100
AcDbEntity
  8
0
  6
HIDDEN
 62
     7
370
     0
100
AcDbLine
 10
146.7926891461
 20
120.366079847
 30
0.0
 11
146.4214450741
 21
121.6767779806
 31
0.0
  0
LINE
  5
141
330
1F
100
AcDbEntity
  8
0
  6
HIDDEN
 62
     7
370
     0
100
AcDbLine
 10
146.4214450741
 20
120.992737694
 30
0.0
 11
146.4214450741
 21
121.6767779806
 31
0.0
  0
LINE
  5
142
330
1F
100
AcDbEntity
  8
0
  6
HIDDEN
 62
     7
370
     0
100
AcDbLine
 10
146.7926891461
 20
119.6820395603
 30
0.0
 11
146.4214450741
 21
120.992737694
 31
0.0
  0
LINE
  5
143
330
1F
100
AcDbEntity
  8
0
  6
HIDDEN
 62
     7
370
     0
100
AcDbLine
 10
148.186257116
 20
119.3288080585
 30
0.0
 11
148.186257116
 21
120.0128483451
 31
0.0
  0
LINE
  5
144
330
1F
100
AcDbEntity
  8
0
  6
HIDDEN
 62
     7
370
     0
100
AcDbLine
 10
148.186257116
 20
120.0128483451
 30
0.0
 11
149.2085810139
 21
120.9703149769
 31
0.0
  0
LINE
  5
145
330
1F
100
AcDbEntity
  8
0
  6
HIDDEN
 62
     7
370
     0
100
AcDbLine
 10
149.2085810139
 20
120.2862746903
 30
0.0
 11
149.2085810139
 21
120.9703149769
 31
0.0
  0
LINE
  5
146
330
1F
100
AcDbEntity
  8
0
  6
HIDDEN
 62
     7
370
     0
100
AcDbLine
 10
148.186257116
 20
119.3288080585
 30
0.0
 11
149.2085810139
 21
120.2862746903
 31
0.0
  0
LINE
  5
147
330
1F
100
AcDbEntity
  8
0
  6
HIDDEN
 62
     7
370
     0
100
AcDbLine
 10
146.7926891461
 20
120.366079847
 30
0.0
 11
148.186257116
 21
120.0128483451
 31
0.0
  0
LINE
  5
148
330
1F
100
AcDbEntity
  8
0
  6
HIDDEN
 62
     7
370
     0
100
AcDbLine
 10
146.7926891461
 20
119.6820395603
 30
0.0
 11
148.186257116
 21
119.3288080585
 31
0.0
  0
LWPOLYLINE
  5
149
330
1F
100
AcDbEntity
  8
0
  6
HIDDEN
 62
     7
370
     0
100
AcDbPolyline
 90
       21
 70
   128
 43
0.0
 10
145.8309265503
 20
121.8264583332
 10
146.0934167241
 20
122.377985074
 10
146.5244287408
 20
122.8262960183
 10
147.0817721411
 20
123.1275073675
 10
147.7108902697
 20
123.252134456
 10
148.350200661
 20
123.1879779159
 10
148.9371231595
 20
122.9413178366
 10
149.4142057016
 20
122.5362990251
 10
149.7347481243
 20
122.0125675446
 10
149.8673735016
 20
121.4213898814
 10
149.7990995378
 20
120.8206346244
 10
149.536609364
 20
120.2691078836
 10
149.1055973473
 20
119.8207969392
 10
148.548253947
 20
119.51958559
 10
147.9191358184
 20
119.3949585016
 10
147.2798254271
 20
119.4591150416
 10
146.6929029286
 20
119.705775121
 10
146.2158203864
 20
120.1107939325
 10
145.8952779638
 20
120.634525413
 10
145.7626525865
 20
121.2257030761
 10
145.8309265503
 20
121.8264583332
  0
LINE
  5
14A
330
1F
100
AcDbEntity
  8
0
  6
HIDDEN
 62
     7
370
     0
100
AcDbLine
 10
148.837336942
 20
122.2810131106
 30
0.0
 11
149.2085810139
 21
120.9703149769
 31
0.0
  0
LINE
  5
14B
330
1F
100
AcDbEntity
  8
0
  6
HIDDEN
 62
     7
370
     0
100
AcDbLine
 10
147.4437689721
 20
122.6342446124
 30
0.0
 11
148.837336942
 21
122.2810131106
 31
0.0
  0
LINE
  5
14C
330
1F
100
AcDbEntity
  8
0
  6
HIDDEN
 62
     7
370
     0
100
AcDbLine
 10
147.4437689721
 20
122.6342446124
 30
0.0
 11
146.4214450741
 21
121.6767779806
 31
0.0
  0
LINE
  5
14D
330
1F
100
AcDbEntity
  8
0
  6
HIDDEN
 62
     7
370
     0
100
AcDbLine
 10
133.215013044
 20
100.8849181027
 30
0.0
 11
134.8718347591
 21
101.2120831015
 31
0.0
  0
LINE
  5
14E
330
1F
100
AcDbEntity
  8
0
  6
HIDDEN
 62
     7
370
     0
100
AcDbLine
 10
134.058191329
 20
105.3325180747
 30
0.0
 11
133.215013044
 21
105.166019519
 31
0.0
  0
LINE
  5
14F
330
1F
100
AcDbEntity
  8
0
  6
HIDDEN
 62
     7
370
     0
100
AcDbLine
 10
134.9265020384
 20
101.6815674363
 30
0.0
 11
146.3642853889
 21
103.9401341503
 31
0.0
  0
LINE
  5
150
330
1F
100
AcDbEntity
  8
0
  6
HIDDEN
 62
     7
370
     0
100
AcDbLine
 10
146.3592697703
 20
107.3028662805
 30
0.0
 11
134.2872107719
 21
104.9190520582
 31
0.0
  0
LINE
  5
151
330
1F
100
AcDbEntity
  8
0
  6
HIDDEN
 62
     7
370
     0
100
AcDbLine
 10
149.915013044
 20
104.9065795991
 30
0.0
 11
149.915013044
 21
111.0992205551
 31
0.0
  0
LINE
  5
152
330
1F
100
AcDbEntity
  8
0
  6
HIDDEN
 62
     7
370
     0
100
AcDbLine
 10
145.715013044
 20
111.0991081779
 30
0.0
 11
145.715013044
 21
106.1447769126
 31
0.0
  0
ARC
  5
153
330
1F
100
AcDbEntity
  8
0
  6
HIDDEN
 62
     7
370
     0
100
AcDbCircle
 10
237.215013044
 20
124.2600126806
 30
0.0
 40
1.0
100
AcDbArc
 50
270.0
 51
0.0
  0
ARC
  5
154
330
1F
100
AcDbEntity
  8
0
  6
HIDDEN
 62
     7
370
     0
100
AcDbCircle
 10
237.215013044
 20
100.2600126806
 30
0.0
 40
1.0
100
AcDbArc
 50
0.0
 51
90.0
  0
ARC
  5
155
330
1F
100
AcDbEntity
  8
0
  6
HIDDEN
 62
     7
370
     0
100
AcDbCircle
 10
211.5833605465
 20
122.7600126806
 30
0.0
 40
1.000000000000009
100
AcDbArc
 50
75.0
 51
90.0
  0
ARC
  5
156
330
1F
100
AcDbEntity
  8
0
  6
HIDDEN
 62
     7
370
     0
100
AcDbCircle
 10
211.5833605465
 20
101.7600126806
 30
0.0
 40
1.000000000000009
100
AcDbArc
 50
270.0
 51
285.0
  0
LINE
  5
157
330
1F
100
AcDbEntity
  8
0
  6
HIDDEN
 62
     7
370
     0
100
AcDbLine
 10
211.5833605465
 20
123.7600126806
 30
0.0
 11
210.715013044
 21
123.7600126806
 31
0.0
  0
LINE
  5
158
330
1F
100
AcDbEntity
  8
0
  6
HIDDEN
 62
     7
370
     0
100
AcDbLine
 10
210.715013044
 20
100.7600126806
 30
0.0
 11
211.5833605465
 21
100.7600126806
 31
0.0
  0
ARC
  5
159
330
1F
100
AcDbEntity
  8
0
  6
HIDDEN
 62
     7
370
     0
100
AcDbCircle
 10
210.715013044
 20
122.7600126806
 30
0.0
 40
1.0
100
AcDbArc
 50
90.0
 51
180.0
  0
ARC
  5
15A
330
1F
100
AcDbEntity
  8
0
  6
HIDDEN
 62
     7
370
     0
100
AcDbCircle
 10
210.715013044
 20
101.7600126806
 30
0.0
 40
1.0
100
AcDbArc
 50
180.0
 51
270.0
  0
LINE
  5
15B
330
1F
100
AcDbEntity
  8
0
  6
HIDDEN
 62
     7
370
     0
100
AcDbLine
 10
211.8421795916
 20
100.7940868544
 30
0.0
 11
213.5810384478
 21
101.2600126806
 31
0.0
  0
LINE
  5
15C
330
1F
100
AcDbEntity
  8
0
  6
HIDDEN
 62
     7
370
     0
100
AcDbLine
 10
213.5810384478
 20
123.2600126806
 30
0.0
 11
211.8421795916
 21
123.7259385069
 31
0.0
  0
LINE
  5
15D
330
1F
100
AcDbEntity
  8
0
  6
HIDDEN
 62
     7
370
     0
100
AcDbLine
 10
221.675696479
 20
123.2600126806
 30
0.0
 11
213.5810384478
 21
123.2600126806
 31
0.0
  0
LINE
  5
15E
330
1F
100
AcDbEntity
  8
0
  6
HIDDEN
 62
     7
370
     0
100
AcDbLine
 10
237.215013044
 20
123.2600126806
 30
0.0
 11
230.6636176914
 21
123.2600126806
 31
0.0
  0
LINE
  5
15F
330
1F
100
AcDbEntity
  8
0
  6
HIDDEN
 62
     7
370
     0
100
AcDbLine
 10
213.5810384478
 20
101.2600126806
 30
0.0
 11
237.215013044
 21
101.2600126806
 31
0.0
  0
ARC
  5
160
330
1F
100
AcDbEntity
  8
0
  6
HIDDEN
 62
     7
370
     0
100
AcDbCircle
 10
66.615013044
 20
102.9600126806
 30
0.0
 40
0.8000000000000114
100
AcDbArc
 50
90.0
 51
180.0
  0
ARC
  5
161
330
1F
100
AcDbEntity
  8
0
  6
HIDDEN
 62
     7
370
     0
100
AcDbCircle
 10
66.615013044
 20
121.5600126806
 30
0.0
 40
0.8000000000000114
100
AcDbArc
 50
180.0
 51
270.0
  0
LINE
  5
162
330
1F
100
AcDbEntity
  8
0
  6
HIDDEN
 62
     7
370
     0
100
AcDbLine
 10
73.7073854748
 20
103.5350126806
 30
0.0
 11
74.5840729364
 21
103.5350126806
 31
0.0
  0
LINE
  5
163
330
1F
100
AcDbEntity
  8
0
  6
HIDDEN
 62
     7
370
     0
100
AcDbLine
 10
74.5840729364
 20
120.9850126806
 30
0.0
 11
73.7073854748
 21
120.9850126806
 31
0.0
  0
ARC
  5
164
330
1F
100
AcDbEntity
  8
0
  6
HIDDEN
 62
     7
370
     0
100
AcDbCircle
 10
73.7073854748
 20
103.9350126806
 30
0.0
 40
0.4000000000000096
100
AcDbArc
 50
255.0
 51
270.0
  0
ARC
  5
165
330
1F
100
AcDbEntity
  8
0
  6
HIDDEN
 62
     7
370
     0
100
AcDbCircle
 10
73.7073854748
 20
120.5850126806
 30
0.0
 40
0.4000000000000096
100
AcDbArc
 50
90.0
 51
105.0
  0
ARC
  5
166
330
1F
100
AcDbEntity
  8
0
  6
HIDDEN
 62
     7
370
     0
100
AcDbCircle
 10
74.5840729364
 20
103.9350126806
 30
0.0
 40
0.4000000000000057
100
AcDbArc
 50
270.0
 51
330.0
  0
ARC
  5
167
330
1F
100
AcDbEntity
  8
0
  6
HIDDEN
 62
     7
370
     0
100
AcDbCircle
 10
74.5840729364
 20
120.5850126806
 30
0.0
 40
0.4000000000000057
100
AcDbArc
 50
30.0
 51
90.0
  0
LINE
  5
168
330
1F
100
AcDbEntity
  8
0
  6
HIDDEN
 62
     7
370
     0
100
AcDbLine
 10
73.6038578567
 20
120.9713830112
 30
0.0
 11
72.815013044
 21
120.7600126806
 31
0.0
  0
LINE
  5
169
330
1F
100
AcDbEntity
  8
0
  6
HIDDEN
 62
     7
370
     0
100
AcDbLine
 10
72.815013044
 20
103.7600126806
 30
0.0
 11
73.6038578567
 21
103.5486423501
 31
0.0
  0
LINE
  5
16A
330
1F
100
AcDbEntity
  8
0
  6
HIDDEN
 62
     7
370
     0
100
AcDbLine
 10
74.9304830979
 20
103.7350126806
 30
0.0
 11
75.8109422584
 21
105.2600126806
 31
0.0
  0
LINE
  5
16B
330
1F
100
AcDbEntity
  8
0
  6
HIDDEN
 62
     7
370
     0
100
AcDbLine
 10
75.8109422584
 20
119.2600126806
 30
0.0
 11
74.9304830979
 21
120.7850126806
 31
0.0
  0
LINE
  5
16C
330
1F
100
AcDbEntity
  8
0
  6
HIDDEN
 62
     7
370
     0
100
AcDbLine
 10
66.615013044
 20
103.7600126806
 30
0.0
 11
72.815013044
 21
103.7600126806
 31
0.0
  0
LINE
  5
16D
330
1F
100
AcDbEntity
  8
0
  6
HIDDEN
 62
     7
370
     0
100
AcDbLine
 10
72.815013044
 20
120.7600126806
 30
0.0
 11
66.615013044
 21
120.7600126806
 31
0.0
  0
ARC
  5
16E
330
1F
100
AcDbEntity
  8
0
  6
HIDDEN
 62
     7
370
     0
100
AcDbCircle
 10
152.615013044
 20
136.3600126806
 30
0.0
 40
1.600000000000023
100
AcDbArc
 50
270.0
 51
0.0
  0
ARC
  5
16F
330
1F
100
AcDbEntity
  8
0
  6
HIDDEN
 62
     7
370
     0
100
AcDbCircle
 10
152.615013044
 20
88.1600126806
 30
0.0
 40
1.600000000000009
100
AcDbArc
 50
0.0
 51
90.0
  0
LINE
  5
170
330
1F
100
AcDbEntity
  8
0
  6
HIDDEN
 62
     7
370
     0
100
AcDbLine
 10
154.215013044
 20
136.3600126806
 30
0.0
 11
154.215013044
 21
142.8603066943
 31
0.0
  0
LINE
  5
171
330
1F
100
AcDbEntity
  8
0
  6
HIDDEN
 62
     7
370
     0
100
AcDbLine
 10
154.215013044
 20
81.6596552197
 30
0.0
 11
154.215013044
 21
88.1600126806
 31
0.0
  0
LINE
  5
172
330
1F
100
AcDbEntity
  8
0
  6
HIDDEN
 62
     7
370
     0
100
AcDbLine
 10
75.8109422584
 20
105.2600126806
 30
0.0
 11
108.815013044
 21
105.2600126806
 31
0.0
  0
LINE
  5
173
330
1F
100
AcDbEntity
  8
0
  6
HIDDEN
 62
     7
370
     0
100
AcDbLine
 10
108.815013044
 20
119.2600126806
 30
0.0
 11
75.8109422584
 21
119.2600126806
 31
0.0
  0
LINE
  5
174
330
1F
100
AcDbEntity
  8
0
  6
HIDDEN
 62
     7
370
     0
100
AcDbLine
 10
108.815013044
 20
105.2600126806
 30
0.0
 11
110.9781112725
 21
108.8600126806
 31
0.0
  0
LINE
  5
175
330
1F
100
AcDbEntity
  8
0
  6
HIDDEN
 62
     7
370
     0
100
AcDbLine
 10
110.9781112725
 20
115.6600126806
 30
0.0
 11
108.815013044
 21
119.2600126806
 31
0.0
  0
LINE
  5
176
330
1F
100
AcDbEntity
  8
0
  6
HIDDEN
 62
     7
370
     0
100
AcDbLine
 10
154.2150121341
 20
142.7600124687
 30
0.0
 11
155.2150115034
 21
143.7600122155
 31
0.0
  0
LINE
  5
177
330
1F
100
AcDbEntity
  8
0
  6
HIDDEN
 62
     7
370
     0
100
AcDbLine
 10
155.2150194054
 20
80.7600115429
 30
0.0
 11
154.2150191565
 21
81.7600113475
 31
0.0
  0
LINE
  5
178
330
1F
100
AcDbEntity
  8
0
  6
HIDDEN
 62
     7
370
     0
100
AcDbLine
 10
219.915013044
 20
132.2600126806
 30
0.0
 11
221.665013044
 21
130.5100126806
 31
0.0
  0
LINE
  5
179
330
1F
100
AcDbEntity
  8
0
  6
HIDDEN
 62
     7
370
     0
100
AcDbLine
 10
230.665013044
 20
130.5100126806
 30
0.0
 11
232.415013044
 21
132.2600126806
 31
0.0
  0
LINE
  5
17A
330
1F
100
AcDbEntity
  8
0
  6
HIDDEN
 62
     7
370
     0
100
AcDbLine
 10
221.665013044
 20
130.5100126806
 30
0.0
 11
221.665013044
 21
123.2556596381
 31
0.0
  0
LINE
  5
17B
330
1F
100
AcDbEntity
  8
0
  6
HIDDEN
 62
     7
370
     0
100
AcDbLine
 10
230.665013044
 20
123.2594430643
 30
0.0
 11
230.665013044
 21
130.5100126806
 31
0.0
  0
LINE
  5
17C
330
1F
100
AcDbEntity
  8
0
  6
HIDDEN
 62
     7
370
     0
100
AcDbLine
 10
209.715013044
 20
115.6600126806
 30
0.0
 11
110.9781112725
 21
115.6600126806
 31
0.0
  0
LINE
  5
17D
330
1F
100
AcDbEntity
  8
0
  6
HIDDEN
 62
     7
370
     0
100
AcDbLine
 10
110.9781112725
 20
108.8600126806
 30
0.0
 11
209.715013044
 21
108.8600126806
 31
0.0
  0
LINE
  5
17E
330
1F
100
AcDbEntity
  8
0
  6
HIDDEN
 62
     7
370
     0
100
AcDbLine
 10
149.915013044
 20
113.4209171833
 30
0.0
 11
149.915013044
 21
121.3621731296
 31
0.0
  0
LINE
  5
17F
330
1F
100
AcDbEntity
  8
0
  6
HIDDEN
 62
     7
370
     0
100
AcDbLine
 10
145.715013044
 20
118.3779549291
 30
0.0
 11
145.715013044
 21
113.4208048061
 31
0.0
  0
LINE
  5
180
330
1F
100
AcDbEntity
  8
0
  6
HIDDEN
 62
     7
370
     0
100
AcDbLine
 10
145.715013044
 20
121.3621731296
 30
0.0
 11
145.715013044
 21
119.675051373
 31
0.0
  0
LINE
  5
181
330
1F
100
AcDbEntity
  8
0
  6
HIDDEN
 62
     7
370
     0
100
AcDbLine
 10
134.2872107719
 20
119.6009733031
 30
0.0
 11
146.359790073
 21
117.217056339
 31
0.0
  0
LINE
  5
182
330
1F
100
AcDbEntity
  8
0
  6
HIDDEN
 62
     7
370
     0
100
AcDbLine
 10
146.3657418957
 20
120.5796036012
 30
0.0
 11
134.9265020384
 21
122.8384579249
 31
0.0
  0
LINE
  5
183
330
1F
100
AcDbEntity
  8
0
  6
HIDDEN
 62
     7
370
     0
100
AcDbLine
 10
133.215013044
 20
119.3540058422
 30
0.0
 11
134.058191329
 21
119.1875072865
 31
0.0
  0
LINE
  5
184
330
1F
100
AcDbEntity
  8
0
  6
HIDDEN
 62
     7
370
     0
100
AcDbLine
 10
134.8718347591
 20
123.3079422598
 30
0.0
 11
133.215013044
 21
123.6351072586
 31
0.0
  0
LINE
  5
185
330
1F
100
AcDbEntity
  8
0
  6
HIDDEN
 62
     7
370
     0
100
AcDbLine
 10
231.165013044
 20
129.8100126806
 30
0.0
 11
230.465013044
 21
130.5100126806
 31
0.0
  0
LINE
  5
186
330
1F
100
AcDbEntity
  8
0
  6
HIDDEN
 62
     7
370
     0
100
AcDbLine
 10
221.865013044
 20
130.5100126806
 30
0.0
 11
221.165013044
 21
129.8100126806
 31
0.0
  0
LINE
  5
187
330
1F
100
AcDbEntity
  8
0
  6
HIDDEN
 62
     7
370
     0
100
AcDbLine
 10
221.165013044
 20
129.8100126806
 30
0.0
 11
221.165013044
 21
123.2875117554
 31
0.0
  0
LINE
  5
188
330
1F
100
AcDbEntity
  8
0
  6
HIDDEN
 62
     7
370
     0
100
AcDbLine
 10
231.165013044
 20
123.2875117554
 30
0.0
 11
231.165013044
 21
129.8100126806
 31
0.0
  0
LINE
  5
189
330
1F
100
AcDbEntity
  8
0
  6
HIDDEN
 62
     7
370
     0
100
AcDbLine
 10
221.165013044
 20
123.2875117554
 30
0.0
 11
223.0554333926
 21
116.2323669671
 31
0.0
  0
LINE
  5
18A
330
1F
100
AcDbEntity
  8
0
  6
HIDDEN
 62
     7
370
     0
100
AcDbLine
 10
229.2745926955
 20
116.2323669671
 30
0.0
 11
231.165013044
 21
123.2875117554
 31
0.0
  0
LINE
  5
18B
330
1F
100
AcDbEntity
  8
0
  6
HIDDEN
 62
     7
370
     0
100
AcDbLine
 10
223.165013044
 20
130.5100126806
 30
0.0
 11
223.5957605407
 21
130.079265184
 31
0.0
  0
LINE
  5
18C
330
1F
100
AcDbEntity
  8
0
  6
HIDDEN
 62
     7
370
     0
100
AcDbLine
 10
228.7338144622
 20
130.0788140988
 30
0.0
 11
229.165013044
 21
130.5100126806
 31
0.0
  0
ARC
  5
18D
330
1F
100
AcDbEntity
  8
0
  6
HIDDEN
 62
     7
370
     0
100
AcDbCircle
 10
223.3452111404
 20
116.3100126806
 30
0.0
 40
0.3000000000000114
100
AcDbArc
 50
195.0
 51
270.0
  0
ARC
  5
18E
330
1F
100
AcDbEntity
  8
0
  6
HIDDEN
 62
     7
370
     0
100
AcDbCircle
 10
228.9848149477
 20
116.3100126806
 30
0.0
 40
0.3000000000000114
100
AcDbArc
 50
270.0
 51
345.0
  0
LINE
  5
18F
330
1F
100
AcDbEntity
  8
0
  6
HIDDEN
 62
     7
370
     0
100
AcDbLine
 10
223.665013044
 20
123.5100126806
 30
0.0
 11
223.665013044
 21
122.5100126806
 31
0.0
  0
LINE
  5
190
330
1F
100
AcDbEntity
  8
0
  6
HIDDEN
 62
     7
370
     0
100
AcDbLine
 10
228.665013044
 20
122.5100126806
 30
0.0
 11
228.665013044
 21
123.5100126806
 31
0.0
  0
LINE
  5
191
330
1F
100
AcDbEntity
  8
0
  6
HIDDEN
 62
     7
370
     0
100
AcDbLine
 10
223.665013044
 20
122.5100126806
 30
0.0
 11
226.165013044
 21
121.600087095
 31
0.0
  0
LINE
  5
192
330
1F
100
AcDbEntity
  8
0
  6
HIDDEN
 62
     7
370
     0
100
AcDbLine
 10
226.165013044
 20
121.600087095
 30
0.0
 11
228.665013044
 21
122.5100126806
 31
0.0
  0
LINE
  5
193
330
1F
100
AcDbEntity
  8
0
  6
HIDDEN
 62
     7
370
     0
100
AcDbLine
 10
136.5762418196
 20
119.1049658425
 30
0.0
 11
137.1647590161
 21
119.6359531398
 31
0.0
  0
LINE
  5
194
330
1F
100
AcDbEntity
  8
0
  6
HIDDEN
 62
     7
370
     0
100
AcDbLine
 10
137.5747697737
 20
121.712320505
 30
0.0
 11
137.2322590318
 21
122.4271536268
 31
0.0
  0
LINE
  5
195
330
1F
100
AcDbEntity
  8
0
  6
HIDDEN
 62
     7
370
     0
100
AcDbLine
 10
134.2725637916
 20
119.2471071239
 30
0.0
 11
136.0261209501
 21
118.9008402199
 31
0.0
  0
LINE
  5
196
330
1F
100
AcDbEntity
  8
0
  6
HIDDEN
 62
     7
370
     0
100
AcDbLine
 10
136.801019455
 20
122.8250640039
 30
0.0
 11
135.0474622965
 21
123.1713309079
 31
0.0
  0
LINE
  5
197
330
1F
100
AcDbEntity
  8
0
  6
HIDDEN
 62
     7
370
     0
100
AcDbLine
 10
133.9602468904
 20
122.1372603219
 30
0.0
 11
133.9017012904
 21
121.9947980245
 31
0.0
  0
LINE
  5
198
330
1F
100
AcDbEntity
  8
0
  6
HIDDEN
 62
     7
370
     0
100
AcDbLine
 10
133.660013044
 20
120.7708457795
 30
0.0
 11
133.660013044
 21
120.6168227505
 31
0.0
  0
LINE
  5
199
330
1F
100
AcDbEntity
  8
0
  6
HIDDEN
 62
     7
370
     0
100
AcDbLine
 10
133.660013044
 20
103.9032026108
 30
0.0
 11
133.660013044
 21
103.7491795818
 31
0.0
  0
LINE
  5
19A
330
1F
100
AcDbEntity
  8
0
  6
HIDDEN
 62
     7
370
     0
100
AcDbLine
 10
133.9017012904
 20
102.5252273368
 30
0.0
 11
133.9602468904
 21
102.3827650394
 31
0.0
  0
LINE
  5
19B
330
1F
100
AcDbEntity
  8
0
  6
HIDDEN
 62
     7
370
     0
100
AcDbLine
 10
135.0474622965
 20
101.3486944534
 30
0.0
 11
136.801019455
 21
101.6949613573
 31
0.0
  0
LINE
  5
19C
330
1F
100
AcDbEntity
  8
0
  6
HIDDEN
 62
     7
370
     0
100
AcDbLine
 10
136.0261209501
 20
105.6191851414
 30
0.0
 11
134.2725637916
 21
105.2729182374
 31
0.0
  0
LINE
  5
19D
330
1F
100
AcDbEntity
  8
0
  6
HIDDEN
 62
     7
370
     0
100
AcDbLine
 10
137.2322590318
 20
102.0928717344
 30
0.0
 11
137.5747697737
 21
102.8077048563
 31
0.0
  0
LINE
  5
19E
330
1F
100
AcDbEntity
  8
0
  6
HIDDEN
 62
     7
370
     0
100
AcDbLine
 10
137.1647590161
 20
104.8840722215
 30
0.0
 11
136.5762418196
 21
105.4150595188
 31
0.0
  0
LINE
  5
19F
330
1F
100
AcDbEntity
  8
0
  6
HIDDEN
 62
     7
370
     0
100
AcDbLine
 10
145.315013044
 20
121.2356743661
 30
0.0
 11
145.315013044
 21
120.211981013
 31
0.0
  0
LINE
  5
1A0
330
1F
100
AcDbEntity
  8
0
  6
HIDDEN
 62
     7
370
     0
100
AcDbLine
 10
150.315013044
 20
120.211981013
 30
0.0
 11
150.315013044
 21
121.2356743661
 31
0.0
  0
DIMENSION
  5
1A1
330
1F
100
AcDbEntity
  8
VERMASSUNG
100
AcDbDimension
  2
_D
 10
58.0550978373
 20
143.7600126806
 30
0.0
 11
58.0550978373
 21
112.2600126806
 31
0.0
 70
   160
  1
MAS-BT 40 %%c<>
 71
     2
 42
-1.0
  3
SLDDIMSTYLE0
100
AcDbAlignedDimension
 13
157.215013044
 23
80.7600126806
 33
0.0
 14
157.215013044
 24
143.7600126806
 34
0.0
 50
90.0
100
AcDbRotatedDimension
  0
DIMENSION
  5
1AE
330
1F
100
AcDbEntity
  8
VERMASSUNG
100
AcDbDimension
  2
_D_1
 10
238.215013044
 20
161.7997605982
 30
0.0
 11
152.015013044
 21
161.7997605982
 31
0.0
 70
   160
  1
<>
 71
     2
 42
-1.0
  3
SLDDIMSTYLE0
100
AcDbAlignedDimension
 13
65.815013044
 23
124.0827682777
 33
0.0
 14
238.215013044
 24
131.8600126806
 34
0.0
100
AcDbRotatedDimension
  0
DIMENSION
  5
1B8
330
1F
100
AcDbEntity
  8
VERMASSUNG
100
AcDbDimension
  2
_D_2
 10
131.215013044
 20
155.7997605982
 30
0.0
 11
184.715013044
 21
155.7997605982
 31
0.0
 70
   160
  1
<>
 71
     2
 42
-1.0
  3
SLDDIMSTYLE0
100
AcDbAlignedDimension
 13
238.215013044
 23
131.8600126806
 33
0.0
 14
131.215013044
 24
134.4850126806
 34
0.0
100
AcDbRotatedDimension
  0
DIMENSION
  5
1C2
330
1F
100
AcDbEntity
  8
VERMASSUNG
100
AcDbDimension
  2
_D_3
 10
158.215013044
 20
149.7997605982
 30
0.0
 11
198.215013044
 21
149.7997605982
 31
0.0
 70
   160
  1
<>
 71
     2
 42
-1.0
  3
SLDDIMSTYLE0
100
AcDbAlignedDimension
 13
238.215013044
 23
131.8600126806
 33
0.0
 14
158.215013044
 24
142.7600126806
 34
0.0
100
AcDbRotatedDimension
  0
DIMENSION
  5
1CC
330
1F
100
AcDbEntity
  8
VERMASSUNG
100
AcDbDimension
  2
_D_4
 10
246.9321167286
 20
101.2600126806
 30
0.0
 11
246.9321167286
 21
112.2600126806
 31
0.0
 70
   160
  1
%%c<>
 71
     2
 42
-1.0
  3
SLDDIMSTYLE0
100
AcDbAlignedDimension
 13
237.215013044
 23
123.2600126806
 33
0.0
 14
237.215013044
 24
101.2600126806
 34
0.0
 50
90.0
100
AcDbRotatedDimension
  0
DIMENSION
  5
1D7
330
1F
100
AcDbEntity
  8
VERMASSUNG
100
AcDbDimension
  2
_D_5
 10
253.0321167286
 20
92.2600126806
 30
0.0
 11
253.0321167286
 21
112.2600126806
 31
0.0
 70
   160
  1
WH%%c<>
 71
     2
 42
-1.0
  3
SLDDIMSTYLE0
100
AcDbAlignedDimension
 13
237.815013044
 23
132.2600126806
 33
0.0
 14
237.815013044
 24
92.2600126806
 34
0.0
 50
90.0
100
AcDbRotatedDimension
  0
LINE
  5
1E3
330
1F
100
AcDbEntity
  8
VERMASSUNG
  6
CENTERX2
370
     0
100
AcDbLine
 10
62.8513318438
 20
112.2600126806
 30
0.0
 11
240.7321952092
 21
112.2600126806
 31
0.0
  0
LINE
  5
1E4
330
1F
100
AcDbEntity
  8
0
  6
Continuous
 62
     7
370
    15
100
AcDbLine
 10
275.2370600264
 20
20.534115031
 30
0.0
 11
275.3784583977
 21
20.6157691111
 31
0.0
  0
LINE
  5
1E5
330
1F
100
AcDbEntity
  8
0
  6
Continuous
 62
     7
370
    15
100
AcDbLine
 10
282.3069785909
 20
32.6176185324
 30
0.0
 11
282.3069785909
 21
32.7809001547
 31
0.0
  0
LINE
  5
1E6
330
1F
100
AcDbEntity
  8
0
  6
Continuous
 62
     7
370
    15
100
AcDbLine
 10
280.2355044422
 20
37.3593482194
 30
0.0
 11
253.1533147228
 21
52.9935635608
 31
0.0
  0
LINE
  5
1E7
330
1F
100
AcDbEntity
  8
0
  6
Continuous
 62
     7
370
    15
100
AcDbLine
 10
243.1541273964
 20
35.6725863132
 30
0.0
 11
270.2363171158
 21
20.0383709718
 31
0.0
  0
SPLINE
  5
1E8
330
1F
100
AcDbEntity
  8
0
  6
Continuous
 62
     7
370
    15
100
AcDbSpline
210
0.0
220
0.0
230
1.0
 70
     8
 71
     3
 72
    24
 73
    20
 74
     0
 42
0.000000001
 43
0.00000001
 40
0.0
 40
0.0
 40
0.0
 40
0.0
 40
0.0116096540471754
 40
0.0810296658015615
 40
0.1423212281615943
 40
0.2074699494737345
 40
0.2707082043591173
 40
0.3332123757675755
 40
0.3955916698984286
 40
0.4580507553350258
 40
0.5206862120826969
 40
0.5834902950178643
 40
0.6464139586201331
 40
0.7093934606891912
 40
0.7723551614573422
 40
0.8352107528046263
 40
0.8978903864439385
 40
0.9603311154309111
 40
1.0
 40
1.0
 40
1.0
 40
1.0
 10
272.2697239003306
 20
24.07007132383672
 30
0.0
 10
272.2475717509208
 20
24.08004407887736
 30
0.0
 10
272.0929606612046
 20
24.14964899602472
 30
0.0
 10
271.8765747628075
 20
24.36833297776967
 30
0.0
 10
271.6122010525347
 20
24.74185454949523
 30
0.0
 10
271.4213708790729
 20
25.21304178239144
 30
0.0
 10
271.3029069421279
 20
25.77942294501054
 30
0.0
 10
271.2673949538838
 20
26.41447972806522
 30
0.0
 10
271.3160641208985
 20
27.10509390316477
 30
0.0
 10
271.4495240594295
 20
27.83664466039876
 30
0.0
 10
271.6661439252935
 20
28.59223871681026
 30
0.0
 10
271.9620304560617
 20
29.35407442324598
 30
0.0
 10
272.3309189553041
 20
30.10381458500508
 30
0.0
 10
272.7643614191231
 20
30.8233771114968
 30
0.0
 10
273.2518861970461
 20
31.49522355811275
 30
0.0
 10
273.7813827740311
 20
32.10381933712551
 30
0.0
 10
274.3389793488798
 20
32.63290147942067
 30
0.0
 10
274.8422150081915
 20
33.02459123139808
 30
0.0
 10
275.1530148289962
 20
33.21396920759136
 30
0.0
 10
275.2737584278232
 20
33.2875412525332
 30
0.0
  0
SPLINE
  5
1E9
330
1F
100
AcDbEntity
  8
0
  6
Continuous
 62
     7
370
    15
100
AcDbSpline
210
0.0
220
0.0
230
1.0
 70
     8
 71
     3
 72
    13
 73
     9
 74
     0
 42
0.000000001
 43
0.00000001
 40
0.0
 40
0.0
 40
0.0
 40
0.0
 40
0.0962174288387987
 40
0.279918129634624
 40
0.4635120917454847
 40
0.648213937273809
 40
0.836929980657796
 40
1.0
 40
1.0
 40
1.0
 40
1.0
 10
275.2737584278232
 20
33.2875412525332
 30
0.0
 10
275.3718194085257
 20
33.34154022576706
 30
0.0
 10
275.6571008449519
 20
33.49863537757306
 30
0.0
 10
276.1171409363307
 20
33.68044024222297
 30
0.0
 10
276.6308422202593
 20
33.79663426394794
 30
0.0
 10
277.0973025584096
 20
33.80627493182318
 30
0.0
 10
277.4942453374616
 20
33.73282352677475
 30
0.0
 10
277.708239289832
 20
33.61120381019327
 30
0.0
 10
277.8074359370264
 20
33.55482713232934
 30
0.0
  0
SPLINE
  5
1EA
330
1F
100
AcDbEntity
  8
0
  6
Continuous
 62
     7
370
    15
100
AcDbSpline
210
0.0
220
0.0
230
1.0
 70
     8
 71
     3
 72
    16
 73
    12
 74
     0
 42
0.000000001
 43
0.00000001
 40
0.0
 40
0.0
 40
0.0
 40
0.0
 40
0.0551279280928824
 40
0.1871417942748195
 40
0.320080507162248
 40
0.4539230000097468
 40
0.588485873022088
 40
0.7235286012209826
 40
0.858832661154166
 40
0.9942366357447642
 40
1.0
 40
1.0
 40
1.0
 40
1.0
 10
240.7460133709473
 20
30.84427327156548
 30
0.0
 10
240.8646640059629
 20
30.81936804992017
 30
0.0
 10
241.2674452004828
 20
30.73482273819247
 30
0.0
 10
242.0006258064343
 20
30.7133754839429
 30
0.0
 10
242.9367489438551
 20
30.77734481223307
 30
0.0
 10
243.9071374514272
 20
30.96509314706426
 30
0.0
 10
244.9003792022662
 20
31.26762930264785
 30
0.0
 10
245.9093967254722
 20
31.68128896447152
 30
0.0
 10
246.923290783901
 20
32.21598747202678
 30
0.0
 10
247.6159342661385
 20
32.62314805653458
 30
0.0
 10
247.963838245066
 20
32.87741874986871
 30
0.0
 10
247.9780419367471
 20
32.8877997249377
 30
0.0
  0
SPLINE
  5
1EB
330
1F
100
AcDbEntity
  8
0
  6
Continuous
 62
     7
370
    15
100
AcDbSpline
210
0.0
220
0.0
230
1.0
 70
     8
 71
     3
 72
    15
 73
    11
 74
     0
 42
0.000000001
 43
0.00000001
 40
0.0
 40
0.0
 40
0.0
 40
0.0
 40
0.0870750400087171
 40
0.2216865770301673
 40
0.3563840463240728
 40
0.4910767613056722
 40
0.6256117008268506
 40
0.7597757631170975
 40
0.8933040020965154
 40
1.0
 40
1.0
 40
1.0
 40
1.0
 10
257.9692504137934
 20
50.21338306421708
 30
0.0
 10
257.9888966601918
 20
50.47596470161011
 30
0.0
 10
258.0389145426426
 20
51.14447802504711
 30
0.0
 10
258.0146381657969
 20
52.16869050295857
 30
0.0
 10
257.9081299535396
 20
53.28058935253848
 30
0.0
 10
257.7048996227794
 20
54.32648117384099
 30
0.0
 10
257.4114369453296
 20
55.30029612490047
 30
0.0
 10
257.0253608904258
 20
56.18868682705715
 30
0.0
 10
256.5920575487954
 20
56.94499898305072
 30
0.0
 10
256.2493860979739
 20
57.35695647262954
 30
0.0
 10
256.0971879980951
 20
57.53992808288322
 30
0.0
  0
LINE
  5
1EC
330
1F
100
AcDbEntity
  8
0
  6
Continuous
 62
     7
370
    15
100
AcDbLine
 10
237.3183513938
 20
32.4021598387
 30
0.0
 11
238.8651474777
 21
31.5092134664
 31
0.0
  0
LINE
  5
1ED
330
1F
100
AcDbEntity
  8
0
  6
Continuous
 62
     7
370
    15
100
AcDbLine
 10
254.6138675167
 20
58.7897526314
 30
0.0
 11
253.0670714329
 21
59.6826990037
 31
0.0
  0
LINE
  5
1EE
330
1F
100
AcDbEntity
  8
0
  6
Continuous
 62
     7
370
    15
100
AcDbLine
 10
249.5138598574
 20
61.7339243846
 30
0.0
 11
246.4821395331
 21
63.4840992743
 31
0.0
  0
SPLINE
  5
1EF
330
1F
100
AcDbEntity
  8
0
  6
Continuous
 62
     7
370
    15
100
AcDbSpline
210
0.0
220
0.0
230
1.0
 70
     8
 71
     3
 72
    29
 73
    25
 74
     0
 42
0.000000001
 43
0.00000001
 40
0.0
 40
0.0
 40
0.0
 40
0.0
 40
0.0133927248722024
 40
0.0611037225093159
 40
0.1091460566212478
 40
0.1575186189244347
 40
0.2061585364705147
 40
0.2549792538961843
 40
0.3039003846837561
 40
0.3528616769470711
 40
0.4018172457087933
 40
0.4507492348521577
 40
0.499651424092319
 40
0.5485238792731865
 40
0.5973702605631223
 40
0.6461961714246046
 40
0.6950082129747499
 40
0.7438134794369841
 40
0.7926193114099488
 40
0.8414313907424509
 40
0.8902565841843246
 40
0.939102459384446
 40
0.9879764309640321
 40
1.0
 40
1.0
 40
1.0
 40
1.0
 10
244.5560571861602
 20
64.1595158465704
 30
0.0
 10
244.4765757125764
 20
64.1768149122648
 30
0.0
 10
244.1139449594746
 20
64.25574114422645
 30
0.0
 10
243.4232800845232
 20
64.27929545400109
 30
0.0
 10
242.4906927817327
 20
64.2266438289285
 30
0.0
 10
241.5225304068083
 20
64.04811994624926
 30
0.0
 10
240.5309112617903
 20
63.75597681159502
 30
0.0
 10
239.5231409125699
 20
63.34933368468604
 30
0.0
 10
238.5082581310644
 20
62.83254773650383
 30
0.0
 10
237.4948545061813
 20
62.21007327760218
 30
0.0
 10
236.4913462958004
 20
61.48755448828943
 30
0.0
 10
235.5057965781006
 20
60.67128738873946
 30
0.0
 10
234.5459242685137
 20
59.76816205430659
 30
0.0
 10
233.6191852161623
 20
58.78563643810492
 30
0.0
 10
232.7327683342992
 20
57.73170982631609
 30
0.0
 10
231.8935657058882
 20
56.61487826956836
 30
0.0
 10
231.1081234687813
 20
55.44408205607212
 30
0.0
 10
230.3826252722289
 20
54.22865260183342
 30
0.0
 10
229.7227448253751
 20
52.9782342370531
 30
0.0
 10
229.1340028634432
 20
51.70279914572383
 30
0.0
 10
228.6201972532015
 20
50.41220148238846
 30
0.0
 10
228.1890694765553
 20
49.11742583229857
 30
0.0
 10
227.9210713947863
 20
48.15048477765408
 30
0.0
 10
227.804885049794
 20
47.62051626898818
 30
0.0
 10
227.7819452967936
 20
47.5158796467794
 30
0.0
  0
LINE
  5
1F0
330
1F
100
AcDbEntity
  8
0
  6
Continuous
 62
     7
370
    15
100
AcDbLine
 10
237.4681388308
 20
62.1729762357
 30
0.0
 11
217.5826418556
 21
69.3389211117
 31
0.0
  0
LINE
  5
1F1
330
1F
100
AcDbEntity
  8
0
  6
Continuous
 62
     7
370
    15
100
AcDbLine
 10
211.2111724442
 20
58.3020165008
 30
0.0
 11
230.2390465306
 21
42.2350369234
 31
0.0
  0
LINE
  5
1F2
330
1F
100
AcDbEntity
  8
0
  6
Continuous
 62
     7
370
    15
100
AcDbLine
 10
230.733419494
 20
36.2035601093
 30
0.0
 11
233.7651398184
 21
34.4533852196
 31
0.0
  0
SPLINE
  5
1F3
330
1F
100
AcDbEntity
  8
0
  6
Continuous
 62
     7
370
    15
100
AcDbSpline
210
0.0
220
0.0
230
1.0
 70
     8
 71
     3
 72
    11
 73
     7
 74
     0
 42
0.000000001
 43
0.00000001
 40
0.0
 40
0.0
 40
0.0
 40
0.0
 40
0.1078312376036701
 40
0.4129458071939535
 40
0.7170952226502931
 40
1.0
 40
1.0
 40
1.0
 40
1.0
 10
227.7705824663574
 20
40.27071951132387
 30
0.0
 10
227.8042454134194
 20
40.15577990041954
 30
0.0
 10
227.9331595681296
 20
39.71561217668535
 30
0.0
 10
228.2242682042719
 20
39.00819082923752
 30
0.0
 10
228.657788759702
 20
38.19579532028855
 30
0.0
 10
229.0143434596995
 20
37.73934561264185
 30
0.0
 10
229.1861692114817
 20
37.51937988461273
 30
0.0
  0
SPLINE
  5
1F4
330
1F
100
AcDbEntity
  8
0
  6
Continuous
 62
     7
370
    15
100
AcDbSpline
210
0.0
220
0.0
230
1.0
 70
     8
 71
     3
 72
    23
 73
    19
 74
     0
 42
0.000000001
 43
0.00000001
 40
0.0
 40
0.0
 40
0.0
 40
0.0
 40
0.0396183275435922
 40
0.1013663537595829
 40
0.164415432551543
 40
0.2288490926203872
 40
0.2942344514418336
 40
0.3600368209227183
 40
0.4258522471615145
 40
0.4915511847253749
 40
0.5571283084094731
 40
0.6226221197010924
 40
0.68808804638817
 40
0.7535847336272454
 40
0.8191590845993694
 40
0.8848769715546068
 40
0.9508004245408527
 40
1.0
 40
1.0
 40
1.0
 40
1.0
 10
217.368829685743
 20
69.39110631524721
 30
0.0
 10
217.2508824238514
 20
69.4231021176299
 30
0.0
 10
216.9491058316738
 20
69.5049656899772
 30
0.0
 10
216.4187995348744
 20
69.50437474282104
 30
0.0
 10
215.7952293689655
 20
69.40604447071081
 30
0.0
 10
215.147879257057
 20
69.18730425248884
 30
0.0
 10
214.4910196793323
 20
68.85679009036281
 30
0.0
 10
213.8385992229078
 20
68.41948534434368
 30
0.0
 10
213.2051647423687
 20
67.88608643487693
 30
0.0
 10
212.6035579008407
 20
67.2685922854331
 30
0.0
 10
212.0450887543747
 20
66.57995490683177
 30
0.0
 10
211.5400348769809
 20
65.83384927203493
 30
0.0
 10
211.0977409155726
 20
65.04466936400694
 30
0.0
 10
210.7267993182305
 20
64.2275153384614
 30
0.0
 10
210.4340339146821
 20
63.39745382820208
 30
0.0
 10
210.2276591360231
 20
62.57079354129571
 30
0.0
 10
210.1157695852373
 20
61.82849319421144
 30
0.0
 10
210.1035345067737
 20
61.37924922081137
 30
0.0
 10
210.0983056600847
 20
61.18725798267825
 30
0.0
  0
SPLINE
  5
1F5
330
1F
100
AcDbEntity
  8
0
  6
Continuous
 62
     7
370
    15
100
AcDbSpline
210
0.0
220
0.0
230
1.0
 70
     8
 71
     3
 72
    13
 73
     9
 74
     0
 42
0.000000001
 43
0.00000001
 40
0.0
 40
0.0
 40
0.0
 40
0.0
 40
0.1136900231440132
 40
0.3288504876826222
 40
0.5439833558149852
 40
0.7568877006985673
 40
0.965309164281646
 40
1.0
 40
1.0
 40
1.0
 40
1.0
 10
210.0983056600847
 20
61.18725798267825
 30
0.0
 10
210.1010114187778
 20
61.05349063507795
 30
0.0
 10
210.108837875675
 20
60.66656611630423
 30
0.0
 10
210.1971530724013
 20
60.06599590515998
 30
0.0
 10
210.3939625131238
 20
59.41614910811782
 30
0.0
 10
210.6965617453401
 20
58.86138111684224
 30
0.0
 10
210.9624529244048
 20
58.50204702702323
 30
0.0
 10
211.1468120787104
 20
58.366476629296
 30
0.0
 10
211.1731191522462
 20
58.34713145256352
 30
0.0
  0
LINE
  5
1F6
330
1F
100
AcDbEntity
  8
0
  6
Continuous
 62
     7
370
    15
100
AcDbLine
 10
273.1373866021
 20
30.4802400561
 30
0.0
 11
275.6934102877
 21
31.0010107404
 31
0.0
  0
LINE
  5
1F7
330
1F
100
AcDbEntity
  8
0
  6
Continuous
 62
     7
370
    15
100
AcDbLine
 10
272.7082625539
 20
39.3642389111
 30
0.0
 11
272.6375403861
 21
39.4050792206
 31
0.0
  0
LINE
  5
1F8
330
1F
100
AcDbEntity
  8
0
  6
Continuous
 62
     7
370
    15
100
AcDbLine
 10
269.5964871711
 20
39.4050792206
 30
0.0
 11
269.5257650033
 21
39.3642389111
 31
0.0
  0
LWPOLYLINE
  5
1F9
330
1F
100
AcDbEntity
  8
0
  6
Continuous
 62
     7
370
    15
100
AcDbPolyline
 90
       53
 70
   128
 43
0.0
 10
275.3773321353
 20
36.6193187409
 10
274.5420555562
 20
36.0787795174
 10
273.7189591905
 20
35.4294339363
 10
272.9200456366
 20
34.6807509186
 10
272.1569648533
 20
33.8436479485
 10
271.4408442765
 20
32.9303318723
 10
270.7821265569
 20
31.9541208949
 10
270.1904172822
 20
30.9292503708
 10
269.6743449059
 20
29.8706652199
 10
269.2414349255
 20
28.7938019974
 10
268.8980001432
 20
27.7143637941
 10
268.6490486115
 20
26.6480912495
 10
268.4982106044
 20
25.6105330186
 10
268.4476856796
 20
24.6168190365
 10
268.4982106044
 20
23.6814398909
 10
268.6490486115
 20
22.818035516
 10
268.8980001432
 20
22.0391962917
 10
269.2414349255
 20
21.3562794478
 10
269.6743449059
 20
20.7792434497
 10
270.1904172822
 20
20.3165027815
 10
270.7821265569
 20
19.9748052442
 10
271.4408442765
 20
19.7591335574
 10
272.1569648533
 20
19.6726326998
 10
272.9200456366
 20
19.7165640488
 10
273.7189591905
 20
19.8902869864
 10
274.5420555562
 20
20.1912682409
 10
275.3773321353
 20
20.615118828
 10
276.2126087144
 20
21.1556580515
 10
277.0357050801
 20
21.8050036326
 10
277.8346186339
 20
22.5536866503
 10
278.5976994173
 20
23.3907896204
 10
279.313819994
 20
24.3041056966
 10
279.9725377136
 20
25.280316674
 10
280.5642469883
 20
26.3051871981
 10
281.0803193646
 20
27.363772349
 10
281.513229345
 20
28.4406355715
 10
281.8566641273
 20
29.5200737748
 10
282.105615659
 20
30.5863463194
 10
282.2564536661
 20
31.6239045503
 10
282.3069785909
 20
32.6176185324
 10
282.2564536661
 20
33.552997678
 10
282.105615659
 20
34.4164020529
 10
281.8566641273
 20
35.1952412772
 10
281.513229345
 20
35.8781581211
 10
281.0803193646
 20
36.4551941192
 10
280.5642469883
 20
36.9179347874
 10
279.9725377136
 20
37.2596323247
 10
279.313819994
 20
37.4753040115
 10
278.5976994173
 20
37.5618048691
 10
277.8346186339
 20
37.5178735201
 10
277.0357050801
 20
37.3441505825
 10
276.2126087144
 20
37.043169328
 10
275.3773321353
 20
36.6193187409
  0
LWPOLYLINE
  5
1FA
330
1F
100
AcDbEntity
  8
0
  6
Continuous
 62
     7
370
    15
100
AcDbPolyline
 90
       28
 70
   128
 43
0.0
 10
275.235910779
 20
36.8642677145
 10
274.3835877391
 20
36.3126970782
 10
273.5436934884
 20
35.6500995465
 10
272.7284755763
 20
34.8861372836
 10
271.9498217158
 20
34.0319505794
 10
271.2190864334
 20
33.0999953995
 10
270.546925495
 20
32.1038617492
 10
269.9431405208
 20
31.0580755001
 10
269.4165360552
 20
29.9778865706
 10
268.9747911772
 20
28.8790465476
 10
268.6243475218
 20
27.7775789932
 10
268.3703153466
 20
26.6895457845
 10
268.2163990128
 20
25.6308128958
 10
268.1648429672
 20
24.6168190365
 10
268.2163990128
 20
23.6623505206
 10
268.3703153466
 20
22.7813256482
 10
268.6243475218
 20
21.9865917459
 10
268.9747911772
 20
21.2897378236
 10
269.4165360552
 20
20.7009255806
 10
269.9431405208
 20
20.2287412253
 10
270.546925495
 20
19.8800702689
 10
271.2190864334
 20
19.659997119
 10
271.9498217158
 20
19.5717309378
 10
272.7284755763
 20
19.616558845
 10
273.5436934884
 20
19.7938271486
 10
274.3835877391
 20
20.1009508778
 10
275.235910779
 20
20.5334514768
 10
275.2370600264
 20
20.534115031
  0
LWPOLYLINE
  5
1FB
330
1F
100
AcDbEntity
  8
0
  6
Continuous
 62
     7
370
    15
100
AcDbPolyline
 90
       14
 70
   128
 43
0.0
 10
282.3069785909
 20
32.7809001547
 10
282.2554225452
 20
33.7353686707
 10
282.1015062114
 20
34.6163935431
 10
281.8474740362
 20
35.4111274454
 10
281.4970303808
 20
36.1079813677
 10
281.0552855028
 20
36.6967936107
 10
280.5286810372
 20
37.168977966
 10
279.924896063
 20
37.5176489224
 10
279.2527351247
 20
37.7377220723
 10
278.5219998423
 20
37.8259882534
 10
277.7433459817
 20
37.7811603463
 10
276.9281280696
 20
37.6038920426
 10
276.0882338189
 20
37.2967683135
 10
275.235910779
 20
36.8642677145
  0
SPLINE
  5
1FC
330
1F
100
AcDbEntity
  8
0
  6
Continuous
 62
     7
370
    15
100
AcDbSpline
210
0.0
220
0.0
230
1.0
 70
    11
 71
     3
 72
    88
 73
    84
 74
     0
 42
0.000000001
 43
0.00000001
 40
0.0
 40
0.0
 40
0.0
 40
0.0
 40
0.0312499999999979
 40
0.0312499999999979
 40
0.0624999999999957
 40
0.0624999999999957
 40
0.0937499999999936
 40
0.0937499999999936
 40
0.1093749999999931
 40
0.1093749999999931
 40
0.1249999999999926
 40
0.1249999999999926
 40
0.1562499999999905
 40
0.1562499999999905
 40
0.1718749999999899
 40
0.1718749999999899
 40
0.1874999999999894
 40
0.1874999999999894
 40
0.2187499999999883
 40
0.2187499999999883
 40
0.2343749999999883
 40
0.2343749999999883
 40
0.2499999999999882
 40
0.2499999999999882
 40
0.281249999999989
 40
0.281249999999989
 40
0.2968749999999893
 40
0.2968749999999893
 40
0.3124999999999897
 40
0.3124999999999897
 40
0.34374999999999
 40
0.34374999999999
 40
0.3593749999999902
 40
0.3593749999999902
 40
0.3749999999999903
 40
0.3749999999999903
 40
0.3906249999999905
 40
0.3906249999999905
 40
0.4062499999999906
 40
0.4062499999999906
 40
0.437499999999991
 40
0.437499999999991
 40
0.4531249999999911
 40
0.4531249999999911
 40
0.4687499999999913
 40
0.4687499999999913
 40
0.4999999999999916
 40
0.4999999999999916
 40
0.5312499999999919
 40
0.5312499999999919
 40
0.5624999999999921
 40
0.5624999999999921
 40
0.5937499999999925
 40
0.5937499999999925
 40
0.6249999999999928
 40
0.6249999999999928
 40
0.656249999999993
 40
0.656249999999993
 40
0.6874999999999933
 40
0.6874999999999933
 40
0.7187499999999937
 40
0.7187499999999937
 40
0.7499999999999939
 40
0.7499999999999939
 40
0.7812499999999942
 40
0.7812499999999942
 40
0.8124999999999946
 40
0.8124999999999946
 40
0.8281249999999949
 40
0.8281249999999949
 40
0.8437499999999953
 40
0.8437499999999953
 40
0.874999999999996
 40
0.874999999999996
 40
0.8906249999999964
 40
0.8906249999999964
 40
0.9062499999999968
 40
0.9062499999999968
 40
0.9374999999999979
 40
0.9374999999999979
 40
0.9687499999999989
 40
0.9687499999999989
 40
1.0
 40
1.0
 40
1.0
 40
1.0
 10
271.0914721090948
 20
40.75217908446216
 30
0.0
 10
271.2829098193066
 20
40.71854059961969
 30
0.0
 10
271.4692352614169
 20
40.67569365671321
 30
0.0
 10
271.8329174620857
 20
40.57533758854038
 30
0.0
 10
272.0111991057406
 20
40.51744689416107
 30
0.0
 10
272.3547208555833
 20
40.38995424666736
 30
0.0
 10
272.5172056806251
 20
40.3214784039593
 30
0.0
 10
272.7477034581491
 20
40.21277824509531
 30
0.0
 10
272.8223158209806
 20
40.17553375870763
 30
0.0
 10
272.9670385130345
 20
40.09905645502102
 30
0.0
 10
273.0374229658207
 20
40.05964815458441
 30
0.0
 10
273.2382295793057
 20
39.94039252149814
 30
0.0
 10
273.3592334123724
 20
39.85917889489163
 30
0.0
 10
273.5217523854218
 20
39.73445377741014
 30
0.0
 10
273.5727417332844
 20
39.69238592437266
 30
0.0
 10
273.6681622858682
 20
39.60709528151046
 30
0.0
 10
273.7127249377716
 20
39.5637018565276
 30
0.0
 10
273.8338858315212
 20
39.43386170421692
 30
0.0
 10
273.8988807994353
 20
39.34715798669305
 30
0.0
 10
273.9723269966222
 20
39.21541546464805
 30
0.0
 10
273.9927748158537
 20
39.17121567467585
 30
0.0
 10
274.0251703415641
 20
39.08192318260453
 30
0.0
 10
274.0371020185436
 20
39.0366625000288
 30
0.0
 10
274.0588035999106
 20
38.90199366933335
 30
0.0
 10
274.0550793543571
 20
38.81283378821266
 30
0.0
 10
274.0205419774957
 20
38.67821886286352
 30
0.0
 10
274.0041687674167
 20
38.63320197323612
 30
0.0
 10
273.9608877940946
 20
38.5425586156787
 30
0.0
 10
273.9339184415408
 20
38.49700570169138
 30
0.0
 10
273.8388319983806
 20
38.36296903816265
 30
0.0
 10
273.7561587339201
 20
38.27576231472656
 30
0.0
 10
273.6011541756035
 20
38.14730241529124
 30
0.0
 10
273.543756825126
 20
38.10455048874846
 30
0.0
 10
273.420593975817
 20
38.02174916502083
 30
0.0
 10
273.354991362267
 20
37.98172599852983
 30
0.0
 10
273.2159421021708
 20
37.90434671421252
 30
0.0
 10
273.1424951033606
 20
37.86699074918349
 30
0.0
 10
272.9876973154492
 20
37.79501297399327
 30
0.0
 10
272.9057834691456
 20
37.76019547463518
 30
0.0
 10
272.6540892310674
 20
37.66252345368268
 30
0.0
 10
272.4774513180616
 20
37.60572956808375
 30
0.0
 10
272.1999985925509
 20
37.53329717053147
 30
0.0
 10
272.1056173367016
 20
37.51139192741931
 30
0.0
 10
271.9168877362795
 20
37.47289485331262
 30
0.0
 10
271.8220271420255
 20
37.45616392569706
 30
0.0
 10
271.535971857495
 20
37.41354471082787
 30
0.0
 10
271.3416328752224
 20
37.39519119984411
 30
0.0
 10
270.9614033474124
 20
37.38079019548866
 30
0.0
 10
270.7745450250275
 20
37.38441838542288
 30
0.0
 10
270.4067289499718
 20
37.41443379357705
 30
0.0
 10
270.2272965087269
 20
37.44092265234729
 30
0.0
 10
269.8861016656526
 20
37.51586369378638
 30
0.0
 10
269.7228607504829
 20
37.5644175140983
 30
0.0
 10
269.4112153080117
 20
37.68514395453661
 30
0.0
 10
269.2663250419886
 20
37.75604726487483
 30
0.0
 10
268.9999648620064
 20
37.91717487992896
 30
0.0
 10
268.8780508211819
 20
38.00756924591578
 30
0.0
 10
268.6578742376768
 20
38.20848652945453
 30
0.0
 10
268.5627123680099
 20
38.31619089924791
 30
0.0
 10
268.4018700487363
 20
38.54426743803095
 30
0.0
 10
268.3360641461775
 20
38.66480278322936
 30
0.0
 10
268.2365434982996
 20
38.91758026911516
 30
0.0
 10
268.2043031593033
 20
39.04599417836811
 30
0.0
 10
268.1753466093035
 20
39.30494094075499
 30
0.0
 10
268.1786822498123
 20
39.43607787197951
 30
0.0
 10
268.2257589098732
 20
39.69612969105553
 30
0.0
 10
268.2686448560964
 20
39.8210859043516
 30
0.0
 10
268.36318510323
 20
39.99919971841334
 30
0.0
 10
268.3997716877408
 20
40.05701027141973
 30
0.0
 10
268.4838314694467
 20
40.16909668290747
 30
0.0
 10
268.5316477791757
 20
40.22360709443704
 30
0.0
 10
268.6878734493228
 20
40.37638106775758
 30
0.0
 10
268.8098491336218
 20
40.46558354553373
 30
0.0
 10
269.0201895075686
 20
40.57964959261709
 30
0.0
 10
269.095402646179
 20
40.61450390969742
 30
0.0
 10
269.2510045801943
 20
40.67565196034933
 30
0.0
 10
269.3317422316635
 20
40.70220132642594
 30
0.0
 10
269.5824359755092
 20
40.7704098652606
 30
0.0
 10
269.7630767246413
 20
40.80074150823535
 30
0.0
 10
270.1319963569089
 20
40.83149520904877
 30
0.0
 10
270.3208057285464
 20
40.83249970060088
 30
0.0
 10
270.706876848172
 20
40.80957284938282
 30
0.0
 10
270.900034398883
 20
40.78581756930461
 30
0.0
 10
271.0914721090948
 20
40.75217908446215
 30
0.0
  0
LINE
  5
1FD
330
1F
100
AcDbEntity
  8
0
  6
Continuous
 62
     7
370
    15
100
AcDbLine
 10
277.8202273461
 20
33.5567159421
 30
0.0
 11
277.7735552594
 21
33.5845895555
 31
0.0
  0
LWPOLYLINE
  5
1FE
330
1F
100
AcDbEntity
  8
0
  6
Continuous
 62
     7
370
    15
100
AcDbPolyline
 90
       20
 70
   128
 43
0.0
 10
272.912464091
 20
37.7447549858
 10
272.9779450707
 20
37.7974945186
 10
273.2339955088
 20
38.0875973421
 10
273.357028199
 20
38.4053460908
 10
273.3393125449
 20
38.7307754422
 10
273.1819616864
 20
39.0434374734
 10
272.8948625565
 20
39.3236864789
 10
272.4960546493
 20
39.5539133832
 10
272.0105965325
 20
39.719652183
 10
271.4689913249
 20
39.8104889002
 10
270.9052700736
 20
39.8207159295
 10
270.3548534581
 20
39.7496906693
 10
269.8523261784
 20
39.6018758978
 10
269.4292638719
 20
39.3865593606
 10
269.1122490992
 20
39.1172701878
 10
268.9212010642
 20
38.8109288084
 10
268.8681240178
 20
38.486783778
 10
268.9563529858
 20
38.1652023209
 10
269.1803442178
 20
37.8663905827
 10
269.2731738266
 20
37.7831831644
  0
ARC
  5
1FF
330
1F
100
AcDbEntity
  8
0
  6
Continuous
 62
     7
370
    15
100
AcDbCircle
 10
251.9165603096
 20
54.1179545332
 30
0.0
 40
5.392341337215808
100
AcDbArc
 50
40.4659168775
 51
80.0184109133
  0
ARC
  5
200
330
1F
100
AcDbEntity
  8
0
  6
Continuous
 62
     7
370
    15
100
AcDbCircle
 10
241.5646749514
 20
36.1859081927
 30
0.0
 40
5.397590207797115
100
AcDbArc
 50
219.5452848379
 51
260.1027899646
  0
ARC
  5
201
330
1F
100
AcDbEntity
  8
0
  6
Continuous
 62
     7
370
    15
100
AcDbCircle
 10
241.0139745636
 20
38.1075594965
 30
0.0
 40
6.797736084088351
100
AcDbArc
 50
187.9592832021
 51
237.0672015328
  0
SPLINE
  5
202
330
1F
100
AcDbEntity
  8
0
  6
Continuous
 62
     7
370
    15
100
AcDbSpline
210
0.0
220
0.0
230
1.0
 70
     8
 71
     3
 72
    29
 73
    25
 74
     0
 42
0.000000001
 43
0.00000001
 40
0.0
 40
0.0
 40
0.0
 40
0.0
 40
0.0226170105025813
 40
0.0451713142227494
 40
0.067687022847175
 40
0.0901883721233939
 40
0.1126996441656912
 40
0.1352450890154609
 40
0.1578488467174853
 40
0.1805348711543707
 40
0.2033268568163237
 40
0.2262481695770471
 40
0.249321782405382
 40
0.3751991801869415
 40
0.4999614246460882
 40
0.4999717960762048
 40
0.6247044141129467
 40
0.750955787939839
 40
0.793171387116697
 40
0.834908104501548
 40
0.8763104515880161
 40
0.9175264576289888
 40
0.9587061619389432
 40
1.0
 40
1.0
 40
1.0
 40
1.0
 10
234.2818843122741
 20
42.32053481470697
 30
0.0
 10
234.300249537397
 20
42.27169492490658
 30
0.0
 10
234.336929069146
 20
42.17415055632053
 30
0.0
 10
234.3886188978109
 20
42.02668794691833
 30
0.0
 10
234.4378002576335
 20
41.87875065739755
 30
0.0
 10
234.4842899275325
 20
41.73025879216627
 30
0.0
 10
234.5282000239915
 20
41.58126682603395
 30
0.0
 10
234.569565215447
 20
41.43179503745581
 30
0.0
 10
234.6084425021519
 20
41.28187493414706
 30
0.0
 10
234.6448843471745
 20
41.13153612416577
 30
0.0
 10
234.6789463282617
 20
40.98081367254069
 30
0.0
 10
234.7106833813594
 20
40.82973197580507
 30
0.0
 10
234.7838416532297
 20
40.4540107688577
 30
0.0
 10
234.8695181932598
 20
39.86524034714197
 30
0.0
 10
234.895250555094
 20
39.36375674314357
 30
0.0
 10
234.8956877113165
 20
38.89330391787995
 30
0.0
 10
234.8702566546013
 20
38.44686138800755
 30
0.0
 10
234.7782893385651
 20
38.01083471651364
 30
0.0
 10
234.685735444522
 20
37.74264183389933
 30
0.0
 10
234.6221528206343
 20
37.59639072306943
 30
0.0
 10
234.5505073165987
 20
37.46547039122506
 30
0.0
 10
234.4702525422854
 20
37.35002405877289
 30
0.0
 10
234.3818508826899
 20
37.24850205432357
 30
0.0
 10
234.3154942287777
 20
37.19350317735644
 30
0.0
 10
234.2822699868917
 20
37.16596568286148
 30
0.0
  0
LWPOLYLINE
  5
203
330
1F
100
AcDbEntity
  8
0
  6
Continuous
 62
     7
370
    15
100
AcDbPolyline
 90
       24
 70
   128
 43
0.0
 10
234.2816655711
 20
42.3206610913
 10
234.5516778811
 20
43.6943697285
 10
234.9233658681
 20
45.0905142089
 10
235.3931780322
 20
46.4957542929
 10
235.9566252917
 20
47.8966628321
 10
236.6083238762
 20
49.2798540663
 10
237.3420467689
 20
50.632111525
 10
238.150783206
 20
51.9405143117
 10
239.0268056652
 20
53.192560564
 10
239.9617437024
 20
54.3762869089
 10
240.9466639317
 20
55.4803827745
 10
241.9721553847
 20
56.4942984623
 10
243.0284194327
 20
57.4083459506
 10
244.1053634128
 20
58.213791464
 10
245.1926970646
 20
58.902938925
 10
246.2800308535
 20
59.4692034908
 10
247.3569752436
 20
59.9071744713
 10
248.4132399706
 20
60.2126670292
 10
249.4387323651
 20
60.3827621657
 10
250.4236537894
 20
60.4158346122
 10
251.3585932636
 20
60.3115683596
 10
252.2346173882
 20
60.0709596779
 10
253.0433557031
 20
59.6963075966
 10
253.0670714329
 20
59.6826990037
  0
SPLINE
  5
204
330
1F
100
AcDbEntity
  8
0
  6
Continuous
 62
     7
370
    15
100
AcDbSpline
210
0.0
220
0.0
230
1.0
 70
     8
 71
     3
 72
     8
 73
     4
 74
     0
 42
0.000000001
 43
0.00000001
 40
0.0
 40
0.0
 40
0.0
 40
0.0
 40
1.0
 40
1.0
 40
1.0
 40
1.0
 10
233.503729174099
 20
45.59943821821131
 30
0.0
 10
232.8106579390462
 20
45.4835765998366
 30
0.0
 10
232.11703717265
 20
45.36881790668354
 30
0.0
 10
231.4230580118226
 20
45.25480635904538
 30
0.0
  0
SPLINE
  5
205
330
1F
100
AcDbEntity
  8
0
  6
Continuous
 62
     7
370
    15
100
AcDbSpline
210
0.0
220
0.0
230
1.0
 70
     8
 71
     3
 72
     8
 73
     4
 74
     0
 42
0.000000001
 43
0.00000001
 40
0.0
 40
0.0
 40
0.0
 40
0.0
 40
0.0012389803509652
 40
0.0012389803509652
 40
0.0012389803509652
 40
0.0012389803509652
 10
230.9493215976771
 20
45.52834047979938
 30
0.0
 10
231.1073949326581
 20
45.43706939934888
 30
0.0
 10
231.2653131116241
 20
45.34588787224863
 30
0.0
 10
231.4230580118226
 20
45.25480635904538
 30
0.0
  0
LWPOLYLINE
  5
206
330
1F
100
AcDbEntity
  8
0
  6
Continuous
 62
     7
370
    15
100
AcDbPolyline
 90
       26
 70
   128
 43
0.0
 10
230.9493215977
 20
45.5283404798
 10
231.2949869884
 20
46.8862271578
 10
231.7345373949
 20
48.2550722411
 10
232.2639835336
 20
49.6224523275
 10
232.8785202424
 20
50.975957311
 10
233.5725700921
 20
52.3033030137
 10
234.339834006
 20
53.5924426748
 10
235.1733484289
 20
54.8316762847
 10
236.0655485277
 20
56.009756773
 10
237.0083368479
 20
57.115992084
 10
237.9931568052
 20
58.1403422167
 10
239.0110703435
 20
59.073510346
 10
240.0528390549
 20
59.9070271986
 10
241.1090080262
 20
60.6333279193
 10
242.1699916496
 20
61.2458207278
 10
243.2261606209
 20
61.7389467451
 10
244.2679293323
 20
62.1082304443
 10
245.2858428706
 20
62.3503202704
 10
246.2706628279
 20
62.4630190576
 10
247.2134511481
 20
62.4453039713
 10
248.1056512469
 20
62.2973357905
 10
248.9391656698
 20
62.0204574489
 10
249.7064295836
 20
61.6171818467
 10
250.4004794334
 20
61.0911690437
 10
251.0150161422
 20
60.4471930414
 10
251.087496856
 20
60.3567213434
  0
LINE
  5
207
330
1F
100
AcDbEntity
  8
0
  6
Continuous
 62
     7
370
    15
100
AcDbLine
 10
227.9176012733
 20
47.2785153695
 30
0.0
 11
230.9493215977
 21
45.5283404798
 31
0.0
  0
ARC
  5
208
330
1F
100
AcDbEntity
  8
0
  6
Continuous
 62
     7
370
    15
100
AcDbCircle
 10
243.7629929822
 20
58.7350005782
 30
0.0
 40
5.47244884771156
100
AcDbArc
 50
60.2062499925
 51
80.4865566714
  0
LINE
  5
209
330
1F
100
AcDbEntity
  8
0
  6
Continuous
 62
     7
370
    15
100
AcDbLine
 10
233.9063245766
 20
45.5382758275
 30
0.0
 11
233.8970019257
 21
45.5436576793
 31
0.0
  0
SPLINE
  5
20A
330
1F
100
AcDbEntity
  8
0
  6
Continuous
 62
     7
370
    15
100
AcDbSpline
210
0.0
220
0.0
230
1.0
 70
     8
 71
     3
 72
    10
 73
     6
 74
     0
 42
0.000000001
 43
0.00000001
 40
0.0
 40
0.0
 40
0.0
 40
0.0
 40
0.2496072526300731
 40
0.716434437246763
 40
1.0
 40
1.0
 40
1.0
 40
1.0
 10
234.8330856799265
 20
44.72457447977035
 30
0.0
 10
234.7641242272376
 20
44.80950915197543
 30
0.0
 10
234.566187833049
 20
45.05329262959007
 30
0.0
 10
234.2499171193731
 20
45.32243285460623
 30
0.0
 10
234.0005556609328
 20
45.47908037108434
 30
0.0
 10
233.9063245765581
 20
45.53827582748993
 30
0.0
  0
SPLINE
  5
20B
330
1F
100
AcDbEntity
  8
0
  6
Continuous
 62
     7
370
    15
100
AcDbSpline
210
0.0
220
0.0
230
1.0
 70
     8
 71
     3
 72
    10
 73
     6
 74
     0
 42
0.000000001
 43
0.00000001
 40
0.0
 40
0.0
 40
0.0
 40
0.0
 40
0.5
 40
0.5
 40
1.0
 40
1.0
 40
1.0
 40
1.0
 10
233.897001925651
 20
45.54365767930265
 30
0.0
 10
233.8472013268382
 20
45.57240695305178
 30
0.0
 10
233.7821694100943
 20
45.59317029841245
 30
0.0
 10
233.6451110497488
 20
45.61212398780022
 30
0.0
 10
233.571572209699
 20
45.61077962657242
 30
0.0
 10
233.503729174099
 20
45.59943821821132
 30
0.0
  0
SPLINE
  5
20C
330
1F
100
AcDbEntity
  8
0
  6
Continuous
 62
     7
370
    15
100
AcDbSpline
210
0.0
220
0.0
230
1.0
 70
     8
 71
     3
 72
     8
 73
     4
 74
     0
 42
0.000000001
 43
0.00000001
 40
0.0
 40
0.0
 40
0.0
 40
0.0
 40
1.0
 40
1.0
 40
1.0
 40
1.0
 10
227.7607766657786
 20
47.36903704870817
 30
0.0
 10
227.7831554622981
 20
47.35612509725633
 30
0.0
 10
227.8373428933154
 20
47.32484754609931
 30
0.0
 10
227.9176012733398
 20
47.27851536951932
 30
0.0
  0
LINE
  5
20D
330
1F
100
AcDbEntity
  8
0
  6
Continuous
 62
     7
370
    15
100
AcDbLine
 10
227.7607766658
 20
47.3690370487
 30
0.0
 11
227.7839148637
 21
47.5155024067
 31
0.0
  0
SPLINE
  5
20E
330
1F
100
AcDbEntity
  8
0
  6
Continuous
 62
     7
370
    15
100
AcDbSpline
210
0.0
220
0.0
230
1.0
 70
     8
 71
     3
 72
    11
 73
     7
 74
     0
 42
0.000000001
 43
0.00000001
 40
0.0
 40
0.0
 40
0.0
 40
0.0
 40
0.2912888849913265
 40
0.554962417420661
 40
0.791341792124543
 40
1.0
 40
1.0
 40
1.0
 40
1.0
 10
234.390309661558
 20
37.89209442162212
 30
0.0
 10
234.4812464763982
 20
37.98365198823484
 30
0.0
 10
234.654498931938
 20
38.15808709756647
 30
0.0
 10
234.8055896502015
 20
38.57548514030415
 30
0.0
 10
234.8841790282587
 20
39.02961694081463
 30
0.0
 10
234.8918076295965
 20
39.37358407266879
 30
0.0
 10
234.8953843393983
 20
39.53485486891206
 30
0.0
  0
SPLINE
  5
20F
330
1F
100
AcDbEntity
  8
0
  6
Continuous
 62
     7
370
    15
100
AcDbSpline
210
0.0
220
0.0
230
1.0
 70
     8
 71
     3
 72
     9
 73
     5
 74
     0
 42
0.000000001
 43
0.00000001
 40
0.0
 40
0.0
 40
0.0
 40
0.0
 40
0.506764932008893
 40
1.0
 40
1.0
 40
1.0
 40
1.0
 10
234.2815881970854
 20
37.16546365507784
 30
0.0
 10
234.2998571124463
 20
37.28791777381406
 30
0.0
 10
234.3359071905142
 20
37.52955666988128
 30
0.0
 10
234.3725880435974
 20
37.77170694026792
 30
0.0
 10
234.3906803266619
 20
37.89114394534614
 30
0.0
  0
SPLINE
  5
210
330
1F
100
AcDbEntity
  8
0
  6
Continuous
 62
     7
370
    15
100
AcDbSpline
210
0.0
220
0.0
230
1.0
 70
     8
 71
     3
 72
    10
 73
     6
 74
     0
 42
0.000000001
 43
0.00000001
 40
0.0
 40
0.0
 40
0.0
 40
0.0
 40
0.4807908150149239
 40
0.9757817590326512
 40
1.0
 40
1.0
 40
1.0
 40
1.0
 10
233.9063245765581
 20
38.96512229180964
 30
0.0
 10
234.0561155234584
 20
38.8849519164476
 30
0.0
 10
234.3601214842398
 20
38.72224333830922
 30
0.0
 10
234.6497369284384
 20
38.61074190758773
 30
0.0
 10
234.7840753591172
 20
38.58251029010844
 30
0.0
 10
234.790341504978
 20
38.5811934410719
 30
0.0
  0
LINE
  5
211
330
1F
100
AcDbEntity
  8
0
  6
Continuous
 62
     7
370
    15
100
AcDbLine
 10
228.1942099133
 20
47.1187806905
 30
0.0
 11
227.7607766658
 21
47.3690370487
 31
0.0
  0
LINE
  5
212
330
1F
100
AcDbEntity
  8
0
  6
Continuous
 62
     7
370
    15
100
AcDbLine
 10
231.4230580118
 20
45.254806359
 30
0.0
 11
228.1942099133
 21
47.1187806905
 31
0.0
  0
SPLINE
  5
213
330
1F
100
AcDbEntity
  8
0
  6
Continuous
 62
     7
370
    15
100
AcDbSpline
210
0.0
220
0.0
230
1.0
 70
     8
 71
     3
 72
    11
 73
     7
 74
     0
 42
0.000000001
 43
0.00000001
 40
0.0
 40
0.0
 40
0.0
 40
0.0
 40
0.2180025369760418
 40
0.5290085500344841
 40
0.8400525035994092
 40
1.0
 40
1.0
 40
1.0
 40
1.0
 10
230.2992748346151
 20
43.10495474472344
 30
0.0
 10
230.29455264999
 20
43.31134907536278
 30
0.0
 10
230.2830937189326
 20
43.81218896053739
 30
0.0
 10
230.2180213065585
 20
44.63091550315919
 30
0.0
 10
230.1772933444505
 20
45.38508189146665
 30
0.0
 10
230.198178376037
 20
45.81262675880568
 30
0.0
 10
230.2052708795522
 20
45.95781990644097
 30
0.0
  0
LINE
  5
214
330
1F
100
AcDbEntity
  8
0
  6
Continuous
 62
     7
370
    15
100
AcDbLine
 10
230.2992748346
 20
42.6845993893
 30
0.0
 11
230.2992748346
 21
43.1049547447
 31
0.0
  0
LINE
  5
215
330
1F
100
AcDbEntity
  8
0
  6
Continuous
 62
     7
370
    15
100
AcDbLine
 10
229.6893952358
 20
45.9199682044
 30
0.0
 11
229.6945831305
 21
46.2526336687
 31
0.0
  0
ARC
  5
216
330
1F
100
AcDbEntity
  8
0
  6
Continuous
 62
     7
370
    15
100
AcDbCircle
 10
237.1501231755
 20
45.7277062626
 30
0.0
 40
7.463204810534338
100
AcDbArc
 50
178.5238222856
 51
203.3718076394
  0
LWPOLYLINE
  5
217
330
1F
100
AcDbEntity
  8
0
  6
Continuous
 62
     7
370
    15
100
AcDbPolyline
 90
        3
 70
   128
 43
0.0
 10
217.4002715071
 20
69.3959361976
 10
217.5515624008
 20
69.3498596209
 10
217.5826418556
 20
69.3389211117
  0
LINE
  5
218
330
1F
100
AcDbEntity
  8
0
  6
Continuous
 62
     7
370
    15
100
AcDbLine
 10
211.2111724442
 20
58.3020165008
 30
0.0
 11
211.1734404937
 21
58.3346131926
 31
0.0
  0
LINE
  5
219
330
1F
100
AcDbEntity
  8
0
  6
Continuous
 62
     7
370
    15
100
AcDbLine
 10
233.8970019257
 20
38.9705041436
 30
0.0
 11
233.9063245766
 21
38.9651222918
 31
0.0
  0
ARC
  5
21A
330
1F
100
AcDbEntity
  8
0
  6
Continuous
 62
     7
370
    15
100
AcDbCircle
 10
236.7030130777
 20
39.5949928095
 30
0.0
 40
5.894055296995439
100
AcDbArc
 50
192.5292124781
 51
260.6428941703
  0
SPLINE
  5
21B
330
1F
100
AcDbEntity
  8
0
  6
Continuous
 62
     7
370
    15
100
AcDbSpline
210
0.0
220
0.0
230
1.0
 70
     8
 71
     3
 72
     8
 73
     4
 74
     0
 42
0.000000001
 43
0.00000001
 40
0.0
 40
0.0
 40
0.0
 40
0.0
 40
0.0012389803509652
 40
0.0012389803509652
 40
0.0012389803509652
 40
0.0012389803509652
 10
231.4230580118226
 20
38.6816528233651
 30
0.0
 10
231.2653131116241
 20
38.55957637283038
 30
0.0
 10
231.1073949326581
 20
38.43781906982957
 30
0.0
 10
230.9493215976771
 20
38.31635204828513
 30
0.0
  0
SPLINE
  5
21C
330
1F
100
AcDbEntity
  8
0
  6
Continuous
 62
     7
370
    15
100
AcDbSpline
210
0.0
220
0.0
230
1.0
 70
     8
 71
     3
 72
     8
 73
     4
 74
     0
 42
0.000000001
 43
0.00000001
 40
0.0
 40
0.0
 40
0.0
 40
0.0
 40
1.0
 40
1.0
 40
1.0
 40
1.0
 10
231.4230580118226
 20
38.6816528233651
 30
0.0
 10
232.1170385947642
 20
38.79566460463771
 30
0.0
 10
232.8106716555262
 20
38.91042535715808
 30
0.0
 10
233.503729174099
 20
39.02628468253103
 30
0.0
  0
SPLINE
  5
21D
330
1F
100
AcDbEntity
  8
0
  6
Continuous
 62
     7
370
    15
100
AcDbSpline
210
0.0
220
0.0
230
1.0
 70
     8
 71
     3
 72
    12
 73
     8
 74
     0
 42
0.000000001
 43
0.00000001
 40
0.0
 40
0.0
 40
0.0
 40
0.0
 40
0.2499999999999984
 40
0.2499999999999984
 40
0.4999999999999968
 40
0.4999999999999968
 40
1.0
 40
1.0
 40
1.0
 40
1.0
 10
233.503729174099
 20
39.02628468253103
 30
0.0
 10
233.5375176900232
 20
39.03193315261527
 30
0.0
 10
233.5730894660921
 20
39.03519361613072
 30
0.0
 10
233.6436717124846
 20
39.03633120567884
 30
0.0
 10
233.6786946709335
 20
39.03431458922082
 30
0.0
 10
233.7828999661984
 20
39.01993885188122
 30
0.0
 10
233.8466103981381
 20
38.99959455324882
 30
0.0
 10
233.897001925651
 20
38.97050414362236
 30
0.0
  0
LINE
  5
21E
330
1F
100
AcDbEntity
  8
0
  6
Continuous
 62
     7
370
    15
100
AcDbLine
 10
228.1942099133
 20
40.5456271548
 30
0.0
 11
231.4230580118
 21
38.6816528234
 31
0.0
  0
LINE
  5
21F
330
1F
100
AcDbEntity
  8
0
  6
Continuous
 62
     7
370
    15
100
AcDbLine
 10
228.1942099133
 20
40.5456271548
 30
0.0
 11
230.0871428003
 21
41.6383940503
 31
0.0
  0
LINE
  5
220
330
1F
100
AcDbEntity
  8
0
  6
Continuous
 62
     7
370
    15
100
AcDbLine
 10
227.7607766658
 20
40.2953707966
 30
0.0
 11
228.1942099133
 21
40.5456271548
 31
0.0
  0
LINE
  5
221
330
1F
100
AcDbEntity
  8
0
  6
Continuous
 62
     7
370
    15
100
AcDbLine
 10
230.9493215977
 20
38.3163520483
 30
0.0
 11
227.9176012733
 21
40.066526938
 31
0.0
  0
SPLINE
  5
222
330
1F
100
AcDbEntity
  8
0
  6
Continuous
 62
     7
370
    15
100
AcDbSpline
210
0.0
220
0.0
230
1.0
 70
     8
 71
     3
 72
     8
 73
     4
 74
     0
 42
0.000000001
 43
0.00000001
 40
0.0
 40
0.0
 40
0.0
 40
0.0
 40
1.0
 40
1.0
 40
1.0
 40
1.0
 10
227.9176012733398
 20
40.06652693800506
 30
0.0
 10
227.8375764738242
 20
40.11272427142753
 30
0.0
 10
227.7830996764434
 20
40.19591179379064
 30
0.0
 10
227.7607766657786
 20
40.29537079663284
 30
0.0
  0
ARC
  5
223
330
1F
100
AcDbEntity
  8
0
  6
Continuous
 62
     7
370
    15
100
AcDbCircle
 10
233.454291174
 20
40.8953769228
 30
0.0
 40
5.423678429816364
100
AcDbArc
 50
219.523237723
 51
239.8897582962
  0
ELLIPSE
  5
224
330
1F
100
AcDbEntity
  8
0
  6
Continuous
 62
     7
370
    15
100
AcDbEllipse
 10
229.8528282252
 20
42.4268936247
 30
0.0
 11
-6.005970385558612E-5
 21
0.8534489614827194
 31
0.0
210
0.0
220
0.0
230
1.0
 40
0.7174342186
 41
3.534193645557468
 42
5.104989972352344
  0
ELLIPSE
  5
225
330
1F
100
AcDbEntity
  8
0
  6
Continuous
 62
     7
370
    15
100
AcDbEllipse
 10
229.7335894097
 20
42.3580361446
 30
0.0
 11
0.2600075789209199
 21
0.9705436209909377
 31
0.0
210
0.0
220
0.0
230
1.0
 40
0.5176380889
 41
3.619174351347692
 42
5.189970678142645
  0
ARC
  5
226
330
1F
100
AcDbEntity
  8
0
  6
Continuous
 62
     7
370
    15
100
AcDbCircle
 10
272.9620085913
 20
31.1317726245
 30
0.0
 40
0.6605140898217591
100
AcDbArc
 50
239.2977293641
 51
326.9617610353
  0
LWPOLYLINE
  5
227
330
1F
100
AcDbEntity
  8
0
  6
Continuous
 62
     7
370
    15
100
AcDbPolyline
 90
        8
 70
   128
 43
0.0
 10
276.428463131
 20
33.7391144104
 10
276.536245795
 20
33.4910739201
 10
276.7078895979
 20
32.9415514108
 10
276.7811966677
 20
32.4144520395
 10
276.7519066638
 20
31.9404089058
 10
276.621721815
 20
31.5469716734
 10
276.3982079913
 20
31.2570054843
 10
276.265721882
 20
31.1622609898
  0
LWPOLYLINE
  5
228
330
1F
100
AcDbEntity
  8
0
  6
Continuous
 62
     7
370
    15
100
AcDbPolyline
 90
        7
 70
   128
 43
0.0
 10
269.3374394031
 20
39.2240742451
 10
269.0858146699
 20
38.9344502429
 10
268.9726127993
 20
38.6170989193
 10
269.0055483116
 20
38.2936472426
 10
269.1823767062
 20
37.98613791
 10
269.4910474201
 20
37.7155271743
 10
269.7732245885
 20
37.5587143309
  0
LWPOLYLINE
  5
229
330
1F
100
AcDbEntity
  8
0
  6
Continuous
 62
     7
370
    15
100
AcDbPolyline
 90
       14
 70
   128
 43
0.0
 10
272.640247132
 20
37.6516529064
 10
272.8965881542
 20
37.8310920145
 10
273.1482128873
 20
38.1207160167
 10
273.2614147579
 20
38.4380673403
 10
273.2284792456
 20
38.761519017
 10
273.051650851
 20
39.0690283496
 10
272.7429801371
 20
39.3396390852
 10
272.3235025029
 20
39.5549095495
 10
271.821804656
 20
39.700169416
 10
271.2720764755
 20
39.7655194649
 10
270.7117810284
 20
39.7465061983
 10
270.1791015236
 20
39.644425339
 10
269.710339189
 20
39.4662335288
 10
269.3374394031
 20
39.2240742451
  0
LWPOLYLINE
  5
22A
330
1F
100
AcDbEntity
  8
0
  6
Continuous
 62
     7
370
    15
100
AcDbPolyline
 90
       21
 70
   128
 43
0.0
 10
269.8754502608
 20
39.0135071637
 10
269.6761058771
 20
38.7682397051
 10
269.6178075983
 20
38.4994151041
 10
269.706262066
 20
38.2333477858
 10
269.9328107405
 20
37.9960822729
 10
270.2752774593
 20
37.8108437672
 10
270.7001391937
 20
37.695764704
 10
271.1658075171
 20
37.662109824
 10
271.6266995693
 20
37.7131735013
 10
272.0377000252
 20
37.8439572673
 10
272.3585772964
 20
38.0416590958
 10
272.5579216801
 20
38.2869265545
 10
272.6162199589
 20
38.5557511554
 10
272.5277654913
 20
38.8218184738
 10
272.3012168167
 20
39.0590839866
 10
271.9587500979
 20
39.2443224924
 10
271.5338883635
 20
39.3594015555
 10
271.0682200401
 20
39.3930564356
 10
270.6073279879
 20
39.3419927583
 10
270.196327532
 20
39.2112089923
 10
269.8754502608
 20
39.0135071637
  0
SPLINE
  5
22B
330
1F
100
AcDbEntity
  8
0
  6
Continuous
 62
     7
370
    15
100
AcDbSpline
210
0.0
220
0.0
230
1.0
 70
     8
 71
     3
 72
    10
 73
     6
 74
     0
 42
0.000000001
 43
0.00000001
 40
0.0
 40
0.0
 40
0.0
 40
0.0
 40
0.3269768715937256
 40
0.6651328093757076
 40
1.0
 40
1.0
 40
1.0
 40
1.0
 10
269.677396938316
 20
38.54144236414942
 30
0.0
 10
269.7204774214201
 20
38.45370722068138
 30
0.0
 10
269.80811127337
 20
38.27523734245592
 30
0.0
 10
269.9522613830613
 20
38.04009873029842
 30
0.0
 10
270.0490684881199
 20
37.95748243372397
 30
0.0
 10
270.0972355152773
 20
37.91637613890885
 30
0.0
  0
SPLINE
  5
22C
330
1F
100
AcDbEntity
  8
0
  6
Continuous
 62
     7
370
    15
100
AcDbSpline
210
0.0
220
0.0
230
1.0
 70
     8
 71
     3
 72
    10
 73
     6
 74
     0
 42
0.000000001
 43
0.00000001
 40
0.0
 40
0.0
 40
0.0
 40
0.0
 40
0.2749876157897714
 40
0.8058853999049954
 40
1.0
 40
1.0
 40
1.0
 40
1.0
 10
272.0170157169039
 20
37.8413562133748
 30
0.0
 10
272.0673320762069
 20
37.86732999500243
 30
0.0
 10
272.2147904234574
 20
37.94344939163019
 30
0.0
 10
272.4023516838981
 20
38.18479088564962
 30
0.0
 10
272.5240477502849
 20
38.37131250468067
 30
0.0
 10
272.556630618901
 20
38.42125174747957
 30
0.0
  0
SPLINE
  5
22D
330
1F
100
AcDbEntity
  8
0
  6
Continuous
 62
     7
370
    15
100
AcDbSpline
210
0.0
220
0.0
230
1.0
 70
     8
 71
     3
 72
    11
 73
     7
 74
     0
 42
0.000000001
 43
0.00000001
 40
0.0
 40
0.0
 40
0.0
 40
0.0
 40
0.2164543009645012
 40
0.4403089937225315
 40
0.7518987489759477
 40
1.0
 40
1.0
 40
1.0
 40
1.0
 10
272.556630618901
 20
38.42125174747958
 30
0.0
 10
272.5134988128598
 20
38.43564392274482
 30
0.0
 10
272.4257605603474
 20
38.464920329729
 30
0.0
 10
272.2629414219363
 20
38.59612116120136
 30
0.0
 10
272.0882878420991
 20
38.84188428037671
 30
0.0
 10
271.9765197661293
 20
39.06993772070697
 30
0.0
 10
271.9269749294933
 20
39.17102982905188
 30
0.0
  0
SPLINE
  5
22E
330
1F
100
AcDbEntity
  8
0
  6
Continuous
 62
     7
370
    15
100
AcDbSpline
210
0.0
220
0.0
230
1.0
 70
     8
 71
     3
 72
    11
 73
     7
 74
     0
 42
0.000000001
 43
0.00000001
 40
0.0
 40
0.0
 40
0.0
 40
0.0
 40
0.2164543009645001
 40
0.4403089937225326
 40
0.7518987489759454
 40
1.0
 40
1.0
 40
1.0
 40
1.0
 10
271.9269749294933
 20
39.17102982905188
 30
0.0
 10
271.828360281244
 20
39.13817830572815
 30
0.0
 10
271.6277594322729
 20
39.07135209293185
 30
0.0
 10
271.2554969759468
 20
39.02421171856021
 30
0.0
 10
270.8561767776532
 20
39.0786709754434
 30
0.0
 10
270.6006352061563
 20
39.18430113287314
 30
0.0
 10
270.4873580892007
 20
39.2311251373868
 30
0.0
  0
SPLINE
  5
22F
330
1F
100
AcDbEntity
  8
0
  6
Continuous
 62
     7
370
    15
100
AcDbSpline
210
0.0
220
0.0
230
1.0
 70
     8
 71
     3
 72
    11
 73
     7
 74
     0
 42
0.000000001
 43
0.00000001
 40
0.0
 40
0.0
 40
0.0
 40
0.0
 40
0.1285561766307352
 40
0.4801535797842225
 40
0.8150691831753857
 40
1.0
 40
1.0
 40
1.0
 40
1.0
 10
270.4873580892007
 20
39.2311251373868
 30
0.0
 10
270.4547385666918
 20
39.18085371464107
 30
0.0
 10
270.332905599082
 20
38.99309141317239
 30
0.0
 10
270.1044414979538
 20
38.71755965513099
 30
0.0
 10
269.8570630684412
 20
38.57305823578863
 30
0.0
 10
269.7245406348679
 20
38.54973824639359
 30
0.0
 10
269.677396938316
 20
38.54144236414942
 30
0.0
  0
LINE
  5
230
330
1F
100
AcDbEntity
  8
0
  6
Continuous
 62
     7
370
    15
100
AcDbLine
 10
271.9269749295
 20
37.7987444338
 30
0.0
 11
271.9269749295
 21
39.1710298291
 31
0.0
  0
LINE
  5
231
330
1F
100
AcDbEntity
  8
0
  6
Continuous
 62
     7
370
    15
100
AcDbLine
 10
270.4873580892
 20
37.7416374009
 30
0.0
 11
270.4873580892
 21
39.2311251374
 31
0.0
  0
LWPOLYLINE
  5
232
330
1F
100
AcDbEntity
  8
0
  6
Continuous
 62
     7
370
     0
100
AcDbPolyline
 90
        8
 70
   128
 43
0.0
 10
241.0826532477
 20
40.2510343779
 10
241.1342092934
 20
39.296565862
 10
241.2881256272
 20
38.4155409896
 10
241.5421578024
 20
37.6208070873
 10
241.8926014578
 20
36.923953165
 10
242.3343463358
 20
36.335140922
 10
242.8609508013
 20
35.8629565667
 10
243.1541273964
 20
35.6725863132
  0
LWPOLYLINE
  5
233
330
1F
100
AcDbEntity
  8
0
  6
Continuous
 62
     7
370
     0
100
AcDbPolyline
 90
       21
 70
   128
 43
0.0
 10
253.1533147228
 20
52.9935635608
 10
252.8427063436
 20
53.1518642638
 10
252.1705454052
 20
53.3719374137
 10
251.4398101228
 20
53.4602035948
 10
250.6611562623
 20
53.4153756877
 10
249.8459383502
 20
53.238107384
 10
249.0060440995
 20
52.9309836549
 10
248.1537210596
 20
52.4984830559
 10
247.3013980197
 20
51.9469124196
 10
246.461503769
 20
51.2843148879
 10
245.6462858569
 20
50.520352625
 10
244.8676319963
 20
49.6661659208
 10
244.1368967139
 20
48.7342107409
 10
243.4647357756
 20
47.7380770906
 10
242.8609508013
 20
46.6922908415
 10
242.3343463358
 20
45.612101912
 10
241.8926014578
 20
44.513261889
 10
241.5421578024
 20
43.4117943346
 10
241.2881256272
 20
42.3237611259
 10
241.1342092934
 20
41.2650282372
 10
241.0826532477
 20
40.2510343779
  0
LWPOLYLINE
  5
234
330
1F
100
AcDbEntity
  8
0
  6
Continuous
 62
     7
370
     0
100
AcDbPolyline
 90
       41
 70
   128
 43
0.0
 10
275.3773321353
 20
33.5164636558
 10
274.713636909
 20
33.0730027229
 10
274.0662840619
 20
32.5198256015
 10
273.4512135695
 20
31.8705533484
 10
272.8835705086
 20
31.141173201
 10
272.3773321353
 20
30.3496449194
 10
271.9449637184
 20
29.5154585568
 10
271.5971116032
 20
28.6591545498
 10
271.3423410635
 20
27.8018179452
 10
271.1869253953
 20
26.9645592154
 10
271.1346914481
 20
26.167994449
 10
271.1869253953
 20
25.4317377143
 10
271.3423410635
 20
24.7739180955
 10
271.5971116032
 20
24.2107332949
 10
271.9449637184
 20
23.7560507913
 10
272.3773321353
 20
23.421066377
 10
272.8835705086
 20
23.21402848
 10
273.4512135695
 20
23.1400350605
 10
274.0662840619
 20
23.200908082
 10
274.713636909
 20
23.3951486487
 10
275.3773321353
 20
23.7179739131
 10
276.0410273615
 20
24.161434846
 10
276.6883802086
 20
24.7146119674
 10
277.303450701
 20
25.3638842205
 10
277.8710937619
 20
26.0932643679
 10
278.3773321353
 20
26.8847926495
 10
278.8097005522
 20
27.7189790122
 10
279.1575526673
 20
28.5752830191
 10
279.412323207
 20
29.4326196237
 10
279.5677388753
 20
30.2698783536
 10
279.6199728224
 20
31.0664431199
 10
279.5677388753
 20
31.8026998546
 10
279.412323207
 20
32.4605194734
 10
279.1575526673
 20
33.023704274
 10
278.8097005522
 20
33.4783867776
 10
278.3773321353
 20
33.8133711919
 10
277.8710937619
 20
34.0204090889
 10
277.303450701
 20
34.0944025084
 10
276.6883802086
 20
34.0335294869
 10
276.0410273615
 20
33.8392889203
 10
275.3773321353
 20
33.5164636558
  0
LWPOLYLINE
  5
235
330
1F
100
AcDbEntity
  8
0
  6
Continuous
 62
     7
370
     0
100
AcDbPolyline
 90
       22
 70
   128
 43
0.0
 10
272.2631857998
 20
24.0643455717
 10
272.4448368385
 20
23.9709866827
 10
272.9451944898
 20
23.825652571
 10
273.4993863816
 20
23.8097036427
 10
274.0930592348
 20
23.9235529666
 10
274.7108372345
 20
24.164251905
 10
275.3367202549
 20
24.5255664818
 10
275.9544982545
 20
24.9981388394
 10
276.5481711077
 20
25.5697296019
 10
277.1023629995
 20
26.2255348687
 10
277.6027206509
 20
26.9485696279
 10
278.0362850615
 20
27.7201076592
 10
278.391827141
 20
28.5201665326
 10
278.6601385361
 20
29.3280251437
 10
278.8342701228
 20
30.1227603788
 10
278.9097119843
 20
30.8837890128
 10
278.8845102161
 20
31.5914008037
 10
278.7593175307
 20
32.2272689779
 10
278.5373763529
 20
32.7749248836
 10
278.2244348428
 20
33.2201845207
 10
277.8285980209
 20
33.5515158983
 10
277.8202273461
 20
33.5567159421
  0
LWPOLYLINE
  5
236
330
1F
100
AcDbEntity
  8
0
  6
Continuous
 62
     7
370
     0
100
AcDbPolyline
 90
       35
 70
   128
 43
0.0
 10
236.3096824747
 20
38.7202691683
 10
236.3600232241
 20
39.9511454833
 10
236.5105754543
 20
41.2286516299
 10
236.7599334997
 20
42.5408598774
 10
237.1057691715
 20
43.875518491
 10
237.544853495
 20
45.2201661227
 10
238.0730868584
 20
46.56224816
 10
238.6855372889
 20
47.8892339445
 10
239.3764865021
 20
49.1887337673
 10
240.1394832911
 20
50.4486145489
 10
240.9674037607
 20
51.6571131219
 10
241.8525178403
 20
52.8029460605
 10
242.7865614584
 20
53.8754150315
 10
243.7608137014
 20
54.864506681
 10
244.7661782385
 20
55.7609861268
 10
245.7932682519
 20
56.5564831818
 10
246.832494079
 20
57.2435705044
 10
247.8741527482
 20
57.8158329453
 10
248.9085185731
 20
58.2679274444
 10
249.9259339588
 20
58.5956329171
 10
250.9168995719
 20
58.7958896657
 10
251.8721630335
 20
58.8668279468
 10
252.782805306
 20
58.807785429
 10
253.6403239678
 20
58.6193133762
 10
254.4367125984
 20
58.3031715013
 10
255.1645355316
 20
57.8623115357
 10
255.8169972808
 20
57.3008496702
 10
256.3880059864
 20
56.6240281229
 10
256.872230294
 20
55.8381661942
 10
257.2651491317
 20
54.9506012653
 10
257.5630939222
 20
53.9696202907
 10
257.7632828353
 20
52.9043824255
 10
257.8638467609
 20
51.7648335086
 10
257.8638467609
 20
50.5616132013
 10
257.8499118219
 20
50.2822757669
  0
LWPOLYLINE
  5
237
330
1F
100
AcDbEntity
  8
0
  6
Continuous
 62
     7
370
     0
100
AcDbPolyline
 90
       18
 70
   128
 43
0.0
 10
247.8507244955
 20
32.9612985193
 10
246.832494079
 20
32.3463475037
 10
245.7932682519
 20
31.8335702261
 10
244.7661782385
 20
31.4432143932
 10
243.7608137014
 20
31.1789246521
 10
242.7865614584
 20
31.0431686049
 10
241.8525178403
 20
31.0372137694
 10
240.9674037607
 20
31.1611157441
 10
240.1394832911
 20
31.4137176897
 10
239.3764865021
 20
31.7926611299
 10
238.6855372889
 20
32.294407972
 10
238.0730868584
 20
32.9142735408
 10
237.544853495
 20
33.6464703185
 10
237.1057691715
 20
34.4841619812
 10
236.7599334997
 20
35.4195272273
 10
236.5105754543
 20
36.4438328038
 10
236.3600232241
 20
37.5475150453
 10
236.3096824747
 20
38.7202691683
  0
LWPOLYLINE
  5
238
330
1F
100
AcDbEntity
  8
0
  6
Continuous
 62
     7
370
     0
100
AcDbPolyline
 90
       24
 70
   128
 43
0.0
 10
235.6025756935
 20
38.7202691683
 10
235.653004583
 20
39.9718510822
 10
235.8038345597
 20
41.270322433
 10
236.0536996839
 20
42.6039240631
 10
236.4003371385
 20
43.9605786695
 10
236.8406077208
 20
45.328000178
 10
237.3705242724
 20
46.6938050079
 10
237.985287787
 20
48.0456242189
 10
238.6793308708
 20
49.371215527
 10
239.4463681623
 20
50.658574172
 10
240.279453253
 20
51.8960416347
 10
241.1710415954
 20
53.0724112181
 10
242.1130588272
 20
54.1770295371
 10
243.0969738946
 20
55.1998929972
 10
244.1138763103
 20
56.1317383884
 10
245.1545568487
 20
56.9641267747
 10
246.2095909456
 20
57.6895199178
 10
247.2694240488
 20
58.3013485452
 10
248.3244581457
 20
58.794071842
 10
249.3651386841
 20
59.1632276297
 10
250.3820410998
 20
59.4054727765
 10
251.3659561672
 20
59.5186134727
 10
252.307973399
 20
59.5016250987
 10
252.8512241052
 20
59.4286746996
  0
ARC
  5
239
330
1F
100
AcDbEntity
  8
0
  6
Continuous
 62
     7
370
     0
100
AcDbCircle
 10
244.8781403358
 20
38.2595721284
 30
0.0
 40
9.286998503043089
100
AcDbArc
 50
177.1565803543
 51
216.3935919554
  0
LWPOLYLINE
  5
23A
330
1F
100
AcDbEntity
  8
0
  6
Continuous
 62
     7
370
     0
100
AcDbPolyline
 90
       27
 70
   128
 43
0.0
 10
238.9613329042
 20
40.2510343779
 10
239.0124635029
 20
41.3319224328
 10
239.1652123023
 20
42.4582518261
 10
239.4176583974
 20
43.615858312
 10
239.7666271323
 20
44.7901843174
 10
240.2077300225
 20
45.9664620114
 10
240.7354199433
 20
47.1298990194
 10
241.3430608878
 20
48.2658644462
 10
242.0230114185
 20
49.3600728673
 10
242.766720763
 20
50.398763977
 10
243.5648363448
 20
51.3688756319
 10
244.4073213973
 20
52.258208115
 10
245.2835811822
 20
53.0555775544
 10
246.1825962243
 20
53.7509565668
 10
247.0930608878
 20
54.3356003576
 10
248.0035255513
 20
54.8021566919
 10
248.9025405934
 20
55.1447583531
 10
249.7788003783
 20
55.3590969265
 10
250.6212854308
 20
55.4424769802
 10
251.4194010126
 20
55.3938499617
 10
252.1631103571
 20
55.2138273839
 10
252.8430608878
 20
54.9046731352
 10
253.4507018323
 20
54.4702750096
 10
253.9783917531
 20
53.9160958157
 10
254.4194946433
 20
53.2491046783
 10
254.7684633782
 20
52.477689398
 10
254.9323394601
 20
51.9665544405
  0
LWPOLYLINE
  5
23B
330
1F
100
AcDbEntity
  8
0
  6
Continuous
 62
     7
370
     0
100
AcDbPolyline
 90
       13
 70
   128
 43
0.0
 10
244.9331521337
 20
34.6455771929
 10
244.4073213973
 20
34.5316651153
 10
243.5648363448
 20
34.4482850616
 10
242.766720763
 20
34.4969120801
 10
242.0230114185
 20
34.6769346579
 10
241.3430608878
 20
34.9860889066
 10
240.7354199433
 20
35.4204870322
 10
240.2077300225
 20
35.9746662261
 10
239.7666271323
 20
36.6416573635
 10
239.4176583974
 20
37.4130726438
 10
239.1652123023
 20
38.2792110724
 10
239.0124635029
 20
39.2291804558
 10
238.9613329042
 20
40.2510343779
  0
LWPOLYLINE
  5
23C
330
1F
100
AcDbEntity
  8
0
  6
Continuous
 62
     7
370
     0
100
AcDbPolyline
 90
       18
 70
   128
 43
0.0
 10
233.5037291741
 20
45.5994382182
 10
233.8541703782
 20
46.8877151169
 10
234.3017604417
 20
48.1833846424
 10
234.8415152556
 20
49.4720189543
 10
235.4674244167
 20
50.7392685521
 10
236.1725181557
 20
51.9710220635
 10
236.948944949
 20
53.1535633806
 10
237.7880589484
 20
54.2737243943
 10
238.6805162567
 20
55.3190316273
 10
239.6163789757
 20
56.2778451315
 10
240.5852258694
 20
57.1394881039
 10
241.5762684086
 20
57.8943657773
 10
242.578470906
 20
58.5340722624
 10
243.5806734034
 20
59.0514841508
 10
244.5717159425
 20
59.4408398374
 10
245.5405628362
 20
59.6978036783
 10
246.4764255552
 20
59.8195142699
 10
247.1229762941
 20
59.8226263013
  0
LWPOLYLINE
  5
23D
330
1F
100
AcDbEntity
  8
0
  6
Continuous
 62
     7
370
     0
100
AcDbPolyline
 90
       21
 70
   128
 43
0.0
 10
227.9176012733
 20
47.2785153695
 10
228.263266664
 20
48.6364020476
 10
228.7028170706
 20
50.0052471308
 10
229.2322632092
 20
51.3726272172
 10
229.846799918
 20
52.7261322008
 10
230.5408497678
 20
54.0534779035
 10
231.3081136817
 20
55.3426175645
 10
232.1416281046
 20
56.5818511744
 10
233.0338282033
 20
57.7599316627
 10
233.9766165235
 20
58.8661669737
 10
234.9614364809
 20
59.8905171064
 10
235.9793500192
 20
60.8236852357
 10
237.0211187306
 20
61.6572020883
 10
238.0772877018
 20
62.383502809
 10
239.1382713253
 20
62.9959956175
 10
240.1944402965
 20
63.4891216348
 10
241.2362090079
 20
63.8584053341
 10
242.2541225462
 20
64.1004951601
 10
243.2389425036
 20
64.2131939473
 10
244.1817308238
 20
64.195478861
 10
244.6674739311
 20
64.1321860117
  0
LWPOLYLINE
  5
23E
330
1F
100
AcDbEntity
  8
0
  6
Continuous
 62
     7
370
     0
100
AcDbPolyline
 90
       17
 70
   128
 43
0.0
 10
233.8970019257
 20
45.5436576793
 10
234.2451292323
 20
46.8086393685
 10
234.6880670838
 20
48.0802696505
 10
235.2209199618
 20
49.3444939819
 10
235.8377985727
 20
50.5873396723
 10
236.5318849386
 20
51.7950703165
 10
237.2955077518
 20
52.9543376142
 10
238.1202271613
 20
54.0523289003
 10
238.9969280531
 20
55.0769087557
 10
239.9159207942
 20
56.0167531326
 10
240.8670483257
 20
56.8614745119
 10
241.839798423
 20
57.6017367102
 10
242.8234198802
 20
58.2293580671
 10
243.8070413375
 20
58.7374018715
 10
244.7797914347
 20
59.1202530292
 10
245.7309189663
 20
59.3736801231
 10
246.2579110211
 20
59.4589140529
  0
LINE
  5
23F
330
1F
100
AcDbEntity
  8
0
  6
Continuous
 62
     7
370
     0
100
AcDbLine
 10
233.9063245766
 20
38.9651222918
 30
0.0
 11
234.3121058178
 21
39.1993748162
 31
0.0
  0
LINE
  5
240
330
1F
100
AcDbEntity
  8
0
  6
Continuous
 62
     7
370
     0
100
AcDbLine
 10
234.8669109834
 20
38.9421417017
 30
0.0
 11
234.3121058178
 21
39.1993748162
 31
0.0
  0
ARC
  5
241
330
1F
100
AcDbEntity
  8
0
  6
Continuous
 62
     7
370
     0
100
AcDbCircle
 10
233.6241166483
 20
40.2559764114
 30
0.0
 40
1.260847345342839
100
AcDbArc
 50
303.0695173616
 51
345.5982002285
  0
LINE
  5
242
330
1F
100
AcDbEntity
  8
0
  6
Continuous
 62
     7
370
     0
100
AcDbLine
 10
230.4185136502
 20
42.7534568694
 30
0.0
 11
234.8035041557
 21
40.222055733
 31
0.0
  0
LINE
  5
243
330
1F
100
AcDbEntity
  8
0
  6
Continuous
 62
     7
370
     0
100
AcDbLine
 10
230.2992748346
 20
42.6845993893
 30
0.0
 11
230.4185136502
 21
42.7534568694
 31
0.0
  0
LINE
  5
244
330
1F
100
AcDbEntity
  8
0
  6
Continuous
 62
     7
370
     0
100
AcDbLine
 10
230.0429486264
 20
45.7158661764
 30
0.0
 11
230.0481365211
 21
46.0485316407
 31
0.0
  0
ARC
  5
245
330
1F
100
AcDbEntity
  8
0
  6
Continuous
 62
     7
370
     0
100
AcDbCircle
 10
238.492804369
 20
45.6277261051
 30
0.0
 40
8.450315422700898
100
AcDbArc
 50
179.4023719336
 51
192.8818183876
  0
LWPOLYLINE
  5
246
330
1F
100
AcDbEntity
  8
0
  6
Continuous
 62
     7
370
     0
100
AcDbPolyline
 90
       16
 70
   128
 43
0.0
 10
210.1974327282
 20
61.014745624
 10
210.2480271651
 20
61.8235751205
 10
210.3986802795
 20
62.672751796
 10
210.64602673
 20
63.5433064468
 10
210.9845412054
 20
64.4157923205
 10
211.4066618519
 20
65.2707195245
 10
211.9029591916
 20
66.0889903977
 10
212.4623467622
 20
66.8523261211
 10
213.0723287697
 20
67.5436750358
 10
213.7192792239
 20
68.1475935496
 10
214.3887463208
 20
68.6505911208
 10
215.0657752717
 20
69.0414316149
 10
215.7352423686
 20
69.3113843011
 10
216.3821928228
 20
69.4544188824
 10
216.9921748303
 20
69.4673402026
 10
217.4002715071
 20
69.3959361976
  0
ARC
  5
247
330
1F
100
AcDbEntity
  8
0
  6
Continuous
 62
     7
370
     0
100
AcDbCircle
 10
213.6769508032
 20
60.7640812036
 30
0.0
 40
3.488535320981822
100
AcDbArc
 50
175.879531301
 51
224.1400747385
  0
LWPOLYLINE
  5
248
330
1F
100
AcDbEntity
  8
0
  6
Continuous
 62
     7
370
     0
100
AcDbPolyline
 90
        3
 70
   128
 43
0.0
 10
234.3671618164
 20
37.8702136804
 10
234.2415619869
 20
38.1147937697
 10
233.8970019257
 20
38.9705041436
  0
LWPOLYLINE
  5
249
330
1F
100
AcDbEntity
  8
0
  6
Continuous
 62
     7
370
     0
100
AcDbPolyline
 90
        3
 70
   128
 43
0.0
 10
234.282294318
 20
37.3923955085
 10
233.8541703782
 20
38.1426185857
 10
233.5037291741
 20
39.0262846825
  0
LINE
  5
24A
330
1F
100
AcDbEntity
  8
0
  6
Continuous
 62
     7
370
     0
100
AcDbLine
 10
234.3121058178
 20
39.1993748162
 30
0.0
 11
230.0871428003
 21
41.6383940503
 31
0.0
  0
ARC
  5
24B
330
1F
100
AcDbEntity
  8
0
  6
Continuous
 62
     7
370
     0
100
AcDbCircle
 10
234.8059074361
 20
41.959770781
 30
0.0
 40
7.143747898777105
100
AcDbArc
 50
195.3682058743
 51
219.2094875773
  0
ARC
  5
24C
330
1F
100
AcDbEntity
  8
0
  6
Continuous
 62
     7
370
     0
100
AcDbCircle
 10
272.2454509848
 20
31.3057839348
 30
0.0
 40
1.377997013451773
100
AcDbArc
 50
337.1942549793
 51
20.1753761331
  0
LWPOLYLINE
  5
24D
330
1F
100
AcDbEntity
  8
0
  6
Continuous
 62
     7
370
     0
100
AcDbPolyline
 90
        7
 70
   128
 43
0.0
 10
273.397824479
 20
31.6212279405
 10
273.4394959725
 20
31.2387379269
 10
273.3776394878
 20
30.9022630211
 10
273.2144828645
 20
30.667626539
 10
272.9677066545
 20
30.5602549841
 10
272.6640528893
 20
30.5917837305
 10
272.6558258953
 20
30.5944133714
  0
OLE2FRAME
  5
24E
330
1F
100
AcDbEntity
  8
0
100
AcDbOle2Frame
 70
     2
  3
Paintbrush-Bild
 10
13.8511154363
 20
38.264191557
 30
0.0
 11
51.6290888628
 21
31.9806341108
 31
0.0
 71
     2
 72
     0
 73
     1
 90
    12928
310
80552BED0767C5B32B40DDAF6807D121434000000000000000006FFBDDFB85D0
310
4940DDAF6807D121434000000000000000006FFBDDFB85D04940416F4BD60AFB
310
3F4000000000000000002BED0767C5B32B40416F4BD60AFB3F40000000000000
310
0000000000000100000000010000010000000100000000000100000000320000
310
D0CF11E0A1B11AE1000000000000000000000000000000003E000300FEFF0900
310
0600000000000000000000000100000001000000000000000010000002000000
310
01000000FEFFFFFF0000000000000000FFFFFFFFFFFFFFFFFFFFFFFFFFFFFFFF
310
FFFFFFFFFFFFFFFFFFFFFFFFFFFFFFFFFFFFFFFFFFFFFFFFFFFFFFFFFFFFFFFF
310
FFFFFFFFFFFFFFFFFFFFFFFFFFFFFFFFFFFFFFFFFFFFFFFFFFFFFFFFFFFFFFFF
310
FFFFFFFFFFFFFFFFFFFFFFFFFFFFFFFFFFFFFFFFFFFFFFFFFFFFFFFFFFFFFFFF
310
FFFFFFFFFFFFFFFFFFFFFFFFFFFFFFFFFFFFFFFFFFFFFFFFFFFFFFFFFFFFFFFF
310
FFFFFFFFFFFFFFFFFFFFFFFFFFFFFFFFFFFFFFFFFFFFFFFFFFFFFFFFFFFFFFFF
310
FFFFFFFFFFFFFFFFFFFFFFFFFFFFFFFFFFFFFFFFFFFFFFFFFFFFFFFFFFFFFFFF
310
FFFFFFFFFFFFFFFFFFFFFFFFFFFFFFFFFFFFFFFFFFFFFFFFFFFFFFFFFFFFFFFF
310
FFFFFFFFFFFFFFFFFFFFFFFFFFFFFFFFFFFFFFFFFFFFFFFFFFFFFFFFFFFFFFFF
310
FFFFFFFFFFFFFFFFFFFFFFFFFFFFFFFFFFFFFFFFFFFFFFFFFFFFFFFFFFFFFFFF
310
FFFFFFFFFFFFFFFFFFFFFFFFFFFFFFFFFFFFFFFFFFFFFFFFFFFFFFFFFFFFFFFF
310
FFFFFFFFFFFFFFFFFFFFFFFFFFFFFFFFFFFFFFFFFFFFFFFFFFFFFFFFFFFFFFFF
310
FFFFFFFFFFFFFFFFFFFFFFFFFFFFFFFFFFFFFFFFFFFFFFFFFFFFFFFFFFFFFFFF
310
FFFFFFFFFFFFFFFFFFFFFFFFFFFFFFFFFFFFFFFFFFFFFFFFFFFFFFFFFFFFFFFF
310
FDFFFFFFFEFFFFFFFEFFFFFFFEFFFFFF05000000060000000700000008000000
310
090000000A0000000B0000000C0000000D0000000E0000000F00000010000000
310
11000000120000001300000014000000150000001600000017000000FEFFFFFF
310
FFFFFFFFFFFFFFFFFFFFFFFFFFFFFFFFFFFFFFFFFFFFFFFFFFFFFFFFFFFFFFFF
310
FFFFFFFFFFFFFFFFFFFFFFFFFFFFFFFFFFFFFFFFFFFFFFFFFFFFFFFFFFFFFFFF
310
FFFFFFFFFFFFFFFFFFFFFFFFFFFFFFFFFFFFFFFFFFFFFFFFFFFFFFFFFFFFFFFF
310
FFFFFFFFFFFFFFFFFFFFFFFFFFFFFFFFFFFFFFFFFFFFFFFFFFFFFFFFFFFFFFFF
310
FFFFFFFFFFFFFFFFFFFFFFFFFFFFFFFFFFFFFFFFFFFFFFFFFFFFFFFFFFFFFFFF
310
FFFFFFFFFFFFFFFFFFFFFFFFFFFFFFFFFFFFFFFFFFFFFFFFFFFFFFFFFFFFFFFF
310
FFFFFFFFFFFFFFFFFFFFFFFFFFFFFFFFFFFFFFFFFFFFFFFFFFFFFFFFFFFFFFFF
310
FFFFFFFFFFFFFFFFFFFFFFFFFFFFFFFFFFFFFFFFFFFFFFFFFFFFFFFFFFFFFFFF
310
FFFFFFFFFFFFFFFFFFFFFFFFFFFFFFFFFFFFFFFFFFFFFFFFFFFFFFFFFFFFFFFF
310
FFFFFFFFFFFFFFFFFFFFFFFFFFFFFFFFFFFFFFFFFFFFFFFFFFFFFFFFFFFFFFFF
310
FFFFFFFFFFFFFFFFFFFFFFFFFFFFFFFFFFFFFFFFFFFFFFFFFFFFFFFFFFFFFFFF
310
FFFFFFFFFFFFFFFFFFFFFFFFFFFFFFFFFFFFFFFFFFFFFFFFFFFFFFFFFFFFFFFF
310
FFFFFFFFFFFFFFFFFFFFFFFFFFFFFFFFFFFFFFFFFFFFFFFFFFFFFFFFFFFFFFFF
310
52006F006F007400200045006E00740072007900000000000000000000000000
310
0000000000000000000000000000000000000000000000000000000000000000
310
16000500FFFFFFFFFFFFFFFF020000000A00030000000000C000000000000046
310
00000000000000000000000020ED15674F25D20103000000C000000000000000
310
01004F006C006500000000000000000000000000000000000000000000000000
310
0000000000000000000000000000000000000000000000000000000000000000
310
0A000200FFFFFFFFFFFFFFFFFFFFFFFF00000000000000000000000000000000
310
0000000000000000000000000000000000000000000000001400000000000000
310
010043006F006D0070004F0062006A0000000000000000000000000000000000
310
0000000000000000000000000000000000000000000000000000000000000000
310
120002010100000003000000FFFFFFFF00000000000000000000000000000000
310
0000000000000000000000000000000000000000010000004D00000000000000
310
01004F006C006500310030004E00610074006900760065000000000000000000
310
0000000000000000000000000000000000000000000000000000000000000000
310
1A000200FFFFFFFFFFFFFFFFFFFFFFFF00000000000000000000000000000000
310
0000000000000000000000000000000000000000040000002426000000000000
310
FEFFFFFF02000000FEFFFFFFFFFFFFFFFFFFFFFFFFFFFFFFFFFFFFFFFFFFFFFF
310
FFFFFFFFFFFFFFFFFFFFFFFFFFFFFFFFFFFFFFFFFFFFFFFFFFFFFFFFFFFFFFFF
310
FFFFFFFFFFFFFFFFFFFFFFFFFFFFFFFFFFFFFFFFFFFFFFFFFFFFFFFFFFFFFFFF
310
FFFFFFFFFFFFFFFFFFFFFFFFFFFFFFFFFFFFFFFFFFFFFFFFFFFFFFFFFFFFFFFF
310
FFFFFFFFFFFFFFFFFFFFFFFFFFFFFFFFFFFFFFFFFFFFFFFFFFFFFFFFFFFFFFFF
310
FFFFFFFFFFFFFFFFFFFFFFFFFFFFFFFFFFFFFFFFFFFFFFFFFFFFFFFFFFFFFFFF
310
FFFFFFFFFFFFFFFFFFFFFFFFFFFFFFFFFFFFFFFFFFFFFFFFFFFFFFFFFFFFFFFF
310
FFFFFFFFFFFFFFFFFFFFFFFFFFFFFFFFFFFFFFFFFFFFFFFFFFFFFFFFFFFFFFFF
310
FFFFFFFFFFFFFFFFFFFFFFFFFFFFFFFFFFFFFFFFFFFFFFFFFFFFFFFFFFFFFFFF
310
FFFFFFFFFFFFFFFFFFFFFFFFFFFFFFFFFFFFFFFFFFFFFFFFFFFFFFFFFFFFFFFF
310
FFFFFFFFFFFFFFFFFFFFFFFFFFFFFFFFFFFFFFFFFFFFFFFFFFFFFFFFFFFFFFFF
310
FFFFFFFFFFFFFFFFFFFFFFFFFFFFFFFFFFFFFFFFFFFFFFFFFFFFFFFFFFFFFFFF
310
FFFFFFFFFFFFFFFFFFFFFFFFFFFFFFFFFFFFFFFFFFFFFFFFFFFFFFFFFFFFFFFF
310
FFFFFFFFFFFFFFFFFFFFFFFFFFFFFFFFFFFFFFFFFFFFFFFFFFFFFFFFFFFFFFFF
310
FFFFFFFFFFFFFFFFFFFFFFFFFFFFFFFFFFFFFFFFFFFFFFFFFFFFFFFFFFFFFFFF
310
FFFFFFFFFFFFFFFFFFFFFFFFFFFFFFFFFFFFFFFFFFFFFFFFFFFFFFFFFFFFFFFF
310
0100000200000000000000000000000000000000000000000000000000000000
310
0000000000000000000000000000000000000000000000000000000000000000
310
0100FEFF030A0000FFFFFFFF0A00030000000000C00000000000004607000000
310
5042727573680007000000504272757368000700000050427275736800F439B2
310
7100000000000000000000000000000000000000000000000000000000000000
310
0000000000000000000000000000000000000000000000000000000000000000
310
0000000000000000000000000000000000000000000000000000000000000000
310
0000000000000000000000000000000000000000000000000000000000000000
310
0000000000000000000000000000000000000000000000000000000000000000
310
0000000000000000000000000000000000000000000000000000000000000000
310
0000000000000000000000000000000000000000000000000000000000000000
310
0000000000000000000000000000000000000000000000000000000000000000
310
0000000000000000000000000000000000000000000000000000000000000000
310
0000000000000000000000000000000000000000000000000000000000000000
310
0000000000000000000000000000000000000000000000000000000000000000
310
0000000000000000000000000000000000000000000000000000000000000000
310
20260000424D0E260000000000003E00000028000000B40200006E0000000100
310
01000000000000000000130B0000130B00000200000002000000000000FFFFFF
310
FFFFFFFFFFFFFFFFFFFFFFFFFFFFFFFFFFFFFFFFFFFFFFFFFFFFFFFFFFFFFFFF
310
FFFFFFFFFFFFFFFFFFFFFFFFFFFFFFFFFFFFFFFFFFFFFFFFFFFFFFFFFFFFFFFF
310
FFFFFFFFFFFFFFFFFFFFFFFFFFFFFFFFFFFFFFFFFFFFFFFFF000FFFFFFFFFFFF
310
FFFFFFFFFFFFFFFFFFFFFFFFFFFFFFFFFFFFFFFFFFFFFFFFFFFFFFFFFFFFFFFF
310
FFFFFFFFFFFFFFFFFFFFFFFFFFFFFFFFFFFFFFFFFFFFFFFFFFFFFFFFFFFFFFFF
310
FFFFFFFFFFFFFFFFFFFFFFFFFFFFFFFFF000FFFFFFFFFFFFFFFFFFFFFFFFFFFF
310
FFFFFFFFFFFFFFFFFFFFFFFFFFFFFFFFFFFFFFFFFFFFFFFFFFFFFFFFFFFFFFFF
310
FFFFFFFFFFFFFFFFFFFFFFFFFFFFFFFFFFFFFFFFFFFFFFFFFFFFFFFFFFFFFFFF
310
FFFFFFFFFFFFFFFFF000FFFFFFFFFFFFFFFFFFFFFFFFFFFFFFFFFFFFFFFFFFFF
310
FFFFFFFFFFFFFFFFFFFFFFFFFFFFFFFFFFFFFFFFFFFFFFFFFFFFFFFFFFFFFFFF
310
FFFFFFFFFFFFFFFFFFFFFFFFFFFFFFFFFFFFFFFFFFFFFFFFFFFFFFFFFFFFFFFF
310
F000FFFFFFFFFFFFFFFFFFFFFFFFFFFFFFFFFFFFFFFFFFFFFFFFFFFFFFFFFFFF
310
FFFFFFFFFFFFFFFFFFFFFFFFFFFFFFFFFFFFFFFFFFFFFFFFFFFFFFFFFFFFFFFF
310
FFFFFFFFFFFFFFFFFFFFFFFFFFFFFFFFFFFFFFFFFFFFFFFFF000FFFFFFFFFFFF
310
FFFFFFFFFFFFFFFFFFFFFFFFFFFFFFFFFFFFFFFFFFFFFFFFFFFFFFFFFFFFFFFF
310
FFFFFFFFFFFFFFFFFFFFFFFFFFFFFFFFFFFFFFFFFFFFFFFFFFFFFFFFFFFFFFFF
310
FFFFFFFFFFFFFFFFFFFFFFFFFFFFFFFFF000FFFFFFFFFFFFFFFFFFFFFFFFFFFF
310
FFFFFFFFFFFFFFFFFFFFFFFFFFFFFFFFFFFFFFFFFFFFFFFFFFFFFFFFFFFFFFFF
310
FFFFFFFFFFFFFFFFFFFFFFFFFFFFFFFFFFFFFFFFFFFFFFFFFFFFFFFFFFFFFFFF
310
FFFFFFFFFFFFFFFFF000FFFFFFFFFFFFFFFFFFFFFFFFFFFFFFFFFFFFFFFFFFFF
310
FFFFFFFFFFFFFFFFFFFFFFFFFFFFFFFFFFFFFFFFFFFFFFFFFFFFFFFFFFFFFFFF
310
FFFFFFFFFFFFFFFFFFFFFFFFFFFFFFFFFFFFFFFFFFFFFFFFFFFFFFFFFFFFFFFF
310
F000FFFFFFFFFFFFFFFFFFFFFFFFFFFFFFFFFFFFFFFFFFFFFFFFFFFFFFFFFFFF
310
FFFFFFFFFFFFFFFFFFFFFFFFFFFFFFFFFFFFFFFFFFFFFFFFFFFFFFFFFFFFFFFF
310
FFFFFFFFFFFFFFFFFFFFFFFFFFFFFFFFFFFFFFFFFFFFFFFFF000FFFFFFFFFFFF
310
FFFFFFFFFFFFFFFFFFFFFFFFFFFFFFFFFFFFFFFFFFFFFFFFFFFFFFFFFFFFFFFF
310
FFFFFFFFFFFFFFFFFFFFFFFFFFFFFFFFFFFFFFFFFFFFFFFFFFFFFFFFFFFFFFFF
310
FFFFFFFFFFFFFFFFFFFFFFFFFFFFFFFFF000FFFFFFFFFFFFFFFFFFFFFFFFFFFF
310
FFFFFFFFFFFFFFFFFFFFFFFFFFFFFFFFFFFFFFFFFFFFFFFFFFFFFFFFFFFFFFFF
310
FFFFFFFFFFFFFFFFFFFFFFFFFFFFFFFFFFFFFFFFFFFFFFFFFFFFFFFFFFFFFFFF
310
FFFFFFFFFFFFFFFFF000FFFFFFFFFFFFFFFFFFFFFFFFFFFFFFFFFFFFFFFFFFFF
310
FFFFFFFFFFFFFFFFFFFFFFFFFFFFFFFFFFFFFFFFFFFFFFFFFFFFFFFFFFFFFFFF
310
FFFFFFFFFFFFFFFFFFFFFFFFFFFFFFFFFFFFFFFFFFFFFFFFFFFFFFFFFFFFFFFF
310
F000FFFFFFFFFFFFFFFFFFFFFFFFFFFFFFFFFFFFFFFFFFFFFFFFFFFFFFFFFFFF
310
FFFFFFFFFFFFFFFFFFFFFFFFFFFFFFFFFFFFFFFFFFFFFFFFFFFFFFFFFFFFFFFF
310
FFFFFFFFFFFFFFFFFFFFFFFFFFFFFFFFFFFFFFFFFFFFFFFFF000FFFFFFFFFFFF
310
FFFFFFFFFFFFFFFFFFFFFFFFFFFFFFFFFFFFFFFFFFFFFFFFFFFFFFFFFFFFFFFF
310
FFFFFFFFFFFFFFFFFFFFFFFFFFFFFFFFFFFFFFFFFFFFFFFFFFFFFFFFFFFFFFFF
310
FFFFFFFFFFFFFFFFFFFFFFFFFFFFFFFFF000FFFFFFFFFFFFFFFFFFFFFFFFFFFF
310
FFFFFFFFFFFFFFFFFFFFFFFFFFFFFFFFFFFFFFFFFFFFFFFFFFFFFFFFFFFFFFFF
310
FFFFFFFFFFFFFFFFFFFFFFFFFFFFFFFFFFFFFFFFFFFFFFFFFFFFFFFFFFFFFFFF
310
FFFFFFFFFFFFFFFFF000FFFFFFFFFFFFFFFFFFFFFFFFFFFFFFFFFFFFFFFFFFFF
310
FFFFFFFFFFFFFFFFFFFFFFFFFFFFFFFFFFFFFFFFFFFFFFFFFFFFFFFFFFFFFFFF
310
FFFFFFFFFFFFFFFFFFFFFFFFFFFFFFFFFFFFFFFFFFFFFFFFFFFFFFFFFFFFFFFF
310
F000FFFFFFFFFFFFFFFFFFFFFFFFFFFFFFFFFFFFFFFFFFFFFFFFFFFFFFFFFFFF
310
FFFFFFFFFFFFFFFFFFFFFFFFFFFFFFFFFFFFFFFFFFFFFFFFFFFFFFFFFFFFFFFF
310
FFFFFFFFFFFFFFFFFFFFFFFFFFFFFFFFFFFFFFFFFFFFFFFFF000FFFFFFFFFFFF
310
FFFFFFFFFFFFFFFFFFFFFFFFFFFFFFFFFFFFFFFFFFFFFFFFFFFFFFFFFFFFFFFF
310
FFFFFFFFFFFFFFFFFFFFFFFFFFFFFFFFFFFFFFFFFFFFFFFFFFFFFFFFFFFFFFFF
310
FFFFFFFFFFFFFFFFFFFFFFFFFFFFFFFFF000FFFFFFFFFFFFFFFFFFFFFFFFFFFF
310
FFFFFFFFFFFFFFFFFFFFFFFFFFFFFFFFFFFFFFFFFFFFFFFFFFFFFFFFFFFFFFFF
310
FFFFFFFFFFFFFFFFFFFFFFFFFFFFFFFFFFFFFFFFFFFFFFFFFFFFFFFFFFFFFFFF
310
FFFFFFFFFFFFFFFFF000FFFFF80003FFFFFFFFFFFFFFFFFFFFFFFFFFFFFFFFFF
310
FFFFF00007FFFFFFFFFF00007FFFFFF800000000000000007FFFFFFFFFFFFFFF
310
FFFFFFFC001FFFFFFFFFFFFFFC001FFFFFFFFFFFFFFFFFFFFFFFFFFE0007FFFF
310
F000FFFF8000007FFFFFFFF8000FFFFFC0007FFFFF80007FFFFF0000007FFFFF
310
FFF8000007FFFFF800000000000000007FFFFFF0001FFFFFFFFFFFC00001FFFF
310
FFFFFFFFC00001FFFFFFFF000000000003FFFFE000007FFFF000FFFE0000000F
310
FFFFFFF0000FFFFF80007FFFFF80007FFFFC0000001FFFFFFFC0000001FFFFF8
310
00000000000000007FFFFFF0001FFFFFFFFFFE0000003FFFFFFFFFFE0000003F
310
FFFFFF000000000003FFFF0000000FFFF000FFF800000003FFFFFFF00007FFFF
310
80007FFFFF80007FFFF000000007FFFFFF000000003FFFF80000000000000000
310
7FFFFFF0001FFFFFFFFFF80000000FFFFFFFFFF80000000FFFFFFF0000000000
310
03FFFC00000003FFF000FFE000000000FFFFFFF00007FFFF80003FFFFF80007F
310
FFC000000001FFFFFC000000001FFFF800000000000000007FFFFFF0001FFFFF
310
FFFFE000000003FFFFFFFFE000000003FFFFFF000000000003FFF000000000FF
310
F000FF80000000007FFFFFF00007FFFF80003FFFFF80007FFF8000000000FFFF
310
F80000000007FFF800000000000000007FFFFFF0001FFFFFFFFFC000000001FF
310
FFFFFFC000000001FFFFFF000000000003FFC0000000007FF000FF0000000000
310
3FFFFFE00007FFFF00003FFFFF80007FFE00000000003FFFF00000000003FFF8
310
00000000000000007FFFFFF0001FFFFFFFFF8000000000FFFFFFFF8000000000
310
FFFFFF000000000003FF80000000003FF000FE00000000001FFFFFE00003FFFF
310
00003FFFFF80007FFC00000000001FFFE00000000001FFF8000001FFFE000000
310
7FFFFFF0001FFFFFFFFE00000000003FFFFFFE00000000003FFFFF0000000000
310
03FF00000000001FF000FC00000000000FFFFFE00003FFFF00001FFFFF80007F
310
F800000000001FFFC00000000000FFF8000001FFFE0000007FFFFFF0001FFFFF
310
FFFC00000000001FFFFFFC00000000001FFFFF000000000003FE00000000000F
310
F000F8000000000007FFFFE00003FFFF00001FFFFF80007FF800000000000FFF
310
800000000000FFF8000001FFFE0000007FFFFFF0001FFFFFFFF800000000000F
310
FFFFF800000000000FFFFF000000000003FC000000000007F000F80000000000
310
03FFFFC00003FFFE00001FFFFF80007FF0000000000007FF0000000000007FF8
310
000001FFFE0000007FFFFFF0001FFFFFFFF0000000000007FFFFF00000000000
310
07FFFF000000000003F8000000000003F000F0000000000003FFFFC00001FFFE
310
00001FFFFF80007FE0000000000007FE0000000000003FF8000001FFFE000000
310
7FFFFFF0001FFFFFFFF0000000000007FFFFF0000000000007FFFF0000000000
310
03F800001F800003F000E00001FFF00001FFFFC00001FFFE00000FFFFF80007F
310
E00001FFE00003FE00001FFF00003FF8000001FFFE0000007FFFFFF0001FFFFF
310
FFE000003E000003FFFFE000003E000003FFFF000000000003F00001FFF80001
310
F000E00007FFFC0001FFFFC00001FFFE00000FFFFF80007FC0000FFFFC0003FC
310
0000FFFFC0001FF8000001FFFE0000007FFFFFF0001FFFFFFFC00003FFE00001
310
FFFFC00003FFE00001FFFF0001FFFFFFFFF00007FFFE0001F000E0000FFFFF00
310
00FFFF800001FFFC00000FFFFF80007FC0001FFFFE0001FC0001FFFFE0001FF8
310
000001FFFE0000007FFFFFF0001FFFFFFF80000FFFF80000FFFF80000FFFF800
310
00FFFF0003FFFFFFFFE0000FFFFF8000F000C0003FFFFF8000FFFF800000FFFC
310
000007FFFF80007F80003FFFFF0001FC0003FFFFF0001FF8000001FFFE000000
310
7FFFFFF0001FFFFFFF80003FFFFE0000FFFF80003FFFFE0000FFFF0003FFFFFF
310
FFE0003FFFFF8000F000C0003FFFFF8000FFFF800000FFFC000007FFFF80007F
310
80007FFFFF8001F80007FFFFF8000FF8000001FFFE0000007FFFFFF0001FFFFF
310
FF00007FFFFF00007FFF00007FFFFF00007FFF0003FFFFFFFFE0003FFFFFC000
310
F000C0007FFFFFC000FFFF000000FFFC000007FFFF80007F8000FFFFFF8000F8
310
000FFFFFF8000FF8000001FFFE0000007FFFFFF0001FFFFFFF0000FFFFFF8000
310
7FFF0000FFFFFF80007FFF0003FFFFFFFFC0007FFFFFC00070008000FFFFFFC0
310
00FFFF000000FFF8000007FFFF80007F8000FFFFFF8000F8000FFFFFF8000FF8
310
000001FFFE0000007FFFFFF0001FFFFFFE0001FFFFFFC0003FFE0001FFFFFFC0
310
003FFF0003FFFFFFFFC0007FFFFFE00070008000FFFFFFC0007FFF0000007FF8
310
000003FFFF80007F0001FFFFFF8000F8000FFFFFF8000FF8000001FFFE000000
310
7FFFFFF0001FFFFFFE0001FFFFFFC0003FFE0001FFFFFFC0003FFF0003FFFFFF
310
FFC000FFFFFFE00070008000FFFFFFC0007FFF0000007FF8000003FFFF80007F
310
0001FFFFFF8000F8001FFFFFF8000FF8000001FFFE0000007FFFFFF0001FFFFF
310
FE0003FFFFFFE0003FFE0003FFFFFFE0003FFF0003FFFFFFFFC000FFFFFFE000
310
70008000FFFFFFC0007FFE0000007FF8000003FFFF80007F0001FFFFFF8000F0
310
001FFFFFF8000FF8000001FFFE0000007FFFFFF0001FFFFFFC0003FFFFFFE000
310
1FFC0003FFFFFFE0001FFF0003FFFFFFFFC000FFFFFFC00070008000FFFFFF80
310
007FFE0000007FF0000003FFFF80007F0001FFFFFF0000F0001FFFFFF8000FF8
310
000001FFFE0000007FFFFFF0001FFFFFFC0007FFFFFFF0001FFC0007FFFFFFF0
310
001FFF0003FFFFFFFFC000FFFFFFC00070008001FFFFFF0000FFFE0000003FF0
310
000001FFFF80007F0001FFFFFF0000F8001FFFFFF0000FF8000001FFFE000000
310
7FFFFFF0001FFFFFFC0007FFFFFFF0001FFC0007FFFFFFF0001FFF0003FFFFFF
310
FFC001FFFFFF80007000FFFFFFFFFE0000FFFE0008003FF0008001FFFF80007F
310
FFFFFFFFFC0000FFFFFFFFFFE0000FF8000001FFFE0000007FFFFFF0001FFFFF
310
F8000FFFFFFFF8000FF8000FFFFFFFF8000FFF0003FFFFFFFFFFFFFFFFFF0000
310
7000FFFFFFFFFC0000FFFC0008003FF0008001FFFF80007FFFFFFFFFF80001FF
310
FFFFFFFF80000FF8000001FFFE0000007FFFFFF0001FFFFFF8000FFFFFFFF800
310
0FF8000FFFFFFFF8000FFF0003FFFFFFFFFFFFFFFFFE0000F000FFFFFFFFE000
310
00FFFC000C003FE000C001FFFF80007FFFFFFFFFC00001FFFFFFFFFE00001FF8
310
000001FFFE0000007FFFFFF0001FFFFFF8000FFFFFFFF8000FF8000FFFFFFFF8
310
000FFF0003FFFFFFFFFFFFFFFFF00000F000FFFFFFFE000001FFFC000C001FE0
310
00C000FFFF80007FFFFFFFFE000001FFFFFFFFE000001FF80FFFFFFFFFFFFFC0
310
7FFFFFF0001FFFFFF8000FFFFFFFF8000FF8000FFFFFFFF8000FFF0003FFFFFF
310
FFFFFFFFFF800000F000FFFFFFC0000001FFFC001C001FE001C000FFFF80007F
310
FFFFFF80000003FFFFFFF80000001FF80FFFFFFFFFFFFFC07FFFFFF0001FFFFF
310
F8001FFFFFFFFC000FF8001FFFFFFFFC000FFF0003FFFFFFFFFFFFFFF0000001
310
F000FFFFF800000001FFF8001C001FE001C000FFFF80007FFFFFF800000003FF
310
FFFF800000003FF80FFFFFFFFFFFFFC07FFFFFF0001FFFFFF8001FFFFFFFFC00
310
0FF8001FFFFFFFFC000FFF0003FFFFFFFFFFFFFE00000001F000FFFFC0000000
310
03FFF8001E001FC001E000FFFF80007FFFFF8000000007FFFFFC000000003FF8
310
0FFFFFFFFFFFFFC07FFFFFF0001FFFFFF8001FFFFFFFFC000FF8001FFFFFFFFC
310
000FFF0003FFFFFFFFFFFFE000000003F000FFFE0000000007FFF8001E000FC0
310
01E0007FFF80007FFFFE0000000007FFFFE0000000007FF80FFFFFFFFFFFFFC0
310
7FFFFFF0001FFFFFF0001FFFFFFFFC0007F0001FFFFFFFFC0007FF0003FFFFFF
310
FFFFFF0000000003F000FFF80000000007FFF8001E000FC003E0007FFF80007F
310
FFF0000000000FFFFF8000000000FFF80FFFFFFFFFFFFFC07FFFFFF0001FFFFF
310
F0001FFFFFFFFC0007F0001FFFFFFFFC0007FF0003FFFFFFFFFFFC0000000007
310
F000FFE0000000000FFFF0003E000FC003E0007FFF80007FFFC0000000001FFF
310
FE0000000001FFF80FFFFFFFFFFFFFC07FFFFFF0001FFFFFF0001FFFFFFFFC00
310
07F0001FFFFFFFFC0007FF0003FFFFFFFFFFF0000000000FF000FFC000000000
310
1FFFF0003F000F8003F0003FFF80007FFF80000000003FFFF80000000003FFF8
310
0FFFFFFFFFFFFFC07FFFFFF0001FFFFFF0001FFFFFFFFC0007F0001FFFFFFFFC
310
0007FF0003FFFFFFFFFFE0000000001FF000FF00000000007FFFF0003F000780
310
03F0003FFF80007FFF00000000007FFFF00000000007FFF80FFFFFFFFFFFFFC0
310
7FFFFFF0001FFFFFF0001FFFFFFFFC0007F0001FFFFFFFFC0007FF0003FFFFFF
310
FFFF80000000007FF000FE0000000000FFFFE0003F00078007F0003FFF80007F
310
FE0000000001FFFFE0000000001FFFF80FFFFFFFFFFFFFC07FFFFFF0001FFFFF
310
F0001FFFFFFFFC0007F0001FFFFFFFFC0007FF0003FFFFFFFFFF0000000000FF
310
F000FC0000000003FFFFE0007F00078007F0003FFF80007FFC0000000007FFFF
310
C0000000007FFFF80FFFFFFFFFFFFFC07FFFFFF0001FFFFFF8001FFFFFFFFC00
310
0FF8001FFFFFFFFC000FFF0003FFFFFFFFFE0000000003FFF000FC000000000F
310
FFFFE0007F80070007F8001FFF80007FF8000000001FFFFF8000000001FFFFF8
310
0FFFFFFFFFFFFFC07FFFFFF0001FFFFFF8001FFFFFFFFC000FF8001FFFFFFFFC
310
000FFF0003FFFFFFFFFC000000000FFFF000F8000000007FFFFFE0007F800700
310
07F8001FFF80007FF000000000FFFFFF800000000FFFFFF80FFFFFFFFFFFFFC0
310
7FFFFFF0001FFFFFF8000FFFFFFFF8000FF8000FFFFFFFF8000FFF0003FFFFFF
310
FFFC000000007FFFF000F800000007FFFFFFC0007F8003000FF8001FFF80007F
310
F000000007FFFFFF000000007FFFFFF80FFFFFFFFFFFFFC07FFFFFF0001FFFFF
310
F8000FFFFFFFF8000FF8000FFFFFFFF8000FFF0003FFFFFFFFF80000000FFFFF
310
F000F0000000FFFFFFFFC000FF8003000FF8001FFF80007FE0000000FFFFFFFF
310
0000000FFFFFFFF8000001FFFE0000007FFFFFF0001FFFFFF8000FFFFFFFF800
310
0FF8000FFFFFFFF8000FFF0003FFFFFFFFF8000000FFFFFFF000F000000FFFFF
310
FFFFC000FFC002000FF8000FFF80007FE000001FFFFFFFFE000001FFFFFFFFF8
310
000001FFFE0000007FFFFFF0001FFFFFF8000FFFFFFFF8000FF8000FFFFFFFF8
310
000FFF0003FFFFFFFFF000001FFFFFFFF000E00000FFFFFFFFFFC000FFC00200
310
0FFC000FFF80007FE00001FFFFFFFFFE00001FFFFFFFFFF8000001FFFE000000
310
7FFFFFF0001FFFFFFC000FFFFFFFF8001FFC000FFFFFFFF8001FFF0003FFFFFF
310
FFF00001FFFFFFFFF000E00007FFFFFFFFFF8000FFC000001FFC000FFF80007F
310
C0000FFFFFFFFFFE0000FFFFFFFFFFF8000001FFFE0000007FFFFFF0001FFFFF
310
FC0007FFFFFFF0001FFC0007FFFFFFF0001FFF0003FFFFFFFFF00007FFFFFFFF
310
F000E0001FFFFFFFFFFF8000FFC000001FFC000FFF80007FC0003FFFFFFFFFFE
310
0001FFFFFFFFFFF8000001FFFE0000007FFFFFF0001FFFFFFC0007FFFFFFF000
310
1FFC0007FFFFFFF0001FFF0003FFFFFFFFF0001FFFFFFFFFF000E0003FFFFF00
310
03FF8001FFE000001FFC0007FF80007FC0007FFFFF0007FC0003FFFFF0003FF8
310
000001FFFE0000007FFFFFF0001FFFFFFC0003FFFFFFE0001FFC0003FFFFFFE0
310
001FFF0003FFFFFFFFF0003FFFFFFFFFF000E0003FFFFF0001FF8001FFE00000
310
1FFE0007FF80007FC0007FFFFE0003FC0007FFFFE0003FF8000001FFFE000000
310
7FFFFFF0001FFFFFFE0003FFFFFFE0003FFE0003FFFFFFE0003FFF0003FFFFFF
310
FFF0003FFFFF8001F000E0003FFFFF0001FF0001FFE000001FFE0007FF80007F
310
C0007FFFFE0003FC0007FFFFE0003FF8000001FFFE0000007FFFFFF0001FFFFF
310
FE0001FFFFFFC0003FFE0001FFFFFFC0003FFF0003FFFFFFFFF0003FFFFF0001
310
F000E0003FFFFF0003FF0001FFE000003FFE0007FF80007FC0007FFFFE0003FC
310
0007FFFFE0003FF8000001FFFE0000007FFFFFF0001FFFFFFF0001FFFFFFC000
310
7FFF0001FFFFFFC0007FFF0003FFFFFFFFF0003FFFFF0001F000E0003FFFFE00
310
03FF0003FFF000003FFE0003FF80007FC0007FFFFC0003FE0007FFFFE0003FF8
310
000001FFFE0000007FFFFFF0001FFFFFFF0000FFFFFF80007FFF0000FFFFFF80
310
007FFF0003FFFFFFFFF0003FFFFF0001F000E0003FFFFE0003FF0003FFF00000
310
3FFF0003FF80007FC0007FFFFC0007FE0007FFFFC0003FF8000001FFFE000000
310
7FFFFFF0001FFFFFFF80007FFFFF0000FFFF80007FFFFF0000FFFF0003FFFFFF
310
FFF0003FFFFF0003F000E0003FFFFC0003FE0003FFF000003FFF0003FF80007F
310
E0003FFFF80007FE0003FFFFC0007FF8000001FFFE0000007FFFFFF0001FFFFF
310
FF80003FFFFE0000FFFF80003FFFFE0000FFFF0003FFFFFFFFF0001FFFFE0003
310
F000F0001FFFF80003FE0003FFF000007FFF0001FF80007FE0003FFFF00007FE
310
0001FFFF80007FF8000001FFFE0000007FFFFFF0001FFFFFFFC0000FFFF80001
310
FFFFC0000FFFF80001FFFF0003FFFFFFFFF0001FFFFC0003F000F0000FFFF000
310
07FE0007FFF800007FFF0001FF80007FE0001FFFE00007FF0000FFFE00007FF8
310
000001FFFE0000007FFFFFF0001FFFFFFFC00003FFE00001FFFFC00003FFE000
310
01FFFF0003FFFFFFFFF8000FFFF80003F000F00003FFC00007FC0007FFF80000
310
7FFF8001FF80007FF00007FF80000FFF00007FF80000FFF8000001FFFE000000
310
7F80000000000001FFE000003E000003FFFFE000003E000003FFFF0003FFFFFF
310
FFF80003FFE00007F000F800000000000FFC0007FFF800007FFF8001FF80007F
310
F000000000000FFF000000000000FFF8000001FFFE0000007F80000000000001
310
FFF0000000000007FFFFF0000000000007FFFF0003FFFFFFFFFC00007E000007
310
F000F800000000000FFC0007FFF80000FFFF8000FF80007FF800000000001FFF
310
800000000001FFF8000001FFFE0000007F80000000000001FFF800000000000F
310
FFFFF800000000000FFFFF0003FFFFFFFFFC00000000000FF000FC0000000000
310
1FFC0007FFFC0000FFFF8000FF80007FF800000000003FFFC00000000001FFF8
310
000001FFFE0000007F80000000000001FFF800000000000FFFFFF80000000000
310
0FFFFF0003FFFFFFFFFE00000000001FF000FE00000000003FF8000FFFFC0000
310
FFFF8000FF80007FFC00000000003FFFC00000000003FFF8000001FFFE000000
310
7F80000000000001FFFC00000000001FFFFFFC00000000001FFFFF0003FFFFFF
310
FFFF00000000001FF000FF00000000003FF8000FFFFC0000FFFFC000FF80007F
310
FE00000000007FFFE00000000007FFF8000001FFFE0000007F80000000000001
310
FFFE00000000003FFFFFFE00000000003FFFFF0003FFFFFFFFFF80000000003F
310
F000FF80000000007FF8000FFFFC0001FFFFC0007F80007FFF0000000000FFFF
310
F0000000000FFFF800000000000000007F80000000000001FFFF8000000000FF
310
FFFFFF8000000000FFFFFF0003FFFFFFFFFFC0000000007FF000FFC000000000
310
FFF8000FFFFE0001FFFFC0007F80007FFF8000000001FFFFF8000000001FFFF8
310
00000000000000007F80000000000001FFFFC000000001FFFFFFFFC000000001
310
FFFFFF0003FFFFFFFFFFE000000000FFF000FFE000000003FFF0001FFFFE0001
310
FFFFC0007F80007FFFC000000007FFFFFE000000003FFFF80000000000000000
310
7F80000000000001FFFFE000000003FFFFFFFFE000000003FFFFFF0003FFFFFF
310
FFFFF000000003FFF000FFF80000000FFFF0001FFFFE0001FFFFE0007F80007F
310
FFF00000000FFFFFFF00000000FFFFF800000000000000007F80000000000001
310
FFFFF80000000FFFFFFFFFF80000000FFFFFFF0003FFFFFFFFFFFC0000000FFF
310
F000FFFE0000003FFFF0001FFFFE0003FFFFE0003F80007FFFFC0000003FFFFF
310
FFC0000003FFFFF800000000000000007F80000000000001FFFFFE0000003FFF
310
FFFFFFFE0000003FFFFFFF0003FFFFFFFFFFFF0000003FFFF000FFFF800000FF
310
FFF0001FFFFF0003FFFFE0003F80007FFFFF000001FFFFFFFFF800001FFFFFF8
310
00000000000000007F80000000000001FFFFFFC00001FFFFFFFFFFFFC00001FF
310
FFFFFF0003FFFFFFFFFFFFC00000FFFFF000FFFFF8000FFFFFFFFFFFFFFFFFFF
310
FFFFFFFFFFFFFFFFFFFFF0001FFFFFFFFFFF0000FFFFFFF80000000000000000
310
7FFFFFFFFFFFFFFFFFFFFFFC001FFFFFFFFFFFFFFC001FFFFFFFFFFFFFFFFFFF
310
FFFFFFFC001FFFFFF000FFFFFFFFFFFFFFFFFFFFFFFFFFFFFFFFFFFFFFFFFFFF
310
FFFFFFFFFFFFFFFFFFFFFFFFFFFFFFFFFFFFFFFFFFFFFFFFFFFFFFFFFFFFFFFF
310
FFFFFFFFFFFFFFFFFFFFFFFFFFFFFFFFFFFFFFFFFFFFFFFFFFFFFFFFFFFFFFFF
310
F000FFFFFFFFFFFFFFFFFFFFFFFFFFFFFFFFFFFFFFFFFFFFFFFFFFFFFFFFFFFF
310
FFFFFFFFFFFFFFFFFFFFFFFFFFFFFFFFFFFFFFFFFFFFFFFFFFFFFFFFFFFFFFFF
310
FFFFFFFFFFFFFFFFFFFFFFFFFFFFFFFFFFFFFFFFFFFFFFFFF000FFFFFFFFFFFF
310
FFFFFFFFFFFFFFFFFFFFFFFFFFFFFFFFFFFFFFFFFFFFFFFFFFFFFFFFFFFFFFFF
310
FFFFFFFFFFFFFFFFFFFFFFFFFFFFFFFFFFFFFFFFFFFFFFFFFFFFFFFFFFFFFFFF
310
FFFFFFFFFFFFFFFFFFFFFFFFFFFFFFFFF000FFFFFFFFFFFFFFFFFFFFFFFFFFFF
310
FFFFFFFFFFFFFFFFFFFFFFFFFFFFFFFFFFFFFFFFFFFFFFFFFFFFFFFFFFFFFFFF
310
FFFFFFFFFFFFFFFFFFFFFFFFFFFFFFFFFFFFFFFFFFFFFFFFFFFFFFFFFFFFFFFF
310
FFFFFFFFFFFFFFFFF000FFFFFFFFFFFFFFFFFFFFFFFFFFFFFFFFFFFFFFFFFFFF
310
FFFFFFFFFFFFFFFFFFFFFFFFFFFFFFFFFFFFFFFFFFFFFFFFFFFFFFFFFFFFFFFF
310
FFFFFFFFFFFFFFFFFFFFFFFFFFFFFFFFFFFFFFFFFFFFFFFFFFFFFFFFFFFFFFFF
310
F000FFFFFFFFFFFFFFFFFFFFFFFFFFFFFFFFFFFFFFFFFFFFFFFFFFFFFFFFFFFF
310
FFFFFFFFFFFFFFFFFFFFFFFFFFFFFFFFFFFFFFFFFFFFFFFFFFFFFFFFFFFFFFFF
310
FFFFFFFFFFFFFFFFFFFFFFFFFFFFFFFFFFFFFFFFFFFFFFFFF000FFFFFFFFFFFF
310
FFFFFFFFFFFFFFFFFFFFFFFFFFFFFFFFFFFFFFFFFFFFFFFFFFFFFFFFFFFFFFFF
310
FFFFFFFFFFFFFFFFFFFFFFFFFFFFFFFFFFFFFFFFFFFFFFFFFFFFFFFFFFFFFFFF
310
FFFFFFFFFFFFFFFFFFFFFFFFFFFFFFFFF000FFFFFFFFFFFFFFFFFFFFFFFFFFFF
310
FFFFFFFFFFFFFFFFFFFFFFFFFFFFFFFFFFFFFFFFFFFFFFFFFFFFFFFFFFFFFFFF
310
FFFFFFFFFFFFFFFFFFFFFFFFFFFFFFFFFFFFFFFFFFFFFFFFFFFFFFFFFFFFFFFF
310
FFFFFFFFFFFFFFFFF000FFFFFFFFFFFFFFFFFFFFFFFFFFFFFFFFFFFFFFFFFFFF
310
FFFFFFFFFFFFFFFFFFFFFFFFFFFFFFFFFFFFFFFFFFFFFFFFFFFFFFFFFFFFFFFF
310
FFFFFFFFFFFFFFFFFFFFFFFFFFFFFFFFFFFFFFFFFFFFFFFFFFFFFFFFFFFFFFFF
310
F000FFFFFFFFFFFFFFFFFFFFFFFFFFFFFFFFFFFFFFFFFFFFFFFFFFFFFFFFFFFF
310
FFFFFFFFFFFFFFFFFFFFFFFFFFFFFFFFFFFFFFFFFFFFFFFFFFFFFFFFFFFFFFFF
310
FFFFFFFFFFFFFFFFFFFFFFFFFFFFFFFFFFFFFFFFFFFFFFFFF000FFFFFFFFFFFF
310
FFFFFFFFFFFFFFFFFFFFFFFFFFFFFFFFFFFFFFFFFFFFFFFFFFFFFFFFFFFFFFFF
310
FFFFFFFFFFFFFFFFFFFFFFFFFFFFFFFFFFFFFFFFFFFFFFFFFFFFFFFFFFFFFFFF
310
FFFFFFFFFFFFFFFFFFFFFFFFFFFFFFFFF000FFFFFFFFFFFFFFFFFFFFFFFFFFFF
310
FFFFFFFFFFFFFFFFFFFFFFFFFFFFFFFFFFFFFFFFFFFFFFFFFFFFFFFFFFFFFFFF
310
FFFFFFFFFFFFFFFFFFFFFFFFFFFFFFFFFFFFFFFFFFFFFFFFFFFFFFFFFFFFFFFF
310
FFFFFFFFFFFFFFFFF000FFFFFFFFFFFFFFFFFFFFFFFFFFFFFFFFFFFFFFFFFFFF
310
FFFFFFFFFFFFFFFFFFFFFFFFFFFFFFFFFFFFFFFFFFFFFFFFFFFFFFFFFFFFFFFF
310
FFFFFFFFFFFFFFFFFFFFFFFFFFFFFFFFFFFFFFFFFFFFFFFFFFFFFFFFFFFFFFFF
310
F000FFFFFFFFFFFFFFFFFFFFFFFFFFFFFFFFFFFFFFFFFFFFFFFFFFFFFFFFFFFF
310
FFFFFFFFFFFFFFFFFFFFFFFFFFFFFFFFFFFFFFFFFFFFFFFFFFFFFFFFFFFFFFFF
310
FFFFFFFFFFFFFFFFFFFFFFFFFFFFFFFFFFFFFFFFFFFFFFFFF000FFFFFFFFFFFF
310
FFFFFFFFFFFFFFFFFFFFFFFFFFFFFFFFFFFFFFFFFFFFFFFFFFFFFFFFFFFFFFFF
310
FFFFFFFFFFFFFFFFFFFFFFFFFFFFFFFFFFFFFFFFFFFFFFFFFFFFFFFFFFFFFFFF
310
FFFFFFFFFFFFFFFFFFFFFFFFFFFFFFFFF000FFFFFFFFFFFFFFFFFFFFFFFFFFFF
310
FFFFFFFFFFFFFFFFFFFFFFFFFFFFFFFFFFFFFFFFFFFFFFFFFFFFFFFFFFFFFFFF
310
FFFFFFFFFFFFFFFFFFFFFFFFFFFFFFFFFFFFFFFFFFFFFFFFFFFFFFFFFFFFFFFF
310
FFFFFFFFFFFFFFFFF000FFFFFFFFFFFFFFFFFFFFFFFFFFFFFFFFFFFFFFFFFFFF
310
FFFFFFFFFFFFFFFFFFFFFFFFFFFFFFFFFFFFFFFFFFFFFFFFFFFFFFFFFFFFFFFF
310
FFFFFFFFFFFFFFFFFFFFFFFFFFFFFFFFFFFFFFFFFFFFFFFFFFFFFFFFFFFFFFFF
310
F000FFFFFFFFFFFFFFFFFFFFFFFFFFFFFFFFFFFFFFFFFFFFFFFFFFFFFFFFFFFF
310
FFFFFFFFFFFFFFFFFFFFFFFFFFFFFFFFFFFFFFFFFFFFFFFFFFFFFFFFFFFFFFFF
310
FFFFFFFFFFFFFFFFFFFFFFFFFFFFFFFFFFFFFFFFFFFFFFFFF000FFFFFFFFFFFF
310
FFFFFFFFFFFFFFFFFFFFFFFFFFFFFFFFFFFFFFFFFFFFFFFFFFFFFFFFFFFFFFFF
310
FFFFFFFFFFFFFFFFFFFFFFFFFFFFFFFFFFFFFFFFFFFFFFFFFFFFFFFFFFFFFFFF
310
FFFFFFFFFFFFFFFFFFFFFFFFFFFFFFFFF000FFFFFFFFFFFFFFFFFFFFFFFFFFFF
310
FFFFFFFFFFFFFFFFFFFFFFFFFFFFFFFFFFFFFFFFFFFFFFFFFFFFFFFFFFFFFFFF
310
FFFFFFFFFFFFFFFFFFFFFFFFFFFFFFFFFFFFFFFFFFFFFFFFFFFFFFFFFFFFFFFF
310
FFFFFFFFFFFFFFFFF000FFFFFFFFFFFFFFFFFFFFFFFFFFFFFFFFFFFFFFFFFFFF
310
FFFFFFFFFFFFFFFFFFFFFFFFFFFFFFFFFFFFFFFFFFFFFFFFFFFFFFFFFFFFFFFF
310
FFFFFFFFFFFFFFFFFFFFFFFFFFFFFFFFFFFFFFFFFFFFFFFFFFFFFFFFFFFFFFFF
310
F000FFFFFFFFFFFFFFFFFFFFFFFFFFFFFFFFFFFFFFFFFFFFFFFFFFFFFFFFFFFF
310
FFFFFFFFFFFFFFFFFFFFFFFFFFFFFFFFFFFFFFFFFFFFFFFFFFFFFFFFFFFFFFFF
310
FFFFFFFFFFFFFFFFFFFFFFFFFFFFFFFFFFFFFFFFFFFFFFFFF000FFFFFFFFFFFF
310
FFFFFFFFFFFFFFFFFFFFFFFFFFFFFFFFFFFFFFFFFFFFFFFFFFFFFFFFFFFFFFFF
310
FFFFFFFFFFFFFFFFFFFFFFFFFFFFFFFFFFFFFFFFFFFFFFFFFFFFFFFFFFFFFFFF
310
FFFFFFFFFFFFFFFFFFFFFFFFFFFFFFFFF0000000000000000000000000000000
310
0000000000000000000000000000000000000000000000000000000000000000
310
0000000000000000000000000000000000000000000000000000000000000000
310
0000000000000000000000000000000000000000000000000000000000000000
310
0000000000000000000000000000000000000000000000000000000000000000
310
0000000000000000000000000000000000000000000000000000000000000000
310
0000000000000000000000000000000000000000000000000000000000000000
310
0000000000000000000000000000000000000000000000000000000000000000
310
0000000000000000000000000000000000000000000000000000000000000000
310
0000000000000000000000000000000000000000000000000000000000000000
310
0000000000000000000000000000000000000000000000000000000000000000
310
0000000000000000000000000000000000000000000000000000000000000000
310
0000000000000000000000000000000000000000000000000000000000000000
310
0000000000000000000000000000000000000000000000000000000000000000
310
0000000000000000000000000000000000000000000000000000000000000000
310
0000000000000000000000000000000000000000000000000000000000000000
  1
OLE
  0
ENDSEC
  0
SECTION
  2
OBJECTS
  0
DICTIONARY
  5
C
330
0
100
AcDbDictionary
281
     1
  3
ACAD_GROUP
350
D
  3
ACAD_LAYOUT
350
1A
  3
ACAD_MLINESTYLE
350
17
  3
ACAD_PLOTSETTINGS
350
19
  3
ACAD_PLOTSTYLENAME
350
E
  3
ACAD_SCALELIST
350
47
  0
DICTIONARY
  5
D
102
{ACAD_REACTORS
330
C
102
}
330
C
100
AcDbDictionary
281
     1
  0
DICTIONARY
  5
1A
102
{ACAD_REACTORS
330
C
102
}
330
C
100
AcDbDictionary
281
     1
  3
Layout1
350
1E
  3
Layout2
350
26
  3
Model
350
22
  0
DICTIONARY
  5
17
102
{ACAD_REACTORS
330
C
102
}
330
C
100
AcDbDictionary
281
     1
  3
Standard
350
18
  0
DICTIONARY
  5
19
102
{ACAD_REACTORS
330
C
102
}
330
C
100
AcDbDictionary
281
     1
  0
ACDBDICTIONARYWDFLT
  5
E
102
{ACAD_REACTORS
330
C
102
}
330
C
100
AcDbDictionary
281
     1
  3
Normal
350
F
100
AcDbDictionaryWithDefault
340
F
  0
DICTIONARY
  5
47
102
{ACAD_REACTORS
330
C
102
}
330
C
100
AcDbDictionary
281
     1
  3
A0
350
48
  3
A1
350
49
  3
A2
350
4A
  3
A3
350
4B
  3
A4
350
4C
  3
A5
350
4D
  3
A6
350
4E
  3
A7
350
4F
  3
A8
350
50
  3
A9
350
51
  3
B0
350
52
  3
B1
350
53
  3
B2
350
54
  3
B3
350
55
  3
B4
350
56
  3
B5
350
57
  3
B6
350
58
  3
B7
350
59
  3
B8
350
5A
  3
B9
350
5B
  3
C0
350
5C
  3
C1
350
5D
  3
C2
350
5E
  3
C3
350
5F
  3
C4
350
60
  3
C5
350
61
  3
C6
350
62
  3
C7
350
63
  3
C8
350
64
  3
C9
350
65
  3
D0
350
66
  3
D1
350
67
  3
D2
350
68
  0
LAYOUT
  5
1E
102
{ACAD_REACTORS
330
1A
102
}
330
1A
100
AcDbPlotSettings
  1

  2
none_device
  4

  6

 40
0.0
 41
0.0
 42
0.0
 43
0.0
 44
0.0
 45
0.0
 46
0.0
 47
0.0
 48
0.0
 49
0.0
140
0.0
141
0.0
142
1.0
143
1.0
 70
   688
 72
     1
 73
     0
 74
     5
  7

 75
    16
147
1.0
148
0.0
149
0.0
100
AcDbLayout
  1
Layout1
 70
     1
 71
     1
 10
0.0
 20
0.0
 11
420.0
 21
297.0
 12
0.0
 22
0.0
 32
0.0
 14
1.0000000000E+20
 24
1.0000000000E+20
 34
1.0000000000E+20
 15
-1.0000000000E+20
 25
-1.0000000000E+20
 35
-1.0000000000E+20
146
0.0
 13
0.0
 23
0.0
 33
0.0
 16
1.0
 26
0.0
 36
0.0
 17
0.0
 27
1.0
 37
0.0
 76
     0
330
1B
  0
LAYOUT
  5
26
102
{ACAD_REACTORS
330
1A
102
}
330
1A
100
AcDbPlotSettings
  1

  2
none_device
  4

  6

 40
0.0
 41
0.0
 42
0.0
 43
0.0
 44
0.0
 45
0.0
 46
0.0
 47
0.0
 48
0.0
 49
0.0
140
0.0
141
0.0
142
1.0
143
1.0
 70
   688
 72
     1
 73
     0
 74
     5
  7

 75
    16
147
1.0
148
0.0
149
0.0
100
AcDbLayout
  1
Layout2
 70
     1
 71
     2
 10
0.0
 20
0.0
 11
0.0
 21
0.0
 12
0.0
 22
0.0
 32
0.0
 14
0.0
 24
0.0
 34
0.0
 15
0.0
 25
0.0
 35
0.0
146
0.0
 13
0.0
 23
0.0
 33
0.0
 16
1.0
 26
0.0
 36
0.0
 17
0.0
 27
1.0
 37
0.0
 76
     0
330
23
  0
LAYOUT
  5
22
102
{ACAD_REACTORS
330
1A
102
}
330
1A
100
AcDbPlotSettings
  1

  2
none_device
  4
Letter_(8.50_x_11.00_Inches)
  6

 40
6.35
 41
6.35
 42
6.35000508
 43
6.35000508
 44
215.9
 45
279.4
 46
0.0
 47
0.0
 48
0.0
 49
0.0
140
0.0
141
0.0
142
1.0
143
1.0
 70
  1712
 72
     1
 73
     0
 74
     0
  7

 75
     0
147
1.0
148
0.0
149
0.0
100
AcDbLayout
  1
Model
 70
     1
 71
     0
 10
0.0
 20
0.0
 11
297.0
 21
210.0
 12
0.0
 22
0.0
 32
0.0
 14
0.0
 24
0.0
 34
0.0
 15
297.0
 25
210.0
 35
0.0
146
0.0
 13
0.0
 23
0.0
 33
0.0
 16
1.0
 26
0.0
 36
0.0
 17
0.0
 27
1.0
 37
0.0
 76
     0
330
1F
331
29
  0
MLINESTYLE
  5
18
102
{ACAD_REACTORS
330
17
102
}
330
17
100
AcDbMlineStyle
  2
Standard
 70
     0
  3

 62
   256
 51
90.0
 52
90.0
 71
     2
 49
0.5
 62
   256
  6
BYLAYER
 49
-0.5
 62
   256
  6
BYLAYER
  0
ACDBPLACEHOLDER
  5
F
102
{ACAD_REACTORS
330
E
102
}
330
E
  0
SCALE
  5
48
102
{ACAD_REACTORS
330
47
102
}
330
47
100
AcDbScale
 70
     0
300
1:1
140
1.0
141
1.0
290
     1
  0
SCALE
  5
49
102
{ACAD_REACTORS
330
47
102
}
330
47
100
AcDbScale
 70
     0
300
1:2
140
1.0
141
2.0
290
     0
  0
SCALE
  5
4A
102
{ACAD_REACTORS
330
47
102
}
330
47
100
AcDbScale
 70
     0
300
1:4
140
1.0
141
4.0
290
     0
  0
SCALE
  5
4B
102
{ACAD_REACTORS
330
47
102
}
330
47
100
AcDbScale
 70
     0
300
1:5
140
1.0
141
5.0
290
     0
  0
SCALE
  5
4C
102
{ACAD_REACTORS
330
47
102
}
330
47
100
AcDbScale
 70
     0
300
1:8
140
1.0
141
8.0
290
     0
  0
SCALE
  5
4D
102
{ACAD_REACTORS
330
47
102
}
330
47
100
AcDbScale
 70
     0
300
1:10
140
1.0
141
10.0
290
     0
  0
SCALE
  5
4E
102
{ACAD_REACTORS
330
47
102
}
330
47
100
AcDbScale
 70
     0
300
1:16
140
1.0
141
16.0
290
     0
  0
SCALE
  5
4F
102
{ACAD_REACTORS
330
47
102
}
330
47
100
AcDbScale
 70
     0
300
1:20
140
1.0
141
20.0
290
     0
  0
SCALE
  5
50
102
{ACAD_REACTORS
330
47
102
}
330
47
100
AcDbScale
 70
     0
300
1:30
140
1.0
141
30.0
290
     0
  0
SCALE
  5
51
102
{ACAD_REACTORS
330
47
102
}
330
47
100
AcDbScale
 70
     0
300
1:40
140
1.0
141
40.0
290
     0
  0
SCALE
  5
52
102
{ACAD_REACTORS
330
47
102
}
330
47
100
AcDbScale
 70
     0
300
1:50
140
1.0
141
50.0
290
     0
  0
SCALE
  5
53
102
{ACAD_REACTORS
330
47
102
}
330
47
100
AcDbScale
 70
     0
300
1:100
140
1.0
141
100.0
290
     0
  0
SCALE
  5
54
102
{ACAD_REACTORS
330
47
102
}
330
47
100
AcDbScale
 70
     0
300
2:1
140
2.0
141
1.0
290
     0
  0
SCALE
  5
55
102
{ACAD_REACTORS
330
47
102
}
330
47
100
AcDbScale
 70
     0
300
4:1
140
4.0
141
1.0
290
     0
  0
SCALE
  5
56
102
{ACAD_REACTORS
330
47
102
}
330
47
100
AcDbScale
 70
     0
300
8:1
140
8.0
141
1.0
290
     0
  0
SCALE
  5
57
102
{ACAD_REACTORS
330
47
102
}
330
47
100
AcDbScale
 70
     0
300
10:1
140
10.0
141
1.0
290
     0
  0
SCALE
  5
58
102
{ACAD_REACTORS
330
47
102
}
330
47
100
AcDbScale
 70
     0
300
100:1
140
100.0
141
1.0
290
     0
  0
SCALE
  5
59
102
{ACAD_REACTORS
330
47
102
}
330
47
100
AcDbScale
 70
     0
300
1/128" = 1'-0"
140
0.0078125
141
12.0
290
     0
  0
SCALE
  5
5A
102
{ACAD_REACTORS
330
47
102
}
330
47
100
AcDbScale
 70
     0
300
1/64" = 1'-0"
140
0.015625
141
12.0
290
     0
  0
SCALE
  5
5B
102
{ACAD_REACTORS
330
47
102
}
330
47
100
AcDbScale
 70
     0
300
1/32" = 1'-0"
140
0.03125
141
12.0
290
     0
  0
SCALE
  5
5C
102
{ACAD_REACTORS
330
47
102
}
330
47
100
AcDbScale
 70
     0
300
1/16" = 1'-0"
140
0.0625
141
12.0
290
     0
  0
SCALE
  5
5D
102
{ACAD_REACTORS
330
47
102
}
330
47
100
AcDbScale
 70
     0
300
3/32" = 1'-0"
140
0.09375
141
12.0
290
     0
  0
SCALE
  5
5E
102
{ACAD_REACTORS
330
47
102
}
330
47
100
AcDbScale
 70
     0
300
1/8" = 1'-0"
140
0.125
141
12.0
290
     0
  0
SCALE
  5
5F
102
{ACAD_REACTORS
330
47
102
}
330
47
100
AcDbScale
 70
     0
300
3/16" = 1'-0"
140
0.1875
141
12.0
290
     0
  0
SCALE
  5
60
102
{ACAD_REACTORS
330
47
102
}
330
47
100
AcDbScale
 70
     0
300
1/4" = 1'-0"
140
0.25
141
12.0
290
     0
  0
SCALE
  5
61
102
{ACAD_REACTORS
330
47
102
}
330
47
100
AcDbScale
 70
     0
300
3/8" = 1'-0"
140
0.375
141
12.0
290
     0
  0
SCALE
  5
62
102
{ACAD_REACTORS
330
47
102
}
330
47
100
AcDbScale
 70
     0
300
1/2" = 1'-0"
140
0.5
141
12.0
290
     0
  0
SCALE
  5
63
102
{ACAD_REACTORS
330
47
102
}
330
47
100
AcDbScale
 70
     0
300
3/4" = 1'-0"
140
0.75
141
12.0
290
     0
  0
SCALE
  5
64
102
{ACAD_REACTORS
330
47
102
}
330
47
100
AcDbScale
 70
     0
300
1" = 1'-0"
140
1.0
141
12.0
290
     0
  0
SCALE
  5
65
102
{ACAD_REACTORS
330
47
102
}
330
47
100
AcDbScale
 70
     0
300
1-1/2" = 1'-0"
140
1.5
141
12.0
290
     0
  0
SCALE
  5
66
102
{ACAD_REACTORS
330
47
102
}
330
47
100
AcDbScale
 70
     0
300
3" = 1'-0"
140
3.0
141
12.0
290
     0
  0
SCALE
  5
67
102
{ACAD_REACTORS
330
47
102
}
330
47
100
AcDbScale
 70
     0
300
6" = 1'-0"
140
6.0
141
12.0
290
     0
  0
SCALE
  5
68
102
{ACAD_REACTORS
330
47
102
}
330
47
100
AcDbScale
 70
     0
300
1'-0" = 1'-0"
140
12.0
141
12.0
290
     0
  0
ENDSEC
  0
EOF
