  0
SECTION
  2
HEADER
  9
$ACADVER
  1
AC1015
  9
$ACADMAINTVER
 70
     6
  9
$DWGCODEPAGE
  3
ANSI_1252
  9
$INSBASE
 10
0.0
 20
0.0
 30
0.0
  9
$EXTMIN
 10
0.0
 20
0.0
 30
0.0
  9
$EXTMAX
 10
297.0
 20
210.0
 30
0.0
  9
$LIMMIN
 10
0.0
 20
0.0
  9
$LIMMAX
 10
297.0
 20
210.0
  9
$ORTHOMODE
 70
     0
  9
$REGENMODE
 70
     1
  9
$FILLMODE
 70
     1
  9
$QTEXTMODE
 70
     0
  9
$MIRRTEXT
 70
     1
  9
$LTSCALE
 40
1.0
  9
$ATTMODE
 70
     1
  9
$TEXTSIZE
 40
2.0
  9
$TRACEWID
 40
1.0
  9
$TEXTSTYLE
  7
Standard
  9
$CLAYER
  8
0
  9
$CELTYPE
  6
ByLayer
  9
$CECOLOR
 62
   256
  9
$CELTSCALE
 40
1.0
  9
$DISPSILH
 70
     0
  9
$DIMSCALE
 40
1.0
  9
$DIMASZ
 40
3.0
  9
$DIMEXO
 40
0.0
  9
$DIMDLI
 40
3.75
  9
$DIMRND
 40
0.0
  9
$DIMDLE
 40
0.0
  9
$DIMEXE
 40
1.0
  9
$DIMTP
 40
0.0
  9
$DIMTM
 40
0.0
  9
$DIMTXT
 40
2.0
  9
$DIMCEN
 40
2.5
  9
$DIMTSZ
 40
0.0
  9
$DIMTOL
 70
     0
  9
$DIMLIM
 70
     0
  9
$DIMTIH
 70
     1
  9
$DIMTOH
 70
     1
  9
$DIMSE1
 70
     0
  9
$DIMSE2
 70
     0
  9
$DIMTAD
 70
     1
  9
$DIMZIN
 70
     0
  9
$DIMBLK
  1

  9
$DIMASO
 70
     1
  9
$DIMSHO
 70
     1
  9
$DIMPOST
  1

  9
$DIMAPOST
  1

  9
$DIMALT
 70
     0
  9
$DIMALTD
 70
     3
  9
$DIMALTF
 40
0.0393700787
  9
$DIMLFAC
 40
2.0
  9
$DIMTOFL
 70
     1
  9
$DIMTVP
 40
0.0
  9
$DIMTIX
 70
     0
  9
$DIMSOXD
 70
     0
  9
$DIMSAH
 70
     0
  9
$DIMBLK1
  1

  9
$DIMBLK2
  1

  9
$DIMSTYLE
  2
ISO-25
  9
$DIMCLRD
 70
     0
  9
$DIMCLRE
 70
     0
  9
$DIMCLRT
 70
     0
  9
$DIMTFAC
 40
1.0
  9
$DIMGAP
 40
1.524
  9
$DIMJUST
 70
     0
  9
$DIMSD1
 70
     0
  9
$DIMSD2
 70
     0
  9
$DIMTOLJ
 70
     0
  9
$DIMTZIN
 70
     0
  9
$DIMALTZ
 70
     0
  9
$DIMALTTZ
 70
     0
  9
$DIMUPT
 70
     0
  9
$DIMDEC
 70
     2
  9
$DIMTDEC
 70
     3
  9
$DIMALTU
 70
     2
  9
$DIMALTTD
 70
     3
  9
$DIMTXSTY
  7
Standard
  9
$DIMAUNIT
 70
     0
  9
$DIMADEC
 70
     2
  9
$DIMALTRND
 40
0.0
  9
$DIMAZIN
 70
     0
  9
$DIMDSEP
 70
    44
  9
$DIMATFIT
 70
     3
  9
$DIMFRAC
 70
     0
  9
$DIMLDRBLK
  1

  9
$DIMLUNIT
 70
     2
  9
$DIMLWD
 70
    -2
  9
$DIMLWE
 70
    -2
  9
$DIMTMOVE
 70
     0
  9
$LUNITS
 70
     2
  9
$LUPREC
 70
     2
  9
$SKETCHINC
 40
1.0
  9
$FILLETRAD
 40
10.0
  9
$AUNITS
 70
     0
  9
$AUPREC
 70
     2
  9
$MENU
  1
.
  9
$ELEVATION
 40
0.0
  9
$PELEVATION
 40
0.0
  9
$THICKNESS
 40
0.0
  9
$LIMCHECK
 70
     0
  9
$CHAMFERA
 40
0.0
  9
$CHAMFERB
 40
0.0
  9
$CHAMFERC
 40
0.0
  9
$CHAMFERD
 40
0.0
  9
$SKPOLY
 70
     0
  9
$TDCREATE
 40
2457675.612610532
  9
$TDUCREATE
 40
2457675.529277199
  9
$TDUPDATE
 40
2457675.61261191
  9
$TDUUPDATE
 40
2457675.529278576
  9
$TDINDWG
 40
0.0000000116
  9
$TDUSRTIMER
 40
0.0000000116
  9
$USRTIMER
 70
     1
  9
$ANGBASE
 50
0.0
  9
$ANGDIR
 70
     0
  9
$PDMODE
 70
     0
  9
$PDSIZE
 40
-1.0
  9
$PLINEWID
 40
0.0
  9
$SPLFRAME
 70
     0
  9
$SPLINETYPE
 70
     6
  9
$SPLINESEGS
 70
     8
  9
$HANDSEED
  5
252
  9
$SURFTAB1
 70
     6
  9
$SURFTAB2
 70
     6
  9
$SURFTYPE
 70
     6
  9
$SURFU
 70
     6
  9
$SURFV
 70
     6
  9
$UCSBASE
  2

  9
$UCSNAME
  2

  9
$UCSORG
 10
0.0
 20
0.0
 30
0.0
  9
$UCSXDIR
 10
1.0
 20
0.0
 30
0.0
  9
$UCSYDIR
 10
0.0
 20
1.0
 30
0.0
  9
$UCSORTHOREF
  2

  9
$UCSORTHOVIEW
 70
     0
  9
$UCSORGTOP
 10
0.0
 20
0.0
 30
0.0
  9
$UCSORGBOTTOM
 10
0.0
 20
0.0
 30
0.0
  9
$UCSORGLEFT
 10
0.0
 20
0.0
 30
0.0
  9
$UCSORGRIGHT
 10
0.0
 20
0.0
 30
0.0
  9
$UCSORGFRONT
 10
0.0
 20
0.0
 30
0.0
  9
$UCSORGBACK
 10
0.0
 20
0.0
 30
0.0
  9
$PUCSBASE
  2

  9
$PUCSNAME
  2

  9
$PUCSORG
 10
0.0
 20
0.0
 30
0.0
  9
$PUCSXDIR
 10
1.0
 20
0.0
 30
0.0
  9
$PUCSYDIR
 10
0.0
 20
1.0
 30
0.0
  9
$PUCSORTHOREF
  2

  9
$PUCSORTHOVIEW
 70
     0
  9
$PUCSORGTOP
 10
0.0
 20
0.0
 30
0.0
  9
$PUCSORGBOTTOM
 10
0.0
 20
0.0
 30
0.0
  9
$PUCSORGLEFT
 10
0.0
 20
0.0
 30
0.0
  9
$PUCSORGRIGHT
 10
0.0
 20
0.0
 30
0.0
  9
$PUCSORGFRONT
 10
0.0
 20
0.0
 30
0.0
  9
$PUCSORGBACK
 10
0.0
 20
0.0
 30
0.0
  9
$USERI1
 70
     0
  9
$USERI2
 70
     0
  9
$USERI3
 70
     0
  9
$USERI4
 70
     0
  9
$USERI5
 70
     0
  9
$USERR1
 40
0.0
  9
$USERR2
 40
0.0
  9
$USERR3
 40
0.0
  9
$USERR4
 40
0.0
  9
$USERR5
 40
0.0
  9
$WORLDVIEW
 70
     1
  9
$SHADEDGE
 70
     3
  9
$SHADEDIF
 70
    70
  9
$TILEMODE
 70
     1
  9
$MAXACTVP
 70
    64
  9
$PINSBASE
 10
0.0
 20
0.0
 30
0.0
  9
$PLIMCHECK
 70
     0
  9
$PEXTMIN
 10
1.0000000000E+20
 20
1.0000000000E+20
 30
1.0000000000E+20
  9
$PEXTMAX
 10
-1.0000000000E+20
 20
-1.0000000000E+20
 30
-1.0000000000E+20
  9
$PLIMMIN
 10
0.0
 20
0.0
  9
$PLIMMAX
 10
420.0
 20
297.0
  9
$UNITMODE
 70
     0
  9
$VISRETAIN
 70
     1
  9
$PLINEGEN
 70
     0
  9
$PSLTSCALE
 70
     1
  9
$TREEDEPTH
 70
  3020
  9
$CMLSTYLE
  2
Standard
  9
$CMLJUST
 70
     0
  9
$CMLSCALE
 40
20.0
  9
$PROXYGRAPHICS
 70
     1
  9
$MEASUREMENT
 70
     1
  9
$CELWEIGHT
370
    -1
  9
$ENDCAPS
280
     0
  9
$JOINSTYLE
280
     0
  9
$LWDISPLAY
290
     1
  9
$INSUNITS
 70
     4
  9
$HYPERLINKBASE
  1

  9
$STYLESHEET
  1

  9
$XEDIT
290
     1
  9
$CEPSNTYPE
380
     0
  9
$PSTYLEMODE
290
     1
  9
$FINGERPRINTGUID
  2
{7F8575AD-E9DC-43ED-A810-1AA673BC46AE}
  9
$VERSIONGUID
  2
{FAEB1C32-E019-11D5-929B-00C0DF256EC4}
  9
$EXTNAMES
290
     1
  9
$PSVPSCALE
 40
0.0
  9
$OLESTARTUP
290
     0
  0
ENDSEC
  0
SECTION
  2
CLASSES
  0
CLASS
  1
ACDBDICTIONARYWDFLT
  2
AcDbDictionaryWithDefault
  3
ObjectDBX Classes
 90
        0
280
     0
281
     0
  0
CLASS
  1
VISUALSTYLE
  2
AcDbVisualStyle
  3
ObjectDBX Classes
 90
     4095
280
     0
281
     0
  0
CLASS
  1
MATERIAL
  2
AcDbMaterial
  3
ObjectDBX Classes
 90
     1153
280
     0
281
     0
  0
CLASS
  1
SCALE
  2
AcDbScale
  3
ObjectDBX Classes
 90
     1153
280
     0
281
     0
  0
CLASS
  1
TABLESTYLE
  2
AcDbTableStyle
  3
ObjectDBX Classes
 90
     4095
280
     0
281
     0
  0
CLASS
  1
MLEADERSTYLE
  2
AcDbMLeaderStyle
  3
ACDB_MLEADERSTYLE_CLASS
 90
     4095
280
     0
281
     0
  0
CLASS
  1
SUN
  2
AcDbSun
  3
SCENEOE
 90
     1153
280
     0
281
     0
  0
CLASS
  1
ACDBPLACEHOLDER
  2
AcDbPlaceHolder
  3
ObjectDBX Classes
 90
        0
280
     0
281
     0
  0
CLASS
  1
LAYOUT
  2
AcDbLayout
  3
ObjectDBX Classes
 90
        0
280
     0
281
     0
  0
ENDSEC
  0
SECTION
  2
TABLES
  0
TABLE
  2
VPORT
  5
8
330
0
100
AcDbSymbolTable
 70
     1
  0
VPORT
  5
29
330
8
100
AcDbSymbolTableRecord
100
AcDbViewportTableRecord
  2
*Active
 70
     0
 10
0.0
 20
0.0
 11
1.0
 21
1.0
 12
148.5
 22
105.0
 13
0.0
 23
0.0
 14
10.0
 24
10.0
 15
10.0
 25
10.0
 16
0.0
 26
0.0
 36
1.0
 17
0.0
 27
0.0
 37
0.0
 40
210.0
 41
1.4142857143
 42
50.0
 43
0.0
 44
0.0
 50
0.0
 51
0.0
 71
     0
 72
  2000
 73
     1
 74
     3
 75
     0
 76
     0
 77
     0
 78
     0
281
     0
 65
     1
110
0.0
120
0.0
130
0.0
111
1.0
121
0.0
131
0.0
112
0.0
122
1.0
132
0.0
 79
     0
146
0.0
  0
ENDTAB
  0
TABLE
  2
LTYPE
  5
5
330
0
100
AcDbSymbolTable
 70
     6
  0
LTYPE
  5
14
330
5
100
AcDbSymbolTableRecord
100
AcDbLinetypeTableRecord
  2
ByBlock
 70
     0
  3

 72
    65
 73
     0
 40
0.0
  0
LTYPE
  5
15
330
5
100
AcDbSymbolTableRecord
100
AcDbLinetypeTableRecord
  2
ByLayer
 70
     0
  3

 72
    65
 73
     0
 40
0.0
  0
LTYPE
  5
16
330
5
100
AcDbSymbolTableRecord
100
AcDbLinetypeTableRecord
  2
Continuous
 70
     0
  3
Solid line
 72
    65
 73
     0
 40
0.0
  0
LTYPE
  5
6E
330
5
100
AcDbSymbolTableRecord
100
AcDbLinetypeTableRecord
  2
HIDDEN
 70
     0
  3
Hidden __ __ __ __ __ __ __ __ __ __ __ __ __ __
 72
    65
 73
     2
 40
1.905
 49
1.27
 74
     0
 49
-0.635
 74
     0
  0
LTYPE
  5
6F
330
5
100
AcDbSymbolTableRecord
100
AcDbLinetypeTableRecord
  2
PHANTOM
 70
     0
  3
Phantom ______  __  __  ______  __  __  ______
 72
    65
 73
     6
 40
12.7
 49
6.35
 74
     0
 49
-1.27
 74
     0
 49
1.27
 74
     0
 49
-1.27
 74
     0
 49
1.27
 74
     0
 49
-1.27
 74
     0
  0
LTYPE
  5
70
330
5
100
AcDbSymbolTableRecord
100
AcDbLinetypeTableRecord
  2
CENTER
 70
     0
  3
Center ____ _ ____ _ ____ _ ____ _ ____ _ ____
 72
    65
 73
     4
 40
10.16
 49
6.35
 74
     0
 49
-1.27
 74
     0
 49
1.27
 74
     0
 49
-1.27
 74
     0
  0
LTYPE
  5
71
330
5
100
AcDbSymbolTableRecord
100
AcDbLinetypeTableRecord
  2
CENTERX2
 70
     0
  3
Center (2x) ________  __  ________  __  _____
 72
    65
 73
     4
 40
20.32
 49
12.7
 74
     0
 49
-2.54
 74
     0
 49
2.54
 74
     0
 49
-2.54
 74
     0
  0
LTYPE
  5
72
330
5
100
AcDbSymbolTableRecord
100
AcDbLinetypeTableRecord
  2
DOT2
 70
     0
  3
Dot (.5x) ........................................
 72
    65
 73
     2
 40
0.635
 49
0.0
 74
     0
 49
-0.635
 74
     0
  0
ENDTAB
  0
TABLE
  2
LAYER
  5
2
330
0
100
AcDbSymbolTable
 70
     5
  0
LAYER
  5
10
330
2
100
AcDbSymbolTableRecord
100
AcDbLayerTableRecord
  2
0
 70
     0
 62
     7
  6
Continuous
370
    -3
390
F
  0
LAYER
  5
73
330
2
100
AcDbSymbolTableRecord
100
AcDbLayerTableRecord
  2
FORMAT
 70
     0
 62
     7
  6
Continuous
370
    -3
390
F
  0
LAYER
  5
74
330
2
100
AcDbSymbolTableRecord
100
AcDbLayerTableRecord
  2
VERMASSUNG
 70
     0
 62
     7
  6
Continuous
370
    -3
390
F
  0
LAYER
  5
75
330
2
100
AcDbSymbolTableRecord
100
AcDbLayerTableRecord
  2
KOPF_DÜNN
 70
     0
 62
     7
  6
Continuous
370
    -3
390
F
  0
LAYER
  5
76
330
2
100
AcDbSymbolTableRecord
100
AcDbLayerTableRecord
  2
KOPF_DICK
 70
     0
 62
     7
  6
Continuous
370
    15
390
F
  0
ENDTAB
  0
TABLE
  2
STYLE
  5
3
330
0
100
AcDbSymbolTable
 70
     2
  0
STYLE
  5
11
330
3
100
AcDbSymbolTableRecord
100
AcDbTextStyleTableRecord
  2
Standard
 70
     0
 40
0.0
 41
1.0
 50
0.0
 71
     0
 42
2.0
  3
txt
  4

  0
STYLE
  5
77
330
3
100
AcDbSymbolTableRecord
100
AcDbTextStyleTableRecord
  2
SLDTEXTSTYLE0
 70
     0
 40
0.0
 41
0.7
 50
0.0
 71
     0
 42
2.0
  3
TXT
  4

  0
ENDTAB
  0
TABLE
  2
VIEW
  5
6
330
0
100
AcDbSymbolTable
 70
     0
  0
ENDTAB
  0
TABLE
  2
UCS
  5
7
330
0
100
AcDbSymbolTable
 70
     0
  0
ENDTAB
  0
TABLE
  2
APPID
  5
9
330
0
100
AcDbSymbolTable
 70
     1
  0
APPID
  5
12
330
9
100
AcDbSymbolTableRecord
100
AcDbRegAppTableRecord
  2
ACAD
 70
     0
  0
ENDTAB
  0
TABLE
  2
DIMSTYLE
  5
A
330
0
100
AcDbSymbolTable
 70
     2
100
AcDbDimStyleTable
  0
DIMSTYLE
105
27
330
A
100
AcDbSymbolTableRecord
100
AcDbDimStyleTableRecord
  2
ISO-25
 70
     0
 41
2.5
 42
0.625
 43
3.75
 44
1.25
 73
     0
 74
     0
 77
     1
 78
     8
140
2.5
141
2.5
143
0.0393700787
147
0.625
171
     3
172
     1
178
     0
271
     2
272
     2
274
     3
278
    44
283
     0
284
     8
340
11
  0
DIMSTYLE
105
1A1
102
{ACAD_REACTORS
330
1A0
330
1AD
330
1B7
330
1C1
330
1CB
330
1D6
102
}
330
A
100
AcDbSymbolTableRecord
100
AcDbDimStyleTableRecord
  2
SLDDIMSTYLE0
 70
     0
 41
3.0
 44
0.0
 45
0.000000001
 73
     0
 74
     0
 77
     1
 78
    12
 79
     3
140
2.0
147
0.5
173
     1
178
     0
271
     2
272
     3
276
     2
284
    12
340
77
  0
ENDTAB
  0
TABLE
  2
BLOCK_RECORD
  5
1
330
0
100
AcDbSymbolTable
 70
     7
  0
BLOCK_RECORD
  5
1F
330
1
100
AcDbSymbolTableRecord
100
AcDbBlockTableRecord
  2
*Model_Space
340
22
  0
BLOCK_RECORD
  5
1B
330
1
100
AcDbSymbolTableRecord
100
AcDbBlockTableRecord
  2
*Paper_Space
340
1E
  0
BLOCK_RECORD
  5
23
330
1
100
AcDbSymbolTableRecord
100
AcDbBlockTableRecord
  2
*Paper_Space0
340
26
  0
BLOCK_RECORD
  5
1A2
330
1
100
AcDbSymbolTableRecord
100
AcDbBlockTableRecord
  2
_D
340
0
  0
BLOCK_RECORD
  5
1AE
330
1
100
AcDbSymbolTableRecord
100
AcDbBlockTableRecord
  2
_D_1
340
0
  0
BLOCK_RECORD
  5
1B8
330
1
100
AcDbSymbolTableRecord
100
AcDbBlockTableRecord
  2
_D_2
340
0
  0
BLOCK_RECORD
  5
1C2
330
1
100
AcDbSymbolTableRecord
100
AcDbBlockTableRecord
  2
_D_3
340
0
  0
BLOCK_RECORD
  5
1CC
330
1
100
AcDbSymbolTableRecord
100
AcDbBlockTableRecord
  2
_D_4
340
0
  0
BLOCK_RECORD
  5
1D7
330
1
100
AcDbSymbolTableRecord
100
AcDbBlockTableRecord
  2
_D_5
340
0
  0
ENDTAB
  0
ENDSEC
  0
SECTION
  2
BLOCKS
  0
BLOCK
  5
20
330
1F
100
AcDbEntity
  8
0
100
AcDbBlockBegin
  2
*Model_Space
 70
     0
 10
0.0
 20
0.0
 30
0.0
  3
*Model_Space
  1

  0
ENDBLK
  5
21
330
1F
100
AcDbEntity
  8
0
100
AcDbBlockEnd
  0
BLOCK
  5
1C
330
1B
100
AcDbEntity
 67
     1
  8
0
100
AcDbBlockBegin
  2
*Paper_Space
 70
     0
 10
0.0
 20
0.0
 30
0.0
  3
*Paper_Space
  1

  0
ENDBLK
  5
1D
330
1B
100
AcDbEntity
 67
     1
  8
0
100
AcDbBlockEnd
  0
BLOCK
  5
24
330
23
100
AcDbEntity
  8
0
100
AcDbBlockBegin
  2
*Paper_Space0
 70
     0
 10
0.0
 20
0.0
 30
0.0
  3
*Paper_Space0
  1

  0
ENDBLK
  5
25
330
23
100
AcDbEntity
  8
0
100
AcDbBlockEnd
  0
BLOCK
  5
1A3
330
1A2
100
AcDbEntity
  8
0
100
AcDbBlockBegin
  2
_D
 70
     0
 10
0.0
 20
0.0
 30
0.0
  3
_D
  1

  0
SOLID
  5
1A5
330
1A2
100
AcDbEntity
  8
VERMASSUNG
100
AcDbTrace
 10
84.4831153967
 20
78.4071805433
 30
0.0
 11
84.9331153967
 21
81.4071805433
 31
0.0
 12
84.0331153967
 22
81.4071805433
 32
0.0
 13
84.0331153967
 23
81.4071805433
 33
0.0
  0
SOLID
  5
1A6
330
1A2
100
AcDbEntity
  8
VERMASSUNG
100
AcDbTrace
 10
84.4831153967
 20
141.4071805433
 30
0.0
 11
84.0331153967
 21
138.4071805433
 31
0.0
 12
84.9331153967
 22
138.4071805433
 32
0.0
 13
84.9331153967
 23
138.4071805433
 33
0.0
  0
LINE
  5
1A7
330
1A2
100
AcDbEntity
  8
VERMASSUNG
100
AcDbLine
 10
181.5363721117
 20
78.4071805433
 30
0.0
 11
83.4831153967
 21
78.4071805433
 31
0.0
  0
LINE
  5
1A8
330
1A2
100
AcDbEntity
  8
VERMASSUNG
100
AcDbLine
 10
181.5363721117
 20
141.4071805433
 30
0.0
 11
83.4831153967
 21
141.4071805433
 31
0.0
  0
LINE
  5
1A9
330
1A2
100
AcDbEntity
  8
VERMASSUNG
100
AcDbLine
 10
84.4831153967
 20
78.4071805433
 30
0.0
 11
84.4831153967
 21
141.4071805433
 31
0.0
  0
MTEXT
  5
1AA
330
1A2
100
AcDbEntity
  8
VERMASSUNG
100
AcDbMText
 10
81.7049801405
 20
99.1034266813
 30
0.0
 40
2.0
 41
0.0
 71
     1
 72
     1
  1
MAS-BT 40
  7
SLDTEXTSTYLE0
 11
3.391901413832837E-15
 21
1.0
 31
0.0
 73
     1
 44
1.0
  0
MTEXT
  5
1AB
330
1A2
100
AcDbEntity
  8
VERMASSUNG
100
AcDbMText
 10
81.9049800918
 20
114.3034269376
 30
0.0
 40
2.0
 41
0.0
 71
     1
 72
     1
  1
%%c
  7
SLDTEXTSTYLE0
 11
3.391901413832837E-15
 21
1.0
 31
0.0
 73
     1
 44
1.0
  0
MTEXT
  5
1AC
330
1A2
100
AcDbEntity
  8
VERMASSUNG
100
AcDbMText
 10
81.9049798008
 20
117.9115543847
 30
0.0
 40
2.0
 41
0.0
 71
     1
 72
     1
  1
63
  7
SLDTEXTSTYLE0
 11
3.391901413832837E-15
 21
1.0
 31
0.0
 73
     1
 44
1.0
  0
ENDBLK
  5
1A4
330
1A2
100
AcDbEntity
  8
0
100
AcDbBlockEnd
  0
BLOCK
  5
1AF
330
1AE
100
AcDbEntity
  8
0
100
AcDbBlockBegin
  2
_D_1
 70
     0
 10
0.0
 20
0.0
 30
0.0
  3
_D_1
  1

  0
SOLID
  5
1B1
330
1AE
100
AcDbEntity
  8
VERMASSUNG
100
AcDbTrace
 10
90.1363721117
 20
158.8912934791
 30
0.0
 11
93.1363721117
 21
158.4412934791
 31
0.0
 12
93.1363721117
 22
159.3412934791
 32
0.0
 13
93.1363721117
 23
159.3412934791
 33
0.0
  0
SOLID
  5
1B2
330
1AE
100
AcDbEntity
  8
VERMASSUNG
100
AcDbTrace
 10
209.5363721117
 20
158.8912934791
 30
0.0
 11
206.5363721117
 21
159.3412934791
 31
0.0
 12
206.5363721117
 22
158.4412934791
 32
0.0
 13
206.5363721117
 23
158.4412934791
 33
0.0
  0
LINE
  5
1B3
330
1AE
100
AcDbEntity
  8
VERMASSUNG
100
AcDbLine
 10
90.1363721117
 20
121.7299361403
 30
0.0
 11
90.1363721117
 21
159.8912934791
 31
0.0
  0
LINE
  5
1B4
330
1AE
100
AcDbEntity
  8
VERMASSUNG
100
AcDbLine
 10
209.5363721117
 20
134.4071805433
 30
0.0
 11
209.5363721117
 21
159.8912934791
 31
0.0
  0
LINE
  5
1B5
330
1AE
100
AcDbEntity
  8
VERMASSUNG
100
AcDbLine
 10
90.1363721117
 20
158.8912934791
 30
0.0
 11
209.5363721117
 21
158.8912934791
 31
0.0
  0
MTEXT
  5
1B6
330
1AE
100
AcDbEntity
  8
VERMASSUNG
100
AcDbMText
 10
147.0363719787
 20
161.4694290751
 30
0.0
 40
2.0
 41
0.0
 71
     1
 72
     1
  1
119.4
  7
SLDTEXTSTYLE0
 73
     1
 44
1.0
  0
ENDBLK
  5
1B0
330
1AE
100
AcDbEntity
  8
0
100
AcDbBlockEnd
  0
BLOCK
  5
1B9
330
1B8
100
AcDbEntity
  8
0
100
AcDbBlockBegin
  2
_D_2
 70
     0
 10
0.0
 20
0.0
 30
0.0
  3
_D_2
  1

  0
SOLID
  5
1BB
330
1B8
100
AcDbEntity
  8
VERMASSUNG
100
AcDbTrace
 10
155.5363721117
 20
152.8912934791
 30
0.0
 11
158.5363721117
 21
152.4412934791
 31
0.0
 12
158.5363721117
 22
153.3412934791
 32
0.0
 13
158.5363721117
 23
153.3412934791
 33
0.0
  0
SOLID
  5
1BC
330
1B8
100
AcDbEntity
  8
VERMASSUNG
100
AcDbTrace
 10
209.5363721117
 20
152.8912934791
 30
0.0
 11
206.5363721117
 21
153.3412934791
 31
0.0
 12
206.5363721117
 22
152.4412934791
 32
0.0
 13
206.5363721117
 23
152.4412934791
 33
0.0
  0
LINE
  5
1BD
330
1B8
100
AcDbEntity
  8
VERMASSUNG
100
AcDbLine
 10
155.5363721117
 20
132.1321805433
 30
0.0
 11
155.5363721117
 21
153.8912934791
 31
0.0
  0
LINE
  5
1BE
330
1B8
100
AcDbEntity
  8
VERMASSUNG
100
AcDbLine
 10
209.5363721117
 20
134.4071805433
 30
0.0
 11
209.5363721117
 21
153.8912934791
 31
0.0
  0
LINE
  5
1BF
330
1B8
100
AcDbEntity
  8
VERMASSUNG
100
AcDbLine
 10
155.5363721117
 20
152.8912934791
 30
0.0
 11
209.5363721117
 21
152.8912934791
 31
0.0
  0
MTEXT
  5
1C0
330
1B8
100
AcDbEntity
  8
VERMASSUNG
100
AcDbMText
 10
181.0363720987
 20
155.4694290751
 30
0.0
 40
2.0
 41
0.0
 71
     1
 72
     1
  1
54
  7
SLDTEXTSTYLE0
 73
     1
 44
1.0
  0
ENDBLK
  5
1BA
330
1B8
100
AcDbEntity
  8
0
100
AcDbBlockEnd
  0
BLOCK
  5
1C3
330
1C2
100
AcDbEntity
  8
0
100
AcDbBlockBegin
  2
_D_3
 70
     0
 10
0.0
 20
0.0
 30
0.0
  3
_D_3
  1

  0
SOLID
  5
1C5
330
1C2
100
AcDbEntity
  8
VERMASSUNG
100
AcDbTrace
 10
182.5363721117
 20
146.8912934791
 30
0.0
 11
185.5363721117
 21
146.4412934791
 31
0.0
 12
185.5363721117
 22
147.3412934791
 32
0.0
 13
185.5363721117
 23
147.3412934791
 33
0.0
  0
SOLID
  5
1C6
330
1C2
100
AcDbEntity
  8
VERMASSUNG
100
AcDbTrace
 10
209.5363721117
 20
146.8912934791
 30
0.0
 11
206.5363721117
 21
147.3412934791
 31
0.0
 12
206.5363721117
 22
146.4412934791
 32
0.0
 13
206.5363721117
 23
146.4412934791
 33
0.0
  0
LINE
  5
1C7
330
1C2
100
AcDbEntity
  8
VERMASSUNG
100
AcDbLine
 10
182.5363721117
 20
140.4071805433
 30
0.0
 11
182.5363721117
 21
147.8912934791
 31
0.0
  0
LINE
  5
1C8
330
1C2
100
AcDbEntity
  8
VERMASSUNG
100
AcDbLine
 10
209.5363721117
 20
134.4071805433
 30
0.0
 11
209.5363721117
 21
147.8912934791
 31
0.0
  0
LINE
  5
1C9
330
1C2
100
AcDbEntity
  8
VERMASSUNG
100
AcDbLine
 10
182.5363721117
 20
146.8912934791
 30
0.0
 11
209.5363721117
 21
146.8912934791
 31
0.0
  0
MTEXT
  5
1CA
330
1C2
100
AcDbEntity
  8
VERMASSUNG
100
AcDbMText
 10
194.6363721616
 20
149.4694290751
 30
0.0
 40
2.0
 41
0.0
 71
     1
 72
     1
  1
27
  7
SLDTEXTSTYLE0
 73
     1
 44
1.0
  0
ENDBLK
  5
1C4
330
1C2
100
AcDbEntity
  8
0
100
AcDbBlockEnd
  0
BLOCK
  5
1CD
330
1CC
100
AcDbEntity
  8
0
100
AcDbBlockBegin
  2
_D_4
 70
     0
 10
0.0
 20
0.0
 30
0.0
  3
_D_4
  1

  0
SOLID
  5
1CF
330
1CC
100
AcDbEntity
  8
VERMASSUNG
100
AcDbTrace
 10
216.5828556737
 20
123.9071805433
 30
0.0
 11
216.1328556737
 21
120.9071805433
 31
0.0
 12
217.0328556737
 22
120.9071805433
 32
0.0
 13
217.0328556737
 23
120.9071805433
 33
0.0
  0
SOLID
  5
1D0
330
1CC
100
AcDbEntity
  8
VERMASSUNG
100
AcDbTrace
 10
216.5828556737
 20
95.9071805433
 30
0.0
 11
217.0328556737
 21
98.9071805433
 31
0.0
 12
216.1328556737
 22
98.9071805433
 32
0.0
 13
216.1328556737
 23
98.9071805433
 33
0.0
  0
LINE
  5
1D1
330
1CC
100
AcDbEntity
  8
VERMASSUNG
100
AcDbLine
 10
208.5363721117
 20
123.9071805433
 30
0.0
 11
217.5828556737
 21
123.9071805433
 31
0.0
  0
LINE
  5
1D2
330
1CC
100
AcDbEntity
  8
VERMASSUNG
100
AcDbLine
 10
208.5363721117
 20
95.9071805433
 30
0.0
 11
217.5828556737
 21
95.9071805433
 31
0.0
  0
LINE
  5
1D3
330
1CC
100
AcDbEntity
  8
VERMASSUNG
100
AcDbLine
 10
216.5828556737
 20
123.9071805433
 30
0.0
 11
216.5828556737
 21
95.9071805433
 31
0.0
  0
MTEXT
  5
1D4
330
1CC
100
AcDbEntity
  8
VERMASSUNG
100
AcDbMText
 10
214.0047203688
 20
106.702180586
 30
0.0
 40
2.0
 41
0.0
 71
     1
 72
     1
  1
%%c
  7
SLDTEXTSTYLE0
 11
-7.044195017643634E-15
 21
1.0
 31
0.0
 73
     1
 44
1.0
  0
MTEXT
  5
1D5
330
1CC
100
AcDbEntity
  8
VERMASSUNG
100
AcDbMText
 10
213.8047204175
 20
110.3121806003
 30
0.0
 40
2.0
 41
0.0
 71
     1
 72
     1
  1
28
  7
SLDTEXTSTYLE0
 11
-7.044195017643634E-15
 21
1.0
 31
0.0
 73
     1
 44
1.0
  0
ENDBLK
  5
1CE
330
1CC
100
AcDbEntity
  8
0
100
AcDbBlockEnd
  0
BLOCK
  5
1D8
330
1D7
100
AcDbEntity
  8
0
100
AcDbBlockBegin
  2
_D_5
 70
     0
 10
0.0
 20
0.0
 30
0.0
  3
_D_5
  1

  0
SOLID
  5
1DA
330
1D7
100
AcDbEntity
  8
VERMASSUNG
100
AcDbTrace
 10
222.5828556737
 20
134.9071805433
 30
0.0
 11
222.1328556737
 21
131.9071805433
 31
0.0
 12
223.0328556737
 22
131.9071805433
 32
0.0
 13
223.0328556737
 23
131.9071805433
 33
0.0
  0
SOLID
  5
1DB
330
1D7
100
AcDbEntity
  8
VERMASSUNG
100
AcDbTrace
 10
222.5828556737
 20
84.9071805433
 30
0.0
 11
223.0328556737
 21
87.9071805433
 31
0.0
 12
222.1328556737
 22
87.9071805433
 32
0.0
 13
222.1328556737
 23
87.9071805433
 33
0.0
  0
LINE
  5
1DC
330
1D7
100
AcDbEntity
  8
VERMASSUNG
100
AcDbLine
 10
209.0363721117
 20
134.9071805433
 30
0.0
 11
223.5828556737
 21
134.9071805433
 31
0.0
  0
LINE
  5
1DD
330
1D7
100
AcDbEntity
  8
VERMASSUNG
100
AcDbLine
 10
209.0363721117
 20
84.9071805433
 30
0.0
 11
223.5828556737
 21
84.9071805433
 31
0.0
  0
LINE
  5
1DE
330
1D7
100
AcDbEntity
  8
VERMASSUNG
100
AcDbLine
 10
222.5828556737
 20
134.9071805433
 30
0.0
 11
222.5828556737
 21
84.9071805433
 31
0.0
  0
MTEXT
  5
1DF
330
1D7
100
AcDbEntity
  8
VERMASSUNG
100
AcDbMText
 10
219.8047204175
 20
104.802180554
 30
0.0
 40
2.0
 41
0.0
 71
     1
 72
     1
  1
WH
  7
SLDTEXTSTYLE0
 11
-7.044195017643634E-15
 21
1.0
 31
0.0
 73
     1
 44
1.0
  0
MTEXT
  5
1E0
330
1D7
100
AcDbEntity
  8
VERMASSUNG
100
AcDbMText
 10
220.0047203688
 20
108.6021806181
 30
0.0
 40
2.0
 41
0.0
 71
     1
 72
     1
  1
%%c
  7
SLDTEXTSTYLE0
 11
-7.044195017643634E-15
 21
1.0
 31
0.0
 73
     1
 44
1.0
  0
MTEXT
  5
1E1
330
1D7
100
AcDbEntity
  8
VERMASSUNG
100
AcDbMText
 10
219.8047204175
 20
112.2121806324
 30
0.0
 40
2.0
 41
0.0
 71
     1
 72
     1
  1
50
  7
SLDTEXTSTYLE0
 11
-7.044195017643634E-15
 21
1.0
 31
0.0
 73
     1
 44
1.0
  0
ENDBLK
  5
1D9
330
1D7
100
AcDbEntity
  8
0
100
AcDbBlockEnd
  0
ENDSEC
  0
SECTION
  2
ENTITIES
  0
MTEXT
  5
78
330
1F
100
AcDbEntity
  8
KOPF_DÜNN
100
AcDbMText
 10
13.8892156294
 20
23.8442973028
 30
0.0
 40
3.0
 41
0.0
 71
     1
 72
     1
  1
A34.540.050.054
  7
SLDTEXTSTYLE0
 73
     1
 44
1.0
  0
MTEXT
  5
79
330
1F
100
AcDbEntity
  8
VERMASSUNG
100
AcDbMText
 10
13.9329988022
 20
28.8834360957
 30
0.0
 40
3.0
 41
0.0
 71
     1
 72
     1
  1
Aufnahme_Master shank
  7
SLDTEXTSTYLE0
 73
     1
 44
1.0
  0
MTEXT
  5
7A
330
1F
100
AcDbEntity
  8
VERMASSUNG
100
AcDbMText
 10
98.8601118557
 20
13.8365368761
 30
0.0
 40
2.0
 41
0.0
 71
     1
 72
     1
  1
Datum: 17.11.2011
  7
SLDTEXTSTYLE0
 73
     1
 44
1.0
  0
MTEXT
  5
7B
330
1F
100
AcDbEntity
  8
VERMASSUNG
100
AcDbMText
 10
13.933048693
 20
18.0482802738
 30
0.0
 40
2.0
 41
0.0
 71
     1
 72
     1
  1
MAS-BT A/D
  7
SLDTEXTSTYLE0
 73
     1
 44
1.0
  0
MTEXT
  5
7C
330
1F
100
AcDbEntity
  8
VERMASSUNG
100
AcDbMText
 10
13.9808475933
 20
13.9090974274
 30
0.0
 40
2.0
 41
0.0
 71
     1
 72
     1
  1
Gewicht: 1251g
  7
SLDTEXTSTYLE0
 73
     1
 44
1.0
  0
LINE
  5
7D
330
1F
100
AcDbEntity
  8
0
  6
Continuous
 62
     7
370
    15
100
AcDbLine
 10
179.5363745531
 20
78.4071805433
 30
0.0
 11
181.5363721117
 21
78.4071805433
 31
0.0
  0
LINE
  5
7E
330
1F
100
AcDbEntity
  8
0
  6
Continuous
 62
     7
370
    15
100
AcDbLine
 10
181.5363721117
 20
141.4071805433
 30
0.0
 11
179.5358719417
 21
141.4071805433
 31
0.0
  0
ARC
  5
7F
330
1F
100
AcDbEntity
  8
0
  6
Continuous
 62
     7
370
    15
100
AcDbCircle
 10
181.5363721117
 20
79.4071805433
 30
0.0
 40
1.0
100
AcDbArc
 50
270.0
 51
0.0
  0
ARC
  5
80
330
1F
100
AcDbEntity
  8
0
  6
Continuous
 62
     7
370
    15
100
AcDbCircle
 10
181.5363721117
 20
140.4071805433
 30
0.0
 40
1.0
100
AcDbArc
 50
0.0
 51
90.0
  0
ARC
  5
81
330
1F
100
AcDbEntity
  8
0
  6
Continuous
 62
     7
370
    15
100
AcDbCircle
 10
185.5363721117
 20
81.9071805433
 30
0.0
 40
3.0
100
AcDbArc
 50
90.0
 51
180.0
  0
ARC
  5
82
330
1F
100
AcDbEntity
  8
0
  6
Continuous
 62
     7
370
    15
100
AcDbCircle
 10
185.5363721117
 20
137.9071805433
 30
0.0
 40
3.0
100
AcDbArc
 50
180.0
 51
270.0
  0
LINE
  5
83
330
1F
100
AcDbEntity
  8
0
  6
Continuous
 62
     7
370
    15
100
AcDbLine
 10
209.0363721117
 20
84.9071805433
 30
0.0
 11
209.5363721117
 21
85.4071805433
 31
0.0
  0
LINE
  5
84
330
1F
100
AcDbEntity
  8
0
  6
Continuous
 62
     7
370
    15
100
AcDbLine
 10
209.5363721117
 20
134.4071805433
 30
0.0
 11
209.0363721117
 21
134.9071805433
 31
0.0
  0
LINE
  5
85
330
1F
100
AcDbEntity
  8
0
  6
Continuous
 62
     7
370
    15
100
AcDbLine
 10
188.2601888984
 20
134.9071805433
 30
0.0
 11
185.5363721117
 21
134.9071805433
 31
0.0
  0
LINE
  5
86
330
1F
100
AcDbEntity
  8
0
  6
Continuous
 62
     7
370
    15
100
AcDbLine
 10
209.0363721117
 20
134.9071805433
 30
0.0
 11
202.7269142032
 21
134.9071805433
 31
0.0
  0
LINE
  5
87
330
1F
100
AcDbEntity
  8
0
  6
Continuous
 62
     7
370
    15
100
AcDbLine
 10
185.5363721117
 20
84.9071805433
 30
0.0
 11
209.0363721117
 21
84.9071805433
 31
0.0
  0
ARC
  5
88
330
1F
100
AcDbEntity
  8
0
  6
Continuous
 62
     7
370
    15
100
AcDbCircle
 10
156.5363721117
 20
86.6821805433
 30
0.0
 40
1.000000000000021
100
AcDbArc
 50
46.4333463416
 51
90.0
  0
ARC
  5
89
330
1F
100
AcDbEntity
  8
0
  6
Continuous
 62
     7
370
    15
100
AcDbCircle
 10
156.5363721117
 20
133.1321805433
 30
0.0
 40
1.0
100
AcDbArc
 50
270.0
 51
313.5375610145
  0
LINE
  5
8A
330
1F
100
AcDbEntity
  8
0
  6
Continuous
 62
     7
370
    15
100
AcDbLine
 10
155.5363721117
 20
132.1321805433
 30
0.0
 11
90.9920652186
 21
122.7194691213
 31
0.0
  0
LINE
  5
8B
330
1F
100
AcDbEntity
  8
0
  6
Continuous
 62
     7
370
    15
100
AcDbLine
 10
90.9920652186
 20
97.0948919652
 30
0.0
 11
155.5363721117
 21
87.6821805433
 31
0.0
  0
LINE
  5
8C
330
1F
100
AcDbEntity
  8
0
  6
Continuous
 62
     7
370
    15
100
AcDbLine
 10
155.5363721117
 20
87.6821805433
 30
0.0
 11
156.5363721117
 21
87.6821805433
 31
0.0
  0
LINE
  5
8D
330
1F
100
AcDbEntity
  8
0
  6
Continuous
 62
     7
370
    15
100
AcDbLine
 10
156.5363721117
 20
132.1321805433
 30
0.0
 11
155.5363721117
 21
132.1321805433
 31
0.0
  0
ARC
  5
8E
330
1F
100
AcDbEntity
  8
0
  6
Continuous
 62
     7
370
    15
100
AcDbCircle
 10
91.1363721117
 20
98.0844249462
 30
0.0
 40
1.00000000000001
100
AcDbArc
 50
180.0
 51
261.7028550302
  0
ARC
  5
8F
330
1F
100
AcDbEntity
  8
0
  6
Continuous
 62
     7
370
    15
100
AcDbCircle
 10
91.1363721117
 20
121.7299361403
 30
0.0
 40
1.00000000000001
100
AcDbArc
 50
98.2971449698
 51
180.0
  0
SPLINE
  5
90
330
1F
100
AcDbEntity
  8
0
  6
Continuous
 62
     7
370
    15
100
AcDbSpline
210
0.0
220
0.0
230
1.0
 70
    24
 71
     3
 72
    11
 73
     7
 74
     0
 42
0.000000001
 43
0.00000001
 40
0.0
 40
0.0
 40
0.0
 40
0.0
 40
0.2164553779443409
 40
0.4403112895790678
 40
0.7519005688038877
 40
1.0
 40
1.0
 40
1.0
 40
1.0
 10
198.083991808037
 20
112.1989859261793
 30
0.0
 10
197.8590639767249
 20
112.2745905794805
 30
0.0
 10
197.4015181101919
 20
112.4283847827448
 30
0.0
 10
196.5524351848264
 20
112.7137857481201
 30
0.0
 10
195.6416414397281
 20
113.019929478424
 30
0.0
 10
195.0587881356462
 20
113.2158430820164
 30
0.0
 10
194.800420277726
 20
113.302687881116
 30
0.0
  0
SPLINE
  5
91
330
1F
100
AcDbEntity
  8
0
  6
Continuous
 62
     7
370
    15
100
AcDbSpline
210
0.0
220
0.0
230
1.0
 70
    24
 71
     3
 72
    11
 73
     7
 74
     0
 42
0.000000001
 43
0.00000001
 40
0.0
 40
0.0
 40
0.0
 40
0.0
 40
0.2164553779443485
 40
0.4403112895790633
 40
0.7519005688038773
 40
1.0
 40
1.0
 40
1.0
 40
1.0
 10
194.800420277726
 20
113.302687881116
 30
0.0
 10
194.6224808116668
 20
113.1456969918322
 30
0.0
 10
194.2605181914186
 20
112.8263477496503
 30
0.0
 10
193.5888122424562
 20
112.2337208490517
 30
0.0
 10
192.8682871222547
 20
111.5980221933406
 30
0.0
 10
192.4071943125557
 20
111.1912132271221
 30
0.0
 10
192.2028005813888
 20
111.0108824981917
 30
0.0
  0
SPLINE
  5
92
330
1F
100
AcDbEntity
  8
0
  6
Continuous
 62
     7
370
    15
100
AcDbSpline
210
0.0
220
0.0
230
1.0
 70
    24
 71
     3
 72
    11
 73
     7
 74
     0
 42
0.000000001
 43
0.00000001
 40
0.0
 40
0.0
 40
0.0
 40
0.0
 40
0.1849308168246071
 40
0.5198464202157749
 40
0.8714438233692643
 40
1.0
 40
1.0
 40
1.0
 40
1.0
 10
192.2028005813887
 20
111.0108824981917
 30
0.0
 10
192.2427263297716
 20
110.8132473802589
 30
0.0
 10
192.3549588809909
 20
110.2576887647158
 30
0.0
 10
192.5644623704166
 20
109.2206325161278
 30
0.0
 10
192.7579474147239
 20
108.2628686394639
 30
0.0
 10
192.8611271135021
 20
107.7521222474169
 30
0.0
 10
192.8887524153625
 20
107.6153751603307
 30
0.0
  0
SPLINE
  5
93
330
1F
100
AcDbEntity
  8
0
  6
Continuous
 62
     7
370
    15
100
AcDbSpline
210
0.0
220
0.0
230
1.0
 70
    24
 71
     3
 72
    11
 73
     7
 74
     0
 42
0.000000001
 43
0.00000001
 40
0.0
 40
0.0
 40
0.0
 40
0.0
 40
0.216455377944341
 40
0.4403112895790609
 40
0.7519005688038796
 40
1.0
 40
1.0
 40
1.0
 40
1.0
 10
192.8887524153625
 20
107.6153751603307
 30
0.0
 10
193.1136802466746
 20
107.5397705070295
 30
0.0
 10
193.5712261132076
 20
107.3859763037652
 30
0.0
 10
194.4203090385731
 20
107.1005753383899
 30
0.0
 10
195.3311027836714
 20
106.794431608086
 30
0.0
 10
195.9139560877534
 20
106.5985180044936
 30
0.0
 10
196.1723239456735
 20
106.5116732053939
 30
0.0
  0
SPLINE
  5
94
330
1F
100
AcDbEntity
  8
0
  6
Continuous
 62
     7
370
    15
100
AcDbSpline
210
0.0
220
0.0
230
1.0
 70
    24
 71
     3
 72
    11
 73
     7
 74
     0
 42
0.000000001
 43
0.00000001
 40
0.0
 40
0.0
 40
0.0
 40
0.0
 40
0.2164553779443442
 40
0.440311289579056
 40
0.7519005688038679
 40
1.0
 40
1.0
 40
1.0
 40
1.0
 10
196.1723239456735
 20
106.5116732053939
 30
0.0
 10
196.3502634117327
 20
106.6686640946778
 30
0.0
 10
196.7122260319809
 20
106.9880133368598
 30
0.0
 10
197.3839319809432
 20
107.5806402374583
 30
0.0
 10
198.1044571011448
 20
108.2163388931694
 30
0.0
 10
198.5655499108438
 20
108.6231478593879
 30
0.0
 10
198.7699436420107
 20
108.8034785883183
 30
0.0
  0
SPLINE
  5
95
330
1F
100
AcDbEntity
  8
0
  6
Continuous
 62
     7
370
    15
100
AcDbSpline
210
0.0
220
0.0
230
1.0
 70
    24
 71
     3
 72
    11
 73
     7
 74
     0
 42
0.000000001
 43
0.00000001
 40
0.0
 40
0.0
 40
0.0
 40
0.0
 40
0.1285561766307345
 40
0.4801535797842214
 40
0.8150691831753911
 40
1.0
 40
1.0
 40
1.0
 40
1.0
 10
198.7699436420107
 20
108.8034785883183
 30
0.0
 10
198.7423183401504
 20
108.9402256754044
 30
0.0
 10
198.6391386413721
 20
109.4509720674514
 30
0.0
 10
198.445653597065
 20
110.4087359441153
 30
0.0
 10
198.2361501076391
 20
111.4457921927033
 30
0.0
 10
198.1239175564199
 20
112.0013508082464
 30
0.0
 10
198.083991808037
 20
112.1989859261793
 30
0.0
  0
CIRCLE
  5
96
330
1F
100
AcDbEntity
  8
0
  6
Continuous
 62
     7
370
    15
100
AcDbCircle
 10
195.4863721117
 20
109.9071805433
 30
0.0
 40
3.600000000000006
  0
CIRCLE
  5
97
330
1F
100
AcDbEntity
  8
0
  6
Continuous
 62
     7
370
    15
100
AcDbCircle
 10
195.4863721117
 20
109.9071805433
 30
0.0
 40
5.299999999999996
  0
ARC
  5
98
330
1F
100
AcDbEntity
  8
0
  6
Continuous
 62
     7
370
    15
100
AcDbCircle
 10
195.4863721117
 20
109.9071805433
 30
0.0
 40
2.999999999999977
100
AcDbArc
 50
311.4210364019
 51
11.4210364019
  0
ARC
  5
99
330
1F
100
AcDbEntity
  8
0
  6
Continuous
 62
     7
370
    15
100
AcDbCircle
 10
195.4863721117
 20
109.9071805433
 30
0.0
 40
3.000000000000012
100
AcDbArc
 50
71.4210364019
 51
131.4210364019
  0
ARC
  5
9A
330
1F
100
AcDbEntity
  8
0
  6
Continuous
 62
     7
370
    15
100
AcDbCircle
 10
195.4863721117
 20
109.9071805433
 30
0.0
 40
3.000000000000043
100
AcDbArc
 50
251.4210364019
 51
311.4210364019
  0
ARC
  5
9B
330
1F
100
AcDbEntity
  8
0
  6
Continuous
 62
     7
370
    15
100
AcDbCircle
 10
195.4863721117
 20
109.9071805433
 30
0.0
 40
2.999999999999975
100
AcDbArc
 50
11.4210364019
 51
71.4210364019
  0
ARC
  5
9C
330
1F
100
AcDbEntity
  8
0
  6
Continuous
 62
     7
370
    15
100
AcDbCircle
 10
195.4863721117
 20
109.9071805433
 30
0.0
 40
3.000000000000054
100
AcDbArc
 50
191.4210364019
 51
251.4210364019
  0
ARC
  5
9D
330
1F
100
AcDbEntity
  8
0
  6
Continuous
 62
     7
370
    15
100
AcDbCircle
 10
195.4863721117
 20
109.9071805433
 30
0.0
 40
3.000000000000054
100
AcDbArc
 50
131.4210364019
 51
191.4210364019
  0
SPLINE
  5
9E
330
1F
100
AcDbEntity
  8
0
  6
Continuous
 62
     7
370
    15
100
AcDbSpline
210
0.0
220
0.0
230
1.0
 70
     8
 71
     3
 72
    11
 73
     7
 74
     0
 42
0.000000001
 43
0.00000001
 40
0.0
 40
0.0
 40
0.0
 40
0.0
 40
0.2488814606662326
 40
0.5011921284372279
 40
0.7520447562616803
 40
0.9999999999999999
 40
0.9999999999999999
 40
0.9999999999999999
 40
0.9999999999999999
 10
179.5358719416828
 20
141.4070307978486
 30
0.0
 10
179.5060936121953
 20
141.3978987717044
 30
0.0
 10
179.4461266532374
 20
141.3795088940177
 30
0.0
 10
178.9542045914486
 20
141.235471645532
 30
0.0
 10
178.226135168818
 20
141.0260685674197
 30
0.0
 10
177.5153916976453
 20
140.8538642980701
 30
0.0
 10
177.1620841805087
 20
140.7682622977536
 30
0.0
  0
SPLINE
  5
9F
330
1F
100
AcDbEntity
  8
0
  6
Continuous
 62
     7
370
    15
100
AcDbSpline
210
0.0
220
0.0
230
1.0
 70
     8
 71
     3
 72
    24
 73
    20
 74
     0
 42
0.000000001
 43
0.00000001
 40
0.0
 40
0.0
 40
0.0
 40
0.0
 40
0.0452116620179242
 40
0.090297972462422
 40
0.1353071308702234
 40
0.1802875847771427
 40
0.2252878744066556
 40
0.2703564758681617
 40
0.3155416453865796
 40
0.3608912670465144
 40
0.4064527064042042
 40
0.4522726721077476
 40
0.4983970873839424
 40
0.583111077468355
 40
0.6669835141538943
 40
0.7503080981350146
 40
0.8333843407916259
 40
0.9165144377976991
 40
0.9999999999999999
 40
0.9999999999999999
 40
0.9999999999999999
 40
0.9999999999999999
 10
177.1619908051175
 20
79.04608252371958
 30
0.0
 10
177.2296945470229
 20
79.03032348270145
 30
0.0
 10
177.3649143188542
 20
78.99884909338738
 30
0.0
 10
177.5575760356987
 20
78.95238829004727
 30
0.0
 10
177.7423129073522
 20
78.90675731041435
 30
0.0
 10
177.9184308486469
 20
78.86213201298068
 30
0.0
 10
178.0861146412602
 20
78.81864472638163
 30
0.0
 10
178.2453141255523
 20
78.77644367858375
 30
0.0
 10
178.3960422640324
 20
78.73567708627202
 30
0.0
 10
178.5382952174708
 20
78.69649733366444
 30
0.0
 10
178.6720739725444
 20
78.65906004186277
 30
0.0
 10
178.7973778834961
 20
78.62352345789013
 30
0.0
 10
178.9464850916834
 20
78.58080463777699
 30
0.0
 10
179.1073431517523
 20
78.5342689167004
 30
0.0
 10
179.2633559134766
 20
78.4885829255621
 30
0.0
 10
179.3850107073596
 20
78.45254294884998
 30
0.0
 10
179.47145797702
 20
78.42666919011451
 30
0.0
 10
179.5257950224635
 20
78.41025737714651
 30
0.0
 10
179.5328413962677
 20
78.40820761700093
 30
0.0
 10
179.5363720996922
 20
78.4071805504038
 30
0.0
  0
LINE
  5
A0
330
1F
100
AcDbEntity
  8
0
  6
Continuous
 62
     7
370
    15
100
AcDbLine
 10
177.1613721117
 20
79.0460825237
 30
0.0
 11
177.1613721117
 21
140.7682622978
 31
0.0
  0
SPLINE
  5
A1
330
1F
100
AcDbEntity
  8
0
  6
Continuous
 62
     7
370
    15
100
AcDbSpline
210
0.0
220
0.0
230
1.0
 70
     8
 71
     3
 72
    10
 73
     6
 74
     0
 42
0.000000001
 43
0.00000001
 40
0.0
 40
0.0
 40
0.0
 40
0.0
 40
0.5
 40
0.5
 40
1.0
 40
1.0
 40
1.0
 40
1.0
 10
176.5129805157453
 20
139.8116412646092
 30
0.0
 10
176.1968766846059
 20
139.191778706332
 30
0.0
 10
175.8670976402611
 20
138.5458779710332
 30
0.0
 10
175.1948743678723
 20
137.2314593307326
 30
0.0
 10
174.8527412019417
 20
136.5635371037204
 30
0.0
 10
174.5055608734275
 20
135.8871993712389
 30
0.0
  0
SPLINE
  5
A2
330
1F
100
AcDbEntity
  8
0
  6
Continuous
 62
     7
370
    15
100
AcDbSpline
210
0.0
220
0.0
230
1.0
 70
     8
 71
     3
 72
     9
 73
     5
 74
     0
 42
0.000000001
 43
0.00000001
 40
0.0
 40
0.0
 40
0.0
 40
0.0
 40
0.5067583433955531
 40
1.0
 40
1.0
 40
1.0
 40
1.0
 10
177.1620026546844
 20
140.769315650604
 30
0.0
 10
177.051602697336
 20
140.6072413909394
 30
0.0
 10
176.8337474635994
 20
140.2874158532312
 30
0.0
 10
176.6191541175254
 20
139.9690673082791
 30
0.0
 10
176.5133077400116
 20
139.8120445445893
 30
0.0
  0
SPLINE
  5
A3
330
1F
100
AcDbEntity
  8
0
  6
Continuous
 62
     7
370
    15
100
AcDbSpline
210
0.0
220
0.0
230
1.0
 70
     8
 71
     3
 72
     9
 73
     5
 74
     0
 42
0.000000001
 43
0.00000001
 40
0.0
 40
0.0
 40
0.0
 40
0.0
 40
0.4932438861071711
 40
0.9999999999999999
 40
0.9999999999999999
 40
0.9999999999999999
 40
0.9999999999999999
 10
176.5132938249888
 20
80.00231444155027
 30
0.0
 10
176.6191403154818
 20
79.8452905296447
 30
0.0
 10
176.8337329206297
 20
79.52694109576758
 30
0.0
 10
177.0515869696162
 20
79.20711560802732
 30
0.0
 10
177.1619858408764
 20
79.04504208673622
 30
0.0
  0
SPLINE
  5
A4
330
1F
100
AcDbEntity
  8
0
  6
Continuous
 62
     7
370
    15
100
AcDbSpline
210
0.0
220
0.0
230
1.0
 70
     8
 71
     3
 72
    10
 73
     6
 74
     0
 42
0.000000001
 43
0.00000001
 40
0.0
 40
0.0
 40
0.0
 40
0.0
 40
0.5
 40
0.5
 40
1.0
 40
1.0
 40
1.0
 40
1.0
 10
176.5129745960775
 20
80.00273143005
 30
0.0
 10
176.1967954934034
 20
80.62274158206372
 30
0.0
 10
175.8663532662364
 20
81.26993964793142
 30
0.0
 10
175.1946417455537
 20
82.5833555725252
 30
0.0
 10
174.8526678705217
 20
83.250966838828
 30
0.0
 10
174.5055608734275
 20
83.92716171527118
 30
0.0
  0
LINE
  5
A5
330
1F
100
AcDbEntity
  8
0
  6
Continuous
 62
     7
370
    15
100
AcDbLine
 10
182.5363721117
 20
79.4071805433
 30
0.0
 11
182.5363721117
 21
140.407180543
 31
0.0
  0
LINE
  5
A6
330
1F
100
AcDbEntity
  8
0
  6
Continuous
 62
     7
370
    15
100
AcDbLine
 10
167.1113721117
 20
140.1435706463
 30
0.0
 11
158.5363721117
 21
140.1435706463
 31
0.0
  0
LINE
  5
A7
330
1F
100
AcDbEntity
  8
0
  6
Continuous
 62
     7
370
    15
100
AcDbLine
 10
167.1113721117
 20
79.6707904403
 30
0.0
 11
167.1113721117
 21
140.1435706463
 31
0.0
  0
LINE
  5
A8
330
1F
100
AcDbEntity
  8
0
  6
Continuous
 62
     7
370
    15
100
AcDbLine
 10
158.5363721117
 20
79.6707904403
 30
0.0
 11
167.1113721117
 21
79.6707904403
 31
0.0
  0
LINE
  5
A9
330
1F
100
AcDbEntity
  8
0
  6
Continuous
 62
     7
370
    15
100
AcDbLine
 10
157.5363721117
 20
80.7807749978
 30
0.0
 11
157.5363721117
 21
139.0335860887
 31
0.0
  0
SPLINE
  5
AA
330
1F
100
AcDbEntity
  8
0
  6
Continuous
 62
     7
370
    15
100
AcDbSpline
210
0.0
220
0.0
230
1.0
 70
     8
 71
     3
 72
    12
 73
     8
 74
     0
 42
0.000000001
 43
0.00000001
 40
0.0
 40
0.0
 40
0.0
 40
0.0
 40
0.2500000000000015
 40
0.2500000000000015
 40
0.500000000000003
 40
0.500000000000003
 40
1.0
 40
1.0
 40
1.0
 40
1.0
 10
157.9234049346654
 20
139.974170443076
 30
0.0
 10
157.8715441834773
 20
139.9173578707616
 30
0.0
 10
157.8228123864583
 20
139.8553656845098
 30
0.0
 10
157.7326393765409
 20
139.7193126113858
 30
0.0
 10
157.690862128256
 20
139.6444065087871
 30
0.0
 10
157.58477325841
 20
139.4062798734897
 30
0.0
 10
157.5363721116998
 20
139.2228731419209
 30
0.0
 10
157.5363721116998
 20
139.033586088739
 30
0.0
  0
SPLINE
  5
AB
330
1F
100
AcDbEntity
  8
0
  6
Continuous
 62
     7
370
    15
100
AcDbSpline
210
0.0
220
0.0
230
1.0
 70
     8
 71
     3
 72
     8
 73
     4
 74
     0
 42
0.000000001
 43
0.00000001
 40
0.0
 40
0.0
 40
0.0
 40
0.0
 40
1.0
 40
1.0
 40
1.0
 40
1.0
 10
158.5363721116998
 20
140.1435706462569
 30
0.0
 10
158.3100277981
 20
140.1435706462569
 30
0.0
 10
158.0925756776948
 20
140.080202177236
 30
0.0
 10
157.9234049346654
 20
139.974170443076
 30
0.0
  0
SPLINE
  5
AC
330
1F
100
AcDbEntity
  8
0
  6
Continuous
 62
     7
370
    15
100
AcDbSpline
210
0.0
220
0.0
230
1.0
 70
     8
 71
     3
 72
     8
 73
     4
 74
     0
 42
0.000000001
 43
0.00000001
 40
0.0
 40
0.0
 40
0.0
 40
0.0
 40
1.0
 40
1.0
 40
1.0
 40
1.0
 10
157.9234049346654
 20
79.84019064343407
 30
0.0
 10
158.0929984403173
 20
79.73389393287688
 30
0.0
 10
158.3093671326506
 20
79.67079044025319
 30
0.0
 10
158.5363721116998
 20
79.67079044025319
 30
0.0
  0
SPLINE
  5
AD
330
1F
100
AcDbEntity
  8
0
  6
Continuous
 62
     7
370
    15
100
AcDbSpline
210
0.0
220
0.0
230
1.0
 70
     8
 71
     3
 72
    12
 73
     8
 74
     0
 42
0.000000001
 43
0.00000001
 40
0.0
 40
0.0
 40
0.0
 40
0.0
 40
0.2500000000000017
 40
0.2500000000000017
 40
0.5000000000000033
 40
0.5000000000000033
 40
1.0
 40
1.0
 40
1.0
 40
1.0
 10
157.9234049346654
 20
79.84019064343407
 30
0.0
 10
157.8715441834773
 20
79.89700321574847
 30
0.0
 10
157.8228123864583
 20
79.95899540200028
 30
0.0
 10
157.7326393765409
 20
80.09504847512427
 30
0.0
 10
157.690862128256
 20
80.169954577723
 30
0.0
 10
157.58477325841
 20
80.4080812130204
 30
0.0
 10
157.5363721116998
 20
80.59148794458919
 30
0.0
 10
157.5363721116998
 20
80.78077499777106
 30
0.0
  0
SPLINE
  5
AE
330
1F
100
AcDbEntity
  8
0
  6
Continuous
 62
     7
370
    15
100
AcDbSpline
210
0.0
220
0.0
230
1.0
 70
     8
 71
     3
 72
     8
 73
     4
 74
     0
 42
0.000000001
 43
0.00000001
 40
0.0
 40
0.0
 40
0.0
 40
0.0
 40
0.0012389803509652
 40
0.0012389803509652
 40
0.0012389803509652
 40
0.0012389803509652
 10
167.6689336552336
 20
139.3612032660415
 30
0.0
 10
167.4838136821008
 20
139.6222532474206
 30
0.0
 10
167.2979352343418
 20
139.8830348605395
 30
0.0
 10
167.1113721116998
 20
140.1435706462569
 30
0.0
  0
SPLINE
  5
AF
330
1F
100
AcDbEntity
  8
0
  6
Continuous
 62
     7
370
    15
100
AcDbSpline
210
0.0
220
0.0
230
1.0
 70
     8
 71
     3
 72
     8
 73
     4
 74
     0
 42
0.000000001
 43
0.00000001
 40
0.0
 40
0.0
 40
0.0
 40
0.0
 40
1.0
 40
1.0
 40
1.0
 40
1.0
 10
169.7671833499721
 20
135.57442620772
 30
0.0
 10
169.0708899839306
 20
136.8383645758349
 30
0.0
 10
168.3710948187394
 20
138.1004200213432
 30
0.0
 10
167.6689336552336
 20
139.3612032660415
 30
0.0
  0
SPLINE
  5
B0
330
1F
100
AcDbEntity
  8
0
  6
Continuous
 62
     7
370
    15
100
AcDbSpline
210
0.0
220
0.0
230
1.0
 70
     8
 71
     3
 72
     8
 73
     4
 74
     0
 42
0.000000001
 43
0.00000001
 40
0.0
 40
0.0
 40
0.0
 40
0.0
 40
1.0
 40
1.0
 40
1.0
 40
1.0
 10
169.7671833499721
 20
84.23993487878998
 30
0.0
 10
169.0708652093141
 20
82.9759515388432
 30
0.0
 10
168.3710680172037
 20
81.71389294099123
 30
0.0
 10
167.6689336552336
 20
80.45315782046853
 30
0.0
  0
SPLINE
  5
B1
330
1F
100
AcDbEntity
  8
0
  6
Continuous
 62
     7
370
    15
100
AcDbSpline
210
0.0
220
0.0
230
1.0
 70
     8
 71
     3
 72
     8
 73
     4
 74
     0
 42
0.000000001
 43
0.00000001
 40
0.0
 40
0.0
 40
0.0
 40
0.0
 40
0.0012389803509652
 40
0.0012389803509652
 40
0.0012389803509652
 40
0.0012389803509652
 10
167.1113721116998
 20
79.6707904402532
 30
0.0
 10
167.2979352343418
 20
79.93132622597055
 30
0.0
 10
167.4838136821008
 20
80.19210783908954
 30
0.0
 10
167.6689336552336
 20
80.45315782046853
 30
0.0
  0
SPLINE
  5
B2
330
1F
100
AcDbEntity
  8
0
  6
Continuous
 62
     7
370
    15
100
AcDbSpline
210
0.0
220
0.0
230
1.0
 70
     8
 71
     3
 72
    10
 73
     6
 74
     0
 42
0.000000001
 43
0.00000001
 40
0.0
 40
0.0
 40
0.0
 40
0.0
 40
0.5
 40
0.5
 40
1.0
 40
1.0
 40
1.0
 40
1.0
 10
170.4600036729996
 20
135.1549032128346
 30
0.0
 10
170.3179863605527
 20
135.1549032128346
 30
0.0
 10
170.1775393136904
 20
135.1953930650441
 30
0.0
 10
169.9359493944291
 20
135.3433288949832
 30
0.0
 10
169.8352719521758
 20
135.4508291709627
 30
0.0
 10
169.7671833499722
 20
135.5744262077198
 30
0.0
  0
SPLINE
  5
B3
330
1F
100
AcDbEntity
  8
0
  6
Continuous
 62
     7
370
    15
100
AcDbSpline
210
0.0
220
0.0
230
1.0
 70
     8
 71
     3
 72
    10
 73
     6
 74
     0
 42
0.000000001
 43
0.00000001
 40
0.0
 40
0.0
 40
0.0
 40
0.0
 40
0.5
 40
0.5
 40
1.0
 40
1.0
 40
1.0
 40
1.0
 10
170.4600036729996
 20
84.65945787367552
 30
0.0
 10
170.319146308489
 20
84.65945787367552
 30
0.0
 10
170.1763121770148
 20
84.61835396785682
 30
0.0
 10
169.9360504862414
 20
84.47095607455586
 30
0.0
 10
169.8353442171619
 20
84.36366309371621
 30
0.0
 10
169.7671833499721
 20
84.23993487879
 30
0.0
  0
SPLINE
  5
B4
330
1F
100
AcDbEntity
  8
0
  6
Continuous
 62
     7
370
    15
100
AcDbSpline
210
0.0
220
0.0
230
1.0
 70
     8
 71
     3
 72
    12
 73
     8
 74
     0
 42
0.000000001
 43
0.00000001
 40
0.0
 40
0.0
 40
0.0
 40
0.0
 40
0.25
 40
0.25
 40
0.5
 40
0.5
 40
1.0
 40
1.0
 40
1.0
 40
1.0
 10
174.5055608734275
 20
135.8871993712389
 30
0.0
 10
174.469656723091
 20
135.8172549370908
 30
0.0
 10
174.4271251709615
 20
135.7540035740329
 30
0.0
 10
174.3303308941215
 20
135.638944919117
 30
0.0
 10
174.2752412158572
 20
135.586616385405
 30
0.0
 10
174.0971079823033
 20
135.4528314823199
 30
0.0
 10
173.9597308903007
 20
135.3922837151618
 30
0.0
 10
173.8127405504007
 20
135.3730837667779
 30
0.0
  0
SPLINE
  5
B5
330
1F
100
AcDbEntity
  8
0
  6
Continuous
 62
     7
370
    15
100
AcDbSpline
210
0.0
220
0.0
230
1.0
 70
     8
 71
     3
 72
    12
 73
     8
 74
     0
 42
0.000000001
 43
0.00000001
 40
0.0
 40
0.0
 40
0.0
 40
0.0
 40
0.25
 40
0.25
 40
0.5
 40
0.5
 40
1.0
 40
1.0
 40
1.0
 40
1.0
 10
174.5055608734275
 20
83.92716171527115
 30
0.0
 10
174.469656723091
 20
83.99710614941931
 30
0.0
 10
174.4271251709615
 20
84.06035751247714
 30
0.0
 10
174.3303308941215
 20
84.1754161673931
 30
0.0
 10
174.2752412158572
 20
84.22774470110505
 30
0.0
 10
174.0971079823033
 20
84.36152960419017
 30
0.0
 10
173.9597308903007
 20
84.42207737134832
 30
0.0
 10
173.8127405504007
 20
84.44127731973221
 30
0.0
  0
LINE
  5
B6
330
1F
100
AcDbEntity
  8
0
  6
Continuous
 62
     7
370
    15
100
AcDbLine
 10
170.4863721117
 20
84.6594578737
 30
0.0
 11
170.460003673
 21
84.6594578737
 31
0.0
  0
LINE
  5
B7
330
1F
100
AcDbEntity
  8
0
  6
Continuous
 62
     7
370
    15
100
AcDbLine
 10
170.4863721117
 20
135.1549032128
 30
0.0
 11
170.460003673
 21
135.1549032128
 31
0.0
  0
SPLINE
  5
B8
330
1F
100
AcDbEntity
  8
0
  6
Continuous
 62
     7
370
    15
100
AcDbSpline
210
0.0
220
0.0
230
1.0
 70
     8
 71
     3
 72
    10
 73
     6
 74
     0
 42
0.000000001
 43
0.00000001
 40
0.0
 40
0.0
 40
0.0
 40
0.0
 40
0.5000000000000001
 40
0.5000000000000001
 40
1.0
 40
1.0
 40
1.0
 40
1.0
 10
173.8127405504
 20
135.3730837667808
 30
0.0
 10
173.290825826004
 20
135.3049110162726
 30
0.0
 10
172.7519746458947
 20
135.2502877513147
 30
0.0
 10
171.6406120038626
 20
135.1751918984233
 30
0.0
 10
171.0637712266665
 20
135.1549032128346
 30
0.0
 10
170.4863721116998
 20
135.1549032128346
 30
0.0
  0
SPLINE
  5
B9
330
1F
100
AcDbEntity
  8
0
  6
Continuous
 62
     7
370
    15
100
AcDbSpline
210
0.0
220
0.0
230
1.0
 70
     8
 71
     3
 72
    10
 73
     6
 74
     0
 42
0.000000001
 43
0.00000001
 40
0.0
 40
0.0
 40
0.0
 40
0.0
 40
0.5000000000000001
 40
0.5000000000000001
 40
1.0
 40
1.0
 40
1.0
 40
1.0
 10
173.8127405504
 20
84.44127731972928
 30
0.0
 10
173.290825826004
 20
84.50945007023746
 30
0.0
 10
172.7519746458947
 20
84.5640733351954
 30
0.0
 10
171.6406120038626
 20
84.63916918808675
 30
0.0
 10
171.0637712266665
 20
84.65945787367552
 30
0.0
 10
170.4863721116998
 20
84.65945787367552
 30
0.0
  0
LINE
  5
BA
330
1F
100
AcDbEntity
  8
0
  6
Continuous
 62
     7
370
    15
100
AcDbLine
 10
209.5363721117
 20
109.9071805433
 30
0.0
 11
209.5363721117
 21
85.4071805433
 31
0.0
  0
LINE
  5
BB
330
1F
100
AcDbEntity
  8
0
  6
Continuous
 62
     7
370
    15
100
AcDbLine
 10
209.5363721117
 20
134.4071805433
 30
0.0
 11
209.5363721117
 21
109.9071805433
 31
0.0
  0
LINE
  5
BC
330
1F
100
AcDbEntity
  8
0
  6
Continuous
 62
     7
370
    15
100
AcDbLine
 10
209.0363721117
 20
109.9071805433
 30
0.0
 11
209.0363721117
 21
84.9071805433
 31
0.0
  0
LINE
  5
BD
330
1F
100
AcDbEntity
  8
0
  6
Continuous
 62
     7
370
    15
100
AcDbLine
 10
209.0363721117
 20
134.9071805433
 30
0.0
 11
209.0363721117
 21
109.9071805433
 31
0.0
  0
SPLINE
  5
BE
330
1F
100
AcDbEntity
  8
0
  6
Continuous
 62
     7
370
    15
100
AcDbSpline
210
0.0
220
0.0
230
1.0
 70
     8
 71
     3
 72
    27
 73
    23
 74
     0
 42
0.000000001
 43
0.00000001
 40
0.0
 40
0.0
 40
0.0
 40
0.0
 40
0.0058616194078786
 40
0.0523752834015992
 40
0.0949035471612842
 40
0.138543216377259
 40
0.1835900643375762
 40
0.2296803908952034
 40
0.2802888884079631
 40
0.332078373204621
 40
0.3885543276644072
 40
0.4464883532023931
 40
0.5062788261240694
 40
0.5677610896241413
 40
0.6282404269698246
 40
0.6905213948895408
 40
0.7500175886157388
 40
0.8115170382684378
 40
0.8663595080926322
 40
0.9233252901446845
 40
0.9706458005212595
 40
1.0
 40
1.0
 40
1.0
 40
1.0
 10
202.7269142032007
 20
134.9050616310506
 30
0.0
 10
202.7299664659685
 20
134.9057453828615
 30
0.0
 10
202.757239326309
 20
134.9118549052264
 30
0.0
 10
202.6461149326909
 20
134.8868330120196
 30
0.0
 10
202.394477613816
 20
134.8314938783523
 30
0.0
 10
201.9922756504594
 20
134.746644784466
 30
0.0
 10
201.4548731409365
 20
134.6406102584426
 30
0.0
 10
200.7701385720143
 20
134.5176335953596
 30
0.0
 10
199.9438476420835
 20
134.3878951439184
 30
0.0
 10
198.9617003796444
 20
134.2610675046971
 30
0.0
 10
197.8521992475205
 20
134.1543577890967
 30
0.0
 10
196.629286398033
 20
134.0832789129404
 30
0.0
 10
195.3405106548987
 20
134.0615018084675
 30
0.0
 10
194.0369816113377
 20
134.0957494886007
 30
0.0
 10
192.7568895258369
 20
134.1836150127079
 30
0.0
 10
191.5677658149052
 20
134.3129049311552
 30
0.0
 10
190.4875920338714
 20
134.468811246292
 30
0.0
 10
189.5994411237515
 20
134.6240913539286
 30
0.0
 10
188.9029107137066
 20
134.7620612889544
 30
0.0
 10
188.4678526942031
 20
134.8554099821187
 30
0.0
 10
188.2512937519272
 20
134.9038145242415
 30
0.0
 10
188.2577262690289
 20
134.9023834549054
 30
0.0
 10
188.2601888983692
 20
134.9018355833211
 30
0.0
  0
SPLINE
  5
BF
330
1F
100
AcDbEntity
  8
0
  6
Continuous
 62
     7
370
    15
100
AcDbSpline
210
0.0
220
0.0
230
1.0
 70
    11
 71
     3
 72
    95
 73
    91
 74
     0
 42
0.000000001
 43
0.00000001
 40
0.0
 40
0.0
 40
0.0
 40
0.0
 40
0.0312500000000018
 40
0.0312500000000018
 40
0.0468750000000027
 40
0.0468750000000027
 40
0.0625000000000036
 40
0.0625000000000036
 40
0.093750000000005
 40
0.093750000000005
 40
0.1093750000000055
 40
0.1093750000000055
 40
0.1250000000000059
 40
0.1250000000000059
 40
0.1562500000000073
 40
0.1562500000000073
 40
0.171875000000008
 40
0.171875000000008
 40
0.1875000000000087
 40
0.1875000000000087
 40
0.2187500000000096
 40
0.2187500000000096
 40
0.2343750000000099
 40
0.2343750000000099
 40
0.2500000000000101
 40
0.2500000000000101
 40
0.2812500000000106
 40
0.2812500000000106
 40
0.2968750000000107
 40
0.2968750000000107
 40
0.3125000000000107
 40
0.3125000000000107
 40
0.3437500000000107
 40
0.3437500000000107
 40
0.3593750000000107
 40
0.3593750000000107
 40
0.3750000000000107
 40
0.3906250000000108
 40
0.3906250000000108
 40
0.4062500000000108
 40
0.4062500000000108
 40
0.437500000000011
 40
0.437500000000011
 40
0.4531250000000112
 40
0.4531250000000112
 40
0.4687500000000113
 40
0.4687500000000113
 40
0.5000000000000112
 40
0.5000000000000112
 40
0.5312500000000111
 40
0.5312500000000111
 40
0.5468750000000109
 40
0.5468750000000109
 40
0.5625000000000108
 40
0.5625000000000108
 40
0.5937500000000102
 40
0.5937500000000102
 40
0.6250000000000097
 40
0.6250000000000097
 40
0.6562500000000092
 40
0.6562500000000092
 40
0.6875000000000087
 40
0.6875000000000087
 40
0.7187500000000081
 40
0.7187500000000081
 40
0.7500000000000075
 40
0.7500000000000075
 40
0.7656250000000072
 40
0.7656250000000072
 40
0.7812500000000068
 40
0.7812500000000068
 40
0.8125000000000057
 40
0.8125000000000057
 40
0.8281250000000052
 40
0.8281250000000052
 40
0.8437500000000048
 40
0.8437500000000048
 40
0.875000000000004
 40
0.875000000000004
 40
0.8906250000000036
 40
0.8906250000000036
 40
0.9062500000000031
 40
0.9062500000000031
 40
0.9218750000000027
 40
0.9218750000000027
 40
0.9375000000000022
 40
0.9375000000000022
 40
0.9687500000000012
 40
0.9687500000000012
 40
1.0
 40
1.0
 40
1.0
 40
1.0
 10
190.6366419180001
 20
114.6641201119546
 30
0.0
 10
190.98778368108
 20
114.944504566217
 30
0.0
 10
191.3598323547969
 20
115.1874808010779
 30
0.0
 10
191.9466783547485
 20
115.5013479561015
 30
0.0
 10
192.1471307443152
 20
115.5974609270365
 30
0.0
 10
192.5577183663773
 20
115.7727834932085
 30
0.0
 10
192.7688413001087
 20
115.8522979621055
 30
0.0
 10
193.4093661813929
 20
116.0624972283326
 30
0.0
 10
193.8436728717729
 20
116.1648158854958
 30
0.0
 10
194.5056725323471
 20
116.2641439229263
 30
0.0
 10
194.728106866487
 20
116.2881665576078
 30
0.0
 10
195.1765744958683
 20
116.3177549951792
 30
0.0
 10
195.4034304440361
 20
116.3232408142967
 30
0.0
 10
196.0774175550404
 20
116.3114689567341
 30
0.0
 10
196.5212280444684
 20
116.2666928452775
 30
0.0
 10
197.1788145651035
 20
116.1448543817787
 30
0.0
 10
197.3966474162416
 20
116.095073159004
 30
0.0
 10
197.8295124599184
 20
115.9765794419181
 30
0.0
 10
198.0450129019831
 20
115.9075938073602
 30
0.0
 10
198.6746740274882
 20
115.6757059773208
 30
0.0
 10
199.0762443375704
 20
115.487198199231
 30
0.0
 10
199.6510538325509
 20
115.1523256049989
 30
0.0
 10
199.8380362529125
 20
115.0319584763296
 30
0.0
 10
200.2023069473372
 20
114.772722881831
 30
0.0
 10
200.3796434444948
 20
114.6336169198285
 30
0.0
 10
200.8846142526753
 20
114.1969489570432
 30
0.0
 10
201.1897320929599
 20
113.8774667702012
 30
0.0
 10
201.5975382524708
 20
113.3526399105524
 30
0.0
 10
201.7251007724789
 20
113.1700417434026
 30
0.0
 10
201.962131845767
 20
112.7881837178511
 30
0.0
 10
202.0704318974671
 20
112.59051351045
 30
0.0
 10
202.3586822008616
 20
111.987547909729
 30
0.0
 10
202.5049765717881
 20
111.5683826745868
 30
0.0
 10
202.6505244783834
 20
110.9117283924741
 30
0.0
 10
202.6866797542989
 20
110.6864780771607
 30
0.0
 10
202.7311187134088
 20
110.2382642288267
 30
0.0
 10
202.7484569117563
 20
109.7907654515413
 30
0.0
 10
202.7126617262341
 20
109.3446692841365
 30
0.0
 10
202.649976590171
 20
108.899282278822
 30
0.0
 10
202.6047518593015
 20
108.6758180139228
 30
0.0
 10
202.4322491724329
 20
108.0235011364307
 30
0.0
 10
202.2684198470847
 20
107.6077395932037
 30
0.0
 10
201.9534771296425
 20
107.0109496804151
 30
0.0
 10
201.8370676329505
 20
106.8172459370556
 30
0.0
 10
201.5869088278712
 20
106.4468530199947
 30
0.0
 10
201.4526048046438
 20
106.2690718700751
 30
0.0
 10
201.0232166890593
 20
105.7568550617527
 30
0.0
 10
200.6984619316772
 20
105.4411218347186
 30
0.0
 10
200.0029422346987
 20
104.8827388588704
 30
0.0
 10
199.6312767496469
 20
104.6378600335262
 30
0.0
 10
199.0391146170435
 20
104.3194452957312
 30
0.0
 10
198.8353928481798
 20
104.2213989895888
 30
0.0
 10
198.4236306048985
 20
104.0449429567242
 30
0.0
 10
198.2147649209345
 20
103.9660355748686
 30
0.0
 10
197.5794486449131
 20
103.7563572409192
 30
0.0
 10
197.144349804432
 20
103.6523988486743
 30
0.0
 10
196.2504838214894
 20
103.517170584198
 30
0.0
 10
195.8021194322538
 20
103.4876612481233
 30
0.0
 10
194.908974104786
 20
103.5020612396616
 30
0.0
 10
194.4627719433614
 20
103.5458720277438
 30
0.0
 10
193.573355034775
 20
103.7100889762831
 30
0.0
 10
193.1424462751429
 20
103.8281551607191
 30
0.0
 10
192.3073910985349
 20
104.1347684043367
 30
0.0
 10
191.9021107049062
 20
104.3239160508857
 30
0.0
 10
191.125017930828
 20
104.7765910500938
 30
0.0
 10
190.763206187244
 20
105.034035705477
 30
0.0
 10
190.2607965133599
 20
105.4679094899152
 30
0.0
 10
190.1000925651815
 20
105.6205419023599
 30
0.0
 10
189.7929027902686
 20
105.9427775616646
 30
0.0
 10
189.6456233742757
 20
106.1134251355151
 30
0.0
 10
189.2328777493684
 20
106.6454641308031
 30
0.0
 10
188.9987068770964
 20
107.0225351099857
 30
0.0
 10
188.711226715645
 20
107.623400472956
 30
0.0
 10
188.6261095783841
 20
107.8296084117605
 30
0.0
 10
188.4788205462097
 20
108.2547659045467
 30
0.0
 10
188.4168021289279
 20
108.4741558683979
 30
0.0
 10
188.2721909210514
 20
109.1319794260801
 30
0.0
 10
188.2280285657625
 20
109.5765006299904
 30
0.0
 10
188.2424658335376
 20
110.2525265862192
 30
0.0
 10
188.26115000344
 20
110.4803589547808
 30
0.0
 10
188.3248074962692
 20
110.9263346436658
 30
0.0
 10
188.3696968781298
 20
111.1459869577708
 30
0.0
 10
188.4847054258691
 20
111.5788636907228
 30
0.0
 10
188.5548267039544
 20
111.7920875421544
 30
0.0
 10
188.7202534734774
 20
112.2121429711842
 30
0.0
 10
188.8152641729943
 20
112.4178131341978
 30
0.0
 10
189.1301554358647
 20
113.0115103727335
 30
0.0
 10
189.3812959981764
 20
113.381019265864
 30
0.0
 10
189.9618372068298
 20
114.0707945633749
 30
0.0
 10
190.2855001549201
 20
114.3837356576922
 30
0.0
 10
190.636641918
 20
114.6641201119546
 30
0.0
  0
CIRCLE
  5
C0
330
1F
100
AcDbEntity
  8
0
  6
Continuous
 62
     7
370
    15
100
AcDbCircle
 10
195.4863721117
 20
109.9071805433
 30
0.0
 40
5.499999999999972
  0
SPLINE
  5
C1
330
1F
100
AcDbEntity
  8
0
  6
Continuous
 62
     7
370
    15
100
AcDbSpline
210
0.0
220
0.0
230
1.0
 70
    24
 71
     3
 72
    16
 73
    12
 74
     0
 42
0.000000001
 43
0.00000001
 40
0.0
 40
0.0
 40
0.0
 40
0.0
 40
0.5
 40
0.5
 40
0.75
 40
0.75
 40
0.875
 40
0.875
 40
0.9375
 40
0.9375
 40
1.0
 40
1.0
 40
1.0
 40
1.0
 10
157.5363721116998
 20
132.407180543255
 30
0.0
 10
157.5363721116998
 20
132.407180543255
 30
0.0
 10
157.4555720872357
 20
132.407180543255
 30
0.0
 10
157.3380001942408
 20
132.407180543255
 30
0.0
 10
157.2990584662769
 20
132.407180543255
 30
0.0
 10
157.2564832520264
 20
132.407180543255
 30
0.0
 10
157.2449490074154
 20
132.407180543255
 30
0.0
 10
157.2331794672768
 20
132.407180543255
 30
0.0
 10
157.2301721868458
 20
132.407180543255
 30
0.0
 10
157.2261426524492
 20
132.407180543255
 30
0.0
 10
157.2251208729915
 20
132.407180543255
 30
0.0
 10
157.2251209774054
 20
132.407180543255
 30
0.0
  0
SPLINE
  5
C2
330
1F
100
AcDbEntity
  8
0
  6
Continuous
 62
     7
370
    15
100
AcDbSpline
210
0.0
220
0.0
230
1.0
 70
    24
 71
     3
 72
     9
 73
     5
 74
     0
 42
0.000000001
 43
0.00000001
 40
0.0
 40
0.0
 40
0.0
 40
0.0
 40
0.7022321769713785
 40
1.0
 40
1.0
 40
1.0
 40
1.0
 10
157.2251218317076
 20
87.40718054325505
 30
0.0
 10
157.2439650452951
 20
87.40718054325505
 30
0.0
 10
157.2707983551396
 20
87.40718054325505
 30
0.0
 10
157.3507087246889
 20
87.40718054325505
 30
0.0
 10
157.374503461467
 20
87.40718054325505
 30
0.0
  0
LINE
  5
C3
330
1F
100
AcDbEntity
  8
0
  6
Continuous
 62
     7
370
    15
100
AcDbLine
 10
155.5363721117
 20
87.6821805433
 30
0.0
 11
155.5363721117
 21
132.1321805433
 31
0.0
  0
LINE
  5
C4
330
1F
100
AcDbEntity
  8
0
  6
Continuous
 62
     7
370
    15
100
AcDbLine
 10
90.1363721117
 20
98.0844249462
 30
0.0
 11
90.1363721117
 21
121.7299361387
 31
0.0
  0
CIRCLE
  5
C5
330
1F
100
AcDbEntity
  8
0
  6
HIDDEN
 62
     7
370
     0
100
AcDbCircle
 10
195.4863721117
 20
109.9071805433
 30
0.0
 40
5.999999999999993
  0
LINE
  5
C6
330
1F
100
AcDbEntity
  8
0
  6
HIDDEN
 62
     7
370
     0
100
AcDbLine
 10
189.4863721117
 20
132.4571805433
 30
0.0
 11
201.4863721117
 21
132.4571805433
 31
0.0
  0
LINE
  5
C7
330
1F
100
AcDbEntity
  8
0
  6
HIDDEN
 62
     7
370
     0
100
AcDbLine
 10
189.4863721117
 20
125.0542948603
 30
0.0
 11
201.4863721117
 21
125.0542948603
 31
0.0
  0
LINE
  5
C8
330
1F
100
AcDbEntity
  8
0
  6
HIDDEN
 62
     7
370
     0
100
AcDbLine
 10
191.9665702081
 20
116.6571805433
 30
0.0
 11
199.0061740153
 21
116.6571805433
 31
0.0
  0
SPLINE
  5
C9
330
1F
100
AcDbEntity
  8
0
  6
HIDDEN
 62
     7
370
     0
100
AcDbSpline
210
0.0
220
0.0
230
1.0
 70
     8
 71
     3
 72
    11
 73
     7
 74
     0
 42
0.000000001
 43
0.00000001
 40
0.0
 40
0.0
 40
0.0
 40
0.0
 40
0.2164553779443407
 40
0.4403112895790678
 40
0.7519005688038877
 40
1.0
 40
1.0
 40
1.0
 40
1.0
 10
198.083991808037
 20
133.0212821583928
 30
0.0
 10
197.8590639767249
 20
132.9126239881279
 30
0.0
 10
197.4015181101919
 20
132.6915926627478
 30
0.0
 10
196.5524351848263
 20
132.5073627383304
 30
0.0
 10
195.6416414397281
 20
132.6184386424297
 30
0.0
 10
195.0587881356462
 20
132.8975551042033
 30
0.0
 10
194.800420277726
 20
133.0212821583928
 30
0.0
  0
SPLINE
  5
CA
330
1F
100
AcDbEntity
  8
0
  6
HIDDEN
 62
     7
370
     0
100
AcDbSpline
210
0.0
220
0.0
230
1.0
 70
     8
 71
     3
 72
    11
 73
     7
 74
     0
 42
0.000000001
 43
0.00000001
 40
0.0
 40
0.0
 40
0.0
 40
0.0
 40
0.2164553779443484
 40
0.4403112895790635
 40
0.7519005688038775
 40
1.0
 40
1.0
 40
1.0
 40
1.0
 10
194.800420277726
 20
133.0212821583928
 30
0.0
 10
194.6224808116668
 20
132.9126239881279
 30
0.0
 10
194.2605181914186
 20
132.6915926627478
 30
0.0
 10
193.5888122424562
 20
132.5073627383304
 30
0.0
 10
192.8682871222546
 20
132.6184386424297
 30
0.0
 10
192.4071943125557
 20
132.8975551042033
 30
0.0
 10
192.2028005813888
 20
133.0212821583928
 30
0.0
  0
SPLINE
  5
CB
330
1F
100
AcDbEntity
  8
0
  6
HIDDEN
 62
     7
370
     0
100
AcDbSpline
210
0.0
220
0.0
230
1.0
 70
     8
 71
     3
 72
    11
 73
     7
 74
     0
 42
0.000000001
 43
0.00000001
 40
0.0
 40
0.0
 40
0.0
 40
0.0
 40
0.1849308168246072
 40
0.5198464202157749
 40
0.8714438233692641
 40
1.0
 40
1.0
 40
1.0
 40
1.0
 10
192.2028005813887
 20
133.0212821583928
 30
0.0
 10
192.2427263297717
 20
132.9276764757763
 30
0.0
 10
192.3549588809909
 20
132.6645479185373
 30
0.0
 10
192.5644623704166
 20
132.4701427213132
 30
0.0
 10
192.7579474147239
 20
132.7082035772795
 30
0.0
 10
192.8611271135021
 20
132.9551616716604
 30
0.0
 10
192.8887524153625
 20
133.0212821583928
 30
0.0
  0
SPLINE
  5
CC
330
1F
100
AcDbEntity
  8
0
  6
HIDDEN
 62
     7
370
     0
100
AcDbSpline
210
0.0
220
0.0
230
1.0
 70
     8
 71
     3
 72
    11
 73
     7
 74
     0
 42
0.000000001
 43
0.00000001
 40
0.0
 40
0.0
 40
0.0
 40
0.0
 40
0.2164553779443411
 40
0.4403112895790608
 40
0.7519005688038796
 40
0.9999999999999999
 40
0.9999999999999999
 40
0.9999999999999999
 40
0.9999999999999999
 10
192.8887524153625
 20
133.0212821583928
 30
0.0
 10
193.1136802466746
 20
132.9126239881278
 30
0.0
 10
193.5712261132075
 20
132.6915926627478
 30
0.0
 10
194.4203090385732
 20
132.5073627383303
 30
0.0
 10
195.3311027836714
 20
132.6184386424296
 30
0.0
 10
195.9139560877534
 20
132.8975551042033
 30
0.0
 10
196.1723239456735
 20
133.0212821583928
 30
0.0
  0
SPLINE
  5
CD
330
1F
100
AcDbEntity
  8
0
  6
HIDDEN
 62
     7
370
     0
100
AcDbSpline
210
0.0
220
0.0
230
1.0
 70
     8
 71
     3
 72
    11
 73
     7
 74
     0
 42
0.000000001
 43
0.00000001
 40
0.0
 40
0.0
 40
0.0
 40
0.0
 40
0.2164553779443443
 40
0.440311289579056
 40
0.7519005688038679
 40
1.0
 40
1.0
 40
1.0
 40
1.0
 10
196.1723239456735
 20
133.0212821583928
 30
0.0
 10
196.3502634117327
 20
132.9126239881278
 30
0.0
 10
196.7122260319809
 20
132.6915926627478
 30
0.0
 10
197.3839319809433
 20
132.5073627383303
 30
0.0
 10
198.1044571011448
 20
132.6184386424297
 30
0.0
 10
198.5655499108438
 20
132.8975551042033
 30
0.0
 10
198.7699436420107
 20
133.0212821583928
 30
0.0
  0
SPLINE
  5
CE
330
1F
100
AcDbEntity
  8
0
  6
HIDDEN
 62
     7
370
     0
100
AcDbSpline
210
0.0
220
0.0
230
1.0
 70
     8
 71
     3
 72
    11
 73
     7
 74
     0
 42
0.000000001
 43
0.00000001
 40
0.0
 40
0.0
 40
0.0
 40
0.0
 40
0.1285561766307346
 40
0.4801535797842214
 40
0.815069183175391
 40
0.9999999999999999
 40
0.9999999999999999
 40
0.9999999999999999
 40
0.9999999999999999
 10
198.7699436420107
 20
133.0212821583928
 30
0.0
 10
198.7423183401504
 20
132.9551616716604
 30
0.0
 10
198.6391386413721
 20
132.7082035772795
 30
0.0
 10
198.445653597065
 20
132.4701427213132
 30
0.0
 10
198.2361501076391
 20
132.6645479185373
 30
0.0
 10
198.1239175564199
 20
132.9276764757763
 30
0.0
 10
198.083991808037
 20
133.0212821583928
 30
0.0
  0
LINE
  5
CF
330
1F
100
AcDbEntity
  8
0
  6
HIDDEN
 62
     7
370
     0
100
AcDbLine
 10
196.1723239457
 20
126.1571805433
 30
0.0
 11
196.1723239457
 21
133.0212821584
 31
0.0
  0
LINE
  5
D0
330
1F
100
AcDbEntity
  8
0
  6
HIDDEN
 62
     7
370
     0
100
AcDbLine
 10
197.4711337938
 20
126.1571805433
 30
0.0
 11
196.1723239457
 21
126.1571805433
 31
0.0
  0
LINE
  5
D1
330
1F
100
AcDbEntity
  8
0
  6
HIDDEN
 62
     7
370
     0
100
AcDbLine
 10
196.1723239457
 20
126.1571805433
 30
0.0
 11
194.5305381805
 21
126.1571805433
 31
0.0
  0
LINE
  5
D2
330
1F
100
AcDbEntity
  8
0
  6
HIDDEN
 62
     7
370
     0
100
AcDbLine
 10
192.4863721117
 20
125.1571805433
 30
0.0
 11
198.4863721117
 21
125.1571805433
 31
0.0
  0
LINE
  5
D3
330
1F
100
AcDbEntity
  8
0
  6
HIDDEN
 62
     7
370
     0
100
AcDbLine
 10
194.5305381805
 20
126.1571805433
 30
0.0
 11
192.8887524154
 21
126.1571805433
 31
0.0
  0
LINE
  5
D4
330
1F
100
AcDbEntity
  8
0
  6
HIDDEN
 62
     7
370
     0
100
AcDbLine
 10
192.8887524154
 20
126.1571805433
 30
0.0
 11
192.5457764984
 21
126.1571805433
 31
0.0
  0
LINE
  5
D5
330
1F
100
AcDbEntity
  8
0
  6
HIDDEN
 62
     7
370
     0
100
AcDbLine
 10
192.8887524154
 20
126.1571805433
 30
0.0
 11
192.8887524154
 21
133.0212821584
 31
0.0
  0
LINE
  5
D6
330
1F
100
AcDbEntity
  8
0
  6
HIDDEN
 62
     7
370
     0
100
AcDbLine
 10
198.769943642
 20
126.1571805433
 30
0.0
 11
197.4711337938
 21
126.1571805433
 31
0.0
  0
LINE
  5
D7
330
1F
100
AcDbEntity
  8
0
  6
HIDDEN
 62
     7
370
     0
100
AcDbLine
 10
198.083991808
 20
126.1571805433
 30
0.0
 11
198.083991808
 21
133.0212821584
 31
0.0
  0
LINE
  5
D8
330
1F
100
AcDbEntity
  8
0
  6
HIDDEN
 62
     7
370
     0
100
AcDbLine
 10
198.769943642
 20
126.1571805433
 30
0.0
 11
198.769943642
 21
133.0212821584
 31
0.0
  0
LINE
  5
D9
330
1F
100
AcDbEntity
  8
0
  6
HIDDEN
 62
     7
370
     0
100
AcDbLine
 10
192.5457764984
 20
126.1571805433
 30
0.0
 11
192.2028005814
 21
126.1571805433
 31
0.0
  0
LINE
  5
DA
330
1F
100
AcDbEntity
  8
0
  6
HIDDEN
 62
     7
370
     0
100
AcDbLine
 10
194.8004202777
 20
126.1571805433
 30
0.0
 11
194.8004202777
 21
133.0212821584
 31
0.0
  0
LINE
  5
DB
330
1F
100
AcDbEntity
  8
0
  6
HIDDEN
 62
     7
370
     0
100
AcDbLine
 10
192.2028005814
 20
126.1571805433
 30
0.0
 11
192.2028005814
 21
133.0212821584
 31
0.0
  0
SPLINE
  5
DC
330
1F
100
AcDbEntity
  8
0
  6
HIDDEN
 62
     7
370
     0
100
AcDbSpline
210
0.0
220
0.0
230
1.0
 70
     8
 71
     3
 72
    17
 73
    13
 74
     0
 42
0.000000001
 43
0.00000001
 40
0.0
 40
0.0
 40
0.0
 40
0.0
 40
0.0000761713053791
 40
0.0000969109855206
 40
0.2495239014974577
 40
0.5019879379082324
 40
0.5864061920992911
 40
0.6698668295412479
 40
0.752658828911184
 40
0.8350782033260896
 40
0.9174249854098089
 40
0.9999999999999999
 40
0.9999999999999999
 40
0.9999999999999999
 40
0.9999999999999999
 10
179.5363720996922
 20
78.4071805504038
 30
0.0
 10
179.5363723188602
 20
78.40718054744723
 30
0.0
 10
179.5363725977024
 20
78.4071805436856
 30
0.0
 10
179.5369862757421
 20
78.40717939577411
 30
0.0
 10
179.4328483992872
 20
78.4393960717428
 30
0.0
 10
179.0643613217668
 20
78.54775721937906
 30
0.0
 10
178.6977489606137
 20
78.65258789791488
 30
0.0
 10
178.4482173962712
 20
78.72228060261735
 30
0.0
 10
178.1704316113613
 20
78.79742231154671
 30
0.0
 10
177.8637718342994
 20
78.87708730512823
 30
0.0
 10
177.5305850017525
 20
78.96023648657041
 30
0.0
 10
177.2855875595852
 20
79.01754896880234
 30
0.0
 10
177.1629193145774
 20
79.04624486680946
 30
0.0
  0
LWPOLYLINE
  5
DD
330
1F
100
AcDbEntity
  8
0
  6
HIDDEN
 62
     7
370
     0
100
AcDbPolyline
 90
       24
 70
   128
 43
0.0
 10
157.7837866381
 20
100.9145318152
 10
157.9031739416
 20
100.3695957504
 10
158.0862098773
 20
99.8650751006
 10
158.3193195072
 20
99.4383878544
 10
158.5852141566
 20
99.1211794528
 10
158.8641736356
 20
98.9369757919
 10
159.1355087959
 20
98.8994384146
 10
159.3790959499
 20
99.0113512963
 10
159.5768693527
 20
99.2644143707
 10
159.7141610558
 20
99.6398591071
 10
159.7807887617
 20
100.109840487
 10
159.7718109981
 20
100.6395021416
 10
159.6878936047
 20
101.1895614888
 10
159.5352603508
 20
101.7192231434
 10
159.3252313465
 20
102.1892045233
 10
159.0733834822
 20
102.5646492597
 10
158.798395162
 20
102.8177123341
 10
158.5206610114
 20
102.9296252158
 10
158.260779302
 20
102.8920878385
 10
158.0380242712
 20
102.7078841776
 10
157.8689166407
 20
102.390675776
 10
157.7659983497
 20
101.9639885298
 10
157.7369023771
 20
101.45946788
 10
157.7837866381
 20
100.9145318152
  0
LWPOLYLINE
  5
DE
330
1F
100
AcDbEntity
  8
0
  6
HIDDEN
 62
     7
370
     0
100
AcDbPolyline
 90
       21
 70
   128
 43
0.0
 10
158.1006180109
 20
100.9394288455
 10
158.2157700045
 20
100.4370616751
 10
158.3966712151
 20
99.9838697036
 10
158.6256137718
 20
99.6242145186
 10
158.880187182
 20
99.3933016756
 10
159.1354720266
 20
99.3137345325
 10
159.3664792463
 20
99.3933016756
 10
159.5505962449
 20
99.6242145186
 10
159.6698003679
 20
99.9838697036
 10
159.712423085
 20
100.4370616751
 10
159.6742921878
 20
100.9394288455
 10
159.5591401942
 20
101.4417960159
 10
159.3782389836
 20
101.8949879875
 10
159.1492964269
 20
102.2546431725
 10
158.8947230167
 20
102.4855560155
 10
158.6394381721
 20
102.5651231586
 10
158.4084309524
 20
102.4855560155
 10
158.2243139537
 20
102.2546431725
 10
158.1051098308
 20
101.8949879875
 10
158.0624871137
 20
101.4417960159
 10
158.1006180109
 20
100.9394288455
  0
SPLINE
  5
DF
330
1F
100
AcDbEntity
  8
0
  6
HIDDEN
 62
     7
370
     0
100
AcDbSpline
210
0.0
220
0.0
230
1.0
 70
     8
 71
     3
 72
    12
 73
     8
 74
     0
 42
0.000000001
 43
0.00000001
 40
0.0
 40
0.0
 40
0.0
 40
0.0
 40
0.5000000000000023
 40
0.5000000000000023
 40
0.7500000000000011
 40
0.7500000000000011
 40
1.0
 40
1.0
 40
1.0
 40
1.0
 10
170.1274537243785
 20
103.1286112200487
 30
0.0
 10
170.2005540848538
 20
102.9338762522874
 30
0.0
 10
170.2364578341861
 20
102.7262980772586
 30
0.0
 10
170.2365099522363
 20
102.4305364271871
 30
0.0
 10
170.227473142146
 20
102.3328404346132
 30
0.0
 10
170.1914206690303
 20
102.1489725257845
 30
0.0
 10
170.1644730279274
 20
102.0616828191775
 30
0.0
 10
170.1274537243785
 20
101.9788837034576
 30
0.0
  0
SPLINE
  5
E0
330
1F
100
AcDbEntity
  8
0
  6
HIDDEN
 62
     7
370
     0
100
AcDbSpline
210
0.0
220
0.0
230
1.0
 70
     8
 71
     3
 72
    50
 73
    46
 74
     0
 42
0.000000001
 43
0.00000001
 40
0.0
 40
0.0
 40
0.0
 40
0.0
 40
0.0624999999999987
 40
0.0624999999999987
 40
0.1249999999999974
 40
0.1249999999999974
 40
0.1874999999999961
 40
0.1874999999999961
 40
0.2499999999999948
 40
0.2499999999999948
 40
0.2812499999999947
 40
0.2812499999999947
 40
0.3124999999999947
 40
0.3124999999999947
 40
0.3749999999999953
 40
0.3749999999999953
 40
0.4062499999999955
 40
0.4062499999999955
 40
0.4374999999999957
 40
0.4374999999999957
 40
0.4687499999999959
 40
0.4687499999999959
 40
0.4999999999999961
 40
0.4999999999999961
 40
0.5312499999999963
 40
0.5312499999999963
 40
0.5624999999999966
 40
0.5624999999999966
 40
0.5937499999999969
 40
0.5937499999999969
 40
0.6249999999999971
 40
0.6249999999999971
 40
0.6874999999999974
 40
0.6874999999999974
 40
0.7187499999999981
 40
0.7187499999999981
 40
0.7499999999999988
 40
0.7499999999999988
 40
0.8124999999999991
 40
0.8124999999999991
 40
0.8749999999999993
 40
0.8749999999999993
 40
0.9374999999999997
 40
0.9374999999999997
 40
1.0
 40
1.0
 40
1.0
 40
1.0
 10
170.1274537243785
 20
101.9788837034576
 30
0.0
 10
170.182640019723
 20
101.8480588375193
 30
0.0
 10
170.251796648004
 20
101.7621419106322
 30
0.0
 10
170.3993350963102
 20
101.6388444035258
 30
0.0
 10
170.4756200175333
 20
101.6048195533541
 30
0.0
 10
170.6204121446948
 20
101.5754671307547
 30
0.0
 10
170.6902671377742
 20
101.5804743212478
 30
0.0
 10
170.7988934114681
 20
101.6310968400471
 30
0.0
 10
170.83879664117
 20
101.6769002429686
 30
0.0
 10
170.8365416176674
 20
101.7906115934938
 30
0.0
 10
170.8246501903999
 20
101.8371883285863
 30
0.0
 10
170.7773159013516
 20
101.9451588161313
 30
0.0
 10
170.7417258745176
 20
102.0075099567339
 30
0.0
 10
170.6105221246515
 20
102.2181841586334
 30
0.0
 10
170.4962825287963
 20
102.3853576703875
 30
0.0
 10
170.3429455189689
 20
102.6600966578159
 30
0.0
 10
170.2935111576207
 20
102.7573923966831
 30
0.0
 10
170.2057458227504
 20
102.956612208271
 30
0.0
 10
170.1672656986534
 20
103.0584442406586
 30
0.0
 10
170.1034300407201
 20
103.2673877471862
 30
0.0
 10
170.0782763657311
 20
103.3745860932565
 30
0.0
 10
170.0449639735365
 20
103.5849260597892
 30
0.0
 10
170.0363553195825
 20
103.6893001373348
 30
0.0
 10
170.0363889526796
 20
103.8964825475233
 30
0.0
 10
170.0450885598887
 20
103.9961750658861
 30
0.0
 10
170.0785734961221
 20
104.1860578087245
 30
0.0
 10
170.1037874445024
 20
104.2775135895037
 30
0.0
 10
170.1677874774926
 20
104.4453563252024
 30
0.0
 10
170.2063546296438
 20
104.5218937306179
 30
0.0
 10
170.2943041910015
 20
104.660136853228
 30
0.0
 10
170.3437401917571
 20
104.7214919991811
 30
0.0
 10
170.4970209828684
 20
104.8746345846219
 30
0.0
 10
170.611334486794
 20
104.9394405361326
 30
0.0
 10
170.7417810533168
 20
104.9602928977785
 30
0.0
 10
170.7778059631092
 20
104.9543236426207
 30
0.0
 10
170.8249342561542
 20
104.9193705727859
 30
0.0
 10
170.836670961913
 20
104.889912202436
 30
0.0
 10
170.8385731907491
 20
104.7792012618576
 30
0.0
 10
170.7984497973011
 20
104.6758613573145
 30
0.0
 10
170.6901775198596
 20
104.4454315423082
 30
0.0
 10
170.6208050439529
 20
104.3153190343943
 30
0.0
 10
170.4752994360404
 20
104.0286336090755
 30
0.0
 10
170.3994001883293
 20
103.873604185528
 30
0.0
 10
170.2529734652852
 20
103.5276786934528
 30
0.0
 10
170.18244288355
 20
103.3376257357225
 30
0.0
 10
170.1274537243785
 20
103.1286112200487
 30
0.0
  0
SPLINE
  5
E1
330
1F
100
AcDbEntity
  8
0
  6
HIDDEN
 62
     7
370
     0
100
AcDbSpline
210
0.0
220
0.0
230
1.0
 70
     8
 71
     3
 72
     9
 73
     5
 74
     0
 42
0.000000001
 43
0.00000001
 40
0.0
 40
0.0
 40
0.0
 40
0.0
 40
0.1185116118032638
 40
1.0
 40
1.0
 40
1.0
 40
1.0
 10
190.5768797716553
 20
134.4605443336466
 30
0.0
 10
190.5966125855091
 20
134.4571665557224
 30
0.0
 10
190.7631179055667
 20
134.4286648935414
 30
0.0
 10
190.9697588395564
 20
134.4021528817979
 30
0.0
 10
191.1519104233944
 20
134.3787828512984
 30
0.0
  0
SPLINE
  5
E2
330
1F
100
AcDbEntity
  8
0
  6
HIDDEN
 62
     7
370
     0
100
AcDbSpline
210
0.0
220
0.0
230
1.0
 70
    11
 71
     3
 72
    62
 73
    58
 74
     0
 42
0.000000001
 43
0.00000001
 40
0.0
 40
0.0
 40
0.0
 40
0.0
 40
0.0312500000000004
 40
0.0312500000000004
 40
0.0625000000000007
 40
0.0625000000000007
 40
0.1250000000000011
 40
0.1250000000000011
 40
0.1875000000000014
 40
0.1875000000000014
 40
0.2187500000000016
 40
0.2187500000000016
 40
0.2500000000000017
 40
0.2500000000000017
 40
0.2812500000000018
 40
0.2812500000000018
 40
0.312500000000002
 40
0.312500000000002
 40
0.3437500000000021
 40
0.3437500000000021
 40
0.3750000000000023
 40
0.3750000000000023
 40
0.4375000000000023
 40
0.4375000000000023
 40
0.4687500000000021
 40
0.4687500000000021
 40
0.5000000000000019
 40
0.5000000000000019
 40
0.5312500000000017
 40
0.5312500000000017
 40
0.5625000000000014
 40
0.5625000000000014
 40
0.5937500000000013
 40
0.5937500000000013
 40
0.6250000000000011
 40
0.6250000000000011
 40
0.6562500000000009
 40
0.6562500000000009
 40
0.6875000000000007
 40
0.6875000000000007
 40
0.7187500000000006
 40
0.7187500000000006
 40
0.7500000000000003
 40
0.7500000000000003
 40
0.7812500000000001
 40
0.7812500000000001
 40
0.8125
 40
0.8125
 40
0.875
 40
0.875
 40
0.90625
 40
0.90625
 40
0.9375
 40
0.9375
 40
0.9687500000000001
 40
0.9687500000000001
 40
1.0
 40
1.0
 40
1.0
 40
1.0
 10
172.1363721116998
 20
106.6700859080273
 30
0.0
 10
171.9951738877199
 20
106.6700859080273
 30
0.0
 10
171.8568960107062
 20
106.6805538444109
 30
0.0
 10
171.5857299394983
 20
106.7215773253462
 30
0.0
 10
171.4515266120388
 20
106.7527037787619
 30
0.0
 10
171.0724634322486
 20
106.8740777666737
 30
0.0
 10
170.8434565105548
 20
106.9942325406818
 30
0.0
 10
170.4624258915521
 20
107.3030114397047
 30
0.0
 10
170.3068028146304
 20
107.4951806078685
 30
0.0
 10
170.1477323380618
 20
107.8251649197067
 30
0.0
 10
170.1060051929184
 20
107.9446642830189
 30
0.0
 10
170.0507344917764
 20
108.1912486821745
 30
0.0
 10
170.0366545602866
 20
108.3184206126117
 30
0.0
 10
170.0360979939654
 20
108.5809098053079
 30
0.0
 10
170.050087271386
 20
108.7160521740049
 30
0.0
 10
170.1045687906216
 20
108.9805372673647
 30
0.0
 10
170.1454192487765
 20
109.1126871716106
 30
0.0
 10
170.2520332156359
 20
109.3693829225325
 30
0.0
 10
170.316785357909
 20
109.4921208069864
 30
0.0
 10
170.4683438998616
 20
109.7264915557447
 30
0.0
 10
170.5556820230346
 20
109.8383090567582
 30
0.0
 10
170.8414584439962
 20
110.1434925218865
 30
0.0
 10
171.070994792462
 20
110.3143068410664
 30
0.0
 10
171.4473129284562
 20
110.4908172040404
 30
0.0
 10
171.5796458368169
 20
110.5373020112342
 30
0.0
 10
171.8536784958078
 20
110.6004057239742
 30
0.0
 10
171.9917036554299
 20
110.6163634137186
 30
0.0
 10
172.2697750366486
 20
110.6172092825802
 30
0.0
 10
172.411487975319
 20
110.6014846076072
 30
0.0
 10
172.6839102309993
 20
110.540044165108
 30
0.0
 10
172.8157383754964
 20
110.4947225214216
 30
0.0
 10
173.071137271101
 20
110.3761747184205
 30
0.0
 10
173.1913032742903
 20
110.3044876352042
 30
0.0
 10
173.4164746868466
 20
110.1397590692058
 30
0.0
 10
173.522625748181
 20
110.045499796171
 30
0.0
 10
173.7140730368831
 20
109.8419351220272
 30
0.0
 10
173.8000070508027
 20
109.7324678317881
 30
0.0
 10
173.9524193688427
 20
109.4983702293041
 30
0.0
 10
174.0186028591302
 20
109.3734760064062
 30
0.0
 10
174.1247845576813
 20
109.1197442548715
 30
0.0
 10
174.1657646208971
 20
108.9895745700878
 30
0.0
 10
174.2218447616944
 20
108.7225108749589
 30
0.0
 10
174.2360689371357
 20
108.5885576449437
 30
0.0
 10
174.2366656210072
 20
108.3271009024756
 30
0.0
 10
174.2228970535088
 20
108.1969835330882
 30
0.0
 10
174.1680469865667
 20
107.9487926776043
 30
0.0
 10
174.1275504732902
 20
107.8314371865236
 30
0.0
 10
173.9680880021141
 20
107.4976880647839
 30
0.0
 10
173.8134195777999
 20
107.3058484928579
 30
0.0
 10
173.5251115464553
 20
107.0717259248882
 30
0.0
 10
173.4210867311074
 20
107.003569515525
 30
0.0
 10
173.1966674729287
 20
106.8848585763009
 30
0.0
 10
173.0747366850682
 20
106.8339366399326
 30
0.0
 10
172.8222795336422
 20
106.7529868051109
 30
0.0
 10
172.691393003725
 20
106.7224514861119
 30
0.0
 10
172.4194520860122
 20
106.6808934573675
 30
0.0
 10
172.2775703356797
 20
106.6700859080273
 30
0.0
 10
172.1363721116998
 20
106.6700859080273
 30
0.0
  0
LWPOLYLINE
  5
E3
330
1F
100
AcDbEntity
  8
0
  6
HIDDEN
 62
     7
370
     0
100
AcDbPolyline
 90
       22
 70
   128
 43
0.0
 10
170.1274537244
 20
101.9788837035
 10
170.3645892365
 20
101.4944402423
 10
170.7310964446
 20
101.0873450687
 10
171.2002137968
 20
100.7873233786
 10
171.737687374
 20
100.6162820972
 10
172.3042720355
 20
100.5867102834
 10
172.8585970132
 20
100.7007672059
 10
173.360186714
 20
100.9501246789
 10
173.7724161593
 20
101.316575167
 10
174.0651852599
 20
101.77336126
 10
174.2171166588
 20
102.2871294403
 10
174.2171166588
 20
102.8203654832
 10
174.0651852599
 20
103.3341336635
 10
173.7724161593
 20
103.7909197565
 10
173.360186714
 20
104.1573702446
 10
172.8585970132
 20
104.4067277176
 10
172.3042720355
 20
104.5207846402
 10
171.737687374
 20
104.4912128263
 10
171.2002137968
 20
104.3201715449
 10
170.7310964446
 20
104.0201498548
 10
170.3645892365
 20
103.6130546812
 10
170.1274537244
 20
103.12861122
  0
LINE
  5
E4
330
1F
100
AcDbEntity
  8
0
  6
HIDDEN
 62
     7
370
     0
100
AcDbLine
 10
181.0363721117
 20
109.9071805433
 30
0.0
 11
181.0363721117
 21
96.4071805433
 31
0.0
  0
LINE
  5
E5
330
1F
100
AcDbEntity
  8
0
  6
HIDDEN
 62
     7
370
     0
100
AcDbLine
 10
181.0363721117
 20
123.4071805433
 30
0.0
 11
181.0363721117
 21
109.9071805433
 31
0.0
  0
LINE
  5
E6
330
1F
100
AcDbEntity
  8
0
  6
HIDDEN
 62
     7
370
     0
100
AcDbLine
 10
185.9023975155
 20
109.9071805433
 30
0.0
 11
185.9023975155
 21
95.9071805433
 31
0.0
  0
LINE
  5
E7
330
1F
100
AcDbEntity
  8
0
  6
HIDDEN
 62
     7
370
     0
100
AcDbLine
 10
185.9023975155
 20
123.9071805433
 30
0.0
 11
185.9023975155
 21
109.9071805433
 31
0.0
  0
SPLINE
  5
E8
330
1F
100
AcDbEntity
  8
0
  6
HIDDEN
 62
     7
370
     0
100
AcDbSpline
210
0.0
220
0.0
230
1.0
 70
     8
 71
     3
 72
    29
 73
    25
 74
     0
 42
0.000000001
 43
0.00000001
 40
0.0
 40
0.0
 40
0.0
 40
0.0
 40
0.050221656656202
 40
0.101964577924613
 40
0.1521696633594848
 40
0.2037239246979582
 40
0.2560303050842361
 40
0.3097303218164272
 40
0.3641334304737432
 40
0.3921044223877281
 40
0.4203108748699338
 40
0.4722442899053143
 40
0.5259066161839789
 40
0.574494008535991
 40
0.6244436862464148
 40
0.6740856458738657
 40
0.7249787097499438
 40
0.7782556631164557
 40
0.8330163543757824
 40
0.88714389879624
 40
0.9149972344352918
 40
0.9430903720868672
 40
0.9941081806388757
 40
1.0
 40
1.0
 40
1.0
 40
1.0
 10
189.9863721116998
 20
123.907180543255
 30
0.0
 10
189.9998970325043
 20
123.9018390784883
 30
0.0
 10
190.0273565576
 20
123.8909943506019
 30
0.0
 10
190.2473250265237
 20
123.805915268652
 30
0.0
 10
190.5924756010909
 20
123.6786509333413
 30
0.0
 10
191.0643055822014
 20
123.5167368065639
 30
0.0
 10
191.6606880775996
 20
123.3331051207046
 30
0.0
 10
192.3725534234908
 20
123.145781220061
 30
0.0
 10
193.0536780862239
 20
123.0039883826891
 30
0.0
 10
193.6437158680082
 20
122.9101419577761
 30
0.0
 10
194.2411825156791
 20
122.8357113273984
 30
0.0
 10
195.0099418122309
 20
122.7793561562275
 30
0.0
 10
195.911452362079
 20
122.7782554118865
 30
0.0
 10
196.786921829923
 20
122.838180001224
 30
0.0
 10
197.6031202430051
 20
122.9465289437658
 30
0.0
 10
198.3743350837188
 20
123.0949583826656
 30
0.0
 10
199.0866653657294
 20
123.2701746167009
 30
0.0
 10
199.7261441917577
 20
123.4577968184969
 30
0.0
 10
200.2613470547174
 20
123.6362077120087
 30
0.0
 10
200.5987530338074
 20
123.7588703061173
 30
0.0
 10
200.7963445920837
 20
123.8334614173791
 30
0.0
 10
200.9288135097241
 20
123.8844950580952
 30
0.0
 10
201.0052798588363
 20
123.9145765532681
 30
0.0
 10
200.9812451966238
 20
123.9051746258596
 30
0.0
 10
200.9787569025801
 20
123.9042012500009
 30
0.0
  0
LINE
  5
E9
330
1F
100
AcDbEntity
  8
0
  6
HIDDEN
 62
     7
370
     0
100
AcDbLine
 10
157.5363721117
 20
132.4071805433
 30
0.0
 11
157.8736304119
 21
132.4071805433
 31
0.0
  0
ELLIPSE
  5
EA
330
1F
100
AcDbEntity
  8
0
  6
HIDDEN
 62
     7
370
     0
100
AcDbEllipse
 10
157.8736304119
 20
134.0071805433
 30
0.0
 11
0.0
 21
1.599999999999994
 31
0.0
210
0.0
220
0.0
230
1.0
 40
0.4142135624
 41
3.141592653589793
 42
4.712388980384695
  0
ELLIPSE
  5
EB
330
1F
100
AcDbEntity
  8
0
  6
HIDDEN
 62
     7
370
     0
100
AcDbEllipse
 10
157.8736304119
 20
85.8071805433
 30
0.0
 11
0.0
 21
1.600000000000009
 31
0.0
210
0.0
220
0.0
230
1.0
 40
0.4142135624
 41
4.712388980384695
 42
6.283185307179586
  0
LINE
  5
EC
330
1F
100
AcDbEntity
  8
0
  6
HIDDEN
 62
     7
370
     0
100
AcDbLine
 10
157.8736304119
 20
87.4071805433
 30
0.0
 11
157.5363721117
 21
87.4071805433
 31
0.0
  0
LINE
  5
ED
330
1F
100
AcDbEntity
  8
0
  6
HIDDEN
 62
     7
370
     0
100
AcDbLine
 10
158.5363721117
 20
80.4531578205
 30
0.0
 11
157.9234049347
 21
79.8401906434
 31
0.0
  0
LINE
  5
EE
330
1F
100
AcDbEntity
  8
0
  6
HIDDEN
 62
     7
370
     0
100
AcDbLine
 10
157.9234049347
 20
139.9741704431
 30
0.0
 11
158.5363721117
 21
139.361203266
 31
0.0
  0
LINE
  5
EF
330
1F
100
AcDbEntity
  8
0
  6
HIDDEN
 62
     7
370
     0
100
AcDbLine
 10
97.1363721117
 20
101.4071805433
 30
0.0
 11
97.1363721117
 21
118.4071805433
 31
0.0
  0
LINE
  5
F0
330
1F
100
AcDbEntity
  8
0
  6
HIDDEN
 62
     7
370
     0
100
AcDbLine
 10
100.1323013261
 20
102.9071805433
 30
0.0
 11
100.1323013261
 21
116.9071805433
 31
0.0
  0
LINE
  5
F1
330
1F
100
AcDbEntity
  8
0
  6
HIDDEN
 62
     7
370
     0
100
AcDbLine
 10
158.5363721117
 20
139.361203266
 30
0.0
 11
167.6689336552
 21
139.361203266
 31
0.0
  0
LINE
  5
F2
330
1F
100
AcDbEntity
  8
0
  6
HIDDEN
 62
     7
370
     0
100
AcDbLine
 10
158.5363721117
 20
139.361203266
 30
0.0
 11
158.5363721117
 21
134.0071805433
 31
0.0
  0
LINE
  5
F3
330
1F
100
AcDbEntity
  8
0
  6
HIDDEN
 62
     7
370
     0
100
AcDbLine
 10
167.6689336552
 20
80.4531578205
 30
0.0
 11
158.5363721117
 21
80.4531578205
 31
0.0
  0
LINE
  5
F4
330
1F
100
AcDbEntity
  8
0
  6
HIDDEN
 62
     7
370
     0
100
AcDbLine
 10
158.5363721117
 20
80.4531578205
 30
0.0
 11
158.5363721117
 21
85.8071805433
 31
0.0
  0
LINE
  5
F5
330
1F
100
AcDbEntity
  8
0
  6
HIDDEN
 62
     7
370
     0
100
AcDbLine
 10
157.8736304119
 20
132.4071805433
 30
0.0
 11
170.4863721117
 21
132.4071805433
 31
0.0
  0
LINE
  5
F6
330
1F
100
AcDbEntity
  8
0
  6
HIDDEN
 62
     7
370
     0
100
AcDbLine
 10
170.4863721117
 20
87.4071805433
 30
0.0
 11
157.8736304119
 21
87.4071805433
 31
0.0
  0
LINE
  5
F7
330
1F
100
AcDbEntity
  8
0
  6
HIDDEN
 62
     7
370
     0
100
AcDbLine
 10
176.5126138779
 20
80.0021326499
 30
0.0
 11
176.6065566079
 21
79.9771489784
 31
0.0
  0
SPLINE
  5
F8
330
1F
100
AcDbEntity
  8
0
  6
HIDDEN
 62
     7
370
     0
100
AcDbSpline
210
0.0
220
0.0
230
1.0
 70
     8
 71
     3
 72
    13
 73
     9
 74
     0
 42
0.000000001
 43
0.00000001
 40
0.0
 40
0.0
 40
0.0
 40
0.0
 40
0.0000730266254186
 40
0.1576811714101537
 40
0.3241446478190491
 40
0.4996852929262263
 40
0.729424405324985
 40
1.0
 40
1.0
 40
1.0
 40
1.0
 10
178.5363508046476
 20
79.40718884430689
 30
0.0
 10
178.5363579063554
 20
79.40718593417198
 30
0.0
 10
178.5516921162659
 20
79.4009022878875
 30
0.0
 10
178.4922310441575
 20
79.42461398093734
 30
0.0
 10
178.3314806420581
 20
79.4800889114925
 30
0.0
 10
177.9967960058003
 20
79.58803597948197
 30
0.0
 10
177.4389217472686
 20
79.75930819717162
 30
0.0
 10
176.8377553417283
 20
79.91703862515283
 30
0.0
 10
176.5126380597897
 20
80.00234094336565
 30
0.0
  0
SPLINE
  5
F9
330
1F
100
AcDbEntity
  8
0
  6
HIDDEN
 62
     7
370
     0
100
AcDbSpline
210
0.0
220
0.0
230
1.0
 70
     8
 71
     3
 72
    13
 73
     9
 74
     0
 42
0.000000001
 43
0.00000001
 40
0.0
 40
0.0
 40
0.0
 40
0.0
 40
0.1850454653090146
 40
0.3520092965804931
 40
0.5010298177385868
 40
0.6766227814541285
 40
0.8430962614767981
 40
1.0
 40
1.0
 40
1.0
 40
1.0
 10
176.5126357423123
 20
139.8120413189661
 30
0.0
 10
176.7394258579259
 20
139.8708779905041
 30
0.0
 10
177.1708453954718
 20
139.9828021348037
 30
0.0
 10
177.6583008664268
 20
140.1230682064313
 30
0.0
 10
178.0474100429739
 20
140.2423629656892
 30
0.0
 10
178.3283099634011
 20
140.3330307753168
 30
0.0
 10
178.5051947384692
 20
140.3949465356652
 30
0.0
 10
178.5260571182932
 20
140.4031357918226
 30
0.0
 10
178.5361796167289
 20
140.4071092470728
 30
0.0
  0
LINE
  5
FA
330
1F
100
AcDbEntity
  8
0
  6
HIDDEN
 62
     7
370
     0
100
AcDbLine
 10
177.2628662851
 20
140.0117543982
 30
0.0
 11
176.5126137243
 21
139.8122287452
 31
0.0
  0
LINE
  5
FB
330
1F
100
AcDbEntity
  8
0
  6
HIDDEN
 62
     7
370
     0
100
AcDbLine
 10
170.4863721117
 20
132.4071805433
 30
0.0
 11
176.9363721117
 21
132.4071805433
 31
0.0
  0
LINE
  5
FC
330
1F
100
AcDbEntity
  8
0
  6
HIDDEN
 62
     7
370
     0
100
AcDbLine
 10
176.9363721117
 20
87.4071805433
 30
0.0
 11
170.4863721117
 21
87.4071805433
 31
0.0
  0
LINE
  5
FD
330
1F
100
AcDbEntity
  8
0
  6
HIDDEN
 62
     7
370
     0
100
AcDbLine
 10
133.1363721117
 20
102.9071805433
 30
0.0
 11
133.1363721117
 21
116.9071805433
 31
0.0
  0
LINE
  5
FE
330
1F
100
AcDbEntity
  8
0
  6
HIDDEN
 62
     7
370
     0
100
AcDbLine
 10
134.788738814
 20
105.6571805433
 30
0.0
 11
134.788738814
 21
114.1571805433
 31
0.0
  0
LINE
  5
FF
330
1F
100
AcDbEntity
  8
0
  6
HIDDEN
 62
     7
370
     0
100
AcDbLine
 10
189.9863721117
 20
133.1571805433
 30
0.0
 11
200.9863721117
 21
133.1571805433
 31
0.0
  0
SPLINE
  5
100
330
1F
100
AcDbEntity
  8
0
  6
HIDDEN
 62
     7
370
     0
100
AcDbSpline
210
0.0
220
0.0
230
1.0
 70
     8
 71
     3
 72
     9
 73
     5
 74
     0
 42
0.000000001
 43
0.00000001
 40
0.0
 40
0.0
 40
0.0
 40
0.0
 40
0.4932377403388442
 40
1.0
 40
1.0
 40
1.0
 40
1.0
 10
176.5134316503973
 20
139.8120120544273
 30
0.0
 10
176.6192799915585
 20
139.9690341152035
 30
0.0
 10
176.8338790226231
 20
140.2873837627149
 30
0.0
 10
177.051738665585
 20
140.607209311491
 30
0.0
 10
177.1621417105413
 20
140.7692848292862
 30
0.0
  0
SPLINE
  5
101
330
1F
100
AcDbEntity
  8
0
  6
HIDDEN
 62
     7
370
     0
100
AcDbSpline
210
0.0
220
0.0
230
1.0
 70
     8
 71
     3
 72
     9
 73
     5
 74
     0
 42
0.000000001
 43
0.00000001
 40
0.0
 40
0.0
 40
0.0
 40
0.0
 40
0.506764932008893
 40
1.0
 40
1.0
 40
1.0
 40
1.0
 10
177.1621453958273
 20
79.04509039277791
 30
0.0
 10
177.0517409560555
 20
79.20716712829635
 30
0.0
 10
176.8338797095518
 20
79.52699339345631
 30
0.0
 10
176.6192797478462
 20
79.84534247498127
 30
0.0
 10
176.5134315211434
 20
80.00236340585211
 30
0.0
  0
SPLINE
  5
102
330
1F
100
AcDbEntity
  8
0
  6
HIDDEN
 62
     7
370
     0
100
AcDbSpline
210
0.0
220
0.0
230
1.0
 70
    11
 71
     3
 72
    62
 73
    58
 74
     0
 42
0.000000001
 43
0.00000001
 40
0.0
 40
0.0
 40
0.0
 40
0.0
 40
0.0312499999999996
 40
0.0312499999999996
 40
0.0624999999999993
 40
0.0624999999999993
 40
0.1249999999999985
 40
0.1249999999999985
 40
0.1874999999999978
 40
0.1874999999999978
 40
0.2187499999999976
 40
0.2187499999999976
 40
0.2499999999999973
 40
0.2499999999999973
 40
0.2812499999999971
 40
0.2812499999999971
 40
0.312499999999997
 40
0.312499999999997
 40
0.3437499999999968
 40
0.3437499999999968
 40
0.3749999999999967
 40
0.3749999999999967
 40
0.4374999999999964
 40
0.4374999999999964
 40
0.4687499999999966
 40
0.4687499999999966
 40
0.4999999999999968
 40
0.4999999999999968
 40
0.531249999999997
 40
0.531249999999997
 40
0.5624999999999971
 40
0.5624999999999971
 40
0.5937499999999973
 40
0.5937499999999973
 40
0.6249999999999976
 40
0.6249999999999976
 40
0.6562499999999977
 40
0.6562499999999977
 40
0.6874999999999979
 40
0.6874999999999979
 40
0.7187499999999981
 40
0.7187499999999981
 40
0.7499999999999983
 40
0.7499999999999983
 40
0.7812499999999986
 40
0.7812499999999986
 40
0.8124999999999988
 40
0.8124999999999988
 40
0.8749999999999993
 40
0.8749999999999993
 40
0.9062499999999996
 40
0.9062499999999996
 40
0.9374999999999998
 40
0.9374999999999998
 40
0.9687499999999999
 40
0.9687499999999999
 40
1.0
 40
1.0
 40
1.0
 40
1.0
 10
172.1363721116998
 20
109.197566171182
 30
0.0
 10
172.2775703356797
 20
109.1975661711819
 30
0.0
 10
172.4158482126934
 20
109.2135775811735
 30
0.0
 10
172.6870142839013
 20
109.2753071467964
 30
0.0
 10
172.8212176113608
 20
109.3218449102511
 30
0.0
 10
173.200280791151
 20
109.4988212389861
 30
0.0
 10
173.4292877128448
 20
109.6692475326953
 30
0.0
 10
173.8103183318476
 20
110.0751338101186
 30
0.0
 10
173.9659414087692
 20
110.3148042514546
 30
0.0
 10
174.1250118853378
 20
110.6952810787712
 30
0.0
 10
174.1667390304812
 20
110.8285498140763
 30
0.0
 10
174.2220097316232
 20
111.0935310497051
 30
0.0
 10
174.236089663113
 20
111.225496364423
 30
0.0
 10
174.2366462294343
 20
111.4881736742372
 30
0.0
 10
174.2226569520136
 20
111.6185535381947
 30
0.0
 10
174.168175432778
 20
111.8648974689179
 30
0.0
 10
174.127324974623
 20
111.9835517389007
 30
0.0
 10
174.0207110077637
 20
112.2063780056561
 30
0.0
 10
173.9559588654906
 20
112.3090631166405
 30
0.0
 10
173.804400323538
 20
112.4991863695539
 30
0.0
 10
173.717062200365
 20
112.5866931607732
 30
0.0
 10
173.4312857794034
 20
112.8189606562218
 30
0.0
 10
173.2017494309377
 20
112.9394093988644
 30
0.0
 10
172.8254312949434
 20
113.0605059911661
 30
0.0
 10
172.6930983865827
 20
113.0916141246023
 30
0.0
 10
172.4190657275919
 20
113.1335613641579
 30
0.0
 10
172.2810405679697
 20
113.1439915987676
 30
0.0
 10
172.002969186751
 20
113.1445474976344
 30
0.0
 10
171.8612562480806
 20
113.1342690388043
 30
0.0
 10
171.5888339924003
 20
113.0934458541112
 30
0.0
 10
171.4570058479032
 20
113.0631525182364
 30
0.0
 10
171.2016069522986
 20
112.9818853279455
 30
0.0
 10
171.0814409491093
 20
112.9319374770872
 30
0.0
 10
170.856269536553
 20
112.8136162658892
 30
0.0
 10
170.7501184752186
 20
112.7443231568067
 30
0.0
 10
170.5586711865165
 20
112.5895085082129
 30
0.0
 10
170.4727371725969
 20
112.5039225203423
 30
0.0
 10
170.3203248545569
 20
112.3142388482652
 30
0.0
 10
170.2541413642694
 20
112.2098175871947
 30
0.0
 10
170.1479596657184
 20
111.9897862473874
 30
0.0
 10
170.1069796025025
 20
111.8731377612779
 30
0.0
 10
170.0508994617052
 20
111.6247363802886
 30
0.0
 10
170.0366752862639
 20
111.4956263914844
 30
0.0
 10
170.0360786023924
 20
111.2343713256523
 30
0.0
 10
170.0498471698908
 20
111.0995650349796
 30
0.0
 10
170.1046972368329
 20
110.8331099206252
 30
0.0
 10
170.1451937501094
 20
110.7023759859266
 30
0.0
 10
170.3046562212855
 20
110.317960531923
 30
0.0
 10
170.4593246455997
 20
110.0788015000462
 30
0.0
 10
170.7476326769443
 20
109.7711421406024
 30
0.0
 10
170.8516574922922
 20
109.6784690238381
 30
0.0
 10
171.0760767504709
 20
109.5133261811985
 30
0.0
 10
171.1980075383314
 20
109.4402853125193
 30
0.0
 10
171.4504646897574
 20
109.3222633962469
 30
0.0
 10
171.5813512196746
 20
109.2766156906292
 30
0.0
 10
171.8532921373874
 20
109.214095251162
 30
0.0
 10
171.9951738877199
 20
109.1975661711819
 30
0.0
 10
172.1363721116998
 20
109.1975661711819
 30
0.0
  0
SPLINE
  5
103
330
1F
100
AcDbEntity
  8
0
  6
HIDDEN
 62
     7
370
     0
100
AcDbSpline
210
0.0
220
0.0
230
1.0
 70
    11
 71
     3
 72
    56
 73
    52
 74
     0
 42
0.000000001
 43
0.00000001
 40
0.0
 40
0.0
 40
0.0
 40
0.0
 40
0.0312499999999993
 40
0.0312499999999993
 40
0.0624999999999986
 40
0.0624999999999986
 40
0.1249999999999972
 40
0.1249999999999972
 40
0.156249999999997
 40
0.156249999999997
 40
0.1874999999999967
 40
0.1874999999999967
 40
0.2187499999999965
 40
0.2187499999999965
 40
0.2499999999999963
 40
0.2499999999999963
 40
0.312499999999996
 40
0.312499999999996
 40
0.3437499999999957
 40
0.3437499999999957
 40
0.3749999999999954
 40
0.3749999999999954
 40
0.4374999999999955
 40
0.4374999999999955
 40
0.4687499999999956
 40
0.4687499999999956
 40
0.4999999999999956
 40
0.4999999999999956
 40
0.5312499999999957
 40
0.5312499999999957
 40
0.5624999999999957
 40
0.5624999999999957
 40
0.6249999999999958
 40
0.6249999999999958
 40
0.6874999999999958
 40
0.6874999999999958
 40
0.7499999999999958
 40
0.7499999999999958
 40
0.7812499999999963
 40
0.7812499999999963
 40
0.8124999999999969
 40
0.8124999999999969
 40
0.8437499999999974
 40
0.8437499999999974
 40
0.8749999999999979
 40
0.8749999999999979
 40
0.9062499999999984
 40
0.9062499999999984
 40
0.937499999999999
 40
0.937499999999999
 40
1.0
 40
1.0
 40
1.0
 40
1.0
 10
170.0957961108626
 20
115.5740606322314
 30
0.0
 10
170.1244676274596
 20
115.4722465673585
 30
0.0
 10
170.1622375470434
 20
115.3798436497088
 30
0.0
 10
170.2525356838131
 20
115.2130655650132
 30
0.0
 10
170.3058113799863
 20
115.1381958758902
 30
0.0
 10
170.4747424567606
 20
114.9520752113753
 30
0.0
 10
170.6059291727449
 20
114.8740587137918
 30
0.0
 10
170.7512146927483
 20
114.8534841632372
 30
0.0
 10
170.7893556255499
 20
114.8630323831698
 30
0.0
 10
170.8341321587141
 20
114.9103886123499
 30
0.0
 10
170.8410268967541
 20
114.94848937461
 30
0.0
 10
170.8297783511402
 20
115.0406098525741
 30
0.0
 10
170.8121175059354
 20
115.0956652947134
 30
0.0
 10
170.7633935001735
 20
115.2152720528928
 30
0.0
 10
170.7324545017821
 20
115.2799499219956
 30
0.0
 10
170.6287989664634
 20
115.4873113044191
 30
0.0
 10
170.5449936298013
 20
115.644099059642
 30
0.0
 10
170.4195433653489
 20
115.9032443222948
 30
0.0
 10
170.3774501853014
 20
115.9939966968446
 30
0.0
 10
170.2947091939885
 20
116.1869979188828
 30
0.0
 10
170.2538789605808
 20
116.2897788814111
 30
0.0
 10
170.1410292044207
 20
116.6120199945911
 30
0.0
 10
170.0763390210568
 20
116.8509665333022
 30
0.0
 10
170.0358693433189
 20
117.2197336382794
 30
0.0
 10
170.0328275471289
 20
117.3394930489244
 30
0.0
 10
170.0486307037063
 20
117.5585913101336
 30
0.0
 10
170.0673738012511
 20
117.6569203184574
 30
0.0
 10
170.1186477046446
 20
117.823795365664
 30
0.0
 10
170.1511722506769
 20
117.8936700117601
 30
0.0
 10
170.2233253991188
 20
118.0102790720527
 30
0.0
 10
170.2624305758716
 20
118.0564997118258
 30
0.0
 10
170.384428314318
 20
118.1693185293138
 30
0.0
 10
170.4719601270478
 20
118.2097718186735
 30
0.0
 10
170.6340766800003
 20
118.2406299380959
 30
0.0
 10
170.7116343372889
 20
118.2317267525275
 30
0.0
 10
170.8227791603928
 20
118.1606507040894
 30
0.0
 10
170.8555121467348
 20
118.0984117853792
 30
0.0
 10
170.8118837644147
 20
117.9405105021062
 30
0.0
 10
170.7815685034187
 20
117.877255099236
 30
0.0
 10
170.6967115197816
 20
117.7319410333762
 30
0.0
 10
170.6418624455185
 20
117.648569117617
 30
0.0
 10
170.5270237601062
 20
117.4699759601265
 30
0.0
 10
170.4656043309267
 20
117.372229211709
 30
0.0
 10
170.3493963440397
 20
117.1672509126096
 30
0.0
 10
170.2938822790712
 20
117.0589689772961
 30
0.0
 10
170.1956783037258
 20
116.8336190731676
 30
0.0
 10
170.1537878854797
 20
116.7187131177066
 30
0.0
 10
170.0872812051751
 20
116.4834457146735
 30
0.0
 10
170.0628377102477
 20
116.3624483801778
 30
0.0
 10
170.0223477844523
 20
116.0092469480014
 30
0.0
 10
170.0384530776686
 20
115.7776887619771
 30
0.0
 10
170.0957961108626
 20
115.5740606322314
 30
0.0
  0
SPLINE
  5
104
330
1F
100
AcDbEntity
  8
0
  6
HIDDEN
 62
     7
370
     0
100
AcDbSpline
210
0.0
220
0.0
230
1.0
 70
     8
 71
     3
 72
    22
 73
    18
 74
     0
 42
0.000000001
 43
0.00000001
 40
0.0
 40
0.0
 40
0.0
 40
0.0
 40
0.1250000000000006
 40
0.1250000000000006
 40
0.2500000000000012
 40
0.2500000000000012
 40
0.3750000000000018
 40
0.3750000000000018
 40
0.5000000000000023
 40
0.5000000000000023
 40
0.6250000000000029
 40
0.6250000000000029
 40
0.7500000000000036
 40
0.7500000000000036
 40
0.8750000000000018
 40
0.8750000000000018
 40
1.0
 40
1.0
 40
1.0
 40
1.0
 10
173.8127405504
 20
117.7718355189103
 30
0.0
 10
173.7144623268445
 20
117.6473067989781
 30
0.0
 10
173.6031395595373
 20
117.5357036595457
 30
0.0
 10
173.3553309511726
 20
117.3377198163574
 30
0.0
 10
173.2173794256225
 20
117.2510652941686
 30
0.0
 10
172.9291184640385
 20
117.1125417189457
 30
0.0
 10
172.7766749451262
 20
117.0590979676691
 30
0.0
 10
172.4597632068505
 20
116.986917817524
 30
0.0
 10
172.2997747027421
 20
116.9689997781305
 30
0.0
 10
171.9768045961202
 20
116.968714636633
 30
0.0
 10
171.8132421124674
 20
116.9870129465013
 30
0.0
 10
171.4997438813275
 20
117.0581083686922
 30
0.0
 10
171.3462419150986
 20
117.1114189209561
 30
0.0
 10
171.0556392172244
 20
117.2508003589806
 30
0.0
 10
170.9208189738106
 20
117.3353542560885
 30
0.0
 10
170.6718708971813
 20
117.5335457039946
 30
0.0
 10
170.5582816640122
 20
117.647307093634
 30
0.0
 10
170.4600036729996
 20
117.7718355189103
 30
0.0
  0
SPLINE
  5
105
330
1F
100
AcDbEntity
  8
0
  6
HIDDEN
 62
     7
370
     0
100
AcDbSpline
210
0.0
220
0.0
230
1.0
 70
     8
 71
     3
 72
    18
 73
    14
 74
     0
 42
0.000000001
 43
0.00000001
 40
0.0
 40
0.0
 40
0.0
 40
0.0
 40
0.2499999999999999
 40
0.2499999999999999
 40
0.3749999999999997
 40
0.3749999999999997
 40
0.4999999999999996
 40
0.4999999999999996
 40
0.6249999999999994
 40
0.6249999999999994
 40
0.7499999999999992
 40
0.7499999999999992
 40
1.0
 40
1.0
 40
1.0
 40
1.0
 10
173.8127405504
 20
120.1489338434891
 30
0.0
 10
173.9513108991304
 20
119.9793538492533
 30
0.0
 10
174.0557963186809
 20
119.8057426411115
 30
0.0
 10
174.1633525518189
 20
119.5227113787079
 30
0.0
 10
174.1903625257909
 20
119.4260383436151
 30
0.0
 10
174.2269034879035
 20
119.2249699164437
 30
0.0
 10
174.2363793084156
 20
119.1192260193571
 30
0.0
 10
174.2363649066048
 20
118.9049765270778
 30
0.0
 10
174.227142793583
 20
118.7969485286675
 30
0.0
 10
174.1908980475516
 20
118.5799556391361
 30
0.0
 10
174.1635237562728
 20
118.470106021401
 30
0.0
 10
174.0562636343748
 20
118.1505222314852
 30
0.0
 10
173.9510731122355
 20
117.9471172469175
 30
0.0
 10
173.8127405504002
 20
117.7718355189101
 30
0.0
  0
SPLINE
  5
106
330
1F
100
AcDbEntity
  8
0
  6
HIDDEN
 62
     7
370
     0
100
AcDbSpline
210
0.0
220
0.0
230
1.0
 70
     8
 71
     3
 72
    22
 73
    18
 74
     0
 42
0.000000001
 43
0.00000001
 40
0.0
 40
0.0
 40
0.0
 40
0.0
 40
0.1249999999999982
 40
0.1249999999999982
 40
0.2499999999999963
 40
0.2499999999999963
 40
0.3749999999999969
 40
0.3749999999999969
 40
0.4999999999999976
 40
0.4999999999999976
 40
0.6249999999999981
 40
0.6249999999999981
 40
0.7499999999999988
 40
0.7499999999999988
 40
0.8749999999999993
 40
0.8749999999999993
 40
1.0
 40
1.0
 40
1.0
 40
1.0
 10
170.4600036729996
 20
120.1489338434891
 30
0.0
 10
170.5582818965551
 20
120.2692050323598
 30
0.0
 10
170.6696046638623
 20
120.3763532407559
 30
0.0
 10
170.917413272227
 20
120.5657312791764
 30
0.0
 10
171.0553647977771
 20
120.6482114327339
 30
0.0
 10
171.3436257593611
 20
120.7797462640453
 30
0.0
 10
171.4960692782734
 20
120.8303062698305
 30
0.0
 10
171.812981016549
 20
120.8985329452303
 30
0.0
 10
171.9729695206575
 20
120.9154300168559
 30
0.0
 10
172.2959396272794
 20
120.9156991218384
 30
0.0
 10
172.4595021109322
 20
120.8984425925378
 30
0.0
 10
172.7730003420721
 20
120.8312420948917
 30
0.0
 10
172.926502308301
 20
120.7808110892595
 30
0.0
 10
173.2171050061753
 20
120.6484643141245
 30
0.0
 10
173.351925249589
 20
120.5679877767898
 30
0.0
 10
173.6008733262183
 20
120.3784234935831
 30
0.0
 10
173.7144625593874
 20
120.2692047477779
 30
0.0
 10
173.8127405504
 20
120.1489338434891
 30
0.0
  0
SPLINE
  5
107
330
1F
100
AcDbEntity
  8
0
  6
HIDDEN
 62
     7
370
     0
100
AcDbSpline
210
0.0
220
0.0
230
1.0
 70
     8
 71
     3
 72
    18
 73
    14
 74
     0
 42
0.000000001
 43
0.00000001
 40
0.0
 40
0.0
 40
0.0
 40
0.0
 40
0.2500000000000013
 40
0.2500000000000013
 40
0.3750000000000007
 40
0.3750000000000007
 40
0.5000000000000001
 40
0.5000000000000001
 40
0.6249999999999996
 40
0.6249999999999996
 40
0.7499999999999989
 40
0.7499999999999989
 40
1.0
 40
1.0
 40
1.0
 40
1.0
 10
170.4600036729996
 20
117.7718355189103
 30
0.0
 10
170.3214333242692
 20
117.9474185476188
 30
0.0
 10
170.2169479047187
 20
118.1494115632497
 30
0.0
 10
170.1093916715808
 20
118.4694558540476
 30
0.0
 10
170.0823816976087
 20
118.5775151298928
 30
0.0
 10
170.0458407354962
 20
118.7947663590095
 30
0.0
 10
170.036364914984
 20
118.9052292921974
 30
0.0
 10
170.0363793167948
 20
119.1194718576402
 30
0.0
 10
170.0456014298166
 20
119.2229031444317
 30
0.0
 10
170.081846175848
 20
119.4238257817148
 30
0.0
 10
170.1092204671268
 20
119.5221310245741
 30
0.0
 10
170.2164805890248
 20
119.8047711176431
 30
0.0
 10
170.3216711111641
 20
119.9796448487397
 30
0.0
 10
170.4600036729994
 20
120.1489338434891
 30
0.0
  0
LWPOLYLINE
  5
108
330
1F
100
AcDbEntity
  8
0
  6
HIDDEN
 62
     7
370
     0
100
AcDbPolyline
 90
       21
 70
   128
 43
0.0
 10
158.1006180109
 20
117.9426935355
 10
158.2157700045
 20
117.5767575871
 10
158.3966712151
 20
117.3378960187
 10
158.6256137718
 20
117.2494902649
 10
158.880187182
 20
117.3201940969
 10
159.1354720266
 20
117.5430865309
 10
159.3664792463
 20
117.8963493025
 10
159.5505962449
 20
118.3454025903
 10
159.6698003679
 20
118.8462899298
 10
159.712423085
 20
119.3499809782
 10
159.6742921878
 20
119.8071709464
 10
159.5591401942
 20
120.1731068949
 10
159.3782389836
 20
120.4119684633
 10
159.1492964269
 20
120.5003742171
 10
158.8947230167
 20
120.4296703851
 10
158.6394381721
 20
120.2067779511
 10
158.4084309524
 20
119.8535151795
 10
158.2243139537
 20
119.4044618917
 10
158.1051098308
 20
118.9035745522
 10
158.0624871137
 20
118.3998835037
 10
158.1006180109
 20
117.9426935355
  0
LWPOLYLINE
  5
109
330
1F
100
AcDbEntity
  8
0
  6
HIDDEN
 62
     7
370
     0
100
AcDbPolyline
 90
       24
 70
   128
 43
0.0
 10
157.7837866381
 20
117.7415933039
 10
157.9031739416
 20
117.3381064245
 10
158.0862098773
 20
117.0504453842
 10
158.3193195072
 20
116.8999446864
 10
158.5852141566
 20
116.8977662795
 10
158.8641736356
 20
117.0440717258
 10
159.1355087959
 20
117.3280102197
 10
159.3790959499
 20
117.7285233421
 10
159.5768693527
 20
118.2159068669
 10
159.7141610558
 20
118.7540137877
 10
159.7807887617
 20
119.3029351759
 10
159.7718109981
 20
119.8219600432
 10
159.6878936047
 20
120.2725946896
 10
159.5352603508
 20
120.6214176049
 10
159.3252313465
 20
120.8425581893
 10
159.0733834822
 20
120.9196154572
 10
158.798395162
 20
120.8468744236
 10
158.5206610114
 20
120.6297299582
 10
158.260779302
 20
120.2842866727
 10
158.0380242712
 20
119.8361645151
 10
157.8689166407
 20
119.3185986559
 10
157.7659983497
 20
118.7699745873
 10
157.7369023771
 20
118.2309812465
 10
157.7837866381
 20
117.7415933039
  0
LWPOLYLINE
  5
10A
330
1F
100
AcDbEntity
  8
0
  6
HIDDEN
 62
     7
370
     0
100
AcDbPolyline
 90
       23
 70
   128
 43
0.0
 10
160.0466035535
 20
116.7157030622
 10
159.8626437548
 20
117.0149154821
 10
159.7473259895
 20
117.4356604146
 10
159.7099926173
 20
117.9438516074
 10
159.7536681657
 20
118.4983184324
 10
159.8748143018
 20
119.054141285
 10
160.063616486
 20
119.5662907034
 10
160.3047790882
 20
119.9932753874
 10
160.5787645486
 20
120.3005035774
 10
160.8633761947
 20
120.4630854725
 10
161.1355564836
 20
120.4678496546
 10
161.3732549869
 20
120.314410158
 10
161.5572147856
 20
120.015197738
 10
161.6725325509
 20
119.5944528056
 10
161.7098659232
 20
119.0862616128
 10
161.6661903747
 20
118.5317947878
 10
161.5450442386
 20
117.9759719351
 10
161.3562420544
 20
117.4638225168
 10
161.1150794522
 20
117.0368378328
 10
160.8410939918
 20
116.7296096428
 10
160.5564823457
 20
116.5670277476
 10
160.2843020568
 20
116.5622635655
 10
160.0466035535
 20
116.7157030622
  0
LWPOLYLINE
  5
10B
330
1F
100
AcDbEntity
  8
0
  6
HIDDEN
 62
     7
370
     0
100
AcDbPolyline
 90
       19
 70
   128
 43
0.0
 10
160.9448697501
 20
117.2622030889
 10
160.8099067666
 20
117.5017477483
 10
160.7412266052
 20
117.8480426573
 10
160.7471131069
 20
118.2593195393
 10
160.8268562728
 20
118.6859723325
 10
160.9708379002
 20
119.0765404132
 10
161.1616916799
 20
119.3839155068
 10
161.3763978293
 20
119.5710236406
 10
161.5890596181
 20
119.6152968122
 10
161.774026896
 20
119.5113950238
 10
161.9089898795
 20
119.2718503644
 10
161.9776700409
 20
118.9255554553
 10
161.9717835392
 20
118.5142785733
 10
161.8920403733
 20
118.0876257802
 10
161.7480587459
 20
117.6970576995
 10
161.5572049663
 20
117.3896826059
 10
161.3424988168
 20
117.2025744721
 10
161.129837028
 20
117.1583013005
 10
160.9448697501
 20
117.2622030889
  0
LWPOLYLINE
  5
10C
330
1F
100
AcDbEntity
  8
0
  6
HIDDEN
 62
     7
370
     0
100
AcDbPolyline
 90
       23
 70
   128
 43
0.0
 10
158.293046395
 20
117.0619699662
 10
158.1090865963
 20
117.3611823861
 10
157.993768831
 20
117.7819273186
 10
157.9564354587
 20
118.2901185114
 10
158.0001110072
 20
118.8445853364
 10
158.1212571433
 20
119.400408189
 10
158.3100593275
 20
119.9125576073
 10
158.5512219297
 20
120.3395422914
 10
158.8252073901
 20
120.6467704814
 10
159.1098190362
 20
120.8093523765
 10
159.3819993251
 20
120.8141165586
 10
159.6196978284
 20
120.660677062
 10
159.8036576271
 20
120.361464642
 10
159.9189753924
 20
119.9407197096
 10
159.9563087647
 20
119.4325285168
 10
159.9126332162
 20
118.8780616918
 10
159.7914870801
 20
118.3222388391
 10
159.6026848959
 20
117.8100894208
 10
159.3615222937
 20
117.3831047368
 10
159.0875368333
 20
117.0758765468
 10
158.8029251872
 20
116.9132946516
 10
158.5307448983
 20
116.9085304695
 10
158.293046395
 20
117.0619699662
  0
LWPOLYLINE
  5
10D
330
1F
100
AcDbEntity
  8
0
  6
HIDDEN
 62
     7
370
     0
100
AcDbPolyline
 90
       21
 70
   128
 43
0.0
 10
158.2273949098
 20
117.4513496653
 10
158.0673758307
 20
117.7220801534
 10
157.9752899429
 20
118.1080969311
 10
157.9601512548
 20
118.5716139865
 10
158.0234416466
 20
119.0672590409
 10
158.1589658138
 20
119.5465149028
 10
158.3534577066
 20
119.9624686694
 10
158.5878791035
 20
120.2744038879
 10
158.8392832049
 20
120.4517861657
 10
159.0830608256
 20
120.4772520895
 10
159.2953493136
 20
120.3483088774
 10
159.4553683927
 20
120.0775783892
 10
159.5474542805
 20
119.6915616116
 10
159.5625929686
 20
119.2280445561
 10
159.4993025768
 20
118.7323995018
 10
159.3637784096
 20
118.2531436398
 10
159.1692865168
 20
117.8371898732
 10
158.9348651199
 20
117.5252546547
 10
158.6834610185
 20
117.347872377
 10
158.4396833978
 20
117.3224064531
 10
158.2273949098
 20
117.4513496653
  0
LINE
  5
10E
330
1F
100
AcDbEntity
  8
0
  6
HIDDEN
 62
     7
370
     0
100
AcDbLine
 10
159.4947591744
 20
118.5255536303
 30
0.0
 11
159.6774389363
 21
117.6044569086
 31
0.0
  0
LINE
  5
10F
330
1F
100
AcDbEntity
  8
0
  6
HIDDEN
 62
     7
370
     0
100
AcDbLine
 10
158.1957210687
 20
118.7820687378
 30
0.0
 11
158.3784008306
 21
117.8609720161
 31
0.0
  0
LINE
  5
110
330
1F
100
AcDbEntity
  8
0
  6
HIDDEN
 62
     7
370
     0
100
AcDbLine
 10
158.1957210687
 20
118.7820687378
 30
0.0
 11
158.5786923498
 21
119.820925993
 31
0.0
  0
LINE
  5
111
330
1F
100
AcDbEntity
  8
0
  6
HIDDEN
 62
     7
370
     0
100
AcDbLine
 10
159.4947591744
 20
118.5255536303
 30
0.0
 11
159.8777304555
 21
119.5644108855
 31
0.0
  0
LINE
  5
112
330
1F
100
AcDbEntity
  8
0
  6
HIDDEN
 62
     7
370
     0
100
AcDbLine
 10
159.4947591744
 20
118.5255536303
 30
0.0
 11
158.1957210687
 21
118.7820687378
 31
0.0
  0
LINE
  5
113
330
1F
100
AcDbEntity
  8
0
  6
HIDDEN
 62
     7
370
     0
100
AcDbLine
 10
159.8777304555
 20
119.5644108855
 30
0.0
 11
158.5786923498
 21
119.820925993
 31
0.0
  0
LINE
  5
114
330
1F
100
AcDbEntity
  8
0
  6
HIDDEN
 62
     7
370
     0
100
AcDbLine
 10
158.5786923498
 20
119.820925993
 30
0.0
 11
159.1443433928
 21
119.9386865266
 31
0.0
  0
LINE
  5
115
330
1F
100
AcDbEntity
  8
0
  6
HIDDEN
 62
     7
370
     0
100
AcDbLine
 10
159.8777304555
 20
119.5644108855
 30
0.0
 11
160.4433814985
 21
119.6821714191
 31
0.0
  0
LINE
  5
116
330
1F
100
AcDbEntity
  8
0
  6
HIDDEN
 62
     7
370
     0
100
AcDbLine
 10
160.2430899793
 20
117.7222174421
 30
0.0
 11
158.9440518736
 21
117.9787325496
 31
0.0
  0
LINE
  5
117
330
1F
100
AcDbEntity
  8
0
  6
HIDDEN
 62
     7
370
     0
100
AcDbLine
 10
158.9440518736
 20
117.9787325496
 30
0.0
 11
158.3784008306
 21
117.8609720161
 31
0.0
  0
LINE
  5
118
330
1F
100
AcDbEntity
  8
0
  6
HIDDEN
 62
     7
370
     0
100
AcDbLine
 10
160.2430899793
 20
117.7222174421
 30
0.0
 11
159.6774389363
 21
117.6044569086
 31
0.0
  0
LINE
  5
119
330
1F
100
AcDbEntity
  8
0
  6
HIDDEN
 62
     7
370
     0
100
AcDbLine
 10
159.6774389363
 20
117.6044569086
 30
0.0
 11
158.3784008306
 21
117.8609720161
 31
0.0
  0
LINE
  5
11A
330
1F
100
AcDbEntity
  8
0
  6
HIDDEN
 62
     7
370
     0
100
AcDbLine
 10
160.6260612604
 20
118.7610746974
 30
0.0
 11
159.3270231547
 21
119.0175898048
 31
0.0
  0
LINE
  5
11B
330
1F
100
AcDbEntity
  8
0
  6
HIDDEN
 62
     7
370
     0
100
AcDbLine
 10
160.4433814985
 20
119.6821714191
 30
0.0
 11
159.1443433928
 21
119.9386865266
 31
0.0
  0
LINE
  5
11C
330
1F
100
AcDbEntity
  8
0
  6
HIDDEN
 62
     7
370
     0
100
AcDbLine
 10
159.3270231547
 20
119.0175898048
 30
0.0
 11
159.1443433928
 21
119.9386865266
 31
0.0
  0
LINE
  5
11D
330
1F
100
AcDbEntity
  8
0
  6
HIDDEN
 62
     7
370
     0
100
AcDbLine
 10
160.6260612604
 20
118.7610746974
 30
0.0
 11
160.4433814985
 21
119.6821714191
 31
0.0
  0
LINE
  5
11E
330
1F
100
AcDbEntity
  8
0
  6
HIDDEN
 62
     7
370
     0
100
AcDbLine
 10
158.9440518736
 20
117.9787325496
 30
0.0
 11
159.3270231547
 21
119.0175898048
 31
0.0
  0
LINE
  5
11F
330
1F
100
AcDbEntity
  8
0
  6
HIDDEN
 62
     7
370
     0
100
AcDbLine
 10
160.2430899793
 20
117.7222174421
 30
0.0
 11
160.6260612604
 21
118.7610746974
 31
0.0
  0
LWPOLYLINE
  5
120
330
1F
100
AcDbEntity
  8
0
  6
HIDDEN
 62
     7
370
     0
100
AcDbPolyline
 90
       21
 70
   128
 43
0.0
 10
158.2273949098
 20
102.3630114212
 10
158.0673758307
 20
102.0922809331
 10
157.9752899429
 20
101.7062641554
 10
157.9601512548
 20
101.2427471
 10
158.0234416466
 20
100.7471020456
 10
158.1589658138
 20
100.2678461837
 10
158.3534577066
 20
99.8518924171
 10
158.5878791035
 20
99.5399571986
 10
158.8392832049
 20
99.3625749208
 10
159.0830608256
 20
99.337108997
 10
159.2953493136
 20
99.4660522091
 10
159.4553683927
 20
99.7367826973
 10
159.5474542805
 20
100.1227994749
 10
159.5625929686
 20
100.5863165304
 10
159.4993025768
 20
101.0819615847
 10
159.3637784096
 20
101.5612174467
 10
159.1692865168
 20
101.9771712133
 10
158.9348651199
 20
102.2891064318
 10
158.6834610185
 20
102.4664887095
 10
158.4396833978
 20
102.4919546334
 10
158.2273949098
 20
102.3630114212
  0
LWPOLYLINE
  5
121
330
1F
100
AcDbEntity
  8
0
  6
HIDDEN
 62
     7
370
     0
100
AcDbPolyline
 90
       23
 70
   128
 43
0.0
 10
158.293046395
 20
102.7523911203
 10
158.1090865963
 20
102.4531787004
 10
157.993768831
 20
102.0324337679
 10
157.9564354587
 20
101.5242425752
 10
158.0001110072
 20
100.9697757501
 10
158.1212571433
 20
100.4139528975
 10
158.3100593275
 20
99.9018034792
 10
158.5512219297
 20
99.4748187951
 10
158.8252073901
 20
99.1675906052
 10
159.1098190362
 20
99.00500871
 10
159.3819993251
 20
99.0002445279
 10
159.6196978284
 20
99.1536840246
 10
159.8036576271
 20
99.4528964445
 10
159.9189753924
 20
99.8736413769
 10
159.9563087647
 20
100.3818325697
 10
159.9126332162
 20
100.9362993948
 10
159.7914870801
 20
101.4921222474
 10
159.6026848959
 20
102.0042716657
 10
159.3615222937
 20
102.4312563497
 10
159.0875368333
 20
102.7384845397
 10
158.8029251872
 20
102.9010664349
 10
158.5307448983
 20
102.905830617
 10
158.293046395
 20
102.7523911203
  0
LWPOLYLINE
  5
122
330
1F
100
AcDbEntity
  8
0
  6
HIDDEN
 62
     7
370
     0
100
AcDbPolyline
 90
       23
 70
   128
 43
0.0
 10
160.0466035535
 20
103.0986580243
 10
159.8626437548
 20
102.7994456044
 10
159.7473259895
 20
102.3787006719
 10
159.7099926173
 20
101.8705094791
 10
159.7536681657
 20
101.3160426541
 10
159.8748143018
 20
100.7602198015
 10
160.063616486
 20
100.2480703832
 10
160.3047790882
 20
99.8210856991
 10
160.5787645486
 20
99.5138575091
 10
160.8633761947
 20
99.351275614
 10
161.1355564836
 20
99.3465114319
 10
161.3732549869
 20
99.4999509285
 10
161.5572147856
 20
99.7991633485
 10
161.6725325509
 20
100.2199082809
 10
161.7098659232
 20
100.7280994737
 10
161.6661903747
 20
101.2825662987
 10
161.5450442386
 20
101.8383891514
 10
161.3562420544
 20
102.3505385697
 10
161.1150794522
 20
102.7775232537
 10
160.8410939918
 20
103.0847514437
 10
160.5564823457
 20
103.2473333389
 10
160.2843020568
 20
103.252097521
 10
160.0466035535
 20
103.0986580243
  0
LINE
  5
123
330
1F
100
AcDbEntity
  8
0
  6
HIDDEN
 62
     7
370
     0
100
AcDbLine
 10
158.5786923498
 20
99.9934350935
 30
0.0
 11
159.1443433928
 21
99.8756745599
 31
0.0
  0
LINE
  5
124
330
1F
100
AcDbEntity
  8
0
  6
HIDDEN
 62
     7
370
     0
100
AcDbLine
 10
159.3270231547
 20
100.7967712817
 30
0.0
 11
159.1443433928
 21
99.8756745599
 31
0.0
  0
LINE
  5
125
330
1F
100
AcDbEntity
  8
0
  6
HIDDEN
 62
     7
370
     0
100
AcDbLine
 10
158.9440518736
 20
101.8356285369
 30
0.0
 11
159.3270231547
 21
100.7967712817
 31
0.0
  0
LINE
  5
126
330
1F
100
AcDbEntity
  8
0
  6
HIDDEN
 62
     7
370
     0
100
AcDbLine
 10
158.9440518736
 20
101.8356285369
 30
0.0
 11
158.3784008306
 21
101.9533890704
 31
0.0
  0
LINE
  5
127
330
1F
100
AcDbEntity
  8
0
  6
HIDDEN
 62
     7
370
     0
100
AcDbLine
 10
158.1957210687
 20
101.0322923487
 30
0.0
 11
158.3784008306
 21
101.9533890704
 31
0.0
  0
LINE
  5
128
330
1F
100
AcDbEntity
  8
0
  6
HIDDEN
 62
     7
370
     0
100
AcDbLine
 10
158.1957210687
 20
101.0322923487
 30
0.0
 11
158.5786923498
 21
99.9934350935
 31
0.0
  0
LWPOLYLINE
  5
129
330
1F
100
AcDbEntity
  8
0
  6
HIDDEN
 62
     7
370
     0
100
AcDbPolyline
 90
       19
 70
   128
 43
0.0
 10
160.9448697501
 20
102.5521579976
 10
160.8099067666
 20
102.3126133382
 10
160.7412266052
 20
101.9663184292
 10
160.7471131069
 20
101.5550415472
 10
160.8268562728
 20
101.128388754
 10
160.9708379002
 20
100.7378206733
 10
161.1616916799
 20
100.4304455797
 10
161.3763978293
 20
100.243337446
 10
161.5890596181
 20
100.1990642743
 10
161.774026896
 20
100.3029660627
 10
161.9089898795
 20
100.5425107221
 10
161.9776700409
 20
100.8888056312
 10
161.9717835392
 20
101.3000825132
 10
161.8920403733
 20
101.7267353063
 10
161.7480587459
 20
102.117303387
 10
161.5572049663
 20
102.4246784806
 10
161.3424988168
 20
102.6117866144
 10
161.129837028
 20
102.656059786
 10
160.9448697501
 20
102.5521579976
  0
LINE
  5
12A
330
1F
100
AcDbEntity
  8
0
  6
HIDDEN
 62
     7
370
     0
100
AcDbLine
 10
160.6260612604
 20
101.0532863892
 30
0.0
 11
159.3270231547
 21
100.7967712817
 31
0.0
  0
LINE
  5
12B
330
1F
100
AcDbEntity
  8
0
  6
HIDDEN
 62
     7
370
     0
100
AcDbLine
 10
160.2430899793
 20
102.0921436444
 30
0.0
 11
158.9440518736
 21
101.8356285369
 31
0.0
  0
LINE
  5
12C
330
1F
100
AcDbEntity
  8
0
  6
HIDDEN
 62
     7
370
     0
100
AcDbLine
 10
159.8777304555
 20
100.249950201
 30
0.0
 11
160.4433814985
 21
100.1321896674
 31
0.0
  0
LINE
  5
12D
330
1F
100
AcDbEntity
  8
0
  6
HIDDEN
 62
     7
370
     0
100
AcDbLine
 10
159.4947591744
 20
101.2888074562
 30
0.0
 11
159.8777304555
 21
100.249950201
 31
0.0
  0
LINE
  5
12E
330
1F
100
AcDbEntity
  8
0
  6
HIDDEN
 62
     7
370
     0
100
AcDbLine
 10
159.4947591744
 20
101.2888074562
 30
0.0
 11
159.6774389363
 21
102.2099041779
 31
0.0
  0
LINE
  5
12F
330
1F
100
AcDbEntity
  8
0
  6
HIDDEN
 62
     7
370
     0
100
AcDbLine
 10
160.2430899793
 20
102.0921436444
 30
0.0
 11
159.6774389363
 21
102.2099041779
 31
0.0
  0
LINE
  5
130
330
1F
100
AcDbEntity
  8
0
  6
HIDDEN
 62
     7
370
     0
100
AcDbLine
 10
160.2430899793
 20
102.0921436444
 30
0.0
 11
160.6260612604
 21
101.0532863892
 31
0.0
  0
LINE
  5
131
330
1F
100
AcDbEntity
  8
0
  6
HIDDEN
 62
     7
370
     0
100
AcDbLine
 10
160.6260612604
 20
101.0532863892
 30
0.0
 11
160.4433814985
 21
100.1321896674
 31
0.0
  0
LINE
  5
132
330
1F
100
AcDbEntity
  8
0
  6
HIDDEN
 62
     7
370
     0
100
AcDbLine
 10
159.8777304555
 20
100.249950201
 30
0.0
 11
158.5786923498
 21
99.9934350935
 31
0.0
  0
LINE
  5
133
330
1F
100
AcDbEntity
  8
0
  6
HIDDEN
 62
     7
370
     0
100
AcDbLine
 10
160.4433814985
 20
100.1321896674
 30
0.0
 11
159.1443433928
 21
99.8756745599
 31
0.0
  0
LINE
  5
134
330
1F
100
AcDbEntity
  8
0
  6
HIDDEN
 62
     7
370
     0
100
AcDbLine
 10
159.4947591744
 20
101.2888074562
 30
0.0
 11
158.1957210687
 21
101.0322923487
 31
0.0
  0
LINE
  5
135
330
1F
100
AcDbEntity
  8
0
  6
HIDDEN
 62
     7
370
     0
100
AcDbLine
 10
159.6774389363
 20
102.2099041779
 30
0.0
 11
158.3784008306
 21
101.9533890704
 31
0.0
  0
LWPOLYLINE
  5
136
330
1F
100
AcDbEntity
  8
0
  6
HIDDEN
 62
     7
370
     0
100
AcDbPolyline
 90
       26
 70
   128
 43
0.0
 10
171.2001309105
 20
115.680874814
 10
170.6530638742
 20
115.9681014265
 10
170.1991985496
 20
116.3741495051
 10
169.8670529644
 20
116.8735055555
 10
169.6774970471
 20
117.4347932007
 10
169.6424412933
 20
118.0227446736
 10
169.7640883849
 20
118.6004168208
 10
170.0347947876
 20
119.1315123769
 10
170.4375510227
 20
119.5826606547
 10
170.9470504346
 20
119.9255143489
 10
171.5312793016
 20
120.1385307007
 10
172.1535283751
 20
120.2083251096
 10
172.7746994575
 20
120.1305121359
 10
173.3557620852
 20
119.9099810552
 10
173.8602059563
 20
119.5605886461
 10
174.2563350071
 20
119.1042885189
 10
174.5192589924
 20
118.5697516885
 10
174.6324574315
 20
117.99056507
 10
174.5888176499
 20
117.4031210886
 10
174.3910816957
 20
116.8443310103
 10
174.0516740461
 20
116.3493056707
 10
173.5919209319
 20
115.9491493325
 10
173.0407103323
 20
115.66900529
 10
172.4326768363
 20
115.5264760238
 10
171.8060254248
 20
115.5305171719
 10
171.2001309105
 20
115.680874814
  0
LWPOLYLINE
  5
137
330
1F
100
AcDbEntity
  8
0
  6
HIDDEN
 62
     7
370
     0
100
AcDbPolyline
 90
       22
 70
   128
 43
0.0
 10
171.4810032709
 20
116.077841925
 10
171.0318351076
 20
116.3271077264
 10
170.6808099043
 20
116.6897096142
 10
170.4591177908
 20
117.1334288194
 10
170.3864570842
 20
117.6188389433
 10
170.4692840072
 20
118.1028091663
 10
170.7002390241
 20
118.5423366102
 10
171.0588007683
 20
118.8983673327
 10
171.5131094551
 20
119.1392664418
 10
172.0227977642
 20
119.2436289945
 10
172.5425776524
 20
119.2021819198
 10
173.0262643957
 20
119.0186079724
 10
173.4308803044
 20
118.709218503
 10
173.7204734793
 20
118.3015041238
 10
173.869312296
 20
117.8316920465
 10
173.8641717724
 20
117.341527136
 10
173.7055086666
 20
116.8745626956
 10
173.4074208919
 20
116.472290565
 10
172.9963948552
 20
116.1704543885
 10
172.5089520235
 20
115.9958736349
 10
171.9884038317
 20
115.9640605702
 10
171.4810032709
 20
116.077841925
  0
LWPOLYLINE
  5
138
330
1F
100
AcDbEntity
  8
0
  6
HIDDEN
 62
     7
370
     0
100
AcDbPolyline
 90
       26
 70
   128
 43
0.0
 10
171.2001309105
 20
116.7045681671
 10
170.6530638742
 20
116.9917947796
 10
170.1991985496
 20
117.3978428582
 10
169.8670529644
 20
117.8971989086
 10
169.6774970471
 20
118.4584865538
 10
169.6424412933
 20
119.0464380267
 10
169.7640883849
 20
119.6241101739
 10
170.0347947876
 20
120.15520573
 10
170.4375510227
 20
120.6063540078
 10
170.9470504346
 20
120.949207702
 10
171.5312793016
 20
121.1622240538
 10
172.1535283751
 20
121.2320184627
 10
172.7746994575
 20
121.154205489
 10
173.3557620852
 20
120.9336744083
 10
173.8602059563
 20
120.5842819992
 10
174.2563350071
 20
120.127981872
 10
174.5192589924
 20
119.5934450416
 10
174.6324574315
 20
119.0142584231
 10
174.5888176499
 20
118.4268144417
 10
174.3910816957
 20
117.8680243634
 10
174.0516740461
 20
117.3729990238
 10
173.5919209319
 20
116.9728426856
 10
173.0407103323
 20
116.6926986431
 10
172.4326768363
 20
116.5501693769
 10
171.8060254248
 20
116.554210525
 10
171.2001309105
 20
116.7045681671
  0
LINE
  5
139
330
1F
100
AcDbEntity
  8
0
  6
HIDDEN
 62
     7
370
     0
100
AcDbLine
 10
171.2476062471
 20
119.3553770867
 30
0.0
 11
172.6769112212
 21
119.5443011706
 31
0.0
  0
LINE
  5
13A
330
1F
100
AcDbEntity
  8
0
  6
HIDDEN
 62
     7
370
     0
100
AcDbLine
 10
172.6769112212
 20
119.5443011706
 30
0.0
 11
172.6769112212
 21
120.2283414572
 31
0.0
  0
LINE
  5
13B
330
1F
100
AcDbEntity
  8
0
  6
HIDDEN
 62
     7
370
     0
100
AcDbLine
 10
173.5656770858
 20
118.4755981386
 30
0.0
 11
172.6769112212
 21
119.5443011706
 31
0.0
  0
LINE
  5
13C
330
1F
100
AcDbEntity
  8
0
  6
HIDDEN
 62
     7
370
     0
100
AcDbLine
 10
171.2476062471
 20
119.3553770867
 30
0.0
 11
171.2476062471
 21
120.0394173733
 31
0.0
  0
LINE
  5
13D
330
1F
100
AcDbEntity
  8
0
  6
HIDDEN
 62
     7
370
     0
100
AcDbLine
 10
170.7070671376
 20
118.0977499708
 30
0.0
 11
171.2476062471
 21
119.3553770867
 31
0.0
  0
LINE
  5
13E
330
1F
100
AcDbEntity
  8
0
  6
HIDDEN
 62
     7
370
     0
100
AcDbLine
 10
173.0251379763
 20
117.2179710228
 30
0.0
 11
173.0251379763
 21
117.9020113095
 31
0.0
  0
LINE
  5
13F
330
1F
100
AcDbEntity
  8
0
  6
HIDDEN
 62
     7
370
     0
100
AcDbLine
 10
173.0251379763
 20
117.9020113095
 30
0.0
 11
173.5656770858
 21
119.1596384253
 31
0.0
  0
LINE
  5
140
330
1F
100
AcDbEntity
  8
0
  6
HIDDEN
 62
     7
370
     0
100
AcDbLine
 10
173.5656770858
 20
118.4755981386
 30
0.0
 11
173.5656770858
 21
119.1596384253
 31
0.0
  0
LINE
  5
141
330
1F
100
AcDbEntity
  8
0
  6
HIDDEN
 62
     7
370
     0
100
AcDbLine
 10
173.0251379763
 20
117.2179710228
 30
0.0
 11
173.5656770858
 21
118.4755981386
 31
0.0
  0
LINE
  5
142
330
1F
100
AcDbEntity
  8
0
  6
HIDDEN
 62
     7
370
     0
100
AcDbLine
 10
171.5958330022
 20
117.0290469389
 30
0.0
 11
171.5958330022
 21
117.7130872256
 31
0.0
  0
LINE
  5
143
330
1F
100
AcDbEntity
  8
0
  6
HIDDEN
 62
     7
370
     0
100
AcDbLine
 10
170.7070671376
 20
118.7817902575
 30
0.0
 11
171.5958330022
 21
117.7130872256
 31
0.0
  0
LINE
  5
144
330
1F
100
AcDbEntity
  8
0
  6
HIDDEN
 62
     7
370
     0
100
AcDbLine
 10
170.7070671376
 20
118.0977499708
 30
0.0
 11
170.7070671376
 21
118.7817902575
 31
0.0
  0
LINE
  5
145
330
1F
100
AcDbEntity
  8
0
  6
HIDDEN
 62
     7
370
     0
100
AcDbLine
 10
170.7070671376
 20
118.0977499708
 30
0.0
 11
171.5958330022
 21
117.0290469389
 31
0.0
  0
LINE
  5
146
330
1F
100
AcDbEntity
  8
0
  6
HIDDEN
 62
     7
370
     0
100
AcDbLine
 10
173.0251379763
 20
117.9020113095
 30
0.0
 11
171.5958330022
 21
117.7130872256
 31
0.0
  0
LINE
  5
147
330
1F
100
AcDbEntity
  8
0
  6
HIDDEN
 62
     7
370
     0
100
AcDbLine
 10
173.0251379763
 20
117.2179710228
 30
0.0
 11
171.5958330022
 21
117.0290469389
 31
0.0
  0
LWPOLYLINE
  5
148
330
1F
100
AcDbEntity
  8
0
  6
HIDDEN
 62
     7
370
     0
100
AcDbPolyline
 90
       24
 70
   128
 43
0.0
 10
171.3667818443
 20
117.1801730628
 10
170.8812349404
 20
117.4416823595
 10
170.4887758186
 20
117.8165929635
 10
170.2185113766
 20
118.2770994704
 10
170.0904858917
 20
118.7890482191
 10
170.1141944284
 20
119.3144703131
 10
170.2878786331
 20
119.8143975992
 10
170.5986571427
 20
120.2517527577
 10
171.0234809371
 20
120.5940991572
 10
171.5308427787
 20
120.8160465314
 10
172.0831139608
 20
120.9011340589
 10
172.6393350564
 20
120.8430511871
 10
173.1582536912
 20
120.6461056567
 10
173.6013840441
 20
120.3249040169
 10
173.935861164
 20
119.9032683239
 10
174.1368784129
 20
119.4124693682
 10
174.1895272612
 20
118.888907463
 10
174.0899029846
 20
118.3714127997
 10
173.84539426
 20
117.8983655902
 10
173.4741351809
 20
117.5048495818
 10
173.0036603348
 20
117.2200500568
 10
172.4688626888
 20
117.065089293
 10
171.9094057377
 20
117.0514600215
 10
171.3667818443
 20
117.1801730628
  0
LINE
  5
149
330
1F
100
AcDbEntity
  8
0
  6
HIDDEN
 62
     7
370
     0
100
AcDbLine
 10
170.7070671376
 20
118.7817902575
 30
0.0
 11
171.2476062471
 21
120.0394173733
 31
0.0
  0
LINE
  5
14A
330
1F
100
AcDbEntity
  8
0
  6
HIDDEN
 62
     7
370
     0
100
AcDbLine
 10
173.5656770858
 20
119.1596384253
 30
0.0
 11
172.6769112212
 21
120.2283414572
 31
0.0
  0
LINE
  5
14B
330
1F
100
AcDbEntity
  8
0
  6
HIDDEN
 62
     7
370
     0
100
AcDbLine
 10
171.2476062471
 20
120.0394173733
 30
0.0
 11
172.6769112212
 21
120.2283414572
 31
0.0
  0
LINE
  5
14C
330
1F
100
AcDbEntity
  8
0
  6
HIDDEN
 62
     7
370
     0
100
AcDbLine
 10
201.4863721117
 20
132.4571805433
 30
0.0
 11
200.7863721117
 21
133.1571805433
 31
0.0
  0
LINE
  5
14D
330
1F
100
AcDbEntity
  8
0
  6
HIDDEN
 62
     7
370
     0
100
AcDbLine
 10
190.1863721117
 20
133.1571805433
 30
0.0
 11
189.4863721117
 21
132.4571805433
 31
0.0
  0
LINE
  5
14E
330
1F
100
AcDbEntity
  8
0
  6
HIDDEN
 62
     7
370
     0
100
AcDbLine
 10
189.4863721117
 20
132.4571805433
 30
0.0
 11
189.4863721117
 21
125.0542948603
 31
0.0
  0
LINE
  5
14F
330
1F
100
AcDbEntity
  8
0
  6
HIDDEN
 62
     7
370
     0
100
AcDbLine
 10
201.4863721117
 20
125.0542948603
 30
0.0
 11
201.4863721117
 21
132.4571805433
 31
0.0
  0
LINE
  5
150
330
1F
100
AcDbEntity
  8
0
  6
HIDDEN
 62
     7
370
     0
100
AcDbLine
 10
189.4863721117
 20
125.0542948603
 30
0.0
 11
191.6767924602
 21
116.8795348297
 31
0.0
  0
LINE
  5
151
330
1F
100
AcDbEntity
  8
0
  6
HIDDEN
 62
     7
370
     0
100
AcDbLine
 10
199.2959517632
 20
116.8795348297
 30
0.0
 11
201.4863721117
 21
125.0542948603
 31
0.0
  0
ARC
  5
152
330
1F
100
AcDbEntity
  8
0
  6
HIDDEN
 62
     7
370
     0
100
AcDbCircle
 10
191.9665702081
 20
116.9571805433
 30
0.0
 40
0.2999999999999972
100
AcDbArc
 50
195.0
 51
270.0
  0
ARC
  5
153
330
1F
100
AcDbEntity
  8
0
  6
HIDDEN
 62
     7
370
     0
100
AcDbCircle
 10
199.0061740153
 20
116.9571805433
 30
0.0
 40
0.2999999999999972
100
AcDbArc
 50
270.0
 51
345.0
  0
LINE
  5
154
330
1F
100
AcDbEntity
  8
0
  6
HIDDEN
 62
     7
370
     0
100
AcDbLine
 10
191.8863721117
 20
133.1571805433
 30
0.0
 11
192.3982743785
 21
132.6452782764
 31
0.0
  0
LINE
  5
155
330
1F
100
AcDbEntity
  8
0
  6
HIDDEN
 62
     7
370
     0
100
AcDbLine
 10
198.575788406
 20
132.6465968375
 30
0.0
 11
199.0863721117
 21
133.1571805433
 31
0.0
  0
LINE
  5
156
330
1F
100
AcDbEntity
  8
0
  6
HIDDEN
 62
     7
370
     0
100
AcDbLine
 10
192.4863721117
 20
126.1571805433
 30
0.0
 11
192.4863721117
 21
125.1571805433
 31
0.0
  0
LINE
  5
157
330
1F
100
AcDbEntity
  8
0
  6
HIDDEN
 62
     7
370
     0
100
AcDbLine
 10
198.4863721117
 20
125.1571805433
 30
0.0
 11
198.4863721117
 21
126.1571805433
 31
0.0
  0
LINE
  5
158
330
1F
100
AcDbEntity
  8
0
  6
HIDDEN
 62
     7
370
     0
100
AcDbLine
 10
192.4863721117
 20
125.1571805433
 30
0.0
 11
195.4863721117
 21
124.0652698405
 31
0.0
  0
LINE
  5
159
330
1F
100
AcDbEntity
  8
0
  6
HIDDEN
 62
     7
370
     0
100
AcDbLine
 10
195.4863721117
 20
124.0652698405
 30
0.0
 11
198.4863721117
 21
125.1571805433
 31
0.0
  0
LINE
  5
15A
330
1F
100
AcDbEntity
  8
0
  6
HIDDEN
 62
     7
370
     0
100
AcDbLine
 10
157.5363721117
 20
98.5830514583
 30
0.0
 11
159.1585075954
 21
98.9033671259
 31
0.0
  0
LINE
  5
15B
330
1F
100
AcDbEntity
  8
0
  6
HIDDEN
 62
     7
370
     0
100
AcDbLine
 10
158.364236628
 20
102.9256965045
 30
0.0
 11
157.5363721117
 21
102.7622218886
 31
0.0
  0
LINE
  5
15C
330
1F
100
AcDbEntity
  8
0
  6
HIDDEN
 62
     7
370
     0
100
AcDbLine
 10
159.2071007326
 20
99.3206865346
 30
0.0
 11
170.6856444565
 21
101.5873020129
 31
0.0
  0
LINE
  5
15D
330
1F
100
AcDbEntity
  8
0
  6
HIDDEN
 62
     7
370
     0
100
AcDbLine
 10
170.680628838
 20
104.9500341431
 30
0.0
 11
158.5678094661
 21
102.5581711564
 31
0.0
  0
LINE
  5
15E
330
1F
100
AcDbEntity
  8
0
  6
HIDDEN
 62
     7
370
     0
100
AcDbLine
 10
174.2363721117
 20
102.5537474618
 30
0.0
 11
174.2363721117
 21
108.4581793258
 31
0.0
  0
LINE
  5
15F
330
1F
100
AcDbEntity
  8
0
  6
HIDDEN
 62
     7
370
     0
100
AcDbLine
 10
170.0363721117
 20
108.456462302
 30
0.0
 11
170.0363721117
 21
103.7919447752
 31
0.0
  0
ARC
  5
160
330
1F
100
AcDbEntity
  8
0
  6
HIDDEN
 62
     7
370
     0
100
AcDbCircle
 10
208.5363721117
 20
124.9071805433
 30
0.0
 40
1.0
100
AcDbArc
 50
270.0
 51
0.0
  0
ARC
  5
161
330
1F
100
AcDbEntity
  8
0
  6
HIDDEN
 62
     7
370
     0
100
AcDbCircle
 10
208.5363721117
 20
94.9071805433
 30
0.0
 40
1.0
100
AcDbArc
 50
0.0
 51
90.0
  0
ARC
  5
162
330
1F
100
AcDbEntity
  8
0
  6
HIDDEN
 62
     7
370
     0
100
AcDbCircle
 10
183.9047196141
 20
123.4071805433
 30
0.0
 40
1.000000000000009
100
AcDbArc
 50
75.0
 51
90.0
  0
ARC
  5
163
330
1F
100
AcDbEntity
  8
0
  6
HIDDEN
 62
     7
370
     0
100
AcDbCircle
 10
183.9047196141
 20
96.4071805433
 30
0.0
 40
1.000000000000009
100
AcDbArc
 50
270.0
 51
285.0
  0
LINE
  5
164
330
1F
100
AcDbEntity
  8
0
  6
HIDDEN
 62
     7
370
     0
100
AcDbLine
 10
183.9047196141
 20
124.4071805433
 30
0.0
 11
182.0363721117
 21
124.4071805433
 31
0.0
  0
LINE
  5
165
330
1F
100
AcDbEntity
  8
0
  6
HIDDEN
 62
     7
370
     0
100
AcDbLine
 10
182.0363721117
 20
95.4071805433
 30
0.0
 11
183.9047196141
 21
95.4071805433
 31
0.0
  0
ARC
  5
166
330
1F
100
AcDbEntity
  8
0
  6
HIDDEN
 62
     7
370
     0
100
AcDbCircle
 10
182.0363721117
 20
123.4071805433
 30
0.0
 40
1.0
100
AcDbArc
 50
90.0
 51
180.0
  0
ARC
  5
167
330
1F
100
AcDbEntity
  8
0
  6
HIDDEN
 62
     7
370
     0
100
AcDbCircle
 10
182.0363721117
 20
96.4071805433
 30
0.0
 40
1.0
100
AcDbArc
 50
180.0
 51
270.0
  0
LINE
  5
168
330
1F
100
AcDbEntity
  8
0
  6
HIDDEN
 62
     7
370
     0
100
AcDbLine
 10
184.1635386592
 20
95.441254717
 30
0.0
 11
185.9023975155
 21
95.9071805433
 31
0.0
  0
LINE
  5
169
330
1F
100
AcDbEntity
  8
0
  6
HIDDEN
 62
     7
370
     0
100
AcDbLine
 10
185.9023975155
 20
123.9071805433
 30
0.0
 11
184.1635386592
 21
124.3731063695
 31
0.0
  0
LINE
  5
16A
330
1F
100
AcDbEntity
  8
0
  6
HIDDEN
 62
     7
370
     0
100
AcDbLine
 10
189.9863721117
 20
123.9071805433
 30
0.0
 11
185.9023975155
 21
123.9071805433
 31
0.0
  0
LINE
  5
16B
330
1F
100
AcDbEntity
  8
0
  6
HIDDEN
 62
     7
370
     0
100
AcDbLine
 10
208.5363721117
 20
123.9071805433
 30
0.0
 11
200.9787569026
 21
123.9071805433
 31
0.0
  0
LINE
  5
16C
330
1F
100
AcDbEntity
  8
0
  6
HIDDEN
 62
     7
370
     0
100
AcDbLine
 10
185.9023975155
 20
95.9071805433
 30
0.0
 11
208.5363721117
 21
95.9071805433
 31
0.0
  0
ARC
  5
16D
330
1F
100
AcDbEntity
  8
0
  6
HIDDEN
 62
     7
370
     0
100
AcDbCircle
 10
90.9363721117
 20
100.6071805433
 30
0.0
 40
0.8000000000000114
100
AcDbArc
 50
90.0
 51
180.0
  0
ARC
  5
16E
330
1F
100
AcDbEntity
  8
0
  6
HIDDEN
 62
     7
370
     0
100
AcDbCircle
 10
90.9363721117
 20
119.2071805433
 30
0.0
 40
0.8000000000000114
100
AcDbArc
 50
180.0
 51
270.0
  0
LINE
  5
16F
330
1F
100
AcDbEntity
  8
0
  6
HIDDEN
 62
     7
370
     0
100
AcDbLine
 10
98.0287445424
 20
101.1821805433
 30
0.0
 11
98.905432004
 21
101.1821805433
 31
0.0
  0
LINE
  5
170
330
1F
100
AcDbEntity
  8
0
  6
HIDDEN
 62
     7
370
     0
100
AcDbLine
 10
98.905432004
 20
118.6321805433
 30
0.0
 11
98.0287445424
 21
118.6321805433
 31
0.0
  0
ARC
  5
171
330
1F
100
AcDbEntity
  8
0
  6
HIDDEN
 62
     7
370
     0
100
AcDbCircle
 10
98.0287445424
 20
101.5821805433
 30
0.0
 40
0.4000000000000096
100
AcDbArc
 50
255.0
 51
270.0
  0
ARC
  5
172
330
1F
100
AcDbEntity
  8
0
  6
HIDDEN
 62
     7
370
     0
100
AcDbCircle
 10
98.0287445424
 20
118.2321805433
 30
0.0
 40
0.4000000000000096
100
AcDbArc
 50
90.0
 51
105.0
  0
ARC
  5
173
330
1F
100
AcDbEntity
  8
0
  6
HIDDEN
 62
     7
370
     0
100
AcDbCircle
 10
98.905432004
 20
101.5821805433
 30
0.0
 40
0.4000000000000057
100
AcDbArc
 50
270.0
 51
330.0
  0
ARC
  5
174
330
1F
100
AcDbEntity
  8
0
  6
HIDDEN
 62
     7
370
     0
100
AcDbCircle
 10
98.905432004
 20
118.2321805433
 30
0.0
 40
0.4000000000000057
100
AcDbArc
 50
30.0
 51
90.0
  0
LINE
  5
175
330
1F
100
AcDbEntity
  8
0
  6
HIDDEN
 62
     7
370
     0
100
AcDbLine
 10
97.9252169244
 20
118.6185508738
 30
0.0
 11
97.1363721117
 21
118.4071805433
 31
0.0
  0
LINE
  5
176
330
1F
100
AcDbEntity
  8
0
  6
HIDDEN
 62
     7
370
     0
100
AcDbLine
 10
97.1363721117
 20
101.4071805433
 30
0.0
 11
97.9252169244
 21
101.1958102127
 31
0.0
  0
LINE
  5
177
330
1F
100
AcDbEntity
  8
0
  6
HIDDEN
 62
     7
370
     0
100
AcDbLine
 10
99.2518421655
 20
101.3821805433
 30
0.0
 11
100.1323013261
 21
102.9071805433
 31
0.0
  0
LINE
  5
178
330
1F
100
AcDbEntity
  8
0
  6
HIDDEN
 62
     7
370
     0
100
AcDbLine
 10
100.1323013261
 20
116.9071805433
 30
0.0
 11
99.2518421655
 21
118.4321805433
 31
0.0
  0
LINE
  5
179
330
1F
100
AcDbEntity
  8
0
  6
HIDDEN
 62
     7
370
     0
100
AcDbLine
 10
90.9363721117
 20
101.4071805433
 30
0.0
 11
97.1363721117
 21
101.4071805433
 31
0.0
  0
LINE
  5
17A
330
1F
100
AcDbEntity
  8
0
  6
HIDDEN
 62
     7
370
     0
100
AcDbLine
 10
97.1363721117
 20
118.4071805433
 30
0.0
 11
90.9363721117
 21
118.4071805433
 31
0.0
  0
LINE
  5
17B
330
1F
100
AcDbEntity
  8
0
  6
HIDDEN
 62
     7
370
     0
100
AcDbLine
 10
178.5363721117
 20
79.4071888443
 30
0.0
 11
178.5363721117
 21
85.8071805433
 31
0.0
  0
LINE
  5
17C
330
1F
100
AcDbEntity
  8
0
  6
HIDDEN
 62
     7
370
     0
100
AcDbLine
 10
178.5363721117
 20
134.0071805433
 30
0.0
 11
178.5363721117
 21
140.4071092471
 31
0.0
  0
ARC
  5
17D
330
1F
100
AcDbEntity
  8
0
  6
HIDDEN
 62
     7
370
     0
100
AcDbCircle
 10
176.9363721117
 20
134.0071805433
 30
0.0
 40
1.600000000000023
100
AcDbArc
 50
270.0
 51
0.0
  0
ARC
  5
17E
330
1F
100
AcDbEntity
  8
0
  6
HIDDEN
 62
     7
370
     0
100
AcDbCircle
 10
176.9363721117
 20
85.8071805433
 30
0.0
 40
1.600000000000009
100
AcDbArc
 50
0.0
 51
90.0
  0
LINE
  5
17F
330
1F
100
AcDbEntity
  8
0
  6
HIDDEN
 62
     7
370
     0
100
AcDbLine
 10
100.1323013261
 20
102.9071805433
 30
0.0
 11
133.1363721117
 21
102.9071805433
 31
0.0
  0
LINE
  5
180
330
1F
100
AcDbEntity
  8
0
  6
HIDDEN
 62
     7
370
     0
100
AcDbLine
 10
133.1363721117
 20
116.9071805433
 30
0.0
 11
100.1323013261
 21
116.9071805433
 31
0.0
  0
LINE
  5
181
330
1F
100
AcDbEntity
  8
0
  6
HIDDEN
 62
     7
370
     0
100
AcDbLine
 10
133.1363721117
 20
102.9071805433
 30
0.0
 11
134.788738814
 21
105.6571805433
 31
0.0
  0
LINE
  5
182
330
1F
100
AcDbEntity
  8
0
  6
HIDDEN
 62
     7
370
     0
100
AcDbLine
 10
134.788738814
 20
114.1571805433
 30
0.0
 11
133.1363721117
 21
116.9071805433
 31
0.0
  0
LINE
  5
183
330
1F
100
AcDbEntity
  8
0
  6
HIDDEN
 62
     7
370
     0
100
AcDbLine
 10
188.2363721117
 20
134.9071805433
 30
0.0
 11
189.9863721117
 21
133.1571805433
 31
0.0
  0
LINE
  5
184
330
1F
100
AcDbEntity
  8
0
  6
HIDDEN
 62
     7
370
     0
100
AcDbLine
 10
200.9863721117
 20
133.1571805433
 30
0.0
 11
202.7363721117
 21
134.9071805433
 31
0.0
  0
LINE
  5
185
330
1F
100
AcDbEntity
  8
0
  6
HIDDEN
 62
     7
370
     0
100
AcDbLine
 10
178.5363712017
 20
140.4071803313
 30
0.0
 11
179.536370571
 21
141.4071800781
 31
0.0
  0
LINE
  5
186
330
1F
100
AcDbEntity
  8
0
  6
HIDDEN
 62
     7
370
     0
100
AcDbLine
 10
179.5363784731
 20
78.4071794056
 30
0.0
 11
178.5363782242
 21
79.4071792101
 31
0.0
  0
LINE
  5
187
330
1F
100
AcDbEntity
  8
0
  6
HIDDEN
 62
     7
370
     0
100
AcDbLine
 10
189.9863721117
 20
133.1571805433
 30
0.0
 11
189.9863721117
 21
123.9071805433
 31
0.0
  0
LINE
  5
188
330
1F
100
AcDbEntity
  8
0
  6
HIDDEN
 62
     7
370
     0
100
AcDbLine
 10
200.9863721117
 20
123.9042118478
 30
0.0
 11
200.9863721117
 21
133.1571805433
 31
0.0
  0
LINE
  5
189
330
1F
100
AcDbEntity
  8
0
  6
HIDDEN
 62
     7
370
     0
100
AcDbLine
 10
181.0363721117
 20
114.1571805433
 30
0.0
 11
134.788738814
 21
114.1571805433
 31
0.0
  0
LINE
  5
18A
330
1F
100
AcDbEntity
  8
0
  6
HIDDEN
 62
     7
370
     0
100
AcDbLine
 10
134.788738814
 20
105.6571805433
 30
0.0
 11
181.0363721117
 21
105.6571805433
 31
0.0
  0
LINE
  5
18B
330
1F
100
AcDbEntity
  8
0
  6
HIDDEN
 62
     7
370
     0
100
AcDbLine
 10
174.2363721117
 20
111.3578987845
 30
0.0
 11
174.2363721117
 21
119.0093409922
 31
0.0
  0
LINE
  5
18C
330
1F
100
AcDbEntity
  8
0
  6
HIDDEN
 62
     7
370
     0
100
AcDbLine
 10
170.0363721117
 20
116.0251227917
 30
0.0
 11
170.0363721117
 21
111.3561817607
 31
0.0
  0
LINE
  5
18D
330
1F
100
AcDbEntity
  8
0
  6
HIDDEN
 62
     7
370
     0
100
AcDbLine
 10
170.0363721117
 20
119.0093409922
 30
0.0
 11
170.0363721117
 21
117.3222192356
 31
0.0
  0
LINE
  5
18E
330
1F
100
AcDbEntity
  8
0
  6
HIDDEN
 62
     7
370
     0
100
AcDbLine
 10
158.5678094661
 20
117.2561899301
 30
0.0
 11
170.6811491406
 21
114.8642242016
 31
0.0
  0
LINE
  5
18F
330
1F
100
AcDbEntity
  8
0
  6
HIDDEN
 62
     7
370
     0
100
AcDbLine
 10
170.6871009634
 20
118.2267714639
 30
0.0
 11
159.2071007326
 21
120.4936745519
 31
0.0
  0
LINE
  5
190
330
1F
100
AcDbEntity
  8
0
  6
HIDDEN
 62
     7
370
     0
100
AcDbLine
 10
157.5363721117
 20
117.0521391979
 30
0.0
 11
158.364236628
 21
116.888664582
 31
0.0
  0
LINE
  5
191
330
1F
100
AcDbEntity
  8
0
  6
HIDDEN
 62
     7
370
     0
100
AcDbLine
 10
159.1585075954
 20
120.9109939606
 30
0.0
 11
157.5363721117
 21
121.2313096282
 31
0.0
  0
LINE
  5
192
330
1F
100
AcDbEntity
  8
0
  6
HIDDEN
 62
     7
370
     0
100
AcDbLine
 10
160.8726008873
 20
116.7570703407
 30
0.0
 11
161.4611180837
 21
117.288057638
 31
0.0
  0
LINE
  5
193
330
1F
100
AcDbEntity
  8
0
  6
HIDDEN
 62
     7
370
     0
100
AcDbLine
 10
161.8711288413
 20
119.3644250032
 30
0.0
 11
161.5286180995
 21
120.079258125
 31
0.0
  0
LINE
  5
194
330
1F
100
AcDbEntity
  8
0
  6
HIDDEN
 62
     7
370
     0
100
AcDbLine
 10
158.5689228593
 20
116.899211622
 30
0.0
 11
160.3224800178
 21
116.5529447181
 31
0.0
  0
LINE
  5
195
330
1F
100
AcDbEntity
  8
0
  6
HIDDEN
 62
     7
370
     0
100
AcDbLine
 10
161.0973785226
 20
120.4771685021
 30
0.0
 11
159.3438213641
 21
120.8234354061
 31
0.0
  0
LINE
  5
196
330
1F
100
AcDbEntity
  8
0
  6
HIDDEN
 62
     7
370
     0
100
AcDbLine
 10
158.2566059581
 20
119.78936482
 30
0.0
 11
158.198060358
 21
119.6469025226
 31
0.0
  0
LINE
  5
197
330
1F
100
AcDbEntity
  8
0
  6
HIDDEN
 62
     7
370
     0
100
AcDbLine
 10
157.9563721117
 20
118.4229502776
 30
0.0
 11
157.9563721117
 21
118.2689272486
 31
0.0
  0
LINE
  5
198
330
1F
100
AcDbEntity
  8
0
  6
HIDDEN
 62
     7
370
     0
100
AcDbLine
 10
157.9563721117
 20
101.5454338379
 30
0.0
 11
157.9563721117
 21
101.3914108089
 31
0.0
  0
LINE
  5
199
330
1F
100
AcDbEntity
  8
0
  6
HIDDEN
 62
     7
370
     0
100
AcDbLine
 10
158.198060358
 20
100.1674585639
 30
0.0
 11
158.2566059581
 21
100.0249962665
 31
0.0
  0
LINE
  5
19A
330
1F
100
AcDbEntity
  8
0
  6
HIDDEN
 62
     7
370
     0
100
AcDbLine
 10
159.3438213641
 20
98.9909256804
 30
0.0
 11
161.0973785226
 21
99.3371925844
 31
0.0
  0
LINE
  5
19B
330
1F
100
AcDbEntity
  8
0
  6
HIDDEN
 62
     7
370
     0
100
AcDbLine
 10
160.3224800178
 20
103.2614163684
 30
0.0
 11
158.5689228593
 21
102.9151494645
 31
0.0
  0
LINE
  5
19C
330
1F
100
AcDbEntity
  8
0
  6
HIDDEN
 62
     7
370
     0
100
AcDbLine
 10
161.5286180995
 20
99.7351029615
 30
0.0
 11
161.8711288413
 21
100.4499360834
 31
0.0
  0
LINE
  5
19D
330
1F
100
AcDbEntity
  8
0
  6
HIDDEN
 62
     7
370
     0
100
AcDbLine
 10
161.4611180837
 20
102.5263034486
 30
0.0
 11
160.8726008873
 21
103.0572907458
 31
0.0
  0
LINE
  5
19E
330
1F
100
AcDbEntity
  8
0
  6
HIDDEN
 62
     7
370
     0
100
AcDbLine
 10
169.6363721117
 20
118.8828422287
 30
0.0
 11
169.6363721117
 21
117.8591488756
 31
0.0
  0
LINE
  5
19F
330
1F
100
AcDbEntity
  8
0
  6
HIDDEN
 62
     7
370
     0
100
AcDbLine
 10
174.6363721117
 20
117.8591488756
 30
0.0
 11
174.6363721117
 21
118.8828422287
 31
0.0
  0
DIMENSION
  5
1A0
330
1F
100
AcDbEntity
  8
VERMASSUNG
100
AcDbDimension
  2
_D
 10
84.4831153967
 20
141.4071805433
 30
0.0
 11
84.4831153967
 21
109.9071805433
 31
0.0
 70
   160
  1
MAS-BT 40 %%c<>
 71
     2
 42
-1.0
  3
SLDDIMSTYLE0
100
AcDbAlignedDimension
 13
181.5363721117
 23
78.4071805433
 33
0.0
 14
181.5363721117
 24
141.4071805433
 34
0.0
 50
90.0
100
AcDbRotatedDimension
  0
DIMENSION
  5
1AD
330
1F
100
AcDbEntity
  8
VERMASSUNG
100
AcDbDimension
  2
_D_1
 10
209.5363721117
 20
158.8912934791
 30
0.0
 11
149.8363721117
 21
158.8912934791
 31
0.0
 70
   160
  1
<>
 71
     2
 42
-1.0
  3
SLDDIMSTYLE0
100
AcDbAlignedDimension
 13
90.1363721117
 23
121.7299361403
 33
0.0
 14
209.5363721117
 24
134.4071805433
 34
0.0
100
AcDbRotatedDimension
  0
DIMENSION
  5
1B7
330
1F
100
AcDbEntity
  8
VERMASSUNG
100
AcDbDimension
  2
_D_2
 10
209.5363721117
 20
152.8912934791
 30
0.0
 11
182.5363721117
 21
152.8912934791
 31
0.0
 70
   160
  1
<>
 71
     2
 42
-1.0
  3
SLDDIMSTYLE0
100
AcDbAlignedDimension
 13
155.5363721117
 23
132.1321805433
 33
0.0
 14
209.5363721117
 24
134.4071805433
 34
0.0
100
AcDbRotatedDimension
  0
DIMENSION
  5
1C1
330
1F
100
AcDbEntity
  8
VERMASSUNG
100
AcDbDimension
  2
_D_3
 10
209.5363721117
 20
146.8912934791
 30
0.0
 11
196.0363721117
 21
146.8912934791
 31
0.0
 70
   160
  1
<>
 71
     2
 42
-1.0
  3
SLDDIMSTYLE0
100
AcDbAlignedDimension
 13
182.5363721117
 23
140.4071805433
 33
0.0
 14
209.5363721117
 24
134.4071805433
 34
0.0
100
AcDbRotatedDimension
  0
DIMENSION
  5
1CB
330
1F
100
AcDbEntity
  8
VERMASSUNG
100
AcDbDimension
  2
_D_4
 10
216.5828556737
 20
95.9071805433
 30
0.0
 11
216.5828556737
 21
109.9071805433
 31
0.0
 70
   160
  1
%%c<>
 71
     2
 42
-1.0
  3
SLDDIMSTYLE0
100
AcDbAlignedDimension
 13
208.5363721117
 23
123.9071805433
 33
0.0
 14
208.5363721117
 24
95.9071805433
 34
0.0
 50
90.0
100
AcDbRotatedDimension
  0
DIMENSION
  5
1D6
330
1F
100
AcDbEntity
  8
VERMASSUNG
100
AcDbDimension
  2
_D_5
 10
222.5828556737
 20
84.9071805433
 30
0.0
 11
222.5828556737
 21
109.9071805433
 31
0.0
 70
   160
  1
WH%%c<>
 71
     2
 42
-1.0
  3
SLDDIMSTYLE0
100
AcDbAlignedDimension
 13
209.0363721117
 23
134.9071805433
 33
0.0
 14
209.0363721117
 24
84.9071805433
 34
0.0
 50
90.0
100
AcDbRotatedDimension
  0
LINE
  5
1E2
330
1F
100
AcDbEntity
  8
VERMASSUNG
  6
CENTERX2
370
     0
100
AcDbLine
 10
170.4863721117
 20
143.0934001368
 30
0.0
 11
170.4863721117
 21
127.5851823766
 31
0.0
  0
LINE
  5
1E3
330
1F
100
AcDbEntity
  8
VERMASSUNG
  6
CENTERX2
370
     0
100
AcDbLine
 10
170.4863721117
 20
76.7209249256
 30
0.0
 11
170.4863721117
 21
92.2291555873
 31
0.0
  0
LINE
  5
1E4
330
1F
100
AcDbEntity
  8
VERMASSUNG
  6
CENTERX2
370
     0
100
AcDbLine
 10
88.442817952
 20
109.9071805433
 30
0.0
 11
211.0427938326
 21
109.9071805433
 31
0.0
  0
LINE
  5
1E5
330
1F
100
AcDbEntity
  8
0
  6
Continuous
 62
     7
370
    15
100
AcDbLine
 10
257.6912660246
 20
43.4558157936
 30
0.0
 11
257.6205438568
 21
43.4966561031
 31
0.0
  0
LINE
  5
1E6
330
1F
100
AcDbEntity
  8
0
  6
Continuous
 62
     7
370
    15
100
AcDbLine
 10
253.8722689639
 20
43.4966561031
 30
0.0
 11
253.8015467961
 21
43.4558157936
 31
0.0
  0
LINE
  5
1E7
330
1F
100
AcDbEntity
  8
0
  6
Continuous
 62
     7
370
    15
100
AcDbLine
 10
258.9660926952
 20
32.6219321134
 30
0.0
 11
261.5151203698
 21
33.1412774128
 31
0.0
  0
LINE
  5
1E8
330
1F
100
AcDbEntity
  8
0
  6
Continuous
 62
     7
370
    15
100
AcDbLine
 10
260.5384914121
 20
19.9512910312
 30
0.0
 11
260.7152393762
 21
20.0533586314
 31
0.0
  0
LINE
  5
1E9
330
1F
100
AcDbEntity
  8
0
  6
Continuous
 62
     7
370
    15
100
AcDbLine
 10
269.3758896177
 20
35.0556704079
 30
0.0
 11
269.3758896177
 21
35.2597724359
 31
0.0
  0
LINE
  5
1EA
330
1F
100
AcDbEntity
  8
0
  6
Continuous
 62
     7
370
    15
100
AcDbLine
 10
266.7865469319
 20
40.9828325167
 30
0.0
 11
258.4780422529
 21
45.7792301737
 31
0.0
  0
LINE
  5
1EB
330
1F
100
AcDbEntity
  8
0
  6
Continuous
 62
     7
370
    15
100
AcDbLine
 10
245.979058095
 20
24.1280086142
 30
0.0
 11
254.2875627739
 21
19.3316109572
 31
0.0
  0
SPLINE
  5
1EC
330
1F
100
AcDbEntity
  8
0
  6
Continuous
 62
     7
370
    15
100
AcDbSpline
210
0.0
220
0.0
230
1.0
 70
     8
 71
     3
 72
    14
 73
    10
 74
     0
 42
0.000000001
 43
0.00000001
 40
0.0
 40
0.0
 40
0.0
 40
0.0
 40
0.1178911503663855
 40
0.2846138693176659
 40
0.4523710280723994
 40
0.6211959834584456
 40
0.7909423773124016
 40
0.9613727844433093
 40
1.0
 40
1.0
 40
1.0
 40
1.0
 10
244.4437063254856
 20
21.54000107699477
 30
0.0
 10
244.6229239971824
 20
21.49689259800054
 30
0.0
 10
245.0555929026361
 20
21.39281972256573
 30
0.0
 10
245.7845198890332
 20
21.33754813400706
 30
0.0
 10
246.6189383345752
 20
21.35929811160726
 30
0.0
 10
247.482872096464
 20
21.47797017264511
 30
0.0
 10
248.3695379364438
 20
21.69830497324841
 30
0.0
 10
249.0377795036279
 20
21.91068967869723
 30
0.0
 10
249.4101315852987
 20
22.07687039440794
 30
0.0
 10
249.4789304357629
 20
22.10757531798164
 30
0.0
  0
SPLINE
  5
1ED
330
1F
100
AcDbEntity
  8
0
  6
Continuous
 62
     7
370
    15
100
AcDbSpline
210
0.0
220
0.0
230
1.0
 70
     8
 71
     3
 72
    14
 73
    10
 74
     0
 42
0.000000001
 43
0.00000001
 40
0.0
 40
0.0
 40
0.0
 40
0.0
 40
0.033577264411563
 40
0.2051383301598764
 40
0.3765087841958453
 40
0.547468591948412
 40
0.7177464938447049
 40
0.8870703942708583
 40
0.9999999999999999
 40
0.9999999999999999
 40
0.9999999999999999
 40
0.9999999999999999
 10
261.9786404136953
 20
43.75837787054211
 30
0.0
 10
261.9719659477315
 20
43.82356351608892
 30
0.0
 10
261.9311886888776
 20
44.22181139935783
 30
0.0
 10
261.7826321405385
 20
44.90292234180443
 30
0.0
 10
261.5294507419477
 20
45.79042242894886
 30
0.0
 10
261.1968526491304
 20
46.60824920002997
 30
0.0
 10
260.7923706999248
 20
47.35152779455942
 30
0.0
 10
260.3793641636653
 20
47.95452806596475
 30
0.0
 10
260.0744622640356
 20
48.27298694859478
 30
0.0
 10
259.9524710378494
 20
48.40040232261875
 30
0.0
  0
LINE
  5
1EE
330
1F
100
AcDbEntity
  8
0
  6
Continuous
 62
     7
370
    15
100
AcDbLine
 10
241.3931805082
 20
23.0227042956
 30
0.0
 11
242.9399765921
 21
22.1297579233
 31
0.0
  0
LINE
  5
1EF
330
1F
100
AcDbEntity
  8
0
  6
Continuous
 62
     7
370
    15
100
AcDbLine
 10
258.6886966311
 20
49.4102970883
 30
0.0
 11
257.1419005472
 21
50.3032434606
 31
0.0
  0
SPLINE
  5
1F0
330
1F
100
AcDbEntity
  8
0
  6
Continuous
 62
     7
370
    15
100
AcDbSpline
210
0.0
220
0.0
230
1.0
 70
     8
 71
     3
 72
    27
 73
    23
 74
     0
 42
0.000000001
 43
0.00000001
 40
0.0
 40
0.0
 40
0.0
 40
0.0
 40
0.0399616696667788
 40
0.0950370509996989
 40
0.1486350630690889
 40
0.2007312206472305
 40
0.2519225739370942
 40
0.3027110260409102
 40
0.353388471995888
 40
0.4040698821478431
 40
0.4548258968619429
 40
0.5056786933438461
 40
0.5566218127952623
 40
0.6076354187082686
 40
0.6586939018839266
 40
0.7097693521948005
 40
0.7608287123874055
 40
0.8118373444653503
 40
0.8627661325227881
 40
0.9135875048400481
 40
0.9642789822187066
 40
0.9999999999999999
 40
0.9999999999999999
 40
0.9999999999999999
 40
0.9999999999999999
 10
256.7992919688205
 20
24.24563833297641
 30
0.0
 10
256.7071288805506
 20
24.30510822403303
 30
0.0
 10
256.4879461438622
 20
24.44653982877883
 30
0.0
 10
256.2030248947336
 20
24.77231726096229
 30
0.0
 10
255.9411568421002
 20
25.20409645804924
 30
0.0
 10
255.7450292519733
 20
25.71211355184001
 30
0.0
 10
255.6144827648539
 20
26.28405642492288
 30
0.0
 10
255.5514580196036
 20
26.91391244084408
 30
0.0
 10
255.5572582401094
 20
27.59352745927504
 30
0.0
 10
255.6327846250207
 20
28.31363182006254
 30
0.0
 10
255.7778561167046
 20
29.06369085819246
 30
0.0
 10
255.9911419446181
 20
29.83253817914458
 30
0.0
 10
256.2700778370502
 20
30.60848398408958
 30
0.0
 10
256.6108919318148
 20
31.37961718892448
 30
0.0
 10
257.0086794412484
 20
32.13408077504848
 30
0.0
 10
257.4574829815326
 20
32.86026609284992
 30
0.0
 10
257.9503857900438
 20
33.54706779239205
 30
0.0
 10
258.4796074495368
 20
34.18390675520647
 30
0.0
 10
259.0367012907739
 20
34.76168480464779
 30
0.0
 10
259.6124194777184
 20
35.27019190491014
 30
0.0
 10
260.1407172218694
 20
35.665884591914
 30
0.0
 10
260.4729288767957
 20
35.86711867966505
 30
0.0
 10
260.6102578407472
 20
35.95030440892158
 30
0.0
  0
SPLINE
  5
1F1
330
1F
100
AcDbEntity
  8
0
  6
Continuous
 62
     7
370
    15
100
AcDbSpline
210
0.0
220
0.0
230
1.0
 70
     8
 71
     3
 72
    14
 73
    10
 74
     0
 42
0.000000001
 43
0.00000001
 40
0.0
 40
0.0
 40
0.0
 40
0.0
 40
0.0823556180071697
 40
0.239508029072351
 40
0.3965680833308993
 40
0.5539668633873521
 40
0.7126968708351548
 40
0.8743435894290531
 40
1.0
 40
1.0
 40
1.0
 40
1.0
 10
260.6102578407472
 20
35.95030440892158
 30
0.0
 10
260.7113980544382
 20
36.00651328728267
 30
0.0
 10
261.0055357687467
 20
36.16998091703756
 30
0.0
 10
261.484728091149
 20
36.37662935229652
 30
0.0
 10
262.0326071610363
 20
36.53913695926301
 30
0.0
 10
262.5504550816187
 20
36.61434049499906
 30
0.0
 10
263.0305433383171
 20
36.60209998653799
 30
0.0
 10
263.4402174289596
 20
36.52308207030836
 30
0.0
 10
263.6673564170758
 20
36.41115792994361
 30
0.0
 10
263.7666991218712
 20
36.36220619810778
 30
0.0
  0
LINE
  5
1F2
330
1F
100
AcDbEntity
  8
0
  6
Continuous
 62
     7
370
    15
100
AcDbLine
 10
253.5886889718
 20
52.3544688415
 30
0.0
 11
250.5569686474
 21
54.1046437312
 31
0.0
  0
SPLINE
  5
1F3
330
1F
100
AcDbEntity
  8
0
  6
Continuous
 62
     7
370
    15
100
AcDbSpline
210
0.0
220
0.0
230
1.0
 70
     8
 71
     3
 72
    31
 73
    27
 74
     0
 42
0.000000001
 43
0.00000001
 40
0.0
 40
0.0
 40
0.0
 40
0.0
 40
0.039621308794287
 40
0.0817320545073413
 40
0.1241106274718163
 40
0.1667532974967846
 40
0.2096157690052393
 40
0.2526360152946532
 40
0.2957532968829245
 40
0.3389186297236298
 40
0.3820950489194806
 40
0.4252589794936992
 40
0.46840145516479
 40
0.5115193559945982
 40
0.554613236044624
 40
0.5976858445699997
 40
0.6407411833402923
 40
0.6837839377990382
 40
0.7268191528819771
 40
0.7698520607461431
 40
0.8128876167949799
 40
0.8559298114434917
 40
0.8989840730411294
 40
0.9420558070823383
 40
0.9851502771087401
 40
0.9999999999999999
 40
0.9999999999999999
 40
0.9999999999999999
 40
0.9999999999999999
 10
249.0598255545823
 20
54.70077437156387
 30
0.0
 10
248.8186091028215
 20
54.75219059096361
 30
0.0
 10
248.3210203864631
 20
54.85825354987192
 30
0.0
 10
247.522778016212
 20
54.90050512848884
 30
0.0
 10
246.6809870486285
 20
54.85611087940144
 30
0.0
 10
245.8113244597275
 20
54.71415022598102
 30
0.0
 10
244.9206290693839
 20
54.47781610070159
 30
0.0
 10
244.0148323575932
 20
54.14779372292207
 30
0.0
 10
243.1004334864143
 20
53.72659252233557
 30
0.0
 10
242.1838192854181
 20
53.21727238444358
 30
0.0
 10
241.2712659371284
 20
52.62362506914886
 30
0.0
 10
240.3688280241871
 20
51.94995555851931
 30
0.0
 10
239.4823366887986
 20
51.20100628822827
 30
0.0
 10
238.6174183299598
 20
50.38189880132392
 30
0.0
 10
237.7795368273623
 20
49.49813695009776
 30
0.0
 10
236.9739826523351
 20
48.55558358242985
 30
0.0
 10
236.2058527873011
 20
47.56043510786228
 30
0.0
 10
235.4800274147925
 20
46.51919192890672
 30
0.0
 10
234.8011351597797
 20
45.43862203642502
 30
0.0
 10
234.173552647255
 20
44.32573087815702
 30
0.0
 10
233.6012843962632
 20
43.18770599977434
 30
0.0
 10
233.0882902219989
 20
42.03194139585409
 30
0.0
 10
232.6371138393347
 20
40.86568005484377
 30
0.0
 10
232.2538992878169
 20
39.69709564042513
 30
0.0
 10
232.0005021267932
 20
38.78599952436361
 30
0.0
 10
231.8867729962563
 20
38.26956412556527
 30
0.0
 10
231.8576269164147
 20
38.13721397661608
 30
0.0
  0
LINE
  5
1F4
330
1F
100
AcDbEntity
  8
0
  6
Continuous
 62
     7
370
    15
100
AcDbLine
 10
241.5504904934
 20
52.7908098645
 30
0.0
 11
221.65747097
 21
59.9594655687
 31
0.0
  0
LINE
  5
1F5
330
1F
100
AcDbEntity
  8
0
  6
Continuous
 62
     7
370
    15
100
AcDbLine
 10
215.2860015586
 20
48.9225609577
 30
0.0
 11
234.313875645
 21
32.8555813803
 31
0.0
  0
LINE
  5
1F6
330
1F
100
AcDbEntity
  8
0
  6
Continuous
 62
     7
370
    15
100
AcDbLine
 10
234.8082486084
 20
26.8241045663
 30
0.0
 11
237.8399689328
 21
25.0739296765
 31
0.0
  0
SPLINE
  5
1F7
330
1F
100
AcDbEntity
  8
0
  6
Continuous
 62
     7
370
    15
100
AcDbSpline
210
0.0
220
0.0
230
1.0
 70
     8
 71
     3
 72
    12
 73
     8
 74
     0
 42
0.000000001
 43
0.00000001
 40
0.0
 40
0.0
 40
0.0
 40
0.0
 40
0.080843718943489
 40
0.3227039237445168
 40
0.5638986797775689
 40
0.8038037243623193
 40
1.0
 40
1.0
 40
1.0
 40
1.0
 10
231.845018227321
 20
30.89083678007557
 30
0.0
 10
231.8736437324114
 20
30.79260432229349
 30
0.0
 10
231.9879081790813
 20
30.40048975879219
 30
0.0
 10
232.240530717963
 20
29.75939231902559
 30
0.0
 10
232.6314002897824
 20
29.00206280143853
 30
0.0
 10
233.0592893116676
 20
28.35485159457278
 30
0.0
 10
233.386307066056
 20
27.99972955015463
 30
0.0
 10
233.5334280732698
 20
27.83996479072638
 30
0.0
  0
SPLINE
  5
1F8
330
1F
100
AcDbEntity
  8
0
  6
Continuous
 62
     7
370
    15
100
AcDbSpline
210
0.0
220
0.0
230
1.0
 70
     8
 71
     3
 72
    25
 73
    21
 74
     0
 42
0.000000001
 43
0.00000001
 40
0.0
 40
0.0
 40
0.0
 40
0.0
 40
0.0333577104700368
 40
0.0887768915458268
 40
0.1452004606039748
 40
0.2027887059325798
 40
0.2612993771215977
 40
0.3203259364499876
 40
0.3795169970656934
 40
0.4386506694187138
 40
0.4976782556562464
 40
0.5566054513852589
 40
0.6154628315212841
 40
0.6742912600645882
 40
0.7331357734201538
 40
0.7920284861096858
 40
0.8510167595871929
 40
0.9101474451418875
 40
0.9694604150355839
 40
1.0
 40
1.0
 40
1.0
 40
1.0
 10
221.484159481214
 20
60.00259581418239
 30
0.0
 10
221.385245166231
 20
60.03182727192245
 30
0.0
 10
221.1219985198083
 20
60.10962271762146
 30
0.0
 10
220.6563892976211
 20
60.12959899367038
 30
0.0
 10
220.1003407521949
 20
60.07368328192446
 30
0.0
 10
219.5215485105031
 20
59.91871388436208
 30
0.0
 10
218.9303425341801
 20
59.67102508230429
 30
0.0
 10
218.3365391465612
 20
59.33272602279409
 30
0.0
 10
217.7512288028202
 20
58.91060813489599
 30
0.0
 10
217.1844989715862
 20
58.41270213558111
 30
0.0
 10
216.6453906816759
 20
57.84806818840267
 30
0.0
 10
216.1419888627834
 20
57.22617847824558
 30
0.0
 10
215.6817960109129
 20
56.55706741256627
 30
0.0
 10
215.2717525357152
 20
55.8512637050501
 30
0.0
 10
214.9181788988526
 20
55.11973011599121
 30
0.0
 10
214.6268124380719
 20
54.37374327043019
 30
0.0
 10
214.4021919665304
 20
53.62441721476195
 30
0.0
 10
214.2497656004562
 20
52.88357645535381
 30
0.0
 10
214.1813470190025
 20
52.27746334558896
 30
0.0
 10
214.1752179548041
 20
51.92694019363361
 30
0.0
 10
214.1731347744523
 20
51.80780243958711
 30
0.0
  0
SPLINE
  5
1F9
330
1F
100
AcDbEntity
  8
0
  6
Continuous
 62
     7
370
    15
100
AcDbSpline
210
0.0
220
0.0
230
1.0
 70
     8
 71
     3
 72
    13
 73
     9
 74
     0
 42
0.000000001
 43
0.00000001
 40
0.0
 40
0.0
 40
0.0
 40
0.0
 40
0.1043412342946585
 40
0.301655808070682
 40
0.4990049681465095
 40
0.6948144373748241
 40
0.8873793154613151
 40
1.0
 40
1.0
 40
1.0
 40
1.0
 10
214.1731347744523
 20
51.8078024395871
 30
0.0
 10
214.175346207042
 20
51.68688299034192
 30
0.0
 10
214.1817395709825
 20
51.33729872080463
 30
0.0
 10
214.2534961962519
 20
50.79060781014515
 30
0.0
 10
214.4143457031116
 20
50.19253855757519
 30
0.0
 10
214.6589740506382
 20
49.66420258825785
 30
0.0
 10
214.9263719884411
 20
49.2601230813592
 30
0.0
 10
215.1384937743457
 20
49.07063136458187
 30
0.0
 10
215.216771726057
 20
49.00070444315642
 30
0.0
  0
LWPOLYLINE
  5
1FA
330
1F
100
AcDbEntity
  8
0
  6
Continuous
 62
     7
370
    15
100
AcDbPolyline
 90
       25
 70
   128
 43
0.0
 10
257.6355309489
 20
41.3422506741
 10
257.9541859769
 20
41.5689737695
 10
258.2106721021
 20
41.8524519074
 10
258.3594579917
 20
42.1605200801
 10
258.3940409883
 20
42.4797142303
 10
258.3129096492
 20
42.796084042
 10
258.119609803
 20
43.0958026363
 10
257.8225895807
 20
43.3657708724
 10
257.4348301913
 20
43.5941898429
 10
256.9732785806
 20
43.7710765428
 10
256.4581067689
 20
43.8887001744
 10
255.9118302365
 20
43.9419200207
 10
255.358323889
 20
43.928410119
 10
254.8217786099
 20
43.8487609168
 10
254.3256440026
 20
43.7064534664
 10
253.8916035301
 20
43.5077072864
 10
253.5386268438
 20
43.2612085384
 10
253.2821407186
 20
42.9777304006
 10
253.133354829
 20
42.6696622278
 10
253.0987718323
 20
42.3504680776
 10
253.1799031715
 20
42.0340982659
 10
253.3732030176
 20
41.7343796716
 10
253.6702232399
 20
41.4644114355
 10
254.0579826294
 20
41.235992465
 10
254.1987394033
 20
41.1732881435
  0
LWPOLYLINE
  5
1FB
330
1F
100
AcDbEntity
  8
0
  6
Continuous
 62
     7
370
    15
100
AcDbPolyline
 90
       25
 70
   128
 43
0.0
 10
257.2460302669
 20
41.8403699117
 10
257.4526002266
 20
42.084016444
 10
257.5428958973
 20
42.3502251706
 10
257.5107637783
 20
42.6208544069
 10
257.3583936205
 20
42.8774612174
 10
257.0961691982
 20
43.1025582723
 10
256.7419606725
 20
43.2808055791
 10
256.3199067691
 20
43.4000558785
 10
255.8587697639
 20
43.4521824597
 10
255.3899753819
 20
43.4336329822
 10
254.9454711855
 20
43.3456715624
 10
254.5555494011
 20
43.1942926256
 10
254.2467825538
 20
42.9898123962
 10
254.0402125941
 20
42.7461658639
 10
253.9499169234
 20
42.4799571373
 10
253.9820490424
 20
42.2093279011
 10
254.1344192002
 20
41.9527210905
 10
254.3966436225
 20
41.7276240357
 10
254.7508521482
 20
41.5493767288
 10
255.1729060516
 20
41.4301264294
 10
255.6340430568
 20
41.3779998482
 10
256.1028374387
 20
41.3965493257
 10
256.5473416352
 20
41.4845107455
 10
256.9372634196
 20
41.6358896823
 10
257.2460302669
 20
41.8403699117
  0
SPLINE
  5
1FC
330
1F
100
AcDbEntity
  8
0
  6
Continuous
 62
     7
370
    15
100
AcDbSpline
210
0.0
220
0.0
230
1.0
 70
     8
 71
     3
 72
    11
 73
     7
 74
     0
 42
0.000000001
 43
0.00000001
 40
0.0
 40
0.0
 40
0.0
 40
0.0
 40
0.2164553779443442
 40
0.4403112895790677
 40
0.7519005688038877
 40
1.0
 40
1.0
 40
1.0
 40
1.0
 10
257.4750792251706
 20
42.29719054366208
 30
0.0
 10
257.4222855092908
 20
42.31416791795513
 30
0.0
 10
257.3148930788438
 20
42.34870311703233
 30
0.0
 10
257.115601410673
 20
42.50503795378685
 30
0.0
 10
256.9018253478201
 20
42.79876636486877
 30
0.0
 10
256.7650215047569
 20
43.07166926118354
 30
0.0
 10
256.704378945746
 20
43.19264195919732
 30
0.0
  0
SPLINE
  5
1FD
330
1F
100
AcDbEntity
  8
0
  6
Continuous
 62
     7
370
    15
100
AcDbSpline
210
0.0
220
0.0
230
1.0
 70
     8
 71
     3
 72
    11
 73
     7
 74
     0
 42
0.000000001
 43
0.00000001
 40
0.0
 40
0.0
 40
0.0
 40
0.0
 40
0.2164553779443484
 40
0.4403112895790635
 40
0.7519005688038771
 40
1.0
 40
1.0
 40
1.0
 40
1.0
 10
256.704378945746
 20
43.19264195919731
 30
0.0
 10
256.5859631830019
 20
43.15255569091686
 30
0.0
 10
256.3450830639883
 20
43.07101261885924
 30
0.0
 10
255.8980738981875
 20
43.01193718697036
 30
0.0
 10
255.4185763838104
 20
43.07459944485427
 30
0.0
 10
255.1117267682328
 20
43.19963387854752
 30
0.0
 10
254.9757061309213
 20
43.25505928074278
 30
0.0
  0
SPLINE
  5
1FE
330
1F
100
AcDbEntity
  8
0
  6
Continuous
 62
     7
370
    15
100
AcDbSpline
210
0.0
220
0.0
230
1.0
 70
     8
 71
     3
 72
    11
 73
     7
 74
     0
 42
0.000000001
 43
0.00000001
 40
0.0
 40
0.0
 40
0.0
 40
0.0
 40
0.184930816824607
 40
0.5198464202157755
 40
0.8714438233692645
 40
1.0
 40
1.0
 40
1.0
 40
1.0
 10
254.9757061309213
 20
43.25505928074278
 30
0.0
 10
254.9199474485886
 20
43.16835619612441
 30
0.0
 10
254.7632080154085
 20
42.92463106185824
 30
0.0
 10
254.4706239315118
 20
42.59083580257363
 30
0.0
 10
254.2004105589735
 20
42.45305676542611
 30
0.0
 10
254.0563139726755
 20
42.42857888671755
 30
0.0
 10
254.0177335955213
 20
42.42202518675302
 30
0.0
  0
SPLINE
  5
1FF
330
1F
100
AcDbEntity
  8
0
  6
Continuous
 62
     7
370
    15
100
AcDbSpline
210
0.0
220
0.0
230
1.0
 70
     8
 71
     3
 72
    10
 73
     6
 74
     0
 42
0.000000001
 43
0.00000001
 40
0.0
 40
0.0
 40
0.0
 40
0.0
 40
0.325407153679186
 40
0.6619398641671868
 40
1.0
 40
1.0
 40
1.0
 40
1.0
 10
254.0177335955213
 20
42.42202518675302
 30
0.0
 10
254.0704645299506
 20
42.31702169082858
 30
0.0
 10
254.1777292510206
 20
42.10342466616751
 30
0.0
 10
254.3550208856834
 20
41.82109770625197
 30
0.0
 10
254.4743625880094
 20
41.72201230296509
 30
0.0
 10
254.5341685469946
 20
41.67235742583899
 30
0.0
  0
SPLINE
  5
200
330
1F
100
AcDbEntity
  8
0
  6
Continuous
 62
     7
370
    15
100
AcDbSpline
210
0.0
220
0.0
230
1.0
 70
     8
 71
     3
 72
    10
 73
     6
 74
     0
 42
0.000000001
 43
0.00000001
 40
0.0
 40
0.0
 40
0.0
 40
0.0
 40
0.2256060431217024
 40
0.7245161235695332
 40
1.0
 40
1.0
 40
1.0
 40
1.0
 10
256.8288194023854
 20
41.5940136648814
 30
0.0
 10
256.8777034355868
 20
41.61653237807155
 30
0.0
 10
257.0346906764843
 20
41.68884946037374
 30
0.0
 10
257.2629932416918
 20
41.97018047102309
 30
0.0
 10
257.4194286846871
 20
42.21138436737727
 30
0.0
 10
257.4750792251706
 20
42.29719054366208
 30
0.0
  0
LINE
  5
201
330
1F
100
AcDbEntity
  8
0
  6
Continuous
 62
     7
370
    15
100
AcDbLine
 10
256.7043789457
 20
41.5353591116
 30
0.0
 11
256.7043789457
 21
43.1926419592
 31
0.0
  0
LINE
  5
202
330
1F
100
AcDbEntity
  8
0
  6
Continuous
 62
     7
370
    15
100
AcDbLine
 10
254.9757061309
 20
41.4760406217
 30
0.0
 11
254.9757061309
 21
43.2550592807
 31
0.0
  0
LWPOLYLINE
  5
203
330
1F
100
AcDbEntity
  8
0
  6
Continuous
 62
     7
370
    15
100
AcDbPolyline
 90
        7
 70
   128
 43
0.0
 10
259.3951813787
 20
32.920423152
 10
259.239935732
 20
32.7478345916
 10
258.9913306657
 20
32.627562153
 10
258.693726342
 20
32.6152576844
 10
258.3658223349
 20
32.7116943209
 10
258.0282220592
 20
32.9108125939
 10
257.7113130878
 20
33.1905217465
  0
LWPOLYLINE
  5
204
330
1F
100
AcDbEntity
  8
0
  6
Continuous
 62
     7
370
    15
100
AcDbPolyline
 90
       65
 70
   128
 43
0.0
 10
260.7138315482
 20
40.0577956686
 10
259.8648013868
 20
39.5194956162
 10
259.0239478501
 20
38.8900489413
 10
258.1993688171
 20
38.1755175595
 10
257.3990054348
 20
37.3827827987
 10
256.63056564
 20
36.5194791279
 10
255.9014499281
 20
35.5939206334
 10
255.2186800818
 20
34.6150209495
 10
254.5888315482
 20
33.5922074152
 10
254.0179701128
 20
32.535330284
 10
253.5115934834
 20
31.4545678605
 10
253.0745783436
 20
30.3603284776
 10
252.7111333883
 20
29.2631502586
 10
252.424758791
 20
28.1735996297
 10
252.2182124956
 20
27.102169559
 10
252.0934836558
 20
26.0591785038
 10
252.0517734786
 20
25.0546710381
 10
252.0934836558
 20
24.0983211179
 10
252.2182124956
 20
23.1993389157
 10
252.424758791
 20
22.3663821217
 10
252.7111333883
 20
21.6074725649
 10
253.0745783436
 20
20.9299189595
 10
253.5115934834
 20
20.3402465168
 10
254.0179701128
 20
19.844134105
 10
254.5888315482
 20
19.4463595578
 10
255.2186800818
 20
19.1507536614
 10
255.9014499281
 20
18.9601632623
 10
256.63056564
 20
18.8764238502
 10
257.3990054348
 20
18.9003418814
 10
258.1993688171
 20
19.0316870122
 10
259.0239478501
 20
19.2691943172
 10
259.8648013868
 20
19.6105764712
 10
260.7138315482
 20
20.0525457774
 10
261.5628617095
 20
20.5908458299
 10
262.4037152463
 20
21.2202925047
 10
263.2282942793
 20
21.9348238865
 10
264.0286576616
 20
22.7275586473
 10
264.7970974564
 20
23.5908623182
 10
265.5262131683
 20
24.5164208126
 10
266.2089830145
 20
25.4953204966
 10
266.8388315482
 20
26.5181340308
 10
267.4096929836
 20
27.575011162
 10
267.916069613
 20
28.6557735855
 10
268.3530847527
 20
29.7500129685
 10
268.716529708
 20
30.8471911874
 10
269.0029043054
 20
31.9367418163
 10
269.2094506008
 20
33.008171887
 10
269.3341794405
 20
34.0511629422
 10
269.3758896177
 20
35.0556704079
 10
269.3341794405
 20
36.0120203281
 10
269.2094506008
 20
36.9110025303
 10
269.0029043054
 20
37.7439593244
 10
268.716529708
 20
38.5028688811
 10
268.3530847527
 20
39.1804224866
 10
267.916069613
 20
39.7700949292
 10
267.4096929836
 20
40.266207341
 10
266.8388315482
 20
40.6639818882
 10
266.2089830145
 20
40.9595877846
 10
265.5262131683
 20
41.1501781837
 10
264.7970974564
 20
41.2339175958
 10
264.0286576616
 20
41.2099995646
 10
263.2282942793
 20
41.0786544338
 10
262.4037152463
 20
40.8411471288
 10
261.5628617095
 20
40.4997649748
 10
260.7138315482
 20
40.0577956686
  0
LWPOLYLINE
  5
205
330
1F
100
AcDbEntity
  8
0
  6
Continuous
 62
     7
370
    15
100
AcDbPolyline
 90
       34
 70
   128
 43
0.0
 10
260.5370548529
 20
40.3639818856
 10
259.6839842534
 20
39.8238658262
 10
258.8388785443
 20
39.1934949156
 10
258.0096282498
 20
38.4787547569
 10
257.2039758565
 20
37.6863186866
 10
256.4294435238
 20
36.8235854666
 10
255.6932628513
 20
35.8986102047
 10
255.0023073597
 20
34.9200291456
 10
254.3630283141
 20
33.8969790369
 10
253.7813944908
 20
32.839011822
 10
253.2628364481
 20
31.7560054556
 10
252.8121958228
 20
30.6580716765
 10
252.4336801248
 20
29.5554615963
 10
252.1308234533
 20
28.4584699885
 10
251.9064534995
 20
27.377339168
 10
251.7626651451
 20
26.3221633621
 10
251.7008009034
 20
25.302794463
 10
251.7214383839
 20
24.3287500433
 10
251.8243849001
 20
23.4091244935
 10
252.0086792683
 20
22.5525041094
 10
252.2726007814
 20
21.7668869248
 10
252.6136852754
 20
21.0596080358
 10
253.0287481363
 20
20.4372711146
 10
253.5139140341
 20
19.9056867535
 10
254.0646531054
 20
19.4698182125
 10
254.6758232479
 20
19.1337350785
 10
255.3417181307
 20
18.9005752694
 10
256.0561204726
 20
18.7725157354
 10
256.8123600916
 20
18.7507521339
 10
257.6033761819
 20
18.8354876658
 10
258.4217832396
 20
19.0259311782
 10
259.2599400184
 20
19.3203045515
 10
260.1100208743
 20
19.7158593006
 10
260.5384914121
 20
19.9512910312
  0
LWPOLYLINE
  5
206
330
1F
100
AcDbEntity
  8
0
  6
Continuous
 62
     7
370
    15
100
AcDbPolyline
 90
       18
 70
   128
 43
0.0
 10
269.3758896177
 20
35.2597724359
 10
269.3733088024
 20
35.5049161148
 10
269.3114445606
 20
36.4528580808
 10
269.1676562063
 20
37.3420193865
 10
268.9432862524
 20
38.1640981723
 10
268.640429581
 20
38.9114189102
 10
268.261913883
 20
39.5770040678
 10
267.8112732576
 20
40.1546392558
 10
267.292715215
 20
40.6389312501
 10
266.7110813917
 20
41.0253583468
 10
266.0718023461
 20
41.3103125802
 10
265.3808468545
 20
41.4911334095
 10
264.644666182
 20
41.5661325592
 10
263.8701338492
 20
41.5346097826
 10
263.064481456
 20
41.3968593992
 10
262.2352311615
 20
41.1541675474
 10
261.3901254524
 20
40.8088001755
 10
260.5370548529
 20
40.3639818856
  0
SPLINE
  5
207
330
1F
100
AcDbEntity
  8
0
  6
Continuous
 62
     7
370
    15
100
AcDbSpline
210
0.0
220
0.0
230
1.0
 70
    11
 71
     3
 72
    95
 73
    91
 74
     0
 42
0.000000001
 43
0.00000001
 40
0.0
 40
0.0
 40
0.0
 40
0.0
 40
0.0312500000000018
 40
0.0312500000000018
 40
0.0468750000000027
 40
0.0468750000000027
 40
0.0625000000000036
 40
0.0625000000000036
 40
0.093750000000005
 40
0.093750000000005
 40
0.1093750000000055
 40
0.1093750000000055
 40
0.1250000000000059
 40
0.1250000000000059
 40
0.1562500000000073
 40
0.1562500000000073
 40
0.171875000000008
 40
0.171875000000008
 40
0.1875000000000087
 40
0.1875000000000087
 40
0.2187500000000096
 40
0.2187500000000096
 40
0.2343750000000099
 40
0.2343750000000099
 40
0.2500000000000101
 40
0.2500000000000101
 40
0.2812500000000106
 40
0.2812500000000106
 40
0.2968750000000107
 40
0.2968750000000107
 40
0.3125000000000107
 40
0.3125000000000107
 40
0.3437500000000107
 40
0.3437500000000107
 40
0.3593750000000107
 40
0.3593750000000107
 40
0.3750000000000107
 40
0.3906250000000108
 40
0.3906250000000108
 40
0.4062500000000108
 40
0.4062500000000108
 40
0.437500000000011
 40
0.437500000000011
 40
0.4531250000000112
 40
0.4531250000000112
 40
0.4687500000000113
 40
0.4687500000000113
 40
0.5000000000000112
 40
0.5000000000000112
 40
0.5312500000000111
 40
0.5312500000000111
 40
0.5468750000000109
 40
0.5468750000000109
 40
0.5625000000000108
 40
0.5625000000000108
 40
0.5937500000000102
 40
0.5937500000000102
 40
0.6250000000000097
 40
0.6250000000000097
 40
0.6562500000000092
 40
0.6562500000000092
 40
0.6875000000000087
 40
0.6875000000000087
 40
0.7187500000000081
 40
0.7187500000000081
 40
0.7500000000000075
 40
0.7500000000000075
 40
0.7656250000000072
 40
0.7656250000000072
 40
0.7812500000000068
 40
0.7812500000000068
 40
0.8125000000000057
 40
0.8125000000000057
 40
0.8281250000000052
 40
0.8281250000000052
 40
0.8437500000000048
 40
0.8437500000000048
 40
0.875000000000004
 40
0.875000000000004
 40
0.8906250000000036
 40
0.8906250000000036
 40
0.9062500000000031
 40
0.9062500000000031
 40
0.9218750000000027
 40
0.9218750000000027
 40
0.9375000000000022
 40
0.9375000000000022
 40
0.9687500000000012
 40
0.9687500000000012
 40
1.0
 40
1.0
 40
1.0
 40
1.0
 10
255.713599970262
 20
44.90383106684138
 30
0.0
 10
255.9368782056519
 20
44.86720242495095
 30
0.0
 10
256.1543223473789
 20
44.81964204461603
 30
0.0
 10
256.4727725372723
 20
44.73508480229392
 30
0.0
 10
256.5776242260102
 20
44.70467002771864
 30
0.0
 10
256.7847747596435
 20
44.639648420794
 30
0.0
 10
256.887530598776
 20
44.60487082026014
 30
0.0
 10
257.1883070055882
 20
44.49576705440514
 30
0.0
 10
257.3780327166904
 20
44.41716565014161
 30
0.0
 10
257.6472027056726
 20
44.29172043573396
 30
0.0
 10
257.7343384026346
 20
44.24863243169892
 30
0.0
 10
257.9033567459995
 20
44.15994149039035
 30
0.0
 10
257.9855019655997
 20
44.1141631103456
 30
0.0
 10
258.2196304137566
 20
43.97547367234542
 30
0.0
 10
258.3607103710516
 20
43.88063760770537
 30
0.0
 10
258.5501259131559
 20
43.7344610169744
 30
0.0
 10
258.6095411361585
 20
43.68507144887019
 30
0.0
 10
258.72068818458
 20
43.58477081388692
 30
0.0
 10
258.7724889915461
 20
43.53373451244393
 30
0.0
 10
258.9131230888455
 20
43.38097833316226
 30
0.0
 10
258.9884520694398
 20
43.27870371087211
 30
0.0
 10
259.0732825742278
 20
43.12302711534356
 30
0.0
 10
259.096834636471
 20
43.0707519883474
 30
0.0
 10
259.1339701521812
 20
42.96507544456907
 30
0.0
 10
259.1474866875095
 20
42.91162686995226
 30
0.0
 10
259.1716353900861
 20
42.7526660118267
 30
0.0
 10
259.1665568266571
 20
42.64733987752399
 30
0.0
 10
259.1251837613538
 20
42.48834809398848
 30
0.0
 10
259.1057257217033
 20
42.43518414015242
 30
0.0
 10
259.0545216616813
 20
42.3281706333869
 30
0.0
 10
259.0229245401154
 20
42.27478967393006
 30
0.0
 10
258.911655879674
 20
42.1174555441314
 30
0.0
 10
258.8151814604364
 20
42.01512150336423
 30
0.0
 10
258.6344780684184
 20
41.86452587282689
 30
0.0
 10
258.5676228760949
 20
41.81447357651209
 30
0.0
 10
258.4248668949733
 20
41.71798692476052
 30
0.0
 10
258.2727821637902
 20
41.62470927926896
 30
0.0
 10
258.1024078420654
 20
41.53767573062608
 30
0.0
 10
257.9227772138153
 20
41.45385147092849
 30
0.0
 10
257.8277813083462
 20
41.41336450684477
 30
0.0
 10
257.5361635547387
 20
41.29997358548144
 30
0.0
 10
257.3312472379971
 20
41.23406162201453
 30
0.0
 10
257.0089010752645
 20
41.15009360969596
 30
0.0
 10
256.8992594877764
 20
41.12473888507042
 30
0.0
 10
256.6798613223752
 20
41.08021596601617
 30
0.0
 10
256.5695225512553
 20
41.06089080341072
 30
0.0
 10
256.2366149378086
 20
41.0117482640926
 30
0.0
 10
256.010168239284
 20
40.99072050377656
 30
0.0
 10
255.5668466978322
 20
40.97463796335319
 30
0.0
 10
255.3488653664406
 20
40.97920319639162
 30
0.0
 10
255.0269278265155
 20
41.00586050900404
 30
0.0
 10
254.9202367004243
 20
41.01813488452851
 30
0.0
 10
254.712270134484
 20
41.04906020172267
 30
0.0
 10
254.6105269913421
 20
41.0677332147088
 30
0.0
 10
254.3117762819538
 20
41.13340159286749
 30
0.0
 10
254.1211907695997
 20
41.1899839188489
 30
0.0
 10
253.7573510091847
 20
41.33039199831131
 30
0.0
 10
253.5883971333259
 20
41.41264728651675
 30
0.0
 10
253.2777137403399
 20
41.59943926336201
 30
0.0
 10
253.1354469059493
 20
41.70423572598617
 30
0.0
 10
252.8790500012165
 20
41.93668176584107
 30
0.0
 10
252.768443448034
 20
42.06108626862682
 30
0.0
 10
252.5816110108935
 20
42.3246449945949
 30
0.0
 10
252.5051965453453
 20
42.46421899481948
 30
0.0
 10
252.3904975410712
 20
42.75576015080787
 30
0.0
 10
252.3535982031715
 20
42.90388794302011
 30
0.0
 10
252.3293671070806
 20
43.12802467747708
 30
0.0
 10
252.3265133882547
 20
43.20306355215385
 30
0.0
 10
252.3318329116958
 20
43.35354236221146
 30
0.0
 10
252.3400948031383
 20
43.4294194607913
 30
0.0
 10
252.3822713787117
 20
43.65400756940522
 30
0.0
 10
252.432794196026
 20
43.79810662590286
 30
0.0
 10
252.5435925965849
 20
44.00391620011386
 30
0.0
 10
252.5864046600402
 20
44.07078805209347
 30
0.0
 10
252.6846459964285
 20
44.20061069514202
 30
0.0
 10
252.740285240301
 20
44.26360691437252
 30
0.0
 10
252.9217332066691
 20
44.44043994163803
 30
0.0
 10
253.0632814350533
 20
44.54428021477207
 30
0.0
 10
253.3073970489798
 20
44.67798694101923
 30
0.0
 10
253.3945538069911
 20
44.71895728687728
 30
0.0
 10
253.574736346345
 20
44.79118766738766
 30
0.0
 10
253.6682659599069
 20
44.82278071732322
 30
0.0
 10
253.8619726585514
 20
44.87735332460331
 30
0.0
 10
253.9621502898003
 20
44.90033193000992
 30
0.0
 10
254.1691495062306
 20
44.93788049838443
 30
0.0
 10
254.2754562446648
 20
44.9523022057615
 30
0.0
 10
254.5966907899909
 20
44.9827908459028
 30
0.0
 10
254.8161235093324
 20
44.98662765639411
 30
0.0
 10
255.2652482172134
 20
44.96539536345278
 30
0.0
 10
255.490321734872
 20
44.9404597087318
 30
0.0
 10
255.7135999702619
 20
44.90383106684138
 30
0.0
  0
ARC
  5
208
330
1F
100
AcDbEntity
  8
0
  6
Continuous
 62
     7
370
    15
100
AcDbCircle
 10
256.0113988835
 20
44.7725537855
 30
0.0
 40
5.353755168684781
100
AcDbArc
 50
43.6359469001
 51
76.3341348135
  0
ARC
  5
209
330
1F
100
AcDbEntity
  8
0
  6
Continuous
 62
     7
370
    15
100
AcDbCircle
 10
245.6167688243
 20
26.7665770771
 30
0.0
 40
5.352739929525248
100
AcDbArc
 50
223.690011534
 51
256.3478001937
  0
ARC
  5
20A
330
1F
100
AcDbEntity
  8
0
  6
Continuous
 62
     7
370
    15
100
AcDbCircle
 10
245.175006804
 20
28.7830494152
 30
0.0
 40
6.890847990551021
100
AcDbArc
 50
188.312493873
 51
236.7139908619
  0
SPLINE
  5
20B
330
1F
100
AcDbEntity
  8
0
  6
Continuous
 62
     7
370
    15
100
AcDbSpline
210
0.0
220
0.0
230
1.0
 70
     8
 71
     3
 72
    29
 73
    25
 74
     0
 42
0.000000001
 43
0.00000001
 40
0.0
 40
0.0
 40
0.0
 40
0.0
 40
0.0226170105025813
 40
0.0451713142227494
 40
0.067687022847175
 40
0.0901883721233939
 40
0.1126996441656912
 40
0.1352450890154609
 40
0.1578488467174853
 40
0.1805348711543707
 40
0.2033268568163237
 40
0.2262481695770471
 40
0.249321782405382
 40
0.3751991801869415
 40
0.4999614246460882
 40
0.4999717960762048
 40
0.6247044141129467
 40
0.750955787939839
 40
0.793171387116697
 40
0.834908104501548
 40
0.8763104515880161
 40
0.9175264576289888
 40
0.9587061619389432
 40
1.0
 40
1.0
 40
1.0
 40
1.0
 10
238.3567134266417
 20
32.94107927161583
 30
0.0
 10
238.3750786517646
 20
32.89223938181542
 30
0.0
 10
238.4117581835136
 20
32.79469501322938
 30
0.0
 10
238.4634480121785
 20
32.64723240382718
 30
0.0
 10
238.512629372001
 20
32.49929511430639
 30
0.0
 10
238.5591190419
 20
32.35080324907512
 30
0.0
 10
238.6030291383591
 20
32.20181128294281
 30
0.0
 10
238.6443943298146
 20
32.05233949436467
 30
0.0
 10
238.6832716165194
 20
31.9024193910559
 30
0.0
 10
238.719713461542
 20
31.75208058107462
 30
0.0
 10
238.7537754426293
 20
31.60135812944954
 30
0.0
 10
238.785512495727
 20
31.45027643271392
 30
0.0
 10
238.8586707675973
 20
31.07455522576656
 30
0.0
 10
238.9443473076273
 20
30.48578480405082
 30
0.0
 10
238.9700796694615
 20
29.98430120005242
 30
0.0
 10
238.970516825684
 20
29.51384837478881
 30
0.0
 10
238.9450857689688
 20
29.0674058449164
 30
0.0
 10
238.8531184529327
 20
28.63137917342248
 30
0.0
 10
238.7605645588895
 20
28.36318629080818
 30
0.0
 10
238.6969819350018
 20
28.21693517997828
 30
0.0
 10
238.6253364309663
 20
28.08601484813391
 30
0.0
 10
238.545081656653
 20
27.97056851568174
 30
0.0
 10
238.4566799970575
 20
27.86904651123243
 30
0.0
 10
238.3903233431452
 20
27.81404763426529
 30
0.0
 10
238.3570991012593
 20
27.78651013977034
 30
0.0
  0
LWPOLYLINE
  5
20C
330
1F
100
AcDbEntity
  8
0
  6
Continuous
 62
     7
370
    15
100
AcDbPolyline
 90
       27
 70
   128
 43
0.0
 10
238.3564946855
 20
32.9412055482
 10
238.5871327
 20
34.1417018846
 10
238.8959187974
 20
35.3606462593
 10
239.280593603
 20
36.5891197089
 10
239.738342468
 20
37.8181335463
 10
240.2658160637
 20
39.0386951303
 10
240.8591548885
 20
40.2418736645
 10
241.5140175079
 20
41.4188655436
 10
242.2256123204
 20
42.5610587687
 10
242.9887326174
 20
43.6600959613
 10
243.7977946808
 20
44.7079355139
 10
244.6468786384
 20
45.6969104296
 10
245.5297717794
 20
46.6197844217
 10
246.4400140129
 20
47.4698048611
 10
247.3709451359
 20
48.2407521848
 10
248.3157535654
 20
48.9269854047
 10
249.267526179
 20
49.5234833819
 10
250.2192988976
 20
50.0258815665
 10
251.1641076413
 20
50.4305039326
 10
252.0950392853
 20
50.7343898758
 10
253.0052822431
 20
50.9353158759
 10
253.8881763061
 20
51.031811766
 10
254.7372613767
 20
51.0231714898
 10
255.5463247361
 20
50.9094582678
 10
256.3094465025
 20
50.6915041348
 10
257.0210429471
 20
50.3709038518
 10
257.1419005472
 20
50.3032434606
  0
LINE
  5
20D
330
1F
100
AcDbEntity
  8
0
  6
Continuous
 62
     7
370
    15
100
AcDbLine
 10
256.7834851596
 20
24.243430821
 30
0.0
 11
256.8605625934
 21
24.1969307143
 31
0.0
  0
LWPOLYLINE
  5
20E
330
1F
100
AcDbEntity
  8
0
  6
Continuous
 62
     7
370
    15
100
AcDbPolyline
 90
        3
 70
   128
 43
0.0
 10
263.8599937218
 20
36.3216147876
 10
263.8037311012
 20
36.3530667533
 10
263.7564364026
 20
36.3779599965
  0
ARC
  5
20F
330
1F
100
AcDbEntity
  8
0
  6
Continuous
 62
     7
370
    15
100
AcDbCircle
 10
254.205205951
 20
42.4307153258
 30
0.0
 40
1.178132085066703
100
AcDbArc
 50
110.0206141032
 51
240.3027840825
  0
LWPOLYLINE
  5
210
330
1F
100
AcDbEntity
  8
0
  6
Continuous
 62
     7
370
    15
100
AcDbPolyline
 90
       16
 70
   128
 43
0.0
 10
257.9047523747
 20
41.431320616
 10
258.0527504722
 20
41.5504542423
 10
258.3137525832
 20
41.8461672663
 10
258.462549347
 20
42.1667449943
 10
258.4926376309
 20
42.4981766412
 10
258.4027024326
 20
42.8259770535
 10
258.1966743519
 20
43.1358197804
 10
257.8835578044
 20
43.4141632079
 10
257.4770374857
 20
43.6488423926
 10
256.9948802846
 20
43.8296007279
 10
256.4581587844
 20
43.9485382073
 10
255.89033029
 20
44.0004566921
 10
255.3162116315
 20
43.9830870956
 10
254.7608945491
 20
43.8971885522
 10
254.2486490641
 20
43.7465152407
 10
253.8018627621
 20
43.5376523077
  0
SPLINE
  5
211
330
1F
100
AcDbEntity
  8
0
  6
Continuous
 62
     7
370
    15
100
AcDbSpline
210
0.0
220
0.0
230
1.0
 70
     8
 71
     3
 72
     8
 73
     4
 74
     0
 42
0.000000001
 43
0.00000001
 40
0.0
 40
0.0
 40
0.0
 40
0.0
 40
1.0
 40
1.0
 40
1.0
 40
1.0
 10
237.5785582884666
 20
36.21998267512016
 30
0.0
 10
236.8854870534138
 20
36.10412105674545
 30
0.0
 10
236.1918662870175
 20
35.9893623635924
 30
0.0
 10
235.4978871261901
 20
35.87535081595423
 30
0.0
  0
SPLINE
  5
212
330
1F
100
AcDbEntity
  8
0
  6
Continuous
 62
     7
370
    15
100
AcDbSpline
210
0.0
220
0.0
230
1.0
 70
     8
 71
     3
 72
     8
 73
     4
 74
     0
 42
0.000000001
 43
0.00000001
 40
0.0
 40
0.0
 40
0.0
 40
0.0
 40
0.0012389803509652
 40
0.0012389803509652
 40
0.0012389803509652
 40
0.0012389803509652
 10
235.0241507120447
 20
36.14888493670823
 30
0.0
 10
235.1822240470257
 20
36.05761385625772
 30
0.0
 10
235.3401422259917
 20
35.96643232915748
 30
0.0
 10
235.4978871261902
 20
35.87535081595423
 30
0.0
  0
LWPOLYLINE
  5
213
330
1F
100
AcDbEntity
  8
0
  6
Continuous
 62
     7
370
    15
100
AcDbPolyline
 90
       28
 70
   128
 43
0.0
 10
235.024150712
 20
36.1488849367
 10
235.3309661897
 20
37.3702853238
 10
235.7141251119
 20
38.6015668083
 10
236.1708103111
 20
39.8336764204
 10
236.6976640195
 20
41.0575551014
 10
237.2908125569
 20
42.2642043106
 10
237.9458948118
 20
43.4447521864
 10
238.6580943065
 20
44.5905187767
 10
239.42217461
 20
45.693079858
 10
240.2325178388
 20
46.7443288744
 10
241.0831659622
 20
47.7365365409
 10
241.9678646089
 20
48.6624076725
 10
242.8801090515
 20
49.5151348224
 10
243.8131920332
 20
50.288448333
 10
244.7602530819
 20
50.9766624339
 10
245.7143289523
 20
51.5747170462
 10
246.6684048226
 20
52.0782149867
 10
247.6154658713
 20
52.4834542977
 10
248.548548853
 20
52.7874554665
 10
249.4607932956
 20
52.9879833309
 10
250.3454919423
 20
53.0835635145
 10
251.1961400657
 20
53.073493266
 10
252.0064832945
 20
52.9578466266
 10
252.770563598
 20
52.7374738858
 10
253.4827630927
 20
52.4139953293
 10
254.1378453476
 20
51.9897893259
 10
254.730993885
 20
51.4679748408
 10
255.1623259704
 20
50.9772658004
  0
LINE
  5
214
330
1F
100
AcDbEntity
  8
0
  6
Continuous
 62
     7
370
    15
100
AcDbLine
 10
231.9924303877
 20
37.8990598264
 30
0.0
 11
235.024150712
 21
36.1488849367
 31
0.0
  0
ARC
  5
215
330
1F
100
AcDbEntity
  8
0
  6
Continuous
 62
     7
370
    15
100
AcDbCircle
 10
247.8817641762
 20
49.4597695774
 30
0.0
 40
5.360184219584233
100
AcDbArc
 50
60.0603086361
 51
76.3483600426
  0
LINE
  5
216
330
1F
100
AcDbEntity
  8
0
  6
Continuous
 62
     7
370
    15
100
AcDbLine
 10
237.9811536909
 20
36.1588202844
 30
0.0
 11
237.97183104
 21
36.1642021362
 31
0.0
  0
SPLINE
  5
217
330
1F
100
AcDbEntity
  8
0
  6
Continuous
 62
     7
370
    15
100
AcDbSpline
210
0.0
220
0.0
230
1.0
 70
     8
 71
     3
 72
    10
 73
     6
 74
     0
 42
0.000000001
 43
0.00000001
 40
0.0
 40
0.0
 40
0.0
 40
0.0
 40
0.2386821730236697
 40
0.7123059640471328
 40
1.0
 40
1.0
 40
1.0
 40
1.0
 10
238.8958208230314
 20
35.35941228655857
 30
0.0
 10
238.8307847082665
 20
35.43939398844545
 30
0.0
 10
238.6366955903463
 20
35.67808564499833
 30
0.0
 10
238.3247075495013
 20
35.94290850263138
 30
0.0
 10
238.0753741660543
 20
36.09960595699071
 30
0.0
 10
237.9811536909257
 20
36.15882028439878
 30
0.0
  0
SPLINE
  5
218
330
1F
100
AcDbEntity
  8
0
  6
Continuous
 62
     7
370
    15
100
AcDbSpline
210
0.0
220
0.0
230
1.0
 70
     8
 71
     3
 72
    10
 73
     6
 74
     0
 42
0.000000001
 43
0.00000001
 40
0.0
 40
0.0
 40
0.0
 40
0.0
 40
0.5
 40
0.5
 40
1.0
 40
1.0
 40
1.0
 40
1.0
 10
237.9718310400186
 20
36.16420213621151
 30
0.0
 10
237.9220304412058
 20
36.19295140996062
 30
0.0
 10
237.8569985244618
 20
36.21371475532129
 30
0.0
 10
237.7199401641164
 20
36.23266844470907
 30
0.0
 10
237.6464013240666
 20
36.23132408348127
 30
0.0
 10
237.5785582884666
 20
36.21998267512016
 30
0.0
  0
SPLINE
  5
219
330
1F
100
AcDbEntity
  8
0
  6
Continuous
 62
     7
370
    15
100
AcDbSpline
210
0.0
220
0.0
230
1.0
 70
     8
 71
     3
 72
     8
 73
     4
 74
     0
 42
0.000000001
 43
0.00000001
 40
0.0
 40
0.0
 40
0.0
 40
0.0
 40
1.0
 40
1.0
 40
1.0
 40
1.0
 10
231.8356057801462
 20
37.98958150561702
 30
0.0
 10
231.8579845766656
 20
37.97666955416518
 30
0.0
 10
231.9121720076829
 20
37.94539200300817
 30
0.0
 10
231.9924303877073
 20
37.89905982642816
 30
0.0
  0
LINE
  5
21A
330
1F
100
AcDbEntity
  8
0
  6
Continuous
 62
     7
370
    15
100
AcDbLine
 10
231.8356057801
 20
37.9895815056
 30
0.0
 11
231.8588899008
 21
38.136970558
 31
0.0
  0
SPLINE
  5
21B
330
1F
100
AcDbEntity
  8
0
  6
Continuous
 62
     7
370
    15
100
AcDbSpline
210
0.0
220
0.0
230
1.0
 70
     8
 71
     3
 72
    11
 73
     7
 74
     0
 42
0.000000001
 43
0.00000001
 40
0.0
 40
0.0
 40
0.0
 40
0.0
 40
0.3095641458076221
 40
0.5897803711572289
 40
0.84099002242465
 40
1.0
 40
1.0
 40
1.0
 40
1.0
 10
238.4651387759256
 20
28.51263887853098
 30
0.0
 10
238.5561347389007
 20
28.60411309494169
 30
0.0
 10
238.7294998832307
 20
28.77838940580217
 30
0.0
 10
238.8798328669309
 20
29.19685523079319
 30
0.0
 10
238.9541136060323
 20
29.610004458968
 30
0.0
 10
238.9616582379678
 20
29.90703571056788
 30
0.0
 10
238.9645827000621
 20
30.02217143137508
 30
0.0
  0
SPLINE
  5
21C
330
1F
100
AcDbEntity
  8
0
  6
Continuous
 62
     7
370
    15
100
AcDbSpline
210
0.0
220
0.0
230
1.0
 70
     8
 71
     3
 72
     9
 73
     5
 74
     0
 42
0.000000001
 43
0.00000001
 40
0.0
 40
0.0
 40
0.0
 40
0.0
 40
0.506764932008893
 40
1.0
 40
1.0
 40
1.0
 40
1.0
 10
238.356417311453
 20
27.7860081119867
 30
0.0
 10
238.3746862268139
 20
27.90846223072291
 30
0.0
 10
238.4107363048817
 20
28.15010112679013
 30
0.0
 10
238.4474171579649
 20
28.39225139717677
 30
0.0
 10
238.4655094410294
 20
28.51168840225499
 30
0.0
  0
SPLINE
  5
21D
330
1F
100
AcDbEntity
  8
0
  6
Continuous
 62
     7
370
    15
100
AcDbSpline
210
0.0
220
0.0
230
1.0
 70
     8
 71
     3
 72
    10
 73
     6
 74
     0
 42
0.000000001
 43
0.00000001
 40
0.0
 40
0.0
 40
0.0
 40
0.0
 40
0.4807908150149239
 40
0.9757817590326512
 40
1.0
 40
1.0
 40
1.0
 40
1.0
 10
237.9811536909257
 20
29.58566674871849
 30
0.0
 10
238.1309446378259
 20
29.50549637335646
 30
0.0
 10
238.4349505986073
 20
29.34278779521807
 30
0.0
 10
238.724566042806
 20
29.23128636449658
 30
0.0
 10
238.8589044734848
 20
29.20305474701729
 30
0.0
 10
238.8651706193455
 20
29.20173789798075
 30
0.0
  0
LINE
  5
21E
330
1F
100
AcDbEntity
  8
0
  6
Continuous
 62
     7
370
    15
100
AcDbLine
 10
232.2690390277
 20
37.7393251474
 30
0.0
 11
231.8356057801
 21
37.9895815056
 31
0.0
  0
LINE
  5
21F
330
1F
100
AcDbEntity
  8
0
  6
Continuous
 62
     7
370
    15
100
AcDbLine
 10
235.4978871262
 20
35.875350816
 30
0.0
 11
232.2690390277
 21
37.7393251474
 31
0.0
  0
SPLINE
  5
220
330
1F
100
AcDbEntity
  8
0
  6
Continuous
 62
     7
370
    15
100
AcDbSpline
210
0.0
220
0.0
230
1.0
 70
     8
 71
     3
 72
    11
 73
     7
 74
     0
 42
0.000000001
 43
0.00000001
 40
0.0
 40
0.0
 40
0.0
 40
0.0
 40
0.2163155055778993
 40
0.5249147718327557
 40
0.8335516849882196
 40
1.0
 40
1.0
 40
1.0
 40
1.0
 10
234.3741039489826
 20
33.7254992016323
 30
0.0
 10
234.3693863573498
 20
33.93189083361542
 30
0.0
 10
234.3579385717231
 20
34.43272417018638
 30
0.0
 10
234.2927550143753
 20
35.25151601709302
 30
0.0
 10
234.2520009443651
 20
36.01298046480929
 30
0.0
 10
234.2733887679309
 20
36.44751263140878
 30
0.0
 10
234.2808820911984
 20
36.59975299305489
 30
0.0
  0
LINE
  5
221
330
1F
100
AcDbEntity
  8
0
  6
Continuous
 62
     7
370
    15
100
AcDbLine
 10
234.374103949
 20
33.3051438462
 30
0.0
 11
234.374103949
 21
33.7254992016
 31
0.0
  0
LINE
  5
222
330
1F
100
AcDbEntity
  8
0
  6
Continuous
 62
     7
370
    15
100
AcDbLine
 10
233.7642243502
 20
36.5405126613
 30
0.0
 11
233.7694122449
 21
36.8731781256
 31
0.0
  0
ARC
  5
223
330
1F
100
AcDbEntity
  8
0
  6
Continuous
 62
     7
370
    15
100
AcDbCircle
 10
241.3180539372
 20
36.3662598611
 30
0.0
 40
7.555839163671105
100
AcDbArc
 50
178.6785272924
 51
203.2171026327
  0
LINE
  5
224
330
1F
100
AcDbEntity
  8
0
  6
Continuous
 62
     7
370
    15
100
AcDbLine
 10
221.5101601865
 20
60.006828989
 30
0.0
 11
221.65747097
 21
59.9594655687
 31
0.0
  0
LINE
  5
225
330
1F
100
AcDbEntity
  8
0
  6
Continuous
 62
     7
370
    15
100
AcDbLine
 10
215.2860015586
 20
48.9225609577
 30
0.0
 11
215.2178502775
 21
48.9825419873
 31
0.0
  0
LINE
  5
226
330
1F
100
AcDbEntity
  8
0
  6
Continuous
 62
     7
370
    15
100
AcDbLine
 10
237.97183104
 20
29.5910486005
 30
0.0
 11
237.9811536909
 21
29.5856667487
 31
0.0
  0
ARC
  5
227
330
1F
100
AcDbEntity
  8
0
  6
Continuous
 62
     7
370
    15
100
AcDbCircle
 10
240.7990468061
 20
30.2379495865
 30
0.0
 40
5.919642220385707
100
AcDbArc
 50
192.6964501328
 51
260.4756565155
  0
SPLINE
  5
228
330
1F
100
AcDbEntity
  8
0
  6
Continuous
 62
     7
370
    15
100
AcDbSpline
210
0.0
220
0.0
230
1.0
 70
     8
 71
     3
 72
     8
 73
     4
 74
     0
 42
0.000000001
 43
0.00000001
 40
0.0
 40
0.0
 40
0.0
 40
0.0
 40
0.0012389803509652
 40
0.0012389803509652
 40
0.0012389803509652
 40
0.0012389803509652
 10
235.4978871261902
 20
29.30219728027395
 30
0.0
 10
235.3401422259917
 20
29.18012082973923
 30
0.0
 10
235.1822240470257
 20
29.05836352673841
 30
0.0
 10
235.0241507120447
 20
28.93689650519398
 30
0.0
  0
SPLINE
  5
229
330
1F
100
AcDbEntity
  8
0
  6
Continuous
 62
     7
370
    15
100
AcDbSpline
210
0.0
220
0.0
230
1.0
 70
     8
 71
     3
 72
     8
 73
     4
 74
     0
 42
0.000000001
 43
0.00000001
 40
0.0
 40
0.0
 40
0.0
 40
0.0
 40
1.0
 40
1.0
 40
1.0
 40
1.0
 10
235.4978871261901
 20
29.30219728027395
 30
0.0
 10
236.1918677091317
 20
29.41620906154656
 30
0.0
 10
236.8855007698937
 20
29.53096981406693
 30
0.0
 10
237.5785582884666
 20
29.64682913943988
 30
0.0
  0
SPLINE
  5
22A
330
1F
100
AcDbEntity
  8
0
  6
Continuous
 62
     7
370
    15
100
AcDbSpline
210
0.0
220
0.0
230
1.0
 70
     8
 71
     3
 72
    12
 73
     8
 74
     0
 42
0.000000001
 43
0.00000001
 40
0.0
 40
0.0
 40
0.0
 40
0.0
 40
0.2499999999999984
 40
0.2499999999999984
 40
0.4999999999999968
 40
0.4999999999999968
 40
1.0
 40
1.0
 40
1.0
 40
1.0
 10
237.5785582884666
 20
29.64682913943988
 30
0.0
 10
237.6123468043907
 20
29.65247760952413
 30
0.0
 10
237.6479185804596
 20
29.65573807303957
 30
0.0
 10
237.7185008268521
 20
29.65687566258769
 30
0.0
 10
237.753523785301
 20
29.65485904612967
 30
0.0
 10
237.857729080566
 20
29.64048330879007
 30
0.0
 10
237.9214395125056
 20
29.62013901015767
 30
0.0
 10
237.9718310400186
 20
29.59104860053122
 30
0.0
  0
LINE
  5
22B
330
1F
100
AcDbEntity
  8
0
  6
Continuous
 62
     7
370
    15
100
AcDbLine
 10
232.2690390277
 20
31.1661716117
 30
0.0
 11
235.4978871262
 21
29.3021972803
 31
0.0
  0
LINE
  5
22C
330
1F
100
AcDbEntity
  8
0
  6
Continuous
 62
     7
370
    15
100
AcDbLine
 10
232.2690390277
 20
31.1661716117
 30
0.0
 11
234.1619719146
 21
32.2589385072
 31
0.0
  0
LINE
  5
22D
330
1F
100
AcDbEntity
  8
0
  6
Continuous
 62
     7
370
    15
100
AcDbLine
 10
231.8356057801
 20
30.9159152535
 30
0.0
 11
232.2690390277
 21
31.1661716117
 31
0.0
  0
LINE
  5
22E
330
1F
100
AcDbEntity
  8
0
  6
Continuous
 62
     7
370
    15
100
AcDbLine
 10
235.024150712
 20
28.9368965052
 30
0.0
 11
231.9924303877
 21
30.6870713949
 31
0.0
  0
SPLINE
  5
22F
330
1F
100
AcDbEntity
  8
0
  6
Continuous
 62
     7
370
    15
100
AcDbSpline
210
0.0
220
0.0
230
1.0
 70
     8
 71
     3
 72
     8
 73
     4
 74
     0
 42
0.000000001
 43
0.00000001
 40
0.0
 40
0.0
 40
0.0
 40
0.0
 40
1.0
 40
1.0
 40
1.0
 40
1.0
 10
231.9924303877073
 20
30.68707139491392
 30
0.0
 10
231.9124055881918
 20
30.73326872833638
 30
0.0
 10
231.857928790811
 20
30.8164562506995
 30
0.0
 10
231.8356057801462
 20
30.91591525354169
 30
0.0
  0
ARC
  5
230
330
1F
100
AcDbEntity
  8
0
  6
Continuous
 62
     7
370
    15
100
AcDbCircle
 10
237.5265389734
 20
31.5066272858
 30
0.0
 40
5.414344053266633
100
AcDbArc
 50
223.5450461559
 51
239.8640484934
  0
ELLIPSE
  5
231
330
1F
100
AcDbEntity
  8
0
  6
Continuous
 62
     7
370
    15
100
AcDbEllipse
 10
233.9276573396
 20
33.0474380816
 30
0.0
 11
-6.005970385558612E-5
 21
0.8534489614827194
 31
0.0
210
0.0
220
0.0
230
1.0
 40
0.7174342186
 41
3.534193645557484
 42
5.104989972352356
  0
ELLIPSE
  5
232
330
1F
100
AcDbEntity
  8
0
  6
Continuous
 62
     7
370
    15
100
AcDbEllipse
 10
233.808418524
 20
32.9785806015
 30
0.0
 11
0.2600075789209199
 21
0.9705436209909308
 31
0.0
210
0.0
220
0.0
230
1.0
 40
0.5176380889
 41
3.619174351347717
 42
5.1899706781426
  0
LWPOLYLINE
  5
233
330
1F
100
AcDbEntity
  8
0
  6
Continuous
 62
     7
370
     0
100
AcDbPolyline
 90
        3
 70
   128
 43
0.0
 10
259.5317253237
 20
33.2757455599
 10
259.4239207702
 20
32.9685178406
 10
259.3951813787
 20
32.920423152
  0
ARC
  5
234
330
1F
100
AcDbEntity
  8
0
  6
Continuous
 62
     7
370
     0
100
AcDbCircle
 10
257.0707714321
 20
33.5667712616
 30
0.0
 40
2.478102099534728
100
AcDbArc
 50
353.2556801234
 51
31.6457651212
  0
LWPOLYLINE
  5
235
330
1F
100
AcDbEntity
  8
0
  6
Continuous
 62
     7
370
     0
100
AcDbPolyline
 90
        8
 70
   128
 43
0.0
 10
259.3526880041
 20
33.3117626428
 10
259.2473462269
 20
33.017704996
 10
259.0660562221
 20
32.8110672252
 10
258.8211726038
 20
32.7059313531
 10
258.529383786
 20
32.7094622156
 10
258.2105746943
 20
32.8214191903
 10
257.8864716416
 20
33.0341725942
 10
257.7115364361
 20
33.1915853508
  0
ARC
  5
236
330
1F
100
AcDbEntity
  8
0
  6
Continuous
 62
     7
370
     0
100
AcDbCircle
 10
257.0773414825
 20
33.5779907584
 30
0.0
 40
2.290868656780362
100
AcDbArc
 50
353.3264212289
 51
30.6885335734
  0
LWPOLYLINE
  5
237
330
1F
100
AcDbEntity
  8
0
  6
Continuous
 62
     7
370
     0
100
AcDbPolyline
 90
       10
 70
   128
 43
0.0
 10
243.3897154091
 20
29.8510686951
 10
243.4309783185
 20
28.8897948238
 10
243.5543817859
 20
27.9851372488
 10
243.7587736264
 20
27.145542514
 10
244.0422454884
 20
26.3788496892
 10
244.4021506717
 20
25.6922171789
 10
244.8351288384
 20
25.0920558857
 10
245.337137388
 20
24.5839693539
 10
245.903489202
 20
24.1727014505
 10
245.979058095
 20
24.1280086142
  0
LWPOLYLINE
  5
238
330
1F
100
AcDbEntity
  8
0
  6
Continuous
 62
     7
370
     0
100
AcDbPolyline
 90
       26
 70
   128
 43
0.0
 10
258.4780422529
 20
45.7792301737
 10
258.247936822
 20
45.9026279844
 10
257.595159256
 20
46.1617606688
 10
256.8922751069
 20
46.316245958
 10
256.1458470147
 20
46.3646414644
 10
255.3628441773
 20
46.3064953323
 10
254.5505772813
 20
46.1423504564
 10
253.7166302439
 20
45.8737394132
 10
252.8687894038
 20
45.5031701517
 10
252.0149708225
 20
45.0341025771
 10
251.1631463741
 20
44.4709162471
 10
250.3212693139
 20
43.8188694807
 10
249.4972000211
 20
43.0840502629
 10
248.6986326089
 20
42.2733194026
 10
247.9330230858
 20
41.3942464756
 10
247.2075197419
 20
40.4550391488
 10
246.5288964062
 20
39.4644665481
 10
245.903489202
 20
38.4317773828
 10
245.337137388
 20
37.3666135936
 10
244.8351288384
 20
36.2789203276
 10
244.4021506717
 20
35.1788530839
 10
244.0422454884
 20
34.076682894
 10
243.7587736264
 20
32.9827004239
 10
243.5543817859
 20
31.9071198931
 10
243.4309783185
 20
30.8599837074
 10
243.3897154091
 20
29.8510686951
  0
LWPOLYLINE
  5
239
330
1F
100
AcDbEntity
  8
0
  6
Continuous
 62
     7
370
     0
100
AcDbPolyline
 90
       51
 70
   128
 43
0.0
 10
260.7138315482
 20
36.1792268122
 10
260.049151703
 20
35.7472252936
 10
259.394954256
 20
35.2254566742
 10
258.7615562917
 20
34.6221495568
 10
258.1589468745
 20
33.946818455
 10
257.5966295149
 20
33.2101137437
 10
257.0834722934
 20
32.4236536963
 10
256.627568006
 20
31.5998412575
 10
256.2361065357
 20
30.7516684417
 10
255.9152614637
 20
29.8925114408
 10
255.6700927085
 20
29.0359196739
 10
255.5044667277
 20
28.195402105
 10
255.4209955421
 20
27.3842141981
 10
255.4209955421
 20
26.6151488712
 10
255.5044667277
 20
25.9003347438
 10
255.6700927085
 20
25.2510448618
 10
255.9152614637
 20
24.6775189145
 10
256.2361065357
 20
24.1888017487
 10
256.627568006
 20
23.792600726
 10
257.0834722934
 20
23.4951641732
 10
257.5966295149
 20
23.3011828425
 10
258.1589468745
 20
23.2137159352
 10
258.7615562917
 20
23.2341428569
 10
259.394954256
 20
23.3621414627
 10
260.049151703
 20
23.5956931382
 10
260.7138315482
 20
23.9311146339
 10
261.3785113934
 20
24.3631161524
 10
262.0327088404
 20
24.8848847718
 10
262.6661068046
 20
25.4881918892
 10
263.2687162218
 20
26.163522991
 10
263.8310335815
 20
26.9002277023
 10
264.344190803
 20
27.6866877497
 10
264.8000950904
 20
28.5105001885
 10
265.1915565607
 20
29.3586730043
 10
265.5124016327
 20
30.2178300052
 10
265.7575703879
 20
31.0744217721
 10
265.9231963687
 20
31.9149393411
 10
266.0066675543
 20
32.7261272479
 10
266.0066675543
 20
33.4951925749
 10
265.9231963687
 20
34.2100067022
 10
265.7575703879
 20
34.8592965842
 10
265.5124016327
 20
35.4328225315
 10
265.1915565607
 20
35.9215396973
 10
264.8000950904
 20
36.3177407201
 10
264.344190803
 20
36.6151772728
 10
263.8310335815
 20
36.8091586036
 10
263.2687162218
 20
36.8966255108
 10
262.6661068046
 20
36.8761985891
 10
262.0327088404
 20
36.7481999833
 10
261.3785113934
 20
36.5146483078
 10
260.7138315482
 20
36.1792268122
  0
LWPOLYLINE
  5
23A
330
1F
100
AcDbEntity
  8
0
  6
Continuous
 62
     7
370
     0
100
AcDbPolyline
 90
       35
 70
   128
 43
0.0
 10
240.3845115891
 20
29.3408136252
 10
240.4255455995
 20
30.4497869246
 10
240.5483353373
 20
31.5976971276
 10
240.7519462983
 20
32.7758079444
 10
241.0348288802
 20
33.9751532404
 10
241.3948301758
 20
35.1866052736
 10
241.8292103578
 20
36.4009441627
 10
242.3346635307
 20
37.6089280553
 10
242.9073428908
 20
38.8013634647
 10
243.5428900022
 20
39.9691752375
 10
244.2364679677
 20
41.1034756208
 10
244.9827982402
 20
42.1956319038
 10
245.7762007956
 20
43.2373321179
 10
246.6106373615
 20
44.2206482952
 10
247.4797573718
 20
45.1380968061
 10
248.3769462983
 20
45.9826953134
 10
249.2953759916
 20
46.7480159123
 10
250.2280566472
 20
47.4282340511
 10
251.1678900022
 20
48.0181728591
 10
252.1077233571
 20
48.5133425456
 10
253.0404040127
 20
48.9099745703
 10
253.958833706
 20
49.2050503241
 10
254.8560226325
 20
49.3963241022
 10
255.7251426428
 20
49.4823401959
 10
256.5595792087
 20
49.4624439705
 10
257.3529817642
 20
49.3367868485
 10
258.0993120367
 20
49.1063251564
 10
258.7928900022
 20
48.7728128468
 10
259.4284371136
 20
48.3387881498
 10
260.0011164736
 20
47.8075542553
 10
260.5065696465
 20
47.1831541742
 10
260.9409498285
 20
46.4703399681
 10
261.3009511241
 20
45.6745365834
 10
261.583833706
 20
44.8018005644
 10
261.7855883185
 20
43.8698244729
  0
LWPOLYLINE
  5
23B
330
1F
100
AcDbEntity
  8
0
  6
Continuous
 62
     7
370
     0
100
AcDbPolyline
 90
       17
 70
   128
 43
0.0
 10
249.2866041605
 20
22.2186029134
 10
248.3769462983
 20
21.9268006316
 10
247.4797573718
 20
21.7355268534
 10
246.6106373615
 20
21.6495107598
 10
245.7762007956
 20
21.6694069851
 10
244.9827982402
 20
21.7950641071
 10
244.2364679677
 20
22.0255257993
 10
243.5428900022
 20
22.3590381089
 10
242.9073428908
 20
22.7930628059
 10
242.3346635307
 20
23.3242967003
 10
241.8292103578
 20
23.9486967814
 10
241.3948301758
 20
24.6615109876
 10
241.0348288802
 20
25.4573143723
 10
240.7519462983
 20
26.3300503912
 10
240.5483353373
 20
27.2730769963
 10
240.4255455995
 20
28.2792171858
 10
240.3845115891
 20
29.3408136252
  0
LWPOLYLINE
  5
23C
330
1F
100
AcDbEntity
  8
0
  6
Continuous
 62
     7
370
     0
100
AcDbPolyline
 90
       27
 70
   128
 43
0.0
 10
239.6774048079
 20
29.3408136252
 10
239.7186317812
 20
30.4701652735
 10
239.842007471
 20
31.6387552475
 10
240.0466184469
 20
32.837931716
 10
240.3309498408
 20
34.0588163958
 10
240.6928965625
 20
35.292370284
 10
241.1297788852
 20
36.5294605791
 10
241.638362285
 20
37.7609282974
 10
242.2148813882
 20
38.9776560829
 10
242.8550678493
 20
40.1706357086
 10
243.5541819516
 20
41.3310347708
 10
244.3070476989
 20
42.4502620808
 10
245.1080911365
 20
43.5200312713
 10
245.9513816193
 20
44.5324221454
 10
246.8306757194
 20
45.4799393152
 10
247.739463451
 20
46.3555676952
 10
248.6710164676
 20
47.1528244392
 10
249.6184378768
 20
47.8658069372
 10
250.5747133017
 20
48.4892365163
 10
251.5327628138
 20
49.0184975218
 10
252.4854933497
 20
49.4496714907
 10
253.4258512258
 20
49.7795661615
 10
254.3468743613
 20
50.0057391096
 10
255.2417438233
 20
50.1265158297
 10
256.1038343113
 20
50.1410021331
 10
256.9267632089
 20
50.0490907683
 10
257.2762732743
 20
49.9747443993
  0
ARC
  5
23D
330
1F
100
AcDbEntity
  8
0
  6
Continuous
 62
     7
370
     0
100
AcDbCircle
 10
248.4502060036
 20
28.7576643835
 30
0.0
 40
8.79216150091273
100
AcDbArc
 50
176.1970061233
 51
220.3157775657
  0
LWPOLYLINE
  5
23E
330
1F
100
AcDbEntity
  8
0
  6
Continuous
 62
     7
370
     0
100
AcDbPolyline
 90
       33
 70
   128
 43
0.0
 10
241.2683950656
 20
29.8510686951
 10
241.3094102319
 20
30.9142746148
 10
241.4321158665
 20
32.0160255786
 10
241.6354951917
 20
33.1471921309
 10
241.9178629424
 20
34.2984010695
 10
242.2768793305
 20
35.4601131145
 10
242.7095694331
 20
36.6227019541
 10
243.2123478438
 20
37.776534011
 10
243.7810483823
 20
38.9120482694
 10
244.4109586169
 20
40.0198355005
 10
245.0968589129
 20
41.0907162304
 10
245.8330656846
 20
42.1158168043
 10
246.6134784906
 20
43.0866429158
 10
247.4316305848
 20
43.995149994
 10
248.2807425012
 20
44.8338098633
 10
249.1537782311
 20
45.5956731237
 10
250.0435035255
 20
46.2744267364
 10
250.9425458402
 20
46.8644463351
 10
251.8434554277
 20
47.3608428317
 10
252.7387670673
 20
47.7595029285
 10
253.6210619249
 20
48.0571232023
 10
254.4830290272
 20
48.2512374778
 10
255.3175258436
 20
48.340237263
 10
256.1176374705
 20
48.3233850777
 10
256.876733931
 20
48.2008205643
 10
257.5885251128
 20
47.973559331
 10
258.2471128899
 20
47.643484536
 10
258.8470399968
 20
47.213331283
 10
259.3833352483
 20
46.6866639573
 10
259.8515547331
 20
46.0678466902
 10
260.2478186372
 20
45.3620071965
 10
260.568843393
 20
44.5749942845
 10
260.5700182992
 20
44.5715581082
  0
LWPOLYLINE
  5
23F
330
1F
100
AcDbEntity
  8
0
  6
Continuous
 62
     7
370
     0
100
AcDbPolyline
 90
       15
 70
   128
 43
0.0
 10
248.0710341412
 20
22.9203365487
 10
247.4316305848
 20
22.82290766
 10
246.6134784906
 20
22.7867964371
 10
245.8330656846
 20
22.856577102
 10
245.0968589129
 20
23.0316714302
 10
244.4109586169
 20
23.3106285349
 10
243.7810483823
 20
23.6911368898
 10
243.2123478438
 20
24.1700434827
 10
242.7095694331
 20
24.7433799428
 10
242.2768793305
 20
25.4063954236
 10
241.9178629424
 20
26.15359597
 10
241.6354951917
 20
26.9787900431
 10
241.4321158665
 20
27.8751398247
 10
241.3094102319
 20
28.8352178784
 10
241.2683950656
 20
29.8510686951
  0
LWPOLYLINE
  5
240
330
1F
100
AcDbEntity
  8
0
  6
Continuous
 62
     7
370
     0
100
AcDbPolyline
 90
       26
 70
   128
 43
0.0
 10
256.8605625934
 20
24.1969307143
 10
257.151711299
 20
24.0547446227
 10
257.6600181614
 20
23.9101138446
 10
258.2126632184
 20
23.8697360801
 10
258.8005720532
 20
23.9342743311
 10
259.4140912191
 20
24.1026688813
 10
260.0431467484
 20
24.3721546969
 10
260.6774095667
 20
24.7383068281
 10
261.306465096
 20
25.1951130671
 10
261.919984262
 20
25.7350726682
 10
262.5078930968
 20
26.3493195095
 10
263.0605381537
 20
27.027767675
 10
263.5688450161
 20
27.7592770644
 10
264.0244672995
 20
28.531836314
 10
264.4199236984
 20
29.332760022
 10
264.7487208297
 20
30.1488970435
 10
265.0054598537
 20
30.966846431
 10
265.1859251227
 20
31.7731774783
 10
265.2871534019
 20
32.5546502518
 10
265.3074825258
 20
33.2984329901
 10
265.2465786908
 20
33.9923128014
 10
265.1054419361
 20
34.6248961983
 10
264.8863897233
 20
35.1857961788
 10
264.5930188838
 20
35.6658027809
 10
264.2301465586
 20
36.0570343093
 10
263.8599937218
 20
36.3216147876
  0
LWPOLYLINE
  5
241
330
1F
100
AcDbEntity
  8
0
  6
Continuous
 62
     7
370
     0
100
AcDbPolyline
 90
       20
 70
   128
 43
0.0
 10
237.5785582885
 20
36.2199826751
 10
237.8851832102
 20
37.3644889536
 10
238.2689682785
 20
38.5161026521
 10
238.7265361535
 20
39.6646894758
 10
239.2538602002
 20
40.8001417663
 10
239.8462999239
 20
41.9124674505
 10
240.4986418064
 20
42.9918779712
 10
241.2051451857
 20
44.0288744273
 10
241.9595927741
 20
45.014331165
 10
242.755345371
 20
45.9395760842
 10
243.5854002884
 20
46.7964669538
 10
244.4424529749
 20
47.5774630639
 10
245.3189612966
 20
48.2756915848
 10
246.2072119084
 20
48.8850080481
 10
247.0993881322
 20
49.4000504191
 10
247.9876387441
 20
49.8162862827
 10
248.8641470658
 20
50.1300527292
 10
249.7211997523
 20
50.3385885881
 10
250.5512546696
 20
50.4400587268
 10
251.1978054084
 20
50.4431707582
  0
LWPOLYLINE
  5
242
330
1F
100
AcDbEntity
  8
0
  6
Continuous
 62
     7
370
     0
100
AcDbPolyline
 90
       24
 70
   128
 43
0.0
 10
231.9924303877
 20
37.8990598264
 10
232.2992458654
 20
39.1204602135
 10
232.6824047876
 20
40.351741698
 10
233.1390899867
 20
41.5838513101
 10
233.6659436951
 20
42.8077299912
 10
234.2590922325
 20
44.0143792004
 10
234.9141744875
 20
45.1949270761
 10
235.6263739822
 20
46.3406936664
 10
236.3904542857
 20
47.4432547477
 10
237.2007975144
 20
48.4945037641
 10
238.0514456379
 20
49.4867114306
 10
238.9361442845
 20
50.4125825622
 10
239.8483887272
 20
51.2653097121
 10
240.7814717089
 20
52.0386232227
 10
241.7285327575
 20
52.7268373236
 10
242.6826086279
 20
53.324891936
 10
243.6366844983
 20
53.8283898764
 10
244.583745547
 20
54.2336291875
 10
245.5168285286
 20
54.5376303562
 10
246.4290729713
 20
54.7381582207
 10
247.313771618
 20
54.8337384042
 10
248.1644197414
 20
54.8236681557
 10
248.9747629702
 20
54.7080215164
 10
249.1468643153
 20
54.6685214918
  0
LWPOLYLINE
  5
243
330
1F
100
AcDbEntity
  8
0
  6
Continuous
 62
     7
370
     0
100
AcDbPolyline
 90
       19
 70
   128
 43
0.0
 10
237.97183104
 20
36.1642021362
 10
238.2765159335
 20
37.2880450657
 10
238.6565068052
 20
38.4183749886
 10
239.1084846492
 20
39.5453191101
 10
239.6285016936
 20
40.6590342086
 10
240.2120158829
 20
41.7497926106
 10
240.8539305493
 20
42.8080671561
 10
241.5486389303
 20
43.8246144136
 10
242.2900731396
 20
44.7905554158
 10
243.0717571675
 20
45.6974532126
 10
243.8868634444
 20
46.5373865629
 10
244.7282724767
 20
47.3030191224
 10
245.5886350306
 20
47.9876635222
 10
246.4604363243
 20
48.5853397795
 10
247.3360616649
 20
49.090827529
 10
248.2078629586
 20
49.4997116202
 10
249.0682255125
 20
49.808420681
 10
249.9096345448
 20
50.0142583118
 10
250.3327401355
 20
50.0794585099
  0
LINE
  5
244
330
1F
100
AcDbEntity
  8
0
  6
Continuous
 62
     7
370
     0
100
AcDbLine
 10
237.9811536909
 20
29.5856667487
 30
0.0
 11
238.3869349322
 21
29.8199192731
 31
0.0
  0
LWPOLYLINE
  5
245
330
1F
100
AcDbEntity
  8
0
  6
Continuous
 62
     7
370
     0
100
AcDbPolyline
 90
        3
 70
   128
 43
0.0
 10
238.9450468642
 20
29.5615384787
 10
238.8811558432
 20
29.5845421002
 10
238.3869349322
 20
29.8199192731
  0
ARC
  5
246
330
1F
100
AcDbEntity
  8
0
  6
Continuous
 62
     7
370
     0
100
AcDbCircle
 10
237.6989457627
 20
30.8765208683
 30
0.0
 40
1.26084734534373
100
AcDbArc
 50
303.0695173616
 51
345.5982002285
  0
LINE
  5
247
330
1F
100
AcDbEntity
  8
0
  6
Continuous
 62
     7
370
     0
100
AcDbLine
 10
234.4933427645
 20
33.3740013264
 30
0.0
 11
238.8783332701
 21
30.8426001899
 31
0.0
  0
LINE
  5
248
330
1F
100
AcDbEntity
  8
0
  6
Continuous
 62
     7
370
     0
100
AcDbLine
 10
234.374103949
 20
33.3051438462
 30
0.0
 11
234.4933427645
 21
33.3740013264
 31
0.0
  0
LINE
  5
249
330
1F
100
AcDbEntity
  8
0
  6
Continuous
 62
     7
370
     0
100
AcDbLine
 10
234.1177777408
 20
36.3364106333
 30
0.0
 11
234.1229656355
 21
36.6690760976
 31
0.0
  0
ARC
  5
24A
330
1F
100
AcDbEntity
  8
0
  6
Continuous
 62
     7
370
     0
100
AcDbCircle
 10
242.6640630046
 20
36.2579775451
 30
0.0
 40
8.546645164039674
100
AcDbArc
 50
179.4741857274
 51
192.6038112494
  0
LWPOLYLINE
  5
24B
330
1F
100
AcDbEntity
  8
0
  6
Continuous
 62
     7
370
     0
100
AcDbPolyline
 90
       18
 70
   128
 43
0.0
 10
214.2722618426
 20
51.6352900809
 10
214.3144529056
 20
52.3719176276
 10
214.4402401552
 20
53.1435359613
 10
214.6472804127
 20
53.9357712925
 10
214.93171691
 20
54.7338657759
 10
215.2882511333
 20
55.5229524215
 10
215.7102415245
 20
56.2883320379
 10
216.1898272012
 20
57.0157470511
 10
216.7180743896
 20
57.6916470957
 10
217.285142844
 20
58.3034414327
 10
217.8804691521
 20
58.8397334912
 10
218.4929635111
 20
59.2905331649
 10
219.1112163101
 20
59.6474429087
 10
219.7237106691
 20
59.9038141694
 10
220.3190369772
 20
60.0548712356
 10
220.8861054316
 20
60.0978001999
 10
221.41435262
 20
60.0318013768
 10
221.5101601865
 20
60.006828989
  0
ARC
  5
24C
330
1F
100
AcDbEntity
  8
0
  6
Continuous
 62
     7
370
     0
100
AcDbCircle
 10
217.8229984734
 20
51.4060676093
 30
0.0
 40
3.558127817134057
100
AcDbArc
 50
176.3063210893
 51
222.9315250867
  0
LWPOLYLINE
  5
24D
330
1F
100
AcDbEntity
  8
0
  6
Continuous
 62
     7
370
     0
100
AcDbPolyline
 90
        3
 70
   128
 43
0.0
 10
238.4434488093
 20
28.48807233
 10
238.2920831213
 20
28.785955295
 10
237.97183104
 20
29.5910486005
  0
ARC
  5
24E
330
1F
100
AcDbEntity
  8
0
  6
Continuous
 62
     7
370
     0
100
AcDbCircle
 10
243.615517055
 20
31.521223613
 30
0.0
 40
6.321251916431117
100
AcDbArc
 50
197.2488655997
 51
213.7856470572
  0
LINE
  5
24F
330
1F
100
AcDbEntity
  8
0
  6
Continuous
 62
     7
370
     0
100
AcDbLine
 10
238.3869349322
 20
29.8199192731
 30
0.0
 11
234.1619719146
 21
32.2589385072
 31
0.0
  0
ARC
  5
250
330
1F
100
AcDbEntity
  8
0
  6
Continuous
 62
     7
370
     0
100
AcDbCircle
 10
238.8102137056
 20
32.557187035
 30
0.0
 40
7.069618227151742
100
AcDbArc
 50
195.3389392146
 51
222.5491558567
  0
OLE2FRAME
  5
251
330
1F
100
AcDbEntity
  8
0
100
AcDbOle2Frame
 70
     2
  3
Paintbrush-Bild
 10
13.8511154363
 20
38.264191557
 30
0.0
 11
51.6290888628
 21
31.9806341108
 31
0.0
 71
     2
 72
     0
 73
     1
 90
    12928
310
80552BED0767C5B32B40DDAF6807D121434000000000000000006FFBDDFB85D0
310
4940DDAF6807D121434000000000000000006FFBDDFB85D04940416F4BD60AFB
310
3F4000000000000000002BED0767C5B32B40416F4BD60AFB3F40000000000000
310
0000000000000100000000010000010000000100000000000100000000320000
310
D0CF11E0A1B11AE1000000000000000000000000000000003E000300FEFF0900
310
0600000000000000000000000100000001000000000000000010000002000000
310
01000000FEFFFFFF0000000000000000FFFFFFFFFFFFFFFFFFFFFFFFFFFFFFFF
310
FFFFFFFFFFFFFFFFFFFFFFFFFFFFFFFFFFFFFFFFFFFFFFFFFFFFFFFFFFFFFFFF
310
FFFFFFFFFFFFFFFFFFFFFFFFFFFFFFFFFFFFFFFFFFFFFFFFFFFFFFFFFFFFFFFF
310
FFFFFFFFFFFFFFFFFFFFFFFFFFFFFFFFFFFFFFFFFFFFFFFFFFFFFFFFFFFFFFFF
310
FFFFFFFFFFFFFFFFFFFFFFFFFFFFFFFFFFFFFFFFFFFFFFFFFFFFFFFFFFFFFFFF
310
FFFFFFFFFFFFFFFFFFFFFFFFFFFFFFFFFFFFFFFFFFFFFFFFFFFFFFFFFFFFFFFF
310
FFFFFFFFFFFFFFFFFFFFFFFFFFFFFFFFFFFFFFFFFFFFFFFFFFFFFFFFFFFFFFFF
310
FFFFFFFFFFFFFFFFFFFFFFFFFFFFFFFFFFFFFFFFFFFFFFFFFFFFFFFFFFFFFFFF
310
FFFFFFFFFFFFFFFFFFFFFFFFFFFFFFFFFFFFFFFFFFFFFFFFFFFFFFFFFFFFFFFF
310
FFFFFFFFFFFFFFFFFFFFFFFFFFFFFFFFFFFFFFFFFFFFFFFFFFFFFFFFFFFFFFFF
310
FFFFFFFFFFFFFFFFFFFFFFFFFFFFFFFFFFFFFFFFFFFFFFFFFFFFFFFFFFFFFFFF
310
FFFFFFFFFFFFFFFFFFFFFFFFFFFFFFFFFFFFFFFFFFFFFFFFFFFFFFFFFFFFFFFF
310
FFFFFFFFFFFFFFFFFFFFFFFFFFFFFFFFFFFFFFFFFFFFFFFFFFFFFFFFFFFFFFFF
310
FFFFFFFFFFFFFFFFFFFFFFFFFFFFFFFFFFFFFFFFFFFFFFFFFFFFFFFFFFFFFFFF
310
FDFFFFFFFEFFFFFFFEFFFFFFFEFFFFFF05000000060000000700000008000000
310
090000000A0000000B0000000C0000000D0000000E0000000F00000010000000
310
11000000120000001300000014000000150000001600000017000000FEFFFFFF
310
FFFFFFFFFFFFFFFFFFFFFFFFFFFFFFFFFFFFFFFFFFFFFFFFFFFFFFFFFFFFFFFF
310
FFFFFFFFFFFFFFFFFFFFFFFFFFFFFFFFFFFFFFFFFFFFFFFFFFFFFFFFFFFFFFFF
310
FFFFFFFFFFFFFFFFFFFFFFFFFFFFFFFFFFFFFFFFFFFFFFFFFFFFFFFFFFFFFFFF
310
FFFFFFFFFFFFFFFFFFFFFFFFFFFFFFFFFFFFFFFFFFFFFFFFFFFFFFFFFFFFFFFF
310
FFFFFFFFFFFFFFFFFFFFFFFFFFFFFFFFFFFFFFFFFFFFFFFFFFFFFFFFFFFFFFFF
310
FFFFFFFFFFFFFFFFFFFFFFFFFFFFFFFFFFFFFFFFFFFFFFFFFFFFFFFFFFFFFFFF
310
FFFFFFFFFFFFFFFFFFFFFFFFFFFFFFFFFFFFFFFFFFFFFFFFFFFFFFFFFFFFFFFF
310
FFFFFFFFFFFFFFFFFFFFFFFFFFFFFFFFFFFFFFFFFFFFFFFFFFFFFFFFFFFFFFFF
310
FFFFFFFFFFFFFFFFFFFFFFFFFFFFFFFFFFFFFFFFFFFFFFFFFFFFFFFFFFFFFFFF
310
FFFFFFFFFFFFFFFFFFFFFFFFFFFFFFFFFFFFFFFFFFFFFFFFFFFFFFFFFFFFFFFF
310
FFFFFFFFFFFFFFFFFFFFFFFFFFFFFFFFFFFFFFFFFFFFFFFFFFFFFFFFFFFFFFFF
310
FFFFFFFFFFFFFFFFFFFFFFFFFFFFFFFFFFFFFFFFFFFFFFFFFFFFFFFFFFFFFFFF
310
FFFFFFFFFFFFFFFFFFFFFFFFFFFFFFFFFFFFFFFFFFFFFFFFFFFFFFFFFFFFFFFF
310
52006F006F007400200045006E00740072007900000000000000000000000000
310
0000000000000000000000000000000000000000000000000000000000000000
310
16000500FFFFFFFFFFFFFFFF020000000A00030000000000C000000000000046
310
000000000000000000000000302DA6364F25D20103000000C000000000000000
310
01004F006C006500000000000000000000000000000000000000000000000000
310
0000000000000000000000000000000000000000000000000000000000000000
310
0A000200FFFFFFFFFFFFFFFFFFFFFFFF00000000000000000000000000000000
310
0000000000000000000000000000000000000000000000001400000000000000
310
010043006F006D0070004F0062006A0000000000000000000000000000000000
310
0000000000000000000000000000000000000000000000000000000000000000
310
120002010100000003000000FFFFFFFF00000000000000000000000000000000
310
0000000000000000000000000000000000000000010000004D00000000000000
310
01004F006C006500310030004E00610074006900760065000000000000000000
310
0000000000000000000000000000000000000000000000000000000000000000
310
1A000200FFFFFFFFFFFFFFFFFFFFFFFF00000000000000000000000000000000
310
0000000000000000000000000000000000000000040000002426000000000000
310
FEFFFFFF02000000FEFFFFFFFFFFFFFFFFFFFFFFFFFFFFFFFFFFFFFFFFFFFFFF
310
FFFFFFFFFFFFFFFFFFFFFFFFFFFFFFFFFFFFFFFFFFFFFFFFFFFFFFFFFFFFFFFF
310
FFFFFFFFFFFFFFFFFFFFFFFFFFFFFFFFFFFFFFFFFFFFFFFFFFFFFFFFFFFFFFFF
310
FFFFFFFFFFFFFFFFFFFFFFFFFFFFFFFFFFFFFFFFFFFFFFFFFFFFFFFFFFFFFFFF
310
FFFFFFFFFFFFFFFFFFFFFFFFFFFFFFFFFFFFFFFFFFFFFFFFFFFFFFFFFFFFFFFF
310
FFFFFFFFFFFFFFFFFFFFFFFFFFFFFFFFFFFFFFFFFFFFFFFFFFFFFFFFFFFFFFFF
310
FFFFFFFFFFFFFFFFFFFFFFFFFFFFFFFFFFFFFFFFFFFFFFFFFFFFFFFFFFFFFFFF
310
FFFFFFFFFFFFFFFFFFFFFFFFFFFFFFFFFFFFFFFFFFFFFFFFFFFFFFFFFFFFFFFF
310
FFFFFFFFFFFFFFFFFFFFFFFFFFFFFFFFFFFFFFFFFFFFFFFFFFFFFFFFFFFFFFFF
310
FFFFFFFFFFFFFFFFFFFFFFFFFFFFFFFFFFFFFFFFFFFFFFFFFFFFFFFFFFFFFFFF
310
FFFFFFFFFFFFFFFFFFFFFFFFFFFFFFFFFFFFFFFFFFFFFFFFFFFFFFFFFFFFFFFF
310
FFFFFFFFFFFFFFFFFFFFFFFFFFFFFFFFFFFFFFFFFFFFFFFFFFFFFFFFFFFFFFFF
310
FFFFFFFFFFFFFFFFFFFFFFFFFFFFFFFFFFFFFFFFFFFFFFFFFFFFFFFFFFFFFFFF
310
FFFFFFFFFFFFFFFFFFFFFFFFFFFFFFFFFFFFFFFFFFFFFFFFFFFFFFFFFFFFFFFF
310
FFFFFFFFFFFFFFFFFFFFFFFFFFFFFFFFFFFFFFFFFFFFFFFFFFFFFFFFFFFFFFFF
310
FFFFFFFFFFFFFFFFFFFFFFFFFFFFFFFFFFFFFFFFFFFFFFFFFFFFFFFFFFFFFFFF
310
0100000200000000000000000000000000000000000000000000000000000000
310
0000000000000000000000000000000000000000000000000000000000000000
310
0100FEFF030A0000FFFFFFFF0A00030000000000C00000000000004607000000
310
5042727573680007000000504272757368000700000050427275736800F439B2
310
7100000000000000000000000000000000000000000000000000000000000000
310
0000000000000000000000000000000000000000000000000000000000000000
310
0000000000000000000000000000000000000000000000000000000000000000
310
0000000000000000000000000000000000000000000000000000000000000000
310
0000000000000000000000000000000000000000000000000000000000000000
310
0000000000000000000000000000000000000000000000000000000000000000
310
0000000000000000000000000000000000000000000000000000000000000000
310
0000000000000000000000000000000000000000000000000000000000000000
310
0000000000000000000000000000000000000000000000000000000000000000
310
0000000000000000000000000000000000000000000000000000000000000000
310
0000000000000000000000000000000000000000000000000000000000000000
310
0000000000000000000000000000000000000000000000000000000000000000
310
20260000424D0E260000000000003E00000028000000B40200006E0000000100
310
01000000000000000000130B0000130B00000200000002000000000000FFFFFF
310
FFFFFFFFFFFFFFFFFFFFFFFFFFFFFFFFFFFFFFFFFFFFFFFFFFFFFFFFFFFFFFFF
310
FFFFFFFFFFFFFFFFFFFFFFFFFFFFFFFFFFFFFFFFFFFFFFFFFFFFFFFFFFFFFFFF
310
FFFFFFFFFFFFFFFFFFFFFFFFFFFFFFFFFFFFFFFFFFFFFFFFF000FFFFFFFFFFFF
310
FFFFFFFFFFFFFFFFFFFFFFFFFFFFFFFFFFFFFFFFFFFFFFFFFFFFFFFFFFFFFFFF
310
FFFFFFFFFFFFFFFFFFFFFFFFFFFFFFFFFFFFFFFFFFFFFFFFFFFFFFFFFFFFFFFF
310
FFFFFFFFFFFFFFFFFFFFFFFFFFFFFFFFF000FFFFFFFFFFFFFFFFFFFFFFFFFFFF
310
FFFFFFFFFFFFFFFFFFFFFFFFFFFFFFFFFFFFFFFFFFFFFFFFFFFFFFFFFFFFFFFF
310
FFFFFFFFFFFFFFFFFFFFFFFFFFFFFFFFFFFFFFFFFFFFFFFFFFFFFFFFFFFFFFFF
310
FFFFFFFFFFFFFFFFF000FFFFFFFFFFFFFFFFFFFFFFFFFFFFFFFFFFFFFFFFFFFF
310
FFFFFFFFFFFFFFFFFFFFFFFFFFFFFFFFFFFFFFFFFFFFFFFFFFFFFFFFFFFFFFFF
310
FFFFFFFFFFFFFFFFFFFFFFFFFFFFFFFFFFFFFFFFFFFFFFFFFFFFFFFFFFFFFFFF
310
F000FFFFFFFFFFFFFFFFFFFFFFFFFFFFFFFFFFFFFFFFFFFFFFFFFFFFFFFFFFFF
310
FFFFFFFFFFFFFFFFFFFFFFFFFFFFFFFFFFFFFFFFFFFFFFFFFFFFFFFFFFFFFFFF
310
FFFFFFFFFFFFFFFFFFFFFFFFFFFFFFFFFFFFFFFFFFFFFFFFF000FFFFFFFFFFFF
310
FFFFFFFFFFFFFFFFFFFFFFFFFFFFFFFFFFFFFFFFFFFFFFFFFFFFFFFFFFFFFFFF
310
FFFFFFFFFFFFFFFFFFFFFFFFFFFFFFFFFFFFFFFFFFFFFFFFFFFFFFFFFFFFFFFF
310
FFFFFFFFFFFFFFFFFFFFFFFFFFFFFFFFF000FFFFFFFFFFFFFFFFFFFFFFFFFFFF
310
FFFFFFFFFFFFFFFFFFFFFFFFFFFFFFFFFFFFFFFFFFFFFFFFFFFFFFFFFFFFFFFF
310
FFFFFFFFFFFFFFFFFFFFFFFFFFFFFFFFFFFFFFFFFFFFFFFFFFFFFFFFFFFFFFFF
310
FFFFFFFFFFFFFFFFF000FFFFFFFFFFFFFFFFFFFFFFFFFFFFFFFFFFFFFFFFFFFF
310
FFFFFFFFFFFFFFFFFFFFFFFFFFFFFFFFFFFFFFFFFFFFFFFFFFFFFFFFFFFFFFFF
310
FFFFFFFFFFFFFFFFFFFFFFFFFFFFFFFFFFFFFFFFFFFFFFFFFFFFFFFFFFFFFFFF
310
F000FFFFFFFFFFFFFFFFFFFFFFFFFFFFFFFFFFFFFFFFFFFFFFFFFFFFFFFFFFFF
310
FFFFFFFFFFFFFFFFFFFFFFFFFFFFFFFFFFFFFFFFFFFFFFFFFFFFFFFFFFFFFFFF
310
FFFFFFFFFFFFFFFFFFFFFFFFFFFFFFFFFFFFFFFFFFFFFFFFF000FFFFFFFFFFFF
310
FFFFFFFFFFFFFFFFFFFFFFFFFFFFFFFFFFFFFFFFFFFFFFFFFFFFFFFFFFFFFFFF
310
FFFFFFFFFFFFFFFFFFFFFFFFFFFFFFFFFFFFFFFFFFFFFFFFFFFFFFFFFFFFFFFF
310
FFFFFFFFFFFFFFFFFFFFFFFFFFFFFFFFF000FFFFFFFFFFFFFFFFFFFFFFFFFFFF
310
FFFFFFFFFFFFFFFFFFFFFFFFFFFFFFFFFFFFFFFFFFFFFFFFFFFFFFFFFFFFFFFF
310
FFFFFFFFFFFFFFFFFFFFFFFFFFFFFFFFFFFFFFFFFFFFFFFFFFFFFFFFFFFFFFFF
310
FFFFFFFFFFFFFFFFF000FFFFFFFFFFFFFFFFFFFFFFFFFFFFFFFFFFFFFFFFFFFF
310
FFFFFFFFFFFFFFFFFFFFFFFFFFFFFFFFFFFFFFFFFFFFFFFFFFFFFFFFFFFFFFFF
310
FFFFFFFFFFFFFFFFFFFFFFFFFFFFFFFFFFFFFFFFFFFFFFFFFFFFFFFFFFFFFFFF
310
F000FFFFFFFFFFFFFFFFFFFFFFFFFFFFFFFFFFFFFFFFFFFFFFFFFFFFFFFFFFFF
310
FFFFFFFFFFFFFFFFFFFFFFFFFFFFFFFFFFFFFFFFFFFFFFFFFFFFFFFFFFFFFFFF
310
FFFFFFFFFFFFFFFFFFFFFFFFFFFFFFFFFFFFFFFFFFFFFFFFF000FFFFFFFFFFFF
310
FFFFFFFFFFFFFFFFFFFFFFFFFFFFFFFFFFFFFFFFFFFFFFFFFFFFFFFFFFFFFFFF
310
FFFFFFFFFFFFFFFFFFFFFFFFFFFFFFFFFFFFFFFFFFFFFFFFFFFFFFFFFFFFFFFF
310
FFFFFFFFFFFFFFFFFFFFFFFFFFFFFFFFF000FFFFFFFFFFFFFFFFFFFFFFFFFFFF
310
FFFFFFFFFFFFFFFFFFFFFFFFFFFFFFFFFFFFFFFFFFFFFFFFFFFFFFFFFFFFFFFF
310
FFFFFFFFFFFFFFFFFFFFFFFFFFFFFFFFFFFFFFFFFFFFFFFFFFFFFFFFFFFFFFFF
310
FFFFFFFFFFFFFFFFF000FFFFFFFFFFFFFFFFFFFFFFFFFFFFFFFFFFFFFFFFFFFF
310
FFFFFFFFFFFFFFFFFFFFFFFFFFFFFFFFFFFFFFFFFFFFFFFFFFFFFFFFFFFFFFFF
310
FFFFFFFFFFFFFFFFFFFFFFFFFFFFFFFFFFFFFFFFFFFFFFFFFFFFFFFFFFFFFFFF
310
F000FFFFFFFFFFFFFFFFFFFFFFFFFFFFFFFFFFFFFFFFFFFFFFFFFFFFFFFFFFFF
310
FFFFFFFFFFFFFFFFFFFFFFFFFFFFFFFFFFFFFFFFFFFFFFFFFFFFFFFFFFFFFFFF
310
FFFFFFFFFFFFFFFFFFFFFFFFFFFFFFFFFFFFFFFFFFFFFFFFF000FFFFFFFFFFFF
310
FFFFFFFFFFFFFFFFFFFFFFFFFFFFFFFFFFFFFFFFFFFFFFFFFFFFFFFFFFFFFFFF
310
FFFFFFFFFFFFFFFFFFFFFFFFFFFFFFFFFFFFFFFFFFFFFFFFFFFFFFFFFFFFFFFF
310
FFFFFFFFFFFFFFFFFFFFFFFFFFFFFFFFF000FFFFFFFFFFFFFFFFFFFFFFFFFFFF
310
FFFFFFFFFFFFFFFFFFFFFFFFFFFFFFFFFFFFFFFFFFFFFFFFFFFFFFFFFFFFFFFF
310
FFFFFFFFFFFFFFFFFFFFFFFFFFFFFFFFFFFFFFFFFFFFFFFFFFFFFFFFFFFFFFFF
310
FFFFFFFFFFFFFFFFF000FFFFF80003FFFFFFFFFFFFFFFFFFFFFFFFFFFFFFFFFF
310
FFFFF00007FFFFFFFFFF00007FFFFFF800000000000000007FFFFFFFFFFFFFFF
310
FFFFFFFC001FFFFFFFFFFFFFFC001FFFFFFFFFFFFFFFFFFFFFFFFFFE0007FFFF
310
F000FFFF8000007FFFFFFFF8000FFFFFC0007FFFFF80007FFFFF0000007FFFFF
310
FFF8000007FFFFF800000000000000007FFFFFF0001FFFFFFFFFFFC00001FFFF
310
FFFFFFFFC00001FFFFFFFF000000000003FFFFE000007FFFF000FFFE0000000F
310
FFFFFFF0000FFFFF80007FFFFF80007FFFFC0000001FFFFFFFC0000001FFFFF8
310
00000000000000007FFFFFF0001FFFFFFFFFFE0000003FFFFFFFFFFE0000003F
310
FFFFFF000000000003FFFF0000000FFFF000FFF800000003FFFFFFF00007FFFF
310
80007FFFFF80007FFFF000000007FFFFFF000000003FFFF80000000000000000
310
7FFFFFF0001FFFFFFFFFF80000000FFFFFFFFFF80000000FFFFFFF0000000000
310
03FFFC00000003FFF000FFE000000000FFFFFFF00007FFFF80003FFFFF80007F
310
FFC000000001FFFFFC000000001FFFF800000000000000007FFFFFF0001FFFFF
310
FFFFE000000003FFFFFFFFE000000003FFFFFF000000000003FFF000000000FF
310
F000FF80000000007FFFFFF00007FFFF80003FFFFF80007FFF8000000000FFFF
310
F80000000007FFF800000000000000007FFFFFF0001FFFFFFFFFC000000001FF
310
FFFFFFC000000001FFFFFF000000000003FFC0000000007FF000FF0000000000
310
3FFFFFE00007FFFF00003FFFFF80007FFE00000000003FFFF00000000003FFF8
310
00000000000000007FFFFFF0001FFFFFFFFF8000000000FFFFFFFF8000000000
310
FFFFFF000000000003FF80000000003FF000FE00000000001FFFFFE00003FFFF
310
00003FFFFF80007FFC00000000001FFFE00000000001FFF8000001FFFE000000
310
7FFFFFF0001FFFFFFFFE00000000003FFFFFFE00000000003FFFFF0000000000
310
03FF00000000001FF000FC00000000000FFFFFE00003FFFF00001FFFFF80007F
310
F800000000001FFFC00000000000FFF8000001FFFE0000007FFFFFF0001FFFFF
310
FFFC00000000001FFFFFFC00000000001FFFFF000000000003FE00000000000F
310
F000F8000000000007FFFFE00003FFFF00001FFFFF80007FF800000000000FFF
310
800000000000FFF8000001FFFE0000007FFFFFF0001FFFFFFFF800000000000F
310
FFFFF800000000000FFFFF000000000003FC000000000007F000F80000000000
310
03FFFFC00003FFFE00001FFFFF80007FF0000000000007FF0000000000007FF8
310
000001FFFE0000007FFFFFF0001FFFFFFFF0000000000007FFFFF00000000000
310
07FFFF000000000003F8000000000003F000F0000000000003FFFFC00001FFFE
310
00001FFFFF80007FE0000000000007FE0000000000003FF8000001FFFE000000
310
7FFFFFF0001FFFFFFFF0000000000007FFFFF0000000000007FFFF0000000000
310
03F800001F800003F000E00001FFF00001FFFFC00001FFFE00000FFFFF80007F
310
E00001FFE00003FE00001FFF00003FF8000001FFFE0000007FFFFFF0001FFFFF
310
FFE000003E000003FFFFE000003E000003FFFF000000000003F00001FFF80001
310
F000E00007FFFC0001FFFFC00001FFFE00000FFFFF80007FC0000FFFFC0003FC
310
0000FFFFC0001FF8000001FFFE0000007FFFFFF0001FFFFFFFC00003FFE00001
310
FFFFC00003FFE00001FFFF0001FFFFFFFFF00007FFFE0001F000E0000FFFFF00
310
00FFFF800001FFFC00000FFFFF80007FC0001FFFFE0001FC0001FFFFE0001FF8
310
000001FFFE0000007FFFFFF0001FFFFFFF80000FFFF80000FFFF80000FFFF800
310
00FFFF0003FFFFFFFFE0000FFFFF8000F000C0003FFFFF8000FFFF800000FFFC
310
000007FFFF80007F80003FFFFF0001FC0003FFFFF0001FF8000001FFFE000000
310
7FFFFFF0001FFFFFFF80003FFFFE0000FFFF80003FFFFE0000FFFF0003FFFFFF
310
FFE0003FFFFF8000F000C0003FFFFF8000FFFF800000FFFC000007FFFF80007F
310
80007FFFFF8001F80007FFFFF8000FF8000001FFFE0000007FFFFFF0001FFFFF
310
FF00007FFFFF00007FFF00007FFFFF00007FFF0003FFFFFFFFE0003FFFFFC000
310
F000C0007FFFFFC000FFFF000000FFFC000007FFFF80007F8000FFFFFF8000F8
310
000FFFFFF8000FF8000001FFFE0000007FFFFFF0001FFFFFFF0000FFFFFF8000
310
7FFF0000FFFFFF80007FFF0003FFFFFFFFC0007FFFFFC00070008000FFFFFFC0
310
00FFFF000000FFF8000007FFFF80007F8000FFFFFF8000F8000FFFFFF8000FF8
310
000001FFFE0000007FFFFFF0001FFFFFFE0001FFFFFFC0003FFE0001FFFFFFC0
310
003FFF0003FFFFFFFFC0007FFFFFE00070008000FFFFFFC0007FFF0000007FF8
310
000003FFFF80007F0001FFFFFF8000F8000FFFFFF8000FF8000001FFFE000000
310
7FFFFFF0001FFFFFFE0001FFFFFFC0003FFE0001FFFFFFC0003FFF0003FFFFFF
310
FFC000FFFFFFE00070008000FFFFFFC0007FFF0000007FF8000003FFFF80007F
310
0001FFFFFF8000F8001FFFFFF8000FF8000001FFFE0000007FFFFFF0001FFFFF
310
FE0003FFFFFFE0003FFE0003FFFFFFE0003FFF0003FFFFFFFFC000FFFFFFE000
310
70008000FFFFFFC0007FFE0000007FF8000003FFFF80007F0001FFFFFF8000F0
310
001FFFFFF8000FF8000001FFFE0000007FFFFFF0001FFFFFFC0003FFFFFFE000
310
1FFC0003FFFFFFE0001FFF0003FFFFFFFFC000FFFFFFC00070008000FFFFFF80
310
007FFE0000007FF0000003FFFF80007F0001FFFFFF0000F0001FFFFFF8000FF8
310
000001FFFE0000007FFFFFF0001FFFFFFC0007FFFFFFF0001FFC0007FFFFFFF0
310
001FFF0003FFFFFFFFC000FFFFFFC00070008001FFFFFF0000FFFE0000003FF0
310
000001FFFF80007F0001FFFFFF0000F8001FFFFFF0000FF8000001FFFE000000
310
7FFFFFF0001FFFFFFC0007FFFFFFF0001FFC0007FFFFFFF0001FFF0003FFFFFF
310
FFC001FFFFFF80007000FFFFFFFFFE0000FFFE0008003FF0008001FFFF80007F
310
FFFFFFFFFC0000FFFFFFFFFFE0000FF8000001FFFE0000007FFFFFF0001FFFFF
310
F8000FFFFFFFF8000FF8000FFFFFFFF8000FFF0003FFFFFFFFFFFFFFFFFF0000
310
7000FFFFFFFFFC0000FFFC0008003FF0008001FFFF80007FFFFFFFFFF80001FF
310
FFFFFFFF80000FF8000001FFFE0000007FFFFFF0001FFFFFF8000FFFFFFFF800
310
0FF8000FFFFFFFF8000FFF0003FFFFFFFFFFFFFFFFFE0000F000FFFFFFFFE000
310
00FFFC000C003FE000C001FFFF80007FFFFFFFFFC00001FFFFFFFFFE00001FF8
310
000001FFFE0000007FFFFFF0001FFFFFF8000FFFFFFFF8000FF8000FFFFFFFF8
310
000FFF0003FFFFFFFFFFFFFFFFF00000F000FFFFFFFE000001FFFC000C001FE0
310
00C000FFFF80007FFFFFFFFE000001FFFFFFFFE000001FF80FFFFFFFFFFFFFC0
310
7FFFFFF0001FFFFFF8000FFFFFFFF8000FF8000FFFFFFFF8000FFF0003FFFFFF
310
FFFFFFFFFF800000F000FFFFFFC0000001FFFC001C001FE001C000FFFF80007F
310
FFFFFF80000003FFFFFFF80000001FF80FFFFFFFFFFFFFC07FFFFFF0001FFFFF
310
F8001FFFFFFFFC000FF8001FFFFFFFFC000FFF0003FFFFFFFFFFFFFFF0000001
310
F000FFFFF800000001FFF8001C001FE001C000FFFF80007FFFFFF800000003FF
310
FFFF800000003FF80FFFFFFFFFFFFFC07FFFFFF0001FFFFFF8001FFFFFFFFC00
310
0FF8001FFFFFFFFC000FFF0003FFFFFFFFFFFFFE00000001F000FFFFC0000000
310
03FFF8001E001FC001E000FFFF80007FFFFF8000000007FFFFFC000000003FF8
310
0FFFFFFFFFFFFFC07FFFFFF0001FFFFFF8001FFFFFFFFC000FF8001FFFFFFFFC
310
000FFF0003FFFFFFFFFFFFE000000003F000FFFE0000000007FFF8001E000FC0
310
01E0007FFF80007FFFFE0000000007FFFFE0000000007FF80FFFFFFFFFFFFFC0
310
7FFFFFF0001FFFFFF0001FFFFFFFFC0007F0001FFFFFFFFC0007FF0003FFFFFF
310
FFFFFF0000000003F000FFF80000000007FFF8001E000FC003E0007FFF80007F
310
FFF0000000000FFFFF8000000000FFF80FFFFFFFFFFFFFC07FFFFFF0001FFFFF
310
F0001FFFFFFFFC0007F0001FFFFFFFFC0007FF0003FFFFFFFFFFFC0000000007
310
F000FFE0000000000FFFF0003E000FC003E0007FFF80007FFFC0000000001FFF
310
FE0000000001FFF80FFFFFFFFFFFFFC07FFFFFF0001FFFFFF0001FFFFFFFFC00
310
07F0001FFFFFFFFC0007FF0003FFFFFFFFFFF0000000000FF000FFC000000000
310
1FFFF0003F000F8003F0003FFF80007FFF80000000003FFFF80000000003FFF8
310
0FFFFFFFFFFFFFC07FFFFFF0001FFFFFF0001FFFFFFFFC0007F0001FFFFFFFFC
310
0007FF0003FFFFFFFFFFE0000000001FF000FF00000000007FFFF0003F000780
310
03F0003FFF80007FFF00000000007FFFF00000000007FFF80FFFFFFFFFFFFFC0
310
7FFFFFF0001FFFFFF0001FFFFFFFFC0007F0001FFFFFFFFC0007FF0003FFFFFF
310
FFFF80000000007FF000FE0000000000FFFFE0003F00078007F0003FFF80007F
310
FE0000000001FFFFE0000000001FFFF80FFFFFFFFFFFFFC07FFFFFF0001FFFFF
310
F0001FFFFFFFFC0007F0001FFFFFFFFC0007FF0003FFFFFFFFFF0000000000FF
310
F000FC0000000003FFFFE0007F00078007F0003FFF80007FFC0000000007FFFF
310
C0000000007FFFF80FFFFFFFFFFFFFC07FFFFFF0001FFFFFF8001FFFFFFFFC00
310
0FF8001FFFFFFFFC000FFF0003FFFFFFFFFE0000000003FFF000FC000000000F
310
FFFFE0007F80070007F8001FFF80007FF8000000001FFFFF8000000001FFFFF8
310
0FFFFFFFFFFFFFC07FFFFFF0001FFFFFF8001FFFFFFFFC000FF8001FFFFFFFFC
310
000FFF0003FFFFFFFFFC000000000FFFF000F8000000007FFFFFE0007F800700
310
07F8001FFF80007FF000000000FFFFFF800000000FFFFFF80FFFFFFFFFFFFFC0
310
7FFFFFF0001FFFFFF8000FFFFFFFF8000FF8000FFFFFFFF8000FFF0003FFFFFF
310
FFFC000000007FFFF000F800000007FFFFFFC0007F8003000FF8001FFF80007F
310
F000000007FFFFFF000000007FFFFFF80FFFFFFFFFFFFFC07FFFFFF0001FFFFF
310
F8000FFFFFFFF8000FF8000FFFFFFFF8000FFF0003FFFFFFFFF80000000FFFFF
310
F000F0000000FFFFFFFFC000FF8003000FF8001FFF80007FE0000000FFFFFFFF
310
0000000FFFFFFFF8000001FFFE0000007FFFFFF0001FFFFFF8000FFFFFFFF800
310
0FF8000FFFFFFFF8000FFF0003FFFFFFFFF8000000FFFFFFF000F000000FFFFF
310
FFFFC000FFC002000FF8000FFF80007FE000001FFFFFFFFE000001FFFFFFFFF8
310
000001FFFE0000007FFFFFF0001FFFFFF8000FFFFFFFF8000FF8000FFFFFFFF8
310
000FFF0003FFFFFFFFF000001FFFFFFFF000E00000FFFFFFFFFFC000FFC00200
310
0FFC000FFF80007FE00001FFFFFFFFFE00001FFFFFFFFFF8000001FFFE000000
310
7FFFFFF0001FFFFFFC000FFFFFFFF8001FFC000FFFFFFFF8001FFF0003FFFFFF
310
FFF00001FFFFFFFFF000E00007FFFFFFFFFF8000FFC000001FFC000FFF80007F
310
C0000FFFFFFFFFFE0000FFFFFFFFFFF8000001FFFE0000007FFFFFF0001FFFFF
310
FC0007FFFFFFF0001FFC0007FFFFFFF0001FFF0003FFFFFFFFF00007FFFFFFFF
310
F000E0001FFFFFFFFFFF8000FFC000001FFC000FFF80007FC0003FFFFFFFFFFE
310
0001FFFFFFFFFFF8000001FFFE0000007FFFFFF0001FFFFFFC0007FFFFFFF000
310
1FFC0007FFFFFFF0001FFF0003FFFFFFFFF0001FFFFFFFFFF000E0003FFFFF00
310
03FF8001FFE000001FFC0007FF80007FC0007FFFFF0007FC0003FFFFF0003FF8
310
000001FFFE0000007FFFFFF0001FFFFFFC0003FFFFFFE0001FFC0003FFFFFFE0
310
001FFF0003FFFFFFFFF0003FFFFFFFFFF000E0003FFFFF0001FF8001FFE00000
310
1FFE0007FF80007FC0007FFFFE0003FC0007FFFFE0003FF8000001FFFE000000
310
7FFFFFF0001FFFFFFE0003FFFFFFE0003FFE0003FFFFFFE0003FFF0003FFFFFF
310
FFF0003FFFFF8001F000E0003FFFFF0001FF0001FFE000001FFE0007FF80007F
310
C0007FFFFE0003FC0007FFFFE0003FF8000001FFFE0000007FFFFFF0001FFFFF
310
FE0001FFFFFFC0003FFE0001FFFFFFC0003FFF0003FFFFFFFFF0003FFFFF0001
310
F000E0003FFFFF0003FF0001FFE000003FFE0007FF80007FC0007FFFFE0003FC
310
0007FFFFE0003FF8000001FFFE0000007FFFFFF0001FFFFFFF0001FFFFFFC000
310
7FFF0001FFFFFFC0007FFF0003FFFFFFFFF0003FFFFF0001F000E0003FFFFE00
310
03FF0003FFF000003FFE0003FF80007FC0007FFFFC0003FE0007FFFFE0003FF8
310
000001FFFE0000007FFFFFF0001FFFFFFF0000FFFFFF80007FFF0000FFFFFF80
310
007FFF0003FFFFFFFFF0003FFFFF0001F000E0003FFFFE0003FF0003FFF00000
310
3FFF0003FF80007FC0007FFFFC0007FE0007FFFFC0003FF8000001FFFE000000
310
7FFFFFF0001FFFFFFF80007FFFFF0000FFFF80007FFFFF0000FFFF0003FFFFFF
310
FFF0003FFFFF0003F000E0003FFFFC0003FE0003FFF000003FFF0003FF80007F
310
E0003FFFF80007FE0003FFFFC0007FF8000001FFFE0000007FFFFFF0001FFFFF
310
FF80003FFFFE0000FFFF80003FFFFE0000FFFF0003FFFFFFFFF0001FFFFE0003
310
F000F0001FFFF80003FE0003FFF000007FFF0001FF80007FE0003FFFF00007FE
310
0001FFFF80007FF8000001FFFE0000007FFFFFF0001FFFFFFFC0000FFFF80001
310
FFFFC0000FFFF80001FFFF0003FFFFFFFFF0001FFFFC0003F000F0000FFFF000
310
07FE0007FFF800007FFF0001FF80007FE0001FFFE00007FF0000FFFE00007FF8
310
000001FFFE0000007FFFFFF0001FFFFFFFC00003FFE00001FFFFC00003FFE000
310
01FFFF0003FFFFFFFFF8000FFFF80003F000F00003FFC00007FC0007FFF80000
310
7FFF8001FF80007FF00007FF80000FFF00007FF80000FFF8000001FFFE000000
310
7F80000000000001FFE000003E000003FFFFE000003E000003FFFF0003FFFFFF
310
FFF80003FFE00007F000F800000000000FFC0007FFF800007FFF8001FF80007F
310
F000000000000FFF000000000000FFF8000001FFFE0000007F80000000000001
310
FFF0000000000007FFFFF0000000000007FFFF0003FFFFFFFFFC00007E000007
310
F000F800000000000FFC0007FFF80000FFFF8000FF80007FF800000000001FFF
310
800000000001FFF8000001FFFE0000007F80000000000001FFF800000000000F
310
FFFFF800000000000FFFFF0003FFFFFFFFFC00000000000FF000FC0000000000
310
1FFC0007FFFC0000FFFF8000FF80007FF800000000003FFFC00000000001FFF8
310
000001FFFE0000007F80000000000001FFF800000000000FFFFFF80000000000
310
0FFFFF0003FFFFFFFFFE00000000001FF000FE00000000003FF8000FFFFC0000
310
FFFF8000FF80007FFC00000000003FFFC00000000003FFF8000001FFFE000000
310
7F80000000000001FFFC00000000001FFFFFFC00000000001FFFFF0003FFFFFF
310
FFFF00000000001FF000FF00000000003FF8000FFFFC0000FFFFC000FF80007F
310
FE00000000007FFFE00000000007FFF8000001FFFE0000007F80000000000001
310
FFFE00000000003FFFFFFE00000000003FFFFF0003FFFFFFFFFF80000000003F
310
F000FF80000000007FF8000FFFFC0001FFFFC0007F80007FFF0000000000FFFF
310
F0000000000FFFF800000000000000007F80000000000001FFFF8000000000FF
310
FFFFFF8000000000FFFFFF0003FFFFFFFFFFC0000000007FF000FFC000000000
310
FFF8000FFFFE0001FFFFC0007F80007FFF8000000001FFFFF8000000001FFFF8
310
00000000000000007F80000000000001FFFFC000000001FFFFFFFFC000000001
310
FFFFFF0003FFFFFFFFFFE000000000FFF000FFE000000003FFF0001FFFFE0001
310
FFFFC0007F80007FFFC000000007FFFFFE000000003FFFF80000000000000000
310
7F80000000000001FFFFE000000003FFFFFFFFE000000003FFFFFF0003FFFFFF
310
FFFFF000000003FFF000FFF80000000FFFF0001FFFFE0001FFFFE0007F80007F
310
FFF00000000FFFFFFF00000000FFFFF800000000000000007F80000000000001
310
FFFFF80000000FFFFFFFFFF80000000FFFFFFF0003FFFFFFFFFFFC0000000FFF
310
F000FFFE0000003FFFF0001FFFFE0003FFFFE0003F80007FFFFC0000003FFFFF
310
FFC0000003FFFFF800000000000000007F80000000000001FFFFFE0000003FFF
310
FFFFFFFE0000003FFFFFFF0003FFFFFFFFFFFF0000003FFFF000FFFF800000FF
310
FFF0001FFFFF0003FFFFE0003F80007FFFFF000001FFFFFFFFF800001FFFFFF8
310
00000000000000007F80000000000001FFFFFFC00001FFFFFFFFFFFFC00001FF
310
FFFFFF0003FFFFFFFFFFFFC00000FFFFF000FFFFF8000FFFFFFFFFFFFFFFFFFF
310
FFFFFFFFFFFFFFFFFFFFF0001FFFFFFFFFFF0000FFFFFFF80000000000000000
310
7FFFFFFFFFFFFFFFFFFFFFFC001FFFFFFFFFFFFFFC001FFFFFFFFFFFFFFFFFFF
310
FFFFFFFC001FFFFFF000FFFFFFFFFFFFFFFFFFFFFFFFFFFFFFFFFFFFFFFFFFFF
310
FFFFFFFFFFFFFFFFFFFFFFFFFFFFFFFFFFFFFFFFFFFFFFFFFFFFFFFFFFFFFFFF
310
FFFFFFFFFFFFFFFFFFFFFFFFFFFFFFFFFFFFFFFFFFFFFFFFFFFFFFFFFFFFFFFF
310
F000FFFFFFFFFFFFFFFFFFFFFFFFFFFFFFFFFFFFFFFFFFFFFFFFFFFFFFFFFFFF
310
FFFFFFFFFFFFFFFFFFFFFFFFFFFFFFFFFFFFFFFFFFFFFFFFFFFFFFFFFFFFFFFF
310
FFFFFFFFFFFFFFFFFFFFFFFFFFFFFFFFFFFFFFFFFFFFFFFFF000FFFFFFFFFFFF
310
FFFFFFFFFFFFFFFFFFFFFFFFFFFFFFFFFFFFFFFFFFFFFFFFFFFFFFFFFFFFFFFF
310
FFFFFFFFFFFFFFFFFFFFFFFFFFFFFFFFFFFFFFFFFFFFFFFFFFFFFFFFFFFFFFFF
310
FFFFFFFFFFFFFFFFFFFFFFFFFFFFFFFFF000FFFFFFFFFFFFFFFFFFFFFFFFFFFF
310
FFFFFFFFFFFFFFFFFFFFFFFFFFFFFFFFFFFFFFFFFFFFFFFFFFFFFFFFFFFFFFFF
310
FFFFFFFFFFFFFFFFFFFFFFFFFFFFFFFFFFFFFFFFFFFFFFFFFFFFFFFFFFFFFFFF
310
FFFFFFFFFFFFFFFFF000FFFFFFFFFFFFFFFFFFFFFFFFFFFFFFFFFFFFFFFFFFFF
310
FFFFFFFFFFFFFFFFFFFFFFFFFFFFFFFFFFFFFFFFFFFFFFFFFFFFFFFFFFFFFFFF
310
FFFFFFFFFFFFFFFFFFFFFFFFFFFFFFFFFFFFFFFFFFFFFFFFFFFFFFFFFFFFFFFF
310
F000FFFFFFFFFFFFFFFFFFFFFFFFFFFFFFFFFFFFFFFFFFFFFFFFFFFFFFFFFFFF
310
FFFFFFFFFFFFFFFFFFFFFFFFFFFFFFFFFFFFFFFFFFFFFFFFFFFFFFFFFFFFFFFF
310
FFFFFFFFFFFFFFFFFFFFFFFFFFFFFFFFFFFFFFFFFFFFFFFFF000FFFFFFFFFFFF
310
FFFFFFFFFFFFFFFFFFFFFFFFFFFFFFFFFFFFFFFFFFFFFFFFFFFFFFFFFFFFFFFF
310
FFFFFFFFFFFFFFFFFFFFFFFFFFFFFFFFFFFFFFFFFFFFFFFFFFFFFFFFFFFFFFFF
310
FFFFFFFFFFFFFFFFFFFFFFFFFFFFFFFFF000FFFFFFFFFFFFFFFFFFFFFFFFFFFF
310
FFFFFFFFFFFFFFFFFFFFFFFFFFFFFFFFFFFFFFFFFFFFFFFFFFFFFFFFFFFFFFFF
310
FFFFFFFFFFFFFFFFFFFFFFFFFFFFFFFFFFFFFFFFFFFFFFFFFFFFFFFFFFFFFFFF
310
FFFFFFFFFFFFFFFFF000FFFFFFFFFFFFFFFFFFFFFFFFFFFFFFFFFFFFFFFFFFFF
310
FFFFFFFFFFFFFFFFFFFFFFFFFFFFFFFFFFFFFFFFFFFFFFFFFFFFFFFFFFFFFFFF
310
FFFFFFFFFFFFFFFFFFFFFFFFFFFFFFFFFFFFFFFFFFFFFFFFFFFFFFFFFFFFFFFF
310
F000FFFFFFFFFFFFFFFFFFFFFFFFFFFFFFFFFFFFFFFFFFFFFFFFFFFFFFFFFFFF
310
FFFFFFFFFFFFFFFFFFFFFFFFFFFFFFFFFFFFFFFFFFFFFFFFFFFFFFFFFFFFFFFF
310
FFFFFFFFFFFFFFFFFFFFFFFFFFFFFFFFFFFFFFFFFFFFFFFFF000FFFFFFFFFFFF
310
FFFFFFFFFFFFFFFFFFFFFFFFFFFFFFFFFFFFFFFFFFFFFFFFFFFFFFFFFFFFFFFF
310
FFFFFFFFFFFFFFFFFFFFFFFFFFFFFFFFFFFFFFFFFFFFFFFFFFFFFFFFFFFFFFFF
310
FFFFFFFFFFFFFFFFFFFFFFFFFFFFFFFFF000FFFFFFFFFFFFFFFFFFFFFFFFFFFF
310
FFFFFFFFFFFFFFFFFFFFFFFFFFFFFFFFFFFFFFFFFFFFFFFFFFFFFFFFFFFFFFFF
310
FFFFFFFFFFFFFFFFFFFFFFFFFFFFFFFFFFFFFFFFFFFFFFFFFFFFFFFFFFFFFFFF
310
FFFFFFFFFFFFFFFFF000FFFFFFFFFFFFFFFFFFFFFFFFFFFFFFFFFFFFFFFFFFFF
310
FFFFFFFFFFFFFFFFFFFFFFFFFFFFFFFFFFFFFFFFFFFFFFFFFFFFFFFFFFFFFFFF
310
FFFFFFFFFFFFFFFFFFFFFFFFFFFFFFFFFFFFFFFFFFFFFFFFFFFFFFFFFFFFFFFF
310
F000FFFFFFFFFFFFFFFFFFFFFFFFFFFFFFFFFFFFFFFFFFFFFFFFFFFFFFFFFFFF
310
FFFFFFFFFFFFFFFFFFFFFFFFFFFFFFFFFFFFFFFFFFFFFFFFFFFFFFFFFFFFFFFF
310
FFFFFFFFFFFFFFFFFFFFFFFFFFFFFFFFFFFFFFFFFFFFFFFFF000FFFFFFFFFFFF
310
FFFFFFFFFFFFFFFFFFFFFFFFFFFFFFFFFFFFFFFFFFFFFFFFFFFFFFFFFFFFFFFF
310
FFFFFFFFFFFFFFFFFFFFFFFFFFFFFFFFFFFFFFFFFFFFFFFFFFFFFFFFFFFFFFFF
310
FFFFFFFFFFFFFFFFFFFFFFFFFFFFFFFFF000FFFFFFFFFFFFFFFFFFFFFFFFFFFF
310
FFFFFFFFFFFFFFFFFFFFFFFFFFFFFFFFFFFFFFFFFFFFFFFFFFFFFFFFFFFFFFFF
310
FFFFFFFFFFFFFFFFFFFFFFFFFFFFFFFFFFFFFFFFFFFFFFFFFFFFFFFFFFFFFFFF
310
FFFFFFFFFFFFFFFFF000FFFFFFFFFFFFFFFFFFFFFFFFFFFFFFFFFFFFFFFFFFFF
310
FFFFFFFFFFFFFFFFFFFFFFFFFFFFFFFFFFFFFFFFFFFFFFFFFFFFFFFFFFFFFFFF
310
FFFFFFFFFFFFFFFFFFFFFFFFFFFFFFFFFFFFFFFFFFFFFFFFFFFFFFFFFFFFFFFF
310
F000FFFFFFFFFFFFFFFFFFFFFFFFFFFFFFFFFFFFFFFFFFFFFFFFFFFFFFFFFFFF
310
FFFFFFFFFFFFFFFFFFFFFFFFFFFFFFFFFFFFFFFFFFFFFFFFFFFFFFFFFFFFFFFF
310
FFFFFFFFFFFFFFFFFFFFFFFFFFFFFFFFFFFFFFFFFFFFFFFFF000FFFFFFFFFFFF
310
FFFFFFFFFFFFFFFFFFFFFFFFFFFFFFFFFFFFFFFFFFFFFFFFFFFFFFFFFFFFFFFF
310
FFFFFFFFFFFFFFFFFFFFFFFFFFFFFFFFFFFFFFFFFFFFFFFFFFFFFFFFFFFFFFFF
310
FFFFFFFFFFFFFFFFFFFFFFFFFFFFFFFFF000FFFFFFFFFFFFFFFFFFFFFFFFFFFF
310
FFFFFFFFFFFFFFFFFFFFFFFFFFFFFFFFFFFFFFFFFFFFFFFFFFFFFFFFFFFFFFFF
310
FFFFFFFFFFFFFFFFFFFFFFFFFFFFFFFFFFFFFFFFFFFFFFFFFFFFFFFFFFFFFFFF
310
FFFFFFFFFFFFFFFFF000FFFFFFFFFFFFFFFFFFFFFFFFFFFFFFFFFFFFFFFFFFFF
310
FFFFFFFFFFFFFFFFFFFFFFFFFFFFFFFFFFFFFFFFFFFFFFFFFFFFFFFFFFFFFFFF
310
FFFFFFFFFFFFFFFFFFFFFFFFFFFFFFFFFFFFFFFFFFFFFFFFFFFFFFFFFFFFFFFF
310
F000FFFFFFFFFFFFFFFFFFFFFFFFFFFFFFFFFFFFFFFFFFFFFFFFFFFFFFFFFFFF
310
FFFFFFFFFFFFFFFFFFFFFFFFFFFFFFFFFFFFFFFFFFFFFFFFFFFFFFFFFFFFFFFF
310
FFFFFFFFFFFFFFFFFFFFFFFFFFFFFFFFFFFFFFFFFFFFFFFFF000FFFFFFFFFFFF
310
FFFFFFFFFFFFFFFFFFFFFFFFFFFFFFFFFFFFFFFFFFFFFFFFFFFFFFFFFFFFFFFF
310
FFFFFFFFFFFFFFFFFFFFFFFFFFFFFFFFFFFFFFFFFFFFFFFFFFFFFFFFFFFFFFFF
310
FFFFFFFFFFFFFFFFFFFFFFFFFFFFFFFFF0000000000000000000000000000000
310
0000000000000000000000000000000000000000000000000000000000000000
310
0000000000000000000000000000000000000000000000000000000000000000
310
0000000000000000000000000000000000000000000000000000000000000000
310
0000000000000000000000000000000000000000000000000000000000000000
310
0000000000000000000000000000000000000000000000000000000000000000
310
0000000000000000000000000000000000000000000000000000000000000000
310
0000000000000000000000000000000000000000000000000000000000000000
310
0000000000000000000000000000000000000000000000000000000000000000
310
0000000000000000000000000000000000000000000000000000000000000000
310
0000000000000000000000000000000000000000000000000000000000000000
310
0000000000000000000000000000000000000000000000000000000000000000
310
0000000000000000000000000000000000000000000000000000000000000000
310
0000000000000000000000000000000000000000000000000000000000000000
310
0000000000000000000000000000000000000000000000000000000000000000
310
0000000000000000000000000000000000000000000000000000000000000000
  1
OLE
  0
ENDSEC
  0
SECTION
  2
OBJECTS
  0
DICTIONARY
  5
C
330
0
100
AcDbDictionary
281
     1
  3
ACAD_GROUP
350
D
  3
ACAD_LAYOUT
350
1A
  3
ACAD_MLINESTYLE
350
17
  3
ACAD_PLOTSETTINGS
350
19
  3
ACAD_PLOTSTYLENAME
350
E
  3
ACAD_SCALELIST
350
47
  0
DICTIONARY
  5
D
102
{ACAD_REACTORS
330
C
102
}
330
C
100
AcDbDictionary
281
     1
  0
DICTIONARY
  5
1A
102
{ACAD_REACTORS
330
C
102
}
330
C
100
AcDbDictionary
281
     1
  3
Layout1
350
1E
  3
Layout2
350
26
  3
Model
350
22
  0
DICTIONARY
  5
17
102
{ACAD_REACTORS
330
C
102
}
330
C
100
AcDbDictionary
281
     1
  3
Standard
350
18
  0
DICTIONARY
  5
19
102
{ACAD_REACTORS
330
C
102
}
330
C
100
AcDbDictionary
281
     1
  0
ACDBDICTIONARYWDFLT
  5
E
102
{ACAD_REACTORS
330
C
102
}
330
C
100
AcDbDictionary
281
     1
  3
Normal
350
F
100
AcDbDictionaryWithDefault
340
F
  0
DICTIONARY
  5
47
102
{ACAD_REACTORS
330
C
102
}
330
C
100
AcDbDictionary
281
     1
  3
A0
350
48
  3
A1
350
49
  3
A2
350
4A
  3
A3
350
4B
  3
A4
350
4C
  3
A5
350
4D
  3
A6
350
4E
  3
A7
350
4F
  3
A8
350
50
  3
A9
350
51
  3
B0
350
52
  3
B1
350
53
  3
B2
350
54
  3
B3
350
55
  3
B4
350
56
  3
B5
350
57
  3
B6
350
58
  3
B7
350
59
  3
B8
350
5A
  3
B9
350
5B
  3
C0
350
5C
  3
C1
350
5D
  3
C2
350
5E
  3
C3
350
5F
  3
C4
350
60
  3
C5
350
61
  3
C6
350
62
  3
C7
350
63
  3
C8
350
64
  3
C9
350
65
  3
D0
350
66
  3
D1
350
67
  3
D2
350
68
  0
LAYOUT
  5
1E
102
{ACAD_REACTORS
330
1A
102
}
330
1A
100
AcDbPlotSettings
  1

  2
none_device
  4

  6

 40
0.0
 41
0.0
 42
0.0
 43
0.0
 44
0.0
 45
0.0
 46
0.0
 47
0.0
 48
0.0
 49
0.0
140
0.0
141
0.0
142
1.0
143
1.0
 70
   688
 72
     1
 73
     0
 74
     5
  7

 75
    16
147
1.0
148
0.0
149
0.0
100
AcDbLayout
  1
Layout1
 70
     1
 71
     1
 10
0.0
 20
0.0
 11
420.0
 21
297.0
 12
0.0
 22
0.0
 32
0.0
 14
1.0000000000E+20
 24
1.0000000000E+20
 34
1.0000000000E+20
 15
-1.0000000000E+20
 25
-1.0000000000E+20
 35
-1.0000000000E+20
146
0.0
 13
0.0
 23
0.0
 33
0.0
 16
1.0
 26
0.0
 36
0.0
 17
0.0
 27
1.0
 37
0.0
 76
     0
330
1B
  0
LAYOUT
  5
26
102
{ACAD_REACTORS
330
1A
102
}
330
1A
100
AcDbPlotSettings
  1

  2
none_device
  4

  6

 40
0.0
 41
0.0
 42
0.0
 43
0.0
 44
0.0
 45
0.0
 46
0.0
 47
0.0
 48
0.0
 49
0.0
140
0.0
141
0.0
142
1.0
143
1.0
 70
   688
 72
     1
 73
     0
 74
     5
  7

 75
    16
147
1.0
148
0.0
149
0.0
100
AcDbLayout
  1
Layout2
 70
     1
 71
     2
 10
0.0
 20
0.0
 11
0.0
 21
0.0
 12
0.0
 22
0.0
 32
0.0
 14
0.0
 24
0.0
 34
0.0
 15
0.0
 25
0.0
 35
0.0
146
0.0
 13
0.0
 23
0.0
 33
0.0
 16
1.0
 26
0.0
 36
0.0
 17
0.0
 27
1.0
 37
0.0
 76
     0
330
23
  0
LAYOUT
  5
22
102
{ACAD_REACTORS
330
1A
102
}
330
1A
100
AcDbPlotSettings
  1

  2
none_device
  4
Letter_(8.50_x_11.00_Inches)
  6

 40
6.35
 41
6.35
 42
6.35000508
 43
6.35000508
 44
215.9
 45
279.4
 46
0.0
 47
0.0
 48
0.0
 49
0.0
140
0.0
141
0.0
142
1.0
143
1.0
 70
  1712
 72
     1
 73
     0
 74
     0
  7

 75
     0
147
1.0
148
0.0
149
0.0
100
AcDbLayout
  1
Model
 70
     1
 71
     0
 10
0.0
 20
0.0
 11
297.0
 21
210.0
 12
0.0
 22
0.0
 32
0.0
 14
0.0
 24
0.0
 34
0.0
 15
297.0
 25
210.0
 35
0.0
146
0.0
 13
0.0
 23
0.0
 33
0.0
 16
1.0
 26
0.0
 36
0.0
 17
0.0
 27
1.0
 37
0.0
 76
     0
330
1F
331
29
  0
MLINESTYLE
  5
18
102
{ACAD_REACTORS
330
17
102
}
330
17
100
AcDbMlineStyle
  2
Standard
 70
     0
  3

 62
   256
 51
90.0
 52
90.0
 71
     2
 49
0.5
 62
   256
  6
BYLAYER
 49
-0.5
 62
   256
  6
BYLAYER
  0
ACDBPLACEHOLDER
  5
F
102
{ACAD_REACTORS
330
E
102
}
330
E
  0
SCALE
  5
48
102
{ACAD_REACTORS
330
47
102
}
330
47
100
AcDbScale
 70
     0
300
1:1
140
1.0
141
1.0
290
     1
  0
SCALE
  5
49
102
{ACAD_REACTORS
330
47
102
}
330
47
100
AcDbScale
 70
     0
300
1:2
140
1.0
141
2.0
290
     0
  0
SCALE
  5
4A
102
{ACAD_REACTORS
330
47
102
}
330
47
100
AcDbScale
 70
     0
300
1:4
140
1.0
141
4.0
290
     0
  0
SCALE
  5
4B
102
{ACAD_REACTORS
330
47
102
}
330
47
100
AcDbScale
 70
     0
300
1:5
140
1.0
141
5.0
290
     0
  0
SCALE
  5
4C
102
{ACAD_REACTORS
330
47
102
}
330
47
100
AcDbScale
 70
     0
300
1:8
140
1.0
141
8.0
290
     0
  0
SCALE
  5
4D
102
{ACAD_REACTORS
330
47
102
}
330
47
100
AcDbScale
 70
     0
300
1:10
140
1.0
141
10.0
290
     0
  0
SCALE
  5
4E
102
{ACAD_REACTORS
330
47
102
}
330
47
100
AcDbScale
 70
     0
300
1:16
140
1.0
141
16.0
290
     0
  0
SCALE
  5
4F
102
{ACAD_REACTORS
330
47
102
}
330
47
100
AcDbScale
 70
     0
300
1:20
140
1.0
141
20.0
290
     0
  0
SCALE
  5
50
102
{ACAD_REACTORS
330
47
102
}
330
47
100
AcDbScale
 70
     0
300
1:30
140
1.0
141
30.0
290
     0
  0
SCALE
  5
51
102
{ACAD_REACTORS
330
47
102
}
330
47
100
AcDbScale
 70
     0
300
1:40
140
1.0
141
40.0
290
     0
  0
SCALE
  5
52
102
{ACAD_REACTORS
330
47
102
}
330
47
100
AcDbScale
 70
     0
300
1:50
140
1.0
141
50.0
290
     0
  0
SCALE
  5
53
102
{ACAD_REACTORS
330
47
102
}
330
47
100
AcDbScale
 70
     0
300
1:100
140
1.0
141
100.0
290
     0
  0
SCALE
  5
54
102
{ACAD_REACTORS
330
47
102
}
330
47
100
AcDbScale
 70
     0
300
2:1
140
2.0
141
1.0
290
     0
  0
SCALE
  5
55
102
{ACAD_REACTORS
330
47
102
}
330
47
100
AcDbScale
 70
     0
300
4:1
140
4.0
141
1.0
290
     0
  0
SCALE
  5
56
102
{ACAD_REACTORS
330
47
102
}
330
47
100
AcDbScale
 70
     0
300
8:1
140
8.0
141
1.0
290
     0
  0
SCALE
  5
57
102
{ACAD_REACTORS
330
47
102
}
330
47
100
AcDbScale
 70
     0
300
10:1
140
10.0
141
1.0
290
     0
  0
SCALE
  5
58
102
{ACAD_REACTORS
330
47
102
}
330
47
100
AcDbScale
 70
     0
300
100:1
140
100.0
141
1.0
290
     0
  0
SCALE
  5
59
102
{ACAD_REACTORS
330
47
102
}
330
47
100
AcDbScale
 70
     0
300
1/128" = 1'-0"
140
0.0078125
141
12.0
290
     0
  0
SCALE
  5
5A
102
{ACAD_REACTORS
330
47
102
}
330
47
100
AcDbScale
 70
     0
300
1/64" = 1'-0"
140
0.015625
141
12.0
290
     0
  0
SCALE
  5
5B
102
{ACAD_REACTORS
330
47
102
}
330
47
100
AcDbScale
 70
     0
300
1/32" = 1'-0"
140
0.03125
141
12.0
290
     0
  0
SCALE
  5
5C
102
{ACAD_REACTORS
330
47
102
}
330
47
100
AcDbScale
 70
     0
300
1/16" = 1'-0"
140
0.0625
141
12.0
290
     0
  0
SCALE
  5
5D
102
{ACAD_REACTORS
330
47
102
}
330
47
100
AcDbScale
 70
     0
300
3/32" = 1'-0"
140
0.09375
141
12.0
290
     0
  0
SCALE
  5
5E
102
{ACAD_REACTORS
330
47
102
}
330
47
100
AcDbScale
 70
     0
300
1/8" = 1'-0"
140
0.125
141
12.0
290
     0
  0
SCALE
  5
5F
102
{ACAD_REACTORS
330
47
102
}
330
47
100
AcDbScale
 70
     0
300
3/16" = 1'-0"
140
0.1875
141
12.0
290
     0
  0
SCALE
  5
60
102
{ACAD_REACTORS
330
47
102
}
330
47
100
AcDbScale
 70
     0
300
1/4" = 1'-0"
140
0.25
141
12.0
290
     0
  0
SCALE
  5
61
102
{ACAD_REACTORS
330
47
102
}
330
47
100
AcDbScale
 70
     0
300
3/8" = 1'-0"
140
0.375
141
12.0
290
     0
  0
SCALE
  5
62
102
{ACAD_REACTORS
330
47
102
}
330
47
100
AcDbScale
 70
     0
300
1/2" = 1'-0"
140
0.5
141
12.0
290
     0
  0
SCALE
  5
63
102
{ACAD_REACTORS
330
47
102
}
330
47
100
AcDbScale
 70
     0
300
3/4" = 1'-0"
140
0.75
141
12.0
290
     0
  0
SCALE
  5
64
102
{ACAD_REACTORS
330
47
102
}
330
47
100
AcDbScale
 70
     0
300
1" = 1'-0"
140
1.0
141
12.0
290
     0
  0
SCALE
  5
65
102
{ACAD_REACTORS
330
47
102
}
330
47
100
AcDbScale
 70
     0
300
1-1/2" = 1'-0"
140
1.5
141
12.0
290
     0
  0
SCALE
  5
66
102
{ACAD_REACTORS
330
47
102
}
330
47
100
AcDbScale
 70
     0
300
3" = 1'-0"
140
3.0
141
12.0
290
     0
  0
SCALE
  5
67
102
{ACAD_REACTORS
330
47
102
}
330
47
100
AcDbScale
 70
     0
300
6" = 1'-0"
140
6.0
141
12.0
290
     0
  0
SCALE
  5
68
102
{ACAD_REACTORS
330
47
102
}
330
47
100
AcDbScale
 70
     0
300
1'-0" = 1'-0"
140
12.0
141
12.0
290
     0
  0
ENDSEC
  0
EOF
