  0
SECTION
  2
HEADER
  9
$ACADVER
  1
AC1015
  9
$ACADMAINTVER
 70
     6
  9
$DWGCODEPAGE
  3
ANSI_1252
  9
$INSBASE
 10
0.0
 20
0.0
 30
0.0
  9
$EXTMIN
 10
0.0
 20
0.0
 30
0.0
  9
$EXTMAX
 10
297.0
 20
210.0
 30
0.0
  9
$LIMMIN
 10
0.0
 20
0.0
  9
$LIMMAX
 10
297.0
 20
210.0
  9
$ORTHOMODE
 70
     0
  9
$REGENMODE
 70
     1
  9
$FILLMODE
 70
     1
  9
$QTEXTMODE
 70
     0
  9
$MIRRTEXT
 70
     1
  9
$LTSCALE
 40
1.0
  9
$ATTMODE
 70
     1
  9
$TEXTSIZE
 40
2.0
  9
$TRACEWID
 40
1.0
  9
$TEXTSTYLE
  7
Standard
  9
$CLAYER
  8
0
  9
$CELTYPE
  6
ByLayer
  9
$CECOLOR
 62
   256
  9
$CELTSCALE
 40
1.0
  9
$DISPSILH
 70
     0
  9
$DIMSCALE
 40
1.0
  9
$DIMASZ
 40
3.0
  9
$DIMEXO
 40
0.0
  9
$DIMDLI
 40
3.75
  9
$DIMRND
 40
0.0
  9
$DIMDLE
 40
0.0
  9
$DIMEXE
 40
1.0
  9
$DIMTP
 40
0.0
  9
$DIMTM
 40
0.0
  9
$DIMTXT
 40
2.0
  9
$DIMCEN
 40
2.5
  9
$DIMTSZ
 40
0.0
  9
$DIMTOL
 70
     0
  9
$DIMLIM
 70
     0
  9
$DIMTIH
 70
     1
  9
$DIMTOH
 70
     1
  9
$DIMSE1
 70
     0
  9
$DIMSE2
 70
     0
  9
$DIMTAD
 70
     1
  9
$DIMZIN
 70
     0
  9
$DIMBLK
  1

  9
$DIMASO
 70
     1
  9
$DIMSHO
 70
     1
  9
$DIMPOST
  1

  9
$DIMAPOST
  1

  9
$DIMALT
 70
     0
  9
$DIMALTD
 70
     3
  9
$DIMALTF
 40
0.0393700787
  9
$DIMLFAC
 40
2.0
  9
$DIMTOFL
 70
     1
  9
$DIMTVP
 40
0.0
  9
$DIMTIX
 70
     0
  9
$DIMSOXD
 70
     0
  9
$DIMSAH
 70
     0
  9
$DIMBLK1
  1

  9
$DIMBLK2
  1

  9
$DIMSTYLE
  2
ISO-25
  9
$DIMCLRD
 70
     0
  9
$DIMCLRE
 70
     0
  9
$DIMCLRT
 70
     0
  9
$DIMTFAC
 40
1.0
  9
$DIMGAP
 40
1.524
  9
$DIMJUST
 70
     0
  9
$DIMSD1
 70
     0
  9
$DIMSD2
 70
     0
  9
$DIMTOLJ
 70
     0
  9
$DIMTZIN
 70
     0
  9
$DIMALTZ
 70
     0
  9
$DIMALTTZ
 70
     0
  9
$DIMUPT
 70
     0
  9
$DIMDEC
 70
     2
  9
$DIMTDEC
 70
     3
  9
$DIMALTU
 70
     2
  9
$DIMALTTD
 70
     3
  9
$DIMTXSTY
  7
Standard
  9
$DIMAUNIT
 70
     0
  9
$DIMADEC
 70
     2
  9
$DIMALTRND
 40
0.0
  9
$DIMAZIN
 70
     0
  9
$DIMDSEP
 70
    44
  9
$DIMATFIT
 70
     3
  9
$DIMFRAC
 70
     0
  9
$DIMLDRBLK
  1

  9
$DIMLUNIT
 70
     2
  9
$DIMLWD
 70
    -2
  9
$DIMLWE
 70
    -2
  9
$DIMTMOVE
 70
     0
  9
$LUNITS
 70
     2
  9
$LUPREC
 70
     2
  9
$SKETCHINC
 40
1.0
  9
$FILLETRAD
 40
10.0
  9
$AUNITS
 70
     0
  9
$AUPREC
 70
     2
  9
$MENU
  1
.
  9
$ELEVATION
 40
0.0
  9
$PELEVATION
 40
0.0
  9
$THICKNESS
 40
0.0
  9
$LIMCHECK
 70
     0
  9
$CHAMFERA
 40
0.0
  9
$CHAMFERB
 40
0.0
  9
$CHAMFERC
 40
0.0
  9
$CHAMFERD
 40
0.0
  9
$SKPOLY
 70
     0
  9
$TDCREATE
 40
2457676.387018414
  9
$TDUCREATE
 40
2457676.303685081
  9
$TDUPDATE
 40
2457676.387019849
  9
$TDUUPDATE
 40
2457676.303686516
  9
$TDINDWG
 40
0.0000000116
  9
$TDUSRTIMER
 40
0.0000000116
  9
$USRTIMER
 70
     1
  9
$ANGBASE
 50
0.0
  9
$ANGDIR
 70
     0
  9
$PDMODE
 70
     0
  9
$PDSIZE
 40
-1.0
  9
$PLINEWID
 40
0.0
  9
$SPLFRAME
 70
     0
  9
$SPLINETYPE
 70
     6
  9
$SPLINESEGS
 70
     8
  9
$HANDSEED
  5
279
  9
$SURFTAB1
 70
     6
  9
$SURFTAB2
 70
     6
  9
$SURFTYPE
 70
     6
  9
$SURFU
 70
     6
  9
$SURFV
 70
     6
  9
$UCSBASE
  2

  9
$UCSNAME
  2

  9
$UCSORG
 10
0.0
 20
0.0
 30
0.0
  9
$UCSXDIR
 10
1.0
 20
0.0
 30
0.0
  9
$UCSYDIR
 10
0.0
 20
1.0
 30
0.0
  9
$UCSORTHOREF
  2

  9
$UCSORTHOVIEW
 70
     0
  9
$UCSORGTOP
 10
0.0
 20
0.0
 30
0.0
  9
$UCSORGBOTTOM
 10
0.0
 20
0.0
 30
0.0
  9
$UCSORGLEFT
 10
0.0
 20
0.0
 30
0.0
  9
$UCSORGRIGHT
 10
0.0
 20
0.0
 30
0.0
  9
$UCSORGFRONT
 10
0.0
 20
0.0
 30
0.0
  9
$UCSORGBACK
 10
0.0
 20
0.0
 30
0.0
  9
$PUCSBASE
  2

  9
$PUCSNAME
  2

  9
$PUCSORG
 10
0.0
 20
0.0
 30
0.0
  9
$PUCSXDIR
 10
1.0
 20
0.0
 30
0.0
  9
$PUCSYDIR
 10
0.0
 20
1.0
 30
0.0
  9
$PUCSORTHOREF
  2

  9
$PUCSORTHOVIEW
 70
     0
  9
$PUCSORGTOP
 10
0.0
 20
0.0
 30
0.0
  9
$PUCSORGBOTTOM
 10
0.0
 20
0.0
 30
0.0
  9
$PUCSORGLEFT
 10
0.0
 20
0.0
 30
0.0
  9
$PUCSORGRIGHT
 10
0.0
 20
0.0
 30
0.0
  9
$PUCSORGFRONT
 10
0.0
 20
0.0
 30
0.0
  9
$PUCSORGBACK
 10
0.0
 20
0.0
 30
0.0
  9
$USERI1
 70
     0
  9
$USERI2
 70
     0
  9
$USERI3
 70
     0
  9
$USERI4
 70
     0
  9
$USERI5
 70
     0
  9
$USERR1
 40
0.0
  9
$USERR2
 40
0.0
  9
$USERR3
 40
0.0
  9
$USERR4
 40
0.0
  9
$USERR5
 40
0.0
  9
$WORLDVIEW
 70
     1
  9
$SHADEDGE
 70
     3
  9
$SHADEDIF
 70
    70
  9
$TILEMODE
 70
     1
  9
$MAXACTVP
 70
    64
  9
$PINSBASE
 10
0.0
 20
0.0
 30
0.0
  9
$PLIMCHECK
 70
     0
  9
$PEXTMIN
 10
1.0000000000E+20
 20
1.0000000000E+20
 30
1.0000000000E+20
  9
$PEXTMAX
 10
-1.0000000000E+20
 20
-1.0000000000E+20
 30
-1.0000000000E+20
  9
$PLIMMIN
 10
0.0
 20
0.0
  9
$PLIMMAX
 10
420.0
 20
297.0
  9
$UNITMODE
 70
     0
  9
$VISRETAIN
 70
     1
  9
$PLINEGEN
 70
     0
  9
$PSLTSCALE
 70
     1
  9
$TREEDEPTH
 70
  3020
  9
$CMLSTYLE
  2
Standard
  9
$CMLJUST
 70
     0
  9
$CMLSCALE
 40
20.0
  9
$PROXYGRAPHICS
 70
     1
  9
$MEASUREMENT
 70
     1
  9
$CELWEIGHT
370
    -1
  9
$ENDCAPS
280
     0
  9
$JOINSTYLE
280
     0
  9
$LWDISPLAY
290
     1
  9
$INSUNITS
 70
     4
  9
$HYPERLINKBASE
  1

  9
$STYLESHEET
  1

  9
$XEDIT
290
     1
  9
$CEPSNTYPE
380
     0
  9
$PSTYLEMODE
290
     1
  9
$FINGERPRINTGUID
  2
{E3FEE6C5-7485-4DC0-B300-7110EA10AD9F}
  9
$VERSIONGUID
  2
{FAEB1C32-E019-11D5-929B-00C0DF256EC4}
  9
$EXTNAMES
290
     1
  9
$PSVPSCALE
 40
0.0
  9
$OLESTARTUP
290
     0
  0
ENDSEC
  0
SECTION
  2
CLASSES
  0
CLASS
  1
ACDBDICTIONARYWDFLT
  2
AcDbDictionaryWithDefault
  3
ObjectDBX Classes
 90
        0
280
     0
281
     0
  0
CLASS
  1
VISUALSTYLE
  2
AcDbVisualStyle
  3
ObjectDBX Classes
 90
     4095
280
     0
281
     0
  0
CLASS
  1
MATERIAL
  2
AcDbMaterial
  3
ObjectDBX Classes
 90
     1153
280
     0
281
     0
  0
CLASS
  1
SCALE
  2
AcDbScale
  3
ObjectDBX Classes
 90
     1153
280
     0
281
     0
  0
CLASS
  1
TABLESTYLE
  2
AcDbTableStyle
  3
ObjectDBX Classes
 90
     4095
280
     0
281
     0
  0
CLASS
  1
MLEADERSTYLE
  2
AcDbMLeaderStyle
  3
ACDB_MLEADERSTYLE_CLASS
 90
     4095
280
     0
281
     0
  0
CLASS
  1
SUN
  2
AcDbSun
  3
SCENEOE
 90
     1153
280
     0
281
     0
  0
CLASS
  1
ACDBPLACEHOLDER
  2
AcDbPlaceHolder
  3
ObjectDBX Classes
 90
        0
280
     0
281
     0
  0
CLASS
  1
LAYOUT
  2
AcDbLayout
  3
ObjectDBX Classes
 90
        0
280
     0
281
     0
  0
ENDSEC
  0
SECTION
  2
TABLES
  0
TABLE
  2
VPORT
  5
8
330
0
100
AcDbSymbolTable
 70
     1
  0
VPORT
  5
29
330
8
100
AcDbSymbolTableRecord
100
AcDbViewportTableRecord
  2
*Active
 70
     0
 10
0.0
 20
0.0
 11
1.0
 21
1.0
 12
148.5
 22
105.0
 13
0.0
 23
0.0
 14
10.0
 24
10.0
 15
10.0
 25
10.0
 16
0.0
 26
0.0
 36
1.0
 17
0.0
 27
0.0
 37
0.0
 40
210.0
 41
1.4142857143
 42
50.0
 43
0.0
 44
0.0
 50
0.0
 51
0.0
 71
     0
 72
  2000
 73
     1
 74
     3
 75
     0
 76
     0
 77
     0
 78
     0
281
     0
 65
     1
110
0.0
120
0.0
130
0.0
111
1.0
121
0.0
131
0.0
112
0.0
122
1.0
132
0.0
 79
     0
146
0.0
  0
ENDTAB
  0
TABLE
  2
LTYPE
  5
5
330
0
100
AcDbSymbolTable
 70
     6
  0
LTYPE
  5
14
330
5
100
AcDbSymbolTableRecord
100
AcDbLinetypeTableRecord
  2
ByBlock
 70
     0
  3

 72
    65
 73
     0
 40
0.0
  0
LTYPE
  5
15
330
5
100
AcDbSymbolTableRecord
100
AcDbLinetypeTableRecord
  2
ByLayer
 70
     0
  3

 72
    65
 73
     0
 40
0.0
  0
LTYPE
  5
16
330
5
100
AcDbSymbolTableRecord
100
AcDbLinetypeTableRecord
  2
Continuous
 70
     0
  3
Solid line
 72
    65
 73
     0
 40
0.0
  0
LTYPE
  5
6E
330
5
100
AcDbSymbolTableRecord
100
AcDbLinetypeTableRecord
  2
HIDDEN
 70
     0
  3
Hidden __ __ __ __ __ __ __ __ __ __ __ __ __ __
 72
    65
 73
     2
 40
1.905
 49
1.27
 74
     0
 49
-0.635
 74
     0
  0
LTYPE
  5
6F
330
5
100
AcDbSymbolTableRecord
100
AcDbLinetypeTableRecord
  2
PHANTOM
 70
     0
  3
Phantom ______  __  __  ______  __  __  ______
 72
    65
 73
     6
 40
12.7
 49
6.35
 74
     0
 49
-1.27
 74
     0
 49
1.27
 74
     0
 49
-1.27
 74
     0
 49
1.27
 74
     0
 49
-1.27
 74
     0
  0
LTYPE
  5
70
330
5
100
AcDbSymbolTableRecord
100
AcDbLinetypeTableRecord
  2
CENTER
 70
     0
  3
Center ____ _ ____ _ ____ _ ____ _ ____ _ ____
 72
    65
 73
     4
 40
10.16
 49
6.35
 74
     0
 49
-1.27
 74
     0
 49
1.27
 74
     0
 49
-1.27
 74
     0
  0
LTYPE
  5
71
330
5
100
AcDbSymbolTableRecord
100
AcDbLinetypeTableRecord
  2
CENTERX2
 70
     0
  3
Center (2x) ________  __  ________  __  _____
 72
    65
 73
     4
 40
20.32
 49
12.7
 74
     0
 49
-2.54
 74
     0
 49
2.54
 74
     0
 49
-2.54
 74
     0
  0
LTYPE
  5
72
330
5
100
AcDbSymbolTableRecord
100
AcDbLinetypeTableRecord
  2
DOT2
 70
     0
  3
Dot (.5x) ........................................
 72
    65
 73
     2
 40
0.635
 49
0.0
 74
     0
 49
-0.635
 74
     0
  0
ENDTAB
  0
TABLE
  2
LAYER
  5
2
330
0
100
AcDbSymbolTable
 70
     5
  0
LAYER
  5
10
330
2
100
AcDbSymbolTableRecord
100
AcDbLayerTableRecord
  2
0
 70
     0
 62
     7
  6
Continuous
370
    -3
390
F
  0
LAYER
  5
73
330
2
100
AcDbSymbolTableRecord
100
AcDbLayerTableRecord
  2
FORMAT
 70
     0
 62
     7
  6
Continuous
370
    -3
390
F
  0
LAYER
  5
74
330
2
100
AcDbSymbolTableRecord
100
AcDbLayerTableRecord
  2
VERMASSUNG
 70
     0
 62
     7
  6
Continuous
370
    -3
390
F
  0
LAYER
  5
75
330
2
100
AcDbSymbolTableRecord
100
AcDbLayerTableRecord
  2
KOPF_DÜNN
 70
     0
 62
     7
  6
Continuous
370
    -3
390
F
  0
LAYER
  5
76
330
2
100
AcDbSymbolTableRecord
100
AcDbLayerTableRecord
  2
KOPF_DICK
 70
     0
 62
     7
  6
Continuous
370
    15
390
F
  0
ENDTAB
  0
TABLE
  2
STYLE
  5
3
330
0
100
AcDbSymbolTable
 70
     2
  0
STYLE
  5
11
330
3
100
AcDbSymbolTableRecord
100
AcDbTextStyleTableRecord
  2
Standard
 70
     0
 40
0.0
 41
1.0
 50
0.0
 71
     0
 42
2.0
  3
txt
  4

  0
STYLE
  5
77
330
3
100
AcDbSymbolTableRecord
100
AcDbTextStyleTableRecord
  2
SLDTEXTSTYLE0
 70
     0
 40
0.0
 41
0.7
 50
0.0
 71
     0
 42
2.0
  3
TXT
  4

  0
ENDTAB
  0
TABLE
  2
VIEW
  5
6
330
0
100
AcDbSymbolTable
 70
     0
  0
ENDTAB
  0
TABLE
  2
UCS
  5
7
330
0
100
AcDbSymbolTable
 70
     0
  0
ENDTAB
  0
TABLE
  2
APPID
  5
9
330
0
100
AcDbSymbolTable
 70
     1
  0
APPID
  5
12
330
9
100
AcDbSymbolTableRecord
100
AcDbRegAppTableRecord
  2
ACAD
 70
     0
  0
ENDTAB
  0
TABLE
  2
DIMSTYLE
  5
A
330
0
100
AcDbSymbolTable
 70
     2
100
AcDbDimStyleTable
  0
DIMSTYLE
105
27
330
A
100
AcDbSymbolTableRecord
100
AcDbDimStyleTableRecord
  2
ISO-25
 70
     0
 41
2.5
 42
0.625
 43
3.75
 44
1.25
 73
     0
 74
     0
 77
     1
 78
     8
140
2.5
141
2.5
143
0.0393700787
147
0.625
171
     3
172
     1
178
     0
271
     2
272
     2
274
     3
278
    44
283
     0
284
     8
340
11
  0
DIMSTYLE
105
1C0
102
{ACAD_REACTORS
330
1BF
330
1CC
330
1D6
330
1E0
330
1EA
330
1F6
102
}
330
A
100
AcDbSymbolTableRecord
100
AcDbDimStyleTableRecord
  2
SLDDIMSTYLE0
 70
     0
 41
3.0
 44
0.0
 45
0.000000001
 73
     0
 74
     0
 77
     1
 78
    12
 79
     3
140
2.0
147
0.5
173
     1
178
     0
271
     2
272
     3
276
     2
284
    12
340
77
  0
ENDTAB
  0
TABLE
  2
BLOCK_RECORD
  5
1
330
0
100
AcDbSymbolTable
 70
     7
  0
BLOCK_RECORD
  5
1F
330
1
100
AcDbSymbolTableRecord
100
AcDbBlockTableRecord
  2
*Model_Space
340
22
  0
BLOCK_RECORD
  5
1B
330
1
100
AcDbSymbolTableRecord
100
AcDbBlockTableRecord
  2
*Paper_Space
340
1E
  0
BLOCK_RECORD
  5
23
330
1
100
AcDbSymbolTableRecord
100
AcDbBlockTableRecord
  2
*Paper_Space0
340
26
  0
BLOCK_RECORD
  5
1C1
330
1
100
AcDbSymbolTableRecord
100
AcDbBlockTableRecord
  2
_D
340
0
  0
BLOCK_RECORD
  5
1CD
330
1
100
AcDbSymbolTableRecord
100
AcDbBlockTableRecord
  2
_D_1
340
0
  0
BLOCK_RECORD
  5
1D7
330
1
100
AcDbSymbolTableRecord
100
AcDbBlockTableRecord
  2
_D_2
340
0
  0
BLOCK_RECORD
  5
1E1
330
1
100
AcDbSymbolTableRecord
100
AcDbBlockTableRecord
  2
_D_3
340
0
  0
BLOCK_RECORD
  5
1EB
330
1
100
AcDbSymbolTableRecord
100
AcDbBlockTableRecord
  2
_D_4
340
0
  0
BLOCK_RECORD
  5
1F7
330
1
100
AcDbSymbolTableRecord
100
AcDbBlockTableRecord
  2
_D_5
340
0
  0
ENDTAB
  0
ENDSEC
  0
SECTION
  2
BLOCKS
  0
BLOCK
  5
20
330
1F
100
AcDbEntity
  8
0
100
AcDbBlockBegin
  2
*Model_Space
 70
     0
 10
0.0
 20
0.0
 30
0.0
  3
*Model_Space
  1

  0
ENDBLK
  5
21
330
1F
100
AcDbEntity
  8
0
100
AcDbBlockEnd
  0
BLOCK
  5
1C
330
1B
100
AcDbEntity
 67
     1
  8
0
100
AcDbBlockBegin
  2
*Paper_Space
 70
     0
 10
0.0
 20
0.0
 30
0.0
  3
*Paper_Space
  1

  0
ENDBLK
  5
1D
330
1B
100
AcDbEntity
 67
     1
  8
0
100
AcDbBlockEnd
  0
BLOCK
  5
24
330
23
100
AcDbEntity
  8
0
100
AcDbBlockBegin
  2
*Paper_Space0
 70
     0
 10
0.0
 20
0.0
 30
0.0
  3
*Paper_Space0
  1

  0
ENDBLK
  5
25
330
23
100
AcDbEntity
  8
0
100
AcDbBlockEnd
  0
BLOCK
  5
1C2
330
1C1
100
AcDbEntity
  8
0
100
AcDbBlockBegin
  2
_D
 70
     0
 10
0.0
 20
0.0
 30
0.0
  3
_D
  1

  0
SOLID
  5
1C4
330
1C1
100
AcDbEntity
  8
VERMASSUNG
100
AcDbTrace
 10
27.3051306068
 20
68.3740232438
 30
0.0
 11
27.7551306068
 21
71.3740232438
 31
0.0
 12
26.8551306068
 22
71.3740232438
 32
0.0
 13
26.8551306068
 23
71.3740232438
 33
0.0
  0
SOLID
  5
1C5
330
1C1
100
AcDbEntity
  8
VERMASSUNG
100
AcDbTrace
 10
27.3051306068
 20
168.3740232438
 30
0.0
 11
26.8551306068
 21
165.3740232438
 31
0.0
 12
27.7551306068
 22
165.3740232438
 32
0.0
 13
27.7551306068
 23
165.3740232438
 33
0.0
  0
LINE
  5
1C6
330
1C1
100
AcDbEntity
  8
VERMASSUNG
100
AcDbLine
 10
175.6020027162
 20
68.3740232438
 30
0.0
 11
26.3051306068
 21
68.3740232438
 31
0.0
  0
LINE
  5
1C7
330
1C1
100
AcDbEntity
  8
VERMASSUNG
100
AcDbLine
 10
175.6020027162
 20
168.3740232438
 30
0.0
 11
26.3051306068
 21
168.3740232438
 31
0.0
  0
LINE
  5
1C8
330
1C1
100
AcDbEntity
  8
VERMASSUNG
100
AcDbLine
 10
27.3051306068
 20
68.3740232438
 30
0.0
 11
27.3051306068
 21
168.3740232438
 31
0.0
  0
MTEXT
  5
1C9
330
1C1
100
AcDbEntity
  8
VERMASSUNG
100
AcDbMText
 10
24.5269953506
 20
107.1698852417
 30
0.0
 40
2.0
 41
0.0
 71
     1
 72
     1
  1
MAS-BT 50
  7
SLDTEXTSTYLE0
 11
3.391901413832837E-15
 21
1.0
 31
0.0
 73
     1
 44
1.0
  0
MTEXT
  5
1CA
330
1C1
100
AcDbEntity
  8
VERMASSUNG
100
AcDbMText
 10
24.7269953019
 20
122.1698849065
 30
0.0
 40
2.0
 41
0.0
 71
     1
 72
     1
  1
%%c
  7
SLDTEXTSTYLE0
 11
3.391901413832837E-15
 21
1.0
 31
0.0
 73
     1
 44
1.0
  0
MTEXT
  5
1CB
330
1C1
100
AcDbEntity
  8
VERMASSUNG
100
AcDbMText
 10
24.7269950108
 20
125.779475355
 30
0.0
 40
2.0
 41
0.0
 71
     1
 72
     1
  1
100
  7
SLDTEXTSTYLE0
 11
3.391901413832837E-15
 21
1.0
 31
0.0
 73
     1
 44
1.0
  0
ENDBLK
  5
1C3
330
1C1
100
AcDbEntity
  8
0
100
AcDbBlockEnd
  0
BLOCK
  5
1CE
330
1CD
100
AcDbEntity
  8
0
100
AcDbBlockBegin
  2
_D_1
 70
     0
 10
0.0
 20
0.0
 30
0.0
  3
_D_1
  1

  0
SOLID
  5
1D0
330
1CD
100
AcDbEntity
  8
VERMASSUNG
100
AcDbTrace
 10
36.8020027162
 20
186.3840251813
 30
0.0
 11
39.8020027162
 21
185.9340251813
 31
0.0
 12
39.8020027162
 22
186.8340251813
 32
0.0
 13
39.8020027162
 23
186.8340251813
 33
0.0
  0
SOLID
  5
1D1
330
1CD
100
AcDbEntity
  8
VERMASSUNG
100
AcDbTrace
 10
256.6020027162
 20
186.3840251813
 30
0.0
 11
253.6020027162
 21
186.8340251813
 31
0.0
 12
253.6020027162
 22
185.9340251813
 32
0.0
 13
253.6020027162
 23
185.9340251813
 33
0.0
  0
LINE
  5
1D2
330
1CD
100
AcDbEntity
  8
VERMASSUNG
100
AcDbLine
 10
36.8020027162
 20
136.7237011045
 30
0.0
 11
36.8020027162
 21
187.3840251813
 31
0.0
  0
LINE
  5
1D3
330
1CD
100
AcDbEntity
  8
VERMASSUNG
100
AcDbLine
 10
256.6020027162
 20
134.0740232438
 30
0.0
 11
256.6020027162
 21
187.3840251813
 31
0.0
  0
LINE
  5
1D4
330
1CD
100
AcDbEntity
  8
VERMASSUNG
100
AcDbLine
 10
36.8020027162
 20
186.3840251813
 30
0.0
 11
256.6020027162
 21
186.3840251813
 31
0.0
  0
MTEXT
  5
1D5
330
1CD
100
AcDbEntity
  8
VERMASSUNG
100
AcDbMText
 10
143.8020027531
 20
188.9621607773
 30
0.0
 40
2.0
 41
0.0
 71
     1
 72
     1
  1
219.8
  7
SLDTEXTSTYLE0
 73
     1
 44
1.0
  0
ENDBLK
  5
1CF
330
1CD
100
AcDbEntity
  8
0
100
AcDbBlockEnd
  0
BLOCK
  5
1D8
330
1D7
100
AcDbEntity
  8
0
100
AcDbBlockBegin
  2
_D_2
 70
     0
 10
0.0
 20
0.0
 30
0.0
  3
_D_2
  1

  0
SOLID
  5
1DA
330
1D7
100
AcDbEntity
  8
VERMASSUNG
100
AcDbTrace
 10
138.6020027162
 20
180.3840251813
 30
0.0
 11
141.6020027162
 21
179.9340251813
 31
0.0
 12
141.6020027162
 22
180.8340251813
 32
0.0
 13
141.6020027162
 23
180.8340251813
 33
0.0
  0
SOLID
  5
1DB
330
1D7
100
AcDbEntity
  8
VERMASSUNG
100
AcDbTrace
 10
256.6020027162
 20
180.3840251813
 30
0.0
 11
253.6020027162
 21
180.8340251813
 31
0.0
 12
253.6020027162
 22
179.9340251813
 32
0.0
 13
253.6020027162
 23
179.9340251813
 33
0.0
  0
LINE
  5
1DC
330
1D7
100
AcDbEntity
  8
VERMASSUNG
100
AcDbLine
 10
138.6020027162
 20
153.2990232438
 30
0.0
 11
138.6020027162
 21
181.3840251813
 31
0.0
  0
LINE
  5
1DD
330
1D7
100
AcDbEntity
  8
VERMASSUNG
100
AcDbLine
 10
256.6020027162
 20
134.0740232438
 30
0.0
 11
256.6020027162
 21
181.3840251813
 31
0.0
  0
LINE
  5
1DE
330
1D7
100
AcDbEntity
  8
VERMASSUNG
100
AcDbLine
 10
138.6020027162
 20
180.3840251813
 30
0.0
 11
256.6020027162
 21
180.3840251813
 31
0.0
  0
MTEXT
  5
1DF
330
1D7
100
AcDbEntity
  8
VERMASSUNG
100
AcDbMText
 10
195.9020026937
 20
182.9621607773
 30
0.0
 40
2.0
 41
0.0
 71
     1
 72
     1
  1
118
  7
SLDTEXTSTYLE0
 73
     1
 44
1.0
  0
ENDBLK
  5
1D9
330
1D7
100
AcDbEntity
  8
0
100
AcDbBlockEnd
  0
BLOCK
  5
1E2
330
1E1
100
AcDbEntity
  8
0
100
AcDbBlockBegin
  2
_D_3
 70
     0
 10
0.0
 20
0.0
 30
0.0
  3
_D_3
  1

  0
SOLID
  5
1E4
330
1E1
100
AcDbEntity
  8
VERMASSUNG
100
AcDbTrace
 10
176.6020027162
 20
174.3840251813
 30
0.0
 11
179.6020027162
 21
173.9340251813
 31
0.0
 12
179.6020027162
 22
174.8340251813
 32
0.0
 13
179.6020027162
 23
174.8340251813
 33
0.0
  0
SOLID
  5
1E5
330
1E1
100
AcDbEntity
  8
VERMASSUNG
100
AcDbTrace
 10
256.6020027162
 20
174.3840251813
 30
0.0
 11
253.6020027162
 21
174.8340251813
 31
0.0
 12
253.6020027162
 22
173.9340251813
 32
0.0
 13
253.6020027162
 23
173.9340251813
 33
0.0
  0
LINE
  5
1E6
330
1E1
100
AcDbEntity
  8
VERMASSUNG
100
AcDbLine
 10
176.6020027162
 20
167.3740232438
 30
0.0
 11
176.6020027162
 21
175.3840251813
 31
0.0
  0
LINE
  5
1E7
330
1E1
100
AcDbEntity
  8
VERMASSUNG
100
AcDbLine
 10
256.6020027162
 20
134.0740232438
 30
0.0
 11
256.6020027162
 21
175.3840251813
 31
0.0
  0
LINE
  5
1E8
330
1E1
100
AcDbEntity
  8
VERMASSUNG
100
AcDbLine
 10
176.6020027162
 20
174.3840251813
 30
0.0
 11
256.6020027162
 21
174.3840251813
 31
0.0
  0
MTEXT
  5
1E9
330
1E1
100
AcDbEntity
  8
VERMASSUNG
100
AcDbMText
 10
215.2020027661
 20
176.9621607773
 30
0.0
 40
2.0
 41
0.0
 71
     1
 72
     1
  1
80
  7
SLDTEXTSTYLE0
 73
     1
 44
1.0
  0
ENDBLK
  5
1E3
330
1E1
100
AcDbEntity
  8
0
100
AcDbBlockEnd
  0
BLOCK
  5
1EC
330
1EB
100
AcDbEntity
  8
0
100
AcDbBlockBegin
  2
_D_4
 70
     0
 10
0.0
 20
0.0
 30
0.0
  3
_D_4
  1

  0
SOLID
  5
1EE
330
1EB
100
AcDbEntity
  8
VERMASSUNG
100
AcDbTrace
 10
272.6020027162
 20
102.3740232438
 30
0.0
 11
273.0520027162
 21
105.3740232438
 31
0.0
 12
272.1520027162
 22
105.3740232438
 32
0.0
 13
272.1520027162
 23
105.3740232438
 33
0.0
  0
SOLID
  5
1EF
330
1EB
100
AcDbEntity
  8
VERMASSUNG
100
AcDbTrace
 10
272.6020027162
 20
134.3740232438
 30
0.0
 11
272.1520027162
 21
131.3740232438
 31
0.0
 12
273.0520027162
 22
131.3740232438
 32
0.0
 13
273.0520027162
 23
131.3740232438
 33
0.0
  0
LINE
  5
1F0
330
1EB
100
AcDbEntity
  8
VERMASSUNG
100
AcDbLine
 10
256.3020027162
 20
102.3740232438
 30
0.0
 11
273.6020027162
 21
102.3740232438
 31
0.0
  0
LINE
  5
1F1
330
1EB
100
AcDbEntity
  8
VERMASSUNG
100
AcDbLine
 10
239.5520027162
 20
134.3740232438
 30
0.0
 11
273.6020027162
 21
134.3740232438
 31
0.0
  0
LINE
  5
1F2
330
1EB
100
AcDbEntity
  8
VERMASSUNG
100
AcDbLine
 10
272.6020027162
 20
102.3740232438
 30
0.0
 11
272.6020027162
 21
134.3740232438
 31
0.0
  0
MTEXT
  5
1F3
330
1EB
100
AcDbEntity
  8
VERMASSUNG
100
AcDbMText
 10
269.82386746
 20
113.2690232545
 30
0.0
 40
2.0
 41
0.0
 71
     1
 72
     1
  1
WH
  7
SLDTEXTSTYLE0
 11
6.123233995736766E-17
 21
1.0
 31
0.0
 73
     1
 44
1.0
  0
MTEXT
  5
1F4
330
1EB
100
AcDbEntity
  8
VERMASSUNG
100
AcDbMText
 10
270.0238674113
 20
117.0690233186
 30
0.0
 40
2.0
 41
0.0
 71
     1
 72
     1
  1
%%c
  7
SLDTEXTSTYLE0
 11
6.123233995736766E-17
 21
1.0
 31
0.0
 73
     1
 44
1.0
  0
MTEXT
  5
1F5
330
1EB
100
AcDbEntity
  8
VERMASSUNG
100
AcDbMText
 10
269.82386746
 20
120.6790233329
 30
0.0
 40
2.0
 41
0.0
 71
     1
 72
     1
  1
32
  7
SLDTEXTSTYLE0
 11
6.123233995736766E-17
 21
1.0
 31
0.0
 73
     1
 44
1.0
  0
ENDBLK
  5
1ED
330
1EB
100
AcDbEntity
  8
0
100
AcDbBlockEnd
  0
BLOCK
  5
1F8
330
1F7
100
AcDbEntity
  8
0
100
AcDbBlockBegin
  2
_D_5
 70
     0
 10
0.0
 20
0.0
 30
0.0
  3
_D_5
  1

  0
SOLID
  5
1FA
330
1F7
100
AcDbEntity
  8
VERMASSUNG
100
AcDbTrace
 10
266.6020027162
 20
109.3740232438
 30
0.0
 11
267.0520027162
 21
112.3740232438
 31
0.0
 12
266.1520027162
 22
112.3740232438
 32
0.0
 13
266.1520027162
 23
112.3740232438
 33
0.0
  0
SOLID
  5
1FB
330
1F7
100
AcDbEntity
  8
VERMASSUNG
100
AcDbTrace
 10
266.6020027162
 20
127.3740232438
 30
0.0
 11
266.1520027162
 21
124.3740232438
 31
0.0
 12
267.0520027162
 22
124.3740232438
 32
0.0
 13
267.0520027162
 23
124.3740232438
 33
0.0
  0
LINE
  5
1FC
330
1F7
100
AcDbEntity
  8
VERMASSUNG
100
AcDbLine
 10
255.6020027162
 20
109.3740232438
 30
0.0
 11
267.6020027162
 21
109.3740232438
 31
0.0
  0
LINE
  5
1FD
330
1F7
100
AcDbEntity
  8
VERMASSUNG
100
AcDbLine
 10
255.6020027162
 20
127.3740232438
 30
0.0
 11
267.6020027162
 21
127.3740232438
 31
0.0
  0
LINE
  5
1FE
330
1F7
100
AcDbEntity
  8
VERMASSUNG
100
AcDbLine
 10
266.6020027162
 20
109.3740232438
 30
0.0
 11
266.6020027162
 21
127.3740232438
 31
0.0
  0
MTEXT
  5
1FF
330
1F7
100
AcDbEntity
  8
VERMASSUNG
100
AcDbMText
 10
264.0238674113
 20
115.3690231797
 30
0.0
 40
2.0
 41
0.0
 71
     1
 72
     1
  1
%%c
  7
SLDTEXTSTYLE0
 11
6.123233995736766E-17
 21
1.0
 31
0.0
 73
     1
 44
1.0
  0
MTEXT
  5
200
330
1F7
100
AcDbEntity
  8
VERMASSUNG
100
AcDbMText
 10
263.82386746
 20
118.979023194
 30
0.0
 40
2.0
 41
0.0
 71
     1
 72
     1
  1
18
  7
SLDTEXTSTYLE0
 11
6.123233995736766E-17
 21
1.0
 31
0.0
 73
     1
 44
1.0
  0
ENDBLK
  5
1F9
330
1F7
100
AcDbEntity
  8
0
100
AcDbBlockEnd
  0
ENDSEC
  0
SECTION
  2
ENTITIES
  0
MTEXT
  5
78
330
1F
100
AcDbEntity
  8
KOPF_DÜNN
100
AcDbMText
 10
13.8892156294
 20
23.8442973028
 30
0.0
 40
3.0
 41
0.0
 71
     1
 72
     1
  1
A34.550.032.065
  7
SLDTEXTSTYLE0
 73
     1
 44
1.0
  0
MTEXT
  5
79
330
1F
100
AcDbEntity
  8
VERMASSUNG
100
AcDbMText
 10
13.9329988022
 20
28.8834360957
 30
0.0
 40
3.0
 41
0.0
 71
     1
 72
     1
  1
Aufnahme_Master shank
  7
SLDTEXTSTYLE0
 73
     1
 44
1.0
  0
MTEXT
  5
7A
330
1F
100
AcDbEntity
  8
VERMASSUNG
100
AcDbMText
 10
98.8601118557
 20
13.8365368761
 30
0.0
 40
2.0
 41
0.0
 71
     1
 72
     1
  1
Datum: 17.11.2011
  7
SLDTEXTSTYLE0
 73
     1
 44
1.0
  0
MTEXT
  5
7B
330
1F
100
AcDbEntity
  8
VERMASSUNG
100
AcDbMText
 10
13.933048693
 20
18.0482802738
 30
0.0
 40
2.0
 41
0.0
 71
     1
 72
     1
  1
MAS-BT A/D
  7
SLDTEXTSTYLE0
 73
     1
 44
1.0
  0
MTEXT
  5
7C
330
1F
100
AcDbEntity
  8
VERMASSUNG
100
AcDbMText
 10
13.9808475933
 20
13.9090974274
 30
0.0
 40
2.0
 41
0.0
 71
     1
 72
     1
  1
Gewicht: 4099g
  7
SLDTEXTSTYLE0
 73
     1
 44
1.0
  0
LINE
  5
7D
330
1F
100
AcDbEntity
  8
0
  6
Continuous
 62
     7
370
    15
100
AcDbLine
 10
248.143191806
 20
134.082834154
 30
0.0
 11
247.8520027162
 21
134.3740232438
 31
0.0
  0
LINE
  5
7E
330
1F
100
AcDbEntity
  8
0
  6
Continuous
 62
     7
370
    15
100
AcDbLine
 10
241.2520027162
 20
134.3740232438
 30
0.0
 11
240.9683773897
 21
134.0903979173
 31
0.0
  0
LINE
  5
7F
330
1F
100
AcDbEntity
  8
0
  6
Continuous
 62
     7
370
    15
100
AcDbLine
 10
172.6017154895
 20
68.3740232438
 30
0.0
 11
175.6020027162
 21
68.3740232438
 31
0.0
  0
LINE
  5
80
330
1F
100
AcDbEntity
  8
0
  6
Continuous
 62
     7
370
    15
100
AcDbLine
 10
175.6020027162
 20
168.3740232438
 30
0.0
 11
172.6015685353
 21
168.3740232438
 31
0.0
  0
ARC
  5
81
330
1F
100
AcDbEntity
  8
0
  6
Continuous
 62
     7
370
    15
100
AcDbCircle
 10
175.6020027162
 20
69.3740232438
 30
0.0
 40
1.0
100
AcDbArc
 50
270.0
 51
0.0
  0
ARC
  5
82
330
1F
100
AcDbEntity
  8
0
  6
Continuous
 62
     7
370
    15
100
AcDbCircle
 10
175.6020027162
 20
167.3740232438
 30
0.0
 40
1.0
100
AcDbArc
 50
0.0
 51
90.0
  0
ARC
  5
83
330
1F
100
AcDbEntity
  8
0
  6
Continuous
 62
     7
370
    15
100
AcDbCircle
 10
140.6020027162
 20
82.4490232438
 30
0.0
 40
1.0
100
AcDbArc
 50
38.7240252166
 51
90.0
  0
ARC
  5
84
330
1F
100
AcDbEntity
  8
0
  6
Continuous
 62
     7
370
    15
100
AcDbCircle
 10
140.6020027162
 20
154.2990232438
 30
0.0
 40
1.000000000000017
100
AcDbArc
 50
270.0
 51
321.2772281032
  0
LINE
  5
85
330
1F
100
AcDbEntity
  8
0
  6
Continuous
 62
     7
370
    15
100
AcDbLine
 10
138.6020027162
 20
153.2990232438
 30
0.0
 11
38.5133889301
 21
138.7027670667
 31
0.0
  0
LINE
  5
86
330
1F
100
AcDbEntity
  8
0
  6
Continuous
 62
     7
370
    15
100
AcDbLine
 10
38.5133889301
 20
98.0452794209
 30
0.0
 11
138.6020027162
 21
83.4490232438
 31
0.0
  0
LINE
  5
87
330
1F
100
AcDbEntity
  8
0
  6
Continuous
 62
     7
370
    15
100
AcDbLine
 10
138.6020027162
 20
83.4490232438
 30
0.0
 11
140.6020027162
 21
83.4490232438
 31
0.0
  0
LINE
  5
88
330
1F
100
AcDbEntity
  8
0
  6
Continuous
 62
     7
370
    15
100
AcDbLine
 10
140.6020027162
 20
153.2990232438
 30
0.0
 11
138.6020027162
 21
153.2990232438
 31
0.0
  0
ARC
  5
89
330
1F
100
AcDbEntity
  8
0
  6
Continuous
 62
     7
370
    15
100
AcDbCircle
 10
38.8020027162
 20
100.0243453831
 30
0.0
 40
2.00000000000002
100
AcDbArc
 50
180.0
 51
261.7028550302
  0
ARC
  5
8A
330
1F
100
AcDbEntity
  8
0
  6
Continuous
 62
     7
370
    15
100
AcDbCircle
 10
38.8020027162
 20
136.7237011045
 30
0.0
 40
2.0
100
AcDbArc
 50
98.2971449698
 51
180.0
  0
ARC
  5
8B
330
1F
100
AcDbEntity
  8
0
  6
Continuous
 62
     7
370
    15
100
AcDbCircle
 10
179.6020027162
 20
99.3740232438
 30
0.0
 40
3.0
100
AcDbArc
 50
90.0
 51
180.0
  0
ARC
  5
8C
330
1F
100
AcDbEntity
  8
0
  6
Continuous
 62
     7
370
    15
100
AcDbCircle
 10
179.6020027162
 20
137.3740232438
 30
0.0
 40
3.0
100
AcDbArc
 50
180.0
 51
270.0
  0
LINE
  5
8D
330
1F
100
AcDbEntity
  8
0
  6
Continuous
 62
     7
370
    15
100
AcDbLine
 10
256.3020027162
 20
102.3740232438
 30
0.0
 11
256.6020027162
 21
102.6740232438
 31
0.0
  0
LINE
  5
8E
330
1F
100
AcDbEntity
  8
0
  6
Continuous
 62
     7
370
    15
100
AcDbLine
 10
256.6020027162
 20
134.0740232438
 30
0.0
 11
256.3020027162
 21
134.3740232438
 31
0.0
  0
LINE
  5
8F
330
1F
100
AcDbEntity
  8
0
  6
Continuous
 62
     7
370
    15
100
AcDbLine
 10
239.5993828311
 20
134.3740232438
 30
0.0
 11
179.6020027162
 21
134.3740232438
 31
0.0
  0
LINE
  5
90
330
1F
100
AcDbEntity
  8
0
  6
Continuous
 62
     7
370
    15
100
AcDbLine
 10
256.3020027162
 20
134.3740232438
 30
0.0
 11
249.4971649391
 21
134.3740232438
 31
0.0
  0
LINE
  5
91
330
1F
100
AcDbEntity
  8
0
  6
Continuous
 62
     7
370
    15
100
AcDbLine
 10
179.6020027162
 20
102.3740232438
 30
0.0
 11
256.3020027162
 21
102.3740232438
 31
0.0
  0
SPLINE
  5
92
330
1F
100
AcDbEntity
  8
0
  6
Continuous
 62
     7
370
    15
100
AcDbSpline
210
0.0
220
0.0
230
1.0
 70
    24
 71
     3
 72
    10
 73
     6
 74
     0
 42
0.000000001
 43
0.00000001
 40
0.0
 40
0.0
 40
0.0
 40
0.0
 40
0.4391222274230438
 40
0.7513714712594649
 40
1.0
 40
1.0
 40
1.0
 40
1.0
 10
246.8614037929597
 20
118.3740232438032
 30
0.0
 10
246.6960971814974
 20
118.660342693683
 30
0.0
 10
246.4132450184625
 20
119.1502570110903
 30
0.0
 10
246.002072830188
 20
119.8624281318411
 30
0.0
 10
245.7974218850575
 20
120.2168939666241
 30
0.0
 10
245.7067032545805
 20
120.3740232438033
 30
0.0
  0
SPLINE
  5
93
330
1F
100
AcDbEntity
  8
0
  6
Continuous
 62
     7
370
    15
100
AcDbSpline
210
0.0
220
0.0
230
1.0
 70
    24
 71
     3
 72
    15
 73
    11
 74
     0
 42
0.000000001
 43
0.00000001
 40
0.0
 40
0.0
 40
0.0
 40
0.0
 40
0.0920657613126145
 40
0.1844804466012854
 40
0.3495514851719053
 40
0.5198009272493945
 40
0.6927171542276024
 40
0.871794071011006
 40
0.9358391946447491
 40
1.0
 40
1.0
 40
1.0
 40
1.0
 10
245.7067032545805
 20
120.3740232438033
 30
0.0
 10
245.6400260774827
 20
120.3740232438033
 30
0.0
 10
245.5064190205948
 20
120.3740232438033
 30
0.0
 10
245.2445448858084
 20
120.3740232438032
 30
0.0
 10
244.9117363995757
 20
120.3740232438033
 30
0.0
 10
244.501730851019
 20
120.3740232438033
 30
0.0
 10
244.0827548235856
 20
120.3740232438033
 30
0.0
 10
243.7635185685821
 20
120.3740232438033
 30
0.0
 10
243.5362973232316
 20
120.3740232438033
 30
0.0
 10
243.4436617550136
 20
120.3740232438033
 30
0.0
 10
243.3973021778219
 20
120.3740232438033
 30
0.0
  0
SPLINE
  5
94
330
1F
100
AcDbEntity
  8
0
  6
Continuous
 62
     7
370
    15
100
AcDbSpline
210
0.0
220
0.0
230
1.0
 70
    24
 71
     3
 72
    10
 73
     6
 74
     0
 42
0.000000001
 43
0.00000001
 40
0.0
 40
0.0
 40
0.0
 40
0.0
 40
0.4391222274230501
 40
0.7513714712594606
 40
1.0
 40
1.0
 40
1.0
 40
1.0
 10
243.3973021778219
 20
120.3740232438033
 30
0.0
 10
243.2319955663597
 20
120.0877037939235
 30
0.0
 10
242.9491434033248
 20
119.5977894765162
 30
0.0
 10
242.53797121505
 20
118.8856183557654
 30
0.0
 10
242.3333202699196
 20
118.5311525209824
 30
0.0
 10
242.2426016394427
 20
118.3740232438033
 30
0.0
  0
SPLINE
  5
95
330
1F
100
AcDbEntity
  8
0
  6
Continuous
 62
     7
370
    15
100
AcDbSpline
210
0.0
220
0.0
230
1.0
 70
    24
 71
     3
 72
    11
 73
     7
 74
     0
 42
0.000000001
 43
0.00000001
 40
0.0
 40
0.0
 40
0.0
 40
0.0
 40
0.2164526859271212
 40
0.4403055508634171
 40
0.7518960204222018
 40
0.9999999999999999
 40
0.9999999999999999
 40
0.9999999999999999
 40
0.9999999999999999
 10
242.2426016394427
 20
118.3740232438033
 30
0.0
 10
242.3216987423314
 20
118.2370230428685
 30
0.0
 10
242.4825971544251
 20
117.9583388182649
 30
0.0
 10
242.7811833539515
 20
117.4411723502466
 30
0.0
 10
243.1014744979747
 20
116.886411815584
 30
0.0
 10
243.3064428470404
 20
116.5313962210586
 30
0.0
 10
243.3973021778219
 20
116.3740232438033
 30
0.0
  0
SPLINE
  5
96
330
1F
100
AcDbEntity
  8
0
  6
Continuous
 62
     7
370
    15
100
AcDbSpline
210
0.0
220
0.0
230
1.0
 70
    24
 71
     3
 72
    15
 73
    11
 74
     0
 42
0.000000001
 43
0.00000001
 40
0.0
 40
0.0
 40
0.0
 40
0.0
 40
0.0640504367340908
 40
0.12820615513627
 40
0.3015971188615498
 40
0.4801922626499915
 40
0.6449121499732287
 40
0.815519171297027
 40
0.9075602129381687
 40
1.0
 40
1.0
 40
1.0
 40
1.0
 10
243.3973021778219
 20
116.3740232438033
 30
0.0
 10
243.4435811445527
 20
116.3740232438033
 30
0.0
 10
243.5362151481718
 20
116.3740232438032
 30
0.0
 10
243.7592375060484
 20
116.3740232438033
 30
0.0
 10
244.0781778534065
 20
116.3740232438032
 30
0.0
 10
244.4927355106736
 20
116.3740232438033
 30
0.0
 10
244.9072225905006
 20
116.3740232438032
 30
0.0
 10
245.2401199340709
 20
116.3740232438032
 30
0.0
 10
245.5061400664997
 20
116.3740232438032
 30
0.0
 10
245.6397525931158
 20
116.3740232438033
 30
0.0
 10
245.7067032545804
 20
116.3740232438033
 30
0.0
  0
CIRCLE
  5
97
330
1F
100
AcDbEntity
  8
0
  6
Continuous
 62
     7
370
    15
100
AcDbCircle
 10
244.5520027162
 20
118.3740232438
 30
0.0
 40
2.40000000000002
  0
SPLINE
  5
98
330
1F
100
AcDbEntity
  8
0
  6
Continuous
 62
     7
370
    15
100
AcDbSpline
210
0.0
220
0.0
230
1.0
 70
    24
 71
     3
 72
    11
 73
     7
 74
     0
 42
0.000000001
 43
0.00000001
 40
0.0
 40
0.0
 40
0.0
 40
0.0
 40
0.2164526859271361
 40
0.4403055508634328
 40
0.7518960204221982
 40
1.0
 40
1.0
 40
1.0
 40
1.0
 10
245.7067032545804
 20
116.3740232438033
 30
0.0
 10
245.7858003574691
 20
116.511023444738
 30
0.0
 10
245.9466987695629
 20
116.7897076693415
 30
0.0
 10
246.2452849690892
 20
117.3068741373599
 30
0.0
 10
246.5655761131124
 20
117.8616346720225
 30
0.0
 10
246.7705444621782
 20
118.2166502665479
 30
0.0
 10
246.8614037929597
 20
118.3740232438032
 30
0.0
  0
CIRCLE
  5
99
330
1F
100
AcDbEntity
  8
0
  6
Continuous
 62
     7
370
    15
100
AcDbCircle
 10
244.5520027162
 20
118.3740232438
 30
0.0
 40
4.000000000000014
  0
CIRCLE
  5
9A
330
1F
100
AcDbEntity
  8
0
  6
Continuous
 62
     7
370
    15
100
AcDbCircle
 10
244.5520027162
 20
118.3740232438
 30
0.0
 40
3.300000000000011
  0
ARC
  5
9B
330
1F
100
AcDbEntity
  8
0
  6
Continuous
 62
     7
370
    15
100
AcDbCircle
 10
244.5520027162
 20
118.3740232438
 30
0.0
 40
2.000000000000052
100
AcDbArc
 50
90.0
 51
150.0
  0
ARC
  5
9C
330
1F
100
AcDbEntity
  8
0
  6
Continuous
 62
     7
370
    15
100
AcDbCircle
 10
244.5520027162
 20
118.3740232438
 30
0.0
 40
2.0
100
AcDbArc
 50
30.0
 51
90.0
  0
ARC
  5
9D
330
1F
100
AcDbEntity
  8
0
  6
Continuous
 62
     7
370
    15
100
AcDbCircle
 10
244.5520027162
 20
118.3740232438
 30
0.0
 40
2.000000000000136
100
AcDbArc
 50
150.0
 51
210.0
  0
ARC
  5
9E
330
1F
100
AcDbEntity
  8
0
  6
Continuous
 62
     7
370
    15
100
AcDbCircle
 10
244.5520027162
 20
118.3740232438
 30
0.0
 40
2.000000000000014
100
AcDbArc
 50
270.0
 51
330.0
  0
ARC
  5
9F
330
1F
100
AcDbEntity
  8
0
  6
Continuous
 62
     7
370
    15
100
AcDbCircle
 10
244.5520027162
 20
118.3740232438
 30
0.0
 40
1.999999999999992
100
AcDbArc
 50
330.0
 51
30.0
  0
ARC
  5
A0
330
1F
100
AcDbEntity
  8
0
  6
Continuous
 62
     7
370
    15
100
AcDbCircle
 10
244.5520027162
 20
118.3740232438
 30
0.0
 40
2.000000000000136
100
AcDbArc
 50
210.0
 51
270.0
  0
LINE
  5
A1
330
1F
100
AcDbEntity
  8
0
  6
Continuous
 62
     7
370
    15
100
AcDbLine
 10
244.0192905479
 20
134.3740232438
 30
0.0
 11
247.8520027162
 21
134.3740232438
 31
0.0
  0
LINE
  5
A2
330
1F
100
AcDbEntity
  8
0
  6
Continuous
 62
     7
370
    15
100
AcDbLine
 10
241.2520027162
 20
134.3740232438
 30
0.0
 11
244.0192905479
 21
134.3740232438
 31
0.0
  0
SPLINE
  5
A3
330
1F
100
AcDbEntity
  8
0
  6
Continuous
 62
     7
370
    15
100
AcDbSpline
210
0.0
220
0.0
230
1.0
 70
     8
 71
     3
 72
    12
 73
     8
 74
     0
 42
0.000000001
 43
0.00000001
 40
0.0
 40
0.0
 40
0.0
 40
0.0
 40
0.0005125153354919
 40
0.2509311781591491
 40
0.5009716914396624
 40
0.7506335204375856
 40
1.0
 40
1.0
 40
1.0
 40
1.0
 10
172.6015685352712
 20
168.3738982016196
 30
0.0
 10
172.601712991958
 20
168.373939874937
 30
0.0
 10
172.6724400202481
 20
168.3943434295245
 30
0.0
 10
172.4291764599718
 20
168.3227317981378
 30
0.0
 10
171.8236518457666
 20
168.154378589666
 30
0.0
 10
170.7984881613505
 20
167.8770449992104
 30
0.0
 10
169.8173042941257
 20
167.6484262498869
 30
0.0
 10
169.3270027168883
 20
167.5341845291211
 30
0.0
  0
SPLINE
  5
A4
330
1F
100
AcDbEntity
  8
0
  6
Continuous
 62
     7
370
    15
100
AcDbSpline
210
0.0
220
0.0
230
1.0
 70
     8
 71
     3
 72
    13
 73
     9
 74
     0
 42
0.000000001
 43
0.00000001
 40
0.0
 40
0.0
 40
0.0
 40
0.0
 40
0.2492492380460214
 40
0.4988437701385547
 40
0.6658825660855477
 40
0.832025671123022
 40
0.9994886337290263
 40
1.0
 40
1.0
 40
1.0
 40
1.0
 10
169.3270027168883
 20
69.21386195848547
 30
0.0
 10
169.8181874403119
 20
69.09937443479343
 30
0.0
 10
170.8012373432442
 20
68.87024078367344
 30
0.0
 10
171.7002807680631
 20
68.62703103252504
 30
0.0
 10
172.2586056687438
 20
68.47309382514014
 30
0.0
 10
172.5242768934519
 20
68.3968402662915
 30
0.0
 10
172.6331711394711
 20
68.36492608196475
 30
0.0
 10
172.6018109596503
 20
68.37407899591055
 30
0.0
 10
172.6017154894774
 20
68.37410686023662
 30
0.0
  0
LINE
  5
A5
330
1F
100
AcDbEntity
  8
0
  6
Continuous
 62
     7
370
    15
100
AcDbLine
 10
169.3270027162
 20
69.2138619585
 30
0.0
 11
169.3270027162
 21
167.5341845291
 31
0.0
  0
SPLINE
  5
A6
330
1F
100
AcDbEntity
  8
0
  6
Continuous
 62
     7
370
    15
100
AcDbSpline
210
0.0
220
0.0
230
1.0
 70
     8
 71
     3
 72
    12
 73
     8
 74
     0
 42
0.000000001
 43
0.00000001
 40
0.0
 40
0.0
 40
0.0
 40
0.0
 40
0.4999999999999992
 40
0.4999999999999992
 40
0.7499999999999996
 40
0.7499999999999996
 40
1.0
 40
1.0
 40
1.0
 40
1.0
 10
168.6862823810447
 20
166.5800701955042
 30
0.0
 10
168.1473856859472
 20
165.5223703780032
 30
0.0
 10
167.5850548752275
 20
164.4200019430446
 30
0.0
 10
166.716388632637
 20
162.7200373366818
 30
0.0
 10
166.4220599102945
 20
162.1445189212432
 30
0.0
 10
165.8285289113267
 20
160.9850902527847
 30
0.0
 10
165.5293026532083
 20
160.4011305837034
 30
0.0
 10
165.2278158049549
 20
159.8134206231146
 30
0.0
  0
SPLINE
  5
A7
330
1F
100
AcDbEntity
  8
0
  6
Continuous
 62
     7
370
    15
100
AcDbSpline
210
0.0
220
0.0
230
1.0
 70
     8
 71
     3
 72
     9
 73
     5
 74
     0
 42
0.000000001
 43
0.00000001
 40
0.0
 40
0.0
 40
0.0
 40
0.0
 40
0.5047943291262357
 40
1.0
 40
1.0
 40
1.0
 40
1.0
 10
169.3269791216134
 20
167.5341284938907
 30
0.0
 10
169.2185966873869
 20
167.3732869330115
 30
0.0
 10
169.0038905625895
 20
167.0546590253691
 30
0.0
 10
168.7914631337703
 20
166.7372847987658
 30
0.0
 10
168.6862678663699
 20
166.5801192819627
 30
0.0
  0
SPLINE
  5
A8
330
1F
100
AcDbEntity
  8
0
  6
Continuous
 62
     7
370
    15
100
AcDbSpline
210
0.0
220
0.0
230
1.0
 70
     8
 71
     3
 72
     9
 73
     5
 74
     0
 42
0.000000001
 43
0.00000001
 40
0.0
 40
0.0
 40
0.0
 40
0.0
 40
0.4952056703152484
 40
1.0
 40
1.0
 40
1.0
 40
1.0
 10
168.6862678663699
 20
70.16792720564389
 30
0.0
 10
168.7914631336505
 20
70.01076168902046
 30
0.0
 10
169.0038905624671
 20
69.69338746242201
 30
0.0
 10
169.2185966872662
 20
69.37475955477525
 30
0.0
 10
169.3269791216134
 20
69.21391799371584
 30
0.0
  0
SPLINE
  5
A9
330
1F
100
AcDbEntity
  8
0
  6
Continuous
 62
     7
370
    15
100
AcDbSpline
210
0.0
220
0.0
230
1.0
 70
     8
 71
     3
 72
    12
 73
     8
 74
     0
 42
0.000000001
 43
0.00000001
 40
0.0
 40
0.0
 40
0.0
 40
0.0
 40
0.2499999999999993
 40
0.2499999999999993
 40
0.4999999999999986
 40
0.4999999999999986
 40
1.0
 40
1.0
 40
1.0
 40
1.0
 10
168.6862823488058
 20
70.16797635537807
 30
0.0
 10
168.4169448274369
 20
70.69660874406271
 30
0.0
 10
168.1411747100429
 20
71.2375333980094
 30
0.0
 10
167.5789144234371
 20
72.33959015237245
 30
0.0
 10
167.2918290500324
 20
72.90188699160926
 30
0.0
 10
166.4214026093131
 20
74.60528222692928
 30
0.0
 10
165.8293926131438
 20
75.76192899801136
 30
0.0
 10
165.2278158049549
 20
76.93462586449199
 30
0.0
  0
LINE
  5
AA
330
1F
100
AcDbEntity
  8
0
  6
Continuous
 62
     7
370
    15
100
AcDbLine
 10
176.6020027162
 20
69.3740232438
 30
0.0
 11
176.6020027162
 21
167.3740232438
 31
0.0
  0
LINE
  5
AB
330
1F
100
AcDbEntity
  8
0
  6
Continuous
 62
     7
370
    15
100
AcDbLine
 10
154.2770027162
 20
166.4791147393
 30
0.0
 11
142.6020027162
 21
166.4791147393
 31
0.0
  0
LINE
  5
AC
330
1F
100
AcDbEntity
  8
0
  6
Continuous
 62
     7
370
    15
100
AcDbLine
 10
154.2770027162
 20
70.2689317483
 30
0.0
 11
154.2770027162
 21
166.4791147393
 31
0.0
  0
LINE
  5
AD
330
1F
100
AcDbEntity
  8
0
  6
Continuous
 62
     7
370
    15
100
AcDbLine
 10
142.6020027162
 20
70.2689317483
 30
0.0
 11
154.2770027162
 21
70.2689317483
 31
0.0
  0
SPLINE
  5
AE
330
1F
100
AcDbEntity
  8
0
  6
Continuous
 62
     7
370
    15
100
AcDbSpline
210
0.0
220
0.0
230
1.0
 70
     8
 71
     3
 72
     8
 73
     4
 74
     0
 42
0.000000001
 43
0.00000001
 40
0.0
 40
0.0
 40
0.0
 40
0.0
 40
0.0012417047560385
 40
0.0012417047560385
 40
0.0012417047560385
 40
0.0012417047560385
 10
154.834571752729
 20
165.6945933977242
 30
0.0
 10
154.6491832014346
 20
165.9562664832728
 30
0.0
 10
154.4633169558267
 20
166.2177705921504
 30
0.0
 10
154.2770027162013
 20
166.4791147392676
 30
0.0
  0
SPLINE
  5
AF
330
1F
100
AcDbEntity
  8
0
  6
Continuous
 62
     7
370
    15
100
AcDbSpline
210
0.0
220
0.0
230
1.0
 70
     8
 71
     3
 72
     8
 73
     4
 74
     0
 42
0.000000001
 43
0.00000001
 40
0.0
 40
0.0
 40
0.0
 40
0.0
 40
1.0
 40
1.0
 40
1.0
 40
1.0
 10
158.3761896274476
 20
159.3042993239863
 30
0.0
 10
157.2012021515447
 20
161.4373760789222
 30
0.0
 10
156.0199556174483
 20
163.5670946447983
 30
0.0
 10
154.834571752729
 20
165.6945933977242
 30
0.0
  0
SPLINE
  5
B0
330
1F
100
AcDbEntity
  8
0
  6
Continuous
 62
     7
370
    15
100
AcDbSpline
210
0.0
220
0.0
230
1.0
 70
     8
 71
     3
 72
     8
 73
     4
 74
     0
 42
0.000000001
 43
0.00000001
 40
0.0
 40
0.0
 40
0.0
 40
0.0
 40
1.0
 40
1.0
 40
1.0
 40
1.0
 10
158.3761896274476
 20
77.44374716362029
 30
0.0
 10
157.2011528296207
 20
75.31058086947495
 30
0.0
 10
156.0199056221817
 20
73.18086211249327
 30
0.0
 10
154.834571752729
 20
71.05345308988231
 30
0.0
  0
SPLINE
  5
B1
330
1F
100
AcDbEntity
  8
0
  6
Continuous
 62
     7
370
    15
100
AcDbSpline
210
0.0
220
0.0
230
1.0
 70
     8
 71
     3
 72
     8
 73
     4
 74
     0
 42
0.000000001
 43
0.00000001
 40
0.0
 40
0.0
 40
0.0
 40
0.0
 40
0.0012417047560385
 40
0.0012417047560385
 40
0.0012417047560385
 40
0.0012417047560385
 10
154.2770027162013
 20
70.26893174833891
 30
0.0
 10
154.4633169558267
 20
70.53027589545616
 30
0.0
 10
154.6491832014346
 20
70.79178000433376
 30
0.0
 10
154.834571752729
 20
71.05345308988231
 30
0.0
  0
LINE
  5
B2
330
1F
100
AcDbEntity
  8
0
  6
Continuous
 62
     7
370
    15
100
AcDbLine
 10
141.6020027162
 20
71.3721349839
 30
0.0
 11
141.6020027162
 21
165.3759115037
 31
0.0
  0
SPLINE
  5
B3
330
1F
100
AcDbEntity
  8
0
  6
Continuous
 62
     7
370
    15
100
AcDbSpline
210
0.0
220
0.0
230
1.0
 70
     8
 71
     3
 72
    12
 73
     8
 74
     0
 42
0.000000001
 43
0.00000001
 40
0.0
 40
0.0
 40
0.0
 40
0.0
 40
0.2500000000000001
 40
0.2500000000000001
 40
0.5000000000000002
 40
0.5000000000000002
 40
1.0
 40
1.0
 40
1.0
 40
1.0
 10
141.988139136251
 20
166.3084569776746
 30
0.0
 10
141.9365090141412
 20
166.2522527069599
 30
0.0
 10
141.8879767811507
 20
166.1909632964395
 30
0.0
 10
141.7981516441929
 20
166.0565012223948
 30
0.0
 10
141.7564413709805
 20
165.9823821521519
 30
0.0
 10
141.6503099908184
 20
165.7460745069835
 30
0.0
 10
141.6020027162013
 20
165.5642509643336
 30
0.0
 10
141.6020027162013
 20
165.3759115037445
 30
0.0
  0
SPLINE
  5
B4
330
1F
100
AcDbEntity
  8
0
  6
Continuous
 62
     7
370
    15
100
AcDbSpline
210
0.0
220
0.0
230
1.0
 70
     8
 71
     3
 72
     8
 73
     4
 74
     0
 42
0.000000001
 43
0.00000001
 40
0.0
 40
0.0
 40
0.0
 40
0.0
 40
1.0
 40
1.0
 40
1.0
 40
1.0
 10
142.6020027162013
 20
166.4791147392676
 30
0.0
 10
142.3751084725015
 20
166.4791147392676
 30
0.0
 10
142.1572588265751
 20
166.4151025722988
 30
0.0
 10
141.988139136251
 20
166.3084569776746
 30
0.0
  0
SPLINE
  5
B5
330
1F
100
AcDbEntity
  8
0
  6
Continuous
 62
     7
370
    15
100
AcDbSpline
210
0.0
220
0.0
230
1.0
 70
     8
 71
     3
 72
    10
 73
     6
 74
     0
 42
0.000000001
 43
0.00000001
 40
0.0
 40
0.0
 40
0.0
 40
0.0
 40
0.5
 40
0.5
 40
1.0
 40
1.0
 40
1.0
 40
1.0
 10
141.988139136251
 20
70.43958950993202
 30
0.0
 10
142.0727497769817
 20
70.38623468131932
 30
0.0
 10
142.1679843990883
 20
70.34366521936913
 30
0.0
 10
142.3780217582682
 20
70.28438288468818
 30
0.0
 10
142.4884536630523
 20
70.2689317483389
 30
0.0
 10
142.6020027162013
 20
70.2689317483389
 30
0.0
  0
SPLINE
  5
B6
330
1F
100
AcDbEntity
  8
0
  6
Continuous
 62
     7
370
    15
100
AcDbSpline
210
0.0
220
0.0
230
1.0
 70
     8
 71
     3
 72
    12
 73
     8
 74
     0
 42
0.000000001
 43
0.00000001
 40
0.0
 40
0.0
 40
0.0
 40
0.0
 40
0.2500000000000039
 40
0.2500000000000039
 40
0.5000000000000079
 40
0.5000000000000079
 40
1.0
 40
1.0
 40
1.0
 40
1.0
 10
141.988139136251
 20
70.43958950993202
 30
0.0
 10
141.9365090141412
 20
70.49579378064666
 30
0.0
 10
141.8879767811507
 20
70.55708319116708
 30
0.0
 10
141.7981516441929
 20
70.69154526521176
 30
0.0
 10
141.7564413709805
 20
70.76566433545459
 30
0.0
 10
141.6503099908184
 20
71.00197198062305
 30
0.0
 10
141.6020027162013
 20
71.18379552327295
 30
0.0
 10
141.6020027162013
 20
71.37213498386205
 30
0.0
  0
SPLINE
  5
B7
330
1F
100
AcDbEntity
  8
0
  6
Continuous
 62
     7
370
    15
100
AcDbSpline
210
0.0
220
0.0
230
1.0
 70
     8
 71
     3
 72
    10
 73
     6
 74
     0
 42
0.000000001
 43
0.00000001
 40
0.0
 40
0.0
 40
0.0
 40
0.0
 40
0.5
 40
0.5
 40
1.0
 40
1.0
 40
1.0
 40
1.0
 10
158.7520027162012
 20
77.79449202965411
 30
0.0
 10
158.67300264795
 20
77.75872779504623
 30
0.0
 10
158.5992453976734
 20
77.70923819148678
 30
0.0
 10
158.4711902745402
 20
77.58894969998384
 30
0.0
 10
158.4183402401285
 20
77.52026754699448
 30
0.0
 10
158.3761896274476
 20
77.44374716362029
 30
0.0
  0
SPLINE
  5
B8
330
1F
100
AcDbEntity
  8
0
  6
Continuous
 62
     7
370
    15
100
AcDbSpline
210
0.0
220
0.0
230
1.0
 70
     8
 71
     3
 72
    10
 73
     6
 74
     0
 42
0.000000001
 43
0.00000001
 40
0.0
 40
0.0
 40
0.0
 40
0.0
 40
0.5
 40
0.5
 40
1.0
 40
1.0
 40
1.0
 40
1.0
 10
158.7520027162013
 20
158.9535544579524
 30
0.0
 10
158.6727162685185
 20
158.9894483398049
 30
0.0
 10
158.5992040493979
 20
159.0389500496559
 30
0.0
 10
158.4722515965273
 20
159.1579977463245
 30
0.0
 10
158.4181857477906
 20
159.2280594065928
 30
0.0
 10
158.3761896274476
 20
159.3042993239863
 30
0.0
  0
SPLINE
  5
B9
330
1F
100
AcDbEntity
  8
0
  6
Continuous
 62
     7
370
    15
100
AcDbSpline
210
0.0
220
0.0
230
1.0
 70
     8
 71
     3
 72
     8
 73
     4
 74
     0
 42
0.000000001
 43
0.00000001
 40
0.0
 40
0.0
 40
0.0
 40
0.0
 40
1.0
 40
1.0
 40
1.0
 40
1.0
 10
159.0690099504751
 20
158.8860954394659
 30
0.0
 10
158.9593081651734
 20
158.8852370222666
 30
0.0
 10
158.8519611441889
 20
158.9083021341414
 30
0.0
 10
158.7520027162012
 20
158.9535544579523
 30
0.0
  0
SPLINE
  5
BA
330
1F
100
AcDbEntity
  8
0
  6
Continuous
 62
     7
370
    15
100
AcDbSpline
210
0.0
220
0.0
230
1.0
 70
     8
 71
     3
 72
     8
 73
     4
 74
     0
 42
0.000000001
 43
0.00000001
 40
0.0
 40
0.0
 40
0.0
 40
0.0
 40
1.0
 40
1.0
 40
1.0
 40
1.0
 10
159.0690099504751
 20
77.86195104814064
 30
0.0
 10
158.9593081651734
 20
77.86280946533996
 30
0.0
 10
158.8519611441889
 20
77.83974435346518
 30
0.0
 10
158.7520027162012
 20
77.79449202965426
 30
0.0
  0
SPLINE
  5
BB
330
1F
100
AcDbEntity
  8
0
  6
Continuous
 62
     7
370
    15
100
AcDbSpline
210
0.0
220
0.0
230
1.0
 70
     8
 71
     3
 72
    12
 73
     8
 74
     0
 42
0.000000001
 43
0.00000001
 40
0.0
 40
0.0
 40
0.0
 40
0.0
 40
0.2500000000000049
 40
0.2500000000000049
 40
0.5000000000000098
 40
0.5000000000000098
 40
1.0
 40
1.0
 40
1.0
 40
1.0
 10
165.2278158049549
 20
159.8134206231146
 30
0.0
 10
165.191595383568
 20
159.7428135550148
 30
0.0
 10
165.1486697089202
 20
159.6790789636891
 30
0.0
 10
165.0511431256612
 20
159.5633047874406
 30
0.0
 10
164.9957116060444
 20
159.5107569434291
 30
0.0
 10
164.8172237031403
 20
159.3766083402148
 30
0.0
 10
164.6803868744925
 20
159.3160862381509
 30
0.0
 10
164.5349954819281
 20
159.2955396542225
 30
0.0
  0
SPLINE
  5
BC
330
1F
100
AcDbEntity
  8
0
  6
Continuous
 62
     7
370
    15
100
AcDbSpline
210
0.0
220
0.0
230
1.0
 70
     8
 71
     3
 72
    12
 73
     8
 74
     0
 42
0.000000001
 43
0.00000001
 40
0.0
 40
0.0
 40
0.0
 40
0.0
 40
0.249999999999999
 40
0.249999999999999
 40
0.499999999999998
 40
0.499999999999998
 40
1.0
 40
1.0
 40
1.0
 40
1.0
 10
165.2278158049549
 20
76.93462586449199
 30
0.0
 10
165.1915953835679
 20
77.0052329325919
 30
0.0
 10
165.1486697089201
 20
77.06896752391762
 30
0.0
 10
165.0511431256611
 20
77.18474170016604
 30
0.0
 10
164.9957116060444
 20
77.23728954417747
 30
0.0
 10
164.8172237031402
 20
77.37143814739186
 30
0.0
 10
164.6803868744925
 20
77.43196024945564
 30
0.0
 10
164.5349954819281
 20
77.45250683338406
 30
0.0
  0
SPLINE
  5
BD
330
1F
100
AcDbEntity
  8
0
  6
Continuous
 62
     7
370
    15
100
AcDbSpline
210
0.0
220
0.0
230
1.0
 70
    11
 71
     3
 72
    66
 73
    62
 74
     0
 42
0.000000001
 43
0.00000001
 40
0.0
 40
0.0
 40
0.0
 40
0.0
 40
0.03125
 40
0.03125
 40
0.0625
 40
0.0625
 40
0.09375
 40
0.09375
 40
0.125
 40
0.125
 40
0.15625
 40
0.15625
 40
0.1874999999999999
 40
0.1874999999999999
 40
0.2187499999999999
 40
0.2187499999999999
 40
0.2499999999999999
 40
0.2499999999999999
 40
0.2812499999999999
 40
0.2812499999999999
 40
0.3124999999999999
 40
0.3124999999999999
 40
0.3437499999999999
 40
0.3437499999999999
 40
0.3749999999999999
 40
0.3749999999999999
 40
0.4062499999999999
 40
0.4062499999999999
 40
0.4374999999999999
 40
0.4374999999999999
 40
0.4687499999999999
 40
0.4687499999999999
 40
0.4999999999999999
 40
0.4999999999999999
 40
0.5312499999999999
 40
0.5312499999999999
 40
0.5624999999999999
 40
0.5624999999999999
 40
0.625
 40
0.625
 40
0.65625
 40
0.65625
 40
0.6875
 40
0.6875
 40
0.71875
 40
0.71875
 40
0.7499999999999999
 40
0.7499999999999999
 40
0.7812499999999999
 40
0.7812499999999999
 40
0.8124999999999999
 40
0.8124999999999999
 40
0.8437499999999999
 40
0.8437499999999999
 40
0.8749999999999999
 40
0.8749999999999999
 40
0.9062499999999999
 40
0.9062499999999999
 40
0.9374999999999999
 40
0.9374999999999999
 40
1.0
 40
1.0
 40
1.0
 40
1.0
 10
161.8020027162013
 20
101.51410593296
 30
0.0
 10
161.9672030068652
 20
101.51410593296
 30
0.0
 10
162.1296355481617
 20
101.5290119623178
 30
0.0
 10
162.4491937037517
 20
101.5874471410603
 30
0.0
 10
162.6079770417288
 20
101.631688193436
 30
0.0
 10
162.9107150582081
 20
101.7472797388585
 30
0.0
 10
163.0542942233424
 20
101.8180557090772
 30
0.0
 10
163.3260239532104
 20
101.9854942409898
 30
0.0
 10
163.4546525167482
 20
102.0830335133104
 30
0.0
 10
163.6852182784154
 20
102.2964518735119
 30
0.0
 10
163.7886922796647
 20
102.413066525538
 30
0.0
 10
163.9714528175905
 20
102.6667918895577
 30
0.0
 10
164.0490970738191
 20
102.8020847486264
 30
0.0
 10
164.1737897245092
 20
103.082431104018
 30
0.0
 10
164.2217937050876
 20
103.2295519798541
 30
0.0
 10
164.2860254474059
 20
103.5315420842314
 30
0.0
 10
164.3019148914481
 20
103.6836658518006
 30
0.0
 10
164.3020898218032
 20
103.9901484946268
 30
0.0
 10
164.2858591704683
 20
104.1461344156925
 30
0.0
 10
164.2220779477587
 20
104.4487138846618
 30
0.0
 10
164.1748858363625
 20
104.596092396054
 30
0.0
 10
164.0497192187045
 20
104.8828811014317
 30
0.0
 10
163.9714597313295
 20
105.0218382029696
 30
0.0
 10
163.7905395479742
 20
105.2794318632376
 30
0.0
 10
163.6872543190503
 20
105.3997244069386
 30
0.0
 10
163.4540025770016
 20
105.6224452245853
 30
0.0
 10
163.327588708736
 20
105.7214231285771
 30
0.0
 10
163.0569164380414
 20
105.8946399831863
 30
0.0
 10
162.9108346658771
 20
105.969621020663
 30
0.0
 10
162.6079502204043
 20
106.0899491907588
 30
0.0
 10
162.4521198607645
 20
106.135332878248
 30
0.0
 10
162.1317743714991
 20
106.196759138669
 30
0.0
 10
161.9660642855275
 20
106.2125127601887
 30
0.0
 10
161.639732896831
 20
106.2126250054442
 30
0.0
 10
161.477545811004
 20
106.1974927755382
 30
0.0
 10
161.1551702297955
 20
106.1362406623577
 30
0.0
 10
160.9971547557579
 20
106.0902339189825
 30
0.0
 10
160.5457438806824
 20
105.9113531897405
 30
0.0
 10
160.2666644236302
 20
105.7332010824416
 30
0.0
 10
159.9205907191319
 20
105.4037046661546
 30
0.0
 10
159.8149487032172
 20
105.2813318263146
 30
0.0
 10
159.6331652272464
 20
105.0229291222
 30
0.0
 10
159.5562774038625
 20
104.8866975566517
 30
0.0
 10
159.4306228464921
 20
104.6002620947656
 30
0.0
 10
159.3823147705775
 20
104.4499550101901
 30
0.0
 10
159.3184968851372
 20
104.1483870801056
 30
0.0
 10
159.3021687080943
 20
103.9955210176411
 30
0.0
 10
159.3018392180346
 20
103.6855059008976
 30
0.0
 10
159.3179357298693
 20
103.532636900545
 30
0.0
 10
159.3811644671305
 20
103.2336041347701
 30
0.0
 10
159.429001060541
 20
103.0855385383473
 30
0.0
 10
159.5543443784545
 20
102.8029815002018
 30
0.0
 10
159.6310410529796
 20
102.669365168078
 30
0.0
 10
159.8120924196314
 20
102.4170752981459
 30
0.0
 10
159.9175680299923
 20
102.297731989078
 30
0.0
 10
160.1480945986685
 20
102.0840482095932
 30
0.0
 10
160.2738140362988
 20
101.9883882349334
 30
0.0
 10
160.5465808854957
 20
101.8196671659296
 30
0.0
 10
160.6923002619017
 20
101.7477999572764
 30
0.0
 10
161.1433693670097
 20
101.5751488800079
 30
0.0
 10
161.4716021348735
 20
101.51410593296
 30
0.0
 10
161.8020027162013
 20
101.51410593296
 30
0.0
  0
SPLINE
  5
BE
330
1F
100
AcDbEntity
  8
0
  6
Continuous
 62
     7
370
    15
100
AcDbSpline
210
0.0
220
0.0
230
1.0
 70
     8
 71
     3
 72
    10
 73
     6
 74
     0
 42
0.000000001
 43
0.00000001
 40
0.0
 40
0.0
 40
0.0
 40
0.0
 40
0.5
 40
0.5
 40
1.0
 40
1.0
 40
1.0
 40
1.0
 10
164.5349954819274
 20
159.2955396542253
 30
0.0
 10
163.6874311151591
 20
159.1757626021643
 30
0.0
 10
162.8067176794372
 20
159.0770724225005
 30
0.0
 10
160.9791614282217
 20
158.9358000162633
 30
0.0
 10
160.0257290251204
 20
158.8935817725857
 30
0.0
 10
159.0690099504751
 20
158.8860954394659
 30
0.0
  0
SPLINE
  5
BF
330
1F
100
AcDbEntity
  8
0
  6
Continuous
 62
     7
370
    15
100
AcDbSpline
210
0.0
220
0.0
230
1.0
 70
     8
 71
     3
 72
    10
 73
     6
 74
     0
 42
0.000000001
 43
0.00000001
 40
0.0
 40
0.0
 40
0.0
 40
0.0
 40
0.5
 40
0.5
 40
1.0
 40
1.0
 40
1.0
 40
1.0
 10
164.5349954819274
 20
77.45250683338125
 30
0.0
 10
163.6874311151591
 20
77.57228388544227
 30
0.0
 10
162.8067176794372
 20
77.6709740651061
 30
0.0
 10
160.9791614282217
 20
77.81224647134324
 30
0.0
 10
160.0257290251204
 20
77.85446471502084
 30
0.0
 10
159.0690099504751
 20
77.86195104814064
 30
0.0
  0
LINE
  5
C0
330
1F
100
AcDbEntity
  8
0
  6
Continuous
 62
     7
370
    15
100
AcDbLine
 10
138.6020027162
 20
83.4490232438
 30
0.0
 11
138.6020027162
 21
153.2990232438
 31
0.0
  0
LINE
  5
C1
330
1F
100
AcDbEntity
  8
0
  6
Continuous
 62
     7
370
    15
100
AcDbLine
 10
36.8020027162
 20
100.0243453831
 30
0.0
 11
36.8020027162
 21
136.7237010091
 31
0.0
  0
LINE
  5
C2
330
1F
100
AcDbEntity
  8
0
  6
Continuous
 62
     7
370
    15
100
AcDbLine
 10
256.6020027162
 20
118.3740232438
 30
0.0
 11
256.6020027162
 21
102.6740232438
 31
0.0
  0
LINE
  5
C3
330
1F
100
AcDbEntity
  8
0
  6
Continuous
 62
     7
370
    15
100
AcDbLine
 10
256.6020027162
 20
134.0740232438
 30
0.0
 11
256.6020027162
 21
118.3740232438
 31
0.0
  0
LINE
  5
C4
330
1F
100
AcDbEntity
  8
0
  6
Continuous
 62
     7
370
    15
100
AcDbLine
 10
256.3020027162
 20
118.3740232438
 30
0.0
 11
256.3020027162
 21
102.3740232438
 31
0.0
  0
LINE
  5
C5
330
1F
100
AcDbEntity
  8
0
  6
Continuous
 62
     7
370
    15
100
AcDbLine
 10
256.3020027162
 20
134.3740232438
 30
0.0
 11
256.3020027162
 21
118.3740232438
 31
0.0
  0
SPLINE
  5
C6
330
1F
100
AcDbEntity
  8
0
  6
Continuous
 62
     7
370
    15
100
AcDbSpline
210
0.0
220
0.0
230
1.0
 70
     8
 71
     3
 72
    17
 73
    13
 74
     0
 42
0.000000001
 43
0.00000001
 40
0.0
 40
0.0
 40
0.0
 40
0.0
 40
0.055508100345353
 40
0.1403531039694122
 40
0.2308779297775154
 40
0.3335117677489857
 40
0.4488257897624183
 40
0.5710273505910214
 40
0.6945112876109788
 40
0.8161985584848244
 40
0.9279440132998553
 40
0.9999999999999999
 40
0.9999999999999999
 40
0.9999999999999999
 40
0.9999999999999999
 10
249.4971649391341
 20
134.3610450232001
 30
0.0
 10
249.5015129800648
 20
134.3620237595602
 30
0.0
 10
249.5125070698827
 20
134.3644985098264
 30
0.0
 10
249.0404756573269
 20
134.2545718166107
 30
0.0
 10
248.1883185037851
 20
134.0816786752721
 30
0.0
 10
246.9159517236935
 20
133.8837600279289
 30
0.0
 10
245.2931313975728
 20
133.7485052657244
 30
0.0
 10
243.4880530378651
 20
133.7615069245867
 30
0.0
 10
241.7623908349451
 20
133.9360455891981
 30
0.0
 10
240.4184923864238
 20
134.1747404143929
 30
0.0
 10
239.6391217168877
 20
134.3529494098209
 30
0.0
 10
239.6105743162955
 20
134.3600683562489
 30
0.0
 10
239.5993828310686
 20
134.3628592087303
 30
0.0
  0
SPLINE
  5
C7
330
1F
100
AcDbEntity
  8
0
  6
Continuous
 62
     7
370
    15
100
AcDbSpline
210
0.0
220
0.0
230
1.0
 70
    11
 71
     3
 72
    82
 73
    78
 74
     0
 42
0.000000001
 43
0.00000001
 40
0.0
 40
0.0
 40
0.0
 40
0.0
 40
0.0312500000000005
 40
0.0312500000000005
 40
0.062500000000001
 40
0.062500000000001
 40
0.0937500000000015
 40
0.0937500000000015
 40
0.125000000000002
 40
0.125000000000002
 40
0.1562500000000025
 40
0.1562500000000025
 40
0.187500000000003
 40
0.187500000000003
 40
0.2187500000000035
 40
0.2187500000000035
 40
0.2343750000000031
 40
0.2343750000000031
 40
0.2500000000000028
 40
0.2500000000000028
 40
0.281250000000002
 40
0.281250000000002
 40
0.296875000000002
 40
0.296875000000002
 40
0.312500000000002
 40
0.312500000000002
 40
0.3437500000000021
 40
0.3437500000000021
 40
0.3593750000000019
 40
0.3593750000000019
 40
0.3750000000000018
 40
0.3750000000000018
 40
0.3906250000000017
 40
0.3906250000000017
 40
0.4062500000000015
 40
0.4062500000000015
 40
0.4375000000000016
 40
0.4375000000000016
 40
0.4687500000000017
 40
0.4687500000000017
 40
0.5000000000000018
 40
0.5000000000000018
 40
0.5312500000000019
 40
0.5312500000000019
 40
0.562500000000002
 40
0.562500000000002
 40
0.593750000000002
 40
0.593750000000002
 40
0.625000000000002
 40
0.625000000000002
 40
0.6562500000000021
 40
0.6562500000000021
 40
0.6875000000000021
 40
0.6875000000000021
 40
0.7187500000000021
 40
0.7187500000000021
 40
0.7500000000000021
 40
0.7500000000000021
 40
0.7812500000000022
 40
0.7812500000000022
 40
0.8125000000000022
 40
0.8125000000000022
 40
0.8281250000000022
 40
0.8281250000000022
 40
0.8437500000000022
 40
0.8437500000000022
 40
0.8750000000000021
 40
0.8750000000000021
 40
0.890625000000002
 40
0.890625000000002
 40
0.9062500000000019
 40
0.9062500000000019
 40
0.9375000000000012
 40
0.9375000000000012
 40
0.9687500000000007
 40
0.9687500000000007
 40
1.0
 40
1.0
 40
1.0
 40
1.0
 10
241.2318196920195
 20
121.646421810551
 30
0.0
 10
241.4748772168976
 20
121.8364623334059
 30
0.0
 10
241.7319643138673
 20
122.0008580024367
 30
0.0
 10
242.2718742376907
 20
122.2835284084002
 30
0.0
 10
242.5563304262507
 20
122.4022517131297
 30
0.0
 10
243.1446722124698
 20
122.5907158858425
 30
0.0
 10
243.4435880312463
 20
122.6591711770789
 30
0.0
 10
244.050563642715
 20
122.7469403029857
 30
0.0
 10
244.3612438267231
 20
122.7661260129916
 30
0.0
 10
244.9792550538161
 20
122.7531598766197
 30
0.0
 10
245.2842389392281
 20
122.7215458479514
 30
0.0
 10
245.8863291229745
 20
122.6088407268789
 30
0.0
 10
246.1861214893717
 20
122.5266956730279
 30
0.0
 10
246.7633466907133
 20
122.3139716030365
 30
0.0
 10
247.0392715160122
 20
122.1845644498424
 30
0.0
 10
247.434040772422
 20
121.9551153973998
 30
0.0
 10
247.5624234642892
 20
121.8727032536682
 30
0.0
 10
247.8124745172888
 20
121.69534269108
 30
0.0
 10
247.934537184875
 20
121.5999643636429
 30
0.0
 10
248.2822605599136
 20
121.3003916421286
 30
0.0
 10
248.4921894460928
 20
121.0813763540729
 30
0.0
 10
248.7725496785659
 20
120.7218432195887
 30
0.0
 10
248.8602048480699
 20
120.5967926229598
 30
0.0
 10
249.0229959253379
 20
120.3353613386951
 30
0.0
 10
249.097871430252
 20
120.1990979651356
 30
0.0
 10
249.2963772312395
 20
119.7843613792689
 30
0.0
 10
249.3966282346013
 20
119.4963340501468
 30
0.0
 10
249.4955612548767
 20
119.045636335595
 30
0.0
 10
249.5199746789414
 20
118.8910067004966
 30
0.0
 10
249.5494641699699
 20
118.582197633392
 30
0.0
 10
249.5547144838406
 20
118.428204655482
 30
0.0
 10
249.5466965076084
 20
118.1210217886324
 30
0.0
 10
249.5334273767731
 20
117.967831935553
 30
0.0
 10
249.4882325971853
 20
117.662260386529
 30
0.0
 10
249.455975988498
 20
117.5089421489666
 30
0.0
 10
249.3335588450962
 20
117.0612770139803
 30
0.0
 10
249.218172453771
 20
116.7766831934227
 30
0.0
 10
248.9241885907535
 20
116.2331559128287
 30
0.0
 10
248.7477667805428
 20
115.9792673674427
 30
0.0
 10
248.3495487400597
 20
115.5143613222147
 30
0.0
 10
248.1242819301397
 20
115.2999069470245
 30
0.0
 10
247.6428161003315
 20
114.921165494541
 30
0.0
 10
247.3859479728748
 20
114.7553459160759
 30
0.0
 10
246.8410286799167
 20
114.4683357849779
 30
0.0
 10
246.5548599963043
 20
114.3487032307521
 30
0.0
 10
245.9714183105891
 20
114.1606146632596
 30
0.0
 10
245.6719705694609
 20
114.0909862288384
 30
0.0
 10
245.0572404053449
 20
114.0012260050217
 30
0.0
 10
244.7487218589757
 20
113.9822375679945
 30
0.0
 10
244.1348096437216
 20
113.9942448102793
 30
0.0
 10
243.8285266166375
 20
114.0251064494612
 30
0.0
 10
243.2173666127149
 20
114.1390214905763
 30
0.0
 10
242.9210209256684
 20
114.2205123174318
 30
0.0
 10
242.3473305776698
 20
114.4313039351362
 30
0.0
 10
242.0695751071218
 20
114.5607220085694
 30
0.0
 10
241.5348693681004
 20
114.8713979597198
 30
0.0
 10
241.2860024709051
 20
115.0479197206058
 30
0.0
 10
240.8253637250192
 20
115.444304407501
 30
0.0
 10
240.612686498855
 20
115.6651891042698
 30
0.0
 10
240.2331485891496
 20
116.15264061792
 30
0.0
 10
240.0719169693295
 20
116.4116187066089
 30
0.0
 10
239.874403626953
 20
116.8241169106711
 30
0.0
 10
239.8160112438893
 20
116.9656509863697
 30
0.0
 10
239.715173255295
 20
117.2574052299793
 30
0.0
 10
239.6726722319992
 20
117.4084587763282
 30
0.0
 10
239.574134413152
 20
117.8615220257804
 30
0.0
 10
239.5450371050534
 20
118.1672590303335
 30
0.0
 10
239.5575648527048
 20
118.6315501403422
 30
0.0
 10
239.5714150705759
 20
118.7881558573158
 30
0.0
 10
239.6174455545465
 20
119.0946847485798
 30
0.0
 10
239.6495433197943
 20
119.2454912683749
 30
0.0
 10
239.77203838756
 20
119.6908395792776
 30
0.0
 10
239.8904682107471
 20
119.981456502637
 30
0.0
 10
240.1847118684803
 20
120.5223669563211
 30
0.0
 10
240.3600824546973
 20
120.7743449354899
 30
0.0
 10
240.7641894963538
 20
121.2439326753653
 30
0.0
 10
240.9887621671413
 20
121.4563812876961
 30
0.0
 10
241.2318196920194
 20
121.646421810551
 30
0.0
  0
LWPOLYLINE
  5
C8
330
1F
100
AcDbEntity
  8
0
  6
Continuous
 62
     7
370
    15
100
AcDbPolyline
 90
       20
 70
   128
 43
0.0
 10
163.4167264326
 20
102.1123179614
 10
163.9255826528
 20
102.6985100097
 10
164.2043160362
 20
103.408201593
 10
164.2227214956
 20
104.1644866163
 10
163.9788045139
 20
104.8854098623
 10
163.4989972809
 20
105.492848111
 10
162.8352943552
 20
105.9209760029
 10
162.0596182473
 20
106.1233992378
 10
161.2560254992
 20
106.0781821171
 10
160.5115978544
 20
105.7902246176
 10
159.907005599
 20
105.2907314025
 10
159.5077656851
 20
104.633830312
 10
159.3571419523
 20
103.8907067722
 10
159.4714568193
 20
103.1418897494
 10
159.8383224963
 20
102.468525187
 10
160.4179833947
 20
101.9435825838
 10
161.1476242619
 20
101.6239476161
 10
161.9481771884
 20
101.5442576923
 10
162.7328898427
 20
101.7131484522
 10
163.4167264326
 20
102.1123179614
  0
LINE
  5
C9
330
1F
100
AcDbEntity
  8
0
  6
Continuous
 62
     7
370
    15
100
AcDbLine
 10
162.3567047253
 20
105.3800380108
 30
0.0
 11
160.6583578514
 21
105.0605177904
 31
0.0
  0
LINE
  5
CA
330
1F
100
AcDbEntity
  8
0
  6
Continuous
 62
     7
370
    15
100
AcDbLine
 10
160.1036558423
 20
103.5186469321
 30
0.0
 11
160.6583578514
 21
105.0605177904
 31
0.0
  0
LINE
  5
CB
330
1F
100
AcDbEntity
  8
0
  6
Continuous
 62
     7
370
    15
100
AcDbLine
 10
161.2473007071
 20
102.2962962942
 30
0.0
 11
160.1036558423
 21
103.5186469321
 31
0.0
  0
LINE
  5
CC
330
1F
100
AcDbEntity
  8
0
  6
Continuous
 62
     7
370
    15
100
AcDbLine
 10
161.2473007071
 20
102.2962962942
 30
0.0
 11
162.9456475811
 21
102.6158165145
 31
0.0
  0
LINE
  5
CD
330
1F
100
AcDbEntity
  8
0
  6
Continuous
 62
     7
370
    15
100
AcDbLine
 10
163.5003495901
 20
104.1576873728
 30
0.0
 11
162.9456475811
 21
102.6158165145
 31
0.0
  0
LINE
  5
CE
330
1F
100
AcDbEntity
  8
0
  6
Continuous
 62
     7
370
    15
100
AcDbLine
 10
163.5003495901
 20
104.1576873728
 30
0.0
 11
162.3567047253
 21
105.3800380108
 31
0.0
  0
LINE
  5
CF
330
1F
100
AcDbEntity
  8
0
  6
Continuous
 62
     7
370
    15
100
AcDbLine
 10
162.9456475811
 20
103.2998568011
 30
0.0
 11
162.9456475811
 21
102.6158165145
 31
0.0
  0
LINE
  5
D0
330
1F
100
AcDbEntity
  8
0
  6
Continuous
 62
     7
370
    15
100
AcDbLine
 10
163.3226056101
 20
104.3476637142
 30
0.0
 11
162.9456475811
 21
103.2998568011
 31
0.0
  0
LINE
  5
D1
330
1F
100
AcDbEntity
  8
0
  6
Continuous
 62
     7
370
    15
100
AcDbLine
 10
161.2473007071
 20
102.9803365808
 30
0.0
 11
160.2813998223
 21
104.0127108773
 31
0.0
  0
LINE
  5
D2
330
1F
100
AcDbEntity
  8
0
  6
Continuous
 62
     7
370
    15
100
AcDbLine
 10
161.2473007071
 20
102.9803365808
 30
0.0
 11
161.2473007071
 21
102.2962962942
 31
0.0
  0
LINE
  5
D3
330
1F
100
AcDbEntity
  8
0
  6
Continuous
 62
     7
370
    15
100
AcDbLine
 10
161.2473007071
 20
102.9803365808
 30
0.0
 11
162.9456475811
 21
103.2998568011
 31
0.0
  0
LINE
  5
D4
330
1F
100
AcDbEntity
  8
0
  6
HIDDEN
 62
     7
370
     0
100
AcDbLine
 10
243.9062909971
 20
133.6740232438
 30
0.0
 11
248.5520027162
 21
133.6740232438
 31
0.0
  0
LINE
  5
D5
330
1F
100
AcDbEntity
  8
0
  6
HIDDEN
 62
     7
370
     0
100
AcDbLine
 10
240.5520027162
 20
133.6740232438
 30
0.0
 11
243.9062909971
 21
133.6740232438
 31
0.0
  0
LINE
  5
D6
330
1F
100
AcDbEntity
  8
0
  6
HIDDEN
 62
     7
370
     0
100
AcDbLine
 10
243.9062909971
 20
128.4792791321
 30
0.0
 11
248.5520027162
 21
128.4792791321
 31
0.0
  0
LINE
  5
D7
330
1F
100
AcDbEntity
  8
0
  6
HIDDEN
 62
     7
370
     0
100
AcDbLine
 10
240.5520027162
 20
128.4792791321
 30
0.0
 11
243.9062909971
 21
128.4792791321
 31
0.0
  0
LINE
  5
D8
330
1F
100
AcDbEntity
  8
0
  6
HIDDEN
 62
     7
370
     0
100
AcDbLine
 10
244.121022122
 20
124.3740232438
 30
0.0
 11
247.2218046198
 21
124.3740232438
 31
0.0
  0
LINE
  5
D9
330
1F
100
AcDbEntity
  8
0
  6
HIDDEN
 62
     7
370
     0
100
AcDbLine
 10
241.8822008126
 20
124.3740232438
 30
0.0
 11
244.121022122
 21
124.3740232438
 31
0.0
  0
SPLINE
  5
DA
330
1F
100
AcDbEntity
  8
0
  6
HIDDEN
 62
     7
370
     0
100
AcDbSpline
210
0.0
220
0.0
230
1.0
 70
     8
 71
     3
 72
    11
 73
     7
 74
     0
 42
0.000000001
 43
0.00000001
 40
0.0
 40
0.0
 40
0.0
 40
0.0
 40
0.2164526859271357
 40
0.4403055508634346
 40
0.7518960204222
 40
1.0
 40
1.0
 40
1.0
 40
1.0
 10
245.3687029243041
 20
134.2834243205618
 30
0.0
 10
245.4688782882419
 20
134.210986389899
 30
0.0
 10
245.672653855233
 20
134.0636339889469
 30
0.0
 10
246.0508090608214
 20
133.9408121034169
 30
0.0
 10
246.456453272136
 20
134.014858853141
 30
0.0
 10
246.7160427920234
 20
134.2009381967025
 30
0.0
 10
246.8311148515019
 20
134.2834243205618
 30
0.0
  0
SPLINE
  5
DB
330
1F
100
AcDbEntity
  8
0
  6
HIDDEN
 62
     7
370
     0
100
AcDbSpline
210
0.0
220
0.0
230
1.0
 70
     8
 71
     3
 72
    10
 73
     6
 74
     0
 42
0.000000001
 43
0.00000001
 40
0.0
 40
0.0
 40
0.0
 40
0.0
 40
0.4391222274230444
 40
0.7513714712594659
 40
1.0
 40
1.0
 40
1.0
 40
1.0
 10
246.8311148515019
 20
134.2834243205618
 30
0.0
 10
246.7141962743515
 20
134.1464434967312
 30
0.0
 10
246.514139711862
 20
133.9120589069555
 30
0.0
 10
246.223324560601
 20
134.0162461996085
 30
0.0
 10
246.0785784000847
 20
134.2013643007495
 30
0.0
 10
246.014414643399
 20
134.2834243205618
 30
0.0
  0
SPLINE
  5
DC
330
1F
100
AcDbEntity
  8
0
  6
HIDDEN
 62
     7
370
     0
100
AcDbSpline
210
0.0
220
0.0
230
1.0
 70
     8
 71
     3
 72
    15
 73
    11
 74
     0
 42
0.000000001
 43
0.00000001
 40
0.0
 40
0.0
 40
0.0
 40
0.0
 40
0.092065761312615
 40
0.1844804466012875
 40
0.3495514851719089
 40
0.5198009272493932
 40
0.6927171542276014
 40
0.871794071011008
 40
0.9358391946447482
 40
1.0
 40
1.0
 40
1.0
 40
1.0
 10
246.014414643399
 20
134.2834243205618
 30
0.0
 10
245.9486119705759
 20
134.251318223467
 30
0.0
 10
245.8167572365587
 20
134.1869843490035
 30
0.0
 10
245.5583177110387
 20
134.084790846607
 30
0.0
 10
245.2298741733017
 20
133.9932183251264
 30
0.0
 10
244.8252460510322
 20
133.9600436399722
 30
0.0
 10
244.4117651021692
 20
134.0148384687378
 30
0.0
 10
244.0967157891119
 20
134.1189757333154
 30
0.0
 10
243.8724746631818
 20
134.2157258997502
 30
0.0
 10
243.7810540564233
 20
134.2608446099099
 30
0.0
 10
243.7353025080983
 20
134.2834243205618
 30
0.0
  0
SPLINE
  5
DD
330
1F
100
AcDbEntity
  8
0
  6
HIDDEN
 62
     7
370
     0
100
AcDbSpline
210
0.0
220
0.0
230
1.0
 70
     8
 71
     3
 72
    10
 73
     6
 74
     0
 42
0.000000001
 43
0.00000001
 40
0.0
 40
0.0
 40
0.0
 40
0.0
 40
0.4391222274230515
 40
0.7513714712594615
 40
1.0
 40
1.0
 40
1.0
 40
1.0
 10
243.7353025080983
 20
134.2834243205618
 30
0.0
 10
243.5259440188519
 20
134.1464434967312
 30
0.0
 10
243.1677157483114
 20
133.9120589069555
 30
0.0
 10
242.6469719777153
 20
134.0162461996084
 30
0.0
 10
242.38778444543
 20
134.2013643007495
 30
0.0
 10
242.2728905809007
 20
134.2834243205618
 30
0.0
  0
SPLINE
  5
DE
330
1F
100
AcDbEntity
  8
0
  6
HIDDEN
 62
     7
370
     0
100
AcDbSpline
210
0.0
220
0.0
230
1.0
 70
     8
 71
     3
 72
    11
 73
     7
 74
     0
 42
0.000000001
 43
0.00000001
 40
0.0
 40
0.0
 40
0.0
 40
0.0
 40
0.2164526859271208
 40
0.4403055508634158
 40
0.7518960204222023
 40
1.0
 40
1.0
 40
1.0
 40
1.0
 10
242.2728905809007
 20
134.2834243205618
 30
0.0
 10
242.3288346272074
 20
134.2109863898991
 30
0.0
 10
242.4426353593217
 20
134.0636339889471
 30
0.0
 10
242.6538203403491
 20
133.9408121034168
 30
0.0
 10
242.8803568624023
 20
134.014858853141
 30
0.0
 10
243.0253275173664
 20
134.2009381967025
 30
0.0
 10
243.0895907890036
 20
134.2834243205618
 30
0.0
  0
SPLINE
  5
DF
330
1F
100
AcDbEntity
  8
0
  6
HIDDEN
 62
     7
370
     0
100
AcDbSpline
210
0.0
220
0.0
230
1.0
 70
     8
 71
     3
 72
    15
 73
    11
 74
     0
 42
0.000000001
 43
0.00000001
 40
0.0
 40
0.0
 40
0.0
 40
0.0
 40
0.0640504367340916
 40
0.1282061551362721
 40
0.3015971188615477
 40
0.4801922626499932
 40
0.6449121499732292
 40
0.8155191712970303
 40
0.9075602129381708
 40
1.0
 40
1.0
 40
1.0
 40
1.0
 10
243.0895907890036
 20
134.2834243205618
 30
0.0
 10
243.1352627841138
 20
134.2608827142089
 30
0.0
 10
243.2266818467939
 20
134.215762449173
 30
0.0
 10
243.4467791557437
 20
134.1207954974675
 30
0.0
 10
243.761536442131
 20
134.0159833449912
 30
0.0
 10
244.1706569699458
 20
133.9602718686948
 30
0.0
 10
244.5797078459785
 20
133.9923549922108
 30
0.0
 10
244.9082390756448
 20
134.0830884251373
 30
0.0
 10
245.1707702219903
 20
134.1868648746056
 30
0.0
 10
245.3026303539976
 20
134.2511914923979
 30
0.0
 10
245.3687029243041
 20
134.2834243205618
 30
0.0
  0
LINE
  5
E0
330
1F
100
AcDbEntity
  8
0
  6
HIDDEN
 62
     7
370
     0
100
AcDbLine
 10
244.2291468567
 20
128.3740232438
 30
0.0
 11
246.5520027162
 21
128.3740232438
 31
0.0
  0
LINE
  5
E1
330
1F
100
AcDbEntity
  8
0
  6
HIDDEN
 62
     7
370
     0
100
AcDbLine
 10
242.5520027162
 20
128.3740232438
 30
0.0
 11
244.2291468567
 21
128.3740232438
 31
0.0
  0
LINE
  5
E2
330
1F
100
AcDbEntity
  8
0
  6
HIDDEN
 62
     7
370
     0
100
AcDbLine
 10
246.0999088879
 20
129.3740232438
 30
0.0
 11
245.3687029243
 21
129.3740232438
 31
0.0
  0
LINE
  5
E3
330
1F
100
AcDbEntity
  8
0
  6
HIDDEN
 62
     7
370
     0
100
AcDbLine
 10
245.3687029243
 20
129.3740232438
 30
0.0
 11
244.2291468567
 21
129.3740232438
 31
0.0
  0
LINE
  5
E4
330
1F
100
AcDbEntity
  8
0
  6
HIDDEN
 62
     7
370
     0
100
AcDbLine
 10
245.3687029243
 20
129.3740232438
 30
0.0
 11
245.3687029243
 21
134.2834243206
 31
0.0
  0
LINE
  5
E5
330
1F
100
AcDbEntity
  8
0
  6
HIDDEN
 62
     7
370
     0
100
AcDbLine
 10
244.2291468567
 20
129.3740232438
 30
0.0
 11
243.089590789
 21
129.3740232438
 31
0.0
  0
LINE
  5
E6
330
1F
100
AcDbEntity
  8
0
  6
HIDDEN
 62
     7
370
     0
100
AcDbLine
 10
243.089590789
 20
129.3740232438
 30
0.0
 11
242.681240685
 21
129.3740232438
 31
0.0
  0
LINE
  5
E7
330
1F
100
AcDbEntity
  8
0
  6
HIDDEN
 62
     7
370
     0
100
AcDbLine
 10
243.089590789
 20
129.3740232438
 30
0.0
 11
243.089590789
 21
134.2834243206
 31
0.0
  0
LINE
  5
E8
330
1F
100
AcDbEntity
  8
0
  6
HIDDEN
 62
     7
370
     0
100
AcDbLine
 10
246.8311148515
 20
129.3740232438
 30
0.0
 11
246.0999088879
 21
129.3740232438
 31
0.0
  0
LINE
  5
E9
330
1F
100
AcDbEntity
  8
0
  6
HIDDEN
 62
     7
370
     0
100
AcDbLine
 10
242.681240685
 20
129.3740232438
 30
0.0
 11
242.2728905809
 21
129.3740232438
 31
0.0
  0
LINE
  5
EA
330
1F
100
AcDbEntity
  8
0
  6
HIDDEN
 62
     7
370
     0
100
AcDbLine
 10
246.0144146434
 20
129.3740232438
 30
0.0
 11
246.0144146434
 21
134.2834243206
 31
0.0
  0
LINE
  5
EB
330
1F
100
AcDbEntity
  8
0
  6
HIDDEN
 62
     7
370
     0
100
AcDbLine
 10
246.8311148515
 20
129.3740232438
 30
0.0
 11
246.8311148515
 21
134.2834243206
 31
0.0
  0
LINE
  5
EC
330
1F
100
AcDbEntity
  8
0
  6
HIDDEN
 62
     7
370
     0
100
AcDbLine
 10
243.7353025081
 20
129.3740232438
 30
0.0
 11
243.7353025081
 21
134.2834243206
 31
0.0
  0
LINE
  5
ED
330
1F
100
AcDbEntity
  8
0
  6
HIDDEN
 62
     7
370
     0
100
AcDbLine
 10
242.2728905809
 20
129.3740232438
 30
0.0
 11
242.2728905809
 21
134.2834243206
 31
0.0
  0
SPLINE
  5
EE
330
1F
100
AcDbEntity
  8
0
  6
HIDDEN
 62
     7
370
     0
100
AcDbSpline
210
0.0
220
0.0
230
1.0
 70
     8
 71
     3
 72
     9
 73
     5
 74
     0
 42
0.000000001
 43
0.00000001
 40
0.0
 40
0.0
 40
0.0
 40
0.0
 40
0.3267154957258129
 40
1.0
 40
1.0
 40
1.0
 40
1.0
 10
171.2259701738121
 20
68.75026280762783
 30
0.0
 10
171.069177300545
 20
68.79234503532254
 30
0.0
 10
170.5892708519121
 20
68.92114892814438
 30
0.0
 10
169.8350593183081
 20
69.09617557453151
 30
0.0
 10
169.3272603797876
 20
69.21401830337904
 30
0.0
  0
LWPOLYLINE
  5
EF
330
1F
100
AcDbEntity
  8
0
  6
HIDDEN
 62
     7
370
     0
100
AcDbPolyline
 90
       22
 70
   128
 43
0.0
 10
141.8713898281
 20
104.3448684412
 10
142.0678648041
 20
103.4736287852
 10
142.3739983495
 20
102.6798025961
 10
142.7625891553
 20
102.0339248143
 10
143.1991092233
 20
101.5933845151
 10
143.6447718296
 20
101.3973256375
 10
144.059977896
 20
101.4631688731
 10
144.4078345413
 20
101.7850637614
 10
144.6574331761
 20
102.334408529
 10
144.7865958664
 20
103.0623914826
 10
144.7838459402
 20
103.9043281421
 10
144.6494277406
 20
104.7854087404
 10
144.3952849145
 20
105.6273453998
 10
144.0439991673
 20
106.3553283534
 10
143.6267837792
 20
106.904673121
 10
143.1807101684
 20
107.2265680094
 10
142.7454139328
 20
107.2924112449
 10
142.3595730531
 20
107.0963523673
 10
142.0574711848
 20
106.6558120682
 10
141.8659514045
 20
106.0099342864
 10
141.8020310853
 20
105.2161080972
 10
141.8713898281
 20
104.3448684412
  0
LWPOLYLINE
  5
F0
330
1F
100
AcDbEntity
  8
0
  6
HIDDEN
 62
     7
370
     0
100
AcDbPolyline
 90
       18
 70
   128
 43
0.0
 10
142.5842604167
 20
104.4008867595
 10
142.7659134744
 20
103.6534540946
 10
143.0582818185
 20
103.0069663529
 10
143.4218794842
 20
102.548735286
 10
143.8076005919
 20
102.3406475387
 10
144.1633513686
 20
102.4108065144
 10
144.4410857008
 20
102.7497368546
 10
144.6032940278
 20
103.3116641388
 10
144.6280692162
 20
104.0206969735
 10
144.5120652397
 20
104.7810765455
 10
144.2709490779
 20
105.4901093802
 10
143.9372848047
 20
106.0520366644
 10
143.556135629
 20
106.3909670045
 10
143.178977859
 20
106.4611259802
 10
142.8567487415
 20
106.253038233
 10
142.6329671043
 20
105.7948071661
 10
142.5378558975
 20
105.1483194243
 10
142.5842604167
 20
104.4008867595
  0
SPLINE
  5
F1
330
1F
100
AcDbEntity
  8
0
  6
HIDDEN
 62
     7
370
     0
100
AcDbSpline
210
0.0
220
0.0
230
1.0
 70
    11
 71
     3
 72
    66
 73
    62
 74
     0
 42
0.000000001
 43
0.00000001
 40
0.0
 40
0.0
 40
0.0
 40
0.0
 40
0.0312499999999994
 40
0.0312499999999994
 40
0.0624999999999988
 40
0.0624999999999988
 40
0.0937499999999982
 40
0.0937499999999982
 40
0.1249999999999976
 40
0.1249999999999976
 40
0.156249999999997
 40
0.156249999999997
 40
0.1874999999999964
 40
0.1874999999999964
 40
0.2187499999999958
 40
0.2187499999999958
 40
0.2343749999999955
 40
0.2343749999999955
 40
0.2499999999999952
 40
0.2499999999999952
 40
0.2812499999999952
 40
0.2812499999999952
 40
0.3124999999999953
 40
0.3124999999999953
 40
0.3749999999999953
 40
0.3749999999999953
 40
0.4374999999999954
 40
0.4374999999999954
 40
0.4687499999999954
 40
0.4687499999999954
 40
0.4999999999999954
 40
0.4999999999999954
 40
0.5312499999999956
 40
0.5312499999999956
 40
0.5624999999999956
 40
0.5624999999999956
 40
0.5937499999999957
 40
0.5937499999999957
 40
0.6249999999999957
 40
0.6249999999999957
 40
0.6874999999999958
 40
0.6874999999999958
 40
0.7499999999999959
 40
0.7499999999999959
 40
0.7812499999999963
 40
0.7812499999999963
 40
0.8124999999999968
 40
0.8124999999999968
 40
0.8437499999999971
 40
0.8437499999999971
 40
0.8593749999999976
 40
0.8593749999999976
 40
0.8749999999999981
 40
0.8749999999999981
 40
0.9062499999999986
 40
0.9062499999999986
 40
0.9374999999999991
 40
0.9374999999999991
 40
0.9687499999999996
 40
0.9687499999999996
 40
1.0
 40
1.0
 40
1.0
 40
1.0
 10
159.3830276559817
 20
107.7180624183926
 30
0.0
 10
159.3434373683417
 20
107.8716759380836
 30
0.0
 10
159.3181763776602
 20
108.0239193656836
 30
0.0
 10
159.2970314716453
 20
108.326024282432
 30
0.0
 10
159.3016791837389
 20
108.4765044262739
 30
0.0
 10
159.3403728515245
 20
108.7589486995725
 30
0.0
 10
159.3746698106193
 20
108.8943953945458
 30
0.0
 10
159.4689805965686
 20
109.1435387931228
 30
0.0
 10
159.5281271368619
 20
109.2560302101455
 30
0.0
 10
159.6664633215541
 20
109.4571971453807
 30
0.0
 10
159.7450998375049
 20
109.5444513015725
 30
0.0
 10
159.9096533895198
 20
109.6866609205218
 30
0.0
 10
159.9975880857816
 20
109.7431238483989
 30
0.0
 10
160.1651666321324
 20
109.8180327639455
 30
0.0
 10
160.2457635089398
 20
109.8368426830565
 30
0.0
 10
160.3406058744013
 20
109.8322748065832
 30
0.0
 10
160.3675301798233
 20
109.8254005511043
 30
0.0
 10
160.4100588548746
 20
109.8013103832781
 30
0.0
 10
160.4255451439467
 20
109.7839027313284
 30
0.0
 10
160.4529694706349
 20
109.7200103550419
 30
0.0
 10
160.4466068671026
 20
109.6608405843089
 30
0.0
 10
160.4039567315671
 20
109.5274207762536
 30
0.0
 10
160.3684611242703
 20
109.4528653654916
 30
0.0
 10
160.2399237771002
 20
109.2105086342198
 30
0.0
 10
160.1287503576614
 20
109.0293166580606
 30
0.0
 10
159.9000245420391
 20
108.6256182150236
 30
0.0
 10
159.7789593584322
 20
108.3995935497105
 30
0.0
 10
159.6108453838798
 20
108.0210618127793
 30
0.0
 10
159.5565051672541
 20
107.886983308586
 30
0.0
 10
159.4578800930131
 20
107.6048033622356
 30
0.0
 10
159.413877251451
 20
107.4581046894654
 30
0.0
 10
159.343090823899
 20
107.1476879080727
 30
0.0
 10
159.3179006774433
 20
106.9891834783351
 30
0.0
 10
159.2969867030785
 20
106.6778199037356
 30
0.0
 10
159.3019485448314
 20
106.5301015251064
 30
0.0
 10
159.3401226631892
 20
106.2665995261344
 30
0.0
 10
159.3729589888886
 20
106.152060607096
 30
0.0
 10
159.4536914512007
 20
105.9610949106274
 30
0.0
 10
159.5017931581426
 20
105.882911222661
 30
0.0
 10
159.65823555486
 20
105.6891160447215
 30
0.0
 10
159.7750250146043
 20
105.6153408906937
 30
0.0
 10
160.0100819866876
 20
105.5322919339131
 30
0.0
 10
160.1258795736471
 20
105.5251485409974
 30
0.0
 10
160.276580277356
 20
105.5569225584273
 30
0.0
 10
160.3229000651113
 20
105.5748200104259
 30
0.0
 10
160.3989832759715
 20
105.6284195308173
 30
0.0
 10
160.428369431474
 20
105.6639387013817
 30
0.0
 10
160.4518304647018
 20
105.7580480761846
 30
0.0
 10
160.4447908208958
 20
105.817168549999
 30
0.0
 10
160.395793124016
 20
105.9270757794164
 30
0.0
 10
160.3729400794383
 20
105.9677190047236
 30
0.0
 10
160.3175975617664
 20
106.0540264885776
 30
0.0
 10
160.2850084263393
 20
106.1000679918343
 30
0.0
 10
160.1762099514791
 20
106.247846800034
 30
0.0
 10
160.0915892298269
 20
106.3563154023523
 30
0.0
 10
159.9214010010223
 20
106.5903622649975
 30
0.0
 10
159.8347709260765
 20
106.7173732297385
 30
0.0
 10
159.6756549247358
 20
106.9830591912114
 30
0.0
 10
159.6013410304469
 20
107.1246361037864
 30
0.0
 10
159.4750122087015
 20
107.4153669296041
 30
0.0
 10
159.4226179436216
 20
107.5644488987016
 30
0.0
 10
159.3830276559817
 20
107.7180624183926
 30
0.0
  0
SPLINE
  5
F2
330
1F
100
AcDbEntity
  8
0
  6
HIDDEN
 62
     7
370
     0
100
AcDbSpline
210
0.0
220
0.0
230
1.0
 70
    11
 71
     3
 72
    66
 73
    62
 74
     0
 42
0.000000001
 43
0.00000001
 40
0.0
 40
0.0
 40
0.0
 40
0.0
 40
0.03125
 40
0.03125
 40
0.0625000000000001
 40
0.0625000000000001
 40
0.0937500000000001
 40
0.0937500000000001
 40
0.1250000000000002
 40
0.1250000000000002
 40
0.1562500000000002
 40
0.1562500000000002
 40
0.1875000000000003
 40
0.1875000000000003
 40
0.2187500000000003
 40
0.2187500000000003
 40
0.2500000000000003
 40
0.2500000000000003
 40
0.2812500000000003
 40
0.2812500000000003
 40
0.3125000000000003
 40
0.3125000000000003
 40
0.3437500000000003
 40
0.3437500000000003
 40
0.3750000000000003
 40
0.3750000000000003
 40
0.4062500000000003
 40
0.4062500000000003
 40
0.4375000000000003
 40
0.4375000000000003
 40
0.4687500000000003
 40
0.4687500000000003
 40
0.5000000000000002
 40
0.5000000000000002
 40
0.5312500000000002
 40
0.5312500000000002
 40
0.5625000000000003
 40
0.5625000000000003
 40
0.6250000000000003
 40
0.6250000000000003
 40
0.6562500000000003
 40
0.6562500000000003
 40
0.6875000000000004
 40
0.6875000000000004
 40
0.7187500000000004
 40
0.7187500000000004
 40
0.7500000000000004
 40
0.7500000000000004
 40
0.7812500000000004
 40
0.7812500000000004
 40
0.8125000000000003
 40
0.8125000000000003
 40
0.8437500000000003
 40
0.8437500000000003
 40
0.8750000000000002
 40
0.8750000000000002
 40
0.9375000000000001
 40
0.9375000000000001
 40
0.9687500000000001
 40
0.9687500000000001
 40
1.0
 40
1.0
 40
1.0
 40
1.0
 10
161.8020027162013
 20
115.2366597209611
 30
0.0
 10
161.6289520505309
 20
115.2366597209611
 30
0.0
 10
161.4612573965236
 20
115.2466192256977
 30
0.0
 10
161.1347958464032
 20
115.285901925253
 30
0.0
 10
160.9758379999425
 20
115.3156858319674
 30
0.0
 10
160.6798843027285
 20
115.3939381196568
 30
0.0
 10
160.5395132423831
 20
115.4431141907951
 30
0.0
 10
160.2782009615756
 20
115.5616706276256
 30
0.0
 10
160.1575614545565
 20
115.6306538266719
 30
0.0
 10
159.9341134087132
 20
115.7915730231716
 30
0.0
 10
159.8313101614472
 20
115.8840363354811
 30
0.0
 10
159.6515964767298
 20
116.0888674759179
 30
0.0
 10
159.5735040479147
 20
116.2018930004193
 30
0.0
 10
159.4428535558478
 20
116.4536357402058
 30
0.0
 10
159.3908027750695
 20
116.5928751470915
 30
0.0
 10
159.3211403266185
 20
116.8854507094929
 30
0.0
 10
159.3025677915487
 20
117.0428944415647
 30
0.0
 10
159.301463653848
 20
117.3642657589519
 30
0.0
 10
159.3183086936499
 20
117.5274029747068
 30
0.0
 10
159.3863942974559
 20
117.8583167382049
 30
0.0
 10
159.4368577025503
 20
118.0214984218617
 30
0.0
 10
159.5659062656034
 20
118.3378473083058
 30
0.0
 10
159.6453492792402
 20
118.4924790898281
 30
0.0
 10
159.825407105739
 20
118.7821551261616
 30
0.0
 10
159.9270618350859
 20
118.9194275961587
 30
0.0
 10
160.1510757125969
 20
119.1753397605397
 30
0.0
 10
160.2715595095382
 20
119.2920724715812
 30
0.0
 10
160.5310759381308
 20
119.5031286013762
 30
0.0
 10
160.6716306922174
 20
119.5982533648887
 30
0.0
 10
160.9679241945768
 20
119.7569457125837
 30
0.0
 10
161.1233379910467
 20
119.8208469080844
 30
0.0
 10
161.4537953687432
 20
119.9105907235538
 30
0.0
 10
161.623427174203
 20
119.9344936976605
 30
0.0
 10
161.9668764885666
 20
119.9357273442263
 30
0.0
 10
162.1387771982468
 20
119.9125574235258
 30
0.0
 10
162.4673066729607
 20
119.8255307356174
 30
0.0
 10
162.6263730703561
 20
119.7612318982265
 30
0.0
 10
163.0699517842139
 20
119.5263054506254
 30
0.0
 10
163.3336917024563
 20
119.309537741194
 30
0.0
 10
163.6686855292817
 20
118.9298181509695
 30
0.0
 10
163.771848876766
 20
118.7917637178314
 30
0.0
 10
163.9529985890377
 20
118.5027478148037
 30
0.0
 10
164.0315006464259
 20
118.3516382216559
 30
0.0
 10
164.1624883502727
 20
118.0351073059045
 30
0.0
 10
164.2139643744319
 20
117.8708597662663
 30
0.0
 10
164.2829911420278
 20
117.5452716384163
 30
0.0
 10
164.3014641849308
 20
117.3803476315189
 30
0.0
 10
164.3025178635168
 20
117.0563373493363
 30
0.0
 10
164.2854230937423
 20
116.9017109526325
 30
0.0
 10
164.2175758918297
 20
116.6062531959953
 30
0.0
 10
164.1665551672655
 20
116.4665589096227
 30
0.0
 10
164.0373641522237
 20
116.2128306725232
 30
0.0
 10
163.9578451159882
 20
116.0959886312343
 30
0.0
 10
163.7771058175694
 20
115.8881870428189
 30
0.0
 10
163.6759002708699
 20
115.7965239672893
 30
0.0
 10
163.3394441823448
 20
115.5523937687446
 30
0.0
 10
163.0806211398856
 20
115.4359596842516
 30
0.0
 10
162.6326250307115
 20
115.3165528060448
 30
0.0
 10
162.4766863373522
 20
115.2870713537953
 30
0.0
 10
162.1475524750526
 20
115.2469374531796
 30
0.0
 10
161.9750533818716
 20
115.2366597209611
 30
0.0
 10
161.8020027162013
 20
115.2366597209611
 30
0.0
  0
LINE
  5
F3
330
1F
100
AcDbEntity
  8
0
  6
HIDDEN
 62
     7
370
     0
100
AcDbLine
 10
241.231819692
 20
134.0358053861
 30
0.0
 11
241.4892040767
 21
134.0030602215
 31
0.0
  0
SPLINE
  5
F4
330
1F
100
AcDbEntity
  8
0
  6
HIDDEN
 62
     7
370
     0
100
AcDbSpline
210
0.0
220
0.0
230
1.0
 70
     8
 71
     3
 72
     9
 73
     5
 74
     0
 42
0.000000001
 43
0.00000001
 40
0.0
 40
0.0
 40
0.0
 40
0.0
 40
0.1276015572411961
 40
1.0
 40
1.0
 40
1.0
 40
1.0
 10
240.4904007792879
 20
134.1705500617333
 30
0.0
 10
240.5139587002629
 20
134.1655592205789
 30
0.0
 10
240.6985796522669
 20
134.1264465227221
 30
0.0
 10
240.9833694097218
 20
134.0780372007035
 30
0.0
 10
241.2318195506391
 20
134.0358049835594
 30
0.0
  0
CIRCLE
  5
F5
330
1F
100
AcDbEntity
  8
0
  6
HIDDEN
 62
     7
370
     0
100
AcDbCircle
 10
244.5520027162
 20
118.3740232438
 30
0.0
 40
3.5
  0
LINE
  5
F6
330
1F
100
AcDbEntity
  8
0
  6
HIDDEN
 62
     7
370
     0
100
AcDbLine
 10
141.6020027162
 20
153.6740232438
 30
0.0
 11
141.7735755915
 21
153.6740232438
 31
0.0
  0
ELLIPSE
  5
F7
330
1F
100
AcDbEntity
  8
0
  6
HIDDEN
 62
     7
370
     0
100
AcDbEllipse
 10
141.7735755915
 20
155.6740232438
 30
0.0
 11
0.0
 21
2.0
 31
0.0
210
0.0
220
0.0
230
1.0
 40
0.4142135624
 41
3.141592653589793
 42
4.712388980384695
  0
ELLIPSE
  5
F8
330
1F
100
AcDbEntity
  8
0
  6
HIDDEN
 62
     7
370
     0
100
AcDbEllipse
 10
141.7735755915
 20
81.0740232438
 30
0.0
 11
0.0
 21
2.0
 31
0.0
210
0.0
220
0.0
230
1.0
 40
0.4142135624
 41
4.712388980384695
 42
6.283185307179586
  0
LINE
  5
F9
330
1F
100
AcDbEntity
  8
0
  6
HIDDEN
 62
     7
370
     0
100
AcDbLine
 10
141.7735755915
 20
83.0740232438
 30
0.0
 11
141.6020027162
 21
83.0740232438
 31
0.0
  0
LINE
  5
FA
330
1F
100
AcDbEntity
  8
0
  6
HIDDEN
 62
     7
370
     0
100
AcDbLine
 10
142.6020027162
 20
71.0534530899
 30
0.0
 11
141.9881391363
 21
70.4395895099
 31
0.0
  0
LINE
  5
FB
330
1F
100
AcDbEntity
  8
0
  6
HIDDEN
 62
     7
370
     0
100
AcDbLine
 10
141.9881391363
 20
166.3084569777
 30
0.0
 11
142.6020027162
 21
165.6945933977
 31
0.0
  0
LINE
  5
FC
330
1F
100
AcDbEntity
  8
0
  6
HIDDEN
 62
     7
370
     0
100
AcDbLine
 10
158.7520027162
 20
153.6740232438
 30
0.0
 11
169.6020027162
 21
153.6740232438
 31
0.0
  0
SPLINE
  5
FD
330
1F
100
AcDbEntity
  8
0
  6
HIDDEN
 62
     7
370
     0
100
AcDbSpline
210
0.0
220
0.0
230
1.0
 70
     8
 71
     3
 72
    13
 73
     9
 74
     0
 42
0.000000001
 43
0.00000001
 40
0.0
 40
0.0
 40
0.0
 40
0.0
 40
0.0005825290635634
 40
0.1623661983695077
 40
0.328738549447489
 40
0.499871825213266
 40
0.7262528256364211
 40
1.0
 40
1.0
 40
1.0
 40
1.0
 10
171.6015685588075
 20
69.37415605046249
 30
0.0
 10
171.6017133448424
 20
69.37411170826918
 30
0.0
 10
171.642069027566
 20
69.36175237067718
 30
0.0
 10
171.527914420669
 20
69.39738145667673
 30
0.0
 10
171.3037973129815
 20
69.46522941958762
 30
0.0
 10
170.8244884219921
 20
69.60432259374089
 30
0.0
 10
170.030980764342
 20
69.83456917450768
 30
0.0
 10
169.1619628918627
 20
70.05005474527212
 30
0.0
 10
168.686302453088
 20
70.16800164186128
 30
0.0
  0
SPLINE
  5
FE
330
1F
100
AcDbEntity
  8
0
  6
HIDDEN
 62
     7
370
     0
100
AcDbSpline
210
0.0
220
0.0
230
1.0
 70
     8
 71
     3
 72
    14
 73
    10
 74
     0
 42
0.000000001
 43
0.00000001
 40
0.0
 40
0.0
 40
0.0
 40
0.0
 40
0.1878284864210363
 40
0.354582006350713
 40
0.5003029611496775
 40
0.6713289150616614
 40
0.8376430920894544
 40
0.9994176736746192
 40
1.0
 40
1.0
 40
1.0
 40
1.0
 10
168.686302453088
 20
166.5800448457452
 30
0.0
 10
169.0192929956939
 20
166.6615890735906
 30
0.0
 10
169.6479114600324
 20
166.8155280019538
 30
0.0
 10
170.3475018066779
 20
167.0065527988744
 30
0.0
 10
170.8948511329291
 20
167.1637669379747
 30
0.0
 10
171.3031928864766
 20
167.2827594456913
 30
0.0
 10
171.5280401014265
 20
167.3506551439563
 30
0.0
 10
171.6420706636841
 20
167.3862948560684
 30
0.0
 10
171.6017134164504
 20
167.3739347998604
 30
0.0
 10
171.601568666912
 20
167.3738904679856
 30
0.0
  0
LINE
  5
FF
330
1F
100
AcDbEntity
  8
0
  6
HIDDEN
 62
     7
370
     0
100
AcDbLine
 10
158.7520027162
 20
83.0740232438
 30
0.0
 11
141.7735755915
 21
83.0740232438
 31
0.0
  0
LINE
  5
100
330
1F
100
AcDbEntity
  8
0
  6
HIDDEN
 62
     7
370
     0
100
AcDbLine
 10
154.8345717527
 20
71.0534530899
 30
0.0
 11
142.6020027162
 21
71.0534530899
 31
0.0
  0
LINE
  5
101
330
1F
100
AcDbEntity
  8
0
  6
HIDDEN
 62
     7
370
     0
100
AcDbLine
 10
142.6020027162
 20
71.0534530899
 30
0.0
 11
142.6020027162
 21
81.0740232438
 31
0.0
  0
LINE
  5
102
330
1F
100
AcDbEntity
  8
0
  6
HIDDEN
 62
     7
370
     0
100
AcDbLine
 10
142.6020027162
 20
165.6945933977
 30
0.0
 11
154.8345717527
 21
165.6945933977
 31
0.0
  0
LINE
  5
103
330
1F
100
AcDbEntity
  8
0
  6
HIDDEN
 62
     7
370
     0
100
AcDbLine
 10
142.6020027162
 20
165.6945933977
 30
0.0
 11
142.6020027162
 21
155.6740232438
 31
0.0
  0
LINE
  5
104
330
1F
100
AcDbEntity
  8
0
  6
HIDDEN
 62
     7
370
     0
100
AcDbLine
 10
141.7735755915
 20
153.6740232438
 30
0.0
 11
158.7520027162
 21
153.6740232438
 31
0.0
  0
LINE
  5
105
330
1F
100
AcDbEntity
  8
0
  6
HIDDEN
 62
     7
370
     0
100
AcDbLine
 10
169.6020027162
 20
83.0740232438
 30
0.0
 11
158.7520027162
 21
83.0740232438
 31
0.0
  0
LINE
  5
106
330
1F
100
AcDbEntity
  8
0
  6
HIDDEN
 62
     7
370
     0
100
AcDbLine
 10
46.8020027162
 20
105.8740232438
 30
0.0
 11
46.8020027162
 21
130.8740232438
 31
0.0
  0
LINE
  5
107
330
1F
100
AcDbEntity
  8
0
  6
HIDDEN
 62
     7
370
     0
100
AcDbLine
 10
50.0866070651
 20
107.8740232438
 30
0.0
 11
50.0866070651
 21
128.8740232438
 31
0.0
  0
LINE
  5
108
330
1F
100
AcDbEntity
  8
0
  6
HIDDEN
 62
     7
370
     0
100
AcDbLine
 10
99.8020027162
 20
107.8740232438
 30
0.0
 11
99.8020027162
 21
128.8740232438
 31
0.0
  0
LINE
  5
109
330
1F
100
AcDbEntity
  8
0
  6
HIDDEN
 62
     7
370
     0
100
AcDbLine
 10
104.0681131113
 20
114.9740232438
 30
0.0
 11
104.0681131113
 21
121.7740232438
 31
0.0
  0
LINE
  5
10A
330
1F
100
AcDbEntity
  8
0
  6
HIDDEN
 62
     7
370
     0
100
AcDbLine
 10
234.1020027162
 20
118.3740232438
 30
0.0
 11
234.1020027162
 21
109.6740232438
 31
0.0
  0
LINE
  5
10B
330
1F
100
AcDbEntity
  8
0
  6
HIDDEN
 62
     7
370
     0
100
AcDbLine
 10
234.1020027162
 20
127.0740232438
 30
0.0
 11
234.1020027162
 21
118.3740232438
 31
0.0
  0
LINE
  5
10C
330
1F
100
AcDbEntity
  8
0
  6
HIDDEN
 62
     7
370
     0
100
AcDbLine
 10
237.46802812
 20
118.3740232438
 30
0.0
 11
237.46802812
 21
109.3740232438
 31
0.0
  0
LINE
  5
10D
330
1F
100
AcDbEntity
  8
0
  6
HIDDEN
 62
     7
370
     0
100
AcDbLine
 10
237.46802812
 20
127.3740232438
 30
0.0
 11
237.46802812
 21
118.3740232438
 31
0.0
  0
SPLINE
  5
10E
330
1F
100
AcDbEntity
  8
0
  6
HIDDEN
 62
     7
370
     0
100
AcDbSpline
210
0.0
220
0.0
230
1.0
 70
     8
 71
     3
 72
     9
 73
     5
 74
     0
 42
0.000000001
 43
0.00000001
 40
0.0
 40
0.0
 40
0.0
 40
0.0
 40
0.4951995007203773
 40
1.0
 40
1.0
 40
1.0
 40
1.0
 10
168.6862869306384
 20
166.580035408216
 30
0.0
 10
168.791483152363
 20
166.7371911684687
 30
0.0
 10
169.0039151551651
 20
167.054549647272
 30
0.0
 10
169.2186335386793
 20
167.373176195375
 30
0.0
 10
169.3270234858818
 20
167.5340190359411
 30
0.0
  0
SPLINE
  5
10F
330
1F
100
AcDbEntity
  8
0
  6
HIDDEN
 62
     7
370
     0
100
AcDbSpline
210
0.0
220
0.0
230
1.0
 70
     8
 71
     3
 72
     9
 73
     5
 74
     0
 42
0.000000001
 43
0.00000001
 40
0.0
 40
0.0
 40
0.0
 40
0.0
 40
0.5048004990382029
 40
1.0
 40
1.0
 40
1.0
 40
1.0
 10
169.3270234858819
 20
69.21402745166546
 30
0.0
 10
169.2186335387341
 20
69.37487029214792
 30
0.0
 10
169.0039151552256
 20
69.69349684023757
 30
0.0
 10
168.7914831524173
 20
70.0108553190544
 30
0.0
 10
168.6862869306384
 20
70.1680110793905
 30
0.0
  0
SPLINE
  5
110
330
1F
100
AcDbEntity
  8
0
  6
HIDDEN
 62
     7
370
     0
100
AcDbSpline
210
0.0
220
0.0
230
1.0
 70
     8
 71
     3
 72
    12
 73
     8
 74
     0
 42
0.000000001
 43
0.00000001
 40
0.0
 40
0.0
 40
0.0
 40
0.0
 40
0.2035645350420965
 40
0.4067378086347485
 40
0.619846903265285
 40
0.8406846156411457
 40
1.0
 40
1.0
 40
1.0
 40
1.0
 10
244.5520027162013
 20
126.6655852196917
 30
0.0
 10
244.9284606112791
 20
126.6810403776558
 30
0.0
 10
245.6806528301032
 20
126.7119209879798
 30
0.0
 10
246.6954846054635
 20
126.925117758648
 30
0.0
 10
247.4950903809117
 20
127.1639662944365
 30
0.0
 10
247.990083339723
 20
127.3496650638325
 30
0.0
 10
248.0085162637677
 20
127.3571337852344
 30
0.0
 10
248.0162411735587
 20
127.3602637931998
 30
0.0
  0
LINE
  5
111
330
1F
100
AcDbEntity
  8
0
  6
HIDDEN
 62
     7
370
     0
100
AcDbLine
 10
244.8732229557
 20
126.6869480623
 30
0.0
 11
244.3115747069
 21
126.6839992882
 31
0.0
  0
SPLINE
  5
112
330
1F
100
AcDbEntity
  8
0
  6
HIDDEN
 62
     7
370
     0
100
AcDbSpline
210
0.0
220
0.0
230
1.0
 70
     8
 71
     3
 72
    14
 73
    10
 74
     0
 42
0.000000001
 43
0.00000001
 40
0.0
 40
0.0
 40
0.0
 40
0.0
 40
0.0102922760405194
 40
0.1782860047320403
 40
0.3358371296344022
 40
0.4890923825618997
 40
0.649047914076924
 40
0.8182047356723389
 40
1.0
 40
1.0
 40
1.0
 40
1.0
 10
241.4423361972061
 20
127.2309164761466
 30
0.0
 10
241.4280903096578
 20
127.2354665839013
 30
0.0
 10
241.1813186174845
 20
127.3142849647418
 30
0.0
 10
241.0300193609605
 20
127.3866746156105
 30
0.0
 10
241.0694602193326
 20
127.3657709865197
 30
0.0
 10
241.4940605218345
 20
127.2060299137962
 30
0.0
 10
242.2265160654639
 20
126.9739853381165
 30
0.0
 10
243.2708525158661
 20
126.7274638652567
 30
0.0
 10
244.1148216786911
 20
126.6867007535774
 30
0.0
 10
244.5520027162013
 20
126.6655852196917
 30
0.0
  0
LINE
  5
113
330
1F
100
AcDbEntity
  8
0
  6
HIDDEN
 62
     7
370
     0
100
AcDbLine
 10
244.5520027162
 20
132.8740232438
 30
0.0
 11
248.0520027162
 21
132.8740232438
 31
0.0
  0
LINE
  5
114
330
1F
100
AcDbEntity
  8
0
  6
HIDDEN
 62
     7
370
     0
100
AcDbLine
 10
241.0520027162
 20
132.8740232438
 30
0.0
 11
244.5520027162
 21
132.8740232438
 31
0.0
  0
SPLINE
  5
115
330
1F
100
AcDbEntity
  8
0
  6
HIDDEN
 62
     7
370
     0
100
AcDbSpline
210
0.0
220
0.0
230
1.0
 70
    11
 71
     3
 72
    66
 73
    62
 74
     0
 42
0.000000001
 43
0.00000001
 40
0.0
 40
0.0
 40
0.0
 40
0.0
 40
0.03125
 40
0.03125
 40
0.0625
 40
0.0625
 40
0.0937499999999999
 40
0.0937499999999999
 40
0.1249999999999999
 40
0.1249999999999999
 40
0.1562499999999999
 40
0.1562499999999999
 40
0.1874999999999998
 40
0.1874999999999998
 40
0.2187499999999998
 40
0.2187499999999998
 40
0.2499999999999997
 40
0.2499999999999997
 40
0.2812499999999997
 40
0.2812499999999997
 40
0.3124999999999997
 40
0.3124999999999997
 40
0.3437499999999997
 40
0.3437499999999997
 40
0.3749999999999998
 40
0.3749999999999998
 40
0.4062499999999998
 40
0.4062499999999998
 40
0.4374999999999998
 40
0.4374999999999998
 40
0.4687499999999998
 40
0.4687499999999998
 40
0.4999999999999999
 40
0.4999999999999999
 40
0.5312499999999999
 40
0.5312499999999999
 40
0.5624999999999999
 40
0.5624999999999999
 40
0.6249999999999999
 40
0.6249999999999999
 40
0.6562499999999999
 40
0.6562499999999999
 40
0.6874999999999999
 40
0.6874999999999999
 40
0.7187499999999999
 40
0.7187499999999999
 40
0.7499999999999998
 40
0.7499999999999998
 40
0.7812499999999998
 40
0.7812499999999998
 40
0.8124999999999998
 40
0.8124999999999998
 40
0.8437499999999999
 40
0.8437499999999999
 40
0.8749999999999999
 40
0.8749999999999999
 40
0.9374999999999999
 40
0.9374999999999999
 40
0.9687499999999999
 40
0.9687499999999999
 40
1.0
 40
1.0
 40
1.0
 40
1.0
 10
161.8020027162013
 20
116.812923662716
 30
0.0
 10
161.9750533818716
 20
116.812923662716
 30
0.0
 10
162.1427480358789
 20
116.836285197775
 30
0.0
 10
162.4692095859993
 20
116.9232802037525
 30
0.0
 10
162.62816743246
 20
116.987597130821
 30
0.0
 10
162.924121129674
 20
117.1446767312047
 30
0.0
 10
163.0644921900195
 20
117.2388180631769
 30
0.0
 10
163.325804470827
 20
117.4498535610721
 30
0.0
 10
163.4464439778461
 20
117.5661724965479
 30
0.0
 10
163.6698920236894
 20
117.8197397109929
 30
0.0
 10
163.7726952709554
 20
117.9576085857016
 30
0.0
 10
163.9524089556728
 20
118.2443825418978
 30
0.0
 10
164.0305013844879
 20
118.3944595774239
 30
0.0
 10
164.1611518765548
 20
118.7092518491533
 30
0.0
 10
164.2132026573331
 20
118.8742612545611
 30
0.0
 10
164.282865105784
 20
119.2015213954246
 30
0.0
 10
164.3014376408538
 20
119.3683472004517
 30
0.0
 10
164.3025417785545
 20
119.6902738655333
 30
0.0
 10
164.2856967387526
 20
119.8448959240801
 30
0.0
 10
164.2176111349466
 20
120.1418866497159
 30
0.0
 10
164.1671477298522
 20
120.2800566984377
 30
0.0
 10
164.0380991667991
 20
120.5340366315302
 30
0.0
 10
163.9586561531623
 20
120.6509120342414
 30
0.0
 10
163.7785983266636
 20
120.858354097776
 30
0.0
 10
163.6769435973167
 20
120.9506344763137
 30
0.0
 10
163.4529297198057
 20
121.1134380332634
 30
0.0
 10
163.3324459228644
 20
121.1827927121148
 30
0.0
 10
163.0729294942717
 20
121.3016421350111
 30
0.0
 10
162.9323747401852
 20
121.3514751681205
 30
0.0
 10
162.6360812378258
 20
121.4306951524828
 30
0.0
 10
162.4806674413558
 20
121.4603441485232
 30
0.0
 10
162.1502100636594
 20
121.500927617466
 30
0.0
 10
161.9805782581995
 20
121.5111138358545
 30
0.0
 10
161.637128943836
 20
121.5116490219695
 30
0.0
 10
161.4652282341557
 20
121.5017778191858
 30
0.0
 10
161.1366987594418
 20
121.4624985304748
 30
0.0
 10
160.9776323620464
 20
121.432731287764
 30
0.0
 10
160.5340536481887
 20
121.315755312699
 30
0.0
 10
160.2703137299463
 20
121.1983444316822
 30
0.0
 10
159.9353199031208
 20
120.9574655523743
 30
0.0
 10
159.8321565556365
 20
120.8649514743813
 30
0.0
 10
159.6510068433648
 20
120.6585303030096
 30
0.0
 10
159.5725047859767
 20
120.5446790165461
 30
0.0
 10
159.4415170821298
 20
120.2913765242596
 30
0.0
 10
159.3900410579706
 20
120.1526236721908
 30
0.0
 10
159.3210142903747
 20
119.861406552619
 30
0.0
 10
159.3025412474718
 20
119.7058137412057
 30
0.0
 10
159.3014875688857
 20
119.3823334274448
 30
0.0
 10
159.3185823386602
 20
119.2190670616856
 30
0.0
 10
159.3864295405729
 20
118.8898060493814
 30
0.0
 10
159.4374502651371
 20
118.7248263128919
 30
0.0
 10
159.5666412801788
 20
118.4086692996085
 30
0.0
 10
159.6461603164144
 20
118.254038496092
 30
0.0
 10
159.8268996148331
 20
117.9637172069262
 30
0.0
 10
159.9281051615327
 20
117.8272774774767
 30
0.0
 10
160.2645612500577
 20
117.4433629399408
 30
0.0
 10
160.5233842925169
 20
117.2287881749231
 30
0.0
 10
160.971380401691
 20
116.9894542211973
 30
0.0
 10
161.1273190950503
 20
116.9258270115457
 30
0.0
 10
161.4564529573499
 20
116.8370313699351
 30
0.0
 10
161.6289520505309
 20
116.812923662716
 30
0.0
 10
161.8020027162013
 20
116.812923662716
 30
0.0
  0
SPLINE
  5
116
330
1F
100
AcDbEntity
  8
0
  6
HIDDEN
 62
     7
370
     0
100
AcDbSpline
210
0.0
220
0.0
230
1.0
 70
    11
 71
     3
 72
    66
 73
    62
 74
     0
 42
0.000000001
 43
0.00000001
 40
0.0
 40
0.0
 40
0.0
 40
0.0
 40
0.0312500000000003
 40
0.0312500000000003
 40
0.0625000000000005
 40
0.0625000000000005
 40
0.0937500000000008
 40
0.0937500000000008
 40
0.1250000000000011
 40
0.1250000000000011
 40
0.1562500000000013
 40
0.1562500000000013
 40
0.1875000000000016
 40
0.1875000000000016
 40
0.2187500000000018
 40
0.2187500000000018
 40
0.2500000000000021
 40
0.2500000000000021
 40
0.2812500000000024
 40
0.2812500000000024
 40
0.3125000000000027
 40
0.3125000000000027
 40
0.3437500000000026
 40
0.3437500000000026
 40
0.3750000000000026
 40
0.3750000000000026
 40
0.4062500000000026
 40
0.4062500000000026
 40
0.4375000000000026
 40
0.4375000000000026
 40
0.4687500000000026
 40
0.4687500000000026
 40
0.5000000000000026
 40
0.5000000000000026
 40
0.5312500000000024
 40
0.5312500000000024
 40
0.5625000000000024
 40
0.5625000000000024
 40
0.6250000000000021
 40
0.6250000000000021
 40
0.656250000000002
 40
0.656250000000002
 40
0.6875000000000018
 40
0.6875000000000018
 40
0.7187500000000017
 40
0.7187500000000017
 40
0.7500000000000014
 40
0.7500000000000014
 40
0.7812500000000012
 40
0.7812500000000012
 40
0.8125000000000011
 40
0.8125000000000011
 40
0.8437500000000009
 40
0.8437500000000009
 40
0.8750000000000007
 40
0.8750000000000007
 40
0.9062500000000006
 40
0.9062500000000006
 40
0.9375000000000003
 40
0.9375000000000003
 40
1.0
 40
1.0
 40
1.0
 40
1.0
 10
161.8020027162013
 20
130.5354774507171
 30
0.0
 10
161.6368024255374
 20
130.5354774507171
 30
0.0
 10
161.4743698842408
 20
130.551043041999
 30
0.0
 10
161.1548117286509
 20
130.6119893138286
 30
0.0
 10
160.9960283906738
 20
130.6581113578139
 30
0.0
 10
160.6932903741945
 20
130.778374545402
 30
0.0
 10
160.5497112090601
 20
130.8519181948226
 30
0.0
 10
160.2779814791921
 20
131.0254351177549
 30
0.0
 10
160.1493529156544
 20
131.1263077745415
 30
0.0
 10
159.9187871539872
 20
131.3462925634398
 30
0.0
 10
159.8153131527378
 20
131.4661717270286
 30
0.0
 10
159.6325526148121
 20
131.726013093626
 30
0.0
 10
159.5549083585835
 20
131.8641025241983
 30
0.0
 10
159.4302157078934
 20
132.1490849564464
 30
0.0
 10
159.3822117273149
 20
132.2980800657889
 30
0.0
 10
159.3179799849967
 20
132.6026051531836
 30
0.0
 10
159.3020905409545
 20
132.7553745006201
 30
0.0
 10
159.3019156105993
 20
133.0618641822342
 30
0.0
 10
159.3181462619342
 20
133.2171909525292
 30
0.0
 10
159.3819274846438
 20
133.5172531584276
 30
0.0
 10
159.4291195960401
 20
133.6627878709269
 30
0.0
 10
159.554286213698
 20
133.9449211512488
 30
0.0
 10
159.632545701073
 20
134.0810609926035
 30
0.0
 10
159.8134658844284
 20
134.332597542373
 30
0.0
 10
159.9167511133522
 20
134.4496243862163
 30
0.0
 10
160.1500028554009
 20
134.6656996798377
 30
0.0
 10
160.2764167236666
 20
134.7614036037231
 30
0.0
 10
160.5470889943611
 20
134.9285566004947
 30
0.0
 10
160.6931707665254
 20
135.0007177861178
 30
0.0
 10
160.9960552119983
 20
135.1163718280743
 30
0.0
 10
161.151885571638
 20
135.159904635257
 30
0.0
 10
161.4722310609035
 20
135.2188005381904
 30
0.0
 10
161.6379411468751
 20
135.2338866412103
 30
0.0
 10
161.9642725355716
 20
135.233994172877
 30
0.0
 10
162.1264596213985
 20
135.2195035156873
 30
0.0
 10
162.4488352026071
 20
135.1607754514102
 30
0.0
 10
162.6068506766446
 20
135.1166446442809
 30
0.0
 10
163.0582615517201
 20
134.9447150456829
 30
0.0
 10
163.3373410087723
 20
134.7731413530119
 30
0.0
 10
163.6834147132707
 20
134.4534905346456
 30
0.0
 10
163.7890567291853
 20
134.3344494052571
 30
0.0
 10
163.9708402051561
 20
134.0821296443987
 30
0.0
 10
164.0477280285401
 20
133.9486653330274
 30
0.0
 10
164.1733825859104
 20
133.6668999204751
 30
0.0
 10
164.2216906618251
 20
133.5184791888441
 30
0.0
 10
164.2855085472654
 20
133.2194295910675
 30
0.0
 10
164.3018367243083
 20
133.0672265212003
 30
0.0
 10
164.3021662143679
 20
132.7572246623605
 30
0.0
 10
164.2860697025333
 20
132.6037019952625
 30
0.0
 10
164.222840965272
 20
132.3021732776834
 30
0.0
 10
164.1750043718615
 20
132.1522384523816
 30
0.0
 10
164.0496610539481
 20
131.8650193562908
 30
0.0
 10
163.9729643794229
 20
131.7286404419745
 30
0.0
 10
163.7919130127711
 20
131.4702848839603
 30
0.0
 10
163.6864374024103
 20
131.347609707586
 30
0.0
 10
163.455910833734
 20
131.1273560235339
 30
0.0
 10
163.3301913961037
 20
131.0284304521001
 30
0.0
 10
163.0574245469069
 20
130.8535917711785
 30
0.0
 10
162.9117051705009
 20
130.778914926198
 30
0.0
 10
162.4606360653929
 20
130.5992887107053
 30
0.0
 10
162.132403297529
 20
130.5354774507171
 30
0.0
 10
161.8020027162013
 20
130.5354774507171
 30
0.0
  0
SPLINE
  5
117
330
1F
100
AcDbEntity
  8
0
  6
HIDDEN
 62
     7
370
     0
100
AcDbSpline
210
0.0
220
0.0
230
1.0
 70
    11
 71
     3
 72
    60
 73
    56
 74
     0
 42
0.000000001
 43
0.00000001
 40
0.0
 40
0.0
 40
0.0
 40
0.0
 40
0.03125
 40
0.03125
 40
0.0624999999999999
 40
0.0624999999999999
 40
0.0937499999999999
 40
0.0937499999999999
 40
0.1249999999999999
 40
0.1249999999999999
 40
0.1562499999999999
 40
0.1562499999999999
 40
0.1874999999999998
 40
0.1874999999999998
 40
0.2187499999999998
 40
0.2187499999999998
 40
0.2499999999999998
 40
0.2499999999999998
 40
0.3124999999999988
 40
0.3124999999999988
 40
0.3749999999999978
 40
0.3749999999999978
 40
0.4062499999999973
 40
0.4062499999999973
 40
0.4374999999999968
 40
0.4374999999999968
 40
0.4531249999999965
 40
0.4531249999999965
 40
0.4687499999999962
 40
0.4687499999999962
 40
0.4999999999999957
 40
0.4999999999999957
 40
0.5624999999999959
 40
0.5624999999999959
 40
0.6249999999999966
 40
0.6249999999999966
 40
0.6874999999999973
 40
0.6874999999999973
 40
0.7187499999999976
 40
0.7187499999999976
 40
0.7499999999999979
 40
0.7499999999999979
 40
0.7812499999999982
 40
0.7812499999999982
 40
0.8124999999999986
 40
0.8124999999999986
 40
0.8437499999999988
 40
0.8437499999999988
 40
0.8749999999999991
 40
0.8749999999999991
 40
0.9062499999999994
 40
0.9062499999999994
 40
0.9374999999999997
 40
0.9374999999999997
 40
1.0
 40
1.0
 40
1.0
 40
1.0
 10
159.3830276559816
 20
127.8434984440804
 30
0.0
 10
159.4226177388284
 20
127.7120179127264
 30
0.0
 10
159.4749293597486
 20
127.5928340620467
 30
0.0
 10
159.6006494653511
 20
127.3776405747188
 30
0.0
 10
159.6750724957954
 20
127.2810526691105
 30
0.0
 10
159.8337828039884
 20
127.1204917573555
 30
0.0
 10
159.9186614037939
 20
127.0552125206535
 30
0.0
 10
160.0904346233357
 20
126.9577103460963
 30
0.0
 10
160.1744448596318
 20
126.9272352492991
 30
0.0
 10
160.3198407829104
 20
126.9074862809416
 30
0.0
 10
160.3781070314197
 20
126.9192628304378
 30
0.0
 10
160.4447117562298
 20
126.9836831732212
 30
0.0
 10
160.4518726406276
 20
127.034396311301
 30
0.0
 10
160.4287273212453
 20
127.1574198236759
 30
0.0
 10
160.3998192352757
 20
127.2278910499613
 30
0.0
 10
160.3243984774305
 20
127.3815127126257
 30
0.0
 10
160.2774530046541
 20
127.4651479808097
 30
0.0
 10
160.1258111130327
 20
127.7285282198198
 30
0.0
 10
160.0098839757695
 20
127.9220771452434
 30
0.0
 10
159.7762584047871
 20
128.3589466171393
 30
0.0
 10
159.6575756380852
 20
128.6019517513266
 30
0.0
 10
159.5011043291296
 20
129.0130262898564
 30
0.0
 10
159.4531176805775
 20
129.1566978553397
 30
0.0
 10
159.3725086707872
 20
129.4571607832986
 30
0.0
 10
159.3398091418921
 20
129.615660037573
 30
0.0
 10
159.3113885325482
 20
129.8508705594023
 30
0.0
 10
159.3052424605746
 20
129.9301181671988
 30
0.0
 10
159.3007642588097
 20
130.0817957376582
 30
0.0
 10
159.3022804692219
 20
130.1550038099666
 30
0.0
 10
159.3180434088983
 20
130.3667595411936
 30
0.0
 10
159.3435174635837
 20
130.492657687055
 30
0.0
 10
159.4498822073326
 20
130.8143880530743
 30
0.0
 10
159.5557602366032
 20
130.9524017694343
 30
0.0
 10
159.7789304575482
 20
131.1382136205645
 30
0.0
 10
159.8998168896754
 20
131.1871376553207
 30
0.0
 10
160.1288993633572
 20
131.2231889811117
 30
0.0
 10
160.2390621816077
 20
131.2113107979099
 30
0.0
 10
160.3670453489587
 20
131.1467032363605
 30
0.0
 10
160.4033866943712
 20
131.1166960225971
 30
0.0
 10
160.4464766975313
 20
131.0361678990471
 30
0.0
 10
160.4529615061332
 20
130.9845874817953
 30
0.0
 10
160.4169207534323
 20
130.8550402721697
 30
0.0
 10
160.3727015383071
 20
130.7751814476763
 30
0.0
 10
160.2470515634949
 20
130.5930519723713
 30
0.0
 10
160.1659274320135
 20
130.4889995323512
 30
0.0
 10
159.9989820619191
 20
130.2660356366719
 30
0.0
 10
159.9110938971891
 20
130.1442322546266
 30
0.0
 10
159.7454543999401
 20
129.886671031567
 30
0.0
 10
159.6675083118027
 20
129.7511921712531
 30
0.0
 10
159.5282525781311
 20
129.464437849905
 30
0.0
 10
159.4692268592321
 20
129.3179858120139
 30
0.0
 10
159.3754419055289
 20
129.0177410821119
 30
0.0
 10
159.3406288474194
 20
128.8620392259868
 30
0.0
 10
159.2823112427427
 20
128.4062762387251
 30
0.0
 10
159.3038474902879
 20
128.1064595067883
 30
0.0
 10
159.3830276559816
 20
127.8434984440804
 30
0.0
  0
LWPOLYLINE
  5
118
330
1F
100
AcDbEntity
  8
0
  6
HIDDEN
 62
     7
370
     0
100
AcDbPolyline
 90
       18
 70
   128
 43
0.0
 10
142.5842604167
 20
131.160674103
 10
142.7659134744
 20
130.6284626241
 10
143.0582818185
 20
130.3283707127
 10
143.4218794842
 20
130.3009274444
 10
143.8076005919
 20
130.5498391845
 10
144.1633513686
 20
131.0414890234
 10
144.4410857008
 20
131.7094769259
 10
144.6032940278
 20
132.4635874244
 10
144.6280692162
 20
133.2019737173
 10
144.5120652397
 20
133.8249126443
 10
144.2709490779
 20
134.2482728515
 10
143.9372848047
 20
134.4148771969
 10
143.556135629
 20
134.3022248406
 10
143.178977859
 20
133.9255301074
 10
142.8567487415
 20
133.3356677085
 10
142.6329671043
 20
132.6123018293
 10
142.5378558975
 20
131.8531270401
 10
142.5842604167
 20
131.160674103
  0
LWPOLYLINE
  5
119
330
1F
100
AcDbEntity
  8
0
  6
HIDDEN
 62
     7
370
     0
100
AcDbPolyline
 90
       22
 70
   128
 43
0.0
 10
141.8713898281
 20
130.7081985819
 10
142.0678648041
 20
130.06974101
 10
142.3739983495
 20
129.6386195589
 10
142.7625891553
 20
129.4531412614
 10
143.1991092233
 20
129.5297866784
 10
143.6447718296
 20
129.861745528
 10
144.059977896
 20
130.4195218098
 10
144.4078345413
 20
131.1535546534
 10
144.6574331761
 20
131.9986220193
 10
144.7865958664
 20
132.8796359636
 10
144.7838459402
 20
133.718314531
 10
144.6494277406
 20
134.4401374504
 10
144.3952849145
 20
134.9809675877
 10
144.0439991673
 20
135.2927498118
 10
143.6267837792
 20
135.3477809039
 10
143.1807101684
 20
135.1411711099
 10
142.7454139328
 20
134.6912786167
 10
142.3595730531
 20
134.0380783467
 10
142.0574711848
 20
133.2396100104
 10
141.8659514045
 20
132.3668210235
 10
141.8020310853
 20
131.4972625175
 10
141.8713898281
 20
130.7081985819
  0
LWPOLYLINE
  5
11A
330
1F
100
AcDbEntity
  8
0
  6
HIDDEN
 62
     7
370
     0
100
AcDbPolyline
 90
       20
 70
   128
 43
0.0
 10
143.209289916
 20
106.6911941078
 10
142.8184300032
 20
106.7420068964
 10
142.4799726974
 20
106.5330525379
 10
142.2305950991
 20
106.0869744794
 10
142.0973211408
 20
105.4521122001
 10
142.0945931237
 20
104.6972628789
 10
142.2227066709
 20
103.9042261523
 10
142.4677786916
 20
103.1589398551
 10
142.8032518296
 20
102.5421673217
 10
143.1927723652
 20
102.1207454264
 10
143.5941297041
 20
101.9403417706
 10
143.9638305511
 20
102.0205058896
 10
144.2618120829
 20
102.3525507573
 10
144.4557833768
 20
102.9004941601
 10
144.5247246334
 20
103.604957928
 10
144.4611649978
 20
104.3896024808
 10
144.2719921427
 20
105.1693994064
 10
143.9777058823
 20
105.859845608
 10
143.6101966992
 20
106.3861205262
 10
143.209289916
 20
106.6911941078
  0
LWPOLYLINE
  5
11B
330
1F
100
AcDbEntity
  8
0
  6
HIDDEN
 62
     7
370
     0
100
AcDbPolyline
 90
       22
 70
   128
 43
0.0
 10
143.4655179378
 20
107.2779543104
 10
143.0297108702
 20
107.3482372617
 10
142.6427330073
 20
107.15652225
 10
142.3389690304
 20
106.7198439955
 10
142.1454097019
 20
106.0770032774
 10
142.0792536174
 20
105.2851193145
 10
142.1463790356
 20
104.4145544722
 10
142.3408215683
 20
103.542662257
 10
142.6453041433
 20
102.7469141185
 10
143.0327721476
 20
102.0980157709
 10
143.4687973486
 20
101.65362468
 10
143.9146369937
 20
101.4532269444
 10
144.3306762739
 20
101.5146287824
 10
144.6799482735
 20
101.8323743712
 10
144.9314186425
 20
102.3782306208
 10
145.062743135
 20
103.1036958081
 10
145.0622529937
 20
103.9443091673
 10
144.9299917696
 20
104.8253785127
 10
144.6777114531
 20
105.6686169664
 10
144.3278282572
 20
106.3990990913
 10
143.9114308395
 20
106.9519183448
 10
143.4655179378
 20
107.2779543104
  0
LWPOLYLINE
  5
11C
330
1F
100
AcDbEntity
  8
0
  6
HIDDEN
 62
     7
370
     0
100
AcDbPolyline
 90
       22
 70
   128
 43
0.0
 10
146.6523695529
 20
107.9072473088
 10
146.2165624854
 20
107.9775302601
 10
145.8295846225
 20
107.7858152485
 10
145.5258206455
 20
107.3491369939
 10
145.332261317
 20
106.7062962758
 10
145.2661052326
 20
105.914412313
 10
145.3332306507
 20
105.0438474706
 10
145.5276731835
 20
104.1719552555
 10
145.8321557585
 20
103.376207117
 10
146.2196237627
 20
102.7273087693
 10
146.6556489637
 20
102.2829176785
 10
147.1014886088
 20
102.0825199429
 10
147.5175278891
 20
102.1439217809
 10
147.8667998886
 20
102.4616673697
 10
148.1182702576
 20
103.0075236193
 10
148.2495947502
 20
103.7329888065
 10
148.2491046088
 20
104.5736021658
 10
148.1168433848
 20
105.4546715112
 10
147.8645630682
 20
106.2979099649
 10
147.5146798724
 20
107.0283920897
 10
147.0982824546
 20
107.5812113433
 10
146.6523695529
 20
107.9072473088
  0
LINE
  5
11D
330
1F
100
AcDbEntity
  8
0
  6
HIDDEN
 62
     7
370
     0
100
AcDbLine
 10
142.5869941596
 20
103.8501061232
 30
0.0
 11
143.3676675211
 21
102.6830588867
 31
0.0
  0
LINE
  5
11E
330
1F
100
AcDbEntity
  8
0
  6
HIDDEN
 62
     7
370
     0
100
AcDbLine
 10
144.0826760777
 20
103.1778212046
 30
0.0
 11
143.3676675211
 21
102.6830588867
 31
0.0
  0
LINE
  5
11F
330
1F
100
AcDbEntity
  8
0
  6
HIDDEN
 62
     7
370
     0
100
AcDbLine
 10
144.0170112728
 20
104.8396307592
 30
0.0
 11
144.0826760777
 21
103.1778212046
 31
0.0
  0
LINE
  5
120
330
1F
100
AcDbEntity
  8
0
  6
HIDDEN
 62
     7
370
     0
100
AcDbLine
 10
144.0170112728
 20
104.8396307592
 30
0.0
 11
143.2363379113
 21
106.0066779958
 31
0.0
  0
LINE
  5
121
330
1F
100
AcDbEntity
  8
0
  6
HIDDEN
 62
     7
370
     0
100
AcDbLine
 10
142.5213293547
 20
105.5119156778
 30
0.0
 11
143.2363379113
 21
106.0066779958
 31
0.0
  0
LINE
  5
122
330
1F
100
AcDbEntity
  8
0
  6
HIDDEN
 62
     7
370
     0
100
AcDbLine
 10
142.5213293547
 20
105.5119156778
 30
0.0
 11
142.5869941596
 21
103.8501061232
 31
0.0
  0
LINE
  5
123
330
1F
100
AcDbEntity
  8
0
  6
HIDDEN
 62
     7
370
     0
100
AcDbLine
 10
145.7490620804
 20
105.1816509025
 30
0.0
 11
144.0170112728
 21
104.8396307592
 31
0.0
  0
LWPOLYLINE
  5
124
330
1F
100
AcDbEntity
  8
0
  6
HIDDEN
 62
     7
370
     0
100
AcDbPolyline
 90
       18
 70
   128
 43
0.0
 10
147.5563065495
 20
107.1188111868
 10
147.2012249681
 20
107.1511375447
 10
146.9043394631
 20
106.9199409989
 10
146.7057460673
 20
106.4564459241
 10
146.632265919
 20
105.8232498985
 10
146.6938229196
 20
105.105869554
 10
146.8821034549
 20
104.4011910812
 10
147.1716791954
 20
103.8043852127
 10
147.5234413327
 20
103.396053888
 10
147.8898824411
 20
103.2313445152
 10
148.2215126182
 20
103.3325020077
 10
148.4735433711
 20
103.6858644857
 10
148.6119365501
 20
104.2437083884
 10
148.6180013893
 20
104.9306938057
 10
148.4909187988
 20
105.6540395502
 10
148.2478519865
 20
106.316053771
 10
147.9216284723
 20
106.8273277792
 10
147.5563065495
 20
107.1188111868
  0
LINE
  5
125
330
1F
100
AcDbEntity
  8
0
  6
HIDDEN
 62
     7
370
     0
100
AcDbLine
 10
145.8147268853
 20
103.519841348
 30
0.0
 11
144.0826760777
 21
103.1778212046
 31
0.0
  0
LINE
  5
126
330
1F
100
AcDbEntity
  8
0
  6
HIDDEN
 62
     7
370
     0
100
AcDbLine
 10
144.3190449672
 20
104.1921262666
 30
0.0
 11
145.0997183287
 21
103.02507903
 31
0.0
  0
LINE
  5
127
330
1F
100
AcDbEntity
  8
0
  6
HIDDEN
 62
     7
370
     0
100
AcDbLine
 10
144.2533801622
 20
105.8539358211
 30
0.0
 11
144.3190449672
 21
104.1921262666
 31
0.0
  0
LINE
  5
128
330
1F
100
AcDbEntity
  8
0
  6
HIDDEN
 62
     7
370
     0
100
AcDbLine
 10
144.2533801622
 20
105.8539358211
 30
0.0
 11
144.9683887188
 21
106.3486981391
 31
0.0
  0
LINE
  5
129
330
1F
100
AcDbEntity
  8
0
  6
HIDDEN
 62
     7
370
     0
100
AcDbLine
 10
145.8147268853
 20
103.519841348
 30
0.0
 11
145.0997183287
 21
103.02507903
 31
0.0
  0
LINE
  5
12A
330
1F
100
AcDbEntity
  8
0
  6
HIDDEN
 62
     7
370
     0
100
AcDbLine
 10
145.7490620804
 20
105.1816509025
 30
0.0
 11
145.8147268853
 21
103.519841348
 31
0.0
  0
LINE
  5
12B
330
1F
100
AcDbEntity
  8
0
  6
HIDDEN
 62
     7
370
     0
100
AcDbLine
 10
145.7490620804
 20
105.1816509025
 30
0.0
 11
144.9683887188
 21
106.3486981391
 31
0.0
  0
LINE
  5
12C
330
1F
100
AcDbEntity
  8
0
  6
HIDDEN
 62
     7
370
     0
100
AcDbLine
 10
144.2533801622
 20
105.8539358211
 30
0.0
 11
142.5213293547
 21
105.5119156778
 31
0.0
  0
LINE
  5
12D
330
1F
100
AcDbEntity
  8
0
  6
HIDDEN
 62
     7
370
     0
100
AcDbLine
 10
144.9683887188
 20
106.3486981391
 30
0.0
 11
143.2363379113
 21
106.0066779958
 31
0.0
  0
LINE
  5
12E
330
1F
100
AcDbEntity
  8
0
  6
HIDDEN
 62
     7
370
     0
100
AcDbLine
 10
144.3190449672
 20
104.1921262666
 30
0.0
 11
142.5869941596
 21
103.8501061232
 31
0.0
  0
LINE
  5
12F
330
1F
100
AcDbEntity
  8
0
  6
HIDDEN
 62
     7
370
     0
100
AcDbLine
 10
145.0997183287
 20
103.02507903
 30
0.0
 11
143.3676675211
 21
102.6830588867
 31
0.0
  0
LWPOLYLINE
  5
130
330
1F
100
AcDbEntity
  8
0
  6
HIDDEN
 62
     7
370
     0
100
AcDbPolyline
 90
       22
 70
   128
 43
0.0
 10
163.7828537279
 20
101.8304883192
 10
164.3589478918
 20
102.4732030455
 10
164.7078462558
 20
103.2469298963
 10
164.7985476693
 20
104.0829198456
 10
164.6229929136
 20
104.9068915177
 10
164.1967807991
 20
105.6456314134
 10
163.5577821426
 20
106.2334992513
 10
162.762774779
 20
106.6182603941
 10
161.8823986013
 20
106.7657271258
 10
160.9948788965
 20
106.66279638
 10
160.179075685
 20
106.3186140054
 10
159.5074766623
 20
105.7637621162
 10
159.0397563489
 20
105.0475417378
 10
158.8174737471
 20
104.2335921938
 10
158.8603796417
 20
103.3942364732
 10
159.1646616555
 20
102.6040550153
 10
159.7032829963
 20
101.9332589102
 10
160.4283847943
 20
101.4414513356
 10
161.2755385727
 20
101.1723315527
 10
162.1694710006
 20
101.1498120354
 10
163.0307522589
 20
101.3758937414
 10
163.7828537279
 20
101.8304883192
  0
LWPOLYLINE
  5
131
330
1F
100
AcDbEntity
  8
0
  6
HIDDEN
 62
     7
370
     0
100
AcDbPolyline
 90
       22
 70
   128
 43
0.0
 10
163.7828537279
 20
103.0890743161
 10
164.3589478918
 20
103.7317890424
 10
164.7078462558
 20
104.5055158932
 10
164.7985476693
 20
105.3415058425
 10
164.6229929136
 20
106.1654775146
 10
164.1967807991
 20
106.9042174103
 10
163.5577821426
 20
107.4920852482
 10
162.762774779
 20
107.876846391
 10
161.8823986013
 20
108.0243131227
 10
160.9948788965
 20
107.921382377
 10
160.179075685
 20
107.5772000023
 10
159.5074766623
 20
107.0223481131
 10
159.0397563489
 20
106.3061277347
 10
158.8174737471
 20
105.4921781907
 10
158.8603796417
 20
104.6528224701
 10
159.1646616555
 20
103.8626410122
 10
159.7032829963
 20
103.1918449071
 10
160.4283847943
 20
102.7000373325
 10
161.2755385727
 20
102.4309175496
 10
162.1694710006
 20
102.4083980323
 10
163.0307522589
 20
102.6344797384
 10
163.7828537279
 20
103.0890743161
  0
LINE
  5
132
330
1F
100
AcDbEntity
  8
0
  6
HIDDEN
 62
     7
370
     0
100
AcDbLine
 10
162.3567047253
 20
106.0640782974
 30
0.0
 11
162.3567047253
 21
105.3800380108
 31
0.0
  0
LINE
  5
133
330
1F
100
AcDbEntity
  8
0
  6
HIDDEN
 62
     7
370
     0
100
AcDbLine
 10
160.6583578514
 20
105.7445580771
 30
0.0
 11
160.6583578514
 21
105.0605177904
 31
0.0
  0
LINE
  5
134
330
1F
100
AcDbEntity
  8
0
  6
HIDDEN
 62
     7
370
     0
100
AcDbLine
 10
163.5003495901
 20
104.8417276594
 30
0.0
 11
163.3226056101
 21
104.3476637142
 31
0.0
  0
LINE
  5
135
330
1F
100
AcDbEntity
  8
0
  6
HIDDEN
 62
     7
370
     0
100
AcDbLine
 10
163.5003495901
 20
104.8417276594
 30
0.0
 11
163.5003495901
 21
104.1576873728
 31
0.0
  0
LINE
  5
136
330
1F
100
AcDbEntity
  8
0
  6
HIDDEN
 62
     7
370
     0
100
AcDbLine
 10
160.2813998223
 20
104.0127108773
 30
0.0
 11
160.1036558423
 21
104.2026872188
 31
0.0
  0
LINE
  5
137
330
1F
100
AcDbEntity
  8
0
  6
HIDDEN
 62
     7
370
     0
100
AcDbLine
 10
160.1036558423
 20
104.2026872188
 30
0.0
 11
160.1036558423
 21
103.5186469321
 31
0.0
  0
LINE
  5
138
330
1F
100
AcDbEntity
  8
0
  6
HIDDEN
 62
     7
370
     0
100
AcDbLine
 10
160.1036558423
 20
104.2026872188
 30
0.0
 11
160.6583578514
 21
105.7445580771
 31
0.0
  0
LINE
  5
139
330
1F
100
AcDbEntity
  8
0
  6
HIDDEN
 62
     7
370
     0
100
AcDbLine
 10
163.5003495901
 20
104.8417276594
 30
0.0
 11
162.3567047253
 21
106.0640782974
 31
0.0
  0
LINE
  5
13A
330
1F
100
AcDbEntity
  8
0
  6
HIDDEN
 62
     7
370
     0
100
AcDbLine
 10
162.3567047253
 20
106.0640782974
 30
0.0
 11
160.6583578514
 21
105.7445580771
 31
0.0
  0
LWPOLYLINE
  5
13B
330
1F
100
AcDbEntity
  8
0
  6
HIDDEN
 62
     7
370
     0
100
AcDbPolyline
 90
       18
 70
   128
 43
0.0
 10
163.1225700574
 20
104.1368189293
 10
163.5759918439
 20
104.680405606
 10
163.7898265687
 20
105.3412018903
 10
163.7351946673
 20
106.0299635824
 10
163.4194744808
 20
106.6536695992
 10
162.8853057697
 20
107.1280849872
 10
162.2048309785
 20
107.3891373193
 10
161.4699519982
 20
107.4015700315
 10
160.7799183074
 20
107.1637040172
 10
160.2279227796
 20
106.7076643997
 10
159.8885154695
 20
106.0950418562
 10
159.807535215
 20
105.4085744561
 10
159.9959188484
 20
104.7409734254
 10
160.4282241159
 20
104.1824019827
 10
161.0460657957
 20
103.8082982965
 10
161.7660009455
 20
103.6691871425
 10
162.4907983339
 20
103.7838562531
 10
163.1225700574
 20
104.1368189293
  0
LWPOLYLINE
  5
13C
330
1F
100
AcDbEntity
  8
0
  6
HIDDEN
 62
     7
370
     0
100
AcDbPolyline
 90
       22
 70
   128
 43
0.0
 10
146.6523695529
 20
128.8407991788
 10
146.2165624854
 20
128.7705162275
 10
145.8295846225
 20
128.9622312392
 10
145.5258206455
 20
129.3989094937
 10
145.332261317
 20
130.0417502118
 10
145.2661052326
 20
130.8336341746
 10
145.3332306507
 20
131.704199017
 10
145.5276731835
 20
132.5760912322
 10
145.8321557585
 20
133.3718393707
 10
146.2196237627
 20
134.0207377183
 10
146.6556489637
 20
134.4651288091
 10
147.1014886088
 20
134.6655265447
 10
147.5175278891
 20
134.6041247067
 10
147.8667998886
 20
134.2863791179
 10
148.1182702576
 20
133.7405228683
 10
148.2495947502
 20
133.0150576811
 10
148.2491046088
 20
132.1744443218
 10
148.1168433848
 20
131.2933749764
 10
147.8645630682
 20
130.4501365227
 10
147.5146798724
 20
129.7196543979
 10
147.0982824546
 20
129.1668351443
 10
146.6523695529
 20
128.8407991788
  0
LWPOLYLINE
  5
13D
330
1F
100
AcDbEntity
  8
0
  6
HIDDEN
 62
     7
370
     0
100
AcDbPolyline
 90
       18
 70
   128
 43
0.0
 10
147.5563065495
 20
129.6292353008
 10
147.2012249681
 20
129.5969089429
 10
146.9043394631
 20
129.8281054887
 10
146.7057460673
 20
130.2916005635
 10
146.632265919
 20
130.9247965891
 10
146.6938229196
 20
131.6421769336
 10
146.8821034549
 20
132.3468554064
 10
147.1716791954
 20
132.9436612749
 10
147.5234413327
 20
133.3519925996
 10
147.8898824411
 20
133.5167019724
 10
148.2215126182
 20
133.4155444799
 10
148.4735433711
 20
133.0621820019
 10
148.6119365501
 20
132.5043380992
 10
148.6180013893
 20
131.8173526819
 10
148.4909187988
 20
131.0940069374
 10
148.2478519865
 20
130.4319927166
 10
147.9216284723
 20
129.9207187084
 10
147.5563065495
 20
129.6292353008
  0
LWPOLYLINE
  5
13E
330
1F
100
AcDbEntity
  8
0
  6
HIDDEN
 62
     7
370
     0
100
AcDbPolyline
 90
       22
 70
   128
 43
0.0
 10
143.4655179378
 20
129.4700921772
 10
143.0297108702
 20
129.3998092259
 10
142.6427330073
 20
129.5915242376
 10
142.3389690304
 20
130.0282024921
 10
142.1454097019
 20
130.6710432102
 10
142.0792536174
 20
131.4629271731
 10
142.1463790356
 20
132.3334920154
 10
142.3408215683
 20
133.2053842306
 10
142.6453041433
 20
134.0011323691
 10
143.0327721476
 20
134.6500307167
 10
143.4687973486
 20
135.0944218076
 10
143.9146369937
 20
135.2948195432
 10
144.3306762739
 20
135.2334177052
 10
144.6799482735
 20
134.9156721164
 10
144.9314186425
 20
134.3698158668
 10
145.062743135
 20
133.6443506795
 10
145.0622529937
 20
132.8037373203
 10
144.9299917696
 20
131.9226679749
 10
144.6777114531
 20
131.0794295212
 10
144.3278282572
 20
130.3489473963
 10
143.9114308395
 20
129.7961281428
 10
143.4655179378
 20
129.4700921772
  0
LWPOLYLINE
  5
13F
330
1F
100
AcDbEntity
  8
0
  6
HIDDEN
 62
     7
370
     0
100
AcDbPolyline
 90
       20
 70
   128
 43
0.0
 10
143.209289916
 20
130.0568523798
 10
142.8184300032
 20
130.0060395912
 10
142.4799726974
 20
130.2149939497
 10
142.2305950991
 20
130.6610720082
 10
142.0973211408
 20
131.2959342875
 10
142.0945931237
 20
132.0507836088
 10
142.2227066709
 20
132.8438203353
 10
142.4677786916
 20
133.5891066325
 10
142.8032518296
 20
134.2058791659
 10
143.1927723652
 20
134.6273010612
 10
143.5941297041
 20
134.807704717
 10
143.9638305511
 20
134.727540598
 10
144.2618120829
 20
134.3954957303
 10
144.4557833768
 20
133.8475523275
 10
144.5247246334
 20
133.1430885597
 10
144.4611649978
 20
132.3584440068
 10
144.2719921427
 20
131.5786470812
 10
143.9777058823
 20
130.8882008796
 10
143.6101966992
 20
130.3619259614
 10
143.209289916
 20
130.0568523798
  0
LINE
  5
140
330
1F
100
AcDbEntity
  8
0
  6
HIDDEN
 62
     7
370
     0
100
AcDbLine
 10
144.3190449672
 20
132.555920221
 30
0.0
 11
145.0997183287
 21
133.7229674576
 31
0.0
  0
LINE
  5
141
330
1F
100
AcDbEntity
  8
0
  6
HIDDEN
 62
     7
370
     0
100
AcDbLine
 10
142.5869941596
 20
132.8979403644
 30
0.0
 11
143.3676675211
 21
134.0649876009
 31
0.0
  0
LINE
  5
142
330
1F
100
AcDbEntity
  8
0
  6
HIDDEN
 62
     7
370
     0
100
AcDbLine
 10
144.3190449672
 20
132.555920221
 30
0.0
 11
142.5869941596
 21
132.8979403644
 31
0.0
  0
LINE
  5
143
330
1F
100
AcDbEntity
  8
0
  6
HIDDEN
 62
     7
370
     0
100
AcDbLine
 10
144.2533801622
 20
130.8941106665
 30
0.0
 11
144.3190449672
 21
132.555920221
 31
0.0
  0
LINE
  5
144
330
1F
100
AcDbEntity
  8
0
  6
HIDDEN
 62
     7
370
     0
100
AcDbLine
 10
142.5213293547
 20
131.2361308098
 30
0.0
 11
142.5869941596
 21
132.8979403644
 31
0.0
  0
LINE
  5
145
330
1F
100
AcDbEntity
  8
0
  6
HIDDEN
 62
     7
370
     0
100
AcDbLine
 10
144.2533801622
 20
130.8941106665
 30
0.0
 11
142.5213293547
 21
131.2361308098
 31
0.0
  0
LINE
  5
146
330
1F
100
AcDbEntity
  8
0
  6
HIDDEN
 62
     7
370
     0
100
AcDbLine
 10
144.2533801622
 20
130.8941106665
 30
0.0
 11
144.9683887188
 21
130.3993483485
 31
0.0
  0
LINE
  5
147
330
1F
100
AcDbEntity
  8
0
  6
HIDDEN
 62
     7
370
     0
100
AcDbLine
 10
142.5213293547
 20
131.2361308098
 30
0.0
 11
143.2363379113
 21
130.7413684918
 31
0.0
  0
LINE
  5
148
330
1F
100
AcDbEntity
  8
0
  6
HIDDEN
 62
     7
370
     0
100
AcDbLine
 10
145.8147268853
 20
133.2282051396
 30
0.0
 11
144.0826760777
 21
133.570225283
 31
0.0
  0
LINE
  5
149
330
1F
100
AcDbEntity
  8
0
  6
HIDDEN
 62
     7
370
     0
100
AcDbLine
 10
145.0997183287
 20
133.7229674576
 30
0.0
 11
143.3676675211
 21
134.0649876009
 31
0.0
  0
LINE
  5
14A
330
1F
100
AcDbEntity
  8
0
  6
HIDDEN
 62
     7
370
     0
100
AcDbLine
 10
145.8147268853
 20
133.2282051396
 30
0.0
 11
145.0997183287
 21
133.7229674576
 31
0.0
  0
LINE
  5
14B
330
1F
100
AcDbEntity
  8
0
  6
HIDDEN
 62
     7
370
     0
100
AcDbLine
 10
144.0826760777
 20
133.570225283
 30
0.0
 11
143.3676675211
 21
134.0649876009
 31
0.0
  0
LINE
  5
14C
330
1F
100
AcDbEntity
  8
0
  6
HIDDEN
 62
     7
370
     0
100
AcDbLine
 10
145.7490620804
 20
131.5663955851
 30
0.0
 11
144.0170112728
 21
131.9084157284
 31
0.0
  0
LINE
  5
14D
330
1F
100
AcDbEntity
  8
0
  6
HIDDEN
 62
     7
370
     0
100
AcDbLine
 10
144.9683887188
 20
130.3993483485
 30
0.0
 11
143.2363379113
 21
130.7413684918
 31
0.0
  0
LINE
  5
14E
330
1F
100
AcDbEntity
  8
0
  6
HIDDEN
 62
     7
370
     0
100
AcDbLine
 10
145.7490620804
 20
131.5663955851
 30
0.0
 11
144.9683887188
 21
130.3993483485
 31
0.0
  0
LINE
  5
14F
330
1F
100
AcDbEntity
  8
0
  6
HIDDEN
 62
     7
370
     0
100
AcDbLine
 10
144.0170112728
 20
131.9084157284
 30
0.0
 11
143.2363379113
 21
130.7413684918
 31
0.0
  0
LINE
  5
150
330
1F
100
AcDbEntity
  8
0
  6
HIDDEN
 62
     7
370
     0
100
AcDbLine
 10
145.7490620804
 20
131.5663955851
 30
0.0
 11
145.8147268853
 21
133.2282051396
 31
0.0
  0
LINE
  5
151
330
1F
100
AcDbEntity
  8
0
  6
HIDDEN
 62
     7
370
     0
100
AcDbLine
 10
144.0170112728
 20
131.9084157284
 30
0.0
 11
144.0826760777
 21
133.570225283
 31
0.0
  0
LWPOLYLINE
  5
152
330
1F
100
AcDbEntity
  8
0
  6
HIDDEN
 62
     7
370
     0
100
AcDbPolyline
 90
       22
 70
   128
 43
0.0
 10
159.8211517045
 20
133.6589721715
 10
160.5732531735
 20
134.1135667493
 10
161.4345344318
 20
134.3396484553
 10
162.3284668597
 20
134.317128938
 10
163.1756206381
 20
134.0480091551
 10
163.9007224361
 20
133.5562015805
 10
164.4393437769
 20
132.8854054754
 10
164.7436257907
 20
132.0952240175
 10
164.7865316853
 20
131.2558682969
 10
164.5642490835
 20
130.4419187529
 10
164.0965287701
 20
129.7256983745
 10
163.4249297474
 20
129.1708464853
 10
162.6091265359
 20
128.8266641107
 10
161.7216068311
 20
128.7237333649
 10
160.8412306534
 20
128.8712000966
 10
160.0462232898
 20
129.2559612394
 10
159.4072246333
 20
129.8438290773
 10
158.9810125188
 20
130.582568973
 10
158.8054577631
 20
131.4065406451
 10
158.8961591766
 20
132.2425305944
 10
159.2450575406
 20
133.0162574452
 10
159.8211517045
 20
133.6589721715
  0
LWPOLYLINE
  5
153
330
1F
100
AcDbEntity
  8
0
  6
HIDDEN
 62
     7
370
     0
100
AcDbPolyline
 90
       18
 70
   128
 43
0.0
 10
160.481435375
 20
132.6112275583
 10
161.1132070985
 20
132.9641902345
 10
161.8380044869
 20
133.0788593451
 10
162.5579396367
 20
132.9397481911
 10
163.1757813165
 20
132.5656445049
 10
163.6080865841
 20
132.0070730622
 10
163.7964702174
 20
131.3394720316
 10
163.7154899629
 20
130.6530046314
 10
163.3760826528
 20
130.0403820879
 10
162.824087125
 20
129.5843424704
 10
162.1340534342
 20
129.3464764561
 10
161.3991744539
 20
129.3589091683
 10
160.7186996627
 20
129.6199615004
 10
160.1845309516
 20
130.0943768884
 10
159.8688107651
 20
130.7180829052
 10
159.8141788637
 20
131.4068445974
 10
160.0280135885
 20
132.0676408816
 10
160.481435375
 20
132.6112275583
  0
LWPOLYLINE
  5
154
330
1F
100
AcDbEntity
  8
0
  6
HIDDEN
 62
     7
370
     0
100
AcDbPolyline
 90
       22
 70
   128
 43
0.0
 10
159.8211517045
 20
134.9175581684
 10
160.5732531735
 20
135.3721527462
 10
161.4345344318
 20
135.5982344522
 10
162.3284668597
 20
135.5757149349
 10
163.1756206381
 20
135.306595152
 10
163.9007224361
 20
134.8147875774
 10
164.4393437769
 20
134.1439914723
 10
164.7436257907
 20
133.3538100144
 10
164.7865316853
 20
132.5144542938
 10
164.5642490835
 20
131.7005047498
 10
164.0965287701
 20
130.9842843714
 10
163.4249297474
 20
130.4294324822
 10
162.6091265359
 20
130.0852501076
 10
161.7216068311
 20
129.9823193618
 10
160.8412306534
 20
130.1297860935
 10
160.0462232898
 20
130.5145472363
 10
159.4072246333
 20
131.1024150742
 10
158.9810125188
 20
131.84115497
 10
158.8054577631
 20
132.665126642
 10
158.8961591766
 20
133.5011165913
 10
159.2450575406
 20
134.2748434421
 10
159.8211517045
 20
134.9175581684
  0
LINE
  5
155
330
1F
100
AcDbEntity
  8
0
  6
HIDDEN
 62
     7
370
     0
100
AcDbLine
 10
162.3567047253
 20
133.7677099068
 30
0.0
 11
160.6583578514
 21
133.4481896865
 31
0.0
  0
LINE
  5
156
330
1F
100
AcDbEntity
  8
0
  6
HIDDEN
 62
     7
370
     0
100
AcDbLine
 10
162.3567047253
 20
133.7677099068
 30
0.0
 11
162.3567047253
 21
134.4517501934
 31
0.0
  0
LINE
  5
157
330
1F
100
AcDbEntity
  8
0
  6
HIDDEN
 62
     7
370
     0
100
AcDbLine
 10
162.3567047253
 20
133.7677099068
 30
0.0
 11
163.5003495901
 21
132.5453592688
 31
0.0
  0
LINE
  5
158
330
1F
100
AcDbEntity
  8
0
  6
HIDDEN
 62
     7
370
     0
100
AcDbLine
 10
160.6583578514
 20
133.4481896865
 30
0.0
 11
160.6583578514
 21
134.1322299731
 31
0.0
  0
LINE
  5
159
330
1F
100
AcDbEntity
  8
0
  6
HIDDEN
 62
     7
370
     0
100
AcDbLine
 10
160.1036558423
 20
131.9063188282
 30
0.0
 11
160.6583578514
 21
133.4481896865
 31
0.0
  0
LINE
  5
15A
330
1F
100
AcDbEntity
  8
0
  6
HIDDEN
 62
     7
370
     0
100
AcDbLine
 10
162.9456475811
 20
131.0034884105
 30
0.0
 11
162.9456475811
 21
131.6875286972
 31
0.0
  0
LINE
  5
15B
330
1F
100
AcDbEntity
  8
0
  6
HIDDEN
 62
     7
370
     0
100
AcDbLine
 10
163.5003495901
 20
133.2293995555
 30
0.0
 11
162.9456475811
 21
131.6875286972
 31
0.0
  0
LINE
  5
15C
330
1F
100
AcDbEntity
  8
0
  6
HIDDEN
 62
     7
370
     0
100
AcDbLine
 10
163.5003495901
 20
132.5453592688
 30
0.0
 11
163.5003495901
 21
133.2293995555
 31
0.0
  0
LINE
  5
15D
330
1F
100
AcDbEntity
  8
0
  6
HIDDEN
 62
     7
370
     0
100
AcDbLine
 10
163.5003495901
 20
132.5453592688
 30
0.0
 11
162.9456475811
 21
131.0034884105
 31
0.0
  0
LINE
  5
15E
330
1F
100
AcDbEntity
  8
0
  6
HIDDEN
 62
     7
370
     0
100
AcDbLine
 10
161.2473007071
 20
130.6839681902
 30
0.0
 11
161.2473007071
 21
131.3680084769
 31
0.0
  0
LINE
  5
15F
330
1F
100
AcDbEntity
  8
0
  6
HIDDEN
 62
     7
370
     0
100
AcDbLine
 10
160.1036558423
 20
132.5903591148
 30
0.0
 11
161.2473007071
 21
131.3680084769
 31
0.0
  0
LINE
  5
160
330
1F
100
AcDbEntity
  8
0
  6
HIDDEN
 62
     7
370
     0
100
AcDbLine
 10
160.1036558423
 20
131.9063188282
 30
0.0
 11
160.1036558423
 21
132.5903591148
 31
0.0
  0
LINE
  5
161
330
1F
100
AcDbEntity
  8
0
  6
HIDDEN
 62
     7
370
     0
100
AcDbLine
 10
160.1036558423
 20
131.9063188282
 30
0.0
 11
161.2473007071
 21
130.6839681902
 31
0.0
  0
LINE
  5
162
330
1F
100
AcDbEntity
  8
0
  6
HIDDEN
 62
     7
370
     0
100
AcDbLine
 10
161.2473007071
 20
131.3680084769
 30
0.0
 11
162.9456475811
 21
131.6875286972
 31
0.0
  0
LINE
  5
163
330
1F
100
AcDbEntity
  8
0
  6
HIDDEN
 62
     7
370
     0
100
AcDbLine
 10
161.2473007071
 20
130.6839681902
 30
0.0
 11
162.9456475811
 21
131.0034884105
 31
0.0
  0
LWPOLYLINE
  5
164
330
1F
100
AcDbEntity
  8
0
  6
HIDDEN
 62
     7
370
     0
100
AcDbPolyline
 90
       20
 70
   128
 43
0.0
 10
160.1872789998
 20
134.6357285262
 10
160.8711155897
 20
135.0348980354
 10
161.655828244
 20
135.2037887953
 10
162.4563811705
 20
135.1240988715
 10
163.1860220377
 20
134.8044639038
 10
163.7656829361
 20
134.2795213006
 10
164.1325486131
 20
133.6061567382
 10
164.2468634801
 20
132.8573397154
 10
164.0962397473
 20
132.1142161756
 10
163.6969998334
 20
131.4573150851
 10
163.092407578
 20
130.95782187
 10
162.3479799332
 20
130.6698643705
 10
161.5443871851
 20
130.6246472499
 10
160.7687110772
 20
130.8270704847
 10
160.1050081515
 20
131.2551983766
 10
159.6252009185
 20
131.8626366253
 10
159.3812839368
 20
132.5835598713
 10
159.3996893962
 20
133.3398448946
 10
159.6784227796
 20
134.049536478
 10
160.1872789998
 20
134.6357285262
  0
LINE
  5
165
330
1F
100
AcDbEntity
  8
0
  6
HIDDEN
 62
     7
370
     0
100
AcDbLine
 10
160.1036558423
 20
132.5903591148
 30
0.0
 11
160.6583578514
 21
134.1322299731
 31
0.0
  0
LINE
  5
166
330
1F
100
AcDbEntity
  8
0
  6
HIDDEN
 62
     7
370
     0
100
AcDbLine
 10
162.3567047253
 20
134.4517501934
 30
0.0
 11
163.5003495901
 21
133.2293995555
 31
0.0
  0
LINE
  5
167
330
1F
100
AcDbEntity
  8
0
  6
HIDDEN
 62
     7
370
     0
100
AcDbLine
 10
162.3567047253
 20
134.4517501934
 30
0.0
 11
160.6583578514
 21
134.1322299731
 31
0.0
  0
LINE
  5
168
330
1F
100
AcDbEntity
  8
0
  6
HIDDEN
 62
     7
370
     0
100
AcDbLine
 10
248.5520027162
 20
133.6740232438
 30
0.0
 11
248.143191806
 21
134.082834154
 31
0.0
  0
LINE
  5
169
330
1F
100
AcDbEntity
  8
0
  6
HIDDEN
 62
     7
370
     0
100
AcDbLine
 10
240.9683773897
 20
134.0903979173
 30
0.0
 11
240.5520027162
 21
133.6740232438
 31
0.0
  0
LINE
  5
16A
330
1F
100
AcDbEntity
  8
0
  6
HIDDEN
 62
     7
370
     0
100
AcDbLine
 10
240.5520027162
 20
133.6740232438
 30
0.0
 11
240.5520027162
 21
128.4792791321
 31
0.0
  0
LINE
  5
16B
330
1F
100
AcDbEntity
  8
0
  6
HIDDEN
 62
     7
370
     0
100
AcDbLine
 10
248.5520027162
 20
128.4792791321
 30
0.0
 11
248.5520027162
 21
133.6740232438
 31
0.0
  0
LINE
  5
16C
330
1F
100
AcDbEntity
  8
0
  6
HIDDEN
 62
     7
370
     0
100
AcDbLine
 10
240.5520027162
 20
128.4792791321
 30
0.0
 11
241.5924230647
 21
124.5963775303
 31
0.0
  0
LINE
  5
16D
330
1F
100
AcDbEntity
  8
0
  6
HIDDEN
 62
     7
370
     0
100
AcDbLine
 10
247.5115823677
 20
124.5963775303
 30
0.0
 11
248.5520027162
 21
128.4792791321
 31
0.0
  0
ARC
  5
16E
330
1F
100
AcDbEntity
  8
0
  6
HIDDEN
 62
     7
370
     0
100
AcDbCircle
 10
241.8822008126
 20
124.6740232438
 30
0.0
 40
0.3000000000000241
100
AcDbArc
 50
195.0
 51
270.0
  0
ARC
  5
16F
330
1F
100
AcDbEntity
  8
0
  6
HIDDEN
 62
     7
370
     0
100
AcDbCircle
 10
247.2218046198
 20
124.6740232438
 30
0.0
 40
0.3000000000000114
100
AcDbArc
 50
270.0
 51
345.0
  0
LINE
  5
170
330
1F
100
AcDbEntity
  8
0
  6
HIDDEN
 62
     7
370
     0
100
AcDbLine
 10
242.1520027162
 20
134.3740232438
 30
0.0
 11
242.4107279183
 21
134.1152980417
 31
0.0
  0
LINE
  5
171
330
1F
100
AcDbEntity
  8
0
  6
HIDDEN
 62
     7
370
     0
100
AcDbLine
 10
246.7162571701
 20
134.1382776978
 30
0.0
 11
246.9520027162
 21
134.3740232438
 31
0.0
  0
LINE
  5
172
330
1F
100
AcDbEntity
  8
0
  6
HIDDEN
 62
     7
370
     0
100
AcDbLine
 10
242.5520027162
 20
129.3740232438
 30
0.0
 11
242.5520027162
 21
128.3740232438
 31
0.0
  0
LINE
  5
173
330
1F
100
AcDbEntity
  8
0
  6
HIDDEN
 62
     7
370
     0
100
AcDbLine
 10
246.5520027162
 20
128.3740232438
 30
0.0
 11
246.5520027162
 21
129.3740232438
 31
0.0
  0
LINE
  5
174
330
1F
100
AcDbEntity
  8
0
  6
HIDDEN
 62
     7
370
     0
100
AcDbLine
 10
242.5520027162
 20
128.3740232438
 30
0.0
 11
244.5520027162
 21
127.6460827753
 31
0.0
  0
LINE
  5
175
330
1F
100
AcDbEntity
  8
0
  6
HIDDEN
 62
     7
370
     0
100
AcDbLine
 10
244.5520027162
 20
127.6460827753
 30
0.0
 11
246.5520027162
 21
128.3740232438
 31
0.0
  0
LINE
  5
176
330
1F
100
AcDbEntity
  8
0
  6
HIDDEN
 62
     7
370
     0
100
AcDbLine
 10
141.6020027162
 20
100.951247641
 30
0.0
 11
143.8831765948
 21
101.4017006032
 31
0.0
  0
LINE
  5
177
330
1F
100
AcDbEntity
  8
0
  6
HIDDEN
 62
     7
370
     0
100
AcDbLine
 10
142.7208288376
 20
107.2880362792
 30
0.0
 11
141.6020027162
 21
107.0671068072
 31
0.0
  0
LINE
  5
178
330
1F
100
AcDbEntity
  8
0
  6
HIDDEN
 62
     7
370
     0
100
AcDbLine
 10
164.3020027162
 20
103.8383283346
 30
0.0
 11
164.3020027162
 21
117.2121288814
 31
0.0
  0
LINE
  5
179
330
1F
100
AcDbEntity
  8
0
  6
HIDDEN
 62
     7
370
     0
100
AcDbLine
 10
159.3020027162
 20
106.6810134841
 30
0.0
 11
159.3020027162
 21
103.8381998063
 31
0.0
  0
LINE
  5
17A
330
1F
100
AcDbEntity
  8
0
  6
HIDDEN
 62
     7
370
     0
100
AcDbLine
 10
159.3020027162
 20
117.2126689621
 30
0.0
 11
159.3020027162
 21
108.3332804015
 31
0.0
  0
LINE
  5
17B
330
1F
100
AcDbEntity
  8
0
  6
HIDDEN
 62
     7
370
     0
100
AcDbLine
 10
143.9925111534
 20
102.3406692729
 30
0.0
 11
160.2122899074
 21
105.5435147263
 31
0.0
  0
LINE
  5
17C
330
1F
100
AcDbEntity
  8
0
  6
HIDDEN
 62
     7
370
     0
100
AcDbLine
 10
160.2168720568
 20
109.8255209587
 30
0.0
 11
143.1788677234
 21
106.4611042461
 31
0.0
  0
ARC
  5
17D
330
1F
100
AcDbEntity
  8
0
  6
HIDDEN
 62
     7
370
     0
100
AcDbCircle
 10
38.0020027162
 20
104.6740232438
 30
0.0
 40
1.20000000000001
100
AcDbArc
 50
90.0
 51
180.0
  0
ARC
  5
17E
330
1F
100
AcDbEntity
  8
0
  6
HIDDEN
 62
     7
370
     0
100
AcDbCircle
 10
38.0020027162
 20
132.0740232438
 30
0.0
 40
1.200000000000017
100
AcDbArc
 50
180.0
 51
270.0
  0
ARC
  5
17F
330
1F
100
AcDbEntity
  8
0
  6
HIDDEN
 62
     7
370
     0
100
AcDbCircle
 10
169.6020027162
 20
155.6740232438
 30
0.0
 40
2.0
100
AcDbArc
 50
270.0
 51
0.0
  0
LINE
  5
180
330
1F
100
AcDbEntity
  8
0
  6
HIDDEN
 62
     7
370
     0
100
AcDbLine
 10
171.6020027162
 20
69.2738078567
 30
0.0
 11
171.6020027162
 21
81.0740232438
 31
0.0
  0
LINE
  5
181
330
1F
100
AcDbEntity
  8
0
  6
HIDDEN
 62
     7
370
     0
100
AcDbLine
 10
171.6020027162
 20
155.6740232438
 30
0.0
 11
171.6020027162
 21
167.4741265943
 31
0.0
  0
ARC
  5
182
330
1F
100
AcDbEntity
  8
0
  6
HIDDEN
 62
     7
370
     0
100
AcDbCircle
 10
169.6020027162
 20
81.0740232438
 30
0.0
 40
2.0
100
AcDbArc
 50
0.0
 51
90.0
  0
ARC
  5
183
330
1F
100
AcDbEntity
  8
0
  6
HIDDEN
 62
     7
370
     0
100
AcDbCircle
 10
48.5710626085
 20
106.0490232438
 30
0.0
 40
0.3999999999999936
100
AcDbArc
 50
270.0
 51
330.0
  0
ARC
  5
184
330
1F
100
AcDbEntity
  8
0
  6
HIDDEN
 62
     7
370
     0
100
AcDbCircle
 10
48.5710626085
 20
130.6990232438
 30
0.0
 40
0.4000000000000007
100
AcDbArc
 50
30.0
 51
90.0
  0
LINE
  5
185
330
1F
100
AcDbEntity
  8
0
  6
HIDDEN
 62
     7
370
     0
100
AcDbLine
 10
47.6943751469
 20
105.6490232438
 30
0.0
 11
48.5710626085
 21
105.6490232438
 31
0.0
  0
LINE
  5
186
330
1F
100
AcDbEntity
  8
0
  6
HIDDEN
 62
     7
370
     0
100
AcDbLine
 10
48.5710626085
 20
131.0990232438
 30
0.0
 11
47.6943751469
 21
131.0990232438
 31
0.0
  0
ARC
  5
187
330
1F
100
AcDbEntity
  8
0
  6
HIDDEN
 62
     7
370
     0
100
AcDbCircle
 10
47.6943751469
 20
106.0490232438
 30
0.0
 40
0.3999999999999986
100
AcDbArc
 50
255.0
 51
270.0
  0
ARC
  5
188
330
1F
100
AcDbEntity
  8
0
  6
HIDDEN
 62
     7
370
     0
100
AcDbCircle
 10
47.6943751469
 20
130.6990232438
 30
0.0
 40
0.3999999999999986
100
AcDbArc
 50
90.0
 51
105.0
  0
LINE
  5
189
330
1F
100
AcDbEntity
  8
0
  6
HIDDEN
 62
     7
370
     0
100
AcDbLine
 10
47.5908475289
 20
131.0853935743
 30
0.0
 11
46.8020027162
 21
130.8740232438
 31
0.0
  0
LINE
  5
18A
330
1F
100
AcDbEntity
  8
0
  6
HIDDEN
 62
     7
370
     0
100
AcDbLine
 10
46.8020027162
 20
105.8740232438
 30
0.0
 11
47.5908475289
 21
105.6626529133
 31
0.0
  0
LINE
  5
18B
330
1F
100
AcDbEntity
  8
0
  6
HIDDEN
 62
     7
370
     0
100
AcDbLine
 10
48.91747277
 20
105.8490232438
 30
0.0
 11
50.0866070651
 21
107.8740232438
 31
0.0
  0
LINE
  5
18C
330
1F
100
AcDbEntity
  8
0
  6
HIDDEN
 62
     7
370
     0
100
AcDbLine
 10
50.0866070651
 20
128.8740232438
 30
0.0
 11
48.91747277
 21
130.8990232438
 31
0.0
  0
LINE
  5
18D
330
1F
100
AcDbEntity
  8
0
  6
HIDDEN
 62
     7
370
     0
100
AcDbLine
 10
38.0020027162
 20
105.8740232438
 30
0.0
 11
46.8020027162
 21
105.8740232438
 31
0.0
  0
LINE
  5
18E
330
1F
100
AcDbEntity
  8
0
  6
HIDDEN
 62
     7
370
     0
100
AcDbLine
 10
46.8020027162
 20
130.8740232438
 30
0.0
 11
38.0020027162
 21
130.8740232438
 31
0.0
  0
LINE
  5
18F
330
1F
100
AcDbEntity
  8
0
  6
HIDDEN
 62
     7
370
     0
100
AcDbLine
 10
99.8020027162
 20
107.8740232438
 30
0.0
 11
104.0681131113
 21
114.9740232438
 31
0.0
  0
LINE
  5
190
330
1F
100
AcDbEntity
  8
0
  6
HIDDEN
 62
     7
370
     0
100
AcDbLine
 10
104.0681131113
 20
121.7740232438
 30
0.0
 11
99.8020027162
 21
128.8740232438
 31
0.0
  0
LINE
  5
191
330
1F
100
AcDbEntity
  8
0
  6
HIDDEN
 62
     7
370
     0
100
AcDbLine
 10
50.0866070651
 20
107.8740232438
 30
0.0
 11
99.8020027162
 21
107.8740232438
 31
0.0
  0
LINE
  5
192
330
1F
100
AcDbEntity
  8
0
  6
HIDDEN
 62
     7
370
     0
100
AcDbLine
 10
99.8020027162
 20
128.8740232438
 30
0.0
 11
50.0866070651
 21
128.8740232438
 31
0.0
  0
ARC
  5
193
330
1F
100
AcDbEntity
  8
0
  6
HIDDEN
 62
     7
370
     0
100
AcDbCircle
 10
255.6020027162
 20
128.3740232438
 30
0.0
 40
1.0
100
AcDbArc
 50
270.0
 51
0.0
  0
ARC
  5
194
330
1F
100
AcDbEntity
  8
0
  6
HIDDEN
 62
     7
370
     0
100
AcDbCircle
 10
255.6020027162
 20
108.3740232438
 30
0.0
 40
1.000000000000014
100
AcDbArc
 50
0.0
 51
90.0
  0
ARC
  5
195
330
1F
100
AcDbEntity
  8
0
  6
HIDDEN
 62
     7
370
     0
100
AcDbCircle
 10
235.4966807181
 20
127.0740232438
 30
0.0
 40
0.7999999999999982
100
AcDbArc
 50
75.0
 51
90.0
  0
ARC
  5
196
330
1F
100
AcDbEntity
  8
0
  6
HIDDEN
 62
     7
370
     0
100
AcDbCircle
 10
235.4966807181
 20
109.6740232438
 30
0.0
 40
0.8000000000000119
100
AcDbArc
 50
270.0
 51
285.0
  0
LINE
  5
197
330
1F
100
AcDbEntity
  8
0
  6
HIDDEN
 62
     7
370
     0
100
AcDbLine
 10
235.4966807181
 20
127.8740232438
 30
0.0
 11
234.9020027162
 21
127.8740232438
 31
0.0
  0
LINE
  5
198
330
1F
100
AcDbEntity
  8
0
  6
HIDDEN
 62
     7
370
     0
100
AcDbLine
 10
234.9020027162
 20
108.8740232438
 30
0.0
 11
235.4966807181
 21
108.8740232438
 31
0.0
  0
ARC
  5
199
330
1F
100
AcDbEntity
  8
0
  6
HIDDEN
 62
     7
370
     0
100
AcDbCircle
 10
234.9020027162
 20
127.0740232438
 30
0.0
 40
0.7999999999999972
100
AcDbArc
 50
90.0
 51
180.0
  0
ARC
  5
19A
330
1F
100
AcDbEntity
  8
0
  6
HIDDEN
 62
     7
370
     0
100
AcDbCircle
 10
234.9020027162
 20
109.6740232438
 30
0.0
 40
0.7999999999999972
100
AcDbArc
 50
180.0
 51
270.0
  0
LINE
  5
19B
330
1F
100
AcDbEntity
  8
0
  6
HIDDEN
 62
     7
370
     0
100
AcDbLine
 10
235.7037359542
 20
108.9012825828
 30
0.0
 11
237.46802812
 21
109.3740232438
 31
0.0
  0
LINE
  5
19C
330
1F
100
AcDbEntity
  8
0
  6
HIDDEN
 62
     7
370
     0
100
AcDbLine
 10
237.46802812
 20
127.3740232438
 30
0.0
 11
235.7037359542
 21
127.8467639048
 31
0.0
  0
LINE
  5
19D
330
1F
100
AcDbEntity
  8
0
  6
HIDDEN
 62
     7
370
     0
100
AcDbLine
 10
171.6020070366
 20
167.3740237675
 30
0.0
 11
172.6020068859
 21
168.3740235464
 31
0.0
  0
LINE
  5
19E
330
1F
100
AcDbEntity
  8
0
  6
HIDDEN
 62
     7
370
     0
100
AcDbLine
 10
172.6020068866
 20
68.3740229406
 30
0.0
 11
171.6020070373
 21
69.3740227194
 31
0.0
  0
LINE
  5
19F
330
1F
100
AcDbEntity
  8
0
  6
HIDDEN
 62
     7
370
     0
100
AcDbLine
 10
241.0923520169
 20
127.3740232438
 30
0.0
 11
237.46802812
 21
127.3740232438
 31
0.0
  0
LINE
  5
1A0
330
1F
100
AcDbEntity
  8
0
  6
HIDDEN
 62
     7
370
     0
100
AcDbLine
 10
255.6020027162
 20
127.3740232438
 30
0.0
 11
248.0162411736
 21
127.3740232438
 31
0.0
  0
LINE
  5
1A1
330
1F
100
AcDbEntity
  8
0
  6
HIDDEN
 62
     7
370
     0
100
AcDbLine
 10
237.46802812
 20
109.3740232438
 30
0.0
 11
255.6020027162
 21
109.3740232438
 31
0.0
  0
LINE
  5
1A2
330
1F
100
AcDbEntity
  8
0
  6
HIDDEN
 62
     7
370
     0
100
AcDbLine
 10
239.5520027162
 20
134.3740232438
 30
0.0
 11
241.0520027162
 21
132.8740232438
 31
0.0
  0
LINE
  5
1A3
330
1F
100
AcDbEntity
  8
0
  6
HIDDEN
 62
     7
370
     0
100
AcDbLine
 10
248.0520027162
 20
132.8740232438
 30
0.0
 11
249.5520027162
 21
134.3740232438
 31
0.0
  0
LINE
  5
1A4
330
1F
100
AcDbEntity
  8
0
  6
HIDDEN
 62
     7
370
     0
100
AcDbLine
 10
241.0520027162
 20
132.8740232438
 30
0.0
 11
241.0520027162
 21
127.3584932239
 31
0.0
  0
LINE
  5
1A5
330
1F
100
AcDbEntity
  8
0
  6
HIDDEN
 62
     7
370
     0
100
AcDbLine
 10
248.0520027162
 20
127.3603501477
 30
0.0
 11
248.0520027162
 21
132.8740232438
 31
0.0
  0
LINE
  5
1A6
330
1F
100
AcDbEntity
  8
0
  6
HIDDEN
 62
     7
370
     0
100
AcDbLine
 10
104.0681131113
 20
114.9740232438
 30
0.0
 11
234.1020027162
 21
114.9740232438
 31
0.0
  0
LINE
  5
1A7
330
1F
100
AcDbEntity
  8
0
  6
HIDDEN
 62
     7
370
     0
100
AcDbLine
 10
234.1020027162
 20
121.7740232438
 30
0.0
 11
104.0681131113
 21
121.7740232438
 31
0.0
  0
LINE
  5
1A8
330
1F
100
AcDbEntity
  8
0
  6
HIDDEN
 62
     7
370
     0
100
AcDbLine
 10
164.3020027162
 20
119.5325433992
 30
0.0
 11
164.3020027162
 21
132.9098155647
 31
0.0
  0
LINE
  5
1A9
330
1F
100
AcDbEntity
  8
0
  6
HIDDEN
 62
     7
370
     0
100
AcDbLine
 10
159.3020027162
 20
128.4192541184
 30
0.0
 11
159.3020027162
 21
119.5347077769
 31
0.0
  0
LINE
  5
1AA
330
1F
100
AcDbEntity
  8
0
  6
HIDDEN
 62
     7
370
     0
100
AcDbLine
 10
159.3020027162
 20
132.9092445102
 30
0.0
 11
159.3020027162
 21
130.0671197452
 31
0.0
  0
LINE
  5
1AB
330
1F
100
AcDbEntity
  8
0
  6
HIDDEN
 62
     7
370
     0
100
AcDbLine
 10
143.1788677234
 20
130.2869422415
 30
0.0
 11
160.2119870728
 21
126.9234901443
 31
0.0
  0
LINE
  5
1AC
330
1F
100
AcDbEntity
  8
0
  6
HIDDEN
 62
     7
370
     0
100
AcDbLine
 10
160.1998671502
 20
131.2069848263
 30
0.0
 11
143.9925111534
 21
134.4073772148
 31
0.0
  0
LINE
  5
1AD
330
1F
100
AcDbEntity
  8
0
  6
HIDDEN
 62
     7
370
     0
100
AcDbLine
 10
141.6020027162
 20
129.6809396804
 30
0.0
 11
142.7208288376
 21
129.4600102084
 31
0.0
  0
LINE
  5
1AE
330
1F
100
AcDbEntity
  8
0
  6
HIDDEN
 62
     7
370
     0
100
AcDbLine
 10
143.8831765948
 20
135.3463458844
 30
0.0
 11
141.6020027162
 21
135.7967988466
 31
0.0
  0
LINE
  5
1AF
330
1F
100
AcDbEntity
  8
0
  6
HIDDEN
 62
     7
370
     0
100
AcDbLine
 10
142.0792527162
 20
105.2882101276
 30
0.0
 11
142.0792527162
 21
105.0692209748
 31
0.0
  0
LINE
  5
1B0
330
1F
100
AcDbEntity
  8
0
  6
HIDDEN
 62
     7
370
     0
100
AcDbLine
 10
142.4463636519
 20
103.2101059343
 30
0.0
 11
142.5296034858
 21
103.0075537705
 31
0.0
  0
LINE
  5
1B1
330
1F
100
AcDbEntity
  8
0
  6
HIDDEN
 62
     7
370
     0
100
AcDbLine
 10
144.1604265948
 20
101.4564478914
 30
0.0
 11
147.34727821
 21
102.0857408898
 31
0.0
  0
LINE
  5
1B2
330
1F
100
AcDbEntity
  8
0
  6
HIDDEN
 62
     7
370
     0
100
AcDbLine
 10
146.1849304527
 20
107.9720765659
 30
0.0
 11
142.9980788376
 21
107.3427835674
 31
0.0
  0
LINE
  5
1B3
330
1F
100
AcDbEntity
  8
0
  6
HIDDEN
 62
     7
370
     0
100
AcDbLine
 10
147.9941375752
 20
102.6826064555
 30
0.0
 11
148.4508185644
 21
103.6357172846
 31
0.0
  0
LINE
  5
1B4
330
1F
100
AcDbEntity
  8
0
  6
HIDDEN
 62
     7
370
     0
100
AcDbLine
 10
147.7948013522
 20
106.9579050689
 30
0.0
 11
147.010111757
 21
107.665888132
 31
0.0
  0
LINE
  5
1B5
330
1F
100
AcDbEntity
  8
0
  6
HIDDEN
 62
     7
370
     0
100
AcDbLine
 10
164.8020027162
 20
103.9476617289
 30
0.0
 11
164.8020027162
 21
105.2062477258
 31
0.0
  0
LINE
  5
1B6
330
1F
100
AcDbEntity
  8
0
  6
HIDDEN
 62
     7
370
     0
100
AcDbLine
 10
158.8020027162
 20
105.2062477258
 30
0.0
 11
158.8020027162
 21
103.9476617289
 31
0.0
  0
LINE
  5
1B7
330
1F
100
AcDbEntity
  8
0
  6
HIDDEN
 62
     7
370
     0
100
AcDbLine
 10
147.010111757
 20
129.0821583556
 30
0.0
 11
147.7948013522
 21
129.7901414187
 31
0.0
  0
LINE
  5
1B8
330
1F
100
AcDbEntity
  8
0
  6
HIDDEN
 62
     7
370
     0
100
AcDbLine
 10
148.4508185644
 20
133.112329203
 30
0.0
 11
147.9941375752
 21
134.0654400321
 31
0.0
  0
LINE
  5
1B9
330
1F
100
AcDbEntity
  8
0
  6
HIDDEN
 62
     7
370
     0
100
AcDbLine
 10
142.9980788376
 20
129.4052629202
 30
0.0
 11
146.1849304527
 21
128.7759699217
 31
0.0
  0
LINE
  5
1BA
330
1F
100
AcDbEntity
  8
0
  6
HIDDEN
 62
     7
370
     0
100
AcDbLine
 10
147.34727821
 20
134.6623055978
 30
0.0
 11
144.1604265948
 21
135.2915985962
 31
0.0
  0
LINE
  5
1BB
330
1F
100
AcDbEntity
  8
0
  6
HIDDEN
 62
     7
370
     0
100
AcDbLine
 10
142.5296034858
 20
133.7404927171
 30
0.0
 11
142.4463636519
 21
133.5379405533
 31
0.0
  0
LINE
  5
1BC
330
1F
100
AcDbEntity
  8
0
  6
HIDDEN
 62
     7
370
     0
100
AcDbLine
 10
142.0792527162
 20
131.6788255128
 30
0.0
 11
142.0792527162
 21
131.45983636
 31
0.0
  0
LINE
  5
1BD
330
1F
100
AcDbEntity
  8
0
  6
HIDDEN
 62
     7
370
     0
100
AcDbLine
 10
158.8020027162
 20
132.8003847587
 30
0.0
 11
158.8020027162
 21
131.5417987618
 31
0.0
  0
LINE
  5
1BE
330
1F
100
AcDbEntity
  8
0
  6
HIDDEN
 62
     7
370
     0
100
AcDbLine
 10
164.8020027162
 20
131.5417987618
 30
0.0
 11
164.8020027162
 21
132.8003847587
 31
0.0
  0
DIMENSION
  5
1BF
330
1F
100
AcDbEntity
  8
VERMASSUNG
100
AcDbDimension
  2
_D
 10
25.4057876614
 20
168.3740232438
 30
0.0
 11
25.4057876614
 21
118.3740232438
 31
0.0
 70
   160
  1
MAS-BT 50 %%c<>
 71
     2
 42
-1.0
  3
SLDDIMSTYLE0
100
AcDbAlignedDimension
 13
175.6020027162
 23
68.3740232438
 33
0.0
 14
175.6020027162
 24
168.3740232438
 34
0.0
 50
90.0
100
AcDbRotatedDimension
  0
DIMENSION
  5
1CC
330
1F
100
AcDbEntity
  8
VERMASSUNG
100
AcDbDimension
  2
_D_1
 10
256.6020027162
 20
186.3840251813
 30
0.0
 11
146.7020027162
 21
186.3840251813
 31
0.0
 70
   160
  1
<>
 71
     2
 42
-1.0
  3
SLDDIMSTYLE0
100
AcDbAlignedDimension
 13
36.8020027162
 23
136.7237011045
 33
0.0
 14
256.6020027162
 24
134.0740232438
 34
0.0
100
AcDbRotatedDimension
  0
DIMENSION
  5
1D6
330
1F
100
AcDbEntity
  8
VERMASSUNG
100
AcDbDimension
  2
_D_2
 10
256.6020027162
 20
180.3840251813
 30
0.0
 11
197.6020027162
 21
180.3840251813
 31
0.0
 70
   160
  1
<>
 71
     2
 42
-1.0
  3
SLDDIMSTYLE0
100
AcDbAlignedDimension
 13
138.6020027162
 23
153.2990232438
 33
0.0
 14
256.6020027162
 24
134.0740232438
 34
0.0
100
AcDbRotatedDimension
  0
DIMENSION
  5
1E0
330
1F
100
AcDbEntity
  8
VERMASSUNG
100
AcDbDimension
  2
_D_3
 10
256.6020027162
 20
174.3840251813
 30
0.0
 11
216.6020027162
 21
174.3840251813
 31
0.0
 70
   160
  1
<>
 71
     2
 42
-1.0
  3
SLDDIMSTYLE0
100
AcDbAlignedDimension
 13
176.6020027162
 23
167.3740232438
 33
0.0
 14
256.6020027162
 24
134.0740232438
 34
0.0
100
AcDbRotatedDimension
  0
DIMENSION
  5
1EA
330
1F
100
AcDbEntity
  8
VERMASSUNG
100
AcDbDimension
  2
_D_4
 10
272.6020027162
 20
134.3740232438
 30
0.0
 11
272.6020027162
 21
118.3740232438
 31
0.0
 70
   160
  1
WH%%c<>
 71
     2
 42
-1.0
  3
SLDDIMSTYLE0
100
AcDbAlignedDimension
 13
256.3020027162
 23
102.3740232438
 33
0.0
 14
239.5520027162
 24
134.3740232438
 34
0.0
 50
90.0
100
AcDbRotatedDimension
  0
DIMENSION
  5
1F6
330
1F
100
AcDbEntity
  8
VERMASSUNG
100
AcDbDimension
  2
_D_5
 10
266.6020027162
 20
127.3740232438
 30
0.0
 11
266.6020027162
 21
118.3740232438
 31
0.0
 70
   160
  1
%%c<>
 71
     2
 42
-1.0
  3
SLDDIMSTYLE0
100
AcDbAlignedDimension
 13
255.6020027162
 23
109.3740232438
 33
0.0
 14
255.6020027162
 24
127.3740232438
 34
0.0
 50
90.0
100
AcDbRotatedDimension
  0
LINE
  5
201
330
1F
100
AcDbEntity
  8
VERMASSUNG
  6
CENTERX2
370
     0
100
AcDbLine
 10
258.2940522332
 20
118.3740232438
 30
0.0
 11
32.7216147852
 21
118.3740232438
 31
0.0
  0
LINE
  5
202
330
1F
100
AcDbEntity
  8
0
  6
Continuous
 62
     7
370
    15
100
AcDbLine
 10
272.3073769199
 20
39.6995651511
 30
0.0
 11
272.0598493327
 21
39.8425062344
 31
0.0
  0
LINE
  5
203
330
1F
100
AcDbEntity
  8
0
  6
Continuous
 62
     7
370
    15
100
AcDbLine
 10
269.7260177955
 20
39.8425062344
 30
0.0
 11
269.4784902083
 21
39.6995651511
 31
0.0
  0
LINE
  5
204
330
1F
100
AcDbEntity
  8
0
  6
Continuous
 62
     7
370
    15
100
AcDbLine
 10
268.8929335641
 20
38.8832897178
 30
0.0
 11
268.8929335641
 21
38.760808596
 31
0.0
  0
LINE
  5
205
330
1F
100
AcDbEntity
  8
0
  6
Continuous
 62
     7
370
    15
100
AcDbLine
 10
272.8929335641
 20
38.760808596
 30
0.0
 11
272.8929335641
 21
38.8832897178
 31
0.0
  0
LINE
  5
206
330
1F
100
AcDbEntity
  8
0
  6
Continuous
 62
     7
370
    15
100
AcDbLine
 10
273.6790900972
 20
32.5674531947
 30
0.0
 11
274.6053773396
 21
32.7561772836
 31
0.0
  0
LINE
  5
207
330
1F
100
AcDbEntity
  8
0
  6
Continuous
 62
     7
370
    15
100
AcDbLine
 10
275.0481053015
 20
23.7067580267
 30
0.0
 11
275.1541540799
 21
23.7679985868
 31
0.0
  0
LINE
  5
208
330
1F
100
AcDbEntity
  8
0
  6
Continuous
 62
     7
370
    15
100
AcDbLine
 10
280.7040401531
 20
33.3817249089
 30
0.0
 11
280.7040401531
 21
33.5041861257
 31
0.0
  0
LINE
  5
209
330
1F
100
AcDbEntity
  8
0
  6
Continuous
 62
     7
370
    15
100
AcDbLine
 10
279.0468608341
 20
37.1669445774
 30
0.0
 11
251.9293157756
 21
52.8215701216
 31
0.0
  0
LINE
  5
20A
330
1F
100
AcDbEntity
  8
0
  6
Continuous
 62
     7
370
    15
100
AcDbLine
 10
243.9299659145
 20
38.9647883235
 30
0.0
 11
271.047510973
 21
23.3101627793
 31
0.0
  0
SPLINE
  5
20B
330
1F
100
AcDbEntity
  8
0
  6
Continuous
 62
     7
370
    15
100
AcDbSpline
210
0.0
220
0.0
230
1.0
 70
     8
 71
     3
 72
    21
 73
    17
 74
     0
 42
0.000000001
 43
0.00000001
 40
0.0
 40
0.0
 40
0.0
 40
0.0
 40
0.0039279620157788
 40
0.0892269582967605
 40
0.1635459138966113
 40
0.242808775694058
 40
0.3194325884817167
 40
0.3954632861614663
 40
0.4715370015984932
 40
0.5479117561641351
 40
0.624565950182921
 40
0.7013793387620828
 40
0.7782038854320883
 40
0.8548344103653316
 40
0.9311146761364207
 40
1.0
 40
1.0
 40
1.0
 40
1.0
 10
272.5642963891027
 20
26.47953080903258
 30
0.0
 10
272.5581693269014
 20
26.4818050732269
 30
0.0
 10
272.4189879597388
 20
26.53346689572108
 30
0.0
 10
272.2280809833442
 20
26.7341863948397
 30
0.0
 10
271.9772349705385
 20
27.1121524711959
 30
0.0
 10
271.8162182939489
 20
27.61459548659768
 30
0.0
 10
271.7480717705448
 20
28.2286401325304
 30
0.0
 10
271.7842643789412
 20
28.91610938532732
 30
0.0
 10
271.9248892517365
 20
29.65521572758723
 30
0.0
 10
272.1676012049385
 20
30.4210294718085
 30
0.0
 10
272.5056260406288
 20
31.18629599539065
 30
0.0
 10
272.9277692445981
 20
31.92279018047994
 30
0.0
 10
273.4188192669163
 20
32.60405760366542
 30
0.0
 10
273.9595804595082
 20
33.20216128690238
 30
0.0
 10
274.5125099404546
 20
33.69168296039442
 30
0.0
 10
274.876808077694
 20
33.92187287157805
 30
0.0
 10
275.0496782133081
 20
34.03110472619261
 30
0.0
  0
SPLINE
  5
20C
330
1F
100
AcDbEntity
  8
0
  6
Continuous
 62
     7
370
    15
100
AcDbSpline
210
0.0
220
0.0
230
1.0
 70
     8
 71
     3
 72
    12
 73
     8
 74
     0
 42
0.000000001
 43
0.00000001
 40
0.0
 40
0.0
 40
0.0
 40
0.0
 40
0.1216869153391395
 40
0.3541105868250889
 40
0.5865410421555072
 40
0.8224502451871478
 40
1.0
 40
1.0
 40
1.0
 40
1.0
 10
275.0496782133081
 20
34.03110472619261
 30
0.0
 10
275.147209403202
 20
34.08422499703323
 30
0.0
 10
275.4310264988268
 20
34.23880571121482
 30
0.0
 10
275.8827527049179
 20
34.39902279401174
 30
0.0
 10
276.3660584516255
 20
34.46337152923283
 30
0.0
 10
276.7498329502058
 20
34.42523478255526
 30
0.0
 10
276.9412580491351
 20
34.32217545663944
 30
0.0
 10
277.0234608379128
 20
34.2779191702527
 30
0.0
  0
SPLINE
  5
20D
330
1F
100
AcDbEntity
  8
0
  6
Continuous
 62
     7
370
    15
100
AcDbSpline
210
0.0
220
0.0
230
1.0
 70
     8
 71
     3
 72
    21
 73
    17
 74
     0
 42
0.000000001
 43
0.00000001
 40
0.0
 40
0.0
 40
0.0
 40
0.0
 40
0.0186815492028909
 40
0.0995613813757216
 40
0.1807751724263713
 40
0.2622824718514895
 40
0.3440120081045606
 40
0.4258877106036008
 40
0.507844615072023
 40
0.5898346873845314
 40
0.6718201103585308
 40
0.7537845365164614
 40
0.8357211148667856
 40
0.9176283422039012
 40
0.9995080307745897
 40
1.0
 40
1.0
 40
1.0
 40
1.0
 10
237.8787877321386
 20
23.89324733594692
 30
0.0
 10
237.973029959848
 20
23.88138128907593
 30
0.0
 10
238.4752841504811
 20
23.81814242140414
 30
0.0
 10
239.436856930721
 20
23.84685721927219
 30
0.0
 10
240.756941843371
 20
23.98560324735535
 30
0.0
 10
242.1184704040487
 20
24.28114099052511
 30
0.0
 10
243.5070854904508
 20
24.71649670670085
 30
0.0
 10
244.9150346710737
 20
25.29302158819865
 30
0.0
 10
246.3326211528129
 20
26.00568195324353
 30
0.0
 10
247.75064432642
 20
26.84995101055321
 30
0.0
 10
249.1601468239737
 20
27.8197541705259
 30
0.0
 10
250.5516639035042
 20
28.90957784696666
 30
0.0
 10
251.9187784208775
 20
30.10876334528618
 30
0.0
 10
253.2448065693403
 20
31.42274486850213
 30
0.0
 10
254.1192676231114
 20
32.33982041533379
 30
0.0
 10
254.5339420355922
 20
32.83883308058923
 30
0.0
 10
254.5364187011707
 20
32.84181346098904
 30
0.0
  0
SPLINE
  5
20E
330
1F
100
AcDbEntity
  8
0
  6
Continuous
 62
     7
370
    15
100
AcDbSpline
210
0.0
220
0.0
230
1.0
 70
     8
 71
     3
 72
    20
 73
    16
 74
     0
 42
0.000000001
 43
0.00000001
 40
0.0
 40
0.0
 40
0.0
 40
0.0
 40
0.0650880969799208
 40
0.1468739850693313
 40
0.2286922481024535
 40
0.3105474910514719
 40
0.392442606213502
 40
0.4743774759265202
 40
0.556346980271058
 40
0.6383381224111444
 40
0.7203155848341173
 40
0.8022324043286242
 40
0.88402308741083
 40
0.9656066293207268
 40
0.9999999999999999
 40
0.9999999999999999
 40
0.9999999999999999
 40
0.9999999999999999
 10
262.5291809895872
 20
46.70239818383592
 30
0.0
 10
262.690977002543
 20
47.18449608148662
 30
0.0
 10
263.0560764031056
 20
48.27236994332878
 30
0.0
 10
263.5015824253272
 20
49.95812616698458
 30
0.0
 10
263.8840064917254
 20
51.74705213562152
 30
0.0
 10
264.1536660731268
 20
53.50502744836164
 30
0.0
 10
264.3124559189256
 20
55.22120596557293
 30
0.0
 10
264.357944612118
 20
56.88493010423337
 30
0.0
 10
264.2896038753569
 20
58.48575443976003
 30
0.0
 10
264.1073917239598
 20
60.01365502766287
 30
0.0
 10
263.8113655906462
 20
61.45802607191312
 30
0.0
 10
263.4050306428866
 20
62.81162345996938
 30
0.0
 10
262.8829141838469
 20
64.0560512504552
 30
0.0
 10
262.393526005939
 20
64.99388348513871
 30
0.0
 10
262.042596873836
 20
65.47143152659058
 30
0.0
 10
261.9385275771706
 20
65.61305011636108
 30
0.0
  0
LINE
  5
20F
330
1F
100
AcDbEntity
  8
0
  6
Continuous
 62
     7
370
    15
100
AcDbLine
 10
231.7978955988
 20
26.3391060003
 30
0.0
 11
234.0164431247
 21
25.0583657749
 31
0.0
  0
LINE
  5
210
330
1F
100
AcDbEntity
  8
0
  6
Continuous
 62
     7
370
    15
100
AcDbLine
 10
259.0144114406
 20
68.3608088939
 30
0.0
 11
256.7958639147
 21
69.6415491193
 31
0.0
  0
LINE
  5
211
330
1F
100
AcDbEntity
  8
0
  6
Continuous
 62
     7
370
    15
100
AcDbLine
 10
251.4748853862
 20
72.7132846401
 30
0.0
 11
247.3471495511
 21
75.0961758165
 31
0.0
  0
SPLINE
  5
212
330
1F
100
AcDbEntity
  8
0
  6
Continuous
 62
     7
370
    15
100
AcDbSpline
210
0.0
220
0.0
230
1.0
 70
     8
 71
     3
 72
    31
 73
    27
 74
     0
 42
0.000000001
 43
0.00000001
 40
0.0
 40
0.0
 40
0.0
 40
0.0
 40
0.018342481450696
 40
0.0620149509310538
 40
0.105864957153825
 40
0.1498655462930296
 40
0.1939766288579195
 40
0.2381579821269867
 40
0.2823764970167145
 40
0.3266079441111511
 40
0.370833879296485
 40
0.415047333874742
 40
0.4592453778710863
 40
0.503427682981613
 40
0.5475955173449968
 40
0.5917510864138393
 40
0.6358971226055855
 40
0.6800366424902103
 40
0.724172811530625
 40
0.768308874283194
 40
0.8124474407720712
 40
0.856591413997809
 40
0.9007441210778869
 40
0.9449088566948951
 40
0.9890887974791109
 40
1.0
 40
1.0
 40
1.0
 40
1.0
 10
243.4399340063092
 20
76.26003176232105
 30
0.0
 10
243.2670699026495
 20
76.27799349448034
 30
0.0
 10
242.6826255931371
 20
76.33872115237604
 30
0.0
 10
241.6338910674487
 20
76.28907127467731
 30
0.0
 10
240.303728711439
 20
76.11513561663226
 30
0.0
 10
238.9353320384676
 20
75.7879795282941
 30
0.0
 10
237.5415620185716
 20
75.32063560066963
 30
0.0
 10
236.1306387158948
 20
74.71315159947295
 30
0.0
 10
234.7121511948125
 20
73.97047040723258
 30
0.0
 10
233.2952588209735
 20
73.09747155475984
 30
0.0
 10
231.8890238622414
 20
72.10012803441437
 30
0.0
 10
230.5022674154808
 20
70.98505853643515
 30
0.0
 10
229.1435702117142
 20
69.75952724869148
 30
0.0
 10
227.8213060441269
 20
68.4314146078316
 30
0.0
 10
226.5436168707867
 20
67.00918545938124
 30
0.0
 10
225.3183770648831
 20
65.50184600599438
 30
0.0
 10
224.1531524849167
 20
63.91889785132631
 30
0.0
 10
223.0551598026475
 20
62.27028662612116
 30
0.0
 10
222.0312147905403
 20
60.56634270046339
 30
0.0
 10
221.0877275459884
 20
58.81773682958701
 30
0.0
 10
220.2305398764486
 20
57.03538127915547
 30
0.0
 10
219.465332037085
 20
55.23047158691467
 30
0.0
 10
218.7959229371984
 20
53.41397428548331
 30
0.0
 10
218.2304676648623
 20
51.59817365309015
 30
0.0
 10
217.8768192281369
 20
50.2445426434037
 30
0.0
 10
217.7194935647757
 20
49.50205765902249
 30
0.0
 10
217.6883340703147
 20
49.35500309548883
 30
0.0
  0
LINE
  5
213
330
1F
100
AcDbEntity
  8
0
  6
Continuous
 62
     7
370
    15
100
AcDbLine
 10
232.9243621964
 20
72.8124510107
 30
0.0
 11
202.5778015389
 21
83.7481485756
 31
0.0
  0
LINE
  5
214
330
1F
100
AcDbEntity
  8
0
  6
Continuous
 62
     7
370
    15
100
AcDbLine
 10
192.4684468636
 20
66.2363352046
 30
0.0
 11
221.9321841901
 21
41.3573989793
 31
0.0
  0
LINE
  5
215
330
1F
100
AcDbEntity
  8
0
  6
Continuous
 62
     7
370
    15
100
AcDbLine
 10
222.3491812352
 20
31.7937326974
 30
0.0
 11
226.4769170703
 21
29.410841521
 31
0.0
  0
SPLINE
  5
216
330
1F
100
AcDbEntity
  8
0
  6
Continuous
 62
     7
370
    15
100
AcDbSpline
210
0.0
220
0.0
230
1.0
 70
     8
 71
     3
 72
    11
 73
     7
 74
     0
 42
0.000000001
 43
0.00000001
 40
0.0
 40
0.0
 40
0.0
 40
0.0
 40
0.1050885860694574
 40
0.4236183153902486
 40
0.7416590627631888
 40
1.0
 40
1.0
 40
1.0
 40
1.0
 10
217.6936225053685
 20
38.26814505688099
 30
0.0
 10
217.7360292607555
 20
38.11779144340858
 30
0.0
 10
217.9069734036933
 20
37.51170712127369
 30
0.0
 10
218.2880861777614
 20
36.52169042834623
 30
0.0
 10
218.8280332165362
 20
35.4040007216466
 30
0.0
 10
219.2584667669492
 20
34.77401506885153
 30
0.0
 10
219.4513920624626
 20
34.49164821311248
 30
0.0
  0
SPLINE
  5
217
330
1F
100
AcDbEntity
  8
0
  6
Continuous
 62
     7
370
    15
100
AcDbSpline
210
0.0
220
0.0
230
1.0
 70
     8
 71
     3
 72
    26
 73
    22
 74
     0
 42
0.000000001
 43
0.00000001
 40
0.0
 40
0.0
 40
0.0
 40
0.0
 40
0.0211003487122628
 40
0.0734660947596716
 40
0.1265293848983989
 40
0.1807963946600735
 40
0.2363312363639711
 40
0.2928241536681345
 40
0.3498299648572936
 40
0.4069680242110202
 40
0.464024702657787
 40
0.5209555255077407
 40
0.5777730718169946
 40
0.6345160112361959
 40
0.6912339037794962
 40
0.7479784728614466
 40
0.8047900183011125
 40
0.8617257557541511
 40
0.9188408427311997
 40
0.9761800833651304
 40
0.9999999999999999
 40
0.9999999999999999
 40
0.9999999999999999
 40
0.9999999999999999
 10
202.6182320525782
 20
83.71331009402354
 30
0.0
 10
202.5190630312324
 20
83.755410312359
 30
0.0
 10
202.1737814996915
 20
83.90199265902127
 30
0.0
 10
201.518912814737
 20
84.00268707346257
 30
0.0
 10
200.6728712649741
 20
84.01749041572614
 30
0.0
 10
199.7857347139584
 20
83.87901577266189
 30
0.0
 10
198.871510913361
 20
83.59815078794874
 30
0.0
 10
197.9420558877479
 20
83.17350072168885
 30
0.0
 10
197.014094051372
 20
82.61238891889867
 30
0.0
 10
196.1042571620991
 20
81.92525665647938
 30
0.0
 10
195.2276981854305
 20
81.12528069179065
 30
0.0
 10
194.3975723747822
 20
80.22650414748591
 30
0.0
 10
193.6255840693319
 20
79.2434301591999
 30
0.0
 10
192.9225581984452
 20
78.19118963674747
 30
0.0
 10
192.298531743374
 20
77.08551892799431
 30
0.0
 10
191.7626915642583
 20
75.94269399833286
 30
0.0
 10
191.3234209315198
 20
74.77933604081315
 30
0.0
 10
190.9874968413278
 20
73.6117532265914
 30
0.0
 10
190.7629826496606
 20
72.45709833225217
 30
0.0
 10
190.6711320531034
 20
71.5495092721459
 30
0.0
 10
190.6638653704321
 20
71.03619435185493
 30
0.0
 10
190.6617326255729
 20
70.88553829503724
 30
0.0
  0
SPLINE
  5
218
330
1F
100
AcDbEntity
  8
0
  6
Continuous
 62
     7
370
    15
100
AcDbSpline
210
0.0
220
0.0
230
1.0
 70
     8
 71
     3
 72
    13
 73
     9
 74
     0
 42
0.000000001
 43
0.00000001
 40
0.0
 40
0.0
 40
0.0
 40
0.0
 40
0.1011487783717619
 40
0.2919018006118885
 40
0.4826418266735833
 40
0.6715266520409041
 40
0.8566629140943125
 40
0.9999999999999999
 40
0.9999999999999999
 40
0.9999999999999999
 40
0.9999999999999999
 10
190.6617326255729
 20
70.88553829503724
 30
0.0
 10
190.6651900589388
 20
70.69489266335063
 30
0.0
 10
190.675167747659
 20
70.14471495419852
 30
0.0
 10
190.7870275547253
 20
69.28139902715245
 30
0.0
 10
191.0387189459884
 20
68.33328881228978
 30
0.0
 10
191.4205858279273
 20
67.48858702938782
 30
0.0
 10
191.8747261201119
 20
66.79650096515678
 30
0.0
 10
192.2501009011493
 20
66.45167730994946
 30
0.0
 10
192.413904532618
 20
66.30120538217855
 30
0.0
  0
LWPOLYLINE
  5
219
330
1F
100
AcDbEntity
  8
0
  6
Continuous
 62
     7
370
    15
100
AcDbPolyline
 90
       12
 70
   128
 43
0.0
 10
269.4787200017
 20
38.066881606
 10
269.9583963075
 20
37.8625118123
 10
270.5211103498
 20
37.7488426152
 10
271.1168625163
 20
37.7359740215
 10
271.6927176127
 20
37.8250494624
 10
272.1975083866
 20
38.008154194
 10
272.5863819625
 20
38.2690185574
 10
272.8247852167
 20
38.584463609
 10
272.8915349737
 20
38.9264606718
 10
272.7807002247
 20
39.2646218058
 10
272.5021291236
 20
39.5688999104
 10
272.3073769199
 20
39.6995651511
  0
LWPOLYLINE
  5
21A
330
1F
100
AcDbEntity
  8
0
  6
Continuous
 62
     7
370
    15
100
AcDbPolyline
 90
        7
 70
   128
 43
0.0
 10
269.4784902083
 20
39.6995651511
 10
269.3769901178
 20
39.6364047323
 10
269.0598090524
 20
39.3449952214
 10
268.9055091443
 20
39.0125611503
 10
268.9278006176
 20
38.6686407451
 10
269.1247027771
 20
38.3437928431
 10
269.4787200017
 20
38.066881606
  0
LWPOLYLINE
  5
21B
330
1F
100
AcDbEntity
  8
0
  6
Continuous
 62
     7
370
    15
100
AcDbPolyline
 90
       20
 70
   128
 43
0.0
 10
269.7262073751
 20
38.4955423097
 10
270.1682591925
 20
38.313339379
 10
270.6888407225
 20
38.2238691147
 10
271.2315388787
 20
38.2368270081
 10
271.7375438951
 20
38.3508088704
 10
272.1520222766
 20
38.5534629982
 10
272.4300588594
 20
38.8228286723
 10
272.5415240654
 20
39.1297159422
 10
272.4743389101
 20
39.4408688105
 10
272.2357839476
 20
39.7225690357
 10
271.8517103095
 20
39.9442900275
 10
271.3637383341
 20
40.0820048761
 10
270.8247473566
 20
40.1207900406
 10
270.2931454127
 20
40.0564425469
 10
269.8265398216
 20
39.8959354441
 10
269.4754945394
 20
39.6566621675
 10
269.2780507693
 20
39.3645516893
 10
269.2556046075
 20
39.0512587124
 10
269.410588444
 20
38.750733392
 10
269.7262073751
 20
38.4955423097
  0
LWPOLYLINE
  5
21C
330
1F
100
AcDbEntity
  8
0
  6
Continuous
 62
     7
370
    15
100
AcDbPolyline
 90
       17
 70
   128
 43
0.0
 10
270.0444054267
 20
38.6792341349
 10
270.4337134453
 20
38.5290658401
 10
270.8929335641
 20
38.4763337474
 10
271.3521536829
 20
38.5290658401
 10
271.7414617015
 20
38.6792341349
 10
272.0015890031
 20
38.9039768702
 10
272.0929335641
 20
39.169079002
 10
272.0015890031
 20
39.4341811337
 10
271.7414617015
 20
39.658923869
 10
271.3521536829
 20
39.8090921638
 10
270.8929335641
 20
39.8618242565
 10
270.4337134453
 20
39.8090921638
 10
270.0444054267
 20
39.658923869
 10
269.7842781251
 20
39.4341811337
 10
269.6929335641
 20
39.169079002
 10
269.7842781251
 20
38.9039768702
 10
270.0444054267
 20
38.6792341349
  0
SPLINE
  5
21D
330
1F
100
AcDbEntity
  8
0
  6
Continuous
 62
     7
370
    15
100
AcDbSpline
210
0.0
220
0.0
230
1.0
 70
     8
 71
     3
 72
    10
 73
     6
 74
     0
 42
0.000000001
 43
0.00000001
 40
0.0
 40
0.0
 40
0.0
 40
0.0
 40
0.4391222274230422
 40
0.7513714712594648
 40
1.0
 40
1.0
 40
1.0
 40
1.0
 10
271.709430145021
 20
38.66073669965123
 30
0.0
 10
271.7522146443488
 20
38.69698927809706
 30
0.0
 10
271.8254221710908
 20
38.75902019227701
 30
0.0
 10
271.9318413642328
 20
39.03083342800504
 30
0.0
 10
271.9848089264307
 20
39.22052853894965
 30
0.0
 10
272.0082886357438
 20
39.30461747712728
 30
0.0
  0
SPLINE
  5
21E
330
1F
100
AcDbEntity
  8
0
  6
Continuous
 62
     7
370
    15
100
AcDbSpline
210
0.0
220
0.0
230
1.0
 70
     8
 71
     3
 72
    15
 73
    11
 74
     0
 42
0.000000001
 43
0.00000001
 40
0.0
 40
0.0
 40
0.0
 40
0.0
 40
0.0920657613126198
 40
0.1844804466012901
 40
0.3495514851719104
 40
0.5198009272493939
 40
0.6927171542276018
 40
0.8717940710110055
 40
0.9358391946447485
 40
1.0
 40
1.0
 40
1.0
 40
1.0
 10
272.0082886357438
 20
39.30461747712728
 30
0.0
 10
271.9847146937057
 20
39.30511845489718
 30
0.0
 10
271.9374774657358
 20
39.30612230911409
 30
0.0
 10
271.8448909774733
 20
39.31784876838498
 30
0.0
 10
271.7272254087475
 20
39.34838930482787
 30
0.0
 10
271.5822665568933
 20
39.41852802658643
 30
0.0
 10
271.4341361618169
 20
39.52641299043409
 30
0.0
 10
271.3212691014601
 20
39.63408592076014
 30
0.0
 10
271.2409342597516
 20
39.71996246745618
 30
0.0
 10
271.2081826405186
 20
39.7572902089028
 30
0.0
 10
271.191792054816
 20
39.77597092025675
 30
0.0
  0
SPLINE
  5
21F
330
1F
100
AcDbEntity
  8
0
  6
Continuous
 62
     7
370
    15
100
AcDbSpline
210
0.0
220
0.0
230
1.0
 70
     8
 71
     3
 72
    11
 73
     7
 74
     0
 42
0.000000001
 43
0.00000001
 40
0.0
 40
0.0
 40
0.0
 40
0.0
 40
0.2164526859271191
 40
0.4403055508634032
 40
0.7518960204221908
 40
1.0
 40
1.0
 40
1.0
 40
1.0
 10
271.191792054816
 20
39.77597092025675
 30
0.0
 10
271.1153901203512
 20
39.73457851716327
 30
0.0
 10
270.9599741887009
 20
39.65037856941224
 30
0.0
 10
270.6715620672051
 20
39.55562135227786
 30
0.0
 10
270.3621845792613
 20
39.53799677072349
 30
0.0
 10
270.1642003573269
 20
39.58334251276945
 30
0.0
 10
270.0764369831656
 20
39.6034435859101
 30
0.0
  0
SPLINE
  5
220
330
1F
100
AcDbEntity
  8
0
  6
Continuous
 62
     7
370
    15
100
AcDbSpline
210
0.0
220
0.0
230
1.0
 70
     8
 71
     3
 72
    11
 73
     7
 74
     0
 42
0.000000001
 43
0.00000001
 40
0.0
 40
0.0
 40
0.0
 40
0.0
 40
0.2164526859271204
 40
0.4403055508634159
 40
0.7518960204222023
 40
1.0
 40
1.0
 40
1.0
 40
1.0
 10
270.0764369831656
 20
39.6034435859101
 30
0.0
 10
270.0559651465256
 20
39.52976342460664
 30
0.0
 10
270.0143215731489
 20
39.37988409244929
 30
0.0
 10
269.9370417781068
 20
39.16324277762908
 30
0.0
 10
269.8541443300559
 20
39.01487405201188
 30
0.0
 10
269.8010946176745
 20
38.9765508826358
 30
0.0
 10
269.7775784924429
 20
38.95956280843405
 30
0.0
  0
SPLINE
  5
221
330
1F
100
AcDbEntity
  8
0
  6
Continuous
 62
     7
370
    15
100
AcDbSpline
210
0.0
220
0.0
230
1.0
 70
     8
 71
     3
 72
    12
 73
     8
 74
     0
 42
0.000000001
 43
0.00000001
 40
0.0
 40
0.0
 40
0.0
 40
0.0
 40
0.128138354814848
 40
0.2564873345751332
 40
0.6033707277947452
 40
0.9606655265481395
 40
1.0
 40
1.0
 40
1.0
 40
1.0
 10
269.7775784924429
 20
38.95956280843405
 30
0.0
 10
269.7939402097489
 20
38.94092358193665
 30
0.0
 10
269.8266905386176
 20
38.90361449107338
 30
0.0
 10
269.9055495290056
 20
38.81909967720168
 30
0.0
 10
270.0182175401428
 20
38.71364103835541
 30
0.0
 10
270.1239271465472
 20
38.62900172891514
 30
0.0
 10
270.180088210784
 20
38.6020122269068
 30
0.0
 10
270.1856578095127
 20
38.59933562705747
 30
0.0
  0
LINE
  5
222
330
1F
100
AcDbEntity
  8
0
  6
Continuous
 62
     7
370
    15
100
AcDbLine
 10
270.0764369832
 20
38.6747097021
 30
0.0
 11
270.0764369832
 21
39.6034435859
 31
0.0
  0
LINE
  5
223
330
1F
100
AcDbEntity
  8
0
  6
Continuous
 62
     7
370
    15
100
AcDbLine
 10
271.1917920548
 20
38.498161491
 30
0.0
 11
271.1917920548
 21
39.7759709203
 31
0.0
  0
ARC
  5
224
330
1F
100
AcDbEntity
  8
0
  6
Continuous
 62
     7
370
    15
100
AcDbCircle
 10
273.5506420329
 20
33.1139472531
 30
0.0
 40
0.5586733701974986
100
AcDbArc
 50
258.141133198
 51
342.2013723249
  0
LWPOLYLINE
  5
225
330
1F
100
AcDbEntity
  8
0
  6
Continuous
 62
     7
370
    15
100
AcDbPolyline
 90
       43
 70
   128
 43
0.0
 10
275.1532519207
 20
36.5871684433
 10
274.3259498635
 20
36.0379844546
 10
273.5171283672
 20
35.3578829751
 10
272.7448551675
 20
34.5620563479
 10
272.0263815714
 20
33.6682820248
 10
271.377757092
 20
32.6965254474
 10
270.8134709282
 20
31.6684940516
 10
270.3461283005
 20
30.6071523602
 10
269.986168871
 20
29.5362089928
 10
269.7416335384
 20
28.4795870544
 10
269.6179848181
 20
27.4608897332
 10
269.6179848181
 20
26.5028730439
 10
269.7416335384
 20
25.6269374964
 10
269.986168871
 20
24.8526500433
 10
270.3461283005
 20
24.1973069869
 10
270.8134709282
 20
23.6755476081
 10
271.377757092
 20
23.2990271493
 10
272.0263815714
 20
23.0761564553
 10
272.7448551675
 20
23.0119140891
 10
273.5171283672
 20
23.1077351191
 10
274.3259498635
 20
23.3614790617
 10
275.1532519207
 20
23.7674776967
 10
275.980553978
 20
24.3166616853
 10
276.7893754743
 20
24.9967631649
 10
277.561648674
 20
25.7925897921
 10
278.2801222701
 20
26.6863641152
 10
278.9287467495
 20
27.6581206926
 10
279.4930329133
 20
28.6861520884
 10
279.960375541
 20
29.7474937798
 10
280.3203349705
 20
30.8184371472
 10
280.564870303
 20
31.8750590856
 10
280.6885190234
 20
32.8937564068
 10
280.6885190234
 20
33.8517730961
 10
280.564870303
 20
34.7277086436
 10
280.3203349705
 20
35.5019960967
 10
279.960375541
 20
36.1573391531
 10
279.4930329133
 20
36.6790985319
 10
278.9287467495
 20
37.0556189907
 10
278.2801222701
 20
37.2784896847
 10
277.561648674
 20
37.3427320509
 10
276.7893754743
 20
37.2469110209
 10
275.980553978
 20
36.9931670783
 10
275.1532519207
 20
36.5871684433
  0
LWPOLYLINE
  5
226
330
1F
100
AcDbEntity
  8
0
  6
Continuous
 62
     7
370
    15
100
AcDbPolyline
 90
       23
 70
   128
 43
0.0
 10
275.0471859036
 20
36.7708801735
 10
274.2040755268
 20
36.2112022233
 10
273.3797988426
 20
35.518105174
 10
272.5927688302
 20
34.7070716686
 10
271.8605664393
 20
33.7962188553
 10
271.1995478615
 20
32.8058936808
 10
270.6244791596
 20
31.758218373
 10
270.148206418
 20
30.6765962672
 10
269.7813687828
 20
29.5851890137
 10
269.5321608006
 20
28.5083768472
 10
269.4061493659
 20
27.4702139721
 10
269.4061493659
 20
26.4938912314
 10
269.5321608006
 20
25.601218062
 10
269.7813687828
 20
24.8121353073
 10
270.148206418
 20
24.1442697721
 10
270.6244791596
 20
23.6125404688
 10
271.1995478615
 20
23.2288253515
 10
271.8605664393
 20
23.0016959818
 10
272.5927688302
 20
22.9362260545
 10
273.3797988426
 20
23.0338780596
 10
274.2040755268
 20
23.2924706126
 10
275.0471859036
 20
23.7062271833
 10
275.0481053015
 20
23.7067580267
  0
LWPOLYLINE
  5
227
330
1F
100
AcDbEntity
  8
0
  6
Continuous
 62
     7
370
    15
100
AcDbPolyline
 90
       12
 70
   128
 43
0.0
 10
280.7040401531
 20
33.5041861257
 10
280.6882224413
 20
33.9832161253
 10
280.5622110065
 20
34.8758892948
 10
280.3130030243
 20
35.6649720495
 10
279.9461653891
 20
36.3328375847
 10
279.4698926476
 20
36.8645668879
 10
278.8948239456
 20
37.2482820052
 10
278.2338053678
 20
37.4754113749
 10
277.501602977
 20
37.5408813022
 10
276.7145729645
 20
37.4432292972
 10
275.8902962803
 20
37.1846367441
 10
275.0471859036
 20
36.7708801735
  0
SPLINE
  5
228
330
1F
100
AcDbEntity
  8
0
  6
Continuous
 62
     7
370
    15
100
AcDbSpline
210
0.0
220
0.0
230
1.0
 70
    11
 71
     3
 72
    82
 73
    78
 74
     0
 42
0.000000001
 43
0.00000001
 40
0.0
 40
0.0
 40
0.0
 40
0.0
 40
0.0312500000000005
 40
0.0312500000000005
 40
0.062500000000001
 40
0.062500000000001
 40
0.0937500000000015
 40
0.0937500000000015
 40
0.125000000000002
 40
0.125000000000002
 40
0.1562500000000025
 40
0.1562500000000025
 40
0.187500000000003
 40
0.187500000000003
 40
0.2187500000000035
 40
0.2187500000000035
 40
0.2343750000000031
 40
0.2343750000000031
 40
0.2500000000000028
 40
0.2500000000000028
 40
0.281250000000002
 40
0.281250000000002
 40
0.296875000000002
 40
0.296875000000002
 40
0.312500000000002
 40
0.312500000000002
 40
0.3437500000000021
 40
0.3437500000000021
 40
0.3593750000000019
 40
0.3593750000000019
 40
0.3750000000000018
 40
0.3750000000000018
 40
0.3906250000000017
 40
0.3906250000000017
 40
0.4062500000000015
 40
0.4062500000000015
 40
0.4375000000000016
 40
0.4375000000000016
 40
0.4687500000000017
 40
0.4687500000000017
 40
0.5000000000000018
 40
0.5000000000000018
 40
0.5312500000000019
 40
0.5312500000000019
 40
0.562500000000002
 40
0.562500000000002
 40
0.593750000000002
 40
0.593750000000002
 40
0.625000000000002
 40
0.625000000000002
 40
0.6562500000000021
 40
0.6562500000000021
 40
0.6875000000000021
 40
0.6875000000000021
 40
0.7187500000000021
 40
0.7187500000000021
 40
0.7500000000000021
 40
0.7500000000000021
 40
0.7812500000000022
 40
0.7812500000000022
 40
0.8125000000000022
 40
0.8125000000000022
 40
0.8281250000000022
 40
0.8281250000000022
 40
0.8437500000000022
 40
0.8437500000000022
 40
0.8750000000000021
 40
0.8750000000000021
 40
0.890625000000002
 40
0.890625000000002
 40
0.9062500000000019
 40
0.9062500000000019
 40
0.9375000000000012
 40
0.9375000000000012
 40
0.9687500000000007
 40
0.9687500000000007
 40
1.0
 40
1.0
 40
1.0
 40
1.0
 10
270.8760392071499
 20
40.37655393205458
 30
0.0
 10
271.0291624903852
 20
40.34952170628404
 30
0.0
 10
271.1781791513814
 20
40.31513911866514
 30
0.0
 10
271.4690052160129
 20
40.23467004868322
 30
0.0
 10
271.611550692883
 20
40.18827927585117
 30
0.0
 10
271.8861930734964
 20
40.08614570840412
 30
0.0
 10
272.0160783750475
 20
40.03130777284898
 30
0.0
 10
272.2617077325434
 20
39.91526576575594
 30
0.0
 10
272.3783329378132
 20
39.85351337824802
 30
0.0
 10
272.5922486810994
 20
39.72623841112456
 30
0.0
 10
272.6888995208372
 20
39.66124138936435
 30
0.0
 10
272.8619232690512
 20
39.52816044963933
 30
0.0
 10
272.9388732143555
 20
39.45942959653244
 30
0.0
 10
273.0677438252195
 20
39.32090089856565
 30
0.0
 10
273.1195456449739
 20
39.25152618404744
 30
0.0
 10
273.1779951636201
 20
39.14611889836279
 30
0.0
 10
273.1942482067809
 20
39.11075538649356
 30
0.0
 10
273.2199481761297
 20
39.03931531954471
 30
0.0
 10
273.2293825150651
 20
39.00310221970976
 30
0.0
 10
273.246406341878
 20
38.89535366928665
 30
0.0
 10
273.2431938136862
 20
38.82402140809666
 30
0.0
 10
273.215201965737
 20
38.71633079968881
 30
0.0
 10
273.2019806856844
 20
38.68031907145755
 30
0.0
 10
273.1671061060519
 20
38.60781119202559
 30
0.0
 10
273.145402216951
 20
38.57137138819332
 30
0.0
 10
273.0689530898063
 20
38.46415877817182
 30
0.0
 10
273.0025641331606
 20
38.39441451570811
 30
0.0
 10
272.8781965328081
 20
38.29169782232727
 30
0.0
 10
272.8321581498871
 20
38.2575168351302
 30
0.0
 10
272.7334037667063
 20
38.19132721483694
 30
0.0
 10
272.6808152935093
 20
38.15933744920198
 30
0.0
 10
272.5693749667199
 20
38.09749806229132
 30
0.0
 10
272.5105228285621
 20
38.06764856336446
 30
0.0
 10
272.3865082037754
 20
38.01014399664603
 30
0.0
 10
272.320897587675
 20
37.9823339885322
 30
0.0
 10
272.1193430652337
 20
37.90434045379435
 30
0.0
 10
271.9779287051524
 20
37.85900935207778
 30
0.0
 10
271.6818238006689
 20
37.78197547815683
 30
0.0
 10
271.5296861154403
 20
37.75107474778012
 30
0.0
 10
271.2245256684344
 20
37.70586826935629
 30
0.0
 10
271.069060752523
 20
37.69131912171651
 30
0.0
 10
270.7649315512558
 20
37.68006876042137
 30
0.0
 10
270.615488879665
 20
37.6831085523458
 30
0.0
 10
270.3213574110557
 20
37.70740078500896
 30
0.0
 10
270.177885007511
 20
37.72873397087887
 30
0.0
 10
269.9051078705441
 20
37.78896597170839
 30
0.0
 10
269.7746197372915
 20
37.82794721807066
 30
0.0
 10
269.5255447719975
 20
37.92479813522701
 30
0.0
 10
269.4097535675747
 20
37.98165575105052
 30
0.0
 10
269.1969480235664
 20
38.11080444913595
 30
0.0
 10
269.0995718580318
 20
38.18323455169809
 30
0.0
 10
268.9237692154757
 20
38.34417415764899
 30
0.0
 10
268.8478065511698
 20
38.4304394870834
 30
0.0
 10
268.7195024746322
 20
38.61305988877228
 30
0.0
 10
268.6670572849305
 20
38.70954332713482
 30
0.0
 10
268.5878507938348
 20
38.91187481719911
 30
0.0
 10
268.5622729255998
 20
39.01463943621177
 30
0.0
 10
268.5395556851842
 20
39.22181939918472
 30
0.0
 10
268.5424574642446
 20
39.32671114532066
 30
0.0
 10
268.5806106848105
 20
39.53469760590711
 30
0.0
 10
268.6151692802976
 20
39.63460651600552
 30
0.0
 10
268.6911779070728
 20
39.77697179977191
 30
0.0
 10
268.7205729344035
 20
39.82317133876533
 30
0.0
 10
268.7880720236835
 20
39.91272845822852
 30
0.0
 10
268.8264511362664
 20
39.95627311102552
 30
0.0
 10
268.9517948043083
 20
40.07828498281476
 30
0.0
 10
269.0496017069625
 20
40.14948676663271
 30
0.0
 10
269.2181826307871
 20
40.24047509663863
 30
0.0
 10
269.2784479044982
 20
40.26826399890943
 30
0.0
 10
269.4030964669978
 20
40.31699146797214
 30
0.0
 10
269.4677628971288
 20
40.33813533439576
 30
0.0
 10
269.6685258489829
 20
40.39241646741858
 30
0.0
 10
269.8131457131356
 20
40.41648962320341
 30
0.0
 10
270.1084172808951
 20
40.44073513879943
 30
0.0
 10
270.2595078151524
 20
40.4413734559772
 30
0.0
 10
270.5684055675067
 20
40.42272598855691
 30
0.0
 10
270.7229159239146
 20
40.40358615782509
 30
0.0
 10
270.8760392071499
 20
40.37655393205456
 30
0.0
  0
ARC
  5
229
330
1F
100
AcDbEntity
  8
0
  6
Continuous
 62
     7
370
    15
100
AcDbCircle
 10
254.6596638903
 20
60.8132561882
 30
0.0
 40
8.703891722761783
100
AcDbArc
 50
34.3325496066
 51
84.2964748064
  0
ARC
  5
22A
330
1F
100
AcDbEntity
  8
0
  6
Continuous
 62
     7
370
    15
100
AcDbCircle
 10
238.3664999032
 20
32.5905397577
 30
0.0
 40
8.690205791198013
100
AcDbArc
 50
215.038918254
 51
265.86285515
  0
LWPOLYLINE
  5
22B
330
1F
100
AcDbEntity
  8
0
  6
Continuous
 62
     7
370
    15
100
AcDbPolyline
 90
        9
 70
   128
 43
0.0
 10
231.7978955988
 20
26.3391060003
 10
231.6315723356
 20
26.4377120111
 10
230.6406779477
 20
27.1441672028
 10
229.746256842
 20
27.9978886357
 10
228.9546275937
 20
28.9928452544
 10
228.2713826123
 20
30.1220082576
 10
227.701348634
 20
31.3774007522
 10
227.2485526242
 20
32.7501541057
 10
226.9161933284
 20
34.2305705982
  0
SPLINE
  5
22C
330
1F
100
AcDbEntity
  8
0
  6
Continuous
 62
     7
370
    15
100
AcDbSpline
210
0.0
220
0.0
230
1.0
 70
     8
 71
     3
 72
    32
 73
    28
 74
     0
 42
0.000000001
 43
0.00000001
 40
0.0
 40
0.0
 40
0.0
 40
0.0
 40
0.0193254758652704
 40
0.0385826927409049
 40
0.0577846348017481
 40
0.0769443985967347
 40
0.0960751672961712
 40
0.1151901840600305
 40
0.1343027247899319
 40
0.1534260705421022
 40
0.1725734798867981
 40
0.1917581615009326
 40
0.2109932472750491
 40
0.230291766203487
 40
0.2496666193081581
 40
0.3745846283004807
 40
0.4997410234225904
 40
0.4999962720874485
 40
0.624862702147581
 40
0.7503411293900218
 40
0.78614513231055
 40
0.8217618639989446
 40
0.8572756267685467
 40
0.8927714566740896
 40
0.9283345184906214
 40
0.9640494961172915
 40
1.0
 40
1.0
 40
1.0
 40
1.0
 10
226.916138052421
 20
41.68239536469695
 30
0.0
 10
226.9380812697088
 20
41.62230432098116
 30
0.0
 10
226.9818901992414
 20
41.50233447949677
 30
0.0
 10
227.0443294504639
 20
41.32158692538515
 30
0.0
 10
227.1042380779911
 20
41.14074352896614
 30
0.0
 10
227.1614246636251
 20
40.95973641342344
 30
0.0
 10
227.2159827348334
 20
40.77860701110063
 30
0.0
 10
227.2679304814243
 20
40.59736849376889
 30
0.0
 10
227.3173069608874
 20
40.41604253955902
 30
0.0
 10
227.3641463423349
 20
40.23464946282414
 30
0.0
 10
227.4084849486803
 20
40.05321110742278
 30
0.0
 10
227.4503587919033
 20
39.87174921845161
 30
0.0
 10
227.4898063830913
 20
39.69028916600178
 30
0.0
 10
227.5268599024509
 20
39.50884672031295
 30
0.0
 10
227.6245520020847
 20
38.99849576857439
 30
0.0
 10
227.7420482009175
 20
38.17189423988761
 30
0.0
 10
227.7768996370385
 20
37.45657474459497
 30
0.0
 10
227.7772954612119
 20
36.77986277968603
 30
0.0
 10
227.7422441101696
 20
36.13817165558693
 30
0.0
 10
227.617310029998
 20
35.5168707168128
 30
0.0
 10
227.4965838491225
 20
35.14424661484092
 30
0.0
 10
227.4222764366003
 20
34.95544991370993
 30
0.0
 10
227.339362965368
 20
34.78125863074843
 30
0.0
 10
227.2476641643581
 20
34.62144246068296
 30
0.0
 10
227.1467620967355
 20
34.47623858806735
 30
0.0
 10
227.0372091999357
 20
34.34419162793918
 30
0.0
 10
226.9566809020357
 20
34.26849214299695
 30
0.0
 10
226.9162844262799
 20
34.23051800858777
 30
0.0
  0
LWPOLYLINE
  5
22D
330
1F
100
AcDbEntity
  8
0
  6
Continuous
 62
     7
370
    15
100
AcDbPolyline
 90
       27
 70
   128
 43
0.0
 10
226.9161380522
 20
41.6823953648
 10
227.2484773921
 20
43.5465612272
 10
227.7012569506
 20
45.4421205408
 10
228.2712780191
 20
47.3556819289
 10
228.9545136242
 20
49.2737268373
 10
229.7461369768
 20
51.1827050375
 10
230.640555571
 20
53.0691303538
 10
231.6314506932
 20
54.9196759374
 10
232.7118220614
 20
56.7212684159
 10
233.8740372793
 20
58.4611802512
 10
235.1098857561
 20
60.1271196544
 10
236.4106367113
 20
61.7073174226
 10
237.7671008538
 20
63.1906100838
 10
239.1696953011
 20
64.5665187621
 10
240.6085112783
 20
65.8253232069
 10
242.0733841198
 20
66.9581304629
 10
243.5539650783
 20
67.9569376948
 10
245.0397944351
 20
68.8146887248
 10
246.5203753937
 20
69.525323881
 10
247.9852482351
 20
70.0838228074
 10
249.4240642123
 20
70.4862399298
 10
250.8266586597
 20
70.7297323305
 10
252.1831228022
 20
70.812579832
 10
253.4838737573
 20
70.7341971495
 10
254.7197222341
 20
70.4951380256
 10
255.881937452
 20
70.0970913185
 10
256.7958639147
 20
69.6415491193
  0
SPLINE
  5
22E
330
1F
100
AcDbEntity
  8
0
  6
Continuous
 62
     7
370
    15
100
AcDbSpline
210
0.0
220
0.0
230
1.0
 70
     8
 71
     3
 72
     8
 73
     4
 74
     0
 42
0.000000001
 43
0.00000001
 40
0.0
 40
0.0
 40
0.0
 40
0.0
 40
1.0
 40
1.0
 40
1.0
 40
1.0
 10
225.9541447733648
 20
47.11773308262335
 30
0.0
 10
224.7845183534269
 20
46.92217690938062
 30
0.0
 10
223.6139151105671
 20
46.7285919426607
 30
0.0
 10
222.4426836289142
 20
46.53631249341443
 30
0.0
  0
SPLINE
  5
22F
330
1F
100
AcDbEntity
  8
0
  6
Continuous
 62
     7
370
    15
100
AcDbSpline
210
0.0
220
0.0
230
1.0
 70
     8
 71
     3
 72
     8
 73
     4
 74
     0
 42
0.000000001
 43
0.00000001
 40
0.0
 40
0.0
 40
0.0
 40
0.0
 40
0.0012417047560385
 40
0.0012417047560385
 40
0.0012417047560385
 40
0.0012417047560385
 10
221.9681830252645
 20
46.81028791429429
 30
0.0
 10
222.1264541657249
 20
46.71890258953635
 30
0.0
 10
222.2846234714042
 20
46.62757604213274
 30
0.0
 10
222.4426836289142
 20
46.53631249341443
 30
0.0
  0
LWPOLYLINE
  5
230
330
1F
100
AcDbEntity
  8
0
  6
Continuous
 62
     7
370
    15
100
AcDbPolyline
 90
       28
 70
   128
 43
0.0
 10
221.9681830253
 20
46.8102879143
 10
222.4470186161
 20
48.7589540505
 10
223.0489003324
 20
50.7247652443
 10
223.7693475801
 20
52.6930873876
 10
224.6029971267
 20
54.6492676805
 10
225.5436430264
 20
56.5787437104
 10
226.5842828197
 20
58.4671518598
 10
227.7171696614
 20
60.300434233
 10
228.9338699906
 20
62.0649433078
 10
230.225326313
 20
63.7475435317
 10
231.5819246274
 20
65.3357091071
 10
232.9935659955
 20
66.8176172372
 10
234.4497417214
 20
68.1822361385
 10
235.9396115815
 20
69.419407165
 10
237.452084523
 20
70.519920432
 10
238.9759012283
 20
71.4755833777
 10
240.4997179336
 20
72.2792817509
 10
242.012190875
 20
72.9250325718
 10
243.5020607352
 20
73.4080286711
 10
244.9582364611
 20
73.7246744761
 10
246.3698778292
 20
73.8726127773
 10
247.7264761436
 20
73.8507422762
 10
249.017932466
 20
73.6592257836
 10
250.2346327952
 20
73.2994890075
 10
251.3675196369
 20
72.77420994
 10
252.4081594302
 20
72.0872989214
 10
253.3488053299
 20
71.2438695302
 10
253.8490356726
 20
70.6814094785
  0
LINE
  5
231
330
1F
100
AcDbEntity
  8
0
  6
Continuous
 62
     7
370
    15
100
AcDbLine
 10
217.8404471901
 20
49.1931790907
 30
0.0
 11
221.9681830253
 21
46.8102879143
 31
0.0
  0
ARC
  5
232
330
1F
100
AcDbEntity
  8
0
  6
Continuous
 62
     7
370
    15
100
AcDbCircle
 10
242.9581253007
 20
67.3786967027
 30
0.0
 40
8.878232805076644
100
AcDbArc
 50
60.3725835944
 51
85.9811821539
  0
SPLINE
  5
233
330
1F
100
AcDbEntity
  8
0
  6
Continuous
 62
     7
370
    15
100
AcDbSpline
210
0.0
220
0.0
230
1.0
 70
     8
 71
     3
 72
    13
 73
     9
 74
     0
 42
0.000000001
 43
0.00000001
 40
0.0
 40
0.0
 40
0.0
 40
0.0
 40
0.1935905955791476
 40
0.3928012754936013
 40
0.5863901717867319
 40
0.7855816257781109
 40
0.9793802664217499
 40
0.9999999999999999
 40
0.9999999999999999
 40
0.9999999999999999
 40
0.9999999999999999
 10
235.6755095621292
 20
62.01279557106978
 30
0.0
 10
235.7266157875176
 20
61.98686724079145
 30
0.0
 10
235.8303118914434
 20
61.93425786080437
 30
0.0
 10
236.0097668281975
 20
61.8892475290977
 30
0.0
 10
236.2029957734773
 20
61.86952415478468
 30
0.0
 10
236.4026588322766
 20
61.88138597850038
 30
0.0
 10
236.5465304215818
 20
61.90211953367931
 30
0.0
 10
236.6191233956983
 20
61.9256343326558
 30
0.0
 10
236.6261043635905
 20
61.92789565420438
 30
0.0
  0
LWPOLYLINE
  5
234
330
1F
100
AcDbEntity
  8
0
  6
Continuous
 62
     7
370
    15
100
AcDbPolyline
 90
       25
 70
   128
 43
0.0
 10
237.7071091392
 20
63.1265686943
 10
237.6916264687
 20
63.2308898584
 10
237.6343755521
 20
63.3743074655
 10
237.5467683805
 20
63.4997350514
 10
237.4261766405
 20
63.6110022134
 10
237.2829308351
 20
63.6987413377
 10
237.1127317445
 20
63.7656822757
 10
236.9300484502
 20
63.8060938433
 10
236.7295915936
 20
63.8210122658
 10
236.5279989631
 20
63.8089058729
 10
236.3198268686
 20
63.769076943
 10
236.1223914394
 20
63.7044470359
 10
235.9303758958
 20
63.6128678904
 10
235.7601228257
 20
63.5018722968
 10
235.6066527833
 20
63.3680378218
 10
235.4830729898
 20
63.2228064724
 10
235.3855410446
 20
63.0618648366
 10
235.3221696389
 20
62.898875922
 10
235.2910219787
 20
62.7293991681
 10
235.2946099149
 20
62.5676690021
 10
235.3329819641
 20
62.4096161597
 10
235.4028660705
 20
62.26870845
 10
235.5061763791
 20
62.1412669398
 10
235.6755095621
 20
62.0127955711
 10
235.6755095621
 20
62.0127955711
  0
SPLINE
  5
235
330
1F
100
AcDbEntity
  8
0
  6
Continuous
 62
     7
370
    15
100
AcDbSpline
210
0.0
220
0.0
230
1.0
 70
     8
 71
     3
 72
    12
 73
     8
 74
     0
 42
0.000000001
 43
0.00000001
 40
0.0
 40
0.0
 40
0.0
 40
0.0
 40
0.1965780762828002
 40
0.4325828707191373
 40
0.6703346711122846
 40
0.8348654188880573
 40
1.0
 40
1.0
 40
1.0
 40
1.0
 10
227.8010770881
 20
45.74494217343616
 30
0.0
 10
227.714759267472
 20
45.84983029397142
 30
0.0
 10
227.5248112765896
 20
46.08064344029705
 30
0.0
 10
227.2089003859384
 20
46.40043362260522
 30
0.0
 10
226.8949138845571
 20
46.67495753982657
 30
0.0
 10
226.6061870905379
 20
46.8938430598977
 30
0.0
 10
226.4334685831012
 20
47.00460447818941
 30
0.0
 10
226.3469511489746
 20
47.06008662571968
 30
0.0
  0
SPLINE
  5
236
330
1F
100
AcDbEntity
  8
0
  6
Continuous
 62
     7
370
    15
100
AcDbSpline
210
0.0
220
0.0
230
1.0
 70
     8
 71
     3
 72
    10
 73
     6
 74
     0
 42
0.000000001
 43
0.00000001
 40
0.0
 40
0.0
 40
0.0
 40
0.0
 40
0.5
 40
0.5
 40
1.0
 40
1.0
 40
1.0
 40
1.0
 10
226.2110218017425
 20
47.112616607529
 30
0.0
 10
226.1704464933476
 20
47.12144112885596
 30
0.0
 10
226.1268721502939
 20
47.12639420476464
 30
0.0
 10
226.0390694233071
 20
47.12797939003077
 30
0.0
 10
225.9961013063852
 20
47.12474802252222
 30
0.0
 10
225.9541447733648
 20
47.11773308262335
 30
0.0
  0
SPLINE
  5
237
330
1F
100
AcDbEntity
  8
0
  6
Continuous
 62
     7
370
    15
100
AcDbSpline
210
0.0
220
0.0
230
1.0
 70
     8
 71
     3
 72
     8
 73
     4
 74
     0
 42
0.000000001
 43
0.00000001
 40
0.0
 40
0.0
 40
0.0
 40
0.0
 40
1.0
 40
1.0
 40
1.0
 40
1.0
 10
226.3469511489746
 20
47.06008662571968
 30
0.0
 10
226.3084692071384
 20
47.08375743551554
 30
0.0
 10
226.2623615553915
 20
47.10145098072499
 30
0.0
 10
226.2110218017425
 20
47.11261660752904
 30
0.0
  0
SPLINE
  5
238
330
1F
100
AcDbEntity
  8
0
  6
Continuous
 62
     7
370
    15
100
AcDbSpline
210
0.0
220
0.0
230
1.0
 70
     8
 71
     3
 72
    10
 73
     6
 74
     0
 42
0.000000001
 43
0.00000001
 40
0.0
 40
0.0
 40
0.0
 40
0.0
 40
0.5
 40
0.5
 40
1.0
 40
1.0
 40
1.0
 40
1.0
 10
217.6837502702772
 20
49.28362697385742
 30
0.0
 10
217.6948008686273
 20
49.27725113931328
 30
0.0
 10
217.7134208145667
 20
49.26650489780788
 30
0.0
 10
217.7667207646273
 20
49.23573942496794
 30
0.0
 10
217.8003015373486
 20
49.21635468269698
 30
0.0
 10
217.840447190088
 20
49.19317909067682
 30
0.0
  0
SPLINE
  5
239
330
1F
100
AcDbEntity
  8
0
  6
Continuous
 62
     7
370
    15
100
AcDbSpline
210
0.0
220
0.0
230
1.0
 70
     8
 71
     3
 72
     9
 73
     5
 74
     0
 42
0.000000001
 43
0.00000001
 40
0.0
 40
0.0
 40
0.0
 40
0.0
 40
0.5377956222890862
 40
0.9999999999999999
 40
0.9999999999999999
 40
0.9999999999999999
 40
0.9999999999999999
 10
226.3469511489746
 20
36.57073056277657
 30
0.0
 10
226.587017322422
 20
36.4439645152351
 30
0.0
 10
227.0334065518948
 20
36.20825034745903
 30
0.0
 10
227.425012709338
 20
36.09260570844472
 30
0.0
 10
227.6060147896468
 20
36.0391542500335
 30
0.0
  0
SPLINE
  5
23A
330
1F
100
AcDbEntity
  8
0
  6
Continuous
 62
     7
370
    15
100
AcDbSpline
210
0.0
220
0.0
230
1.0
 70
     8
 71
     3
 72
     8
 73
     4
 74
     0
 42
0.000000001
 43
0.00000001
 40
0.0
 40
0.0
 40
0.0
 40
0.0
 40
1.0
 40
1.0
 40
1.0
 40
1.0
 10
226.211021801743
 20
36.62006717479699
 30
0.0
 10
226.2623501837402
 20
36.6089040211567
 30
0.0
 10
226.3084707478444
 20
36.59219001685499
 30
0.0
 10
226.3469511489747
 20
36.5707305627766
 30
0.0
  0
SPLINE
  5
23B
330
1F
100
AcDbEntity
  8
0
  6
Continuous
 62
     7
370
    15
100
AcDbSpline
210
0.0
220
0.0
230
1.0
 70
     8
 71
     3
 72
    12
 73
     8
 74
     0
 42
0.000000001
 43
0.00000001
 40
0.0
 40
0.0
 40
0.0
 40
0.0
 40
0.1882348860552934
 40
0.3552030333413834
 40
0.5009466077120189
 40
0.7563025321915505
 40
1.0
 40
1.0
 40
1.0
 40
1.0
 10
227.0269383180748
 20
34.95449216549525
 30
0.0
 10
227.1159818514018
 20
35.04877381351285
 30
0.0
 10
227.2840087979473
 20
35.22668518831739
 30
0.0
 10
227.4639181499666
 20
35.57400228950629
 30
0.0
 10
227.6254421444266
 20
36.03465589829513
 30
0.0
 10
227.7511992080433
 20
36.6562068098383
 30
0.0
 10
227.7685020042331
 20
37.23953411549562
 30
0.0
 10
227.7769512957971
 20
37.52438417260169
 30
0.0
  0
SPLINE
  5
23C
330
1F
100
AcDbEntity
  8
0
  6
Continuous
 62
     7
370
    15
100
AcDbSpline
210
0.0
220
0.0
230
1.0
 70
     8
 71
     3
 72
     9
 73
     5
 74
     0
 42
0.000000001
 43
0.00000001
 40
0.0
 40
0.0
 40
0.0
 40
0.0
 40
0.5048004990382029
 40
1.0
 40
1.0
 40
1.0
 40
1.0
 10
226.9162039060439
 20
34.23046764523414
 30
0.0
 10
226.9347488043289
 20
34.35218152095934
 30
0.0
 10
226.9714858882269
 20
34.59329434861522
 30
0.0
 10
227.0085829995827
 20
34.83480058186207
 30
0.0
 10
227.0269534706133
 20
34.95439434804507
 30
0.0
  0
LINE
  5
23D
330
1F
100
AcDbEntity
  8
0
  6
Continuous
 62
     7
370
    15
100
AcDbLine
 10
218.1178173704
 20
49.0330046409
 30
0.0
 11
217.6837502703
 21
49.2836269739
 31
0.0
  0
LINE
  5
23E
330
1F
100
AcDbEntity
  8
0
  6
Continuous
 62
     7
370
    15
100
AcDbLine
 10
222.4426836289
 20
46.5363124934
 30
0.0
 11
218.1178173704
 21
49.0330046409
 31
0.0
  0
SPLINE
  5
23F
330
1F
100
AcDbEntity
  8
0
  6
Continuous
 62
     7
370
    15
100
AcDbSpline
210
0.0
220
0.0
230
1.0
 70
     8
 71
     3
 72
    11
 73
     7
 74
     0
 42
0.000000001
 43
0.00000001
 40
0.0
 40
0.0
 40
0.0
 40
0.0
 40
0.0763291486410529
 40
0.4828240100964536
 40
0.8892344489868813
 40
1.0
 40
1.0
 40
1.0
 40
1.0
 10
222.0141773145733
 20
43.72027329518752
 30
0.0
 10
222.0137419352433
 20
43.7985124342071
 30
0.0
 10
222.0109879205874
 20
44.29341818804396
 30
0.0
 10
221.9662922633735
 20
45.22640423054129
 30
0.0
 10
221.9282171488118
 20
46.19188803882096
 30
0.0
 10
221.9402351679479
 20
46.71322680125613
 30
0.0
 10
221.9428091128673
 20
46.82488390911298
 30
0.0
  0
LINE
  5
240
330
1F
100
AcDbEntity
  8
0
  6
Continuous
 62
     7
370
    15
100
AcDbLine
 10
222.0141773146
 20
41.9444726662
 30
0.0
 11
222.0141773146
 21
43.7202732952
 31
0.0
  0
LINE
  5
241
330
1F
100
AcDbEntity
  8
0
  6
Continuous
 62
     7
370
    15
100
AcDbLine
 10
221.0860996643
 20
47.1330990424
 30
0.0
 11
221.0871406915
 21
47.3188507744
 31
0.0
  0
ARC
  5
242
330
1F
100
AcDbEntity
  8
0
  6
Continuous
 62
     7
370
    15
100
AcDbCircle
 10
233.0219528655
 20
46.8675093779
 30
0.0
 40
11.93880770898452
100
AcDbArc
 50
178.7252979842
 51
202.7773427363
  0
LINE
  5
243
330
1F
100
AcDbEntity
  8
0
  6
Continuous
 62
     7
370
    15
100
AcDbLine
 10
192.4684468636
 20
66.2363352046
 30
0.0
 11
192.4156218148
 21
66.2818478208
 31
0.0
  0
LWPOLYLINE
  5
244
330
1F
100
AcDbEntity
  8
0
  6
Continuous
 62
     7
370
    15
100
AcDbPolyline
 90
       10
 70
   128
 43
0.0
 10
229.4237453124
 20
28.3709811619
 10
228.9338699906
 20
28.4649003775
 10
227.7171696614
 20
28.8246371536
 10
226.5842828197
 20
29.3499162211
 10
225.5436430264
 20
30.0368272397
 10
224.6029971267
 20
30.8802566309
 10
223.7693475801
 20
31.873925645
 10
223.0489003324
 20
33.0104371017
 10
222.4470186161
 20
34.2813304575
 10
221.9681830253
 20
35.6771447884
  0
SPLINE
  5
245
330
1F
100
AcDbEntity
  8
0
  6
Continuous
 62
     7
370
    15
100
AcDbSpline
210
0.0
220
0.0
230
1.0
 70
     8
 71
     3
 72
     8
 73
     4
 74
     0
 42
0.000000001
 43
0.00000001
 40
0.0
 40
0.0
 40
0.0
 40
0.0
 40
0.0012417047560385
 40
0.0012417047560385
 40
0.0012417047560385
 40
0.0012417047560385
 10
222.4426836289142
 20
36.04376306068254
 30
0.0
 10
222.2846234714042
 20
35.92135985567839
 30
0.0
 10
222.1264541657249
 20
35.79915762570762
 30
0.0
 10
221.9681830252645
 20
35.67714478839686
 30
0.0
  0
SPLINE
  5
246
330
1F
100
AcDbEntity
  8
0
  6
Continuous
 62
     7
370
    15
100
AcDbSpline
210
0.0
220
0.0
230
1.0
 70
     8
 71
     3
 72
     8
 73
     4
 74
     0
 42
0.000000001
 43
0.00000001
 40
0.0
 40
0.0
 40
0.0
 40
0.0
 40
1.0
 40
1.0
 40
1.0
 40
1.0
 10
222.4426836289142
 20
36.04376306068254
 30
0.0
 10
223.6139162135899
 20
36.23604269101055
 30
0.0
 10
224.7845355881823
 20
36.42963035822079
 30
0.0
 10
225.9541447733648
 20
36.62518364989147
 30
0.0
  0
SPLINE
  5
247
330
1F
100
AcDbEntity
  8
0
  6
Continuous
 62
     7
370
    15
100
AcDbSpline
210
0.0
220
0.0
230
1.0
 70
     8
 71
     3
 72
    10
 73
     6
 74
     0
 42
0.000000001
 43
0.00000001
 40
0.0
 40
0.0
 40
0.0
 40
0.0
 40
0.5
 40
0.5
 40
1.0
 40
1.0
 40
1.0
 40
1.0
 10
225.9541447733648
 20
36.62518364989148
 30
0.0
 10
225.9959106343793
 20
36.63216671030541
 30
0.0
 10
226.0398079201933
 20
36.63545680131379
 30
0.0
 10
226.1274353029833
 20
36.63379382688475
 30
0.0
 10
226.1699406000439
 20
36.629001720334
 30
0.0
 10
226.211021801743
 20
36.62006717479699
 30
0.0
  0
LINE
  5
248
330
1F
100
AcDbEntity
  8
0
  6
Continuous
 62
     7
370
    15
100
AcDbLine
 10
218.1178173704
 20
38.5404552081
 30
0.0
 11
222.4426836289
 21
36.0437630607
 31
0.0
  0
LINE
  5
249
330
1F
100
AcDbEntity
  8
0
  6
Continuous
 62
     7
370
    15
100
AcDbLine
 10
218.1178173704
 20
38.5404552081
 30
0.0
 11
221.660623924
 21
40.5856738978
 31
0.0
  0
LINE
  5
24A
330
1F
100
AcDbEntity
  8
0
  6
Continuous
 62
     7
370
    15
100
AcDbLine
 10
217.6837502703
 20
38.2898328752
 30
0.0
 11
218.1178173704
 21
38.5404552081
 31
0.0
  0
LINE
  5
24B
330
1F
100
AcDbEntity
  8
0
  6
Continuous
 62
     7
370
    15
100
AcDbLine
 10
221.9681830253
 20
35.6771447884
 30
0.0
 11
217.8404471901
 21
38.0600359648
 31
0.0
  0
SPLINE
  5
24C
330
1F
100
AcDbEntity
  8
0
  6
Continuous
 62
     7
370
    15
100
AcDbSpline
210
0.0
220
0.0
230
1.0
 70
     8
 71
     3
 72
     8
 73
     4
 74
     0
 42
0.000000001
 43
0.00000001
 40
0.0
 40
0.0
 40
0.0
 40
0.0
 40
1.0
 40
1.0
 40
1.0
 40
1.0
 10
217.840447190088
 20
38.0600359647794
 30
0.0
 10
217.7602279609219
 20
38.10634554005
 30
0.0
 10
217.7058381986346
 20
38.19000838106209
 30
0.0
 10
217.6837502702764
 20
38.28983287516945
 30
0.0
  0
ARC
  5
24D
330
1F
100
AcDbEntity
  8
0
  6
Continuous
 62
     7
370
    15
100
AcDbCircle
 10
226.8695555419
 20
39.4854151762
 30
0.0
 40
8.92164576897075
100
AcDbArc
 50
214.8451889641
 51
239.5573983443
  0
ELLIPSE
  5
24E
330
1F
100
AcDbEntity
  8
0
  6
Continuous
 62
     7
370
    15
100
AcDbEllipse
 10
221.3677307052
 20
41.5712983659
 30
0.0
 11
-7.507462979106093E-5
 21
1.066811201853412
 31
0.0
210
0.0
220
0.0
230
1.0
 40
0.7174342186
 41
3.534193645557553
 42
5.104989972352359
  0
ELLIPSE
  5
24F
330
1F
100
AcDbEntity
  8
0
  6
Continuous
 62
     7
370
    15
100
AcDbEllipse
 10
221.3070705334
 20
41.5362686102
 30
0.0
 11
0.3250094736511642
 21
1.213179526238669
 31
0.0
210
0.0
220
0.0
230
1.0
 40
0.5176380889
 41
3.619174351347721
 42
5.189970678142622
  0
LINE
  5
250
330
1F
100
AcDbEntity
  8
0
  6
Continuous
 62
     7
370
    15
100
AcDbLine
 10
236.4579004979
 20
61.9261909251
 30
0.0
 11
236.6314104862
 21
61.9596409064
 31
0.0
  0
LWPOLYLINE
  5
251
330
1F
100
AcDbEntity
  8
0
  6
Continuous
 62
     7
370
    15
100
AcDbPolyline
 90
       14
 70
   128
 43
0.0
 10
237.6821491358
 20
63.1022806247
 10
237.607762576
 20
63.3716382632
 10
237.3634592321
 20
63.6412856534
 10
236.9872741416
 20
63.7926694216
 10
236.5364780746
 20
63.8027427614
 10
236.0797006457
 20
63.6699720982
 10
235.6864820777
 20
63.4145705619
 10
235.4166863332
 20
63.0754207211
 10
235.3113873685
 20
62.7041550647
 10
235.3866159964
 20
62.3572954233
 10
235.6309193404
 20
62.0876480331
 10
236.0071044308
 20
61.9362642649
 10
236.4579004979
 20
61.9261909251
 10
236.4579004979
 20
61.9261909251
  0
LINE
  5
252
330
1F
100
AcDbEntity
  8
0
  6
Continuous
 62
     7
370
    15
100
AcDbLine
 10
237.2384397321
 20
63.2950693576
 30
0.0
 11
236.5250159792
 21
63.5290105201
 31
0.0
  0
LINE
  5
253
330
1F
100
AcDbEntity
  8
0
  6
Continuous
 62
     7
370
    15
100
AcDbLine
 10
235.7837655333
 20
63.0984080058
 30
0.0
 11
236.5250159792
 21
63.5290105201
 31
0.0
  0
LINE
  5
254
330
1F
100
AcDbEntity
  8
0
  6
Continuous
 62
     7
370
    15
100
AcDbLine
 10
235.7559388403
 20
62.4338643289
 30
0.0
 11
235.7837655333
 21
63.0984080058
 31
0.0
  0
LINE
  5
255
330
1F
100
AcDbEntity
  8
0
  6
Continuous
 62
     7
370
    15
100
AcDbLine
 10
235.7559388403
 20
62.4338643289
 30
0.0
 11
236.4693625933
 21
62.1999231664
 31
0.0
  0
LINE
  5
256
330
1F
100
AcDbEntity
  8
0
  6
Continuous
 62
     7
370
    15
100
AcDbLine
 10
237.2106130392
 20
62.6305256807
 30
0.0
 11
236.4693625933
 21
62.1999231664
 31
0.0
  0
LINE
  5
257
330
1F
100
AcDbEntity
  8
0
  6
Continuous
 62
     7
370
    15
100
AcDbLine
 10
237.2106130392
 20
62.6305256807
 30
0.0
 11
237.2384397321
 21
63.2950693576
 31
0.0
  0
LINE
  5
258
330
1F
100
AcDbEntity
  8
0
  6
Continuous
 62
     7
370
    15
100
AcDbLine
 10
236.0256102959
 20
62.47072464
 30
0.0
 11
235.7837655333
 21
63.0984080058
 31
0.0
  0
LINE
  5
259
330
1F
100
AcDbEntity
  8
0
  6
Continuous
 62
     7
370
    15
100
AcDbLine
 10
236.0204350742
 20
62.3471324866
 30
0.0
 11
236.0256102959
 21
62.47072464
 31
0.0
  0
LINE
  5
25A
330
1F
100
AcDbEntity
  8
0
  6
Continuous
 62
     7
370
    15
100
AcDbLine
 10
236.0256102959
 20
62.47072464
 30
0.0
 11
236.7668607418
 21
62.9013271543
 31
0.0
  0
LINE
  5
25B
330
1F
100
AcDbEntity
  8
0
  6
Continuous
 62
     7
370
    15
100
AcDbLine
 10
237.2157882609
 20
62.7541178341
 30
0.0
 11
236.7668607418
 21
62.9013271543
 31
0.0
  0
LINE
  5
25C
330
1F
100
AcDbEntity
  8
0
  6
Continuous
 62
     7
370
    15
100
AcDbLine
 10
236.7668607418
 20
62.9013271543
 30
0.0
 11
236.5250159792
 21
63.5290105201
 31
0.0
  0
LWPOLYLINE
  5
25D
330
1F
100
AcDbEntity
  8
0
  6
Continuous
 62
     7
370
     0
100
AcDbPolyline
 90
        3
 70
   128
 43
0.0
 10
274.1391989292
 20
33.3130802928
 10
274.1391570541
 20
33.2877605806
 10
274.08257546
 20
32.9431761674
  0
LWPOLYLINE
  5
25E
330
1F
100
AcDbEntity
  8
0
  6
Continuous
 62
     7
370
     0
100
AcDbPolyline
 90
        7
 70
   128
 43
0.0
 10
242.2727865956
 20
42.6275467753
 10
242.3359689837
 20
41.6904284474
 10
242.5241047579
 20
40.8471926269
 10
242.832991276
 20
40.1166758087
 10
243.2557285235
 20
39.5151965315
 10
243.7828732488
 20
39.0561908482
 10
243.9299659145
 20
38.9647883235
  0
LWPOLYLINE
  5
25F
330
1F
100
AcDbEntity
  8
0
  6
Continuous
 62
     7
370
     0
100
AcDbPolyline
 90
       17
 70
   128
 43
0.0
 10
251.9293157756
 20
52.8215701216
 10
251.4566317802
 20
53.0364462577
 10
250.7580679698
 20
53.1831561368
 10
249.9963217713
 20
53.1670199779
 10
249.1884093359
 20
52.9883982363
 10
248.3523780925
 20
52.6512810263
 10
247.5069035976
 20
52.1631989895
 10
246.6708723542
 20
51.535055072
 10
245.8629599189
 20
50.7808809709
 10
245.1012137203
 20
49.9175236895
 10
244.4026499099
 20
48.9642692027
 10
243.7828732488
 20
47.9424116406
 10
243.2557285235
 20
46.8747776125
 10
242.832991276
 20
45.7852162984
 10
242.5241047579
 20
44.6980666976
 10
242.3359689837
 20
43.6376139358
 10
242.2727865956
 20
42.6275467753
  0
LWPOLYLINE
  5
260
330
1F
100
AcDbEntity
  8
0
  6
Continuous
 62
     7
370
     0
100
AcDbPolyline
 90
       34
 70
   128
 43
0.0
 10
275.1532519207
 20
34.2600271294
 10
274.4841477296
 20
33.7999817207
 10
273.8392267072
 20
33.2090039896
 10
273.2417979797
 20
32.5084534111
 10
272.7134541779
 20
31.7236497084
 10
272.2732910233
 20
30.882957732
 10
271.9372171592
 20
30.0167622805
 10
271.7173791708
 20
29.1563699142
 10
271.6217225755
 20
28.332877455
 10
271.6537046522
 20
27.576048066
 10
271.812169485
 20
26.9132355333
 10
272.0913897423
 20
26.3683956285
 10
272.4812736762
 20
25.9612202856
 10
272.9677298657
 20
25.7064258823
 10
273.5331765166
 20
25.6132213521
 10
274.1571769136
 20
25.6849753497
 10
274.8171780567
 20
25.9190944986
 10
275.4893257848
 20
26.3071171227
 10
276.1493269279
 20
26.8350190736
 10
276.7733273249
 20
27.4837205991
 10
277.3387739758
 20
28.229775936
 10
277.8252301653
 20
29.0462207007
 10
278.2151140992
 20
29.903546452
 10
278.4943343564
 20
30.7707672036
 10
278.6527991893
 20
31.6165393381
 10
278.684781266
 20
32.4102944467
 10
278.5891246707
 20
33.1233441519
 10
278.3692866822
 20
33.7299169794
 10
278.0332128182
 20
34.2080898068
 10
277.5930496636
 20
34.5405802222
 10
277.0647058618
 20
34.7153711559
 10
276.4672771343
 20
34.7261452079
 10
275.8223561119
 20
34.5725129761
 10
275.1532519207
 20
34.2600271294
  0
LWPOLYLINE
  5
261
330
1F
100
AcDbEntity
  8
0
  6
Continuous
 62
     7
370
     0
100
AcDbPolyline
 90
       18
 70
   128
 43
0.0
 10
272.5661292101
 20
26.4749600331
 10
272.7270439819
 20
26.396900715
 10
273.2554771413
 20
26.2772364343
 10
273.8471309058
 20
26.3255981197
 10
274.4777829008
 20
26.5400058381
 10
275.1216141595
 20
26.9116817124
 10
275.7522661545
 20
27.4254092886
 10
276.343919919
 20
28.0601564993
 10
276.8723530784
 20
28.7899367192
 10
277.3159315171
 20
29.5848726603
 10
277.6564950816
 20
30.4124195518
 10
277.8801010597
 20
31.2386975267
 10
277.9775949963
 20
32.0298786677
 10
277.9449854782
 20
32.7535719258
 10
277.7836075429
 20
33.3801492141
 10
277.500068022
 20
33.8839583847
 10
277.1059750568
 20
34.244373431
 10
277.0258369923
 20
34.2920296865
  0
LWPOLYLINE
  5
262
330
1F
100
AcDbEntity
  8
0
  6
Continuous
 62
     7
370
     0
100
AcDbPolyline
 90
       44
 70
   128
 43
0.0
 10
229.5448645342
 20
36.5044859366
 10
229.6072748611
 20
38.2370783628
 10
229.7940561739
 20
40.0292448505
 10
230.103862709
 20
41.8680727991
 10
230.5344623032
 20
43.7403134111
 10
231.0827524766
 20
45.6324771499
 10
231.7447827858
 20
47.5309309325
 10
232.5157832874
 20
49.4219963559
 10
233.3901989051
 20
51.2920482504
 10
234.3617294543
 20
53.1276128491
 10
235.4233750351
 20
54.9154648672
 10
236.5674864668
 20
56.6427227898
 10
237.7858204004
 20
58.296941684
 10
239.0695987118
 20
59.8662028648
 10
240.409571749
 20
61.3391997695
 10
241.7960849755
 20
62.7053194216
 10
243.2191485318
 20
63.9547188976
 10
244.6685092123
 20
65.0783962458
 10
246.13372434
 20
66.068255345
 10
247.6042370065
 20
66.9171642378
 10
249.0694521343
 20
67.6190065162
 10
250.5188128148
 20
68.1687253905
 10
251.941876371
 20
68.5623601236
 10
253.3283895976
 20
68.7970745681
 10
254.6683626347
 20
68.8711776013
 10
255.9521409462
 20
68.7841353089
 10
257.1704748797
 20
68.5365748327
 10
258.3145863114
 20
68.1302798517
 10
259.3762318923
 20
67.5681777305
 10
260.3477624414
 20
66.8543184276
 10
261.2221780591
 20
65.9938453159
 10
261.9931785607
 20
64.9929581237
 10
262.65520887
 20
63.8588682662
 10
263.2034990434
 20
62.5997468869
 10
263.6340986376
 20
61.224665984
 10
263.9439051727
 20
59.7435330471
 10
264.1306864855
 20
58.1670196729
 10
264.1930968124
 20
56.5064846763
 10
264.1306864855
 20
54.7738922501
 10
263.9439051727
 20
52.9817257624
 10
263.6340986376
 20
51.1428978138
 10
263.2034990434
 20
49.2706572018
 10
262.65520887
 20
47.378493463
 10
262.4481326614
 20
46.7491863878
  0
LWPOLYLINE
  5
263
330
1F
100
AcDbEntity
  8
0
  6
Continuous
 62
     7
370
     0
100
AcDbPolyline
 90
       25
 70
   128
 43
0.0
 10
254.4487828003
 20
32.8924045897
 10
253.3283895976
 20
31.6717708434
 10
251.941876371
 20
30.3056511913
 10
250.5188128148
 20
29.0562517153
 10
249.0694521343
 20
27.9325743672
 10
247.6042370065
 20
26.9427152679
 10
246.13372434
 20
26.0938063751
 10
244.6685092123
 20
25.3919640967
 10
243.2191485318
 20
24.8422452224
 10
241.7960849755
 20
24.4486104893
 10
240.409571749
 20
24.2138960448
 10
239.0695987118
 20
24.1397930116
 10
237.7858204004
 20
24.226835304
 10
236.5674864668
 20
24.4743957802
 10
235.4233750351
 20
24.8806907612
 10
234.3617294543
 20
25.4427928824
 10
233.3901989051
 20
26.1566521853
 10
232.5157832874
 20
27.017125297
 10
231.7447827858
 20
28.0180124892
 10
231.0827524766
 20
29.1521023467
 10
230.5344623032
 20
30.4112237261
 10
230.103862709
 20
31.7863046289
 10
229.7940561739
 20
33.2674375658
 10
229.6072748611
 20
34.8439509401
 10
229.5448645342
 20
36.5044859366
  0
LWPOLYLINE
  5
264
330
1F
100
AcDbEntity
  8
0
  6
Continuous
 62
     7
370
     0
100
AcDbPolyline
 90
       27
 70
   128
 43
0.0
 10
228.837757753
 20
36.5044859366
 10
228.8997558282
 20
38.2484360169
 10
229.0853151818
 20
40.0517349943
 10
229.3931342483
 20
41.9017340222
 10
229.821053898
 20
43.7854566867
 10
230.3660725822
 20
45.6896900267
 10
231.0243673862
 20
47.6010772135
 10
231.7913208452
 20
49.5062112393
 10
232.6615533315
 20
51.3917289579
 10
233.6289607896
 20
53.244404817
 10
234.6867575513
 20
55.0512436268
 10
235.8275239322
 20
56.7995717111
 10
237.0432582759
 20
58.4771258047
 10
238.3254330794
 20
60.0721390709
 10
239.6650548078
 20
61.5734236376
 10
241.0527269771
 20
62.9704490723
 10
242.4787160641
 20
64.2534162453
 10
243.9330197799
 20
65.4133260638
 10
245.4054372289
 20
66.4420425937
 10
246.8856404605
 20
67.3323501276
 10
248.3632469128
 20
68.0780037981
 10
249.827892238
 20
68.6737733802
 10
251.2693030015
 20
69.1154799784
 10
252.6773687425
 20
69.4000253384
 10
254.0422128915
 20
69.5254135788
 10
255.3542620475
 20
69.4907651913
 10
255.5246651062
 20
69.4740589234
  0
ARC
  5
265
330
1F
100
AcDbEntity
  8
0
  6
Continuous
 62
     7
370
     0
100
AcDbCircle
 10
244.2309232751
 20
35.8985431261
 30
0.0
 40
15.40508719477979
100
AcDbArc
 50
177.7457495802
 51
212.5890690703
  0
LWPOLYLINE
  5
266
330
1F
100
AcDbEntity
  8
0
  6
Continuous
 62
     7
370
     0
100
AcDbPolyline
 90
       23
 70
   128
 43
0.0
 10
240.151466252
 20
42.6275467753
 10
240.2140335438
 20
43.719929553
 10
240.400569909
 20
44.8642019639
 10
240.7076005281
 20
46.039048378
 10
241.1294060014
 20
47.2225836296
 10
241.6581288912
 20
48.3927606963
 10
242.2839200904
 20
49.5277813933
 10
242.995122293
 20
50.6065024326
 10
243.7784871476
 20
51.6088292822
 10
244.6194220491
 20
52.5160904895
 10
245.5022619715
 20
53.3113854947
 10
246.4105612774
 20
53.9798994567
 10
247.3274000692
 20
54.5091792252
 10
248.2356993751
 20
54.8893653195
 10
249.1185392974
 20
55.1133755922
 10
249.959474199
 20
55.1770371555
 10
250.7428390536
 20
55.0791641151
 10
251.4540412561
 20
54.8215796606
 10
252.0798324553
 20
54.4090821028
 10
252.6085553451
 20
53.849355491
 10
253.0303608185
 20
53.1528264727
 10
253.3373914375
 20
52.3324700657
 10
253.4306014641
 20
51.9548963414
  0
LWPOLYLINE
  5
267
330
1F
100
AcDbEntity
  8
0
  6
Continuous
 62
     7
370
     0
100
AcDbPolyline
 90
       11
 70
   128
 43
0.0
 10
245.431251603
 20
38.0981145433
 10
244.6194220491
 20
37.8975950207
 10
243.7784871476
 20
37.8339334574
 10
242.995122293
 20
37.9318064978
 10
242.2839200904
 20
38.1893909523
 10
241.6581288912
 20
38.6018885101
 10
241.1294060014
 20
39.1616151219
 10
240.7076005281
 20
39.8581441402
 10
240.400569909
 20
40.6785005472
 10
240.2140335438
 20
41.6074026551
 10
240.151466252
 20
42.6275467753
  0
LWPOLYLINE
  5
268
330
1F
100
AcDbEntity
  8
0
  6
Continuous
 62
     7
370
     0
100
AcDbPolyline
 90
       21
 70
   128
 43
0.0
 10
225.9541447734
 20
47.1177330826
 10
226.4237902851
 20
48.8771610131
 10
227.007958774
 20
50.6476168161
 10
227.7018720927
 20
52.4146192269
 10
228.4998544471
 20
54.1637152274
 10
229.3953788212
 20
55.8805982634
 10
230.3811203636
 20
57.5512252631
 10
231.4490163007
 20
59.1619315014
 10
232.5903318854
 20
60.6995423691
 10
233.7957318419
 20
62.1514811332
 10
235.055356723
 20
63.5058718069
 10
236.3589035538
 20
64.7516362883
 10
237.6957101045
 20
65.8785849724
 10
239.0548421008
 20
66.8775000961
 10
240.4251826594
 20
67.740211134
 10
241.7955232181
 20
68.4596616279
 10
243.1546552144
 20
69.0299669053
 10
244.4914617651
 20
69.4464622115
 10
245.7950085959
 20
69.7057408652
 10
247.0546334769
 20
69.8056821228
 10
247.2111513405
 20
69.8069156983
  0
LWPOLYLINE
  5
269
330
1F
100
AcDbEntity
  8
0
  6
Continuous
 62
     7
370
     0
100
AcDbPolyline
 90
       22
 70
   128
 43
0.0
 10
217.8404471901
 20
49.1931790907
 10
218.3192827809
 20
51.1418452269
 10
218.9211644972
 20
53.1076564206
 10
219.6416117449
 20
55.075978564
 10
220.4752612915
 20
57.0321588569
 10
221.4159071912
 20
58.9616348868
 10
222.4565469845
 20
60.8500430362
 10
223.5894338262
 20
62.6833254094
 10
224.8061341554
 20
64.4478344842
 10
226.0975904778
 20
66.1304347081
 10
227.4541887922
 20
67.7186002835
 10
228.8658301603
 20
69.2005084136
 10
230.3220058862
 20
70.5651273149
 10
231.8118757464
 20
71.8022983414
 10
233.3243486878
 20
72.9028116084
 10
234.8481653931
 20
73.8584745541
 10
236.3719820984
 20
74.6621729273
 10
237.8844550399
 20
75.3079237482
 10
239.3743249
 20
75.7909198474
 10
240.8305006259
 20
76.1075656525
 10
242.242141994
 20
76.2555039537
 10
243.5803482858
 20
76.2350986978
  0
LWPOLYLINE
  5
26A
330
1F
100
AcDbEntity
  8
0
  6
Continuous
 62
     7
370
     0
100
AcDbPolyline
 90
       19
 70
   128
 43
0.0
 10
226.346951149
 20
47.0600866257
 10
226.8341953663
 20
48.8644395849
 10
227.4425926196
 20
50.6794715478
 10
228.166815537
 20
52.4892893628
 10
229.0005225309
 20
54.2780455355
 10
229.9364133266
 20
56.0300769957
 10
230.966292887
 20
57.7300422496
 10
232.0811431716
 20
59.3630557161
 10
233.2712021017
 20
60.914818071
 10
234.5260490417
 20
62.3717414576
 10
235.8346960458
 20
63.7210684672
 10
237.1856840733
 20
64.9509838486
 10
238.5671833284
 20
66.050717967
 10
239.9670968466
 20
67.0106411069
 10
241.3731664208
 20
67.8223477945
 10
242.7730799391
 20
68.4787303986
 10
244.1545791941
 20
68.9740413687
 10
245.5055672216
 20
69.3039435622
 10
246.2786580829
 20
69.4192217639
  0
LINE
  5
26B
330
1F
100
AcDbEntity
  8
0
  6
Continuous
 62
     7
370
     0
100
AcDbLine
 10
226.2110218017
 20
36.6200671748
 30
0.0
 11
227.3705111821
 21
37.2894261463
 31
0.0
  0
LINE
  5
26C
330
1F
100
AcDbEntity
  8
0
  6
Continuous
 62
     7
370
     0
100
AcDbLine
 10
227.7558432522
 20
37.0858828744
 30
0.0
 11
227.3705111821
 21
37.2894261463
 31
0.0
  0
ARC
  5
26D
330
1F
100
AcDbEntity
  8
0
  6
Continuous
 62
     7
370
     0
100
AcDbCircle
 10
226.6453647211
 20
38.4653466996
 30
0.0
 40
1.381530505397572
100
AcDbArc
 50
301.6605905891
 51
324.2377952695
  0
LINE
  5
26E
330
1F
100
AcDbEntity
  8
0
  6
Continuous
 62
     7
370
     0
100
AcDbLine
 10
222.0748374864
 20
41.9795024218
 30
0.0
 11
227.6498405535
 21
38.7611216563
 31
0.0
  0
LINE
  5
26F
330
1F
100
AcDbEntity
  8
0
  6
Continuous
 62
     7
370
     0
100
AcDbLine
 10
222.0141773146
 20
41.9444726662
 30
0.0
 11
222.0748374864
 21
41.9795024218
 31
0.0
  0
LINE
  5
270
330
1F
100
AcDbEntity
  8
0
  6
Continuous
 62
     7
370
     0
100
AcDbLine
 10
221.7932064455
 20
46.7248949865
 30
0.0
 11
221.7942474727
 21
46.9106467185
 31
0.0
  0
LWPOLYLINE
  5
271
330
1F
100
AcDbEntity
  8
0
  6
Continuous
 62
     7
370
     0
100
AcDbPolyline
 90
        3
 70
   128
 43
0.0
 10
221.9279866576
 20
44.7016910077
 10
221.8565592817
 20
45.3189244868
 10
221.7932064455
 20
46.7248949865
  0
LWPOLYLINE
  5
272
330
1F
100
AcDbEntity
  8
0
  6
Continuous
 62
     7
370
     0
100
AcDbPolyline
 90
       18
 70
   128
 43
0.0
 10
190.8599867618
 20
70.5405135778
 10
190.9241154982
 20
71.6837659887
 10
191.1153573286
 20
72.8806584963
 10
191.4302995381
 20
74.1098325255
 10
191.8633219754
 20
75.3493534365
 10
192.4066973448
 20
76.5771019494
 10
193.0507291001
 20
77.7711688628
 10
193.7839244793
 20
78.9102460244
 10
194.5931995935
 20
79.9740065753
 10
195.4641129091
 20
80.9434676832
 10
196.3811229574
 20
81.8013292917
 10
197.3278656723
 20
82.53228284
 10
198.2874464076
 20
83.1232844448
 10
199.2427414225
 20
83.5637876685
 10
200.1767034546
 20
83.8459317205
 10
201.0726659295
 20
83.9646817337
 10
201.9146403756
 20
83.9179186111
 10
202.5778015389
 20
83.7481485756
  0
ARC
  5
273
330
1F
100
AcDbEntity
  8
0
  6
Continuous
 62
     7
370
     0
100
AcDbCircle
 10
196.2463067434
 20
70.094606535
 30
0.0
 40
5.404745695693792
100
AcDbArc
 50
175.2675545005
 51
224.8656241104
  0
LWPOLYLINE
  5
274
330
1F
100
AcDbEntity
  8
0
  6
Continuous
 62
     7
370
     0
100
AcDbPolyline
 90
        3
 70
   128
 43
0.0
 10
227.0198767683
 20
34.9507369153
 10
226.8341953663
 20
35.3289378025
 10
226.346951149
 20
36.5707305628
  0
LWPOLYLINE
  5
275
330
1F
100
AcDbEntity
  8
0
  6
Continuous
 62
     7
370
     0
100
AcDbPolyline
 90
        3
 70
   128
 43
0.0
 10
226.9341898146
 20
34.4330967679
 10
226.4237902851
 20
35.4079968854
 10
225.9541447734
 20
36.6251836499
  0
LINE
  5
276
330
1F
100
AcDbEntity
  8
0
  6
Continuous
 62
     7
370
     0
100
AcDbLine
 10
227.3705111821
 20
37.2894261463
 30
0.0
 11
221.660623924
 21
40.5856738978
 31
0.0
  0
ARC
  5
277
330
1F
100
AcDbEntity
  8
0
  6
Continuous
 62
     7
370
     0
100
AcDbCircle
 10
229.5089529396
 20
41.2517468017
 30
0.0
 40
12.09715026325426
100
AcDbArc
 50
195.2980304775
 51
214.568481162
  0
OLE2FRAME
  5
278
330
1F
100
AcDbEntity
  8
0
100
AcDbOle2Frame
 70
     2
  3
Paintbrush-Bild
 10
13.8511154363
 20
38.264191557
 30
0.0
 11
51.6290888628
 21
31.9806341108
 31
0.0
 71
     2
 72
     0
 73
     1
 90
    12928
310
80552BED0767C5B32B40DDAF6807D121434000000000000000006FFBDDFB85D0
310
4940DDAF6807D121434000000000000000006FFBDDFB85D04940416F4BD60AFB
310
3F4000000000000000002BED0767C5B32B40416F4BD60AFB3F40000000000000
310
0000000000000100000000010000010000000100000000000100000000320000
310
D0CF11E0A1B11AE1000000000000000000000000000000003E000300FEFF0900
310
0600000000000000000000000100000001000000000000000010000002000000
310
01000000FEFFFFFF0000000000000000FFFFFFFFFFFFFFFFFFFFFFFFFFFFFFFF
310
FFFFFFFFFFFFFFFFFFFFFFFFFFFFFFFFFFFFFFFFFFFFFFFFFFFFFFFFFFFFFFFF
310
FFFFFFFFFFFFFFFFFFFFFFFFFFFFFFFFFFFFFFFFFFFFFFFFFFFFFFFFFFFFFFFF
310
FFFFFFFFFFFFFFFFFFFFFFFFFFFFFFFFFFFFFFFFFFFFFFFFFFFFFFFFFFFFFFFF
310
FFFFFFFFFFFFFFFFFFFFFFFFFFFFFFFFFFFFFFFFFFFFFFFFFFFFFFFFFFFFFFFF
310
FFFFFFFFFFFFFFFFFFFFFFFFFFFFFFFFFFFFFFFFFFFFFFFFFFFFFFFFFFFFFFFF
310
FFFFFFFFFFFFFFFFFFFFFFFFFFFFFFFFFFFFFFFFFFFFFFFFFFFFFFFFFFFFFFFF
310
FFFFFFFFFFFFFFFFFFFFFFFFFFFFFFFFFFFFFFFFFFFFFFFFFFFFFFFFFFFFFFFF
310
FFFFFFFFFFFFFFFFFFFFFFFFFFFFFFFFFFFFFFFFFFFFFFFFFFFFFFFFFFFFFFFF
310
FFFFFFFFFFFFFFFFFFFFFFFFFFFFFFFFFFFFFFFFFFFFFFFFFFFFFFFFFFFFFFFF
310
FFFFFFFFFFFFFFFFFFFFFFFFFFFFFFFFFFFFFFFFFFFFFFFFFFFFFFFFFFFFFFFF
310
FFFFFFFFFFFFFFFFFFFFFFFFFFFFFFFFFFFFFFFFFFFFFFFFFFFFFFFFFFFFFFFF
310
FFFFFFFFFFFFFFFFFFFFFFFFFFFFFFFFFFFFFFFFFFFFFFFFFFFFFFFFFFFFFFFF
310
FFFFFFFFFFFFFFFFFFFFFFFFFFFFFFFFFFFFFFFFFFFFFFFFFFFFFFFFFFFFFFFF
310
FDFFFFFFFEFFFFFFFEFFFFFFFEFFFFFF05000000060000000700000008000000
310
090000000A0000000B0000000C0000000D0000000E0000000F00000010000000
310
11000000120000001300000014000000150000001600000017000000FEFFFFFF
310
FFFFFFFFFFFFFFFFFFFFFFFFFFFFFFFFFFFFFFFFFFFFFFFFFFFFFFFFFFFFFFFF
310
FFFFFFFFFFFFFFFFFFFFFFFFFFFFFFFFFFFFFFFFFFFFFFFFFFFFFFFFFFFFFFFF
310
FFFFFFFFFFFFFFFFFFFFFFFFFFFFFFFFFFFFFFFFFFFFFFFFFFFFFFFFFFFFFFFF
310
FFFFFFFFFFFFFFFFFFFFFFFFFFFFFFFFFFFFFFFFFFFFFFFFFFFFFFFFFFFFFFFF
310
FFFFFFFFFFFFFFFFFFFFFFFFFFFFFFFFFFFFFFFFFFFFFFFFFFFFFFFFFFFFFFFF
310
FFFFFFFFFFFFFFFFFFFFFFFFFFFFFFFFFFFFFFFFFFFFFFFFFFFFFFFFFFFFFFFF
310
FFFFFFFFFFFFFFFFFFFFFFFFFFFFFFFFFFFFFFFFFFFFFFFFFFFFFFFFFFFFFFFF
310
FFFFFFFFFFFFFFFFFFFFFFFFFFFFFFFFFFFFFFFFFFFFFFFFFFFFFFFFFFFFFFFF
310
FFFFFFFFFFFFFFFFFFFFFFFFFFFFFFFFFFFFFFFFFFFFFFFFFFFFFFFFFFFFFFFF
310
FFFFFFFFFFFFFFFFFFFFFFFFFFFFFFFFFFFFFFFFFFFFFFFFFFFFFFFFFFFFFFFF
310
FFFFFFFFFFFFFFFFFFFFFFFFFFFFFFFFFFFFFFFFFFFFFFFFFFFFFFFFFFFFFFFF
310
FFFFFFFFFFFFFFFFFFFFFFFFFFFFFFFFFFFFFFFFFFFFFFFFFFFFFFFFFFFFFFFF
310
FFFFFFFFFFFFFFFFFFFFFFFFFFFFFFFFFFFFFFFFFFFFFFFFFFFFFFFFFFFFFFFF
310
52006F006F007400200045006E00740072007900000000000000000000000000
310
0000000000000000000000000000000000000000000000000000000000000000
310
16000500FFFFFFFFFFFFFFFF020000000A00030000000000C000000000000046
310
00000000000000000000000020016EFFEA25D20103000000C000000000000000
310
01004F006C006500000000000000000000000000000000000000000000000000
310
0000000000000000000000000000000000000000000000000000000000000000
310
0A000200FFFFFFFFFFFFFFFFFFFFFFFF00000000000000000000000000000000
310
0000000000000000000000000000000000000000000000001400000000000000
310
010043006F006D0070004F0062006A0000000000000000000000000000000000
310
0000000000000000000000000000000000000000000000000000000000000000
310
120002010100000003000000FFFFFFFF00000000000000000000000000000000
310
0000000000000000000000000000000000000000010000004D00000000000000
310
01004F006C006500310030004E00610074006900760065000000000000000000
310
0000000000000000000000000000000000000000000000000000000000000000
310
1A000200FFFFFFFFFFFFFFFFFFFFFFFF00000000000000000000000000000000
310
0000000000000000000000000000000000000000040000002426000000000000
310
FEFFFFFF02000000FEFFFFFFFFFFFFFFFFFFFFFFFFFFFFFFFFFFFFFFFFFFFFFF
310
FFFFFFFFFFFFFFFFFFFFFFFFFFFFFFFFFFFFFFFFFFFFFFFFFFFFFFFFFFFFFFFF
310
FFFFFFFFFFFFFFFFFFFFFFFFFFFFFFFFFFFFFFFFFFFFFFFFFFFFFFFFFFFFFFFF
310
FFFFFFFFFFFFFFFFFFFFFFFFFFFFFFFFFFFFFFFFFFFFFFFFFFFFFFFFFFFFFFFF
310
FFFFFFFFFFFFFFFFFFFFFFFFFFFFFFFFFFFFFFFFFFFFFFFFFFFFFFFFFFFFFFFF
310
FFFFFFFFFFFFFFFFFFFFFFFFFFFFFFFFFFFFFFFFFFFFFFFFFFFFFFFFFFFFFFFF
310
FFFFFFFFFFFFFFFFFFFFFFFFFFFFFFFFFFFFFFFFFFFFFFFFFFFFFFFFFFFFFFFF
310
FFFFFFFFFFFFFFFFFFFFFFFFFFFFFFFFFFFFFFFFFFFFFFFFFFFFFFFFFFFFFFFF
310
FFFFFFFFFFFFFFFFFFFFFFFFFFFFFFFFFFFFFFFFFFFFFFFFFFFFFFFFFFFFFFFF
310
FFFFFFFFFFFFFFFFFFFFFFFFFFFFFFFFFFFFFFFFFFFFFFFFFFFFFFFFFFFFFFFF
310
FFFFFFFFFFFFFFFFFFFFFFFFFFFFFFFFFFFFFFFFFFFFFFFFFFFFFFFFFFFFFFFF
310
FFFFFFFFFFFFFFFFFFFFFFFFFFFFFFFFFFFFFFFFFFFFFFFFFFFFFFFFFFFFFFFF
310
FFFFFFFFFFFFFFFFFFFFFFFFFFFFFFFFFFFFFFFFFFFFFFFFFFFFFFFFFFFFFFFF
310
FFFFFFFFFFFFFFFFFFFFFFFFFFFFFFFFFFFFFFFFFFFFFFFFFFFFFFFFFFFFFFFF
310
FFFFFFFFFFFFFFFFFFFFFFFFFFFFFFFFFFFFFFFFFFFFFFFFFFFFFFFFFFFFFFFF
310
FFFFFFFFFFFFFFFFFFFFFFFFFFFFFFFFFFFFFFFFFFFFFFFFFFFFFFFFFFFFFFFF
310
0100000200000000000000000000000000000000000000000000000000000000
310
0000000000000000000000000000000000000000000000000000000000000000
310
0100FEFF030A0000FFFFFFFF0A00030000000000C00000000000004607000000
310
5042727573680007000000504272757368000700000050427275736800F439B2
310
7100000000000000000000000000000000000000000000000000000000000000
310
0000000000000000000000000000000000000000000000000000000000000000
310
0000000000000000000000000000000000000000000000000000000000000000
310
0000000000000000000000000000000000000000000000000000000000000000
310
0000000000000000000000000000000000000000000000000000000000000000
310
0000000000000000000000000000000000000000000000000000000000000000
310
0000000000000000000000000000000000000000000000000000000000000000
310
0000000000000000000000000000000000000000000000000000000000000000
310
0000000000000000000000000000000000000000000000000000000000000000
310
0000000000000000000000000000000000000000000000000000000000000000
310
0000000000000000000000000000000000000000000000000000000000000000
310
0000000000000000000000000000000000000000000000000000000000000000
310
20260000424D0E260000000000003E00000028000000B40200006E0000000100
310
01000000000000000000130B0000130B00000200000002000000000000FFFFFF
310
FFFFFFFFFFFFFFFFFFFFFFFFFFFFFFFFFFFFFFFFFFFFFFFFFFFFFFFFFFFFFFFF
310
FFFFFFFFFFFFFFFFFFFFFFFFFFFFFFFFFFFFFFFFFFFFFFFFFFFFFFFFFFFFFFFF
310
FFFFFFFFFFFFFFFFFFFFFFFFFFFFFFFFFFFFFFFFFFFFFFFFF000FFFFFFFFFFFF
310
FFFFFFFFFFFFFFFFFFFFFFFFFFFFFFFFFFFFFFFFFFFFFFFFFFFFFFFFFFFFFFFF
310
FFFFFFFFFFFFFFFFFFFFFFFFFFFFFFFFFFFFFFFFFFFFFFFFFFFFFFFFFFFFFFFF
310
FFFFFFFFFFFFFFFFFFFFFFFFFFFFFFFFF000FFFFFFFFFFFFFFFFFFFFFFFFFFFF
310
FFFFFFFFFFFFFFFFFFFFFFFFFFFFFFFFFFFFFFFFFFFFFFFFFFFFFFFFFFFFFFFF
310
FFFFFFFFFFFFFFFFFFFFFFFFFFFFFFFFFFFFFFFFFFFFFFFFFFFFFFFFFFFFFFFF
310
FFFFFFFFFFFFFFFFF000FFFFFFFFFFFFFFFFFFFFFFFFFFFFFFFFFFFFFFFFFFFF
310
FFFFFFFFFFFFFFFFFFFFFFFFFFFFFFFFFFFFFFFFFFFFFFFFFFFFFFFFFFFFFFFF
310
FFFFFFFFFFFFFFFFFFFFFFFFFFFFFFFFFFFFFFFFFFFFFFFFFFFFFFFFFFFFFFFF
310
F000FFFFFFFFFFFFFFFFFFFFFFFFFFFFFFFFFFFFFFFFFFFFFFFFFFFFFFFFFFFF
310
FFFFFFFFFFFFFFFFFFFFFFFFFFFFFFFFFFFFFFFFFFFFFFFFFFFFFFFFFFFFFFFF
310
FFFFFFFFFFFFFFFFFFFFFFFFFFFFFFFFFFFFFFFFFFFFFFFFF000FFFFFFFFFFFF
310
FFFFFFFFFFFFFFFFFFFFFFFFFFFFFFFFFFFFFFFFFFFFFFFFFFFFFFFFFFFFFFFF
310
FFFFFFFFFFFFFFFFFFFFFFFFFFFFFFFFFFFFFFFFFFFFFFFFFFFFFFFFFFFFFFFF
310
FFFFFFFFFFFFFFFFFFFFFFFFFFFFFFFFF000FFFFFFFFFFFFFFFFFFFFFFFFFFFF
310
FFFFFFFFFFFFFFFFFFFFFFFFFFFFFFFFFFFFFFFFFFFFFFFFFFFFFFFFFFFFFFFF
310
FFFFFFFFFFFFFFFFFFFFFFFFFFFFFFFFFFFFFFFFFFFFFFFFFFFFFFFFFFFFFFFF
310
FFFFFFFFFFFFFFFFF000FFFFFFFFFFFFFFFFFFFFFFFFFFFFFFFFFFFFFFFFFFFF
310
FFFFFFFFFFFFFFFFFFFFFFFFFFFFFFFFFFFFFFFFFFFFFFFFFFFFFFFFFFFFFFFF
310
FFFFFFFFFFFFFFFFFFFFFFFFFFFFFFFFFFFFFFFFFFFFFFFFFFFFFFFFFFFFFFFF
310
F000FFFFFFFFFFFFFFFFFFFFFFFFFFFFFFFFFFFFFFFFFFFFFFFFFFFFFFFFFFFF
310
FFFFFFFFFFFFFFFFFFFFFFFFFFFFFFFFFFFFFFFFFFFFFFFFFFFFFFFFFFFFFFFF
310
FFFFFFFFFFFFFFFFFFFFFFFFFFFFFFFFFFFFFFFFFFFFFFFFF000FFFFFFFFFFFF
310
FFFFFFFFFFFFFFFFFFFFFFFFFFFFFFFFFFFFFFFFFFFFFFFFFFFFFFFFFFFFFFFF
310
FFFFFFFFFFFFFFFFFFFFFFFFFFFFFFFFFFFFFFFFFFFFFFFFFFFFFFFFFFFFFFFF
310
FFFFFFFFFFFFFFFFFFFFFFFFFFFFFFFFF000FFFFFFFFFFFFFFFFFFFFFFFFFFFF
310
FFFFFFFFFFFFFFFFFFFFFFFFFFFFFFFFFFFFFFFFFFFFFFFFFFFFFFFFFFFFFFFF
310
FFFFFFFFFFFFFFFFFFFFFFFFFFFFFFFFFFFFFFFFFFFFFFFFFFFFFFFFFFFFFFFF
310
FFFFFFFFFFFFFFFFF000FFFFFFFFFFFFFFFFFFFFFFFFFFFFFFFFFFFFFFFFFFFF
310
FFFFFFFFFFFFFFFFFFFFFFFFFFFFFFFFFFFFFFFFFFFFFFFFFFFFFFFFFFFFFFFF
310
FFFFFFFFFFFFFFFFFFFFFFFFFFFFFFFFFFFFFFFFFFFFFFFFFFFFFFFFFFFFFFFF
310
F000FFFFFFFFFFFFFFFFFFFFFFFFFFFFFFFFFFFFFFFFFFFFFFFFFFFFFFFFFFFF
310
FFFFFFFFFFFFFFFFFFFFFFFFFFFFFFFFFFFFFFFFFFFFFFFFFFFFFFFFFFFFFFFF
310
FFFFFFFFFFFFFFFFFFFFFFFFFFFFFFFFFFFFFFFFFFFFFFFFF000FFFFFFFFFFFF
310
FFFFFFFFFFFFFFFFFFFFFFFFFFFFFFFFFFFFFFFFFFFFFFFFFFFFFFFFFFFFFFFF
310
FFFFFFFFFFFFFFFFFFFFFFFFFFFFFFFFFFFFFFFFFFFFFFFFFFFFFFFFFFFFFFFF
310
FFFFFFFFFFFFFFFFFFFFFFFFFFFFFFFFF000FFFFFFFFFFFFFFFFFFFFFFFFFFFF
310
FFFFFFFFFFFFFFFFFFFFFFFFFFFFFFFFFFFFFFFFFFFFFFFFFFFFFFFFFFFFFFFF
310
FFFFFFFFFFFFFFFFFFFFFFFFFFFFFFFFFFFFFFFFFFFFFFFFFFFFFFFFFFFFFFFF
310
FFFFFFFFFFFFFFFFF000FFFFFFFFFFFFFFFFFFFFFFFFFFFFFFFFFFFFFFFFFFFF
310
FFFFFFFFFFFFFFFFFFFFFFFFFFFFFFFFFFFFFFFFFFFFFFFFFFFFFFFFFFFFFFFF
310
FFFFFFFFFFFFFFFFFFFFFFFFFFFFFFFFFFFFFFFFFFFFFFFFFFFFFFFFFFFFFFFF
310
F000FFFFFFFFFFFFFFFFFFFFFFFFFFFFFFFFFFFFFFFFFFFFFFFFFFFFFFFFFFFF
310
FFFFFFFFFFFFFFFFFFFFFFFFFFFFFFFFFFFFFFFFFFFFFFFFFFFFFFFFFFFFFFFF
310
FFFFFFFFFFFFFFFFFFFFFFFFFFFFFFFFFFFFFFFFFFFFFFFFF000FFFFFFFFFFFF
310
FFFFFFFFFFFFFFFFFFFFFFFFFFFFFFFFFFFFFFFFFFFFFFFFFFFFFFFFFFFFFFFF
310
FFFFFFFFFFFFFFFFFFFFFFFFFFFFFFFFFFFFFFFFFFFFFFFFFFFFFFFFFFFFFFFF
310
FFFFFFFFFFFFFFFFFFFFFFFFFFFFFFFFF000FFFFFFFFFFFFFFFFFFFFFFFFFFFF
310
FFFFFFFFFFFFFFFFFFFFFFFFFFFFFFFFFFFFFFFFFFFFFFFFFFFFFFFFFFFFFFFF
310
FFFFFFFFFFFFFFFFFFFFFFFFFFFFFFFFFFFFFFFFFFFFFFFFFFFFFFFFFFFFFFFF
310
FFFFFFFFFFFFFFFFF000FFFFF80003FFFFFFFFFFFFFFFFFFFFFFFFFFFFFFFFFF
310
FFFFF00007FFFFFFFFFF00007FFFFFF800000000000000007FFFFFFFFFFFFFFF
310
FFFFFFFC001FFFFFFFFFFFFFFC001FFFFFFFFFFFFFFFFFFFFFFFFFFE0007FFFF
310
F000FFFF8000007FFFFFFFF8000FFFFFC0007FFFFF80007FFFFF0000007FFFFF
310
FFF8000007FFFFF800000000000000007FFFFFF0001FFFFFFFFFFFC00001FFFF
310
FFFFFFFFC00001FFFFFFFF000000000003FFFFE000007FFFF000FFFE0000000F
310
FFFFFFF0000FFFFF80007FFFFF80007FFFFC0000001FFFFFFFC0000001FFFFF8
310
00000000000000007FFFFFF0001FFFFFFFFFFE0000003FFFFFFFFFFE0000003F
310
FFFFFF000000000003FFFF0000000FFFF000FFF800000003FFFFFFF00007FFFF
310
80007FFFFF80007FFFF000000007FFFFFF000000003FFFF80000000000000000
310
7FFFFFF0001FFFFFFFFFF80000000FFFFFFFFFF80000000FFFFFFF0000000000
310
03FFFC00000003FFF000FFE000000000FFFFFFF00007FFFF80003FFFFF80007F
310
FFC000000001FFFFFC000000001FFFF800000000000000007FFFFFF0001FFFFF
310
FFFFE000000003FFFFFFFFE000000003FFFFFF000000000003FFF000000000FF
310
F000FF80000000007FFFFFF00007FFFF80003FFFFF80007FFF8000000000FFFF
310
F80000000007FFF800000000000000007FFFFFF0001FFFFFFFFFC000000001FF
310
FFFFFFC000000001FFFFFF000000000003FFC0000000007FF000FF0000000000
310
3FFFFFE00007FFFF00003FFFFF80007FFE00000000003FFFF00000000003FFF8
310
00000000000000007FFFFFF0001FFFFFFFFF8000000000FFFFFFFF8000000000
310
FFFFFF000000000003FF80000000003FF000FE00000000001FFFFFE00003FFFF
310
00003FFFFF80007FFC00000000001FFFE00000000001FFF8000001FFFE000000
310
7FFFFFF0001FFFFFFFFE00000000003FFFFFFE00000000003FFFFF0000000000
310
03FF00000000001FF000FC00000000000FFFFFE00003FFFF00001FFFFF80007F
310
F800000000001FFFC00000000000FFF8000001FFFE0000007FFFFFF0001FFFFF
310
FFFC00000000001FFFFFFC00000000001FFFFF000000000003FE00000000000F
310
F000F8000000000007FFFFE00003FFFF00001FFFFF80007FF800000000000FFF
310
800000000000FFF8000001FFFE0000007FFFFFF0001FFFFFFFF800000000000F
310
FFFFF800000000000FFFFF000000000003FC000000000007F000F80000000000
310
03FFFFC00003FFFE00001FFFFF80007FF0000000000007FF0000000000007FF8
310
000001FFFE0000007FFFFFF0001FFFFFFFF0000000000007FFFFF00000000000
310
07FFFF000000000003F8000000000003F000F0000000000003FFFFC00001FFFE
310
00001FFFFF80007FE0000000000007FE0000000000003FF8000001FFFE000000
310
7FFFFFF0001FFFFFFFF0000000000007FFFFF0000000000007FFFF0000000000
310
03F800001F800003F000E00001FFF00001FFFFC00001FFFE00000FFFFF80007F
310
E00001FFE00003FE00001FFF00003FF8000001FFFE0000007FFFFFF0001FFFFF
310
FFE000003E000003FFFFE000003E000003FFFF000000000003F00001FFF80001
310
F000E00007FFFC0001FFFFC00001FFFE00000FFFFF80007FC0000FFFFC0003FC
310
0000FFFFC0001FF8000001FFFE0000007FFFFFF0001FFFFFFFC00003FFE00001
310
FFFFC00003FFE00001FFFF0001FFFFFFFFF00007FFFE0001F000E0000FFFFF00
310
00FFFF800001FFFC00000FFFFF80007FC0001FFFFE0001FC0001FFFFE0001FF8
310
000001FFFE0000007FFFFFF0001FFFFFFF80000FFFF80000FFFF80000FFFF800
310
00FFFF0003FFFFFFFFE0000FFFFF8000F000C0003FFFFF8000FFFF800000FFFC
310
000007FFFF80007F80003FFFFF0001FC0003FFFFF0001FF8000001FFFE000000
310
7FFFFFF0001FFFFFFF80003FFFFE0000FFFF80003FFFFE0000FFFF0003FFFFFF
310
FFE0003FFFFF8000F000C0003FFFFF8000FFFF800000FFFC000007FFFF80007F
310
80007FFFFF8001F80007FFFFF8000FF8000001FFFE0000007FFFFFF0001FFFFF
310
FF00007FFFFF00007FFF00007FFFFF00007FFF0003FFFFFFFFE0003FFFFFC000
310
F000C0007FFFFFC000FFFF000000FFFC000007FFFF80007F8000FFFFFF8000F8
310
000FFFFFF8000FF8000001FFFE0000007FFFFFF0001FFFFFFF0000FFFFFF8000
310
7FFF0000FFFFFF80007FFF0003FFFFFFFFC0007FFFFFC00070008000FFFFFFC0
310
00FFFF000000FFF8000007FFFF80007F8000FFFFFF8000F8000FFFFFF8000FF8
310
000001FFFE0000007FFFFFF0001FFFFFFE0001FFFFFFC0003FFE0001FFFFFFC0
310
003FFF0003FFFFFFFFC0007FFFFFE00070008000FFFFFFC0007FFF0000007FF8
310
000003FFFF80007F0001FFFFFF8000F8000FFFFFF8000FF8000001FFFE000000
310
7FFFFFF0001FFFFFFE0001FFFFFFC0003FFE0001FFFFFFC0003FFF0003FFFFFF
310
FFC000FFFFFFE00070008000FFFFFFC0007FFF0000007FF8000003FFFF80007F
310
0001FFFFFF8000F8001FFFFFF8000FF8000001FFFE0000007FFFFFF0001FFFFF
310
FE0003FFFFFFE0003FFE0003FFFFFFE0003FFF0003FFFFFFFFC000FFFFFFE000
310
70008000FFFFFFC0007FFE0000007FF8000003FFFF80007F0001FFFFFF8000F0
310
001FFFFFF8000FF8000001FFFE0000007FFFFFF0001FFFFFFC0003FFFFFFE000
310
1FFC0003FFFFFFE0001FFF0003FFFFFFFFC000FFFFFFC00070008000FFFFFF80
310
007FFE0000007FF0000003FFFF80007F0001FFFFFF0000F0001FFFFFF8000FF8
310
000001FFFE0000007FFFFFF0001FFFFFFC0007FFFFFFF0001FFC0007FFFFFFF0
310
001FFF0003FFFFFFFFC000FFFFFFC00070008001FFFFFF0000FFFE0000003FF0
310
000001FFFF80007F0001FFFFFF0000F8001FFFFFF0000FF8000001FFFE000000
310
7FFFFFF0001FFFFFFC0007FFFFFFF0001FFC0007FFFFFFF0001FFF0003FFFFFF
310
FFC001FFFFFF80007000FFFFFFFFFE0000FFFE0008003FF0008001FFFF80007F
310
FFFFFFFFFC0000FFFFFFFFFFE0000FF8000001FFFE0000007FFFFFF0001FFFFF
310
F8000FFFFFFFF8000FF8000FFFFFFFF8000FFF0003FFFFFFFFFFFFFFFFFF0000
310
7000FFFFFFFFFC0000FFFC0008003FF0008001FFFF80007FFFFFFFFFF80001FF
310
FFFFFFFF80000FF8000001FFFE0000007FFFFFF0001FFFFFF8000FFFFFFFF800
310
0FF8000FFFFFFFF8000FFF0003FFFFFFFFFFFFFFFFFE0000F000FFFFFFFFE000
310
00FFFC000C003FE000C001FFFF80007FFFFFFFFFC00001FFFFFFFFFE00001FF8
310
000001FFFE0000007FFFFFF0001FFFFFF8000FFFFFFFF8000FF8000FFFFFFFF8
310
000FFF0003FFFFFFFFFFFFFFFFF00000F000FFFFFFFE000001FFFC000C001FE0
310
00C000FFFF80007FFFFFFFFE000001FFFFFFFFE000001FF80FFFFFFFFFFFFFC0
310
7FFFFFF0001FFFFFF8000FFFFFFFF8000FF8000FFFFFFFF8000FFF0003FFFFFF
310
FFFFFFFFFF800000F000FFFFFFC0000001FFFC001C001FE001C000FFFF80007F
310
FFFFFF80000003FFFFFFF80000001FF80FFFFFFFFFFFFFC07FFFFFF0001FFFFF
310
F8001FFFFFFFFC000FF8001FFFFFFFFC000FFF0003FFFFFFFFFFFFFFF0000001
310
F000FFFFF800000001FFF8001C001FE001C000FFFF80007FFFFFF800000003FF
310
FFFF800000003FF80FFFFFFFFFFFFFC07FFFFFF0001FFFFFF8001FFFFFFFFC00
310
0FF8001FFFFFFFFC000FFF0003FFFFFFFFFFFFFE00000001F000FFFFC0000000
310
03FFF8001E001FC001E000FFFF80007FFFFF8000000007FFFFFC000000003FF8
310
0FFFFFFFFFFFFFC07FFFFFF0001FFFFFF8001FFFFFFFFC000FF8001FFFFFFFFC
310
000FFF0003FFFFFFFFFFFFE000000003F000FFFE0000000007FFF8001E000FC0
310
01E0007FFF80007FFFFE0000000007FFFFE0000000007FF80FFFFFFFFFFFFFC0
310
7FFFFFF0001FFFFFF0001FFFFFFFFC0007F0001FFFFFFFFC0007FF0003FFFFFF
310
FFFFFF0000000003F000FFF80000000007FFF8001E000FC003E0007FFF80007F
310
FFF0000000000FFFFF8000000000FFF80FFFFFFFFFFFFFC07FFFFFF0001FFFFF
310
F0001FFFFFFFFC0007F0001FFFFFFFFC0007FF0003FFFFFFFFFFFC0000000007
310
F000FFE0000000000FFFF0003E000FC003E0007FFF80007FFFC0000000001FFF
310
FE0000000001FFF80FFFFFFFFFFFFFC07FFFFFF0001FFFFFF0001FFFFFFFFC00
310
07F0001FFFFFFFFC0007FF0003FFFFFFFFFFF0000000000FF000FFC000000000
310
1FFFF0003F000F8003F0003FFF80007FFF80000000003FFFF80000000003FFF8
310
0FFFFFFFFFFFFFC07FFFFFF0001FFFFFF0001FFFFFFFFC0007F0001FFFFFFFFC
310
0007FF0003FFFFFFFFFFE0000000001FF000FF00000000007FFFF0003F000780
310
03F0003FFF80007FFF00000000007FFFF00000000007FFF80FFFFFFFFFFFFFC0
310
7FFFFFF0001FFFFFF0001FFFFFFFFC0007F0001FFFFFFFFC0007FF0003FFFFFF
310
FFFF80000000007FF000FE0000000000FFFFE0003F00078007F0003FFF80007F
310
FE0000000001FFFFE0000000001FFFF80FFFFFFFFFFFFFC07FFFFFF0001FFFFF
310
F0001FFFFFFFFC0007F0001FFFFFFFFC0007FF0003FFFFFFFFFF0000000000FF
310
F000FC0000000003FFFFE0007F00078007F0003FFF80007FFC0000000007FFFF
310
C0000000007FFFF80FFFFFFFFFFFFFC07FFFFFF0001FFFFFF8001FFFFFFFFC00
310
0FF8001FFFFFFFFC000FFF0003FFFFFFFFFE0000000003FFF000FC000000000F
310
FFFFE0007F80070007F8001FFF80007FF8000000001FFFFF8000000001FFFFF8
310
0FFFFFFFFFFFFFC07FFFFFF0001FFFFFF8001FFFFFFFFC000FF8001FFFFFFFFC
310
000FFF0003FFFFFFFFFC000000000FFFF000F8000000007FFFFFE0007F800700
310
07F8001FFF80007FF000000000FFFFFF800000000FFFFFF80FFFFFFFFFFFFFC0
310
7FFFFFF0001FFFFFF8000FFFFFFFF8000FF8000FFFFFFFF8000FFF0003FFFFFF
310
FFFC000000007FFFF000F800000007FFFFFFC0007F8003000FF8001FFF80007F
310
F000000007FFFFFF000000007FFFFFF80FFFFFFFFFFFFFC07FFFFFF0001FFFFF
310
F8000FFFFFFFF8000FF8000FFFFFFFF8000FFF0003FFFFFFFFF80000000FFFFF
310
F000F0000000FFFFFFFFC000FF8003000FF8001FFF80007FE0000000FFFFFFFF
310
0000000FFFFFFFF8000001FFFE0000007FFFFFF0001FFFFFF8000FFFFFFFF800
310
0FF8000FFFFFFFF8000FFF0003FFFFFFFFF8000000FFFFFFF000F000000FFFFF
310
FFFFC000FFC002000FF8000FFF80007FE000001FFFFFFFFE000001FFFFFFFFF8
310
000001FFFE0000007FFFFFF0001FFFFFF8000FFFFFFFF8000FF8000FFFFFFFF8
310
000FFF0003FFFFFFFFF000001FFFFFFFF000E00000FFFFFFFFFFC000FFC00200
310
0FFC000FFF80007FE00001FFFFFFFFFE00001FFFFFFFFFF8000001FFFE000000
310
7FFFFFF0001FFFFFFC000FFFFFFFF8001FFC000FFFFFFFF8001FFF0003FFFFFF
310
FFF00001FFFFFFFFF000E00007FFFFFFFFFF8000FFC000001FFC000FFF80007F
310
C0000FFFFFFFFFFE0000FFFFFFFFFFF8000001FFFE0000007FFFFFF0001FFFFF
310
FC0007FFFFFFF0001FFC0007FFFFFFF0001FFF0003FFFFFFFFF00007FFFFFFFF
310
F000E0001FFFFFFFFFFF8000FFC000001FFC000FFF80007FC0003FFFFFFFFFFE
310
0001FFFFFFFFFFF8000001FFFE0000007FFFFFF0001FFFFFFC0007FFFFFFF000
310
1FFC0007FFFFFFF0001FFF0003FFFFFFFFF0001FFFFFFFFFF000E0003FFFFF00
310
03FF8001FFE000001FFC0007FF80007FC0007FFFFF0007FC0003FFFFF0003FF8
310
000001FFFE0000007FFFFFF0001FFFFFFC0003FFFFFFE0001FFC0003FFFFFFE0
310
001FFF0003FFFFFFFFF0003FFFFFFFFFF000E0003FFFFF0001FF8001FFE00000
310
1FFE0007FF80007FC0007FFFFE0003FC0007FFFFE0003FF8000001FFFE000000
310
7FFFFFF0001FFFFFFE0003FFFFFFE0003FFE0003FFFFFFE0003FFF0003FFFFFF
310
FFF0003FFFFF8001F000E0003FFFFF0001FF0001FFE000001FFE0007FF80007F
310
C0007FFFFE0003FC0007FFFFE0003FF8000001FFFE0000007FFFFFF0001FFFFF
310
FE0001FFFFFFC0003FFE0001FFFFFFC0003FFF0003FFFFFFFFF0003FFFFF0001
310
F000E0003FFFFF0003FF0001FFE000003FFE0007FF80007FC0007FFFFE0003FC
310
0007FFFFE0003FF8000001FFFE0000007FFFFFF0001FFFFFFF0001FFFFFFC000
310
7FFF0001FFFFFFC0007FFF0003FFFFFFFFF0003FFFFF0001F000E0003FFFFE00
310
03FF0003FFF000003FFE0003FF80007FC0007FFFFC0003FE0007FFFFE0003FF8
310
000001FFFE0000007FFFFFF0001FFFFFFF0000FFFFFF80007FFF0000FFFFFF80
310
007FFF0003FFFFFFFFF0003FFFFF0001F000E0003FFFFE0003FF0003FFF00000
310
3FFF0003FF80007FC0007FFFFC0007FE0007FFFFC0003FF8000001FFFE000000
310
7FFFFFF0001FFFFFFF80007FFFFF0000FFFF80007FFFFF0000FFFF0003FFFFFF
310
FFF0003FFFFF0003F000E0003FFFFC0003FE0003FFF000003FFF0003FF80007F
310
E0003FFFF80007FE0003FFFFC0007FF8000001FFFE0000007FFFFFF0001FFFFF
310
FF80003FFFFE0000FFFF80003FFFFE0000FFFF0003FFFFFFFFF0001FFFFE0003
310
F000F0001FFFF80003FE0003FFF000007FFF0001FF80007FE0003FFFF00007FE
310
0001FFFF80007FF8000001FFFE0000007FFFFFF0001FFFFFFFC0000FFFF80001
310
FFFFC0000FFFF80001FFFF0003FFFFFFFFF0001FFFFC0003F000F0000FFFF000
310
07FE0007FFF800007FFF0001FF80007FE0001FFFE00007FF0000FFFE00007FF8
310
000001FFFE0000007FFFFFF0001FFFFFFFC00003FFE00001FFFFC00003FFE000
310
01FFFF0003FFFFFFFFF8000FFFF80003F000F00003FFC00007FC0007FFF80000
310
7FFF8001FF80007FF00007FF80000FFF00007FF80000FFF8000001FFFE000000
310
7F80000000000001FFE000003E000003FFFFE000003E000003FFFF0003FFFFFF
310
FFF80003FFE00007F000F800000000000FFC0007FFF800007FFF8001FF80007F
310
F000000000000FFF000000000000FFF8000001FFFE0000007F80000000000001
310
FFF0000000000007FFFFF0000000000007FFFF0003FFFFFFFFFC00007E000007
310
F000F800000000000FFC0007FFF80000FFFF8000FF80007FF800000000001FFF
310
800000000001FFF8000001FFFE0000007F80000000000001FFF800000000000F
310
FFFFF800000000000FFFFF0003FFFFFFFFFC00000000000FF000FC0000000000
310
1FFC0007FFFC0000FFFF8000FF80007FF800000000003FFFC00000000001FFF8
310
000001FFFE0000007F80000000000001FFF800000000000FFFFFF80000000000
310
0FFFFF0003FFFFFFFFFE00000000001FF000FE00000000003FF8000FFFFC0000
310
FFFF8000FF80007FFC00000000003FFFC00000000003FFF8000001FFFE000000
310
7F80000000000001FFFC00000000001FFFFFFC00000000001FFFFF0003FFFFFF
310
FFFF00000000001FF000FF00000000003FF8000FFFFC0000FFFFC000FF80007F
310
FE00000000007FFFE00000000007FFF8000001FFFE0000007F80000000000001
310
FFFE00000000003FFFFFFE00000000003FFFFF0003FFFFFFFFFF80000000003F
310
F000FF80000000007FF8000FFFFC0001FFFFC0007F80007FFF0000000000FFFF
310
F0000000000FFFF800000000000000007F80000000000001FFFF8000000000FF
310
FFFFFF8000000000FFFFFF0003FFFFFFFFFFC0000000007FF000FFC000000000
310
FFF8000FFFFE0001FFFFC0007F80007FFF8000000001FFFFF8000000001FFFF8
310
00000000000000007F80000000000001FFFFC000000001FFFFFFFFC000000001
310
FFFFFF0003FFFFFFFFFFE000000000FFF000FFE000000003FFF0001FFFFE0001
310
FFFFC0007F80007FFFC000000007FFFFFE000000003FFFF80000000000000000
310
7F80000000000001FFFFE000000003FFFFFFFFE000000003FFFFFF0003FFFFFF
310
FFFFF000000003FFF000FFF80000000FFFF0001FFFFE0001FFFFE0007F80007F
310
FFF00000000FFFFFFF00000000FFFFF800000000000000007F80000000000001
310
FFFFF80000000FFFFFFFFFF80000000FFFFFFF0003FFFFFFFFFFFC0000000FFF
310
F000FFFE0000003FFFF0001FFFFE0003FFFFE0003F80007FFFFC0000003FFFFF
310
FFC0000003FFFFF800000000000000007F80000000000001FFFFFE0000003FFF
310
FFFFFFFE0000003FFFFFFF0003FFFFFFFFFFFF0000003FFFF000FFFF800000FF
310
FFF0001FFFFF0003FFFFE0003F80007FFFFF000001FFFFFFFFF800001FFFFFF8
310
00000000000000007F80000000000001FFFFFFC00001FFFFFFFFFFFFC00001FF
310
FFFFFF0003FFFFFFFFFFFFC00000FFFFF000FFFFF8000FFFFFFFFFFFFFFFFFFF
310
FFFFFFFFFFFFFFFFFFFFF0001FFFFFFFFFFF0000FFFFFFF80000000000000000
310
7FFFFFFFFFFFFFFFFFFFFFFC001FFFFFFFFFFFFFFC001FFFFFFFFFFFFFFFFFFF
310
FFFFFFFC001FFFFFF000FFFFFFFFFFFFFFFFFFFFFFFFFFFFFFFFFFFFFFFFFFFF
310
FFFFFFFFFFFFFFFFFFFFFFFFFFFFFFFFFFFFFFFFFFFFFFFFFFFFFFFFFFFFFFFF
310
FFFFFFFFFFFFFFFFFFFFFFFFFFFFFFFFFFFFFFFFFFFFFFFFFFFFFFFFFFFFFFFF
310
F000FFFFFFFFFFFFFFFFFFFFFFFFFFFFFFFFFFFFFFFFFFFFFFFFFFFFFFFFFFFF
310
FFFFFFFFFFFFFFFFFFFFFFFFFFFFFFFFFFFFFFFFFFFFFFFFFFFFFFFFFFFFFFFF
310
FFFFFFFFFFFFFFFFFFFFFFFFFFFFFFFFFFFFFFFFFFFFFFFFF000FFFFFFFFFFFF
310
FFFFFFFFFFFFFFFFFFFFFFFFFFFFFFFFFFFFFFFFFFFFFFFFFFFFFFFFFFFFFFFF
310
FFFFFFFFFFFFFFFFFFFFFFFFFFFFFFFFFFFFFFFFFFFFFFFFFFFFFFFFFFFFFFFF
310
FFFFFFFFFFFFFFFFFFFFFFFFFFFFFFFFF000FFFFFFFFFFFFFFFFFFFFFFFFFFFF
310
FFFFFFFFFFFFFFFFFFFFFFFFFFFFFFFFFFFFFFFFFFFFFFFFFFFFFFFFFFFFFFFF
310
FFFFFFFFFFFFFFFFFFFFFFFFFFFFFFFFFFFFFFFFFFFFFFFFFFFFFFFFFFFFFFFF
310
FFFFFFFFFFFFFFFFF000FFFFFFFFFFFFFFFFFFFFFFFFFFFFFFFFFFFFFFFFFFFF
310
FFFFFFFFFFFFFFFFFFFFFFFFFFFFFFFFFFFFFFFFFFFFFFFFFFFFFFFFFFFFFFFF
310
FFFFFFFFFFFFFFFFFFFFFFFFFFFFFFFFFFFFFFFFFFFFFFFFFFFFFFFFFFFFFFFF
310
F000FFFFFFFFFFFFFFFFFFFFFFFFFFFFFFFFFFFFFFFFFFFFFFFFFFFFFFFFFFFF
310
FFFFFFFFFFFFFFFFFFFFFFFFFFFFFFFFFFFFFFFFFFFFFFFFFFFFFFFFFFFFFFFF
310
FFFFFFFFFFFFFFFFFFFFFFFFFFFFFFFFFFFFFFFFFFFFFFFFF000FFFFFFFFFFFF
310
FFFFFFFFFFFFFFFFFFFFFFFFFFFFFFFFFFFFFFFFFFFFFFFFFFFFFFFFFFFFFFFF
310
FFFFFFFFFFFFFFFFFFFFFFFFFFFFFFFFFFFFFFFFFFFFFFFFFFFFFFFFFFFFFFFF
310
FFFFFFFFFFFFFFFFFFFFFFFFFFFFFFFFF000FFFFFFFFFFFFFFFFFFFFFFFFFFFF
310
FFFFFFFFFFFFFFFFFFFFFFFFFFFFFFFFFFFFFFFFFFFFFFFFFFFFFFFFFFFFFFFF
310
FFFFFFFFFFFFFFFFFFFFFFFFFFFFFFFFFFFFFFFFFFFFFFFFFFFFFFFFFFFFFFFF
310
FFFFFFFFFFFFFFFFF000FFFFFFFFFFFFFFFFFFFFFFFFFFFFFFFFFFFFFFFFFFFF
310
FFFFFFFFFFFFFFFFFFFFFFFFFFFFFFFFFFFFFFFFFFFFFFFFFFFFFFFFFFFFFFFF
310
FFFFFFFFFFFFFFFFFFFFFFFFFFFFFFFFFFFFFFFFFFFFFFFFFFFFFFFFFFFFFFFF
310
F000FFFFFFFFFFFFFFFFFFFFFFFFFFFFFFFFFFFFFFFFFFFFFFFFFFFFFFFFFFFF
310
FFFFFFFFFFFFFFFFFFFFFFFFFFFFFFFFFFFFFFFFFFFFFFFFFFFFFFFFFFFFFFFF
310
FFFFFFFFFFFFFFFFFFFFFFFFFFFFFFFFFFFFFFFFFFFFFFFFF000FFFFFFFFFFFF
310
FFFFFFFFFFFFFFFFFFFFFFFFFFFFFFFFFFFFFFFFFFFFFFFFFFFFFFFFFFFFFFFF
310
FFFFFFFFFFFFFFFFFFFFFFFFFFFFFFFFFFFFFFFFFFFFFFFFFFFFFFFFFFFFFFFF
310
FFFFFFFFFFFFFFFFFFFFFFFFFFFFFFFFF000FFFFFFFFFFFFFFFFFFFFFFFFFFFF
310
FFFFFFFFFFFFFFFFFFFFFFFFFFFFFFFFFFFFFFFFFFFFFFFFFFFFFFFFFFFFFFFF
310
FFFFFFFFFFFFFFFFFFFFFFFFFFFFFFFFFFFFFFFFFFFFFFFFFFFFFFFFFFFFFFFF
310
FFFFFFFFFFFFFFFFF000FFFFFFFFFFFFFFFFFFFFFFFFFFFFFFFFFFFFFFFFFFFF
310
FFFFFFFFFFFFFFFFFFFFFFFFFFFFFFFFFFFFFFFFFFFFFFFFFFFFFFFFFFFFFFFF
310
FFFFFFFFFFFFFFFFFFFFFFFFFFFFFFFFFFFFFFFFFFFFFFFFFFFFFFFFFFFFFFFF
310
F000FFFFFFFFFFFFFFFFFFFFFFFFFFFFFFFFFFFFFFFFFFFFFFFFFFFFFFFFFFFF
310
FFFFFFFFFFFFFFFFFFFFFFFFFFFFFFFFFFFFFFFFFFFFFFFFFFFFFFFFFFFFFFFF
310
FFFFFFFFFFFFFFFFFFFFFFFFFFFFFFFFFFFFFFFFFFFFFFFFF000FFFFFFFFFFFF
310
FFFFFFFFFFFFFFFFFFFFFFFFFFFFFFFFFFFFFFFFFFFFFFFFFFFFFFFFFFFFFFFF
310
FFFFFFFFFFFFFFFFFFFFFFFFFFFFFFFFFFFFFFFFFFFFFFFFFFFFFFFFFFFFFFFF
310
FFFFFFFFFFFFFFFFFFFFFFFFFFFFFFFFF000FFFFFFFFFFFFFFFFFFFFFFFFFFFF
310
FFFFFFFFFFFFFFFFFFFFFFFFFFFFFFFFFFFFFFFFFFFFFFFFFFFFFFFFFFFFFFFF
310
FFFFFFFFFFFFFFFFFFFFFFFFFFFFFFFFFFFFFFFFFFFFFFFFFFFFFFFFFFFFFFFF
310
FFFFFFFFFFFFFFFFF000FFFFFFFFFFFFFFFFFFFFFFFFFFFFFFFFFFFFFFFFFFFF
310
FFFFFFFFFFFFFFFFFFFFFFFFFFFFFFFFFFFFFFFFFFFFFFFFFFFFFFFFFFFFFFFF
310
FFFFFFFFFFFFFFFFFFFFFFFFFFFFFFFFFFFFFFFFFFFFFFFFFFFFFFFFFFFFFFFF
310
F000FFFFFFFFFFFFFFFFFFFFFFFFFFFFFFFFFFFFFFFFFFFFFFFFFFFFFFFFFFFF
310
FFFFFFFFFFFFFFFFFFFFFFFFFFFFFFFFFFFFFFFFFFFFFFFFFFFFFFFFFFFFFFFF
310
FFFFFFFFFFFFFFFFFFFFFFFFFFFFFFFFFFFFFFFFFFFFFFFFF000FFFFFFFFFFFF
310
FFFFFFFFFFFFFFFFFFFFFFFFFFFFFFFFFFFFFFFFFFFFFFFFFFFFFFFFFFFFFFFF
310
FFFFFFFFFFFFFFFFFFFFFFFFFFFFFFFFFFFFFFFFFFFFFFFFFFFFFFFFFFFFFFFF
310
FFFFFFFFFFFFFFFFFFFFFFFFFFFFFFFFF000FFFFFFFFFFFFFFFFFFFFFFFFFFFF
310
FFFFFFFFFFFFFFFFFFFFFFFFFFFFFFFFFFFFFFFFFFFFFFFFFFFFFFFFFFFFFFFF
310
FFFFFFFFFFFFFFFFFFFFFFFFFFFFFFFFFFFFFFFFFFFFFFFFFFFFFFFFFFFFFFFF
310
FFFFFFFFFFFFFFFFF000FFFFFFFFFFFFFFFFFFFFFFFFFFFFFFFFFFFFFFFFFFFF
310
FFFFFFFFFFFFFFFFFFFFFFFFFFFFFFFFFFFFFFFFFFFFFFFFFFFFFFFFFFFFFFFF
310
FFFFFFFFFFFFFFFFFFFFFFFFFFFFFFFFFFFFFFFFFFFFFFFFFFFFFFFFFFFFFFFF
310
F000FFFFFFFFFFFFFFFFFFFFFFFFFFFFFFFFFFFFFFFFFFFFFFFFFFFFFFFFFFFF
310
FFFFFFFFFFFFFFFFFFFFFFFFFFFFFFFFFFFFFFFFFFFFFFFFFFFFFFFFFFFFFFFF
310
FFFFFFFFFFFFFFFFFFFFFFFFFFFFFFFFFFFFFFFFFFFFFFFFF000FFFFFFFFFFFF
310
FFFFFFFFFFFFFFFFFFFFFFFFFFFFFFFFFFFFFFFFFFFFFFFFFFFFFFFFFFFFFFFF
310
FFFFFFFFFFFFFFFFFFFFFFFFFFFFFFFFFFFFFFFFFFFFFFFFFFFFFFFFFFFFFFFF
310
FFFFFFFFFFFFFFFFFFFFFFFFFFFFFFFFF0000000000000000000000000000000
310
0000000000000000000000000000000000000000000000000000000000000000
310
0000000000000000000000000000000000000000000000000000000000000000
310
0000000000000000000000000000000000000000000000000000000000000000
310
0000000000000000000000000000000000000000000000000000000000000000
310
0000000000000000000000000000000000000000000000000000000000000000
310
0000000000000000000000000000000000000000000000000000000000000000
310
0000000000000000000000000000000000000000000000000000000000000000
310
0000000000000000000000000000000000000000000000000000000000000000
310
0000000000000000000000000000000000000000000000000000000000000000
310
0000000000000000000000000000000000000000000000000000000000000000
310
0000000000000000000000000000000000000000000000000000000000000000
310
0000000000000000000000000000000000000000000000000000000000000000
310
0000000000000000000000000000000000000000000000000000000000000000
310
0000000000000000000000000000000000000000000000000000000000000000
310
0000000000000000000000000000000000000000000000000000000000000000
  1
OLE
  0
ENDSEC
  0
SECTION
  2
OBJECTS
  0
DICTIONARY
  5
C
330
0
100
AcDbDictionary
281
     1
  3
ACAD_GROUP
350
D
  3
ACAD_LAYOUT
350
1A
  3
ACAD_MLINESTYLE
350
17
  3
ACAD_PLOTSETTINGS
350
19
  3
ACAD_PLOTSTYLENAME
350
E
  3
ACAD_SCALELIST
350
47
  0
DICTIONARY
  5
D
102
{ACAD_REACTORS
330
C
102
}
330
C
100
AcDbDictionary
281
     1
  0
DICTIONARY
  5
1A
102
{ACAD_REACTORS
330
C
102
}
330
C
100
AcDbDictionary
281
     1
  3
Layout1
350
1E
  3
Layout2
350
26
  3
Model
350
22
  0
DICTIONARY
  5
17
102
{ACAD_REACTORS
330
C
102
}
330
C
100
AcDbDictionary
281
     1
  3
Standard
350
18
  0
DICTIONARY
  5
19
102
{ACAD_REACTORS
330
C
102
}
330
C
100
AcDbDictionary
281
     1
  0
ACDBDICTIONARYWDFLT
  5
E
102
{ACAD_REACTORS
330
C
102
}
330
C
100
AcDbDictionary
281
     1
  3
Normal
350
F
100
AcDbDictionaryWithDefault
340
F
  0
DICTIONARY
  5
47
102
{ACAD_REACTORS
330
C
102
}
330
C
100
AcDbDictionary
281
     1
  3
A0
350
48
  3
A1
350
49
  3
A2
350
4A
  3
A3
350
4B
  3
A4
350
4C
  3
A5
350
4D
  3
A6
350
4E
  3
A7
350
4F
  3
A8
350
50
  3
A9
350
51
  3
B0
350
52
  3
B1
350
53
  3
B2
350
54
  3
B3
350
55
  3
B4
350
56
  3
B5
350
57
  3
B6
350
58
  3
B7
350
59
  3
B8
350
5A
  3
B9
350
5B
  3
C0
350
5C
  3
C1
350
5D
  3
C2
350
5E
  3
C3
350
5F
  3
C4
350
60
  3
C5
350
61
  3
C6
350
62
  3
C7
350
63
  3
C8
350
64
  3
C9
350
65
  3
D0
350
66
  3
D1
350
67
  3
D2
350
68
  0
LAYOUT
  5
1E
102
{ACAD_REACTORS
330
1A
102
}
330
1A
100
AcDbPlotSettings
  1

  2
none_device
  4

  6

 40
0.0
 41
0.0
 42
0.0
 43
0.0
 44
0.0
 45
0.0
 46
0.0
 47
0.0
 48
0.0
 49
0.0
140
0.0
141
0.0
142
1.0
143
1.0
 70
   688
 72
     1
 73
     0
 74
     5
  7

 75
    16
147
1.0
148
0.0
149
0.0
100
AcDbLayout
  1
Layout1
 70
     1
 71
     1
 10
0.0
 20
0.0
 11
420.0
 21
297.0
 12
0.0
 22
0.0
 32
0.0
 14
1.0000000000E+20
 24
1.0000000000E+20
 34
1.0000000000E+20
 15
-1.0000000000E+20
 25
-1.0000000000E+20
 35
-1.0000000000E+20
146
0.0
 13
0.0
 23
0.0
 33
0.0
 16
1.0
 26
0.0
 36
0.0
 17
0.0
 27
1.0
 37
0.0
 76
     0
330
1B
  0
LAYOUT
  5
26
102
{ACAD_REACTORS
330
1A
102
}
330
1A
100
AcDbPlotSettings
  1

  2
none_device
  4

  6

 40
0.0
 41
0.0
 42
0.0
 43
0.0
 44
0.0
 45
0.0
 46
0.0
 47
0.0
 48
0.0
 49
0.0
140
0.0
141
0.0
142
1.0
143
1.0
 70
   688
 72
     1
 73
     0
 74
     5
  7

 75
    16
147
1.0
148
0.0
149
0.0
100
AcDbLayout
  1
Layout2
 70
     1
 71
     2
 10
0.0
 20
0.0
 11
0.0
 21
0.0
 12
0.0
 22
0.0
 32
0.0
 14
0.0
 24
0.0
 34
0.0
 15
0.0
 25
0.0
 35
0.0
146
0.0
 13
0.0
 23
0.0
 33
0.0
 16
1.0
 26
0.0
 36
0.0
 17
0.0
 27
1.0
 37
0.0
 76
     0
330
23
  0
LAYOUT
  5
22
102
{ACAD_REACTORS
330
1A
102
}
330
1A
100
AcDbPlotSettings
  1

  2
none_device
  4
Letter_(8.50_x_11.00_Inches)
  6

 40
6.35
 41
6.35
 42
6.35000508
 43
6.35000508
 44
215.9
 45
279.4
 46
0.0
 47
0.0
 48
0.0
 49
0.0
140
0.0
141
0.0
142
1.0
143
1.0
 70
  1712
 72
     1
 73
     0
 74
     0
  7

 75
     0
147
1.0
148
0.0
149
0.0
100
AcDbLayout
  1
Model
 70
     1
 71
     0
 10
0.0
 20
0.0
 11
297.0
 21
210.0
 12
0.0
 22
0.0
 32
0.0
 14
0.0
 24
0.0
 34
0.0
 15
297.0
 25
210.0
 35
0.0
146
0.0
 13
0.0
 23
0.0
 33
0.0
 16
1.0
 26
0.0
 36
0.0
 17
0.0
 27
1.0
 37
0.0
 76
     0
330
1F
331
29
  0
MLINESTYLE
  5
18
102
{ACAD_REACTORS
330
17
102
}
330
17
100
AcDbMlineStyle
  2
Standard
 70
     0
  3

 62
   256
 51
90.0
 52
90.0
 71
     2
 49
0.5
 62
   256
  6
BYLAYER
 49
-0.5
 62
   256
  6
BYLAYER
  0
ACDBPLACEHOLDER
  5
F
102
{ACAD_REACTORS
330
E
102
}
330
E
  0
SCALE
  5
48
102
{ACAD_REACTORS
330
47
102
}
330
47
100
AcDbScale
 70
     0
300
1:1
140
1.0
141
1.0
290
     1
  0
SCALE
  5
49
102
{ACAD_REACTORS
330
47
102
}
330
47
100
AcDbScale
 70
     0
300
1:2
140
1.0
141
2.0
290
     0
  0
SCALE
  5
4A
102
{ACAD_REACTORS
330
47
102
}
330
47
100
AcDbScale
 70
     0
300
1:4
140
1.0
141
4.0
290
     0
  0
SCALE
  5
4B
102
{ACAD_REACTORS
330
47
102
}
330
47
100
AcDbScale
 70
     0
300
1:5
140
1.0
141
5.0
290
     0
  0
SCALE
  5
4C
102
{ACAD_REACTORS
330
47
102
}
330
47
100
AcDbScale
 70
     0
300
1:8
140
1.0
141
8.0
290
     0
  0
SCALE
  5
4D
102
{ACAD_REACTORS
330
47
102
}
330
47
100
AcDbScale
 70
     0
300
1:10
140
1.0
141
10.0
290
     0
  0
SCALE
  5
4E
102
{ACAD_REACTORS
330
47
102
}
330
47
100
AcDbScale
 70
     0
300
1:16
140
1.0
141
16.0
290
     0
  0
SCALE
  5
4F
102
{ACAD_REACTORS
330
47
102
}
330
47
100
AcDbScale
 70
     0
300
1:20
140
1.0
141
20.0
290
     0
  0
SCALE
  5
50
102
{ACAD_REACTORS
330
47
102
}
330
47
100
AcDbScale
 70
     0
300
1:30
140
1.0
141
30.0
290
     0
  0
SCALE
  5
51
102
{ACAD_REACTORS
330
47
102
}
330
47
100
AcDbScale
 70
     0
300
1:40
140
1.0
141
40.0
290
     0
  0
SCALE
  5
52
102
{ACAD_REACTORS
330
47
102
}
330
47
100
AcDbScale
 70
     0
300
1:50
140
1.0
141
50.0
290
     0
  0
SCALE
  5
53
102
{ACAD_REACTORS
330
47
102
}
330
47
100
AcDbScale
 70
     0
300
1:100
140
1.0
141
100.0
290
     0
  0
SCALE
  5
54
102
{ACAD_REACTORS
330
47
102
}
330
47
100
AcDbScale
 70
     0
300
2:1
140
2.0
141
1.0
290
     0
  0
SCALE
  5
55
102
{ACAD_REACTORS
330
47
102
}
330
47
100
AcDbScale
 70
     0
300
4:1
140
4.0
141
1.0
290
     0
  0
SCALE
  5
56
102
{ACAD_REACTORS
330
47
102
}
330
47
100
AcDbScale
 70
     0
300
8:1
140
8.0
141
1.0
290
     0
  0
SCALE
  5
57
102
{ACAD_REACTORS
330
47
102
}
330
47
100
AcDbScale
 70
     0
300
10:1
140
10.0
141
1.0
290
     0
  0
SCALE
  5
58
102
{ACAD_REACTORS
330
47
102
}
330
47
100
AcDbScale
 70
     0
300
100:1
140
100.0
141
1.0
290
     0
  0
SCALE
  5
59
102
{ACAD_REACTORS
330
47
102
}
330
47
100
AcDbScale
 70
     0
300
1/128" = 1'-0"
140
0.0078125
141
12.0
290
     0
  0
SCALE
  5
5A
102
{ACAD_REACTORS
330
47
102
}
330
47
100
AcDbScale
 70
     0
300
1/64" = 1'-0"
140
0.015625
141
12.0
290
     0
  0
SCALE
  5
5B
102
{ACAD_REACTORS
330
47
102
}
330
47
100
AcDbScale
 70
     0
300
1/32" = 1'-0"
140
0.03125
141
12.0
290
     0
  0
SCALE
  5
5C
102
{ACAD_REACTORS
330
47
102
}
330
47
100
AcDbScale
 70
     0
300
1/16" = 1'-0"
140
0.0625
141
12.0
290
     0
  0
SCALE
  5
5D
102
{ACAD_REACTORS
330
47
102
}
330
47
100
AcDbScale
 70
     0
300
3/32" = 1'-0"
140
0.09375
141
12.0
290
     0
  0
SCALE
  5
5E
102
{ACAD_REACTORS
330
47
102
}
330
47
100
AcDbScale
 70
     0
300
1/8" = 1'-0"
140
0.125
141
12.0
290
     0
  0
SCALE
  5
5F
102
{ACAD_REACTORS
330
47
102
}
330
47
100
AcDbScale
 70
     0
300
3/16" = 1'-0"
140
0.1875
141
12.0
290
     0
  0
SCALE
  5
60
102
{ACAD_REACTORS
330
47
102
}
330
47
100
AcDbScale
 70
     0
300
1/4" = 1'-0"
140
0.25
141
12.0
290
     0
  0
SCALE
  5
61
102
{ACAD_REACTORS
330
47
102
}
330
47
100
AcDbScale
 70
     0
300
3/8" = 1'-0"
140
0.375
141
12.0
290
     0
  0
SCALE
  5
62
102
{ACAD_REACTORS
330
47
102
}
330
47
100
AcDbScale
 70
     0
300
1/2" = 1'-0"
140
0.5
141
12.0
290
     0
  0
SCALE
  5
63
102
{ACAD_REACTORS
330
47
102
}
330
47
100
AcDbScale
 70
     0
300
3/4" = 1'-0"
140
0.75
141
12.0
290
     0
  0
SCALE
  5
64
102
{ACAD_REACTORS
330
47
102
}
330
47
100
AcDbScale
 70
     0
300
1" = 1'-0"
140
1.0
141
12.0
290
     0
  0
SCALE
  5
65
102
{ACAD_REACTORS
330
47
102
}
330
47
100
AcDbScale
 70
     0
300
1-1/2" = 1'-0"
140
1.5
141
12.0
290
     0
  0
SCALE
  5
66
102
{ACAD_REACTORS
330
47
102
}
330
47
100
AcDbScale
 70
     0
300
3" = 1'-0"
140
3.0
141
12.0
290
     0
  0
SCALE
  5
67
102
{ACAD_REACTORS
330
47
102
}
330
47
100
AcDbScale
 70
     0
300
6" = 1'-0"
140
6.0
141
12.0
290
     0
  0
SCALE
  5
68
102
{ACAD_REACTORS
330
47
102
}
330
47
100
AcDbScale
 70
     0
300
1'-0" = 1'-0"
140
12.0
141
12.0
290
     0
  0
ENDSEC
  0
EOF
