  0
SECTION
  2
HEADER
  9
$ACADVER
  1
AC1015
  9
$ACADMAINTVER
 70
     6
  9
$DWGCODEPAGE
  3
ANSI_1252
  9
$INSBASE
 10
0.0
 20
0.0
 30
0.0
  9
$EXTMIN
 10
0.0
 20
0.0
 30
0.0
  9
$EXTMAX
 10
297.0
 20
210.0
 30
0.0
  9
$LIMMIN
 10
0.0
 20
0.0
  9
$LIMMAX
 10
297.0
 20
210.0
  9
$ORTHOMODE
 70
     0
  9
$REGENMODE
 70
     1
  9
$FILLMODE
 70
     1
  9
$QTEXTMODE
 70
     0
  9
$MIRRTEXT
 70
     1
  9
$LTSCALE
 40
1.0
  9
$ATTMODE
 70
     1
  9
$TEXTSIZE
 40
2.0
  9
$TRACEWID
 40
1.0
  9
$TEXTSTYLE
  7
Standard
  9
$CLAYER
  8
0
  9
$CELTYPE
  6
ByLayer
  9
$CECOLOR
 62
   256
  9
$CELTSCALE
 40
1.0
  9
$DISPSILH
 70
     0
  9
$DIMSCALE
 40
1.0
  9
$DIMASZ
 40
3.0
  9
$DIMEXO
 40
0.0
  9
$DIMDLI
 40
3.75
  9
$DIMRND
 40
0.0
  9
$DIMDLE
 40
0.0
  9
$DIMEXE
 40
1.0
  9
$DIMTP
 40
0.0
  9
$DIMTM
 40
0.0
  9
$DIMTXT
 40
2.0
  9
$DIMCEN
 40
2.5
  9
$DIMTSZ
 40
0.0
  9
$DIMTOL
 70
     0
  9
$DIMLIM
 70
     0
  9
$DIMTIH
 70
     1
  9
$DIMTOH
 70
     1
  9
$DIMSE1
 70
     0
  9
$DIMSE2
 70
     0
  9
$DIMTAD
 70
     1
  9
$DIMZIN
 70
     0
  9
$DIMBLK
  1

  9
$DIMASO
 70
     1
  9
$DIMSHO
 70
     1
  9
$DIMPOST
  1

  9
$DIMAPOST
  1

  9
$DIMALT
 70
     0
  9
$DIMALTD
 70
     3
  9
$DIMALTF
 40
0.0393700787
  9
$DIMLFAC
 40
2.0
  9
$DIMTOFL
 70
     1
  9
$DIMTVP
 40
0.0
  9
$DIMTIX
 70
     0
  9
$DIMSOXD
 70
     0
  9
$DIMSAH
 70
     0
  9
$DIMBLK1
  1

  9
$DIMBLK2
  1

  9
$DIMSTYLE
  2
ISO-25
  9
$DIMCLRD
 70
     0
  9
$DIMCLRE
 70
     0
  9
$DIMCLRT
 70
     0
  9
$DIMTFAC
 40
1.0
  9
$DIMGAP
 40
1.524
  9
$DIMJUST
 70
     0
  9
$DIMSD1
 70
     0
  9
$DIMSD2
 70
     0
  9
$DIMTOLJ
 70
     0
  9
$DIMTZIN
 70
     0
  9
$DIMALTZ
 70
     0
  9
$DIMALTTZ
 70
     0
  9
$DIMUPT
 70
     0
  9
$DIMDEC
 70
     2
  9
$DIMTDEC
 70
     3
  9
$DIMALTU
 70
     2
  9
$DIMALTTD
 70
     3
  9
$DIMTXSTY
  7
Standard
  9
$DIMAUNIT
 70
     0
  9
$DIMADEC
 70
     2
  9
$DIMALTRND
 40
0.0
  9
$DIMAZIN
 70
     0
  9
$DIMDSEP
 70
    44
  9
$DIMATFIT
 70
     3
  9
$DIMFRAC
 70
     0
  9
$DIMLDRBLK
  1

  9
$DIMLUNIT
 70
     2
  9
$DIMLWD
 70
    -2
  9
$DIMLWE
 70
    -2
  9
$DIMTMOVE
 70
     0
  9
$LUNITS
 70
     2
  9
$LUPREC
 70
     2
  9
$SKETCHINC
 40
1.0
  9
$FILLETRAD
 40
10.0
  9
$AUNITS
 70
     0
  9
$AUPREC
 70
     2
  9
$MENU
  1
.
  9
$ELEVATION
 40
0.0
  9
$PELEVATION
 40
0.0
  9
$THICKNESS
 40
0.0
  9
$LIMCHECK
 70
     0
  9
$CHAMFERA
 40
0.0
  9
$CHAMFERB
 40
0.0
  9
$CHAMFERC
 40
0.0
  9
$CHAMFERD
 40
0.0
  9
$SKPOLY
 70
     0
  9
$TDCREATE
 40
2457676.383980012
  9
$TDUCREATE
 40
2457676.300646678
  9
$TDUPDATE
 40
2457676.383981435
  9
$TDUUPDATE
 40
2457676.300648102
  9
$TDINDWG
 40
0.0000000116
  9
$TDUSRTIMER
 40
0.0000000116
  9
$USRTIMER
 70
     1
  9
$ANGBASE
 50
0.0
  9
$ANGDIR
 70
     0
  9
$PDMODE
 70
     0
  9
$PDSIZE
 40
-1.0
  9
$PLINEWID
 40
0.0
  9
$SPLFRAME
 70
     0
  9
$SPLINETYPE
 70
     6
  9
$SPLINESEGS
 70
     8
  9
$HANDSEED
  5
270
  9
$SURFTAB1
 70
     6
  9
$SURFTAB2
 70
     6
  9
$SURFTYPE
 70
     6
  9
$SURFU
 70
     6
  9
$SURFV
 70
     6
  9
$UCSBASE
  2

  9
$UCSNAME
  2

  9
$UCSORG
 10
0.0
 20
0.0
 30
0.0
  9
$UCSXDIR
 10
1.0
 20
0.0
 30
0.0
  9
$UCSYDIR
 10
0.0
 20
1.0
 30
0.0
  9
$UCSORTHOREF
  2

  9
$UCSORTHOVIEW
 70
     0
  9
$UCSORGTOP
 10
0.0
 20
0.0
 30
0.0
  9
$UCSORGBOTTOM
 10
0.0
 20
0.0
 30
0.0
  9
$UCSORGLEFT
 10
0.0
 20
0.0
 30
0.0
  9
$UCSORGRIGHT
 10
0.0
 20
0.0
 30
0.0
  9
$UCSORGFRONT
 10
0.0
 20
0.0
 30
0.0
  9
$UCSORGBACK
 10
0.0
 20
0.0
 30
0.0
  9
$PUCSBASE
  2

  9
$PUCSNAME
  2

  9
$PUCSORG
 10
0.0
 20
0.0
 30
0.0
  9
$PUCSXDIR
 10
1.0
 20
0.0
 30
0.0
  9
$PUCSYDIR
 10
0.0
 20
1.0
 30
0.0
  9
$PUCSORTHOREF
  2

  9
$PUCSORTHOVIEW
 70
     0
  9
$PUCSORGTOP
 10
0.0
 20
0.0
 30
0.0
  9
$PUCSORGBOTTOM
 10
0.0
 20
0.0
 30
0.0
  9
$PUCSORGLEFT
 10
0.0
 20
0.0
 30
0.0
  9
$PUCSORGRIGHT
 10
0.0
 20
0.0
 30
0.0
  9
$PUCSORGFRONT
 10
0.0
 20
0.0
 30
0.0
  9
$PUCSORGBACK
 10
0.0
 20
0.0
 30
0.0
  9
$USERI1
 70
     0
  9
$USERI2
 70
     0
  9
$USERI3
 70
     0
  9
$USERI4
 70
     0
  9
$USERI5
 70
     0
  9
$USERR1
 40
0.0
  9
$USERR2
 40
0.0
  9
$USERR3
 40
0.0
  9
$USERR4
 40
0.0
  9
$USERR5
 40
0.0
  9
$WORLDVIEW
 70
     1
  9
$SHADEDGE
 70
     3
  9
$SHADEDIF
 70
    70
  9
$TILEMODE
 70
     1
  9
$MAXACTVP
 70
    64
  9
$PINSBASE
 10
0.0
 20
0.0
 30
0.0
  9
$PLIMCHECK
 70
     0
  9
$PEXTMIN
 10
1.0000000000E+20
 20
1.0000000000E+20
 30
1.0000000000E+20
  9
$PEXTMAX
 10
-1.0000000000E+20
 20
-1.0000000000E+20
 30
-1.0000000000E+20
  9
$PLIMMIN
 10
0.0
 20
0.0
  9
$PLIMMAX
 10
420.0
 20
297.0
  9
$UNITMODE
 70
     0
  9
$VISRETAIN
 70
     1
  9
$PLINEGEN
 70
     0
  9
$PSLTSCALE
 70
     1
  9
$TREEDEPTH
 70
  3020
  9
$CMLSTYLE
  2
Standard
  9
$CMLJUST
 70
     0
  9
$CMLSCALE
 40
20.0
  9
$PROXYGRAPHICS
 70
     1
  9
$MEASUREMENT
 70
     1
  9
$CELWEIGHT
370
    -1
  9
$ENDCAPS
280
     0
  9
$JOINSTYLE
280
     0
  9
$LWDISPLAY
290
     1
  9
$INSUNITS
 70
     4
  9
$HYPERLINKBASE
  1

  9
$STYLESHEET
  1

  9
$XEDIT
290
     1
  9
$CEPSNTYPE
380
     0
  9
$PSTYLEMODE
290
     1
  9
$FINGERPRINTGUID
  2
{80FDDD65-40C5-441F-8575-5FFCF16DBA95}
  9
$VERSIONGUID
  2
{FAEB1C32-E019-11D5-929B-00C0DF256EC4}
  9
$EXTNAMES
290
     1
  9
$PSVPSCALE
 40
0.0
  9
$OLESTARTUP
290
     0
  0
ENDSEC
  0
SECTION
  2
CLASSES
  0
CLASS
  1
ACDBDICTIONARYWDFLT
  2
AcDbDictionaryWithDefault
  3
ObjectDBX Classes
 90
        0
280
     0
281
     0
  0
CLASS
  1
VISUALSTYLE
  2
AcDbVisualStyle
  3
ObjectDBX Classes
 90
     4095
280
     0
281
     0
  0
CLASS
  1
MATERIAL
  2
AcDbMaterial
  3
ObjectDBX Classes
 90
     1153
280
     0
281
     0
  0
CLASS
  1
SCALE
  2
AcDbScale
  3
ObjectDBX Classes
 90
     1153
280
     0
281
     0
  0
CLASS
  1
TABLESTYLE
  2
AcDbTableStyle
  3
ObjectDBX Classes
 90
     4095
280
     0
281
     0
  0
CLASS
  1
MLEADERSTYLE
  2
AcDbMLeaderStyle
  3
ACDB_MLEADERSTYLE_CLASS
 90
     4095
280
     0
281
     0
  0
CLASS
  1
SUN
  2
AcDbSun
  3
SCENEOE
 90
     1153
280
     0
281
     0
  0
CLASS
  1
ACDBPLACEHOLDER
  2
AcDbPlaceHolder
  3
ObjectDBX Classes
 90
        0
280
     0
281
     0
  0
CLASS
  1
LAYOUT
  2
AcDbLayout
  3
ObjectDBX Classes
 90
        0
280
     0
281
     0
  0
ENDSEC
  0
SECTION
  2
TABLES
  0
TABLE
  2
VPORT
  5
8
330
0
100
AcDbSymbolTable
 70
     1
  0
VPORT
  5
29
330
8
100
AcDbSymbolTableRecord
100
AcDbViewportTableRecord
  2
*Active
 70
     0
 10
0.0
 20
0.0
 11
1.0
 21
1.0
 12
148.5
 22
105.0
 13
0.0
 23
0.0
 14
10.0
 24
10.0
 15
10.0
 25
10.0
 16
0.0
 26
0.0
 36
1.0
 17
0.0
 27
0.0
 37
0.0
 40
210.0
 41
1.4142857143
 42
50.0
 43
0.0
 44
0.0
 50
0.0
 51
0.0
 71
     0
 72
  2000
 73
     1
 74
     3
 75
     0
 76
     0
 77
     0
 78
     0
281
     0
 65
     1
110
0.0
120
0.0
130
0.0
111
1.0
121
0.0
131
0.0
112
0.0
122
1.0
132
0.0
 79
     0
146
0.0
  0
ENDTAB
  0
TABLE
  2
LTYPE
  5
5
330
0
100
AcDbSymbolTable
 70
     6
  0
LTYPE
  5
14
330
5
100
AcDbSymbolTableRecord
100
AcDbLinetypeTableRecord
  2
ByBlock
 70
     0
  3

 72
    65
 73
     0
 40
0.0
  0
LTYPE
  5
15
330
5
100
AcDbSymbolTableRecord
100
AcDbLinetypeTableRecord
  2
ByLayer
 70
     0
  3

 72
    65
 73
     0
 40
0.0
  0
LTYPE
  5
16
330
5
100
AcDbSymbolTableRecord
100
AcDbLinetypeTableRecord
  2
Continuous
 70
     0
  3
Solid line
 72
    65
 73
     0
 40
0.0
  0
LTYPE
  5
6E
330
5
100
AcDbSymbolTableRecord
100
AcDbLinetypeTableRecord
  2
HIDDEN
 70
     0
  3
Hidden __ __ __ __ __ __ __ __ __ __ __ __ __ __
 72
    65
 73
     2
 40
1.905
 49
1.27
 74
     0
 49
-0.635
 74
     0
  0
LTYPE
  5
6F
330
5
100
AcDbSymbolTableRecord
100
AcDbLinetypeTableRecord
  2
PHANTOM
 70
     0
  3
Phantom ______  __  __  ______  __  __  ______
 72
    65
 73
     6
 40
12.7
 49
6.35
 74
     0
 49
-1.27
 74
     0
 49
1.27
 74
     0
 49
-1.27
 74
     0
 49
1.27
 74
     0
 49
-1.27
 74
     0
  0
LTYPE
  5
70
330
5
100
AcDbSymbolTableRecord
100
AcDbLinetypeTableRecord
  2
CENTER
 70
     0
  3
Center ____ _ ____ _ ____ _ ____ _ ____ _ ____
 72
    65
 73
     4
 40
10.16
 49
6.35
 74
     0
 49
-1.27
 74
     0
 49
1.27
 74
     0
 49
-1.27
 74
     0
  0
LTYPE
  5
71
330
5
100
AcDbSymbolTableRecord
100
AcDbLinetypeTableRecord
  2
CENTERX2
 70
     0
  3
Center (2x) ________  __  ________  __  _____
 72
    65
 73
     4
 40
20.32
 49
12.7
 74
     0
 49
-2.54
 74
     0
 49
2.54
 74
     0
 49
-2.54
 74
     0
  0
LTYPE
  5
72
330
5
100
AcDbSymbolTableRecord
100
AcDbLinetypeTableRecord
  2
DOT2
 70
     0
  3
Dot (.5x) ........................................
 72
    65
 73
     2
 40
0.635
 49
0.0
 74
     0
 49
-0.635
 74
     0
  0
ENDTAB
  0
TABLE
  2
LAYER
  5
2
330
0
100
AcDbSymbolTable
 70
     5
  0
LAYER
  5
10
330
2
100
AcDbSymbolTableRecord
100
AcDbLayerTableRecord
  2
0
 70
     0
 62
     7
  6
Continuous
370
    -3
390
F
  0
LAYER
  5
73
330
2
100
AcDbSymbolTableRecord
100
AcDbLayerTableRecord
  2
FORMAT
 70
     0
 62
     7
  6
Continuous
370
    -3
390
F
  0
LAYER
  5
74
330
2
100
AcDbSymbolTableRecord
100
AcDbLayerTableRecord
  2
VERMASSUNG
 70
     0
 62
     7
  6
Continuous
370
    -3
390
F
  0
LAYER
  5
75
330
2
100
AcDbSymbolTableRecord
100
AcDbLayerTableRecord
  2
KOPF_DÜNN
 70
     0
 62
     7
  6
Continuous
370
    -3
390
F
  0
LAYER
  5
76
330
2
100
AcDbSymbolTableRecord
100
AcDbLayerTableRecord
  2
KOPF_DICK
 70
     0
 62
     7
  6
Continuous
370
    15
390
F
  0
ENDTAB
  0
TABLE
  2
STYLE
  5
3
330
0
100
AcDbSymbolTable
 70
     2
  0
STYLE
  5
11
330
3
100
AcDbSymbolTableRecord
100
AcDbTextStyleTableRecord
  2
Standard
 70
     0
 40
0.0
 41
1.0
 50
0.0
 71
     0
 42
2.0
  3
txt
  4

  0
STYLE
  5
77
330
3
100
AcDbSymbolTableRecord
100
AcDbTextStyleTableRecord
  2
SLDTEXTSTYLE0
 70
     0
 40
0.0
 41
0.7
 50
0.0
 71
     0
 42
2.0
  3
TXT
  4

  0
ENDTAB
  0
TABLE
  2
VIEW
  5
6
330
0
100
AcDbSymbolTable
 70
     0
  0
ENDTAB
  0
TABLE
  2
UCS
  5
7
330
0
100
AcDbSymbolTable
 70
     0
  0
ENDTAB
  0
TABLE
  2
APPID
  5
9
330
0
100
AcDbSymbolTable
 70
     1
  0
APPID
  5
12
330
9
100
AcDbSymbolTableRecord
100
AcDbRegAppTableRecord
  2
ACAD
 70
     0
  0
ENDTAB
  0
TABLE
  2
DIMSTYLE
  5
A
330
0
100
AcDbSymbolTable
 70
     2
100
AcDbDimStyleTable
  0
DIMSTYLE
105
27
330
A
100
AcDbSymbolTableRecord
100
AcDbDimStyleTableRecord
  2
ISO-25
 70
     0
 41
2.5
 42
0.625
 43
3.75
 44
1.25
 73
     0
 74
     0
 77
     1
 78
     8
140
2.5
141
2.5
143
0.0393700787
147
0.625
171
     3
172
     1
178
     0
271
     2
272
     2
274
     3
278
    44
283
     0
284
     8
340
11
  0
DIMSTYLE
105
1B6
102
{ACAD_REACTORS
330
1B5
330
1C2
330
1CE
330
1D9
330
1E3
330
1ED
102
}
330
A
100
AcDbSymbolTableRecord
100
AcDbDimStyleTableRecord
  2
SLDDIMSTYLE0
 70
     0
 41
3.0
 44
0.0
 45
0.000000001
 73
     0
 74
     0
 77
     1
 78
    12
 79
     3
140
2.0
147
0.5
173
     1
178
     0
271
     2
272
     3
276
     2
284
    12
340
77
  0
ENDTAB
  0
TABLE
  2
BLOCK_RECORD
  5
1
330
0
100
AcDbSymbolTable
 70
     7
  0
BLOCK_RECORD
  5
1F
330
1
100
AcDbSymbolTableRecord
100
AcDbBlockTableRecord
  2
*Model_Space
340
22
  0
BLOCK_RECORD
  5
1B
330
1
100
AcDbSymbolTableRecord
100
AcDbBlockTableRecord
  2
*Paper_Space
340
1E
  0
BLOCK_RECORD
  5
23
330
1
100
AcDbSymbolTableRecord
100
AcDbBlockTableRecord
  2
*Paper_Space0
340
26
  0
BLOCK_RECORD
  5
1B7
330
1
100
AcDbSymbolTableRecord
100
AcDbBlockTableRecord
  2
_D
340
0
  0
BLOCK_RECORD
  5
1C3
330
1
100
AcDbSymbolTableRecord
100
AcDbBlockTableRecord
  2
_D_1
340
0
  0
BLOCK_RECORD
  5
1CF
330
1
100
AcDbSymbolTableRecord
100
AcDbBlockTableRecord
  2
_D_2
340
0
  0
BLOCK_RECORD
  5
1DA
330
1
100
AcDbSymbolTableRecord
100
AcDbBlockTableRecord
  2
_D_3
340
0
  0
BLOCK_RECORD
  5
1E4
330
1
100
AcDbSymbolTableRecord
100
AcDbBlockTableRecord
  2
_D_4
340
0
  0
BLOCK_RECORD
  5
1EE
330
1
100
AcDbSymbolTableRecord
100
AcDbBlockTableRecord
  2
_D_5
340
0
  0
ENDTAB
  0
ENDSEC
  0
SECTION
  2
BLOCKS
  0
BLOCK
  5
20
330
1F
100
AcDbEntity
  8
0
100
AcDbBlockBegin
  2
*Model_Space
 70
     0
 10
0.0
 20
0.0
 30
0.0
  3
*Model_Space
  1

  0
ENDBLK
  5
21
330
1F
100
AcDbEntity
  8
0
100
AcDbBlockEnd
  0
BLOCK
  5
1C
330
1B
100
AcDbEntity
 67
     1
  8
0
100
AcDbBlockBegin
  2
*Paper_Space
 70
     0
 10
0.0
 20
0.0
 30
0.0
  3
*Paper_Space
  1

  0
ENDBLK
  5
1D
330
1B
100
AcDbEntity
 67
     1
  8
0
100
AcDbBlockEnd
  0
BLOCK
  5
24
330
23
100
AcDbEntity
  8
0
100
AcDbBlockBegin
  2
*Paper_Space0
 70
     0
 10
0.0
 20
0.0
 30
0.0
  3
*Paper_Space0
  1

  0
ENDBLK
  5
25
330
23
100
AcDbEntity
  8
0
100
AcDbBlockEnd
  0
BLOCK
  5
1B8
330
1B7
100
AcDbEntity
  8
0
100
AcDbBlockBegin
  2
_D
 70
     0
 10
0.0
 20
0.0
 30
0.0
  3
_D
  1

  0
SOLID
  5
1BA
330
1B7
100
AcDbEntity
  8
VERMASSUNG
100
AcDbTrace
 10
28.1198361172
 20
69.7342260755
 30
0.0
 11
28.5698361172
 21
72.7342260755
 31
0.0
 12
27.6698361172
 22
72.7342260755
 32
0.0
 13
27.6698361172
 23
72.7342260755
 33
0.0
  0
SOLID
  5
1BB
330
1B7
100
AcDbEntity
  8
VERMASSUNG
100
AcDbTrace
 10
28.1198361172
 20
169.7342260755
 30
0.0
 11
27.6698361172
 21
166.7342260755
 31
0.0
 12
28.5698361172
 22
166.7342260755
 32
0.0
 13
28.5698361172
 23
166.7342260755
 33
0.0
  0
LINE
  5
1BC
330
1B7
100
AcDbEntity
  8
VERMASSUNG
100
AcDbLine
 10
175.0204931718
 20
69.7342260754
 30
0.0
 11
27.1198361172
 21
69.7342260755
 31
0.0
  0
LINE
  5
1BD
330
1B7
100
AcDbEntity
  8
VERMASSUNG
100
AcDbLine
 10
175.0204931718
 20
169.7342260754
 30
0.0
 11
27.1198361172
 21
169.7342260755
 31
0.0
  0
LINE
  5
1BE
330
1B7
100
AcDbEntity
  8
VERMASSUNG
100
AcDbLine
 10
28.1198361172
 20
69.7342260755
 30
0.0
 11
28.1198361172
 21
169.7342260755
 31
0.0
  0
MTEXT
  5
1BF
330
1B7
100
AcDbEntity
  8
VERMASSUNG
100
AcDbMText
 10
25.341700861
 20
108.5300880734
 30
0.0
 40
2.0
 41
0.0
 71
     1
 72
     1
  1
MAS-BT 50
  7
SLDTEXTSTYLE0
 11
3.391901413832837E-15
 21
1.0
 31
0.0
 73
     1
 44
1.0
  0
MTEXT
  5
1C0
330
1B7
100
AcDbEntity
  8
VERMASSUNG
100
AcDbMText
 10
25.5417008123
 20
123.5300877381
 30
0.0
 40
2.0
 41
0.0
 71
     1
 72
     1
  1
%%c
  7
SLDTEXTSTYLE0
 11
3.391901413832837E-15
 21
1.0
 31
0.0
 73
     1
 44
1.0
  0
MTEXT
  5
1C1
330
1B7
100
AcDbEntity
  8
VERMASSUNG
100
AcDbMText
 10
25.5417005213
 20
127.1396781867
 30
0.0
 40
2.0
 41
0.0
 71
     1
 72
     1
  1
100
  7
SLDTEXTSTYLE0
 11
3.391901413832837E-15
 21
1.0
 31
0.0
 73
     1
 44
1.0
  0
ENDBLK
  5
1B9
330
1B7
100
AcDbEntity
  8
0
100
AcDbBlockEnd
  0
BLOCK
  5
1C4
330
1C3
100
AcDbEntity
  8
0
100
AcDbBlockBegin
  2
_D_1
 70
     0
 10
0.0
 20
0.0
 30
0.0
  3
_D_1
  1

  0
SOLID
  5
1C6
330
1C3
100
AcDbEntity
  8
VERMASSUNG
100
AcDbTrace
 10
270.919011085
 20
139.7342260754
 30
0.0
 11
270.469011085
 21
136.7342260754
 31
0.0
 12
271.369011085
 22
136.7342260754
 32
0.0
 13
271.369011085
 23
136.7342260754
 33
0.0
  0
SOLID
  5
1C7
330
1C3
100
AcDbEntity
  8
VERMASSUNG
100
AcDbTrace
 10
270.919011085
 20
99.7342260754
 30
0.0
 11
271.369011085
 21
102.7342260754
 31
0.0
 12
270.469011085
 22
102.7342260754
 32
0.0
 13
270.469011085
 23
102.7342260754
 33
0.0
  0
LINE
  5
1C8
330
1C3
100
AcDbEntity
  8
VERMASSUNG
100
AcDbLine
 10
255.6204931718
 20
139.7342260754
 30
0.0
 11
271.919011085
 21
139.7342260754
 31
0.0
  0
LINE
  5
1C9
330
1C3
100
AcDbEntity
  8
VERMASSUNG
100
AcDbLine
 10
255.6204931718
 20
99.7342260754
 30
0.0
 11
271.919011085
 21
99.7342260754
 31
0.0
  0
LINE
  5
1CA
330
1C3
100
AcDbEntity
  8
VERMASSUNG
100
AcDbLine
 10
270.919011085
 20
139.7342260754
 30
0.0
 11
270.919011085
 21
99.7342260754
 31
0.0
  0
MTEXT
  5
1CB
330
1C3
100
AcDbEntity
  8
VERMASSUNG
100
AcDbMText
 10
268.1408758288
 20
114.5292262561
 30
0.0
 40
2.0
 41
0.0
 71
     1
 72
     1
  1
WH
  7
SLDTEXTSTYLE0
 11
-7.044195017643634E-15
 21
1.0
 31
0.0
 73
     1
 44
1.0
  0
MTEXT
  5
1CC
330
1C3
100
AcDbEntity
  8
VERMASSUNG
100
AcDbMText
 10
268.3408757801
 20
118.3292263201
 30
0.0
 40
2.0
 41
0.0
 71
     1
 72
     1
  1
%%c
  7
SLDTEXTSTYLE0
 11
-7.044195017643634E-15
 21
1.0
 31
0.0
 73
     1
 44
1.0
  0
MTEXT
  5
1CD
330
1C3
100
AcDbEntity
  8
VERMASSUNG
100
AcDbMText
 10
268.1408758288
 20
121.9392263344
 30
0.0
 40
2.0
 41
0.0
 71
     1
 72
     1
  1
40
  7
SLDTEXTSTYLE0
 11
-7.044195017643634E-15
 21
1.0
 31
0.0
 73
     1
 44
1.0
  0
ENDBLK
  5
1C5
330
1C3
100
AcDbEntity
  8
0
100
AcDbBlockEnd
  0
BLOCK
  5
1D0
330
1CF
100
AcDbEntity
  8
0
100
AcDbBlockBegin
  2
_D_2
 70
     0
 10
0.0
 20
0.0
 30
0.0
  3
_D_2
  1

  0
SOLID
  5
1D2
330
1CF
100
AcDbEntity
  8
VERMASSUNG
100
AcDbTrace
 10
264.819011085
 20
130.7342260754
 30
0.0
 11
264.369011085
 21
127.7342260754
 31
0.0
 12
265.269011085
 22
127.7342260754
 32
0.0
 13
265.269011085
 23
127.7342260754
 33
0.0
  0
SOLID
  5
1D3
330
1CF
100
AcDbEntity
  8
VERMASSUNG
100
AcDbTrace
 10
264.819011085
 20
108.7342260754
 30
0.0
 11
265.269011085
 21
111.7342260754
 31
0.0
 12
264.369011085
 22
111.7342260754
 32
0.0
 13
264.369011085
 23
111.7342260754
 33
0.0
  0
LINE
  5
1D4
330
1CF
100
AcDbEntity
  8
VERMASSUNG
100
AcDbLine
 10
255.0204931718
 20
130.7342260754
 30
0.0
 11
265.819011085
 21
130.7342260754
 31
0.0
  0
LINE
  5
1D5
330
1CF
100
AcDbEntity
  8
VERMASSUNG
100
AcDbLine
 10
255.0204931718
 20
108.7342260754
 30
0.0
 11
265.819011085
 21
108.7342260754
 31
0.0
  0
LINE
  5
1D6
330
1CF
100
AcDbEntity
  8
VERMASSUNG
100
AcDbLine
 10
264.819011085
 20
130.7342260754
 30
0.0
 11
264.819011085
 21
108.7342260754
 31
0.0
  0
MTEXT
  5
1D7
330
1CF
100
AcDbEntity
  8
VERMASSUNG
100
AcDbMText
 10
262.2408757801
 20
116.5292261182
 30
0.0
 40
2.0
 41
0.0
 71
     1
 72
     1
  1
%%c
  7
SLDTEXTSTYLE0
 11
-7.044195017643634E-15
 21
1.0
 31
0.0
 73
     1
 44
1.0
  0
MTEXT
  5
1D8
330
1CF
100
AcDbEntity
  8
VERMASSUNG
100
AcDbMText
 10
262.0408758288
 20
120.1392261325
 30
0.0
 40
2.0
 41
0.0
 71
     1
 72
     1
  1
22
  7
SLDTEXTSTYLE0
 11
-7.044195017643634E-15
 21
1.0
 31
0.0
 73
     1
 44
1.0
  0
ENDBLK
  5
1D1
330
1CF
100
AcDbEntity
  8
0
100
AcDbBlockEnd
  0
BLOCK
  5
1DB
330
1DA
100
AcDbEntity
  8
0
100
AcDbBlockBegin
  2
_D_3
 70
     0
 10
0.0
 20
0.0
 30
0.0
  3
_D_3
  1

  0
SOLID
  5
1DD
330
1DA
100
AcDbEntity
  8
VERMASSUNG
100
AcDbTrace
 10
36.2204931718
 20
187.9072341724
 30
0.0
 11
39.2204931718
 21
187.4572341724
 31
0.0
 12
39.2204931718
 22
188.3572341724
 32
0.0
 13
39.2204931718
 23
188.3572341724
 33
0.0
  0
SOLID
  5
1DE
330
1DA
100
AcDbEntity
  8
VERMASSUNG
100
AcDbTrace
 10
256.0204931718
 20
187.9072341724
 30
0.0
 11
253.0204931718
 21
188.3572341724
 31
0.0
 12
253.0204931718
 22
187.4572341724
 32
0.0
 13
253.0204931718
 23
187.4572341724
 33
0.0
  0
LINE
  5
1DF
330
1DA
100
AcDbEntity
  8
VERMASSUNG
100
AcDbLine
 10
36.2204931718
 20
138.0839039362
 30
0.0
 11
36.2204931718
 21
188.9072341724
 31
0.0
  0
LINE
  5
1E0
330
1DA
100
AcDbEntity
  8
VERMASSUNG
100
AcDbLine
 10
256.0204931718
 20
139.3342260754
 30
0.0
 11
256.0204931718
 21
188.9072341724
 31
0.0
  0
LINE
  5
1E1
330
1DA
100
AcDbEntity
  8
VERMASSUNG
100
AcDbLine
 10
36.2204931718
 20
187.9072341724
 30
0.0
 11
256.0204931718
 21
187.9072341724
 31
0.0
  0
MTEXT
  5
1E2
330
1DA
100
AcDbEntity
  8
VERMASSUNG
100
AcDbMText
 10
143.2204932087
 20
190.4853697683
 30
0.0
 40
2.0
 41
0.0
 71
     1
 72
     1
  1
219.8
  7
SLDTEXTSTYLE0
 73
     1
 44
1.0
  0
ENDBLK
  5
1DC
330
1DA
100
AcDbEntity
  8
0
100
AcDbBlockEnd
  0
BLOCK
  5
1E5
330
1E4
100
AcDbEntity
  8
0
100
AcDbBlockBegin
  2
_D_4
 70
     0
 10
0.0
 20
0.0
 30
0.0
  3
_D_4
  1

  0
SOLID
  5
1E7
330
1E4
100
AcDbEntity
  8
VERMASSUNG
100
AcDbTrace
 10
138.0204931718
 20
181.9072341724
 30
0.0
 11
141.0204931718
 21
181.4572341724
 31
0.0
 12
141.0204931718
 22
182.3572341724
 32
0.0
 13
141.0204931718
 23
182.3572341724
 33
0.0
  0
SOLID
  5
1E8
330
1E4
100
AcDbEntity
  8
VERMASSUNG
100
AcDbTrace
 10
256.0204931718
 20
181.9072341724
 30
0.0
 11
253.0204931718
 21
182.3572341724
 31
0.0
 12
253.0204931718
 22
181.4572341724
 32
0.0
 13
253.0204931718
 23
181.4572341724
 33
0.0
  0
LINE
  5
1E9
330
1E4
100
AcDbEntity
  8
VERMASSUNG
100
AcDbLine
 10
138.0204931718
 20
154.6592260754
 30
0.0
 11
138.0204931718
 21
182.9072341724
 31
0.0
  0
LINE
  5
1EA
330
1E4
100
AcDbEntity
  8
VERMASSUNG
100
AcDbLine
 10
256.0204931718
 20
139.3342260754
 30
0.0
 11
256.0204931718
 21
182.9072341724
 31
0.0
  0
LINE
  5
1EB
330
1E4
100
AcDbEntity
  8
VERMASSUNG
100
AcDbLine
 10
138.0204931718
 20
181.9072341724
 30
0.0
 11
256.0204931718
 21
181.9072341724
 31
0.0
  0
MTEXT
  5
1EC
330
1E4
100
AcDbEntity
  8
VERMASSUNG
100
AcDbMText
 10
195.3204931493
 20
184.4853697683
 30
0.0
 40
2.0
 41
0.0
 71
     1
 72
     1
  1
118
  7
SLDTEXTSTYLE0
 73
     1
 44
1.0
  0
ENDBLK
  5
1E6
330
1E4
100
AcDbEntity
  8
0
100
AcDbBlockEnd
  0
BLOCK
  5
1EF
330
1EE
100
AcDbEntity
  8
0
100
AcDbBlockBegin
  2
_D_5
 70
     0
 10
0.0
 20
0.0
 30
0.0
  3
_D_5
  1

  0
SOLID
  5
1F1
330
1EE
100
AcDbEntity
  8
VERMASSUNG
100
AcDbTrace
 10
176.0204931718
 20
175.9072341724
 30
0.0
 11
179.0204931718
 21
175.4572341724
 31
0.0
 12
179.0204931718
 22
176.3572341724
 32
0.0
 13
179.0204931718
 23
176.3572341724
 33
0.0
  0
SOLID
  5
1F2
330
1EE
100
AcDbEntity
  8
VERMASSUNG
100
AcDbTrace
 10
256.0204931718
 20
175.9072341724
 30
0.0
 11
253.0204931718
 21
176.3572341724
 31
0.0
 12
253.0204931718
 22
175.4572341724
 32
0.0
 13
253.0204931718
 23
175.4572341724
 33
0.0
  0
LINE
  5
1F3
330
1EE
100
AcDbEntity
  8
VERMASSUNG
100
AcDbLine
 10
176.0204931718
 20
168.7342260754
 30
0.0
 11
176.0204931718
 21
176.9072341724
 31
0.0
  0
LINE
  5
1F4
330
1EE
100
AcDbEntity
  8
VERMASSUNG
100
AcDbLine
 10
256.0204931718
 20
139.3342260754
 30
0.0
 11
256.0204931718
 21
176.9072341724
 31
0.0
  0
LINE
  5
1F5
330
1EE
100
AcDbEntity
  8
VERMASSUNG
100
AcDbLine
 10
176.0204931718
 20
175.9072341724
 30
0.0
 11
256.0204931718
 21
175.9072341724
 31
0.0
  0
MTEXT
  5
1F6
330
1EE
100
AcDbEntity
  8
VERMASSUNG
100
AcDbMText
 10
214.6204932217
 20
178.4853697683
 30
0.0
 40
2.0
 41
0.0
 71
     1
 72
     1
  1
80
  7
SLDTEXTSTYLE0
 73
     1
 44
1.0
  0
ENDBLK
  5
1F0
330
1EE
100
AcDbEntity
  8
0
100
AcDbBlockEnd
  0
ENDSEC
  0
SECTION
  2
ENTITIES
  0
MTEXT
  5
78
330
1F
100
AcDbEntity
  8
KOPF_DÜNN
100
AcDbMText
 10
13.8892156294
 20
23.8442973028
 30
0.0
 40
3.0
 41
0.0
 71
     1
 72
     1
  1
A34.550.040.118
  7
SLDTEXTSTYLE0
 73
     1
 44
1.0
  0
MTEXT
  5
79
330
1F
100
AcDbEntity
  8
VERMASSUNG
100
AcDbMText
 10
13.9329988022
 20
28.8834360957
 30
0.0
 40
3.0
 41
0.0
 71
     1
 72
     1
  1
Aufnahme_Master shank
  7
SLDTEXTSTYLE0
 73
     1
 44
1.0
  0
MTEXT
  5
7A
330
1F
100
AcDbEntity
  8
VERMASSUNG
100
AcDbMText
 10
98.8601118557
 20
13.8365368761
 30
0.0
 40
2.0
 41
0.0
 71
     1
 72
     1
  1
Datum: 18.11.2011
  7
SLDTEXTSTYLE0
 73
     1
 44
1.0
  0
MTEXT
  5
7B
330
1F
100
AcDbEntity
  8
VERMASSUNG
100
AcDbMText
 10
13.933048693
 20
18.0482802738
 30
0.0
 40
2.0
 41
0.0
 71
     1
 72
     1
  1
MAS-BT A/D
  7
SLDTEXTSTYLE0
 73
     1
 44
1.0
  0
MTEXT
  5
7C
330
1F
100
AcDbEntity
  8
VERMASSUNG
100
AcDbMText
 10
13.9808475933
 20
13.9090974274
 30
0.0
 40
2.0
 41
0.0
 71
     1
 72
     1
  1
Gewicht: 4346g
  7
SLDTEXTSTYLE0
 73
     1
 44
1.0
  0
LINE
  5
7D
330
1F
100
AcDbEntity
  8
0
  6
Continuous
 62
     7
370
    15
100
AcDbLine
 10
172.0202059451
 20
69.7342260754
 30
0.0
 11
175.0204931718
 21
69.7342260754
 31
0.0
  0
LINE
  5
7E
330
1F
100
AcDbEntity
  8
0
  6
Continuous
 62
     7
370
    15
100
AcDbLine
 10
175.0204931718
 20
169.7342260754
 30
0.0
 11
172.0200589909
 21
169.7342260754
 31
0.0
  0
ARC
  5
7F
330
1F
100
AcDbEntity
  8
0
  6
Continuous
 62
     7
370
    15
100
AcDbCircle
 10
175.0204931718
 20
70.7342260754
 30
0.0
 40
1.0
100
AcDbArc
 50
270.0
 51
0.0
  0
ARC
  5
80
330
1F
100
AcDbEntity
  8
0
  6
Continuous
 62
     7
370
    15
100
AcDbCircle
 10
175.0204931718
 20
168.7342260754
 30
0.0
 40
1.0
100
AcDbArc
 50
0.0
 51
90.0
  0
ARC
  5
81
330
1F
100
AcDbEntity
  8
0
  6
Continuous
 62
     7
370
    15
100
AcDbCircle
 10
140.0204931718
 20
83.8092260754
 30
0.0
 40
1.0
100
AcDbArc
 50
38.7240252166
 51
90.0
  0
ARC
  5
82
330
1F
100
AcDbEntity
  8
0
  6
Continuous
 62
     7
370
    15
100
AcDbCircle
 10
140.0204931718
 20
155.6592260754
 30
0.0
 40
1.000000000000017
100
AcDbArc
 50
270.0
 51
321.2772281032
  0
LINE
  5
83
330
1F
100
AcDbEntity
  8
0
  6
Continuous
 62
     7
370
    15
100
AcDbLine
 10
138.0204931718
 20
154.6592260754
 30
0.0
 11
37.9318793857
 21
140.0629698983
 31
0.0
  0
LINE
  5
84
330
1F
100
AcDbEntity
  8
0
  6
Continuous
 62
     7
370
    15
100
AcDbLine
 10
37.9318793857
 20
99.4054822526
 30
0.0
 11
138.0204931718
 21
84.8092260754
 31
0.0
  0
LINE
  5
85
330
1F
100
AcDbEntity
  8
0
  6
Continuous
 62
     7
370
    15
100
AcDbLine
 10
138.0204931718
 20
84.8092260754
 30
0.0
 11
140.0204931718
 21
84.8092260754
 31
0.0
  0
LINE
  5
86
330
1F
100
AcDbEntity
  8
0
  6
Continuous
 62
     7
370
    15
100
AcDbLine
 10
140.0204931718
 20
154.6592260754
 30
0.0
 11
138.0204931718
 21
154.6592260754
 31
0.0
  0
ARC
  5
87
330
1F
100
AcDbEntity
  8
0
  6
Continuous
 62
     7
370
    15
100
AcDbCircle
 10
179.0204931718
 20
96.7342260754
 30
0.0
 40
3.0
100
AcDbArc
 50
90.0
 51
180.0
  0
ARC
  5
88
330
1F
100
AcDbEntity
  8
0
  6
Continuous
 62
     7
370
    15
100
AcDbCircle
 10
179.0204931718
 20
142.7342260754
 30
0.0
 40
3.0
100
AcDbArc
 50
180.0
 51
270.0
  0
ARC
  5
89
330
1F
100
AcDbEntity
  8
0
  6
Continuous
 62
     7
370
    15
100
AcDbCircle
 10
38.2204931718
 20
101.3845482147
 30
0.0
 40
2.000000000000007
100
AcDbArc
 50
180.0
 51
261.7028550302
  0
ARC
  5
8A
330
1F
100
AcDbEntity
  8
0
  6
Continuous
 62
     7
370
    15
100
AcDbCircle
 10
38.2204931718
 20
138.0839039362
 30
0.0
 40
2.000000000000021
100
AcDbArc
 50
98.2971449698
 51
180.0
  0
LINE
  5
8B
330
1F
100
AcDbEntity
  8
0
  6
Continuous
 62
     7
370
    15
100
AcDbLine
 10
237.7414864337
 20
139.7342260754
 30
0.0
 11
179.0204931718
 21
139.7342260754
 31
0.0
  0
LINE
  5
8C
330
1F
100
AcDbEntity
  8
0
  6
Continuous
 62
     7
370
    15
100
AcDbLine
 10
255.6204931718
 20
139.7342260754
 30
0.0
 11
250.2086397276
 21
139.7342260754
 31
0.0
  0
LINE
  5
8D
330
1F
100
AcDbEntity
  8
0
  6
Continuous
 62
     7
370
    15
100
AcDbLine
 10
179.0204931718
 20
99.7342260754
 30
0.0
 11
255.6204931718
 21
99.7342260754
 31
0.0
  0
LINE
  5
8E
330
1F
100
AcDbEntity
  8
0
  6
Continuous
 62
     7
370
    15
100
AcDbLine
 10
255.6204931718
 20
99.7342260754
 30
0.0
 11
256.0204931718
 21
100.1342260754
 31
0.0
  0
LINE
  5
8F
330
1F
100
AcDbEntity
  8
0
  6
Continuous
 62
     7
370
    15
100
AcDbLine
 10
256.0204931718
 20
139.3342260754
 30
0.0
 11
255.6204931718
 21
139.7342260754
 31
0.0
  0
SPLINE
  5
90
330
1F
100
AcDbEntity
  8
0
  6
Continuous
 62
     7
370
    15
100
AcDbSpline
210
0.0
220
0.0
230
1.0
 70
     8
 71
     3
 72
    12
 73
     8
 74
     0
 42
0.000000001
 43
0.00000001
 40
0.0
 40
0.0
 40
0.0
 40
0.0
 40
0.0005125153354919
 40
0.2509311781591491
 40
0.5009716914396624
 40
0.7506335204375856
 40
1.0
 40
1.0
 40
1.0
 40
1.0
 10
172.0200589908699
 20
169.7341010332661
 30
0.0
 10
172.0202034475568
 20
169.7341427065835
 30
0.0
 10
172.0909304758468
 20
169.754546261171
 30
0.0
 10
171.8476669155706
 20
169.6829346297843
 30
0.0
 10
171.2421423013653
 20
169.5145814213124
 30
0.0
 10
170.2169786169492
 20
169.2372478308569
 30
0.0
 10
169.2357947497244
 20
169.0086290815333
 30
0.0
 10
168.745493172487
 20
168.8943873607676
 30
0.0
  0
SPLINE
  5
91
330
1F
100
AcDbEntity
  8
0
  6
Continuous
 62
     7
370
    15
100
AcDbSpline
210
0.0
220
0.0
230
1.0
 70
     8
 71
     3
 72
    13
 73
     9
 74
     0
 42
0.000000001
 43
0.00000001
 40
0.0
 40
0.0
 40
0.0
 40
0.0
 40
0.2492492380460214
 40
0.4988437701385547
 40
0.6658825660855477
 40
0.832025671123022
 40
0.9994886337290263
 40
1.0
 40
1.0
 40
1.0
 40
1.0
 10
168.745493172487
 20
70.57406479013198
 30
0.0
 10
169.2366778959106
 20
70.45957726643994
 30
0.0
 10
170.2197277988429
 20
70.23044361531994
 30
0.0
 10
171.1187712236618
 20
69.98723386417154
 30
0.0
 10
171.6770961243425
 20
69.83329665678664
 30
0.0
 10
171.9427673490506
 20
69.75704309793801
 30
0.0
 10
172.0516615950698
 20
69.72512891361126
 30
0.0
 10
172.020301415249
 20
69.73428182755706
 30
0.0
 10
172.0202059450761
 20
69.73430969188313
 30
0.0
  0
LINE
  5
92
330
1F
100
AcDbEntity
  8
0
  6
Continuous
 62
     7
370
    15
100
AcDbLine
 10
168.7454931718
 20
70.5740647901
 30
0.0
 11
168.7454931718
 21
168.8943873608
 31
0.0
  0
SPLINE
  5
93
330
1F
100
AcDbEntity
  8
0
  6
Continuous
 62
     7
370
    15
100
AcDbSpline
210
0.0
220
0.0
230
1.0
 70
     8
 71
     3
 72
    12
 73
     8
 74
     0
 42
0.000000001
 43
0.00000001
 40
0.0
 40
0.0
 40
0.0
 40
0.0
 40
0.4999999999999992
 40
0.4999999999999992
 40
0.7499999999999996
 40
0.7499999999999996
 40
1.0
 40
1.0
 40
1.0
 40
1.0
 10
168.1047728366434
 20
167.9402730271508
 30
0.0
 10
167.5658761415459
 20
166.8825732096497
 30
0.0
 10
167.0035453308262
 20
165.7802047746911
 30
0.0
 10
166.1348790882358
 20
164.0802401683283
 30
0.0
 10
165.8405503658932
 20
163.5047217528897
 30
0.0
 10
165.2470193669255
 20
162.3452930844311
 30
0.0
 10
164.947793108807
 20
161.7613334153499
 30
0.0
 10
164.6463062605536
 20
161.1736234547611
 30
0.0
  0
SPLINE
  5
94
330
1F
100
AcDbEntity
  8
0
  6
Continuous
 62
     7
370
    15
100
AcDbSpline
210
0.0
220
0.0
230
1.0
 70
     8
 71
     3
 72
     9
 73
     5
 74
     0
 42
0.000000001
 43
0.00000001
 40
0.0
 40
0.0
 40
0.0
 40
0.0
 40
0.5047943291262357
 40
1.0
 40
1.0
 40
1.0
 40
1.0
 10
168.7454695772121
 20
168.8943313255372
 30
0.0
 10
168.6370871429856
 20
168.733489764658
 30
0.0
 10
168.4223810181882
 20
168.4148618570157
 30
0.0
 10
168.209953589369
 20
168.0974876304123
 30
0.0
 10
168.1047583219687
 20
167.9403221136091
 30
0.0
  0
SPLINE
  5
95
330
1F
100
AcDbEntity
  8
0
  6
Continuous
 62
     7
370
    15
100
AcDbSpline
210
0.0
220
0.0
230
1.0
 70
     8
 71
     3
 72
     9
 73
     5
 74
     0
 42
0.000000001
 43
0.00000001
 40
0.0
 40
0.0
 40
0.0
 40
0.0
 40
0.4952056703152484
 40
1.0
 40
1.0
 40
1.0
 40
1.0
 10
168.1047583219687
 20
71.5281300372904
 30
0.0
 10
168.2099535892492
 20
71.37096452066696
 30
0.0
 10
168.4223810180658
 20
71.05359029406851
 30
0.0
 10
168.6370871428649
 20
70.73496238642176
 30
0.0
 10
168.7454695772121
 20
70.57412082536236
 30
0.0
  0
SPLINE
  5
96
330
1F
100
AcDbEntity
  8
0
  6
Continuous
 62
     7
370
    15
100
AcDbSpline
210
0.0
220
0.0
230
1.0
 70
     8
 71
     3
 72
    12
 73
     8
 74
     0
 42
0.000000001
 43
0.00000001
 40
0.0
 40
0.0
 40
0.0
 40
0.0
 40
0.2499999999999993
 40
0.2499999999999993
 40
0.4999999999999986
 40
0.4999999999999986
 40
1.0
 40
1.0
 40
1.0
 40
1.0
 10
168.1047728044045
 20
71.52817918702458
 30
0.0
 10
167.8354352830356
 20
72.05681157570922
 30
0.0
 10
167.5596651656416
 20
72.59773622965592
 30
0.0
 10
166.9974048790359
 20
73.69979298401897
 30
0.0
 10
166.7103195056311
 20
74.26208982325578
 30
0.0
 10
165.8398930649118
 20
75.96548505857578
 30
0.0
 10
165.2478830687425
 20
77.12213182965786
 30
0.0
 10
164.6463062605536
 20
78.2948286961385
 30
0.0
  0
LINE
  5
97
330
1F
100
AcDbEntity
  8
0
  6
Continuous
 62
     7
370
    15
100
AcDbLine
 10
176.0204931718
 20
70.7342260754
 30
0.0
 11
176.0204931718
 21
168.7342260754
 31
0.0
  0
SPLINE
  5
98
330
1F
100
AcDbEntity
  8
0
  6
Continuous
 62
     7
370
    15
100
AcDbSpline
210
0.0
220
0.0
230
1.0
 70
     8
 71
     3
 72
     8
 73
     4
 74
     0
 42
0.000000001
 43
0.00000001
 40
0.0
 40
0.0
 40
0.0
 40
0.0
 40
0.0012417047560385
 40
0.0012417047560385
 40
0.0012417047560385
 40
0.0012417047560385
 10
154.2530622083277
 20
167.0547962293707
 30
0.0
 10
154.0676736570333
 20
167.3164693149193
 30
0.0
 10
153.8818074114254
 20
167.5779734237969
 30
0.0
 10
153.6954931718
 20
167.8393175709141
 30
0.0
  0
SPLINE
  5
99
330
1F
100
AcDbEntity
  8
0
  6
Continuous
 62
     7
370
    15
100
AcDbSpline
210
0.0
220
0.0
230
1.0
 70
     8
 71
     3
 72
     8
 73
     4
 74
     0
 42
0.000000001
 43
0.00000001
 40
0.0
 40
0.0
 40
0.0
 40
0.0
 40
1.0
 40
1.0
 40
1.0
 40
1.0
 10
157.7946800830463
 20
160.6645021556328
 30
0.0
 10
156.6196926071434
 20
162.7975789105687
 30
0.0
 10
155.4384460730471
 20
164.9272974764449
 30
0.0
 10
154.2530622083277
 20
167.0547962293707
 30
0.0
  0
SPLINE
  5
9A
330
1F
100
AcDbEntity
  8
0
  6
Continuous
 62
     7
370
    15
100
AcDbSpline
210
0.0
220
0.0
230
1.0
 70
     8
 71
     3
 72
     8
 73
     4
 74
     0
 42
0.000000001
 43
0.00000001
 40
0.0
 40
0.0
 40
0.0
 40
0.0
 40
1.0
 40
1.0
 40
1.0
 40
1.0
 10
157.7946800830463
 20
78.80394999526679
 30
0.0
 10
156.6196432852194
 20
76.67078370112147
 30
0.0
 10
155.4383960777804
 20
74.54106494413979
 30
0.0
 10
154.2530622083277
 20
72.41365592152881
 30
0.0
  0
SPLINE
  5
9B
330
1F
100
AcDbEntity
  8
0
  6
Continuous
 62
     7
370
    15
100
AcDbSpline
210
0.0
220
0.0
230
1.0
 70
     8
 71
     3
 72
     8
 73
     4
 74
     0
 42
0.000000001
 43
0.00000001
 40
0.0
 40
0.0
 40
0.0
 40
0.0
 40
0.0012417047560385
 40
0.0012417047560385
 40
0.0012417047560385
 40
0.0012417047560385
 10
153.6954931718
 20
71.62913457998542
 30
0.0
 10
153.8818074114254
 20
71.89047872710266
 30
0.0
 10
154.0676736570333
 20
72.15198283598026
 30
0.0
 10
154.2530622083277
 20
72.41365592152881
 30
0.0
  0
LINE
  5
9C
330
1F
100
AcDbEntity
  8
0
  6
Continuous
 62
     7
370
    15
100
AcDbLine
 10
153.6954931718
 20
71.62913458
 30
0.0
 11
153.6954931718
 21
167.8393175709
 31
0.0
  0
LINE
  5
9D
330
1F
100
AcDbEntity
  8
0
  6
Continuous
 62
     7
370
    15
100
AcDbLine
 10
153.6954931718
 20
167.8393175709
 30
0.0
 11
142.0204931718
 21
167.8393175709
 31
0.0
  0
LINE
  5
9E
330
1F
100
AcDbEntity
  8
0
  6
Continuous
 62
     7
370
    15
100
AcDbLine
 10
142.0204931718
 20
71.62913458
 30
0.0
 11
153.6954931718
 21
71.62913458
 31
0.0
  0
LINE
  5
9F
330
1F
100
AcDbEntity
  8
0
  6
Continuous
 62
     7
370
    15
100
AcDbLine
 10
141.0204931718
 20
72.7323378155
 30
0.0
 11
141.0204931718
 21
166.7361143354
 31
0.0
  0
SPLINE
  5
A0
330
1F
100
AcDbEntity
  8
0
  6
Continuous
 62
     7
370
    15
100
AcDbSpline
210
0.0
220
0.0
230
1.0
 70
     8
 71
     3
 72
    12
 73
     8
 74
     0
 42
0.000000001
 43
0.00000001
 40
0.0
 40
0.0
 40
0.0
 40
0.0
 40
0.2500000000000001
 40
0.2500000000000001
 40
0.5000000000000002
 40
0.5000000000000002
 40
1.0
 40
1.0
 40
1.0
 40
1.0
 10
141.4066295918497
 20
167.668659809321
 30
0.0
 10
141.3549994697399
 20
167.6124555386064
 30
0.0
 10
141.3064672367495
 20
167.551166128086
 30
0.0
 10
141.2166420997916
 20
167.4167040540413
 30
0.0
 10
141.1749318265792
 20
167.3425849837984
 30
0.0
 10
141.0688004464171
 20
167.10627733863
 30
0.0
 10
141.0204931718
 20
166.9244537959801
 30
0.0
 10
141.0204931718
 20
166.736114335391
 30
0.0
  0
SPLINE
  5
A1
330
1F
100
AcDbEntity
  8
0
  6
Continuous
 62
     7
370
    15
100
AcDbSpline
210
0.0
220
0.0
230
1.0
 70
     8
 71
     3
 72
     8
 73
     4
 74
     0
 42
0.000000001
 43
0.00000001
 40
0.0
 40
0.0
 40
0.0
 40
0.0
 40
1.0
 40
1.0
 40
1.0
 40
1.0
 10
142.0204931718
 20
167.8393175709141
 30
0.0
 10
141.7935989281002
 20
167.8393175709141
 30
0.0
 10
141.5757492821738
 20
167.7753054039453
 30
0.0
 10
141.4066295918497
 20
167.668659809321
 30
0.0
  0
SPLINE
  5
A2
330
1F
100
AcDbEntity
  8
0
  6
Continuous
 62
     7
370
    15
100
AcDbSpline
210
0.0
220
0.0
230
1.0
 70
     8
 71
     3
 72
    10
 73
     6
 74
     0
 42
0.000000001
 43
0.00000001
 40
0.0
 40
0.0
 40
0.0
 40
0.0
 40
0.5
 40
0.5
 40
1.0
 40
1.0
 40
1.0
 40
1.0
 10
141.4066295918497
 20
71.79979234157852
 30
0.0
 10
141.4912402325805
 20
71.74643751296583
 30
0.0
 10
141.586474854687
 20
71.70386805101565
 30
0.0
 10
141.7965122138669
 20
71.6445857163347
 30
0.0
 10
141.906944118651
 20
71.6291345799854
 30
0.0
 10
142.0204931718
 20
71.6291345799854
 30
0.0
  0
SPLINE
  5
A3
330
1F
100
AcDbEntity
  8
0
  6
Continuous
 62
     7
370
    15
100
AcDbSpline
210
0.0
220
0.0
230
1.0
 70
     8
 71
     3
 72
    12
 73
     8
 74
     0
 42
0.000000001
 43
0.00000001
 40
0.0
 40
0.0
 40
0.0
 40
0.0
 40
0.2500000000000039
 40
0.2500000000000039
 40
0.5000000000000079
 40
0.5000000000000079
 40
1.0
 40
1.0
 40
1.0
 40
1.0
 10
141.4066295918497
 20
71.79979234157852
 30
0.0
 10
141.3549994697399
 20
71.85599661229317
 30
0.0
 10
141.3064672367495
 20
71.91728602281358
 30
0.0
 10
141.2166420997916
 20
72.05174809685828
 30
0.0
 10
141.1749318265792
 20
72.12586716710109
 30
0.0
 10
141.0688004464171
 20
72.36217481226956
 30
0.0
 10
141.0204931718
 20
72.54399835491945
 30
0.0
 10
141.0204931718
 20
72.73233781550856
 30
0.0
  0
SPLINE
  5
A4
330
1F
100
AcDbEntity
  8
0
  6
Continuous
 62
     7
370
    15
100
AcDbSpline
210
0.0
220
0.0
230
1.0
 70
     8
 71
     3
 72
    12
 73
     8
 74
     0
 42
0.000000001
 43
0.00000001
 40
0.0
 40
0.0
 40
0.0
 40
0.0
 40
0.2500000000000049
 40
0.2500000000000049
 40
0.5000000000000098
 40
0.5000000000000098
 40
1.0
 40
1.0
 40
1.0
 40
1.0
 10
164.6463062605536
 20
161.1736234547611
 30
0.0
 10
164.6100858391667
 20
161.1030163866613
 30
0.0
 10
164.5671601645189
 20
161.0392817953356
 30
0.0
 10
164.4696335812599
 20
160.9235076190871
 30
0.0
 10
164.4142020616432
 20
160.8709597750756
 30
0.0
 10
164.235714158739
 20
160.7368111718613
 30
0.0
 10
164.0988773300912
 20
160.6762890697974
 30
0.0
 10
163.9534859375268
 20
160.655742485869
 30
0.0
  0
SPLINE
  5
A5
330
1F
100
AcDbEntity
  8
0
  6
Continuous
 62
     7
370
    15
100
AcDbSpline
210
0.0
220
0.0
230
1.0
 70
     8
 71
     3
 72
    12
 73
     8
 74
     0
 42
0.000000001
 43
0.00000001
 40
0.0
 40
0.0
 40
0.0
 40
0.0
 40
0.249999999999999
 40
0.249999999999999
 40
0.499999999999998
 40
0.499999999999998
 40
1.0
 40
1.0
 40
1.0
 40
1.0
 10
164.6463062605536
 20
78.2948286961385
 30
0.0
 10
164.6100858391667
 20
78.36543576423841
 30
0.0
 10
164.5671601645188
 20
78.42917035556412
 30
0.0
 10
164.4696335812598
 20
78.54494453181255
 30
0.0
 10
164.4142020616431
 20
78.59749237582398
 30
0.0
 10
164.2357141587389
 20
78.73164097903837
 30
0.0
 10
164.0988773300912
 20
78.79216308110215
 30
0.0
 10
163.9534859375268
 20
78.81270966503057
 30
0.0
  0
SPLINE
  5
A6
330
1F
100
AcDbEntity
  8
0
  6
Continuous
 62
     7
370
    15
100
AcDbSpline
210
0.0
220
0.0
230
1.0
 70
     8
 71
     3
 72
    10
 73
     6
 74
     0
 42
0.000000001
 43
0.00000001
 40
0.0
 40
0.0
 40
0.0
 40
0.0
 40
0.5
 40
0.5
 40
1.0
 40
1.0
 40
1.0
 40
1.0
 10
158.1704931717999
 20
79.15469486130061
 30
0.0
 10
158.0914931035487
 20
79.11893062669273
 30
0.0
 10
158.0177358532721
 20
79.06944102313328
 30
0.0
 10
157.8896807301389
 20
78.94915253163035
 30
0.0
 10
157.8368306957272
 20
78.880470378641
 30
0.0
 10
157.7946800830463
 20
78.80394999526679
 30
0.0
  0
SPLINE
  5
A7
330
1F
100
AcDbEntity
  8
0
  6
Continuous
 62
     7
370
    15
100
AcDbSpline
210
0.0
220
0.0
230
1.0
 70
     8
 71
     3
 72
    10
 73
     6
 74
     0
 42
0.000000001
 43
0.00000001
 40
0.0
 40
0.0
 40
0.0
 40
0.0
 40
0.5
 40
0.5
 40
1.0
 40
1.0
 40
1.0
 40
1.0
 10
158.1704931718
 20
160.3137572895989
 30
0.0
 10
158.0912067241172
 20
160.3496511714515
 30
0.0
 10
158.0176945049966
 20
160.3991528813024
 30
0.0
 10
157.890742052126
 20
160.518200577971
 30
0.0
 10
157.8366762033893
 20
160.5882622382393
 30
0.0
 10
157.7946800830463
 20
160.6645021556328
 30
0.0
  0
SPLINE
  5
A8
330
1F
100
AcDbEntity
  8
0
  6
Continuous
 62
     7
370
    15
100
AcDbSpline
210
0.0
220
0.0
230
1.0
 70
     8
 71
     3
 72
     8
 73
     4
 74
     0
 42
0.000000001
 43
0.00000001
 40
0.0
 40
0.0
 40
0.0
 40
0.0
 40
1.0
 40
1.0
 40
1.0
 40
1.0
 10
158.4875004060738
 20
160.2462982711124
 30
0.0
 10
158.3777986207722
 20
160.2454398539131
 30
0.0
 10
158.2704515997877
 20
160.2685049657879
 30
0.0
 10
158.1704931717999
 20
160.3137572895988
 30
0.0
  0
SPLINE
  5
A9
330
1F
100
AcDbEntity
  8
0
  6
Continuous
 62
     7
370
    15
100
AcDbSpline
210
0.0
220
0.0
230
1.0
 70
     8
 71
     3
 72
     8
 73
     4
 74
     0
 42
0.000000001
 43
0.00000001
 40
0.0
 40
0.0
 40
0.0
 40
0.0
 40
1.0
 40
1.0
 40
1.0
 40
1.0
 10
158.4875004060738
 20
79.22215387978714
 30
0.0
 10
158.3777986207722
 20
79.22301229698647
 30
0.0
 10
158.2704515997876
 20
79.19994718511168
 30
0.0
 10
158.1704931717999
 20
79.15469486130077
 30
0.0
  0
SPLINE
  5
AA
330
1F
100
AcDbEntity
  8
0
  6
Continuous
 62
     7
370
    15
100
AcDbSpline
210
0.0
220
0.0
230
1.0
 70
    11
 71
     3
 72
    66
 73
    62
 74
     0
 42
0.000000001
 43
0.00000001
 40
0.0
 40
0.0
 40
0.0
 40
0.0
 40
0.0312499999999999
 40
0.0312499999999999
 40
0.0624999999999999
 40
0.0624999999999999
 40
0.0937499999999998
 40
0.0937499999999998
 40
0.1249999999999997
 40
0.1249999999999997
 40
0.1562499999999997
 40
0.1562499999999997
 40
0.1874999999999996
 40
0.1874999999999996
 40
0.2187499999999995
 40
0.2187499999999995
 40
0.2499999999999994
 40
0.2499999999999994
 40
0.2812499999999994
 40
0.2812499999999994
 40
0.3124999999999993
 40
0.3124999999999993
 40
0.3437499999999992
 40
0.3437499999999992
 40
0.3749999999999992
 40
0.3749999999999992
 40
0.4062499999999991
 40
0.4062499999999991
 40
0.437499999999999
 40
0.437499999999999
 40
0.4687499999999989
 40
0.4687499999999989
 40
0.4999999999999989
 40
0.4999999999999989
 40
0.5312499999999988
 40
0.5312499999999988
 40
0.5624999999999988
 40
0.5624999999999988
 40
0.6249999999999987
 40
0.6249999999999987
 40
0.6562499999999988
 40
0.6562499999999988
 40
0.6874999999999989
 40
0.6874999999999989
 40
0.7187499999999991
 40
0.7187499999999991
 40
0.7499999999999992
 40
0.7499999999999992
 40
0.7812499999999993
 40
0.7812499999999993
 40
0.8124999999999996
 40
0.8124999999999996
 40
0.8437499999999997
 40
0.8437499999999997
 40
0.8749999999999998
 40
0.8749999999999998
 40
0.90625
 40
0.90625
 40
0.9375000000000001
 40
0.9375000000000001
 40
1.0
 40
1.0
 40
1.0
 40
1.0
 10
161.2204931718
 20
102.8743087646065
 30
0.0
 10
161.3856934624639
 20
102.8743087646065
 30
0.0
 10
161.5481260037604
 20
102.8892147939643
 30
0.0
 10
161.8676841593504
 20
102.9476499727067
 30
0.0
 10
162.0264674973275
 20
102.9918910250824
 30
0.0
 10
162.3292055138068
 20
103.1074825705049
 30
0.0
 10
162.4727846789412
 20
103.1782585407236
 30
0.0
 10
162.7445144088092
 20
103.3456970726362
 30
0.0
 10
162.8731429723469
 20
103.4432363449569
 30
0.0
 10
163.1037087340141
 20
103.6566547051583
 30
0.0
 10
163.2071827352635
 20
103.7732693571845
 30
0.0
 10
163.3899432731893
 20
104.0269947212042
 30
0.0
 10
163.4675875294179
 20
104.1622875802729
 30
0.0
 10
163.5922801801079
 20
104.4426339356645
 30
0.0
 10
163.6402841606864
 20
104.5897548115006
 30
0.0
 10
163.7045159030047
 20
104.8917449158779
 30
0.0
 10
163.7204053470468
 20
105.0438686834471
 30
0.0
 10
163.720580277402
 20
105.3503513262733
 30
0.0
 10
163.7043496260671
 20
105.506337247339
 30
0.0
 10
163.6405684033575
 20
105.8089167163083
 30
0.0
 10
163.5933762919612
 20
105.9562952277005
 30
0.0
 10
163.4682096743033
 20
106.2430839330782
 30
0.0
 10
163.3899501869283
 20
106.3820410346161
 30
0.0
 10
163.2090300035729
 20
106.6396346948841
 30
0.0
 10
163.1057447746491
 20
106.7599272385851
 30
0.0
 10
162.8724930326003
 20
106.9826480562318
 30
0.0
 10
162.7460791643348
 20
107.0816259602237
 30
0.0
 10
162.4754068936401
 20
107.2548428148328
 30
0.0
 10
162.3293251214758
 20
107.3298238523096
 30
0.0
 10
162.026440676003
 20
107.4501520224053
 30
0.0
 10
161.8706103163633
 20
107.4955357098946
 30
0.0
 10
161.5502648270978
 20
107.5569619703155
 30
0.0
 10
161.3845547411262
 20
107.5727155918353
 30
0.0
 10
161.0582233524297
 20
107.5728278370907
 30
0.0
 10
160.8960362666027
 20
107.5576956071847
 30
0.0
 10
160.5736606853942
 20
107.4964434940043
 30
0.0
 10
160.4156452113567
 20
107.450436750629
 30
0.0
 10
159.9642343362811
 20
107.2715560213871
 30
0.0
 10
159.6851548792289
 20
107.0934039140882
 30
0.0
 10
159.3390811747305
 20
106.7639074978011
 30
0.0
 10
159.2334391588159
 20
106.6415346579611
 30
0.0
 10
159.0516556828451
 20
106.3831319538465
 30
0.0
 10
158.9747678594612
 20
106.2469003882982
 30
0.0
 10
158.8491133020908
 20
105.9604649264121
 30
0.0
 10
158.8008052261762
 20
105.8101578418366
 30
0.0
 10
158.7369873407358
 20
105.5085899117521
 30
0.0
 10
158.720659163693
 20
105.3557238492876
 30
0.0
 10
158.7203296736333
 20
105.0457087325441
 30
0.0
 10
158.736426185468
 20
104.8928397321915
 30
0.0
 10
158.7996549227292
 20
104.5938069664166
 30
0.0
 10
158.8474915161397
 20
104.4457413699937
 30
0.0
 10
158.9728348340531
 20
104.1631843318482
 30
0.0
 10
159.0495315085783
 20
104.0295679997245
 30
0.0
 10
159.2305828752301
 20
103.7772781297924
 30
0.0
 10
159.336058485591
 20
103.6579348207245
 30
0.0
 10
159.5665850542672
 20
103.4442510412397
 30
0.0
 10
159.6923044918975
 20
103.3485910665799
 30
0.0
 10
159.9650713410943
 20
103.1798699975761
 30
0.0
 10
160.1107907175004
 20
103.1080027889228
 30
0.0
 10
160.5618598226084
 20
102.9353517116544
 30
0.0
 10
160.8900925904722
 20
102.8743087646065
 30
0.0
 10
161.2204931717999
 20
102.8743087646064
 30
0.0
  0
SPLINE
  5
AB
330
1F
100
AcDbEntity
  8
0
  6
Continuous
 62
     7
370
    15
100
AcDbSpline
210
0.0
220
0.0
230
1.0
 70
     8
 71
     3
 72
    10
 73
     6
 74
     0
 42
0.000000001
 43
0.00000001
 40
0.0
 40
0.0
 40
0.0
 40
0.0
 40
0.5
 40
0.5
 40
1.0
 40
1.0
 40
1.0
 40
1.0
 10
163.9534859375261
 20
160.6557424858718
 30
0.0
 10
163.1059215707579
 20
160.5359654338108
 30
0.0
 10
162.2252081350359
 20
160.437275254147
 30
0.0
 10
160.3976518838204
 20
160.2960028479098
 30
0.0
 10
159.4442194807191
 20
160.2537846042322
 30
0.0
 10
158.4875004060738
 20
160.2462982711124
 30
0.0
  0
SPLINE
  5
AC
330
1F
100
AcDbEntity
  8
0
  6
Continuous
 62
     7
370
    15
100
AcDbSpline
210
0.0
220
0.0
230
1.0
 70
     8
 71
     3
 72
    10
 73
     6
 74
     0
 42
0.000000001
 43
0.00000001
 40
0.0
 40
0.0
 40
0.0
 40
0.0
 40
0.5
 40
0.5
 40
1.0
 40
1.0
 40
1.0
 40
1.0
 10
163.9534859375261
 20
78.81270966502775
 30
0.0
 10
163.1059215707579
 20
78.93248671708879
 30
0.0
 10
162.2252081350359
 20
79.0311768967526
 30
0.0
 10
160.3976518838204
 20
79.17244930298975
 30
0.0
 10
159.4442194807191
 20
79.21466754666734
 30
0.0
 10
158.4875004060738
 20
79.22215387978714
 30
0.0
  0
LINE
  5
AD
330
1F
100
AcDbEntity
  8
0
  6
Continuous
 62
     7
370
    15
100
AcDbLine
 10
138.0204931718
 20
84.8092260754
 30
0.0
 11
138.0204931718
 21
154.6592260754
 31
0.0
  0
LINE
  5
AE
330
1F
100
AcDbEntity
  8
0
  6
Continuous
 62
     7
370
    15
100
AcDbLine
 10
36.2204931718
 20
101.3845482147
 30
0.0
 11
36.2204931718
 21
138.0839038407
 31
0.0
  0
SPLINE
  5
AF
330
1F
100
AcDbEntity
  8
0
  6
Continuous
 62
     7
370
    15
100
AcDbSpline
210
0.0
220
0.0
230
1.0
 70
     8
 71
     3
 72
    27
 73
    23
 74
     0
 42
0.000000001
 43
0.00000001
 40
0.0
 40
0.0
 40
0.0
 40
0.0
 40
0.0094755149790914
 40
0.0552335167809362
 40
0.0970789766715527
 40
0.1400015331534205
 40
0.184677409827423
 40
0.2303702970998512
 40
0.2810116210876492
 40
0.3328204291960568
 40
0.3896727860213695
 40
0.4479914059491979
 40
0.5082002424342775
 40
0.5701177672069989
 40
0.6309363065051143
 40
0.693564632128102
 40
0.7534187651691381
 40
0.8153072813720529
 40
0.870182045429647
 40
0.9272353594654745
 40
0.9739917504996851
 40
1.0
 40
1.0
 40
1.0
 40
1.0
 10
250.2086397276314
 20
139.7314108333174
 30
0.0
 10
250.2122965856443
 20
139.7322792732344
 30
0.0
 10
250.2336126965743
 20
139.7373414773292
 30
0.0
 10
250.1315992588189
 20
139.7130230479526
 30
0.0
 10
249.9073976412826
 20
139.6609117950168
 30
0.0
 10
249.5586293333861
 20
139.5831684997254
 30
0.0
 10
249.0952223075077
 20
139.4865121593833
 30
0.0
 10
248.5047887274031
 20
139.3743624446268
 30
0.0
 10
247.7925888119699
 20
139.256033267992
 30
0.0
 10
246.943625323375
 20
139.140066935304
 30
0.0
 10
245.9838859101975
 20
139.0426294009237
 30
0.0
 10
244.9247858560513
 20
138.9782171855609
 30
0.0
 10
243.8093642716404
 20
138.9596193385359
 30
0.0
 10
242.6825380481313
 20
138.9929059752806
 30
0.0
 10
241.5775645757386
 20
139.0755067321619
 30
0.0
 10
240.5524894058825
 20
139.1957914668378
 30
0.0
 10
239.6222067929309
 20
139.3399837653704
 30
0.0
 10
238.8602618751911
 20
139.4825311479164
 30
0.0
 10
238.2661436082938
 20
139.6080604871316
 30
0.0
 10
237.9025448588847
 20
139.6910470062638
 30
0.0
 10
237.7283677660848
 20
139.7323443877841
 30
0.0
 10
237.7380321095185
 20
139.7300539568238
 30
0.0
 10
237.7414864336715
 20
139.7292352885882
 30
0.0
  0
SPLINE
  5
B0
330
1F
100
AcDbEntity
  8
0
  6
Continuous
 62
     7
370
    15
100
AcDbSpline
210
0.0
220
0.0
230
1.0
 70
    11
 71
     3
 72
    88
 73
    84
 74
     0
 42
0.000000001
 43
0.00000001
 40
0.0
 40
0.0
 40
0.0
 40
0.0
 40
0.0312499999999994
 40
0.0312499999999994
 40
0.0624999999999988
 40
0.0624999999999988
 40
0.0937499999999982
 40
0.0937499999999982
 40
0.1093749999999985
 40
0.1093749999999985
 40
0.1249999999999987
 40
0.1249999999999987
 40
0.1562499999999981
 40
0.1562499999999981
 40
0.1718749999999984
 40
0.1718749999999984
 40
0.1874999999999986
 40
0.1874999999999986
 40
0.2187499999999991
 40
0.2187499999999991
 40
0.2343749999999989
 40
0.2343749999999989
 40
0.2499999999999987
 40
0.2499999999999987
 40
0.2812499999999991
 40
0.2812499999999991
 40
0.2968749999999993
 40
0.2968749999999993
 40
0.3124999999999996
 40
0.3124999999999996
 40
0.3437499999999994
 40
0.3437499999999994
 40
0.3593749999999994
 40
0.3593749999999994
 40
0.3749999999999994
 40
0.3749999999999994
 40
0.3906249999999994
 40
0.3906249999999994
 40
0.4062499999999994
 40
0.4062499999999994
 40
0.4374999999999993
 40
0.4374999999999993
 40
0.4531249999999992
 40
0.4531249999999992
 40
0.4687499999999992
 40
0.4687499999999992
 40
0.4999999999999991
 40
0.4999999999999991
 40
0.5312499999999991
 40
0.5312499999999991
 40
0.562499999999999
 40
0.562499999999999
 40
0.593749999999999
 40
0.593749999999999
 40
0.624999999999999
 40
0.624999999999999
 40
0.6562499999999989
 40
0.6562499999999989
 40
0.6874999999999989
 40
0.6874999999999989
 40
0.7187499999999989
 40
0.7187499999999989
 40
0.7499999999999988
 40
0.7499999999999988
 40
0.7812499999999988
 40
0.7812499999999988
 40
0.8124999999999988
 40
0.8124999999999988
 40
0.8281249999999988
 40
0.8281249999999988
 40
0.8437499999999989
 40
0.8437499999999989
 40
0.8749999999999988
 40
0.8749999999999988
 40
0.8906249999999989
 40
0.8906249999999989
 40
0.9062499999999989
 40
0.9062499999999989
 40
0.9374999999999992
 40
0.9374999999999992
 40
0.9687499999999996
 40
0.9687499999999996
 40
1.0
 40
1.0
 40
1.0
 40
1.0
 10
239.8132470586073
 20
123.8192294377786
 30
0.0
 10
240.1167219664349
 20
124.0572221422132
 30
0.0
 10
240.4377873798111
 20
124.2631646633321
 30
0.0
 10
241.11217972486
 20
124.6174209194425
 30
0.0
 10
241.4675568419757
 20
124.7663004390846
 30
0.0
 10
242.2026474907504
 20
125.0028360255053
 30
0.0
 10
242.5761736679348
 20
125.0888863348289
 30
0.0
 10
243.1451073031205
 20
125.1718988657856
 30
0.0
 10
243.3362016154821
 20
125.1918401842982
 30
0.0
 10
243.7213393237245
 20
125.2160400638272
 30
0.0
 10
243.9162174874629
 20
125.2202391955098
 30
0.0
 10
244.4956032554466
 20
125.2088202999355
 30
0.0
 10
244.8768845812496
 20
125.1697894977763
 30
0.0
 10
245.4414961188531
 20
125.064851031832
 30
0.0
 10
245.6284746527814
 20
125.0220921524713
 30
0.0
 10
245.9999193121983
 20
124.9205375722406
 30
0.0
 10
246.1850694645986
 20
124.8614296332344
 30
0.0
 10
246.7264775686892
 20
124.6627162874837
 30
0.0
 10
247.0716078303736
 20
124.5014195560197
 30
0.0
 10
247.5654834857447
 20
124.2152811169813
 30
0.0
 10
247.7261129408057
 20
124.1124868284769
 30
0.0
 10
248.0390066591754
 20
123.8912214937467
 30
0.0
 10
248.1917553370612
 20
123.7722206946733
 30
0.0
 10
248.6269492730083
 20
123.3984081001146
 30
0.0
 10
248.8897786578554
 20
123.1250449581248
 30
0.0
 10
249.2409483300468
 20
122.6761888324011
 30
0.0
 10
249.3507725433881
 20
122.5200541875531
 30
0.0
 10
249.5548053352947
 20
122.1936043167167
 30
0.0
 10
249.6486817566406
 20
122.0234470470708
 30
0.0
 10
249.8976999321112
 20
121.5054837965704
 30
0.0
 10
250.023657395274
 20
121.1456910297162
 30
0.0
 10
250.1483581834653
 20
120.5825711443231
 30
0.0
 10
250.1792347102601
 20
120.3893503945492
 30
0.0
 10
250.2168211824947
 20
120.0034067785679
 30
0.0
 10
250.2237468228061
 20
119.8109289266373
 30
0.0
 10
250.214447801856
 20
119.4269372486556
 30
0.0
 10
250.1982221017376
 20
119.2354234651079
 30
0.0
 10
250.1424451552701
 20
118.8533661493961
 30
0.0
 10
250.1024812267493
 20
118.6616427331396
 30
0.0
 10
249.9504771517745
 20
118.1017479979917
 30
0.0
 10
249.806874033653
 20
117.7457436517089
 30
0.0
 10
249.5321425589571
 20
117.2357203117356
 30
0.0
 10
249.4306909990569
 20
117.0702213675241
 30
0.0
 10
249.2130280150448
 20
116.7540764304598
 30
0.0
 10
249.0963238345354
 20
116.6024743331117
 30
0.0
 10
248.72367941443
 20
116.1660322272741
 30
0.0
 10
248.4425005266735
 20
115.8975374661751
 30
0.0
 10
247.8413561820172
 20
115.423230300744
 30
0.0
 10
247.5205650468968
 20
115.2155062883465
 30
0.0
 10
246.8399153248638
 20
114.8558150467742
 30
0.0
 10
246.4824161042963
 20
114.7058026834651
 30
0.0
 10
245.7534349486241
 20
114.4697390901628
 30
0.0
 10
245.3792387952556
 20
114.3822202111968
 30
0.0
 10
244.6109570484939
 20
114.2690355351692
 30
0.0
 10
244.225368436745
 20
114.2448125883866
 30
0.0
 10
243.4579555139315
 20
114.2588451531866
 30
0.0
 10
243.0750406319972
 20
114.2969350551652
 30
0.0
 10
242.3108645834652
 20
114.4383576826774
 30
0.0
 10
241.9403290893669
 20
114.5397347633683
 30
0.0
 10
241.2228486161267
 20
114.8022844579679
 30
0.0
 10
240.8753916573135
 20
114.9636142170158
 30
0.0
 10
240.2064940364942
 20
115.3510249379046
 30
0.0
 10
239.895097011557
 20
115.5712325135137
 30
0.0
 10
239.3185590862153
 20
116.0658689473968
 30
0.0
 10
239.0522692554714
 20
116.3415933942344
 30
0.0
 10
238.5769050612905
 20
116.950110490674
 30
0.0
 10
238.3748326166536
 20
117.2734827088788
 30
0.0
 10
238.1270537919041
 20
117.7886617330015
 30
0.0
 10
238.0537528507409
 20
117.9654451621966
 30
0.0
 10
237.9270545646788
 20
118.3299004149359
 30
0.0
 10
237.873585748065
 20
118.5186141789925
 30
0.0
 10
237.7493726539737
 20
119.0847001961096
 30
0.0
 10
237.7122823532431
 20
119.466789830871
 30
0.0
 10
237.7268470598348
 20
120.0471575433797
 30
0.0
 10
237.7437903949908
 20
120.2429490896065
 30
0.0
 10
237.8006146292236
 20
120.6262335862057
 30
0.0
 10
237.8403885808924
 20
120.8148201979405
 30
0.0
 10
237.9924891501146
 20
121.3717886138158
 30
0.0
 10
238.1398791011105
 20
121.7353278574996
 30
0.0
 10
238.5065423843375
 20
122.4121268690296
 30
0.0
 10
238.725241211421
 20
122.727461590092
 30
0.0
 10
239.2294414297957
 20
123.3152353985475
 30
0.0
 10
239.5097721507796
 20
123.581236733344
 30
0.0
 10
239.8132470586073
 20
123.8192294377786
 30
0.0
  0
LINE
  5
B1
330
1F
100
AcDbEntity
  8
0
  6
Continuous
 62
     7
370
    15
100
AcDbLine
 10
255.6204931718
 20
119.7342260754
 30
0.0
 11
255.6204931718
 21
99.7342260754
 31
0.0
  0
LINE
  5
B2
330
1F
100
AcDbEntity
  8
0
  6
Continuous
 62
     7
370
    15
100
AcDbLine
 10
255.6204931718
 20
139.7342260754
 30
0.0
 11
255.6204931718
 21
119.7342260754
 31
0.0
  0
LINE
  5
B3
330
1F
100
AcDbEntity
  8
0
  6
Continuous
 62
     7
370
    15
100
AcDbLine
 10
256.0204931718
 20
119.7342260754
 30
0.0
 11
256.0204931718
 21
100.1342260754
 31
0.0
  0
LINE
  5
B4
330
1F
100
AcDbEntity
  8
0
  6
Continuous
 62
     7
370
    15
100
AcDbLine
 10
256.0204931718
 20
139.3342260754
 30
0.0
 11
256.0204931718
 21
119.7342260754
 31
0.0
  0
CIRCLE
  5
B5
330
1F
100
AcDbEntity
  8
0
  6
Continuous
 62
     7
370
    15
100
AcDbCircle
 10
243.9704931718
 20
119.7342260754
 30
0.0
 40
4.5
  0
SPLINE
  5
B6
330
1F
100
AcDbEntity
  8
0
  6
Continuous
 62
     7
370
    15
100
AcDbSpline
210
0.0
220
0.0
230
1.0
 70
    24
 71
     3
 72
    11
 73
     7
 74
     0
 42
0.000000001
 43
0.00000001
 40
0.0
 40
0.0
 40
0.0
 40
0.0
 40
0.2164543009645023
 40
0.4403089937225486
 40
0.7518987489759466
 40
1.0
 40
1.0
 40
1.0
 40
1.0
 10
241.1322588036367
 20
119.2071976087522
 30
0.0
 10
241.2607342691365
 20
119.0568751299904
 30
0.0
 10
241.5220776690146
 20
118.7510907724491
 30
0.0
 10
242.007062336239
 20
118.1836353672091
 30
0.0
 10
242.5272979124952
 20
117.57493470161
 30
0.0
 10
242.8602182537985
 20
117.1854018772672
 30
0.0
 10
243.0077960283961
 20
117.0127287773774
 30
0.0
  0
SPLINE
  5
B7
330
1F
100
AcDbEntity
  8
0
  6
Continuous
 62
     7
370
    15
100
AcDbSpline
210
0.0
220
0.0
230
1.0
 70
    24
 71
     3
 72
    11
 73
     7
 74
     0
 42
0.000000001
 43
0.00000001
 40
0.0
 40
0.0
 40
0.0
 40
0.0
 40
0.2164543009644985
 40
0.4403089937225407
 40
0.7518987489759396
 40
1.0
 40
1.0
 40
1.0
 40
1.0
 10
243.0077960283961
 20
117.0127287773774
 30
0.0
 10
243.2022168465136
 20
117.0488305548825
 30
0.0
 10
243.5977055681633
 20
117.1222683995176
 30
0.0
 10
244.3316286982281
 20
117.2585497391598
 30
0.0
 10
245.1188967260655
 20
117.4047366313507
 30
0.0
 10
245.6227022182058
 20
117.4982876921845
 30
0.0
 10
245.8460303965595
 20
117.5397572440751
 30
0.0
  0
SPLINE
  5
B8
330
1F
100
AcDbEntity
  8
0
  6
Continuous
 62
     7
370
    15
100
AcDbSpline
210
0.0
220
0.0
230
1.0
 70
    24
 71
     3
 72
    13
 73
     9
 74
     0
 42
0.000000001
 43
0.00000001
 40
0.0
 40
0.0
 40
0.0
 40
0.0
 40
0.1844095697099007
 40
0.349500537088448
 40
0.5197705331556486
 40
0.6927076360809615
 40
0.8718061725834051
 40
1.0
 40
1.0
 40
1.0
 40
1.0
 10
245.8460303965595
 20
117.5397572440751
 30
0.0
 10
245.9021389317577
 20
117.6983733031204
 30
0.0
 10
246.0084781158787
 20
117.9989889268887
 30
0.0
 10
246.1775146635657
 20
118.4768469022217
 30
0.0
 10
246.3483296447527
 20
118.9597324212614
 30
0.0
 10
246.5229130450029
 20
119.4532710749536
 30
0.0
 10
246.6768672346664
 20
119.8884919687387
 30
0.0
 10
246.7699118953881
 20
120.1515246311797
 30
0.0
 10
246.8087275399634
 20
120.2612545421475
 30
0.0
  0
SPLINE
  5
B9
330
1F
100
AcDbEntity
  8
0
  6
Continuous
 62
     7
370
    15
100
AcDbSpline
210
0.0
220
0.0
230
1.0
 70
    24
 71
     3
 72
    11
 73
     7
 74
     0
 42
0.000000001
 43
0.00000001
 40
0.0
 40
0.0
 40
0.0
 40
0.0
 40
0.2164543009644994
 40
0.4403089937225247
 40
0.751898748975945
 40
1.0
 40
1.0
 40
1.0
 40
1.0
 10
246.8087275399634
 20
120.2612545421475
 30
0.0
 10
246.6802520744635
 20
120.4115770209093
 30
0.0
 10
246.4189086745855
 20
120.7173613784507
 30
0.0
 10
245.933924007361
 20
121.2848167836906
 30
0.0
 10
245.4136884311048
 20
121.8935174492895
 30
0.0
 10
245.0807680898015
 20
122.2830502736324
 30
0.0
 10
244.933190315204
 20
122.4557233735222
 30
0.0
  0
SPLINE
  5
BA
330
1F
100
AcDbEntity
  8
0
  6
Continuous
 62
     7
370
    15
100
AcDbSpline
210
0.0
220
0.0
230
1.0
 70
    24
 71
     3
 72
    11
 73
     7
 74
     0
 42
0.000000001
 43
0.00000001
 40
0.0
 40
0.0
 40
0.0
 40
0.0
 40
0.2164543009645073
 40
0.4403089937225377
 40
0.7518987489759512
 40
0.9999999999999999
 40
0.9999999999999999
 40
0.9999999999999999
 40
0.9999999999999999
 10
244.933190315204
 20
122.4557233735222
 30
0.0
 10
244.7387694970865
 20
122.4196215960172
 30
0.0
 10
244.3432807754368
 20
122.346183751382
 30
0.0
 10
243.6093576453719
 20
122.2099024117398
 30
0.0
 10
242.8220896175347
 20
122.0637155195488
 30
0.0
 10
242.3182841253942
 20
121.970164458715
 30
0.0
 10
242.0949559470406
 20
121.9286949068245
 30
0.0
  0
SPLINE
  5
BB
330
1F
100
AcDbEntity
  8
0
  6
Continuous
 62
     7
370
    15
100
AcDbSpline
210
0.0
220
0.0
230
1.0
 70
    24
 71
     3
 72
    11
 73
     7
 74
     0
 42
0.000000001
 43
0.00000001
 40
0.0
 40
0.0
 40
0.0
 40
0.0
 40
0.1285561766307156
 40
0.4801535797842162
 40
0.81506918317538
 40
0.9999999999999999
 40
0.9999999999999999
 40
0.9999999999999999
 40
0.9999999999999999
 10
242.0949559470406
 20
121.9286949068245
 30
0.0
 10
242.0561852959986
 20
121.8190921903543
 30
0.0
 10
241.9113780422651
 20
121.4097292328789
 30
0.0
 10
241.6398320091176
 20
120.6420820028264
 30
0.0
 10
241.3458049348914
 20
119.8108819794863
 30
0.0
 10
241.1882924812402
 20
119.3656020490728
 30
0.0
 10
241.1322588036367
 20
119.2071976087522
 30
0.0
  0
CIRCLE
  5
BC
330
1F
100
AcDbEntity
  8
0
  6
Continuous
 62
     7
370
    15
100
AcDbCircle
 10
243.9704931718
 20
119.7342260754
 30
0.0
 40
3.000000000000009
  0
CIRCLE
  5
BD
330
1F
100
AcDbEntity
  8
0
  6
Continuous
 62
     7
370
    15
100
AcDbCircle
 10
243.9704931718
 20
119.7342260754
 30
0.0
 40
4.300000000000038
  0
ARC
  5
BE
330
1F
100
AcDbEntity
  8
0
  6
Continuous
 62
     7
370
    15
100
AcDbCircle
 10
243.9704931718
 20
119.7342260754
 30
0.0
 40
2.499999999999987
100
AcDbArc
 50
100.5193753579
 51
160.5193753579
  0
ARC
  5
BF
330
1F
100
AcDbEntity
  8
0
  6
Continuous
 62
     7
370
    15
100
AcDbCircle
 10
243.9704931718
 20
119.7342260754
 30
0.0
 40
2.499999999999964
100
AcDbArc
 50
160.5193753579
 51
220.5193753579
  0
ARC
  5
C0
330
1F
100
AcDbEntity
  8
0
  6
Continuous
 62
     7
370
    15
100
AcDbCircle
 10
243.9704931718
 20
119.7342260754
 30
0.0
 40
2.50000000000005
100
AcDbArc
 50
340.5193753579
 51
40.5193753579
  0
ARC
  5
C1
330
1F
100
AcDbEntity
  8
0
  6
Continuous
 62
     7
370
    15
100
AcDbCircle
 10
243.9704931718
 20
119.7342260754
 30
0.0
 40
2.50000000000005
100
AcDbArc
 50
40.5193753579
 51
100.5193753579
  0
ARC
  5
C2
330
1F
100
AcDbEntity
  8
0
  6
Continuous
 62
     7
370
    15
100
AcDbCircle
 10
243.9704931718
 20
119.7342260754
 30
0.0
 40
2.50000000000004
100
AcDbArc
 50
280.5193753579
 51
340.5193753579
  0
ARC
  5
C3
330
1F
100
AcDbEntity
  8
0
  6
Continuous
 62
     7
370
    15
100
AcDbCircle
 10
243.9704931718
 20
119.7342260754
 30
0.0
 40
2.50000000000004
100
AcDbArc
 50
220.5193753579
 51
280.5193753579
  0
LWPOLYLINE
  5
C4
330
1F
100
AcDbEntity
  8
0
  6
Continuous
 62
     7
370
    15
100
AcDbPolyline
 90
       20
 70
   128
 43
0.0
 10
159.2098020806
 20
106.5063976699
 10
158.8667736547
 20
105.8220276905
 10
158.7788072601
 20
105.0700747215
 10
158.9554354208
 20
104.332024535
 10
159.3775177347
 20
103.6878563206
 10
159.999315034
 20
103.2073756997
 10
160.753445933
 20
102.942650203
 10
161.5581886474
 20
102.9223669456
 10
162.326336817
 20
103.1487239333
 10
162.9746496688
 20
103.5971918742
 10
163.4328724456
 20
104.219172308
 10
163.6513495995
 20
104.947264004
 10
163.6064057408
 20
105.7025669291
 10
163.302911234
 20
106.4032322919
 10
162.7737544181
 20
106.9733321282
 10
162.0762776449
 20
107.3510872749
 10
161.2860633451
 20
107.4955621002
 10
160.4887434996
 20
107.3911005152
 10
159.7707200854
 20
107.0490225534
 10
159.2098020806
 20
106.5063976699
  0
LINE
  5
C5
330
1F
100
AcDbEntity
  8
0
  6
Continuous
 62
     7
370
    15
100
AcDbLine
 10
161.0787424381
 20
103.5762343978
 30
0.0
 11
162.6445860478
 21
104.2719457725
 31
0.0
  0
LINE
  5
C6
330
1F
100
AcDbEntity
  8
0
  6
Continuous
 62
     7
370
    15
100
AcDbLine
 10
162.7863367815
 20
105.8940813588
 30
0.0
 11
162.6445860478
 21
104.2719457725
 31
0.0
  0
LINE
  5
C7
330
1F
100
AcDbEntity
  8
0
  6
Continuous
 62
     7
370
    15
100
AcDbLine
 10
161.3622439055
 20
106.8205055704
 30
0.0
 11
162.7863367815
 21
105.8940813588
 31
0.0
  0
LINE
  5
C8
330
1F
100
AcDbEntity
  8
0
  6
Continuous
 62
     7
370
    15
100
AcDbLine
 10
161.3622439055
 20
106.8205055704
 30
0.0
 11
159.7964002958
 21
106.1247941957
 31
0.0
  0
LINE
  5
C9
330
1F
100
AcDbEntity
  8
0
  6
Continuous
 62
     7
370
    15
100
AcDbLine
 10
159.6546495621
 20
104.5026586094
 30
0.0
 11
159.7964002958
 21
106.1247941957
 31
0.0
  0
LINE
  5
CA
330
1F
100
AcDbEntity
  8
0
  6
Continuous
 62
     7
370
    15
100
AcDbLine
 10
159.6546495621
 20
104.5026586094
 30
0.0
 11
161.0787424381
 21
103.5762343978
 31
0.0
  0
LINE
  5
CB
330
1F
100
AcDbEntity
  8
0
  6
Continuous
 62
     7
370
    15
100
AcDbLine
 10
162.6445860478
 20
104.9559860592
 30
0.0
 11
162.6445860478
 21
104.2719457725
 31
0.0
  0
LINE
  5
CC
330
1F
100
AcDbEntity
  8
0
  6
Continuous
 62
     7
370
    15
100
AcDbLine
 10
162.7297770151
 20
105.930875544
 30
0.0
 11
162.6445860478
 21
104.9559860592
 31
0.0
  0
LINE
  5
CD
330
1F
100
AcDbEntity
  8
0
  6
Continuous
 62
     7
370
    15
100
AcDbLine
 10
161.0787424381
 20
104.2602746845
 30
0.0
 11
161.0787424381
 21
103.5762343978
 31
0.0
  0
LINE
  5
CE
330
1F
100
AcDbEntity
  8
0
  6
Continuous
 62
     7
370
    15
100
AcDbLine
 10
161.0787424381
 20
104.2602746845
 30
0.0
 11
162.6445860478
 21
104.9559860592
 31
0.0
  0
LINE
  5
CF
330
1F
100
AcDbEntity
  8
0
  6
Continuous
 62
     7
370
    15
100
AcDbLine
 10
159.7112093285
 20
105.1499047109
 30
0.0
 11
161.0787424381
 21
104.2602746845
 31
0.0
  0
SPLINE
  5
D0
330
1F
100
AcDbEntity
  8
0
  6
HIDDEN
 62
     7
370
     0
100
AcDbSpline
210
0.0
220
0.0
230
1.0
 70
     8
 71
     3
 72
     9
 73
     5
 74
     0
 42
0.000000001
 43
0.00000001
 40
0.0
 40
0.0
 40
0.0
 40
0.0
 40
0.3267154957258129
 40
1.0
 40
1.0
 40
1.0
 40
1.0
 10
170.6444606294108
 20
70.11046563927434
 30
0.0
 10
170.4876677561437
 20
70.15254786696904
 30
0.0
 10
170.0077613075108
 20
70.2813517597909
 30
0.0
 10
169.2535497739068
 20
70.45637840617802
 30
0.0
 10
168.7457508353863
 20
70.57422113502554
 30
0.0
  0
LWPOLYLINE
  5
D1
330
1F
100
AcDbEntity
  8
0
  6
HIDDEN
 62
     7
370
     0
100
AcDbPolyline
 90
       22
 70
   128
 43
0.0
 10
141.2898802837
 20
105.7050712729
 10
141.4863552597
 20
104.8338316169
 10
141.7924888051
 20
104.0400054277
 10
142.1810796109
 20
103.3941276459
 10
142.6175996789
 20
102.9535873468
 10
143.0632622852
 20
102.7575284691
 10
143.4784683516
 20
102.8233717047
 10
143.8263249969
 20
103.145266593
 10
144.0759236317
 20
103.6946113607
 10
144.205086322
 20
104.4225943143
 10
144.2023363958
 20
105.2645309737
 10
144.0679181962
 20
106.145611572
 10
143.8137753701
 20
106.9875482314
 10
143.4624896229
 20
107.715531185
 10
143.0452742348
 20
108.2648759527
 10
142.599200624
 20
108.586770841
 10
142.1639043884
 20
108.6526140766
 10
141.7780635087
 20
108.456555199
 10
141.4759616404
 20
108.0160148998
 10
141.2844418601
 20
107.370137118
 10
141.2205215409
 20
106.5763109288
 10
141.2898802837
 20
105.7050712729
  0
LWPOLYLINE
  5
D2
330
1F
100
AcDbEntity
  8
0
  6
HIDDEN
 62
     7
370
     0
100
AcDbPolyline
 90
       18
 70
   128
 43
0.0
 10
142.0027508723
 20
105.7610895911
 10
142.18440393
 20
105.0136569263
 10
142.4767722741
 20
104.3671691845
 10
142.8403699398
 20
103.9089381176
 10
143.2260910475
 20
103.7008503704
 10
143.5818418242
 20
103.771009346
 10
143.8595761564
 20
104.1099396862
 10
144.0217844834
 20
104.6718669704
 10
144.0465596718
 20
105.3808998051
 10
143.9305556953
 20
106.1412793771
 10
143.6894395335
 20
106.8503122118
 10
143.3557752603
 20
107.412239496
 10
142.9746260846
 20
107.7511698362
 10
142.5974683146
 20
107.8213288119
 10
142.2752391971
 20
107.6132410646
 10
142.0514575599
 20
107.1550099977
 10
141.9563463531
 20
106.5085222559
 10
142.0027508723
 20
105.7610895911
  0
SPLINE
  5
D3
330
1F
100
AcDbEntity
  8
0
  6
HIDDEN
 62
     7
370
     0
100
AcDbSpline
210
0.0
220
0.0
230
1.0
 70
    11
 71
     3
 72
    66
 73
    62
 74
     0
 42
0.000000001
 43
0.00000001
 40
0.0
 40
0.0
 40
0.0
 40
0.0
 40
0.0312500000000005
 40
0.0312500000000005
 40
0.0625000000000011
 40
0.0625000000000011
 40
0.0937500000000016
 40
0.0937500000000016
 40
0.1250000000000022
 40
0.1250000000000022
 40
0.1562500000000027
 40
0.1562500000000027
 40
0.1875000000000032
 40
0.1875000000000032
 40
0.2187500000000038
 40
0.2187500000000038
 40
0.2343750000000041
 40
0.2343750000000041
 40
0.2500000000000043
 40
0.2500000000000043
 40
0.2812500000000042
 40
0.2812500000000042
 40
0.3125000000000041
 40
0.3125000000000041
 40
0.3750000000000041
 40
0.3750000000000041
 40
0.4375000000000031
 40
0.4375000000000031
 40
0.4687500000000027
 40
0.4687500000000027
 40
0.5000000000000022
 40
0.5000000000000022
 40
0.5312500000000018
 40
0.5312500000000018
 40
0.5625000000000013
 40
0.5625000000000013
 40
0.5937500000000009
 40
0.5937500000000009
 40
0.6250000000000003
 40
0.6250000000000003
 40
0.6874999999999994
 40
0.6874999999999994
 40
0.7499999999999986
 40
0.7499999999999986
 40
0.7812499999999986
 40
0.7812499999999986
 40
0.8124999999999986
 40
0.8124999999999986
 40
0.8437499999999986
 40
0.8437499999999986
 40
0.8593749999999984
 40
0.8593749999999984
 40
0.8749999999999983
 40
0.8749999999999983
 40
0.9062499999999988
 40
0.9062499999999988
 40
0.9374999999999992
 40
0.9374999999999992
 40
0.9687499999999997
 40
0.9687499999999997
 40
1.0
 40
1.0
 40
1.0
 40
1.0
 10
158.8015181115803
 20
109.0782652500391
 30
0.0
 10
158.7619278239404
 20
109.2318787697301
 30
0.0
 10
158.7366668332589
 20
109.3841221973301
 30
0.0
 10
158.715521927244
 20
109.6862271140785
 30
0.0
 10
158.7201696393376
 20
109.8367072579204
 30
0.0
 10
158.7588633071232
 20
110.119151531219
 30
0.0
 10
158.7931602662179
 20
110.2545982261923
 30
0.0
 10
158.8874710521673
 20
110.5037416247692
 30
0.0
 10
158.9466175924605
 20
110.616233041792
 30
0.0
 10
159.0849537771527
 20
110.8173999770272
 30
0.0
 10
159.1635902931035
 20
110.904654133219
 30
0.0
 10
159.3281438451185
 20
111.0468637521683
 30
0.0
 10
159.4160785413802
 20
111.1033266800454
 30
0.0
 10
159.5836570877311
 20
111.1782355955919
 30
0.0
 10
159.6642539645384
 20
111.197045514703
 30
0.0
 10
159.7590963299999
 20
111.1924776382297
 30
0.0
 10
159.7860206354219
 20
111.1856033827508
 30
0.0
 10
159.8285493104732
 20
111.1615132149246
 30
0.0
 10
159.8440355995453
 20
111.1441055629749
 30
0.0
 10
159.8714599262335
 20
111.0802131866883
 30
0.0
 10
159.8650973227012
 20
111.0210434159554
 30
0.0
 10
159.8224471871657
 20
110.8876236079001
 30
0.0
 10
159.7869515798689
 20
110.8130681971381
 30
0.0
 10
159.6584142326989
 20
110.5707114658663
 30
0.0
 10
159.54724081326
 20
110.3895194897071
 30
0.0
 10
159.3185149976377
 20
109.9858210466701
 30
0.0
 10
159.1974498140308
 20
109.759796381357
 30
0.0
 10
159.0293358394785
 20
109.3812646444258
 30
0.0
 10
158.9749956228528
 20
109.2471861402325
 30
0.0
 10
158.8763705486118
 20
108.9650061938821
 30
0.0
 10
158.8323677070497
 20
108.8183075211118
 30
0.0
 10
158.7615812794977
 20
108.5078907397192
 30
0.0
 10
158.736391133042
 20
108.3493863099816
 30
0.0
 10
158.7154771586772
 20
108.0380227353821
 30
0.0
 10
158.72043900043
 20
107.8903043567529
 30
0.0
 10
158.7586131187879
 20
107.6268023577809
 30
0.0
 10
158.7914494444873
 20
107.5122634387425
 30
0.0
 10
158.8721819067994
 20
107.3212977422739
 30
0.0
 10
158.9202836137413
 20
107.2431140543075
 30
0.0
 10
159.0767260104587
 20
107.049318876368
 30
0.0
 10
159.193515470203
 20
106.9755437223402
 30
0.0
 10
159.4285724422862
 20
106.8924947655596
 30
0.0
 10
159.5443700292456
 20
106.8853513726439
 30
0.0
 10
159.6950707329546
 20
106.9171253900737
 30
0.0
 10
159.7413905207099
 20
106.9350228420724
 30
0.0
 10
159.8174737315701
 20
106.9886223624638
 30
0.0
 10
159.8468598870726
 20
107.0241415330282
 30
0.0
 10
159.8703209203004
 20
107.1182509078311
 30
0.0
 10
159.8632812764943
 20
107.1773713816455
 30
0.0
 10
159.8142835796146
 20
107.2872786110629
 30
0.0
 10
159.7914305350369
 20
107.3279218363701
 30
0.0
 10
159.7360880173651
 20
107.4142293202242
 30
0.0
 10
159.7034988819379
 20
107.4602708234808
 30
0.0
 10
159.5947004070777
 20
107.6080496316805
 30
0.0
 10
159.5100796854255
 20
107.7165182339988
 30
0.0
 10
159.3398914566209
 20
107.950565096644
 30
0.0
 10
159.2532613816751
 20
108.077576061385
 30
0.0
 10
159.0941453803344
 20
108.3432620228579
 30
0.0
 10
159.0198314860455
 20
108.4848389354329
 30
0.0
 10
158.8935026643002
 20
108.7755697612506
 30
0.0
 10
158.8411083992203
 20
108.9246517303482
 30
0.0
 10
158.8015181115803
 20
109.0782652500391
 30
0.0
  0
SPLINE
  5
D4
330
1F
100
AcDbEntity
  8
0
  6
HIDDEN
 62
     7
370
     0
100
AcDbSpline
210
0.0
220
0.0
230
1.0
 70
    11
 71
     3
 72
    66
 73
    62
 74
     0
 42
0.000000001
 43
0.00000001
 40
0.0
 40
0.0
 40
0.0
 40
0.0
 40
0.03125
 40
0.03125
 40
0.0625000000000001
 40
0.0625000000000001
 40
0.0937500000000001
 40
0.0937500000000001
 40
0.1250000000000002
 40
0.1250000000000002
 40
0.1562500000000002
 40
0.1562500000000002
 40
0.1875000000000002
 40
0.1875000000000002
 40
0.2187500000000003
 40
0.2187500000000003
 40
0.2500000000000003
 40
0.2500000000000003
 40
0.2812500000000004
 40
0.2812500000000004
 40
0.3125000000000004
 40
0.3125000000000004
 40
0.3437500000000004
 40
0.3437500000000004
 40
0.3750000000000005
 40
0.3750000000000005
 40
0.4062500000000006
 40
0.4062500000000006
 40
0.4375000000000006
 40
0.4375000000000006
 40
0.4687500000000006
 40
0.4687500000000006
 40
0.5000000000000007
 40
0.5000000000000007
 40
0.5312500000000007
 40
0.5312500000000007
 40
0.5625000000000008
 40
0.5625000000000008
 40
0.6250000000000002
 40
0.6250000000000002
 40
0.6562500000000002
 40
0.6562500000000002
 40
0.6875000000000001
 40
0.6875000000000001
 40
0.7187500000000001
 40
0.7187500000000001
 40
0.75
 40
0.75
 40
0.7812499999999999
 40
0.7812499999999999
 40
0.8124999999999999
 40
0.8124999999999999
 40
0.8437499999999998
 40
0.8437499999999998
 40
0.8749999999999997
 40
0.8749999999999997
 40
0.9375000000000001
 40
0.9375000000000001
 40
0.9687500000000001
 40
0.9687500000000001
 40
1.0
 40
1.0
 40
1.0
 40
1.0
 10
161.2204931718
 20
116.5968625526076
 30
0.0
 10
161.0474425061296
 20
116.5968625526076
 30
0.0
 10
160.8797478521224
 20
116.6068220573442
 30
0.0
 10
160.5532863020019
 20
116.6461047568995
 30
0.0
 10
160.3943284555412
 20
116.6758886636138
 30
0.0
 10
160.0983747583273
 20
116.7541409513033
 30
0.0
 10
159.9580036979818
 20
116.8033170224415
 30
0.0
 10
159.6966914171742
 20
116.9218734592721
 30
0.0
 10
159.5760519101551
 20
116.9908566583184
 30
0.0
 10
159.3526038643118
 20
117.151775854818
 30
0.0
 10
159.2498006170458
 20
117.2442391671276
 30
0.0
 10
159.0700869323285
 20
117.4490703075643
 30
0.0
 10
158.9919945035134
 20
117.5620958320658
 30
0.0
 10
158.8613440114465
 20
117.8138385718523
 30
0.0
 10
158.8092932306681
 20
117.953077978738
 30
0.0
 10
158.7396307822172
 20
118.2456535411394
 30
0.0
 10
158.7210582471474
 20
118.4030972732112
 30
0.0
 10
158.7199541094467
 20
118.7244685905984
 30
0.0
 10
158.7367991492486
 20
118.8876058063533
 30
0.0
 10
158.8048847530546
 20
119.2185195698514
 30
0.0
 10
158.855348158149
 20
119.3817012535082
 30
0.0
 10
158.9843967212021
 20
119.6980501399523
 30
0.0
 10
159.0638397348389
 20
119.8526819214747
 30
0.0
 10
159.2438975613376
 20
120.1423579578082
 30
0.0
 10
159.3455522906846
 20
120.2796304278052
 30
0.0
 10
159.5695661681956
 20
120.5355425921863
 30
0.0
 10
159.6900499651368
 20
120.6522753032278
 30
0.0
 10
159.9495663937295
 20
120.8633314330228
 30
0.0
 10
160.0901211478161
 20
120.9584561965353
 30
0.0
 10
160.3864146501755
 20
121.1171485442303
 30
0.0
 10
160.5418284466454
 20
121.181049739731
 30
0.0
 10
160.8722858243419
 20
121.2707935552004
 30
0.0
 10
161.0419176298018
 20
121.294696529307
 30
0.0
 10
161.3853669441653
 20
121.2959301758729
 30
0.0
 10
161.5572676538455
 20
121.2727602551723
 30
0.0
 10
161.8857971285595
 20
121.185733567264
 30
0.0
 10
162.0448635259549
 20
121.1214347298731
 30
0.0
 10
162.4884422398126
 20
120.886508282272
 30
0.0
 10
162.752182158055
 20
120.6697405728406
 30
0.0
 10
163.0871759848804
 20
120.2900209826161
 30
0.0
 10
163.1903393323648
 20
120.151966549478
 30
0.0
 10
163.3714890446365
 20
119.8629506464503
 30
0.0
 10
163.4499911020247
 20
119.7118410533024
 30
0.0
 10
163.5809788058715
 20
119.3953101375511
 30
0.0
 10
163.6324548300307
 20
119.2310625979128
 30
0.0
 10
163.7014815976266
 20
118.9054744700628
 30
0.0
 10
163.7199546405296
 20
118.7405504631654
 30
0.0
 10
163.7210083191156
 20
118.4165401809828
 30
0.0
 10
163.7039135493411
 20
118.261913784279
 30
0.0
 10
163.6360663474285
 20
117.9664560276418
 30
0.0
 10
163.5850456228642
 20
117.8267617412692
 30
0.0
 10
163.4558546078225
 20
117.5730335041697
 30
0.0
 10
163.3763355715869
 20
117.4561914628808
 30
0.0
 10
163.1955962731681
 20
117.2483898744653
 30
0.0
 10
163.0943907264686
 20
117.1567267989358
 30
0.0
 10
162.7579346379435
 20
116.9125966003911
 30
0.0
 10
162.4991115954843
 20
116.796162515898
 30
0.0
 10
162.0511154863103
 20
116.6767556376912
 30
0.0
 10
161.895176792951
 20
116.6472741854418
 30
0.0
 10
161.5660429306513
 20
116.6071402848261
 30
0.0
 10
161.3935438374703
 20
116.5968625526076
 30
0.0
 10
161.2204931718
 20
116.5968625526076
 30
0.0
  0
LINE
  5
D5
330
1F
100
AcDbEntity
  8
0
  6
HIDDEN
 62
     7
370
     0
100
AcDbLine
 10
239.8132470586
 20
139.3126008827
 30
0.0
 11
240.1937310323
 21
139.2567220926
 31
0.0
  0
LINE
  5
D6
330
1F
100
AcDbEntity
  8
0
  6
HIDDEN
 62
     7
370
     0
100
AcDbLine
 10
141.0204931718
 20
155.0342260754
 30
0.0
 11
141.1920660471
 21
155.0342260754
 31
0.0
  0
ELLIPSE
  5
D7
330
1F
100
AcDbEntity
  8
0
  6
HIDDEN
 62
     7
370
     0
100
AcDbEllipse
 10
141.1920660471
 20
157.0342260754
 30
0.0
 11
0.0
 21
2.0
 31
0.0
210
0.0
220
0.0
230
1.0
 40
0.4142135624
 41
3.141592653589793
 42
4.712388980384695
  0
ELLIPSE
  5
D8
330
1F
100
AcDbEntity
  8
0
  6
HIDDEN
 62
     7
370
     0
100
AcDbEllipse
 10
141.1920660471
 20
82.4342260754
 30
0.0
 11
0.0
 21
2.0
 31
0.0
210
0.0
220
0.0
230
1.0
 40
0.4142135624
 41
4.712388980384695
 42
6.283185307179586
  0
LINE
  5
D9
330
1F
100
AcDbEntity
  8
0
  6
HIDDEN
 62
     7
370
     0
100
AcDbLine
 10
141.1920660471
 20
84.4342260754
 30
0.0
 11
141.0204931718
 21
84.4342260754
 31
0.0
  0
LINE
  5
DA
330
1F
100
AcDbEntity
  8
0
  6
HIDDEN
 62
     7
370
     0
100
AcDbLine
 10
142.0204931718
 20
72.4136559215
 30
0.0
 11
141.4066295918
 21
71.7997923416
 31
0.0
  0
LINE
  5
DB
330
1F
100
AcDbEntity
  8
0
  6
HIDDEN
 62
     7
370
     0
100
AcDbLine
 10
141.4066295918
 20
167.6686598093
 30
0.0
 11
142.0204931718
 21
167.0547962294
 31
0.0
  0
SPLINE
  5
DC
330
1F
100
AcDbEntity
  8
0
  6
HIDDEN
 62
     7
370
     0
100
AcDbSpline
210
0.0
220
0.0
230
1.0
 70
     8
 71
     3
 72
    14
 73
    10
 74
     0
 42
0.000000001
 43
0.00000001
 40
0.0
 40
0.0
 40
0.0
 40
0.0
 40
0.1878284864210363
 40
0.354582006350713
 40
0.5003029611496775
 40
0.6713289150616614
 40
0.8376430920894544
 40
0.9994176736746192
 40
1.0
 40
1.0
 40
1.0
 40
1.0
 10
168.1047929086867
 20
167.9402476773917
 30
0.0
 10
168.4377834512926
 20
168.0217919052371
 30
0.0
 10
169.0664019156311
 20
168.1757308336003
 30
0.0
 10
169.7659922622766
 20
168.3667556305209
 30
0.0
 10
170.3133415885278
 20
168.5239697696213
 30
0.0
 10
170.7216833420753
 20
168.6429622773378
 30
0.0
 10
170.9465305570253
 20
168.7108579756028
 30
0.0
 10
171.0605611192828
 20
168.7464976877149
 30
0.0
 10
171.0202038720491
 20
168.7341376315069
 30
0.0
 10
171.0200591225107
 20
168.7340932996321
 30
0.0
  0
SPLINE
  5
DD
330
1F
100
AcDbEntity
  8
0
  6
HIDDEN
 62
     7
370
     0
100
AcDbSpline
210
0.0
220
0.0
230
1.0
 70
     8
 71
     3
 72
    13
 73
     9
 74
     0
 42
0.000000001
 43
0.00000001
 40
0.0
 40
0.0
 40
0.0
 40
0.0
 40
0.0005825290635634
 40
0.1623661983695077
 40
0.328738549447489
 40
0.499871825213266
 40
0.7262528256364211
 40
1.0
 40
1.0
 40
1.0
 40
1.0
 10
171.0200590144063
 20
70.73435888210899
 30
0.0
 10
171.0202038004412
 20
70.73431453991569
 30
0.0
 10
171.0605594831648
 20
70.72195520232368
 30
0.0
 10
170.9464048762677
 20
70.75758428832324
 30
0.0
 10
170.7222877685802
 20
70.82543225123412
 30
0.0
 10
170.2429788775908
 20
70.9645254253874
 30
0.0
 10
169.4494712199407
 20
71.19477200615418
 30
0.0
 10
168.5804533474614
 20
71.41025757691862
 30
0.0
 10
168.1047929086867
 20
71.52820447350778
 30
0.0
  0
LINE
  5
DE
330
1F
100
AcDbEntity
  8
0
  6
HIDDEN
 62
     7
370
     0
100
AcDbLine
 10
154.2530622083
 20
72.4136559215
 30
0.0
 11
142.0204931718
 21
72.4136559215
 31
0.0
  0
LINE
  5
DF
330
1F
100
AcDbEntity
  8
0
  6
HIDDEN
 62
     7
370
     0
100
AcDbLine
 10
142.0204931718
 20
72.4136559215
 30
0.0
 11
142.0204931718
 21
82.4342260754
 31
0.0
  0
LINE
  5
E0
330
1F
100
AcDbEntity
  8
0
  6
HIDDEN
 62
     7
370
     0
100
AcDbLine
 10
169.0204931718
 20
84.4342260754
 30
0.0
 11
158.1704931718
 21
84.4342260754
 31
0.0
  0
LINE
  5
E1
330
1F
100
AcDbEntity
  8
0
  6
HIDDEN
 62
     7
370
     0
100
AcDbLine
 10
158.1704931718
 20
155.0342260754
 30
0.0
 11
169.0204931718
 21
155.0342260754
 31
0.0
  0
LINE
  5
E2
330
1F
100
AcDbEntity
  8
0
  6
HIDDEN
 62
     7
370
     0
100
AcDbLine
 10
141.1920660471
 20
155.0342260754
 30
0.0
 11
158.1704931718
 21
155.0342260754
 31
0.0
  0
LINE
  5
E3
330
1F
100
AcDbEntity
  8
0
  6
HIDDEN
 62
     7
370
     0
100
AcDbLine
 10
142.0204931718
 20
167.0547962294
 30
0.0
 11
154.2530622083
 21
167.0547962294
 31
0.0
  0
LINE
  5
E4
330
1F
100
AcDbEntity
  8
0
  6
HIDDEN
 62
     7
370
     0
100
AcDbLine
 10
142.0204931718
 20
167.0547962294
 30
0.0
 11
142.0204931718
 21
157.0342260754
 31
0.0
  0
LINE
  5
E5
330
1F
100
AcDbEntity
  8
0
  6
HIDDEN
 62
     7
370
     0
100
AcDbLine
 10
158.1704931718
 20
84.4342260754
 30
0.0
 11
141.1920660471
 21
84.4342260754
 31
0.0
  0
LINE
  5
E6
330
1F
100
AcDbEntity
  8
0
  6
HIDDEN
 62
     7
370
     0
100
AcDbLine
 10
46.2204931718
 20
107.2342260754
 30
0.0
 11
46.2204931718
 21
132.2342260754
 31
0.0
  0
LINE
  5
E7
330
1F
100
AcDbEntity
  8
0
  6
HIDDEN
 62
     7
370
     0
100
AcDbLine
 10
49.5050975207
 20
109.2342260754
 30
0.0
 11
49.5050975207
 21
130.2342260754
 31
0.0
  0
LINE
  5
E8
330
1F
100
AcDbEntity
  8
0
  6
HIDDEN
 62
     7
370
     0
100
AcDbLine
 10
227.5204931718
 20
119.7342260754
 30
0.0
 11
227.5204931718
 21
109.2342260754
 31
0.0
  0
LINE
  5
E9
330
1F
100
AcDbEntity
  8
0
  6
HIDDEN
 62
     7
370
     0
100
AcDbLine
 10
227.5204931718
 20
130.2342260754
 30
0.0
 11
227.5204931718
 21
119.7342260754
 31
0.0
  0
LINE
  5
EA
330
1F
100
AcDbEntity
  8
0
  6
HIDDEN
 62
     7
370
     0
100
AcDbLine
 10
231.3865185756
 20
119.7342260754
 30
0.0
 11
231.3865185756
 21
108.7342260754
 31
0.0
  0
LINE
  5
EB
330
1F
100
AcDbEntity
  8
0
  6
HIDDEN
 62
     7
370
     0
100
AcDbLine
 10
231.3865185756
 20
130.7342260754
 30
0.0
 11
231.3865185756
 21
119.7342260754
 31
0.0
  0
SPLINE
  5
EC
330
1F
100
AcDbEntity
  8
0
  6
HIDDEN
 62
     7
370
     0
100
AcDbSpline
210
0.0
220
0.0
230
1.0
 70
     8
 71
     3
 72
    12
 73
     8
 74
     0
 42
0.000000001
 43
0.00000001
 40
0.0
 40
0.0
 40
0.0
 40
0.0
 40
0.2023337810067088
 40
0.4042343133530938
 40
0.6170978470322112
 40
0.8386455712525551
 40
1.0
 40
1.0
 40
1.0
 40
1.0
 10
243.9704931718
 20
129.7716560253921
 30
0.0
 10
244.4521375018792
 20
129.7925760235662
 30
0.0
 10
245.4143948376602
 20
129.8343712248181
 30
0.0
 10
246.71395852159
 20
130.1223160549391
 30
0.0
 10
247.7439502350837
 20
130.4460494909332
 30
0.0
 10
248.3877938688761
 20
130.7000034964834
 30
0.0
 10
248.414644976614
 20
130.7114017959271
 30
0.0
 10
248.4259599956514
 20
130.716205023282
 30
0.0
  0
SPLINE
  5
ED
330
1F
100
AcDbEntity
  8
0
  6
HIDDEN
 62
     7
370
     0
100
AcDbSpline
210
0.0
220
0.0
230
1.0
 70
     8
 71
     3
 72
    15
 73
    11
 74
     0
 42
0.000000001
 43
0.00000001
 40
0.0
 40
0.0
 40
0.0
 40
0.0
 40
0.0065407445403564
 40
0.1746020104417597
 40
0.3312622405883039
 40
0.4828001111934802
 40
0.6411902764760887
 40
0.8098901892844653
 40
0.97700063609484
 40
1.0
 40
1.0
 40
1.0
 40
1.0
 10
239.9800597234538
 20
130.5370346831128
 30
0.0
 10
239.9682362118381
 20
130.5409889420991
 30
0.0
 10
239.6526132906476
 20
130.6465459722758
 30
0.0
 10
239.4497811708762
 20
130.7485218087322
 30
0.0
 10
239.4807965421303
 20
130.7278893279776
 30
0.0
 10
240.005586310118
 20
130.5203612181091
 30
0.0
 10
240.9238411278786
 20
130.2060290242679
 30
0.0
 10
242.2093904427835
 20
129.89194684226
 30
0.0
 10
243.3128021914334
 20
129.7760295649202
 30
0.0
 10
243.8995132422802
 20
129.7721280305385
 30
0.0
 10
243.9704931718
 20
129.7716560253921
 30
0.0
  0
LINE
  5
EE
330
1F
100
AcDbEntity
  8
0
  6
HIDDEN
 62
     7
370
     0
100
AcDbLine
 10
99.2204931718
 20
109.2342260754
 30
0.0
 11
99.2204931718
 21
130.2342260754
 31
0.0
  0
LINE
  5
EF
330
1F
100
AcDbEntity
  8
0
  6
HIDDEN
 62
     7
370
     0
100
AcDbLine
 10
103.4866035669
 20
116.3342260754
 30
0.0
 11
103.4866035669
 21
123.1342260754
 31
0.0
  0
SPLINE
  5
F0
330
1F
100
AcDbEntity
  8
0
  6
HIDDEN
 62
     7
370
     0
100
AcDbSpline
210
0.0
220
0.0
230
1.0
 70
     8
 71
     3
 72
     9
 73
     5
 74
     0
 42
0.000000001
 43
0.00000001
 40
0.0
 40
0.0
 40
0.0
 40
0.0
 40
0.4951995007203773
 40
1.0
 40
1.0
 40
1.0
 40
1.0
 10
168.1047773862371
 20
167.9402382398625
 30
0.0
 10
168.2099736079617
 20
168.0973940001153
 30
0.0
 10
168.4224056107638
 20
168.4147524789185
 30
0.0
 10
168.6371239942781
 20
168.7333790270215
 30
0.0
 10
168.7455139414805
 20
168.8942218675876
 30
0.0
  0
SPLINE
  5
F1
330
1F
100
AcDbEntity
  8
0
  6
HIDDEN
 62
     7
370
     0
100
AcDbSpline
210
0.0
220
0.0
230
1.0
 70
     8
 71
     3
 72
     9
 73
     5
 74
     0
 42
0.000000001
 43
0.00000001
 40
0.0
 40
0.0
 40
0.0
 40
0.0
 40
0.5048004990382029
 40
1.0
 40
1.0
 40
1.0
 40
1.0
 10
168.7455139414806
 20
70.57423028331196
 30
0.0
 10
168.6371239943328
 20
70.73507312379442
 30
0.0
 10
168.4224056108243
 20
71.05369967188408
 30
0.0
 10
168.209973608016
 20
71.37105815070092
 30
0.0
 10
168.1047773862371
 20
71.528213911037
 30
0.0
  0
LINE
  5
F2
330
1F
100
AcDbEntity
  8
0
  6
HIDDEN
 62
     7
370
     0
100
AcDbLine
 10
243.9704931718
 20
137.9842260754
 30
0.0
 11
248.4704931718
 21
137.9842260754
 31
0.0
  0
LINE
  5
F3
330
1F
100
AcDbEntity
  8
0
  6
HIDDEN
 62
     7
370
     0
100
AcDbLine
 10
239.4704931718
 20
137.9842260754
 30
0.0
 11
243.9704931718
 21
137.9842260754
 31
0.0
  0
SPLINE
  5
F4
330
1F
100
AcDbEntity
  8
0
  6
HIDDEN
 62
     7
370
     0
100
AcDbSpline
210
0.0
220
0.0
230
1.0
 70
    11
 71
     3
 72
    66
 73
    62
 74
     0
 42
0.000000001
 43
0.00000001
 40
0.0
 40
0.0
 40
0.0
 40
0.0
 40
0.03125
 40
0.03125
 40
0.0625000000000001
 40
0.0625000000000001
 40
0.0937500000000001
 40
0.0937500000000001
 40
0.1250000000000001
 40
0.1250000000000001
 40
0.1562500000000002
 40
0.1562500000000002
 40
0.1875000000000002
 40
0.1875000000000002
 40
0.2187500000000002
 40
0.2187500000000002
 40
0.2500000000000003
 40
0.2500000000000003
 40
0.2812500000000003
 40
0.2812500000000003
 40
0.3125000000000003
 40
0.3125000000000003
 40
0.3437500000000004
 40
0.3437500000000004
 40
0.3750000000000004
 40
0.3750000000000004
 40
0.4062500000000005
 40
0.4062500000000005
 40
0.4375000000000005
 40
0.4375000000000005
 40
0.4687500000000006
 40
0.4687500000000006
 40
0.5000000000000006
 40
0.5000000000000006
 40
0.5312500000000006
 40
0.5312500000000006
 40
0.5625000000000007
 40
0.5625000000000007
 40
0.6250000000000001
 40
0.6250000000000001
 40
0.6562500000000001
 40
0.6562500000000001
 40
0.6875
 40
0.6875
 40
0.71875
 40
0.71875
 40
0.7499999999999999
 40
0.7499999999999999
 40
0.7812499999999998
 40
0.7812499999999998
 40
0.8124999999999998
 40
0.8124999999999998
 40
0.8437499999999997
 40
0.8437499999999997
 40
0.8749999999999996
 40
0.8749999999999996
 40
0.9374999999999994
 40
0.9374999999999994
 40
0.9687499999999998
 40
0.9687499999999998
 40
1.0
 40
1.0
 40
1.0
 40
1.0
 10
161.2204931718
 20
118.1731264943624
 30
0.0
 10
161.3935438374704
 20
118.1731264943624
 30
0.0
 10
161.5612384914776
 20
118.1964880294214
 30
0.0
 10
161.8877000415981
 20
118.283483035399
 30
0.0
 10
162.0466578880588
 20
118.3477999624674
 30
0.0
 10
162.3426115852727
 20
118.5048795628511
 30
0.0
 10
162.4829826456182
 20
118.5990208948234
 30
0.0
 10
162.7442949264257
 20
118.8100563927186
 30
0.0
 10
162.8649344334448
 20
118.9263753281944
 30
0.0
 10
163.0883824792881
 20
119.1799425426394
 30
0.0
 10
163.1911857265541
 20
119.317811417348
 30
0.0
 10
163.3708994112715
 20
119.6045853735443
 30
0.0
 10
163.4489918400866
 20
119.7546624090704
 30
0.0
 10
163.5796423321535
 20
120.0694546807998
 30
0.0
 10
163.6316931129319
 20
120.2344640862076
 30
0.0
 10
163.7013555613828
 20
120.5617242270712
 30
0.0
 10
163.7199280964525
 20
120.7285500320982
 30
0.0
 10
163.7210322341533
 20
121.0504766971798
 30
0.0
 10
163.7041871943514
 20
121.2050987557266
 30
0.0
 10
163.6361015905454
 20
121.5020894813624
 30
0.0
 10
163.585638185451
 20
121.6402595300842
 30
0.0
 10
163.4565896223979
 20
121.8942394631767
 30
0.0
 10
163.3771466087611
 20
122.0111148658879
 30
0.0
 10
163.1970887822624
 20
122.2185569294226
 30
0.0
 10
163.0954340529154
 20
122.3108373079603
 30
0.0
 10
162.8714201754044
 20
122.4736408649099
 30
0.0
 10
162.7509363784632
 20
122.5429955437614
 30
0.0
 10
162.4914199498704
 20
122.6618449666576
 30
0.0
 10
162.3508651957839
 20
122.711677999767
 30
0.0
 10
162.0545716934245
 20
122.7908979841294
 30
0.0
 10
161.8991578969546
 20
122.8205469801698
 30
0.0
 10
161.5687005192581
 20
122.8611304491125
 30
0.0
 10
161.3990687137982
 20
122.871316667501
 30
0.0
 10
161.0556193994347
 20
122.8718518536161
 30
0.0
 10
160.8837186897544
 20
122.8619806508323
 30
0.0
 10
160.5551892150405
 20
122.8227013621213
 30
0.0
 10
160.3961228176451
 20
122.7929341194106
 30
0.0
 10
159.9525441037874
 20
122.6759581443455
 30
0.0
 10
159.688804185545
 20
122.5585472633287
 30
0.0
 10
159.3538103587195
 20
122.3176683840208
 30
0.0
 10
159.2506470112352
 20
122.2251543060278
 30
0.0
 10
159.0694972989635
 20
122.0187331346561
 30
0.0
 10
158.9909952415753
 20
121.9048818481926
 30
0.0
 10
158.8600075377285
 20
121.6515793559062
 30
0.0
 10
158.8085315135693
 20
121.5128265038373
 30
0.0
 10
158.7395047459734
 20
121.2216093842655
 30
0.0
 10
158.7210317030705
 20
121.0660165728522
 30
0.0
 10
158.7199780244844
 20
120.7425362590913
 30
0.0
 10
158.7370727942589
 20
120.5792698933321
 30
0.0
 10
158.8049199961715
 20
120.2500088810279
 30
0.0
 10
158.8559407207358
 20
120.0850291445384
 30
0.0
 10
158.9851317357775
 20
119.768872131255
 30
0.0
 10
159.0646507720131
 20
119.6142413277384
 30
0.0
 10
159.2453900704318
 20
119.3239200385727
 30
0.0
 10
159.3465956171314
 20
119.1874803091232
 30
0.0
 10
159.6830517056564
 20
118.8035657715873
 30
0.0
 10
159.9418747481157
 20
118.5889910065695
 30
0.0
 10
160.3898708572897
 20
118.3496570528437
 30
0.0
 10
160.545809550649
 20
118.2860298431921
 30
0.0
 10
160.8749434129487
 20
118.1972342015816
 30
0.0
 10
161.0474425061296
 20
118.1731264943624
 30
0.0
 10
161.2204931718
 20
118.1731264943624
 30
0.0
  0
SPLINE
  5
F5
330
1F
100
AcDbEntity
  8
0
  6
HIDDEN
 62
     7
370
     0
100
AcDbSpline
210
0.0
220
0.0
230
1.0
 70
    11
 71
     3
 72
    66
 73
    62
 74
     0
 42
0.000000001
 43
0.00000001
 40
0.0
 40
0.0
 40
0.0
 40
0.0
 40
0.0312499999999998
 40
0.0312499999999998
 40
0.0624999999999996
 40
0.0624999999999996
 40
0.0937499999999994
 40
0.0937499999999994
 40
0.1249999999999991
 40
0.1249999999999991
 40
0.1562499999999989
 40
0.1562499999999989
 40
0.1874999999999987
 40
0.1874999999999987
 40
0.2187499999999985
 40
0.2187499999999985
 40
0.2499999999999983
 40
0.2499999999999983
 40
0.2812499999999981
 40
0.2812499999999981
 40
0.3124999999999978
 40
0.3124999999999978
 40
0.3437499999999976
 40
0.3437499999999976
 40
0.3749999999999974
 40
0.3749999999999974
 40
0.4062499999999972
 40
0.4062499999999972
 40
0.437499999999997
 40
0.437499999999997
 40
0.4687499999999968
 40
0.4687499999999968
 40
0.4999999999999966
 40
0.4999999999999966
 40
0.5312499999999963
 40
0.5312499999999963
 40
0.5624999999999961
 40
0.5624999999999961
 40
0.6249999999999959
 40
0.6249999999999959
 40
0.6562499999999962
 40
0.6562499999999962
 40
0.6874999999999966
 40
0.6874999999999966
 40
0.7187499999999969
 40
0.7187499999999969
 40
0.7499999999999972
 40
0.7499999999999972
 40
0.7812499999999977
 40
0.7812499999999977
 40
0.812499999999998
 40
0.812499999999998
 40
0.8437499999999983
 40
0.8437499999999983
 40
0.8749999999999987
 40
0.8749999999999987
 40
0.906249999999999
 40
0.906249999999999
 40
0.9374999999999993
 40
0.9374999999999993
 40
1.0
 40
1.0
 40
1.0
 40
1.0
 10
161.2204931718
 20
131.8956802823636
 30
0.0
 10
161.0552928811361
 20
131.8956802823636
 30
0.0
 10
160.8928603398396
 20
131.9112458736455
 30
0.0
 10
160.5733021842496
 20
131.9721921454751
 30
0.0
 10
160.4145188462725
 20
132.0183141894604
 30
0.0
 10
160.1117808297932
 20
132.1385773770484
 30
0.0
 10
159.9682016646588
 20
132.2121210264691
 30
0.0
 10
159.6964719347908
 20
132.3856379494014
 30
0.0
 10
159.5678433712531
 20
132.486510606188
 30
0.0
 10
159.3372776095859
 20
132.7064953950863
 30
0.0
 10
159.2338036083365
 20
132.826374558675
 30
0.0
 10
159.0510430704107
 20
133.0862159252725
 30
0.0
 10
158.9733988141821
 20
133.2243053558448
 30
0.0
 10
158.8487061634921
 20
133.5092877880929
 30
0.0
 10
158.8007021829136
 20
133.6582828974354
 30
0.0
 10
158.7364704405953
 20
133.9628079848301
 30
0.0
 10
158.7205809965531
 20
134.1155773322666
 30
0.0
 10
158.720406066198
 20
134.4220670138806
 30
0.0
 10
158.7366367175329
 20
134.5773937841757
 30
0.0
 10
158.8004179402425
 20
134.8774559900742
 30
0.0
 10
158.8476100516388
 20
135.0229907025734
 30
0.0
 10
158.9727766692967
 20
135.3051239828953
 30
0.0
 10
159.0510361566717
 20
135.44126382425
 30
0.0
 10
159.231956340027
 20
135.6928003740196
 30
0.0
 10
159.3352415689509
 20
135.8098272178628
 30
0.0
 10
159.5684933109996
 20
136.0259025114843
 30
0.0
 10
159.6949071792652
 20
136.1216064353697
 30
0.0
 10
159.9655794499598
 20
136.2887594321413
 30
0.0
 10
160.1116612221241
 20
136.3609206177644
 30
0.0
 10
160.414545667597
 20
136.4765746597209
 30
0.0
 10
160.5703760272367
 20
136.5201074669035
 30
0.0
 10
160.8907215165022
 20
136.5790033698369
 30
0.0
 10
161.0564316024738
 20
136.5940894728568
 30
0.0
 10
161.3827629911703
 20
136.5941970045236
 30
0.0
 10
161.5449500769972
 20
136.5797063473339
 30
0.0
 10
161.8673256582058
 20
136.5209782830567
 30
0.0
 10
162.0253411322433
 20
136.4768474759274
 30
0.0
 10
162.4767520073189
 20
136.3049178773294
 30
0.0
 10
162.7558314643711
 20
136.1333441846584
 30
0.0
 10
163.1019051688695
 20
135.8136933662921
 30
0.0
 10
163.2075471847841
 20
135.6946522369037
 30
0.0
 10
163.3893306607549
 20
135.4423324760453
 30
0.0
 10
163.4662184841388
 20
135.3088681646739
 30
0.0
 10
163.5918730415092
 20
135.0271027521216
 30
0.0
 10
163.6401811174239
 20
134.8786820204906
 30
0.0
 10
163.7039990028642
 20
134.579632422714
 30
0.0
 10
163.720327179907
 20
134.4274293528468
 30
0.0
 10
163.7206566699667
 20
134.117427494007
 30
0.0
 10
163.704560158132
 20
133.963904826909
 30
0.0
 10
163.6413314208708
 20
133.6623761093299
 30
0.0
 10
163.5934948274603
 20
133.5124412840281
 30
0.0
 10
163.4681515095469
 20
133.2252221879372
 30
0.0
 10
163.3914548350217
 20
133.088843273621
 30
0.0
 10
163.2104034683699
 20
132.8304877156068
 30
0.0
 10
163.104927858009
 20
132.7078125392324
 30
0.0
 10
162.8744012893328
 20
132.4875588551804
 30
0.0
 10
162.7486818517025
 20
132.3886332837466
 30
0.0
 10
162.4759150025056
 20
132.2137946028249
 30
0.0
 10
162.3301956260996
 20
132.1391177578445
 30
0.0
 10
161.8791265209916
 20
131.9594915423518
 30
0.0
 10
161.5508937531278
 20
131.8956802823636
 30
0.0
 10
161.2204931718
 20
131.8956802823636
 30
0.0
  0
SPLINE
  5
F6
330
1F
100
AcDbEntity
  8
0
  6
HIDDEN
 62
     7
370
     0
100
AcDbSpline
210
0.0
220
0.0
230
1.0
 70
    11
 71
     3
 72
    60
 73
    56
 74
     0
 42
0.000000001
 43
0.00000001
 40
0.0
 40
0.0
 40
0.0
 40
0.0
 40
0.0312500000000002
 40
0.0312500000000002
 40
0.0625000000000004
 40
0.0625000000000004
 40
0.0937500000000006
 40
0.0937500000000006
 40
0.1250000000000008
 40
0.1250000000000008
 40
0.1562500000000011
 40
0.1562500000000011
 40
0.1875000000000012
 40
0.1875000000000012
 40
0.2187500000000014
 40
0.2187500000000014
 40
0.2500000000000017
 40
0.2500000000000017
 40
0.3125000000000015
 40
0.3125000000000015
 40
0.3750000000000014
 40
0.3750000000000014
 40
0.4062500000000013
 40
0.4062500000000013
 40
0.4375000000000012
 40
0.4375000000000012
 40
0.4531250000000012
 40
0.4531250000000012
 40
0.4687500000000011
 40
0.4687500000000011
 40
0.5000000000000003
 40
0.5000000000000003
 40
0.5625
 40
0.5625
 40
0.6249999999999996
 40
0.6249999999999996
 40
0.6874999999999992
 40
0.6874999999999992
 40
0.7187499999999993
 40
0.7187499999999993
 40
0.7499999999999994
 40
0.7499999999999994
 40
0.7812499999999996
 40
0.7812499999999996
 40
0.8124999999999997
 40
0.8124999999999997
 40
0.8437499999999998
 40
0.8437499999999998
 40
0.8749999999999998
 40
0.8749999999999998
 40
0.9062499999999999
 40
0.9062499999999999
 40
0.9375
 40
0.9375
 40
1.0
 40
1.0
 40
1.0
 40
1.0
 10
158.8015181115803
 20
129.2037012757269
 30
0.0
 10
158.8411081944271
 20
129.0722207443729
 30
0.0
 10
158.8934198153472
 20
128.9530368936933
 30
0.0
 10
159.0191399209498
 20
128.7378434063653
 30
0.0
 10
159.093562951394
 20
128.6412555007571
 30
0.0
 10
159.252273259587
 20
128.480694589002
 30
0.0
 10
159.3371518593925
 20
128.4154153523
 30
0.0
 10
159.5089250789344
 20
128.3179131777428
 30
0.0
 10
159.5929353152304
 20
128.2874380809456
 30
0.0
 10
159.738331238509
 20
128.2676891125882
 30
0.0
 10
159.7965974870183
 20
128.2794656620844
 30
0.0
 10
159.8632022118284
 20
128.3438860048677
 30
0.0
 10
159.8703630962262
 20
128.3945991429475
 30
0.0
 10
159.8472177768439
 20
128.5176226553225
 30
0.0
 10
159.8183096908743
 20
128.5880938816078
 30
0.0
 10
159.7428889330291
 20
128.7417155442723
 30
0.0
 10
159.6959434602527
 20
128.8253508124562
 30
0.0
 10
159.5443015686313
 20
129.0887310514663
 30
0.0
 10
159.4283744313681
 20
129.2822799768899
 30
0.0
 10
159.1947488603858
 20
129.7191494487858
 30
0.0
 10
159.0760660936839
 20
129.9621545829732
 30
0.0
 10
158.9195947847283
 20
130.373229121503
 30
0.0
 10
158.8716081361761
 20
130.5169006869863
 30
0.0
 10
158.7909991263859
 20
130.8173636149452
 30
0.0
 10
158.7582995974908
 20
130.9758628692195
 30
0.0
 10
158.7298789881469
 20
131.2110733910488
 30
0.0
 10
158.7237329161733
 20
131.2903209988453
 30
0.0
 10
158.7192547144084
 20
131.4419985693048
 30
0.0
 10
158.7207709248206
 20
131.5152066416131
 30
0.0
 10
158.736533864497
 20
131.7269623728401
 30
0.0
 10
158.7620079191824
 20
131.8528605187015
 30
0.0
 10
158.8683726629313
 20
132.1745908847207
 30
0.0
 10
158.9742506922018
 20
132.3126046010808
 30
0.0
 10
159.1974209131469
 20
132.498416452211
 30
0.0
 10
159.3183073452741
 20
132.5473404869672
 30
0.0
 10
159.5473898189558
 20
132.5833918127582
 30
0.0
 10
159.6575526372063
 20
132.5715136295565
 30
0.0
 10
159.7855358045574
 20
132.5069060680071
 30
0.0
 10
159.8218771499698
 20
132.4768988542436
 30
0.0
 10
159.8649671531299
 20
132.3963707306937
 30
0.0
 10
159.8714519617318
 20
132.3447903134419
 30
0.0
 10
159.8354112090309
 20
132.2152431038162
 30
0.0
 10
159.7911919939057
 20
132.1353842793228
 30
0.0
 10
159.6655420190935
 20
131.9532548040178
 30
0.0
 10
159.5844178876121
 20
131.8492023639977
 30
0.0
 10
159.4174725175177
 20
131.6262384683184
 30
0.0
 10
159.3295843527878
 20
131.5044350862731
 30
0.0
 10
159.1639448555388
 20
131.2468738632135
 30
0.0
 10
159.0859987674013
 20
131.1113950028996
 30
0.0
 10
158.9467430337298
 20
130.8246406815516
 30
0.0
 10
158.8877173148308
 20
130.6781886436605
 30
0.0
 10
158.7939323611275
 20
130.3779439137585
 30
0.0
 10
158.7591193030181
 20
130.2222420576333
 30
0.0
 10
158.7008016983414
 20
129.7664790703716
 30
0.0
 10
158.7223379458866
 20
129.4666623384348
 30
0.0
 10
158.8015181115803
 20
129.2037012757269
 30
0.0
  0
LWPOLYLINE
  5
F7
330
1F
100
AcDbEntity
  8
0
  6
HIDDEN
 62
     7
370
     0
100
AcDbPolyline
 90
       18
 70
   128
 43
0.0
 10
142.0027508723
 20
132.5208769346
 10
142.18440393
 20
131.9886654558
 10
142.4767722741
 20
131.6885735444
 10
142.8403699398
 20
131.661130276
 10
143.2260910475
 20
131.9100420162
 10
143.5818418242
 20
132.401691855
 10
143.8595761564
 20
133.0696797575
 10
144.0217844834
 20
133.823790256
 10
144.0465596718
 20
134.5621765489
 10
143.9305556953
 20
135.185115476
 10
143.6894395335
 20
135.6084756831
 10
143.3557752603
 20
135.7750800286
 10
142.9746260846
 20
135.6624276722
 10
142.5974683146
 20
135.2857329391
 10
142.2752391971
 20
134.6958705401
 10
142.0514575599
 20
133.9725046609
 10
141.9563463531
 20
133.2133298718
 10
142.0027508723
 20
132.5208769346
  0
LWPOLYLINE
  5
F8
330
1F
100
AcDbEntity
  8
0
  6
HIDDEN
 62
     7
370
     0
100
AcDbPolyline
 90
       22
 70
   128
 43
0.0
 10
141.2898802837
 20
132.0684014136
 10
141.4863552597
 20
131.4299438416
 10
141.7924888051
 20
130.9988223905
 10
142.1810796109
 20
130.8133440931
 10
142.6175996789
 20
130.88998951
 10
143.0632622852
 20
131.2219483597
 10
143.4784683516
 20
131.7797246415
 10
143.8263249969
 20
132.513757485
 10
144.0759236317
 20
133.3588248509
 10
144.205086322
 20
134.2398387952
 10
144.2023363958
 20
135.0785173626
 10
144.0679181962
 20
135.800340282
 10
143.8137753701
 20
136.3411704193
 10
143.4624896229
 20
136.6529526435
 10
143.0452742348
 20
136.7079837355
 10
142.599200624
 20
136.5013739416
 10
142.1639043884
 20
136.0514814484
 10
141.7780635087
 20
135.3982811784
 10
141.4759616404
 20
134.5998128421
 10
141.2844418601
 20
133.7270238551
 10
141.2205215409
 20
132.8574653492
 10
141.2898802837
 20
132.0684014136
  0
CIRCLE
  5
F9
330
1F
100
AcDbEntity
  8
0
  6
HIDDEN
 62
     7
370
     0
100
AcDbCircle
 10
243.9704931718
 20
119.7342260754
 30
0.0
 40
5.000000000000029
  0
LINE
  5
FA
330
1F
100
AcDbEntity
  8
0
  6
HIDDEN
 62
     7
370
     0
100
AcDbLine
 10
238.9711520518
 20
137.2842260754
 30
0.0
 11
248.9704931718
 21
137.2842260754
 31
0.0
  0
LINE
  5
FB
330
1F
100
AcDbEntity
  8
0
  6
HIDDEN
 62
     7
370
     0
100
AcDbLine
 10
238.9711520518
 20
130.7617251502
 30
0.0
 11
248.9704931718
 21
130.7617251502
 31
0.0
  0
SPLINE
  5
FC
330
1F
100
AcDbEntity
  8
0
  6
HIDDEN
 62
     7
370
     0
100
AcDbSpline
210
0.0
220
0.0
230
1.0
 70
     8
 71
     3
 72
    11
 73
     7
 74
     0
 42
0.000000001
 43
0.00000001
 40
0.0
 40
0.0
 40
0.0
 40
0.0
 40
0.2164543009645051
 40
0.4403089937225488
 40
0.7518987489759471
 40
0.9999999999999999
 40
0.9999999999999999
 40
0.9999999999999999
 40
0.9999999999999999
 10
241.4473912120823
 20
137.8709774213979
 30
0.0
 10
241.6170151334879
 20
137.7804293710018
 30
0.0
 10
241.9620622765225
 20
137.5962375079812
 30
0.0
 10
242.6023790930922
 20
137.4427116028831
 30
0.0
 10
243.2892370714301
 20
137.5352729293936
 30
0.0
 10
243.7287860046667
 20
137.7678708321878
 30
0.0
 10
243.923630372361
 20
137.8709774213979
 30
0.0
  0
SPLINE
  5
FD
330
1F
100
AcDbEntity
  8
0
  6
HIDDEN
 62
     7
370
     0
100
AcDbSpline
210
0.0
220
0.0
230
1.0
 70
     8
 71
     3
 72
    11
 73
     7
 74
     0
 42
0.000000001
 43
0.00000001
 40
0.0
 40
0.0
 40
0.0
 40
0.0
 40
0.2164543009644996
 40
0.4403089937225396
 40
0.7518987489759419
 40
0.9999999999999999
 40
0.9999999999999999
 40
0.9999999999999999
 40
0.9999999999999999
 10
243.923630372361
 20
137.8709774213979
 30
0.0
 10
244.0964644246523
 20
137.7804293710018
 30
0.0
 10
244.4480415811527
 20
137.5962375079813
 30
0.0
 10
245.1004763865796
 20
137.4427116028831
 30
0.0
 10
245.8003331447602
 20
137.5352729293936
 30
0.0
 10
246.2482005368242
 20
137.7678708321878
 30
0.0
 10
246.4467323320787
 20
137.8709774213979
 30
0.0
  0
SPLINE
  5
FE
330
1F
100
AcDbEntity
  8
0
  6
HIDDEN
 62
     7
370
     0
100
AcDbSpline
210
0.0
220
0.0
230
1.0
 70
     8
 71
     3
 72
    13
 73
     9
 74
     0
 42
0.000000001
 43
0.00000001
 40
0.0
 40
0.0
 40
0.0
 40
0.0
 40
0.1844095697099008
 40
0.3495005370884481
 40
0.5197705331556488
 40
0.6927076360809614
 40
0.8718061725834058
 40
1.0
 40
1.0
 40
1.0
 40
1.0
 10
246.4467323320787
 20
137.8709774213979
 30
0.0
 10
246.4494636199503
 20
137.7929046603103
 30
0.0
 10
246.4546400681117
 20
137.6449379795409
 30
0.0
 10
246.4628685394294
 20
137.5088772842667
 30
0.0
 10
246.4711835824929
 20
137.4664366467277
 30
0.0
 10
246.4796820671175
 20
137.5358467627761
 30
0.0
 10
246.4871763495742
 20
137.6835874395069
 30
0.0
 10
246.4917056382547
 20
137.8158155368742
 30
0.0
 10
246.4935951315178
 20
137.8709774213979
 30
0.0
  0
SPLINE
  5
FF
330
1F
100
AcDbEntity
  8
0
  6
HIDDEN
 62
     7
370
     0
100
AcDbSpline
210
0.0
220
0.0
230
1.0
 70
     8
 71
     3
 72
    11
 73
     7
 74
     0
 42
0.000000001
 43
0.00000001
 40
0.0
 40
0.0
 40
0.0
 40
0.0
 40
0.2164543009645004
 40
0.4403089937225248
 40
0.7518987489759448
 40
1.0
 40
1.0
 40
1.0
 40
1.0
 10
246.4935951315178
 20
137.8709774213979
 30
0.0
 10
246.3239712101122
 20
137.7804293710019
 30
0.0
 10
245.9789240670775
 20
137.5962375079816
 30
0.0
 10
245.3386072505079
 20
137.442711602883
 30
0.0
 10
244.6517492721698
 20
137.5352729293937
 30
0.0
 10
244.2122003389333
 20
137.7678708321879
 30
0.0
 10
244.0173559712391
 20
137.870977421398
 30
0.0
  0
SPLINE
  5
100
330
1F
100
AcDbEntity
  8
0
  6
HIDDEN
 62
     7
370
     0
100
AcDbSpline
210
0.0
220
0.0
230
1.0
 70
     8
 71
     3
 72
    11
 73
     7
 74
     0
 42
0.000000001
 43
0.00000001
 40
0.0
 40
0.0
 40
0.0
 40
0.0
 40
0.2164543009645066
 40
0.4403089937225369
 40
0.7518987489759501
 40
1.0
 40
1.0
 40
1.0
 40
1.0
 10
244.0173559712391
 20
137.870977421398
 30
0.0
 10
243.8445219189478
 20
137.7804293710019
 30
0.0
 10
243.4929447624474
 20
137.5962375079815
 30
0.0
 10
242.8405099570204
 20
137.442711602883
 30
0.0
 10
242.1406531988399
 20
137.5352729293937
 30
0.0
 10
241.6927858067757
 20
137.7678708321879
 30
0.0
 10
241.4942540115213
 20
137.8709774213979
 30
0.0
  0
SPLINE
  5
101
330
1F
100
AcDbEntity
  8
0
  6
HIDDEN
 62
     7
370
     0
100
AcDbSpline
210
0.0
220
0.0
230
1.0
 70
     8
 71
     3
 72
     9
 73
     5
 74
     0
 42
0.000000001
 43
0.00000001
 40
0.0
 40
0.0
 40
0.0
 40
0.0
 40
0.619829300484098
 40
0.9999999999999999
 40
0.9999999999999999
 40
0.9999999999999999
 40
0.9999999999999999
 10
241.4701848971028
 20
137.5016493835288
 30
0.0
 10
241.4652501834205
 20
137.5307082804778
 30
0.0
 10
241.4572887758548
 20
137.5775903767683
 30
0.0
 10
241.4501175152448
 20
137.790163390188
 30
0.0
 10
241.4473912120823
 20
137.8709774213979
 30
0.0
  0
LINE
  5
102
330
1F
100
AcDbEntity
  8
0
  6
HIDDEN
 62
     7
370
     0
100
AcDbLine
 10
243.9236303724
 20
130.9842260754
 30
0.0
 11
243.9236303724
 21
137.8709774214
 31
0.0
  0
LINE
  5
103
330
1F
100
AcDbEntity
  8
0
  6
HIDDEN
 62
     7
370
     0
100
AcDbLine
 10
241.1510628504
 20
123.4842260754
 30
0.0
 11
246.7902950754
 21
123.4842260754
 31
0.0
  0
LINE
  5
104
330
1F
100
AcDbEntity
  8
0
  6
HIDDEN
 62
     7
370
     0
100
AcDbLine
 10
243.9236303724
 20
130.9842260754
 30
0.0
 11
242.6855107922
 21
130.9842260754
 31
0.0
  0
LINE
  5
105
330
1F
100
AcDbEntity
  8
0
  6
HIDDEN
 62
     7
370
     0
100
AcDbLine
 10
245.1851813522
 20
130.9842260754
 30
0.0
 11
243.9236303724
 21
130.9842260754
 31
0.0
  0
LINE
  5
106
330
1F
100
AcDbEntity
  8
0
  6
HIDDEN
 62
     7
370
     0
100
AcDbLine
 10
241.4708226118
 20
129.9842260754
 30
0.0
 11
246.4704931718
 21
129.9842260754
 31
0.0
  0
LINE
  5
107
330
1F
100
AcDbEntity
  8
0
  6
HIDDEN
 62
     7
370
     0
100
AcDbLine
 10
246.4467323321
 20
130.9842260754
 30
0.0
 11
245.1851813522
 21
130.9842260754
 31
0.0
  0
LINE
  5
108
330
1F
100
AcDbEntity
  8
0
  6
HIDDEN
 62
     7
370
     0
100
AcDbLine
 10
242.6855107922
 20
130.9842260754
 30
0.0
 11
241.4473912121
 21
130.9842260754
 31
0.0
  0
LINE
  5
109
330
1F
100
AcDbEntity
  8
0
  6
HIDDEN
 62
     7
370
     0
100
AcDbLine
 10
246.4701637318
 20
130.9842260754
 30
0.0
 11
246.4467323321
 21
130.9842260754
 31
0.0
  0
LINE
  5
10A
330
1F
100
AcDbEntity
  8
0
  6
HIDDEN
 62
     7
370
     0
100
AcDbLine
 10
246.4467323321
 20
130.9842260754
 30
0.0
 11
246.4467323321
 21
137.8709774214
 31
0.0
  0
LINE
  5
10B
330
1F
100
AcDbEntity
  8
0
  6
HIDDEN
 62
     7
370
     0
100
AcDbLine
 10
241.4942540115
 20
130.9842260754
 30
0.0
 11
241.4942540115
 21
137.8709774214
 31
0.0
  0
LINE
  5
10C
330
1F
100
AcDbEntity
  8
0
  6
HIDDEN
 62
     7
370
     0
100
AcDbLine
 10
241.4473912121
 20
130.9842260754
 30
0.0
 11
241.4473912121
 21
137.8709774214
 31
0.0
  0
LINE
  5
10D
330
1F
100
AcDbEntity
  8
0
  6
HIDDEN
 62
     7
370
     0
100
AcDbLine
 10
246.4935951315
 20
130.9842260754
 30
0.0
 11
246.4701637318
 21
130.9842260754
 31
0.0
  0
LINE
  5
10E
330
1F
100
AcDbEntity
  8
0
  6
HIDDEN
 62
     7
370
     0
100
AcDbLine
 10
244.0173559712
 20
130.9842260754
 30
0.0
 11
244.0173559712
 21
137.8709774214
 31
0.0
  0
LINE
  5
10F
330
1F
100
AcDbEntity
  8
0
  6
HIDDEN
 62
     7
370
     0
100
AcDbLine
 10
246.4935951315
 20
130.9842260754
 30
0.0
 11
246.4935951315
 21
137.8709774214
 31
0.0
  0
LWPOLYLINE
  5
110
330
1F
100
AcDbEntity
  8
0
  6
HIDDEN
 62
     7
370
     0
100
AcDbPolyline
 90
       22
 70
   128
 43
0.0
 10
163.6870943877
 20
131.2973877897
 10
163.0741879479
 20
130.6854788935
 10
162.2965725924
 20
130.2705177663
 10
161.4233428582
 20
130.0893755252
 10
160.5320890391
 20
130.1581474533
 10
159.7020029482
 20
130.470722863
 10
159.0068413774
 20
130.9993280573
 10
158.5083724831
 20
131.6969941451
 10
158.2508874139
 20
132.5017304328
 10
158.2572648481
 20
133.3420325696
 10
158.5269381229
 20
134.1432360232
 10
159.0359455842
 20
134.8341503506
 10
159.7390596854
 20
135.3533847819
 10
160.573805653
 20
135.6548030591
 10
161.4660126446
 20
135.7116228457
 10
162.3364041536
 20
135.5187954542
 10
163.1076420748
 20
135.0934544445
 10
163.7111985344
 20
134.4733932321
 10
164.0934448921
 20
133.7137069765
 10
164.2204168818
 20
132.8818971356
 10
164.080832485
 20
132.051873664
 10
163.6870943877
 20
131.2973877897
  0
LWPOLYLINE
  5
111
330
1F
100
AcDbEntity
  8
0
  6
HIDDEN
 62
     7
370
     0
100
AcDbPolyline
 90
       18
 70
   128
 43
0.0
 10
162.8648939824
 20
131.4902389143
 10
162.3426151112
 20
131.0042743107
 10
161.6687874541
 20
130.7284165768
 10
160.9344151702
 20
130.6999218281
 10
160.2386793056
 20
130.9226384383
 10
159.675542844
 20
131.3664872951
 10
159.3210604851
 20
131.9715241509
 10
159.2231070356
 20
132.6560354257
 10
159.3949116517
 20
133.3275740789
 10
159.813271168
 20
133.8954450942
 10
160.4216838136
 20
134.2829543443
 10
161.1379800894
 20
134.4377665577
 10
161.8654202142
 20
134.3389734872
 10
162.5057593682
 20
133.9999176843
 10
162.9725162005
 20
133.4663905141
 10
163.2026526145
 20
132.8104477772
 10
163.1650874122
 20
132.1206781749
 10
162.8648939824
 20
131.4902389143
  0
LWPOLYLINE
  5
112
330
1F
100
AcDbEntity
  8
0
  6
HIDDEN
 62
     7
370
     0
100
AcDbPolyline
 90
       22
 70
   128
 43
0.0
 10
163.6870943877
 20
132.5559737866
 10
163.0741879479
 20
131.9440648904
 10
162.2965725924
 20
131.5291037632
 10
161.4233428582
 20
131.3479615221
 10
160.5320890391
 20
131.4167334502
 10
159.7020029482
 20
131.7293088599
 10
159.0068413774
 20
132.2579140542
 10
158.5083724831
 20
132.955580142
 10
158.2508874139
 20
133.7603164297
 10
158.2572648481
 20
134.6006185665
 10
158.5269381229
 20
135.4018220201
 10
159.0359455842
 20
136.0927363475
 10
159.7390596854
 20
136.6119707788
 10
160.573805653
 20
136.913389056
 10
161.4660126446
 20
136.9702088426
 10
162.3364041536
 20
136.7773814511
 10
163.1076420748
 20
136.3520404415
 10
163.7111985344
 20
135.731979229
 10
164.0934448921
 20
134.9722929734
 10
164.2204168818
 20
134.1404831325
 10
164.080832485
 20
133.3104596609
 10
163.6870943877
 20
132.5559737866
  0
LINE
  5
113
330
1F
100
AcDbEntity
  8
0
  6
HIDDEN
 62
     7
370
     0
100
AcDbLine
 10
161.3622439055
 20
135.2081774664
 30
0.0
 11
159.7964002958
 21
134.5124660917
 31
0.0
  0
LINE
  5
114
330
1F
100
AcDbEntity
  8
0
  6
HIDDEN
 62
     7
370
     0
100
AcDbLine
 10
161.3622439055
 20
135.2081774664
 30
0.0
 11
161.3622439055
 21
135.8922177531
 31
0.0
  0
LINE
  5
115
330
1F
100
AcDbEntity
  8
0
  6
HIDDEN
 62
     7
370
     0
100
AcDbLine
 10
162.7863367815
 20
134.2817532548
 30
0.0
 11
161.3622439055
 21
135.2081774664
 31
0.0
  0
LINE
  5
116
330
1F
100
AcDbEntity
  8
0
  6
HIDDEN
 62
     7
370
     0
100
AcDbLine
 10
159.7964002958
 20
134.5124660917
 30
0.0
 11
159.7964002958
 21
135.1965063784
 31
0.0
  0
LINE
  5
117
330
1F
100
AcDbEntity
  8
0
  6
HIDDEN
 62
     7
370
     0
100
AcDbLine
 10
159.6546495621
 20
132.8903305054
 30
0.0
 11
159.7964002958
 21
134.5124660917
 31
0.0
  0
LINE
  5
118
330
1F
100
AcDbEntity
  8
0
  6
HIDDEN
 62
     7
370
     0
100
AcDbLine
 10
162.6445860478
 20
132.6596176686
 30
0.0
 11
162.6445860478
 21
133.3436579552
 31
0.0
  0
LINE
  5
119
330
1F
100
AcDbEntity
  8
0
  6
HIDDEN
 62
     7
370
     0
100
AcDbLine
 10
162.7863367815
 20
134.9657935415
 30
0.0
 11
162.6445860478
 21
133.3436579552
 31
0.0
  0
LINE
  5
11A
330
1F
100
AcDbEntity
  8
0
  6
HIDDEN
 62
     7
370
     0
100
AcDbLine
 10
162.7863367815
 20
134.2817532548
 30
0.0
 11
162.7863367815
 21
134.9657935415
 31
0.0
  0
LINE
  5
11B
330
1F
100
AcDbEntity
  8
0
  6
HIDDEN
 62
     7
370
     0
100
AcDbLine
 10
162.7863367815
 20
134.2817532548
 30
0.0
 11
162.6445860478
 21
132.6596176686
 31
0.0
  0
LINE
  5
11C
330
1F
100
AcDbEntity
  8
0
  6
HIDDEN
 62
     7
370
     0
100
AcDbLine
 10
161.0787424381
 20
131.9639062938
 30
0.0
 11
161.0787424381
 21
132.6479465805
 31
0.0
  0
LINE
  5
11D
330
1F
100
AcDbEntity
  8
0
  6
HIDDEN
 62
     7
370
     0
100
AcDbLine
 10
161.0787424381
 20
132.6479465805
 30
0.0
 11
162.6445860478
 21
133.3436579552
 31
0.0
  0
LINE
  5
11E
330
1F
100
AcDbEntity
  8
0
  6
HIDDEN
 62
     7
370
     0
100
AcDbLine
 10
161.0787424381
 20
131.9639062938
 30
0.0
 11
162.6445860478
 21
132.6596176686
 31
0.0
  0
LINE
  5
11F
330
1F
100
AcDbEntity
  8
0
  6
HIDDEN
 62
     7
370
     0
100
AcDbLine
 10
161.0787424381
 20
132.6479465805
 30
0.0
 11
159.6546495621
 21
133.5743707921
 31
0.0
  0
LINE
  5
120
330
1F
100
AcDbEntity
  8
0
  6
HIDDEN
 62
     7
370
     0
100
AcDbLine
 10
159.6546495621
 20
132.8903305054
 30
0.0
 11
159.6546495621
 21
133.5743707921
 31
0.0
  0
LINE
  5
121
330
1F
100
AcDbEntity
  8
0
  6
HIDDEN
 62
     7
370
     0
100
AcDbLine
 10
161.0787424381
 20
131.9639062938
 30
0.0
 11
159.6546495621
 21
132.8903305054
 31
0.0
  0
LWPOLYLINE
  5
122
330
1F
100
AcDbEntity
  8
0
  6
HIDDEN
 62
     7
370
     0
100
AcDbPolyline
 90
       20
 70
   128
 43
0.0
 10
163.231184263
 20
132.962054481
 10
162.6702662582
 20
132.4194295975
 10
161.952242844
 20
132.0773516357
 10
161.1549229985
 20
131.9728900507
 10
160.3647086987
 20
132.117364876
 10
159.6672319255
 20
132.4951200227
 10
159.1380751096
 20
133.065219859
 10
158.8345806028
 20
133.7658852218
 10
158.7896367441
 20
134.5211881469
 10
159.008113898
 20
135.2492798429
 10
159.4663366748
 20
135.8712602767
 10
160.1146495266
 20
136.3197282176
 10
160.8827976962
 20
136.5460852053
 10
161.6875404106
 20
136.5258019479
 10
162.4416713096
 20
136.2610764512
 10
163.0634686089
 20
135.7805958303
 10
163.4855509228
 20
135.1364276159
 10
163.6621790835
 20
134.3983774294
 10
163.5742126889
 20
133.6464244604
 10
163.231184263
 20
132.962054481
  0
LINE
  5
123
330
1F
100
AcDbEntity
  8
0
  6
HIDDEN
 62
     7
370
     0
100
AcDbLine
 10
159.6546495621
 20
133.5743707921
 30
0.0
 11
159.7964002958
 21
135.1965063784
 31
0.0
  0
LINE
  5
124
330
1F
100
AcDbEntity
  8
0
  6
HIDDEN
 62
     7
370
     0
100
AcDbLine
 10
162.7863367815
 20
134.9657935415
 30
0.0
 11
161.3622439055
 21
135.8922177531
 31
0.0
  0
LINE
  5
125
330
1F
100
AcDbEntity
  8
0
  6
HIDDEN
 62
     7
370
     0
100
AcDbLine
 10
161.3622439055
 20
135.8922177531
 30
0.0
 11
159.7964002958
 21
135.1965063784
 31
0.0
  0
LWPOLYLINE
  5
126
330
1F
100
AcDbEntity
  8
0
  6
HIDDEN
 62
     7
370
     0
100
AcDbPolyline
 90
       20
 70
   128
 43
0.0
 10
142.5222074076
 20
108.0901364224
 10
142.1411798981
 20
108.0719898066
 10
141.8229299708
 20
107.797350841
 10
141.6019449435
 20
107.2959809192
 10
141.5021719728
 20
106.6222112517
 10
141.5344230082
 20
105.8490552366
 10
141.6952031496
 20
105.0602963249
 10
141.9670893739
 20
104.3414087835
 10
142.32061859
 20
103.7702952323
 10
142.7174804217
 20
103.4088446861
 10
143.1146687316
 20
103.2962259203
 10
143.4691420034
 20
103.4446429255
 10
143.7424875578
 20
103.8380124163
 10
143.9050841625
 20
104.4337067046
 10
143.9393119526
 20
105.1671730712
 10
143.8414618159
 20
105.9589290542
 10
143.622137333
 20
106.7231756076
 10
143.3051057147
 20
107.3770947589
 10
142.9247222563
 20
107.8498242213
 10
142.5222074076
 20
108.0901364224
  0
LWPOLYLINE
  5
127
330
1F
100
AcDbEntity
  8
0
  6
HIDDEN
 62
     7
370
     0
100
AcDbPolyline
 90
       22
 70
   128
 43
0.0
 10
142.754497499
 20
108.6856805315
 10
142.329023593
 20
108.6793956947
 10
141.9629683561
 20
108.4136936172
 10
141.6888574027
 20
107.9121830946
 10
141.5310466938
 20
107.2194255377
 10
141.5035584034
 20
106.3969754956
 10
141.6088349869
 20
105.5179112637
 10
141.8375221577
 20
104.6603415568
 10
142.1693000571
 20
103.9004652067
 10
142.5746887629
 20
103.3058005617
 10
143.0176677094
 20
102.9291861853
 10
143.4588762733
 20
102.8040859175
 10
143.8591111375
 20
102.9416154661
 10
144.1828096779
 20
103.3295547272
 10
144.4012098587
 20
103.9334335949
 10
144.4949058653
 20
104.6995947818
 10
144.4555723964
 20
105.5599615043
 10
144.2867044033
 20
106.4380864033
 10
144.0033065483
 20
107.255944228
 10
143.6305599744
 20
107.9408647215
 10
143.2015848506
 20
108.4319896923
 10
142.754497499
 20
108.6856805315
  0
LWPOLYLINE
  5
128
330
1F
100
AcDbEntity
  8
0
  6
HIDDEN
 62
     7
370
     0
100
AcDbPolyline
 90
       22
 70
   128
 43
0.0
 10
145.9413491142
 20
109.31497353
 10
145.5158752081
 20
109.3086886931
 10
145.1498199713
 20
109.0429866156
 10
144.8757090178
 20
108.5414760931
 10
144.7178983089
 20
107.8487185362
 10
144.6904100186
 20
107.026268494
 10
144.795686602
 20
106.1472042622
 10
145.0243737728
 20
105.2896345552
 10
145.3561516723
 20
104.5297582051
 10
145.761540378
 20
103.9350935602
 10
146.2045193245
 20
103.5584791838
 10
146.6457278885
 20
103.4333789159
 10
147.0459627527
 20
103.5709084645
 10
147.369661293
 20
103.9588477256
 10
147.5880614738
 20
104.5627265933
 10
147.6817574804
 20
105.3288877803
 10
147.6424240115
 20
106.1892545027
 10
147.4735560184
 20
107.0673794017
 10
147.1901581634
 20
107.8852372264
 10
146.8174115896
 20
108.57015772
 10
146.3884364657
 20
109.0612826908
 10
145.9413491142
 20
109.31497353
  0
LINE
  5
129
330
1F
100
AcDbEntity
  8
0
  6
HIDDEN
 62
     7
370
     0
100
AcDbLine
 10
142.050639257
 20
105.0702879285
 30
0.0
 11
142.8609311264
 21
104.0158240766
 31
0.0
  0
LINE
  5
12A
330
1F
100
AcDbEntity
  8
0
  6
HIDDEN
 62
     7
370
     0
100
AcDbLine
 10
143.5307850412
 20
104.650607421
 30
0.0
 11
142.8609311264
 21
104.0158240766
 31
0.0
  0
LINE
  5
12B
330
1F
100
AcDbEntity
  8
0
  6
HIDDEN
 62
     7
370
     0
100
AcDbLine
 10
143.3903470866
 20
106.3398546173
 30
0.0
 11
143.5307850412
 21
104.650607421
 31
0.0
  0
LINE
  5
12C
330
1F
100
AcDbEntity
  8
0
  6
HIDDEN
 62
     7
370
     0
100
AcDbLine
 10
143.3903470866
 20
106.3398546173
 30
0.0
 11
142.5800552171
 21
107.3943184691
 31
0.0
  0
LINE
  5
12D
330
1F
100
AcDbEntity
  8
0
  6
HIDDEN
 62
     7
370
     0
100
AcDbLine
 10
141.9102013023
 20
106.7595351247
 30
0.0
 11
142.5800552171
 21
107.3943184691
 31
0.0
  0
LINE
  5
12E
330
1F
100
AcDbEntity
  8
0
  6
HIDDEN
 62
     7
370
     0
100
AcDbLine
 10
141.9102013023
 20
106.7595351247
 30
0.0
 11
142.050639257
 21
105.0702879285
 31
0.0
  0
LINE
  5
12F
330
1F
100
AcDbEntity
  8
0
  6
HIDDEN
 62
     7
370
     0
100
AcDbLine
 10
145.1223978942
 20
106.6818747606
 30
0.0
 11
143.3903470866
 21
106.3398546173
 31
0.0
  0
LWPOLYLINE
  5
130
330
1F
100
AcDbEntity
  8
0
  6
HIDDEN
 62
     7
370
     0
100
AcDbPolyline
 90
       18
 70
   128
 43
0.0
 10
146.8884564089
 20
108.5106962781
 10
146.542946748
 20
108.4800490447
 10
146.2660011987
 20
108.1901049754
 10
146.0950227919
 20
107.6800226234
 10
146.0531031091
 20
107.0186914368
 10
146.1459036355
 20
106.2954278569
 10
146.3608911459
 20
105.607912638
 10
146.6690303858
 20
105.04899852
 10
147.0287054432
 20
104.6941699515
 10
147.3913402088
 20
104.591348497
 10
147.7079588479
 20
104.7544207636
 10
147.9358002589
 20
105.1613629381
 10
148.0440931968
 20
105.7572152249
 10
148.0182121001
 20
106.4615044709
 10
147.8616523545
 20
107.1791125109
 10
147.5955582211
 20
107.8131224026
 10
147.2558671871
 20
108.277907597
 10
146.8884564089
 20
108.5106962781
  0
LINE
  5
131
330
1F
100
AcDbEntity
  8
0
  6
HIDDEN
 62
     7
370
     0
100
AcDbLine
 10
145.2628358488
 20
104.9926275643
 30
0.0
 11
143.5307850412
 21
104.650607421
 31
0.0
  0
LINE
  5
132
330
1F
100
AcDbEntity
  8
0
  6
HIDDEN
 62
     7
370
     0
100
AcDbLine
 10
143.7826900646
 20
105.4123080718
 30
0.0
 11
144.592981934
 21
104.3578442199
 31
0.0
  0
LINE
  5
133
330
1F
100
AcDbEntity
  8
0
  6
HIDDEN
 62
     7
370
     0
100
AcDbLine
 10
143.6422521099
 20
107.1015552681
 30
0.0
 11
143.7826900646
 21
105.4123080718
 31
0.0
  0
LINE
  5
134
330
1F
100
AcDbEntity
  8
0
  6
HIDDEN
 62
     7
370
     0
100
AcDbLine
 10
143.6422521099
 20
107.1015552681
 30
0.0
 11
144.3121060247
 21
107.7363386124
 31
0.0
  0
LINE
  5
135
330
1F
100
AcDbEntity
  8
0
  6
HIDDEN
 62
     7
370
     0
100
AcDbLine
 10
145.2628358488
 20
104.9926275643
 30
0.0
 11
144.592981934
 21
104.3578442199
 31
0.0
  0
LINE
  5
136
330
1F
100
AcDbEntity
  8
0
  6
HIDDEN
 62
     7
370
     0
100
AcDbLine
 10
145.1223978942
 20
106.6818747606
 30
0.0
 11
145.2628358488
 21
104.9926275643
 31
0.0
  0
LINE
  5
137
330
1F
100
AcDbEntity
  8
0
  6
HIDDEN
 62
     7
370
     0
100
AcDbLine
 10
145.1223978942
 20
106.6818747606
 30
0.0
 11
144.3121060247
 21
107.7363386124
 31
0.0
  0
LINE
  5
138
330
1F
100
AcDbEntity
  8
0
  6
HIDDEN
 62
     7
370
     0
100
AcDbLine
 10
143.6422521099
 20
107.1015552681
 30
0.0
 11
141.9102013023
 21
106.7595351247
 31
0.0
  0
LINE
  5
139
330
1F
100
AcDbEntity
  8
0
  6
HIDDEN
 62
     7
370
     0
100
AcDbLine
 10
144.3121060247
 20
107.7363386124
 30
0.0
 11
142.5800552171
 21
107.3943184691
 31
0.0
  0
LINE
  5
13A
330
1F
100
AcDbEntity
  8
0
  6
HIDDEN
 62
     7
370
     0
100
AcDbLine
 10
143.7826900646
 20
105.4123080718
 30
0.0
 11
142.050639257
 21
105.0702879285
 31
0.0
  0
LINE
  5
13B
330
1F
100
AcDbEntity
  8
0
  6
HIDDEN
 62
     7
370
     0
100
AcDbLine
 10
144.592981934
 20
104.3578442199
 30
0.0
 11
142.8609311264
 21
104.0158240766
 31
0.0
  0
LWPOLYLINE
  5
13C
330
1F
100
AcDbEntity
  8
0
  6
HIDDEN
 62
     7
370
     0
100
AcDbPolyline
 90
       22
 70
   128
 43
0.0
 10
145.9413491142
 20
130.1534786209
 10
145.5158752082
 20
130.1597634578
 10
145.1498199713
 20
130.4254655353
 10
144.8757090179
 20
130.9269760578
 10
144.717898309
 20
131.6197336147
 10
144.6904100186
 20
132.4421836569
 10
144.7956866021
 20
133.3212478887
 10
145.0243737729
 20
134.1788175957
 10
145.3561516723
 20
134.9386939458
 10
145.761540378
 20
135.5333585907
 10
146.2045193246
 20
135.9099729671
 10
146.6457278885
 20
136.035073235
 10
147.0459627527
 20
135.8975436864
 10
147.3696612931
 20
135.5096044253
 10
147.5880614738
 20
134.9057255576
 10
147.6817574804
 20
134.1395643706
 10
147.6424240115
 20
133.2791976482
 10
147.4735560184
 20
132.4010727492
 10
147.1901581634
 20
131.5832149245
 10
146.8174115896
 20
130.8982944309
 10
146.3884364657
 20
130.4071694601
 10
145.9413491142
 20
130.1534786209
  0
LWPOLYLINE
  5
13D
330
1F
100
AcDbEntity
  8
0
  6
HIDDEN
 62
     7
370
     0
100
AcDbPolyline
 90
       18
 70
   128
 43
0.0
 10
146.8884564089
 20
130.9577558727
 10
146.542946748
 20
130.9884031062
 10
146.2660011987
 20
131.2783471755
 10
146.095022792
 20
131.7884295275
 10
146.0531031091
 20
132.4497607141
 10
146.1459036355
 20
133.173024294
 10
146.360891146
 20
133.8605395129
 10
146.6690303858
 20
134.4194536309
 10
147.0287054433
 20
134.7742821994
 10
147.3913402088
 20
134.8771036539
 10
147.7079588479
 20
134.7140313873
 10
147.9358002589
 20
134.3070892128
 10
148.0440931968
 20
133.711236926
 10
148.0182121002
 20
133.00694768
 10
147.8616523545
 20
132.28933964
 10
147.5955582211
 20
131.6553297483
 10
147.2558671871
 20
131.1905445539
 10
146.8884564089
 20
130.9577558727
  0
LWPOLYLINE
  5
13E
330
1F
100
AcDbEntity
  8
0
  6
HIDDEN
 62
     7
370
     0
100
AcDbPolyline
 90
       22
 70
   128
 43
0.0
 10
142.7544974991
 20
130.7827716194
 10
142.329023593
 20
130.7890564562
 10
141.9629683562
 20
131.0547585337
 10
141.6888574027
 20
131.5562690563
 10
141.5310466938
 20
132.2490266132
 10
141.5035584035
 20
133.0714766553
 10
141.6088349869
 20
133.9505408872
 10
141.8375221577
 20
134.8081105941
 10
142.1693000572
 20
135.5679869442
 10
142.5746887629
 20
136.1626515892
 10
143.0176677094
 20
136.5392659656
 10
143.4588762733
 20
136.6643662334
 10
143.8591111375
 20
136.5268366848
 10
144.1828096779
 20
136.1388974237
 10
144.4012098587
 20
135.535018556
 10
144.4949058653
 20
134.7688573691
 10
144.4555723964
 20
133.9084906466
 10
144.2867044033
 20
133.0303657476
 10
144.0033065483
 20
132.2125079229
 10
143.6305599744
 20
131.5275874294
 10
143.2015848506
 20
131.0364624586
 10
142.7544974991
 20
130.7827716194
  0
LWPOLYLINE
  5
13F
330
1F
100
AcDbEntity
  8
0
  6
HIDDEN
 62
     7
370
     0
100
AcDbPolyline
 90
       20
 70
   128
 43
0.0
 10
142.5222074076
 20
131.3783157285
 10
142.1411798981
 20
131.3964623443
 10
141.8229299709
 20
131.6711013099
 10
141.6019449436
 20
132.1724712317
 10
141.5021719728
 20
132.8462408992
 10
141.5344230082
 20
133.6193969143
 10
141.6952031496
 20
134.408155826
 10
141.9670893739
 20
135.1270433674
 10
142.32061859
 20
135.6981569186
 10
142.7174804217
 20
136.0596074648
 10
143.1146687317
 20
136.1722262306
 10
143.4691420034
 20
136.0238092254
 10
143.7424875578
 20
135.6304397346
 10
143.9050841626
 20
135.0347454463
 10
143.9393119527
 20
134.3012790797
 10
143.841461816
 20
133.5095230967
 10
143.622137333
 20
132.7452765433
 10
143.3051057148
 20
132.091357392
 10
142.9247222563
 20
131.6186279296
 10
142.5222074076
 20
131.3783157285
  0
LINE
  5
140
330
1F
100
AcDbEntity
  8
0
  6
HIDDEN
 62
     7
370
     0
100
AcDbLine
 10
143.7826900646
 20
134.0561440791
 30
0.0
 11
144.592981934
 21
135.110607931
 31
0.0
  0
LINE
  5
141
330
1F
100
AcDbEntity
  8
0
  6
HIDDEN
 62
     7
370
     0
100
AcDbLine
 10
142.050639257
 20
134.3981642224
 30
0.0
 11
142.8609311265
 21
135.4526280743
 31
0.0
  0
LINE
  5
142
330
1F
100
AcDbEntity
  8
0
  6
HIDDEN
 62
     7
370
     0
100
AcDbLine
 10
143.7826900646
 20
134.0561440791
 30
0.0
 11
142.050639257
 21
134.3981642224
 31
0.0
  0
LINE
  5
143
330
1F
100
AcDbEntity
  8
0
  6
HIDDEN
 62
     7
370
     0
100
AcDbLine
 10
143.6422521099
 20
132.3668968828
 30
0.0
 11
143.7826900646
 21
134.0561440791
 31
0.0
  0
LINE
  5
144
330
1F
100
AcDbEntity
  8
0
  6
HIDDEN
 62
     7
370
     0
100
AcDbLine
 10
141.9102013024
 20
132.7089170262
 30
0.0
 11
142.050639257
 21
134.3981642224
 31
0.0
  0
LINE
  5
145
330
1F
100
AcDbEntity
  8
0
  6
HIDDEN
 62
     7
370
     0
100
AcDbLine
 10
143.6422521099
 20
132.3668968828
 30
0.0
 11
141.9102013024
 21
132.7089170262
 31
0.0
  0
LINE
  5
146
330
1F
100
AcDbEntity
  8
0
  6
HIDDEN
 62
     7
370
     0
100
AcDbLine
 10
143.6422521099
 20
132.3668968828
 30
0.0
 11
144.3121060247
 21
131.7321135385
 31
0.0
  0
LINE
  5
147
330
1F
100
AcDbEntity
  8
0
  6
HIDDEN
 62
     7
370
     0
100
AcDbLine
 10
141.9102013024
 20
132.7089170262
 30
0.0
 11
142.5800552172
 21
132.0741336818
 31
0.0
  0
LINE
  5
148
330
1F
100
AcDbEntity
  8
0
  6
HIDDEN
 62
     7
370
     0
100
AcDbLine
 10
145.2628358488
 20
134.4758245866
 30
0.0
 11
143.5307850413
 21
134.8178447299
 31
0.0
  0
LINE
  5
149
330
1F
100
AcDbEntity
  8
0
  6
HIDDEN
 62
     7
370
     0
100
AcDbLine
 10
144.592981934
 20
135.110607931
 30
0.0
 11
142.8609311265
 21
135.4526280743
 31
0.0
  0
LINE
  5
14A
330
1F
100
AcDbEntity
  8
0
  6
HIDDEN
 62
     7
370
     0
100
AcDbLine
 10
145.2628358488
 20
134.4758245866
 30
0.0
 11
144.592981934
 21
135.110607931
 31
0.0
  0
LINE
  5
14B
330
1F
100
AcDbEntity
  8
0
  6
HIDDEN
 62
     7
370
     0
100
AcDbLine
 10
143.5307850413
 20
134.8178447299
 30
0.0
 11
142.8609311265
 21
135.4526280743
 31
0.0
  0
LINE
  5
14C
330
1F
100
AcDbEntity
  8
0
  6
HIDDEN
 62
     7
370
     0
100
AcDbLine
 10
145.1223978942
 20
132.7865773903
 30
0.0
 11
143.3903470866
 21
133.1285975336
 31
0.0
  0
LINE
  5
14D
330
1F
100
AcDbEntity
  8
0
  6
HIDDEN
 62
     7
370
     0
100
AcDbLine
 10
144.3121060247
 20
131.7321135385
 30
0.0
 11
142.5800552172
 21
132.0741336818
 31
0.0
  0
LINE
  5
14E
330
1F
100
AcDbEntity
  8
0
  6
HIDDEN
 62
     7
370
     0
100
AcDbLine
 10
145.1223978942
 20
132.7865773903
 30
0.0
 11
144.3121060247
 21
131.7321135385
 31
0.0
  0
LINE
  5
14F
330
1F
100
AcDbEntity
  8
0
  6
HIDDEN
 62
     7
370
     0
100
AcDbLine
 10
143.3903470866
 20
133.1285975336
 30
0.0
 11
142.5800552172
 21
132.0741336818
 31
0.0
  0
LINE
  5
150
330
1F
100
AcDbEntity
  8
0
  6
HIDDEN
 62
     7
370
     0
100
AcDbLine
 10
145.1223978942
 20
132.7865773903
 30
0.0
 11
145.2628358488
 21
134.4758245866
 31
0.0
  0
LINE
  5
151
330
1F
100
AcDbEntity
  8
0
  6
HIDDEN
 62
     7
370
     0
100
AcDbLine
 10
143.3903470866
 20
133.1285975336
 30
0.0
 11
143.5307850413
 21
134.8178447299
 31
0.0
  0
LWPOLYLINE
  5
152
330
1F
100
AcDbEntity
  8
0
  6
HIDDEN
 62
     7
370
     0
100
AcDbPolyline
 90
       22
 70
   128
 43
0.0
 10
158.7538919559
 20
106.9124783643
 10
158.3601538586
 20
106.15799249
 10
158.2205694618
 20
105.3279690184
 10
158.3475414515
 20
104.4961591775
 10
158.7297878092
 20
103.7364729219
 10
159.3333442688
 20
103.1164117094
 10
160.10458219
 20
102.6910706998
 10
160.974973699
 20
102.4982433083
 10
161.8671806906
 20
102.5550630949
 10
162.7019266582
 20
102.8564813721
 10
163.4050407594
 20
103.3757158034
 10
163.9140482207
 20
104.0666301308
 10
164.1837214955
 20
104.8678335844
 10
164.1900989297
 20
105.7081357212
 10
163.9326138605
 20
106.5128720089
 10
163.4341449662
 20
107.2105380967
 10
162.7389833954
 20
107.739143291
 10
161.9088973045
 20
108.0517187007
 10
161.0176434854
 20
108.1204906288
 10
160.1444137512
 20
107.9393483877
 10
159.3667983957
 20
107.5243872605
 10
158.7538919559
 20
106.9124783643
  0
LWPOLYLINE
  5
153
330
1F
100
AcDbEntity
  8
0
  6
HIDDEN
 62
     7
370
     0
100
AcDbPolyline
 90
       22
 70
   128
 43
0.0
 10
158.7538919559
 20
108.1710643612
 10
158.3601538586
 20
107.4165784869
 10
158.2205694618
 20
106.5865550153
 10
158.3475414515
 20
105.7547451744
 10
158.7297878092
 20
104.9950589188
 10
159.3333442688
 20
104.3749977064
 10
160.10458219
 20
103.9496566967
 10
160.974973699
 20
103.7568293052
 10
161.8671806906
 20
103.8136490918
 10
162.7019266582
 20
104.115067369
 10
163.4050407594
 20
104.6343018003
 10
163.9140482207
 20
105.3252161277
 10
164.1837214955
 20
106.1264195813
 10
164.1900989297
 20
106.9667217181
 10
163.9326138605
 20
107.7714580058
 10
163.4341449662
 20
108.4691240936
 10
162.7389833954
 20
108.9977292879
 10
161.9088973045
 20
109.3103046976
 10
161.0176434854
 20
109.3790766257
 10
160.1444137512
 20
109.1979343846
 10
159.3667983957
 20
108.7829732574
 10
158.7538919559
 20
108.1710643612
  0
LINE
  5
154
330
1F
100
AcDbEntity
  8
0
  6
HIDDEN
 62
     7
370
     0
100
AcDbLine
 10
161.3622439055
 20
107.5045458571
 30
0.0
 11
161.3622439055
 21
106.8205055704
 31
0.0
  0
LINE
  5
155
330
1F
100
AcDbEntity
  8
0
  6
HIDDEN
 62
     7
370
     0
100
AcDbLine
 10
159.7964002958
 20
106.8088344823
 30
0.0
 11
159.7964002958
 21
106.1247941957
 31
0.0
  0
LINE
  5
156
330
1F
100
AcDbEntity
  8
0
  6
HIDDEN
 62
     7
370
     0
100
AcDbLine
 10
162.7863367815
 20
106.5781216455
 30
0.0
 11
162.7297770151
 21
105.930875544
 31
0.0
  0
LINE
  5
157
330
1F
100
AcDbEntity
  8
0
  6
HIDDEN
 62
     7
370
     0
100
AcDbLine
 10
162.7863367815
 20
106.5781216455
 30
0.0
 11
162.7863367815
 21
105.8940813588
 31
0.0
  0
LINE
  5
158
330
1F
100
AcDbEntity
  8
0
  6
HIDDEN
 62
     7
370
     0
100
AcDbLine
 10
159.6546495621
 20
105.1866988961
 30
0.0
 11
159.7112093285
 21
105.1499047109
 31
0.0
  0
LINE
  5
159
330
1F
100
AcDbEntity
  8
0
  6
HIDDEN
 62
     7
370
     0
100
AcDbLine
 10
159.6546495621
 20
105.1866988961
 30
0.0
 11
159.6546495621
 21
104.5026586094
 31
0.0
  0
LINE
  5
15A
330
1F
100
AcDbEntity
  8
0
  6
HIDDEN
 62
     7
370
     0
100
AcDbLine
 10
159.6546495621
 20
105.1866988961
 30
0.0
 11
159.7964002958
 21
106.8088344823
 31
0.0
  0
LINE
  5
15B
330
1F
100
AcDbEntity
  8
0
  6
HIDDEN
 62
     7
370
     0
100
AcDbLine
 10
161.3622439055
 20
107.5045458571
 30
0.0
 11
162.7863367815
 21
106.5781216455
 31
0.0
  0
LINE
  5
15C
330
1F
100
AcDbEntity
  8
0
  6
HIDDEN
 62
     7
370
     0
100
AcDbLine
 10
161.3622439055
 20
107.5045458571
 30
0.0
 11
159.7964002958
 21
106.8088344823
 31
0.0
  0
LWPOLYLINE
  5
15D
330
1F
100
AcDbEntity
  8
0
  6
HIDDEN
 62
     7
370
     0
100
AcDbPolyline
 90
       18
 70
   128
 43
0.0
 10
159.5760923612
 20
107.9782132366
 10
159.2758989314
 20
107.347773976
 10
159.2383337291
 20
106.6580043737
 10
159.4684701431
 20
106.0020616368
 10
159.9352269754
 20
105.4685344666
 10
160.5755661294
 20
105.1294786637
 10
161.3030062542
 20
105.0306855932
 10
162.01930253
 20
105.1854978066
 10
162.6277151756
 20
105.5730070567
 10
163.0460746919
 20
106.140878072
 10
163.217879308
 20
106.8124167252
 10
163.1199258585
 20
107.496928
 10
162.7654434996
 20
108.1019648558
 10
162.202307038
 20
108.5458137126
 10
161.5065711734
 20
108.7685303228
 10
160.7721988895
 20
108.7400355741
 10
160.0983712324
 20
108.4641778402
 10
159.5760923612
 20
107.9782132366
  0
LINE
  5
15E
330
1F
100
AcDbEntity
  8
0
  6
HIDDEN
 62
     7
370
     0
100
AcDbLine
 10
141.0204931718
 20
102.3114504727
 30
0.0
 11
143.3016670504
 21
102.7619034348
 31
0.0
  0
LINE
  5
15F
330
1F
100
AcDbEntity
  8
0
  6
HIDDEN
 62
     7
370
     0
100
AcDbLine
 10
142.1393192932
 20
108.6482391109
 30
0.0
 11
141.0204931718
 21
108.4273096389
 31
0.0
  0
LINE
  5
160
330
1F
100
AcDbEntity
  8
0
  6
HIDDEN
 62
     7
370
     0
100
AcDbLine
 10
163.7204931718
 20
105.1985311662
 30
0.0
 11
163.7204931718
 21
118.572331713
 31
0.0
  0
LINE
  5
161
330
1F
100
AcDbEntity
  8
0
  6
HIDDEN
 62
     7
370
     0
100
AcDbLine
 10
158.7204931718
 20
108.0353521256
 30
0.0
 11
158.7204931718
 21
105.198402638
 31
0.0
  0
LINE
  5
162
330
1F
100
AcDbEntity
  8
0
  6
HIDDEN
 62
     7
370
     0
100
AcDbLine
 10
158.7204931718
 20
118.5728717937
 30
0.0
 11
158.7204931718
 21
109.6934832331
 31
0.0
  0
LINE
  5
163
330
1F
100
AcDbEntity
  8
0
  6
HIDDEN
 62
     7
370
     0
100
AcDbLine
 10
143.411001609
 20
103.7008721045
 30
0.0
 11
159.6369229229
 21
106.9049305011
 31
0.0
  0
LINE
  5
164
330
1F
100
AcDbEntity
  8
0
  6
HIDDEN
 62
     7
370
     0
100
AcDbLine
 10
159.6353625124
 20
111.1857237904
 30
0.0
 11
142.597358179
 21
107.8213070777
 31
0.0
  0
ARC
  5
165
330
1F
100
AcDbEntity
  8
0
  6
HIDDEN
 62
     7
370
     0
100
AcDbCircle
 10
37.4204931718
 20
106.0342260754
 30
0.0
 40
1.200000000000003
100
AcDbArc
 50
90.0
 51
180.0
  0
ARC
  5
166
330
1F
100
AcDbEntity
  8
0
  6
HIDDEN
 62
     7
370
     0
100
AcDbCircle
 10
37.4204931718
 20
133.4342260754
 30
0.0
 40
1.200000000000017
100
AcDbArc
 50
180.0
 51
270.0
  0
LINE
  5
167
330
1F
100
AcDbEntity
  8
0
  6
HIDDEN
 62
     7
370
     0
100
AcDbLine
 10
171.0204931718
 20
157.0342260754
 30
0.0
 11
171.0204931718
 21
168.834329426
 31
0.0
  0
LINE
  5
168
330
1F
100
AcDbEntity
  8
0
  6
HIDDEN
 62
     7
370
     0
100
AcDbLine
 10
171.0204931718
 20
70.6340106884
 30
0.0
 11
171.0204931718
 21
82.4342260754
 31
0.0
  0
ARC
  5
169
330
1F
100
AcDbEntity
  8
0
  6
HIDDEN
 62
     7
370
     0
100
AcDbCircle
 10
169.0204931718
 20
82.4342260754
 30
0.0
 40
2.0
100
AcDbArc
 50
0.0
 51
90.0
  0
ARC
  5
16A
330
1F
100
AcDbEntity
  8
0
  6
HIDDEN
 62
     7
370
     0
100
AcDbCircle
 10
169.0204931718
 20
157.0342260754
 30
0.0
 40
2.0
100
AcDbArc
 50
270.0
 51
0.0
  0
ARC
  5
16B
330
1F
100
AcDbEntity
  8
0
  6
HIDDEN
 62
     7
370
     0
100
AcDbCircle
 10
47.9895530641
 20
107.4092260754
 30
0.0
 40
0.3999999999999936
100
AcDbArc
 50
270.0
 51
330.0
  0
ARC
  5
16C
330
1F
100
AcDbEntity
  8
0
  6
HIDDEN
 62
     7
370
     0
100
AcDbCircle
 10
47.9895530641
 20
132.0592260754
 30
0.0
 40
0.3999999999999865
100
AcDbArc
 50
30.0
 51
90.0
  0
LINE
  5
16D
330
1F
100
AcDbEntity
  8
0
  6
HIDDEN
 62
     7
370
     0
100
AcDbLine
 10
47.1128656025
 20
107.0092260754
 30
0.0
 11
47.9895530641
 21
107.0092260754
 31
0.0
  0
LINE
  5
16E
330
1F
100
AcDbEntity
  8
0
  6
HIDDEN
 62
     7
370
     0
100
AcDbLine
 10
47.9895530641
 20
132.4592260754
 30
0.0
 11
47.1128656025
 21
132.4592260754
 31
0.0
  0
ARC
  5
16F
330
1F
100
AcDbEntity
  8
0
  6
HIDDEN
 62
     7
370
     0
100
AcDbCircle
 10
47.1128656025
 20
107.4092260754
 30
0.0
 40
0.3999999999999915
100
AcDbArc
 50
255.0
 51
270.0
  0
ARC
  5
170
330
1F
100
AcDbEntity
  8
0
  6
HIDDEN
 62
     7
370
     0
100
AcDbCircle
 10
47.1128656025
 20
132.0592260754
 30
0.0
 40
0.4000000000000005
100
AcDbArc
 50
90.0
 51
105.0
  0
LINE
  5
171
330
1F
100
AcDbEntity
  8
0
  6
HIDDEN
 62
     7
370
     0
100
AcDbLine
 10
47.0093379845
 20
132.445596406
 30
0.0
 11
46.2204931718
 21
132.2342260754
 31
0.0
  0
LINE
  5
172
330
1F
100
AcDbEntity
  8
0
  6
HIDDEN
 62
     7
370
     0
100
AcDbLine
 10
46.2204931718
 20
107.2342260754
 30
0.0
 11
47.0093379845
 21
107.0228557449
 31
0.0
  0
LINE
  5
173
330
1F
100
AcDbEntity
  8
0
  6
HIDDEN
 62
     7
370
     0
100
AcDbLine
 10
48.3359632256
 20
107.2092260754
 30
0.0
 11
49.5050975207
 21
109.2342260754
 31
0.0
  0
LINE
  5
174
330
1F
100
AcDbEntity
  8
0
  6
HIDDEN
 62
     7
370
     0
100
AcDbLine
 10
49.5050975207
 20
130.2342260754
 30
0.0
 11
48.3359632256
 21
132.2592260754
 31
0.0
  0
LINE
  5
175
330
1F
100
AcDbEntity
  8
0
  6
HIDDEN
 62
     7
370
     0
100
AcDbLine
 10
37.4204931718
 20
107.2342260754
 30
0.0
 11
46.2204931718
 21
107.2342260754
 31
0.0
  0
LINE
  5
176
330
1F
100
AcDbEntity
  8
0
  6
HIDDEN
 62
     7
370
     0
100
AcDbLine
 10
46.2204931718
 20
132.2342260754
 30
0.0
 11
37.4204931718
 21
132.2342260754
 31
0.0
  0
ARC
  5
177
330
1F
100
AcDbEntity
  8
0
  6
HIDDEN
 62
     7
370
     0
100
AcDbCircle
 10
255.0204931718
 20
131.7342260754
 30
0.0
 40
1.0
100
AcDbArc
 50
270.0
 51
0.0
  0
ARC
  5
178
330
1F
100
AcDbEntity
  8
0
  6
HIDDEN
 62
     7
370
     0
100
AcDbCircle
 10
255.0204931718
 20
107.7342260754
 30
0.0
 40
1.0
100
AcDbArc
 50
0.0
 51
90.0
  0
ARC
  5
179
330
1F
100
AcDbEntity
  8
0
  6
HIDDEN
 62
     7
370
     0
100
AcDbCircle
 10
229.3888406742
 20
130.2342260754
 30
0.0
 40
1.000000000000023
100
AcDbArc
 50
75.0
 51
90.0
  0
ARC
  5
17A
330
1F
100
AcDbEntity
  8
0
  6
HIDDEN
 62
     7
370
     0
100
AcDbCircle
 10
229.3888406742
 20
109.2342260754
 30
0.0
 40
1.000000000000014
100
AcDbArc
 50
270.0
 51
285.0
  0
LINE
  5
17B
330
1F
100
AcDbEntity
  8
0
  6
HIDDEN
 62
     7
370
     0
100
AcDbLine
 10
229.3888406742
 20
131.2342260754
 30
0.0
 11
228.5204931718
 21
131.2342260754
 31
0.0
  0
LINE
  5
17C
330
1F
100
AcDbEntity
  8
0
  6
HIDDEN
 62
     7
370
     0
100
AcDbLine
 10
228.5204931718
 20
108.2342260754
 30
0.0
 11
229.3888406742
 21
108.2342260754
 31
0.0
  0
ARC
  5
17D
330
1F
100
AcDbEntity
  8
0
  6
HIDDEN
 62
     7
370
     0
100
AcDbCircle
 10
228.5204931718
 20
130.2342260754
 30
0.0
 40
1.0
100
AcDbArc
 50
90.0
 51
180.0
  0
ARC
  5
17E
330
1F
100
AcDbEntity
  8
0
  6
HIDDEN
 62
     7
370
     0
100
AcDbCircle
 10
228.5204931718
 20
109.2342260754
 30
0.0
 40
1.0
100
AcDbArc
 50
180.0
 51
270.0
  0
LINE
  5
17F
330
1F
100
AcDbEntity
  8
0
  6
HIDDEN
 62
     7
370
     0
100
AcDbLine
 10
229.6476597193
 20
108.2683002492
 30
0.0
 11
231.3865185756
 21
108.7342260754
 31
0.0
  0
LINE
  5
180
330
1F
100
AcDbEntity
  8
0
  6
HIDDEN
 62
     7
370
     0
100
AcDbLine
 10
231.3865185756
 20
130.7342260754
 30
0.0
 11
229.6476597193
 21
131.2001519017
 31
0.0
  0
LINE
  5
181
330
1F
100
AcDbEntity
  8
0
  6
HIDDEN
 62
     7
370
     0
100
AcDbLine
 10
239.5250021089
 20
130.7342260754
 30
0.0
 11
231.3865185756
 21
130.7342260754
 31
0.0
  0
LINE
  5
182
330
1F
100
AcDbEntity
  8
0
  6
HIDDEN
 62
     7
370
     0
100
AcDbLine
 10
255.0204931718
 20
130.7342260754
 30
0.0
 11
248.4259599957
 21
130.7342260754
 31
0.0
  0
LINE
  5
183
330
1F
100
AcDbEntity
  8
0
  6
HIDDEN
 62
     7
370
     0
100
AcDbLine
 10
231.3865185756
 20
108.7342260754
 30
0.0
 11
255.0204931718
 21
108.7342260754
 31
0.0
  0
LINE
  5
184
330
1F
100
AcDbEntity
  8
0
  6
HIDDEN
 62
     7
370
     0
100
AcDbLine
 10
49.5050975207
 20
109.2342260754
 30
0.0
 11
99.2204931718
 21
109.2342260754
 31
0.0
  0
LINE
  5
185
330
1F
100
AcDbEntity
  8
0
  6
HIDDEN
 62
     7
370
     0
100
AcDbLine
 10
99.2204931718
 20
130.2342260754
 30
0.0
 11
49.5050975207
 21
130.2342260754
 31
0.0
  0
LINE
  5
186
330
1F
100
AcDbEntity
  8
0
  6
HIDDEN
 62
     7
370
     0
100
AcDbLine
 10
99.2204931718
 20
109.2342260754
 30
0.0
 11
103.4866035669
 21
116.3342260754
 31
0.0
  0
LINE
  5
187
330
1F
100
AcDbEntity
  8
0
  6
HIDDEN
 62
     7
370
     0
100
AcDbLine
 10
103.4866035669
 20
123.1342260754
 30
0.0
 11
99.2204931718
 21
130.2342260754
 31
0.0
  0
LINE
  5
188
330
1F
100
AcDbEntity
  8
0
  6
HIDDEN
 62
     7
370
     0
100
AcDbLine
 10
171.0204974922
 20
168.7342265991
 30
0.0
 11
172.0204973415
 21
169.734226378
 31
0.0
  0
LINE
  5
189
330
1F
100
AcDbEntity
  8
0
  6
HIDDEN
 62
     7
370
     0
100
AcDbLine
 10
172.0204973422
 20
69.7342257722
 30
0.0
 11
171.0204974929
 21
70.734225551
 31
0.0
  0
LINE
  5
18A
330
1F
100
AcDbEntity
  8
0
  6
HIDDEN
 62
     7
370
     0
100
AcDbLine
 10
237.7204931718
 20
139.7342260754
 30
0.0
 11
239.4704931718
 21
137.9842260754
 31
0.0
  0
LINE
  5
18B
330
1F
100
AcDbEntity
  8
0
  6
HIDDEN
 62
     7
370
     0
100
AcDbLine
 10
248.4704931718
 20
137.9842260754
 30
0.0
 11
250.2204931718
 21
139.7342260754
 31
0.0
  0
LINE
  5
18C
330
1F
100
AcDbEntity
  8
0
  6
HIDDEN
 62
     7
370
     0
100
AcDbLine
 10
239.4704931718
 20
137.9842260754
 30
0.0
 11
239.4704931718
 21
130.7121111903
 31
0.0
  0
LINE
  5
18D
330
1F
100
AcDbEntity
  8
0
  6
HIDDEN
 62
     7
370
     0
100
AcDbLine
 10
248.4704931718
 20
130.7163253854
 30
0.0
 11
248.4704931718
 21
137.9842260754
 31
0.0
  0
LINE
  5
18E
330
1F
100
AcDbEntity
  8
0
  6
HIDDEN
 62
     7
370
     0
100
AcDbLine
 10
103.4866035669
 20
116.3342260754
 30
0.0
 11
227.5204931718
 21
116.3342260754
 31
0.0
  0
LINE
  5
18F
330
1F
100
AcDbEntity
  8
0
  6
HIDDEN
 62
     7
370
     0
100
AcDbLine
 10
227.5204931718
 20
123.1342260754
 30
0.0
 11
103.4866035669
 21
123.1342260754
 31
0.0
  0
LINE
  5
190
330
1F
100
AcDbEntity
  8
0
  6
HIDDEN
 62
     7
370
     0
100
AcDbLine
 10
163.7204931718
 20
120.8955803572
 30
0.0
 11
163.7204931718
 21
134.2700495129
 31
0.0
  0
LINE
  5
191
330
1F
100
AcDbEntity
  8
0
  6
HIDDEN
 62
     7
370
     0
100
AcDbLine
 10
158.7204931718
 20
129.7763065534
 30
0.0
 11
158.7204931718
 21
120.8961204379
 31
0.0
  0
LINE
  5
192
330
1F
100
AcDbEntity
  8
0
  6
HIDDEN
 62
     7
370
     0
100
AcDbLine
 10
158.7204931718
 20
134.2699209847
 30
0.0
 11
158.7204931718
 21
131.4273225768
 31
0.0
  0
LINE
  5
193
330
1F
100
AcDbEntity
  8
0
  6
HIDDEN
 62
     7
370
     0
100
AcDbLine
 10
142.597358179
 20
131.6471450732
 30
0.0
 11
159.6352968964
 21
128.2827413174
 31
0.0
  0
LINE
  5
194
330
1F
100
AcDbEntity
  8
0
  6
HIDDEN
 62
     7
370
     0
100
AcDbLine
 10
159.6310802073
 20
132.5646753841
 30
0.0
 11
143.411001609
 21
135.7675800464
 31
0.0
  0
LINE
  5
195
330
1F
100
AcDbEntity
  8
0
  6
HIDDEN
 62
     7
370
     0
100
AcDbLine
 10
141.0204931718
 20
131.041142512
 30
0.0
 11
142.1393192932
 21
130.82021304
 31
0.0
  0
LINE
  5
196
330
1F
100
AcDbEntity
  8
0
  6
HIDDEN
 62
     7
370
     0
100
AcDbLine
 10
143.3016670504
 20
136.7065487161
 30
0.0
 11
141.0204931718
 21
137.1570016782
 31
0.0
  0
LINE
  5
197
330
1F
100
AcDbEntity
  8
0
  6
HIDDEN
 62
     7
370
     0
100
AcDbLine
 10
248.9704931718
 20
137.2842260754
 30
0.0
 11
248.2704931718
 21
137.9842260754
 31
0.0
  0
LINE
  5
198
330
1F
100
AcDbEntity
  8
0
  6
HIDDEN
 62
     7
370
     0
100
AcDbLine
 10
239.6704931718
 20
137.9842260754
 30
0.0
 11
238.9704931718
 21
137.2842260754
 31
0.0
  0
LINE
  5
199
330
1F
100
AcDbEntity
  8
0
  6
HIDDEN
 62
     7
370
     0
100
AcDbLine
 10
238.9704931718
 20
137.2842260754
 30
0.0
 11
238.9704931718
 21
130.7617251502
 31
0.0
  0
LINE
  5
19A
330
1F
100
AcDbEntity
  8
0
  6
HIDDEN
 62
     7
370
     0
100
AcDbLine
 10
248.9704931718
 20
130.7617251502
 30
0.0
 11
248.9704931718
 21
137.2842260754
 31
0.0
  0
LINE
  5
19B
330
1F
100
AcDbEntity
  8
0
  6
HIDDEN
 62
     7
370
     0
100
AcDbLine
 10
238.9704931718
 20
130.7617251502
 30
0.0
 11
240.8609135203
 21
123.7065803619
 31
0.0
  0
LINE
  5
19C
330
1F
100
AcDbEntity
  8
0
  6
HIDDEN
 62
     7
370
     0
100
AcDbLine
 10
247.0800728233
 20
123.7065803619
 30
0.0
 11
248.9704931718
 21
130.7617251502
 31
0.0
  0
LINE
  5
19D
330
1F
100
AcDbEntity
  8
0
  6
HIDDEN
 62
     7
370
     0
100
AcDbLine
 10
240.9704931718
 20
137.9842260754
 30
0.0
 11
241.4704931718
 21
137.4842260754
 31
0.0
  0
LINE
  5
19E
330
1F
100
AcDbEntity
  8
0
  6
HIDDEN
 62
     7
370
     0
100
AcDbLine
 10
246.4704931718
 20
137.4842260754
 30
0.0
 11
246.9704931718
 21
137.9842260754
 31
0.0
  0
ARC
  5
19F
330
1F
100
AcDbEntity
  8
0
  6
HIDDEN
 62
     7
370
     0
100
AcDbCircle
 10
241.1506912682
 20
123.7842260754
 30
0.0
 40
0.3000000000000205
100
AcDbArc
 50
195.0
 51
270.0
  0
ARC
  5
1A0
330
1F
100
AcDbEntity
  8
0
  6
HIDDEN
 62
     7
370
     0
100
AcDbCircle
 10
246.7902950754
 20
123.7842260754
 30
0.0
 40
0.3000000000000114
100
AcDbArc
 50
270.0
 51
345.0
  0
LINE
  5
1A1
330
1F
100
AcDbEntity
  8
0
  6
HIDDEN
 62
     7
370
     0
100
AcDbLine
 10
241.4704931718
 20
130.9842260754
 30
0.0
 11
241.4704931718
 21
129.9842260754
 31
0.0
  0
LINE
  5
1A2
330
1F
100
AcDbEntity
  8
0
  6
HIDDEN
 62
     7
370
     0
100
AcDbLine
 10
246.4704931718
 20
129.9842260754
 30
0.0
 11
246.4704931718
 21
130.9842260754
 31
0.0
  0
LINE
  5
1A3
330
1F
100
AcDbEntity
  8
0
  6
HIDDEN
 62
     7
370
     0
100
AcDbLine
 10
241.4704931718
 20
129.9842260754
 30
0.0
 11
243.9704931718
 21
129.0743004898
 31
0.0
  0
LINE
  5
1A4
330
1F
100
AcDbEntity
  8
0
  6
HIDDEN
 62
     7
370
     0
100
AcDbLine
 10
243.9704931718
 20
129.0743004898
 30
0.0
 11
246.4704931718
 21
129.9842260754
 31
0.0
  0
LINE
  5
1A5
330
1F
100
AcDbEntity
  8
0
  6
HIDDEN
 62
     7
370
     0
100
AcDbLine
 10
158.2204931718
 20
134.1605875904
 30
0.0
 11
158.2204931718
 21
132.9020015935
 31
0.0
  0
LINE
  5
1A6
330
1F
100
AcDbEntity
  8
0
  6
HIDDEN
 62
     7
370
     0
100
AcDbLine
 10
164.2204931718
 20
132.9020015935
 30
0.0
 11
164.2204931718
 21
134.1605875904
 31
0.0
  0
LINE
  5
1A7
330
1F
100
AcDbEntity
  8
0
  6
HIDDEN
 62
     7
370
     0
100
AcDbLine
 10
141.4977431718
 20
106.6484129592
 30
0.0
 11
141.4977431718
 21
106.4294238064
 31
0.0
  0
LINE
  5
1A8
330
1F
100
AcDbEntity
  8
0
  6
HIDDEN
 62
     7
370
     0
100
AcDbLine
 10
141.8648541075
 20
104.570308766
 30
0.0
 11
141.9480939414
 21
104.3677566021
 31
0.0
  0
LINE
  5
1A9
330
1F
100
AcDbEntity
  8
0
  6
HIDDEN
 62
     7
370
     0
100
AcDbLine
 10
143.5789170504
 20
102.816650723
 30
0.0
 11
146.7657686655
 21
103.4459437215
 31
0.0
  0
LINE
  5
1AA
330
1F
100
AcDbEntity
  8
0
  6
HIDDEN
 62
     7
370
     0
100
AcDbLine
 10
145.6034209083
 20
109.3322793975
 30
0.0
 11
142.4165692932
 21
108.7029863991
 31
0.0
  0
LINE
  5
1AB
330
1F
100
AcDbEntity
  8
0
  6
HIDDEN
 62
     7
370
     0
100
AcDbLine
 10
147.4126280308
 20
104.0428092871
 30
0.0
 11
147.86930902
 21
104.9959201163
 31
0.0
  0
LINE
  5
1AC
330
1F
100
AcDbEntity
  8
0
  6
HIDDEN
 62
     7
370
     0
100
AcDbLine
 10
147.2132918078
 20
108.3181079006
 30
0.0
 11
146.4286022125
 21
109.0260909636
 31
0.0
  0
LINE
  5
1AD
330
1F
100
AcDbEntity
  8
0
  6
HIDDEN
 62
     7
370
     0
100
AcDbLine
 10
146.4286022126
 20
130.4423611873
 30
0.0
 11
147.2132918078
 21
131.1503442503
 31
0.0
  0
LINE
  5
1AE
330
1F
100
AcDbEntity
  8
0
  6
HIDDEN
 62
     7
370
     0
100
AcDbLine
 10
147.86930902
 20
134.4725320346
 30
0.0
 11
147.4126280309
 21
135.4256428638
 31
0.0
  0
LINE
  5
1AF
330
1F
100
AcDbEntity
  8
0
  6
HIDDEN
 62
     7
370
     0
100
AcDbLine
 10
142.4165692932
 20
130.7654657518
 30
0.0
 11
145.6034209083
 21
130.1361727534
 31
0.0
  0
LINE
  5
1B0
330
1F
100
AcDbEntity
  8
0
  6
HIDDEN
 62
     7
370
     0
100
AcDbLine
 10
146.7657686656
 20
136.0225084294
 30
0.0
 11
143.5789170504
 21
136.6518014279
 31
0.0
  0
LINE
  5
1B1
330
1F
100
AcDbEntity
  8
0
  6
HIDDEN
 62
     7
370
     0
100
AcDbLine
 10
141.9480939414
 20
135.1006955488
 30
0.0
 11
141.8648541075
 21
134.8981433849
 31
0.0
  0
LINE
  5
1B2
330
1F
100
AcDbEntity
  8
0
  6
HIDDEN
 62
     7
370
     0
100
AcDbLine
 10
141.4977431718
 20
133.0390283445
 30
0.0
 11
141.4977431718
 21
132.8200391917
 31
0.0
  0
LINE
  5
1B3
330
1F
100
AcDbEntity
  8
0
  6
HIDDEN
 62
     7
370
     0
100
AcDbLine
 10
164.2204931718
 20
105.3078645605
 30
0.0
 11
164.2204931718
 21
106.5664505574
 31
0.0
  0
LINE
  5
1B4
330
1F
100
AcDbEntity
  8
0
  6
HIDDEN
 62
     7
370
     0
100
AcDbLine
 10
158.2204931718
 20
106.5664505574
 30
0.0
 11
158.2204931718
 21
105.3078645605
 31
0.0
  0
DIMENSION
  5
1B5
330
1F
100
AcDbEntity
  8
VERMASSUNG
100
AcDbDimension
  2
_D
 10
26.2204931718
 20
169.7342260755
 30
0.0
 11
26.2204931718
 21
119.7342260755
 31
0.0
 70
   160
  1
MAS-BT 50 %%c<>
 71
     2
 42
-1.0
  3
SLDDIMSTYLE0
100
AcDbAlignedDimension
 13
175.0204931718
 23
69.7342260754
 33
0.0
 14
175.0204931718
 24
169.7342260754
 34
0.0
 50
90.0
100
AcDbRotatedDimension
  0
DIMENSION
  5
1C2
330
1F
100
AcDbEntity
  8
VERMASSUNG
100
AcDbDimension
  2
_D_1
 10
270.919011085
 20
99.7342260754
 30
0.0
 11
270.919011085
 21
119.7342260754
 31
0.0
 70
   160
  1
WH%%c<>
 71
     2
 42
-1.0
  3
SLDDIMSTYLE0
100
AcDbAlignedDimension
 13
255.6204931718
 23
139.7342260754
 33
0.0
 14
255.6204931718
 24
99.7342260754
 34
0.0
 50
90.0
100
AcDbRotatedDimension
  0
DIMENSION
  5
1CE
330
1F
100
AcDbEntity
  8
VERMASSUNG
100
AcDbDimension
  2
_D_2
 10
264.819011085
 20
108.7342260754
 30
0.0
 11
264.819011085
 21
119.7342260754
 31
0.0
 70
   160
  1
%%c<>
 71
     2
 42
-1.0
  3
SLDDIMSTYLE0
100
AcDbAlignedDimension
 13
255.0204931718
 23
130.7342260754
 33
0.0
 14
255.0204931718
 24
108.7342260754
 34
0.0
 50
90.0
100
AcDbRotatedDimension
  0
DIMENSION
  5
1D9
330
1F
100
AcDbEntity
  8
VERMASSUNG
100
AcDbDimension
  2
_D_3
 10
256.0204931718
 20
187.9072341724
 30
0.0
 11
146.1204931718
 21
187.9072341724
 31
0.0
 70
   160
  1
<>
 71
     2
 42
-1.0
  3
SLDDIMSTYLE0
100
AcDbAlignedDimension
 13
36.2204931718
 23
138.0839039362
 33
0.0
 14
256.0204931718
 24
139.3342260754
 34
0.0
100
AcDbRotatedDimension
  0
DIMENSION
  5
1E3
330
1F
100
AcDbEntity
  8
VERMASSUNG
100
AcDbDimension
  2
_D_4
 10
256.0204931718
 20
181.9072341724
 30
0.0
 11
197.0204931718
 21
181.9072341724
 31
0.0
 70
   160
  1
<>
 71
     2
 42
-1.0
  3
SLDDIMSTYLE0
100
AcDbAlignedDimension
 13
138.0204931718
 23
154.6592260754
 33
0.0
 14
256.0204931718
 24
139.3342260754
 34
0.0
100
AcDbRotatedDimension
  0
DIMENSION
  5
1ED
330
1F
100
AcDbEntity
  8
VERMASSUNG
100
AcDbDimension
  2
_D_5
 10
256.0204931718
 20
175.9072341724
 30
0.0
 11
216.0204931718
 21
175.9072341724
 31
0.0
 70
   160
  1
<>
 71
     2
 42
-1.0
  3
SLDDIMSTYLE0
100
AcDbAlignedDimension
 13
176.0204931718
 23
168.7342260754
 33
0.0
 14
256.0204931718
 24
139.3342260754
 34
0.0
100
AcDbRotatedDimension
  0
LINE
  5
1F7
330
1F
100
AcDbEntity
  8
VERMASSUNG
  6
CENTERX2
370
     0
100
AcDbLine
 10
33.8665147568
 20
119.7342260754
 30
0.0
 11
261.2304040388
 21
119.7342260754
 31
0.0
  0
LINE
  5
1F8
330
1F
100
AcDbEntity
  8
0
  6
Continuous
 62
     7
370
    15
100
AcDbLine
 10
277.7668747408
 20
18.8971348281
 30
0.0
 11
277.9082731121
 21
18.9787889083
 31
0.0
  0
LINE
  5
1F9
330
1F
100
AcDbEntity
  8
0
  6
Continuous
 62
     7
370
    15
100
AcDbLine
 10
284.8367933053
 20
30.9806383295
 30
0.0
 11
284.8367933053
 21
31.1439199519
 31
0.0
  0
LINE
  5
1FA
330
1F
100
AcDbEntity
  8
0
  6
Continuous
 62
     7
370
    15
100
AcDbLine
 10
282.7653191566
 20
35.7223680166
 30
0.0
 11
255.6831294372
 21
51.356583358
 31
0.0
  0
LINE
  5
1FB
330
1F
100
AcDbEntity
  8
0
  6
Continuous
 62
     7
370
    15
100
AcDbLine
 10
245.6839421108
 20
34.0356061104
 30
0.0
 11
272.7661318303
 21
18.401390769
 31
0.0
  0
SPLINE
  5
1FC
330
1F
100
AcDbEntity
  8
0
  6
Continuous
 62
     7
370
    15
100
AcDbSpline
210
0.0
220
0.0
230
1.0
 70
     8
 71
     3
 72
    22
 73
    18
 74
     0
 42
0.000000001
 43
0.00000001
 40
0.0
 40
0.0
 40
0.0
 40
0.0
 40
0.0590830616696424
 40
0.1283725729595121
 40
0.2020980534512029
 40
0.273241789054135
 40
0.3434705441309902
 40
0.4135740505050434
 40
0.4838108043810809
 40
0.5542660684503895
 40
0.6249014134809013
 40
0.6956359140722153
 40
0.7663756492716708
 40
0.8369910571989733
 40
0.9073834843341568
 40
0.9774656246115586
 40
1.0
 40
1.0
 40
1.0
 40
1.0
 10
274.7629858125632
 20
22.46127506579461
 30
0.0
 10
274.6611689780386
 20
22.52875659444088
 30
0.0
 10
274.4399467080826
 20
22.67537691530374
 30
0.0
 10
274.1684519703898
 20
23.05549131862476
 30
0.0
 10
273.9468686443959
 20
23.57262602014625
 30
0.0
 10
273.8205855353749
 20
24.21432229356001
 30
0.0
 10
273.797661723732
 20
24.93672705721862
 30
0.0
 10
273.8803242217027
 20
25.72360359845699
 30
0.0
 10
274.0680293238564
 20
26.55355269355098
 30
0.0
 10
274.3572315001552
 20
27.40288083607737
 30
0.0
 10
274.7407803219579
 20
28.24655150937343
 30
0.0
 10
275.2080575219337
 20
29.05937597462308
 30
0.0
 10
275.7452014048902
 20
29.81680009107079
 30
0.0
 10
276.3357047007374
 20
30.49669863186575
 30
0.0
 10
276.960373375991
 20
31.07758517627517
 30
0.0
 10
277.4562736459108
 20
31.44353674049189
 30
0.0
 10
277.7356086032812
 20
31.61004756813451
 30
0.0
 10
277.8035731422541
 20
31.65056104965952
 30
0.0
  0
SPLINE
  5
1FD
330
1F
100
AcDbEntity
  8
0
  6
Continuous
 62
     7
370
    15
100
AcDbSpline
210
0.0
220
0.0
230
1.0
 70
     8
 71
     3
 72
    12
 73
     8
 74
     0
 42
0.000000001
 43
0.00000001
 40
0.0
 40
0.0
 40
0.0
 40
0.0
 40
0.1182504760674072
 40
0.344079455703077
 40
0.5698508568756862
 40
0.7976714171006601
 40
1.0
 40
1.0
 40
1.0
 40
1.0
 10
277.8035731422541
 20
31.65056104965952
 30
0.0
 10
277.9127674595642
 20
31.71034641836187
 30
0.0
 10
278.2304957471399
 20
31.88430696216883
 30
0.0
 10
278.7411416274458
 20
32.075699479339
 30
0.0
 10
279.3015776675728
 20
32.17534632506827
 30
0.0
 10
279.7846334977944
 20
32.15921299071044
 30
0.0
 10
280.0422827904835
 20
32.05777497681131
 30
0.0
 10
280.1634728872397
 20
32.01006173610772
 30
0.0
  0
SPLINE
  5
1FE
330
1F
100
AcDbEntity
  8
0
  6
Continuous
 62
     7
370
    15
100
AcDbSpline
210
0.0
220
0.0
230
1.0
 70
     8
 71
     3
 72
    19
 73
    15
 74
     0
 42
0.000000001
 43
0.00000001
 40
0.0
 40
0.0
 40
0.0
 40
0.0
 40
0.0204933735060414
 40
0.1092173113241785
 40
0.1983075969191768
 40
0.2877198567080607
 40
0.3773759068952983
 40
0.4671922992169107
 40
0.5570977688559288
 40
0.6470396231121893
 40
0.7369763771152759
 40
0.8268900979325455
 40
0.9167732701311537
 40
1.0
 40
1.0
 40
1.0
 40
1.0
 10
240.6326826610846
 20
20.69616284752807
 30
0.0
 10
240.7269248888527
 20
20.68429680047442
 30
0.0
 10
241.2291790797987
 20
20.62105793182917
 30
0.0
 10
242.1907518515234
 20
20.6497727561891
 30
0.0
 10
243.5108368017605
 20
20.78851866733436
 30
0.0
 10
244.8723652228617
 20
21.08405684474348
 30
0.0
 10
246.2609808318428
 20
21.51941093511342
 30
0.0
 10
247.6689280572153
 20
22.09594189962771
 30
0.0
 10
249.0865218465364
 20
22.80857952991763
 30
0.0
 10
250.5045177325625
 20
23.65293348213202
 30
0.0
 10
251.9141220620503
 20
24.62241983086515
 30
0.0
 10
253.3052592429529
 20
25.71342541705005
 30
0.0
 10
254.6401711214071
 20
26.87885096025352
 30
0.0
 10
255.4894802910077
 20
27.73003897382139
 30
0.0
 10
255.8978060077303
 20
28.139267989763
 30
0.0
  0
SPLINE
  5
1FF
330
1F
100
AcDbEntity
  8
0
  6
Continuous
 62
     7
370
    15
100
AcDbSpline
210
0.0
220
0.0
230
1.0
 70
     8
 71
     3
 72
    19
 73
    15
 74
     0
 42
0.000000001
 43
0.00000001
 40
0.0
 40
0.0
 40
0.0
 40
0.0
 40
0.0642346845719952
 40
0.1539783934438706
 40
0.2437626643453376
 40
0.3335906697401065
 40
0.4234622805686497
 40
0.5133718809630031
 40
0.603305215129651
 40
0.6932235444733585
 40
0.7830753566225469
 40
0.8727888139711805
 40
0.9622750651145743
 40
1.0
 40
1.0
 40
1.0
 40
1.0
 10
265.8911034085086
 20
45.4636454190404
 30
0.0
 10
266.0117615306374
 20
45.89567047763251
 30
0.0
 10
266.3009938032816
 20
46.93128737048033
 30
0.0
 10
266.6350576016693
 20
48.54966654989576
 30
0.0
 10
266.9083235467647
 20
50.30802369649914
 30
0.0
 10
267.0661463751416
 20
52.02409982803073
 30
0.0
 10
267.1118943659427
 20
53.68785142055221
 30
0.0
 10
267.0434841069582
 20
55.28866839521862
 30
0.0
 10
266.8612905909022
 20
56.81657095619042
 30
0.0
 10
266.5652594651669
 20
58.26094147185404
 30
0.0
 10
266.1589258542824
 20
59.61453900145569
 30
0.0
 10
265.6368090356386
 20
60.85896675386742
 30
0.0
 10
265.1474209419057
 20
61.79679899746318
 30
0.0
 10
264.7964918043878
 20
62.27434703834174
 30
0.0
 10
264.6924225061167
 20
62.41596562794223
 30
0.0
  0
LINE
  5
200
330
1F
100
AcDbEntity
  8
0
  6
Continuous
 62
     7
370
    15
100
AcDbLine
 10
234.5517905277
 20
23.1420215119
 30
0.0
 11
236.7703380537
 21
21.8612812865
 31
0.0
  0
LINE
  5
201
330
1F
100
AcDbEntity
  8
0
  6
Continuous
 62
     7
370
    15
100
AcDbLine
 10
261.7683063696
 20
65.1637244055
 30
0.0
 11
259.5497588436
 21
66.4444646309
 31
0.0
  0
LINE
  5
202
330
1F
100
AcDbEntity
  8
0
  6
Continuous
 62
     7
370
    15
100
AcDbLine
 10
254.2287803152
 20
69.5162001517
 30
0.0
 11
250.10104448
 21
71.899091328
 31
0.0
  0
SPLINE
  5
203
330
1F
100
AcDbEntity
  8
0
  6
Continuous
 62
     7
370
    15
100
AcDbSpline
210
0.0
220
0.0
230
1.0
 70
     8
 71
     3
 72
    31
 73
    27
 74
     0
 42
0.000000001
 43
0.00000001
 40
0.0
 40
0.0
 40
0.0
 40
0.0
 40
0.018342481450696
 40
0.0620149509310538
 40
0.105864957153825
 40
0.1498655462930296
 40
0.1939766288579195
 40
0.2381579821269867
 40
0.2823764970167145
 40
0.3266079441111511
 40
0.370833879296485
 40
0.415047333874742
 40
0.4592453778710863
 40
0.503427682981613
 40
0.5475955173449968
 40
0.5917510864138393
 40
0.6358971226055855
 40
0.6800366424902103
 40
0.724172811530625
 40
0.768308874283194
 40
0.8124474407720712
 40
0.856591413997809
 40
0.9007441210778869
 40
0.9449088566948951
 40
0.9890887974791109
 40
1.0
 40
1.0
 40
1.0
 40
1.0
 10
246.1938289352552
 20
73.0629472739022
 30
0.0
 10
246.0209648315955
 20
73.0809090060615
 30
0.0
 10
245.4365205220831
 20
73.14163666395719
 30
0.0
 10
244.3877859963947
 20
73.09198678625846
 30
0.0
 10
243.0576236403851
 20
72.9180511282134
 30
0.0
 10
241.6892269674136
 20
72.59089503987526
 30
0.0
 10
240.2954569475177
 20
72.12355111225078
 30
0.0
 10
238.8845336448409
 20
71.5160671110541
 30
0.0
 10
237.4660461237585
 20
70.77338591881373
 30
0.0
 10
236.0491537499196
 20
69.90038706634098
 30
0.0
 10
234.6429187911874
 20
68.90304354599553
 30
0.0
 10
233.2561623444268
 20
67.7879740480163
 30
0.0
 10
231.8974651406602
 20
66.56244276027263
 30
0.0
 10
230.5752009730729
 20
65.23433011941275
 30
0.0
 10
229.2975117997327
 20
63.81210097096239
 30
0.0
 10
228.0722719938291
 20
62.30476151757551
 30
0.0
 10
226.9070474138628
 20
60.72181336290745
 30
0.0
 10
225.8090547315936
 20
59.0732021377023
 30
0.0
 10
224.7851097194864
 20
57.36925821204454
 30
0.0
 10
223.8416224749345
 20
55.62065234116815
 30
0.0
 10
222.9844348053946
 20
53.83829679073661
 30
0.0
 10
222.219226966031
 20
52.03338709849582
 30
0.0
 10
221.5498178661445
 20
50.21688979706446
 30
0.0
 10
220.9843625938084
 20
48.4010891646713
 30
0.0
 10
220.6307141570829
 20
47.04745815498485
 30
0.0
 10
220.4733884937218
 20
46.30497317060364
 30
0.0
 10
220.4422289992607
 20
46.15791860706997
 30
0.0
  0
LINE
  5
204
330
1F
100
AcDbEntity
  8
0
  6
Continuous
 62
     7
370
    15
100
AcDbLine
 10
235.6782571254
 20
69.6153665223
 30
0.0
 11
205.3316964679
 21
80.5510640871
 31
0.0
  0
LINE
  5
205
330
1F
100
AcDbEntity
  8
0
  6
Continuous
 62
     7
370
    15
100
AcDbLine
 10
195.2223417925
 20
63.0392507162
 30
0.0
 11
224.6860791191
 21
38.1603144908
 31
0.0
  0
LINE
  5
206
330
1F
100
AcDbEntity
  8
0
  6
Continuous
 62
     7
370
    15
100
AcDbLine
 10
225.1030761641
 20
28.596648209
 30
0.0
 11
229.2308119993
 21
26.2137570326
 31
0.0
  0
SPLINE
  5
207
330
1F
100
AcDbEntity
  8
0
  6
Continuous
 62
     7
370
    15
100
AcDbSpline
210
0.0
220
0.0
230
1.0
 70
     8
 71
     3
 72
    11
 73
     7
 74
     0
 42
0.000000001
 43
0.00000001
 40
0.0
 40
0.0
 40
0.0
 40
0.0
 40
0.1050885860694574
 40
0.4236183153902486
 40
0.7416590627631888
 40
1.0
 40
1.0
 40
1.0
 40
1.0
 10
220.4475174343146
 20
35.07106056846214
 30
0.0
 10
220.4899241897015
 20
34.92070695498973
 30
0.0
 10
220.6608683326394
 20
34.31462263285484
 30
0.0
 10
221.0419811067074
 20
33.32460593992738
 30
0.0
 10
221.5819281454822
 20
32.20691623322775
 30
0.0
 10
222.0123616958952
 20
31.57693058043268
 30
0.0
 10
222.2052869914086
 20
31.29456372469364
 30
0.0
  0
SPLINE
  5
208
330
1F
100
AcDbEntity
  8
0
  6
Continuous
 62
     7
370
    15
100
AcDbSpline
210
0.0
220
0.0
230
1.0
 70
     8
 71
     3
 72
    26
 73
    22
 74
     0
 42
0.000000001
 43
0.00000001
 40
0.0
 40
0.0
 40
0.0
 40
0.0
 40
0.0211003487122628
 40
0.0734660947596716
 40
0.1265293848983989
 40
0.1807963946600735
 40
0.2363312363639711
 40
0.2928241536681345
 40
0.3498299648572936
 40
0.4069680242110202
 40
0.464024702657787
 40
0.5209555255077407
 40
0.5777730718169946
 40
0.6345160112361959
 40
0.6912339037794962
 40
0.7479784728614466
 40
0.8047900183011125
 40
0.8617257557541511
 40
0.9188408427311997
 40
0.9761800833651304
 40
0.9999999999999999
 40
0.9999999999999999
 40
0.9999999999999999
 40
0.9999999999999999
 10
205.3721269815243
 20
80.51622560560469
 30
0.0
 10
205.2729579601784
 20
80.55832582394015
 30
0.0
 10
204.9276764286375
 20
80.70490817060242
 30
0.0
 10
204.272807743683
 20
80.80560258504372
 30
0.0
 10
203.4267661939201
 20
80.82040592730729
 30
0.0
 10
202.5396296429045
 20
80.68193128424303
 30
0.0
 10
201.6254058423071
 20
80.40106629952989
 30
0.0
 10
200.6959508166939
 20
79.97641623327002
 30
0.0
 10
199.7679889803181
 20
79.41530443047982
 30
0.0
 10
198.8581520910452
 20
78.72817216806052
 30
0.0
 10
197.9815931143765
 20
77.9281962033718
 30
0.0
 10
197.1514673037282
 20
77.02941965906706
 30
0.0
 10
196.379478998278
 20
76.04634567078105
 30
0.0
 10
195.6764531273912
 20
74.99410514832861
 30
0.0
 10
195.05242667232
 20
73.88843443957546
 30
0.0
 10
194.5165864932043
 20
72.745609509914
 30
0.0
 10
194.0773158604658
 20
71.5822515523943
 30
0.0
 10
193.7413917702738
 20
70.41466873817255
 30
0.0
 10
193.5168775786067
 20
69.26001384383332
 30
0.0
 10
193.4250269820495
 20
68.35242478372705
 30
0.0
 10
193.4177602993781
 20
67.83910986343608
 30
0.0
 10
193.4156275545189
 20
67.6884538066184
 30
0.0
  0
SPLINE
  5
209
330
1F
100
AcDbEntity
  8
0
  6
Continuous
 62
     7
370
    15
100
AcDbSpline
210
0.0
220
0.0
230
1.0
 70
     8
 71
     3
 72
    13
 73
     9
 74
     0
 42
0.000000001
 43
0.00000001
 40
0.0
 40
0.0
 40
0.0
 40
0.0
 40
0.1011487783717619
 40
0.2919018006118885
 40
0.4826418266735833
 40
0.6715266520409041
 40
0.8566629140943125
 40
0.9999999999999999
 40
0.9999999999999999
 40
0.9999999999999999
 40
0.9999999999999999
 10
193.4156275545189
 20
67.6884538066184
 30
0.0
 10
193.4190849878849
 20
67.49780817493178
 30
0.0
 10
193.429062676605
 20
66.94763046577967
 30
0.0
 10
193.5409224836713
 20
66.0843145387336
 30
0.0
 10
193.7926138749345
 20
65.13620432387093
 30
0.0
 10
194.1744807568734
 20
64.29150254096896
 30
0.0
 10
194.6286210490579
 20
63.59941647673794
 30
0.0
 10
195.0039958300953
 20
63.25459282153061
 30
0.0
 10
195.167799461564
 20
63.10412089375971
 30
0.0
  0
LINE
  5
20A
330
1F
100
AcDbEntity
  8
0
  6
Continuous
 62
     7
370
    15
100
AcDbLine
 10
275.2380772683
 20
37.7272587082
 30
0.0
 11
275.1673551006
 21
37.7680990177
 31
0.0
  0
LINE
  5
20B
330
1F
100
AcDbEntity
  8
0
  6
Continuous
 62
     7
370
    15
100
AcDbLine
 10
272.1263018855
 20
37.7680990177
 30
0.0
 11
272.0555797177
 21
37.7272587082
 31
0.0
  0
LINE
  5
20C
330
1F
100
AcDbEntity
  8
0
  6
Continuous
 62
     7
370
    15
100
AcDbLine
 10
275.6672013165
 20
28.8432598532
 30
0.0
 11
278.2232250021
 21
29.3640305375
 31
0.0
  0
LWPOLYLINE
  5
20D
330
1F
100
AcDbEntity
  8
0
  6
Continuous
 62
     7
370
    15
100
AcDbPolyline
 90
       47
 70
   128
 43
0.0
 10
277.9071468497
 20
34.9823385381
 10
276.9635601124
 20
34.3630855185
 10
276.0375506107
 20
33.6063040294
 10
275.1463681495
 20
32.726091478
 10
274.3066137719
 20
31.7388445588
 10
273.5339305131
 20
30.6629538138
 10
272.8427120002
 20
29.5184610519
 10
272.2458343262
 20
28.326686008
 10
271.754416193
 20
27.1098291961
 10
271.3776117905
 20
25.8905583562
 10
271.1224402717
 20
24.6915861972
 10
270.9936549994
 20
23.5352473018
 10
270.9936549994
 20
22.4430820758
 10
271.1224402717
 20
21.4354354908
 10
271.3776117905
 20
20.5310780963
 10
271.754416193
 20
19.7468563593
 10
272.2458343262
 20
19.097378847
 10
272.8427120002
 20
18.5947440967
 10
273.5339305131
 20
18.2483152426
 10
274.3066137719
 20
18.0645455989
 10
275.1463681495
 20
18.0468584463
 10
276.0375506107
 20
18.1955832631
 10
276.9635601124
 20
18.5079495872
 10
277.9071468497
 20
18.9781386251
 10
278.850733587
 20
19.5973916446
 10
279.7767430887
 20
20.3541731337
 10
280.6679255499
 20
21.2343856851
 10
281.5076799275
 20
22.2216326044
 10
282.2803631863
 20
23.2975233494
 10
282.9715816992
 20
24.4420161112
 10
283.5684593731
 20
25.6337911551
 10
284.0598775064
 20
26.8506479671
 10
284.4366819089
 20
28.0699188069
 10
284.6918534277
 20
29.268890966
 10
284.8206387
 20
30.4252298614
 10
284.8206387
 20
31.5173950874
 10
284.6918534277
 20
32.5250416723
 10
284.4366819089
 20
33.4293990669
 10
284.0598775064
 20
34.2136208039
 10
283.5684593731
 20
34.8630983161
 10
282.9715816992
 20
35.3657330665
 10
282.2803631863
 20
35.7121619206
 10
281.5076799275
 20
35.8959315643
 10
280.6679255499
 20
35.9136187168
 10
279.7767430887
 20
35.7648939001
 10
278.850733587
 20
35.452527576
 10
277.9071468497
 20
34.9823385381
  0
LWPOLYLINE
  5
20E
330
1F
100
AcDbEntity
  8
0
  6
Continuous
 62
     7
370
    15
100
AcDbPolyline
 90
       25
 70
   128
 43
0.0
 10
277.7657254935
 20
35.2272875116
 10
276.8232443936
 20
34.6103488031
 10
275.8975818912
 20
33.8587074792
 10
275.0052564557
 20
32.985776597
 10
274.1621916556
 20
32.0071336289
 10
273.3834320022
 20
30.9402424817
 10
272.68287448
 20
29.8041418534
 10
272.0730205545
 20
28.6191054865
 10
271.5647530835
 20
27.4062803831
 10
271.1671421121
 20
26.1873094358
 10
270.8872830174
 20
24.9839452102
 10
270.7301698917
 20
23.8176617692
 10
270.6986064223
 20
22.7092714686
 10
270.7931558602
 20
21.6785535595
 10
271.0121309684
 20
20.7439012275
 10
271.3516241309
 20
19.9219933655
 10
271.8055770842
 20
19.2274969387
 10
272.365889027
 20
18.6728052525
 10
273.0225611795
 20
18.2678167931
 10
273.7638752115
 20
18.0197585891
 10
274.5766023566
 20
17.933057245
 10
275.4462394797
 20
18.0092599484
 10
276.3572678856
 20
18.2470068603
 10
277.2934302509
 20
18.6420553813
 10
277.7668747408
 20
18.8971348281
  0
LWPOLYLINE
  5
20F
330
1F
100
AcDbEntity
  8
0
  6
Continuous
 62
     7
370
    15
100
AcDbPolyline
 90
       13
 70
   128
 43
0.0
 10
284.8367933053
 20
31.1439199519
 10
284.8012810952
 20
31.9407413624
 10
284.6441679695
 20
32.9256258496
 10
284.3643088748
 20
33.8058716423
 10
283.9666979034
 20
34.5657707336
 10
283.4584304324
 20
35.1917627061
 10
282.8485765069
 20
35.6726767183
 10
282.1480189847
 20
35.9999308482
 10
281.3692593313
 20
36.1676852382
 10
280.5261945312
 20
36.1729463071
 10
279.6338690957
 20
36.0156201711
 10
278.7082065933
 20
35.6985143188
 10
277.7657254935
 20
35.2272875116
  0
SPLINE
  5
210
330
1F
100
AcDbEntity
  8
0
  6
Continuous
 62
     7
370
    15
100
AcDbSpline
210
0.0
220
0.0
230
1.0
 70
    11
 71
     3
 72
    88
 73
    84
 74
     0
 42
0.000000001
 43
0.00000001
 40
0.0
 40
0.0
 40
0.0
 40
0.0
 40
0.0312499999999994
 40
0.0312499999999994
 40
0.0624999999999988
 40
0.0624999999999988
 40
0.0937499999999982
 40
0.0937499999999982
 40
0.1093749999999985
 40
0.1093749999999985
 40
0.1249999999999987
 40
0.1249999999999987
 40
0.1562499999999981
 40
0.1562499999999981
 40
0.1718749999999984
 40
0.1718749999999984
 40
0.1874999999999986
 40
0.1874999999999986
 40
0.2187499999999991
 40
0.2187499999999991
 40
0.2343749999999989
 40
0.2343749999999989
 40
0.2499999999999987
 40
0.2499999999999987
 40
0.2812499999999991
 40
0.2812499999999991
 40
0.2968749999999993
 40
0.2968749999999993
 40
0.3124999999999996
 40
0.3124999999999996
 40
0.3437499999999994
 40
0.3437499999999994
 40
0.3593749999999994
 40
0.3593749999999994
 40
0.3749999999999994
 40
0.3749999999999994
 40
0.3906249999999994
 40
0.3906249999999994
 40
0.4062499999999994
 40
0.4062499999999994
 40
0.4374999999999993
 40
0.4374999999999993
 40
0.4531249999999992
 40
0.4531249999999992
 40
0.4687499999999992
 40
0.4687499999999992
 40
0.4999999999999991
 40
0.4999999999999991
 40
0.5312499999999991
 40
0.5312499999999991
 40
0.562499999999999
 40
0.562499999999999
 40
0.593749999999999
 40
0.593749999999999
 40
0.624999999999999
 40
0.624999999999999
 40
0.6562499999999989
 40
0.6562499999999989
 40
0.6874999999999989
 40
0.6874999999999989
 40
0.7187499999999989
 40
0.7187499999999989
 40
0.7499999999999988
 40
0.7499999999999988
 40
0.7812499999999988
 40
0.7812499999999988
 40
0.8124999999999988
 40
0.8124999999999988
 40
0.8281249999999988
 40
0.8281249999999988
 40
0.8437499999999989
 40
0.8437499999999989
 40
0.8749999999999988
 40
0.8749999999999988
 40
0.8906249999999989
 40
0.8906249999999989
 40
0.9062499999999989
 40
0.9062499999999989
 40
0.9374999999999992
 40
0.9374999999999992
 40
0.9687499999999996
 40
0.9687499999999996
 40
1.0
 40
1.0
 40
1.0
 40
1.0
 10
273.6212868235257
 20
39.11519888158848
 30
0.0
 10
273.8127245337375
 20
39.08156039674601
 30
0.0
 10
273.9990499758478
 20
39.03871345383954
 30
0.0
 10
274.3627321765167
 20
38.9383573856667
 30
0.0
 10
274.5410138201715
 20
38.8804666912874
 30
0.0
 10
274.8845355700142
 20
38.75297404379369
 30
0.0
 10
275.0470203950561
 20
38.68449820108563
 30
0.0
 10
275.27751817258
 20
38.57579804222163
 30
0.0
 10
275.3521305354116
 20
38.53855355583395
 30
0.0
 10
275.4968532274655
 20
38.46207625214734
 30
0.0
 10
275.5672376802517
 20
38.42266795171074
 30
0.0
 10
275.7680442937366
 20
38.30341231862445
 30
0.0
 10
275.8890481268032
 20
38.22219869201795
 30
0.0
 10
276.0515670998528
 20
38.09747357453647
 30
0.0
 10
276.1025564477154
 20
38.05540572149899
 30
0.0
 10
276.1979770002991
 20
37.97011507863677
 30
0.0
 10
276.2425396522025
 20
37.92672165365391
 30
0.0
 10
276.3637005459521
 20
37.79688150134324
 30
0.0
 10
276.4286955138662
 20
37.71017778381937
 30
0.0
 10
276.5021417110531
 20
37.57843526177438
 30
0.0
 10
276.5225895302847
 20
37.53423547180218
 30
0.0
 10
276.554985055995
 20
37.44494297973086
 30
0.0
 10
276.5669167329745
 20
37.39968229715512
 30
0.0
 10
276.5886183143415
 20
37.26501346645966
 30
0.0
 10
276.5848940687881
 20
37.17585358533901
 30
0.0
 10
276.5503566919267
 20
37.04123865998984
 30
0.0
 10
276.5339834818477
 20
36.99622177036245
 30
0.0
 10
276.4907025085255
 20
36.90557841280503
 30
0.0
 10
276.4637331559717
 20
36.86002549881771
 30
0.0
 10
276.3686467128115
 20
36.72598883528896
 30
0.0
 10
276.2859734483511
 20
36.6387821118529
 30
0.0
 10
276.1309688900345
 20
36.51032221241756
 30
0.0
 10
276.073571539557
 20
36.46757028587479
 30
0.0
 10
275.950408690248
 20
36.38476896214716
 30
0.0
 10
275.8848060766979
 20
36.34474579565615
 30
0.0
 10
275.7457568166017
 20
36.26736651133884
 30
0.0
 10
275.6723098177915
 20
36.23001054630981
 30
0.0
 10
275.5175120298801
 20
36.15803277111958
 30
0.0
 10
275.4355981835765
 20
36.12321527176149
 30
0.0
 10
275.1839039454983
 20
36.02554325080901
 30
0.0
 10
275.0072660324925
 20
35.96874936521009
 30
0.0
 10
274.7298133069818
 20
35.8963169676578
 30
0.0
 10
274.6354320511326
 20
35.87441172454562
 30
0.0
 10
274.4467024507105
 20
35.83591465043893
 30
0.0
 10
274.3518418564565
 20
35.81918372282339
 30
0.0
 10
274.065786571926
 20
35.77656450795419
 30
0.0
 10
273.8714475896533
 20
35.75821099697045
 30
0.0
 10
273.4912180618433
 20
35.74380999261498
 30
0.0
 10
273.3043597394584
 20
35.74743818254919
 30
0.0
 10
272.9365436644027
 20
35.77745359070337
 30
0.0
 10
272.7571112231578
 20
35.80394244947361
 30
0.0
 10
272.4159163800836
 20
35.87888349091271
 30
0.0
 10
272.2526754649138
 20
35.92743731122462
 30
0.0
 10
271.9410300224426
 20
36.04816375166293
 30
0.0
 10
271.7961397564194
 20
36.11906706200115
 30
0.0
 10
271.5297795764374
 20
36.28019467705527
 30
0.0
 10
271.4078655356128
 20
36.37058904304211
 30
0.0
 10
271.1876889521076
 20
36.57150632658087
 30
0.0
 10
271.0925270824408
 20
36.67921069637423
 30
0.0
 10
270.9316847631672
 20
36.90728723515728
 30
0.0
 10
270.8658788606085
 20
37.02782258035568
 30
0.0
 10
270.7663582127305
 20
37.28060006624148
 30
0.0
 10
270.7341178737342
 20
37.40901397549444
 30
0.0
 10
270.7051613237344
 20
37.66796073788132
 30
0.0
 10
270.7084969642432
 20
37.79909766910583
 30
0.0
 10
270.7555736243041
 20
38.05914948818185
 30
0.0
 10
270.7984595705273
 20
38.18410570147793
 30
0.0
 10
270.892999817661
 20
38.36221951553964
 30
0.0
 10
270.9295864021718
 20
38.42003006854605
 30
0.0
 10
271.0136461838776
 20
38.53211648003379
 30
0.0
 10
271.0614624936067
 20
38.58662689156335
 30
0.0
 10
271.2176881637537
 20
38.7394008648839
 30
0.0
 10
271.3396638480527
 20
38.82860334266007
 30
0.0
 10
271.5500042219995
 20
38.94266938974341
 30
0.0
 10
271.6252173606099
 20
38.97752370682374
 30
0.0
 10
271.7808192946253
 20
39.03867175747565
 30
0.0
 10
271.8615569460944
 20
39.06522112355227
 30
0.0
 10
272.1122506899401
 20
39.13342966238693
 30
0.0
 10
272.2928914390723
 20
39.16376130536168
 30
0.0
 10
272.6618110713398
 20
39.19451500617509
 30
0.0
 10
272.8506204429773
 20
39.1955194977272
 30
0.0
 10
273.2366915626029
 20
39.17259264650915
 30
0.0
 10
273.4298491133139
 20
39.14883736643094
 30
0.0
 10
273.6212868235257
 20
39.11519888158848
 30
0.0
  0
LINE
  5
211
330
1F
100
AcDbEntity
  8
0
  6
Continuous
 62
     7
370
    15
100
AcDbLine
 10
274.7463036508
 20
22.4556922063
 30
0.0
 11
274.8038169443
 21
22.4210718664
 31
0.0
  0
LINE
  5
212
330
1F
100
AcDbEntity
  8
0
  6
Continuous
 62
     7
370
    15
100
AcDbLine
 10
280.3033699738
 20
31.9476093526
 30
0.0
 11
280.1377368147
 21
32.0323466359
 31
0.0
  0
LWPOLYLINE
  5
213
330
1F
100
AcDbEntity
  8
0
  6
Continuous
 62
     7
370
    15
100
AcDbPolyline
 90
       18
 70
   128
 43
0.0
 10
275.2380772683
 20
35.9722930644
 10
275.4480462851
 20
36.1122027526
 10
275.7549653743
 20
36.4366848293
 10
275.8910957509
 20
36.7979406507
 10
275.8454089415
 20
37.1667034187
 10
275.6216062196
 20
37.5130981668
 10
275.2378187507
 20
37.8090620527
 10
274.7251387132
 20
38.0306178425
 10
274.1251003945
 20
38.1598164038
 10
273.4863153308
 20
38.1861908375
 10
272.8605340889
 20
38.1076044438
 10
272.2984537434
 20
37.9304238251
 10
271.845610701
 20
37.6690031012
 10
271.5386916118
 20
37.3445210245
 10
271.4025612352
 20
36.9832652031
 10
271.4482480446
 20
36.6145024351
 10
271.6720507665
 20
36.268107687
 10
271.9284907599
 20
36.0520807638
  0
ARC
  5
214
330
1F
100
AcDbEntity
  8
0
  6
Continuous
 62
     7
370
    15
100
AcDbCircle
 10
257.4135588192
 20
57.6161716997
 30
0.0
 40
8.703891722762709
100
AcDbArc
 50
34.3325496066
 51
84.2964748064
  0
ARC
  5
215
330
1F
100
AcDbEntity
  8
0
  6
Continuous
 62
     7
370
    15
100
AcDbCircle
 10
241.1203948321
 20
29.3934552693
 30
0.0
 40
8.690205791197995
100
AcDbArc
 50
215.038918254
 51
265.86285515
  0
LWPOLYLINE
  5
216
330
1F
100
AcDbEntity
  8
0
  6
Continuous
 62
     7
370
    15
100
AcDbPolyline
 90
        9
 70
   128
 43
0.0
 10
234.5517905277
 20
23.1420215119
 10
234.3854672645
 20
23.2406275227
 10
233.3945728767
 20
23.9470827144
 10
232.500151771
 20
24.8008041473
 10
231.7085225227
 20
25.795760766
 10
231.0252775412
 20
26.9249237692
 10
230.455243563
 20
28.1803162638
 10
230.0024475531
 20
29.5530696173
 10
229.6700882574
 20
31.0334861098
  0
SPLINE
  5
217
330
1F
100
AcDbEntity
  8
0
  6
Continuous
 62
     7
370
    15
100
AcDbSpline
210
0.0
220
0.0
230
1.0
 70
     8
 71
     3
 72
    32
 73
    28
 74
     0
 42
0.000000001
 43
0.00000001
 40
0.0
 40
0.0
 40
0.0
 40
0.0
 40
0.0193254758652704
 40
0.0385826927409049
 40
0.0577846348017481
 40
0.0769443985967347
 40
0.0960751672961712
 40
0.1151901840600305
 40
0.1343027247899319
 40
0.1534260705421022
 40
0.1725734798867981
 40
0.1917581615009326
 40
0.2109932472750491
 40
0.230291766203487
 40
0.2496666193081581
 40
0.3745846283004807
 40
0.4997410234225904
 40
0.4999962720874485
 40
0.624862702147581
 40
0.7503411293900218
 40
0.78614513231055
 40
0.8217618639989446
 40
0.8572756267685467
 40
0.8927714566740896
 40
0.9283345184906214
 40
0.9640494961172915
 40
1.0
 40
1.0
 40
1.0
 40
1.0
 10
229.670032981367
 20
38.4853108762781
 30
0.0
 10
229.6919761986549
 20
38.42521983256231
 30
0.0
 10
229.7357851281874
 20
38.30524999107793
 30
0.0
 10
229.79822437941
 20
38.1245024369663
 30
0.0
 10
229.8581330069371
 20
37.9436590405473
 30
0.0
 10
229.9153195925711
 20
37.7626519250046
 30
0.0
 10
229.9698776637794
 20
37.58152252268177
 30
0.0
 10
230.0218254103704
 20
37.40028400535004
 30
0.0
 10
230.0712018898334
 20
37.21895805114016
 30
0.0
 10
230.1180412712809
 20
37.03756497440529
 30
0.0
 10
230.1623798776264
 20
36.85612661900394
 30
0.0
 10
230.2042537208494
 20
36.67466473003276
 30
0.0
 10
230.2437013120374
 20
36.49320467758294
 30
0.0
 10
230.280754831397
 20
36.3117622318941
 30
0.0
 10
230.3784469310307
 20
35.80141128015553
 30
0.0
 10
230.4959431298635
 20
34.97480975146875
 30
0.0
 10
230.5307945659845
 20
34.25949025617612
 30
0.0
 10
230.5311903901579
 20
33.58277829126718
 30
0.0
 10
230.4961390391156
 20
32.94108716716808
 30
0.0
 10
230.371204958944
 20
32.31978622839395
 30
0.0
 10
230.2504787780685
 20
31.94716212642208
 30
0.0
 10
230.1761713655463
 20
31.75836542529108
 30
0.0
 10
230.0932578943141
 20
31.58417414232958
 30
0.0
 10
230.0015590933042
 20
31.42435797226412
 30
0.0
 10
229.9006570256816
 20
31.27915409964849
 30
0.0
 10
229.7911041288818
 20
31.14710713952034
 30
0.0
 10
229.7105758309817
 20
31.0714076545781
 30
0.0
 10
229.6701793552259
 20
31.03343352016892
 30
0.0
  0
LWPOLYLINE
  5
218
330
1F
100
AcDbEntity
  8
0
  6
Continuous
 62
     7
370
    15
100
AcDbPolyline
 90
       27
 70
   128
 43
0.0
 10
229.6700329811
 20
38.4853108764
 10
230.0023723211
 20
40.3494767388
 10
230.4551518795
 20
42.2450360523
 10
231.025172948
 20
44.1585974404
 10
231.7084085532
 20
46.0766423489
 10
232.5000319058
 20
47.9856205491
 10
233.3944504999
 20
49.8720458654
 10
234.3853456222
 20
51.722591449
 10
235.4657169904
 20
53.5241839275
 10
236.6279322083
 20
55.2640957628
 10
237.8637806851
 20
56.930035166
 10
239.1645316402
 20
58.5102329342
 10
240.5209957827
 20
59.9935255954
 10
241.92359023
 20
61.3694342737
 10
243.3624062073
 20
62.6282387185
 10
244.8272790487
 20
63.7610459745
 10
246.3078600072
 20
64.7598532064
 10
247.7936893641
 20
65.6176042364
 10
249.2742703226
 20
66.3282393926
 10
250.7391431641
 20
66.8867383189
 10
252.1779591413
 20
67.2891554413
 10
253.5805535886
 20
67.532647842
 10
254.9370177311
 20
67.6154953436
 10
256.2377686862
 20
67.537112661
 10
257.473617163
 20
67.2980535372
 10
258.6358323809
 20
66.9000068301
 10
259.5497588436
 20
66.4444646309
  0
SPLINE
  5
219
330
1F
100
AcDbEntity
  8
0
  6
Continuous
 62
     7
370
    15
100
AcDbSpline
210
0.0
220
0.0
230
1.0
 70
     8
 71
     3
 72
     8
 73
     4
 74
     0
 42
0.000000001
 43
0.00000001
 40
0.0
 40
0.0
 40
0.0
 40
0.0
 40
1.0
 40
1.0
 40
1.0
 40
1.0
 10
228.7080397023109
 20
43.9206485942045
 30
0.0
 10
227.5384132823729
 20
43.72509242096177
 30
0.0
 10
226.3678100395131
 20
43.53150745424185
 30
0.0
 10
225.1965785578602
 20
43.33922800499558
 30
0.0
  0
SPLINE
  5
21A
330
1F
100
AcDbEntity
  8
0
  6
Continuous
 62
     7
370
    15
100
AcDbSpline
210
0.0
220
0.0
230
1.0
 70
     8
 71
     3
 72
     8
 73
     4
 74
     0
 42
0.000000001
 43
0.00000001
 40
0.0
 40
0.0
 40
0.0
 40
0.0
 40
0.0012417047560385
 40
0.0012417047560385
 40
0.0012417047560385
 40
0.0012417047560385
 10
224.7220779542106
 20
43.61320342587544
 30
0.0
 10
224.8803490946709
 20
43.5218181011175
 30
0.0
 10
225.0385184003502
 20
43.43049155371389
 30
0.0
 10
225.1965785578602
 20
43.33922800499558
 30
0.0
  0
LWPOLYLINE
  5
21B
330
1F
100
AcDbEntity
  8
0
  6
Continuous
 62
     7
370
    15
100
AcDbPolyline
 90
       28
 70
   128
 43
0.0
 10
224.7220779542
 20
43.6132034259
 10
225.200913545
 20
45.5618695621
 10
225.8027952613
 20
47.5276807558
 10
226.5232425091
 20
49.4960028992
 10
227.3568920556
 20
51.4521831921
 10
228.2975379554
 20
53.381659222
 10
229.3381777487
 20
55.2700673714
 10
230.4710645903
 20
57.1033497446
 10
231.6877649195
 20
58.8678588194
 10
232.9792212419
 20
60.5504590433
 10
234.3358195564
 20
62.1386246187
 10
235.7474609245
 20
63.6205327488
 10
237.2036366503
 20
64.9851516501
 10
238.6935065105
 20
66.2223226766
 10
240.2059794519
 20
67.3228359436
 10
241.7297961572
 20
68.2784988893
 10
243.2536128625
 20
69.0821972625
 10
244.766085804
 20
69.7279480834
 10
246.2559556642
 20
70.2109441826
 10
247.71213139
 20
70.5275899877
 10
249.1237727581
 20
70.6755282889
 10
250.4803710725
 20
70.6536577878
 10
251.7718273949
 20
70.4621412952
 10
252.9885277242
 20
70.1024045191
 10
254.1214145658
 20
69.5771254516
 10
255.1620543591
 20
68.890214433
 10
256.1027002588
 20
68.0467850418
 10
256.6029306016
 20
67.4843249901
  0
LINE
  5
21C
330
1F
100
AcDbEntity
  8
0
  6
Continuous
 62
     7
370
    15
100
AcDbLine
 10
220.594342119
 20
45.9960946023
 30
0.0
 11
224.7220779542
 21
43.6132034259
 31
0.0
  0
ARC
  5
21D
330
1F
100
AcDbEntity
  8
0
  6
Continuous
 62
     7
370
    15
100
AcDbCircle
 10
245.7120202297
 20
64.1816122143
 30
0.0
 40
8.878232805078166
100
AcDbArc
 50
60.3725835944
 51
85.9811821539
  0
SPLINE
  5
21E
330
1F
100
AcDbEntity
  8
0
  6
Continuous
 62
     7
370
    15
100
AcDbSpline
210
0.0
220
0.0
230
1.0
 70
     8
 71
     3
 72
    13
 73
     9
 74
     0
 42
0.000000001
 43
0.00000001
 40
0.0
 40
0.0
 40
0.0
 40
0.0
 40
0.1935905955800962
 40
0.3928012754955224
 40
0.5863901717895985
 40
0.7855816257819509
 40
0.9793802664265364
 40
1.0
 40
1.0
 40
1.0
 40
1.0
 10
238.4294044910752
 20
58.81571108265091
 30
0.0
 10
238.4805107164636
 20
58.78978275237258
 30
0.0
 10
238.5842068203895
 20
58.7371733723855
 30
0.0
 10
238.7636617571436
 20
58.69216304067884
 30
0.0
 10
238.9568907024233
 20
58.6724396663658
 30
0.0
 10
239.1565537612227
 20
58.6843014900816
 30
0.0
 10
239.3004253505262
 20
58.70503504526
 30
0.0
 10
239.3730183246411
 20
58.72854984423589
 30
0.0
 10
239.3799992925316
 20
58.73081116578393
 30
0.0
  0
LWPOLYLINE
  5
21F
330
1F
100
AcDbEntity
  8
0
  6
Continuous
 62
     7
370
    15
100
AcDbPolyline
 90
       25
 70
   128
 43
0.0
 10
240.4610040682
 20
59.9294842059
 10
240.4455213976
 20
60.03380537
 10
240.388270481
 20
60.1772229771
 10
240.3006633094
 20
60.302650563
 10
240.1800715695
 20
60.413917725
 10
240.0368257641
 20
60.5016568492
 10
239.8666266735
 20
60.5685977873
 10
239.6839433791
 20
60.6090093549
 10
239.4834865225
 20
60.6239277774
 10
239.281893892
 20
60.6118213845
 10
239.0737217975
 20
60.5719924546
 10
238.8762863684
 20
60.5073625475
 10
238.6842708248
 20
60.415783402
 10
238.5140177546
 20
60.3047878084
 10
238.3605477123
 20
60.1709533334
 10
238.2369679188
 20
60.025721984
 10
238.1394359735
 20
59.8647803481
 10
238.0760645678
 20
59.7017914336
 10
238.0449169076
 20
59.5323146797
 10
238.0485048439
 20
59.3705845137
 10
238.0868768931
 20
59.2125316713
 10
238.1567609995
 20
59.0716239616
 10
238.260071308
 20
58.9441824514
 10
238.4294044911
 20
58.8157110827
 10
238.4294044911
 20
58.8157110827
  0
SPLINE
  5
220
330
1F
100
AcDbEntity
  8
0
  6
Continuous
 62
     7
370
    15
100
AcDbSpline
210
0.0
220
0.0
230
1.0
 70
     8
 71
     3
 72
    10
 73
     6
 74
     0
 42
0.000000001
 43
0.00000001
 40
0.0
 40
0.0
 40
0.0
 40
0.0
 40
0.1982376724753472
 40
0.6709252460000957
 40
1.0
 40
1.0
 40
1.0
 40
1.0
 10
230.5499735112718
 20
42.53253809269336
 30
0.0
 10
230.4656505289355
 20
42.64295139301043
 30
0.0
 10
230.1802637154149
 20
43.01663955102752
 30
0.0
 10
229.689001728595
 20
43.465988350846
 30
0.0
 10
229.2719999772944
 20
43.74747071703995
 30
0.0
 10
229.1008460779206
 20
43.86300213730083
 30
0.0
  0
SPLINE
  5
221
330
1F
100
AcDbEntity
  8
0
  6
Continuous
 62
     7
370
    15
100
AcDbSpline
210
0.0
220
0.0
230
1.0
 70
     8
 71
     3
 72
    10
 73
     6
 74
     0
 42
0.000000001
 43
0.00000001
 40
0.0
 40
0.0
 40
0.0
 40
0.0
 40
0.5
 40
0.5
 40
1.0
 40
1.0
 40
1.0
 40
1.0
 10
228.9649167306885
 20
43.91553211911015
 30
0.0
 10
228.9243414222936
 20
43.9243566404371
 30
0.0
 10
228.8807670792399
 20
43.92930971634578
 30
0.0
 10
228.7929643522531
 20
43.93089490161191
 30
0.0
 10
228.7499962353313
 20
43.92766353410337
 30
0.0
 10
228.7080397023109
 20
43.92064859420451
 30
0.0
  0
SPLINE
  5
222
330
1F
100
AcDbEntity
  8
0
  6
Continuous
 62
     7
370
    15
100
AcDbSpline
210
0.0
220
0.0
230
1.0
 70
     8
 71
     3
 72
     8
 73
     4
 74
     0
 42
0.000000001
 43
0.00000001
 40
0.0
 40
0.0
 40
0.0
 40
0.0
 40
1.0
 40
1.0
 40
1.0
 40
1.0
 10
229.1008460779206
 20
43.86300213730083
 30
0.0
 10
229.0623641360845
 20
43.88667294709669
 30
0.0
 10
229.0162564843376
 20
43.90436649230614
 30
0.0
 10
228.9649167306885
 20
43.9155321191102
 30
0.0
  0
SPLINE
  5
223
330
1F
100
AcDbEntity
  8
0
  6
Continuous
 62
     7
370
    15
100
AcDbSpline
210
0.0
220
0.0
230
1.0
 70
     8
 71
     3
 72
    10
 73
     6
 74
     0
 42
0.000000001
 43
0.00000001
 40
0.0
 40
0.0
 40
0.0
 40
0.0
 40
0.5
 40
0.5
 40
1.0
 40
1.0
 40
1.0
 40
1.0
 10
220.4376451992233
 20
46.08654248543856
 30
0.0
 10
220.4486957975734
 20
46.08016665089443
 30
0.0
 10
220.4673157435128
 20
46.06942040938904
 30
0.0
 10
220.5206156935733
 20
46.03865493654909
 30
0.0
 10
220.5541964662946
 20
46.01927019427813
 30
0.0
 10
220.5943421190341
 20
45.99609460225798
 30
0.0
  0
SPLINE
  5
224
330
1F
100
AcDbEntity
  8
0
  6
Continuous
 62
     7
370
    15
100
AcDbSpline
210
0.0
220
0.0
230
1.0
 70
     8
 71
     3
 72
     9
 73
     5
 74
     0
 42
0.000000001
 43
0.00000001
 40
0.0
 40
0.0
 40
0.0
 40
0.0
 40
0.5377956222890862
 40
0.9999999999999999
 40
0.9999999999999999
 40
0.9999999999999999
 40
0.9999999999999999
 10
229.1008460779206
 20
33.37364607435773
 30
0.0
 10
229.3409122513681
 20
33.24688002681625
 30
0.0
 10
229.7873014808408
 20
33.01116585904018
 30
0.0
 10
230.178907638284
 20
32.89552122002586
 30
0.0
 10
230.3599097185929
 20
32.84206976161465
 30
0.0
  0
SPLINE
  5
225
330
1F
100
AcDbEntity
  8
0
  6
Continuous
 62
     7
370
    15
100
AcDbSpline
210
0.0
220
0.0
230
1.0
 70
     8
 71
     3
 72
     8
 73
     4
 74
     0
 42
0.000000001
 43
0.00000001
 40
0.0
 40
0.0
 40
0.0
 40
0.0
 40
1.0
 40
1.0
 40
1.0
 40
1.0
 10
228.9649167306891
 20
33.42298268637814
 30
0.0
 10
229.0162451126862
 20
33.41181953273785
 30
0.0
 10
229.0623656767904
 20
33.39510552843614
 30
0.0
 10
229.1008460779207
 20
33.37364607435775
 30
0.0
  0
SPLINE
  5
226
330
1F
100
AcDbEntity
  8
0
  6
Continuous
 62
     7
370
    15
100
AcDbSpline
210
0.0
220
0.0
230
1.0
 70
     8
 71
     3
 72
    12
 73
     8
 74
     0
 42
0.000000001
 43
0.00000001
 40
0.0
 40
0.0
 40
0.0
 40
0.0
 40
0.1882348860552934
 40
0.3552030333413834
 40
0.5009466077120189
 40
0.7563025321915505
 40
1.0
 40
1.0
 40
1.0
 40
1.0
 10
229.7808332470208
 20
31.7574076770764
 30
0.0
 10
229.8698767803479
 20
31.851689325094
 30
0.0
 10
230.0379037268933
 20
32.02960069989854
 30
0.0
 10
230.2178130789127
 20
32.37691780108744
 30
0.0
 10
230.3793370733727
 20
32.83757140987628
 30
0.0
 10
230.5050941369893
 20
33.45912232141946
 30
0.0
 10
230.5223969331791
 20
34.04244962707677
 30
0.0
 10
230.5308462247432
 20
34.32729968418284
 30
0.0
  0
SPLINE
  5
227
330
1F
100
AcDbEntity
  8
0
  6
Continuous
 62
     7
370
    15
100
AcDbSpline
210
0.0
220
0.0
230
1.0
 70
     8
 71
     3
 72
     9
 73
     5
 74
     0
 42
0.000000001
 43
0.00000001
 40
0.0
 40
0.0
 40
0.0
 40
0.0
 40
0.5048004990382029
 40
1.0
 40
1.0
 40
1.0
 40
1.0
 10
229.67009883499
 20
31.03338315681529
 30
0.0
 10
229.6886437332749
 20
31.15509703254049
 30
0.0
 10
229.7253808171729
 20
31.39620986019638
 30
0.0
 10
229.7624779285287
 20
31.63771609344322
 30
0.0
 10
229.7808483995593
 20
31.75730985962622
 30
0.0
  0
LINE
  5
228
330
1F
100
AcDbEntity
  8
0
  6
Continuous
 62
     7
370
    15
100
AcDbLine
 10
220.8717122993
 20
45.8359201525
 30
0.0
 11
220.4376451992
 21
46.0865424854
 31
0.0
  0
LINE
  5
229
330
1F
100
AcDbEntity
  8
0
  6
Continuous
 62
     7
370
    15
100
AcDbLine
 10
225.1965785579
 20
43.339228005
 30
0.0
 11
220.8717122993
 21
45.8359201525
 31
0.0
  0
SPLINE
  5
22A
330
1F
100
AcDbEntity
  8
0
  6
Continuous
 62
     7
370
    15
100
AcDbSpline
210
0.0
220
0.0
230
1.0
 70
     8
 71
     3
 72
    11
 73
     7
 74
     0
 42
0.000000001
 43
0.00000001
 40
0.0
 40
0.0
 40
0.0
 40
0.0
 40
0.0763291486410529
 40
0.4828240100964536
 40
0.8892344489868813
 40
1.0
 40
1.0
 40
1.0
 40
1.0
 10
224.7680722435194
 20
40.52318880676867
 30
0.0
 10
224.7676368641893
 20
40.60142794578825
 30
0.0
 10
224.7648828495335
 20
41.09633369962511
 30
0.0
 10
224.7201871923195
 20
42.02931974212244
 30
0.0
 10
224.6821120777578
 20
42.9948035504021
 30
0.0
 10
224.6941300968939
 20
43.51614231283727
 30
0.0
 10
224.6967040418134
 20
43.62779942069412
 30
0.0
  0
LINE
  5
22B
330
1F
100
AcDbEntity
  8
0
  6
Continuous
 62
     7
370
    15
100
AcDbLine
 10
224.7680722435
 20
38.7473881777
 30
0.0
 11
224.7680722435
 21
40.5231888068
 31
0.0
  0
LINE
  5
22C
330
1F
100
AcDbEntity
  8
0
  6
Continuous
 62
     7
370
    15
100
AcDbLine
 10
223.8399945932
 20
43.936014554
 30
0.0
 11
223.8410356205
 21
44.121766286
 31
0.0
  0
ARC
  5
22D
330
1F
100
AcDbEntity
  8
0
  6
Continuous
 62
     7
370
    15
100
AcDbCircle
 10
235.7758477945
 20
43.6704248895
 30
0.0
 40
11.93880770898443
100
AcDbArc
 50
178.7252979842
 51
202.7773427363
  0
LINE
  5
22E
330
1F
100
AcDbEntity
  8
0
  6
Continuous
 62
     7
370
    15
100
AcDbLine
 10
195.2223417925
 20
63.0392507162
 30
0.0
 11
195.1695167438
 21
63.0847633324
 31
0.0
  0
LWPOLYLINE
  5
22F
330
1F
100
AcDbEntity
  8
0
  6
Continuous
 62
     7
370
    15
100
AcDbPolyline
 90
       10
 70
   128
 43
0.0
 10
232.1776402413
 20
25.1738966735
 10
231.6877649195
 20
25.2678158891
 10
230.4710645903
 20
25.6275526652
 10
229.3381777487
 20
26.1528317327
 10
228.2975379554
 20
26.8397427513
 10
227.3568920556
 20
27.6831721425
 10
226.5232425091
 20
28.6768411566
 10
225.8027952613
 20
29.8133526133
 10
225.200913545
 20
31.0842459691
 10
224.7220779542
 20
32.4800603
  0
SPLINE
  5
230
330
1F
100
AcDbEntity
  8
0
  6
Continuous
 62
     7
370
    15
100
AcDbSpline
210
0.0
220
0.0
230
1.0
 70
     8
 71
     3
 72
     8
 73
     4
 74
     0
 42
0.000000001
 43
0.00000001
 40
0.0
 40
0.0
 40
0.0
 40
0.0
 40
0.0012417047560385
 40
0.0012417047560385
 40
0.0012417047560385
 40
0.0012417047560385
 10
225.1965785578602
 20
32.84667857226369
 30
0.0
 10
225.0385184003502
 20
32.72427536725954
 30
0.0
 10
224.8803490946709
 20
32.60207313728877
 30
0.0
 10
224.7220779542106
 20
32.48006029997801
 30
0.0
  0
SPLINE
  5
231
330
1F
100
AcDbEntity
  8
0
  6
Continuous
 62
     7
370
    15
100
AcDbSpline
210
0.0
220
0.0
230
1.0
 70
     8
 71
     3
 72
     8
 73
     4
 74
     0
 42
0.000000001
 43
0.00000001
 40
0.0
 40
0.0
 40
0.0
 40
0.0
 40
1.0
 40
1.0
 40
1.0
 40
1.0
 10
225.1965785578602
 20
32.84667857226369
 30
0.0
 10
226.3678111425359
 20
33.03895820259169
 30
0.0
 10
227.5384305171283
 20
33.23254586980194
 30
0.0
 10
228.7080397023109
 20
33.42809916147262
 30
0.0
  0
SPLINE
  5
232
330
1F
100
AcDbEntity
  8
0
  6
Continuous
 62
     7
370
    15
100
AcDbSpline
210
0.0
220
0.0
230
1.0
 70
     8
 71
     3
 72
    10
 73
     6
 74
     0
 42
0.000000001
 43
0.00000001
 40
0.0
 40
0.0
 40
0.0
 40
0.0
 40
0.5
 40
0.5
 40
1.0
 40
1.0
 40
1.0
 40
1.0
 10
228.7080397023109
 20
33.42809916147262
 30
0.0
 10
228.7498055633253
 20
33.43508222188656
 30
0.0
 10
228.7937028491394
 20
33.43837231289494
 30
0.0
 10
228.8813302319293
 20
33.4367093384659
 30
0.0
 10
228.92383552899
 20
33.43191723191515
 30
0.0
 10
228.9649167306891
 20
33.42298268637814
 30
0.0
  0
LINE
  5
233
330
1F
100
AcDbEntity
  8
0
  6
Continuous
 62
     7
370
    15
100
AcDbLine
 10
220.8717122993
 20
35.3433707197
 30
0.0
 11
225.1965785579
 21
32.8466785723
 31
0.0
  0
LINE
  5
234
330
1F
100
AcDbEntity
  8
0
  6
Continuous
 62
     7
370
    15
100
AcDbLine
 10
220.8717122993
 20
35.3433707197
 30
0.0
 11
224.4145188529
 21
37.3885894094
 31
0.0
  0
LINE
  5
235
330
1F
100
AcDbEntity
  8
0
  6
Continuous
 62
     7
370
    15
100
AcDbLine
 10
220.4376451992
 20
35.0927483867
 30
0.0
 11
220.8717122993
 21
35.3433707197
 31
0.0
  0
LINE
  5
236
330
1F
100
AcDbEntity
  8
0
  6
Continuous
 62
     7
370
    15
100
AcDbLine
 10
224.7220779542
 20
32.4800603
 30
0.0
 11
220.594342119
 21
34.8629514764
 31
0.0
  0
SPLINE
  5
237
330
1F
100
AcDbEntity
  8
0
  6
Continuous
 62
     7
370
    15
100
AcDbSpline
210
0.0
220
0.0
230
1.0
 70
     8
 71
     3
 72
     8
 73
     4
 74
     0
 42
0.000000001
 43
0.00000001
 40
0.0
 40
0.0
 40
0.0
 40
0.0
 40
1.0
 40
1.0
 40
1.0
 40
1.0
 10
220.5943421190341
 20
34.86295147636054
 30
0.0
 10
220.5141228898679
 20
34.90926105163115
 30
0.0
 10
220.4597331275806
 20
34.99292389264323
 30
0.0
 10
220.4376451992225
 20
35.0927483867506
 30
0.0
  0
ARC
  5
238
330
1F
100
AcDbEntity
  8
0
  6
Continuous
 62
     7
370
    15
100
AcDbCircle
 10
229.6234504709
 20
36.2883306877
 30
0.0
 40
8.921645768970322
100
AcDbArc
 50
214.8451889641
 51
239.5573983443
  0
ELLIPSE
  5
239
330
1F
100
AcDbEntity
  8
0
  6
Continuous
 62
     7
370
    15
100
AcDbEllipse
 10
224.1216256341
 20
38.3742138775
 30
0.0
 11
-7.507462979106096E-5
 21
1.066811201853405
 31
0.0
210
0.0
220
0.0
230
1.0
 40
0.7174342186
 41
3.534193645557514
 42
5.104989972352362
  0
ELLIPSE
  5
23A
330
1F
100
AcDbEntity
  8
0
  6
Continuous
 62
     7
370
    15
100
AcDbEllipse
 10
224.0609654623
 20
38.3391841218
 30
0.0
 11
0.3250094736511642
 21
1.213179526238669
 31
0.0
210
0.0
220
0.0
230
1.0
 40
0.5176380889
 41
3.61917435134772
 42
5.189970678142623
  0
LWPOLYLINE
  5
23B
330
1F
100
AcDbEntity
  8
0
  6
Continuous
 62
     7
370
    15
100
AcDbPolyline
 90
        9
 70
   128
 43
0.0
 10
272.7205734613
 20
38.0106826661
 10
272.1898270475
 20
37.8033104619
 10
271.788541606
 20
37.5148401878
 10
271.5523731095
 20
37.1709036937
 10
271.5023061651
 20
36.8020612464
 10
271.6427894407
 20
36.4410861159
 10
271.9613403806
 20
36.1200525268
 10
272.429654336
 20
35.8674857223
 10
272.5241438392
 20
35.8320897195
  0
LWPOLYLINE
  5
23C
330
1F
100
AcDbEntity
  8
0
  6
Continuous
 62
     7
370
    15
100
AcDbPolyline
 90
       11
 70
   128
 43
0.0
 10
275.2379859074
 20
36.0558844035
 10
275.3231963027
 20
36.1134503771
 10
275.6455233991
 20
36.4332253838
 10
275.7902576819
 20
36.7936403924
 10
275.744538875
 20
37.1626709476
 10
275.512429295
 20
37.5075270653
 10
275.1145528967
 20
37.797566766
 10
274.5862627441
 20
38.0070187494
 10
273.9744997357
 20
38.1172722877
 10
273.3336216995
 20
38.1185308701
 10
272.7205734613
 20
38.0106826661
  0
LWPOLYLINE
  5
23D
330
1F
100
AcDbEntity
  8
0
  6
Continuous
 62
     7
370
    15
100
AcDbPolyline
 90
       19
 70
   128
 43
0.0
 10
273.0006040523
 20
37.6720539077
 10
272.5765973473
 20
37.4973334918
 10
272.2816763134
 20
37.2494324153
 10
272.1514127799
 20
36.9582512068
 10
272.2015184514
 20
36.6589106174
 10
272.4259498444
 20
36.3875155398
 10
272.7976372207
 20
36.176800226
 10
273.2717495971
 20
36.0521800525
 10
273.791102024
 20
36.0286860514
 10
274.2930529338
 20
36.1091519461
 10
274.7170596388
 20
36.283872362
 10
275.0119806727
 20
36.5317734385
 10
275.1422442062
 20
36.822954647
 10
275.0921385347
 20
37.1222952365
 10
274.8677071417
 20
37.393690314
 10
274.4960197654
 20
37.6044056278
 10
274.0219073889
 20
37.7290258013
 10
273.5025549621
 20
37.7525198024
 10
273.0006040523
 20
37.6720539077
  0
SPLINE
  5
23E
330
1F
100
AcDbEntity
  8
0
  6
Continuous
 62
     7
370
    15
100
AcDbSpline
210
0.0
220
0.0
230
1.0
 70
     8
 71
     3
 72
    11
 73
     7
 74
     0
 42
0.000000001
 43
0.00000001
 40
0.0
 40
0.0
 40
0.0
 40
0.0
 40
0.2164543009645103
 40
0.4403089937225543
 40
0.7518987489759481
 40
1.0
 40
1.0
 40
1.0
 40
1.0
 10
272.4570284075368
 20
37.3160886644531
 30
0.0
 10
272.4493043219237
 20
37.22221734934686
 30
0.0
 10
272.4335920706607
 20
37.03126533726086
 30
0.0
 10
272.4044342616106
 20
36.75378010057186
 30
0.0
 10
272.3731571293242
 20
36.56115197452561
 30
0.0
 10
272.3531415939957
 20
36.50866065850951
 30
0.0
 10
272.3442690566506
 20
36.48539217460423
 30
0.0
  0
SPLINE
  5
23F
330
1F
100
AcDbEntity
  8
0
  6
Continuous
 62
     7
370
    15
100
AcDbSpline
210
0.0
220
0.0
230
1.0
 70
     8
 71
     3
 72
     9
 73
     5
 74
     0
 42
0.000000001
 43
0.00000001
 40
0.0
 40
0.0
 40
0.0
 40
0.0
 40
0.6286407157862202
 40
1.0
 40
1.0
 40
1.0
 40
1.0
 10
272.3442690566506
 20
36.48539217460423
 30
0.0
 10
272.4253343569938
 20
36.41417186537178
 30
0.0
 10
272.5542876657877
 20
36.3008793161557
 30
0.0
 10
272.6953477535804
 20
36.22236113679581
 30
0.0
 10
272.7477317268143
 20
36.19320268191095
 30
0.0
  0
SPLINE
  5
240
330
1F
100
AcDbEntity
  8
0
  6
Continuous
 62
     7
370
    15
100
AcDbSpline
210
0.0
220
0.0
230
1.0
 70
     8
 71
     3
 72
     9
 73
     5
 74
     0
 42
0.000000001
 43
0.00000001
 40
0.0
 40
0.0
 40
0.0
 40
0.0
 40
0.3591209267619517
 40
0.9999999999999999
 40
0.9999999999999999
 40
0.9999999999999999
 40
0.9999999999999999
 10
274.5846399079343
 20
36.21175729867408
 30
0.0
 10
274.6159356289035
 20
36.2286477573329
 30
0.0
 10
274.7030809847908
 20
36.2756805460125
 30
0.0
 10
274.7844688188666
 20
36.33477356328445
 30
0.0
 10
274.836628578542
 20
36.37264504142853
 30
0.0
  0
SPLINE
  5
241
330
1F
100
AcDbEntity
  8
0
  6
Continuous
 62
     7
370
    15
100
AcDbSpline
210
0.0
220
0.0
230
1.0
 70
     8
 71
     3
 72
    11
 73
     7
 74
     0
 42
0.000000001
 43
0.00000001
 40
0.0
 40
0.0
 40
0.0
 40
0.0
 40
0.2164543009644964
 40
0.4403089937225281
 40
0.7518987489759505
 40
1.0
 40
1.0
 40
1.0
 40
1.0
 10
274.836628578542
 20
36.37264504142853
 30
0.0
 10
274.8443526641552
 20
36.3925801779497
 30
0.0
 10
274.8600649154183
 20
36.43313201666227
 30
0.0
 10
274.8892227244684
 20
36.58525708615672
 30
0.0
 10
274.9204998567546
 20
36.85346531290116
 30
0.0
 10
274.9405153920831
 20
37.09588230930778
 30
0.0
 10
274.9493879294283
 20
37.20334153127741
 30
0.0
  0
SPLINE
  5
242
330
1F
100
AcDbEntity
  8
0
  6
Continuous
 62
     7
370
    15
100
AcDbSpline
210
0.0
220
0.0
230
1.0
 70
     8
 71
     3
 72
    11
 73
     7
 74
     0
 42
0.000000001
 43
0.00000001
 40
0.0
 40
0.0
 40
0.0
 40
0.0
 40
0.2164543009645149
 40
0.4403089937225486
 40
0.7518987489759561
 40
1.0
 40
1.0
 40
1.0
 40
1.0
 10
274.9493879294283
 20
37.20334153127741
 30
0.0
 10
274.8678858841376
 20
37.19868667923787
 30
0.0
 10
274.7020953066883
 20
37.18921782965474
 30
0.0
 10
274.3944315659139
 20
37.24851764747376
 30
0.0
 10
274.0644054139719
 20
37.41715365769242
 30
0.0
 10
273.8532079792748
 20
37.59585025929517
 30
0.0
 10
273.7595878439256
 20
37.67506334278968
 30
0.0
  0
SPLINE
  5
243
330
1F
100
AcDbEntity
  8
0
  6
Continuous
 62
     7
370
    15
100
AcDbSpline
210
0.0
220
0.0
230
1.0
 70
     8
 71
     3
 72
    11
 73
     7
 74
     0
 42
0.000000001
 43
0.00000001
 40
0.0
 40
0.0
 40
0.0
 40
0.0
 40
0.1285561766307178
 40
0.4801535797842201
 40
0.8150691831753837
 40
1.0
 40
1.0
 40
1.0
 40
1.0
 10
273.7595878439256
 20
37.67506334278968
 30
0.0
 10
273.707129936768
 20
37.63811050962534
 30
0.0
 10
273.5112011796292
 20
37.50009275278124
 30
0.0
 10
273.1437908779432
 20
37.31784315716798
 30
0.0
 10
272.7459630224112
 20
37.27434664288099
 30
0.0
 10
272.5328437312014
 20
37.30513571969334
 30
0.0
 10
272.4570284075368
 20
37.3160886644531
 30
0.0
  0
LINE
  5
244
330
1F
100
AcDbEntity
  8
0
  6
Continuous
 62
     7
370
    15
100
AcDbLine
 10
272.4570284075
 20
36.3944870861
 30
0.0
 11
272.4570284075
 21
37.3160886645
 31
0.0
  0
LINE
  5
245
330
1F
100
AcDbEntity
  8
0
  6
Continuous
 62
     7
370
    15
100
AcDbLine
 10
273.7595878439
 20
36.0271214996
 30
0.0
 11
273.7595878439
 21
37.6750633428
 31
0.0
  0
LWPOLYLINE
  5
246
330
1F
100
AcDbEntity
  8
0
  6
Continuous
 62
     7
370
    15
100
AcDbPolyline
 90
        6
 70
   128
 43
0.0
 10
276.0656123488
 20
30.1545047606
 10
276.0781278532
 20
30.1111607744
 10
276.1505253739
 20
29.6364552522
 10
276.0903362103
 20
29.2358045782
 10
275.9048200637
 20
28.9575331366
 10
275.6672013165
 20
28.8432598532
  0
LWPOLYLINE
  5
247
330
1F
100
AcDbEntity
  8
0
  6
Continuous
 62
     7
370
    15
100
AcDbPolyline
 90
        3
 70
   128
 43
0.0
 10
279.2662774796
 20
31.1653129517
 10
279.2928016367
 20
30.992544527
 10
279.3127989269
 20
30.7236983988
  0
LWPOLYLINE
  5
248
330
1F
100
AcDbEntity
  8
0
  6
Continuous
 62
     7
370
    15
100
AcDbPolyline
 90
        9
 70
   128
 43
0.0
 10
239.0026551858
 20
60.5391102456
 10
238.5775947452
 20
60.3264546557
 10
238.2550669713
 20
60.0134612825
 10
238.0841737939
 20
59.6477805298
 10
238.09093215
 20
59.2850839772
 10
238.2743131412
 20
58.9805888871
 10
238.606398674
 20
58.7806518767
 10
239.0366317364
 20
58.7157115433
 10
239.3853054151
 20
58.7625564179
  0
LWPOLYLINE
  5
249
330
1F
100
AcDbEntity
  8
0
  6
Continuous
 62
     7
370
    15
100
AcDbPolyline
 90
        6
 70
   128
 43
0.0
 10
240.4360440647
 20
59.9051961363
 10
240.4112362804
 20
60.0496807324
 10
240.2278552891
 20
60.3541758225
 10
239.8957697563
 20
60.5541128329
 10
239.465536694
 20
60.6190531663
 10
239.0026551858
 20
60.5391102456
  0
LINE
  5
24A
330
1F
100
AcDbEntity
  8
0
  6
Continuous
 62
     7
370
    15
100
AcDbLine
 10
238.6274562261
 20
59.1241862538
 30
0.0
 11
239.4270366589
 21
59.0499720105
 31
0.0
  0
LINE
  5
24B
330
1F
100
AcDbEntity
  8
0
  6
Continuous
 62
     7
370
    15
100
AcDbLine
 10
240.0506646479
 20
59.5931681115
 30
0.0
 11
239.4270366589
 21
59.0499720105
 31
0.0
  0
LINE
  5
24C
330
1F
100
AcDbEntity
  8
0
  6
Continuous
 62
     7
370
    15
100
AcDbLine
 10
239.8747122042
 20
60.2105784558
 30
0.0
 11
240.0506646479
 21
59.5931681115
 31
0.0
  0
LINE
  5
24D
330
1F
100
AcDbEntity
  8
0
  6
Continuous
 62
     7
370
    15
100
AcDbLine
 10
239.8747122042
 20
60.2105784558
 30
0.0
 11
239.0751317715
 21
60.2847926992
 31
0.0
  0
LINE
  5
24E
330
1F
100
AcDbEntity
  8
0
  6
Continuous
 62
     7
370
    15
100
AcDbLine
 10
238.4515037824
 20
59.7415965982
 30
0.0
 11
239.0751317715
 21
60.2847926992
 31
0.0
  0
LINE
  5
24F
330
1F
100
AcDbEntity
  8
0
  6
Continuous
 62
     7
370
    15
100
AcDbLine
 10
238.4515037824
 20
59.7415965982
 30
0.0
 11
238.6274562261
 21
59.1241862538
 31
0.0
  0
LINE
  5
250
330
1F
100
AcDbEntity
  8
0
  6
Continuous
 62
     7
370
    15
100
AcDbLine
 10
238.691687409
 20
59.1182245414
 30
0.0
 11
238.4515037824
 21
59.7415965982
 31
0.0
  0
LINE
  5
251
330
1F
100
AcDbEntity
  8
0
  6
Continuous
 62
     7
370
    15
100
AcDbLine
 10
240.0463515689
 20
59.5894113081
 30
0.0
 11
239.3169765341
 21
59.6571093334
 31
0.0
  0
LINE
  5
252
330
1F
100
AcDbEntity
  8
0
  6
Continuous
 62
     7
370
    15
100
AcDbLine
 10
238.6976616241
 20
59.1176700357
 30
0.0
 11
239.3169765341
 21
59.6571093334
 31
0.0
  0
LINE
  5
253
330
1F
100
AcDbEntity
  8
0
  6
Continuous
 62
     7
370
    15
100
AcDbLine
 10
239.3169765341
 20
59.6571093334
 30
0.0
 11
239.0751317715
 21
60.2847926992
 31
0.0
  0
LWPOLYLINE
  5
254
330
1F
100
AcDbEntity
  8
0
  6
Continuous
 62
     7
370
     0
100
AcDbPolyline
 90
        7
 70
   128
 43
0.0
 10
243.6124679621
 20
38.6140541751
 10
243.6755596485
 20
37.5621338427
 10
243.8637088347
 20
36.6018291642
 10
244.1735579943
 20
35.7502767991
 10
244.5995778616
 20
35.0226727196
 10
245.134166102
 20
34.4320010377
 10
245.6839421108
 20
34.0356061104
  0
LWPOLYLINE
  5
255
330
1F
100
AcDbEntity
  8
0
  6
Continuous
 62
     7
370
     0
100
AcDbPolyline
 90
       19
 70
   128
 43
0.0
 10
255.6831294372
 20
51.356583358
 10
255.2488140936
 20
51.567105656
 10
254.4883525816
 20
51.7751281203
 10
253.6599940235
 20
51.8211350187
 10
252.7785204974
 20
51.7043053571
 10
251.8596619194
 20
51.4267239634
 10
250.9198153424
 20
50.9933442844
 10
249.9757523509
 20
50.4118999906
 10
249.0443197713
 20
49.6927669692
 10
248.1421390402
 20
48.8487781659
 10
247.2853095939
 20
47.8949945811
 10
246.4891215744
 20
46.8484365054
 10
245.7677829756
 20
45.7277797924
 10
245.134166102
 20
44.5530225877
 10
244.5995778616
 20
43.3451284614
 10
244.1735579943
 20
42.1256523129
 10
243.8637088347
 20
40.916355723
 10
243.6755596485
 20
39.7388186178
 10
243.6124679621
 20
38.6140541751
  0
LWPOLYLINE
  5
256
330
1F
100
AcDbEntity
  8
0
  6
Continuous
 62
     7
370
     0
100
AcDbPolyline
 90
       37
 70
   128
 43
0.0
 10
277.9071468497
 20
31.8794834529
 10
277.1704200259
 20
31.3797495722
 10
276.4560782738
 20
30.7463387763
 10
275.7858265061
 20
29.9984969318
 10
275.1800299837
 20
29.1589468345
 10
274.6570955272
 20
28.2531977895
 10
274.2329122355
 20
27.3087705232
 10
273.9203687034
 20
26.35436098
 10
273.7289614078
 20
25.418968411
 10
273.6645061626
 20
24.5310142461
 10
273.7289614078
 20
23.7174785233
 10
273.9203687034
 20
23.0030801138
 10
274.2329122355
 20
22.4095256518
 10
274.6570955272
 20
21.9548499893
 10
275.1800299837
 20
21.6528682162
 10
275.7858265061
 20
21.5127558959
 10
276.4560782738
 20
21.5387702703
 10
277.1704200259
 20
21.7301209059
 10
277.9071468497
 20
22.0809937103
 10
278.6438736735
 20
22.580727591
 10
279.3582154256
 20
23.2141383868
 10
280.0284671932
 20
23.9619802314
 10
280.6342637157
 20
24.8015303286
 10
281.1571981722
 20
25.7072793736
 10
281.5813814639
 20
26.65170664
 10
281.893924996
 20
27.6061161832
 10
282.0853322916
 20
28.5415087522
 10
282.1497875368
 20
29.429462917
 10
282.0853322916
 20
30.2429986399
 10
281.893924996
 20
30.9573970493
 10
281.5813814639
 20
31.5509515113
 10
281.1571981722
 20
32.0056271738
 10
280.6342637157
 20
32.3076089469
 10
280.0284671932
 20
32.4477212672
 10
279.3582154256
 20
32.4217068928
 10
278.6438736735
 20
32.2303562573
 10
277.9071468497
 20
31.8794834529
  0
LWPOLYLINE
  5
257
330
1F
100
AcDbEntity
  8
0
  6
Continuous
 62
     7
370
     0
100
AcDbPolyline
 90
       19
 70
   128
 43
0.0
 10
274.8038169443
 20
22.4210718664
 10
275.2676453013
 20
22.2314161638
 10
275.8661817211
 20
22.1639903681
 10
276.5189529426
 20
22.25792276
 10
277.2049783616
 20
22.510194275
 10
277.9022085566
 20
22.9126966991
 10
278.5882339756
 20
23.4524932732
 10
279.2410051971
 20
24.1122344913
 10
279.8395416169
 20
24.8707157277
 10
280.364605782
 20
25.7035587715
 10
280.7993216982
 20
26.583995362
 10
281.1297172381
 20
27.4837275427
 10
281.3451732174
 20
28.373837181
 10
281.4387647035
 20
29.2257154208
 10
281.4074835891
 20
30.0119821945
 10
281.2523352749
 20
30.7073662411
 10
280.9783063554
 20
31.2895173451
 10
280.5942043456
 20
31.7397246911
 10
280.3033699738
 20
31.9476093526
  0
LWPOLYLINE
  5
258
330
1F
100
AcDbEntity
  8
0
  6
Continuous
 62
     7
370
     0
100
AcDbPolyline
 90
       43
 70
   128
 43
0.0
 10
232.2987594632
 20
33.3074014482
 10
232.36116979
 20
35.0399938744
 10
232.5479511028
 20
36.8321603621
 10
232.8577576379
 20
38.6709883107
 10
233.2883572321
 20
40.5432289227
 10
233.8366474055
 20
42.4353926615
 10
234.4986777148
 20
44.3338464441
 10
235.2696782164
 20
46.2249118675
 10
236.1440938341
 20
48.0949637619
 10
237.1156243832
 20
49.9305283607
 10
238.1772699641
 20
51.7183803787
 10
239.3213813958
 20
53.4456383013
 10
240.5397153293
 20
55.0998571956
 10
241.8234936408
 20
56.6691183764
 10
243.163466678
 20
58.1421152811
 10
244.5499799045
 20
59.5082349331
 10
245.9730434607
 20
60.7576344092
 10
247.4224041412
 20
61.8813117573
 10
248.887619269
 20
62.8711708566
 10
250.3581319355
 20
63.7200797494
 10
251.8233470633
 20
64.4219220278
 10
253.2727077437
 20
64.9716409021
 10
254.6957713
 20
65.3652756352
 10
256.0822845265
 20
65.5999900797
 10
257.4222575637
 20
65.6740931128
 10
258.7060358751
 20
65.5870508205
 10
259.9243698087
 20
65.3394903443
 10
261.0684812404
 20
64.9331953633
 10
262.1301268212
 20
64.371093242
 10
263.1016573704
 20
63.6572339392
 10
263.9760729881
 20
62.7967608275
 10
264.7470734897
 20
61.7958736353
 10
265.4091037989
 20
60.6617837778
 10
265.9573939723
 20
59.4026623984
 10
266.3879935665
 20
58.0275814956
 10
266.6978001016
 20
56.5464485587
 10
266.8845814144
 20
54.9699351844
 10
266.9469917413
 20
53.3094001879
 10
266.8845814144
 20
51.5768077617
 10
266.6978001016
 20
49.784641274
 10
266.3879935665
 20
47.9458133254
 10
265.9573939723
 20
46.0735727134
 10
265.8065126386
 20
45.5124786311
  0
LWPOLYLINE
  5
259
330
1F
100
AcDbEntity
  8
0
  6
Continuous
 62
     7
370
     0
100
AcDbPolyline
 90
       24
 70
   128
 43
0.0
 10
255.8073253122
 20
28.1915013835
 10
254.6957713
 20
27.1085667029
 10
253.2727077437
 20
25.8591672269
 10
251.8233470633
 20
24.7354898787
 10
250.3581319355
 20
23.7456307795
 10
248.887619269
 20
22.8967218866
 10
247.4224041412
 20
22.1948796082
 10
245.9730434607
 20
21.645160734
 10
244.5499799045
 20
21.2515260009
 10
243.163466678
 20
21.0168115563
 10
241.8234936408
 20
20.9427085232
 10
240.5397153293
 20
21.0297508156
 10
239.3213813958
 20
21.2773112917
 10
238.1772699641
 20
21.6836062728
 10
237.1156243832
 20
22.245708394
 10
236.1440938341
 20
22.9595676968
 10
235.2696782164
 20
23.8200408086
 10
234.4986777148
 20
24.8209280008
 10
233.8366474055
 20
25.9550178583
 10
233.2883572321
 20
27.2141392376
 10
232.8577576379
 20
28.5892201405
 10
232.5479511028
 20
30.0703530774
 10
232.36116979
 20
31.6468664516
 10
232.2987594632
 20
33.3074014482
  0
LWPOLYLINE
  5
25A
330
1F
100
AcDbEntity
  8
0
  6
Continuous
 62
     7
370
     0
100
AcDbPolyline
 90
       27
 70
   128
 43
0.0
 10
231.591652682
 20
33.3074014482
 10
231.6536507572
 20
35.0513515285
 10
231.8392101107
 20
36.8546505059
 10
232.1470291772
 20
38.7046495338
 10
232.574948827
 20
40.5883721983
 10
233.1199675111
 20
42.4926055383
 10
233.7782623152
 20
44.4039927251
 10
234.5452157741
 20
46.3091267509
 10
235.4154482605
 20
48.1946444694
 10
236.3828557186
 20
50.0473203286
 10
237.4406524802
 20
51.8541591383
 10
238.5814188612
 20
53.6024872227
 10
239.7971532049
 20
55.2800413163
 10
241.0793280084
 20
56.8750545824
 10
242.4189497367
 20
58.3763391492
 10
243.806621906
 20
59.7733645839
 10
245.232610993
 20
61.0563317569
 10
246.6869147088
 20
62.2162415754
 10
248.1593321578
 20
63.2449581052
 10
249.6395353895
 20
64.1352656392
 10
251.1171418417
 20
64.8809193096
 10
252.5817871669
 20
65.4766888918
 10
254.0231979304
 20
65.91839549
 10
255.4312636715
 20
66.20294085
 10
256.7961078205
 20
66.3283290904
 10
258.1081569765
 20
66.2936807029
 10
258.2785600352
 20
66.2769744349
  0
ARC
  5
25B
330
1F
100
AcDbEntity
  8
0
  6
Continuous
 62
     7
370
     0
100
AcDbCircle
 10
246.984818204
 20
32.7014586377
 30
0.0
 40
15.40508719477982
100
AcDbArc
 50
177.7457495802
 51
212.5890690703
  0
LWPOLYLINE
  5
25C
330
1F
100
AcDbEntity
  8
0
  6
Continuous
 62
     7
370
     0
100
AcDbPolyline
 90
       24
 70
   128
 43
0.0
 10
241.4911476186
 20
38.6140541751
 10
241.5552687226
 20
39.8279770538
 10
241.7466208064
 20
41.0967882944
 10
242.0621861334
 20
42.4004779857
 10
242.4969880499
 20
43.7184861624
 10
243.0441694698
 20
45.0300270483
 10
243.6951010154
 20
46.31441686
 10
244.4395171073
 20
47.5514000031
 10
245.2656778591
 20
48.7214685144
 10
246.1605542222
 20
49.8061697144
 10
247.1100334616
 20
50.7883972175
 10
248.0991417228
 20
51.6526607089
 10
249.1122801775
 20
52.3853302373
 10
250.133471027
 20
52.9748511664
 10
251.1466094817
 20
53.4119263991
 10
252.1357177428
 20
53.6896629978
 10
253.0851969823
 20
53.8036808905
 10
253.9800733453
 20
53.7521819468
 10
254.8062340971
 20
53.535978336
 10
255.550650189
 20
53.158479718
 10
256.2015817346
 20
52.6256394716
 10
256.7487631546
 20
51.9458608058
 10
257.1835650711
 20
51.1298642362
 10
257.4621541745
 20
50.3295742376
  0
LWPOLYLINE
  5
25D
330
1F
100
AcDbEntity
  8
0
  6
Continuous
 62
     7
370
     0
100
AcDbPolyline
 90
       12
 70
   128
 43
0.0
 10
247.4629668482
 20
33.00859699
 10
247.1100334616
 20
32.9271386383
 10
246.1605542222
 20
32.8131207456
 10
245.2656778591
 20
32.8646196893
 10
244.4395171073
 20
33.0808233001
 10
243.6951010154
 20
33.4583219181
 10
243.0441694698
 20
33.9911621645
 10
242.4969880499
 20
34.6709408303
 10
242.0621861334
 20
35.4869373999
 10
241.7466208064
 20
36.4262831198
 10
241.5552687226
 20
37.4741639471
 10
241.4911476186
 20
38.6140541751
  0
LWPOLYLINE
  5
25E
330
1F
100
AcDbEntity
  8
0
  6
Continuous
 62
     7
370
     0
100
AcDbPolyline
 90
       21
 70
   128
 43
0.0
 10
228.7080397023
 20
43.9206485942
 10
229.1776852141
 20
45.6800765247
 10
229.7618537029
 20
47.4505323277
 10
230.4557670216
 20
49.2175347384
 10
231.2537493761
 20
50.966630739
 10
232.1492737502
 20
52.6835137749
 10
233.1350152925
 20
54.3541407746
 10
234.2029112296
 20
55.964847013
 10
235.3442268143
 20
57.5024578807
 10
236.5496267709
 20
58.9543966448
 10
237.8092516519
 20
60.3087873185
 10
239.1127984827
 20
61.5545517999
 10
240.4496050335
 20
62.681500484
 10
241.8087370297
 20
63.6804156077
 10
243.1790775884
 20
64.5431266455
 10
244.549418147
 20
65.2625771395
 10
245.9085501433
 20
65.8328824168
 10
247.245356694
 20
66.249377723
 10
248.5489035248
 20
66.5086563768
 10
249.8085284059
 20
66.6085976344
 10
249.9650462694
 20
66.6098312098
  0
LWPOLYLINE
  5
25F
330
1F
100
AcDbEntity
  8
0
  6
Continuous
 62
     7
370
     0
100
AcDbPolyline
 90
       22
 70
   128
 43
0.0
 10
220.594342119
 20
45.9960946023
 10
221.0731777098
 20
47.9447607385
 10
221.6750594261
 20
49.9105719322
 10
222.3955066739
 20
51.8788940756
 10
223.2291562204
 20
53.8350743685
 10
224.1698021202
 20
55.7645503984
 10
225.2104419135
 20
57.6529585478
 10
226.3433287551
 20
59.486240921
 10
227.5600290844
 20
61.2507499957
 10
228.8514854068
 20
62.9333502196
 10
230.2080837212
 20
64.521515795
 10
231.6197250893
 20
66.0034239251
 10
233.0759008151
 20
67.3680428265
 10
234.5657706753
 20
68.6052138529
 10
236.0782436167
 20
69.70572712
 10
237.6020603221
 20
70.6613900657
 10
239.1258770274
 20
71.4650884389
 10
240.6383499688
 20
72.1108392597
 10
242.128219829
 20
72.593835359
 10
243.5843955548
 20
72.9104811641
 10
244.9960369229
 20
73.0584194653
 10
246.3342432147
 20
73.0380142093
  0
LWPOLYLINE
  5
260
330
1F
100
AcDbEntity
  8
0
  6
Continuous
 62
     7
370
     0
100
AcDbPolyline
 90
       19
 70
   128
 43
0.0
 10
229.1008460779
 20
43.8630021373
 10
229.5880902953
 20
45.6673550965
 10
230.1964875485
 20
47.4823870594
 10
230.920710466
 20
49.2922048744
 10
231.7544174598
 20
51.080961047
 10
232.6903082555
 20
52.8329925072
 10
233.7201878159
 20
54.5329577611
 10
234.8350381005
 20
56.1659712277
 10
236.0250970307
 20
57.7177335826
 10
237.2799439706
 20
59.1746569692
 10
238.5885909747
 20
60.5239839788
 10
239.9395790022
 20
61.7538993602
 10
241.3210782573
 20
62.8536334785
 10
242.7209917755
 20
63.8135566185
 10
244.1270613498
 20
64.625263306
 10
245.526974868
 20
65.2816459102
 10
246.9084741231
 20
65.7769568803
 10
248.2594621506
 20
66.1068590738
 10
249.0325530118
 20
66.2221372755
  0
LINE
  5
261
330
1F
100
AcDbEntity
  8
0
  6
Continuous
 62
     7
370
     0
100
AcDbLine
 10
228.9649167307
 20
33.4229826864
 30
0.0
 11
230.124406111
 21
34.0923416579
 31
0.0
  0
LINE
  5
262
330
1F
100
AcDbEntity
  8
0
  6
Continuous
 62
     7
370
     0
100
AcDbLine
 10
230.5097381812
 20
33.888798386
 30
0.0
 11
230.124406111
 21
34.0923416579
 31
0.0
  0
ARC
  5
263
330
1F
100
AcDbEntity
  8
0
  6
Continuous
 62
     7
370
     0
100
AcDbCircle
 10
229.3992596501
 20
35.2682622112
 30
0.0
 40
1.381530505408925
100
AcDbArc
 50
301.6605905892
 51
324.2377952694
  0
LINE
  5
264
330
1F
100
AcDbEntity
  8
0
  6
Continuous
 62
     7
370
     0
100
AcDbLine
 10
224.8287324153
 20
38.7824179334
 30
0.0
 11
230.4037354825
 21
35.5640371679
 31
0.0
  0
LINE
  5
265
330
1F
100
AcDbEntity
  8
0
  6
Continuous
 62
     7
370
     0
100
AcDbLine
 10
224.7680722435
 20
38.7473881777
 30
0.0
 11
224.8287324153
 21
38.7824179334
 31
0.0
  0
LINE
  5
266
330
1F
100
AcDbEntity
  8
0
  6
Continuous
 62
     7
370
     0
100
AcDbLine
 10
224.5471013744
 20
43.5278104981
 30
0.0
 11
224.5481424017
 21
43.71356223
 31
0.0
  0
LWPOLYLINE
  5
267
330
1F
100
AcDbEntity
  8
0
  6
Continuous
 62
     7
370
     0
100
AcDbPolyline
 90
        3
 70
   128
 43
0.0
 10
224.6818815865
 20
41.5046065193
 10
224.6104542107
 20
42.1218399984
 10
224.5471013744
 20
43.5278104981
  0
LWPOLYLINE
  5
268
330
1F
100
AcDbEntity
  8
0
  6
Continuous
 62
     7
370
     0
100
AcDbPolyline
 90
       18
 70
   128
 43
0.0
 10
193.6138816907
 20
67.3434290893
 10
193.6780104272
 20
68.4866815003
 10
193.8692522576
 20
69.6835740079
 10
194.184194467
 20
70.912748037
 10
194.6172169043
 20
72.1522689481
 10
195.1605922738
 20
73.3800174609
 10
195.8046240291
 20
74.5740843744
 10
196.5378194083
 20
75.713161536
 10
197.3470945225
 20
76.7769220869
 10
198.2180078381
 20
77.7463831948
 10
199.1350178864
 20
78.6042448032
 10
200.0817606012
 20
79.3351983516
 10
201.0413413366
 20
79.9261999564
 10
201.9966363514
 20
80.3667031801
 10
202.9305983836
 20
80.6488472321
 10
203.8265608585
 20
80.7675972452
 10
204.6685353045
 20
80.7208341226
 10
205.3316964679
 20
80.5510640871
  0
ARC
  5
269
330
1F
100
AcDbEntity
  8
0
  6
Continuous
 62
     7
370
     0
100
AcDbCircle
 10
199.0002016724
 20
66.8975220466
 30
0.0
 40
5.404745695693876
100
AcDbArc
 50
175.2675545005
 51
224.8656241104
  0
LWPOLYLINE
  5
26A
330
1F
100
AcDbEntity
  8
0
  6
Continuous
 62
     7
370
     0
100
AcDbPolyline
 90
        3
 70
   128
 43
0.0
 10
229.7737716972
 20
31.7536524269
 10
229.5880902953
 20
32.1318533141
 10
229.1008460779
 20
33.3736460744
  0
LWPOLYLINE
  5
26B
330
1F
100
AcDbEntity
  8
0
  6
Continuous
 62
     7
370
     0
100
AcDbPolyline
 90
        3
 70
   128
 43
0.0
 10
229.6880847435
 20
31.2360122795
 10
229.1776852141
 20
32.210912397
 10
228.7080397023
 20
33.4280991615
  0
LINE
  5
26C
330
1F
100
AcDbEntity
  8
0
  6
Continuous
 62
     7
370
     0
100
AcDbLine
 10
230.124406111
 20
34.0923416579
 30
0.0
 11
224.4145188529
 21
37.3885894094
 31
0.0
  0
ARC
  5
26D
330
1F
100
AcDbEntity
  8
0
  6
Continuous
 62
     7
370
     0
100
AcDbCircle
 10
232.2628478685
 20
38.0546623133
 30
0.0
 40
12.09715026325425
100
AcDbArc
 50
195.2980304775
 51
214.568481162
  0
LWPOLYLINE
  5
26E
330
1F
100
AcDbEntity
  8
0
  6
Continuous
 62
     7
370
     0
100
AcDbPolyline
 90
        7
 70
   128
 43
0.0
 10
275.926771058
 20
29.9880756715
 10
275.9495262698
 20
29.8709970765
 10
275.9554739644
 20
29.4445390946
 10
275.8286863374
 20
29.1207924088
 10
275.5862867603
 20
28.9434808029
 10
275.2610126392
 20
28.9365511919
 10
275.1809552311
 20
28.9589683946
  0
OLE2FRAME
  5
26F
330
1F
100
AcDbEntity
  8
0
100
AcDbOle2Frame
 70
     2
  3
Paintbrush-Bild
 10
13.8511154363
 20
38.264191557
 30
0.0
 11
51.6290888628
 21
31.9806341108
 31
0.0
 71
     2
 72
     0
 73
     1
 90
    12928
310
80552BED0767C5B32B40DDAF6807D121434000000000000000006FFBDDFB85D0
310
4940DDAF6807D121434000000000000000006FFBDDFB85D04940416F4BD60AFB
310
3F4000000000000000002BED0767C5B32B40416F4BD60AFB3F40000000000000
310
0000000000000100000000010000010000000100000000000100000000320000
310
D0CF11E0A1B11AE1000000000000000000000000000000003E000300FEFF0900
310
0600000000000000000000000100000001000000000000000010000002000000
310
01000000FEFFFFFF0000000000000000FFFFFFFFFFFFFFFFFFFFFFFFFFFFFFFF
310
FFFFFFFFFFFFFFFFFFFFFFFFFFFFFFFFFFFFFFFFFFFFFFFFFFFFFFFFFFFFFFFF
310
FFFFFFFFFFFFFFFFFFFFFFFFFFFFFFFFFFFFFFFFFFFFFFFFFFFFFFFFFFFFFFFF
310
FFFFFFFFFFFFFFFFFFFFFFFFFFFFFFFFFFFFFFFFFFFFFFFFFFFFFFFFFFFFFFFF
310
FFFFFFFFFFFFFFFFFFFFFFFFFFFFFFFFFFFFFFFFFFFFFFFFFFFFFFFFFFFFFFFF
310
FFFFFFFFFFFFFFFFFFFFFFFFFFFFFFFFFFFFFFFFFFFFFFFFFFFFFFFFFFFFFFFF
310
FFFFFFFFFFFFFFFFFFFFFFFFFFFFFFFFFFFFFFFFFFFFFFFFFFFFFFFFFFFFFFFF
310
FFFFFFFFFFFFFFFFFFFFFFFFFFFFFFFFFFFFFFFFFFFFFFFFFFFFFFFFFFFFFFFF
310
FFFFFFFFFFFFFFFFFFFFFFFFFFFFFFFFFFFFFFFFFFFFFFFFFFFFFFFFFFFFFFFF
310
FFFFFFFFFFFFFFFFFFFFFFFFFFFFFFFFFFFFFFFFFFFFFFFFFFFFFFFFFFFFFFFF
310
FFFFFFFFFFFFFFFFFFFFFFFFFFFFFFFFFFFFFFFFFFFFFFFFFFFFFFFFFFFFFFFF
310
FFFFFFFFFFFFFFFFFFFFFFFFFFFFFFFFFFFFFFFFFFFFFFFFFFFFFFFFFFFFFFFF
310
FFFFFFFFFFFFFFFFFFFFFFFFFFFFFFFFFFFFFFFFFFFFFFFFFFFFFFFFFFFFFFFF
310
FFFFFFFFFFFFFFFFFFFFFFFFFFFFFFFFFFFFFFFFFFFFFFFFFFFFFFFFFFFFFFFF
310
FDFFFFFFFEFFFFFFFEFFFFFFFEFFFFFF05000000060000000700000008000000
310
090000000A0000000B0000000C0000000D0000000E0000000F00000010000000
310
11000000120000001300000014000000150000001600000017000000FEFFFFFF
310
FFFFFFFFFFFFFFFFFFFFFFFFFFFFFFFFFFFFFFFFFFFFFFFFFFFFFFFFFFFFFFFF
310
FFFFFFFFFFFFFFFFFFFFFFFFFFFFFFFFFFFFFFFFFFFFFFFFFFFFFFFFFFFFFFFF
310
FFFFFFFFFFFFFFFFFFFFFFFFFFFFFFFFFFFFFFFFFFFFFFFFFFFFFFFFFFFFFFFF
310
FFFFFFFFFFFFFFFFFFFFFFFFFFFFFFFFFFFFFFFFFFFFFFFFFFFFFFFFFFFFFFFF
310
FFFFFFFFFFFFFFFFFFFFFFFFFFFFFFFFFFFFFFFFFFFFFFFFFFFFFFFFFFFFFFFF
310
FFFFFFFFFFFFFFFFFFFFFFFFFFFFFFFFFFFFFFFFFFFFFFFFFFFFFFFFFFFFFFFF
310
FFFFFFFFFFFFFFFFFFFFFFFFFFFFFFFFFFFFFFFFFFFFFFFFFFFFFFFFFFFFFFFF
310
FFFFFFFFFFFFFFFFFFFFFFFFFFFFFFFFFFFFFFFFFFFFFFFFFFFFFFFFFFFFFFFF
310
FFFFFFFFFFFFFFFFFFFFFFFFFFFFFFFFFFFFFFFFFFFFFFFFFFFFFFFFFFFFFFFF
310
FFFFFFFFFFFFFFFFFFFFFFFFFFFFFFFFFFFFFFFFFFFFFFFFFFFFFFFFFFFFFFFF
310
FFFFFFFFFFFFFFFFFFFFFFFFFFFFFFFFFFFFFFFFFFFFFFFFFFFFFFFFFFFFFFFF
310
FFFFFFFFFFFFFFFFFFFFFFFFFFFFFFFFFFFFFFFFFFFFFFFFFFFFFFFFFFFFFFFF
310
FFFFFFFFFFFFFFFFFFFFFFFFFFFFFFFFFFFFFFFFFFFFFFFFFFFFFFFFFFFFFFFF
310
52006F006F007400200045006E00740072007900000000000000000000000000
310
0000000000000000000000000000000000000000000000000000000000000000
310
16000500FFFFFFFFFFFFFFFF020000000A00030000000000C000000000000046
310
000000000000000000000000A0A1F462EA25D20103000000C000000000000000
310
01004F006C006500000000000000000000000000000000000000000000000000
310
0000000000000000000000000000000000000000000000000000000000000000
310
0A000200FFFFFFFFFFFFFFFFFFFFFFFF00000000000000000000000000000000
310
0000000000000000000000000000000000000000000000001400000000000000
310
010043006F006D0070004F0062006A0000000000000000000000000000000000
310
0000000000000000000000000000000000000000000000000000000000000000
310
120002010100000003000000FFFFFFFF00000000000000000000000000000000
310
0000000000000000000000000000000000000000010000004D00000000000000
310
01004F006C006500310030004E00610074006900760065000000000000000000
310
0000000000000000000000000000000000000000000000000000000000000000
310
1A000200FFFFFFFFFFFFFFFFFFFFFFFF00000000000000000000000000000000
310
0000000000000000000000000000000000000000040000002426000000000000
310
FEFFFFFF02000000FEFFFFFFFFFFFFFFFFFFFFFFFFFFFFFFFFFFFFFFFFFFFFFF
310
FFFFFFFFFFFFFFFFFFFFFFFFFFFFFFFFFFFFFFFFFFFFFFFFFFFFFFFFFFFFFFFF
310
FFFFFFFFFFFFFFFFFFFFFFFFFFFFFFFFFFFFFFFFFFFFFFFFFFFFFFFFFFFFFFFF
310
FFFFFFFFFFFFFFFFFFFFFFFFFFFFFFFFFFFFFFFFFFFFFFFFFFFFFFFFFFFFFFFF
310
FFFFFFFFFFFFFFFFFFFFFFFFFFFFFFFFFFFFFFFFFFFFFFFFFFFFFFFFFFFFFFFF
310
FFFFFFFFFFFFFFFFFFFFFFFFFFFFFFFFFFFFFFFFFFFFFFFFFFFFFFFFFFFFFFFF
310
FFFFFFFFFFFFFFFFFFFFFFFFFFFFFFFFFFFFFFFFFFFFFFFFFFFFFFFFFFFFFFFF
310
FFFFFFFFFFFFFFFFFFFFFFFFFFFFFFFFFFFFFFFFFFFFFFFFFFFFFFFFFFFFFFFF
310
FFFFFFFFFFFFFFFFFFFFFFFFFFFFFFFFFFFFFFFFFFFFFFFFFFFFFFFFFFFFFFFF
310
FFFFFFFFFFFFFFFFFFFFFFFFFFFFFFFFFFFFFFFFFFFFFFFFFFFFFFFFFFFFFFFF
310
FFFFFFFFFFFFFFFFFFFFFFFFFFFFFFFFFFFFFFFFFFFFFFFFFFFFFFFFFFFFFFFF
310
FFFFFFFFFFFFFFFFFFFFFFFFFFFFFFFFFFFFFFFFFFFFFFFFFFFFFFFFFFFFFFFF
310
FFFFFFFFFFFFFFFFFFFFFFFFFFFFFFFFFFFFFFFFFFFFFFFFFFFFFFFFFFFFFFFF
310
FFFFFFFFFFFFFFFFFFFFFFFFFFFFFFFFFFFFFFFFFFFFFFFFFFFFFFFFFFFFFFFF
310
FFFFFFFFFFFFFFFFFFFFFFFFFFFFFFFFFFFFFFFFFFFFFFFFFFFFFFFFFFFFFFFF
310
FFFFFFFFFFFFFFFFFFFFFFFFFFFFFFFFFFFFFFFFFFFFFFFFFFFFFFFFFFFFFFFF
310
0100000200000000000000000000000000000000000000000000000000000000
310
0000000000000000000000000000000000000000000000000000000000000000
310
0100FEFF030A0000FFFFFFFF0A00030000000000C00000000000004607000000
310
5042727573680007000000504272757368000700000050427275736800F439B2
310
7100000000000000000000000000000000000000000000000000000000000000
310
0000000000000000000000000000000000000000000000000000000000000000
310
0000000000000000000000000000000000000000000000000000000000000000
310
0000000000000000000000000000000000000000000000000000000000000000
310
0000000000000000000000000000000000000000000000000000000000000000
310
0000000000000000000000000000000000000000000000000000000000000000
310
0000000000000000000000000000000000000000000000000000000000000000
310
0000000000000000000000000000000000000000000000000000000000000000
310
0000000000000000000000000000000000000000000000000000000000000000
310
0000000000000000000000000000000000000000000000000000000000000000
310
0000000000000000000000000000000000000000000000000000000000000000
310
0000000000000000000000000000000000000000000000000000000000000000
310
20260000424D0E260000000000003E00000028000000B40200006E0000000100
310
01000000000000000000130B0000130B00000200000002000000000000FFFFFF
310
FFFFFFFFFFFFFFFFFFFFFFFFFFFFFFFFFFFFFFFFFFFFFFFFFFFFFFFFFFFFFFFF
310
FFFFFFFFFFFFFFFFFFFFFFFFFFFFFFFFFFFFFFFFFFFFFFFFFFFFFFFFFFFFFFFF
310
FFFFFFFFFFFFFFFFFFFFFFFFFFFFFFFFFFFFFFFFFFFFFFFFF000FFFFFFFFFFFF
310
FFFFFFFFFFFFFFFFFFFFFFFFFFFFFFFFFFFFFFFFFFFFFFFFFFFFFFFFFFFFFFFF
310
FFFFFFFFFFFFFFFFFFFFFFFFFFFFFFFFFFFFFFFFFFFFFFFFFFFFFFFFFFFFFFFF
310
FFFFFFFFFFFFFFFFFFFFFFFFFFFFFFFFF000FFFFFFFFFFFFFFFFFFFFFFFFFFFF
310
FFFFFFFFFFFFFFFFFFFFFFFFFFFFFFFFFFFFFFFFFFFFFFFFFFFFFFFFFFFFFFFF
310
FFFFFFFFFFFFFFFFFFFFFFFFFFFFFFFFFFFFFFFFFFFFFFFFFFFFFFFFFFFFFFFF
310
FFFFFFFFFFFFFFFFF000FFFFFFFFFFFFFFFFFFFFFFFFFFFFFFFFFFFFFFFFFFFF
310
FFFFFFFFFFFFFFFFFFFFFFFFFFFFFFFFFFFFFFFFFFFFFFFFFFFFFFFFFFFFFFFF
310
FFFFFFFFFFFFFFFFFFFFFFFFFFFFFFFFFFFFFFFFFFFFFFFFFFFFFFFFFFFFFFFF
310
F000FFFFFFFFFFFFFFFFFFFFFFFFFFFFFFFFFFFFFFFFFFFFFFFFFFFFFFFFFFFF
310
FFFFFFFFFFFFFFFFFFFFFFFFFFFFFFFFFFFFFFFFFFFFFFFFFFFFFFFFFFFFFFFF
310
FFFFFFFFFFFFFFFFFFFFFFFFFFFFFFFFFFFFFFFFFFFFFFFFF000FFFFFFFFFFFF
310
FFFFFFFFFFFFFFFFFFFFFFFFFFFFFFFFFFFFFFFFFFFFFFFFFFFFFFFFFFFFFFFF
310
FFFFFFFFFFFFFFFFFFFFFFFFFFFFFFFFFFFFFFFFFFFFFFFFFFFFFFFFFFFFFFFF
310
FFFFFFFFFFFFFFFFFFFFFFFFFFFFFFFFF000FFFFFFFFFFFFFFFFFFFFFFFFFFFF
310
FFFFFFFFFFFFFFFFFFFFFFFFFFFFFFFFFFFFFFFFFFFFFFFFFFFFFFFFFFFFFFFF
310
FFFFFFFFFFFFFFFFFFFFFFFFFFFFFFFFFFFFFFFFFFFFFFFFFFFFFFFFFFFFFFFF
310
FFFFFFFFFFFFFFFFF000FFFFFFFFFFFFFFFFFFFFFFFFFFFFFFFFFFFFFFFFFFFF
310
FFFFFFFFFFFFFFFFFFFFFFFFFFFFFFFFFFFFFFFFFFFFFFFFFFFFFFFFFFFFFFFF
310
FFFFFFFFFFFFFFFFFFFFFFFFFFFFFFFFFFFFFFFFFFFFFFFFFFFFFFFFFFFFFFFF
310
F000FFFFFFFFFFFFFFFFFFFFFFFFFFFFFFFFFFFFFFFFFFFFFFFFFFFFFFFFFFFF
310
FFFFFFFFFFFFFFFFFFFFFFFFFFFFFFFFFFFFFFFFFFFFFFFFFFFFFFFFFFFFFFFF
310
FFFFFFFFFFFFFFFFFFFFFFFFFFFFFFFFFFFFFFFFFFFFFFFFF000FFFFFFFFFFFF
310
FFFFFFFFFFFFFFFFFFFFFFFFFFFFFFFFFFFFFFFFFFFFFFFFFFFFFFFFFFFFFFFF
310
FFFFFFFFFFFFFFFFFFFFFFFFFFFFFFFFFFFFFFFFFFFFFFFFFFFFFFFFFFFFFFFF
310
FFFFFFFFFFFFFFFFFFFFFFFFFFFFFFFFF000FFFFFFFFFFFFFFFFFFFFFFFFFFFF
310
FFFFFFFFFFFFFFFFFFFFFFFFFFFFFFFFFFFFFFFFFFFFFFFFFFFFFFFFFFFFFFFF
310
FFFFFFFFFFFFFFFFFFFFFFFFFFFFFFFFFFFFFFFFFFFFFFFFFFFFFFFFFFFFFFFF
310
FFFFFFFFFFFFFFFFF000FFFFFFFFFFFFFFFFFFFFFFFFFFFFFFFFFFFFFFFFFFFF
310
FFFFFFFFFFFFFFFFFFFFFFFFFFFFFFFFFFFFFFFFFFFFFFFFFFFFFFFFFFFFFFFF
310
FFFFFFFFFFFFFFFFFFFFFFFFFFFFFFFFFFFFFFFFFFFFFFFFFFFFFFFFFFFFFFFF
310
F000FFFFFFFFFFFFFFFFFFFFFFFFFFFFFFFFFFFFFFFFFFFFFFFFFFFFFFFFFFFF
310
FFFFFFFFFFFFFFFFFFFFFFFFFFFFFFFFFFFFFFFFFFFFFFFFFFFFFFFFFFFFFFFF
310
FFFFFFFFFFFFFFFFFFFFFFFFFFFFFFFFFFFFFFFFFFFFFFFFF000FFFFFFFFFFFF
310
FFFFFFFFFFFFFFFFFFFFFFFFFFFFFFFFFFFFFFFFFFFFFFFFFFFFFFFFFFFFFFFF
310
FFFFFFFFFFFFFFFFFFFFFFFFFFFFFFFFFFFFFFFFFFFFFFFFFFFFFFFFFFFFFFFF
310
FFFFFFFFFFFFFFFFFFFFFFFFFFFFFFFFF000FFFFFFFFFFFFFFFFFFFFFFFFFFFF
310
FFFFFFFFFFFFFFFFFFFFFFFFFFFFFFFFFFFFFFFFFFFFFFFFFFFFFFFFFFFFFFFF
310
FFFFFFFFFFFFFFFFFFFFFFFFFFFFFFFFFFFFFFFFFFFFFFFFFFFFFFFFFFFFFFFF
310
FFFFFFFFFFFFFFFFF000FFFFFFFFFFFFFFFFFFFFFFFFFFFFFFFFFFFFFFFFFFFF
310
FFFFFFFFFFFFFFFFFFFFFFFFFFFFFFFFFFFFFFFFFFFFFFFFFFFFFFFFFFFFFFFF
310
FFFFFFFFFFFFFFFFFFFFFFFFFFFFFFFFFFFFFFFFFFFFFFFFFFFFFFFFFFFFFFFF
310
F000FFFFFFFFFFFFFFFFFFFFFFFFFFFFFFFFFFFFFFFFFFFFFFFFFFFFFFFFFFFF
310
FFFFFFFFFFFFFFFFFFFFFFFFFFFFFFFFFFFFFFFFFFFFFFFFFFFFFFFFFFFFFFFF
310
FFFFFFFFFFFFFFFFFFFFFFFFFFFFFFFFFFFFFFFFFFFFFFFFF000FFFFFFFFFFFF
310
FFFFFFFFFFFFFFFFFFFFFFFFFFFFFFFFFFFFFFFFFFFFFFFFFFFFFFFFFFFFFFFF
310
FFFFFFFFFFFFFFFFFFFFFFFFFFFFFFFFFFFFFFFFFFFFFFFFFFFFFFFFFFFFFFFF
310
FFFFFFFFFFFFFFFFFFFFFFFFFFFFFFFFF000FFFFFFFFFFFFFFFFFFFFFFFFFFFF
310
FFFFFFFFFFFFFFFFFFFFFFFFFFFFFFFFFFFFFFFFFFFFFFFFFFFFFFFFFFFFFFFF
310
FFFFFFFFFFFFFFFFFFFFFFFFFFFFFFFFFFFFFFFFFFFFFFFFFFFFFFFFFFFFFFFF
310
FFFFFFFFFFFFFFFFF000FFFFF80003FFFFFFFFFFFFFFFFFFFFFFFFFFFFFFFFFF
310
FFFFF00007FFFFFFFFFF00007FFFFFF800000000000000007FFFFFFFFFFFFFFF
310
FFFFFFFC001FFFFFFFFFFFFFFC001FFFFFFFFFFFFFFFFFFFFFFFFFFE0007FFFF
310
F000FFFF8000007FFFFFFFF8000FFFFFC0007FFFFF80007FFFFF0000007FFFFF
310
FFF8000007FFFFF800000000000000007FFFFFF0001FFFFFFFFFFFC00001FFFF
310
FFFFFFFFC00001FFFFFFFF000000000003FFFFE000007FFFF000FFFE0000000F
310
FFFFFFF0000FFFFF80007FFFFF80007FFFFC0000001FFFFFFFC0000001FFFFF8
310
00000000000000007FFFFFF0001FFFFFFFFFFE0000003FFFFFFFFFFE0000003F
310
FFFFFF000000000003FFFF0000000FFFF000FFF800000003FFFFFFF00007FFFF
310
80007FFFFF80007FFFF000000007FFFFFF000000003FFFF80000000000000000
310
7FFFFFF0001FFFFFFFFFF80000000FFFFFFFFFF80000000FFFFFFF0000000000
310
03FFFC00000003FFF000FFE000000000FFFFFFF00007FFFF80003FFFFF80007F
310
FFC000000001FFFFFC000000001FFFF800000000000000007FFFFFF0001FFFFF
310
FFFFE000000003FFFFFFFFE000000003FFFFFF000000000003FFF000000000FF
310
F000FF80000000007FFFFFF00007FFFF80003FFFFF80007FFF8000000000FFFF
310
F80000000007FFF800000000000000007FFFFFF0001FFFFFFFFFC000000001FF
310
FFFFFFC000000001FFFFFF000000000003FFC0000000007FF000FF0000000000
310
3FFFFFE00007FFFF00003FFFFF80007FFE00000000003FFFF00000000003FFF8
310
00000000000000007FFFFFF0001FFFFFFFFF8000000000FFFFFFFF8000000000
310
FFFFFF000000000003FF80000000003FF000FE00000000001FFFFFE00003FFFF
310
00003FFFFF80007FFC00000000001FFFE00000000001FFF8000001FFFE000000
310
7FFFFFF0001FFFFFFFFE00000000003FFFFFFE00000000003FFFFF0000000000
310
03FF00000000001FF000FC00000000000FFFFFE00003FFFF00001FFFFF80007F
310
F800000000001FFFC00000000000FFF8000001FFFE0000007FFFFFF0001FFFFF
310
FFFC00000000001FFFFFFC00000000001FFFFF000000000003FE00000000000F
310
F000F8000000000007FFFFE00003FFFF00001FFFFF80007FF800000000000FFF
310
800000000000FFF8000001FFFE0000007FFFFFF0001FFFFFFFF800000000000F
310
FFFFF800000000000FFFFF000000000003FC000000000007F000F80000000000
310
03FFFFC00003FFFE00001FFFFF80007FF0000000000007FF0000000000007FF8
310
000001FFFE0000007FFFFFF0001FFFFFFFF0000000000007FFFFF00000000000
310
07FFFF000000000003F8000000000003F000F0000000000003FFFFC00001FFFE
310
00001FFFFF80007FE0000000000007FE0000000000003FF8000001FFFE000000
310
7FFFFFF0001FFFFFFFF0000000000007FFFFF0000000000007FFFF0000000000
310
03F800001F800003F000E00001FFF00001FFFFC00001FFFE00000FFFFF80007F
310
E00001FFE00003FE00001FFF00003FF8000001FFFE0000007FFFFFF0001FFFFF
310
FFE000003E000003FFFFE000003E000003FFFF000000000003F00001FFF80001
310
F000E00007FFFC0001FFFFC00001FFFE00000FFFFF80007FC0000FFFFC0003FC
310
0000FFFFC0001FF8000001FFFE0000007FFFFFF0001FFFFFFFC00003FFE00001
310
FFFFC00003FFE00001FFFF0001FFFFFFFFF00007FFFE0001F000E0000FFFFF00
310
00FFFF800001FFFC00000FFFFF80007FC0001FFFFE0001FC0001FFFFE0001FF8
310
000001FFFE0000007FFFFFF0001FFFFFFF80000FFFF80000FFFF80000FFFF800
310
00FFFF0003FFFFFFFFE0000FFFFF8000F000C0003FFFFF8000FFFF800000FFFC
310
000007FFFF80007F80003FFFFF0001FC0003FFFFF0001FF8000001FFFE000000
310
7FFFFFF0001FFFFFFF80003FFFFE0000FFFF80003FFFFE0000FFFF0003FFFFFF
310
FFE0003FFFFF8000F000C0003FFFFF8000FFFF800000FFFC000007FFFF80007F
310
80007FFFFF8001F80007FFFFF8000FF8000001FFFE0000007FFFFFF0001FFFFF
310
FF00007FFFFF00007FFF00007FFFFF00007FFF0003FFFFFFFFE0003FFFFFC000
310
F000C0007FFFFFC000FFFF000000FFFC000007FFFF80007F8000FFFFFF8000F8
310
000FFFFFF8000FF8000001FFFE0000007FFFFFF0001FFFFFFF0000FFFFFF8000
310
7FFF0000FFFFFF80007FFF0003FFFFFFFFC0007FFFFFC00070008000FFFFFFC0
310
00FFFF000000FFF8000007FFFF80007F8000FFFFFF8000F8000FFFFFF8000FF8
310
000001FFFE0000007FFFFFF0001FFFFFFE0001FFFFFFC0003FFE0001FFFFFFC0
310
003FFF0003FFFFFFFFC0007FFFFFE00070008000FFFFFFC0007FFF0000007FF8
310
000003FFFF80007F0001FFFFFF8000F8000FFFFFF8000FF8000001FFFE000000
310
7FFFFFF0001FFFFFFE0001FFFFFFC0003FFE0001FFFFFFC0003FFF0003FFFFFF
310
FFC000FFFFFFE00070008000FFFFFFC0007FFF0000007FF8000003FFFF80007F
310
0001FFFFFF8000F8001FFFFFF8000FF8000001FFFE0000007FFFFFF0001FFFFF
310
FE0003FFFFFFE0003FFE0003FFFFFFE0003FFF0003FFFFFFFFC000FFFFFFE000
310
70008000FFFFFFC0007FFE0000007FF8000003FFFF80007F0001FFFFFF8000F0
310
001FFFFFF8000FF8000001FFFE0000007FFFFFF0001FFFFFFC0003FFFFFFE000
310
1FFC0003FFFFFFE0001FFF0003FFFFFFFFC000FFFFFFC00070008000FFFFFF80
310
007FFE0000007FF0000003FFFF80007F0001FFFFFF0000F0001FFFFFF8000FF8
310
000001FFFE0000007FFFFFF0001FFFFFFC0007FFFFFFF0001FFC0007FFFFFFF0
310
001FFF0003FFFFFFFFC000FFFFFFC00070008001FFFFFF0000FFFE0000003FF0
310
000001FFFF80007F0001FFFFFF0000F8001FFFFFF0000FF8000001FFFE000000
310
7FFFFFF0001FFFFFFC0007FFFFFFF0001FFC0007FFFFFFF0001FFF0003FFFFFF
310
FFC001FFFFFF80007000FFFFFFFFFE0000FFFE0008003FF0008001FFFF80007F
310
FFFFFFFFFC0000FFFFFFFFFFE0000FF8000001FFFE0000007FFFFFF0001FFFFF
310
F8000FFFFFFFF8000FF8000FFFFFFFF8000FFF0003FFFFFFFFFFFFFFFFFF0000
310
7000FFFFFFFFFC0000FFFC0008003FF0008001FFFF80007FFFFFFFFFF80001FF
310
FFFFFFFF80000FF8000001FFFE0000007FFFFFF0001FFFFFF8000FFFFFFFF800
310
0FF8000FFFFFFFF8000FFF0003FFFFFFFFFFFFFFFFFE0000F000FFFFFFFFE000
310
00FFFC000C003FE000C001FFFF80007FFFFFFFFFC00001FFFFFFFFFE00001FF8
310
000001FFFE0000007FFFFFF0001FFFFFF8000FFFFFFFF8000FF8000FFFFFFFF8
310
000FFF0003FFFFFFFFFFFFFFFFF00000F000FFFFFFFE000001FFFC000C001FE0
310
00C000FFFF80007FFFFFFFFE000001FFFFFFFFE000001FF80FFFFFFFFFFFFFC0
310
7FFFFFF0001FFFFFF8000FFFFFFFF8000FF8000FFFFFFFF8000FFF0003FFFFFF
310
FFFFFFFFFF800000F000FFFFFFC0000001FFFC001C001FE001C000FFFF80007F
310
FFFFFF80000003FFFFFFF80000001FF80FFFFFFFFFFFFFC07FFFFFF0001FFFFF
310
F8001FFFFFFFFC000FF8001FFFFFFFFC000FFF0003FFFFFFFFFFFFFFF0000001
310
F000FFFFF800000001FFF8001C001FE001C000FFFF80007FFFFFF800000003FF
310
FFFF800000003FF80FFFFFFFFFFFFFC07FFFFFF0001FFFFFF8001FFFFFFFFC00
310
0FF8001FFFFFFFFC000FFF0003FFFFFFFFFFFFFE00000001F000FFFFC0000000
310
03FFF8001E001FC001E000FFFF80007FFFFF8000000007FFFFFC000000003FF8
310
0FFFFFFFFFFFFFC07FFFFFF0001FFFFFF8001FFFFFFFFC000FF8001FFFFFFFFC
310
000FFF0003FFFFFFFFFFFFE000000003F000FFFE0000000007FFF8001E000FC0
310
01E0007FFF80007FFFFE0000000007FFFFE0000000007FF80FFFFFFFFFFFFFC0
310
7FFFFFF0001FFFFFF0001FFFFFFFFC0007F0001FFFFFFFFC0007FF0003FFFFFF
310
FFFFFF0000000003F000FFF80000000007FFF8001E000FC003E0007FFF80007F
310
FFF0000000000FFFFF8000000000FFF80FFFFFFFFFFFFFC07FFFFFF0001FFFFF
310
F0001FFFFFFFFC0007F0001FFFFFFFFC0007FF0003FFFFFFFFFFFC0000000007
310
F000FFE0000000000FFFF0003E000FC003E0007FFF80007FFFC0000000001FFF
310
FE0000000001FFF80FFFFFFFFFFFFFC07FFFFFF0001FFFFFF0001FFFFFFFFC00
310
07F0001FFFFFFFFC0007FF0003FFFFFFFFFFF0000000000FF000FFC000000000
310
1FFFF0003F000F8003F0003FFF80007FFF80000000003FFFF80000000003FFF8
310
0FFFFFFFFFFFFFC07FFFFFF0001FFFFFF0001FFFFFFFFC0007F0001FFFFFFFFC
310
0007FF0003FFFFFFFFFFE0000000001FF000FF00000000007FFFF0003F000780
310
03F0003FFF80007FFF00000000007FFFF00000000007FFF80FFFFFFFFFFFFFC0
310
7FFFFFF0001FFFFFF0001FFFFFFFFC0007F0001FFFFFFFFC0007FF0003FFFFFF
310
FFFF80000000007FF000FE0000000000FFFFE0003F00078007F0003FFF80007F
310
FE0000000001FFFFE0000000001FFFF80FFFFFFFFFFFFFC07FFFFFF0001FFFFF
310
F0001FFFFFFFFC0007F0001FFFFFFFFC0007FF0003FFFFFFFFFF0000000000FF
310
F000FC0000000003FFFFE0007F00078007F0003FFF80007FFC0000000007FFFF
310
C0000000007FFFF80FFFFFFFFFFFFFC07FFFFFF0001FFFFFF8001FFFFFFFFC00
310
0FF8001FFFFFFFFC000FFF0003FFFFFFFFFE0000000003FFF000FC000000000F
310
FFFFE0007F80070007F8001FFF80007FF8000000001FFFFF8000000001FFFFF8
310
0FFFFFFFFFFFFFC07FFFFFF0001FFFFFF8001FFFFFFFFC000FF8001FFFFFFFFC
310
000FFF0003FFFFFFFFFC000000000FFFF000F8000000007FFFFFE0007F800700
310
07F8001FFF80007FF000000000FFFFFF800000000FFFFFF80FFFFFFFFFFFFFC0
310
7FFFFFF0001FFFFFF8000FFFFFFFF8000FF8000FFFFFFFF8000FFF0003FFFFFF
310
FFFC000000007FFFF000F800000007FFFFFFC0007F8003000FF8001FFF80007F
310
F000000007FFFFFF000000007FFFFFF80FFFFFFFFFFFFFC07FFFFFF0001FFFFF
310
F8000FFFFFFFF8000FF8000FFFFFFFF8000FFF0003FFFFFFFFF80000000FFFFF
310
F000F0000000FFFFFFFFC000FF8003000FF8001FFF80007FE0000000FFFFFFFF
310
0000000FFFFFFFF8000001FFFE0000007FFFFFF0001FFFFFF8000FFFFFFFF800
310
0FF8000FFFFFFFF8000FFF0003FFFFFFFFF8000000FFFFFFF000F000000FFFFF
310
FFFFC000FFC002000FF8000FFF80007FE000001FFFFFFFFE000001FFFFFFFFF8
310
000001FFFE0000007FFFFFF0001FFFFFF8000FFFFFFFF8000FF8000FFFFFFFF8
310
000FFF0003FFFFFFFFF000001FFFFFFFF000E00000FFFFFFFFFFC000FFC00200
310
0FFC000FFF80007FE00001FFFFFFFFFE00001FFFFFFFFFF8000001FFFE000000
310
7FFFFFF0001FFFFFFC000FFFFFFFF8001FFC000FFFFFFFF8001FFF0003FFFFFF
310
FFF00001FFFFFFFFF000E00007FFFFFFFFFF8000FFC000001FFC000FFF80007F
310
C0000FFFFFFFFFFE0000FFFFFFFFFFF8000001FFFE0000007FFFFFF0001FFFFF
310
FC0007FFFFFFF0001FFC0007FFFFFFF0001FFF0003FFFFFFFFF00007FFFFFFFF
310
F000E0001FFFFFFFFFFF8000FFC000001FFC000FFF80007FC0003FFFFFFFFFFE
310
0001FFFFFFFFFFF8000001FFFE0000007FFFFFF0001FFFFFFC0007FFFFFFF000
310
1FFC0007FFFFFFF0001FFF0003FFFFFFFFF0001FFFFFFFFFF000E0003FFFFF00
310
03FF8001FFE000001FFC0007FF80007FC0007FFFFF0007FC0003FFFFF0003FF8
310
000001FFFE0000007FFFFFF0001FFFFFFC0003FFFFFFE0001FFC0003FFFFFFE0
310
001FFF0003FFFFFFFFF0003FFFFFFFFFF000E0003FFFFF0001FF8001FFE00000
310
1FFE0007FF80007FC0007FFFFE0003FC0007FFFFE0003FF8000001FFFE000000
310
7FFFFFF0001FFFFFFE0003FFFFFFE0003FFE0003FFFFFFE0003FFF0003FFFFFF
310
FFF0003FFFFF8001F000E0003FFFFF0001FF0001FFE000001FFE0007FF80007F
310
C0007FFFFE0003FC0007FFFFE0003FF8000001FFFE0000007FFFFFF0001FFFFF
310
FE0001FFFFFFC0003FFE0001FFFFFFC0003FFF0003FFFFFFFFF0003FFFFF0001
310
F000E0003FFFFF0003FF0001FFE000003FFE0007FF80007FC0007FFFFE0003FC
310
0007FFFFE0003FF8000001FFFE0000007FFFFFF0001FFFFFFF0001FFFFFFC000
310
7FFF0001FFFFFFC0007FFF0003FFFFFFFFF0003FFFFF0001F000E0003FFFFE00
310
03FF0003FFF000003FFE0003FF80007FC0007FFFFC0003FE0007FFFFE0003FF8
310
000001FFFE0000007FFFFFF0001FFFFFFF0000FFFFFF80007FFF0000FFFFFF80
310
007FFF0003FFFFFFFFF0003FFFFF0001F000E0003FFFFE0003FF0003FFF00000
310
3FFF0003FF80007FC0007FFFFC0007FE0007FFFFC0003FF8000001FFFE000000
310
7FFFFFF0001FFFFFFF80007FFFFF0000FFFF80007FFFFF0000FFFF0003FFFFFF
310
FFF0003FFFFF0003F000E0003FFFFC0003FE0003FFF000003FFF0003FF80007F
310
E0003FFFF80007FE0003FFFFC0007FF8000001FFFE0000007FFFFFF0001FFFFF
310
FF80003FFFFE0000FFFF80003FFFFE0000FFFF0003FFFFFFFFF0001FFFFE0003
310
F000F0001FFFF80003FE0003FFF000007FFF0001FF80007FE0003FFFF00007FE
310
0001FFFF80007FF8000001FFFE0000007FFFFFF0001FFFFFFFC0000FFFF80001
310
FFFFC0000FFFF80001FFFF0003FFFFFFFFF0001FFFFC0003F000F0000FFFF000
310
07FE0007FFF800007FFF0001FF80007FE0001FFFE00007FF0000FFFE00007FF8
310
000001FFFE0000007FFFFFF0001FFFFFFFC00003FFE00001FFFFC00003FFE000
310
01FFFF0003FFFFFFFFF8000FFFF80003F000F00003FFC00007FC0007FFF80000
310
7FFF8001FF80007FF00007FF80000FFF00007FF80000FFF8000001FFFE000000
310
7F80000000000001FFE000003E000003FFFFE000003E000003FFFF0003FFFFFF
310
FFF80003FFE00007F000F800000000000FFC0007FFF800007FFF8001FF80007F
310
F000000000000FFF000000000000FFF8000001FFFE0000007F80000000000001
310
FFF0000000000007FFFFF0000000000007FFFF0003FFFFFFFFFC00007E000007
310
F000F800000000000FFC0007FFF80000FFFF8000FF80007FF800000000001FFF
310
800000000001FFF8000001FFFE0000007F80000000000001FFF800000000000F
310
FFFFF800000000000FFFFF0003FFFFFFFFFC00000000000FF000FC0000000000
310
1FFC0007FFFC0000FFFF8000FF80007FF800000000003FFFC00000000001FFF8
310
000001FFFE0000007F80000000000001FFF800000000000FFFFFF80000000000
310
0FFFFF0003FFFFFFFFFE00000000001FF000FE00000000003FF8000FFFFC0000
310
FFFF8000FF80007FFC00000000003FFFC00000000003FFF8000001FFFE000000
310
7F80000000000001FFFC00000000001FFFFFFC00000000001FFFFF0003FFFFFF
310
FFFF00000000001FF000FF00000000003FF8000FFFFC0000FFFFC000FF80007F
310
FE00000000007FFFE00000000007FFF8000001FFFE0000007F80000000000001
310
FFFE00000000003FFFFFFE00000000003FFFFF0003FFFFFFFFFF80000000003F
310
F000FF80000000007FF8000FFFFC0001FFFFC0007F80007FFF0000000000FFFF
310
F0000000000FFFF800000000000000007F80000000000001FFFF8000000000FF
310
FFFFFF8000000000FFFFFF0003FFFFFFFFFFC0000000007FF000FFC000000000
310
FFF8000FFFFE0001FFFFC0007F80007FFF8000000001FFFFF8000000001FFFF8
310
00000000000000007F80000000000001FFFFC000000001FFFFFFFFC000000001
310
FFFFFF0003FFFFFFFFFFE000000000FFF000FFE000000003FFF0001FFFFE0001
310
FFFFC0007F80007FFFC000000007FFFFFE000000003FFFF80000000000000000
310
7F80000000000001FFFFE000000003FFFFFFFFE000000003FFFFFF0003FFFFFF
310
FFFFF000000003FFF000FFF80000000FFFF0001FFFFE0001FFFFE0007F80007F
310
FFF00000000FFFFFFF00000000FFFFF800000000000000007F80000000000001
310
FFFFF80000000FFFFFFFFFF80000000FFFFFFF0003FFFFFFFFFFFC0000000FFF
310
F000FFFE0000003FFFF0001FFFFE0003FFFFE0003F80007FFFFC0000003FFFFF
310
FFC0000003FFFFF800000000000000007F80000000000001FFFFFE0000003FFF
310
FFFFFFFE0000003FFFFFFF0003FFFFFFFFFFFF0000003FFFF000FFFF800000FF
310
FFF0001FFFFF0003FFFFE0003F80007FFFFF000001FFFFFFFFF800001FFFFFF8
310
00000000000000007F80000000000001FFFFFFC00001FFFFFFFFFFFFC00001FF
310
FFFFFF0003FFFFFFFFFFFFC00000FFFFF000FFFFF8000FFFFFFFFFFFFFFFFFFF
310
FFFFFFFFFFFFFFFFFFFFF0001FFFFFFFFFFF0000FFFFFFF80000000000000000
310
7FFFFFFFFFFFFFFFFFFFFFFC001FFFFFFFFFFFFFFC001FFFFFFFFFFFFFFFFFFF
310
FFFFFFFC001FFFFFF000FFFFFFFFFFFFFFFFFFFFFFFFFFFFFFFFFFFFFFFFFFFF
310
FFFFFFFFFFFFFFFFFFFFFFFFFFFFFFFFFFFFFFFFFFFFFFFFFFFFFFFFFFFFFFFF
310
FFFFFFFFFFFFFFFFFFFFFFFFFFFFFFFFFFFFFFFFFFFFFFFFFFFFFFFFFFFFFFFF
310
F000FFFFFFFFFFFFFFFFFFFFFFFFFFFFFFFFFFFFFFFFFFFFFFFFFFFFFFFFFFFF
310
FFFFFFFFFFFFFFFFFFFFFFFFFFFFFFFFFFFFFFFFFFFFFFFFFFFFFFFFFFFFFFFF
310
FFFFFFFFFFFFFFFFFFFFFFFFFFFFFFFFFFFFFFFFFFFFFFFFF000FFFFFFFFFFFF
310
FFFFFFFFFFFFFFFFFFFFFFFFFFFFFFFFFFFFFFFFFFFFFFFFFFFFFFFFFFFFFFFF
310
FFFFFFFFFFFFFFFFFFFFFFFFFFFFFFFFFFFFFFFFFFFFFFFFFFFFFFFFFFFFFFFF
310
FFFFFFFFFFFFFFFFFFFFFFFFFFFFFFFFF000FFFFFFFFFFFFFFFFFFFFFFFFFFFF
310
FFFFFFFFFFFFFFFFFFFFFFFFFFFFFFFFFFFFFFFFFFFFFFFFFFFFFFFFFFFFFFFF
310
FFFFFFFFFFFFFFFFFFFFFFFFFFFFFFFFFFFFFFFFFFFFFFFFFFFFFFFFFFFFFFFF
310
FFFFFFFFFFFFFFFFF000FFFFFFFFFFFFFFFFFFFFFFFFFFFFFFFFFFFFFFFFFFFF
310
FFFFFFFFFFFFFFFFFFFFFFFFFFFFFFFFFFFFFFFFFFFFFFFFFFFFFFFFFFFFFFFF
310
FFFFFFFFFFFFFFFFFFFFFFFFFFFFFFFFFFFFFFFFFFFFFFFFFFFFFFFFFFFFFFFF
310
F000FFFFFFFFFFFFFFFFFFFFFFFFFFFFFFFFFFFFFFFFFFFFFFFFFFFFFFFFFFFF
310
FFFFFFFFFFFFFFFFFFFFFFFFFFFFFFFFFFFFFFFFFFFFFFFFFFFFFFFFFFFFFFFF
310
FFFFFFFFFFFFFFFFFFFFFFFFFFFFFFFFFFFFFFFFFFFFFFFFF000FFFFFFFFFFFF
310
FFFFFFFFFFFFFFFFFFFFFFFFFFFFFFFFFFFFFFFFFFFFFFFFFFFFFFFFFFFFFFFF
310
FFFFFFFFFFFFFFFFFFFFFFFFFFFFFFFFFFFFFFFFFFFFFFFFFFFFFFFFFFFFFFFF
310
FFFFFFFFFFFFFFFFFFFFFFFFFFFFFFFFF000FFFFFFFFFFFFFFFFFFFFFFFFFFFF
310
FFFFFFFFFFFFFFFFFFFFFFFFFFFFFFFFFFFFFFFFFFFFFFFFFFFFFFFFFFFFFFFF
310
FFFFFFFFFFFFFFFFFFFFFFFFFFFFFFFFFFFFFFFFFFFFFFFFFFFFFFFFFFFFFFFF
310
FFFFFFFFFFFFFFFFF000FFFFFFFFFFFFFFFFFFFFFFFFFFFFFFFFFFFFFFFFFFFF
310
FFFFFFFFFFFFFFFFFFFFFFFFFFFFFFFFFFFFFFFFFFFFFFFFFFFFFFFFFFFFFFFF
310
FFFFFFFFFFFFFFFFFFFFFFFFFFFFFFFFFFFFFFFFFFFFFFFFFFFFFFFFFFFFFFFF
310
F000FFFFFFFFFFFFFFFFFFFFFFFFFFFFFFFFFFFFFFFFFFFFFFFFFFFFFFFFFFFF
310
FFFFFFFFFFFFFFFFFFFFFFFFFFFFFFFFFFFFFFFFFFFFFFFFFFFFFFFFFFFFFFFF
310
FFFFFFFFFFFFFFFFFFFFFFFFFFFFFFFFFFFFFFFFFFFFFFFFF000FFFFFFFFFFFF
310
FFFFFFFFFFFFFFFFFFFFFFFFFFFFFFFFFFFFFFFFFFFFFFFFFFFFFFFFFFFFFFFF
310
FFFFFFFFFFFFFFFFFFFFFFFFFFFFFFFFFFFFFFFFFFFFFFFFFFFFFFFFFFFFFFFF
310
FFFFFFFFFFFFFFFFFFFFFFFFFFFFFFFFF000FFFFFFFFFFFFFFFFFFFFFFFFFFFF
310
FFFFFFFFFFFFFFFFFFFFFFFFFFFFFFFFFFFFFFFFFFFFFFFFFFFFFFFFFFFFFFFF
310
FFFFFFFFFFFFFFFFFFFFFFFFFFFFFFFFFFFFFFFFFFFFFFFFFFFFFFFFFFFFFFFF
310
FFFFFFFFFFFFFFFFF000FFFFFFFFFFFFFFFFFFFFFFFFFFFFFFFFFFFFFFFFFFFF
310
FFFFFFFFFFFFFFFFFFFFFFFFFFFFFFFFFFFFFFFFFFFFFFFFFFFFFFFFFFFFFFFF
310
FFFFFFFFFFFFFFFFFFFFFFFFFFFFFFFFFFFFFFFFFFFFFFFFFFFFFFFFFFFFFFFF
310
F000FFFFFFFFFFFFFFFFFFFFFFFFFFFFFFFFFFFFFFFFFFFFFFFFFFFFFFFFFFFF
310
FFFFFFFFFFFFFFFFFFFFFFFFFFFFFFFFFFFFFFFFFFFFFFFFFFFFFFFFFFFFFFFF
310
FFFFFFFFFFFFFFFFFFFFFFFFFFFFFFFFFFFFFFFFFFFFFFFFF000FFFFFFFFFFFF
310
FFFFFFFFFFFFFFFFFFFFFFFFFFFFFFFFFFFFFFFFFFFFFFFFFFFFFFFFFFFFFFFF
310
FFFFFFFFFFFFFFFFFFFFFFFFFFFFFFFFFFFFFFFFFFFFFFFFFFFFFFFFFFFFFFFF
310
FFFFFFFFFFFFFFFFFFFFFFFFFFFFFFFFF000FFFFFFFFFFFFFFFFFFFFFFFFFFFF
310
FFFFFFFFFFFFFFFFFFFFFFFFFFFFFFFFFFFFFFFFFFFFFFFFFFFFFFFFFFFFFFFF
310
FFFFFFFFFFFFFFFFFFFFFFFFFFFFFFFFFFFFFFFFFFFFFFFFFFFFFFFFFFFFFFFF
310
FFFFFFFFFFFFFFFFF000FFFFFFFFFFFFFFFFFFFFFFFFFFFFFFFFFFFFFFFFFFFF
310
FFFFFFFFFFFFFFFFFFFFFFFFFFFFFFFFFFFFFFFFFFFFFFFFFFFFFFFFFFFFFFFF
310
FFFFFFFFFFFFFFFFFFFFFFFFFFFFFFFFFFFFFFFFFFFFFFFFFFFFFFFFFFFFFFFF
310
F000FFFFFFFFFFFFFFFFFFFFFFFFFFFFFFFFFFFFFFFFFFFFFFFFFFFFFFFFFFFF
310
FFFFFFFFFFFFFFFFFFFFFFFFFFFFFFFFFFFFFFFFFFFFFFFFFFFFFFFFFFFFFFFF
310
FFFFFFFFFFFFFFFFFFFFFFFFFFFFFFFFFFFFFFFFFFFFFFFFF000FFFFFFFFFFFF
310
FFFFFFFFFFFFFFFFFFFFFFFFFFFFFFFFFFFFFFFFFFFFFFFFFFFFFFFFFFFFFFFF
310
FFFFFFFFFFFFFFFFFFFFFFFFFFFFFFFFFFFFFFFFFFFFFFFFFFFFFFFFFFFFFFFF
310
FFFFFFFFFFFFFFFFFFFFFFFFFFFFFFFFF000FFFFFFFFFFFFFFFFFFFFFFFFFFFF
310
FFFFFFFFFFFFFFFFFFFFFFFFFFFFFFFFFFFFFFFFFFFFFFFFFFFFFFFFFFFFFFFF
310
FFFFFFFFFFFFFFFFFFFFFFFFFFFFFFFFFFFFFFFFFFFFFFFFFFFFFFFFFFFFFFFF
310
FFFFFFFFFFFFFFFFF000FFFFFFFFFFFFFFFFFFFFFFFFFFFFFFFFFFFFFFFFFFFF
310
FFFFFFFFFFFFFFFFFFFFFFFFFFFFFFFFFFFFFFFFFFFFFFFFFFFFFFFFFFFFFFFF
310
FFFFFFFFFFFFFFFFFFFFFFFFFFFFFFFFFFFFFFFFFFFFFFFFFFFFFFFFFFFFFFFF
310
F000FFFFFFFFFFFFFFFFFFFFFFFFFFFFFFFFFFFFFFFFFFFFFFFFFFFFFFFFFFFF
310
FFFFFFFFFFFFFFFFFFFFFFFFFFFFFFFFFFFFFFFFFFFFFFFFFFFFFFFFFFFFFFFF
310
FFFFFFFFFFFFFFFFFFFFFFFFFFFFFFFFFFFFFFFFFFFFFFFFF000FFFFFFFFFFFF
310
FFFFFFFFFFFFFFFFFFFFFFFFFFFFFFFFFFFFFFFFFFFFFFFFFFFFFFFFFFFFFFFF
310
FFFFFFFFFFFFFFFFFFFFFFFFFFFFFFFFFFFFFFFFFFFFFFFFFFFFFFFFFFFFFFFF
310
FFFFFFFFFFFFFFFFFFFFFFFFFFFFFFFFF0000000000000000000000000000000
310
0000000000000000000000000000000000000000000000000000000000000000
310
0000000000000000000000000000000000000000000000000000000000000000
310
0000000000000000000000000000000000000000000000000000000000000000
310
0000000000000000000000000000000000000000000000000000000000000000
310
0000000000000000000000000000000000000000000000000000000000000000
310
0000000000000000000000000000000000000000000000000000000000000000
310
0000000000000000000000000000000000000000000000000000000000000000
310
0000000000000000000000000000000000000000000000000000000000000000
310
0000000000000000000000000000000000000000000000000000000000000000
310
0000000000000000000000000000000000000000000000000000000000000000
310
0000000000000000000000000000000000000000000000000000000000000000
310
0000000000000000000000000000000000000000000000000000000000000000
310
0000000000000000000000000000000000000000000000000000000000000000
310
0000000000000000000000000000000000000000000000000000000000000000
310
0000000000000000000000000000000000000000000000000000000000000000
  1
OLE
  0
ENDSEC
  0
SECTION
  2
OBJECTS
  0
DICTIONARY
  5
C
330
0
100
AcDbDictionary
281
     1
  3
ACAD_GROUP
350
D
  3
ACAD_LAYOUT
350
1A
  3
ACAD_MLINESTYLE
350
17
  3
ACAD_PLOTSETTINGS
350
19
  3
ACAD_PLOTSTYLENAME
350
E
  3
ACAD_SCALELIST
350
47
  0
DICTIONARY
  5
D
102
{ACAD_REACTORS
330
C
102
}
330
C
100
AcDbDictionary
281
     1
  0
DICTIONARY
  5
1A
102
{ACAD_REACTORS
330
C
102
}
330
C
100
AcDbDictionary
281
     1
  3
Layout1
350
1E
  3
Layout2
350
26
  3
Model
350
22
  0
DICTIONARY
  5
17
102
{ACAD_REACTORS
330
C
102
}
330
C
100
AcDbDictionary
281
     1
  3
Standard
350
18
  0
DICTIONARY
  5
19
102
{ACAD_REACTORS
330
C
102
}
330
C
100
AcDbDictionary
281
     1
  0
ACDBDICTIONARYWDFLT
  5
E
102
{ACAD_REACTORS
330
C
102
}
330
C
100
AcDbDictionary
281
     1
  3
Normal
350
F
100
AcDbDictionaryWithDefault
340
F
  0
DICTIONARY
  5
47
102
{ACAD_REACTORS
330
C
102
}
330
C
100
AcDbDictionary
281
     1
  3
A0
350
48
  3
A1
350
49
  3
A2
350
4A
  3
A3
350
4B
  3
A4
350
4C
  3
A5
350
4D
  3
A6
350
4E
  3
A7
350
4F
  3
A8
350
50
  3
A9
350
51
  3
B0
350
52
  3
B1
350
53
  3
B2
350
54
  3
B3
350
55
  3
B4
350
56
  3
B5
350
57
  3
B6
350
58
  3
B7
350
59
  3
B8
350
5A
  3
B9
350
5B
  3
C0
350
5C
  3
C1
350
5D
  3
C2
350
5E
  3
C3
350
5F
  3
C4
350
60
  3
C5
350
61
  3
C6
350
62
  3
C7
350
63
  3
C8
350
64
  3
C9
350
65
  3
D0
350
66
  3
D1
350
67
  3
D2
350
68
  0
LAYOUT
  5
1E
102
{ACAD_REACTORS
330
1A
102
}
330
1A
100
AcDbPlotSettings
  1

  2
none_device
  4

  6

 40
0.0
 41
0.0
 42
0.0
 43
0.0
 44
0.0
 45
0.0
 46
0.0
 47
0.0
 48
0.0
 49
0.0
140
0.0
141
0.0
142
1.0
143
1.0
 70
   688
 72
     1
 73
     0
 74
     5
  7

 75
    16
147
1.0
148
0.0
149
0.0
100
AcDbLayout
  1
Layout1
 70
     1
 71
     1
 10
0.0
 20
0.0
 11
420.0
 21
297.0
 12
0.0
 22
0.0
 32
0.0
 14
1.0000000000E+20
 24
1.0000000000E+20
 34
1.0000000000E+20
 15
-1.0000000000E+20
 25
-1.0000000000E+20
 35
-1.0000000000E+20
146
0.0
 13
0.0
 23
0.0
 33
0.0
 16
1.0
 26
0.0
 36
0.0
 17
0.0
 27
1.0
 37
0.0
 76
     0
330
1B
  0
LAYOUT
  5
26
102
{ACAD_REACTORS
330
1A
102
}
330
1A
100
AcDbPlotSettings
  1

  2
none_device
  4

  6

 40
0.0
 41
0.0
 42
0.0
 43
0.0
 44
0.0
 45
0.0
 46
0.0
 47
0.0
 48
0.0
 49
0.0
140
0.0
141
0.0
142
1.0
143
1.0
 70
   688
 72
     1
 73
     0
 74
     5
  7

 75
    16
147
1.0
148
0.0
149
0.0
100
AcDbLayout
  1
Layout2
 70
     1
 71
     2
 10
0.0
 20
0.0
 11
0.0
 21
0.0
 12
0.0
 22
0.0
 32
0.0
 14
0.0
 24
0.0
 34
0.0
 15
0.0
 25
0.0
 35
0.0
146
0.0
 13
0.0
 23
0.0
 33
0.0
 16
1.0
 26
0.0
 36
0.0
 17
0.0
 27
1.0
 37
0.0
 76
     0
330
23
  0
LAYOUT
  5
22
102
{ACAD_REACTORS
330
1A
102
}
330
1A
100
AcDbPlotSettings
  1

  2
none_device
  4
Letter_(8.50_x_11.00_Inches)
  6

 40
6.35
 41
6.35
 42
6.35000508
 43
6.35000508
 44
215.9
 45
279.4
 46
0.0
 47
0.0
 48
0.0
 49
0.0
140
0.0
141
0.0
142
1.0
143
1.0
 70
  1712
 72
     1
 73
     0
 74
     0
  7

 75
     0
147
1.0
148
0.0
149
0.0
100
AcDbLayout
  1
Model
 70
     1
 71
     0
 10
0.0
 20
0.0
 11
297.0
 21
210.0
 12
0.0
 22
0.0
 32
0.0
 14
0.0
 24
0.0
 34
0.0
 15
297.0
 25
210.0
 35
0.0
146
0.0
 13
0.0
 23
0.0
 33
0.0
 16
1.0
 26
0.0
 36
0.0
 17
0.0
 27
1.0
 37
0.0
 76
     0
330
1F
331
29
  0
MLINESTYLE
  5
18
102
{ACAD_REACTORS
330
17
102
}
330
17
100
AcDbMlineStyle
  2
Standard
 70
     0
  3

 62
   256
 51
90.0
 52
90.0
 71
     2
 49
0.5
 62
   256
  6
BYLAYER
 49
-0.5
 62
   256
  6
BYLAYER
  0
ACDBPLACEHOLDER
  5
F
102
{ACAD_REACTORS
330
E
102
}
330
E
  0
SCALE
  5
48
102
{ACAD_REACTORS
330
47
102
}
330
47
100
AcDbScale
 70
     0
300
1:1
140
1.0
141
1.0
290
     1
  0
SCALE
  5
49
102
{ACAD_REACTORS
330
47
102
}
330
47
100
AcDbScale
 70
     0
300
1:2
140
1.0
141
2.0
290
     0
  0
SCALE
  5
4A
102
{ACAD_REACTORS
330
47
102
}
330
47
100
AcDbScale
 70
     0
300
1:4
140
1.0
141
4.0
290
     0
  0
SCALE
  5
4B
102
{ACAD_REACTORS
330
47
102
}
330
47
100
AcDbScale
 70
     0
300
1:5
140
1.0
141
5.0
290
     0
  0
SCALE
  5
4C
102
{ACAD_REACTORS
330
47
102
}
330
47
100
AcDbScale
 70
     0
300
1:8
140
1.0
141
8.0
290
     0
  0
SCALE
  5
4D
102
{ACAD_REACTORS
330
47
102
}
330
47
100
AcDbScale
 70
     0
300
1:10
140
1.0
141
10.0
290
     0
  0
SCALE
  5
4E
102
{ACAD_REACTORS
330
47
102
}
330
47
100
AcDbScale
 70
     0
300
1:16
140
1.0
141
16.0
290
     0
  0
SCALE
  5
4F
102
{ACAD_REACTORS
330
47
102
}
330
47
100
AcDbScale
 70
     0
300
1:20
140
1.0
141
20.0
290
     0
  0
SCALE
  5
50
102
{ACAD_REACTORS
330
47
102
}
330
47
100
AcDbScale
 70
     0
300
1:30
140
1.0
141
30.0
290
     0
  0
SCALE
  5
51
102
{ACAD_REACTORS
330
47
102
}
330
47
100
AcDbScale
 70
     0
300
1:40
140
1.0
141
40.0
290
     0
  0
SCALE
  5
52
102
{ACAD_REACTORS
330
47
102
}
330
47
100
AcDbScale
 70
     0
300
1:50
140
1.0
141
50.0
290
     0
  0
SCALE
  5
53
102
{ACAD_REACTORS
330
47
102
}
330
47
100
AcDbScale
 70
     0
300
1:100
140
1.0
141
100.0
290
     0
  0
SCALE
  5
54
102
{ACAD_REACTORS
330
47
102
}
330
47
100
AcDbScale
 70
     0
300
2:1
140
2.0
141
1.0
290
     0
  0
SCALE
  5
55
102
{ACAD_REACTORS
330
47
102
}
330
47
100
AcDbScale
 70
     0
300
4:1
140
4.0
141
1.0
290
     0
  0
SCALE
  5
56
102
{ACAD_REACTORS
330
47
102
}
330
47
100
AcDbScale
 70
     0
300
8:1
140
8.0
141
1.0
290
     0
  0
SCALE
  5
57
102
{ACAD_REACTORS
330
47
102
}
330
47
100
AcDbScale
 70
     0
300
10:1
140
10.0
141
1.0
290
     0
  0
SCALE
  5
58
102
{ACAD_REACTORS
330
47
102
}
330
47
100
AcDbScale
 70
     0
300
100:1
140
100.0
141
1.0
290
     0
  0
SCALE
  5
59
102
{ACAD_REACTORS
330
47
102
}
330
47
100
AcDbScale
 70
     0
300
1/128" = 1'-0"
140
0.0078125
141
12.0
290
     0
  0
SCALE
  5
5A
102
{ACAD_REACTORS
330
47
102
}
330
47
100
AcDbScale
 70
     0
300
1/64" = 1'-0"
140
0.015625
141
12.0
290
     0
  0
SCALE
  5
5B
102
{ACAD_REACTORS
330
47
102
}
330
47
100
AcDbScale
 70
     0
300
1/32" = 1'-0"
140
0.03125
141
12.0
290
     0
  0
SCALE
  5
5C
102
{ACAD_REACTORS
330
47
102
}
330
47
100
AcDbScale
 70
     0
300
1/16" = 1'-0"
140
0.0625
141
12.0
290
     0
  0
SCALE
  5
5D
102
{ACAD_REACTORS
330
47
102
}
330
47
100
AcDbScale
 70
     0
300
3/32" = 1'-0"
140
0.09375
141
12.0
290
     0
  0
SCALE
  5
5E
102
{ACAD_REACTORS
330
47
102
}
330
47
100
AcDbScale
 70
     0
300
1/8" = 1'-0"
140
0.125
141
12.0
290
     0
  0
SCALE
  5
5F
102
{ACAD_REACTORS
330
47
102
}
330
47
100
AcDbScale
 70
     0
300
3/16" = 1'-0"
140
0.1875
141
12.0
290
     0
  0
SCALE
  5
60
102
{ACAD_REACTORS
330
47
102
}
330
47
100
AcDbScale
 70
     0
300
1/4" = 1'-0"
140
0.25
141
12.0
290
     0
  0
SCALE
  5
61
102
{ACAD_REACTORS
330
47
102
}
330
47
100
AcDbScale
 70
     0
300
3/8" = 1'-0"
140
0.375
141
12.0
290
     0
  0
SCALE
  5
62
102
{ACAD_REACTORS
330
47
102
}
330
47
100
AcDbScale
 70
     0
300
1/2" = 1'-0"
140
0.5
141
12.0
290
     0
  0
SCALE
  5
63
102
{ACAD_REACTORS
330
47
102
}
330
47
100
AcDbScale
 70
     0
300
3/4" = 1'-0"
140
0.75
141
12.0
290
     0
  0
SCALE
  5
64
102
{ACAD_REACTORS
330
47
102
}
330
47
100
AcDbScale
 70
     0
300
1" = 1'-0"
140
1.0
141
12.0
290
     0
  0
SCALE
  5
65
102
{ACAD_REACTORS
330
47
102
}
330
47
100
AcDbScale
 70
     0
300
1-1/2" = 1'-0"
140
1.5
141
12.0
290
     0
  0
SCALE
  5
66
102
{ACAD_REACTORS
330
47
102
}
330
47
100
AcDbScale
 70
     0
300
3" = 1'-0"
140
3.0
141
12.0
290
     0
  0
SCALE
  5
67
102
{ACAD_REACTORS
330
47
102
}
330
47
100
AcDbScale
 70
     0
300
6" = 1'-0"
140
6.0
141
12.0
290
     0
  0
SCALE
  5
68
102
{ACAD_REACTORS
330
47
102
}
330
47
100
AcDbScale
 70
     0
300
1'-0" = 1'-0"
140
12.0
141
12.0
290
     0
  0
ENDSEC
  0
EOF
