  0
SECTION
  2
HEADER
  9
$ACADVER
  1
AC1015
  9
$ACADMAINTVER
 70
     6
  9
$DWGCODEPAGE
  3
ANSI_1252
  9
$INSBASE
 10
0.0
 20
0.0
 30
0.0
  9
$EXTMIN
 10
0.0
 20
0.0
 30
0.0
  9
$EXTMAX
 10
297.0
 20
210.0
 30
0.0
  9
$LIMMIN
 10
0.0
 20
0.0
  9
$LIMMAX
 10
297.0
 20
210.0
  9
$ORTHOMODE
 70
     0
  9
$REGENMODE
 70
     1
  9
$FILLMODE
 70
     1
  9
$QTEXTMODE
 70
     0
  9
$MIRRTEXT
 70
     1
  9
$LTSCALE
 40
1.0
  9
$ATTMODE
 70
     1
  9
$TEXTSIZE
 40
2.0
  9
$TRACEWID
 40
1.0
  9
$TEXTSTYLE
  7
Standard
  9
$CLAYER
  8
0
  9
$CELTYPE
  6
ByLayer
  9
$CECOLOR
 62
   256
  9
$CELTSCALE
 40
1.0
  9
$DISPSILH
 70
     0
  9
$DIMSCALE
 40
1.0
  9
$DIMASZ
 40
3.0
  9
$DIMEXO
 40
0.0
  9
$DIMDLI
 40
3.75
  9
$DIMRND
 40
0.0
  9
$DIMDLE
 40
0.0
  9
$DIMEXE
 40
1.0
  9
$DIMTP
 40
0.0
  9
$DIMTM
 40
0.0
  9
$DIMTXT
 40
2.0
  9
$DIMCEN
 40
2.5
  9
$DIMTSZ
 40
0.0
  9
$DIMTOL
 70
     0
  9
$DIMLIM
 70
     0
  9
$DIMTIH
 70
     1
  9
$DIMTOH
 70
     1
  9
$DIMSE1
 70
     0
  9
$DIMSE2
 70
     0
  9
$DIMTAD
 70
     1
  9
$DIMZIN
 70
     0
  9
$DIMBLK
  1

  9
$DIMASO
 70
     1
  9
$DIMSHO
 70
     1
  9
$DIMPOST
  1

  9
$DIMAPOST
  1

  9
$DIMALT
 70
     0
  9
$DIMALTD
 70
     3
  9
$DIMALTF
 40
0.0393700787
  9
$DIMLFAC
 40
2.0
  9
$DIMTOFL
 70
     1
  9
$DIMTVP
 40
0.0
  9
$DIMTIX
 70
     0
  9
$DIMSOXD
 70
     0
  9
$DIMSAH
 70
     0
  9
$DIMBLK1
  1

  9
$DIMBLK2
  1

  9
$DIMSTYLE
  2
ISO-25
  9
$DIMCLRD
 70
     0
  9
$DIMCLRE
 70
     0
  9
$DIMCLRT
 70
     0
  9
$DIMTFAC
 40
1.0
  9
$DIMGAP
 40
1.524
  9
$DIMJUST
 70
     0
  9
$DIMSD1
 70
     0
  9
$DIMSD2
 70
     0
  9
$DIMTOLJ
 70
     0
  9
$DIMTZIN
 70
     0
  9
$DIMALTZ
 70
     0
  9
$DIMALTTZ
 70
     0
  9
$DIMUPT
 70
     0
  9
$DIMDEC
 70
     2
  9
$DIMTDEC
 70
     3
  9
$DIMALTU
 70
     2
  9
$DIMALTTD
 70
     3
  9
$DIMTXSTY
  7
Standard
  9
$DIMAUNIT
 70
     0
  9
$DIMADEC
 70
     2
  9
$DIMALTRND
 40
0.0
  9
$DIMAZIN
 70
     0
  9
$DIMDSEP
 70
    44
  9
$DIMATFIT
 70
     3
  9
$DIMFRAC
 70
     0
  9
$DIMLDRBLK
  1

  9
$DIMLUNIT
 70
     2
  9
$DIMLWD
 70
    -2
  9
$DIMLWE
 70
    -2
  9
$DIMTMOVE
 70
     0
  9
$LUNITS
 70
     2
  9
$LUPREC
 70
     2
  9
$SKETCHINC
 40
1.0
  9
$FILLETRAD
 40
10.0
  9
$AUNITS
 70
     0
  9
$AUPREC
 70
     2
  9
$MENU
  1
.
  9
$ELEVATION
 40
0.0
  9
$PELEVATION
 40
0.0
  9
$THICKNESS
 40
0.0
  9
$LIMCHECK
 70
     0
  9
$CHAMFERA
 40
0.0
  9
$CHAMFERB
 40
0.0
  9
$CHAMFERC
 40
0.0
  9
$CHAMFERD
 40
0.0
  9
$SKPOLY
 70
     0
  9
$TDCREATE
 40
2457676.383115613
  9
$TDUCREATE
 40
2457676.29978228
  9
$TDUPDATE
 40
2457676.383117187
  9
$TDUUPDATE
 40
2457676.299783854
  9
$TDINDWG
 40
0.0000000116
  9
$TDUSRTIMER
 40
0.0000000116
  9
$USRTIMER
 70
     1
  9
$ANGBASE
 50
0.0
  9
$ANGDIR
 70
     0
  9
$PDMODE
 70
     0
  9
$PDSIZE
 40
-1.0
  9
$PLINEWID
 40
0.0
  9
$SPLFRAME
 70
     0
  9
$SPLINETYPE
 70
     6
  9
$SPLINESEGS
 70
     8
  9
$HANDSEED
  5
276
  9
$SURFTAB1
 70
     6
  9
$SURFTAB2
 70
     6
  9
$SURFTYPE
 70
     6
  9
$SURFU
 70
     6
  9
$SURFV
 70
     6
  9
$UCSBASE
  2

  9
$UCSNAME
  2

  9
$UCSORG
 10
0.0
 20
0.0
 30
0.0
  9
$UCSXDIR
 10
1.0
 20
0.0
 30
0.0
  9
$UCSYDIR
 10
0.0
 20
1.0
 30
0.0
  9
$UCSORTHOREF
  2

  9
$UCSORTHOVIEW
 70
     0
  9
$UCSORGTOP
 10
0.0
 20
0.0
 30
0.0
  9
$UCSORGBOTTOM
 10
0.0
 20
0.0
 30
0.0
  9
$UCSORGLEFT
 10
0.0
 20
0.0
 30
0.0
  9
$UCSORGRIGHT
 10
0.0
 20
0.0
 30
0.0
  9
$UCSORGFRONT
 10
0.0
 20
0.0
 30
0.0
  9
$UCSORGBACK
 10
0.0
 20
0.0
 30
0.0
  9
$PUCSBASE
  2

  9
$PUCSNAME
  2

  9
$PUCSORG
 10
0.0
 20
0.0
 30
0.0
  9
$PUCSXDIR
 10
1.0
 20
0.0
 30
0.0
  9
$PUCSYDIR
 10
0.0
 20
1.0
 30
0.0
  9
$PUCSORTHOREF
  2

  9
$PUCSORTHOVIEW
 70
     0
  9
$PUCSORGTOP
 10
0.0
 20
0.0
 30
0.0
  9
$PUCSORGBOTTOM
 10
0.0
 20
0.0
 30
0.0
  9
$PUCSORGLEFT
 10
0.0
 20
0.0
 30
0.0
  9
$PUCSORGRIGHT
 10
0.0
 20
0.0
 30
0.0
  9
$PUCSORGFRONT
 10
0.0
 20
0.0
 30
0.0
  9
$PUCSORGBACK
 10
0.0
 20
0.0
 30
0.0
  9
$USERI1
 70
     0
  9
$USERI2
 70
     0
  9
$USERI3
 70
     0
  9
$USERI4
 70
     0
  9
$USERI5
 70
     0
  9
$USERR1
 40
0.0
  9
$USERR2
 40
0.0
  9
$USERR3
 40
0.0
  9
$USERR4
 40
0.0
  9
$USERR5
 40
0.0
  9
$WORLDVIEW
 70
     1
  9
$SHADEDGE
 70
     3
  9
$SHADEDIF
 70
    70
  9
$TILEMODE
 70
     1
  9
$MAXACTVP
 70
    64
  9
$PINSBASE
 10
0.0
 20
0.0
 30
0.0
  9
$PLIMCHECK
 70
     0
  9
$PEXTMIN
 10
1.0000000000E+20
 20
1.0000000000E+20
 30
1.0000000000E+20
  9
$PEXTMAX
 10
-1.0000000000E+20
 20
-1.0000000000E+20
 30
-1.0000000000E+20
  9
$PLIMMIN
 10
0.0
 20
0.0
  9
$PLIMMAX
 10
420.0
 20
297.0
  9
$UNITMODE
 70
     0
  9
$VISRETAIN
 70
     1
  9
$PLINEGEN
 70
     0
  9
$PSLTSCALE
 70
     1
  9
$TREEDEPTH
 70
  3020
  9
$CMLSTYLE
  2
Standard
  9
$CMLJUST
 70
     0
  9
$CMLSCALE
 40
20.0
  9
$PROXYGRAPHICS
 70
     1
  9
$MEASUREMENT
 70
     1
  9
$CELWEIGHT
370
    -1
  9
$ENDCAPS
280
     0
  9
$JOINSTYLE
280
     0
  9
$LWDISPLAY
290
     1
  9
$INSUNITS
 70
     4
  9
$HYPERLINKBASE
  1

  9
$STYLESHEET
  1

  9
$XEDIT
290
     1
  9
$CEPSNTYPE
380
     0
  9
$PSTYLEMODE
290
     1
  9
$FINGERPRINTGUID
  2
{CB4EEBE3-7319-429C-9F39-8ECFE604445C}
  9
$VERSIONGUID
  2
{FAEB1C32-E019-11D5-929B-00C0DF256EC4}
  9
$EXTNAMES
290
     1
  9
$PSVPSCALE
 40
0.0
  9
$OLESTARTUP
290
     0
  0
ENDSEC
  0
SECTION
  2
CLASSES
  0
CLASS
  1
ACDBDICTIONARYWDFLT
  2
AcDbDictionaryWithDefault
  3
ObjectDBX Classes
 90
        0
280
     0
281
     0
  0
CLASS
  1
VISUALSTYLE
  2
AcDbVisualStyle
  3
ObjectDBX Classes
 90
     4095
280
     0
281
     0
  0
CLASS
  1
MATERIAL
  2
AcDbMaterial
  3
ObjectDBX Classes
 90
     1153
280
     0
281
     0
  0
CLASS
  1
SCALE
  2
AcDbScale
  3
ObjectDBX Classes
 90
     1153
280
     0
281
     0
  0
CLASS
  1
TABLESTYLE
  2
AcDbTableStyle
  3
ObjectDBX Classes
 90
     4095
280
     0
281
     0
  0
CLASS
  1
MLEADERSTYLE
  2
AcDbMLeaderStyle
  3
ACDB_MLEADERSTYLE_CLASS
 90
     4095
280
     0
281
     0
  0
CLASS
  1
SUN
  2
AcDbSun
  3
SCENEOE
 90
     1153
280
     0
281
     0
  0
CLASS
  1
ACDBPLACEHOLDER
  2
AcDbPlaceHolder
  3
ObjectDBX Classes
 90
        0
280
     0
281
     0
  0
CLASS
  1
LAYOUT
  2
AcDbLayout
  3
ObjectDBX Classes
 90
        0
280
     0
281
     0
  0
ENDSEC
  0
SECTION
  2
TABLES
  0
TABLE
  2
VPORT
  5
8
330
0
100
AcDbSymbolTable
 70
     1
  0
VPORT
  5
29
330
8
100
AcDbSymbolTableRecord
100
AcDbViewportTableRecord
  2
*Active
 70
     0
 10
0.0
 20
0.0
 11
1.0
 21
1.0
 12
148.5
 22
105.0
 13
0.0
 23
0.0
 14
10.0
 24
10.0
 15
10.0
 25
10.0
 16
0.0
 26
0.0
 36
1.0
 17
0.0
 27
0.0
 37
0.0
 40
210.0
 41
1.4142857143
 42
50.0
 43
0.0
 44
0.0
 50
0.0
 51
0.0
 71
     0
 72
  2000
 73
     1
 74
     3
 75
     0
 76
     0
 77
     0
 78
     0
281
     0
 65
     1
110
0.0
120
0.0
130
0.0
111
1.0
121
0.0
131
0.0
112
0.0
122
1.0
132
0.0
 79
     0
146
0.0
  0
ENDTAB
  0
TABLE
  2
LTYPE
  5
5
330
0
100
AcDbSymbolTable
 70
     6
  0
LTYPE
  5
14
330
5
100
AcDbSymbolTableRecord
100
AcDbLinetypeTableRecord
  2
ByBlock
 70
     0
  3

 72
    65
 73
     0
 40
0.0
  0
LTYPE
  5
15
330
5
100
AcDbSymbolTableRecord
100
AcDbLinetypeTableRecord
  2
ByLayer
 70
     0
  3

 72
    65
 73
     0
 40
0.0
  0
LTYPE
  5
16
330
5
100
AcDbSymbolTableRecord
100
AcDbLinetypeTableRecord
  2
Continuous
 70
     0
  3
Solid line
 72
    65
 73
     0
 40
0.0
  0
LTYPE
  5
6E
330
5
100
AcDbSymbolTableRecord
100
AcDbLinetypeTableRecord
  2
HIDDEN
 70
     0
  3
Hidden __ __ __ __ __ __ __ __ __ __ __ __ __ __
 72
    65
 73
     2
 40
1.905
 49
1.27
 74
     0
 49
-0.635
 74
     0
  0
LTYPE
  5
6F
330
5
100
AcDbSymbolTableRecord
100
AcDbLinetypeTableRecord
  2
PHANTOM
 70
     0
  3
Phantom ______  __  __  ______  __  __  ______
 72
    65
 73
     6
 40
12.7
 49
6.35
 74
     0
 49
-1.27
 74
     0
 49
1.27
 74
     0
 49
-1.27
 74
     0
 49
1.27
 74
     0
 49
-1.27
 74
     0
  0
LTYPE
  5
70
330
5
100
AcDbSymbolTableRecord
100
AcDbLinetypeTableRecord
  2
CENTER
 70
     0
  3
Center ____ _ ____ _ ____ _ ____ _ ____ _ ____
 72
    65
 73
     4
 40
10.16
 49
6.35
 74
     0
 49
-1.27
 74
     0
 49
1.27
 74
     0
 49
-1.27
 74
     0
  0
LTYPE
  5
71
330
5
100
AcDbSymbolTableRecord
100
AcDbLinetypeTableRecord
  2
CENTERX2
 70
     0
  3
Center (2x) ________  __  ________  __  _____
 72
    65
 73
     4
 40
20.32
 49
12.7
 74
     0
 49
-2.54
 74
     0
 49
2.54
 74
     0
 49
-2.54
 74
     0
  0
LTYPE
  5
72
330
5
100
AcDbSymbolTableRecord
100
AcDbLinetypeTableRecord
  2
DOT2
 70
     0
  3
Dot (.5x) ........................................
 72
    65
 73
     2
 40
0.635
 49
0.0
 74
     0
 49
-0.635
 74
     0
  0
ENDTAB
  0
TABLE
  2
LAYER
  5
2
330
0
100
AcDbSymbolTable
 70
     5
  0
LAYER
  5
10
330
2
100
AcDbSymbolTableRecord
100
AcDbLayerTableRecord
  2
0
 70
     0
 62
     7
  6
Continuous
370
    -3
390
F
  0
LAYER
  5
73
330
2
100
AcDbSymbolTableRecord
100
AcDbLayerTableRecord
  2
FORMAT
 70
     0
 62
     7
  6
Continuous
370
    -3
390
F
  0
LAYER
  5
74
330
2
100
AcDbSymbolTableRecord
100
AcDbLayerTableRecord
  2
VERMASSUNG
 70
     0
 62
     7
  6
Continuous
370
    -3
390
F
  0
LAYER
  5
75
330
2
100
AcDbSymbolTableRecord
100
AcDbLayerTableRecord
  2
KOPF_DÜNN
 70
     0
 62
     7
  6
Continuous
370
    -3
390
F
  0
LAYER
  5
76
330
2
100
AcDbSymbolTableRecord
100
AcDbLayerTableRecord
  2
KOPF_DICK
 70
     0
 62
     7
  6
Continuous
370
    15
390
F
  0
ENDTAB
  0
TABLE
  2
STYLE
  5
3
330
0
100
AcDbSymbolTable
 70
     2
  0
STYLE
  5
11
330
3
100
AcDbSymbolTableRecord
100
AcDbTextStyleTableRecord
  2
Standard
 70
     0
 40
0.0
 41
1.0
 50
0.0
 71
     0
 42
2.0
  3
txt
  4

  0
STYLE
  5
77
330
3
100
AcDbSymbolTableRecord
100
AcDbTextStyleTableRecord
  2
SLDTEXTSTYLE0
 70
     0
 40
0.0
 41
0.7
 50
0.0
 71
     0
 42
2.0
  3
TXT
  4

  0
ENDTAB
  0
TABLE
  2
VIEW
  5
6
330
0
100
AcDbSymbolTable
 70
     0
  0
ENDTAB
  0
TABLE
  2
UCS
  5
7
330
0
100
AcDbSymbolTable
 70
     0
  0
ENDTAB
  0
TABLE
  2
APPID
  5
9
330
0
100
AcDbSymbolTable
 70
     1
  0
APPID
  5
12
330
9
100
AcDbSymbolTableRecord
100
AcDbRegAppTableRecord
  2
ACAD
 70
     0
  0
ENDTAB
  0
TABLE
  2
DIMSTYLE
  5
A
330
0
100
AcDbSymbolTable
 70
     2
100
AcDbDimStyleTable
  0
DIMSTYLE
105
27
330
A
100
AcDbSymbolTableRecord
100
AcDbDimStyleTableRecord
  2
ISO-25
 70
     0
 41
2.5
 42
0.625
 43
3.75
 44
1.25
 73
     0
 74
     0
 77
     1
 78
     8
140
2.5
141
2.5
143
0.0393700787
147
0.625
171
     3
172
     1
178
     0
271
     2
272
     2
274
     3
278
    44
283
     0
284
     8
340
11
  0
DIMSTYLE
105
1BA
102
{ACAD_REACTORS
330
1B9
330
1C6
330
1D0
330
1DA
330
1E4
330
1EF
102
}
330
A
100
AcDbSymbolTableRecord
100
AcDbDimStyleTableRecord
  2
SLDDIMSTYLE0
 70
     0
 41
3.0
 44
0.0
 45
0.000000001
 73
     0
 74
     0
 77
     1
 78
    12
 79
     3
140
2.0
147
0.5
173
     1
178
     0
271
     2
272
     3
276
     2
284
    12
340
77
  0
ENDTAB
  0
TABLE
  2
BLOCK_RECORD
  5
1
330
0
100
AcDbSymbolTable
 70
     7
  0
BLOCK_RECORD
  5
1F
330
1
100
AcDbSymbolTableRecord
100
AcDbBlockTableRecord
  2
*Model_Space
340
22
  0
BLOCK_RECORD
  5
1B
330
1
100
AcDbSymbolTableRecord
100
AcDbBlockTableRecord
  2
*Paper_Space
340
1E
  0
BLOCK_RECORD
  5
23
330
1
100
AcDbSymbolTableRecord
100
AcDbBlockTableRecord
  2
*Paper_Space0
340
26
  0
BLOCK_RECORD
  5
1BB
330
1
100
AcDbSymbolTableRecord
100
AcDbBlockTableRecord
  2
_D
340
0
  0
BLOCK_RECORD
  5
1C7
330
1
100
AcDbSymbolTableRecord
100
AcDbBlockTableRecord
  2
_D_1
340
0
  0
BLOCK_RECORD
  5
1D1
330
1
100
AcDbSymbolTableRecord
100
AcDbBlockTableRecord
  2
_D_2
340
0
  0
BLOCK_RECORD
  5
1DB
330
1
100
AcDbSymbolTableRecord
100
AcDbBlockTableRecord
  2
_D_3
340
0
  0
BLOCK_RECORD
  5
1E5
330
1
100
AcDbSymbolTableRecord
100
AcDbBlockTableRecord
  2
_D_4
340
0
  0
BLOCK_RECORD
  5
1F0
330
1
100
AcDbSymbolTableRecord
100
AcDbBlockTableRecord
  2
_D_5
340
0
  0
ENDTAB
  0
ENDSEC
  0
SECTION
  2
BLOCKS
  0
BLOCK
  5
20
330
1F
100
AcDbEntity
  8
0
100
AcDbBlockBegin
  2
*Model_Space
 70
     0
 10
0.0
 20
0.0
 30
0.0
  3
*Model_Space
  1

  0
ENDBLK
  5
21
330
1F
100
AcDbEntity
  8
0
100
AcDbBlockEnd
  0
BLOCK
  5
1C
330
1B
100
AcDbEntity
 67
     1
  8
0
100
AcDbBlockBegin
  2
*Paper_Space
 70
     0
 10
0.0
 20
0.0
 30
0.0
  3
*Paper_Space
  1

  0
ENDBLK
  5
1D
330
1B
100
AcDbEntity
 67
     1
  8
0
100
AcDbBlockEnd
  0
BLOCK
  5
24
330
23
100
AcDbEntity
  8
0
100
AcDbBlockBegin
  2
*Paper_Space0
 70
     0
 10
0.0
 20
0.0
 30
0.0
  3
*Paper_Space0
  1

  0
ENDBLK
  5
25
330
23
100
AcDbEntity
  8
0
100
AcDbBlockEnd
  0
BLOCK
  5
1BC
330
1BB
100
AcDbEntity
  8
0
100
AcDbBlockBegin
  2
_D
 70
     0
 10
0.0
 20
0.0
 30
0.0
  3
_D
  1

  0
SOLID
  5
1BE
330
1BB
100
AcDbEntity
  8
VERMASSUNG
100
AcDbTrace
 10
50.4080701175
 20
64.4205252601
 30
0.0
 11
50.8580701175
 21
67.4205252601
 31
0.0
 12
49.9580701175
 22
67.4205252601
 32
0.0
 13
49.9580701175
 23
67.4205252601
 33
0.0
  0
SOLID
  5
1BF
330
1BB
100
AcDbEntity
  8
VERMASSUNG
100
AcDbTrace
 10
50.4080701175
 20
164.4205252601
 30
0.0
 11
49.9580701175
 21
161.4205252601
 31
0.0
 12
50.8580701175
 22
161.4205252601
 32
0.0
 13
50.8580701175
 23
161.4205252601
 33
0.0
  0
LINE
  5
1C0
330
1BB
100
AcDbEntity
  8
VERMASSUNG
100
AcDbLine
 10
197.3087271721
 20
64.4205252601
 30
0.0
 11
49.4080701175
 21
64.4205252601
 31
0.0
  0
LINE
  5
1C1
330
1BB
100
AcDbEntity
  8
VERMASSUNG
100
AcDbLine
 10
197.3087271721
 20
164.4205252601
 30
0.0
 11
49.4080701175
 21
164.4205252601
 31
0.0
  0
LINE
  5
1C2
330
1BB
100
AcDbEntity
  8
VERMASSUNG
100
AcDbLine
 10
50.4080701175
 20
64.4205252601
 30
0.0
 11
50.4080701175
 21
164.4205252601
 31
0.0
  0
MTEXT
  5
1C3
330
1BB
100
AcDbEntity
  8
VERMASSUNG
100
AcDbMText
 10
47.6299348613
 20
103.2163872581
 30
0.0
 40
2.0
 41
0.0
 71
     1
 72
     1
  1
MAS-BT 50
  7
SLDTEXTSTYLE0
 11
3.391901413832837E-15
 21
1.0
 31
0.0
 73
     1
 44
1.0
  0
MTEXT
  5
1C4
330
1BB
100
AcDbEntity
  8
VERMASSUNG
100
AcDbMText
 10
47.8299348126
 20
118.2163869228
 30
0.0
 40
2.0
 41
0.0
 71
     1
 72
     1
  1
%%c
  7
SLDTEXTSTYLE0
 11
3.391901413832837E-15
 21
1.0
 31
0.0
 73
     1
 44
1.0
  0
MTEXT
  5
1C5
330
1BB
100
AcDbEntity
  8
VERMASSUNG
100
AcDbMText
 10
47.8299345216
 20
121.8259773714
 30
0.0
 40
2.0
 41
0.0
 71
     1
 72
     1
  1
100
  7
SLDTEXTSTYLE0
 11
3.391901413832837E-15
 21
1.0
 31
0.0
 73
     1
 44
1.0
  0
ENDBLK
  5
1BD
330
1BB
100
AcDbEntity
  8
0
100
AcDbBlockEnd
  0
BLOCK
  5
1C8
330
1C7
100
AcDbEntity
  8
0
100
AcDbBlockBegin
  2
_D_1
 70
     0
 10
0.0
 20
0.0
 30
0.0
  3
_D_1
  1

  0
SOLID
  5
1CA
330
1C7
100
AcDbEntity
  8
VERMASSUNG
100
AcDbTrace
 10
58.5087271721
 20
180.6576939922
 30
0.0
 11
61.5087271721
 21
180.2076939922
 31
0.0
 12
61.5087271721
 22
181.1076939922
 32
0.0
 13
61.5087271721
 23
181.1076939922
 33
0.0
  0
SOLID
  5
1CB
330
1C7
100
AcDbEntity
  8
VERMASSUNG
100
AcDbTrace
 10
225.3087271721
 20
180.6576939922
 30
0.0
 11
222.3087271721
 21
181.1076939922
 31
0.0
 12
222.3087271721
 22
180.2076939922
 32
0.0
 13
222.3087271721
 23
180.2076939922
 33
0.0
  0
LINE
  5
1CC
330
1C7
100
AcDbEntity
  8
VERMASSUNG
100
AcDbLine
 10
58.5087271721
 20
132.7702031209
 30
0.0
 11
58.5087271721
 21
181.6576939922
 31
0.0
  0
LINE
  5
1CD
330
1C7
100
AcDbEntity
  8
VERMASSUNG
100
AcDbLine
 10
225.3087271721
 20
138.9205252601
 30
0.0
 11
225.3087271721
 21
181.6576939922
 31
0.0
  0
LINE
  5
1CE
330
1C7
100
AcDbEntity
  8
VERMASSUNG
100
AcDbLine
 10
58.5087271721
 20
180.6576939922
 30
0.0
 11
225.3087271721
 21
180.6576939922
 31
0.0
  0
MTEXT
  5
1CF
330
1C7
100
AcDbEntity
  8
VERMASSUNG
100
AcDbMText
 10
139.008727209
 20
183.2358295882
 30
0.0
 40
2.0
 41
0.0
 71
     1
 72
     1
  1
166.8
  7
SLDTEXTSTYLE0
 73
     1
 44
1.0
  0
ENDBLK
  5
1C9
330
1C7
100
AcDbEntity
  8
0
100
AcDbBlockEnd
  0
BLOCK
  5
1D2
330
1D1
100
AcDbEntity
  8
0
100
AcDbBlockBegin
  2
_D_2
 70
     0
 10
0.0
 20
0.0
 30
0.0
  3
_D_2
  1

  0
SOLID
  5
1D4
330
1D1
100
AcDbEntity
  8
VERMASSUNG
100
AcDbTrace
 10
160.3087271721
 20
174.6576939922
 30
0.0
 11
163.3087271721
 21
174.2076939922
 31
0.0
 12
163.3087271721
 22
175.1076939922
 32
0.0
 13
163.3087271721
 23
175.1076939922
 33
0.0
  0
SOLID
  5
1D5
330
1D1
100
AcDbEntity
  8
VERMASSUNG
100
AcDbTrace
 10
225.3087271721
 20
174.6576939922
 30
0.0
 11
222.3087271721
 21
175.1076939922
 31
0.0
 12
222.3087271721
 22
174.2076939922
 32
0.0
 13
222.3087271721
 23
174.2076939922
 33
0.0
  0
LINE
  5
1D6
330
1D1
100
AcDbEntity
  8
VERMASSUNG
100
AcDbLine
 10
160.3087271721
 20
149.3455252601
 30
0.0
 11
160.3087271721
 21
175.6576939922
 31
0.0
  0
LINE
  5
1D7
330
1D1
100
AcDbEntity
  8
VERMASSUNG
100
AcDbLine
 10
225.3087271721
 20
138.9205252601
 30
0.0
 11
225.3087271721
 21
175.6576939922
 31
0.0
  0
LINE
  5
1D8
330
1D1
100
AcDbEntity
  8
VERMASSUNG
100
AcDbLine
 10
160.3087271721
 20
174.6576939922
 30
0.0
 11
225.3087271721
 21
174.6576939922
 31
0.0
  0
MTEXT
  5
1D9
330
1D1
100
AcDbEntity
  8
VERMASSUNG
100
AcDbMText
 10
191.408727222
 20
177.2358295882
 30
0.0
 40
2.0
 41
0.0
 71
     1
 72
     1
  1
65
  7
SLDTEXTSTYLE0
 73
     1
 44
1.0
  0
ENDBLK
  5
1D3
330
1D1
100
AcDbEntity
  8
0
100
AcDbBlockEnd
  0
BLOCK
  5
1DC
330
1DB
100
AcDbEntity
  8
0
100
AcDbBlockBegin
  2
_D_3
 70
     0
 10
0.0
 20
0.0
 30
0.0
  3
_D_3
  1

  0
SOLID
  5
1DE
330
1DB
100
AcDbEntity
  8
VERMASSUNG
100
AcDbTrace
 10
198.3087271721
 20
168.6576939922
 30
0.0
 11
201.3087271721
 21
168.2076939922
 31
0.0
 12
201.3087271721
 22
169.1076939922
 32
0.0
 13
201.3087271721
 23
169.1076939922
 33
0.0
  0
SOLID
  5
1DF
330
1DB
100
AcDbEntity
  8
VERMASSUNG
100
AcDbTrace
 10
225.3087271721
 20
168.6576939922
 30
0.0
 11
222.3087271721
 21
169.1076939922
 31
0.0
 12
222.3087271721
 22
168.2076939922
 32
0.0
 13
222.3087271721
 23
168.2076939922
 33
0.0
  0
LINE
  5
1E0
330
1DB
100
AcDbEntity
  8
VERMASSUNG
100
AcDbLine
 10
198.3087271721
 20
163.4205252601
 30
0.0
 11
198.3087271721
 21
169.6576939922
 31
0.0
  0
LINE
  5
1E1
330
1DB
100
AcDbEntity
  8
VERMASSUNG
100
AcDbLine
 10
225.3087271721
 20
138.9205252601
 30
0.0
 11
225.3087271721
 21
169.6576939922
 31
0.0
  0
LINE
  5
1E2
330
1DB
100
AcDbEntity
  8
VERMASSUNG
100
AcDbLine
 10
198.3087271721
 20
168.6576939922
 30
0.0
 11
225.3087271721
 21
168.6576939922
 31
0.0
  0
MTEXT
  5
1E3
330
1DB
100
AcDbEntity
  8
VERMASSUNG
100
AcDbMText
 10
210.408727222
 20
171.2358295882
 30
0.0
 40
2.0
 41
0.0
 71
     1
 72
     1
  1
27
  7
SLDTEXTSTYLE0
 73
     1
 44
1.0
  0
ENDBLK
  5
1DD
330
1DB
100
AcDbEntity
  8
0
100
AcDbBlockEnd
  0
BLOCK
  5
1E6
330
1E5
100
AcDbEntity
  8
0
100
AcDbBlockBegin
  2
_D_4
 70
     0
 10
0.0
 20
0.0
 30
0.0
  3
_D_4
  1

  0
SOLID
  5
1E8
330
1E5
100
AcDbEntity
  8
VERMASSUNG
100
AcDbTrace
 10
240.3184142883
 20
139.4205252601
 30
0.0
 11
239.8684142883
 21
136.4205252601
 31
0.0
 12
240.7684142883
 22
136.4205252601
 32
0.0
 13
240.7684142883
 23
136.4205252601
 33
0.0
  0
SOLID
  5
1E9
330
1E5
100
AcDbEntity
  8
VERMASSUNG
100
AcDbTrace
 10
240.3184142883
 20
89.4205252601
 30
0.0
 11
240.7684142883
 21
92.4205252601
 31
0.0
 12
239.8684142883
 22
92.4205252601
 32
0.0
 13
239.8684142883
 23
92.4205252601
 33
0.0
  0
LINE
  5
1EA
330
1E5
100
AcDbEntity
  8
VERMASSUNG
100
AcDbLine
 10
224.8087271721
 20
139.4205252601
 30
0.0
 11
241.3184142883
 21
139.4205252601
 31
0.0
  0
LINE
  5
1EB
330
1E5
100
AcDbEntity
  8
VERMASSUNG
100
AcDbLine
 10
224.8087271721
 20
89.4205252601
 30
0.0
 11
241.3184142883
 21
89.4205252601
 31
0.0
  0
LINE
  5
1EC
330
1E5
100
AcDbEntity
  8
VERMASSUNG
100
AcDbLine
 10
240.3184142883
 20
139.4205252601
 30
0.0
 11
240.3184142883
 21
89.4205252601
 31
0.0
  0
MTEXT
  5
1ED
330
1E5
100
AcDbEntity
  8
VERMASSUNG
100
AcDbMText
 10
237.7402789834
 20
111.2155253029
 30
0.0
 40
2.0
 41
0.0
 71
     1
 72
     1
  1
%%c
  7
SLDTEXTSTYLE0
 11
-7.044195017643634E-15
 21
1.0
 31
0.0
 73
     1
 44
1.0
  0
MTEXT
  5
1EE
330
1E5
100
AcDbEntity
  8
VERMASSUNG
100
AcDbMText
 10
237.5402790321
 20
114.8255253172
 30
0.0
 40
2.0
 41
0.0
 71
     1
 72
     1
  1
50
  7
SLDTEXTSTYLE0
 11
-7.044195017643634E-15
 21
1.0
 31
0.0
 73
     1
 44
1.0
  0
ENDBLK
  5
1E7
330
1E5
100
AcDbEntity
  8
0
100
AcDbBlockEnd
  0
BLOCK
  5
1F1
330
1F0
100
AcDbEntity
  8
0
100
AcDbBlockBegin
  2
_D_5
 70
     0
 10
0.0
 20
0.0
 30
0.0
  3
_D_5
  1

  0
SOLID
  5
1F3
330
1F0
100
AcDbEntity
  8
VERMASSUNG
100
AcDbTrace
 10
234.3184142883
 20
128.4205252601
 30
0.0
 11
233.8684142883
 21
125.4205252601
 31
0.0
 12
234.7684142883
 22
125.4205252601
 32
0.0
 13
234.7684142883
 23
125.4205252601
 33
0.0
  0
SOLID
  5
1F4
330
1F0
100
AcDbEntity
  8
VERMASSUNG
100
AcDbTrace
 10
234.3184142883
 20
100.4205252601
 30
0.0
 11
234.7684142883
 21
103.4205252601
 31
0.0
 12
233.8684142883
 22
103.4205252601
 32
0.0
 13
233.8684142883
 23
103.4205252601
 33
0.0
  0
LINE
  5
1F5
330
1F0
100
AcDbEntity
  8
VERMASSUNG
100
AcDbLine
 10
224.3087271721
 20
128.4205252601
 30
0.0
 11
235.3184142883
 21
128.4205252601
 31
0.0
  0
LINE
  5
1F6
330
1F0
100
AcDbEntity
  8
VERMASSUNG
100
AcDbLine
 10
224.3087271721
 20
100.4205252601
 30
0.0
 11
235.3184142883
 21
100.4205252601
 31
0.0
  0
LINE
  5
1F7
330
1F0
100
AcDbEntity
  8
VERMASSUNG
100
AcDbLine
 10
234.3184142883
 20
128.4205252601
 30
0.0
 11
234.3184142883
 21
100.4205252601
 31
0.0
  0
MTEXT
  5
1F8
330
1F0
100
AcDbEntity
  8
VERMASSUNG
100
AcDbMText
 10
231.5402790321
 20
109.3155252709
 30
0.0
 40
2.0
 41
0.0
 71
     1
 72
     1
  1
WH
  7
SLDTEXTSTYLE0
 11
-7.044195017643634E-15
 21
1.0
 31
0.0
 73
     1
 44
1.0
  0
MTEXT
  5
1F9
330
1F0
100
AcDbEntity
  8
VERMASSUNG
100
AcDbMText
 10
231.7402789834
 20
113.1155253349
 30
0.0
 40
2.0
 41
0.0
 71
     1
 72
     1
  1
%%c
  7
SLDTEXTSTYLE0
 11
-7.044195017643634E-15
 21
1.0
 31
0.0
 73
     1
 44
1.0
  0
MTEXT
  5
1FA
330
1F0
100
AcDbEntity
  8
VERMASSUNG
100
AcDbMText
 10
231.5402790321
 20
116.7255253492
 30
0.0
 40
2.0
 41
0.0
 71
     1
 72
     1
  1
28
  7
SLDTEXTSTYLE0
 11
-7.044195017643634E-15
 21
1.0
 31
0.0
 73
     1
 44
1.0
  0
ENDBLK
  5
1F2
330
1F0
100
AcDbEntity
  8
0
100
AcDbBlockEnd
  0
ENDSEC
  0
SECTION
  2
ENTITIES
  0
MTEXT
  5
78
330
1F
100
AcDbEntity
  8
KOPF_DÜNN
100
AcDbMText
 10
13.8892156294
 20
23.8442973028
 30
0.0
 40
3.0
 41
0.0
 71
     1
 72
     1
  1
A34.550.050.065
  7
SLDTEXTSTYLE0
 73
     1
 44
1.0
  0
MTEXT
  5
79
330
1F
100
AcDbEntity
  8
VERMASSUNG
100
AcDbMText
 10
13.9329988022
 20
28.8834360957
 30
0.0
 40
3.0
 41
0.0
 71
     1
 72
     1
  1
Aufnahme_Master shank
  7
SLDTEXTSTYLE0
 73
     1
 44
1.0
  0
MTEXT
  5
7A
330
1F
100
AcDbEntity
  8
VERMASSUNG
100
AcDbMText
 10
98.8601118557
 20
13.8365368761
 30
0.0
 40
2.0
 41
0.0
 71
     1
 72
     1
  1
Datum: 17.11.2011
  7
SLDTEXTSTYLE0
 73
     1
 44
1.0
  0
MTEXT
  5
7B
330
1F
100
AcDbEntity
  8
VERMASSUNG
100
AcDbMText
 10
13.933048693
 20
18.0482802738
 30
0.0
 40
2.0
 41
0.0
 71
     1
 72
     1
  1
MAS-BT A/D
  7
SLDTEXTSTYLE0
 73
     1
 44
1.0
  0
MTEXT
  5
7C
330
1F
100
AcDbEntity
  8
VERMASSUNG
100
AcDbMText
 10
13.9808475933
 20
13.9090974274
 30
0.0
 40
2.0
 41
0.0
 71
     1
 72
     1
  1
Gewicht: 3924g
  7
SLDTEXTSTYLE0
 73
     1
 44
1.0
  0
LINE
  5
7D
330
1F
100
AcDbEntity
  8
0
  6
Continuous
 62
     7
370
    15
100
AcDbLine
 10
194.3084399454
 20
64.4205252601
 30
0.0
 11
197.3087271721
 21
64.4205252601
 31
0.0
  0
LINE
  5
7E
330
1F
100
AcDbEntity
  8
0
  6
Continuous
 62
     7
370
    15
100
AcDbLine
 10
197.3087271721
 20
164.4205252601
 30
0.0
 11
194.3082929912
 21
164.4205252601
 31
0.0
  0
ARC
  5
7F
330
1F
100
AcDbEntity
  8
0
  6
Continuous
 62
     7
370
    15
100
AcDbCircle
 10
197.3087271721
 20
65.4205252601
 30
0.0
 40
1.0
100
AcDbArc
 50
270.0
 51
0.0
  0
ARC
  5
80
330
1F
100
AcDbEntity
  8
0
  6
Continuous
 62
     7
370
    15
100
AcDbCircle
 10
197.3087271721
 20
163.4205252601
 30
0.0
 40
1.0
100
AcDbArc
 50
0.0
 51
90.0
  0
ARC
  5
81
330
1F
100
AcDbEntity
  8
0
  6
Continuous
 62
     7
370
    15
100
AcDbCircle
 10
162.3087271721
 20
78.4955252601
 30
0.0
 40
1.0
100
AcDbArc
 50
38.7224075187
 51
90.0
  0
ARC
  5
82
330
1F
100
AcDbEntity
  8
0
  6
Continuous
 62
     7
370
    15
100
AcDbCircle
 10
162.3087271721
 20
150.3455252601
 30
0.0
 40
1.0
100
AcDbArc
 50
270.0
 51
321.2903429194
  0
LINE
  5
83
330
1F
100
AcDbEntity
  8
0
  6
Continuous
 62
     7
370
    15
100
AcDbLine
 10
160.3087271721
 20
79.4955252601
 30
0.0
 11
162.3087271721
 21
79.4955252601
 31
0.0
  0
LINE
  5
84
330
1F
100
AcDbEntity
  8
0
  6
Continuous
 62
     7
370
    15
100
AcDbLine
 10
162.3087271721
 20
149.3455252601
 30
0.0
 11
160.3087271721
 21
149.3455252601
 31
0.0
  0
LINE
  5
85
330
1F
100
AcDbEntity
  8
0
  6
Continuous
 62
     7
370
    15
100
AcDbLine
 10
160.3087271721
 20
149.3455252601
 30
0.0
 11
60.220113386
 21
134.749269083
 31
0.0
  0
LINE
  5
86
330
1F
100
AcDbEntity
  8
0
  6
Continuous
 62
     7
370
    15
100
AcDbLine
 10
60.220113386
 20
94.0917814373
 30
0.0
 11
160.3087271721
 21
79.4955252601
 31
0.0
  0
ARC
  5
87
330
1F
100
AcDbEntity
  8
0
  6
Continuous
 62
     7
370
    15
100
AcDbCircle
 10
201.3087271721
 20
86.4205252601
 30
0.0
 40
3.0
100
AcDbArc
 50
90.0
 51
180.0
  0
ARC
  5
88
330
1F
100
AcDbEntity
  8
0
  6
Continuous
 62
     7
370
    15
100
AcDbCircle
 10
201.3087271721
 20
142.4205252601
 30
0.0
 40
3.0
100
AcDbArc
 50
180.0
 51
270.0
  0
LINE
  5
89
330
1F
100
AcDbEntity
  8
0
  6
Continuous
 62
     7
370
    15
100
AcDbLine
 10
203.7728092777
 20
139.4205252601
 30
0.0
 11
201.3087271721
 21
139.4205252601
 31
0.0
  0
LINE
  5
8A
330
1F
100
AcDbEntity
  8
0
  6
Continuous
 62
     7
370
    15
100
AcDbLine
 10
224.8087271721
 20
139.4205252601
 30
0.0
 11
218.7526475117
 21
139.4205252601
 31
0.0
  0
LINE
  5
8B
330
1F
100
AcDbEntity
  8
0
  6
Continuous
 62
     7
370
    15
100
AcDbLine
 10
201.3087271721
 20
89.4205252601
 30
0.0
 11
224.8087271721
 21
89.4205252601
 31
0.0
  0
LINE
  5
8C
330
1F
100
AcDbEntity
  8
0
  6
Continuous
 62
     7
370
    15
100
AcDbLine
 10
224.8087271721
 20
89.4205252601
 30
0.0
 11
225.3087271721
 21
89.9205252601
 31
0.0
  0
LINE
  5
8D
330
1F
100
AcDbEntity
  8
0
  6
Continuous
 62
     7
370
    15
100
AcDbLine
 10
225.3087271721
 20
138.9205252601
 30
0.0
 11
224.8087271721
 21
139.4205252601
 31
0.0
  0
ARC
  5
8E
330
1F
100
AcDbEntity
  8
0
  6
Continuous
 62
     7
370
    15
100
AcDbCircle
 10
60.5087271721
 20
96.0708473994
 30
0.0
 40
2.000000000000007
100
AcDbArc
 50
180.0
 51
261.7028550302
  0
ARC
  5
8F
330
1F
100
AcDbEntity
  8
0
  6
Continuous
 62
     7
370
    15
100
AcDbCircle
 10
60.5087271721
 20
132.7702031209
 30
0.0
 40
2.000000000000007
100
AcDbArc
 50
98.2971449698
 51
180.0
  0
SPLINE
  5
90
330
1F
100
AcDbEntity
  8
0
  6
Continuous
 62
     7
370
    15
100
AcDbSpline
210
0.0
220
0.0
230
1.0
 70
    24
 71
     3
 72
    12
 73
     8
 74
     0
 42
0.000000001
 43
0.00000001
 40
0.0
 40
0.0
 40
0.0
 40
0.0
 40
0.2161857461390007
 40
0.4397628073511761
 40
0.593418566635393
 40
0.7522096186329069
 40
1.0
 40
1.0
 40
1.0
 40
1.0
 10
214.1305490110834
 20
112.4833522360638
 30
0.0
 10
214.1471003133564
 20
112.7199616580086
 30
0.0
 10
214.1807688011401
 20
113.2012700953063
 30
0.0
 10
214.2302673473463
 20
113.908877400871
 30
0.0
 10
214.2755222582443
 20
114.5558197460193
 30
0.0
 10
214.3220016883241
 20
115.2202672258692
 30
0.0
 10
214.3532406242093
 20
115.6668439628568
 30
0.0
 10
214.3722791419606
 20
115.9390094157948
 30
0.0
  0
SPLINE
  5
91
330
1F
100
AcDbEntity
  8
0
  6
Continuous
 62
     7
370
    15
100
AcDbSpline
210
0.0
220
0.0
230
1.0
 70
    24
 71
     3
 72
    13
 73
     9
 74
     0
 42
0.000000001
 43
0.00000001
 40
0.0
 40
0.0
 40
0.0
 40
0.0
 40
0.1844095697099057
 40
0.3495005370884492
 40
0.5197705331556528
 40
0.6927076360809702
 40
0.8718061725834245
 40
1.0
 40
1.0
 40
1.0
 40
1.0
 10
211.5004573029823
 20
117.8761824398601
 30
0.0
 10
211.3189912609468
 20
117.7876811679077
 30
0.0
 10
210.9750694175497
 20
117.6199499480527
 30
0.0
 10
210.4283719648412
 20
117.3533247470225
 30
0.0
 10
209.8759227082921
 20
117.0838943822811
 30
0.0
 10
209.3112856430662
 20
116.8085200042243
 30
0.0
 10
208.8133675036191
 20
116.5656845504117
 30
0.0
 10
208.5124427645572
 20
116.4189230854555
 30
0.0
 10
208.3869053331265
 20
116.3576982841945
 30
0.0
  0
SPLINE
  5
92
330
1F
100
AcDbEntity
  8
0
  6
Continuous
 62
     7
370
    15
100
AcDbSpline
210
0.0
220
0.0
230
1.0
 70
    24
 71
     3
 72
    12
 73
     8
 74
     0
 42
0.000000001
 43
0.00000001
 40
0.0
 40
0.0
 40
0.0
 40
0.0
 40
0.2161857461389973
 40
0.4397628073512067
 40
0.5934185666354035
 40
0.75220961863289
 40
0.9999999999999999
 40
0.9999999999999999
 40
0.9999999999999999
 40
0.9999999999999999
 10
208.3869053331265
 20
116.3576982841945
 30
0.0
 10
208.3703540308535
 20
116.1210888622497
 30
0.0
 10
208.3366855430698
 20
115.639780424952
 30
0.0
 10
208.2871869968636
 20
114.9321731193872
 30
0.0
 10
208.2419320859656
 20
114.2852307742389
 30
0.0
 10
208.1954526558858
 20
113.6207832943892
 30
0.0
 10
208.1642137200006
 20
113.1742065574015
 30
0.0
 10
208.1451752022492
 20
112.9020411044635
 30
0.0
  0
SPLINE
  5
93
330
1F
100
AcDbEntity
  8
0
  6
Continuous
 62
     7
370
    15
100
AcDbSpline
210
0.0
220
0.0
230
1.0
 70
    24
 71
     3
 72
    12
 73
     8
 74
     0
 42
0.000000001
 43
0.00000001
 40
0.0
 40
0.0
 40
0.0
 40
0.0
 40
0.2161857461389844
 40
0.4397628073511928
 40
0.5934185666353969
 40
0.7522096186328963
 40
1.0
 40
1.0
 40
1.0
 40
1.0
 10
208.1451752022492
 20
112.9020411044635
 30
0.0
 10
208.3418093212917
 20
112.769402545257
 30
0.0
 10
208.7418004111555
 20
112.4995905608805
 30
0.0
 10
209.3298570405748
 20
112.102919909633
 30
0.0
 10
209.8674980908082
 20
111.7402568345752
 30
0.0
 10
210.4196867727988
 20
111.3677807274479
 30
0.0
 10
210.7908141038266
 20
111.1174386468903
 30
0.0
 10
211.0169970412277
 20
110.9648680803982
 30
0.0
  0
SPLINE
  5
94
330
1F
100
AcDbEntity
  8
0
  6
Continuous
 62
     7
370
    15
100
AcDbSpline
210
0.0
220
0.0
230
1.0
 70
    24
 71
     3
 72
    13
 73
     9
 74
     0
 42
0.000000001
 43
0.00000001
 40
0.0
 40
0.0
 40
0.0
 40
0.0
 40
0.1281940639112381
 40
0.3016059688761566
 40
0.4802226824374641
 40
0.6449624637537935
 40
0.8155900900874862
 40
1.0
 40
1.0
 40
1.0
 40
1.0
 10
211.0169970412277
 20
110.9648680803982
 30
0.0
 10
211.1425381478991
 20
111.0260946740799
 30
0.0
 10
211.4379024257461
 20
111.1701442934221
 30
0.0
 10
211.9352176923685
 20
111.4126857252171
 30
0.0
 10
212.4938887484273
 20
111.6851504712909
 30
0.0
 10
213.0523895672046
 20
111.9575321923767
 30
0.0
 10
213.5997303756928
 20
112.224471159025
 30
0.0
 10
213.9490888569399
 20
112.3948538356455
 30
0.0
 10
214.1305490110834
 20
112.4833522360638
 30
0.0
  0
CIRCLE
  5
95
330
1F
100
AcDbEntity
  8
0
  6
Continuous
 62
     7
370
    15
100
AcDbCircle
 10
211.2587271721
 20
114.4205252601
 30
0.0
 40
3.599999999999998
  0
SPLINE
  5
96
330
1F
100
AcDbEntity
  8
0
  6
Continuous
 62
     7
370
    15
100
AcDbSpline
210
0.0
220
0.0
230
1.0
 70
    24
 71
     3
 72
    12
 73
     8
 74
     0
 42
0.000000001
 43
0.00000001
 40
0.0
 40
0.0
 40
0.0
 40
0.0
 40
0.2161857461389769
 40
0.4397628073511753
 40
0.5934185666353737
 40
0.7522096186328655
 40
1.0
 40
1.0
 40
1.0
 40
1.0
 10
214.3722791419606
 20
115.9390094157948
 30
0.0
 10
214.1756450229182
 20
116.0716479750013
 30
0.0
 10
213.7756539330544
 20
116.3414599593778
 30
0.0
 10
213.1875973036351
 20
116.7381306106251
 30
0.0
 10
212.6499562534018
 20
117.100793685683
 30
0.0
 10
212.0977675714113
 20
117.4732697928105
 30
0.0
 10
211.7266402403834
 20
117.723611873368
 30
0.0
 10
211.5004573029823
 20
117.8761824398601
 30
0.0
  0
CIRCLE
  5
97
330
1F
100
AcDbEntity
  8
0
  6
Continuous
 62
     7
370
    15
100
AcDbCircle
 10
211.2587271721
 20
114.4205252601
 30
0.0
 40
5.300000000000002
  0
ARC
  5
98
330
1F
100
AcDbEntity
  8
0
  6
Continuous
 62
     7
370
    15
100
AcDbCircle
 10
211.2587271721
 20
114.4205252601
 30
0.0
 40
3.000000000000023
100
AcDbArc
 50
235.9985638582
 51
295.9985638582
  0
ARC
  5
99
330
1F
100
AcDbEntity
  8
0
  6
Continuous
 62
     7
370
    15
100
AcDbCircle
 10
211.2587271721
 20
114.4205252601
 30
0.0
 40
3.000000000000023
100
AcDbArc
 50
175.9985638582
 51
235.9985638582
  0
ARC
  5
9A
330
1F
100
AcDbEntity
  8
0
  6
Continuous
 62
     7
370
    15
100
AcDbCircle
 10
211.2587271721
 20
114.4205252601
 30
0.0
 40
2.999999999999978
100
AcDbArc
 50
115.9985638582
 51
175.9985638582
  0
ARC
  5
9B
330
1F
100
AcDbEntity
  8
0
  6
Continuous
 62
     7
370
    15
100
AcDbCircle
 10
211.2587271721
 20
114.4205252601
 30
0.0
 40
3.000000000000037
100
AcDbArc
 50
355.9985638582
 51
55.9985638582
  0
ARC
  5
9C
330
1F
100
AcDbEntity
  8
0
  6
Continuous
 62
     7
370
    15
100
AcDbCircle
 10
211.2587271721
 20
114.4205252601
 30
0.0
 40
3.000000000000037
100
AcDbArc
 50
295.9985638582
 51
355.9985638582
  0
ARC
  5
9D
330
1F
100
AcDbEntity
  8
0
  6
Continuous
 62
     7
370
    15
100
AcDbCircle
 10
211.2587271721
 20
114.4205252601
 30
0.0
 40
3.000000000000028
100
AcDbArc
 50
55.9985638582
 51
115.9985638582
  0
SPLINE
  5
9E
330
1F
100
AcDbEntity
  8
0
  6
Continuous
 62
     7
370
    15
100
AcDbSpline
210
0.0
220
0.0
230
1.0
 70
     8
 71
     3
 72
    12
 73
     8
 74
     0
 42
0.000000001
 43
0.00000001
 40
0.0
 40
0.0
 40
0.0
 40
0.0
 40
0.4999999999999999
 40
0.4999999999999999
 40
0.7499999999999999
 40
0.7499999999999999
 40
1.0
 40
1.0
 40
1.0
 40
1.0
 10
190.3930068369484
 20
162.62657221183
 30
0.0
 10
189.8541101418509
 20
161.568872394329
 30
0.0
 10
189.2917793311312
 20
160.4665039593704
 30
0.0
 10
188.4231130885408
 20
158.7665393530076
 30
0.0
 10
188.1287843661983
 20
158.191020937569
 30
0.0
 10
187.5352533672305
 20
157.0315922691105
 30
0.0
 10
187.236027109112
 20
156.4476326000292
 30
0.0
 10
186.9345402608587
 20
155.8599226394404
 30
0.0
  0
SPLINE
  5
9F
330
1F
100
AcDbEntity
  8
0
  6
Continuous
 62
     7
370
    15
100
AcDbSpline
210
0.0
220
0.0
230
1.0
 70
     8
 71
     3
 72
     9
 73
     5
 74
     0
 42
0.000000001
 43
0.00000001
 40
0.0
 40
0.0
 40
0.0
 40
0.0
 40
0.5047934464435396
 40
0.9999999999999999
 40
0.9999999999999999
 40
0.9999999999999999
 40
0.9999999999999999
 10
191.0337035775171
 20
163.5806305102165
 30
0.0
 10
190.92532141501
 20
163.41978941766
 30
0.0
 10
190.7106154530553
 20
163.1011618806156
 30
0.0
 10
190.4981878590041
 20
162.783787280298
 30
0.0
 10
190.3929923222737
 20
162.6266212982885
 30
0.0
  0
LINE
  5
A0
330
1F
100
AcDbEntity
  8
0
  6
Continuous
 62
     7
370
    15
100
AcDbLine
 10
191.0337271721
 20
65.2603639748
 30
0.0
 11
191.0337271721
 21
163.5806865454
 31
0.0
  0
SPLINE
  5
A1
330
1F
100
AcDbEntity
  8
0
  6
Continuous
 62
     7
370
    15
100
AcDbSpline
210
0.0
220
0.0
230
1.0
 70
     8
 71
     3
 72
     9
 73
     5
 74
     0
 42
0.000000001
 43
0.00000001
 40
0.0
 40
0.0
 40
0.0
 40
0.0
 40
0.4952065535550564
 40
1.0
 40
1.0
 40
1.0
 40
1.0
 10
190.3929923222737
 20
66.21442922196965
 30
0.0
 10
190.4981878590038
 20
66.05726323996059
 30
0.0
 10
190.7106154530549
 20
65.73988863964321
 30
0.0
 10
190.9253214150097
 20
65.42126110259863
 30
0.0
 10
191.0337035775171
 20
65.26042001004163
 30
0.0
  0
SPLINE
  5
A2
330
1F
100
AcDbEntity
  8
0
  6
Continuous
 62
     7
370
    15
100
AcDbSpline
210
0.0
220
0.0
230
1.0
 70
     8
 71
     3
 72
    12
 73
     8
 74
     0
 42
0.000000001
 43
0.00000001
 40
0.0
 40
0.0
 40
0.0
 40
0.0
 40
0.2499999999999993
 40
0.2499999999999993
 40
0.4999999999999986
 40
0.4999999999999986
 40
1.0
 40
1.0
 40
1.0
 40
1.0
 10
190.3930068047095
 20
66.21447837170386
 30
0.0
 10
190.1236692833407
 20
66.74311076038849
 30
0.0
 10
189.8478991659466
 20
67.2840354143352
 30
0.0
 10
189.2856388793409
 20
68.38609216869824
 30
0.0
 10
188.9985535059361
 20
68.94838900793506
 30
0.0
 10
188.1281270652169
 20
70.65178424325505
 30
0.0
 10
187.5361170690476
 20
71.80843101433715
 30
0.0
 10
186.9345402608587
 20
72.98112788081778
 30
0.0
  0
SPLINE
  5
A3
330
1F
100
AcDbEntity
  8
0
  6
Continuous
 62
     7
370
    15
100
AcDbSpline
210
0.0
220
0.0
230
1.0
 70
     8
 71
     3
 72
    12
 73
     8
 74
     0
 42
0.000000001
 43
0.00000001
 40
0.0
 40
0.0
 40
0.0
 40
0.0
 40
0.000512515335492
 40
0.2509311781591447
 40
0.5009716914396601
 40
0.7506335204375875
 40
1.0
 40
1.0
 40
1.0
 40
1.0
 10
194.3082929911749
 20
164.4204002179454
 30
0.0
 10
194.3084374478617
 20
164.4204418912628
 30
0.0
 10
194.3791644761525
 20
164.4408454458502
 30
0.0
 10
194.1359009158752
 20
164.3692338144637
 30
0.0
 10
193.5303763016704
 20
164.2008806059918
 30
0.0
 10
192.5052126172542
 20
163.9235470155361
 30
0.0
 10
191.5240287500295
 20
163.6949282662126
 30
0.0
 10
191.033727172792
 20
163.5806865454469
 30
0.0
  0
SPLINE
  5
A4
330
1F
100
AcDbEntity
  8
0
  6
Continuous
 62
     7
370
    15
100
AcDbSpline
210
0.0
220
0.0
230
1.0
 70
     8
 71
     3
 72
    13
 73
     9
 74
     0
 42
0.000000001
 43
0.00000001
 40
0.0
 40
0.0
 40
0.0
 40
0.0
 40
0.2492492380419432
 40
0.4988437701386138
 40
0.6658825660855864
 40
0.8320256711230404
 40
0.9994886337290243
 40
1.0
 40
1.0
 40
1.0
 40
1.0
 10
191.033727172792
 20
65.26036397481126
 30
0.0
 10
191.5249118962113
 20
65.14587645112134
 30
0.0
 10
192.5079617991511
 20
64.91674280000181
 30
0.0
 10
193.4070052239611
 20
64.67353304885177
 30
0.0
 10
193.9653301246481
 20
64.51959584146613
 30
0.0
 10
194.2310013493547
 20
64.44334228261657
 30
0.0
 10
194.3398955953767
 20
64.41142809829209
 30
0.0
 10
194.308535415554
 20
64.42058101223633
 30
0.0
 10
194.3084399453811
 20
64.4206088765624
 30
0.0
  0
LINE
  5
A5
330
1F
100
AcDbEntity
  8
0
  6
Continuous
 62
     7
370
    15
100
AcDbLine
 10
198.3087271721
 20
65.4205252601
 30
0.0
 11
198.3087271721
 21
163.4205252601
 31
0.0
  0
LINE
  5
A6
330
1F
100
AcDbEntity
  8
0
  6
Continuous
 62
     7
370
    15
100
AcDbLine
 10
175.9837271721
 20
162.5256167556
 30
0.0
 11
164.3087271721
 21
162.5256167556
 31
0.0
  0
LINE
  5
A7
330
1F
100
AcDbEntity
  8
0
  6
Continuous
 62
     7
370
    15
100
AcDbLine
 10
175.9837271721
 20
66.3154337647
 30
0.0
 11
175.9837271721
 21
162.5256167556
 31
0.0
  0
LINE
  5
A8
330
1F
100
AcDbEntity
  8
0
  6
Continuous
 62
     7
370
    15
100
AcDbLine
 10
164.3087271721
 20
66.3154337647
 30
0.0
 11
175.9837271721
 21
66.3154337647
 31
0.0
  0
LINE
  5
A9
330
1F
100
AcDbEntity
  8
0
  6
Continuous
 62
     7
370
    15
100
AcDbLine
 10
163.3087271721
 20
67.4186370002
 30
0.0
 11
163.3087271721
 21
161.4224135201
 31
0.0
  0
SPLINE
  5
AA
330
1F
100
AcDbEntity
  8
0
  6
Continuous
 62
     7
370
    15
100
AcDbSpline
210
0.0
220
0.0
230
1.0
 70
     8
 71
     3
 72
    12
 73
     8
 74
     0
 42
0.000000001
 43
0.00000001
 40
0.0
 40
0.0
 40
0.0
 40
0.0
 40
0.2500000000000004
 40
0.2500000000000004
 40
0.5000000000000009
 40
0.5000000000000009
 40
1.0
 40
1.0
 40
1.0
 40
1.0
 10
163.6948635921547
 20
162.3549589940003
 30
0.0
 10
163.643233470045
 20
162.2987547232857
 30
0.0
 10
163.5947012370545
 20
162.2374653127653
 30
0.0
 10
163.5048761000967
 20
162.1030032387206
 30
0.0
 10
163.4631658268842
 20
162.0288841684777
 30
0.0
 10
163.3570344467221
 20
161.7925765233093
 30
0.0
 10
163.308727172105
 20
161.6107529806594
 30
0.0
 10
163.308727172105
 20
161.4224135200703
 30
0.0
  0
SPLINE
  5
AB
330
1F
100
AcDbEntity
  8
0
  6
Continuous
 62
     7
370
    15
100
AcDbSpline
210
0.0
220
0.0
230
1.0
 70
     8
 71
     3
 72
     8
 73
     4
 74
     0
 42
0.000000001
 43
0.00000001
 40
0.0
 40
0.0
 40
0.0
 40
0.0
 40
1.0
 40
1.0
 40
1.0
 40
1.0
 10
164.308727172105
 20
162.5256167555934
 30
0.0
 10
164.0818329284052
 20
162.5256167555934
 30
0.0
 10
163.8639832824789
 20
162.4616045886246
 30
0.0
 10
163.6948635921547
 20
162.3549589940003
 30
0.0
  0
SPLINE
  5
AC
330
1F
100
AcDbEntity
  8
0
  6
Continuous
 62
     7
370
    15
100
AcDbSpline
210
0.0
220
0.0
230
1.0
 70
     8
 71
     3
 72
    10
 73
     6
 74
     0
 42
0.000000001
 43
0.00000001
 40
0.0
 40
0.0
 40
0.0
 40
0.0
 40
0.5
 40
0.5
 40
1.0
 40
1.0
 40
1.0
 40
1.0
 10
163.6948635921547
 20
66.48609152625781
 30
0.0
 10
163.7794742328855
 20
66.43273669764513
 30
0.0
 10
163.874708854992
 20
66.39016723569492
 30
0.0
 10
164.0847462141719
 20
66.33088490101396
 30
0.0
 10
164.1951781189561
 20
66.3154337646647
 30
0.0
 10
164.308727172105
 20
66.3154337646647
 30
0.0
  0
SPLINE
  5
AD
330
1F
100
AcDbEntity
  8
0
  6
Continuous
 62
     7
370
    15
100
AcDbSpline
210
0.0
220
0.0
230
1.0
 70
     8
 71
     3
 72
    12
 73
     8
 74
     0
 42
0.000000001
 43
0.00000001
 40
0.0
 40
0.0
 40
0.0
 40
0.0
 40
0.2500000000000039
 40
0.2500000000000039
 40
0.5000000000000079
 40
0.5000000000000079
 40
1.0
 40
1.0
 40
1.0
 40
1.0
 10
163.6948635921547
 20
66.48609152625781
 30
0.0
 10
163.643233470045
 20
66.54229579697245
 30
0.0
 10
163.5947012370545
 20
66.60358520749286
 30
0.0
 10
163.5048761000967
 20
66.73804728153756
 30
0.0
 10
163.4631658268842
 20
66.81216635178039
 30
0.0
 10
163.3570344467221
 20
67.04847399694884
 30
0.0
 10
163.308727172105
 20
67.23029753959874
 30
0.0
 10
163.308727172105
 20
67.41863700018786
 30
0.0
  0
SPLINE
  5
AE
330
1F
100
AcDbEntity
  8
0
  6
Continuous
 62
     7
370
    15
100
AcDbSpline
210
0.0
220
0.0
230
1.0
 70
     8
 71
     3
 72
     8
 73
     4
 74
     0
 42
0.000000001
 43
0.00000001
 40
0.0
 40
0.0
 40
0.0
 40
0.0
 40
0.0012417047560384
 40
0.0012417047560384
 40
0.0012417047560384
 40
0.0012417047560384
 10
176.5412962086327
 20
161.7410954140501
 30
0.0
 10
176.3559076573383
 20
162.0027684995986
 30
0.0
 10
176.1700414117304
 20
162.2642726084762
 30
0.0
 10
175.983727172105
 20
162.5256167555934
 30
0.0
  0
SPLINE
  5
AF
330
1F
100
AcDbEntity
  8
0
  6
Continuous
 62
     7
370
    15
100
AcDbSpline
210
0.0
220
0.0
230
1.0
 70
     8
 71
     3
 72
     8
 73
     4
 74
     0
 42
0.000000001
 43
0.00000001
 40
0.0
 40
0.0
 40
0.0
 40
0.0
 40
1.0
 40
1.0
 40
1.0
 40
1.0
 10
180.0829140833513
 20
155.3508013403121
 30
0.0
 10
178.9079266074484
 20
157.483878095248
 30
0.0
 10
177.7266800733521
 20
159.6135966611241
 30
0.0
 10
176.5412962086327
 20
161.7410954140501
 30
0.0
  0
SPLINE
  5
B0
330
1F
100
AcDbEntity
  8
0
  6
Continuous
 62
     7
370
    15
100
AcDbSpline
210
0.0
220
0.0
230
1.0
 70
     8
 71
     3
 72
     8
 73
     4
 74
     0
 42
0.000000001
 43
0.00000001
 40
0.0
 40
0.0
 40
0.0
 40
0.0
 40
1.0
 40
1.0
 40
1.0
 40
1.0
 10
180.0829140833513
 20
73.49024917994606
 30
0.0
 10
178.9078772855244
 20
71.35708288580072
 30
0.0
 10
177.7266300780854
 20
69.22736412881905
 30
0.0
 10
176.5412962086327
 20
67.09995510620809
 30
0.0
  0
SPLINE
  5
B1
330
1F
100
AcDbEntity
  8
0
  6
Continuous
 62
     7
370
    15
100
AcDbSpline
210
0.0
220
0.0
230
1.0
 70
     8
 71
     3
 72
     8
 73
     4
 74
     0
 42
0.000000001
 43
0.00000001
 40
0.0
 40
0.0
 40
0.0
 40
0.0
 40
0.0012417047560385
 40
0.0012417047560385
 40
0.0012417047560385
 40
0.0012417047560385
 10
175.983727172105
 20
66.3154337646647
 30
0.0
 10
176.1700414117304
 20
66.57677791178193
 30
0.0
 10
176.3559076573383
 20
66.83828202065953
 30
0.0
 10
176.5412962086327
 20
67.09995510620809
 30
0.0
  0
SPLINE
  5
B2
330
1F
100
AcDbEntity
  8
0
  6
Continuous
 62
     7
370
    15
100
AcDbSpline
210
0.0
220
0.0
230
1.0
 70
     8
 71
     3
 72
    10
 73
     6
 74
     0
 42
0.000000001
 43
0.00000001
 40
0.0
 40
0.0
 40
0.0
 40
0.0
 40
0.5
 40
0.5
 40
1.0
 40
1.0
 40
1.0
 40
1.0
 10
180.4587271721049
 20
73.8409940459799
 30
0.0
 10
180.3797271038538
 20
73.80522981137202
 30
0.0
 10
180.3059698535771
 20
73.75574020781256
 30
0.0
 10
180.1779147304439
 20
73.63545171630962
 30
0.0
 10
180.1250646960323
 20
73.56676956332028
 30
0.0
 10
180.0829140833513
 20
73.49024917994606
 30
0.0
  0
SPLINE
  5
B3
330
1F
100
AcDbEntity
  8
0
  6
Continuous
 62
     7
370
    15
100
AcDbSpline
210
0.0
220
0.0
230
1.0
 70
     8
 71
     3
 72
    10
 73
     6
 74
     0
 42
0.000000001
 43
0.00000001
 40
0.0
 40
0.0
 40
0.0
 40
0.0
 40
0.5
 40
0.5
 40
1.0
 40
1.0
 40
1.0
 40
1.0
 10
180.458727172105
 20
155.0000564742782
 30
0.0
 10
180.3794407244222
 20
155.0359503561307
 30
0.0
 10
180.3059285053016
 20
155.0854520659817
 30
0.0
 10
180.178976052431
 20
155.2044997626503
 30
0.0
 10
180.1249102036944
 20
155.2745614229186
 30
0.0
 10
180.0829140833513
 20
155.3508013403121
 30
0.0
  0
SPLINE
  5
B4
330
1F
100
AcDbEntity
  8
0
  6
Continuous
 62
     7
370
    15
100
AcDbSpline
210
0.0
220
0.0
230
1.0
 70
     8
 71
     3
 72
     8
 73
     4
 74
     0
 42
0.000000001
 43
0.00000001
 40
0.0
 40
0.0
 40
0.0
 40
0.0
 40
1.0
 40
1.0
 40
1.0
 40
1.0
 10
180.7757344063789
 20
154.9325974557917
 30
0.0
 10
180.6660326210772
 20
154.9317390385924
 30
0.0
 10
180.5586856000927
 20
154.9548041504672
 30
0.0
 10
180.4587271721049
 20
155.0000564742781
 30
0.0
  0
SPLINE
  5
B5
330
1F
100
AcDbEntity
  8
0
  6
Continuous
 62
     7
370
    15
100
AcDbSpline
210
0.0
220
0.0
230
1.0
 70
     8
 71
     3
 72
     8
 73
     4
 74
     0
 42
0.000000001
 43
0.00000001
 40
0.0
 40
0.0
 40
0.0
 40
0.0
 40
1.0
 40
1.0
 40
1.0
 40
1.0
 10
180.7757344063789
 20
73.90845306446641
 30
0.0
 10
180.6660326210772
 20
73.90931148166575
 30
0.0
 10
180.5586856000927
 20
73.88624636979097
 30
0.0
 10
180.4587271721049
 20
73.84099404598004
 30
0.0
  0
SPLINE
  5
B6
330
1F
100
AcDbEntity
  8
0
  6
Continuous
 62
     7
370
    15
100
AcDbSpline
210
0.0
220
0.0
230
1.0
 70
     8
 71
     3
 72
    12
 73
     8
 74
     0
 42
0.000000001
 43
0.00000001
 40
0.0
 40
0.0
 40
0.0
 40
0.0
 40
0.2500000000000049
 40
0.2500000000000049
 40
0.5000000000000098
 40
0.5000000000000098
 40
1.0
 40
1.0
 40
1.0
 40
1.0
 10
186.9345402608587
 20
155.8599226394404
 30
0.0
 10
186.8983198394718
 20
155.7893155713406
 30
0.0
 10
186.8553941648239
 20
155.7255809800149
 30
0.0
 10
186.7578675815649
 20
155.6098068037664
 30
0.0
 10
186.7024360619481
 20
155.5572589597549
 30
0.0
 10
186.523948159044
 20
155.4231103565406
 30
0.0
 10
186.3871113303962
 20
155.3625882544767
 30
0.0
 10
186.2417199378318
 20
155.3420416705483
 30
0.0
  0
SPLINE
  5
B7
330
1F
100
AcDbEntity
  8
0
  6
Continuous
 62
     7
370
    15
100
AcDbSpline
210
0.0
220
0.0
230
1.0
 70
     8
 71
     3
 72
    12
 73
     8
 74
     0
 42
0.000000001
 43
0.00000001
 40
0.0
 40
0.0
 40
0.0
 40
0.0
 40
0.249999999999999
 40
0.249999999999999
 40
0.499999999999998
 40
0.499999999999998
 40
1.0
 40
1.0
 40
1.0
 40
1.0
 10
186.9345402608587
 20
72.98112788081775
 30
0.0
 10
186.8983198394717
 20
73.0517349489177
 30
0.0
 10
186.8553941648238
 20
73.11546954024341
 30
0.0
 10
186.7578675815648
 20
73.23124371649185
 30
0.0
 10
186.7024360619481
 20
73.28379156050326
 30
0.0
 10
186.5239481590439
 20
73.41794016371763
 30
0.0
 10
186.3871113303962
 20
73.47846226578145
 30
0.0
 10
186.2417199378318
 20
73.49900884970985
 30
0.0
  0
SPLINE
  5
B8
330
1F
100
AcDbEntity
  8
0
  6
Continuous
 62
     7
370
    15
100
AcDbSpline
210
0.0
220
0.0
230
1.0
 70
    11
 71
     3
 72
    66
 73
    62
 74
     0
 42
0.000000001
 43
0.00000001
 40
0.0
 40
0.0
 40
0.0
 40
0.0
 40
0.0312499999999999
 40
0.0312499999999999
 40
0.0624999999999999
 40
0.0624999999999999
 40
0.0937499999999998
 40
0.0937499999999998
 40
0.1249999999999997
 40
0.1249999999999997
 40
0.1562499999999997
 40
0.1562499999999997
 40
0.1874999999999996
 40
0.1874999999999996
 40
0.2187499999999995
 40
0.2187499999999995
 40
0.2499999999999994
 40
0.2499999999999994
 40
0.2812499999999994
 40
0.2812499999999994
 40
0.3124999999999993
 40
0.3124999999999993
 40
0.3437499999999992
 40
0.3437499999999992
 40
0.3749999999999992
 40
0.3749999999999992
 40
0.4062499999999991
 40
0.4062499999999991
 40
0.437499999999999
 40
0.437499999999999
 40
0.4687499999999989
 40
0.4687499999999989
 40
0.4999999999999989
 40
0.4999999999999989
 40
0.5312499999999988
 40
0.5312499999999988
 40
0.5624999999999988
 40
0.5624999999999988
 40
0.6249999999999987
 40
0.6249999999999987
 40
0.6562499999999988
 40
0.6562499999999988
 40
0.6874999999999989
 40
0.6874999999999989
 40
0.7187499999999991
 40
0.7187499999999991
 40
0.7499999999999992
 40
0.7499999999999992
 40
0.7812499999999993
 40
0.7812499999999993
 40
0.8124999999999996
 40
0.8124999999999996
 40
0.8437499999999997
 40
0.8437499999999997
 40
0.8749999999999998
 40
0.8749999999999998
 40
0.90625
 40
0.90625
 40
0.9375000000000001
 40
0.9375000000000001
 40
1.0
 40
1.0
 40
1.0
 40
1.0
 10
183.508727172105
 20
97.56060794928575
 30
0.0
 10
183.6739274627689
 20
97.56060794928574
 30
0.0
 10
183.8363600040655
 20
97.57551397864356
 30
0.0
 10
184.1559181596554
 20
97.633949157386
 30
0.0
 10
184.3147014976325
 20
97.67819020976172
 30
0.0
 10
184.6174395141119
 20
97.79378175518421
 30
0.0
 10
184.7610186792462
 20
97.8645577254029
 30
0.0
 10
185.0327484091142
 20
98.03199625731551
 30
0.0
 10
185.1613769726519
 20
98.12953552963619
 30
0.0
 10
185.3919427343191
 20
98.34295388983763
 30
0.0
 10
185.4954167355685
 20
98.45956854186375
 30
0.0
 10
185.6781772734943
 20
98.71329390588346
 30
0.0
 10
185.7558215297229
 20
98.84858676495222
 30
0.0
 10
185.8805141804129
 20
99.1289331203438
 30
0.0
 10
185.9285181609914
 20
99.27605399617985
 30
0.0
 10
185.9927499033097
 20
99.57804410055715
 30
0.0
 10
186.0086393473518
 20
99.73016786812636
 30
0.0
 10
186.008814277707
 20
100.0366505109526
 30
0.0
 10
185.9925836263721
 20
100.1926364320183
 30
0.0
 10
185.9288024036626
 20
100.4952159009876
 30
0.0
 10
185.8816102922663
 20
100.6425944123798
 30
0.0
 10
185.7564436746083
 20
100.9293831177575
 30
0.0
 10
185.6781841872333
 20
101.0683402192954
 30
0.0
 10
185.4972640038779
 20
101.3259338795634
 30
0.0
 10
185.3939787749541
 20
101.4462264232644
 30
0.0
 10
185.1607270329054
 20
101.6689472409111
 30
0.0
 10
185.0343131646398
 20
101.767925144903
 30
0.0
 10
184.7636408939451
 20
101.9411419995121
 30
0.0
 10
184.6175591217809
 20
102.0161230369888
 30
0.0
 10
184.314674676308
 20
102.1364512070846
 30
0.0
 10
184.1588443166683
 20
102.1818348945738
 30
0.0
 10
183.8384988274028
 20
102.2432611549948
 30
0.0
 10
183.6727887414312
 20
102.2590147765146
 30
0.0
 10
183.3464573527347
 20
102.25912702177
 30
0.0
 10
183.1842702669078
 20
102.243994791864
 30
0.0
 10
182.8618946856992
 20
102.1827426786836
 30
0.0
 10
182.7038792116617
 20
102.1367359353083
 30
0.0
 10
182.2524683365861
 20
101.9578552060664
 30
0.0
 10
181.973388879534
 20
101.7797030987675
 30
0.0
 10
181.6273151750356
 20
101.4502066824804
 30
0.0
 10
181.5216731591209
 20
101.3278338426404
 30
0.0
 10
181.3398896831501
 20
101.0694311385258
 30
0.0
 10
181.2630018597662
 20
100.9331995729775
 30
0.0
 10
181.1373473023958
 20
100.6467641110914
 30
0.0
 10
181.0890392264812
 20
100.4964570265159
 30
0.0
 10
181.0252213410408
 20
100.1948890964314
 30
0.0
 10
181.008893163998
 20
100.0420230339668
 30
0.0
 10
181.0085636739383
 20
99.7320079172234
 30
0.0
 10
181.0246601857729
 20
99.57913891687076
 30
0.0
 10
181.0878889230342
 20
99.28010615109588
 30
0.0
 10
181.1357255164447
 20
99.13204055467301
 30
0.0
 10
181.2610688343581
 20
98.84948351652751
 30
0.0
 10
181.3377655088833
 20
98.7158671844038
 30
0.0
 10
181.5188168755351
 20
98.46357731447165
 30
0.0
 10
181.624292485896
 20
98.34423400540376
 30
0.0
 10
181.8548190545722
 20
98.13055022591895
 30
0.0
 10
181.9805384922025
 20
98.03489025125917
 30
0.0
 10
182.2533053413994
 20
97.86616918225535
 30
0.0
 10
182.3990247178054
 20
97.79430197360212
 30
0.0
 10
182.8500938229135
 20
97.62165089633365
 30
0.0
 10
183.1783265907772
 20
97.56060794928575
 30
0.0
 10
183.508727172105
 20
97.56060794928574
 30
0.0
  0
SPLINE
  5
B9
330
1F
100
AcDbEntity
  8
0
  6
Continuous
 62
     7
370
    15
100
AcDbSpline
210
0.0
220
0.0
230
1.0
 70
     8
 71
     3
 72
    10
 73
     6
 74
     0
 42
0.000000001
 43
0.00000001
 40
0.0
 40
0.0
 40
0.0
 40
0.0
 40
0.5
 40
0.5
 40
1.0
 40
1.0
 40
1.0
 40
1.0
 10
186.2417199378311
 20
155.3420416705511
 30
0.0
 10
185.3941555710629
 20
155.2222646184901
 30
0.0
 10
184.513442135341
 20
155.1235744388262
 30
0.0
 10
182.6858858841254
 20
154.9823020325891
 30
0.0
 10
181.7324534810241
 20
154.9400837889115
 30
0.0
 10
180.7757344063789
 20
154.9325974557917
 30
0.0
  0
SPLINE
  5
BA
330
1F
100
AcDbEntity
  8
0
  6
Continuous
 62
     7
370
    15
100
AcDbSpline
210
0.0
220
0.0
230
1.0
 70
     8
 71
     3
 72
    10
 73
     6
 74
     0
 42
0.000000001
 43
0.00000001
 40
0.0
 40
0.0
 40
0.0
 40
0.0
 40
0.5
 40
0.5
 40
1.0
 40
1.0
 40
1.0
 40
1.0
 10
186.2417199378311
 20
73.49900884970702
 30
0.0
 10
185.3941555710629
 20
73.61878590176806
 30
0.0
 10
184.513442135341
 20
73.7174760814319
 30
0.0
 10
182.6858858841254
 20
73.85874848766902
 30
0.0
 10
181.7324534810241
 20
73.90096673134661
 30
0.0
 10
180.7757344063789
 20
73.90845306446643
 30
0.0
  0
SPLINE
  5
BB
330
1F
100
AcDbEntity
  8
0
  6
Continuous
 62
     7
370
    15
100
AcDbSpline
210
0.0
220
0.0
230
1.0
 70
    24
 71
     3
 72
    20
 73
    16
 74
     0
 42
0.000000001
 43
0.00000001
 40
0.0
 40
0.0
 40
0.0
 40
0.0
 40
0.4999999999999998
 40
0.4999999999999998
 40
0.7499999999999998
 40
0.7499999999999998
 40
0.8749999999999998
 40
0.8749999999999998
 40
0.9374999999999999
 40
0.9374999999999999
 40
0.96875
 40
0.984375
 40
0.9921875
 40
0.9921875
 40
1.0
 40
1.0
 40
1.0
 40
1.0
 10
163.308727172105
 20
149.7205252601291
 30
0.0
 10
163.308727172105
 20
149.7205252601291
 30
0.0
 10
163.2479631728313
 20
149.7205252601291
 30
0.0
 10
163.1649599308941
 20
149.7205252601291
 30
0.0
 10
163.1383186732592
 20
149.7205252601291
 30
0.0
 10
163.1098656624349
 20
149.7205252601291
 30
0.0
 10
163.1022810383961
 20
149.7205252601291
 30
0.0
 10
163.0945855432088
 20
149.7205252601291
 30
0.0
 10
163.0926296129211
 20
149.7205252601291
 30
0.0
 10
163.090666882734
 20
149.7205252601291
 30
0.0
 10
163.0899277611333
 20
149.7205252601291
 30
0.0
 10
163.0894958711509
 20
149.7205252601291
 30
0.0
 10
163.0894033014192
 20
149.7205252601291
 30
0.0
 10
163.0893621709099
 20
149.7205252601291
 30
0.0
 10
163.0893519017428
 20
149.7205252601291
 30
0.0
 10
163.08935192194
 20
149.7205252601291
 30
0.0
  0
LINE
  5
BC
330
1F
100
AcDbEntity
  8
0
  6
Continuous
 62
     7
370
    15
100
AcDbLine
 10
160.3087271721
 20
79.4955252601
 30
0.0
 11
160.3087271721
 21
149.3455252601
 31
0.0
  0
LINE
  5
BD
330
1F
100
AcDbEntity
  8
0
  6
Continuous
 62
     7
370
    15
100
AcDbLine
 10
206.2574658702
 20
138.9326259102
 30
0.0
 11
206.5301029447
 21
138.8914951249
 31
0.0
  0
LWPOLYLINE
  5
BE
330
1F
100
AcDbEntity
  8
0
  6
Continuous
 62
     7
370
    15
100
AcDbPolyline
 90
       41
 70
   128
 43
0.0
 10
218.7526475117
 20
139.4191232609
 10
218.7430517152
 20
139.4169112254
 10
218.6352752295
 20
139.3922462114
 10
218.4756680039
 20
139.3563096861
 10
218.2500170003
 20
139.3067133704
 10
217.9611605037
 20
139.245313168
 10
217.6052949249
 20
139.1729301144
 10
217.1888648877
 20
139.0928607252
 10
216.7180065244
 20
139.0084343874
 10
216.4405878028
 20
138.9617677634
 10
216.1508509922
 20
138.9154907328
 10
215.5273538345
 20
138.8245371035
 10
214.8562941368
 20
138.7400064343
 10
214.2838076946
 20
138.6790086187
 10
213.3790418837
 20
138.603780498
 10
212.4284925833
 20
138.5530372643
 10
211.7675141843
 20
138.5349950561
 10
210.7560800988
 20
138.5348940086
 10
209.7335786932
 20
138.5685945853
 10
209.0796629407
 20
138.6078715496
 10
208.1138753338
 20
138.6909165742
 10
207.7983206015
 20
138.7244542434
 10
207.1815303175
 20
138.7990014205
 10
206.6270169497
 20
138.8760615385
 10
205.8463965384
 20
139.0003755893
 10
205.1463640081
 20
139.1272790567
 10
204.7893428796
 20
139.1975014741
 10
204.3341199437
 20
139.2923301415
 10
203.9955728497
 20
139.366642244
 10
203.8712546161
 20
139.394731724
 10
203.7691425532
 20
139.418123202
 10
203.7777655167
 20
139.4161367797
 10
203.8623209171
 20
139.3967667456
 10
204.0163679306
 20
139.3619854689
 10
204.238963176
 20
139.3128932178
 10
204.5202487352
 20
139.2528461692
 10
204.8636757329
 20
139.1825782658
 10
205.2641634591
 20
139.1049187865
 10
205.7345457364
 20
139.0196826594
 10
206.2574658702
 20
138.9326259102
 10
206.2574658702
 20
138.9326259102
  0
SPLINE
  5
BF
330
1F
100
AcDbEntity
  8
0
  6
Continuous
 62
     7
370
    15
100
AcDbSpline
210
0.0
220
0.0
230
1.0
 70
    11
 71
     3
 72
    96
 73
    92
 74
     0
 42
0.000000001
 43
0.00000001
 40
0.0
 40
0.0
 40
0.0
 40
0.0
 40
0.031249999999999
 40
0.031249999999999
 40
0.0468749999999988
 40
0.0468749999999988
 40
0.0624999999999985
 40
0.0624999999999985
 40
0.0937499999999975
 40
0.0937499999999975
 40
0.109374999999997
 40
0.109374999999997
 40
0.1249999999999965
 40
0.1249999999999965
 40
0.1562499999999959
 40
0.1562499999999959
 40
0.1718749999999954
 40
0.1718749999999954
 40
0.187499999999995
 40
0.187499999999995
 40
0.2187499999999944
 40
0.2187499999999944
 40
0.2343749999999942
 40
0.2343749999999942
 40
0.2499999999999939
 40
0.2499999999999939
 40
0.2812499999999934
 40
0.2812499999999934
 40
0.2968749999999933
 40
0.2968749999999933
 40
0.3124999999999931
 40
0.3124999999999931
 40
0.3437499999999931
 40
0.3437499999999931
 40
0.3593749999999931
 40
0.3593749999999931
 40
0.3749999999999931
 40
0.3749999999999931
 40
0.3906249999999931
 40
0.3906249999999931
 40
0.4062499999999931
 40
0.4062499999999931
 40
0.4374999999999932
 40
0.4374999999999932
 40
0.4531249999999931
 40
0.4531249999999931
 40
0.468749999999993
 40
0.468749999999993
 40
0.4999999999999926
 40
0.4999999999999926
 40
0.5312499999999921
 40
0.5312499999999921
 40
0.5468749999999921
 40
0.5468749999999921
 40
0.562499999999992
 40
0.562499999999992
 40
0.5937499999999926
 40
0.5937499999999926
 40
0.624999999999993
 40
0.624999999999993
 40
0.6562499999999934
 40
0.6562499999999934
 40
0.6874999999999939
 40
0.6874999999999939
 40
0.7187499999999944
 40
0.7187499999999944
 40
0.7499999999999949
 40
0.7499999999999949
 40
0.7656249999999953
 40
0.7656249999999953
 40
0.7812499999999957
 40
0.7812499999999957
 40
0.8124999999999964
 40
0.8124999999999964
 40
0.8281249999999968
 40
0.8281249999999968
 40
0.8437499999999971
 40
0.8437499999999971
 40
0.8749999999999977
 40
0.8749999999999977
 40
0.890624999999998
 40
0.890624999999998
 40
0.9062499999999982
 40
0.9062499999999982
 40
0.9218749999999986
 40
0.9218749999999986
 40
0.9374999999999988
 40
0.9374999999999988
 40
0.9687499999999994
 40
0.9687499999999994
 40
1.0
 40
1.0
 40
1.0
 40
1.0
 10
206.2574658701855
 20
119.3354958058115
 30
0.0
 10
206.6212888604884
 20
119.623358383397
 30
0.0
 10
207.0064833169392
 20
119.8726237663721
 30
0.0
 10
207.6136812488399
 20
120.1943829490862
 30
0.0
 10
207.8210241669022
 20
120.2928668971855
 30
0.0
 10
208.2456051984923
 20
120.4724253509004
 30
0.0
 10
208.463839570729
 20
120.5538056283516
 30
0.0
 10
209.1261057663386
 20
120.7688857986016
 30
0.0
 10
209.5749719134161
 20
120.8733572098116
 30
0.0
 10
210.2589035255627
 20
120.9743762608323
 30
0.0
 10
210.4886639983317
 20
120.9987045445628
 30
0.0
 10
210.9518140382136
 20
121.028389629714
 30
0.0
 10
211.1861327384038
 20
121.0336687449224
 30
0.0
 10
211.8824761616048
 20
121.020477409743
 30
0.0
 10
212.3408588649778
 20
120.9737080781525
 30
0.0
 10
213.0198275676671
 20
120.8473971493689
 30
0.0
 10
213.2447080509494
 20
120.7958765786245
 30
0.0
 10
213.6915075689014
 20
120.6734052685494
 30
0.0
 10
213.9140837075119
 20
120.6021231335665
 30
0.0
 10
214.5645849199136
 20
120.3625607264799
 30
0.0
 10
214.9793361235885
 20
120.1679981183611
 30
0.0
 10
215.5728927857212
 20
119.82264967129
 30
0.0
 10
215.7659524115157
 20
119.6985566352207
 30
0.0
 10
216.1420263566421
 20
119.4313816396129
 30
0.0
 10
216.3253599173685
 20
119.2878532207782
 30
0.0
 10
216.8474305809991
 20
118.8372518084921
 30
0.0
 10
217.1627717542854
 20
118.5076789501302
 30
0.0
 10
217.5841093677302
 20
117.9664373773113
 30
0.0
 10
217.7158793002666
 20
117.7781527987334
 30
0.0
 10
217.9606776618469
 20
117.3844547681145
 30
0.0
 10
218.0728880757387
 20
117.1799800090592
 30
0.0
 10
218.3709580491391
 20
116.5570255273236
 30
0.0
 10
218.5219257229374
 20
116.1241479367214
 30
0.0
 10
218.6716240214799
 20
115.4463462346542
 30
0.0
 10
218.7087192675389
 20
115.2137698125842
 30
0.0
 10
218.7539857315285
 20
114.7503240454273
 30
0.0
 10
218.7625020386075
 20
114.5190784908303
 30
0.0
 10
218.7519215335172
 20
114.057521482444
 30
0.0
 10
218.7328238698184
 20
113.8272100571362
 30
0.0
 10
218.6667363055567
 20
113.3675297801087
 30
0.0
 10
218.6192715215353
 20
113.1368723739761
 30
0.0
 10
218.4386128482706
 20
112.4635052606431
 30
0.0
 10
218.2675877606228
 20
112.0348106166134
 30
0.0
 10
217.9396666291372
 20
111.4200303110976
 30
0.0
 10
217.8185320665161
 20
111.2205206208054
 30
0.0
 10
217.5584392337263
 20
110.8392075299861
 30
0.0
 10
217.4188986100101
 20
110.6562672039624
 30
0.0
 10
216.9730607749995
 20
110.1293932427371
 30
0.0
 10
216.6362677334227
 20
109.8049398780162
 30
0.0
 10
215.9156075782023
 20
109.2314799091801
 30
0.0
 10
215.5307794450565
 20
108.9801722834103
 30
0.0
 10
214.9180229134429
 20
108.6536304062844
 30
0.0
 10
214.7072856283641
 20
108.5531314611551
 30
0.0
 10
214.2814258807435
 20
108.372334974423
 30
0.0
 10
214.0654508297544
 20
108.2915285104488
 30
0.0
 10
213.408626694069
 20
108.0769365048341
 30
0.0
 10
212.9589505529665
 20
107.9707412104477
 30
0.0
 10
212.0354368784319
 20
107.8331181144538
 30
0.0
 10
211.5720861908757
 20
107.8034642948599
 30
0.0
 10
210.6495214680764
 20
107.8196700870494
 30
0.0
 10
210.189026657349
 20
107.8653593758396
 30
0.0
 10
209.2701606781584
 20
108.0356441614693
 30
0.0
 10
208.8250719228399
 20
108.1577578347672
 30
0.0
 10
207.962675734219
 20
108.4744092680682
 30
0.0
 10
207.5445636471602
 20
108.6693499430241
 30
0.0
 10
206.7414448511914
 20
109.136532421874
 30
0.0
 10
206.3675702311548
 20
109.4021239209506
 30
0.0
 10
205.8484646850436
 20
109.8495981396879
 30
0.0
 10
205.6824303993216
 20
110.0069959124064
 30
0.0
 10
205.3650703630449
 20
110.3392583358677
 30
0.0
 10
205.2130133311725
 20
110.5150728519635
 30
0.0
 10
204.7859748588596
 20
111.0644994230863
 30
0.0
 10
204.5438602798839
 20
111.4538156482679
 30
0.0
 10
204.2468878259943
 20
112.0740784762404
 30
0.0
 10
204.1590139232088
 20
112.2869252184641
 30
0.0
 10
204.0070807529192
 20
112.7257336937102
 30
0.0
 10
203.9430622681948
 20
112.9525425996474
 30
0.0
 10
203.7941652809018
 20
113.6326009492836
 30
0.0
 10
203.7493180221314
 20
114.0918766867687
 30
0.0
 10
203.7658614171515
 20
114.7899046858638
 30
0.0
 10
203.7857980163675
 20
115.0252599331774
 30
0.0
 10
203.8530014689875
 20
115.4859298106941
 30
0.0
 10
203.9001656024399
 20
115.7127104431234
 30
0.0
 10
204.0206415562181
 20
116.1594366791319
 30
0.0
 10
204.0939558247528
 20
116.3793816105212
 30
0.0
 10
204.266639157269
 20
116.812487715186
 30
0.0
 10
204.3657206628
 20
117.0244981586553
 30
0.0
 10
204.6937464927646
 20
117.6362044176987
 30
0.0
 10
204.9549555675053
 20
118.0165798339314
 30
0.0
 10
205.557935454033
 20
118.7261160274064
 30
0.0
 10
205.8936428798825
 20
119.047633228226
 30
0.0
 10
206.2574658701855
 20
119.3354958058115
 30
0.0
  0
LINE
  5
C0
330
1F
100
AcDbEntity
  8
0
  6
Continuous
 62
     7
370
    15
100
AcDbLine
 10
224.8087271721
 20
114.4205252601
 30
0.0
 11
224.8087271721
 21
89.4205252601
 31
0.0
  0
LINE
  5
C1
330
1F
100
AcDbEntity
  8
0
  6
Continuous
 62
     7
370
    15
100
AcDbLine
 10
224.8087271721
 20
139.4205252601
 30
0.0
 11
224.8087271721
 21
114.4205252601
 31
0.0
  0
LINE
  5
C2
330
1F
100
AcDbEntity
  8
0
  6
Continuous
 62
     7
370
    15
100
AcDbLine
 10
225.3087271721
 20
114.4205252601
 30
0.0
 11
225.3087271721
 21
89.9205252601
 31
0.0
  0
LINE
  5
C3
330
1F
100
AcDbEntity
  8
0
  6
Continuous
 62
     7
370
    15
100
AcDbLine
 10
225.3087271721
 20
138.9205252601
 30
0.0
 11
225.3087271721
 21
114.4205252601
 31
0.0
  0
CIRCLE
  5
C4
330
1F
100
AcDbEntity
  8
0
  6
Continuous
 62
     7
370
    15
100
AcDbCircle
 10
211.2587271721
 20
114.4205252601
 30
0.0
 40
5.499999999999972
  0
LINE
  5
C5
330
1F
100
AcDbEntity
  8
0
  6
Continuous
 62
     7
370
    15
100
AcDbLine
 10
58.5087271721
 20
96.0708473994
 30
0.0
 11
58.5087271721
 21
132.7702030982
 31
0.0
  0
LWPOLYLINE
  5
C6
330
1F
100
AcDbEntity
  8
0
  6
Continuous
 62
     7
370
    15
100
AcDbPolyline
 90
       21
 70
   128
 43
0.0
 10
181.9417573482
 20
101.6489594744
 10
181.438265178
 20
101.1075907129
 10
181.1374442536
 20
100.4465138701
 10
181.0687410229
 20
99.7304397533
 10
181.2388806368
 20
99.0294626862
 10
181.6312086446
 20
98.4121991883
 10
182.2073212473
 20
97.9390713113
 10
182.9108245294
 20
97.6563921084
 10
183.672854688
 20
97.5918321895
 10
184.4188189017
 20
97.7517111293
 10
185.075696996
 20
98.1203788631
 10
185.5791891662
 20
98.6617476246
 10
185.8800100907
 20
99.3228244675
 10
185.9487133214
 20
100.0388985843
 10
185.7785737074
 20
100.7398756513
 10
185.3862456996
 20
101.3571391493
 10
184.8101330969
 20
101.8302670262
 10
184.1066298148
 20
102.1129462291
 10
183.3445996563
 20
102.177506148
 10
182.5986354425
 20
102.0176272083
 10
181.9417573482
 20
101.6489594744
  0
LINE
  5
C7
330
1F
100
AcDbEntity
  8
0
  6
Continuous
 62
     7
370
    15
100
AcDbLine
 10
182.9120221561
 20
98.3567095715
 30
0.0
 11
184.618549846
 21
98.6350922116
 31
0.0
  0
LINE
  5
C8
330
1F
100
AcDbEntity
  8
0
  6
Continuous
 62
     7
370
    15
100
AcDbLine
 10
185.215254862
 20
100.1630518089
 30
0.0
 11
184.618549846
 21
98.6350922116
 31
0.0
  0
LINE
  5
C9
330
1F
100
AcDbEntity
  8
0
  6
Continuous
 62
     7
370
    15
100
AcDbLine
 10
184.1054321882
 20
101.412628766
 30
0.0
 11
185.215254862
 21
100.1630518089
 31
0.0
  0
LINE
  5
CA
330
1F
100
AcDbEntity
  8
0
  6
Continuous
 62
     7
370
    15
100
AcDbLine
 10
184.1054321882
 20
101.412628766
 30
0.0
 11
182.3989044983
 21
101.1342461259
 31
0.0
  0
LINE
  5
CB
330
1F
100
AcDbEntity
  8
0
  6
Continuous
 62
     7
370
    15
100
AcDbLine
 10
181.8021994822
 20
99.6062865287
 30
0.0
 11
182.3989044983
 21
101.1342461259
 31
0.0
  0
LINE
  5
CC
330
1F
100
AcDbEntity
  8
0
  6
Continuous
 62
     7
370
    15
100
AcDbLine
 10
181.8021994822
 20
99.6062865287
 30
0.0
 11
182.9120221561
 21
98.3567095715
 31
0.0
  0
LINE
  5
CD
330
1F
100
AcDbEntity
  8
0
  6
Continuous
 62
     7
370
    15
100
AcDbLine
 10
184.618549846
 20
99.3191324983
 30
0.0
 11
184.618549846
 21
98.6350922116
 31
0.0
  0
LINE
  5
CE
330
1F
100
AcDbEntity
  8
0
  6
Continuous
 62
     7
370
    15
100
AcDbLine
 10
185.0297064425
 20
100.3719653902
 30
0.0
 11
184.618549846
 21
99.3191324983
 31
0.0
  0
LINE
  5
CF
330
1F
100
AcDbEntity
  8
0
  6
Continuous
 62
     7
370
    15
100
AcDbLine
 10
181.9877479017
 20
100.081413234
 30
0.0
 11
182.9120221561
 21
99.0407498582
 31
0.0
  0
LINE
  5
D0
330
1F
100
AcDbEntity
  8
0
  6
Continuous
 62
     7
370
    15
100
AcDbLine
 10
182.9120221561
 20
99.0407498582
 30
0.0
 11
182.9120221561
 21
98.3567095715
 31
0.0
  0
LINE
  5
D1
330
1F
100
AcDbEntity
  8
0
  6
Continuous
 62
     7
370
    15
100
AcDbLine
 10
182.9120221561
 20
99.0407498582
 30
0.0
 11
184.618549846
 21
99.3191324983
 31
0.0
  0
CIRCLE
  5
D2
330
1F
100
AcDbEntity
  8
0
  6
HIDDEN
 62
     7
370
     0
100
AcDbCircle
 10
211.2587271721
 20
114.4205252601
 30
0.0
 40
6.000000000000018
  0
LINE
  5
D3
330
1F
100
AcDbEntity
  8
0
  6
HIDDEN
 62
     7
370
     0
100
AcDbLine
 10
213.8888188802
 20
136.7205252601
 30
0.0
 11
217.2587271721
 21
136.7205252601
 31
0.0
  0
LINE
  5
D4
330
1F
100
AcDbEntity
  8
0
  6
HIDDEN
 62
     7
370
     0
100
AcDbLine
 10
205.2587271721
 20
136.7205252601
 30
0.0
 11
213.8888188802
 21
136.7205252601
 31
0.0
  0
LINE
  5
D5
330
1F
100
AcDbEntity
  8
0
  6
HIDDEN
 62
     7
370
     0
100
AcDbLine
 10
213.8888188802
 20
129.3176395772
 30
0.0
 11
217.2587271721
 21
129.3176395772
 31
0.0
  0
LINE
  5
D6
330
1F
100
AcDbEntity
  8
0
  6
HIDDEN
 62
     7
370
     0
100
AcDbLine
 10
205.2587271721
 20
129.3176395772
 30
0.0
 11
213.8888188802
 21
129.3176395772
 31
0.0
  0
LINE
  5
D7
330
1F
100
AcDbEntity
  8
0
  6
HIDDEN
 62
     7
370
     0
100
AcDbLine
 10
212.8016274722
 20
120.9205252601
 30
0.0
 11
214.7785290757
 21
120.9205252601
 31
0.0
  0
LINE
  5
D8
330
1F
100
AcDbEntity
  8
0
  6
HIDDEN
 62
     7
370
     0
100
AcDbLine
 10
207.7389252685
 20
120.9205252601
 30
0.0
 11
209.920981072
 21
120.9205252601
 31
0.0
  0
LINE
  5
D9
330
1F
100
AcDbEntity
  8
0
  6
HIDDEN
 62
     7
370
     0
100
AcDbLine
 10
212.5576754549
 20
120.9205252601
 30
0.0
 11
212.8016274722
 21
120.9205252601
 31
0.0
  0
SPLINE
  5
DA
330
1F
100
AcDbEntity
  8
0
  6
HIDDEN
 62
     7
370
     0
100
AcDbSpline
210
0.0
220
0.0
230
1.0
 70
     8
 71
     3
 72
    12
 73
     8
 74
     0
 42
0.000000001
 43
0.00000001
 40
0.0
 40
0.0
 40
0.0
 40
0.0
 40
0.2161857461390008
 40
0.439762807351176
 40
0.5934185666353928
 40
0.7522096186329068
 40
1.0
 40
1.0
 40
1.0
 40
1.0
 10
214.1305490110834
 20
137.2846268752668
 30
0.0
 10
214.1471003133564
 20
137.1759346184949
 30
0.0
 10
214.1807688011401
 20
136.9548339546953
 30
0.0
 10
214.2302673473463
 20
136.8097312123369
 30
0.0
 10
214.2755222582443
 20
136.8233504554133
 30
0.0
 10
214.3220016883241
 20
136.9580654312791
 30
0.0
 10
214.3532406242093
 20
137.1609681495641
 30
0.0
 10
214.3722791419606
 20
137.2846268752669
 30
0.0
  0
SPLINE
  5
DB
330
1F
100
AcDbEntity
  8
0
  6
HIDDEN
 62
     7
370
     0
100
AcDbSpline
210
0.0
220
0.0
230
1.0
 70
     8
 71
     3
 72
    13
 73
     9
 74
     0
 42
0.000000001
 43
0.00000001
 40
0.0
 40
0.0
 40
0.0
 40
0.0
 40
0.1844095697099053
 40
0.3495005370884489
 40
0.5197705331556525
 40
0.6927076360809699
 40
0.8718061725834241
 40
0.9999999999999999
 40
0.9999999999999999
 40
0.9999999999999999
 40
0.9999999999999999
 10
211.5004573029823
 20
137.2846268752668
 30
0.0
 10
211.3189912609468
 20
137.1909395619618
 30
0.0
 10
210.9750694175497
 20
137.0133795450385
 30
0.0
 10
210.4283719648412
 20
136.8501067107094
 30
0.0
 10
209.8759227082921
 20
136.7991779456626
 30
0.0
 10
209.3112856430662
 20
136.8824700849205
 30
0.0
 10
208.8133675036191
 20
137.0597588969976
 30
0.0
 10
208.5124427645572
 20
137.2184326138384
 30
0.0
 10
208.3869053331265
 20
137.2846268752668
 30
0.0
  0
SPLINE
  5
DC
330
1F
100
AcDbEntity
  8
0
  6
HIDDEN
 62
     7
370
     0
100
AcDbSpline
210
0.0
220
0.0
230
1.0
 70
     8
 71
     3
 72
    12
 73
     8
 74
     0
 42
0.000000001
 43
0.00000001
 40
0.0
 40
0.0
 40
0.0
 40
0.0
 40
0.2161857461389973
 40
0.4397628073512068
 40
0.5934185666354038
 40
0.7522096186328902
 40
1.0
 40
1.0
 40
1.0
 40
1.0
 10
208.3869053331265
 20
137.2846268752668
 30
0.0
 10
208.3703540308535
 20
137.1759346184949
 30
0.0
 10
208.3366855430698
 20
136.9548339546954
 30
0.0
 10
208.2871869968636
 20
136.8097312123371
 30
0.0
 10
208.2419320859655
 20
136.8233504554132
 30
0.0
 10
208.1954526558858
 20
136.9580654312792
 30
0.0
 10
208.1642137200006
 20
137.1609681495641
 30
0.0
 10
208.1451752022492
 20
137.2846268752668
 30
0.0
  0
SPLINE
  5
DD
330
1F
100
AcDbEntity
  8
0
  6
HIDDEN
 62
     7
370
     0
100
AcDbSpline
210
0.0
220
0.0
230
1.0
 70
     8
 71
     3
 72
    12
 73
     8
 74
     0
 42
0.000000001
 43
0.00000001
 40
0.0
 40
0.0
 40
0.0
 40
0.0
 40
0.2161857461389847
 40
0.4397628073511934
 40
0.5934185666353976
 40
0.7522096186328957
 40
1.0
 40
1.0
 40
1.0
 40
1.0
 10
208.1451752022492
 20
137.2846268752668
 30
0.0
 10
208.3418093212917
 20
137.1759346184949
 30
0.0
 10
208.7418004111555
 20
136.9548339546952
 30
0.0
 10
209.3298570405748
 20
136.8097312123371
 30
0.0
 10
209.8674980908082
 20
136.8233504554131
 30
0.0
 10
210.4196867727988
 20
136.9580654312792
 30
0.0
 10
210.7908141038266
 20
137.1609681495641
 30
0.0
 10
211.0169970412277
 20
137.2846268752668
 30
0.0
  0
SPLINE
  5
DE
330
1F
100
AcDbEntity
  8
0
  6
HIDDEN
 62
     7
370
     0
100
AcDbSpline
210
0.0
220
0.0
230
1.0
 70
     8
 71
     3
 72
    13
 73
     9
 74
     0
 42
0.000000001
 43
0.00000001
 40
0.0
 40
0.0
 40
0.0
 40
0.0
 40
0.1281940639112396
 40
0.3016059688761578
 40
0.480222682437465
 40
0.6449624637537941
 40
0.8155900900874862
 40
0.9999999999999999
 40
0.9999999999999999
 40
0.9999999999999999
 40
0.9999999999999999
 10
211.0169970412277
 20
137.2846268752668
 30
0.0
 10
211.1425381478991
 20
137.218427344481
 30
0.0
 10
211.4379024257461
 20
137.0626777488084
 30
0.0
 10
211.9352176923685
 20
136.8842032715476
 30
0.0
 10
212.4938887484273
 20
136.7995192839195
 30
0.0
 10
213.0523895672046
 20
136.8487950986223
 30
0.0
 10
213.5997303756928
 20
137.0105928868095
 30
0.0
 10
213.94908885694
 20
137.1909484576856
 30
0.0
 10
214.1305490110834
 20
137.2846268752668
 30
0.0
  0
LINE
  5
DF
330
1F
100
AcDbEntity
  8
0
  6
HIDDEN
 62
     7
370
     0
100
AcDbLine
 10
212.5737730262
 20
129.4205252601
 30
0.0
 11
214.2587271721
 21
129.4205252601
 31
0.0
  0
LINE
  5
E0
330
1F
100
AcDbEntity
  8
0
  6
HIDDEN
 62
     7
370
     0
100
AcDbLine
 10
208.2587271721
 20
129.4205252601
 30
0.0
 11
212.5737730262
 21
129.4205252601
 31
0.0
  0
LINE
  5
E1
330
1F
100
AcDbEntity
  8
0
  6
HIDDEN
 62
     7
370
     0
100
AcDbLine
 10
211.0169970412
 20
130.4205252601
 30
0.0
 11
209.5810861217
 21
130.4205252601
 31
0.0
  0
LINE
  5
E2
330
1F
100
AcDbEntity
  8
0
  6
HIDDEN
 62
     7
370
     0
100
AcDbLine
 10
212.5737730262
 20
130.4205252601
 30
0.0
 11
211.0169970412
 21
130.4205252601
 31
0.0
  0
LINE
  5
E3
330
1F
100
AcDbEntity
  8
0
  6
HIDDEN
 62
     7
370
     0
100
AcDbLine
 10
211.0169970412
 20
130.4205252601
 30
0.0
 11
211.0169970412
 21
137.2846268753
 31
0.0
  0
LINE
  5
E4
330
1F
100
AcDbEntity
  8
0
  6
HIDDEN
 62
     7
370
     0
100
AcDbLine
 10
209.5810861217
 20
130.4205252601
 30
0.0
 11
208.1451752022
 21
130.4205252601
 31
0.0
  0
LINE
  5
E5
330
1F
100
AcDbEntity
  8
0
  6
HIDDEN
 62
     7
370
     0
100
AcDbLine
 10
214.1305490111
 20
130.4205252601
 30
0.0
 11
212.5737730262
 21
130.4205252601
 31
0.0
  0
LINE
  5
E6
330
1F
100
AcDbEntity
  8
0
  6
HIDDEN
 62
     7
370
     0
100
AcDbLine
 10
214.2514140765
 20
130.4205252601
 30
0.0
 11
214.1305490111
 21
130.4205252601
 31
0.0
  0
LINE
  5
E7
330
1F
100
AcDbEntity
  8
0
  6
HIDDEN
 62
     7
370
     0
100
AcDbLine
 10
214.1305490111
 20
130.4205252601
 30
0.0
 11
214.1305490111
 21
137.2846268753
 31
0.0
  0
LINE
  5
E8
330
1F
100
AcDbEntity
  8
0
  6
HIDDEN
 62
     7
370
     0
100
AcDbLine
 10
208.3869053331
 20
130.4205252601
 30
0.0
 11
208.3869053331
 21
137.2846268753
 31
0.0
  0
LINE
  5
E9
330
1F
100
AcDbEntity
  8
0
  6
HIDDEN
 62
     7
370
     0
100
AcDbLine
 10
208.1451752022
 20
130.4205252601
 30
0.0
 11
208.1451752022
 21
137.2846268753
 31
0.0
  0
LINE
  5
EA
330
1F
100
AcDbEntity
  8
0
  6
HIDDEN
 62
     7
370
     0
100
AcDbLine
 10
214.372279142
 20
130.4205252601
 30
0.0
 11
214.2514140765
 21
130.4205252601
 31
0.0
  0
LINE
  5
EB
330
1F
100
AcDbEntity
  8
0
  6
HIDDEN
 62
     7
370
     0
100
AcDbLine
 10
211.500457303
 20
130.4205252601
 30
0.0
 11
211.500457303
 21
137.2846268753
 31
0.0
  0
LINE
  5
EC
330
1F
100
AcDbEntity
  8
0
  6
HIDDEN
 62
     7
370
     0
100
AcDbLine
 10
214.372279142
 20
130.4205252601
 30
0.0
 11
214.372279142
 21
137.2846268753
 31
0.0
  0
SPLINE
  5
ED
330
1F
100
AcDbEntity
  8
0
  6
HIDDEN
 62
     7
370
     0
100
AcDbSpline
210
0.0
220
0.0
230
1.0
 70
     8
 71
     3
 72
     9
 73
     5
 74
     0
 42
0.000000001
 43
0.00000001
 40
0.0
 40
0.0
 40
0.0
 40
0.0
 40
0.326715498335643
 40
1.0
 40
1.0
 40
1.0
 40
1.0
 10
192.9326946356564
 20
64.79676482239641
 30
0.0
 10
192.7759017606094
 20
64.83884705057763
 30
0.0
 10
192.2959953103625
 20
64.96765094385962
 30
0.0
 10
191.5417837740602
 20
65.1426775908846
 30
0.0
 10
191.0339848356913
 20
65.26052031970484
 30
0.0
  0
LWPOLYLINE
  5
EE
330
1F
100
AcDbEntity
  8
0
  6
HIDDEN
 62
     7
370
     0
100
AcDbPolyline
 90
       24
 70
   128
 43
0.0
 10
163.578114284
 20
100.3913704575
 10
163.7528274109
 20
99.5939030456
 10
164.0206848778
 20
98.8555801435
 10
164.3618209216
 20
98.2311597832
 10
164.7509350427
 20
97.7669523662
 10
165.1591684267
 20
97.4973860332
 10
165.556244271
 20
97.4424532859
 10
165.9127132768
 20
97.6062282348
 10
166.2021377687
 20
97.9765644411
 10
166.4030524562
 20
98.5259957627
 10
166.5005564159
 20
99.2137733919
 10
166.4874182253
 20
99.9888880083
 10
166.3646122839
 20
100.7938529068
 10
166.1412465464
 20
101.5689675231
 10
165.8338870279
 20
102.2567451523
 10
165.4653291778
 20
102.8061764739
 10
165.0629072457
 20
103.1765126803
 10
164.6564670254
 20
103.3402876292
 10
164.2761523287
 20
103.2853548818
 10
163.9501693568
 20
103.0157885488
 10
163.7026947755
 20
102.5515811319
 10
163.5520826424
 20
101.9271607716
 10
163.5095031703
 20
101.1888378695
 10
163.578114284
 20
100.3913704575
  0
LWPOLYLINE
  5
EF
330
1F
100
AcDbEntity
  8
0
  6
HIDDEN
 62
     7
370
     0
100
AcDbPolyline
 90
       20
 70
   128
 43
0.0
 10
164.2909848726
 20
100.4473887758
 10
164.4477390142
 20
99.7755643097
 10
164.6960267856
 20
99.1765424488
 10
165.0089423541
 20
98.7152365068
 10
165.3525764625
 20
98.4416361402
 10
165.6896910231
 20
98.3853901941
 10
165.9837544424
 20
98.5525937895
 10
166.202900386
 20
98.9251278225
 10
166.3233809907
 20
99.4626224501
 10
166.3321403133
 20
100.1068317893
 10
166.2282291455
 20
100.7879457623
 10
166.0229078744
 20
101.4321551015
 10
165.7384262459
 20
101.9696497291
 10
165.4056122585
 20
102.3421837621
 10
165.0605314718
 20
102.5093873575
 10
164.7405787437
 20
102.4531414114
 10
164.4804259167
 20
102.1795410448
 10
164.3082645864
 20
101.7182351028
 10
164.2427511042
 20
101.1192132419
 10
164.2909848726
 20
100.4473887758
  0
SPLINE
  5
F0
330
1F
100
AcDbEntity
  8
0
  6
HIDDEN
 62
     7
370
     0
100
AcDbSpline
210
0.0
220
0.0
230
1.0
 70
    11
 71
     3
 72
    60
 73
    56
 74
     0
 42
0.000000001
 43
0.00000001
 40
0.0
 40
0.0
 40
0.0
 40
0.0
 40
0.03125
 40
0.03125
 40
0.0625000000000001
 40
0.0625000000000001
 40
0.1250000000000002
 40
0.1250000000000002
 40
0.1562500000000002
 40
0.1562500000000002
 40
0.1875000000000002
 40
0.1875000000000002
 40
0.2187500000000003
 40
0.2187500000000003
 40
0.2500000000000003
 40
0.2500000000000003
 40
0.3125000000000005
 40
0.3125000000000005
 40
0.3750000000000006
 40
0.3750000000000006
 40
0.4062500000000005
 40
0.4062500000000005
 40
0.4375000000000003
 40
0.4375000000000003
 40
0.4687500000000002
 40
0.4687500000000002
 40
0.5000000000000001
 40
0.5000000000000001
 40
0.5312499999999999
 40
0.5312499999999999
 40
0.5624999999999998
 40
0.5624999999999998
 40
0.625
 40
0.625
 40
0.65625
 40
0.65625
 40
0.6874999999999999
 40
0.6874999999999999
 40
0.7187499999999999
 40
0.7187499999999999
 40
0.7499999999999998
 40
0.7499999999999998
 40
0.7812499999999997
 40
0.7812499999999997
 40
0.8124999999999997
 40
0.8124999999999997
 40
0.8749999999999993
 40
0.8749999999999993
 40
0.9062499999999996
 40
0.9062499999999996
 40
0.9374999999999997
 40
0.9374999999999997
 40
0.9687499999999999
 40
0.9687499999999999
 40
1.0
 40
1.0
 40
1.0
 40
1.0
 10
183.508727172105
 20
110.8957938111722
 30
0.0
 10
183.3391995755345
 20
110.8957938111722
 30
0.0
 10
183.1736017278269
 20
110.9075162191019
 30
0.0
 10
182.8494816511543
 20
110.9534514244436
 30
0.0
 10
182.6896715868286
 20
110.9882936551249
 30
0.0
 10
182.2403299842872
 20
111.1241015003513
 30
0.0
 10
181.9706472445118
 20
111.2585405877117
 30
0.0
 10
181.6324624557543
 20
111.522010540603
 30
0.0
 10
181.5288960221305
 20
111.621789104364
 30
0.0
 10
181.3484445598305
 20
111.8403622232055
 30
0.0
 10
181.2713225935682
 20
111.9587813265098
 30
0.0
 10
181.143904708761
 20
112.2164916957031
 30
0.0
 10
181.0934405159599
 20
112.357749528267
 30
0.0
 10
181.0265991032774
 20
112.6497617732671
 30
0.0
 10
181.0092809017284
 20
112.8015025970872
 30
0.0
 10
181.007658509795
 20
113.2751527083076
 30
0.0
 10
181.0761464803387
 20
113.6044933611489
 30
0.0
 10
181.3301967867095
 20
114.2222908562371
 30
0.0
 10
181.5147796860649
 20
114.5115595621738
 30
0.0
 10
181.852148156488
 20
114.8818442215874
 30
0.0
 10
181.9761373254548
 20
114.9962894188889
 30
0.0
 10
182.2423060706723
 20
115.1995949575784
 30
0.0
 10
182.3828427514963
 20
115.2875371293688
 30
0.0
 10
182.6805010867943
 20
115.4341367383796
 30
0.0
 10
182.8399684643368
 20
115.4932495415171
 30
0.0
 10
183.1655858484704
 20
115.5727019115251
 30
0.0
 10
183.3315528308574
 20
115.5936178090453
 30
0.0
 10
183.6703860769205
 20
115.5948674110828
 30
0.0
 10
183.8373767557557
 20
115.5750160758587
 30
0.0
 10
184.1630016695465
 20
115.4979015206888
 30
0.0
 10
184.3231328421035
 20
115.4398382635745
 30
0.0
 10
184.7738380014618
 20
115.2210454399037
 30
0.0
 10
185.0440965026126
 20
115.0130125184245
 30
0.0
 10
185.3838112315144
 20
114.6429101001152
 30
0.0
 10
185.4877698753898
 20
114.5076701724848
 30
0.0
 10
185.6680789680114
 20
114.2259736098095
 30
0.0
 10
185.745512676604
 20
114.0786352326601
 30
0.0
 10
185.8737615314486
 20
113.7706033096798
 30
0.0
 10
185.9240768223654
 20
113.6096195991989
 30
0.0
 10
185.9908250688568
 20
113.2914702893707
 30
0.0
 10
186.0082985780529
 20
113.132183252986
 30
0.0
 10
186.0091403605834
 20
112.8133625282778
 30
0.0
 10
185.9923802630514
 20
112.659742440354
 30
0.0
 10
185.9266281195476
 20
112.3660529301192
 30
0.0
 10
185.876773258774
 20
112.2243625321331
 30
0.0
 10
185.6858084732065
 20
111.834173444595
 30
0.0
 10
185.5005123402366
 20
111.6125300908536
 30
0.0
 10
185.1616234394167
 20
111.3477341990843
 30
0.0
 10
185.0364415170135
 20
111.2691662903662
 30
0.0
 10
184.7705063810402
 20
111.1353768660565
 30
0.0
 10
184.6296507976414
 20
111.0796626588526
 30
0.0
 10
184.3299842011573
 20
110.9888278150599
 30
0.0
 10
184.1696060190226
 20
110.9537483329537
 30
0.0
 10
183.844868878974
 20
110.9075953493402
 30
0.0
 10
183.6782547686756
 20
110.8957938111722
 30
0.0
 10
183.508727172105
 20
110.8957938111722
 30
0.0
  0
SPLINE
  5
F1
330
1F
100
AcDbEntity
  8
0
  6
HIDDEN
 62
     7
370
     0
100
AcDbSpline
210
0.0
220
0.0
230
1.0
 70
    11
 71
     3
 72
    66
 73
    62
 74
     0
 42
0.000000001
 43
0.00000001
 40
0.0
 40
0.0
 40
0.0
 40
0.0
 40
0.0312499999999999
 40
0.0312499999999999
 40
0.0624999999999998
 40
0.0624999999999998
 40
0.0937499999999997
 40
0.0937499999999997
 40
0.1249999999999996
 40
0.1249999999999996
 40
0.1562499999999995
 40
0.1562499999999995
 40
0.1874999999999994
 40
0.1874999999999994
 40
0.2187499999999993
 40
0.2187499999999993
 40
0.2343749999999991
 40
0.2343749999999991
 40
0.2499999999999989
 40
0.2499999999999989
 40
0.2812499999999985
 40
0.2812499999999985
 40
0.3124999999999981
 40
0.3124999999999981
 40
0.3749999999999977
 40
0.3749999999999977
 40
0.4374999999999964
 40
0.4374999999999964
 40
0.4687499999999957
 40
0.4687499999999957
 40
0.4999999999999949
 40
0.4999999999999949
 40
0.5312499999999941
 40
0.5312499999999941
 40
0.5624999999999933
 40
0.5624999999999933
 40
0.5937499999999926
 40
0.5937499999999926
 40
0.6249999999999919
 40
0.6249999999999919
 40
0.6874999999999923
 40
0.6874999999999923
 40
0.7499999999999928
 40
0.7499999999999928
 40
0.7812499999999934
 40
0.7812499999999934
 40
0.8124999999999941
 40
0.8124999999999941
 40
0.8437499999999948
 40
0.8437499999999948
 40
0.8593749999999951
 40
0.8593749999999951
 40
0.8749999999999954
 40
0.8749999999999954
 40
0.9062499999999966
 40
0.9062499999999966
 40
0.9374999999999977
 40
0.9374999999999977
 40
0.9687499999999988
 40
0.9687499999999988
 40
1.0
 40
1.0
 40
1.0
 40
1.0
 10
181.0897521118853
 20
103.7645644347184
 30
0.0
 10
181.0501618242454
 20
103.9181779544093
 30
0.0
 10
181.0249008335639
 20
104.0704213820094
 30
0.0
 10
181.003755927549
 20
104.3725262987578
 30
0.0
 10
181.0084036396426
 20
104.5230064425997
 30
0.0
 10
181.0470973074282
 20
104.8054507158983
 30
0.0
 10
181.0813942665229
 20
104.9408974108715
 30
0.0
 10
181.1757050524723
 20
105.1900408094485
 30
0.0
 10
181.2348515927656
 20
105.3025322264713
 30
0.0
 10
181.3731877774578
 20
105.5036991617065
 30
0.0
 10
181.4518242934085
 20
105.5909533178982
 30
0.0
 10
181.6163778454235
 20
105.7331629368476
 30
0.0
 10
181.7043125416852
 20
105.7896258647247
 30
0.0
 10
181.8718910880361
 20
105.8645347802712
 30
0.0
 10
181.9524879648434
 20
105.8833446993822
 30
0.0
 10
182.047330330305
 20
105.878776822909
 30
0.0
 10
182.0742546357269
 20
105.8719025674301
 30
0.0
 10
182.1167833107781
 20
105.8478123996039
 30
0.0
 10
182.1322695998503
 20
105.8304047476541
 30
0.0
 10
182.1596939265385
 20
105.7665123713676
 30
0.0
 10
182.1533313230063
 20
105.7073426006347
 30
0.0
 10
182.1106811874708
 20
105.5739227925794
 30
0.0
 10
182.0751855801739
 20
105.4993673818174
 30
0.0
 10
181.9466482330039
 20
105.2570106505456
 30
0.0
 10
181.835474813565
 20
105.0758186743864
 30
0.0
 10
181.6067489979428
 20
104.6721202313494
 30
0.0
 10
181.4856838143358
 20
104.4460955660363
 30
0.0
 10
181.3175698397835
 20
104.0675638291051
 30
0.0
 10
181.2632296231578
 20
103.9334853249118
 30
0.0
 10
181.1646045489168
 20
103.6513053785614
 30
0.0
 10
181.1206017073547
 20
103.5046067057911
 30
0.0
 10
181.0498152798027
 20
103.1941899243985
 30
0.0
 10
181.024625133347
 20
103.0356854946609
 30
0.0
 10
181.0037111589822
 20
102.7243219200614
 30
0.0
 10
181.0086730007351
 20
102.5766035414322
 30
0.0
 10
181.0468471190929
 20
102.3131015424602
 30
0.0
 10
181.0796834447923
 20
102.1985626234218
 30
0.0
 10
181.1604159071044
 20
102.0075969269532
 30
0.0
 10
181.2085176140463
 20
101.9294132389868
 30
0.0
 10
181.3649600107637
 20
101.7356180610473
 30
0.0
 10
181.481749470508
 20
101.6618429070195
 30
0.0
 10
181.7168064425912
 20
101.5787939502388
 30
0.0
 10
181.8326040295507
 20
101.5716505573232
 30
0.0
 10
181.9833047332596
 20
101.603424574753
 30
0.0
 10
182.0296245210149
 20
101.6213220267517
 30
0.0
 10
182.1057077318751
 20
101.6749215471431
 30
0.0
 10
182.1350938873776
 20
101.7104407177075
 30
0.0
 10
182.1585549206054
 20
101.8045500925104
 30
0.0
 10
182.1515152767994
 20
101.8636705663247
 30
0.0
 10
182.1025175799196
 20
101.9735777957422
 30
0.0
 10
182.0796645353419
 20
102.0142210210494
 30
0.0
 10
182.0243220176701
 20
102.1005285049034
 30
0.0
 10
181.991732882243
 20
102.1465700081601
 30
0.0
 10
181.8829344073827
 20
102.2943488163598
 30
0.0
 10
181.7983136857305
 20
102.402817418678
 30
0.0
 10
181.628125456926
 20
102.6368642813233
 30
0.0
 10
181.5414953819801
 20
102.7638752460643
 30
0.0
 10
181.3823793806394
 20
103.0295612075372
 30
0.0
 10
181.3080654863506
 20
103.1711381201122
 30
0.0
 10
181.1817366646052
 20
103.4618689459298
 30
0.0
 10
181.1293423995253
 20
103.6109509150274
 30
0.0
 10
181.0897521118853
 20
103.7645644347184
 30
0.0
  0
LINE
  5
F2
330
1F
100
AcDbEntity
  8
0
  6
HIDDEN
 62
     7
370
     0
100
AcDbLine
 10
196.8087271721
 20
114.4205252601
 30
0.0
 11
196.8087271721
 21
100.9205252601
 31
0.0
  0
LINE
  5
F3
330
1F
100
AcDbEntity
  8
0
  6
HIDDEN
 62
     7
370
     0
100
AcDbLine
 10
196.8087271721
 20
127.9205252601
 30
0.0
 11
196.8087271721
 21
114.4205252601
 31
0.0
  0
LINE
  5
F4
330
1F
100
AcDbEntity
  8
0
  6
HIDDEN
 62
     7
370
     0
100
AcDbLine
 10
201.6747525759
 20
114.4205252601
 30
0.0
 11
201.6747525759
 21
100.4205252601
 31
0.0
  0
LINE
  5
F5
330
1F
100
AcDbEntity
  8
0
  6
HIDDEN
 62
     7
370
     0
100
AcDbLine
 10
201.6747525759
 20
128.4205252601
 30
0.0
 11
201.6747525759
 21
114.4205252601
 31
0.0
  0
SPLINE
  5
F6
330
1F
100
AcDbEntity
  8
0
  6
HIDDEN
 62
     7
370
     0
100
AcDbSpline
210
0.0
220
0.0
230
1.0
 70
     8
 71
     3
 72
    27
 73
    23
 74
     0
 42
0.000000001
 43
0.00000001
 40
0.0
 40
0.0
 40
0.0
 40
0.0
 40
0.0502276546456313
 40
0.1019767555886185
 40
0.1521878370338129
 40
0.2037482555151433
 40
0.2560608828701104
 40
0.3097673130134503
 40
0.364176919052421
 40
0.4203018426686048
 40
0.4722414601292967
 40
0.5259101953177266
 40
0.5745033904784297
 40
0.6244590336957454
 40
0.6741069220792135
 40
0.7250060641311117
 40
0.7782893803821715
 40
0.833056611729365
 40
0.8871906206207478
 40
0.9430835753507701
 40
0.994107476976898
 40
1.0
 40
1.0
 40
1.0
 40
1.0
 10
205.758727172105
 20
128.4205252601291
 30
0.0
 10
205.7722520557795
 20
128.4151837985022
 30
0.0
 10
205.7997115054905
 20
128.4043390769908
 30
0.0
 10
206.01968054715
 20
128.3192599466074
 30
0.0
 10
206.3648289756003
 20
128.1919957927834
 30
0.0
 10
206.8366671715308
 20
128.0300809713182
 30
0.0
 10
207.4330181163825
 20
127.8464519535366
 30
0.0
 10
208.1450051203889
 20
127.6591177648527
 30
0.0
 10
208.9665548225393
 20
127.4880342677899
 30
0.0
 10
209.8534734873226
 20
127.3607486498476
 30
0.0
 10
210.7822153290316
 20
127.292717983788
 30
0.0
 10
211.6838269455612
 20
127.2915958552555
 30
0.0
 10
212.5592726941665
 20
127.3515262344974
 30
0.0
 10
213.375472654695
 20
127.459871755611
 30
0.0
 10
214.1467049581774
 20
127.6083092058279
 30
0.0
 10
214.8589610427535
 20
127.7834957296506
 30
0.0
 10
215.4987354271932
 20
127.9712351643011
 30
0.0
 10
216.0327991284134
 20
128.1491945168648
 30
0.0
 10
216.4436474747441
 20
128.2986969693417
 30
0.0
 10
216.679767154094
 20
128.3894284031555
 30
0.0
 10
216.77756180951
 20
128.4278923498798
 30
0.0
 10
216.7535933981212
 20
128.4185166295324
 30
0.0
 10
216.7511119629853
 20
128.4175459668749
 30
0.0
  0
LINE
  5
F7
330
1F
100
AcDbEntity
  8
0
  6
HIDDEN
 62
     7
370
     0
100
AcDbLine
 10
163.3087271721
 20
149.7205252601
 30
0.0
 11
163.4803000474
 21
149.7205252601
 31
0.0
  0
ELLIPSE
  5
F8
330
1F
100
AcDbEntity
  8
0
  6
HIDDEN
 62
     7
370
     0
100
AcDbEllipse
 10
163.4803000474
 20
151.7205252601
 30
0.0
 11
0.0
 21
2.0
 31
0.0
210
0.0
220
0.0
230
1.0
 40
0.4142135624
 41
3.141592653589793
 42
4.712388980384681
  0
ELLIPSE
  5
F9
330
1F
100
AcDbEntity
  8
0
  6
HIDDEN
 62
     7
370
     0
100
AcDbEllipse
 10
163.4803000474
 20
77.1205252601
 30
0.0
 11
0.0
 21
2.0
 31
0.0
210
0.0
220
0.0
230
1.0
 40
0.4142135624
 41
4.712388980384702
 42
6.283185307179586
  0
LINE
  5
FA
330
1F
100
AcDbEntity
  8
0
  6
HIDDEN
 62
     7
370
     0
100
AcDbLine
 10
163.4803000474
 20
79.1205252601
 30
0.0
 11
163.3087271721
 21
79.1205252601
 31
0.0
  0
LINE
  5
FB
330
1F
100
AcDbEntity
  8
0
  6
HIDDEN
 62
     7
370
     0
100
AcDbLine
 10
164.3087271721
 20
67.0999551062
 30
0.0
 11
163.6948635922
 21
66.4860915263
 31
0.0
  0
LINE
  5
FC
330
1F
100
AcDbEntity
  8
0
  6
HIDDEN
 62
     7
370
     0
100
AcDbLine
 10
163.6948635922
 20
162.354958994
 30
0.0
 11
164.3087271721
 21
161.7410954141
 31
0.0
  0
SPLINE
  5
FD
330
1F
100
AcDbEntity
  8
0
  6
HIDDEN
 62
     7
370
     0
100
AcDbSpline
210
0.0
220
0.0
230
1.0
 70
     8
 71
     3
 72
    14
 73
    10
 74
     0
 42
0.000000001
 43
0.00000001
 40
0.0
 40
0.0
 40
0.0
 40
0.0
 40
0.1878282877270135
 40
0.3545816312663703
 40
0.5003024319338641
 40
0.6713282049355653
 40
0.8376422060377707
 40
0.9994166164999624
 40
1.0
 40
1.0
 40
1.0
 40
1.0
 10
190.3930269089917
 20
162.626546862071
 30
0.0
 10
190.7260298313204
 20
162.7080947995176
 30
0.0
 10
191.3546716660764
 20
162.8620407308581
 30
0.0
 10
192.0541082380141
 20
163.0530194489734
 30
0.0
 10
192.6019853375197
 20
163.2103917360519
 30
0.0
 10
193.0081009316733
 20
163.328717172085
 30
0.0
 10
193.2412288243547
 20
163.3990941867037
 30
0.0
 10
193.3352182109416
 20
163.4287285379715
 30
0.0
 10
193.3085353177999
 20
163.4204660123681
 30
0.0
 10
193.3084394409145
 20
163.4204363234878
 30
0.0
  0
LINE
  5
FE
330
1F
100
AcDbEntity
  8
0
  6
HIDDEN
 62
     7
370
     0
100
AcDbLine
 10
190.8923611803
 20
162.7508608767
 30
0.0
 11
190.3930226206
 21
162.6265915165
 31
0.0
  0
SPLINE
  5
FF
330
1F
100
AcDbEntity
  8
0
  6
HIDDEN
 62
     7
370
     0
100
AcDbSpline
210
0.0
220
0.0
230
1.0
 70
     8
 71
     3
 72
    13
 73
     9
 74
     0
 42
0.000000001
 43
0.00000001
 40
0.0
 40
0.0
 40
0.0
 40
0.0
 40
0.0005825290635639
 40
0.1623661983603469
 40
0.328738549438346
 40
0.4998718252132373
 40
0.7262528256096872
 40
1.0
 40
1.0
 40
1.0
 40
1.0
 10
193.3082930147113
 20
65.42065806678826
 30
0.0
 10
193.3084378007462
 20
65.42061372459496
 30
0.0
 10
193.3487934834639
 20
65.40825438700651
 30
0.0
 10
193.2346388765791
 20
65.4438834730117
 30
0.0
 10
193.0105217688993
 20
65.5117314359252
 30
0.0
 10
192.5312128779292
 20
65.65082461005254
 30
0.0
 10
191.7377052202843
 20
65.88107119081602
 30
0.0
 10
190.8686873478101
 20
66.0965567615843
 30
0.0
 10
190.3930269089917
 20
66.21450365818707
 30
0.0
  0
LINE
  5
100
330
1F
100
AcDbEntity
  8
0
  6
HIDDEN
 62
     7
370
     0
100
AcDbLine
 10
163.4803000474
 20
149.7205252601
 30
0.0
 11
180.4587271721
 21
149.7205252601
 31
0.0
  0
LINE
  5
101
330
1F
100
AcDbEntity
  8
0
  6
HIDDEN
 62
     7
370
     0
100
AcDbLine
 10
176.5412962086
 20
67.0999551062
 30
0.0
 11
164.3087271721
 21
67.0999551062
 31
0.0
  0
LINE
  5
102
330
1F
100
AcDbEntity
  8
0
  6
HIDDEN
 62
     7
370
     0
100
AcDbLine
 10
164.3087271721
 20
67.0999551062
 30
0.0
 11
164.3087271721
 21
77.1205252601
 31
0.0
  0
LINE
  5
103
330
1F
100
AcDbEntity
  8
0
  6
HIDDEN
 62
     7
370
     0
100
AcDbLine
 10
180.4587271721
 20
79.1205252601
 30
0.0
 11
163.4803000474
 21
79.1205252601
 31
0.0
  0
LINE
  5
104
330
1F
100
AcDbEntity
  8
0
  6
HIDDEN
 62
     7
370
     0
100
AcDbLine
 10
164.3087271721
 20
161.7410954141
 30
0.0
 11
176.5412962086
 21
161.7410954141
 31
0.0
  0
LINE
  5
105
330
1F
100
AcDbEntity
  8
0
  6
HIDDEN
 62
     7
370
     0
100
AcDbLine
 10
164.3087271721
 20
161.7410954141
 30
0.0
 11
164.3087271721
 21
151.7205252601
 31
0.0
  0
LINE
  5
106
330
1F
100
AcDbEntity
  8
0
  6
HIDDEN
 62
     7
370
     0
100
AcDbLine
 10
180.4587271721
 20
149.7205252601
 30
0.0
 11
191.3087271721
 21
149.7205252601
 31
0.0
  0
LINE
  5
107
330
1F
100
AcDbEntity
  8
0
  6
HIDDEN
 62
     7
370
     0
100
AcDbLine
 10
191.3087271721
 20
79.1205252601
 30
0.0
 11
180.4587271721
 21
79.1205252601
 31
0.0
  0
LINE
  5
108
330
1F
100
AcDbEntity
  8
0
  6
HIDDEN
 62
     7
370
     0
100
AcDbLine
 10
68.5087271721
 20
101.9205252601
 30
0.0
 11
68.5087271721
 21
126.9205252601
 31
0.0
  0
LINE
  5
109
330
1F
100
AcDbEntity
  8
0
  6
HIDDEN
 62
     7
370
     0
100
AcDbLine
 10
71.7933315211
 20
103.9205252601
 30
0.0
 11
71.7933315211
 21
124.9205252601
 31
0.0
  0
LINE
  5
10A
330
1F
100
AcDbEntity
  8
0
  6
HIDDEN
 62
     7
370
     0
100
AcDbLine
 10
121.5087271721
 20
103.9205252601
 30
0.0
 11
121.5087271721
 21
124.9205252601
 31
0.0
  0
LINE
  5
10B
330
1F
100
AcDbEntity
  8
0
  6
HIDDEN
 62
     7
370
     0
100
AcDbLine
 10
125.264106041
 20
110.1705252601
 30
0.0
 11
125.264106041
 21
118.6705252601
 31
0.0
  0
SPLINE
  5
10C
330
1F
100
AcDbEntity
  8
0
  6
HIDDEN
 62
     7
370
     0
100
AcDbSpline
210
0.0
220
0.0
230
1.0
 70
     8
 71
     3
 72
     9
 73
     5
 74
     0
 42
0.000000001
 43
0.00000001
 40
0.0
 40
0.0
 40
0.0
 40
0.0
 40
0.4952003844591947
 40
0.9999999999999999
 40
0.9999999999999999
 40
0.9999999999999999
 40
0.9999999999999999
 10
190.3930113865421
 20
162.6265374245418
 30
0.0
 10
190.498207878032
 20
162.7836936507789
 30
0.0
 10
190.7106400464858
 20
163.1010525042231
 30
0.0
 10
190.9253582667478
 20
163.4196786808197
 30
0.0
 10
191.0337479417856
 20
163.5805210522669
 30
0.0
  0
SPLINE
  5
10D
330
1F
100
AcDbEntity
  8
0
  6
HIDDEN
 62
     7
370
     0
100
AcDbSpline
210
0.0
220
0.0
230
1.0
 70
     8
 71
     3
 72
     9
 73
     5
 74
     0
 42
0.000000001
 43
0.00000001
 40
0.0
 40
0.0
 40
0.0
 40
0.0
 40
0.5047996155397978
 40
1.0
 40
1.0
 40
1.0
 40
1.0
 10
191.0337479417856
 20
65.26052946799125
 30
0.0
 10
190.925358266748
 20
65.42137183943802
 30
0.0
 10
190.7106400464861
 20
65.73999801603445
 30
0.0
 10
190.4982078780322
 20
66.05735686947881
 30
0.0
 10
190.3930113865421
 20
66.21451309571631
 30
0.0
  0
LINE
  5
10E
330
1F
100
AcDbEntity
  8
0
  6
HIDDEN
 62
     7
370
     0
100
AcDbLine
 10
205.7587271721
 20
137.4205252601
 30
0.0
 11
216.7587271721
 21
137.4205252601
 31
0.0
  0
SPLINE
  5
10F
330
1F
100
AcDbEntity
  8
0
  6
HIDDEN
 62
     7
370
     0
100
AcDbSpline
210
0.0
220
0.0
230
1.0
 70
    11
 71
     3
 72
    60
 73
    56
 74
     0
 42
0.000000001
 43
0.00000001
 40
0.0
 40
0.0
 40
0.0
 40
0.0
 40
0.03125
 40
0.03125
 40
0.0625
 40
0.0625
 40
0.125
 40
0.125
 40
0.15625
 40
0.15625
 40
0.1875
 40
0.1875
 40
0.21875
 40
0.21875
 40
0.2500000000000001
 40
0.2500000000000001
 40
0.3125000000000001
 40
0.3125000000000001
 40
0.3750000000000002
 40
0.3750000000000002
 40
0.4062500000000001
 40
0.4062500000000001
 40
0.4374999999999999
 40
0.4374999999999999
 40
0.4687499999999998
 40
0.4687499999999998
 40
0.4999999999999996
 40
0.4999999999999996
 40
0.5312499999999994
 40
0.5312499999999994
 40
0.5624999999999993
 40
0.5624999999999993
 40
0.6249999999999996
 40
0.6249999999999996
 40
0.6562499999999996
 40
0.6562499999999996
 40
0.6874999999999994
 40
0.6874999999999994
 40
0.7187499999999993
 40
0.7187499999999993
 40
0.7499999999999992
 40
0.7499999999999992
 40
0.7812499999999992
 40
0.7812499999999992
 40
0.8124999999999992
 40
0.8124999999999992
 40
0.8749999999999991
 40
0.8749999999999991
 40
0.9062499999999994
 40
0.9062499999999994
 40
0.9374999999999997
 40
0.9374999999999997
 40
0.9687499999999998
 40
0.9687499999999998
 40
1.0
 40
1.0
 40
1.0
 40
1.0
 10
183.508727172105
 20
113.2467936051564
 30
0.0
 10
183.6782547686756
 20
113.2467936051564
 30
0.0
 10
183.8438526163831
 20
113.2671165285082
 30
0.0
 10
184.1679726930558
 20
113.3447939992875
 30
0.0
 10
184.3277827573814
 20
113.403117597518
 30
0.0
 10
184.7771243599228
 20
113.6223193008331
 30
0.0
 10
185.0468070996982
 20
113.8305641754996
 30
0.0
 10
185.3849918884557
 20
114.1996425403693
 30
0.0
 10
185.4885583220796
 20
114.3344429278119
 30
0.0
 10
185.6690097843795
 20
114.6167019510644
 30
0.0
 10
185.7461317506418
 20
114.7638200096255
 30
0.0
 10
185.873549635449
 20
115.0700207239007
 30
0.0
 10
185.9240138282501
 20
115.2311558953098
 30
0.0
 10
185.9908552409326
 20
115.5496988258249
 30
0.0
 10
186.0081734424816
 20
115.7084510082354
 30
0.0
 10
186.009795834415
 20
116.182753929861
 30
0.0
 10
185.9413078638714
 20
116.4838740656604
 30
0.0
 10
185.6872575575006
 20
117.0048610369435
 30
0.0
 10
185.5026746581451
 20
117.2261168627737
 30
0.0
 10
185.165306187722
 20
117.4907882530967
 30
0.0
 10
185.0413170187552
 20
117.5690575310957
 30
0.0
 10
184.7751482735377
 20
117.7036991206925
 30
0.0
 10
184.6346115927137
 20
117.7595286745807
 30
0.0
 10
184.3369532574157
 20
117.8504517620886
 30
0.0
 10
184.1774858798732
 20
117.885806347568
 30
0.0
 10
183.8518684957396
 20
117.9328194909288
 30
0.0
 10
183.6859015133526
 20
117.9448851690241
 30
0.0
 10
183.3470682672895
 20
117.945611616905
 30
0.0
 10
183.1800775884543
 20
117.9341651941861
 30
0.0
 10
182.8544526746635
 20
117.8885805730797
 30
0.0
 10
182.6943215021065
 20
117.8539126902779
 30
0.0
 10
182.2436163427482
 20
117.7184310723262
 30
0.0
 10
181.9733578415974
 20
117.5842435269155
 30
0.0
 10
181.6336431126956
 20
117.3201467613988
 30
0.0
 10
181.5296844688202
 20
117.2200554766334
 30
0.0
 10
181.3493753761986
 20
117.001975177826
 30
0.0
 10
181.271941667606
 20
116.8834398132325
 30
0.0
 10
181.1436928127614
 20
116.6242114888572
 30
0.0
 10
181.0933775218446
 20
116.4830509109858
 30
0.0
 10
181.0266292753533
 20
116.1913954249334
 30
0.0
 10
181.0091557661571
 20
116.0391820153643
 30
0.0
 10
181.0083139836267
 20
115.7207000035991
 30
0.0
 10
181.0250740811586
 20
115.5602923472719
 30
0.0
 10
181.0908262246625
 20
115.2404898790021
 30
0.0
 10
181.1406810854361
 20
115.0791427696568
 30
0.0
 10
181.3316458710036
 20
114.6162084037327
 30
0.0
 10
181.5169420039734
 20
114.3263107461245
 30
0.0
 10
181.8558309047934
 20
113.9555762698266
 30
0.0
 10
181.9810128271965
 20
113.8405783337808
 30
0.0
 10
182.2469479631698
 20
113.6383854637935
 30
0.0
 10
182.3878035465686
 20
113.5505710337498
 30
0.0
 10
182.6874701430528
 20
113.4040008543243
 30
0.0
 10
182.8478483251874
 20
113.3452925333334
 30
0.0
 10
183.1725854652361
 20
113.2672538557201
 30
0.0
 10
183.3391995755345
 20
113.2467936051564
 30
0.0
 10
183.508727172105
 20
113.2467936051564
 30
0.0
  0
SPLINE
  5
110
330
1F
100
AcDbEntity
  8
0
  6
HIDDEN
 62
     7
370
     0
100
AcDbSpline
210
0.0
220
0.0
230
1.0
 70
    11
 71
     3
 72
    66
 73
    62
 74
     0
 42
0.000000001
 43
0.00000001
 40
0.0
 40
0.0
 40
0.0
 40
0.0
 40
0.0312499999999998
 40
0.0312499999999998
 40
0.0624999999999996
 40
0.0624999999999996
 40
0.0937499999999994
 40
0.0937499999999994
 40
0.1249999999999991
 40
0.1249999999999991
 40
0.1562499999999989
 40
0.1562499999999989
 40
0.1874999999999987
 40
0.1874999999999987
 40
0.2187499999999985
 40
0.2187499999999985
 40
0.2499999999999983
 40
0.2499999999999983
 40
0.2812499999999981
 40
0.2812499999999981
 40
0.3124999999999978
 40
0.3124999999999978
 40
0.3437499999999976
 40
0.3437499999999976
 40
0.3749999999999974
 40
0.3749999999999974
 40
0.4062499999999972
 40
0.4062499999999972
 40
0.437499999999997
 40
0.437499999999997
 40
0.4687499999999968
 40
0.4687499999999968
 40
0.4999999999999966
 40
0.4999999999999966
 40
0.5312499999999963
 40
0.5312499999999963
 40
0.5624999999999961
 40
0.5624999999999961
 40
0.6249999999999959
 40
0.6249999999999959
 40
0.6562499999999962
 40
0.6562499999999962
 40
0.6874999999999966
 40
0.6874999999999966
 40
0.7187499999999969
 40
0.7187499999999969
 40
0.7499999999999972
 40
0.7499999999999972
 40
0.7812499999999977
 40
0.7812499999999977
 40
0.812499999999998
 40
0.812499999999998
 40
0.8437499999999983
 40
0.8437499999999983
 40
0.8749999999999987
 40
0.8749999999999987
 40
0.906249999999999
 40
0.906249999999999
 40
0.9374999999999993
 40
0.9374999999999993
 40
1.0
 40
1.0
 40
1.0
 40
1.0
 10
183.508727172105
 20
126.5819794670428
 30
0.0
 10
183.3435268814411
 20
126.5819794670428
 30
0.0
 10
183.1810943401446
 20
126.5975450583248
 30
0.0
 10
182.8615361845546
 20
126.6584913301544
 30
0.0
 10
182.7027528465776
 20
126.7046133741397
 30
0.0
 10
182.4000148300982
 20
126.8248765617277
 30
0.0
 10
182.2564356649638
 20
126.8984202111484
 30
0.0
 10
181.9847059350959
 20
127.0719371340807
 30
0.0
 10
181.8560773715581
 20
127.1728097908673
 30
0.0
 10
181.6255116098909
 20
127.3927945797655
 30
0.0
 10
181.5220376086415
 20
127.5126737433543
 30
0.0
 10
181.3392770707158
 20
127.7725151099518
 30
0.0
 10
181.2616328144871
 20
127.910604540524
 30
0.0
 10
181.1369401637971
 20
128.1955869727722
 30
0.0
 10
181.0889361832186
 20
128.3445820821147
 30
0.0
 10
181.0247044409004
 20
128.6491071695094
 30
0.0
 10
181.0088149968582
 20
128.8018765169459
 30
0.0
 10
181.008640066503
 20
129.1083661985599
 30
0.0
 10
181.0248707178379
 20
129.2636929688549
 30
0.0
 10
181.0886519405475
 20
129.5637551747534
 30
0.0
 10
181.1358440519438
 20
129.7092898872527
 30
0.0
 10
181.2610106696017
 20
129.9914231675746
 30
0.0
 10
181.3392701569767
 20
130.1275630089293
 30
0.0
 10
181.5201903403321
 20
130.3790995586989
 30
0.0
 10
181.623475569256
 20
130.4961264025421
 30
0.0
 10
181.8567273113046
 20
130.7122016961636
 30
0.0
 10
181.9831411795702
 20
130.807905620049
 30
0.0
 10
182.2538134502649
 20
130.9750586168206
 30
0.0
 10
182.3998952224292
 20
131.0472198024436
 30
0.0
 10
182.702779667902
 20
131.1628738444001
 30
0.0
 10
182.8586100275417
 20
131.2064066515828
 30
0.0
 10
183.1789555168072
 20
131.2653025545162
 30
0.0
 10
183.3446656027788
 20
131.2803886575361
 30
0.0
 10
183.6709969914753
 20
131.2804961892028
 30
0.0
 10
183.8331840773023
 20
131.2660055320131
 30
0.0
 10
184.1555596585108
 20
131.207277467736
 30
0.0
 10
184.3135751325484
 20
131.1631466606067
 30
0.0
 10
184.7649860076239
 20
130.9912170620087
 30
0.0
 10
185.0440654646761
 20
130.8196433693377
 30
0.0
 10
185.3901391691745
 20
130.4999925509714
 30
0.0
 10
185.4957811850891
 20
130.3809514215829
 30
0.0
 10
185.6775646610599
 20
130.1286316607246
 30
0.0
 10
185.7544524844438
 20
129.9951673493532
 30
0.0
 10
185.8801070418142
 20
129.7134019368009
 30
0.0
 10
185.9284151177289
 20
129.5649812051699
 30
0.0
 10
185.9922330031692
 20
129.2659316073933
 30
0.0
 10
186.008561180212
 20
129.1137285375261
 30
0.0
 10
186.0088906702717
 20
128.8037266786863
 30
0.0
 10
185.9927941584371
 20
128.6502040115883
 30
0.0
 10
185.9295654211758
 20
128.3486752940092
 30
0.0
 10
185.8817288277653
 20
128.1987404687074
 30
0.0
 10
185.7563855098519
 20
127.9115213726165
 30
0.0
 10
185.6796888353267
 20
127.7751424583003
 30
0.0
 10
185.4986374686749
 20
127.5167869002861
 30
0.0
 10
185.393161858314
 20
127.3941117239117
 30
0.0
 10
185.1626352896378
 20
127.1738580398597
 30
0.0
 10
185.0369158520075
 20
127.0749324684259
 30
0.0
 10
184.7641490028107
 20
126.9000937875042
 30
0.0
 10
184.6184296264046
 20
126.8254169425238
 30
0.0
 10
184.1673605212966
 20
126.6457907270311
 30
0.0
 10
183.8391277534328
 20
126.5819794670428
 30
0.0
 10
183.508727172105
 20
126.5819794670428
 30
0.0
  0
SPLINE
  5
111
330
1F
100
AcDbEntity
  8
0
  6
HIDDEN
 62
     7
370
     0
100
AcDbSpline
210
0.0
220
0.0
230
1.0
 70
    11
 71
     3
 72
    60
 73
    56
 74
     0
 42
0.000000001
 43
0.00000001
 40
0.0
 40
0.0
 40
0.0
 40
0.0
 40
0.0312499999999997
 40
0.0312499999999997
 40
0.0624999999999994
 40
0.0624999999999994
 40
0.0937499999999991
 40
0.0937499999999991
 40
0.1249999999999988
 40
0.1249999999999988
 40
0.1562499999999985
 40
0.1562499999999985
 40
0.1874999999999982
 40
0.1874999999999982
 40
0.2187499999999979
 40
0.2187499999999979
 40
0.2499999999999976
 40
0.2499999999999976
 40
0.3124999999999974
 40
0.3124999999999974
 40
0.3749999999999973
 40
0.3749999999999973
 40
0.4062499999999969
 40
0.4062499999999969
 40
0.4374999999999965
 40
0.4374999999999965
 40
0.4531249999999961
 40
0.4531249999999961
 40
0.4687499999999956
 40
0.4687499999999956
 40
0.4999999999999954
 40
0.4999999999999954
 40
0.5624999999999949
 40
0.5624999999999949
 40
0.6249999999999951
 40
0.6249999999999951
 40
0.6874999999999952
 40
0.6874999999999952
 40
0.7187499999999958
 40
0.7187499999999958
 40
0.7499999999999962
 40
0.7499999999999962
 40
0.7812499999999967
 40
0.7812499999999967
 40
0.8124999999999971
 40
0.8124999999999971
 40
0.8437499999999977
 40
0.8437499999999977
 40
0.8749999999999981
 40
0.8749999999999981
 40
0.9062499999999986
 40
0.9062499999999986
 40
0.937499999999999
 40
0.937499999999999
 40
1.0
 40
1.0
 40
1.0
 40
1.0
 10
181.0897521118853
 20
123.8900004604062
 30
0.0
 10
181.1293421947321
 20
123.7585199290522
 30
0.0
 10
181.1816538156523
 20
123.6393360783726
 30
0.0
 10
181.3073739212549
 20
123.4241425910446
 30
0.0
 10
181.381796951699
 20
123.3275546854364
 30
0.0
 10
181.5405072598921
 20
123.1669937736813
 30
0.0
 10
181.6253858596976
 20
123.1017145369793
 30
0.0
 10
181.7971590792394
 20
123.0042123624221
 30
0.0
 10
181.8811693155354
 20
122.9737372656249
 30
0.0
 10
182.026565238814
 20
122.9539882972674
 30
0.0
 10
182.0848314873233
 20
122.9657648467636
 30
0.0
 10
182.1514362121334
 20
123.030185189547
 30
0.0
 10
182.1585970965312
 20
123.0808983276268
 30
0.0
 10
182.1354517771489
 20
123.2039218400018
 30
0.0
 10
182.1065436911793
 20
123.2743930662871
 30
0.0
 10
182.0311229333341
 20
123.4280147289516
 30
0.0
 10
181.9841774605578
 20
123.5116499971355
 30
0.0
 10
181.8325355689363
 20
123.7750302361456
 30
0.0
 10
181.7166084316731
 20
123.9685791615692
 30
0.0
 10
181.4829828606908
 20
124.4054486334651
 30
0.0
 10
181.3643000939889
 20
124.6484537676525
 30
0.0
 10
181.2078287850333
 20
125.0595283061822
 30
0.0
 10
181.1598421364812
 20
125.2031998716656
 30
0.0
 10
181.0792331266909
 20
125.5036627996245
 30
0.0
 10
181.0465335977958
 20
125.6621620538988
 30
0.0
 10
181.0181129884519
 20
125.8973725757281
 30
0.0
 10
181.0119669164783
 20
125.9766201835246
 30
0.0
 10
181.0074887147134
 20
126.128297753984
 30
0.0
 10
181.0090049251256
 20
126.2015058262924
 30
0.0
 10
181.024767864802
 20
126.4132615575194
 30
0.0
 10
181.0502419194874
 20
126.5391597033808
 30
0.0
 10
181.1566066632363
 20
126.8608900694
 30
0.0
 10
181.2624846925069
 20
126.9989037857601
 30
0.0
 10
181.4856549134519
 20
127.1847156368903
 30
0.0
 10
181.6065413455791
 20
127.2336396716465
 30
0.0
 10
181.8356238192608
 20
127.2696909974375
 30
0.0
 10
181.9457866375113
 20
127.2578128142357
 30
0.0
 10
182.0737698048623
 20
127.1932052526863
 30
0.0
 10
182.1101111502748
 20
127.1631980389228
 30
0.0
 10
182.1532011534349
 20
127.0826699153729
 30
0.0
 10
182.1596859620368
 20
127.0310894981211
 30
0.0
 10
182.1236452093359
 20
126.9015422884955
 30
0.0
 10
182.0794259942107
 20
126.821683464002
 30
0.0
 10
181.9537760193985
 20
126.6395539886971
 30
0.0
 10
181.8726518879171
 20
126.535501548677
 30
0.0
 10
181.7057065178228
 20
126.3125376529977
 30
0.0
 10
181.6178183530928
 20
126.1907342709524
 30
0.0
 10
181.4521788558438
 20
125.9331730478928
 30
0.0
 10
181.3742327677063
 20
125.7976941875789
 30
0.0
 10
181.2349770340348
 20
125.5109398662308
 30
0.0
 10
181.1759513151358
 20
125.3644878283397
 30
0.0
 10
181.0821663614325
 20
125.0642430984377
 30
0.0
 10
181.0473533033231
 20
124.9085412423126
 30
0.0
 10
180.9890356986464
 20
124.4527782550509
 30
0.0
 10
181.0105719461916
 20
124.1529615231141
 30
0.0
 10
181.0897521118853
 20
123.8900004604062
 30
0.0
  0
LWPOLYLINE
  5
112
330
1F
100
AcDbEntity
  8
0
  6
HIDDEN
 62
     7
370
     0
100
AcDbPolyline
 90
       20
 70
   128
 43
0.0
 10
164.2909848726
 20
127.2071761193
 10
164.4477390142
 20
126.7210727894
 10
164.6960267856
 20
126.4162204256
 10
165.0089423541
 20
126.3256545119
 10
165.3525764625
 20
126.4591892702
 10
165.6896910231
 20
126.8023541376
 10
165.9837544424
 20
127.3179618759
 10
166.202900386
 20
127.9501383861
 10
166.3233809907
 20
128.6303775342
 10
166.3321403133
 20
129.2849648534
 10
166.2282291455
 20
129.8429656508
 10
166.0229078744
 20
130.2439118817
 10
165.7384262459
 20
130.4443548006
 10
165.4056122585
 20
130.4225733071
 10
165.0605314718
 20
130.180927764
 10
164.7405787437
 20
129.7456042154
 10
164.4804259167
 20
129.1637767225
 10
164.3082645864
 20
128.4984953221
 10
164.2427511042
 20
127.821853577
 10
164.2909848726
 20
127.2071761193
  0
LWPOLYLINE
  5
113
330
1F
100
AcDbEntity
  8
0
  6
HIDDEN
 62
     7
370
     0
100
AcDbPolyline
 90
       24
 70
   128
 43
0.0
 10
163.578114284
 20
126.7547005982
 10
163.7528274109
 20
126.1642319942
 10
164.0206848778
 20
125.7432646181
 10
164.3618209216
 20
125.5230196946
 10
164.7509350427
 20
125.519831782
 10
165.1591684267
 20
125.7339373132
 10
165.556244271
 20
126.1494570604
 10
165.9127132768
 20
126.7355738249
 10
166.2021377687
 20
127.4488180075
 10
166.4030524562
 20
128.2362915502
 10
166.5005564159
 20
129.0395911426
 10
166.4874182253
 20
129.7991397289
 10
166.3646122839
 20
130.4586050651
 10
166.1412465464
 20
130.9690776241
 10
165.8338870279
 20
131.2926979915
 10
165.4653291778
 20
131.405464725
 10
165.0629072457
 20
131.299014432
 10
164.6564670254
 20
130.9812420436
 10
164.2761523287
 20
130.4757152842
 10
163.9501693568
 20
129.8199267609
 10
163.7026947755
 20
129.0625133085
 10
163.5520826424
 20
128.2596488178
 10
163.5095031703
 20
127.4708780752
 10
163.578114284
 20
126.7547005982
  0
LWPOLYLINE
  5
114
330
1F
100
AcDbEntity
  8
0
  6
HIDDEN
 62
     7
370
     0
100
AcDbPolyline
 90
       24
 70
   128
 43
0.0
 10
169.8214679516
 20
127.3304943295
 10
169.5942981583
 20
126.5578523332
 10
169.2839541122
 20
125.8747864063
 10
168.9134526113
 20
125.3319564238
 10
168.5102720571
 20
124.9696216022
 10
168.1043145069
 20
124.8146546576
 10
167.725687975
 20
124.8785487793
 10
167.4024734592
 20
125.1565652328
 10
167.1586423016
 20
125.6280848093
 10
167.0122783435
 20
126.2581370591
 10
166.9742367304
 20
126.9999938891
 10
167.0473388344
 20
127.7986351719
 10
167.2261630071
 20
128.5948293371
 10
167.4974466776
 20
129.3295263059
 10
167.8410699771
 20
129.948236965
 10
168.2315479374
 20
130.4050743754
 10
168.6399205946
 20
130.6661569961
 10
169.0359008168
 20
130.7121215236
 10
169.3901205625
 20
130.5395589792
 10
169.6763089735
 20
130.1612675373
 10
169.8732407647
 20
129.6053033436
 10
169.9663104059
 20
128.912899719
 10
169.9486153477
 20
128.1354090728
 10
169.8214679516
 20
127.3304943295
  0
LWPOLYLINE
  5
115
330
1F
100
AcDbEntity
  8
0
  6
HIDDEN
 62
     7
370
     0
100
AcDbPolyline
 90
       19
 70
   128
 43
0.0
 10
170.2379469673
 20
127.30453274
 10
170.0340029402
 20
126.6554072193
 10
169.7462137147
 20
126.1195657918
 10
169.4092909186
 20
125.7616388418
 10
169.0638724136
 20
125.6247976418
 10
168.7516207693
 20
125.7255472603
 10
168.5101981423
 20
126.0517358062
 10
168.3687236644
 20
126.5640201269
 10
168.3442612457
 20
127.2006111728
 10
168.4397614148
 20
127.8847266688
 10
168.6437054418
 20
128.5338521894
 10
168.9314946674
 20
129.069693617
 10
169.2684174635
 20
129.427620567
 10
169.6138359684
 20
129.5644617669
 10
169.9260876127
 20
129.4637121485
 10
170.1675102397
 20
129.1375236026
 10
170.3089847176
 20
128.6252392819
 10
170.3334471364
 20
127.9886482359
 10
170.2379469673
 20
127.30453274
  0
LWPOLYLINE
  5
116
330
1F
100
AcDbEntity
  8
0
  6
HIDDEN
 62
     7
370
     0
100
AcDbPolyline
 90
       24
 70
   128
 43
0.0
 10
166.6346163365
 20
127.9597873279
 10
166.4074465432
 20
127.1871453317
 10
166.097102497
 20
126.5040794048
 10
165.7266009961
 20
125.9612494223
 10
165.323420442
 20
125.5989146006
 10
164.9174628917
 20
125.443947656
 10
164.5388363599
 20
125.5078417778
 10
164.2156218441
 20
125.7858582312
 10
163.9717906864
 20
126.2573778078
 10
163.8254267284
 20
126.8874300576
 10
163.7873851152
 20
127.6292868875
 10
163.8604872193
 20
128.4279281703
 10
164.039311392
 20
129.2241223355
 10
164.3105950625
 20
129.9588193043
 10
164.654218362
 20
130.5775299635
 10
165.0446963223
 20
131.0343673738
 10
165.4530689795
 20
131.2954499946
 10
165.8490492017
 20
131.3414145221
 10
166.2032689473
 20
131.1688519777
 10
166.4894573584
 20
130.7905605358
 10
166.6863891495
 20
130.2345963421
 10
166.7794587908
 20
129.5421927175
 10
166.7617637326
 20
128.7647020713
 10
166.6346163365
 20
127.9597873279
  0
LWPOLYLINE
  5
117
330
1F
100
AcDbEntity
  8
0
  6
HIDDEN
 62
     7
370
     0
100
AcDbPolyline
 90
       21
 70
   128
 43
0.0
 10
166.1080928643
 20
128.0949639995
 10
165.8888789364
 20
127.3758686721
 10
165.5835096214
 20
126.7618854853
 10
165.2218765956
 20
126.3131153913
 10
164.839379019
 20
126.0734871336
 10
164.4734584197
 20
126.0664571958
 10
164.1599336552
 20
126.292713717
 10
163.9294947141
 20
126.7301091327
 10
163.8046985654
 20
127.3358281319
 10
163.7977611257
 20
128.0505787188
 10
163.9093614799
 20
128.8043961259
 10
164.1285754078
 20
129.5234914533
 10
164.4339447228
 20
130.1374746401
 10
164.7955777486
 20
130.5862447342
 10
165.1780753252
 20
130.8258729918
 10
165.5439959246
 20
130.8329029296
 10
165.857520689
 20
130.6066464084
 10
166.0879596301
 20
130.1692509927
 10
166.2127557788
 20
129.5635319935
 10
166.2196932185
 20
128.8487814066
 10
166.1080928643
 20
128.0949639995
  0
LINE
  5
118
330
1F
100
AcDbEntity
  8
0
  6
HIDDEN
 62
     7
370
     0
100
AcDbLine
 10
166.0231407905
 20
126.7714746082
 30
0.0
 11
165.9621407951
 21
128.3588912601
 31
0.0
  0
LINE
  5
119
330
1F
100
AcDbEntity
  8
0
  6
HIDDEN
 62
     7
370
     0
100
AcDbLine
 10
165.9621407951
 20
128.3588912601
 30
0.0
 11
164.2300899875
 21
128.7009114034
 31
0.0
  0
LINE
  5
11A
330
1F
100
AcDbEntity
  8
0
  6
HIDDEN
 62
     7
370
     0
100
AcDbLine
 10
166.6797779842
 20
129.6950765713
 30
0.0
 11
165.9621407951
 21
128.3588912601
 31
0.0
  0
LINE
  5
11B
330
1F
100
AcDbEntity
  8
0
  6
HIDDEN
 62
     7
370
     0
100
AcDbLine
 10
164.9477271767
 20
130.0370967146
 30
0.0
 11
164.2300899875
 21
128.7009114034
 31
0.0
  0
LINE
  5
11C
330
1F
100
AcDbEntity
  8
0
  6
HIDDEN
 62
     7
370
     0
100
AcDbLine
 10
164.2910899829
 20
127.1134947515
 30
0.0
 11
164.2300899875
 21
128.7009114034
 31
0.0
  0
LINE
  5
11D
330
1F
100
AcDbEntity
  8
0
  6
HIDDEN
 62
     7
370
     0
100
AcDbLine
 10
165.0697271675
 20
126.8622634108
 30
0.0
 11
164.2910899829
 21
127.1134947515
 31
0.0
  0
LINE
  5
11E
330
1F
100
AcDbEntity
  8
0
  6
HIDDEN
 62
     7
370
     0
100
AcDbLine
 10
166.0231407905
 20
126.7714746082
 30
0.0
 11
164.2910899829
 21
127.1134947515
 31
0.0
  0
LINE
  5
11F
330
1F
100
AcDbEntity
  8
0
  6
HIDDEN
 62
     7
370
     0
100
AcDbLine
 10
166.8017779751
 20
126.5202432674
 30
0.0
 11
166.0231407905
 21
126.7714746082
 31
0.0
  0
LINE
  5
120
330
1F
100
AcDbEntity
  8
0
  6
HIDDEN
 62
     7
370
     0
100
AcDbLine
 10
167.4584151689
 20
129.4438452306
 30
0.0
 11
165.7263643613
 21
129.7858653739
 31
0.0
  0
LINE
  5
121
330
1F
100
AcDbEntity
  8
0
  6
HIDDEN
 62
     7
370
     0
100
AcDbLine
 10
165.7263643613
 20
129.7858653739
 30
0.0
 11
164.9477271767
 21
130.0370967146
 31
0.0
  0
LINE
  5
122
330
1F
100
AcDbEntity
  8
0
  6
HIDDEN
 62
     7
370
     0
100
AcDbLine
 10
166.6797779842
 20
129.6950765713
 30
0.0
 11
164.9477271767
 21
130.0370967146
 31
0.0
  0
LINE
  5
123
330
1F
100
AcDbEntity
  8
0
  6
HIDDEN
 62
     7
370
     0
100
AcDbLine
 10
167.4584151689
 20
129.4438452306
 30
0.0
 11
166.6797779842
 21
129.6950765713
 31
0.0
  0
LINE
  5
124
330
1F
100
AcDbEntity
  8
0
  6
HIDDEN
 62
     7
370
     0
100
AcDbLine
 10
167.5194151643
 20
127.8564285786
 30
0.0
 11
165.7873643567
 21
128.198448722
 31
0.0
  0
LINE
  5
125
330
1F
100
AcDbEntity
  8
0
  6
HIDDEN
 62
     7
370
     0
100
AcDbLine
 10
166.8017779751
 20
126.5202432674
 30
0.0
 11
165.0697271675
 21
126.8622634108
 31
0.0
  0
LINE
  5
126
330
1F
100
AcDbEntity
  8
0
  6
HIDDEN
 62
     7
370
     0
100
AcDbLine
 10
165.0697271675
 20
126.8622634108
 30
0.0
 11
165.7873643567
 21
128.198448722
 31
0.0
  0
LINE
  5
127
330
1F
100
AcDbEntity
  8
0
  6
HIDDEN
 62
     7
370
     0
100
AcDbLine
 10
166.8017779751
 20
126.5202432674
 30
0.0
 11
167.5194151643
 21
127.8564285786
 31
0.0
  0
LINE
  5
128
330
1F
100
AcDbEntity
  8
0
  6
HIDDEN
 62
     7
370
     0
100
AcDbLine
 10
165.7263643613
 20
129.7858653739
 30
0.0
 11
165.7873643567
 21
128.198448722
 31
0.0
  0
LINE
  5
129
330
1F
100
AcDbEntity
  8
0
  6
HIDDEN
 62
     7
370
     0
100
AcDbLine
 10
167.4584151689
 20
129.4438452306
 30
0.0
 11
167.5194151643
 21
127.8564285786
 31
0.0
  0
LWPOLYLINE
  5
12A
330
1F
100
AcDbEntity
  8
0
  6
HIDDEN
 62
     7
370
     0
100
AcDbPolyline
 90
       21
 70
   128
 43
0.0
 10
166.1080928643
 20
100.7460865208
 10
165.8888789364
 20
101.4651818482
 10
165.5835096214
 20
102.079165035
 10
165.2218765956
 20
102.527935129
 10
164.839379019
 20
102.7675633866
 10
164.4734584197
 20
102.7745933245
 10
164.1599336552
 20
102.5483368032
 10
163.9294947141
 20
102.1109413876
 10
163.8046985654
 20
101.5052223883
 10
163.7977611257
 20
100.7904718015
 10
163.9093614799
 20
100.0366543943
 10
164.1285754078
 20
99.3175590669
 10
164.4339447228
 20
98.7035758801
 10
164.7955777487
 20
98.2548057861
 10
165.1780753252
 20
98.0151775284
 10
165.5439959246
 20
98.0081475906
 10
165.857520689
 20
98.2344041119
 10
166.0879596301
 20
98.6717995275
 10
166.2127557788
 20
99.2775185267
 10
166.2196932185
 20
99.9922691136
 10
166.1080928643
 20
100.7460865208
  0
LWPOLYLINE
  5
12B
330
1F
100
AcDbEntity
  8
0
  6
HIDDEN
 62
     7
370
     0
100
AcDbPolyline
 90
       24
 70
   128
 43
0.0
 10
166.6346163365
 20
100.8812631923
 10
166.4074465432
 20
101.6539051886
 10
166.097102497
 20
102.3369711154
 10
165.7266009962
 20
102.879801098
 10
165.323420442
 20
103.2421359196
 10
164.9174628917
 20
103.3971028642
 10
164.5388363599
 20
103.3332087425
 10
164.2156218441
 20
103.055192289
 10
163.9717906864
 20
102.5836727125
 10
163.8254267284
 20
101.9536204627
 10
163.7873851152
 20
101.2117636327
 10
163.8604872193
 20
100.4131223499
 10
164.039311392
 20
99.6169281847
 10
164.3105950625
 20
98.8822312159
 10
164.654218362
 20
98.2635205568
 10
165.0446963223
 20
97.8066831464
 10
165.4530689795
 20
97.5456005257
 10
165.8490492017
 20
97.4996359981
 10
166.2032689473
 20
97.6721985426
 10
166.4894573584
 20
98.0504899845
 10
166.6863891495
 20
98.6064541782
 10
166.7794587908
 20
99.2988578028
 10
166.7617637326
 20
100.076348449
 10
166.6346163365
 20
100.8812631923
  0
LWPOLYLINE
  5
12C
330
1F
100
AcDbEntity
  8
0
  6
HIDDEN
 62
     7
370
     0
100
AcDbPolyline
 90
       24
 70
   128
 43
0.0
 10
169.8214679516
 20
101.5105561908
 10
169.5942981583
 20
102.283198187
 10
169.2839541122
 20
102.9662641139
 10
168.9134526113
 20
103.5090940964
 10
168.5102720571
 20
103.8714289181
 10
168.1043145069
 20
104.0263958627
 10
167.725687975
 20
103.9625017409
 10
167.4024734592
 20
103.6844852875
 10
167.1586423016
 20
103.2129657109
 10
167.0122783435
 20
102.5829134611
 10
166.9742367304
 20
101.8410566312
 10
167.0473388344
 20
101.0424153484
 10
167.2261630071
 20
100.2462211832
 10
167.4974466776
 20
99.5115242144
 10
167.8410699771
 20
98.8928135552
 10
168.2315479374
 20
98.4359761449
 10
168.6399205946
 20
98.1748935241
 10
169.0359008168
 20
98.1289289966
 10
169.3901205625
 20
98.301491541
 10
169.6763089735
 20
98.6797829829
 10
169.8732407647
 20
99.2357471766
 10
169.9663104059
 20
99.9281508012
 10
169.9486153477
 20
100.7056414474
 10
169.8214679516
 20
101.5105561908
  0
LINE
  5
12D
330
1F
100
AcDbEntity
  8
0
  6
HIDDEN
 62
     7
370
     0
100
AcDbLine
 10
164.2910899829
 20
101.7275557687
 30
0.0
 11
164.2300899875
 21
100.1401391168
 31
0.0
  0
LINE
  5
12E
330
1F
100
AcDbEntity
  8
0
  6
HIDDEN
 62
     7
370
     0
100
AcDbLine
 10
164.9477271767
 20
98.8039538056
 30
0.0
 11
164.2300899875
 21
100.1401391168
 31
0.0
  0
LINE
  5
12F
330
1F
100
AcDbEntity
  8
0
  6
HIDDEN
 62
     7
370
     0
100
AcDbLine
 10
165.7263643613
 20
99.0551851463
 30
0.0
 11
164.9477271767
 21
98.8039538056
 31
0.0
  0
LINE
  5
130
330
1F
100
AcDbEntity
  8
0
  6
HIDDEN
 62
     7
370
     0
100
AcDbLine
 10
165.7263643613
 20
99.0551851463
 30
0.0
 11
165.7873643567
 21
100.6426017983
 31
0.0
  0
LINE
  5
131
330
1F
100
AcDbEntity
  8
0
  6
HIDDEN
 62
     7
370
     0
100
AcDbLine
 10
165.0697271675
 20
101.9787871095
 30
0.0
 11
165.7873643567
 21
100.6426017983
 31
0.0
  0
LINE
  5
132
330
1F
100
AcDbEntity
  8
0
  6
HIDDEN
 62
     7
370
     0
100
AcDbLine
 10
165.0697271675
 20
101.9787871095
 30
0.0
 11
164.2910899829
 21
101.7275557687
 31
0.0
  0
LINE
  5
133
330
1F
100
AcDbEntity
  8
0
  6
HIDDEN
 62
     7
370
     0
100
AcDbLine
 10
167.5194151643
 20
100.9846219416
 30
0.0
 11
165.7873643567
 21
100.6426017983
 31
0.0
  0
LWPOLYLINE
  5
134
330
1F
100
AcDbEntity
  8
0
  6
HIDDEN
 62
     7
370
     0
100
AcDbPolyline
 90
       19
 70
   128
 43
0.0
 10
170.2379469673
 20
101.5365177802
 10
170.0340029402
 20
102.1856433009
 10
169.7462137147
 20
102.7214847284
 10
169.4092909186
 20
103.0794116785
 10
169.0638724136
 20
103.2162528784
 10
168.7516207693
 20
103.11550326
 10
168.5101981423
 20
102.7893147141
 10
168.3687236644
 20
102.2770303934
 10
168.3442612457
 20
101.6404393474
 10
168.4397614148
 20
100.9563238515
 10
168.6437054418
 20
100.3071983308
 10
168.9314946674
 20
99.7713569033
 10
169.2684174635
 20
99.4134299532
 10
169.6138359684
 20
99.2765887533
 10
169.9260876127
 20
99.3773383717
 10
170.1675102397
 20
99.7035269176
 10
170.3089847176
 20
100.2158112384
 10
170.3334471364
 20
100.8524022843
 10
170.2379469673
 20
101.5365177802
  0
LINE
  5
135
330
1F
100
AcDbEntity
  8
0
  6
HIDDEN
 62
     7
370
     0
100
AcDbLine
 10
167.4584151689
 20
99.3972052897
 30
0.0
 11
165.7263643613
 21
99.0551851463
 31
0.0
  0
LINE
  5
136
330
1F
100
AcDbEntity
  8
0
  6
HIDDEN
 62
     7
370
     0
100
AcDbLine
 10
166.8017779751
 20
102.3208072528
 30
0.0
 11
166.0231407905
 21
102.0695759121
 31
0.0
  0
LINE
  5
137
330
1F
100
AcDbEntity
  8
0
  6
HIDDEN
 62
     7
370
     0
100
AcDbLine
 10
166.0231407905
 20
102.0695759121
 30
0.0
 11
164.2910899829
 21
101.7275557687
 31
0.0
  0
LINE
  5
138
330
1F
100
AcDbEntity
  8
0
  6
HIDDEN
 62
     7
370
     0
100
AcDbLine
 10
166.8017779751
 20
102.3208072528
 30
0.0
 11
165.0697271675
 21
101.9787871095
 31
0.0
  0
LINE
  5
139
330
1F
100
AcDbEntity
  8
0
  6
HIDDEN
 62
     7
370
     0
100
AcDbLine
 10
166.6797779843
 20
99.1459739489
 30
0.0
 11
165.9621407951
 21
100.4821592601
 31
0.0
  0
LINE
  5
13A
330
1F
100
AcDbEntity
  8
0
  6
HIDDEN
 62
     7
370
     0
100
AcDbLine
 10
166.0231407905
 20
102.0695759121
 30
0.0
 11
165.9621407951
 21
100.4821592601
 31
0.0
  0
LINE
  5
13B
330
1F
100
AcDbEntity
  8
0
  6
HIDDEN
 62
     7
370
     0
100
AcDbLine
 10
167.4584151689
 20
99.3972052897
 30
0.0
 11
166.6797779843
 21
99.1459739489
 31
0.0
  0
LINE
  5
13C
330
1F
100
AcDbEntity
  8
0
  6
HIDDEN
 62
     7
370
     0
100
AcDbLine
 10
166.8017779751
 20
102.3208072528
 30
0.0
 11
167.5194151643
 21
100.9846219416
 31
0.0
  0
LINE
  5
13D
330
1F
100
AcDbEntity
  8
0
  6
HIDDEN
 62
     7
370
     0
100
AcDbLine
 10
167.4584151689
 20
99.3972052897
 30
0.0
 11
167.5194151643
 21
100.9846219416
 31
0.0
  0
LINE
  5
13E
330
1F
100
AcDbEntity
  8
0
  6
HIDDEN
 62
     7
370
     0
100
AcDbLine
 10
165.9621407951
 20
100.4821592601
 30
0.0
 11
164.2300899875
 21
100.1401391168
 31
0.0
  0
LINE
  5
13F
330
1F
100
AcDbEntity
  8
0
  6
HIDDEN
 62
     7
370
     0
100
AcDbLine
 10
166.6797779843
 20
99.1459739489
 30
0.0
 11
164.9477271767
 21
98.8039538056
 31
0.0
  0
LWPOLYLINE
  5
140
330
1F
100
AcDbEntity
  8
0
  6
HIDDEN
 62
     7
370
     0
100
AcDbPolyline
 90
       24
 70
   128
 43
0.0
 10
181.5864579136
 20
102.1584945229
 10
181.0363361249
 20
101.5908899633
 10
180.6695802697
 20
100.9048635247
 10
180.513390952
 20
100.1512946496
 10
180.579352019
 20
99.3860720941
 10
180.8625714401
 20
98.6659489146
 10
181.3420441265
 20
98.0443333529
 10
181.9822097825
 20
97.5673277915
 10
182.7355902499
 20
97.2703095507
 10
183.546310746
 20
97.1753071147
 10
184.3542438403
 20
97.2893663796
 10
185.0994688314
 20
97.6040280915
 10
185.7267157907
 20
98.0959552307
 10
186.1894646808
 20
98.7286638116
 10
186.4533955334
 20
99.4552287334
 10
186.4989338047
 20
100.2217639995
 10
186.3227021293
 20
100.971419196
 10
185.9377708044
 20
101.6485958263
 10
185.3726884254
 20
102.2030707977
 10
184.6693645673
 20
102.593721238
 10
183.8799615432
 20
102.7915743914
 10
183.0630257641
 20
102.7819563943
 10
182.2791456194
 20
102.5655805698
 10
181.5864579136
 20
102.1584945229
  0
LWPOLYLINE
  5
141
330
1F
100
AcDbEntity
  8
0
  6
HIDDEN
 62
     7
370
     0
100
AcDbPolyline
 90
       24
 70
   128
 43
0.0
 10
181.5864579136
 20
103.4170805198
 10
181.0363361249
 20
102.8494759603
 10
180.6695802697
 20
102.1634495216
 10
180.513390952
 20
101.4098806465
 10
180.579352019
 20
100.6446580911
 10
180.8625714401
 20
99.9245349115
 10
181.3420441265
 20
99.3029193498
 10
181.9822097825
 20
98.8259137884
 10
182.7355902499
 20
98.5288955476
 10
183.546310746
 20
98.4338931116
 10
184.3542438403
 20
98.5479523765
 10
185.0994688314
 20
98.8626140884
 10
185.7267157907
 20
99.3545412276
 10
186.1894646808
 20
99.9872498086
 10
186.4533955334
 20
100.7138147303
 10
186.4989338047
 20
101.4803499964
 10
186.3227021293
 20
102.2300051929
 10
185.9377708044
 20
102.9071818232
 10
185.3726884254
 20
103.4616567946
 10
184.6693645673
 20
103.852307235
 10
183.8799615432
 20
104.0501603883
 10
183.0630257641
 20
104.0405423913
 10
182.2791456194
 20
103.8241665668
 10
181.5864579136
 20
103.4170805198
  0
LINE
  5
142
330
1F
100
AcDbEntity
  8
0
  6
HIDDEN
 62
     7
370
     0
100
AcDbLine
 10
184.1054321882
 20
102.0966690527
 30
0.0
 11
184.1054321882
 21
101.412628766
 31
0.0
  0
LINE
  5
143
330
1F
100
AcDbEntity
  8
0
  6
HIDDEN
 62
     7
370
     0
100
AcDbLine
 10
182.3989044983
 20
101.8182864126
 30
0.0
 11
182.3989044983
 21
101.1342461259
 31
0.0
  0
LINE
  5
144
330
1F
100
AcDbEntity
  8
0
  6
HIDDEN
 62
     7
370
     0
100
AcDbLine
 10
185.215254862
 20
100.8470920956
 30
0.0
 11
185.0297064425
 21
100.3719653902
 31
0.0
  0
LINE
  5
145
330
1F
100
AcDbEntity
  8
0
  6
HIDDEN
 62
     7
370
     0
100
AcDbLine
 10
185.215254862
 20
100.8470920956
 30
0.0
 11
185.215254862
 21
100.1630518089
 31
0.0
  0
LINE
  5
146
330
1F
100
AcDbEntity
  8
0
  6
HIDDEN
 62
     7
370
     0
100
AcDbLine
 10
181.8021994822
 20
100.2903268153
 30
0.0
 11
181.9877479017
 21
100.081413234
 31
0.0
  0
LINE
  5
147
330
1F
100
AcDbEntity
  8
0
  6
HIDDEN
 62
     7
370
     0
100
AcDbLine
 10
181.8021994822
 20
100.2903268153
 30
0.0
 11
181.8021994822
 21
99.6062865287
 31
0.0
  0
LINE
  5
148
330
1F
100
AcDbEntity
  8
0
  6
HIDDEN
 62
     7
370
     0
100
AcDbLine
 10
181.8021994822
 20
100.2903268153
 30
0.0
 11
182.3989044983
 21
101.8182864126
 31
0.0
  0
LINE
  5
149
330
1F
100
AcDbEntity
  8
0
  6
HIDDEN
 62
     7
370
     0
100
AcDbLine
 10
184.1054321882
 20
102.0966690527
 30
0.0
 11
185.215254862
 21
100.8470920956
 31
0.0
  0
LINE
  5
14A
330
1F
100
AcDbEntity
  8
0
  6
HIDDEN
 62
     7
370
     0
100
AcDbLine
 10
184.1054321882
 20
102.0966690527
 30
0.0
 11
182.3989044983
 21
101.8182864126
 31
0.0
  0
LWPOLYLINE
  5
14B
330
1F
100
AcDbEntity
  8
0
  6
HIDDEN
 62
     7
370
     0
100
AcDbPolyline
 90
       19
 70
   128
 43
0.0
 10
182.2272143331
 20
103.0376570706
 10
181.779331027
 20
102.5387700386
 10
181.5400384193
 20
101.9260226563
 10
181.5381987298
 20
101.273321301
 10
181.7740338524
 20
100.659391389
 10
182.2190985907
 20
100.1582819285
 10
182.8197115688
 20
99.8304341158
 10
183.5034299975
 20
99.7153912358
 10
184.1877873436
 20
99.8270291576
 10
184.7902400111
 20
100.1518827002
 10
185.2381233172
 20
100.6507697322
 10
185.477415925
 20
101.2635171145
 10
185.4792556144
 20
101.9162184698
 10
185.2434204918
 20
102.5301483818
 10
184.7983557535
 20
103.0312578423
 10
184.1977427754
 20
103.359105655
 10
183.5140243467
 20
103.474148535
 10
182.8296670007
 20
103.3625106132
 10
182.2272143331
 20
103.0376570706
  0
LWPOLYLINE
  5
14C
330
1F
100
AcDbEntity
  8
0
  6
HIDDEN
 62
     7
370
     0
100
AcDbPolyline
 90
       24
 70
   128
 43
0.0
 10
185.4309964306
 20
125.4239700004
 10
184.7383087248
 20
125.0168839535
 10
183.9544285801
 20
124.800508129
 10
183.137492801
 20
124.790890132
 10
182.3480897769
 20
124.9887432853
 10
181.6447659188
 20
125.3793937257
 10
181.0796835399
 20
125.933868697
 10
180.694752215
 20
126.6110453274
 10
180.5185205395
 20
127.3607005238
 10
180.5640588108
 20
128.1272357899
 10
180.8279896634
 20
128.8538007117
 10
181.2907385535
 20
129.4865092927
 10
181.9179855129
 20
129.9784364318
 10
182.6632105039
 20
130.2930981437
 10
183.4711435982
 20
130.4071574086
 10
184.2818640943
 20
130.3121549727
 10
185.0352445617
 20
130.0151367319
 10
185.6754102177
 20
129.5381311705
 10
186.1548829041
 20
128.9165156087
 10
186.4381023252
 20
128.1963924292
 10
186.5040633922
 20
127.4311698737
 10
186.3478740745
 20
126.6776009986
 10
185.9811182193
 20
125.99157456
 10
185.4309964306
 20
125.4239700004
  0
LWPOLYLINE
  5
14D
330
1F
100
AcDbEntity
  8
0
  6
HIDDEN
 62
     7
370
     0
100
AcDbPolyline
 90
       19
 70
   128
 43
0.0
 10
184.7902400111
 20
125.8033934497
 10
184.1877873436
 20
125.478539907
 10
183.5034299975
 20
125.3669019852
 10
182.8197115688
 20
125.4819448653
 10
182.2190985907
 20
125.8097926779
 10
181.7740338524
 20
126.3109021385
 10
181.5381987298
 20
126.9248320504
 10
181.5400384193
 20
127.5775334057
 10
181.779331027
 20
128.1902807881
 10
182.2272143331
 20
128.68916782
 10
182.8296670006
 20
129.0140213626
 10
183.5140243467
 20
129.1256592844
 10
184.1977427754
 20
129.0106164044
 10
184.7983557535
 20
128.6827685918
 10
185.2434204918
 20
128.1816591312
 10
185.4792556144
 20
127.5677292193
 10
185.4774159249
 20
126.915027864
 10
185.2381233172
 20
126.3022804816
 10
184.7902400111
 20
125.8033934497
  0
LWPOLYLINE
  5
14E
330
1F
100
AcDbEntity
  8
0
  6
HIDDEN
 62
     7
370
     0
100
AcDbPolyline
 90
       24
 70
   128
 43
0.0
 10
185.4309964306
 20
126.6825559973
 10
184.7383087248
 20
126.2754699504
 10
183.9544285801
 20
126.0590941259
 10
183.137492801
 20
126.0494761289
 10
182.3480897769
 20
126.2473292822
 10
181.6447659188
 20
126.6379797226
 10
181.0796835399
 20
127.1924546939
 10
180.694752215
 20
127.8696313243
 10
180.5185205395
 20
128.6192865207
 10
180.5640588108
 20
129.3858217868
 10
180.8279896634
 20
130.1123867086
 10
181.2907385535
 20
130.7450952896
 10
181.9179855129
 20
131.2370224287
 10
182.6632105039
 20
131.5516841406
 10
183.4711435982
 20
131.6657434055
 10
184.2818640943
 20
131.5707409696
 10
185.0352445617
 20
131.2737227288
 10
185.6754102177
 20
130.7967171674
 10
186.1548829041
 20
130.1751016056
 10
186.4381023252
 20
129.4549784261
 10
186.5040633922
 20
128.6897558706
 10
186.3478740745
 20
127.9361869955
 10
185.9811182193
 20
127.2501605569
 10
185.4309964306
 20
126.6825559973
  0
LINE
  5
14F
330
1F
100
AcDbEntity
  8
0
  6
HIDDEN
 62
     7
370
     0
100
AcDbLine
 10
184.1054321881
 20
129.8003006621
 30
0.0
 11
182.3989044982
 21
129.521918022
 31
0.0
  0
LINE
  5
150
330
1F
100
AcDbEntity
  8
0
  6
HIDDEN
 62
     7
370
     0
100
AcDbLine
 10
184.1054321881
 20
129.8003006621
 30
0.0
 11
184.1054321881
 21
130.4843409487
 31
0.0
  0
LINE
  5
151
330
1F
100
AcDbEntity
  8
0
  6
HIDDEN
 62
     7
370
     0
100
AcDbLine
 10
185.215254862
 20
128.5507237049
 30
0.0
 11
184.1054321881
 21
129.8003006621
 31
0.0
  0
LINE
  5
152
330
1F
100
AcDbEntity
  8
0
  6
HIDDEN
 62
     7
370
     0
100
AcDbLine
 10
182.3989044982
 20
129.521918022
 30
0.0
 11
182.3989044982
 21
130.2059583086
 31
0.0
  0
LINE
  5
153
330
1F
100
AcDbEntity
  8
0
  6
HIDDEN
 62
     7
370
     0
100
AcDbLine
 10
181.8021994822
 20
127.9939584247
 30
0.0
 11
182.3989044982
 21
129.521918022
 31
0.0
  0
LINE
  5
154
330
1F
100
AcDbEntity
  8
0
  6
HIDDEN
 62
     7
370
     0
100
AcDbLine
 10
184.618549846
 20
127.0227641077
 30
0.0
 11
184.618549846
 21
127.7068043943
 31
0.0
  0
LINE
  5
155
330
1F
100
AcDbEntity
  8
0
  6
HIDDEN
 62
     7
370
     0
100
AcDbLine
 10
185.215254862
 20
129.2347639916
 30
0.0
 11
184.618549846
 21
127.7068043943
 31
0.0
  0
LINE
  5
156
330
1F
100
AcDbEntity
  8
0
  6
HIDDEN
 62
     7
370
     0
100
AcDbLine
 10
185.215254862
 20
128.5507237049
 30
0.0
 11
185.215254862
 21
129.2347639916
 31
0.0
  0
LINE
  5
157
330
1F
100
AcDbEntity
  8
0
  6
HIDDEN
 62
     7
370
     0
100
AcDbLine
 10
185.215254862
 20
128.5507237049
 30
0.0
 11
184.618549846
 21
127.0227641077
 31
0.0
  0
LINE
  5
158
330
1F
100
AcDbEntity
  8
0
  6
HIDDEN
 62
     7
370
     0
100
AcDbLine
 10
182.9120221561
 20
126.7443814675
 30
0.0
 11
182.9120221561
 21
127.4284217542
 31
0.0
  0
LINE
  5
159
330
1F
100
AcDbEntity
  8
0
  6
HIDDEN
 62
     7
370
     0
100
AcDbLine
 10
182.9120221561
 20
127.4284217542
 30
0.0
 11
181.8021994822
 21
128.6779987113
 31
0.0
  0
LINE
  5
15A
330
1F
100
AcDbEntity
  8
0
  6
HIDDEN
 62
     7
370
     0
100
AcDbLine
 10
181.8021994822
 20
127.9939584247
 30
0.0
 11
181.8021994822
 21
128.6779987113
 31
0.0
  0
LINE
  5
15B
330
1F
100
AcDbEntity
  8
0
  6
HIDDEN
 62
     7
370
     0
100
AcDbLine
 10
182.9120221561
 20
126.7443814675
 30
0.0
 11
181.8021994822
 21
127.9939584247
 31
0.0
  0
LINE
  5
15C
330
1F
100
AcDbEntity
  8
0
  6
HIDDEN
 62
     7
370
     0
100
AcDbLine
 10
182.9120221561
 20
127.4284217542
 30
0.0
 11
184.618549846
 21
127.7068043943
 31
0.0
  0
LINE
  5
15D
330
1F
100
AcDbEntity
  8
0
  6
HIDDEN
 62
     7
370
     0
100
AcDbLine
 10
182.9120221561
 20
126.7443814675
 30
0.0
 11
184.618549846
 21
127.0227641077
 31
0.0
  0
LWPOLYLINE
  5
15E
330
1F
100
AcDbEntity
  8
0
  6
HIDDEN
 62
     7
370
     0
100
AcDbPolyline
 90
       21
 70
   128
 43
0.0
 10
185.075696996
 20
127.1920910458
 10
184.4188189017
 20
126.823423312
 10
183.672854688
 20
126.6635443722
 10
182.9108245294
 20
126.7281042911
 10
182.2073212473
 20
127.010783494
 10
181.6312086446
 20
127.483911371
 10
181.2388806368
 20
128.1011748689
 10
181.0687410228
 20
128.802151936
 10
181.1374442535
 20
129.5182260528
 10
181.438265178
 20
130.1793028956
 10
181.9417573482
 20
130.7206716571
 10
182.5986354425
 20
131.089339391
 10
183.3445996562
 20
131.2492183307
 10
184.1066298148
 20
131.1846584118
 10
184.8101330969
 20
130.9019792089
 10
185.3862456996
 20
130.428851332
 10
185.7785737074
 20
129.811587834
 10
185.9487133214
 20
129.110610767
 10
185.8800100907
 20
128.3945366502
 10
185.5791891662
 20
127.7334598073
 10
185.075696996
 20
127.1920910458
  0
LINE
  5
15F
330
1F
100
AcDbEntity
  8
0
  6
HIDDEN
 62
     7
370
     0
100
AcDbLine
 10
181.8021994822
 20
128.6779987113
 30
0.0
 11
182.3989044982
 21
130.2059583086
 31
0.0
  0
LINE
  5
160
330
1F
100
AcDbEntity
  8
0
  6
HIDDEN
 62
     7
370
     0
100
AcDbLine
 10
185.215254862
 20
129.2347639916
 30
0.0
 11
184.1054321881
 21
130.4843409487
 31
0.0
  0
LINE
  5
161
330
1F
100
AcDbEntity
  8
0
  6
HIDDEN
 62
     7
370
     0
100
AcDbLine
 10
184.1054321881
 20
130.4843409487
 30
0.0
 11
182.3989044982
 21
130.2059583086
 31
0.0
  0
LINE
  5
162
330
1F
100
AcDbEntity
  8
0
  6
HIDDEN
 62
     7
370
     0
100
AcDbLine
 10
217.2587271721
 20
136.7205252601
 30
0.0
 11
216.5587271721
 21
137.4205252601
 31
0.0
  0
LINE
  5
163
330
1F
100
AcDbEntity
  8
0
  6
HIDDEN
 62
     7
370
     0
100
AcDbLine
 10
205.9587271721
 20
137.4205252601
 30
0.0
 11
205.2587271721
 21
136.7205252601
 31
0.0
  0
LINE
  5
164
330
1F
100
AcDbEntity
  8
0
  6
HIDDEN
 62
     7
370
     0
100
AcDbLine
 10
205.2587271721
 20
136.7205252601
 30
0.0
 11
205.2587271721
 21
129.3176395772
 31
0.0
  0
LINE
  5
165
330
1F
100
AcDbEntity
  8
0
  6
HIDDEN
 62
     7
370
     0
100
AcDbLine
 10
217.2587271721
 20
129.3176395772
 30
0.0
 11
217.2587271721
 21
136.7205252601
 31
0.0
  0
LINE
  5
166
330
1F
100
AcDbEntity
  8
0
  6
HIDDEN
 62
     7
370
     0
100
AcDbLine
 10
205.2587271721
 20
129.3176395772
 30
0.0
 11
207.4491475206
 21
121.1428795466
 31
0.0
  0
LINE
  5
167
330
1F
100
AcDbEntity
  8
0
  6
HIDDEN
 62
     7
370
     0
100
AcDbLine
 10
215.0683068236
 20
121.1428795466
 30
0.0
 11
217.2587271721
 21
129.3176395772
 31
0.0
  0
ARC
  5
168
330
1F
100
AcDbEntity
  8
0
  6
HIDDEN
 62
     7
370
     0
100
AcDbCircle
 10
207.7389252685
 20
121.2205252601
 30
0.0
 40
0.3000000000000205
100
AcDbArc
 50
195.0
 51
270.0
  0
ARC
  5
169
330
1F
100
AcDbEntity
  8
0
  6
HIDDEN
 62
     7
370
     0
100
AcDbCircle
 10
214.7785290757
 20
121.2205252601
 30
0.0
 40
0.2999999999999972
100
AcDbArc
 50
270.0
 51
345.0
  0
LINE
  5
16A
330
1F
100
AcDbEntity
  8
0
  6
HIDDEN
 62
     7
370
     0
100
AcDbLine
 10
207.6587271721
 20
137.4205252601
 30
0.0
 11
208.2587271721
 21
136.8205252601
 31
0.0
  0
LINE
  5
16B
330
1F
100
AcDbEntity
  8
0
  6
HIDDEN
 62
     7
370
     0
100
AcDbLine
 10
214.2587271721
 20
136.8205252601
 30
0.0
 11
214.8587271721
 21
137.4205252601
 31
0.0
  0
LINE
  5
16C
330
1F
100
AcDbEntity
  8
0
  6
HIDDEN
 62
     7
370
     0
100
AcDbLine
 10
208.2587271721
 20
130.4205252601
 30
0.0
 11
208.2587271721
 21
129.4205252601
 31
0.0
  0
LINE
  5
16D
330
1F
100
AcDbEntity
  8
0
  6
HIDDEN
 62
     7
370
     0
100
AcDbLine
 10
214.2587271721
 20
129.4205252601
 30
0.0
 11
214.2587271721
 21
130.4205252601
 31
0.0
  0
LINE
  5
16E
330
1F
100
AcDbEntity
  8
0
  6
HIDDEN
 62
     7
370
     0
100
AcDbLine
 10
208.2587271721
 20
129.4205252601
 30
0.0
 11
211.2587271721
 21
128.3286145573
 31
0.0
  0
LINE
  5
16F
330
1F
100
AcDbEntity
  8
0
  6
HIDDEN
 62
     7
370
     0
100
AcDbLine
 10
211.2587271721
 20
128.3286145573
 30
0.0
 11
214.2587271721
 21
129.4205252601
 31
0.0
  0
LINE
  5
170
330
1F
100
AcDbEntity
  8
0
  6
HIDDEN
 62
     7
370
     0
100
AcDbLine
 10
163.3087271721
 20
96.9977496573
 30
0.0
 11
165.5899010507
 21
97.4482026195
 31
0.0
  0
LINE
  5
171
330
1F
100
AcDbEntity
  8
0
  6
HIDDEN
 62
     7
370
     0
100
AcDbLine
 10
164.4275532935
 20
103.3345382956
 30
0.0
 11
163.3087271721
 21
103.1136088236
 31
0.0
  0
LINE
  5
172
330
1F
100
AcDbEntity
  8
0
  6
HIDDEN
 62
     7
370
     0
100
AcDbLine
 10
186.0087271721
 20
99.8853039938
 30
0.0
 11
186.0087271721
 21
112.967168156
 31
0.0
  0
LINE
  5
173
330
1F
100
AcDbEntity
  8
0
  6
HIDDEN
 62
     7
370
     0
100
AcDbLine
 10
181.0087271721
 20
102.7216513103
 30
0.0
 11
181.0087271721
 21
99.8847329392
 31
0.0
  0
LINE
  5
174
330
1F
100
AcDbEntity
  8
0
  6
HIDDEN
 62
     7
370
     0
100
AcDbLine
 10
181.0087271721
 20
112.9682283219
 30
0.0
 11
181.0087271721
 21
104.3797824178
 31
0.0
  0
LINE
  5
175
330
1F
100
AcDbEntity
  8
0
  6
HIDDEN
 62
     7
370
     0
100
AcDbLine
 10
165.6992356093
 20
98.3871712892
 30
0.0
 11
181.9190143633
 21
101.5900167426
 31
0.0
  0
LINE
  5
176
330
1F
100
AcDbEntity
  8
0
  6
HIDDEN
 62
     7
370
     0
100
AcDbLine
 10
181.9235965127
 20
105.872022975
 30
0.0
 11
164.8855921793
 21
102.5076062624
 31
0.0
  0
ARC
  5
177
330
1F
100
AcDbEntity
  8
0
  6
HIDDEN
 62
     7
370
     0
100
AcDbCircle
 10
224.3087271721
 20
129.4205252601
 30
0.0
 40
1.0
100
AcDbArc
 50
270.0
 51
0.0
  0
ARC
  5
178
330
1F
100
AcDbEntity
  8
0
  6
HIDDEN
 62
     7
370
     0
100
AcDbCircle
 10
224.3087271721
 20
99.4205252601
 30
0.0
 40
1.0
100
AcDbArc
 50
0.0
 51
90.0
  0
ARC
  5
179
330
1F
100
AcDbEntity
  8
0
  6
HIDDEN
 62
     7
370
     0
100
AcDbCircle
 10
197.8087271721
 20
127.9205252601
 30
0.0
 40
1.0
100
AcDbArc
 50
90.0
 51
180.0
  0
ARC
  5
17A
330
1F
100
AcDbEntity
  8
0
  6
HIDDEN
 62
     7
370
     0
100
AcDbCircle
 10
197.8087271721
 20
100.9205252601
 30
0.0
 40
1.0
100
AcDbArc
 50
180.0
 51
270.0
  0
LINE
  5
17B
330
1F
100
AcDbEntity
  8
0
  6
HIDDEN
 62
     7
370
     0
100
AcDbLine
 10
199.6770746745
 20
128.9205252601
 30
0.0
 11
197.8087271721
 21
128.9205252601
 31
0.0
  0
LINE
  5
17C
330
1F
100
AcDbEntity
  8
0
  6
HIDDEN
 62
     7
370
     0
100
AcDbLine
 10
197.8087271721
 20
99.9205252601
 30
0.0
 11
199.6770746745
 21
99.9205252601
 31
0.0
  0
ARC
  5
17D
330
1F
100
AcDbEntity
  8
0
  6
HIDDEN
 62
     7
370
     0
100
AcDbCircle
 10
199.6770746745
 20
127.9205252601
 30
0.0
 40
1.0
100
AcDbArc
 50
75.0
 51
90.0
  0
ARC
  5
17E
330
1F
100
AcDbEntity
  8
0
  6
HIDDEN
 62
     7
370
     0
100
AcDbCircle
 10
199.6770746745
 20
100.9205252601
 30
0.0
 40
1.0
100
AcDbArc
 50
270.0
 51
285.0
  0
LINE
  5
17F
330
1F
100
AcDbEntity
  8
0
  6
HIDDEN
 62
     7
370
     0
100
AcDbLine
 10
199.9358937196
 20
99.9545994338
 30
0.0
 11
201.6747525759
 21
100.4205252601
 31
0.0
  0
LINE
  5
180
330
1F
100
AcDbEntity
  8
0
  6
HIDDEN
 62
     7
370
     0
100
AcDbLine
 10
201.6747525759
 20
128.4205252601
 30
0.0
 11
199.9358937196
 21
128.8864510864
 31
0.0
  0
LINE
  5
181
330
1F
100
AcDbEntity
  8
0
  6
HIDDEN
 62
     7
370
     0
100
AcDbLine
 10
205.7587271721
 20
128.4205252601
 30
0.0
 11
201.6747525759
 21
128.4205252601
 31
0.0
  0
LINE
  5
182
330
1F
100
AcDbEntity
  8
0
  6
HIDDEN
 62
     7
370
     0
100
AcDbLine
 10
224.3087271721
 20
128.4205252601
 30
0.0
 11
216.751111963
 21
128.4205252601
 31
0.0
  0
LINE
  5
183
330
1F
100
AcDbEntity
  8
0
  6
HIDDEN
 62
     7
370
     0
100
AcDbLine
 10
201.6747525759
 20
100.4205252601
 30
0.0
 11
224.3087271721
 21
100.4205252601
 31
0.0
  0
ARC
  5
184
330
1F
100
AcDbEntity
  8
0
  6
HIDDEN
 62
     7
370
     0
100
AcDbCircle
 10
59.7087271721
 20
100.7205252601
 30
0.0
 40
1.20000000000001
100
AcDbArc
 50
90.0
 51
180.0
  0
ARC
  5
185
330
1F
100
AcDbEntity
  8
0
  6
HIDDEN
 62
     7
370
     0
100
AcDbCircle
 10
59.7087271721
 20
128.1205252601
 30
0.0
 40
1.20000000000001
100
AcDbArc
 50
180.0
 51
270.0
  0
LINE
  5
186
330
1F
100
AcDbEntity
  8
0
  6
HIDDEN
 62
     7
370
     0
100
AcDbLine
 10
193.3087271721
 20
151.7205252601
 30
0.0
 11
193.3087271721
 21
163.5206286107
 31
0.0
  0
LINE
  5
187
330
1F
100
AcDbEntity
  8
0
  6
HIDDEN
 62
     7
370
     0
100
AcDbLine
 10
193.3087271721
 20
65.320309873
 30
0.0
 11
193.3087271721
 21
77.1205252601
 31
0.0
  0
ARC
  5
188
330
1F
100
AcDbEntity
  8
0
  6
HIDDEN
 62
     7
370
     0
100
AcDbCircle
 10
191.3087271721
 20
151.7205252601
 30
0.0
 40
2.0
100
AcDbArc
 50
270.0
 51
0.0
  0
ARC
  5
189
330
1F
100
AcDbEntity
  8
0
  6
HIDDEN
 62
     7
370
     0
100
AcDbCircle
 10
191.3087271721
 20
77.1205252601
 30
0.0
 40
2.0
100
AcDbArc
 50
0.0
 51
90.0
  0
LINE
  5
18A
330
1F
100
AcDbEntity
  8
0
  6
HIDDEN
 62
     7
370
     0
100
AcDbLine
 10
69.4010996028
 20
101.6955252601
 30
0.0
 11
70.2777870644
 21
101.6955252601
 31
0.0
  0
LINE
  5
18B
330
1F
100
AcDbEntity
  8
0
  6
HIDDEN
 62
     7
370
     0
100
AcDbLine
 10
70.2777870644
 20
127.1455252601
 30
0.0
 11
69.4010996028
 21
127.1455252601
 31
0.0
  0
ARC
  5
18C
330
1F
100
AcDbEntity
  8
0
  6
HIDDEN
 62
     7
370
     0
100
AcDbCircle
 10
70.2777870644
 20
102.0955252601
 30
0.0
 40
0.4000000000000199
100
AcDbArc
 50
270.0
 51
330.0
  0
ARC
  5
18D
330
1F
100
AcDbEntity
  8
0
  6
HIDDEN
 62
     7
370
     0
100
AcDbCircle
 10
70.2777870644
 20
126.7455252601
 30
0.0
 40
0.4000000000000057
100
AcDbArc
 50
30.0
 51
90.0
  0
ARC
  5
18E
330
1F
100
AcDbEntity
  8
0
  6
HIDDEN
 62
     7
370
     0
100
AcDbCircle
 10
69.4010996028
 20
102.0955252601
 30
0.0
 40
0.4000000000000199
100
AcDbArc
 50
255.0
 51
270.0
  0
ARC
  5
18F
330
1F
100
AcDbEntity
  8
0
  6
HIDDEN
 62
     7
370
     0
100
AcDbCircle
 10
69.4010996028
 20
126.7455252601
 30
0.0
 40
0.4000000000000057
100
AcDbArc
 50
90.0
 51
105.0
  0
LINE
  5
190
330
1F
100
AcDbEntity
  8
0
  6
HIDDEN
 62
     7
370
     0
100
AcDbLine
 10
69.2975719848
 20
127.1318955906
 30
0.0
 11
68.5087271721
 21
126.9205252601
 31
0.0
  0
LINE
  5
191
330
1F
100
AcDbEntity
  8
0
  6
HIDDEN
 62
     7
370
     0
100
AcDbLine
 10
68.5087271721
 20
101.9205252601
 30
0.0
 11
69.2975719848
 21
101.7091549296
 31
0.0
  0
LINE
  5
192
330
1F
100
AcDbEntity
  8
0
  6
HIDDEN
 62
     7
370
     0
100
AcDbLine
 10
70.6241972259
 20
101.8955252601
 30
0.0
 11
71.7933315211
 21
103.9205252601
 31
0.0
  0
LINE
  5
193
330
1F
100
AcDbEntity
  8
0
  6
HIDDEN
 62
     7
370
     0
100
AcDbLine
 10
71.7933315211
 20
124.9205252601
 30
0.0
 11
70.6241972259
 21
126.9455252601
 31
0.0
  0
LINE
  5
194
330
1F
100
AcDbEntity
  8
0
  6
HIDDEN
 62
     7
370
     0
100
AcDbLine
 10
59.7087271721
 20
101.9205252601
 30
0.0
 11
68.5087271721
 21
101.9205252601
 31
0.0
  0
LINE
  5
195
330
1F
100
AcDbEntity
  8
0
  6
HIDDEN
 62
     7
370
     0
100
AcDbLine
 10
68.5087271721
 20
126.9205252601
 30
0.0
 11
59.7087271721
 21
126.9205252601
 31
0.0
  0
LINE
  5
196
330
1F
100
AcDbEntity
  8
0
  6
HIDDEN
 62
     7
370
     0
100
AcDbLine
 10
71.7933315211
 20
103.9205252601
 30
0.0
 11
121.5087271721
 21
103.9205252601
 31
0.0
  0
LINE
  5
197
330
1F
100
AcDbEntity
  8
0
  6
HIDDEN
 62
     7
370
     0
100
AcDbLine
 10
121.5087271721
 20
124.9205252601
 30
0.0
 11
71.7933315211
 21
124.9205252601
 31
0.0
  0
LINE
  5
198
330
1F
100
AcDbEntity
  8
0
  6
HIDDEN
 62
     7
370
     0
100
AcDbLine
 10
121.5087271721
 20
103.9205252601
 30
0.0
 11
125.264106041
 21
110.1705252601
 31
0.0
  0
LINE
  5
199
330
1F
100
AcDbEntity
  8
0
  6
HIDDEN
 62
     7
370
     0
100
AcDbLine
 10
125.264106041
 20
118.6705252601
 30
0.0
 11
121.5087271721
 21
124.9205252601
 31
0.0
  0
LINE
  5
19A
330
1F
100
AcDbEntity
  8
0
  6
HIDDEN
 62
     7
370
     0
100
AcDbLine
 10
193.3087314925
 20
163.4205257838
 30
0.0
 11
194.3087313418
 21
164.4205255627
 31
0.0
  0
LINE
  5
19B
330
1F
100
AcDbEntity
  8
0
  6
HIDDEN
 62
     7
370
     0
100
AcDbLine
 10
194.3087313425
 20
64.4205249569
 30
0.0
 11
193.3087314932
 21
65.4205247357
 31
0.0
  0
LINE
  5
19C
330
1F
100
AcDbEntity
  8
0
  6
HIDDEN
 62
     7
370
     0
100
AcDbLine
 10
203.7587271721
 20
139.4205252601
 30
0.0
 11
205.7587271721
 21
137.4205252601
 31
0.0
  0
LINE
  5
19D
330
1F
100
AcDbEntity
  8
0
  6
HIDDEN
 62
     7
370
     0
100
AcDbLine
 10
216.7587271721
 20
137.4205252601
 30
0.0
 11
218.7587271721
 21
139.4205252601
 31
0.0
  0
LINE
  5
19E
330
1F
100
AcDbEntity
  8
0
  6
HIDDEN
 62
     7
370
     0
100
AcDbLine
 10
205.7587271721
 20
137.4205252601
 30
0.0
 11
205.7587271721
 21
128.4205252601
 31
0.0
  0
LINE
  5
19F
330
1F
100
AcDbEntity
  8
0
  6
HIDDEN
 62
     7
370
     0
100
AcDbLine
 10
216.7587271721
 20
128.4175565647
 30
0.0
 11
216.7587271721
 21
137.4205252601
 31
0.0
  0
LINE
  5
1A0
330
1F
100
AcDbEntity
  8
0
  6
HIDDEN
 62
     7
370
     0
100
AcDbLine
 10
196.8087271721
 20
118.6705252601
 30
0.0
 11
125.264106041
 21
118.6705252601
 31
0.0
  0
LINE
  5
1A1
330
1F
100
AcDbEntity
  8
0
  6
HIDDEN
 62
     7
370
     0
100
AcDbLine
 10
125.264106041
 20
110.1705252601
 30
0.0
 11
196.8087271721
 21
110.1705252601
 31
0.0
  0
LINE
  5
1A2
330
1F
100
AcDbEntity
  8
0
  6
HIDDEN
 62
     7
370
     0
100
AcDbLine
 10
186.0087271721
 20
115.8728221983
 30
0.0
 11
186.0087271721
 21
128.9563486976
 31
0.0
  0
LINE
  5
1A3
330
1F
100
AcDbEntity
  8
0
  6
HIDDEN
 62
     7
370
     0
100
AcDbLine
 10
181.0087271721
 20
124.4626057381
 30
0.0
 11
181.0087271721
 21
115.8738823643
 31
0.0
  0
LINE
  5
1A4
330
1F
100
AcDbEntity
  8
0
  6
HIDDEN
 62
     7
370
     0
100
AcDbLine
 10
181.0087271721
 20
128.9562201694
 30
0.0
 11
181.0087271721
 21
126.1192035194
 31
0.0
  0
LINE
  5
1A5
330
1F
100
AcDbEntity
  8
0
  6
HIDDEN
 62
     7
370
     0
100
AcDbLine
 10
164.8855921793
 20
126.3334442578
 30
0.0
 11
181.9235308967
 21
122.9690405021
 31
0.0
  0
LINE
  5
1A6
330
1F
100
AcDbEntity
  8
0
  6
HIDDEN
 62
     7
370
     0
100
AcDbLine
 10
181.9251102628
 20
127.2498300483
 30
0.0
 11
165.6992356093
 21
130.4538792311
 31
0.0
  0
LINE
  5
1A7
330
1F
100
AcDbEntity
  8
0
  6
HIDDEN
 62
     7
370
     0
100
AcDbLine
 10
163.3087271721
 20
125.7274416967
 30
0.0
 11
164.4275532935
 21
125.5065122247
 31
0.0
  0
LINE
  5
1A8
330
1F
100
AcDbEntity
  8
0
  6
HIDDEN
 62
     7
370
     0
100
AcDbLine
 10
165.5899010507
 20
131.3928479007
 30
0.0
 11
163.3087271721
 21
131.8433008629
 31
0.0
  0
LINE
  5
1A9
330
1F
100
AcDbEntity
  8
0
  6
HIDDEN
 62
     7
370
     0
100
AcDbLine
 10
168.7168362129
 20
125.1286603719
 30
0.0
 11
169.5015258081
 21
125.836643435
 31
0.0
  0
LINE
  5
1AA
330
1F
100
AcDbEntity
  8
0
  6
HIDDEN
 62
     7
370
     0
100
AcDbLine
 10
170.1575430203
 20
129.1588312193
 30
0.0
 11
169.7008620311
 21
130.1119420484
 31
0.0
  0
LINE
  5
1AB
330
1F
100
AcDbEntity
  8
0
  6
HIDDEN
 62
     7
370
     0
100
AcDbLine
 10
164.7048032935
 20
125.4517649365
 30
0.0
 11
167.8916549086
 21
124.822471938
 31
0.0
  0
LINE
  5
1AC
330
1F
100
AcDbEntity
  8
0
  6
HIDDEN
 62
     7
370
     0
100
AcDbLine
 10
169.0540026659
 20
130.7088076141
 30
0.0
 11
165.8671510507
 21
131.3381006125
 31
0.0
  0
LINE
  5
1AD
330
1F
100
AcDbEntity
  8
0
  6
HIDDEN
 62
     7
370
     0
100
AcDbLine
 10
164.2363279417
 20
129.7869947335
 30
0.0
 11
164.1530881078
 21
129.5844425696
 31
0.0
  0
LINE
  5
1AE
330
1F
100
AcDbEntity
  8
0
  6
HIDDEN
 62
     7
370
     0
100
AcDbLine
 10
163.7859771721
 20
127.7253275291
 30
0.0
 11
163.7859771721
 21
127.5063383763
 31
0.0
  0
LINE
  5
1AF
330
1F
100
AcDbEntity
  8
0
  6
HIDDEN
 62
     7
370
     0
100
AcDbLine
 10
163.7859771721
 20
101.3347121439
 30
0.0
 11
163.7859771721
 21
101.1157229911
 31
0.0
  0
LINE
  5
1B0
330
1F
100
AcDbEntity
  8
0
  6
HIDDEN
 62
     7
370
     0
100
AcDbLine
 10
164.1530881078
 20
99.2566079507
 30
0.0
 11
164.2363279417
 21
99.0540557868
 31
0.0
  0
LINE
  5
1B1
330
1F
100
AcDbEntity
  8
0
  6
HIDDEN
 62
     7
370
     0
100
AcDbLine
 10
165.8671510507
 20
97.5029499077
 30
0.0
 11
169.0540026659
 21
98.1322429062
 31
0.0
  0
LINE
  5
1B2
330
1F
100
AcDbEntity
  8
0
  6
HIDDEN
 62
     7
370
     0
100
AcDbLine
 10
167.8916549086
 20
104.0185785822
 30
0.0
 11
164.7048032935
 21
103.3892855838
 31
0.0
  0
LINE
  5
1B3
330
1F
100
AcDbEntity
  8
0
  6
HIDDEN
 62
     7
370
     0
100
AcDbLine
 10
169.7008620311
 20
98.7291084718
 30
0.0
 11
170.1575430203
 21
99.6822193009
 31
0.0
  0
LINE
  5
1B4
330
1F
100
AcDbEntity
  8
0
  6
HIDDEN
 62
     7
370
     0
100
AcDbLine
 10
169.5015258081
 20
103.0044070853
 30
0.0
 11
168.7168362129
 21
103.7123901483
 31
0.0
  0
LINE
  5
1B5
330
1F
100
AcDbEntity
  8
0
  6
HIDDEN
 62
     7
370
     0
100
AcDbLine
 10
186.5087271721
 20
99.9941637452
 30
0.0
 11
186.5087271721
 21
101.2527497421
 31
0.0
  0
LINE
  5
1B6
330
1F
100
AcDbEntity
  8
0
  6
HIDDEN
 62
     7
370
     0
100
AcDbLine
 10
180.5087271721
 20
101.2527497421
 30
0.0
 11
180.5087271721
 21
99.9941637452
 31
0.0
  0
LINE
  5
1B7
330
1F
100
AcDbEntity
  8
0
  6
HIDDEN
 62
     7
370
     0
100
AcDbLine
 10
180.5087271721
 20
128.8468867751
 30
0.0
 11
180.5087271721
 21
127.5883007782
 31
0.0
  0
LINE
  5
1B8
330
1F
100
AcDbEntity
  8
0
  6
HIDDEN
 62
     7
370
     0
100
AcDbLine
 10
186.5087271721
 20
127.5883007782
 30
0.0
 11
186.5087271721
 21
128.8468867751
 31
0.0
  0
DIMENSION
  5
1B9
330
1F
100
AcDbEntity
  8
VERMASSUNG
100
AcDbDimension
  2
_D
 10
48.5087271721
 20
164.4205252601
 30
0.0
 11
48.5087271721
 21
114.4205252601
 31
0.0
 70
   160
  1
MAS-BT 50 %%c<>
 71
     2
 42
-1.0
  3
SLDDIMSTYLE0
100
AcDbAlignedDimension
 13
197.3087271721
 23
64.4205252601
 33
0.0
 14
197.3087271721
 24
164.4205252601
 34
0.0
 50
90.0
100
AcDbRotatedDimension
  0
DIMENSION
  5
1C6
330
1F
100
AcDbEntity
  8
VERMASSUNG
100
AcDbDimension
  2
_D_1
 10
225.3087271721
 20
180.6576939922
 30
0.0
 11
141.9087271721
 21
180.6576939922
 31
0.0
 70
   160
  1
<>
 71
     2
 42
-1.0
  3
SLDDIMSTYLE0
100
AcDbAlignedDimension
 13
58.5087271721
 23
132.7702031209
 33
0.0
 14
225.3087271721
 24
138.9205252601
 34
0.0
100
AcDbRotatedDimension
  0
DIMENSION
  5
1D0
330
1F
100
AcDbEntity
  8
VERMASSUNG
100
AcDbDimension
  2
_D_2
 10
225.3087271721
 20
174.6576939922
 30
0.0
 11
192.8087271721
 21
174.6576939922
 31
0.0
 70
   160
  1
<>
 71
     2
 42
-1.0
  3
SLDDIMSTYLE0
100
AcDbAlignedDimension
 13
160.3087271721
 23
149.3455252601
 33
0.0
 14
225.3087271721
 24
138.9205252601
 34
0.0
100
AcDbRotatedDimension
  0
DIMENSION
  5
1DA
330
1F
100
AcDbEntity
  8
VERMASSUNG
100
AcDbDimension
  2
_D_3
 10
225.3087271721
 20
168.6576939922
 30
0.0
 11
211.8087271721
 21
168.6576939922
 31
0.0
 70
   160
  1
<>
 71
     2
 42
-1.0
  3
SLDDIMSTYLE0
100
AcDbAlignedDimension
 13
198.3087271721
 23
163.4205252601
 33
0.0
 14
225.3087271721
 24
138.9205252601
 34
0.0
100
AcDbRotatedDimension
  0
DIMENSION
  5
1E4
330
1F
100
AcDbEntity
  8
VERMASSUNG
100
AcDbDimension
  2
_D_4
 10
240.3184142883
 20
89.4205252601
 30
0.0
 11
240.3184142883
 21
114.4205252601
 31
0.0
 70
   160
  1
%%c<>
 71
     2
 42
-1.0
  3
SLDDIMSTYLE0
100
AcDbAlignedDimension
 13
224.8087271721
 23
139.4205252601
 33
0.0
 14
224.8087271721
 24
89.4205252601
 34
0.0
 50
90.0
100
AcDbRotatedDimension
  0
DIMENSION
  5
1EF
330
1F
100
AcDbEntity
  8
VERMASSUNG
100
AcDbDimension
  2
_D_5
 10
234.3184142883
 20
100.4205252601
 30
0.0
 11
234.3184142883
 21
114.4205252601
 31
0.0
 70
   160
  1
WH%%c<>
 71
     2
 42
-1.0
  3
SLDDIMSTYLE0
100
AcDbAlignedDimension
 13
224.3087271721
 23
128.4205252601
 33
0.0
 14
224.3087271721
 24
100.4205252601
 34
0.0
 50
90.0
100
AcDbRotatedDimension
  0
LINE
  5
1FB
330
1F
100
AcDbEntity
  8
VERMASSUNG
  6
CENTERX2
370
     0
100
AcDbLine
 10
56.5087271721
 20
114.4205252601
 30
0.0
 11
228.2350202756
 21
114.4205252601
 31
0.0
  0
LINE
  5
1FC
330
1F
100
AcDbEntity
  8
0
  6
Continuous
 62
     7
370
    15
100
AcDbLine
 10
272.5253720965
 20
44.5812886303
 30
0.0
 11
272.4546499287
 21
44.6221289398
 31
0.0
  0
LINE
  5
1FD
330
1F
100
AcDbEntity
  8
0
  6
Continuous
 62
     7
370
    15
100
AcDbLine
 10
268.7063750358
 20
44.6221289398
 30
0.0
 11
268.635652868
 21
44.5812886303
 31
0.0
  0
LINE
  5
1FE
330
1F
100
AcDbEntity
  8
0
  6
Continuous
 62
     7
370
    15
100
AcDbLine
 10
273.7118104194
 20
33.7984470445
 30
0.0
 11
276.3552533736
 21
34.3370287501
 31
0.0
  0
SPLINE
  5
1FF
330
1F
100
AcDbEntity
  8
0
  6
Continuous
 62
     7
370
    15
100
AcDbSpline
210
0.0
220
0.0
230
1.0
 70
     8
 71
     3
 72
    18
 73
    14
 74
     0
 42
0.000000001
 43
0.00000001
 40
0.0
 40
0.0
 40
0.0
 40
0.0
 40
0.019959464427353
 40
0.1172859551078128
 40
0.2150119735032808
 40
0.3130989558360893
 40
0.4114667797599655
 40
0.5100251212545418
 40
0.6086940964589989
 40
0.707412931701252
 40
0.8061347419618148
 40
0.9048347460302273
 40
1.0
 40
1.0
 40
1.0
 40
1.0
 10
256.8514383927039
 20
14.19442419706371
 30
0.0
 10
256.9335614851503
 20
14.18261144994337
 30
0.0
 10
257.4161338191443
 20
14.1131972963974
 30
0.0
 10
258.3500511379067
 20
14.1247969706195
 30
0.0
 10
259.6473150771983
 20
14.23647978946854
 30
0.0
 10
260.9868666424828
 20
14.50201417231665
 30
0.0
 10
262.3544892613889
 20
14.90439791777341
 30
0.0
 10
263.742872557556
 20
15.4453230421336
 30
0.0
 10
265.1425542390369
 20
16.12029614149537
 30
0.0
 10
266.5449025550271
 20
16.92434595033944
 30
0.0
 10
267.9402585478492
 20
17.85482668359079
 30
0.0
 10
269.3066906630119
 20
18.88291676004708
 30
0.0
 10
270.1915686288947
 20
19.65577402985071
 30
0.0
 10
270.6259406107943
 20
20.03515690178726
 30
0.0
  0
SPLINE
  5
200
330
1F
100
AcDbEntity
  8
0
  6
Continuous
 62
     7
370
    15
100
AcDbSpline
210
0.0
220
0.0
230
1.0
 70
     8
 71
     3
 72
    19
 73
    15
 74
     0
 42
0.000000001
 43
0.00000001
 40
0.0
 40
0.0
 40
0.0
 40
0.0
 40
0.0110833933743827
 40
0.1095105995014432
 40
0.2079840016694692
 40
0.3065052163807331
 40
0.405071179472599
 40
0.5036713169983692
 40
0.6022781815458967
 40
0.7008425158520382
 40
0.7992984697023706
 40
0.8975589129176265
 40
0.9955248070402138
 40
1.0
 40
1.0
 40
1.0
 40
1.0
 10
282.8024610853975
 20
41.07152538100141
 30
0.0
 10
282.8184085106723
 20
41.13824724761893
 30
0.0
 10
282.9759786738305
 20
41.79749946093732
 30
0.0
 10
283.1750872592572
 20
43.0267596658631
 30
0.0
 10
283.3894596236493
 20
44.7443295966501
 30
0.0
 10
283.4831736308282
 20
46.41300929526879
 30
0.0
 10
283.4688334761509
 20
48.02556461442972
 30
0.0
 10
283.3423062198656
 20
49.5711951789101
 30
0.0
 10
283.1050856835767
 20
51.04071764483518
 30
0.0
 10
282.7568451239513
 20
52.42335163930778
 30
0.0
 10
282.3032949701529
 20
53.71456378871893
 30
0.0
 10
281.7328479271305
 20
54.88831733006486
 30
0.0
 10
281.3022684207645
 20
55.64806513939691
 30
0.0
 10
281.0357730471181
 20
55.98033318987537
 30
0.0
 10
281.0241310560585
 20
55.99484849503869
 30
0.0
  0
LINE
  5
201
330
1F
100
AcDbEntity
  8
0
  6
Continuous
 62
     7
370
    15
100
AcDbLine
 10
250.9309109996
 20
16.6270866098
 30
0.0
 11
253.1494585255
 21
15.3463463844
 31
0.0
  0
LINE
  5
202
330
1F
100
AcDbEntity
  8
0
  6
Continuous
 62
     7
370
    15
100
AcDbLine
 10
278.1474268414
 20
58.6487895034
 30
0.0
 11
275.9288793155
 21
59.9295297289
 31
0.0
  0
LINE
  5
203
330
1F
100
AcDbEntity
  8
0
  6
Continuous
 62
     7
370
    15
100
AcDbLine
 10
275.372597484
 20
21.1788314694
 30
0.0
 11
275.5493454481
 21
21.2808990695
 31
0.0
  0
LINE
  5
204
330
1F
100
AcDbEntity
  8
0
  6
Continuous
 62
     7
370
    15
100
AcDbLine
 10
284.2099956896
 20
36.2832108461
 30
0.0
 11
284.2099956896
 21
36.487312874
 31
0.0
  0
LINE
  5
205
330
1F
100
AcDbEntity
  8
0
  6
Continuous
 62
     7
370
    15
100
AcDbLine
 10
281.6206530038
 20
42.2103729549
 30
0.0
 11
273.3121483248
 21
47.0067706119
 31
0.0
  0
LINE
  5
206
330
1F
100
AcDbEntity
  8
0
  6
Continuous
 62
     7
370
    15
100
AcDbLine
 10
260.8131641669
 20
25.3555490523
 30
0.0
 11
269.1216688458
 21
20.5591513954
 31
0.0
  0
LINE
  5
207
330
1F
100
AcDbEntity
  8
0
  6
Continuous
 62
     7
370
    15
100
AcDbLine
 10
270.607900787
 20
63.0012652496
 30
0.0
 11
266.4801649519
 21
65.384156426
 31
0.0
  0
SPLINE
  5
208
330
1F
100
AcDbEntity
  8
0
  6
Continuous
 62
     7
370
    15
100
AcDbSpline
210
0.0
220
0.0
230
1.0
 70
     8
 71
     3
 72
    31
 73
    27
 74
     0
 42
0.000000001
 43
0.00000001
 40
0.0
 40
0.0
 40
0.0
 40
0.0
 40
0.0207008106775834
 40
0.0635891777828268
 40
0.1066515747065329
 40
0.1498647531997835
 40
0.1931910749483531
 40
0.236591338826235
 40
0.2800324052110471
 40
0.3234898646865876
 40
0.3669443352251585
 40
0.4103876652781597
 40
0.4538163562540742
 40
0.4972296363177345
 40
0.5406284330468546
 40
0.584014687873427
 40
0.6273909219141334
 40
0.6707599741134547
 40
0.7141248518614428
 40
0.7574886515995638
 40
0.8008541944386711
 40
0.8442239317092581
 40
0.8876010558946794
 40
0.9309887450456492
 40
0.9743900993227714
 40
0.9999999999999999
 40
0.9999999999999999
 40
0.9999999999999999
 40
0.9999999999999999
 10
262.7954266052286
 20
66.52804448816566
 30
0.0
 10
262.6002370421018
 20
66.55138558266725
 30
0.0
 10
262.0006497107487
 20
66.62308523883173
 30
0.0
 10
260.943074497258
 20
66.59042780393922
 30
0.0
 10
259.6337070962811
 20
66.43785199050924
 30
0.0
 10
258.2859946191796
 20
66.13630585767959
 30
0.0
 10
256.9120363195005
 20
65.69721105742647
 30
0.0
 10
255.5198161632922
 20
65.12070412952353
 30
0.0
 10
254.1185743756458
 20
64.41131525692997
 30
0.0
 10
252.7171807247614
 20
63.573614917546
 30
0.0
 10
251.3244184029256
 20
62.61321698168484
 30
0.0
 10
249.9488479652327
 20
61.53637543944179
 30
0.0
 10
248.5987980638298
 20
60.34996790986566
 30
0.0
 10
247.2823999091376
 20
59.06146515830338
 30
0.0
 10
246.0075708879546
 20
57.67890438929859
 30
0.0
 10
244.7819824277771
 20
56.21084973144133
 30
0.0
 10
243.6130221595318
 20
54.6663501695154
 30
0.0
 10
242.5077563659488
 20
53.05489255826984
 30
0.0
 10
241.4728792341336
 20
51.38634682047746
 30
0.0
 10
240.5147123280126
 20
49.67092186397363
 30
0.0
 10
239.6390306823601
 20
47.91907875613093
 30
0.0
 10
238.8515357211618
 20
46.14157770897271
 30
0.0
 10
238.155902187482
 20
44.34895978240772
 30
0.0
 10
237.5609225264994
 20
42.55314479268342
 30
0.0
 10
237.1230886291735
 20
41.00622721607803
 30
0.0
 10
236.9188545269087
 20
40.06899455535444
 30
0.0
 10
236.8430637725257
 20
39.72118990568588
 30
0.0
  0
SPLINE
  5
209
330
1F
100
AcDbEntity
  8
0
  6
Continuous
 62
     7
370
    15
100
AcDbSpline
210
0.0
220
0.0
230
1.0
 70
     8
 71
     3
 72
    24
 73
    20
 74
     0
 42
0.000000001
 43
0.00000001
 40
0.0
 40
0.0
 40
0.0
 40
0.0
 40
0.0403150198045458
 40
0.1077543989755065
 40
0.1729969911911845
 40
0.2362606686734175
 40
0.2985989680256793
 40
0.3606775143460071
 40
0.422747261505483
 40
0.4849271956361808
 40
0.5472438790186994
 40
0.6096730622277838
 40
0.6721709988595436
 40
0.7346871878568267
 40
0.7971568712441348
 40
0.8595208075810908
 40
0.9217271266781298
 40
0.9837334676096693
 40
1.0
 40
1.0
 40
1.0
 40
1.0
 10
271.6198445598118
 20
25.49102850784259
 30
0.0
 10
271.5262291244407
 20
25.5493264362404
 30
0.0
 10
271.2760128273348
 20
25.70514573799143
 30
0.0
 10
270.9564357487198
 20
26.10405109089012
 30
0.0
 10
270.6635278485058
 20
26.66940266187706
 30
0.0
 10
270.4721479133865
 20
27.34450718241209
 30
0.0
 10
270.381280812408
 20
28.1060350414423
 30
0.0
 10
270.3938259209311
 20
28.94152592006511
 30
0.0
 10
270.5105305323551
 20
29.83385835106941
 30
0.0
 10
270.7303847872464
 20
30.76393353033116
 30
0.0
 10
271.0497659378852
 20
31.71110184662423
 30
0.0
 10
271.4624306574572
 20
32.65393889517997
 30
0.0
 10
271.9595877446495
 20
33.57091331489555
 30
0.0
 10
272.5301140210339
 20
34.44106707667502
 30
0.0
 10
273.1607888200354
 20
35.24446404937591
 30
0.0
 10
273.8367053393977
 20
35.96336849444226
 30
0.0
 10
274.5412270582159
 20
36.58055462498244
 30
0.0
 10
275.0824518637347
 20
36.96396287971659
 30
0.0
 10
275.3820930106882
 20
37.14104412970008
 30
0.0
 10
275.4443639126691
 20
37.17784484706652
 30
0.0
  0
SPLINE
  5
20A
330
1F
100
AcDbEntity
  8
0
  6
Continuous
 62
     7
370
    15
100
AcDbSpline
210
0.0
220
0.0
230
1.0
 70
     8
 71
     3
 72
    13
 73
     9
 74
     0
 42
0.000000001
 43
0.00000001
 40
0.0
 40
0.0
 40
0.0
 40
0.0
 40
0.1030651553966109
 40
0.2998101894131476
 40
0.4964866150703917
 40
0.6940882728469066
 40
0.8949392517482061
 40
1.0
 40
1.0
 40
1.0
 40
1.0
 10
275.4443639126691
 20
37.17784484706652
 30
0.0
 10
275.5676398263456
 20
37.24577943748355
 30
0.0
 10
275.926241866843
 20
37.44339697701237
 30
0.0
 10
276.5071886672411
 20
37.67462103253465
 30
0.0
 10
277.1618613301163
 20
37.82710797268976
 30
0.0
 10
277.7615757211771
 20
37.84374476345029
 30
0.0
 10
278.2224713890593
 20
37.77369894026632
 30
0.0
 10
278.4555985998869
 20
37.65320713322075
 30
0.0
 10
278.5356626086627
 20
37.61182604749309
 30
0.0
  0
LINE
  5
20B
330
1F
100
AcDbEntity
  8
0
  6
Continuous
 62
     7
370
    15
100
AcDbLine
 10
252.0604362785
 20
63.0993293927
 30
0.0
 11
221.7108169397
 21
74.0361291851
 31
0.0
  0
LINE
  5
20C
330
1F
100
AcDbEntity
  8
0
  6
Continuous
 62
     7
370
    15
100
AcDbLine
 10
211.6014622644
 20
56.5243158141
 30
0.0
 11
241.0651995909
 21
31.6453795888
 31
0.0
  0
LINE
  5
20D
330
1F
100
AcDbEntity
  8
0
  6
Continuous
 62
     7
370
    15
100
AcDbLine
 10
241.482196636
 20
22.0817133069
 30
0.0
 11
245.6099324711
 21
19.6988221306
 31
0.0
  0
SPLINE
  5
20E
330
1F
100
AcDbEntity
  8
0
  6
Continuous
 62
     7
370
    15
100
AcDbSpline
210
0.0
220
0.0
230
1.0
 70
     8
 71
     3
 72
    11
 73
     7
 74
     0
 42
0.000000001
 43
0.00000001
 40
0.0
 40
0.0
 40
0.0
 40
0.0
 40
0.1029993773410301
 40
0.4174359212798462
 40
0.7313972783591537
 40
1.0
 40
1.0
 40
1.0
 40
1.0
 10
236.8265736389022
 20
28.55605411702321
 30
0.0
 10
236.868168782773
 20
28.40849597060985
 30
0.0
 10
237.0367455999414
 20
27.81047225065606
 30
0.0
 10
237.4117891654987
 20
26.83180998450339
 30
0.0
 10
237.9521008974992
 20
25.70871525198866
 30
0.0
 10
238.3856375998464
 20
25.06885260115034
 30
0.0
 10
238.585528294167
 20
24.77383123651508
 30
0.0
  0
SPLINE
  5
20F
330
1F
100
AcDbEntity
  8
0
  6
Continuous
 62
     7
370
    15
100
AcDbSpline
210
0.0
220
0.0
230
1.0
 70
     8
 71
     3
 72
    25
 73
    21
 74
     0
 42
0.000000001
 43
0.00000001
 40
0.0
 40
0.0
 40
0.0
 40
0.0
 40
0.0438039404148055
 40
0.0964050175538126
 40
0.1500478736448504
 40
0.2049697020879979
 40
0.2609946613138658
 40
0.3177109939759203
 40
0.3747138095048914
 40
0.4316951416719387
 40
0.4885623396875045
 40
0.5453066949784612
 40
0.6019564127478886
 40
0.6585557974315347
 40
0.7151558206479578
 40
0.7717994468694176
 40
0.8285351789608267
 40
0.8854183782141486
 40
0.9424996820197019
 40
1.0
 40
1.0
 40
1.0
 40
1.0
 10
221.6181221917472
 20
74.05765828500667
 30
0.0
 10
221.4049392458111
 20
74.12252974258898
 30
0.0
 10
220.9357598649031
 20
74.26530077980031
 30
0.0
 10
220.152081187489
 20
74.31508549130629
 30
0.0
 10
219.2913363611976
 20
74.24186743507221
 30
0.0
 10
218.3972650427656
 20
74.02307405081784
 30
0.0
 10
217.4830569966464
 20
73.66431019563787
 30
0.0
 10
216.5629524811091
 20
73.16835864886869
 30
0.0
 10
215.6534977325624
 20
72.54436389106398
 30
0.0
 10
214.770043618691
 20
71.80404600742506
 30
0.0
 10
213.9261723995126
 20
70.96074929711078
 30
0.0
 10
213.1336844345604
 20
70.02818868781743
 30
0.0
 10
212.403415089084
 20
69.02066984104263
 30
0.0
 10
211.7454392072681
 20
67.95309485520558
 30
0.0
 10
211.1690175005137
 20
66.84091334020125
 30
0.0
 10
210.6828217891459
 20
65.7000941578992
 30
0.0
 10
210.2936088151758
 20
64.54631261755416
 30
0.0
 10
210.0108115436902
 20
63.39669912266364
 30
0.0
 10
209.8291927973266
 20
62.26079068317812
 30
0.0
 10
209.8062575740094
 20
61.53682532175221
 30
0.0
 10
209.7947480263774
 20
61.17351890454585
 30
0.0
  0
SPLINE
  5
210
330
1F
100
AcDbEntity
  8
0
  6
Continuous
 62
     7
370
    15
100
AcDbSpline
210
0.0
220
0.0
230
1.0
 70
     8
 71
     3
 72
    14
 73
    10
 74
     0
 42
0.000000001
 43
0.00000001
 40
0.0
 40
0.0
 40
0.0
 40
0.0
 40
0.0961640073803366
 40
0.2775004074910115
 40
0.4588312392024068
 40
0.6384530080024331
 40
0.8146068446526875
 40
0.986132682628383
 40
1.0
 40
1.0
 40
1.0
 40
1.0
 10
209.7947480263774
 20
61.17351890454586
 30
0.0
 10
209.7981342761511
 20
60.98508220423003
 30
0.0
 10
209.8079059747073
 20
60.4413105525653
 30
0.0
 10
209.9168407852992
 20
59.58697671336797
 30
0.0
 10
210.1639627931699
 20
58.64975967714415
 30
0.0
 10
210.532155745596
 20
57.80471370970805
 30
0.0
 10
211.0251800348788
 20
57.08995710978293
 30
0.0
 10
211.4169653382792
 20
56.64249569938369
 30
0.0
 10
211.6638347568824
 20
56.47779161620852
 30
0.0
 10
211.6823004686866
 20
56.46547183131941
 30
0.0
  0
LWPOLYLINE
  5
211
330
1F
100
AcDbEntity
  8
0
  6
Continuous
 62
     7
370
    15
100
AcDbPolyline
 90
       20
 70
   128
 43
0.0
 10
272.4245823378
 20
42.4419100372
 10
272.7774249054
 20
42.6850719427
 10
273.0861150815
 20
43.0424695227
 10
273.2240525812
 20
43.4338114176
 10
273.1818371918
 20
43.8324283239
 10
272.9623458223
 20
44.2111551582
 10
272.5805364468
 20
44.5441823127
 10
272.0624287434
 20
44.808814537
 10
271.4433308958
 20
44.9870175825
 10
270.7654333991
 20
45.0666472061
 10
270.0749338476
 20
45.0422767806
 10
269.4188886445
 20
44.91556711
 10
268.8420061863
 20
44.6951532492
 10
268.3836000591
 20
44.3960560385
 10
268.074909883
 20
44.0386584585
 10
267.9369723834
 20
43.6473165636
 10
267.9791877728
 20
43.2486996573
 10
268.1986791423
 20
42.869972823
 10
268.5804885177
 20
42.5369456686
 10
268.9840288062
 20
42.3195302146
  0
LWPOLYLINE
  5
212
330
1F
100
AcDbEntity
  8
0
  6
Continuous
 62
     7
370
    15
100
AcDbPolyline
 90
       21
 70
   128
 43
0.0
 10
269.9944471448
 20
42.5580672112
 10
270.5490530398
 20
42.5016048264
 10
271.1067384043
 20
42.5468430035
 10
271.6129131091
 20
42.6893535145
 10
272.0180292474
 20
42.9151864376
 10
272.2824312289
 20
43.2022356728
 10
272.3802375456
 20
43.5224028411
 10
272.3018742336
 20
43.8443477492
 10
272.05501204
 20
44.1365561864
 10
271.6638155562
 20
44.370424755
 10
271.1665778198
 20
44.52306077
 10
270.6119719247
 20
44.5795231548
 10
270.0542865602
 20
44.5342849777
 10
269.5481118554
 20
44.3917744668
 10
269.1429957172
 20
44.1659415437
 10
268.8785937356
 20
43.8788923084
 10
268.780787419
 20
43.5587251402
 10
268.8591507309
 20
43.236780232
 10
269.1060129245
 20
42.9445717948
 10
269.4972094083
 20
42.7107032262
 10
269.9944471448
 20
42.5580672112
  0
SPLINE
  5
213
330
1F
100
AcDbEntity
  8
0
  6
Continuous
 62
     7
370
    15
100
AcDbSpline
210
0.0
220
0.0
230
1.0
 70
     8
 71
     3
 72
    10
 73
     6
 74
     0
 42
0.000000001
 43
0.00000001
 40
0.0
 40
0.0
 40
0.0
 40
0.0
 40
0.0796307706646339
 40
0.4390824970823615
 40
1.0
 40
1.0
 40
1.0
 40
1.0
 10
271.6440350344155
 20
42.68863533804594
 30
0.0
 10
271.6600387984733
 20
42.6967661926635
 30
0.0
 10
271.748283237483
 20
42.74159956447556
 30
0.0
 10
271.9461836898654
 20
42.89300419142682
 30
0.0
 10
272.1151862371685
 20
43.05860126435497
 30
0.0
 10
272.2181845597964
 20
43.15952412626378
 30
0.0
  0
SPLINE
  5
214
330
1F
100
AcDbEntity
  8
0
  6
Continuous
 62
     7
370
    15
100
AcDbSpline
210
0.0
220
0.0
230
1.0
 70
     8
 71
     3
 72
    12
 73
     8
 74
     0
 42
0.000000001
 43
0.00000001
 40
0.0
 40
0.0
 40
0.0
 40
0.0
 40
0.2161857461389789
 40
0.4397628073511771
 40
0.5934185666353774
 40
0.7522096186328671
 40
1.0
 40
1.0
 40
1.0
 40
1.0
 10
272.2181845597964
 20
43.15952412626378
 30
0.0
 10
272.1955587126336
 20
43.18235351584969
 30
0.0
 10
272.1495334485042
 20
43.22879282386938
 30
0.0
 10
272.0818682870094
 20
43.3705365033106
 30
0.0
 10
272.020004230607
 20
43.55985073495884
 30
0.0
 10
271.956466240432
 20
43.80357683148033
 30
0.0
 10
271.9137622055945
 20
44.01325917385847
 30
0.0
 10
271.88773630227
 20
44.14104973023942
 30
0.0
  0
SPLINE
  5
215
330
1F
100
AcDbEntity
  8
0
  6
Continuous
 62
     7
370
    15
100
AcDbSpline
210
0.0
220
0.0
230
1.0
 70
     8
 71
     3
 72
    13
 73
     9
 74
     0
 42
0.000000001
 43
0.00000001
 40
0.0
 40
0.0
 40
0.0
 40
0.0
 40
0.1844095697099063
 40
0.3495005370884511
 40
0.5197705331556546
 40
0.6927076360809683
 40
0.8718061725834261
 40
1.0
 40
1.0
 40
1.0
 40
1.0
 10
271.88773630227
 20
44.14104973023942
 30
0.0
 10
271.7922884430603
 20
44.12177427090704
 30
0.0
 10
271.61139176774
 20
44.08524263429028
 30
0.0
 10
271.3238387858644
 20
44.07574648248092
 30
0.0
 10
271.0332604590976
 20
44.11271850466886
 30
0.0
 10
270.7362715651878
 20
44.20576332123864
 30
0.0
 10
270.4743756206967
 20
44.33020798994887
 30
0.0
 10
270.3160946453443
 20
44.42645480961718
 30
0.0
 10
270.2500642247414
 20
44.46660630584245
 30
0.0
  0
SPLINE
  5
216
330
1F
100
AcDbEntity
  8
0
  6
Continuous
 62
     7
370
    15
100
AcDbSpline
210
0.0
220
0.0
230
1.0
 70
     8
 71
     3
 72
    12
 73
     8
 74
     0
 42
0.000000001
 43
0.00000001
 40
0.0
 40
0.0
 40
0.0
 40
0.0
 40
0.2161857461389969
 40
0.439762807351207
 40
0.5934185666354028
 40
0.7522096186328894
 40
1.0
 40
1.0
 40
1.0
 40
1.0
 10
270.2500642247414
 20
44.46660630584245
 30
0.0
 10
270.1605583923291
 20
44.37731616555422
 30
0.0
 10
269.9784865543893
 20
44.19568308630073
 30
0.0
 10
269.7108092134577
 20
44.00212059837421
 30
0.0
 10
269.4660805266232
 20
43.88487530674765
 30
0.0
 10
269.2147299071536
 20
43.81374691246116
 30
0.0
 10
269.0457965559307
 20
43.81181480013059
 30
0.0
 10
268.9428404047393
 20
43.81063727746982
 30
0.0
  0
SPLINE
  5
217
330
1F
100
AcDbEntity
  8
0
  6
Continuous
 62
     7
370
    15
100
AcDbSpline
210
0.0
220
0.0
230
1.0
 70
     8
 71
     3
 72
    12
 73
     8
 74
     0
 42
0.000000001
 43
0.00000001
 40
0.0
 40
0.0
 40
0.0
 40
0.0
 40
0.2161857461389832
 40
0.4397628073511913
 40
0.5934185666353984
 40
0.7522096186328963
 40
1.0
 40
1.0
 40
1.0
 40
1.0
 10
268.9428404047393
 20
43.81063727746982
 30
0.0
 10
268.9654662519022
 20
43.69905622429368
 30
0.0
 10
269.0114915160316
 20
43.47207920074657
 30
0.0
 10
269.0791566775263
 20
43.2118532102532
 30
0.0
 10
269.1410207339288
 20
43.03365964640372
 30
0.0
 10
269.2045587241039
 20
42.89993382564896
 30
0.0
 10
269.2472627589414
 20
42.85592983359305
 30
0.0
 10
269.2732886622658
 20
42.82911167349416
 30
0.0
  0
LINE
  5
218
330
1F
100
AcDbEntity
  8
0
  6
Continuous
 62
     7
370
    15
100
AcDbLine
 10
269.2732886623
 20
42.8291116735
 30
0.0
 11
269.4001677179
 21
42.7544222399
 31
0.0
  0
LINE
  5
219
330
1F
100
AcDbEntity
  8
0
  6
Continuous
 62
     7
370
    15
100
AcDbLine
 10
271.8877363023
 20
42.8545799548
 30
0.0
 11
271.8877363023
 21
44.1410497302
 31
0.0
  0
LINE
  5
21A
330
1F
100
AcDbEntity
  8
0
  6
Continuous
 62
     7
370
    15
100
AcDbLine
 10
270.2500642247
 20
42.5191066122
 30
0.0
 11
270.2500642247
 21
44.4666063058
 31
0.0
  0
LWPOLYLINE
  5
21B
330
1F
100
AcDbEntity
  8
0
  6
Continuous
 62
     7
370
    15
100
AcDbPolyline
 90
        7
 70
   128
 43
0.0
 10
274.2585578412
 20
34.3700572156
 10
274.1678149677
 20
34.1417507552
 10
273.9261185262
 20
33.8826587254
 10
273.5895799019
 20
33.7840750955
 10
273.1911418401
 20
33.8556499179
 10
272.7698062344
 20
34.0903769503
 10
272.4862556026
 20
34.3371206521
  0
ARC
  5
21C
330
1F
100
AcDbEntity
  8
0
  6
Continuous
 62
     7
370
    15
100
AcDbCircle
 10
273.7931439077
 20
51.1058462414
 30
0.0
 40
8.700016033582157
100
AcDbArc
 50
34.9500308657
 51
84.9613057265
  0
ARC
  5
21D
330
1F
100
AcDbEntity
  8
0
  6
Continuous
 62
     7
370
    15
100
AcDbCircle
 10
257.4943958143
 20
22.8740811784
 30
0.0
 40
8.683854637568587
100
AcDbArc
 50
214.7572456476
 51
264.8712342661
  0
LWPOLYLINE
  5
21E
330
1F
100
AcDbEntity
  8
0
  6
Continuous
 62
     7
370
    15
100
AcDbPolyline
 90
        9
 70
   128
 43
0.0
 10
250.9309109996
 20
16.6270866098
 10
250.7645877364
 20
16.7256926206
 10
249.7736933486
 20
17.4321478123
 10
248.8792722428
 20
18.2858692452
 10
248.0876429945
 20
19.2808258639
 10
247.4043980131
 20
20.4099888671
 10
246.8343640348
 20
21.6653813617
 10
246.381568025
 20
23.0381347152
 10
246.0492087292
 20
24.5185512078
  0
SPLINE
  5
21F
330
1F
100
AcDbEntity
  8
0
  6
Continuous
 62
     7
370
    15
100
AcDbSpline
210
0.0
220
0.0
230
1.0
 70
     8
 71
     3
 72
    32
 73
    28
 74
     0
 42
0.000000001
 43
0.00000001
 40
0.0
 40
0.0
 40
0.0
 40
0.0
 40
0.0193254758647059
 40
0.0385826927398656
 40
0.0577846348003259
 40
0.0769443985950228
 40
0.0960751672942641
 40
0.1151901840580242
 40
0.1343027247879237
 40
0.1534260705401904
 40
0.1725734798850804
 40
0.1917581614995088
 40
0.2109932472740187
 40
0.2302917662029491
 40
0.2496666193082122
 40
0.374584628300522
 40
0.4997410234226191
 40
0.4999962720874779
 40
0.6248627021476376
 40
0.7503411293898724
 40
0.7861451323102523
 40
0.8217618639985337
 40
0.8572756267680708
 40
0.8927714566736104
 40
0.9283345184902122
 40
0.9640494961170388
 40
1.0
 40
1.0
 40
1.0
 40
1.0
 10
246.0491534532255
 20
31.97037597420558
 30
0.0
 10
246.0710966705131
 20
31.91028493049169
 30
0.0
 10
246.1149056000453
 20
31.79031508901083
 30
0.0
 10
246.1773448512672
 20
31.60956753490389
 30
0.0
 10
246.2372534787939
 20
31.42872413848864
 30
0.0
 10
246.2944400644274
 20
31.24771702294872
 30
0.0
 10
246.3489981356353
 20
31.06658762062774
 30
0.0
 10
246.4009458822261
 20
30.88534910329691
 30
0.0
 10
246.450322361689
 20
30.70402314908699
 30
0.0
 10
246.4971617431366
 20
30.52263007235114
 30
0.0
 10
246.5415003494822
 20
30.34119171694789
 30
0.0
 10
246.5833741927056
 20
30.15972982797388
 30
0.0
 10
246.6228217838941
 20
29.97826977552031
 30
0.0
 10
246.6598753032545
 20
29.79682732982682
 30
0.0
 10
246.7575674028888
 20
29.28647637808484
 30
0.0
 10
246.8750636017216
 20
28.45987484939654
 30
0.0
 10
246.9099150378439
 20
27.74455535410293
 30
0.0
 10
246.9103108620155
 20
27.06784338919521
 30
0.0
 10
246.875259510964
 20
26.42615226510276
 30
0.0
 10
246.7503254308
 20
25.80485132632387
 30
0.0
 10
246.6295992499303
 20
25.43222722434744
 30
0.0
 10
246.55529183741
 20
25.24343052321525
 30
0.0
 10
246.4723783661788
 20
25.06923924025309
 30
0.0
 10
246.3806795651689
 20
24.90942307018763
 30
0.0
 10
246.2797774975452
 20
24.76421919757263
 30
0.0
 10
246.1702246007434
 20
24.63217223744567
 30
0.0
 10
246.0896963028413
 20
24.55647275250488
 30
0.0
 10
246.0492998270844
 20
24.51849861809639
 30
0.0
  0
LWPOLYLINE
  5
220
330
1F
100
AcDbEntity
  8
0
  6
Continuous
 62
     7
370
    15
100
AcDbPolyline
 90
       27
 70
   128
 43
0.0
 10
246.049153453
 20
31.9703759743
 10
246.3814927929
 20
33.8345418367
 10
246.8342723514
 20
35.7301011503
 10
247.4042934199
 20
37.6436625384
 10
248.087529025
 20
39.5617074468
 10
248.8791523776
 20
41.470685647
 10
249.7735709718
 20
43.3571109633
 10
250.764466094
 20
45.2076565469
 10
251.8448374622
 20
47.0092490254
 10
253.0070526801
 20
48.7491608607
 10
254.2429011569
 20
50.4151002639
 10
255.5436521121
 20
51.9952980321
 10
256.9001162546
 20
53.4785906933
 10
258.3027107019
 20
54.8544993716
 10
259.7415266791
 20
56.1133038164
 10
261.2063995206
 20
57.2461110724
 10
262.6869804791
 20
58.2449183043
 10
264.1728098359
 20
59.1026693343
 10
265.6533907945
 20
59.8133044906
 10
267.1182636359
 20
60.3718034169
 10
268.5570796132
 20
60.7742205393
 10
269.9596740605
 20
61.01771294
 10
271.316138203
 20
61.1005604415
 10
272.6168891581
 20
61.022177759
 10
273.8527376349
 20
60.7831186351
 10
275.0149528528
 20
60.385071928
 10
275.9288793155
 20
59.9295297289
  0
SPLINE
  5
221
330
1F
100
AcDbEntity
  8
0
  6
Continuous
 62
     7
370
    15
100
AcDbSpline
210
0.0
220
0.0
230
1.0
 70
     8
 71
     3
 72
     8
 73
     4
 74
     0
 42
0.000000001
 43
0.00000001
 40
0.0
 40
0.0
 40
0.0
 40
0.0
 40
1.0
 40
1.0
 40
1.0
 40
1.0
 10
245.0871601741694
 20
37.40571369213197
 30
0.0
 10
243.9175337542314
 20
37.21015751888923
 30
0.0
 10
242.7469305113716
 20
37.01657255216931
 30
0.0
 10
241.5756990297187
 20
36.82429310292304
 30
0.0
  0
SPLINE
  5
222
330
1F
100
AcDbEntity
  8
0
  6
Continuous
 62
     7
370
    15
100
AcDbSpline
210
0.0
220
0.0
230
1.0
 70
     8
 71
     3
 72
     8
 73
     4
 74
     0
 42
0.000000001
 43
0.00000001
 40
0.0
 40
0.0
 40
0.0
 40
0.0
 40
0.0012417047560385
 40
0.0012417047560385
 40
0.0012417047560385
 40
0.0012417047560385
 10
241.1011984260691
 20
37.09826852380291
 30
0.0
 10
241.2594695665294
 20
37.00688319904496
 30
0.0
 10
241.4176388722087
 20
36.91555665164136
 30
0.0
 10
241.5756990297187
 20
36.82429310292304
 30
0.0
  0
LWPOLYLINE
  5
223
330
1F
100
AcDbEntity
  8
0
  6
Continuous
 62
     7
370
    15
100
AcDbPolyline
 90
       29
 70
   128
 43
0.0
 10
241.1011984261
 20
37.0982685238
 10
241.5626455155
 20
38.9837284848
 10
242.1394540852
 20
40.885686521
 10
242.8276025951
 20
42.79088208
 10
243.6222932372
 20
44.6860320373
 10
244.5179853864
 20
46.5579233068
 10
245.5084342293
 20
48.3935049633
 10
246.5867343041
 20
50.1799792341
 10
247.7453676455
 20
51.9048907257
 10
248.9762562003
 20
53.5562132638
 10
250.2708181482
 20
55.1224337399
 10
251.6200277346
 20
56.5926323817
 10
253.0144781986
 20
57.9565588865
 10
254.4444473578
 20
59.2047038861
 10
255.8999653911
 20
60.3283652474
 10
257.3708843497
 20
61.3197087438
 10
258.8469489085
 20
62.1718226759
 10
260.3178678671
 20
62.87876606
 10
261.7733859004
 20
63.4356100494
 10
263.2033550595
 20
63.8384722982
 10
264.5978055236
 20
64.0845440295
 10
265.94701511
 20
64.1721096182
 10
267.2415770579
 20
64.1005585522
 10
268.4724656127
 20
63.8703896894
 10
269.6310989541
 20
63.4832077793
 10
270.7093990289
 20
62.9417122748
 10
271.6998478718
 20
62.2496785113
 10
272.5955400209
 20
61.4119313847
 10
272.9820510734
 20
60.969390088
  0
LWPOLYLINE
  5
224
330
1F
100
AcDbEntity
  8
0
  6
Continuous
 62
     7
370
    15
100
AcDbPolyline
 90
       54
 70
   128
 43
0.0
 10
275.5479376201
 20
41.2853361068
 10
274.5234485455
 20
40.6237036887
 10
273.5133410518
 20
39.8309442113
 10
272.5317948341
 20
38.9181862798
 10
271.5925886496
 20
37.8982430149
 10
270.7089068944
 20
36.7854321841
 10
269.8931545233
 20
35.5953752123
 10
269.1567829114
 20
34.3447778906
 10
268.5101291021
 20
33.0511958643
 10
267.9622706973
 20
31.7327881892
 10
267.5208984281
 20
30.4080624193
 10
267.1922081937
 20
29.0956148004
 10
266.9808140844
 20
27.8138692203
 10
266.8896836102
 20
26.5808185772
 10
266.9200960432
 20
25.4137721994
 10
267.0716244595
 20
24.3291128597
 10
267.3421417322
 20
23.3420667976
 10
267.7278503919
 20
22.4664899763
 10
268.2233359344
 20
21.7146735751
 10
268.8216428289
 20
21.0971714482
 10
269.514372158
 20
20.6226519718
 10
270.2917995204
 20
20.2977763594
 10
271.1430115402
 20
20.1271051523
 10
272.0560590664
 20
20.1130342001
 10
273.0181249132
 20
20.2557610283
 10
274.0157037851
 20
20.5532820649
 10
275.0347918612
 20
21.0014207669
 10
276.061083379
 20
21.5938862491
 10
277.0801714552
 20
22.322361595
 10
278.077750327
 20
23.1766206074
 10
279.0398161738
 20
24.1446713624
 10
279.9528637
 20
25.2129245494
 10
280.8040757198
 20
26.3663842353
 10
281.5815030822
 20
27.5888583746
 10
282.2742324113
 20
28.8631861099
 10
282.8725393058
 20
30.1714786733
 10
283.3680248483
 20
31.4953705049
 10
283.753733508
 20
32.8162770655
 10
284.0242507807
 20
34.1156557225
 10
284.175779197
 20
35.3752660477
 10
284.20619163
 20
36.5774258733
 10
284.1150611558
 20
37.7052595105
 10
283.9036670465
 20
38.7429346472
 10
283.5749768121
 20
39.6758845992
 10
283.1336045429
 20
40.4910127943
 10
282.5857461381
 20
41.1768766192
 10
281.9390923288
 20
41.7238480494
 10
281.2027207169
 20
42.1242488049
 10
280.3869683459
 20
42.3724581368
 10
279.5032865907
 20
42.4649917303
 10
278.5640804061
 20
42.4005506164
 10
277.5825341884
 20
42.1800394072
 10
276.5724266947
 20
41.8065535966
 10
275.5479376201
 20
41.2853361068
  0
LWPOLYLINE
  5
225
330
1F
100
AcDbEntity
  8
0
  6
Continuous
 62
     7
370
    15
100
AcDbPolyline
 90
       28
 70
   128
 43
0.0
 10
275.3711609248
 20
41.5915223237
 10
274.3257639099
 20
40.9163872033
 10
273.2950419776
 20
40.107448961
 10
272.2934642044
 20
39.1760633166
 10
271.3350905467
 20
38.135304883
 10
270.43337447
 20
36.9997836271
 10
269.6009740913
 20
35.7854397783
 10
268.8495744874
 20
34.5093200624
 10
268.1897236615
 20
33.1893384028
 10
267.6306844729
 20
31.8440244487
 10
267.1803046064
 20
30.4922634589
 10
266.844906408
 20
29.1530311948
 10
266.6291981333
 20
27.8451275416
 10
266.5362078535
 20
26.5869125997
 10
266.5672409484
 20
25.3960489488
 10
266.7218617813
 20
24.2892537042
 10
266.9978998147
 20
23.282063845
 10
267.3914800797
 20
22.388618109
 10
267.8970775721
 20
21.6214585159
 10
268.5075948113
 20
20.9913543047
 10
269.2144614736
 20
20.5071507575
 10
270.0077547006
 20
20.1756450305
 10
270.8763383943
 20
20.0014907375
 10
271.8080195435
 20
19.9871326231
 10
272.7897193872
 20
20.1327722436
 10
273.8076570115
 20
20.4363651382
 10
274.8475428035
 20
20.8936495279
 10
275.372597484
 20
21.1788314694
  0
LWPOLYLINE
  5
226
330
1F
100
AcDbEntity
  8
0
  6
Continuous
 62
     7
370
    15
100
AcDbPolyline
 90
       15
 70
   128
 43
0.0
 10
284.2099956896
 20
36.487312874
 10
284.2061139961
 20
36.7875322895
 10
284.1131237163
 20
37.9383829397
 10
283.8974154416
 20
38.9972351201
 10
283.5620172432
 20
39.9492248671
 10
283.1116373767
 20
40.7809883314
 10
282.5525981881
 20
41.4808493772
 10
281.8927473623
 20
42.0389834896
 10
281.1413477583
 20
42.4475556892
 10
280.3089473797
 20
42.7008305177
 10
279.4072313029
 20
42.7952525518
 10
278.4488576453
 20
42.7294963131
 10
277.447279872
 20
42.5044848751
 10
276.4165579397
 20
42.1233769052
 10
275.3711609248
 20
41.5915223237
  0
SPLINE
  5
227
330
1F
100
AcDbEntity
  8
0
  6
Continuous
 62
     7
370
    15
100
AcDbSpline
210
0.0
220
0.0
230
1.0
 70
    11
 71
     3
 72
    96
 73
    92
 74
     0
 42
0.000000001
 43
0.00000001
 40
0.0
 40
0.0
 40
0.0
 40
0.0
 40
0.031249999999999
 40
0.031249999999999
 40
0.0468749999999988
 40
0.0468749999999988
 40
0.0624999999999985
 40
0.0624999999999985
 40
0.0937499999999975
 40
0.0937499999999975
 40
0.109374999999997
 40
0.109374999999997
 40
0.1249999999999965
 40
0.1249999999999965
 40
0.1562499999999959
 40
0.1562499999999959
 40
0.1718749999999954
 40
0.1718749999999954
 40
0.187499999999995
 40
0.187499999999995
 40
0.2187499999999944
 40
0.2187499999999944
 40
0.2343749999999942
 40
0.2343749999999942
 40
0.2499999999999939
 40
0.2499999999999939
 40
0.2812499999999934
 40
0.2812499999999934
 40
0.2968749999999933
 40
0.2968749999999933
 40
0.3124999999999931
 40
0.3124999999999931
 40
0.3437499999999931
 40
0.3437499999999931
 40
0.3593749999999931
 40
0.3593749999999931
 40
0.3749999999999931
 40
0.3749999999999931
 40
0.3906249999999931
 40
0.3906249999999931
 40
0.4062499999999931
 40
0.4062499999999931
 40
0.4374999999999932
 40
0.4374999999999932
 40
0.4531249999999931
 40
0.4531249999999931
 40
0.468749999999993
 40
0.468749999999993
 40
0.4999999999999926
 40
0.4999999999999926
 40
0.5312499999999921
 40
0.5312499999999921
 40
0.5468749999999921
 40
0.5468749999999921
 40
0.562499999999992
 40
0.562499999999992
 40
0.5937499999999926
 40
0.5937499999999926
 40
0.624999999999993
 40
0.624999999999993
 40
0.6562499999999934
 40
0.6562499999999934
 40
0.6874999999999939
 40
0.6874999999999939
 40
0.7187499999999944
 40
0.7187499999999944
 40
0.7499999999999949
 40
0.7499999999999949
 40
0.7656249999999953
 40
0.7656249999999953
 40
0.7812499999999957
 40
0.7812499999999957
 40
0.8124999999999964
 40
0.8124999999999964
 40
0.8281249999999968
 40
0.8281249999999968
 40
0.8437499999999971
 40
0.8437499999999971
 40
0.8749999999999977
 40
0.8749999999999977
 40
0.890624999999998
 40
0.890624999999998
 40
0.9062499999999982
 40
0.9062499999999982
 40
0.9218749999999986
 40
0.9218749999999986
 40
0.9374999999999988
 40
0.9374999999999988
 40
0.9687499999999994
 40
0.9687499999999994
 40
1.0
 40
1.0
 40
1.0
 40
1.0
 10
270.5500040928234
 20
46.18183296662021
 30
0.0
 10
270.780409734951
 20
46.14276396380847
 30
0.0
 10
271.0047251623753
 20
46.09251002143503
 30
0.0
 10
271.3331610999632
 20
46.00368002751551
 30
0.0
 10
271.4412872254291
 20
45.97180138810585
 30
0.0
 10
271.65488278885
 20
45.90378940410224
 30
0.0
 10
271.7608125641186
 20
45.86748259456485
 30
0.0
 10
272.0710013464929
 20
45.75371245370372
 30
0.0
 10
272.2666357163681
 20
45.67198034227223
 30
0.0
 10
272.5441576847792
 20
45.54186459715191
 30
0.0
 10
272.6339916261513
 20
45.49722358425232
 30
0.0
 10
272.8082351556102
 20
45.4054390315514
 30
0.0
 10
272.8929457756231
 20
45.35809881972818
 30
0.0
 10
273.1344765126341
 20
45.21475754084407
 30
0.0
 10
273.2800038158413
 20
45.11692502475975
 30
0.0
 10
273.4753978456433
 20
44.96638026005269
 30
0.0
 10
273.5366898305141
 20
44.91555546414596
 30
0.0
 10
273.651357168074
 20
44.81241785805289
 30
0.0
 10
273.704847676033
 20
44.75993637140957
 30
0.0
 10
273.8501364839785
 20
44.6028885710863
 30
0.0
 10
273.9279849085073
 20
44.4978662934201
 30
0.0
 10
274.0157397645154
 20
44.33813670523368
 30
0.0
 10
274.0401231361504
 20
44.284521959964
 30
0.0
 10
274.0786247289848
 20
44.176170592356
 30
0.0
 10
274.0926979718636
 20
44.121306565284
 30
0.0
 10
274.1179661679997
 20
43.95812900712256
 30
0.0
 10
274.1129345074873
 20
43.85005018845632
 30
0.0
 10
274.070542056105
 20
43.68689459476359
 30
0.0
 10
274.050561111379
 20
43.63233707029069
 30
0.0
 10
273.997917128532
 20
43.52250499839186
 30
0.0
 10
273.9652967564687
 20
43.46752224661294
 30
0.0
 10
273.8504327369955
 20
43.30563599142702
 30
0.0
 10
273.7507625300676
 20
43.2003330013949
 30
0.0
 10
273.5640497811677
 20
43.04531171781945
 30
0.0
 10
273.4949367485918
 20
42.99374873776701
 30
0.0
 10
273.347088038081
 20
42.89417045951445
 30
0.0
 10
273.2683413574368
 20
42.84603962583889
 30
0.0
 10
273.1014155387209
 20
42.7529977314386
 30
0.0
 10
273.0132361096578
 20
42.70808678798144
 30
0.0
 10
272.827349106705
 20
42.62157097535108
 30
0.0
 10
272.7290180633768
 20
42.5797564810518
 30
0.0
 10
272.4270743508712
 20
42.46257931252239
 30
0.0
 10
272.215041406331
 20
42.39446740280842
 30
0.0
 10
271.8817461169619
 20
42.30767459554609
 30
0.0
 10
271.7683812541702
 20
42.2814534211716
 30
0.0
 10
271.5416100151315
 20
42.23540103782116
 30
0.0
 10
271.4275957819493
 20
42.21540566031393
 30
0.0
 10
271.08369022832
 20
42.16453718065358
 30
0.0
 10
270.8499043193559
 20
42.14273691016277
 30
0.0
 10
270.3923637616606
 20
42.12596126028465
 30
0.0
 10
270.1674558072185
 20
42.13059486884841
 30
0.0
 10
269.8353636700297
 20
42.15803545788314
 30
0.0
 10
269.7253250455643
 20
42.17068657086849
 30
0.0
 10
269.5108396769842
 20
42.20259192984874
 30
0.0
 10
269.4059115661036
 20
42.22186894872671
 30
0.0
 10
269.0978194347292
 20
42.28969906188986
 30
0.0
 10
268.9012892039781
 20
42.34818752347753
 30
0.0
 10
268.5261207008746
 20
42.49341390736907
 30
0.0
 10
268.3518172857939
 20
42.57857495329817
 30
0.0
 10
268.0313710127824
 20
42.77199352503065
 30
0.0
 10
267.8847151140646
 20
42.88045927707741
 30
0.0
 10
267.6200516949468
 20
43.12138418791903
 30
0.0
 10
267.5058627596213
 20
43.25034559425619
 30
0.0
 10
267.3129128509794
 20
43.52354409691328
 30
0.0
 10
267.234009841547
 20
43.66807758010223
 30
0.0
 10
267.1152384176062
 20
43.97050919208339
 30
0.0
 10
267.0769545530467
 20
44.12414821023177
 30
0.0
 10
267.051629054381
 20
44.35655339964476
 30
0.0
 10
267.0485755859257
 20
44.43434878430536
 30
0.0
 10
267.0538443754428
 20
44.59032492133942
 30
0.0
 10
267.0622439145419
 20
44.6689074418368
 30
0.0
 10
267.1055146418444
 20
44.90198115872147
 30
0.0
 10
267.1575582829615
 20
45.05141060683347
 30
0.0
 10
267.2718586908646
 20
45.26461851681401
 30
0.0
 10
267.31604326198
 20
45.33385650116121
 30
0.0
 10
267.4174689987249
 20
45.46818577613529
 30
0.0
 10
267.4750241041008
 20
45.53343852631347
 30
0.0
 10
267.6628180047094
 20
45.71643274131656
 30
0.0
 10
267.8093405985173
 20
45.82359890746508
 30
0.0
 10
268.0619797377278
 20
45.96113294135828
 30
0.0
 10
268.1522390356591
 20
46.00321962222358
 30
0.0
 10
268.3388704413327
 20
46.07724108498303
 30
0.0
 10
268.4357245421454
 20
46.1095059330903
 30
0.0
 10
268.6362607994965
 20
46.1650173674131
 30
0.0
 10
268.7399435839523
 20
46.18826286705276
 30
0.0
 10
268.9541224934532
 20
46.22597047853452
 30
0.0
 10
269.0641101068086
 20
46.24028528843611
 30
0.0
 10
269.3963555731266
 20
46.26995670536933
 30
0.0
 10
269.6231899452624
 20
46.27260067266263
 30
0.0
 10
270.0872344555555
 20
46.24798705119347
 30
0.0
 10
270.3195984506957
 20
46.22090196943195
 30
0.0
 10
270.5500040928234
 20
46.18183296662021
 30
0.0
  0
LINE
  5
228
330
1F
100
AcDbEntity
  8
0
  6
Continuous
 62
     7
370
    15
100
AcDbLine
 10
236.9734625909
 20
39.4811597002
 30
0.0
 11
241.1011984261
 21
37.0982685238
 31
0.0
  0
ARC
  5
229
330
1F
100
AcDbEntity
  8
0
  6
Continuous
 62
     7
370
    15
100
AcDbCircle
 10
262.090739879
 20
57.6532505979
 30
0.0
 40
8.8901044646442
100
AcDbArc
 50
60.4131167179
 51
84.5649193581
  0
SPLINE
  5
22A
330
1F
100
AcDbEntity
  8
0
  6
Continuous
 62
     7
370
    15
100
AcDbSpline
210
0.0
220
0.0
230
1.0
 70
     8
 71
     3
 72
    10
 73
     6
 74
     0
 42
0.000000001
 43
0.00000001
 40
0.0
 40
0.0
 40
0.0
 40
0.0
 40
0.3705329743695958
 40
0.7410504081805834
 40
1.0
 40
1.0
 40
1.0
 40
1.0
 10
254.8085249629337
 20
52.30077618057838
 30
0.0
 10
254.916651856109
 20
52.25384276239284
 30
0.0
 10
255.1329011074994
 20
52.15997789446072
 30
0.0
 10
255.4984199256175
 20
52.14779250313673
 30
0.0
 10
255.7257969702178
 20
52.21534286407613
 30
0.0
 10
255.8193351390034
 20
52.24313167219519
 30
0.0
  0
LWPOLYLINE
  5
22B
330
1F
100
AcDbEntity
  8
0
  6
Continuous
 62
     7
370
    15
100
AcDbPolyline
 90
       14
 70
   128
 43
0.0
 10
256.8398048414
 20
53.3952113854
 10
256.7673909529
 20
53.662288075
 10
256.5591920413
 20
53.898982823
 10
256.2457471453
 20
54.0536628852
 10
255.8626069944
 20
54.1089928753
 10
255.4528422694
 20
54.0570575525
 10
255.0633912966
 20
53.9008484999
 10
254.7396681841
 20
53.6560184314
 10
254.5185564454
 20
53.3498454461
 10
254.4240373795
 20
53.0173797776
 10
254.4659973649
 20
52.6975967692
 10
254.6391917799
 20
52.4292475493
 10
254.8085249629
 20
52.3007761806
 10
254.8085249629
 20
52.3007761806
  0
SPLINE
  5
22C
330
1F
100
AcDbEntity
  8
0
  6
Continuous
 62
     7
370
    15
100
AcDbSpline
210
0.0
220
0.0
230
1.0
 70
     8
 71
     3
 72
    10
 73
     6
 74
     0
 42
0.000000001
 43
0.00000001
 40
0.0
 40
0.0
 40
0.0
 40
0.0
 40
0.1990716023323184
 40
0.6712675235717837
 40
1.0
 40
1.0
 40
1.0
 40
1.0
 10
246.930442925672
 20
36.0158965291357
 30
0.0
 10
246.8456815992449
 20
36.12689717726653
 30
0.0
 10
246.5598672238201
 20
36.50119029247067
 30
0.0
 10
246.0681284091623
 20
36.95106358878265
 30
0.0
 10
245.6511222558935
 20
37.23253876572053
 30
0.0
 10
245.4799665497792
 20
37.34806723522829
 30
0.0
  0
SPLINE
  5
22D
330
1F
100
AcDbEntity
  8
0
  6
Continuous
 62
     7
370
    15
100
AcDbSpline
210
0.0
220
0.0
230
1.0
 70
     8
 71
     3
 72
    10
 73
     6
 74
     0
 42
0.000000001
 43
0.00000001
 40
0.0
 40
0.0
 40
0.0
 40
0.0
 40
0.5
 40
0.5
 40
1.0
 40
1.0
 40
1.0
 40
1.0
 10
245.344037202547
 20
37.40059721703762
 30
0.0
 10
245.3034618941521
 20
37.40942173836458
 30
0.0
 10
245.2598875510984
 20
37.41437481427326
 30
0.0
 10
245.1720848241116
 20
37.41595999953938
 30
0.0
 10
245.1291167071898
 20
37.41272863203084
 30
0.0
 10
245.0871601741694
 20
37.40571369213197
 30
0.0
  0
SPLINE
  5
22E
330
1F
100
AcDbEntity
  8
0
  6
Continuous
 62
     7
370
    15
100
AcDbSpline
210
0.0
220
0.0
230
1.0
 70
     8
 71
     3
 72
     8
 73
     4
 74
     0
 42
0.000000001
 43
0.00000001
 40
0.0
 40
0.0
 40
0.0
 40
0.0
 40
1.0
 40
1.0
 40
1.0
 40
1.0
 10
245.4799665497792
 20
37.34806723522829
 30
0.0
 10
245.441484607943
 20
37.37173804502417
 30
0.0
 10
245.3953769561961
 20
37.38943159023361
 30
0.0
 10
245.344037202547
 20
37.40059721703766
 30
0.0
  0
SPLINE
  5
22F
330
1F
100
AcDbEntity
  8
0
  6
Continuous
 62
     7
370
    15
100
AcDbSpline
210
0.0
220
0.0
230
1.0
 70
     8
 71
     3
 72
    10
 73
     6
 74
     0
 42
0.000000001
 43
0.00000001
 40
0.0
 40
0.0
 40
0.0
 40
0.0
 40
0.5
 40
0.5
 40
1.0
 40
1.0
 40
1.0
 40
1.0
 10
236.8167656710818
 20
39.57160758336603
 30
0.0
 10
236.8278162694318
 20
39.5652317488219
 30
0.0
 10
236.8464362153713
 20
39.55448550731651
 30
0.0
 10
236.8997361654318
 20
39.52372003447655
 30
0.0
 10
236.9333169381531
 20
39.5043352922056
 30
0.0
 10
236.9734625908926
 20
39.48115970018544
 30
0.0
  0
LINE
  5
230
330
1F
100
AcDbEntity
  8
0
  6
Continuous
 62
     7
370
    15
100
AcDbLine
 10
236.8167656711
 20
39.5716075834
 30
0.0
 11
236.8408142791
 21
39.7216268381
 31
0.0
  0
SPLINE
  5
231
330
1F
100
AcDbEntity
  8
0
  6
Continuous
 62
     7
370
    15
100
AcDbSpline
210
0.0
220
0.0
230
1.0
 70
     8
 71
     3
 72
     9
 73
     5
 74
     0
 42
0.000000001
 43
0.00000001
 40
0.0
 40
0.0
 40
0.0
 40
0.0
 40
0.5377956222892928
 40
0.9999999999999999
 40
0.9999999999999999
 40
0.9999999999999999
 40
0.9999999999999999
 10
245.4799665497792
 20
26.8587111722852
 30
0.0
 10
245.7200327232266
 20
26.73194512474371
 30
0.0
 10
246.1664219526991
 20
26.49623095696773
 30
0.0
 10
246.5580281101422
 20
26.38058631795345
 30
0.0
 10
246.7390301904509
 20
26.32713485954228
 30
0.0
  0
SPLINE
  5
232
330
1F
100
AcDbEntity
  8
0
  6
Continuous
 62
     7
370
    15
100
AcDbSpline
210
0.0
220
0.0
230
1.0
 70
     8
 71
     3
 72
     8
 73
     4
 74
     0
 42
0.000000001
 43
0.00000001
 40
0.0
 40
0.0
 40
0.0
 40
0.0
 40
1.0
 40
1.0
 40
1.0
 40
1.0
 10
245.3440372025476
 20
26.90804778430561
 30
0.0
 10
245.3953655845447
 20
26.89688463066532
 30
0.0
 10
245.441486148649
 20
26.88017062636361
 30
0.0
 10
245.4799665497792
 20
26.85871117228522
 30
0.0
  0
SPLINE
  5
233
330
1F
100
AcDbEntity
  8
0
  6
Continuous
 62
     7
370
    15
100
AcDbSpline
210
0.0
220
0.0
230
1.0
 70
     8
 71
     3
 72
    12
 73
     8
 74
     0
 42
0.000000001
 43
0.00000001
 40
0.0
 40
0.0
 40
0.0
 40
0.0
 40
0.1882382096070753
 40
0.3552093049382552
 40
0.5009554525917793
 40
0.7563158857386634
 40
1.0
 40
1.0
 40
1.0
 40
1.0
 10
246.1599537188794
 20
25.24247277500387
 30
0.0
 10
246.248997249353
 20
25.33675442668358
 30
0.0
 10
246.417024190508
 20
25.51466580839238
 30
0.0
 10
246.5969335779961
 20
25.86198286425528
 30
0.0
 10
246.7584574296747
 20
26.32263665550766
 30
0.0
 10
246.8842119593148
 20
26.94416938528627
 30
0.0
 10
246.9015145832925
 20
27.52747549121087
 30
0.0
 10
246.9099634775251
 20
27.81230463623145
 30
0.0
  0
LWPOLYLINE
  5
234
330
1F
100
AcDbEntity
  8
0
  6
Continuous
 62
     7
370
    15
100
AcDbPolyline
 90
        3
 70
   128
 43
0.0
 10
271.5970672831
 20
25.4840488547
 10
271.6943842295
 20
25.4246353804
 10
271.6946686653
 20
25.4244711524
  0
LINE
  5
235
330
1F
100
AcDbEntity
  8
0
  6
Continuous
 62
     7
370
    15
100
AcDbLine
 10
278.6940997937
 20
37.5491552258
 30
0.0
 11
278.519642723
 21
37.6402937492
 31
0.0
  0
SPLINE
  5
236
330
1F
100
AcDbEntity
  8
0
  6
Continuous
 62
     7
370
    15
100
AcDbSpline
210
0.0
220
0.0
230
1.0
 70
     8
 71
     3
 72
     9
 73
     5
 74
     0
 42
0.000000001
 43
0.00000001
 40
0.0
 40
0.0
 40
0.0
 40
0.0
 40
0.5047996155397978
 40
1.0
 40
1.0
 40
1.0
 40
1.0
 10
246.0492193068485
 20
24.51844825474277
 30
0.0
 10
246.0677641355097
 20
24.64016195926969
 30
0.0
 10
246.1045011457815
 20
24.88127486977928
 30
0.0
 10
246.1415983310235
 20
25.12278101940803
 30
0.0
 10
246.1599688714178
 20
25.2423749575537
 30
0.0
  0
LWPOLYLINE
  5
237
330
1F
100
AcDbEntity
  8
0
  6
Continuous
 62
     7
370
    15
100
AcDbPolyline
 90
        8
 70
   128
 43
0.0
 10
268.635968834
 20
44.6631251444
 10
268.213471908
 20
44.3486882148
 10
267.9397048467
 20
43.9834738682
 10
267.8318694413
 20
43.590429865
 10
267.8967413869
 20
43.1942526056
 10
268.1302445407
 20
42.8198353641
 10
268.5177070408
 20
42.4907041529
 10
268.555938898
 20
42.4661880065
  0
LWPOLYLINE
  5
238
330
1F
100
AcDbEntity
  8
0
  6
Continuous
 62
     7
370
    15
100
AcDbPolyline
 90
       13
 70
   128
 43
0.0
 10
272.7648564878
 20
42.5761062075
 10
273.1043377029
 20
42.9100753485
 10
273.2966554189
 20
43.292217831
 10
273.3183078849
 20
43.6899648161
 10
273.1679345969
 20
44.0783243978
 10
272.8549840615
 20
44.4328945154
 10
272.3991201119
 20
44.7313962244
 10
271.8289863566
 20
44.9550735646
 10
271.1804063961
 20
45.089872066
 10
270.4941328948
 20
45.1273218431
 10
269.8132869407
 20
45.0650697886
 10
269.180648589
 20
44.9070274282
 10
268.635968834
 20
44.6631251444
  0
LINE
  5
239
330
1F
100
AcDbEntity
  8
0
  6
Continuous
 62
     7
370
    15
100
AcDbLine
 10
237.2508327712
 20
39.3209852504
 30
0.0
 11
236.8167656711
 21
39.5716075834
 31
0.0
  0
LINE
  5
23A
330
1F
100
AcDbEntity
  8
0
  6
Continuous
 62
     7
370
    15
100
AcDbLine
 10
241.5756990297
 20
36.8242931029
 30
0.0
 11
237.2508327712
 21
39.3209852504
 31
0.0
  0
SPLINE
  5
23B
330
1F
100
AcDbEntity
  8
0
  6
Continuous
 62
     7
370
    15
100
AcDbSpline
210
0.0
220
0.0
230
1.0
 70
     8
 71
     3
 72
    11
 73
     7
 74
     0
 42
0.000000001
 43
0.00000001
 40
0.0
 40
0.0
 40
0.0
 40
0.0
 40
0.0763291486409798
 40
0.482824010096418
 40
0.8892344489868838
 40
1.0
 40
1.0
 40
1.0
 40
1.0
 10
241.1471927153779
 20
34.00825390469614
 30
0.0
 10
241.1467573360478
 20
34.08649304371564
 30
0.0
 10
241.144003321392
 20
34.58139879755247
 30
0.0
 10
241.099307664178
 20
35.51438484004979
 30
0.0
 10
241.0612325496164
 20
36.47986864832954
 30
0.0
 10
241.0732505687524
 20
37.00120741076475
 30
0.0
 10
241.0758245136719
 20
37.11286451862158
 30
0.0
  0
LINE
  5
23C
330
1F
100
AcDbEntity
  8
0
  6
Continuous
 62
     7
370
    15
100
AcDbLine
 10
241.1471927154
 20
32.2324532757
 30
0.0
 11
241.1471927154
 21
34.0082539047
 31
0.0
  0
LINE
  5
23D
330
1F
100
AcDbEntity
  8
0
  6
Continuous
 62
     7
370
    15
100
AcDbLine
 10
240.2191150651
 20
37.4210796519
 30
0.0
 11
240.2201560923
 21
37.6068313839
 31
0.0
  0
ARC
  5
23E
330
1F
100
AcDbEntity
  8
0
  6
Continuous
 62
     7
370
    15
100
AcDbCircle
 10
252.1761947843
 20
37.1595204745
 30
0.0
 40
11.95994015934464
100
AcDbArc
 50
178.7468639795
 51
202.7557767409
  0
LINE
  5
23F
330
1F
100
AcDbEntity
  8
0
  6
Continuous
 62
     7
370
    15
100
AcDbLine
 10
221.6361436066
 20
74.0620912548
 30
0.0
 11
221.7108169397
 21
74.0361291851
 31
0.0
  0
LWPOLYLINE
  5
240
330
1F
100
AcDbEntity
  8
0
  6
Continuous
 62
     7
370
    15
100
AcDbPolyline
 90
       10
 70
   128
 43
0.0
 10
248.5567607132
 20
18.6589617714
 10
247.7453676455
 20
18.8296976907
 10
246.5867343041
 20
19.2168796008
 10
245.5084342293
 20
19.7583751053
 10
244.5179853864
 20
20.4504088689
 10
243.6222932372
 20
21.2881559954
 10
242.8276025951
 20
22.2657756674
 10
242.1394540852
 20
23.3764518688
 10
241.5626455155
 20
24.612440906
 10
241.1011984261
 20
25.9651253979
  0
SPLINE
  5
241
330
1F
100
AcDbEntity
  8
0
  6
Continuous
 62
     7
370
    15
100
AcDbSpline
210
0.0
220
0.0
230
1.0
 70
     8
 71
     3
 72
     8
 73
     4
 74
     0
 42
0.000000001
 43
0.00000001
 40
0.0
 40
0.0
 40
0.0
 40
0.0
 40
0.0012417047560385
 40
0.0012417047560385
 40
0.0012417047560385
 40
0.0012417047560385
 10
241.5756990297187
 20
26.33174367019116
 30
0.0
 10
241.4176388722087
 20
26.209340465187
 30
0.0
 10
241.2594695665294
 20
26.08713823521624
 30
0.0
 10
241.1011984260691
 20
25.96512539790548
 30
0.0
  0
SPLINE
  5
242
330
1F
100
AcDbEntity
  8
0
  6
Continuous
 62
     7
370
    15
100
AcDbSpline
210
0.0
220
0.0
230
1.0
 70
     8
 71
     3
 72
     8
 73
     4
 74
     0
 42
0.000000001
 43
0.00000001
 40
0.0
 40
0.0
 40
0.0
 40
0.0
 40
1.0
 40
1.0
 40
1.0
 40
1.0
 10
241.5756990297187
 20
26.33174367019116
 30
0.0
 10
242.7469316143944
 20
26.52402330051916
 30
0.0
 10
243.9175509889868
 20
26.71761096772941
 30
0.0
 10
245.0871601741694
 20
26.91316425940008
 30
0.0
  0
SPLINE
  5
243
330
1F
100
AcDbEntity
  8
0
  6
Continuous
 62
     7
370
    15
100
AcDbSpline
210
0.0
220
0.0
230
1.0
 70
     8
 71
     3
 72
    10
 73
     6
 74
     0
 42
0.000000001
 43
0.00000001
 40
0.0
 40
0.0
 40
0.0
 40
0.0
 40
0.5
 40
0.5
 40
1.0
 40
1.0
 40
1.0
 40
1.0
 10
245.0871601741694
 20
26.91316425940009
 30
0.0
 10
245.1289260351838
 20
26.92014731981403
 30
0.0
 10
245.1728233209979
 20
26.92343741082241
 30
0.0
 10
245.2604507037878
 20
26.92177443639336
 30
0.0
 10
245.3029560008485
 20
26.91698232984262
 30
0.0
 10
245.3440372025476
 20
26.90804778430561
 30
0.0
  0
LINE
  5
244
330
1F
100
AcDbEntity
  8
0
  6
Continuous
 62
     7
370
    15
100
AcDbLine
 10
237.2508327712
 20
28.8284358177
 30
0.0
 11
241.5756990297
 21
26.3317436702
 31
0.0
  0
LINE
  5
245
330
1F
100
AcDbEntity
  8
0
  6
Continuous
 62
     7
370
    15
100
AcDbLine
 10
237.2508327712
 20
28.8284358177
 30
0.0
 11
240.7936393248
 21
30.8736545073
 31
0.0
  0
LINE
  5
246
330
1F
100
AcDbEntity
  8
0
  6
Continuous
 62
     7
370
    15
100
AcDbLine
 10
236.8167656711
 20
28.5778134847
 30
0.0
 11
237.2508327712
 21
28.8284358177
 31
0.0
  0
LINE
  5
247
330
1F
100
AcDbEntity
  8
0
  6
Continuous
 62
     7
370
    15
100
AcDbLine
 10
241.1011984261
 20
25.9651253979
 30
0.0
 11
236.9734625909
 21
28.3480165743
 31
0.0
  0
SPLINE
  5
248
330
1F
100
AcDbEntity
  8
0
  6
Continuous
 62
     7
370
    15
100
AcDbSpline
210
0.0
220
0.0
230
1.0
 70
     8
 71
     3
 72
     8
 73
     4
 74
     0
 42
0.000000001
 43
0.00000001
 40
0.0
 40
0.0
 40
0.0
 40
0.0
 40
1.0
 40
1.0
 40
1.0
 40
1.0
 10
236.9734625908926
 20
28.34801657428801
 30
0.0
 10
236.8932433617264
 20
28.39432614955861
 30
0.0
 10
236.8388535994407
 20
28.47798899056741
 30
0.0
 10
236.8167656710818
 20
28.57781348467444
 30
0.0
  0
ARC
  5
249
330
1F
100
AcDbEntity
  8
0
  6
Continuous
 62
     7
370
    15
100
AcDbCircle
 10
245.9916815787
 20
29.7615989781
 30
0.0
 40
8.905958587959368
100
AcDbArc
 50
214.8338129216
 51
239.5793426072
  0
ELLIPSE
  5
24A
330
1F
100
AcDbEntity
  8
0
  6
Continuous
 62
     7
370
    15
100
AcDbEllipse
 10
240.500746106
 20
31.8592789754
 30
0.0
 11
-7.507462981948265E-5
 21
1.066811201853401
 31
0.0
210
0.0
220
0.0
230
1.0
 40
0.7174342186
 41
3.534193645557457
 42
5.104989972352339
  0
ELLIPSE
  5
24B
330
1F
100
AcDbEntity
  8
0
  6
Continuous
 62
     7
370
    15
100
AcDbEllipse
 10
240.4400859342
 20
31.8242492198
 30
0.0
 11
0.3250094736511642
 21
1.213179526238676
 31
0.0
210
0.0
220
0.0
230
1.0
 40
0.5176380889
 41
3.619174351347738
 42
5.1899706781426
  0
LWPOLYLINE
  5
24C
330
1F
100
AcDbEntity
  8
0
  6
Continuous
 62
     7
370
    15
100
AcDbPolyline
 90
       10
 70
   128
 43
0.0
 10
255.6999680124
 20
54.0945348974
 10
255.2414074164
 20
53.9707260484
 10
254.8420376805
 20
53.722341701
 10
254.5626592265
 20
53.3871961203
 10
254.4458048916
 20
53.0163121831
 10
254.5092646889
 20
52.6661536065
 10
254.7433774396
 20
52.3900288598
 10
255.1125015996
 20
52.2299754326
 10
255.5604413617
 20
52.2103600081
 10
255.764425887
 20
52.2476215159
  0
ARC
  5
24D
330
1F
100
AcDbEntity
  8
0
  6
Continuous
 62
     7
370
    15
100
AcDbCircle
 10
255.9356289508
 20
53.2326198317
 30
0.0
 40
0.8935511504102734
100
AcDbArc
 50
10.1613761443
 51
105.2918148469
  0
LINE
  5
24E
330
1F
100
AcDbEntity
  8
0
  6
Continuous
 62
     7
370
    15
100
AcDbLine
 10
254.8790223091
 20
52.7353243433
 30
0.0
 11
255.5807940863
 21
52.4852042226
 31
0.0
  0
LINE
  5
24F
330
1F
100
AcDbEntity
  8
0
  6
Continuous
 62
     7
370
    15
100
AcDbLine
 10
256.3319764642
 20
52.9023273321
 30
0.0
 11
255.5807940863
 21
52.4852042226
 31
0.0
  0
LINE
  5
250
330
1F
100
AcDbEntity
  8
0
  6
Continuous
 62
     7
370
    15
100
AcDbLine
 10
256.3813870649
 20
53.5695705622
 30
0.0
 11
256.3319764642
 21
52.9023273321
 31
0.0
  0
LINE
  5
251
330
1F
100
AcDbEntity
  8
0
  6
Continuous
 62
     7
370
    15
100
AcDbLine
 10
256.3813870649
 20
53.5695705622
 30
0.0
 11
255.6796152877
 21
53.8196906829
 31
0.0
  0
LINE
  5
252
330
1F
100
AcDbEntity
  8
0
  6
Continuous
 62
     7
370
    15
100
AcDbLine
 10
254.9284329098
 20
53.4025675734
 30
0.0
 11
255.6796152877
 21
53.8196906829
 31
0.0
  0
LINE
  5
253
330
1F
100
AcDbEntity
  8
0
  6
Continuous
 62
     7
370
    15
100
AcDbLine
 10
254.9284329098
 20
53.4025675734
 30
0.0
 11
254.8790223091
 21
52.7353243433
 31
0.0
  0
LINE
  5
254
330
1F
100
AcDbEntity
  8
0
  6
Continuous
 62
     7
370
    15
100
AcDbLine
 10
255.1702776725
 20
52.7748842076
 30
0.0
 11
254.9284329098
 21
53.4025675734
 31
0.0
  0
LINE
  5
255
330
1F
100
AcDbEntity
  8
0
  6
Continuous
 62
     7
370
    15
100
AcDbLine
 10
255.1702776725
 20
52.7748842076
 30
0.0
 11
255.1599340876
 21
52.6352039192
 31
0.0
  0
LINE
  5
256
330
1F
100
AcDbEntity
  8
0
  6
Continuous
 62
     7
370
    15
100
AcDbLine
 10
256.3423200491
 20
53.0420076205
 30
0.0
 11
255.9214600504
 21
53.1920073171
 31
0.0
  0
LINE
  5
257
330
1F
100
AcDbEntity
  8
0
  6
Continuous
 62
     7
370
    15
100
AcDbLine
 10
255.1702776725
 20
52.7748842076
 30
0.0
 11
255.9214600504
 21
53.1920073171
 31
0.0
  0
LINE
  5
258
330
1F
100
AcDbEntity
  8
0
  6
Continuous
 62
     7
370
    15
100
AcDbLine
 10
255.9214600504
 20
53.1920073171
 30
0.0
 11
255.6796152877
 21
53.8196906829
 31
0.0
  0
ARC
  5
259
330
1F
100
AcDbEntity
  8
0
  6
Continuous
 62
     7
370
     0
100
AcDbCircle
 10
271.9944028247
 20
34.7884625217
 30
0.0
 40
2.302490160401435
100
AcDbArc
 50
349.5301201347
 51
32.5648072337
  0
LWPOLYLINE
  5
25A
330
1F
100
AcDbEntity
  8
0
  6
Continuous
 62
     7
370
     0
100
AcDbPolyline
 90
       10
 70
   128
 43
0.0
 10
273.8032938345
 20
35.9049055853
 10
273.9773683227
 20
35.5173848511
 10
274.1041361936
 20
35.0190996253
 10
274.110940975
 20
34.5656376456
 10
273.9971165676
 20
34.20138693
 10
273.7738048974
 20
33.9620028763
 10
273.4628652665
 20
33.8709180638
 10
273.0947346126
 20
33.9370485084
 10
272.7054481288
 20
34.1539209015
 10
272.4874567307
 20
34.3386179026
  0
LWPOLYLINE
  5
25B
330
1F
100
AcDbEntity
  8
0
  6
Continuous
 62
     7
370
     0
100
AcDbPolyline
 90
       42
 70
   128
 43
0.0
 10
248.677879935
 20
26.7924665461
 10
248.7386380487
 20
28.5015376248
 10
248.9204862152
 20
30.2687706227
 10
249.2221489003
 20
32.08176967
 10
249.6415101571
 20
33.9278178812
 10
250.1756284676
 20
35.7939665544
 10
250.8207573756
 20
37.6671259975
 10
251.5723717653
 20
39.5341573428
 10
252.4251996019
 20
41.3819647069
 10
253.3732589109
 20
43.1975870489
 10
254.4098997373
 20
44.9682890825
 10
255.5278507906
 20
46.6816506051
 10
256.7192704474
 20
48.3256536168
 10
257.9758017549
 20
49.8887666177
 10
259.2886310487
 20
51.3600254931
 10
260.6485497746
 20
52.7291104191
 10
262.0460190798
 20
53.9864182487
 10
263.4712367213
 20
55.1231298707
 10
264.9142058213
 20
56.13127207
 10
266.3648049884
 20
57.0037734533
 10
267.8128593116
 20
57.7345140503
 10
269.2482117303
 20
58.3183682408
 10
270.6607942785
 20
58.7512407071
 10
272.0406987047
 20
59.0300951599
 10
273.3782459708
 20
59.1529756355
 10
274.6640541436
 20
59.1190202157
 10
275.8891042028
 20
58.9284670734
 10
277.0448033023
 20
58.582652802
 10
278.1230450434
 20
58.08400304
 10
279.1162663349
 20
57.4360154574
 10
280.0175004431
 20
56.6432352214
 10
280.8204258583
 20
55.7112231157
 10
281.5194106356
 20
54.6465165357
 10
282.109551899
 20
53.456583633
 10
282.5867102315
 20
52.1497709319
 10
282.9475387104
 20
50.7352447846
 10
283.1895063829
 20
49.2229270757
 10
283.3109160199
 20
47.6234256274
 10
283.3109160199
 20
45.947959793
 10
283.1895063829
 20
44.2082817615
 10
282.9475387104
 20
42.4165941244
 10
282.7364942992
 20
41.2793081862
  0
LWPOLYLINE
  5
25C
330
1F
100
AcDbEntity
  8
0
  6
Continuous
 62
     7
370
     0
100
AcDbPolyline
 90
       23
 70
   128
 43
0.0
 10
270.4859622254
 20
20.0584648919
 10
269.2482117303
 20
19.0165644093
 10
267.8128593116
 20
17.9431959721
 10
266.3648049884
 20
17.0020486347
 10
264.9142058213
 20
16.1997238694
 10
263.4712367213
 20
15.541849408
 10
262.0460190798
 20
15.0330397671
 10
260.6485497746
 20
14.6768638808
 10
259.2886310487
 20
14.475820067
 10
257.9758017549
 20
14.4313185037
 10
256.7192704474
 20
14.5436713373
 10
255.5278507906
 20
14.8120904933
 10
254.4098997373
 20
15.2346932044
 10
253.3732589109
 20
15.8085152161
 10
252.4251996019
 20
16.5295315793
 10
251.5723717653
 20
17.3926848822
 10
250.8207573756
 20
18.3919207247
 10
250.1756284676
 20
19.5202301851
 10
249.6415101571
 20
20.7696989834
 10
249.2221489003
 20
22.1315629937
 10
248.9204862152
 20
23.5962697185
 10
248.7386380487
 20
25.1535452923
 10
248.677879935
 20
26.7924665461
  0
LWPOLYLINE
  5
25D
330
1F
100
AcDbEntity
  8
0
  6
Continuous
 62
     7
370
     0
100
AcDbPolyline
 90
       27
 70
   128
 43
0.0
 10
247.9707731538
 20
26.7924665461
 10
248.032771229
 20
28.5364166264
 10
248.2183305826
 20
30.3397156038
 10
248.5261496491
 20
32.1897146317
 10
248.9540692988
 20
34.0734372962
 10
249.499087983
 20
35.9776706362
 10
250.157382787
 20
37.889057823
 10
250.924336246
 20
39.7941918488
 10
251.7945687323
 20
41.6797095674
 10
252.7619761904
 20
43.5323854265
 10
253.8197729521
 20
45.3392242363
 10
254.960539333
 20
47.0875523206
 10
256.1762736767
 20
48.7651064142
 10
257.4584484802
 20
50.3601196804
 10
258.7980702086
 20
51.8614042471
 10
260.1857423779
 20
53.2584296818
 10
261.6117314649
 20
54.5413968548
 10
263.0660351807
 20
55.7013066733
 10
264.5384526297
 20
56.7300232032
 10
266.0186558613
 20
57.6203307371
 10
267.4962623136
 20
58.3659844076
 10
268.9609076388
 20
58.9617539897
 10
270.4023184023
 20
59.4034605879
 10
271.8103841433
 20
59.6880059479
 10
273.1752282924
 20
59.8133941883
 10
274.4872774483
 20
59.7787458008
 10
274.557253226
 20
59.7722420283
  0
ARC
  5
25E
330
1F
100
AcDbEntity
  8
0
  6
Continuous
 62
     7
370
     0
100
AcDbCircle
 10
263.3876948452
 20
26.1892126259
 30
0.0
 40
15.42871963998442
100
AcDbArc
 50
177.7591973184
 51
212.3942003931
  0
LWPOLYLINE
  5
25F
330
1F
100
AcDbEntity
  8
0
  6
Continuous
 62
     7
370
     0
100
AcDbPolyline
 90
       27
 70
   128
 43
0.0
 10
256.1025011375
 20
31.0786091332
 10
256.1647470838
 20
32.3944728522
 10
256.3507021439
 20
33.7656564614
 10
256.6580278249
 20
35.1749165312
 10
257.0828593282
 20
36.6045307986
 10
257.6198541511
 20
38.0365210348
 10
258.2622592721
 20
39.4528791316
 10
259.0019960741
 20
40.8357935642
 10
259.8297619376
 20
42.1678733812
 10
260.7351472265
 20
43.432366906
 10
261.7067661956
 20
44.6133723989
 10
262.7324001726
 20
45.6960380305
 10
263.7991512151
 20
46.6667486524
 10
264.8936043098
 20
47.5132970153
 10
266.0019960741
 20
48.2250372824
 10
267.1103878384
 20
48.7930189067
 10
268.2048409331
 20
49.2100991899
 10
269.2715919756
 20
49.4710331054
 10
270.2972259526
 20
49.5725392577
 10
271.2688449217
 20
49.5133411482
 10
272.1742302106
 20
49.2941832274
 10
273.0019960741
 20
48.9178215334
 10
273.7417328761
 20
48.3889890327
 10
274.3841379971
 20
47.7143361009
 10
274.9211328199
 20
46.9023468902
 10
275.3459643232
 20
45.9632326359
 10
275.4041243711
 20
45.7990985464
  0
LWPOLYLINE
  5
260
330
1F
100
AcDbEntity
  8
0
  6
Continuous
 62
     7
370
     0
100
AcDbPolyline
 90
       13
 70
   128
 43
0.0
 10
262.9051402131
 20
24.1478769869
 10
262.7324001726
 20
24.1158987266
 10
261.7067661956
 20
24.0143925742
 10
260.7351472265
 20
24.0735906837
 10
259.8297619376
 20
24.2927486045
 10
259.0019960741
 20
24.6691102986
 10
258.2622592721
 20
25.1979427992
 10
257.6198541511
 20
25.872595731
 10
257.0828593282
 20
26.6845849417
 10
256.6580278249
 20
27.623699196
 10
256.3507021439
 20
28.6781285873
 10
256.1647470838
 20
29.8346130541
 10
256.1025011375
 20
31.0786091332
  0
LWPOLYLINE
  5
261
330
1F
100
AcDbEntity
  8
0
  6
Continuous
 62
     7
370
     0
100
AcDbPolyline
 90
       21
 70
   128
 43
0.0
 10
245.0871601742
 20
37.4057136921
 10
245.556805686
 20
39.1651416226
 10
246.1409741748
 20
40.9355974256
 10
246.8348874935
 20
42.7025998364
 10
247.632869848
 20
44.4516958369
 10
248.528394222
 20
46.1685788729
 10
249.5141357644
 20
47.8392058726
 10
250.5820317015
 20
49.4499121109
 10
251.7233472862
 20
50.9875229786
 10
252.9287472428
 20
52.4394617427
 10
254.1883721238
 20
53.7938524164
 10
255.4919189546
 20
55.0396168978
 10
256.8287255053
 20
56.1665655819
 10
258.1878575016
 20
57.1654807056
 10
259.5581980602
 20
58.0281917435
 10
260.9285386189
 20
58.7476422374
 10
262.2876706152
 20
59.3179475148
 10
263.6244771659
 20
59.734442821
 10
264.9280239967
 20
59.9937214747
 10
266.1876488777
 20
60.0936627323
 10
266.3441667413
 20
60.0948963078
  0
LWPOLYLINE
  5
262
330
1F
100
AcDbEntity
  8
0
  6
Continuous
 62
     7
370
     0
100
AcDbPolyline
 90
        8
 70
   128
 43
0.0
 10
258.223821481
 20
31.0786091332
 10
258.2858604136
 20
29.907237559
 10
258.4711063207
 20
28.823938101
 10
258.7769587558
 20
27.8439179088
 10
259.1991242212
 20
26.9809343178
 10
259.7316764392
 20
26.2471017258
 10
260.3671395439
 20
25.6527215339
 10
260.8131641669
 20
25.3555490523
  0
LWPOLYLINE
  5
263
330
1F
100
AcDbEntity
  8
0
  6
Continuous
 62
     7
370
     0
100
AcDbPolyline
 90
       21
 70
   128
 43
0.0
 10
273.3121483248
 20
47.0067706119
 10
272.6318985826
 20
47.3220078151
 10
271.7810328773
 20
47.5358162727
 10
270.8639315069
 20
47.5902302437
 10
269.8934685643
 20
47.484485875
 10
268.883267222
 20
47.2200675858
 10
267.8475084924
 20
46.8006872294
 10
266.8007321577
 20
46.2322319867
 10
265.7576326631
 20
45.5226817231
 10
264.7328528388
 20
44.681996969
 10
263.7407783475
 20
43.7219790955
 10
262.7953357402
 20
42.6561046493
 10
261.9097969587
 20
41.4993361712
 10
261.0965930264
 20
40.2679121548
 10
260.3671395439
 20
38.979119094
 10
259.7316764392
 20
37.6510488185
 10
259.1991242212
 20
36.3023445236
 10
258.7769587558
 20
34.9519390612
 10
258.4711063207
 20
33.618789164
 10
258.2858604136
 20
32.3216093342
 10
258.223821481
 20
31.0786091332
  0
LWPOLYLINE
  5
264
330
1F
100
AcDbEntity
  8
0
  6
Continuous
 62
     7
370
     0
100
AcDbPolyline
 90
       42
 70
   128
 43
0.0
 10
275.5479376201
 20
37.4067672503
 10
274.73839254
 20
36.8676554811
 10
273.9478225104
 20
36.1976373505
 10
273.1947578228
 20
35.4124175159
 10
272.4968496752
 20
34.5304008644
 10
271.8704564431
 20
33.5722611189
 10
271.3302602528
 20
32.5604562629
 10
270.8889228453
 20
31.5187021447
 10
270.5567887953
 20
30.4714165979
 10
270.3416430435
 20
29.443147108
 10
270.2485284239
 20
28.4579954403
 10
270.2796274642
 20
27.5390527151
 10
270.4342112295
 20
26.7078581708
 10
270.7086564071
 20
25.9838943032
 10
271.0965302348
 20
25.3841302117
 10
271.5887412787
 20
24.9226238582
 10
272.1737525292
 20
24.6101925605
 10
272.8378518185
 20
24.4541594435
 10
273.5654732219
 20
24.4581817911
 10
274.3395619106
 20
24.6221653229
 10
275.1419739018
 20
24.942266404
 10
275.9539013384
 20
25.4109821363
 10
276.7563133296
 20
26.0173262202
 10
277.5304020183
 20
26.7470864645
 10
278.2580234217
 20
27.5831579074
 10
278.922122711
 20
28.505943743
 10
279.5071339615
 20
29.4938146534
 10
279.9993450054
 20
30.5236157818
 10
280.3872188331
 20
31.5712094624
 10
280.6616640107
 20
32.6120409874
 10
280.816247776
 20
33.621714148
 10
280.8473468163
 20
34.5765630609
 10
280.7542321967
 20
35.4542068771
 10
280.5390864449
 20
36.2340743694
 10
280.2069523949
 20
36.8978861045
 10
279.7656149874
 20
37.4300828983
 10
279.2254187971
 20
37.8181905087
 10
278.599025565
 20
38.0531120225
 10
277.9011174174
 20
38.1293410784
 10
277.1480527298
 20
38.045090932
 10
276.3574827002
 20
37.8023363353
 10
275.5479376201
 20
37.4067672503
  0
LWPOLYLINE
  5
265
330
1F
100
AcDbEntity
  8
0
  6
Continuous
 62
     7
370
     0
100
AcDbPolyline
 90
       23
 70
   128
 43
0.0
 10
236.9734625909
 20
39.4811597002
 10
237.4349096804
 20
41.3666196612
 10
238.01171825
 20
43.2685776974
 10
238.6998667599
 20
45.1737732564
 10
239.4945574021
 20
47.0689232137
 10
240.3902495512
 20
48.9408144832
 10
241.3806983941
 20
50.7763961397
 10
242.4589984689
 20
52.5628704105
 10
243.6176318103
 20
54.2877819021
 10
244.8485203651
 20
55.9391044402
 10
246.143082313
 20
57.5053249162
 10
247.4922918994
 20
58.9755235581
 10
248.8867423635
 20
60.3394500629
 10
250.3167115226
 20
61.5875950625
 10
251.7722295559
 20
62.7112564238
 10
253.2431485145
 20
63.7025999202
 10
254.7192130733
 20
64.5547138522
 10
256.1901320319
 20
65.2616572364
 10
257.6456500652
 20
65.8185012258
 10
259.0756192244
 20
66.2213634746
 10
260.4700696884
 20
66.4674352059
 10
261.8192792748
 20
66.5550007946
 10
262.9327914696
 20
66.5033865579
  0
LWPOLYLINE
  5
266
330
1F
100
AcDbEntity
  8
0
  6
Continuous
 62
     7
370
     0
100
AcDbPolyline
 90
       20
 70
   128
 43
0.0
 10
245.4799665498
 20
37.3480672352
 10
245.9476944964
 20
39.0877007677
 10
246.5282409064
 20
40.8377916277
 10
247.2168786622
 20
42.5840896449
 10
248.0080005088
 20
44.3123755321
 10
248.8951647115
 20
46.0085766662
 10
249.8711475076
 20
47.6588816757
 10
250.9280019259
 20
49.2498528995
 10
252.0571224958
 20
50.7685358037
 10
253.2493153171
 20
52.2025644644
 10
254.4948729218
 20
53.5402622576
 10
255.7836533175
 20
54.7707369364
 10
257.1051625687
 20
55.8839693217
 10
258.4486402443
 20
56.8708948832
 10
259.8031470345
 20
57.7234775482
 10
261.1576538248
 20
58.4347751351
 10
262.5011315004
 20
58.9989958807
 10
263.8226407516
 20
59.4115455997
 10
265.1114211472
 20
59.6690650929
 10
265.4116734837
 20
59.7072023734
  0
LINE
  5
267
330
1F
100
AcDbEntity
  8
0
  6
Continuous
 62
     7
370
     0
100
AcDbLine
 10
245.3440372025
 20
26.9080477843
 30
0.0
 11
246.5035265829
 21
27.5774067559
 31
0.0
  0
LINE
  5
268
330
1F
100
AcDbEntity
  8
0
  6
Continuous
 62
     7
370
     0
100
AcDbLine
 10
246.8900918787
 20
27.373272975
 30
0.0
 11
246.5035265829
 21
27.5774067559
 31
0.0
  0
LWPOLYLINE
  5
269
330
1F
100
AcDbEntity
  8
0
  6
Continuous
 62
     7
370
     0
100
AcDbPolyline
 90
       22
 70
   128
 43
0.0
 10
271.6946686653
 20
25.4244711524
 10
272.2849956651
 20
25.1830911673
 10
272.9472459028
 20
25.0967655111
 10
273.6648281439
 20
25.1677840362
 10
274.4200731322
 20
25.3943980307
 10
275.1943842295
 20
25.7710275059
 10
275.9686953268
 20
26.2883985943
 10
276.7239403151
 20
26.9337719025
 10
277.4415225562
 20
27.6912561979
 10
278.103772794
 20
28.5421997031
 10
278.6943842295
 20
29.465649365
 10
279.1988140492
 20
30.4388667881
 10
279.6046415169
 20
31.4378881295
 10
279.9018738133
 20
32.4381141683
 10
280.0831920928
 20
33.4149160197
 10
280.1441316978
 20
34.3442415805
 10
280.0831920928
 20
35.203207771
 10
279.9018738133
 20
35.9706639929
 10
279.6046415169
 20
36.627712927
 10
279.1988140492
 20
37.1581758478
 10
278.6943842295
 20
37.5489909978
 10
278.6940997937
 20
37.5491552258
  0
ARC
  5
26A
330
1F
100
AcDbEntity
  8
0
  6
Continuous
 62
     7
370
     0
100
AcDbCircle
 10
245.7783801219
 20
28.7533273091
 30
0.0
 40
1.381530505399111
100
AcDbArc
 50
301.6605905891
 51
324.2377952695
  0
LINE
  5
26B
330
1F
100
AcDbEntity
  8
0
  6
Continuous
 62
     7
370
     0
100
AcDbLine
 10
241.2078528872
 20
32.2674830313
 30
0.0
 11
246.7828559543
 21
29.0491022658
 31
0.0
  0
LINE
  5
26C
330
1F
100
AcDbEntity
  8
0
  6
Continuous
 62
     7
370
     0
100
AcDbLine
 10
241.1471927154
 20
32.2324532757
 30
0.0
 11
241.2078528872
 21
32.2674830313
 31
0.0
  0
LINE
  5
26D
330
1F
100
AcDbEntity
  8
0
  6
Continuous
 62
     7
370
     0
100
AcDbLine
 10
240.9262218463
 20
37.012875596
 30
0.0
 11
240.9272628735
 21
37.198627328
 31
0.0
  0
LWPOLYLINE
  5
26E
330
1F
100
AcDbEntity
  8
0
  6
Continuous
 62
     7
370
     0
100
AcDbPolyline
 90
        3
 70
   128
 43
0.0
 10
241.1039062296
 20
34.7052109893
 10
240.9875810974
 20
35.6285751529
 10
240.9262218463
 20
37.012875596
  0
LWPOLYLINE
  5
26F
330
1F
100
AcDbEntity
  8
0
  6
Continuous
 62
     7
370
     0
100
AcDbPolyline
 90
       19
 70
   128
 43
0.0
 10
209.9930021626
 20
60.8284941873
 10
210.0544904788
 20
61.9473090186
 10
210.2379033454
 20
63.1179735167
 10
210.5401025173
 20
64.3204572876
 10
210.955917283
 20
65.5341855005
 10
211.4782329364
 20
66.7383909291
 10
212.098112512
 20
67.9124692847
 10
212.8049496983
 20
69.0363317612
 10
213.5866503151
 20
70.09074876
 10
214.4298392482
 20
71.0576789138
 10
215.3200893011
 20
71.9205777797
 10
216.2421680486
 20
72.6646809188
 10
217.1802984677
 20
73.2772565202
 10
218.1184288867
 20
73.7478232453
 10
219.0405076342
 20
74.0683295672
 10
219.9307576871
 20
74.2332915338
 10
220.7739466202
 20
74.2398866
 10
221.5556472371
 20
74.0880019225
 10
221.6361436066
 20
74.0620912548
  0
ARC
  5
270
330
1F
100
AcDbEntity
  8
0
  6
Continuous
 62
     7
370
     0
100
AcDbCircle
 10
215.3676609474
 20
60.3843621598
 30
0.0
 40
5.392977870397877
100
AcDbArc
 50
175.2761269287
 51
225.7050394481
  0
LWPOLYLINE
  5
271
330
1F
100
AcDbEntity
  8
0
  6
Continuous
 62
     7
370
     0
100
AcDbPolyline
 90
        3
 70
   128
 43
0.0
 10
246.1526350645
 20
25.2392143597
 10
245.9476944964
 20
25.6591048322
 10
245.4799665498
 20
26.8587111723
  0
LWPOLYLINE
  5
272
330
1F
100
AcDbEntity
  8
0
  6
Continuous
 62
     7
370
     0
100
AcDbPolyline
 90
        3
 70
   128
 43
0.0
 10
246.051117758
 20
24.7480518667
 10
245.556805686
 20
25.6959774949
 10
245.0871601742
 20
26.9131642594
  0
LINE
  5
273
330
1F
100
AcDbEntity
  8
0
  6
Continuous
 62
     7
370
     0
100
AcDbLine
 10
246.5035265829
 20
27.5774067559
 30
0.0
 11
240.7936393248
 21
30.8736545073
 31
0.0
  0
ARC
  5
274
330
1F
100
AcDbEntity
  8
0
  6
Continuous
 62
     7
370
     0
100
AcDbCircle
 10
248.6657242093
 20
31.550833639
 30
0.0
 40
12.12299545915998
100
AcDbArc
 50
195.3190382257
 51
214.5559948624
  0
OLE2FRAME
  5
275
330
1F
100
AcDbEntity
  8
0
100
AcDbOle2Frame
 70
     2
  3
Paintbrush-Bild
 10
13.8511154363
 20
38.264191557
 30
0.0
 11
51.6290888628
 21
31.9806341108
 31
0.0
 71
     2
 72
     0
 73
     1
 90
    12928
310
80552BED0767C5B32B40DDAF6807D121434000000000000000006FFBDDFB85D0
310
4940DDAF6807D121434000000000000000006FFBDDFB85D04940416F4BD60AFB
310
3F4000000000000000002BED0767C5B32B40416F4BD60AFB3F40000000000000
310
0000000000000100000000010000010000000100000000000100000000320000
310
D0CF11E0A1B11AE1000000000000000000000000000000003E000300FEFF0900
310
0600000000000000000000000100000001000000000000000010000002000000
310
01000000FEFFFFFF0000000000000000FFFFFFFFFFFFFFFFFFFFFFFFFFFFFFFF
310
FFFFFFFFFFFFFFFFFFFFFFFFFFFFFFFFFFFFFFFFFFFFFFFFFFFFFFFFFFFFFFFF
310
FFFFFFFFFFFFFFFFFFFFFFFFFFFFFFFFFFFFFFFFFFFFFFFFFFFFFFFFFFFFFFFF
310
FFFFFFFFFFFFFFFFFFFFFFFFFFFFFFFFFFFFFFFFFFFFFFFFFFFFFFFFFFFFFFFF
310
FFFFFFFFFFFFFFFFFFFFFFFFFFFFFFFFFFFFFFFFFFFFFFFFFFFFFFFFFFFFFFFF
310
FFFFFFFFFFFFFFFFFFFFFFFFFFFFFFFFFFFFFFFFFFFFFFFFFFFFFFFFFFFFFFFF
310
FFFFFFFFFFFFFFFFFFFFFFFFFFFFFFFFFFFFFFFFFFFFFFFFFFFFFFFFFFFFFFFF
310
FFFFFFFFFFFFFFFFFFFFFFFFFFFFFFFFFFFFFFFFFFFFFFFFFFFFFFFFFFFFFFFF
310
FFFFFFFFFFFFFFFFFFFFFFFFFFFFFFFFFFFFFFFFFFFFFFFFFFFFFFFFFFFFFFFF
310
FFFFFFFFFFFFFFFFFFFFFFFFFFFFFFFFFFFFFFFFFFFFFFFFFFFFFFFFFFFFFFFF
310
FFFFFFFFFFFFFFFFFFFFFFFFFFFFFFFFFFFFFFFFFFFFFFFFFFFFFFFFFFFFFFFF
310
FFFFFFFFFFFFFFFFFFFFFFFFFFFFFFFFFFFFFFFFFFFFFFFFFFFFFFFFFFFFFFFF
310
FFFFFFFFFFFFFFFFFFFFFFFFFFFFFFFFFFFFFFFFFFFFFFFFFFFFFFFFFFFFFFFF
310
FFFFFFFFFFFFFFFFFFFFFFFFFFFFFFFFFFFFFFFFFFFFFFFFFFFFFFFFFFFFFFFF
310
FDFFFFFFFEFFFFFFFEFFFFFFFEFFFFFF05000000060000000700000008000000
310
090000000A0000000B0000000C0000000D0000000E0000000F00000010000000
310
11000000120000001300000014000000150000001600000017000000FEFFFFFF
310
FFFFFFFFFFFFFFFFFFFFFFFFFFFFFFFFFFFFFFFFFFFFFFFFFFFFFFFFFFFFFFFF
310
FFFFFFFFFFFFFFFFFFFFFFFFFFFFFFFFFFFFFFFFFFFFFFFFFFFFFFFFFFFFFFFF
310
FFFFFFFFFFFFFFFFFFFFFFFFFFFFFFFFFFFFFFFFFFFFFFFFFFFFFFFFFFFFFFFF
310
FFFFFFFFFFFFFFFFFFFFFFFFFFFFFFFFFFFFFFFFFFFFFFFFFFFFFFFFFFFFFFFF
310
FFFFFFFFFFFFFFFFFFFFFFFFFFFFFFFFFFFFFFFFFFFFFFFFFFFFFFFFFFFFFFFF
310
FFFFFFFFFFFFFFFFFFFFFFFFFFFFFFFFFFFFFFFFFFFFFFFFFFFFFFFFFFFFFFFF
310
FFFFFFFFFFFFFFFFFFFFFFFFFFFFFFFFFFFFFFFFFFFFFFFFFFFFFFFFFFFFFFFF
310
FFFFFFFFFFFFFFFFFFFFFFFFFFFFFFFFFFFFFFFFFFFFFFFFFFFFFFFFFFFFFFFF
310
FFFFFFFFFFFFFFFFFFFFFFFFFFFFFFFFFFFFFFFFFFFFFFFFFFFFFFFFFFFFFFFF
310
FFFFFFFFFFFFFFFFFFFFFFFFFFFFFFFFFFFFFFFFFFFFFFFFFFFFFFFFFFFFFFFF
310
FFFFFFFFFFFFFFFFFFFFFFFFFFFFFFFFFFFFFFFFFFFFFFFFFFFFFFFFFFFFFFFF
310
FFFFFFFFFFFFFFFFFFFFFFFFFFFFFFFFFFFFFFFFFFFFFFFFFFFFFFFFFFFFFFFF
310
FFFFFFFFFFFFFFFFFFFFFFFFFFFFFFFFFFFFFFFFFFFFFFFFFFFFFFFFFFFFFFFF
310
52006F006F007400200045006E00740072007900000000000000000000000000
310
0000000000000000000000000000000000000000000000000000000000000000
310
16000500FFFFFFFFFFFFFFFF020000000A00030000000000C000000000000046
310
000000000000000000000000A0967236EA25D20103000000C000000000000000
310
01004F006C006500000000000000000000000000000000000000000000000000
310
0000000000000000000000000000000000000000000000000000000000000000
310
0A000200FFFFFFFFFFFFFFFFFFFFFFFF00000000000000000000000000000000
310
0000000000000000000000000000000000000000000000001400000000000000
310
010043006F006D0070004F0062006A0000000000000000000000000000000000
310
0000000000000000000000000000000000000000000000000000000000000000
310
120002010100000003000000FFFFFFFF00000000000000000000000000000000
310
0000000000000000000000000000000000000000010000004D00000000000000
310
01004F006C006500310030004E00610074006900760065000000000000000000
310
0000000000000000000000000000000000000000000000000000000000000000
310
1A000200FFFFFFFFFFFFFFFFFFFFFFFF00000000000000000000000000000000
310
0000000000000000000000000000000000000000040000002426000000000000
310
FEFFFFFF02000000FEFFFFFFFFFFFFFFFFFFFFFFFFFFFFFFFFFFFFFFFFFFFFFF
310
FFFFFFFFFFFFFFFFFFFFFFFFFFFFFFFFFFFFFFFFFFFFFFFFFFFFFFFFFFFFFFFF
310
FFFFFFFFFFFFFFFFFFFFFFFFFFFFFFFFFFFFFFFFFFFFFFFFFFFFFFFFFFFFFFFF
310
FFFFFFFFFFFFFFFFFFFFFFFFFFFFFFFFFFFFFFFFFFFFFFFFFFFFFFFFFFFFFFFF
310
FFFFFFFFFFFFFFFFFFFFFFFFFFFFFFFFFFFFFFFFFFFFFFFFFFFFFFFFFFFFFFFF
310
FFFFFFFFFFFFFFFFFFFFFFFFFFFFFFFFFFFFFFFFFFFFFFFFFFFFFFFFFFFFFFFF
310
FFFFFFFFFFFFFFFFFFFFFFFFFFFFFFFFFFFFFFFFFFFFFFFFFFFFFFFFFFFFFFFF
310
FFFFFFFFFFFFFFFFFFFFFFFFFFFFFFFFFFFFFFFFFFFFFFFFFFFFFFFFFFFFFFFF
310
FFFFFFFFFFFFFFFFFFFFFFFFFFFFFFFFFFFFFFFFFFFFFFFFFFFFFFFFFFFFFFFF
310
FFFFFFFFFFFFFFFFFFFFFFFFFFFFFFFFFFFFFFFFFFFFFFFFFFFFFFFFFFFFFFFF
310
FFFFFFFFFFFFFFFFFFFFFFFFFFFFFFFFFFFFFFFFFFFFFFFFFFFFFFFFFFFFFFFF
310
FFFFFFFFFFFFFFFFFFFFFFFFFFFFFFFFFFFFFFFFFFFFFFFFFFFFFFFFFFFFFFFF
310
FFFFFFFFFFFFFFFFFFFFFFFFFFFFFFFFFFFFFFFFFFFFFFFFFFFFFFFFFFFFFFFF
310
FFFFFFFFFFFFFFFFFFFFFFFFFFFFFFFFFFFFFFFFFFFFFFFFFFFFFFFFFFFFFFFF
310
FFFFFFFFFFFFFFFFFFFFFFFFFFFFFFFFFFFFFFFFFFFFFFFFFFFFFFFFFFFFFFFF
310
FFFFFFFFFFFFFFFFFFFFFFFFFFFFFFFFFFFFFFFFFFFFFFFFFFFFFFFFFFFFFFFF
310
0100000200000000000000000000000000000000000000000000000000000000
310
0000000000000000000000000000000000000000000000000000000000000000
310
0100FEFF030A0000FFFFFFFF0A00030000000000C00000000000004607000000
310
5042727573680007000000504272757368000700000050427275736800F439B2
310
7100000000000000000000000000000000000000000000000000000000000000
310
0000000000000000000000000000000000000000000000000000000000000000
310
0000000000000000000000000000000000000000000000000000000000000000
310
0000000000000000000000000000000000000000000000000000000000000000
310
0000000000000000000000000000000000000000000000000000000000000000
310
0000000000000000000000000000000000000000000000000000000000000000
310
0000000000000000000000000000000000000000000000000000000000000000
310
0000000000000000000000000000000000000000000000000000000000000000
310
0000000000000000000000000000000000000000000000000000000000000000
310
0000000000000000000000000000000000000000000000000000000000000000
310
0000000000000000000000000000000000000000000000000000000000000000
310
0000000000000000000000000000000000000000000000000000000000000000
310
20260000424D0E260000000000003E00000028000000B40200006E0000000100
310
01000000000000000000130B0000130B00000200000002000000000000FFFFFF
310
FFFFFFFFFFFFFFFFFFFFFFFFFFFFFFFFFFFFFFFFFFFFFFFFFFFFFFFFFFFFFFFF
310
FFFFFFFFFFFFFFFFFFFFFFFFFFFFFFFFFFFFFFFFFFFFFFFFFFFFFFFFFFFFFFFF
310
FFFFFFFFFFFFFFFFFFFFFFFFFFFFFFFFFFFFFFFFFFFFFFFFF000FFFFFFFFFFFF
310
FFFFFFFFFFFFFFFFFFFFFFFFFFFFFFFFFFFFFFFFFFFFFFFFFFFFFFFFFFFFFFFF
310
FFFFFFFFFFFFFFFFFFFFFFFFFFFFFFFFFFFFFFFFFFFFFFFFFFFFFFFFFFFFFFFF
310
FFFFFFFFFFFFFFFFFFFFFFFFFFFFFFFFF000FFFFFFFFFFFFFFFFFFFFFFFFFFFF
310
FFFFFFFFFFFFFFFFFFFFFFFFFFFFFFFFFFFFFFFFFFFFFFFFFFFFFFFFFFFFFFFF
310
FFFFFFFFFFFFFFFFFFFFFFFFFFFFFFFFFFFFFFFFFFFFFFFFFFFFFFFFFFFFFFFF
310
FFFFFFFFFFFFFFFFF000FFFFFFFFFFFFFFFFFFFFFFFFFFFFFFFFFFFFFFFFFFFF
310
FFFFFFFFFFFFFFFFFFFFFFFFFFFFFFFFFFFFFFFFFFFFFFFFFFFFFFFFFFFFFFFF
310
FFFFFFFFFFFFFFFFFFFFFFFFFFFFFFFFFFFFFFFFFFFFFFFFFFFFFFFFFFFFFFFF
310
F000FFFFFFFFFFFFFFFFFFFFFFFFFFFFFFFFFFFFFFFFFFFFFFFFFFFFFFFFFFFF
310
FFFFFFFFFFFFFFFFFFFFFFFFFFFFFFFFFFFFFFFFFFFFFFFFFFFFFFFFFFFFFFFF
310
FFFFFFFFFFFFFFFFFFFFFFFFFFFFFFFFFFFFFFFFFFFFFFFFF000FFFFFFFFFFFF
310
FFFFFFFFFFFFFFFFFFFFFFFFFFFFFFFFFFFFFFFFFFFFFFFFFFFFFFFFFFFFFFFF
310
FFFFFFFFFFFFFFFFFFFFFFFFFFFFFFFFFFFFFFFFFFFFFFFFFFFFFFFFFFFFFFFF
310
FFFFFFFFFFFFFFFFFFFFFFFFFFFFFFFFF000FFFFFFFFFFFFFFFFFFFFFFFFFFFF
310
FFFFFFFFFFFFFFFFFFFFFFFFFFFFFFFFFFFFFFFFFFFFFFFFFFFFFFFFFFFFFFFF
310
FFFFFFFFFFFFFFFFFFFFFFFFFFFFFFFFFFFFFFFFFFFFFFFFFFFFFFFFFFFFFFFF
310
FFFFFFFFFFFFFFFFF000FFFFFFFFFFFFFFFFFFFFFFFFFFFFFFFFFFFFFFFFFFFF
310
FFFFFFFFFFFFFFFFFFFFFFFFFFFFFFFFFFFFFFFFFFFFFFFFFFFFFFFFFFFFFFFF
310
FFFFFFFFFFFFFFFFFFFFFFFFFFFFFFFFFFFFFFFFFFFFFFFFFFFFFFFFFFFFFFFF
310
F000FFFFFFFFFFFFFFFFFFFFFFFFFFFFFFFFFFFFFFFFFFFFFFFFFFFFFFFFFFFF
310
FFFFFFFFFFFFFFFFFFFFFFFFFFFFFFFFFFFFFFFFFFFFFFFFFFFFFFFFFFFFFFFF
310
FFFFFFFFFFFFFFFFFFFFFFFFFFFFFFFFFFFFFFFFFFFFFFFFF000FFFFFFFFFFFF
310
FFFFFFFFFFFFFFFFFFFFFFFFFFFFFFFFFFFFFFFFFFFFFFFFFFFFFFFFFFFFFFFF
310
FFFFFFFFFFFFFFFFFFFFFFFFFFFFFFFFFFFFFFFFFFFFFFFFFFFFFFFFFFFFFFFF
310
FFFFFFFFFFFFFFFFFFFFFFFFFFFFFFFFF000FFFFFFFFFFFFFFFFFFFFFFFFFFFF
310
FFFFFFFFFFFFFFFFFFFFFFFFFFFFFFFFFFFFFFFFFFFFFFFFFFFFFFFFFFFFFFFF
310
FFFFFFFFFFFFFFFFFFFFFFFFFFFFFFFFFFFFFFFFFFFFFFFFFFFFFFFFFFFFFFFF
310
FFFFFFFFFFFFFFFFF000FFFFFFFFFFFFFFFFFFFFFFFFFFFFFFFFFFFFFFFFFFFF
310
FFFFFFFFFFFFFFFFFFFFFFFFFFFFFFFFFFFFFFFFFFFFFFFFFFFFFFFFFFFFFFFF
310
FFFFFFFFFFFFFFFFFFFFFFFFFFFFFFFFFFFFFFFFFFFFFFFFFFFFFFFFFFFFFFFF
310
F000FFFFFFFFFFFFFFFFFFFFFFFFFFFFFFFFFFFFFFFFFFFFFFFFFFFFFFFFFFFF
310
FFFFFFFFFFFFFFFFFFFFFFFFFFFFFFFFFFFFFFFFFFFFFFFFFFFFFFFFFFFFFFFF
310
FFFFFFFFFFFFFFFFFFFFFFFFFFFFFFFFFFFFFFFFFFFFFFFFF000FFFFFFFFFFFF
310
FFFFFFFFFFFFFFFFFFFFFFFFFFFFFFFFFFFFFFFFFFFFFFFFFFFFFFFFFFFFFFFF
310
FFFFFFFFFFFFFFFFFFFFFFFFFFFFFFFFFFFFFFFFFFFFFFFFFFFFFFFFFFFFFFFF
310
FFFFFFFFFFFFFFFFFFFFFFFFFFFFFFFFF000FFFFFFFFFFFFFFFFFFFFFFFFFFFF
310
FFFFFFFFFFFFFFFFFFFFFFFFFFFFFFFFFFFFFFFFFFFFFFFFFFFFFFFFFFFFFFFF
310
FFFFFFFFFFFFFFFFFFFFFFFFFFFFFFFFFFFFFFFFFFFFFFFFFFFFFFFFFFFFFFFF
310
FFFFFFFFFFFFFFFFF000FFFFFFFFFFFFFFFFFFFFFFFFFFFFFFFFFFFFFFFFFFFF
310
FFFFFFFFFFFFFFFFFFFFFFFFFFFFFFFFFFFFFFFFFFFFFFFFFFFFFFFFFFFFFFFF
310
FFFFFFFFFFFFFFFFFFFFFFFFFFFFFFFFFFFFFFFFFFFFFFFFFFFFFFFFFFFFFFFF
310
F000FFFFFFFFFFFFFFFFFFFFFFFFFFFFFFFFFFFFFFFFFFFFFFFFFFFFFFFFFFFF
310
FFFFFFFFFFFFFFFFFFFFFFFFFFFFFFFFFFFFFFFFFFFFFFFFFFFFFFFFFFFFFFFF
310
FFFFFFFFFFFFFFFFFFFFFFFFFFFFFFFFFFFFFFFFFFFFFFFFF000FFFFFFFFFFFF
310
FFFFFFFFFFFFFFFFFFFFFFFFFFFFFFFFFFFFFFFFFFFFFFFFFFFFFFFFFFFFFFFF
310
FFFFFFFFFFFFFFFFFFFFFFFFFFFFFFFFFFFFFFFFFFFFFFFFFFFFFFFFFFFFFFFF
310
FFFFFFFFFFFFFFFFFFFFFFFFFFFFFFFFF000FFFFFFFFFFFFFFFFFFFFFFFFFFFF
310
FFFFFFFFFFFFFFFFFFFFFFFFFFFFFFFFFFFFFFFFFFFFFFFFFFFFFFFFFFFFFFFF
310
FFFFFFFFFFFFFFFFFFFFFFFFFFFFFFFFFFFFFFFFFFFFFFFFFFFFFFFFFFFFFFFF
310
FFFFFFFFFFFFFFFFF000FFFFF80003FFFFFFFFFFFFFFFFFFFFFFFFFFFFFFFFFF
310
FFFFF00007FFFFFFFFFF00007FFFFFF800000000000000007FFFFFFFFFFFFFFF
310
FFFFFFFC001FFFFFFFFFFFFFFC001FFFFFFFFFFFFFFFFFFFFFFFFFFE0007FFFF
310
F000FFFF8000007FFFFFFFF8000FFFFFC0007FFFFF80007FFFFF0000007FFFFF
310
FFF8000007FFFFF800000000000000007FFFFFF0001FFFFFFFFFFFC00001FFFF
310
FFFFFFFFC00001FFFFFFFF000000000003FFFFE000007FFFF000FFFE0000000F
310
FFFFFFF0000FFFFF80007FFFFF80007FFFFC0000001FFFFFFFC0000001FFFFF8
310
00000000000000007FFFFFF0001FFFFFFFFFFE0000003FFFFFFFFFFE0000003F
310
FFFFFF000000000003FFFF0000000FFFF000FFF800000003FFFFFFF00007FFFF
310
80007FFFFF80007FFFF000000007FFFFFF000000003FFFF80000000000000000
310
7FFFFFF0001FFFFFFFFFF80000000FFFFFFFFFF80000000FFFFFFF0000000000
310
03FFFC00000003FFF000FFE000000000FFFFFFF00007FFFF80003FFFFF80007F
310
FFC000000001FFFFFC000000001FFFF800000000000000007FFFFFF0001FFFFF
310
FFFFE000000003FFFFFFFFE000000003FFFFFF000000000003FFF000000000FF
310
F000FF80000000007FFFFFF00007FFFF80003FFFFF80007FFF8000000000FFFF
310
F80000000007FFF800000000000000007FFFFFF0001FFFFFFFFFC000000001FF
310
FFFFFFC000000001FFFFFF000000000003FFC0000000007FF000FF0000000000
310
3FFFFFE00007FFFF00003FFFFF80007FFE00000000003FFFF00000000003FFF8
310
00000000000000007FFFFFF0001FFFFFFFFF8000000000FFFFFFFF8000000000
310
FFFFFF000000000003FF80000000003FF000FE00000000001FFFFFE00003FFFF
310
00003FFFFF80007FFC00000000001FFFE00000000001FFF8000001FFFE000000
310
7FFFFFF0001FFFFFFFFE00000000003FFFFFFE00000000003FFFFF0000000000
310
03FF00000000001FF000FC00000000000FFFFFE00003FFFF00001FFFFF80007F
310
F800000000001FFFC00000000000FFF8000001FFFE0000007FFFFFF0001FFFFF
310
FFFC00000000001FFFFFFC00000000001FFFFF000000000003FE00000000000F
310
F000F8000000000007FFFFE00003FFFF00001FFFFF80007FF800000000000FFF
310
800000000000FFF8000001FFFE0000007FFFFFF0001FFFFFFFF800000000000F
310
FFFFF800000000000FFFFF000000000003FC000000000007F000F80000000000
310
03FFFFC00003FFFE00001FFFFF80007FF0000000000007FF0000000000007FF8
310
000001FFFE0000007FFFFFF0001FFFFFFFF0000000000007FFFFF00000000000
310
07FFFF000000000003F8000000000003F000F0000000000003FFFFC00001FFFE
310
00001FFFFF80007FE0000000000007FE0000000000003FF8000001FFFE000000
310
7FFFFFF0001FFFFFFFF0000000000007FFFFF0000000000007FFFF0000000000
310
03F800001F800003F000E00001FFF00001FFFFC00001FFFE00000FFFFF80007F
310
E00001FFE00003FE00001FFF00003FF8000001FFFE0000007FFFFFF0001FFFFF
310
FFE000003E000003FFFFE000003E000003FFFF000000000003F00001FFF80001
310
F000E00007FFFC0001FFFFC00001FFFE00000FFFFF80007FC0000FFFFC0003FC
310
0000FFFFC0001FF8000001FFFE0000007FFFFFF0001FFFFFFFC00003FFE00001
310
FFFFC00003FFE00001FFFF0001FFFFFFFFF00007FFFE0001F000E0000FFFFF00
310
00FFFF800001FFFC00000FFFFF80007FC0001FFFFE0001FC0001FFFFE0001FF8
310
000001FFFE0000007FFFFFF0001FFFFFFF80000FFFF80000FFFF80000FFFF800
310
00FFFF0003FFFFFFFFE0000FFFFF8000F000C0003FFFFF8000FFFF800000FFFC
310
000007FFFF80007F80003FFFFF0001FC0003FFFFF0001FF8000001FFFE000000
310
7FFFFFF0001FFFFFFF80003FFFFE0000FFFF80003FFFFE0000FFFF0003FFFFFF
310
FFE0003FFFFF8000F000C0003FFFFF8000FFFF800000FFFC000007FFFF80007F
310
80007FFFFF8001F80007FFFFF8000FF8000001FFFE0000007FFFFFF0001FFFFF
310
FF00007FFFFF00007FFF00007FFFFF00007FFF0003FFFFFFFFE0003FFFFFC000
310
F000C0007FFFFFC000FFFF000000FFFC000007FFFF80007F8000FFFFFF8000F8
310
000FFFFFF8000FF8000001FFFE0000007FFFFFF0001FFFFFFF0000FFFFFF8000
310
7FFF0000FFFFFF80007FFF0003FFFFFFFFC0007FFFFFC00070008000FFFFFFC0
310
00FFFF000000FFF8000007FFFF80007F8000FFFFFF8000F8000FFFFFF8000FF8
310
000001FFFE0000007FFFFFF0001FFFFFFE0001FFFFFFC0003FFE0001FFFFFFC0
310
003FFF0003FFFFFFFFC0007FFFFFE00070008000FFFFFFC0007FFF0000007FF8
310
000003FFFF80007F0001FFFFFF8000F8000FFFFFF8000FF8000001FFFE000000
310
7FFFFFF0001FFFFFFE0001FFFFFFC0003FFE0001FFFFFFC0003FFF0003FFFFFF
310
FFC000FFFFFFE00070008000FFFFFFC0007FFF0000007FF8000003FFFF80007F
310
0001FFFFFF8000F8001FFFFFF8000FF8000001FFFE0000007FFFFFF0001FFFFF
310
FE0003FFFFFFE0003FFE0003FFFFFFE0003FFF0003FFFFFFFFC000FFFFFFE000
310
70008000FFFFFFC0007FFE0000007FF8000003FFFF80007F0001FFFFFF8000F0
310
001FFFFFF8000FF8000001FFFE0000007FFFFFF0001FFFFFFC0003FFFFFFE000
310
1FFC0003FFFFFFE0001FFF0003FFFFFFFFC000FFFFFFC00070008000FFFFFF80
310
007FFE0000007FF0000003FFFF80007F0001FFFFFF0000F0001FFFFFF8000FF8
310
000001FFFE0000007FFFFFF0001FFFFFFC0007FFFFFFF0001FFC0007FFFFFFF0
310
001FFF0003FFFFFFFFC000FFFFFFC00070008001FFFFFF0000FFFE0000003FF0
310
000001FFFF80007F0001FFFFFF0000F8001FFFFFF0000FF8000001FFFE000000
310
7FFFFFF0001FFFFFFC0007FFFFFFF0001FFC0007FFFFFFF0001FFF0003FFFFFF
310
FFC001FFFFFF80007000FFFFFFFFFE0000FFFE0008003FF0008001FFFF80007F
310
FFFFFFFFFC0000FFFFFFFFFFE0000FF8000001FFFE0000007FFFFFF0001FFFFF
310
F8000FFFFFFFF8000FF8000FFFFFFFF8000FFF0003FFFFFFFFFFFFFFFFFF0000
310
7000FFFFFFFFFC0000FFFC0008003FF0008001FFFF80007FFFFFFFFFF80001FF
310
FFFFFFFF80000FF8000001FFFE0000007FFFFFF0001FFFFFF8000FFFFFFFF800
310
0FF8000FFFFFFFF8000FFF0003FFFFFFFFFFFFFFFFFE0000F000FFFFFFFFE000
310
00FFFC000C003FE000C001FFFF80007FFFFFFFFFC00001FFFFFFFFFE00001FF8
310
000001FFFE0000007FFFFFF0001FFFFFF8000FFFFFFFF8000FF8000FFFFFFFF8
310
000FFF0003FFFFFFFFFFFFFFFFF00000F000FFFFFFFE000001FFFC000C001FE0
310
00C000FFFF80007FFFFFFFFE000001FFFFFFFFE000001FF80FFFFFFFFFFFFFC0
310
7FFFFFF0001FFFFFF8000FFFFFFFF8000FF8000FFFFFFFF8000FFF0003FFFFFF
310
FFFFFFFFFF800000F000FFFFFFC0000001FFFC001C001FE001C000FFFF80007F
310
FFFFFF80000003FFFFFFF80000001FF80FFFFFFFFFFFFFC07FFFFFF0001FFFFF
310
F8001FFFFFFFFC000FF8001FFFFFFFFC000FFF0003FFFFFFFFFFFFFFF0000001
310
F000FFFFF800000001FFF8001C001FE001C000FFFF80007FFFFFF800000003FF
310
FFFF800000003FF80FFFFFFFFFFFFFC07FFFFFF0001FFFFFF8001FFFFFFFFC00
310
0FF8001FFFFFFFFC000FFF0003FFFFFFFFFFFFFE00000001F000FFFFC0000000
310
03FFF8001E001FC001E000FFFF80007FFFFF8000000007FFFFFC000000003FF8
310
0FFFFFFFFFFFFFC07FFFFFF0001FFFFFF8001FFFFFFFFC000FF8001FFFFFFFFC
310
000FFF0003FFFFFFFFFFFFE000000003F000FFFE0000000007FFF8001E000FC0
310
01E0007FFF80007FFFFE0000000007FFFFE0000000007FF80FFFFFFFFFFFFFC0
310
7FFFFFF0001FFFFFF0001FFFFFFFFC0007F0001FFFFFFFFC0007FF0003FFFFFF
310
FFFFFF0000000003F000FFF80000000007FFF8001E000FC003E0007FFF80007F
310
FFF0000000000FFFFF8000000000FFF80FFFFFFFFFFFFFC07FFFFFF0001FFFFF
310
F0001FFFFFFFFC0007F0001FFFFFFFFC0007FF0003FFFFFFFFFFFC0000000007
310
F000FFE0000000000FFFF0003E000FC003E0007FFF80007FFFC0000000001FFF
310
FE0000000001FFF80FFFFFFFFFFFFFC07FFFFFF0001FFFFFF0001FFFFFFFFC00
310
07F0001FFFFFFFFC0007FF0003FFFFFFFFFFF0000000000FF000FFC000000000
310
1FFFF0003F000F8003F0003FFF80007FFF80000000003FFFF80000000003FFF8
310
0FFFFFFFFFFFFFC07FFFFFF0001FFFFFF0001FFFFFFFFC0007F0001FFFFFFFFC
310
0007FF0003FFFFFFFFFFE0000000001FF000FF00000000007FFFF0003F000780
310
03F0003FFF80007FFF00000000007FFFF00000000007FFF80FFFFFFFFFFFFFC0
310
7FFFFFF0001FFFFFF0001FFFFFFFFC0007F0001FFFFFFFFC0007FF0003FFFFFF
310
FFFF80000000007FF000FE0000000000FFFFE0003F00078007F0003FFF80007F
310
FE0000000001FFFFE0000000001FFFF80FFFFFFFFFFFFFC07FFFFFF0001FFFFF
310
F0001FFFFFFFFC0007F0001FFFFFFFFC0007FF0003FFFFFFFFFF0000000000FF
310
F000FC0000000003FFFFE0007F00078007F0003FFF80007FFC0000000007FFFF
310
C0000000007FFFF80FFFFFFFFFFFFFC07FFFFFF0001FFFFFF8001FFFFFFFFC00
310
0FF8001FFFFFFFFC000FFF0003FFFFFFFFFE0000000003FFF000FC000000000F
310
FFFFE0007F80070007F8001FFF80007FF8000000001FFFFF8000000001FFFFF8
310
0FFFFFFFFFFFFFC07FFFFFF0001FFFFFF8001FFFFFFFFC000FF8001FFFFFFFFC
310
000FFF0003FFFFFFFFFC000000000FFFF000F8000000007FFFFFE0007F800700
310
07F8001FFF80007FF000000000FFFFFF800000000FFFFFF80FFFFFFFFFFFFFC0
310
7FFFFFF0001FFFFFF8000FFFFFFFF8000FF8000FFFFFFFF8000FFF0003FFFFFF
310
FFFC000000007FFFF000F800000007FFFFFFC0007F8003000FF8001FFF80007F
310
F000000007FFFFFF000000007FFFFFF80FFFFFFFFFFFFFC07FFFFFF0001FFFFF
310
F8000FFFFFFFF8000FF8000FFFFFFFF8000FFF0003FFFFFFFFF80000000FFFFF
310
F000F0000000FFFFFFFFC000FF8003000FF8001FFF80007FE0000000FFFFFFFF
310
0000000FFFFFFFF8000001FFFE0000007FFFFFF0001FFFFFF8000FFFFFFFF800
310
0FF8000FFFFFFFF8000FFF0003FFFFFFFFF8000000FFFFFFF000F000000FFFFF
310
FFFFC000FFC002000FF8000FFF80007FE000001FFFFFFFFE000001FFFFFFFFF8
310
000001FFFE0000007FFFFFF0001FFFFFF8000FFFFFFFF8000FF8000FFFFFFFF8
310
000FFF0003FFFFFFFFF000001FFFFFFFF000E00000FFFFFFFFFFC000FFC00200
310
0FFC000FFF80007FE00001FFFFFFFFFE00001FFFFFFFFFF8000001FFFE000000
310
7FFFFFF0001FFFFFFC000FFFFFFFF8001FFC000FFFFFFFF8001FFF0003FFFFFF
310
FFF00001FFFFFFFFF000E00007FFFFFFFFFF8000FFC000001FFC000FFF80007F
310
C0000FFFFFFFFFFE0000FFFFFFFFFFF8000001FFFE0000007FFFFFF0001FFFFF
310
FC0007FFFFFFF0001FFC0007FFFFFFF0001FFF0003FFFFFFFFF00007FFFFFFFF
310
F000E0001FFFFFFFFFFF8000FFC000001FFC000FFF80007FC0003FFFFFFFFFFE
310
0001FFFFFFFFFFF8000001FFFE0000007FFFFFF0001FFFFFFC0007FFFFFFF000
310
1FFC0007FFFFFFF0001FFF0003FFFFFFFFF0001FFFFFFFFFF000E0003FFFFF00
310
03FF8001FFE000001FFC0007FF80007FC0007FFFFF0007FC0003FFFFF0003FF8
310
000001FFFE0000007FFFFFF0001FFFFFFC0003FFFFFFE0001FFC0003FFFFFFE0
310
001FFF0003FFFFFFFFF0003FFFFFFFFFF000E0003FFFFF0001FF8001FFE00000
310
1FFE0007FF80007FC0007FFFFE0003FC0007FFFFE0003FF8000001FFFE000000
310
7FFFFFF0001FFFFFFE0003FFFFFFE0003FFE0003FFFFFFE0003FFF0003FFFFFF
310
FFF0003FFFFF8001F000E0003FFFFF0001FF0001FFE000001FFE0007FF80007F
310
C0007FFFFE0003FC0007FFFFE0003FF8000001FFFE0000007FFFFFF0001FFFFF
310
FE0001FFFFFFC0003FFE0001FFFFFFC0003FFF0003FFFFFFFFF0003FFFFF0001
310
F000E0003FFFFF0003FF0001FFE000003FFE0007FF80007FC0007FFFFE0003FC
310
0007FFFFE0003FF8000001FFFE0000007FFFFFF0001FFFFFFF0001FFFFFFC000
310
7FFF0001FFFFFFC0007FFF0003FFFFFFFFF0003FFFFF0001F000E0003FFFFE00
310
03FF0003FFF000003FFE0003FF80007FC0007FFFFC0003FE0007FFFFE0003FF8
310
000001FFFE0000007FFFFFF0001FFFFFFF0000FFFFFF80007FFF0000FFFFFF80
310
007FFF0003FFFFFFFFF0003FFFFF0001F000E0003FFFFE0003FF0003FFF00000
310
3FFF0003FF80007FC0007FFFFC0007FE0007FFFFC0003FF8000001FFFE000000
310
7FFFFFF0001FFFFFFF80007FFFFF0000FFFF80007FFFFF0000FFFF0003FFFFFF
310
FFF0003FFFFF0003F000E0003FFFFC0003FE0003FFF000003FFF0003FF80007F
310
E0003FFFF80007FE0003FFFFC0007FF8000001FFFE0000007FFFFFF0001FFFFF
310
FF80003FFFFE0000FFFF80003FFFFE0000FFFF0003FFFFFFFFF0001FFFFE0003
310
F000F0001FFFF80003FE0003FFF000007FFF0001FF80007FE0003FFFF00007FE
310
0001FFFF80007FF8000001FFFE0000007FFFFFF0001FFFFFFFC0000FFFF80001
310
FFFFC0000FFFF80001FFFF0003FFFFFFFFF0001FFFFC0003F000F0000FFFF000
310
07FE0007FFF800007FFF0001FF80007FE0001FFFE00007FF0000FFFE00007FF8
310
000001FFFE0000007FFFFFF0001FFFFFFFC00003FFE00001FFFFC00003FFE000
310
01FFFF0003FFFFFFFFF8000FFFF80003F000F00003FFC00007FC0007FFF80000
310
7FFF8001FF80007FF00007FF80000FFF00007FF80000FFF8000001FFFE000000
310
7F80000000000001FFE000003E000003FFFFE000003E000003FFFF0003FFFFFF
310
FFF80003FFE00007F000F800000000000FFC0007FFF800007FFF8001FF80007F
310
F000000000000FFF000000000000FFF8000001FFFE0000007F80000000000001
310
FFF0000000000007FFFFF0000000000007FFFF0003FFFFFFFFFC00007E000007
310
F000F800000000000FFC0007FFF80000FFFF8000FF80007FF800000000001FFF
310
800000000001FFF8000001FFFE0000007F80000000000001FFF800000000000F
310
FFFFF800000000000FFFFF0003FFFFFFFFFC00000000000FF000FC0000000000
310
1FFC0007FFFC0000FFFF8000FF80007FF800000000003FFFC00000000001FFF8
310
000001FFFE0000007F80000000000001FFF800000000000FFFFFF80000000000
310
0FFFFF0003FFFFFFFFFE00000000001FF000FE00000000003FF8000FFFFC0000
310
FFFF8000FF80007FFC00000000003FFFC00000000003FFF8000001FFFE000000
310
7F80000000000001FFFC00000000001FFFFFFC00000000001FFFFF0003FFFFFF
310
FFFF00000000001FF000FF00000000003FF8000FFFFC0000FFFFC000FF80007F
310
FE00000000007FFFE00000000007FFF8000001FFFE0000007F80000000000001
310
FFFE00000000003FFFFFFE00000000003FFFFF0003FFFFFFFFFF80000000003F
310
F000FF80000000007FF8000FFFFC0001FFFFC0007F80007FFF0000000000FFFF
310
F0000000000FFFF800000000000000007F80000000000001FFFF8000000000FF
310
FFFFFF8000000000FFFFFF0003FFFFFFFFFFC0000000007FF000FFC000000000
310
FFF8000FFFFE0001FFFFC0007F80007FFF8000000001FFFFF8000000001FFFF8
310
00000000000000007F80000000000001FFFFC000000001FFFFFFFFC000000001
310
FFFFFF0003FFFFFFFFFFE000000000FFF000FFE000000003FFF0001FFFFE0001
310
FFFFC0007F80007FFFC000000007FFFFFE000000003FFFF80000000000000000
310
7F80000000000001FFFFE000000003FFFFFFFFE000000003FFFFFF0003FFFFFF
310
FFFFF000000003FFF000FFF80000000FFFF0001FFFFE0001FFFFE0007F80007F
310
FFF00000000FFFFFFF00000000FFFFF800000000000000007F80000000000001
310
FFFFF80000000FFFFFFFFFF80000000FFFFFFF0003FFFFFFFFFFFC0000000FFF
310
F000FFFE0000003FFFF0001FFFFE0003FFFFE0003F80007FFFFC0000003FFFFF
310
FFC0000003FFFFF800000000000000007F80000000000001FFFFFE0000003FFF
310
FFFFFFFE0000003FFFFFFF0003FFFFFFFFFFFF0000003FFFF000FFFF800000FF
310
FFF0001FFFFF0003FFFFE0003F80007FFFFF000001FFFFFFFFF800001FFFFFF8
310
00000000000000007F80000000000001FFFFFFC00001FFFFFFFFFFFFC00001FF
310
FFFFFF0003FFFFFFFFFFFFC00000FFFFF000FFFFF8000FFFFFFFFFFFFFFFFFFF
310
FFFFFFFFFFFFFFFFFFFFF0001FFFFFFFFFFF0000FFFFFFF80000000000000000
310
7FFFFFFFFFFFFFFFFFFFFFFC001FFFFFFFFFFFFFFC001FFFFFFFFFFFFFFFFFFF
310
FFFFFFFC001FFFFFF000FFFFFFFFFFFFFFFFFFFFFFFFFFFFFFFFFFFFFFFFFFFF
310
FFFFFFFFFFFFFFFFFFFFFFFFFFFFFFFFFFFFFFFFFFFFFFFFFFFFFFFFFFFFFFFF
310
FFFFFFFFFFFFFFFFFFFFFFFFFFFFFFFFFFFFFFFFFFFFFFFFFFFFFFFFFFFFFFFF
310
F000FFFFFFFFFFFFFFFFFFFFFFFFFFFFFFFFFFFFFFFFFFFFFFFFFFFFFFFFFFFF
310
FFFFFFFFFFFFFFFFFFFFFFFFFFFFFFFFFFFFFFFFFFFFFFFFFFFFFFFFFFFFFFFF
310
FFFFFFFFFFFFFFFFFFFFFFFFFFFFFFFFFFFFFFFFFFFFFFFFF000FFFFFFFFFFFF
310
FFFFFFFFFFFFFFFFFFFFFFFFFFFFFFFFFFFFFFFFFFFFFFFFFFFFFFFFFFFFFFFF
310
FFFFFFFFFFFFFFFFFFFFFFFFFFFFFFFFFFFFFFFFFFFFFFFFFFFFFFFFFFFFFFFF
310
FFFFFFFFFFFFFFFFFFFFFFFFFFFFFFFFF000FFFFFFFFFFFFFFFFFFFFFFFFFFFF
310
FFFFFFFFFFFFFFFFFFFFFFFFFFFFFFFFFFFFFFFFFFFFFFFFFFFFFFFFFFFFFFFF
310
FFFFFFFFFFFFFFFFFFFFFFFFFFFFFFFFFFFFFFFFFFFFFFFFFFFFFFFFFFFFFFFF
310
FFFFFFFFFFFFFFFFF000FFFFFFFFFFFFFFFFFFFFFFFFFFFFFFFFFFFFFFFFFFFF
310
FFFFFFFFFFFFFFFFFFFFFFFFFFFFFFFFFFFFFFFFFFFFFFFFFFFFFFFFFFFFFFFF
310
FFFFFFFFFFFFFFFFFFFFFFFFFFFFFFFFFFFFFFFFFFFFFFFFFFFFFFFFFFFFFFFF
310
F000FFFFFFFFFFFFFFFFFFFFFFFFFFFFFFFFFFFFFFFFFFFFFFFFFFFFFFFFFFFF
310
FFFFFFFFFFFFFFFFFFFFFFFFFFFFFFFFFFFFFFFFFFFFFFFFFFFFFFFFFFFFFFFF
310
FFFFFFFFFFFFFFFFFFFFFFFFFFFFFFFFFFFFFFFFFFFFFFFFF000FFFFFFFFFFFF
310
FFFFFFFFFFFFFFFFFFFFFFFFFFFFFFFFFFFFFFFFFFFFFFFFFFFFFFFFFFFFFFFF
310
FFFFFFFFFFFFFFFFFFFFFFFFFFFFFFFFFFFFFFFFFFFFFFFFFFFFFFFFFFFFFFFF
310
FFFFFFFFFFFFFFFFFFFFFFFFFFFFFFFFF000FFFFFFFFFFFFFFFFFFFFFFFFFFFF
310
FFFFFFFFFFFFFFFFFFFFFFFFFFFFFFFFFFFFFFFFFFFFFFFFFFFFFFFFFFFFFFFF
310
FFFFFFFFFFFFFFFFFFFFFFFFFFFFFFFFFFFFFFFFFFFFFFFFFFFFFFFFFFFFFFFF
310
FFFFFFFFFFFFFFFFF000FFFFFFFFFFFFFFFFFFFFFFFFFFFFFFFFFFFFFFFFFFFF
310
FFFFFFFFFFFFFFFFFFFFFFFFFFFFFFFFFFFFFFFFFFFFFFFFFFFFFFFFFFFFFFFF
310
FFFFFFFFFFFFFFFFFFFFFFFFFFFFFFFFFFFFFFFFFFFFFFFFFFFFFFFFFFFFFFFF
310
F000FFFFFFFFFFFFFFFFFFFFFFFFFFFFFFFFFFFFFFFFFFFFFFFFFFFFFFFFFFFF
310
FFFFFFFFFFFFFFFFFFFFFFFFFFFFFFFFFFFFFFFFFFFFFFFFFFFFFFFFFFFFFFFF
310
FFFFFFFFFFFFFFFFFFFFFFFFFFFFFFFFFFFFFFFFFFFFFFFFF000FFFFFFFFFFFF
310
FFFFFFFFFFFFFFFFFFFFFFFFFFFFFFFFFFFFFFFFFFFFFFFFFFFFFFFFFFFFFFFF
310
FFFFFFFFFFFFFFFFFFFFFFFFFFFFFFFFFFFFFFFFFFFFFFFFFFFFFFFFFFFFFFFF
310
FFFFFFFFFFFFFFFFFFFFFFFFFFFFFFFFF000FFFFFFFFFFFFFFFFFFFFFFFFFFFF
310
FFFFFFFFFFFFFFFFFFFFFFFFFFFFFFFFFFFFFFFFFFFFFFFFFFFFFFFFFFFFFFFF
310
FFFFFFFFFFFFFFFFFFFFFFFFFFFFFFFFFFFFFFFFFFFFFFFFFFFFFFFFFFFFFFFF
310
FFFFFFFFFFFFFFFFF000FFFFFFFFFFFFFFFFFFFFFFFFFFFFFFFFFFFFFFFFFFFF
310
FFFFFFFFFFFFFFFFFFFFFFFFFFFFFFFFFFFFFFFFFFFFFFFFFFFFFFFFFFFFFFFF
310
FFFFFFFFFFFFFFFFFFFFFFFFFFFFFFFFFFFFFFFFFFFFFFFFFFFFFFFFFFFFFFFF
310
F000FFFFFFFFFFFFFFFFFFFFFFFFFFFFFFFFFFFFFFFFFFFFFFFFFFFFFFFFFFFF
310
FFFFFFFFFFFFFFFFFFFFFFFFFFFFFFFFFFFFFFFFFFFFFFFFFFFFFFFFFFFFFFFF
310
FFFFFFFFFFFFFFFFFFFFFFFFFFFFFFFFFFFFFFFFFFFFFFFFF000FFFFFFFFFFFF
310
FFFFFFFFFFFFFFFFFFFFFFFFFFFFFFFFFFFFFFFFFFFFFFFFFFFFFFFFFFFFFFFF
310
FFFFFFFFFFFFFFFFFFFFFFFFFFFFFFFFFFFFFFFFFFFFFFFFFFFFFFFFFFFFFFFF
310
FFFFFFFFFFFFFFFFFFFFFFFFFFFFFFFFF000FFFFFFFFFFFFFFFFFFFFFFFFFFFF
310
FFFFFFFFFFFFFFFFFFFFFFFFFFFFFFFFFFFFFFFFFFFFFFFFFFFFFFFFFFFFFFFF
310
FFFFFFFFFFFFFFFFFFFFFFFFFFFFFFFFFFFFFFFFFFFFFFFFFFFFFFFFFFFFFFFF
310
FFFFFFFFFFFFFFFFF000FFFFFFFFFFFFFFFFFFFFFFFFFFFFFFFFFFFFFFFFFFFF
310
FFFFFFFFFFFFFFFFFFFFFFFFFFFFFFFFFFFFFFFFFFFFFFFFFFFFFFFFFFFFFFFF
310
FFFFFFFFFFFFFFFFFFFFFFFFFFFFFFFFFFFFFFFFFFFFFFFFFFFFFFFFFFFFFFFF
310
F000FFFFFFFFFFFFFFFFFFFFFFFFFFFFFFFFFFFFFFFFFFFFFFFFFFFFFFFFFFFF
310
FFFFFFFFFFFFFFFFFFFFFFFFFFFFFFFFFFFFFFFFFFFFFFFFFFFFFFFFFFFFFFFF
310
FFFFFFFFFFFFFFFFFFFFFFFFFFFFFFFFFFFFFFFFFFFFFFFFF000FFFFFFFFFFFF
310
FFFFFFFFFFFFFFFFFFFFFFFFFFFFFFFFFFFFFFFFFFFFFFFFFFFFFFFFFFFFFFFF
310
FFFFFFFFFFFFFFFFFFFFFFFFFFFFFFFFFFFFFFFFFFFFFFFFFFFFFFFFFFFFFFFF
310
FFFFFFFFFFFFFFFFFFFFFFFFFFFFFFFFF000FFFFFFFFFFFFFFFFFFFFFFFFFFFF
310
FFFFFFFFFFFFFFFFFFFFFFFFFFFFFFFFFFFFFFFFFFFFFFFFFFFFFFFFFFFFFFFF
310
FFFFFFFFFFFFFFFFFFFFFFFFFFFFFFFFFFFFFFFFFFFFFFFFFFFFFFFFFFFFFFFF
310
FFFFFFFFFFFFFFFFF000FFFFFFFFFFFFFFFFFFFFFFFFFFFFFFFFFFFFFFFFFFFF
310
FFFFFFFFFFFFFFFFFFFFFFFFFFFFFFFFFFFFFFFFFFFFFFFFFFFFFFFFFFFFFFFF
310
FFFFFFFFFFFFFFFFFFFFFFFFFFFFFFFFFFFFFFFFFFFFFFFFFFFFFFFFFFFFFFFF
310
F000FFFFFFFFFFFFFFFFFFFFFFFFFFFFFFFFFFFFFFFFFFFFFFFFFFFFFFFFFFFF
310
FFFFFFFFFFFFFFFFFFFFFFFFFFFFFFFFFFFFFFFFFFFFFFFFFFFFFFFFFFFFFFFF
310
FFFFFFFFFFFFFFFFFFFFFFFFFFFFFFFFFFFFFFFFFFFFFFFFF000FFFFFFFFFFFF
310
FFFFFFFFFFFFFFFFFFFFFFFFFFFFFFFFFFFFFFFFFFFFFFFFFFFFFFFFFFFFFFFF
310
FFFFFFFFFFFFFFFFFFFFFFFFFFFFFFFFFFFFFFFFFFFFFFFFFFFFFFFFFFFFFFFF
310
FFFFFFFFFFFFFFFFFFFFFFFFFFFFFFFFF0000000000000000000000000000000
310
0000000000000000000000000000000000000000000000000000000000000000
310
0000000000000000000000000000000000000000000000000000000000000000
310
0000000000000000000000000000000000000000000000000000000000000000
310
0000000000000000000000000000000000000000000000000000000000000000
310
0000000000000000000000000000000000000000000000000000000000000000
310
0000000000000000000000000000000000000000000000000000000000000000
310
0000000000000000000000000000000000000000000000000000000000000000
310
0000000000000000000000000000000000000000000000000000000000000000
310
0000000000000000000000000000000000000000000000000000000000000000
310
0000000000000000000000000000000000000000000000000000000000000000
310
0000000000000000000000000000000000000000000000000000000000000000
310
0000000000000000000000000000000000000000000000000000000000000000
310
0000000000000000000000000000000000000000000000000000000000000000
310
0000000000000000000000000000000000000000000000000000000000000000
310
0000000000000000000000000000000000000000000000000000000000000000
  1
OLE
  0
ENDSEC
  0
SECTION
  2
OBJECTS
  0
DICTIONARY
  5
C
330
0
100
AcDbDictionary
281
     1
  3
ACAD_GROUP
350
D
  3
ACAD_LAYOUT
350
1A
  3
ACAD_MLINESTYLE
350
17
  3
ACAD_PLOTSETTINGS
350
19
  3
ACAD_PLOTSTYLENAME
350
E
  3
ACAD_SCALELIST
350
47
  0
DICTIONARY
  5
D
102
{ACAD_REACTORS
330
C
102
}
330
C
100
AcDbDictionary
281
     1
  0
DICTIONARY
  5
1A
102
{ACAD_REACTORS
330
C
102
}
330
C
100
AcDbDictionary
281
     1
  3
Layout1
350
1E
  3
Layout2
350
26
  3
Model
350
22
  0
DICTIONARY
  5
17
102
{ACAD_REACTORS
330
C
102
}
330
C
100
AcDbDictionary
281
     1
  3
Standard
350
18
  0
DICTIONARY
  5
19
102
{ACAD_REACTORS
330
C
102
}
330
C
100
AcDbDictionary
281
     1
  0
ACDBDICTIONARYWDFLT
  5
E
102
{ACAD_REACTORS
330
C
102
}
330
C
100
AcDbDictionary
281
     1
  3
Normal
350
F
100
AcDbDictionaryWithDefault
340
F
  0
DICTIONARY
  5
47
102
{ACAD_REACTORS
330
C
102
}
330
C
100
AcDbDictionary
281
     1
  3
A0
350
48
  3
A1
350
49
  3
A2
350
4A
  3
A3
350
4B
  3
A4
350
4C
  3
A5
350
4D
  3
A6
350
4E
  3
A7
350
4F
  3
A8
350
50
  3
A9
350
51
  3
B0
350
52
  3
B1
350
53
  3
B2
350
54
  3
B3
350
55
  3
B4
350
56
  3
B5
350
57
  3
B6
350
58
  3
B7
350
59
  3
B8
350
5A
  3
B9
350
5B
  3
C0
350
5C
  3
C1
350
5D
  3
C2
350
5E
  3
C3
350
5F
  3
C4
350
60
  3
C5
350
61
  3
C6
350
62
  3
C7
350
63
  3
C8
350
64
  3
C9
350
65
  3
D0
350
66
  3
D1
350
67
  3
D2
350
68
  0
LAYOUT
  5
1E
102
{ACAD_REACTORS
330
1A
102
}
330
1A
100
AcDbPlotSettings
  1

  2
none_device
  4

  6

 40
0.0
 41
0.0
 42
0.0
 43
0.0
 44
0.0
 45
0.0
 46
0.0
 47
0.0
 48
0.0
 49
0.0
140
0.0
141
0.0
142
1.0
143
1.0
 70
   688
 72
     1
 73
     0
 74
     5
  7

 75
    16
147
1.0
148
0.0
149
0.0
100
AcDbLayout
  1
Layout1
 70
     1
 71
     1
 10
0.0
 20
0.0
 11
420.0
 21
297.0
 12
0.0
 22
0.0
 32
0.0
 14
1.0000000000E+20
 24
1.0000000000E+20
 34
1.0000000000E+20
 15
-1.0000000000E+20
 25
-1.0000000000E+20
 35
-1.0000000000E+20
146
0.0
 13
0.0
 23
0.0
 33
0.0
 16
1.0
 26
0.0
 36
0.0
 17
0.0
 27
1.0
 37
0.0
 76
     0
330
1B
  0
LAYOUT
  5
26
102
{ACAD_REACTORS
330
1A
102
}
330
1A
100
AcDbPlotSettings
  1

  2
none_device
  4

  6

 40
0.0
 41
0.0
 42
0.0
 43
0.0
 44
0.0
 45
0.0
 46
0.0
 47
0.0
 48
0.0
 49
0.0
140
0.0
141
0.0
142
1.0
143
1.0
 70
   688
 72
     1
 73
     0
 74
     5
  7

 75
    16
147
1.0
148
0.0
149
0.0
100
AcDbLayout
  1
Layout2
 70
     1
 71
     2
 10
0.0
 20
0.0
 11
0.0
 21
0.0
 12
0.0
 22
0.0
 32
0.0
 14
0.0
 24
0.0
 34
0.0
 15
0.0
 25
0.0
 35
0.0
146
0.0
 13
0.0
 23
0.0
 33
0.0
 16
1.0
 26
0.0
 36
0.0
 17
0.0
 27
1.0
 37
0.0
 76
     0
330
23
  0
LAYOUT
  5
22
102
{ACAD_REACTORS
330
1A
102
}
330
1A
100
AcDbPlotSettings
  1

  2
none_device
  4
Letter_(8.50_x_11.00_Inches)
  6

 40
6.35
 41
6.35
 42
6.35000508
 43
6.35000508
 44
215.9
 45
279.4
 46
0.0
 47
0.0
 48
0.0
 49
0.0
140
0.0
141
0.0
142
1.0
143
1.0
 70
  1712
 72
     1
 73
     0
 74
     0
  7

 75
     0
147
1.0
148
0.0
149
0.0
100
AcDbLayout
  1
Model
 70
     1
 71
     0
 10
0.0
 20
0.0
 11
297.0
 21
210.0
 12
0.0
 22
0.0
 32
0.0
 14
0.0
 24
0.0
 34
0.0
 15
297.0
 25
210.0
 35
0.0
146
0.0
 13
0.0
 23
0.0
 33
0.0
 16
1.0
 26
0.0
 36
0.0
 17
0.0
 27
1.0
 37
0.0
 76
     0
330
1F
331
29
  0
MLINESTYLE
  5
18
102
{ACAD_REACTORS
330
17
102
}
330
17
100
AcDbMlineStyle
  2
Standard
 70
     0
  3

 62
   256
 51
90.0
 52
90.0
 71
     2
 49
0.5
 62
   256
  6
BYLAYER
 49
-0.5
 62
   256
  6
BYLAYER
  0
ACDBPLACEHOLDER
  5
F
102
{ACAD_REACTORS
330
E
102
}
330
E
  0
SCALE
  5
48
102
{ACAD_REACTORS
330
47
102
}
330
47
100
AcDbScale
 70
     0
300
1:1
140
1.0
141
1.0
290
     1
  0
SCALE
  5
49
102
{ACAD_REACTORS
330
47
102
}
330
47
100
AcDbScale
 70
     0
300
1:2
140
1.0
141
2.0
290
     0
  0
SCALE
  5
4A
102
{ACAD_REACTORS
330
47
102
}
330
47
100
AcDbScale
 70
     0
300
1:4
140
1.0
141
4.0
290
     0
  0
SCALE
  5
4B
102
{ACAD_REACTORS
330
47
102
}
330
47
100
AcDbScale
 70
     0
300
1:5
140
1.0
141
5.0
290
     0
  0
SCALE
  5
4C
102
{ACAD_REACTORS
330
47
102
}
330
47
100
AcDbScale
 70
     0
300
1:8
140
1.0
141
8.0
290
     0
  0
SCALE
  5
4D
102
{ACAD_REACTORS
330
47
102
}
330
47
100
AcDbScale
 70
     0
300
1:10
140
1.0
141
10.0
290
     0
  0
SCALE
  5
4E
102
{ACAD_REACTORS
330
47
102
}
330
47
100
AcDbScale
 70
     0
300
1:16
140
1.0
141
16.0
290
     0
  0
SCALE
  5
4F
102
{ACAD_REACTORS
330
47
102
}
330
47
100
AcDbScale
 70
     0
300
1:20
140
1.0
141
20.0
290
     0
  0
SCALE
  5
50
102
{ACAD_REACTORS
330
47
102
}
330
47
100
AcDbScale
 70
     0
300
1:30
140
1.0
141
30.0
290
     0
  0
SCALE
  5
51
102
{ACAD_REACTORS
330
47
102
}
330
47
100
AcDbScale
 70
     0
300
1:40
140
1.0
141
40.0
290
     0
  0
SCALE
  5
52
102
{ACAD_REACTORS
330
47
102
}
330
47
100
AcDbScale
 70
     0
300
1:50
140
1.0
141
50.0
290
     0
  0
SCALE
  5
53
102
{ACAD_REACTORS
330
47
102
}
330
47
100
AcDbScale
 70
     0
300
1:100
140
1.0
141
100.0
290
     0
  0
SCALE
  5
54
102
{ACAD_REACTORS
330
47
102
}
330
47
100
AcDbScale
 70
     0
300
2:1
140
2.0
141
1.0
290
     0
  0
SCALE
  5
55
102
{ACAD_REACTORS
330
47
102
}
330
47
100
AcDbScale
 70
     0
300
4:1
140
4.0
141
1.0
290
     0
  0
SCALE
  5
56
102
{ACAD_REACTORS
330
47
102
}
330
47
100
AcDbScale
 70
     0
300
8:1
140
8.0
141
1.0
290
     0
  0
SCALE
  5
57
102
{ACAD_REACTORS
330
47
102
}
330
47
100
AcDbScale
 70
     0
300
10:1
140
10.0
141
1.0
290
     0
  0
SCALE
  5
58
102
{ACAD_REACTORS
330
47
102
}
330
47
100
AcDbScale
 70
     0
300
100:1
140
100.0
141
1.0
290
     0
  0
SCALE
  5
59
102
{ACAD_REACTORS
330
47
102
}
330
47
100
AcDbScale
 70
     0
300
1/128" = 1'-0"
140
0.0078125
141
12.0
290
     0
  0
SCALE
  5
5A
102
{ACAD_REACTORS
330
47
102
}
330
47
100
AcDbScale
 70
     0
300
1/64" = 1'-0"
140
0.015625
141
12.0
290
     0
  0
SCALE
  5
5B
102
{ACAD_REACTORS
330
47
102
}
330
47
100
AcDbScale
 70
     0
300
1/32" = 1'-0"
140
0.03125
141
12.0
290
     0
  0
SCALE
  5
5C
102
{ACAD_REACTORS
330
47
102
}
330
47
100
AcDbScale
 70
     0
300
1/16" = 1'-0"
140
0.0625
141
12.0
290
     0
  0
SCALE
  5
5D
102
{ACAD_REACTORS
330
47
102
}
330
47
100
AcDbScale
 70
     0
300
3/32" = 1'-0"
140
0.09375
141
12.0
290
     0
  0
SCALE
  5
5E
102
{ACAD_REACTORS
330
47
102
}
330
47
100
AcDbScale
 70
     0
300
1/8" = 1'-0"
140
0.125
141
12.0
290
     0
  0
SCALE
  5
5F
102
{ACAD_REACTORS
330
47
102
}
330
47
100
AcDbScale
 70
     0
300
3/16" = 1'-0"
140
0.1875
141
12.0
290
     0
  0
SCALE
  5
60
102
{ACAD_REACTORS
330
47
102
}
330
47
100
AcDbScale
 70
     0
300
1/4" = 1'-0"
140
0.25
141
12.0
290
     0
  0
SCALE
  5
61
102
{ACAD_REACTORS
330
47
102
}
330
47
100
AcDbScale
 70
     0
300
3/8" = 1'-0"
140
0.375
141
12.0
290
     0
  0
SCALE
  5
62
102
{ACAD_REACTORS
330
47
102
}
330
47
100
AcDbScale
 70
     0
300
1/2" = 1'-0"
140
0.5
141
12.0
290
     0
  0
SCALE
  5
63
102
{ACAD_REACTORS
330
47
102
}
330
47
100
AcDbScale
 70
     0
300
3/4" = 1'-0"
140
0.75
141
12.0
290
     0
  0
SCALE
  5
64
102
{ACAD_REACTORS
330
47
102
}
330
47
100
AcDbScale
 70
     0
300
1" = 1'-0"
140
1.0
141
12.0
290
     0
  0
SCALE
  5
65
102
{ACAD_REACTORS
330
47
102
}
330
47
100
AcDbScale
 70
     0
300
1-1/2" = 1'-0"
140
1.5
141
12.0
290
     0
  0
SCALE
  5
66
102
{ACAD_REACTORS
330
47
102
}
330
47
100
AcDbScale
 70
     0
300
3" = 1'-0"
140
3.0
141
12.0
290
     0
  0
SCALE
  5
67
102
{ACAD_REACTORS
330
47
102
}
330
47
100
AcDbScale
 70
     0
300
6" = 1'-0"
140
6.0
141
12.0
290
     0
  0
SCALE
  5
68
102
{ACAD_REACTORS
330
47
102
}
330
47
100
AcDbScale
 70
     0
300
1'-0" = 1'-0"
140
12.0
141
12.0
290
     0
  0
ENDSEC
  0
EOF
