  0
SECTION
  2
HEADER
  9
$ACADVER
  1
AC1015
  9
$ACADMAINTVER
 70
     6
  9
$DWGCODEPAGE
  3
ANSI_1252
  9
$INSBASE
 10
0.0
 20
0.0
 30
0.0
  9
$EXTMIN
 10
0.0
 20
0.0
 30
0.0
  9
$EXTMAX
 10
297.0
 20
210.0
 30
0.0
  9
$LIMMIN
 10
0.0
 20
0.0
  9
$LIMMAX
 10
297.0
 20
210.0
  9
$ORTHOMODE
 70
     0
  9
$REGENMODE
 70
     1
  9
$FILLMODE
 70
     1
  9
$QTEXTMODE
 70
     0
  9
$MIRRTEXT
 70
     1
  9
$LTSCALE
 40
1.0
  9
$ATTMODE
 70
     1
  9
$TEXTSIZE
 40
2.0
  9
$TRACEWID
 40
1.0
  9
$TEXTSTYLE
  7
Standard
  9
$CLAYER
  8
0
  9
$CELTYPE
  6
ByLayer
  9
$CECOLOR
 62
   256
  9
$CELTSCALE
 40
1.0
  9
$DISPSILH
 70
     0
  9
$DIMSCALE
 40
1.0
  9
$DIMASZ
 40
3.0
  9
$DIMEXO
 40
0.0
  9
$DIMDLI
 40
3.75
  9
$DIMRND
 40
0.0
  9
$DIMDLE
 40
0.0
  9
$DIMEXE
 40
1.0
  9
$DIMTP
 40
0.0
  9
$DIMTM
 40
0.0
  9
$DIMTXT
 40
2.0
  9
$DIMCEN
 40
2.5
  9
$DIMTSZ
 40
0.0
  9
$DIMTOL
 70
     0
  9
$DIMLIM
 70
     0
  9
$DIMTIH
 70
     1
  9
$DIMTOH
 70
     1
  9
$DIMSE1
 70
     0
  9
$DIMSE2
 70
     0
  9
$DIMTAD
 70
     1
  9
$DIMZIN
 70
     0
  9
$DIMBLK
  1

  9
$DIMASO
 70
     1
  9
$DIMSHO
 70
     1
  9
$DIMPOST
  1

  9
$DIMAPOST
  1

  9
$DIMALT
 70
     0
  9
$DIMALTD
 70
     3
  9
$DIMALTF
 40
0.0393700787
  9
$DIMLFAC
 40
2.0
  9
$DIMTOFL
 70
     1
  9
$DIMTVP
 40
0.0
  9
$DIMTIX
 70
     0
  9
$DIMSOXD
 70
     0
  9
$DIMSAH
 70
     0
  9
$DIMBLK1
  1

  9
$DIMBLK2
  1

  9
$DIMSTYLE
  2
ISO-25
  9
$DIMCLRD
 70
     0
  9
$DIMCLRE
 70
     0
  9
$DIMCLRT
 70
     0
  9
$DIMTFAC
 40
1.0
  9
$DIMGAP
 40
1.524
  9
$DIMJUST
 70
     0
  9
$DIMSD1
 70
     0
  9
$DIMSD2
 70
     0
  9
$DIMTOLJ
 70
     0
  9
$DIMTZIN
 70
     0
  9
$DIMALTZ
 70
     0
  9
$DIMALTTZ
 70
     0
  9
$DIMUPT
 70
     0
  9
$DIMDEC
 70
     2
  9
$DIMTDEC
 70
     3
  9
$DIMALTU
 70
     2
  9
$DIMALTTD
 70
     3
  9
$DIMTXSTY
  7
Standard
  9
$DIMAUNIT
 70
     0
  9
$DIMADEC
 70
     2
  9
$DIMALTRND
 40
0.0
  9
$DIMAZIN
 70
     0
  9
$DIMDSEP
 70
    44
  9
$DIMATFIT
 70
     3
  9
$DIMFRAC
 70
     0
  9
$DIMLDRBLK
  1

  9
$DIMLUNIT
 70
     2
  9
$DIMLWD
 70
    -2
  9
$DIMLWE
 70
    -2
  9
$DIMTMOVE
 70
     0
  9
$LUNITS
 70
     2
  9
$LUPREC
 70
     2
  9
$SKETCHINC
 40
1.0
  9
$FILLETRAD
 40
10.0
  9
$AUNITS
 70
     0
  9
$AUPREC
 70
     2
  9
$MENU
  1
.
  9
$ELEVATION
 40
0.0
  9
$PELEVATION
 40
0.0
  9
$THICKNESS
 40
0.0
  9
$LIMCHECK
 70
     0
  9
$CHAMFERA
 40
0.0
  9
$CHAMFERB
 40
0.0
  9
$CHAMFERC
 40
0.0
  9
$CHAMFERD
 40
0.0
  9
$SKPOLY
 70
     0
  9
$TDCREATE
 40
2457676.376574664
  9
$TDUCREATE
 40
2457676.293241331
  9
$TDUPDATE
 40
2457676.3765761
  9
$TDUUPDATE
 40
2457676.293242766
  9
$TDINDWG
 40
0.0000000116
  9
$TDUSRTIMER
 40
0.0000000116
  9
$USRTIMER
 70
     1
  9
$ANGBASE
 50
0.0
  9
$ANGDIR
 70
     0
  9
$PDMODE
 70
     0
  9
$PDSIZE
 40
-1.0
  9
$PLINEWID
 40
0.0
  9
$SPLFRAME
 70
     0
  9
$SPLINETYPE
 70
     6
  9
$SPLINESEGS
 70
     8
  9
$HANDSEED
  5
253
  9
$SURFTAB1
 70
     6
  9
$SURFTAB2
 70
     6
  9
$SURFTYPE
 70
     6
  9
$SURFU
 70
     6
  9
$SURFV
 70
     6
  9
$UCSBASE
  2

  9
$UCSNAME
  2

  9
$UCSORG
 10
0.0
 20
0.0
 30
0.0
  9
$UCSXDIR
 10
1.0
 20
0.0
 30
0.0
  9
$UCSYDIR
 10
0.0
 20
1.0
 30
0.0
  9
$UCSORTHOREF
  2

  9
$UCSORTHOVIEW
 70
     0
  9
$UCSORGTOP
 10
0.0
 20
0.0
 30
0.0
  9
$UCSORGBOTTOM
 10
0.0
 20
0.0
 30
0.0
  9
$UCSORGLEFT
 10
0.0
 20
0.0
 30
0.0
  9
$UCSORGRIGHT
 10
0.0
 20
0.0
 30
0.0
  9
$UCSORGFRONT
 10
0.0
 20
0.0
 30
0.0
  9
$UCSORGBACK
 10
0.0
 20
0.0
 30
0.0
  9
$PUCSBASE
  2

  9
$PUCSNAME
  2

  9
$PUCSORG
 10
0.0
 20
0.0
 30
0.0
  9
$PUCSXDIR
 10
1.0
 20
0.0
 30
0.0
  9
$PUCSYDIR
 10
0.0
 20
1.0
 30
0.0
  9
$PUCSORTHOREF
  2

  9
$PUCSORTHOVIEW
 70
     0
  9
$PUCSORGTOP
 10
0.0
 20
0.0
 30
0.0
  9
$PUCSORGBOTTOM
 10
0.0
 20
0.0
 30
0.0
  9
$PUCSORGLEFT
 10
0.0
 20
0.0
 30
0.0
  9
$PUCSORGRIGHT
 10
0.0
 20
0.0
 30
0.0
  9
$PUCSORGFRONT
 10
0.0
 20
0.0
 30
0.0
  9
$PUCSORGBACK
 10
0.0
 20
0.0
 30
0.0
  9
$USERI1
 70
     0
  9
$USERI2
 70
     0
  9
$USERI3
 70
     0
  9
$USERI4
 70
     0
  9
$USERI5
 70
     0
  9
$USERR1
 40
0.0
  9
$USERR2
 40
0.0
  9
$USERR3
 40
0.0
  9
$USERR4
 40
0.0
  9
$USERR5
 40
0.0
  9
$WORLDVIEW
 70
     1
  9
$SHADEDGE
 70
     3
  9
$SHADEDIF
 70
    70
  9
$TILEMODE
 70
     1
  9
$MAXACTVP
 70
    64
  9
$PINSBASE
 10
0.0
 20
0.0
 30
0.0
  9
$PLIMCHECK
 70
     0
  9
$PEXTMIN
 10
1.0000000000E+20
 20
1.0000000000E+20
 30
1.0000000000E+20
  9
$PEXTMAX
 10
-1.0000000000E+20
 20
-1.0000000000E+20
 30
-1.0000000000E+20
  9
$PLIMMIN
 10
0.0
 20
0.0
  9
$PLIMMAX
 10
420.0
 20
297.0
  9
$UNITMODE
 70
     0
  9
$VISRETAIN
 70
     1
  9
$PLINEGEN
 70
     0
  9
$PSLTSCALE
 70
     1
  9
$TREEDEPTH
 70
  3020
  9
$CMLSTYLE
  2
Standard
  9
$CMLJUST
 70
     0
  9
$CMLSCALE
 40
20.0
  9
$PROXYGRAPHICS
 70
     1
  9
$MEASUREMENT
 70
     1
  9
$CELWEIGHT
370
    -1
  9
$ENDCAPS
280
     0
  9
$JOINSTYLE
280
     0
  9
$LWDISPLAY
290
     1
  9
$INSUNITS
 70
     4
  9
$HYPERLINKBASE
  1

  9
$STYLESHEET
  1

  9
$XEDIT
290
     1
  9
$CEPSNTYPE
380
     0
  9
$PSTYLEMODE
290
     1
  9
$FINGERPRINTGUID
  2
{B33FC6CD-0286-4EB7-A2C0-7FBC5F43AA3D}
  9
$VERSIONGUID
  2
{FAEB1C32-E019-11D5-929B-00C0DF256EC4}
  9
$EXTNAMES
290
     1
  9
$PSVPSCALE
 40
0.0
  9
$OLESTARTUP
290
     0
  0
ENDSEC
  0
SECTION
  2
CLASSES
  0
CLASS
  1
ACDBDICTIONARYWDFLT
  2
AcDbDictionaryWithDefault
  3
ObjectDBX Classes
 90
        0
280
     0
281
     0
  0
CLASS
  1
VISUALSTYLE
  2
AcDbVisualStyle
  3
ObjectDBX Classes
 90
     4095
280
     0
281
     0
  0
CLASS
  1
MATERIAL
  2
AcDbMaterial
  3
ObjectDBX Classes
 90
     1153
280
     0
281
     0
  0
CLASS
  1
SCALE
  2
AcDbScale
  3
ObjectDBX Classes
 90
     1153
280
     0
281
     0
  0
CLASS
  1
TABLESTYLE
  2
AcDbTableStyle
  3
ObjectDBX Classes
 90
     4095
280
     0
281
     0
  0
CLASS
  1
MLEADERSTYLE
  2
AcDbMLeaderStyle
  3
ACDB_MLEADERSTYLE_CLASS
 90
     4095
280
     0
281
     0
  0
CLASS
  1
SUN
  2
AcDbSun
  3
SCENEOE
 90
     1153
280
     0
281
     0
  0
CLASS
  1
ACDBPLACEHOLDER
  2
AcDbPlaceHolder
  3
ObjectDBX Classes
 90
        0
280
     0
281
     0
  0
CLASS
  1
LAYOUT
  2
AcDbLayout
  3
ObjectDBX Classes
 90
        0
280
     0
281
     0
  0
ENDSEC
  0
SECTION
  2
TABLES
  0
TABLE
  2
VPORT
  5
8
330
0
100
AcDbSymbolTable
 70
     1
  0
VPORT
  5
29
330
8
100
AcDbSymbolTableRecord
100
AcDbViewportTableRecord
  2
*Active
 70
     0
 10
0.0
 20
0.0
 11
1.0
 21
1.0
 12
148.5
 22
105.0
 13
0.0
 23
0.0
 14
10.0
 24
10.0
 15
10.0
 25
10.0
 16
0.0
 26
0.0
 36
1.0
 17
0.0
 27
0.0
 37
0.0
 40
210.0
 41
1.4142857143
 42
50.0
 43
0.0
 44
0.0
 50
0.0
 51
0.0
 71
     0
 72
  2000
 73
     1
 74
     3
 75
     0
 76
     0
 77
     0
 78
     0
281
     0
 65
     1
110
0.0
120
0.0
130
0.0
111
1.0
121
0.0
131
0.0
112
0.0
122
1.0
132
0.0
 79
     0
146
0.0
  0
ENDTAB
  0
TABLE
  2
LTYPE
  5
5
330
0
100
AcDbSymbolTable
 70
     6
  0
LTYPE
  5
14
330
5
100
AcDbSymbolTableRecord
100
AcDbLinetypeTableRecord
  2
ByBlock
 70
     0
  3

 72
    65
 73
     0
 40
0.0
  0
LTYPE
  5
15
330
5
100
AcDbSymbolTableRecord
100
AcDbLinetypeTableRecord
  2
ByLayer
 70
     0
  3

 72
    65
 73
     0
 40
0.0
  0
LTYPE
  5
16
330
5
100
AcDbSymbolTableRecord
100
AcDbLinetypeTableRecord
  2
Continuous
 70
     0
  3
Solid line
 72
    65
 73
     0
 40
0.0
  0
LTYPE
  5
6E
330
5
100
AcDbSymbolTableRecord
100
AcDbLinetypeTableRecord
  2
HIDDEN
 70
     0
  3
Hidden __ __ __ __ __ __ __ __ __ __ __ __ __ __
 72
    65
 73
     2
 40
1.905
 49
1.27
 74
     0
 49
-0.635
 74
     0
  0
LTYPE
  5
6F
330
5
100
AcDbSymbolTableRecord
100
AcDbLinetypeTableRecord
  2
PHANTOM
 70
     0
  3
Phantom ______  __  __  ______  __  __  ______
 72
    65
 73
     6
 40
12.7
 49
6.35
 74
     0
 49
-1.27
 74
     0
 49
1.27
 74
     0
 49
-1.27
 74
     0
 49
1.27
 74
     0
 49
-1.27
 74
     0
  0
LTYPE
  5
70
330
5
100
AcDbSymbolTableRecord
100
AcDbLinetypeTableRecord
  2
CENTER
 70
     0
  3
Center ____ _ ____ _ ____ _ ____ _ ____ _ ____
 72
    65
 73
     4
 40
10.16
 49
6.35
 74
     0
 49
-1.27
 74
     0
 49
1.27
 74
     0
 49
-1.27
 74
     0
  0
LTYPE
  5
71
330
5
100
AcDbSymbolTableRecord
100
AcDbLinetypeTableRecord
  2
CENTERX2
 70
     0
  3
Center (2x) ________  __  ________  __  _____
 72
    65
 73
     4
 40
20.32
 49
12.7
 74
     0
 49
-2.54
 74
     0
 49
2.54
 74
     0
 49
-2.54
 74
     0
  0
LTYPE
  5
72
330
5
100
AcDbSymbolTableRecord
100
AcDbLinetypeTableRecord
  2
DOT2
 70
     0
  3
Dot (.5x) ........................................
 72
    65
 73
     2
 40
0.635
 49
0.0
 74
     0
 49
-0.635
 74
     0
  0
ENDTAB
  0
TABLE
  2
LAYER
  5
2
330
0
100
AcDbSymbolTable
 70
     5
  0
LAYER
  5
10
330
2
100
AcDbSymbolTableRecord
100
AcDbLayerTableRecord
  2
0
 70
     0
 62
     7
  6
Continuous
370
    -3
390
F
  0
LAYER
  5
73
330
2
100
AcDbSymbolTableRecord
100
AcDbLayerTableRecord
  2
FORMAT
 70
     0
 62
     7
  6
Continuous
370
    -3
390
F
  0
LAYER
  5
74
330
2
100
AcDbSymbolTableRecord
100
AcDbLayerTableRecord
  2
VERMASSUNG
 70
     0
 62
     7
  6
Continuous
370
    -3
390
F
  0
LAYER
  5
75
330
2
100
AcDbSymbolTableRecord
100
AcDbLayerTableRecord
  2
KOPF_DÜNN
 70
     0
 62
     7
  6
Continuous
370
    -3
390
F
  0
LAYER
  5
76
330
2
100
AcDbSymbolTableRecord
100
AcDbLayerTableRecord
  2
KOPF_DICK
 70
     0
 62
     7
  6
Continuous
370
    15
390
F
  0
ENDTAB
  0
TABLE
  2
STYLE
  5
3
330
0
100
AcDbSymbolTable
 70
     2
  0
STYLE
  5
11
330
3
100
AcDbSymbolTableRecord
100
AcDbTextStyleTableRecord
  2
Standard
 70
     0
 40
0.0
 41
1.0
 50
0.0
 71
     0
 42
2.0
  3
txt
  4

  0
STYLE
  5
77
330
3
100
AcDbSymbolTableRecord
100
AcDbTextStyleTableRecord
  2
SLDTEXTSTYLE0
 70
     0
 40
0.0
 41
0.7
 50
0.0
 71
     0
 42
2.0
  3
TXT
  4

  0
ENDTAB
  0
TABLE
  2
VIEW
  5
6
330
0
100
AcDbSymbolTable
 70
     0
  0
ENDTAB
  0
TABLE
  2
UCS
  5
7
330
0
100
AcDbSymbolTable
 70
     0
  0
ENDTAB
  0
TABLE
  2
APPID
  5
9
330
0
100
AcDbSymbolTable
 70
     1
  0
APPID
  5
12
330
9
100
AcDbSymbolTableRecord
100
AcDbRegAppTableRecord
  2
ACAD
 70
     0
  0
ENDTAB
  0
TABLE
  2
DIMSTYLE
  5
A
330
0
100
AcDbSymbolTable
 70
     2
100
AcDbDimStyleTable
  0
DIMSTYLE
105
27
330
A
100
AcDbSymbolTableRecord
100
AcDbDimStyleTableRecord
  2
ISO-25
 70
     0
 41
2.5
 42
0.625
 43
3.75
 44
1.25
 73
     0
 74
     0
 77
     1
 78
     8
140
2.5
141
2.5
143
0.0393700787
147
0.625
171
     3
172
     1
178
     0
271
     2
272
     2
274
     3
278
    44
283
     0
284
     8
340
11
  0
DIMSTYLE
105
1A4
102
{ACAD_REACTORS
330
1A3
330
1B0
330
1BA
330
1C4
330
1CE
330
1D9
102
}
330
A
100
AcDbSymbolTableRecord
100
AcDbDimStyleTableRecord
  2
SLDDIMSTYLE0
 70
     0
 41
3.0
 44
0.0
 45
0.000000001
 73
     0
 74
     0
 77
     1
 78
    12
 79
     3
140
2.0
147
0.5
173
     1
178
     0
271
     2
272
     3
276
     2
284
    12
340
77
  0
ENDTAB
  0
TABLE
  2
BLOCK_RECORD
  5
1
330
0
100
AcDbSymbolTable
 70
     7
  0
BLOCK_RECORD
  5
1F
330
1
100
AcDbSymbolTableRecord
100
AcDbBlockTableRecord
  2
*Model_Space
340
22
  0
BLOCK_RECORD
  5
1B
330
1
100
AcDbSymbolTableRecord
100
AcDbBlockTableRecord
  2
*Paper_Space
340
1E
  0
BLOCK_RECORD
  5
23
330
1
100
AcDbSymbolTableRecord
100
AcDbBlockTableRecord
  2
*Paper_Space0
340
26
  0
BLOCK_RECORD
  5
1A5
330
1
100
AcDbSymbolTableRecord
100
AcDbBlockTableRecord
  2
_D
340
0
  0
BLOCK_RECORD
  5
1B1
330
1
100
AcDbSymbolTableRecord
100
AcDbBlockTableRecord
  2
_D_1
340
0
  0
BLOCK_RECORD
  5
1BB
330
1
100
AcDbSymbolTableRecord
100
AcDbBlockTableRecord
  2
_D_2
340
0
  0
BLOCK_RECORD
  5
1C5
330
1
100
AcDbSymbolTableRecord
100
AcDbBlockTableRecord
  2
_D_3
340
0
  0
BLOCK_RECORD
  5
1CF
330
1
100
AcDbSymbolTableRecord
100
AcDbBlockTableRecord
  2
_D_4
340
0
  0
BLOCK_RECORD
  5
1DA
330
1
100
AcDbSymbolTableRecord
100
AcDbBlockTableRecord
  2
_D_5
340
0
  0
ENDTAB
  0
ENDSEC
  0
SECTION
  2
BLOCKS
  0
BLOCK
  5
20
330
1F
100
AcDbEntity
  8
0
100
AcDbBlockBegin
  2
*Model_Space
 70
     0
 10
0.0
 20
0.0
 30
0.0
  3
*Model_Space
  1

  0
ENDBLK
  5
21
330
1F
100
AcDbEntity
  8
0
100
AcDbBlockEnd
  0
BLOCK
  5
1C
330
1B
100
AcDbEntity
 67
     1
  8
0
100
AcDbBlockBegin
  2
*Paper_Space
 70
     0
 10
0.0
 20
0.0
 30
0.0
  3
*Paper_Space
  1

  0
ENDBLK
  5
1D
330
1B
100
AcDbEntity
 67
     1
  8
0
100
AcDbBlockEnd
  0
BLOCK
  5
24
330
23
100
AcDbEntity
  8
0
100
AcDbBlockBegin
  2
*Paper_Space0
 70
     0
 10
0.0
 20
0.0
 30
0.0
  3
*Paper_Space0
  1

  0
ENDBLK
  5
25
330
23
100
AcDbEntity
  8
0
100
AcDbBlockEnd
  0
BLOCK
  5
1A6
330
1A5
100
AcDbEntity
  8
0
100
AcDbBlockBegin
  2
_D
 70
     0
 10
0.0
 20
0.0
 30
0.0
  3
_D
  1

  0
SOLID
  5
1A8
330
1A5
100
AcDbEntity
  8
VERMASSUNG
100
AcDbTrace
 10
43.8356644765
 20
72.037276828
 30
0.0
 11
44.2856644765
 21
75.037276828
 31
0.0
 12
43.3856644765
 22
75.037276828
 32
0.0
 13
43.3856644765
 23
75.037276828
 33
0.0
  0
SOLID
  5
1A9
330
1A5
100
AcDbEntity
  8
VERMASSUNG
100
AcDbTrace
 10
43.8356644765
 20
172.037276828
 30
0.0
 11
43.3856644765
 21
169.037276828
 31
0.0
 12
44.2856644765
 22
169.037276828
 32
0.0
 13
44.2856644765
 23
169.037276828
 33
0.0
  0
LINE
  5
1AA
330
1A5
100
AcDbEntity
  8
VERMASSUNG
100
AcDbLine
 10
190.7363215311
 20
72.037276828
 30
0.0
 11
42.8356644765
 21
72.037276828
 31
0.0
  0
LINE
  5
1AB
330
1A5
100
AcDbEntity
  8
VERMASSUNG
100
AcDbLine
 10
190.7363215311
 20
172.037276828
 30
0.0
 11
42.8356644765
 21
172.037276828
 31
0.0
  0
LINE
  5
1AC
330
1A5
100
AcDbEntity
  8
VERMASSUNG
100
AcDbLine
 10
43.8356644765
 20
72.037276828
 30
0.0
 11
43.8356644765
 21
172.037276828
 31
0.0
  0
MTEXT
  5
1AD
330
1A5
100
AcDbEntity
  8
VERMASSUNG
100
AcDbMText
 10
41.0575292203
 20
110.833138826
 30
0.0
 40
2.0
 41
0.0
 71
     1
 72
     1
  1
MAS-BT 50
  7
SLDTEXTSTYLE0
 11
3.391901413832837E-15
 21
1.0
 31
0.0
 73
     1
 44
1.0
  0
MTEXT
  5
1AE
330
1A5
100
AcDbEntity
  8
VERMASSUNG
100
AcDbMText
 10
41.2575291716
 20
125.8331384907
 30
0.0
 40
2.0
 41
0.0
 71
     1
 72
     1
  1
%%c
  7
SLDTEXTSTYLE0
 11
3.391901413832837E-15
 21
1.0
 31
0.0
 73
     1
 44
1.0
  0
MTEXT
  5
1AF
330
1A5
100
AcDbEntity
  8
VERMASSUNG
100
AcDbMText
 10
41.2575288805
 20
129.4427289393
 30
0.0
 40
2.0
 41
0.0
 71
     1
 72
     1
  1
100
  7
SLDTEXTSTYLE0
 11
3.391901413832837E-15
 21
1.0
 31
0.0
 73
     1
 44
1.0
  0
ENDBLK
  5
1A7
330
1A5
100
AcDbEntity
  8
0
100
AcDbBlockEnd
  0
BLOCK
  5
1B2
330
1B1
100
AcDbEntity
  8
0
100
AcDbBlockBegin
  2
_D_1
 70
     0
 10
0.0
 20
0.0
 30
0.0
  3
_D_1
  1

  0
SOLID
  5
1B4
330
1B1
100
AcDbEntity
  8
VERMASSUNG
100
AcDbTrace
 10
51.9363215311
 20
189.5709196769
 30
0.0
 11
54.9363215311
 21
189.1209196769
 31
0.0
 12
54.9363215311
 22
190.0209196769
 32
0.0
 13
54.9363215311
 23
190.0209196769
 33
0.0
  0
SOLID
  5
1B5
330
1B1
100
AcDbEntity
  8
VERMASSUNG
100
AcDbTrace
 10
228.7363215311
 20
189.5709196769
 30
0.0
 11
225.7363215311
 21
190.0209196769
 31
0.0
 12
225.7363215311
 22
189.1209196769
 32
0.0
 13
225.7363215311
 23
189.1209196769
 33
0.0
  0
LINE
  5
1B6
330
1B1
100
AcDbEntity
  8
VERMASSUNG
100
AcDbLine
 10
51.9363215311
 20
140.3869546888
 30
0.0
 11
51.9363215311
 21
190.5709196769
 31
0.0
  0
LINE
  5
1B7
330
1B1
100
AcDbEntity
  8
VERMASSUNG
100
AcDbLine
 10
228.7363215311
 20
152.937276828
 30
0.0
 11
228.7363215311
 21
190.5709196769
 31
0.0
  0
LINE
  5
1B8
330
1B1
100
AcDbEntity
  8
VERMASSUNG
100
AcDbLine
 10
51.9363215311
 20
189.5709196769
 30
0.0
 11
228.7363215311
 21
189.5709196769
 31
0.0
  0
MTEXT
  5
1B9
330
1B1
100
AcDbEntity
  8
VERMASSUNG
100
AcDbMText
 10
137.436321568
 20
192.1490552728
 30
0.0
 40
2.0
 41
0.0
 71
     1
 72
     1
  1
176.8
  7
SLDTEXTSTYLE0
 73
     1
 44
1.0
  0
ENDBLK
  5
1B3
330
1B1
100
AcDbEntity
  8
0
100
AcDbBlockEnd
  0
BLOCK
  5
1BC
330
1BB
100
AcDbEntity
  8
0
100
AcDbBlockBegin
  2
_D_2
 70
     0
 10
0.0
 20
0.0
 30
0.0
  3
_D_2
  1

  0
SOLID
  5
1BE
330
1BB
100
AcDbEntity
  8
VERMASSUNG
100
AcDbTrace
 10
153.7363215311
 20
183.5709196769
 30
0.0
 11
156.7363215311
 21
183.1209196769
 31
0.0
 12
156.7363215311
 22
184.0209196769
 32
0.0
 13
156.7363215311
 23
184.0209196769
 33
0.0
  0
SOLID
  5
1BF
330
1BB
100
AcDbEntity
  8
VERMASSUNG
100
AcDbTrace
 10
228.7363215311
 20
183.5709196769
 30
0.0
 11
225.7363215311
 21
184.0209196769
 31
0.0
 12
225.7363215311
 22
183.1209196769
 32
0.0
 13
225.7363215311
 23
183.1209196769
 33
0.0
  0
LINE
  5
1C0
330
1BB
100
AcDbEntity
  8
VERMASSUNG
100
AcDbLine
 10
153.7363215311
 20
156.962276828
 30
0.0
 11
153.7363215311
 21
184.5709196769
 31
0.0
  0
LINE
  5
1C1
330
1BB
100
AcDbEntity
  8
VERMASSUNG
100
AcDbLine
 10
228.7363215311
 20
152.937276828
 30
0.0
 11
228.7363215311
 21
184.5709196769
 31
0.0
  0
LINE
  5
1C2
330
1BB
100
AcDbEntity
  8
VERMASSUNG
100
AcDbLine
 10
153.7363215311
 20
183.5709196769
 30
0.0
 11
228.7363215311
 21
183.5709196769
 31
0.0
  0
MTEXT
  5
1C3
330
1BB
100
AcDbEntity
  8
VERMASSUNG
100
AcDbMText
 10
189.836321581
 20
186.1490552728
 30
0.0
 40
2.0
 41
0.0
 71
     1
 72
     1
  1
75
  7
SLDTEXTSTYLE0
 73
     1
 44
1.0
  0
ENDBLK
  5
1BD
330
1BB
100
AcDbEntity
  8
0
100
AcDbBlockEnd
  0
BLOCK
  5
1C6
330
1C5
100
AcDbEntity
  8
0
100
AcDbBlockBegin
  2
_D_3
 70
     0
 10
0.0
 20
0.0
 30
0.0
  3
_D_3
  1

  0
SOLID
  5
1C8
330
1C5
100
AcDbEntity
  8
VERMASSUNG
100
AcDbTrace
 10
191.7363215311
 20
177.5709196769
 30
0.0
 11
194.7363215311
 21
177.1209196769
 31
0.0
 12
194.7363215311
 22
178.0209196769
 32
0.0
 13
194.7363215311
 23
178.0209196769
 33
0.0
  0
SOLID
  5
1C9
330
1C5
100
AcDbEntity
  8
VERMASSUNG
100
AcDbTrace
 10
228.7363215311
 20
177.5709196769
 30
0.0
 11
225.7363215311
 21
178.0209196769
 31
0.0
 12
225.7363215311
 22
177.1209196769
 32
0.0
 13
225.7363215311
 23
177.1209196769
 33
0.0
  0
LINE
  5
1CA
330
1C5
100
AcDbEntity
  8
VERMASSUNG
100
AcDbLine
 10
191.7363215311
 20
171.037276828
 30
0.0
 11
191.7363215311
 21
178.5709196769
 31
0.0
  0
LINE
  5
1CB
330
1C5
100
AcDbEntity
  8
VERMASSUNG
100
AcDbLine
 10
228.7363215311
 20
152.937276828
 30
0.0
 11
228.7363215311
 21
178.5709196769
 31
0.0
  0
LINE
  5
1CC
330
1C5
100
AcDbEntity
  8
VERMASSUNG
100
AcDbLine
 10
191.7363215311
 20
177.5709196769
 30
0.0
 11
228.7363215311
 21
177.5709196769
 31
0.0
  0
MTEXT
  5
1CD
330
1C5
100
AcDbEntity
  8
VERMASSUNG
100
AcDbMText
 10
208.836321581
 20
180.1490552728
 30
0.0
 40
2.0
 41
0.0
 71
     1
 72
     1
  1
37
  7
SLDTEXTSTYLE0
 73
     1
 44
1.0
  0
ENDBLK
  5
1C7
330
1C5
100
AcDbEntity
  8
0
100
AcDbBlockEnd
  0
BLOCK
  5
1D0
330
1CF
100
AcDbEntity
  8
0
100
AcDbBlockBegin
  2
_D_4
 70
     0
 10
0.0
 20
0.0
 30
0.0
  3
_D_4
  1

  0
SOLID
  5
1D2
330
1CF
100
AcDbEntity
  8
VERMASSUNG
100
AcDbTrace
 10
238.7363215311
 20
140.037276828
 30
0.0
 11
238.2863215311
 21
137.037276828
 31
0.0
 12
239.1863215311
 22
137.037276828
 32
0.0
 13
239.1863215311
 23
137.037276828
 33
0.0
  0
SOLID
  5
1D3
330
1CF
100
AcDbEntity
  8
VERMASSUNG
100
AcDbTrace
 10
238.7363215311
 20
104.037276828
 30
0.0
 11
239.1863215311
 21
107.037276828
 31
0.0
 12
238.2863215311
 22
107.037276828
 32
0.0
 13
238.2863215311
 23
107.037276828
 33
0.0
  0
LINE
  5
1D4
330
1CF
100
AcDbEntity
  8
VERMASSUNG
100
AcDbLine
 10
227.7363215311
 20
140.037276828
 30
0.0
 11
239.7363215311
 21
140.037276828
 31
0.0
  0
LINE
  5
1D5
330
1CF
100
AcDbEntity
  8
VERMASSUNG
100
AcDbLine
 10
227.7363215311
 20
104.037276828
 30
0.0
 11
239.7363215311
 21
104.037276828
 31
0.0
  0
LINE
  5
1D6
330
1CF
100
AcDbEntity
  8
VERMASSUNG
100
AcDbLine
 10
238.7363215311
 20
140.037276828
 30
0.0
 11
238.7363215311
 21
104.037276828
 31
0.0
  0
MTEXT
  5
1D7
330
1CF
100
AcDbEntity
  8
VERMASSUNG
100
AcDbMText
 10
236.1581862262
 20
118.8322768708
 30
0.0
 40
2.0
 41
0.0
 71
     1
 72
     1
  1
%%c
  7
SLDTEXTSTYLE0
 11
-7.044195017643634E-15
 21
1.0
 31
0.0
 73
     1
 44
1.0
  0
MTEXT
  5
1D8
330
1CF
100
AcDbEntity
  8
VERMASSUNG
100
AcDbMText
 10
235.9581862749
 20
122.4422768851
 30
0.0
 40
2.0
 41
0.0
 71
     1
 72
     1
  1
36
  7
SLDTEXTSTYLE0
 11
-7.044195017643634E-15
 21
1.0
 31
0.0
 73
     1
 44
1.0
  0
ENDBLK
  5
1D1
330
1CF
100
AcDbEntity
  8
0
100
AcDbBlockEnd
  0
BLOCK
  5
1DB
330
1DA
100
AcDbEntity
  8
0
100
AcDbBlockBegin
  2
_D_5
 70
     0
 10
0.0
 20
0.0
 30
0.0
  3
_D_5
  1

  0
SOLID
  5
1DD
330
1DA
100
AcDbEntity
  8
VERMASSUNG
100
AcDbTrace
 10
244.7363215311
 20
90.537276828
 30
0.0
 11
245.1863215311
 21
93.537276828
 31
0.0
 12
244.2863215311
 22
93.537276828
 32
0.0
 13
244.2863215311
 23
93.537276828
 33
0.0
  0
SOLID
  5
1DE
330
1DA
100
AcDbEntity
  8
VERMASSUNG
100
AcDbTrace
 10
244.7363215311
 20
153.537276828
 30
0.0
 11
244.2863215311
 21
150.537276828
 31
0.0
 12
245.1863215311
 22
150.537276828
 32
0.0
 13
245.1863215311
 23
150.537276828
 33
0.0
  0
LINE
  5
1DF
330
1DA
100
AcDbEntity
  8
VERMASSUNG
100
AcDbLine
 10
228.1363215311
 20
90.537276828
 30
0.0
 11
245.7363215311
 21
90.537276828
 31
0.0
  0
LINE
  5
1E0
330
1DA
100
AcDbEntity
  8
VERMASSUNG
100
AcDbLine
 10
228.1363215311
 20
153.537276828
 30
0.0
 11
245.7363215311
 21
153.537276828
 31
0.0
  0
LINE
  5
1E1
330
1DA
100
AcDbEntity
  8
VERMASSUNG
100
AcDbLine
 10
244.7363215311
 20
90.537276828
 30
0.0
 11
244.7363215311
 21
153.537276828
 31
0.0
  0
MTEXT
  5
1E2
330
1DA
100
AcDbEntity
  8
VERMASSUNG
100
AcDbMText
 10
241.9581862749
 20
116.9322768388
 30
0.0
 40
2.0
 41
0.0
 71
     1
 72
     1
  1
WH
  7
SLDTEXTSTYLE0
 11
6.123233995736766E-17
 21
1.0
 31
0.0
 73
     1
 44
1.0
  0
MTEXT
  5
1E3
330
1DA
100
AcDbEntity
  8
VERMASSUNG
100
AcDbMText
 10
242.1581862262
 20
120.7322769028
 30
0.0
 40
2.0
 41
0.0
 71
     1
 72
     1
  1
%%c
  7
SLDTEXTSTYLE0
 11
6.123233995736766E-17
 21
1.0
 31
0.0
 73
     1
 44
1.0
  0
MTEXT
  5
1E4
330
1DA
100
AcDbEntity
  8
VERMASSUNG
100
AcDbMText
 10
241.9581862749
 20
124.3422769171
 30
0.0
 40
2.0
 41
0.0
 71
     1
 72
     1
  1
63
  7
SLDTEXTSTYLE0
 11
6.123233995736766E-17
 21
1.0
 31
0.0
 73
     1
 44
1.0
  0
ENDBLK
  5
1DC
330
1DA
100
AcDbEntity
  8
0
100
AcDbBlockEnd
  0
ENDSEC
  0
SECTION
  2
ENTITIES
  0
MTEXT
  5
78
330
1F
100
AcDbEntity
  8
KOPF_DÜNN
100
AcDbMText
 10
13.8892156294
 20
23.8442973028
 30
0.0
 40
3.0
 41
0.0
 71
     1
 72
     1
  1
A34.550.063.104
  7
SLDTEXTSTYLE0
 73
     1
 44
1.0
  0
MTEXT
  5
79
330
1F
100
AcDbEntity
  8
VERMASSUNG
100
AcDbMText
 10
13.9329988022
 20
28.8834360957
 30
0.0
 40
3.0
 41
0.0
 71
     1
 72
     1
  1
Aufnahme_Master shank
  7
SLDTEXTSTYLE0
 73
     1
 44
1.0
  0
MTEXT
  5
7A
330
1F
100
AcDbEntity
  8
VERMASSUNG
100
AcDbMText
 10
98.8601118557
 20
13.8365368761
 30
0.0
 40
2.0
 41
0.0
 71
     1
 72
     1
  1
Datum: 18.11.2011
  7
SLDTEXTSTYLE0
 73
     1
 44
1.0
  0
MTEXT
  5
7B
330
1F
100
AcDbEntity
  8
VERMASSUNG
100
AcDbMText
 10
13.933048693
 20
18.0482802738
 30
0.0
 40
2.0
 41
0.0
 71
     1
 72
     1
  1
MAS-BT A/D
  7
SLDTEXTSTYLE0
 73
     1
 44
1.0
  0
MTEXT
  5
7C
330
1F
100
AcDbEntity
  8
VERMASSUNG
100
AcDbMText
 10
13.9808475933
 20
13.9090974274
 30
0.0
 40
2.0
 41
0.0
 71
     1
 72
     1
  1
Gewicht: 4204g
  7
SLDTEXTSTYLE0
 73
     1
 44
1.0
  0
LINE
  5
7D
330
1F
100
AcDbEntity
  8
0
  6
Continuous
 62
     7
370
    15
100
AcDbLine
 10
187.7360343044
 20
72.037276828
 30
0.0
 11
190.7363215311
 21
72.037276828
 31
0.0
  0
LINE
  5
7E
330
1F
100
AcDbEntity
  8
0
  6
Continuous
 62
     7
370
    15
100
AcDbLine
 10
190.7363215311
 20
172.037276828
 30
0.0
 11
187.7358873502
 21
172.037276828
 31
0.0
  0
ARC
  5
7F
330
1F
100
AcDbEntity
  8
0
  6
Continuous
 62
     7
370
    15
100
AcDbCircle
 10
190.7363215311
 20
73.037276828
 30
0.0
 40
1.000000000000028
100
AcDbArc
 50
270.0
 51
0.0
  0
ARC
  5
80
330
1F
100
AcDbEntity
  8
0
  6
Continuous
 62
     7
370
    15
100
AcDbCircle
 10
190.7363215311
 20
171.037276828
 30
0.0
 40
1.000000000000028
100
AcDbArc
 50
0.0
 51
90.0
  0
ARC
  5
81
330
1F
100
AcDbEntity
  8
0
  6
Continuous
 62
     7
370
    15
100
AcDbCircle
 10
155.7363215311
 20
86.112276828
 30
0.0
 40
1.0
100
AcDbArc
 50
38.7227365094
 51
90.0
  0
ARC
  5
82
330
1F
100
AcDbEntity
  8
0
  6
Continuous
 62
     7
370
    15
100
AcDbCircle
 10
155.7363215311
 20
157.962276828
 30
0.0
 40
1.000000000000021
100
AcDbArc
 50
270.0
 51
321.2876440868
  0
LINE
  5
83
330
1F
100
AcDbEntity
  8
0
  6
Continuous
 62
     7
370
    15
100
AcDbLine
 10
153.7363215311
 20
87.112276828
 30
0.0
 11
155.7363215311
 21
87.112276828
 31
0.0
  0
LINE
  5
84
330
1F
100
AcDbEntity
  8
0
  6
Continuous
 62
     7
370
    15
100
AcDbLine
 10
155.7363215311
 20
156.962276828
 30
0.0
 11
153.7363215311
 21
156.962276828
 31
0.0
  0
LINE
  5
85
330
1F
100
AcDbEntity
  8
0
  6
Continuous
 62
     7
370
    15
100
AcDbLine
 10
153.7363215311
 20
156.962276828
 30
0.0
 11
53.6477077449
 21
142.3660206509
 31
0.0
  0
LINE
  5
86
330
1F
100
AcDbEntity
  8
0
  6
Continuous
 62
     7
370
    15
100
AcDbLine
 10
53.6477077449
 20
101.7085330052
 30
0.0
 11
153.7363215311
 21
87.112276828
 31
0.0
  0
ARC
  5
87
330
1F
100
AcDbEntity
  8
0
  6
Continuous
 62
     7
370
    15
100
AcDbCircle
 10
194.7363215311
 20
87.537276828
 30
0.0
 40
3.0
100
AcDbArc
 50
90.0
 51
180.0
  0
ARC
  5
88
330
1F
100
AcDbEntity
  8
0
  6
Continuous
 62
     7
370
    15
100
AcDbCircle
 10
194.7363215311
 20
156.537276828
 30
0.0
 40
3.0
100
AcDbArc
 50
180.0
 51
270.0
  0
LINE
  5
89
330
1F
100
AcDbEntity
  8
0
  6
Continuous
 62
     7
370
    15
100
AcDbLine
 10
200.6955654956
 20
153.537276828
 30
0.0
 11
194.7363215311
 21
153.537276828
 31
0.0
  0
LINE
  5
8A
330
1F
100
AcDbEntity
  8
0
  6
Continuous
 62
     7
370
    15
100
AcDbLine
 10
228.1363215311
 20
153.537276828
 30
0.0
 11
220.6712836603
 21
153.537276828
 31
0.0
  0
LINE
  5
8B
330
1F
100
AcDbEntity
  8
0
  6
Continuous
 62
     7
370
    15
100
AcDbLine
 10
194.7363215311
 20
90.537276828
 30
0.0
 11
228.1363215311
 21
90.537276828
 31
0.0
  0
LINE
  5
8C
330
1F
100
AcDbEntity
  8
0
  6
Continuous
 62
     7
370
    15
100
AcDbLine
 10
228.1363215311
 20
90.537276828
 30
0.0
 11
228.7363215311
 21
91.137276828
 31
0.0
  0
LINE
  5
8D
330
1F
100
AcDbEntity
  8
0
  6
Continuous
 62
     7
370
    15
100
AcDbLine
 10
228.7363215311
 20
152.937276828
 30
0.0
 11
228.1363215311
 21
153.537276828
 31
0.0
  0
ARC
  5
8E
330
1F
100
AcDbEntity
  8
0
  6
Continuous
 62
     7
370
    15
100
AcDbCircle
 10
53.9363215311
 20
103.6875989673
 30
0.0
 40
2.000000000000007
100
AcDbArc
 50
180.0
 51
261.7028550302
  0
ARC
  5
8F
330
1F
100
AcDbEntity
  8
0
  6
Continuous
 62
     7
370
    15
100
AcDbCircle
 10
53.9363215311
 20
140.3869546888
 30
0.0
 40
2.0
100
AcDbArc
 50
98.2971449698
 51
180.0
  0
SPLINE
  5
90
330
1F
100
AcDbEntity
  8
0
  6
Continuous
 62
     7
370
    15
100
AcDbSpline
210
0.0
220
0.0
230
1.0
 70
     8
 71
     3
 72
    12
 73
     8
 74
     0
 42
0.000000001
 43
0.00000001
 40
0.0
 40
0.0
 40
0.0
 40
0.0
 40
0.4999999999999992
 40
0.4999999999999992
 40
0.7499999999999996
 40
0.7499999999999996
 40
1.0
 40
1.0
 40
1.0
 40
1.0
 10
183.8206011959266
 20
170.2433237797268
 30
0.0
 10
183.2817045008291
 20
169.1856239622257
 30
0.0
 10
182.7193736901094
 20
168.0832555272671
 30
0.0
 10
181.850707447519
 20
166.3832909209044
 30
0.0
 10
181.5563787251764
 20
165.8077725054657
 30
0.0
 10
180.9628477262087
 20
164.6483438370072
 30
0.0
 10
180.6636214680902
 20
164.0643841679259
 30
0.0
 10
180.3621346198369
 20
163.4766742073371
 30
0.0
  0
SPLINE
  5
91
330
1F
100
AcDbEntity
  8
0
  6
Continuous
 62
     7
370
    15
100
AcDbSpline
210
0.0
220
0.0
230
1.0
 70
     8
 71
     3
 72
     9
 73
     5
 74
     0
 42
0.000000001
 43
0.00000001
 40
0.0
 40
0.0
 40
0.0
 40
0.0
 40
0.5047943291262357
 40
1.0
 40
1.0
 40
1.0
 40
1.0
 10
184.4612979364953
 20
171.1973820781132
 30
0.0
 10
184.3529155022688
 20
171.036540517234
 30
0.0
 10
184.1382093774714
 20
170.7179126095917
 30
0.0
 10
183.9257819486522
 20
170.4005383829883
 30
0.0
 10
183.8205866812519
 20
170.2433728661852
 30
0.0
  0
LINE
  5
92
330
1F
100
AcDbEntity
  8
0
  6
Continuous
 62
     7
370
    15
100
AcDbLine
 10
184.4613215311
 20
72.8771155427
 30
0.0
 11
184.4613215311
 21
171.1974381133
 31
0.0
  0
SPLINE
  5
93
330
1F
100
AcDbEntity
  8
0
  6
Continuous
 62
     7
370
    15
100
AcDbSpline
210
0.0
220
0.0
230
1.0
 70
     8
 71
     3
 72
     9
 73
     5
 74
     0
 42
0.000000001
 43
0.00000001
 40
0.0
 40
0.0
 40
0.0
 40
0.0
 40
0.4952056703152484
 40
1.0
 40
1.0
 40
1.0
 40
1.0
 10
183.8205866812519
 20
73.83118078986644
 30
0.0
 10
183.9257819485323
 20
73.67401527324299
 30
0.0
 10
184.138209377349
 20
73.35664104664455
 30
0.0
 10
184.3529155021481
 20
73.03801313899778
 30
0.0
 10
184.4612979364953
 20
72.87717157793838
 30
0.0
  0
SPLINE
  5
94
330
1F
100
AcDbEntity
  8
0
  6
Continuous
 62
     7
370
    15
100
AcDbSpline
210
0.0
220
0.0
230
1.0
 70
     8
 71
     3
 72
    12
 73
     8
 74
     0
 42
0.000000001
 43
0.00000001
 40
0.0
 40
0.0
 40
0.0
 40
0.0
 40
0.2499999999999993
 40
0.2499999999999993
 40
0.4999999999999986
 40
0.4999999999999986
 40
1.0
 40
1.0
 40
1.0
 40
1.0
 10
183.8206011636877
 20
73.8312299396006
 30
0.0
 10
183.5512636423188
 20
74.35986232828525
 30
0.0
 10
183.2754935249248
 20
74.90078698223195
 30
0.0
 10
182.713233238319
 20
76.002843736595
 30
0.0
 10
182.4261478649144
 20
76.5651405758318
 30
0.0
 10
181.555721424195
 20
78.2685358111518
 30
0.0
 10
180.9637114280258
 20
79.4251825822339
 30
0.0
 10
180.3621346198368
 20
80.59787944871452
 30
0.0
  0
SPLINE
  5
95
330
1F
100
AcDbEntity
  8
0
  6
Continuous
 62
     7
370
    15
100
AcDbSpline
210
0.0
220
0.0
230
1.0
 70
     8
 71
     3
 72
    12
 73
     8
 74
     0
 42
0.000000001
 43
0.00000001
 40
0.0
 40
0.0
 40
0.0
 40
0.0
 40
0.0005125153354919
 40
0.2509311781591491
 40
0.5009716914396624
 40
0.7506335204375856
 40
1.0
 40
1.0
 40
1.0
 40
1.0
 10
187.7358873501531
 20
172.0371517858422
 30
0.0
 10
187.7360318068399
 20
172.0371934591595
 30
0.0
 10
187.80675883513
 20
172.057597013747
 30
0.0
 10
187.5634952748538
 20
171.9859853823604
 30
0.0
 10
186.9579706606485
 20
171.8176321738885
 30
0.0
 10
185.9328069762324
 20
171.5402985834329
 30
0.0
 10
184.9516231090076
 20
171.3116798341094
 30
0.0
 10
184.4613215317702
 20
171.1974381133436
 30
0.0
  0
SPLINE
  5
96
330
1F
100
AcDbEntity
  8
0
  6
Continuous
 62
     7
370
    15
100
AcDbSpline
210
0.0
220
0.0
230
1.0
 70
     8
 71
     3
 72
    13
 73
     9
 74
     0
 42
0.000000001
 43
0.00000001
 40
0.0
 40
0.0
 40
0.0
 40
0.0
 40
0.2492492380460214
 40
0.4988437701385547
 40
0.6658825660855477
 40
0.832025671123022
 40
0.9994886337290263
 40
1.0
 40
1.0
 40
1.0
 40
1.0
 10
184.4613215317702
 20
72.87711554270801
 30
0.0
 10
184.9525062551938
 20
72.76262801901596
 30
0.0
 10
185.9355561581261
 20
72.53349436789597
 30
0.0
 10
186.834599582945
 20
72.29028461674758
 30
0.0
 10
187.3929244836257
 20
72.13634740936267
 30
0.0
 10
187.6585957083338
 20
72.06009385051404
 30
0.0
 10
187.767489954353
 20
72.02817966618728
 30
0.0
 10
187.7361297745322
 20
72.0373325801331
 30
0.0
 10
187.7360343043594
 20
72.03736044445915
 30
0.0
  0
LINE
  5
97
330
1F
100
AcDbEntity
  8
0
  6
Continuous
 62
     7
370
    15
100
AcDbLine
 10
191.7363215311
 20
73.037276828
 30
0.0
 11
191.7363215311
 21
171.0372768225
 31
0.0
  0
LINE
  5
98
330
1F
100
AcDbEntity
  8
0
  6
Continuous
 62
     7
370
    15
100
AcDbLine
 10
169.4113215311
 20
170.1423683235
 30
0.0
 11
157.7363215311
 21
170.1423683235
 31
0.0
  0
LINE
  5
99
330
1F
100
AcDbEntity
  8
0
  6
Continuous
 62
     7
370
    15
100
AcDbLine
 10
169.4113215311
 20
73.9321853326
 30
0.0
 11
169.4113215311
 21
170.1423683235
 31
0.0
  0
LINE
  5
9A
330
1F
100
AcDbEntity
  8
0
  6
Continuous
 62
     7
370
    15
100
AcDbLine
 10
157.7363215311
 20
73.9321853326
 30
0.0
 11
169.4113215311
 21
73.9321853326
 31
0.0
  0
SPLINE
  5
9B
330
1F
100
AcDbEntity
  8
0
  6
Continuous
 62
     7
370
    15
100
AcDbSpline
210
0.0
220
0.0
230
1.0
 70
     8
 71
     3
 72
     8
 73
     4
 74
     0
 42
0.000000001
 43
0.00000001
 40
0.0
 40
0.0
 40
0.0
 40
0.0
 40
0.0012417047560385
 40
0.0012417047560385
 40
0.0012417047560385
 40
0.0012417047560385
 10
169.9688905676109
 20
169.3578469819468
 30
0.0
 10
169.7835020163165
 20
169.6195200674954
 30
0.0
 10
169.5976357707086
 20
169.8810241763729
 30
0.0
 10
169.4113215310832
 20
170.1423683234902
 30
0.0
  0
SPLINE
  5
9C
330
1F
100
AcDbEntity
  8
0
  6
Continuous
 62
     7
370
    15
100
AcDbSpline
210
0.0
220
0.0
230
1.0
 70
     8
 71
     3
 72
     8
 73
     4
 74
     0
 42
0.000000001
 43
0.00000001
 40
0.0
 40
0.0
 40
0.0
 40
0.0
 40
1.0
 40
1.0
 40
1.0
 40
1.0
 10
173.5105084423295
 20
162.9675529082088
 30
0.0
 10
172.3355209664266
 20
165.1006296631447
 30
0.0
 10
171.1542744323303
 20
167.2303482290209
 30
0.0
 10
169.9688905676109
 20
169.3578469819468
 30
0.0
  0
SPLINE
  5
9D
330
1F
100
AcDbEntity
  8
0
  6
Continuous
 62
     7
370
    15
100
AcDbSpline
210
0.0
220
0.0
230
1.0
 70
     8
 71
     3
 72
     8
 73
     4
 74
     0
 42
0.000000001
 43
0.00000001
 40
0.0
 40
0.0
 40
0.0
 40
0.0
 40
1.0
 40
1.0
 40
1.0
 40
1.0
 10
173.5105084423295
 20
81.10700074784283
 30
0.0
 10
172.3354716445026
 20
78.97383445369749
 30
0.0
 10
171.1542244370636
 20
76.84411569671582
 30
0.0
 10
169.9688905676109
 20
74.71670667410486
 30
0.0
  0
SPLINE
  5
9E
330
1F
100
AcDbEntity
  8
0
  6
Continuous
 62
     7
370
    15
100
AcDbSpline
210
0.0
220
0.0
230
1.0
 70
     8
 71
     3
 72
     8
 73
     4
 74
     0
 42
0.000000001
 43
0.00000001
 40
0.0
 40
0.0
 40
0.0
 40
0.0
 40
0.0012417047560385
 40
0.0012417047560385
 40
0.0012417047560385
 40
0.0012417047560385
 10
169.4113215310832
 20
73.93218533256145
 30
0.0
 10
169.5976357707086
 20
74.19352947967869
 30
0.0
 10
169.7835020163165
 20
74.45503358855629
 30
0.0
 10
169.9688905676109
 20
74.71670667410486
 30
0.0
  0
LINE
  5
9F
330
1F
100
AcDbEntity
  8
0
  6
Continuous
 62
     7
370
    15
100
AcDbLine
 10
156.7363215311
 20
75.0353885681
 30
0.0
 11
156.7363215311
 21
169.039165088
 31
0.0
  0
SPLINE
  5
A0
330
1F
100
AcDbEntity
  8
0
  6
Continuous
 62
     7
370
    15
100
AcDbSpline
210
0.0
220
0.0
230
1.0
 70
     8
 71
     3
 72
    12
 73
     8
 74
     0
 42
0.000000001
 43
0.00000001
 40
0.0
 40
0.0
 40
0.0
 40
0.0
 40
0.2500000000000001
 40
0.2500000000000001
 40
0.5000000000000002
 40
0.5000000000000002
 40
1.0
 40
1.0
 40
1.0
 40
1.0
 10
157.1224579511329
 20
169.9717105618971
 30
0.0
 10
157.0708278290232
 20
169.9155062911824
 30
0.0
 10
157.0222955960327
 20
169.8542168806621
 30
0.0
 10
156.9324704590748
 20
169.7197548066173
 30
0.0
 10
156.8907601858624
 20
169.6456357363745
 30
0.0
 10
156.7846288057003
 20
169.409328091206
 30
0.0
 10
156.7363215310832
 20
169.2275045485561
 30
0.0
 10
156.7363215310832
 20
169.039165087967
 30
0.0
  0
SPLINE
  5
A1
330
1F
100
AcDbEntity
  8
0
  6
Continuous
 62
     7
370
    15
100
AcDbSpline
210
0.0
220
0.0
230
1.0
 70
     8
 71
     3
 72
     8
 73
     4
 74
     0
 42
0.000000001
 43
0.00000001
 40
0.0
 40
0.0
 40
0.0
 40
0.0
 40
1.0
 40
1.0
 40
1.0
 40
1.0
 10
157.7363215310832
 20
170.1423683234902
 30
0.0
 10
157.5094272873834
 20
170.1423683234902
 30
0.0
 10
157.291577641457
 20
170.0783561565214
 30
0.0
 10
157.1224579511329
 20
169.9717105618971
 30
0.0
  0
SPLINE
  5
A2
330
1F
100
AcDbEntity
  8
0
  6
Continuous
 62
     7
370
    15
100
AcDbSpline
210
0.0
220
0.0
230
1.0
 70
     8
 71
     3
 72
    10
 73
     6
 74
     0
 42
0.000000001
 43
0.00000001
 40
0.0
 40
0.0
 40
0.0
 40
0.0
 40
0.5
 40
0.5
 40
1.0
 40
1.0
 40
1.0
 40
1.0
 10
157.1224579511329
 20
74.10284309415457
 30
0.0
 10
157.2070685918636
 20
74.04948826554187
 30
0.0
 10
157.3023032139702
 20
74.00691880359167
 30
0.0
 10
157.5123405731501
 20
73.94763646891073
 30
0.0
 10
157.6227724779342
 20
73.93218533256143
 30
0.0
 10
157.7363215310832
 20
73.93218533256143
 30
0.0
  0
SPLINE
  5
A3
330
1F
100
AcDbEntity
  8
0
  6
Continuous
 62
     7
370
    15
100
AcDbSpline
210
0.0
220
0.0
230
1.0
 70
     8
 71
     3
 72
    12
 73
     8
 74
     0
 42
0.000000001
 43
0.00000001
 40
0.0
 40
0.0
 40
0.0
 40
0.0
 40
0.2500000000000039
 40
0.2500000000000039
 40
0.5000000000000079
 40
0.5000000000000079
 40
1.0
 40
1.0
 40
1.0
 40
1.0
 10
157.1224579511329
 20
74.10284309415457
 30
0.0
 10
157.0708278290232
 20
74.1590473648692
 30
0.0
 10
157.0222955960327
 20
74.22033677538961
 30
0.0
 10
156.9324704590748
 20
74.3547988494343
 30
0.0
 10
156.8907601858624
 20
74.42891791967712
 30
0.0
 10
156.7846288057003
 20
74.66522556484558
 30
0.0
 10
156.7363215310832
 20
74.84704910749548
 30
0.0
 10
156.7363215310832
 20
75.03538856808458
 30
0.0
  0
SPLINE
  5
A4
330
1F
100
AcDbEntity
  8
0
  6
Continuous
 62
     7
370
    15
100
AcDbSpline
210
0.0
220
0.0
230
1.0
 70
     8
 71
     3
 72
    10
 73
     6
 74
     0
 42
0.000000001
 43
0.00000001
 40
0.0
 40
0.0
 40
0.0
 40
0.0
 40
0.5
 40
0.5
 40
1.0
 40
1.0
 40
1.0
 40
1.0
 10
173.8863215310831
 20
81.45774561387664
 30
0.0
 10
173.8073214628319
 20
81.42198137926876
 30
0.0
 10
173.7335642125553
 20
81.3724917757093
 30
0.0
 10
173.6055090894221
 20
81.25220328420637
 30
0.0
 10
173.5526590550105
 20
81.18352113121702
 30
0.0
 10
173.5105084423295
 20
81.10700074784283
 30
0.0
  0
SPLINE
  5
A5
330
1F
100
AcDbEntity
  8
0
  6
Continuous
 62
     7
370
    15
100
AcDbSpline
210
0.0
220
0.0
230
1.0
 70
     8
 71
     3
 72
    10
 73
     6
 74
     0
 42
0.000000001
 43
0.00000001
 40
0.0
 40
0.0
 40
0.0
 40
0.0
 40
0.5
 40
0.5
 40
1.0
 40
1.0
 40
1.0
 40
1.0
 10
173.8863215310832
 20
162.6168080421749
 30
0.0
 10
173.8070350834004
 20
162.6527019240275
 30
0.0
 10
173.7335228642798
 20
162.7022036338784
 30
0.0
 10
173.6065704114092
 20
162.821251330547
 30
0.0
 10
173.5525045626725
 20
162.8913129908153
 30
0.0
 10
173.5105084423295
 20
162.9675529082088
 30
0.0
  0
SPLINE
  5
A6
330
1F
100
AcDbEntity
  8
0
  6
Continuous
 62
     7
370
    15
100
AcDbSpline
210
0.0
220
0.0
230
1.0
 70
     8
 71
     3
 72
     8
 73
     4
 74
     0
 42
0.000000001
 43
0.00000001
 40
0.0
 40
0.0
 40
0.0
 40
0.0
 40
1.0
 40
1.0
 40
1.0
 40
1.0
 10
174.203328765357
 20
162.5493490236884
 30
0.0
 10
174.0936269800554
 20
162.5484906064891
 30
0.0
 10
173.9862799590709
 20
162.5715557183639
 30
0.0
 10
173.8863215310831
 20
162.6168080421748
 30
0.0
  0
SPLINE
  5
A7
330
1F
100
AcDbEntity
  8
0
  6
Continuous
 62
     7
370
    15
100
AcDbSpline
210
0.0
220
0.0
230
1.0
 70
     8
 71
     3
 72
     8
 73
     4
 74
     0
 42
0.000000001
 43
0.00000001
 40
0.0
 40
0.0
 40
0.0
 40
0.0
 40
1.0
 40
1.0
 40
1.0
 40
1.0
 10
174.203328765357
 20
81.52520463236318
 30
0.0
 10
174.0936269800554
 20
81.52606304956251
 30
0.0
 10
173.9862799590709
 20
81.50299793768771
 30
0.0
 10
173.8863215310831
 20
81.4577456138768
 30
0.0
  0
SPLINE
  5
A8
330
1F
100
AcDbEntity
  8
0
  6
Continuous
 62
     7
370
    15
100
AcDbSpline
210
0.0
220
0.0
230
1.0
 70
     8
 71
     3
 72
    12
 73
     8
 74
     0
 42
0.000000001
 43
0.00000001
 40
0.0
 40
0.0
 40
0.0
 40
0.0
 40
0.2500000000000049
 40
0.2500000000000049
 40
0.5000000000000098
 40
0.5000000000000098
 40
1.0
 40
1.0
 40
1.0
 40
1.0
 10
180.3621346198369
 20
163.4766742073371
 30
0.0
 10
180.3259141984499
 20
163.4060671392373
 30
0.0
 10
180.2829885238021
 20
163.3423325479116
 30
0.0
 10
180.1854619405431
 20
163.2265583716631
 30
0.0
 10
180.1300304209263
 20
163.1740105276516
 30
0.0
 10
179.9515425180222
 20
163.0398619244373
 30
0.0
 10
179.8147056893744
 20
162.9793398223734
 30
0.0
 10
179.66931429681
 20
162.958793238445
 30
0.0
  0
SPLINE
  5
A9
330
1F
100
AcDbEntity
  8
0
  6
Continuous
 62
     7
370
    15
100
AcDbSpline
210
0.0
220
0.0
230
1.0
 70
     8
 71
     3
 72
    12
 73
     8
 74
     0
 42
0.000000001
 43
0.00000001
 40
0.0
 40
0.0
 40
0.0
 40
0.0
 40
0.249999999999999
 40
0.249999999999999
 40
0.499999999999998
 40
0.499999999999998
 40
1.0
 40
1.0
 40
1.0
 40
1.0
 10
180.3621346198369
 20
80.59787944871452
 30
0.0
 10
180.3259141984499
 20
80.66848651681444
 30
0.0
 10
180.282988523802
 20
80.73222110814015
 30
0.0
 10
180.185461940543
 20
80.84799528438857
 30
0.0
 10
180.1300304209263
 20
80.9005431284
 30
0.0
 10
179.9515425180221
 20
81.0346917316144
 30
0.0
 10
179.8147056893744
 20
81.09521383367819
 30
0.0
 10
179.66931429681
 20
81.1157604176066
 30
0.0
  0
SPLINE
  5
AA
330
1F
100
AcDbEntity
  8
0
  6
Continuous
 62
     7
370
    15
100
AcDbSpline
210
0.0
220
0.0
230
1.0
 70
    11
 71
     3
 72
    66
 73
    62
 74
     0
 42
0.000000001
 43
0.00000001
 40
0.0
 40
0.0
 40
0.0
 40
0.0
 40
0.0312499999999999
 40
0.0312499999999999
 40
0.0624999999999999
 40
0.0624999999999999
 40
0.0937499999999998
 40
0.0937499999999998
 40
0.1249999999999997
 40
0.1249999999999997
 40
0.1562499999999997
 40
0.1562499999999997
 40
0.1874999999999996
 40
0.1874999999999996
 40
0.2187499999999995
 40
0.2187499999999995
 40
0.2499999999999994
 40
0.2499999999999994
 40
0.2812499999999994
 40
0.2812499999999994
 40
0.3124999999999993
 40
0.3124999999999993
 40
0.3437499999999992
 40
0.3437499999999992
 40
0.3749999999999992
 40
0.3749999999999992
 40
0.4062499999999991
 40
0.4062499999999991
 40
0.437499999999999
 40
0.437499999999999
 40
0.4687499999999989
 40
0.4687499999999989
 40
0.4999999999999989
 40
0.4999999999999989
 40
0.5312499999999988
 40
0.5312499999999988
 40
0.5624999999999988
 40
0.5624999999999988
 40
0.6249999999999987
 40
0.6249999999999987
 40
0.6562499999999988
 40
0.6562499999999988
 40
0.6874999999999989
 40
0.6874999999999989
 40
0.7187499999999991
 40
0.7187499999999991
 40
0.7499999999999992
 40
0.7499999999999992
 40
0.7812499999999993
 40
0.7812499999999993
 40
0.8124999999999996
 40
0.8124999999999996
 40
0.8437499999999997
 40
0.8437499999999997
 40
0.8749999999999998
 40
0.8749999999999998
 40
0.90625
 40
0.90625
 40
0.9375000000000001
 40
0.9375000000000001
 40
1.0
 40
1.0
 40
1.0
 40
1.0
 10
176.9363215310832
 20
105.1773595171825
 30
0.0
 10
177.1015218217471
 20
105.1773595171825
 30
0.0
 10
177.2639543630436
 20
105.1922655465403
 30
0.0
 10
177.5835125186336
 20
105.2507007252828
 30
0.0
 10
177.7422958566107
 20
105.2949417776585
 30
0.0
 10
178.04503387309
 20
105.410533323081
 30
0.0
 10
178.1886130382244
 20
105.4813092932997
 30
0.0
 10
178.4603427680924
 20
105.6487478252123
 30
0.0
 10
178.5889713316301
 20
105.7462870975329
 30
0.0
 10
178.8195370932973
 20
105.9597054577344
 30
0.0
 10
178.9230110945467
 20
106.0763201097605
 30
0.0
 10
179.1057716324725
 20
106.3300454737802
 30
0.0
 10
179.1834158887011
 20
106.465338332849
 30
0.0
 10
179.3081085393911
 20
106.7456846882406
 30
0.0
 10
179.3561125199696
 20
106.8928055640766
 30
0.0
 10
179.4203442622879
 20
107.1947956684539
 30
0.0
 10
179.43623370633
 20
107.3469194360231
 30
0.0
 10
179.4364086366852
 20
107.6534020788494
 30
0.0
 10
179.4201779853503
 20
107.809387999915
 30
0.0
 10
179.3563967626407
 20
108.1119674688843
 30
0.0
 10
179.3092046512444
 20
108.2593459802765
 30
0.0
 10
179.1840380335865
 20
108.5461346856543
 30
0.0
 10
179.1057785462115
 20
108.6850917871922
 30
0.0
 10
178.9248583628561
 20
108.9426854474602
 30
0.0
 10
178.8215731339323
 20
109.0629779911612
 30
0.0
 10
178.5883213918835
 20
109.2856988088078
 30
0.0
 10
178.461907523618
 20
109.3846767127997
 30
0.0
 10
178.1912352529233
 20
109.5578935674089
 30
0.0
 10
178.0451534807591
 20
109.6328746048856
 30
0.0
 10
177.7422690352862
 20
109.7532027749814
 30
0.0
 10
177.5864386756465
 20
109.7985864624706
 30
0.0
 10
177.266093186381
 20
109.8600127228916
 30
0.0
 10
177.1003831004094
 20
109.8757663444113
 30
0.0
 10
176.7740517117129
 20
109.8758785896668
 30
0.0
 10
176.6118646258859
 20
109.8607463597608
 30
0.0
 10
176.2894890446774
 20
109.7994942465803
 30
0.0
 10
176.1314735706399
 20
109.7534875032051
 30
0.0
 10
175.6800626955643
 20
109.5746067739631
 30
0.0
 10
175.4009832385121
 20
109.3964546666642
 30
0.0
 10
175.0549095340137
 20
109.0669582503772
 30
0.0
 10
174.9492675180991
 20
108.9445854105371
 30
0.0
 10
174.7674840421283
 20
108.6861827064226
 30
0.0
 10
174.6905962187444
 20
108.5499511408743
 30
0.0
 10
174.564941661374
 20
108.2635156789881
 30
0.0
 10
174.5166335854594
 20
108.1132085944126
 30
0.0
 10
174.452815700019
 20
107.8116406643281
 30
0.0
 10
174.4364875229762
 20
107.6587746018636
 30
0.0
 10
174.4361580329165
 20
107.3487594851201
 30
0.0
 10
174.4522545447512
 20
107.1958904847675
 30
0.0
 10
174.5154832820124
 20
106.8968577189926
 30
0.0
 10
174.5633198754229
 20
106.7487921225698
 30
0.0
 10
174.6886631933363
 20
106.4662350844243
 30
0.0
 10
174.7653598678615
 20
106.3326187523005
 30
0.0
 10
174.9464112345133
 20
106.0803288823684
 30
0.0
 10
175.0518868448742
 20
105.9609855733005
 30
0.0
 10
175.2824134135504
 20
105.7473017938157
 30
0.0
 10
175.4081328511807
 20
105.6516418191559
 30
0.0
 10
175.6808997003775
 20
105.4829207501521
 30
0.0
 10
175.8266190767836
 20
105.4110535414989
 30
0.0
 10
176.2776881818916
 20
105.2384024642304
 30
0.0
 10
176.6059209497554
 20
105.1773595171825
 30
0.0
 10
176.9363215310832
 20
105.1773595171825
 30
0.0
  0
SPLINE
  5
AB
330
1F
100
AcDbEntity
  8
0
  6
Continuous
 62
     7
370
    15
100
AcDbSpline
210
0.0
220
0.0
230
1.0
 70
     8
 71
     3
 72
    10
 73
     6
 74
     0
 42
0.000000001
 43
0.00000001
 40
0.0
 40
0.0
 40
0.0
 40
0.0
 40
0.5
 40
0.5
 40
1.0
 40
1.0
 40
1.0
 40
1.0
 10
179.6693142968093
 20
162.9587932384479
 30
0.0
 10
178.8217499300411
 20
162.8390161863868
 30
0.0
 10
177.9410364943191
 20
162.740326006723
 30
0.0
 10
176.1134802431036
 20
162.5990536004859
 30
0.0
 10
175.1600478400023
 20
162.5568353568083
 30
0.0
 10
174.203328765357
 20
162.5493490236884
 30
0.0
  0
SPLINE
  5
AC
330
1F
100
AcDbEntity
  8
0
  6
Continuous
 62
     7
370
    15
100
AcDbSpline
210
0.0
220
0.0
230
1.0
 70
     8
 71
     3
 72
    10
 73
     6
 74
     0
 42
0.000000001
 43
0.00000001
 40
0.0
 40
0.0
 40
0.0
 40
0.0
 40
0.5
 40
0.5
 40
1.0
 40
1.0
 40
1.0
 40
1.0
 10
179.6693142968093
 20
81.11576041760378
 30
0.0
 10
178.8217499300411
 20
81.23553746966482
 30
0.0
 10
177.9410364943191
 20
81.33422764932862
 30
0.0
 10
176.1134802431036
 20
81.47550005556577
 30
0.0
 10
175.1600478400023
 20
81.51771829924337
 30
0.0
 10
174.203328765357
 20
81.52520463236318
 30
0.0
  0
LINE
  5
AD
330
1F
100
AcDbEntity
  8
0
  6
Continuous
 62
     7
370
    15
100
AcDbLine
 10
153.7363215311
 20
87.112276828
 30
0.0
 11
153.7363215311
 21
156.962276828
 31
0.0
  0
SPLINE
  5
AE
330
1F
100
AcDbEntity
  8
0
  6
Continuous
 62
     7
370
    15
100
AcDbSpline
210
0.0
220
0.0
230
1.0
 70
     8
 71
     3
 72
    37
 73
    33
 74
     0
 42
0.000000001
 43
0.00000001
 40
0.0
 40
0.0
 40
0.0
 40
0.0
 40
0.0212851102284642
 40
0.0555497365803009
 40
0.0763175566735726
 40
0.1078953572702614
 40
0.1400052856240845
 40
0.1622174663811568
 40
0.1959428472756538
 40
0.2301676586705047
 40
0.2553930468761081
 40
0.2936951805442652
 40
0.332576121678112
 40
0.3609288514601483
 40
0.4040311638610674
 40
0.4478726727249784
 40
0.4778983446079657
 40
0.5235987183762268
 40
0.570167022479836
 40
0.6004865167585511
 40
0.646659349246765
 40
0.6622684013003299
 40
0.6937790822447896
 40
0.7236165777826568
 40
0.7691319453818015
 40
0.8157080860573078
 40
0.8389233379228185
 40
0.8742248059934133
 40
0.9101932289800637
 40
0.933408479674463
 40
0.968853190901961
 40
1.0
 40
1.0
 40
1.0
 40
1.0
 10
220.6712836603429
 20
153.5336564103532
 30
0.0
 10
220.6721619562077
 20
153.5338661378189
 30
0.0
 10
220.6744541268098
 20
153.5344134831393
 30
0.0
 10
220.548944611017
 20
153.504255550414
 30
0.0
 10
220.3362660100198
 20
153.4540673068079
 30
0.0
 10
220.0472396426363
 20
153.3871531659457
 30
0.0
 10
219.6652302520377
 20
153.3018556624761
 30
0.0
 10
219.20327751088
 20
153.2029307810431
 30
0.0
 10
218.6615365587386
 20
153.0924174278393
 30
0.0
 10
218.0262760689957
 20
152.9722991375818
 30
0.0
 10
217.3002475715122
 20
152.8459461106569
 30
0.0
 10
216.4793808227123
 20
152.7170039201182
 30
0.0
 10
215.5713359645696
 20
152.5954469018351
 30
0.0
 10
214.5769709540888
 20
152.4842847190791
 30
0.0
 10
213.4954053056562
 20
152.3896132194323
 30
0.0
 10
212.3623787393012
 20
152.3261947944582
 30
0.0
 10
211.1880095110781
 20
152.2930832194242
 30
0.0
 10
209.9785385722241
 20
152.2937158201952
 30
0.0
 10
208.7758541642611
 20
152.3366406932417
 30
0.0
 10
207.5938740560262
 20
152.4123651376893
 30
0.0
 10
206.7340353260764
 20
152.4913132759657
 30
0.0
 10
205.8951705126293
 20
152.5855862848852
 30
0.0
 10
205.2242695171869
 20
152.671477446568
 30
0.0
 10
204.3397925189396
 20
152.8014548708059
 30
0.0
 10
203.4063315995335
 20
152.9592097702832
 30
0.0
 10
202.6324384876901
 20
153.1079902707544
 30
0.0
 10
202.0193558947309
 20
153.2343748559716
 30
0.0
 10
201.5433873971013
 20
153.3378085872008
 30
0.0
 10
201.1704481063924
 20
153.422831821981
 30
0.0
 10
200.8957644810362
 20
153.487087365101
 30
0.0
 10
200.7176295529019
 20
153.5297129082234
 30
0.0
 10
200.7025967696626
 20
153.5333520058345
 30
0.0
 10
200.6955654955984
 20
153.5350541186265
 30
0.0
  0
SPLINE
  5
AF
330
1F
100
AcDbEntity
  8
0
  6
Continuous
 62
     7
370
    15
100
AcDbSpline
210
0.0
220
0.0
230
1.0
 70
    11
 71
     3
 72
    94
 73
    90
 74
     0
 42
0.000000001
 43
0.00000001
 40
0.0
 40
0.0
 40
0.0
 40
0.0
 40
0.0312500000000007
 40
0.0312500000000007
 40
0.0468750000000011
 40
0.0468750000000011
 40
0.0625000000000014
 40
0.0625000000000014
 40
0.0937500000000025
 40
0.0937500000000025
 40
0.109375000000003
 40
0.109375000000003
 40
0.1250000000000035
 40
0.1250000000000035
 40
0.1562500000000042
 40
0.1562500000000042
 40
0.1718750000000047
 40
0.1718750000000047
 40
0.1875000000000052
 40
0.1875000000000052
 40
0.2187500000000062
 40
0.2187500000000062
 40
0.2343750000000064
 40
0.2343750000000064
 40
0.2500000000000066
 40
0.2500000000000066
 40
0.2812500000000064
 40
0.2812500000000064
 40
0.2968750000000064
 40
0.2968750000000064
 40
0.3125000000000063
 40
0.3125000000000063
 40
0.3437500000000062
 40
0.3437500000000062
 40
0.3593750000000061
 40
0.3593750000000061
 40
0.3750000000000062
 40
0.3750000000000062
 40
0.3906250000000062
 40
0.3906250000000062
 40
0.4062500000000061
 40
0.4062500000000061
 40
0.4375000000000061
 40
0.4375000000000061
 40
0.453125000000006
 40
0.453125000000006
 40
0.4687500000000059
 40
0.4687500000000059
 40
0.5000000000000056
 40
0.5000000000000056
 40
0.5312500000000052
 40
0.5312500000000052
 40
0.546875000000005
 40
0.546875000000005
 40
0.5625000000000048
 40
0.5625000000000048
 40
0.5937500000000044
 40
0.5937500000000044
 40
0.625000000000004
 40
0.625000000000004
 40
0.6562500000000037
 40
0.6562500000000037
 40
0.6875000000000033
 40
0.6875000000000033
 40
0.7187500000000029
 40
0.7187500000000029
 40
0.7500000000000026
 40
0.7500000000000026
 40
0.7812500000000022
 40
0.7812500000000022
 40
0.8125000000000018
 40
0.8125000000000018
 40
0.8281250000000018
 40
0.8281250000000018
 40
0.8437500000000017
 40
0.8437500000000017
 40
0.8750000000000013
 40
0.8750000000000013
 40
0.906250000000001
 40
0.906250000000001
 40
0.9218750000000008
 40
0.9218750000000008
 40
0.9375000000000007
 40
0.9375000000000007
 40
0.9531250000000004
 40
0.9531250000000004
 40
0.9687500000000002
 40
0.9687500000000002
 40
1.0
 40
1.0
 40
1.0
 40
1.0
 10
204.0355612883043
 20
128.561940501121
 30
0.0
 10
204.5209865302525
 20
128.9418800492743
 30
0.0
 10
205.0344600386621
 20
129.2706230903351
 30
0.0
 10
205.8432435897045
 20
129.6947486611481
 30
0.0
 10
206.119323130525
 20
129.8245196411289
 30
0.0
 10
206.6844602708356
 20
130.0610479271166
 30
0.0
 10
206.9747817798333
 20
130.1681918827913
 30
0.0
 10
207.8562714973273
 20
130.4514769644911
 30
0.0
 10
208.4534478702342
 20
130.5889269270673
 30
0.0
 10
209.3629664877615
 20
130.7216306851944
 30
0.0
 10
209.6684460448674
 20
130.7535365621424
 30
0.0
 10
210.2840965861245
 20
130.7923403242634
 30
0.0
 10
210.5956316549026
 20
130.7991470578357
 30
0.0
 10
211.5220419890464
 20
130.781250165769
 30
0.0
 10
212.1316647753133
 20
130.7191931881959
 30
0.0
 10
213.0343773395469
 20
130.5521359844231
 30
0.0
 10
213.3333168952757
 20
130.4840462128902
 30
0.0
 10
213.9271697926295
 20
130.3223060000883
 30
0.0
 10
214.2232447994598
 20
130.2281403564996
 30
0.0
 10
215.0892653546663
 20
129.9114285977728
 30
0.0
 10
215.641334899183
 20
129.6543062626671
 30
0.0
 10
216.4313896319224
 20
129.1981524430573
 30
0.0
 10
216.6883583798593
 20
129.0342775210552
 30
0.0
 10
217.1889402743497
 20
128.6815356786424
 30
0.0
 10
217.4334401555942
 20
128.4917445536228
 30
0.0
 10
218.1303017468653
 20
127.8953262888818
 30
0.0
 10
218.5512205539756
 20
127.4591433673949
 30
0.0
 10
219.1137587298877
 20
126.7429013905647
 30
0.0
 10
219.2897128162013
 20
126.4937504076361
 30
0.0
 10
219.6166699944198
 20
125.9728076101553
 30
0.0
 10
219.7673421244751
 20
125.7009166538801
 30
0.0
 10
220.1669916239629
 20
124.8733562164092
 30
0.0
 10
220.3692161751646
 20
124.2985270797682
 30
0.0
 10
220.5696757459154
 20
123.398904442528
 30
0.0
 10
220.6193874257634
 20
123.0902586415393
 30
0.0
 10
220.6801333416076
 20
122.4729858627806
 30
0.0
 10
220.6914530476819
 20
122.1651843674684
 30
0.0
 10
220.6769645324864
 20
121.5512090908758
 30
0.0
 10
220.651154436667
 20
121.2450353901397
 30
0.0
 10
220.5621620496578
 20
120.634324577468
 30
0.0
 10
220.4983130069664
 20
120.327836158145
 30
0.0
 10
220.2551831913606
 20
119.4325190642751
 30
0.0
 10
220.025360082332
 20
118.8634714082357
 30
0.0
 10
219.5857599076746
 20
118.0484793667817
 30
0.0
 10
219.4233912655613
 20
117.7839880681812
 30
0.0
 10
219.0750736172954
 20
117.2788324857772
 30
0.0
 10
218.888331687364
 20
117.0366275934999
 30
0.0
 10
218.2921189636023
 20
116.3394255714785
 30
0.0
 10
217.8423430108408
 20
115.9106203372056
 30
0.0
 10
216.8808795187138
 20
115.1531300829394
 30
0.0
 10
216.3678798953413
 20
114.8214064762748
 30
0.0
 10
215.5516342343273
 20
114.3905767902361
 30
0.0
 10
215.2710285035591
 20
114.258030255012
 30
0.0
 10
214.7040854200351
 20
114.0196105177851
 30
0.0
 10
214.4166162096174
 20
113.9130696378173
 30
0.0
 10
213.5425205010534
 20
113.6301907487321
 30
0.0
 10
212.9442993036855
 20
113.4902849984554
 30
0.0
 10
211.7161113158925
 20
113.3091224844861
 30
0.0
 10
211.0995568853447
 20
113.2701612999178
 30
0.0
 10
209.8726091872915
 20
113.2919208293526
 30
0.0
 10
209.260404448155
 20
113.3523662782934
 30
0.0
 10
208.0386446881151
 20
113.5772752020509
 30
0.0
 10
207.4458505443137
 20
113.7387305543043
 30
0.0
 10
206.2982939474743
 20
114.1569517941591
 30
0.0
 10
205.7427867587547
 20
114.4138530780972
 30
0.0
 10
204.67223443346
 20
115.0314928649939
 30
0.0
 10
204.1737810407641
 20
115.3826290597066
 30
0.0
 10
203.2507222216381
 20
116.1714744298057
 30
0.0
 10
202.8246617078957
 20
116.6107476458698
 30
0.0
 10
202.0622073711747
 20
117.58261038187
 30
0.0
 10
201.7367142338987
 20
118.1007581426436
 30
0.0
 10
201.3368823317512
 20
118.929839362081
 30
0.0
 10
201.2181297626763
 20
119.2158563066615
 30
0.0
 10
201.0142128003605
 20
119.8027977675891
 30
0.0
 10
200.9304300800003
 20
120.0994214269353
 30
0.0
 10
200.732974580022
 20
120.998675144528
 30
0.0
 10
200.6725940566105
 20
121.6119537671379
 30
0.0
 10
200.7052441218492
 20
122.8597290461825
 30
0.0
 10
200.7972773837776
 20
123.4685771380521
 30
0.0
 10
201.0418758943843
 20
124.3607668548071
 30
0.0
 10
201.142130614043
 20
124.6564346352683
 30
0.0
 10
201.3745690684588
 20
125.2301006658986
 30
0.0
 10
201.5063810228792
 20
125.5079919044503
 30
0.0
 10
201.7993442164067
 20
126.0470500930698
 30
0.0
 10
201.9605023073748
 20
126.308212953129
 30
0.0
 10
202.3114074248257
 20
126.8143600595096
 30
0.0
 10
202.501719524651
 20
127.0597603411368
 30
0.0
 10
203.1036020888453
 20
127.7589357788583
 30
0.0
 10
203.5501360463562
 20
128.1820009529677
 30
0.0
 10
204.0355612883043
 20
128.561940501121
 30
0.0
  0
LINE
  5
B0
330
1F
100
AcDbEntity
  8
0
  6
Continuous
 62
     7
370
    15
100
AcDbLine
 10
228.1363215311
 20
122.037276828
 30
0.0
 11
228.1363215311
 21
90.537276828
 31
0.0
  0
LINE
  5
B1
330
1F
100
AcDbEntity
  8
0
  6
Continuous
 62
     7
370
    15
100
AcDbLine
 10
228.1363215311
 20
153.537276828
 30
0.0
 11
228.1363215311
 21
122.037276828
 31
0.0
  0
LINE
  5
B2
330
1F
100
AcDbEntity
  8
0
  6
Continuous
 62
     7
370
    15
100
AcDbLine
 10
228.7363215311
 20
122.037276828
 30
0.0
 11
228.7363215311
 21
91.137276828
 31
0.0
  0
LINE
  5
B3
330
1F
100
AcDbEntity
  8
0
  6
Continuous
 62
     7
370
    15
100
AcDbLine
 10
228.7363215311
 20
152.937276828
 30
0.0
 11
228.7363215311
 21
122.037276828
 31
0.0
  0
CIRCLE
  5
B4
330
1F
100
AcDbEntity
  8
0
  6
Continuous
 62
     7
370
    15
100
AcDbCircle
 10
210.6863215311
 20
122.037276828
 30
0.0
 40
7.25
  0
LINE
  5
B5
330
1F
100
AcDbEntity
  8
0
  6
Continuous
 62
     7
370
    15
100
AcDbLine
 10
51.9363215311
 20
103.6875989673
 30
0.0
 11
51.9363215311
 21
140.3869546342
 31
0.0
  0
SPLINE
  5
B6
330
1F
100
AcDbEntity
  8
0
  6
Continuous
 62
     7
370
    15
100
AcDbSpline
210
0.0
220
0.0
230
1.0
 70
    24
 71
     3
 72
    11
 73
     7
 74
     0
 42
0.000000001
 43
0.00000001
 40
0.0
 40
0.0
 40
0.0
 40
0.0
 40
0.2164567244934126
 40
0.4403141600939157
 40
0.7519028444798614
 40
0.9999999999999999
 40
0.9999999999999999
 40
0.9999999999999999
 40
0.9999999999999999
 10
212.4217527307805
 20
117.7569016243257
 30
0.0
 10
212.6162417824467
 20
118.0064601215804
 30
0.0
 10
213.0118695164998
 20
118.514109585325
 30
0.0
 10
213.7460468104352
 20
119.4561686916002
 30
0.0
 10
214.5335788754807
 20
120.4666899369294
 30
0.0
 10
215.0375505684252
 20
121.1133608794457
 30
0.0
 10
215.2609507950651
 20
121.4000167316337
 30
0.0
  0
SPLINE
  5
B7
330
1F
100
AcDbEntity
  8
0
  6
Continuous
 62
     7
370
    15
100
AcDbSpline
210
0.0
220
0.0
230
1.0
 70
    24
 71
     3
 72
    11
 73
     7
 74
     0
 42
0.000000001
 43
0.00000001
 40
0.0
 40
0.0
 40
0.0
 40
0.0
 40
0.2164567244934145
 40
0.440314160093912
 40
0.7519028444798579
 40
1.0
 40
1.0
 40
1.0
 40
1.0
 10
215.2609507950651
 20
121.4000167316337
 30
0.0
 10
215.1420713225454
 20
121.693228439762
 30
0.0
 10
214.9002478577516
 20
122.2896768397659
 30
0.0
 10
214.4514893868185
 20
123.3965225803332
 30
0.0
 10
213.9701183498223
 20
124.5838059776222
 30
0.0
 10
213.6620707321861
 20
125.3435937377584
 30
0.0
 10
213.5255195953678
 20
125.6803919353338
 30
0.0
  0
SPLINE
  5
B8
330
1F
100
AcDbEntity
  8
0
  6
Continuous
 62
     7
370
    15
100
AcDbSpline
210
0.0
220
0.0
230
1.0
 70
    24
 71
     3
 72
    11
 73
     7
 74
     0
 42
0.000000001
 43
0.00000001
 40
0.0
 40
0.0
 40
0.0
 40
0.0
 40
0.1845133558519201
 40
0.5180565039163927
 40
0.8676122830485034
 40
1.0
 40
1.0
 40
1.0
 40
1.0
 10
213.5255195953678
 20
125.6803919353338
 30
0.0
 10
213.2598476966324
 20
125.7174008578119
 30
0.0
 10
212.5139230755544
 20
125.8213104794444
 30
0.0
 10
211.1235395775582
 20
126.0149952287052
 30
0.0
 10
209.8315984215964
 20
126.1949666532889
 30
0.0
 10
209.1406819794248
 20
126.2912134643701
 30
0.0
 10
208.9508903313859
 20
126.3176520317259
 30
0.0
  0
SPLINE
  5
B9
330
1F
100
AcDbEntity
  8
0
  6
Continuous
 62
     7
370
    15
100
AcDbSpline
210
0.0
220
0.0
230
1.0
 70
    24
 71
     3
 72
    11
 73
     7
 74
     0
 42
0.000000001
 43
0.00000001
 40
0.0
 40
0.0
 40
0.0
 40
0.0
 40
0.2164567244934091
 40
0.4403141600939159
 40
0.7519028444798596
 40
1.0
 40
1.0
 40
1.0
 40
1.0
 10
208.9508903313859
 20
126.3176520317259
 30
0.0
 10
208.7564012797197
 20
126.0680935344712
 30
0.0
 10
208.3607735456667
 20
125.5604440707266
 30
0.0
 10
207.6265962517312
 20
124.6183849644515
 30
0.0
 10
206.8390641866857
 20
123.6078637191222
 30
0.0
 10
206.3350924937412
 20
122.9611927766059
 30
0.0
 10
206.1116922671013
 20
122.6745369244179
 30
0.0
  0
SPLINE
  5
BA
330
1F
100
AcDbEntity
  8
0
  6
Continuous
 62
     7
370
    15
100
AcDbSpline
210
0.0
220
0.0
230
1.0
 70
    24
 71
     3
 72
    11
 73
     7
 74
     0
 42
0.000000001
 43
0.00000001
 40
0.0
 40
0.0
 40
0.0
 40
0.0
 40
0.2164567244934136
 40
0.4403141600939109
 40
0.7519028444798643
 40
1.0
 40
1.0
 40
1.0
 40
1.0
 10
206.1116922671013
 20
122.6745369244179
 30
0.0
 10
206.230571739621
 20
122.3813252162897
 30
0.0
 10
206.4723952044148
 20
121.7848768162857
 30
0.0
 10
206.9211536753479
 20
120.6780310757184
 30
0.0
 10
207.4025247123442
 20
119.4907476784295
 30
0.0
 10
207.7105723299803
 20
118.7309599182932
 30
0.0
 10
207.8471234667986
 20
118.3941617207178
 30
0.0
  0
SPLINE
  5
BB
330
1F
100
AcDbEntity
  8
0
  6
Continuous
 62
     7
370
    15
100
AcDbSpline
210
0.0
220
0.0
230
1.0
 70
    24
 71
     3
 72
    11
 73
     7
 74
     0
 42
0.000000001
 43
0.00000001
 40
0.0
 40
0.0
 40
0.0
 40
0.0
 40
0.1323877169514902
 40
0.4819434960836023
 40
0.8154866441480855
 40
1.0
 40
1.0
 40
1.0
 40
1.0
 10
207.8471234667986
 20
118.3941617207178
 30
0.0
 10
208.0369151148375
 20
118.367723153362
 30
0.0
 10
208.727831557009
 20
118.2714763422808
 30
0.0
 10
210.0197727129708
 20
118.091504917697
 30
0.0
 10
211.4101562109671
 20
117.8978201684364
 30
0.0
 10
212.1560808320451
 20
117.7939105468038
 30
0.0
 10
212.4217527307805
 20
117.7569016243257
 30
0.0
  0
CIRCLE
  5
BC
330
1F
100
AcDbEntity
  8
0
  6
Continuous
 62
     7
370
    15
100
AcDbCircle
 10
210.6863215311
 20
122.037276828
 30
0.0
 40
4.699999999999992
  0
CIRCLE
  5
BD
330
1F
100
AcDbEntity
  8
0
  6
Continuous
 62
     7
370
    15
100
AcDbCircle
 10
210.6863215311
 20
122.037276828
 30
0.0
 40
7.000000000000018
  0
ARC
  5
BE
330
1F
100
AcDbEntity
  8
0
  6
Continuous
 62
     7
370
    15
100
AcDbCircle
 10
210.6863215311
 20
122.037276828
 30
0.0
 40
4.000000000000013
100
AcDbArc
 50
142.0695544841
 51
202.0695544841
  0
ARC
  5
BF
330
1F
100
AcDbEntity
  8
0
  6
Continuous
 62
     7
370
    15
100
AcDbCircle
 10
210.6863215311
 20
122.037276828
 30
0.0
 40
4.000000000000013
100
AcDbArc
 50
82.0695544841
 51
142.0695544841
  0
ARC
  5
C0
330
1F
100
AcDbEntity
  8
0
  6
Continuous
 62
     7
370
    15
100
AcDbCircle
 10
210.6863215311
 20
122.037276828
 30
0.0
 40
4.000000000000015
100
AcDbArc
 50
22.0695544841
 51
82.0695544841
  0
ARC
  5
C1
330
1F
100
AcDbEntity
  8
0
  6
Continuous
 62
     7
370
    15
100
AcDbCircle
 10
210.6863215311
 20
122.037276828
 30
0.0
 40
3.999999999999989
100
AcDbArc
 50
202.0695544841
 51
262.0695544841
  0
ARC
  5
C2
330
1F
100
AcDbEntity
  8
0
  6
Continuous
 62
     7
370
    15
100
AcDbCircle
 10
210.6863215311
 20
122.037276828
 30
0.0
 40
4.000000000000036
100
AcDbArc
 50
262.0695544841
 51
322.0695544841
  0
ARC
  5
C3
330
1F
100
AcDbEntity
  8
0
  6
Continuous
 62
     7
370
    15
100
AcDbCircle
 10
210.6863215311
 20
122.037276828
 30
0.0
 40
4.000000000000036
100
AcDbArc
 50
322.0695544841
 51
22.0695544841
  0
SPLINE
  5
C4
330
1F
100
AcDbEntity
  8
0
  6
HIDDEN
 62
     7
370
     0
100
AcDbSpline
210
0.0
220
0.0
230
1.0
 70
     8
 71
     3
 72
     9
 73
     5
 74
     0
 42
0.000000001
 43
0.00000001
 40
0.0
 40
0.0
 40
0.0
 40
0.0
 40
0.3267154957258129
 40
1.0
 40
1.0
 40
1.0
 40
1.0
 10
186.3602889886941
 20
72.41351639185037
 30
0.0
 10
186.2034961154269
 20
72.45559861954507
 30
0.0
 10
185.723589666794
 20
72.58440251236692
 30
0.0
 10
184.96937813319
 20
72.75942915875405
 30
0.0
 10
184.4615791946696
 20
72.87727188760157
 30
0.0
  0
LWPOLYLINE
  5
C5
330
1F
100
AcDbEntity
  8
0
  6
HIDDEN
 62
     7
370
     0
100
AcDbPolyline
 90
       23
 70
   128
 43
0.0
 10
157.0057086429
 20
108.0081220254
 10
157.1907029589
 20
107.1753747246
 10
157.4766098835
 20
106.4100916575
 10
157.8402669383
 20
105.774271507
 10
158.2522127912
 20
105.3194246403
 10
158.6790740393
 20
105.0824000454
 10
159.086268923
 20
105.0824000454
 10
159.4408089343
 20
105.3194246403
 10
159.7139713501
 20
105.774271507
 10
159.8836261761
 20
106.4100916575
 10
159.9360289871
 20
107.1753747246
 10
159.8669344192
 20
108.0081220254
 10
159.6819401033
 20
108.8408693263
 10
159.3960331786
 20
109.6061523933
 10
159.0323761239
 20
110.2419725439
 10
158.6204302709
 20
110.6968194106
 10
158.1935690228
 20
110.9338440055
 10
157.7863741392
 20
110.9338440055
 10
157.4318341279
 20
110.6968194106
 10
157.1586717121
 20
110.2419725439
 10
156.9890168861
 20
109.6061523933
 10
156.936614075
 20
108.8408693263
 10
157.0057086429
 20
108.0081220254
  0
LWPOLYLINE
  5
C6
330
1F
100
AcDbEntity
  8
0
  6
HIDDEN
 62
     7
370
     0
100
AcDbPolyline
 90
       20
 70
   128
 43
0.0
 10
157.7185792316
 20
108.0641403437
 10
157.8753333732
 20
107.3923158776
 10
158.1236211446
 20
106.7932940167
 10
158.436536713
 20
106.3319880747
 10
158.7801708214
 20
106.0583877081
 10
159.117285382
 20
106.002141762
 10
159.4113488014
 20
106.1693453574
 10
159.630494745
 20
106.5418793904
 10
159.7509753497
 20
107.079374018
 10
159.7597346723
 20
107.7235833572
 10
159.6558235044
 20
108.4046973302
 10
159.4505022334
 20
109.0489066694
 10
159.1660206049
 20
109.586401297
 10
158.8332066174
 20
109.95893533
 10
158.4881258308
 20
110.1261389254
 10
158.1681731027
 20
110.0698929793
 10
157.9080202757
 20
109.7962926127
 10
157.7358589454
 20
109.3349866707
 10
157.6703454632
 20
108.7359648098
 10
157.7185792316
 20
108.0641403437
  0
SPLINE
  5
C7
330
1F
100
AcDbEntity
  8
0
  6
HIDDEN
 62
     7
370
     0
100
AcDbSpline
210
0.0
220
0.0
230
1.0
 70
    11
 71
     3
 72
    66
 73
    62
 74
     0
 42
0.000000001
 43
0.00000001
 40
0.0
 40
0.0
 40
0.0
 40
0.0
 40
0.0312500000000002
 40
0.0312500000000002
 40
0.0625000000000004
 40
0.0625000000000004
 40
0.0937500000000006
 40
0.0937500000000006
 40
0.1250000000000007
 40
0.1250000000000007
 40
0.1875000000000007
 40
0.1875000000000007
 40
0.2187500000000006
 40
0.2187500000000006
 40
0.2500000000000006
 40
0.2500000000000006
 40
0.2812500000000006
 40
0.2812500000000006
 40
0.3125000000000007
 40
0.3125000000000007
 40
0.3437500000000006
 40
0.3437500000000006
 40
0.3750000000000006
 40
0.3750000000000006
 40
0.4062500000000006
 40
0.4062500000000006
 40
0.4375000000000005
 40
0.4375000000000005
 40
0.4687500000000005
 40
0.4687500000000005
 40
0.5000000000000004
 40
0.5000000000000004
 40
0.5312500000000004
 40
0.5312500000000004
 40
0.5625000000000003
 40
0.5625000000000003
 40
0.5937500000000003
 40
0.5937500000000003
 40
0.6250000000000003
 40
0.6250000000000003
 40
0.6562500000000002
 40
0.6562500000000002
 40
0.6875000000000002
 40
0.6875000000000002
 40
0.7187500000000002
 40
0.7187500000000002
 40
0.7500000000000001
 40
0.7500000000000001
 40
0.8125000000000002
 40
0.8125000000000002
 40
0.8437500000000002
 40
0.8437500000000002
 40
0.8750000000000001
 40
0.8750000000000001
 40
0.9062500000000001
 40
0.9062500000000001
 40
0.9375000000000001
 40
0.9375000000000001
 40
0.96875
 40
0.96875
 40
1.0
 40
1.0
 40
1.0
 40
1.0
 10
176.9363215310832
 20
117.8225456355879
 30
0.0
 10
176.7691161446369
 20
117.822545635588
 30
0.0
 10
176.6051387555182
 20
117.8355143186088
 30
0.0
 10
176.2832226251406
 20
117.8863581192077
 30
0.0
 10
176.1236168401852
 20
117.9249311574769
 30
0.0
 10
175.8220491716566
 20
118.0253458718807
 30
0.0
 10
175.6793238050577
 20
118.0869775209227
 30
0.0
 10
175.4091752042183
 20
118.2343066406901
 30
0.0
 10
175.2829993608908
 20
118.3196739939231
 30
0.0
 10
174.9412539401514
 20
118.6045902451179
 30
0.0
 10
174.7556519720303
 20
118.8397560531997
 30
0.0
 10
174.5672467953219
 20
119.2378064946708
 30
0.0
 10
174.5181085660478
 20
119.3808442157322
 30
0.0
 10
174.4529355350268
 20
119.6758241491634
 30
0.0
 10
174.4365161980184
 20
119.8271374177258
 30
0.0
 10
174.4361302721273
 20
120.1376892767376
 30
0.0
 10
174.4527403733603
 20
120.2975666379108
 30
0.0
 10
174.5173607161618
 20
120.6096625033249
 30
0.0
 10
174.565343880573
 20
120.7641746944921
 30
0.0
 10
174.6924094462628
 20
121.067465668737
 30
0.0
 10
174.7696035254463
 20
121.2119518763633
 30
0.0
 10
174.9500787707381
 20
121.4868599820536
 30
0.0
 10
175.0545740557056
 20
121.6183116839274
 30
0.0
 10
175.2830780476237
 20
121.8570615081883
 30
0.0
 10
175.4073674007566
 20
121.9653071685365
 30
0.0
 10
175.6769818798808
 20
122.1583520875162
 30
0.0
 10
175.8221031593486
 20
122.2424582087966
 30
0.0
 10
176.1218452821098
 20
122.3780701333669
 30
0.0
 10
176.2779145239664
 20
122.4307260934498
 30
0.0
 10
176.6037353126132
 20
122.5027189596522
 30
0.0
 10
176.7685737514705
 20
122.5207788754862
 30
0.0
 10
177.0977612714736
 20
122.5212342405948
 30
0.0
 10
177.2648044122379
 20
122.5032492593556
 30
0.0
 10
177.5889049199502
 20
122.4323778828768
 30
0.0
 10
177.7454214282956
 20
122.3801758453592
 30
0.0
 10
178.0479920550519
 20
122.2439291834817
 30
0.0
 10
178.1931531067834
 20
122.1598620645406
 30
0.0
 10
178.4618843447832
 20
121.9680149681647
 30
0.0
 10
178.5877444946985
 20
121.8588377542021
 30
0.0
 10
178.8179369951679
 20
121.6185744543953
 30
0.0
 10
178.9204086742772
 20
121.4897155220163
 30
0.0
 10
179.1009743903109
 20
121.2155156958788
 30
0.0
 10
179.1797081250758
 20
121.0683131158596
 30
0.0
 10
179.3058911833129
 20
120.7679360708806
 30
0.0
 10
179.353935634835
 20
120.6145976206778
 30
0.0
 10
179.4193144545501
 20
120.301930716255
 30
0.0
 10
179.4361928712584
 20
120.1419384834572
 30
0.0
 10
179.4365765941132
 20
119.6770584037888
 30
0.0
 10
179.3696123911792
 20
119.3745634828225
 30
0.0
 10
179.1810615437152
 20
118.9745858645922
 30
0.0
 10
179.1025458227946
 20
118.8476336944779
 30
0.0
 10
178.9215208976502
 20
118.616240541554
 30
0.0
 10
178.818992376774
 20
118.5109625927926
 30
0.0
 10
178.5894780234078
 20
118.3194577964401
 30
0.0
 10
178.4630974002241
 20
118.2341581250103
 30
0.0
 10
178.1950194308374
 20
118.0878514796211
 30
0.0
 10
178.0521227773348
 20
118.0258578154416
 30
0.0
 10
177.7475871210667
 20
117.9244491112887
 30
0.0
 10
177.5911524732362
 20
117.8867430918191
 30
0.0
 10
177.2698622868816
 20
117.835776737026
 30
0.0
 10
177.1035269175295
 20
117.822545635588
 30
0.0
 10
176.9363215310832
 20
117.822545635588
 30
0.0
  0
SPLINE
  5
C8
330
1F
100
AcDbEntity
  8
0
  6
HIDDEN
 62
     7
370
     0
100
AcDbSpline
210
0.0
220
0.0
230
1.0
 70
    11
 71
     3
 72
    66
 73
    62
 74
     0
 42
0.000000001
 43
0.00000001
 40
0.0
 40
0.0
 40
0.0
 40
0.0
 40
0.0312499999999997
 40
0.0312499999999997
 40
0.0624999999999994
 40
0.0624999999999994
 40
0.0937499999999991
 40
0.0937499999999991
 40
0.1249999999999988
 40
0.1249999999999988
 40
0.1562499999999986
 40
0.1562499999999986
 40
0.1874999999999983
 40
0.1874999999999983
 40
0.2187499999999979
 40
0.2187499999999979
 40
0.2343749999999977
 40
0.2343749999999977
 40
0.2499999999999974
 40
0.2499999999999974
 40
0.2812499999999974
 40
0.2812499999999974
 40
0.3124999999999973
 40
0.3124999999999973
 40
0.3749999999999974
 40
0.3749999999999974
 40
0.4374999999999974
 40
0.4374999999999974
 40
0.4687499999999976
 40
0.4687499999999976
 40
0.4999999999999977
 40
0.4999999999999977
 40
0.5312499999999978
 40
0.5312499999999978
 40
0.562499999999998
 40
0.562499999999998
 40
0.5937499999999981
 40
0.5937499999999981
 40
0.6249999999999982
 40
0.6249999999999982
 40
0.6874999999999986
 40
0.6874999999999986
 40
0.7499999999999989
 40
0.7499999999999989
 40
0.781249999999999
 40
0.781249999999999
 40
0.8124999999999992
 40
0.8124999999999992
 40
0.8437499999999993
 40
0.8437499999999993
 40
0.8593749999999996
 40
0.8593749999999996
 40
0.8749999999999997
 40
0.8749999999999997
 40
0.9062499999999998
 40
0.9062499999999998
 40
0.9374999999999998
 40
0.9374999999999998
 40
0.9687499999999999
 40
0.9687499999999999
 40
1.0
 40
1.0
 40
1.0
 40
1.0
 10
174.5173464708635
 20
111.3813160026152
 30
0.0
 10
174.4777561832236
 20
111.5349295223061
 30
0.0
 10
174.452495192542
 20
111.6871729499061
 30
0.0
 10
174.4313502865272
 20
111.9892778666545
 30
0.0
 10
174.4359979986208
 20
112.1397580104965
 30
0.0
 10
174.4746916664064
 20
112.4222022837951
 30
0.0
 10
174.5089886255011
 20
112.5576489787683
 30
0.0
 10
174.6032994114505
 20
112.8067923773453
 30
0.0
 10
174.6624459517437
 20
112.9192837943681
 30
0.0
 10
174.800782136436
 20
113.1204507296032
 30
0.0
 10
174.8794186523867
 20
113.207704885795
 30
0.0
 10
175.0439722044017
 20
113.3499145047443
 30
0.0
 10
175.1319069006634
 20
113.4063774326214
 30
0.0
 10
175.2994854470143
 20
113.481286348168
 30
0.0
 10
175.3800823238216
 20
113.500096267279
 30
0.0
 10
175.4749246892832
 20
113.4955283908058
 30
0.0
 10
175.5018489947051
 20
113.4886541353268
 30
0.0
 10
175.5443776697564
 20
113.4645639675006
 30
0.0
 10
175.5598639588285
 20
113.4471563155509
 30
0.0
 10
175.5872882855167
 20
113.3832639392644
 30
0.0
 10
175.5809256819844
 20
113.3240941685314
 30
0.0
 10
175.538275546449
 20
113.1906743604761
 30
0.0
 10
175.5027799391521
 20
113.1161189497141
 30
0.0
 10
175.3742425919821
 20
112.8737622184424
 30
0.0
 10
175.2630691725432
 20
112.6925702422831
 30
0.0
 10
175.0343433569209
 20
112.2888717992461
 30
0.0
 10
174.913278173314
 20
112.062847133933
 30
0.0
 10
174.7451641987617
 20
111.6843153970019
 30
0.0
 10
174.690823982136
 20
111.5502368928086
 30
0.0
 10
174.592198907895
 20
111.2680569464581
 30
0.0
 10
174.5481960663329
 20
111.1213582736879
 30
0.0
 10
174.4774096387809
 20
110.8109414922952
 30
0.0
 10
174.4522194923252
 20
110.6524370625577
 30
0.0
 10
174.4313055179604
 20
110.3410734879582
 30
0.0
 10
174.4362673597132
 20
110.1933551093289
 30
0.0
 10
174.4744414780711
 20
109.929853110357
 30
0.0
 10
174.5072778037704
 20
109.8153141913185
 30
0.0
 10
174.5880102660826
 20
109.62434849485
 30
0.0
 10
174.6361119730245
 20
109.5461648068835
 30
0.0
 10
174.7925543697419
 20
109.3523696289441
 30
0.0
 10
174.9093438294862
 20
109.2785944749162
 30
0.0
 10
175.1444008015694
 20
109.1955455181356
 30
0.0
 10
175.2601983885289
 20
109.18840212522
 30
0.0
 10
175.4108990922378
 20
109.2201761426498
 30
0.0
 10
175.4572188799931
 20
109.2380735946484
 30
0.0
 10
175.5333020908533
 20
109.2916731150398
 30
0.0
 10
175.5626882463558
 20
109.3271922856043
 30
0.0
 10
175.5861492795836
 20
109.4213016604072
 30
0.0
 10
175.5791096357776
 20
109.4804221342215
 30
0.0
 10
175.5301119388978
 20
109.590329363639
 30
0.0
 10
175.5072588943201
 20
109.6309725889461
 30
0.0
 10
175.4519163766483
 20
109.7172800728002
 30
0.0
 10
175.4193272412212
 20
109.7633215760568
 30
0.0
 10
175.3105287663609
 20
109.9111003842565
 30
0.0
 10
175.2259080447087
 20
110.0195689865748
 30
0.0
 10
175.0557198159042
 20
110.2536158492201
 30
0.0
 10
174.9690897409583
 20
110.380626813961
 30
0.0
 10
174.8099737396176
 20
110.646312775434
 30
0.0
 10
174.7356598453288
 20
110.787889688009
 30
0.0
 10
174.6093310235834
 20
111.0786205138266
 30
0.0
 10
174.5569367585035
 20
111.2277024829242
 30
0.0
 10
174.5173464708635
 20
111.3813160026151
 30
0.0
  0
LINE
  5
C9
330
1F
100
AcDbEntity
  8
0
  6
HIDDEN
 62
     7
370
     0
100
AcDbLine
 10
204.0355611154
 20
152.8541352531
 30
0.0
 11
204.3466482828
 21
152.8051243557
 31
0.0
  0
SPLINE
  5
CA
330
1F
100
AcDbEntity
  8
0
  6
HIDDEN
 62
     7
370
     0
100
AcDbSpline
210
0.0
220
0.0
230
1.0
 70
     8
 71
     3
 72
    14
 73
    10
 74
     0
 42
0.000000001
 43
0.00000001
 40
0.0
 40
0.0
 40
0.0
 40
0.0
 40
0.0338255913163662
 40
0.1722116329128763
 40
0.382973646662038
 40
0.5978182683607666
 40
0.7365238046459979
 40
0.9472571272881318
 40
1.0
 40
1.0
 40
1.0
 40
1.0
 10
200.6955654955984
 20
153.5350541186265
 30
0.0
 10
200.6924733424672
 20
153.5357975114942
 30
0.0
 10
200.6767306837519
 20
153.5395822465031
 30
0.0
 10
200.7314975801153
 20
153.5263883380963
 30
0.0
 10
200.8607196526653
 20
153.4954595750654
 30
0.0
 10
201.1031540188399
 20
153.4383236948003
 30
0.0
 10
201.4258107842738
 20
153.3648163129807
 30
0.0
 10
201.692299576377
 20
153.3045147699016
 30
0.0
 10
201.9159959762697
 20
153.2576971660789
 30
0.0
 10
201.9607756981333
 20
153.2483251811989
 30
0.0
  0
LINE
  5
CB
330
1F
100
AcDbEntity
  8
0
  6
HIDDEN
 62
     7
370
     0
100
AcDbLine
 10
203.4477526712
 20
152.9557372801
 30
0.0
 11
204.0355611154
 21
152.8541352531
 31
0.0
  0
LINE
  5
CC
330
1F
100
AcDbEntity
  8
0
  6
HIDDEN
 62
     7
370
     0
100
AcDbLine
 10
188.2363215311
 20
122.037276828
 30
0.0
 11
188.2363215311
 21
104.537276828
 31
0.0
  0
LINE
  5
CD
330
1F
100
AcDbEntity
  8
0
  6
HIDDEN
 62
     7
370
     0
100
AcDbLine
 10
188.2363215311
 20
139.537276828
 30
0.0
 11
188.2363215311
 21
122.037276828
 31
0.0
  0
LINE
  5
CE
330
1F
100
AcDbEntity
  8
0
  6
HIDDEN
 62
     7
370
     0
100
AcDbLine
 10
193.1023469349
 20
122.037276828
 30
0.0
 11
193.1023469349
 21
104.037276828
 31
0.0
  0
LINE
  5
CF
330
1F
100
AcDbEntity
  8
0
  6
HIDDEN
 62
     7
370
     0
100
AcDbLine
 10
193.1023469349
 20
140.037276828
 30
0.0
 11
193.1023469349
 21
122.037276828
 31
0.0
  0
SPLINE
  5
D0
330
1F
100
AcDbEntity
  8
0
  6
HIDDEN
 62
     7
370
     0
100
AcDbSpline
210
0.0
220
0.0
230
1.0
 70
     8
 71
     3
 72
    19
 73
    15
 74
     0
 42
0.000000001
 43
0.00000001
 40
0.0
 40
0.0
 40
0.0
 40
0.0
 40
0.0997843167023796
 40
0.2026367643008825
 40
0.3023766011231708
 40
0.4047429235511654
 40
0.5097159256069652
 40
0.6174953688053912
 40
0.6717952221170642
 40
0.7264949892815479
 40
0.7825030047205118
 40
0.838985795261262
 40
0.9424697628533116
 40
1.0
 40
1.0
 40
1.0
 40
1.0
 10
210.6863215310832
 20
138.5126372186211
 30
0.0
 10
211.0693442788192
 20
138.520450529161
 30
0.0
 10
211.8471668146629
 20
138.5363173909944
 30
0.0
 10
212.9730177057854
 20
138.6596199449581
 30
0.0
 10
214.0415127706768
 20
138.8406190502815
 30
0.0
 10
215.0262372648114
 20
139.0666086453714
 30
0.0
 10
215.9194877158968
 20
139.3176481767328
 30
0.0
 10
216.5584585863556
 20
139.5255700590534
 30
0.0
 10
216.9933111583527
 20
139.6778125702615
 30
0.0
 10
217.2790556834933
 20
139.7821790164316
 30
0.0
 10
217.5205726792348
 20
139.8735194555904
 30
0.0
 10
217.760230578953
 20
139.9665989052449
 30
0.0
 10
217.9268077444338
 20
140.0334333005413
 30
0.0
 10
217.9147076627949
 20
140.0285800079619
 30
0.0
 10
217.9103843140115
 20
140.0268459306891
 30
0.0
  0
LINE
  5
D1
330
1F
100
AcDbEntity
  8
0
  6
HIDDEN
 62
     7
370
     0
100
AcDbLine
 10
210.7632502266
 20
138.5153034828
 30
0.0
 11
209.6640438996
 21
138.5456330222
 31
0.0
  0
SPLINE
  5
D2
330
1F
100
AcDbEntity
  8
0
  6
HIDDEN
 62
     7
370
     0
100
AcDbSpline
210
0.0
220
0.0
230
1.0
 70
     8
 71
     3
 72
    24
 73
    20
 74
     0
 42
0.000000001
 43
0.00000001
 40
0.0
 40
0.0
 40
0.0
 40
0.0
 40
0.0017327035475592
 40
0.051152062325105
 40
0.1400827141024678
 40
0.23176983489317
 40
0.318084042493904
 40
0.4067045799181362
 40
0.4969218894313618
 40
0.5894579875737052
 40
0.6372082413787657
 40
0.6852871155315102
 40
0.7344258197533735
 40
0.7839458770121165
 40
0.8310798277976466
 40
0.8785821207552832
 40
0.9272956784478743
 40
0.9764483654014717
 40
0.9999999999999999
 40
0.9999999999999999
 40
0.9999999999999999
 40
0.9999999999999999
 10
203.5898093766974
 20
139.976024642577
 30
0.0
 10
203.5879793294633
 20
139.9767422699026
 30
0.0
 10
203.5339535324309
 20
139.9979277275852
 30
0.0
 10
203.4542180439602
 20
140.0301924240817
 30
0.0
 10
203.4100979150136
 20
140.0478126826756
 30
0.0
 10
203.5614199528022
 20
139.9868472724143
 30
0.0
 10
203.8873068884012
 20
139.8591511221498
 30
0.0
 10
204.3756910190779
 20
139.6772284442422
 30
0.0
 10
205.0304928034775
 20
139.4518203629228
 30
0.0
 10
205.7075027542296
 20
139.2443144951917
 30
0.0
 10
206.3259033043455
 20
139.077717120673
 30
0.0
 10
206.8338935815868
 20
138.9544663930808
 30
0.0
 10
207.3779132064776
 20
138.8385175221273
 30
0.0
 10
207.9451688566155
 20
138.7358857901432
 30
0.0
 10
208.5281666675629
 20
138.6500438402657
 30
0.0
 10
209.1255404192621
 20
138.582651298471
 30
0.0
 10
209.7448725941932
 20
138.5357023859089
 30
0.0
 10
210.2693584132745
 20
138.5149881972831
 30
0.0
 10
210.5843001769311
 20
138.5132124494184
 30
0.0
 10
210.6863215310832
 20
138.5126372186212
 30
0.0
  0
LINE
  5
D3
330
1F
100
AcDbEntity
  8
0
  6
HIDDEN
 62
     7
370
     0
100
AcDbLine
 10
156.7363215311
 20
157.337276828
 30
0.0
 11
156.9078944063
 21
157.337276828
 31
0.0
  0
ELLIPSE
  5
D4
330
1F
100
AcDbEntity
  8
0
  6
HIDDEN
 62
     7
370
     0
100
AcDbEllipse
 10
156.9078944063
 20
159.337276828
 30
0.0
 11
0.0
 21
2.0
 31
0.0
210
0.0
220
0.0
230
1.0
 40
0.4142135624
 41
3.141592653589793
 42
4.712388980384695
  0
ELLIPSE
  5
D5
330
1F
100
AcDbEntity
  8
0
  6
HIDDEN
 62
     7
370
     0
100
AcDbEllipse
 10
156.9078944063
 20
84.737276828
 30
0.0
 11
0.0
 21
2.0
 31
0.0
210
0.0
220
0.0
230
1.0
 40
0.4142135624
 41
4.712388980384695
 42
6.283185307179586
  0
LINE
  5
D6
330
1F
100
AcDbEntity
  8
0
  6
HIDDEN
 62
     7
370
     0
100
AcDbLine
 10
156.9078944063
 20
86.737276828
 30
0.0
 11
156.7363215311
 21
86.737276828
 31
0.0
  0
LINE
  5
D7
330
1F
100
AcDbEntity
  8
0
  6
HIDDEN
 62
     7
370
     0
100
AcDbLine
 10
157.7363215311
 20
74.7167066741
 30
0.0
 11
157.1224579511
 21
74.1028430942
 31
0.0
  0
LINE
  5
D8
330
1F
100
AcDbEntity
  8
0
  6
HIDDEN
 62
     7
370
     0
100
AcDbLine
 10
157.1224579511
 20
169.9717105619
 30
0.0
 11
157.7363215311
 21
169.3578469819
 31
0.0
  0
SPLINE
  5
D9
330
1F
100
AcDbEntity
  8
0
  6
HIDDEN
 62
     7
370
     0
100
AcDbSpline
210
0.0
220
0.0
230
1.0
 70
     8
 71
     3
 72
    13
 73
     9
 74
     0
 42
0.000000001
 43
0.00000001
 40
0.0
 40
0.0
 40
0.0
 40
0.0
 40
0.0005825290635634
 40
0.1623661983695077
 40
0.328738549447489
 40
0.499871825213266
 40
0.7262528256364211
 40
1.0
 40
1.0
 40
1.0
 40
1.0
 10
186.7358873736895
 20
73.03740963468502
 30
0.0
 10
186.7360321597244
 20
73.03736529249171
 30
0.0
 10
186.776387842448
 20
73.02500595489973
 30
0.0
 10
186.6622332355509
 20
73.06063504089927
 30
0.0
 10
186.4381161278634
 20
73.12848300381016
 30
0.0
 10
185.958807236874
 20
73.26757617796342
 30
0.0
 10
185.1652995792239
 20
73.49782275873021
 30
0.0
 10
184.2962817067446
 20
73.71330832949467
 30
0.0
 10
183.8206212679699
 20
73.83125522608381
 30
0.0
  0
LINE
  5
DA
330
1F
100
AcDbEntity
  8
0
  6
HIDDEN
 62
     7
370
     0
100
AcDbLine
 10
173.8863215311
 20
86.737276828
 30
0.0
 11
156.9078944063
 21
86.737276828
 31
0.0
  0
LINE
  5
DB
330
1F
100
AcDbEntity
  8
0
  6
HIDDEN
 62
     7
370
     0
100
AcDbLine
 10
157.7363215311
 20
169.3578469819
 30
0.0
 11
169.9688905676
 21
169.3578469819
 31
0.0
  0
LINE
  5
DC
330
1F
100
AcDbEntity
  8
0
  6
HIDDEN
 62
     7
370
     0
100
AcDbLine
 10
157.7363215311
 20
169.3578469819
 30
0.0
 11
157.7363215311
 21
159.337276828
 31
0.0
  0
LINE
  5
DD
330
1F
100
AcDbEntity
  8
0
  6
HIDDEN
 62
     7
370
     0
100
AcDbLine
 10
184.7363215311
 20
86.737276828
 30
0.0
 11
173.8863215311
 21
86.737276828
 31
0.0
  0
LINE
  5
DE
330
1F
100
AcDbEntity
  8
0
  6
HIDDEN
 62
     7
370
     0
100
AcDbLine
 10
169.9688905676
 20
74.7167066741
 30
0.0
 11
157.7363215311
 21
74.7167066741
 31
0.0
  0
LINE
  5
DF
330
1F
100
AcDbEntity
  8
0
  6
HIDDEN
 62
     7
370
     0
100
AcDbLine
 10
157.7363215311
 20
74.7167066741
 30
0.0
 11
157.7363215311
 21
84.737276828
 31
0.0
  0
LINE
  5
E0
330
1F
100
AcDbEntity
  8
0
  6
HIDDEN
 62
     7
370
     0
100
AcDbLine
 10
173.8863215311
 20
157.337276828
 30
0.0
 11
184.7363215311
 21
157.337276828
 31
0.0
  0
SPLINE
  5
E1
330
1F
100
AcDbEntity
  8
0
  6
HIDDEN
 62
     7
370
     0
100
AcDbSpline
210
0.0
220
0.0
230
1.0
 70
     8
 71
     3
 72
    14
 73
    10
 74
     0
 42
0.000000001
 43
0.00000001
 40
0.0
 40
0.0
 40
0.0
 40
0.0
 40
0.1878282877378226
 40
0.3545816312771876
 40
0.500302431933891
 40
0.6713282049362227
 40
0.837642206038437
 40
0.9994166164999645
 40
1.0
 40
1.0
 40
1.0
 40
1.0
 10
183.8206212679699
 20
170.2432984299678
 30
0.0
 10
184.1536241903169
 20
170.3248463674195
 30
0.0
 10
184.7822660250905
 20
170.4787922987653
 30
0.0
 10
185.4817025970183
 20
170.6697710168825
 30
0.0
 10
186.0295796965077
 20
170.827143303952
 30
0.0
 10
186.4356952906523
 20
170.9454687399733
 30
0.0
 10
186.6688231833343
 20
171.0158457545922
 30
0.0
 10
186.7628125699172
 20
171.0454801058657
 30
0.0
 10
186.736129676778
 20
171.0372175802648
 30
0.0
 10
186.7360337998927
 20
171.0371878913845
 30
0.0
  0
LINE
  5
E2
330
1F
100
AcDbEntity
  8
0
  6
HIDDEN
 62
     7
370
     0
100
AcDbLine
 10
184.3199554767
 20
170.367612429
 30
0.0
 11
183.8206169796
 21
170.2433430843
 31
0.0
  0
LINE
  5
E3
330
1F
100
AcDbEntity
  8
0
  6
HIDDEN
 62
     7
370
     0
100
AcDbLine
 10
156.9078944063
 20
157.337276828
 30
0.0
 11
173.8863215311
 21
157.337276828
 31
0.0
  0
LINE
  5
E4
330
1F
100
AcDbEntity
  8
0
  6
HIDDEN
 62
     7
370
     0
100
AcDbLine
 10
61.9363215311
 20
109.537276828
 30
0.0
 11
61.9363215311
 21
134.537276828
 31
0.0
  0
LINE
  5
E5
330
1F
100
AcDbEntity
  8
0
  6
HIDDEN
 62
     7
370
     0
100
AcDbLine
 10
65.22092588
 20
111.537276828
 30
0.0
 11
65.22092588
 21
132.537276828
 31
0.0
  0
LINE
  5
E6
330
1F
100
AcDbEntity
  8
0
  6
HIDDEN
 62
     7
370
     0
100
AcDbLine
 10
114.9363215311
 20
111.537276828
 30
0.0
 11
114.9363215311
 21
132.537276828
 31
0.0
  0
LINE
  5
E7
330
1F
100
AcDbEntity
  8
0
  6
HIDDEN
 62
     7
370
     0
100
AcDbLine
 10
117.6401943167
 20
116.037276828
 30
0.0
 11
117.6401943167
 21
128.037276828
 31
0.0
  0
LINE
  5
E8
330
1F
100
AcDbEntity
  8
0
  6
HIDDEN
 62
     7
370
     0
100
AcDbLine
 10
210.6863215311
 20
150.787276828
 30
0.0
 11
217.9363215311
 21
150.787276828
 31
0.0
  0
LINE
  5
E9
330
1F
100
AcDbEntity
  8
0
  6
HIDDEN
 62
     7
370
     0
100
AcDbLine
 10
203.4363215311
 20
150.787276828
 30
0.0
 11
210.6863215311
 21
150.787276828
 31
0.0
  0
SPLINE
  5
EA
330
1F
100
AcDbEntity
  8
0
  6
HIDDEN
 62
     7
370
     0
100
AcDbSpline
210
0.0
220
0.0
230
1.0
 70
     8
 71
     3
 72
     9
 73
     5
 74
     0
 42
0.000000001
 43
0.00000001
 40
0.0
 40
0.0
 40
0.0
 40
0.0
 40
0.4951995007203773
 40
1.0
 40
1.0
 40
1.0
 40
1.0
 10
183.8206057455203
 20
170.2432889924386
 30
0.0
 10
183.9258019672449
 20
170.4004447526913
 30
0.0
 10
184.138233970047
 20
170.7178032314945
 30
0.0
 10
184.3529523535612
 20
171.0364297795975
 30
0.0
 10
184.4613423007638
 20
171.1972726201636
 30
0.0
  0
SPLINE
  5
EB
330
1F
100
AcDbEntity
  8
0
  6
HIDDEN
 62
     7
370
     0
100
AcDbSpline
210
0.0
220
0.0
230
1.0
 70
     8
 71
     3
 72
     9
 73
     5
 74
     0
 42
0.000000001
 43
0.00000001
 40
0.0
 40
0.0
 40
0.0
 40
0.0
 40
0.5048004990382029
 40
1.0
 40
1.0
 40
1.0
 40
1.0
 10
184.4613423007638
 20
72.87728103588799
 30
0.0
 10
184.352952353616
 20
73.03812387637046
 30
0.0
 10
184.1382339701075
 20
73.3567504244601
 30
0.0
 10
183.9258019672992
 20
73.67410890327695
 30
0.0
 10
183.8206057455203
 20
73.83126466361303
 30
0.0
  0
SPLINE
  5
EC
330
1F
100
AcDbEntity
  8
0
  6
HIDDEN
 62
     7
370
     0
100
AcDbSpline
210
0.0
220
0.0
230
1.0
 70
    11
 71
     3
 72
    66
 73
    62
 74
     0
 42
0.000000001
 43
0.00000001
 40
0.0
 40
0.0
 40
0.0
 40
0.0
 40
0.0312500000000002
 40
0.0312500000000002
 40
0.0625000000000004
 40
0.0625000000000004
 40
0.0937500000000007
 40
0.0937500000000007
 40
0.1250000000000009
 40
0.1250000000000009
 40
0.1875000000000009
 40
0.1875000000000009
 40
0.2187500000000008
 40
0.2187500000000008
 40
0.2500000000000008
 40
0.2500000000000008
 40
0.2812500000000008
 40
0.2812500000000008
 40
0.3125000000000008
 40
0.3125000000000008
 40
0.3437500000000008
 40
0.3437500000000008
 40
0.3750000000000008
 40
0.3750000000000008
 40
0.4062500000000008
 40
0.4062500000000008
 40
0.4375000000000008
 40
0.4375000000000008
 40
0.4687500000000008
 40
0.4687500000000008
 40
0.5000000000000008
 40
0.5000000000000008
 40
0.5312500000000008
 40
0.5312500000000008
 40
0.5625000000000008
 40
0.5625000000000008
 40
0.5937500000000008
 40
0.5937500000000008
 40
0.6250000000000008
 40
0.6250000000000008
 40
0.6562500000000008
 40
0.6562500000000008
 40
0.6875000000000008
 40
0.6875000000000008
 40
0.7187500000000008
 40
0.7187500000000008
 40
0.7500000000000008
 40
0.7500000000000008
 40
0.8125000000000008
 40
0.8125000000000008
 40
0.8437500000000007
 40
0.8437500000000007
 40
0.8750000000000006
 40
0.8750000000000006
 40
0.9062500000000004
 40
0.9062500000000004
 40
0.9375000000000003
 40
0.9375000000000003
 40
0.9687500000000002
 40
0.9687500000000002
 40
1.0
 40
1.0
 40
1.0
 40
1.0
 10
176.9363215310832
 20
121.5535449165341
 30
0.0
 10
177.1035269175295
 20
121.5535449165341
 30
0.0
 10
177.2675043066481
 20
121.5717761621844
 30
0.0
 10
177.5894204370258
 20
121.6424083156055
 30
0.0
 10
177.7490262219812
 20
121.6957519343368
 30
0.0
 10
178.0505938905098
 20
121.8320503546462
 30
0.0
 10
178.1933192571087
 20
121.9147262666039
 30
0.0
 10
178.463467857948
 20
122.1077536420292
 30
0.0
 10
178.5896437012756
 20
122.2176072327117
 30
0.0
 10
178.931389122015
 20
122.5745775913217
 30
0.0
 10
179.1169910901361
 20
122.8571134332856
 30
0.0
 10
179.3053962668445
 20
123.3053546826453
 30
0.0
 10
179.3545344961186
 20
123.4620415025429
 30
0.0
 10
179.4197075271396
 20
123.7752931957101
 30
0.0
 10
179.436126864148
 20
123.9313236543207
 30
0.0
 10
179.4365127900391
 20
124.2419855086277
 30
0.0
 10
179.419902688806
 20
124.3970918600251
 30
0.0
 10
179.3552823460046
 20
124.6910680162577
 30
0.0
 10
179.3072991815934
 20
124.8322371775977
 30
0.0
 10
179.1802336159035
 20
125.1016635190854
 30
0.0
 10
179.10303953672
 20
125.2261410411576
 30
0.0
 10
178.9225642914282
 20
125.4571259903615
 30
0.0
 10
178.8180690064607
 20
125.5644096384869
 30
0.0
 10
178.5895650145427
 20
125.7549749754676
 30
0.0
 10
178.4652756614098
 20
125.8390921289376
 30
0.0
 10
178.1956611822856
 20
125.9864653320765
 30
0.0
 10
178.0505399028177
 20
126.0491717253753
 30
0.0
 10
177.7507977800566
 20
126.1490863394001
 30
0.0
 10
177.5947285382
 20
126.1871710061027
 30
0.0
 10
177.2689077495532
 20
126.2390000442336
 30
0.0
 10
177.1040693106959
 20
126.2518438854504
 30
0.0
 10
176.7748817906928
 20
126.2521690400987
 30
0.0
 10
176.6078386499285
 20
126.2393775788371
 30
0.0
 10
176.2837381422162
 20
126.1883642705876
 30
0.0
 10
176.1272216338707
 20
126.1506244976486
 30
0.0
 10
175.8246510071145
 20
126.0502684140312
 30
0.0
 10
175.679489955383
 20
125.9875961591188
 30
0.0
 10
175.4107587173832
 20
125.841180735376
 30
0.0
 10
175.2848985674679
 20
125.7563795136643
 30
0.0
 10
175.0547060669985
 20
125.564632490716
 30
0.0
 10
174.9522343878891
 20
125.4594766432988
 30
0.0
 10
174.7716686718554
 20
125.2291829754952
 30
0.0
 10
174.6929349370906
 20
125.1023769378052
 30
0.0
 10
174.5667518788535
 20
124.8356173738564
 30
0.0
 10
174.5187074273313
 20
124.695628567026
 30
0.0
 10
174.4533286076162
 20
124.4012880303985
 30
0.0
 10
174.4364501909079
 20
124.2461435331645
 30
0.0
 10
174.4360664680532
 20
123.7813728209238
 30
0.0
 10
174.5030306709872
 20
123.4592350420048
 30
0.0
 10
174.6915815184512
 20
123.0090034741196
 30
0.0
 10
174.7700972393718
 20
122.8616956102413
 30
0.0
 10
174.9511221645162
 20
122.5862597658291
 30
0.0
 10
175.0536506853924
 20
122.4572604484517
 30
0.0
 10
175.2831650387586
 20
122.2173477482309
 30
0.0
 10
175.4095456619423
 20
122.1075526515171
 30
0.0
 10
175.677623631329
 20
121.9158776849203
 30
0.0
 10
175.8205202848316
 20
121.8327450400942
 30
0.0
 10
176.1250559410997
 20
121.6950978301785
 30
0.0
 10
176.2814905889301
 20
121.6429407166676
 30
0.0
 10
176.6027807752847
 20
121.5721430857214
 30
0.0
 10
176.7691161446369
 20
121.5535449165341
 30
0.0
 10
176.9363215310832
 20
121.5535449165341
 30
0.0
  0
SPLINE
  5
ED
330
1F
100
AcDbEntity
  8
0
  6
HIDDEN
 62
     7
370
     0
100
AcDbSpline
210
0.0
220
0.0
230
1.0
 70
    11
 71
     3
 72
    66
 73
    62
 74
     0
 42
0.000000001
 43
0.00000001
 40
0.0
 40
0.0
 40
0.0
 40
0.0
 40
0.0312499999999998
 40
0.0312499999999998
 40
0.0624999999999996
 40
0.0624999999999996
 40
0.0937499999999994
 40
0.0937499999999994
 40
0.1249999999999991
 40
0.1249999999999991
 40
0.1562499999999989
 40
0.1562499999999989
 40
0.1874999999999987
 40
0.1874999999999987
 40
0.2187499999999985
 40
0.2187499999999985
 40
0.2499999999999983
 40
0.2499999999999983
 40
0.2812499999999981
 40
0.2812499999999981
 40
0.3124999999999978
 40
0.3124999999999978
 40
0.3437499999999976
 40
0.3437499999999976
 40
0.3749999999999974
 40
0.3749999999999974
 40
0.4062499999999972
 40
0.4062499999999972
 40
0.437499999999997
 40
0.437499999999997
 40
0.4687499999999968
 40
0.4687499999999968
 40
0.4999999999999966
 40
0.4999999999999966
 40
0.5312499999999963
 40
0.5312499999999963
 40
0.5624999999999961
 40
0.5624999999999961
 40
0.6249999999999959
 40
0.6249999999999959
 40
0.6562499999999962
 40
0.6562499999999962
 40
0.6874999999999966
 40
0.6874999999999966
 40
0.7187499999999969
 40
0.7187499999999969
 40
0.7499999999999972
 40
0.7499999999999972
 40
0.7812499999999977
 40
0.7812499999999977
 40
0.812499999999998
 40
0.812499999999998
 40
0.8437499999999983
 40
0.8437499999999983
 40
0.8749999999999987
 40
0.8749999999999987
 40
0.906249999999999
 40
0.906249999999999
 40
0.9374999999999993
 40
0.9374999999999993
 40
1.0
 40
1.0
 40
1.0
 40
1.0
 10
176.9363215310833
 20
134.1987310349396
 30
0.0
 10
176.7711212404193
 20
134.1987310349396
 30
0.0
 10
176.6086886991228
 20
134.2142966262215
 30
0.0
 10
176.2891305435328
 20
134.2752428980511
 30
0.0
 10
176.1303472055557
 20
134.3213649420364
 30
0.0
 10
175.8276091890764
 20
134.4416281296244
 30
0.0
 10
175.684030023942
 20
134.5151717790451
 30
0.0
 10
175.412300294074
 20
134.6886887019774
 30
0.0
 10
175.2836717305363
 20
134.789561358764
 30
0.0
 10
175.0531059688691
 20
135.0095461476623
 30
0.0
 10
174.9496319676197
 20
135.1294253112511
 30
0.0
 10
174.7668714296939
 20
135.3892666778485
 30
0.0
 10
174.6892271734653
 20
135.5273561084208
 30
0.0
 10
174.5645345227753
 20
135.8123385406689
 30
0.0
 10
174.5165305421968
 20
135.9613336500115
 30
0.0
 10
174.4522987998785
 20
136.2658587374061
 30
0.0
 10
174.4364093558364
 20
136.4186280848426
 30
0.0
 10
174.4362344254812
 20
136.7251177664567
 30
0.0
 10
174.4524650768161
 20
136.8804445367517
 30
0.0
 10
174.5162462995257
 20
137.1805067426502
 30
0.0
 10
174.5634384109219
 20
137.3260414551494
 30
0.0
 10
174.6886050285799
 20
137.6081747354714
 30
0.0
 10
174.7668645159549
 20
137.7443145768261
 30
0.0
 10
174.9477846993102
 20
137.9958511265956
 30
0.0
 10
175.0510699282341
 20
138.1128779704389
 30
0.0
 10
175.2843216702828
 20
138.3289532640603
 30
0.0
 10
175.4107355385484
 20
138.4246571879457
 30
0.0
 10
175.681407809243
 20
138.5918101847173
 30
0.0
 10
175.8274895814073
 20
138.6639713703404
 30
0.0
 10
176.1303740268802
 20
138.7796254122969
 30
0.0
 10
176.2862043865199
 20
138.8231582194796
 30
0.0
 10
176.6065498757854
 20
138.8820541224129
 30
0.0
 10
176.772259961757
 20
138.8971402254328
 30
0.0
 10
177.0985913504535
 20
138.8972477570996
 30
0.0
 10
177.2607784362804
 20
138.8827570999099
 30
0.0
 10
177.583154017489
 20
138.8240290356328
 30
0.0
 10
177.7411694915265
 20
138.7798982285034
 30
0.0
 10
178.1925803666021
 20
138.6079686299055
 30
0.0
 10
178.4716598236542
 20
138.4363949372344
 30
0.0
 10
178.8177335281526
 20
138.1167441188682
 30
0.0
 10
178.9233755440673
 20
137.9977029894797
 30
0.0
 10
179.1051590200381
 20
137.7453832286213
 30
0.0
 10
179.182046843422
 20
137.6119189172499
 30
0.0
 10
179.3077014007924
 20
137.3301535046976
 30
0.0
 10
179.356009476707
 20
137.1817327730666
 30
0.0
 10
179.4198273621474
 20
136.8826831752901
 30
0.0
 10
179.4361555391902
 20
136.7304801054228
 30
0.0
 10
179.4364850292499
 20
136.4204782465831
 30
0.0
 10
179.4203885174152
 20
136.2669555794851
 30
0.0
 10
179.357159780154
 20
135.9654268619059
 30
0.0
 10
179.3093231867435
 20
135.8154920366042
 30
0.0
 10
179.1839798688301
 20
135.5282729405133
 30
0.0
 10
179.1072831943049
 20
135.391894026197
 30
0.0
 10
178.9262318276531
 20
135.1335384681828
 30
0.0
 10
178.8207562172922
 20
135.0108632918085
 30
0.0
 10
178.590229648616
 20
134.7906096077564
 30
0.0
 10
178.4645102109857
 20
134.6916840363226
 30
0.0
 10
178.1917433617888
 20
134.516845355401
 30
0.0
 10
178.0460239853828
 20
134.4421685104205
 30
0.0
 10
177.5949548802748
 20
134.2625422949278
 30
0.0
 10
177.266722112411
 20
134.1987310349396
 30
0.0
 10
176.9363215310832
 20
134.1987310349396
 30
0.0
  0
SPLINE
  5
EE
330
1F
100
AcDbEntity
  8
0
  6
HIDDEN
 62
     7
370
     0
100
AcDbSpline
210
0.0
220
0.0
230
1.0
 70
    11
 71
     3
 72
    60
 73
    56
 74
     0
 42
0.000000001
 43
0.00000001
 40
0.0
 40
0.0
 40
0.0
 40
0.0
 40
0.0312500000000003
 40
0.0312500000000003
 40
0.0625000000000005
 40
0.0625000000000005
 40
0.0937500000000008
 40
0.0937500000000008
 40
0.1250000000000011
 40
0.1250000000000011
 40
0.1562500000000013
 40
0.1562500000000013
 40
0.1875000000000016
 40
0.1875000000000016
 40
0.2187500000000018
 40
0.2187500000000018
 40
0.2500000000000021
 40
0.2500000000000021
 40
0.312500000000003
 40
0.312500000000003
 40
0.3750000000000038
 40
0.3750000000000038
 40
0.4062500000000038
 40
0.4062500000000038
 40
0.4375000000000038
 40
0.4375000000000038
 40
0.4531250000000038
 40
0.4531250000000038
 40
0.4687500000000037
 40
0.4687500000000037
 40
0.500000000000003
 40
0.500000000000003
 40
0.5625000000000027
 40
0.5625000000000027
 40
0.6250000000000021
 40
0.6250000000000021
 40
0.6875000000000017
 40
0.6875000000000017
 40
0.7187500000000016
 40
0.7187500000000016
 40
0.7500000000000013
 40
0.7500000000000013
 40
0.7812500000000011
 40
0.7812500000000011
 40
0.812500000000001
 40
0.812500000000001
 40
0.8437500000000008
 40
0.8437500000000008
 40
0.8750000000000006
 40
0.8750000000000006
 40
0.9062500000000004
 40
0.9062500000000004
 40
0.9375000000000002
 40
0.9375000000000002
 40
1.0
 40
1.0
 40
1.0
 40
1.0
 10
174.5173464708635
 20
131.506752028303
 30
0.0
 10
174.5569365537103
 20
131.375271496949
 30
0.0
 10
174.6092481746304
 20
131.2560876462693
 30
0.0
 10
174.734968280233
 20
131.0408941589413
 30
0.0
 10
174.8093913106773
 20
130.9443062533331
 30
0.0
 10
174.9681016188703
 20
130.7837453415781
 30
0.0
 10
175.0529802186757
 20
130.7184661048761
 30
0.0
 10
175.2247534382176
 20
130.6209639303188
 30
0.0
 10
175.3087636745136
 20
130.5904888335216
 30
0.0
 10
175.4541595977922
 20
130.5707398651642
 30
0.0
 10
175.5124258463015
 20
130.5825164146604
 30
0.0
 10
175.5790305711116
 20
130.6469367574437
 30
0.0
 10
175.5861914555094
 20
130.6976498955235
 30
0.0
 10
175.5630461361271
 20
130.8206734078985
 30
0.0
 10
175.5341380501575
 20
130.8911446341839
 30
0.0
 10
175.4587172923123
 20
131.0447662968483
 30
0.0
 10
175.411771819536
 20
131.1284015650322
 30
0.0
 10
175.2601299279145
 20
131.3917818040424
 30
0.0
 10
175.1442027906513
 20
131.5853307294659
 30
0.0
 10
174.910577219669
 20
132.0222002013618
 30
0.0
 10
174.7918944529671
 20
132.2652053355492
 30
0.0
 10
174.6354231440115
 20
132.676279874079
 30
0.0
 10
174.5874364954593
 20
132.8199514395623
 30
0.0
 10
174.5068274856691
 20
133.1204143675212
 30
0.0
 10
174.4741279567739
 20
133.2789136217955
 30
0.0
 10
174.4457073474301
 20
133.5141241436249
 30
0.0
 10
174.4395612754565
 20
133.5933717514213
 30
0.0
 10
174.4350830736916
 20
133.7450493218808
 30
0.0
 10
174.4365992841038
 20
133.8182573941892
 30
0.0
 10
174.4523622237802
 20
134.0300131254162
 30
0.0
 10
174.4778362784656
 20
134.1559112712776
 30
0.0
 10
174.5842010222144
 20
134.4776416372968
 30
0.0
 10
174.690079051485
 20
134.6156553536568
 30
0.0
 10
174.9132492724301
 20
134.801467204787
 30
0.0
 10
175.0341357045573
 20
134.8503912395432
 30
0.0
 10
175.263218178239
 20
134.8864425653342
 30
0.0
 10
175.3733809964895
 20
134.8745643821325
 30
0.0
 10
175.5013641638405
 20
134.8099568205831
 30
0.0
 10
175.537705509253
 20
134.7799496068196
 30
0.0
 10
175.5807955124131
 20
134.6994214832697
 30
0.0
 10
175.5872803210151
 20
134.6478410660179
 30
0.0
 10
175.5512395683141
 20
134.5182938563923
 30
0.0
 10
175.5070203531889
 20
134.4384350318988
 30
0.0
 10
175.3813703783767
 20
134.2563055565939
 30
0.0
 10
175.3002462468953
 20
134.1522531165737
 30
0.0
 10
175.1333008768009
 20
133.9292892208945
 30
0.0
 10
175.045412712071
 20
133.8074858388492
 30
0.0
 10
174.879773214822
 20
133.5499246157895
 30
0.0
 10
174.8018271266845
 20
133.4144457554756
 30
0.0
 10
174.662571393013
 20
133.1276914341276
 30
0.0
 10
174.6035456741139
 20
132.9812393962365
 30
0.0
 10
174.5097607204108
 20
132.6809946663345
 30
0.0
 10
174.4749476623012
 20
132.5252928102094
 30
0.0
 10
174.4166300576246
 20
132.0695298229477
 30
0.0
 10
174.4381663051698
 20
131.7697130910109
 30
0.0
 10
174.5173464708635
 20
131.5067520283029
 30
0.0
  0
LWPOLYLINE
  5
EF
330
1F
100
AcDbEntity
  8
0
  6
HIDDEN
 62
     7
370
     0
100
AcDbPolyline
 90
       20
 70
   128
 43
0.0
 10
157.7185792316
 20
134.8239276872
 10
157.8753333732
 20
134.3378243573
 10
158.1236211446
 20
134.0329719935
 10
158.436536713
 20
133.9424060797
 10
158.7801708214
 20
134.0759408381
 10
159.117285382
 20
134.4191057055
 10
159.4113488014
 20
134.9347134438
 10
159.630494745
 20
135.566889954
 10
159.7509753497
 20
136.2471291021
 10
159.7597346723
 20
136.9017164213
 10
159.6558235044
 20
137.4597172187
 10
159.4505022334
 20
137.8606634496
 10
159.1660206049
 20
138.0611063685
 10
158.8332066174
 20
138.039324875
 10
158.4881258308
 20
137.7976793319
 10
158.1681731027
 20
137.3623557832
 10
157.9080202757
 20
136.7805282904
 10
157.7358589454
 20
136.11524689
 10
157.6703454632
 20
135.4386051449
 10
157.7185792316
 20
134.8239276872
  0
LWPOLYLINE
  5
F0
330
1F
100
AcDbEntity
  8
0
  6
HIDDEN
 62
     7
370
     0
100
AcDbPolyline
 90
       23
 70
   128
 43
0.0
 10
157.0057086429
 20
134.3714521661
 10
157.1907029589
 20
133.7578847491
 10
157.4766098835
 20
133.3313420709
 10
157.8402669383
 20
133.1263800826
 10
158.2522127912
 20
133.1596035856
 10
158.6790740393
 20
133.4283210092
 10
159.086268923
 20
133.910762466
 10
159.4408089343
 20
134.5678434181
 10
159.7139713501
 20
135.3463310749
 10
159.8836261761
 20
136.183156996
 10
159.9360289871
 20
137.0105265222
 10
159.8669344192
 20
137.7614110951
 10
159.6819401033
 20
138.3749785122
 10
159.3960331786
 20
138.8015211904
 10
159.0323761239
 20
139.0064831786
 10
158.6204302709
 20
138.9732596756
 10
158.1935690228
 20
138.704542252
 10
157.7863741392
 20
138.2221007953
 10
157.4318341279
 20
137.5650198431
 10
157.1586717121
 20
136.7865321864
 10
156.9890168861
 20
135.9497062652
 10
156.936614075
 20
135.122336739
 10
157.0057086429
 20
134.3714521661
  0
LINE
  5
F1
330
1F
100
AcDbEntity
  8
0
  6
HIDDEN
 62
     7
370
     0
100
AcDbLine
 10
209.5825546665
 20
149.787276828
 30
0.0
 11
218.6863215311
 21
149.787276828
 31
0.0
  0
LINE
  5
F2
330
1F
100
AcDbEntity
  8
0
  6
HIDDEN
 62
     7
370
     0
100
AcDbLine
 10
202.6863215311
 20
149.787276828
 30
0.0
 11
209.5825546665
 21
149.787276828
 31
0.0
  0
LINE
  5
F3
330
1F
100
AcDbEntity
  8
0
  6
HIDDEN
 62
     7
370
     0
100
AcDbLine
 10
209.5825546665
 20
139.6174038469
 30
0.0
 11
218.6863215311
 21
139.6174038469
 31
0.0
  0
LINE
  5
F4
330
1F
100
AcDbEntity
  8
0
  6
HIDDEN
 62
     7
370
     0
100
AcDbLine
 10
202.6863215311
 20
139.6174038469
 30
0.0
 11
209.5825546665
 21
139.6174038469
 31
0.0
  0
LINE
  5
F5
330
1F
100
AcDbEntity
  8
0
  6
HIDDEN
 62
     7
370
     0
100
AcDbLine
 10
209.9804161932
 20
130.287276828
 30
0.0
 11
215.8026580371
 21
130.287276828
 31
0.0
  0
LINE
  5
F6
330
1F
100
AcDbEntity
  8
0
  6
HIDDEN
 62
     7
370
     0
100
AcDbLine
 10
205.5699850251
 20
130.287276828
 30
0.0
 11
209.9804161932
 21
130.287276828
 31
0.0
  0
SPLINE
  5
F7
330
1F
100
AcDbEntity
  8
0
  6
HIDDEN
 62
     7
370
     0
100
AcDbSpline
210
0.0
220
0.0
230
1.0
 70
     8
 71
     3
 72
    11
 73
     7
 74
     0
 42
0.000000001
 43
0.00000001
 40
0.0
 40
0.0
 40
0.0
 40
0.0
 40
0.2164567244934126
 40
0.4403141600939157
 40
0.7519028444798613
 40
0.9999999999999999
 40
0.9999999999999999
 40
0.9999999999999999
 40
0.9999999999999999
 10
212.4217527307805
 20
150.7060789815428
 30
0.0
 10
212.6162417824467
 20
150.5612005713366
 30
0.0
 10
213.0118695164998
 20
150.2664903208006
 30
0.0
 10
213.7460468104352
 20
150.0208523581187
 30
0.0
 10
214.5335788754807
 20
150.1689574185988
 30
0.0
 10
215.0375505684252
 20
150.5411109979513
 30
0.0
 10
215.2609507950651
 20
150.7060789815428
 30
0.0
  0
SPLINE
  5
F8
330
1F
100
AcDbEntity
  8
0
  6
HIDDEN
 62
     7
370
     0
100
AcDbSpline
210
0.0
220
0.0
230
1.0
 70
     8
 71
     3
 72
    11
 73
     7
 74
     0
 42
0.000000001
 43
0.00000001
 40
0.0
 40
0.0
 40
0.0
 40
0.0
 40
0.2164567244934145
 40
0.4403141600939122
 40
0.751902844479858
 40
1.0
 40
1.0
 40
1.0
 40
1.0
 10
215.2609507950651
 20
150.7060789815428
 30
0.0
 10
215.1420713225454
 20
150.5612005713367
 30
0.0
 10
214.9002478577516
 20
150.2664903208007
 30
0.0
 10
214.4514893868185
 20
150.0208523581187
 30
0.0
 10
213.9701183498223
 20
150.1689574185988
 30
0.0
 10
213.6620707321861
 20
150.5411109979514
 30
0.0
 10
213.5255195953678
 20
150.7060789815428
 30
0.0
  0
SPLINE
  5
F9
330
1F
100
AcDbEntity
  8
0
  6
HIDDEN
 62
     7
370
     0
100
AcDbSpline
210
0.0
220
0.0
230
1.0
 70
     8
 71
     3
 72
    11
 73
     7
 74
     0
 42
0.000000001
 43
0.00000001
 40
0.0
 40
0.0
 40
0.0
 40
0.0
 40
0.1845133558519202
 40
0.5180565039163927
 40
0.8676122830485036
 40
1.0
 40
1.0
 40
1.0
 40
1.0
 10
213.5255195953678
 20
150.7060789815428
 30
0.0
 10
213.2598476966324
 20
150.5815373176683
 30
0.0
 10
212.5139230755544
 20
150.231862798548
 30
0.0
 10
211.1235395775582
 20
149.9721420169773
 30
0.0
 10
209.8315984215964
 20
150.2852499021625
 30
0.0
 10
209.1406819794248
 20
150.6153907666779
 30
0.0
 10
208.9508903313859
 20
150.7060789815428
 30
0.0
  0
SPLINE
  5
FA
330
1F
100
AcDbEntity
  8
0
  6
HIDDEN
 62
     7
370
     0
100
AcDbSpline
210
0.0
220
0.0
230
1.0
 70
     8
 71
     3
 72
    11
 73
     7
 74
     0
 42
0.000000001
 43
0.00000001
 40
0.0
 40
0.0
 40
0.0
 40
0.0
 40
0.216456724493409
 40
0.4403141600939159
 40
0.7519028444798594
 40
1.0
 40
1.0
 40
1.0
 40
1.0
 10
208.9508903313859
 20
150.7060789815428
 30
0.0
 10
208.7564012797197
 20
150.5612005713367
 30
0.0
 10
208.3607735456667
 20
150.2664903208007
 30
0.0
 10
207.6265962517313
 20
150.0208523581188
 30
0.0
 10
206.8390641866857
 20
150.1689574185988
 30
0.0
 10
206.3350924937412
 20
150.5411109979513
 30
0.0
 10
206.1116922671013
 20
150.7060789815428
 30
0.0
  0
SPLINE
  5
FB
330
1F
100
AcDbEntity
  8
0
  6
HIDDEN
 62
     7
370
     0
100
AcDbSpline
210
0.0
220
0.0
230
1.0
 70
     8
 71
     3
 72
    11
 73
     7
 74
     0
 42
0.000000001
 43
0.00000001
 40
0.0
 40
0.0
 40
0.0
 40
0.0
 40
0.2164567244934137
 40
0.4403141600939109
 40
0.7519028444798643
 40
1.0
 40
1.0
 40
1.0
 40
1.0
 10
206.1116922671013
 20
150.7060789815428
 30
0.0
 10
206.230571739621
 20
150.5612005713367
 30
0.0
 10
206.4723952044149
 20
150.2664903208007
 30
0.0
 10
206.9211536753479
 20
150.0208523581187
 30
0.0
 10
207.4025247123442
 20
150.1689574185988
 30
0.0
 10
207.7105723299803
 20
150.5411109979513
 30
0.0
 10
207.8471234667986
 20
150.7060789815428
 30
0.0
  0
SPLINE
  5
FC
330
1F
100
AcDbEntity
  8
0
  6
HIDDEN
 62
     7
370
     0
100
AcDbSpline
210
0.0
220
0.0
230
1.0
 70
     8
 71
     3
 72
    11
 73
     7
 74
     0
 42
0.000000001
 43
0.00000001
 40
0.0
 40
0.0
 40
0.0
 40
0.0
 40
0.1323877169514901
 40
0.4819434960836024
 40
0.815486644148084
 40
1.0
 40
1.0
 40
1.0
 40
1.0
 10
207.8471234667986
 20
150.7060789815428
 30
0.0
 10
208.0369151148375
 20
150.6153907666778
 30
0.0
 10
208.727831557009
 20
150.2852499021625
 30
0.0
 10
210.0197727129709
 20
149.9721420169772
 30
0.0
 10
211.410156210967
 20
150.231862798548
 30
0.0
 10
212.1560808320451
 20
150.5815373176682
 30
0.0
 10
212.4217527307805
 20
150.7060789815428
 30
0.0
  0
LINE
  5
FD
330
1F
100
AcDbEntity
  8
0
  6
HIDDEN
 62
     7
370
     0
100
AcDbLine
 10
210.1344380988
 20
139.787276828
 30
0.0
 11
214.6863215311
 21
139.787276828
 31
0.0
  0
LINE
  5
FE
330
1F
100
AcDbEntity
  8
0
  6
HIDDEN
 62
     7
370
     0
100
AcDbLine
 10
206.6863215311
 20
139.787276828
 30
0.0
 11
210.1344380988
 21
139.787276828
 31
0.0
  0
LINE
  5
FF
330
1F
100
AcDbEntity
  8
0
  6
HIDDEN
 62
     7
370
     0
100
AcDbLine
 10
213.8413517629
 20
140.787276828
 30
0.0
 11
212.4217527308
 21
140.787276828
 31
0.0
  0
LINE
  5
100
330
1F
100
AcDbEntity
  8
0
  6
HIDDEN
 62
     7
370
     0
100
AcDbLine
 10
212.4217527308
 20
140.787276828
 30
0.0
 11
210.1344380988
 21
140.787276828
 31
0.0
  0
LINE
  5
101
330
1F
100
AcDbEntity
  8
0
  6
HIDDEN
 62
     7
370
     0
100
AcDbLine
 10
212.4217527308
 20
140.787276828
 30
0.0
 11
212.4217527308
 21
150.7060789815
 31
0.0
  0
LINE
  5
102
330
1F
100
AcDbEntity
  8
0
  6
HIDDEN
 62
     7
370
     0
100
AcDbLine
 10
210.1344380988
 20
140.787276828
 30
0.0
 11
207.8471234668
 21
140.787276828
 31
0.0
  0
LINE
  5
103
330
1F
100
AcDbEntity
  8
0
  6
HIDDEN
 62
     7
370
     0
100
AcDbLine
 10
207.8471234668
 20
140.787276828
 30
0.0
 11
206.9794078669
 21
140.787276828
 31
0.0
  0
LINE
  5
104
330
1F
100
AcDbEntity
  8
0
  6
HIDDEN
 62
     7
370
     0
100
AcDbLine
 10
207.8471234668
 20
140.787276828
 30
0.0
 11
207.8471234668
 21
150.7060789815
 31
0.0
  0
LINE
  5
105
330
1F
100
AcDbEntity
  8
0
  6
HIDDEN
 62
     7
370
     0
100
AcDbLine
 10
215.2609507951
 20
140.787276828
 30
0.0
 11
213.8413517629
 21
140.787276828
 31
0.0
  0
LINE
  5
106
330
1F
100
AcDbEntity
  8
0
  6
HIDDEN
 62
     7
370
     0
100
AcDbLine
 10
206.9794078669
 20
140.787276828
 30
0.0
 11
206.1116922671
 21
140.787276828
 31
0.0
  0
LINE
  5
107
330
1F
100
AcDbEntity
  8
0
  6
HIDDEN
 62
     7
370
     0
100
AcDbLine
 10
213.5255195954
 20
140.787276828
 30
0.0
 11
213.5255195954
 21
150.7060789815
 31
0.0
  0
LINE
  5
108
330
1F
100
AcDbEntity
  8
0
  6
HIDDEN
 62
     7
370
     0
100
AcDbLine
 10
215.2609507951
 20
140.787276828
 30
0.0
 11
215.2609507951
 21
150.7060789815
 31
0.0
  0
LINE
  5
109
330
1F
100
AcDbEntity
  8
0
  6
HIDDEN
 62
     7
370
     0
100
AcDbLine
 10
208.9508903314
 20
140.787276828
 30
0.0
 11
208.9508903314
 21
150.7060789815
 31
0.0
  0
LINE
  5
10A
330
1F
100
AcDbEntity
  8
0
  6
HIDDEN
 62
     7
370
     0
100
AcDbLine
 10
206.1116922671
 20
140.787276828
 30
0.0
 11
206.1116922671
 21
150.7060789815
 31
0.0
  0
CIRCLE
  5
10B
330
1F
100
AcDbEntity
  8
0
  6
HIDDEN
 62
     7
370
     0
100
AcDbCircle
 10
210.6863215311
 20
122.037276828
 30
0.0
 40
8.000000000000005
  0
LWPOLYLINE
  5
10C
330
1F
100
AcDbEntity
  8
0
  6
HIDDEN
 62
     7
370
     0
100
AcDbPolyline
 90
       21
 70
   128
 43
0.0
 10
158.3563765838
 20
110.4600658032
 10
158.0060150599
 20
110.3789061408
 10
157.7202728639
 20
110.0701201746
 10
157.5271204327
 20
109.5639340264
 10
157.4454648721
 20
108.9098967233
 10
157.4832991973
 20
108.1720299935
 10
157.6369199209
 20
107.4225613734
 10
157.8912895762
 20
106.7348540734
 10
158.221508689
 20
106.1762256757
 10
158.5952531117
 20
105.80135862
 10
158.9759381363
 20
105.6469475055
 10
159.3262996602
 20
105.7281071679
 10
159.6120418562
 20
106.0368931342
 10
159.8051942874
 20
106.5430792823
 10
159.886849848
 20
107.1971165854
 10
159.8490155228
 20
107.9349833153
 10
159.6953947992
 20
108.6844519353
 10
159.4410251439
 20
109.3721592353
 10
159.1108060311
 20
109.930787633
 10
158.7370616084
 20
110.3056546887
 10
158.3563765838
 20
110.4600658032
  0
LWPOLYLINE
  5
10D
330
1F
100
AcDbEntity
  8
0
  6
HIDDEN
 62
     7
370
     0
100
AcDbPolyline
 90
       23
 70
   128
 43
0.0
 10
158.563385962
 20
111.0604835261
 10
158.1699678187
 20
110.9818607436
 10
157.8392091472
 20
110.670435428
 10
157.597906048
 20
110.1514374064
 10
157.4656074631
 20
109.4669128118
 10
157.453031437
 20
108.6723177559
 10
157.5611968046
 20
107.8320256044
 10
157.7813406511
 20
107.0141118301
 10
158.0956282313
 20
106.2848389426
 10
158.4785978345
 20
105.7032882942
 10
158.8992235412
 20
105.3165736597
 10
159.3234287581
 20
105.156024359
 10
159.7168469014
 20
105.2346471415
 10
160.0476055729
 20
105.5460724571
 10
160.2889086721
 20
106.0650704787
 10
160.421207257
 20
106.7495950733
 10
160.4337832831
 20
107.5441901293
 10
160.3256179155
 20
108.3844822807
 10
160.105474069
 20
109.202396055
 10
159.7911864889
 20
109.9316689425
 10
159.4082168856
 20
110.5132195909
 10
158.9875911789
 20
110.8999342254
 10
158.563385962
 20
111.0604835261
  0
LWPOLYLINE
  5
10E
330
1F
100
AcDbEntity
  8
0
  6
HIDDEN
 62
     7
370
     0
100
AcDbPolyline
 90
       23
 70
   128
 43
0.0
 10
161.7502375772
 20
111.6897765246
 10
161.3568194339
 20
111.6111537421
 10
161.0260607624
 20
111.2997284265
 10
160.7847576632
 20
110.7807304048
 10
160.6524590782
 20
110.0962058102
 10
160.6398830522
 20
109.3016107543
 10
160.7480484198
 20
108.4613186028
 10
160.9681922662
 20
107.6434048285
 10
161.2824798464
 20
106.9141319411
 10
161.6654494496
 20
106.3325812926
 10
162.0860751563
 20
105.9458666581
 10
162.5102803732
 20
105.7853173574
 10
162.9036985165
 20
105.86394014
 10
163.234457188
 20
106.1753654555
 10
163.4757602872
 20
106.6943634772
 10
163.6080588721
 20
107.3788880718
 10
163.6206348982
 20
108.1734831277
 10
163.5124695306
 20
109.0137752792
 10
163.2923256842
 20
109.8316890535
 10
162.978038104
 20
110.5609619409
 10
162.5950685008
 20
111.1425125894
 10
162.1744427941
 20
111.5292272239
 10
161.7502375772
 20
111.6897765246
  0
LINE
  5
10F
330
1F
100
AcDbEntity
  8
0
  6
HIDDEN
 62
     7
370
     0
100
AcDbLine
 10
158.0503286043
 20
107.2739702201
 30
0.0
 11
158.8855628165
 21
106.3490361096
 31
0.0
  0
LINE
  5
110
330
1F
100
AcDbEntity
  8
0
  6
HIDDEN
 62
     7
370
     0
100
AcDbLine
 10
159.5013915723
 20
107.1285725438
 30
0.0
 11
158.8855628165
 21
106.3490361096
 31
0.0
  0
LINE
  5
111
330
1F
100
AcDbEntity
  8
0
  6
HIDDEN
 62
     7
370
     0
100
AcDbLine
 10
159.2819861158
 20
108.8330430886
 30
0.0
 11
159.5013915723
 21
107.1285725438
 31
0.0
  0
LINE
  5
112
330
1F
100
AcDbEntity
  8
0
  6
HIDDEN
 62
     7
370
     0
100
AcDbLine
 10
159.2819861158
 20
108.8330430886
 30
0.0
 11
158.4467519036
 21
109.7579771992
 31
0.0
  0
LINE
  5
113
330
1F
100
AcDbEntity
  8
0
  6
HIDDEN
 62
     7
370
     0
100
AcDbLine
 10
157.8309231478
 20
108.9784407649
 30
0.0
 11
158.4467519036
 21
109.7579771992
 31
0.0
  0
LINE
  5
114
330
1F
100
AcDbEntity
  8
0
  6
HIDDEN
 62
     7
370
     0
100
AcDbLine
 10
157.8309231478
 20
108.9784407649
 30
0.0
 11
158.0503286043
 21
107.2739702201
 31
0.0
  0
LINE
  5
115
330
1F
100
AcDbEntity
  8
0
  6
HIDDEN
 62
     7
370
     0
100
AcDbLine
 10
161.0140369234
 20
109.1750632319
 30
0.0
 11
159.2819861158
 21
108.8330430886
 31
0.0
  0
LINE
  5
116
330
1F
100
AcDbEntity
  8
0
  6
HIDDEN
 62
     7
370
     0
100
AcDbLine
 10
161.2334423798
 20
107.4705926871
 30
0.0
 11
159.5013915723
 21
107.1285725438
 31
0.0
  0
LWPOLYLINE
  5
117
330
1F
100
AcDbEntity
  8
0
  6
HIDDEN
 62
     7
370
     0
100
AcDbPolyline
 90
       19
 70
   128
 43
0.0
 10
162.7429367803
 20
110.8767100684
 10
162.4273536672
 20
110.7911685384
 10
162.1803919944
 20
110.4785562741
 10
162.0318389845
 20
109.9765789281
 10
161.9996123228
 20
109.3457823767
 10
162.0875990205
 20
108.6622499937
 10
162.2851865831
 20
108.0084258723
 10
162.5685430347
 20
107.463170851
 10
162.9034914051
 20
107.0922507323
 10
163.2496319777
 20
106.9404039569
 10
163.5652150908
 20
107.0259454869
 10
163.8121767636
 20
107.3385577513
 10
163.9607297735
 20
107.8405350973
 10
163.9929564351
 20
108.4713316486
 10
163.9049697375
 20
109.1548640316
 10
163.7073821748
 20
109.808688153
 10
163.4240257233
 20
110.3539431744
 10
163.0890773529
 20
110.724863293
 10
162.7429367803
 20
110.8767100684
  0
LINE
  5
118
330
1F
100
AcDbEntity
  8
0
  6
HIDDEN
 62
     7
370
     0
100
AcDbLine
 10
159.7823794119
 20
107.6159903634
 30
0.0
 11
160.6176136241
 21
106.6910562529
 31
0.0
  0
LINE
  5
119
330
1F
100
AcDbEntity
  8
0
  6
HIDDEN
 62
     7
370
     0
100
AcDbLine
 10
159.5629739554
 20
109.3204609082
 30
0.0
 11
159.7823794119
 21
107.6159903634
 31
0.0
  0
LINE
  5
11A
330
1F
100
AcDbEntity
  8
0
  6
HIDDEN
 62
     7
370
     0
100
AcDbLine
 10
159.5629739554
 20
109.3204609082
 30
0.0
 11
160.1788027112
 21
110.0999973425
 31
0.0
  0
LINE
  5
11B
330
1F
100
AcDbEntity
  8
0
  6
HIDDEN
 62
     7
370
     0
100
AcDbLine
 10
161.2334423798
 20
107.4705926871
 30
0.0
 11
160.6176136241
 21
106.6910562529
 31
0.0
  0
LINE
  5
11C
330
1F
100
AcDbEntity
  8
0
  6
HIDDEN
 62
     7
370
     0
100
AcDbLine
 10
161.0140369234
 20
109.1750632319
 30
0.0
 11
161.2334423798
 21
107.4705926871
 31
0.0
  0
LINE
  5
11D
330
1F
100
AcDbEntity
  8
0
  6
HIDDEN
 62
     7
370
     0
100
AcDbLine
 10
161.0140369234
 20
109.1750632319
 30
0.0
 11
160.1788027112
 21
110.0999973425
 31
0.0
  0
LINE
  5
11E
330
1F
100
AcDbEntity
  8
0
  6
HIDDEN
 62
     7
370
     0
100
AcDbLine
 10
159.5629739554
 20
109.3204609082
 30
0.0
 11
157.8309231478
 21
108.9784407649
 31
0.0
  0
LINE
  5
11F
330
1F
100
AcDbEntity
  8
0
  6
HIDDEN
 62
     7
370
     0
100
AcDbLine
 10
160.1788027112
 20
110.0999973425
 30
0.0
 11
158.4467519036
 21
109.7579771992
 31
0.0
  0
LINE
  5
120
330
1F
100
AcDbEntity
  8
0
  6
HIDDEN
 62
     7
370
     0
100
AcDbLine
 10
159.7823794119
 20
107.6159903634
 30
0.0
 11
158.0503286043
 21
107.2739702201
 31
0.0
  0
LINE
  5
121
330
1F
100
AcDbEntity
  8
0
  6
HIDDEN
 62
     7
370
     0
100
AcDbLine
 10
160.6176136241
 20
106.6910562529
 30
0.0
 11
158.8855628165
 21
106.3490361096
 31
0.0
  0
LWPOLYLINE
  5
122
330
1F
100
AcDbEntity
  8
0
  6
HIDDEN
 62
     7
370
     0
100
AcDbPolyline
 90
       23
 70
   128
 43
0.0
 10
161.7502375772
 20
132.3847771315
 10
161.3568194339
 20
132.463399914
 10
161.0260607624
 20
132.7748252296
 10
160.7847576632
 20
133.2938232512
 10
160.6524590782
 20
133.9783478458
 10
160.6398830522
 20
134.7729429017
 10
160.7480484198
 20
135.6132350532
 10
160.9681922662
 20
136.4311488275
 10
161.2824798464
 20
137.160421715
 10
161.6654494496
 20
137.7419723634
 10
162.0860751563
 20
138.1286869979
 10
162.5102803732
 20
138.2892362986
 10
162.9036985165
 20
138.2106135161
 10
163.234457188
 20
137.8991882005
 10
163.4757602872
 20
137.3801901789
 10
163.6080588721
 20
136.6956655843
 10
163.6206348982
 20
135.9010705283
 10
163.5124695306
 20
135.0607783769
 10
163.2923256842
 20
134.2428646026
 10
162.978038104
 20
133.5135917151
 10
162.5950685008
 20
132.9320410667
 10
162.1744427941
 20
132.5453264322
 10
161.7502375772
 20
132.3847771315
  0
LWPOLYLINE
  5
123
330
1F
100
AcDbEntity
  8
0
  6
HIDDEN
 62
     7
370
     0
100
AcDbPolyline
 90
       19
 70
   128
 43
0.0
 10
162.7429367803
 20
133.1978435877
 10
162.4273536672
 20
133.2833851176
 10
162.1803919944
 20
133.595997382
 10
162.0318389845
 20
134.097974728
 10
161.9996123228
 20
134.7287712793
 10
162.0875990205
 20
135.4123036623
 10
162.2851865831
 20
136.0661277837
 10
162.5685430347
 20
136.6113828051
 10
162.9034914051
 20
136.9823029237
 10
163.2496319777
 20
137.1341496991
 10
163.5652150908
 20
137.0486081691
 10
163.8121767636
 20
136.7359959048
 10
163.9607297735
 20
136.2340185588
 10
163.9929564351
 20
135.6032220075
 10
163.9049697375
 20
134.9196896245
 10
163.7073821748
 20
134.265865503
 10
163.4240257233
 20
133.7206104817
 10
163.0890773529
 20
133.3496903631
 10
162.7429367803
 20
133.1978435877
  0
LWPOLYLINE
  5
124
330
1F
100
AcDbEntity
  8
0
  6
HIDDEN
 62
     7
370
     0
100
AcDbPolyline
 90
       23
 70
   128
 43
0.0
 10
158.563385962
 20
133.0140701299
 10
158.1699678187
 20
133.0926929125
 10
157.8392091472
 20
133.404118228
 10
157.597906048
 20
133.9231162497
 10
157.4656074631
 20
134.6076408443
 10
157.453031437
 20
135.4022359002
 10
157.5611968046
 20
136.2425280517
 10
157.7813406511
 20
137.060441826
 10
158.0956282313
 20
137.7897147134
 10
158.4785978345
 20
138.3712653619
 10
158.8992235412
 20
138.7579799964
 10
159.3234287581
 20
138.9185292971
 10
159.7168469014
 20
138.8399065145
 10
160.0476055729
 20
138.528481199
 10
160.2889086721
 20
138.0094831773
 10
160.421207257
 20
137.3249585827
 10
160.4337832831
 20
136.5303635268
 10
160.3256179155
 20
135.6900713753
 10
160.105474069
 20
134.872157601
 10
159.7911864889
 20
134.1428847136
 10
159.4082168856
 20
133.5613340651
 10
158.9875911789
 20
133.1746194306
 10
158.563385962
 20
133.0140701299
  0
LWPOLYLINE
  5
125
330
1F
100
AcDbEntity
  8
0
  6
HIDDEN
 62
     7
370
     0
100
AcDbPolyline
 90
       21
 70
   128
 43
0.0
 10
158.3563765838
 20
133.6144878528
 10
158.0060150599
 20
133.6956475153
 10
157.7202728639
 20
134.0044334815
 10
157.5271204327
 20
134.5106196296
 10
157.4454648721
 20
135.1646569327
 10
157.4832991973
 20
135.9025236626
 10
157.6369199209
 20
136.6519922827
 10
157.8912895762
 20
137.3396995826
 10
158.221508689
 20
137.8983279803
 10
158.5952531117
 20
138.2731950361
 10
158.9759381363
 20
138.4276061506
 10
159.3262996602
 20
138.3464464881
 10
159.6120418562
 20
138.0376605219
 10
159.8051942874
 20
137.5314743737
 10
159.886849848
 20
136.8774370707
 10
159.8490155228
 20
136.1395703408
 10
159.6953947992
 20
135.3901017207
 10
159.4410251439
 20
134.7023944208
 10
159.1108060311
 20
134.1437660231
 10
158.7370616084
 20
133.7688989673
 10
158.3563765838
 20
133.6144878528
  0
LINE
  5
126
330
1F
100
AcDbEntity
  8
0
  6
HIDDEN
 62
     7
370
     0
100
AcDbLine
 10
159.7823794119
 20
136.4585632926
 30
0.0
 11
160.6176136241
 21
137.3834974032
 31
0.0
  0
LINE
  5
127
330
1F
100
AcDbEntity
  8
0
  6
HIDDEN
 62
     7
370
     0
100
AcDbLine
 10
158.0503286043
 20
136.800583436
 30
0.0
 11
158.8855628165
 21
137.7255175465
 31
0.0
  0
LINE
  5
128
330
1F
100
AcDbEntity
  8
0
  6
HIDDEN
 62
     7
370
     0
100
AcDbLine
 10
157.8309231478
 20
135.0961128912
 30
0.0
 11
158.0503286043
 21
136.800583436
 31
0.0
  0
LINE
  5
129
330
1F
100
AcDbEntity
  8
0
  6
HIDDEN
 62
     7
370
     0
100
AcDbLine
 10
159.7823794119
 20
136.4585632926
 30
0.0
 11
158.0503286043
 21
136.800583436
 31
0.0
  0
LINE
  5
12A
330
1F
100
AcDbEntity
  8
0
  6
HIDDEN
 62
     7
370
     0
100
AcDbLine
 10
159.5629739554
 20
134.7540927478
 30
0.0
 11
159.7823794119
 21
136.4585632926
 31
0.0
  0
LINE
  5
12B
330
1F
100
AcDbEntity
  8
0
  6
HIDDEN
 62
     7
370
     0
100
AcDbLine
 10
159.5629739554
 20
134.7540927478
 30
0.0
 11
157.8309231478
 21
135.0961128912
 31
0.0
  0
LINE
  5
12C
330
1F
100
AcDbEntity
  8
0
  6
HIDDEN
 62
     7
370
     0
100
AcDbLine
 10
157.8309231478
 20
135.0961128912
 30
0.0
 11
158.4467519036
 21
134.3165764569
 31
0.0
  0
LINE
  5
12D
330
1F
100
AcDbEntity
  8
0
  6
HIDDEN
 62
     7
370
     0
100
AcDbLine
 10
159.5629739554
 20
134.7540927478
 30
0.0
 11
160.1788027112
 21
133.9745563136
 31
0.0
  0
LINE
  5
12E
330
1F
100
AcDbEntity
  8
0
  6
HIDDEN
 62
     7
370
     0
100
AcDbLine
 10
161.2334423798
 20
136.6039609689
 30
0.0
 11
159.5013915723
 21
136.9459811122
 31
0.0
  0
LINE
  5
12F
330
1F
100
AcDbEntity
  8
0
  6
HIDDEN
 62
     7
370
     0
100
AcDbLine
 10
159.5013915723
 20
136.9459811122
 30
0.0
 11
158.8855628165
 21
137.7255175465
 31
0.0
  0
LINE
  5
130
330
1F
100
AcDbEntity
  8
0
  6
HIDDEN
 62
     7
370
     0
100
AcDbLine
 10
160.6176136241
 20
137.3834974032
 30
0.0
 11
158.8855628165
 21
137.7255175465
 31
0.0
  0
LINE
  5
131
330
1F
100
AcDbEntity
  8
0
  6
HIDDEN
 62
     7
370
     0
100
AcDbLine
 10
161.2334423798
 20
136.6039609689
 30
0.0
 11
160.6176136241
 21
137.3834974032
 31
0.0
  0
LINE
  5
132
330
1F
100
AcDbEntity
  8
0
  6
HIDDEN
 62
     7
370
     0
100
AcDbLine
 10
161.0140369234
 20
134.8994904241
 30
0.0
 11
159.2819861158
 21
135.2415105674
 31
0.0
  0
LINE
  5
133
330
1F
100
AcDbEntity
  8
0
  6
HIDDEN
 62
     7
370
     0
100
AcDbLine
 10
160.1788027112
 20
133.9745563136
 30
0.0
 11
158.4467519036
 21
134.3165764569
 31
0.0
  0
LINE
  5
134
330
1F
100
AcDbEntity
  8
0
  6
HIDDEN
 62
     7
370
     0
100
AcDbLine
 10
159.2819861158
 20
135.2415105674
 30
0.0
 11
158.4467519036
 21
134.3165764569
 31
0.0
  0
LINE
  5
135
330
1F
100
AcDbEntity
  8
0
  6
HIDDEN
 62
     7
370
     0
100
AcDbLine
 10
161.0140369234
 20
134.8994904241
 30
0.0
 11
160.1788027112
 21
133.9745563136
 31
0.0
  0
LINE
  5
136
330
1F
100
AcDbEntity
  8
0
  6
HIDDEN
 62
     7
370
     0
100
AcDbLine
 10
159.2819861158
 20
135.2415105674
 30
0.0
 11
159.5013915723
 21
136.9459811122
 31
0.0
  0
LINE
  5
137
330
1F
100
AcDbEntity
  8
0
  6
HIDDEN
 62
     7
370
     0
100
AcDbLine
 10
161.0140369234
 20
134.8994904241
 30
0.0
 11
161.2334423798
 21
136.6039609689
 31
0.0
  0
LWPOLYLINE
  5
138
330
1F
100
AcDbEntity
  8
0
  6
HIDDEN
 62
     7
370
     0
100
AcDbPolyline
 90
       23
 70
   128
 43
0.0
 10
178.0304464605
 20
132.5422215174
 10
177.1991447176
 20
132.3588877829
 10
176.3465506031
 20
132.4030608428
 10
175.5417362218
 20
132.6711620585
 10
174.8499028483
 20
133.1414714638
 10
174.327098708
 20
133.7758873879
 10
174.0156782833
 20
134.5230132256
 10
173.9408710047
 20
135.3223212848
 10
174.1087373132
 20
136.1090563802
 10
174.5056776787
 20
136.8194819134
 10
175.0995343535
 20
137.3960434326
 10
175.8421966017
 20
137.7920313526
 10
176.6734983446
 20
137.975365087
 10
177.526092459
 20
137.9311920271
 10
178.3309068404
 20
137.6630908115
 10
179.0227402139
 20
137.1927814061
 10
179.5455443541
 20
136.558365482
 10
179.8569647789
 20
135.8112396444
 10
179.9317720574
 20
135.0119315852
 10
179.763905749
 20
134.2251964897
 10
179.3669653835
 20
133.5147709566
 10
178.7731087087
 20
132.9382094373
 10
178.0304464605
 20
132.5422215174
  0
LWPOLYLINE
  5
139
330
1F
100
AcDbEntity
  8
0
  6
HIDDEN
 62
     7
370
     0
100
AcDbPolyline
 90
       19
 70
   128
 43
0.0
 10
177.6657381507
 20
133.0751696799
 10
176.9848241075
 20
132.9462737881
 10
176.2980599377
 20
133.0439928248
 10
175.6882795359
 20
133.356540432
 10
175.2290314178
 20
133.8462187556
 10
174.9757076843
 20
134.453965363
 10
174.9588629163
 20
135.1064770437
 10
175.1805288414
 20
135.7250512592
 10
175.6139692776
 20
136.2350788299
 10
176.2069049115
 20
136.5750429034
 10
176.8878189547
 20
136.7039387952
 10
177.5745831244
 20
136.6062197585
 10
178.1843635263
 20
136.2936721513
 10
178.6436116444
 20
135.8039938277
 10
178.8969353779
 20
135.1962472203
 10
178.9137801459
 20
134.5437355396
 10
178.6921142208
 20
133.9251613241
 10
178.2586737845
 20
133.4151337534
 10
177.6657381507
 20
133.0751696799
  0
LWPOLYLINE
  5
13A
330
1F
100
AcDbEntity
  8
0
  6
HIDDEN
 62
     7
370
     0
100
AcDbPolyline
 90
       23
 70
   128
 43
0.0
 10
178.0304464605
 20
133.8008075143
 10
177.1991447176
 20
133.6174737798
 10
176.3465506031
 20
133.6616468397
 10
175.5417362218
 20
133.9297480554
 10
174.8499028483
 20
134.4000574607
 10
174.327098708
 20
135.0344733848
 10
174.0156782833
 20
135.7815992225
 10
173.9408710047
 20
136.5809072817
 10
174.1087373132
 20
137.3676423771
 10
174.5056776787
 20
138.0780679103
 10
175.0995343535
 20
138.6546294295
 10
175.8421966017
 20
139.0506173495
 10
176.6734983446
 20
139.2339510839
 10
177.526092459
 20
139.189778024
 10
178.3309068404
 20
138.9216768084
 10
179.0227402139
 20
138.451367403
 10
179.5455443541
 20
137.8169514789
 10
179.8569647789
 20
137.0698256413
 10
179.9317720574
 20
136.2705175821
 10
179.763905749
 20
135.4837824866
 10
179.3669653835
 20
134.7733569535
 10
178.7731087087
 20
134.1967954342
 10
178.0304464605
 20
133.8008075143
  0
LINE
  5
13B
330
1F
100
AcDbEntity
  8
0
  6
HIDDEN
 62
     7
370
     0
100
AcDbLine
 10
178.0171576039
 20
137.1229820632
 30
0.0
 11
176.3046282086
 21
137.3666562824
 31
0.0
  0
LINE
  5
13C
330
1F
100
AcDbEntity
  8
0
  6
HIDDEN
 62
     7
370
     0
100
AcDbLine
 10
176.3046282086
 20
137.3666562824
 30
0.0
 11
176.3046282086
 21
138.0506965691
 31
0.0
  0
LINE
  5
13D
330
1F
100
AcDbEntity
  8
0
  6
HIDDEN
 62
     7
370
     0
100
AcDbLine
 10
175.2237921357
 20
136.0948409408
 30
0.0
 11
176.3046282086
 21
137.3666562824
 31
0.0
  0
LINE
  5
13E
330
1F
100
AcDbEntity
  8
0
  6
HIDDEN
 62
     7
370
     0
100
AcDbLine
 10
178.0171576039
 20
137.1229820632
 30
0.0
 11
178.0171576039
 21
137.8070223499
 31
0.0
  0
LINE
  5
13F
330
1F
100
AcDbEntity
  8
0
  6
HIDDEN
 62
     7
370
     0
100
AcDbLine
 10
178.6488509264
 20
135.6074925024
 30
0.0
 11
178.0171576039
 21
137.1229820632
 31
0.0
  0
LINE
  5
140
330
1F
100
AcDbEntity
  8
0
  6
HIDDEN
 62
     7
370
     0
100
AcDbLine
 10
175.8554854583
 20
134.57935138
 30
0.0
 11
175.8554854583
 21
135.2633916667
 31
0.0
  0
LINE
  5
141
330
1F
100
AcDbEntity
  8
0
  6
HIDDEN
 62
     7
370
     0
100
AcDbLine
 10
175.8554854583
 20
135.2633916667
 30
0.0
 11
175.2237921357
 21
136.7788812275
 31
0.0
  0
LINE
  5
142
330
1F
100
AcDbEntity
  8
0
  6
HIDDEN
 62
     7
370
     0
100
AcDbLine
 10
175.2237921357
 20
136.0948409408
 30
0.0
 11
175.2237921357
 21
136.7788812275
 31
0.0
  0
LINE
  5
143
330
1F
100
AcDbEntity
  8
0
  6
HIDDEN
 62
     7
370
     0
100
AcDbLine
 10
175.8554854583
 20
134.57935138
 30
0.0
 11
175.2237921357
 21
136.0948409408
 31
0.0
  0
LINE
  5
144
330
1F
100
AcDbEntity
  8
0
  6
HIDDEN
 62
     7
370
     0
100
AcDbLine
 10
177.5680148536
 20
134.3356771608
 30
0.0
 11
177.5680148536
 21
135.0197174475
 31
0.0
  0
LINE
  5
145
330
1F
100
AcDbEntity
  8
0
  6
HIDDEN
 62
     7
370
     0
100
AcDbLine
 10
178.6488509264
 20
136.2915327891
 30
0.0
 11
177.5680148536
 21
135.0197174475
 31
0.0
  0
LINE
  5
146
330
1F
100
AcDbEntity
  8
0
  6
HIDDEN
 62
     7
370
     0
100
AcDbLine
 10
178.6488509264
 20
135.6074925024
 30
0.0
 11
178.6488509264
 21
136.2915327891
 31
0.0
  0
LINE
  5
147
330
1F
100
AcDbEntity
  8
0
  6
HIDDEN
 62
     7
370
     0
100
AcDbLine
 10
178.6488509264
 20
135.6074925024
 30
0.0
 11
177.5680148536
 21
134.3356771608
 31
0.0
  0
LINE
  5
148
330
1F
100
AcDbEntity
  8
0
  6
HIDDEN
 62
     7
370
     0
100
AcDbLine
 10
175.8554854583
 20
135.2633916667
 30
0.0
 11
177.5680148536
 21
135.0197174475
 31
0.0
  0
LINE
  5
149
330
1F
100
AcDbEntity
  8
0
  6
HIDDEN
 62
     7
370
     0
100
AcDbLine
 10
175.8554854583
 20
134.57935138
 30
0.0
 11
177.5680148536
 21
134.3356771608
 31
0.0
  0
LWPOLYLINE
  5
14A
330
1F
100
AcDbEntity
  8
0
  6
HIDDEN
 62
     7
370
     0
100
AcDbPolyline
 90
       21
 70
   128
 43
0.0
 10
177.8282157027
 20
134.3954720163
 10
177.0809135467
 20
134.2412089891
 10
176.3194577167
 20
134.3114984712
 10
175.6183848148
 20
134.5994600384
 10
175.0463207414
 20
135.0769060062
 10
174.6592631136
 20
135.6971006367
 10
174.4950998289
 20
136.3993349582
 10
174.5699003335
 20
137.1148693827
 10
174.8763426326
 20
137.7736624152
 10
175.3844300191
 20
138.3112268037
 10
176.0444273595
 20
138.6749420003
 10
176.7917295155
 20
138.8292050275
 10
177.5531853455
 20
138.7589155453
 10
178.2542582473
 20
138.4709539781
 10
178.8263223208
 20
137.9935080103
 10
179.2133799486
 20
137.3733133799
 10
179.3775432332
 20
136.6710790583
 10
179.3027427287
 20
135.9555446339
 10
178.9963004295
 20
135.2967516014
 10
178.488213043
 20
134.7591872129
 10
177.8282157027
 20
134.3954720163
  0
LINE
  5
14B
330
1F
100
AcDbEntity
  8
0
  6
HIDDEN
 62
     7
370
     0
100
AcDbLine
 10
178.6488509264
 20
136.2915327891
 30
0.0
 11
178.0171576039
 21
137.8070223499
 31
0.0
  0
LINE
  5
14C
330
1F
100
AcDbEntity
  8
0
  6
HIDDEN
 62
     7
370
     0
100
AcDbLine
 10
175.2237921357
 20
136.7788812275
 30
0.0
 11
176.3046282086
 21
138.0506965691
 31
0.0
  0
LINE
  5
14D
330
1F
100
AcDbEntity
  8
0
  6
HIDDEN
 62
     7
370
     0
100
AcDbLine
 10
178.0171576039
 20
137.8070223499
 30
0.0
 11
176.3046282086
 21
138.0506965691
 31
0.0
  0
LINE
  5
14E
330
1F
100
AcDbEntity
  8
0
  6
HIDDEN
 62
     7
370
     0
100
AcDbLine
 10
156.7363215311
 20
104.6145012252
 30
0.0
 11
159.0174954097
 21
105.0649541874
 31
0.0
  0
LINE
  5
14F
330
1F
100
AcDbEntity
  8
0
  6
HIDDEN
 62
     7
370
     0
100
AcDbLine
 10
157.8551476525
 20
110.9512898635
 30
0.0
 11
156.7363215311
 21
110.7303603915
 31
0.0
  0
LINE
  5
150
330
1F
100
AcDbEntity
  8
0
  6
HIDDEN
 62
     7
370
     0
100
AcDbLine
 10
179.4363215311
 20
107.5020555617
 30
0.0
 11
179.4363215311
 21
119.9895052102
 31
0.0
  0
LINE
  5
151
330
1F
100
AcDbEntity
  8
0
  6
HIDDEN
 62
     7
370
     0
100
AcDbLine
 10
174.4363215311
 20
110.3384028782
 30
0.0
 11
174.4363215311
 21
107.5014845071
 31
0.0
  0
LINE
  5
152
330
1F
100
AcDbEntity
  8
0
  6
HIDDEN
 62
     7
370
     0
100
AcDbLine
 10
174.4363215311
 20
119.9885750317
 30
0.0
 11
174.4363215311
 21
111.9965339857
 31
0.0
  0
LINE
  5
153
330
1F
100
AcDbEntity
  8
0
  6
HIDDEN
 62
     7
370
     0
100
AcDbLine
 10
159.1268299683
 20
106.0039228571
 30
0.0
 11
175.3466087223
 21
109.2067683105
 31
0.0
  0
LINE
  5
154
330
1F
100
AcDbEntity
  8
0
  6
HIDDEN
 62
     7
370
     0
100
AcDbLine
 10
175.3511908716
 20
113.4887745429
 30
0.0
 11
158.3131865382
 21
110.1243578303
 31
0.0
  0
ARC
  5
155
330
1F
100
AcDbEntity
  8
0
  6
HIDDEN
 62
     7
370
     0
100
AcDbCircle
 10
227.7363215311
 20
141.037276828
 30
0.0
 40
1.0
100
AcDbArc
 50
270.0
 51
0.0
  0
ARC
  5
156
330
1F
100
AcDbEntity
  8
0
  6
HIDDEN
 62
     7
370
     0
100
AcDbCircle
 10
227.7363215311
 20
103.037276828
 30
0.0
 40
1.0
100
AcDbArc
 50
0.0
 51
90.0
  0
LINE
  5
157
330
1F
100
AcDbEntity
  8
0
  6
HIDDEN
 62
     7
370
     0
100
AcDbLine
 10
191.1046690335
 20
140.537276828
 30
0.0
 11
189.2363215311
 21
140.537276828
 31
0.0
  0
LINE
  5
158
330
1F
100
AcDbEntity
  8
0
  6
HIDDEN
 62
     7
370
     0
100
AcDbLine
 10
189.2363215311
 20
103.537276828
 30
0.0
 11
191.1046690335
 21
103.537276828
 31
0.0
  0
ARC
  5
159
330
1F
100
AcDbEntity
  8
0
  6
HIDDEN
 62
     7
370
     0
100
AcDbCircle
 10
191.1046690335
 20
139.537276828
 30
0.0
 40
1.000000000000003
100
AcDbArc
 50
75.0
 51
90.0
  0
ARC
  5
15A
330
1F
100
AcDbEntity
  8
0
  6
HIDDEN
 62
     7
370
     0
100
AcDbCircle
 10
191.1046690335
 20
104.537276828
 30
0.0
 40
1.000000000000003
100
AcDbArc
 50
270.0
 51
285.0
  0
ARC
  5
15B
330
1F
100
AcDbEntity
  8
0
  6
HIDDEN
 62
     7
370
     0
100
AcDbCircle
 10
189.2363215311
 20
139.537276828
 30
0.0
 40
1.0
100
AcDbArc
 50
90.0
 51
180.0
  0
ARC
  5
15C
330
1F
100
AcDbEntity
  8
0
  6
HIDDEN
 62
     7
370
     0
100
AcDbCircle
 10
189.2363215311
 20
104.537276828
 30
0.0
 40
1.0
100
AcDbArc
 50
180.0
 51
270.0
  0
LINE
  5
15D
330
1F
100
AcDbEntity
  8
0
  6
HIDDEN
 62
     7
370
     0
100
AcDbLine
 10
191.3634880786
 20
103.5713510017
 30
0.0
 11
193.1023469349
 21
104.037276828
 31
0.0
  0
LINE
  5
15E
330
1F
100
AcDbEntity
  8
0
  6
HIDDEN
 62
     7
370
     0
100
AcDbLine
 10
193.1023469349
 20
140.037276828
 30
0.0
 11
191.3634880786
 21
140.5032026543
 31
0.0
  0
LINE
  5
15F
330
1F
100
AcDbEntity
  8
0
  6
HIDDEN
 62
     7
370
     0
100
AcDbLine
 10
203.4551457224
 20
140.037276828
 30
0.0
 11
193.1023469349
 21
140.037276828
 31
0.0
  0
LINE
  5
160
330
1F
100
AcDbEntity
  8
0
  6
HIDDEN
 62
     7
370
     0
100
AcDbLine
 10
227.7363215311
 20
140.037276828
 30
0.0
 11
217.910384314
 21
140.037276828
 31
0.0
  0
LINE
  5
161
330
1F
100
AcDbEntity
  8
0
  6
HIDDEN
 62
     7
370
     0
100
AcDbLine
 10
193.1023469349
 20
104.037276828
 30
0.0
 11
227.7363215311
 21
104.037276828
 31
0.0
  0
ARC
  5
162
330
1F
100
AcDbEntity
  8
0
  6
HIDDEN
 62
     7
370
     0
100
AcDbCircle
 10
53.1363215311
 20
108.337276828
 30
0.0
 40
1.200000000000003
100
AcDbArc
 50
90.0
 51
180.0
  0
ARC
  5
163
330
1F
100
AcDbEntity
  8
0
  6
HIDDEN
 62
     7
370
     0
100
AcDbCircle
 10
53.1363215311
 20
135.737276828
 30
0.0
 40
1.200000000000017
100
AcDbArc
 50
180.0
 51
270.0
  0
LINE
  5
164
330
1F
100
AcDbEntity
  8
0
  6
HIDDEN
 62
     7
370
     0
100
AcDbLine
 10
186.7363215311
 20
72.9370614409
 30
0.0
 11
186.7363215311
 21
84.737276828
 31
0.0
  0
ARC
  5
165
330
1F
100
AcDbEntity
  8
0
  6
HIDDEN
 62
     7
370
     0
100
AcDbCircle
 10
184.7363215311
 20
84.737276828
 30
0.0
 40
2.0
100
AcDbArc
 50
0.0
 51
90.0
  0
ARC
  5
166
330
1F
100
AcDbEntity
  8
0
  6
HIDDEN
 62
     7
370
     0
100
AcDbCircle
 10
184.7363215311
 20
159.337276828
 30
0.0
 40
2.0
100
AcDbArc
 50
270.0
 51
0.0
  0
LINE
  5
167
330
1F
100
AcDbEntity
  8
0
  6
HIDDEN
 62
     7
370
     0
100
AcDbLine
 10
186.7363215311
 20
159.337276828
 30
0.0
 11
186.7363215311
 21
171.1373801786
 31
0.0
  0
ARC
  5
168
330
1F
100
AcDbEntity
  8
0
  6
HIDDEN
 62
     7
370
     0
100
AcDbCircle
 10
63.7053814234
 20
109.712276828
 30
0.0
 40
0.3999999999999875
100
AcDbArc
 50
270.0
 51
330.0
  0
ARC
  5
169
330
1F
100
AcDbEntity
  8
0
  6
HIDDEN
 62
     7
370
     0
100
AcDbCircle
 10
63.7053814234
 20
134.362276828
 30
0.0
 40
0.3999999999999946
100
AcDbArc
 50
30.0
 51
90.0
  0
LINE
  5
16A
330
1F
100
AcDbEntity
  8
0
  6
HIDDEN
 62
     7
370
     0
100
AcDbLine
 10
62.8286939618
 20
109.312276828
 30
0.0
 11
63.7053814234
 21
109.312276828
 31
0.0
  0
LINE
  5
16B
330
1F
100
AcDbEntity
  8
0
  6
HIDDEN
 62
     7
370
     0
100
AcDbLine
 10
63.7053814234
 20
134.762276828
 30
0.0
 11
62.8286939618
 21
134.762276828
 31
0.0
  0
ARC
  5
16C
330
1F
100
AcDbEntity
  8
0
  6
HIDDEN
 62
     7
370
     0
100
AcDbCircle
 10
62.8286939618
 20
109.712276828
 30
0.0
 40
0.3999999999999915
100
AcDbArc
 50
255.0
 51
270.0
  0
ARC
  5
16D
330
1F
100
AcDbEntity
  8
0
  6
HIDDEN
 62
     7
370
     0
100
AcDbCircle
 10
62.8286939618
 20
134.362276828
 30
0.0
 40
0.3999999999999986
100
AcDbArc
 50
90.0
 51
105.0
  0
LINE
  5
16E
330
1F
100
AcDbEntity
  8
0
  6
HIDDEN
 62
     7
370
     0
100
AcDbLine
 10
62.7251663438
 20
134.7486471585
 30
0.0
 11
61.9363215311
 21
134.537276828
 31
0.0
  0
LINE
  5
16F
330
1F
100
AcDbEntity
  8
0
  6
HIDDEN
 62
     7
370
     0
100
AcDbLine
 10
61.9363215311
 20
109.537276828
 30
0.0
 11
62.7251663438
 21
109.3259064975
 31
0.0
  0
LINE
  5
170
330
1F
100
AcDbEntity
  8
0
  6
HIDDEN
 62
     7
370
     0
100
AcDbLine
 10
64.0517915849
 20
109.512276828
 30
0.0
 11
65.22092588
 21
111.537276828
 31
0.0
  0
LINE
  5
171
330
1F
100
AcDbEntity
  8
0
  6
HIDDEN
 62
     7
370
     0
100
AcDbLine
 10
65.22092588
 20
132.537276828
 30
0.0
 11
64.0517915849
 21
134.562276828
 31
0.0
  0
LINE
  5
172
330
1F
100
AcDbEntity
  8
0
  6
HIDDEN
 62
     7
370
     0
100
AcDbLine
 10
53.1363215311
 20
109.537276828
 30
0.0
 11
61.9363215311
 21
109.537276828
 31
0.0
  0
LINE
  5
173
330
1F
100
AcDbEntity
  8
0
  6
HIDDEN
 62
     7
370
     0
100
AcDbLine
 10
61.9363215311
 20
134.537276828
 30
0.0
 11
53.1363215311
 21
134.537276828
 31
0.0
  0
LINE
  5
174
330
1F
100
AcDbEntity
  8
0
  6
HIDDEN
 62
     7
370
     0
100
AcDbLine
 10
65.22092588
 20
111.537276828
 30
0.0
 11
114.9363215311
 21
111.537276828
 31
0.0
  0
LINE
  5
175
330
1F
100
AcDbEntity
  8
0
  6
HIDDEN
 62
     7
370
     0
100
AcDbLine
 10
114.9363215311
 20
132.537276828
 30
0.0
 11
65.22092588
 21
132.537276828
 31
0.0
  0
LINE
  5
176
330
1F
100
AcDbEntity
  8
0
  6
HIDDEN
 62
     7
370
     0
100
AcDbLine
 10
114.9363215311
 20
111.537276828
 30
0.0
 11
117.6401943167
 21
116.037276828
 31
0.0
  0
LINE
  5
177
330
1F
100
AcDbEntity
  8
0
  6
HIDDEN
 62
     7
370
     0
100
AcDbLine
 10
117.6401943167
 20
128.037276828
 30
0.0
 11
114.9363215311
 21
132.537276828
 31
0.0
  0
LINE
  5
178
330
1F
100
AcDbEntity
  8
0
  6
HIDDEN
 62
     7
370
     0
100
AcDbLine
 10
200.6863215311
 20
153.537276828
 30
0.0
 11
203.4363215311
 21
150.787276828
 31
0.0
  0
LINE
  5
179
330
1F
100
AcDbEntity
  8
0
  6
HIDDEN
 62
     7
370
     0
100
AcDbLine
 10
217.9363215311
 20
150.787276828
 30
0.0
 11
220.6863215311
 21
153.537276828
 31
0.0
  0
LINE
  5
17A
330
1F
100
AcDbEntity
  8
0
  6
HIDDEN
 62
     7
370
     0
100
AcDbLine
 10
186.7363258515
 20
171.0372773517
 30
0.0
 11
187.7363257008
 21
172.0372771306
 31
0.0
  0
LINE
  5
17B
330
1F
100
AcDbEntity
  8
0
  6
HIDDEN
 62
     7
370
     0
100
AcDbLine
 10
187.7363257015
 20
72.0372765248
 30
0.0
 11
186.7363258522
 21
73.0372763036
 31
0.0
  0
LINE
  5
17C
330
1F
100
AcDbEntity
  8
0
  6
HIDDEN
 62
     7
370
     0
100
AcDbLine
 10
203.4363215311
 20
150.787276828
 30
0.0
 11
203.4363215311
 21
140.0297179601
 31
0.0
  0
LINE
  5
17D
330
1F
100
AcDbEntity
  8
0
  6
HIDDEN
 62
     7
370
     0
100
AcDbLine
 10
217.9363215311
 20
140.0268463026
 30
0.0
 11
217.9363215311
 21
150.787276828
 31
0.0
  0
LINE
  5
17E
330
1F
100
AcDbEntity
  8
0
  6
HIDDEN
 62
     7
370
     0
100
AcDbLine
 10
188.2363215311
 20
128.037276828
 30
0.0
 11
117.6401943167
 21
128.037276828
 31
0.0
  0
LINE
  5
17F
330
1F
100
AcDbEntity
  8
0
  6
HIDDEN
 62
     7
370
     0
100
AcDbLine
 10
117.6401943167
 20
116.037276828
 30
0.0
 11
188.2363215311
 21
116.037276828
 31
0.0
  0
LINE
  5
180
330
1F
100
AcDbEntity
  8
0
  6
HIDDEN
 62
     7
370
     0
100
AcDbLine
 10
179.4363215311
 20
124.0859786244
 30
0.0
 11
179.4363215311
 21
136.5730691489
 31
0.0
  0
LINE
  5
181
330
1F
100
AcDbEntity
  8
0
  6
HIDDEN
 62
     7
370
     0
100
AcDbLine
 10
174.4363215311
 20
132.0825077027
 30
0.0
 11
174.4363215311
 21
124.0850484459
 31
0.0
  0
LINE
  5
182
330
1F
100
AcDbEntity
  8
0
  6
HIDDEN
 62
     7
370
     0
100
AcDbLine
 10
174.4363215311
 20
136.5724980944
 30
0.0
 11
174.4363215311
 21
133.7303733294
 31
0.0
  0
LINE
  5
183
330
1F
100
AcDbEntity
  8
0
  6
HIDDEN
 62
     7
370
     0
100
AcDbLine
 10
158.3131865382
 20
133.9501958257
 30
0.0
 11
175.3463058877
 21
130.5867437285
 31
0.0
  0
LINE
  5
184
330
1F
100
AcDbEntity
  8
0
  6
HIDDEN
 62
     7
370
     0
100
AcDbLine
 10
175.3341859651
 20
134.8702384105
 30
0.0
 11
159.1268299683
 21
138.070630799
 31
0.0
  0
LINE
  5
185
330
1F
100
AcDbEntity
  8
0
  6
HIDDEN
 62
     7
370
     0
100
AcDbLine
 10
156.7363215311
 20
133.3441932646
 30
0.0
 11
157.8551476525
 21
133.1232637926
 31
0.0
  0
LINE
  5
186
330
1F
100
AcDbEntity
  8
0
  6
HIDDEN
 62
     7
370
     0
100
AcDbLine
 10
159.0174954097
 20
139.0095994686
 30
0.0
 11
156.7363215311
 21
139.4600524308
 31
0.0
  0
LINE
  5
187
330
1F
100
AcDbEntity
  8
0
  6
HIDDEN
 62
     7
370
     0
100
AcDbLine
 10
218.6863215311
 20
149.787276828
 30
0.0
 11
217.6863215311
 21
150.787276828
 31
0.0
  0
LINE
  5
188
330
1F
100
AcDbEntity
  8
0
  6
HIDDEN
 62
     7
370
     0
100
AcDbLine
 10
203.6863215311
 20
150.787276828
 30
0.0
 11
202.6863215311
 21
149.787276828
 31
0.0
  0
LINE
  5
189
330
1F
100
AcDbEntity
  8
0
  6
HIDDEN
 62
     7
370
     0
100
AcDbLine
 10
202.6863215311
 20
149.787276828
 30
0.0
 11
202.6863215311
 21
139.6174038469
 31
0.0
  0
LINE
  5
18A
330
1F
100
AcDbEntity
  8
0
  6
HIDDEN
 62
     7
370
     0
100
AcDbLine
 10
218.6863215311
 20
139.6174038469
 30
0.0
 11
218.6863215311
 21
149.787276828
 31
0.0
  0
LINE
  5
18B
330
1F
100
AcDbEntity
  8
0
  6
HIDDEN
 62
     7
370
     0
100
AcDbLine
 10
202.6863215311
 20
139.6174038469
 30
0.0
 11
205.0870221119
 21
130.6578673055
 31
0.0
  0
LINE
  5
18C
330
1F
100
AcDbEntity
  8
0
  6
HIDDEN
 62
     7
370
     0
100
AcDbLine
 10
216.2856209502
 20
130.6578673055
 30
0.0
 11
218.6863215311
 21
139.6174038469
 31
0.0
  0
ARC
  5
18D
330
1F
100
AcDbEntity
  8
0
  6
HIDDEN
 62
     7
370
     0
100
AcDbCircle
 10
205.5699850251
 20
130.787276828
 30
0.0
 40
0.5
100
AcDbArc
 50
195.0
 51
270.0
  0
ARC
  5
18E
330
1F
100
AcDbEntity
  8
0
  6
HIDDEN
 62
     7
370
     0
100
AcDbCircle
 10
215.8026580371
 20
130.787276828
 30
0.0
 40
0.5000000000000152
100
AcDbArc
 50
270.0
 51
345.0
  0
LINE
  5
18F
330
1F
100
AcDbEntity
  8
0
  6
HIDDEN
 62
     7
370
     0
100
AcDbLine
 10
205.9863215311
 20
150.787276828
 30
0.0
 11
206.3611590769
 21
150.4124392822
 31
0.0
  0
LINE
  5
190
330
1F
100
AcDbEntity
  8
0
  6
HIDDEN
 62
     7
370
     0
100
AcDbLine
 10
215.0114839853
 20
150.4124392822
 30
0.0
 11
215.3863215311
 21
150.787276828
 31
0.0
  0
LINE
  5
191
330
1F
100
AcDbEntity
  8
0
  6
HIDDEN
 62
     7
370
     0
100
AcDbLine
 10
206.6863215311
 20
140.787276828
 30
0.0
 11
206.6863215311
 21
139.787276828
 31
0.0
  0
LINE
  5
192
330
1F
100
AcDbEntity
  8
0
  6
HIDDEN
 62
     7
370
     0
100
AcDbLine
 10
214.6863215311
 20
139.787276828
 30
0.0
 11
214.6863215311
 21
140.787276828
 31
0.0
  0
LINE
  5
193
330
1F
100
AcDbEntity
  8
0
  6
HIDDEN
 62
     7
370
     0
100
AcDbLine
 10
206.6863215311
 20
139.787276828
 30
0.0
 11
210.6863215311
 21
138.331395891
 31
0.0
  0
LINE
  5
194
330
1F
100
AcDbEntity
  8
0
  6
HIDDEN
 62
     7
370
     0
100
AcDbLine
 10
210.6863215311
 20
138.331395891
 30
0.0
 11
214.6863215311
 21
139.787276828
 31
0.0
  0
LINE
  5
195
330
1F
100
AcDbEntity
  8
0
  6
HIDDEN
 62
     7
370
     0
100
AcDbLine
 10
157.4434073601
 20
108.9968483407
 30
0.0
 11
157.4434073601
 21
108.7778591879
 31
0.0
  0
LINE
  5
196
330
1F
100
AcDbEntity
  8
0
  6
HIDDEN
 62
     7
370
     0
100
AcDbLine
 10
157.8105182957
 20
106.9187441475
 30
0.0
 11
157.8937581296
 21
106.7161919836
 31
0.0
  0
LINE
  5
197
330
1F
100
AcDbEntity
  8
0
  6
HIDDEN
 62
     7
370
     0
100
AcDbLine
 10
159.5245812387
 20
105.1650861045
 30
0.0
 11
162.7114328538
 21
105.794379103
 31
0.0
  0
LINE
  5
198
330
1F
100
AcDbEntity
  8
0
  6
HIDDEN
 62
     7
370
     0
100
AcDbLine
 10
161.5490850966
 20
111.680714779
 30
0.0
 11
158.3622334814
 21
111.0514217806
 31
0.0
  0
LINE
  5
199
330
1F
100
AcDbEntity
  8
0
  6
HIDDEN
 62
     7
370
     0
100
AcDbLine
 10
163.3582922191
 20
106.3912446686
 30
0.0
 11
163.8149732082
 21
107.3443554978
 31
0.0
  0
LINE
  5
19A
330
1F
100
AcDbEntity
  8
0
  6
HIDDEN
 62
     7
370
     0
100
AcDbLine
 10
163.1589559961
 20
110.6665432821
 30
0.0
 11
162.3742664008
 21
111.3745263451
 31
0.0
  0
LINE
  5
19B
330
1F
100
AcDbEntity
  8
0
  6
HIDDEN
 62
     7
370
     0
100
AcDbLine
 10
162.3742664008
 20
132.7000273109
 30
0.0
 11
163.1589559961
 21
133.408010374
 31
0.0
  0
LINE
  5
19C
330
1F
100
AcDbEntity
  8
0
  6
HIDDEN
 62
     7
370
     0
100
AcDbLine
 10
163.8149732082
 20
136.7301981583
 30
0.0
 11
163.3582922191
 21
137.6833089874
 31
0.0
  0
LINE
  5
19D
330
1F
100
AcDbEntity
  8
0
  6
HIDDEN
 62
     7
370
     0
100
AcDbLine
 10
158.3622334814
 20
133.0231318755
 30
0.0
 11
161.5490850966
 21
132.393838877
 31
0.0
  0
LINE
  5
19E
330
1F
100
AcDbEntity
  8
0
  6
HIDDEN
 62
     7
370
     0
100
AcDbLine
 10
162.7114328538
 20
138.2801745531
 30
0.0
 11
159.5245812387
 21
138.9094675515
 31
0.0
  0
LINE
  5
19F
330
1F
100
AcDbEntity
  8
0
  6
HIDDEN
 62
     7
370
     0
100
AcDbLine
 10
157.8937581296
 20
137.3583616724
 30
0.0
 11
157.8105182957
 21
137.1558095086
 31
0.0
  0
LINE
  5
1A0
330
1F
100
AcDbEntity
  8
0
  6
HIDDEN
 62
     7
370
     0
100
AcDbLine
 10
157.4434073601
 20
135.2966944681
 30
0.0
 11
157.4434073601
 21
135.0777053153
 31
0.0
  0
LINE
  5
1A1
330
1F
100
AcDbEntity
  8
0
  6
HIDDEN
 62
     7
370
     0
100
AcDbLine
 10
173.9363215311
 20
136.4257124319
 30
0.0
 11
173.9363215311
 21
135.167126435
 31
0.0
  0
LINE
  5
1A2
330
1F
100
AcDbEntity
  8
0
  6
HIDDEN
 62
     7
370
     0
100
AcDbLine
 10
179.9363215311
 20
135.167126435
 30
0.0
 11
179.9363215311
 21
136.4257124319
 31
0.0
  0
DIMENSION
  5
1A3
330
1F
100
AcDbEntity
  8
VERMASSUNG
100
AcDbDimension
  2
_D
 10
41.9363215311
 20
172.037276828
 30
0.0
 11
41.9363215311
 21
122.037276828
 31
0.0
 70
   160
  1
MAS-BT 50 %%c<>
 71
     2
 42
-1.0
  3
SLDDIMSTYLE0
100
AcDbAlignedDimension
 13
190.7363215311
 23
72.037276828
 33
0.0
 14
190.7363215311
 24
172.037276828
 34
0.0
 50
90.0
100
AcDbRotatedDimension
  0
DIMENSION
  5
1B0
330
1F
100
AcDbEntity
  8
VERMASSUNG
100
AcDbDimension
  2
_D_1
 10
228.7363215311
 20
189.5709196769
 30
0.0
 11
140.3363215311
 21
189.5709196769
 31
0.0
 70
   160
  1
<>
 71
     2
 42
-1.0
  3
SLDDIMSTYLE0
100
AcDbAlignedDimension
 13
51.9363215311
 23
140.3869546888
 33
0.0
 14
228.7363215311
 24
152.937276828
 34
0.0
100
AcDbRotatedDimension
  0
DIMENSION
  5
1BA
330
1F
100
AcDbEntity
  8
VERMASSUNG
100
AcDbDimension
  2
_D_2
 10
228.7363215311
 20
183.5709196769
 30
0.0
 11
191.2363215311
 21
183.5709196769
 31
0.0
 70
   160
  1
<>
 71
     2
 42
-1.0
  3
SLDDIMSTYLE0
100
AcDbAlignedDimension
 13
153.7363215311
 23
156.962276828
 33
0.0
 14
228.7363215311
 24
152.937276828
 34
0.0
100
AcDbRotatedDimension
  0
DIMENSION
  5
1C4
330
1F
100
AcDbEntity
  8
VERMASSUNG
100
AcDbDimension
  2
_D_3
 10
228.7363215311
 20
177.5709196769
 30
0.0
 11
210.2363215311
 21
177.5709196769
 31
0.0
 70
   160
  1
<>
 71
     2
 42
-1.0
  3
SLDDIMSTYLE0
100
AcDbAlignedDimension
 13
191.7363215311
 23
171.037276828
 33
0.0
 14
228.7363215311
 24
152.937276828
 34
0.0
100
AcDbRotatedDimension
  0
DIMENSION
  5
1CE
330
1F
100
AcDbEntity
  8
VERMASSUNG
100
AcDbDimension
  2
_D_4
 10
238.7363215311
 20
104.037276828
 30
0.0
 11
238.7363215311
 21
122.037276828
 31
0.0
 70
   160
  1
%%c<>
 71
     2
 42
-1.0
  3
SLDDIMSTYLE0
100
AcDbAlignedDimension
 13
227.7363215311
 23
140.037276828
 33
0.0
 14
227.7363215311
 24
104.037276828
 34
0.0
 50
90.0
100
AcDbRotatedDimension
  0
DIMENSION
  5
1D9
330
1F
100
AcDbEntity
  8
VERMASSUNG
100
AcDbDimension
  2
_D_5
 10
244.7363215311
 20
153.537276828
 30
0.0
 11
244.7363215311
 21
122.037276828
 31
0.0
 70
   160
  1
WH%%c<>
 71
     2
 42
-1.0
  3
SLDDIMSTYLE0
100
AcDbAlignedDimension
 13
228.1363215311
 23
90.537276828
 33
0.0
 14
228.1363215311
 24
153.537276828
 34
0.0
 50
90.0
100
AcDbRotatedDimension
  0
LINE
  5
1E5
330
1F
100
AcDbEntity
  8
VERMASSUNG
  6
CENTERX2
370
     0
100
AcDbLine
 10
49.9363215311
 20
122.037276828
 30
0.0
 11
231.4105538225
 21
122.037276828
 31
0.0
  0
LINE
  5
1E6
330
1F
100
AcDbEntity
  8
0
  6
Continuous
 62
     7
370
    15
100
AcDbLine
 10
274.2115071593
 20
17.1283202064
 30
0.0
 11
274.4236047163
 21
17.2508013266
 31
0.0
  0
LINE
  5
1E7
330
1F
100
AcDbEntity
  8
0
  6
Continuous
 62
     7
370
    15
100
AcDbLine
 10
285.3466288984
 20
36.1720843427
 30
0.0
 11
285.3466288984
 21
36.4170067763
 31
0.0
  0
SPLINE
  5
1E8
330
1F
100
AcDbEntity
  8
0
  6
Continuous
 62
     7
370
    15
100
AcDbSpline
210
0.0
220
0.0
230
1.0
 70
     8
 71
     3
 72
    16
 73
    12
 74
     0
 42
0.000000001
 43
0.00000001
 40
0.0
 40
0.0
 40
0.0
 40
0.0
 40
0.0295079071865374
 40
0.1572593348170301
 40
0.2855382576495415
 40
0.4142807832474462
 40
0.5433743366761503
 40
0.672698762821727
 40
0.8021514492175575
 40
0.9316565249336869
 40
1.0
 40
1.0
 40
1.0
 40
1.0
 10
252.3501607359553
 20
14.80486874275432
 30
0.0
 10
252.4444029594606
 20
14.79300273483809
 30
0.0
 10
252.9466571276881
 20
14.72976407477172
 30
0.0
 10
253.9082305176801
 20
14.75847322280521
 30
0.0
 10
255.228312738822
 20
14.89724418983651
 30
0.0
 10
256.589851294193
 20
15.19268932428045
 30
0.0
 10
257.9784289601515
 20
15.62839177041882
 30
0.0
 10
259.3865181508389
 20
16.20361934809443
 30
0.0
 10
260.8035813569107
 20
16.9211282754599
 30
0.0
 10
262.0000125795704
 20
17.61722974146197
 30
0.0
 10
262.7163078047469
 20
18.12017190122459
 30
0.0
 10
262.9637400182677
 20
18.29390486423897
 30
0.0
  0
SPLINE
  5
1E9
330
1F
100
AcDbEntity
  8
0
  6
Continuous
 62
     7
370
    15
100
AcDbSpline
210
0.0
220
0.0
230
1.0
 70
     8
 71
     3
 72
    16
 73
    12
 74
     0
 42
0.000000001
 43
0.00000001
 40
0.0
 40
0.0
 40
0.0
 40
0.0
 40
0.0414632521151876
 40
0.1707310124227532
 40
0.300053415414945
 40
0.4294099561238179
 40
0.5587449144905318
 40
0.6879841971630174
 40
0.8170244757781522
 40
0.9457379499996796
 40
1.0
 40
1.0
 40
1.0
 40
1.0
 10
278.714084812915
 20
45.57350607777042
 30
0.0
 10
278.7323165190986
 20
45.75747887993532
 30
0.0
 10
278.8073882391429
 20
46.51501383364823
 30
0.0
 10
278.8243289586557
 20
47.79438735870212
 30
0.0
 10
278.762314228518
 20
49.39795600823204
 30
0.0
 10
278.5784063993256
 20
50.9251209863583
 30
0.0
 10
278.2828345393395
 20
52.36968910100837
 30
0.0
 10
277.8763779458659
 20
53.72323371737838
 30
0.0
 10
277.354294208135
 20
54.96767570284553
 30
0.0
 10
276.8648983709319
 20
55.905504614815
 30
0.0
 10
276.5139697315381
 20
56.3830528700113
 30
0.0
 10
276.4099005809874
 20
56.52467152316848
 30
0.0
  0
LINE
  5
1EA
330
1F
100
AcDbEntity
  8
0
  6
Continuous
 62
     7
370
    15
100
AcDbLine
 10
282.0840571142
 20
43.6280624782
 30
0.0
 11
270.2753738684
 21
50.4450702119
 31
0.0
  0
LINE
  5
1EB
330
1F
100
AcDbEntity
  8
0
  6
Continuous
 62
     7
370
    15
100
AcDbLine
 10
254.5266538294
 20
23.1645310469
 30
0.0
 11
266.3353370752
 21
16.3475233132
 31
0.0
  0
LINE
  5
1EC
330
1F
100
AcDbEntity
  8
0
  6
Continuous
 62
     7
370
    15
100
AcDbLine
 10
246.2692686026
 20
17.2507274071
 30
0.0
 11
248.4878161286
 21
15.9699871817
 31
0.0
  0
LINE
  5
1ED
330
1F
100
AcDbEntity
  8
0
  6
Continuous
 62
     7
370
    15
100
AcDbLine
 10
273.4857844445
 20
59.2724303007
 30
0.0
 11
271.2672369185
 21
60.5531705262
 31
0.0
  0
LINE
  5
1EE
330
1F
100
AcDbEntity
  8
0
  6
Continuous
 62
     7
370
    15
100
AcDbLine
 10
265.9462583901
 20
63.6249060469
 30
0.0
 11
261.8185225549
 21
66.0077972233
 31
0.0
  0
SPLINE
  5
1EF
330
1F
100
AcDbEntity
  8
0
  6
Continuous
 62
     7
370
    15
100
AcDbSpline
210
0.0
220
0.0
230
1.0
 70
     8
 71
     3
 72
    26
 73
    22
 74
     0
 42
0.000000001
 43
0.00000001
 40
0.0
 40
0.0
 40
0.0
 40
0.0
 40
0.0227906035274553
 40
0.0824836551276144
 40
0.1410993715619884
 40
0.1983504107529479
 40
0.2547370649611123
 40
0.3107486137343247
 40
0.3666695712537404
 40
0.4226008798460968
 40
0.4786074026460475
 40
0.5347012845151439
 40
0.5908693217836731
 40
0.6470875952401502
 40
0.7033280496098401
 40
0.759558407158584
 40
0.815741167628411
 40
0.8718461319285776
 40
0.9278449886392733
 40
0.983716238811019
 40
1.0
 40
1.0
 40
1.0
 40
1.0
 10
269.433321763351
 20
22.380443549386
 30
0.0
 10
269.3621416454567
 20
22.42223353030953
 30
0.0
 10
269.1045268662227
 20
22.57347965111247
 30
0.0
 10
268.7447099831334
 20
22.97289061493438
 30
0.0
 10
268.3622266016772
 20
23.57349077445406
 30
0.0
 10
268.0832997280873
 20
24.2961315257579
 30
0.0
 10
267.9060683891985
 20
25.11497459073411
 30
0.0
 10
267.8344737111577
 20
26.0197696782274
 30
0.0
 10
267.8699030728442
 20
26.99564093146384
 30
0.0
 10
268.0129685410411
 20
28.02655651340364
 30
0.0
 10
268.2622341742207
 20
29.09450660630865
 30
0.0
 10
268.6142552350931
 20
30.18064181229905
 30
0.0
 10
269.0634552855299
 20
31.26545033751321
 30
0.0
 10
269.6022339627581
 20
32.32933631717738
 30
0.0
 10
270.2211148867447
 20
33.35305141103563
 30
0.0
 10
270.9089154996459
 20
34.31812429364957
 30
0.0
 10
271.6529385933872
 20
35.20710810506694
 30
0.0
 10
272.4392981388467
 20
36.00462413037118
 30
0.0
 10
273.2528284686152
 20
36.6952613264549
 30
0.0
 10
273.8842483508971
 20
37.13710000281025
 30
0.0
 10
274.2383440061778
 20
37.3463287679567
 30
0.0
 10
274.318255421614
 20
37.39354698858003
 30
0.0
  0
SPLINE
  5
1F0
330
1F
100
AcDbEntity
  8
0
  6
Continuous
 62
     7
370
    15
100
AcDbSpline
210
0.0
220
0.0
230
1.0
 70
     8
 71
     3
 72
    14
 73
    10
 74
     0
 42
0.000000001
 43
0.00000001
 40
0.0
 40
0.0
 40
0.0
 40
0.0
 40
0.0908697656867939
 40
0.2642443959586152
 40
0.4375710129415984
 40
0.6113413302539479
 40
0.7866955851258669
 40
0.9653234914264192
 40
1.0
 40
1.0
 40
1.0
 40
1.0
 10
274.3182554216141
 20
37.39354698858003
 30
0.0
 10
274.4610833041511
 20
37.47262484603711
 30
0.0
 10
274.8764191120712
 20
37.70257900647226
 30
0.0
 10
275.5536296345731
 20
37.98507635881435
 30
0.0
 10
276.3259080726654
 20
38.19194307907662
 30
0.0
 10
277.0537572767352
 20
38.26556111585759
 30
0.0
 10
277.7195339780937
 20
38.19604064232485
 30
0.0
 10
278.1755136738018
 20
38.08172250039971
 30
0.0
 10
278.3863661098416
 20
37.9509934510754
 30
0.0
 10
278.420644004701
 20
37.92974106864165
 30
0.0
  0
SPLINE
  5
1F1
330
1F
100
AcDbEntity
  8
0
  6
Continuous
 62
     7
370
    15
100
AcDbSpline
210
0.0
220
0.0
230
1.0
 70
     8
 71
     3
 72
    31
 73
    27
 74
     0
 42
0.000000001
 43
0.00000001
 40
0.0
 40
0.0
 40
0.0
 40
0.0
 40
0.018342481450696
 40
0.0620149509310538
 40
0.105864957153825
 40
0.1498655462930296
 40
0.1939766288579195
 40
0.2381579821269867
 40
0.2823764970167145
 40
0.3266079441111511
 40
0.370833879296485
 40
0.415047333874742
 40
0.4592453778710863
 40
0.503427682981613
 40
0.5475955173449968
 40
0.5917510864138393
 40
0.6358971226055855
 40
0.6800366424902103
 40
0.724172811530625
 40
0.768308874283194
 40
0.8124474407720712
 40
0.856591413997809
 40
0.9007441210778869
 40
0.9449088566948951
 40
0.9890887974791109
 40
1.0
 40
1.0
 40
1.0
 40
1.0
 10
257.9113070101259
 20
67.17165316912845
 30
0.0
 10
257.7384429064662
 20
67.18961490128775
 30
0.0
 10
257.1539985969538
 20
67.25034255918344
 30
0.0
 10
256.1052640712654
 20
67.20069268148471
 30
0.0
 10
254.7751017152557
 20
67.02675702343966
 30
0.0
 10
253.4067050422844
 20
66.69960093510151
 30
0.0
 10
252.0129350223884
 20
66.23225700747703
 30
0.0
 10
250.6020117197116
 20
65.62477300628035
 30
0.0
 10
249.1835241986292
 20
64.88209181403998
 30
0.0
 10
247.7666318247903
 20
64.00909296156725
 30
0.0
 10
246.3603968660582
 20
63.01174944122177
 30
0.0
 10
244.9736404192976
 20
61.89667994324255
 30
0.0
 10
243.614943215531
 20
60.67114865549889
 30
0.0
 10
242.2926790479437
 20
59.343036014639
 30
0.0
 10
241.0149898746034
 20
57.92080686618865
 30
0.0
 10
239.7897500686998
 20
56.41346741280177
 30
0.0
 10
238.6245254887335
 20
54.83051925813371
 30
0.0
 10
237.5265328064643
 20
53.18190803292856
 30
0.0
 10
236.5025877943571
 20
51.4779641072708
 30
0.0
 10
235.5591005498052
 20
49.72935823639441
 30
0.0
 10
234.7019128802654
 20
47.94700268596287
 30
0.0
 10
233.9367050409018
 20
46.14209299372207
 30
0.0
 10
233.2672959410152
 20
44.32559569229072
 30
0.0
 10
232.7018406686791
 20
42.50979505989756
 30
0.0
 10
232.3481922319536
 20
41.1561640502111
 30
0.0
 10
232.1908665685925
 20
40.41367906582989
 30
0.0
 10
232.1597070741315
 20
40.26662450229623
 30
0.0
  0
LINE
  5
1F2
330
1F
100
AcDbEntity
  8
0
  6
Continuous
 62
     7
370
    15
100
AcDbLine
 10
247.3957352003
 20
63.7240724175
 30
0.0
 11
217.0491745427
 21
74.6597699824
 31
0.0
  0
LINE
  5
1F3
330
1F
100
AcDbEntity
  8
0
  6
Continuous
 62
     7
370
    15
100
AcDbLine
 10
206.9398198674
 20
57.1479566114
 30
0.0
 11
236.4035571939
 21
32.2690203861
 31
0.0
  0
LINE
  5
1F4
330
1F
100
AcDbEntity
  8
0
  6
Continuous
 62
     7
370
    15
100
AcDbLine
 10
236.820554239
 20
22.7053541042
 30
0.0
 11
240.9482900742
 21
20.3224629279
 31
0.0
  0
SPLINE
  5
1F5
330
1F
100
AcDbEntity
  8
0
  6
Continuous
 62
     7
370
    15
100
AcDbSpline
210
0.0
220
0.0
230
1.0
 70
     8
 71
     3
 72
    11
 73
     7
 74
     0
 42
0.000000001
 43
0.00000001
 40
0.0
 40
0.0
 40
0.0
 40
0.0
 40
0.1050885860694574
 40
0.4236183153902486
 40
0.7416590627631888
 40
1.0
 40
1.0
 40
1.0
 40
1.0
 10
232.1649955091853
 20
29.1797664636884
 30
0.0
 10
232.2074022645722
 20
29.02941285021598
 30
0.0
 10
232.3783464075101
 20
28.4233285280811
 30
0.0
 10
232.7594591815781
 20
27.43331183515363
 30
0.0
 10
233.2994062203529
 20
26.31562212845401
 30
0.0
 10
233.7298397707659
 20
25.68563647565893
 30
0.0
 10
233.9227650662793
 20
25.40326961991989
 30
0.0
  0
SPLINE
  5
1F6
330
1F
100
AcDbEntity
  8
0
  6
Continuous
 62
     7
370
    15
100
AcDbSpline
210
0.0
220
0.0
230
1.0
 70
     8
 71
     3
 72
    26
 73
    22
 74
     0
 42
0.000000001
 43
0.00000001
 40
0.0
 40
0.0
 40
0.0
 40
0.0
 40
0.0211003487122628
 40
0.0734660947596716
 40
0.1265293848983989
 40
0.1807963946600735
 40
0.2363312363639711
 40
0.2928241536681345
 40
0.3498299648572936
 40
0.4069680242110202
 40
0.464024702657787
 40
0.5209555255077407
 40
0.5777730718169946
 40
0.6345160112361959
 40
0.6912339037794962
 40
0.7479784728614466
 40
0.8047900183011125
 40
0.8617257557541511
 40
0.9188408427311997
 40
0.9761800833651304
 40
0.9999999999999999
 40
0.9999999999999999
 40
0.9999999999999999
 40
0.9999999999999999
 10
217.089605056395
 20
74.62493150083094
 30
0.0
 10
216.9904360350491
 20
74.66703171916642
 30
0.0
 10
216.6451545035083
 20
74.81361406582867
 30
0.0
 10
215.9902858185538
 20
74.91430848026997
 30
0.0
 10
215.1442442687908
 20
74.92911182253356
 30
0.0
 10
214.2571077177752
 20
74.7906371794693
 30
0.0
 10
213.3428839171778
 20
74.50977219475615
 30
0.0
 10
212.4134288915646
 20
74.08512212849625
 30
0.0
 10
211.4854670551888
 20
73.52401032570607
 30
0.0
 10
210.5756301659159
 20
72.83687806328679
 30
0.0
 10
209.6990711892472
 20
72.03690209859805
 30
0.0
 10
208.8689453785989
 20
71.13812555429332
 30
0.0
 10
208.0969570731486
 20
70.1550515660073
 30
0.0
 10
207.3939312022619
 20
69.10281104355487
 30
0.0
 10
206.7699047471907
 20
67.99714033480171
 30
0.0
 10
206.234064568075
 20
66.85431540514027
 30
0.0
 10
205.7947939353365
 20
65.69095744762055
 30
0.0
 10
205.4588698451445
 20
64.5233746333988
 30
0.0
 10
205.2343556534774
 20
63.36871973905956
 30
0.0
 10
205.1425050569202
 20
62.46113067895331
 30
0.0
 10
205.1352383742488
 20
61.94781575866234
 30
0.0
 10
205.1331056293896
 20
61.79715970184464
 30
0.0
  0
SPLINE
  5
1F7
330
1F
100
AcDbEntity
  8
0
  6
Continuous
 62
     7
370
    15
100
AcDbSpline
210
0.0
220
0.0
230
1.0
 70
     8
 71
     3
 72
    13
 73
     9
 74
     0
 42
0.000000001
 43
0.00000001
 40
0.0
 40
0.0
 40
0.0
 40
0.0
 40
0.1011487783717619
 40
0.2919018006118885
 40
0.4826418266735833
 40
0.6715266520409041
 40
0.8566629140943125
 40
0.9999999999999999
 40
0.9999999999999999
 40
0.9999999999999999
 40
0.9999999999999999
 10
205.1331056293896
 20
61.79715970184464
 30
0.0
 10
205.1365630627556
 20
61.60651407015804
 30
0.0
 10
205.1465407514758
 20
61.05633636100593
 30
0.0
 10
205.258400558542
 20
60.19302043395985
 30
0.0
 10
205.5100919498052
 20
59.24491021909719
 30
0.0
 10
205.8919588317441
 20
58.40020843619522
 30
0.0
 10
206.3460991239286
 20
57.70812237196419
 30
0.0
 10
206.721473904966
 20
57.36329871675687
 30
0.0
 10
206.8852775364348
 20
57.21282678898596
 30
0.0
  0
LINE
  5
1F8
330
1F
100
AcDbEntity
  8
0
  6
Continuous
 62
     7
370
    15
100
AcDbLine
 10
272.1971169692
 20
32.7750101467
 30
0.0
 11
275.5243482266
 21
33.4529085983
 31
0.0
  0
LINE
  5
1F9
330
1F
100
AcDbEntity
  8
0
  6
Continuous
 62
     7
370
    15
100
AcDbLine
 10
270.6038690113
 20
46.6645790758
 30
0.0
 11
270.5154663015
 21
46.7156294627
 31
0.0
  0
LINE
  5
1FA
330
1F
100
AcDbEntity
  8
0
  6
Continuous
 62
     7
370
    15
100
AcDbLine
 10
265.5649145561
 20
46.7156294627
 30
0.0
 11
265.4765118464
 21
46.6645790758
 31
0.0
  0
LWPOLYLINE
  5
1FB
330
1F
100
AcDbEntity
  8
0
  6
Continuous
 62
     7
370
    15
100
AcDbPolyline
 90
       60
 70
   128
 43
0.0
 10
274.421829129
 20
42.4808872225
 10
273.2605940816
 20
41.7390508562
 10
272.1125162912
 20
40.862680507
 10
270.990603938
 20
39.8617058013
 10
269.9075687373
 20
38.7474681825
 10
268.8756819106
 20
37.5325924079
 10
267.906635148
 20
36.2308435057
 10
267.0114081366
 20
34.8569708108
 10
266.2001441561
 20
33.4265408501
 10
265.4820351516
 20
31.9557609665
 10
264.8652175849
 20
30.4612956837
 10
264.3566802457
 20
28.9600778906
 10
263.9621850652
 20
27.4691169847
 10
263.6862018314
 20
26.0053061488
 10
263.5318575446
 20
24.5852309444
 10
263.5009009872
 20
23.2249813913
 10
263.5936829095
 20
21.9399696602
 10
263.8091520552
 20
20.7447554476
 10
264.1448670727
 20
19.6528810081
 10
264.5970241768
 20
18.6767177154
 10
265.1605002468
 20
17.8273258897
 10
265.8289108736
 20
17.1143294797
 10
266.5946826979
 20
16.5458070196
 10
267.4491392188
 20
16.1282000962
 10
268.3825991025
 20
15.8662403626
 10
269.3844858756
 20
15.7628959275
 10
270.4434477605
 20
15.8193377244
 10
271.5474862961
 20
16.0349262454
 10
272.6840922844
 20
16.4072187862
 10
273.8403875256
 20
16.9319971237
 10
275.0032707325
 20
17.6033153096
 10
276.1595659737
 20
18.4135670407
 10
277.296171962
 20
19.353571841
 10
278.4002104976
 20
20.4126790805
 10
279.4591723825
 20
21.5788886511
 10
280.4610591556
 20
22.8389869322
 10
281.3945190393
 20
24.1786965069
 10
282.2489755602
 20
25.5828379304
 10
283.0147473844
 20
27.0355017193
 10
283.6831580113
 20
28.5202286123
 10
284.2466340813
 20
30.0201960606
 10
284.6987911854
 20
31.5184088335
 10
285.0345062029
 20
32.9978915818
 10
285.2499753486
 20
34.4418811746
 10
285.3427572709
 20
35.8340166329
 10
285.3118007135
 20
37.1585245058
 10
285.1574564267
 20
38.4003975897
 10
284.8814731929
 20
39.5455649664
 10
284.4869780124
 20
40.5810514319
 10
283.9784406732
 20
41.4951245109
 10
283.3616231065
 20
42.27742739
 10
282.643514102
 20
42.9190962651
 10
281.8322501215
 20
43.4128607714
 10
280.93702311
 20
43.7531263598
 10
279.9679763475
 20
43.9360376852
 10
278.9360895208
 20
43.9595222891
 10
277.8530543201
 20
43.8233140817
 10
276.7311419669
 20
43.5289563563
 10
275.5830641765
 20
43.0797843037
 10
274.421829129
 20
42.4808872225
  0
LWPOLYLINE
  5
1FC
330
1F
100
AcDbEntity
  8
0
  6
Continuous
 62
     7
370
    15
100
AcDbPolyline
 90
       31
 70
   128
 43
0.0
 10
274.2096970947
 20
42.8483106829
 10
273.0259137939
 20
42.0920697269
 10
271.8555432308
 20
41.1986824777
 10
270.7118461718
 20
40.17827137
 10
269.6077811613
 20
39.0423980692
 10
268.5558576973
 20
37.8039324738
 10
267.5679944927
 20
36.4769068938
 10
266.6553844325
 20
35.0763570593
 10
265.8283677534
 20
33.6181517595
 10
265.0963148846
 20
32.1188130432
 10
264.4675202779
 20
30.5953290171
 10
263.9491084272
 20
29.064961364
 10
263.5469531461
 20
27.5450497608
 10
263.2656110145
 20
26.0528154135
 10
263.1082697513
 20
24.6051659334
 10
263.0767120958
 20
23.2185037675
 10
263.1712956088
 20
21.9085403523
 10
263.3909486213
 20
20.6901180968
 10
263.7331823771
 20
19.5770422119
 10
264.1941192307
 20
18.5819242921
 10
264.7685365836
 20
17.7160394212
 10
265.4499260576
 20
16.9891984207
 10
266.2305672377
 20
16.4096366896
 10
267.1016151473
 20
15.9839208939
 10
268.0532004657
 20
15.7168745636
 10
269.0745413509
 20
15.6115234403
 10
270.1540656025
 20
15.6690611945
 10
271.2795417795
 20
15.8888359003
 10
272.4382177871
 20
16.2683574225
 10
273.616965363
 20
16.8033256307
 10
274.2115071593
 20
17.1283202064
  0
LWPOLYLINE
  5
1FD
330
1F
100
AcDbEntity
  8
0
  6
Continuous
 62
     7
370
    15
100
AcDbPolyline
 90
       16
 70
   128
 43
0.0
 10
285.3466288984
 20
36.4170067763
 10
285.3111244381
 20
37.4226011173
 10
285.1537831748
 20
38.6885882416
 10
284.8724410433
 20
39.8559918781
 10
284.4702857622
 20
40.9115848769
 10
283.9518739115
 20
41.8434069477
 10
283.3230793048
 20
42.640900174
 10
282.591026436
 20
43.2950286389
 10
281.7640097569
 20
43.7983808055
 10
280.8513996967
 20
44.1452534927
 10
279.8635364921
 20
44.3317164943
 10
278.811613028
 20
44.35565711
 10
277.7075480176
 20
44.216804083
 10
276.5638509585
 20
43.9167306737
 10
275.3934803955
 20
43.4588368336
 10
274.2096970947
 20
42.8483106829
  0
ARC
  5
1FE
330
1F
100
AcDbEntity
  8
0
  6
Continuous
 62
     7
370
    15
100
AcDbCircle
 10
269.1310368941
 20
51.724877595
 30
0.0
 40
8.703891722761503
100
AcDbArc
 50
34.3325496066
 51
84.2964748064
  0
ARC
  5
1FF
330
1F
100
AcDbEntity
  8
0
  6
Continuous
 62
     7
370
    15
100
AcDbCircle
 10
252.837872907
 20
23.5021611645
 30
0.0
 40
8.690205791198098
100
AcDbArc
 50
215.038918254
 51
265.86285515
  0
SPLINE
  5
200
330
1F
100
AcDbEntity
  8
0
  6
Continuous
 62
     7
370
    15
100
AcDbSpline
210
0.0
220
0.0
230
1.0
 70
    11
 71
     3
 72
    94
 73
    90
 74
     0
 42
0.000000001
 43
0.00000001
 40
0.0
 40
0.0
 40
0.0
 40
0.0
 40
0.0312500000000007
 40
0.0312500000000007
 40
0.0468750000000011
 40
0.0468750000000011
 40
0.0625000000000014
 40
0.0625000000000014
 40
0.0937500000000025
 40
0.0937500000000025
 40
0.109375000000003
 40
0.109375000000003
 40
0.1250000000000035
 40
0.1250000000000035
 40
0.1562500000000042
 40
0.1562500000000042
 40
0.1718750000000047
 40
0.1718750000000047
 40
0.1875000000000052
 40
0.1875000000000052
 40
0.2187500000000062
 40
0.2187500000000062
 40
0.2343750000000064
 40
0.2343750000000064
 40
0.2500000000000066
 40
0.2500000000000066
 40
0.2812500000000064
 40
0.2812500000000064
 40
0.2968750000000064
 40
0.2968750000000064
 40
0.3125000000000063
 40
0.3125000000000063
 40
0.3437500000000062
 40
0.3437500000000062
 40
0.3593750000000061
 40
0.3593750000000061
 40
0.3750000000000062
 40
0.3750000000000062
 40
0.3906250000000062
 40
0.3906250000000062
 40
0.4062500000000061
 40
0.4062500000000061
 40
0.4375000000000061
 40
0.4375000000000061
 40
0.453125000000006
 40
0.453125000000006
 40
0.4687500000000059
 40
0.4687500000000059
 40
0.5000000000000056
 40
0.5000000000000056
 40
0.5312500000000052
 40
0.5312500000000052
 40
0.546875000000005
 40
0.546875000000005
 40
0.5625000000000048
 40
0.5625000000000048
 40
0.5937500000000044
 40
0.5937500000000044
 40
0.625000000000004
 40
0.625000000000004
 40
0.6562500000000037
 40
0.6562500000000037
 40
0.6875000000000033
 40
0.6875000000000033
 40
0.7187500000000029
 40
0.7187500000000029
 40
0.7500000000000026
 40
0.7500000000000026
 40
0.7812500000000022
 40
0.7812500000000022
 40
0.8125000000000018
 40
0.8125000000000018
 40
0.8281250000000018
 40
0.8281250000000018
 40
0.8437500000000017
 40
0.8437500000000017
 40
0.8750000000000013
 40
0.8750000000000013
 40
0.906250000000001
 40
0.906250000000001
 40
0.9218750000000008
 40
0.9218750000000008
 40
0.9375000000000007
 40
0.9375000000000007
 40
0.9531250000000004
 40
0.9531250000000004
 40
0.9687500000000002
 40
0.9687500000000002
 40
1.0
 40
1.0
 40
1.0
 40
1.0
 10
267.9956085590859
 20
48.82011551594607
 30
0.0
 10
268.3015612147263
 20
48.76574347788335
 30
0.0
 10
268.5993297314053
 20
48.6966936604401
 30
0.0
 10
269.0352289317307
 20
48.57563876109742
 30
0.0
 10
269.178718759434
 20
48.53233758208538
 30
0.0
 10
269.4621502890232
 20
48.44023115772773
 30
0.0
 10
269.6026755517019
 20
48.39120345095204
 30
0.0
 10
270.0144856312344
 20
48.23782266212838
 30
0.0
 10
270.2742152629636
 20
48.12809920169288
 30
0.0
 10
270.6426965176284
 20
47.95409629557794
 30
0.0
 10
270.7619802817749
 20
47.89450437075668
 30
0.0
 10
270.9933648197226
 20
47.77219594972895
 30
0.0
 10
271.1059156433112
 20
47.70919337986435
 30
0.0
 10
271.427123651157
 20
47.5185727125678
 30
0.0
 10
271.6207173993938
 20
47.38886327914574
 30
0.0
 10
271.8808108463928
 20
47.18980576292858
 30
0.0
 10
271.962428570313
 20
47.12269048017871
 30
0.0
 10
272.1152034750546
 20
46.98666317941513
 30
0.0
 10
272.1865892150213
 20
46.91746385509926
 30
0.0
 10
272.3807992024994
 20
46.71040549569006
 30
0.0
 10
272.4850787884326
 20
46.57221164400767
 30
0.0
 10
272.6031305883918
 20
46.36230783114637
 30
0.0
 10
272.6360442261943
 20
46.29189732878806
 30
0.0
 10
272.6883135778718
 20
46.14967303910772
 30
0.0
 10
272.7076560441303
 20
46.07756006453866
 30
0.0
 10
272.7431681227875
 20
45.86293901201633
 30
0.0
 10
272.7377714433952
 20
45.72086425259407
 30
0.0
 10
272.6834289434336
 20
45.50633825902314
 30
0.0
 10
272.6575499324545
 20
45.4345949738801
 30
0.0
 10
272.5889656590379
 20
45.29012269453685
 30
0.0
 10
272.5461083320241
 20
45.21741610868846
 30
0.0
 10
272.3948189690282
 20
45.00348940056295
 30
0.0
 10
272.2630833544956
 20
44.86428260758157
 30
0.0
 10
272.0158918817607
 20
44.65915367811827
 30
0.0
 10
271.9243448452911
 20
44.59087850663285
 30
0.0
 10
271.7275828859514
 20
44.4584502784933
 30
0.0
 10
271.6227607441172
 20
44.39443434315707
 30
0.0
 10
271.4005652396654
 20
44.27065278849982
 30
0.0
 10
271.2831912427712
 20
44.21088745108491
 30
0.0
 10
271.035808804115
 20
44.09571046360122
 30
0.0
 10
270.9048747387561
 20
44.03997264356385
 30
0.0
 10
270.5023729739005
 20
43.88351263346964
 30
0.0
 10
270.2199295062649
 20
43.79249942032087
 30
0.0
 10
269.7763641744468
 20
43.67634052092968
 30
0.0
 10
269.625446395099
 20
43.64118429054171
 30
0.0
 10
269.3236980406151
 20
43.57936554121027
 30
0.0
 10
269.172042437239
 20
43.55247784956718
 30
0.0
 10
268.714751268424
 20
43.48391136930611
 30
0.0
 10
268.4041259108366
 20
43.45426351666019
 30
0.0
 10
267.7963839855262
 20
43.43061890041933
 30
0.0
 10
267.4977292234337
 20
43.43610427924775
 30
0.0
 10
267.056821506158
 20
43.47162981464835
 30
0.0
 10
266.9107501216851
 20
43.48813794788245
 30
0.0
 10
266.6260113657508
 20
43.52997734508423
 30
0.0
 10
266.4867077623671
 20
43.55533771950878
 30
0.0
 10
266.0776554705379
 20
43.64479301288536
 30
0.0
 10
265.8166881855099
 20
43.72217887322677
 30
0.0
 10
265.3184075370775
 20
43.91478915434463
 30
0.0
 10
265.0866477687664
 20
44.02801994013604
 30
0.0
 10
264.6605494054484
 20
44.28545441049331
 30
0.0
 10
264.4654730376084
 20
44.42993994864656
 30
0.0
 10
264.113033044525
 20
44.75117713317868
 30
0.0
 10
263.9605317522788
 20
44.92353364558775
 30
0.0
 10
263.7026727639374
 20
45.28848289583193
 30
0.0
 10
263.5970996338507
 20
45.48128758386265
 30
0.0
 10
263.4369708702579
 20
45.88605147535348
 30
0.0
 10
263.3848863754183
 20
46.091701071914
 30
0.0
 10
263.3374347554515
 20
46.50641268781885
 30
0.0
 10
263.3421061511563
 20
46.7162292680787
 30
0.0
 10
263.4161432007402
 20
47.13321994066776
 30
0.0
 10
263.4842568960912
 20
47.33427329658898
 30
0.0
 10
263.6360194476289
 20
47.62166983865671
 30
0.0
 10
263.6951563347144
 20
47.71538335987665
 30
0.0
 10
263.8305759448788
 20
47.89609233948236
 30
0.0
 10
263.9058265805144
 20
47.98179391413351
 30
0.0
 10
264.1539497198643
 20
48.22475278364422
 30
0.0
 10
264.3494287174885
 20
48.36825400408815
 30
0.0
 10
264.8021274393614
 20
48.61305220040063
 30
0.0
 10
265.0499264184003
 20
48.70941777784516
 30
0.0
 10
265.4518417505705
 20
48.81811482594114
 30
0.0
 10
265.5918214929001
 20
48.84846168094918
 30
0.0
 10
265.8768224667606
 20
48.89640757186868
 30
0.0
 10
266.0216744197728
 20
48.91409458341703
 30
0.0
 10
266.3158384004769
 20
48.93800486827539
 30
0.0
 10
266.4651514046312
 20
48.94422479771229
 30
0.0
 10
266.7681651242823
 20
48.94592090054005
 30
0.0
 10
266.9222127140683
 20
48.94132600413901
 30
0.0
 10
267.3822061820042
 20
48.91288098283156
 30
0.0
 10
267.6896559034455
 20
48.87448755400879
 30
0.0
 10
267.9956085590859
 20
48.82011551594607
 30
0.0
  0
LINE
  5
201
330
1F
100
AcDbEntity
  8
0
  6
Continuous
 62
     7
370
    15
100
AcDbLine
 10
270.2753738684
 20
50.4450702119
 30
0.0
 11
270.2037087024
 21
50.485695463
 31
0.0
  0
LWPOLYLINE
  5
202
330
1F
100
AcDbEntity
  8
0
  6
Continuous
 62
     7
370
    15
100
AcDbPolyline
 90
        9
 70
   128
 43
0.0
 10
246.2692686026
 20
17.2507274071
 10
246.1029453394
 20
17.3493334179
 10
245.1120509516
 20
18.0557886096
 10
244.2176298458
 20
18.9095100425
 10
243.4260005975
 20
19.9044666612
 10
242.7427556161
 20
21.0336296644
 10
242.1727216379
 20
22.289022159
 10
241.719925628
 20
23.6617755125
 10
241.3875663323
 20
25.1421920051
  0
SPLINE
  5
203
330
1F
100
AcDbEntity
  8
0
  6
Continuous
 62
     7
370
    15
100
AcDbSpline
210
0.0
220
0.0
230
1.0
 70
     8
 71
     3
 72
    32
 73
    28
 74
     0
 42
0.000000001
 43
0.00000001
 40
0.0
 40
0.0
 40
0.0
 40
0.0
 40
0.0193254758652704
 40
0.0385826927409049
 40
0.0577846348017481
 40
0.0769443985967347
 40
0.0960751672961712
 40
0.1151901840600305
 40
0.1343027247899319
 40
0.1534260705421022
 40
0.1725734798867981
 40
0.1917581615009326
 40
0.2109932472750491
 40
0.230291766203487
 40
0.2496666193081581
 40
0.3745846283004807
 40
0.4997410234225904
 40
0.4999962720874485
 40
0.624862702147581
 40
0.7503411293900218
 40
0.78614513231055
 40
0.8217618639989446
 40
0.8572756267685467
 40
0.8927714566740896
 40
0.9283345184906214
 40
0.9640494961172915
 40
1.0
 40
1.0
 40
1.0
 40
1.0
 10
241.3875110562377
 20
32.59401677150436
 30
0.0
 10
241.4094542735256
 20
32.53392572778856
 30
0.0
 10
241.4532632030582
 20
32.41395588630418
 30
0.0
 10
241.5157024542807
 20
32.23320833219256
 30
0.0
 10
241.5756110818079
 20
32.05236493577355
 30
0.0
 10
241.6327976674418
 20
31.87135782023084
 30
0.0
 10
241.6873557386501
 20
31.69022841790803
 30
0.0
 10
241.7393034852411
 20
31.5089899005763
 30
0.0
 10
241.7886799647041
 20
31.32766394636642
 30
0.0
 10
241.8355193461516
 20
31.14627086963155
 30
0.0
 10
241.8798579524971
 20
30.96483251423019
 30
0.0
 10
241.92173179572
 20
30.78337062525901
 30
0.0
 10
241.9611793869081
 20
30.6019105728092
 30
0.0
 10
241.9982329062677
 20
30.42046812712035
 30
0.0
 10
242.0959250059014
 20
29.91011717538179
 30
0.0
 10
242.2134212047343
 20
29.08351564669501
 30
0.0
 10
242.2482726408552
 20
28.36819615140238
 30
0.0
 10
242.2486684650287
 20
27.69148418649343
 30
0.0
 10
242.2136171139863
 20
27.04979306239434
 30
0.0
 10
242.0886830338148
 20
26.42849212362021
 30
0.0
 10
241.9679568529392
 20
26.05586802164833
 30
0.0
 10
241.893649440417
 20
25.86707132051733
 30
0.0
 10
241.8107359691848
 20
25.69288003755584
 30
0.0
 10
241.7190371681749
 20
25.53306386749037
 30
0.0
 10
241.6181351005523
 20
25.38785999487475
 30
0.0
 10
241.5085822037525
 20
25.25581303474659
 30
0.0
 10
241.4280539058525
 20
25.18011354980435
 30
0.0
 10
241.3876574300966
 20
25.14213941539518
 30
0.0
  0
LWPOLYLINE
  5
204
330
1F
100
AcDbEntity
  8
0
  6
Continuous
 62
     7
370
    15
100
AcDbPolyline
 90
       27
 70
   128
 43
0.0
 10
241.387511056
 20
32.5940167716
 10
241.7198503959
 20
34.458182634
 10
242.1726299544
 20
36.3537419476
 10
242.7426510229
 20
38.2673033357
 10
243.4258866281
 20
40.1853482441
 10
244.2175099806
 20
42.0943264443
 10
245.1119285748
 20
43.9807517606
 10
246.102823697
 20
45.8312973442
 10
247.1831950653
 20
47.6328898227
 10
248.3454102831
 20
49.372801658
 10
249.5812587599
 20
51.0387410612
 10
250.8820097151
 20
52.6189388294
 10
252.2384738576
 20
54.1022314906
 10
253.6410683049
 20
55.4781401689
 10
255.0798842821
 20
56.7369446137
 10
256.5447571236
 20
57.8697518697
 10
258.0253380821
 20
58.8685591016
 10
259.511167439
 20
59.7263101316
 10
260.9917483975
 20
60.4369452878
 10
262.4566212389
 20
60.9954442142
 10
263.8954372162
 20
61.3978613366
 10
265.2980316635
 20
61.6413537373
 10
266.654495806
 20
61.7242012388
 10
267.9552467611
 20
61.6458185563
 10
269.1910952379
 20
61.4067594324
 10
270.3533104558
 20
61.0087127253
 10
271.2672369185
 20
60.5531705262
  0
SPLINE
  5
205
330
1F
100
AcDbEntity
  8
0
  6
Continuous
 62
     7
370
    15
100
AcDbSpline
210
0.0
220
0.0
230
1.0
 70
     8
 71
     3
 72
     8
 73
     4
 74
     0
 42
0.000000001
 43
0.00000001
 40
0.0
 40
0.0
 40
0.0
 40
0.0
 40
1.0
 40
1.0
 40
1.0
 40
1.0
 10
240.4255177771816
 20
38.02935448943075
 30
0.0
 10
239.2558913572437
 20
37.83379831618802
 30
0.0
 10
238.0852881143838
 20
37.6402133494681
 30
0.0
 10
236.9140566327309
 20
37.44793390022183
 30
0.0
  0
SPLINE
  5
206
330
1F
100
AcDbEntity
  8
0
  6
Continuous
 62
     7
370
    15
100
AcDbSpline
210
0.0
220
0.0
230
1.0
 70
     8
 71
     3
 72
     8
 73
     4
 74
     0
 42
0.000000001
 43
0.00000001
 40
0.0
 40
0.0
 40
0.0
 40
0.0
 40
0.0012417047560385
 40
0.0012417047560385
 40
0.0012417047560385
 40
0.0012417047560385
 10
236.4395560290813
 20
37.7219093211017
 30
0.0
 10
236.5978271695416
 20
37.63052399634375
 30
0.0
 10
236.7559964752209
 20
37.53919744894015
 30
0.0
 10
236.9140566327309
 20
37.44793390022183
 30
0.0
  0
LWPOLYLINE
  5
207
330
1F
100
AcDbEntity
  8
0
  6
Continuous
 62
     7
370
    15
100
AcDbPolyline
 90
       28
 70
   128
 43
0.0
 10
236.4395560291
 20
37.7219093211
 10
236.9183916199
 20
39.6705754573
 10
237.5202733362
 20
41.6363866511
 10
238.2407205839
 20
43.6047087944
 10
239.0743701305
 20
45.5608890873
 10
240.0150160302
 20
47.4903651172
 10
241.0556558235
 20
49.3787732666
 10
242.1885426652
 20
51.2120556398
 10
243.4052429944
 20
52.9765647146
 10
244.6966993168
 20
54.6591649385
 10
246.0532976312
 20
56.2473305139
 10
247.4649389993
 20
57.729238644
 10
248.9211147252
 20
59.0938575453
 10
250.4109845854
 20
60.3310285718
 10
251.9234575268
 20
61.4315418388
 10
253.4472742321
 20
62.3872047845
 10
254.9710909374
 20
63.1909031577
 10
256.4835638789
 20
63.8366539786
 10
257.973433739
 20
64.3196500779
 10
259.4296094649
 20
64.6362958829
 10
260.841250833
 20
64.7842341842
 10
262.1978491474
 20
64.7623636831
 10
263.4893054698
 20
64.5708471904
 10
264.706005799
 20
64.2111104143
 10
265.8388926407
 20
63.6858313469
 10
266.879532434
 20
62.9989203282
 10
267.8201783337
 20
62.155490937
 10
268.3204086765
 20
61.5930308853
  0
LINE
  5
208
330
1F
100
AcDbEntity
  8
0
  6
Continuous
 62
     7
370
    15
100
AcDbLine
 10
232.3118201939
 20
40.1048004975
 30
0.0
 11
236.4395560291
 21
37.7219093211
 31
0.0
  0
ARC
  5
209
330
1F
100
AcDbEntity
  8
0
  6
Continuous
 62
     7
370
    15
100
AcDbCircle
 10
257.4294983046
 20
58.2903181095
 30
0.0
 40
8.878232805076328
100
AcDbArc
 50
60.3725835944
 51
85.9811821539
  0
LINE
  5
20A
330
1F
100
AcDbEntity
  8
0
  6
Continuous
 62
     7
370
    15
100
AcDbLine
 10
269.4058711089
 20
22.3760163732
 30
0.0
 11
269.5686414416
 21
22.2749939454
 31
0.0
  0
LINE
  5
20B
330
1F
100
AcDbEntity
  8
0
  6
Continuous
 62
     7
370
    15
100
AcDbLine
 10
278.5679100353
 20
37.8638734683
 30
0.0
 11
278.4084311992
 21
37.9496332218
 31
0.0
  0
SPLINE
  5
20C
330
1F
100
AcDbEntity
  8
0
  6
Continuous
 62
     7
370
    15
100
AcDbSpline
210
0.0
220
0.0
230
1.0
 70
     8
 71
     3
 72
    10
 73
     6
 74
     0
 42
0.000000001
 43
0.00000001
 40
0.0
 40
0.0
 40
0.0
 40
0.0
 40
0.3675091193562972
 40
0.735002824977776
 40
1.0
 40
1.0
 40
1.0
 40
1.0
 10
250.1468825659459
 20
52.92441697787717
 30
0.0
 10
250.2550105458213
 20
52.87745334071018
 30
0.0
 10
250.4712619705665
 20
52.78352803608253
 30
0.0
 10
250.8397734832567
 20
52.77165350574784
 30
0.0
 10
251.0701161030893
 20
52.84026886288451
 30
0.0
 10
251.1666236503297
 20
52.86901690710271
 30
0.0
  0
LWPOLYLINE
  5
20D
330
1F
100
AcDbEntity
  8
0
  6
Continuous
 62
     7
370
    15
100
AcDbPolyline
 90
       14
 70
   128
 43
0.0
 10
252.1740429391
 20
54.03404573
 10
252.1057485559
 20
54.2859288723
 10
251.8975496443
 20
54.5226236203
 10
251.5841047483
 20
54.6773036825
 10
251.2009645974
 20
54.7326336726
 10
250.7911998724
 20
54.6806983498
 10
250.4017488996
 20
54.5244892972
 10
250.0780257871
 20
54.2796592287
 10
249.8569140484
 20
53.9734862434
 10
249.7623949825
 20
53.6410205749
 10
249.804354968
 20
53.3212375665
 10
249.9775493829
 20
53.0528883466
 10
250.1468825659
 20
52.9244169779
 10
250.1468825659
 20
52.9244169779
  0
SPLINE
  5
20E
330
1F
100
AcDbEntity
  8
0
  6
Continuous
 62
     7
370
    15
100
AcDbSpline
210
0.0
220
0.0
230
1.0
 70
     8
 71
     3
 72
    10
 73
     6
 74
     0
 42
0.000000001
 43
0.00000001
 40
0.0
 40
0.0
 40
0.0
 40
0.0
 40
0.1982376724753472
 40
0.6709252460000957
 40
1.0
 40
1.0
 40
1.0
 40
1.0
 10
242.2674515861426
 20
36.64124398791962
 30
0.0
 10
242.1831286038062
 20
36.75165728823669
 30
0.0
 10
241.8977417902856
 20
37.12534544625377
 30
0.0
 10
241.4064798034657
 20
37.57469424607226
 30
0.0
 10
240.9894780521651
 20
37.85617661226621
 30
0.0
 10
240.8183241527914
 20
37.97170803252708
 30
0.0
  0
LWPOLYLINE
  5
20F
330
1F
100
AcDbEntity
  8
0
  6
Continuous
 62
     7
370
    15
100
AcDbPolyline
 90
       22
 70
   128
 43
0.0
 10
270.9217500669
 20
44.0174767806
 10
271.109565651
 20
44.1737809761
 10
271.4617675012
 20
44.5959830448
 10
271.6423971897
 20
45.052842983
 10
271.6423971897
 20
45.5214519257
 10
271.4617675012
 20
45.978311864
 10
271.109565651
 20
46.4005139326
 10
270.6034525106
 20
46.766887157
 10
269.9688067062
 20
47.0590600539
 10
269.2374520284
 20
47.2623818542
 10
268.4460616547
 20
47.3666571538
 10
267.634319203
 20
47.3666571538
 10
266.8429288293
 20
47.2623818542
 10
266.1115741515
 20
47.0590600539
 10
265.476928347
 20
46.766887157
 10
264.9708152066
 20
46.4005139326
 10
264.6186133565
 20
45.978311864
 10
264.437983668
 20
45.5214519257
 10
264.437983668
 20
45.052842983
 10
264.6186133565
 20
44.5959830448
 10
264.9708152066
 20
44.1737809761
 10
265.0654803041
 20
44.0912106264
  0
SPLINE
  5
210
330
1F
100
AcDbEntity
  8
0
  6
Continuous
 62
     7
370
    15
100
AcDbSpline
210
0.0
220
0.0
230
1.0
 70
     8
 71
     3
 72
    10
 73
     6
 74
     0
 42
0.000000001
 43
0.00000001
 40
0.0
 40
0.0
 40
0.0
 40
0.0
 40
0.5
 40
0.5
 40
1.0
 40
1.0
 40
1.0
 40
1.0
 10
240.6823948055592
 20
38.0242380143364
 30
0.0
 10
240.6418194971643
 20
38.03306253566336
 30
0.0
 10
240.5982451541106
 20
38.03801561157204
 30
0.0
 10
240.5104424271238
 20
38.03960079683817
 30
0.0
 10
240.467474310202
 20
38.03636942932962
 30
0.0
 10
240.4255177771816
 20
38.02935448943076
 30
0.0
  0
SPLINE
  5
211
330
1F
100
AcDbEntity
  8
0
  6
Continuous
 62
     7
370
    15
100
AcDbSpline
210
0.0
220
0.0
230
1.0
 70
     8
 71
     3
 72
     8
 73
     4
 74
     0
 42
0.000000001
 43
0.00000001
 40
0.0
 40
0.0
 40
0.0
 40
0.0
 40
1.0
 40
1.0
 40
1.0
 40
1.0
 10
240.8183241527914
 20
37.97170803252708
 30
0.0
 10
240.7798422109552
 20
37.99537884232295
 30
0.0
 10
240.7337345592083
 20
38.0130723875324
 30
0.0
 10
240.6823948055593
 20
38.02423801433645
 30
0.0
  0
SPLINE
  5
212
330
1F
100
AcDbEntity
  8
0
  6
Continuous
 62
     7
370
    15
100
AcDbSpline
210
0.0
220
0.0
230
1.0
 70
     8
 71
     3
 72
    10
 73
     6
 74
     0
 42
0.000000001
 43
0.00000001
 40
0.0
 40
0.0
 40
0.0
 40
0.0
 40
0.5
 40
0.5
 40
1.0
 40
1.0
 40
1.0
 40
1.0
 10
232.155123274094
 20
40.19524838066482
 30
0.0
 10
232.1661738724441
 20
40.18887254612068
 30
0.0
 10
232.1847938183835
 20
40.17812630461529
 30
0.0
 10
232.238093768444
 20
40.14736083177534
 30
0.0
 10
232.2716745411653
 20
40.12797608950439
 30
0.0
 10
232.3118201939048
 20
40.10480049748423
 30
0.0
  0
SPLINE
  5
213
330
1F
100
AcDbEntity
  8
0
  6
Continuous
 62
     7
370
    15
100
AcDbSpline
210
0.0
220
0.0
230
1.0
 70
     8
 71
     3
 72
     9
 73
     5
 74
     0
 42
0.000000001
 43
0.00000001
 40
0.0
 40
0.0
 40
0.0
 40
0.0
 40
0.5377956222890862
 40
0.9999999999999999
 40
0.9999999999999999
 40
0.9999999999999999
 40
0.9999999999999999
 10
240.8183241527914
 20
27.48235196958398
 30
0.0
 10
241.0583903262388
 20
27.3555859220425
 30
0.0
 10
241.5047795557115
 20
27.11987175426644
 30
0.0
 10
241.8963857131548
 20
27.00422711525212
 30
0.0
 10
242.0773877934636
 20
26.95077565684091
 30
0.0
  0
SPLINE
  5
214
330
1F
100
AcDbEntity
  8
0
  6
Continuous
 62
     7
370
    15
100
AcDbSpline
210
0.0
220
0.0
230
1.0
 70
     8
 71
     3
 72
     8
 73
     4
 74
     0
 42
0.000000001
 43
0.00000001
 40
0.0
 40
0.0
 40
0.0
 40
0.0
 40
1.0
 40
1.0
 40
1.0
 40
1.0
 10
240.6823948055598
 20
27.5316885816044
 30
0.0
 10
240.7337231875569
 20
27.52052542796411
 30
0.0
 10
240.7798437516612
 20
27.5038114236624
 30
0.0
 10
240.8183241527914
 20
27.48235196958401
 30
0.0
  0
SPLINE
  5
215
330
1F
100
AcDbEntity
  8
0
  6
Continuous
 62
     7
370
    15
100
AcDbSpline
210
0.0
220
0.0
230
1.0
 70
     8
 71
     3
 72
    12
 73
     8
 74
     0
 42
0.000000001
 43
0.00000001
 40
0.0
 40
0.0
 40
0.0
 40
0.0
 40
0.1882348860552934
 40
0.3552030333413834
 40
0.5009466077120189
 40
0.7563025321915505
 40
1.0
 40
1.0
 40
1.0
 40
1.0
 10
241.4983113218915
 20
25.86611357230266
 30
0.0
 10
241.5873548552186
 20
25.96039522032025
 30
0.0
 10
241.755381801764
 20
26.1383065951248
 30
0.0
 10
241.9352911537833
 20
26.4856236963137
 30
0.0
 10
242.0968151482434
 20
26.94627730510253
 30
0.0
 10
242.22257221186
 20
27.56782821664571
 30
0.0
 10
242.2398750080499
 20
28.15115552230302
 30
0.0
 10
242.2483242996139
 20
28.4360055794091
 30
0.0
  0
SPLINE
  5
216
330
1F
100
AcDbEntity
  8
0
  6
Continuous
 62
     7
370
    15
100
AcDbSpline
210
0.0
220
0.0
230
1.0
 70
     8
 71
     3
 72
     9
 73
     5
 74
     0
 42
0.000000001
 43
0.00000001
 40
0.0
 40
0.0
 40
0.0
 40
0.0
 40
0.5048004990382029
 40
1.0
 40
1.0
 40
1.0
 40
1.0
 10
241.3875769098607
 20
25.14208905204154
 30
0.0
 10
241.4061218081456
 20
25.26380292776675
 30
0.0
 10
241.4428588920436
 20
25.50491575542263
 30
0.0
 10
241.4799560033995
 20
25.74642198866947
 30
0.0
 10
241.49832647443
 20
25.86601575485248
 30
0.0
  0
LINE
  5
217
330
1F
100
AcDbEntity
  8
0
  6
Continuous
 62
     7
370
    15
100
AcDbLine
 10
232.5891903742
 20
39.9446260477
 30
0.0
 11
232.1551232741
 21
40.1952483807
 31
0.0
  0
LINE
  5
218
330
1F
100
AcDbEntity
  8
0
  6
Continuous
 62
     7
370
    15
100
AcDbLine
 10
236.9140566327
 20
37.4479339002
 30
0.0
 11
232.5891903742
 21
39.9446260477
 31
0.0
  0
SPLINE
  5
219
330
1F
100
AcDbEntity
  8
0
  6
Continuous
 62
     7
370
    15
100
AcDbSpline
210
0.0
220
0.0
230
1.0
 70
     8
 71
     3
 72
    11
 73
     7
 74
     0
 42
0.000000001
 43
0.00000001
 40
0.0
 40
0.0
 40
0.0
 40
0.0
 40
0.0763291486410529
 40
0.4828240100964536
 40
0.8892344489868813
 40
1.0
 40
1.0
 40
1.0
 40
1.0
 10
236.4855503183901
 20
34.63189470199493
 30
0.0
 10
236.4851149390601
 20
34.7101338410145
 30
0.0
 10
236.4823609244042
 20
35.20503959485136
 30
0.0
 10
236.4376652671902
 20
36.13802563734869
 30
0.0
 10
236.3995901526286
 20
37.10350944562836
 30
0.0
 10
236.4116081717646
 20
37.62484820806353
 30
0.0
 10
236.4141821166841
 20
37.73650531592038
 30
0.0
  0
LINE
  5
21A
330
1F
100
AcDbEntity
  8
0
  6
Continuous
 62
     7
370
    15
100
AcDbLine
 10
236.4855503184
 20
32.856094073
 30
0.0
 11
236.4855503184
 21
34.631894702
 31
0.0
  0
LINE
  5
21B
330
1F
100
AcDbEntity
  8
0
  6
Continuous
 62
     7
370
    15
100
AcDbLine
 10
235.5574726681
 20
38.0447204492
 30
0.0
 11
235.5585136953
 21
38.2304721812
 31
0.0
  0
ARC
  5
21C
330
1F
100
AcDbEntity
  8
0
  6
Continuous
 62
     7
370
    15
100
AcDbCircle
 10
247.4933258694
 20
37.7791307847
 30
0.0
 40
11.93880770898633
100
AcDbArc
 50
178.7252979842
 51
202.7773427363
  0
LINE
  5
21D
330
1F
100
AcDbEntity
  8
0
  6
Continuous
 62
     7
370
    15
100
AcDbLine
 10
206.9398198674
 20
57.1479566114
 30
0.0
 11
206.8869948187
 21
57.1934692276
 31
0.0
  0
LWPOLYLINE
  5
21E
330
1F
100
AcDbEntity
  8
0
  6
Continuous
 62
     7
370
    15
100
AcDbPolyline
 90
       10
 70
   128
 43
0.0
 10
243.8951183162
 20
19.2826025687
 10
243.4052429944
 20
19.3765217843
 10
242.1885426652
 20
19.7362585604
 10
241.0556558235
 20
20.2615376279
 10
240.0150160302
 20
20.9484486465
 10
239.0743701305
 20
21.7918780377
 10
238.2407205839
 20
22.7855470518
 10
237.5202733362
 20
23.9220585085
 10
236.9183916199
 20
25.1929518643
 10
236.4395560291
 20
26.5887661952
  0
SPLINE
  5
21F
330
1F
100
AcDbEntity
  8
0
  6
Continuous
 62
     7
370
    15
100
AcDbSpline
210
0.0
220
0.0
230
1.0
 70
     8
 71
     3
 72
     8
 73
     4
 74
     0
 42
0.000000001
 43
0.00000001
 40
0.0
 40
0.0
 40
0.0
 40
0.0
 40
0.0012417047560385
 40
0.0012417047560385
 40
0.0012417047560385
 40
0.0012417047560385
 10
236.9140566327309
 20
26.95538446748995
 30
0.0
 10
236.7559964752209
 20
26.8329812624858
 30
0.0
 10
236.5978271695416
 20
26.71077903251503
 30
0.0
 10
236.4395560290813
 20
26.58876619520427
 30
0.0
  0
SPLINE
  5
220
330
1F
100
AcDbEntity
  8
0
  6
Continuous
 62
     7
370
    15
100
AcDbSpline
210
0.0
220
0.0
230
1.0
 70
     8
 71
     3
 72
     8
 73
     4
 74
     0
 42
0.000000001
 43
0.00000001
 40
0.0
 40
0.0
 40
0.0
 40
0.0
 40
1.0
 40
1.0
 40
1.0
 40
1.0
 10
236.9140566327309
 20
26.95538446748995
 30
0.0
 10
238.0852892174067
 20
27.14766409781795
 30
0.0
 10
239.2559085919991
 20
27.3412517650282
 30
0.0
 10
240.4255177771816
 20
27.53680505669887
 30
0.0
  0
SPLINE
  5
221
330
1F
100
AcDbEntity
  8
0
  6
Continuous
 62
     7
370
    15
100
AcDbSpline
210
0.0
220
0.0
230
1.0
 70
     8
 71
     3
 72
    10
 73
     6
 74
     0
 42
0.000000001
 43
0.00000001
 40
0.0
 40
0.0
 40
0.0
 40
0.0
 40
0.5
 40
0.5
 40
1.0
 40
1.0
 40
1.0
 40
1.0
 10
240.4255177771816
 20
27.53680505669888
 30
0.0
 10
240.467283638196
 20
27.54378811711282
 30
0.0
 10
240.5111809240101
 20
27.5470782081212
 30
0.0
 10
240.5988083068
 20
27.54541523369215
 30
0.0
 10
240.6413136038607
 20
27.54062312714141
 30
0.0
 10
240.6823948055598
 20
27.5316885816044
 30
0.0
  0
LINE
  5
222
330
1F
100
AcDbEntity
  8
0
  6
Continuous
 62
     7
370
    15
100
AcDbLine
 10
232.5891903742
 20
29.452076615
 30
0.0
 11
236.9140566327
 21
26.9553844675
 31
0.0
  0
LINE
  5
223
330
1F
100
AcDbEntity
  8
0
  6
Continuous
 62
     7
370
    15
100
AcDbLine
 10
232.5891903742
 20
29.452076615
 30
0.0
 11
236.1319969278
 21
31.4972953046
 31
0.0
  0
LINE
  5
224
330
1F
100
AcDbEntity
  8
0
  6
Continuous
 62
     7
370
    15
100
AcDbLine
 10
232.1551232741
 20
29.201454282
 30
0.0
 11
232.5891903742
 21
29.452076615
 31
0.0
  0
LINE
  5
225
330
1F
100
AcDbEntity
  8
0
  6
Continuous
 62
     7
370
    15
100
AcDbLine
 10
236.4395560291
 20
26.5887661952
 30
0.0
 11
232.3118201939
 21
28.9716573716
 31
0.0
  0
SPLINE
  5
226
330
1F
100
AcDbEntity
  8
0
  6
Continuous
 62
     7
370
    15
100
AcDbSpline
210
0.0
220
0.0
230
1.0
 70
     8
 71
     3
 72
     8
 73
     4
 74
     0
 42
0.000000001
 43
0.00000001
 40
0.0
 40
0.0
 40
0.0
 40
0.0
 40
1.0
 40
1.0
 40
1.0
 40
1.0
 10
232.3118201939048
 20
28.9716573715868
 30
0.0
 10
232.2316009647386
 20
29.0179669468574
 30
0.0
 10
232.1772112024513
 20
29.10162978786948
 30
0.0
 10
232.1551232740932
 20
29.20145428197686
 30
0.0
  0
ARC
  5
227
330
1F
100
AcDbEntity
  8
0
  6
Continuous
 62
     7
370
    15
100
AcDbCircle
 10
241.3409285457
 20
30.397036583
 30
0.0
 40
8.92164576897097
100
AcDbArc
 50
214.8451889641
 51
239.5573983443
  0
ELLIPSE
  5
228
330
1F
100
AcDbEntity
  8
0
  6
Continuous
 62
     7
370
    15
100
AcDbEllipse
 10
235.839103709
 20
32.4829197727
 30
0.0
 11
-7.507462981948265E-5
 21
1.066811201853405
 31
0.0
210
0.0
220
0.0
230
1.0
 40
0.7174342186
 41
3.534193645557448
 42
5.104989972352368
  0
ELLIPSE
  5
229
330
1F
100
AcDbEntity
  8
0
  6
Continuous
 62
     7
370
    15
100
AcDbEllipse
 10
235.7784435372
 20
32.4478900171
 30
0.0
 11
0.3250094736511926
 21
1.213179526238669
 31
0.0
210
0.0
220
0.0
230
1.0
 40
0.5176380889
 41
3.619174351347776
 42
5.189970678142619
  0
LWPOLYLINE
  5
22A
330
1F
100
AcDbEntity
  8
0
  6
Continuous
 62
     7
370
    15
100
AcDbPolyline
 90
        8
 70
   128
 43
0.0
 10
272.7749519171
 20
33.1386703199
 10
272.7728912601
 20
33.13599389
 10
272.461481028
 20
32.8696188851
 10
272.0637717803
 20
32.7565099483
 10
271.6047530516
 20
32.80377413
 10
271.1132666768
 20
33.0084416479
 10
270.6201945524
 20
33.357652489
 10
270.3941500364
 20
33.5684174811
  0
ARC
  5
22B
330
1F
100
AcDbEntity
  8
0
  6
Continuous
 62
     7
370
    15
100
AcDbCircle
 10
273.4724651252
 20
35.7079115913
 30
0.0
 40
3.621524288299996
100
AcDbArc
 50
334.1681343725
 51
25.8318656275
  0
LWPOLYLINE
  5
22C
330
1F
100
AcDbEntity
  8
0
  6
Continuous
 62
     7
370
    15
100
AcDbPolyline
 90
        3
 70
   128
 43
0.0
 10
265.2475252194
 20
44.069217992
 10
265.7870054397
 20
43.741012161
 10
265.8237804632
 20
43.7233980203
  0
LWPOLYLINE
  5
22D
330
1F
100
AcDbEntity
  8
0
  6
Continuous
 62
     7
370
    15
100
AcDbPolyline
 90
       23
 70
   128
 43
0.0
 10
270.6259485153
 20
43.9254512727
 10
270.718465509
 20
43.9864114471
 10
271.1526963891
 20
44.363071084
 10
271.4308532237
 20
44.7860677687
 10
271.5389880676
 20
45.2341906812
 10
271.4716785882
 20
45.6849690674
 10
271.2322999638
 20
46.1157990168
 10
270.8328556383
 20
46.5050769167
 10
270.293375418
 20
46.8332827477
 10
269.6409110938
 20
47.083958899
 10
268.9081799515
 20
47.2445354217
 10
268.1319241901
 20
47.3069603383
 10
267.3510685149
 20
47.2681034029
 10
266.60476829
 20
47.1299130645
 10
265.9304461249
 20
46.8993187637
 10
265.3619153487
 20
46.5878834616
 10
264.9276844686
 20
46.2112238247
 10
264.649527634
 20
45.78822714
 10
264.5413927901
 20
45.3401042275
 10
264.6087022695
 20
44.8893258413
 10
264.8480808939
 20
44.4584958919
 10
265.2475252194
 20
44.069217992
 10
265.2475252194
 20
44.069217992
  0
LWPOLYLINE
  5
22E
330
1F
100
AcDbEntity
  8
0
  6
Continuous
 62
     7
370
    15
100
AcDbPolyline
 90
       23
 70
   128
 43
0.0
 10
266.1651152168
 20
44.4693948154
 10
266.6401551076
 20
44.1975559171
 10
267.2286175338
 20
44.0139892452
 10
267.8828287694
 20
43.9335662796
 10
268.5497885107
 20
43.9628024107
 10
269.1754636462
 20
44.0993291011
 10
269.7091656973
 20
44.3320857702
 10
270.1076572979
 20
44.642215857
 10
270.3386550285
 20
45.0045944663
 10
270.3834448267
 20
45.3898638382
 10
270.2383980895
 20
45.7668117397
 10
269.9152656409
 20
46.1049000933
 10
269.4402257501
 20
46.3767389916
 10
268.8517633239
 20
46.5603056635
 10
268.1975520883
 20
46.6407286291
 10
267.530592347
 20
46.611492498
 10
266.9049172115
 20
46.4749658076
 10
266.3712151604
 20
46.2422091385
 10
265.9727235598
 20
45.9320790517
 10
265.7417258292
 20
45.5697004424
 10
265.696936031
 20
45.1844310705
 10
265.8419827682
 20
44.8074831691
 10
266.1651152168
 20
44.4693948154
  0
SPLINE
  5
22F
330
1F
100
AcDbEntity
  8
0
  6
Continuous
 62
     7
370
    15
100
AcDbSpline
210
0.0
220
0.0
230
1.0
 70
     8
 71
     3
 72
    11
 73
     7
 74
     0
 42
0.000000001
 43
0.00000001
 40
0.0
 40
0.0
 40
0.0
 40
0.0
 40
0.0728644759639543
 40
0.3377460560281172
 40
0.7064365256069577
 40
0.9999999999999999
 40
0.9999999999999999
 40
0.9999999999999999
 40
0.9999999999999999
 10
269.5664438876664
 20
44.25703098935908
 30
0.0
 10
269.5841145905659
 20
44.26508795950726
 30
0.0
 10
269.6660229571965
 20
44.30243414027753
 30
0.0
 10
269.8525934696159
 20
44.48774951103557
 30
0.0
 10
270.1013806413238
 20
44.88323477125086
 30
0.0
 10
270.2611928037254
 20
45.25380968265591
 30
0.0
 10
270.3320342295438
 20
45.4180778754016
 30
0.0
  0
SPLINE
  5
230
330
1F
100
AcDbEntity
  8
0
  6
Continuous
 62
     7
370
    15
100
AcDbSpline
210
0.0
220
0.0
230
1.0
 70
     8
 71
     3
 72
    11
 73
     7
 74
     0
 42
0.000000001
 43
0.00000001
 40
0.0
 40
0.0
 40
0.0
 40
0.0
 40
0.1845133558519202
 40
0.5180565039163927
 40
0.8676122830485035
 40
1.0
 40
1.0
 40
1.0
 40
1.0
 10
270.3320342295438
 20
45.4180778754016
 30
0.0
 10
270.2511896589849
 20
45.4290089691677
 30
0.0
 10
270.0242030791191
 20
45.45970010366199
 30
0.0
 10
269.601106178985
 20
45.67697533642365
 30
0.0
 10
269.2079655102191
 20
46.10522836247496
 30
0.0
 10
268.9977180458643
 20
46.40067672357005
 30
0.0
 10
268.939964010325
 20
46.48183506333454
 30
0.0
  0
SPLINE
  5
231
330
1F
100
AcDbEntity
  8
0
  6
Continuous
 62
     7
370
    15
100
AcDbSpline
210
0.0
220
0.0
230
1.0
 70
     8
 71
     3
 72
    11
 73
     7
 74
     0
 42
0.000000001
 43
0.00000001
 40
0.0
 40
0.0
 40
0.0
 40
0.0
 40
0.2164567244934104
 40
0.4403141600939151
 40
0.7519028444798608
 40
1.0
 40
1.0
 40
1.0
 40
1.0
 10
268.939964010325
 20
46.48183506333454
 30
0.0
 10
268.7829694938193
 20
46.41144571046433
 30
0.0
 10
268.4636127778924
 20
46.26826037463734
 30
0.0
 10
267.8709737151621
 20
46.12554456442453
 30
0.0
 10
267.2352658708116
 20
46.14049893368087
 30
0.0
 10
266.8284522656833
 20
46.26331302037084
 30
0.0
 10
266.648120209621
 20
46.31775396454534
 30
0.0
  0
SPLINE
  5
232
330
1F
100
AcDbEntity
  8
0
  6
Continuous
 62
     7
370
    15
100
AcDbSpline
210
0.0
220
0.0
230
1.0
 70
     8
 71
     3
 72
    11
 73
     7
 74
     0
 42
0.000000001
 43
0.00000001
 40
0.0
 40
0.0
 40
0.0
 40
0.0
 40
0.2164567244934137
 40
0.4403141600939126
 40
0.7519028444798639
 40
1.0
 40
1.0
 40
1.0
 40
1.0
 10
266.648120209621
 20
46.31775396454534
 30
0.0
 10
266.5864844566319
 20
46.17449575152524
 30
0.0
 10
266.4611056083994
 20
45.88308129031997
 30
0.0
 10
266.2284366229139
 20
45.46529260531719
 30
0.0
 10
265.9788589144708
 20
45.18518376448678
 30
0.0
 10
265.8191446554228
 20
45.11917569127594
 30
0.0
 10
265.7483466281357
 20
45.08991567782318
 30
0.0
  0
SPLINE
  5
233
330
1F
100
AcDbEntity
  8
0
  6
Continuous
 62
     7
370
    15
100
AcDbSpline
210
0.0
220
0.0
230
1.0
 70
     8
 71
     3
 72
    10
 73
     6
 74
     0
 42
0.000000001
 43
0.00000001
 40
0.0
 40
0.0
 40
0.0
 40
0.0
 40
0.2144087999297407
 40
0.7805325826948951
 40
1.0
 40
1.0
 40
1.0
 40
1.0
 10
265.7483466281357
 20
45.08991567782318
 30
0.0
 10
265.8060286943312
 20
45.009466715698
 30
0.0
 10
266.0160141618933
 20
44.7166007689492
 30
0.0
 10
266.3170151276705
 20
44.35951976357387
 30
0.0
 10
266.5474025266828
 20
44.25240650537485
 30
0.0
 10
266.6117649169901
 20
44.22248271023308
 30
0.0
  0
LINE
  5
234
330
1F
100
AcDbEntity
  8
0
  6
Continuous
 62
     7
370
    15
100
AcDbLine
 10
266.6481202096
 20
44.1941601503
 30
0.0
 11
266.6481202096
 21
46.3177539645
 31
0.0
  0
LINE
  5
235
330
1F
100
AcDbEntity
  8
0
  6
Continuous
 62
     7
370
    15
100
AcDbLine
 10
268.9399640103
 20
44.0339001722
 30
0.0
 11
268.9399640103
 21
46.4818350633
 31
0.0
  0
LWPOLYLINE
  5
236
330
1F
100
AcDbEntity
  8
0
  6
Continuous
 62
     7
370
     0
100
AcDbPolyline
 90
       40
 70
   128
 43
0.0
 10
244.016237538
 20
27.4161073434
 10
244.0786478649
 20
29.1486997696
 10
244.2654291777
 20
30.9408662573
 10
244.5752357128
 20
32.7796942059
 10
245.005835307
 20
34.6519348179
 10
245.5541254804
 20
36.5440985567
 10
246.2161557896
 20
38.4425523394
 10
246.9871562913
 20
40.3336177627
 10
247.8615719089
 20
42.2036696572
 10
248.8331024581
 20
44.0392342559
 10
249.8947480389
 20
45.827086274
 10
251.0388594707
 20
47.5543441966
 10
252.2571934042
 20
49.2085630908
 10
253.5409717156
 20
50.7778242716
 10
254.8809447528
 20
52.2508211763
 10
256.2674579793
 20
53.6169408284
 10
257.6905215356
 20
54.8663403044
 10
259.1398822161
 20
55.9900176526
 10
260.6050973438
 20
56.9798767518
 10
262.0756100103
 20
57.8287856446
 10
263.5408251381
 20
58.5306279231
 10
264.9901858186
 20
59.0803467973
 10
266.4132493749
 20
59.4739815304
 10
267.7997626014
 20
59.7086959749
 10
269.1397356386
 20
59.7827990081
 10
270.42351395
 20
59.6957567157
 10
271.6418478835
 20
59.4481962396
 10
272.7859593153
 20
59.0419012585
 10
273.8476048961
 20
58.4797991373
 10
274.8191354453
 20
57.7659398345
 10
275.6935510629
 20
56.9054667227
 10
276.4645515645
 20
55.9045795305
 10
277.1265818738
 20
54.770489673
 10
277.6748720472
 20
53.5113682937
 10
278.1054716414
 20
52.1362873908
 10
278.4152781765
 20
50.6551544539
 10
278.6020594893
 20
49.0786410797
 10
278.6644698162
 20
47.4181060831
 10
278.6020594893
 20
45.6855136569
 10
278.598805826
 20
45.6400552204
  0
LWPOLYLINE
  5
237
330
1F
100
AcDbEntity
  8
0
  6
Continuous
 62
     7
370
     0
100
AcDbPolyline
 90
       21
 70
   128
 43
0.0
 10
262.850085787
 20
18.3595160554
 10
262.0756100103
 20
17.8543366747
 10
260.6050973438
 20
17.0054277819
 10
259.1398822161
 20
16.3035855035
 10
257.6905215356
 20
15.7538666292
 10
256.2674579793
 20
15.3602318961
 10
254.8809447528
 20
15.1255174516
 10
253.5409717156
 20
15.0514144184
 10
252.2571934042
 20
15.1384567108
 10
251.0388594707
 20
15.386017187
 10
249.8947480389
 20
15.792312168
 10
248.8331024581
 20
16.3544142892
 10
247.8615719089
 20
17.0682735921
 10
246.9871562913
 20
17.9287467038
 10
246.2161557896
 20
18.929633896
 10
245.5541254804
 20
20.0637237535
 10
245.005835307
 20
21.3228451329
 10
244.5752357128
 20
22.6979260357
 10
244.2654291777
 20
24.1790589726
 10
244.0786478649
 20
25.7555723469
 10
244.016237538
 20
27.4161073434
  0
LWPOLYLINE
  5
238
330
1F
100
AcDbEntity
  8
0
  6
Continuous
 62
     7
370
     0
100
AcDbPolyline
 90
       27
 70
   128
 43
0.0
 10
243.3091307568
 20
27.4161073434
 10
243.371128832
 20
29.1600574237
 10
243.5566881856
 20
30.9633564011
 10
243.8645072521
 20
32.813355429
 10
244.2924269018
 20
34.6970780935
 10
244.837445586
 20
36.6013114335
 10
245.4957403901
 20
38.5126986203
 10
246.262693849
 20
40.4178326461
 10
247.1329263353
 20
42.3033503647
 10
248.1003337935
 20
44.1560262238
 10
249.1581305551
 20
45.9628650336
 10
250.298896936
 20
47.7111931179
 10
251.5146312797
 20
49.3887472115
 10
252.7968060833
 20
50.9837604777
 10
254.1364278116
 20
52.4850450444
 10
255.5240999809
 20
53.8820704791
 10
256.9500890679
 20
55.1650376521
 10
258.4043927837
 20
56.3249474706
 10
259.8768102327
 20
57.3536640005
 10
261.3570134644
 20
58.2439715344
 10
262.8346199166
 20
58.9896252049
 10
264.2992652418
 20
59.585394787
 10
265.7406760053
 20
60.0271013852
 10
267.1487417463
 20
60.3116467452
 10
268.5135858954
 20
60.4370349856
 10
269.8256350513
 20
60.4023865981
 10
269.99603811
 20
60.3856803302
  0
ARC
  5
239
330
1F
100
AcDbEntity
  8
0
  6
Continuous
 62
     7
370
     0
100
AcDbCircle
 10
258.7022962789
 20
26.8101645329
 30
0.0
 40
15.40508719478038
100
AcDbArc
 50
177.7457495802
 51
212.5890690703
  0
LWPOLYLINE
  5
23A
330
1F
100
AcDbEntity
  8
0
  6
Continuous
 62
     7
370
     0
100
AcDbPolyline
 90
        9
 70
   128
 43
0.0
 10
251.2640820452
 20
30.3755867488
 10
251.3271749889
 20
29.0450202671
 10
251.5157389518
 20
27.8023751975
 10
251.8276374288
 20
26.6617312053
 10
252.2593364855
 20
25.6360122426
 10
252.8059447992
 20
24.7368401152
 10
253.4612690792
 20
23.9744028025
 10
254.2178842396
 20
23.3573390239
 10
254.5266538294
 20
23.1645310469
  0
LWPOLYLINE
  5
23B
330
1F
100
AcDbEntity
  8
0
  6
Continuous
 62
     7
370
     0
100
AcDbPolyline
 90
       24
 70
   128
 43
0.0
 10
270.2037087024
 20
50.485695463
 10
270.1704885239
 20
50.504027541
 10
269.2783433726
 20
50.8904587294
 10
268.3082753299
 20
51.1172937831
 10
267.2712756541
 20
51.1819625705
 10
266.179093966
 20
51.0837323682
 10
265.0441051205
 20
50.8237161638
 10
263.8791689948
 20
50.4048600447
 10
262.6974847807
 20
49.8319098181
 10
261.5124414325
 20
49.111357239
 10
260.3374659647
 20
48.2513664561
 10
259.1858713191
 20
47.2616815086
 10
258.070705523
 20
46.1535159223
 10
257.0046038506
 20
44.9394256562
 10
255.9996456597
 20
43.6331668381
 10
255.0672175283
 20
42.2495399024
 10
254.2178842396
 20
40.8042218952
 10
253.4612690792
 20
39.3135888469
 10
252.8059447992
 20
37.7945302256
 10
252.2593364855
 20
36.2642575726
 10
251.8276374288
 20
34.7401094883
 10
251.5157389518
 20
33.2393551797
 10
251.3271749889
 20
31.7789987927
 10
251.2640820452
 20
30.3755867488
  0
LWPOLYLINE
  5
23C
330
1F
100
AcDbEntity
  8
0
  6
Continuous
 62
     7
370
     0
100
AcDbPolyline
 90
       47
 70
   128
 43
0.0
 10
274.421829129
 20
37.6224693918
 10
273.5071277
 20
37.0221730974
 10
272.609465428
 20
36.2885583886
 10
271.7455640626
 20
35.4352911193
 10
270.9315164516
 20
34.4782660445
 10
270.1824867619
 20
33.4353107305
 10
269.5124279994
 20
32.3258534614
 10
268.933822091
 20
31.170561327
 10
268.45744737
 20
29.9909552338
 10
268.0921777961
 20
28.8090090115
 10
267.8448176504
 20
27.6467400818
 10
267.7199747844
 20
26.5257993159
 10
267.7199747844
 20
25.4670677192
 10
267.8448176504
 20
24.4902674583
 10
268.0921777961
 20
23.6135944738
 10
268.45744737
 20
22.8533795246
 10
268.933822091
 20
22.223783977
 10
269.5124279994
 20
21.7365360047
 10
270.1824867619
 20
21.4007121156
 10
270.9315164516
 20
21.2225680732
 10
271.7455640626
 20
21.2054223641
 10
272.609465428
 20
21.3495943803
 10
273.5071277
 20
21.6523984701
 10
274.421829129
 20
22.108193966
 10
275.336530558
 20
22.7084902604
 10
276.2341928301
 20
23.4421049692
 10
277.0980941955
 20
24.2953722385
 10
277.9121418065
 20
25.2523973133
 10
278.6611714961
 20
26.2953526273
 10
279.3312302587
 20
27.4048098964
 10
279.9098361671
 20
28.5601020308
 10
280.3862108881
 20
29.739708124
 10
280.751480462
 20
30.9216543463
 10
280.9988406077
 20
32.083923276
 10
281.1236834737
 20
33.2048640419
 10
281.1236834737
 20
34.2635956386
 10
280.9988406077
 20
35.2403958995
 10
280.751480462
 20
36.117068884
 10
280.3862108881
 20
36.8772838332
 10
279.9098361671
 20
37.5068793808
 10
279.3312302587
 20
37.9941273531
 10
278.6611714961
 20
38.3299512422
 10
277.9121418065
 20
38.5080952846
 10
277.0980941955
 20
38.5252409937
 10
276.2341928301
 20
38.3810689775
 10
275.336530558
 20
38.0782648877
 10
274.421829129
 20
37.6224693918
  0
LWPOLYLINE
  5
23D
330
1F
100
AcDbEntity
  8
0
  6
Continuous
 62
     7
370
     0
100
AcDbPolyline
 90
       29
 70
   128
 43
0.0
 10
249.1427617016
 20
30.3755867488
 10
249.2053436015
 20
31.8367036106
 10
249.3924471259
 20
33.3550829598
 10
249.7021523398
 20
34.9151441695
 10
250.1312812483
 20
36.5008789006
 10
250.6754304082
 20
38.0960153688
 10
251.3290161129
 20
39.6841853156
 10
252.0853316884
 20
41.2490919681
 10
252.9366163136
 20
42.7746772663
 10
253.8741346562
 20
44.2452866407
 10
254.8882665094
 20
45.6458296491
 10
255.968605508
 20
46.9619348249
 10
257.104065912
 20
48.180097148
 10
258.282996361
 20
49.2878166247
 10
259.4932994333
 20
50.273726554
 10
260.7225557817
 20
51.127710166
 10
261.9581515725
 20
51.8410044331
 10
263.1874079209
 20
52.4062899909
 10
264.3977109932
 20
52.8177662448
 10
265.5766414422
 20
53.0712108914
 10
266.7121018462
 20
53.1640232458
 10
267.7924408448
 20
53.0952509275
 10
268.806572698
 20
52.8655996337
 10
269.7440910406
 20
52.4774258974
 10
270.5953756658
 20
51.9347129064
 10
271.3516912413
 20
51.2430296304
 10
272.005276946
 20
50.4094736757
 10
272.5494261059
 20
49.4425984546
 10
272.7328113765
 20
49.0264217352
  0
LWPOLYLINE
  5
23E
330
1F
100
AcDbEntity
  8
0
  6
Continuous
 62
     7
370
     0
100
AcDbPolyline
 90
       13
 70
   128
 43
0.0
 10
256.9840913375
 20
21.7458825702
 10
255.968605508
 20
21.6701901808
 10
254.8882665094
 20
21.738962499
 10
253.8741346562
 20
21.9686137928
 10
252.9366163136
 20
22.3567875291
 10
252.0853316884
 20
22.8995005201
 10
251.3290161129
 20
23.5911837962
 10
250.6754304082
 20
24.4247397508
 10
250.1312812483
 20
25.3916149719
 10
249.7021523398
 20
26.4818880114
 10
249.3924471259
 20
27.6843711925
 10
249.2053436015
 20
28.9867254105
 10
249.1427617016
 20
30.3755867488
  0
LWPOLYLINE
  5
23F
330
1F
100
AcDbEntity
  8
0
  6
Continuous
 62
     7
370
     0
100
AcDbPolyline
 90
       21
 70
   128
 43
0.0
 10
240.4255177772
 20
38.0293544894
 10
240.895163289
 20
39.7887824199
 10
241.4793317778
 20
41.5592382229
 10
242.1732450965
 20
43.3262406337
 10
242.971227451
 20
45.0753366342
 10
243.866751825
 20
46.7922196702
 10
244.8524933674
 20
48.4628466699
 10
245.9203893045
 20
50.0735529082
 10
247.0617048892
 20
51.6111637759
 10
248.2671048458
 20
53.06310254
 10
249.5267297268
 20
54.4174932137
 10
250.8302765576
 20
55.6632576951
 10
252.1670831083
 20
56.7902063792
 10
253.5262151046
 20
57.7891215029
 10
254.8965556632
 20
58.6518325408
 10
256.2668962219
 20
59.3712830347
 10
257.6260282182
 20
59.9415883121
 10
258.9628347689
 20
60.3580836183
 10
260.2663815997
 20
60.617362272
 10
261.5260064807
 20
60.7173035296
 10
261.6825243443
 20
60.7185371051
  0
LWPOLYLINE
  5
240
330
1F
100
AcDbEntity
  8
0
  6
Continuous
 62
     7
370
     0
100
AcDbPolyline
 90
       22
 70
   128
 43
0.0
 10
232.3118201939
 20
40.1048004975
 10
232.7906557847
 20
42.0534666337
 10
233.392537501
 20
44.0192778274
 10
234.1129847488
 20
45.9875999708
 10
234.9466342953
 20
47.9437802637
 10
235.8872801951
 20
49.8732562936
 10
236.9279199883
 20
51.761664443
 10
238.06080683
 20
53.5949468162
 10
239.2775071592
 20
55.359455891
 10
240.5689634816
 20
57.0420561149
 10
241.9255617961
 20
58.6302216903
 10
243.3372031641
 20
60.1121298204
 10
244.79337889
 20
61.4767487217
 10
246.2832487502
 20
62.7139197482
 10
247.7957216916
 20
63.8144330152
 10
249.3195383969
 20
64.7700959609
 10
250.8433551022
 20
65.5737943341
 10
252.3558280437
 20
66.219545155
 10
253.8456979038
 20
66.7025412543
 10
255.3018736297
 20
67.0191870593
 10
256.7135149978
 20
67.1671253605
 10
258.0517212896
 20
67.1467201046
  0
LWPOLYLINE
  5
241
330
1F
100
AcDbEntity
  8
0
  6
Continuous
 62
     7
370
     0
100
AcDbPolyline
 90
       25
 70
   128
 43
0.0
 10
269.5686414416
 20
22.2749939454
 10
269.6474969392
 20
22.2310396869
 10
270.3276332985
 20
21.9646482502
 10
271.0805770079
 20
21.8560072433
 10
271.8916728746
 20
21.90723124
 10
272.7451338403
 20
22.1173232233
 10
273.6243482579
 20
22.4821939917
 10
274.512203219
 20
22.9947417509
 10
275.3914176366
 20
23.6449903416
 10
276.2448786023
 20
24.4202834147
 10
277.055974469
 20
25.3055307725
 10
277.8089181785
 20
26.283502082
 10
278.4890545377
 20
27.3351622442
 10
279.0831454662
 20
28.4400418902
 10
279.5796276597
 20
29.5766357945
 10
279.9688376572
 20
30.7228214496
 10
280.2431999287
 20
31.8562896555
 10
280.3973743247
 20
32.9549787429
 10
280.428360016
 20
33.9975039785
 10
280.3355539013
 20
34.9635737943
 10
280.1207623461
 20
35.8343847403
 10
279.7881660237
 20
36.592987472
 10
279.3442385432
 20
37.22461665
 10
278.7976204479
 20
37.716978331
 10
278.5679100353
 20
37.8638734683
  0
LWPOLYLINE
  5
242
330
1F
100
AcDbEntity
  8
0
  6
Continuous
 62
     7
370
     0
100
AcDbPolyline
 90
       19
 70
   128
 43
0.0
 10
240.8183241528
 20
37.9717080325
 10
241.3055683702
 20
39.7760609917
 10
241.9139656234
 20
41.5910929546
 10
242.6381885408
 20
43.4009107696
 10
243.4718955347
 20
45.1896669423
 10
244.4077863304
 20
46.9416984025
 10
245.4376658908
 20
48.6416636564
 10
246.5525161754
 20
50.2746771229
 10
247.7425751055
 20
51.8264394778
 10
248.9974220455
 20
53.2833628644
 10
250.3060690496
 20
54.632689874
 10
251.6570570771
 20
55.8626052554
 10
253.0385563322
 20
56.9623393738
 10
254.4384698504
 20
57.9222625137
 10
255.8445394247
 20
58.7339692013
 10
257.2444529429
 20
59.3903518054
 10
258.625952198
 20
59.8856627755
 10
259.9769402255
 20
60.215564969
 10
260.7500310867
 20
60.3308431707
  0
LINE
  5
243
330
1F
100
AcDbEntity
  8
0
  6
Continuous
 62
     7
370
     0
100
AcDbLine
 10
240.6823948056
 20
27.5316885816
 30
0.0
 11
241.8418841859
 21
28.2010475532
 31
0.0
  0
LINE
  5
244
330
1F
100
AcDbEntity
  8
0
  6
Continuous
 62
     7
370
     0
100
AcDbLine
 10
242.2272162561
 20
27.9975042812
 30
0.0
 11
241.8418841859
 21
28.2010475532
 31
0.0
  0
ARC
  5
245
330
1F
100
AcDbEntity
  8
0
  6
Continuous
 62
     7
370
     0
100
AcDbCircle
 10
241.1167377249
 20
29.3769681064
 30
0.0
 40
1.381530505409213
100
AcDbArc
 50
301.6605905892
 51
324.2377952694
  0
LINE
  5
246
330
1F
100
AcDbEntity
  8
0
  6
Continuous
 62
     7
370
     0
100
AcDbLine
 10
236.5462104902
 20
32.8911238286
 30
0.0
 11
242.1212135573
 21
29.6727430631
 31
0.0
  0
LINE
  5
247
330
1F
100
AcDbEntity
  8
0
  6
Continuous
 62
     7
370
     0
100
AcDbLine
 10
236.4855503184
 20
32.856094073
 30
0.0
 11
236.5462104902
 21
32.8911238286
 31
0.0
  0
LINE
  5
248
330
1F
100
AcDbEntity
  8
0
  6
Continuous
 62
     7
370
     0
100
AcDbLine
 10
236.2645794493
 20
37.6365163933
 30
0.0
 11
236.2656204765
 21
37.8222681253
 31
0.0
  0
LWPOLYLINE
  5
249
330
1F
100
AcDbEntity
  8
0
  6
Continuous
 62
     7
370
     0
100
AcDbPolyline
 90
        3
 70
   128
 43
0.0
 10
236.3993596614
 20
35.6133124145
 10
236.3279322855
 20
36.2305458936
 10
236.2645794493
 20
37.6365163933
  0
LWPOLYLINE
  5
24A
330
1F
100
AcDbEntity
  8
0
  6
Continuous
 62
     7
370
     0
100
AcDbPolyline
 90
       18
 70
   128
 43
0.0
 10
205.3313597656
 20
61.4521349846
 10
205.395488502
 20
62.5953873955
 10
205.5867303325
 20
63.7922799031
 10
205.9016725419
 20
65.0214539323
 10
206.3346949792
 20
66.2609748433
 10
206.8780703486
 20
67.4887233562
 10
207.5221021039
 20
68.6827902696
 10
208.2552974831
 20
69.8218674312
 10
209.0645725973
 20
70.8856279821
 10
209.935485913
 20
71.85508909
 10
210.8524959612
 20
72.7129506985
 10
211.7992386761
 20
73.4439042468
 10
212.7588194115
 20
74.0349058517
 10
213.7141144263
 20
74.4754090753
 10
214.6480764585
 20
74.7575531273
 10
215.5440389334
 20
74.8763031405
 10
216.3860133794
 20
74.8295400179
 10
217.0491745427
 20
74.6597699824
  0
ARC
  5
24B
330
1F
100
AcDbEntity
  8
0
  6
Continuous
 62
     7
370
     0
100
AcDbCircle
 10
210.7176797472
 20
61.0062279419
 30
0.0
 40
5.404745695696089
100
AcDbArc
 50
175.2675545006
 51
224.8656241104
  0
LWPOLYLINE
  5
24C
330
1F
100
AcDbEntity
  8
0
  6
Continuous
 62
     7
370
     0
100
AcDbPolyline
 90
        3
 70
   128
 43
0.0
 10
241.4912497721
 20
25.8623583221
 10
241.3055683702
 20
26.2405592093
 10
240.8183241528
 20
27.4823519696
  0
LWPOLYLINE
  5
24D
330
1F
100
AcDbEntity
  8
0
  6
Continuous
 62
     7
370
     0
100
AcDbPolyline
 90
        3
 70
   128
 43
0.0
 10
241.4055628184
 20
25.3447181747
 10
240.895163289
 20
26.3196182922
 10
240.4255177772
 20
27.5368050567
  0
LINE
  5
24E
330
1F
100
AcDbEntity
  8
0
  6
Continuous
 62
     7
370
     0
100
AcDbLine
 10
241.8418841859
 20
28.2010475532
 30
0.0
 11
236.1319969278
 21
31.4972953046
 31
0.0
  0
ARC
  5
24F
330
1F
100
AcDbEntity
  8
0
  6
Continuous
 62
     7
370
     0
100
AcDbCircle
 10
243.9803259434
 20
32.1633682085
 30
0.0
 40
12.09715026325632
100
AcDbArc
 50
195.2980304775
 51
214.568481162
  0
LWPOLYLINE
  5
250
330
1F
100
AcDbEntity
  8
0
  6
Continuous
 62
     7
370
     0
100
AcDbPolyline
 90
        7
 70
   128
 43
0.0
 10
272.5277086077
 20
36.0468386655
 10
272.5971661726
 20
35.9171531181
 10
272.8683804037
 20
35.2807123483
 10
273.0277286349
 20
34.6460397769
 10
273.0651984309
 20
34.0530142157
 10
272.9784354264
 20
33.5388976417
 10
272.7749519171
 20
33.1386703199
  0
LWPOLYLINE
  5
251
330
1F
100
AcDbEntity
  8
0
  6
Continuous
 62
     7
370
     0
100
AcDbPolyline
 90
       12
 70
   128
 43
0.0
 10
272.3112566904
 20
35.8362321775
 10
272.4329187491
 20
35.58889292
 10
272.6603537471
 20
34.9529898954
 10
272.7614592278
 20
34.3378698859
 10
272.72873666
 20
33.7891535286
 10
272.564612927
 20
33.3475366056
 10
272.2812603351
 20
33.0457718237
 10
271.89969385
 20
32.9062396964
 10
271.4482125123
 20
32.9392886832
 10
270.9603006273
 20
33.1424676919
 10
270.4721443875
 20
33.500707865
 10
270.396694665
 20
33.5705626066
  0
OLE2FRAME
  5
252
330
1F
100
AcDbEntity
  8
0
100
AcDbOle2Frame
 70
     2
  3
Paintbrush-Bild
 10
13.8511154363
 20
38.264191557
 30
0.0
 11
51.6290888628
 21
31.9806341108
 31
0.0
 71
     2
 72
     0
 73
     1
 90
    12928
310
80552BED0767C5B32B40DDAF6807D121434000000000000000006FFBDDFB85D0
310
4940DDAF6807D121434000000000000000006FFBDDFB85D04940416F4BD60AFB
310
3F4000000000000000002BED0767C5B32B40416F4BD60AFB3F40000000000000
310
0000000000000100000000010000010000000100000000000100000000320000
310
D0CF11E0A1B11AE1000000000000000000000000000000003E000300FEFF0900
310
0600000000000000000000000100000001000000000000000010000002000000
310
01000000FEFFFFFF0000000000000000FFFFFFFFFFFFFFFFFFFFFFFFFFFFFFFF
310
FFFFFFFFFFFFFFFFFFFFFFFFFFFFFFFFFFFFFFFFFFFFFFFFFFFFFFFFFFFFFFFF
310
FFFFFFFFFFFFFFFFFFFFFFFFFFFFFFFFFFFFFFFFFFFFFFFFFFFFFFFFFFFFFFFF
310
FFFFFFFFFFFFFFFFFFFFFFFFFFFFFFFFFFFFFFFFFFFFFFFFFFFFFFFFFFFFFFFF
310
FFFFFFFFFFFFFFFFFFFFFFFFFFFFFFFFFFFFFFFFFFFFFFFFFFFFFFFFFFFFFFFF
310
FFFFFFFFFFFFFFFFFFFFFFFFFFFFFFFFFFFFFFFFFFFFFFFFFFFFFFFFFFFFFFFF
310
FFFFFFFFFFFFFFFFFFFFFFFFFFFFFFFFFFFFFFFFFFFFFFFFFFFFFFFFFFFFFFFF
310
FFFFFFFFFFFFFFFFFFFFFFFFFFFFFFFFFFFFFFFFFFFFFFFFFFFFFFFFFFFFFFFF
310
FFFFFFFFFFFFFFFFFFFFFFFFFFFFFFFFFFFFFFFFFFFFFFFFFFFFFFFFFFFFFFFF
310
FFFFFFFFFFFFFFFFFFFFFFFFFFFFFFFFFFFFFFFFFFFFFFFFFFFFFFFFFFFFFFFF
310
FFFFFFFFFFFFFFFFFFFFFFFFFFFFFFFFFFFFFFFFFFFFFFFFFFFFFFFFFFFFFFFF
310
FFFFFFFFFFFFFFFFFFFFFFFFFFFFFFFFFFFFFFFFFFFFFFFFFFFFFFFFFFFFFFFF
310
FFFFFFFFFFFFFFFFFFFFFFFFFFFFFFFFFFFFFFFFFFFFFFFFFFFFFFFFFFFFFFFF
310
FFFFFFFFFFFFFFFFFFFFFFFFFFFFFFFFFFFFFFFFFFFFFFFFFFFFFFFFFFFFFFFF
310
FDFFFFFFFEFFFFFFFEFFFFFFFEFFFFFF05000000060000000700000008000000
310
090000000A0000000B0000000C0000000D0000000E0000000F00000010000000
310
11000000120000001300000014000000150000001600000017000000FEFFFFFF
310
FFFFFFFFFFFFFFFFFFFFFFFFFFFFFFFFFFFFFFFFFFFFFFFFFFFFFFFFFFFFFFFF
310
FFFFFFFFFFFFFFFFFFFFFFFFFFFFFFFFFFFFFFFFFFFFFFFFFFFFFFFFFFFFFFFF
310
FFFFFFFFFFFFFFFFFFFFFFFFFFFFFFFFFFFFFFFFFFFFFFFFFFFFFFFFFFFFFFFF
310
FFFFFFFFFFFFFFFFFFFFFFFFFFFFFFFFFFFFFFFFFFFFFFFFFFFFFFFFFFFFFFFF
310
FFFFFFFFFFFFFFFFFFFFFFFFFFFFFFFFFFFFFFFFFFFFFFFFFFFFFFFFFFFFFFFF
310
FFFFFFFFFFFFFFFFFFFFFFFFFFFFFFFFFFFFFFFFFFFFFFFFFFFFFFFFFFFFFFFF
310
FFFFFFFFFFFFFFFFFFFFFFFFFFFFFFFFFFFFFFFFFFFFFFFFFFFFFFFFFFFFFFFF
310
FFFFFFFFFFFFFFFFFFFFFFFFFFFFFFFFFFFFFFFFFFFFFFFFFFFFFFFFFFFFFFFF
310
FFFFFFFFFFFFFFFFFFFFFFFFFFFFFFFFFFFFFFFFFFFFFFFFFFFFFFFFFFFFFFFF
310
FFFFFFFFFFFFFFFFFFFFFFFFFFFFFFFFFFFFFFFFFFFFFFFFFFFFFFFFFFFFFFFF
310
FFFFFFFFFFFFFFFFFFFFFFFFFFFFFFFFFFFFFFFFFFFFFFFFFFFFFFFFFFFFFFFF
310
FFFFFFFFFFFFFFFFFFFFFFFFFFFFFFFFFFFFFFFFFFFFFFFFFFFFFFFFFFFFFFFF
310
FFFFFFFFFFFFFFFFFFFFFFFFFFFFFFFFFFFFFFFFFFFFFFFFFFFFFFFFFFFFFFFF
310
52006F006F007400200045006E00740072007900000000000000000000000000
310
0000000000000000000000000000000000000000000000000000000000000000
310
16000500FFFFFFFFFFFFFFFF020000000A00030000000000C000000000000046
310
000000000000000000000000D0B197E5E825D20103000000C000000000000000
310
01004F006C006500000000000000000000000000000000000000000000000000
310
0000000000000000000000000000000000000000000000000000000000000000
310
0A000200FFFFFFFFFFFFFFFFFFFFFFFF00000000000000000000000000000000
310
0000000000000000000000000000000000000000000000001400000000000000
310
010043006F006D0070004F0062006A0000000000000000000000000000000000
310
0000000000000000000000000000000000000000000000000000000000000000
310
120002010100000003000000FFFFFFFF00000000000000000000000000000000
310
0000000000000000000000000000000000000000010000004D00000000000000
310
01004F006C006500310030004E00610074006900760065000000000000000000
310
0000000000000000000000000000000000000000000000000000000000000000
310
1A000200FFFFFFFFFFFFFFFFFFFFFFFF00000000000000000000000000000000
310
0000000000000000000000000000000000000000040000002426000000000000
310
FEFFFFFF02000000FEFFFFFFFFFFFFFFFFFFFFFFFFFFFFFFFFFFFFFFFFFFFFFF
310
FFFFFFFFFFFFFFFFFFFFFFFFFFFFFFFFFFFFFFFFFFFFFFFFFFFFFFFFFFFFFFFF
310
FFFFFFFFFFFFFFFFFFFFFFFFFFFFFFFFFFFFFFFFFFFFFFFFFFFFFFFFFFFFFFFF
310
FFFFFFFFFFFFFFFFFFFFFFFFFFFFFFFFFFFFFFFFFFFFFFFFFFFFFFFFFFFFFFFF
310
FFFFFFFFFFFFFFFFFFFFFFFFFFFFFFFFFFFFFFFFFFFFFFFFFFFFFFFFFFFFFFFF
310
FFFFFFFFFFFFFFFFFFFFFFFFFFFFFFFFFFFFFFFFFFFFFFFFFFFFFFFFFFFFFFFF
310
FFFFFFFFFFFFFFFFFFFFFFFFFFFFFFFFFFFFFFFFFFFFFFFFFFFFFFFFFFFFFFFF
310
FFFFFFFFFFFFFFFFFFFFFFFFFFFFFFFFFFFFFFFFFFFFFFFFFFFFFFFFFFFFFFFF
310
FFFFFFFFFFFFFFFFFFFFFFFFFFFFFFFFFFFFFFFFFFFFFFFFFFFFFFFFFFFFFFFF
310
FFFFFFFFFFFFFFFFFFFFFFFFFFFFFFFFFFFFFFFFFFFFFFFFFFFFFFFFFFFFFFFF
310
FFFFFFFFFFFFFFFFFFFFFFFFFFFFFFFFFFFFFFFFFFFFFFFFFFFFFFFFFFFFFFFF
310
FFFFFFFFFFFFFFFFFFFFFFFFFFFFFFFFFFFFFFFFFFFFFFFFFFFFFFFFFFFFFFFF
310
FFFFFFFFFFFFFFFFFFFFFFFFFFFFFFFFFFFFFFFFFFFFFFFFFFFFFFFFFFFFFFFF
310
FFFFFFFFFFFFFFFFFFFFFFFFFFFFFFFFFFFFFFFFFFFFFFFFFFFFFFFFFFFFFFFF
310
FFFFFFFFFFFFFFFFFFFFFFFFFFFFFFFFFFFFFFFFFFFFFFFFFFFFFFFFFFFFFFFF
310
FFFFFFFFFFFFFFFFFFFFFFFFFFFFFFFFFFFFFFFFFFFFFFFFFFFFFFFFFFFFFFFF
310
0100000200000000000000000000000000000000000000000000000000000000
310
0000000000000000000000000000000000000000000000000000000000000000
310
0100FEFF030A0000FFFFFFFF0A00030000000000C00000000000004607000000
310
5042727573680007000000504272757368000700000050427275736800F439B2
310
7100000000000000000000000000000000000000000000000000000000000000
310
0000000000000000000000000000000000000000000000000000000000000000
310
0000000000000000000000000000000000000000000000000000000000000000
310
0000000000000000000000000000000000000000000000000000000000000000
310
0000000000000000000000000000000000000000000000000000000000000000
310
0000000000000000000000000000000000000000000000000000000000000000
310
0000000000000000000000000000000000000000000000000000000000000000
310
0000000000000000000000000000000000000000000000000000000000000000
310
0000000000000000000000000000000000000000000000000000000000000000
310
0000000000000000000000000000000000000000000000000000000000000000
310
0000000000000000000000000000000000000000000000000000000000000000
310
0000000000000000000000000000000000000000000000000000000000000000
310
20260000424D0E260000000000003E00000028000000B40200006E0000000100
310
01000000000000000000130B0000130B00000200000002000000000000FFFFFF
310
FFFFFFFFFFFFFFFFFFFFFFFFFFFFFFFFFFFFFFFFFFFFFFFFFFFFFFFFFFFFFFFF
310
FFFFFFFFFFFFFFFFFFFFFFFFFFFFFFFFFFFFFFFFFFFFFFFFFFFFFFFFFFFFFFFF
310
FFFFFFFFFFFFFFFFFFFFFFFFFFFFFFFFFFFFFFFFFFFFFFFFF000FFFFFFFFFFFF
310
FFFFFFFFFFFFFFFFFFFFFFFFFFFFFFFFFFFFFFFFFFFFFFFFFFFFFFFFFFFFFFFF
310
FFFFFFFFFFFFFFFFFFFFFFFFFFFFFFFFFFFFFFFFFFFFFFFFFFFFFFFFFFFFFFFF
310
FFFFFFFFFFFFFFFFFFFFFFFFFFFFFFFFF000FFFFFFFFFFFFFFFFFFFFFFFFFFFF
310
FFFFFFFFFFFFFFFFFFFFFFFFFFFFFFFFFFFFFFFFFFFFFFFFFFFFFFFFFFFFFFFF
310
FFFFFFFFFFFFFFFFFFFFFFFFFFFFFFFFFFFFFFFFFFFFFFFFFFFFFFFFFFFFFFFF
310
FFFFFFFFFFFFFFFFF000FFFFFFFFFFFFFFFFFFFFFFFFFFFFFFFFFFFFFFFFFFFF
310
FFFFFFFFFFFFFFFFFFFFFFFFFFFFFFFFFFFFFFFFFFFFFFFFFFFFFFFFFFFFFFFF
310
FFFFFFFFFFFFFFFFFFFFFFFFFFFFFFFFFFFFFFFFFFFFFFFFFFFFFFFFFFFFFFFF
310
F000FFFFFFFFFFFFFFFFFFFFFFFFFFFFFFFFFFFFFFFFFFFFFFFFFFFFFFFFFFFF
310
FFFFFFFFFFFFFFFFFFFFFFFFFFFFFFFFFFFFFFFFFFFFFFFFFFFFFFFFFFFFFFFF
310
FFFFFFFFFFFFFFFFFFFFFFFFFFFFFFFFFFFFFFFFFFFFFFFFF000FFFFFFFFFFFF
310
FFFFFFFFFFFFFFFFFFFFFFFFFFFFFFFFFFFFFFFFFFFFFFFFFFFFFFFFFFFFFFFF
310
FFFFFFFFFFFFFFFFFFFFFFFFFFFFFFFFFFFFFFFFFFFFFFFFFFFFFFFFFFFFFFFF
310
FFFFFFFFFFFFFFFFFFFFFFFFFFFFFFFFF000FFFFFFFFFFFFFFFFFFFFFFFFFFFF
310
FFFFFFFFFFFFFFFFFFFFFFFFFFFFFFFFFFFFFFFFFFFFFFFFFFFFFFFFFFFFFFFF
310
FFFFFFFFFFFFFFFFFFFFFFFFFFFFFFFFFFFFFFFFFFFFFFFFFFFFFFFFFFFFFFFF
310
FFFFFFFFFFFFFFFFF000FFFFFFFFFFFFFFFFFFFFFFFFFFFFFFFFFFFFFFFFFFFF
310
FFFFFFFFFFFFFFFFFFFFFFFFFFFFFFFFFFFFFFFFFFFFFFFFFFFFFFFFFFFFFFFF
310
FFFFFFFFFFFFFFFFFFFFFFFFFFFFFFFFFFFFFFFFFFFFFFFFFFFFFFFFFFFFFFFF
310
F000FFFFFFFFFFFFFFFFFFFFFFFFFFFFFFFFFFFFFFFFFFFFFFFFFFFFFFFFFFFF
310
FFFFFFFFFFFFFFFFFFFFFFFFFFFFFFFFFFFFFFFFFFFFFFFFFFFFFFFFFFFFFFFF
310
FFFFFFFFFFFFFFFFFFFFFFFFFFFFFFFFFFFFFFFFFFFFFFFFF000FFFFFFFFFFFF
310
FFFFFFFFFFFFFFFFFFFFFFFFFFFFFFFFFFFFFFFFFFFFFFFFFFFFFFFFFFFFFFFF
310
FFFFFFFFFFFFFFFFFFFFFFFFFFFFFFFFFFFFFFFFFFFFFFFFFFFFFFFFFFFFFFFF
310
FFFFFFFFFFFFFFFFFFFFFFFFFFFFFFFFF000FFFFFFFFFFFFFFFFFFFFFFFFFFFF
310
FFFFFFFFFFFFFFFFFFFFFFFFFFFFFFFFFFFFFFFFFFFFFFFFFFFFFFFFFFFFFFFF
310
FFFFFFFFFFFFFFFFFFFFFFFFFFFFFFFFFFFFFFFFFFFFFFFFFFFFFFFFFFFFFFFF
310
FFFFFFFFFFFFFFFFF000FFFFFFFFFFFFFFFFFFFFFFFFFFFFFFFFFFFFFFFFFFFF
310
FFFFFFFFFFFFFFFFFFFFFFFFFFFFFFFFFFFFFFFFFFFFFFFFFFFFFFFFFFFFFFFF
310
FFFFFFFFFFFFFFFFFFFFFFFFFFFFFFFFFFFFFFFFFFFFFFFFFFFFFFFFFFFFFFFF
310
F000FFFFFFFFFFFFFFFFFFFFFFFFFFFFFFFFFFFFFFFFFFFFFFFFFFFFFFFFFFFF
310
FFFFFFFFFFFFFFFFFFFFFFFFFFFFFFFFFFFFFFFFFFFFFFFFFFFFFFFFFFFFFFFF
310
FFFFFFFFFFFFFFFFFFFFFFFFFFFFFFFFFFFFFFFFFFFFFFFFF000FFFFFFFFFFFF
310
FFFFFFFFFFFFFFFFFFFFFFFFFFFFFFFFFFFFFFFFFFFFFFFFFFFFFFFFFFFFFFFF
310
FFFFFFFFFFFFFFFFFFFFFFFFFFFFFFFFFFFFFFFFFFFFFFFFFFFFFFFFFFFFFFFF
310
FFFFFFFFFFFFFFFFFFFFFFFFFFFFFFFFF000FFFFFFFFFFFFFFFFFFFFFFFFFFFF
310
FFFFFFFFFFFFFFFFFFFFFFFFFFFFFFFFFFFFFFFFFFFFFFFFFFFFFFFFFFFFFFFF
310
FFFFFFFFFFFFFFFFFFFFFFFFFFFFFFFFFFFFFFFFFFFFFFFFFFFFFFFFFFFFFFFF
310
FFFFFFFFFFFFFFFFF000FFFFFFFFFFFFFFFFFFFFFFFFFFFFFFFFFFFFFFFFFFFF
310
FFFFFFFFFFFFFFFFFFFFFFFFFFFFFFFFFFFFFFFFFFFFFFFFFFFFFFFFFFFFFFFF
310
FFFFFFFFFFFFFFFFFFFFFFFFFFFFFFFFFFFFFFFFFFFFFFFFFFFFFFFFFFFFFFFF
310
F000FFFFFFFFFFFFFFFFFFFFFFFFFFFFFFFFFFFFFFFFFFFFFFFFFFFFFFFFFFFF
310
FFFFFFFFFFFFFFFFFFFFFFFFFFFFFFFFFFFFFFFFFFFFFFFFFFFFFFFFFFFFFFFF
310
FFFFFFFFFFFFFFFFFFFFFFFFFFFFFFFFFFFFFFFFFFFFFFFFF000FFFFFFFFFFFF
310
FFFFFFFFFFFFFFFFFFFFFFFFFFFFFFFFFFFFFFFFFFFFFFFFFFFFFFFFFFFFFFFF
310
FFFFFFFFFFFFFFFFFFFFFFFFFFFFFFFFFFFFFFFFFFFFFFFFFFFFFFFFFFFFFFFF
310
FFFFFFFFFFFFFFFFFFFFFFFFFFFFFFFFF000FFFFFFFFFFFFFFFFFFFFFFFFFFFF
310
FFFFFFFFFFFFFFFFFFFFFFFFFFFFFFFFFFFFFFFFFFFFFFFFFFFFFFFFFFFFFFFF
310
FFFFFFFFFFFFFFFFFFFFFFFFFFFFFFFFFFFFFFFFFFFFFFFFFFFFFFFFFFFFFFFF
310
FFFFFFFFFFFFFFFFF000FFFFF80003FFFFFFFFFFFFFFFFFFFFFFFFFFFFFFFFFF
310
FFFFF00007FFFFFFFFFF00007FFFFFF800000000000000007FFFFFFFFFFFFFFF
310
FFFFFFFC001FFFFFFFFFFFFFFC001FFFFFFFFFFFFFFFFFFFFFFFFFFE0007FFFF
310
F000FFFF8000007FFFFFFFF8000FFFFFC0007FFFFF80007FFFFF0000007FFFFF
310
FFF8000007FFFFF800000000000000007FFFFFF0001FFFFFFFFFFFC00001FFFF
310
FFFFFFFFC00001FFFFFFFF000000000003FFFFE000007FFFF000FFFE0000000F
310
FFFFFFF0000FFFFF80007FFFFF80007FFFFC0000001FFFFFFFC0000001FFFFF8
310
00000000000000007FFFFFF0001FFFFFFFFFFE0000003FFFFFFFFFFE0000003F
310
FFFFFF000000000003FFFF0000000FFFF000FFF800000003FFFFFFF00007FFFF
310
80007FFFFF80007FFFF000000007FFFFFF000000003FFFF80000000000000000
310
7FFFFFF0001FFFFFFFFFF80000000FFFFFFFFFF80000000FFFFFFF0000000000
310
03FFFC00000003FFF000FFE000000000FFFFFFF00007FFFF80003FFFFF80007F
310
FFC000000001FFFFFC000000001FFFF800000000000000007FFFFFF0001FFFFF
310
FFFFE000000003FFFFFFFFE000000003FFFFFF000000000003FFF000000000FF
310
F000FF80000000007FFFFFF00007FFFF80003FFFFF80007FFF8000000000FFFF
310
F80000000007FFF800000000000000007FFFFFF0001FFFFFFFFFC000000001FF
310
FFFFFFC000000001FFFFFF000000000003FFC0000000007FF000FF0000000000
310
3FFFFFE00007FFFF00003FFFFF80007FFE00000000003FFFF00000000003FFF8
310
00000000000000007FFFFFF0001FFFFFFFFF8000000000FFFFFFFF8000000000
310
FFFFFF000000000003FF80000000003FF000FE00000000001FFFFFE00003FFFF
310
00003FFFFF80007FFC00000000001FFFE00000000001FFF8000001FFFE000000
310
7FFFFFF0001FFFFFFFFE00000000003FFFFFFE00000000003FFFFF0000000000
310
03FF00000000001FF000FC00000000000FFFFFE00003FFFF00001FFFFF80007F
310
F800000000001FFFC00000000000FFF8000001FFFE0000007FFFFFF0001FFFFF
310
FFFC00000000001FFFFFFC00000000001FFFFF000000000003FE00000000000F
310
F000F8000000000007FFFFE00003FFFF00001FFFFF80007FF800000000000FFF
310
800000000000FFF8000001FFFE0000007FFFFFF0001FFFFFFFF800000000000F
310
FFFFF800000000000FFFFF000000000003FC000000000007F000F80000000000
310
03FFFFC00003FFFE00001FFFFF80007FF0000000000007FF0000000000007FF8
310
000001FFFE0000007FFFFFF0001FFFFFFFF0000000000007FFFFF00000000000
310
07FFFF000000000003F8000000000003F000F0000000000003FFFFC00001FFFE
310
00001FFFFF80007FE0000000000007FE0000000000003FF8000001FFFE000000
310
7FFFFFF0001FFFFFFFF0000000000007FFFFF0000000000007FFFF0000000000
310
03F800001F800003F000E00001FFF00001FFFFC00001FFFE00000FFFFF80007F
310
E00001FFE00003FE00001FFF00003FF8000001FFFE0000007FFFFFF0001FFFFF
310
FFE000003E000003FFFFE000003E000003FFFF000000000003F00001FFF80001
310
F000E00007FFFC0001FFFFC00001FFFE00000FFFFF80007FC0000FFFFC0003FC
310
0000FFFFC0001FF8000001FFFE0000007FFFFFF0001FFFFFFFC00003FFE00001
310
FFFFC00003FFE00001FFFF0001FFFFFFFFF00007FFFE0001F000E0000FFFFF00
310
00FFFF800001FFFC00000FFFFF80007FC0001FFFFE0001FC0001FFFFE0001FF8
310
000001FFFE0000007FFFFFF0001FFFFFFF80000FFFF80000FFFF80000FFFF800
310
00FFFF0003FFFFFFFFE0000FFFFF8000F000C0003FFFFF8000FFFF800000FFFC
310
000007FFFF80007F80003FFFFF0001FC0003FFFFF0001FF8000001FFFE000000
310
7FFFFFF0001FFFFFFF80003FFFFE0000FFFF80003FFFFE0000FFFF0003FFFFFF
310
FFE0003FFFFF8000F000C0003FFFFF8000FFFF800000FFFC000007FFFF80007F
310
80007FFFFF8001F80007FFFFF8000FF8000001FFFE0000007FFFFFF0001FFFFF
310
FF00007FFFFF00007FFF00007FFFFF00007FFF0003FFFFFFFFE0003FFFFFC000
310
F000C0007FFFFFC000FFFF000000FFFC000007FFFF80007F8000FFFFFF8000F8
310
000FFFFFF8000FF8000001FFFE0000007FFFFFF0001FFFFFFF0000FFFFFF8000
310
7FFF0000FFFFFF80007FFF0003FFFFFFFFC0007FFFFFC00070008000FFFFFFC0
310
00FFFF000000FFF8000007FFFF80007F8000FFFFFF8000F8000FFFFFF8000FF8
310
000001FFFE0000007FFFFFF0001FFFFFFE0001FFFFFFC0003FFE0001FFFFFFC0
310
003FFF0003FFFFFFFFC0007FFFFFE00070008000FFFFFFC0007FFF0000007FF8
310
000003FFFF80007F0001FFFFFF8000F8000FFFFFF8000FF8000001FFFE000000
310
7FFFFFF0001FFFFFFE0001FFFFFFC0003FFE0001FFFFFFC0003FFF0003FFFFFF
310
FFC000FFFFFFE00070008000FFFFFFC0007FFF0000007FF8000003FFFF80007F
310
0001FFFFFF8000F8001FFFFFF8000FF8000001FFFE0000007FFFFFF0001FFFFF
310
FE0003FFFFFFE0003FFE0003FFFFFFE0003FFF0003FFFFFFFFC000FFFFFFE000
310
70008000FFFFFFC0007FFE0000007FF8000003FFFF80007F0001FFFFFF8000F0
310
001FFFFFF8000FF8000001FFFE0000007FFFFFF0001FFFFFFC0003FFFFFFE000
310
1FFC0003FFFFFFE0001FFF0003FFFFFFFFC000FFFFFFC00070008000FFFFFF80
310
007FFE0000007FF0000003FFFF80007F0001FFFFFF0000F0001FFFFFF8000FF8
310
000001FFFE0000007FFFFFF0001FFFFFFC0007FFFFFFF0001FFC0007FFFFFFF0
310
001FFF0003FFFFFFFFC000FFFFFFC00070008001FFFFFF0000FFFE0000003FF0
310
000001FFFF80007F0001FFFFFF0000F8001FFFFFF0000FF8000001FFFE000000
310
7FFFFFF0001FFFFFFC0007FFFFFFF0001FFC0007FFFFFFF0001FFF0003FFFFFF
310
FFC001FFFFFF80007000FFFFFFFFFE0000FFFE0008003FF0008001FFFF80007F
310
FFFFFFFFFC0000FFFFFFFFFFE0000FF8000001FFFE0000007FFFFFF0001FFFFF
310
F8000FFFFFFFF8000FF8000FFFFFFFF8000FFF0003FFFFFFFFFFFFFFFFFF0000
310
7000FFFFFFFFFC0000FFFC0008003FF0008001FFFF80007FFFFFFFFFF80001FF
310
FFFFFFFF80000FF8000001FFFE0000007FFFFFF0001FFFFFF8000FFFFFFFF800
310
0FF8000FFFFFFFF8000FFF0003FFFFFFFFFFFFFFFFFE0000F000FFFFFFFFE000
310
00FFFC000C003FE000C001FFFF80007FFFFFFFFFC00001FFFFFFFFFE00001FF8
310
000001FFFE0000007FFFFFF0001FFFFFF8000FFFFFFFF8000FF8000FFFFFFFF8
310
000FFF0003FFFFFFFFFFFFFFFFF00000F000FFFFFFFE000001FFFC000C001FE0
310
00C000FFFF80007FFFFFFFFE000001FFFFFFFFE000001FF80FFFFFFFFFFFFFC0
310
7FFFFFF0001FFFFFF8000FFFFFFFF8000FF8000FFFFFFFF8000FFF0003FFFFFF
310
FFFFFFFFFF800000F000FFFFFFC0000001FFFC001C001FE001C000FFFF80007F
310
FFFFFF80000003FFFFFFF80000001FF80FFFFFFFFFFFFFC07FFFFFF0001FFFFF
310
F8001FFFFFFFFC000FF8001FFFFFFFFC000FFF0003FFFFFFFFFFFFFFF0000001
310
F000FFFFF800000001FFF8001C001FE001C000FFFF80007FFFFFF800000003FF
310
FFFF800000003FF80FFFFFFFFFFFFFC07FFFFFF0001FFFFFF8001FFFFFFFFC00
310
0FF8001FFFFFFFFC000FFF0003FFFFFFFFFFFFFE00000001F000FFFFC0000000
310
03FFF8001E001FC001E000FFFF80007FFFFF8000000007FFFFFC000000003FF8
310
0FFFFFFFFFFFFFC07FFFFFF0001FFFFFF8001FFFFFFFFC000FF8001FFFFFFFFC
310
000FFF0003FFFFFFFFFFFFE000000003F000FFFE0000000007FFF8001E000FC0
310
01E0007FFF80007FFFFE0000000007FFFFE0000000007FF80FFFFFFFFFFFFFC0
310
7FFFFFF0001FFFFFF0001FFFFFFFFC0007F0001FFFFFFFFC0007FF0003FFFFFF
310
FFFFFF0000000003F000FFF80000000007FFF8001E000FC003E0007FFF80007F
310
FFF0000000000FFFFF8000000000FFF80FFFFFFFFFFFFFC07FFFFFF0001FFFFF
310
F0001FFFFFFFFC0007F0001FFFFFFFFC0007FF0003FFFFFFFFFFFC0000000007
310
F000FFE0000000000FFFF0003E000FC003E0007FFF80007FFFC0000000001FFF
310
FE0000000001FFF80FFFFFFFFFFFFFC07FFFFFF0001FFFFFF0001FFFFFFFFC00
310
07F0001FFFFFFFFC0007FF0003FFFFFFFFFFF0000000000FF000FFC000000000
310
1FFFF0003F000F8003F0003FFF80007FFF80000000003FFFF80000000003FFF8
310
0FFFFFFFFFFFFFC07FFFFFF0001FFFFFF0001FFFFFFFFC0007F0001FFFFFFFFC
310
0007FF0003FFFFFFFFFFE0000000001FF000FF00000000007FFFF0003F000780
310
03F0003FFF80007FFF00000000007FFFF00000000007FFF80FFFFFFFFFFFFFC0
310
7FFFFFF0001FFFFFF0001FFFFFFFFC0007F0001FFFFFFFFC0007FF0003FFFFFF
310
FFFF80000000007FF000FE0000000000FFFFE0003F00078007F0003FFF80007F
310
FE0000000001FFFFE0000000001FFFF80FFFFFFFFFFFFFC07FFFFFF0001FFFFF
310
F0001FFFFFFFFC0007F0001FFFFFFFFC0007FF0003FFFFFFFFFF0000000000FF
310
F000FC0000000003FFFFE0007F00078007F0003FFF80007FFC0000000007FFFF
310
C0000000007FFFF80FFFFFFFFFFFFFC07FFFFFF0001FFFFFF8001FFFFFFFFC00
310
0FF8001FFFFFFFFC000FFF0003FFFFFFFFFE0000000003FFF000FC000000000F
310
FFFFE0007F80070007F8001FFF80007FF8000000001FFFFF8000000001FFFFF8
310
0FFFFFFFFFFFFFC07FFFFFF0001FFFFFF8001FFFFFFFFC000FF8001FFFFFFFFC
310
000FFF0003FFFFFFFFFC000000000FFFF000F8000000007FFFFFE0007F800700
310
07F8001FFF80007FF000000000FFFFFF800000000FFFFFF80FFFFFFFFFFFFFC0
310
7FFFFFF0001FFFFFF8000FFFFFFFF8000FF8000FFFFFFFF8000FFF0003FFFFFF
310
FFFC000000007FFFF000F800000007FFFFFFC0007F8003000FF8001FFF80007F
310
F000000007FFFFFF000000007FFFFFF80FFFFFFFFFFFFFC07FFFFFF0001FFFFF
310
F8000FFFFFFFF8000FF8000FFFFFFFF8000FFF0003FFFFFFFFF80000000FFFFF
310
F000F0000000FFFFFFFFC000FF8003000FF8001FFF80007FE0000000FFFFFFFF
310
0000000FFFFFFFF8000001FFFE0000007FFFFFF0001FFFFFF8000FFFFFFFF800
310
0FF8000FFFFFFFF8000FFF0003FFFFFFFFF8000000FFFFFFF000F000000FFFFF
310
FFFFC000FFC002000FF8000FFF80007FE000001FFFFFFFFE000001FFFFFFFFF8
310
000001FFFE0000007FFFFFF0001FFFFFF8000FFFFFFFF8000FF8000FFFFFFFF8
310
000FFF0003FFFFFFFFF000001FFFFFFFF000E00000FFFFFFFFFFC000FFC00200
310
0FFC000FFF80007FE00001FFFFFFFFFE00001FFFFFFFFFF8000001FFFE000000
310
7FFFFFF0001FFFFFFC000FFFFFFFF8001FFC000FFFFFFFF8001FFF0003FFFFFF
310
FFF00001FFFFFFFFF000E00007FFFFFFFFFF8000FFC000001FFC000FFF80007F
310
C0000FFFFFFFFFFE0000FFFFFFFFFFF8000001FFFE0000007FFFFFF0001FFFFF
310
FC0007FFFFFFF0001FFC0007FFFFFFF0001FFF0003FFFFFFFFF00007FFFFFFFF
310
F000E0001FFFFFFFFFFF8000FFC000001FFC000FFF80007FC0003FFFFFFFFFFE
310
0001FFFFFFFFFFF8000001FFFE0000007FFFFFF0001FFFFFFC0007FFFFFFF000
310
1FFC0007FFFFFFF0001FFF0003FFFFFFFFF0001FFFFFFFFFF000E0003FFFFF00
310
03FF8001FFE000001FFC0007FF80007FC0007FFFFF0007FC0003FFFFF0003FF8
310
000001FFFE0000007FFFFFF0001FFFFFFC0003FFFFFFE0001FFC0003FFFFFFE0
310
001FFF0003FFFFFFFFF0003FFFFFFFFFF000E0003FFFFF0001FF8001FFE00000
310
1FFE0007FF80007FC0007FFFFE0003FC0007FFFFE0003FF8000001FFFE000000
310
7FFFFFF0001FFFFFFE0003FFFFFFE0003FFE0003FFFFFFE0003FFF0003FFFFFF
310
FFF0003FFFFF8001F000E0003FFFFF0001FF0001FFE000001FFE0007FF80007F
310
C0007FFFFE0003FC0007FFFFE0003FF8000001FFFE0000007FFFFFF0001FFFFF
310
FE0001FFFFFFC0003FFE0001FFFFFFC0003FFF0003FFFFFFFFF0003FFFFF0001
310
F000E0003FFFFF0003FF0001FFE000003FFE0007FF80007FC0007FFFFE0003FC
310
0007FFFFE0003FF8000001FFFE0000007FFFFFF0001FFFFFFF0001FFFFFFC000
310
7FFF0001FFFFFFC0007FFF0003FFFFFFFFF0003FFFFF0001F000E0003FFFFE00
310
03FF0003FFF000003FFE0003FF80007FC0007FFFFC0003FE0007FFFFE0003FF8
310
000001FFFE0000007FFFFFF0001FFFFFFF0000FFFFFF80007FFF0000FFFFFF80
310
007FFF0003FFFFFFFFF0003FFFFF0001F000E0003FFFFE0003FF0003FFF00000
310
3FFF0003FF80007FC0007FFFFC0007FE0007FFFFC0003FF8000001FFFE000000
310
7FFFFFF0001FFFFFFF80007FFFFF0000FFFF80007FFFFF0000FFFF0003FFFFFF
310
FFF0003FFFFF0003F000E0003FFFFC0003FE0003FFF000003FFF0003FF80007F
310
E0003FFFF80007FE0003FFFFC0007FF8000001FFFE0000007FFFFFF0001FFFFF
310
FF80003FFFFE0000FFFF80003FFFFE0000FFFF0003FFFFFFFFF0001FFFFE0003
310
F000F0001FFFF80003FE0003FFF000007FFF0001FF80007FE0003FFFF00007FE
310
0001FFFF80007FF8000001FFFE0000007FFFFFF0001FFFFFFFC0000FFFF80001
310
FFFFC0000FFFF80001FFFF0003FFFFFFFFF0001FFFFC0003F000F0000FFFF000
310
07FE0007FFF800007FFF0001FF80007FE0001FFFE00007FF0000FFFE00007FF8
310
000001FFFE0000007FFFFFF0001FFFFFFFC00003FFE00001FFFFC00003FFE000
310
01FFFF0003FFFFFFFFF8000FFFF80003F000F00003FFC00007FC0007FFF80000
310
7FFF8001FF80007FF00007FF80000FFF00007FF80000FFF8000001FFFE000000
310
7F80000000000001FFE000003E000003FFFFE000003E000003FFFF0003FFFFFF
310
FFF80003FFE00007F000F800000000000FFC0007FFF800007FFF8001FF80007F
310
F000000000000FFF000000000000FFF8000001FFFE0000007F80000000000001
310
FFF0000000000007FFFFF0000000000007FFFF0003FFFFFFFFFC00007E000007
310
F000F800000000000FFC0007FFF80000FFFF8000FF80007FF800000000001FFF
310
800000000001FFF8000001FFFE0000007F80000000000001FFF800000000000F
310
FFFFF800000000000FFFFF0003FFFFFFFFFC00000000000FF000FC0000000000
310
1FFC0007FFFC0000FFFF8000FF80007FF800000000003FFFC00000000001FFF8
310
000001FFFE0000007F80000000000001FFF800000000000FFFFFF80000000000
310
0FFFFF0003FFFFFFFFFE00000000001FF000FE00000000003FF8000FFFFC0000
310
FFFF8000FF80007FFC00000000003FFFC00000000003FFF8000001FFFE000000
310
7F80000000000001FFFC00000000001FFFFFFC00000000001FFFFF0003FFFFFF
310
FFFF00000000001FF000FF00000000003FF8000FFFFC0000FFFFC000FF80007F
310
FE00000000007FFFE00000000007FFF8000001FFFE0000007F80000000000001
310
FFFE00000000003FFFFFFE00000000003FFFFF0003FFFFFFFFFF80000000003F
310
F000FF80000000007FF8000FFFFC0001FFFFC0007F80007FFF0000000000FFFF
310
F0000000000FFFF800000000000000007F80000000000001FFFF8000000000FF
310
FFFFFF8000000000FFFFFF0003FFFFFFFFFFC0000000007FF000FFC000000000
310
FFF8000FFFFE0001FFFFC0007F80007FFF8000000001FFFFF8000000001FFFF8
310
00000000000000007F80000000000001FFFFC000000001FFFFFFFFC000000001
310
FFFFFF0003FFFFFFFFFFE000000000FFF000FFE000000003FFF0001FFFFE0001
310
FFFFC0007F80007FFFC000000007FFFFFE000000003FFFF80000000000000000
310
7F80000000000001FFFFE000000003FFFFFFFFE000000003FFFFFF0003FFFFFF
310
FFFFF000000003FFF000FFF80000000FFFF0001FFFFE0001FFFFE0007F80007F
310
FFF00000000FFFFFFF00000000FFFFF800000000000000007F80000000000001
310
FFFFF80000000FFFFFFFFFF80000000FFFFFFF0003FFFFFFFFFFFC0000000FFF
310
F000FFFE0000003FFFF0001FFFFE0003FFFFE0003F80007FFFFC0000003FFFFF
310
FFC0000003FFFFF800000000000000007F80000000000001FFFFFE0000003FFF
310
FFFFFFFE0000003FFFFFFF0003FFFFFFFFFFFF0000003FFFF000FFFF800000FF
310
FFF0001FFFFF0003FFFFE0003F80007FFFFF000001FFFFFFFFF800001FFFFFF8
310
00000000000000007F80000000000001FFFFFFC00001FFFFFFFFFFFFC00001FF
310
FFFFFF0003FFFFFFFFFFFFC00000FFFFF000FFFFF8000FFFFFFFFFFFFFFFFFFF
310
FFFFFFFFFFFFFFFFFFFFF0001FFFFFFFFFFF0000FFFFFFF80000000000000000
310
7FFFFFFFFFFFFFFFFFFFFFFC001FFFFFFFFFFFFFFC001FFFFFFFFFFFFFFFFFFF
310
FFFFFFFC001FFFFFF000FFFFFFFFFFFFFFFFFFFFFFFFFFFFFFFFFFFFFFFFFFFF
310
FFFFFFFFFFFFFFFFFFFFFFFFFFFFFFFFFFFFFFFFFFFFFFFFFFFFFFFFFFFFFFFF
310
FFFFFFFFFFFFFFFFFFFFFFFFFFFFFFFFFFFFFFFFFFFFFFFFFFFFFFFFFFFFFFFF
310
F000FFFFFFFFFFFFFFFFFFFFFFFFFFFFFFFFFFFFFFFFFFFFFFFFFFFFFFFFFFFF
310
FFFFFFFFFFFFFFFFFFFFFFFFFFFFFFFFFFFFFFFFFFFFFFFFFFFFFFFFFFFFFFFF
310
FFFFFFFFFFFFFFFFFFFFFFFFFFFFFFFFFFFFFFFFFFFFFFFFF000FFFFFFFFFFFF
310
FFFFFFFFFFFFFFFFFFFFFFFFFFFFFFFFFFFFFFFFFFFFFFFFFFFFFFFFFFFFFFFF
310
FFFFFFFFFFFFFFFFFFFFFFFFFFFFFFFFFFFFFFFFFFFFFFFFFFFFFFFFFFFFFFFF
310
FFFFFFFFFFFFFFFFFFFFFFFFFFFFFFFFF000FFFFFFFFFFFFFFFFFFFFFFFFFFFF
310
FFFFFFFFFFFFFFFFFFFFFFFFFFFFFFFFFFFFFFFFFFFFFFFFFFFFFFFFFFFFFFFF
310
FFFFFFFFFFFFFFFFFFFFFFFFFFFFFFFFFFFFFFFFFFFFFFFFFFFFFFFFFFFFFFFF
310
FFFFFFFFFFFFFFFFF000FFFFFFFFFFFFFFFFFFFFFFFFFFFFFFFFFFFFFFFFFFFF
310
FFFFFFFFFFFFFFFFFFFFFFFFFFFFFFFFFFFFFFFFFFFFFFFFFFFFFFFFFFFFFFFF
310
FFFFFFFFFFFFFFFFFFFFFFFFFFFFFFFFFFFFFFFFFFFFFFFFFFFFFFFFFFFFFFFF
310
F000FFFFFFFFFFFFFFFFFFFFFFFFFFFFFFFFFFFFFFFFFFFFFFFFFFFFFFFFFFFF
310
FFFFFFFFFFFFFFFFFFFFFFFFFFFFFFFFFFFFFFFFFFFFFFFFFFFFFFFFFFFFFFFF
310
FFFFFFFFFFFFFFFFFFFFFFFFFFFFFFFFFFFFFFFFFFFFFFFFF000FFFFFFFFFFFF
310
FFFFFFFFFFFFFFFFFFFFFFFFFFFFFFFFFFFFFFFFFFFFFFFFFFFFFFFFFFFFFFFF
310
FFFFFFFFFFFFFFFFFFFFFFFFFFFFFFFFFFFFFFFFFFFFFFFFFFFFFFFFFFFFFFFF
310
FFFFFFFFFFFFFFFFFFFFFFFFFFFFFFFFF000FFFFFFFFFFFFFFFFFFFFFFFFFFFF
310
FFFFFFFFFFFFFFFFFFFFFFFFFFFFFFFFFFFFFFFFFFFFFFFFFFFFFFFFFFFFFFFF
310
FFFFFFFFFFFFFFFFFFFFFFFFFFFFFFFFFFFFFFFFFFFFFFFFFFFFFFFFFFFFFFFF
310
FFFFFFFFFFFFFFFFF000FFFFFFFFFFFFFFFFFFFFFFFFFFFFFFFFFFFFFFFFFFFF
310
FFFFFFFFFFFFFFFFFFFFFFFFFFFFFFFFFFFFFFFFFFFFFFFFFFFFFFFFFFFFFFFF
310
FFFFFFFFFFFFFFFFFFFFFFFFFFFFFFFFFFFFFFFFFFFFFFFFFFFFFFFFFFFFFFFF
310
F000FFFFFFFFFFFFFFFFFFFFFFFFFFFFFFFFFFFFFFFFFFFFFFFFFFFFFFFFFFFF
310
FFFFFFFFFFFFFFFFFFFFFFFFFFFFFFFFFFFFFFFFFFFFFFFFFFFFFFFFFFFFFFFF
310
FFFFFFFFFFFFFFFFFFFFFFFFFFFFFFFFFFFFFFFFFFFFFFFFF000FFFFFFFFFFFF
310
FFFFFFFFFFFFFFFFFFFFFFFFFFFFFFFFFFFFFFFFFFFFFFFFFFFFFFFFFFFFFFFF
310
FFFFFFFFFFFFFFFFFFFFFFFFFFFFFFFFFFFFFFFFFFFFFFFFFFFFFFFFFFFFFFFF
310
FFFFFFFFFFFFFFFFFFFFFFFFFFFFFFFFF000FFFFFFFFFFFFFFFFFFFFFFFFFFFF
310
FFFFFFFFFFFFFFFFFFFFFFFFFFFFFFFFFFFFFFFFFFFFFFFFFFFFFFFFFFFFFFFF
310
FFFFFFFFFFFFFFFFFFFFFFFFFFFFFFFFFFFFFFFFFFFFFFFFFFFFFFFFFFFFFFFF
310
FFFFFFFFFFFFFFFFF000FFFFFFFFFFFFFFFFFFFFFFFFFFFFFFFFFFFFFFFFFFFF
310
FFFFFFFFFFFFFFFFFFFFFFFFFFFFFFFFFFFFFFFFFFFFFFFFFFFFFFFFFFFFFFFF
310
FFFFFFFFFFFFFFFFFFFFFFFFFFFFFFFFFFFFFFFFFFFFFFFFFFFFFFFFFFFFFFFF
310
F000FFFFFFFFFFFFFFFFFFFFFFFFFFFFFFFFFFFFFFFFFFFFFFFFFFFFFFFFFFFF
310
FFFFFFFFFFFFFFFFFFFFFFFFFFFFFFFFFFFFFFFFFFFFFFFFFFFFFFFFFFFFFFFF
310
FFFFFFFFFFFFFFFFFFFFFFFFFFFFFFFFFFFFFFFFFFFFFFFFF000FFFFFFFFFFFF
310
FFFFFFFFFFFFFFFFFFFFFFFFFFFFFFFFFFFFFFFFFFFFFFFFFFFFFFFFFFFFFFFF
310
FFFFFFFFFFFFFFFFFFFFFFFFFFFFFFFFFFFFFFFFFFFFFFFFFFFFFFFFFFFFFFFF
310
FFFFFFFFFFFFFFFFFFFFFFFFFFFFFFFFF000FFFFFFFFFFFFFFFFFFFFFFFFFFFF
310
FFFFFFFFFFFFFFFFFFFFFFFFFFFFFFFFFFFFFFFFFFFFFFFFFFFFFFFFFFFFFFFF
310
FFFFFFFFFFFFFFFFFFFFFFFFFFFFFFFFFFFFFFFFFFFFFFFFFFFFFFFFFFFFFFFF
310
FFFFFFFFFFFFFFFFF000FFFFFFFFFFFFFFFFFFFFFFFFFFFFFFFFFFFFFFFFFFFF
310
FFFFFFFFFFFFFFFFFFFFFFFFFFFFFFFFFFFFFFFFFFFFFFFFFFFFFFFFFFFFFFFF
310
FFFFFFFFFFFFFFFFFFFFFFFFFFFFFFFFFFFFFFFFFFFFFFFFFFFFFFFFFFFFFFFF
310
F000FFFFFFFFFFFFFFFFFFFFFFFFFFFFFFFFFFFFFFFFFFFFFFFFFFFFFFFFFFFF
310
FFFFFFFFFFFFFFFFFFFFFFFFFFFFFFFFFFFFFFFFFFFFFFFFFFFFFFFFFFFFFFFF
310
FFFFFFFFFFFFFFFFFFFFFFFFFFFFFFFFFFFFFFFFFFFFFFFFF000FFFFFFFFFFFF
310
FFFFFFFFFFFFFFFFFFFFFFFFFFFFFFFFFFFFFFFFFFFFFFFFFFFFFFFFFFFFFFFF
310
FFFFFFFFFFFFFFFFFFFFFFFFFFFFFFFFFFFFFFFFFFFFFFFFFFFFFFFFFFFFFFFF
310
FFFFFFFFFFFFFFFFFFFFFFFFFFFFFFFFF000FFFFFFFFFFFFFFFFFFFFFFFFFFFF
310
FFFFFFFFFFFFFFFFFFFFFFFFFFFFFFFFFFFFFFFFFFFFFFFFFFFFFFFFFFFFFFFF
310
FFFFFFFFFFFFFFFFFFFFFFFFFFFFFFFFFFFFFFFFFFFFFFFFFFFFFFFFFFFFFFFF
310
FFFFFFFFFFFFFFFFF000FFFFFFFFFFFFFFFFFFFFFFFFFFFFFFFFFFFFFFFFFFFF
310
FFFFFFFFFFFFFFFFFFFFFFFFFFFFFFFFFFFFFFFFFFFFFFFFFFFFFFFFFFFFFFFF
310
FFFFFFFFFFFFFFFFFFFFFFFFFFFFFFFFFFFFFFFFFFFFFFFFFFFFFFFFFFFFFFFF
310
F000FFFFFFFFFFFFFFFFFFFFFFFFFFFFFFFFFFFFFFFFFFFFFFFFFFFFFFFFFFFF
310
FFFFFFFFFFFFFFFFFFFFFFFFFFFFFFFFFFFFFFFFFFFFFFFFFFFFFFFFFFFFFFFF
310
FFFFFFFFFFFFFFFFFFFFFFFFFFFFFFFFFFFFFFFFFFFFFFFFF000FFFFFFFFFFFF
310
FFFFFFFFFFFFFFFFFFFFFFFFFFFFFFFFFFFFFFFFFFFFFFFFFFFFFFFFFFFFFFFF
310
FFFFFFFFFFFFFFFFFFFFFFFFFFFFFFFFFFFFFFFFFFFFFFFFFFFFFFFFFFFFFFFF
310
FFFFFFFFFFFFFFFFFFFFFFFFFFFFFFFFF0000000000000000000000000000000
310
0000000000000000000000000000000000000000000000000000000000000000
310
0000000000000000000000000000000000000000000000000000000000000000
310
0000000000000000000000000000000000000000000000000000000000000000
310
0000000000000000000000000000000000000000000000000000000000000000
310
0000000000000000000000000000000000000000000000000000000000000000
310
0000000000000000000000000000000000000000000000000000000000000000
310
0000000000000000000000000000000000000000000000000000000000000000
310
0000000000000000000000000000000000000000000000000000000000000000
310
0000000000000000000000000000000000000000000000000000000000000000
310
0000000000000000000000000000000000000000000000000000000000000000
310
0000000000000000000000000000000000000000000000000000000000000000
310
0000000000000000000000000000000000000000000000000000000000000000
310
0000000000000000000000000000000000000000000000000000000000000000
310
0000000000000000000000000000000000000000000000000000000000000000
310
0000000000000000000000000000000000000000000000000000000000000000
  1
OLE
  0
ENDSEC
  0
SECTION
  2
OBJECTS
  0
DICTIONARY
  5
C
330
0
100
AcDbDictionary
281
     1
  3
ACAD_GROUP
350
D
  3
ACAD_LAYOUT
350
1A
  3
ACAD_MLINESTYLE
350
17
  3
ACAD_PLOTSETTINGS
350
19
  3
ACAD_PLOTSTYLENAME
350
E
  3
ACAD_SCALELIST
350
47
  0
DICTIONARY
  5
D
102
{ACAD_REACTORS
330
C
102
}
330
C
100
AcDbDictionary
281
     1
  0
DICTIONARY
  5
1A
102
{ACAD_REACTORS
330
C
102
}
330
C
100
AcDbDictionary
281
     1
  3
Layout1
350
1E
  3
Layout2
350
26
  3
Model
350
22
  0
DICTIONARY
  5
17
102
{ACAD_REACTORS
330
C
102
}
330
C
100
AcDbDictionary
281
     1
  3
Standard
350
18
  0
DICTIONARY
  5
19
102
{ACAD_REACTORS
330
C
102
}
330
C
100
AcDbDictionary
281
     1
  0
ACDBDICTIONARYWDFLT
  5
E
102
{ACAD_REACTORS
330
C
102
}
330
C
100
AcDbDictionary
281
     1
  3
Normal
350
F
100
AcDbDictionaryWithDefault
340
F
  0
DICTIONARY
  5
47
102
{ACAD_REACTORS
330
C
102
}
330
C
100
AcDbDictionary
281
     1
  3
A0
350
48
  3
A1
350
49
  3
A2
350
4A
  3
A3
350
4B
  3
A4
350
4C
  3
A5
350
4D
  3
A6
350
4E
  3
A7
350
4F
  3
A8
350
50
  3
A9
350
51
  3
B0
350
52
  3
B1
350
53
  3
B2
350
54
  3
B3
350
55
  3
B4
350
56
  3
B5
350
57
  3
B6
350
58
  3
B7
350
59
  3
B8
350
5A
  3
B9
350
5B
  3
C0
350
5C
  3
C1
350
5D
  3
C2
350
5E
  3
C3
350
5F
  3
C4
350
60
  3
C5
350
61
  3
C6
350
62
  3
C7
350
63
  3
C8
350
64
  3
C9
350
65
  3
D0
350
66
  3
D1
350
67
  3
D2
350
68
  0
LAYOUT
  5
1E
102
{ACAD_REACTORS
330
1A
102
}
330
1A
100
AcDbPlotSettings
  1

  2
none_device
  4

  6

 40
0.0
 41
0.0
 42
0.0
 43
0.0
 44
0.0
 45
0.0
 46
0.0
 47
0.0
 48
0.0
 49
0.0
140
0.0
141
0.0
142
1.0
143
1.0
 70
   688
 72
     1
 73
     0
 74
     5
  7

 75
    16
147
1.0
148
0.0
149
0.0
100
AcDbLayout
  1
Layout1
 70
     1
 71
     1
 10
0.0
 20
0.0
 11
420.0
 21
297.0
 12
0.0
 22
0.0
 32
0.0
 14
1.0000000000E+20
 24
1.0000000000E+20
 34
1.0000000000E+20
 15
-1.0000000000E+20
 25
-1.0000000000E+20
 35
-1.0000000000E+20
146
0.0
 13
0.0
 23
0.0
 33
0.0
 16
1.0
 26
0.0
 36
0.0
 17
0.0
 27
1.0
 37
0.0
 76
     0
330
1B
  0
LAYOUT
  5
26
102
{ACAD_REACTORS
330
1A
102
}
330
1A
100
AcDbPlotSettings
  1

  2
none_device
  4

  6

 40
0.0
 41
0.0
 42
0.0
 43
0.0
 44
0.0
 45
0.0
 46
0.0
 47
0.0
 48
0.0
 49
0.0
140
0.0
141
0.0
142
1.0
143
1.0
 70
   688
 72
     1
 73
     0
 74
     5
  7

 75
    16
147
1.0
148
0.0
149
0.0
100
AcDbLayout
  1
Layout2
 70
     1
 71
     2
 10
0.0
 20
0.0
 11
0.0
 21
0.0
 12
0.0
 22
0.0
 32
0.0
 14
0.0
 24
0.0
 34
0.0
 15
0.0
 25
0.0
 35
0.0
146
0.0
 13
0.0
 23
0.0
 33
0.0
 16
1.0
 26
0.0
 36
0.0
 17
0.0
 27
1.0
 37
0.0
 76
     0
330
23
  0
LAYOUT
  5
22
102
{ACAD_REACTORS
330
1A
102
}
330
1A
100
AcDbPlotSettings
  1

  2
none_device
  4
Letter_(8.50_x_11.00_Inches)
  6

 40
6.35
 41
6.35
 42
6.35000508
 43
6.35000508
 44
215.9
 45
279.4
 46
0.0
 47
0.0
 48
0.0
 49
0.0
140
0.0
141
0.0
142
1.0
143
1.0
 70
  1712
 72
     1
 73
     0
 74
     0
  7

 75
     0
147
1.0
148
0.0
149
0.0
100
AcDbLayout
  1
Model
 70
     1
 71
     0
 10
0.0
 20
0.0
 11
297.0
 21
210.0
 12
0.0
 22
0.0
 32
0.0
 14
0.0
 24
0.0
 34
0.0
 15
297.0
 25
210.0
 35
0.0
146
0.0
 13
0.0
 23
0.0
 33
0.0
 16
1.0
 26
0.0
 36
0.0
 17
0.0
 27
1.0
 37
0.0
 76
     0
330
1F
331
29
  0
MLINESTYLE
  5
18
102
{ACAD_REACTORS
330
17
102
}
330
17
100
AcDbMlineStyle
  2
Standard
 70
     0
  3

 62
   256
 51
90.0
 52
90.0
 71
     2
 49
0.5
 62
   256
  6
BYLAYER
 49
-0.5
 62
   256
  6
BYLAYER
  0
ACDBPLACEHOLDER
  5
F
102
{ACAD_REACTORS
330
E
102
}
330
E
  0
SCALE
  5
48
102
{ACAD_REACTORS
330
47
102
}
330
47
100
AcDbScale
 70
     0
300
1:1
140
1.0
141
1.0
290
     1
  0
SCALE
  5
49
102
{ACAD_REACTORS
330
47
102
}
330
47
100
AcDbScale
 70
     0
300
1:2
140
1.0
141
2.0
290
     0
  0
SCALE
  5
4A
102
{ACAD_REACTORS
330
47
102
}
330
47
100
AcDbScale
 70
     0
300
1:4
140
1.0
141
4.0
290
     0
  0
SCALE
  5
4B
102
{ACAD_REACTORS
330
47
102
}
330
47
100
AcDbScale
 70
     0
300
1:5
140
1.0
141
5.0
290
     0
  0
SCALE
  5
4C
102
{ACAD_REACTORS
330
47
102
}
330
47
100
AcDbScale
 70
     0
300
1:8
140
1.0
141
8.0
290
     0
  0
SCALE
  5
4D
102
{ACAD_REACTORS
330
47
102
}
330
47
100
AcDbScale
 70
     0
300
1:10
140
1.0
141
10.0
290
     0
  0
SCALE
  5
4E
102
{ACAD_REACTORS
330
47
102
}
330
47
100
AcDbScale
 70
     0
300
1:16
140
1.0
141
16.0
290
     0
  0
SCALE
  5
4F
102
{ACAD_REACTORS
330
47
102
}
330
47
100
AcDbScale
 70
     0
300
1:20
140
1.0
141
20.0
290
     0
  0
SCALE
  5
50
102
{ACAD_REACTORS
330
47
102
}
330
47
100
AcDbScale
 70
     0
300
1:30
140
1.0
141
30.0
290
     0
  0
SCALE
  5
51
102
{ACAD_REACTORS
330
47
102
}
330
47
100
AcDbScale
 70
     0
300
1:40
140
1.0
141
40.0
290
     0
  0
SCALE
  5
52
102
{ACAD_REACTORS
330
47
102
}
330
47
100
AcDbScale
 70
     0
300
1:50
140
1.0
141
50.0
290
     0
  0
SCALE
  5
53
102
{ACAD_REACTORS
330
47
102
}
330
47
100
AcDbScale
 70
     0
300
1:100
140
1.0
141
100.0
290
     0
  0
SCALE
  5
54
102
{ACAD_REACTORS
330
47
102
}
330
47
100
AcDbScale
 70
     0
300
2:1
140
2.0
141
1.0
290
     0
  0
SCALE
  5
55
102
{ACAD_REACTORS
330
47
102
}
330
47
100
AcDbScale
 70
     0
300
4:1
140
4.0
141
1.0
290
     0
  0
SCALE
  5
56
102
{ACAD_REACTORS
330
47
102
}
330
47
100
AcDbScale
 70
     0
300
8:1
140
8.0
141
1.0
290
     0
  0
SCALE
  5
57
102
{ACAD_REACTORS
330
47
102
}
330
47
100
AcDbScale
 70
     0
300
10:1
140
10.0
141
1.0
290
     0
  0
SCALE
  5
58
102
{ACAD_REACTORS
330
47
102
}
330
47
100
AcDbScale
 70
     0
300
100:1
140
100.0
141
1.0
290
     0
  0
SCALE
  5
59
102
{ACAD_REACTORS
330
47
102
}
330
47
100
AcDbScale
 70
     0
300
1/128" = 1'-0"
140
0.0078125
141
12.0
290
     0
  0
SCALE
  5
5A
102
{ACAD_REACTORS
330
47
102
}
330
47
100
AcDbScale
 70
     0
300
1/64" = 1'-0"
140
0.015625
141
12.0
290
     0
  0
SCALE
  5
5B
102
{ACAD_REACTORS
330
47
102
}
330
47
100
AcDbScale
 70
     0
300
1/32" = 1'-0"
140
0.03125
141
12.0
290
     0
  0
SCALE
  5
5C
102
{ACAD_REACTORS
330
47
102
}
330
47
100
AcDbScale
 70
     0
300
1/16" = 1'-0"
140
0.0625
141
12.0
290
     0
  0
SCALE
  5
5D
102
{ACAD_REACTORS
330
47
102
}
330
47
100
AcDbScale
 70
     0
300
3/32" = 1'-0"
140
0.09375
141
12.0
290
     0
  0
SCALE
  5
5E
102
{ACAD_REACTORS
330
47
102
}
330
47
100
AcDbScale
 70
     0
300
1/8" = 1'-0"
140
0.125
141
12.0
290
     0
  0
SCALE
  5
5F
102
{ACAD_REACTORS
330
47
102
}
330
47
100
AcDbScale
 70
     0
300
3/16" = 1'-0"
140
0.1875
141
12.0
290
     0
  0
SCALE
  5
60
102
{ACAD_REACTORS
330
47
102
}
330
47
100
AcDbScale
 70
     0
300
1/4" = 1'-0"
140
0.25
141
12.0
290
     0
  0
SCALE
  5
61
102
{ACAD_REACTORS
330
47
102
}
330
47
100
AcDbScale
 70
     0
300
3/8" = 1'-0"
140
0.375
141
12.0
290
     0
  0
SCALE
  5
62
102
{ACAD_REACTORS
330
47
102
}
330
47
100
AcDbScale
 70
     0
300
1/2" = 1'-0"
140
0.5
141
12.0
290
     0
  0
SCALE
  5
63
102
{ACAD_REACTORS
330
47
102
}
330
47
100
AcDbScale
 70
     0
300
3/4" = 1'-0"
140
0.75
141
12.0
290
     0
  0
SCALE
  5
64
102
{ACAD_REACTORS
330
47
102
}
330
47
100
AcDbScale
 70
     0
300
1" = 1'-0"
140
1.0
141
12.0
290
     0
  0
SCALE
  5
65
102
{ACAD_REACTORS
330
47
102
}
330
47
100
AcDbScale
 70
     0
300
1-1/2" = 1'-0"
140
1.5
141
12.0
290
     0
  0
SCALE
  5
66
102
{ACAD_REACTORS
330
47
102
}
330
47
100
AcDbScale
 70
     0
300
3" = 1'-0"
140
3.0
141
12.0
290
     0
  0
SCALE
  5
67
102
{ACAD_REACTORS
330
47
102
}
330
47
100
AcDbScale
 70
     0
300
6" = 1'-0"
140
6.0
141
12.0
290
     0
  0
SCALE
  5
68
102
{ACAD_REACTORS
330
47
102
}
330
47
100
AcDbScale
 70
     0
300
1'-0" = 1'-0"
140
12.0
141
12.0
290
     0
  0
ENDSEC
  0
EOF
