  0
SECTION
  2
HEADER
  9
$ACADVER
  1
AC1015
  9
$ACADMAINTVER
 70
     6
  9
$DWGCODEPAGE
  3
ANSI_1252
  9
$INSBASE
 10
0.0
 20
0.0
 30
0.0
  9
$EXTMIN
 10
0.0
 20
0.0
 30
0.0
  9
$EXTMAX
 10
297.0
 20
210.0
 30
0.0
  9
$LIMMIN
 10
0.0
 20
0.0
  9
$LIMMAX
 10
297.0
 20
210.0
  9
$ORTHOMODE
 70
     0
  9
$REGENMODE
 70
     1
  9
$FILLMODE
 70
     1
  9
$QTEXTMODE
 70
     0
  9
$MIRRTEXT
 70
     1
  9
$LTSCALE
 40
1.0
  9
$ATTMODE
 70
     1
  9
$TEXTSIZE
 40
2.0
  9
$TRACEWID
 40
1.0
  9
$TEXTSTYLE
  7
Standard
  9
$CLAYER
  8
0
  9
$CELTYPE
  6
ByLayer
  9
$CECOLOR
 62
   256
  9
$CELTSCALE
 40
1.0
  9
$DISPSILH
 70
     0
  9
$DIMSCALE
 40
1.0
  9
$DIMASZ
 40
3.0
  9
$DIMEXO
 40
0.0
  9
$DIMDLI
 40
3.75
  9
$DIMRND
 40
0.0
  9
$DIMDLE
 40
0.0
  9
$DIMEXE
 40
1.0
  9
$DIMTP
 40
0.0
  9
$DIMTM
 40
0.0
  9
$DIMTXT
 40
2.0
  9
$DIMCEN
 40
2.5
  9
$DIMTSZ
 40
0.0
  9
$DIMTOL
 70
     0
  9
$DIMLIM
 70
     0
  9
$DIMTIH
 70
     1
  9
$DIMTOH
 70
     1
  9
$DIMSE1
 70
     0
  9
$DIMSE2
 70
     0
  9
$DIMTAD
 70
     1
  9
$DIMZIN
 70
     0
  9
$DIMBLK
  1

  9
$DIMASO
 70
     1
  9
$DIMSHO
 70
     1
  9
$DIMPOST
  1

  9
$DIMAPOST
  1

  9
$DIMALT
 70
     0
  9
$DIMALTD
 70
     3
  9
$DIMALTF
 40
0.0393700787
  9
$DIMLFAC
 40
2.0
  9
$DIMTOFL
 70
     1
  9
$DIMTVP
 40
0.0
  9
$DIMTIX
 70
     0
  9
$DIMSOXD
 70
     0
  9
$DIMSAH
 70
     0
  9
$DIMBLK1
  1

  9
$DIMBLK2
  1

  9
$DIMSTYLE
  2
ISO-25
  9
$DIMCLRD
 70
     0
  9
$DIMCLRE
 70
     0
  9
$DIMCLRT
 70
     0
  9
$DIMTFAC
 40
1.0
  9
$DIMGAP
 40
1.524
  9
$DIMJUST
 70
     0
  9
$DIMSD1
 70
     0
  9
$DIMSD2
 70
     0
  9
$DIMTOLJ
 70
     0
  9
$DIMTZIN
 70
     0
  9
$DIMALTZ
 70
     0
  9
$DIMALTTZ
 70
     0
  9
$DIMUPT
 70
     0
  9
$DIMDEC
 70
     2
  9
$DIMTDEC
 70
     3
  9
$DIMALTU
 70
     2
  9
$DIMALTTD
 70
     3
  9
$DIMTXSTY
  7
Standard
  9
$DIMAUNIT
 70
     0
  9
$DIMADEC
 70
     2
  9
$DIMALTRND
 40
0.0
  9
$DIMAZIN
 70
     0
  9
$DIMDSEP
 70
    44
  9
$DIMATFIT
 70
     3
  9
$DIMFRAC
 70
     0
  9
$DIMLDRBLK
  1

  9
$DIMLUNIT
 70
     2
  9
$DIMLWD
 70
    -2
  9
$DIMLWE
 70
    -2
  9
$DIMTMOVE
 70
     0
  9
$LUNITS
 70
     2
  9
$LUPREC
 70
     2
  9
$SKETCHINC
 40
1.0
  9
$FILLETRAD
 40
10.0
  9
$AUNITS
 70
     0
  9
$AUPREC
 70
     2
  9
$MENU
  1
.
  9
$ELEVATION
 40
0.0
  9
$PELEVATION
 40
0.0
  9
$THICKNESS
 40
0.0
  9
$LIMCHECK
 70
     0
  9
$CHAMFERA
 40
0.0
  9
$CHAMFERB
 40
0.0
  9
$CHAMFERC
 40
0.0
  9
$CHAMFERD
 40
0.0
  9
$SKPOLY
 70
     0
  9
$TDCREATE
 40
2457676.374895972
  9
$TDUCREATE
 40
2457676.291562639
  9
$TDUPDATE
 40
2457676.3748975
  9
$TDUUPDATE
 40
2457676.291564167
  9
$TDINDWG
 40
0.0000000116
  9
$TDUSRTIMER
 40
0.0000000116
  9
$USRTIMER
 70
     1
  9
$ANGBASE
 50
0.0
  9
$ANGDIR
 70
     0
  9
$PDMODE
 70
     0
  9
$PDSIZE
 40
-1.0
  9
$PLINEWID
 40
0.0
  9
$SPLFRAME
 70
     0
  9
$SPLINETYPE
 70
     6
  9
$SPLINESEGS
 70
     8
  9
$HANDSEED
  5
285
  9
$SURFTAB1
 70
     6
  9
$SURFTAB2
 70
     6
  9
$SURFTYPE
 70
     6
  9
$SURFU
 70
     6
  9
$SURFV
 70
     6
  9
$UCSBASE
  2

  9
$UCSNAME
  2

  9
$UCSORG
 10
0.0
 20
0.0
 30
0.0
  9
$UCSXDIR
 10
1.0
 20
0.0
 30
0.0
  9
$UCSYDIR
 10
0.0
 20
1.0
 30
0.0
  9
$UCSORTHOREF
  2

  9
$UCSORTHOVIEW
 70
     0
  9
$UCSORGTOP
 10
0.0
 20
0.0
 30
0.0
  9
$UCSORGBOTTOM
 10
0.0
 20
0.0
 30
0.0
  9
$UCSORGLEFT
 10
0.0
 20
0.0
 30
0.0
  9
$UCSORGRIGHT
 10
0.0
 20
0.0
 30
0.0
  9
$UCSORGFRONT
 10
0.0
 20
0.0
 30
0.0
  9
$UCSORGBACK
 10
0.0
 20
0.0
 30
0.0
  9
$PUCSBASE
  2

  9
$PUCSNAME
  2

  9
$PUCSORG
 10
0.0
 20
0.0
 30
0.0
  9
$PUCSXDIR
 10
1.0
 20
0.0
 30
0.0
  9
$PUCSYDIR
 10
0.0
 20
1.0
 30
0.0
  9
$PUCSORTHOREF
  2

  9
$PUCSORTHOVIEW
 70
     0
  9
$PUCSORGTOP
 10
0.0
 20
0.0
 30
0.0
  9
$PUCSORGBOTTOM
 10
0.0
 20
0.0
 30
0.0
  9
$PUCSORGLEFT
 10
0.0
 20
0.0
 30
0.0
  9
$PUCSORGRIGHT
 10
0.0
 20
0.0
 30
0.0
  9
$PUCSORGFRONT
 10
0.0
 20
0.0
 30
0.0
  9
$PUCSORGBACK
 10
0.0
 20
0.0
 30
0.0
  9
$USERI1
 70
     0
  9
$USERI2
 70
     0
  9
$USERI3
 70
     0
  9
$USERI4
 70
     0
  9
$USERI5
 70
     0
  9
$USERR1
 40
0.0
  9
$USERR2
 40
0.0
  9
$USERR3
 40
0.0
  9
$USERR4
 40
0.0
  9
$USERR5
 40
0.0
  9
$WORLDVIEW
 70
     1
  9
$SHADEDGE
 70
     3
  9
$SHADEDIF
 70
    70
  9
$TILEMODE
 70
     1
  9
$MAXACTVP
 70
    64
  9
$PINSBASE
 10
0.0
 20
0.0
 30
0.0
  9
$PLIMCHECK
 70
     0
  9
$PEXTMIN
 10
1.0000000000E+20
 20
1.0000000000E+20
 30
1.0000000000E+20
  9
$PEXTMAX
 10
-1.0000000000E+20
 20
-1.0000000000E+20
 30
-1.0000000000E+20
  9
$PLIMMIN
 10
0.0
 20
0.0
  9
$PLIMMAX
 10
420.0
 20
297.0
  9
$UNITMODE
 70
     0
  9
$VISRETAIN
 70
     1
  9
$PLINEGEN
 70
     0
  9
$PSLTSCALE
 70
     1
  9
$TREEDEPTH
 70
  3020
  9
$CMLSTYLE
  2
Standard
  9
$CMLJUST
 70
     0
  9
$CMLSCALE
 40
20.0
  9
$PROXYGRAPHICS
 70
     1
  9
$MEASUREMENT
 70
     1
  9
$CELWEIGHT
370
    -1
  9
$ENDCAPS
280
     0
  9
$JOINSTYLE
280
     0
  9
$LWDISPLAY
290
     1
  9
$INSUNITS
 70
     4
  9
$HYPERLINKBASE
  1

  9
$STYLESHEET
  1

  9
$XEDIT
290
     1
  9
$CEPSNTYPE
380
     0
  9
$PSTYLEMODE
290
     1
  9
$FINGERPRINTGUID
  2
{182F322B-29BC-4DF5-8323-396A715EA48B}
  9
$VERSIONGUID
  2
{FAEB1C32-E019-11D5-929B-00C0DF256EC4}
  9
$EXTNAMES
290
     1
  9
$PSVPSCALE
 40
0.0
  9
$OLESTARTUP
290
     0
  0
ENDSEC
  0
SECTION
  2
CLASSES
  0
CLASS
  1
ACDBDICTIONARYWDFLT
  2
AcDbDictionaryWithDefault
  3
ObjectDBX Classes
 90
        0
280
     0
281
     0
  0
CLASS
  1
VISUALSTYLE
  2
AcDbVisualStyle
  3
ObjectDBX Classes
 90
     4095
280
     0
281
     0
  0
CLASS
  1
MATERIAL
  2
AcDbMaterial
  3
ObjectDBX Classes
 90
     1153
280
     0
281
     0
  0
CLASS
  1
SCALE
  2
AcDbScale
  3
ObjectDBX Classes
 90
     1153
280
     0
281
     0
  0
CLASS
  1
TABLESTYLE
  2
AcDbTableStyle
  3
ObjectDBX Classes
 90
     4095
280
     0
281
     0
  0
CLASS
  1
MLEADERSTYLE
  2
AcDbMLeaderStyle
  3
ACDB_MLEADERSTYLE_CLASS
 90
     4095
280
     0
281
     0
  0
CLASS
  1
SUN
  2
AcDbSun
  3
SCENEOE
 90
     1153
280
     0
281
     0
  0
CLASS
  1
ACDBPLACEHOLDER
  2
AcDbPlaceHolder
  3
ObjectDBX Classes
 90
        0
280
     0
281
     0
  0
CLASS
  1
LAYOUT
  2
AcDbLayout
  3
ObjectDBX Classes
 90
        0
280
     0
281
     0
  0
ENDSEC
  0
SECTION
  2
TABLES
  0
TABLE
  2
VPORT
  5
8
330
0
100
AcDbSymbolTable
 70
     1
  0
VPORT
  5
29
330
8
100
AcDbSymbolTableRecord
100
AcDbViewportTableRecord
  2
*Active
 70
     0
 10
0.0
 20
0.0
 11
1.0
 21
1.0
 12
148.5
 22
105.0
 13
0.0
 23
0.0
 14
10.0
 24
10.0
 15
10.0
 25
10.0
 16
0.0
 26
0.0
 36
1.0
 17
0.0
 27
0.0
 37
0.0
 40
210.0
 41
1.4142857143
 42
50.0
 43
0.0
 44
0.0
 50
0.0
 51
0.0
 71
     0
 72
  2000
 73
     1
 74
     3
 75
     0
 76
     0
 77
     0
 78
     0
281
     0
 65
     1
110
0.0
120
0.0
130
0.0
111
1.0
121
0.0
131
0.0
112
0.0
122
1.0
132
0.0
 79
     0
146
0.0
  0
ENDTAB
  0
TABLE
  2
LTYPE
  5
5
330
0
100
AcDbSymbolTable
 70
     6
  0
LTYPE
  5
14
330
5
100
AcDbSymbolTableRecord
100
AcDbLinetypeTableRecord
  2
ByBlock
 70
     0
  3

 72
    65
 73
     0
 40
0.0
  0
LTYPE
  5
15
330
5
100
AcDbSymbolTableRecord
100
AcDbLinetypeTableRecord
  2
ByLayer
 70
     0
  3

 72
    65
 73
     0
 40
0.0
  0
LTYPE
  5
16
330
5
100
AcDbSymbolTableRecord
100
AcDbLinetypeTableRecord
  2
Continuous
 70
     0
  3
Solid line
 72
    65
 73
     0
 40
0.0
  0
LTYPE
  5
6E
330
5
100
AcDbSymbolTableRecord
100
AcDbLinetypeTableRecord
  2
HIDDEN
 70
     0
  3
Hidden __ __ __ __ __ __ __ __ __ __ __ __ __ __
 72
    65
 73
     2
 40
1.905
 49
1.27
 74
     0
 49
-0.635
 74
     0
  0
LTYPE
  5
6F
330
5
100
AcDbSymbolTableRecord
100
AcDbLinetypeTableRecord
  2
PHANTOM
 70
     0
  3
Phantom ______  __  __  ______  __  __  ______
 72
    65
 73
     6
 40
12.7
 49
6.35
 74
     0
 49
-1.27
 74
     0
 49
1.27
 74
     0
 49
-1.27
 74
     0
 49
1.27
 74
     0
 49
-1.27
 74
     0
  0
LTYPE
  5
70
330
5
100
AcDbSymbolTableRecord
100
AcDbLinetypeTableRecord
  2
CENTER
 70
     0
  3
Center ____ _ ____ _ ____ _ ____ _ ____ _ ____
 72
    65
 73
     4
 40
10.16
 49
6.35
 74
     0
 49
-1.27
 74
     0
 49
1.27
 74
     0
 49
-1.27
 74
     0
  0
LTYPE
  5
71
330
5
100
AcDbSymbolTableRecord
100
AcDbLinetypeTableRecord
  2
CENTERX2
 70
     0
  3
Center (2x) ________  __  ________  __  _____
 72
    65
 73
     4
 40
20.32
 49
12.7
 74
     0
 49
-2.54
 74
     0
 49
2.54
 74
     0
 49
-2.54
 74
     0
  0
LTYPE
  5
72
330
5
100
AcDbSymbolTableRecord
100
AcDbLinetypeTableRecord
  2
DOT2
 70
     0
  3
Dot (.5x) ........................................
 72
    65
 73
     2
 40
0.635
 49
0.0
 74
     0
 49
-0.635
 74
     0
  0
ENDTAB
  0
TABLE
  2
LAYER
  5
2
330
0
100
AcDbSymbolTable
 70
     5
  0
LAYER
  5
10
330
2
100
AcDbSymbolTableRecord
100
AcDbLayerTableRecord
  2
0
 70
     0
 62
     7
  6
Continuous
370
    -3
390
F
  0
LAYER
  5
73
330
2
100
AcDbSymbolTableRecord
100
AcDbLayerTableRecord
  2
FORMAT
 70
     0
 62
     7
  6
Continuous
370
    -3
390
F
  0
LAYER
  5
74
330
2
100
AcDbSymbolTableRecord
100
AcDbLayerTableRecord
  2
VERMASSUNG
 70
     0
 62
     7
  6
Continuous
370
    -3
390
F
  0
LAYER
  5
75
330
2
100
AcDbSymbolTableRecord
100
AcDbLayerTableRecord
  2
KOPF_DÜNN
 70
     0
 62
     7
  6
Continuous
370
    -3
390
F
  0
LAYER
  5
76
330
2
100
AcDbSymbolTableRecord
100
AcDbLayerTableRecord
  2
KOPF_DICK
 70
     0
 62
     7
  6
Continuous
370
    15
390
F
  0
ENDTAB
  0
TABLE
  2
STYLE
  5
3
330
0
100
AcDbSymbolTable
 70
     2
  0
STYLE
  5
11
330
3
100
AcDbSymbolTableRecord
100
AcDbTextStyleTableRecord
  2
Standard
 70
     0
 40
0.0
 41
1.0
 50
0.0
 71
     0
 42
2.0
  3
txt
  4

  0
STYLE
  5
77
330
3
100
AcDbSymbolTableRecord
100
AcDbTextStyleTableRecord
  2
SLDTEXTSTYLE0
 70
     0
 40
0.0
 41
0.7
 50
0.0
 71
     0
 42
2.0
  3
TXT
  4

  0
ENDTAB
  0
TABLE
  2
VIEW
  5
6
330
0
100
AcDbSymbolTable
 70
     0
  0
ENDTAB
  0
TABLE
  2
UCS
  5
7
330
0
100
AcDbSymbolTable
 70
     0
  0
ENDTAB
  0
TABLE
  2
APPID
  5
9
330
0
100
AcDbSymbolTable
 70
     1
  0
APPID
  5
12
330
9
100
AcDbSymbolTableRecord
100
AcDbRegAppTableRecord
  2
ACAD
 70
     0
  0
ENDTAB
  0
TABLE
  2
DIMSTYLE
  5
A
330
0
100
AcDbSymbolTable
 70
     2
100
AcDbDimStyleTable
  0
DIMSTYLE
105
27
330
A
100
AcDbSymbolTableRecord
100
AcDbDimStyleTableRecord
  2
ISO-25
 70
     0
 41
2.5
 42
0.625
 43
3.75
 44
1.25
 73
     0
 74
     0
 77
     1
 78
     8
140
2.5
141
2.5
143
0.0393700787
147
0.625
171
     3
172
     1
178
     0
271
     2
272
     2
274
     3
278
    44
283
     0
284
     8
340
11
  0
DIMSTYLE
105
1C3
102
{ACAD_REACTORS
330
1C2
330
1CF
330
1D9
330
1E3
330
1ED
330
1F9
102
}
330
A
100
AcDbSymbolTableRecord
100
AcDbDimStyleTableRecord
  2
SLDDIMSTYLE0
 70
     0
 41
3.0
 44
0.0
 45
0.000000001
 73
     0
 74
     0
 77
     1
 78
    12
 79
     3
140
2.0
147
0.5
173
     1
178
     0
271
     2
272
     3
276
     2
284
    12
340
77
  0
ENDTAB
  0
TABLE
  2
BLOCK_RECORD
  5
1
330
0
100
AcDbSymbolTable
 70
     7
  0
BLOCK_RECORD
  5
1F
330
1
100
AcDbSymbolTableRecord
100
AcDbBlockTableRecord
  2
*Model_Space
340
22
  0
BLOCK_RECORD
  5
1B
330
1
100
AcDbSymbolTableRecord
100
AcDbBlockTableRecord
  2
*Paper_Space
340
1E
  0
BLOCK_RECORD
  5
23
330
1
100
AcDbSymbolTableRecord
100
AcDbBlockTableRecord
  2
*Paper_Space0
340
26
  0
BLOCK_RECORD
  5
1C4
330
1
100
AcDbSymbolTableRecord
100
AcDbBlockTableRecord
  2
_D
340
0
  0
BLOCK_RECORD
  5
1D0
330
1
100
AcDbSymbolTableRecord
100
AcDbBlockTableRecord
  2
_D_1
340
0
  0
BLOCK_RECORD
  5
1DA
330
1
100
AcDbSymbolTableRecord
100
AcDbBlockTableRecord
  2
_D_2
340
0
  0
BLOCK_RECORD
  5
1E4
330
1
100
AcDbSymbolTableRecord
100
AcDbBlockTableRecord
  2
_D_3
340
0
  0
BLOCK_RECORD
  5
1EE
330
1
100
AcDbSymbolTableRecord
100
AcDbBlockTableRecord
  2
_D_4
340
0
  0
BLOCK_RECORD
  5
1FA
330
1
100
AcDbSymbolTableRecord
100
AcDbBlockTableRecord
  2
_D_5
340
0
  0
ENDTAB
  0
ENDSEC
  0
SECTION
  2
BLOCKS
  0
BLOCK
  5
20
330
1F
100
AcDbEntity
  8
0
100
AcDbBlockBegin
  2
*Model_Space
 70
     0
 10
0.0
 20
0.0
 30
0.0
  3
*Model_Space
  1

  0
ENDBLK
  5
21
330
1F
100
AcDbEntity
  8
0
100
AcDbBlockEnd
  0
BLOCK
  5
1C
330
1B
100
AcDbEntity
 67
     1
  8
0
100
AcDbBlockBegin
  2
*Paper_Space
 70
     0
 10
0.0
 20
0.0
 30
0.0
  3
*Paper_Space
  1

  0
ENDBLK
  5
1D
330
1B
100
AcDbEntity
 67
     1
  8
0
100
AcDbBlockEnd
  0
BLOCK
  5
24
330
23
100
AcDbEntity
  8
0
100
AcDbBlockBegin
  2
*Paper_Space0
 70
     0
 10
0.0
 20
0.0
 30
0.0
  3
*Paper_Space0
  1

  0
ENDBLK
  5
25
330
23
100
AcDbEntity
  8
0
100
AcDbBlockEnd
  0
BLOCK
  5
1C5
330
1C4
100
AcDbEntity
  8
0
100
AcDbBlockBegin
  2
_D
 70
     0
 10
0.0
 20
0.0
 30
0.0
  3
_D
  1

  0
SOLID
  5
1C7
330
1C4
100
AcDbEntity
  8
VERMASSUNG
100
AcDbTrace
 10
52.0932401699
 20
76.6901985636
 30
0.0
 11
52.5432401699
 21
79.6901985636
 31
0.0
 12
51.6432401699
 22
79.6901985636
 32
0.0
 13
51.6432401699
 23
79.6901985636
 33
0.0
  0
SOLID
  5
1C8
330
1C4
100
AcDbEntity
  8
VERMASSUNG
100
AcDbTrace
 10
52.0932401699
 20
176.6901985636
 30
0.0
 11
51.6432401699
 21
173.6901985636
 31
0.0
 12
52.5432401699
 22
173.6901985636
 32
0.0
 13
52.5432401699
 23
173.6901985636
 33
0.0
  0
LINE
  5
1C9
330
1C4
100
AcDbEntity
  8
VERMASSUNG
100
AcDbLine
 10
198.9938972245
 20
76.6901985636
 30
0.0
 11
51.0932401699
 21
76.6901985636
 31
0.0
  0
LINE
  5
1CA
330
1C4
100
AcDbEntity
  8
VERMASSUNG
100
AcDbLine
 10
198.9938972245
 20
176.6901985636
 30
0.0
 11
51.0932401699
 21
176.6901985636
 31
0.0
  0
LINE
  5
1CB
330
1C4
100
AcDbEntity
  8
VERMASSUNG
100
AcDbLine
 10
52.0932401699
 20
76.6901985636
 30
0.0
 11
52.0932401699
 21
176.6901985636
 31
0.0
  0
MTEXT
  5
1CC
330
1C4
100
AcDbEntity
  8
VERMASSUNG
100
AcDbMText
 10
49.3151049137
 20
115.4860605615
 30
0.0
 40
2.0
 41
0.0
 71
     1
 72
     1
  1
MAS-BT 50
  7
SLDTEXTSTYLE0
 11
3.391901413832837E-15
 21
1.0
 31
0.0
 73
     1
 44
1.0
  0
MTEXT
  5
1CD
330
1C4
100
AcDbEntity
  8
VERMASSUNG
100
AcDbMText
 10
49.515104865
 20
130.4860602262
 30
0.0
 40
2.0
 41
0.0
 71
     1
 72
     1
  1
%%c
  7
SLDTEXTSTYLE0
 11
3.391901413832837E-15
 21
1.0
 31
0.0
 73
     1
 44
1.0
  0
MTEXT
  5
1CE
330
1C4
100
AcDbEntity
  8
VERMASSUNG
100
AcDbMText
 10
49.515104574
 20
134.0956506748
 30
0.0
 40
2.0
 41
0.0
 71
     1
 72
     1
  1
100
  7
SLDTEXTSTYLE0
 11
3.391901413832837E-15
 21
1.0
 31
0.0
 73
     1
 44
1.0
  0
ENDBLK
  5
1C6
330
1C4
100
AcDbEntity
  8
0
100
AcDbBlockEnd
  0
BLOCK
  5
1D1
330
1D0
100
AcDbEntity
  8
0
100
AcDbBlockBegin
  2
_D_1
 70
     0
 10
0.0
 20
0.0
 30
0.0
  3
_D_1
  1

  0
SOLID
  5
1D3
330
1D0
100
AcDbEntity
  8
VERMASSUNG
100
AcDbTrace
 10
60.1938972245
 20
194.21641882
 30
0.0
 11
63.1938972245
 21
193.76641882
 31
0.0
 12
63.1938972245
 22
194.66641882
 32
0.0
 13
63.1938972245
 23
194.66641882
 33
0.0
  0
SOLID
  5
1D4
330
1D0
100
AcDbEntity
  8
VERMASSUNG
100
AcDbTrace
 10
236.9938972245
 20
194.21641882
 30
0.0
 11
233.9938972245
 21
194.66641882
 31
0.0
 12
233.9938972245
 22
193.76641882
 32
0.0
 13
233.9938972245
 23
193.76641882
 33
0.0
  0
LINE
  5
1D5
330
1D0
100
AcDbEntity
  8
VERMASSUNG
100
AcDbLine
 10
60.1938972245
 20
145.0398764243
 30
0.0
 11
60.1938972245
 21
195.21641882
 31
0.0
  0
LINE
  5
1D6
330
1D0
100
AcDbEntity
  8
VERMASSUNG
100
AcDbLine
 10
236.9938972245
 20
165.8901985636
 30
0.0
 11
236.9938972245
 21
195.21641882
 31
0.0
  0
LINE
  5
1D7
330
1D0
100
AcDbEntity
  8
VERMASSUNG
100
AcDbLine
 10
60.1938972245
 20
194.21641882
 30
0.0
 11
236.9938972245
 21
194.21641882
 31
0.0
  0
MTEXT
  5
1D8
330
1D0
100
AcDbEntity
  8
VERMASSUNG
100
AcDbMText
 10
145.6938972614
 20
196.7945544159
 30
0.0
 40
2.0
 41
0.0
 71
     1
 72
     1
  1
176.8
  7
SLDTEXTSTYLE0
 73
     1
 44
1.0
  0
ENDBLK
  5
1D2
330
1D0
100
AcDbEntity
  8
0
100
AcDbBlockEnd
  0
BLOCK
  5
1DB
330
1DA
100
AcDbEntity
  8
0
100
AcDbBlockBegin
  2
_D_2
 70
     0
 10
0.0
 20
0.0
 30
0.0
  3
_D_2
  1

  0
SOLID
  5
1DD
330
1DA
100
AcDbEntity
  8
VERMASSUNG
100
AcDbTrace
 10
161.9938972245
 20
188.21641882
 30
0.0
 11
164.9938972245
 21
187.76641882
 31
0.0
 12
164.9938972245
 22
188.66641882
 32
0.0
 13
164.9938972245
 23
188.66641882
 33
0.0
  0
SOLID
  5
1DE
330
1DA
100
AcDbEntity
  8
VERMASSUNG
100
AcDbTrace
 10
236.9938972245
 20
188.21641882
 30
0.0
 11
233.9938972245
 21
188.66641882
 31
0.0
 12
233.9938972245
 22
187.76641882
 32
0.0
 13
233.9938972245
 23
187.76641882
 33
0.0
  0
LINE
  5
1DF
330
1DA
100
AcDbEntity
  8
VERMASSUNG
100
AcDbLine
 10
161.9938972245
 20
161.6151985636
 30
0.0
 11
161.9938972245
 21
189.21641882
 31
0.0
  0
LINE
  5
1E0
330
1DA
100
AcDbEntity
  8
VERMASSUNG
100
AcDbLine
 10
236.9938972245
 20
165.8901985636
 30
0.0
 11
236.9938972245
 21
189.21641882
 31
0.0
  0
LINE
  5
1E1
330
1DA
100
AcDbEntity
  8
VERMASSUNG
100
AcDbLine
 10
161.9938972245
 20
188.21641882
 30
0.0
 11
236.9938972245
 21
188.21641882
 31
0.0
  0
MTEXT
  5
1E2
330
1DA
100
AcDbEntity
  8
VERMASSUNG
100
AcDbMText
 10
198.0938972744
 20
190.7945544159
 30
0.0
 40
2.0
 41
0.0
 71
     1
 72
     1
  1
75
  7
SLDTEXTSTYLE0
 73
     1
 44
1.0
  0
ENDBLK
  5
1DC
330
1DA
100
AcDbEntity
  8
0
100
AcDbBlockEnd
  0
BLOCK
  5
1E5
330
1E4
100
AcDbEntity
  8
0
100
AcDbBlockBegin
  2
_D_3
 70
     0
 10
0.0
 20
0.0
 30
0.0
  3
_D_3
  1

  0
SOLID
  5
1E7
330
1E4
100
AcDbEntity
  8
VERMASSUNG
100
AcDbTrace
 10
199.9938972245
 20
182.21641882
 30
0.0
 11
202.9938972245
 21
181.76641882
 31
0.0
 12
202.9938972245
 22
182.66641882
 32
0.0
 13
202.9938972245
 23
182.66641882
 33
0.0
  0
SOLID
  5
1E8
330
1E4
100
AcDbEntity
  8
VERMASSUNG
100
AcDbTrace
 10
236.9938972245
 20
182.21641882
 30
0.0
 11
233.9938972245
 21
182.66641882
 31
0.0
 12
233.9938972245
 22
181.76641882
 32
0.0
 13
233.9938972245
 23
181.76641882
 33
0.0
  0
LINE
  5
1E9
330
1E4
100
AcDbEntity
  8
VERMASSUNG
100
AcDbLine
 10
199.9938972245
 20
175.6901985636
 30
0.0
 11
199.9938972245
 21
183.21641882
 31
0.0
  0
LINE
  5
1EA
330
1E4
100
AcDbEntity
  8
VERMASSUNG
100
AcDbLine
 10
236.9938972245
 20
165.8901985636
 30
0.0
 11
236.9938972245
 21
183.21641882
 31
0.0
  0
LINE
  5
1EB
330
1E4
100
AcDbEntity
  8
VERMASSUNG
100
AcDbLine
 10
199.9938972245
 20
182.21641882
 30
0.0
 11
236.9938972245
 21
182.21641882
 31
0.0
  0
MTEXT
  5
1EC
330
1E4
100
AcDbEntity
  8
VERMASSUNG
100
AcDbMText
 10
217.0938972744
 20
184.7945544159
 30
0.0
 40
2.0
 41
0.0
 71
     1
 72
     1
  1
37
  7
SLDTEXTSTYLE0
 73
     1
 44
1.0
  0
ENDBLK
  5
1E6
330
1E4
100
AcDbEntity
  8
0
100
AcDbBlockEnd
  0
BLOCK
  5
1EF
330
1EE
100
AcDbEntity
  8
0
100
AcDbBlockBegin
  2
_D_4
 70
     0
 10
0.0
 20
0.0
 30
0.0
  3
_D_4
  1

  0
SOLID
  5
1F1
330
1EE
100
AcDbEntity
  8
VERMASSUNG
100
AcDbTrace
 10
252.9938972245
 20
166.6901985636
 30
0.0
 11
252.5438972245
 21
163.6901985636
 31
0.0
 12
253.4438972245
 22
163.6901985636
 32
0.0
 13
253.4438972245
 23
163.6901985636
 33
0.0
  0
SOLID
  5
1F2
330
1EE
100
AcDbEntity
  8
VERMASSUNG
100
AcDbTrace
 10
252.9938972245
 20
86.6901985636
 30
0.0
 11
253.4438972245
 21
89.6901985636
 31
0.0
 12
252.5438972245
 22
89.6901985636
 32
0.0
 13
252.5438972245
 23
89.6901985636
 33
0.0
  0
LINE
  5
1F3
330
1EE
100
AcDbEntity
  8
VERMASSUNG
100
AcDbLine
 10
236.1938972245
 20
166.6901985636
 30
0.0
 11
253.9938972245
 21
166.6901985636
 31
0.0
  0
LINE
  5
1F4
330
1EE
100
AcDbEntity
  8
VERMASSUNG
100
AcDbLine
 10
236.1938972245
 20
86.6901985636
 30
0.0
 11
253.9938972245
 21
86.6901985636
 31
0.0
  0
LINE
  5
1F5
330
1EE
100
AcDbEntity
  8
VERMASSUNG
100
AcDbLine
 10
252.9938972245
 20
166.6901985636
 30
0.0
 11
252.9938972245
 21
86.6901985636
 31
0.0
  0
MTEXT
  5
1F6
330
1EE
100
AcDbEntity
  8
VERMASSUNG
100
AcDbMText
 10
250.2157619683
 20
121.5851985743
 30
0.0
 40
2.0
 41
0.0
 71
     1
 72
     1
  1
WH
  7
SLDTEXTSTYLE0
 11
-7.044195017643634E-15
 21
1.0
 31
0.0
 73
     1
 44
1.0
  0
MTEXT
  5
1F7
330
1EE
100
AcDbEntity
  8
VERMASSUNG
100
AcDbMText
 10
250.4157619196
 20
125.3851986384
 30
0.0
 40
2.0
 41
0.0
 71
     1
 72
     1
  1
%%c
  7
SLDTEXTSTYLE0
 11
-7.044195017643634E-15
 21
1.0
 31
0.0
 73
     1
 44
1.0
  0
MTEXT
  5
1F8
330
1EE
100
AcDbEntity
  8
VERMASSUNG
100
AcDbMText
 10
250.2157619683
 20
128.9951986527
 30
0.0
 40
2.0
 41
0.0
 71
     1
 72
     1
  1
80
  7
SLDTEXTSTYLE0
 11
-7.044195017643634E-15
 21
1.0
 31
0.0
 73
     1
 44
1.0
  0
ENDBLK
  5
1F0
330
1EE
100
AcDbEntity
  8
0
100
AcDbBlockEnd
  0
BLOCK
  5
1FB
330
1FA
100
AcDbEntity
  8
0
100
AcDbBlockBegin
  2
_D_5
 70
     0
 10
0.0
 20
0.0
 30
0.0
  3
_D_5
  1

  0
SOLID
  5
1FD
330
1FA
100
AcDbEntity
  8
VERMASSUNG
100
AcDbTrace
 10
246.9938972245
 20
108.6901985636
 30
0.0
 11
247.4438972245
 21
111.6901985636
 31
0.0
 12
246.5438972245
 22
111.6901985636
 32
0.0
 13
246.5438972245
 23
111.6901985636
 33
0.0
  0
SOLID
  5
1FE
330
1FA
100
AcDbEntity
  8
VERMASSUNG
100
AcDbTrace
 10
246.9938972245
 20
144.6901985636
 30
0.0
 11
246.5438972245
 21
141.6901985636
 31
0.0
 12
247.4438972245
 22
141.6901985636
 32
0.0
 13
247.4438972245
 23
141.6901985636
 33
0.0
  0
LINE
  5
1FF
330
1FA
100
AcDbEntity
  8
VERMASSUNG
100
AcDbLine
 10
235.9938972245
 20
108.6901985636
 30
0.0
 11
247.9938972245
 21
108.6901985636
 31
0.0
  0
LINE
  5
200
330
1FA
100
AcDbEntity
  8
VERMASSUNG
100
AcDbLine
 10
235.9938972245
 20
144.6901985636
 30
0.0
 11
247.9938972245
 21
144.6901985636
 31
0.0
  0
LINE
  5
201
330
1FA
100
AcDbEntity
  8
VERMASSUNG
100
AcDbLine
 10
246.9938972245
 20
108.6901985636
 30
0.0
 11
246.9938972245
 21
144.6901985636
 31
0.0
  0
MTEXT
  5
202
330
1FA
100
AcDbEntity
  8
VERMASSUNG
100
AcDbMText
 10
244.4157619196
 20
123.4851986063
 30
0.0
 40
2.0
 41
0.0
 71
     1
 72
     1
  1
%%c
  7
SLDTEXTSTYLE0
 11
6.123233995736766E-17
 21
1.0
 31
0.0
 73
     1
 44
1.0
  0
MTEXT
  5
203
330
1FA
100
AcDbEntity
  8
VERMASSUNG
100
AcDbMText
 10
244.2157619683
 20
127.0951986206
 30
0.0
 40
2.0
 41
0.0
 71
     1
 72
     1
  1
36
  7
SLDTEXTSTYLE0
 11
6.123233995736766E-17
 21
1.0
 31
0.0
 73
     1
 44
1.0
  0
ENDBLK
  5
1FC
330
1FA
100
AcDbEntity
  8
0
100
AcDbBlockEnd
  0
ENDSEC
  0
SECTION
  2
ENTITIES
  0
MTEXT
  5
78
330
1F
100
AcDbEntity
  8
KOPF_DÜNN
100
AcDbMText
 10
13.8892156294
 20
23.8442973028
 30
0.0
 40
3.0
 41
0.0
 71
     1
 72
     1
  1
A34.550.080.075
  7
SLDTEXTSTYLE0
 73
     1
 44
1.0
  0
MTEXT
  5
79
330
1F
100
AcDbEntity
  8
VERMASSUNG
100
AcDbMText
 10
13.9329988022
 20
28.8834360957
 30
0.0
 40
3.0
 41
0.0
 71
     1
 72
     1
  1
Aufnahme_Master shank
  7
SLDTEXTSTYLE0
 73
     1
 44
1.0
  0
MTEXT
  5
7A
330
1F
100
AcDbEntity
  8
VERMASSUNG
100
AcDbMText
 10
98.8601118557
 20
13.8365368761
 30
0.0
 40
2.0
 41
0.0
 71
     1
 72
     1
  1
Datum: 17.11.2011
  7
SLDTEXTSTYLE0
 73
     1
 44
1.0
  0
MTEXT
  5
7B
330
1F
100
AcDbEntity
  8
VERMASSUNG
100
AcDbMText
 10
13.933048693
 20
18.0482802738
 30
0.0
 40
2.0
 41
0.0
 71
     1
 72
     1
  1
MAS-BT A/D
  7
SLDTEXTSTYLE0
 73
     1
 44
1.0
  0
MTEXT
  5
7C
330
1F
100
AcDbEntity
  8
VERMASSUNG
100
AcDbMText
 10
13.9808475933
 20
13.9090974274
 30
0.0
 40
2.0
 41
0.0
 71
     1
 72
     1
  1
Gewicht: 4763g
  7
SLDTEXTSTYLE0
 73
     1
 44
1.0
  0
LINE
  5
7D
330
1F
100
AcDbEntity
  8
0
  6
Continuous
 62
     7
370
    15
100
AcDbLine
 10
226.3921100205
 20
166.2419857675
 30
0.0
 11
225.9438972245
 21
166.6901985636
 31
0.0
  0
LINE
  5
7E
330
1F
100
AcDbEntity
  8
0
  6
Continuous
 62
     7
370
    15
100
AcDbLine
 10
211.9438972245
 20
166.6901985636
 30
0.0
 11
211.4981674394
 21
166.2444687785
 31
0.0
  0
LINE
  5
7F
330
1F
100
AcDbEntity
  8
0
  6
Continuous
 62
     7
370
    15
100
AcDbLine
 10
195.9936099978
 20
76.6901985636
 30
0.0
 11
198.9938972245
 21
76.6901985636
 31
0.0
  0
LINE
  5
80
330
1F
100
AcDbEntity
  8
0
  6
Continuous
 62
     7
370
    15
100
AcDbLine
 10
198.9938972245
 20
176.6901985636
 30
0.0
 11
195.9934630436
 21
176.6901985636
 31
0.0
  0
ARC
  5
81
330
1F
100
AcDbEntity
  8
0
  6
Continuous
 62
     7
370
    15
100
AcDbCircle
 10
198.9938972245
 20
77.6901985636
 30
0.0
 40
1.0
100
AcDbArc
 50
270.0
 51
0.0
  0
ARC
  5
82
330
1F
100
AcDbEntity
  8
0
  6
Continuous
 62
     7
370
    15
100
AcDbCircle
 10
198.9938972245
 20
175.6901985636
 30
0.0
 40
1.0
100
AcDbArc
 50
0.0
 51
90.0
  0
ARC
  5
83
330
1F
100
AcDbEntity
  8
0
  6
Continuous
 62
     7
370
    15
100
AcDbCircle
 10
202.9938972245
 20
83.6901985636
 30
0.0
 40
3.000000000000014
100
AcDbArc
 50
90.0
 51
180.0
  0
ARC
  5
84
330
1F
100
AcDbEntity
  8
0
  6
Continuous
 62
     7
370
    15
100
AcDbCircle
 10
202.9938972245
 20
169.6901985636
 30
0.0
 40
3.0
100
AcDbArc
 50
180.0
 51
270.0
  0
LINE
  5
85
330
1F
100
AcDbEntity
  8
0
  6
Continuous
 62
     7
370
    15
100
AcDbLine
 10
236.1938972245
 20
86.6901985636
 30
0.0
 11
236.9938972245
 21
87.4901985636
 31
0.0
  0
LINE
  5
86
330
1F
100
AcDbEntity
  8
0
  6
Continuous
 62
     7
370
    15
100
AcDbLine
 10
236.9938972245
 20
165.8901985636
 30
0.0
 11
236.1938972245
 21
166.6901985636
 31
0.0
  0
LINE
  5
87
330
1F
100
AcDbEntity
  8
0
  6
Continuous
 62
     7
370
    15
100
AcDbLine
 10
208.9742906411
 20
166.6901985636
 30
0.0
 11
202.9938972245
 21
166.6901985636
 31
0.0
  0
LINE
  5
88
330
1F
100
AcDbEntity
  8
0
  6
Continuous
 62
     7
370
    15
100
AcDbLine
 10
236.1938972245
 20
166.6901985636
 30
0.0
 11
228.9414368498
 21
166.6901985636
 31
0.0
  0
LINE
  5
89
330
1F
100
AcDbEntity
  8
0
  6
Continuous
 62
     7
370
    15
100
AcDbLine
 10
202.9938972245
 20
86.6901985636
 30
0.0
 11
236.1938972245
 21
86.6901985636
 31
0.0
  0
ARC
  5
8A
330
1F
100
AcDbEntity
  8
0
  6
Continuous
 62
     7
370
    15
100
AcDbCircle
 10
163.9938972245
 20
90.7651985636
 30
0.0
 40
1.0
100
AcDbArc
 50
38.7227365094
 51
90.0
  0
ARC
  5
8B
330
1F
100
AcDbEntity
  8
0
  6
Continuous
 62
     7
370
    15
100
AcDbCircle
 10
163.9938972245
 20
162.6151985636
 30
0.0
 40
1.000000000000003
100
AcDbArc
 50
270.0
 51
321.2876440868
  0
LINE
  5
8C
330
1F
100
AcDbEntity
  8
0
  6
Continuous
 62
     7
370
    15
100
AcDbLine
 10
161.9938972245
 20
91.7651985636
 30
0.0
 11
163.9938972245
 21
91.7651985636
 31
0.0
  0
LINE
  5
8D
330
1F
100
AcDbEntity
  8
0
  6
Continuous
 62
     7
370
    15
100
AcDbLine
 10
163.9938972245
 20
161.6151985636
 30
0.0
 11
161.9938972245
 21
161.6151985636
 31
0.0
  0
LINE
  5
8E
330
1F
100
AcDbEntity
  8
0
  6
Continuous
 62
     7
370
    15
100
AcDbLine
 10
161.9938972245
 20
161.6151985636
 30
0.0
 11
61.9052834384
 21
147.0189423864
 31
0.0
  0
LINE
  5
8F
330
1F
100
AcDbEntity
  8
0
  6
Continuous
 62
     7
370
    15
100
AcDbLine
 10
61.9052834384
 20
106.3614547407
 30
0.0
 11
161.9938972245
 21
91.7651985636
 31
0.0
  0
ARC
  5
90
330
1F
100
AcDbEntity
  8
0
  6
Continuous
 62
     7
370
    15
100
AcDbCircle
 10
62.1938972245
 20
108.3405207028
 30
0.0
 40
2.000000000000007
100
AcDbArc
 50
180.0
 51
261.7028550302
  0
ARC
  5
91
330
1F
100
AcDbEntity
  8
0
  6
Continuous
 62
     7
370
    15
100
AcDbCircle
 10
62.1938972245
 20
145.0398764243
 30
0.0
 40
2.0
100
AcDbArc
 50
98.2971449698
 51
180.0
  0
SPLINE
  5
92
330
1F
100
AcDbEntity
  8
0
  6
Continuous
 62
     7
370
    15
100
AcDbSpline
210
0.0
220
0.0
230
1.0
 70
    24
 71
     3
 72
    11
 73
     7
 74
     0
 42
0.000000001
 43
0.00000001
 40
0.0
 40
0.0
 40
0.0
 40
0.0
 40
0.2164567244934199
 40
0.4403141600939194
 40
0.7519028444798735
 40
1.0
 40
1.0
 40
1.0
 40
1.0
 10
214.6591774150811
 20
124.9655219307018
 30
0.0
 10
214.9082467146865
 20
124.7704067883778
 30
0.0
 10
215.414901057339
 20
124.3735054668084
 30
0.0
 10
216.3551134899671
 20
123.6369647414051
 30
0.0
 10
217.3636538585752
 20
122.8468974875434
 30
0.0
 10
218.0090571628086
 20
122.3413034309438
 30
0.0
 10
218.2951510971673
 20
122.1171840440548
 30
0.0
  0
SPLINE
  5
93
330
1F
100
AcDbEntity
  8
0
  6
Continuous
 62
     7
370
    15
100
AcDbSpline
210
0.0
220
0.0
230
1.0
 70
    24
 71
     3
 72
    11
 73
     7
 74
     0
 42
0.000000001
 43
0.00000001
 40
0.0
 40
0.0
 40
0.0
 40
0.0
 40
0.1845133558519063
 40
0.5180565039163845
 40
0.8676122830485022
 40
1.0
 40
1.0
 40
1.0
 40
1.0
 10
218.2951510971673
 20
122.1171840440548
 30
0.0
 10
218.5439864850503
 20
122.2173447542051
 30
0.0
 10
219.2426393847392
 20
122.4985650869593
 30
0.0
 10
220.5449096612597
 20
123.0227522486559
 30
0.0
 10
221.754976214011
 20
123.5098257565038
 30
0.0
 10
222.402106985842
 20
123.770307507987
 30
0.0
 10
222.5798709066086
 20
123.8418606769095
 30
0.0
  0
SPLINE
  5
94
330
1F
100
AcDbEntity
  8
0
  6
Continuous
 62
     7
370
    15
100
AcDbSpline
210
0.0
220
0.0
230
1.0
 70
    24
 71
     3
 72
    11
 73
     7
 74
     0
 42
0.000000001
 43
0.00000001
 40
0.0
 40
0.0
 40
0.0
 40
0.0
 40
0.216456724493429
 40
0.4403141600939131
 40
0.751902844479882
 40
1.0
 40
1.0
 40
1.0
 40
1.0
 10
222.5798709066086
 20
123.8418606769095
 30
0.0
 10
222.6243109267215
 20
124.1551185888326
 30
0.0
 10
222.7147103826699
 20
124.7923447812921
 30
0.0
 10
222.8824671454771
 20
125.9748629956038
 30
0.0
 10
223.0624152737154
 20
127.2433182024913
 30
0.0
 10
223.1775709186163
 20
128.0550508879437
 30
0.0
 10
223.2286170339635
 20
128.4148751964115
 30
0.0
  0
SPLINE
  5
95
330
1F
100
AcDbEntity
  8
0
  6
Continuous
 62
     7
370
    15
100
AcDbSpline
210
0.0
220
0.0
230
1.0
 70
    24
 71
     3
 72
    11
 73
     7
 74
     0
 42
0.000000001
 43
0.00000001
 40
0.0
 40
0.0
 40
0.0
 40
0.0
 40
0.1323877169514937
 40
0.4819434960836148
 40
0.8154866441480856
 40
1.0
 40
1.0
 40
1.0
 40
1.0
 10
219.5926433518772
 20
131.2632130830585
 30
0.0
 10
219.4148794311107
 20
131.191659914136
 30
0.0
 10
218.7677486592797
 20
130.9311781626527
 30
0.0
 10
217.5576821065283
 20
130.444104654805
 30
0.0
 10
216.2554118300078
 20
129.9199174931084
 30
0.0
 10
215.5567589303189
 20
129.6386971603541
 30
0.0
 10
215.307923542436
 20
129.5385364502037
 30
0.0
  0
CIRCLE
  5
96
330
1F
100
AcDbEntity
  8
0
  6
Continuous
 62
     7
370
    15
100
AcDbCircle
 10
218.9438972245
 20
126.6901985636
 30
0.0
 40
4.699999999999999
  0
SPLINE
  5
97
330
1F
100
AcDbEntity
  8
0
  6
Continuous
 62
     7
370
    15
100
AcDbSpline
210
0.0
220
0.0
230
1.0
 70
    24
 71
     3
 72
    11
 73
     7
 74
     0
 42
0.000000001
 43
0.00000001
 40
0.0
 40
0.0
 40
0.0
 40
0.0
 40
0.2164567244934167
 40
0.4403141600939068
 40
0.7519028444798755
 40
0.9999999999999999
 40
0.9999999999999999
 40
0.9999999999999999
 40
0.9999999999999999
 10
215.307923542436
 20
129.5385364502037
 30
0.0
 10
215.2634835223231
 20
129.2252785382806
 30
0.0
 10
215.1730840663747
 20
128.5880523458212
 30
0.0
 10
215.0053273035675
 20
127.4055341315096
 30
0.0
 10
214.8253791753292
 20
126.137078924622
 30
0.0
 10
214.7102235304282
 20
125.3253462391696
 30
0.0
 10
214.6591774150811
 20
124.9655219307018
 30
0.0
  0
SPLINE
  5
98
330
1F
100
AcDbEntity
  8
0
  6
Continuous
 62
     7
370
    15
100
AcDbSpline
210
0.0
220
0.0
230
1.0
 70
    24
 71
     3
 72
    11
 73
     7
 74
     0
 42
0.000000001
 43
0.00000001
 40
0.0
 40
0.0
 40
0.0
 40
0.0
 40
0.2164567244934049
 40
0.4403141600939169
 40
0.7519028444798767
 40
1.0
 40
1.0
 40
1.0
 40
1.0
 10
223.2286170339635
 20
128.4148751964115
 30
0.0
 10
222.9795477343581
 20
128.6099903387355
 30
0.0
 10
222.4728933917056
 20
129.0068916603049
 30
0.0
 10
221.5326809590774
 20
129.7434323857082
 30
0.0
 10
220.5241405904694
 20
130.5334996395699
 30
0.0
 10
219.8787372862359
 20
131.0390936961695
 30
0.0
 10
219.5926433518772
 20
131.2632130830585
 30
0.0
  0
CIRCLE
  5
99
330
1F
100
AcDbEntity
  8
0
  6
Continuous
 62
     7
370
    15
100
AcDbCircle
 10
218.9438972245
 20
126.6901985636
 30
0.0
 40
8.000000000000002
  0
CIRCLE
  5
9A
330
1F
100
AcDbEntity
  8
0
  6
Continuous
 62
     7
370
    15
100
AcDbCircle
 10
218.9438972245
 20
126.6901985636
 30
0.0
 40
7.000000000000001
  0
ARC
  5
9B
330
1F
100
AcDbEntity
  8
0
  6
Continuous
 62
     7
370
    15
100
AcDbCircle
 10
218.9438972245
 20
126.6901985636
 30
0.0
 40
4.000000000000012
100
AcDbArc
 50
351.9256702737
 51
51.9256702737
  0
ARC
  5
9C
330
1F
100
AcDbEntity
  8
0
  6
Continuous
 62
     7
370
    15
100
AcDbCircle
 10
218.9438972245
 20
126.6901985636
 30
0.0
 40
3.999999999999948
100
AcDbArc
 50
111.9256702737
 51
171.9256702737
  0
ARC
  5
9D
330
1F
100
AcDbEntity
  8
0
  6
Continuous
 62
     7
370
    15
100
AcDbCircle
 10
218.9438972245
 20
126.6901985636
 30
0.0
 40
4.000000000000019
100
AcDbArc
 50
291.9256702737
 51
351.9256702737
  0
ARC
  5
9E
330
1F
100
AcDbEntity
  8
0
  6
Continuous
 62
     7
370
    15
100
AcDbCircle
 10
218.9438972245
 20
126.6901985636
 30
0.0
 40
4.000000000000022
100
AcDbArc
 50
171.9256702737
 51
231.9256702737
  0
ARC
  5
9F
330
1F
100
AcDbEntity
  8
0
  6
Continuous
 62
     7
370
    15
100
AcDbCircle
 10
218.9438972245
 20
126.6901985636
 30
0.0
 40
4.000000000000012
100
AcDbArc
 50
51.9256702737
 51
111.9256702737
  0
ARC
  5
A0
330
1F
100
AcDbEntity
  8
0
  6
Continuous
 62
     7
370
    15
100
AcDbCircle
 10
218.9438972245
 20
126.6901985636
 30
0.0
 40
4.000000000000022
100
AcDbArc
 50
231.9256702737
 51
291.9256702737
  0
LINE
  5
A1
330
1F
100
AcDbEntity
  8
0
  6
Continuous
 62
     7
370
    15
100
AcDbLine
 10
211.9438972245
 20
166.6901985636
 30
0.0
 11
225.9438972245
 21
166.6901985636
 31
0.0
  0
SPLINE
  5
A2
330
1F
100
AcDbEntity
  8
0
  6
Continuous
 62
     7
370
    15
100
AcDbSpline
210
0.0
220
0.0
230
1.0
 70
     8
 71
     3
 72
    12
 73
     8
 74
     0
 42
0.000000001
 43
0.00000001
 40
0.0
 40
0.0
 40
0.0
 40
0.0
 40
0.000512515335492
 40
0.2509311781591447
 40
0.5009716914396601
 40
0.7506335204375875
 40
1.0
 40
1.0
 40
1.0
 40
1.0
 10
195.9934630435921
 20
176.6900735213729
 30
0.0
 10
195.993607500279
 20
176.6901151946903
 30
0.0
 10
196.0643345285697
 20
176.7105187492778
 30
0.0
 10
195.8210709682925
 20
176.6389071178912
 30
0.0
 10
195.2155463540877
 20
176.4705539094192
 30
0.0
 10
194.1903826696715
 20
176.1932203189637
 30
0.0
 10
193.2091988024467
 20
175.9646015696401
 30
0.0
 10
192.7188972252093
 20
175.8503598488744
 30
0.0
  0
SPLINE
  5
A3
330
1F
100
AcDbEntity
  8
0
  6
Continuous
 62
     7
370
    15
100
AcDbSpline
210
0.0
220
0.0
230
1.0
 70
     8
 71
     3
 72
    13
 73
     9
 74
     0
 42
0.000000001
 43
0.00000001
 40
0.0
 40
0.0
 40
0.0
 40
0.0
 40
0.2492492380419432
 40
0.4988437701386138
 40
0.6658825660855864
 40
0.8320256711230404
 40
0.9994886337290243
 40
1.0
 40
1.0
 40
1.0
 40
1.0
 10
192.7188972252093
 20
77.53003727823877
 30
0.0
 10
193.2100819486286
 20
77.41554975454883
 30
0.0
 10
194.1931318515683
 20
77.18641610342931
 30
0.0
 10
195.0921752763783
 20
76.94320635227925
 30
0.0
 10
195.6505001770654
 20
76.78926914489364
 30
0.0
 10
195.9161714017719
 20
76.71301558604407
 30
0.0
 10
196.025065647794
 20
76.6811014017196
 30
0.0
 10
195.9937054679712
 20
76.69025431566382
 30
0.0
 10
195.9936099977984
 20
76.69028217998991
 30
0.0
  0
LINE
  5
A4
330
1F
100
AcDbEntity
  8
0
  6
Continuous
 62
     7
370
    15
100
AcDbLine
 10
192.7188972245
 20
77.5300372782
 30
0.0
 11
192.7188972245
 21
175.8503598489
 31
0.0
  0
SPLINE
  5
A5
330
1F
100
AcDbEntity
  8
0
  6
Continuous
 62
     7
370
    15
100
AcDbSpline
210
0.0
220
0.0
230
1.0
 70
     8
 71
     3
 72
    12
 73
     8
 74
     0
 42
0.000000001
 43
0.00000001
 40
0.0
 40
0.0
 40
0.0
 40
0.0
 40
0.4999999999999999
 40
0.4999999999999999
 40
0.7499999999999999
 40
0.7499999999999999
 40
1.0
 40
1.0
 40
1.0
 40
1.0
 10
192.0781768893657
 20
174.8962455152575
 30
0.0
 10
191.5392801942681
 20
173.8385456977565
 30
0.0
 10
190.9769493835485
 20
172.7361772627979
 30
0.0
 10
190.108283140958
 20
171.0362126564351
 30
0.0
 10
189.8139544186155
 20
170.4606942409965
 30
0.0
 10
189.2204234196477
 20
169.3012655725379
 30
0.0
 10
188.9211971615293
 20
168.7173059034567
 30
0.0
 10
188.6197103132759
 20
168.1295959428679
 30
0.0
  0
SPLINE
  5
A6
330
1F
100
AcDbEntity
  8
0
  6
Continuous
 62
     7
370
    15
100
AcDbSpline
210
0.0
220
0.0
230
1.0
 70
     8
 71
     3
 72
     9
 73
     5
 74
     0
 42
0.000000001
 43
0.00000001
 40
0.0
 40
0.0
 40
0.0
 40
0.0
 40
0.5047934464435396
 40
0.9999999999999999
 40
0.9999999999999999
 40
0.9999999999999999
 40
0.9999999999999999
 10
192.7188736299344
 20
175.850303813644
 30
0.0
 10
192.6104914674273
 20
175.6894627210876
 30
0.0
 10
192.3957855054726
 20
175.3708351840431
 30
0.0
 10
192.1833579114214
 20
175.0534605837256
 30
0.0
 10
192.0781623746909
 20
174.8962946017159
 30
0.0
  0
SPLINE
  5
A7
330
1F
100
AcDbEntity
  8
0
  6
Continuous
 62
     7
370
    15
100
AcDbSpline
210
0.0
220
0.0
230
1.0
 70
     8
 71
     3
 72
     9
 73
     5
 74
     0
 42
0.000000001
 43
0.00000001
 40
0.0
 40
0.0
 40
0.0
 40
0.0
 40
0.4952065535550564
 40
1.0
 40
1.0
 40
1.0
 40
1.0
 10
192.0781623746909
 20
78.48410252539716
 30
0.0
 10
192.183357911421
 20
78.32693654338809
 30
0.0
 10
192.3957855054722
 20
78.00956194307071
 30
0.0
 10
192.610491467427
 20
77.69093440602613
 30
0.0
 10
192.7188736299344
 20
77.53009331346914
 30
0.0
  0
SPLINE
  5
A8
330
1F
100
AcDbEntity
  8
0
  6
Continuous
 62
     7
370
    15
100
AcDbSpline
210
0.0
220
0.0
230
1.0
 70
     8
 71
     3
 72
    12
 73
     8
 74
     0
 42
0.000000001
 43
0.00000001
 40
0.0
 40
0.0
 40
0.0
 40
0.0
 40
0.2499999999999993
 40
0.2499999999999993
 40
0.4999999999999986
 40
0.4999999999999986
 40
1.0
 40
1.0
 40
1.0
 40
1.0
 10
192.0781768571268
 20
78.48415167513134
 30
0.0
 10
191.8088393357579
 20
79.01278406381599
 30
0.0
 10
191.5330692183639
 20
79.5537087177627
 30
0.0
 10
190.9708089317581
 20
80.65576547212575
 30
0.0
 10
190.6837235583534
 20
81.21806231136257
 30
0.0
 10
189.8132971176341
 20
82.92145754668256
 30
0.0
 10
189.2212871214648
 20
84.07810431776466
 30
0.0
 10
188.6197103132759
 20
85.25080118424528
 30
0.0
  0
LINE
  5
A9
330
1F
100
AcDbEntity
  8
0
  6
Continuous
 62
     7
370
    15
100
AcDbLine
 10
164.9938972245
 20
79.6883103036
 30
0.0
 11
164.9938972245
 21
173.6920868235
 31
0.0
  0
SPLINE
  5
AA
330
1F
100
AcDbEntity
  8
0
  6
Continuous
 62
     7
370
    15
100
AcDbSpline
210
0.0
220
0.0
230
1.0
 70
     8
 71
     3
 72
    12
 73
     8
 74
     0
 42
0.000000001
 43
0.00000001
 40
0.0
 40
0.0
 40
0.0
 40
0.0
 40
0.2500000000000004
 40
0.2500000000000004
 40
0.5000000000000009
 40
0.5000000000000009
 40
1.0
 40
1.0
 40
1.0
 40
1.0
 10
165.380033644572
 20
174.6246322974278
 30
0.0
 10
165.3284035224623
 20
174.5684280267132
 30
0.0
 10
165.2798712894717
 20
174.5071386161928
 30
0.0
 10
165.1900461525139
 20
174.3726765421481
 30
0.0
 10
165.1483358793015
 20
174.2985574719053
 30
0.0
 10
165.0422044991393
 20
174.0622498267368
 30
0.0
 10
164.9938972245223
 20
173.8804262840869
 30
0.0
 10
164.9938972245223
 20
173.6920868234978
 30
0.0
  0
SPLINE
  5
AB
330
1F
100
AcDbEntity
  8
0
  6
Continuous
 62
     7
370
    15
100
AcDbSpline
210
0.0
220
0.0
230
1.0
 70
     8
 71
     3
 72
     8
 73
     4
 74
     0
 42
0.000000001
 43
0.00000001
 40
0.0
 40
0.0
 40
0.0
 40
0.0
 40
1.0
 40
1.0
 40
1.0
 40
1.0
 10
165.9938972245223
 20
174.7952900590209
 30
0.0
 10
165.7670029808224
 20
174.7952900590209
 30
0.0
 10
165.5491533348961
 20
174.7312778920521
 30
0.0
 10
165.380033644572
 20
174.6246322974278
 30
0.0
  0
SPLINE
  5
AC
330
1F
100
AcDbEntity
  8
0
  6
Continuous
 62
     7
370
    15
100
AcDbSpline
210
0.0
220
0.0
230
1.0
 70
     8
 71
     3
 72
    10
 73
     6
 74
     0
 42
0.000000001
 43
0.00000001
 40
0.0
 40
0.0
 40
0.0
 40
0.0
 40
0.5
 40
0.5
 40
1.0
 40
1.0
 40
1.0
 40
1.0
 10
165.380033644572
 20
78.75576482968532
 30
0.0
 10
165.4646442853027
 20
78.70241000107262
 30
0.0
 10
165.5598789074093
 20
78.65984053912243
 30
0.0
 10
165.7699162665892
 20
78.60055820444146
 30
0.0
 10
165.8803481713733
 20
78.58510706809221
 30
0.0
 10
165.9938972245223
 20
78.58510706809221
 30
0.0
  0
SPLINE
  5
AD
330
1F
100
AcDbEntity
  8
0
  6
Continuous
 62
     7
370
    15
100
AcDbSpline
210
0.0
220
0.0
230
1.0
 70
     8
 71
     3
 72
    12
 73
     8
 74
     0
 42
0.000000001
 43
0.00000001
 40
0.0
 40
0.0
 40
0.0
 40
0.0
 40
0.2500000000000039
 40
0.2500000000000039
 40
0.5000000000000079
 40
0.5000000000000079
 40
1.0
 40
1.0
 40
1.0
 40
1.0
 10
165.380033644572
 20
78.75576482968532
 30
0.0
 10
165.3284035224622
 20
78.81196910039995
 30
0.0
 10
165.2798712894717
 20
78.87325851092037
 30
0.0
 10
165.1900461525139
 20
79.00772058496506
 30
0.0
 10
165.1483358793015
 20
79.08183965520787
 30
0.0
 10
165.0422044991393
 20
79.31814730037634
 30
0.0
 10
164.9938972245223
 20
79.49997084302623
 30
0.0
 10
164.9938972245223
 20
79.68831030361534
 30
0.0
  0
LINE
  5
AE
330
1F
100
AcDbEntity
  8
0
  6
Continuous
 62
     7
370
    15
100
AcDbLine
 10
177.6688972245
 20
174.795290059
 30
0.0
 11
165.9938972245
 21
174.795290059
 31
0.0
  0
LINE
  5
AF
330
1F
100
AcDbEntity
  8
0
  6
Continuous
 62
     7
370
    15
100
AcDbLine
 10
177.6688972245
 20
78.5851070681
 30
0.0
 11
177.6688972245
 21
174.795290059
 31
0.0
  0
LINE
  5
B0
330
1F
100
AcDbEntity
  8
0
  6
Continuous
 62
     7
370
    15
100
AcDbLine
 10
165.9938972245
 20
78.5851070681
 30
0.0
 11
177.6688972245
 21
78.5851070681
 31
0.0
  0
LINE
  5
B1
330
1F
100
AcDbEntity
  8
0
  6
Continuous
 62
     7
370
    15
100
AcDbLine
 10
199.9938972245
 20
77.6901985636
 30
0.0
 11
199.9938972245
 21
175.690198558
 31
0.0
  0
SPLINE
  5
B2
330
1F
100
AcDbEntity
  8
0
  6
Continuous
 62
     7
370
    15
100
AcDbSpline
210
0.0
220
0.0
230
1.0
 70
     8
 71
     3
 72
     8
 73
     4
 74
     0
 42
0.000000001
 43
0.00000001
 40
0.0
 40
0.0
 40
0.0
 40
0.0
 40
0.0012417047560384
 40
0.0012417047560384
 40
0.0012417047560384
 40
0.0012417047560384
 10
178.22646626105
 20
174.0107687174776
 30
0.0
 10
178.0410777097555
 20
174.2724418030261
 30
0.0
 10
177.8552114641476
 20
174.5339459119037
 30
0.0
 10
177.6688972245223
 20
174.7952900590209
 30
0.0
  0
SPLINE
  5
B3
330
1F
100
AcDbEntity
  8
0
  6
Continuous
 62
     7
370
    15
100
AcDbSpline
210
0.0
220
0.0
230
1.0
 70
     8
 71
     3
 72
     8
 73
     4
 74
     0
 42
0.000000001
 43
0.00000001
 40
0.0
 40
0.0
 40
0.0
 40
0.0
 40
1.0
 40
1.0
 40
1.0
 40
1.0
 10
181.7680841357686
 20
167.6204746437396
 30
0.0
 10
180.5930966598657
 20
169.7535513986755
 30
0.0
 10
179.4118501257693
 20
171.8832699645516
 30
0.0
 10
178.22646626105
 20
174.0107687174776
 30
0.0
  0
SPLINE
  5
B4
330
1F
100
AcDbEntity
  8
0
  6
Continuous
 62
     7
370
    15
100
AcDbSpline
210
0.0
220
0.0
230
1.0
 70
     8
 71
     3
 72
     8
 73
     4
 74
     0
 42
0.000000001
 43
0.00000001
 40
0.0
 40
0.0
 40
0.0
 40
0.0
 40
1.0
 40
1.0
 40
1.0
 40
1.0
 10
181.7680841357686
 20
85.75992248337359
 30
0.0
 10
180.5930473379416
 20
83.62675618922825
 30
0.0
 10
179.4118001305026
 20
81.49703743224656
 30
0.0
 10
178.22646626105
 20
79.36962840963558
 30
0.0
  0
SPLINE
  5
B5
330
1F
100
AcDbEntity
  8
0
  6
Continuous
 62
     7
370
    15
100
AcDbSpline
210
0.0
220
0.0
230
1.0
 70
     8
 71
     3
 72
     8
 73
     4
 74
     0
 42
0.000000001
 43
0.00000001
 40
0.0
 40
0.0
 40
0.0
 40
0.0
 40
0.0012417047560385
 40
0.0012417047560385
 40
0.0012417047560385
 40
0.0012417047560385
 10
177.6688972245223
 20
78.5851070680922
 30
0.0
 10
177.8552114641477
 20
78.84645121520944
 30
0.0
 10
178.0410777097555
 20
79.10795532408703
 30
0.0
 10
178.22646626105
 20
79.36962840963558
 30
0.0
  0
SPLINE
  5
B6
330
1F
100
AcDbEntity
  8
0
  6
Continuous
 62
     7
370
    15
100
AcDbSpline
210
0.0
220
0.0
230
1.0
 70
     8
 71
     3
 72
    10
 73
     6
 74
     0
 42
0.000000001
 43
0.00000001
 40
0.0
 40
0.0
 40
0.0
 40
0.0
 40
0.5
 40
0.5
 40
1.0
 40
1.0
 40
1.0
 40
1.0
 10
182.1438972245222
 20
86.1106673494074
 30
0.0
 10
182.064897156271
 20
86.07490311479951
 30
0.0
 10
181.9911399059944
 20
86.02541351124006
 30
0.0
 10
181.8630847828612
 20
85.90512501973713
 30
0.0
 10
181.8102347484495
 20
85.83644286674777
 30
0.0
 10
181.7680841357686
 20
85.75992248337359
 30
0.0
  0
SPLINE
  5
B7
330
1F
100
AcDbEntity
  8
0
  6
Continuous
 62
     7
370
    15
100
AcDbSpline
210
0.0
220
0.0
230
1.0
 70
     8
 71
     3
 72
    10
 73
     6
 74
     0
 42
0.000000001
 43
0.00000001
 40
0.0
 40
0.0
 40
0.0
 40
0.0
 40
0.5
 40
0.5
 40
1.0
 40
1.0
 40
1.0
 40
1.0
 10
182.1438972245222
 20
167.2697297777057
 30
0.0
 10
182.0646107768395
 20
167.3056236595582
 30
0.0
 10
181.9910985577189
 20
167.3551253694092
 30
0.0
 10
181.8641461048483
 20
167.4741730660778
 30
0.0
 10
181.8100802561116
 20
167.5442347263461
 30
0.0
 10
181.7680841357686
 20
167.6204746437396
 30
0.0
  0
SPLINE
  5
B8
330
1F
100
AcDbEntity
  8
0
  6
Continuous
 62
     7
370
    15
100
AcDbSpline
210
0.0
220
0.0
230
1.0
 70
     8
 71
     3
 72
     8
 73
     4
 74
     0
 42
0.000000001
 43
0.00000001
 40
0.0
 40
0.0
 40
0.0
 40
0.0
 40
1.0
 40
1.0
 40
1.0
 40
1.0
 10
182.4609044587961
 20
167.2022707592192
 30
0.0
 10
182.3512026734945
 20
167.2014123420199
 30
0.0
 10
182.24385565251
 20
167.2244774538947
 30
0.0
 10
182.1438972245222
 20
167.2697297777055
 30
0.0
  0
SPLINE
  5
B9
330
1F
100
AcDbEntity
  8
0
  6
Continuous
 62
     7
370
    15
100
AcDbSpline
210
0.0
220
0.0
230
1.0
 70
     8
 71
     3
 72
     8
 73
     4
 74
     0
 42
0.000000001
 43
0.00000001
 40
0.0
 40
0.0
 40
0.0
 40
0.0
 40
1.0
 40
1.0
 40
1.0
 40
1.0
 10
182.4609044587961
 20
86.17812636789394
 30
0.0
 10
182.3512026734944
 20
86.17898478509325
 30
0.0
 10
182.2438556525099
 20
86.15591967321846
 30
0.0
 10
182.1438972245222
 20
86.11066734940755
 30
0.0
  0
SPLINE
  5
BA
330
1F
100
AcDbEntity
  8
0
  6
Continuous
 62
     7
370
    15
100
AcDbSpline
210
0.0
220
0.0
230
1.0
 70
     8
 71
     3
 72
    12
 73
     8
 74
     0
 42
0.000000001
 43
0.00000001
 40
0.0
 40
0.0
 40
0.0
 40
0.0
 40
0.2500000000000049
 40
0.2500000000000049
 40
0.5000000000000098
 40
0.5000000000000098
 40
1.0
 40
1.0
 40
1.0
 40
1.0
 10
188.6197103132759
 20
168.1295959428679
 30
0.0
 10
188.583489891889
 20
168.0589888747681
 30
0.0
 10
188.5405642172411
 20
167.9952542834424
 30
0.0
 10
188.4430376339822
 20
167.8794801071939
 30
0.0
 10
188.3876061143654
 20
167.8269322631824
 30
0.0
 10
188.2091182114613
 20
167.6927836599681
 30
0.0
 10
188.0722813828135
 20
167.6322615579042
 30
0.0
 10
187.926889990249
 20
167.6117149739758
 30
0.0
  0
SPLINE
  5
BB
330
1F
100
AcDbEntity
  8
0
  6
Continuous
 62
     7
370
    15
100
AcDbSpline
210
0.0
220
0.0
230
1.0
 70
     8
 71
     3
 72
    12
 73
     8
 74
     0
 42
0.000000001
 43
0.00000001
 40
0.0
 40
0.0
 40
0.0
 40
0.0
 40
0.249999999999999
 40
0.249999999999999
 40
0.499999999999998
 40
0.499999999999998
 40
1.0
 40
1.0
 40
1.0
 40
1.0
 10
188.6197103132759
 20
85.25080118424528
 30
0.0
 10
188.5834898918889
 20
85.3214082523452
 30
0.0
 10
188.540564217241
 20
85.3851428436709
 30
0.0
 10
188.4430376339821
 20
85.50091701991933
 30
0.0
 10
188.3876061143654
 20
85.55346486393076
 30
0.0
 10
188.2091182114612
 20
85.68761346714516
 30
0.0
 10
188.0722813828135
 20
85.74813556920893
 30
0.0
 10
187.926889990249
 20
85.76868215313735
 30
0.0
  0
SPLINE
  5
BC
330
1F
100
AcDbEntity
  8
0
  6
Continuous
 62
     7
370
    15
100
AcDbSpline
210
0.0
220
0.0
230
1.0
 70
    11
 71
     3
 72
    66
 73
    62
 74
     0
 42
0.000000001
 43
0.00000001
 40
0.0
 40
0.0
 40
0.0
 40
0.0
 40
0.0312499999999999
 40
0.0312499999999999
 40
0.0624999999999999
 40
0.0624999999999999
 40
0.0937499999999998
 40
0.0937499999999998
 40
0.1249999999999997
 40
0.1249999999999997
 40
0.1562499999999997
 40
0.1562499999999997
 40
0.1874999999999996
 40
0.1874999999999996
 40
0.2187499999999995
 40
0.2187499999999995
 40
0.2499999999999994
 40
0.2499999999999994
 40
0.2812499999999994
 40
0.2812499999999994
 40
0.3124999999999993
 40
0.3124999999999993
 40
0.3437499999999992
 40
0.3437499999999992
 40
0.3749999999999992
 40
0.3749999999999992
 40
0.4062499999999991
 40
0.4062499999999991
 40
0.437499999999999
 40
0.437499999999999
 40
0.4687499999999989
 40
0.4687499999999989
 40
0.4999999999999989
 40
0.4999999999999989
 40
0.5312499999999988
 40
0.5312499999999988
 40
0.5624999999999988
 40
0.5624999999999988
 40
0.6249999999999987
 40
0.6249999999999987
 40
0.6562499999999988
 40
0.6562499999999988
 40
0.6874999999999989
 40
0.6874999999999989
 40
0.7187499999999991
 40
0.7187499999999991
 40
0.7499999999999992
 40
0.7499999999999992
 40
0.7812499999999993
 40
0.7812499999999993
 40
0.8124999999999996
 40
0.8124999999999996
 40
0.8437499999999997
 40
0.8437499999999997
 40
0.8749999999999998
 40
0.8749999999999998
 40
0.90625
 40
0.90625
 40
0.9375000000000001
 40
0.9375000000000001
 40
1.0
 40
1.0
 40
1.0
 40
1.0
 10
185.1938972245222
 20
109.8302812527132
 30
0.0
 10
185.3590975151861
 20
109.8302812527132
 30
0.0
 10
185.5215300564827
 20
109.8451872820711
 30
0.0
 10
185.8410882120727
 20
109.9036224608135
 30
0.0
 10
185.9998715500497
 20
109.9478635131892
 30
0.0
 10
186.3026095665291
 20
110.0634550586117
 30
0.0
 10
186.4461887316634
 20
110.1342310288304
 30
0.0
 10
186.7179184615315
 20
110.301669560743
 30
0.0
 10
186.8465470250692
 20
110.3992088330637
 30
0.0
 10
187.0771127867364
 20
110.6126271932651
 30
0.0
 10
187.1805867879858
 20
110.7292418452912
 30
0.0
 10
187.3633473259115
 20
110.982967209311
 30
0.0
 10
187.4409915821401
 20
111.1182600683797
 30
0.0
 10
187.5656842328302
 20
111.3986064237713
 30
0.0
 10
187.6136882134087
 20
111.5457272996073
 30
0.0
 10
187.6779199557269
 20
111.8477174039846
 30
0.0
 10
187.6938093997691
 20
111.9998411715539
 30
0.0
 10
187.6939843301243
 20
112.3063238143801
 30
0.0
 10
187.6777536787894
 20
112.4623097354458
 30
0.0
 10
187.6139724560798
 20
112.7648892044151
 30
0.0
 10
187.5667803446835
 20
112.9122677158073
 30
0.0
 10
187.4416137270256
 20
113.199056421185
 30
0.0
 10
187.3633542396506
 20
113.3380135227229
 30
0.0
 10
187.1824340562952
 20
113.5956071829909
 30
0.0
 10
187.0791488273713
 20
113.7158997266919
 30
0.0
 10
186.8458970853226
 20
113.9386205443386
 30
0.0
 10
186.719483217057
 20
114.0375984483305
 30
0.0
 10
186.4488109463624
 20
114.2108153029396
 30
0.0
 10
186.3027291741981
 20
114.2857963404163
 30
0.0
 10
185.9998447287253
 20
114.4061245105121
 30
0.0
 10
185.8440143690855
 20
114.4515081980013
 30
0.0
 10
185.5236688798201
 20
114.5129344584223
 30
0.0
 10
185.3579587938485
 20
114.5286880799421
 30
0.0
 10
185.031627405152
 20
114.5288003251975
 30
0.0
 10
184.869440319325
 20
114.5136680952915
 30
0.0
 10
184.5470647381164
 20
114.4524159821111
 30
0.0
 10
184.3890492640789
 20
114.4064092387358
 30
0.0
 10
183.9376383890034
 20
114.2275285094939
 30
0.0
 10
183.6585589319512
 20
114.049376402195
 30
0.0
 10
183.3124852274528
 20
113.7198799859079
 30
0.0
 10
183.2068432115381
 20
113.5975071460679
 30
0.0
 10
183.0250597355674
 20
113.3391044419533
 30
0.0
 10
182.9481719121834
 20
113.202872876405
 30
0.0
 10
182.8225173548131
 20
112.9164374145189
 30
0.0
 10
182.7742092788984
 20
112.7661303299434
 30
0.0
 10
182.7103913934581
 20
112.4645623998589
 30
0.0
 10
182.6940632164152
 20
112.3116963373944
 30
0.0
 10
182.6937337263556
 20
112.0016812206509
 30
0.0
 10
182.7098302381902
 20
111.8488122202983
 30
0.0
 10
182.7730589754514
 20
111.5497794545234
 30
0.0
 10
182.8208955688619
 20
111.4017138581005
 30
0.0
 10
182.9462388867753
 20
111.119156819955
 30
0.0
 10
183.0229355613006
 20
110.9855404878313
 30
0.0
 10
183.2039869279523
 20
110.7332506178992
 30
0.0
 10
183.3094625383133
 20
110.6139073088313
 30
0.0
 10
183.5399891069895
 20
110.4002235293464
 30
0.0
 10
183.6657085446198
 20
110.3045635546867
 30
0.0
 10
183.9384753938166
 20
110.1358424856829
 30
0.0
 10
184.0841947702226
 20
110.0639752770296
 30
0.0
 10
184.5352638753307
 20
109.8913241997612
 30
0.0
 10
184.8634966431945
 20
109.8302812527132
 30
0.0
 10
185.1938972245222
 20
109.8302812527132
 30
0.0
  0
SPLINE
  5
BD
330
1F
100
AcDbEntity
  8
0
  6
Continuous
 62
     7
370
    15
100
AcDbSpline
210
0.0
220
0.0
230
1.0
 70
     8
 71
     3
 72
    10
 73
     6
 74
     0
 42
0.000000001
 43
0.00000001
 40
0.0
 40
0.0
 40
0.0
 40
0.0
 40
0.5
 40
0.5
 40
1.0
 40
1.0
 40
1.0
 40
1.0
 10
187.9268899902484
 20
167.6117149739786
 30
0.0
 10
187.0793256234801
 20
167.4919379219176
 30
0.0
 10
186.1986121877582
 20
167.3932477422537
 30
0.0
 10
184.3710559365426
 20
167.2519753360166
 30
0.0
 10
183.4176235334414
 20
167.209757092339
 30
0.0
 10
182.4609044587961
 20
167.2022707592192
 30
0.0
  0
SPLINE
  5
BE
330
1F
100
AcDbEntity
  8
0
  6
Continuous
 62
     7
370
    15
100
AcDbSpline
210
0.0
220
0.0
230
1.0
 70
     8
 71
     3
 72
    10
 73
     6
 74
     0
 42
0.000000001
 43
0.00000001
 40
0.0
 40
0.0
 40
0.0
 40
0.0
 40
0.5
 40
0.5
 40
1.0
 40
1.0
 40
1.0
 40
1.0
 10
187.9268899902484
 20
85.76868215313453
 30
0.0
 10
187.0793256234801
 20
85.88845920519557
 30
0.0
 10
186.1986121877582
 20
85.98714938485938
 30
0.0
 10
184.3710559365426
 20
86.12842179109653
 30
0.0
 10
183.4176235334414
 20
86.17064003477412
 30
0.0
 10
182.4609044587961
 20
86.17812636789394
 30
0.0
  0
LINE
  5
BF
330
1F
100
AcDbEntity
  8
0
  6
Continuous
 62
     7
370
    15
100
AcDbLine
 10
236.9938972245
 20
126.6901985636
 30
0.0
 11
236.9938972245
 21
87.4901985636
 31
0.0
  0
LINE
  5
C0
330
1F
100
AcDbEntity
  8
0
  6
Continuous
 62
     7
370
    15
100
AcDbLine
 10
236.9938972245
 20
165.8901985636
 30
0.0
 11
236.9938972245
 21
126.6901985636
 31
0.0
  0
LINE
  5
C1
330
1F
100
AcDbEntity
  8
0
  6
Continuous
 62
     7
370
    15
100
AcDbLine
 10
236.1938972245
 20
126.6901985636
 30
0.0
 11
236.1938972245
 21
86.6901985636
 31
0.0
  0
LINE
  5
C2
330
1F
100
AcDbEntity
  8
0
  6
Continuous
 62
     7
370
    15
100
AcDbLine
 10
236.1938972245
 20
166.6901985636
 30
0.0
 11
236.1938972245
 21
126.6901985636
 31
0.0
  0
SPLINE
  5
C3
330
1F
100
AcDbEntity
  8
0
  6
Continuous
 62
     7
370
    15
100
AcDbSpline
210
0.0
220
0.0
230
1.0
 70
    11
 71
     3
 72
    95
 73
    91
 74
     0
 42
0.000000001
 43
0.00000001
 40
0.0
 40
0.0
 40
0.0
 40
0.0
 40
0.0312499999999996
 40
0.0312499999999996
 40
0.0468749999999994
 40
0.0468749999999994
 40
0.0624999999999993
 40
0.0624999999999993
 40
0.0937499999999993
 40
0.0937499999999993
 40
0.1093749999999991
 40
0.1093749999999991
 40
0.1249999999999989
 40
0.1249999999999989
 40
0.1562499999999982
 40
0.1562499999999982
 40
0.1718749999999978
 40
0.1718749999999978
 40
0.1874999999999974
 40
0.1874999999999974
 40
0.2187499999999971
 40
0.2187499999999971
 40
0.2343749999999971
 40
0.2343749999999971
 40
0.2499999999999971
 40
0.2499999999999971
 40
0.2812499999999976
 40
0.2812499999999976
 40
0.3124999999999982
 40
0.3124999999999982
 40
0.3437499999999987
 40
0.3437499999999987
 40
0.3593749999999989
 40
0.3593749999999989
 40
0.3749999999999991
 40
0.3906249999999993
 40
0.3906249999999993
 40
0.4062499999999995
 40
0.4062499999999995
 40
0.4374999999999999
 40
0.4374999999999999
 40
0.4531250000000001
 40
0.4531250000000001
 40
0.4687500000000003
 40
0.4687500000000003
 40
0.5000000000000002
 40
0.5000000000000002
 40
0.5312500000000001
 40
0.5312500000000001
 40
0.5468750000000001
 40
0.5468750000000001
 40
0.5625
 40
0.5625
 40
0.5937499999999998
 40
0.5937499999999998
 40
0.6249999999999997
 40
0.6249999999999997
 40
0.6562499999999994
 40
0.6562499999999994
 40
0.6874999999999993
 40
0.6874999999999993
 40
0.7031249999999992
 40
0.7031249999999992
 40
0.7187499999999991
 40
0.7187499999999991
 40
0.7499999999999993
 40
0.7499999999999993
 40
0.7656249999999992
 40
0.7656249999999992
 40
0.7812499999999991
 40
0.7812499999999991
 40
0.8124999999999993
 40
0.8124999999999993
 40
0.8281249999999993
 40
0.8281249999999993
 40
0.8437499999999993
 40
0.8437499999999993
 40
0.8749999999999994
 40
0.8749999999999994
 40
0.8906249999999994
 40
0.8906249999999994
 40
0.9062499999999994
 40
0.9062499999999994
 40
0.9218749999999996
 40
0.9218749999999996
 40
0.9374999999999996
 40
0.9374999999999996
 40
0.9687499999999998
 40
0.9687499999999998
 40
1.0
 40
1.0
 40
1.0
 40
1.0
 10
212.237130944014
 20
133.3385941935908
 30
0.0
 10
212.7216917272138
 20
133.7329841587513
 30
0.0
 10
213.2359698188931
 20
134.0751843530544
 30
0.0
 10
214.048386181917
 20
134.5174332233885
 30
0.0
 10
214.3260830244954
 20
134.6529030917655
 30
0.0
 10
214.8952856084364
 20
134.9000452811721
 30
0.0
 10
215.1882475012662
 20
135.0121650208223
 30
0.0
 10
216.0761313081659
 20
135.3080716203959
 30
0.0
 10
216.6786549252086
 20
135.4520323917372
 30
0.0
 10
217.5977815075004
 20
135.5913831617008
 30
0.0
 10
217.9067304916397
 20
135.6249808806201
 30
0.0
 10
218.5298760168387
 20
135.6660138881809
 30
0.0
 10
218.8446996262277
 20
135.6733045526341
 30
0.0
 10
219.7793137067925
 20
135.6553368152521
 30
0.0
 10
220.3950472052804
 20
135.591200414047
 30
0.0
 10
221.3077608707384
 20
135.417406222398
 30
0.0
 10
221.6101736202294
 20
135.3464629689044
 30
0.0
 10
222.2112324539382
 20
135.1776274377272
 30
0.0
 10
222.5093244694342
 20
135.0797175982768
 30
0.0
 10
223.3800849865783
 20
134.7509642150596
 30
0.0
 10
223.9354342531238
 20
134.483881326618
 30
0.0
 10
224.7301004885412
 20
134.0093420911902
 30
0.0
 10
224.9885548769002
 20
133.8387616684541
 30
0.0
 10
225.4919109243971
 20
133.4713072825228
 30
0.0
 10
225.7349671313974
 20
133.2756008112494
 30
0.0
 10
226.4279159203209
 20
132.6607106511737
 30
0.0
 10
226.8463234469284
 20
132.2109663549959
 30
0.0
 10
227.5908622725051
 20
131.2260584896552
 30
0.0
 10
227.9183786794359
 20
130.6847959907872
 30
0.0
 10
228.4383089891756
 20
129.5638129484087
 30
0.0
 10
228.6360214676793
 20
128.9790921776017
 30
0.0
 10
228.8316311998107
 20
128.0624708737826
 30
0.0
 10
228.8795740597119
 20
127.7498503704908
 30
0.0
 10
228.9378962542109
 20
127.1293910596008
 30
0.0
 10
228.9598285162085
 20
126.5091749039551
 30
0.0
 10
228.9098525108135
 20
125.8894394030139
 30
0.0
 10
228.8232086888016
 20
125.2699488067757
 30
0.0
 10
228.7611686246833
 20
124.9600241992697
 30
0.0
 10
228.5253856751158
 20
124.055203848364
 30
0.0
 10
228.30168591111
 20
123.4765213313175
 30
0.0
 10
227.8702249904202
 20
122.6436224529184
 30
0.0
 10
227.710949860086
 20
122.373552393672
 30
0.0
 10
227.3680720293677
 20
121.8561739657449
 30
0.0
 10
227.1837856821088
 20
121.6075171582099
 30
0.0
 10
226.5938373431079
 20
120.8903425777034
 30
0.0
 10
226.1465592571081
 20
120.4471422021436
 30
0.0
 10
225.1869043249885
 20
119.6626763791524
 30
0.0
 10
224.6733117920846
 20
119.3182430689708
 30
0.0
 10
223.8538298486665
 20
118.8701779533615
 30
0.0
 10
223.5716505216715
 20
118.7321400200819
 30
0.0
 10
223.0011101474813
 20
118.4837664896908
 30
0.0
 10
222.7116051006905
 20
118.3727237007928
 30
0.0
 10
221.8307271993194
 20
118.0777670485411
 30
0.0
 10
221.227094758727
 20
117.9316943927657
 30
0.0
 10
219.9862798222704
 20
117.7423669040647
 30
0.0
 10
219.36462710751
 20
117.7016694288551
 30
0.0
 10
218.1252159415981
 20
117.7239965222285
 30
0.0
 10
217.5046266801793
 20
117.7871962257455
 30
0.0
 10
216.272690760894
 20
118.0212538494026
 30
0.0
 10
215.6758970783108
 20
118.1890260718039
 30
0.0
 10
214.8087355905439
 20
118.515469464549
 30
0.0
 10
214.5243831350872
 20
118.6368304384122
 30
0.0
 10
213.9653359386571
 20
118.9054689603779
 30
0.0
 10
213.6893723324838
 20
119.0535221203845
 30
0.0
 10
212.886225790432
 20
119.533240526203
 30
0.0
 10
212.388032585931
 20
119.896723193056
 30
0.0
 10
211.6970801459728
 20
120.5088921610457
 30
0.0
 10
211.4762183611247
 20
120.7241845579576
 30
0.0
 10
211.0543883397847
 20
121.1785641123774
 30
0.0
 10
210.8522843865426
 20
121.4192918718296
 30
0.0
 10
210.2901183347419
 20
122.1641724511601
 30
0.0
 10
209.9715202449789
 20
122.6918284259923
 30
0.0
 10
209.5811984782538
 20
123.532229323019
 30
0.0
 10
209.4657952374264
 20
123.8205747366715
 30
0.0
 10
209.2664999224145
 20
124.414928485845
 30
0.0
 10
209.183659778511
 20
124.7185734044012
 30
0.0
 10
208.9901785387127
 20
125.6310435627732
 30
0.0
 10
208.9315586683387
 20
126.2483192569495
 30
0.0
 10
208.9532658093804
 20
127.1882219939909
 30
0.0
 10
208.9792542709612
 20
127.5036246264975
 30
0.0
 10
209.0666068382491
 20
128.1214863703247
 30
0.0
 10
209.1279508928127
 20
128.4262102067349
 30
0.0
 10
209.2850295175437
 20
129.0274847154203
 30
0.0
 10
209.3807656699443
 20
129.3240349779786
 30
0.0
 10
209.6068026225096
 20
129.9089455834387
 30
0.0
 10
209.736421288132
 20
130.1950625770306
 30
0.0
 10
210.1667257806496
 20
131.0226002327373
 30
0.0
 10
210.5104913691284
 20
131.5390029023875
 30
0.0
 10
211.3072358764933
 20
132.5047947281536
 30
0.0
 10
211.7525701608142
 20
132.9442042284304
 30
0.0
 10
212.237130944014
 20
133.3385941935908
 30
0.0
  0
SPLINE
  5
C4
330
1F
100
AcDbEntity
  8
0
  6
Continuous
 62
     7
370
    15
100
AcDbSpline
210
0.0
220
0.0
230
1.0
 70
     8
 71
     3
 72
    27
 73
    23
 74
     0
 42
0.000000001
 43
0.00000001
 40
0.0
 40
0.0
 40
0.0
 40
0.0
 40
0.0009769549132785
 40
0.0487009553736138
 40
0.092506963934192
 40
0.1374834808473866
 40
0.1833417379065731
 40
0.2302954063131129
 40
0.2810083734357372
 40
0.3329336692030513
 40
0.3888501407766715
 40
0.4462188863390816
 40
0.5052579783224247
 40
0.5659625212210607
 40
0.6257652072992871
 40
0.6873529232129602
 40
0.7461353759490229
 40
0.806869414113422
 40
0.8614993646168717
 40
0.9181561066191606
 40
0.9663238041641236
 40
0.9999999999999999
 40
0.9999999999999999
 40
0.9999999999999999
 40
0.9999999999999999
 10
228.941436849776
 20
166.6897090160153
 30
0.0
 10
228.9422549055484
 20
166.6898717819477
 30
0.0
 10
228.9830347789265
 20
166.69798562252
 30
0.0
 10
228.8402353241983
 20
166.6693847996883
 30
0.0
 10
228.5076750459906
 20
166.6041475557171
 30
0.0
 10
227.9521570819802
 20
166.4996362968403
 30
0.0
 10
227.2039227611835
 20
166.3681940742383
 30
0.0
 10
226.2513864318468
 20
166.2162051559556
 30
0.0
 10
225.1024511665117
 20
166.0563812319129
 30
0.0
 10
223.7457251825888
 20
165.90153594102
 30
0.0
 10
222.2170774396917
 20
165.7718075221168
 30
0.0
 10
220.5392520512233
 20
165.6855271460799
 30
0.0
 10
218.7720342591459
 20
165.6584135390535
 30
0.0
 10
216.9846064037812
 20
165.6983864318196
 30
0.0
 10
215.2275458443314
 20
165.8028964121618
 30
0.0
 10
213.5942603966412
 20
165.9577153539148
 30
0.0
 10
212.1104982740742
 20
166.1451743069147
 30
0.0
 10
210.8855777322597
 20
166.3332665691096
 30
0.0
 10
209.9188062169997
 20
166.5020590675938
 30
0.0
 10
209.2990761061095
 20
166.6196558918806
 30
0.0
 10
208.9750024580576
 20
166.6839536010634
 30
0.0
 10
208.9744981486354
 20
166.6840808317394
 30
0.0
 10
208.9742906411213
 20
166.6841331831731
 30
0.0
  0
LINE
  5
C5
330
1F
100
AcDbEntity
  8
0
  6
Continuous
 62
     7
370
    15
100
AcDbLine
 10
161.9938972245
 20
91.7651985636
 30
0.0
 11
161.9938972245
 21
161.6151985636
 31
0.0
  0
LINE
  5
C6
330
1F
100
AcDbEntity
  8
0
  6
Continuous
 62
     7
370
    15
100
AcDbLine
 10
60.1938972245
 20
108.3405207028
 30
0.0
 11
60.1938972245
 21
145.0398763697
 31
0.0
  0
LWPOLYLINE
  5
C7
330
1F
100
AcDbEntity
  8
0
  6
Continuous
 62
     7
370
    15
100
AcDbPolyline
 90
       21
 70
   128
 43
0.0
 10
185.8760204377
 20
114.3611557588
 10
185.1169265719
 20
114.4512222421
 10
184.3653671299
 20
114.3164541303
 10
183.6949099863
 20
113.970043465
 10
183.1711841576
 20
113.4458993359
 10
182.845455577
 20
112.7953286221
 10
182.7496088273
 20
112.082013718
 10
182.8930260564
 20
111.3757788562
 10
183.2616685865
 20
110.7457552258
 10
183.8194511183
 20
110.2536139293
 10
184.5117740113
 20
109.9475291856
 10
185.2708678771
 20
109.8574627023
 10
186.0224273191
 20
109.9922308141
 10
186.6928844628
 20
110.3386414794
 10
187.2166102915
 20
110.8627856085
 10
187.5423388721
 20
111.5133563223
 10
187.6381856217
 20
112.2266712265
 10
187.4947683927
 20
112.9329060882
 10
187.1261258626
 20
113.5629297186
 10
186.5683433307
 20
114.0550710152
 10
185.8760204377
 20
114.3611557588
  0
LINE
  5
C8
330
1F
100
AcDbEntity
  8
0
  6
Continuous
 62
     7
370
    15
100
AcDbLine
 10
183.5118696218
 20
111.7660058774
 30
0.0
 11
184.7107763649
 21
110.5913440117
 31
0.0
  0
LINE
  5
C9
330
1F
100
AcDbEntity
  8
0
  6
Continuous
 62
     7
370
    15
100
AcDbLine
 10
186.3928039676
 20
110.9796806066
 30
0.0
 11
184.7107763649
 21
110.5913440117
 31
0.0
  0
LINE
  5
CA
330
1F
100
AcDbEntity
  8
0
  6
Continuous
 62
     7
370
    15
100
AcDbLine
 10
186.8759248273
 20
112.5426790671
 30
0.0
 11
186.3928039676
 21
110.9796806066
 31
0.0
  0
LINE
  5
CB
330
1F
100
AcDbEntity
  8
0
  6
Continuous
 62
     7
370
    15
100
AcDbLine
 10
186.8759248273
 20
112.5426790671
 30
0.0
 11
185.6770180842
 21
113.7173409327
 31
0.0
  0
LINE
  5
CC
330
1F
100
AcDbEntity
  8
0
  6
Continuous
 62
     7
370
    15
100
AcDbLine
 10
183.9949904814
 20
113.3290043379
 30
0.0
 11
185.6770180842
 21
113.7173409327
 31
0.0
  0
LINE
  5
CD
330
1F
100
AcDbEntity
  8
0
  6
Continuous
 62
     7
370
    15
100
AcDbLine
 10
183.9949904814
 20
113.3290043379
 30
0.0
 11
183.5118696218
 21
111.7660058774
 31
0.0
  0
LINE
  5
CE
330
1F
100
AcDbEntity
  8
0
  6
Continuous
 62
     7
370
    15
100
AcDbLine
 10
186.3928039676
 20
111.6637208932
 30
0.0
 11
186.3928039676
 21
110.9796806066
 31
0.0
  0
LINE
  5
CF
330
1F
100
AcDbEntity
  8
0
  6
Continuous
 62
     7
370
    15
100
AcDbLine
 10
186.7136372901
 20
112.7016847465
 30
0.0
 11
186.3928039676
 21
111.6637208932
 31
0.0
  0
LINE
  5
D0
330
1F
100
AcDbEntity
  8
0
  6
Continuous
 62
     7
370
    15
100
AcDbLine
 10
183.674157159
 20
112.2910404846
 30
0.0
 11
184.7107763649
 21
111.2753842984
 31
0.0
  0
LINE
  5
D1
330
1F
100
AcDbEntity
  8
0
  6
Continuous
 62
     7
370
    15
100
AcDbLine
 10
184.7107763649
 20
111.2753842984
 30
0.0
 11
184.7107763649
 21
110.5913440117
 31
0.0
  0
LINE
  5
D2
330
1F
100
AcDbEntity
  8
0
  6
Continuous
 62
     7
370
    15
100
AcDbLine
 10
186.3928039676
 20
111.6637208932
 30
0.0
 11
184.7107763649
 21
111.2753842984
 31
0.0
  0
LINE
  5
D3
330
1F
100
AcDbEntity
  8
0
  6
HIDDEN
 62
     7
370
     0
100
AcDbLine
 10
210.9438972245
 20
165.6901985636
 30
0.0
 11
217.8382982769
 21
165.6901985636
 31
0.0
  0
LINE
  5
D4
330
1F
100
AcDbEntity
  8
0
  6
HIDDEN
 62
     7
370
     0
100
AcDbLine
 10
220.1646647517
 20
165.6901985636
 30
0.0
 11
226.9438972245
 21
165.6901985636
 31
0.0
  0
LINE
  5
D5
330
1F
100
AcDbEntity
  8
0
  6
HIDDEN
 62
     7
370
     0
100
AcDbLine
 10
210.9438972245
 20
147.0203255825
 30
0.0
 11
226.9438972245
 21
147.0203255825
 31
0.0
  0
LINE
  5
D6
330
1F
100
AcDbEntity
  8
0
  6
HIDDEN
 62
     7
370
     0
100
AcDbLine
 10
213.8275607185
 20
137.6901985636
 30
0.0
 11
224.0602337305
 21
137.6901985636
 31
0.0
  0
SPLINE
  5
D7
330
1F
100
AcDbEntity
  8
0
  6
HIDDEN
 62
     7
370
     0
100
AcDbSpline
210
0.0
220
0.0
230
1.0
 70
     8
 71
     3
 72
    11
 73
     7
 74
     0
 42
0.000000001
 43
0.00000001
 40
0.0
 40
0.0
 40
0.0
 40
0.0
 40
0.2164567244934165
 40
0.4403141600939067
 40
0.7519028444798755
 40
1.0
 40
1.0
 40
1.0
 40
1.0
 10
215.307923542436
 20
166.6090007170737
 30
0.0
 10
215.2634835223231
 20
166.4641223068676
 30
0.0
 10
215.1730840663747
 20
166.1694120563316
 30
0.0
 10
215.0053273035675
 20
165.9237740936496
 30
0.0
 10
214.8253791753292
 20
166.0718791541297
 30
0.0
 10
214.7102235304283
 20
166.4440327334822
 30
0.0
 10
214.6591774150811
 20
166.6090007170736
 30
0.0
  0
SPLINE
  5
D8
330
1F
100
AcDbEntity
  8
0
  6
HIDDEN
 62
     7
370
     0
100
AcDbSpline
210
0.0
220
0.0
230
1.0
 70
     8
 71
     3
 72
    11
 73
     7
 74
     0
 42
0.000000001
 43
0.00000001
 40
0.0
 40
0.0
 40
0.0
 40
0.0
 40
0.21645672449342
 40
0.4403141600939193
 40
0.7519028444798734
 40
1.0
 40
1.0
 40
1.0
 40
1.0
 10
214.6591774150811
 20
166.6090007170736
 30
0.0
 10
214.9082467146865
 20
166.4641223068675
 30
0.0
 10
215.414901057339
 20
166.1694120563315
 30
0.0
 10
216.3551134899672
 20
165.9237740936496
 30
0.0
 10
217.3636538585752
 20
166.0718791541296
 30
0.0
 10
218.0090571628087
 20
166.4440327334821
 30
0.0
 10
218.2951510971673
 20
166.6090007170736
 30
0.0
  0
SPLINE
  5
D9
330
1F
100
AcDbEntity
  8
0
  6
HIDDEN
 62
     7
370
     0
100
AcDbSpline
210
0.0
220
0.0
230
1.0
 70
     8
 71
     3
 72
    11
 73
     7
 74
     0
 42
0.000000001
 43
0.00000001
 40
0.0
 40
0.0
 40
0.0
 40
0.0
 40
0.184513355851906
 40
0.5180565039163842
 40
0.8676122830485031
 40
1.0
 40
1.0
 40
1.0
 40
1.0
 10
218.2951510971673
 20
166.6090007170736
 30
0.0
 10
218.5439864850503
 20
166.484459053199
 30
0.0
 10
219.2426393847392
 20
166.1347845340789
 30
0.0
 10
220.5449096612597
 20
165.8750637525081
 30
0.0
 10
221.7549762140111
 20
166.1881716376933
 30
0.0
 10
222.402106985842
 20
166.5183125022087
 30
0.0
 10
222.5798709066086
 20
166.6090007170736
 30
0.0
  0
SPLINE
  5
DA
330
1F
100
AcDbEntity
  8
0
  6
HIDDEN
 62
     7
370
     0
100
AcDbSpline
210
0.0
220
0.0
230
1.0
 70
     8
 71
     3
 72
    11
 73
     7
 74
     0
 42
0.000000001
 43
0.00000001
 40
0.0
 40
0.0
 40
0.0
 40
0.0
 40
0.2164567244934292
 40
0.4403141600939131
 40
0.7519028444798818
 40
1.0
 40
1.0
 40
1.0
 40
1.0
 10
222.5798709066086
 20
166.6090007170736
 30
0.0
 10
222.6243109267215
 20
166.4641223068675
 30
0.0
 10
222.7147103826699
 20
166.1694120563315
 30
0.0
 10
222.8824671454771
 20
165.9237740936495
 30
0.0
 10
223.0624152737154
 20
166.0718791541296
 30
0.0
 10
223.1775709186163
 20
166.4440327334822
 30
0.0
 10
223.2286170339635
 20
166.6090007170736
 30
0.0
  0
SPLINE
  5
DB
330
1F
100
AcDbEntity
  8
0
  6
HIDDEN
 62
     7
370
     0
100
AcDbSpline
210
0.0
220
0.0
230
1.0
 70
     8
 71
     3
 72
    11
 73
     7
 74
     0
 42
0.000000001
 43
0.00000001
 40
0.0
 40
0.0
 40
0.0
 40
0.0
 40
0.2164567244934049
 40
0.4403141600939168
 40
0.7519028444798765
 40
1.0
 40
1.0
 40
1.0
 40
1.0
 10
223.2286170339635
 20
166.6090007170736
 30
0.0
 10
222.9795477343581
 20
166.4641223068675
 30
0.0
 10
222.4728933917056
 20
166.1694120563315
 30
0.0
 10
221.5326809590774
 20
165.9237740936496
 30
0.0
 10
220.5241405904694
 20
166.0718791541297
 30
0.0
 10
219.878737286236
 20
166.4440327334823
 30
0.0
 10
219.5926433518772
 20
166.6090007170737
 30
0.0
  0
SPLINE
  5
DC
330
1F
100
AcDbEntity
  8
0
  6
HIDDEN
 62
     7
370
     0
100
AcDbSpline
210
0.0
220
0.0
230
1.0
 70
     8
 71
     3
 72
    11
 73
     7
 74
     0
 42
0.000000001
 43
0.00000001
 40
0.0
 40
0.0
 40
0.0
 40
0.0
 40
0.1323877169514936
 40
0.4819434960836148
 40
0.8154866441480859
 40
1.0
 40
1.0
 40
1.0
 40
1.0
 10
219.5926433518772
 20
166.6090007170737
 30
0.0
 10
219.4148794311107
 20
166.5183125022088
 30
0.0
 10
218.7677486592798
 20
166.1881716376934
 30
0.0
 10
217.5576821065283
 20
165.8750637525082
 30
0.0
 10
216.2554118300078
 20
166.1347845340789
 30
0.0
 10
215.5567589303189
 20
166.4844590531991
 30
0.0
 10
215.307923542436
 20
166.6090007170737
 30
0.0
  0
LINE
  5
DD
330
1F
100
AcDbEntity
  8
0
  6
HIDDEN
 62
     7
370
     0
100
AcDbLine
 10
214.9438972245
 20
154.6901985636
 30
0.0
 11
222.9438972245
 21
154.6901985636
 31
0.0
  0
LINE
  5
DE
330
1F
100
AcDbEntity
  8
0
  6
HIDDEN
 62
     7
370
     0
100
AcDbLine
 10
218.2951510972
 20
155.6901985636
 30
0.0
 11
216.4771642561
 21
155.6901985636
 31
0.0
  0
LINE
  5
DF
330
1F
100
AcDbEntity
  8
0
  6
HIDDEN
 62
     7
370
     0
100
AcDbLine
 10
220.4375110019
 20
155.6901985636
 30
0.0
 11
218.2951510972
 21
155.6901985636
 31
0.0
  0
LINE
  5
E0
330
1F
100
AcDbEntity
  8
0
  6
HIDDEN
 62
     7
370
     0
100
AcDbLine
 10
218.2951510972
 20
155.6901985636
 30
0.0
 11
218.2951510972
 21
166.6090007171
 31
0.0
  0
LINE
  5
E1
330
1F
100
AcDbEntity
  8
0
  6
HIDDEN
 62
     7
370
     0
100
AcDbLine
 10
222.5798709066
 20
155.6901985636
 30
0.0
 11
220.4375110019
 21
155.6901985636
 31
0.0
  0
LINE
  5
E2
330
1F
100
AcDbEntity
  8
0
  6
HIDDEN
 62
     7
370
     0
100
AcDbLine
 10
216.4771642561
 20
155.6901985636
 30
0.0
 11
214.6591774151
 21
155.6901985636
 31
0.0
  0
LINE
  5
E3
330
1F
100
AcDbEntity
  8
0
  6
HIDDEN
 62
     7
370
     0
100
AcDbLine
 10
222.9042439703
 20
155.6901985636
 30
0.0
 11
222.5798709066
 21
155.6901985636
 31
0.0
  0
LINE
  5
E4
330
1F
100
AcDbEntity
  8
0
  6
HIDDEN
 62
     7
370
     0
100
AcDbLine
 10
222.5798709066
 20
155.6901985636
 30
0.0
 11
222.5798709066
 21
166.6090007171
 31
0.0
  0
LINE
  5
E5
330
1F
100
AcDbEntity
  8
0
  6
HIDDEN
 62
     7
370
     0
100
AcDbLine
 10
215.3079235424
 20
155.6901985636
 30
0.0
 11
215.3079235424
 21
166.6090007171
 31
0.0
  0
LINE
  5
E6
330
1F
100
AcDbEntity
  8
0
  6
HIDDEN
 62
     7
370
     0
100
AcDbLine
 10
214.6591774151
 20
155.6901985636
 30
0.0
 11
214.6591774151
 21
166.6090007171
 31
0.0
  0
LINE
  5
E7
330
1F
100
AcDbEntity
  8
0
  6
HIDDEN
 62
     7
370
     0
100
AcDbLine
 10
223.228617034
 20
155.6901985636
 30
0.0
 11
222.9042439703
 21
155.6901985636
 31
0.0
  0
LINE
  5
E8
330
1F
100
AcDbEntity
  8
0
  6
HIDDEN
 62
     7
370
     0
100
AcDbLine
 10
219.5926433519
 20
155.6901985636
 30
0.0
 11
219.5926433519
 21
166.6090007171
 31
0.0
  0
LINE
  5
E9
330
1F
100
AcDbEntity
  8
0
  6
HIDDEN
 62
     7
370
     0
100
AcDbLine
 10
223.228617034
 20
155.6901985636
 30
0.0
 11
223.228617034
 21
166.6090007171
 31
0.0
  0
SPLINE
  5
EA
330
1F
100
AcDbEntity
  8
0
  6
HIDDEN
 62
     7
370
     0
100
AcDbSpline
210
0.0
220
0.0
230
1.0
 70
     8
 71
     3
 72
     9
 73
     5
 74
     0
 42
0.000000001
 43
0.00000001
 40
0.0
 40
0.0
 40
0.0
 40
0.0
 40
0.326715498335643
 40
1.0
 40
1.0
 40
1.0
 40
1.0
 10
194.6178646880736
 20
77.06643812582392
 30
0.0
 10
194.4610718130267
 20
77.10852035400512
 30
0.0
 10
193.9811653627798
 20
77.2373242472871
 30
0.0
 10
193.2269538264775
 20
77.41235089431211
 30
0.0
 10
192.7191548881086
 20
77.53019362313232
 30
0.0
  0
LWPOLYLINE
  5
EB
330
1F
100
AcDbEntity
  8
0
  6
HIDDEN
 62
     7
370
     0
100
AcDbPolyline
 90
       23
 70
   128
 43
0.0
 10
165.2632843364
 20
112.661043761
 10
165.4482786523
 20
111.8282964601
 10
165.734185577
 20
111.0630133931
 10
166.0978426317
 20
110.4271932425
 10
166.5097884847
 20
109.9723463758
 10
166.9366497328
 20
109.7353217809
 10
167.3438446164
 20
109.7353217809
 10
167.6983846277
 20
109.9723463758
 10
167.9715470435
 20
110.4271932425
 10
168.1412018695
 20
111.0630133931
 10
168.1936046806
 20
111.8282964601
 10
168.1245101127
 20
112.661043761
 10
167.9395157967
 20
113.4937910618
 10
167.6536088721
 20
114.2590741289
 10
167.2899518173
 20
114.8948942794
 10
166.8780059644
 20
115.3497411461
 10
166.4511447163
 20
115.586765741
 10
166.0439498326
 20
115.586765741
 10
165.6894098213
 20
115.3497411461
 10
165.4162474055
 20
114.8948942794
 10
165.2465925796
 20
114.2590741289
 10
165.1941897685
 20
113.4937910618
 10
165.2632843364
 20
112.661043761
  0
LWPOLYLINE
  5
EC
330
1F
100
AcDbEntity
  8
0
  6
HIDDEN
 62
     7
370
     0
100
AcDbPolyline
 90
       20
 70
   128
 43
0.0
 10
165.976154925
 20
112.7170620792
 10
166.1329090666
 20
112.0452376131
 10
166.381196838
 20
111.4462157523
 10
166.6941124065
 20
110.9849098102
 10
167.0377465149
 20
110.7113094436
 10
167.3748610755
 20
110.6550634975
 10
167.6689244948
 20
110.822267093
 10
167.8880704385
 20
111.194801126
 10
168.0085510431
 20
111.7322957535
 10
168.0173103658
 20
112.3765050927
 10
167.9133991979
 20
113.0576190657
 10
167.7080779269
 20
113.7018284049
 10
167.4235962983
 20
114.2393230325
 10
167.0907823109
 20
114.6118570655
 10
166.7457015242
 20
114.7790606609
 10
166.4257487961
 20
114.7228147149
 10
166.1655959691
 20
114.4492143483
 10
165.9934346388
 20
113.9879084062
 10
165.9279211567
 20
113.3888865454
 10
165.976154925
 20
112.7170620792
  0
SPLINE
  5
ED
330
1F
100
AcDbEntity
  8
0
  6
HIDDEN
 62
     7
370
     0
100
AcDbSpline
210
0.0
220
0.0
230
1.0
 70
    11
 71
     3
 72
    66
 73
    62
 74
     0
 42
0.000000001
 43
0.00000001
 40
0.0
 40
0.0
 40
0.0
 40
0.0
 40
0.0312500000000001
 40
0.0312500000000001
 40
0.0625000000000002
 40
0.0625000000000002
 40
0.0937500000000003
 40
0.0937500000000003
 40
0.1250000000000004
 40
0.1250000000000004
 40
0.1875000000000006
 40
0.1875000000000006
 40
0.2187500000000006
 40
0.2187500000000006
 40
0.2500000000000007
 40
0.2500000000000007
 40
0.2812500000000008
 40
0.2812500000000008
 40
0.3125000000000008
 40
0.3125000000000008
 40
0.3437500000000008
 40
0.3437500000000008
 40
0.3750000000000008
 40
0.3750000000000008
 40
0.4062500000000008
 40
0.4062500000000008
 40
0.4375000000000008
 40
0.4375000000000008
 40
0.4687500000000008
 40
0.4687500000000008
 40
0.5000000000000008
 40
0.5000000000000008
 40
0.5312500000000008
 40
0.5312500000000008
 40
0.5625000000000008
 40
0.5625000000000008
 40
0.5937500000000008
 40
0.5937500000000008
 40
0.6250000000000008
 40
0.6250000000000008
 40
0.6562500000000008
 40
0.6562500000000008
 40
0.6875000000000008
 40
0.6875000000000008
 40
0.7187500000000008
 40
0.7187500000000008
 40
0.7500000000000007
 40
0.7500000000000007
 40
0.8125000000000008
 40
0.8125000000000008
 40
0.8437500000000007
 40
0.8437500000000007
 40
0.8750000000000006
 40
0.8750000000000006
 40
0.9062500000000004
 40
0.9062500000000004
 40
0.9375000000000003
 40
0.9375000000000003
 40
0.9687500000000002
 40
0.9687500000000002
 40
1.0
 40
1.0
 40
1.0
 40
1.0
 10
185.1938972245223
 20
122.4754673711187
 30
0.0
 10
185.026691838076
 20
122.4754673711187
 30
0.0
 10
184.8627144489573
 20
122.4884360541396
 30
0.0
 10
184.5407983185797
 20
122.5392798547384
 30
0.0
 10
184.3811925336242
 20
122.5778528930077
 30
0.0
 10
184.0796248650957
 20
122.6782676074115
 30
0.0
 10
183.9368994984967
 20
122.7398992564534
 30
0.0
 10
183.6667508976574
 20
122.8872283762208
 30
0.0
 10
183.5405750543298
 20
122.9725957294539
 30
0.0
 10
183.1988296335905
 20
123.2575119806487
 30
0.0
 10
183.0132276654694
 20
123.4926777887305
 30
0.0
 10
182.8248224887609
 20
123.8907282302016
 30
0.0
 10
182.7756842594869
 20
124.033765951263
 30
0.0
 10
182.7105112284659
 20
124.3287458846941
 30
0.0
 10
182.6940918914575
 20
124.4800591532566
 30
0.0
 10
182.6937059655664
 20
124.7906110122683
 30
0.0
 10
182.7103160667994
 20
124.9504883734416
 30
0.0
 10
182.7749364096009
 20
125.2625842388557
 30
0.0
 10
182.822919574012
 20
125.4170964300229
 30
0.0
 10
182.949985139702
 20
125.7203874042677
 30
0.0
 10
183.0271792188854
 20
125.8648736118941
 30
0.0
 10
183.2076544641772
 20
126.1397817175843
 30
0.0
 10
183.3121497491447
 20
126.2712334194582
 30
0.0
 10
183.5406537410628
 20
126.5099832437191
 30
0.0
 10
183.6649430941956
 20
126.6182289040672
 30
0.0
 10
183.9345575733199
 20
126.8112738230469
 30
0.0
 10
184.0796788527877
 20
126.8953799443273
 30
0.0
 10
184.3794209755488
 20
127.0309918688977
 30
0.0
 10
184.5354902174055
 20
127.0836478289806
 30
0.0
 10
184.8613110060523
 20
127.155640695183
 30
0.0
 10
185.0261494449095
 20
127.173700611017
 30
0.0
 10
185.3553369649127
 20
127.1741559761255
 30
0.0
 10
185.522380105677
 20
127.1561709948864
 30
0.0
 10
185.8464806133893
 20
127.0852996184076
 30
0.0
 10
186.0029971217347
 20
127.03309758089
 30
0.0
 10
186.305567748491
 20
126.8968509190124
 30
0.0
 10
186.4507288002225
 20
126.8127838000714
 30
0.0
 10
186.7194600382223
 20
126.6209367036954
 30
0.0
 10
186.8453201881375
 20
126.5117594897329
 30
0.0
 10
187.075512688607
 20
126.271496189926
 30
0.0
 10
187.1779843677163
 20
126.142637257547
 30
0.0
 10
187.35855008375
 20
125.8684374314095
 30
0.0
 10
187.4372838185149
 20
125.7212348513904
 30
0.0
 10
187.5634668767519
 20
125.4208578064113
 30
0.0
 10
187.6115113282741
 20
125.2675193562086
 30
0.0
 10
187.6768901479892
 20
124.9548524517858
 30
0.0
 10
187.6937685646975
 20
124.7948602189879
 30
0.0
 10
187.6941522875523
 20
124.3299801393196
 30
0.0
 10
187.6271880846183
 20
124.0274852183533
 30
0.0
 10
187.4386372371543
 20
123.627507600123
 30
0.0
 10
187.3601215162337
 20
123.5005554300086
 30
0.0
 10
187.1790965910893
 20
123.2691622770847
 30
0.0
 10
187.0765680702131
 20
123.1638843283233
 30
0.0
 10
186.8470537168469
 20
122.9723795319709
 30
0.0
 10
186.7206730936631
 20
122.887079860541
 30
0.0
 10
186.4525951242765
 20
122.7407732151519
 30
0.0
 10
186.3096984707739
 20
122.6787795509723
 30
0.0
 10
186.0051628145058
 20
122.5773708468194
 30
0.0
 10
185.8487281666753
 20
122.5396648273498
 30
0.0
 10
185.5274379803207
 20
122.4886984725567
 30
0.0
 10
185.3611026109685
 20
122.4754673711187
 30
0.0
 10
185.1938972245223
 20
122.4754673711187
 30
0.0
  0
SPLINE
  5
EE
330
1F
100
AcDbEntity
  8
0
  6
HIDDEN
 62
     7
370
     0
100
AcDbSpline
210
0.0
220
0.0
230
1.0
 70
    11
 71
     3
 72
    66
 73
    62
 74
     0
 42
0.000000001
 43
0.00000001
 40
0.0
 40
0.0
 40
0.0
 40
0.0
 40
0.0312500000000007
 40
0.0312500000000007
 40
0.0625000000000013
 40
0.0625000000000013
 40
0.093750000000002
 40
0.093750000000002
 40
0.1250000000000027
 40
0.1250000000000027
 40
0.1562500000000033
 40
0.1562500000000033
 40
0.187500000000004
 40
0.187500000000004
 40
0.2187500000000047
 40
0.2187500000000047
 40
0.2343750000000049
 40
0.2343750000000049
 40
0.2500000000000051
 40
0.2500000000000051
 40
0.2812500000000048
 40
0.2812500000000048
 40
0.3125000000000046
 40
0.3125000000000046
 40
0.3750000000000041
 40
0.3750000000000041
 40
0.4375000000000036
 40
0.4375000000000036
 40
0.4687500000000033
 40
0.4687500000000033
 40
0.500000000000003
 40
0.500000000000003
 40
0.5312500000000028
 40
0.5312500000000028
 40
0.5625000000000026
 40
0.5625000000000026
 40
0.5937500000000023
 40
0.5937500000000023
 40
0.6250000000000021
 40
0.6250000000000021
 40
0.6875000000000016
 40
0.6875000000000016
 40
0.750000000000001
 40
0.750000000000001
 40
0.7812500000000007
 40
0.7812500000000007
 40
0.8125000000000004
 40
0.8125000000000004
 40
0.8437500000000002
 40
0.8437500000000002
 40
0.8593750000000001
 40
0.8593750000000001
 40
0.875
 40
0.875
 40
0.90625
 40
0.90625
 40
0.9375
 40
0.9375
 40
0.96875
 40
0.96875
 40
1.0
 40
1.0
 40
1.0
 40
1.0
 10
182.7749221643026
 20
116.0342377381459
 30
0.0
 10
182.7353318766626
 20
116.1878512578369
 30
0.0
 10
182.7100708859811
 20
116.3400946854369
 30
0.0
 10
182.6889259799663
 20
116.6421996021853
 30
0.0
 10
182.6935736920599
 20
116.7926797460272
 30
0.0
 10
182.7322673598455
 20
117.0751240193258
 30
0.0
 10
182.7665643189402
 20
117.2105707142991
 30
0.0
 10
182.8608751048895
 20
117.459714112876
 30
0.0
 10
182.9200216451828
 20
117.5722055298988
 30
0.0
 10
183.058357829875
 20
117.773372465134
 30
0.0
 10
183.1369943458258
 20
117.8606266213258
 30
0.0
 10
183.3015478978407
 20
118.0028362402751
 30
0.0
 10
183.3894825941024
 20
118.0592991681522
 30
0.0
 10
183.5570611404533
 20
118.1342080836987
 30
0.0
 10
183.6376580172607
 20
118.1530180028098
 30
0.0
 10
183.7325003827222
 20
118.1484501263365
 30
0.0
 10
183.7594246881442
 20
118.1415758708576
 30
0.0
 10
183.8019533631954
 20
118.1174857030314
 30
0.0
 10
183.8174396522676
 20
118.1000780510817
 30
0.0
 10
183.8448639789557
 20
118.0361856747951
 30
0.0
 10
183.8385013754235
 20
117.9770159040622
 30
0.0
 10
183.795851239888
 20
117.8435960960069
 30
0.0
 10
183.7603556325912
 20
117.7690406852449
 30
0.0
 10
183.6318182854212
 20
117.5266839539731
 30
0.0
 10
183.5206448659823
 20
117.3454919778139
 30
0.0
 10
183.29191905036
 20
116.9417935347769
 30
0.0
 10
183.1708538667531
 20
116.7157688694638
 30
0.0
 10
183.0027398922008
 20
116.3372371325326
 30
0.0
 10
182.948399675575
 20
116.2031586283393
 30
0.0
 10
182.849774601334
 20
115.9209786819889
 30
0.0
 10
182.8057717597719
 20
115.7742800092186
 30
0.0
 10
182.73498533222
 20
115.463863227826
 30
0.0
 10
182.7097951857643
 20
115.3053587980884
 30
0.0
 10
182.6888812113995
 20
114.9939952234889
 30
0.0
 10
182.6938430531523
 20
114.8462768448597
 30
0.0
 10
182.7320171715102
 20
114.5827748458877
 30
0.0
 10
182.7648534972095
 20
114.4682359268493
 30
0.0
 10
182.8455859595217
 20
114.2772702303807
 30
0.0
 10
182.8936876664636
 20
114.1990865424143
 30
0.0
 10
183.0501300631809
 20
114.0052913644748
 30
0.0
 10
183.1669195229252
 20
113.931516210447
 30
0.0
 10
183.4019764950085
 20
113.8484672536663
 30
0.0
 10
183.517774081968
 20
113.8413238607507
 30
0.0
 10
183.6684747856769
 20
113.8730978781805
 30
0.0
 10
183.7147945734322
 20
113.8909953301791
 30
0.0
 10
183.7908777842924
 20
113.9445948505706
 30
0.0
 10
183.8202639397948
 20
113.980114021135
 30
0.0
 10
183.8437249730227
 20
114.0742233959379
 30
0.0
 10
183.8366853292167
 20
114.1333438697522
 30
0.0
 10
183.7876876323369
 20
114.2432510991697
 30
0.0
 10
183.7648345877592
 20
114.2838943244768
 30
0.0
 10
183.7094920700874
 20
114.3702018083309
 30
0.0
 10
183.6769029346602
 20
114.4162433115876
 30
0.0
 10
183.5681044598
 20
114.5640221197873
 30
0.0
 10
183.4834837381478
 20
114.6724907221055
 30
0.0
 10
183.3132955093432
 20
114.9065375847508
 30
0.0
 10
183.2266654343974
 20
115.0335485494918
 30
0.0
 10
183.0675494330567
 20
115.2992345109647
 30
0.0
 10
182.9932355387678
 20
115.4408114235397
 30
0.0
 10
182.8669067170225
 20
115.7315422493573
 30
0.0
 10
182.8145124519425
 20
115.8806242184549
 30
0.0
 10
182.7749221643026
 20
116.0342377381459
 30
0.0
  0
CIRCLE
  5
EF
330
1F
100
AcDbEntity
  8
0
  6
HIDDEN
 62
     7
370
     0
100
AcDbCircle
 10
218.9438972245
 20
126.6901985636
 30
0.0
 40
7.25
  0
LINE
  5
F0
330
1F
100
AcDbEntity
  8
0
  6
HIDDEN
 62
     7
370
     0
100
AcDbLine
 10
212.237130944
 20
166.1338148615
 30
0.0
 11
213.1487395279
 21
166.021378942
 31
0.0
  0
LINE
  5
F1
330
1F
100
AcDbEntity
  8
0
  6
HIDDEN
 62
     7
370
     0
100
AcDbLine
 10
196.4938972245
 20
126.6901985636
 30
0.0
 11
196.4938972245
 21
109.1901985636
 31
0.0
  0
LINE
  5
F2
330
1F
100
AcDbEntity
  8
0
  6
HIDDEN
 62
     7
370
     0
100
AcDbLine
 10
196.4938972245
 20
144.1901985636
 30
0.0
 11
196.4938972245
 21
126.6901985636
 31
0.0
  0
LINE
  5
F3
330
1F
100
AcDbEntity
  8
0
  6
HIDDEN
 62
     7
370
     0
100
AcDbLine
 10
201.3599226283
 20
126.6901985636
 30
0.0
 11
201.3599226283
 21
108.6901985636
 31
0.0
  0
LINE
  5
F4
330
1F
100
AcDbEntity
  8
0
  6
HIDDEN
 62
     7
370
     0
100
AcDbLine
 10
201.3599226283
 20
144.6901985636
 30
0.0
 11
201.3599226283
 21
126.6901985636
 31
0.0
  0
SPLINE
  5
F5
330
1F
100
AcDbEntity
  8
0
  6
HIDDEN
 62
     7
370
     0
100
AcDbSpline
210
0.0
220
0.0
230
1.0
 70
     8
 71
     3
 72
    33
 73
    29
 74
     0
 42
0.000000001
 43
0.00000001
 40
0.0
 40
0.0
 40
0.0
 40
0.0
 40
0.0500785288119134
 40
0.1016770965175446
 40
0.1517384016616706
 40
0.2031408387126631
 40
0.2553872421007941
 40
0.3090186228450682
 40
0.3361815580053725
 40
0.3635423286694824
 40
0.3915519756278493
 40
0.4197988311338058
 40
0.4456738757104755
 40
0.47175188366653
 40
0.4984870769144535
 40
0.5254549519783575
 40
0.5738100942214385
 40
0.6235199551132609
 40
0.6729562366557137
 40
0.7236291417315548
 40
0.7768886863503787
 40
0.831625951849101
 40
0.8586498699092852
 40
0.8858772911077415
 40
0.9137716536097765
 40
0.9419078915499145
 40
0.992862308734586
 40
1.0
 40
1.0
 40
1.0
 40
1.0
 10
211.6938972245223
 20
144.6901985635566
 30
0.0
 10
211.7116527327336
 20
144.683009683836
 30
0.0
 10
211.7477026839792
 20
144.6684137195666
 30
0.0
 10
212.0364329867067
 20
144.5538956840905
 30
0.0
 10
212.4892808471363
 20
144.3825578715302
 30
0.0
 10
213.10850819301
 20
144.16431186862
 30
0.0
 10
213.8913545557442
 20
143.9163798086603
 30
0.0
 10
214.6685810028243
 20
143.7057277976835
 30
0.0
 10
215.3596582001144
 20
143.5482123141533
 30
0.0
 10
215.9150440249051
 20
143.4385144649894
 30
0.0
 10
216.5028363137351
 20
143.3418367525252
 30
0.0
 10
217.1011600879774
 20
143.2647085964996
 30
0.0
 10
217.7005461358113
 20
143.2089397943024
 30
0.0
 10
218.2986405074784
 20
143.1744845582695
 30
0.0
 10
218.9105644062622
 20
143.1617230524907
 30
0.0
 10
219.6935589939853
 20
143.1748129090013
 30
0.0
 10
220.6429762616543
 20
143.2409048724952
 30
0.0
 10
221.7151171426091
 20
143.3863684169733
 30
0.0
 10
222.7289329033377
 20
143.5859272126682
 30
0.0
 10
223.6675430343785
 20
143.8221296708284
 30
0.0
 10
224.5124176039587
 20
144.0758409194642
 30
0.0
 10
225.1032132868733
 20
144.2774405069525
 30
0.0
 10
225.4908608601431
 20
144.4181403640545
 30
0.0
 10
225.7358451365756
 20
144.5102392187733
 30
0.0
 10
225.9355528342328
 20
144.5874826782201
 30
0.0
 10
226.113706337196
 20
144.6578050094238
 30
0.0
 10
226.217120872261
 20
144.6995152996443
 30
0.0
 10
226.185891667979
 20
144.6869861255051
 30
0.0
 10
226.1820545819344
 20
144.6854466844485
 30
0.0
  0
LINE
  5
F6
330
1F
100
AcDbEntity
  8
0
  6
HIDDEN
 62
     7
370
     0
100
AcDbLine
 10
164.9938972245
 20
161.9901985636
 30
0.0
 11
165.1654700998
 21
161.9901985636
 31
0.0
  0
ELLIPSE
  5
F7
330
1F
100
AcDbEntity
  8
0
  6
HIDDEN
 62
     7
370
     0
100
AcDbEllipse
 10
165.1654700998
 20
163.9901985636
 30
0.0
 11
0.0
 21
2.0
 31
0.0
210
0.0
220
0.0
230
1.0
 40
0.4142135624
 41
3.141592653589793
 42
4.712388980384695
  0
ELLIPSE
  5
F8
330
1F
100
AcDbEntity
  8
0
  6
HIDDEN
 62
     7
370
     0
100
AcDbEllipse
 10
165.1654700998
 20
89.3901985636
 30
0.0
 11
0.0
 21
2.0
 31
0.0
210
0.0
220
0.0
230
1.0
 40
0.4142135624
 41
4.712388980384695
 42
6.283185307179586
  0
LINE
  5
F9
330
1F
100
AcDbEntity
  8
0
  6
HIDDEN
 62
     7
370
     0
100
AcDbLine
 10
165.1654700998
 20
91.3901985636
 30
0.0
 11
164.9938972245
 21
91.3901985636
 31
0.0
  0
LINE
  5
FA
330
1F
100
AcDbEntity
  8
0
  6
HIDDEN
 62
     7
370
     0
100
AcDbLine
 10
165.9938972245
 20
79.3696284096
 30
0.0
 11
165.3800336446
 21
78.7557648297
 31
0.0
  0
LINE
  5
FB
330
1F
100
AcDbEntity
  8
0
  6
HIDDEN
 62
     7
370
     0
100
AcDbLine
 10
165.3800336446
 20
174.6246322974
 30
0.0
 11
165.9938972245
 21
174.0107687175
 31
0.0
  0
LINE
  5
FC
330
1F
100
AcDbEntity
  8
0
  6
HIDDEN
 62
     7
370
     0
100
AcDbLine
 10
192.9938972245
 20
91.3901985636
 30
0.0
 11
182.1438972245
 21
91.3901985636
 31
0.0
  0
SPLINE
  5
FD
330
1F
100
AcDbEntity
  8
0
  6
HIDDEN
 62
     7
370
     0
100
AcDbSpline
210
0.0
220
0.0
230
1.0
 70
    24
 71
     3
 72
    14
 73
    10
 74
     0
 42
0.000000001
 43
0.00000001
 40
0.0
 40
0.0
 40
0.0
 40
0.0
 40
0.0006061328319463
 40
0.326354221428215
 40
0.6619731008599263
 40
0.7785622903834057
 40
0.8961668353680555
 40
0.949943851094928
 40
1.0
 40
1.0
 40
1.0
 40
1.0
 10
194.7080276945995
 20
90.4204294755906
 30
0.0
 10
194.7080276945995
 20
90.42049119805033
 30
0.0
 10
194.7080276945972
 20
90.45372382336656
 30
0.0
 10
194.7080276946006
 20
90.35987375238355
 30
0.0
 10
194.7080276945994
 20
90.20184542207596
 30
0.0
 10
194.7080276945995
 20
89.9396903389761
 30
0.0
 10
194.7080276945995
 20
89.74815591218055
 30
0.0
 10
194.7080276945995
 20
89.54869837401851
 30
0.0
 10
194.7080276945995
 20
89.44175438593017
 30
0.0
 10
194.7080276945995
 20
89.39019856355657
 30
0.0
  0
LINE
  5
FE
330
1F
100
AcDbEntity
  8
0
  6
HIDDEN
 62
     7
370
     0
100
AcDbLine
 10
182.1438972245
 20
91.3901985636
 30
0.0
 11
165.1654700998
 21
91.3901985636
 31
0.0
  0
LINE
  5
FF
330
1F
100
AcDbEntity
  8
0
  6
HIDDEN
 62
     7
370
     0
100
AcDbLine
 10
182.1438972245
 20
161.9901985636
 30
0.0
 11
192.9938972245
 21
161.9901985636
 31
0.0
  0
SPLINE
  5
100
330
1F
100
AcDbEntity
  8
0
  6
HIDDEN
 62
     7
370
     0
100
AcDbSpline
210
0.0
220
0.0
230
1.0
 70
    24
 71
     3
 72
    13
 73
     9
 74
     0
 42
0.000000001
 43
0.00000001
 40
0.0
 40
0.0
 40
0.0
 40
0.0
 40
0.0237587630303952
 40
0.0702137782087758
 40
0.1420175656787407
 40
0.2691956140582229
 40
0.5498069090129042
 40
1.0
 40
1.0
 40
1.0
 40
1.0
 10
194.7080276945995
 20
163.9901985635566
 30
0.0
 10
194.7080276945995
 20
163.9658425510047
 30
0.0
 10
194.7080276945995
 20
163.8938637337075
 30
0.0
 10
194.7080276945995
 20
163.7544113247362
 30
0.0
 10
194.7080276945995
 20
163.5538443140829
 30
0.0
 10
194.7080276945995
 20
163.2806110673517
 30
0.0
 10
194.7080276945995
 20
163.0171574627867
 30
0.0
 10
194.7080276945995
 20
162.9817832720208
 30
0.0
 10
194.7080276945995
 20
162.959991919111
 30
0.0
  0
LINE
  5
101
330
1F
100
AcDbEntity
  8
0
  6
HIDDEN
 62
     7
370
     0
100
AcDbLine
 10
178.226466261
 20
79.3696284096
 30
0.0
 11
165.9938972245
 21
79.3696284096
 31
0.0
  0
LINE
  5
102
330
1F
100
AcDbEntity
  8
0
  6
HIDDEN
 62
     7
370
     0
100
AcDbLine
 10
165.9938972245
 20
79.3696284096
 30
0.0
 11
165.9938972245
 21
89.3901985636
 31
0.0
  0
SPLINE
  5
103
330
1F
100
AcDbEntity
  8
0
  6
HIDDEN
 62
     7
370
     0
100
AcDbSpline
210
0.0
220
0.0
230
1.0
 70
     8
 71
     3
 72
    13
 73
     9
 74
     0
 42
0.000000001
 43
0.00000001
 40
0.0
 40
0.0
 40
0.0
 40
0.0
 40
0.0005825290635639
 40
0.1623661983603469
 40
0.328738549438346
 40
0.4998718252132373
 40
0.7262528256096872
 40
1.0
 40
1.0
 40
1.0
 40
1.0
 10
194.9934630671285
 20
77.69033137021574
 30
0.0
 10
194.9936078531634
 20
77.69028702802245
 30
0.0
 10
195.0339635358811
 20
77.67792769043399
 30
0.0
 10
194.9198089289963
 20
77.7135567764392
 30
0.0
 10
194.6956918213166
 20
77.78140473935271
 30
0.0
 10
194.2163829303464
 20
77.92049791348002
 30
0.0
 10
193.4228752727016
 20
78.1507444942435
 30
0.0
 10
192.5538574002273
 20
78.3662300650118
 30
0.0
 10
192.078196961409
 20
78.48417696161457
 30
0.0
  0
SPLINE
  5
104
330
1F
100
AcDbEntity
  8
0
  6
HIDDEN
 62
     7
370
     0
100
AcDbSpline
210
0.0
220
0.0
230
1.0
 70
     8
 71
     3
 72
     9
 73
     5
 74
     0
 42
0.000000001
 43
0.00000001
 40
0.0
 40
0.0
 40
0.0
 40
0.0
 40
0.5247997324146221
 40
1.0
 40
1.0
 40
1.0
 40
1.0
 10
194.9564643881329
 20
86.7021989459934
 30
0.0
 10
194.9589184527906
 20
86.70147346943847
 30
0.0
 10
194.9635946454527
 20
86.70009108200546
 30
0.0
 10
194.7903524379581
 20
86.7550157435064
 30
0.0
 10
194.7080276945995
 20
86.78111595734869
 30
0.0
  0
LINE
  5
105
330
1F
100
AcDbEntity
  8
0
  6
HIDDEN
 62
     7
370
     0
100
AcDbLine
 10
194.7080276946
 20
86.7811159573
 30
0.0
 11
194.7080276946
 21
89.3901985636
 31
0.0
  0
LINE
  5
106
330
1F
100
AcDbEntity
  8
0
  6
HIDDEN
 62
     7
370
     0
100
AcDbLine
 10
165.1654700998
 20
161.9901985636
 30
0.0
 11
182.1438972245
 21
161.9901985636
 31
0.0
  0
LINE
  5
107
330
1F
100
AcDbEntity
  8
0
  6
HIDDEN
 62
     7
370
     0
100
AcDbLine
 10
165.9938972245
 20
174.0107687175
 30
0.0
 11
178.226466261
 21
174.0107687175
 31
0.0
  0
LINE
  5
108
330
1F
100
AcDbEntity
  8
0
  6
HIDDEN
 62
     7
370
     0
100
AcDbLine
 10
165.9938972245
 20
174.0107687175
 30
0.0
 11
165.9938972245
 21
163.9901985636
 31
0.0
  0
SPLINE
  5
109
330
1F
100
AcDbEntity
  8
0
  6
HIDDEN
 62
     7
370
     0
100
AcDbSpline
210
0.0
220
0.0
230
1.0
 70
     8
 71
     3
 72
    14
 73
    10
 74
     0
 42
0.000000001
 43
0.00000001
 40
0.0
 40
0.0
 40
0.0
 40
0.0
 40
0.1878282877270135
 40
0.3545816312663703
 40
0.5003024319338641
 40
0.6713282049355653
 40
0.8376422060377707
 40
0.9994166164999624
 40
1.0
 40
1.0
 40
1.0
 40
1.0
 10
192.078196961409
 20
174.8962201654985
 30
0.0
 10
192.4111998837377
 20
174.9777681029451
 30
0.0
 10
193.0398417184937
 20
175.1317140342856
 30
0.0
 10
193.7392782904314
 20
175.3226927524009
 30
0.0
 10
194.2871553899369
 20
175.4800650394794
 30
0.0
 10
194.6932709840906
 20
175.5983904755124
 30
0.0
 10
194.9263988767719
 20
175.6687674901312
 30
0.0
 10
195.0203882633588
 20
175.698401841399
 30
0.0
 10
194.9937053702171
 20
175.6901393157956
 30
0.0
 10
194.9936094933318
 20
175.6901096269153
 30
0.0
  0
LINE
  5
10A
330
1F
100
AcDbEntity
  8
0
  6
HIDDEN
 62
     7
370
     0
100
AcDbLine
 10
192.5775312328
 20
175.0205341801
 30
0.0
 11
192.078192673
 21
174.8962648199
 31
0.0
  0
LINE
  5
10B
330
1F
100
AcDbEntity
  8
0
  6
HIDDEN
 62
     7
370
     0
100
AcDbLine
 10
194.7080276946
 20
166.5992811698
 30
0.0
 11
194.7080276946
 21
163.9901985636
 31
0.0
  0
SPLINE
  5
10C
330
1F
100
AcDbEntity
  8
0
  6
HIDDEN
 62
     7
370
     0
100
AcDbSpline
210
0.0
220
0.0
230
1.0
 70
     8
 71
     3
 72
     9
 73
     5
 74
     0
 42
0.000000001
 43
0.00000001
 40
0.0
 40
0.0
 40
0.0
 40
0.0
 40
0.524799732414622
 40
1.0
 40
1.0
 40
1.0
 40
1.0
 10
194.9564643881329
 20
166.6781981811197
 30
0.0
 10
194.9589184527906
 20
166.6789236576747
 30
0.0
 10
194.9635946454527
 20
166.6803060451077
 30
0.0
 10
194.790352437958
 20
166.6253813836067
 30
0.0
 10
194.7080276945995
 20
166.5992811697644
 30
0.0
  0
LINE
  5
10D
330
1F
100
AcDbEntity
  8
0
  6
HIDDEN
 62
     7
370
     0
100
AcDbLine
 10
70.1938972245
 20
114.1901985636
 30
0.0
 11
70.1938972245
 21
139.1901985636
 31
0.0
  0
LINE
  5
10E
330
1F
100
AcDbEntity
  8
0
  6
HIDDEN
 62
     7
370
     0
100
AcDbLine
 10
73.4785015735
 20
116.1901985636
 30
0.0
 11
73.4785015735
 21
137.1901985636
 31
0.0
  0
LINE
  5
10F
330
1F
100
AcDbEntity
  8
0
  6
HIDDEN
 62
     7
370
     0
100
AcDbLine
 10
123.1938972245
 20
116.1901985636
 30
0.0
 11
123.1938972245
 21
137.1901985636
 31
0.0
  0
LINE
  5
110
330
1F
100
AcDbEntity
  8
0
  6
HIDDEN
 62
     7
370
     0
100
AcDbLine
 10
125.8977700101
 20
120.6901985636
 30
0.0
 11
125.8977700101
 21
132.6901985636
 31
0.0
  0
LINE
  5
111
330
1F
100
AcDbEntity
  8
0
  6
HIDDEN
 62
     7
370
     0
100
AcDbLine
 10
211.6938972245
 20
163.9401985636
 30
0.0
 11
226.1938972245
 21
163.9401985636
 31
0.0
  0
SPLINE
  5
112
330
1F
100
AcDbEntity
  8
0
  6
HIDDEN
 62
     7
370
     0
100
AcDbSpline
210
0.0
220
0.0
230
1.0
 70
     8
 71
     3
 72
     9
 73
     5
 74
     0
 42
0.000000001
 43
0.00000001
 40
0.0
 40
0.0
 40
0.0
 40
0.0
 40
0.4952003844591947
 40
0.9999999999999999
 40
0.9999999999999999
 40
0.9999999999999999
 40
0.9999999999999999
 10
192.0781814389593
 20
174.8962107279693
 30
0.0
 10
192.1833779304492
 20
175.0533669542064
 30
0.0
 10
192.395810098903
 20
175.3707258076506
 30
0.0
 10
192.610528319165
 20
175.6893519842472
 30
0.0
 10
192.7189179942028
 20
175.8501943556944
 30
0.0
  0
SPLINE
  5
113
330
1F
100
AcDbEntity
  8
0
  6
HIDDEN
 62
     7
370
     0
100
AcDbSpline
210
0.0
220
0.0
230
1.0
 70
     8
 71
     3
 72
     9
 73
     5
 74
     0
 42
0.000000001
 43
0.00000001
 40
0.0
 40
0.0
 40
0.0
 40
0.0
 40
0.5047996155397978
 40
1.0
 40
1.0
 40
1.0
 40
1.0
 10
192.7189179942028
 20
77.53020277141876
 30
0.0
 10
192.6105283191652
 20
77.69104514286553
 30
0.0
 10
192.3958100989034
 20
78.00967131946193
 30
0.0
 10
192.1833779304495
 20
78.32703017290632
 30
0.0
 10
192.0781814389593
 20
78.48418639914381
 30
0.0
  0
SPLINE
  5
114
330
1F
100
AcDbEntity
  8
0
  6
HIDDEN
 62
     7
370
     0
100
AcDbSpline
210
0.0
220
0.0
230
1.0
 70
    11
 71
     3
 72
    66
 73
    62
 74
     0
 42
0.000000001
 43
0.00000001
 40
0.0
 40
0.0
 40
0.0
 40
0.0
 40
0.0312500000000001
 40
0.0312500000000001
 40
0.0625000000000002
 40
0.0625000000000002
 40
0.0937500000000002
 40
0.0937500000000002
 40
0.1250000000000003
 40
0.1250000000000003
 40
0.1875000000000005
 40
0.1875000000000005
 40
0.2187500000000006
 40
0.2187500000000006
 40
0.2500000000000007
 40
0.2500000000000007
 40
0.2812500000000007
 40
0.2812500000000007
 40
0.3125000000000007
 40
0.3125000000000007
 40
0.3437500000000007
 40
0.3437500000000007
 40
0.3750000000000008
 40
0.3750000000000008
 40
0.4062500000000007
 40
0.4062500000000007
 40
0.4375000000000007
 40
0.4375000000000007
 40
0.4687500000000006
 40
0.4687500000000006
 40
0.5000000000000004
 40
0.5000000000000004
 40
0.5312500000000004
 40
0.5312500000000004
 40
0.5625000000000003
 40
0.5625000000000003
 40
0.5937500000000003
 40
0.5937500000000003
 40
0.6250000000000002
 40
0.6250000000000002
 40
0.6562500000000001
 40
0.6562500000000001
 40
0.6874999999999999
 40
0.6874999999999999
 40
0.7187499999999998
 40
0.7187499999999998
 40
0.7499999999999997
 40
0.7499999999999997
 40
0.8124999999999994
 40
0.8124999999999994
 40
0.8437499999999996
 40
0.8437499999999996
 40
0.8749999999999997
 40
0.8749999999999997
 40
0.9062499999999998
 40
0.9062499999999998
 40
0.9374999999999998
 40
0.9374999999999998
 40
0.9687499999999999
 40
0.9687499999999999
 40
1.0
 40
1.0
 40
1.0
 40
1.0
 10
185.1938972245223
 20
126.2064666520649
 30
0.0
 10
185.3611026109685
 20
126.2064666520649
 30
0.0
 10
185.5250800000872
 20
126.2246978977151
 30
0.0
 10
185.8469961304648
 20
126.2953300511362
 30
0.0
 10
186.0066019154203
 20
126.3486736698676
 30
0.0
 10
186.3081695839488
 20
126.4849720901769
 30
0.0
 10
186.4508949505478
 20
126.5676480021346
 30
0.0
 10
186.7210435513871
 20
126.7606753775599
 30
0.0
 10
186.8472193947147
 20
126.8705289682424
 30
0.0
 10
187.1889648154541
 20
127.2274993268524
 30
0.0
 10
187.3745667835752
 20
127.5100351688164
 30
0.0
 10
187.5629719602836
 20
127.9582764181761
 30
0.0
 10
187.6121101895577
 20
128.1149632380737
 30
0.0
 10
187.6772832205786
 20
128.4282149312409
 30
0.0
 10
187.693702557587
 20
128.5842453898515
 30
0.0
 10
187.6940884834782
 20
128.8949072441584
 30
0.0
 10
187.6774783822451
 20
129.0500135955558
 30
0.0
 10
187.6128580394437
 20
129.3439897517885
 30
0.0
 10
187.5648748750325
 20
129.4851589131285
 30
0.0
 10
187.4378093093426
 20
129.7545852546162
 30
0.0
 10
187.3606152301591
 20
129.8790627766884
 30
0.0
 10
187.1801399848673
 20
130.1100477258923
 30
0.0
 10
187.0756446998998
 20
130.2173313740176
 30
0.0
 10
186.8471407079818
 20
130.4078967109983
 30
0.0
 10
186.7228513548489
 20
130.4920138644683
 30
0.0
 10
186.4532368757247
 20
130.6393870676073
 30
0.0
 10
186.3081155962568
 20
130.702093460906
 30
0.0
 10
186.0083734734957
 20
130.8020080749309
 30
0.0
 10
185.852304231639
 20
130.8400927416335
 30
0.0
 10
185.5264834429923
 20
130.8919217797643
 30
0.0
 10
185.361645004135
 20
130.9047656209812
 30
0.0
 10
185.0324574841319
 20
130.9050907756294
 30
0.0
 10
184.8654143433676
 20
130.8922993143678
 30
0.0
 10
184.5413138356552
 20
130.8412860061184
 30
0.0
 10
184.3847973273098
 20
130.8035462331794
 30
0.0
 10
184.0822267005535
 20
130.7031901495619
 30
0.0
 10
183.937065648822
 20
130.6405178946495
 30
0.0
 10
183.6683344108222
 20
130.4941024709068
 30
0.0
 10
183.542474260907
 20
130.4093012491951
 30
0.0
 10
183.3122817604375
 20
130.2175542262467
 30
0.0
 10
183.2098100813282
 20
130.1123983788296
 30
0.0
 10
183.0292443652945
 20
129.8821047110259
 30
0.0
 10
182.9505106305297
 20
129.7552986733359
 30
0.0
 10
182.8243275722926
 20
129.4885391093872
 30
0.0
 10
182.7762831207704
 20
129.3485503025567
 30
0.0
 10
182.7109043010553
 20
129.0542097659293
 30
0.0
 10
182.694025884347
 20
128.8990652686953
 30
0.0
 10
182.6936421614922
 20
128.4342945564546
 30
0.0
 10
182.7606063644263
 20
128.1121567775355
 30
0.0
 10
182.9491572118903
 20
127.6619252096503
 30
0.0
 10
183.0276729328108
 20
127.5146173457721
 30
0.0
 10
183.2086978579553
 20
127.2391815013598
 30
0.0
 10
183.3112263788315
 20
127.1101821839825
 30
0.0
 10
183.5407407321977
 20
126.8702694837616
 30
0.0
 10
183.6671213553814
 20
126.7604743870479
 30
0.0
 10
183.935199324768
 20
126.5687994204511
 30
0.0
 10
184.0780959782706
 20
126.485666775625
 30
0.0
 10
184.3826316345387
 20
126.3480195657092
 30
0.0
 10
184.5390662823692
 20
126.2958624521984
 30
0.0
 10
184.8603564687238
 20
126.2250648212521
 30
0.0
 10
185.026691838076
 20
126.2064666520649
 30
0.0
 10
185.1938972245223
 20
126.2064666520649
 30
0.0
  0
LINE
  5
115
330
1F
100
AcDbEntity
  8
0
  6
HIDDEN
 62
     7
370
     0
100
AcDbLine
 10
194.7080276946
 20
86.7811159573
 30
0.0
 11
194.7080276946
 21
86.6901985636
 31
0.0
  0
LINE
  5
116
330
1F
100
AcDbEntity
  8
0
  6
HIDDEN
 62
     7
370
     0
100
AcDbLine
 10
194.7080276946
 20
166.6901985636
 30
0.0
 11
194.7080276946
 21
166.5992811698
 31
0.0
  0
SPLINE
  5
117
330
1F
100
AcDbEntity
  8
0
  6
HIDDEN
 62
     7
370
     0
100
AcDbSpline
210
0.0
220
0.0
230
1.0
 70
    11
 71
     3
 72
    66
 73
    62
 74
     0
 42
0.000000001
 43
0.00000001
 40
0.0
 40
0.0
 40
0.0
 40
0.0
 40
0.0312499999999998
 40
0.0312499999999998
 40
0.0624999999999996
 40
0.0624999999999996
 40
0.0937499999999994
 40
0.0937499999999994
 40
0.1249999999999991
 40
0.1249999999999991
 40
0.1562499999999989
 40
0.1562499999999989
 40
0.1874999999999987
 40
0.1874999999999987
 40
0.2187499999999985
 40
0.2187499999999985
 40
0.2499999999999983
 40
0.2499999999999983
 40
0.2812499999999981
 40
0.2812499999999981
 40
0.3124999999999978
 40
0.3124999999999978
 40
0.3437499999999976
 40
0.3437499999999976
 40
0.3749999999999974
 40
0.3749999999999974
 40
0.4062499999999972
 40
0.4062499999999972
 40
0.437499999999997
 40
0.437499999999997
 40
0.4687499999999968
 40
0.4687499999999968
 40
0.4999999999999966
 40
0.4999999999999966
 40
0.5312499999999963
 40
0.5312499999999963
 40
0.5624999999999961
 40
0.5624999999999961
 40
0.6249999999999959
 40
0.6249999999999959
 40
0.6562499999999962
 40
0.6562499999999962
 40
0.6874999999999966
 40
0.6874999999999966
 40
0.7187499999999969
 40
0.7187499999999969
 40
0.7499999999999972
 40
0.7499999999999972
 40
0.7812499999999977
 40
0.7812499999999977
 40
0.812499999999998
 40
0.812499999999998
 40
0.8437499999999983
 40
0.8437499999999983
 40
0.8749999999999987
 40
0.8749999999999987
 40
0.906249999999999
 40
0.906249999999999
 40
0.9374999999999993
 40
0.9374999999999993
 40
1.0
 40
1.0
 40
1.0
 40
1.0
 10
185.1938972245223
 20
138.8516527704703
 30
0.0
 10
185.0286969338584
 20
138.8516527704703
 30
0.0
 10
184.8662643925618
 20
138.8672183617523
 30
0.0
 10
184.5467062369718
 20
138.9281646335819
 30
0.0
 10
184.3879228989948
 20
138.9742866775671
 30
0.0
 10
184.0851848825154
 20
139.0945498651552
 30
0.0
 10
183.9416057173811
 20
139.1680935145759
 30
0.0
 10
183.6698759875131
 20
139.3416104375082
 30
0.0
 10
183.5412474239753
 20
139.4424830942948
 30
0.0
 10
183.3106816623082
 20
139.662467883193
 30
0.0
 10
183.2072076610588
 20
139.7823470467818
 30
0.0
 10
183.024447123133
 20
140.0421884133793
 30
0.0
 10
182.9468028669044
 20
140.1802778439515
 30
0.0
 10
182.8221102162143
 20
140.4652602761997
 30
0.0
 10
182.7741062356359
 20
140.6142553855422
 30
0.0
 10
182.7098744933176
 20
140.9187804729369
 30
0.0
 10
182.6939850492754
 20
141.0715498203734
 30
0.0
 10
182.6938101189202
 20
141.3780395019874
 30
0.0
 10
182.7100407702551
 20
141.5333662722825
 30
0.0
 10
182.7738219929647
 20
141.833428478181
 30
0.0
 10
182.821014104361
 20
141.9789631906802
 30
0.0
 10
182.946180722019
 20
142.2610964710021
 30
0.0
 10
183.024440209394
 20
142.3972363123569
 30
0.0
 10
183.2053603927493
 20
142.6487728621263
 30
0.0
 10
183.3086456216732
 20
142.7657997059696
 30
0.0
 10
183.5418973637219
 20
142.9818749995911
 30
0.0
 10
183.6683112319875
 20
143.0775789234764
 30
0.0
 10
183.9389835026821
 20
143.2447319202481
 30
0.0
 10
184.0850652748464
 20
143.3168931058711
 30
0.0
 10
184.3879497203193
 20
143.4325471478276
 30
0.0
 10
184.543780079959
 20
143.4760799550103
 30
0.0
 10
184.8641255692244
 20
143.5349758579437
 30
0.0
 10
185.0298356551961
 20
143.5500619609636
 30
0.0
 10
185.3561670438926
 20
143.5501694926303
 30
0.0
 10
185.5183541297195
 20
143.5356788354406
 30
0.0
 10
185.8407297109281
 20
143.4769507711635
 30
0.0
 10
185.9987451849656
 20
143.4328199640342
 30
0.0
 10
186.4501560600411
 20
143.2608903654362
 30
0.0
 10
186.7292355170934
 20
143.0893166727652
 30
0.0
 10
187.0753092215917
 20
142.7696658543989
 30
0.0
 10
187.1809512375064
 20
142.6506247250104
 30
0.0
 10
187.3627347134772
 20
142.3983049641521
 30
0.0
 10
187.4396225368611
 20
142.2648406527807
 30
0.0
 10
187.5652770942314
 20
141.9830752402284
 30
0.0
 10
187.6135851701461
 20
141.8346545085974
 30
0.0
 10
187.6774030555864
 20
141.5356049108208
 30
0.0
 10
187.6937312326293
 20
141.3834018409536
 30
0.0
 10
187.694060722689
 20
141.0733999821138
 30
0.0
 10
187.6779642108543
 20
140.9198773150158
 30
0.0
 10
187.6147354735931
 20
140.6183485974367
 30
0.0
 10
187.5668988801826
 20
140.4684137721349
 30
0.0
 10
187.4415555622691
 20
140.181194676044
 30
0.0
 10
187.364858887744
 20
140.0448157617278
 30
0.0
 10
187.1838075210922
 20
139.7864602037135
 30
0.0
 10
187.0783319107313
 20
139.6637850273392
 30
0.0
 10
186.8478053420551
 20
139.4435313432872
 30
0.0
 10
186.7220859044247
 20
139.3446057718534
 30
0.0
 10
186.4493190552279
 20
139.1697670909317
 30
0.0
 10
186.3035996788219
 20
139.0950902459513
 30
0.0
 10
185.8525305737138
 20
138.9154640304585
 30
0.0
 10
185.5242978058501
 20
138.8516527704703
 30
0.0
 10
185.1938972245223
 20
138.8516527704703
 30
0.0
  0
SPLINE
  5
118
330
1F
100
AcDbEntity
  8
0
  6
HIDDEN
 62
     7
370
     0
100
AcDbSpline
210
0.0
220
0.0
230
1.0
 70
    11
 71
     3
 72
    60
 73
    56
 74
     0
 42
0.000000001
 43
0.00000001
 40
0.0
 40
0.0
 40
0.0
 40
0.0
 40
0.0312500000000001
 40
0.0312500000000001
 40
0.0625000000000001
 40
0.0625000000000001
 40
0.0937500000000002
 40
0.0937500000000002
 40
0.1250000000000002
 40
0.1250000000000002
 40
0.1562500000000003
 40
0.1562500000000003
 40
0.1875000000000003
 40
0.1875000000000003
 40
0.2187500000000004
 40
0.2187500000000004
 40
0.2500000000000004
 40
0.2500000000000004
 40
0.3124999999999996
 40
0.3124999999999996
 40
0.3749999999999988
 40
0.3749999999999988
 40
0.4062499999999984
 40
0.4062499999999984
 40
0.437499999999998
 40
0.437499999999998
 40
0.4531249999999978
 40
0.4531249999999978
 40
0.4687499999999977
 40
0.4687499999999977
 40
0.4999999999999978
 40
0.4999999999999978
 40
0.562499999999998
 40
0.562499999999998
 40
0.6249999999999982
 40
0.6249999999999982
 40
0.6874999999999984
 40
0.6874999999999984
 40
0.7187499999999986
 40
0.7187499999999986
 40
0.7499999999999988
 40
0.7499999999999988
 40
0.7812499999999989
 40
0.7812499999999989
 40
0.8124999999999991
 40
0.8124999999999991
 40
0.8437499999999992
 40
0.8437499999999992
 40
0.8749999999999994
 40
0.8749999999999994
 40
0.9062499999999996
 40
0.9062499999999996
 40
0.9374999999999998
 40
0.9374999999999998
 40
1.0
 40
1.0
 40
1.0
 40
1.0
 10
182.7749221643026
 20
136.1596737638337
 30
0.0
 10
182.8145122471494
 20
136.0281932324797
 30
0.0
 10
182.8668238680695
 20
135.9090093818
 30
0.0
 10
182.9925439736721
 20
135.6938158944721
 30
0.0
 10
183.0669670041163
 20
135.5972279888638
 30
0.0
 10
183.2256773123093
 20
135.4366670771088
 30
0.0
 10
183.3105559121148
 20
135.3713878404068
 30
0.0
 10
183.4823291316566
 20
135.2738856658495
 30
0.0
 10
183.5663393679527
 20
135.2434105690523
 30
0.0
 10
183.7117352912313
 20
135.2236616006949
 30
0.0
 10
183.7700015397406
 20
135.2354381501911
 30
0.0
 10
183.8366062645507
 20
135.2998584929745
 30
0.0
 10
183.8437671489484
 20
135.3505716310543
 30
0.0
 10
183.8206218295662
 20
135.4735951434292
 30
0.0
 10
183.7917137435966
 20
135.5440663697146
 30
0.0
 10
183.7162929857514
 20
135.697688032379
 30
0.0
 10
183.669347512975
 20
135.781323300563
 30
0.0
 10
183.5177056213536
 20
136.0447035395731
 30
0.0
 10
183.4017784840904
 20
136.2382524649967
 30
0.0
 10
183.1681529131081
 20
136.6751219368926
 30
0.0
 10
183.0494701464062
 20
136.9181270710799
 30
0.0
 10
182.8929988374506
 20
137.3292016096097
 30
0.0
 10
182.8450121888984
 20
137.472873175093
 30
0.0
 10
182.7644031791081
 20
137.7733361030519
 30
0.0
 10
182.731703650213
 20
137.9318353573263
 30
0.0
 10
182.7032830408691
 20
138.1670458791556
 30
0.0
 10
182.6971369688956
 20
138.2462934869521
 30
0.0
 10
182.6926587671307
 20
138.3979710574115
 30
0.0
 10
182.6941749775428
 20
138.4711791297199
 30
0.0
 10
182.7099379172193
 20
138.6829348609469
 30
0.0
 10
182.7354119719047
 20
138.8088330068083
 30
0.0
 10
182.8417767156535
 20
139.1305633728275
 30
0.0
 10
182.9476547449241
 20
139.2685770891875
 30
0.0
 10
183.1708249658691
 20
139.4543889403178
 30
0.0
 10
183.2917113979963
 20
139.503312975074
 30
0.0
 10
183.5207938716781
 20
139.539364300865
 30
0.0
 10
183.6309566899285
 20
139.5274861176632
 30
0.0
 10
183.7589398572796
 20
139.4628785561138
 30
0.0
 10
183.7952812026921
 20
139.4328713423504
 30
0.0
 10
183.8383712058522
 20
139.3523432188004
 30
0.0
 10
183.8448560144541
 20
139.3007628015486
 30
0.0
 10
183.8088152617532
 20
139.171215591923
 30
0.0
 10
183.764596046628
 20
139.0913567674296
 30
0.0
 10
183.6389460718158
 20
138.9092272921246
 30
0.0
 10
183.5578219403344
 20
138.8051748521045
 30
0.0
 10
183.39087657024
 20
138.5822109564252
 30
0.0
 10
183.3029884055101
 20
138.4604075743799
 30
0.0
 10
183.1373489082611
 20
138.2028463513203
 30
0.0
 10
183.0594028201236
 20
138.0673674910064
 30
0.0
 10
182.920147086452
 20
137.7806131696584
 30
0.0
 10
182.8611213675531
 20
137.6341611317672
 30
0.0
 10
182.7673364138498
 20
137.3339164018653
 30
0.0
 10
182.7325233557403
 20
137.1782145457401
 30
0.0
 10
182.6742057510637
 20
136.7224515584784
 30
0.0
 10
182.6957419986089
 20
136.4226348265416
 30
0.0
 10
182.7749221643026
 20
136.1596737638336
 30
0.0
  0
LWPOLYLINE
  5
119
330
1F
100
AcDbEntity
  8
0
  6
HIDDEN
 62
     7
370
     0
100
AcDbPolyline
 90
       20
 70
   128
 43
0.0
 10
165.976154925
 20
139.4768494228
 10
166.1329090666
 20
138.9907460928
 10
166.381196838
 20
138.685893729
 10
166.6941124065
 20
138.5953278153
 10
167.0377465149
 20
138.7288625736
 10
167.3748610755
 20
139.072027441
 10
167.6689244948
 20
139.5876351793
 10
167.8880704385
 20
140.2198116895
 10
168.0085510431
 20
140.9000508376
 10
168.0173103658
 20
141.5546381569
 10
167.9133991979
 20
142.1126389543
 10
167.7080779269
 20
142.5135851851
 10
167.4235962983
 20
142.714028104
 10
167.0907823109
 20
142.6922466105
 10
166.7457015242
 20
142.4506010674
 10
166.4257487961
 20
142.0152775188
 10
166.1655959691
 20
141.4334500259
 10
165.9934346388
 20
140.7681686256
 10
165.9279211567
 20
140.0915268804
 10
165.976154925
 20
139.4768494228
  0
LWPOLYLINE
  5
11A
330
1F
100
AcDbEntity
  8
0
  6
HIDDEN
 62
     7
370
     0
100
AcDbPolyline
 90
       23
 70
   128
 43
0.0
 10
165.2632843364
 20
139.0243739017
 10
165.4482786523
 20
138.4108064846
 10
165.734185577
 20
137.9842638064
 10
166.0978426317
 20
137.7793018181
 10
166.5097884847
 20
137.8125253211
 10
166.9366497328
 20
138.0812427448
 10
167.3438446164
 20
138.5636842015
 10
167.6983846277
 20
139.2207651537
 10
167.9715470435
 20
139.9992528104
 10
168.1412018695
 20
140.8360787315
 10
168.1936046806
 20
141.6634482578
 10
168.1245101127
 20
142.4143328306
 10
167.9395157967
 20
143.0279002477
 10
167.6536088721
 20
143.4544429259
 10
167.2899518173
 20
143.6594049142
 10
166.8780059644
 20
143.6261814112
 10
166.4511447163
 20
143.3574639875
 10
166.0439498326
 20
142.8750225308
 10
165.6894098213
 20
142.2179415786
 10
165.4162474055
 20
141.4394539219
 10
165.2465925796
 20
140.6026280008
 10
165.1941897685
 20
139.7752584745
 10
165.2632843364
 20
139.0243739017
  0
LWPOLYLINE
  5
11B
330
1F
100
AcDbEntity
  8
0
  6
HIDDEN
 62
     7
370
     0
100
AcDbPolyline
 90
       21
 70
   128
 43
0.0
 10
165.4762440887
 20
113.1727736252
 10
165.5703041956
 20
112.4201448407
 10
165.7743494168
 20
111.6910969209
 10
166.0684063842
 20
111.0569941558
 10
166.4236907532
 20
110.5799069422
 10
166.8054248142
 20
110.3065359005
 10
167.1762417776
 20
110.263640493
 10
167.4998434956
 20
110.4554196211
 10
167.7445535771
 20
110.8631006074
 10
167.8864180945
 20
111.4467767967
 10
167.9115503604
 20
112.1493138967
 10
167.8174902534
 20
112.9019426812
 10
167.6134450323
 20
113.630990601
 10
167.3193880648
 20
114.2650933661
 10
166.9641036959
 20
114.7421805798
 10
166.5823696349
 20
115.0155516214
 10
166.2115526714
 20
115.0584470289
 10
165.8879509535
 20
114.8666679009
 10
165.6432408719
 20
114.4589869145
 10
165.5013763545
 20
113.8753107252
 10
165.4762440887
 20
113.1727736252
  0
LWPOLYLINE
  5
11C
330
1F
100
AcDbEntity
  8
0
  6
HIDDEN
 62
     7
370
     0
100
AcDbPolyline
 90
       23
 70
   128
 43
0.0
 10
165.4773997669
 20
113.3435520767
 10
165.5764524687
 20
112.5043737801
 10
165.7884950449
 20
111.6823232534
 10
166.0963490673
 20
110.9439981411
 10
166.4750740337
 20
110.3492131531
 10
166.8939878998
 20
109.9461542315
 10
167.3191527555
 20
109.7674748133
 10
167.7161242728
 20
109.8276504422
 10
168.0527421801
 20
110.1218060467
 10
168.3017356967
 20
110.626110889
 10
168.4429328485
 20
111.2997091901
 10
168.4648946821
 20
112.0880300216
 10
168.3658419804
 20
112.9272083182
 10
168.1537994041
 20
113.749258845
 10
167.8459453817
 20
114.4875839572
 10
167.4672204153
 20
115.0823689453
 10
167.0483065492
 20
115.4854278668
 10
166.6231416935
 20
115.664107285
 10
166.2261701763
 20
115.6039316561
 10
165.8895522689
 20
115.3097760517
 10
165.6405587524
 20
114.8054712093
 10
165.4993616006
 20
114.1318729082
 10
165.4773997669
 20
113.3435520767
  0
LWPOLYLINE
  5
11D
330
1F
100
AcDbEntity
  8
0
  6
HIDDEN
 62
     7
370
     0
100
AcDbPolyline
 90
       23
 70
   128
 43
0.0
 10
168.6642513821
 20
113.9728450751
 10
168.7633040838
 20
113.1336667786
 10
168.9753466601
 20
112.3116162518
 10
169.2832006824
 20
111.5732911396
 10
169.6619256489
 20
110.9785061515
 10
170.080839515
 20
110.57544723
 10
170.5060043707
 20
110.3967678118
 10
170.9029758879
 20
110.4569434407
 10
171.2395937953
 20
110.7510990451
 10
171.4885873118
 20
111.2554038874
 10
171.6297844636
 20
111.9290021885
 10
171.6517462973
 20
112.7173230201
 10
171.5526935955
 20
113.5565013167
 10
171.3406510192
 20
114.3785518434
 10
171.0327969969
 20
115.1168769557
 10
170.6540720304
 20
115.7116619437
 10
170.2351581643
 20
116.1147208652
 10
169.8099933086
 20
116.2934002835
 10
169.4130217914
 20
116.2332246546
 10
169.0764038841
 20
115.9390690501
 10
168.8274103675
 20
115.4347642078
 10
168.6862132157
 20
114.7611659067
 10
168.6642513821
 20
113.9728450751
  0
LINE
  5
11E
330
1F
100
AcDbEntity
  8
0
  6
HIDDEN
 62
     7
370
     0
100
AcDbLine
 10
167.1935128177
 20
111.0356367468
 30
0.0
 11
167.5563127213
 21
112.2986057627
 31
0.0
  0
LINE
  5
11F
330
1F
100
AcDbEntity
  8
0
  6
HIDDEN
 62
     7
370
     0
100
AcDbLine
 10
167.0566971281
 20
113.9240127769
 30
0.0
 11
167.5563127213
 21
112.2986057627
 31
0.0
  0
LINE
  5
120
330
1F
100
AcDbEntity
  8
0
  6
HIDDEN
 62
     7
370
     0
100
AcDbLine
 10
166.1942816313
 20
114.2864507751
 30
0.0
 11
167.0566971281
 21
113.9240127769
 31
0.0
  0
LINE
  5
121
330
1F
100
AcDbEntity
  8
0
  6
HIDDEN
 62
     7
370
     0
100
AcDbLine
 10
166.1942816313
 20
114.2864507751
 30
0.0
 11
165.8314817278
 21
113.0234817592
 31
0.0
  0
LINE
  5
122
330
1F
100
AcDbEntity
  8
0
  6
HIDDEN
 62
     7
370
     0
100
AcDbLine
 10
166.331097321
 20
111.3980747451
 30
0.0
 11
165.8314817278
 21
113.0234817592
 31
0.0
  0
LINE
  5
123
330
1F
100
AcDbEntity
  8
0
  6
HIDDEN
 62
     7
370
     0
100
AcDbLine
 10
166.331097321
 20
111.3980747451
 30
0.0
 11
167.1935128177
 21
111.0356367468
 31
0.0
  0
LINE
  5
124
330
1F
100
AcDbEntity
  8
0
  6
HIDDEN
 62
     7
370
     0
100
AcDbLine
 10
169.2883635288
 20
112.6406259061
 30
0.0
 11
167.5563127213
 21
112.2986057627
 31
0.0
  0
LWPOLYLINE
  5
125
330
1F
100
AcDbEntity
  8
0
  6
HIDDEN
 62
     7
370
     0
100
AcDbPolyline
 90
       19
 70
   128
 43
0.0
 10
170.028192605
 20
113.934601471
 10
170.1194444158
 20
113.2507738669
 10
170.319801904
 20
112.598947801
 10
170.6050989995
 20
112.0577431167
 10
170.9409246621
 20
111.6924370863
 10
171.2867733606
 20
111.5470910083
 10
171.6009306379
 20
111.639235765
 10
171.8455044897
 20
111.9577573386
 10
171.9909957001
 20
112.4642373266
 10
172.0198558818
 20
113.0975867676
 10
171.9286040711
 20
113.7814143717
 10
171.7282465829
 20
114.4332404376
 10
171.4429494874
 20
114.9744451219
 10
171.1071238248
 20
115.3397511523
 10
170.7612751263
 20
115.4850972302
 10
170.447117849
 20
115.3929524736
 10
170.2025439972
 20
115.0744308999
 10
170.0570527868
 20
114.5679509119
 10
170.028192605
 20
113.934601471
  0
LINE
  5
126
330
1F
100
AcDbEntity
  8
0
  6
HIDDEN
 62
     7
370
     0
100
AcDbLine
 10
168.7887479357
 20
114.2660329202
 30
0.0
 11
167.0566971281
 21
113.9240127769
 31
0.0
  0
LINE
  5
127
330
1F
100
AcDbEntity
  8
0
  6
HIDDEN
 62
     7
370
     0
100
AcDbLine
 10
167.9263324389
 20
114.6284709184
 30
0.0
 11
167.5635325353
 21
113.3655019025
 31
0.0
  0
LINE
  5
128
330
1F
100
AcDbEntity
  8
0
  6
HIDDEN
 62
     7
370
     0
100
AcDbLine
 10
168.0631481285
 20
111.7400948884
 30
0.0
 11
168.9255636253
 21
111.3776568902
 31
0.0
  0
LINE
  5
129
330
1F
100
AcDbEntity
  8
0
  6
HIDDEN
 62
     7
370
     0
100
AcDbLine
 10
168.0631481285
 20
111.7400948884
 30
0.0
 11
167.5635325353
 21
113.3655019025
 31
0.0
  0
LINE
  5
12A
330
1F
100
AcDbEntity
  8
0
  6
HIDDEN
 62
     7
370
     0
100
AcDbLine
 10
167.9263324389
 20
114.6284709184
 30
0.0
 11
168.7887479357
 21
114.2660329202
 31
0.0
  0
LINE
  5
12B
330
1F
100
AcDbEntity
  8
0
  6
HIDDEN
 62
     7
370
     0
100
AcDbLine
 10
168.9255636253
 20
111.3776568902
 30
0.0
 11
169.2883635288
 21
112.6406259061
 31
0.0
  0
LINE
  5
12C
330
1F
100
AcDbEntity
  8
0
  6
HIDDEN
 62
     7
370
     0
100
AcDbLine
 10
168.7887479357
 20
114.2660329202
 30
0.0
 11
169.2883635288
 21
112.6406259061
 31
0.0
  0
LINE
  5
12D
330
1F
100
AcDbEntity
  8
0
  6
HIDDEN
 62
     7
370
     0
100
AcDbLine
 10
168.0631481285
 20
111.7400948884
 30
0.0
 11
166.331097321
 21
111.3980747451
 31
0.0
  0
LINE
  5
12E
330
1F
100
AcDbEntity
  8
0
  6
HIDDEN
 62
     7
370
     0
100
AcDbLine
 10
168.9255636253
 20
111.3776568902
 30
0.0
 11
167.1935128177
 21
111.0356367468
 31
0.0
  0
LINE
  5
12F
330
1F
100
AcDbEntity
  8
0
  6
HIDDEN
 62
     7
370
     0
100
AcDbLine
 10
167.5635325353
 20
113.3655019025
 30
0.0
 11
165.8314817278
 21
113.0234817592
 31
0.0
  0
LINE
  5
130
330
1F
100
AcDbEntity
  8
0
  6
HIDDEN
 62
     7
370
     0
100
AcDbLine
 10
167.9263324389
 20
114.6284709184
 30
0.0
 11
166.1942816313
 21
114.2864507751
 31
0.0
  0
LWPOLYLINE
  5
131
330
1F
100
AcDbEntity
  8
0
  6
HIDDEN
 62
     7
370
     0
100
AcDbPolyline
 90
       23
 70
   128
 43
0.0
 10
186.0306870996
 20
114.9710297944
 10
185.1851382307
 20
115.0829028954
 10
184.3402989634
 20
114.9663920472
 10
183.5646131507
 20
114.6309362657
 10
182.9209222439
 20
114.1037121833
 10
182.4613742521
 20
113.4274323597
 10
182.2231990206
 20
112.6568849641
 10
182.2256920902
 20
111.854495164
 10
182.4686514872
 20
111.0852678089
 10
182.9323940861
 20
110.4115211244
 10
183.5793502196
 20
109.8878380599
 10
184.3571073494
 20
109.5566443029
 10
185.2026562183
 20
109.4447712018
 10
186.0474954856
 20
109.56128205
 10
186.8231812984
 20
109.8967378315
 10
187.4668722052
 20
110.4239619139
 10
187.9264201969
 20
111.1002417375
 10
188.1645954284
 20
111.8707891331
 10
188.1621023588
 20
112.6731789332
 10
187.9191429619
 20
113.4424062883
 10
187.4554003629
 20
114.1161529728
 10
186.8084442294
 20
114.6398360373
 10
186.0306870996
 20
114.9710297944
  0
LWPOLYLINE
  5
132
330
1F
100
AcDbEntity
  8
0
  6
HIDDEN
 62
     7
370
     0
100
AcDbPolyline
 90
       23
 70
   128
 43
0.0
 10
186.0306870996
 20
116.2296157913
 10
185.1851382307
 20
116.3414888923
 10
184.3402989634
 20
116.2249780441
 10
183.5646131507
 20
115.8895222626
 10
182.9209222439
 20
115.3622981802
 10
182.4613742521
 20
114.6860183566
 10
182.2231990206
 20
113.915470961
 10
182.2256920902
 20
113.1130811609
 10
182.4686514872
 20
112.3438538058
 10
182.9323940861
 20
111.6701071213
 10
183.5793502196
 20
111.1464240568
 10
184.3571073494
 20
110.8152302998
 10
185.2026562183
 20
110.7033571987
 10
186.0474954856
 20
110.8198680469
 10
186.8231812984
 20
111.1553238284
 10
187.4668722052
 20
111.6825479108
 10
187.9264201969
 20
112.3588277344
 10
188.1645954284
 20
113.12937513
 10
188.1621023588
 20
113.9317649301
 10
187.9191429619
 20
114.7009922852
 10
187.4554003629
 20
115.3747389697
 10
186.8084442294
 20
115.8984220342
 10
186.0306870996
 20
116.2296157913
  0
LINE
  5
133
330
1F
100
AcDbEntity
  8
0
  6
HIDDEN
 62
     7
370
     0
100
AcDbLine
 10
185.6770180842
 20
114.4013812194
 30
0.0
 11
185.6770180842
 21
113.7173409327
 31
0.0
  0
LINE
  5
134
330
1F
100
AcDbEntity
  8
0
  6
HIDDEN
 62
     7
370
     0
100
AcDbLine
 10
183.9949904814
 20
114.0130446245
 30
0.0
 11
183.9949904814
 21
113.3290043379
 31
0.0
  0
LINE
  5
135
330
1F
100
AcDbEntity
  8
0
  6
HIDDEN
 62
     7
370
     0
100
AcDbLine
 10
186.8759248273
 20
113.2267193537
 30
0.0
 11
186.7136372901
 21
112.7016847465
 31
0.0
  0
LINE
  5
136
330
1F
100
AcDbEntity
  8
0
  6
HIDDEN
 62
     7
370
     0
100
AcDbLine
 10
186.8759248273
 20
113.2267193537
 30
0.0
 11
186.8759248273
 21
112.5426790671
 31
0.0
  0
LINE
  5
137
330
1F
100
AcDbEntity
  8
0
  6
HIDDEN
 62
     7
370
     0
100
AcDbLine
 10
183.5118696218
 20
112.450046164
 30
0.0
 11
183.674157159
 21
112.2910404846
 31
0.0
  0
LINE
  5
138
330
1F
100
AcDbEntity
  8
0
  6
HIDDEN
 62
     7
370
     0
100
AcDbLine
 10
183.5118696218
 20
112.450046164
 30
0.0
 11
183.5118696218
 21
111.7660058774
 31
0.0
  0
LINE
  5
139
330
1F
100
AcDbEntity
  8
0
  6
HIDDEN
 62
     7
370
     0
100
AcDbLine
 10
183.9949904814
 20
114.0130446245
 30
0.0
 11
183.5118696218
 21
112.450046164
 31
0.0
  0
LINE
  5
13A
330
1F
100
AcDbEntity
  8
0
  6
HIDDEN
 62
     7
370
     0
100
AcDbLine
 10
186.8759248273
 20
113.2267193537
 30
0.0
 11
185.6770180842
 21
114.4013812194
 31
0.0
  0
LINE
  5
13B
330
1F
100
AcDbEntity
  8
0
  6
HIDDEN
 62
     7
370
     0
100
AcDbLine
 10
183.9949904814
 20
114.0130446245
 30
0.0
 11
185.6770180842
 21
114.4013812194
 31
0.0
  0
LWPOLYLINE
  5
13C
330
1F
100
AcDbEntity
  8
0
  6
HIDDEN
 62
     7
370
     0
100
AcDbPolyline
 90
       19
 70
   128
 43
0.0
 10
185.7517571413
 20
115.6692383527
 10
185.0612223531
 20
115.7396886075
 10
184.3866901126
 20
115.5839565892
 10
183.8095189628
 20
115.2208258775
 10
183.3993242627
 20
114.6940953955
 10
183.2055815468
 20
114.0672966129
 10
183.2516590461
 20
113.4160307137
 10
183.5319991341
 20
112.8188499768
 10
184.0127886588
 20
112.3477832126
 10
184.6360373078
 20
112.059648025
 10
185.3265720959
 20
111.9891977702
 10
186.0011043365
 20
112.1449297885
 10
186.5782754862
 20
112.5080605002
 10
186.9884701864
 20
113.0347909822
 10
187.1822129022
 20
113.6615897647
 10
187.136135403
 20
114.312855664
 10
186.855795315
 20
114.9100364009
 10
186.3750057903
 20
115.3811031651
 10
185.7517571413
 20
115.6692383527
  0
LWPOLYLINE
  5
13D
330
1F
100
AcDbEntity
  8
0
  6
HIDDEN
 62
     7
370
     0
100
AcDbPolyline
 90
       23
 70
   128
 43
0.0
 10
168.6642513821
 20
139.407552052
 10
168.7633040838
 20
140.2467303485
 10
168.9753466601
 20
141.0687808753
 10
169.2832006824
 20
141.8071059875
 10
169.6619256489
 20
142.4018909756
 10
170.080839515
 20
142.8049498971
 10
170.5060043707
 20
142.9836293153
 10
170.9029758879
 20
142.9234536864
 10
171.2395937953
 20
142.629298082
 10
171.4885873118
 20
142.1249932397
 10
171.6297844636
 20
141.4513949386
 10
171.6517462973
 20
140.663074107
 10
171.5526935955
 20
139.8238958105
 10
171.3406510192
 20
139.0018452837
 10
171.0327969969
 20
138.2635201715
 10
170.6540720304
 20
137.6687351834
 10
170.2351581643
 20
137.2656762619
 10
169.8099933086
 20
137.0869968437
 10
169.4130217914
 20
137.1471724726
 10
169.0764038841
 20
137.441328077
 10
168.8274103675
 20
137.9456329193
 10
168.6862132157
 20
138.6192312204
 10
168.6642513821
 20
139.407552052
  0
LWPOLYLINE
  5
13E
330
1F
100
AcDbEntity
  8
0
  6
HIDDEN
 62
     7
370
     0
100
AcDbPolyline
 90
       19
 70
   128
 43
0.0
 10
170.028192605
 20
139.4457956561
 10
170.1194444158
 20
140.1296232602
 10
170.319801904
 20
140.7814493261
 10
170.6050989995
 20
141.3226540104
 10
170.9409246621
 20
141.6879600409
 10
171.2867733606
 20
141.8333061188
 10
171.6009306379
 20
141.7411613621
 10
171.8455044897
 20
141.4226397885
 10
171.9909957001
 20
140.9161598005
 10
172.0198558818
 20
140.2828103595
 10
171.9286040711
 20
139.5989827554
 10
171.7282465829
 20
138.9471566895
 10
171.4429494874
 20
138.4059520052
 10
171.1071238248
 20
138.0406459748
 10
170.7612751263
 20
137.8952998969
 10
170.447117849
 20
137.9874446535
 10
170.2025439972
 20
138.3059662272
 10
170.0570527868
 20
138.8124462152
 10
170.028192605
 20
139.4457956561
  0
LWPOLYLINE
  5
13F
330
1F
100
AcDbEntity
  8
0
  6
HIDDEN
 62
     7
370
     0
100
AcDbPolyline
 90
       23
 70
   128
 43
0.0
 10
165.4773997669
 20
140.0368450504
 10
165.5764524687
 20
140.876023347
 10
165.7884950449
 20
141.6980738738
 10
166.0963490673
 20
142.436398986
 10
166.4750740337
 20
143.0311839741
 10
166.8939878998
 20
143.4342428956
 10
167.3191527555
 20
143.6129223138
 10
167.7161242728
 20
143.5527466849
 10
168.0527421801
 20
143.2585910804
 10
168.3017356967
 20
142.7542862381
 10
168.4429328485
 20
142.080687937
 10
168.4648946821
 20
141.2923671055
 10
168.3658419804
 20
140.4531888089
 10
168.1537994041
 20
139.6311382821
 10
167.8459453817
 20
138.8928131699
 10
167.4672204153
 20
138.2980281818
 10
167.0483065492
 20
137.8949692603
 10
166.6231416935
 20
137.7162898421
 10
166.2261701763
 20
137.776465471
 10
165.8895522689
 20
138.0706210755
 10
165.6405587524
 20
138.5749259178
 10
165.4993616006
 20
139.2485242189
 10
165.4773997669
 20
140.0368450504
  0
LWPOLYLINE
  5
140
330
1F
100
AcDbEntity
  8
0
  6
HIDDEN
 62
     7
370
     0
100
AcDbPolyline
 90
       21
 70
   128
 43
0.0
 10
165.4762440887
 20
140.2076235019
 10
165.5703041956
 20
140.9602522864
 10
165.7743494168
 20
141.6893002062
 10
166.0684063842
 20
142.3234029713
 10
166.4236907532
 20
142.8004901849
 10
166.8054248142
 20
143.0738612266
 10
167.1762417776
 20
143.1167566341
 10
167.4998434956
 20
142.924977506
 10
167.7445535771
 20
142.5172965197
 10
167.8864180945
 20
141.9336203304
 10
167.9115503604
 20
141.2310832304
 10
167.8174902534
 20
140.4784544459
 10
167.6134450323
 20
139.7494065261
 10
167.3193880648
 20
139.115303761
 10
166.9641036959
 20
138.6382165474
 10
166.5823696349
 20
138.3648455057
 10
166.2115526714
 20
138.3219500982
 10
165.8879509535
 20
138.5137292263
 10
165.6432408719
 20
138.9214102126
 10
165.5013763545
 20
139.5050864019
 10
165.4762440887
 20
140.2076235019
  0
LINE
  5
141
330
1F
100
AcDbEntity
  8
0
  6
HIDDEN
 62
     7
370
     0
100
AcDbLine
 10
168.0631481285
 20
141.6403022387
 30
0.0
 11
167.5635325353
 21
140.0148952246
 31
0.0
  0
LINE
  5
142
330
1F
100
AcDbEntity
  8
0
  6
HIDDEN
 62
     7
370
     0
100
AcDbLine
 10
166.331097321
 20
141.982322382
 30
0.0
 11
165.8314817278
 21
140.3569153679
 31
0.0
  0
LINE
  5
143
330
1F
100
AcDbEntity
  8
0
  6
HIDDEN
 62
     7
370
     0
100
AcDbLine
 10
166.1942816313
 20
139.093946352
 30
0.0
 11
165.8314817278
 21
140.3569153679
 31
0.0
  0
LINE
  5
144
330
1F
100
AcDbEntity
  8
0
  6
HIDDEN
 62
     7
370
     0
100
AcDbLine
 10
167.9263324389
 20
138.7519262087
 30
0.0
 11
167.5635325353
 21
140.0148952246
 31
0.0
  0
LINE
  5
145
330
1F
100
AcDbEntity
  8
0
  6
HIDDEN
 62
     7
370
     0
100
AcDbLine
 10
167.5635325353
 20
140.0148952246
 30
0.0
 11
165.8314817278
 21
140.3569153679
 31
0.0
  0
LINE
  5
146
330
1F
100
AcDbEntity
  8
0
  6
HIDDEN
 62
     7
370
     0
100
AcDbLine
 10
166.331097321
 20
141.982322382
 30
0.0
 11
167.1935128177
 21
142.3447603803
 31
0.0
  0
LINE
  5
147
330
1F
100
AcDbEntity
  8
0
  6
HIDDEN
 62
     7
370
     0
100
AcDbLine
 10
168.0631481285
 20
141.6403022387
 30
0.0
 11
168.9255636253
 21
142.0027402369
 31
0.0
  0
LINE
  5
148
330
1F
100
AcDbEntity
  8
0
  6
HIDDEN
 62
     7
370
     0
100
AcDbLine
 10
168.0631481285
 20
141.6403022387
 30
0.0
 11
166.331097321
 21
141.982322382
 31
0.0
  0
LINE
  5
149
330
1F
100
AcDbEntity
  8
0
  6
HIDDEN
 62
     7
370
     0
100
AcDbLine
 10
168.7887479357
 20
139.1143642069
 30
0.0
 11
167.0566971281
 21
139.4563843502
 31
0.0
  0
LINE
  5
14A
330
1F
100
AcDbEntity
  8
0
  6
HIDDEN
 62
     7
370
     0
100
AcDbLine
 10
167.9263324389
 20
138.7519262087
 30
0.0
 11
166.1942816313
 21
139.093946352
 31
0.0
  0
LINE
  5
14B
330
1F
100
AcDbEntity
  8
0
  6
HIDDEN
 62
     7
370
     0
100
AcDbLine
 10
166.1942816313
 20
139.093946352
 30
0.0
 11
167.0566971281
 21
139.4563843502
 31
0.0
  0
LINE
  5
14C
330
1F
100
AcDbEntity
  8
0
  6
HIDDEN
 62
     7
370
     0
100
AcDbLine
 10
167.9263324389
 20
138.7519262087
 30
0.0
 11
168.7887479357
 21
139.1143642069
 31
0.0
  0
LINE
  5
14D
330
1F
100
AcDbEntity
  8
0
  6
HIDDEN
 62
     7
370
     0
100
AcDbLine
 10
169.2883635288
 20
140.739771221
 30
0.0
 11
167.5563127213
 21
141.0817913644
 31
0.0
  0
LINE
  5
14E
330
1F
100
AcDbEntity
  8
0
  6
HIDDEN
 62
     7
370
     0
100
AcDbLine
 10
168.9255636253
 20
142.0027402369
 30
0.0
 11
167.1935128177
 21
142.3447603803
 31
0.0
  0
LINE
  5
14F
330
1F
100
AcDbEntity
  8
0
  6
HIDDEN
 62
     7
370
     0
100
AcDbLine
 10
167.1935128177
 20
142.3447603803
 30
0.0
 11
167.5563127213
 21
141.0817913644
 31
0.0
  0
LINE
  5
150
330
1F
100
AcDbEntity
  8
0
  6
HIDDEN
 62
     7
370
     0
100
AcDbLine
 10
168.9255636253
 20
142.0027402369
 30
0.0
 11
169.2883635288
 21
140.739771221
 31
0.0
  0
LINE
  5
151
330
1F
100
AcDbEntity
  8
0
  6
HIDDEN
 62
     7
370
     0
100
AcDbLine
 10
167.0566971281
 20
139.4563843502
 30
0.0
 11
167.5563127213
 21
141.0817913644
 31
0.0
  0
LINE
  5
152
330
1F
100
AcDbEntity
  8
0
  6
HIDDEN
 62
     7
370
     0
100
AcDbLine
 10
168.7887479357
 20
139.1143642069
 30
0.0
 11
169.2883635288
 21
140.739771221
 31
0.0
  0
LWPOLYLINE
  5
153
330
1F
100
AcDbEntity
  8
0
  6
HIDDEN
 62
     7
370
     0
100
AcDbPolyline
 90
       23
 70
   128
 43
0.0
 10
184.3571073494
 20
137.1507813359
 10
183.5793502196
 20
137.4819750929
 10
182.9323940861
 20
138.0056581574
 10
182.4686514872
 20
138.6794048419
 10
182.2256920902
 20
139.448632197
 10
182.2231990206
 20
140.2510219971
 10
182.4613742521
 20
141.0215693927
 10
182.9209222439
 20
141.6978492163
 10
183.5646131507
 20
142.2250732987
 10
184.3402989634
 20
142.5605290802
 10
185.1851382307
 20
142.6770399284
 10
186.0306870996
 20
142.5651668273
 10
186.8084442294
 20
142.2339730703
 10
187.4554003629
 20
141.7102900058
 10
187.9191429619
 20
141.0365433213
 10
188.1621023588
 20
140.2673159662
 10
188.1645954284
 20
139.4649261661
 10
187.9264201969
 20
138.6943787705
 10
187.4668722052
 20
138.0180989469
 10
186.8231812984
 20
137.4908748645
 10
186.0474954856
 20
137.155419083
 10
185.2026562183
 20
137.0389082348
 10
184.3571073494
 20
137.1507813359
  0
LWPOLYLINE
  5
154
330
1F
100
AcDbEntity
  8
0
  6
HIDDEN
 62
     7
370
     0
100
AcDbPolyline
 90
       19
 70
   128
 43
0.0
 10
184.6360373078
 20
137.7111587744
 10
184.0127886588
 20
137.999293962
 10
183.5319991341
 20
138.4703607262
 10
183.2516590461
 20
139.0675414631
 10
183.2055815468
 20
139.7188073624
 10
183.3993242627
 20
140.3456061449
 10
183.8095189628
 20
140.8723366269
 10
184.3866901126
 20
141.2354673386
 10
185.0612223531
 20
141.391199357
 10
185.7517571413
 20
141.3207491021
 10
186.3750057903
 20
141.0326139145
 10
186.855795315
 20
140.5615471503
 10
187.136135403
 20
139.9643664134
 10
187.1822129022
 20
139.3131005142
 10
186.9884701864
 20
138.6863017316
 10
186.5782754862
 20
138.1595712496
 10
186.0011043365
 20
137.7964405379
 10
185.3265720959
 20
137.6407085196
 10
184.6360373078
 20
137.7111587744
  0
LWPOLYLINE
  5
155
330
1F
100
AcDbEntity
  8
0
  6
HIDDEN
 62
     7
370
     0
100
AcDbPolyline
 90
       23
 70
   128
 43
0.0
 10
184.3571073494
 20
138.4093673328
 10
183.5793502196
 20
138.7405610898
 10
182.9323940861
 20
139.2642441543
 10
182.4686514872
 20
139.9379908388
 10
182.2256920902
 20
140.7072181939
 10
182.2231990206
 20
141.509607994
 10
182.4613742521
 20
142.2801553896
 10
182.9209222439
 20
142.9564352132
 10
183.5646131507
 20
143.4836592956
 10
184.3402989634
 20
143.8191150771
 10
185.1851382307
 20
143.9356259253
 10
186.0306870996
 20
143.8237528242
 10
186.8084442294
 20
143.4925590672
 10
187.4554003629
 20
142.9688760027
 10
187.9191429619
 20
142.2951293182
 10
188.1621023588
 20
141.5259019631
 10
188.1645954284
 20
140.723512163
 10
187.9264201969
 20
139.9529647674
 10
187.4668722052
 20
139.2766849438
 10
186.8231812984
 20
138.7494608614
 10
186.0474954856
 20
138.4140050799
 10
185.2026562183
 20
138.2974942317
 10
184.3571073494
 20
138.4093673328
  0
LINE
  5
156
330
1F
100
AcDbEntity
  8
0
  6
HIDDEN
 62
     7
370
     0
100
AcDbLine
 10
183.9949904814
 20
141.7166762339
 30
0.0
 11
185.6770180842
 21
142.1050128287
 31
0.0
  0
LINE
  5
157
330
1F
100
AcDbEntity
  8
0
  6
HIDDEN
 62
     7
370
     0
100
AcDbLine
 10
185.6770180842
 20
142.1050128287
 30
0.0
 11
185.6770180842
 21
142.7890531154
 31
0.0
  0
LINE
  5
158
330
1F
100
AcDbEntity
  8
0
  6
HIDDEN
 62
     7
370
     0
100
AcDbLine
 10
186.8759248273
 20
140.9303509631
 30
0.0
 11
185.6770180842
 21
142.1050128287
 31
0.0
  0
LINE
  5
159
330
1F
100
AcDbEntity
  8
0
  6
HIDDEN
 62
     7
370
     0
100
AcDbLine
 10
183.9949904814
 20
141.7166762339
 30
0.0
 11
183.9949904814
 21
142.4007165205
 31
0.0
  0
LINE
  5
15A
330
1F
100
AcDbEntity
  8
0
  6
HIDDEN
 62
     7
370
     0
100
AcDbLine
 10
183.5118696218
 20
140.1536777734
 30
0.0
 11
183.9949904814
 21
141.7166762339
 31
0.0
  0
LINE
  5
15B
330
1F
100
AcDbEntity
  8
0
  6
HIDDEN
 62
     7
370
     0
100
AcDbLine
 10
186.3928039676
 20
139.3673525026
 30
0.0
 11
186.3928039676
 21
140.0513927893
 31
0.0
  0
LINE
  5
15C
330
1F
100
AcDbEntity
  8
0
  6
HIDDEN
 62
     7
370
     0
100
AcDbLine
 10
186.3928039676
 20
140.0513927893
 30
0.0
 11
186.8759248273
 21
141.6143912498
 31
0.0
  0
LINE
  5
15D
330
1F
100
AcDbEntity
  8
0
  6
HIDDEN
 62
     7
370
     0
100
AcDbLine
 10
186.8759248273
 20
140.9303509631
 30
0.0
 11
186.8759248273
 21
141.6143912498
 31
0.0
  0
LINE
  5
15E
330
1F
100
AcDbEntity
  8
0
  6
HIDDEN
 62
     7
370
     0
100
AcDbLine
 10
186.3928039676
 20
139.3673525026
 30
0.0
 11
186.8759248273
 21
140.9303509631
 31
0.0
  0
LINE
  5
15F
330
1F
100
AcDbEntity
  8
0
  6
HIDDEN
 62
     7
370
     0
100
AcDbLine
 10
184.7107763649
 20
138.9790159077
 30
0.0
 11
184.7107763649
 21
139.6630561944
 31
0.0
  0
LINE
  5
160
330
1F
100
AcDbEntity
  8
0
  6
HIDDEN
 62
     7
370
     0
100
AcDbLine
 10
183.5118696218
 20
140.83771806
 30
0.0
 11
184.7107763649
 21
139.6630561944
 31
0.0
  0
LINE
  5
161
330
1F
100
AcDbEntity
  8
0
  6
HIDDEN
 62
     7
370
     0
100
AcDbLine
 10
183.5118696218
 20
140.1536777734
 30
0.0
 11
183.5118696218
 21
140.83771806
 31
0.0
  0
LINE
  5
162
330
1F
100
AcDbEntity
  8
0
  6
HIDDEN
 62
     7
370
     0
100
AcDbLine
 10
183.5118696218
 20
140.1536777734
 30
0.0
 11
184.7107763649
 21
138.9790159077
 31
0.0
  0
LINE
  5
163
330
1F
100
AcDbEntity
  8
0
  6
HIDDEN
 62
     7
370
     0
100
AcDbLine
 10
186.3928039676
 20
140.0513927893
 30
0.0
 11
184.7107763649
 21
139.6630561944
 31
0.0
  0
LINE
  5
164
330
1F
100
AcDbEntity
  8
0
  6
HIDDEN
 62
     7
370
     0
100
AcDbLine
 10
186.3928039676
 20
139.3673525026
 30
0.0
 11
184.7107763649
 21
138.9790159077
 31
0.0
  0
LWPOLYLINE
  5
165
330
1F
100
AcDbEntity
  8
0
  6
HIDDEN
 62
     7
370
     0
100
AcDbPolyline
 90
       21
 70
   128
 43
0.0
 10
184.5117740113
 20
139.0192413683
 10
183.8194511183
 20
139.3253261119
 10
183.2616685865
 20
139.8174674085
 10
182.8930260564
 20
140.4474910389
 10
182.7496088273
 20
141.1537259006
 10
182.845455577
 20
141.8670408048
 10
183.1711841576
 20
142.5176115186
 10
183.6949099863
 20
143.0417556477
 10
184.3653671299
 20
143.388166313
 10
185.1169265719
 20
143.5229344248
 10
185.8760204377
 20
143.4328679415
 10
186.5683433307
 20
143.1267831979
 10
187.1261258626
 20
142.6346419013
 10
187.4947683927
 20
142.0046182709
 10
187.6381856217
 20
141.2983834091
 10
187.5423388721
 20
140.585068505
 10
187.2166102915
 20
139.9344977912
 10
186.6928844628
 20
139.4103536621
 10
186.0224273191
 20
139.0639429968
 10
185.2708678771
 20
138.929174885
 10
184.5117740113
 20
139.0192413683
  0
LINE
  5
166
330
1F
100
AcDbEntity
  8
0
  6
HIDDEN
 62
     7
370
     0
100
AcDbLine
 10
183.5118696218
 20
140.83771806
 30
0.0
 11
183.9949904814
 21
142.4007165205
 31
0.0
  0
LINE
  5
167
330
1F
100
AcDbEntity
  8
0
  6
HIDDEN
 62
     7
370
     0
100
AcDbLine
 10
186.8759248273
 20
141.6143912498
 30
0.0
 11
185.6770180842
 21
142.7890531154
 31
0.0
  0
LINE
  5
168
330
1F
100
AcDbEntity
  8
0
  6
HIDDEN
 62
     7
370
     0
100
AcDbLine
 10
183.9949904814
 20
142.4007165205
 30
0.0
 11
185.6770180842
 21
142.7890531154
 31
0.0
  0
LINE
  5
169
330
1F
100
AcDbEntity
  8
0
  6
HIDDEN
 62
     7
370
     0
100
AcDbLine
 10
226.9438972245
 20
165.6901985636
 30
0.0
 11
226.3921100205
 21
166.2419857675
 31
0.0
  0
LINE
  5
16A
330
1F
100
AcDbEntity
  8
0
  6
HIDDEN
 62
     7
370
     0
100
AcDbLine
 10
211.4981674394
 20
166.2444687785
 30
0.0
 11
210.9438972245
 21
165.6901985636
 31
0.0
  0
LINE
  5
16B
330
1F
100
AcDbEntity
  8
0
  6
HIDDEN
 62
     7
370
     0
100
AcDbLine
 10
210.9438972245
 20
165.6901985636
 30
0.0
 11
210.9438972245
 21
147.0203255825
 31
0.0
  0
LINE
  5
16C
330
1F
100
AcDbEntity
  8
0
  6
HIDDEN
 62
     7
370
     0
100
AcDbLine
 10
226.9438972245
 20
147.0203255825
 30
0.0
 11
226.9438972245
 21
165.6901985636
 31
0.0
  0
LINE
  5
16D
330
1F
100
AcDbEntity
  8
0
  6
HIDDEN
 62
     7
370
     0
100
AcDbLine
 10
210.9438972245
 20
147.0203255825
 30
0.0
 11
213.3445978054
 21
138.060789041
 31
0.0
  0
LINE
  5
16E
330
1F
100
AcDbEntity
  8
0
  6
HIDDEN
 62
     7
370
     0
100
AcDbLine
 10
224.5431966437
 20
138.060789041
 30
0.0
 11
226.9438972245
 21
147.0203255825
 31
0.0
  0
ARC
  5
16F
330
1F
100
AcDbEntity
  8
0
  6
HIDDEN
 62
     7
370
     0
100
AcDbCircle
 10
213.8275607185
 20
138.1901985636
 30
0.0
 40
0.5000000000000353
100
AcDbArc
 50
195.0
 51
270.0
  0
ARC
  5
170
330
1F
100
AcDbEntity
  8
0
  6
HIDDEN
 62
     7
370
     0
100
AcDbCircle
 10
224.0602337305
 20
138.1901985636
 30
0.0
 40
0.5000000000000079
100
AcDbArc
 50
270.0
 51
345.0
  0
LINE
  5
171
330
1F
100
AcDbEntity
  8
0
  6
HIDDEN
 62
     7
370
     0
100
AcDbLine
 10
214.2438972245
 20
166.6901985636
 30
0.0
 11
214.9438972245
 21
165.9901985636
 31
0.0
  0
LINE
  5
172
330
1F
100
AcDbEntity
  8
0
  6
HIDDEN
 62
     7
370
     0
100
AcDbLine
 10
222.9438972245
 20
165.9901985636
 30
0.0
 11
223.6438972245
 21
166.6901985636
 31
0.0
  0
LINE
  5
173
330
1F
100
AcDbEntity
  8
0
  6
HIDDEN
 62
     7
370
     0
100
AcDbLine
 10
214.9438972245
 20
155.6901985636
 30
0.0
 11
214.9438972245
 21
154.6901985636
 31
0.0
  0
LINE
  5
174
330
1F
100
AcDbEntity
  8
0
  6
HIDDEN
 62
     7
370
     0
100
AcDbLine
 10
222.9438972245
 20
154.6901985636
 30
0.0
 11
222.9438972245
 21
155.6901985636
 31
0.0
  0
LINE
  5
175
330
1F
100
AcDbEntity
  8
0
  6
HIDDEN
 62
     7
370
     0
100
AcDbLine
 10
214.9438972245
 20
154.6901985636
 30
0.0
 11
218.9438972245
 21
153.2343176265
 31
0.0
  0
LINE
  5
176
330
1F
100
AcDbEntity
  8
0
  6
HIDDEN
 62
     7
370
     0
100
AcDbLine
 10
218.9438972245
 20
153.2343176265
 30
0.0
 11
222.9438972245
 21
154.6901985636
 31
0.0
  0
LINE
  5
177
330
1F
100
AcDbEntity
  8
0
  6
HIDDEN
 62
     7
370
     0
100
AcDbLine
 10
164.9938972245
 20
109.2674229608
 30
0.0
 11
167.2750711031
 21
109.7178759229
 31
0.0
  0
LINE
  5
178
330
1F
100
AcDbEntity
  8
0
  6
HIDDEN
 62
     7
370
     0
100
AcDbLine
 10
166.1127233459
 20
115.604211599
 30
0.0
 11
164.9938972245
 21
115.383282127
 31
0.0
  0
LINE
  5
179
330
1F
100
AcDbEntity
  8
0
  6
HIDDEN
 62
     7
370
     0
100
AcDbLine
 10
187.6938972245
 20
112.1549772972
 30
0.0
 11
187.6938972245
 21
124.6424269457
 31
0.0
  0
LINE
  5
17A
330
1F
100
AcDbEntity
  8
0
  6
HIDDEN
 62
     7
370
     0
100
AcDbLine
 10
182.6938972245
 20
114.9971888038
 30
0.0
 11
182.6938972245
 21
112.1544062427
 31
0.0
  0
LINE
  5
17B
330
1F
100
AcDbEntity
  8
0
  6
HIDDEN
 62
     7
370
     0
100
AcDbLine
 10
182.6938972245
 20
124.6414967672
 30
0.0
 11
182.6938972245
 21
116.6490530602
 31
0.0
  0
LINE
  5
17C
330
1F
100
AcDbEntity
  8
0
  6
HIDDEN
 62
     7
370
     0
100
AcDbLine
 10
167.3844056617
 20
110.6568445926
 30
0.0
 11
183.5928409109
 21
113.8574500961
 31
0.0
  0
LINE
  5
17D
330
1F
100
AcDbEntity
  8
0
  6
HIDDEN
 62
     7
370
     0
100
AcDbLine
 10
183.6044366662
 20
118.1408412732
 30
0.0
 11
166.5707622317
 21
114.7772795658
 31
0.0
  0
ARC
  5
17E
330
1F
100
AcDbEntity
  8
0
  6
HIDDEN
 62
     7
370
     0
100
AcDbCircle
 10
235.9938972245
 20
145.6901985636
 30
0.0
 40
1.0
100
AcDbArc
 50
270.0
 51
0.0
  0
ARC
  5
17F
330
1F
100
AcDbEntity
  8
0
  6
HIDDEN
 62
     7
370
     0
100
AcDbCircle
 10
235.9938972245
 20
107.6901985636
 30
0.0
 40
1.0
100
AcDbArc
 50
0.0
 51
90.0
  0
ARC
  5
180
330
1F
100
AcDbEntity
  8
0
  6
HIDDEN
 62
     7
370
     0
100
AcDbCircle
 10
197.4938972245
 20
144.1901985636
 30
0.0
 40
1.0
100
AcDbArc
 50
90.0
 51
180.0
  0
ARC
  5
181
330
1F
100
AcDbEntity
  8
0
  6
HIDDEN
 62
     7
370
     0
100
AcDbCircle
 10
197.4938972245
 20
109.1901985636
 30
0.0
 40
1.0
100
AcDbArc
 50
180.0
 51
270.0
  0
LINE
  5
182
330
1F
100
AcDbEntity
  8
0
  6
HIDDEN
 62
     7
370
     0
100
AcDbLine
 10
199.3622447269
 20
145.1901985636
 30
0.0
 11
197.4938972245
 21
145.1901985636
 31
0.0
  0
LINE
  5
183
330
1F
100
AcDbEntity
  8
0
  6
HIDDEN
 62
     7
370
     0
100
AcDbLine
 10
197.4938972245
 20
108.1901985636
 30
0.0
 11
199.3622447269
 21
108.1901985636
 31
0.0
  0
ARC
  5
184
330
1F
100
AcDbEntity
  8
0
  6
HIDDEN
 62
     7
370
     0
100
AcDbCircle
 10
199.3622447269
 20
144.1901985636
 30
0.0
 40
0.9999999999999716
100
AcDbArc
 50
75.0
 51
90.0
  0
ARC
  5
185
330
1F
100
AcDbEntity
  8
0
  6
HIDDEN
 62
     7
370
     0
100
AcDbCircle
 10
199.3622447269
 20
109.1901985636
 30
0.0
 40
1.0
100
AcDbArc
 50
270.0
 51
285.0
  0
LINE
  5
186
330
1F
100
AcDbEntity
  8
0
  6
HIDDEN
 62
     7
370
     0
100
AcDbLine
 10
199.621063772
 20
108.2242727373
 30
0.0
 11
201.3599226283
 21
108.6901985636
 31
0.0
  0
LINE
  5
187
330
1F
100
AcDbEntity
  8
0
  6
HIDDEN
 62
     7
370
     0
100
AcDbLine
 10
201.3599226283
 20
144.6901985636
 30
0.0
 11
199.621063772
 21
145.1561243898
 31
0.0
  0
LINE
  5
188
330
1F
100
AcDbEntity
  8
0
  6
HIDDEN
 62
     7
370
     0
100
AcDbLine
 10
211.6938972245
 20
144.6901985636
 30
0.0
 11
201.3599226283
 21
144.6901985636
 31
0.0
  0
LINE
  5
189
330
1F
100
AcDbEntity
  8
0
  6
HIDDEN
 62
     7
370
     0
100
AcDbLine
 10
235.9938972245
 20
144.6901985636
 30
0.0
 11
226.1820545819
 21
144.6901985636
 31
0.0
  0
LINE
  5
18A
330
1F
100
AcDbEntity
  8
0
  6
HIDDEN
 62
     7
370
     0
100
AcDbLine
 10
201.3599226283
 20
108.6901985636
 30
0.0
 11
235.9938972245
 21
108.6901985636
 31
0.0
  0
ARC
  5
18B
330
1F
100
AcDbEntity
  8
0
  6
HIDDEN
 62
     7
370
     0
100
AcDbCircle
 10
61.3938972245
 20
112.9901985636
 30
0.0
 40
1.200000000000003
100
AcDbArc
 50
90.0
 51
180.0
  0
ARC
  5
18C
330
1F
100
AcDbEntity
  8
0
  6
HIDDEN
 62
     7
370
     0
100
AcDbCircle
 10
61.3938972245
 20
140.3901985636
 30
0.0
 40
1.200000000000017
100
AcDbArc
 50
180.0
 51
270.0
  0
ARC
  5
18D
330
1F
100
AcDbEntity
  8
0
  6
HIDDEN
 62
     7
370
     0
100
AcDbCircle
 10
192.9938972245
 20
89.3901985636
 30
0.0
 40
2.0
100
AcDbArc
 50
30.9791622294
 51
90.0
  0
ARC
  5
18E
330
1F
100
AcDbEntity
  8
0
  6
HIDDEN
 62
     7
370
     0
100
AcDbCircle
 10
192.9938972245
 20
163.9901985636
 30
0.0
 40
2.000000000000003
100
AcDbArc
 50
270.0
 51
329.0042529921
  0
LINE
  5
18F
330
1F
100
AcDbEntity
  8
0
  6
HIDDEN
 62
     7
370
     0
100
AcDbLine
 10
194.9938972245
 20
77.5899831765
 30
0.0
 11
194.9938972245
 21
86.702198946
 31
0.0
  0
LINE
  5
190
330
1F
100
AcDbEntity
  8
0
  6
HIDDEN
 62
     7
370
     0
100
AcDbLine
 10
194.9938972245
 20
166.6781981811
 30
0.0
 11
194.9938972245
 21
175.7903019141
 31
0.0
  0
LINE
  5
191
330
1F
100
AcDbEntity
  8
0
  6
HIDDEN
 62
     7
370
     0
100
AcDbLine
 10
71.0862696553
 20
113.9651985636
 30
0.0
 11
71.9629571168
 21
113.9651985636
 31
0.0
  0
LINE
  5
192
330
1F
100
AcDbEntity
  8
0
  6
HIDDEN
 62
     7
370
     0
100
AcDbLine
 10
71.9629571168
 20
139.4151985636
 30
0.0
 11
71.0862696553
 21
139.4151985636
 31
0.0
  0
ARC
  5
193
330
1F
100
AcDbEntity
  8
0
  6
HIDDEN
 62
     7
370
     0
100
AcDbCircle
 10
71.9629571168
 20
114.3651985636
 30
0.0
 40
0.3999999999999998
100
AcDbArc
 50
270.0
 51
330.0
  0
ARC
  5
194
330
1F
100
AcDbEntity
  8
0
  6
HIDDEN
 62
     7
370
     0
100
AcDbCircle
 10
71.9629571168
 20
139.0151985636
 30
0.0
 40
0.4000000000000069
100
AcDbArc
 50
30.0
 51
90.0
  0
ARC
  5
195
330
1F
100
AcDbEntity
  8
0
  6
HIDDEN
 62
     7
370
     0
100
AcDbCircle
 10
71.0862696553
 20
114.3651985636
 30
0.0
 40
0.3999999999999915
100
AcDbArc
 50
255.0
 51
270.0
  0
ARC
  5
196
330
1F
100
AcDbEntity
  8
0
  6
HIDDEN
 62
     7
370
     0
100
AcDbCircle
 10
71.0862696553
 20
139.0151985636
 30
0.0
 40
0.3999999999999986
100
AcDbArc
 50
90.0
 51
105.0
  0
LINE
  5
197
330
1F
100
AcDbEntity
  8
0
  6
HIDDEN
 62
     7
370
     0
100
AcDbLine
 10
70.9827420372
 20
139.4015688941
 30
0.0
 11
70.1938972245
 21
139.1901985636
 31
0.0
  0
LINE
  5
198
330
1F
100
AcDbEntity
  8
0
  6
HIDDEN
 62
     7
370
     0
100
AcDbLine
 10
70.1938972245
 20
114.1901985636
 30
0.0
 11
70.9827420372
 21
113.978828233
 31
0.0
  0
LINE
  5
199
330
1F
100
AcDbEntity
  8
0
  6
HIDDEN
 62
     7
370
     0
100
AcDbLine
 10
72.3093672784
 20
114.1651985636
 30
0.0
 11
73.4785015735
 21
116.1901985636
 31
0.0
  0
LINE
  5
19A
330
1F
100
AcDbEntity
  8
0
  6
HIDDEN
 62
     7
370
     0
100
AcDbLine
 10
73.4785015735
 20
137.1901985636
 30
0.0
 11
72.3093672784
 21
139.2151985636
 31
0.0
  0
LINE
  5
19B
330
1F
100
AcDbEntity
  8
0
  6
HIDDEN
 62
     7
370
     0
100
AcDbLine
 10
61.3938972245
 20
114.1901985636
 30
0.0
 11
70.1938972245
 21
114.1901985636
 31
0.0
  0
LINE
  5
19C
330
1F
100
AcDbEntity
  8
0
  6
HIDDEN
 62
     7
370
     0
100
AcDbLine
 10
70.1938972245
 20
139.1901985636
 30
0.0
 11
61.3938972245
 21
139.1901985636
 31
0.0
  0
LINE
  5
19D
330
1F
100
AcDbEntity
  8
0
  6
HIDDEN
 62
     7
370
     0
100
AcDbLine
 10
73.4785015735
 20
116.1901985636
 30
0.0
 11
123.1938972245
 21
116.1901985636
 31
0.0
  0
LINE
  5
19E
330
1F
100
AcDbEntity
  8
0
  6
HIDDEN
 62
     7
370
     0
100
AcDbLine
 10
123.1938972245
 20
137.1901985636
 30
0.0
 11
73.4785015735
 21
137.1901985636
 31
0.0
  0
LINE
  5
19F
330
1F
100
AcDbEntity
  8
0
  6
HIDDEN
 62
     7
370
     0
100
AcDbLine
 10
123.1938972245
 20
116.1901985636
 30
0.0
 11
125.8977700101
 21
120.6901985636
 31
0.0
  0
LINE
  5
1A0
330
1F
100
AcDbEntity
  8
0
  6
HIDDEN
 62
     7
370
     0
100
AcDbLine
 10
125.8977700101
 20
132.6901985636
 30
0.0
 11
123.1938972245
 21
137.1901985636
 31
0.0
  0
LINE
  5
1A1
330
1F
100
AcDbEntity
  8
0
  6
HIDDEN
 62
     7
370
     0
100
AcDbLine
 10
208.9438972245
 20
166.6901985636
 30
0.0
 11
211.6938972245
 21
163.9401985636
 31
0.0
  0
LINE
  5
1A2
330
1F
100
AcDbEntity
  8
0
  6
HIDDEN
 62
     7
370
     0
100
AcDbLine
 10
226.1938972245
 20
163.9401985636
 30
0.0
 11
228.9438972245
 21
166.6901985636
 31
0.0
  0
LINE
  5
1A3
330
1F
100
AcDbEntity
  8
0
  6
HIDDEN
 62
     7
370
     0
100
AcDbLine
 10
194.9939015449
 20
175.6901990873
 30
0.0
 11
195.9939013943
 21
176.6901988661
 31
0.0
  0
LINE
  5
1A4
330
1F
100
AcDbEntity
  8
0
  6
HIDDEN
 62
     7
370
     0
100
AcDbLine
 10
195.9939013949
 20
76.6901982603
 30
0.0
 11
194.9939015456
 21
77.6901980391
 31
0.0
  0
LINE
  5
1A5
330
1F
100
AcDbEntity
  8
0
  6
HIDDEN
 62
     7
370
     0
100
AcDbLine
 10
211.6938972245
 20
163.9401985636
 30
0.0
 11
211.6938972245
 21
144.6901985636
 31
0.0
  0
LINE
  5
1A6
330
1F
100
AcDbEntity
  8
0
  6
HIDDEN
 62
     7
370
     0
100
AcDbLine
 10
226.1938972245
 20
144.6854614339
 30
0.0
 11
226.1938972245
 21
163.9401985636
 31
0.0
  0
LINE
  5
1A7
330
1F
100
AcDbEntity
  8
0
  6
HIDDEN
 62
     7
370
     0
100
AcDbLine
 10
196.4938972245
 20
132.6901985636
 30
0.0
 11
125.8977700101
 21
132.6901985636
 31
0.0
  0
LINE
  5
1A8
330
1F
100
AcDbEntity
  8
0
  6
HIDDEN
 62
     7
370
     0
100
AcDbLine
 10
125.8977700101
 20
120.6901985636
 30
0.0
 11
196.4938972245
 21
120.6901985636
 31
0.0
  0
LINE
  5
1A9
330
1F
100
AcDbEntity
  8
0
  6
HIDDEN
 62
     7
370
     0
100
AcDbLine
 10
194.7080276946
 20
86.6901985636
 30
0.0
 11
194.9938972245
 21
86.6901985636
 31
0.0
  0
LINE
  5
1AA
330
1F
100
AcDbEntity
  8
0
  6
HIDDEN
 62
     7
370
     0
100
AcDbLine
 10
194.9938972245
 20
166.6901985636
 30
0.0
 11
194.7080276946
 21
166.6901985636
 31
0.0
  0
LINE
  5
1AB
330
1F
100
AcDbEntity
  8
0
  6
HIDDEN
 62
     7
370
     0
100
AcDbLine
 10
187.6938972245
 20
128.7410538172
 30
0.0
 11
187.6938972245
 21
141.226022001
 31
0.0
  0
LINE
  5
1AC
330
1F
100
AcDbEntity
  8
0
  6
HIDDEN
 62
     7
370
     0
100
AcDbLine
 10
182.6938972245
 20
136.7322790415
 30
0.0
 11
182.6938972245
 21
128.7415196254
 31
0.0
  0
LINE
  5
1AD
330
1F
100
AcDbEntity
  8
0
  6
HIDDEN
 62
     7
370
     0
100
AcDbLine
 10
182.6938972245
 20
141.2258934728
 30
0.0
 11
182.6938972245
 21
138.3832950649
 31
0.0
  0
LINE
  5
1AE
330
1F
100
AcDbEntity
  8
0
  6
HIDDEN
 62
     7
370
     0
100
AcDbLine
 10
166.5707622317
 20
138.6031175613
 30
0.0
 11
183.6087009491
 21
135.2387138055
 31
0.0
  0
LINE
  5
1AF
330
1F
100
AcDbEntity
  8
0
  6
HIDDEN
 62
     7
370
     0
100
AcDbLine
 10
183.6102803152
 20
139.5195033517
 30
0.0
 11
167.3844056617
 21
142.7235525345
 31
0.0
  0
LINE
  5
1B0
330
1F
100
AcDbEntity
  8
0
  6
HIDDEN
 62
     7
370
     0
100
AcDbLine
 10
164.9938972245
 20
137.9971150001
 30
0.0
 11
166.1127233459
 21
137.7761855281
 31
0.0
  0
LINE
  5
1B1
330
1F
100
AcDbEntity
  8
0
  6
HIDDEN
 62
     7
370
     0
100
AcDbLine
 10
167.2750711031
 20
143.6625212042
 30
0.0
 11
164.9938972245
 21
144.1129741664
 31
0.0
  0
LINE
  5
1B2
330
1F
100
AcDbEntity
  8
0
  6
HIDDEN
 62
     7
370
     0
100
AcDbLine
 10
165.4711472245
 20
113.6043854473
 30
0.0
 11
165.4711472245
 21
113.3853962945
 31
0.0
  0
LINE
  5
1B3
330
1F
100
AcDbEntity
  8
0
  6
HIDDEN
 62
     7
370
     0
100
AcDbLine
 10
165.8382581602
 20
111.5262812541
 30
0.0
 11
165.9214979941
 21
111.3237290902
 31
0.0
  0
LINE
  5
1B4
330
1F
100
AcDbEntity
  8
0
  6
HIDDEN
 62
     7
370
     0
100
AcDbLine
 10
167.5523211031
 20
109.7726232111
 30
0.0
 11
170.7391727183
 21
110.4019162096
 31
0.0
  0
LINE
  5
1B5
330
1F
100
AcDbEntity
  8
0
  6
HIDDEN
 62
     7
370
     0
100
AcDbLine
 10
169.576824961
 20
116.2882518856
 30
0.0
 11
166.3899733459
 21
115.6589588872
 31
0.0
  0
LINE
  5
1B6
330
1F
100
AcDbEntity
  8
0
  6
HIDDEN
 62
     7
370
     0
100
AcDbLine
 10
171.3860320836
 20
110.9987817752
 30
0.0
 11
171.8427130727
 21
111.9518926044
 31
0.0
  0
LINE
  5
1B7
330
1F
100
AcDbEntity
  8
0
  6
HIDDEN
 62
     7
370
     0
100
AcDbLine
 10
171.1866958605
 20
115.2740803887
 30
0.0
 11
170.4020062653
 21
115.9820634517
 31
0.0
  0
LINE
  5
1B8
330
1F
100
AcDbEntity
  8
0
  6
HIDDEN
 62
     7
370
     0
100
AcDbLine
 10
188.1938972245
 20
112.2638370486
 30
0.0
 11
188.1938972245
 21
113.5224230455
 31
0.0
  0
LINE
  5
1B9
330
1F
100
AcDbEntity
  8
0
  6
HIDDEN
 62
     7
370
     0
100
AcDbLine
 10
182.1938972245
 20
113.5224230455
 30
0.0
 11
182.1938972245
 21
112.2638370486
 31
0.0
  0
LINE
  5
1BA
330
1F
100
AcDbEntity
  8
0
  6
HIDDEN
 62
     7
370
     0
100
AcDbLine
 10
170.4020062653
 20
137.3983336754
 30
0.0
 11
171.1866958605
 21
138.1063167384
 31
0.0
  0
LINE
  5
1BB
330
1F
100
AcDbEntity
  8
0
  6
HIDDEN
 62
     7
370
     0
100
AcDbLine
 10
171.8427130727
 20
141.4285045227
 30
0.0
 11
171.3860320836
 21
142.3816153519
 31
0.0
  0
LINE
  5
1BC
330
1F
100
AcDbEntity
  8
0
  6
HIDDEN
 62
     7
370
     0
100
AcDbLine
 10
166.3899733459
 20
137.7214382399
 30
0.0
 11
169.576824961
 21
137.0921452415
 31
0.0
  0
LINE
  5
1BD
330
1F
100
AcDbEntity
  8
0
  6
HIDDEN
 62
     7
370
     0
100
AcDbLine
 10
170.7391727183
 20
142.9784809175
 30
0.0
 11
167.5523211031
 21
143.607773916
 31
0.0
  0
LINE
  5
1BE
330
1F
100
AcDbEntity
  8
0
  6
HIDDEN
 62
     7
370
     0
100
AcDbLine
 10
165.9214979941
 20
142.0566680369
 30
0.0
 11
165.8382581602
 21
141.854115873
 31
0.0
  0
LINE
  5
1BF
330
1F
100
AcDbEntity
  8
0
  6
HIDDEN
 62
     7
370
     0
100
AcDbLine
 10
165.4711472245
 20
139.9950008326
 30
0.0
 11
165.4711472245
 21
139.7760116798
 31
0.0
  0
LINE
  5
1C0
330
1F
100
AcDbEntity
  8
0
  6
HIDDEN
 62
     7
370
     0
100
AcDbLine
 10
182.1938972245
 20
141.1165600785
 30
0.0
 11
182.1938972245
 21
139.8579740816
 31
0.0
  0
LINE
  5
1C1
330
1F
100
AcDbEntity
  8
0
  6
HIDDEN
 62
     7
370
     0
100
AcDbLine
 10
188.1938972245
 20
139.8579740816
 30
0.0
 11
188.1938972245
 21
141.1165600785
 31
0.0
  0
DIMENSION
  5
1C2
330
1F
100
AcDbEntity
  8
VERMASSUNG
100
AcDbDimension
  2
_D
 10
50.1938972245
 20
176.6901985636
 30
0.0
 11
50.1938972245
 21
126.6901985636
 31
0.0
 70
   160
  1
MAS-BT 50 %%c<>
 71
     2
 42
-1.0
  3
SLDDIMSTYLE0
100
AcDbAlignedDimension
 13
198.9938972245
 23
76.6901985636
 33
0.0
 14
198.9938972245
 24
176.6901985636
 34
0.0
 50
90.0
100
AcDbRotatedDimension
  0
DIMENSION
  5
1CF
330
1F
100
AcDbEntity
  8
VERMASSUNG
100
AcDbDimension
  2
_D_1
 10
236.9938972245
 20
194.21641882
 30
0.0
 11
148.5938972245
 21
194.21641882
 31
0.0
 70
   160
  1
<>
 71
     2
 42
-1.0
  3
SLDDIMSTYLE0
100
AcDbAlignedDimension
 13
60.1938972245
 23
145.0398764243
 33
0.0
 14
236.9938972245
 24
165.8901985636
 34
0.0
100
AcDbRotatedDimension
  0
DIMENSION
  5
1D9
330
1F
100
AcDbEntity
  8
VERMASSUNG
100
AcDbDimension
  2
_D_2
 10
236.9938972245
 20
188.21641882
 30
0.0
 11
199.4938972245
 21
188.21641882
 31
0.0
 70
   160
  1
<>
 71
     2
 42
-1.0
  3
SLDDIMSTYLE0
100
AcDbAlignedDimension
 13
161.9938972245
 23
161.6151985636
 33
0.0
 14
236.9938972245
 24
165.8901985636
 34
0.0
100
AcDbRotatedDimension
  0
DIMENSION
  5
1E3
330
1F
100
AcDbEntity
  8
VERMASSUNG
100
AcDbDimension
  2
_D_3
 10
236.9938972245
 20
182.21641882
 30
0.0
 11
218.4938972245
 21
182.21641882
 31
0.0
 70
   160
  1
<>
 71
     2
 42
-1.0
  3
SLDDIMSTYLE0
100
AcDbAlignedDimension
 13
199.9938972245
 23
175.6901985636
 33
0.0
 14
236.9938972245
 24
165.8901985636
 34
0.0
100
AcDbRotatedDimension
  0
DIMENSION
  5
1ED
330
1F
100
AcDbEntity
  8
VERMASSUNG
100
AcDbDimension
  2
_D_4
 10
252.9938972245
 20
86.6901985636
 30
0.0
 11
252.9938972245
 21
126.6901985636
 31
0.0
 70
   160
  1
WH%%c<>
 71
     2
 42
-1.0
  3
SLDDIMSTYLE0
100
AcDbAlignedDimension
 13
236.1938972245
 23
166.6901985636
 33
0.0
 14
236.1938972245
 24
86.6901985636
 34
0.0
 50
90.0
100
AcDbRotatedDimension
  0
DIMENSION
  5
1F9
330
1F
100
AcDbEntity
  8
VERMASSUNG
100
AcDbDimension
  2
_D_5
 10
246.9938972245
 20
144.6901985636
 30
0.0
 11
246.9938972245
 21
126.6901985636
 31
0.0
 70
   160
  1
%%c<>
 71
     2
 42
-1.0
  3
SLDDIMSTYLE0
100
AcDbAlignedDimension
 13
235.9938972245
 23
108.6901985636
 33
0.0
 14
235.9938972245
 24
144.6901985636
 34
0.0
 50
90.0
100
AcDbRotatedDimension
  0
LINE
  5
204
330
1F
100
AcDbEntity
  8
VERMASSUNG
  6
CENTERX2
370
     0
100
AcDbLine
 10
58.1938972245
 20
126.6901985636
 30
0.0
 11
238.9540377455
 21
126.6901985636
 31
0.0
  0
LINE
  5
205
330
1F
100
AcDbEntity
  8
0
  6
Continuous
 62
     7
370
    15
100
AcDbLine
 10
271.4098439254
 20
49.9219667944
 30
0.0
 11
271.0562330864
 21
50.126168342
 31
0.0
  0
LINE
  5
206
330
1F
100
AcDbEntity
  8
0
  6
Continuous
 62
     7
370
    15
100
AcDbLine
 10
266.105681341
 20
50.126168342
 30
0.0
 11
265.7520705021
 21
49.9219667944
 31
0.0
  0
LINE
  5
207
330
1F
100
AcDbEntity
  8
0
  6
Continuous
 62
     7
370
    15
100
AcDbLine
 10
264.5809572137
 20
48.2894159278
 30
0.0
 11
264.5809572137
 21
47.8811455218
 31
0.0
  0
LINE
  5
208
330
1F
100
AcDbEntity
  8
0
  6
Continuous
 62
     7
370
    15
100
AcDbLine
 10
272.5809572137
 20
47.8811455218
 30
0.0
 11
272.5809572137
 21
48.2894159278
 31
0.0
  0
LINE
  5
209
330
1F
100
AcDbEntity
  8
0
  6
Continuous
 62
     7
370
    15
100
AcDbLine
 10
273.7101555782
 20
32.1537875361
 30
0.0
 11
276.0029750243
 21
32.6209323277
 31
0.0
  0
LINE
  5
20A
330
1F
100
AcDbEntity
  8
0
  6
Continuous
 62
     7
370
    15
100
AcDbLine
 10
271.5714007462
 20
33.2572205382
 30
0.0
 11
271.7909895687
 21
32.9931159059
 31
0.0
  0
SPLINE
  5
20B
330
1F
100
AcDbEntity
  8
0
  6
Continuous
 62
     7
370
    15
100
AcDbSpline
210
0.0
220
0.0
230
1.0
 70
     8
 71
     3
 72
    11
 73
     7
 74
     0
 42
0.000000001
 43
0.00000001
 40
0.0
 40
0.0
 40
0.0
 40
0.0
 40
0.1187206667314231
 40
0.4338969660189115
 40
0.7521154301251578
 40
1.0
 40
1.0
 40
1.0
 40
1.0
 10
271.8581595472103
 20
32.92882753396878
 30
0.0
 10
271.9147997384619
 20
32.87305293651835
 30
0.0
 10
272.1218067222952
 20
32.66920950065379
 30
0.0
 10
272.5083486441795
 20
32.39799661754905
 30
0.0
 10
272.9721343678808
 20
32.17690786260117
 30
0.0
 10
273.2608966452783
 20
32.15432631714724
 30
0.0
 10
273.3873395516612
 20
32.1444383350204
 30
0.0
  0
LINE
  5
20C
330
1F
100
AcDbEntity
  8
0
  6
Continuous
 62
     7
370
    15
100
AcDbLine
 10
271.7909895687
 20
32.9931159059
 30
0.0
 11
271.8581595472
 21
32.928827534
 31
0.0
  0
LINE
  5
20D
330
1F
100
AcDbEntity
  8
0
  6
Continuous
 62
     7
370
    15
100
AcDbLine
 10
274.6820516962
 20
12.5166209845
 30
0.0
 11
274.9648484388
 21
12.6799291447
 31
0.0
  0
LINE
  5
20E
330
1F
100
AcDbEntity
  8
0
  6
Continuous
 62
     7
370
    15
100
AcDbLine
 10
288.8218888252
 20
36.6836279873
 30
0.0
 11
288.8218888252
 21
37.010191232
 31
0.0
  0
LINE
  5
20F
330
1F
100
AcDbEntity
  8
0
  6
Continuous
 62
     7
370
    15
100
AcDbLine
 10
284.6789405278
 20
46.1670873614
 30
0.0
 11
272.9409679601
 21
52.9432746895
 31
0.0
  0
LINE
  5
210
330
1F
100
AcDbEntity
  8
0
  6
Continuous
 62
     7
370
    15
100
AcDbLine
 10
252.9425933074
 20
18.3013201943
 30
0.0
 11
264.6805658751
 21
11.5251328661
 31
0.0
  0
SPLINE
  5
211
330
1F
100
AcDbEntity
  8
0
  6
Continuous
 62
     7
370
    15
100
AcDbSpline
210
0.0
220
0.0
230
1.0
 70
     8
 71
     3
 72
    13
 73
     9
 74
     0
 42
0.000000001
 43
0.00000001
 40
0.0
 40
0.0
 40
0.0
 40
0.0
 40
0.0491460203123266
 40
0.2619186245355558
 40
0.4755697827595545
 40
0.6899930808300303
 40
0.9050010229009632
 40
1.0
 40
1.0
 40
1.0
 40
1.0
 10
252.8909275208525
 20
13.62236555524757
 30
0.0
 10
252.9851695045998
 20
13.61049685813189
 30
0.0
 10
253.4874223950621
 20
13.54724386625552
 30
0.0
 10
254.4490305585287
 20
13.5763430443499
 30
0.0
 10
255.7689592859946
 20
13.71339237877081
 30
0.0
 10
257.1310678274644
 20
14.01523065383545
 30
0.0
 10
258.2586518831
 20
14.35011707781379
 30
0.0
 10
258.9345642589236
 20
14.635273139711
 30
0.0
 10
259.1416918433136
 20
14.72265678349015
 30
0.0
  0
SPLINE
  5
212
330
1F
100
AcDbEntity
  8
0
  6
Continuous
 62
     7
370
    15
100
AcDbSpline
210
0.0
220
0.0
230
1.0
 70
     8
 71
     3
 72
    13
 73
     9
 74
     0
 42
0.000000001
 43
0.00000001
 40
0.0
 40
0.0
 40
0.0
 40
0.0
 40
0.0516672723447542
 40
0.2666247101154331
 40
0.4814231328576315
 40
0.6958908066452214
 40
0.909815324614855
 40
1.0
 40
1.0
 40
1.0
 40
1.0
 10
279.1443335738097
 20
49.36214794715148
 30
0.0
 10
279.1305165251009
 20
49.48498368668528
 30
0.0
 10
279.0592147814737
 20
50.11886741924393
 30
0.0
 10
278.8177184823326
 20
51.18311715058001
 30
0.0
 10
278.4187205727323
 20
52.5418204329286
 30
0.0
 10
277.8946305341643
 20
53.78487479612254
 30
0.0
 10
277.4057043251925
 20
54.72302851810148
 30
0.0
 10
277.054745475429
 20
55.20055587883319
 30
0.0
 10
276.9506673658846
 20
55.34216833566173
 30
0.0
  0
LINE
  5
213
330
1F
100
AcDbEntity
  8
0
  6
Continuous
 62
     7
370
    15
100
AcDbLine
 10
246.8100353875
 20
16.0682242196
 30
0.0
 11
249.0285829135
 21
14.7874839942
 31
0.0
  0
LINE
  5
214
330
1F
100
AcDbEntity
  8
0
  6
Continuous
 62
     7
370
    15
100
AcDbLine
 10
274.0265512294
 20
58.0899271132
 30
0.0
 11
271.8080037034
 21
59.3706673386
 31
0.0
  0
LINE
  5
215
330
1F
100
AcDbEntity
  8
0
  6
Continuous
 62
     7
370
    15
100
AcDbLine
 10
266.487025175
 20
62.4424028594
 30
0.0
 11
262.3592893398
 21
64.8252940358
 31
0.0
  0
SPLINE
  5
216
330
1F
100
AcDbEntity
  8
0
  6
Continuous
 62
     7
370
    15
100
AcDbSpline
210
0.0
220
0.0
230
1.0
 70
     8
 71
     3
 72
    26
 73
    22
 74
     0
 42
0.000000001
 43
0.00000001
 40
0.0
 40
0.0
 40
0.0
 40
0.0
 40
0.0227906035274551
 40
0.0824836551276132
 40
0.1410993715619876
 40
0.1983504107529478
 40
0.254737064961112
 40
0.3107486137343243
 40
0.3666695712537398
 40
0.4226008798460961
 40
0.4786074026460472
 40
0.5347012845151429
 40
0.5908693217836735
 40
0.6470875952401492
 40
0.7033280496098395
 40
0.7595584071585834
 40
0.81574116762841
 40
0.8718461319285769
 40
0.9278449886392721
 40
0.9837162388110183
 40
1.0
 40
1.0
 40
1.0
 40
1.0
 10
269.9740885482482
 20
21.19794036187924
 30
0.0
 10
269.9029084303539
 20
21.23973034280276
 30
0.0
 10
269.6452936511199
 20
21.3909764636057
 30
0.0
 10
269.2854767680305
 20
21.79038742742761
 30
0.0
 10
268.9029933865742
 20
22.39098758694731
 30
0.0
 10
268.6240665129845
 20
23.11362833825111
 30
0.0
 10
268.4468351740957
 20
23.93247140322734
 30
0.0
 10
268.3752404960548
 20
24.83726649072062
 30
0.0
 10
268.4106698577414
 20
25.81313774395706
 30
0.0
 10
268.5537353259382
 20
26.84405332589686
 30
0.0
 10
268.8030009591178
 20
27.91200341880187
 30
0.0
 10
269.1550220199902
 20
28.99813862479229
 30
0.0
 10
269.604222070427
 20
30.08294715000644
 30
0.0
 10
270.1430007476552
 20
31.14683312967062
 30
0.0
 10
270.7618816716418
 20
32.17054822352884
 30
0.0
 10
271.449682284543
 20
33.1356211061428
 30
0.0
 10
272.1937053782843
 20
34.02460491756016
 30
0.0
 10
272.9800649237438
 20
34.82212094286442
 30
0.0
 10
273.7935952535123
 20
35.51275813894814
 30
0.0
 10
274.4250151357942
 20
35.95459681530348
 30
0.0
 10
274.779110791075
 20
36.16382558044995
 30
0.0
 10
274.8590222065112
 20
36.21104380107327
 30
0.0
  0
SPLINE
  5
217
330
1F
100
AcDbEntity
  8
0
  6
Continuous
 62
     7
370
    15
100
AcDbSpline
210
0.0
220
0.0
230
1.0
 70
     8
 71
     3
 72
    14
 73
    10
 74
     0
 42
0.000000001
 43
0.00000001
 40
0.0
 40
0.0
 40
0.0
 40
0.0
 40
0.0908697656867933
 40
0.2642443959586133
 40
0.4375710129415927
 40
0.6113413302539432
 40
0.7866955851258611
 40
0.9653234914264086
 40
0.9999999999999999
 40
0.9999999999999999
 40
0.9999999999999999
 40
0.9999999999999999
 10
274.8590222065112
 20
36.21104380107327
 30
0.0
 10
275.0018500890482
 20
36.29012165853035
 30
0.0
 10
275.4171858969684
 20
36.5200758189655
 30
0.0
 10
276.0943964194702
 20
36.80257317130759
 30
0.0
 10
276.8666748575625
 20
37.00943989156986
 30
0.0
 10
277.5945240616323
 20
37.08305792835083
 30
0.0
 10
278.2603007629908
 20
37.0135374548181
 30
0.0
 10
278.716280458699
 20
36.89921931289295
 30
0.0
 10
278.9271328947388
 20
36.76849026356863
 30
0.0
 10
278.9614107895982
 20
36.74723788113488
 30
0.0
  0
SPLINE
  5
218
330
1F
100
AcDbEntity
  8
0
  6
Continuous
 62
     7
370
    15
100
AcDbSpline
210
0.0
220
0.0
230
1.0
 70
     8
 71
     3
 72
    31
 73
    27
 74
     0
 42
0.000000001
 43
0.00000001
 40
0.0
 40
0.0
 40
0.0
 40
0.0
 40
0.0183424814506863
 40
0.0620149509310446
 40
0.1058649571538162
 40
0.1498655462930213
 40
0.1939766288579116
 40
0.2381579821269793
 40
0.2823764970167075
 40
0.3266079441111446
 40
0.370833879296479
 40
0.4150473338747364
 40
0.4592453778710811
 40
0.5034276829816083
 40
0.5475955173449925
 40
0.5917510864138356
 40
0.6358971226055821
 40
0.6800366424902075
 40
0.7241728115306224
 40
0.7683088742831921
 40
0.8124474407720697
 40
0.8565914139978079
 40
0.9007441210778863
 40
0.9449088566948949
 40
0.9890887974791112
 40
1.0
 40
1.0
 40
1.0
 40
1.0
 10
258.4520737950228
 20
65.98914998162172
 30
0.0
 10
258.2792096913631
 20
66.00711171378101
 30
0.0
 10
257.6947653818509
 20
66.06783937167671
 30
0.0
 10
256.6460308561626
 20
66.01818949397796
 30
0.0
 10
255.3158685001529
 20
65.84425383593292
 30
0.0
 10
253.9474718271815
 20
65.51709774759475
 30
0.0
 10
252.5537018072855
 20
65.04975381997029
 30
0.0
 10
251.1427785046087
 20
64.4422698187736
 30
0.0
 10
249.7242909835263
 20
63.69958862653324
 30
0.0
 10
248.3073986096874
 20
62.82658977406047
 30
0.0
 10
246.9011636509553
 20
61.82924625371503
 30
0.0
 10
245.5144072041947
 20
60.7141767557358
 30
0.0
 10
244.1557100004281
 20
59.48864546799214
 30
0.0
 10
242.8334458328408
 20
58.16053282713225
 30
0.0
 10
241.5557566595006
 20
56.73830367868189
 30
0.0
 10
240.3305168535969
 20
55.23096422529503
 30
0.0
 10
239.1652922736306
 20
53.64801607062695
 30
0.0
 10
238.0672995913614
 20
51.99940484542181
 30
0.0
 10
237.0433545792542
 20
50.29546091976404
 30
0.0
 10
236.0998673347023
 20
48.54685504888766
 30
0.0
 10
235.2426796651625
 20
46.76449949845612
 30
0.0
 10
234.4774718257989
 20
44.95958980621532
 30
0.0
 10
233.8080627259123
 20
43.14309250478397
 30
0.0
 10
233.2426074535762
 20
41.3272918723908
 30
0.0
 10
232.8889590168508
 20
39.97366086270435
 30
0.0
 10
232.7316333534896
 20
39.23117587832314
 30
0.0
 10
232.7004738590286
 20
39.08412131478949
 30
0.0
  0
LINE
  5
219
330
1F
100
AcDbEntity
  8
0
  6
Continuous
 62
     7
370
    15
100
AcDbLine
 10
247.9365019852
 20
62.54156923
 30
0.0
 11
217.5899413276
 21
73.4772667949
 31
0.0
  0
LINE
  5
21A
330
1F
100
AcDbEntity
  8
0
  6
Continuous
 62
     7
370
    15
100
AcDbLine
 10
207.4805866523
 20
55.9654534239
 30
0.0
 11
236.9443239788
 21
31.0865171986
 31
0.0
  0
LINE
  5
21B
330
1F
100
AcDbEntity
  8
0
  6
Continuous
 62
     7
370
    15
100
AcDbLine
 10
237.3613210239
 20
21.5228509167
 30
0.0
 11
241.489056859
 21
19.1399597403
 31
0.0
  0
SPLINE
  5
21C
330
1F
100
AcDbEntity
  8
0
  6
Continuous
 62
     7
370
    15
100
AcDbSpline
210
0.0
220
0.0
230
1.0
 70
     8
 71
     3
 72
    11
 73
     7
 74
     0
 42
0.000000001
 43
0.00000001
 40
0.0
 40
0.0
 40
0.0
 40
0.0
 40
0.1050885860696679
 40
0.4236183153904525
 40
0.741659062763386
 40
1.0
 40
1.0
 40
1.0
 40
1.0
 10
232.7057622940824
 20
27.99726327618162
 30
0.0
 10
232.7481690494695
 20
27.84690966270891
 30
0.0
 10
232.9191131924075
 20
27.24082534057375
 30
0.0
 10
233.3002259664756
 20
26.25080864764605
 30
0.0
 10
233.8401730052504
 20
25.13311894094671
 30
0.0
 10
234.2706065556632
 20
24.50313328815189
 30
0.0
 10
234.4635318511765
 20
24.22076643241308
 30
0.0
  0
SPLINE
  5
21D
330
1F
100
AcDbEntity
  8
0
  6
Continuous
 62
     7
370
    15
100
AcDbSpline
210
0.0
220
0.0
230
1.0
 70
     8
 71
     3
 72
    26
 73
    22
 74
     0
 42
0.000000001
 43
0.00000001
 40
0.0
 40
0.0
 40
0.0
 40
0.0
 40
0.0211003487122628
 40
0.0734660947596716
 40
0.1265293848983989
 40
0.1807963946600735
 40
0.2363312363639711
 40
0.2928241536681345
 40
0.3498299648572936
 40
0.4069680242110202
 40
0.464024702657787
 40
0.5209555255077407
 40
0.5777730718169946
 40
0.6345160112361959
 40
0.6912339037794962
 40
0.7479784728614466
 40
0.8047900183011125
 40
0.8617257557541511
 40
0.9188408427311997
 40
0.9761800833651304
 40
0.9999999999999999
 40
0.9999999999999999
 40
0.9999999999999999
 40
0.9999999999999999
 10
217.6303718412921
 20
73.44242831332419
 30
0.0
 10
217.5312028199463
 20
73.48452853165965
 30
0.0
 10
217.1859212884054
 20
73.63111087832193
 30
0.0
 10
216.5310526034509
 20
73.73180529276321
 30
0.0
 10
215.685011053688
 20
73.7466086350268
 30
0.0
 10
214.7978745026723
 20
73.60813399196253
 30
0.0
 10
213.8836507020749
 20
73.3272690072494
 30
0.0
 10
212.9541956764618
 20
72.90261894098951
 30
0.0
 10
212.0262338400859
 20
72.34150713819933
 30
0.0
 10
211.116396950813
 20
71.65437487578002
 30
0.0
 10
210.2398379741443
 20
70.8543989110913
 30
0.0
 10
209.4097121634961
 20
69.95562236678657
 30
0.0
 10
208.6377238580458
 20
68.97254837850056
 30
0.0
 10
207.9346979871591
 20
67.92030785604813
 30
0.0
 10
207.3106715320879
 20
66.81463714729496
 30
0.0
 10
206.7748313529722
 20
65.6718122176335
 30
0.0
 10
206.3355607202337
 20
64.5084542601138
 30
0.0
 10
205.9996366300416
 20
63.34087144589206
 30
0.0
 10
205.7751224383746
 20
62.18621655155282
 30
0.0
 10
205.6832718418173
 20
61.27862749144655
 30
0.0
 10
205.676005159146
 20
60.76531257115559
 30
0.0
 10
205.6738724142868
 20
60.61465651433789
 30
0.0
  0
SPLINE
  5
21E
330
1F
100
AcDbEntity
  8
0
  6
Continuous
 62
     7
370
    15
100
AcDbSpline
210
0.0
220
0.0
230
1.0
 70
     8
 71
     3
 72
    13
 73
     9
 74
     0
 42
0.000000001
 43
0.00000001
 40
0.0
 40
0.0
 40
0.0
 40
0.0
 40
0.1011487783717619
 40
0.2919018006118885
 40
0.4826418266735833
 40
0.6715266520409041
 40
0.8566629140943125
 40
0.9999999999999999
 40
0.9999999999999999
 40
0.9999999999999999
 40
0.9999999999999999
 10
205.6738724142868
 20
60.61465651433789
 30
0.0
 10
205.6773298476527
 20
60.42401088265129
 30
0.0
 10
205.6873075363729
 20
59.87383317349917
 30
0.0
 10
205.7991673434392
 20
59.0105172464531
 30
0.0
 10
206.0508587347023
 20
58.06240703159043
 30
0.0
 10
206.4327256166412
 20
57.21770524868847
 30
0.0
 10
206.8868659088258
 20
56.52561918445743
 30
0.0
 10
207.2622406898632
 20
56.1807955292501
 30
0.0
 10
207.4260443213319
 20
56.0303236014792
 30
0.0
  0
LWPOLYLINE
  5
21F
330
1F
100
AcDbEntity
  8
0
  6
Continuous
 62
     7
370
    15
100
AcDbPolyline
 90
       24
 70
   128
 43
0.0
 10
265.7520705021
 20
49.9219667944
 10
265.4545082373
 20
49.7297825268
 10
264.9912390581
 20
49.3081158835
 10
264.6958211101
 20
48.8388159624
 10
264.5820678083
 20
48.3438267064
 10
264.6552981307
 20
47.8462932628
 10
264.9120879088
 20
47.3694797425
 10
265.3404299379
 20
46.9356814158
 10
265.9202954208
 20
46.5651822104
 10
266.624570492
 20
46.2753062572
 10
267.420324032
 20
46.0796078336
 10
268.2703474897
 20
45.9872375806
 10
269.1348947127
 20
46.0025146284
 10
269.973540434
 20
46.1247246392
 10
270.7470705117
 20
46.3481532088
 10
271.419315539
 20
46.6623530655
 10
271.9588420856
 20
47.0526325734
 10
272.3404224899
 20
47.5007426963
 10
272.5462144762
 20
47.985730303
 10
272.56659544
 20
48.484917912
 10
272.40061239
 20
48.9749640654
 10
272.0560265092
 20
49.4329547499
 10
271.5489502505
 20
49.8374748301
 10
271.4098439254
 20
49.9219667944
  0
LWPOLYLINE
  5
220
330
1F
100
AcDbEntity
  8
0
  6
Continuous
 62
     7
370
    15
100
AcDbPolyline
 90
       29
 70
   128
 43
0.0
 10
269.9526946048
 20
50.5565470771
 10
269.2017870702
 20
50.6861530233
 10
268.4197485343
 20
50.7160489466
 10
267.6457936747
 20
50.6447357405
 10
266.9187318198
 20
50.475789347
 10
266.275020887
 20
50.2176814437
 10
265.7469392304
 20
49.8833546386
 10
265.3609670694
 20
49.4895734738
 10
265.1364586596
 20
49.0560837812
 10
265.0846717904
 20
48.604622544
 10
265.2082032715
 20
48.1578279138
 10
265.5008587186
 20
47.7381040391
 10
265.9479631657
 20
47.3664976275
 10
266.5270969287
 20
47.0616425761
 10
267.2092198226
 20
46.8388255903
 10
267.9601273572
 20
46.7092196441
 10
268.7421658932
 20
46.6793237209
 10
269.5161207528
 20
46.7506369269
 10
270.2431826077
 20
46.9195833205
 10
270.8868935404
 20
47.1776912238
 10
271.414975197
 20
47.5120180288
 10
271.8009473581
 20
47.9057991936
 10
272.0254557678
 20
48.3392888863
 10
272.0772426371
 20
48.7907501234
 10
271.953711156
 20
49.2375447536
 10
271.6610557089
 20
49.6572686283
 10
271.2139512618
 20
50.02887504
 10
270.6348174988
 20
50.3337300913
 10
269.9526946048
 20
50.5565470771
  0
LWPOLYLINE
  5
221
330
1F
100
AcDbEntity
  8
0
  6
Continuous
 62
     7
370
    15
100
AcDbPolyline
 90
       23
 70
   128
 43
0.0
 10
269.5019808906
 20
49.9457785471
 10
268.8555690367
 20
50.0450180182
 10
268.186909766
 20
50.035104689
 10
267.5501738761
 20
49.9168416787
 10
266.9969459218
 20
49.6998099529
 10
266.572045142
 20
49.4015921313
 10
266.3098944708
 20
49.0463480483
 10
266.2317317964
 20
48.6628574668
 10
266.343889394
 20
48.2821885129
 10
266.637280922
 20
47.9351807214
 10
267.0881375437
 20
47.6499465998
 10
267.6599335369
 20
47.4495941203
 10
268.3063453908
 20
47.3503546492
 10
268.9750046615
 20
47.3602679784
 10
269.6117405514
 20
47.4785309887
 10
270.1649685056
 20
47.6955627145
 10
270.5898692855
 20
47.9937805361
 10
270.8520199567
 20
48.3490246191
 10
270.930182631
 20
48.7325152006
 10
270.8180250335
 20
49.1131841545
 10
270.5246335055
 20
49.460191946
 10
270.0737768838
 20
49.7454260676
 10
269.5019808906
 20
49.9457785471
  0
SPLINE
  5
222
330
1F
100
AcDbEntity
  8
0
  6
Continuous
 62
     7
370
    15
100
AcDbSpline
210
0.0
220
0.0
230
1.0
 70
     8
 71
     3
 72
    11
 73
     7
 74
     0
 42
0.000000001
 43
0.00000001
 40
0.0
 40
0.0
 40
0.0
 40
0.0
 40
0.2164567244934173
 40
0.4403141600939063
 40
0.7519028444798748
 40
1.0
 40
1.0
 40
1.0
 40
1.0
 10
268.3024859077068
 20
49.98799679703797
 30
0.0
 10
268.1760205910272
 20
49.87398095282153
 30
0.0
 10
267.91876607595
 20
49.64205103333739
 30
0.0
 10
267.4413717795564
 20
49.33464945245494
 30
0.0
 10
266.929283869476
 20
49.17294986342294
 30
0.0
 10
266.6015793575783
 20
49.18271636973437
 30
0.0
 10
266.456314726144
 20
49.1870456599584
 30
0.0
  0
SPLINE
  5
223
330
1F
100
AcDbEntity
  8
0
  6
Continuous
 62
     7
370
    15
100
AcDbSpline
210
0.0
220
0.0
230
1.0
 70
     8
 71
     3
 72
    11
 73
     7
 74
     0
 42
0.000000001
 43
0.00000001
 40
0.0
 40
0.0
 40
0.0
 40
0.0
 40
0.216456724493421
 40
0.4403141600939212
 40
0.7519028444798742
 40
1.0
 40
1.0
 40
1.0
 40
1.0
 10
266.456314726144
 20
49.1870456599584
 30
0.0
 10
266.4753904013874
 20
49.03723714722703
 30
0.0
 10
266.5141939541193
 20
48.73249813016666
 30
0.0
 10
266.5862027767765
 20
48.28998269949219
 30
0.0
 10
266.6634446872486
 20
47.98335014941399
 30
0.0
 10
266.7128747207857
 20
47.90036854681169
 30
0.0
 10
266.7347860321742
 20
47.86358451888348
 30
0.0
  0
LINE
  5
224
330
1F
100
AcDbEntity
  8
0
  6
Continuous
 62
     7
370
    15
100
AcDbLine
 10
266.7347860322
 20
47.8635845189
 30
0.0
 11
267.0562411142
 21
47.6624521652
 31
0.0
  0
SPLINE
  5
225
330
1F
100
AcDbEntity
  8
0
  6
Continuous
 62
     7
370
    15
100
AcDbSpline
210
0.0
220
0.0
230
1.0
 70
     8
 71
     3
 72
     9
 73
     5
 74
     0
 42
0.000000001
 43
0.00000001
 40
0.0
 40
0.0
 40
0.0
 40
0.0
 40
0.3472412876265923
 40
1.0
 40
1.0
 40
1.0
 40
1.0
 10
270.0099901392981
 20
47.63089268730356
 30
0.0
 10
270.0950576550056
 20
47.67344827902441
 30
0.0
 10
270.3400386487376
 20
47.79600165397508
 30
0.0
 10
270.5612209966843
 20
48.00536312664623
 30
0.0
 10
270.7055997013298
 20
48.14202565196766
 30
0.0
  0
SPLINE
  5
226
330
1F
100
AcDbEntity
  8
0
  6
Continuous
 62
     7
370
    15
100
AcDbSpline
210
0.0
220
0.0
230
1.0
 70
     8
 71
     3
 72
    11
 73
     7
 74
     0
 42
0.000000001
 43
0.00000001
 40
0.0
 40
0.0
 40
0.0
 40
0.0
 40
0.2164567244934059
 40
0.4403141600939156
 40
0.7519028444798757
 40
1.0
 40
1.0
 40
1.0
 40
1.0
 10
270.7055997013298
 20
48.14202565196766
 30
0.0
 10
270.6865240260864
 20
48.1735350300046
 30
0.0
 10
270.6477204733546
 20
48.23763109982126
 30
0.0
 10
270.5757116506973
 20
48.47957310901744
 30
0.0
 10
270.4984697402253
 20
48.90713948542448
 30
0.0
 10
270.449039706688
 20
49.29399967385747
 30
0.0
 10
270.4271283952997
 20
49.46548679304259
 30
0.0
  0
SPLINE
  5
227
330
1F
100
AcDbEntity
  8
0
  6
Continuous
 62
     7
370
    15
100
AcDbSpline
210
0.0
220
0.0
230
1.0
 70
     8
 71
     3
 72
    11
 73
     7
 74
     0
 42
0.000000001
 43
0.00000001
 40
0.0
 40
0.0
 40
0.0
 40
0.0
 40
0.1323877169514959
 40
0.4819434960836146
 40
0.8154866441480881
 40
1.0
 40
1.0
 40
1.0
 40
1.0
 10
270.4271283952997
 20
49.46548679304259
 30
0.0
 10
270.3389814929072
 20
49.45013930858752
 30
0.0
 10
270.0180920079446
 20
49.39426841297354
 30
0.0
 10
269.4180623852081
 20
49.41400007624775
 30
0.0
 10
268.7723121651521
 20
49.67884472682506
 30
0.0
 10
268.4258746614702
 20
49.90680531814026
 30
0.0
 10
268.3024859077068
 20
49.98799679703797
 30
0.0
  0
LINE
  5
228
330
1F
100
AcDbEntity
  8
0
  6
Continuous
 62
     7
370
    15
100
AcDbLine
 10
270.4271283953
 20
47.9077033959
 30
0.0
 11
270.4271283953
 21
49.465486793
 31
0.0
  0
LINE
  5
229
330
1F
100
AcDbEntity
  8
0
  6
Continuous
 62
     7
370
    15
100
AcDbLine
 10
268.3024859077
 20
47.3506186725
 30
0.0
 11
268.3024859077
 21
49.987996797
 31
0.0
  0
LINE
  5
22A
330
1F
100
AcDbEntity
  8
0
  6
Continuous
 62
     7
370
    15
100
AcDbLine
 10
273.7101555782
 20
32.1537875361
 30
0.0
 11
273.4279209075
 21
32.1332224824
 31
0.0
  0
LWPOLYLINE
  5
22B
330
1F
100
AcDbEntity
  8
0
  6
Continuous
 62
     7
370
    15
100
AcDbPolyline
 90
       67
 70
   128
 43
0.0
 10
274.9625959139
 20
44.6870284044
 10
273.6451863668
 20
43.8540358046
 10
272.3397074845
 20
42.8836504022
 10
271.057981886
 20
41.7846601575
 10
269.8116170768
 20
40.5670176963
 10
268.6119003296
 20
39.2417501774
 10
267.469696465
 20
37.8208594286
 10
266.3953494582
 20
36.3172132565
 10
265.3985887619
 20
34.7444289139
 10
264.4884411954
 20
33.1167497791
 10
263.673149196
 20
31.4489163666
 10
262.9600961743
 20
29.7560328339
 10
262.3557396489
 20
28.0534301965
 10
261.865552766
 20
26.3565274875
 10
261.493974734
 20
24.6806921206
 10
261.2443706211
 20
23.0411007205
 10
261.1190008807
 20
21.4526016807
 10
261.1190008807
 20
19.9295806945
 10
261.2443706211
 20
18.4858304759
 10
261.493974734
 20
17.1344258503
 10
261.865552766
 20
15.8876053474
 10
262.3557396489
 20
14.7566603666
 10
262.9600961743
 20
13.7518329209
 10
263.673149196
 20
12.8822228832
 10
264.4884411954
 20
12.1557055767
 10
265.3985887619
 20
11.5788604546
 10
266.3953494582
 20
11.1569115156
 10
267.469696465
 20
10.8936799947
 10
268.6119003296
 20
10.7915497574
 10
269.8116170768
 20
10.8514457107
 10
271.057981886
 20
11.0728254278
 10
272.3397074845
 20
11.4536840597
 10
273.6451863668
 20
11.9905724914
 10
274.9625959139
 20
12.6786285784
 10
276.2800054611
 20
13.5116211781
 10
277.5854843434
 20
14.4820065806
 10
278.8672099418
 20
15.5809968253
 10
280.1135747511
 20
16.7986392865
 10
281.3132914983
 20
18.1239068054
 10
282.4554953628
 20
19.5447975542
 10
283.5298423697
 20
21.0484437262
 10
284.526603066
 20
22.6212280689
 10
285.4367506325
 20
24.2489072037
 10
286.2520426319
 20
25.9167406162
 10
286.9650956536
 20
27.6096241489
 10
287.569452179
 20
29.3122267863
 10
288.0596390619
 20
31.0091294953
 10
288.4312170939
 20
32.6849648622
 10
288.6808212068
 20
34.3245562623
 10
288.8061909472
 20
35.9130553021
 10
288.8061909472
 20
37.4360762882
 10
288.6808212068
 20
38.8798265069
 10
288.4312170939
 20
40.2312311325
 10
288.0596390619
 20
41.4780516354
 10
287.569452179
 20
42.6089966162
 10
286.9650956536
 20
43.6138240619
 10
286.2520426319
 20
44.4834340996
 10
285.4367506325
 20
45.2099514061
 10
284.526603066
 20
45.7867965282
 10
283.5298423697
 20
46.2087454672
 10
282.4554953628
 20
46.471976988
 10
281.3132914983
 20
46.5741072254
 10
280.1135747511
 20
46.514211272
 10
278.8672099418
 20
46.2928315549
 10
277.5854843434
 20
45.9119729231
 10
276.2800054611
 20
45.3750844913
 10
274.9625959139
 20
44.6870284044
  0
LWPOLYLINE
  5
22C
330
1F
100
AcDbEntity
  8
0
  6
Continuous
 62
     7
370
    15
100
AcDbPolyline
 90
       35
 70
   128
 43
0.0
 10
274.6797532015
 20
45.1769263515
 10
273.3554625565
 20
44.3406717347
 10
272.0428098253
 20
43.3682503534
 10
270.7533306473
 20
42.2682078814
 10
269.4983570119
 20
41.0502115316
 10
268.2889176725
 20
39.7249650998
 10
267.1356412255
 20
38.3041148992
 10
266.0486627058
 20
36.8001474124
 10
265.0375345198
 20
35.2262795599
 10
264.1111424982
 20
33.5963425489
 10
263.2776278075
 20
31.9246603244
 10
262.5443154047
 20
30.22592369
 10
261.9176496656
 20
28.5150612043
 10
261.4031377513
 20
26.8071079883
 10
261.005301211
 20
25.1170735963
 10
260.7276362464
 20
23.4598101113
 10
260.5725829872
 20
21.8498816243
 10
260.5415040472
 20
20.3014362449
 10
260.6346725491
 20
18.8280817667
 10
260.8512697247
 20
17.4427660818
 10
261.1893921104
 20
16.1576633943
 10
261.6460682744
 20
14.9840672328
 10
262.2172849302
 20
13.9322912026
 10
262.8980222053
 20
13.0115783492
 10
263.6822977559
 20
12.2300199303
 10
264.5632193405
 20
11.5944843093
 10
265.5330453884
 20
11.1105565963
 10
266.5832530334
 20
10.7824895652
 10
267.704613013
 20
10.6131662811
 10
268.8872707754
 20
10.6040747629
 10
270.1208330817
 20
10.7552949073
 10
271.3944593418
 20
11.0654977862
 10
272.6969568826
 20
11.5319573256
 10
274.0168793086
 20
12.1505742622
 10
274.6820516962
 20
12.5166209845
  0
LWPOLYLINE
  5
22D
330
1F
100
AcDbEntity
  8
0
  6
Continuous
 62
     7
370
    15
100
AcDbPolyline
 90
       18
 70
   128
 43
0.0
 10
288.8218888252
 20
37.010191232
 10
288.7869234157
 20
38.1376736583
 10
288.6318701566
 20
39.5685814628
 10
288.354205192
 20
40.9052598035
 10
287.9563686516
 20
42.1359619032
 10
287.4418567373
 20
43.2498723075
 10
286.8151909982
 20
44.2372019317
 10
286.0818785955
 20
45.0892740876
 10
285.2483639047
 20
45.7986007345
 10
284.3219718832
 20
46.3589482843
 10
283.3108436971
 20
46.7653923825
 10
282.2238651774
 20
47.0143611838
 10
281.0705887305
 20
47.1036667415
 10
279.8611493911
 20
47.032524235
 10
278.6061757557
 20
46.8015588674
 10
277.3166965777
 20
46.4128003704
 10
276.0040438465
 20
45.8696651679
 10
274.6797532015
 20
45.1769263515
  0
SPLINE
  5
22E
330
1F
100
AcDbEntity
  8
0
  6
Continuous
 62
     7
370
    15
100
AcDbSpline
210
0.0
220
0.0
230
1.0
 70
    11
 71
     3
 72
    95
 73
    91
 74
     0
 42
0.000000001
 43
0.00000001
 40
0.0
 40
0.0
 40
0.0
 40
0.0
 40
0.0312499999999996
 40
0.0312499999999996
 40
0.0468749999999994
 40
0.0468749999999994
 40
0.0624999999999993
 40
0.0624999999999993
 40
0.0937499999999993
 40
0.0937499999999993
 40
0.1093749999999991
 40
0.1093749999999991
 40
0.1249999999999989
 40
0.1249999999999989
 40
0.1562499999999982
 40
0.1562499999999982
 40
0.1718749999999978
 40
0.1718749999999978
 40
0.1874999999999974
 40
0.1874999999999974
 40
0.2187499999999971
 40
0.2187499999999971
 40
0.2343749999999971
 40
0.2343749999999971
 40
0.2499999999999971
 40
0.2499999999999971
 40
0.2812499999999976
 40
0.2812499999999976
 40
0.3124999999999982
 40
0.3124999999999982
 40
0.3437499999999987
 40
0.3437499999999987
 40
0.3593749999999989
 40
0.3593749999999989
 40
0.3749999999999991
 40
0.3906249999999993
 40
0.3906249999999993
 40
0.4062499999999995
 40
0.4062499999999995
 40
0.4374999999999999
 40
0.4374999999999999
 40
0.4531250000000001
 40
0.4531250000000001
 40
0.4687500000000003
 40
0.4687500000000003
 40
0.5000000000000002
 40
0.5000000000000002
 40
0.5312500000000001
 40
0.5312500000000001
 40
0.5468750000000001
 40
0.5468750000000001
 40
0.5625
 40
0.5625
 40
0.5937499999999998
 40
0.5937499999999998
 40
0.6249999999999997
 40
0.6249999999999997
 40
0.6562499999999994
 40
0.6562499999999994
 40
0.6874999999999993
 40
0.6874999999999993
 40
0.7031249999999992
 40
0.7031249999999992
 40
0.7187499999999991
 40
0.7187499999999991
 40
0.7499999999999993
 40
0.7499999999999993
 40
0.7656249999999992
 40
0.7656249999999992
 40
0.7812499999999991
 40
0.7812499999999991
 40
0.8124999999999993
 40
0.8124999999999993
 40
0.8281249999999993
 40
0.8281249999999993
 40
0.8437499999999993
 40
0.8437499999999993
 40
0.8749999999999994
 40
0.8749999999999994
 40
0.8906249999999994
 40
0.8906249999999994
 40
0.9062499999999994
 40
0.9062499999999994
 40
0.9218749999999996
 40
0.9218749999999996
 40
0.9374999999999996
 40
0.9374999999999996
 40
0.9687499999999998
 40
0.9687499999999998
 40
1.0
 40
1.0
 40
1.0
 40
1.0
 10
268.5603200723507
 20
51.1963469634242
 30
0.0
 10
268.8710760895979
 20
51.15080266391141
 30
0.0
 10
269.1738868915765
 20
51.08970379812052
 30
0.0
 10
269.6174780388898
 20
50.97882855246197
 30
0.0
 10
269.7635545304283
 20
50.93862971357049
 30
0.0
 10
270.0521759929385
 20
50.85206870436662
 30
0.0
 10
270.1953939775688
 20
50.80546053148601
 30
0.0
 10
270.6139270895292
 20
50.65862149265939
 30
0.0
 10
270.8778491760673
 20
50.55178146743769
 30
0.0
 10
271.2520774328234
 20
50.37971296838545
 30
0.0
 10
271.3731859811263
 20
50.32036650872813
 30
0.0
 10
271.6080085533428
 20
50.19770787386046
 30
0.0
 10
271.7218931470183
 20
50.13425195415402
 30
0.0
 10
272.0459765696255
 20
49.9415175043923
 30
0.0
 10
272.2409955936112
 20
49.80882705293484
 30
0.0
 10
272.5022430789518
 20
49.60304236207715
 30
0.0
 10
272.5840799040806
 20
49.53330800553237
 30
0.0
 10
272.736893918184
 20
49.39129388072883
 30
0.0
 10
272.8076690052613
 20
49.31912266616923
 30
0.0
 10
272.9992974651869
 20
49.10269789825793
 30
0.0
 10
273.1012150205596
 20
48.95716338791316
 30
0.0
 10
273.2143970068263
 20
48.73498230943401
 30
0.0
 10
273.2454651453172
 20
48.66026726003105
 30
0.0
 10
273.293513638551
 20
48.50906005094837
 30
0.0
 10
273.3102542981609
 20
48.43309084285445
 30
0.0
 10
273.3378521910551
 20
48.20672149284708
 30
0.0
 10
273.3267729699233
 20
48.05656142467332
 30
0.0
 10
273.2417896809211
 20
47.75453026077287
 30
0.0
 10
273.1662190253906
 20
47.60126736106563
 30
0.0
 10
272.9537147938408
 20
47.30579091023304
 30
0.0
 10
272.8168866999093
 20
47.16182532789267
 30
0.0
 10
272.5619706140821
 20
46.95052771442353
 30
0.0
 10
272.4683929358471
 20
46.88083172752351
 30
0.0
 10
272.2696474523688
 20
46.74703787900819
 30
0.0
 10
272.0581221532321
 20
46.61777095643447
 30
0.0
 10
271.8213433794476
 20
46.49739548551738
 30
0.0
 10
271.5716871616607
 20
46.38161595997642
 30
0.0
 10
271.440177790827
 20
46.32601096558705
 30
0.0
 10
271.0369136266228
 20
46.17067074527068
 30
0.0
 10
270.7532286506048
 20
46.08062567056716
 30
0.0
 10
270.3062099567071
 20
45.96650764988176
 30
0.0
 10
270.154413509196
 20
45.93225296685175
 30
0.0
 10
269.8502669921728
 20
45.87231617879672
 30
0.0
 10
269.6971984718613
 20
45.84644669329647
 30
0.0
 10
269.2350607317472
 20
45.78117486069971
 30
0.0
 10
268.9202290524126
 20
45.75407088722346
 30
0.0
 10
268.3035892458391
 20
45.73595314767494
 30
0.0
 10
268.0002312997996
 20
45.74440824724442
 30
0.0
 10
267.5520857393439
 20
45.78447159137868
 30
0.0
 10
267.403516502188
 20
45.80251662051338
 30
0.0
 10
267.1139867146193
 20
45.84735080302658
 30
0.0
 10
266.9723716692167
 20
45.87417386879237
 30
0.0
 10
266.5566513760066
 20
45.96784530370628
 30
0.0
 10
266.2915905972407
 20
46.04780609603385
 30
0.0
 10
265.785958893795
 20
46.24487369099916
 30
0.0
 10
265.551782738371
 20
46.35957657974613
 30
0.0
 10
265.1214785378879
 20
46.61919930155165
 30
0.0
 10
264.9244115698104
 20
46.76474943713771
 30
0.0
 10
264.5716083149916
 20
47.08547653601453
 30
0.0
 10
264.4199263231071
 20
47.2567611532664
 30
0.0
 10
264.228753607257
 20
47.52859008124627
 30
0.0
 10
264.1711274163018
 20
47.62169465469748
 30
0.0
 10
264.0684524447872
 20
47.81277891475379
 30
0.0
 10
264.0232292728526
 20
47.91123636418115
 30
0.0
 10
263.9088801586741
 20
48.21033754072661
 30
0.0
 10
263.86125279134
 20
48.41282352772451
 30
0.0
 10
263.8333986277028
 20
48.71920894841797
 30
0.0
 10
263.8314295517145
 20
48.82178329544976
 30
0.0
 10
263.842937549497
 20
49.02751286312694
 30
0.0
 10
263.8565931271403
 20
49.13131531974479
 30
0.0
 10
263.9211924678591
 20
49.43657683852484
 30
0.0
 10
263.9951055919556
 20
49.63272075143033
 30
0.0
 10
264.1542325945089
 20
49.91351454572257
 30
0.0
 10
264.2153768860879
 20
50.00486463799643
 30
0.0
 10
264.3550511349682
 20
50.182487953151
 30
0.0
 10
264.4331174117058
 20
50.26798094422526
 30
0.0
 10
264.6873183816665
 20
50.50925111929492
 30
0.0
 10
264.8848330423465
 20
50.65204375369523
 30
0.0
 10
265.2248134751708
 20
50.83767720805335
 30
0.0
 10
265.3455134540037
 20
50.89462255092781
 30
0.0
 10
265.5948443647933
 20
50.99581976748413
 30
0.0
 10
265.7242689088345
 20
51.04053977754999
 30
0.0
 10
265.9923872304208
 20
51.11868577901343
 30
0.0
 10
266.1310814225133
 20
51.15211093522802
 30
0.0
 10
266.4177946812465
 20
51.20784075200141
 30
0.0
 10
266.5647794331522
 20
51.22988294901715
 30
0.0
 10
267.009493789488
 20
51.27888175447635
 30
0.0
 10
267.3136091936303
 20
51.28940378072634
 30
0.0
 10
267.9367598902526
 20
51.27087567402545
 30
0.0
 10
268.2495640551034
 20
51.241891262937
 30
0.0
 10
268.5603200723507
 20
51.1963469634242
 30
0.0
  0
LINE
  5
22F
330
1F
100
AcDbEntity
  8
0
  6
Continuous
 62
     7
370
    15
100
AcDbLine
 10
252.8595680224
 20
18.3500521672
 30
0.0
 11
252.9425933074
 21
18.3013201943
 31
0.0
  0
ARC
  5
230
330
1F
100
AcDbEntity
  8
0
  6
Continuous
 62
     7
370
    15
100
AcDbCircle
 10
269.671803679
 20
50.5423744075
 30
0.0
 40
8.703891722761854
100
AcDbArc
 50
34.3325496066
 51
84.2964748064
  0
ARC
  5
231
330
1F
100
AcDbEntity
  8
0
  6
Continuous
 62
     7
370
    15
100
AcDbCircle
 10
253.3786396919
 20
22.319657977
 30
0.0
 40
8.690205791197927
100
AcDbArc
 50
215.038918254
 51
265.86285515
  0
LWPOLYLINE
  5
232
330
1F
100
AcDbEntity
  8
0
  6
Continuous
 62
     7
370
    15
100
AcDbPolyline
 90
        9
 70
   128
 43
0.0
 10
246.8100353875
 20
16.0682242196
 10
246.6437121243
 20
16.1668302304
 10
245.6528177365
 20
16.8732854221
 10
244.7583966307
 20
17.727006855
 10
243.9667673824
 20
18.7219634737
 10
243.283522401
 20
19.8511264769
 10
242.7134884227
 20
21.1065189715
 10
242.2606924129
 20
22.479272325
 10
241.9283331172
 20
23.9596888175
  0
SPLINE
  5
233
330
1F
100
AcDbEntity
  8
0
  6
Continuous
 62
     7
370
    15
100
AcDbSpline
210
0.0
220
0.0
230
1.0
 70
     8
 71
     3
 72
    32
 73
    28
 74
     0
 42
0.000000001
 43
0.00000001
 40
0.0
 40
0.0
 40
0.0
 40
0.0
 40
0.0193254758647059
 40
0.0385826927398656
 40
0.0577846348003259
 40
0.0769443985950228
 40
0.0960751672942641
 40
0.1151901840580242
 40
0.1343027247879237
 40
0.1534260705401904
 40
0.1725734798850804
 40
0.1917581614995088
 40
0.2109932472740187
 40
0.2302917662029491
 40
0.2496666193082122
 40
0.374584628300522
 40
0.4997410234226191
 40
0.4999962720874779
 40
0.6248627021476376
 40
0.7503411293898724
 40
0.7861451323102523
 40
0.8217618639985337
 40
0.8572756267680708
 40
0.8927714566736104
 40
0.9283345184902122
 40
0.9640494961170388
 40
1.0
 40
1.0
 40
1.0
 40
1.0
 10
241.9282778411348
 20
31.41151358399762
 30
0.0
 10
241.9502210584225
 20
31.35142254028372
 30
0.0
 10
241.9940299879547
 20
31.23145269880285
 30
0.0
 10
242.0564692391766
 20
31.05070514469592
 30
0.0
 10
242.1163778667032
 20
30.86986174828067
 30
0.0
 10
242.1735644523367
 20
30.68885463274075
 30
0.0
 10
242.2281225235447
 20
30.50772523041978
 30
0.0
 10
242.2800702701354
 20
30.32648671308894
 30
0.0
 10
242.3294467495983
 20
30.14516075887903
 30
0.0
 10
242.3762861310459
 20
29.96376768214317
 30
0.0
 10
242.4206247373916
 20
29.78232932673992
 30
0.0
 10
242.4624985806149
 20
29.60086743776591
 30
0.0
 10
242.5019461718035
 20
29.41940738531235
 30
0.0
 10
242.5389996911639
 20
29.23796493961885
 30
0.0
 10
242.6366917907982
 20
28.72761398787687
 30
0.0
 10
242.754187989631
 20
27.90101245918857
 30
0.0
 10
242.7890394257533
 20
27.18569296389497
 30
0.0
 10
242.7894352499249
 20
26.50898099898724
 30
0.0
 10
242.7543838988733
 20
25.86728987489479
 30
0.0
 10
242.6294498187094
 20
25.2459889361159
 30
0.0
 10
242.5087236378396
 20
24.87336483413947
 30
0.0
 10
242.4344162253194
 20
24.68456813300729
 30
0.0
 10
242.3515027540882
 20
24.51037685004513
 30
0.0
 10
242.2598039530782
 20
24.35056067997966
 30
0.0
 10
242.1589018854546
 20
24.20535680736466
 30
0.0
 10
242.0493489886527
 20
24.0733098472377
 30
0.0
 10
241.9688206907506
 20
23.99761036229691
 30
0.0
 10
241.9284242149938
 20
23.95963622788842
 30
0.0
  0
LWPOLYLINE
  5
234
330
1F
100
AcDbEntity
  8
0
  6
Continuous
 62
     7
370
    15
100
AcDbPolyline
 90
       27
 70
   128
 43
0.0
 10
241.9282778409
 20
31.4115135841
 10
242.2606171808
 20
33.2756794465
 10
242.7133967393
 20
35.1712387601
 10
243.2834178078
 20
37.0848001482
 10
243.966653413
 20
39.0028450566
 10
244.7582767655
 20
40.9118232568
 10
245.6526953597
 20
42.7982485731
 10
246.6435904819
 20
44.6487941567
 10
247.7239618502
 20
46.4503866352
 10
248.886177068
 20
48.1902984705
 10
250.1220255448
 20
49.8562378737
 10
251.4227765
 20
51.4364356419
 10
252.7792406425
 20
52.9197283031
 10
254.1818350898
 20
54.2956369814
 10
255.620651067
 20
55.5544414262
 10
257.0855239085
 20
56.6872486822
 10
258.566104867
 20
57.6860559141
 10
260.0519342238
 20
58.5438069441
 10
261.5325151824
 20
59.2544421003
 10
262.9973880238
 20
59.8129410267
 10
264.4362040011
 20
60.2153581491
 10
265.8387984484
 20
60.4588505498
 10
267.1952625909
 20
60.5416980513
 10
268.496013546
 20
60.4633153688
 10
269.7318620228
 20
60.2242562449
 10
270.8940772407
 20
59.8262095378
 10
271.8080037034
 20
59.3706673386
  0
SPLINE
  5
235
330
1F
100
AcDbEntity
  8
0
  6
Continuous
 62
     7
370
    15
100
AcDbSpline
210
0.0
220
0.0
230
1.0
 70
     8
 71
     3
 72
     8
 73
     4
 74
     0
 42
0.000000001
 43
0.00000001
 40
0.0
 40
0.0
 40
0.0
 40
0.0
 40
1.0
 40
1.0
 40
1.0
 40
1.0
 10
240.9662845620788
 20
36.846851301924
 30
0.0
 10
239.7966581421408
 20
36.65129512868127
 30
0.0
 10
238.6260548992809
 20
36.45771016196134
 30
0.0
 10
237.4548234176281
 20
36.26543071271508
 30
0.0
  0
SPLINE
  5
236
330
1F
100
AcDbEntity
  8
0
  6
Continuous
 62
     7
370
    15
100
AcDbSpline
210
0.0
220
0.0
230
1.0
 70
     8
 71
     3
 72
     8
 73
     4
 74
     0
 42
0.000000001
 43
0.00000001
 40
0.0
 40
0.0
 40
0.0
 40
0.0
 40
0.0012417047560385
 40
0.0012417047560385
 40
0.0012417047560385
 40
0.0012417047560385
 10
236.9803228139784
 20
36.53940613359494
 30
0.0
 10
237.1385939544388
 20
36.448020808837
 30
0.0
 10
237.2967632601181
 20
36.3566942614334
 30
0.0
 10
237.4548234176281
 20
36.26543071271507
 30
0.0
  0
LWPOLYLINE
  5
237
330
1F
100
AcDbEntity
  8
0
  6
Continuous
 62
     7
370
    15
100
AcDbPolyline
 90
       28
 70
   128
 43
0.0
 10
236.980322814
 20
36.5394061336
 10
237.4591584048
 20
38.4880722698
 10
238.0610401211
 20
40.4538834636
 10
238.7814873688
 20
42.4222056069
 10
239.6151369154
 20
44.3783858998
 10
240.5557828151
 20
46.3078619297
 10
241.5964226084
 20
48.1962700791
 10
242.7293094501
 20
50.0295524523
 10
243.9460097793
 20
51.7940615271
 10
245.2374661017
 20
53.476661751
 10
246.5940644161
 20
55.0648273264
 10
248.0057057842
 20
56.5467354565
 10
249.4618815101
 20
57.9113543578
 10
250.9517513702
 20
59.1485253843
 10
252.4642243117
 20
60.2490386513
 10
253.988041017
 20
61.204701597
 10
255.5118577223
 20
62.0083999702
 10
257.0243306637
 20
62.6541507911
 10
258.5142005239
 20
63.1371468904
 10
259.9703762498
 20
63.4537926954
 10
261.3820176179
 20
63.6017309966
 10
262.7386159323
 20
63.5798604955
 10
264.0300722547
 20
63.3883440029
 10
265.2467725839
 20
63.0286072268
 10
266.3796594256
 20
62.5033281593
 10
267.4202992189
 20
61.8164171407
 10
268.3609451186
 20
60.9729877495
 10
268.8611754614
 20
60.4105276978
  0
LINE
  5
238
330
1F
100
AcDbEntity
  8
0
  6
Continuous
 62
     7
370
    15
100
AcDbLine
 10
232.8525869788
 20
38.92229731
 30
0.0
 11
236.980322814
 21
36.5394061336
 31
0.0
  0
ARC
  5
239
330
1F
100
AcDbEntity
  8
0
  6
Continuous
 62
     7
370
    15
100
AcDbCircle
 10
257.9702650895
 20
57.107814922
 30
0.0
 40
8.878232805068315
100
AcDbArc
 50
60.3725835944
 51
85.9811821539
  0
LINE
  5
23A
330
1F
100
AcDbEntity
  8
0
  6
Continuous
 62
     7
370
    15
100
AcDbLine
 10
269.9466378938
 20
21.1935131857
 30
0.0
 11
270.1094082265
 21
21.0924907579
 31
0.0
  0
LINE
  5
23B
330
1F
100
AcDbEntity
  8
0
  6
Continuous
 62
     7
370
    15
100
AcDbLine
 10
279.1086768202
 20
36.6813702808
 30
0.0
 11
278.9491979841
 21
36.7671300343
 31
0.0
  0
SPLINE
  5
23C
330
1F
100
AcDbEntity
  8
0
  6
Continuous
 62
     7
370
    15
100
AcDbSpline
210
0.0
220
0.0
230
1.0
 70
     8
 71
     3
 72
    10
 73
     6
 74
     0
 42
0.000000001
 43
0.00000001
 40
0.0
 40
0.0
 40
0.0
 40
0.0
 40
0.392754083774375
 40
0.7854916950124856
 40
1.0
 40
1.0
 40
1.0
 40
1.0
 10
250.687649350843
 20
51.74191379037041
 30
0.0
 10
250.7957678519559
 20
51.6952137388464
 30
0.0
 10
251.0120003195733
 20
51.60181559444966
 30
0.0
 10
251.3569457694588
 20
51.58734879837924
 30
0.0
 10
251.5639311549575
 20
51.64756478299784
 30
0.0
 10
251.6370482941826
 20
51.66883594917377
 30
0.0
  0
LWPOLYLINE
  5
23D
330
1F
100
AcDbEntity
  8
0
  6
Continuous
 62
     7
370
    15
100
AcDbPolyline
 90
       14
 70
   128
 43
0.0
 10
252.714809724
 20
52.8515425425
 10
252.6465153408
 20
53.1034256848
 10
252.4383164292
 20
53.3401204327
 10
252.1248715332
 20
53.494800495
 10
251.7417313823
 20
53.5501304851
 10
251.3319666573
 20
53.4981951623
 10
250.9425156845
 20
53.3419861097
 10
250.618792572
 20
53.0971560411
 10
250.3976808333
 20
52.7909830559
 10
250.3031617674
 20
52.4585173874
 10
250.3451217529
 20
52.138734379
 10
250.5183161678
 20
51.8703851591
 10
250.6876493508
 20
51.7419137904
 10
250.6876493508
 20
51.7419137904
  0
SPLINE
  5
23E
330
1F
100
AcDbEntity
  8
0
  6
Continuous
 62
     7
370
    15
100
AcDbSpline
210
0.0
220
0.0
230
1.0
 70
     8
 71
     3
 72
    10
 73
     6
 74
     0
 42
0.000000001
 43
0.00000001
 40
0.0
 40
0.0
 40
0.0
 40
0.0
 40
0.1982376724753473
 40
0.6709252460000958
 40
1.0
 40
1.0
 40
1.0
 40
1.0
 10
242.8082183710397
 20
35.45874080041286
 30
0.0
 10
242.7238953887033
 20
35.56915410072993
 30
0.0
 10
242.4385085751827
 20
35.94284225874702
 30
0.0
 10
241.9472465883628
 20
36.3921910585655
 30
0.0
 10
241.5302448370622
 20
36.67367342475946
 30
0.0
 10
241.3590909376885
 20
36.78920484502033
 30
0.0
  0
SPLINE
  5
23F
330
1F
100
AcDbEntity
  8
0
  6
Continuous
 62
     7
370
    15
100
AcDbSpline
210
0.0
220
0.0
230
1.0
 70
     8
 71
     3
 72
    23
 73
    19
 74
     0
 42
0.000000001
 43
0.00000001
 40
0.0
 40
0.0
 40
0.0
 40
0.0
 40
0.0356866716089746
 40
0.1215663235320009
 40
0.1639653117799461
 40
0.2066835848610087
 40
0.2504482508607268
 40
0.2945924056464437
 40
0.3745369840226214
 40
0.4570309210701529
 40
0.533485134855158
 40
0.6120367695604372
 40
0.6909315053621283
 40
0.7718416042351021
 40
0.8559270404235754
 40
0.9423902732943289
 40
0.9846263313169101
 40
1.0
 40
1.0
 40
1.0
 40
1.0
 10
276.5171765221588
 20
36.8957551056458
 30
0.0
 10
276.5735046693811
 20
36.82963214929354
 30
0.0
 10
276.7653859925881
 20
36.60438489752151
 30
0.0
 10
276.9757290433006
 20
36.2759216598397
 30
0.0
 10
277.163565769041
 20
35.92892760308061
 30
0.0
 10
277.2827223491296
 20
35.66330119996113
 30
0.0
 10
277.3799174333037
 20
35.39230191703432
 30
0.0
 10
277.4715133231765
 20
35.04402251947196
 30
0.0
 10
277.5237101972455
 20
34.61936219727345
 30
0.0
 10
277.4881036293177
 20
34.14976292010864
 30
0.0
 10
277.361805174118
 20
33.71858105829376
 30
0.0
 10
277.1568510277085
 20
33.3400253496115
 30
0.0
 10
276.8752247872406
 20
33.01279534093614
 30
0.0
 10
276.5244441406745
 20
32.74861830392445
 30
0.0
 10
276.1114245648966
 20
32.55898938848824
 30
0.0
 10
275.7309494180181
 20
32.48390565641299
 30
0.0
 10
275.4665097178471
 20
32.47067637114949
 30
0.0
 10
275.3599132565192
 20
32.48128626129071
 30
0.0
 10
275.3314670413928
 20
32.48411760497383
 30
0.0
  0
SPLINE
  5
240
330
1F
100
AcDbEntity
  8
0
  6
Continuous
 62
     7
370
    15
100
AcDbSpline
210
0.0
220
0.0
230
1.0
 70
     8
 71
     3
 72
    10
 73
     6
 74
     0
 42
0.000000001
 43
0.00000001
 40
0.0
 40
0.0
 40
0.0
 40
0.0
 40
0.5
 40
0.5
 40
1.0
 40
1.0
 40
1.0
 40
1.0
 10
241.2231615904564
 20
36.84173482682965
 30
0.0
 10
241.1825862820615
 20
36.85055934815661
 30
0.0
 10
241.1390119390078
 20
36.85551242406529
 30
0.0
 10
241.051209212021
 20
36.85709760933142
 30
0.0
 10
241.0082410950991
 20
36.85386624182287
 30
0.0
 10
240.9662845620788
 20
36.846851301924
 30
0.0
  0
SPLINE
  5
241
330
1F
100
AcDbEntity
  8
0
  6
Continuous
 62
     7
370
    15
100
AcDbSpline
210
0.0
220
0.0
230
1.0
 70
     8
 71
     3
 72
     8
 73
     4
 74
     0
 42
0.000000001
 43
0.00000001
 40
0.0
 40
0.0
 40
0.0
 40
0.0
 40
1.0
 40
1.0
 40
1.0
 40
1.0
 10
241.3590909376885
 20
36.78920484502033
 30
0.0
 10
241.3206089958523
 20
36.8128756548162
 30
0.0
 10
241.2745013441054
 20
36.83056920002564
 30
0.0
 10
241.2231615904564
 20
36.84173482682969
 30
0.0
  0
SPLINE
  5
242
330
1F
100
AcDbEntity
  8
0
  6
Continuous
 62
     7
370
    15
100
AcDbSpline
210
0.0
220
0.0
230
1.0
 70
     8
 71
     3
 72
    10
 73
     6
 74
     0
 42
0.000000001
 43
0.00000001
 40
0.0
 40
0.0
 40
0.0
 40
0.0
 40
0.5
 40
0.5
 40
1.0
 40
1.0
 40
1.0
 40
1.0
 10
232.6958900589911
 20
39.01274519315807
 30
0.0
 10
232.7069406573412
 20
39.00636935861393
 30
0.0
 10
232.7255606032806
 20
38.99562311710854
 30
0.0
 10
232.7788605533412
 20
38.96485764426858
 30
0.0
 10
232.8124413260625
 20
38.94547290199763
 30
0.0
 10
232.852586978802
 20
38.92229730997747
 30
0.0
  0
SPLINE
  5
243
330
1F
100
AcDbEntity
  8
0
  6
Continuous
 62
     7
370
    15
100
AcDbSpline
210
0.0
220
0.0
230
1.0
 70
     8
 71
     3
 72
    12
 73
     8
 74
     0
 42
0.000000001
 43
0.00000001
 40
0.0
 40
0.0
 40
0.0
 40
0.0
 40
0.1882348860693909
 40
0.3552030333554916
 40
0.5009466077120476
 40
0.7563025322098935
 40
1.0
 40
1.0
 40
1.0
 40
1.0
 10
242.0390781067887
 20
24.68361038479591
 30
0.0
 10
242.1281216401221
 20
24.77789203282121
 30
0.0
 10
242.2961485866737
 20
24.95580340763404
 30
0.0
 10
242.4760579386875
 20
25.30312050882783
 30
0.0
 10
242.6375819331492
 20
25.76377411762461
 30
0.0
 10
242.7633389967598
 20
26.38532502915873
 30
0.0
 10
242.7806417929483
 20
26.96865233481702
 30
0.0
 10
242.7890910845111
 20
27.25350239190216
 30
0.0
  0
SPLINE
  5
244
330
1F
100
AcDbEntity
  8
0
  6
Continuous
 62
     7
370
    15
100
AcDbSpline
210
0.0
220
0.0
230
1.0
 70
     8
 71
     3
 72
     9
 73
     5
 74
     0
 42
0.000000001
 43
0.00000001
 40
0.0
 40
0.0
 40
0.0
 40
0.0
 40
0.5377956222892928
 40
0.9999999999999999
 40
0.9999999999999999
 40
0.9999999999999999
 40
0.9999999999999999
 10
241.3590909376885
 20
26.29984878207723
 30
0.0
 10
241.599157111136
 20
26.17308273453574
 30
0.0
 10
242.0455463406085
 20
25.93736856675976
 30
0.0
 10
242.4371524980516
 20
25.82172392774548
 30
0.0
 10
242.6181545783602
 20
25.76827246933431
 30
0.0
  0
SPLINE
  5
245
330
1F
100
AcDbEntity
  8
0
  6
Continuous
 62
     7
370
    15
100
AcDbSpline
210
0.0
220
0.0
230
1.0
 70
     8
 71
     3
 72
     8
 73
     4
 74
     0
 42
0.000000001
 43
0.00000001
 40
0.0
 40
0.0
 40
0.0
 40
0.0
 40
1.0
 40
1.0
 40
1.0
 40
1.0
 10
241.2231615904569
 20
26.34918539409764
 30
0.0
 10
241.2744899724541
 20
26.33802224045735
 30
0.0
 10
241.3206105365583
 20
26.32130823615564
 30
0.0
 10
241.3590909376886
 20
26.29984878207726
 30
0.0
  0
SPLINE
  5
246
330
1F
100
AcDbEntity
  8
0
  6
Continuous
 62
     7
370
    15
100
AcDbSpline
210
0.0
220
0.0
230
1.0
 70
     8
 71
     3
 72
     9
 73
     5
 74
     0
 42
0.000000001
 43
0.00000001
 40
0.0
 40
0.0
 40
0.0
 40
0.0
 40
0.5047996155397978
 40
1.0
 40
1.0
 40
1.0
 40
1.0
 10
241.9283436947578
 20
23.9595858645348
 30
0.0
 10
241.9468885234191
 20
24.08129956906172
 30
0.0
 10
241.9836255336908
 20
24.32241247957132
 30
0.0
 10
242.0207227189329
 20
24.56391862920007
 30
0.0
 10
242.0390932593272
 20
24.68351256734573
 30
0.0
  0
LINE
  5
247
330
1F
100
AcDbEntity
  8
0
  6
Continuous
 62
     7
370
    15
100
AcDbLine
 10
233.1299571591
 20
38.7621228602
 30
0.0
 11
232.695890059
 21
39.0127451932
 31
0.0
  0
LINE
  5
248
330
1F
100
AcDbEntity
  8
0
  6
Continuous
 62
     7
370
    15
100
AcDbLine
 10
237.4548234176
 20
36.2654307127
 30
0.0
 11
233.1299571591
 21
38.7621228602
 31
0.0
  0
SPLINE
  5
249
330
1F
100
AcDbEntity
  8
0
  6
Continuous
 62
     7
370
    15
100
AcDbSpline
210
0.0
220
0.0
230
1.0
 70
     8
 71
     3
 72
    11
 73
     7
 74
     0
 42
0.000000001
 43
0.00000001
 40
0.0
 40
0.0
 40
0.0
 40
0.0
 40
0.0763291486409798
 40
0.482824010096418
 40
0.8892344489868838
 40
1.0
 40
1.0
 40
1.0
 40
1.0
 10
237.0263171032872
 20
33.44939151448818
 30
0.0
 10
237.0258817239572
 20
33.52763065350767
 30
0.0
 10
237.0231277093013
 20
34.0225364073445
 30
0.0
 10
236.9784320520874
 20
34.95552244984182
 30
0.0
 10
236.9403569375257
 20
35.92100625812157
 30
0.0
 10
236.9523749566618
 20
36.44234502055678
 30
0.0
 10
236.9549489015812
 20
36.55400212841361
 30
0.0
  0
LINE
  5
24A
330
1F
100
AcDbEntity
  8
0
  6
Continuous
 62
     7
370
    15
100
AcDbLine
 10
237.0263171033
 20
31.6735908855
 30
0.0
 11
237.0263171033
 21
33.4493915145
 31
0.0
  0
LINE
  5
24B
330
1F
100
AcDbEntity
  8
0
  6
Continuous
 62
     7
370
    15
100
AcDbLine
 10
236.098239453
 20
36.8622172617
 30
0.0
 11
236.0992804802
 21
37.0479689937
 31
0.0
  0
ARC
  5
24C
330
1F
100
AcDbEntity
  8
0
  6
Continuous
 62
     7
370
    15
100
AcDbCircle
 10
248.0340926542
 20
36.5966275972
 30
0.0
 40
11.93880770898517
100
AcDbArc
 50
178.7252979842
 51
202.7773427363
  0
LINE
  5
24D
330
1F
100
AcDbEntity
  8
0
  6
Continuous
 62
     7
370
    15
100
AcDbLine
 10
207.4805866523
 20
55.9654534239
 30
0.0
 11
207.4277616036
 21
56.0109660401
 31
0.0
  0
LWPOLYLINE
  5
24E
330
1F
100
AcDbEntity
  8
0
  6
Continuous
 62
     7
370
    15
100
AcDbPolyline
 90
       10
 70
   128
 43
0.0
 10
244.4358851011
 20
18.1000993812
 10
243.9460097793
 20
18.1940185968
 10
242.7293094501
 20
18.5537553729
 10
241.5964226084
 20
19.0790344404
 10
240.5557828151
 20
19.765945459
 10
239.6151369154
 20
20.6093748502
 10
238.7814873688
 20
21.6030438643
 10
238.0610401211
 20
22.739555321
 10
237.4591584048
 20
24.0104486768
 10
236.980322814
 20
25.4062630077
  0
SPLINE
  5
24F
330
1F
100
AcDbEntity
  8
0
  6
Continuous
 62
     7
370
    15
100
AcDbSpline
210
0.0
220
0.0
230
1.0
 70
     8
 71
     3
 72
     8
 73
     4
 74
     0
 42
0.000000001
 43
0.00000001
 40
0.0
 40
0.0
 40
0.0
 40
0.0
 40
0.0012417047560385
 40
0.0012417047560385
 40
0.0012417047560385
 40
0.0012417047560385
 10
237.4548234176281
 20
25.77288127998319
 30
0.0
 10
237.2967632601181
 20
25.65047807497904
 30
0.0
 10
237.1385939544388
 20
25.52827584500827
 30
0.0
 10
236.9803228139784
 20
25.40626300769751
 30
0.0
  0
SPLINE
  5
250
330
1F
100
AcDbEntity
  8
0
  6
Continuous
 62
     7
370
    15
100
AcDbSpline
210
0.0
220
0.0
230
1.0
 70
     8
 71
     3
 72
     8
 73
     4
 74
     0
 42
0.000000001
 43
0.00000001
 40
0.0
 40
0.0
 40
0.0
 40
0.0
 40
1.0
 40
1.0
 40
1.0
 40
1.0
 10
237.4548234176281
 20
25.77288127998319
 30
0.0
 10
238.6260560023038
 20
25.96516091031119
 30
0.0
 10
239.7966753768962
 20
26.15874857752144
 30
0.0
 10
240.9662845620788
 20
26.35430186919211
 30
0.0
  0
SPLINE
  5
251
330
1F
100
AcDbEntity
  8
0
  6
Continuous
 62
     7
370
    15
100
AcDbSpline
210
0.0
220
0.0
230
1.0
 70
     8
 71
     3
 72
    10
 73
     6
 74
     0
 42
0.000000001
 43
0.00000001
 40
0.0
 40
0.0
 40
0.0
 40
0.0
 40
0.5
 40
0.5
 40
1.0
 40
1.0
 40
1.0
 40
1.0
 10
240.9662845620788
 20
26.35430186919212
 30
0.0
 10
241.0080504230932
 20
26.36128492960606
 30
0.0
 10
241.0519477089072
 20
26.36457502061444
 30
0.0
 10
241.1395750916972
 20
26.3629120461854
 30
0.0
 10
241.1820803887578
 20
26.35811993963465
 30
0.0
 10
241.2231615904569
 20
26.34918539409765
 30
0.0
  0
LINE
  5
252
330
1F
100
AcDbEntity
  8
0
  6
Continuous
 62
     7
370
    15
100
AcDbLine
 10
233.1299571591
 20
28.2695734274
 30
0.0
 11
237.4548234176
 21
25.77288128
 31
0.0
  0
LINE
  5
253
330
1F
100
AcDbEntity
  8
0
  6
Continuous
 62
     7
370
    15
100
AcDbLine
 10
233.1299571591
 20
28.2695734274
 30
0.0
 11
236.6727637127
 21
30.3147921171
 31
0.0
  0
LINE
  5
254
330
1F
100
AcDbEntity
  8
0
  6
Continuous
 62
     7
370
    15
100
AcDbLine
 10
232.695890059
 20
28.0189510945
 30
0.0
 11
233.1299571591
 21
28.2695734274
 31
0.0
  0
LINE
  5
255
330
1F
100
AcDbEntity
  8
0
  6
Continuous
 62
     7
370
    15
100
AcDbLine
 10
236.980322814
 20
25.4062630077
 30
0.0
 11
232.8525869788
 21
27.7891541841
 31
0.0
  0
SPLINE
  5
256
330
1F
100
AcDbEntity
  8
0
  6
Continuous
 62
     7
370
    15
100
AcDbSpline
210
0.0
220
0.0
230
1.0
 70
     8
 71
     3
 72
     8
 73
     4
 74
     0
 42
0.000000001
 43
0.00000001
 40
0.0
 40
0.0
 40
0.0
 40
0.0
 40
1.0
 40
1.0
 40
1.0
 40
1.0
 10
232.852586978802
 20
27.78915418408005
 30
0.0
 10
232.7723677496358
 20
27.83546375935065
 30
0.0
 10
232.71797798735
 20
27.91912660035944
 30
0.0
 10
232.6958900589911
 20
28.01895109446648
 30
0.0
  0
ARC
  5
257
330
1F
100
AcDbEntity
  8
0
  6
Continuous
 62
     7
370
    15
100
AcDbCircle
 10
241.8816953306
 20
29.2145333955
 30
0.0
 40
8.921645768972772
100
AcDbArc
 50
214.8451889641
 51
239.5573983443
  0
ELLIPSE
  5
258
330
1F
100
AcDbEntity
  8
0
  6
Continuous
 62
     7
370
    15
100
AcDbEllipse
 10
236.3798704939
 20
31.3004165852
 30
0.0
 11
-7.507462981948265E-5
 21
1.066811201853401
 31
0.0
210
0.0
220
0.0
230
1.0
 40
0.7174342186
 41
3.53419364555748
 42
5.104989972352352
  0
ELLIPSE
  5
259
330
1F
100
AcDbEntity
  8
0
  6
Continuous
 62
     7
370
    15
100
AcDbEllipse
 10
236.3192103221
 20
31.2653868295
 30
0.0
 11
0.3250094736511926
 21
1.213179526238662
 31
0.0
210
0.0
220
0.0
230
1.0
 40
0.5176380889
 41
3.619174351347778
 42
5.189970678142608
  0
LWPOLYLINE
  5
25A
330
1F
100
AcDbEntity
  8
0
  6
Continuous
 62
     7
370
    15
100
AcDbPolyline
 90
       12
 70
   128
 43
0.0
 10
252.5307223696
 20
53.2327060468
 10
252.2219563704
 20
53.4539998764
 10
251.8046993255
 20
53.5443033503
 10
251.3424748374
 20
53.4898685831
 10
250.9056523945
 20
53.2989827748
 10
250.5607342538
 20
53.0007065592
 10
250.3602310756
 20
52.6404497863
 10
250.3346676512
 20
52.2730582841
 10
250.4879357802
 20
51.9544640783
 10
250.7967017795
 20
51.7331702487
 10
251.2139588244
 20
51.6428667748
 10
251.6435502749
 20
51.6887591257
  0
LWPOLYLINE
  5
25B
330
1F
100
AcDbEntity
  8
0
  6
Continuous
 62
     7
370
    15
100
AcDbPolyline
 90
        3
 70
   128
 43
0.0
 10
252.6942889245
 20
52.831398844
 10
252.6839904987
 20
52.914111841
 10
252.5307223696
 20
53.2327060468
  0
LINE
  5
25C
330
1F
100
AcDbEntity
  8
0
  6
Continuous
 62
     7
370
    15
100
AcDbLine
 10
250.7773447931
 20
52.7999238726
 30
0.0
 11
250.7859166518
 21
52.1409209788
 31
0.0
  0
LINE
  5
25D
330
1F
100
AcDbEntity
  8
0
  6
Continuous
 62
     7
370
    15
100
AcDbLine
 10
251.5179009336
 20
51.9345821687
 30
0.0
 11
250.7859166518
 21
52.1409209788
 31
0.0
  0
LINE
  5
25E
330
1F
100
AcDbEntity
  8
0
  6
Continuous
 62
     7
370
    15
100
AcDbLine
 10
252.2413133568
 20
52.3872462525
 30
0.0
 11
251.5179009336
 21
51.9345821687
 31
0.0
  0
LINE
  5
25F
330
1F
100
AcDbEntity
  8
0
  6
Continuous
 62
     7
370
    15
100
AcDbLine
 10
252.2413133568
 20
52.3872462525
 30
0.0
 11
252.2327414981
 21
53.0462491463
 31
0.0
  0
LINE
  5
260
330
1F
100
AcDbEntity
  8
0
  6
Continuous
 62
     7
370
    15
100
AcDbLine
 10
251.5007572163
 20
53.2525879564
 30
0.0
 11
252.2327414981
 21
53.0462491463
 31
0.0
  0
LINE
  5
261
330
1F
100
AcDbEntity
  8
0
  6
Continuous
 62
     7
370
    15
100
AcDbLine
 10
251.5007572163
 20
53.2525879564
 30
0.0
 11
250.7773447931
 21
52.7999238726
 31
0.0
  0
LINE
  5
262
330
1F
100
AcDbEntity
  8
0
  6
Continuous
 62
     7
370
    15
100
AcDbLine
 10
251.0191895558
 20
52.1722405068
 30
0.0
 11
250.7773447931
 21
52.7999238726
 31
0.0
  0
LINE
  5
263
330
1F
100
AcDbEntity
  8
0
  6
Continuous
 62
     7
370
    15
100
AcDbLine
 10
251.0191895558
 20
52.1722405068
 30
0.0
 11
251.0204569106
 21
52.0748065018
 31
0.0
  0
LINE
  5
264
330
1F
100
AcDbEntity
  8
0
  6
Continuous
 62
     7
370
    15
100
AcDbLine
 10
251.742601979
 20
52.6249045906
 30
0.0
 11
252.2400460019
 21
52.4846802575
 31
0.0
  0
LINE
  5
265
330
1F
100
AcDbEntity
  8
0
  6
Continuous
 62
     7
370
    15
100
AcDbLine
 10
251.742601979
 20
52.6249045906
 30
0.0
 11
251.5007572163
 21
53.2525879564
 31
0.0
  0
LINE
  5
266
330
1F
100
AcDbEntity
  8
0
  6
Continuous
 62
     7
370
    15
100
AcDbLine
 10
251.742601979
 20
52.6249045906
 30
0.0
 11
251.0191895558
 21
52.1722405068
 31
0.0
  0
LWPOLYLINE
  5
267
330
1F
100
AcDbEntity
  8
0
  6
Continuous
 62
     7
370
     0
100
AcDbPolyline
 90
       10
 70
   128
 43
0.0
 10
273.9404230317
 20
35.5978378868
 10
273.9644132872
 20
35.5581093221
 10
274.2785451913
 20
34.9331681286
 10
274.487275036
 20
34.2927989136
 10
274.5774875575
 20
33.6772384301
 10
274.5435143714
 20
33.1251646071
 10
274.3874901379
 20
32.6712662732
 10
274.1192184333
 20
32.3440635301
 10
273.7555557555
 20
32.1641157296
 10
273.7101555782
 20
32.1537875361
  0
LINE
  5
268
330
1F
100
AcDbEntity
  8
0
  6
Continuous
 62
     7
370
     0
100
AcDbLine
 10
271.7945957221
 20
33.064160322
 30
0.0
 11
271.5970314724
 21
33.2864976479
 31
0.0
  0
LWPOLYLINE
  5
269
330
1F
100
AcDbEntity
  8
0
  6
Continuous
 62
     7
370
     0
100
AcDbPolyline
 90
       12
 70
   128
 43
0.0
 10
273.7084467929
 20
35.4196462295
 10
273.7581142275
 20
35.3349950829
 10
274.0530004408
 20
34.7090759151
 10
274.2304860542
 20
34.0759565073
 10
274.2774077718
 20
33.4825924298
 10
274.1902856244
 20
32.9729907816
 10
273.9755810632
 20
32.5849463858
 10
273.6492177432
 20
32.3472387201
 10
273.2354005388
 20
32.2774974744
 10
272.7648203792
 20
32.3808950381
 10
272.2723780418
 20
32.6497628867
 10
271.7945957221
 20
33.064160322
  0
LWPOLYLINE
  5
26A
330
1F
100
AcDbEntity
  8
0
  6
Continuous
 62
     7
370
     0
100
AcDbPolyline
 90
       10
 70
   128
 43
0.0
 10
248.79964501
 20
27.4582163237
 10
248.8617858082
 20
25.9648474851
 10
249.0476621072
 20
24.5563486639
 10
249.3556404194
 20
23.2450977985
 10
249.7830142202
 20
22.0426182086
 10
250.3260277335
 20
20.9594773281
 10
250.9799089368
 20
20.005193838
 10
251.7389114988
 20
19.1881540159
 10
252.5963652775
 20
18.5155380371
 10
252.8595680224
 20
18.3500521672
  0
LWPOLYLINE
  5
26B
330
1F
100
AcDbEntity
  8
0
  6
Continuous
 62
     7
370
     0
100
AcDbPolyline
 90
       27
 70
   128
 43
0.0
 10
272.9409679601
 20
52.9432746895
 10
272.8238726511
 20
53.0093076386
 10
271.8331232615
 20
53.4546159216
 10
270.7642364331
 20
53.7432131486
 10
269.6266055819
 20
53.8725631168
 10
268.4302282487
 20
53.8415290941
 10
267.1856182405
 20
53.6503838085
 10
265.9037132349
 20
53.3008070517
 10
264.595778659
 20
52.7958709168
 10
263.273308689
 20
52.1400128006
 10
261.9479252386
 20
51.338996408
 10
260.6312758251
 20
50.3998610998
 10
259.3349312109
 20
49.3308600308
 10
258.0702837192
 20
48.1413876209
 10
256.8484471175
 20
46.8418969963
 10
255.6801589498
 20
45.4438081274
 10
254.5756861746
 20
43.9594074695
 10
253.5447349383
 20
42.4017399889
 10
252.5963652775
 20
40.7844945234
 10
251.7389114988
 20
39.1218834844
 10
250.9799089368
 20
37.4285179574
 10
250.3260277335
 20
35.7192792995
 10
249.7830142202
 20
34.0091883616
 10
249.3556404194
 20
32.3132734843
 10
249.0476621072
 20
30.6464384285
 10
248.8617858082
 20
29.0233314007
 10
248.79964501
 20
27.4582163237
  0
LWPOLYLINE
  5
26C
330
1F
100
AcDbEntity
  8
0
  6
Continuous
 62
     7
370
     0
100
AcDbPolyline
 90
       47
 70
   128
 43
0.0
 10
274.9625959139
 20
36.4399662043
 10
274.0478944849
 20
35.8396699099
 10
273.1502322129
 20
35.106055201
 10
272.2863308475
 20
34.2527879318
 10
271.4722832365
 20
33.295762857
 10
270.7232535468
 20
32.252807543
 10
270.0531947843
 20
31.1433502739
 10
269.4745888759
 20
29.9880581395
 10
268.9982141549
 20
28.8084520463
 10
268.632944581
 20
27.626505824
 10
268.3855844353
 20
26.4642368943
 10
268.2607415693
 20
25.3432961283
 10
268.2607415693
 20
24.2845645317
 10
268.3855844353
 20
23.3077642708
 10
268.632944581
 20
22.4310912862
 10
268.9982141549
 20
21.6708763371
 10
269.4745888759
 20
21.0412807895
 10
270.0531947843
 20
20.5540328172
 10
270.7232535468
 20
20.2182089281
 10
271.4722832365
 20
20.0400648857
 10
272.2863308475
 20
20.0229191766
 10
273.1502322129
 20
20.1670911928
 10
274.0478944849
 20
20.4698952826
 10
274.9625959139
 20
20.9256907785
 10
275.8772973429
 20
21.5259870729
 10
276.774959615
 20
22.2596017817
 10
277.6388609804
 20
23.1128690509
 10
278.4529085914
 20
24.0698941258
 10
279.201938281
 20
25.1128494398
 10
279.8719970436
 20
26.2223067089
 10
280.450602952
 20
27.3775988433
 10
280.926977673
 20
28.5572049365
 10
281.2922472469
 20
29.7391511588
 10
281.5396073926
 20
30.9014200885
 10
281.6644502586
 20
32.0223608544
 10
281.6644502586
 20
33.0810924511
 10
281.5396073926
 20
34.057892712
 10
281.2922472469
 20
34.9345656965
 10
280.926977673
 20
35.6947806457
 10
280.450602952
 20
36.3243761933
 10
279.8719970436
 20
36.8116241656
 10
279.201938281
 20
37.1474480547
 10
278.4529085914
 20
37.3255920971
 10
277.6388609804
 20
37.3427378062
 10
276.774959615
 20
37.1985657899
 10
275.8772973429
 20
36.8957617002
 10
274.9625959139
 20
36.4399662043
  0
LWPOLYLINE
  5
26D
330
1F
100
AcDbEntity
  8
0
  6
Continuous
 62
     7
370
     0
100
AcDbPolyline
 90
       37
 70
   128
 43
0.0
 10
244.5570043229
 20
26.2336041559
 10
244.6194146498
 20
27.9661965821
 10
244.8061959626
 20
29.7583630698
 10
245.1160024977
 20
31.5971910184
 10
245.5466020919
 20
33.4694316304
 10
246.0948922653
 20
35.3615953692
 10
246.7569225745
 20
37.2600491518
 10
247.5279230762
 20
39.1511145752
 10
248.4023386938
 20
41.0211664697
 10
249.373869243
 20
42.8567310684
 10
250.4355148238
 20
44.6445830865
 10
251.5796262556
 20
46.3718410091
 10
252.7979601891
 20
48.0260599033
 10
254.0817385005
 20
49.5953210841
 10
255.4217115377
 20
51.0683179888
 10
256.8082247642
 20
52.4344376409
 10
258.2312883205
 20
53.6838371169
 10
259.680649001
 20
54.8075144651
 10
261.1458641287
 20
55.7973735643
 10
262.6163767952
 20
56.6462824571
 10
264.081591923
 20
57.3481247355
 10
265.5309526035
 20
57.8978436098
 10
266.9540161598
 20
58.2914783429
 10
268.3405293863
 20
58.5261927874
 10
269.6805024235
 20
58.6002958206
 10
270.9642807349
 20
58.5132535282
 10
272.1826146684
 20
58.2656930521
 10
273.3267261002
 20
57.859398071
 10
274.388371681
 20
57.2972959498
 10
275.3599022302
 20
56.5834366469
 10
276.2343178478
 20
55.7229635352
 10
277.0053183494
 20
54.722076343
 10
277.6673486587
 20
53.5879864855
 10
278.2156388321
 20
52.3288651062
 10
278.6462384263
 20
50.9537842033
 10
278.9560449614
 20
49.4726512664
 10
278.9563685968
 20
49.4706578187
  0
LWPOLYLINE
  5
26E
330
1F
100
AcDbEntity
  8
0
  6
Continuous
 62
     7
370
     0
100
AcDbPolyline
 90
       18
 70
   128
 43
0.0
 10
258.957993944
 20
14.8287033235
 10
258.2312883205
 20
14.5713634417
 10
256.8082247642
 20
14.1777287086
 10
255.4217115377
 20
13.9430142641
 10
254.0817385005
 20
13.8689112309
 10
252.7979601891
 20
13.9559535233
 10
251.5796262556
 20
14.2035139995
 10
250.4355148238
 20
14.6098089805
 10
249.373869243
 20
15.1719111017
 10
248.4023386938
 20
15.8857704046
 10
247.5279230762
 20
16.7462435163
 10
246.7569225745
 20
17.7471307085
 10
246.0948922653
 20
18.881220566
 10
245.5466020919
 20
20.1403419454
 10
245.1160024977
 20
21.5154228482
 10
244.8061959626
 20
22.9965557851
 10
244.6194146498
 20
24.5730691594
 10
244.5570043229
 20
26.2336041559
  0
LWPOLYLINE
  5
26F
330
1F
100
AcDbEntity
  8
0
  6
Continuous
 62
     7
370
     0
100
AcDbPolyline
 90
       27
 70
   128
 43
0.0
 10
243.8498975417
 20
26.2336041559
 10
243.9118956169
 20
27.9775542362
 10
244.0974549705
 20
29.7808532136
 10
244.405274037
 20
31.6308522415
 10
244.8331936867
 20
33.514574906
 10
245.3782123709
 20
35.418808246
 10
246.0365071749
 20
37.3301954328
 10
246.8034606339
 20
39.2353294586
 10
247.6736931202
 20
41.1208471772
 10
248.6411005784
 20
42.9735230363
 10
249.69889734
 20
44.7803618461
 10
250.8396637209
 20
46.5286899304
 10
252.0553980646
 20
48.206244024
 10
253.3375728681
 20
49.8012572902
 10
254.6771945965
 20
51.3025418569
 10
256.0648667658
 20
52.6995672916
 10
257.4908558528
 20
53.9825344646
 10
258.9451595686
 20
55.1424442831
 10
260.4175770176
 20
56.171160813
 10
261.8977802493
 20
57.0614683469
 10
263.3753867015
 20
57.8071220174
 10
264.8400320267
 20
58.4028915995
 10
266.2814427902
 20
58.8445981977
 10
267.6895085312
 20
59.1291435577
 10
269.0543526803
 20
59.2545317981
 10
270.3664018362
 20
59.2198834106
 10
270.5368048949
 20
59.2031771427
  0
ARC
  5
270
330
1F
100
AcDbEntity
  8
0
  6
Continuous
 62
     7
370
     0
100
AcDbCircle
 10
259.2430630638
 20
25.6276613454
 30
0.0
 40
15.4050871947799
100
AcDbArc
 50
177.7457495802
 51
212.5890690703
  0
LWPOLYLINE
  5
271
330
1F
100
AcDbEntity
  8
0
  6
Continuous
 62
     7
370
     0
100
AcDbPolyline
 90
       32
 70
   128
 43
0.0
 10
246.6783246665
 20
27.4582163237
 10
246.7413122434
 20
29.0909968433
 10
246.9297530394
 20
30.7829715376
 10
247.2420855745
 20
32.5201201715
 10
247.6757217631
 20
34.2880481844
 10
248.2270683591
 20
36.0721059678
 10
248.891556731
 20
37.8575102572
 10
249.6636807188
 20
39.6294666303
 10
250.5370422601
 20
41.3732920985
 10
251.5044044061
 20
43.0745367748
 10
252.5577512893
 20
44.7191036101
 10
253.6883545457
 20
46.2933652057
 10
254.8868456407
 20
47.784276734
 10
256.1432934997
 20
49.1794840328
 10
257.4472867999
 20
50.4674259748
 10
258.7880202422
 20
51.6374302676
 10
260.1543840871
 20
52.6798018871
 10
261.5350562133
 20
53.5859034138
 10
262.918595937
 20
54.348226605
 10
264.2935388121
 20
54.9604546107
 10
265.648491629
 20
55.4175143169
 10
266.9722268219
 20
55.7156183829
 10
268.2537755042
 20
55.8522966245
 10
269.4825183597
 20
55.8264164827
 10
270.6482736384
 20
55.6381924085
 10
271.7413815247
 20
55.289184086
 10
272.7527841825
 20
54.782283508
 10
273.6741008108
 20
54.1216910123
 10
274.49769709
 20
53.3128804764
 10
275.2167484417
 20
52.362553959
 10
275.8252965801
 20
51.2785861651
 10
275.8255618162
 20
51.2780341021
  0
LWPOLYLINE
  5
272
330
1F
100
AcDbEntity
  8
0
  6
Continuous
 62
     7
370
     0
100
AcDbPolyline
 90
       14
 70
   128
 43
0.0
 10
255.8271871634
 20
16.6360796068
 10
254.8868456407
 20
16.6095124989
 10
253.6883545457
 20
16.7166756629
 10
252.5577512893
 20
16.985570524
 10
251.5044044061
 20
17.4139689349
 10
250.5370422601
 20
17.9983210513
 10
249.6636807188
 20
18.7337847475
 10
248.891556731
 20
19.6142657398
 10
248.2270683591
 20
20.6324680853
 10
247.6757217631
 20
21.7799546388
 10
247.2420855745
 20
23.0472169653
 10
246.9297530394
 20
24.42375413
 10
246.7413122434
 20
25.8981597124
 10
246.6783246665
 20
27.4582163237
  0
LWPOLYLINE
  5
273
330
1F
100
AcDbEntity
  8
0
  6
Continuous
 62
     7
370
     0
100
AcDbPolyline
 90
       21
 70
   128
 43
0.0
 10
240.9662845621
 20
36.8468513019
 10
241.4359300739
 20
38.6062792324
 10
242.0200985627
 20
40.3767350354
 10
242.7140118814
 20
42.1437374462
 10
243.5119942359
 20
43.8928334467
 10
244.4075186099
 20
45.6097164827
 10
245.3932601523
 20
47.2803434824
 10
246.4611560894
 20
48.8910497207
 10
247.6024716741
 20
50.4286605884
 10
248.8078716307
 20
51.8805993525
 10
250.0674965117
 20
53.2349900262
 10
251.3710433425
 20
54.4807545076
 10
252.7078498932
 20
55.6077031917
 10
254.0669818895
 20
56.6066183154
 10
255.4373224481
 20
57.4693293533
 10
256.8076630068
 20
58.1887798472
 10
258.1667950031
 20
58.7590851246
 10
259.5036015538
 20
59.1755804308
 10
260.8071483846
 20
59.4348590845
 10
262.0667732656
 20
59.5348003421
 10
262.2232911292
 20
59.5360339176
  0
LWPOLYLINE
  5
274
330
1F
100
AcDbEntity
  8
0
  6
Continuous
 62
     7
370
     0
100
AcDbPolyline
 90
       22
 70
   128
 43
0.0
 10
232.8525869788
 20
38.92229731
 10
233.3314225696
 20
40.8709634462
 10
233.9333042859
 20
42.8367746399
 10
234.6537515337
 20
44.8050967833
 10
235.4874010802
 20
46.7612770762
 10
236.42804698
 20
48.6907531061
 10
237.4686867732
 20
50.5791612555
 10
238.6015736149
 20
52.4124436287
 10
239.8182739441
 20
54.1769527035
 10
241.1097302665
 20
55.8595529274
 10
242.466328581
 20
57.4477185028
 10
243.877969949
 20
58.9296266329
 10
245.3341456749
 20
60.2942455342
 10
246.8240155351
 20
61.5314165607
 10
248.3364884765
 20
62.6319298277
 10
249.8603051818
 20
63.5875927734
 10
251.3841218871
 20
64.3912911466
 10
252.8965948286
 20
65.0370419675
 10
254.3864646887
 20
65.5200380667
 10
255.8426404146
 20
65.8366838718
 10
257.2542817827
 20
65.984622173
 10
258.5924880745
 20
65.9642169171
  0
LWPOLYLINE
  5
275
330
1F
100
AcDbEntity
  8
0
  6
Continuous
 62
     7
370
     0
100
AcDbPolyline
 90
       25
 70
   128
 43
0.0
 10
270.1094082265
 20
21.0924907579
 10
270.1882637241
 20
21.0485364994
 10
270.8684000834
 20
20.7821450627
 10
271.6213437928
 20
20.6735040558
 10
272.4324396595
 20
20.7247280525
 10
273.2859006252
 20
20.9348200358
 10
274.1651150428
 20
21.2996908042
 10
275.0529700039
 20
21.8122385634
 10
275.9321844215
 20
22.4624871541
 10
276.7856453872
 20
23.2377802272
 10
277.5967412539
 20
24.123027585
 10
278.3496849633
 20
25.1009988945
 10
279.0298213226
 20
26.1526590567
 10
279.6239122511
 20
27.2575387027
 10
280.1203944446
 20
28.394132607
 10
280.5096044421
 20
29.5403182621
 10
280.7839667136
 20
30.673786468
 10
280.9381411096
 20
31.7724755554
 10
280.9691268009
 20
32.815000791
 10
280.8763206862
 20
33.7810706068
 10
280.661529131
 20
34.6518815528
 10
280.3289328086
 20
35.4104842845
 10
279.8850053281
 20
36.0421134625
 10
279.3383872328
 20
36.5344751435
 10
279.1086768202
 20
36.6813702808
  0
LWPOLYLINE
  5
276
330
1F
100
AcDbEntity
  8
0
  6
Continuous
 62
     7
370
     0
100
AcDbPolyline
 90
       19
 70
   128
 43
0.0
 10
241.3590909377
 20
36.789204845
 10
241.8463351551
 20
38.5935578042
 10
242.4547324083
 20
40.4085897671
 10
243.1789553257
 20
42.2184075821
 10
244.0126623196
 20
44.0071637548
 10
244.9485531153
 20
45.759195215
 10
245.9784326757
 20
47.4591604689
 10
247.0932829603
 20
49.0921739354
 10
248.2833418904
 20
50.6439362903
 10
249.5381888304
 20
52.1008596769
 10
250.8468358345
 20
53.4501866865
 10
252.197823862
 20
54.6801020679
 10
253.5793231171
 20
55.7798361863
 10
254.9792366353
 20
56.7397593262
 10
256.3853062095
 20
57.5514660138
 10
257.7852197278
 20
58.2078486179
 10
259.1667189829
 20
58.703159588
 10
260.5177070103
 20
59.0330617815
 10
261.2907978716
 20
59.1483399832
  0
LINE
  5
277
330
1F
100
AcDbEntity
  8
0
  6
Continuous
 62
     7
370
     0
100
AcDbLine
 10
241.2231615905
 20
26.3491853941
 30
0.0
 11
242.3826509708
 21
27.0185443656
 31
0.0
  0
LINE
  5
278
330
1F
100
AcDbEntity
  8
0
  6
Continuous
 62
     7
370
     0
100
AcDbLine
 10
242.7725753988
 20
26.8128041039
 30
0.0
 11
242.3826509708
 21
27.0185443656
 31
0.0
  0
ARC
  5
279
330
1F
100
AcDbEntity
  8
0
  6
Continuous
 62
     7
370
     0
100
AcDbCircle
 10
241.6575045099
 20
28.1944649189
 30
0.0
 40
1.381530505397407
100
AcDbArc
 50
301.6605905891
 51
324.2377952695
  0
LINE
  5
27A
330
1F
100
AcDbEntity
  8
0
  6
Continuous
 62
     7
370
     0
100
AcDbLine
 10
237.0869772751
 20
31.7086206411
 30
0.0
 11
242.6619803422
 21
28.4902398756
 31
0.0
  0
LINE
  5
27B
330
1F
100
AcDbEntity
  8
0
  6
Continuous
 62
     7
370
     0
100
AcDbLine
 10
237.0263171033
 20
31.6735908855
 30
0.0
 11
237.0869772751
 21
31.7086206411
 31
0.0
  0
LINE
  5
27C
330
1F
100
AcDbEntity
  8
0
  6
Continuous
 62
     7
370
     0
100
AcDbLine
 10
236.8053462342
 20
36.4540132058
 30
0.0
 11
236.8063872614
 21
36.6397649378
 31
0.0
  0
LWPOLYLINE
  5
27D
330
1F
100
AcDbEntity
  8
0
  6
Continuous
 62
     7
370
     0
100
AcDbPolyline
 90
        3
 70
   128
 43
0.0
 10
236.9401264463
 20
34.430809227
 10
236.8686990704
 20
35.0480427061
 10
236.8053462342
 20
36.4540132058
  0
LWPOLYLINE
  5
27E
330
1F
100
AcDbEntity
  8
0
  6
Continuous
 62
     7
370
     0
100
AcDbPolyline
 90
       18
 70
   128
 43
0.0
 10
205.8721265505
 20
60.2696317971
 10
205.9362552869
 20
61.412884208
 10
206.1274971174
 20
62.6097767156
 10
206.4424393268
 20
63.8389507448
 10
206.8754617641
 20
65.0784716558
 10
207.4188371335
 20
66.3062201687
 10
208.0628688888
 20
67.5002870821
 10
208.796064268
 20
68.6393642437
 10
209.6053393822
 20
69.7031247946
 10
210.4762526978
 20
70.6725859025
 10
211.3932627461
 20
71.530447511
 10
212.340005461
 20
72.2614010593
 10
213.2995861964
 20
72.8524026641
 10
214.2548812112
 20
73.2929058878
 10
215.1888432434
 20
73.5750499398
 10
216.0848057183
 20
73.693799953
 10
216.9267801643
 20
73.6470368304
 10
217.5899413276
 20
73.4772667949
  0
ARC
  5
27F
330
1F
100
AcDbEntity
  8
0
  6
Continuous
 62
     7
370
     0
100
AcDbCircle
 10
211.2584465321
 20
59.8237247543
 30
0.0
 40
5.404745695701346
100
AcDbArc
 50
175.2675545006
 51
224.8656241104
  0
LWPOLYLINE
  5
280
330
1F
100
AcDbEntity
  8
0
  6
Continuous
 62
     7
370
     0
100
AcDbPolyline
 90
        3
 70
   128
 43
0.0
 10
242.032016557
 20
24.6798551346
 10
241.8463351551
 20
25.0580560218
 10
241.3590909377
 20
26.2998487821
  0
LWPOLYLINE
  5
281
330
1F
100
AcDbEntity
  8
0
  6
Continuous
 62
     7
370
     0
100
AcDbPolyline
 90
        3
 70
   128
 43
0.0
 10
241.9463296033
 20
24.1622149872
 10
241.4359300739
 20
25.1371151047
 10
240.9662845621
 20
26.3543018692
  0
LINE
  5
282
330
1F
100
AcDbEntity
  8
0
  6
Continuous
 62
     7
370
     0
100
AcDbLine
 10
242.3826509708
 20
27.0185443656
 30
0.0
 11
236.6727637127
 21
30.3147921171
 31
0.0
  0
ARC
  5
283
330
1F
100
AcDbEntity
  8
0
  6
Continuous
 62
     7
370
     0
100
AcDbCircle
 10
244.5210927283
 20
30.980865021
 30
0.0
 40
12.09715026325513
100
AcDbArc
 50
195.2980304775
 51
214.568481162
  0
OLE2FRAME
  5
284
330
1F
100
AcDbEntity
  8
0
100
AcDbOle2Frame
 70
     2
  3
Paintbrush-Bild
 10
13.8511154363
 20
38.264191557
 30
0.0
 11
51.6290888628
 21
31.9806341108
 31
0.0
 71
     2
 72
     0
 73
     1
 90
    12928
310
80552BED0767C5B32B40DDAF6807D121434000000000000000006FFBDDFB85D0
310
4940DDAF6807D121434000000000000000006FFBDDFB85D04940416F4BD60AFB
310
3F4000000000000000002BED0767C5B32B40416F4BD60AFB3F40000000000000
310
0000000000000100000000010000010000000100000000000100000000320000
310
D0CF11E0A1B11AE1000000000000000000000000000000003E000300FEFF0900
310
0600000000000000000000000100000001000000000000000010000002000000
310
01000000FEFFFFFF0000000000000000FFFFFFFFFFFFFFFFFFFFFFFFFFFFFFFF
310
FFFFFFFFFFFFFFFFFFFFFFFFFFFFFFFFFFFFFFFFFFFFFFFFFFFFFFFFFFFFFFFF
310
FFFFFFFFFFFFFFFFFFFFFFFFFFFFFFFFFFFFFFFFFFFFFFFFFFFFFFFFFFFFFFFF
310
FFFFFFFFFFFFFFFFFFFFFFFFFFFFFFFFFFFFFFFFFFFFFFFFFFFFFFFFFFFFFFFF
310
FFFFFFFFFFFFFFFFFFFFFFFFFFFFFFFFFFFFFFFFFFFFFFFFFFFFFFFFFFFFFFFF
310
FFFFFFFFFFFFFFFFFFFFFFFFFFFFFFFFFFFFFFFFFFFFFFFFFFFFFFFFFFFFFFFF
310
FFFFFFFFFFFFFFFFFFFFFFFFFFFFFFFFFFFFFFFFFFFFFFFFFFFFFFFFFFFFFFFF
310
FFFFFFFFFFFFFFFFFFFFFFFFFFFFFFFFFFFFFFFFFFFFFFFFFFFFFFFFFFFFFFFF
310
FFFFFFFFFFFFFFFFFFFFFFFFFFFFFFFFFFFFFFFFFFFFFFFFFFFFFFFFFFFFFFFF
310
FFFFFFFFFFFFFFFFFFFFFFFFFFFFFFFFFFFFFFFFFFFFFFFFFFFFFFFFFFFFFFFF
310
FFFFFFFFFFFFFFFFFFFFFFFFFFFFFFFFFFFFFFFFFFFFFFFFFFFFFFFFFFFFFFFF
310
FFFFFFFFFFFFFFFFFFFFFFFFFFFFFFFFFFFFFFFFFFFFFFFFFFFFFFFFFFFFFFFF
310
FFFFFFFFFFFFFFFFFFFFFFFFFFFFFFFFFFFFFFFFFFFFFFFFFFFFFFFFFFFFFFFF
310
FFFFFFFFFFFFFFFFFFFFFFFFFFFFFFFFFFFFFFFFFFFFFFFFFFFFFFFFFFFFFFFF
310
FDFFFFFFFEFFFFFFFEFFFFFFFEFFFFFF05000000060000000700000008000000
310
090000000A0000000B0000000C0000000D0000000E0000000F00000010000000
310
11000000120000001300000014000000150000001600000017000000FEFFFFFF
310
FFFFFFFFFFFFFFFFFFFFFFFFFFFFFFFFFFFFFFFFFFFFFFFFFFFFFFFFFFFFFFFF
310
FFFFFFFFFFFFFFFFFFFFFFFFFFFFFFFFFFFFFFFFFFFFFFFFFFFFFFFFFFFFFFFF
310
FFFFFFFFFFFFFFFFFFFFFFFFFFFFFFFFFFFFFFFFFFFFFFFFFFFFFFFFFFFFFFFF
310
FFFFFFFFFFFFFFFFFFFFFFFFFFFFFFFFFFFFFFFFFFFFFFFFFFFFFFFFFFFFFFFF
310
FFFFFFFFFFFFFFFFFFFFFFFFFFFFFFFFFFFFFFFFFFFFFFFFFFFFFFFFFFFFFFFF
310
FFFFFFFFFFFFFFFFFFFFFFFFFFFFFFFFFFFFFFFFFFFFFFFFFFFFFFFFFFFFFFFF
310
FFFFFFFFFFFFFFFFFFFFFFFFFFFFFFFFFFFFFFFFFFFFFFFFFFFFFFFFFFFFFFFF
310
FFFFFFFFFFFFFFFFFFFFFFFFFFFFFFFFFFFFFFFFFFFFFFFFFFFFFFFFFFFFFFFF
310
FFFFFFFFFFFFFFFFFFFFFFFFFFFFFFFFFFFFFFFFFFFFFFFFFFFFFFFFFFFFFFFF
310
FFFFFFFFFFFFFFFFFFFFFFFFFFFFFFFFFFFFFFFFFFFFFFFFFFFFFFFFFFFFFFFF
310
FFFFFFFFFFFFFFFFFFFFFFFFFFFFFFFFFFFFFFFFFFFFFFFFFFFFFFFFFFFFFFFF
310
FFFFFFFFFFFFFFFFFFFFFFFFFFFFFFFFFFFFFFFFFFFFFFFFFFFFFFFFFFFFFFFF
310
FFFFFFFFFFFFFFFFFFFFFFFFFFFFFFFFFFFFFFFFFFFFFFFFFFFFFFFFFFFFFFFF
310
52006F006F007400200045006E00740072007900000000000000000000000000
310
0000000000000000000000000000000000000000000000000000000000000000
310
16000500FFFFFFFFFFFFFFFF020000000A00030000000000C000000000000046
310
00000000000000000000000060B8258FE825D20103000000C000000000000000
310
01004F006C006500000000000000000000000000000000000000000000000000
310
0000000000000000000000000000000000000000000000000000000000000000
310
0A000200FFFFFFFFFFFFFFFFFFFFFFFF00000000000000000000000000000000
310
0000000000000000000000000000000000000000000000001400000000000000
310
010043006F006D0070004F0062006A0000000000000000000000000000000000
310
0000000000000000000000000000000000000000000000000000000000000000
310
120002010100000003000000FFFFFFFF00000000000000000000000000000000
310
0000000000000000000000000000000000000000010000004D00000000000000
310
01004F006C006500310030004E00610074006900760065000000000000000000
310
0000000000000000000000000000000000000000000000000000000000000000
310
1A000200FFFFFFFFFFFFFFFFFFFFFFFF00000000000000000000000000000000
310
0000000000000000000000000000000000000000040000002426000000000000
310
FEFFFFFF02000000FEFFFFFFFFFFFFFFFFFFFFFFFFFFFFFFFFFFFFFFFFFFFFFF
310
FFFFFFFFFFFFFFFFFFFFFFFFFFFFFFFFFFFFFFFFFFFFFFFFFFFFFFFFFFFFFFFF
310
FFFFFFFFFFFFFFFFFFFFFFFFFFFFFFFFFFFFFFFFFFFFFFFFFFFFFFFFFFFFFFFF
310
FFFFFFFFFFFFFFFFFFFFFFFFFFFFFFFFFFFFFFFFFFFFFFFFFFFFFFFFFFFFFFFF
310
FFFFFFFFFFFFFFFFFFFFFFFFFFFFFFFFFFFFFFFFFFFFFFFFFFFFFFFFFFFFFFFF
310
FFFFFFFFFFFFFFFFFFFFFFFFFFFFFFFFFFFFFFFFFFFFFFFFFFFFFFFFFFFFFFFF
310
FFFFFFFFFFFFFFFFFFFFFFFFFFFFFFFFFFFFFFFFFFFFFFFFFFFFFFFFFFFFFFFF
310
FFFFFFFFFFFFFFFFFFFFFFFFFFFFFFFFFFFFFFFFFFFFFFFFFFFFFFFFFFFFFFFF
310
FFFFFFFFFFFFFFFFFFFFFFFFFFFFFFFFFFFFFFFFFFFFFFFFFFFFFFFFFFFFFFFF
310
FFFFFFFFFFFFFFFFFFFFFFFFFFFFFFFFFFFFFFFFFFFFFFFFFFFFFFFFFFFFFFFF
310
FFFFFFFFFFFFFFFFFFFFFFFFFFFFFFFFFFFFFFFFFFFFFFFFFFFFFFFFFFFFFFFF
310
FFFFFFFFFFFFFFFFFFFFFFFFFFFFFFFFFFFFFFFFFFFFFFFFFFFFFFFFFFFFFFFF
310
FFFFFFFFFFFFFFFFFFFFFFFFFFFFFFFFFFFFFFFFFFFFFFFFFFFFFFFFFFFFFFFF
310
FFFFFFFFFFFFFFFFFFFFFFFFFFFFFFFFFFFFFFFFFFFFFFFFFFFFFFFFFFFFFFFF
310
FFFFFFFFFFFFFFFFFFFFFFFFFFFFFFFFFFFFFFFFFFFFFFFFFFFFFFFFFFFFFFFF
310
FFFFFFFFFFFFFFFFFFFFFFFFFFFFFFFFFFFFFFFFFFFFFFFFFFFFFFFFFFFFFFFF
310
0100000200000000000000000000000000000000000000000000000000000000
310
0000000000000000000000000000000000000000000000000000000000000000
310
0100FEFF030A0000FFFFFFFF0A00030000000000C00000000000004607000000
310
5042727573680007000000504272757368000700000050427275736800F439B2
310
7100000000000000000000000000000000000000000000000000000000000000
310
0000000000000000000000000000000000000000000000000000000000000000
310
0000000000000000000000000000000000000000000000000000000000000000
310
0000000000000000000000000000000000000000000000000000000000000000
310
0000000000000000000000000000000000000000000000000000000000000000
310
0000000000000000000000000000000000000000000000000000000000000000
310
0000000000000000000000000000000000000000000000000000000000000000
310
0000000000000000000000000000000000000000000000000000000000000000
310
0000000000000000000000000000000000000000000000000000000000000000
310
0000000000000000000000000000000000000000000000000000000000000000
310
0000000000000000000000000000000000000000000000000000000000000000
310
0000000000000000000000000000000000000000000000000000000000000000
310
20260000424D0E260000000000003E00000028000000B40200006E0000000100
310
01000000000000000000130B0000130B00000200000002000000000000FFFFFF
310
FFFFFFFFFFFFFFFFFFFFFFFFFFFFFFFFFFFFFFFFFFFFFFFFFFFFFFFFFFFFFFFF
310
FFFFFFFFFFFFFFFFFFFFFFFFFFFFFFFFFFFFFFFFFFFFFFFFFFFFFFFFFFFFFFFF
310
FFFFFFFFFFFFFFFFFFFFFFFFFFFFFFFFFFFFFFFFFFFFFFFFF000FFFFFFFFFFFF
310
FFFFFFFFFFFFFFFFFFFFFFFFFFFFFFFFFFFFFFFFFFFFFFFFFFFFFFFFFFFFFFFF
310
FFFFFFFFFFFFFFFFFFFFFFFFFFFFFFFFFFFFFFFFFFFFFFFFFFFFFFFFFFFFFFFF
310
FFFFFFFFFFFFFFFFFFFFFFFFFFFFFFFFF000FFFFFFFFFFFFFFFFFFFFFFFFFFFF
310
FFFFFFFFFFFFFFFFFFFFFFFFFFFFFFFFFFFFFFFFFFFFFFFFFFFFFFFFFFFFFFFF
310
FFFFFFFFFFFFFFFFFFFFFFFFFFFFFFFFFFFFFFFFFFFFFFFFFFFFFFFFFFFFFFFF
310
FFFFFFFFFFFFFFFFF000FFFFFFFFFFFFFFFFFFFFFFFFFFFFFFFFFFFFFFFFFFFF
310
FFFFFFFFFFFFFFFFFFFFFFFFFFFFFFFFFFFFFFFFFFFFFFFFFFFFFFFFFFFFFFFF
310
FFFFFFFFFFFFFFFFFFFFFFFFFFFFFFFFFFFFFFFFFFFFFFFFFFFFFFFFFFFFFFFF
310
F000FFFFFFFFFFFFFFFFFFFFFFFFFFFFFFFFFFFFFFFFFFFFFFFFFFFFFFFFFFFF
310
FFFFFFFFFFFFFFFFFFFFFFFFFFFFFFFFFFFFFFFFFFFFFFFFFFFFFFFFFFFFFFFF
310
FFFFFFFFFFFFFFFFFFFFFFFFFFFFFFFFFFFFFFFFFFFFFFFFF000FFFFFFFFFFFF
310
FFFFFFFFFFFFFFFFFFFFFFFFFFFFFFFFFFFFFFFFFFFFFFFFFFFFFFFFFFFFFFFF
310
FFFFFFFFFFFFFFFFFFFFFFFFFFFFFFFFFFFFFFFFFFFFFFFFFFFFFFFFFFFFFFFF
310
FFFFFFFFFFFFFFFFFFFFFFFFFFFFFFFFF000FFFFFFFFFFFFFFFFFFFFFFFFFFFF
310
FFFFFFFFFFFFFFFFFFFFFFFFFFFFFFFFFFFFFFFFFFFFFFFFFFFFFFFFFFFFFFFF
310
FFFFFFFFFFFFFFFFFFFFFFFFFFFFFFFFFFFFFFFFFFFFFFFFFFFFFFFFFFFFFFFF
310
FFFFFFFFFFFFFFFFF000FFFFFFFFFFFFFFFFFFFFFFFFFFFFFFFFFFFFFFFFFFFF
310
FFFFFFFFFFFFFFFFFFFFFFFFFFFFFFFFFFFFFFFFFFFFFFFFFFFFFFFFFFFFFFFF
310
FFFFFFFFFFFFFFFFFFFFFFFFFFFFFFFFFFFFFFFFFFFFFFFFFFFFFFFFFFFFFFFF
310
F000FFFFFFFFFFFFFFFFFFFFFFFFFFFFFFFFFFFFFFFFFFFFFFFFFFFFFFFFFFFF
310
FFFFFFFFFFFFFFFFFFFFFFFFFFFFFFFFFFFFFFFFFFFFFFFFFFFFFFFFFFFFFFFF
310
FFFFFFFFFFFFFFFFFFFFFFFFFFFFFFFFFFFFFFFFFFFFFFFFF000FFFFFFFFFFFF
310
FFFFFFFFFFFFFFFFFFFFFFFFFFFFFFFFFFFFFFFFFFFFFFFFFFFFFFFFFFFFFFFF
310
FFFFFFFFFFFFFFFFFFFFFFFFFFFFFFFFFFFFFFFFFFFFFFFFFFFFFFFFFFFFFFFF
310
FFFFFFFFFFFFFFFFFFFFFFFFFFFFFFFFF000FFFFFFFFFFFFFFFFFFFFFFFFFFFF
310
FFFFFFFFFFFFFFFFFFFFFFFFFFFFFFFFFFFFFFFFFFFFFFFFFFFFFFFFFFFFFFFF
310
FFFFFFFFFFFFFFFFFFFFFFFFFFFFFFFFFFFFFFFFFFFFFFFFFFFFFFFFFFFFFFFF
310
FFFFFFFFFFFFFFFFF000FFFFFFFFFFFFFFFFFFFFFFFFFFFFFFFFFFFFFFFFFFFF
310
FFFFFFFFFFFFFFFFFFFFFFFFFFFFFFFFFFFFFFFFFFFFFFFFFFFFFFFFFFFFFFFF
310
FFFFFFFFFFFFFFFFFFFFFFFFFFFFFFFFFFFFFFFFFFFFFFFFFFFFFFFFFFFFFFFF
310
F000FFFFFFFFFFFFFFFFFFFFFFFFFFFFFFFFFFFFFFFFFFFFFFFFFFFFFFFFFFFF
310
FFFFFFFFFFFFFFFFFFFFFFFFFFFFFFFFFFFFFFFFFFFFFFFFFFFFFFFFFFFFFFFF
310
FFFFFFFFFFFFFFFFFFFFFFFFFFFFFFFFFFFFFFFFFFFFFFFFF000FFFFFFFFFFFF
310
FFFFFFFFFFFFFFFFFFFFFFFFFFFFFFFFFFFFFFFFFFFFFFFFFFFFFFFFFFFFFFFF
310
FFFFFFFFFFFFFFFFFFFFFFFFFFFFFFFFFFFFFFFFFFFFFFFFFFFFFFFFFFFFFFFF
310
FFFFFFFFFFFFFFFFFFFFFFFFFFFFFFFFF000FFFFFFFFFFFFFFFFFFFFFFFFFFFF
310
FFFFFFFFFFFFFFFFFFFFFFFFFFFFFFFFFFFFFFFFFFFFFFFFFFFFFFFFFFFFFFFF
310
FFFFFFFFFFFFFFFFFFFFFFFFFFFFFFFFFFFFFFFFFFFFFFFFFFFFFFFFFFFFFFFF
310
FFFFFFFFFFFFFFFFF000FFFFFFFFFFFFFFFFFFFFFFFFFFFFFFFFFFFFFFFFFFFF
310
FFFFFFFFFFFFFFFFFFFFFFFFFFFFFFFFFFFFFFFFFFFFFFFFFFFFFFFFFFFFFFFF
310
FFFFFFFFFFFFFFFFFFFFFFFFFFFFFFFFFFFFFFFFFFFFFFFFFFFFFFFFFFFFFFFF
310
F000FFFFFFFFFFFFFFFFFFFFFFFFFFFFFFFFFFFFFFFFFFFFFFFFFFFFFFFFFFFF
310
FFFFFFFFFFFFFFFFFFFFFFFFFFFFFFFFFFFFFFFFFFFFFFFFFFFFFFFFFFFFFFFF
310
FFFFFFFFFFFFFFFFFFFFFFFFFFFFFFFFFFFFFFFFFFFFFFFFF000FFFFFFFFFFFF
310
FFFFFFFFFFFFFFFFFFFFFFFFFFFFFFFFFFFFFFFFFFFFFFFFFFFFFFFFFFFFFFFF
310
FFFFFFFFFFFFFFFFFFFFFFFFFFFFFFFFFFFFFFFFFFFFFFFFFFFFFFFFFFFFFFFF
310
FFFFFFFFFFFFFFFFFFFFFFFFFFFFFFFFF000FFFFFFFFFFFFFFFFFFFFFFFFFFFF
310
FFFFFFFFFFFFFFFFFFFFFFFFFFFFFFFFFFFFFFFFFFFFFFFFFFFFFFFFFFFFFFFF
310
FFFFFFFFFFFFFFFFFFFFFFFFFFFFFFFFFFFFFFFFFFFFFFFFFFFFFFFFFFFFFFFF
310
FFFFFFFFFFFFFFFFF000FFFFF80003FFFFFFFFFFFFFFFFFFFFFFFFFFFFFFFFFF
310
FFFFF00007FFFFFFFFFF00007FFFFFF800000000000000007FFFFFFFFFFFFFFF
310
FFFFFFFC001FFFFFFFFFFFFFFC001FFFFFFFFFFFFFFFFFFFFFFFFFFE0007FFFF
310
F000FFFF8000007FFFFFFFF8000FFFFFC0007FFFFF80007FFFFF0000007FFFFF
310
FFF8000007FFFFF800000000000000007FFFFFF0001FFFFFFFFFFFC00001FFFF
310
FFFFFFFFC00001FFFFFFFF000000000003FFFFE000007FFFF000FFFE0000000F
310
FFFFFFF0000FFFFF80007FFFFF80007FFFFC0000001FFFFFFFC0000001FFFFF8
310
00000000000000007FFFFFF0001FFFFFFFFFFE0000003FFFFFFFFFFE0000003F
310
FFFFFF000000000003FFFF0000000FFFF000FFF800000003FFFFFFF00007FFFF
310
80007FFFFF80007FFFF000000007FFFFFF000000003FFFF80000000000000000
310
7FFFFFF0001FFFFFFFFFF80000000FFFFFFFFFF80000000FFFFFFF0000000000
310
03FFFC00000003FFF000FFE000000000FFFFFFF00007FFFF80003FFFFF80007F
310
FFC000000001FFFFFC000000001FFFF800000000000000007FFFFFF0001FFFFF
310
FFFFE000000003FFFFFFFFE000000003FFFFFF000000000003FFF000000000FF
310
F000FF80000000007FFFFFF00007FFFF80003FFFFF80007FFF8000000000FFFF
310
F80000000007FFF800000000000000007FFFFFF0001FFFFFFFFFC000000001FF
310
FFFFFFC000000001FFFFFF000000000003FFC0000000007FF000FF0000000000
310
3FFFFFE00007FFFF00003FFFFF80007FFE00000000003FFFF00000000003FFF8
310
00000000000000007FFFFFF0001FFFFFFFFF8000000000FFFFFFFF8000000000
310
FFFFFF000000000003FF80000000003FF000FE00000000001FFFFFE00003FFFF
310
00003FFFFF80007FFC00000000001FFFE00000000001FFF8000001FFFE000000
310
7FFFFFF0001FFFFFFFFE00000000003FFFFFFE00000000003FFFFF0000000000
310
03FF00000000001FF000FC00000000000FFFFFE00003FFFF00001FFFFF80007F
310
F800000000001FFFC00000000000FFF8000001FFFE0000007FFFFFF0001FFFFF
310
FFFC00000000001FFFFFFC00000000001FFFFF000000000003FE00000000000F
310
F000F8000000000007FFFFE00003FFFF00001FFFFF80007FF800000000000FFF
310
800000000000FFF8000001FFFE0000007FFFFFF0001FFFFFFFF800000000000F
310
FFFFF800000000000FFFFF000000000003FC000000000007F000F80000000000
310
03FFFFC00003FFFE00001FFFFF80007FF0000000000007FF0000000000007FF8
310
000001FFFE0000007FFFFFF0001FFFFFFFF0000000000007FFFFF00000000000
310
07FFFF000000000003F8000000000003F000F0000000000003FFFFC00001FFFE
310
00001FFFFF80007FE0000000000007FE0000000000003FF8000001FFFE000000
310
7FFFFFF0001FFFFFFFF0000000000007FFFFF0000000000007FFFF0000000000
310
03F800001F800003F000E00001FFF00001FFFFC00001FFFE00000FFFFF80007F
310
E00001FFE00003FE00001FFF00003FF8000001FFFE0000007FFFFFF0001FFFFF
310
FFE000003E000003FFFFE000003E000003FFFF000000000003F00001FFF80001
310
F000E00007FFFC0001FFFFC00001FFFE00000FFFFF80007FC0000FFFFC0003FC
310
0000FFFFC0001FF8000001FFFE0000007FFFFFF0001FFFFFFFC00003FFE00001
310
FFFFC00003FFE00001FFFF0001FFFFFFFFF00007FFFE0001F000E0000FFFFF00
310
00FFFF800001FFFC00000FFFFF80007FC0001FFFFE0001FC0001FFFFE0001FF8
310
000001FFFE0000007FFFFFF0001FFFFFFF80000FFFF80000FFFF80000FFFF800
310
00FFFF0003FFFFFFFFE0000FFFFF8000F000C0003FFFFF8000FFFF800000FFFC
310
000007FFFF80007F80003FFFFF0001FC0003FFFFF0001FF8000001FFFE000000
310
7FFFFFF0001FFFFFFF80003FFFFE0000FFFF80003FFFFE0000FFFF0003FFFFFF
310
FFE0003FFFFF8000F000C0003FFFFF8000FFFF800000FFFC000007FFFF80007F
310
80007FFFFF8001F80007FFFFF8000FF8000001FFFE0000007FFFFFF0001FFFFF
310
FF00007FFFFF00007FFF00007FFFFF00007FFF0003FFFFFFFFE0003FFFFFC000
310
F000C0007FFFFFC000FFFF000000FFFC000007FFFF80007F8000FFFFFF8000F8
310
000FFFFFF8000FF8000001FFFE0000007FFFFFF0001FFFFFFF0000FFFFFF8000
310
7FFF0000FFFFFF80007FFF0003FFFFFFFFC0007FFFFFC00070008000FFFFFFC0
310
00FFFF000000FFF8000007FFFF80007F8000FFFFFF8000F8000FFFFFF8000FF8
310
000001FFFE0000007FFFFFF0001FFFFFFE0001FFFFFFC0003FFE0001FFFFFFC0
310
003FFF0003FFFFFFFFC0007FFFFFE00070008000FFFFFFC0007FFF0000007FF8
310
000003FFFF80007F0001FFFFFF8000F8000FFFFFF8000FF8000001FFFE000000
310
7FFFFFF0001FFFFFFE0001FFFFFFC0003FFE0001FFFFFFC0003FFF0003FFFFFF
310
FFC000FFFFFFE00070008000FFFFFFC0007FFF0000007FF8000003FFFF80007F
310
0001FFFFFF8000F8001FFFFFF8000FF8000001FFFE0000007FFFFFF0001FFFFF
310
FE0003FFFFFFE0003FFE0003FFFFFFE0003FFF0003FFFFFFFFC000FFFFFFE000
310
70008000FFFFFFC0007FFE0000007FF8000003FFFF80007F0001FFFFFF8000F0
310
001FFFFFF8000FF8000001FFFE0000007FFFFFF0001FFFFFFC0003FFFFFFE000
310
1FFC0003FFFFFFE0001FFF0003FFFFFFFFC000FFFFFFC00070008000FFFFFF80
310
007FFE0000007FF0000003FFFF80007F0001FFFFFF0000F0001FFFFFF8000FF8
310
000001FFFE0000007FFFFFF0001FFFFFFC0007FFFFFFF0001FFC0007FFFFFFF0
310
001FFF0003FFFFFFFFC000FFFFFFC00070008001FFFFFF0000FFFE0000003FF0
310
000001FFFF80007F0001FFFFFF0000F8001FFFFFF0000FF8000001FFFE000000
310
7FFFFFF0001FFFFFFC0007FFFFFFF0001FFC0007FFFFFFF0001FFF0003FFFFFF
310
FFC001FFFFFF80007000FFFFFFFFFE0000FFFE0008003FF0008001FFFF80007F
310
FFFFFFFFFC0000FFFFFFFFFFE0000FF8000001FFFE0000007FFFFFF0001FFFFF
310
F8000FFFFFFFF8000FF8000FFFFFFFF8000FFF0003FFFFFFFFFFFFFFFFFF0000
310
7000FFFFFFFFFC0000FFFC0008003FF0008001FFFF80007FFFFFFFFFF80001FF
310
FFFFFFFF80000FF8000001FFFE0000007FFFFFF0001FFFFFF8000FFFFFFFF800
310
0FF8000FFFFFFFF8000FFF0003FFFFFFFFFFFFFFFFFE0000F000FFFFFFFFE000
310
00FFFC000C003FE000C001FFFF80007FFFFFFFFFC00001FFFFFFFFFE00001FF8
310
000001FFFE0000007FFFFFF0001FFFFFF8000FFFFFFFF8000FF8000FFFFFFFF8
310
000FFF0003FFFFFFFFFFFFFFFFF00000F000FFFFFFFE000001FFFC000C001FE0
310
00C000FFFF80007FFFFFFFFE000001FFFFFFFFE000001FF80FFFFFFFFFFFFFC0
310
7FFFFFF0001FFFFFF8000FFFFFFFF8000FF8000FFFFFFFF8000FFF0003FFFFFF
310
FFFFFFFFFF800000F000FFFFFFC0000001FFFC001C001FE001C000FFFF80007F
310
FFFFFF80000003FFFFFFF80000001FF80FFFFFFFFFFFFFC07FFFFFF0001FFFFF
310
F8001FFFFFFFFC000FF8001FFFFFFFFC000FFF0003FFFFFFFFFFFFFFF0000001
310
F000FFFFF800000001FFF8001C001FE001C000FFFF80007FFFFFF800000003FF
310
FFFF800000003FF80FFFFFFFFFFFFFC07FFFFFF0001FFFFFF8001FFFFFFFFC00
310
0FF8001FFFFFFFFC000FFF0003FFFFFFFFFFFFFE00000001F000FFFFC0000000
310
03FFF8001E001FC001E000FFFF80007FFFFF8000000007FFFFFC000000003FF8
310
0FFFFFFFFFFFFFC07FFFFFF0001FFFFFF8001FFFFFFFFC000FF8001FFFFFFFFC
310
000FFF0003FFFFFFFFFFFFE000000003F000FFFE0000000007FFF8001E000FC0
310
01E0007FFF80007FFFFE0000000007FFFFE0000000007FF80FFFFFFFFFFFFFC0
310
7FFFFFF0001FFFFFF0001FFFFFFFFC0007F0001FFFFFFFFC0007FF0003FFFFFF
310
FFFFFF0000000003F000FFF80000000007FFF8001E000FC003E0007FFF80007F
310
FFF0000000000FFFFF8000000000FFF80FFFFFFFFFFFFFC07FFFFFF0001FFFFF
310
F0001FFFFFFFFC0007F0001FFFFFFFFC0007FF0003FFFFFFFFFFFC0000000007
310
F000FFE0000000000FFFF0003E000FC003E0007FFF80007FFFC0000000001FFF
310
FE0000000001FFF80FFFFFFFFFFFFFC07FFFFFF0001FFFFFF0001FFFFFFFFC00
310
07F0001FFFFFFFFC0007FF0003FFFFFFFFFFF0000000000FF000FFC000000000
310
1FFFF0003F000F8003F0003FFF80007FFF80000000003FFFF80000000003FFF8
310
0FFFFFFFFFFFFFC07FFFFFF0001FFFFFF0001FFFFFFFFC0007F0001FFFFFFFFC
310
0007FF0003FFFFFFFFFFE0000000001FF000FF00000000007FFFF0003F000780
310
03F0003FFF80007FFF00000000007FFFF00000000007FFF80FFFFFFFFFFFFFC0
310
7FFFFFF0001FFFFFF0001FFFFFFFFC0007F0001FFFFFFFFC0007FF0003FFFFFF
310
FFFF80000000007FF000FE0000000000FFFFE0003F00078007F0003FFF80007F
310
FE0000000001FFFFE0000000001FFFF80FFFFFFFFFFFFFC07FFFFFF0001FFFFF
310
F0001FFFFFFFFC0007F0001FFFFFFFFC0007FF0003FFFFFFFFFF0000000000FF
310
F000FC0000000003FFFFE0007F00078007F0003FFF80007FFC0000000007FFFF
310
C0000000007FFFF80FFFFFFFFFFFFFC07FFFFFF0001FFFFFF8001FFFFFFFFC00
310
0FF8001FFFFFFFFC000FFF0003FFFFFFFFFE0000000003FFF000FC000000000F
310
FFFFE0007F80070007F8001FFF80007FF8000000001FFFFF8000000001FFFFF8
310
0FFFFFFFFFFFFFC07FFFFFF0001FFFFFF8001FFFFFFFFC000FF8001FFFFFFFFC
310
000FFF0003FFFFFFFFFC000000000FFFF000F8000000007FFFFFE0007F800700
310
07F8001FFF80007FF000000000FFFFFF800000000FFFFFF80FFFFFFFFFFFFFC0
310
7FFFFFF0001FFFFFF8000FFFFFFFF8000FF8000FFFFFFFF8000FFF0003FFFFFF
310
FFFC000000007FFFF000F800000007FFFFFFC0007F8003000FF8001FFF80007F
310
F000000007FFFFFF000000007FFFFFF80FFFFFFFFFFFFFC07FFFFFF0001FFFFF
310
F8000FFFFFFFF8000FF8000FFFFFFFF8000FFF0003FFFFFFFFF80000000FFFFF
310
F000F0000000FFFFFFFFC000FF8003000FF8001FFF80007FE0000000FFFFFFFF
310
0000000FFFFFFFF8000001FFFE0000007FFFFFF0001FFFFFF8000FFFFFFFF800
310
0FF8000FFFFFFFF8000FFF0003FFFFFFFFF8000000FFFFFFF000F000000FFFFF
310
FFFFC000FFC002000FF8000FFF80007FE000001FFFFFFFFE000001FFFFFFFFF8
310
000001FFFE0000007FFFFFF0001FFFFFF8000FFFFFFFF8000FF8000FFFFFFFF8
310
000FFF0003FFFFFFFFF000001FFFFFFFF000E00000FFFFFFFFFFC000FFC00200
310
0FFC000FFF80007FE00001FFFFFFFFFE00001FFFFFFFFFF8000001FFFE000000
310
7FFFFFF0001FFFFFFC000FFFFFFFF8001FFC000FFFFFFFF8001FFF0003FFFFFF
310
FFF00001FFFFFFFFF000E00007FFFFFFFFFF8000FFC000001FFC000FFF80007F
310
C0000FFFFFFFFFFE0000FFFFFFFFFFF8000001FFFE0000007FFFFFF0001FFFFF
310
FC0007FFFFFFF0001FFC0007FFFFFFF0001FFF0003FFFFFFFFF00007FFFFFFFF
310
F000E0001FFFFFFFFFFF8000FFC000001FFC000FFF80007FC0003FFFFFFFFFFE
310
0001FFFFFFFFFFF8000001FFFE0000007FFFFFF0001FFFFFFC0007FFFFFFF000
310
1FFC0007FFFFFFF0001FFF0003FFFFFFFFF0001FFFFFFFFFF000E0003FFFFF00
310
03FF8001FFE000001FFC0007FF80007FC0007FFFFF0007FC0003FFFFF0003FF8
310
000001FFFE0000007FFFFFF0001FFFFFFC0003FFFFFFE0001FFC0003FFFFFFE0
310
001FFF0003FFFFFFFFF0003FFFFFFFFFF000E0003FFFFF0001FF8001FFE00000
310
1FFE0007FF80007FC0007FFFFE0003FC0007FFFFE0003FF8000001FFFE000000
310
7FFFFFF0001FFFFFFE0003FFFFFFE0003FFE0003FFFFFFE0003FFF0003FFFFFF
310
FFF0003FFFFF8001F000E0003FFFFF0001FF0001FFE000001FFE0007FF80007F
310
C0007FFFFE0003FC0007FFFFE0003FF8000001FFFE0000007FFFFFF0001FFFFF
310
FE0001FFFFFFC0003FFE0001FFFFFFC0003FFF0003FFFFFFFFF0003FFFFF0001
310
F000E0003FFFFF0003FF0001FFE000003FFE0007FF80007FC0007FFFFE0003FC
310
0007FFFFE0003FF8000001FFFE0000007FFFFFF0001FFFFFFF0001FFFFFFC000
310
7FFF0001FFFFFFC0007FFF0003FFFFFFFFF0003FFFFF0001F000E0003FFFFE00
310
03FF0003FFF000003FFE0003FF80007FC0007FFFFC0003FE0007FFFFE0003FF8
310
000001FFFE0000007FFFFFF0001FFFFFFF0000FFFFFF80007FFF0000FFFFFF80
310
007FFF0003FFFFFFFFF0003FFFFF0001F000E0003FFFFE0003FF0003FFF00000
310
3FFF0003FF80007FC0007FFFFC0007FE0007FFFFC0003FF8000001FFFE000000
310
7FFFFFF0001FFFFFFF80007FFFFF0000FFFF80007FFFFF0000FFFF0003FFFFFF
310
FFF0003FFFFF0003F000E0003FFFFC0003FE0003FFF000003FFF0003FF80007F
310
E0003FFFF80007FE0003FFFFC0007FF8000001FFFE0000007FFFFFF0001FFFFF
310
FF80003FFFFE0000FFFF80003FFFFE0000FFFF0003FFFFFFFFF0001FFFFE0003
310
F000F0001FFFF80003FE0003FFF000007FFF0001FF80007FE0003FFFF00007FE
310
0001FFFF80007FF8000001FFFE0000007FFFFFF0001FFFFFFFC0000FFFF80001
310
FFFFC0000FFFF80001FFFF0003FFFFFFFFF0001FFFFC0003F000F0000FFFF000
310
07FE0007FFF800007FFF0001FF80007FE0001FFFE00007FF0000FFFE00007FF8
310
000001FFFE0000007FFFFFF0001FFFFFFFC00003FFE00001FFFFC00003FFE000
310
01FFFF0003FFFFFFFFF8000FFFF80003F000F00003FFC00007FC0007FFF80000
310
7FFF8001FF80007FF00007FF80000FFF00007FF80000FFF8000001FFFE000000
310
7F80000000000001FFE000003E000003FFFFE000003E000003FFFF0003FFFFFF
310
FFF80003FFE00007F000F800000000000FFC0007FFF800007FFF8001FF80007F
310
F000000000000FFF000000000000FFF8000001FFFE0000007F80000000000001
310
FFF0000000000007FFFFF0000000000007FFFF0003FFFFFFFFFC00007E000007
310
F000F800000000000FFC0007FFF80000FFFF8000FF80007FF800000000001FFF
310
800000000001FFF8000001FFFE0000007F80000000000001FFF800000000000F
310
FFFFF800000000000FFFFF0003FFFFFFFFFC00000000000FF000FC0000000000
310
1FFC0007FFFC0000FFFF8000FF80007FF800000000003FFFC00000000001FFF8
310
000001FFFE0000007F80000000000001FFF800000000000FFFFFF80000000000
310
0FFFFF0003FFFFFFFFFE00000000001FF000FE00000000003FF8000FFFFC0000
310
FFFF8000FF80007FFC00000000003FFFC00000000003FFF8000001FFFE000000
310
7F80000000000001FFFC00000000001FFFFFFC00000000001FFFFF0003FFFFFF
310
FFFF00000000001FF000FF00000000003FF8000FFFFC0000FFFFC000FF80007F
310
FE00000000007FFFE00000000007FFF8000001FFFE0000007F80000000000001
310
FFFE00000000003FFFFFFE00000000003FFFFF0003FFFFFFFFFF80000000003F
310
F000FF80000000007FF8000FFFFC0001FFFFC0007F80007FFF0000000000FFFF
310
F0000000000FFFF800000000000000007F80000000000001FFFF8000000000FF
310
FFFFFF8000000000FFFFFF0003FFFFFFFFFFC0000000007FF000FFC000000000
310
FFF8000FFFFE0001FFFFC0007F80007FFF8000000001FFFFF8000000001FFFF8
310
00000000000000007F80000000000001FFFFC000000001FFFFFFFFC000000001
310
FFFFFF0003FFFFFFFFFFE000000000FFF000FFE000000003FFF0001FFFFE0001
310
FFFFC0007F80007FFFC000000007FFFFFE000000003FFFF80000000000000000
310
7F80000000000001FFFFE000000003FFFFFFFFE000000003FFFFFF0003FFFFFF
310
FFFFF000000003FFF000FFF80000000FFFF0001FFFFE0001FFFFE0007F80007F
310
FFF00000000FFFFFFF00000000FFFFF800000000000000007F80000000000001
310
FFFFF80000000FFFFFFFFFF80000000FFFFFFF0003FFFFFFFFFFFC0000000FFF
310
F000FFFE0000003FFFF0001FFFFE0003FFFFE0003F80007FFFFC0000003FFFFF
310
FFC0000003FFFFF800000000000000007F80000000000001FFFFFE0000003FFF
310
FFFFFFFE0000003FFFFFFF0003FFFFFFFFFFFF0000003FFFF000FFFF800000FF
310
FFF0001FFFFF0003FFFFE0003F80007FFFFF000001FFFFFFFFF800001FFFFFF8
310
00000000000000007F80000000000001FFFFFFC00001FFFFFFFFFFFFC00001FF
310
FFFFFF0003FFFFFFFFFFFFC00000FFFFF000FFFFF8000FFFFFFFFFFFFFFFFFFF
310
FFFFFFFFFFFFFFFFFFFFF0001FFFFFFFFFFF0000FFFFFFF80000000000000000
310
7FFFFFFFFFFFFFFFFFFFFFFC001FFFFFFFFFFFFFFC001FFFFFFFFFFFFFFFFFFF
310
FFFFFFFC001FFFFFF000FFFFFFFFFFFFFFFFFFFFFFFFFFFFFFFFFFFFFFFFFFFF
310
FFFFFFFFFFFFFFFFFFFFFFFFFFFFFFFFFFFFFFFFFFFFFFFFFFFFFFFFFFFFFFFF
310
FFFFFFFFFFFFFFFFFFFFFFFFFFFFFFFFFFFFFFFFFFFFFFFFFFFFFFFFFFFFFFFF
310
F000FFFFFFFFFFFFFFFFFFFFFFFFFFFFFFFFFFFFFFFFFFFFFFFFFFFFFFFFFFFF
310
FFFFFFFFFFFFFFFFFFFFFFFFFFFFFFFFFFFFFFFFFFFFFFFFFFFFFFFFFFFFFFFF
310
FFFFFFFFFFFFFFFFFFFFFFFFFFFFFFFFFFFFFFFFFFFFFFFFF000FFFFFFFFFFFF
310
FFFFFFFFFFFFFFFFFFFFFFFFFFFFFFFFFFFFFFFFFFFFFFFFFFFFFFFFFFFFFFFF
310
FFFFFFFFFFFFFFFFFFFFFFFFFFFFFFFFFFFFFFFFFFFFFFFFFFFFFFFFFFFFFFFF
310
FFFFFFFFFFFFFFFFFFFFFFFFFFFFFFFFF000FFFFFFFFFFFFFFFFFFFFFFFFFFFF
310
FFFFFFFFFFFFFFFFFFFFFFFFFFFFFFFFFFFFFFFFFFFFFFFFFFFFFFFFFFFFFFFF
310
FFFFFFFFFFFFFFFFFFFFFFFFFFFFFFFFFFFFFFFFFFFFFFFFFFFFFFFFFFFFFFFF
310
FFFFFFFFFFFFFFFFF000FFFFFFFFFFFFFFFFFFFFFFFFFFFFFFFFFFFFFFFFFFFF
310
FFFFFFFFFFFFFFFFFFFFFFFFFFFFFFFFFFFFFFFFFFFFFFFFFFFFFFFFFFFFFFFF
310
FFFFFFFFFFFFFFFFFFFFFFFFFFFFFFFFFFFFFFFFFFFFFFFFFFFFFFFFFFFFFFFF
310
F000FFFFFFFFFFFFFFFFFFFFFFFFFFFFFFFFFFFFFFFFFFFFFFFFFFFFFFFFFFFF
310
FFFFFFFFFFFFFFFFFFFFFFFFFFFFFFFFFFFFFFFFFFFFFFFFFFFFFFFFFFFFFFFF
310
FFFFFFFFFFFFFFFFFFFFFFFFFFFFFFFFFFFFFFFFFFFFFFFFF000FFFFFFFFFFFF
310
FFFFFFFFFFFFFFFFFFFFFFFFFFFFFFFFFFFFFFFFFFFFFFFFFFFFFFFFFFFFFFFF
310
FFFFFFFFFFFFFFFFFFFFFFFFFFFFFFFFFFFFFFFFFFFFFFFFFFFFFFFFFFFFFFFF
310
FFFFFFFFFFFFFFFFFFFFFFFFFFFFFFFFF000FFFFFFFFFFFFFFFFFFFFFFFFFFFF
310
FFFFFFFFFFFFFFFFFFFFFFFFFFFFFFFFFFFFFFFFFFFFFFFFFFFFFFFFFFFFFFFF
310
FFFFFFFFFFFFFFFFFFFFFFFFFFFFFFFFFFFFFFFFFFFFFFFFFFFFFFFFFFFFFFFF
310
FFFFFFFFFFFFFFFFF000FFFFFFFFFFFFFFFFFFFFFFFFFFFFFFFFFFFFFFFFFFFF
310
FFFFFFFFFFFFFFFFFFFFFFFFFFFFFFFFFFFFFFFFFFFFFFFFFFFFFFFFFFFFFFFF
310
FFFFFFFFFFFFFFFFFFFFFFFFFFFFFFFFFFFFFFFFFFFFFFFFFFFFFFFFFFFFFFFF
310
F000FFFFFFFFFFFFFFFFFFFFFFFFFFFFFFFFFFFFFFFFFFFFFFFFFFFFFFFFFFFF
310
FFFFFFFFFFFFFFFFFFFFFFFFFFFFFFFFFFFFFFFFFFFFFFFFFFFFFFFFFFFFFFFF
310
FFFFFFFFFFFFFFFFFFFFFFFFFFFFFFFFFFFFFFFFFFFFFFFFF000FFFFFFFFFFFF
310
FFFFFFFFFFFFFFFFFFFFFFFFFFFFFFFFFFFFFFFFFFFFFFFFFFFFFFFFFFFFFFFF
310
FFFFFFFFFFFFFFFFFFFFFFFFFFFFFFFFFFFFFFFFFFFFFFFFFFFFFFFFFFFFFFFF
310
FFFFFFFFFFFFFFFFFFFFFFFFFFFFFFFFF000FFFFFFFFFFFFFFFFFFFFFFFFFFFF
310
FFFFFFFFFFFFFFFFFFFFFFFFFFFFFFFFFFFFFFFFFFFFFFFFFFFFFFFFFFFFFFFF
310
FFFFFFFFFFFFFFFFFFFFFFFFFFFFFFFFFFFFFFFFFFFFFFFFFFFFFFFFFFFFFFFF
310
FFFFFFFFFFFFFFFFF000FFFFFFFFFFFFFFFFFFFFFFFFFFFFFFFFFFFFFFFFFFFF
310
FFFFFFFFFFFFFFFFFFFFFFFFFFFFFFFFFFFFFFFFFFFFFFFFFFFFFFFFFFFFFFFF
310
FFFFFFFFFFFFFFFFFFFFFFFFFFFFFFFFFFFFFFFFFFFFFFFFFFFFFFFFFFFFFFFF
310
F000FFFFFFFFFFFFFFFFFFFFFFFFFFFFFFFFFFFFFFFFFFFFFFFFFFFFFFFFFFFF
310
FFFFFFFFFFFFFFFFFFFFFFFFFFFFFFFFFFFFFFFFFFFFFFFFFFFFFFFFFFFFFFFF
310
FFFFFFFFFFFFFFFFFFFFFFFFFFFFFFFFFFFFFFFFFFFFFFFFF000FFFFFFFFFFFF
310
FFFFFFFFFFFFFFFFFFFFFFFFFFFFFFFFFFFFFFFFFFFFFFFFFFFFFFFFFFFFFFFF
310
FFFFFFFFFFFFFFFFFFFFFFFFFFFFFFFFFFFFFFFFFFFFFFFFFFFFFFFFFFFFFFFF
310
FFFFFFFFFFFFFFFFFFFFFFFFFFFFFFFFF000FFFFFFFFFFFFFFFFFFFFFFFFFFFF
310
FFFFFFFFFFFFFFFFFFFFFFFFFFFFFFFFFFFFFFFFFFFFFFFFFFFFFFFFFFFFFFFF
310
FFFFFFFFFFFFFFFFFFFFFFFFFFFFFFFFFFFFFFFFFFFFFFFFFFFFFFFFFFFFFFFF
310
FFFFFFFFFFFFFFFFF000FFFFFFFFFFFFFFFFFFFFFFFFFFFFFFFFFFFFFFFFFFFF
310
FFFFFFFFFFFFFFFFFFFFFFFFFFFFFFFFFFFFFFFFFFFFFFFFFFFFFFFFFFFFFFFF
310
FFFFFFFFFFFFFFFFFFFFFFFFFFFFFFFFFFFFFFFFFFFFFFFFFFFFFFFFFFFFFFFF
310
F000FFFFFFFFFFFFFFFFFFFFFFFFFFFFFFFFFFFFFFFFFFFFFFFFFFFFFFFFFFFF
310
FFFFFFFFFFFFFFFFFFFFFFFFFFFFFFFFFFFFFFFFFFFFFFFFFFFFFFFFFFFFFFFF
310
FFFFFFFFFFFFFFFFFFFFFFFFFFFFFFFFFFFFFFFFFFFFFFFFF000FFFFFFFFFFFF
310
FFFFFFFFFFFFFFFFFFFFFFFFFFFFFFFFFFFFFFFFFFFFFFFFFFFFFFFFFFFFFFFF
310
FFFFFFFFFFFFFFFFFFFFFFFFFFFFFFFFFFFFFFFFFFFFFFFFFFFFFFFFFFFFFFFF
310
FFFFFFFFFFFFFFFFFFFFFFFFFFFFFFFFF000FFFFFFFFFFFFFFFFFFFFFFFFFFFF
310
FFFFFFFFFFFFFFFFFFFFFFFFFFFFFFFFFFFFFFFFFFFFFFFFFFFFFFFFFFFFFFFF
310
FFFFFFFFFFFFFFFFFFFFFFFFFFFFFFFFFFFFFFFFFFFFFFFFFFFFFFFFFFFFFFFF
310
FFFFFFFFFFFFFFFFF000FFFFFFFFFFFFFFFFFFFFFFFFFFFFFFFFFFFFFFFFFFFF
310
FFFFFFFFFFFFFFFFFFFFFFFFFFFFFFFFFFFFFFFFFFFFFFFFFFFFFFFFFFFFFFFF
310
FFFFFFFFFFFFFFFFFFFFFFFFFFFFFFFFFFFFFFFFFFFFFFFFFFFFFFFFFFFFFFFF
310
F000FFFFFFFFFFFFFFFFFFFFFFFFFFFFFFFFFFFFFFFFFFFFFFFFFFFFFFFFFFFF
310
FFFFFFFFFFFFFFFFFFFFFFFFFFFFFFFFFFFFFFFFFFFFFFFFFFFFFFFFFFFFFFFF
310
FFFFFFFFFFFFFFFFFFFFFFFFFFFFFFFFFFFFFFFFFFFFFFFFF000FFFFFFFFFFFF
310
FFFFFFFFFFFFFFFFFFFFFFFFFFFFFFFFFFFFFFFFFFFFFFFFFFFFFFFFFFFFFFFF
310
FFFFFFFFFFFFFFFFFFFFFFFFFFFFFFFFFFFFFFFFFFFFFFFFFFFFFFFFFFFFFFFF
310
FFFFFFFFFFFFFFFFFFFFFFFFFFFFFFFFF0000000000000000000000000000000
310
0000000000000000000000000000000000000000000000000000000000000000
310
0000000000000000000000000000000000000000000000000000000000000000
310
0000000000000000000000000000000000000000000000000000000000000000
310
0000000000000000000000000000000000000000000000000000000000000000
310
0000000000000000000000000000000000000000000000000000000000000000
310
0000000000000000000000000000000000000000000000000000000000000000
310
0000000000000000000000000000000000000000000000000000000000000000
310
0000000000000000000000000000000000000000000000000000000000000000
310
0000000000000000000000000000000000000000000000000000000000000000
310
0000000000000000000000000000000000000000000000000000000000000000
310
0000000000000000000000000000000000000000000000000000000000000000
310
0000000000000000000000000000000000000000000000000000000000000000
310
0000000000000000000000000000000000000000000000000000000000000000
310
0000000000000000000000000000000000000000000000000000000000000000
310
0000000000000000000000000000000000000000000000000000000000000000
  1
OLE
  0
ENDSEC
  0
SECTION
  2
OBJECTS
  0
DICTIONARY
  5
C
330
0
100
AcDbDictionary
281
     1
  3
ACAD_GROUP
350
D
  3
ACAD_LAYOUT
350
1A
  3
ACAD_MLINESTYLE
350
17
  3
ACAD_PLOTSETTINGS
350
19
  3
ACAD_PLOTSTYLENAME
350
E
  3
ACAD_SCALELIST
350
47
  0
DICTIONARY
  5
D
102
{ACAD_REACTORS
330
C
102
}
330
C
100
AcDbDictionary
281
     1
  0
DICTIONARY
  5
1A
102
{ACAD_REACTORS
330
C
102
}
330
C
100
AcDbDictionary
281
     1
  3
Layout1
350
1E
  3
Layout2
350
26
  3
Model
350
22
  0
DICTIONARY
  5
17
102
{ACAD_REACTORS
330
C
102
}
330
C
100
AcDbDictionary
281
     1
  3
Standard
350
18
  0
DICTIONARY
  5
19
102
{ACAD_REACTORS
330
C
102
}
330
C
100
AcDbDictionary
281
     1
  0
ACDBDICTIONARYWDFLT
  5
E
102
{ACAD_REACTORS
330
C
102
}
330
C
100
AcDbDictionary
281
     1
  3
Normal
350
F
100
AcDbDictionaryWithDefault
340
F
  0
DICTIONARY
  5
47
102
{ACAD_REACTORS
330
C
102
}
330
C
100
AcDbDictionary
281
     1
  3
A0
350
48
  3
A1
350
49
  3
A2
350
4A
  3
A3
350
4B
  3
A4
350
4C
  3
A5
350
4D
  3
A6
350
4E
  3
A7
350
4F
  3
A8
350
50
  3
A9
350
51
  3
B0
350
52
  3
B1
350
53
  3
B2
350
54
  3
B3
350
55
  3
B4
350
56
  3
B5
350
57
  3
B6
350
58
  3
B7
350
59
  3
B8
350
5A
  3
B9
350
5B
  3
C0
350
5C
  3
C1
350
5D
  3
C2
350
5E
  3
C3
350
5F
  3
C4
350
60
  3
C5
350
61
  3
C6
350
62
  3
C7
350
63
  3
C8
350
64
  3
C9
350
65
  3
D0
350
66
  3
D1
350
67
  3
D2
350
68
  0
LAYOUT
  5
1E
102
{ACAD_REACTORS
330
1A
102
}
330
1A
100
AcDbPlotSettings
  1

  2
none_device
  4

  6

 40
0.0
 41
0.0
 42
0.0
 43
0.0
 44
0.0
 45
0.0
 46
0.0
 47
0.0
 48
0.0
 49
0.0
140
0.0
141
0.0
142
1.0
143
1.0
 70
   688
 72
     1
 73
     0
 74
     5
  7

 75
    16
147
1.0
148
0.0
149
0.0
100
AcDbLayout
  1
Layout1
 70
     1
 71
     1
 10
0.0
 20
0.0
 11
420.0
 21
297.0
 12
0.0
 22
0.0
 32
0.0
 14
1.0000000000E+20
 24
1.0000000000E+20
 34
1.0000000000E+20
 15
-1.0000000000E+20
 25
-1.0000000000E+20
 35
-1.0000000000E+20
146
0.0
 13
0.0
 23
0.0
 33
0.0
 16
1.0
 26
0.0
 36
0.0
 17
0.0
 27
1.0
 37
0.0
 76
     0
330
1B
  0
LAYOUT
  5
26
102
{ACAD_REACTORS
330
1A
102
}
330
1A
100
AcDbPlotSettings
  1

  2
none_device
  4

  6

 40
0.0
 41
0.0
 42
0.0
 43
0.0
 44
0.0
 45
0.0
 46
0.0
 47
0.0
 48
0.0
 49
0.0
140
0.0
141
0.0
142
1.0
143
1.0
 70
   688
 72
     1
 73
     0
 74
     5
  7

 75
    16
147
1.0
148
0.0
149
0.0
100
AcDbLayout
  1
Layout2
 70
     1
 71
     2
 10
0.0
 20
0.0
 11
0.0
 21
0.0
 12
0.0
 22
0.0
 32
0.0
 14
0.0
 24
0.0
 34
0.0
 15
0.0
 25
0.0
 35
0.0
146
0.0
 13
0.0
 23
0.0
 33
0.0
 16
1.0
 26
0.0
 36
0.0
 17
0.0
 27
1.0
 37
0.0
 76
     0
330
23
  0
LAYOUT
  5
22
102
{ACAD_REACTORS
330
1A
102
}
330
1A
100
AcDbPlotSettings
  1

  2
none_device
  4
Letter_(8.50_x_11.00_Inches)
  6

 40
6.35
 41
6.35
 42
6.35000508
 43
6.35000508
 44
215.9
 45
279.4
 46
0.0
 47
0.0
 48
0.0
 49
0.0
140
0.0
141
0.0
142
1.0
143
1.0
 70
  1712
 72
     1
 73
     0
 74
     0
  7

 75
     0
147
1.0
148
0.0
149
0.0
100
AcDbLayout
  1
Model
 70
     1
 71
     0
 10
0.0
 20
0.0
 11
297.0
 21
210.0
 12
0.0
 22
0.0
 32
0.0
 14
0.0
 24
0.0
 34
0.0
 15
297.0
 25
210.0
 35
0.0
146
0.0
 13
0.0
 23
0.0
 33
0.0
 16
1.0
 26
0.0
 36
0.0
 17
0.0
 27
1.0
 37
0.0
 76
     0
330
1F
331
29
  0
MLINESTYLE
  5
18
102
{ACAD_REACTORS
330
17
102
}
330
17
100
AcDbMlineStyle
  2
Standard
 70
     0
  3

 62
   256
 51
90.0
 52
90.0
 71
     2
 49
0.5
 62
   256
  6
BYLAYER
 49
-0.5
 62
   256
  6
BYLAYER
  0
ACDBPLACEHOLDER
  5
F
102
{ACAD_REACTORS
330
E
102
}
330
E
  0
SCALE
  5
48
102
{ACAD_REACTORS
330
47
102
}
330
47
100
AcDbScale
 70
     0
300
1:1
140
1.0
141
1.0
290
     1
  0
SCALE
  5
49
102
{ACAD_REACTORS
330
47
102
}
330
47
100
AcDbScale
 70
     0
300
1:2
140
1.0
141
2.0
290
     0
  0
SCALE
  5
4A
102
{ACAD_REACTORS
330
47
102
}
330
47
100
AcDbScale
 70
     0
300
1:4
140
1.0
141
4.0
290
     0
  0
SCALE
  5
4B
102
{ACAD_REACTORS
330
47
102
}
330
47
100
AcDbScale
 70
     0
300
1:5
140
1.0
141
5.0
290
     0
  0
SCALE
  5
4C
102
{ACAD_REACTORS
330
47
102
}
330
47
100
AcDbScale
 70
     0
300
1:8
140
1.0
141
8.0
290
     0
  0
SCALE
  5
4D
102
{ACAD_REACTORS
330
47
102
}
330
47
100
AcDbScale
 70
     0
300
1:10
140
1.0
141
10.0
290
     0
  0
SCALE
  5
4E
102
{ACAD_REACTORS
330
47
102
}
330
47
100
AcDbScale
 70
     0
300
1:16
140
1.0
141
16.0
290
     0
  0
SCALE
  5
4F
102
{ACAD_REACTORS
330
47
102
}
330
47
100
AcDbScale
 70
     0
300
1:20
140
1.0
141
20.0
290
     0
  0
SCALE
  5
50
102
{ACAD_REACTORS
330
47
102
}
330
47
100
AcDbScale
 70
     0
300
1:30
140
1.0
141
30.0
290
     0
  0
SCALE
  5
51
102
{ACAD_REACTORS
330
47
102
}
330
47
100
AcDbScale
 70
     0
300
1:40
140
1.0
141
40.0
290
     0
  0
SCALE
  5
52
102
{ACAD_REACTORS
330
47
102
}
330
47
100
AcDbScale
 70
     0
300
1:50
140
1.0
141
50.0
290
     0
  0
SCALE
  5
53
102
{ACAD_REACTORS
330
47
102
}
330
47
100
AcDbScale
 70
     0
300
1:100
140
1.0
141
100.0
290
     0
  0
SCALE
  5
54
102
{ACAD_REACTORS
330
47
102
}
330
47
100
AcDbScale
 70
     0
300
2:1
140
2.0
141
1.0
290
     0
  0
SCALE
  5
55
102
{ACAD_REACTORS
330
47
102
}
330
47
100
AcDbScale
 70
     0
300
4:1
140
4.0
141
1.0
290
     0
  0
SCALE
  5
56
102
{ACAD_REACTORS
330
47
102
}
330
47
100
AcDbScale
 70
     0
300
8:1
140
8.0
141
1.0
290
     0
  0
SCALE
  5
57
102
{ACAD_REACTORS
330
47
102
}
330
47
100
AcDbScale
 70
     0
300
10:1
140
10.0
141
1.0
290
     0
  0
SCALE
  5
58
102
{ACAD_REACTORS
330
47
102
}
330
47
100
AcDbScale
 70
     0
300
100:1
140
100.0
141
1.0
290
     0
  0
SCALE
  5
59
102
{ACAD_REACTORS
330
47
102
}
330
47
100
AcDbScale
 70
     0
300
1/128" = 1'-0"
140
0.0078125
141
12.0
290
     0
  0
SCALE
  5
5A
102
{ACAD_REACTORS
330
47
102
}
330
47
100
AcDbScale
 70
     0
300
1/64" = 1'-0"
140
0.015625
141
12.0
290
     0
  0
SCALE
  5
5B
102
{ACAD_REACTORS
330
47
102
}
330
47
100
AcDbScale
 70
     0
300
1/32" = 1'-0"
140
0.03125
141
12.0
290
     0
  0
SCALE
  5
5C
102
{ACAD_REACTORS
330
47
102
}
330
47
100
AcDbScale
 70
     0
300
1/16" = 1'-0"
140
0.0625
141
12.0
290
     0
  0
SCALE
  5
5D
102
{ACAD_REACTORS
330
47
102
}
330
47
100
AcDbScale
 70
     0
300
3/32" = 1'-0"
140
0.09375
141
12.0
290
     0
  0
SCALE
  5
5E
102
{ACAD_REACTORS
330
47
102
}
330
47
100
AcDbScale
 70
     0
300
1/8" = 1'-0"
140
0.125
141
12.0
290
     0
  0
SCALE
  5
5F
102
{ACAD_REACTORS
330
47
102
}
330
47
100
AcDbScale
 70
     0
300
3/16" = 1'-0"
140
0.1875
141
12.0
290
     0
  0
SCALE
  5
60
102
{ACAD_REACTORS
330
47
102
}
330
47
100
AcDbScale
 70
     0
300
1/4" = 1'-0"
140
0.25
141
12.0
290
     0
  0
SCALE
  5
61
102
{ACAD_REACTORS
330
47
102
}
330
47
100
AcDbScale
 70
     0
300
3/8" = 1'-0"
140
0.375
141
12.0
290
     0
  0
SCALE
  5
62
102
{ACAD_REACTORS
330
47
102
}
330
47
100
AcDbScale
 70
     0
300
1/2" = 1'-0"
140
0.5
141
12.0
290
     0
  0
SCALE
  5
63
102
{ACAD_REACTORS
330
47
102
}
330
47
100
AcDbScale
 70
     0
300
3/4" = 1'-0"
140
0.75
141
12.0
290
     0
  0
SCALE
  5
64
102
{ACAD_REACTORS
330
47
102
}
330
47
100
AcDbScale
 70
     0
300
1" = 1'-0"
140
1.0
141
12.0
290
     0
  0
SCALE
  5
65
102
{ACAD_REACTORS
330
47
102
}
330
47
100
AcDbScale
 70
     0
300
1-1/2" = 1'-0"
140
1.5
141
12.0
290
     0
  0
SCALE
  5
66
102
{ACAD_REACTORS
330
47
102
}
330
47
100
AcDbScale
 70
     0
300
3" = 1'-0"
140
3.0
141
12.0
290
     0
  0
SCALE
  5
67
102
{ACAD_REACTORS
330
47
102
}
330
47
100
AcDbScale
 70
     0
300
6" = 1'-0"
140
6.0
141
12.0
290
     0
  0
SCALE
  5
68
102
{ACAD_REACTORS
330
47
102
}
330
47
100
AcDbScale
 70
     0
300
1'-0" = 1'-0"
140
12.0
141
12.0
290
     0
  0
ENDSEC
  0
EOF
