  0
SECTION
  2
HEADER
  9
$ACADVER
  1
AC1015
  9
$ACADMAINTVER
 70
     6
  9
$DWGCODEPAGE
  3
ANSI_1252
  9
$INSBASE
 10
0.0
 20
0.0
 30
0.0
  9
$EXTMIN
 10
0.0
 20
0.0
 30
0.0
  9
$EXTMAX
 10
297.0
 20
210.0
 30
0.0
  9
$LIMMIN
 10
0.0
 20
0.0
  9
$LIMMAX
 10
297.0
 20
210.0
  9
$ORTHOMODE
 70
     0
  9
$REGENMODE
 70
     1
  9
$FILLMODE
 70
     1
  9
$QTEXTMODE
 70
     0
  9
$MIRRTEXT
 70
     1
  9
$LTSCALE
 40
1.0
  9
$ATTMODE
 70
     1
  9
$TEXTSIZE
 40
2.0
  9
$TRACEWID
 40
1.0
  9
$TEXTSTYLE
  7
Standard
  9
$CLAYER
  8
0
  9
$CELTYPE
  6
ByLayer
  9
$CECOLOR
 62
   256
  9
$CELTSCALE
 40
1.0
  9
$DISPSILH
 70
     0
  9
$DIMSCALE
 40
1.0
  9
$DIMASZ
 40
3.0
  9
$DIMEXO
 40
0.0
  9
$DIMDLI
 40
3.75
  9
$DIMRND
 40
0.0
  9
$DIMDLE
 40
0.0
  9
$DIMEXE
 40
1.0
  9
$DIMTP
 40
0.0
  9
$DIMTM
 40
0.0
  9
$DIMTXT
 40
2.0
  9
$DIMCEN
 40
2.5
  9
$DIMTSZ
 40
0.0
  9
$DIMTOL
 70
     0
  9
$DIMLIM
 70
     0
  9
$DIMTIH
 70
     1
  9
$DIMTOH
 70
     1
  9
$DIMSE1
 70
     0
  9
$DIMSE2
 70
     0
  9
$DIMTAD
 70
     1
  9
$DIMZIN
 70
     0
  9
$DIMBLK
  1

  9
$DIMASO
 70
     1
  9
$DIMSHO
 70
     1
  9
$DIMPOST
  1

  9
$DIMAPOST
  1

  9
$DIMALT
 70
     0
  9
$DIMALTD
 70
     3
  9
$DIMALTF
 40
0.0393700787
  9
$DIMLFAC
 40
2.0
  9
$DIMTOFL
 70
     1
  9
$DIMTVP
 40
0.0
  9
$DIMTIX
 70
     0
  9
$DIMSOXD
 70
     0
  9
$DIMSAH
 70
     0
  9
$DIMBLK1
  1

  9
$DIMBLK2
  1

  9
$DIMSTYLE
  2
ISO-25
  9
$DIMCLRD
 70
     0
  9
$DIMCLRE
 70
     0
  9
$DIMCLRT
 70
     0
  9
$DIMTFAC
 40
1.0
  9
$DIMGAP
 40
1.524
  9
$DIMJUST
 70
     0
  9
$DIMSD1
 70
     0
  9
$DIMSD2
 70
     0
  9
$DIMTOLJ
 70
     0
  9
$DIMTZIN
 70
     0
  9
$DIMALTZ
 70
     0
  9
$DIMALTTZ
 70
     0
  9
$DIMUPT
 70
     0
  9
$DIMDEC
 70
     2
  9
$DIMTDEC
 70
     3
  9
$DIMALTU
 70
     2
  9
$DIMALTTD
 70
     3
  9
$DIMTXSTY
  7
Standard
  9
$DIMAUNIT
 70
     0
  9
$DIMADEC
 70
     2
  9
$DIMALTRND
 40
0.0
  9
$DIMAZIN
 70
     0
  9
$DIMDSEP
 70
    44
  9
$DIMATFIT
 70
     3
  9
$DIMFRAC
 70
     0
  9
$DIMLDRBLK
  1

  9
$DIMLUNIT
 70
     2
  9
$DIMLWD
 70
    -2
  9
$DIMLWE
 70
    -2
  9
$DIMTMOVE
 70
     0
  9
$LUNITS
 70
     2
  9
$LUPREC
 70
     2
  9
$SKETCHINC
 40
1.0
  9
$FILLETRAD
 40
10.0
  9
$AUNITS
 70
     0
  9
$AUPREC
 70
     2
  9
$MENU
  1
.
  9
$ELEVATION
 40
0.0
  9
$PELEVATION
 40
0.0
  9
$THICKNESS
 40
0.0
  9
$LIMCHECK
 70
     0
  9
$CHAMFERA
 40
0.0
  9
$CHAMFERB
 40
0.0
  9
$CHAMFERC
 40
0.0
  9
$CHAMFERD
 40
0.0
  9
$SKPOLY
 70
     0
  9
$TDCREATE
 40
2457675.396894167
  9
$TDUCREATE
 40
2457675.313560833
  9
$TDUPDATE
 40
2457675.396895625
  9
$TDUUPDATE
 40
2457675.313562292
  9
$TDINDWG
 40
0.0000000116
  9
$TDUSRTIMER
 40
0.0000000116
  9
$USRTIMER
 70
     1
  9
$ANGBASE
 50
0.0
  9
$ANGDIR
 70
     0
  9
$PDMODE
 70
     0
  9
$PDSIZE
 40
-1.0
  9
$PLINEWID
 40
0.0
  9
$SPLFRAME
 70
     0
  9
$SPLINETYPE
 70
     6
  9
$SPLINESEGS
 70
     8
  9
$HANDSEED
  5
248
  9
$SURFTAB1
 70
     6
  9
$SURFTAB2
 70
     6
  9
$SURFTYPE
 70
     6
  9
$SURFU
 70
     6
  9
$SURFV
 70
     6
  9
$UCSBASE
  2

  9
$UCSNAME
  2

  9
$UCSORG
 10
0.0
 20
0.0
 30
0.0
  9
$UCSXDIR
 10
1.0
 20
0.0
 30
0.0
  9
$UCSYDIR
 10
0.0
 20
1.0
 30
0.0
  9
$UCSORTHOREF
  2

  9
$UCSORTHOVIEW
 70
     0
  9
$UCSORGTOP
 10
0.0
 20
0.0
 30
0.0
  9
$UCSORGBOTTOM
 10
0.0
 20
0.0
 30
0.0
  9
$UCSORGLEFT
 10
0.0
 20
0.0
 30
0.0
  9
$UCSORGRIGHT
 10
0.0
 20
0.0
 30
0.0
  9
$UCSORGFRONT
 10
0.0
 20
0.0
 30
0.0
  9
$UCSORGBACK
 10
0.0
 20
0.0
 30
0.0
  9
$PUCSBASE
  2

  9
$PUCSNAME
  2

  9
$PUCSORG
 10
0.0
 20
0.0
 30
0.0
  9
$PUCSXDIR
 10
1.0
 20
0.0
 30
0.0
  9
$PUCSYDIR
 10
0.0
 20
1.0
 30
0.0
  9
$PUCSORTHOREF
  2

  9
$PUCSORTHOVIEW
 70
     0
  9
$PUCSORGTOP
 10
0.0
 20
0.0
 30
0.0
  9
$PUCSORGBOTTOM
 10
0.0
 20
0.0
 30
0.0
  9
$PUCSORGLEFT
 10
0.0
 20
0.0
 30
0.0
  9
$PUCSORGRIGHT
 10
0.0
 20
0.0
 30
0.0
  9
$PUCSORGFRONT
 10
0.0
 20
0.0
 30
0.0
  9
$PUCSORGBACK
 10
0.0
 20
0.0
 30
0.0
  9
$USERI1
 70
     0
  9
$USERI2
 70
     0
  9
$USERI3
 70
     0
  9
$USERI4
 70
     0
  9
$USERI5
 70
     0
  9
$USERR1
 40
0.0
  9
$USERR2
 40
0.0
  9
$USERR3
 40
0.0
  9
$USERR4
 40
0.0
  9
$USERR5
 40
0.0
  9
$WORLDVIEW
 70
     1
  9
$SHADEDGE
 70
     3
  9
$SHADEDIF
 70
    70
  9
$TILEMODE
 70
     1
  9
$MAXACTVP
 70
    64
  9
$PINSBASE
 10
0.0
 20
0.0
 30
0.0
  9
$PLIMCHECK
 70
     0
  9
$PEXTMIN
 10
1.0000000000E+20
 20
1.0000000000E+20
 30
1.0000000000E+20
  9
$PEXTMAX
 10
-1.0000000000E+20
 20
-1.0000000000E+20
 30
-1.0000000000E+20
  9
$PLIMMIN
 10
0.0
 20
0.0
  9
$PLIMMAX
 10
420.0
 20
297.0
  9
$UNITMODE
 70
     0
  9
$VISRETAIN
 70
     1
  9
$PLINEGEN
 70
     0
  9
$PSLTSCALE
 70
     1
  9
$TREEDEPTH
 70
  3020
  9
$CMLSTYLE
  2
Standard
  9
$CMLJUST
 70
     0
  9
$CMLSCALE
 40
20.0
  9
$PROXYGRAPHICS
 70
     1
  9
$MEASUREMENT
 70
     1
  9
$CELWEIGHT
370
    -1
  9
$ENDCAPS
280
     0
  9
$JOINSTYLE
280
     0
  9
$LWDISPLAY
290
     1
  9
$INSUNITS
 70
     4
  9
$HYPERLINKBASE
  1

  9
$STYLESHEET
  1

  9
$XEDIT
290
     1
  9
$CEPSNTYPE
380
     0
  9
$PSTYLEMODE
290
     1
  9
$FINGERPRINTGUID
  2
{F788E146-10F1-4E63-8AC5-CAAF7C2DE162}
  9
$VERSIONGUID
  2
{FAEB1C32-E019-11D5-929B-00C0DF256EC4}
  9
$EXTNAMES
290
     1
  9
$PSVPSCALE
 40
0.0
  9
$OLESTARTUP
290
     0
  0
ENDSEC
  0
SECTION
  2
CLASSES
  0
CLASS
  1
ACDBDICTIONARYWDFLT
  2
AcDbDictionaryWithDefault
  3
ObjectDBX Classes
 90
        0
280
     0
281
     0
  0
CLASS
  1
VISUALSTYLE
  2
AcDbVisualStyle
  3
ObjectDBX Classes
 90
     4095
280
     0
281
     0
  0
CLASS
  1
MATERIAL
  2
AcDbMaterial
  3
ObjectDBX Classes
 90
     1153
280
     0
281
     0
  0
CLASS
  1
SCALE
  2
AcDbScale
  3
ObjectDBX Classes
 90
     1153
280
     0
281
     0
  0
CLASS
  1
TABLESTYLE
  2
AcDbTableStyle
  3
ObjectDBX Classes
 90
     4095
280
     0
281
     0
  0
CLASS
  1
MLEADERSTYLE
  2
AcDbMLeaderStyle
  3
ACDB_MLEADERSTYLE_CLASS
 90
     4095
280
     0
281
     0
  0
CLASS
  1
SUN
  2
AcDbSun
  3
SCENEOE
 90
     1153
280
     0
281
     0
  0
CLASS
  1
ACDBPLACEHOLDER
  2
AcDbPlaceHolder
  3
ObjectDBX Classes
 90
        0
280
     0
281
     0
  0
CLASS
  1
LAYOUT
  2
AcDbLayout
  3
ObjectDBX Classes
 90
        0
280
     0
281
     0
  0
ENDSEC
  0
SECTION
  2
TABLES
  0
TABLE
  2
VPORT
  5
8
330
0
100
AcDbSymbolTable
 70
     1
  0
VPORT
  5
29
330
8
100
AcDbSymbolTableRecord
100
AcDbViewportTableRecord
  2
*Active
 70
     0
 10
0.0
 20
0.0
 11
1.0
 21
1.0
 12
148.5
 22
105.0
 13
0.0
 23
0.0
 14
10.0
 24
10.0
 15
10.0
 25
10.0
 16
0.0
 26
0.0
 36
1.0
 17
0.0
 27
0.0
 37
0.0
 40
210.0
 41
1.4142857143
 42
50.0
 43
0.0
 44
0.0
 50
0.0
 51
0.0
 71
     0
 72
  2000
 73
     1
 74
     3
 75
     0
 76
     0
 77
     0
 78
     0
281
     0
 65
     1
110
0.0
120
0.0
130
0.0
111
1.0
121
0.0
131
0.0
112
0.0
122
1.0
132
0.0
 79
     0
146
0.0
  0
ENDTAB
  0
TABLE
  2
LTYPE
  5
5
330
0
100
AcDbSymbolTable
 70
     6
  0
LTYPE
  5
14
330
5
100
AcDbSymbolTableRecord
100
AcDbLinetypeTableRecord
  2
ByBlock
 70
     0
  3

 72
    65
 73
     0
 40
0.0
  0
LTYPE
  5
15
330
5
100
AcDbSymbolTableRecord
100
AcDbLinetypeTableRecord
  2
ByLayer
 70
     0
  3

 72
    65
 73
     0
 40
0.0
  0
LTYPE
  5
16
330
5
100
AcDbSymbolTableRecord
100
AcDbLinetypeTableRecord
  2
Continuous
 70
     0
  3
Solid line
 72
    65
 73
     0
 40
0.0
  0
LTYPE
  5
6E
330
5
100
AcDbSymbolTableRecord
100
AcDbLinetypeTableRecord
  2
HIDDEN
 70
     0
  3
Hidden __ __ __ __ __ __ __ __ __ __ __ __ __ __
 72
    65
 73
     2
 40
1.905
 49
1.27
 74
     0
 49
-0.635
 74
     0
  0
LTYPE
  5
6F
330
5
100
AcDbSymbolTableRecord
100
AcDbLinetypeTableRecord
  2
PHANTOM
 70
     0
  3
Phantom ______  __  __  ______  __  __  ______
 72
    65
 73
     6
 40
12.7
 49
6.35
 74
     0
 49
-1.27
 74
     0
 49
1.27
 74
     0
 49
-1.27
 74
     0
 49
1.27
 74
     0
 49
-1.27
 74
     0
  0
LTYPE
  5
70
330
5
100
AcDbSymbolTableRecord
100
AcDbLinetypeTableRecord
  2
CENTER
 70
     0
  3
Center ____ _ ____ _ ____ _ ____ _ ____ _ ____
 72
    65
 73
     4
 40
10.16
 49
6.35
 74
     0
 49
-1.27
 74
     0
 49
1.27
 74
     0
 49
-1.27
 74
     0
  0
LTYPE
  5
71
330
5
100
AcDbSymbolTableRecord
100
AcDbLinetypeTableRecord
  2
CENTERX2
 70
     0
  3
Center (2x) ________  __  ________  __  _____
 72
    65
 73
     4
 40
20.32
 49
12.7
 74
     0
 49
-2.54
 74
     0
 49
2.54
 74
     0
 49
-2.54
 74
     0
  0
LTYPE
  5
72
330
5
100
AcDbSymbolTableRecord
100
AcDbLinetypeTableRecord
  2
DOT2
 70
     0
  3
Dot (.5x) ........................................
 72
    65
 73
     2
 40
0.635
 49
0.0
 74
     0
 49
-0.635
 74
     0
  0
ENDTAB
  0
TABLE
  2
LAYER
  5
2
330
0
100
AcDbSymbolTable
 70
     5
  0
LAYER
  5
10
330
2
100
AcDbSymbolTableRecord
100
AcDbLayerTableRecord
  2
0
 70
     0
 62
     7
  6
Continuous
370
    -3
390
F
  0
LAYER
  5
73
330
2
100
AcDbSymbolTableRecord
100
AcDbLayerTableRecord
  2
FORMAT
 70
     0
 62
     7
  6
Continuous
370
    -3
390
F
  0
LAYER
  5
74
330
2
100
AcDbSymbolTableRecord
100
AcDbLayerTableRecord
  2
VERMASSUNG
 70
     0
 62
     7
  6
Continuous
370
    -3
390
F
  0
LAYER
  5
75
330
2
100
AcDbSymbolTableRecord
100
AcDbLayerTableRecord
  2
KOPF_DÜNN
 70
     0
 62
     7
  6
Continuous
370
    -3
390
F
  0
LAYER
  5
76
330
2
100
AcDbSymbolTableRecord
100
AcDbLayerTableRecord
  2
KOPF_DICK
 70
     0
 62
     7
  6
Continuous
370
    15
390
F
  0
ENDTAB
  0
TABLE
  2
STYLE
  5
3
330
0
100
AcDbSymbolTable
 70
     2
  0
STYLE
  5
11
330
3
100
AcDbSymbolTableRecord
100
AcDbTextStyleTableRecord
  2
Standard
 70
     0
 40
0.0
 41
1.0
 50
0.0
 71
     0
 42
2.0
  3
txt
  4

  0
STYLE
  5
77
330
3
100
AcDbSymbolTableRecord
100
AcDbTextStyleTableRecord
  2
SLDTEXTSTYLE0
 70
     0
 40
0.0
 41
0.7
 50
0.0
 71
     0
 42
2.0
  3
TXT
  4

  0
ENDTAB
  0
TABLE
  2
VIEW
  5
6
330
0
100
AcDbSymbolTable
 70
     0
  0
ENDTAB
  0
TABLE
  2
UCS
  5
7
330
0
100
AcDbSymbolTable
 70
     0
  0
ENDTAB
  0
TABLE
  2
APPID
  5
9
330
0
100
AcDbSymbolTable
 70
     1
  0
APPID
  5
12
330
9
100
AcDbSymbolTableRecord
100
AcDbRegAppTableRecord
  2
ACAD
 70
     0
  0
ENDTAB
  0
TABLE
  2
DIMSTYLE
  5
A
330
0
100
AcDbSymbolTable
 70
     2
100
AcDbDimStyleTable
  0
DIMSTYLE
105
27
330
A
100
AcDbSymbolTableRecord
100
AcDbDimStyleTableRecord
  2
ISO-25
 70
     0
 41
2.5
 42
0.625
 43
3.75
 44
1.25
 73
     0
 74
     0
 77
     1
 78
     8
140
2.5
141
2.5
143
0.0393700787
147
0.625
171
     3
172
     1
178
     0
271
     2
272
     2
274
     3
278
    44
283
     0
284
     8
340
11
  0
DIMSTYLE
105
162
102
{ACAD_REACTORS
330
161
330
16E
330
17A
330
184
330
190
330
19B
102
}
330
A
100
AcDbSymbolTableRecord
100
AcDbDimStyleTableRecord
  2
SLDDIMSTYLE0
 70
     0
 41
3.0
 44
0.0
 45
0.000000001
 73
     0
 74
     0
 77
     1
 78
    12
 79
     3
140
2.0
147
0.5
173
     1
178
     0
271
     2
272
     3
276
     2
284
    12
340
77
  0
ENDTAB
  0
TABLE
  2
BLOCK_RECORD
  5
1
330
0
100
AcDbSymbolTable
 70
     7
  0
BLOCK_RECORD
  5
1F
330
1
100
AcDbSymbolTableRecord
100
AcDbBlockTableRecord
  2
*Model_Space
340
22
  0
BLOCK_RECORD
  5
1B
330
1
100
AcDbSymbolTableRecord
100
AcDbBlockTableRecord
  2
*Paper_Space
340
1E
  0
BLOCK_RECORD
  5
23
330
1
100
AcDbSymbolTableRecord
100
AcDbBlockTableRecord
  2
*Paper_Space0
340
26
  0
BLOCK_RECORD
  5
163
330
1
100
AcDbSymbolTableRecord
100
AcDbBlockTableRecord
  2
_D
340
0
  0
BLOCK_RECORD
  5
16F
330
1
100
AcDbSymbolTableRecord
100
AcDbBlockTableRecord
  2
_D_1
340
0
  0
BLOCK_RECORD
  5
17B
330
1
100
AcDbSymbolTableRecord
100
AcDbBlockTableRecord
  2
_D_2
340
0
  0
BLOCK_RECORD
  5
185
330
1
100
AcDbSymbolTableRecord
100
AcDbBlockTableRecord
  2
_D_3
340
0
  0
BLOCK_RECORD
  5
191
330
1
100
AcDbSymbolTableRecord
100
AcDbBlockTableRecord
  2
_D_4
340
0
  0
BLOCK_RECORD
  5
19C
330
1
100
AcDbSymbolTableRecord
100
AcDbBlockTableRecord
  2
_D_5
340
0
  0
ENDTAB
  0
ENDSEC
  0
SECTION
  2
BLOCKS
  0
BLOCK
  5
20
330
1F
100
AcDbEntity
  8
0
100
AcDbBlockBegin
  2
*Model_Space
 70
     0
 10
0.0
 20
0.0
 30
0.0
  3
*Model_Space
  1

  0
ENDBLK
  5
21
330
1F
100
AcDbEntity
  8
0
100
AcDbBlockEnd
  0
BLOCK
  5
1C
330
1B
100
AcDbEntity
 67
     1
  8
0
100
AcDbBlockBegin
  2
*Paper_Space
 70
     0
 10
0.0
 20
0.0
 30
0.0
  3
*Paper_Space
  1

  0
ENDBLK
  5
1D
330
1B
100
AcDbEntity
 67
     1
  8
0
100
AcDbBlockEnd
  0
BLOCK
  5
24
330
23
100
AcDbEntity
  8
0
100
AcDbBlockBegin
  2
*Paper_Space0
 70
     0
 10
0.0
 20
0.0
 30
0.0
  3
*Paper_Space0
  1

  0
ENDBLK
  5
25
330
23
100
AcDbEntity
  8
0
100
AcDbBlockEnd
  0
BLOCK
  5
164
330
163
100
AcDbEntity
  8
0
100
AcDbBlockBegin
  2
_D
 70
     0
 10
0.0
 20
0.0
 30
0.0
  3
_D
  1

  0
SOLID
  5
166
330
163
100
AcDbEntity
  8
VERMASSUNG
100
AcDbTrace
 10
71.12431422
 20
143.0586334354
 30
0.0
 11
70.67431422
 21
140.0586334354
 31
0.0
 12
71.57431422
 22
140.0586334354
 32
0.0
 13
71.57431422
 23
140.0586334354
 33
0.0
  0
SOLID
  5
167
330
163
100
AcDbEntity
  8
VERMASSUNG
100
AcDbTrace
 10
71.12431422
 20
80.0586334354
 30
0.0
 11
71.57431422
 21
83.0586334354
 31
0.0
 12
70.67431422
 22
83.0586334354
 32
0.0
 13
70.67431422
 23
83.0586334354
 33
0.0
  0
LINE
  5
168
330
163
100
AcDbEntity
  8
VERMASSUNG
100
AcDbLine
 10
109.3030615426
 20
143.0586334354
 30
0.0
 11
70.12431422
 21
143.0586334354
 31
0.0
  0
LINE
  5
169
330
163
100
AcDbEntity
  8
VERMASSUNG
100
AcDbLine
 10
109.3030615426
 20
80.0586334354
 30
0.0
 11
70.12431422
 21
80.0586334354
 31
0.0
  0
LINE
  5
16A
330
163
100
AcDbEntity
  8
VERMASSUNG
100
AcDbLine
 10
71.12431422
 20
143.0586334354
 30
0.0
 11
71.12431422
 21
80.0586334354
 31
0.0
  0
MTEXT
  5
16B
330
163
100
AcDbEntity
  8
VERMASSUNG
100
AcDbMText
 10
68.3461789638
 20
103.8536341376
 30
0.0
 40
2.0
 41
0.0
 71
     1
 72
     1
  1
HSK A
  7
SLDTEXTSTYLE0
 11
-7.044195017643634E-15
 21
1.0
 31
0.0
 73
     1
 44
1.0
  0
MTEXT
  5
16C
330
163
100
AcDbEntity
  8
VERMASSUNG
100
AcDbMText
 10
68.5461789151
 20
112.8536337502
 30
0.0
 40
2.0
 41
0.0
 71
     1
 72
     1
  1
%%c
  7
SLDTEXTSTYLE0
 11
-7.044195017643634E-15
 21
1.0
 31
0.0
 73
     1
 44
1.0
  0
MTEXT
  5
16D
330
163
100
AcDbEntity
  8
VERMASSUNG
100
AcDbMText
 10
68.3461789638
 20
116.4636337645
 30
0.0
 40
2.0
 41
0.0
 71
     1
 72
     1
  1
63
  7
SLDTEXTSTYLE0
 11
-7.044195017643634E-15
 21
1.0
 31
0.0
 73
     1
 44
1.0
  0
ENDBLK
  5
165
330
163
100
AcDbEntity
  8
0
100
AcDbBlockEnd
  0
BLOCK
  5
170
330
16F
100
AcDbEntity
  8
0
100
AcDbBlockBegin
  2
_D_1
 70
     0
 10
0.0
 20
0.0
 30
0.0
  3
_D_1
  1

  0
ARC
  5
172
330
16F
100
AcDbEntity
  8
VERMASSUNG
100
AcDbCircle
 10
185.1780616977
 20
149.7431310036
 30
0.0
 40
4.24852922888762
100
AcDbArc
 50
153.4349488229
 51
206.5650511771
  0
ARC
  5
173
330
16F
100
AcDbEntity
  8
VERMASSUNG
100
AcDbCircle
 10
184.7780614458
 20
149.7431310036
 30
0.0
 40
4.24852922888762
100
AcDbArc
 50
333.4349488229
 51
26.5650511771
  0
SOLID
  5
174
330
16F
100
AcDbEntity
  8
VERMASSUNG
100
AcDbTrace
 10
134.9530615426
 20
147.8431307388
 30
0.0
 11
137.9530615426
 21
147.3931307388
 31
0.0
 12
137.9530615426
 22
148.2931307388
 32
0.0
 13
137.9530615426
 23
148.2931307388
 33
0.0
  0
SOLID
  5
175
330
16F
100
AcDbEntity
  8
VERMASSUNG
100
AcDbTrace
 10
235.0030615426
 20
147.8431307388
 30
0.0
 11
232.0030615426
 21
148.2931307388
 31
0.0
 12
232.0030615426
 22
147.3931307388
 32
0.0
 13
232.0030615426
 23
147.3931307388
 33
0.0
  0
LINE
  5
176
330
16F
100
AcDbEntity
  8
VERMASSUNG
100
AcDbLine
 10
134.9530615426
 20
141.4050737592
 30
0.0
 11
134.9530615426
 21
148.8431307388
 31
0.0
  0
LINE
  5
177
330
16F
100
AcDbEntity
  8
VERMASSUNG
100
AcDbLine
 10
235.0030615426
 20
123.8586334354
 30
0.0
 11
235.0030615426
 21
148.8431307388
 31
0.0
  0
LINE
  5
178
330
16F
100
AcDbEntity
  8
VERMASSUNG
100
AcDbLine
 10
134.9530615426
 20
147.8431307388
 30
0.0
 11
235.0030615426
 21
147.8431307388
 31
0.0
  0
MTEXT
  5
179
330
16F
100
AcDbEntity
  8
VERMASSUNG
100
AcDbMText
 10
181.3780616336
 20
150.4212665675
 30
0.0
 40
2.0
 41
0.0
 71
     1
 72
     1
  1
100.05
  7
SLDTEXTSTYLE0
 73
     1
 44
1.0
  0
ENDBLK
  5
171
330
16F
100
AcDbEntity
  8
0
100
AcDbBlockEnd
  0
BLOCK
  5
17C
330
17B
100
AcDbEntity
  8
0
100
AcDbBlockBegin
  2
_D_2
 70
     0
 10
0.0
 20
0.0
 30
0.0
  3
_D_2
  1

  0
SOLID
  5
17E
330
17B
100
AcDbEntity
  8
VERMASSUNG
100
AcDbTrace
 10
109.0030615426
 20
153.8431307388
 30
0.0
 11
112.0030615426
 21
153.3931307388
 31
0.0
 12
112.0030615426
 22
154.2931307388
 32
0.0
 13
112.0030615426
 23
154.2931307388
 33
0.0
  0
SOLID
  5
17F
330
17B
100
AcDbEntity
  8
VERMASSUNG
100
AcDbTrace
 10
235.0030615426
 20
153.8431307388
 30
0.0
 11
232.0030615426
 21
154.2931307388
 31
0.0
 12
232.0030615426
 22
153.3931307388
 32
0.0
 13
232.0030615426
 23
153.3931307388
 33
0.0
  0
LINE
  5
180
330
17B
100
AcDbEntity
  8
VERMASSUNG
100
AcDbLine
 10
109.0030615426
 20
142.7586334354
 30
0.0
 11
109.0030615426
 21
154.8431307388
 31
0.0
  0
LINE
  5
181
330
17B
100
AcDbEntity
  8
VERMASSUNG
100
AcDbLine
 10
235.0030615426
 20
123.8586334354
 30
0.0
 11
235.0030615426
 21
154.8431307388
 31
0.0
  0
LINE
  5
182
330
17B
100
AcDbEntity
  8
VERMASSUNG
100
AcDbLine
 10
109.0030615426
 20
153.8431307388
 30
0.0
 11
235.0030615426
 21
153.8431307388
 31
0.0
  0
MTEXT
  5
183
330
17B
100
AcDbEntity
  8
VERMASSUNG
100
AcDbMText
 10
170.1030615106
 20
156.4212663347
 30
0.0
 40
2.0
 41
0.0
 71
     1
 72
     1
  1
126
  7
SLDTEXTSTYLE0
 73
     1
 44
1.0
  0
ENDBLK
  5
17D
330
17B
100
AcDbEntity
  8
0
100
AcDbBlockEnd
  0
BLOCK
  5
186
330
185
100
AcDbEntity
  8
0
100
AcDbBlockBegin
  2
_D_3
 70
     0
 10
0.0
 20
0.0
 30
0.0
  3
_D_3
  1

  0
ARC
  5
188
330
185
100
AcDbEntity
  8
VERMASSUNG
100
AcDbCircle
 10
156.9530616727
 20
161.7431310036
 30
0.0
 40
4.24852922888762
100
AcDbArc
 50
153.4349488229
 51
206.5650511771
  0
ARC
  5
189
330
185
100
AcDbEntity
  8
VERMASSUNG
100
AcDbCircle
 10
155.1530614708
 20
161.7431310036
 30
0.0
 40
4.24852922888762
100
AcDbArc
 50
333.4349488229
 51
26.5650511771
  0
SOLID
  5
18A
330
185
100
AcDbEntity
  8
VERMASSUNG
100
AcDbTrace
 10
77.1030615426
 20
159.8431307388
 30
0.0
 11
80.1030615426
 21
159.3931307388
 31
0.0
 12
80.1030615426
 22
160.2931307388
 32
0.0
 13
80.1030615426
 23
160.2931307388
 33
0.0
  0
SOLID
  5
18B
330
185
100
AcDbEntity
  8
VERMASSUNG
100
AcDbTrace
 10
235.0030615426
 20
159.8431307388
 30
0.0
 11
232.0030615426
 21
160.2931307388
 31
0.0
 12
232.0030615426
 22
159.3931307388
 32
0.0
 13
232.0030615426
 23
159.3931307388
 33
0.0
  0
LINE
  5
18C
330
185
100
AcDbEntity
  8
VERMASSUNG
100
AcDbLine
 10
77.1030615426
 20
131.2493111819
 30
0.0
 11
77.1030615426
 21
160.8431307388
 31
0.0
  0
LINE
  5
18D
330
185
100
AcDbEntity
  8
VERMASSUNG
100
AcDbLine
 10
235.0030615426
 20
123.8586334354
 30
0.0
 11
235.0030615426
 21
160.8431307388
 31
0.0
  0
LINE
  5
18E
330
185
100
AcDbEntity
  8
VERMASSUNG
100
AcDbLine
 10
77.1030615426
 20
159.8431307388
 30
0.0
 11
235.0030615426
 21
159.8431307388
 31
0.0
  0
MTEXT
  5
18F
330
185
100
AcDbEntity
  8
VERMASSUNG
100
AcDbMText
 10
153.1530616086
 20
162.4212665675
 30
0.0
 40
2.0
 41
0.0
 71
     1
 72
     1
  1
157.9
  7
SLDTEXTSTYLE0
 73
     1
 44
1.0
  0
ENDBLK
  5
187
330
185
100
AcDbEntity
  8
0
100
AcDbBlockEnd
  0
BLOCK
  5
192
330
191
100
AcDbEntity
  8
0
100
AcDbBlockBegin
  2
_D_4
 70
     0
 10
0.0
 20
0.0
 30
0.0
  3
_D_4
  1

  0
SOLID
  5
194
330
191
100
AcDbEntity
  8
VERMASSUNG
100
AcDbTrace
 10
242.410880558
 20
118.5586334354
 30
0.0
 11
241.960880558
 21
115.5586334354
 31
0.0
 12
242.860880558
 22
115.5586334354
 32
0.0
 13
242.860880558
 23
115.5586334354
 33
0.0
  0
SOLID
  5
195
330
191
100
AcDbEntity
  8
VERMASSUNG
100
AcDbTrace
 10
242.410880558
 20
104.5586334354
 30
0.0
 11
242.860880558
 21
107.5586334354
 31
0.0
 12
241.960880558
 22
107.5586334354
 32
0.0
 13
241.960880558
 23
107.5586334354
 33
0.0
  0
LINE
  5
196
330
191
100
AcDbEntity
  8
VERMASSUNG
100
AcDbLine
 10
234.0030615426
 20
118.5586334354
 30
0.0
 11
243.410880558
 21
118.5586334354
 31
0.0
  0
LINE
  5
197
330
191
100
AcDbEntity
  8
VERMASSUNG
100
AcDbLine
 10
234.0030615426
 20
104.5586334354
 30
0.0
 11
243.410880558
 21
104.5586334354
 31
0.0
  0
LINE
  5
198
330
191
100
AcDbEntity
  8
VERMASSUNG
100
AcDbLine
 10
242.410880558
 20
118.5586334354
 30
0.0
 11
242.410880558
 21
104.5586334354
 31
0.0
  0
MTEXT
  5
199
330
191
100
AcDbEntity
  8
VERMASSUNG
100
AcDbMText
 10
239.832745253
 20
108.4536333083
 30
0.0
 40
2.0
 41
0.0
 71
     1
 72
     1
  1
%%c
  7
SLDTEXTSTYLE0
 11
-7.044195017643634E-15
 21
1.0
 31
0.0
 73
     1
 44
1.0
  0
MTEXT
  5
19A
330
191
100
AcDbEntity
  8
VERMASSUNG
100
AcDbMText
 10
239.6327453018
 20
112.0636333226
 30
0.0
 40
2.0
 41
0.0
 71
     1
 72
     1
  1
14
  7
SLDTEXTSTYLE0
 11
-7.044195017643634E-15
 21
1.0
 31
0.0
 73
     1
 44
1.0
  0
ENDBLK
  5
193
330
191
100
AcDbEntity
  8
0
100
AcDbBlockEnd
  0
BLOCK
  5
19D
330
19C
100
AcDbEntity
  8
0
100
AcDbBlockBegin
  2
_D_5
 70
     0
 10
0.0
 20
0.0
 30
0.0
  3
_D_5
  1

  0
SOLID
  5
19F
330
19C
100
AcDbEntity
  8
VERMASSUNG
100
AcDbTrace
 10
248.410880558
 20
124.0586334354
 30
0.0
 11
247.960880558
 21
121.0586334354
 31
0.0
 12
248.860880558
 22
121.0586334354
 32
0.0
 13
248.860880558
 23
121.0586334354
 33
0.0
  0
SOLID
  5
1A0
330
19C
100
AcDbEntity
  8
VERMASSUNG
100
AcDbTrace
 10
248.410880558
 20
99.0586334354
 30
0.0
 11
248.860880558
 21
102.0586334354
 31
0.0
 12
247.960880558
 22
102.0586334354
 32
0.0
 13
247.960880558
 23
102.0586334354
 33
0.0
  0
LINE
  5
1A1
330
19C
100
AcDbEntity
  8
VERMASSUNG
100
AcDbLine
 10
234.8030615426
 20
124.0586334354
 30
0.0
 11
249.410880558
 21
124.0586334354
 31
0.0
  0
LINE
  5
1A2
330
19C
100
AcDbEntity
  8
VERMASSUNG
100
AcDbLine
 10
234.8030615426
 20
99.0586334354
 30
0.0
 11
249.410880558
 21
99.0586334354
 31
0.0
  0
LINE
  5
1A3
330
19C
100
AcDbEntity
  8
VERMASSUNG
100
AcDbLine
 10
248.410880558
 20
124.0586334354
 30
0.0
 11
248.410880558
 21
99.0586334354
 31
0.0
  0
MTEXT
  5
1A4
330
19C
100
AcDbEntity
  8
VERMASSUNG
100
AcDbMText
 10
245.6327453018
 20
106.4536334462
 30
0.0
 40
2.0
 41
0.0
 71
     1
 72
     1
  1
WH
  7
SLDTEXTSTYLE0
 11
-7.044195017643634E-15
 21
1.0
 31
0.0
 73
     1
 44
1.0
  0
MTEXT
  5
1A5
330
19C
100
AcDbEntity
  8
VERMASSUNG
100
AcDbMText
 10
245.832745253
 20
110.2536335103
 30
0.0
 40
2.0
 41
0.0
 71
     1
 72
     1
  1
%%c
  7
SLDTEXTSTYLE0
 11
-7.044195017643634E-15
 21
1.0
 31
0.0
 73
     1
 44
1.0
  0
MTEXT
  5
1A6
330
19C
100
AcDbEntity
  8
VERMASSUNG
100
AcDbMText
 10
245.6327453018
 20
113.8636335246
 30
0.0
 40
2.0
 41
0.0
 71
     1
 72
     1
  1
25
  7
SLDTEXTSTYLE0
 11
-7.044195017643634E-15
 21
1.0
 31
0.0
 73
     1
 44
1.0
  0
ENDBLK
  5
19E
330
19C
100
AcDbEntity
  8
0
100
AcDbBlockEnd
  0
ENDSEC
  0
SECTION
  2
ENTITIES
  0
MTEXT
  5
78
330
1F
100
AcDbEntity
  8
KOPF_DÜNN
100
AcDbMText
 10
13.8892156294
 20
23.8442973028
 30
0.0
 40
3.0
 41
0.0
 71
     1
 72
     1
  1
A44.806.025.126
  7
SLDTEXTSTYLE0
 73
     1
 44
1.0
  0
MTEXT
  5
79
330
1F
100
AcDbEntity
  8
VERMASSUNG
100
AcDbMText
 10
13.9329988022
 20
28.8834360957
 30
0.0
 40
3.0
 41
0.0
 71
     1
 72
     1
  1
Aufnahme Master shank WH25
  7
SLDTEXTSTYLE0
 73
     1
 44
1.0
  0
MTEXT
  5
7A
330
1F
100
AcDbEntity
  8
VERMASSUNG
100
AcDbMText
 10
98.8601118557
 20
13.8365368761
 30
0.0
 40
2.0
 41
0.0
 71
     1
 72
     1
  1
Datum: 25.11.2011
  7
SLDTEXTSTYLE0
 73
     1
 44
1.0
  0
MTEXT
  5
7B
330
1F
100
AcDbEntity
  8
VERMASSUNG
100
AcDbMText
 10
13.933048693
 20
18.0482802738
 30
0.0
 40
2.0
 41
0.0
 71
     1
 72
     1
  1
DIN 69893
  7
SLDTEXTSTYLE0
 73
     1
 44
1.0
  0
MTEXT
  5
7C
330
1F
100
AcDbEntity
  8
VERMASSUNG
100
AcDbMText
 10
13.9808475933
 20
13.9090974274
 30
0.0
 40
2.0
 41
0.0
 71
     1
 72
     1
  1
Gewicht: 965g
  7
SLDTEXTSTYLE0
 73
     1
 44
1.0
  0
LINE
  5
7D
330
1F
100
AcDbEntity
  8
0
  6
Continuous
 62
     7
370
    15
100
AcDbLine
 10
109.3030615426
 20
80.0586334354
 30
0.0
 11
113.9530615426
 21
80.0586334354
 31
0.0
  0
LINE
  5
7E
330
1F
100
AcDbEntity
  8
0
  6
Continuous
 62
     7
370
    15
100
AcDbLine
 10
113.9810499017
 20
143.0586334354
 30
0.0
 11
109.3030615426
 21
143.0586334354
 31
0.0
  0
ARC
  5
7F
330
1F
100
AcDbEntity
  8
0
  6
Continuous
 62
     7
370
    15
100
AcDbCircle
 10
109.3030615426
 20
80.3586334354
 30
0.0
 40
0.3000000000000114
100
AcDbArc
 50
180.0
 51
270.0
  0
ARC
  5
80
330
1F
100
AcDbEntity
  8
0
  6
Continuous
 62
     7
370
    15
100
AcDbCircle
 10
109.3030615426
 20
142.7586334354
 30
0.0
 40
0.3000000000000114
100
AcDbArc
 50
90.0
 51
180.0
  0
ARC
  5
81
330
1F
100
AcDbEntity
  8
0
  6
Continuous
 62
     7
370
    15
100
AcDbCircle
 10
108.50305479
 20
86.9881958211
 30
0.0
 40
0.6000067526677124
100
AcDbArc
 50
33.5571153394
 51
90.0
  0
ARC
  5
82
330
1F
100
AcDbEntity
  8
0
  6
Continuous
 62
     7
370
    15
100
AcDbCircle
 10
108.50305479
 20
136.1290710498
 30
0.0
 40
0.6000067526677242
100
AcDbArc
 50
270.0
 51
326.4428846606
  0
LINE
  5
83
330
1F
100
AcDbEntity
  8
0
  6
Continuous
 62
     7
370
    15
100
AcDbLine
 10
95.7726393602
 20
135.2164178952
 30
0.0
 11
83.2030615426
 21
134.5866795276
 31
0.0
  0
LINE
  5
84
330
1F
100
AcDbEntity
  8
0
  6
Continuous
 62
     7
370
    15
100
AcDbLine
 10
107.0030615426
 20
135.7790642972
 30
0.0
 11
104.1844521851
 21
135.6378514035
 31
0.0
  0
LINE
  5
85
330
1F
100
AcDbEntity
  8
0
  6
Continuous
 62
     7
370
    15
100
AcDbLine
 10
104.1846736603
 20
87.4794043714
 30
0.0
 11
107.0030615426
 21
87.3382025737
 31
0.0
  0
LINE
  5
86
330
1F
100
AcDbEntity
  8
0
  6
Continuous
 62
     7
370
    15
100
AcDbLine
 10
87.2030615426
 20
88.3301865417
 30
0.0
 11
95.7733383119
 21
87.900813958
 31
0.0
  0
LINE
  5
87
330
1F
100
AcDbEntity
  8
0
  6
Continuous
 62
     7
370
    15
100
AcDbLine
 10
107.0030615426
 20
87.3382025737
 30
0.0
 11
107.859774316
 21
87.5677580695
 31
0.0
  0
LINE
  5
88
330
1F
100
AcDbEntity
  8
0
  6
Continuous
 62
     7
370
    15
100
AcDbLine
 10
107.859774316
 20
135.5495088014
 30
0.0
 11
107.0030615426
 21
135.7790642972
 31
0.0
  0
ARC
  5
89
330
1F
100
AcDbEntity
  8
0
  6
Continuous
 62
     7
370
    15
100
AcDbCircle
 10
108.0150657431
 20
86.9882025737
 30
0.0
 40
0.5999999999999801
100
AcDbArc
 50
90.0
 51
105.0
  0
ARC
  5
8A
330
1F
100
AcDbEntity
  8
0
  6
Continuous
 62
     7
370
    15
100
AcDbCircle
 10
108.0150657431
 20
136.1290642972
 30
0.0
 40
0.5999999999999943
100
AcDbArc
 50
255.0
 51
270.0
  0
LINE
  5
8B
330
1F
100
AcDbEntity
  8
0
  6
Continuous
 62
     7
370
    15
100
AcDbLine
 10
108.0150657431
 20
87.5882025737
 30
0.0
 11
108.50305479
 21
87.5882025737
 31
0.0
  0
LINE
  5
8C
330
1F
100
AcDbEntity
  8
0
  6
Continuous
 62
     7
370
    15
100
AcDbLine
 10
108.50305479
 20
135.5290642972
 30
0.0
 11
108.0150657431
 21
135.5290642972
 31
0.0
  0
ARC
  5
8D
330
1F
100
AcDbEntity
  8
0
  6
Continuous
 62
     7
370
    15
100
AcDbCircle
 10
137.9530615426
 20
96.0586334354
 30
0.0
 40
3.0
100
AcDbArc
 50
90.0
 51
180.0
  0
ARC
  5
8E
330
1F
100
AcDbEntity
  8
0
  6
Continuous
 62
     7
370
    15
100
AcDbCircle
 10
137.9530615426
 20
127.0586334354
 30
0.0
 40
3.000000000000014
100
AcDbArc
 50
180.0
 51
270.0
  0
LINE
  5
8F
330
1F
100
AcDbEntity
  8
0
  6
Continuous
 62
     7
370
    15
100
AcDbLine
 10
234.8030615426
 20
124.0586334354
 30
0.0
 11
137.9530615426
 21
124.0586334354
 31
0.0
  0
LINE
  5
90
330
1F
100
AcDbEntity
  8
0
  6
Continuous
 62
     7
370
    15
100
AcDbLine
 10
137.9530615426
 20
99.0586334354
 30
0.0
 11
234.8030615426
 21
99.0586334354
 31
0.0
  0
LINE
  5
91
330
1F
100
AcDbEntity
  8
0
  6
Continuous
 62
     7
370
    15
100
AcDbLine
 10
234.8030615426
 20
99.0586334354
 30
0.0
 11
235.0030615426
 21
99.2586334354
 31
0.0
  0
LINE
  5
92
330
1F
100
AcDbEntity
  8
0
  6
Continuous
 62
     7
370
    15
100
AcDbLine
 10
235.0030615426
 20
123.8586334354
 30
0.0
 11
234.8030615426
 21
124.0586334354
 31
0.0
  0
LINE
  5
93
330
1F
100
AcDbEntity
  8
0
  6
Continuous
 62
     7
370
    15
100
AcDbLine
 10
78.3863981826
 20
90.6886334354
 30
0.0
 11
85.8030615426
 21
90.6886334354
 31
0.0
  0
ARC
  5
94
330
1F
100
AcDbEntity
  8
0
  6
Continuous
 62
     7
370
    15
100
AcDbCircle
 10
85.8030615426
 20
89.2886334354
 30
0.0
 40
1.400000000000006
100
AcDbArc
 50
42.2465410162
 51
90.0
  0
LINE
  5
95
330
1F
100
AcDbEntity
  8
0
  6
Continuous
 62
     7
370
    15
100
AcDbLine
 10
77.1142219778
 20
91.8274730003
 30
0.0
 11
78.2442250008
 21
90.6974699773
 31
0.0
  0
LINE
  5
96
330
1F
100
AcDbEntity
  8
0
  6
Continuous
 62
     7
370
    15
100
AcDbLine
 10
78.2442250008
 20
132.4197968936
 30
0.0
 11
77.112962316
 21
131.2885342088
 31
0.0
  0
ARC
  5
97
330
1F
100
AcDbEntity
  8
0
  6
Continuous
 62
     7
370
    15
100
AcDbCircle
 10
81.8030615426
 20
133.8286334354
 30
0.0
 40
1.400000000000015
100
AcDbArc
 50
270.0
 51
301.7485287426
  0
LINE
  5
98
330
1F
100
AcDbEntity
  8
0
  6
Continuous
 62
     7
370
    15
100
AcDbLine
 10
81.8030615426
 20
132.4286334354
 30
0.0
 11
78.3773272765
 21
132.4286334354
 31
0.0
  0
LINE
  5
99
330
1F
100
AcDbEntity
  8
0
  6
Continuous
 62
     7
370
    15
100
AcDbLine
 10
225.0641009039
 20
113.6900841893
 30
0.0
 11
227.354471723
 21
113.3942213085
 31
0.0
  0
LINE
  5
9A
330
1F
100
AcDbEntity
  8
0
  6
Continuous
 62
     7
370
    15
100
AcDbLine
 10
224.5516513623
 20
109.7230455624
 30
0.0
 11
223.6626907235
 21
111.8544963162
 31
0.0
  0
LINE
  5
9B
330
1F
100
AcDbEntity
  8
0
  6
Continuous
 62
     7
370
    15
100
AcDbLine
 10
226.8420221814
 20
109.4271826816
 30
0.0
 11
224.5516513623
 21
109.7230455624
 31
0.0
  0
LINE
  5
9C
330
1F
100
AcDbEntity
  8
0
  6
Continuous
 62
     7
370
    15
100
AcDbLine
 10
228.2434323618
 20
111.2627705547
 30
0.0
 11
226.8420221814
 21
109.4271826816
 31
0.0
  0
LINE
  5
9D
330
1F
100
AcDbEntity
  8
0
  6
Continuous
 62
     7
370
    15
100
AcDbLine
 10
227.354471723
 20
113.3942213085
 30
0.0
 11
228.2434323618
 21
111.2627705547
 31
0.0
  0
LINE
  5
9E
330
1F
100
AcDbEntity
  8
0
  6
Continuous
 62
     7
370
    15
100
AcDbLine
 10
223.6626907235
 20
111.8544963162
 30
0.0
 11
225.0641009039
 21
113.6900841893
 31
0.0
  0
LINE
  5
9F
330
1F
100
AcDbEntity
  8
0
  6
Continuous
 62
     7
370
    15
100
AcDbLine
 10
113.9530615426
 20
131.4086334354
 30
0.0
 11
123.6111287112
 21
131.4086334354
 31
0.0
  0
LINE
  5
A0
330
1F
100
AcDbEntity
  8
0
  6
Continuous
 62
     7
370
    15
100
AcDbLine
 10
123.6111287112
 20
81.3717157392
 30
0.0
 11
123.6111287112
 21
131.4086334354
 31
0.0
  0
LINE
  5
A1
330
1F
100
AcDbEntity
  8
0
  6
Continuous
 62
     7
370
    15
100
AcDbLine
 10
123.6111287112
 20
81.3717157392
 30
0.0
 11
121.9530615426
 21
81.3717157392
 31
0.0
  0
SPLINE
  5
A2
330
1F
100
AcDbEntity
  8
0
  6
Continuous
 62
     7
370
    15
100
AcDbSpline
210
0.0
220
0.0
230
1.0
 70
     8
 71
     3
 72
    28
 73
    24
 74
     0
 42
0.000000001
 43
0.00000001
 40
0.0
 40
0.0
 40
0.0
 40
0.0
 40
0.1249999999999999
 40
0.1249999999999999
 40
0.1874999999999998
 40
0.1874999999999998
 40
0.2499999999999997
 40
0.2499999999999997
 40
0.3749999999999994
 40
0.3749999999999994
 40
0.4374999999999994
 40
0.4374999999999994
 40
0.4999999999999993
 40
0.4999999999999993
 40
0.6249999999999993
 40
0.6249999999999993
 40
0.7499999999999994
 40
0.7499999999999994
 40
0.8124999999999996
 40
0.8124999999999996
 40
0.8749999999999998
 40
0.8749999999999998
 40
1.0
 40
1.0
 40
1.0
 40
1.0
 10
121.9530615426496
 20
81.3717157392007
 30
0.0
 10
121.4213537851567
 20
81.37171573920068
 30
0.0
 10
120.8991152198464
 20
81.35593102525047
 30
0.0
 10
120.1292447335714
 20
81.31093561117424
 30
0.0
 10
119.87488516138
 20
81.29238061609854
 30
0.0
 10
119.3707635806815
 20
81.24852789365205
 30
0.0
 10
119.1210407632536
 20
81.22318328669984
 30
0.0
 10
118.3954508118072
 20
81.13978120894973
 30
0.0
 10
117.9370905502256
 20
81.07391564979864
 30
0.0
 10
117.2865926068318
 20
80.96494530930687
 30
0.0
 10
117.0749105560393
 20
80.92670567354021
 30
0.0
 10
116.6708390669013
 20
80.84894693612087
 30
0.0
 10
116.4783325530804
 20
80.80944597394551
 30
0.0
 10
115.9284975820592
 20
80.69053823157951
 30
0.0
 10
115.5985688037504
 20
80.6107205501549
 30
0.0
 10
115.0140975351817
 20
80.45737738835884
 30
0.0
 10
114.7678203971682
 20
80.38604363508958
 30
0.0
 10
114.4679776044702
 20
80.29210012801497
 30
0.0
 10
114.379520747398
 20
80.26290633465503
 30
0.0
 10
114.2261593940929
 20
80.20943976039163
 30
0.0
 10
114.1610711798666
 20
80.18508042611644
 30
0.0
 10
114.0054771639258
 20
80.1214902806717
 30
0.0
 10
113.9530615426496
 20
80.09138734558245
 30
0.0
 10
113.9530615426496
 20
80.07451045258553
 30
0.0
  0
LINE
  5
A3
330
1F
100
AcDbEntity
  8
0
  6
Continuous
 62
     7
370
    15
100
AcDbLine
 10
113.9530615426
 20
80.0745104526
 30
0.0
 11
113.9530615426
 21
80.0586334354
 31
0.0
  0
SPLINE
  5
A4
330
1F
100
AcDbEntity
  8
0
  6
Continuous
 62
     7
370
    15
100
AcDbSpline
210
0.0
220
0.0
230
1.0
 70
     8
 71
     3
 72
    17
 73
    13
 74
     0
 42
0.000000001
 43
0.00000001
 40
0.0
 40
0.0
 40
0.0
 40
0.0
 40
0.1034796923964057
 40
0.210023918880785
 40
0.3134862136955584
 40
0.4198361274354883
 40
0.5254127712915682
 40
0.6339610695419793
 40
0.7409508756305033
 40
0.8511696089308177
 40
0.955899653455194
 40
1.0
 40
1.0
 40
1.0
 40
1.0
 10
121.9530615426496
 20
142.0258289086121
 30
0.0
 10
121.5178131935396
 20
142.0312771051454
 30
0.0
 10
120.6344266869746
 20
142.0423348456573
 30
0.0
 10
119.353599101746
 20
142.1286932385588
 30
0.0
 10
118.1361825658719
 20
142.2565634150966
 30
0.0
 10
117.0283767136254
 20
142.4155087136898
 30
0.0
 10
116.0401379096772
 20
142.5900024014053
 30
0.0
 10
115.2154143521456
 20
142.7591682520452
 30
0.0
 10
114.5664608514863
 20
142.9070520345736
 30
0.0
 10
114.1494260360246
 20
143.0088426188043
 30
0.0
 10
113.9508293230601
 20
143.0591941414075
 30
0.0
 10
113.9741420444934
 20
143.0532884571852
 30
0.0
 10
113.9810499017309
 20
143.0515385274906
 30
0.0
  0
LINE
  5
A5
330
1F
100
AcDbEntity
  8
0
  6
Continuous
 62
     7
370
    15
100
AcDbLine
 10
123.6111287112
 20
142.0258289086
 30
0.0
 11
121.9530615426
 21
142.0258289086
 31
0.0
  0
LINE
  5
A6
330
1F
100
AcDbEntity
  8
0
  6
Continuous
 62
     7
370
    15
100
AcDbLine
 10
123.6111287112
 20
136.0173230978
 30
0.0
 11
123.6111287112
 21
142.0258289086
 31
0.0
  0
LINE
  5
A7
330
1F
100
AcDbEntity
  8
0
  6
Continuous
 62
     7
370
    15
100
AcDbLine
 10
121.1986818883
 20
136.0173230978
 30
0.0
 11
123.6111287112
 21
136.0173230978
 31
0.0
  0
SPLINE
  5
A8
330
1F
100
AcDbEntity
  8
0
  6
Continuous
 62
     7
370
    15
100
AcDbSpline
210
0.0
220
0.0
230
1.0
 70
     8
 71
     3
 72
    20
 73
    16
 74
     0
 42
0.000000001
 43
0.00000001
 40
0.0
 40
0.0
 40
0.0
 40
0.0
 40
0.2500000000000005
 40
0.2500000000000005
 40
0.3750000000000004
 40
0.3750000000000004
 40
0.5000000000000003
 40
0.5000000000000003
 40
0.6250000000000002
 40
0.6250000000000002
 40
0.7500000000000001
 40
0.7500000000000001
 40
0.8750000000000001
 40
0.8750000000000001
 40
1.0
 40
1.0
 40
1.0
 40
1.0
 10
113.9530615426496
 20
131.4086334354479
 30
0.0
 10
114.2014352769377
 20
132.0624958637453
 30
0.0
 10
114.521005369283
 20
132.6662816457424
 30
0.0
 10
115.1433116024876
 20
133.493120381911
 30
0.0
 10
115.3747358629184
 20
133.7555490198639
 30
0.0
 10
115.8959502025681
 20
134.2522116739689
 30
0.0
 10
116.1825706852032
 20
134.4827985529905
 30
0.0
 10
116.8020554265108
 20
134.8993527775731
 30
0.0
 10
117.1363558059978
 20
135.0868505795406
 30
0.0
 10
117.8616162786225
 20
135.418247557177
 30
0.0
 10
118.243531336013
 20
135.5577515446723
 30
0.0
 10
119.0383195121847
 20
135.7832050521432
 30
0.0
 10
119.4524777063911
 20
135.8698311636868
 30
0.0
 10
120.3180240469725
 20
135.987811952541
 30
0.0
 10
120.7559116619843
 20
136.0173230978153
 30
0.0
 10
121.1986818883389
 20
136.0173230978153
 30
0.0
  0
LINE
  5
A9
330
1F
100
AcDbEntity
  8
0
  6
Continuous
 62
     7
370
    15
100
AcDbLine
 10
125.0930615426
 20
84.0607962764
 30
0.0
 11
125.0930615426
 21
131.4086334354
 31
0.0
  0
SPLINE
  5
AA
330
1F
100
AcDbEntity
  8
0
  6
Continuous
 62
     7
370
    15
100
AcDbSpline
210
0.0
220
0.0
230
1.0
 70
     8
 71
     3
 72
     8
 73
     4
 74
     0
 42
0.000000001
 43
0.00000001
 40
0.0
 40
0.0
 40
0.0
 40
0.0
 40
1.0
 40
1.0
 40
1.0
 40
1.0
 10
125.0930615426497
 20
84.06079627639299
 30
0.0
 10
124.6007224198685
 20
83.1635262421863
 30
0.0
 10
124.1066083718263
 20
82.26724182713404
 30
0.0
 10
123.6111287111606
 20
81.37171573920068
 30
0.0
  0
SPLINE
  5
AB
330
1F
100
AcDbEntity
  8
0
  6
Continuous
 62
     7
370
    15
100
AcDbSpline
210
0.0
220
0.0
230
1.0
 70
    24
 71
     3
 72
     8
 73
     4
 74
     0
 42
0.000000001
 43
0.00000001
 40
0.0
 40
0.0
 40
0.0
 40
0.0
 40
1.0
 40
1.0
 40
1.0
 40
1.0
 10
123.6111287111606
 20
131.4086334354479
 30
0.0
 10
124.1178088193111
 20
131.4086334354479
 30
0.0
 10
124.6131095482848
 20
131.4086334354479
 30
0.0
 10
125.0930615426497
 20
131.4086334354479
 30
0.0
  0
LINE
  5
AC
330
1F
100
AcDbEntity
  8
0
  6
Continuous
 62
     7
370
    15
100
AcDbLine
 10
109.0030615426
 20
80.3586334354
 30
0.0
 11
109.0030615426
 21
142.7586334354
 31
0.0
  0
LINE
  5
AD
330
1F
100
AcDbEntity
  8
0
  6
Continuous
 62
     7
370
    15
100
AcDbLine
 10
130.3949943741
 20
81.3717157392
 30
0.0
 11
130.3949943741
 21
131.4086334354
 31
0.0
  0
SPLINE
  5
AE
330
1F
100
AcDbEntity
  8
0
  6
Continuous
 62
     7
370
    15
100
AcDbSpline
210
0.0
220
0.0
230
1.0
 70
     8
 71
     3
 72
     8
 73
     4
 74
     0
 42
0.000000001
 43
0.00000001
 40
0.0
 40
0.0
 40
0.0
 40
0.0
 40
1.0
 40
1.0
 40
1.0
 40
1.0
 10
130.3949943741387
 20
81.3717157392007
 30
0.0
 10
129.8995147134729
 20
82.26724182713404
 30
0.0
 10
129.4054006654308
 20
83.1635262421863
 30
0.0
 10
128.9130615426496
 20
84.06079627639299
 30
0.0
  0
LINE
  5
AF
330
1F
100
AcDbEntity
  8
0
  6
Continuous
 62
     7
370
    15
100
AcDbLine
 10
128.9130615426
 20
84.0607962764
 30
0.0
 11
128.9130615426
 21
131.4086334354
 31
0.0
  0
SPLINE
  5
B0
330
1F
100
AcDbEntity
  8
0
  6
Continuous
 62
     7
370
    15
100
AcDbSpline
210
0.0
220
0.0
230
1.0
 70
    24
 71
     3
 72
     8
 73
     4
 74
     0
 42
0.000000001
 43
0.00000001
 40
0.0
 40
0.0
 40
0.0
 40
0.0
 40
1.0
 40
1.0
 40
1.0
 40
1.0
 10
128.9130615426496
 20
131.4086334354479
 30
0.0
 10
129.3930135370146
 20
131.4086334354479
 30
0.0
 10
129.8883142659882
 20
131.4086334354479
 30
0.0
 10
130.3949943741387
 20
131.4086334354479
 30
0.0
  0
LINE
  5
B1
330
1F
100
AcDbEntity
  8
0
  6
Continuous
 62
     7
370
    15
100
AcDbLine
 10
134.3530615426
 20
81.3717157392
 30
0.0
 11
130.3949943741
 21
81.3717157392
 31
0.0
  0
LINE
  5
B2
330
1F
100
AcDbEntity
  8
0
  6
Continuous
 62
     7
370
    15
100
AcDbLine
 10
130.3949943741
 20
131.4086334354
 30
0.0
 11
134.3530615426
 21
131.4086334354
 31
0.0
  0
LINE
  5
B3
330
1F
100
AcDbEntity
  8
0
  6
Continuous
 62
     7
370
    15
100
AcDbLine
 10
134.9530615426
 20
81.9983560349
 30
0.0
 11
134.9530615426
 21
131.4086334354
 31
0.0
  0
SPLINE
  5
B4
330
1F
100
AcDbEntity
  8
0
  6
Continuous
 62
     7
370
    15
100
AcDbSpline
210
0.0
220
0.0
230
1.0
 70
     8
 71
     3
 72
    10
 73
     6
 74
     0
 42
0.000000001
 43
0.00000001
 40
0.0
 40
0.0
 40
0.0
 40
0.0
 40
0.5
 40
0.5
 40
1.0
 40
1.0
 40
1.0
 40
1.0
 10
134.9530615426497
 20
81.99835603485504
 30
0.0
 10
134.9530615426497
 20
81.83846876666135
 30
0.0
 10
134.8917518914138
 20
81.67734151114676
 30
0.0
 10
134.6726522538787
 20
81.44324251279193
 30
0.0
 10
134.5146040475652
 20
81.3717157392007
 30
0.0
 10
134.3530615426496
 20
81.3717157392007
 30
0.0
  0
SPLINE
  5
B5
330
1F
100
AcDbEntity
  8
0
  6
Continuous
 62
     7
370
    15
100
AcDbSpline
210
0.0
220
0.0
230
1.0
 70
    24
 71
     3
 72
    12
 73
     8
 74
     0
 42
0.000000001
 43
0.00000001
 40
0.0
 40
0.0
 40
0.0
 40
0.0
 40
0.2500000000000033
 40
0.2500000000000033
 40
0.5000000000000067
 40
0.5000000000000067
 40
1.0
 40
1.0
 40
1.0
 40
1.0
 10
134.3530615426496
 20
131.4086334354479
 30
0.0
 10
134.4433006103367
 20
131.4086334354479
 30
0.0
 10
134.5341987244432
 20
131.4086334354479
 30
0.0
 10
134.6887957609317
 20
131.4086334354479
 30
0.0
 10
134.7537741770398
 20
131.4086334354479
 30
0.0
 10
134.9056092049761
 20
131.4086334354479
 30
0.0
 10
134.9530615426497
 20
131.4086334354479
 30
0.0
 10
134.9530615426496
 20
131.4086334354479
 30
0.0
  0
SPLINE
  5
B6
330
1F
100
AcDbEntity
  8
0
  6
Continuous
 62
     7
370
    15
100
AcDbSpline
210
0.0
220
0.0
230
1.0
 70
    24
 71
     3
 72
    14
 73
    10
 74
     0
 42
0.000000001
 43
0.00000001
 40
0.0
 40
0.0
 40
0.0
 40
0.0
 40
0.4999999999999982
 40
0.4999999999999982
 40
0.7499999999999973
 40
0.7499999999999973
 40
0.8749999999999987
 40
0.8749999999999987
 40
1.0
 40
1.0
 40
1.0
 40
1.0
 10
128.8153867403174
 20
85.15863343544785
 30
0.0
 10
128.7681765810876
 20
85.15863343544785
 30
0.0
 10
128.7049421075439
 20
85.15863343544787
 30
0.0
 10
128.561130176816
 20
85.15863343544785
 30
0.0
 10
128.5058051023396
 20
85.15863343544785
 30
0.0
 10
128.3938939291045
 20
85.15863343544785
 30
0.0
 10
128.3511068426635
 20
85.15863343544785
 30
0.0
 10
128.2467415096299
 20
85.15863343544785
 30
0.0
 10
128.1825177153281
 20
85.15863343544785
 30
0.0
 10
128.1130615427051
 20
85.15863343544785
 30
0.0
  0
SPLINE
  5
B7
330
1F
100
AcDbEntity
  8
0
  6
Continuous
 62
     7
370
    15
100
AcDbSpline
210
0.0
220
0.0
230
1.0
 70
    24
 71
     3
 72
    12
 73
     8
 74
     0
 42
0.000000001
 43
0.00000001
 40
0.0
 40
0.0
 40
0.0
 40
0.0
 40
0.4999999999999983
 40
0.4999999999999983
 40
0.7499999999999991
 40
0.7499999999999991
 40
1.0
 40
1.0
 40
1.0
 40
1.0
 10
128.5187640109589
 20
137.9586334354479
 30
0.0
 10
128.4753258231559
 20
137.9586334354479
 30
0.0
 10
128.4261315748579
 20
137.9586334354479
 30
0.0
 10
128.3294128174769
 20
137.9586334354479
 30
0.0
 10
128.2932253359752
 20
137.9586334354479
 30
0.0
 10
128.2103474774505
 20
137.9586334354479
 30
0.0
 10
128.1623940301437
 20
137.9586334354479
 30
0.0
 10
128.1130615426497
 20
137.9586334354479
 30
0.0
  0
SPLINE
  5
B8
330
1F
100
AcDbEntity
  8
0
  6
Continuous
 62
     7
370
    15
100
AcDbSpline
210
0.0
220
0.0
230
1.0
 70
     8
 71
     3
 72
    10
 73
     6
 74
     0
 42
0.000000001
 43
0.00000001
 40
0.0
 40
0.0
 40
0.0
 40
0.0
 40
0.5
 40
0.5
 40
1.0
 40
1.0
 40
1.0
 40
1.0
 10
128.9130615426496
 20
138.6782872864837
 30
0.0
 10
128.9130615426496
 20
138.5345172286659
 30
0.0
 10
128.8770124839309
 20
138.3920978661709
 30
0.0
 10
128.7415036231572
 20
138.1422035728139
 30
0.0
 10
128.6416276300614
 20
138.0341732365658
 30
0.0
 10
128.5187640109597
 20
137.9586334354485
 30
0.0
  0
SPLINE
  5
B9
330
1F
100
AcDbEntity
  8
0
  6
Continuous
 62
     7
370
    15
100
AcDbSpline
210
0.0
220
0.0
230
1.0
 70
     8
 71
     3
 72
     9
 73
     5
 74
     0
 42
0.000000001
 43
0.00000001
 40
0.0
 40
0.0
 40
0.0
 40
0.0
 40
0.5
 40
1.0
 40
1.0
 40
1.0
 40
1.0
 10
128.8869139194895
 20
131.4086334354479
 30
0.0
 10
128.8956524893719
 20
131.4557762357832
 30
0.0
 10
128.9086717757083
 20
131.5505723174538
 30
0.0
 10
128.9130615426496
 20
131.6463565890141
 30
0.0
 10
128.9130615426496
 20
131.6945000669093
 30
0.0
  0
SPLINE
  5
BA
330
1F
100
AcDbEntity
  8
0
  6
Continuous
 62
     7
370
    15
100
AcDbSpline
210
0.0
220
0.0
230
1.0
 70
     8
 71
     3
 72
    10
 73
     6
 74
     0
 42
0.000000001
 43
0.00000001
 40
0.0
 40
0.0
 40
0.0
 40
0.0
 40
0.5
 40
0.5
 40
1.0
 40
1.0
 40
1.0
 40
1.0
 10
125.4873590743406
 20
137.9586334354479
 30
0.0
 10
125.3658188106721
 20
138.0333596026596
 30
0.0
 10
125.2644844503232
 20
138.1423046185764
 30
0.0
 10
125.1288455074347
 20
138.392735099338
 30
0.0
 10
125.0930615426497
 20
138.5351544614369
 30
0.0
 10
125.0930615426497
 20
138.6782872864837
 30
0.0
  0
SPLINE
  5
BB
330
1F
100
AcDbEntity
  8
0
  6
Continuous
 62
     7
370
    15
100
AcDbSpline
210
0.0
220
0.0
230
1.0
 70
    24
 71
     3
 72
    12
 73
     8
 74
     0
 42
0.000000001
 43
0.00000001
 40
0.0
 40
0.0
 40
0.0
 40
0.0
 40
0.2500000000000021
 40
0.2500000000000021
 40
0.5000000000000041
 40
0.5000000000000041
 40
1.0
 40
1.0
 40
1.0
 40
1.0
 10
125.8930615426496
 20
137.9586334354479
 30
0.0
 10
125.8431848603322
 20
137.9586334354479
 30
0.0
 10
125.7951816669286
 20
137.9586334354479
 30
0.0
 10
125.7121335642166
 20
137.9586334354479
 30
0.0
 10
125.6760039847488
 20
137.9586334354479
 30
0.0
 10
125.5800919538046
 20
137.9586334354479
 30
0.0
 10
125.5303332858358
 20
137.9586334354479
 30
0.0
 10
125.4873590743406
 20
137.9586334354479
 30
0.0
  0
SPLINE
  5
BC
330
1F
100
AcDbEntity
  8
0
  6
Continuous
 62
     7
370
    15
100
AcDbSpline
210
0.0
220
0.0
230
1.0
 70
    24
 71
     3
 72
    14
 73
    10
 74
     0
 42
0.000000001
 43
0.00000001
 40
0.0
 40
0.0
 40
0.0
 40
0.0
 40
0.1249999999999983
 40
0.1249999999999983
 40
0.2499999999999967
 40
0.2499999999999967
 40
0.4999999999999968
 40
0.4999999999999968
 40
1.0
 40
1.0
 40
1.0
 40
1.0
 10
125.8930615426496
 20
85.15863343544785
 30
0.0
 10
125.8246236947632
 20
85.15863343544787
 30
0.0
 10
125.7590736559981
 20
85.15863343544787
 30
0.0
 10
125.6546470165902
 20
85.15863343544785
 30
0.0
 10
125.6121024068288
 20
85.15863343544787
 30
0.0
 10
125.4994929462885
 20
85.15863343544787
 30
0.0
 10
125.443953899269
 20
85.15863343544785
 30
0.0
 10
125.3013422038052
 20
85.15863343544785
 30
0.0
 10
125.2379368488095
 20
85.15863343544785
 30
0.0
 10
125.1907363449819
 20
85.15863343544785
 30
0.0
  0
SPLINE
  5
BD
330
1F
100
AcDbEntity
  8
0
  6
Continuous
 62
     7
370
    15
100
AcDbSpline
210
0.0
220
0.0
230
1.0
 70
     8
 71
     3
 72
    10
 73
     6
 74
     0
 42
0.000000001
 43
0.00000001
 40
0.0
 40
0.0
 40
0.0
 40
0.0
 40
0.5
 40
0.5
 40
1.0
 40
1.0
 40
1.0
 40
1.0
 10
125.0930615426497
 20
131.6945000669093
 30
0.0
 10
125.0930615426497
 20
131.6467285589159
 30
0.0
 10
125.0952227862468
 20
131.5990188368543
 30
0.0
 10
125.103894160107
 20
131.503723719306
 30
0.0
 10
125.1104233430629
 20
131.4560311553394
 30
0.0
 10
125.1192091658098
 20
131.4086334354479
 30
0.0
  0
LINE
  5
BE
330
1F
100
AcDbEntity
  8
0
  6
Continuous
 62
     7
370
    15
100
AcDbLine
 10
128.1130615426
 20
137.9586334354
 30
0.0
 11
125.8930615426
 21
137.9586334354
 31
0.0
  0
LINE
  5
BF
330
1F
100
AcDbEntity
  8
0
  6
Continuous
 62
     7
370
    15
100
AcDbLine
 10
128.1130615426
 20
85.1586334354
 30
0.0
 11
125.8930615426
 21
85.1586334354
 31
0.0
  0
LINE
  5
C0
330
1F
100
AcDbEntity
  8
0
  6
Continuous
 62
     7
370
    15
100
AcDbLine
 10
87.2030615426
 20
88.3301865417
 30
0.0
 11
87.2030615426
 21
89.5948959042
 31
0.0
  0
SPLINE
  5
C1
330
1F
100
AcDbEntity
  8
0
  6
Continuous
 62
     7
370
    15
100
AcDbSpline
210
0.0
220
0.0
230
1.0
 70
     8
 71
     3
 72
    14
 73
    10
 74
     0
 42
0.000000001
 43
0.00000001
 40
0.0
 40
0.0
 40
0.0
 40
0.0
 40
0.25
 40
0.25
 40
0.5
 40
0.5
 40
0.75
 40
0.75
 40
1.0
 40
1.0
 40
1.0
 40
1.0
 10
86.42477442473393
 20
90.72548211188791
 30
0.0
 10
86.48140109993601
 20
90.61778465805105
 30
0.0
 10
86.57592376022575
 20
90.51499507633173
 30
0.0
 10
86.75896873578797
 20
90.31663776411159
 30
0.0
 10
86.8505953127427
 20
90.22057825543334
 30
0.0
 10
87.00944863043588
 20
90.0330492127241
 30
0.0
 10
87.07733923805758
 20
89.94164023994053
 30
0.0
 10
87.17425626376517
 20
89.76326401903039
 30
0.0
 10
87.20306154265023
 20
89.67604211278422
 30
0.0
 10
87.20306154265022
 20
89.59489590424997
 30
0.0
  0
SPLINE
  5
C2
330
1F
100
AcDbEntity
  8
0
  6
Continuous
 62
     7
370
    15
100
AcDbSpline
210
0.0
220
0.0
230
1.0
 70
     8
 71
     3
 72
    14
 73
    10
 74
     0
 42
0.000000001
 43
0.00000001
 40
0.0
 40
0.0
 40
0.0
 40
0.0
 40
0.1249999999999979
 40
0.1249999999999979
 40
0.2499999999999958
 40
0.2499999999999958
 40
0.4999999999999948
 40
0.4999999999999948
 40
1.0
 40
1.0
 40
1.0
 40
1.0
 10
85.80306154264964
 20
91.17216397416722
 30
0.0
 10
85.85160595130681
 20
91.17791228744751
 30
0.0
 10
85.90452130609171
 20
91.17481139879128
 30
0.0
 10
85.99981665107475
 20
91.15261655462895
 30
0.0
 10
86.04006764835972
 20
91.1353843275331
 30
0.0
 10
86.14433766187268
 20
91.07905641108104
 30
0.0
 10
86.194659637026
 20
91.03487006513524
 30
0.0
 10
86.32234258455138
 20
90.90386216628461
 30
0.0
 10
86.37842803161365
 20
90.81362764605433
 30
0.0
 10
86.42477442473538
 20
90.72548211188844
 30
0.0
  0
SPLINE
  5
C3
330
1F
100
AcDbEntity
  8
0
  6
Continuous
 62
     7
370
    15
100
AcDbSpline
210
0.0
220
0.0
230
1.0
 70
     8
 71
     3
 72
     8
 73
     4
 74
     0
 42
0.000000001
 43
0.00000001
 40
0.0
 40
0.0
 40
0.0
 40
0.0
 40
1.0
 40
1.0
 40
1.0
 40
1.0
 10
83.53453644970348
 20
90.86231868758443
 30
0.0
 10
84.26911347618642
 20
90.98094369865339
 30
0.0
 10
85.03258854558204
 20
91.08092957078968
 30
0.0
 10
85.80306154264964
 20
91.17216397416722
 30
0.0
  0
SPLINE
  5
C4
330
1F
100
AcDbEntity
  8
0
  6
Continuous
 62
     7
370
    15
100
AcDbSpline
210
0.0
220
0.0
230
1.0
 70
     8
 71
     3
 72
    14
 73
    10
 74
     0
 42
0.000000001
 43
0.00000001
 40
0.0
 40
0.0
 40
0.0
 40
0.0
 40
0.5000000000000019
 40
0.5000000000000019
 40
0.7500000000000018
 40
0.7500000000000018
 40
0.875000000000001
 40
0.875000000000001
 40
1.0
 40
1.0
 40
1.0
 40
1.0
 10
78.25306154264965
 20
90.6886956700528
 30
0.0
 10
79.14520767320323
 20
90.68797344385214
 30
0.0
 10
80.03518410899682
 20
90.6925596503096
 30
0.0
 10
81.36177927607247
 20
90.72028465470113
 30
0.0
 10
81.80262620457121
 20
90.73289119232531
 30
0.0
 10
82.45906644199363
 20
90.76390734033275
 30
0.0
 10
82.67708009858552
 20
90.77625051295954
 30
0.0
 10
83.10978895226827
 20
90.80927456812282
 30
0.0
 10
83.3250654174331
 20
90.82849173326126
 30
0.0
 10
83.5345364497035
 20
90.86231868758443
 30
0.0
  0
SPLINE
  5
C5
330
1F
100
AcDbEntity
  8
0
  6
Continuous
 62
     7
370
    15
100
AcDbSpline
210
0.0
220
0.0
230
1.0
 70
     8
 71
     3
 72
     8
 73
     4
 74
     0
 42
0.000000001
 43
0.00000001
 40
0.0000005163856998
 40
0.0000005163856998
 40
0.0000005163856998
 40
0.0000005163856998
 40
0.000026289209185
 40
0.000026289209185
 40
0.000026289209185
 40
0.000026289209185
 10
78.24301661224203
 20
90.69867954314957
 30
0.0
 10
78.24634435044986
 20
90.69534529628045
 30
0.0
 10
78.24969280342548
 20
90.69201733900515
 30
0.0
 10
78.25306154264963
 20
90.68869567005278
 30
0.0
  0
SPLINE
  5
C6
330
1F
100
AcDbEntity
  8
0
  6
Continuous
 62
     7
370
    15
100
AcDbSpline
210
0.0
220
0.0
230
1.0
 70
     8
 71
     3
 72
     8
 73
     4
 74
     0
 42
0.000000001
 43
0.00000001
 40
0.0000005099763573
 40
0.0000005099763573
 40
0.0000005099763573
 40
0.0000005099763573
 40
0.0000262827998699
 40
0.0000262827998699
 40
0.0000262827998699
 40
0.0000262827998699
 10
78.25306154264963
 20
132.428571200843
 30
0.0
 10
78.24969280342188
 20
132.4252495318871
 30
0.0
 10
78.24634435044273
 20
132.4219215746082
 30
0.0
 10
78.2430166122314
 20
132.4185873277355
 30
0.0
  0
SPLINE
  5
C7
330
1F
100
AcDbEntity
  8
0
  6
Continuous
 62
     7
370
    15
100
AcDbSpline
210
0.0
220
0.0
230
1.0
 70
     8
 71
     3
 72
    10
 73
     6
 74
     0
 42
0.000000001
 43
0.00000001
 40
0.0
 40
0.0
 40
0.0
 40
0.0
 40
0.5
 40
0.5
 40
1.0
 40
1.0
 40
1.0
 40
1.0
 10
81.80306154264964
 20
132.3817208272756
 30
0.0
 10
81.21547599555906
 20
132.402786347512
 30
0.0
 10
80.62472960209867
 20
132.4135448333842
 30
0.0
 10
79.44071043679982
 20
132.4269096139199
 30
0.0
 10
78.84729644859435
 20
132.4290522565845
 30
0.0
 10
78.25306154264965
 20
132.428571200843
 30
0.0
  0
SPLINE
  5
C8
330
1F
100
AcDbEntity
  8
0
  6
Continuous
 62
     7
370
    15
100
AcDbSpline
210
0.0
220
0.0
230
1.0
 70
     8
 71
     3
 72
    18
 73
    14
 74
     0
 42
0.000000001
 43
0.00000001
 40
0.0
 40
0.0
 40
0.0
 40
0.0
 40
0.2499999999999996
 40
0.2499999999999996
 40
0.5
 40
0.5
 40
0.7500000000000003
 40
0.7500000000000003
 40
0.8750000000000002
 40
0.8750000000000002
 40
0.9375000000000001
 40
0.9375000000000001
 40
1.0
 40
1.0
 40
1.0
 40
1.0
 10
83.20306154264965
 20
133.4027411078109
 30
0.0
 10
83.20306154264965
 20
133.3195341989536
 30
0.0
 10
83.16721244271139
 20
133.2307975436401
 30
0.0
 10
83.04234070667749
 20
133.0486723530798
 30
0.0
 10
82.9519402890296
 20
132.9535423044532
 30
0.0
 10
82.72969763428742
 20
132.7643607953289
 30
0.0
 10
82.59993284784166
 20
132.6694156272342
 30
0.0
 10
82.35929539053014
 20
132.5311369196542
 30
0.0
 10
82.27152809239269
 20
132.4854264863519
 30
0.0
 10
82.11700400518588
 20
132.4276031811304
 30
0.0
 10
82.06039311913113
 20
132.4098884170926
 30
0.0
 10
81.93634908822453
 20
132.3853491138596
 30
0.0
 10
81.86863441320624
 20
132.3793699753213
 30
0.0
 10
81.80306154264964
 20
132.3817208272756
 30
0.0
  0
LINE
  5
C9
330
1F
100
AcDbEntity
  8
0
  6
Continuous
 62
     7
370
    15
100
AcDbLine
 10
83.2030615426
 20
133.4027411078
 30
0.0
 11
83.2030615426
 21
134.5866795276
 31
0.0
  0
LINE
  5
CA
330
1F
100
AcDbEntity
  8
0
  6
Continuous
 62
     7
370
    15
100
AcDbLine
 10
107.0030615426
 20
87.3382025737
 30
0.0
 11
107.0030615426
 21
135.7790642972
 31
0.0
  0
SPLINE
  5
CB
330
1F
100
AcDbEntity
  8
0
  6
Continuous
 62
     7
370
    15
100
AcDbSpline
210
0.0
220
0.0
230
1.0
 70
     8
 71
     3
 72
    18
 73
    14
 74
     0
 42
0.000000001
 43
0.00000001
 40
0.0
 40
0.0
 40
0.0
 40
0.0
 40
0.0010671296451831
 40
0.1270947795731589
 40
0.2524053457512677
 40
0.3766468878986958
 40
0.4391415999051778
 40
0.50082780214002
 40
0.5624255708817852
 40
0.6253162439161292
 40
0.7499985144706811
 40
0.8752758950341308
 40
1.0
 40
1.0
 40
1.0
 40
1.0
 10
95.77336238272231
 20
87.90129441253151
 30
0.0
 10
95.77245055008382
 20
87.90117963399489
 30
0.0
 10
95.6638515914468
 20
87.8875095491288
 30
0.0
 10
96.05149265909675
 20
87.93842904974464
 30
0.0
 10
96.91745734093186
 20
88.03801222279102
 30
0.0
 10
98.11786126570182
 20
88.10713610593476
 30
0.0
 10
99.17543718019076
 20
88.11108833507355
 30
0.0
 10
100.0025712671009
 20
88.0835993966182
 30
0.0
 10
100.827843134736
 20
88.02505922021105
 30
0.0
 10
101.8822083547335
 20
87.91153806047423
 30
0.0
 10
103.0440446362064
 20
87.72838723622665
 30
0.0
 10
103.9962794175896
 20
87.52378402659158
 30
0.0
 10
104.1219844783976
 20
87.49449867581552
 30
0.0
 10
104.1846979105428
 20
87.47988840597485
 30
0.0
  0
SPLINE
  5
CC
330
1F
100
AcDbEntity
  8
0
  6
Continuous
 62
     7
370
    15
100
AcDbSpline
210
0.0
220
0.0
230
1.0
 70
     8
 71
     3
 72
    18
 73
    14
 74
     0
 42
0.000000001
 43
0.00000001
 40
0.0
 40
0.0
 40
0.0
 40
0.0
 40
0.1248907792210084
 40
0.2505384020341678
 40
0.3748721840485254
 40
0.4374907653348517
 40
0.4990776265894282
 40
0.5607931536354054
 40
0.6233901338664959
 40
0.7478191038417361
 40
0.8731940995934968
 40
0.999161464471008
 40
1.0
 40
1.0
 40
1.0
 40
1.0
 10
104.1844791450189
 20
135.6373132843665
 30
0.0
 10
104.1207383923072
 20
135.6226519917684
 30
0.0
 10
103.9928706151307
 20
135.593240558497
 30
0.0
 10
103.0408713940704
 20
135.3882874544345
 30
0.0
 10
101.8803276888674
 20
135.2050236786236
 30
0.0
 10
100.8280632367796
 20
135.0919960863746
 30
0.0
 10
100.0038361217116
 20
135.0337324388333
 30
0.0
 10
99.17623235219062
 20
135.006286050829
 30
0.0
 10
98.1174151597057
 20
135.0102708567583
 30
0.0
 10
96.91519646167082
 20
135.0793603331396
 30
0.0
 10
96.05001252198365
 20
135.1789865496964
 30
0.0
 10
95.66387210045316
 20
135.2298026232967
 30
0.0
 10
95.7719436412337
 20
135.2161304432337
 30
0.0
 10
95.77265829115399
 20
135.2160400325454
 30
0.0
  0
SPLINE
  5
CD
330
1F
100
AcDbEntity
  8
0
  6
Continuous
 62
     7
370
    15
100
AcDbSpline
210
0.0
220
0.0
230
1.0
 70
     8
 71
     3
 72
    10
 73
     6
 74
     0
 42
0.000000001
 43
0.00000001
 40
0.0
 40
0.0
 40
0.0
 40
0.0
 40
0.0840381716606343
 40
0.7011125076932975
 40
1.0
 40
1.0
 40
1.0
 40
1.0
 10
77.11660850518531
 20
91.82985952776453
 30
0.0
 10
77.11728306252023
 20
91.82765390092864
 30
0.0
 10
77.12291075021646
 20
91.80925282756643
 30
0.0
 10
77.14923223034327
 20
91.82348739028957
 30
0.0
 10
77.16166724718798
 20
91.86917316584056
 30
0.0
 10
77.16572491737304
 20
91.88408089066714
 30
0.0
  0
LINE
  5
CE
330
1F
100
AcDbEntity
  8
0
  6
Continuous
 62
     7
370
    15
100
AcDbLine
 10
77.1030615426
 20
91.867955689
 30
0.0
 11
77.1030615426
 21
131.2493111819
 31
0.0
  0
SPLINE
  5
CF
330
1F
100
AcDbEntity
  8
0
  6
Continuous
 62
     7
370
    15
100
AcDbSpline
210
0.0
220
0.0
230
1.0
 70
     8
 71
     3
 72
    10
 73
     6
 74
     0
 42
0.000000001
 43
0.00000001
 40
0.0
 40
0.0
 40
0.0
 40
0.0
 40
0.5
 40
0.5
 40
1.0
 40
1.0
 40
1.0
 40
1.0
 10
77.16572491737305
 20
131.2331859802286
 30
0.0
 10
77.1568206282643
 20
131.2789274994418
 30
0.0
 10
77.14030524807131
 20
131.2961183389108
 30
0.0
 10
77.11319730200972
 20
131.2957950619751
 30
0.0
 10
77.10306154264964
 20
131.2779175196786
 30
0.0
 10
77.10306154264964
 20
131.249311181926
 30
0.0
  0
SPLINE
  5
D0
330
1F
100
AcDbEntity
  8
0
  6
Continuous
 62
     7
370
    15
100
AcDbSpline
210
0.0
220
0.0
230
1.0
 70
     8
 71
     3
 72
    26
 73
    22
 74
     0
 42
0.000000001
 43
0.00000001
 40
0.0
 40
0.0
 40
0.0
 40
0.0
 40
0.249999999999996
 40
0.249999999999996
 40
0.3749999999999944
 40
0.3749999999999944
 40
0.4374999999999944
 40
0.4374999999999944
 40
0.4687499999999969
 40
0.4687499999999969
 40
0.4999999999999993
 40
0.4999999999999993
 40
0.5312500000000017
 40
0.5312500000000017
 40
0.5625000000000041
 40
0.5625000000000041
 40
0.625000000000004
 40
0.625000000000004
 40
0.7500000000000023
 40
0.7500000000000023
 40
1.0
 40
1.0
 40
1.0
 40
1.0
 10
77.92721518875415
 20
131.9487527690457
 30
0.0
 10
77.8886146658857
 20
131.8309780726903
 30
0.0
 10
77.84231766333141
 20
131.7065883865283
 30
0.0
 10
77.74837831489751
 20
131.5013690541748
 30
0.0
 10
77.71306684798405
 20
131.4297961877284
 30
0.0
 10
77.6468868722384
 20
131.313842955128
 30
0.0
 10
77.62234850557017
 20
131.2732584203177
 30
0.0
 10
77.57897576001635
 20
131.209116738446
 30
0.0
 10
77.56346735859117
 20
131.1872503131609
 30
0.0
 10
77.52842471400412
 20
131.1416560448177
 30
0.0
 10
77.50887442328437
 20
131.1179857538503
 30
0.0
 10
77.46694714291378
 20
131.0733691945104
 30
0.0
 10
77.44429503268215
 20
131.0524891819925
 30
0.0
 10
77.40332131859552
 20
131.0216157682417
 30
0.0
 10
77.38572201870011
 20
131.0117768984092
 30
0.0
 10
77.34109503284392
 20
130.992787282713
 30
0.0
 10
77.3205358101906
 20
130.9924629580596
 30
0.0
 10
77.26941037069393
 20
131.0016863989358
 30
0.0
 10
77.24849895770538
 20
131.0229332951528
 30
0.0
 10
77.19704905014443
 20
131.0969021739836
 30
0.0
 10
77.17938375083988
 20
131.1630202672983
 30
0.0
 10
77.16572491737305
 20
131.2331859802286
 30
0.0
  0
SPLINE
  5
D1
330
1F
100
AcDbEntity
  8
0
  6
Continuous
 62
     7
370
    15
100
AcDbSpline
210
0.0
220
0.0
230
1.0
 70
     8
 71
     3
 72
    10
 73
     6
 74
     0
 42
0.000000001
 43
0.00000001
 40
0.0
 40
0.0
 40
0.0
 40
0.0
 40
0.5
 40
0.5
 40
1.0
 40
1.0
 40
1.0
 40
1.0
 10
78.24301661223143
 20
132.4185873277355
 30
0.0
 10
78.17545735731318
 20
132.3508959349257
 30
0.0
 10
78.1118207019767
 20
132.2761887701721
 30
0.0
 10
78.00159994740484
 20
132.1172226377455
 30
0.0
 10
77.95478365418222
 20
132.0328673717375
 30
0.0
 10
77.92721518875415
 20
131.9487527690457
 30
0.0
  0
SPLINE
  5
D2
330
1F
100
AcDbEntity
  8
0
  6
Continuous
 62
     7
370
    15
100
AcDbSpline
210
0.0
220
0.0
230
1.0
 70
     8
 71
     3
 72
    10
 73
     6
 74
     0
 42
0.000000001
 43
0.00000001
 40
0.0
 40
0.0
 40
0.0
 40
0.0
 40
0.5
 40
0.5
 40
1.0
 40
1.0
 40
1.0
 40
1.0
 10
77.92721518875419
 20
91.1685141018499
 30
0.0
 10
77.95469260350815
 20
91.084677305382
 30
0.0
 10
78.00140123379758
 20
91.00036681779288
 30
0.0
 10
78.11167969654355
 20
90.84124558730616
 30
0.0
 10
78.17556723515744
 20
90.76626084321651
 30
0.0
 10
78.24301661224204
 20
90.69867954314958
 30
0.0
  0
SPLINE
  5
D3
330
1F
100
AcDbEntity
  8
0
  6
Continuous
 62
     7
370
    15
100
AcDbSpline
210
0.0
220
0.0
230
1.0
 70
     8
 71
     3
 72
    24
 73
    20
 74
     0
 42
0.000000001
 43
0.00000001
 40
0.0
 40
0.0
 40
0.0
 40
0.0
 40
0.2500000000000114
 40
0.2500000000000114
 40
0.3750000000000163
 40
0.3750000000000163
 40
0.4375000000000177
 40
0.4375000000000177
 40
0.4687500000000166
 40
0.4687500000000166
 40
0.5000000000000155
 40
0.5000000000000155
 40
0.5625000000000157
 40
0.5625000000000157
 40
0.6250000000000157
 40
0.6250000000000157
 40
0.7500000000000099
 40
0.7500000000000099
 40
1.0
 40
1.0
 40
1.0
 40
1.0
 10
77.16572491737305
 20
91.88408089066714
 30
0.0
 10
77.17947803604326
 20
91.9547309486574
 30
0.0
 10
77.19725060344915
 20
92.02132906142232
 30
0.0
 10
77.24950169500451
 20
92.09542708165554
 30
0.0
 10
77.27053677058606
 20
92.11668488881709
 30
0.0
 10
77.32343717821452
 20
92.12483081496332
 30
0.0
 10
77.34454285109244
 20
92.12389101156757
 30
0.0
 10
77.39059501977039
 20
92.10287501999021
 30
0.0
 10
77.40896549175378
 20
92.0919662138826
 30
0.0
 10
77.45051712681948
 20
92.0593313029352
 30
0.0
 10
77.4730837995764
 20
92.03783932256384
 30
0.0
 10
77.53586481603644
 20
91.96937337897752
 30
0.0
 10
77.5689945770043
 20
91.92329892077244
 30
0.0
 10
77.62591226348933
 20
91.83829103243778
 30
0.0
 10
77.65009828899308
 20
91.79801073125638
 30
0.0
 10
77.71530623937284
 20
91.68307450479047
 30
0.0
 10
77.7500222995641
 20
91.61249151964344
 30
0.0
 10
77.84323756989497
 20
91.40828576056484
 30
0.0
 10
77.88891010525565
 20
91.28538737823747
 30
0.0
 10
77.92721518875419
 20
91.16851410184992
 30
0.0
  0
LINE
  5
D4
330
1F
100
AcDbEntity
  8
0
  6
Continuous
 62
     7
370
    15
100
AcDbLine
 10
134.3530615426
 20
142.0258289086
 30
0.0
 11
130.3949943741
 21
142.0258289086
 31
0.0
  0
LINE
  5
D5
330
1F
100
AcDbEntity
  8
0
  6
Continuous
 62
     7
370
    15
100
AcDbLine
 10
130.3949943741
 20
136.0173230978
 30
0.0
 11
134.3530615426
 21
136.0173230978
 31
0.0
  0
LINE
  5
D6
330
1F
100
AcDbEntity
  8
0
  6
Continuous
 62
     7
370
    15
100
AcDbLine
 10
130.3949943741
 20
136.0173230978
 30
0.0
 11
130.3949943741
 21
142.0258289086
 31
0.0
  0
SPLINE
  5
D7
330
1F
100
AcDbEntity
  8
0
  6
Continuous
 62
     7
370
    15
100
AcDbSpline
210
0.0
220
0.0
230
1.0
 70
     8
 71
     3
 72
     8
 73
     4
 74
     0
 42
0.000000001
 43
0.00000001
 40
0.0
 40
0.0
 40
0.0
 40
0.0
 40
1.0
 40
1.0
 40
1.0
 40
1.0
 10
130.3949943741387
 20
142.0258289086121
 30
0.0
 10
129.8998543447744
 20
141.1391492604319
 30
0.0
 10
129.4057716394954
 20
140.2518866247459
 30
0.0
 10
128.9130615426496
 20
139.3638676266195
 30
0.0
  0
SPLINE
  5
D8
330
1F
100
AcDbEntity
  8
0
  6
Continuous
 62
     7
370
    15
100
AcDbSpline
210
0.0
220
0.0
230
1.0
 70
     8
 71
     3
 72
     8
 73
     4
 74
     0
 42
0.000000001
 43
0.00000001
 40
0.0
 40
0.0
 40
0.0
 40
0.0
 40
1.0
 40
1.0
 40
1.0
 40
1.0
 10
128.9130615426496
 20
132.6087771030312
 30
0.0
 10
129.3923396932395
 20
133.7497883328838
 30
0.0
 10
129.8879075323794
 20
134.8861727436516
 30
0.0
 10
130.3949943741387
 20
136.0173230978153
 30
0.0
  0
LINE
  5
D9
330
1F
100
AcDbEntity
  8
0
  6
Continuous
 62
     7
370
    15
100
AcDbLine
 10
128.9130615426
 20
132.608777103
 30
0.0
 11
128.9130615426
 21
139.3638676266
 31
0.0
  0
SPLINE
  5
DA
330
1F
100
AcDbEntity
  8
0
  6
Continuous
 62
     7
370
    15
100
AcDbSpline
210
0.0
220
0.0
230
1.0
 70
     8
 71
     3
 72
    10
 73
     6
 74
     0
 42
0.000000001
 43
0.00000001
 40
0.0
 40
0.0
 40
0.0
 40
0.0
 40
0.5
 40
0.5
 40
1.0
 40
1.0
 40
1.0
 40
1.0
 10
134.9530615426496
 20
141.4050737592118
 30
0.0
 10
134.9530615426496
 20
141.5654790255626
 30
0.0
 10
134.8908237115428
 20
141.7245408385512
 30
0.0
 10
134.6716887878002
 20
141.9554533041815
 30
0.0
 10
134.5141000928084
 20
142.0258289086121
 30
0.0
 10
134.3530615426496
 20
142.0258289086121
 30
0.0
  0
SPLINE
  5
DB
330
1F
100
AcDbEntity
  8
0
  6
Continuous
 62
     7
370
    15
100
AcDbSpline
210
0.0
220
0.0
230
1.0
 70
     8
 71
     3
 72
    12
 73
     8
 74
     0
 42
0.000000001
 43
0.00000001
 40
0.0
 40
0.0
 40
0.0
 40
0.0
 40
0.249999999999998
 40
0.249999999999998
 40
0.499999999999996
 40
0.499999999999996
 40
1.0
 40
1.0
 40
1.0
 40
1.0
 10
134.3530615426496
 20
136.0173230978153
 30
0.0
 10
134.4442612644753
 20
136.0173230978153
 30
0.0
 10
134.5348562736113
 20
135.9891033992274
 30
0.0
 10
134.688269000058
 20
135.8946603919793
 30
0.0
 10
134.7534778673817
 20
135.828373415274
 30
0.0
 10
134.9062623967216
 20
135.6027485919857
 30
0.0
 10
134.9530615426497
 20
135.4203223289531
 30
0.0
 10
134.9530615426497
 20
135.2395856967063
 30
0.0
  0
LINE
  5
DC
330
1F
100
AcDbEntity
  8
0
  6
Continuous
 62
     7
370
    15
100
AcDbLine
 10
134.9530615426
 20
135.2395856967
 30
0.0
 11
134.9530615426
 21
141.4050737592
 31
0.0
  0
LINE
  5
DD
330
1F
100
AcDbEntity
  8
0
  6
Continuous
 62
     7
370
    15
100
AcDbLine
 10
128.9130615426
 20
131.6945000669
 30
0.0
 11
128.9130615426
 21
132.608777103
 31
0.0
  0
LINE
  5
DE
330
1F
100
AcDbEntity
  8
0
  6
Continuous
 62
     7
370
    15
100
AcDbLine
 10
134.9530615426
 20
135.2395856967
 30
0.0
 11
134.9530615426
 21
131.4086334354
 31
0.0
  0
SPLINE
  5
DF
330
1F
100
AcDbEntity
  8
0
  6
Continuous
 62
     7
370
    15
100
AcDbSpline
210
0.0
220
0.0
230
1.0
 70
     8
 71
     3
 72
     8
 73
     4
 74
     0
 42
0.000000001
 43
0.00000001
 40
0.0
 40
0.0
 40
0.0
 40
0.0
 40
1.0
 40
1.0
 40
1.0
 40
1.0
 10
123.6111287111606
 20
136.0173230978153
 30
0.0
 10
124.1182155529199
 20
134.8861727436516
 30
0.0
 10
124.6137833920598
 20
133.7497883328838
 30
0.0
 10
125.0930615426496
 20
132.6087771030312
 30
0.0
  0
LINE
  5
E0
330
1F
100
AcDbEntity
  8
0
  6
Continuous
 62
     7
370
    15
100
AcDbLine
 10
125.0930615426
 20
132.608777103
 30
0.0
 11
125.0930615426
 21
131.6945000669
 31
0.0
  0
SPLINE
  5
E1
330
1F
100
AcDbEntity
  8
0
  6
Continuous
 62
     7
370
    15
100
AcDbSpline
210
0.0
220
0.0
230
1.0
 70
     8
 71
     3
 72
     8
 73
     4
 74
     0
 42
0.000000001
 43
0.00000001
 40
0.0
 40
0.0
 40
0.0
 40
0.0
 40
1.0
 40
1.0
 40
1.0
 40
1.0
 10
125.0930615426497
 20
139.3638676266195
 30
0.0
 10
124.6003514458039
 20
140.2518866247459
 30
0.0
 10
124.1062687405249
 20
141.1391492604319
 30
0.0
 10
123.6111287111606
 20
142.0258289086121
 30
0.0
  0
LINE
  5
E2
330
1F
100
AcDbEntity
  8
0
  6
Continuous
 62
     7
370
    15
100
AcDbLine
 10
125.0930615426
 20
132.608777103
 30
0.0
 11
125.0930615426
 21
139.3638676266
 31
0.0
  0
SPLINE
  5
E3
330
1F
100
AcDbEntity
  8
0
  6
Continuous
 62
     7
370
    15
100
AcDbSpline
210
0.0
220
0.0
230
1.0
 70
    11
 71
     3
 72
    78
 73
    74
 74
     0
 42
0.000000001
 43
0.00000001
 40
0.0
 40
0.0
 40
0.0
 40
0.0
 40
0.0312500000000009
 40
0.0312500000000009
 40
0.0625000000000018
 40
0.0625000000000018
 40
0.0937500000000027
 40
0.0937500000000027
 40
0.1250000000000036
 40
0.1250000000000036
 40
0.1562500000000045
 40
0.1562500000000045
 40
0.1875000000000054
 40
0.1875000000000054
 40
0.2187500000000064
 40
0.2187500000000064
 40
0.2500000000000073
 40
0.2500000000000073
 40
0.2812500000000082
 40
0.2812500000000082
 40
0.2968750000000082
 40
0.2968750000000082
 40
0.3125000000000082
 40
0.3125000000000082
 40
0.3437500000000077
 40
0.3437500000000077
 40
0.3593750000000074
 40
0.3593750000000074
 40
0.3750000000000072
 40
0.3750000000000072
 40
0.4062500000000066
 40
0.4062500000000066
 40
0.4375000000000061
 40
0.4375000000000061
 40
0.4687500000000056
 40
0.4687500000000056
 40
0.500000000000005
 40
0.500000000000005
 40
0.5312500000000044
 40
0.5312500000000044
 40
0.5625000000000039
 40
0.5625000000000039
 40
0.5937500000000033
 40
0.5937500000000033
 40
0.6250000000000028
 40
0.6250000000000028
 40
0.6562500000000023
 40
0.6562500000000023
 40
0.6875000000000018
 40
0.6875000000000018
 40
0.7187500000000012
 40
0.7187500000000012
 40
0.7500000000000007
 40
0.7500000000000007
 40
0.7812500000000001
 40
0.7812500000000001
 40
0.8124999999999996
 40
0.8124999999999996
 40
0.8281249999999996
 40
0.8281249999999996
 40
0.8437499999999996
 40
0.8437499999999996
 40
0.8593749999999996
 40
0.8593749999999996
 40
0.8749999999999996
 40
0.8749999999999996
 40
0.9062499999999998
 40
0.9062499999999998
 40
0.9374999999999999
 40
0.9374999999999999
 40
0.96875
 40
0.96875
 40
1.0
 40
1.0
 40
1.0
 40
1.0
 10
222.6613813006081
 20
114.7510284524807
 30
0.0
 10
222.9044682214171
 20
114.9327331074857
 30
0.0
 10
223.1606464953011
 20
115.0894805843031
 30
0.0
 10
223.6969950555692
 20
115.358615676458
 30
0.0
 10
223.9781346766244
 20
115.4712321705585
 30
0.0
 10
224.5611743020681
 20
115.6506707784743
 30
0.0
 10
224.8568773779099
 20
115.7157447938013
 30
0.0
 10
225.4563498469358
 20
115.7991719147758
 30
0.0
 10
225.7617733964884
 20
115.817464253471
 30
0.0
 10
226.3738085543685
 20
115.8053409063006
 30
0.0
 10
226.6754364541216
 20
115.7752983022467
 30
0.0
 10
227.2702034920029
 20
115.6684659384371
 30
0.0
 10
227.5647792066823
 20
115.5911817884853
 30
0.0
 10
228.1387258421798
 20
115.3885373380731
 30
0.0
 10
228.4129657311393
 20
115.2652747045195
 30
0.0
 10
228.936286774843
 20
114.9742058866653
 30
0.0
 10
229.1865911352016
 20
114.8054795452909
 30
0.0
 10
229.654147657141
 20
114.4212557710547
 30
0.0
 10
229.8660318624668
 20
114.2105160450456
 30
0.0
 10
230.1496120397452
 20
113.8644770543251
 30
0.0
 10
230.238387096253
 20
113.7441050344107
 30
0.0
 10
230.4035535066964
 20
113.4924152095864
 30
0.0
 10
230.4804067767679
 20
113.3601511475288
 30
0.0
 10
230.6865689226913
 20
112.9522171150631
 30
0.0
 10
230.7911123495382
 20
112.6680254901137
 30
0.0
 10
230.8944162951659
 20
112.2215885116418
 30
0.0
 10
230.9197841716566
 20
112.0686952968207
 30
0.0
 10
230.9503508070107
 20
111.7649764044849
 30
0.0
 10
230.9558742672996
 20
111.6131284677429
 30
0.0
 10
230.9434559365706
 20
111.1576188642178
 30
0.0
 10
230.8950688552093
 20
110.8499821285803
 30
0.0
 10
230.7266992805936
 20
110.2654806397124
 30
0.0
 10
230.6063483324064
 20
109.9837889337372
 30
0.0
 10
230.3052826011735
 20
109.4548465468183
 30
0.0
 10
230.1274412172388
 20
109.2112472224813
 30
0.0
 10
229.7227134718093
 20
108.7606863232275
 30
0.0
 10
229.4974367098
 20
108.5563295636219
 30
0.0
 10
229.016583598011
 20
108.1945477601698
 30
0.0
 10
228.7571554529865
 20
108.0343187059952
 30
0.0
 10
228.2158761476336
 20
107.7613877584055
 30
0.0
 10
227.93574865328
 20
107.6490257023903
 30
0.0
 10
227.3571229577445
 20
107.4697605910494
 30
0.0
 10
227.0559038156138
 20
107.4027149780623
 30
0.0
 10
226.452898382679
 20
107.3182678520733
 30
0.0
 10
226.1501463748491
 20
107.3001037808393
 30
0.0
 10
225.5421610712441
 20
107.3113255035739
 30
0.0
 10
225.23422827088
 20
107.3414189930177
 30
0.0
 10
224.6355231930693
 20
107.4487860121834
 30
0.0
 10
224.3433766164481
 20
107.5256179532183
 30
0.0
 10
223.7734510615898
 20
107.7263450568155
 30
0.0
 10
223.4931643248954
 20
107.8518581609914
 30
0.0
 10
222.9663854171046
 20
108.1451113373491
 30
0.0
 10
222.7185141921081
 20
108.3127398849005
 30
0.0
 10
222.2552093922763
 20
108.6932378841192
 30
0.0
 10
222.0376698253494
 20
108.9089815492832
 30
0.0
 10
221.6559272770583
 20
109.3762674911375
 30
0.0
 10
221.4902986906261
 20
109.6279309614873
 30
0.0
 10
221.2847765230784
 20
110.0367202752955
 30
0.0
 10
221.2238731061041
 20
110.1778429296468
 30
0.0
 10
221.1206915229234
 20
110.4630108358157
 30
0.0
 10
221.0779154532252
 20
110.6079876861077
 30
0.0
 10
221.0104264326336
 20
110.9028692903597
 30
0.0
 10
220.9857095165043
 20
111.0527729536495
 30
0.0
 10
220.9554290103134
 20
111.3578203078702
 30
0.0
 10
220.9500878882077
 20
111.5130148160122
 30
0.0
 10
220.9638242828783
 20
111.9710747565451
 30
0.0
 10
221.0116494095957
 20
112.2718310817345
 30
0.0
 10
221.1834849354751
 20
112.8633360474982
 30
0.0
 10
221.3038645155164
 20
113.142021350656
 30
0.0
 10
221.6057099554367
 20
113.6695763824679
 30
0.0
 10
221.787127899782
 20
113.9166496208712
 30
0.0
 10
222.1915223159756
 20
114.3643330887281
 30
0.0
 10
222.4182943797992
 20
114.5693237974757
 30
0.0
 10
222.6613813006081
 20
114.7510284524807
 30
0.0
  0
LINE
  5
E4
330
1F
100
AcDbEntity
  8
0
  6
Continuous
 62
     7
370
    15
100
AcDbLine
 10
234.8030615426
 20
111.5586334354
 30
0.0
 11
234.8030615426
 21
99.0586334354
 31
0.0
  0
LINE
  5
E5
330
1F
100
AcDbEntity
  8
0
  6
Continuous
 62
     7
370
    15
100
AcDbLine
 10
234.8030615426
 20
124.0586334354
 30
0.0
 11
234.8030615426
 21
111.5586334354
 31
0.0
  0
LINE
  5
E6
330
1F
100
AcDbEntity
  8
0
  6
Continuous
 62
     7
370
    15
100
AcDbLine
 10
235.0030615426
 20
111.5586334354
 30
0.0
 11
235.0030615426
 21
99.2586334354
 31
0.0
  0
LINE
  5
E7
330
1F
100
AcDbEntity
  8
0
  6
Continuous
 62
     7
370
    15
100
AcDbLine
 10
235.0030615426
 20
123.8586334354
 30
0.0
 11
235.0030615426
 21
111.5586334354
 31
0.0
  0
CIRCLE
  5
E8
330
1F
100
AcDbEntity
  8
0
  6
Continuous
 62
     7
370
    15
100
AcDbCircle
 10
225.9530615426
 20
111.5586334354
 30
0.0
 40
3.5
  0
CIRCLE
  5
E9
330
1F
100
AcDbEntity
  8
0
  6
HIDDEN
 62
     7
370
     0
100
AcDbCircle
 10
225.9530615426
 20
111.5586334354
 30
0.0
 40
3.999999999999995
  0
LINE
  5
EA
330
1F
100
AcDbEntity
  8
0
  6
HIDDEN
 62
     7
370
     0
100
AcDbLine
 10
123.6111287112
 20
136.0173230978
 30
0.0
 11
123.6111287112
 21
131.4086334354
 31
0.0
  0
LINE
  5
EB
330
1F
100
AcDbEntity
  8
0
  6
HIDDEN
 62
     7
370
     0
100
AcDbLine
 10
96.9982117472
 20
88.0340338126
 30
0.0
 11
96.4640663181
 21
87.9794192131
 31
0.0
  0
LINE
  5
EC
330
1F
100
AcDbEntity
  8
0
  6
HIDDEN
 62
     7
370
     0
100
AcDbLine
 10
96.226412646
 20
135.161966616
 30
0.0
 11
96.9981190269
 21
135.0832164654
 31
0.0
  0
SPLINE
  5
ED
330
1F
100
AcDbEntity
  8
0
  6
HIDDEN
 62
     7
370
     0
100
AcDbSpline
210
0.0
220
0.0
230
1.0
 70
     8
 71
     3
 72
    10
 73
     6
 74
     0
 42
0.000000001
 43
0.00000001
 40
0.0
 40
0.0
 40
0.0
 40
0.0
 40
0.4475314639371658
 40
0.8950461707744203
 40
1.0
 40
1.0
 40
1.0
 40
1.0
 10
102.7580635442512
 20
131.3961619112643
 30
0.0
 10
103.0047715997001
 20
131.4256745243857
 30
0.0
 10
103.4981784730092
 20
131.4846986455758
 30
0.0
 10
103.787194973389
 20
131.4986366433266
 30
0.0
 10
103.7268046894961
 20
131.494744676491
 30
0.0
 10
103.7153321962611
 20
131.4940053098196
 30
0.0
  0
SPLINE
  5
EE
330
1F
100
AcDbEntity
  8
0
  6
HIDDEN
 62
     7
370
     0
100
AcDbSpline
210
0.0
220
0.0
230
1.0
 70
     8
 71
     3
 72
    10
 73
     6
 74
     0
 42
0.000000001
 43
0.00000001
 40
0.0
 40
0.0
 40
0.0
 40
0.0
 40
0.3454818256816951
 40
0.796699208533138
 40
1.0
 40
1.0
 40
1.0
 40
1.0
 10
103.7153418330598
 20
91.62326090599032
 30
0.0
 10
103.7057818686887
 20
91.6238165057333
 30
0.0
 10
103.6837360894845
 20
91.62509774787858
 30
0.0
 10
103.2667910940251
 20
91.65505538389141
 30
0.0
 10
102.8786306075072
 20
91.705451387538
 30
0.0
 10
102.7580635442512
 20
91.7211049596314
 30
0.0
  0
SPLINE
  5
EF
330
1F
100
AcDbEntity
  8
0
  6
HIDDEN
 62
     7
370
     0
100
AcDbSpline
210
0.0
220
0.0
230
1.0
 70
     8
 71
     3
 72
    15
 73
    11
 74
     0
 42
0.000000001
 43
0.00000001
 40
0.0
 40
0.0
 40
0.0
 40
0.0
 40
0.1409172169897704
 40
0.2818898291171903
 40
0.4212989265166054
 40
0.5593768372264384
 40
0.6988856205980564
 40
0.8403671979046404
 40
0.9813164454670262
 40
1.0
 40
1.0
 40
1.0
 40
1.0
 10
102.7580635442512
 20
91.7211049596314
 30
0.0
 10
102.4420218579787
 20
91.76145877695302
 30
0.0
 10
101.8098142481467
 20
91.84218227484784
 30
0.0
 10
100.5756511264694
 20
91.91873737245012
 30
0.0
 10
99.30492912561093
 20
91.91406132131108
 30
0.0
 10
98.11636972058346
 20
91.83326530957886
 30
0.0
 10
97.12324704780242
 20
91.70886851306713
 30
0.0
 10
96.48383804150582
 20
91.60246497440502
 30
0.0
 10
96.20281793492228
 20
91.54938431372783
 30
0.0
 10
96.26937867261546
 20
91.5616403537421
 30
0.0
 10
96.2771689961337
 20
91.56307481075193
 30
0.0
  0
SPLINE
  5
F0
330
1F
100
AcDbEntity
  8
0
  6
HIDDEN
 62
     7
370
     0
100
AcDbSpline
210
0.0
220
0.0
230
1.0
 70
     8
 71
     3
 72
    15
 73
    11
 74
     0
 42
0.000000001
 43
0.00000001
 40
0.0
 40
0.0
 40
0.0
 40
0.0
 40
0.1201202395113822
 40
0.2584739316900687
 40
0.3987301965958633
 40
0.5404022890432695
 40
0.6807395403003637
 40
0.8190356063860869
 40
0.9577823106998834
 40
1.0
 40
1.0
 40
1.0
 40
1.0
 10
96.2771689961337
 20
131.5541920601438
 30
0.0
 10
96.29787813260418
 20
131.5501674662902
 30
0.0
 10
96.34243991459196
 20
131.5415073720293
 30
0.0
 10
96.90487952046468
 20
131.4422162454206
 30
0.0
 10
97.798341732786
 20
131.3182986554394
 30
0.0
 10
98.95732088697817
 20
131.218588218618
 30
0.0
 10
100.2303577671035
 20
131.1914497295423
 30
0.0
 10
101.4646430417471
 20
131.2467885637062
 30
0.0
 10
102.2926058385131
 20
131.3332671626904
 30
0.0
 10
102.6700163831771
 20
131.3842645809803
 30
0.0
 10
102.7580635442513
 20
131.3961619112643
 30
0.0
  0
LINE
  5
F1
330
1F
100
AcDbEntity
  8
0
  6
HIDDEN
 62
     7
370
     0
100
AcDbLine
 10
90.0070361389
 20
94.5586334354
 30
0.0
 11
90.0070361389
 21
128.5586334354
 31
0.0
  0
SPLINE
  5
F2
330
1F
100
AcDbEntity
  8
0
  6
HIDDEN
 62
     7
370
     0
100
AcDbSpline
210
0.0
220
0.0
230
1.0
 70
     8
 71
     3
 72
     8
 73
     4
 74
     0
 42
0.000000001
 43
0.00000001
 40
0.0
 40
0.0
 40
0.0
 40
0.0
 40
0.0011559732291307
 40
0.0011559732291307
 40
0.0011559732291307
 40
0.0011559732291307
 10
77.10306154264964
 20
113.5584740540745
 30
0.0
 10
77.43639611771695
 20
113.554506774275
 30
0.0
 10
77.76972730874371
 20
113.5503268917041
 30
0.0
 10
78.10306154264966
 20
113.545761738296
 30
0.0
  0
SPLINE
  5
F3
330
1F
100
AcDbEntity
  8
0
  6
HIDDEN
 62
     7
370
     0
100
AcDbSpline
210
0.0
220
0.0
230
1.0
 70
     8
 71
     3
 72
     8
 73
     4
 74
     0
 42
0.000000001
 43
0.00000001
 40
0.0
 40
0.0
 40
0.0
 40
0.0
 40
0.0011564765856722
 40
0.0011564765856722
 40
0.0011564765856722
 40
0.0011564765856722
 10
78.10306154264966
 20
109.5619331332307
 30
0.0
 10
77.7697536120808
 20
109.5610579776477
 30
0.0
 10
77.4364183796886
 20
109.5600031263965
 30
0.0
 10
77.10306154264964
 20
109.5588320393592
 30
0.0
  0
LINE
  5
F4
330
1F
100
AcDbEntity
  8
0
  6
HIDDEN
 62
     7
370
     0
100
AcDbLine
 10
116.6628875112
 20
94.5586334354
 30
0.0
 11
116.6628875112
 21
128.5586334354
 31
0.0
  0
LINE
  5
F5
330
1F
100
AcDbEntity
  8
0
  6
HIDDEN
 62
     7
370
     0
100
AcDbLine
 10
118.9530615426
 20
95.8336334354
 30
0.0
 11
118.9530615426
 21
127.2836334354
 31
0.0
  0
SPLINE
  5
F6
330
1F
100
AcDbEntity
  8
0
  6
HIDDEN
 62
     7
370
     0
100
AcDbSpline
210
0.0
220
0.0
230
1.0
 70
     8
 71
     3
 72
    16
 73
    12
 74
     0
 42
0.000000001
 43
0.00000001
 40
0.0
 40
0.0
 40
0.0
 40
0.0
 40
0.124999999999998
 40
0.124999999999998
 40
0.249999999999996
 40
0.249999999999996
 40
0.4999999999999973
 40
0.4999999999999973
 40
0.7499999999999987
 40
0.7499999999999987
 40
1.0
 40
1.0
 40
1.0
 40
1.0
 10
85.80306154264964
 20
95.7571429994162
 30
0.0
 10
85.89818329731547
 20
95.7571429994162
 30
0.0
 10
85.99151336604355
 20
95.7533271660234
 30
0.0
 10
86.17477512678155
 20
95.73855661329358
 30
0.0
 10
86.26565284233855
 20
95.72739856531801
 30
0.0
 10
86.5224545398583
 20
95.6849272951763
 30
0.0
 10
86.6775219047303
 20
95.64388109797349
 30
0.0
 10
86.93126836628491
 20
95.5487349813916
 30
0.0
 10
87.03213881795277
 20
95.49397224731001
 30
0.0
 10
87.1673852326476
 20
95.38271112340615
 30
0.0
 10
87.20306154264965
 20
95.32554138607746
 30
0.0
 10
87.20306154264965
 20
95.27111981304373
 30
0.0
  0
SPLINE
  5
F7
330
1F
100
AcDbEntity
  8
0
  6
HIDDEN
 62
     7
370
     0
100
AcDbSpline
210
0.0
220
0.0
230
1.0
 70
     8
 71
     3
 72
     8
 73
     4
 74
     0
 42
0.000000001
 43
0.00000001
 40
0.0
 40
0.0
 40
0.0
 40
0.0
 40
1.0
 40
1.0
 40
1.0
 40
1.0
 10
78.40306154274228
 20
97.90194594549845
 30
0.0
 10
78.4030615427442
 20
97.01804880318151
 30
0.0
 10
78.38958091683364
 20
96.30346555811956
 30
0.0
 10
78.38822954864254
 20
95.7571429994162
 30
0.0
  0
LINE
  5
F8
330
1F
100
AcDbEntity
  8
0
  6
HIDDEN
 62
     7
370
     0
100
AcDbLine
 10
78.1030615426
 20
101.9578066505
 30
0.0
 11
78.1030615426
 21
98.9268562049
 31
0.0
  0
SPLINE
  5
F9
330
1F
100
AcDbEntity
  8
0
  6
HIDDEN
 62
     7
370
     0
100
AcDbSpline
210
0.0
220
0.0
230
1.0
 70
     8
 71
     3
 72
    10
 73
     6
 74
     0
 42
0.000000001
 43
0.00000001
 40
0.0
 40
0.0
 40
0.0
 40
0.0
 40
0.5
 40
0.5
 40
1.0
 40
1.0
 40
1.0
 40
1.0
 10
78.4030615427362
 20
103.325647059805
 30
0.0
 10
78.4030615427362
 20
103.0836630935906
 30
0.0
 10
78.37491151397774
 20
102.8493206659321
 30
0.0
 10
78.27132160096252
 20
102.3939456461236
 30
0.0
 10
78.19469289216893
 20
102.1723410842061
 30
0.0
 10
78.10306154264966
 20
101.9578066504668
 30
0.0
  0
LINE
  5
FA
330
1F
100
AcDbEntity
  8
0
  6
HIDDEN
 62
     7
370
     0
100
AcDbLine
 10
78.4030615427
 20
115.163267057
 30
0.0
 11
78.4030615427
 21
103.3256470598
 31
0.0
  0
SPLINE
  5
FB
330
1F
100
AcDbEntity
  8
0
  6
HIDDEN
 62
     7
370
     0
100
AcDbSpline
210
0.0
220
0.0
230
1.0
 70
     8
 71
     3
 72
     8
 73
     4
 74
     0
 42
0.000000001
 43
0.00000001
 40
0.0
 40
0.0
 40
0.0
 40
0.0
 40
1.0
 40
1.0
 40
1.0
 40
1.0
 10
78.10306154264966
 20
121.1655727489534
 30
0.0
 10
78.28409300738846
 20
120.7334652654789
 30
0.0
 10
78.40306154274182
 20
120.2793198618301
 30
0.0
 10
78.40306154273614
 20
119.7916198110598
 30
0.0
  0
LINE
  5
FC
330
1F
100
AcDbEntity
  8
0
  6
HIDDEN
 62
     7
370
     0
100
AcDbLine
 10
78.1030615426
 20
124.1987757489
 30
0.0
 11
78.1030615426
 21
121.165572749
 31
0.0
  0
SPLINE
  5
FD
330
1F
100
AcDbEntity
  8
0
  6
HIDDEN
 62
     7
370
     0
100
AcDbSpline
210
0.0
220
0.0
230
1.0
 70
     8
 71
     3
 72
    10
 73
     6
 74
     0
 42
0.000000001
 43
0.00000001
 40
0.0
 40
0.0
 40
0.0
 40
0.0
 40
0.5
 40
0.5
 40
1.0
 40
1.0
 40
1.0
 40
1.0
 10
78.4030615427552
 20
125.2153209253677
 30
0.0
 10
78.4030615427534
 20
125.0506845797744
 30
0.0
 10
78.37590287232837
 20
124.8835293569879
 30
0.0
 10
78.27013787826874
 20
124.5449063513255
 30
0.0
 10
78.19372309074792
 20
124.3726345751687
 30
0.0
 10
78.10306154264967
 20
124.1987757489182
 30
0.0
  0
SPLINE
  5
FE
330
1F
100
AcDbEntity
  8
0
  6
HIDDEN
 62
     7
370
     0
100
AcDbSpline
210
0.0
220
0.0
230
1.0
 70
     8
 71
     3
 72
    18
 73
    14
 74
     0
 42
0.000000001
 43
0.00000001
 40
0.0
 40
0.0
 40
0.0
 40
0.0
 40
0.2500000000000033
 40
0.2500000000000033
 40
0.3750000000000029
 40
0.3750000000000029
 40
0.5000000000000026
 40
0.5000000000000026
 40
0.6250000000000022
 40
0.6250000000000022
 40
0.7500000000000018
 40
0.7500000000000018
 40
1.0
 40
1.0
 40
1.0
 40
1.0
 10
83.20306154264964
 20
127.846147057852
 30
0.0
 10
83.20306154264964
 20
127.7916725372998
 30
0.0
 10
83.16815085125748
 20
127.7352914779473
 30
0.0
 10
83.06614154992442
 20
127.6512146370938
 30
0.0
 10
83.02450519524632
 20
127.6238809331029
 30
0.0
 10
82.92609939975756
 20
127.5709270175039
 30
0.0
 10
82.86855618805328
 20
127.5450396637868
 30
0.0
 10
82.74125801448034
 20
127.4972621189535
 30
0.0
 10
82.67167070972286
 20
127.4753142007756
 30
0.0
 10
82.52023646456792
 20
127.4358816358629
 30
0.0
 10
82.43755256147396
 20
127.418325386637
 30
0.0
 10
82.18144109943592
 20
127.3758866212165
 30
0.0
 10
81.99352609554792
 20
127.3601238714795
 30
0.0
 10
81.80306154264964
 20
127.3601238714795
 30
0.0
  0
LINE
  5
FF
330
1F
100
AcDbEntity
  8
0
  6
HIDDEN
 62
     7
370
     0
100
AcDbLine
 10
81.8030615426
 20
127.3601238715
 30
0.0
 11
78.4030615428
 21
127.3601238715
 31
0.0
  0
LINE
  5
100
330
1F
100
AcDbEntity
  8
0
  6
HIDDEN
 62
     7
370
     0
100
AcDbLine
 10
78.334092556
 20
95.7571429994
 30
0.0
 11
85.8030615426
 21
95.7571429994
 31
0.0
  0
SPLINE
  5
101
330
1F
100
AcDbEntity
  8
0
  6
HIDDEN
 62
     7
370
     0
100
AcDbSpline
210
0.0
220
0.0
230
1.0
 70
     8
 71
     3
 72
    22
 73
    18
 74
     0
 42
0.000000001
 43
0.00000001
 40
0.0
 40
0.0
 40
0.0
 40
0.0
 40
0.1249999999999998
 40
0.1249999999999998
 40
0.2499999999999997
 40
0.2499999999999997
 40
0.4999999999999991
 40
0.4999999999999991
 40
0.562499999999999
 40
0.562499999999999
 40
0.624999999999999
 40
0.624999999999999
 40
0.7499999999999993
 40
0.7499999999999993
 40
0.8749999999999997
 40
0.8749999999999997
 40
1.0
 40
1.0
 40
1.0
 40
1.0
 10
78.33409255600755
 20
95.7571429994162
 30
0.0
 10
78.32101016327921
 20
96.01224870956388
 30
0.0
 10
78.30779059983938
 20
96.3054069686678
 30
0.0
 10
78.28534342204527
 20
96.96770743429259
 30
0.0
 10
78.27586495502075
 20
97.33798135490397
 30
0.0
 10
78.25666699408423
 20
98.56053815801775
 30
0.0
 10
78.25778076708109
 20
99.49767708414963
 30
0.0
 10
78.2766915600342
 20
100.8175483136646
 30
0.0
 10
78.28132108789319
 20
101.0890502226409
 30
0.0
 10
78.29180230763916
 20
101.6474350574432
 30
0.0
 10
78.29759756892359
 20
101.9345579133828
 30
0.0
 10
78.31590678982852
 20
102.8071471677545
 30
0.0
 10
78.32994172410886
 20
103.4076028441104
 30
0.0
 10
78.35939889624568
 20
104.6450773366064
 30
0.0
 10
78.37495458722726
 20
105.2820934932499
 30
0.0
 10
78.39874913722416
 20
106.5935820909345
 30
0.0
 10
78.40676818936952
 20
107.269704702595
 30
0.0
 10
78.40306154264964
 20
107.9539998138798
 30
0.0
  0
LINE
  5
102
330
1F
100
AcDbEntity
  8
0
  6
HIDDEN
 62
     7
370
     0
100
AcDbLine
 10
78.4030615428
 20
115.163267057
 30
0.0
 11
78.4030615428
 21
127.3601238715
 31
0.0
  0
SPLINE
  5
103
330
1F
100
AcDbEntity
  8
0
  6
HIDDEN
 62
     7
370
     0
100
AcDbSpline
210
0.0
220
0.0
230
1.0
 70
     8
 71
     3
 72
    10
 73
     6
 74
     0
 42
0.000000001
 43
0.00000001
 40
0.0
 40
0.0
 40
0.0
 40
0.0
 40
0.5
 40
0.5
 40
1.0
 40
1.0
 40
1.0
 40
1.0
 10
78.40306154264964
 20
107.9539998138647
 30
0.0
 10
78.40306154264945
 20
108.2279149619389
 30
0.0
 10
78.37730231278161
 20
108.4988565406688
 30
0.0
 10
78.27409638004848
 20
109.0345476222714
 30
0.0
 10
78.19675821617334
 20
109.3002944257933
 30
0.0
 10
78.10306154264964
 20
109.5619331332307
 30
0.0
  0
SPLINE
  5
104
330
1F
100
AcDbEntity
  8
0
  6
HIDDEN
 62
     7
370
     0
100
AcDbSpline
210
0.0
220
0.0
230
1.0
 70
     8
 71
     3
 72
    10
 73
     6
 74
     0
 42
0.000000001
 43
0.00000001
 40
0.0
 40
0.0
 40
0.0
 40
0.0
 40
0.5
 40
0.5
 40
1.0
 40
1.0
 40
1.0
 40
1.0
 10
78.10306154264966
 20
113.545761738296
 30
0.0
 10
78.19629212300089
 20
113.8096555448944
 30
0.0
 10
78.2713217345297
 20
114.075835853993
 30
0.0
 10
78.37638883250939
 20
114.6141584258119
 30
0.0
 10
78.40306154275397
 20
114.8869065404277
 30
0.0
 10
78.40306154275517
 20
115.163267057015
 30
0.0
  0
LINE
  5
105
330
1F
100
AcDbEntity
  8
0
  6
HIDDEN
 62
     7
370
     0
100
AcDbLine
 10
78.1030615426
 20
109.5619331332
 30
0.0
 11
78.1030615426
 21
113.5457617383
 31
0.0
  0
LINE
  5
106
330
1F
100
AcDbEntity
  8
0
  6
HIDDEN
 62
     7
370
     0
100
AcDbLine
 10
78.2530615426
 20
93.5686334354
 30
0.0
 11
78.2530615426
 21
90.6886956701
 31
0.0
  0
LINE
  5
107
330
1F
100
AcDbEntity
  8
0
  6
HIDDEN
 62
     7
370
     0
100
AcDbLine
 10
87.2030615426
 20
93.5686334354
 30
0.0
 11
87.2030615426
 21
89.5948959042
 31
0.0
  0
LINE
  5
108
330
1F
100
AcDbEntity
  8
0
  6
HIDDEN
 62
     7
370
     0
100
AcDbLine
 10
78.2530615426
 20
129.5486334354
 30
0.0
 11
78.2530615426
 21
132.4285712008
 31
0.0
  0
LINE
  5
109
330
1F
100
AcDbEntity
  8
0
  6
HIDDEN
 62
     7
370
     0
100
AcDbLine
 10
83.2030615426
 20
129.5486334354
 30
0.0
 11
83.2030615426
 21
133.4027411078
 31
0.0
  0
LINE
  5
10A
330
1F
100
AcDbEntity
  8
0
  6
HIDDEN
 62
     7
370
     0
100
AcDbLine
 10
130.8030615426
 20
102.0586334354
 30
0.0
 11
130.8030615426
 21
121.0586334354
 31
0.0
  0
LINE
  5
10B
330
1F
100
AcDbEntity
  8
0
  6
HIDDEN
 62
     7
370
     0
100
AcDbLine
 10
127.8030615426
 20
102.0586334354
 30
0.0
 11
127.8030615426
 21
121.0586334354
 31
0.0
  0
LINE
  5
10C
330
1F
100
AcDbEntity
  8
0
  6
HIDDEN
 62
     7
370
     0
100
AcDbLine
 10
134.9530615426
 20
85.1586334354
 30
0.0
 11
128.8153867403
 21
85.1586334354
 31
0.0
  0
LINE
  5
10D
330
1F
100
AcDbEntity
  8
0
  6
HIDDEN
 62
     7
370
     0
100
AcDbLine
 10
119.4530615426
 20
103.0586334354
 30
0.0
 11
119.4530615426
 21
120.0586334354
 31
0.0
  0
LINE
  5
10E
330
1F
100
AcDbEntity
  8
0
  6
HIDDEN
 62
     7
370
     0
100
AcDbLine
 10
113.9530615426
 20
80.0745104526
 30
0.0
 11
113.9530615426
 21
85.1586334354
 31
0.0
  0
LINE
  5
10F
330
1F
100
AcDbEntity
  8
0
  6
HIDDEN
 62
     7
370
     0
100
AcDbLine
 10
121.9530615426
 20
85.1586334354
 30
0.0
 11
113.9530615426
 21
85.1586334354
 31
0.0
  0
LINE
  5
110
330
1F
100
AcDbEntity
  8
0
  6
HIDDEN
 62
     7
370
     0
100
AcDbLine
 10
125.190736345
 20
85.1586334354
 30
0.0
 11
121.9530615426
 21
85.1586334354
 31
0.0
  0
LINE
  5
111
330
1F
100
AcDbEntity
  8
0
  6
HIDDEN
 62
     7
370
     0
100
AcDbLine
 10
125.4873590743
 20
137.9586334354
 30
0.0
 11
121.9530615426
 21
137.9586334354
 31
0.0
  0
LINE
  5
112
330
1F
100
AcDbEntity
  8
0
  6
HIDDEN
 62
     7
370
     0
100
AcDbLine
 10
134.9530615426
 20
137.9586334354
 30
0.0
 11
128.518764011
 21
137.9586334354
 31
0.0
  0
LINE
  5
113
330
1F
100
AcDbEntity
  8
0
  6
HIDDEN
 62
     7
370
     0
100
AcDbLine
 10
121.9530615426
 20
137.9586334354
 30
0.0
 11
113.9530615426
 21
137.9586334354
 31
0.0
  0
LINE
  5
114
330
1F
100
AcDbEntity
  8
0
  6
HIDDEN
 62
     7
370
     0
100
AcDbLine
 10
216.5030615426
 20
111.5586334354
 30
0.0
 11
216.5030615426
 21
104.8586334354
 31
0.0
  0
LINE
  5
115
330
1F
100
AcDbEntity
  8
0
  6
HIDDEN
 62
     7
370
     0
100
AcDbLine
 10
216.5030615426
 20
118.2586334354
 30
0.0
 11
216.5030615426
 21
111.5586334354
 31
0.0
  0
LINE
  5
116
330
1F
100
AcDbEntity
  8
0
  6
HIDDEN
 62
     7
370
     0
100
AcDbLine
 10
219.8690869464
 20
111.5586334354
 30
0.0
 11
219.8690869464
 21
104.5586334354
 31
0.0
  0
LINE
  5
117
330
1F
100
AcDbEntity
  8
0
  6
HIDDEN
 62
     7
370
     0
100
AcDbLine
 10
219.8690869464
 20
118.5586334354
 30
0.0
 11
219.8690869464
 21
111.5586334354
 31
0.0
  0
SPLINE
  5
118
330
1F
100
AcDbEntity
  8
0
  6
HIDDEN
 62
     7
370
     0
100
AcDbSpline
210
0.0
220
0.0
230
1.0
 70
     8
 71
     3
 72
    11
 73
     7
 74
     0
 42
0.000000001
 43
0.00000001
 40
0.0
 40
0.0
 40
0.0
 40
0.0
 40
0.0008203708524183
 40
0.0008203708524183
 40
0.0008203708524183
 40
0.0016409967870154
 40
0.0016409967870154
 40
0.0016409967870154
 40
0.0016409967870154
 10
78.25306154264965
 20
95.70660068480514
 30
0.0
 10
78.061903242351
 20
95.665421656186
 30
0.0
 10
77.87047617227881
 20
95.626667683956
 30
0.0
 10
77.67883054875819
 20
95.59029992467747
 30
0.0
 10
77.48712514367773
 20
95.55392082091144
 30
0.0
 10
77.29518619161877
 20
95.51992657014387
 30
0.0
 10
77.10306154454794
 20
95.48827844475267
 30
0.0
  0
ELLIPSE
  5
119
330
1F
100
AcDbEntity
  8
0
  6
HIDDEN
 62
     7
370
     0
100
AcDbEllipse
 10
72.8606296799
 20
111.5586334354
 30
0.0
 11
20.19992452771987
 21
-1.421085471520200E-14
 31
0.0
210
0.0
220
0.0
230
1.0
 40
0.816496581
 41
1.300566354937426
 42
1.359198697443034
  0
LINE
  5
11A
330
1F
100
AcDbEntity
  8
0
  6
HIDDEN
 62
     7
370
     0
100
AcDbLine
 10
78.2530615426
 20
93.5686334354
 30
0.0
 11
78.2530615426
 21
95.7066006848
 31
0.0
  0
LINE
  5
11B
330
1F
100
AcDbEntity
  8
0
  6
HIDDEN
 62
     7
370
     0
100
AcDbLine
 10
78.334092556
 20
95.7571429994
 30
0.0
 11
78.2530615426
 21
95.7066006848
 31
0.0
  0
LINE
  5
11C
330
1F
100
AcDbEntity
  8
0
  6
HIDDEN
 62
     7
370
     0
100
AcDbLine
 10
87.2030615426
 20
93.5686334354
 30
0.0
 11
87.2030615426
 21
95.271119813
 31
0.0
  0
LINE
  5
11D
330
1F
100
AcDbEntity
  8
0
  6
HIDDEN
 62
     7
370
     0
100
AcDbLine
 10
83.2030615426
 20
129.5486334354
 30
0.0
 11
83.2030615426
 21
127.8461470579
 31
0.0
  0
LINE
  5
11E
330
1F
100
AcDbEntity
  8
0
  6
HIDDEN
 62
     7
370
     0
100
AcDbLine
 10
78.2530615426
 20
129.5486334354
 30
0.0
 11
78.2530615426
 21
127.4532578844
 31
0.0
  0
SPLINE
  5
11F
330
1F
100
AcDbEntity
  8
0
  6
HIDDEN
 62
     7
370
     0
100
AcDbSpline
210
0.0
220
0.0
230
1.0
 70
     8
 71
     3
 72
     8
 73
     4
 74
     0
 42
0.000000001
 43
0.00000001
 40
0.0
 40
0.0
 40
0.0
 40
0.0
 40
1.0
 40
1.0
 40
1.0
 40
1.0
 10
78.25306154264965
 20
127.4532578844466
 30
0.0
 10
78.30306704049724
 20
127.4222221109137
 30
0.0
 10
78.35306711006574
 20
127.3911774665728
 30
0.0
 10
78.40306154275518
 20
127.3601238714795
 30
0.0
  0
LWPOLYLINE
  5
120
330
1F
100
AcDbEntity
  8
0
  6
HIDDEN
 62
     7
370
     0
100
AcDbPolyline
 90
       17
 70
   128
 43
0.0
 10
103.7519019925
 20
87.9586396737
 10
103.5230353057
 20
88.0197485601
 10
103.1859237706
 20
88.0974322097
 10
102.6672326485
 20
88.2064334342
 10
101.9254562398
 20
88.3365384684
 10
101.195246925
 20
88.4371172793
 10
100.0238267739
 20
88.5496962316
 10
98.7022467901
 20
88.575779408
 10
98.0137038823
 20
88.5546147617
 10
97.3635775287
 20
88.5106459589
 10
96.7829315178
 20
88.4536703071
 10
96.4469542227
 20
88.4129071985
 10
96.2530813534
 20
88.3800186108
 10
96.4420806243
 20
88.4120680606
 10
96.7740682392
 20
88.4524840646
 10
97.3469187681
 20
88.5091609214
 10
97.3469187681
 20
88.5091609214
  0
LINE
  5
121
330
1F
100
AcDbEntity
  8
0
  6
HIDDEN
 62
     7
370
     0
100
AcDbLine
 10
97.3469160697
 20
134.6080365182
 30
0.0
 11
97.1728427876
 21
134.6252460444
 31
0.0
  0
SPLINE
  5
122
330
1F
100
AcDbEntity
  8
0
  6
HIDDEN
 62
     7
370
     0
100
AcDbSpline
210
0.0
220
0.0
230
1.0
 70
     8
 71
     3
 72
    20
 73
    16
 74
     0
 42
0.000000001
 43
0.00000001
 40
0.0
 40
0.0
 40
0.0
 40
0.0
 40
0.0004889684280497
 40
0.1018319933902556
 40
0.1702475582132282
 40
0.2503692056770289
 40
0.3209568221797017
 40
0.3861816196722289
 40
0.5002554836817361
 40
0.6012243489301822
 40
0.6697680558641174
 40
0.7502401907581042
 40
0.8220490693833061
 40
0.8877204546085027
 40
1.0
 40
1.0
 40
1.0
 40
1.0
 10
96.2539805754348
 20
134.7370348896403
 30
0.0
 10
96.25367693443788
 20
134.7370864767906
 30
0.0
 10
96.19044101527216
 20
134.7478299564048
 30
0.0
 10
96.38364504906338
 20
134.7089739657464
 30
0.0
 10
96.77059210396419
 20
134.6639504753418
 30
0.0
 10
97.31159902729543
 20
134.6076875132482
 30
0.0
 10
97.97909928876649
 20
134.5597563206537
 30
0.0
 10
98.86492714012002
 20
134.5326828649242
 30
0.0
 10
99.97573371220733
 20
134.5445088685038
 30
0.0
 10
101.0878040782301
 20
134.6619579436592
 30
0.0
 10
101.978904384428
 20
134.7836623318987
 30
0.0
 10
102.6643888352415
 20
134.9064833774738
 30
0.0
 10
103.1923767347814
 20
135.0199216291568
 30
0.0
 10
103.6397606862713
 20
135.1236621847962
 30
0.0
 10
103.7085711526246
 20
135.1450849780722
 30
0.0
 10
103.7519876599368
 20
135.1586018587185
 30
0.0
  0
SPLINE
  5
123
330
1F
100
AcDbEntity
  8
0
  6
HIDDEN
 62
     7
370
     0
100
AcDbSpline
210
0.0
220
0.0
230
1.0
 70
     8
 71
     3
 72
     8
 73
     4
 74
     0
 42
0.000000001
 43
0.00000001
 40
0.0
 40
0.0
 40
0.0
 40
0.0
 40
0.0001590976915385
 40
0.0001590976915385
 40
0.0001590976915385
 40
0.0001590976915385
 10
78.38822954864256
 20
95.7571429994162
 30
0.0
 10
78.34317807921302
 20
95.72916411576554
 30
0.0
 10
78.29812204187327
 20
95.70119258606323
 30
0.0
 10
78.25306154264966
 20
95.67322824738314
 30
0.0
  0
SPLINE
  5
124
330
1F
100
AcDbEntity
  8
0
  6
HIDDEN
 62
     7
370
     0
100
AcDbSpline
210
0.0
220
0.0
230
1.0
 70
     8
 71
     3
 72
    11
 73
     7
 74
     0
 42
0.000000001
 43
0.00000001
 40
0.0
 40
0.0
 40
0.0
 40
0.0
 40
0.000821290931132
 40
0.000821290931132
 40
0.000821290931132
 40
0.0016428257242788
 40
0.0016428257242788
 40
0.0016428257242788
 40
0.0016428257242788
 10
78.25306154264965
 20
95.67322824738314
 30
0.0
 10
78.06191652116722
 20
95.62994205856151
 30
0.0
 10
77.87049818549062
 20
95.58900554895574
 30
0.0
 10
77.6788521108295
 20
95.55040377760126
 30
0.0
 10
77.48714902928788
 20
95.51179052379631
 30
0.0
 10
77.29520390600254
 20
95.47551031454306
 30
0.0
 10
77.10306154264964
 20
95.44154340822494
 30
0.0
  0
LINE
  5
125
330
1F
100
AcDbEntity
  8
0
  6
HIDDEN
 62
     7
370
     0
100
AcDbLine
 10
125.0930615426
 20
131.7088134544
 30
0.0
 11
125.0930615426
 21
131.4086334354
 31
0.0
  0
LINE
  5
126
330
1F
100
AcDbEntity
  8
0
  6
HIDDEN
 62
     7
370
     0
100
AcDbLine
 10
128.9130615426
 20
131.7088134544
 30
0.0
 11
128.9130615426
 21
131.4086334354
 31
0.0
  0
LINE
  5
127
330
1F
100
AcDbEntity
  8
0
  6
HIDDEN
 62
     7
370
     0
100
AcDbLine
 10
130.3949943741
 20
136.0173230978
 30
0.0
 11
130.3949943741
 21
131.4086334354
 31
0.0
  0
SPLINE
  5
128
330
1F
100
AcDbEntity
  8
0
  6
HIDDEN
 62
     7
370
     0
100
AcDbSpline
210
0.0
220
0.0
230
1.0
 70
     8
 71
     3
 72
    24
 73
    20
 74
     0
 42
0.000000001
 43
0.00000001
 40
0.0
 40
0.0
 40
0.0
 40
0.0
 40
0.2500000000000114
 40
0.2500000000000114
 40
0.3750000000000163
 40
0.3750000000000163
 40
0.4375000000000177
 40
0.4375000000000177
 40
0.4687500000000166
 40
0.4687500000000166
 40
0.5000000000000155
 40
0.5000000000000155
 40
0.5625000000000157
 40
0.5625000000000157
 40
0.6250000000000157
 40
0.6250000000000157
 40
0.7500000000000099
 40
0.7500000000000099
 40
1.0
 40
1.0
 40
1.0
 40
1.0
 10
77.16572491737305
 20
91.88408089066714
 30
0.0
 10
77.17947803604326
 20
91.9547309486574
 30
0.0
 10
77.19725060344915
 20
92.02132906142232
 30
0.0
 10
77.24950169500451
 20
92.09542708165554
 30
0.0
 10
77.27053677058606
 20
92.11668488881709
 30
0.0
 10
77.32343717821452
 20
92.12483081496332
 30
0.0
 10
77.34454285109244
 20
92.12389101156757
 30
0.0
 10
77.39059501977039
 20
92.10287501999021
 30
0.0
 10
77.40896549175378
 20
92.0919662138826
 30
0.0
 10
77.45051712681948
 20
92.0593313029352
 30
0.0
 10
77.4730837995764
 20
92.03783932256384
 30
0.0
 10
77.53586481603644
 20
91.96937337897752
 30
0.0
 10
77.5689945770043
 20
91.92329892077244
 30
0.0
 10
77.62591226348933
 20
91.83829103243778
 30
0.0
 10
77.65009828899308
 20
91.79801073125638
 30
0.0
 10
77.71530623937284
 20
91.68307450479047
 30
0.0
 10
77.7500222995641
 20
91.61249151964344
 30
0.0
 10
77.84323756989497
 20
91.40828576056484
 30
0.0
 10
77.88891010525565
 20
91.28538737823747
 30
0.0
 10
77.92721518875419
 20
91.16851410184992
 30
0.0
  0
SPLINE
  5
129
330
1F
100
AcDbEntity
  8
0
  6
HIDDEN
 62
     7
370
     0
100
AcDbSpline
210
0.0
220
0.0
230
1.0
 70
     8
 71
     3
 72
     8
 73
     4
 74
     0
 42
0.000000001
 43
0.00000001
 40
0.0
 40
0.0
 40
0.0
 40
0.0
 40
0.0011563724678166
 40
0.0011563724678166
 40
0.0011563724678166
 40
0.0011563724678166
 10
78.10306154264966
 20
124.1987757489182
 30
0.0
 10
77.76974042745249
 20
124.3278347745451
 30
0.0
 10
77.4364077466445
 20
124.4567951107188
 30
0.0
 10
77.10306154264964
 20
124.5857066404919
 30
0.0
  0
SPLINE
  5
12A
330
1F
100
AcDbEntity
  8
0
  6
HIDDEN
 62
     7
370
     0
100
AcDbSpline
210
0.0
220
0.0
230
1.0
 70
     8
 71
     3
 72
     8
 73
     4
 74
     0
 42
0.000000001
 43
0.00000001
 40
0.0
 40
0.0
 40
0.0
 40
0.0
 40
0.0011557494192775
 40
0.0011557494192775
 40
0.0011557494192775
 40
0.0011557494192775
 10
77.10306154264961
 20
98.53141157299703
 30
0.0
 10
77.43639535266377
 20
98.66303584919191
 30
0.0
 10
77.76972896432643
 20
98.79485276276537
 30
0.0
 10
78.10306154264966
 20
98.92685620492824
 30
0.0
  0
SPLINE
  5
12B
330
1F
100
AcDbEntity
  8
0
  6
HIDDEN
 62
     7
370
     0
100
AcDbSpline
210
0.0
220
0.0
230
1.0
 70
     8
 71
     3
 72
     8
 73
     4
 74
     0
 42
0.000000001
 43
0.00000001
 40
0.0000000000000006
 40
0.0000000000000006
 40
0.0000000000000006
 40
0.0000000000000006
 40
0.0011560973009451
 40
0.0011560973009451
 40
0.0011560973009451
 40
0.0011560973009451
 10
77.10306154264963
 20
121.539447928735
 30
0.0
 10
77.43640128023637
 20
121.4147041964617
 30
0.0
 10
77.76973191344499
 20
121.2900229722846
 30
0.0
 10
78.10306154264964
 20
121.1655727489534
 30
0.0
  0
SPLINE
  5
12C
330
1F
100
AcDbEntity
  8
0
  6
HIDDEN
 62
     7
370
     0
100
AcDbSpline
210
0.0
220
0.0
230
1.0
 70
     8
 71
     3
 72
     8
 73
     4
 74
     0
 42
0.000000001
 43
0.00000001
 40
0.0
 40
0.0
 40
0.0
 40
0.0
 40
0.0011564805411644
 40
0.0011564805411644
 40
0.0011564805411644
 40
0.0011564805411644
 10
78.10306154264966
 20
101.9578066504667
 30
0.0
 10
77.76975957724818
 20
101.8309557100325
 30
0.0
 10
77.43642276034151
 20
101.7043906411702
 30
0.0
 10
77.10306154264966
 20
101.5779906675095
 30
0.0
  0
CIRCLE
  5
12D
330
1F
100
AcDbEntity
  8
0
  6
HIDDEN
 62
     7
370
     0
100
AcDbCircle
 10
116.0030615426
 20
111.5586334354
 30
0.0
 40
5.0
  0
LINE
  5
12E
330
1F
100
AcDbEntity
  8
0
  6
HIDDEN
 62
     7
370
     0
100
AcDbLine
 10
109.0030615426
 20
86.2347022895
 30
0.0
 11
109.0972223182
 21
86.9046910207
 31
0.0
  0
LINE
  5
12F
330
1F
100
AcDbEntity
  8
0
  6
HIDDEN
 62
     7
370
     0
100
AcDbLine
 10
109.0972223182
 20
136.2125758502
 30
0.0
 11
109.0030615426
 21
136.8825645814
 31
0.0
  0
ARC
  5
130
330
1F
100
AcDbEntity
  8
0
  6
HIDDEN
 62
     7
370
     0
100
AcDbCircle
 10
108.50305479
 20
86.9881958211
 30
0.0
 40
0.6000067526677242
100
AcDbArc
 50
352.0
 51
0.0
  0
ARC
  5
131
330
1F
100
AcDbEntity
  8
0
  6
HIDDEN
 62
     7
370
     0
100
AcDbCircle
 10
108.50305479
 20
86.9881958211
 30
0.0
 40
0.6000067526677242
100
AcDbArc
 50
0.0
 51
33.5571153394
  0
ARC
  5
132
330
1F
100
AcDbEntity
  8
0
  6
HIDDEN
 62
     7
370
     0
100
AcDbCircle
 10
108.50305479
 20
136.1290710498
 30
0.0
 40
0.6000067526677169
100
AcDbArc
 50
348.75
 51
8.0
  0
LWPOLYLINE
  5
133
330
1F
100
AcDbEntity
  8
0
  6
HIDDEN
 62
     7
370
     0
100
AcDbPolyline
 90
        3
 70
   128
 43
0.0
 10
109.0915325811
 20
136.0120155392
 10
109.0573887481
 20
135.8994584063
 10
109.0030615426
 20
135.7974065348
  0
LINE
  5
134
330
1F
100
AcDbEntity
  8
0
  6
HIDDEN
 62
     7
370
     0
100
AcDbLine
 10
109.1030615426
 20
86.9881958211
 30
0.0
 11
109.1030615426
 21
136.1290710498
 31
0.0
  0
ARC
  5
135
330
1F
100
AcDbEntity
  8
0
  6
HIDDEN
 62
     7
370
     0
100
AcDbCircle
 10
102.7580635443
 20
99.5586334354
 30
0.0
 40
8.000000000000004
100
AcDbArc
 50
276.8837161062
 51
321.3178125465
  0
ARC
  5
136
330
1F
100
AcDbEntity
  8
0
  6
HIDDEN
 62
     7
370
     0
100
AcDbCircle
 10
102.7580635443
 20
123.5586334354
 30
0.0
 40
8.000000000000021
100
AcDbArc
 50
38.6821874535
 51
83.1291617843
  0
LINE
  5
137
330
1F
100
AcDbEntity
  8
0
  6
HIDDEN
 62
     7
370
     0
100
AcDbLine
 10
92.0854971079
 20
91.5586334354
 30
0.0
 11
96.2771689961
 21
91.5586334354
 31
0.0
  0
LINE
  5
138
330
1F
100
AcDbEntity
  8
0
  6
HIDDEN
 62
     7
370
     0
100
AcDbLine
 10
96.2771689961
 20
131.5586334354
 30
0.0
 11
92.0854971079
 21
131.5586334354
 31
0.0
  0
ARC
  5
139
330
1F
100
AcDbEntity
  8
0
  6
HIDDEN
 62
     7
370
     0
100
AcDbCircle
 10
92.0854971079
 20
92.1586334354
 30
0.0
 40
0.6000000000000085
100
AcDbArc
 50
210.0
 51
270.0
  0
ARC
  5
13A
330
1F
100
AcDbEntity
  8
0
  6
HIDDEN
 62
     7
370
     0
100
AcDbCircle
 10
92.0854971079
 20
130.9586334354
 30
0.0
 40
0.6000000000000227
100
AcDbArc
 50
90.0
 51
150.0
  0
LINE
  5
13B
330
1F
100
AcDbEntity
  8
0
  6
HIDDEN
 62
     7
370
     0
100
AcDbLine
 10
91.5658818657
 20
131.2586334354
 30
0.0
 11
90.0070361389
 21
128.5586334354
 31
0.0
  0
LINE
  5
13C
330
1F
100
AcDbEntity
  8
0
  6
HIDDEN
 62
     7
370
     0
100
AcDbLine
 10
90.0070361389
 20
94.5586334354
 30
0.0
 11
91.5658818657
 21
91.8586334354
 31
0.0
  0
ARC
  5
13D
330
1F
100
AcDbEntity
  8
0
  6
HIDDEN
 62
     7
370
     0
100
AcDbCircle
 10
117.4530615426
 20
95.8336334354
 30
0.0
 40
1.500000000000001
100
AcDbArc
 50
238.2116693829
 51
0.0
  0
ARC
  5
13E
330
1F
100
AcDbEntity
  8
0
  6
HIDDEN
 62
     7
370
     0
100
AcDbCircle
 10
117.4530615426
 20
127.2836334354
 30
0.0
 40
1.500000000000025
100
AcDbArc
 50
0.0
 51
121.7883306171
  0
LINE
  5
13F
330
1F
100
AcDbEntity
  8
0
  6
HIDDEN
 62
     7
370
     0
100
AcDbLine
 10
87.2030615426
 20
94.5586334354
 30
0.0
 11
90.0070361389
 21
94.5586334354
 31
0.0
  0
LINE
  5
140
330
1F
100
AcDbEntity
  8
0
  6
HIDDEN
 62
     7
370
     0
100
AcDbLine
 10
90.0070361389
 20
128.5586334354
 30
0.0
 11
83.2030615426
 21
128.5586334354
 31
0.0
  0
LINE
  5
141
330
1F
100
AcDbEntity
  8
0
  6
HIDDEN
 62
     7
370
     0
100
AcDbLine
 10
109.0030615426
 20
94.5586334354
 30
0.0
 11
116.6628875112
 21
94.5586334354
 31
0.0
  0
LINE
  5
142
330
1F
100
AcDbEntity
  8
0
  6
HIDDEN
 62
     7
370
     0
100
AcDbLine
 10
116.6628875112
 20
128.5586334354
 30
0.0
 11
109.0030615426
 21
128.5586334354
 31
0.0
  0
LINE
  5
143
330
1F
100
AcDbEntity
  8
0
  6
HIDDEN
 62
     7
370
     0
100
AcDbLine
 10
127.8030615426
 20
102.0586334354
 30
0.0
 11
130.8030615426
 21
102.0586334354
 31
0.0
  0
LINE
  5
144
330
1F
100
AcDbEntity
  8
0
  6
HIDDEN
 62
     7
370
     0
100
AcDbLine
 10
130.8030615426
 20
121.0586334354
 30
0.0
 11
127.8030615426
 21
121.0586334354
 31
0.0
  0
LINE
  5
145
330
1F
100
AcDbEntity
  8
0
  6
HIDDEN
 62
     7
370
     0
100
AcDbLine
 10
118.9530615426
 20
102.5586334354
 30
0.0
 11
119.4530615426
 21
103.0586334354
 31
0.0
  0
LINE
  5
146
330
1F
100
AcDbEntity
  8
0
  6
HIDDEN
 62
     7
370
     0
100
AcDbLine
 10
119.4530615426
 20
120.0586334354
 30
0.0
 11
118.9530615426
 21
120.5586334354
 31
0.0
  0
LINE
  5
147
330
1F
100
AcDbEntity
  8
0
  6
HIDDEN
 62
     7
370
     0
100
AcDbLine
 10
119.4530615426
 20
103.0586334354
 30
0.0
 11
127.8030615426
 21
103.0586334354
 31
0.0
  0
LINE
  5
148
330
1F
100
AcDbEntity
  8
0
  6
HIDDEN
 62
     7
370
     0
100
AcDbLine
 10
127.8030615426
 20
120.0586334354
 30
0.0
 11
119.4530615426
 21
120.0586334354
 31
0.0
  0
ARC
  5
149
330
1F
100
AcDbEntity
  8
0
  6
HIDDEN
 62
     7
370
     0
100
AcDbCircle
 10
234.0030615426
 20
119.5586334354
 30
0.0
 40
1.0
100
AcDbArc
 50
270.0
 51
0.0
  0
ARC
  5
14A
330
1F
100
AcDbEntity
  8
0
  6
HIDDEN
 62
     7
370
     0
100
AcDbCircle
 10
234.0030615426
 20
103.5586334354
 30
0.0
 40
1.0
100
AcDbArc
 50
0.0
 51
90.0
  0
LINE
  5
14B
330
1F
100
AcDbEntity
  8
0
  6
HIDDEN
 62
     7
370
     0
100
AcDbLine
 10
113.9530615426
 20
143.0586334354
 30
0.0
 11
113.9530615426
 21
137.9586334354
 31
0.0
  0
ARC
  5
14C
330
1F
100
AcDbEntity
  8
0
  6
HIDDEN
 62
     7
370
     0
100
AcDbCircle
 10
217.8977395446
 20
118.2586334354
 30
0.0
 40
0.7999999999999972
100
AcDbArc
 50
75.0
 51
90.0
  0
ARC
  5
14D
330
1F
100
AcDbEntity
  8
0
  6
HIDDEN
 62
     7
370
     0
100
AcDbCircle
 10
217.8977395446
 20
104.8586334354
 30
0.0
 40
0.8000000000000046
100
AcDbArc
 50
270.0
 51
285.0
  0
LINE
  5
14E
330
1F
100
AcDbEntity
  8
0
  6
HIDDEN
 62
     7
370
     0
100
AcDbLine
 10
217.8977395446
 20
119.0586334354
 30
0.0
 11
217.3030615426
 21
119.0586334354
 31
0.0
  0
LINE
  5
14F
330
1F
100
AcDbEntity
  8
0
  6
HIDDEN
 62
     7
370
     0
100
AcDbLine
 10
217.3030615426
 20
104.0586334354
 30
0.0
 11
217.8977395446
 21
104.0586334354
 31
0.0
  0
ARC
  5
150
330
1F
100
AcDbEntity
  8
0
  6
HIDDEN
 62
     7
370
     0
100
AcDbCircle
 10
217.3030615426
 20
118.2586334354
 30
0.0
 40
0.799999999999983
100
AcDbArc
 50
90.0
 51
180.0
  0
ARC
  5
151
330
1F
100
AcDbEntity
  8
0
  6
HIDDEN
 62
     7
370
     0
100
AcDbCircle
 10
217.3030615426
 20
104.8586334354
 30
0.0
 40
0.799999999999983
100
AcDbArc
 50
180.0
 51
270.0
  0
LINE
  5
152
330
1F
100
AcDbEntity
  8
0
  6
HIDDEN
 62
     7
370
     0
100
AcDbLine
 10
218.1047947807
 20
104.0858927744
 30
0.0
 11
219.8690869464
 21
104.5586334354
 31
0.0
  0
LINE
  5
153
330
1F
100
AcDbEntity
  8
0
  6
HIDDEN
 62
     7
370
     0
100
AcDbLine
 10
219.8690869464
 20
118.5586334354
 30
0.0
 11
218.1047947807
 21
119.0313740965
 31
0.0
  0
LINE
  5
154
330
1F
100
AcDbEntity
  8
0
  6
HIDDEN
 62
     7
370
     0
100
AcDbLine
 10
234.0030615426
 20
118.5586334354
 30
0.0
 11
219.8690869464
 21
118.5586334354
 31
0.0
  0
LINE
  5
155
330
1F
100
AcDbEntity
  8
0
  6
HIDDEN
 62
     7
370
     0
100
AcDbLine
 10
219.8690869464
 20
104.5586334354
 30
0.0
 11
234.0030615426
 21
104.5586334354
 31
0.0
  0
LINE
  5
156
330
1F
100
AcDbEntity
  8
0
  6
HIDDEN
 62
     7
370
     0
100
AcDbLine
 10
104.1874993731
 20
87.4792621019
 30
0.0
 11
103.7530672236
 21
87.958328121
 31
0.0
  0
LINE
  5
157
330
1F
100
AcDbEntity
  8
0
  6
HIDDEN
 62
     7
370
     0
100
AcDbLine
 10
96.2530638986
 20
88.3800160801
 30
0.0
 11
95.7706301552
 21
87.9009501047
 31
0.0
  0
LINE
  5
158
330
1F
100
AcDbEntity
  8
0
  6
HIDDEN
 62
     7
370
     0
100
AcDbLine
 10
95.770508227
 20
135.2163114758
 30
0.0
 11
96.2530589779
 21
134.7371912179
 31
0.0
  0
LINE
  5
159
330
1F
100
AcDbEntity
  8
0
  6
HIDDEN
 62
     7
370
     0
100
AcDbLine
 10
103.7530614246
 20
135.1588889955
 30
0.0
 11
104.187603815
 21
135.6380092461
 31
0.0
  0
LINE
  5
15A
330
1F
100
AcDbEntity
  8
0
  6
HIDDEN
 62
     7
370
     0
100
AcDbLine
 10
130.8030615426
 20
107.3586334354
 30
0.0
 11
216.5030615426
 21
107.3586334354
 31
0.0
  0
LINE
  5
15B
330
1F
100
AcDbEntity
  8
0
  6
HIDDEN
 62
     7
370
     0
100
AcDbLine
 10
216.5030615426
 20
115.7586334354
 30
0.0
 11
130.8030615426
 21
115.7586334354
 31
0.0
  0
LINE
  5
15C
330
1F
100
AcDbEntity
  8
0
  6
HIDDEN
 62
     7
370
     0
100
AcDbLine
 10
103.7530615426
 20
131.4940337737
 30
0.0
 11
103.7530615426
 21
135.2589194963
 31
0.0
  0
LINE
  5
15D
330
1F
100
AcDbEntity
  8
0
  6
HIDDEN
 62
     7
370
     0
100
AcDbLine
 10
96.2530615426
 20
134.7369360266
 30
0.0
 11
96.2530615426
 21
131.5542556674
 31
0.0
  0
LINE
  5
15E
330
1F
100
AcDbEntity
  8
0
  6
HIDDEN
 62
     7
370
     0
100
AcDbLine
 10
103.7530615426
 20
87.8582685756
 30
0.0
 11
103.7530615426
 21
91.6232330972
 31
0.0
  0
LINE
  5
15F
330
1F
100
AcDbEntity
  8
0
  6
HIDDEN
 62
     7
370
     0
100
AcDbLine
 10
96.2530615426
 20
91.5630112035
 30
0.0
 11
96.2530615426
 21
88.3803393179
 31
0.0
  0
LINE
  5
160
330
1F
100
AcDbEntity
  8
0
  6
HIDDEN
 62
     7
370
     0
100
AcDbLine
 10
77.1040940368
 20
91.8376009413
 30
0.0
 11
77.1142219778
 21
91.8274730003
 31
0.0
  0
DIMENSION
  5
161
330
1F
100
AcDbEntity
  8
VERMASSUNG
100
AcDbDimension
  2
_D
 10
71.12431422
 20
80.0586334354
 30
0.0
 11
71.12431422
 21
111.5586334354
 31
0.0
 70
   160
  1
HSK A %%c<>
 71
     2
 42
-1.0
  3
SLDDIMSTYLE0
100
AcDbAlignedDimension
 13
109.3030615426
 23
143.0586334354
 33
0.0
 14
109.3030615426
 24
80.0586334354
 34
0.0
 50
90.0
100
AcDbRotatedDimension
  0
DIMENSION
  5
16E
330
1F
100
AcDbEntity
  8
VERMASSUNG
100
AcDbDimension
  2
_D_1
 10
235.0030615426
 20
147.8431307388
 30
0.0
 11
184.9780615426
 21
147.8431307388
 31
0.0
 70
   160
  1
(<>)
 71
     2
 42
-1.0
  3
SLDDIMSTYLE0
100
AcDbAlignedDimension
 13
134.9530615426
 23
141.4050737592
 33
0.0
 14
235.0030615426
 24
123.8586334354
 34
0.0
100
AcDbRotatedDimension
  0
DIMENSION
  5
17A
330
1F
100
AcDbEntity
  8
VERMASSUNG
100
AcDbDimension
  2
_D_2
 10
235.0030615426
 20
153.8431307388
 30
0.0
 11
172.0030615426
 21
153.8431307388
 31
0.0
 70
   160
  1
<>
 71
     2
 42
-1.0
  3
SLDDIMSTYLE0
100
AcDbAlignedDimension
 13
109.0030615426
 23
142.7586334354
 33
0.0
 14
235.0030615426
 24
123.8586334354
 34
0.0
100
AcDbRotatedDimension
  0
DIMENSION
  5
184
330
1F
100
AcDbEntity
  8
VERMASSUNG
100
AcDbDimension
  2
_D_3
 10
235.0030615426
 20
159.8431307388
 30
0.0
 11
156.0530615426
 21
159.8431307388
 31
0.0
 70
   160
  1
(<>)
 71
     2
 42
-1.0
  3
SLDDIMSTYLE0
100
AcDbAlignedDimension
 13
77.1030615426
 23
131.2493111819
 33
0.0
 14
235.0030615426
 24
123.8586334354
 34
0.0
100
AcDbRotatedDimension
  0
DIMENSION
  5
190
330
1F
100
AcDbEntity
  8
VERMASSUNG
100
AcDbDimension
  2
_D_4
 10
242.410880558
 20
104.5586334354
 30
0.0
 11
242.410880558
 21
111.5586334354
 31
0.0
 70
   160
  1
%%c<>
 71
     2
 42
-1.0
  3
SLDDIMSTYLE0
100
AcDbAlignedDimension
 13
234.0030615426
 23
118.5586334354
 33
0.0
 14
234.0030615426
 24
104.5586334354
 34
0.0
 50
90.0
100
AcDbRotatedDimension
  0
DIMENSION
  5
19B
330
1F
100
AcDbEntity
  8
VERMASSUNG
100
AcDbDimension
  2
_D_5
 10
248.410880558
 20
99.0586334354
 30
0.0
 11
248.410880558
 21
111.5586334354
 31
0.0
 70
   160
  1
WH%%c<>
 71
     2
 42
-1.0
  3
SLDDIMSTYLE0
100
AcDbAlignedDimension
 13
234.8030615426
 23
124.0586334354
 33
0.0
 14
234.8030615426
 24
99.0586334354
 34
0.0
 50
90.0
100
AcDbRotatedDimension
  0
LINE
  5
1A7
330
1F
100
AcDbEntity
  8
VERMASSUNG
  6
CENTERX2
370
     0
100
AcDbLine
 10
121.1986818883
 20
137.9149487215
 30
0.0
 11
121.1986818883
 21
127.3090373568
 31
0.0
  0
LINE
  5
1A8
330
1F
100
AcDbEntity
  8
VERMASSUNG
  6
CENTERX2
370
     0
100
AcDbLine
 10
75.5442203838
 20
111.5586334354
 30
0.0
 11
236.272172061
 21
111.5586334354
 31
0.0
  0
LINE
  5
1A9
330
1F
100
AcDbEntity
  8
0
  6
Continuous
 62
     7
370
    15
100
AcDbLine
 10
269.2188925168
 20
28.2800268738
 30
0.0
 11
269.2895917025
 21
28.3208539138
 31
0.0
  0
LINE
  5
1AA
330
1F
100
AcDbEntity
  8
0
  6
Continuous
 62
     7
370
    15
100
AcDbLine
 10
273.6375916196
 20
35.8526267649
 30
0.0
 11
273.6375916196
 21
35.9342675761
 31
0.0
  0
LINE
  5
1AB
330
1F
100
AcDbEntity
  8
0
  6
Continuous
 62
     7
370
    15
100
AcDbLine
 10
272.3429202767
 20
38.7957976166
 30
0.0
 11
238.1012743977
 21
58.5630790241
 31
0.0
  0
LINE
  5
1AC
330
1F
100
AcDbEntity
  8
0
  6
Continuous
 62
     7
370
    15
100
AcDbLine
 10
231.8517823188
 20
47.7374682443
 30
0.0
 11
266.0934281977
 21
27.9701868368
 31
0.0
  0
SPLINE
  5
1AD
330
1F
100
AcDbEntity
  8
0
  6
Continuous
 62
     7
370
    15
100
AcDbSpline
210
0.0
220
0.0
230
1.0
 70
     8
 71
     3
 72
    21
 73
    17
 74
     0
 42
0.000000001
 43
0.00000001
 40
0.0
 40
0.0
 40
0.0
 40
0.0
 40
0.0544795505513854
 40
0.1300305722878161
 40
0.2013536808854707
 40
0.2773830613719798
 40
0.3518989884605817
 40
0.4262526747612055
 40
0.5009008859844446
 40
0.5759489421983021
 40
0.6512950346205527
 40
0.7267737743406935
 40
0.8021826065156656
 40
0.8772932933646607
 40
0.9519263803610134
 40
1.0
 40
1.0
 40
1.0
 40
1.0
 10
267.1962264176943
 20
30.52218111846873
 30
0.0
 10
267.1409360049426
 20
30.55300962941645
 30
0.0
 10
267.008970084898
 20
30.62659042956515
 30
0.0
 10
266.8469696674015
 20
30.83778086374957
 30
0.0
 10
266.7002426546349
 20
31.15600292047521
 30
0.0
 10
266.6130735100527
 20
31.56720501006285
 30
0.0
 10
266.5975306133275
 20
32.05993328623575
 30
0.0
 10
266.6599203560752
 20
32.60391826447236
 30
0.0
 10
266.8005361976245
 20
33.18159202553993
 30
0.0
 10
267.0167563156482
 20
33.77307286831297
 30
0.0
 10
267.3024207353318
 20
34.35714030610727
 30
0.0
 10
267.6478941337851
 20
34.9122602551054
 30
0.0
 10
268.0405457098796
 20
35.41858139254767
 30
0.0
 10
268.4646634033136
 20
35.8559717196881
 30
0.0
 10
268.8531633618704
 20
36.17476234132728
 30
0.0
 10
269.0918136162136
 20
36.32180484807009
 30
0.0
 10
269.185311207899
 20
36.37941266539115
 30
0.0
  0
SPLINE
  5
1AE
330
1F
100
AcDbEntity
  8
0
  6
Continuous
 62
     7
370
    15
100
AcDbSpline
210
0.0
220
0.0
230
1.0
 70
     8
 71
     3
 72
    12
 73
     8
 74
     0
 42
0.000000001
 43
0.00000001
 40
0.0
 40
0.0
 40
0.0
 40
0.0
 40
0.1168962611641865
 40
0.3400253685411639
 40
0.563083388728629
 40
0.7898718451226887
 40
1.0
 40
1.0
 40
1.0
 40
1.0
 10
269.185311207899
 20
36.37941266539115
 30
0.0
 10
269.2591853497659
 20
36.41970468468303
 30
0.0
 10
269.4740688889294
 20
36.53690525699003
 30
0.0
 10
269.8132411385864
 20
36.6585936991423
 30
0.0
 10
270.1720052925284
 20
36.71056633561764
 30
0.0
 10
270.4666739958824
 20
36.68360962880667
 30
0.0
 10
270.6154428838599
 20
36.6072077536846
 30
0.0
 10
270.6869909347407
 20
36.57046347655158
 30
0.0
  0
LINE
  5
1AF
330
1F
100
AcDbEntity
  8
0
  6
Continuous
 62
     7
370
    15
100
AcDbLine
 10
216.9728636982
 20
45.3575271526
 30
0.0
 11
222.0315293585
 21
42.4372216274
 31
0.0
  0
LINE
  5
1B0
330
1F
100
AcDbEntity
  8
0
  6
Continuous
 62
     7
370
    15
100
AcDbLine
 10
234.9047603046
 20
71.377745312
 30
0.0
 11
232.7215837373
 21
72.6380663176
 31
0.0
  0
SPLINE
  5
1B1
330
1F
100
AcDbEntity
  8
0
  6
Continuous
 62
     7
370
    15
100
AcDbSpline
210
0.0
220
0.0
230
1.0
 70
     8
 71
     3
 72
    17
 73
    13
 74
     0
 42
0.000000001
 43
0.00000001
 40
0.0
 40
0.0
 40
0.0
 40
0.0
 40
0.0573492669432248
 40
0.1661889138219288
 40
0.2753958145842426
 40
0.3848525322756339
 40
0.4944509582993425
 40
0.6041097253336557
 40
0.7137676734037787
 40
0.8233968936970307
 40
0.9329873355534194
 40
1.0
 40
1.0
 40
1.0
 40
1.0
 10
229.170606519771
 20
39.50306772836561
 30
0.0
 10
229.3283839354833
 20
39.50834457556795
 30
0.0
 10
229.7855974055144
 20
39.52363602656123
 30
0.0
 10
230.5755231022206
 20
39.66999955234424
 30
0.0
 10
231.5303983423396
 20
39.93248985444008
 30
0.0
 10
232.5037067232976
 20
40.30834752434235
 30
0.0
 10
233.4856729025279
 20
40.78741577483854
 30
0.0
 10
234.4689137233098
 20
41.36793655004409
 30
0.0
 10
235.4460860673519
 20
42.04354889247061
 30
0.0
 10
236.4080144317421
 20
42.81299464117721
 30
0.0
 10
237.2315335562755
 20
43.5460723970351
 30
0.0
 10
237.7193175980021
 20
44.05155436651761
 30
0.0
 10
237.904408953386
 20
44.24336126229562
 30
0.0
  0
SPLINE
  5
1B2
330
1F
100
AcDbEntity
  8
0
  6
Continuous
 62
     7
370
    15
100
AcDbSpline
210
0.0
220
0.0
230
1.0
 70
     8
 71
     3
 72
    10
 73
     6
 74
     0
 42
0.000000001
 43
0.00000001
 40
0.0
 40
0.0
 40
0.0
 40
0.0
 40
0.0441395304913582
 40
0.8095655317995623
 40
1.0
 40
1.0
 40
1.0
 40
1.0
 10
244.1599925160833
 20
55.06545550335314
 30
0.0
 10
244.1675592282471
 20
55.08965208633587
 30
0.0
 10
244.3063407079937
 20
55.53344293213993
 30
0.0
 10
244.4324398639994
 20
56.07799877564496
 30
0.0
 10
244.5362933181979
 20
56.59210155481964
 30
0.0
 10
244.5569838666116
 20
56.69452538389883
 30
0.0
  0
LINE
  5
1B3
330
1F
100
AcDbEntity
  8
0
  6
Continuous
 62
     7
370
    15
100
AcDbLine
 10
224.429988065
 20
41.0526208882
 30
0.0
 11
225.8293761326
 21
40.2447713523
 31
0.0
  0
LINE
  5
1B4
330
1F
100
AcDbEntity
  8
0
  6
Continuous
 62
     7
370
    15
100
AcDbLine
 10
225.5452902756
 20
72.2273886793
 30
0.0
 11
219.3549074906
 21
75.3116081183
 31
0.0
  0
LINE
  5
1B5
330
1F
100
AcDbEntity
  8
0
  6
Continuous
 62
     7
370
    15
100
AcDbLine
 10
207.9732096774
 20
55.5957929799
 30
0.0
 11
213.73977179
 21
51.7774150553
 31
0.0
  0
SPLINE
  5
1B6
330
1F
100
AcDbEntity
  8
0
  6
Continuous
 62
     7
370
    15
100
AcDbSpline
210
0.0
220
0.0
230
1.0
 70
     8
 71
     3
 72
    10
 73
     6
 74
     0
 42
0.000000001
 43
0.00000001
 40
0.0
 40
0.0
 40
0.0
 40
0.0
 40
0.1287978681124716
 40
0.765329416811561
 40
1.0
 40
1.0
 40
1.0
 40
1.0
 10
243.2754616821859
 20
65.99642044259801
 30
0.0
 10
243.2425462450886
 20
66.04482266011685
 30
0.0
 10
243.0469595273352
 20
66.33243332828201
 30
0.0
 10
242.7405843328307
 20
66.64843246857401
 30
0.0
 10
242.4534960960939
 20
66.89239370562154
 30
0.0
 10
242.3761648299322
 20
66.95810810607794
 30
0.0
  0
SPLINE
  5
1B7
330
1F
100
AcDbEntity
  8
0
  6
Continuous
 62
     7
370
    15
100
AcDbSpline
210
0.0
220
0.0
230
1.0
 70
     8
 71
     3
 72
    11
 73
     7
 74
     0
 42
0.000000001
 43
0.00000001
 40
0.0
 40
0.0
 40
0.0
 40
0.0
 40
0.1591781940466727
 40
0.460237405842446
 40
0.7608131265512099
 40
1.0
 40
1.0
 40
1.0
 40
1.0
 10
244.5680934348445
 20
63.235975768136
 30
0.0
 10
244.5218859843862
 20
63.40372239453524
 30
0.0
 10
244.3882847882117
 20
63.88873400454363
 30
0.0
 10
244.1006654244606
 20
64.6323117798062
 30
0.0
 10
243.7181907614949
 20
65.39173855388009
 30
0.0
 10
243.4114075794084
 20
65.81074476476746
 30
0.0
 10
243.2754616821859
 20
65.99642044259801
 30
0.0
  0
SPLINE
  5
1B8
330
1F
100
AcDbEntity
  8
0
  6
Continuous
 62
     7
370
    15
100
AcDbSpline
210
0.0
220
0.0
230
1.0
 70
     8
 71
     3
 72
    26
 73
    22
 74
     0
 42
0.000000001
 43
0.00000001
 40
0.0
 40
0.0
 40
0.0
 40
0.0
 40
0.0283690667320264
 40
0.0828452566932894
 40
0.1374906544459614
 40
0.1926575333412632
 40
0.2485094644728257
 40
0.305008518702687
 40
0.3619864831961164
 40
0.4192436689720266
 40
0.4766172366989093
 40
0.5339860115859655
 40
0.5913032546491679
 40
0.6485567672244502
 40
0.7057505179084351
 40
0.7628968437727276
 40
0.8200121226150392
 40
0.8771145918530774
 40
0.9342233587891948
 40
0.991351793962018
 40
1.0
 40
1.0
 40
1.0
 40
1.0
 10
219.4577710146783
 20
75.24144477835723
 30
0.0
 10
219.3501984729616
 20
75.30211526370375
 30
0.0
 10
219.0360579016186
 20
75.47928929553629
 30
0.0
 10
218.4545827809411
 20
75.65642619367004
 30
0.0
 10
217.728905798348
 20
75.77755655280576
 30
0.0
 10
216.9618133734172
 20
75.7829679836273
 30
0.0
 10
216.1628207628862
 20
75.6789344760489
 30
0.0
 10
215.338135732108
 20
75.46352955775906
 30
0.0
 10
214.4968925682164
 20
75.13875398587338
 30
0.0
 10
213.6487850877351
 20
74.70793143524872
 30
0.0
 10
212.8037688132041
 20
74.17637322430004
 30
0.0
 10
211.9713018292384
 20
73.55064806162117
 30
0.0
 10
211.1602304028015
 20
72.83821856518766
 30
0.0
 10
210.3787549365912
 20
72.04711345736652
 30
0.0
 10
209.6347120381163
 20
71.1859330170502
 30
0.0
 10
208.9353462919717
 20
70.2638413027503
 30
0.0
 10
208.2882889404518
 20
69.29045849413234
 30
0.0
 10
207.6977614353659
 20
68.27600359747686
 30
0.0
 10
207.1785215485544
 20
67.23045390054335
 30
0.0
 10
206.8380230239624
 20
66.46757587942761
 30
0.0
 10
206.6934570960746
 20
66.05618164455538
 30
0.0
 10
206.6744498024909
 20
66.00209219820297
 30
0.0
  0
LINE
  5
1B9
330
1F
100
AcDbEntity
  8
0
  6
Continuous
 62
     7
370
    15
100
AcDbLine
 10
206.7890239556
 20
64.1519330728
 30
0.0
 11
209.3425838542
 21
62.6777943212
 31
0.0
  0
LINE
  5
1BA
330
1F
100
AcDbEntity
  8
0
  6
Continuous
 62
     7
370
    15
100
AcDbLine
 10
206.4907316782
 20
65.2761085235
 30
0.0
 11
206.4907316782
 21
64.8148367063
 31
0.0
  0
SPLINE
  5
1BB
330
1F
100
AcDbEntity
  8
0
  6
Continuous
 62
     7
370
    15
100
AcDbSpline
210
0.0
220
0.0
230
1.0
 70
     8
 71
     3
 72
    10
 73
     6
 74
     0
 42
0.000000001
 43
0.00000001
 40
0.0
 40
0.0
 40
0.0
 40
0.0
 40
0.2675294180878398
 40
0.9413447119447592
 40
1.0
 40
1.0
 40
1.0
 40
1.0
 10
209.373642578374
 20
55.43486614833089
 30
0.0
 10
209.3702522442366
 20
55.4640279770063
 30
0.0
 10
209.3583228155601
 20
55.56663849890866
 30
0.0
 10
209.3677210411531
 20
55.72727253966913
 30
0.0
 10
209.4038048759165
 20
55.85389494387965
 30
0.0
 10
209.4066944223016
 20
55.86403470071988
 30
0.0
  0
LINE
  5
1BC
330
1F
100
AcDbEntity
  8
0
  6
Continuous
 62
     7
370
    15
100
AcDbLine
 10
206.4907316782
 20
57.8045985312
 30
0.0
 11
206.4907316782
 21
57.3434882775
 31
0.0
  0
SPLINE
  5
1BD
330
1F
100
AcDbEntity
  8
0
  6
Continuous
 62
     7
370
    15
100
AcDbSpline
210
0.0
220
0.0
230
1.0
 70
     8
 71
     3
 72
    11
 73
     7
 74
     0
 42
0.000000001
 43
0.00000001
 40
0.0
 40
0.0
 40
0.0
 40
0.0
 40
0.2784789425886051
 40
0.6340116635553744
 40
0.9848171431853399
 40
1.0
 40
1.0
 40
1.0
 40
1.0
 10
206.6065761053779
 20
57.05721342783964
 30
0.0
 10
206.7127619128358
 20
56.8861017950827
 30
0.0
 10
206.9545146278042
 20
56.49653276724359
 30
0.0
 10
207.4337327955002
 20
56.00666578418513
 30
0.0
 10
207.810595833068
 20
55.67627994096186
 30
0.0
 10
208.0320417784613
 20
55.55952772938015
 30
0.0
 10
208.041228361055
 20
55.55468431789753
 30
0.0
  0
LINE
  5
1BE
330
1F
100
AcDbEntity
  8
0
  6
Continuous
 62
     7
370
    15
100
AcDbLine
 10
266.5285133234
 20
40.2967417299
 30
0.0
 11
267.2336783676
 21
39.768886187
 31
0.0
  0
LINE
  5
1BF
330
1F
100
AcDbEntity
  8
0
  6
Continuous
 62
     7
370
    15
100
AcDbLine
 10
265.3840616863
 20
40.2081251824
 30
0.0
 11
266.5285133234
 21
40.2967417299
 31
0.0
  0
LINE
  5
1C0
330
1F
100
AcDbEntity
  8
0
  6
Continuous
 62
     7
370
    15
100
AcDbLine
 10
264.9447750933
 20
39.5916530919
 30
0.0
 11
265.3840616863
 21
40.2081251824
 31
0.0
  0
LINE
  5
1C1
330
1F
100
AcDbEntity
  8
0
  6
Continuous
 62
     7
370
    15
100
AcDbLine
 10
265.6499401375
 20
39.063797549
 30
0.0
 11
264.9447750933
 21
39.5916530919
 31
0.0
  0
LINE
  5
1C2
330
1F
100
AcDbEntity
  8
0
  6
Continuous
 62
     7
370
    15
100
AcDbLine
 10
266.7943917746
 20
39.1524140965
 30
0.0
 11
265.6499401375
 21
39.063797549
 31
0.0
  0
LINE
  5
1C3
330
1F
100
AcDbEntity
  8
0
  6
Continuous
 62
     7
370
    15
100
AcDbLine
 10
267.2336783676
 20
39.768886187
 30
0.0
 11
266.7943917746
 21
39.1524140965
 31
0.0
  0
LINE
  5
1C4
330
1F
100
AcDbEntity
  8
0
  6
Continuous
 62
     7
370
    15
100
AcDbLine
 10
265.3840616863
 20
39.2628224657
 30
0.0
 11
265.3840616863
 21
40.2081251824
 31
0.0
  0
LINE
  5
1C5
330
1F
100
AcDbEntity
  8
0
  6
Continuous
 62
     7
370
    15
100
AcDbLine
 10
266.5285133234
 20
39.131826743
 30
0.0
 11
266.5285133234
 21
40.2967417299
 31
0.0
  0
LWPOLYLINE
  5
1C6
330
1F
100
AcDbEntity
  8
0
  6
Continuous
 62
     7
370
    15
100
AcDbPolyline
 90
       43
 70
   128
 43
0.0
 10
269.2888849153
 20
38.3638978142
 10
268.6407438132
 20
37.9336453899
 10
268.0070811122
 20
37.4008270334
 10
267.4020517901
 20
36.7773450261
 10
266.8391712022
 20
36.0771269258
 10
266.3310131705
 20
35.3158144479
 10
265.8889291059
 20
34.5104140551
 10
265.5227944358
 20
33.6789170612
 10
265.2407880037
 20
32.8398977351
 10
265.0492093674
 20
32.0120983821
 10
264.952338077
 20
31.2140106718
 10
264.952338077
 20
30.463462565
 10
265.0492093674
 20
29.777220066
 10
265.2407880037
 20
29.1706126983
 10
265.5227944358
 20
28.6571910681
 10
265.8889291059
 20
28.2484241662
 10
266.3310131705
 20
27.9534431698
 10
266.8391712022
 20
27.7788374669
 10
267.4020517901
 20
27.7285074602
 10
268.0070811122
 20
27.8035774391
 10
268.6407438132
 20
28.0023704643
 10
269.2888849153
 20
28.320445828
 10
269.9370260175
 20
28.7506982522
 10
270.5706887184
 20
29.2835166088
 10
271.1757180405
 20
29.9069986161
 10
271.7385986285
 20
30.6072167163
 10
272.2467566602
 20
31.3685291942
 10
272.6888407248
 20
32.1739295871
 10
273.0549753949
 20
33.005426581
 10
273.3369818269
 20
33.8444459071
 10
273.5285604632
 20
34.6722452601
 10
273.6254317537
 20
35.4703329703
 10
273.6254317537
 20
36.2208810772
 10
273.5285604632
 20
36.9071235762
 10
273.3369818269
 20
37.5137309439
 10
273.0549753949
 20
38.0271525741
 10
272.6888407248
 20
38.4359194759
 10
272.2467566602
 20
38.7309004724
 10
271.7385986285
 20
38.9055061753
 10
271.1757180405
 20
38.9558361819
 10
270.5706887184
 20
38.880766203
 10
269.9370260175
 20
38.6819731779
 10
269.2888849153
 20
38.3638978142
  0
LWPOLYLINE
  5
1C7
330
1F
100
AcDbEntity
  8
0
  6
Continuous
 62
     7
370
    15
100
AcDbPolyline
 90
       23
 70
   128
 43
0.0
 10
269.2181742372
 20
38.486372301
 10
268.5594942554
 20
38.0491239024
 10
267.9155280959
 20
37.5076418327
 10
267.3006608986
 20
36.8740219065
 10
266.7286277807
 20
36.1624181461
 10
266.2122070169
 20
35.3887266035
 10
265.7629345935
 20
34.5702302694
 10
265.3908465141
 20
33.7252129991
 10
265.1042546116
 20
32.8725510824
 10
264.9095608755
 20
32.0312915773
 10
264.8111144421
 20
31.2202268311
 10
264.8111144421
 20
30.45747469
 10
264.9095608755
 20
29.7600737764
 10
265.1042546116
 20
29.1436028742
 10
265.3908465141
 20
28.6218329249
 10
265.7629345935
 20
28.2064194067
 10
266.2122070169
 20
27.9066419713
 10
266.7286277807
 20
27.7291971512
 10
267.3006608986
 20
27.6780487705
 10
267.9155280959
 20
27.7543393995
 10
268.5594942554
 20
27.9563648316
 10
269.2181742372
 20
28.2796121524
 10
269.2188925168
 20
28.2800268738
  0
LWPOLYLINE
  5
1C8
330
1F
100
AcDbEntity
  8
0
  6
Continuous
 62
     7
370
    15
100
AcDbPolyline
 90
       12
 70
   128
 43
0.0
 10
273.6375916196
 20
35.9342675761
 10
273.6252340323
 20
36.3085097634
 10
273.5267875989
 20
37.005910677
 10
273.3320938628
 20
37.6223815791
 10
273.0455019603
 20
38.1441515285
 10
272.673413881
 20
38.5595650466
 10
272.2241414576
 20
38.859342482
 10
271.7077206937
 20
39.0367873021
 10
271.1356875758
 20
39.0879356828
 10
270.5208203786
 20
39.0116450538
 10
269.8768542191
 20
38.8096196218
 10
269.2181742372
 20
38.486372301
  0
SPLINE
  5
1C9
330
1F
100
AcDbEntity
  8
0
  6
Continuous
 62
     7
370
    15
100
AcDbSpline
210
0.0
220
0.0
230
1.0
 70
    11
 71
     3
 72
    78
 73
    74
 74
     0
 42
0.000000001
 43
0.00000001
 40
0.0
 40
0.0
 40
0.0
 40
0.0
 40
0.0312500000000009
 40
0.0312500000000009
 40
0.0625000000000018
 40
0.0625000000000018
 40
0.0937500000000027
 40
0.0937500000000027
 40
0.1250000000000036
 40
0.1250000000000036
 40
0.1562500000000045
 40
0.1562500000000045
 40
0.1875000000000054
 40
0.1875000000000054
 40
0.2187500000000064
 40
0.2187500000000064
 40
0.2500000000000073
 40
0.2500000000000073
 40
0.2812500000000082
 40
0.2812500000000082
 40
0.2968750000000082
 40
0.2968750000000082
 40
0.3125000000000082
 40
0.3125000000000082
 40
0.3437500000000077
 40
0.3437500000000077
 40
0.3593750000000074
 40
0.3593750000000074
 40
0.3750000000000072
 40
0.3750000000000072
 40
0.4062500000000066
 40
0.4062500000000066
 40
0.4375000000000061
 40
0.4375000000000061
 40
0.4687500000000056
 40
0.4687500000000056
 40
0.500000000000005
 40
0.500000000000005
 40
0.5312500000000044
 40
0.5312500000000044
 40
0.5625000000000039
 40
0.5625000000000039
 40
0.5937500000000033
 40
0.5937500000000033
 40
0.6250000000000028
 40
0.6250000000000028
 40
0.6562500000000023
 40
0.6562500000000023
 40
0.6875000000000018
 40
0.6875000000000018
 40
0.7187500000000012
 40
0.7187500000000012
 40
0.7500000000000007
 40
0.7500000000000007
 40
0.7812500000000001
 40
0.7812500000000001
 40
0.8124999999999996
 40
0.8124999999999996
 40
0.8281249999999996
 40
0.8281249999999996
 40
0.8437499999999996
 40
0.8437499999999996
 40
0.8593749999999996
 40
0.8593749999999996
 40
0.8749999999999996
 40
0.8749999999999996
 40
0.9062499999999998
 40
0.9062499999999998
 40
0.9374999999999999
 40
0.9374999999999999
 40
0.96875
 40
0.96875
 40
1.0
 40
1.0
 40
1.0
 40
1.0
 10
266.0541241025264
 20
41.44684847774349
 30
0.0
 10
266.2043106044509
 20
41.41472425331657
 30
0.0
 10
266.3503019036747
 20
41.37577713130393
 30
0.0
 10
266.6350833800563
 20
41.28753638558281
 30
0.0
 10
266.7742971896365
 20
41.23804320075673
 30
0.0
 10
267.0438739542943
 20
41.13090729856914
 30
0.0
 10
267.1714279181253
 20
41.07442776953929
 30
0.0
 10
267.4128693836047
 20
40.95695483534412
 30
0.0
 10
267.5273202334837
 20
40.89561762203409
 30
0.0
 10
267.7394210882171
 20
40.77001639626452
 30
0.0
 10
267.8354409903468
 20
40.70678959422093
 30
0.0
 10
268.0079519487529
 20
40.57899826340906
 30
0.0
 10
268.0847761182096
 20
40.51411129937059
 30
0.0
 10
268.2160512646813
 20
40.38301794319653
 30
0.0
 10
268.2694297852324
 20
40.31799693150628
 30
0.0
 10
268.3515433471544
 20
40.18709654325146
 30
0.0
 10
268.3803855323641
 20
40.12089114550706
 30
0.0
 10
268.409848107862
 20
39.98657473361227
 30
0.0
 10
268.4102527424049
 20
39.92004029492283
 30
0.0
 10
268.38817021714
 20
39.81942675958202
 30
0.0
 10
268.3769990035952
 20
39.78575477239322
 30
0.0
 10
268.3464083570751
 20
39.71783956258979
 30
0.0
 10
268.3268176836929
 20
39.68335974465604
 30
0.0
 10
268.2554805490795
 20
39.58041242466044
 30
0.0
 10
268.1919653195264
 20
39.51296779920479
 30
0.0
 10
268.0706494723398
 20
39.41262627402132
 30
0.0
 10
268.0255624565866
 20
39.37918852139622
 30
0.0
 10
267.9289885499824
 20
39.3145149789252
 30
0.0
 10
267.8772550352057
 20
39.28304158299552
 30
0.0
 10
267.7118175274969
 20
39.19115749530745
 30
0.0
 10
267.5859440998649
 20
39.13256253761968
 30
0.0
 10
267.3197639826907
 20
39.02845962427219
 30
0.0
 10
267.1776204391485
 20
38.98201315703695
 30
0.0
 10
266.884168254756
 20
38.90337713321345
 30
0.0
 10
266.7351664634125
 20
38.87165659348266
 30
0.0
 10
266.4327762631488
 20
38.82361419521079
 30
0.0
 10
266.2808778748693
 20
38.80768370540115
 30
0.0
 10
265.9829614435536
 20
38.79309021145463
 30
0.0
 10
265.8345902178899
 20
38.79433943019522
 30
0.0
 10
265.5467234223061
 20
38.81497988041025
 30
0.0
 10
265.4079574110009
 20
38.83415989917242
 30
0.0
 10
265.1400025465302
 20
38.89095522045255
 30
0.0
 10
265.0098012937224
 20
38.92906832110536
 30
0.0
 10
264.7667501106428
 20
39.0226138317829
 30
0.0
 10
264.6532891427938
 20
39.07798381695316
 30
0.0
 10
264.4423013553945
 20
39.20602290083705
 30
0.0
 10
264.3440703249785
 20
39.27949138916765
 30
0.0
 10
264.1703560884172
 20
39.43908695045485
 30
0.0
 10
264.0942308689612
 20
39.52533947658094
 30
0.0
 10
263.9636995047161
 20
39.70979328764482
 30
0.0
 10
263.9089787621647
 20
39.80903395763089
 30
0.0
 10
263.8264149480258
 20
40.01197703307729
 30
0.0
 10
263.7980448773448
 20
40.11594922688504
 30
0.0
 10
263.7687682522238
 20
40.32733381806451
 30
0.0
 10
263.7681333050664
 20
40.43599213336083
 30
0.0
 10
263.7983774619036
 20
40.64686315124695
 30
0.0
 10
263.8287953868219
 20
40.74948095892585
 30
0.0
 10
263.9006611755785
 20
40.89720009868117
 30
0.0
 10
263.929022958944
 20
40.94519579570782
 30
0.0
 10
263.993364840478
 20
41.03604843142401
 30
0.0
 10
264.0294982729783
 20
41.07925122594371
 30
0.0
 10
264.1098936919271
 20
41.16096374485047
 30
0.0
 10
264.1541538908431
 20
41.19947454929063
 30
0.0
 10
264.2512986415867
 20
41.27143746925064
 30
0.0
 10
264.3042798143117
 20
41.30482821886311
 30
0.0
 10
264.4710850082923
 20
41.39391365367975
 30
0.0
 10
264.5943271625119
 20
41.43991907506395
 30
0.0
 10
264.8642087815094
 20
41.50601821955993
 30
0.0
 10
265.0052995240312
 20
41.52482057189792
 30
0.0
 10
265.2985368729719
 20
41.5387068917673
 30
0.0
 10
265.4500313834719
 20
41.53347112614728
 30
0.0
 10
265.7512864084275
 20
41.50372237943947
 30
0.0
 10
265.903937600602
 20
41.47897270217041
 30
0.0
 10
266.0541241025264
 20
41.44684847774349
 30
0.0
  0
LWPOLYLINE
  5
1CA
330
1F
100
AcDbEntity
  8
0
  6
Continuous
 62
     7
370
    15
100
AcDbPolyline
 90
       18
 70
   128
 43
0.0
 10
267.5005095655
 20
39.0829007614
 10
267.7288887492
 20
39.3272222302
 10
267.834767931
 20
39.6081989802
 10
267.7992337459
 20
39.8950144664
 10
267.6251649622
 20
40.1644326038
 10
267.3266635975
 20
40.3946267373
 10
266.9279124572
 20
40.5669479072
 10
266.4612159872
 20
40.6674356771
 10
265.9643831599
 20
40.6879491255
 10
265.4776644162
 20
40.6268263749
 10
265.0404908141
 20
40.4890192269
 10
264.6882795588
 20
40.2856919972
 10
264.4495647117
 20
40.0333170487
 10
264.3436855299
 20
39.7523402987
 10
264.379219715
 20
39.4655248125
 10
264.5532884987
 20
39.1961066751
 10
264.8517898634
 20
38.9659125416
 10
264.8517898634
 20
38.9659125416
  0
ARC
  5
1CB
330
1F
100
AcDbEntity
  8
0
  6
Continuous
 62
     7
370
    15
100
AcDbCircle
 10
248.8643626489
 20
45.1260822775
 30
0.0
 40
26.18672873657717
100
AcDbArc
 50
138.4720143474
 51
157.3018957841
  0
SPLINE
  5
1CC
330
1F
100
AcDbEntity
  8
0
  6
Continuous
 62
     7
370
    15
100
AcDbSpline
210
0.0
220
0.0
230
1.0
 70
     8
 71
     3
 72
    10
 73
     6
 74
     0
 42
0.000000001
 43
0.00000001
 40
0.0
 40
0.0
 40
0.0
 40
0.0
 40
0.5
 40
0.5
 40
1.0
 40
1.0
 40
1.0
 40
1.0
 10
223.4647318846189
 20
51.40370080714086
 30
0.0
 10
223.4082031988364
 20
51.37106749145824
 30
0.0
 10
223.3295598762617
 20
51.35069451599927
 30
0.0
 10
223.1693299619305
 20
51.34763311603792
 30
0.0
 10
223.0881629493898
 20
51.36529231591817
 30
0.0
 10
223.031049049052
 20
51.39826346877248
 30
0.0
  0
SPLINE
  5
1CD
330
1F
100
AcDbEntity
  8
0
  6
Continuous
 62
     7
370
    15
100
AcDbSpline
210
0.0
220
0.0
230
1.0
 70
     8
 71
     3
 72
    12
 73
     8
 74
     0
 42
0.000000001
 43
0.00000001
 40
0.0
 40
0.0
 40
0.0
 40
0.0
 40
0.2500000000000033
 40
0.2500000000000033
 40
0.5000000000000067
 40
0.5000000000000067
 40
1.0
 40
1.0
 40
1.0
 40
1.0
 10
240.7217709553968
 20
67.92222534702758
 30
0.0
 10
240.7536752837415
 20
67.90380737031182
 30
0.0
 10
240.7858126201824
 20
67.87389282967976
 30
0.0
 10
240.8404709266086
 20
67.80349540973685
 30
0.0
 10
240.863444265939
 20
67.76311471306101
 30
0.0
 10
240.9171260548767
 20
67.64059088302565
 30
0.0
 10
240.9339029897528
 20
67.55578956141997
 30
0.0
 10
240.9339029897528
 20
67.48223696578636
 30
0.0
  0
LINE
  5
1CE
330
1F
100
AcDbEntity
  8
0
  6
Continuous
 62
     7
370
    15
100
AcDbLine
 10
223.0310490491
 20
51.3982634688
 30
0.0
 11
221.6316609814
 21
52.2061130047
 31
0.0
  0
LWPOLYLINE
  5
1CF
330
1F
100
AcDbEntity
  8
0
  6
Continuous
 62
     7
370
    15
100
AcDbPolyline
 90
       22
 70
   128
 43
0.0
 10
221.6316609814
 20
52.2061130047
 10
221.9752221633
 20
53.5386561172
 10
222.4089533068
 20
54.8812753259
 10
222.9290680777
 20
56.2222499953
 10
223.5310260408
 20
57.5498738457
 10
224.2095722958
 20
58.8525571462
 10
224.9587833512
 20
60.1189278887
 10
225.7721188343
 20
61.3379310621
 10
226.642478587
 20
62.4989251592
 10
227.5622646472
 20
63.5917750733
 10
228.5234475772
 20
64.6069405745
 10
229.5176365579
 20
65.5355595932
 10
230.5361526377
 20
66.3695255826
 10
231.5701044976
 20
67.1015582869
 10
232.6104660689
 20
67.7252672948
 10
233.6481553282
 20
68.2352078265
 10
234.6741135806
 20
68.6269282645
 10
235.6793845391
 20
68.8970090147
 10
236.6551925102
 20
69.0430923588
 10
237.5930190027
 20
69.0639030358
 10
238.4846770918
 20
68.9592593753
 10
239.3223828878
 20
68.7300748829
  0
LINE
  5
1D0
330
1F
100
AcDbEntity
  8
0
  6
Continuous
 62
     7
370
    15
100
AcDbLine
 10
239.3223828878
 20
68.7300748829
 30
0.0
 11
240.7217709554
 21
67.922225347
 31
0.0
  0
LINE
  5
1D1
330
1F
100
AcDbEntity
  8
0
  6
Continuous
 62
     7
370
    15
100
AcDbLine
 10
243.2496776981
 20
62.4170365036
 30
0.0
 11
244.4681783601
 21
63.1204619629
 31
0.0
  0
LINE
  5
1D2
330
1F
100
AcDbEntity
  8
0
  6
Continuous
 62
     7
370
    15
100
AcDbLine
 10
243.2496776981
 20
55.8847100085
 30
0.0
 11
243.2496776981
 21
62.4170365036
 31
0.0
  0
LINE
  5
1D3
330
1F
100
AcDbEntity
  8
0
  6
Continuous
 62
     7
370
    15
100
AcDbLine
 10
244.4681783601
 20
56.5881354678
 30
0.0
 11
243.2496776981
 21
55.8847100085
 31
0.0
  0
LINE
  5
1D4
330
1F
100
AcDbEntity
  8
0
  6
Continuous
 62
     7
370
    15
100
AcDbLine
 10
223.4647318846
 20
44.0548335002
 30
0.0
 11
224.5820586748
 21
44.6998525265
 31
0.0
  0
LINE
  5
1D5
330
1F
100
AcDbEntity
  8
0
  6
Continuous
 62
     7
370
    15
100
AcDbLine
 10
224.5820586748
 20
44.6998525265
 30
0.0
 11
224.5820586748
 21
52.0487198335
 31
0.0
  0
LINE
  5
1D6
330
1F
100
AcDbEntity
  8
0
  6
Continuous
 62
     7
370
    15
100
AcDbLine
 10
224.5820586748
 20
52.0487198335
 30
0.0
 11
223.4647318846
 21
51.4037008071
 31
0.0
  0
LINE
  5
1D7
330
1F
100
AcDbEntity
  8
0
  6
Continuous
 62
     7
370
    15
100
AcDbLine
 10
240.9339029898
 20
67.4822369658
 30
0.0
 11
240.9339029898
 21
65.9181725309
 31
0.0
  0
LINE
  5
1D8
330
1F
100
AcDbEntity
  8
0
  6
Continuous
 62
     7
370
    15
100
AcDbLine
 10
242.2883491509
 20
66.7000776565
 30
0.0
 11
240.9339029898
 21
65.9181725309
 31
0.0
  0
LWPOLYLINE
  5
1D9
330
1F
100
AcDbEntity
  8
0
  6
Continuous
 62
     7
370
    15
100
AcDbPolyline
 90
       20
 70
   128
 43
0.0
 10
220.7078781937
 20
53.8370950386
 10
221.076298898
 20
55.1579064745
 10
221.5391647791
 20
56.484949132
 10
222.091802154
 20
57.8048234988
 10
222.7286308918
 20
59.1042024427
 10
223.443220759
 20
60.3699657796
 10
224.2283563463
 20
61.5893327511
 10
225.0761099253
 20
62.7499910759
 10
225.9779214963
 20
63.8402212697
 10
226.9246852216
 20
64.8490149803
 10
227.9068413692
 20
65.766186142
 10
228.91447284
 20
66.582473827
 10
229.9374053038
 20
67.2896357556
 10
230.9653099321
 20
67.8805315204
 10
231.9878076909
 20
68.3491946856
 10
232.994574141
 20
68.6908930311
 10
233.9754436865
 20
68.9021763352
 10
234.9205122195
 20
68.9809112129
 10
235.8202371249
 20
68.9263026565
 10
235.8229442414
 20
68.9259265448
  0
SPLINE
  5
1DA
330
1F
100
AcDbEntity
  8
0
  6
Continuous
 62
     7
370
    15
100
AcDbSpline
210
0.0
220
0.0
230
1.0
 70
     8
 71
     3
 72
     8
 73
     4
 74
     0
 42
0.000000001
 43
0.00000001
 40
0.0
 40
0.0
 40
0.0
 40
0.0
 40
1.0
 40
1.0
 40
1.0
 40
1.0
 10
220.707878193661
 20
53.83709503861914
 30
0.0
 10
220.2165771646085
 20
53.75444781841525
 30
0.0
 10
219.7249970737058
 20
53.67236403092481
 30
0.0
 10
219.2332022749538
 20
53.59071374384307
 30
0.0
  0
LWPOLYLINE
  5
1DB
330
1F
100
AcDbEntity
  8
0
  6
Continuous
 62
     7
370
    15
100
AcDbPolyline
 90
       22
 70
   128
 43
0.0
 10
219.233202275
 20
53.5907137438
 10
219.5767634569
 20
54.9232568564
 10
220.0104946003
 20
56.2658760651
 10
220.5306093712
 20
57.6068507345
 10
221.1325673343
 20
58.9344745849
 10
221.8111135893
 20
60.2371578854
 10
222.5603246447
 20
61.5035286279
 10
223.3736601278
 20
62.7225318013
 10
224.2440198805
 20
63.8835258984
 10
225.1638059407
 20
64.9763758125
 10
226.1249888707
 20
65.9915413137
 10
227.1191778514
 20
66.9201603324
 10
228.1376939313
 20
67.7541263218
 10
229.1716457912
 20
68.4861590261
 10
230.2120073624
 20
69.109868034
 10
231.2496966217
 20
69.6198085657
 10
232.2756548741
 20
70.0115290037
 10
233.2809258326
 20
70.2816097539
 10
234.2567338037
 20
70.427693098
 10
235.1945602962
 20
70.448503775
 10
236.0862183853
 20
70.3438601145
 10
236.9239241813
 20
70.1146756221
  0
LINE
  5
1DC
330
1F
100
AcDbEntity
  8
0
  6
Continuous
 62
     7
370
    15
100
AcDbLine
 10
236.9239241813
 20
70.1146756221
 30
0.0
 11
237.2657857782
 21
69.0101661072
 31
0.0
  0
LINE
  5
1DD
330
1F
100
AcDbEntity
  8
0
  6
Continuous
 62
     7
370
    15
100
AcDbLine
 10
233.5092817873
 20
72.0859067173
 30
0.0
 11
236.9239241813
 21
70.1146756221
 31
0.0
  0
LINE
  5
1DE
330
1F
100
AcDbEntity
  8
0
  6
Continuous
 62
     7
370
    15
100
AcDbLine
 10
219.233202275
 20
53.5907137438
 30
0.0
 11
218.6469870057
 21
53.9291286154
 31
0.0
  0
SPLINE
  5
1DF
330
1F
100
AcDbEntity
  8
0
  6
Continuous
 62
     7
370
    15
100
AcDbSpline
210
0.0
220
0.0
230
1.0
 70
     8
 71
     3
 72
    28
 73
    24
 74
     0
 42
0.000000001
 43
0.00000001
 40
0.0
 40
0.0
 40
0.0
 40
0.0
 40
0.1249999999999999
 40
0.1249999999999999
 40
0.1874999999999998
 40
0.1874999999999998
 40
0.2499999999999997
 40
0.2499999999999997
 40
0.3749999999999994
 40
0.3749999999999994
 40
0.4374999999999994
 40
0.4374999999999994
 40
0.4999999999999993
 40
0.4999999999999993
 40
0.6249999999999993
 40
0.6249999999999993
 40
0.7499999999999994
 40
0.7499999999999994
 40
0.8124999999999996
 40
0.8124999999999996
 40
0.8749999999999998
 40
0.8749999999999998
 40
1.0
 40
1.0
 40
1.0
 40
1.0
 10
218.6469870056954
 20
53.92912861542288
 30
0.0
 10
218.458999925229
 20
54.03765124700696
 30
0.0
 10
218.2687799706283
 20
54.11959496755486
 30
0.0
 10
217.9806813686803
 20
54.20475269759333
 30
0.0
 10
217.8841914980808
 20
54.22680262799713
 30
0.0
 10
217.6904533252459
 20
54.25807645145609
 30
0.0
 10
217.5932023047145
 20
54.26720370277952
 30
0.0
 10
217.3071804298292
 20
54.27498654488792
 30
0.0
 10
217.1218386134726
 20
54.25468000125085
 30
0.0
 10
216.8533260266568
 20
54.18745934811771
 30
0.0
 10
216.764965366991
 20
54.15867299051213
 30
0.0
 10
216.5946126567013
 20
54.08966110041697
 30
0.0
 10
216.5125856269199
 20
54.04952121050685
 30
0.0
 10
216.2761493731672
 20
53.91290144274362
 30
0.0
 10
216.1312821230449
 20
53.80038695305456
 30
0.0
 10
215.8704253295608
 20
53.5321299880551
 30
0.0
 10
215.7581329220585
 20
53.37997660167781
 30
0.0
 10
215.6189084406047
 20
53.1280602139795
 30
0.0
 10
215.5773126542389
 20
53.04001792830313
 30
0.0
 10
215.5041879391776
 20
52.85567687325131
 30
0.0
 10
215.4725634551247
 20
52.75888811056953
 30
0.0
 10
215.3950701517025
 20
52.46087303167271
 30
0.0
 10
215.3658954363127
 20
52.25140015453619
 30
0.0
 10
215.3599285535709
 20
52.03101936185232
 30
0.0
  0
ARC
  5
1E0
330
1F
100
AcDbEntity
  8
0
  6
Continuous
 62
     7
370
    15
100
AcDbCircle
 10
230.203295016
 20
51.6227489559
 30
0.0
 40
14.8489801893036
100
AcDbArc
 50
178.4244628824
 51
181.5755371176
  0
SPLINE
  5
1E1
330
1F
100
AcDbEntity
  8
0
  6
Continuous
 62
     7
370
    15
100
AcDbSpline
210
0.0
220
0.0
230
1.0
 70
     8
 71
     3
 72
    30
 73
    26
 74
     0
 42
0.000000001
 43
0.00000001
 40
0.0
 40
0.0
 40
0.0
 40
0.0
 40
0.125
 40
0.125
 40
0.1875000000000001
 40
0.1875000000000001
 40
0.2500000000000001
 40
0.2500000000000001
 40
0.3750000000000001
 40
0.3750000000000001
 40
0.4375000000000001
 40
0.4375000000000001
 40
0.5000000000000001
 40
0.5000000000000001
 40
0.6250000000000006
 40
0.6250000000000006
 40
0.6875000000000006
 40
0.6875000000000006
 40
0.7500000000000006
 40
0.7500000000000006
 40
0.8125000000000006
 40
0.8125000000000006
 40
0.8750000000000006
 40
0.8750000000000006
 40
1.0
 40
1.0
 40
1.0
 40
1.0
 10
215.3599285535709
 20
51.21447854996657
 30
0.0
 10
215.3658961522624
 20
51.00096135719185
 30
0.0
 10
215.3950413722618
 20
50.78341145917273
 30
0.0
 10
215.4714760335207
 20
50.45111242963713
 30
0.0
 10
215.502442017098
 20
50.33933812833757
 30
0.0
 10
215.5754119579137
 20
50.11363625480257
 30
0.0
 10
215.6175481564723
 20
49.99954848223006
 30
0.0
 10
215.7574399458367
 20
49.66138575486887
 30
0.0
 10
215.869283870379
 20
49.4388755355961
 30
0.0
 10
216.0630704675235
 20
49.10826527964653
 30
0.0
 10
216.1324111051268
 20
48.99803863994038
 30
0.0
 10
216.2779034895735
 20
48.78130863948684
 30
0.0
 10
216.3537907802925
 20
48.67511170385612
 30
0.0
 10
216.590178728764
 20
48.36247353060651
 30
0.0
 10
216.7593242310148
 20
48.16193098277135
 30
0.0
 10
217.0291902283489
 20
47.871826143349
 30
0.0
 10
217.1213817343998
 20
47.77748272697656
 30
0.0
 10
217.3069803294345
 20
47.59617769891616
 30
0.0
 10
217.4008092097213
 20
47.50875836542201
 30
0.0
 10
217.5902592601867
 20
47.34015081509736
 30
0.0
 10
217.6858806753923
 20
47.25896262932802
 30
0.0
 10
217.8787423648187
 20
47.10279994977987
 30
0.0
 10
217.9764772737171
 20
47.02747297008317
 30
0.0
 10
218.2677332288375
 20
46.81418273663934
 30
0.0
 10
218.4589906198106
 20
46.6887893119389
 30
0.0
 10
218.6469870056954
 20
46.58026130845113
 30
0.0
  0
LINE
  5
1E2
330
1F
100
AcDbEntity
  8
0
  6
Continuous
 62
     7
370
    15
100
AcDbLine
 10
218.6469870057
 20
46.5802613085
 30
0.0
 11
219.233202275
 21
46.2418464369
 31
0.0
  0
ARC
  5
1E3
330
1F
100
AcDbEntity
  8
0
  6
Continuous
 62
     7
370
    15
100
AcDbCircle
 10
225.133601529
 20
47.707759634
 30
0.0
 40
6.079770789987292
100
AcDbArc
 50
193.9522536398
 51
252.6699177168
  0
LINE
  5
1E4
330
1F
100
AcDbEntity
  8
0
  6
Continuous
 62
     7
370
    15
100
AcDbLine
 10
238.5533420376
 20
69.1737269291
 30
0.0
 11
238.8876544414
 21
68.8663988189
 31
0.0
  0
LINE
  5
1E5
330
1F
100
AcDbEntity
  8
0
  6
Continuous
 62
     7
370
    15
100
AcDbLine
 10
237.7004132838
 20
69.666112218
 30
0.0
 11
238.5533420376
 21
69.1737269291
 31
0.0
  0
SPLINE
  5
1E6
330
1F
100
AcDbEntity
  8
0
  6
Continuous
 62
     7
370
    15
100
AcDbSpline
210
0.0
220
0.0
230
1.0
 70
     8
 71
     3
 72
    20
 73
    16
 74
     0
 42
0.000000001
 43
0.00000001
 40
0.0
 40
0.0
 40
0.0
 40
0.0
 40
0.2500000000000005
 40
0.2500000000000005
 40
0.3750000000000004
 40
0.3750000000000004
 40
0.5000000000000003
 40
0.5000000000000003
 40
0.6250000000000002
 40
0.6250000000000002
 40
0.7500000000000001
 40
0.7500000000000001
 40
0.8750000000000001
 40
0.8750000000000001
 40
1.0
 40
1.0
 40
1.0
 40
1.0
 10
233.509281787294
 20
72.08590671732333
 30
0.0
 10
233.828270441692
 20
71.95201632806352
 30
0.0
 10
234.1547260417899
 20
71.79211998100155
 30
0.0
 10
234.6670761591731
 20
71.51420105353202
 30
0.0
 10
234.8416795258509
 20
71.41520204072172
 30
0.0
 10
235.2015533881998
 20
71.20426133582302
 30
0.0
 10
235.3844138045533
 20
71.09370551861299
 30
0.0
 10
235.7507088937305
 20
70.86828764960215
 30
0.0
 10
235.9351924099891
 20
70.75280704822269
 30
0.0
 10
236.3087772342246
 20
70.51797470392692
 30
0.0
 10
236.4931267054639
 20
70.40164477865166
 30
0.0
 10
236.8538366119404
 20
70.17595009185229
 30
0.0
 10
237.0308906011942
 20
70.0661401177556
 30
0.0
 10
237.3786199525466
 20
69.85474535421967
 30
0.0
 10
237.5438703690048
 20
69.75648251907668
 30
0.0
 10
237.7004132837862
 20
69.6661122179593
 30
0.0
  0
LINE
  5
1E7
330
1F
100
AcDbEntity
  8
0
  6
Continuous
 62
     7
370
    15
100
AcDbLine
 10
221.8424927485
 20
53.0628362702
 30
0.0
 11
221.378864956
 21
53.3304828978
 31
0.0
  0
LINE
  5
1E8
330
1F
100
AcDbEntity
  8
0
  6
Continuous
 62
     7
370
    15
100
AcDbLine
 10
220.953046798
 20
53.9786278613
 30
0.0
 11
220.7078781937
 21
53.8370950386
 31
0.0
  0
SPLINE
  5
1E9
330
1F
100
AcDbEntity
  8
0
  6
Continuous
 62
     7
370
    15
100
AcDbSpline
210
0.0
220
0.0
230
1.0
 70
     8
 71
     3
 72
    14
 73
    10
 74
     0
 42
0.000000001
 43
0.00000001
 40
0.0
 40
0.0
 40
0.0
 40
0.0
 40
0.1249999999999983
 40
0.1249999999999983
 40
0.2499999999999967
 40
0.2499999999999967
 40
0.4999999999999968
 40
0.4999999999999968
 40
1.0
 40
1.0
 40
1.0
 40
1.0
 10
221.3788649560388
 20
53.33048289779715
 30
0.0
 10
221.3546685228736
 20
53.34445120133971
 30
0.0
 10
221.3314930844147
 20
53.37181637733725
 30
0.0
 10
221.2945726919837
 20
53.42961814646278
 30
0.0
 10
221.2795309009511
 20
53.46058862557914
 30
0.0
 10
221.2397174443642
 20
53.55361509850835
 30
0.0
 10
221.2200814259802
 20
53.61622615279312
 30
0.0
 10
221.1696605775107
 20
53.8005569037081
 30
0.0
 10
221.1472433992702
 20
53.92210113860878
 30
0.0
 10
221.1305555011043
 20
54.04123020391115
 30
0.0
  0
SPLINE
  5
1EA
330
1F
100
AcDbEntity
  8
0
  6
Continuous
 62
     7
370
    15
100
AcDbSpline
210
0.0
220
0.0
230
1.0
 70
     8
 71
     3
 72
    10
 73
     6
 74
     0
 42
0.000000001
 43
0.00000001
 40
0.0
 40
0.0
 40
0.0
 40
0.0
 40
0.5
 40
0.5
 40
1.0
 40
1.0
 40
1.0
 40
1.0
 10
221.1305555011043
 20
54.04123020391116
 30
0.0
 10
221.0971654829165
 20
54.03508043471092
 30
0.0
 10
221.0649261314884
 20
54.02653382686285
 30
0.0
 10
221.004938237226
 20
54.00529785309395
 30
0.0
 10
220.9776763639771
 20
53.99284620708577
 30
0.0
 10
220.9530467980272
 20
53.97862786130892
 30
0.0
  0
LWPOLYLINE
  5
1EB
330
1F
100
AcDbEntity
  8
0
  6
Continuous
 62
     7
370
    15
100
AcDbPolyline
 90
       21
 70
   128
 43
0.0
 10
213.7102919141
 20
52.6910440713
 10
213.7587617367
 20
53.9118338314
 10
213.9037452498
 20
55.1778573131
 10
214.1439683333
 20
56.4779886566
 10
214.477319898
 20
57.8008022609
 10
214.9008704383
 20
59.1346731925
 10
215.410897777
 20
60.4678793456
 10
216.0029197753
 20
61.7887044567
 10
216.6717337227
 20
63.0855410671
 10
217.4114620581
 20
64.3469925302
 10
218.2156040224
 20
65.5619731651
 10
219.0770927871
 20
66.7198056782
 10
219.9883575579
 20
67.810314996
 10
220.9413901072
 20
68.8239176831
 10
221.9278151508
 20
69.7517061629
 10
222.9389639498
 20
70.5855269967
 10
223.9659504923
 20
71.3180525371
 10
224.9997495837
 20
71.9428453233
 10
226.0312761603
 20
72.4544146539
 10
227.0514651294
 20
72.8482648391
 10
227.7972307226
 20
73.0626828102
  0
ARC
  5
1EC
330
1F
100
AcDbEntity
  8
0
  6
Continuous
 62
     7
370
    15
100
AcDbCircle
 10
224.6606818092
 20
52.4875585517
 30
0.0
 40
10.95228036584831
100
AcDbArc
 50
178.9354242283
 51
200.6334030858
  0
LINE
  5
1ED
330
1F
100
AcDbEntity
  8
0
  6
Continuous
 62
     7
370
    15
100
AcDbLine
 10
222.4120629381
 20
45.9525644006
 30
0.0
 11
224.5820586748
 21
44.6998525265
 31
0.0
  0
SPLINE
  5
1EE
330
1F
100
AcDbEntity
  8
0
  6
Continuous
 62
     7
370
    15
100
AcDbSpline
210
0.0
220
0.0
230
1.0
 70
     8
 71
     3
 72
    14
 73
    10
 74
     0
 42
0.000000001
 43
0.00000001
 40
0.0
 40
0.0
 40
0.0
 40
0.0
 40
0.1249999999999993
 40
0.1249999999999993
 40
0.2499999999999987
 40
0.2499999999999987
 40
0.4999999999999973
 40
0.4999999999999973
 40
1.0
 40
1.0
 40
1.0
 40
1.0
 10
222.1637534831558
 20
46.66331170673524
 30
0.0
 10
222.1879820611085
 20
46.64932484640184
 30
0.0
 10
222.2110679024744
 20
46.6220260765851
 30
0.0
 10
222.2478102765376
 20
46.56458686827769
 30
0.0
 10
222.2629685762213
 20
46.5334363932753
 30
0.0
 10
222.302531503109
 20
46.44113685306953
 30
0.0
 10
222.3221413763519
 20
46.378899072314
 30
0.0
 10
222.3729642253068
 20
46.19344330611742
 30
0.0
 10
222.3953959094308
 20
46.07154448581971
 30
0.0
 10
222.4120629380903
 20
45.95256440062114
 30
0.0
  0
LINE
  5
1EF
330
1F
100
AcDbEntity
  8
0
  6
Continuous
 62
     7
370
    15
100
AcDbLine
 10
221.378864956
 20
47.1164182088
 30
0.0
 11
222.1637534832
 21
46.6633117067
 31
0.0
  0
SPLINE
  5
1F0
330
1F
100
AcDbEntity
  8
0
  6
Continuous
 62
     7
370
    15
100
AcDbSpline
210
0.0
220
0.0
230
1.0
 70
     8
 71
     3
 72
    14
 73
    10
 74
     0
 42
0.000000001
 43
0.00000001
 40
0.0
 40
0.0
 40
0.0
 40
0.0
 40
0.5
 40
0.5
 40
0.75
 40
0.75
 40
0.875
 40
0.875
 40
1.0
 40
1.0
 40
1.0
 40
1.0
 10
221.1305555011042
 20
46.69236289693916
 30
0.0
 10
221.147179582558
 20
46.79184264116927
 30
0.0
 10
221.1695969841623
 20
46.88767777456528
 30
0.0
 10
221.220028042011
 20
47.01389372413891
 30
0.0
 10
221.2395627359422
 20
47.05372727283316
 30
0.0
 10
221.2795058932776
 20
47.10098760430501
 30
0.0
 10
221.2945228604433
 20
47.11459021791028
 30
0.0
 10
221.331584227965
 20
47.12981061948599
 30
0.0
 10
221.3545678903133
 20
47.13044460627986
 30
0.0
 10
221.3788649560388
 20
47.11641820879682
 30
0.0
  0
LINE
  5
1F1
330
1F
100
AcDbEntity
  8
0
  6
Continuous
 62
     7
370
    15
100
AcDbLine
 10
219.9858645971
 20
47.35317889
 30
0.0
 11
221.1305555011
 21
46.6923628969
 31
0.0
  0
ARC
  5
1F2
330
1F
100
AcDbEntity
  8
0
  6
Continuous
 62
     7
370
    15
100
AcDbCircle
 10
223.2983018778
 20
52.5316017702
 30
0.0
 40
6.1472192302884
100
AcDbArc
 50
182.6054784857
 51
237.39452166
  0
LINE
  5
1F3
330
1F
100
AcDbEntity
  8
0
  6
Continuous
 62
     7
370
    15
100
AcDbLine
 10
217.1574374724
 20
53.068699173
 30
0.0
 11
217.1574374724
 21
52.2521583611
 31
0.0
  0
ARC
  5
1F4
330
1F
100
AcDbEntity
  8
0
  6
Continuous
 62
     7
370
    15
100
AcDbCircle
 10
219.6938997556
 20
53.1638445558
 30
0.0
 40
2.538246157941547
100
AcDbArc
 50
153.7667673212
 51
182.1482180909
  0
SPLINE
  5
1F5
330
1F
100
AcDbEntity
  8
0
  6
Continuous
 62
     7
370
    15
100
AcDbSpline
210
0.0
220
0.0
230
1.0
 70
     8
 71
     3
 72
    12
 73
     8
 74
     0
 42
0.000000001
 43
0.00000001
 40
0.0
 40
0.0
 40
0.0
 40
0.0
 40
0.2499999999999999
 40
0.2499999999999999
 40
0.4999999999999998
 40
0.4999999999999998
 40
1.0
 40
1.0
 40
1.0
 40
1.0
 10
244.4755164135256
 20
56.83729406947361
 30
0.0
 10
244.5036214151898
 20
56.82106939736468
 30
0.0
 10
244.5262773821172
 20
56.80104979455644
 30
0.0
 10
244.5553995239979
 20
56.75808816719343
 30
0.0
 10
244.5622549222034
 20
56.73488029187315
 30
0.0
 10
244.5590969272031
 20
56.66599342726344
 30
0.0
 10
244.5244648093147
 20
56.62062894334205
 30
0.0
 10
244.4681783600826
 20
56.58813546784354
 30
0.0
  0
ARC
  5
1F6
330
1F
100
AcDbEntity
  8
0
  6
Continuous
 62
     7
370
    15
100
AcDbCircle
 10
228.6663919236
 20
45.1597002975
 30
0.0
 40
5.65842148342391
100
AcDbArc
 50
205.8469182426
 51
274.0264777805
  0
SPLINE
  5
1F7
330
1F
100
AcDbEntity
  8
0
  6
Continuous
 62
     7
370
    15
100
AcDbSpline
210
0.0
220
0.0
230
1.0
 70
     8
 71
     3
 72
    12
 73
     8
 74
     0
 42
0.000000001
 43
0.00000001
 40
0.0
 40
0.0
 40
0.0
 40
0.0
 40
0.2500000000000001
 40
0.2500000000000001
 40
0.5000000000000002
 40
0.5000000000000002
 40
1.0
 40
1.0
 40
1.0
 40
1.0
 10
223.031049049052
 20
44.04939616180073
 30
0.0
 10
223.0592912491243
 20
44.0330922867367
 30
0.0
 10
223.0938373810298
 20
44.02013649332671
 30
0.0
 10
223.1685614407274
 20
44.00342475513416
 30
0.0
 10
223.2088518320291
 20
43.99953784634671
 30
0.0
 10
223.3299648494654
 20
44.00180124423601
 30
0.0
 10
223.4080824118833
 20
44.02213045566275
 30
0.0
 10
223.4647318846189
 20
44.0548335001691
 30
0.0
  0
LINE
  5
1F8
330
1F
100
AcDbEntity
  8
0
  6
Continuous
 62
     7
370
    15
100
AcDbLine
 10
243.2496776981
 20
57.5449556969
 30
0.0
 11
244.4755164135
 21
56.8372940695
 31
0.0
  0
ARC
  5
1F9
330
1F
100
AcDbEntity
  8
0
  6
Continuous
 62
     7
370
    15
100
AcDbCircle
 10
227.7562728019
 20
46.4305322186
 30
0.0
 40
6.323456367211885
100
AcDbArc
 50
194.4066126789
 51
238.2628500295
  0
LINE
  5
1FA
330
1F
100
AcDbEntity
  8
0
  6
Continuous
 62
     7
370
    15
100
AcDbLine
 10
221.6316609814
 20
44.8572456977
 30
0.0
 11
223.0310490491
 21
44.0493961618
 31
0.0
  0
SPLINE
  5
1FB
330
1F
100
AcDbEntity
  8
0
  6
Continuous
 62
     7
370
    15
100
AcDbSpline
210
0.0
220
0.0
230
1.0
 70
     8
 71
     3
 72
     8
 73
     4
 74
     0
 42
0.000000001
 43
0.00000001
 40
0.0
 40
0.0
 40
0.0
 40
0.0
 40
1.0
 40
1.0
 40
1.0
 40
1.0
 10
222.0584521457273
 20
45.7085579848567
 30
0.0
 10
221.9152874490368
 20
45.4249359378497
 30
0.0
 10
221.7730987521842
 20
45.14115279186568
 30
0.0
 10
221.631660981429
 20
44.85724569767861
 30
0.0
  0
LINE
  5
1FC
330
1F
100
AcDbEntity
  8
0
  6
Continuous
 62
     7
370
    15
100
AcDbLine
 10
222.3036207501
 20
45.8500908075
 30
0.0
 11
222.0584521457
 21
45.7085579849
 31
0.0
  0
SPLINE
  5
1FD
330
1F
100
AcDbEntity
  8
0
  6
Continuous
 62
     7
370
    15
100
AcDbSpline
210
0.0
220
0.0
230
1.0
 70
     8
 71
     3
 72
    10
 73
     6
 74
     0
 42
0.000000001
 43
0.00000001
 40
0.0
 40
0.0
 40
0.0
 40
0.0
 40
0.5
 40
0.5
 40
1.0
 40
1.0
 40
1.0
 40
1.0
 10
222.4120629380904
 20
45.95256440062123
 30
0.0
 10
222.4014100711205
 20
45.93328875341508
 30
0.0
 10
222.3866053079683
 20
45.91467737199
 30
0.0
 10
222.3498195366374
 20
45.88004709775842
 30
0.0
 10
222.3282503160433
 20
45.8643091533233
 30
0.0
 10
222.3036207500934
 20
45.85009080754643
 30
0.0
  0
SPLINE
  5
1FE
330
1F
100
AcDbEntity
  8
0
  6
Continuous
 62
     7
370
    15
100
AcDbSpline
210
0.0
220
0.0
230
1.0
 70
     8
 71
     3
 72
    14
 73
    10
 74
     0
 42
0.000000001
 43
0.00000001
 40
0.0
 40
0.0
 40
0.0
 40
0.0
 40
0.5000000000000019
 40
0.5000000000000019
 40
0.7500000000000018
 40
0.7500000000000018
 40
0.875000000000001
 40
0.875000000000001
 40
1.0
 40
1.0
 40
1.0
 40
1.0
 10
206.4907536814116
 20
57.34762374775791
 30
0.0
 10
206.8059196252515
 20
57.12053575686205
 30
0.0
 10
207.1221952805174
 20
56.8906893818139
 30
0.0
 10
207.6010197690885
 20
56.53538077982478
 30
0.0
 10
207.7613397795126
 20
56.41524246562923
 30
0.0
 10
208.0043923154662
 20
56.22897363138541
 30
0.0
 10
208.0858357534828
 20
56.16588039015841
 30
0.0
 10
208.2504972025162
 20
56.03553514774627
 30
0.0
 10
208.3334032205825
 20
55.96901070576902
 30
0.0
 10
208.4194220486671
 20
55.89521723444547
 30
0.0
  0
SPLINE
  5
1FF
330
1F
100
AcDbEntity
  8
0
  6
Continuous
 62
     7
370
    15
100
AcDbSpline
210
0.0
220
0.0
230
1.0
 70
     8
 71
     3
 72
     8
 73
     4
 74
     0
 42
0.000000001
 43
0.00000001
 40
0.0
 40
0.0
 40
0.0
 40
0.0
 40
1.0
 40
1.0
 40
1.0
 40
1.0
 10
208.4194220486671
 20
55.89521723444547
 30
0.0
 10
208.7210745219046
 20
55.63643687636365
 30
0.0
 10
209.0263540654281
 20
55.38886186095898
 30
0.0
 10
209.3310136385547
 20
55.14788900439246
 30
0.0
  0
SPLINE
  5
200
330
1F
100
AcDbEntity
  8
0
  6
Continuous
 62
     7
370
    15
100
AcDbSpline
210
0.0
220
0.0
230
1.0
 70
     8
 71
     3
 72
    14
 73
    10
 74
     0
 42
0.000000001
 43
0.00000001
 40
0.0
 40
0.0
 40
0.0
 40
0.0
 40
0.1250000000000027
 40
0.1250000000000027
 40
0.2500000000000053
 40
0.2500000000000053
 40
0.5000000000000048
 40
0.5000000000000048
 40
1.0
 40
1.0
 40
1.0
 40
1.0
 10
209.3310136385548
 20
55.14788900439242
 30
0.0
 10
209.3502090144803
 20
55.13270627265621
 30
0.0
 10
209.3678210878807
 20
55.12133845415943
 30
0.0
 10
209.3936660178
 20
55.11006998494698
 30
0.0
 10
209.4018043820476
 20
55.10968651470994
 30
0.0
 10
209.4187544730157
 20
55.11546230740432
 30
0.0
 10
209.4209237455254
 20
55.12812773302236
 30
0.0
 10
209.4197481977108
 20
55.17256456006613
 30
0.0
 10
209.4076746771067
 20
55.21304783083956
 30
0.0
 10
209.3928964490666
 20
55.25705150072206
 30
0.0
  0
SPLINE
  5
201
330
1F
100
AcDbEntity
  8
0
  6
Continuous
 62
     7
370
    15
100
AcDbSpline
210
0.0
220
0.0
230
1.0
 70
     8
 71
     3
 72
    14
 73
    10
 74
     0
 42
0.000000001
 43
0.00000001
 40
0.0
 40
0.0
 40
0.0
 40
0.0
 40
0.25
 40
0.25
 40
0.5
 40
0.5
 40
0.75
 40
0.75
 40
1.0
 40
1.0
 40
1.0
 40
1.0
 10
209.3928964490659
 20
55.25705150072276
 30
0.0
 10
209.3748402021193
 20
55.31081580370953
 30
0.0
 10
209.3719174040181
 20
55.35536641280657
 30
0.0
 10
209.3665036754748
 20
55.44762776265129
 30
0.0
 10
209.3649363974337
 20
55.49492216557155
 30
0.0
 10
209.3547979976266
 20
55.59968322039933
 30
0.0
 10
209.3464829998824
 20
55.65694442743435
 30
0.0
 10
209.3176828252235
 20
55.78656578480876
 30
0.0
 10
209.297029428553
 20
55.85935998442181
 30
0.0
 10
209.2683399113919
 20
55.93904668338157
 30
0.0
  0
ARC
  5
202
330
1F
100
AcDbEntity
  8
0
  6
Continuous
 62
     7
370
    15
100
AcDbCircle
 10
219.6233071887
 20
59.0256081813
 30
0.0
 40
10.80519362138099
100
AcDbArc
 50
163.4019732888
 51
196.5980267112
  0
SPLINE
  5
203
330
1F
100
AcDbEntity
  8
0
  6
Continuous
 62
     7
370
    15
100
AcDbSpline
210
0.0
220
0.0
230
1.0
 70
     8
 71
     3
 72
    14
 73
    10
 74
     0
 42
0.000000001
 43
0.00000001
 40
0.0
 40
0.0
 40
0.0
 40
0.0
 40
0.25
 40
0.25
 40
0.5
 40
0.5
 40
0.75
 40
0.75
 40
1.0
 40
1.0
 40
1.0
 40
1.0
 10
209.3928964490659
 20
63.57337469564575
 30
0.0
 10
209.3748402021193
 20
63.4525326167012
 30
0.0
 10
209.3719174040181
 20
63.32743835013508
 30
0.0
 10
209.3665036754748
 20
63.07948703948372
 30
0.0
 10
209.3649363974337
 20
62.95557841516997
 30
0.0
 10
209.3547979976266
 20
62.70942267592976
 30
0.0
 10
209.3464829998824
 20
62.58713473406835
 30
0.0
 10
209.3176828252235
 20
62.34513755685957
 30
0.0
 10
209.297029428553
 20
62.22498058967997
 30
0.0
 10
209.2683399113919
 20
62.1121696792747
 30
0.0
  0
SPLINE
  5
204
330
1F
100
AcDbEntity
  8
0
  6
Continuous
 62
     7
370
    15
100
AcDbSpline
210
0.0
220
0.0
230
1.0
 70
     8
 71
     3
 72
    14
 73
    10
 74
     0
 42
0.000000001
 43
0.00000001
 40
0.0
 40
0.0
 40
0.0
 40
0.0
 40
0.1249999999999979
 40
0.1249999999999979
 40
0.2499999999999958
 40
0.2499999999999958
 40
0.4999999999999948
 40
0.4999999999999948
 40
1.0
 40
1.0
 40
1.0
 40
1.0
 10
209.3310136385549
 20
64.11866025993976
 30
0.0
 10
209.3502090144804
 20
64.11637345196594
 30
0.0
 10
209.3678210878808
 20
64.10487521269312
 30
0.0
 10
209.3936660178
 20
64.0681837101666
 30
0.0
 10
209.4018043820476
 20
64.04510229506452
 30
0.0
 10
209.4187544730157
 20
63.97376977598743
 30
0.0
 10
209.4209237455254
 20
63.92252567037936
 30
0.0
 10
209.4197481977108
 20
63.77249019061777
 30
0.0
 10
209.4076746771067
 20
63.6722785157347
 30
0.0
 10
209.3928964490666
 20
63.57337469564607
 30
0.0
  0
SPLINE
  5
205
330
1F
100
AcDbEntity
  8
0
  6
Continuous
 62
     7
370
    15
100
AcDbSpline
210
0.0
220
0.0
230
1.0
 70
     8
 71
     3
 72
     8
 73
     4
 74
     0
 42
0.000000001
 43
0.00000001
 40
0.0
 40
0.0
 40
0.0
 40
0.0
 40
1.0
 40
1.0
 40
1.0
 40
1.0
 10
208.4194220486671
 20
64.17087307107585
 30
0.0
 10
208.7210745219047
 20
64.17821931821895
 30
0.0
 10
209.0263540654282
 20
64.15495535224902
 30
0.0
 10
209.3310136385549
 20
64.11866025993977
 30
0.0
  0
SPLINE
  5
206
330
1F
100
AcDbEntity
  8
0
  6
Continuous
 62
     7
370
    15
100
AcDbSpline
210
0.0
220
0.0
230
1.0
 70
     8
 71
     3
 72
    14
 73
    10
 74
     0
 42
0.000000001
 43
0.00000001
 40
0.0
 40
0.0
 40
0.0
 40
0.0
 40
0.5000000000000019
 40
0.5000000000000019
 40
0.7500000000000018
 40
0.7500000000000018
 40
0.875000000000001
 40
0.875000000000001
 40
1.0
 40
1.0
 40
1.0
 40
1.0
 10
206.4907536814116
 20
64.80351241606083
 30
0.0
 10
206.8059196252515
 20
64.66612792233471
 30
0.0
 10
207.1221952805174
 20
64.53455441470356
 30
0.0
 10
207.6010197690885
 20
64.3596589481828
 30
0.0
 10
207.7613397795126
 20
64.30498779791827
 30
0.0
 10
208.0043923154662
 20
64.23595598219822
 30
0.0
 10
208.0858357534828
 20
64.21509369768944
 30
0.0
 10
208.2504972025162
 20
64.18228598425979
 30
0.0
 10
208.3334032205825
 20
64.16877822476715
 30
0.0
 10
208.4194220486671
 20
64.17087307107585
 30
0.0
  0
SPLINE
  5
207
330
1F
100
AcDbEntity
  8
0
  6
Continuous
 62
     7
370
    15
100
AcDbSpline
210
0.0
220
0.0
230
1.0
 70
     8
 71
     3
 72
     8
 73
     4
 74
     0
 42
0.000000001
 43
0.00000001
 40
0.0000005163856998
 40
0.0000005163856998
 40
0.0000005163856998
 40
0.0000005163856998
 40
0.000026289209185
 40
0.000026289209185
 40
0.000026289209185
 40
0.000026289209185
 10
206.4907320943923
 20
64.81639152725204
 30
0.0
 10
206.4907297932331
 20
64.8120986922255
 30
0.0
 10
206.4907370395574
 20
64.80780562454996
 30
0.0
 10
206.4907536814116
 20
64.80351241606083
 30
0.0
  0
SPLINE
  5
208
330
1F
100
AcDbEntity
  8
0
  6
Continuous
 62
     7
370
    15
100
AcDbSpline
210
0.0
220
0.0
230
1.0
 70
     8
 71
     3
 72
     8
 73
     4
 74
     0
 42
0.000000001
 43
0.00000001
 40
0.0000005163857002
 40
0.0000005163857002
 40
0.0000005163857002
 40
0.0000005163857002
 40
0.0000262892091854
 40
0.0000262892091854
 40
0.0000262892091854
 40
0.0000262892091854
 10
206.4907320943923
 20
57.34292047539226
 30
0.0
 10
206.4907297932331
 20
57.34449386108997
 30
0.0
 10
206.4907370395574
 20
57.34606159102213
 30
0.0
 10
206.4907536814116
 20
57.34762374775791
 30
0.0
  0
SPLINE
  5
209
330
1F
100
AcDbEntity
  8
0
  6
Continuous
 62
     7
370
    15
100
AcDbSpline
210
0.0
220
0.0
230
1.0
 70
     8
 71
     3
 72
    18
 73
    14
 74
     0
 42
0.000000001
 43
0.00000001
 40
0.0
 40
0.0
 40
0.0
 40
0.0
 40
0.1237555083498044
 40
0.2481868585196087
 40
0.3725954899923472
 40
0.4962962497557958
 40
0.6189417187418281
 40
0.6806335903228078
 40
0.741527338680197
 40
0.8023337896083607
 40
0.8644165354905035
 40
0.9874970710513135
 40
1.0
 40
1.0
 40
1.0
 40
1.0
 10
212.1796003928463
 20
55.46994936013599
 30
0.0
 10
212.0465535884138
 20
55.71488412923575
 30
0.0
 10
211.7797333969859
 20
56.20609128191671
 30
0.0
 10
211.6550387690367
 20
56.95811238965941
 30
0.0
 10
211.7908645686502
 20
57.58279947965362
 30
0.0
 10
212.1579407329192
 20
57.99966469080444
 30
0.0
 10
212.6005796267281
 20
58.09364747367284
 30
0.0
 10
212.9768066899223
 20
58.01170464468021
 30
0.0
 10
213.2590249675629
 20
57.8694274933433
 30
0.0
 10
213.5314225413953
 20
57.65274615572949
 30
0.0
 10
213.8575927012302
 20
57.27491990059155
 30
0.0
 10
214.110406086989
 20
56.8974364910024
 30
0.0
 10
214.2008859337659
 20
56.60804312318977
 30
0.0
 10
214.2092295994159
 20
56.58135650082713
 30
0.0
  0
SPLINE
  5
20A
330
1F
100
AcDbEntity
  8
0
  6
Continuous
 62
     7
370
    15
100
AcDbSpline
210
0.0
220
0.0
230
1.0
 70
     8
 71
     3
 72
    13
 73
     9
 74
     0
 42
0.000000001
 43
0.00000001
 40
0.0
 40
0.0
 40
0.0
 40
0.0
 40
0.0422809881476598
 40
0.2032286123681193
 40
0.3615232550130388
 40
0.5199359277100896
 40
0.6806353784463227
 40
1.0
 40
1.0
 40
1.0
 40
1.0
 10
213.8217076788115
 20
54.14115758594718
 30
0.0
 10
213.8040700066531
 20
54.13776836782792
 30
0.0
 10
213.7192924317856
 20
54.12147768670702
 30
0.0
 10
213.5185421317056
 20
54.20732089086111
 30
0.0
 10
213.2513193373663
 20
54.34352658965579
 30
0.0
 10
212.9682498809472
 20
54.55468820754612
 30
0.0
 10
212.5886018806995
 20
54.9026522531123
 30
0.0
 10
212.3429928334592
 20
55.24331923378659
 30
0.0
 10
212.1796003928462
 20
55.46994936013599
 30
0.0
  0
ARC
  5
20B
330
1F
100
AcDbEntity
  8
0
  6
Continuous
 62
     7
370
    15
100
AcDbCircle
 10
226.9336617717
 20
48.5106809441
 30
0.0
 40
6.546044466442106
100
AcDbArc
 50
197.9964496965
 51
217.4725815272
  0
SPLINE
  5
20C
330
1F
100
AcDbEntity
  8
0
  6
Continuous
 62
     7
370
    15
100
AcDbSpline
210
0.0
220
0.0
230
1.0
 70
     8
 71
     3
 72
     8
 73
     4
 74
     0
 42
0.000000001
 43
0.00000001
 40
0.0
 40
0.0
 40
0.0
 40
0.0
 40
1.0
 40
1.0
 40
1.0
 40
1.0
 10
219.2332022749538
 20
46.24184643687132
 30
0.0
 10
219.7249970737058
 20
46.32349672395306
 30
0.0
 10
220.2165771646085
 20
46.4055805114435
 30
0.0
 10
220.707878193661
 20
46.48822773164739
 30
0.0
  0
LINE
  5
20D
330
1F
100
AcDbEntity
  8
0
  6
Continuous
 62
     7
370
    15
100
AcDbLine
 10
220.7078781937
 20
46.4882277316
 30
0.0
 11
220.953046798
 21
46.6297605543
 31
0.0
  0
SPLINE
  5
20E
330
1F
100
AcDbEntity
  8
0
  6
Continuous
 62
     7
370
    15
100
AcDbSpline
210
0.0
220
0.0
230
1.0
 70
     8
 71
     3
 72
    10
 73
     6
 74
     0
 42
0.000000001
 43
0.00000001
 40
0.0
 40
0.0
 40
0.0
 40
0.0
 40
0.5
 40
0.5
 40
1.0
 40
1.0
 40
1.0
 40
1.0
 10
220.9530467980272
 20
46.62976055433717
 30
0.0
 10
220.9778791013791
 20
46.64409593792501
 30
0.0
 10
221.0055540988726
 20
46.6566913780611
 30
0.0
 10
221.065679108327
 20
46.67788927620138
 30
0.0
 10
221.0973735085218
 20
46.68625144186802
 30
0.0
 10
221.1305555011035
 20
46.69236289693927
 30
0.0
  0
SPLINE
  5
20F
330
1F
100
AcDbEntity
  8
0
  6
Continuous
 62
     7
370
    15
100
AcDbSpline
210
0.0
220
0.0
230
1.0
 70
     8
 71
     3
 72
    16
 73
    12
 74
     0
 42
0.000000001
 43
0.00000001
 40
0.0
 40
0.0
 40
0.0
 40
0.0
 40
0.0932104404763224
 40
0.218460874434623
 40
0.3473718426704351
 40
0.4722570953432517
 40
0.6006706132330859
 40
0.7272670976639224
 40
0.8574594612303996
 40
0.9852829247616918
 40
0.9999999999999999
 40
0.9999999999999999
 40
0.9999999999999999
 40
0.9999999999999999
 10
213.1887447694033
 20
57.82198991459117
 30
0.0
 10
213.1784756253256
 20
57.76445497324968
 30
0.0
 10
213.1544074395791
 20
57.62960813064517
 30
0.0
 10
213.1676317017241
 20
57.39059877137638
 30
0.0
 10
213.2194488781792
 20
57.12108152090365
 30
0.0
 10
213.3143295140101
 20
56.84393648153892
 30
0.0
 10
213.4452301791071
 20
56.57123347829123
 30
0.0
 10
213.6101963451749
 20
56.30299211444538
 30
0.0
 10
213.8023094252084
 20
56.0534056666021
 30
0.0
 10
213.9497781165932
 20
55.88365383072577
 30
0.0
 10
214.0321548337934
 20
55.80897278200269
 30
0.0
 10
214.0406600938084
 20
55.80126208704937
 30
0.0
  0
LINE
  5
210
330
1F
100
AcDbEntity
  8
0
  6
Continuous
 62
     7
370
    15
100
AcDbLine
 10
240.9518007441
 20
67.7891261899
 30
0.0
 11
242.3511888117
 21
66.981276654
 31
0.0
  0
SPLINE
  5
211
330
1F
100
AcDbEntity
  8
0
  6
Continuous
 62
     7
370
    15
100
AcDbSpline
210
0.0
220
0.0
230
1.0
 70
     8
 71
     3
 72
    12
 73
     8
 74
     0
 42
0.000000001
 43
0.00000001
 40
0.0
 40
0.0
 40
0.0
 40
0.0
 40
0.249999999999998
 40
0.249999999999998
 40
0.499999999999996
 40
0.499999999999996
 40
1.0
 40
1.0
 40
1.0
 40
1.0
 10
242.351188811719
 20
66.98127665401557
 30
0.0
 10
242.3834327825916
 20
66.96266260584197
 30
0.0
 10
242.4054857851252
 20
66.93841228304456
 30
0.0
 10
242.4263347292902
 20
66.887824425157
 30
0.0
 10
242.4259535600629
 20
66.86098585672295
 30
0.0
 10
242.4002006271656
 20
66.78375174045414
 30
0.0
 10
242.3522492000569
 20
66.73696636962632
 30
0.0
 10
242.2883491509216
 20
66.70007765645883
 30
0.0
  0
SPLINE
  5
212
330
1F
100
AcDbEntity
  8
0
  6
Continuous
 62
     7
370
    15
100
AcDbSpline
210
0.0
220
0.0
230
1.0
 70
     8
 71
     3
 72
    12
 73
     8
 74
     0
 42
0.000000001
 43
0.00000001
 40
0.0
 40
0.0
 40
0.0
 40
0.0
 40
0.1933788373912767
 40
0.3717462687733653
 40
0.6826618900831268
 40
0.9608497899051793
 40
1.0
 40
1.0
 40
1.0
 40
1.0
 10
212.4708697426954
 20
55.65287244532439
 30
0.0
 10
212.5504245799245
 20
55.53846968447133
 30
0.0
 10
212.7033586563817
 20
55.31854489819061
 30
0.0
 10
213.0281996724573
 20
54.96464890667059
 30
0.0
 10
213.4128263010584
 20
54.66085844623897
 30
0.0
 10
213.7074142666866
 20
54.49490049700892
 30
0.0
 10
213.8320789266566
 20
54.47835893655606
 30
0.0
 10
213.8474588872623
 20
54.47631819342817
 30
0.0
  0
SPLINE
  5
213
330
1F
100
AcDbEntity
  8
0
  6
Continuous
 62
     7
370
    15
100
AcDbSpline
210
0.0
220
0.0
230
1.0
 70
     8
 71
     3
 72
    17
 73
    13
 74
     0
 42
0.000000001
 43
0.00000001
 40
0.0
 40
0.0
 40
0.0
 40
0.0
 40
0.0289379669987303
 40
0.1765490776618047
 40
0.2609539818169662
 40
0.3523020652503833
 40
0.4561095647466428
 40
0.5447599023197768
 40
0.6761097654278534
 40
0.8084260887797389
 40
0.8968656996975043
 40
1.0
 40
1.0
 40
1.0
 40
1.0
 10
213.5142128145419
 20
57.65119922234256
 30
0.0
 10
213.4869390644432
 20
57.67725664302647
 30
0.0
 10
213.3205432901822
 20
57.83623165285329
 30
0.0
 10
213.0327553456506
 20
57.91472560505051
 30
0.0
 10
212.7124803805984
 20
57.91836970325669
 30
0.0
 10
212.4585360445331
 20
57.82731885268898
 30
0.0
 10
212.2500567147368
 20
57.64651882004414
 30
0.0
 10
212.0869616982245
 20
57.35439273587551
 30
0.0
 10
212.0099574917019
 20
56.94460534844335
 30
0.0
 10
212.0853501855536
 20
56.48000915473566
 30
0.0
 10
212.2440939251469
 20
56.03806937911843
 30
0.0
 10
212.3915086514399
 20
55.78767363067394
 30
0.0
 10
212.4708697426954
 20
55.65287244532439
 30
0.0
  0
SPLINE
  5
214
330
1F
100
AcDbEntity
  8
0
  6
Continuous
 62
     7
370
    15
100
AcDbSpline
210
0.0
220
0.0
230
1.0
 70
     8
 71
     3
 72
    12
 73
     8
 74
     0
 42
0.000000001
 43
0.00000001
 40
0.0
 40
0.0
 40
0.0
 40
0.0
 40
0.1651338403968992
 40
0.3341453906246814
 40
0.7033477599732242
 40
0.8821418952480903
 40
1.0
 40
1.0
 40
1.0
 40
1.0
 10
244.4681783600828
 20
63.12046196292965
 30
0.0
 10
244.4790394018671
 20
63.12730733795906
 30
0.0
 10
244.5010165268519
 20
63.14115883264768
 30
0.0
 10
244.5370832052402
 20
63.17493337871535
 30
0.0
 10
244.5585099551784
 20
63.21400495881288
 30
0.0
 10
244.563047746795
 20
63.2515675282875
 30
0.0
 10
244.5586495584411
 20
63.26805251369848
 30
0.0
 10
244.5569021853429
 20
63.27460189669731
 30
0.0
  0
LINE
  5
215
330
1F
100
AcDbEntity
  8
0
  6
Continuous
 62
     7
370
    15
100
AcDbLine
 10
238.5533420376
 20
69.1737269291
 30
0.0
 11
238.4100712792
 21
68.9582095923
 31
0.0
  0
LINE
  5
216
330
1F
100
AcDbEntity
  8
0
  6
Continuous
 62
     7
370
    15
100
AcDbLine
 10
208.3305095266
 20
59.522604951
 30
0.0
 11
208.830892362
 21
59.2337400888
 31
0.0
  0
SPLINE
  5
217
330
1F
100
AcDbEntity
  8
0
  6
Continuous
 62
     7
370
    15
100
AcDbSpline
210
0.0
220
0.0
230
1.0
 70
     8
 71
     3
 72
    10
 73
     6
 74
     0
 42
0.000000001
 43
0.00000001
 40
0.0
 40
0.0
 40
0.0
 40
0.0
 40
0.0840381716605753
 40
0.7011125076932783
 40
1.0
 40
1.0
 40
1.0
 40
1.0
 10
206.4924192078826
 20
65.27618389554354
 30
0.0
 10
206.4918778930693
 20
65.2826298690074
 30
0.0
 10
206.4873618192577
 20
65.33640724814897
 30
0.0
 10
206.5017005457163
 20
65.41920725039002
 30
0.0
 10
206.5222493489318
 20
65.50083583477851
 30
0.0
 10
206.5289546286421
 20
65.52747205708995
 30
0.0
  0
SPLINE
  5
218
330
1F
100
AcDbEntity
  8
0
  6
Continuous
 62
     7
370
    15
100
AcDbSpline
210
0.0
220
0.0
230
1.0
 70
     8
 71
     3
 72
    10
 73
     6
 74
     0
 42
0.000000001
 43
0.00000001
 40
0.0
 40
0.0
 40
0.0
 40
0.0
 40
0.5
 40
0.5
 40
1.0
 40
1.0
 40
1.0
 40
1.0
 10
206.5451910316104
 20
65.33233370637369
 30
0.0
 10
206.5252649811137
 20
65.24837323235568
 30
0.0
 10
206.5119707169728
 20
65.16292736984191
 30
0.0
 10
206.4947021908321
 20
64.99051389890462
 30
0.0
 10
206.4907787362101
 20
64.90340229263832
 30
0.0
 10
206.4907320943924
 20
64.81639152725202
 30
0.0
  0
SPLINE
  5
219
330
1F
100
AcDbEntity
  8
0
  6
Continuous
 62
     7
370
    15
100
AcDbSpline
210
0.0
220
0.0
230
1.0
 70
     8
 71
     3
 72
    24
 73
    20
 74
     0
 42
0.000000001
 43
0.00000001
 40
0.0
 40
0.0
 40
0.0
 40
0.0
 40
0.2500000000000114
 40
0.2500000000000114
 40
0.3750000000000163
 40
0.3750000000000163
 40
0.4375000000000177
 40
0.4375000000000177
 40
0.4687500000000166
 40
0.4687500000000166
 40
0.5000000000000155
 40
0.5000000000000155
 40
0.5625000000000157
 40
0.5625000000000157
 40
0.6250000000000157
 40
0.6250000000000157
 40
0.7500000000000099
 40
0.7500000000000099
 40
1.0
 40
1.0
 40
1.0
 40
1.0
 10
206.5289546286421
 20
65.52747205708994
 30
0.0
 10
206.5587956579273
 20
65.63475111364617
 30
0.0
 10
206.5886251979683
 20
65.74063568701685
 30
0.0
 10
206.6332963548396
 20
65.89058373026715
 30
0.0
 10
206.6482491469314
 20
65.93958399303008
 30
0.0
 10
206.6698322852207
 20
66.00273427493283
 30
0.0
 10
206.6769619967504
 20
66.02237445916134
 30
0.0
 10
206.6858136220518
 20
66.04008438864933
 30
0.0
 10
206.6884517193217
 20
66.04380075513501
 30
0.0
 10
206.6916042573667
 20
66.0416524067528
 30
0.0
 10
206.6919842185034
 20
66.03548999768623
 30
0.0
 10
206.6899742932427
 20
66.00684491433347
 30
0.0
 10
206.6853976516443
 20
65.97854390934529
 30
0.0
 10
206.6754662655379
 20
65.922164899196
 30
0.0
 10
206.6697760798029
 20
65.89269515123996
 30
0.0
 10
206.6521944791843
 20
65.80484073067362
 30
0.0
 10
206.639513606256
 20
65.7456157376243
 30
0.0
 10
206.6002725426356
 20
65.5671224304945
 30
0.0
 10
206.5729690825991
 20
65.44937939632081
 30
0.0
 10
206.5451910316104
 20
65.3323337063737
 30
0.0
  0
ARC
  5
21A
330
1F
100
AcDbEntity
  8
0
  6
Continuous
 62
     7
370
    15
100
AcDbCircle
 10
207.2078690686
 20
64.7377242725
 30
0.0
 40
0.7201267655270683
100
AcDbArc
 50
174.7583590299
 51
234.4349468916
  0
ARC
  5
21B
330
1F
100
AcDbEntity
  8
0
  6
Continuous
 62
     7
370
    15
100
AcDbCircle
 10
208.7032030137
 20
57.2378278952
 30
0.0
 40
2.215172042338778
100
AcDbArc
 50
122.6235698332
 51
177.1589486026
  0
LINE
  5
21C
330
1F
100
AcDbEntity
  8
0
  6
Continuous
 62
     7
370
    15
100
AcDbLine
 10
207.5089654431
 20
59.103513775
 30
0.0
 11
208.2530520746
 21
59.5330658441
 31
0.0
  0
SPLINE
  5
21D
330
1F
100
AcDbEntity
  8
0
  6
Continuous
 62
     7
370
    15
100
AcDbSpline
210
0.0
220
0.0
230
1.0
 70
     8
 71
     3
 72
     8
 73
     4
 74
     0
 42
0.000000001
 43
0.00000001
 40
0.0
 40
0.0
 40
0.0
 40
0.0
 40
0.0001590976915385
 40
0.0001590976915385
 40
0.0001590976915385
 40
0.0001590976915385
 10
208.33050952657
 20
59.52260495101928
 30
0.0
 10
208.3046893976223
 20
59.52608950039919
 30
0.0
 10
208.2788702536878
 20
59.52957648305462
 30
0.0
 10
208.2530520746494
 20
59.53306584409181
 30
0.0
  0
SPLINE
  5
21E
330
1F
100
AcDbEntity
  8
0
  6
Continuous
 62
     7
370
    15
100
AcDbSpline
210
0.0
220
0.0
230
1.0
 70
     8
 71
     3
 72
    10
 73
     6
 74
     0
 42
0.000000001
 43
0.00000001
 40
0.0
 40
0.0
 40
0.0
 40
0.0
 40
0.5
 40
0.5
 40
1.0
 40
1.0
 40
1.0
 40
1.0
 10
206.5451910316104
 20
57.14767809066971
 30
0.0
 10
206.5252649811137
 20
57.18619965218639
 30
0.0
 10
206.5119707169728
 20
57.2181629793802
 30
0.0
 10
206.4947021908321
 20
57.28060640287863
 30
0.0
 10
206.4907787362101
 20
57.31102978009169
 30
0.0
 10
206.4907320943924
 20
57.34292047539225
 30
0.0
  0
SPLINE
  5
21F
330
1F
100
AcDbEntity
  8
0
  6
Continuous
 62
     7
370
    15
100
AcDbSpline
210
0.0
220
0.0
230
1.0
 70
     8
 71
     3
 72
     9
 73
     5
 74
     0
 42
0.000000001
 43
0.00000001
 40
0.0
 40
0.0
 40
0.0
 40
0.0
 40
0.5797035953942314
 40
1.0
 40
1.0
 40
1.0
 40
1.0
 10
206.5010986603085
 20
57.94479065186177
 30
0.0
 10
206.4975764800928
 20
57.91754491984815
 30
0.0
 10
206.4915006505762
 20
57.87054550112781
 30
0.0
 10
206.4914572092774
 20
57.82410685679883
 30
0.0
 10
206.4914389510557
 20
57.80458886155259
 30
0.0
  0
ARC
  5
220
330
1F
100
AcDbEntity
  8
0
  6
Continuous
 62
     7
370
    15
100
AcDbCircle
 10
207.837824259
 20
57.73248551
 30
0.0
 40
1.35348025455773
100
AcDbArc
 50
122.9135798094
 51
170.9753897871
  0
LINE
  5
221
330
1F
100
AcDbEntity
  8
0
  6
Continuous
 62
     7
370
    15
100
AcDbLine
 10
207.5089654431
 20
59.103513775
 30
0.0
 11
207.1023790439
 21
58.8687201403
 31
0.0
  0
LINE
  5
222
330
1F
100
AcDbEntity
  8
0
  6
Continuous
 62
     7
370
    15
100
AcDbLine
 10
206.6002055173
 20
57.0522057731
 30
0.0
 11
206.5451910316
 21
57.1476780907
 31
0.0
  0
ARC
  5
223
330
1F
100
AcDbEntity
  8
0
  6
Continuous
 62
     7
370
     0
100
AcDbCircle
 10
233.6310508277
 20
50.2661266462
 30
0.0
 40
3.091910370737554
100
AcDbArc
 50
173.8196216534
 51
234.8681979532
  0
LWPOLYLINE
  5
224
330
1F
100
AcDbEntity
  8
0
  6
Continuous
 62
     7
370
     0
100
AcDbPolyline
 90
       17
 70
   128
 43
0.0
 10
238.1012743977
 20
58.5630790241
 10
237.7319900263
 20
58.7309510054
 10
237.1862370495
 20
58.8455680984
 10
236.5911228319
 20
58.8329617243
 10
235.9599412417
 20
58.6934134886
 10
235.3067918328
 20
58.4300406683
 10
234.6462648837
 20
58.0487265771
 10
233.9931154748
 20
57.5579891415
 10
233.3619338847
 20
56.9687906251
 10
232.766819667
 20
56.294292749
 10
232.2210666902
 20
55.5495626811
 10
231.7368661737
 20
54.7512364607
 10
231.325034357
 20
53.9171473763
 10
230.9947708824
 20
53.0659275997
 10
230.7534532902
 20
52.2165919741
 10
230.6064722166
 20
51.3881132539
 10
230.5571109758
 20
50.5989982847
  0
LWPOLYLINE
  5
225
330
1F
100
AcDbEntity
  8
0
  6
Continuous
 62
     7
370
     0
100
AcDbPolyline
 90
       35
 70
   128
 43
0.0
 10
269.2888849153
 20
36.6083350686
 10
268.769162795
 20
36.2526932388
 10
268.2671391881
 20
35.7979370929
 10
267.7999099065
 20
35.259552806
 10
267.383385883
 20
34.6558744094
 10
267.0317513437
 20
34.0074594467
 10
266.756980781
 20
33.3363889118
 10
266.5684311769
 20
32.665515307
 10
266.4725233621
 20
32.0176844282
 10
266.4725233621
 20
31.414957379
 10
266.5684311769
 20
30.8778593062
 10
266.756980781
 20
30.4246804405
 10
267.0317513437
 20
30.0708532446
 10
267.383385883
 20
29.8284268793
 10
267.7999099065
 20
29.7056568837
 10
268.2671391881
 20
29.7067240428
 10
268.769162795
 20
29.8315920158
 10
269.2888849153
 20
30.0760085735
 10
269.8086070357
 20
30.4316504033
 10
270.3106306426
 20
30.8864065493
 10
270.7778599242
 20
31.4247908361
 10
271.1943839476
 20
32.0284692328
 10
271.546018487
 20
32.6768841955
 10
271.8207890497
 20
33.3479547304
 10
272.0093386538
 20
34.0188283352
 10
272.1052464686
 20
34.666659214
 10
272.1052464686
 20
35.2693862632
 10
272.0093386538
 20
35.806484336
 10
271.8207890497
 20
36.2596632017
 10
271.546018487
 20
36.6134903976
 10
271.1943839476
 20
36.8559167629
 10
270.7778599242
 20
36.9786867584
 10
270.3106306426
 20
36.9776195993
 10
269.8086070357
 20
36.8527516264
 10
269.2888849153
 20
36.6083350686
  0
LWPOLYLINE
  5
226
330
1F
100
AcDbEntity
  8
0
  6
Continuous
 62
     7
370
     0
100
AcDbPolyline
 90
       17
 70
   128
 43
0.0
 10
267.193670799
 20
30.5104148913
 10
267.5603653476
 20
30.3762717174
 10
267.9882383495
 20
30.3591798943
 10
268.452507611
 20
30.4645663045
 10
268.9353315247
 20
30.6883810074
 10
269.4181554385
 20
31.0220229295
 10
269.8824247
 20
31.4526703988
 10
270.3102977019
 20
31.9637738746
 10
270.6853315247
 20
32.535691937
 10
270.993113829
 20
33.1464460955
 10
271.2218167133
 20
33.7725654103
 10
271.3626512541
 20
34.3899884673
 10
271.4102052589
 20
34.9749880447
 10
271.3626512541
 20
35.5050829368
 10
271.2218167133
 20
35.9599018942
 10
270.993113829
 20
36.3219664794
 10
270.6915463814
 20
36.5737482488
  0
ARC
  5
227
330
1F
100
AcDbEntity
  8
0
  6
Continuous
 62
     7
370
     0
100
AcDbCircle
 10
246.4165091572
 20
46.0759677116
 30
0.0
 40
23.5620207093314
100
AcDbArc
 50
157.1359341492
 51
166.931530238
  0
LWPOLYLINE
  5
228
330
1F
100
AcDbEntity
  8
0
  6
Continuous
 62
     7
370
     0
100
AcDbPolyline
 90
       14
 70
   128
 43
0.0
 10
229.2601400614
 20
62.4875113276
 10
229.3642705699
 20
62.6034998895
 10
230.3159939377
 20
63.5954020992
 10
231.2994660098
 20
64.500584788
 10
232.3060131599
 20
65.3110647944
 10
233.3267582535
 20
66.0196941769
 10
234.3526989389
 20
66.6202232549
 10
235.3747870424
 20
67.1073557267
 10
236.3840083677
 20
67.4767953796
 10
237.3714621957
 20
67.7252839805
 10
238.3284397836
 20
67.8506300107
 10
239.2465011701
 20
67.8517279944
 10
240.1175496116
 20
67.728568248
 10
240.9339029898
 20
67.4822369658
  0
LWPOLYLINE
  5
229
330
1F
100
AcDbEntity
  8
0
  6
Continuous
 62
     7
370
     0
100
AcDbPolyline
 90
       22
 70
   128
 43
0.0
 10
223.0310490491
 20
51.3982634688
 10
223.374610231
 20
52.7308065813
 10
223.8083413744
 20
54.0734257901
 10
224.3284561453
 20
55.4144004594
 10
224.9304141084
 20
56.7420243098
 10
225.6089603634
 20
58.0447076103
 10
226.3581714188
 20
59.3110783528
 10
227.1715069019
 20
60.5300815263
 10
228.0418666546
 20
61.6910756234
 10
228.9616527148
 20
62.7839255374
 10
229.9228356448
 20
63.7990910386
 10
230.9170246255
 20
64.7277100573
 10
231.9355407054
 20
65.5616760468
 10
232.9694925653
 20
66.293708751
 10
234.0098541365
 20
66.9174177589
 10
235.0475433958
 20
67.4273582907
 10
236.0735016482
 20
67.8190787286
 10
237.0787726067
 20
68.0891594789
 10
238.0545805778
 20
68.2352428229
 10
238.9924070703
 20
68.2560535
 10
239.8840651594
 20
68.1514098394
 10
240.7217709554
 20
67.922225347
  0
LWPOLYLINE
  5
22A
330
1F
100
AcDbEntity
  8
0
  6
Continuous
 62
     7
370
     0
100
AcDbPolyline
 90
        3
 70
   128
 43
0.0
 10
244.4681783601
 20
56.5881354678
 10
244.1495887489
 20
55.2546819281
 10
244.1058892934
 20
55.096688629
  0
LWPOLYLINE
  5
22B
330
1F
100
AcDbEntity
  8
0
  6
Continuous
 62
     7
370
     0
100
AcDbPolyline
 90
       19
 70
   128
 43
0.0
 10
237.8563972144
 20
44.2710778492
 10
237.6805857419
 20
44.0930703665
 10
236.683288732
 20
43.1560943968
 10
235.6606604975
 20
42.3162035132
 10
234.6220615331
 20
41.5810855479
 10
233.5769985196
 20
40.9574693076
 10
232.5350373056
 20
40.4510629827
 10
231.5057153478
 20
40.0665018978
 10
230.498454411
 20
39.8073060826
 10
229.5224743274
 20
39.6758480526
 10
228.5867086041
 20
39.6733310917
 10
227.699722651
 20
39.7997782385
 10
226.8696353788
 20
40.0540320756
 10
226.1040448837
 20
40.4337653234
 10
225.4099588988
 20
40.935502143
 10
224.7937306501
 20
41.5546499515
 10
224.2610007027
 20
42.28554146
 10
223.8166453312
 20
43.1214865478
 10
223.4647318846
 20
44.0548335002
  0
ARC
  5
22C
330
1F
100
AcDbEntity
  8
0
  6
Continuous
 62
     7
370
     0
100
AcDbCircle
 10
237.9417265019
 20
61.5996566834
 30
0.0
 40
6.701300064528066
100
AcDbArc
 50
13.1170908933
 51
49.5620782406
  0
LWPOLYLINE
  5
22D
330
1F
100
AcDbEntity
  8
0
  6
Continuous
 62
     7
370
     0
100
AcDbPolyline
 90
       24
 70
   128
 43
0.0
 10
228.4357906323
 20
50.5989982847
 10
228.4846866892
 20
51.4706907279
 10
228.6305023085
 20
52.3832819844
 10
228.8706354072
 20
53.3204868416
 10
229.2008008044
 20
54.2655808567
 10
229.6151066907
 20
55.2016988045
 10
230.1061597677
 20
56.1121356382
 10
230.6651971818
 20
56.9806445907
 10
231.2822428969
 20
57.7917270994
 10
231.9462857177
 20
58.5309093777
 10
232.6454757844
 20
59.1850007002
 10
233.3673360335
 20
59.7423287918
 10
234.0989848519
 20
60.1929481195
 10
234.8273659491
 20
60.5288173707
 10
235.5394813471
 20
60.7439429508
 10
236.2226233298
 20
60.8344859386
 10
236.8646012124
 20
60.7988305923
 10
237.4539588842
 20
60.6376131825
 10
237.9801792437
 20
60.3537106376
 10
238.4338718761
 20
59.9521892053
 10
238.8069406256
 20
59.4402140451
 10
239.0927280715
 20
58.8269213659
 10
239.2861343302
 20
58.1232553899
 10
239.3320882652
 20
57.8525453025
  0
LWPOLYLINE
  5
22E
330
1F
100
AcDbEntity
  8
0
  6
Continuous
 62
     7
370
     0
100
AcDbPolyline
 90
       12
 70
   128
 43
0.0
 10
233.0825961863
 20
47.0269345227
 10
232.6454757844
 20
46.8733948894
 10
231.9462857177
 20
46.7202185441
 10
231.2822428969
 20
46.6927133009
 10
230.6651971818
 20
46.7913699913
 10
230.1061597677
 20
47.0144280844
 10
229.6151066907
 20
47.3579071033
 10
229.2008008044
 20
47.8156776567
 10
228.8706354072
 20
48.3795708184
 10
228.6305023085
 20
49.0395239013
 10
228.4846866892
 20
49.7837600272
 10
228.4357906323
 20
50.5989982847
  0
LWPOLYLINE
  5
22F
330
1F
100
AcDbEntity
  8
0
  6
Continuous
 62
     7
370
     0
100
AcDbPolyline
 90
       27
 70
   128
 43
0.0
 10
213.7102919141
 20
52.5685828545
 10
213.7578001018
 20
53.7826276256
 10
213.8999193417
 20
55.0411663806
 10
214.1354371227
 20
56.3334617108
 10
214.46234409
 20
57.648488208
 10
214.8778511888
 20
58.9750265298
 10
215.3784134588
 20
60.301759119
 10
215.9597602794
 20
61.6173667609
 10
216.6169318044
 20
62.9106251549
 10
217.344321278
 20
64.1705006765
 10
218.1357228699
 20
65.3862445119
 10
218.9843846205
 20
66.5474843634
 10
219.8830660472
 20
67.644312942
 10
220.8240999168
 20
68.6673724929
 10
221.7994576601
 20
69.6079346329
 10
222.8008178689
 20
70.4579748174
 10
223.8196372908
 20
71.2102408033
 10
224.8472237178
 20
71.8583145223
 10
225.8748101447
 20
72.3966668381
 10
226.8936295666
 20
72.8207047184
 10
227.8949897754
 20
73.1268104217
 10
228.8703475187
 20
73.3123723619
 10
229.8113813883
 20
73.3758073901
 10
230.710062815
 20
73.3165743009
 10
231.5587245657
 20
73.1351784502
 10
232.3501261575
 20
72.8331674434
 10
232.7215837373
 20
72.6380663176
  0
LWPOLYLINE
  5
230
330
1F
100
AcDbEntity
  8
0
  6
Continuous
 62
     7
370
     0
100
AcDbPolyline
 90
       10
 70
   128
 43
0.0
 10
216.9728636982
 20
45.3575271526
 10
216.6169318044
 20
45.5824755384
 10
215.9597602794
 20
46.1169798402
 10
215.3784134588
 20
46.7613787301
 10
214.8778511888
 20
47.510174424
 10
214.46234409
 20
48.3569784611
 10
214.1354371227
 20
49.2945662078
 10
213.8999193417
 20
50.3149384961
 10
213.7578001018
 20
51.4093898694
 10
213.7102919141
 20
52.5685828545
  0
LWPOLYLINE
  5
231
330
1F
100
AcDbEntity
  8
0
  6
Continuous
 62
     7
370
     0
100
AcDbPolyline
 90
       16
 70
   128
 43
0.0
 10
221.378864956
 20
53.3304828978
 10
221.6913742017
 20
54.5635058007
 10
222.0926601153
 20
55.8068441902
 10
222.5787737286
 20
57.0482626418
 10
223.1449313026
 20
58.2755446246
 10
223.7855614029
 20
59.4766127215
 10
224.4943597271
 20
60.6396474809
 10
225.2643511438
 20
61.7532037287
 10
226.0879583337
 20
62.8063231984
 10
226.9570763565
 20
63.7886423688
 10
227.8631524093
 20
64.690494449
 10
228.7972699934
 20
65.5030045074
 10
229.7502366592
 20
66.218176808
 10
230.7126744677
 20
66.8289734946
 10
231.6751122762
 20
67.329383849
 10
232.52492811
 20
67.6782236573
  0
LWPOLYLINE
  5
232
330
1F
100
AcDbEntity
  8
0
  6
Continuous
 62
     7
370
     0
100
AcDbPolyline
 90
       18
 70
   128
 43
0.0
 10
220.953046798
 20
53.9786278613
 10
221.3232286901
 20
55.2796986969
 10
221.7866976352
 20
56.5858436086
 10
222.3387059079
 20
57.8836825899
 10
222.9735987952
 20
59.1599207191
 10
223.6848725235
 20
60.4014843513
 10
224.4652408818
 20
61.5956550436
 10
225.3067098614
 20
62.7301998409
 10
226.2006595455
 20
63.7934965897
 10
227.1379324106
 20
64.7746529933
 10
228.1089271351
 20
65.6636181923
 10
229.1036969545
 20
66.4512857235
 10
230.1120515549
 20
67.1295868063
 10
231.1236614611
 20
67.6915729981
 10
232.1281638512
 20
68.1314873733
 10
233.1152687116
 20
68.4448234968
 10
234.0748642475
 20
68.6283715875
 10
234.8443242659
 20
68.6807694285
  0
LINE
  5
233
330
1F
100
AcDbEntity
  8
0
  6
Continuous
 62
     7
370
     0
100
AcDbLine
 10
215.3599285536
 20
52.0310193619
 30
0.0
 11
217.1574374724
 21
53.068699173
 31
0.0
  0
LWPOLYLINE
  5
234
330
1F
100
AcDbEntity
  8
0
  6
Continuous
 62
     7
370
     0
100
AcDbPolyline
 90
        3
 70
   128
 43
0.0
 10
223.574027221
 20
42.6928084435
 10
223.3713401464
 20
43.1210098755
 10
223.0310490491
 20
44.0493961618
  0
LWPOLYLINE
  5
235
330
1F
100
AcDbEntity
  8
0
  6
Continuous
 62
     7
370
     0
100
AcDbPolyline
 90
       19
 70
   128
 43
0.0
 10
206.4907320944
 20
64.8163915273
 10
206.8914334755
 20
65.96183786
 10
207.3767795682
 20
67.0997034711
 10
207.9408799811
 20
68.2161786818
 10
208.5768885233
 20
69.2977134177
 10
209.2770862922
 20
70.3311816584
 10
210.0329753546
 20
71.3040407413
 10
210.8353818809
 20
72.2044835855
 10
211.6745674835
 20
73.0215819882
 10
212.5403474067
 20
73.7454192541
 10
213.422214133
 20
74.3672105496
 10
214.3094649082
 20
74.8794095197
 10
215.1913316346
 20
75.2757998738
 10
216.0571115577
 20
75.5515708299
 10
216.8962971604
 20
75.7033755004
 10
217.6987036867
 20
75.7293715116
 10
218.454592749
 20
75.6292433635
 10
219.154790518
 20
75.4042062589
 10
219.3549074906
 20
75.3116081183
  0
ARC
  5
236
330
1F
100
AcDbEntity
  8
0
  6
Continuous
 62
     7
370
     0
100
AcDbCircle
 10
210.3577070299
 20
59.1216152352
 30
0.0
 40
4.256436326394877
100
AcDbArc
 50
204.7010396433
 51
235.9296917962
  0
LINE
  5
237
330
1F
100
AcDbEntity
  8
0
  6
Continuous
 62
     7
370
     0
100
AcDbLine
 10
215.3599285536
 20
51.21447855
 30
0.0
 11
217.1574374724
 21
52.2521583611
 31
0.0
  0
LINE
  5
238
330
1F
100
AcDbEntity
  8
0
  6
Continuous
 62
     7
370
     0
100
AcDbLine
 10
218.6469870057
 20
46.5802613085
 30
0.0
 11
219.9858645971
 21
47.35317889
 31
0.0
  0
LINE
  5
239
330
1F
100
AcDbEntity
  8
0
  6
Continuous
 62
     7
370
     0
100
AcDbLine
 10
222.3468283201
 20
46.1122280311
 30
0.0
 11
222.1637534832
 21
46.6633117067
 31
0.0
  0
LWPOLYLINE
  5
23A
330
1F
100
AcDbEntity
  8
0
  6
Continuous
 62
     7
370
     0
100
AcDbPolyline
 90
        3
 70
   128
 43
0.0
 10
222.0019667792
 20
45.6186149869
 10
221.6913742017
 20
46.2442108008
 10
221.378864956
 20
47.1164182088
  0
LWPOLYLINE
  5
23B
330
1F
100
AcDbEntity
  8
0
  6
Continuous
 62
     7
370
     0
100
AcDbPolyline
 90
        3
 70
   128
 43
0.0
 10
221.7327048623
 20
45.0625247161
 10
221.3071469773
 20
45.7880347857
 10
220.953046798
 20
46.6297605543
  0
LINE
  5
23C
330
1F
100
AcDbEntity
  8
0
  6
Continuous
 62
     7
370
     0
100
AcDbLine
 10
237.7004132838
 20
69.666112218
 30
0.0
 11
237.1594243059
 21
69.3538059287
 31
0.0
  0
ARC
  5
23D
330
1F
100
AcDbEntity
  8
0
  6
Continuous
 62
     7
370
     0
100
AcDbCircle
 10
210.2531698234
 20
63.3203009159
 30
0.0
 40
1.102095792745957
100
AcDbArc
 50
159.4111972489
 51
213.1915491986
  0
ARC
  5
23E
330
1F
100
AcDbEntity
  8
0
  6
Continuous
 62
     7
370
     0
100
AcDbCircle
 10
208.9213590146
 20
63.1488160931
 30
0.0
 40
0.6345057597336446
100
AcDbArc
 50
41.9989524423
 51
61.7721687695
  0
LINE
  5
23F
330
1F
100
AcDbEntity
  8
0
  6
Continuous
 62
     7
370
     0
100
AcDbLine
 10
209.2214667869
 20
63.7078624991
 30
0.0
 11
209.3310136386
 21
64.1186602599
 31
0.0
  0
LINE
  5
240
330
1F
100
AcDbEntity
  8
0
  6
Continuous
 62
     7
370
     0
100
AcDbLine
 10
209.2214667869
 20
63.7078624991
 30
0.0
 11
208.4194220487
 21
64.1708730711
 31
0.0
  0
LINE
  5
241
330
1F
100
AcDbEntity
  8
0
  6
Continuous
 62
     7
370
     0
100
AcDbLine
 10
206.5451910316
 20
65.3323337064
 30
0.0
 11
206.5289546286
 21
65.5274720571
 31
0.0
  0
ARC
  5
242
330
1F
100
AcDbEntity
  8
0
  6
Continuous
 62
     7
370
     0
100
AcDbCircle
 10
209.0115068055
 20
55.0552431868
 30
0.0
 40
0.4314912001449083
100
AcDbArc
 50
27.8850837496
 51
60.8831993912
  0
ARC
  5
243
330
1F
100
AcDbEntity
  8
0
  6
Continuous
 62
     7
370
     0
100
AcDbCircle
 10
210.4612054822
 20
55.8273013825
 30
0.0
 40
1.301173266866819
100
AcDbArc
 50
165.9701785416
 51
197.6766607319
  0
LINE
  5
244
330
1F
100
AcDbEntity
  8
0
  6
Continuous
 62
     7
370
     0
100
AcDbLine
 10
208.8296956212
 20
58.3410724721
 30
0.0
 11
207.5089654431
 21
59.103513775
 31
0.0
  0
LINE
  5
245
330
1F
100
AcDbEntity
  8
0
  6
Continuous
 62
     7
370
     0
100
AcDbLine
 10
209.2214667869
 20
55.4322066625
 30
0.0
 11
208.4194220487
 21
55.8952172344
 31
0.0
  0
LINE
  5
246
330
1F
100
AcDbEntity
  8
0
  6
Continuous
 62
     7
370
     0
100
AcDbLine
 10
209.2214667869
 20
55.4322066625
 30
0.0
 11
209.3310136386
 21
55.1478890044
 31
0.0
  0
OLE2FRAME
  5
247
330
1F
100
AcDbEntity
  8
0
100
AcDbOle2Frame
 70
     2
  3
Paintbrush-Bild
 10
13.8511154363
 20
38.264191557
 30
0.0
 11
51.6290888628
 21
31.9806341108
 31
0.0
 71
     2
 72
     0
 73
     1
 90
    12928
310
80552BED0767C5B32B40DDAF6807D121434000000000000000006FFBDDFB85D0
310
4940DDAF6807D121434000000000000000006FFBDDFB85D04940416F4BD60AFB
310
3F4000000000000000002BED0767C5B32B40416F4BD60AFB3F40000000000000
310
0000000000000100000000010000010000000100000000000100000000320000
310
D0CF11E0A1B11AE1000000000000000000000000000000003E000300FEFF0900
310
0600000000000000000000000100000001000000000000000010000002000000
310
01000000FEFFFFFF0000000000000000FFFFFFFFFFFFFFFFFFFFFFFFFFFFFFFF
310
FFFFFFFFFFFFFFFFFFFFFFFFFFFFFFFFFFFFFFFFFFFFFFFFFFFFFFFFFFFFFFFF
310
FFFFFFFFFFFFFFFFFFFFFFFFFFFFFFFFFFFFFFFFFFFFFFFFFFFFFFFFFFFFFFFF
310
FFFFFFFFFFFFFFFFFFFFFFFFFFFFFFFFFFFFFFFFFFFFFFFFFFFFFFFFFFFFFFFF
310
FFFFFFFFFFFFFFFFFFFFFFFFFFFFFFFFFFFFFFFFFFFFFFFFFFFFFFFFFFFFFFFF
310
FFFFFFFFFFFFFFFFFFFFFFFFFFFFFFFFFFFFFFFFFFFFFFFFFFFFFFFFFFFFFFFF
310
FFFFFFFFFFFFFFFFFFFFFFFFFFFFFFFFFFFFFFFFFFFFFFFFFFFFFFFFFFFFFFFF
310
FFFFFFFFFFFFFFFFFFFFFFFFFFFFFFFFFFFFFFFFFFFFFFFFFFFFFFFFFFFFFFFF
310
FFFFFFFFFFFFFFFFFFFFFFFFFFFFFFFFFFFFFFFFFFFFFFFFFFFFFFFFFFFFFFFF
310
FFFFFFFFFFFFFFFFFFFFFFFFFFFFFFFFFFFFFFFFFFFFFFFFFFFFFFFFFFFFFFFF
310
FFFFFFFFFFFFFFFFFFFFFFFFFFFFFFFFFFFFFFFFFFFFFFFFFFFFFFFFFFFFFFFF
310
FFFFFFFFFFFFFFFFFFFFFFFFFFFFFFFFFFFFFFFFFFFFFFFFFFFFFFFFFFFFFFFF
310
FFFFFFFFFFFFFFFFFFFFFFFFFFFFFFFFFFFFFFFFFFFFFFFFFFFFFFFFFFFFFFFF
310
FFFFFFFFFFFFFFFFFFFFFFFFFFFFFFFFFFFFFFFFFFFFFFFFFFFFFFFFFFFFFFFF
310
FDFFFFFFFEFFFFFFFEFFFFFFFEFFFFFF05000000060000000700000008000000
310
090000000A0000000B0000000C0000000D0000000E0000000F00000010000000
310
11000000120000001300000014000000150000001600000017000000FEFFFFFF
310
FFFFFFFFFFFFFFFFFFFFFFFFFFFFFFFFFFFFFFFFFFFFFFFFFFFFFFFFFFFFFFFF
310
FFFFFFFFFFFFFFFFFFFFFFFFFFFFFFFFFFFFFFFFFFFFFFFFFFFFFFFFFFFFFFFF
310
FFFFFFFFFFFFFFFFFFFFFFFFFFFFFFFFFFFFFFFFFFFFFFFFFFFFFFFFFFFFFFFF
310
FFFFFFFFFFFFFFFFFFFFFFFFFFFFFFFFFFFFFFFFFFFFFFFFFFFFFFFFFFFFFFFF
310
FFFFFFFFFFFFFFFFFFFFFFFFFFFFFFFFFFFFFFFFFFFFFFFFFFFFFFFFFFFFFFFF
310
FFFFFFFFFFFFFFFFFFFFFFFFFFFFFFFFFFFFFFFFFFFFFFFFFFFFFFFFFFFFFFFF
310
FFFFFFFFFFFFFFFFFFFFFFFFFFFFFFFFFFFFFFFFFFFFFFFFFFFFFFFFFFFFFFFF
310
FFFFFFFFFFFFFFFFFFFFFFFFFFFFFFFFFFFFFFFFFFFFFFFFFFFFFFFFFFFFFFFF
310
FFFFFFFFFFFFFFFFFFFFFFFFFFFFFFFFFFFFFFFFFFFFFFFFFFFFFFFFFFFFFFFF
310
FFFFFFFFFFFFFFFFFFFFFFFFFFFFFFFFFFFFFFFFFFFFFFFFFFFFFFFFFFFFFFFF
310
FFFFFFFFFFFFFFFFFFFFFFFFFFFFFFFFFFFFFFFFFFFFFFFFFFFFFFFFFFFFFFFF
310
FFFFFFFFFFFFFFFFFFFFFFFFFFFFFFFFFFFFFFFFFFFFFFFFFFFFFFFFFFFFFFFF
310
FFFFFFFFFFFFFFFFFFFFFFFFFFFFFFFFFFFFFFFFFFFFFFFFFFFFFFFFFFFFFFFF
310
52006F006F007400200045006E00740072007900000000000000000000000000
310
0000000000000000000000000000000000000000000000000000000000000000
310
16000500FFFFFFFFFFFFFFFF020000000A00030000000000C000000000000046
310
00000000000000000000000040509AD12325D20103000000C000000000000000
310
01004F006C006500000000000000000000000000000000000000000000000000
310
0000000000000000000000000000000000000000000000000000000000000000
310
0A000200FFFFFFFFFFFFFFFFFFFFFFFF00000000000000000000000000000000
310
0000000000000000000000000000000000000000000000001400000000000000
310
010043006F006D0070004F0062006A0000000000000000000000000000000000
310
0000000000000000000000000000000000000000000000000000000000000000
310
120002010100000003000000FFFFFFFF00000000000000000000000000000000
310
0000000000000000000000000000000000000000010000004D00000000000000
310
01004F006C006500310030004E00610074006900760065000000000000000000
310
0000000000000000000000000000000000000000000000000000000000000000
310
1A000200FFFFFFFFFFFFFFFFFFFFFFFF00000000000000000000000000000000
310
0000000000000000000000000000000000000000040000002426000000000000
310
FEFFFFFF02000000FEFFFFFFFFFFFFFFFFFFFFFFFFFFFFFFFFFFFFFFFFFFFFFF
310
FFFFFFFFFFFFFFFFFFFFFFFFFFFFFFFFFFFFFFFFFFFFFFFFFFFFFFFFFFFFFFFF
310
FFFFFFFFFFFFFFFFFFFFFFFFFFFFFFFFFFFFFFFFFFFFFFFFFFFFFFFFFFFFFFFF
310
FFFFFFFFFFFFFFFFFFFFFFFFFFFFFFFFFFFFFFFFFFFFFFFFFFFFFFFFFFFFFFFF
310
FFFFFFFFFFFFFFFFFFFFFFFFFFFFFFFFFFFFFFFFFFFFFFFFFFFFFFFFFFFFFFFF
310
FFFFFFFFFFFFFFFFFFFFFFFFFFFFFFFFFFFFFFFFFFFFFFFFFFFFFFFFFFFFFFFF
310
FFFFFFFFFFFFFFFFFFFFFFFFFFFFFFFFFFFFFFFFFFFFFFFFFFFFFFFFFFFFFFFF
310
FFFFFFFFFFFFFFFFFFFFFFFFFFFFFFFFFFFFFFFFFFFFFFFFFFFFFFFFFFFFFFFF
310
FFFFFFFFFFFFFFFFFFFFFFFFFFFFFFFFFFFFFFFFFFFFFFFFFFFFFFFFFFFFFFFF
310
FFFFFFFFFFFFFFFFFFFFFFFFFFFFFFFFFFFFFFFFFFFFFFFFFFFFFFFFFFFFFFFF
310
FFFFFFFFFFFFFFFFFFFFFFFFFFFFFFFFFFFFFFFFFFFFFFFFFFFFFFFFFFFFFFFF
310
FFFFFFFFFFFFFFFFFFFFFFFFFFFFFFFFFFFFFFFFFFFFFFFFFFFFFFFFFFFFFFFF
310
FFFFFFFFFFFFFFFFFFFFFFFFFFFFFFFFFFFFFFFFFFFFFFFFFFFFFFFFFFFFFFFF
310
FFFFFFFFFFFFFFFFFFFFFFFFFFFFFFFFFFFFFFFFFFFFFFFFFFFFFFFFFFFFFFFF
310
FFFFFFFFFFFFFFFFFFFFFFFFFFFFFFFFFFFFFFFFFFFFFFFFFFFFFFFFFFFFFFFF
310
FFFFFFFFFFFFFFFFFFFFFFFFFFFFFFFFFFFFFFFFFFFFFFFFFFFFFFFFFFFFFFFF
310
0100000200000000000000000000000000000000000000000000000000000000
310
0000000000000000000000000000000000000000000000000000000000000000
310
0100FEFF030A0000FFFFFFFF0A00030000000000C00000000000004607000000
310
5042727573680007000000504272757368000700000050427275736800F439B2
310
7100000000000000000000000000000000000000000000000000000000000000
310
0000000000000000000000000000000000000000000000000000000000000000
310
0000000000000000000000000000000000000000000000000000000000000000
310
0000000000000000000000000000000000000000000000000000000000000000
310
0000000000000000000000000000000000000000000000000000000000000000
310
0000000000000000000000000000000000000000000000000000000000000000
310
0000000000000000000000000000000000000000000000000000000000000000
310
0000000000000000000000000000000000000000000000000000000000000000
310
0000000000000000000000000000000000000000000000000000000000000000
310
0000000000000000000000000000000000000000000000000000000000000000
310
0000000000000000000000000000000000000000000000000000000000000000
310
0000000000000000000000000000000000000000000000000000000000000000
310
20260000424D0E260000000000003E00000028000000B40200006E0000000100
310
01000000000000000000130B0000130B00000200000002000000000000FFFFFF
310
FFFFFFFFFFFFFFFFFFFFFFFFFFFFFFFFFFFFFFFFFFFFFFFFFFFFFFFFFFFFFFFF
310
FFFFFFFFFFFFFFFFFFFFFFFFFFFFFFFFFFFFFFFFFFFFFFFFFFFFFFFFFFFFFFFF
310
FFFFFFFFFFFFFFFFFFFFFFFFFFFFFFFFFFFFFFFFFFFFFFFFF000FFFFFFFFFFFF
310
FFFFFFFFFFFFFFFFFFFFFFFFFFFFFFFFFFFFFFFFFFFFFFFFFFFFFFFFFFFFFFFF
310
FFFFFFFFFFFFFFFFFFFFFFFFFFFFFFFFFFFFFFFFFFFFFFFFFFFFFFFFFFFFFFFF
310
FFFFFFFFFFFFFFFFFFFFFFFFFFFFFFFFF000FFFFFFFFFFFFFFFFFFFFFFFFFFFF
310
FFFFFFFFFFFFFFFFFFFFFFFFFFFFFFFFFFFFFFFFFFFFFFFFFFFFFFFFFFFFFFFF
310
FFFFFFFFFFFFFFFFFFFFFFFFFFFFFFFFFFFFFFFFFFFFFFFFFFFFFFFFFFFFFFFF
310
FFFFFFFFFFFFFFFFF000FFFFFFFFFFFFFFFFFFFFFFFFFFFFFFFFFFFFFFFFFFFF
310
FFFFFFFFFFFFFFFFFFFFFFFFFFFFFFFFFFFFFFFFFFFFFFFFFFFFFFFFFFFFFFFF
310
FFFFFFFFFFFFFFFFFFFFFFFFFFFFFFFFFFFFFFFFFFFFFFFFFFFFFFFFFFFFFFFF
310
F000FFFFFFFFFFFFFFFFFFFFFFFFFFFFFFFFFFFFFFFFFFFFFFFFFFFFFFFFFFFF
310
FFFFFFFFFFFFFFFFFFFFFFFFFFFFFFFFFFFFFFFFFFFFFFFFFFFFFFFFFFFFFFFF
310
FFFFFFFFFFFFFFFFFFFFFFFFFFFFFFFFFFFFFFFFFFFFFFFFF000FFFFFFFFFFFF
310
FFFFFFFFFFFFFFFFFFFFFFFFFFFFFFFFFFFFFFFFFFFFFFFFFFFFFFFFFFFFFFFF
310
FFFFFFFFFFFFFFFFFFFFFFFFFFFFFFFFFFFFFFFFFFFFFFFFFFFFFFFFFFFFFFFF
310
FFFFFFFFFFFFFFFFFFFFFFFFFFFFFFFFF000FFFFFFFFFFFFFFFFFFFFFFFFFFFF
310
FFFFFFFFFFFFFFFFFFFFFFFFFFFFFFFFFFFFFFFFFFFFFFFFFFFFFFFFFFFFFFFF
310
FFFFFFFFFFFFFFFFFFFFFFFFFFFFFFFFFFFFFFFFFFFFFFFFFFFFFFFFFFFFFFFF
310
FFFFFFFFFFFFFFFFF000FFFFFFFFFFFFFFFFFFFFFFFFFFFFFFFFFFFFFFFFFFFF
310
FFFFFFFFFFFFFFFFFFFFFFFFFFFFFFFFFFFFFFFFFFFFFFFFFFFFFFFFFFFFFFFF
310
FFFFFFFFFFFFFFFFFFFFFFFFFFFFFFFFFFFFFFFFFFFFFFFFFFFFFFFFFFFFFFFF
310
F000FFFFFFFFFFFFFFFFFFFFFFFFFFFFFFFFFFFFFFFFFFFFFFFFFFFFFFFFFFFF
310
FFFFFFFFFFFFFFFFFFFFFFFFFFFFFFFFFFFFFFFFFFFFFFFFFFFFFFFFFFFFFFFF
310
FFFFFFFFFFFFFFFFFFFFFFFFFFFFFFFFFFFFFFFFFFFFFFFFF000FFFFFFFFFFFF
310
FFFFFFFFFFFFFFFFFFFFFFFFFFFFFFFFFFFFFFFFFFFFFFFFFFFFFFFFFFFFFFFF
310
FFFFFFFFFFFFFFFFFFFFFFFFFFFFFFFFFFFFFFFFFFFFFFFFFFFFFFFFFFFFFFFF
310
FFFFFFFFFFFFFFFFFFFFFFFFFFFFFFFFF000FFFFFFFFFFFFFFFFFFFFFFFFFFFF
310
FFFFFFFFFFFFFFFFFFFFFFFFFFFFFFFFFFFFFFFFFFFFFFFFFFFFFFFFFFFFFFFF
310
FFFFFFFFFFFFFFFFFFFFFFFFFFFFFFFFFFFFFFFFFFFFFFFFFFFFFFFFFFFFFFFF
310
FFFFFFFFFFFFFFFFF000FFFFFFFFFFFFFFFFFFFFFFFFFFFFFFFFFFFFFFFFFFFF
310
FFFFFFFFFFFFFFFFFFFFFFFFFFFFFFFFFFFFFFFFFFFFFFFFFFFFFFFFFFFFFFFF
310
FFFFFFFFFFFFFFFFFFFFFFFFFFFFFFFFFFFFFFFFFFFFFFFFFFFFFFFFFFFFFFFF
310
F000FFFFFFFFFFFFFFFFFFFFFFFFFFFFFFFFFFFFFFFFFFFFFFFFFFFFFFFFFFFF
310
FFFFFFFFFFFFFFFFFFFFFFFFFFFFFFFFFFFFFFFFFFFFFFFFFFFFFFFFFFFFFFFF
310
FFFFFFFFFFFFFFFFFFFFFFFFFFFFFFFFFFFFFFFFFFFFFFFFF000FFFFFFFFFFFF
310
FFFFFFFFFFFFFFFFFFFFFFFFFFFFFFFFFFFFFFFFFFFFFFFFFFFFFFFFFFFFFFFF
310
FFFFFFFFFFFFFFFFFFFFFFFFFFFFFFFFFFFFFFFFFFFFFFFFFFFFFFFFFFFFFFFF
310
FFFFFFFFFFFFFFFFFFFFFFFFFFFFFFFFF000FFFFFFFFFFFFFFFFFFFFFFFFFFFF
310
FFFFFFFFFFFFFFFFFFFFFFFFFFFFFFFFFFFFFFFFFFFFFFFFFFFFFFFFFFFFFFFF
310
FFFFFFFFFFFFFFFFFFFFFFFFFFFFFFFFFFFFFFFFFFFFFFFFFFFFFFFFFFFFFFFF
310
FFFFFFFFFFFFFFFFF000FFFFFFFFFFFFFFFFFFFFFFFFFFFFFFFFFFFFFFFFFFFF
310
FFFFFFFFFFFFFFFFFFFFFFFFFFFFFFFFFFFFFFFFFFFFFFFFFFFFFFFFFFFFFFFF
310
FFFFFFFFFFFFFFFFFFFFFFFFFFFFFFFFFFFFFFFFFFFFFFFFFFFFFFFFFFFFFFFF
310
F000FFFFFFFFFFFFFFFFFFFFFFFFFFFFFFFFFFFFFFFFFFFFFFFFFFFFFFFFFFFF
310
FFFFFFFFFFFFFFFFFFFFFFFFFFFFFFFFFFFFFFFFFFFFFFFFFFFFFFFFFFFFFFFF
310
FFFFFFFFFFFFFFFFFFFFFFFFFFFFFFFFFFFFFFFFFFFFFFFFF000FFFFFFFFFFFF
310
FFFFFFFFFFFFFFFFFFFFFFFFFFFFFFFFFFFFFFFFFFFFFFFFFFFFFFFFFFFFFFFF
310
FFFFFFFFFFFFFFFFFFFFFFFFFFFFFFFFFFFFFFFFFFFFFFFFFFFFFFFFFFFFFFFF
310
FFFFFFFFFFFFFFFFFFFFFFFFFFFFFFFFF000FFFFFFFFFFFFFFFFFFFFFFFFFFFF
310
FFFFFFFFFFFFFFFFFFFFFFFFFFFFFFFFFFFFFFFFFFFFFFFFFFFFFFFFFFFFFFFF
310
FFFFFFFFFFFFFFFFFFFFFFFFFFFFFFFFFFFFFFFFFFFFFFFFFFFFFFFFFFFFFFFF
310
FFFFFFFFFFFFFFFFF000FFFFF80003FFFFFFFFFFFFFFFFFFFFFFFFFFFFFFFFFF
310
FFFFF00007FFFFFFFFFF00007FFFFFF800000000000000007FFFFFFFFFFFFFFF
310
FFFFFFFC001FFFFFFFFFFFFFFC001FFFFFFFFFFFFFFFFFFFFFFFFFFE0007FFFF
310
F000FFFF8000007FFFFFFFF8000FFFFFC0007FFFFF80007FFFFF0000007FFFFF
310
FFF8000007FFFFF800000000000000007FFFFFF0001FFFFFFFFFFFC00001FFFF
310
FFFFFFFFC00001FFFFFFFF000000000003FFFFE000007FFFF000FFFE0000000F
310
FFFFFFF0000FFFFF80007FFFFF80007FFFFC0000001FFFFFFFC0000001FFFFF8
310
00000000000000007FFFFFF0001FFFFFFFFFFE0000003FFFFFFFFFFE0000003F
310
FFFFFF000000000003FFFF0000000FFFF000FFF800000003FFFFFFF00007FFFF
310
80007FFFFF80007FFFF000000007FFFFFF000000003FFFF80000000000000000
310
7FFFFFF0001FFFFFFFFFF80000000FFFFFFFFFF80000000FFFFFFF0000000000
310
03FFFC00000003FFF000FFE000000000FFFFFFF00007FFFF80003FFFFF80007F
310
FFC000000001FFFFFC000000001FFFF800000000000000007FFFFFF0001FFFFF
310
FFFFE000000003FFFFFFFFE000000003FFFFFF000000000003FFF000000000FF
310
F000FF80000000007FFFFFF00007FFFF80003FFFFF80007FFF8000000000FFFF
310
F80000000007FFF800000000000000007FFFFFF0001FFFFFFFFFC000000001FF
310
FFFFFFC000000001FFFFFF000000000003FFC0000000007FF000FF0000000000
310
3FFFFFE00007FFFF00003FFFFF80007FFE00000000003FFFF00000000003FFF8
310
00000000000000007FFFFFF0001FFFFFFFFF8000000000FFFFFFFF8000000000
310
FFFFFF000000000003FF80000000003FF000FE00000000001FFFFFE00003FFFF
310
00003FFFFF80007FFC00000000001FFFE00000000001FFF8000001FFFE000000
310
7FFFFFF0001FFFFFFFFE00000000003FFFFFFE00000000003FFFFF0000000000
310
03FF00000000001FF000FC00000000000FFFFFE00003FFFF00001FFFFF80007F
310
F800000000001FFFC00000000000FFF8000001FFFE0000007FFFFFF0001FFFFF
310
FFFC00000000001FFFFFFC00000000001FFFFF000000000003FE00000000000F
310
F000F8000000000007FFFFE00003FFFF00001FFFFF80007FF800000000000FFF
310
800000000000FFF8000001FFFE0000007FFFFFF0001FFFFFFFF800000000000F
310
FFFFF800000000000FFFFF000000000003FC000000000007F000F80000000000
310
03FFFFC00003FFFE00001FFFFF80007FF0000000000007FF0000000000007FF8
310
000001FFFE0000007FFFFFF0001FFFFFFFF0000000000007FFFFF00000000000
310
07FFFF000000000003F8000000000003F000F0000000000003FFFFC00001FFFE
310
00001FFFFF80007FE0000000000007FE0000000000003FF8000001FFFE000000
310
7FFFFFF0001FFFFFFFF0000000000007FFFFF0000000000007FFFF0000000000
310
03F800001F800003F000E00001FFF00001FFFFC00001FFFE00000FFFFF80007F
310
E00001FFE00003FE00001FFF00003FF8000001FFFE0000007FFFFFF0001FFFFF
310
FFE000003E000003FFFFE000003E000003FFFF000000000003F00001FFF80001
310
F000E00007FFFC0001FFFFC00001FFFE00000FFFFF80007FC0000FFFFC0003FC
310
0000FFFFC0001FF8000001FFFE0000007FFFFFF0001FFFFFFFC00003FFE00001
310
FFFFC00003FFE00001FFFF0001FFFFFFFFF00007FFFE0001F000E0000FFFFF00
310
00FFFF800001FFFC00000FFFFF80007FC0001FFFFE0001FC0001FFFFE0001FF8
310
000001FFFE0000007FFFFFF0001FFFFFFF80000FFFF80000FFFF80000FFFF800
310
00FFFF0003FFFFFFFFE0000FFFFF8000F000C0003FFFFF8000FFFF800000FFFC
310
000007FFFF80007F80003FFFFF0001FC0003FFFFF0001FF8000001FFFE000000
310
7FFFFFF0001FFFFFFF80003FFFFE0000FFFF80003FFFFE0000FFFF0003FFFFFF
310
FFE0003FFFFF8000F000C0003FFFFF8000FFFF800000FFFC000007FFFF80007F
310
80007FFFFF8001F80007FFFFF8000FF8000001FFFE0000007FFFFFF0001FFFFF
310
FF00007FFFFF00007FFF00007FFFFF00007FFF0003FFFFFFFFE0003FFFFFC000
310
F000C0007FFFFFC000FFFF000000FFFC000007FFFF80007F8000FFFFFF8000F8
310
000FFFFFF8000FF8000001FFFE0000007FFFFFF0001FFFFFFF0000FFFFFF8000
310
7FFF0000FFFFFF80007FFF0003FFFFFFFFC0007FFFFFC00070008000FFFFFFC0
310
00FFFF000000FFF8000007FFFF80007F8000FFFFFF8000F8000FFFFFF8000FF8
310
000001FFFE0000007FFFFFF0001FFFFFFE0001FFFFFFC0003FFE0001FFFFFFC0
310
003FFF0003FFFFFFFFC0007FFFFFE00070008000FFFFFFC0007FFF0000007FF8
310
000003FFFF80007F0001FFFFFF8000F8000FFFFFF8000FF8000001FFFE000000
310
7FFFFFF0001FFFFFFE0001FFFFFFC0003FFE0001FFFFFFC0003FFF0003FFFFFF
310
FFC000FFFFFFE00070008000FFFFFFC0007FFF0000007FF8000003FFFF80007F
310
0001FFFFFF8000F8001FFFFFF8000FF8000001FFFE0000007FFFFFF0001FFFFF
310
FE0003FFFFFFE0003FFE0003FFFFFFE0003FFF0003FFFFFFFFC000FFFFFFE000
310
70008000FFFFFFC0007FFE0000007FF8000003FFFF80007F0001FFFFFF8000F0
310
001FFFFFF8000FF8000001FFFE0000007FFFFFF0001FFFFFFC0003FFFFFFE000
310
1FFC0003FFFFFFE0001FFF0003FFFFFFFFC000FFFFFFC00070008000FFFFFF80
310
007FFE0000007FF0000003FFFF80007F0001FFFFFF0000F0001FFFFFF8000FF8
310
000001FFFE0000007FFFFFF0001FFFFFFC0007FFFFFFF0001FFC0007FFFFFFF0
310
001FFF0003FFFFFFFFC000FFFFFFC00070008001FFFFFF0000FFFE0000003FF0
310
000001FFFF80007F0001FFFFFF0000F8001FFFFFF0000FF8000001FFFE000000
310
7FFFFFF0001FFFFFFC0007FFFFFFF0001FFC0007FFFFFFF0001FFF0003FFFFFF
310
FFC001FFFFFF80007000FFFFFFFFFE0000FFFE0008003FF0008001FFFF80007F
310
FFFFFFFFFC0000FFFFFFFFFFE0000FF8000001FFFE0000007FFFFFF0001FFFFF
310
F8000FFFFFFFF8000FF8000FFFFFFFF8000FFF0003FFFFFFFFFFFFFFFFFF0000
310
7000FFFFFFFFFC0000FFFC0008003FF0008001FFFF80007FFFFFFFFFF80001FF
310
FFFFFFFF80000FF8000001FFFE0000007FFFFFF0001FFFFFF8000FFFFFFFF800
310
0FF8000FFFFFFFF8000FFF0003FFFFFFFFFFFFFFFFFE0000F000FFFFFFFFE000
310
00FFFC000C003FE000C001FFFF80007FFFFFFFFFC00001FFFFFFFFFE00001FF8
310
000001FFFE0000007FFFFFF0001FFFFFF8000FFFFFFFF8000FF8000FFFFFFFF8
310
000FFF0003FFFFFFFFFFFFFFFFF00000F000FFFFFFFE000001FFFC000C001FE0
310
00C000FFFF80007FFFFFFFFE000001FFFFFFFFE000001FF80FFFFFFFFFFFFFC0
310
7FFFFFF0001FFFFFF8000FFFFFFFF8000FF8000FFFFFFFF8000FFF0003FFFFFF
310
FFFFFFFFFF800000F000FFFFFFC0000001FFFC001C001FE001C000FFFF80007F
310
FFFFFF80000003FFFFFFF80000001FF80FFFFFFFFFFFFFC07FFFFFF0001FFFFF
310
F8001FFFFFFFFC000FF8001FFFFFFFFC000FFF0003FFFFFFFFFFFFFFF0000001
310
F000FFFFF800000001FFF8001C001FE001C000FFFF80007FFFFFF800000003FF
310
FFFF800000003FF80FFFFFFFFFFFFFC07FFFFFF0001FFFFFF8001FFFFFFFFC00
310
0FF8001FFFFFFFFC000FFF0003FFFFFFFFFFFFFE00000001F000FFFFC0000000
310
03FFF8001E001FC001E000FFFF80007FFFFF8000000007FFFFFC000000003FF8
310
0FFFFFFFFFFFFFC07FFFFFF0001FFFFFF8001FFFFFFFFC000FF8001FFFFFFFFC
310
000FFF0003FFFFFFFFFFFFE000000003F000FFFE0000000007FFF8001E000FC0
310
01E0007FFF80007FFFFE0000000007FFFFE0000000007FF80FFFFFFFFFFFFFC0
310
7FFFFFF0001FFFFFF0001FFFFFFFFC0007F0001FFFFFFFFC0007FF0003FFFFFF
310
FFFFFF0000000003F000FFF80000000007FFF8001E000FC003E0007FFF80007F
310
FFF0000000000FFFFF8000000000FFF80FFFFFFFFFFFFFC07FFFFFF0001FFFFF
310
F0001FFFFFFFFC0007F0001FFFFFFFFC0007FF0003FFFFFFFFFFFC0000000007
310
F000FFE0000000000FFFF0003E000FC003E0007FFF80007FFFC0000000001FFF
310
FE0000000001FFF80FFFFFFFFFFFFFC07FFFFFF0001FFFFFF0001FFFFFFFFC00
310
07F0001FFFFFFFFC0007FF0003FFFFFFFFFFF0000000000FF000FFC000000000
310
1FFFF0003F000F8003F0003FFF80007FFF80000000003FFFF80000000003FFF8
310
0FFFFFFFFFFFFFC07FFFFFF0001FFFFFF0001FFFFFFFFC0007F0001FFFFFFFFC
310
0007FF0003FFFFFFFFFFE0000000001FF000FF00000000007FFFF0003F000780
310
03F0003FFF80007FFF00000000007FFFF00000000007FFF80FFFFFFFFFFFFFC0
310
7FFFFFF0001FFFFFF0001FFFFFFFFC0007F0001FFFFFFFFC0007FF0003FFFFFF
310
FFFF80000000007FF000FE0000000000FFFFE0003F00078007F0003FFF80007F
310
FE0000000001FFFFE0000000001FFFF80FFFFFFFFFFFFFC07FFFFFF0001FFFFF
310
F0001FFFFFFFFC0007F0001FFFFFFFFC0007FF0003FFFFFFFFFF0000000000FF
310
F000FC0000000003FFFFE0007F00078007F0003FFF80007FFC0000000007FFFF
310
C0000000007FFFF80FFFFFFFFFFFFFC07FFFFFF0001FFFFFF8001FFFFFFFFC00
310
0FF8001FFFFFFFFC000FFF0003FFFFFFFFFE0000000003FFF000FC000000000F
310
FFFFE0007F80070007F8001FFF80007FF8000000001FFFFF8000000001FFFFF8
310
0FFFFFFFFFFFFFC07FFFFFF0001FFFFFF8001FFFFFFFFC000FF8001FFFFFFFFC
310
000FFF0003FFFFFFFFFC000000000FFFF000F8000000007FFFFFE0007F800700
310
07F8001FFF80007FF000000000FFFFFF800000000FFFFFF80FFFFFFFFFFFFFC0
310
7FFFFFF0001FFFFFF8000FFFFFFFF8000FF8000FFFFFFFF8000FFF0003FFFFFF
310
FFFC000000007FFFF000F800000007FFFFFFC0007F8003000FF8001FFF80007F
310
F000000007FFFFFF000000007FFFFFF80FFFFFFFFFFFFFC07FFFFFF0001FFFFF
310
F8000FFFFFFFF8000FF8000FFFFFFFF8000FFF0003FFFFFFFFF80000000FFFFF
310
F000F0000000FFFFFFFFC000FF8003000FF8001FFF80007FE0000000FFFFFFFF
310
0000000FFFFFFFF8000001FFFE0000007FFFFFF0001FFFFFF8000FFFFFFFF800
310
0FF8000FFFFFFFF8000FFF0003FFFFFFFFF8000000FFFFFFF000F000000FFFFF
310
FFFFC000FFC002000FF8000FFF80007FE000001FFFFFFFFE000001FFFFFFFFF8
310
000001FFFE0000007FFFFFF0001FFFFFF8000FFFFFFFF8000FF8000FFFFFFFF8
310
000FFF0003FFFFFFFFF000001FFFFFFFF000E00000FFFFFFFFFFC000FFC00200
310
0FFC000FFF80007FE00001FFFFFFFFFE00001FFFFFFFFFF8000001FFFE000000
310
7FFFFFF0001FFFFFFC000FFFFFFFF8001FFC000FFFFFFFF8001FFF0003FFFFFF
310
FFF00001FFFFFFFFF000E00007FFFFFFFFFF8000FFC000001FFC000FFF80007F
310
C0000FFFFFFFFFFE0000FFFFFFFFFFF8000001FFFE0000007FFFFFF0001FFFFF
310
FC0007FFFFFFF0001FFC0007FFFFFFF0001FFF0003FFFFFFFFF00007FFFFFFFF
310
F000E0001FFFFFFFFFFF8000FFC000001FFC000FFF80007FC0003FFFFFFFFFFE
310
0001FFFFFFFFFFF8000001FFFE0000007FFFFFF0001FFFFFFC0007FFFFFFF000
310
1FFC0007FFFFFFF0001FFF0003FFFFFFFFF0001FFFFFFFFFF000E0003FFFFF00
310
03FF8001FFE000001FFC0007FF80007FC0007FFFFF0007FC0003FFFFF0003FF8
310
000001FFFE0000007FFFFFF0001FFFFFFC0003FFFFFFE0001FFC0003FFFFFFE0
310
001FFF0003FFFFFFFFF0003FFFFFFFFFF000E0003FFFFF0001FF8001FFE00000
310
1FFE0007FF80007FC0007FFFFE0003FC0007FFFFE0003FF8000001FFFE000000
310
7FFFFFF0001FFFFFFE0003FFFFFFE0003FFE0003FFFFFFE0003FFF0003FFFFFF
310
FFF0003FFFFF8001F000E0003FFFFF0001FF0001FFE000001FFE0007FF80007F
310
C0007FFFFE0003FC0007FFFFE0003FF8000001FFFE0000007FFFFFF0001FFFFF
310
FE0001FFFFFFC0003FFE0001FFFFFFC0003FFF0003FFFFFFFFF0003FFFFF0001
310
F000E0003FFFFF0003FF0001FFE000003FFE0007FF80007FC0007FFFFE0003FC
310
0007FFFFE0003FF8000001FFFE0000007FFFFFF0001FFFFFFF0001FFFFFFC000
310
7FFF0001FFFFFFC0007FFF0003FFFFFFFFF0003FFFFF0001F000E0003FFFFE00
310
03FF0003FFF000003FFE0003FF80007FC0007FFFFC0003FE0007FFFFE0003FF8
310
000001FFFE0000007FFFFFF0001FFFFFFF0000FFFFFF80007FFF0000FFFFFF80
310
007FFF0003FFFFFFFFF0003FFFFF0001F000E0003FFFFE0003FF0003FFF00000
310
3FFF0003FF80007FC0007FFFFC0007FE0007FFFFC0003FF8000001FFFE000000
310
7FFFFFF0001FFFFFFF80007FFFFF0000FFFF80007FFFFF0000FFFF0003FFFFFF
310
FFF0003FFFFF0003F000E0003FFFFC0003FE0003FFF000003FFF0003FF80007F
310
E0003FFFF80007FE0003FFFFC0007FF8000001FFFE0000007FFFFFF0001FFFFF
310
FF80003FFFFE0000FFFF80003FFFFE0000FFFF0003FFFFFFFFF0001FFFFE0003
310
F000F0001FFFF80003FE0003FFF000007FFF0001FF80007FE0003FFFF00007FE
310
0001FFFF80007FF8000001FFFE0000007FFFFFF0001FFFFFFFC0000FFFF80001
310
FFFFC0000FFFF80001FFFF0003FFFFFFFFF0001FFFFC0003F000F0000FFFF000
310
07FE0007FFF800007FFF0001FF80007FE0001FFFE00007FF0000FFFE00007FF8
310
000001FFFE0000007FFFFFF0001FFFFFFFC00003FFE00001FFFFC00003FFE000
310
01FFFF0003FFFFFFFFF8000FFFF80003F000F00003FFC00007FC0007FFF80000
310
7FFF8001FF80007FF00007FF80000FFF00007FF80000FFF8000001FFFE000000
310
7F80000000000001FFE000003E000003FFFFE000003E000003FFFF0003FFFFFF
310
FFF80003FFE00007F000F800000000000FFC0007FFF800007FFF8001FF80007F
310
F000000000000FFF000000000000FFF8000001FFFE0000007F80000000000001
310
FFF0000000000007FFFFF0000000000007FFFF0003FFFFFFFFFC00007E000007
310
F000F800000000000FFC0007FFF80000FFFF8000FF80007FF800000000001FFF
310
800000000001FFF8000001FFFE0000007F80000000000001FFF800000000000F
310
FFFFF800000000000FFFFF0003FFFFFFFFFC00000000000FF000FC0000000000
310
1FFC0007FFFC0000FFFF8000FF80007FF800000000003FFFC00000000001FFF8
310
000001FFFE0000007F80000000000001FFF800000000000FFFFFF80000000000
310
0FFFFF0003FFFFFFFFFE00000000001FF000FE00000000003FF8000FFFFC0000
310
FFFF8000FF80007FFC00000000003FFFC00000000003FFF8000001FFFE000000
310
7F80000000000001FFFC00000000001FFFFFFC00000000001FFFFF0003FFFFFF
310
FFFF00000000001FF000FF00000000003FF8000FFFFC0000FFFFC000FF80007F
310
FE00000000007FFFE00000000007FFF8000001FFFE0000007F80000000000001
310
FFFE00000000003FFFFFFE00000000003FFFFF0003FFFFFFFFFF80000000003F
310
F000FF80000000007FF8000FFFFC0001FFFFC0007F80007FFF0000000000FFFF
310
F0000000000FFFF800000000000000007F80000000000001FFFF8000000000FF
310
FFFFFF8000000000FFFFFF0003FFFFFFFFFFC0000000007FF000FFC000000000
310
FFF8000FFFFE0001FFFFC0007F80007FFF8000000001FFFFF8000000001FFFF8
310
00000000000000007F80000000000001FFFFC000000001FFFFFFFFC000000001
310
FFFFFF0003FFFFFFFFFFE000000000FFF000FFE000000003FFF0001FFFFE0001
310
FFFFC0007F80007FFFC000000007FFFFFE000000003FFFF80000000000000000
310
7F80000000000001FFFFE000000003FFFFFFFFE000000003FFFFFF0003FFFFFF
310
FFFFF000000003FFF000FFF80000000FFFF0001FFFFE0001FFFFE0007F80007F
310
FFF00000000FFFFFFF00000000FFFFF800000000000000007F80000000000001
310
FFFFF80000000FFFFFFFFFF80000000FFFFFFF0003FFFFFFFFFFFC0000000FFF
310
F000FFFE0000003FFFF0001FFFFE0003FFFFE0003F80007FFFFC0000003FFFFF
310
FFC0000003FFFFF800000000000000007F80000000000001FFFFFE0000003FFF
310
FFFFFFFE0000003FFFFFFF0003FFFFFFFFFFFF0000003FFFF000FFFF800000FF
310
FFF0001FFFFF0003FFFFE0003F80007FFFFF000001FFFFFFFFF800001FFFFFF8
310
00000000000000007F80000000000001FFFFFFC00001FFFFFFFFFFFFC00001FF
310
FFFFFF0003FFFFFFFFFFFFC00000FFFFF000FFFFF8000FFFFFFFFFFFFFFFFFFF
310
FFFFFFFFFFFFFFFFFFFFF0001FFFFFFFFFFF0000FFFFFFF80000000000000000
310
7FFFFFFFFFFFFFFFFFFFFFFC001FFFFFFFFFFFFFFC001FFFFFFFFFFFFFFFFFFF
310
FFFFFFFC001FFFFFF000FFFFFFFFFFFFFFFFFFFFFFFFFFFFFFFFFFFFFFFFFFFF
310
FFFFFFFFFFFFFFFFFFFFFFFFFFFFFFFFFFFFFFFFFFFFFFFFFFFFFFFFFFFFFFFF
310
FFFFFFFFFFFFFFFFFFFFFFFFFFFFFFFFFFFFFFFFFFFFFFFFFFFFFFFFFFFFFFFF
310
F000FFFFFFFFFFFFFFFFFFFFFFFFFFFFFFFFFFFFFFFFFFFFFFFFFFFFFFFFFFFF
310
FFFFFFFFFFFFFFFFFFFFFFFFFFFFFFFFFFFFFFFFFFFFFFFFFFFFFFFFFFFFFFFF
310
FFFFFFFFFFFFFFFFFFFFFFFFFFFFFFFFFFFFFFFFFFFFFFFFF000FFFFFFFFFFFF
310
FFFFFFFFFFFFFFFFFFFFFFFFFFFFFFFFFFFFFFFFFFFFFFFFFFFFFFFFFFFFFFFF
310
FFFFFFFFFFFFFFFFFFFFFFFFFFFFFFFFFFFFFFFFFFFFFFFFFFFFFFFFFFFFFFFF
310
FFFFFFFFFFFFFFFFFFFFFFFFFFFFFFFFF000FFFFFFFFFFFFFFFFFFFFFFFFFFFF
310
FFFFFFFFFFFFFFFFFFFFFFFFFFFFFFFFFFFFFFFFFFFFFFFFFFFFFFFFFFFFFFFF
310
FFFFFFFFFFFFFFFFFFFFFFFFFFFFFFFFFFFFFFFFFFFFFFFFFFFFFFFFFFFFFFFF
310
FFFFFFFFFFFFFFFFF000FFFFFFFFFFFFFFFFFFFFFFFFFFFFFFFFFFFFFFFFFFFF
310
FFFFFFFFFFFFFFFFFFFFFFFFFFFFFFFFFFFFFFFFFFFFFFFFFFFFFFFFFFFFFFFF
310
FFFFFFFFFFFFFFFFFFFFFFFFFFFFFFFFFFFFFFFFFFFFFFFFFFFFFFFFFFFFFFFF
310
F000FFFFFFFFFFFFFFFFFFFFFFFFFFFFFFFFFFFFFFFFFFFFFFFFFFFFFFFFFFFF
310
FFFFFFFFFFFFFFFFFFFFFFFFFFFFFFFFFFFFFFFFFFFFFFFFFFFFFFFFFFFFFFFF
310
FFFFFFFFFFFFFFFFFFFFFFFFFFFFFFFFFFFFFFFFFFFFFFFFF000FFFFFFFFFFFF
310
FFFFFFFFFFFFFFFFFFFFFFFFFFFFFFFFFFFFFFFFFFFFFFFFFFFFFFFFFFFFFFFF
310
FFFFFFFFFFFFFFFFFFFFFFFFFFFFFFFFFFFFFFFFFFFFFFFFFFFFFFFFFFFFFFFF
310
FFFFFFFFFFFFFFFFFFFFFFFFFFFFFFFFF000FFFFFFFFFFFFFFFFFFFFFFFFFFFF
310
FFFFFFFFFFFFFFFFFFFFFFFFFFFFFFFFFFFFFFFFFFFFFFFFFFFFFFFFFFFFFFFF
310
FFFFFFFFFFFFFFFFFFFFFFFFFFFFFFFFFFFFFFFFFFFFFFFFFFFFFFFFFFFFFFFF
310
FFFFFFFFFFFFFFFFF000FFFFFFFFFFFFFFFFFFFFFFFFFFFFFFFFFFFFFFFFFFFF
310
FFFFFFFFFFFFFFFFFFFFFFFFFFFFFFFFFFFFFFFFFFFFFFFFFFFFFFFFFFFFFFFF
310
FFFFFFFFFFFFFFFFFFFFFFFFFFFFFFFFFFFFFFFFFFFFFFFFFFFFFFFFFFFFFFFF
310
F000FFFFFFFFFFFFFFFFFFFFFFFFFFFFFFFFFFFFFFFFFFFFFFFFFFFFFFFFFFFF
310
FFFFFFFFFFFFFFFFFFFFFFFFFFFFFFFFFFFFFFFFFFFFFFFFFFFFFFFFFFFFFFFF
310
FFFFFFFFFFFFFFFFFFFFFFFFFFFFFFFFFFFFFFFFFFFFFFFFF000FFFFFFFFFFFF
310
FFFFFFFFFFFFFFFFFFFFFFFFFFFFFFFFFFFFFFFFFFFFFFFFFFFFFFFFFFFFFFFF
310
FFFFFFFFFFFFFFFFFFFFFFFFFFFFFFFFFFFFFFFFFFFFFFFFFFFFFFFFFFFFFFFF
310
FFFFFFFFFFFFFFFFFFFFFFFFFFFFFFFFF000FFFFFFFFFFFFFFFFFFFFFFFFFFFF
310
FFFFFFFFFFFFFFFFFFFFFFFFFFFFFFFFFFFFFFFFFFFFFFFFFFFFFFFFFFFFFFFF
310
FFFFFFFFFFFFFFFFFFFFFFFFFFFFFFFFFFFFFFFFFFFFFFFFFFFFFFFFFFFFFFFF
310
FFFFFFFFFFFFFFFFF000FFFFFFFFFFFFFFFFFFFFFFFFFFFFFFFFFFFFFFFFFFFF
310
FFFFFFFFFFFFFFFFFFFFFFFFFFFFFFFFFFFFFFFFFFFFFFFFFFFFFFFFFFFFFFFF
310
FFFFFFFFFFFFFFFFFFFFFFFFFFFFFFFFFFFFFFFFFFFFFFFFFFFFFFFFFFFFFFFF
310
F000FFFFFFFFFFFFFFFFFFFFFFFFFFFFFFFFFFFFFFFFFFFFFFFFFFFFFFFFFFFF
310
FFFFFFFFFFFFFFFFFFFFFFFFFFFFFFFFFFFFFFFFFFFFFFFFFFFFFFFFFFFFFFFF
310
FFFFFFFFFFFFFFFFFFFFFFFFFFFFFFFFFFFFFFFFFFFFFFFFF000FFFFFFFFFFFF
310
FFFFFFFFFFFFFFFFFFFFFFFFFFFFFFFFFFFFFFFFFFFFFFFFFFFFFFFFFFFFFFFF
310
FFFFFFFFFFFFFFFFFFFFFFFFFFFFFFFFFFFFFFFFFFFFFFFFFFFFFFFFFFFFFFFF
310
FFFFFFFFFFFFFFFFFFFFFFFFFFFFFFFFF000FFFFFFFFFFFFFFFFFFFFFFFFFFFF
310
FFFFFFFFFFFFFFFFFFFFFFFFFFFFFFFFFFFFFFFFFFFFFFFFFFFFFFFFFFFFFFFF
310
FFFFFFFFFFFFFFFFFFFFFFFFFFFFFFFFFFFFFFFFFFFFFFFFFFFFFFFFFFFFFFFF
310
FFFFFFFFFFFFFFFFF000FFFFFFFFFFFFFFFFFFFFFFFFFFFFFFFFFFFFFFFFFFFF
310
FFFFFFFFFFFFFFFFFFFFFFFFFFFFFFFFFFFFFFFFFFFFFFFFFFFFFFFFFFFFFFFF
310
FFFFFFFFFFFFFFFFFFFFFFFFFFFFFFFFFFFFFFFFFFFFFFFFFFFFFFFFFFFFFFFF
310
F000FFFFFFFFFFFFFFFFFFFFFFFFFFFFFFFFFFFFFFFFFFFFFFFFFFFFFFFFFFFF
310
FFFFFFFFFFFFFFFFFFFFFFFFFFFFFFFFFFFFFFFFFFFFFFFFFFFFFFFFFFFFFFFF
310
FFFFFFFFFFFFFFFFFFFFFFFFFFFFFFFFFFFFFFFFFFFFFFFFF000FFFFFFFFFFFF
310
FFFFFFFFFFFFFFFFFFFFFFFFFFFFFFFFFFFFFFFFFFFFFFFFFFFFFFFFFFFFFFFF
310
FFFFFFFFFFFFFFFFFFFFFFFFFFFFFFFFFFFFFFFFFFFFFFFFFFFFFFFFFFFFFFFF
310
FFFFFFFFFFFFFFFFFFFFFFFFFFFFFFFFF000FFFFFFFFFFFFFFFFFFFFFFFFFFFF
310
FFFFFFFFFFFFFFFFFFFFFFFFFFFFFFFFFFFFFFFFFFFFFFFFFFFFFFFFFFFFFFFF
310
FFFFFFFFFFFFFFFFFFFFFFFFFFFFFFFFFFFFFFFFFFFFFFFFFFFFFFFFFFFFFFFF
310
FFFFFFFFFFFFFFFFF000FFFFFFFFFFFFFFFFFFFFFFFFFFFFFFFFFFFFFFFFFFFF
310
FFFFFFFFFFFFFFFFFFFFFFFFFFFFFFFFFFFFFFFFFFFFFFFFFFFFFFFFFFFFFFFF
310
FFFFFFFFFFFFFFFFFFFFFFFFFFFFFFFFFFFFFFFFFFFFFFFFFFFFFFFFFFFFFFFF
310
F000FFFFFFFFFFFFFFFFFFFFFFFFFFFFFFFFFFFFFFFFFFFFFFFFFFFFFFFFFFFF
310
FFFFFFFFFFFFFFFFFFFFFFFFFFFFFFFFFFFFFFFFFFFFFFFFFFFFFFFFFFFFFFFF
310
FFFFFFFFFFFFFFFFFFFFFFFFFFFFFFFFFFFFFFFFFFFFFFFFF000FFFFFFFFFFFF
310
FFFFFFFFFFFFFFFFFFFFFFFFFFFFFFFFFFFFFFFFFFFFFFFFFFFFFFFFFFFFFFFF
310
FFFFFFFFFFFFFFFFFFFFFFFFFFFFFFFFFFFFFFFFFFFFFFFFFFFFFFFFFFFFFFFF
310
FFFFFFFFFFFFFFFFFFFFFFFFFFFFFFFFF0000000000000000000000000000000
310
0000000000000000000000000000000000000000000000000000000000000000
310
0000000000000000000000000000000000000000000000000000000000000000
310
0000000000000000000000000000000000000000000000000000000000000000
310
0000000000000000000000000000000000000000000000000000000000000000
310
0000000000000000000000000000000000000000000000000000000000000000
310
0000000000000000000000000000000000000000000000000000000000000000
310
0000000000000000000000000000000000000000000000000000000000000000
310
0000000000000000000000000000000000000000000000000000000000000000
310
0000000000000000000000000000000000000000000000000000000000000000
310
0000000000000000000000000000000000000000000000000000000000000000
310
0000000000000000000000000000000000000000000000000000000000000000
310
0000000000000000000000000000000000000000000000000000000000000000
310
0000000000000000000000000000000000000000000000000000000000000000
310
0000000000000000000000000000000000000000000000000000000000000000
310
0000000000000000000000000000000000000000000000000000000000000000
  1
OLE
  0
ENDSEC
  0
SECTION
  2
OBJECTS
  0
DICTIONARY
  5
C
330
0
100
AcDbDictionary
281
     1
  3
ACAD_GROUP
350
D
  3
ACAD_LAYOUT
350
1A
  3
ACAD_MLINESTYLE
350
17
  3
ACAD_PLOTSETTINGS
350
19
  3
ACAD_PLOTSTYLENAME
350
E
  3
ACAD_SCALELIST
350
47
  0
DICTIONARY
  5
D
102
{ACAD_REACTORS
330
C
102
}
330
C
100
AcDbDictionary
281
     1
  0
DICTIONARY
  5
1A
102
{ACAD_REACTORS
330
C
102
}
330
C
100
AcDbDictionary
281
     1
  3
Layout1
350
1E
  3
Layout2
350
26
  3
Model
350
22
  0
DICTIONARY
  5
17
102
{ACAD_REACTORS
330
C
102
}
330
C
100
AcDbDictionary
281
     1
  3
Standard
350
18
  0
DICTIONARY
  5
19
102
{ACAD_REACTORS
330
C
102
}
330
C
100
AcDbDictionary
281
     1
  0
ACDBDICTIONARYWDFLT
  5
E
102
{ACAD_REACTORS
330
C
102
}
330
C
100
AcDbDictionary
281
     1
  3
Normal
350
F
100
AcDbDictionaryWithDefault
340
F
  0
DICTIONARY
  5
47
102
{ACAD_REACTORS
330
C
102
}
330
C
100
AcDbDictionary
281
     1
  3
A0
350
48
  3
A1
350
49
  3
A2
350
4A
  3
A3
350
4B
  3
A4
350
4C
  3
A5
350
4D
  3
A6
350
4E
  3
A7
350
4F
  3
A8
350
50
  3
A9
350
51
  3
B0
350
52
  3
B1
350
53
  3
B2
350
54
  3
B3
350
55
  3
B4
350
56
  3
B5
350
57
  3
B6
350
58
  3
B7
350
59
  3
B8
350
5A
  3
B9
350
5B
  3
C0
350
5C
  3
C1
350
5D
  3
C2
350
5E
  3
C3
350
5F
  3
C4
350
60
  3
C5
350
61
  3
C6
350
62
  3
C7
350
63
  3
C8
350
64
  3
C9
350
65
  3
D0
350
66
  3
D1
350
67
  3
D2
350
68
  0
LAYOUT
  5
1E
102
{ACAD_REACTORS
330
1A
102
}
330
1A
100
AcDbPlotSettings
  1

  2
none_device
  4

  6

 40
0.0
 41
0.0
 42
0.0
 43
0.0
 44
0.0
 45
0.0
 46
0.0
 47
0.0
 48
0.0
 49
0.0
140
0.0
141
0.0
142
1.0
143
1.0
 70
   688
 72
     1
 73
     0
 74
     5
  7

 75
    16
147
1.0
148
0.0
149
0.0
100
AcDbLayout
  1
Layout1
 70
     1
 71
     1
 10
0.0
 20
0.0
 11
420.0
 21
297.0
 12
0.0
 22
0.0
 32
0.0
 14
1.0000000000E+20
 24
1.0000000000E+20
 34
1.0000000000E+20
 15
-1.0000000000E+20
 25
-1.0000000000E+20
 35
-1.0000000000E+20
146
0.0
 13
0.0
 23
0.0
 33
0.0
 16
1.0
 26
0.0
 36
0.0
 17
0.0
 27
1.0
 37
0.0
 76
     0
330
1B
  0
LAYOUT
  5
26
102
{ACAD_REACTORS
330
1A
102
}
330
1A
100
AcDbPlotSettings
  1

  2
none_device
  4

  6

 40
0.0
 41
0.0
 42
0.0
 43
0.0
 44
0.0
 45
0.0
 46
0.0
 47
0.0
 48
0.0
 49
0.0
140
0.0
141
0.0
142
1.0
143
1.0
 70
   688
 72
     1
 73
     0
 74
     5
  7

 75
    16
147
1.0
148
0.0
149
0.0
100
AcDbLayout
  1
Layout2
 70
     1
 71
     2
 10
0.0
 20
0.0
 11
0.0
 21
0.0
 12
0.0
 22
0.0
 32
0.0
 14
0.0
 24
0.0
 34
0.0
 15
0.0
 25
0.0
 35
0.0
146
0.0
 13
0.0
 23
0.0
 33
0.0
 16
1.0
 26
0.0
 36
0.0
 17
0.0
 27
1.0
 37
0.0
 76
     0
330
23
  0
LAYOUT
  5
22
102
{ACAD_REACTORS
330
1A
102
}
330
1A
100
AcDbPlotSettings
  1

  2
none_device
  4
Letter_(8.50_x_11.00_Inches)
  6

 40
6.35
 41
6.35
 42
6.35000508
 43
6.35000508
 44
215.9
 45
279.4
 46
0.0
 47
0.0
 48
0.0
 49
0.0
140
0.0
141
0.0
142
1.0
143
1.0
 70
  1712
 72
     1
 73
     0
 74
     0
  7

 75
     0
147
1.0
148
0.0
149
0.0
100
AcDbLayout
  1
Model
 70
     1
 71
     0
 10
0.0
 20
0.0
 11
297.0
 21
210.0
 12
0.0
 22
0.0
 32
0.0
 14
0.0
 24
0.0
 34
0.0
 15
297.0
 25
210.0
 35
0.0
146
0.0
 13
0.0
 23
0.0
 33
0.0
 16
1.0
 26
0.0
 36
0.0
 17
0.0
 27
1.0
 37
0.0
 76
     0
330
1F
331
29
  0
MLINESTYLE
  5
18
102
{ACAD_REACTORS
330
17
102
}
330
17
100
AcDbMlineStyle
  2
Standard
 70
     0
  3

 62
   256
 51
90.0
 52
90.0
 71
     2
 49
0.5
 62
   256
  6
BYLAYER
 49
-0.5
 62
   256
  6
BYLAYER
  0
ACDBPLACEHOLDER
  5
F
102
{ACAD_REACTORS
330
E
102
}
330
E
  0
SCALE
  5
48
102
{ACAD_REACTORS
330
47
102
}
330
47
100
AcDbScale
 70
     0
300
1:1
140
1.0
141
1.0
290
     1
  0
SCALE
  5
49
102
{ACAD_REACTORS
330
47
102
}
330
47
100
AcDbScale
 70
     0
300
1:2
140
1.0
141
2.0
290
     0
  0
SCALE
  5
4A
102
{ACAD_REACTORS
330
47
102
}
330
47
100
AcDbScale
 70
     0
300
1:4
140
1.0
141
4.0
290
     0
  0
SCALE
  5
4B
102
{ACAD_REACTORS
330
47
102
}
330
47
100
AcDbScale
 70
     0
300
1:5
140
1.0
141
5.0
290
     0
  0
SCALE
  5
4C
102
{ACAD_REACTORS
330
47
102
}
330
47
100
AcDbScale
 70
     0
300
1:8
140
1.0
141
8.0
290
     0
  0
SCALE
  5
4D
102
{ACAD_REACTORS
330
47
102
}
330
47
100
AcDbScale
 70
     0
300
1:10
140
1.0
141
10.0
290
     0
  0
SCALE
  5
4E
102
{ACAD_REACTORS
330
47
102
}
330
47
100
AcDbScale
 70
     0
300
1:16
140
1.0
141
16.0
290
     0
  0
SCALE
  5
4F
102
{ACAD_REACTORS
330
47
102
}
330
47
100
AcDbScale
 70
     0
300
1:20
140
1.0
141
20.0
290
     0
  0
SCALE
  5
50
102
{ACAD_REACTORS
330
47
102
}
330
47
100
AcDbScale
 70
     0
300
1:30
140
1.0
141
30.0
290
     0
  0
SCALE
  5
51
102
{ACAD_REACTORS
330
47
102
}
330
47
100
AcDbScale
 70
     0
300
1:40
140
1.0
141
40.0
290
     0
  0
SCALE
  5
52
102
{ACAD_REACTORS
330
47
102
}
330
47
100
AcDbScale
 70
     0
300
1:50
140
1.0
141
50.0
290
     0
  0
SCALE
  5
53
102
{ACAD_REACTORS
330
47
102
}
330
47
100
AcDbScale
 70
     0
300
1:100
140
1.0
141
100.0
290
     0
  0
SCALE
  5
54
102
{ACAD_REACTORS
330
47
102
}
330
47
100
AcDbScale
 70
     0
300
2:1
140
2.0
141
1.0
290
     0
  0
SCALE
  5
55
102
{ACAD_REACTORS
330
47
102
}
330
47
100
AcDbScale
 70
     0
300
4:1
140
4.0
141
1.0
290
     0
  0
SCALE
  5
56
102
{ACAD_REACTORS
330
47
102
}
330
47
100
AcDbScale
 70
     0
300
8:1
140
8.0
141
1.0
290
     0
  0
SCALE
  5
57
102
{ACAD_REACTORS
330
47
102
}
330
47
100
AcDbScale
 70
     0
300
10:1
140
10.0
141
1.0
290
     0
  0
SCALE
  5
58
102
{ACAD_REACTORS
330
47
102
}
330
47
100
AcDbScale
 70
     0
300
100:1
140
100.0
141
1.0
290
     0
  0
SCALE
  5
59
102
{ACAD_REACTORS
330
47
102
}
330
47
100
AcDbScale
 70
     0
300
1/128" = 1'-0"
140
0.0078125
141
12.0
290
     0
  0
SCALE
  5
5A
102
{ACAD_REACTORS
330
47
102
}
330
47
100
AcDbScale
 70
     0
300
1/64" = 1'-0"
140
0.015625
141
12.0
290
     0
  0
SCALE
  5
5B
102
{ACAD_REACTORS
330
47
102
}
330
47
100
AcDbScale
 70
     0
300
1/32" = 1'-0"
140
0.03125
141
12.0
290
     0
  0
SCALE
  5
5C
102
{ACAD_REACTORS
330
47
102
}
330
47
100
AcDbScale
 70
     0
300
1/16" = 1'-0"
140
0.0625
141
12.0
290
     0
  0
SCALE
  5
5D
102
{ACAD_REACTORS
330
47
102
}
330
47
100
AcDbScale
 70
     0
300
3/32" = 1'-0"
140
0.09375
141
12.0
290
     0
  0
SCALE
  5
5E
102
{ACAD_REACTORS
330
47
102
}
330
47
100
AcDbScale
 70
     0
300
1/8" = 1'-0"
140
0.125
141
12.0
290
     0
  0
SCALE
  5
5F
102
{ACAD_REACTORS
330
47
102
}
330
47
100
AcDbScale
 70
     0
300
3/16" = 1'-0"
140
0.1875
141
12.0
290
     0
  0
SCALE
  5
60
102
{ACAD_REACTORS
330
47
102
}
330
47
100
AcDbScale
 70
     0
300
1/4" = 1'-0"
140
0.25
141
12.0
290
     0
  0
SCALE
  5
61
102
{ACAD_REACTORS
330
47
102
}
330
47
100
AcDbScale
 70
     0
300
3/8" = 1'-0"
140
0.375
141
12.0
290
     0
  0
SCALE
  5
62
102
{ACAD_REACTORS
330
47
102
}
330
47
100
AcDbScale
 70
     0
300
1/2" = 1'-0"
140
0.5
141
12.0
290
     0
  0
SCALE
  5
63
102
{ACAD_REACTORS
330
47
102
}
330
47
100
AcDbScale
 70
     0
300
3/4" = 1'-0"
140
0.75
141
12.0
290
     0
  0
SCALE
  5
64
102
{ACAD_REACTORS
330
47
102
}
330
47
100
AcDbScale
 70
     0
300
1" = 1'-0"
140
1.0
141
12.0
290
     0
  0
SCALE
  5
65
102
{ACAD_REACTORS
330
47
102
}
330
47
100
AcDbScale
 70
     0
300
1-1/2" = 1'-0"
140
1.5
141
12.0
290
     0
  0
SCALE
  5
66
102
{ACAD_REACTORS
330
47
102
}
330
47
100
AcDbScale
 70
     0
300
3" = 1'-0"
140
3.0
141
12.0
290
     0
  0
SCALE
  5
67
102
{ACAD_REACTORS
330
47
102
}
330
47
100
AcDbScale
 70
     0
300
6" = 1'-0"
140
6.0
141
12.0
290
     0
  0
SCALE
  5
68
102
{ACAD_REACTORS
330
47
102
}
330
47
100
AcDbScale
 70
     0
300
1'-0" = 1'-0"
140
12.0
141
12.0
290
     0
  0
ENDSEC
  0
EOF
