  0
SECTION
  2
HEADER
  9
$ACADVER
  1
AC1015
  9
$ACADMAINTVER
 70
     6
  9
$DWGCODEPAGE
  3
ANSI_1252
  9
$INSBASE
 10
0.0
 20
0.0
 30
0.0
  9
$EXTMIN
 10
0.0
 20
0.0
 30
0.0
  9
$EXTMAX
 10
297.0
 20
210.0
 30
0.0
  9
$LIMMIN
 10
0.0
 20
0.0
  9
$LIMMAX
 10
297.0
 20
210.0
  9
$ORTHOMODE
 70
     0
  9
$REGENMODE
 70
     1
  9
$FILLMODE
 70
     1
  9
$QTEXTMODE
 70
     0
  9
$MIRRTEXT
 70
     1
  9
$LTSCALE
 40
1.0
  9
$ATTMODE
 70
     1
  9
$TEXTSIZE
 40
2.0
  9
$TRACEWID
 40
1.0
  9
$TEXTSTYLE
  7
Standard
  9
$CLAYER
  8
0
  9
$CELTYPE
  6
ByLayer
  9
$CECOLOR
 62
   256
  9
$CELTSCALE
 40
1.0
  9
$DISPSILH
 70
     0
  9
$DIMSCALE
 40
1.0
  9
$DIMASZ
 40
3.0
  9
$DIMEXO
 40
0.0
  9
$DIMDLI
 40
3.75
  9
$DIMRND
 40
0.0
  9
$DIMDLE
 40
0.0
  9
$DIMEXE
 40
1.0
  9
$DIMTP
 40
0.0
  9
$DIMTM
 40
0.0
  9
$DIMTXT
 40
2.0
  9
$DIMCEN
 40
2.5
  9
$DIMTSZ
 40
0.0
  9
$DIMTOL
 70
     0
  9
$DIMLIM
 70
     0
  9
$DIMTIH
 70
     1
  9
$DIMTOH
 70
     1
  9
$DIMSE1
 70
     0
  9
$DIMSE2
 70
     0
  9
$DIMTAD
 70
     1
  9
$DIMZIN
 70
     0
  9
$DIMBLK
  1

  9
$DIMASO
 70
     1
  9
$DIMSHO
 70
     1
  9
$DIMPOST
  1

  9
$DIMAPOST
  1

  9
$DIMALT
 70
     0
  9
$DIMALTD
 70
     3
  9
$DIMALTF
 40
0.0393700787
  9
$DIMLFAC
 40
2.0
  9
$DIMTOFL
 70
     1
  9
$DIMTVP
 40
0.0
  9
$DIMTIX
 70
     0
  9
$DIMSOXD
 70
     0
  9
$DIMSAH
 70
     0
  9
$DIMBLK1
  1

  9
$DIMBLK2
  1

  9
$DIMSTYLE
  2
ISO-25
  9
$DIMCLRD
 70
     0
  9
$DIMCLRE
 70
     0
  9
$DIMCLRT
 70
     0
  9
$DIMTFAC
 40
1.0
  9
$DIMGAP
 40
1.524
  9
$DIMJUST
 70
     0
  9
$DIMSD1
 70
     0
  9
$DIMSD2
 70
     0
  9
$DIMTOLJ
 70
     0
  9
$DIMTZIN
 70
     0
  9
$DIMALTZ
 70
     0
  9
$DIMALTTZ
 70
     0
  9
$DIMUPT
 70
     0
  9
$DIMDEC
 70
     2
  9
$DIMTDEC
 70
     3
  9
$DIMALTU
 70
     2
  9
$DIMALTTD
 70
     3
  9
$DIMTXSTY
  7
Standard
  9
$DIMAUNIT
 70
     0
  9
$DIMADEC
 70
     2
  9
$DIMALTRND
 40
0.0
  9
$DIMAZIN
 70
     0
  9
$DIMDSEP
 70
    44
  9
$DIMATFIT
 70
     3
  9
$DIMFRAC
 70
     0
  9
$DIMLDRBLK
  1

  9
$DIMLUNIT
 70
     2
  9
$DIMLWD
 70
    -2
  9
$DIMLWE
 70
    -2
  9
$DIMTMOVE
 70
     0
  9
$LUNITS
 70
     2
  9
$LUPREC
 70
     2
  9
$SKETCHINC
 40
1.0
  9
$FILLETRAD
 40
10.0
  9
$AUNITS
 70
     0
  9
$AUPREC
 70
     2
  9
$MENU
  1
.
  9
$ELEVATION
 40
0.0
  9
$PELEVATION
 40
0.0
  9
$THICKNESS
 40
0.0
  9
$LIMCHECK
 70
     0
  9
$CHAMFERA
 40
0.0
  9
$CHAMFERB
 40
0.0
  9
$CHAMFERC
 40
0.0
  9
$CHAMFERD
 40
0.0
  9
$SKPOLY
 70
     0
  9
$TDCREATE
 40
2457675.39505191
  9
$TDUCREATE
 40
2457675.311718577
  9
$TDUPDATE
 40
2457675.395053518
  9
$TDUUPDATE
 40
2457675.311720185
  9
$TDINDWG
 40
0.0000000116
  9
$TDUSRTIMER
 40
0.0000000116
  9
$USRTIMER
 70
     1
  9
$ANGBASE
 50
0.0
  9
$ANGDIR
 70
     0
  9
$PDMODE
 70
     0
  9
$PDSIZE
 40
-1.0
  9
$PLINEWID
 40
0.0
  9
$SPLFRAME
 70
     0
  9
$SPLINETYPE
 70
     6
  9
$SPLINESEGS
 70
     8
  9
$HANDSEED
  5
2E5
  9
$SURFTAB1
 70
     6
  9
$SURFTAB2
 70
     6
  9
$SURFTYPE
 70
     6
  9
$SURFU
 70
     6
  9
$SURFV
 70
     6
  9
$UCSBASE
  2

  9
$UCSNAME
  2

  9
$UCSORG
 10
0.0
 20
0.0
 30
0.0
  9
$UCSXDIR
 10
1.0
 20
0.0
 30
0.0
  9
$UCSYDIR
 10
0.0
 20
1.0
 30
0.0
  9
$UCSORTHOREF
  2

  9
$UCSORTHOVIEW
 70
     0
  9
$UCSORGTOP
 10
0.0
 20
0.0
 30
0.0
  9
$UCSORGBOTTOM
 10
0.0
 20
0.0
 30
0.0
  9
$UCSORGLEFT
 10
0.0
 20
0.0
 30
0.0
  9
$UCSORGRIGHT
 10
0.0
 20
0.0
 30
0.0
  9
$UCSORGFRONT
 10
0.0
 20
0.0
 30
0.0
  9
$UCSORGBACK
 10
0.0
 20
0.0
 30
0.0
  9
$PUCSBASE
  2

  9
$PUCSNAME
  2

  9
$PUCSORG
 10
0.0
 20
0.0
 30
0.0
  9
$PUCSXDIR
 10
1.0
 20
0.0
 30
0.0
  9
$PUCSYDIR
 10
0.0
 20
1.0
 30
0.0
  9
$PUCSORTHOREF
  2

  9
$PUCSORTHOVIEW
 70
     0
  9
$PUCSORGTOP
 10
0.0
 20
0.0
 30
0.0
  9
$PUCSORGBOTTOM
 10
0.0
 20
0.0
 30
0.0
  9
$PUCSORGLEFT
 10
0.0
 20
0.0
 30
0.0
  9
$PUCSORGRIGHT
 10
0.0
 20
0.0
 30
0.0
  9
$PUCSORGFRONT
 10
0.0
 20
0.0
 30
0.0
  9
$PUCSORGBACK
 10
0.0
 20
0.0
 30
0.0
  9
$USERI1
 70
     0
  9
$USERI2
 70
     0
  9
$USERI3
 70
     0
  9
$USERI4
 70
     0
  9
$USERI5
 70
     0
  9
$USERR1
 40
0.0
  9
$USERR2
 40
0.0
  9
$USERR3
 40
0.0
  9
$USERR4
 40
0.0
  9
$USERR5
 40
0.0
  9
$WORLDVIEW
 70
     1
  9
$SHADEDGE
 70
     3
  9
$SHADEDIF
 70
    70
  9
$TILEMODE
 70
     1
  9
$MAXACTVP
 70
    64
  9
$PINSBASE
 10
0.0
 20
0.0
 30
0.0
  9
$PLIMCHECK
 70
     0
  9
$PEXTMIN
 10
1.0000000000E+20
 20
1.0000000000E+20
 30
1.0000000000E+20
  9
$PEXTMAX
 10
-1.0000000000E+20
 20
-1.0000000000E+20
 30
-1.0000000000E+20
  9
$PLIMMIN
 10
0.0
 20
0.0
  9
$PLIMMAX
 10
420.0
 20
297.0
  9
$UNITMODE
 70
     0
  9
$VISRETAIN
 70
     1
  9
$PLINEGEN
 70
     0
  9
$PSLTSCALE
 70
     1
  9
$TREEDEPTH
 70
  3020
  9
$CMLSTYLE
  2
Standard
  9
$CMLJUST
 70
     0
  9
$CMLSCALE
 40
20.0
  9
$PROXYGRAPHICS
 70
     1
  9
$MEASUREMENT
 70
     1
  9
$CELWEIGHT
370
    -1
  9
$ENDCAPS
280
     0
  9
$JOINSTYLE
280
     0
  9
$LWDISPLAY
290
     1
  9
$INSUNITS
 70
     4
  9
$HYPERLINKBASE
  1

  9
$STYLESHEET
  1

  9
$XEDIT
290
     1
  9
$CEPSNTYPE
380
     0
  9
$PSTYLEMODE
290
     1
  9
$FINGERPRINTGUID
  2
{51B5402E-975F-4492-85CA-41E742187BDD}
  9
$VERSIONGUID
  2
{FAEB1C32-E019-11D5-929B-00C0DF256EC4}
  9
$EXTNAMES
290
     1
  9
$PSVPSCALE
 40
0.0
  9
$OLESTARTUP
290
     0
  0
ENDSEC
  0
SECTION
  2
CLASSES
  0
CLASS
  1
ACDBDICTIONARYWDFLT
  2
AcDbDictionaryWithDefault
  3
ObjectDBX Classes
 90
        0
280
     0
281
     0
  0
CLASS
  1
VISUALSTYLE
  2
AcDbVisualStyle
  3
ObjectDBX Classes
 90
     4095
280
     0
281
     0
  0
CLASS
  1
MATERIAL
  2
AcDbMaterial
  3
ObjectDBX Classes
 90
     1153
280
     0
281
     0
  0
CLASS
  1
SCALE
  2
AcDbScale
  3
ObjectDBX Classes
 90
     1153
280
     0
281
     0
  0
CLASS
  1
TABLESTYLE
  2
AcDbTableStyle
  3
ObjectDBX Classes
 90
     4095
280
     0
281
     0
  0
CLASS
  1
MLEADERSTYLE
  2
AcDbMLeaderStyle
  3
ACDB_MLEADERSTYLE_CLASS
 90
     4095
280
     0
281
     0
  0
CLASS
  1
SUN
  2
AcDbSun
  3
SCENEOE
 90
     1153
280
     0
281
     0
  0
CLASS
  1
ACDBPLACEHOLDER
  2
AcDbPlaceHolder
  3
ObjectDBX Classes
 90
        0
280
     0
281
     0
  0
CLASS
  1
LAYOUT
  2
AcDbLayout
  3
ObjectDBX Classes
 90
        0
280
     0
281
     0
  0
ENDSEC
  0
SECTION
  2
TABLES
  0
TABLE
  2
VPORT
  5
8
330
0
100
AcDbSymbolTable
 70
     1
  0
VPORT
  5
29
330
8
100
AcDbSymbolTableRecord
100
AcDbViewportTableRecord
  2
*Active
 70
     0
 10
0.0
 20
0.0
 11
1.0
 21
1.0
 12
148.5
 22
105.0
 13
0.0
 23
0.0
 14
10.0
 24
10.0
 15
10.0
 25
10.0
 16
0.0
 26
0.0
 36
1.0
 17
0.0
 27
0.0
 37
0.0
 40
210.0
 41
1.4142857143
 42
50.0
 43
0.0
 44
0.0
 50
0.0
 51
0.0
 71
     0
 72
  2000
 73
     1
 74
     3
 75
     0
 76
     0
 77
     0
 78
     0
281
     0
 65
     1
110
0.0
120
0.0
130
0.0
111
1.0
121
0.0
131
0.0
112
0.0
122
1.0
132
0.0
 79
     0
146
0.0
  0
ENDTAB
  0
TABLE
  2
LTYPE
  5
5
330
0
100
AcDbSymbolTable
 70
     6
  0
LTYPE
  5
14
330
5
100
AcDbSymbolTableRecord
100
AcDbLinetypeTableRecord
  2
ByBlock
 70
     0
  3

 72
    65
 73
     0
 40
0.0
  0
LTYPE
  5
15
330
5
100
AcDbSymbolTableRecord
100
AcDbLinetypeTableRecord
  2
ByLayer
 70
     0
  3

 72
    65
 73
     0
 40
0.0
  0
LTYPE
  5
16
330
5
100
AcDbSymbolTableRecord
100
AcDbLinetypeTableRecord
  2
Continuous
 70
     0
  3
Solid line
 72
    65
 73
     0
 40
0.0
  0
LTYPE
  5
6E
330
5
100
AcDbSymbolTableRecord
100
AcDbLinetypeTableRecord
  2
HIDDEN
 70
     0
  3
Hidden __ __ __ __ __ __ __ __ __ __ __ __ __ __
 72
    65
 73
     2
 40
1.905
 49
1.27
 74
     0
 49
-0.635
 74
     0
  0
LTYPE
  5
6F
330
5
100
AcDbSymbolTableRecord
100
AcDbLinetypeTableRecord
  2
PHANTOM
 70
     0
  3
Phantom ______  __  __  ______  __  __  ______
 72
    65
 73
     6
 40
12.7
 49
6.35
 74
     0
 49
-1.27
 74
     0
 49
1.27
 74
     0
 49
-1.27
 74
     0
 49
1.27
 74
     0
 49
-1.27
 74
     0
  0
LTYPE
  5
70
330
5
100
AcDbSymbolTableRecord
100
AcDbLinetypeTableRecord
  2
CENTER
 70
     0
  3
Center ____ _ ____ _ ____ _ ____ _ ____ _ ____
 72
    65
 73
     4
 40
10.16
 49
6.35
 74
     0
 49
-1.27
 74
     0
 49
1.27
 74
     0
 49
-1.27
 74
     0
  0
LTYPE
  5
71
330
5
100
AcDbSymbolTableRecord
100
AcDbLinetypeTableRecord
  2
CENTERX2
 70
     0
  3
Center (2x) ________  __  ________  __  _____
 72
    65
 73
     4
 40
20.32
 49
12.7
 74
     0
 49
-2.54
 74
     0
 49
2.54
 74
     0
 49
-2.54
 74
     0
  0
LTYPE
  5
72
330
5
100
AcDbSymbolTableRecord
100
AcDbLinetypeTableRecord
  2
DOT2
 70
     0
  3
Dot (.5x) ........................................
 72
    65
 73
     2
 40
0.635
 49
0.0
 74
     0
 49
-0.635
 74
     0
  0
ENDTAB
  0
TABLE
  2
LAYER
  5
2
330
0
100
AcDbSymbolTable
 70
     5
  0
LAYER
  5
10
330
2
100
AcDbSymbolTableRecord
100
AcDbLayerTableRecord
  2
0
 70
     0
 62
     7
  6
Continuous
370
    -3
390
F
  0
LAYER
  5
73
330
2
100
AcDbSymbolTableRecord
100
AcDbLayerTableRecord
  2
FORMAT
 70
     0
 62
     7
  6
Continuous
370
    -3
390
F
  0
LAYER
  5
74
330
2
100
AcDbSymbolTableRecord
100
AcDbLayerTableRecord
  2
VERMASSUNG
 70
     0
 62
     7
  6
Continuous
370
    -3
390
F
  0
LAYER
  5
75
330
2
100
AcDbSymbolTableRecord
100
AcDbLayerTableRecord
  2
KOPF_DÜNN
 70
     0
 62
     7
  6
Continuous
370
    -3
390
F
  0
LAYER
  5
76
330
2
100
AcDbSymbolTableRecord
100
AcDbLayerTableRecord
  2
KOPF_DICK
 70
     0
 62
     7
  6
Continuous
370
    15
390
F
  0
ENDTAB
  0
TABLE
  2
STYLE
  5
3
330
0
100
AcDbSymbolTable
 70
     2
  0
STYLE
  5
11
330
3
100
AcDbSymbolTableRecord
100
AcDbTextStyleTableRecord
  2
Standard
 70
     0
 40
0.0
 41
1.0
 50
0.0
 71
     0
 42
2.0
  3
txt
  4

  0
STYLE
  5
77
330
3
100
AcDbSymbolTableRecord
100
AcDbTextStyleTableRecord
  2
SLDTEXTSTYLE0
 70
     0
 40
0.0
 41
0.7
 50
0.0
 71
     0
 42
2.0
  3
TXT
  4

  0
ENDTAB
  0
TABLE
  2
VIEW
  5
6
330
0
100
AcDbSymbolTable
 70
     0
  0
ENDTAB
  0
TABLE
  2
UCS
  5
7
330
0
100
AcDbSymbolTable
 70
     0
  0
ENDTAB
  0
TABLE
  2
APPID
  5
9
330
0
100
AcDbSymbolTable
 70
     1
  0
APPID
  5
12
330
9
100
AcDbSymbolTableRecord
100
AcDbRegAppTableRecord
  2
ACAD
 70
     0
  0
ENDTAB
  0
TABLE
  2
DIMSTYLE
  5
A
330
0
100
AcDbSymbolTable
 70
     2
100
AcDbDimStyleTable
  0
DIMSTYLE
105
27
330
A
100
AcDbSymbolTableRecord
100
AcDbDimStyleTableRecord
  2
ISO-25
 70
     0
 41
2.5
 42
0.625
 43
3.75
 44
1.25
 73
     0
 74
     0
 77
     1
 78
     8
140
2.5
141
2.5
143
0.0393700787
147
0.625
171
     3
172
     1
178
     0
271
     2
272
     2
274
     3
278
    44
283
     0
284
     8
340
11
  0
DIMSTYLE
105
1FA
102
{ACAD_REACTORS
330
1F9
330
206
330
210
330
21A
330
224
330
22F
102
}
330
A
100
AcDbSymbolTableRecord
100
AcDbDimStyleTableRecord
  2
SLDDIMSTYLE0
 70
     0
 41
3.0
 44
0.0
 45
0.000000001
 73
     0
 74
     0
 77
     1
 78
    12
 79
     3
140
2.0
147
0.5
173
     1
178
     0
271
     2
272
     3
276
     2
284
    12
340
77
  0
ENDTAB
  0
TABLE
  2
BLOCK_RECORD
  5
1
330
0
100
AcDbSymbolTable
 70
     7
  0
BLOCK_RECORD
  5
1F
330
1
100
AcDbSymbolTableRecord
100
AcDbBlockTableRecord
  2
*Model_Space
340
22
  0
BLOCK_RECORD
  5
1B
330
1
100
AcDbSymbolTableRecord
100
AcDbBlockTableRecord
  2
*Paper_Space
340
1E
  0
BLOCK_RECORD
  5
23
330
1
100
AcDbSymbolTableRecord
100
AcDbBlockTableRecord
  2
*Paper_Space0
340
26
  0
BLOCK_RECORD
  5
1FB
330
1
100
AcDbSymbolTableRecord
100
AcDbBlockTableRecord
  2
_D
340
0
  0
BLOCK_RECORD
  5
207
330
1
100
AcDbSymbolTableRecord
100
AcDbBlockTableRecord
  2
_D_1
340
0
  0
BLOCK_RECORD
  5
211
330
1
100
AcDbSymbolTableRecord
100
AcDbBlockTableRecord
  2
_D_2
340
0
  0
BLOCK_RECORD
  5
21B
330
1
100
AcDbSymbolTableRecord
100
AcDbBlockTableRecord
  2
_D_3
340
0
  0
BLOCK_RECORD
  5
225
330
1
100
AcDbSymbolTableRecord
100
AcDbBlockTableRecord
  2
_D_4
340
0
  0
BLOCK_RECORD
  5
230
330
1
100
AcDbSymbolTableRecord
100
AcDbBlockTableRecord
  2
_D_5
340
0
  0
ENDTAB
  0
ENDSEC
  0
SECTION
  2
BLOCKS
  0
BLOCK
  5
20
330
1F
100
AcDbEntity
  8
0
100
AcDbBlockBegin
  2
*Model_Space
 70
     0
 10
0.0
 20
0.0
 30
0.0
  3
*Model_Space
  1

  0
ENDBLK
  5
21
330
1F
100
AcDbEntity
  8
0
100
AcDbBlockEnd
  0
BLOCK
  5
1C
330
1B
100
AcDbEntity
 67
     1
  8
0
100
AcDbBlockBegin
  2
*Paper_Space
 70
     0
 10
0.0
 20
0.0
 30
0.0
  3
*Paper_Space
  1

  0
ENDBLK
  5
1D
330
1B
100
AcDbEntity
 67
     1
  8
0
100
AcDbBlockEnd
  0
BLOCK
  5
24
330
23
100
AcDbEntity
  8
0
100
AcDbBlockBegin
  2
*Paper_Space0
 70
     0
 10
0.0
 20
0.0
 30
0.0
  3
*Paper_Space0
  1

  0
ENDBLK
  5
25
330
23
100
AcDbEntity
  8
0
100
AcDbBlockEnd
  0
BLOCK
  5
1FC
330
1FB
100
AcDbEntity
  8
0
100
AcDbBlockBegin
  2
_D
 70
     0
 10
0.0
 20
0.0
 30
0.0
  3
_D
  1

  0
SOLID
  5
1FE
330
1FB
100
AcDbEntity
  8
VERMASSUNG
100
AcDbTrace
 10
83.9837043012
 20
144.8438817648
 30
0.0
 11
83.5337043012
 21
141.8438817648
 31
0.0
 12
84.4337043012
 22
141.8438817648
 32
0.0
 13
84.4337043012
 23
141.8438817648
 33
0.0
  0
SOLID
  5
1FF
330
1FB
100
AcDbEntity
  8
VERMASSUNG
100
AcDbTrace
 10
83.9837043012
 20
81.8438817648
 30
0.0
 11
84.4337043012
 21
84.8438817648
 31
0.0
 12
83.5337043012
 22
84.8438817648
 32
0.0
 13
83.5337043012
 23
84.8438817648
 33
0.0
  0
LINE
  5
200
330
1FB
100
AcDbEntity
  8
VERMASSUNG
100
AcDbLine
 10
122.7497044719
 20
144.8438817648
 30
0.0
 11
82.9837043012
 21
144.8438817648
 31
0.0
  0
LINE
  5
201
330
1FB
100
AcDbEntity
  8
VERMASSUNG
100
AcDbLine
 10
122.7497044719
 20
81.8438817648
 30
0.0
 11
82.9837043012
 21
81.8438817648
 31
0.0
  0
LINE
  5
202
330
1FB
100
AcDbEntity
  8
VERMASSUNG
100
AcDbLine
 10
83.9837043012
 20
144.8438817648
 30
0.0
 11
83.9837043012
 21
81.8438817648
 31
0.0
  0
MTEXT
  5
203
330
1FB
100
AcDbEntity
  8
VERMASSUNG
100
AcDbMText
 10
81.205569045
 20
106.238882379
 30
0.0
 40
2.0
 41
0.0
 71
     1
 72
     1
  1
HSK A
  7
SLDTEXTSTYLE0
 11
-7.044195017643634E-15
 21
1.0
 31
0.0
 73
     1
 44
1.0
  0
MTEXT
  5
204
330
1FB
100
AcDbEntity
  8
VERMASSUNG
100
AcDbMText
 10
81.4055689963
 20
114.0388821674
 30
0.0
 40
2.0
 41
0.0
 71
     1
 72
     1
  1
%%c
  7
SLDTEXTSTYLE0
 11
-7.044195017643634E-15
 21
1.0
 31
0.0
 73
     1
 44
1.0
  0
MTEXT
  5
205
330
1FB
100
AcDbEntity
  8
VERMASSUNG
100
AcDbMText
 10
81.205569045
 20
117.6488821817
 30
0.0
 40
2.0
 41
0.0
 71
     1
 72
     1
  1
63
  7
SLDTEXTSTYLE0
 11
-7.044195017643634E-15
 21
1.0
 31
0.0
 73
     1
 44
1.0
  0
ENDBLK
  5
1FD
330
1FB
100
AcDbEntity
  8
0
100
AcDbBlockEnd
  0
BLOCK
  5
208
330
207
100
AcDbEntity
  8
0
100
AcDbBlockBegin
  2
_D_1
 70
     0
 10
0.0
 20
0.0
 30
0.0
  3
_D_1
  1

  0
SOLID
  5
20A
330
207
100
AcDbEntity
  8
VERMASSUNG
100
AcDbTrace
 10
148.3997044719
 20
148.5411826822
 30
0.0
 11
151.3997044719
 21
148.0911826822
 31
0.0
 12
151.3997044719
 22
148.9911826822
 32
0.0
 13
151.3997044719
 23
148.9911826822
 33
0.0
  0
SOLID
  5
20B
330
207
100
AcDbEntity
  8
VERMASSUNG
100
AcDbTrace
 10
222.4497044719
 20
148.5411826822
 30
0.0
 11
219.4497044719
 21
148.9911826822
 31
0.0
 12
219.4497044719
 22
148.0911826822
 32
0.0
 13
219.4497044719
 23
148.0911826822
 33
0.0
  0
LINE
  5
20C
330
207
100
AcDbEntity
  8
VERMASSUNG
100
AcDbLine
 10
148.3997044719
 20
143.1903220885
 30
0.0
 11
148.3997044719
 21
149.5411826822
 31
0.0
  0
LINE
  5
20D
330
207
100
AcDbEntity
  8
VERMASSUNG
100
AcDbLine
 10
222.4497044719
 20
129.0438817648
 30
0.0
 11
222.4497044719
 21
149.5411826822
 31
0.0
  0
LINE
  5
20E
330
207
100
AcDbEntity
  8
VERMASSUNG
100
AcDbLine
 10
148.3997044719
 20
148.5411826822
 30
0.0
 11
222.4497044719
 21
148.5411826822
 31
0.0
  0
MTEXT
  5
20F
330
207
100
AcDbEntity
  8
VERMASSUNG
100
AcDbMText
 10
182.2247045528
 20
151.1193182781
 30
0.0
 40
2.0
 41
0.0
 71
     1
 72
     1
  1
74.05
  7
SLDTEXTSTYLE0
 73
     1
 44
1.0
  0
ENDBLK
  5
209
330
207
100
AcDbEntity
  8
0
100
AcDbBlockEnd
  0
BLOCK
  5
212
330
211
100
AcDbEntity
  8
0
100
AcDbBlockBegin
  2
_D_2
 70
     0
 10
0.0
 20
0.0
 30
0.0
  3
_D_2
  1

  0
SOLID
  5
214
330
211
100
AcDbEntity
  8
VERMASSUNG
100
AcDbTrace
 10
222.4497044719
 20
154.5411826822
 30
0.0
 11
219.4497044719
 21
154.9911826822
 31
0.0
 12
219.4497044719
 22
154.0911826822
 32
0.0
 13
219.4497044719
 23
154.0911826822
 33
0.0
  0
SOLID
  5
215
330
211
100
AcDbEntity
  8
VERMASSUNG
100
AcDbTrace
 10
122.4497044719
 20
154.5411826822
 30
0.0
 11
125.4497044719
 21
154.0911826822
 31
0.0
 12
125.4497044719
 22
154.9911826822
 32
0.0
 13
125.4497044719
 23
154.9911826822
 33
0.0
  0
LINE
  5
216
330
211
100
AcDbEntity
  8
VERMASSUNG
100
AcDbLine
 10
222.4497044719
 20
129.0438817648
 30
0.0
 11
222.4497044719
 21
155.5411826822
 31
0.0
  0
LINE
  5
217
330
211
100
AcDbEntity
  8
VERMASSUNG
100
AcDbLine
 10
122.4497044719
 20
144.5438817648
 30
0.0
 11
122.4497044719
 21
155.5411826822
 31
0.0
  0
LINE
  5
218
330
211
100
AcDbEntity
  8
VERMASSUNG
100
AcDbLine
 10
222.4497044719
 20
154.5411826822
 30
0.0
 11
122.4497044719
 21
154.5411826822
 31
0.0
  0
MTEXT
  5
219
330
211
100
AcDbEntity
  8
VERMASSUNG
100
AcDbMText
 10
170.5497044399
 20
157.1193182781
 30
0.0
 40
2.0
 41
0.0
 71
     1
 72
     1
  1
100
  7
SLDTEXTSTYLE0
 73
     1
 44
1.0
  0
ENDBLK
  5
213
330
211
100
AcDbEntity
  8
0
100
AcDbBlockEnd
  0
BLOCK
  5
21C
330
21B
100
AcDbEntity
  8
0
100
AcDbBlockBegin
  2
_D_3
 70
     0
 10
0.0
 20
0.0
 30
0.0
  3
_D_3
  1

  0
SOLID
  5
21E
330
21B
100
AcDbEntity
  8
VERMASSUNG
100
AcDbTrace
 10
222.4497044719
 20
160.046083774
 30
0.0
 11
219.4497044719
 21
160.496083774
 31
0.0
 12
219.4497044719
 22
159.596083774
 32
0.0
 13
219.4497044719
 23
159.596083774
 33
0.0
  0
SOLID
  5
21F
330
21B
100
AcDbEntity
  8
VERMASSUNG
100
AcDbTrace
 10
90.5497044719
 20
160.046083774
 30
0.0
 11
93.5497044719
 21
159.596083774
 31
0.0
 12
93.5497044719
 22
160.496083774
 32
0.0
 13
93.5497044719
 23
160.496083774
 33
0.0
  0
LINE
  5
220
330
21B
100
AcDbEntity
  8
VERMASSUNG
100
AcDbLine
 10
222.4497044719
 20
129.0438817648
 30
0.0
 11
222.4497044719
 21
161.046083774
 31
0.0
  0
LINE
  5
221
330
21B
100
AcDbEntity
  8
VERMASSUNG
100
AcDbLine
 10
90.5497044719
 20
133.0345595112
 30
0.0
 11
90.5497044719
 21
161.046083774
 31
0.0
  0
LINE
  5
222
330
21B
100
AcDbEntity
  8
VERMASSUNG
100
AcDbLine
 10
222.4497044719
 20
160.046083774
 30
0.0
 11
90.5497044719
 21
160.046083774
 31
0.0
  0
MTEXT
  5
223
330
21B
100
AcDbEntity
  8
VERMASSUNG
100
AcDbMText
 10
153.7997044019
 20
162.62421937
 30
0.0
 40
2.0
 41
0.0
 71
     1
 72
     1
  1
131.9
  7
SLDTEXTSTYLE0
 73
     1
 44
1.0
  0
ENDBLK
  5
21D
330
21B
100
AcDbEntity
  8
0
100
AcDbBlockEnd
  0
BLOCK
  5
226
330
225
100
AcDbEntity
  8
0
100
AcDbBlockBegin
  2
_D_4
 70
     0
 10
0.0
 20
0.0
 30
0.0
  3
_D_4
  1

  0
SOLID
  5
228
330
225
100
AcDbEntity
  8
VERMASSUNG
100
AcDbTrace
 10
235.4378000942
 20
129.3438817648
 30
0.0
 11
234.9878000942
 21
126.3438817648
 31
0.0
 12
235.8878000942
 22
126.3438817648
 32
0.0
 13
235.8878000942
 23
126.3438817648
 33
0.0
  0
SOLID
  5
229
330
225
100
AcDbEntity
  8
VERMASSUNG
100
AcDbTrace
 10
235.4378000942
 20
97.3438817648
 30
0.0
 11
235.8878000942
 21
100.3438817648
 31
0.0
 12
234.9878000942
 22
100.3438817648
 32
0.0
 13
234.9878000942
 23
100.3438817648
 33
0.0
  0
LINE
  5
22A
330
225
100
AcDbEntity
  8
VERMASSUNG
100
AcDbLine
 10
222.1497044719
 20
129.3438817648
 30
0.0
 11
236.4378000942
 21
129.3438817648
 31
0.0
  0
LINE
  5
22B
330
225
100
AcDbEntity
  8
VERMASSUNG
100
AcDbLine
 10
222.1497044719
 20
97.3438817648
 30
0.0
 11
236.4378000942
 21
97.3438817648
 31
0.0
  0
LINE
  5
22C
330
225
100
AcDbEntity
  8
VERMASSUNG
100
AcDbLine
 10
235.4378000942
 20
129.3438817648
 30
0.0
 11
235.4378000942
 21
97.3438817648
 31
0.0
  0
MTEXT
  5
22D
330
225
100
AcDbEntity
  8
VERMASSUNG
100
AcDbMText
 10
232.8596647893
 20
110.1388818075
 30
0.0
 40
2.0
 41
0.0
 71
     1
 72
     1
  1
%%c
  7
SLDTEXTSTYLE0
 11
-7.044195017643634E-15
 21
1.0
 31
0.0
 73
     1
 44
1.0
  0
MTEXT
  5
22E
330
225
100
AcDbEntity
  8
VERMASSUNG
100
AcDbMText
 10
232.659664838
 20
113.7488818218
 30
0.0
 40
2.0
 41
0.0
 71
     1
 72
     1
  1
32
  7
SLDTEXTSTYLE0
 11
-7.044195017643634E-15
 21
1.0
 31
0.0
 73
     1
 44
1.0
  0
ENDBLK
  5
227
330
225
100
AcDbEntity
  8
0
100
AcDbBlockEnd
  0
BLOCK
  5
231
330
230
100
AcDbEntity
  8
0
100
AcDbBlockBegin
  2
_D_5
 70
     0
 10
0.0
 20
0.0
 30
0.0
  3
_D_5
  1

  0
SOLID
  5
233
330
230
100
AcDbEntity
  8
VERMASSUNG
100
AcDbTrace
 10
229.4378000942
 20
122.3438817648
 30
0.0
 11
228.9878000942
 21
119.3438817648
 31
0.0
 12
229.8878000942
 22
119.3438817648
 32
0.0
 13
229.8878000942
 23
119.3438817648
 33
0.0
  0
SOLID
  5
234
330
230
100
AcDbEntity
  8
VERMASSUNG
100
AcDbTrace
 10
229.4378000942
 20
104.3438817648
 30
0.0
 11
229.8878000942
 21
107.3438817648
 31
0.0
 12
228.9878000942
 22
107.3438817648
 32
0.0
 13
228.9878000942
 23
107.3438817648
 33
0.0
  0
LINE
  5
235
330
230
100
AcDbEntity
  8
VERMASSUNG
100
AcDbLine
 10
221.4497044719
 20
122.3438817648
 30
0.0
 11
230.4378000942
 21
122.3438817648
 31
0.0
  0
LINE
  5
236
330
230
100
AcDbEntity
  8
VERMASSUNG
100
AcDbLine
 10
221.4497044719
 20
104.3438817648
 30
0.0
 11
230.4378000942
 21
104.3438817648
 31
0.0
  0
LINE
  5
237
330
230
100
AcDbEntity
  8
VERMASSUNG
100
AcDbLine
 10
229.4378000942
 20
122.3438817648
 30
0.0
 11
229.4378000942
 21
104.3438817648
 31
0.0
  0
MTEXT
  5
238
330
230
100
AcDbEntity
  8
VERMASSUNG
100
AcDbMText
 10
226.8596647893
 20
110.3388817006
 30
0.0
 40
2.0
 41
0.0
 71
     1
 72
     1
  1
%%c
  7
SLDTEXTSTYLE0
 11
-7.044195017643634E-15
 21
1.0
 31
0.0
 73
     1
 44
1.0
  0
MTEXT
  5
239
330
230
100
AcDbEntity
  8
VERMASSUNG
100
AcDbMText
 10
226.659664838
 20
113.9488817149
 30
0.0
 40
2.0
 41
0.0
 71
     1
 72
     1
  1
18
  7
SLDTEXTSTYLE0
 11
-7.044195017643634E-15
 21
1.0
 31
0.0
 73
     1
 44
1.0
  0
ENDBLK
  5
232
330
230
100
AcDbEntity
  8
0
100
AcDbBlockEnd
  0
ENDSEC
  0
SECTION
  2
ENTITIES
  0
MTEXT
  5
78
330
1F
100
AcDbEntity
  8
KOPF_DÜNN
100
AcDbMText
 10
13.8892156294
 20
23.8442973028
 30
0.0
 40
3.0
 41
0.0
 71
     1
 72
     1
  1
A44.806.032.100
  7
SLDTEXTSTYLE0
 73
     1
 44
1.0
  0
MTEXT
  5
79
330
1F
100
AcDbEntity
  8
VERMASSUNG
100
AcDbMText
 10
13.9329988022
 20
28.8834360957
 30
0.0
 40
3.0
 41
0.0
 71
     1
 72
     1
  1
Aufnahme Master shank WH32
  7
SLDTEXTSTYLE0
 73
     1
 44
1.0
  0
MTEXT
  5
7A
330
1F
100
AcDbEntity
  8
VERMASSUNG
100
AcDbMText
 10
98.8601118557
 20
13.8365368761
 30
0.0
 40
2.0
 41
0.0
 71
     1
 72
     1
  1
Datum: 25.11.2011
  7
SLDTEXTSTYLE0
 73
     1
 44
1.0
  0
MTEXT
  5
7B
330
1F
100
AcDbEntity
  8
VERMASSUNG
100
AcDbMText
 10
13.933048693
 20
18.0482802738
 30
0.0
 40
2.0
 41
0.0
 71
     1
 72
     1
  1
DIN 69893
  7
SLDTEXTSTYLE0
 73
     1
 44
1.0
  0
MTEXT
  5
7C
330
1F
100
AcDbEntity
  8
VERMASSUNG
100
AcDbMText
 10
13.9808475933
 20
13.9090974274
 30
0.0
 40
2.0
 41
0.0
 71
     1
 72
     1
  1
Gewicht: 1043g
  7
SLDTEXTSTYLE0
 73
     1
 44
1.0
  0
ARC
  5
7D
330
1F
100
AcDbEntity
  8
0
  6
Continuous
 62
     7
370
    15
100
AcDbCircle
 10
122.7497044719
 20
82.1438817648
 30
0.0
 40
0.3000000000000114
100
AcDbArc
 50
180.0
 51
270.0
  0
ARC
  5
7E
330
1F
100
AcDbEntity
  8
0
  6
Continuous
 62
     7
370
    15
100
AcDbCircle
 10
122.7497044719
 20
144.5438817648
 30
0.0
 40
0.3000000000000114
100
AcDbArc
 50
90.0
 51
180.0
  0
LINE
  5
7F
330
1F
100
AcDbEntity
  8
0
  6
Continuous
 62
     7
370
    15
100
AcDbLine
 10
122.7497044862
 20
81.8438812581
 30
0.0
 11
127.3997044451
 21
81.8438812581
 31
0.0
  0
LINE
  5
80
330
1F
100
AcDbEntity
  8
0
  6
Continuous
 62
     7
370
    15
100
AcDbLine
 10
127.4276930168
 20
144.8438822714
 30
0.0
 11
122.7497044862
 21
144.8438822714
 31
0.0
  0
ARC
  5
81
330
1F
100
AcDbEntity
  8
0
  6
Continuous
 62
     7
370
    15
100
AcDbCircle
 10
121.9496977193
 20
88.7734441504
 30
0.0
 40
0.6000067526677242
100
AcDbArc
 50
33.5571153394
 51
90.0
  0
ARC
  5
82
330
1F
100
AcDbEntity
  8
0
  6
Continuous
 62
     7
370
    15
100
AcDbCircle
 10
121.9496977193
 20
137.9143193791
 30
0.0
 40
0.6000067526677045
100
AcDbArc
 50
270.0
 51
326.4428846606
  0
LINE
  5
83
330
1F
100
AcDbEntity
  8
0
  6
Continuous
 62
     7
370
    15
100
AcDbLine
 10
109.2181960381
 20
137.001611614
 30
0.0
 11
96.6497035958
 21
136.3719276575
 31
0.0
  0
LINE
  5
84
330
1F
100
AcDbEntity
  8
0
  6
Continuous
 62
     7
370
    15
100
AcDbLine
 10
120.4497043769
 20
137.5643129883
 30
0.0
 11
117.6327029504
 21
137.4231803653
 31
0.0
  0
LINE
  5
85
330
1F
100
AcDbEntity
  8
0
  6
Continuous
 62
     7
370
    15
100
AcDbLine
 10
117.6327588297
 20
89.2645813016
 30
0.0
 11
120.4497043769
 21
89.1234505412
 31
0.0
  0
LINE
  5
86
330
1F
100
AcDbEntity
  8
0
  6
Continuous
 62
     7
370
    15
100
AcDbLine
 10
100.6497042514
 20
90.1154357431
 30
0.0
 11
109.2185983695
 21
89.6861314264
 31
0.0
  0
LINE
  5
87
330
1F
100
AcDbEntity
  8
0
  6
Continuous
 62
     7
370
    15
100
AcDbLine
 10
120.4497043769
 20
89.1234505412
 30
0.0
 11
121.3064173031
 21
89.3530066547
 31
0.0
  0
LINE
  5
88
330
1F
100
AcDbEntity
  8
0
  6
Continuous
 62
     7
370
    15
100
AcDbLine
 10
121.3064173031
 20
137.3347568748
 30
0.0
 11
120.4497043769
 21
137.5643129883
 31
0.0
  0
ARC
  5
89
330
1F
100
AcDbEntity
  8
0
  6
Continuous
 62
     7
370
    15
100
AcDbCircle
 10
121.4617086724
 20
88.773450903
 30
0.0
 40
0.5999999999999971
100
AcDbArc
 50
90.0
 51
105.0
  0
ARC
  5
8A
330
1F
100
AcDbEntity
  8
0
  6
Continuous
 62
     7
370
    15
100
AcDbCircle
 10
121.4617086724
 20
137.9143126265
 30
0.0
 40
0.5999999999999971
100
AcDbArc
 50
255.0
 51
270.0
  0
LINE
  5
8B
330
1F
100
AcDbEntity
  8
0
  6
Continuous
 62
     7
370
    15
100
AcDbLine
 10
121.4617087068
 20
89.3734510479
 30
0.0
 11
121.9496976961
 21
89.3734510479
 31
0.0
  0
LINE
  5
8C
330
1F
100
AcDbEntity
  8
0
  6
Continuous
 62
     7
370
    15
100
AcDbLine
 10
121.9496976961
 20
137.3143124816
 30
0.0
 11
121.4617087068
 21
137.3143124816
 31
0.0
  0
ARC
  5
8D
330
1F
100
AcDbEntity
  8
0
  6
Continuous
 62
     7
370
    15
100
AcDbCircle
 10
151.3997044719
 20
94.3438817648
 30
0.0
 40
3.0
100
AcDbArc
 50
90.0
 51
180.0
  0
ARC
  5
8E
330
1F
100
AcDbEntity
  8
0
  6
Continuous
 62
     7
370
    15
100
AcDbCircle
 10
151.3997044719
 20
132.3438817648
 30
0.0
 40
3.0
100
AcDbArc
 50
180.0
 51
270.0
  0
LINE
  5
8F
330
1F
100
AcDbEntity
  8
0
  6
Continuous
 62
     7
370
    15
100
AcDbLine
 10
222.1497008837
 20
97.3438810048
 30
0.0
 11
222.4497059621
 21
97.6438823578
 31
0.0
  0
LINE
  5
90
330
1F
100
AcDbEntity
  8
0
  6
Continuous
 62
     7
370
    15
100
AcDbLine
 10
222.4497059621
 20
129.0438811717
 30
0.0
 11
222.1497008837
 21
129.3438825247
 31
0.0
  0
LINE
  5
91
330
1F
100
AcDbEntity
  8
0
  6
Continuous
 62
     7
370
    15
100
AcDbLine
 10
205.4470861591
 20
129.3438825247
 30
0.0
 11
151.3997046537
 21
129.3438825247
 31
0.0
  0
LINE
  5
92
330
1F
100
AcDbEntity
  8
0
  6
Continuous
 62
     7
370
    15
100
AcDbLine
 10
222.1497008837
 20
129.3438825247
 30
0.0
 11
215.3448695577
 21
129.3438825247
 31
0.0
  0
LINE
  5
93
330
1F
100
AcDbEntity
  8
0
  6
Continuous
 62
     7
370
    15
100
AcDbLine
 10
151.3997046537
 20
97.3438810048
 30
0.0
 11
222.1497008837
 21
97.3438810048
 31
0.0
  0
LINE
  5
94
330
1F
100
AcDbEntity
  8
0
  6
Continuous
 62
     7
370
    15
100
AcDbLine
 10
91.8330410756
 20
92.4738816408
 30
0.0
 11
99.249704767
 21
92.4738816408
 31
0.0
  0
ARC
  5
95
330
1F
100
AcDbEntity
  8
0
  6
Continuous
 62
     7
370
    15
100
AcDbCircle
 10
99.2497044719
 20
91.0738817648
 30
0.0
 40
1.399999999999997
100
AcDbArc
 50
42.2465410162
 51
90.0
  0
LINE
  5
96
330
1F
100
AcDbEntity
  8
0
  6
Continuous
 62
     7
370
    15
100
AcDbLine
 10
90.5507365502
 20
93.6228487131
 30
0.0
 11
91.690867234
 21
92.4827180294
 31
0.0
  0
LINE
  5
97
330
1F
100
AcDbEntity
  8
0
  6
Continuous
 62
     7
370
    15
100
AcDbLine
 10
91.690867234
 20
134.2050455001
 30
0.0
 11
90.5596064664
 21
133.0737828699
 31
0.0
  0
ARC
  5
98
330
1F
100
AcDbEntity
  8
0
  6
Continuous
 62
     7
370
    15
100
AcDbCircle
 10
95.2497044719
 20
135.6138817648
 30
0.0
 40
1.399999999999999
100
AcDbArc
 50
270.0
 51
301.7485287426
  0
LINE
  5
99
330
1F
100
AcDbEntity
  8
0
  6
Continuous
 62
     7
370
    15
100
AcDbLine
 10
95.2497041113
 20
134.2138818887
 30
0.0
 11
91.8239699937
 21
134.2138818887
 31
0.0
  0
LINE
  5
9A
330
1F
100
AcDbEntity
  8
0
  6
Continuous
 62
     7
370
    15
100
AcDbLine
 10
213.990890447
 20
129.0526933459
 30
0.0
 11
213.6997068561
 21
129.3438825247
 31
0.0
  0
LINE
  5
9B
330
1F
100
AcDbEntity
  8
0
  6
Continuous
 62
     7
370
    15
100
AcDbLine
 10
207.0997068919
 20
129.3438825247
 30
0.0
 11
206.8089032806
 21
129.0530789134
 31
0.0
  0
LINE
  5
9C
330
1F
100
AcDbEntity
  8
0
  6
Continuous
 62
     7
370
    15
100
AcDbLine
 10
213.990890447
 20
129.0526933459
 30
0.0
 11
213.6997068561
 21
129.3438825247
 31
0.0
  0
LINE
  5
9D
330
1F
100
AcDbEntity
  8
0
  6
Continuous
 62
     7
370
    15
100
AcDbLine
 10
207.0997068919
 20
129.3438825247
 30
0.0
 11
206.8089032806
 21
129.0530789134
 31
0.0
  0
LINE
  5
9E
330
1F
100
AcDbEntity
  8
0
  6
Continuous
 62
     7
370
    15
100
AcDbLine
 10
147.7997051812
 20
83.1569641319
 30
0.0
 11
143.8416363932
 21
83.1569641319
 31
0.0
  0
LINE
  5
9F
330
1F
100
AcDbEntity
  8
0
  6
Continuous
 62
     7
370
    15
100
AcDbLine
 10
143.8416363932
 20
83.1569641319
 30
0.0
 11
143.8416363932
 21
133.1938825039
 31
0.0
  0
LINE
  5
A0
330
1F
100
AcDbEntity
  8
0
  6
Continuous
 62
     7
370
    15
100
AcDbLine
 10
143.8416363932
 20
133.1938825039
 30
0.0
 11
147.7997051812
 21
133.1938825039
 31
0.0
  0
SPLINE
  5
A1
330
1F
100
AcDbEntity
  8
0
  6
Continuous
 62
     7
370
    15
100
AcDbSpline
210
0.0
220
0.0
230
1.0
 70
     8
 71
     3
 72
     8
 73
     4
 74
     0
 42
0.000000001
 43
0.00000001
 40
0.0
 40
0.0
 40
0.0
 40
0.0
 40
1.0
 40
1.0
 40
1.0
 40
1.0
 10
143.8416373034335
 20
83.15696406851056
 30
0.0
 10
143.3461576427677
 20
84.05249015644392
 30
0.0
 10
142.8520435947256
 20
84.94877457149616
 30
0.0
 10
142.3597044719444
 20
85.84604460570286
 30
0.0
  0
LINE
  5
A2
330
1F
100
AcDbEntity
  8
0
  6
Continuous
 62
     7
370
    15
100
AcDbLine
 10
142.3597047366
 20
85.8460444448
 30
0.0
 11
142.3597047366
 21
133.1938825039
 31
0.0
  0
SPLINE
  5
A3
330
1F
100
AcDbEntity
  8
0
  6
Continuous
 62
     7
370
    15
100
AcDbSpline
210
0.0
220
0.0
230
1.0
 70
    24
 71
     3
 72
     8
 73
     4
 74
     0
 42
0.000000001
 43
0.00000001
 40
0.0
 40
0.0
 40
0.0
 40
0.0
 40
1.0
 40
1.0
 40
1.0
 40
1.0
 10
142.3597044719444
 20
133.1938817647577
 30
0.0
 10
142.8396564663093
 20
133.1938817647577
 30
0.0
 10
143.334957195283
 20
133.1938817647577
 30
0.0
 10
143.8416373034335
 20
133.1938817647577
 30
0.0
  0
LINE
  5
A4
330
1F
100
AcDbEntity
  8
0
  6
Continuous
 62
     7
370
    15
100
AcDbLine
 10
122.4497044719
 20
82.1438826111
 30
0.0
 11
122.4497044719
 21
144.5438809184
 31
0.0
  0
LINE
  5
A5
330
1F
100
AcDbEntity
  8
0
  6
Continuous
 62
     7
370
    15
100
AcDbLine
 10
127.3997044451
 20
133.1938825039
 30
0.0
 11
137.0577719323
 21
133.1938825039
 31
0.0
  0
LINE
  5
A6
330
1F
100
AcDbEntity
  8
0
  6
Continuous
 62
     7
370
    15
100
AcDbLine
 10
137.0577719323
 20
83.1569641319
 30
0.0
 11
137.0577719323
 21
133.1938825039
 31
0.0
  0
LINE
  5
A7
330
1F
100
AcDbEntity
  8
0
  6
Continuous
 62
     7
370
    15
100
AcDbLine
 10
137.0577719323
 20
83.1569641319
 30
0.0
 11
135.3997048251
 21
83.1569641319
 31
0.0
  0
SPLINE
  5
A8
330
1F
100
AcDbEntity
  8
0
  6
Continuous
 62
     7
370
    15
100
AcDbSpline
210
0.0
220
0.0
230
1.0
 70
     8
 71
     3
 72
    28
 73
    24
 74
     0
 42
0.000000001
 43
0.00000001
 40
0.0
 40
0.0
 40
0.0
 40
0.0
 40
0.1249999999999999
 40
0.1249999999999999
 40
0.1874999999999998
 40
0.1874999999999998
 40
0.2499999999999997
 40
0.2499999999999997
 40
0.3749999999999993
 40
0.3749999999999993
 40
0.4374999999999993
 40
0.4374999999999993
 40
0.4999999999999992
 40
0.4999999999999992
 40
0.6249999999999992
 40
0.6249999999999992
 40
0.7499999999999992
 40
0.7499999999999992
 40
0.8124999999999993
 40
0.8124999999999993
 40
0.8749999999999996
 40
0.8749999999999996
 40
1.0
 40
1.0
 40
1.0
 40
1.0
 10
135.3997044719444
 20
83.15696406851056
 30
0.0
 10
134.8679967144515
 20
83.15696406851056
 30
0.0
 10
134.3457581491411
 20
83.14117935456034
 30
0.0
 10
133.5758876628661
 20
83.09618394048414
 30
0.0
 10
133.3215280906748
 20
83.0776289454084
 30
0.0
 10
132.8174065099763
 20
83.03377622296192
 30
0.0
 10
132.5676836925484
 20
83.00843161600972
 30
0.0
 10
131.842093741102
 20
82.92502953825961
 30
0.0
 10
131.3837334795204
 20
82.85916397910852
 30
0.0
 10
130.7332355361265
 20
82.75019363861674
 30
0.0
 10
130.5215534853341
 20
82.71195400285009
 30
0.0
 10
130.1174819961961
 20
82.63419526543073
 30
0.0
 10
129.9249754823752
 20
82.5946943032554
 30
0.0
 10
129.3751405113539
 20
82.47578656088938
 30
0.0
 10
129.0452117330451
 20
82.39596887946475
 30
0.0
 10
128.4607404644765
 20
82.2426257176687
 30
0.0
 10
128.214463326463
 20
82.17129196439944
 30
0.0
 10
127.9146205337649
 20
82.07734845732483
 30
0.0
 10
127.8261636766927
 20
82.0481546639649
 30
0.0
 10
127.6728023233876
 20
81.9946880897015
 30
0.0
 10
127.6077141091614
 20
81.97032875542631
 30
0.0
 10
127.4521200932206
 20
81.90673860998157
 30
0.0
 10
127.3997044719444
 20
81.87663567489231
 30
0.0
 10
127.3997044719444
 20
81.85975878189538
 30
0.0
  0
LINE
  5
A9
330
1F
100
AcDbEntity
  8
0
  6
Continuous
 62
     7
370
    15
100
AcDbLine
 10
127.3997044451
 20
81.8597584454
 30
0.0
 11
127.3997044451
 21
81.8438812581
 31
0.0
  0
SPLINE
  5
AA
330
1F
100
AcDbEntity
  8
0
  6
Continuous
 62
     7
370
    15
100
AcDbSpline
210
0.0
220
0.0
230
1.0
 70
     8
 71
     3
 72
    17
 73
    13
 74
     0
 42
0.000000001
 43
0.00000001
 40
0.0
 40
0.0
 40
0.0
 40
0.0
 40
0.1034797280380778
 40
0.2100239090909901
 40
0.3134862262879433
 40
0.4198361712144981
 40
0.5254127947779869
 40
0.6339610881168427
 40
0.7409508662120068
 40
0.8511696072047016
 40
0.9558996557845765
 40
1.0
 40
1.0
 40
1.0
 40
1.0
 10
135.3997048251019
 20
143.8110772011162
 30
0.0
 10
134.964456333376
 20
143.8165251927538
 30
0.0
 10
134.081069882799
 20
143.8275825130824
 30
0.0
 10
132.8002420205763
 20
143.9139412734575
 30
0.0
 10
131.5828258251343
 20
144.0418124165905
 30
0.0
 10
130.4750192088085
 20
144.200756823909
 30
0.0
 10
129.4867807294797
 20
144.3752513968936
 30
0.0
 10
128.6620576296639
 20
144.5444178300804
 30
0.0
 10
128.0131039721652
 20
144.6922986385481
 30
0.0
 10
127.5960686686856
 20
144.7940893900707
 30
0.0
 10
127.3974719258076
 20
144.8444462897052
 30
0.0
 10
127.4207850427955
 20
144.8385366847297
 30
0.0
 10
127.427693016796
 20
144.8367855933786
 30
0.0
  0
LINE
  5
AB
330
1F
100
AcDbEntity
  8
0
  6
Continuous
 62
     7
370
    15
100
AcDbLine
 10
137.0577719323
 20
143.8110772011
 30
0.0
 11
135.3997048251
 21
143.8110772011
 31
0.0
  0
LINE
  5
AC
330
1F
100
AcDbEntity
  8
0
  6
Continuous
 62
     7
370
    15
100
AcDbLine
 10
137.0577719323
 20
137.8025713799
 30
0.0
 11
137.0577719323
 21
143.8110772011
 31
0.0
  0
LINE
  5
AD
330
1F
100
AcDbEntity
  8
0
  6
Continuous
 62
     7
370
    15
100
AcDbLine
 10
134.6453251578
 20
137.8025713799
 30
0.0
 11
137.0577719323
 21
137.8025713799
 31
0.0
  0
SPLINE
  5
AE
330
1F
100
AcDbEntity
  8
0
  6
Continuous
 62
     7
370
    15
100
AcDbSpline
210
0.0
220
0.0
230
1.0
 70
     8
 71
     3
 72
    20
 73
    16
 74
     0
 42
0.000000001
 43
0.00000001
 40
0.0
 40
0.0
 40
0.0
 40
0.0
 40
0.2499999999999995
 40
0.2499999999999995
 40
0.3749999999999996
 40
0.3749999999999996
 40
0.4999999999999997
 40
0.4999999999999997
 40
0.6249999999999998
 40
0.6249999999999998
 40
0.7499999999999998
 40
0.7499999999999998
 40
0.8749999999999999
 40
0.8749999999999999
 40
1.0
 40
1.0
 40
1.0
 40
1.0
 10
127.3997044719444
 20
133.1938817647577
 30
0.0
 10
127.6480782062325
 20
133.8477441930551
 30
0.0
 10
127.9676482985777
 20
134.4515299750523
 30
0.0
 10
128.5899545317824
 20
135.2783687112209
 30
0.0
 10
128.8213787922132
 20
135.5407973491738
 30
0.0
 10
129.3425931318629
 20
136.0374600032788
 30
0.0
 10
129.629213614498
 20
136.2680468823003
 30
0.0
 10
130.2486983558056
 20
136.6846011068829
 30
0.0
 10
130.5829987352925
 20
136.8720989088504
 30
0.0
 10
131.3082592079173
 20
137.2034958864868
 30
0.0
 10
131.6901742653078
 20
137.3429998739821
 30
0.0
 10
132.4849624414795
 20
137.5684533814531
 30
0.0
 10
132.8991206356858
 20
137.6550794929967
 30
0.0
 10
133.7646669762673
 20
137.7730602818508
 30
0.0
 10
134.2025545912791
 20
137.8025714271251
 30
0.0
 10
134.6453248176337
 20
137.8025714271251
 30
0.0
  0
LINE
  5
AF
330
1F
100
AcDbEntity
  8
0
  6
Continuous
 62
     7
370
    15
100
AcDbLine
 10
138.5397045202
 20
85.8460444448
 30
0.0
 11
138.5397045202
 21
133.1938825039
 31
0.0
  0
SPLINE
  5
B0
330
1F
100
AcDbEntity
  8
0
  6
Continuous
 62
     7
370
    15
100
AcDbSpline
210
0.0
220
0.0
230
1.0
 70
     8
 71
     3
 72
     8
 73
     4
 74
     0
 42
0.000000001
 43
0.00000001
 40
0.0
 40
0.0
 40
0.0
 40
0.0
 40
1.0
 40
1.0
 40
1.0
 40
1.0
 10
138.5397044719444
 20
85.84604460570286
 30
0.0
 10
138.0473653491632
 20
84.94877457149616
 30
0.0
 10
137.5532513011211
 20
84.05249015644392
 30
0.0
 10
137.0577716404553
 20
83.15696406851056
 30
0.0
  0
SPLINE
  5
B1
330
1F
100
AcDbEntity
  8
0
  6
Continuous
 62
     7
370
    15
100
AcDbSpline
210
0.0
220
0.0
230
1.0
 70
    24
 71
     3
 72
     8
 73
     4
 74
     0
 42
0.000000001
 43
0.00000001
 40
0.0
 40
0.0
 40
0.0
 40
0.0
 40
1.0
 40
1.0
 40
1.0
 40
1.0
 10
137.0577716404553
 20
133.1938817647577
 30
0.0
 10
137.5644517486059
 20
133.1938817647577
 30
0.0
 10
138.0597524775795
 20
133.1938817647577
 30
0.0
 10
138.5397044719444
 20
133.1938817647577
 30
0.0
  0
LINE
  5
B2
330
1F
100
AcDbEntity
  8
0
  6
Continuous
 62
     7
370
    15
100
AcDbLine
 10
148.399704162
 20
83.7836045263
 30
0.0
 11
148.399704162
 21
133.1938825039
 31
0.0
  0
SPLINE
  5
B3
330
1F
100
AcDbEntity
  8
0
  6
Continuous
 62
     7
370
    15
100
AcDbSpline
210
0.0
220
0.0
230
1.0
 70
     8
 71
     3
 72
    10
 73
     6
 74
     0
 42
0.000000001
 43
0.00000001
 40
0.0
 40
0.0
 40
0.0
 40
0.0
 40
0.5
 40
0.5
 40
1.0
 40
1.0
 40
1.0
 40
1.0
 10
148.3997044719444
 20
83.78360436416487
 30
0.0
 10
148.3997044719444
 20
83.62371709597122
 30
0.0
 10
148.3383948207086
 20
83.46258984045663
 30
0.0
 10
148.1192951831735
 20
83.22849084210179
 30
0.0
 10
147.96124697686
 20
83.15696406851056
 30
0.0
 10
147.7997044719444
 20
83.15696406851056
 30
0.0
  0
SPLINE
  5
B4
330
1F
100
AcDbEntity
  8
0
  6
Continuous
 62
     7
370
    15
100
AcDbSpline
210
0.0
220
0.0
230
1.0
 70
    24
 71
     3
 72
    12
 73
     8
 74
     0
 42
0.000000001
 43
0.00000001
 40
0.0
 40
0.0
 40
0.0
 40
0.0
 40
0.2500000000000033
 40
0.2500000000000033
 40
0.5000000000000067
 40
0.5000000000000067
 40
1.0
 40
1.0
 40
1.0
 40
1.0
 10
147.7997044719444
 20
133.1938817647577
 30
0.0
 10
147.8899435396314
 20
133.1938817647577
 30
0.0
 10
147.980841653738
 20
133.1938817647577
 30
0.0
 10
148.1354386902265
 20
133.1938817647577
 30
0.0
 10
148.2004171063346
 20
133.1938817647577
 30
0.0
 10
148.3522521342708
 20
133.1938817647577
 30
0.0
 10
148.3997044719444
 20
133.1938817647577
 30
0.0
 10
148.3997044719444
 20
133.1938817647577
 30
0.0
  0
SPLINE
  5
B5
330
1F
100
AcDbEntity
  8
0
  6
Continuous
 62
     7
370
    15
100
AcDbSpline
210
0.0
220
0.0
230
1.0
 70
    24
 71
     3
 72
    14
 73
    10
 74
     0
 42
0.000000001
 43
0.00000001
 40
0.0
 40
0.0
 40
0.0
 40
0.0
 40
0.4999999999999982
 40
0.4999999999999982
 40
0.7499999999999973
 40
0.7499999999999973
 40
0.8749999999999987
 40
0.8749999999999987
 40
1.0
 40
1.0
 40
1.0
 40
1.0
 10
142.2620296696121
 20
86.94388176475773
 30
0.0
 10
142.2148195103823
 20
86.94388176475772
 30
0.0
 10
142.1515850368386
 20
86.94388176475773
 30
0.0
 10
142.0077731061107
 20
86.94388176475772
 30
0.0
 10
141.9524480316343
 20
86.94388176475772
 30
0.0
 10
141.8405368583992
 20
86.94388176475773
 30
0.0
 10
141.7977497719583
 20
86.94388176475773
 30
0.0
 10
141.6933844389247
 20
86.94388176475772
 30
0.0
 10
141.6291606446229
 20
86.94388176475773
 30
0.0
 10
141.5597044719999
 20
86.94388176475773
 30
0.0
  0
SPLINE
  5
B6
330
1F
100
AcDbEntity
  8
0
  6
Continuous
 62
     7
370
    15
100
AcDbSpline
210
0.0
220
0.0
230
1.0
 70
    24
 71
     3
 72
    12
 73
     8
 74
     0
 42
0.000000001
 43
0.00000001
 40
0.0
 40
0.0
 40
0.0
 40
0.0
 40
0.4999999999999983
 40
0.4999999999999983
 40
0.7499999999999991
 40
0.7499999999999991
 40
1.0
 40
1.0
 40
1.0
 40
1.0
 10
141.9654069402537
 20
139.7438817647577
 30
0.0
 10
141.9219687524507
 20
139.7438817647577
 30
0.0
 10
141.8727745041526
 20
139.7438817647577
 30
0.0
 10
141.7760557467716
 20
139.7438817647577
 30
0.0
 10
141.73986826527
 20
139.7438817647577
 30
0.0
 10
141.6569904067452
 20
139.7438817647577
 30
0.0
 10
141.6090369594385
 20
139.7438817647577
 30
0.0
 10
141.5597044719444
 20
139.7438817647577
 30
0.0
  0
SPLINE
  5
B7
330
1F
100
AcDbEntity
  8
0
  6
Continuous
 62
     7
370
    15
100
AcDbSpline
210
0.0
220
0.0
230
1.0
 70
     8
 71
     3
 72
    10
 73
     6
 74
     0
 42
0.000000001
 43
0.00000001
 40
0.0
 40
0.0
 40
0.0
 40
0.0
 40
0.5
 40
0.5
 40
1.0
 40
1.0
 40
1.0
 40
1.0
 10
142.3597044719444
 20
140.4635356157935
 30
0.0
 10
142.3597044719444
 20
140.3197655579757
 30
0.0
 10
142.3236554132256
 20
140.1773461954807
 30
0.0
 10
142.188146552452
 20
139.9274519021238
 30
0.0
 10
142.0882705593562
 20
139.8194215658757
 30
0.0
 10
141.9654069402545
 20
139.7438817647584
 30
0.0
  0
SPLINE
  5
B8
330
1F
100
AcDbEntity
  8
0
  6
Continuous
 62
     7
370
    15
100
AcDbSpline
210
0.0
220
0.0
230
1.0
 70
     8
 71
     3
 72
     9
 73
     5
 74
     0
 42
0.000000001
 43
0.00000001
 40
0.0
 40
0.0
 40
0.0
 40
0.0
 40
0.5
 40
1.0
 40
1.0
 40
1.0
 40
1.0
 10
142.3335568487843
 20
133.1938817647577
 30
0.0
 10
142.3422954186666
 20
133.2410245650931
 30
0.0
 10
142.355314705003
 20
133.3358206467636
 30
0.0
 10
142.3597044719444
 20
133.431604918324
 30
0.0
 10
142.3597044719444
 20
133.4797483962191
 30
0.0
  0
SPLINE
  5
B9
330
1F
100
AcDbEntity
  8
0
  6
Continuous
 62
     7
370
    15
100
AcDbSpline
210
0.0
220
0.0
230
1.0
 70
     8
 71
     3
 72
    10
 73
     6
 74
     0
 42
0.000000001
 43
0.00000001
 40
0.0
 40
0.0
 40
0.0
 40
0.0
 40
0.5
 40
0.5
 40
1.0
 40
1.0
 40
1.0
 40
1.0
 10
138.9340020036354
 20
139.7438817647577
 30
0.0
 10
138.8124617399668
 20
139.8186079319695
 30
0.0
 10
138.7111273796179
 20
139.9275529478863
 30
0.0
 10
138.5754884367295
 20
140.1779834286479
 30
0.0
 10
138.5397044719444
 20
140.3204027907468
 30
0.0
 10
138.5397044719444
 20
140.4635356157935
 30
0.0
  0
SPLINE
  5
BA
330
1F
100
AcDbEntity
  8
0
  6
Continuous
 62
     7
370
    15
100
AcDbSpline
210
0.0
220
0.0
230
1.0
 70
    24
 71
     3
 72
    12
 73
     8
 74
     0
 42
0.000000001
 43
0.00000001
 40
0.0
 40
0.0
 40
0.0
 40
0.0
 40
0.2500000000000021
 40
0.2500000000000021
 40
0.5000000000000041
 40
0.5000000000000041
 40
1.0
 40
1.0
 40
1.0
 40
1.0
 10
139.3397044719444
 20
139.7438817647577
 30
0.0
 10
139.2898277896269
 20
139.7438817647577
 30
0.0
 10
139.2418245962233
 20
139.7438817647577
 30
0.0
 10
139.1587764935114
 20
139.7438817647577
 30
0.0
 10
139.1226469140435
 20
139.7438817647577
 30
0.0
 10
139.0267348830993
 20
139.7438817647577
 30
0.0
 10
138.9769762151305
 20
139.7438817647577
 30
0.0
 10
138.9340020036354
 20
139.7438817647577
 30
0.0
  0
SPLINE
  5
BB
330
1F
100
AcDbEntity
  8
0
  6
Continuous
 62
     7
370
    15
100
AcDbSpline
210
0.0
220
0.0
230
1.0
 70
    24
 71
     3
 72
    14
 73
    10
 74
     0
 42
0.000000001
 43
0.00000001
 40
0.0
 40
0.0
 40
0.0
 40
0.0
 40
0.1249999999999983
 40
0.1249999999999983
 40
0.2499999999999967
 40
0.2499999999999967
 40
0.4999999999999968
 40
0.4999999999999968
 40
1.0
 40
1.0
 40
1.0
 40
1.0
 10
139.3397044719444
 20
86.94388176475773
 30
0.0
 10
139.2712666240579
 20
86.94388176475773
 30
0.0
 10
139.2057165852929
 20
86.94388176475773
 30
0.0
 10
139.1012899458849
 20
86.94388176475772
 30
0.0
 10
139.0587453361235
 20
86.94388176475773
 30
0.0
 10
138.9461358755833
 20
86.94388176475773
 30
0.0
 10
138.8905968285638
 20
86.94388176475773
 30
0.0
 10
138.7479851331
 20
86.94388176475772
 30
0.0
 10
138.6845797781042
 20
86.94388176475773
 30
0.0
 10
138.6373792742767
 20
86.94388176475773
 30
0.0
  0
SPLINE
  5
BC
330
1F
100
AcDbEntity
  8
0
  6
Continuous
 62
     7
370
    15
100
AcDbSpline
210
0.0
220
0.0
230
1.0
 70
     8
 71
     3
 72
    10
 73
     6
 74
     0
 42
0.000000001
 43
0.00000001
 40
0.0
 40
0.0
 40
0.0
 40
0.0
 40
0.5
 40
0.5
 40
1.0
 40
1.0
 40
1.0
 40
1.0
 10
138.5397044719444
 20
133.4797483962191
 30
0.0
 10
138.5397044719444
 20
133.4319768882258
 30
0.0
 10
138.5418657155415
 20
133.3842671661641
 30
0.0
 10
138.5505370894017
 20
133.2889720486158
 30
0.0
 10
138.5570662723577
 20
133.2412794846492
 30
0.0
 10
138.5658520951045
 20
133.1938817647577
 30
0.0
  0
LINE
  5
BD
330
1F
100
AcDbEntity
  8
0
  6
Continuous
 62
     7
370
    15
100
AcDbLine
 10
141.5597042329
 20
139.7438816217
 30
0.0
 11
139.3397050239
 21
139.7438816217
 31
0.0
  0
LINE
  5
BE
330
1F
100
AcDbEntity
  8
0
  6
Continuous
 62
     7
370
    15
100
AcDbLine
 10
141.5597042329
 20
86.9438819078
 30
0.0
 11
139.3397050239
 21
86.9438819078
 31
0.0
  0
LINE
  5
BF
330
1F
100
AcDbEntity
  8
0
  6
Continuous
 62
     7
370
    15
100
AcDbLine
 10
100.6497042514
 20
90.1154357431
 30
0.0
 11
100.6497042514
 21
91.3801438597
 31
0.0
  0
SPLINE
  5
C0
330
1F
100
AcDbEntity
  8
0
  6
Continuous
 62
     7
370
    15
100
AcDbSpline
210
0.0
220
0.0
230
1.0
 70
     8
 71
     3
 72
    14
 73
    10
 74
     0
 42
0.000000001
 43
0.00000001
 40
0.0
 40
0.0
 40
0.0
 40
0.0
 40
0.25
 40
0.25
 40
0.5
 40
0.5
 40
0.75
 40
0.75
 40
1.0
 40
1.0
 40
1.0
 40
1.0
 10
99.87141735402868
 20
92.51073044119777
 30
0.0
 10
99.92804402923076
 20
92.40303298736092
 30
0.0
 10
100.0225666895205
 20
92.3002434056416
 30
0.0
 10
100.2056116650827
 20
92.10188609342144
 30
0.0
 10
100.2972382420375
 20
92.0058265847432
 30
0.0
 10
100.4560915597307
 20
91.81829754203395
 30
0.0
 10
100.5239821673523
 20
91.7268885692504
 30
0.0
 10
100.6208991930599
 20
91.54851234834024
 30
0.0
 10
100.649704471945
 20
91.46129044209407
 30
0.0
 10
100.649704471945
 20
91.38014423355982
 30
0.0
  0
SPLINE
  5
C1
330
1F
100
AcDbEntity
  8
0
  6
Continuous
 62
     7
370
    15
100
AcDbSpline
210
0.0
220
0.0
230
1.0
 70
     8
 71
     3
 72
    14
 73
    10
 74
     0
 42
0.000000001
 43
0.00000001
 40
0.0
 40
0.0
 40
0.0
 40
0.0
 40
0.1249999999999979
 40
0.1249999999999979
 40
0.2499999999999958
 40
0.2499999999999958
 40
0.4999999999999948
 40
0.4999999999999948
 40
1.0
 40
1.0
 40
1.0
 40
1.0
 10
99.24970447194441
 20
92.9574123034771
 30
0.0
 10
99.29824888060156
 20
92.96316061675738
 30
0.0
 10
99.35116423538646
 20
92.96005972810113
 30
0.0
 10
99.44645958036952
 20
92.9378648839388
 30
0.0
 10
99.48671057765449
 20
92.92063265684294
 30
0.0
 10
99.59098059116744
 20
92.86430474039089
 30
0.0
 10
99.64130256632077
 20
92.82011839444509
 30
0.0
 10
99.76898551384613
 20
92.68911049559448
 30
0.0
 10
99.8250709609084
 20
92.59887597536418
 30
0.0
 10
99.87141735403014
 20
92.51073044119832
 30
0.0
  0
SPLINE
  5
C2
330
1F
100
AcDbEntity
  8
0
  6
Continuous
 62
     7
370
    15
100
AcDbSpline
210
0.0
220
0.0
230
1.0
 70
     8
 71
     3
 72
     8
 73
     4
 74
     0
 42
0.000000001
 43
0.00000001
 40
0.0
 40
0.0
 40
0.0
 40
0.0
 40
1.0
 40
1.0
 40
1.0
 40
1.0
 10
96.98117937899823
 20
92.6475670168943
 30
0.0
 10
97.71575640548117
 20
92.76619202796326
 30
0.0
 10
98.4792314748768
 20
92.86617790009954
 30
0.0
 10
99.24970447194441
 20
92.9574123034771
 30
0.0
  0
SPLINE
  5
C3
330
1F
100
AcDbEntity
  8
0
  6
Continuous
 62
     7
370
    15
100
AcDbSpline
210
0.0
220
0.0
230
1.0
 70
     8
 71
     3
 72
    14
 73
    10
 74
     0
 42
0.000000001
 43
0.00000001
 40
0.0
 40
0.0
 40
0.0
 40
0.0
 40
0.5000000000000019
 40
0.5000000000000019
 40
0.7500000000000018
 40
0.7500000000000018
 40
0.875000000000001
 40
0.875000000000001
 40
1.0
 40
1.0
 40
1.0
 40
1.0
 10
91.6997044719444
 20
92.47394399936265
 30
0.0
 10
92.59185060249798
 20
92.473221773162
 30
0.0
 10
93.48182703829158
 20
92.47780797961947
 30
0.0
 10
94.80842220536722
 20
92.50553298401101
 30
0.0
 10
95.24926913386597
 20
92.51813952163518
 30
0.0
 10
95.9057093712884
 20
92.54915566964262
 30
0.0
 10
96.12372302788027
 20
92.5614988422694
 30
0.0
 10
96.55643188156304
 20
92.59452289743267
 30
0.0
 10
96.77170834672785
 20
92.61374006257111
 30
0.0
 10
96.98117937899825
 20
92.64756701689429
 30
0.0
  0
SPLINE
  5
C4
330
1F
100
AcDbEntity
  8
0
  6
Continuous
 62
     7
370
    15
100
AcDbSpline
210
0.0
220
0.0
230
1.0
 70
     8
 71
     3
 72
     8
 73
     4
 74
     0
 42
0.000000001
 43
0.00000001
 40
0.0000005163856998
 40
0.0000005163856998
 40
0.0000005163856998
 40
0.0000005163856998
 40
0.000026289209185
 40
0.000026289209185
 40
0.000026289209185
 40
0.000026289209185
 10
91.6896595415368
 20
92.48392787245943
 30
0.0
 10
91.69298727974461
 20
92.48059362559033
 30
0.0
 10
91.69633573272023
 20
92.477265668315
 30
0.0
 10
91.69970447194439
 20
92.47394399936263
 30
0.0
  0
SPLINE
  5
C5
330
1F
100
AcDbEntity
  8
0
  6
Continuous
 62
     7
370
    15
100
AcDbSpline
210
0.0
220
0.0
230
1.0
 70
     8
 71
     3
 72
     8
 73
     4
 74
     0
 42
0.000000001
 43
0.00000001
 40
0.0000005099763573
 40
0.0000005099763573
 40
0.0000005099763573
 40
0.0000005099763573
 40
0.0000262827998699
 40
0.0000262827998699
 40
0.0000262827998699
 40
0.0000262827998699
 10
91.69970447194439
 20
134.2138195301528
 30
0.0
 10
91.69633573271665
 20
134.2104978611969
 30
0.0
 10
91.69298727973748
 20
134.207169903918
 30
0.0
 10
91.68965954152617
 20
134.2038356570453
 30
0.0
  0
SPLINE
  5
C6
330
1F
100
AcDbEntity
  8
0
  6
Continuous
 62
     7
370
    15
100
AcDbSpline
210
0.0
220
0.0
230
1.0
 70
     8
 71
     3
 72
    10
 73
     6
 74
     0
 42
0.000000001
 43
0.00000001
 40
0.0
 40
0.0
 40
0.0
 40
0.0
 40
0.5
 40
0.5
 40
1.0
 40
1.0
 40
1.0
 40
1.0
 10
95.2497044719444
 20
134.1669691565855
 30
0.0
 10
94.66211892485383
 20
134.1880346768219
 30
0.0
 10
94.07137253139344
 20
134.1987931626941
 30
0.0
 10
92.88735336609457
 20
134.2121579432298
 30
0.0
 10
92.29393937788912
 20
134.2143005858943
 30
0.0
 10
91.6997044719444
 20
134.2138195301528
 30
0.0
  0
SPLINE
  5
C7
330
1F
100
AcDbEntity
  8
0
  6
Continuous
 62
     7
370
    15
100
AcDbSpline
210
0.0
220
0.0
230
1.0
 70
     8
 71
     3
 72
    18
 73
    14
 74
     0
 42
0.000000001
 43
0.00000001
 40
0.0
 40
0.0
 40
0.0
 40
0.0
 40
0.2499999999999996
 40
0.2499999999999996
 40
0.5
 40
0.5
 40
0.7500000000000003
 40
0.7500000000000003
 40
0.8750000000000002
 40
0.8750000000000002
 40
0.9375000000000001
 40
0.9375000000000001
 40
1.0
 40
1.0
 40
1.0
 40
1.0
 10
96.64970447194442
 20
135.1879894371207
 30
0.0
 10
96.64970447194442
 20
135.1047825282635
 30
0.0
 10
96.61385537200614
 20
135.01604587295
 30
0.0
 10
96.48898363597225
 20
134.8339206823897
 30
0.0
 10
96.39858321832436
 20
134.7387906337631
 30
0.0
 10
96.17634056358219
 20
134.5496091246387
 30
0.0
 10
96.04657577713643
 20
134.4546639565441
 30
0.0
 10
95.80593831982489
 20
134.3163852489641
 30
0.0
 10
95.71817102168745
 20
134.2706748156617
 30
0.0
 10
95.56364693448063
 20
134.2128515104403
 30
0.0
 10
95.50703604842589
 20
134.1951367464024
 30
0.0
 10
95.38299201751929
 20
134.1705974431695
 30
0.0
 10
95.315277342501
 20
134.1646183046312
 30
0.0
 10
95.2497044719444
 20
134.1669691565855
 30
0.0
  0
LINE
  5
C8
330
1F
100
AcDbEntity
  8
0
  6
Continuous
 62
     7
370
    15
100
AcDbLine
 10
96.6497035958
 20
135.1879894224
 30
0.0
 11
96.6497035958
 21
136.3719276575
 31
0.0
  0
LINE
  5
C9
330
1F
100
AcDbEntity
  8
0
  6
Continuous
 62
     7
370
    15
100
AcDbLine
 10
120.4497043769
 20
89.1234505412
 30
0.0
 11
120.4497043769
 21
137.5643129883
 31
0.0
  0
SPLINE
  5
CA
330
1F
100
AcDbEntity
  8
0
  6
Continuous
 62
     7
370
    15
100
AcDbSpline
210
0.0
220
0.0
230
1.0
 70
     8
 71
     3
 72
    24
 73
    20
 74
     0
 42
0.000000001
 43
0.00000001
 40
0.0
 40
0.0
 40
0.0
 40
0.0
 40
0.0010489815523775
 40
0.0637843212772741
 40
0.1272220630088516
 40
0.1903789073370505
 40
0.2526748662763491
 40
0.3146354150030102
 40
0.3770891884518245
 40
0.4393540587943444
 40
0.5008133488401828
 40
0.5621845177353679
 40
0.6248438462901906
 40
0.6874304788646655
 40
0.7496743245911356
 40
0.811984857412469
 40
0.8750960476811308
 40
0.9384412548145236
 40
1.0
 40
1.0
 40
1.0
 40
1.0
 10
109.2186104766713
 20
89.68637357031116
 30
0.0
 10
109.2181638109206
 20
89.68631492534467
 30
0.0
 10
109.191003874997
 20
89.68274896236399
 30
0.0
 10
109.2866337981288
 20
89.69561357183919
 30
0.0
 10
109.5201869741493
 20
89.72484805417925
 30
0.0
 10
109.9157429263837
 20
89.77146726492067
 30
0.0
 10
110.4427829267537
 20
89.82164806434584
 30
0.0
 10
111.08631336859
 20
89.86602673778889
 30
0.0
 10
111.8249872028597
 20
89.89296993429969
 30
0.0
 10
112.6225018729786
 20
89.89644168260182
 30
0.0
 10
113.4490809227431
 20
89.86881623630839
 30
0.0
 10
114.2746037441618
 20
89.81033509332975
 30
0.0
 10
115.0667302150774
 20
89.72489202993117
 30
0.0
 10
115.7993025939148
 20
89.62315686143866
 30
0.0
 10
116.4349427757355
 20
89.51531321039073
 30
0.0
 10
116.9568537062817
 20
89.4136818151159
 30
0.0
 10
117.3384825439207
 20
89.3311998508234
 30
0.0
 10
117.589297219854
 20
89.27504774331649
 30
0.0
 10
117.6184185355613
 20
89.26819889240362
 30
0.0
 10
117.632770936905
 20
89.26482344542751
 30
0.0
  0
SPLINE
  5
CB
330
1F
100
AcDbEntity
  8
0
  6
Continuous
 62
     7
370
    15
100
AcDbSpline
210
0.0
220
0.0
230
1.0
 70
     8
 71
     3
 72
    24
 73
    20
 74
     0
 42
0.000000001
 43
0.00000001
 40
0.0
 40
0.0
 40
0.0
 40
0.0
 40
0.061438429114026
 40
0.1250736777967296
 40
0.1884253375120635
 40
0.2508623992448768
 40
0.3129665476325514
 40
0.3753451442328022
 40
0.4377328732174486
 40
0.499092717251918
 40
0.560580729454827
 40
0.622946985474185
 40
0.6854686070210457
 40
0.7475477863222202
 40
0.8098225081553685
 40
0.873068419947611
 40
0.936404185690527
 40
0.9991757203144552
 40
1.0
 40
1.0
 40
1.0
 40
1.0
 10
117.6327164545344
 20
137.4229102817656
 30
0.0
 10
117.6181156460822
 20
137.4195421238926
 30
0.0
 10
117.5883919562312
 20
137.4126853748082
 30
0.0
 10
117.3356539562452
 20
137.3563475549121
 30
0.0
 10
116.9526586572241
 20
137.2734897420269
 30
0.0
 10
116.4303027003411
 20
137.1715829938058
 30
0.0
 10
115.7955183556395
 20
137.0637444239168
 30
0.0
 10
115.0652946190253
 20
136.9622781706878
 30
0.0
 10
114.2748265241142
 20
136.8772160921206
 30
0.0
 10
113.4503427966565
 20
136.8190147351639
 30
0.0
 10
112.6233064161764
 20
136.7914302874794
 30
0.0
 10
111.824981957186
 20
136.7949242160136
 30
0.0
 10
111.0851582061864
 20
136.8218778746872
 30
0.0
 10
110.4409033347268
 20
136.8662333753006
 30
0.0
 10
109.9134964776292
 20
136.9164385590234
 30
0.0
 10
109.5188312373161
 20
136.9630460190686
 30
0.0
 10
109.2863025517279
 20
136.9922491959069
 30
0.0
 10
109.1909233230617
 20
137.0050073346241
 30
0.0
 10
109.2178562673885
 20
137.0014675047054
 30
0.0
 10
109.2182053513513
 20
137.0014216241718
 30
0.0
  0
SPLINE
  5
CC
330
1F
100
AcDbEntity
  8
0
  6
Continuous
 62
     7
370
    15
100
AcDbSpline
210
0.0
220
0.0
230
1.0
 70
     8
 71
     3
 72
     9
 73
     5
 74
     0
 42
0.000000001
 43
0.00000001
 40
0.0
 40
0.0
 40
0.0
 40
0.0
 40
0.7009339503679092
 40
0.9999999999999999
 40
0.9999999999999999
 40
0.9999999999999999
 40
0.9999999999999999
 10
90.57048803937299
 20
93.64260206495533
 30
0.0
 10
90.57962871032282
 20
93.62477278119442
 30
0.0
 10
90.59266941258164
 20
93.59933631353363
 30
0.0
 10
90.60783287584992
 20
93.65321567300718
 30
0.0
 10
90.6123677529083
 20
93.66932916020164
 30
0.0
  0
LINE
  5
CD
330
1F
100
AcDbEntity
  8
0
  6
Continuous
 62
     7
370
    15
100
AcDbLine
 10
90.5497046448
 20
93.6532042411
 30
0.0
 11
90.5497046448
 21
133.0345592884
 31
0.0
  0
SPLINE
  5
CE
330
1F
100
AcDbEntity
  8
0
  6
Continuous
 62
     7
370
    15
100
AcDbSpline
210
0.0
220
0.0
230
1.0
 70
     8
 71
     3
 72
    10
 73
     6
 74
     0
 42
0.000000001
 43
0.00000001
 40
0.0
 40
0.0
 40
0.0
 40
0.0
 40
0.5
 40
0.5
 40
1.0
 40
1.0
 40
1.0
 40
1.0
 10
90.61236784666782
 20
133.0184343095385
 30
0.0
 10
90.60346355755907
 20
133.0641758287516
 30
0.0
 10
90.58694817736608
 20
133.0813666682206
 30
0.0
 10
90.55984023130448
 20
133.0810433912849
 30
0.0
 10
90.54970447194441
 20
133.0631658489885
 30
0.0
 10
90.54970447194441
 20
133.0345595112359
 30
0.0
  0
SPLINE
  5
CF
330
1F
100
AcDbEntity
  8
0
  6
Continuous
 62
     7
370
    15
100
AcDbSpline
210
0.0
220
0.0
230
1.0
 70
     8
 71
     3
 72
    26
 73
    22
 74
     0
 42
0.000000001
 43
0.00000001
 40
0.0
 40
0.0
 40
0.0
 40
0.0
 40
0.249999999999996
 40
0.249999999999996
 40
0.3749999999999944
 40
0.3749999999999944
 40
0.4374999999999944
 40
0.4374999999999944
 40
0.4687499999999969
 40
0.4687499999999969
 40
0.4999999999999993
 40
0.4999999999999993
 40
0.5312500000000017
 40
0.5312500000000017
 40
0.5625000000000041
 40
0.5625000000000041
 40
0.625000000000004
 40
0.625000000000004
 40
0.7500000000000023
 40
0.7500000000000023
 40
1.0
 40
1.0
 40
1.0
 40
1.0
 10
91.3738581180489
 20
133.7340010983555
 30
0.0
 10
91.33525759518047
 20
133.6162264020001
 30
0.0
 10
91.28896059262617
 20
133.4918367158382
 30
0.0
 10
91.19502124419226
 20
133.2866173834847
 30
0.0
 10
91.15970977727882
 20
133.2150445170383
 30
0.0
 10
91.09352980153315
 20
133.0990912844378
 30
0.0
 10
91.06899143486494
 20
133.0585067496276
 30
0.0
 10
91.02561868931112
 20
132.9943650677559
 30
0.0
 10
91.01011028788592
 20
132.9724986424708
 30
0.0
 10
90.97506764329889
 20
132.9269043741276
 30
0.0
 10
90.95551735257914
 20
132.9032340831602
 30
0.0
 10
90.91359007220855
 20
132.8586175238203
 30
0.0
 10
90.8909379619769
 20
132.8377375113024
 30
0.0
 10
90.84996424789028
 20
132.8068640975515
 30
0.0
 10
90.83236494799486
 20
132.7970252277191
 30
0.0
 10
90.78773796213868
 20
132.7780356120229
 30
0.0
 10
90.76717873948536
 20
132.7777112873695
 30
0.0
 10
90.71605329998869
 20
132.7869347282457
 30
0.0
 10
90.69514188700015
 20
132.8081816244626
 30
0.0
 10
90.6436919794392
 20
132.8821505032934
 30
0.0
 10
90.62602668013464
 20
132.9482685966082
 30
0.0
 10
90.61236784666782
 20
133.0184343095385
 30
0.0
  0
SPLINE
  5
D0
330
1F
100
AcDbEntity
  8
0
  6
Continuous
 62
     7
370
    15
100
AcDbSpline
210
0.0
220
0.0
230
1.0
 70
     8
 71
     3
 72
    10
 73
     6
 74
     0
 42
0.000000001
 43
0.00000001
 40
0.0
 40
0.0
 40
0.0
 40
0.0
 40
0.5
 40
0.5
 40
1.0
 40
1.0
 40
1.0
 40
1.0
 10
91.6896595415262
 20
134.2038356570453
 30
0.0
 10
91.62210028660795
 20
134.1361442642356
 30
0.0
 10
91.55846363127147
 20
134.061437099482
 30
0.0
 10
91.4482428766996
 20
133.9024709670553
 30
0.0
 10
91.40142658347698
 20
133.8181157010473
 30
0.0
 10
91.3738581180489
 20
133.7340010983556
 30
0.0
  0
SPLINE
  5
D1
330
1F
100
AcDbEntity
  8
0
  6
Continuous
 62
     7
370
    15
100
AcDbSpline
210
0.0
220
0.0
230
1.0
 70
     8
 71
     3
 72
    10
 73
     6
 74
     0
 42
0.000000001
 43
0.00000001
 40
0.0
 40
0.0
 40
0.0
 40
0.0
 40
0.5
 40
0.5
 40
1.0
 40
1.0
 40
1.0
 40
1.0
 10
91.37385811804894
 20
92.95376243115977
 30
0.0
 10
91.40133553280292
 20
92.86992563469187
 30
0.0
 10
91.44804416309233
 20
92.78561514710273
 30
0.0
 10
91.55832262583831
 20
92.62649391661601
 30
0.0
 10
91.62221016445221
 20
92.55150917252638
 30
0.0
 10
91.68965954153681
 20
92.48392787245943
 30
0.0
  0
SPLINE
  5
D2
330
1F
100
AcDbEntity
  8
0
  6
Continuous
 62
     7
370
    15
100
AcDbSpline
210
0.0
220
0.0
230
1.0
 70
     8
 71
     3
 72
    24
 73
    20
 74
     0
 42
0.000000001
 43
0.00000001
 40
0.0
 40
0.0
 40
0.0
 40
0.0
 40
0.2500000000000114
 40
0.2500000000000114
 40
0.3750000000000163
 40
0.3750000000000163
 40
0.4375000000000177
 40
0.4375000000000177
 40
0.4687500000000166
 40
0.4687500000000166
 40
0.5000000000000155
 40
0.5000000000000155
 40
0.5625000000000157
 40
0.5625000000000157
 40
0.6250000000000157
 40
0.6250000000000157
 40
0.7500000000000099
 40
0.7500000000000099
 40
1.0
 40
1.0
 40
1.0
 40
1.0
 10
90.61236784666782
 20
93.66932921997699
 30
0.0
 10
90.62612096533802
 20
93.73997927796727
 30
0.0
 10
90.6438935327439
 20
93.8065773907322
 30
0.0
 10
90.69614462429927
 20
93.8806754109654
 30
0.0
 10
90.71717969988083
 20
93.90193321812696
 30
0.0
 10
90.77008010750929
 20
93.91007914427318
 30
0.0
 10
90.7911857803872
 20
93.90913934087742
 30
0.0
 10
90.83723794906514
 20
93.88812334930005
 30
0.0
 10
90.85560842104853
 20
93.87721454319245
 30
0.0
 10
90.89716005611425
 20
93.84457963224507
 30
0.0
 10
90.91972672887117
 20
93.82308765187372
 30
0.0
 10
90.9825077453312
 20
93.75462170828739
 30
0.0
 10
91.01563750629907
 20
93.70854725008229
 30
0.0
 10
91.0725551927841
 20
93.62353936174763
 30
0.0
 10
91.09674121828785
 20
93.58325906056625
 30
0.0
 10
91.1619491686676
 20
93.4683228341003
 30
0.0
 10
91.19666522885886
 20
93.39773984895331
 30
0.0
 10
91.28988049918972
 20
93.1935340898747
 30
0.0
 10
91.3355530345504
 20
93.07063570754734
 30
0.0
 10
91.37385811804894
 20
92.95376243115977
 30
0.0
  0
SPLINE
  5
D3
330
1F
100
AcDbEntity
  8
0
  6
Continuous
 62
     7
370
    15
100
AcDbSpline
210
0.0
220
0.0
230
1.0
 70
     8
 71
     3
 72
     8
 73
     4
 74
     0
 42
0.000000001
 43
0.00000001
 40
0.0
 40
0.0
 40
0.0
 40
0.0
 40
1.0
 40
1.0
 40
1.0
 40
1.0
 10
143.8416373034335
 20
143.811077237922
 30
0.0
 10
143.3464972740692
 20
142.9243975897417
 30
0.0
 10
142.8524145687902
 20
142.0371349540557
 30
0.0
 10
142.3597044719444
 20
141.1491159559293
 30
0.0
  0
LINE
  5
D4
330
1F
100
AcDbEntity
  8
0
  6
Continuous
 62
     7
370
    15
100
AcDbLine
 10
143.8416363932
 20
137.8025713799
 30
0.0
 11
143.8416363932
 21
143.8110772011
 31
0.0
  0
SPLINE
  5
D5
330
1F
100
AcDbEntity
  8
0
  6
Continuous
 62
     7
370
    15
100
AcDbSpline
210
0.0
220
0.0
230
1.0
 70
     8
 71
     3
 72
     8
 73
     4
 74
     0
 42
0.000000001
 43
0.00000001
 40
0.0
 40
0.0
 40
0.0
 40
0.0
 40
1.0
 40
1.0
 40
1.0
 40
1.0
 10
142.3597044719444
 20
134.394025432341
 30
0.0
 10
142.8389826225342
 20
135.5350366621936
 30
0.0
 10
143.3345504616742
 20
136.6714210729615
 30
0.0
 10
143.8416373034335
 20
137.8025714271251
 30
0.0
  0
LINE
  5
D6
330
1F
100
AcDbEntity
  8
0
  6
Continuous
 62
     7
370
    15
100
AcDbLine
 10
142.3597047366
 20
134.3940257517
 30
0.0
 11
142.3597047366
 21
141.149115139
 31
0.0
  0
LINE
  5
D7
330
1F
100
AcDbEntity
  8
0
  6
Continuous
 62
     7
370
    15
100
AcDbLine
 10
147.7997051812
 20
143.8110772011
 30
0.0
 11
143.8416363932
 21
143.8110772011
 31
0.0
  0
LINE
  5
D8
330
1F
100
AcDbEntity
  8
0
  6
Continuous
 62
     7
370
    15
100
AcDbLine
 10
143.8416363932
 20
137.8025713799
 30
0.0
 11
147.7997051812
 21
137.8025713799
 31
0.0
  0
SPLINE
  5
D9
330
1F
100
AcDbEntity
  8
0
  6
Continuous
 62
     7
370
    15
100
AcDbSpline
210
0.0
220
0.0
230
1.0
 70
     8
 71
     3
 72
     8
 73
     4
 74
     0
 42
0.000000001
 43
0.00000001
 40
0.0
 40
0.0
 40
0.0
 40
0.0
 40
1.0
 40
1.0
 40
1.0
 40
1.0
 10
137.0577716404553
 20
137.8025714271251
 30
0.0
 10
137.5648584822146
 20
136.6714210729615
 30
0.0
 10
138.0604263213546
 20
135.5350366621936
 30
0.0
 10
138.5397044719444
 20
134.3940254323411
 30
0.0
  0
LINE
  5
DA
330
1F
100
AcDbEntity
  8
0
  6
Continuous
 62
     7
370
    15
100
AcDbLine
 10
138.5397045202
 20
134.3940257517
 30
0.0
 11
138.5397045202
 21
133.4797482428
 31
0.0
  0
SPLINE
  5
DB
330
1F
100
AcDbEntity
  8
0
  6
Continuous
 62
     7
370
    15
100
AcDbSpline
210
0.0
220
0.0
230
1.0
 70
     8
 71
     3
 72
     8
 73
     4
 74
     0
 42
0.000000001
 43
0.00000001
 40
0.0
 40
0.0
 40
0.0
 40
0.0
 40
1.0
 40
1.0
 40
1.0
 40
1.0
 10
138.5397044719444
 20
141.1491159559293
 30
0.0
 10
138.0469943750986
 20
142.0371349540557
 30
0.0
 10
137.5529116698197
 20
142.9243975897417
 30
0.0
 10
137.0577716404553
 20
143.811077237922
 30
0.0
  0
LINE
  5
DC
330
1F
100
AcDbEntity
  8
0
  6
Continuous
 62
     7
370
    15
100
AcDbLine
 10
138.5397045202
 20
134.3940257517
 30
0.0
 11
138.5397045202
 21
141.149115139
 31
0.0
  0
SPLINE
  5
DD
330
1F
100
AcDbEntity
  8
0
  6
Continuous
 62
     7
370
    15
100
AcDbSpline
210
0.0
220
0.0
230
1.0
 70
     8
 71
     3
 72
    10
 73
     6
 74
     0
 42
0.000000001
 43
0.00000001
 40
0.0
 40
0.0
 40
0.0
 40
0.0
 40
0.5
 40
0.5
 40
1.0
 40
1.0
 40
1.0
 40
1.0
 10
148.3997044719444
 20
143.1903220885216
 30
0.0
 10
148.3997044719444
 20
143.3507273548724
 30
0.0
 10
148.3374666408376
 20
143.509789167861
 30
0.0
 10
148.118331717095
 20
143.7407016334913
 30
0.0
 10
147.9607430221031
 20
143.811077237922
 30
0.0
 10
147.7997044719444
 20
143.811077237922
 30
0.0
  0
SPLINE
  5
DE
330
1F
100
AcDbEntity
  8
0
  6
Continuous
 62
     7
370
    15
100
AcDbSpline
210
0.0
220
0.0
230
1.0
 70
     8
 71
     3
 72
    12
 73
     8
 74
     0
 42
0.000000001
 43
0.00000001
 40
0.0
 40
0.0
 40
0.0
 40
0.0
 40
0.249999999999998
 40
0.249999999999998
 40
0.499999999999996
 40
0.499999999999996
 40
1.0
 40
1.0
 40
1.0
 40
1.0
 10
147.7997044719444
 20
137.8025714271251
 30
0.0
 10
147.8909041937701
 20
137.8025714271251
 30
0.0
 10
147.9814992029061
 20
137.7743517285373
 30
0.0
 10
148.1349119293527
 20
137.6799087212892
 30
0.0
 10
148.2001207966764
 20
137.6136217445839
 30
0.0
 10
148.3529053260163
 20
137.3879969212956
 30
0.0
 10
148.3997044719444
 20
137.205570658263
 30
0.0
 10
148.3997044719444
 20
137.0248340260161
 30
0.0
  0
LINE
  5
DF
330
1F
100
AcDbEntity
  8
0
  6
Continuous
 62
     7
370
    15
100
AcDbLine
 10
148.399704162
 20
137.0248332111
 30
0.0
 11
148.399704162
 21
143.1903227655
 31
0.0
  0
LINE
  5
E0
330
1F
100
AcDbEntity
  8
0
  6
Continuous
 62
     7
370
    15
100
AcDbLine
 10
142.3597047366
 20
133.4797482428
 30
0.0
 11
142.3597047366
 21
134.3940257517
 31
0.0
  0
LINE
  5
E1
330
1F
100
AcDbEntity
  8
0
  6
Continuous
 62
     7
370
    15
100
AcDbLine
 10
148.399704162
 20
137.0248332111
 30
0.0
 11
148.399704162
 21
133.1938825039
 31
0.0
  0
LINE
  5
E2
330
1F
100
AcDbEntity
  8
0
  6
Continuous
 62
     7
370
    15
100
AcDbLine
 10
222.4497059621
 20
113.3438817648
 30
0.0
 11
222.4497059621
 21
97.6438823578
 31
0.0
  0
LINE
  5
E3
330
1F
100
AcDbEntity
  8
0
  6
Continuous
 62
     7
370
    15
100
AcDbLine
 10
222.4497059621
 20
129.0438811717
 30
0.0
 11
222.4497059621
 21
113.3438817648
 31
0.0
  0
LINE
  5
E4
330
1F
100
AcDbEntity
  8
0
  6
Continuous
 62
     7
370
    15
100
AcDbLine
 10
222.1497008837
 20
113.3438817648
 30
0.0
 11
222.1497008837
 21
97.3438810048
 31
0.0
  0
LINE
  5
E5
330
1F
100
AcDbEntity
  8
0
  6
Continuous
 62
     7
370
    15
100
AcDbLine
 10
222.1497008837
 20
129.3438825247
 30
0.0
 11
222.1497008837
 21
113.3438817648
 31
0.0
  0
SPLINE
  5
E6
330
1F
100
AcDbEntity
  8
0
  6
Continuous
 62
     7
370
    15
100
AcDbSpline
210
0.0
220
0.0
230
1.0
 70
     8
 71
     3
 72
    20
 73
    16
 74
     0
 42
0.000000001
 43
0.00000001
 40
0.0
 40
0.0
 40
0.0
 40
0.0
 40
0.0554232402200426
 40
0.1401385396558952
 40
0.2305252094304417
 40
0.3330021367921495
 40
0.4481397464378231
 40
0.5701545415553139
 40
0.6311216812662359
 40
0.6939033314709996
 40
0.7538926080003527
 40
0.8159225796501883
 40
0.8708968445103878
 40
0.9280541766433156
 40
0.9999999999999999
 40
0.9999999999999999
 40
0.9999999999999999
 40
0.9999999999999999
 10
215.344869557737
 20
129.3309036133171
 30
0.0
 10
215.3492183484435
 20
129.3318822249005
 30
0.0
 10
215.3602143345399
 20
129.3343566597701
 30
0.0
 10
214.8881701371539
 20
129.2244328113583
 30
0.0
 10
214.0360633951669
 20
129.0515299952433
 30
0.0
 10
212.7634461394851
 20
128.8536560037645
 30
0.0
 10
211.1417267045603
 20
128.7182011794402
 30
0.0
 10
209.6450946266596
 20
128.7296234105441
 30
0.0
 10
208.4776279696692
 20
128.8177142931699
 30
0.0
 10
207.6578405066131
 20
128.9141556278518
 30
0.0
 10
206.9152576612586
 20
129.0294674410465
 30
0.0
 10
206.3046393522837
 20
129.1439757464345
 30
0.0
 10
205.8387101507662
 20
129.2422932752507
 30
0.0
 10
205.4713950154673
 20
129.3265275478287
 30
0.0
 10
205.455785137316
 20
129.3305026235867
 30
0.0
 10
205.4470861591087
 20
129.3327178296925
 30
0.0
  0
SPLINE
  5
E7
330
1F
100
AcDbEntity
  8
0
  6
Continuous
 62
     7
370
    15
100
AcDbSpline
210
0.0
220
0.0
230
1.0
 70
    11
 71
     3
 72
    82
 73
    78
 74
     0
 42
0.000000001
 43
0.00000001
 40
0.0
 40
0.0
 40
0.0
 40
0.0
 40
0.0312499999999985
 40
0.0312499999999985
 40
0.0624999999999971
 40
0.0624999999999971
 40
0.0937499999999956
 40
0.0937499999999956
 40
0.1249999999999942
 40
0.1249999999999942
 40
0.1562499999999927
 40
0.1562499999999927
 40
0.1874999999999913
 40
0.1874999999999913
 40
0.2187499999999898
 40
0.2187499999999898
 40
0.2343749999999897
 40
0.2343749999999897
 40
0.2499999999999895
 40
0.2499999999999895
 40
0.2812499999999891
 40
0.2812499999999891
 40
0.2968749999999894
 40
0.2968749999999894
 40
0.3124999999999897
 40
0.3124999999999897
 40
0.3437499999999901
 40
0.3437499999999901
 40
0.3593749999999902
 40
0.3593749999999902
 40
0.3749999999999902
 40
0.3749999999999902
 40
0.3906249999999903
 40
0.3906249999999903
 40
0.4062499999999903
 40
0.4062499999999903
 40
0.4374999999999908
 40
0.4374999999999908
 40
0.4687499999999914
 40
0.4687499999999914
 40
0.4999999999999919
 40
0.4999999999999919
 40
0.5312499999999925
 40
0.5312499999999925
 40
0.5624999999999929
 40
0.5624999999999929
 40
0.5937499999999934
 40
0.5937499999999934
 40
0.624999999999994
 40
0.624999999999994
 40
0.6562499999999944
 40
0.6562499999999944
 40
0.687499999999995
 40
0.687499999999995
 40
0.7187499999999956
 40
0.7187499999999956
 40
0.749999999999996
 40
0.749999999999996
 40
0.7812499999999966
 40
0.7812499999999966
 40
0.8124999999999971
 40
0.8124999999999971
 40
0.8281249999999973
 40
0.8281249999999973
 40
0.8437499999999977
 40
0.8437499999999977
 40
0.8749999999999983
 40
0.8749999999999983
 40
0.8906249999999988
 40
0.8906249999999988
 40
0.9062499999999991
 40
0.9062499999999991
 40
0.9374999999999994
 40
0.9374999999999994
 40
0.9687499999999997
 40
0.9687499999999997
 40
1.0
 40
1.0
 40
1.0
 40
1.0
 10
207.0795214477626
 20
116.6162803315054
 30
0.0
 10
207.3225789726407
 20
116.8063208543603
 30
0.0
 10
207.5796660696104
 20
116.9707165233912
 30
0.0
 10
208.1195759934339
 20
117.2533869293546
 30
0.0
 10
208.4040321819939
 20
117.3721102340841
 30
0.0
 10
208.9923739682129
 20
117.5605744067969
 30
0.0
 10
209.2912897869895
 20
117.6290296980333
 30
0.0
 10
209.8982653984582
 20
117.7167988239401
 30
0.0
 10
210.2089455824663
 20
117.7359845339461
 30
0.0
 10
210.8269568095592
 20
117.7230183975742
 30
0.0
 10
211.1319406949713
 20
117.6914043689058
 30
0.0
 10
211.7340308787176
 20
117.5786992478333
 30
0.0
 10
212.0338232451149
 20
117.4965541939824
 30
0.0
 10
212.6110484464565
 20
117.283830123991
 30
0.0
 10
212.8869732717554
 20
117.1544229707968
 30
0.0
 10
213.2817425281652
 20
116.9249739183543
 30
0.0
 10
213.4101252200325
 20
116.8425617746226
 30
0.0
 10
213.6601762730319
 20
116.6652012120344
 30
0.0
 10
213.7822389406182
 20
116.5698228845973
 30
0.0
 10
214.1299623156567
 20
116.2702501630831
 30
0.0
 10
214.339891201836
 20
116.0512348750273
 30
0.0
 10
214.6202514343091
 20
115.6917017405431
 30
0.0
 10
214.707906603813
 20
115.5666511439142
 30
0.0
 10
214.8706976810811
 20
115.3052198596495
 30
0.0
 10
214.9455731859951
 20
115.1689564860901
 30
0.0
 10
215.1440789869827
 20
114.7542199002233
 30
0.0
 10
215.2443299903445
 20
114.4661925711012
 30
0.0
 10
215.3432630106198
 20
114.0154948565494
 30
0.0
 10
215.3676764346845
 20
113.8608652214511
 30
0.0
 10
215.397165925713
 20
113.5520561543465
 30
0.0
 10
215.4024162395837
 20
113.3980631764365
 30
0.0
 10
215.3943982633516
 20
113.0908803095869
 30
0.0
 10
215.3811291325162
 20
112.9376904565074
 30
0.0
 10
215.3359343529284
 20
112.6321189074835
 30
0.0
 10
215.3036777442411
 20
112.478800669921
 30
0.0
 10
215.1812606008394
 20
112.0311355349347
 30
0.0
 10
215.0658742095141
 20
111.7465417143771
 30
0.0
 10
214.7718903464966
 20
111.2030144337832
 30
0.0
 10
214.595468536286
 20
110.9491258883972
 30
0.0
 10
214.1972504958028
 20
110.4842198431692
 30
0.0
 10
213.9719836858829
 20
110.2697654679789
 30
0.0
 10
213.4905178560747
 20
109.8910240154955
 30
0.0
 10
213.2336497286179
 20
109.7252044370303
 30
0.0
 10
212.6887304356599
 20
109.4381943059324
 30
0.0
 10
212.4025617520474
 20
109.3185617517065
 30
0.0
 10
211.8191200663323
 20
109.130473184214
 30
0.0
 10
211.5196723252041
 20
109.0608447497928
 30
0.0
 10
210.904942161088
 20
108.9710845259762
 30
0.0
 10
210.5964236147188
 20
108.952096088949
 30
0.0
 10
209.9825113994648
 20
108.9641033312338
 30
0.0
 10
209.6762283723807
 20
108.9949649704157
 30
0.0
 10
209.0650683684581
 20
109.1088800115307
 30
0.0
 10
208.7687226814116
 20
109.1903708383862
 30
0.0
 10
208.1950323334129
 20
109.4011624560906
 30
0.0
 10
207.9172768628649
 20
109.5305805295238
 30
0.0
 10
207.3825711238436
 20
109.8412564806743
 30
0.0
 10
207.1337042266483
 20
110.0177782415603
 30
0.0
 10
206.6730654807624
 20
110.4141629284555
 30
0.0
 10
206.4603882545981
 20
110.6350476252242
 30
0.0
 10
206.0808503448928
 20
111.1224991388745
 30
0.0
 10
205.9196187250727
 20
111.3814772275633
 30
0.0
 10
205.7221053826961
 20
111.7939754316256
 30
0.0
 10
205.6637129996325
 20
111.9355095073242
 30
0.0
 10
205.5628750110382
 20
112.2272637509337
 30
0.0
 10
205.5203739877423
 20
112.3783172972826
 30
0.0
 10
205.4218361688952
 20
112.8313805467349
 30
0.0
 10
205.3927388607966
 20
113.137117551288
 30
0.0
 10
205.4052666084479
 20
113.6014086612967
 30
0.0
 10
205.4191168263191
 20
113.7580143782703
 30
0.0
 10
205.4651473102896
 20
114.0645432695342
 30
0.0
 10
205.4972450755375
 20
114.2153497893294
 30
0.0
 10
205.6197401433031
 20
114.6606981002321
 30
0.0
 10
205.7381699664903
 20
114.9513150235915
 30
0.0
 10
206.0324136242235
 20
115.4922254772756
 30
0.0
 10
206.2077842104406
 20
115.7442034564444
 30
0.0
 10
206.6118912520969
 20
116.2137911963197
 30
0.0
 10
206.8364639228845
 20
116.4262398086505
 30
0.0
 10
207.0795214477626
 20
116.6162803315054
 30
0.0
  0
LINE
  5
E8
330
1F
100
AcDbEntity
  8
0
  6
Continuous
 62
     7
370
    15
100
AcDbLine
 10
213.6997068561
 20
129.3438825247
 30
0.0
 11
207.0997068919
 21
129.3438825247
 31
0.0
  0
SPLINE
  5
E9
330
1F
100
AcDbEntity
  8
0
  6
Continuous
 62
     7
370
    15
100
AcDbSpline
210
0.0
220
0.0
230
1.0
 70
     8
 71
     3
 72
    10
 73
     6
 74
     0
 42
0.000000001
 43
0.00000001
 40
0.0
 40
0.0
 40
0.0
 40
0.0
 40
0.4391227832433116
 40
0.7513719514425652
 40
1.0
 40
1.0
 40
1.0
 40
1.0
 10
210.2139825261818
 20
115.645802901435
 30
0.0
 10
209.941884291466
 20
115.4580059228224
 30
0.0
 10
209.4763038447115
 20
115.1366712353963
 30
0.0
 10
208.7995063001864
 20
114.6695578220394
 30
0.0
 10
208.4626483471375
 20
114.4370632822872
 30
0.0
 10
208.3133245147453
 20
114.334002109553
 30
0.0
  0
SPLINE
  5
EA
330
1F
100
AcDbEntity
  8
0
  6
Continuous
 62
     7
370
    15
100
AcDbSpline
210
0.0
220
0.0
230
1.0
 70
     8
 71
     3
 72
    10
 73
     6
 74
     0
 42
0.000000001
 43
0.00000001
 40
0.0
 40
0.0
 40
0.0
 40
0.0
 40
0.4391222187156623
 40
0.7513712054534089
 40
1.0
 40
1.0
 40
1.0
 40
1.0
 10
208.3133245147453
 20
114.334002109553
 30
0.0
 10
208.3399134518241
 20
114.0044598417513
 30
0.0
 10
208.3854091267254
 20
113.4405881895032
 30
0.0
 10
208.4515299394048
 20
112.6209060377353
 30
0.0
 10
208.4844514987348
 20
112.2129304810154
 30
0.0
 10
208.4990451372848
 20
112.0320809728757
 30
0.0
  0
SPLINE
  5
EB
330
1F
100
AcDbEntity
  8
0
  6
Continuous
 62
     7
370
    15
100
AcDbSpline
210
0.0
220
0.0
230
1.0
 70
     8
 71
     3
 72
    11
 73
     7
 74
     0
 42
0.000000001
 43
0.00000001
 40
0.0
 40
0.0
 40
0.0
 40
0.0
 40
0.1849294430888866
 40
0.5198471272506583
 40
0.8714432834927743
 40
1.0
 40
1.0
 40
1.0
 40
1.0
 10
208.4990451372848
 20
112.0320809728757
 30
0.0
 10
208.6204811182674
 20
111.9744509560018
 30
0.0
 10
208.9618445312761
 20
111.8124497180435
 30
0.0
 10
209.5990694526488
 20
111.5100519155713
 30
0.0
 10
210.1875699387909
 20
111.2307669053602
 30
0.0
 10
210.5013988384277
 20
111.0818356612513
 30
0.0
 10
210.5854237712608
 20
111.0419606280805
 30
0.0
  0
SPLINE
  5
EC
330
1F
100
AcDbEntity
  8
0
  6
Continuous
 62
     7
370
    15
100
AcDbSpline
210
0.0
220
0.0
230
1.0
 70
     8
 71
     3
 72
    10
 73
     6
 74
     0
 42
0.000000001
 43
0.00000001
 40
0.0
 40
0.0
 40
0.0
 40
0.0
 40
0.4391217417900073
 40
0.7513701694380065
 40
1.0
 40
1.0
 40
1.0
 40
1.0
 10
210.5854237712608
 20
111.0419606280805
 30
0.0
 10
210.8575221715421
 20
111.2297574596009
 30
0.0
 10
211.3231029015914
 20
111.5510918953414
 30
0.0
 10
211.9999004928778
 20
112.0182078010402
 30
0.0
 10
212.3367627153302
 20
112.2507005110299
 30
0.0
 10
212.4860892332779
 20
112.3537614199624
 30
0.0
  0
SPLINE
  5
ED
330
1F
100
AcDbEntity
  8
0
  6
Continuous
 62
     7
370
    15
100
AcDbSpline
210
0.0
220
0.0
230
1.0
 70
     8
 71
     3
 72
    10
 73
     6
 74
     0
 42
0.000000001
 43
0.00000001
 40
0.0
 40
0.0
 40
0.0
 40
0.0
 40
0.4391222115891987
 40
0.7513714412409466
 40
1.0
 40
1.0
 40
1.0
 40
1.0
 10
212.4860892332779
 20
112.3537614199624
 30
0.0
 10
212.459502048709
 20
112.6833038235951
 30
0.0
 10
212.41400935747
 20
113.2471758943595
 30
0.0
 10
212.3478720464191
 20
114.0668568037717
 30
0.0
 10
212.3149586269757
 20
114.4748329576123
 30
0.0
 10
212.3003686107384
 20
114.6556825566397
 30
0.0
  0
SPLINE
  5
EE
330
1F
100
AcDbEntity
  8
0
  6
Continuous
 62
     7
370
    15
100
AcDbSpline
210
0.0
220
0.0
230
1.0
 70
     8
 71
     3
 72
    11
 73
     7
 74
     0
 42
0.000000001
 43
0.00000001
 40
0.0
 40
0.0
 40
0.0
 40
0.0
 40
0.1285563699690005
 40
0.480154385435466
 40
0.8150684342788194
 40
1.0
 40
1.0
 40
1.0
 40
1.0
 10
212.3003686107384
 20
114.6556825566397
 30
0.0
 10
212.2163437268001
 20
114.6955576359187
 30
0.0
 10
211.9025131751257
 20
114.8444899228991
 30
0.0
 10
211.3140091456429
 20
115.1237693733935
 30
0.0
 10
210.6767872007097
 20
115.4261750827859
 30
0.0
 10
210.3354211815152
 20
115.588173174601
 30
0.0
 10
210.2139825261818
 20
115.645802901435
 30
0.0
  0
CIRCLE
  5
EF
330
1F
100
AcDbEntity
  8
0
  6
Continuous
 62
     7
370
    15
100
AcDbCircle
 10
210.3997044719
 20
113.3438817648
 30
0.0
 40
2.399999999999985
  0
CIRCLE
  5
F0
330
1F
100
AcDbEntity
  8
0
  6
Continuous
 62
     7
370
    15
100
AcDbCircle
 10
210.3997044719
 20
113.3438817648
 30
0.0
 40
3.999999999999992
  0
CIRCLE
  5
F1
330
1F
100
AcDbEntity
  8
0
  6
Continuous
 62
     7
370
    15
100
AcDbCircle
 10
210.3997044719
 20
113.3438817648
 30
0.0
 40
3.3
  0
ARC
  5
F2
330
1F
100
AcDbEntity
  8
0
  6
Continuous
 62
     7
370
    15
100
AcDbCircle
 10
210.3997044719
 20
113.3438817648
 30
0.0
 40
2.000000000000003
100
AcDbArc
 50
304.6127145043
 51
4.6127145043
  0
ARC
  5
F3
330
1F
100
AcDbEntity
  8
0
  6
Continuous
 62
     7
370
    15
100
AcDbCircle
 10
210.3997044719
 20
113.3438817648
 30
0.0
 40
2.000000000000002
100
AcDbArc
 50
244.6127145043
 51
304.6127145043
  0
ARC
  5
F4
330
1F
100
AcDbEntity
  8
0
  6
Continuous
 62
     7
370
    15
100
AcDbCircle
 10
210.3997044719
 20
113.3438817648
 30
0.0
 40
2.00000000000001
100
AcDbArc
 50
124.6127145043
 51
184.6127145043
  0
ARC
  5
F5
330
1F
100
AcDbEntity
  8
0
  6
Continuous
 62
     7
370
    15
100
AcDbCircle
 10
210.3997044719
 20
113.3438817648
 30
0.0
 40
2.000000000000003
100
AcDbArc
 50
184.6127145043
 51
244.6127145043
  0
ARC
  5
F6
330
1F
100
AcDbEntity
  8
0
  6
Continuous
 62
     7
370
    15
100
AcDbCircle
 10
210.3997044719
 20
113.3438817648
 30
0.0
 40
2.000000000000003
100
AcDbArc
 50
4.6127145043
 51
64.6127145043
  0
ARC
  5
F7
330
1F
100
AcDbEntity
  8
0
  6
Continuous
 62
     7
370
    15
100
AcDbCircle
 10
210.3997044719
 20
113.3438817648
 30
0.0
 40
2.00000000000001
100
AcDbArc
 50
64.6127145043
 51
124.6127145043
  0
LINE
  5
F8
330
1F
100
AcDbEntity
  8
0
  6
Continuous
 62
     7
370
     0
100
AcDbLine
 10
147.7997051812
 20
83.1569641319
 30
0.0
 11
147.7997051812
 21
133.1938825039
 31
0.0
  0
LINE
  5
F9
330
1F
100
AcDbEntity
  8
0
  6
Continuous
 62
     7
370
     0
100
AcDbLine
 10
122.7497044862
 20
81.8438812581
 30
0.0
 11
122.7497044862
 21
144.8438822714
 31
0.0
  0
LINE
  5
FA
330
1F
100
AcDbEntity
  8
0
  6
Continuous
 62
     7
370
     0
100
AcDbLine
 10
141.5597042329
 20
86.9438819078
 30
0.0
 11
141.5597042329
 21
139.7438816217
 31
0.0
  0
LINE
  5
FB
330
1F
100
AcDbEntity
  8
0
  6
Continuous
 62
     7
370
     0
100
AcDbLine
 10
139.3397050239
 20
86.9438819078
 30
0.0
 11
139.3397050239
 21
139.7438816217
 31
0.0
  0
LINE
  5
FC
330
1F
100
AcDbEntity
  8
0
  6
Continuous
 62
     7
370
     0
100
AcDbLine
 10
134.6453251578
 20
137.8025713799
 30
0.0
 11
134.6453251578
 21
133.1938825039
 31
0.0
  0
LINE
  5
FD
330
1F
100
AcDbEntity
  8
0
  6
Continuous
 62
     7
370
     0
100
AcDbLine
 10
121.9496976961
 20
89.3734510479
 30
0.0
 11
121.9496976961
 21
137.3143124816
 31
0.0
  0
LINE
  5
FE
330
1F
100
AcDbEntity
  8
0
  6
Continuous
 62
     7
370
     0
100
AcDbLine
 10
91.6896602399
 20
92.4839287487
 30
0.0
 11
91.6896602399
 21
134.2038347808
 31
0.0
  0
LINE
  5
FF
330
1F
100
AcDbEntity
  8
0
  6
Continuous
 62
     7
370
     0
100
AcDbLine
 10
121.3064173031
 20
89.3530066547
 30
0.0
 11
121.3064173031
 21
137.3347568748
 31
0.0
  0
LINE
  5
100
330
1F
100
AcDbEntity
  8
0
  6
Continuous
 62
     7
370
     0
100
AcDbLine
 10
121.4617087068
 20
89.3734510479
 30
0.0
 11
121.4617087068
 21
137.3143124816
 31
0.0
  0
LINE
  5
101
330
1F
100
AcDbEntity
  8
0
  6
Continuous
 62
     7
370
     0
100
AcDbLine
 10
147.7997051812
 20
137.8025713799
 30
0.0
 11
147.7997051812
 21
143.8110772011
 31
0.0
  0
LINE
  5
102
330
1F
100
AcDbEntity
  8
0
  6
Continuous
 62
     7
370
     0
100
AcDbLine
 10
151.3997046537
 20
129.3438825247
 30
0.0
 11
151.3997046537
 21
97.3438810048
 31
0.0
  0
LINE
  5
103
330
1F
100
AcDbEntity
  8
0
  6
Continuous
 62
     7
370
     0
100
AcDbLine
 10
99.249704767
 20
92.647567713
 30
0.0
 11
96.9811799265
 21
92.647567713
 31
0.0
  0
LINE
  5
104
330
1F
100
AcDbEntity
  8
0
  6
Continuous
 62
     7
370
     0
100
AcDbLine
 10
99.249704767
 20
92.4738816408
 30
0.0
 11
99.249704767
 21
92.647567713
 31
0.0
  0
LINE
  5
105
330
1F
100
AcDbEntity
  8
0
  6
Continuous
 62
     7
370
     0
100
AcDbLine
 10
90.6123677529
 20
133.0184343693
 30
0.0
 11
91.3738580681
 21
133.7340011684
 31
0.0
  0
LINE
  5
106
330
1F
100
AcDbEntity
  8
0
  6
Continuous
 62
     7
370
     0
100
AcDbLine
 10
91.3738580681
 20
92.9537623612
 30
0.0
 11
90.6123677529
 21
93.6693291602
 31
0.0
  0
ARC
  5
107
330
1F
100
AcDbEntity
  8
0
  6
Continuous
 62
     7
370
     0
100
AcDbCircle
 10
99.2512204039
 20
91.1736811894
 30
0.0
 40
1.473887302894141
100
AcDbArc
 50
65.1155624511
 51
90.0589187627
  0
LINE
  5
108
330
1F
100
AcDbEntity
  8
0
  6
Continuous
 62
     7
370
     0
100
AcDbLine
 10
99.249704767
 20
92.647567713
 30
0.0
 11
99.249704767
 21
92.9574131456
 31
0.0
  0
LINE
  5
109
330
1F
100
AcDbEntity
  8
0
  6
Continuous
 62
     7
370
     0
100
AcDbLine
 10
95.2497041113
 20
134.2138818887
 30
0.0
 11
95.2497041113
 21
134.166969308
 31
0.0
  0
LINE
  5
10A
330
1F
100
AcDbEntity
  8
0
  6
HIDDEN
 62
     7
370
     0
100
AcDbLine
 10
137.0577719323
 20
137.8025713799
 30
0.0
 11
137.0577719323
 21
133.1938825039
 31
0.0
  0
LINE
  5
10B
330
1F
100
AcDbEntity
  8
0
  6
HIDDEN
 62
     7
370
     0
100
AcDbLine
 10
110.444854971
 20
89.8192826149
 30
0.0
 11
110.1931967102
 21
89.795761132
 31
0.0
  0
LINE
  5
10C
330
1F
100
AcDbEntity
  8
0
  6
HIDDEN
 62
     7
370
     0
100
AcDbLine
 10
110.0705052055
 20
136.9033123789
 30
0.0
 11
110.4447618387
 21
136.8684641508
 31
0.0
  0
SPLINE
  5
10D
330
1F
100
AcDbEntity
  8
0
  6
HIDDEN
 62
     7
370
     0
100
AcDbSpline
210
0.0
220
0.0
230
1.0
 70
     8
 71
     3
 72
    10
 73
     6
 74
     0
 42
0.000000001
 43
0.00000001
 40
0.0
 40
0.0
 40
0.0
 40
0.0
 40
0.4476904421849672
 40
0.895364222045466
 40
1.0
 40
1.0
 40
1.0
 40
1.0
 10
116.2047065123604
 20
133.1814102319361
 30
0.0
 10
116.4514058922107
 20
133.210921781853
 30
0.0
 10
116.9447954701536
 20
133.2699437833141
 30
0.0
 10
117.2338052297945
 20
133.2838848748544
 30
0.0
 10
117.1734912404528
 20
133.2799971114851
 30
0.0
 10
117.1620646752105
 20
133.2792605695606
 30
0.0
  0
SPLINE
  5
10E
330
1F
100
AcDbEntity
  8
0
  6
HIDDEN
 62
     7
370
     0
100
AcDbSpline
210
0.0
220
0.0
230
1.0
 70
     8
 71
     3
 72
    10
 73
     6
 74
     0
 42
0.000000001
 43
0.00000001
 40
0.0
 40
0.0
 40
0.0
 40
0.0
 40
0.3457481865191991
 40
0.7967819833752234
 40
1.0
 40
1.0
 40
1.0
 40
1.0
 10
117.1620874926136
 20
93.40850295995483
 30
0.0
 10
117.1525279976292
 20
93.40905765382276
 30
0.0
 10
117.1304979952437
 20
93.41033595432441
 30
0.0
 10
116.7134394104983
 20
93.44030383105105
 30
0.0
 10
116.3252748249955
 20
93.49069975372774
 30
0.0
 10
116.2047065123604
 20
93.50635329757938
 30
0.0
  0
SPLINE
  5
10F
330
1F
100
AcDbEntity
  8
0
  6
HIDDEN
 62
     7
370
     0
100
AcDbSpline
210
0.0
220
0.0
230
1.0
 70
     8
 71
     3
 72
    15
 73
    11
 74
     0
 42
0.000000001
 43
0.00000001
 40
0.0
 40
0.0
 40
0.0
 40
0.0
 40
0.1409172263352446
 40
0.281889861653346
 40
0.4212989542022905
 40
0.5593768841673977
 40
0.6988856533029646
 40
0.840367202775075
 40
0.9813164473602943
 40
1.0
 40
1.0
 40
1.0
 40
1.0
 10
116.2047065123604
 20
93.50635329757938
 30
0.0
 10
115.8886647927477
 20
93.54670661935405
 30
0.0
 10
115.2564570851793
 20
93.62742912992388
 30
0.0
 10
114.0222939128651
 20
93.70398707630665
 30
0.0
 10
112.7515717890495
 20
93.6993090082917
 30
0.0
 10
111.563012322513
 20
93.61851254306849
 30
0.0
 10
110.5698896432226
 20
93.49411799621427
 30
0.0
 10
109.9304811119088
 20
93.38771104945303
 30
0.0
 10
109.6494611235554
 20
93.33463399014349
 30
0.0
 10
109.7160216920442
 20
93.34688848210538
 30
0.0
 10
109.7238119952069
 20
93.34832275782833
 30
0.0
  0
SPLINE
  5
110
330
1F
100
AcDbEntity
  8
0
  6
HIDDEN
 62
     7
370
     0
100
AcDbSpline
210
0.0
220
0.0
230
1.0
 70
     8
 71
     3
 72
    15
 73
    11
 74
     0
 42
0.000000001
 43
0.00000001
 40
0.0
 40
0.0
 40
0.0
 40
0.0
 40
0.1201202497733958
 40
0.2584739452442804
 40
0.3987302041697883
 40
0.5404022600041716
 40
0.680739511736143
 40
0.8190355942651634
 40
0.9577823154231621
 40
1.0
 40
1.0
 40
1.0
 40
1.0
 10
109.7238119952069
 20
133.3394407716871
 30
0.0
 10
109.7445212440104
 20
133.3354162676128
 30
0.0
 10
109.7890832662454
 20
133.3267563668243
 30
0.0
 10
110.3515227359738
 20
133.2274634481131
 30
0.0
 10
111.2449849914211
 20
133.1035474364018
 30
0.0
 10
112.4039638152733
 20
133.0038360608681
 30
0.0
 10
113.677000684093
 20
132.97669900317
 30
0.0
 10
114.9112860308201
 20
133.0320363653002
 30
0.0
 10
115.739249108516
 20
133.1185161010915
 30
0.0
 10
116.1166594211623
 20
133.1695130202287
 30
0.0
 10
116.2047065123604
 20
133.1814102319361
 30
0.0
  0
LINE
  5
111
330
1F
100
AcDbEntity
  8
0
  6
HIDDEN
 62
     7
370
     0
100
AcDbLine
 10
103.4536799676
 20
96.3438808409
 30
0.0
 11
103.4536799676
 21
130.3438826886
 31
0.0
  0
SPLINE
  5
112
330
1F
100
AcDbEntity
  8
0
  6
HIDDEN
 62
     7
370
     0
100
AcDbSpline
210
0.0
220
0.0
230
1.0
 70
     8
 71
     3
 72
     8
 73
     4
 74
     0
 42
0.000000001
 43
0.00000001
 40
0.0
 40
0.0
 40
0.0
 40
0.0
 40
0.0011559732291307
 40
0.0011559732291307
 40
0.0011559732291307
 40
0.0011559732291307
 10
90.5497044719444
 20
115.3437223833904
 30
0.0
 10
90.8830390470117
 20
115.3397551035908
 30
0.0
 10
91.21637023803845
 20
115.3355752210139
 30
0.0
 10
91.5497044719444
 20
115.3310100676059
 30
0.0
  0
SPLINE
  5
113
330
1F
100
AcDbEntity
  8
0
  6
HIDDEN
 62
     7
370
     0
100
AcDbSpline
210
0.0
220
0.0
230
1.0
 70
     8
 71
     3
 72
     8
 73
     4
 74
     0
 42
0.000000001
 43
0.00000001
 40
0.0
 40
0.0
 40
0.0
 40
0.0
 40
0.0011564765856723
 40
0.0011564765856723
 40
0.0011564765856723
 40
0.0011564765856723
 10
91.54970447194441
 20
111.3471814625406
 30
0.0
 10
91.21639654137554
 20
111.3463063069575
 30
0.0
 10
90.88306130898336
 20
111.3452514557063
 30
0.0
 10
90.5497044719444
 20
111.344080368669
 30
0.0
  0
LINE
  5
114
330
1F
100
AcDbEntity
  8
0
  6
HIDDEN
 62
     7
370
     0
100
AcDbLine
 10
130.109530434
 20
96.3438808409
 30
0.0
 11
130.109530434
 21
130.3438826886
 31
0.0
  0
LINE
  5
115
330
1F
100
AcDbEntity
  8
0
  6
HIDDEN
 62
     7
370
     0
100
AcDbLine
 10
132.3997043334
 20
97.6188819346
 30
0.0
 11
132.3997043334
 21
129.0688815949
 31
0.0
  0
SPLINE
  5
116
330
1F
100
AcDbEntity
  8
0
  6
HIDDEN
 62
     7
370
     0
100
AcDbSpline
210
0.0
220
0.0
230
1.0
 70
     8
 71
     3
 72
    16
 73
    12
 74
     0
 42
0.000000001
 43
0.00000001
 40
0.0
 40
0.0
 40
0.0
 40
0.0
 40
0.124999999999998
 40
0.124999999999998
 40
0.249999999999996
 40
0.249999999999996
 40
0.4999999999999973
 40
0.4999999999999973
 40
0.7499999999999987
 40
0.7499999999999987
 40
1.0
 40
1.0
 40
1.0
 40
1.0
 10
99.24970447194441
 20
97.54239132872607
 30
0.0
 10
99.34482622661022
 20
97.54239132872607
 30
0.0
 10
99.4381562953383
 20
97.53857549533326
 30
0.0
 10
99.62141805607631
 20
97.52380494260346
 30
0.0
 10
99.71229577163332
 20
97.51264689462788
 30
0.0
 10
99.96909746915306
 20
97.47017562448615
 30
0.0
 10
100.1241648340251
 20
97.42912942728336
 30
0.0
 10
100.3779112955797
 20
97.33398331070147
 30
0.0
 10
100.4787817472475
 20
97.27922057661989
 30
0.0
 10
100.6140281619424
 20
97.167959452716
 30
0.0
 10
100.6497044719444
 20
97.11078971538733
 30
0.0
 10
100.6497044719444
 20
97.0563681423536
 30
0.0
  0
SPLINE
  5
117
330
1F
100
AcDbEntity
  8
0
  6
HIDDEN
 62
     7
370
     0
100
AcDbSpline
210
0.0
220
0.0
230
1.0
 70
     8
 71
     3
 72
     8
 73
     4
 74
     0
 42
0.000000001
 43
0.00000001
 40
0.0
 40
0.0
 40
0.0
 40
0.0
 40
1.0
 40
1.0
 40
1.0
 40
1.0
 10
91.84970447203703
 20
99.6871942748083
 30
0.0
 10
91.84970447203895
 20
98.80329713249138
 30
0.0
 10
91.8362238461284
 20
98.08871388742944
 30
0.0
 10
91.8348724779373
 20
97.54239132872605
 30
0.0
  0
SPLINE
  5
118
330
1F
100
AcDbEntity
  8
0
  6
HIDDEN
 62
     7
370
     0
100
AcDbSpline
210
0.0
220
0.0
230
1.0
 70
     8
 71
     3
 72
    10
 73
     6
 74
     0
 42
0.000000001
 43
0.00000001
 40
0.0
 40
0.0
 40
0.0
 40
0.0
 40
0.5
 40
0.5
 40
1.0
 40
1.0
 40
1.0
 40
1.0
 10
91.54970447194441
 20
100.7121045342381
 30
0.0
 10
91.64109558661188
 20
100.53746574767
 30
0.0
 10
91.71374741967198
 20
100.3638639215006
 30
0.0
 10
91.82124631152537
 20
100.0202505046137
 30
0.0
 10
91.84970447203138
 20
99.85192467910684
 30
0.0
 10
91.84970447203699
 20
99.68719427486779
 30
0.0
  0
LINE
  5
119
330
1F
100
AcDbEntity
  8
0
  6
HIDDEN
 62
     7
370
     0
100
AcDbLine
 10
91.5497048087
 20
103.7430552257
 30
0.0
 11
91.5497048087
 21
100.7121040908
 31
0.0
  0
SPLINE
  5
11A
330
1F
100
AcDbEntity
  8
0
  6
HIDDEN
 62
     7
370
     0
100
AcDbSpline
210
0.0
220
0.0
230
1.0
 70
     8
 71
     3
 72
    10
 73
     6
 74
     0
 42
0.000000001
 43
0.00000001
 40
0.0
 40
0.0
 40
0.0
 40
0.0
 40
0.5
 40
0.5
 40
1.0
 40
1.0
 40
1.0
 40
1.0
 10
91.84970447203096
 20
105.1108953891149
 30
0.0
 10
91.84970447203096
 20
104.8689114229005
 30
0.0
 10
91.8215544432725
 20
104.6345689952419
 30
0.0
 10
91.71796453025728
 20
104.1791939754335
 30
0.0
 10
91.6413358214637
 20
103.957589413516
 30
0.0
 10
91.54970447194441
 20
103.7430549797766
 30
0.0
  0
LINE
  5
11B
330
1F
100
AcDbEntity
  8
0
  6
HIDDEN
 62
     7
370
     0
100
AcDbLine
 10
91.8497042991
 20
116.9485154984
 30
0.0
 11
91.8497042991
 21
105.1108952103
 31
0.0
  0
SPLINE
  5
11C
330
1F
100
AcDbEntity
  8
0
  6
HIDDEN
 62
     7
370
     0
100
AcDbSpline
210
0.0
220
0.0
230
1.0
 70
     8
 71
     3
 72
     8
 73
     4
 74
     0
 42
0.000000001
 43
0.00000001
 40
0.0
 40
0.0
 40
0.0
 40
0.0
 40
1.0
 40
1.0
 40
1.0
 40
1.0
 10
91.54970447194441
 20
122.9508210782633
 30
0.0
 10
91.73073593668323
 20
122.5187135947888
 30
0.0
 10
91.84970447203658
 20
122.0645681911399
 30
0.0
 10
91.84970447203091
 20
121.5768681403697
 30
0.0
  0
LINE
  5
11D
330
1F
100
AcDbEntity
  8
0
  6
HIDDEN
 62
     7
370
     0
100
AcDbLine
 10
91.5497048087
 20
125.9840236468
 30
0.0
 11
91.5497048087
 21
122.9508215052
 31
0.0
  0
SPLINE
  5
11E
330
1F
100
AcDbEntity
  8
0
  6
HIDDEN
 62
     7
370
     0
100
AcDbSpline
210
0.0
220
0.0
230
1.0
 70
     8
 71
     3
 72
    10
 73
     6
 74
     0
 42
0.000000001
 43
0.00000001
 40
0.0
 40
0.0
 40
0.0
 40
0.0
 40
0.5
 40
0.5
 40
1.0
 40
1.0
 40
1.0
 40
1.0
 10
91.84970447204996
 20
127.0005692546776
 30
0.0
 10
91.84970447204817
 20
126.8359329090842
 30
0.0
 10
91.82254580162314
 20
126.6687776862977
 30
0.0
 10
91.7167808075635
 20
126.3301546806354
 30
0.0
 10
91.64036602004269
 20
126.1578829044786
 30
0.0
 10
91.54970447194444
 20
125.9840240782281
 30
0.0
  0
SPLINE
  5
11F
330
1F
100
AcDbEntity
  8
0
  6
HIDDEN
 62
     7
370
     0
100
AcDbSpline
210
0.0
220
0.0
230
1.0
 70
     8
 71
     3
 72
    18
 73
    14
 74
     0
 42
0.000000001
 43
0.00000001
 40
0.0
 40
0.0
 40
0.0
 40
0.0
 40
0.2500000000000033
 40
0.2500000000000033
 40
0.3750000000000029
 40
0.3750000000000029
 40
0.5000000000000026
 40
0.5000000000000026
 40
0.6250000000000022
 40
0.6250000000000022
 40
0.7500000000000018
 40
0.7500000000000018
 40
1.0
 40
1.0
 40
1.0
 40
1.0
 10
96.6497044719444
 20
129.6313953871618
 30
0.0
 10
96.6497044719444
 20
129.5769208666097
 30
0.0
 10
96.61479378055223
 20
129.5205398072572
 30
0.0
 10
96.51278447921918
 20
129.4364629664037
 30
0.0
 10
96.47114812454107
 20
129.4091292624128
 30
0.0
 10
96.37274232905233
 20
129.3561753468138
 30
0.0
 10
96.31519911734804
 20
129.3302879930966
 30
0.0
 10
96.18790094377509
 20
129.2825104482634
 30
0.0
 10
96.11831363901763
 20
129.2605625300855
 30
0.0
 10
95.96687939386267
 20
129.2211299651728
 30
0.0
 10
95.88419549076872
 20
129.2035737159469
 30
0.0
 10
95.62808402873067
 20
129.1611349505264
 30
0.0
 10
95.44016902484269
 20
129.1453722007894
 30
0.0
 10
95.2497044719444
 20
129.1453722007894
 30
0.0
  0
LINE
  5
120
330
1F
100
AcDbEntity
  8
0
  6
HIDDEN
 62
     7
370
     0
100
AcDbLine
 10
95.2497041113
 20
129.1453729806
 30
0.0
 11
91.8497042991
 21
129.1453729806
 31
0.0
  0
LINE
  5
121
330
1F
100
AcDbEntity
  8
0
  6
HIDDEN
 62
     7
370
     0
100
AcDbLine
 10
91.7807361372
 20
97.5423905489
 30
0.0
 11
99.249704767
 21
97.5423905489
 31
0.0
  0
SPLINE
  5
122
330
1F
100
AcDbEntity
  8
0
  6
HIDDEN
 62
     7
370
     0
100
AcDbSpline
210
0.0
220
0.0
230
1.0
 70
     8
 71
     3
 72
    22
 73
    18
 74
     0
 42
0.000000001
 43
0.00000001
 40
0.0
 40
0.0
 40
0.0
 40
0.0
 40
0.1249999999999999
 40
0.1249999999999999
 40
0.2499999999999997
 40
0.2499999999999997
 40
0.4999999999999994
 40
0.4999999999999994
 40
0.5624999999999993
 40
0.5624999999999993
 40
0.6249999999999994
 40
0.6249999999999994
 40
0.7499999999999994
 40
0.7499999999999994
 40
0.8749999999999997
 40
0.8749999999999997
 40
1.0
 40
1.0
 40
1.0
 40
1.0
 10
91.78073548530232
 20
97.54239132872607
 30
0.0
 10
91.76765309257397
 20
97.79749703887373
 30
0.0
 10
91.75443352913412
 20
98.09065529797765
 30
0.0
 10
91.73198635134001
 20
98.75295576360244
 30
0.0
 10
91.72250788431553
 20
99.12322968421383
 30
0.0
 10
91.703309923379
 20
100.3457864873276
 30
0.0
 10
91.70442369637588
 20
101.2829254134595
 30
0.0
 10
91.72333448932896
 20
102.6027966429745
 30
0.0
 10
91.72796401718794
 20
102.8742985519508
 30
0.0
 10
91.7384452369339
 20
103.4326833867531
 30
0.0
 10
91.74424049821833
 20
103.7198062426927
 30
0.0
 10
91.76254971912326
 20
104.5923954970644
 30
0.0
 10
91.77658465340363
 20
105.1928511734202
 30
0.0
 10
91.80604182554045
 20
106.4303256659163
 30
0.0
 10
91.82159751652202
 20
107.0673418225598
 30
0.0
 10
91.8453920665189
 20
108.3788304202443
 30
0.0
 10
91.85341111866428
 20
109.0549530319048
 30
0.0
 10
91.8497044719444
 20
109.7392481431896
 30
0.0
  0
LINE
  5
123
330
1F
100
AcDbEntity
  8
0
  6
HIDDEN
 62
     7
370
     0
100
AcDbLine
 10
91.8497042991
 20
116.9485154984
 30
0.0
 11
91.8497042991
 21
129.1453729806
 31
0.0
  0
SPLINE
  5
124
330
1F
100
AcDbEntity
  8
0
  6
HIDDEN
 62
     7
370
     0
100
AcDbSpline
210
0.0
220
0.0
230
1.0
 70
     8
 71
     3
 72
    10
 73
     6
 74
     0
 42
0.000000001
 43
0.00000001
 40
0.0
 40
0.0
 40
0.0
 40
0.0
 40
0.5
 40
0.5
 40
1.0
 40
1.0
 40
1.0
 40
1.0
 10
91.8497044719444
 20
109.7392481431745
 30
0.0
 10
91.84970447194421
 20
110.0131632912488
 30
0.0
 10
91.82394524207638
 20
110.2841048699787
 30
0.0
 10
91.72073930934324
 20
110.8197959515813
 30
0.0
 10
91.64340114546809
 20
111.0855427551031
 30
0.0
 10
91.5497044719444
 20
111.3471814625406
 30
0.0
  0
SPLINE
  5
125
330
1F
100
AcDbEntity
  8
0
  6
HIDDEN
 62
     7
370
     0
100
AcDbSpline
210
0.0
220
0.0
230
1.0
 70
     8
 71
     3
 72
    10
 73
     6
 74
     0
 42
0.000000001
 43
0.00000001
 40
0.0
 40
0.0
 40
0.0
 40
0.0
 40
0.5
 40
0.5
 40
1.0
 40
1.0
 40
1.0
 40
1.0
 10
91.54970447194441
 20
115.3310100676059
 30
0.0
 10
91.64293505229566
 20
115.5949038742043
 30
0.0
 10
91.71796466382446
 20
115.8610841833028
 30
0.0
 10
91.82303176180415
 20
116.3994067551217
 30
0.0
 10
91.84970447204876
 20
116.6721548697375
 30
0.0
 10
91.84970447204994
 20
116.9485153863248
 30
0.0
  0
LINE
  5
126
330
1F
100
AcDbEntity
  8
0
  6
HIDDEN
 62
     7
370
     0
100
AcDbLine
 10
91.5497048087
 20
111.3471815785
 30
0.0
 11
91.5497048087
 21
115.3310100504
 31
0.0
  0
CIRCLE
  5
127
330
1F
100
AcDbEntity
  8
0
  6
HIDDEN
 62
     7
370
     0
100
AcDbCircle
 10
210.3997044719
 20
113.3438817648
 30
0.0
 40
3.5
  0
LINE
  5
128
330
1F
100
AcDbEntity
  8
0
  6
HIDDEN
 62
     7
370
     0
100
AcDbLine
 10
91.6997036226
 20
95.3538812188
 30
0.0
 11
91.6997036226
 21
92.4739431081
 31
0.0
  0
LINE
  5
129
330
1F
100
AcDbEntity
  8
0
  6
HIDDEN
 62
     7
370
     0
100
AcDbLine
 10
100.6497042514
 20
95.3538812188
 30
0.0
 11
100.6497042514
 21
91.3801438597
 31
0.0
  0
LINE
  5
12A
330
1F
100
AcDbEntity
  8
0
  6
HIDDEN
 62
     7
370
     0
100
AcDbLine
 10
91.6997036226
 20
131.3338823107
 30
0.0
 11
91.6997036226
 21
134.2138204214
 31
0.0
  0
LINE
  5
12B
330
1F
100
AcDbEntity
  8
0
  6
HIDDEN
 62
     7
370
     0
100
AcDbLine
 10
96.6497035958
 20
131.3338823107
 30
0.0
 11
96.6497035958
 21
135.1879894224
 31
0.0
  0
LINE
  5
12C
330
1F
100
AcDbEntity
  8
0
  6
HIDDEN
 62
     7
370
     0
100
AcDbLine
 10
199.949705068
 20
113.3438817648
 30
0.0
 11
199.949705068
 21
104.6438816426
 31
0.0
  0
LINE
  5
12D
330
1F
100
AcDbEntity
  8
0
  6
HIDDEN
 62
     7
370
     0
100
AcDbLine
 10
199.949705068
 20
122.0438818869
 30
0.0
 11
199.949705068
 21
113.3438817648
 31
0.0
  0
LINE
  5
12E
330
1F
100
AcDbEntity
  8
0
  6
HIDDEN
 62
     7
370
     0
100
AcDbLine
 10
141.2497042007
 20
103.8438820702
 30
0.0
 11
141.2497042007
 21
122.8438814593
 31
0.0
  0
LINE
  5
12F
330
1F
100
AcDbEntity
  8
0
  6
HIDDEN
 62
     7
370
     0
100
AcDbLine
 10
144.2497046925
 20
103.8438820702
 30
0.0
 11
144.2497046925
 21
122.8438814593
 31
0.0
  0
LINE
  5
130
330
1F
100
AcDbEntity
  8
0
  6
HIDDEN
 62
     7
370
     0
100
AcDbLine
 10
203.3157283701
 20
113.3438817648
 30
0.0
 11
203.3157283701
 21
104.3438821522
 31
0.0
  0
LINE
  5
131
330
1F
100
AcDbEntity
  8
0
  6
HIDDEN
 62
     7
370
     0
100
AcDbLine
 10
203.3157283701
 20
122.3438813773
 30
0.0
 11
203.3157283701
 21
113.3438817648
 31
0.0
  0
SPLINE
  5
132
330
1F
100
AcDbEntity
  8
0
  6
HIDDEN
 62
     7
370
     0
100
AcDbSpline
210
0.0
220
0.0
230
1.0
 70
     8
 71
     3
 72
    12
 73
     8
 74
     0
 42
0.000000001
 43
0.00000001
 40
0.0
 40
0.0
 40
0.0
 40
0.0
 40
0.2035648648277592
 40
0.4067375286609206
 40
0.6198470511582922
 40
0.8406847756767514
 40
1.0
 40
1.0
 40
1.0
 40
1.0
 10
210.3997031487213
 20
121.6354438525916
 30
0.0
 10
210.7761619828929
 20
121.6508989659628
 30
0.0
 10
211.5283543417416
 20
121.6817794159025
 30
0.0
 10
212.5431847264839
 20
121.8949765129816
 30
0.0
 10
213.3427937243411
 20
122.1338238757955
 30
0.0
 10
213.8377904288033
 20
122.3195244875735
 30
0.0
 10
213.8562175366536
 20
122.3269923651876
 30
0.0
 10
213.8639400042282
 20
122.3301220176102
 30
0.0
  0
LINE
  5
133
330
1F
100
AcDbEntity
  8
0
  6
HIDDEN
 62
     7
370
     0
100
AcDbLine
 10
210.7209274806
 20
121.6568065298
 30
0.0
 11
210.1592729129
 21
121.6538579625
 31
0.0
  0
SPLINE
  5
134
330
1F
100
AcDbEntity
  8
0
  6
HIDDEN
 62
     7
370
     0
100
AcDbSpline
210
0.0
220
0.0
230
1.0
 70
     8
 71
     3
 72
    12
 73
     8
 74
     0
 42
0.000000001
 43
0.00000001
 40
0.0
 40
0.0
 40
0.0
 40
0.0
 40
0.137691219822902
 40
0.3366685071010708
 40
0.5443452753006782
 40
0.7639680663594652
 40
1.0
 40
1.0
 40
1.0
 40
1.0
 10
206.9400558508621
 20
122.32830966388
 30
0.0
 10
206.9403264051545
 20
122.3281332211037
 30
0.0
 10
206.940987936876
 20
122.3277018012487
 30
0.0
 10
207.3490482783571
 20
122.1728121780672
 30
0.0
 10
208.0721182123072
 20
121.9447315611168
 30
0.0
 10
209.119137721648
 20
121.6970753000011
 30
0.0
 10
209.9627215613783
 20
121.6564750370589
 30
0.0
 10
210.3997031487213
 20
121.6354438525916
 30
0.0
  0
LINE
  5
135
330
1F
100
AcDbEntity
  8
0
  6
HIDDEN
 62
     7
370
     0
100
AcDbLine
 10
132.8997044153
 20
104.8438813028
 30
0.0
 11
132.8997044153
 21
121.8438822267
 31
0.0
  0
LINE
  5
136
330
1F
100
AcDbEntity
  8
0
  6
HIDDEN
 62
     7
370
     0
100
AcDbLine
 10
148.399704162
 20
86.9438819078
 30
0.0
 11
142.2620294876
 21
86.9438819078
 31
0.0
  0
LINE
  5
137
330
1F
100
AcDbEntity
  8
0
  6
HIDDEN
 62
     7
370
     0
100
AcDbLine
 10
138.6373797692
 20
86.9438819078
 30
0.0
 11
135.3997048251
 21
86.9438819078
 31
0.0
  0
LINE
  5
138
330
1F
100
AcDbEntity
  8
0
  6
HIDDEN
 62
     7
370
     0
100
AcDbLine
 10
127.3997044451
 20
81.8597584454
 30
0.0
 11
127.3997044451
 21
86.9438819078
 31
0.0
  0
LINE
  5
139
330
1F
100
AcDbEntity
  8
0
  6
HIDDEN
 62
     7
370
     0
100
AcDbLine
 10
135.3997048251
 20
86.9438819078
 30
0.0
 11
127.3997044451
 21
86.9438819078
 31
0.0
  0
LINE
  5
13A
330
1F
100
AcDbEntity
  8
0
  6
HIDDEN
 62
     7
370
     0
100
AcDbLine
 10
135.3997048251
 20
139.7438816217
 30
0.0
 11
127.3997044451
 21
139.7438816217
 31
0.0
  0
LINE
  5
13B
330
1F
100
AcDbEntity
  8
0
  6
HIDDEN
 62
     7
370
     0
100
AcDbLine
 10
138.9340022839
 20
139.7438816217
 30
0.0
 11
135.3997048251
 21
139.7438816217
 31
0.0
  0
LINE
  5
13C
330
1F
100
AcDbEntity
  8
0
  6
HIDDEN
 62
     7
370
     0
100
AcDbLine
 10
148.399704162
 20
139.7438816217
 30
0.0
 11
141.9654069729
 21
139.7438816217
 31
0.0
  0
SPLINE
  5
13D
330
1F
100
AcDbEntity
  8
0
  6
HIDDEN
 62
     7
370
     0
100
AcDbSpline
210
0.0
220
0.0
230
1.0
 70
     8
 71
     3
 72
    11
 73
     7
 74
     0
 42
0.000000001
 43
0.00000001
 40
0.0
 40
0.0
 40
0.0
 40
0.0
 40
0.0008203708524183
 40
0.0008203708524183
 40
0.0008203708524183
 40
0.0016409967870154
 40
0.0016409967870154
 40
0.0016409967870154
 40
0.0016409967870154
 10
91.6997044719444
 20
97.49184901411499
 30
0.0
 10
91.50854617164575
 20
97.45066998549585
 30
0.0
 10
91.31711910157357
 20
97.41191601326587
 30
0.0
 10
91.12547347805294
 20
97.37554825398732
 30
0.0
 10
90.93376807297248
 20
97.3391691502213
 30
0.0
 10
90.74182912091352
 20
97.30517489945373
 30
0.0
 10
90.5497044738427
 20
97.2735267740625
 30
0.0
  0
ELLIPSE
  5
13E
330
1F
100
AcDbEntity
  8
0
  6
HIDDEN
 62
     7
370
     0
100
AcDbEllipse
 10
86.3072726092
 20
113.3438817648
 30
0.0
 11
20.19992452771986
 21
-1.421085471520200E-14
 31
0.0
210
0.0
220
0.0
230
1.0
 40
0.816496581
 41
1.300566354937427
 42
1.359198697443033
  0
LINE
  5
13F
330
1F
100
AcDbEntity
  8
0
  6
HIDDEN
 62
     7
370
     0
100
AcDbLine
 10
91.6997036226
 20
95.3538812188
 30
0.0
 11
91.6997036226
 21
97.4918495355
 31
0.0
  0
LINE
  5
140
330
1F
100
AcDbEntity
  8
0
  6
HIDDEN
 62
     7
370
     0
100
AcDbLine
 10
91.7807361372
 20
97.5423905489
 30
0.0
 11
91.6997036226
 21
97.4918495355
 31
0.0
  0
LINE
  5
141
330
1F
100
AcDbEntity
  8
0
  6
HIDDEN
 62
     7
370
     0
100
AcDbLine
 10
100.6497042514
 20
95.3538812188
 30
0.0
 11
100.6497042514
 21
97.0563686875
 31
0.0
  0
LINE
  5
142
330
1F
100
AcDbEntity
  8
0
  6
HIDDEN
 62
     7
370
     0
100
AcDbLine
 10
91.6997036226
 20
131.3338823107
 30
0.0
 11
91.6997036226
 21
129.2385071007
 31
0.0
  0
SPLINE
  5
143
330
1F
100
AcDbEntity
  8
0
  6
HIDDEN
 62
     7
370
     0
100
AcDbSpline
210
0.0
220
0.0
230
1.0
 70
     8
 71
     3
 72
     8
 73
     4
 74
     0
 42
0.000000001
 43
0.00000001
 40
0.0
 40
0.0
 40
0.0
 40
0.0
 40
1.0
 40
1.0
 40
1.0
 40
1.0
 10
91.6997044719444
 20
129.2385062137565
 30
0.0
 10
91.749709969792
 20
129.2074704402236
 30
0.0
 10
91.79971003936049
 20
129.1764257958827
 30
0.0
 10
91.84970447204995
 20
129.1453722007894
 30
0.0
  0
LINE
  5
144
330
1F
100
AcDbEntity
  8
0
  6
HIDDEN
 62
     7
370
     0
100
AcDbLine
 10
96.6497035958
 20
131.3338823107
 30
0.0
 11
96.6497035958
 21
129.631394842
 31
0.0
  0
LINE
  5
145
330
1F
100
AcDbEntity
  8
0
  6
HIDDEN
 62
     7
370
     0
100
AcDbLine
 10
210.3997031487
 20
127.8438813475
 30
0.0
 11
213.8997027911
 21
127.8438813475
 31
0.0
  0
LINE
  5
146
330
1F
100
AcDbEntity
  8
0
  6
HIDDEN
 62
     7
370
     0
100
AcDbLine
 10
206.8997035063
 20
127.8438813475
 30
0.0
 11
210.3997031487
 21
127.8438813475
 31
0.0
  0
LWPOLYLINE
  5
147
330
1F
100
AcDbEntity
  8
0
  6
HIDDEN
 62
     7
370
     0
100
AcDbPolyline
 90
       17
 70
   128
 43
0.0
 10
117.1984267682
 20
89.7439199922
 10
116.9696781113
 20
89.8049961266
 10
116.6325668133
 20
89.8826814679
 10
116.113875553
 20
89.9916815994
 10
115.3720990084
 20
90.121787363
 10
114.6418899558
 20
90.2223664758
 10
113.4704696275
 20
90.3349447486
 10
112.1488893665
 20
90.3610273687
 10
111.4603467546
 20
90.3398639945
 10
110.8102202676
 20
90.2958943931
 10
110.2295741699
 20
90.2389179406
 10
109.8935967572
 20
90.1981558142
 10
109.6997242681
 20
90.1652670888
 10
109.8887231461
 20
90.1973157612
 10
110.220710773
 20
90.2377332983
 10
110.7935617007
 20
90.2944098649
 10
110.7935617007
 20
90.2944098649
  0
SPLINE
  5
148
330
1F
100
AcDbEntity
  8
0
  6
HIDDEN
 62
     7
370
     0
100
AcDbSpline
210
0.0
220
0.0
230
1.0
 70
     8
 71
     3
 72
    27
 73
    23
 74
     0
 42
0.000000001
 43
0.00000001
 40
0.0
 40
0.0
 40
0.0
 40
0.0
 40
0.0007884407193624
 40
0.0456707455746795
 40
0.1022521499851523
 40
0.1705299244336915
 40
0.2091214038242543
 40
0.2506484516953882
 40
0.3210938856948646
 40
0.3861873374545791
 40
0.4266663227110686
 40
0.464797408866654
 40
0.5006015076826779
 40
0.5451931321096497
 40
0.6016871232775184
 40
0.6700927427666772
 40
0.7088299320451624
 40
0.7505584753452949
 40
0.8222227385308296
 40
0.8877618471766348
 40
0.9472353326374976
 40
1.0
 40
1.0
 40
1.0
 40
1.0
 10
109.7003566361652
 20
136.5222990003706
 30
0.0
 10
109.7001399385121
 20
136.5223457398022
 30
0.0
 10
109.6875876398525
 20
136.5250531401629
 30
0.0
 10
109.7366682437285
 20
136.5132162950087
 30
0.0
 10
109.8817662831352
 20
136.4897791085544
 30
0.0
 10
110.1548202977989
 20
136.4558704019949
 30
0.0
 10
110.4833458598876
 20
136.4223027395036
 30
0.0
 10
110.8760738938935
 20
136.3841197239301
 30
0.0
 10
111.4258016798249
 20
136.3451516319058
 30
0.0
 10
112.0518243144924
 20
136.3256900051598
 30
0.0
 10
112.595016154466
 20
136.3235048487542
 30
0.0
 10
113.0400849038783
 20
136.3320195700868
 30
0.0
 10
113.5065327583318
 20
136.3518031202422
 30
0.0
 10
114.0437736840586
 20
136.3959630020143
 30
0.0
 10
114.691986652993
 20
136.4683828370208
 30
0.0
 10
115.2775258005191
 20
136.5492804970834
 30
0.0
 10
115.7584949383278
 20
136.6274498539678
 30
0.0
 10
116.2039100480013
 20
136.7122204312743
 30
0.0
 10
116.6424094195108
 20
136.8060050754671
 30
0.0
 10
116.9814367980658
 20
136.8839077744629
 30
0.0
 10
117.1687957804645
 20
136.9341042677335
 30
0.0
 10
117.1892864826913
 20
136.9407709210788
 30
0.0
 10
117.1989194377945
 20
136.9439050046087
 30
0.0
  0
SPLINE
  5
149
330
1F
100
AcDbEntity
  8
0
  6
HIDDEN
 62
     7
370
     0
100
AcDbSpline
210
0.0
220
0.0
230
1.0
 70
     8
 71
     3
 72
     8
 73
     4
 74
     0
 42
0.000000001
 43
0.00000001
 40
0.0
 40
0.0
 40
0.0
 40
0.0
 40
0.0001590976915385
 40
0.0001590976915385
 40
0.0001590976915385
 40
0.0001590976915385
 10
91.83487247793731
 20
97.54239132872607
 30
0.0
 10
91.78982100850779
 20
97.51441244507541
 30
0.0
 10
91.74476497116802
 20
97.4864409153731
 30
0.0
 10
91.69970447194441
 20
97.458476576693
 30
0.0
  0
SPLINE
  5
14A
330
1F
100
AcDbEntity
  8
0
  6
HIDDEN
 62
     7
370
     0
100
AcDbSpline
210
0.0
220
0.0
230
1.0
 70
     8
 71
     3
 72
    11
 73
     7
 74
     0
 42
0.000000001
 43
0.00000001
 40
0.0
 40
0.0
 40
0.0
 40
0.0
 40
0.000821290931132
 40
0.000821290931132
 40
0.000821290931132
 40
0.0016428257242788
 40
0.0016428257242788
 40
0.0016428257242788
 40
0.0016428257242788
 10
91.6997044719444
 20
97.458476576693
 30
0.0
 10
91.50855945046197
 20
97.41519038787136
 30
0.0
 10
91.31714111478539
 20
97.37425387826559
 30
0.0
 10
91.12549504012425
 20
97.33565210691113
 30
0.0
 10
90.93379195858265
 20
97.29703885310617
 30
0.0
 10
90.74184683529731
 20
97.26075864385292
 30
0.0
 10
90.54970447194441
 20
97.22679173753481
 30
0.0
  0
LINE
  5
14B
330
1F
100
AcDbEntity
  8
0
  6
HIDDEN
 62
     7
370
     0
100
AcDbLine
 10
138.5397045202
 20
133.4797482428
 30
0.0
 11
138.5397045202
 21
133.1938825039
 31
0.0
  0
LINE
  5
14C
330
1F
100
AcDbEntity
  8
0
  6
HIDDEN
 62
     7
370
     0
100
AcDbLine
 10
142.3597047366
 20
133.4797482428
 30
0.0
 11
142.3597047366
 21
133.1938825039
 31
0.0
  0
LINE
  5
14D
330
1F
100
AcDbEntity
  8
0
  6
HIDDEN
 62
     7
370
     0
100
AcDbLine
 10
143.8416363932
 20
137.8025713799
 30
0.0
 11
143.8416363932
 21
133.1938825039
 31
0.0
  0
SPLINE
  5
14E
330
1F
100
AcDbEntity
  8
0
  6
HIDDEN
 62
     7
370
     0
100
AcDbSpline
210
0.0
220
0.0
230
1.0
 70
     8
 71
     3
 72
    24
 73
    20
 74
     0
 42
0.000000001
 43
0.00000001
 40
0.0
 40
0.0
 40
0.0
 40
0.0
 40
0.2500000000000114
 40
0.2500000000000114
 40
0.3750000000000163
 40
0.3750000000000163
 40
0.4375000000000177
 40
0.4375000000000177
 40
0.4687500000000166
 40
0.4687500000000166
 40
0.5000000000000155
 40
0.5000000000000155
 40
0.5625000000000157
 40
0.5625000000000157
 40
0.6250000000000157
 40
0.6250000000000157
 40
0.7500000000000099
 40
0.7500000000000099
 40
1.0
 40
1.0
 40
1.0
 40
1.0
 10
90.61236784666782
 20
93.66932921997699
 30
0.0
 10
90.62612096533802
 20
93.73997927796727
 30
0.0
 10
90.6438935327439
 20
93.8065773907322
 30
0.0
 10
90.69614462429927
 20
93.8806754109654
 30
0.0
 10
90.71717969988083
 20
93.90193321812696
 30
0.0
 10
90.77008010750929
 20
93.91007914427318
 30
0.0
 10
90.7911857803872
 20
93.90913934087742
 30
0.0
 10
90.83723794906514
 20
93.88812334930005
 30
0.0
 10
90.85560842104853
 20
93.87721454319245
 30
0.0
 10
90.89716005611425
 20
93.84457963224507
 30
0.0
 10
90.91972672887117
 20
93.82308765187372
 30
0.0
 10
90.9825077453312
 20
93.75462170828739
 30
0.0
 10
91.01563750629907
 20
93.70854725008229
 30
0.0
 10
91.0725551927841
 20
93.62353936174763
 30
0.0
 10
91.09674121828785
 20
93.58325906056625
 30
0.0
 10
91.1619491686676
 20
93.4683228341003
 30
0.0
 10
91.19666522885886
 20
93.39773984895331
 30
0.0
 10
91.28988049918972
 20
93.1935340898747
 30
0.0
 10
91.3355530345504
 20
93.07063570754734
 30
0.0
 10
91.37385811804894
 20
92.95376243115977
 30
0.0
  0
SPLINE
  5
14F
330
1F
100
AcDbEntity
  8
0
  6
HIDDEN
 62
     7
370
     0
100
AcDbSpline
210
0.0
220
0.0
230
1.0
 70
     8
 71
     3
 72
     8
 73
     4
 74
     0
 42
0.000000001
 43
0.00000001
 40
0.0
 40
0.0
 40
0.0
 40
0.0
 40
0.0011563724678166
 40
0.0011563724678166
 40
0.0011563724678166
 40
0.0011563724678166
 10
91.54970447194441
 20
125.9840240782281
 30
0.0
 10
91.21638335674726
 20
126.1130831038549
 30
0.0
 10
90.88305067593927
 20
126.2420434400287
 30
0.0
 10
90.5497044719444
 20
126.3709549698017
 30
0.0
  0
SPLINE
  5
150
330
1F
100
AcDbEntity
  8
0
  6
HIDDEN
 62
     7
370
     0
100
AcDbSpline
210
0.0
220
0.0
230
1.0
 70
     8
 71
     3
 72
     8
 73
     4
 74
     0
 42
0.000000001
 43
0.00000001
 40
0.0000000000000001
 40
0.0000000000000001
 40
0.0000000000000001
 40
0.0000000000000001
 40
0.0011557494192775
 40
0.0011557494192775
 40
0.0011557494192775
 40
0.0011557494192775
 10
90.54970447194438
 20
100.3166599023069
 30
0.0
 10
90.88303828195853
 20
100.4482841785017
 30
0.0
 10
91.2163718936212
 20
100.5801010920752
 30
0.0
 10
91.54970447194441
 20
100.7121045342381
 30
0.0
  0
SPLINE
  5
151
330
1F
100
AcDbEntity
  8
0
  6
HIDDEN
 62
     7
370
     0
100
AcDbSpline
210
0.0
220
0.0
230
1.0
 70
     8
 71
     3
 72
     8
 73
     4
 74
     0
 42
0.000000001
 43
0.00000001
 40
0.0000000000000006
 40
0.0000000000000006
 40
0.0000000000000006
 40
0.0000000000000006
 40
0.0011560973009451
 40
0.0011560973009451
 40
0.0011560973009451
 40
0.0011560973009451
 10
90.54970447194438
 20
123.3246962580448
 30
0.0
 10
90.88304420953112
 20
123.1999525257715
 30
0.0
 10
91.21637484273975
 20
123.0752713015945
 30
0.0
 10
91.54970447194441
 20
122.9508210782633
 30
0.0
  0
SPLINE
  5
152
330
1F
100
AcDbEntity
  8
0
  6
HIDDEN
 62
     7
370
     0
100
AcDbSpline
210
0.0
220
0.0
230
1.0
 70
     8
 71
     3
 72
     8
 73
     4
 74
     0
 42
0.000000001
 43
0.00000001
 40
0.0
 40
0.0
 40
0.0
 40
0.0
 40
0.0011564805411644
 40
0.0011564805411644
 40
0.0011564805411644
 40
0.0011564805411644
 10
91.54970447194441
 20
103.7430549797766
 30
0.0
 10
91.21640250654295
 20
103.6162040393423
 30
0.0
 10
90.8830656896363
 20
103.4896389704801
 30
0.0
 10
90.54970447194444
 20
103.3632389968194
 30
0.0
  0
CIRCLE
  5
153
330
1F
100
AcDbEntity
  8
0
  6
HIDDEN
 62
     7
370
     0
100
AcDbCircle
 10
129.4497044719
 20
113.3438817648
 30
0.0
 40
5.0
  0
LINE
  5
154
330
1F
100
AcDbEntity
  8
0
  6
HIDDEN
 62
     7
370
     0
100
AcDbLine
 10
214.3997038044
 20
128.6438818512
 30
0.0
 11
206.3997024931
 21
128.6438818512
 31
0.0
  0
LINE
  5
155
330
1F
100
AcDbEntity
  8
0
  6
HIDDEN
 62
     7
370
     0
100
AcDbLine
 10
214.3997038044
 20
123.449137756
 30
0.0
 11
206.3997024931
 21
123.449137756
 31
0.0
  0
LINE
  5
156
330
1F
100
AcDbEntity
  8
0
  6
HIDDEN
 62
     7
370
     0
100
AcDbLine
 10
213.0695069469
 20
119.3438818169
 30
0.0
 11
207.7298993505
 21
119.3438818169
 31
0.0
  0
SPLINE
  5
157
330
1F
100
AcDbEntity
  8
0
  6
HIDDEN
 62
     7
370
     0
100
AcDbSpline
210
0.0
220
0.0
230
1.0
 70
     8
 71
     3
 72
    10
 73
     6
 74
     0
 42
0.000000001
 43
0.00000001
 40
0.0
 40
0.0
 40
0.0
 40
0.0
 40
0.4391227832433116
 40
0.7513719514425652
 40
1.0
 40
1.0
 40
1.0
 40
1.0
 10
210.2139825261818
 20
129.2532834646584
 30
0.0
 10
209.941884291466
 20
129.116302547813
 30
0.0
 10
209.4763038447115
 20
128.8819179457656
 30
0.0
 10
208.7995063001864
 20
128.9861038187523
 30
0.0
 10
208.4626483471375
 20
129.1712230299432
 30
0.0
 10
208.3133245147453
 20
129.2532834646584
 30
0.0
  0
SPLINE
  5
158
330
1F
100
AcDbEntity
  8
0
  6
HIDDEN
 62
     7
370
     0
100
AcDbSpline
210
0.0
220
0.0
230
1.0
 70
     8
 71
     3
 72
    10
 73
     6
 74
     0
 42
0.000000001
 43
0.00000001
 40
0.0
 40
0.0
 40
0.0
 40
0.0
 40
0.4391222187156623
 40
0.7513712054534089
 40
1.0
 40
1.0
 40
1.0
 40
1.0
 10
208.3133245147453
 20
129.2532834646584
 30
0.0
 10
208.3399134518241
 20
129.1163025109141
 30
0.0
 10
208.3854091267254
 20
128.8819177771149
 30
0.0
 10
208.4515299394048
 20
128.986104253171
 30
0.0
 10
208.4844514987348
 20
129.1712230500017
 30
0.0
 10
208.4990451372848
 20
129.2532834646584
 30
0.0
  0
SPLINE
  5
159
330
1F
100
AcDbEntity
  8
0
  6
HIDDEN
 62
     7
370
     0
100
AcDbSpline
210
0.0
220
0.0
230
1.0
 70
     8
 71
     3
 72
    11
 73
     7
 74
     0
 42
0.000000001
 43
0.00000001
 40
0.0
 40
0.0
 40
0.0
 40
0.0
 40
0.1849294430888866
 40
0.5198471272506583
 40
0.8714432834927743
 40
1.0
 40
1.0
 40
1.0
 40
1.0
 10
208.4990451372848
 20
129.2532834646584
 30
0.0
 10
208.6204811182674
 20
129.1908795089202
 30
0.0
 10
208.9618445312761
 20
129.0154584587202
 30
0.0
 10
209.5990694526488
 20
128.8858567984111
 30
0.0
 10
210.1875699387909
 20
129.0445629573526
 30
0.0
 10
210.5013988384277
 20
129.2092026360325
 30
0.0
 10
210.5854237712608
 20
129.2532834646584
 30
0.0
  0
SPLINE
  5
15A
330
1F
100
AcDbEntity
  8
0
  6
HIDDEN
 62
     7
370
     0
100
AcDbSpline
210
0.0
220
0.0
230
1.0
 70
     8
 71
     3
 72
    10
 73
     6
 74
     0
 42
0.000000001
 43
0.00000001
 40
0.0
 40
0.0
 40
0.0
 40
0.0
 40
0.4391217417900073
 40
0.7513701694380065
 40
1.0
 40
1.0
 40
1.0
 40
1.0
 10
210.5854237712608
 20
129.2532834646584
 30
0.0
 10
210.8575221715421
 20
129.1163024163867
 30
0.0
 10
211.3231029015914
 20
128.8819175894589
 30
0.0
 10
211.9999004928778
 20
128.9861049465883
 30
0.0
 10
212.3367627153302
 20
129.1712230744054
 30
0.0
 10
212.4860892332779
 20
129.2532834646584
 30
0.0
  0
LINE
  5
15B
330
1F
100
AcDbEntity
  8
0
  6
HIDDEN
 62
     7
370
     0
100
AcDbLine
 10
212.4860892333
 20
129.2532834647
 30
0.0
 11
212.4061743058
 21
128.9539312435
 31
0.0
  0
SPLINE
  5
15C
330
1F
100
AcDbEntity
  8
0
  6
HIDDEN
 62
     7
370
     0
100
AcDbSpline
210
0.0
220
0.0
230
1.0
 70
     8
 71
     3
 72
    11
 73
     7
 74
     0
 42
0.000000001
 43
0.00000001
 40
0.0
 40
0.0
 40
0.0
 40
0.0
 40
0.1285563699690005
 40
0.480154385435466
 40
0.8150684342788194
 40
1.0
 40
1.0
 40
1.0
 40
1.0
 10
212.3003686107384
 20
129.2532834646584
 30
0.0
 10
212.2163437268001
 20
129.2092026369799
 30
0.0
 10
211.9025131751257
 20
129.0445619993474
 30
0.0
 10
211.3140091456429
 20
128.8858564706505
 30
0.0
 10
210.6767872007097
 20
129.0154612172231
 30
0.0
 10
210.3354211815152
 20
129.1908795704748
 30
0.0
 10
210.2139825261818
 20
129.2532834646584
 30
0.0
  0
LINE
  5
15D
330
1F
100
AcDbEntity
  8
0
  6
HIDDEN
 62
     7
370
     0
100
AcDbLine
 10
212.3997072018
 20
123.3438815412
 30
0.0
 11
208.3997065462
 21
123.3438815412
 31
0.0
  0
LINE
  5
15E
330
1F
100
AcDbEntity
  8
0
  6
HIDDEN
 62
     7
370
     0
100
AcDbLine
 10
210.6486941017
 20
124.3438817052
 30
0.0
 11
210.5854237713
 21
124.3438817052
 31
0.0
  0
LINE
  5
15F
330
1F
100
AcDbEntity
  8
0
  6
HIDDEN
 62
     7
370
     0
100
AcDbLine
 10
210.5854237713
 20
124.3438817052
 30
0.0
 11
209.595204357
 21
124.3438817052
 31
0.0
  0
LINE
  5
160
330
1F
100
AcDbEntity
  8
0
  6
HIDDEN
 62
     7
370
     0
100
AcDbLine
 10
210.5854237713
 20
124.3438817052
 30
0.0
 11
210.5854237713
 21
129.2532834647
 31
0.0
  0
LINE
  5
161
330
1F
100
AcDbEntity
  8
0
  6
HIDDEN
 62
     7
370
     0
100
AcDbLine
 10
212.4860892333
 20
124.3438817052
 30
0.0
 11
211.5840101875
 21
124.3438817052
 31
0.0
  0
LINE
  5
162
330
1F
100
AcDbEntity
  8
0
  6
HIDDEN
 62
     7
370
     0
100
AcDbLine
 10
208.568491999
 20
124.3438817052
 30
0.0
 11
208.4990451373
 21
124.3438817052
 31
0.0
  0
LINE
  5
163
330
1F
100
AcDbEntity
  8
0
  6
HIDDEN
 62
     7
370
     0
100
AcDbLine
 10
208.4990451373
 20
124.3438817052
 30
0.0
 11
208.4108973182
 21
124.3438817052
 31
0.0
  0
LINE
  5
164
330
1F
100
AcDbEntity
  8
0
  6
HIDDEN
 62
     7
370
     0
100
AcDbLine
 10
208.4990451373
 20
124.3438817052
 30
0.0
 11
208.4990451373
 21
129.2532834647
 31
0.0
  0
LINE
  5
165
330
1F
100
AcDbEntity
  8
0
  6
HIDDEN
 62
     7
370
     0
100
AcDbLine
 10
212.3003686107
 20
124.3438817052
 30
0.0
 11
212.3003686107
 21
129.2532834647
 31
0.0
  0
LINE
  5
166
330
1F
100
AcDbEntity
  8
0
  6
HIDDEN
 62
     7
370
     0
100
AcDbLine
 10
212.4860892333
 20
124.3438817052
 30
0.0
 11
212.4860892333
 21
129.2532834647
 31
0.0
  0
LINE
  5
167
330
1F
100
AcDbEntity
  8
0
  6
HIDDEN
 62
     7
370
     0
100
AcDbLine
 10
210.2139825262
 20
124.3438817052
 30
0.0
 11
210.2139825262
 21
129.2532834647
 31
0.0
  0
LINE
  5
168
330
1F
100
AcDbEntity
  8
0
  6
HIDDEN
 62
     7
370
     0
100
AcDbLine
 10
208.3133245147
 20
124.3438817052
 30
0.0
 11
208.3133245147
 21
129.2532834647
 31
0.0
  0
SPLINE
  5
169
330
1F
100
AcDbEntity
  8
0
  6
HIDDEN
 62
     7
370
     0
100
AcDbSpline
210
0.0
220
0.0
230
1.0
 70
     8
 71
     3
 72
    10
 73
     6
 74
     0
 42
0.000000001
 43
0.00000001
 40
0.0
 40
0.0
 40
0.0
 40
0.0
 40
0.4391221214286916
 40
0.7513726412626198
 40
1.0
 40
1.0
 40
1.0
 40
1.0
 10
210.0794548429237
 20
129.2532834646584
 30
0.0
 10
209.818826016321
 20
129.1163027487976
 30
0.0
 10
209.3728695038217
 20
128.8819179222178
 30
0.0
 10
208.7245937702981
 20
128.9861030696606
 30
0.0
 10
208.401934630334
 20
129.1712230247092
 30
0.0
 10
208.2589054740654
 20
129.2532834646584
 30
0.0
  0
SPLINE
  5
16A
330
1F
100
AcDbEntity
  8
0
  6
HIDDEN
 62
     7
370
     0
100
AcDbSpline
210
0.0
220
0.0
230
1.0
 70
     8
 71
     3
 72
    10
 73
     6
 74
     0
 42
0.000000001
 43
0.00000001
 40
0.0
 40
0.0
 40
0.0
 40
0.0
 40
0.4391221972669254
 40
0.7513712892338995
 40
1.0
 40
1.0
 40
1.0
 40
1.0
 10
208.2589054740654
 20
129.2532834646584
 30
0.0
 10
208.3047524046262
 20
129.1163025270178
 30
0.0
 10
208.383199970104
 20
128.8819177831903
 30
0.0
 10
208.4972324092314
 20
128.9861041794845
 30
0.0
 10
208.5539927658073
 20
129.1712230487032
 30
0.0
 10
208.579153779863
 20
129.2532834646584
 30
0.0
  0
SPLINE
  5
16B
330
1F
100
AcDbEntity
  8
0
  6
HIDDEN
 62
     7
370
     0
100
AcDbSpline
210
0.0
220
0.0
230
1.0
 70
     8
 71
     3
 72
    11
 73
     7
 74
     0
 42
0.000000001
 43
0.00000001
 40
0.0
 40
0.0
 40
0.0
 40
0.0
 40
0.1849305681077171
 40
0.5198470319664775
 40
0.8714451370278746
 40
1.0
 40
1.0
 40
1.0
 40
1.0
 10
208.579153779863
 20
129.2532834646584
 30
0.0
 10
208.7037584253724
 20
129.1908795104987
 30
0.0
 10
209.0540269385777
 20
129.015459564057
 30
0.0
 10
209.7078709113708
 20
128.8858573305739
 30
0.0
 10
210.3117244353994
 20
129.0445602948367
 30
0.0
 10
210.6337367455382
 20
129.209202581961
 30
0.0
 10
210.7199514545189
 20
129.2532834646584
 30
0.0
  0
SPLINE
  5
16C
330
1F
100
AcDbEntity
  8
0
  6
HIDDEN
 62
     7
370
     0
100
AcDbSpline
210
0.0
220
0.0
230
1.0
 70
     8
 71
     3
 72
    10
 73
     6
 74
     0
 42
0.000000001
 43
0.00000001
 40
0.0
 40
0.0
 40
0.0
 40
0.0
 40
0.4391211238738311
 40
0.7513709343674447
 40
1.0
 40
1.0
 40
1.0
 40
1.0
 10
210.7199514545189
 20
129.2532834646584
 30
0.0
 10
210.9805804642755
 20
129.11630262291
 30
0.0
 10
211.4265372901658
 20
128.8819175809269
 30
0.0
 10
212.0748127724417
 20
128.9861041499665
 30
0.0
 10
212.3974764005957
 20
129.1712230672966
 30
0.0
 10
212.5405082739578
 20
129.2532834646584
 30
0.0
  0
SPLINE
  5
16D
330
1F
100
AcDbEntity
  8
0
  6
HIDDEN
 62
     7
370
     0
100
AcDbSpline
210
0.0
220
0.0
230
1.0
 70
     8
 71
     3
 72
    10
 73
     6
 74
     0
 42
0.000000001
 43
0.00000001
 40
0.0
 40
0.0
 40
0.0
 40
0.0
 40
0.0933945589473932
 40
0.5981160827888616
 40
0.9999999999999999
 40
0.9999999999999999
 40
0.9999999999999999
 40
0.9999999999999999
 10
212.418914798616
 20
128.9891529319168
 30
0.0
 10
212.4128066295769
 20
128.9744773354715
 30
0.0
 10
212.3736887818153
 20
128.8804920931044
 30
0.0
 10
212.3018873867505
 20
128.9981806590196
 30
0.0
 10
212.2453306701325
 20
129.1749322620489
 30
0.0
 10
212.2202599681602
 20
129.2532834646584
 30
0.0
  0
SPLINE
  5
16E
330
1F
100
AcDbEntity
  8
0
  6
HIDDEN
 62
     7
370
     0
100
AcDbSpline
210
0.0
220
0.0
230
1.0
 70
     8
 71
     3
 72
    11
 73
     7
 74
     0
 42
0.000000001
 43
0.00000001
 40
0.0
 40
0.0
 40
0.0
 40
0.0
 40
0.1285571286894227
 40
0.4801543306835576
 40
0.8150698995085832
 40
1.0
 40
1.0
 40
1.0
 40
1.0
 10
212.2202599681602
 20
129.2532834646584
 30
0.0
 10
212.1340426945114
 20
129.2092026512582
 30
0.0
 10
211.8120255668404
 20
129.0445630574066
 30
0.0
 10
211.2081726889877
 20
128.8858565297012
 30
0.0
 10
210.5543278715378
 20
129.0154596793378
 30
0.0
 10
210.2040594628104
 20
129.1908795364834
 30
0.0
 10
210.0794548429237
 20
129.2532834646584
 30
0.0
  0
LINE
  5
16F
330
1F
100
AcDbEntity
  8
0
  6
HIDDEN
 62
     7
370
     0
100
AcDbLine
 10
211.5840101875
 20
124.3438817052
 30
0.0
 11
210.7199514545
 21
124.3438817052
 31
0.0
  0
LINE
  5
170
330
1F
100
AcDbEntity
  8
0
  6
HIDDEN
 62
     7
370
     0
100
AcDbLine
 10
210.7199514545
 20
124.3438817052
 30
0.0
 11
210.6486941017
 21
124.3438817052
 31
0.0
  0
LINE
  5
171
330
1F
100
AcDbEntity
  8
0
  6
HIDDEN
 62
     7
370
     0
100
AcDbLine
 10
210.7199514545
 20
124.3438817052
 30
0.0
 11
210.7199514545
 21
129.2532834647
 31
0.0
  0
LINE
  5
172
330
1F
100
AcDbEntity
  8
0
  6
HIDDEN
 62
     7
370
     0
100
AcDbLine
 10
209.595204357
 20
124.3438817052
 30
0.0
 11
208.5791537799
 21
124.3438817052
 31
0.0
  0
LINE
  5
173
330
1F
100
AcDbEntity
  8
0
  6
HIDDEN
 62
     7
370
     0
100
AcDbLine
 10
212.540508274
 20
124.3438817052
 30
0.0
 11
212.4860892333
 21
124.3438817052
 31
0.0
  0
LINE
  5
174
330
1F
100
AcDbEntity
  8
0
  6
HIDDEN
 62
     7
370
     0
100
AcDbLine
 10
208.5791537799
 20
124.3438817052
 30
0.0
 11
208.568491999
 21
124.3438817052
 31
0.0
  0
LINE
  5
175
330
1F
100
AcDbEntity
  8
0
  6
HIDDEN
 62
     7
370
     0
100
AcDbLine
 10
208.5791537799
 20
124.3438817052
 30
0.0
 11
208.5791537799
 21
129.2532834647
 31
0.0
  0
LINE
  5
176
330
1F
100
AcDbEntity
  8
0
  6
HIDDEN
 62
     7
370
     0
100
AcDbLine
 10
212.2202599682
 20
124.3438817052
 30
0.0
 11
212.2202599682
 21
129.2532834647
 31
0.0
  0
LINE
  5
177
330
1F
100
AcDbEntity
  8
0
  6
HIDDEN
 62
     7
370
     0
100
AcDbLine
 10
212.540508274
 20
124.3438817052
 30
0.0
 11
212.540508274
 21
129.2532834647
 31
0.0
  0
LINE
  5
178
330
1F
100
AcDbEntity
  8
0
  6
HIDDEN
 62
     7
370
     0
100
AcDbLine
 10
208.4108973182
 20
124.3438817052
 30
0.0
 11
208.2589054741
 21
124.3438817052
 31
0.0
  0
LINE
  5
179
330
1F
100
AcDbEntity
  8
0
  6
HIDDEN
 62
     7
370
     0
100
AcDbLine
 10
210.0794548429
 20
124.3438817052
 30
0.0
 11
210.0794548429
 21
129.2532834647
 31
0.0
  0
LINE
  5
17A
330
1F
100
AcDbEntity
  8
0
  6
HIDDEN
 62
     7
370
     0
100
AcDbLine
 10
208.2589054741
 20
124.3438817052
 30
0.0
 11
208.2589054741
 21
129.2532834647
 31
0.0
  0
LINE
  5
17B
330
1F
100
AcDbEntity
  8
0
  6
HIDDEN
 62
     7
370
     0
100
AcDbLine
 10
122.4497044719
 20
88.019950637
 30
0.0
 11
122.5438652442
 21
88.6899385092
 31
0.0
  0
LINE
  5
17C
330
1F
100
AcDbEntity
  8
0
  6
HIDDEN
 62
     7
370
     0
100
AcDbLine
 10
122.5438652442
 20
137.9978250203
 30
0.0
 11
122.4497044719
 21
138.6678128925
 31
0.0
  0
ARC
  5
17D
330
1F
100
AcDbEntity
  8
0
  6
HIDDEN
 62
     7
370
     0
100
AcDbCircle
 10
121.9496977193
 20
88.7734441504
 30
0.0
 40
0.6000067526677242
100
AcDbArc
 50
352.0
 51
0.0
  0
ARC
  5
17E
330
1F
100
AcDbEntity
  8
0
  6
HIDDEN
 62
     7
370
     0
100
AcDbCircle
 10
121.9496977193
 20
88.7734441504
 30
0.0
 40
0.6000067526677242
100
AcDbArc
 50
0.0
 51
33.5571153394
  0
ARC
  5
17F
330
1F
100
AcDbEntity
  8
0
  6
HIDDEN
 62
     7
370
     0
100
AcDbCircle
 10
121.9496977193
 20
137.9143193791
 30
0.0
 40
0.6000067526677262
100
AcDbArc
 50
348.75
 51
8.0
  0
LWPOLYLINE
  5
180
330
1F
100
AcDbEntity
  8
0
  6
HIDDEN
 62
     7
370
     0
100
AcDbPolyline
 90
        3
 70
   128
 43
0.0
 10
122.5381755109
 20
137.7972647039
 10
122.5040316791
 20
137.6847069201
 10
122.4497044719
 20
137.5826544551
  0
LINE
  5
181
330
1F
100
AcDbEntity
  8
0
  6
HIDDEN
 62
     7
370
     0
100
AcDbLine
 10
122.5497044694
 20
88.7734446165
 30
0.0
 11
122.5497044694
 21
137.914318913
 31
0.0
  0
ARC
  5
182
330
1F
100
AcDbEntity
  8
0
  6
HIDDEN
 62
     7
370
     0
100
AcDbCircle
 10
116.2047064735
 20
101.3438817648
 30
0.0
 40
8.000000000000004
100
AcDbArc
 50
276.8737647156
 51
321.3178125465
  0
ARC
  5
183
330
1F
100
AcDbEntity
  8
0
  6
HIDDEN
 62
     7
370
     0
100
AcDbCircle
 10
116.2047064735
 20
125.3438817648
 30
0.0
 40
8.00000000000001
100
AcDbArc
 50
38.6821874535
 51
83.1168281217
  0
LINE
  5
184
330
1F
100
AcDbEntity
  8
0
  6
HIDDEN
 62
     7
370
     0
100
AcDbLine
 10
105.5321404971
 20
93.3438822118
 30
0.0
 11
109.7238119952
 21
93.3438822118
 31
0.0
  0
LINE
  5
185
330
1F
100
AcDbEntity
  8
0
  6
HIDDEN
 62
     7
370
     0
100
AcDbLine
 10
109.7238119952
 20
133.3438813177
 30
0.0
 11
105.5321404971
 21
133.3438813177
 31
0.0
  0
ARC
  5
186
330
1F
100
AcDbEntity
  8
0
  6
HIDDEN
 62
     7
370
     0
100
AcDbCircle
 10
105.5321400372
 20
93.9438817648
 30
0.0
 40
0.6000000000000155
100
AcDbArc
 50
210.0
 51
270.0
  0
ARC
  5
187
330
1F
100
AcDbEntity
  8
0
  6
HIDDEN
 62
     7
370
     0
100
AcDbCircle
 10
105.5321400372
 20
132.7438817648
 30
0.0
 40
0.6000000000000155
100
AcDbArc
 50
90.0
 51
150.0
  0
LINE
  5
188
330
1F
100
AcDbEntity
  8
0
  6
HIDDEN
 62
     7
370
     0
100
AcDbLine
 10
105.0125239677
 20
133.0438818273
 30
0.0
 11
103.4536799676
 21
130.3438826886
 31
0.0
  0
LINE
  5
189
330
1F
100
AcDbEntity
  8
0
  6
HIDDEN
 62
     7
370
     0
100
AcDbLine
 10
103.4536799676
 20
96.3438808409
 30
0.0
 11
105.0125239677
 21
93.6438817022
 31
0.0
  0
ARC
  5
18A
330
1F
100
AcDbEntity
  8
0
  6
HIDDEN
 62
     7
370
     0
100
AcDbCircle
 10
130.8997044719
 20
97.6188817648
 30
0.0
 40
1.5
100
AcDbArc
 50
238.2116693829
 51
0.0
  0
ARC
  5
18B
330
1F
100
AcDbEntity
  8
0
  6
HIDDEN
 62
     7
370
     0
100
AcDbCircle
 10
130.8997044719
 20
129.0688817648
 30
0.0
 40
1.500000000000001
100
AcDbArc
 50
0.0
 51
121.7883306171
  0
LINE
  5
18C
330
1F
100
AcDbEntity
  8
0
  6
HIDDEN
 62
     7
370
     0
100
AcDbLine
 10
122.4497044719
 20
96.3438808409
 30
0.0
 11
130.109530434
 21
96.3438808409
 31
0.0
  0
LINE
  5
18D
330
1F
100
AcDbEntity
  8
0
  6
HIDDEN
 62
     7
370
     0
100
AcDbLine
 10
130.109530434
 20
130.3438826886
 30
0.0
 11
122.4497044719
 21
130.3438826886
 31
0.0
  0
LINE
  5
18E
330
1F
100
AcDbEntity
  8
0
  6
HIDDEN
 62
     7
370
     0
100
AcDbLine
 10
100.6497042514
 20
96.3438808409
 30
0.0
 11
103.4536799676
 21
96.3438808409
 31
0.0
  0
LINE
  5
18F
330
1F
100
AcDbEntity
  8
0
  6
HIDDEN
 62
     7
370
     0
100
AcDbLine
 10
103.4536799676
 20
130.3438826886
 30
0.0
 11
96.6497035958
 21
130.3438826886
 31
0.0
  0
ARC
  5
190
330
1F
100
AcDbEntity
  8
0
  6
HIDDEN
 62
     7
370
     0
100
AcDbCircle
 10
221.4497044719
 20
123.3438817648
 30
0.0
 40
1.0
100
AcDbArc
 50
270.0
 51
0.0
  0
ARC
  5
191
330
1F
100
AcDbEntity
  8
0
  6
HIDDEN
 62
     7
370
     0
100
AcDbCircle
 10
221.4497044719
 20
103.3438817648
 30
0.0
 40
1.0
100
AcDbArc
 50
0.0
 51
90.0
  0
ARC
  5
192
330
1F
100
AcDbEntity
  8
0
  6
HIDDEN
 62
     7
370
     0
100
AcDbCircle
 10
201.3443824739
 20
122.0438817648
 30
0.0
 40
0.7999999999999982
100
AcDbArc
 50
75.0
 51
90.0
  0
ARC
  5
193
330
1F
100
AcDbEntity
  8
0
  6
HIDDEN
 62
     7
370
     0
100
AcDbCircle
 10
201.3443824739
 20
104.6438817648
 30
0.0
 40
0.7999999999999982
100
AcDbArc
 50
270.0
 51
285.0
  0
LINE
  5
194
330
1F
100
AcDbEntity
  8
0
  6
HIDDEN
 62
     7
370
     0
100
AcDbLine
 10
201.3443792499
 20
122.8438814593
 30
0.0
 11
200.749703709
 21
122.8438814593
 31
0.0
  0
LINE
  5
195
330
1F
100
AcDbEntity
  8
0
  6
HIDDEN
 62
     7
370
     0
100
AcDbLine
 10
200.749703709
 20
103.8438820702
 30
0.0
 11
201.3443792499
 21
103.8438820702
 31
0.0
  0
ARC
  5
196
330
1F
100
AcDbEntity
  8
0
  6
HIDDEN
 62
     7
370
     0
100
AcDbCircle
 10
200.7497044719
 20
122.0438817648
 30
0.0
 40
0.799999999999983
100
AcDbArc
 50
90.0
 51
180.0
  0
ARC
  5
197
330
1F
100
AcDbEntity
  8
0
  6
HIDDEN
 62
     7
370
     0
100
AcDbCircle
 10
200.7497044719
 20
104.6438817648
 30
0.0
 40
0.7999999999999972
100
AcDbArc
 50
180.0
 51
270.0
  0
LINE
  5
198
330
1F
100
AcDbEntity
  8
0
  6
HIDDEN
 62
     7
370
     0
100
AcDbLine
 10
141.2497042007
 20
103.8438820702
 30
0.0
 11
144.2497046925
 21
103.8438820702
 31
0.0
  0
LINE
  5
199
330
1F
100
AcDbEntity
  8
0
  6
HIDDEN
 62
     7
370
     0
100
AcDbLine
 10
144.2497046925
 20
122.8438814593
 30
0.0
 11
141.2497042007
 21
122.8438814593
 31
0.0
  0
LINE
  5
19A
330
1F
100
AcDbEntity
  8
0
  6
HIDDEN
 62
     7
370
     0
100
AcDbLine
 10
201.5514383353
 20
103.8711409507
 30
0.0
 11
203.3157283701
 21
104.3438821522
 31
0.0
  0
LINE
  5
19B
330
1F
100
AcDbEntity
  8
0
  6
HIDDEN
 62
     7
370
     0
100
AcDbLine
 10
203.3157283701
 20
122.3438813773
 30
0.0
 11
201.5514383353
 21
122.8166225788
 31
0.0
  0
LINE
  5
19C
330
1F
100
AcDbEntity
  8
0
  6
HIDDEN
 62
     7
370
     0
100
AcDbLine
 10
206.9400558509
 20
122.3438813773
 30
0.0
 11
203.3157283701
 21
122.3438813773
 31
0.0
  0
LINE
  5
19D
330
1F
100
AcDbEntity
  8
0
  6
HIDDEN
 62
     7
370
     0
100
AcDbLine
 10
221.4497039355
 20
122.3438813773
 30
0.0
 11
213.8639400042
 21
122.3438813773
 31
0.0
  0
LINE
  5
19E
330
1F
100
AcDbEntity
  8
0
  6
HIDDEN
 62
     7
370
     0
100
AcDbLine
 10
203.3157283701
 20
104.3438821522
 30
0.0
 11
221.4497039355
 21
104.3438821522
 31
0.0
  0
LINE
  5
19F
330
1F
100
AcDbEntity
  8
0
  6
HIDDEN
 62
     7
370
     0
100
AcDbLine
 10
132.3997043334
 20
104.3438821522
 30
0.0
 11
132.8997044153
 21
104.8438813028
 31
0.0
  0
LINE
  5
1A0
330
1F
100
AcDbEntity
  8
0
  6
HIDDEN
 62
     7
370
     0
100
AcDbLine
 10
132.8997044153
 20
121.8438822267
 30
0.0
 11
132.3997043334
 21
122.3438813773
 31
0.0
  0
LINE
  5
1A1
330
1F
100
AcDbEntity
  8
0
  6
HIDDEN
 62
     7
370
     0
100
AcDbLine
 10
132.8997044153
 20
104.8438813028
 30
0.0
 11
141.2497042007
 21
104.8438813028
 31
0.0
  0
LINE
  5
1A2
330
1F
100
AcDbEntity
  8
0
  6
HIDDEN
 62
     7
370
     0
100
AcDbLine
 10
141.2497042007
 20
121.8438822267
 30
0.0
 11
132.8997044153
 21
121.8438822267
 31
0.0
  0
LINE
  5
1A3
330
1F
100
AcDbEntity
  8
0
  6
HIDDEN
 62
     7
370
     0
100
AcDbLine
 10
127.3997044451
 20
144.8438822714
 30
0.0
 11
127.3997044451
 21
139.7438816217
 31
0.0
  0
LINE
  5
1A4
330
1F
100
AcDbEntity
  8
0
  6
HIDDEN
 62
     7
370
     0
100
AcDbLine
 10
205.3997079171
 20
129.3438825247
 30
0.0
 11
206.8997035063
 21
127.8438813475
 31
0.0
  0
LINE
  5
1A5
330
1F
100
AcDbEntity
  8
0
  6
HIDDEN
 62
     7
370
     0
100
AcDbLine
 10
213.8997027911
 20
127.8438813475
 30
0.0
 11
215.3997058309
 21
129.3438825247
 31
0.0
  0
LINE
  5
1A6
330
1F
100
AcDbEntity
  8
0
  6
HIDDEN
 62
     7
370
     0
100
AcDbLine
 10
117.6341423094
 20
89.264510521
 30
0.0
 11
117.1997101307
 21
89.7435772655
 31
0.0
  0
LINE
  5
1A7
330
1F
100
AcDbEntity
  8
0
  6
HIDDEN
 62
     7
370
     0
100
AcDbLine
 10
109.699706573
 20
90.1652652261
 30
0.0
 11
109.2172730975
 21
89.6861984817
 31
0.0
  0
LINE
  5
1A8
330
1F
100
AcDbEntity
  8
0
  6
HIDDEN
 62
     7
370
     0
100
AcDbLine
 10
109.2171510942
 20
137.0015594599
 30
0.0
 11
109.6997019164
 21
136.5224386988
 31
0.0
  0
LINE
  5
1A9
330
1F
100
AcDbEntity
  8
0
  6
HIDDEN
 62
     7
370
     0
100
AcDbLine
 10
117.1997045427
 20
136.9441378353
 30
0.0
 11
117.6342466175
 21
137.4232567338
 31
0.0
  0
LINE
  5
1AA
330
1F
100
AcDbEntity
  8
0
  6
HIDDEN
 62
     7
370
     0
100
AcDbLine
 10
144.2497046925
 20
109.1438819145
 30
0.0
 11
199.949705068
 21
109.1438819145
 31
0.0
  0
LINE
  5
1AB
330
1F
100
AcDbEntity
  8
0
  6
HIDDEN
 62
     7
370
     0
100
AcDbLine
 10
199.949705068
 20
117.543881615
 30
0.0
 11
144.2497046925
 21
117.543881615
 31
0.0
  0
LINE
  5
1AC
330
1F
100
AcDbEntity
  8
0
  6
HIDDEN
 62
     7
370
     0
100
AcDbLine
 10
117.1997045427
 20
133.2792829213
 30
0.0
 11
117.1997045427
 21
136.9438454
 31
0.0
  0
LINE
  5
1AD
330
1F
100
AcDbEntity
  8
0
  6
HIDDEN
 62
     7
370
     0
100
AcDbLine
 10
109.6997047104
 20
136.5222952751
 30
0.0
 11
109.6997047104
 21
133.3395041016
 31
0.0
  0
LINE
  5
1AE
330
1F
100
AcDbEntity
  8
0
  6
HIDDEN
 62
     7
370
     0
100
AcDbLine
 10
117.1997045427
 20
89.7440596906
 30
0.0
 11
117.1997045427
 21
93.4084806082
 31
0.0
  0
LINE
  5
1AF
330
1F
100
AcDbEntity
  8
0
  6
HIDDEN
 62
     7
370
     0
100
AcDbLine
 10
109.6997047104
 20
93.3482594279
 30
0.0
 11
109.6997047104
 21
90.1655874637
 31
0.0
  0
LINE
  5
1B0
330
1F
100
AcDbEntity
  8
0
  6
HIDDEN
 62
     7
370
     0
100
AcDbLine
 10
206.8997035063
 20
127.8438813475
 30
0.0
 11
206.8997035063
 21
122.3283515734
 31
0.0
  0
LINE
  5
1B1
330
1F
100
AcDbEntity
  8
0
  6
HIDDEN
 62
     7
370
     0
100
AcDbLine
 10
213.8997027911
 20
122.3302086306
 30
0.0
 11
213.8997027911
 21
127.8438813475
 31
0.0
  0
LINE
  5
1B2
330
1F
100
AcDbEntity
  8
0
  6
HIDDEN
 62
     7
370
     0
100
AcDbLine
 10
214.3997038044
 20
128.6438818512
 30
0.0
 11
213.990890447
 21
129.0526933459
 31
0.0
  0
LINE
  5
1B3
330
1F
100
AcDbEntity
  8
0
  6
HIDDEN
 62
     7
370
     0
100
AcDbLine
 10
206.8089032806
 20
129.0530789134
 30
0.0
 11
206.3997024931
 21
128.6438818512
 31
0.0
  0
LINE
  5
1B4
330
1F
100
AcDbEntity
  8
0
  6
HIDDEN
 62
     7
370
     0
100
AcDbLine
 10
206.3997024931
 20
128.6438818512
 30
0.0
 11
206.3997024931
 21
123.449137756
 31
0.0
  0
LINE
  5
1B5
330
1F
100
AcDbEntity
  8
0
  6
HIDDEN
 62
     7
370
     0
100
AcDbLine
 10
214.3997038044
 20
123.449137756
 30
0.0
 11
214.3997038044
 21
128.6438818512
 31
0.0
  0
LINE
  5
1B6
330
1F
100
AcDbEntity
  8
0
  6
HIDDEN
 62
     7
370
     0
100
AcDbLine
 10
206.3997024931
 20
123.449137756
 30
0.0
 11
207.4401239194
 21
119.5662360129
 31
0.0
  0
LINE
  5
1B7
330
1F
100
AcDbEntity
  8
0
  6
HIDDEN
 62
     7
370
     0
100
AcDbLine
 10
213.3592823781
 20
119.5662360129
 30
0.0
 11
214.3997038044
 21
123.449137756
 31
0.0
  0
ARC
  5
1B8
330
1F
100
AcDbEntity
  8
0
  6
HIDDEN
 62
     7
370
     0
100
AcDbCircle
 10
207.7299025683
 20
119.6438817648
 30
0.0
 40
0.3000000000000205
100
AcDbArc
 50
195.0
 51
270.0
  0
ARC
  5
1B9
330
1F
100
AcDbEntity
  8
0
  6
HIDDEN
 62
     7
370
     0
100
AcDbCircle
 10
213.0695063756
 20
119.6438817648
 30
0.0
 40
0.3000000000000205
100
AcDbArc
 50
270.0
 51
345.0
  0
LINE
  5
1BA
330
1F
100
AcDbEntity
  8
0
  6
HIDDEN
 62
     7
370
     0
100
AcDbLine
 10
207.9997072257
 20
129.3438825247
 30
0.0
 11
208.3997065462
 21
128.9438813416
 31
0.0
  0
LINE
  5
1BB
330
1F
100
AcDbEntity
  8
0
  6
HIDDEN
 62
     7
370
     0
100
AcDbLine
 10
212.3997072018
 20
128.9438813416
 30
0.0
 11
212.7997065223
 21
129.3438825247
 31
0.0
  0
LINE
  5
1BC
330
1F
100
AcDbEntity
  8
0
  6
HIDDEN
 62
     7
370
     0
100
AcDbLine
 10
208.3997065462
 20
124.3438817052
 30
0.0
 11
208.3997065462
 21
123.3438815412
 31
0.0
  0
LINE
  5
1BD
330
1F
100
AcDbEntity
  8
0
  6
HIDDEN
 62
     7
370
     0
100
AcDbLine
 10
212.3997072018
 20
123.3438815412
 30
0.0
 11
212.3997072018
 21
124.3438817052
 31
0.0
  0
LINE
  5
1BE
330
1F
100
AcDbEntity
  8
0
  6
HIDDEN
 62
     7
370
     0
100
AcDbLine
 10
208.3997065462
 20
123.3438815412
 30
0.0
 11
210.3997031487
 21
122.6159411905
 31
0.0
  0
LINE
  5
1BF
330
1F
100
AcDbEntity
  8
0
  6
HIDDEN
 62
     7
370
     0
100
AcDbLine
 10
210.3997031487
 20
122.6159411905
 30
0.0
 11
212.3997072018
 21
123.3438815412
 31
0.0
  0
LINE
  5
1C0
330
1F
100
AcDbEntity
  8
0
  6
HIDDEN
 62
     7
370
     0
100
AcDbLine
 10
214.3997038044
 20
128.6438818512
 30
0.0
 11
213.990890447
 21
129.0526933459
 31
0.0
  0
LINE
  5
1C1
330
1F
100
AcDbEntity
  8
0
  6
HIDDEN
 62
     7
370
     0
100
AcDbLine
 10
206.8089032806
 20
129.0530789134
 30
0.0
 11
206.3997024931
 21
128.6438818512
 31
0.0
  0
LINE
  5
1C2
330
1F
100
AcDbEntity
  8
0
  6
HIDDEN
 62
     7
370
     0
100
AcDbLine
 10
206.3997024931
 20
128.6438818512
 30
0.0
 11
206.3997024931
 21
123.449137756
 31
0.0
  0
LINE
  5
1C3
330
1F
100
AcDbEntity
  8
0
  6
HIDDEN
 62
     7
370
     0
100
AcDbLine
 10
214.3997038044
 20
123.449137756
 30
0.0
 11
214.3997038044
 21
128.6438818512
 31
0.0
  0
LINE
  5
1C4
330
1F
100
AcDbEntity
  8
0
  6
HIDDEN
 62
     7
370
     0
100
AcDbLine
 10
206.3997024931
 20
123.449137756
 30
0.0
 11
207.4401239194
 21
119.5662360129
 31
0.0
  0
LINE
  5
1C5
330
1F
100
AcDbEntity
  8
0
  6
HIDDEN
 62
     7
370
     0
100
AcDbLine
 10
213.3592823781
 20
119.5662360129
 30
0.0
 11
214.3997038044
 21
123.449137756
 31
0.0
  0
LINE
  5
1C6
330
1F
100
AcDbEntity
  8
0
  6
HIDDEN
 62
     7
370
     0
100
AcDbLine
 10
207.9997072257
 20
129.3438825247
 30
0.0
 11
208.3997065462
 21
128.9438813416
 31
0.0
  0
LINE
  5
1C7
330
1F
100
AcDbEntity
  8
0
  6
HIDDEN
 62
     7
370
     0
100
AcDbLine
 10
212.3997072018
 20
128.9438813416
 30
0.0
 11
212.7997065223
 21
129.3438825247
 31
0.0
  0
LINE
  5
1C8
330
1F
100
AcDbEntity
  8
0
  6
HIDDEN
 62
     7
370
     0
100
AcDbLine
 10
208.3997065462
 20
124.3438817052
 30
0.0
 11
208.3997065462
 21
123.3438815412
 31
0.0
  0
LINE
  5
1C9
330
1F
100
AcDbEntity
  8
0
  6
HIDDEN
 62
     7
370
     0
100
AcDbLine
 10
212.3997072018
 20
123.3438815412
 30
0.0
 11
212.3997072018
 21
124.3438817052
 31
0.0
  0
LINE
  5
1CA
330
1F
100
AcDbEntity
  8
0
  6
HIDDEN
 62
     7
370
     0
100
AcDbLine
 10
208.3997065462
 20
123.3438815412
 30
0.0
 11
210.3997031487
 21
122.6159411905
 31
0.0
  0
LINE
  5
1CB
330
1F
100
AcDbEntity
  8
0
  6
HIDDEN
 62
     7
370
     0
100
AcDbLine
 10
210.3997031487
 20
122.6159411905
 30
0.0
 11
212.3997072018
 21
123.3438815412
 31
0.0
  0
LINE
  5
1CC
330
1F
100
AcDbEntity
  8
0
  6
HIDDEN
 62
     7
370
     0
100
AcDbLine
 10
122.5438652442
 20
137.9978250203
 30
0.0
 11
122.5438652442
 21
88.6899385092
 31
0.0
  0
LINE
  5
1CD
330
1F
100
AcDbEntity
  8
0
  6
HIDDEN
 62
     7
370
     0
100
AcDbLine
 10
91.6896602399
 20
134.2038347808
 30
0.0
 11
91.6896602399
 21
92.4839287487
 31
0.0
  0
LINE
  5
1CE
330
1F
100
AcDbEntity
  8
0
  6
HIDDEN
 62
     7
370
     0
100
AcDbLine
 10
116.2047065124
 20
93.5063532976
 30
0.0
 11
116.2047065124
 21
133.1814102319
 31
0.0
  0
LINE
  5
1CF
330
1F
100
AcDbEntity
  8
0
  6
HIDDEN
 62
     7
370
     0
100
AcDbLine
 10
116.2047065124
 20
133.1814102319
 30
0.0
 11
116.2047065124
 21
93.5063532976
 31
0.0
  0
LINE
  5
1D0
330
1F
100
AcDbEntity
  8
0
  6
HIDDEN
 62
     7
370
     0
100
AcDbLine
 10
105.5321404971
 20
133.3438813177
 30
0.0
 11
105.5321404971
 21
93.3438822118
 31
0.0
  0
LINE
  5
1D1
330
1F
100
AcDbEntity
  8
0
  6
HIDDEN
 62
     7
370
     0
100
AcDbLine
 10
105.0125239677
 20
133.0438818273
 30
0.0
 11
105.0125239677
 21
93.6438817022
 31
0.0
  0
LINE
  5
1D2
330
1F
100
AcDbEntity
  8
0
  6
HIDDEN
 62
     7
370
     0
100
AcDbLine
 10
90.5497046448
 20
117.1076610641
 30
0.0
 11
91.8497042991
 21
116.9485154984
 31
0.0
  0
LINE
  5
1D3
330
1F
100
AcDbEntity
  8
0
  6
HIDDEN
 62
     7
370
     0
100
AcDbLine
 10
90.5497046448
 20
109.5801024654
 30
0.0
 11
91.8497042991
 21
109.7392480311
 31
0.0
  0
LINE
  5
1D4
330
1F
100
AcDbEntity
  8
0
  6
HIDDEN
 62
     7
370
     0
100
AcDbLine
 10
99.249704767
 20
95.3538812188
 30
0.0
 11
99.249704767
 21
92.4738816408
 31
0.0
  0
LINE
  5
1D5
330
1F
100
AcDbEntity
  8
0
  6
HIDDEN
 62
     7
370
     0
100
AcDbLine
 10
99.249704767
 20
95.3538812188
 30
0.0
 11
91.6997036226
 21
95.3538812188
 31
0.0
  0
LINE
  5
1D6
330
1F
100
AcDbEntity
  8
0
  6
HIDDEN
 62
     7
370
     0
100
AcDbLine
 10
100.6497042514
 20
95.3538812188
 30
0.0
 11
99.249704767
 21
95.3538812188
 31
0.0
  0
LINE
  5
1D7
330
1F
100
AcDbEntity
  8
0
  6
HIDDEN
 62
     7
370
     0
100
AcDbLine
 10
91.6997036226
 20
95.3538812188
 30
0.0
 11
90.5497046448
 21
95.3538812188
 31
0.0
  0
LINE
  5
1D8
330
1F
100
AcDbEntity
  8
0
  6
HIDDEN
 62
     7
370
     0
100
AcDbLine
 10
90.5497046448
 20
131.3338823107
 30
0.0
 11
91.6997036226
 21
131.3338823107
 31
0.0
  0
LINE
  5
1D9
330
1F
100
AcDbEntity
  8
0
  6
HIDDEN
 62
     7
370
     0
100
AcDbLine
 10
221.4497039355
 20
122.3438813773
 30
0.0
 11
221.4497039355
 21
104.3489075688
 31
0.0
  0
LINE
  5
1DA
330
1F
100
AcDbEntity
  8
0
  6
HIDDEN
 62
     7
370
     0
100
AcDbLine
 10
95.2497041113
 20
131.3338823107
 30
0.0
 11
95.2497041113
 21
134.2138818887
 31
0.0
  0
LINE
  5
1DB
330
1F
100
AcDbEntity
  8
0
  6
HIDDEN
 62
     7
370
     0
100
AcDbLine
 10
95.2497041113
 20
131.3338823107
 30
0.0
 11
96.6497035958
 21
131.3338823107
 31
0.0
  0
LINE
  5
1DC
330
1F
100
AcDbEntity
  8
0
  6
HIDDEN
 62
     7
370
     0
100
AcDbLine
 10
91.6997036226
 20
131.3338823107
 30
0.0
 11
95.2497041113
 21
131.3338823107
 31
0.0
  0
LINE
  5
1DD
330
1F
100
AcDbEntity
  8
0
  6
HIDDEN
 62
     7
370
     0
100
AcDbLine
 10
201.3443792499
 20
122.8438814593
 30
0.0
 11
201.3443792499
 21
103.8438820702
 31
0.0
  0
LINE
  5
1DE
330
1F
100
AcDbEntity
  8
0
  6
HIDDEN
 62
     7
370
     0
100
AcDbLine
 10
201.5514383353
 20
122.8166225788
 30
0.0
 11
201.5514383353
 21
103.8711409507
 31
0.0
  0
LINE
  5
1DF
330
1F
100
AcDbEntity
  8
0
  6
HIDDEN
 62
     7
370
     0
100
AcDbLine
 10
200.749703709
 20
122.8438814593
 30
0.0
 11
200.749703709
 21
103.8438820702
 31
0.0
  0
LINE
  5
1E0
330
1F
100
AcDbEntity
  8
0
  6
HIDDEN
 62
     7
370
     0
100
AcDbLine
 10
135.3997048251
 20
83.1569641319
 30
0.0
 11
135.3997048251
 21
86.9438819078
 31
0.0
  0
LINE
  5
1E1
330
1F
100
AcDbEntity
  8
0
  6
HIDDEN
 62
     7
370
     0
100
AcDbLine
 10
135.3997048251
 20
143.8110772011
 30
0.0
 11
135.3997048251
 21
139.7438816217
 31
0.0
  0
LINE
  5
1E2
330
1F
100
AcDbEntity
  8
0
  6
HIDDEN
 62
     7
370
     0
100
AcDbLine
 10
99.249704767
 20
95.3538812188
 30
0.0
 11
99.249704767
 21
97.5423905489
 31
0.0
  0
LINE
  5
1E3
330
1F
100
AcDbEntity
  8
0
  6
HIDDEN
 62
     7
370
     0
100
AcDbLine
 10
95.2497041113
 20
131.3338823107
 30
0.0
 11
95.2497041113
 21
129.1453729806
 31
0.0
  0
LINE
  5
1E4
330
1F
100
AcDbEntity
  8
0
  6
HIDDEN
 62
     7
370
     0
100
AcDbLine
 10
95.2497041113
 20
131.3338823107
 30
0.0
 11
96.6497035958
 21
131.3338823107
 31
0.0
  0
LINE
  5
1E5
330
1F
100
AcDbEntity
  8
0
  6
HIDDEN
 62
     7
370
     0
100
AcDbLine
 10
100.6497042514
 20
95.3538812188
 30
0.0
 11
99.249704767
 21
95.3538812188
 31
0.0
  0
LINE
  5
1E6
330
1F
100
AcDbEntity
  8
0
  6
HIDDEN
 62
     7
370
     0
100
AcDbLine
 10
95.2497041113
 20
131.3338823107
 30
0.0
 11
95.2497041113
 21
134.2138818887
 31
0.0
  0
ARC
  5
1E7
330
1F
100
AcDbEntity
  8
0
  6
HIDDEN
 62
     7
370
     0
100
AcDbCircle
 10
99.2512204039
 20
91.1736811894
 30
0.0
 40
1.473887302894141
100
AcDbArc
 50
65.1155624511
 51
90.0589187627
  0
LINE
  5
1E8
330
1F
100
AcDbEntity
  8
0
  6
HIDDEN
 62
     7
370
     0
100
AcDbLine
 10
99.249704767
 20
95.3538812188
 30
0.0
 11
99.249704767
 21
92.4738816408
 31
0.0
  0
LINE
  5
1E9
330
1F
100
AcDbEntity
  8
0
  6
HIDDEN
 62
     7
370
     0
100
AcDbLine
 10
90.5497046448
 20
99.0842472253
 30
0.0
 11
91.8497042991
 21
99.687193842
 31
0.0
  0
LINE
  5
1EA
330
1F
100
AcDbEntity
  8
0
  6
HIDDEN
 62
     7
370
     0
100
AcDbLine
 10
90.6123677529
 20
133.0184343693
 30
0.0
 11
91.3738580681
 21
133.7340011684
 31
0.0
  0
LINE
  5
1EB
330
1F
100
AcDbEntity
  8
0
  6
HIDDEN
 62
     7
370
     0
100
AcDbLine
 10
90.5497046448
 20
127.6035163042
 30
0.0
 11
91.8497042991
 21
127.0005696875
 31
0.0
  0
LINE
  5
1EC
330
1F
100
AcDbEntity
  8
0
  6
HIDDEN
 62
     7
370
     0
100
AcDbLine
 10
99.249704767
 20
92.647567713
 30
0.0
 11
96.9811799265
 21
92.647567713
 31
0.0
  0
LINE
  5
1ED
330
1F
100
AcDbEntity
  8
0
  6
HIDDEN
 62
     7
370
     0
100
AcDbLine
 10
91.3738580681
 20
92.9537623612
 30
0.0
 11
90.6123677529
 21
93.6693291602
 31
0.0
  0
LINE
  5
1EE
330
1F
100
AcDbEntity
  8
0
  6
HIDDEN
 62
     7
370
     0
100
AcDbLine
 10
139.3397050239
 20
139.7438816217
 30
0.0
 11
139.3397050239
 21
86.9438819078
 31
0.0
  0
LINE
  5
1EF
330
1F
100
AcDbEntity
  8
0
  6
HIDDEN
 62
     7
370
     0
100
AcDbLine
 10
141.5597042329
 20
139.7438816217
 30
0.0
 11
141.5597042329
 21
86.9438819078
 31
0.0
  0
LINE
  5
1F0
330
1F
100
AcDbEntity
  8
0
  6
HIDDEN
 62
     7
370
     0
100
AcDbLine
 10
147.7997051812
 20
143.8110772011
 30
0.0
 11
147.7997051812
 21
83.1569641319
 31
0.0
  0
LINE
  5
1F1
330
1F
100
AcDbEntity
  8
0
  6
HIDDEN
 62
     7
370
     0
100
AcDbLine
 10
99.249704767
 20
92.647567713
 30
0.0
 11
99.249704767
 21
92.9574131456
 31
0.0
  0
LINE
  5
1F2
330
1F
100
AcDbEntity
  8
0
  6
HIDDEN
 62
     7
370
     0
100
AcDbLine
 10
90.5497046448
 20
121.9403570009
 30
0.0
 11
91.8497042991
 21
121.5768683193
 31
0.0
  0
LINE
  5
1F3
330
1F
100
AcDbEntity
  8
0
  6
HIDDEN
 62
     7
370
     0
100
AcDbLine
 10
90.5497046448
 20
104.7474065286
 30
0.0
 11
91.8497042991
 21
105.1108952103
 31
0.0
  0
CIRCLE
  5
1F4
330
1F
100
AcDbEntity
  8
0
  6
HIDDEN
 62
     7
370
     0
100
AcDbCircle
 10
129.4497044719
 20
113.3438817648
 30
0.0
 40
4.700000000000003
  0
LINE
  5
1F5
330
1F
100
AcDbEntity
  8
0
  6
HIDDEN
 62
     7
370
     0
100
AcDbLine
 10
213.3592823781
 20
119.5662360129
 30
0.0
 11
207.4497128166
 21
119.5662360129
 31
0.0
  0
LINE
  5
1F6
330
1F
100
AcDbEntity
  8
0
  6
HIDDEN
 62
     7
370
     0
100
AcDbLine
 10
213.3592823781
 20
119.5662360129
 30
0.0
 11
207.453080479
 21
119.5662360129
 31
0.0
  0
CIRCLE
  5
1F7
330
1F
100
AcDbEntity
  8
0
  6
HIDDEN
 62
     7
370
     0
100
AcDbCircle
 10
210.3997044719
 20
113.3438817648
 30
0.0
 40
2.959579651493019
  0
CIRCLE
  5
1F8
330
1F
100
AcDbEntity
  8
0
  6
HIDDEN
 62
     7
370
     0
100
AcDbCircle
 10
210.3997044719
 20
113.3438817648
 30
0.0
 40
2.669801903606313
  0
DIMENSION
  5
1F9
330
1F
100
AcDbEntity
  8
VERMASSUNG
100
AcDbDimension
  2
_D
 10
83.9837043012
 20
81.8438817648
 30
0.0
 11
83.9837043012
 21
113.3438817648
 31
0.0
 70
   160
  1
HSK A%%c<>
 71
     2
 42
-1.0
  3
SLDDIMSTYLE0
100
AcDbAlignedDimension
 13
122.7497044719
 23
144.8438817648
 33
0.0
 14
122.7497044719
 24
81.8438817648
 34
0.0
 50
90.0
100
AcDbRotatedDimension
  0
DIMENSION
  5
206
330
1F
100
AcDbEntity
  8
VERMASSUNG
100
AcDbDimension
  2
_D_1
 10
222.4497044719
 20
148.5411826822
 30
0.0
 11
185.4247044719
 21
148.5411826822
 31
0.0
 70
   160
  1
<>
 71
     2
 42
-1.0
  3
SLDDIMSTYLE0
100
AcDbAlignedDimension
 13
148.3997044719
 23
143.1903220885
 33
0.0
 14
222.4497044719
 24
129.0438817648
 34
0.0
100
AcDbRotatedDimension
  0
DIMENSION
  5
210
330
1F
100
AcDbEntity
  8
VERMASSUNG
100
AcDbDimension
  2
_D_2
 10
122.4497044719
 20
154.5411826822
 30
0.0
 11
172.4497044719
 21
154.5411826822
 31
0.0
 70
   160
  1
<>
 71
     2
 42
-1.0
  3
SLDDIMSTYLE0
100
AcDbAlignedDimension
 13
222.4497044719
 23
129.0438817648
 33
0.0
 14
122.4497044719
 24
144.5438817648
 34
0.0
100
AcDbRotatedDimension
  0
DIMENSION
  5
21A
330
1F
100
AcDbEntity
  8
VERMASSUNG
100
AcDbDimension
  2
_D_3
 10
90.5497044719
 20
160.046083774
 30
0.0
 11
156.4997044719
 21
160.046083774
 31
0.0
 70
   160
  1
<>
 71
     2
 42
-1.0
  3
SLDDIMSTYLE0
100
AcDbAlignedDimension
 13
222.4497044719
 23
129.0438817648
 33
0.0
 14
90.5497044719
 24
133.0345595112
 34
0.0
100
AcDbRotatedDimension
  0
DIMENSION
  5
224
330
1F
100
AcDbEntity
  8
VERMASSUNG
100
AcDbDimension
  2
_D_4
 10
235.4378000942
 20
97.3438817648
 30
0.0
 11
235.4378000942
 21
113.3438817648
 31
0.0
 70
   160
  1
%%c<>
 71
     2
 42
-1.0
  3
SLDDIMSTYLE0
100
AcDbAlignedDimension
 13
222.1497044719
 23
129.3438817648
 33
0.0
 14
222.1497044719
 24
97.3438817648
 34
0.0
 50
90.0
100
AcDbRotatedDimension
  0
DIMENSION
  5
22F
330
1F
100
AcDbEntity
  8
VERMASSUNG
100
AcDbDimension
  2
_D_5
 10
229.4378000942
 20
104.3438817648
 30
0.0
 11
229.4378000942
 21
113.3438817648
 31
0.0
 70
   160
  1
%%c<>
 71
     2
 42
-1.0
  3
SLDDIMSTYLE0
100
AcDbAlignedDimension
 13
221.4497044719
 23
122.3438817648
 33
0.0
 14
221.4497044719
 24
104.3438817648
 34
0.0
 50
90.0
100
AcDbRotatedDimension
  0
LINE
  5
23A
330
1F
100
AcDbEntity
  8
VERMASSUNG
  6
CENTERX2
370
     0
100
AcDbLine
 10
88.9197414968
 20
113.3438817648
 30
0.0
 11
223.3407561718
 21
113.3438817648
 31
0.0
  0
LWPOLYLINE
  5
23B
330
1F
100
AcDbEntity
  8
0
  6
Continuous
 62
     7
100
AcDbPolyline
 90
       17
 70
   128
 43
0.0
 10
266.756218184
 20
37.6222034557
 10
266.2338637745
 20
39.0463538267
 10
265.3792459752
 20
40.3460298524
 10
264.322472599
 20
41.3233676396
 10
263.2244278126
 20
41.8295763696
 10
262.252278981
 20
41.7875903521
 10
261.5540269514
 20
41.2038015778
 10
261.2359742654
 20
40.1670865954
 10
261.3465415614
 20
38.8352758631
 10
261.868895971
 20
37.4111254921
 10
262.7235137703
 20
36.1114494663
 10
263.7802871465
 20
35.1341116792
 10
264.8783319329
 20
34.6279029492
 10
265.8504807644
 20
34.6698889666
 10
266.5487327941
 20
35.253677741
 10
266.8667854801
 20
36.2903927234
 10
266.756218184
 20
37.6222034557
  0
LWPOLYLINE
  5
23C
330
1F
100
AcDbEntity
  8
0
  6
Continuous
 62
     7
100
AcDbPolyline
 90
        9
 70
   128
 43
0.0
 10
272.2007855259
 20
33.2707590811
 10
272.9497314247
 20
34.7069529916
 10
273.5078506521
 20
36.1868563982
 10
273.8521800186
 20
37.649580336
 10
273.9685524789
 20
39.0349426698
 10
273.8521800186
 20
40.2859442209
 10
273.5078506521
 20
41.3511139343
 10
272.9497314247
 20
42.1866265973
 10
272.2007855259
 20
42.7581059789
  0
LINE
  5
23D
330
1F
100
AcDbEntity
  8
0
  6
Continuous
 62
     7
100
AcDbLine
 10
272.2007855259
 20
42.7581059789
 30
0.0
 11
272.2007855259
 21
33.2707590811
 31
0.0
  0
LINE
  5
23E
330
1F
100
AcDbEntity
  8
0
  6
Continuous
 62
     7
370
    15
100
AcDbLine
 10
268.2065503415
 20
29.2987462755
 30
0.0
 11
268.3126009154
 21
29.3599855926
 31
0.0
  0
LINE
  5
23F
330
1F
100
AcDbEntity
  8
0
  6
Continuous
 62
     7
370
    15
100
AcDbLine
 10
273.8624867789
 20
38.9737116362
 30
0.0
 11
273.8624854618
 21
39.0961741657
 31
0.0
  0
LINE
  5
240
330
1F
100
AcDbEntity
  8
0
  6
Continuous
 62
     7
370
    15
100
AcDbLine
 10
272.2053059519
 20
42.758932448
 30
0.0
 11
247.1914049003
 21
57.1991501564
 31
0.0
  0
LINE
  5
241
330
1F
100
AcDbEntity
  8
0
  6
Continuous
 62
     7
370
    15
100
AcDbLine
 10
239.1920548837
 20
43.342368387
 30
0.0
 11
264.2059559353
 21
28.9021506786
 31
0.0
  0
SPLINE
  5
242
330
1F
100
AcDbEntity
  8
0
  6
Continuous
 62
     7
370
    15
100
AcDbSpline
210
0.0
220
0.0
230
1.0
 70
     8
 71
     3
 72
    23
 73
    19
 74
     0
 42
0.000000001
 43
0.00000001
 40
0.0
 40
0.0
 40
0.0
 40
0.0
 40
0.0419300396750096
 40
0.10671974441264
 40
0.1684717179553972
 40
0.234151917263682
 40
0.2983174575042295
 40
0.3620759933780406
 40
0.4258422787384877
 40
0.4898081622333036
 40
0.5540051145973015
 40
0.6183851418826835
 40
0.6828711181989057
 40
0.7473764322762995
 40
0.8117868421018731
 40
0.8760068051160368
 40
0.939950884142532
 40
1.0
 40
1.0
 40
1.0
 40
1.0
 10
265.6825190771044
 20
32.1057786690725
 30
0.0
 10
265.624412174276
 20
32.14013019597267
 30
0.0
 10
265.4765193063817
 20
32.22756121677268
 30
0.0
 10
265.2881767508769
 20
32.45686260961735
 30
0.0
 10
265.1066624896511
 20
32.79069166948975
 30
0.0
 10
264.9799392992042
 20
33.21079297584868
 30
0.0
 10
264.9164959870879
 20
33.70991841571025
 30
0.0
 10
264.9235968216146
 20
34.26344730938365
 30
0.0
 10
265.0024791786993
 20
34.85932908527724
 30
0.0
 10
265.1529875621077
 20
35.48360626717862
 30
0.0
 10
265.3728463093479
 20
36.12095046604801
 30
0.0
 10
265.6575761675839
 20
36.75525668706334
 30
0.0
 10
266.0005870167349
 20
37.37036590395285
 30
0.0
 10
266.3932928057293
 20
37.95037408604753
 30
0.0
 10
266.8254754316454
 20
38.48110871034658
 30
0.0
 10
267.2851308822274
 20
38.94724261955037
 30
0.0
 10
267.7514869525476
 20
39.33803858362682
 30
0.0
 10
268.0591340008824
 20
39.53008452238131
 30
0.0
 10
268.2081255101822
 20
39.62309114937416
 30
0.0
  0
SPLINE
  5
243
330
1F
100
AcDbEntity
  8
0
  6
Continuous
 62
     7
370
    15
100
AcDbSpline
210
0.0
220
0.0
230
1.0
 70
     8
 71
     3
 72
    13
 73
     9
 74
     0
 42
0.000000001
 43
0.00000001
 40
0.0
 40
0.0
 40
0.0
 40
0.0
 40
0.1026950875751507
 40
0.2987551724610271
 40
0.4946581775182818
 40
0.6920190212209765
 40
0.8948202096925952
 40
1.0
 40
1.0
 40
1.0
 40
1.0
 10
268.2081255101822
 20
39.62309114937416
 30
0.0
 10
268.2893705266267
 20
39.66779958659295
 30
0.0
 10
268.5257242751123
 20
39.79786303156531
 30
0.0
 10
268.9048110600428
 20
39.94642256433105
 30
0.0
 10
269.3244161672715
 20
40.0390623428784
 30
0.0
 10
269.6993095488362
 20
40.04122169713695
 30
0.0
 10
269.978546200301
 20
39.99001291981573
 30
0.0
 10
270.1162932302424
 20
39.90918835656408
 30
0.0
 10
270.1633357579405
 20
39.88158564340889
 30
0.0
  0
LINE
  5
244
330
1F
100
AcDbEntity
  8
0
  6
Continuous
 62
     7
370
    15
100
AcDbLine
 10
225.1880649476
 20
42.4780128466
 30
0.0
 11
230.246730706
 21
39.5577072647
 31
0.0
  0
LINE
  5
245
330
1F
100
AcDbEntity
  8
0
  6
Continuous
 62
     7
370
    15
100
AcDbLine
 10
243.1300860102
 20
68.4923864972
 30
0.0
 11
240.9367854369
 21
69.758551967
 31
0.0
  0
SPLINE
  5
246
330
1F
100
AcDbEntity
  8
0
  6
Continuous
 62
     7
370
    15
100
AcDbSpline
210
0.0
220
0.0
230
1.0
 70
     8
 71
     3
 72
    17
 73
    13
 74
     0
 42
0.000000001
 43
0.00000001
 40
0.0
 40
0.0
 40
0.0
 40
0.0
 40
0.0546750512584785
 40
0.1705237210039279
 40
0.2867975314340322
 40
0.4033917557993634
 40
0.5201931153227966
 40
0.6371057297615236
 40
0.7540601734111672
 40
0.8710020113541445
 40
0.9879114982004441
 40
1.0
 40
1.0
 40
1.0
 40
1.0
 10
236.9955801053503
 20
36.61395146380121
 30
0.0
 10
237.1272862897626
 20
36.61054717002897
 30
0.0
 10
237.5380591766328
 20
36.59992966116395
 30
0.0
 10
238.2608603557503
 20
36.68977454532239
 30
0.0
 10
239.1560202432086
 20
36.87782628810906
 30
0.0
 10
240.0723689317155
 20
37.17016405177262
 30
0.0
 10
241.0011130374403
 20
37.55751981129576
 30
0.0
 10
241.9359314567873
 20
38.03962158328218
 30
0.0
 10
242.8707431779436
 20
38.60975327037389
 30
0.0
 10
243.7962093770713
 20
39.27354670576458
 30
0.0
 10
244.4415558449917
 20
39.77587245643305
 30
0.0
 10
244.7697929588938
 20
40.07648178650794
 30
0.0
 10
244.8005523140104
 20
40.10465212052415
 30
0.0
  0
LINE
  5
247
330
1F
100
AcDbEntity
  8
0
  6
Continuous
 62
     7
370
    15
100
AcDbLine
 10
232.6451889875
 20
38.1731067709
 30
0.0
 11
234.0445776277
 21
37.3652569044
 31
0.0
  0
LINE
  5
248
330
1F
100
AcDbEntity
  8
0
  6
Continuous
 62
     7
370
    15
100
AcDbLine
 10
233.7604914051
 20
69.3478745231
 30
0.0
 11
227.5701091513
 21
72.4320938427
 31
0.0
  0
LINE
  5
249
330
1F
100
AcDbEntity
  8
0
  6
Continuous
 62
     7
370
    15
100
AcDbLine
 10
216.1884113214
 20
52.7162784623
 30
0.0
 11
225.9838934921
 21
46.2301171374
 31
0.0
  0
SPLINE
  5
24A
330
1F
100
AcDbEntity
  8
0
  6
Continuous
 62
     7
370
    15
100
AcDbSpline
210
0.0
220
0.0
230
1.0
 70
     8
 71
     3
 72
    10
 73
     6
 74
     0
 42
0.000000001
 43
0.00000001
 40
0.0
 40
0.0
 40
0.0
 40
0.0
 40
0.03486298806513
 40
0.6297955489628269
 40
1.0
 40
1.0
 40
1.0
 40
1.0
 10
251.5089955625909
 20
63.10331233461397
 30
0.0
 10
251.5000692551456
 20
63.11681702982455
 30
0.0
 10
251.3388166199083
 20
63.36077767134584
 30
0.0
 10
251.0332295111813
 20
63.69099702240636
 30
0.0
 10
250.712074688169
 20
63.96998815502181
 30
0.0
 10
250.5888870542051
 20
64.0770027631209
 30
0.0
  0
SPLINE
  5
24B
330
1F
100
AcDbEntity
  8
0
  6
Continuous
 62
     7
370
    15
100
AcDbSpline
210
0.0
220
0.0
230
1.0
 70
     8
 71
     3
 72
    11
 73
     7
 74
     0
 42
0.000000001
 43
0.00000001
 40
0.0
 40
0.0
 40
0.0
 40
0.0
 40
0.1526263561506679
 40
0.4412714856974756
 40
0.7294839346108797
 40
1.0
 40
1.0
 40
1.0
 40
1.0
 10
252.7832943320612
 20
60.35646140399383
 30
0.0
 10
252.7394458394742
 20
60.51607759421679
 30
0.0
 10
252.6126716049483
 20
60.97755800413712
 30
0.0
 10
252.3431519217716
 20
61.68845706220159
 30
0.0
 10
251.9663953548039
 20
62.45292213194517
 30
0.0
 10
251.658208466877
 20
62.89114212222739
 30
0.0
 10
251.5089955625909
 20
63.10331233461397
 30
0.0
  0
SPLINE
  5
24C
330
1F
100
AcDbEntity
  8
0
  6
Continuous
 62
     7
370
    15
100
AcDbSpline
210
0.0
220
0.0
230
1.0
 70
     8
 71
     3
 72
    27
 73
    23
 74
     0
 42
0.000000001
 43
0.00000001
 40
0.0
 40
0.0
 40
0.0
 40
0.0
 40
0.0013000128135555
 40
0.0538937269312404
 40
0.1065610233035964
 40
0.1596380503560881
 40
0.2133201258488724
 40
0.267628630186444
 40
0.3224488951924965
 40
0.3776074767252489
 40
0.4329412463336785
 40
0.4883265190143076
 40
0.5436826599919746
 40
0.5989845995907946
 40
0.654227099916714
 40
0.7094161639539044
 40
0.7645635263357423
 40
0.8196839522644214
 40
0.8747934443472855
 40
0.9299087500036024
 40
0.9850414117016005
 40
1.0
 40
1.0
 40
1.0
 40
1.0
 10
227.5064818980148
 20
72.46167237741052
 30
0.0
 10
227.5016579142888
 20
72.4644610236623
 30
0.0
 10
227.3016733764945
 20
72.5800679915575
 30
0.0
 10
226.8585033328175
 20
72.72036038173414
 30
0.0
 10
226.183075330663
 20
72.8716669754832
 30
0.0
 10
225.4646883625103
 20
72.91191272411702
 30
0.0
 10
224.7161568141672
 20
72.85502018174267
 30
0.0
 10
223.9410885585787
 20
72.69666362651301
 30
0.0
 10
223.1472842286437
 20
72.43856239955977
 30
0.0
 10
222.3427830582402
 20
72.08263635525044
 30
0.0
 10
221.5361924990467
 20
71.63276235004298
 30
0.0
 10
220.7358952584521
 20
71.09401319084601
 30
0.0
 10
219.9498034141531
 20
70.47236425145057
 30
0.0
 10
219.1852960979044
 20
69.77439250430632
 30
0.0
 10
218.4492959028357
 20
69.00711707995339
 30
0.0
 10
217.748454950877
 20
68.17803056531302
 30
0.0
 10
217.0889535736312
 20
67.29508643588204
 30
0.0
 10
216.4772586758309
 20
66.36659593888916
 30
0.0
 10
215.9171577724077
 20
65.40137883798658
 30
0.0
 10
215.4206242938184
 20
64.40797938368826
 30
0.0
 10
215.0773448387881
 20
63.64300190217173
 30
0.0
 10
214.923384933142
 20
63.21106148432562
 30
0.0
 10
214.8905274389021
 20
63.11887852453635
 30
0.0
  0
LINE
  5
24D
330
1F
100
AcDbEntity
  8
0
  6
Continuous
 62
     7
370
    15
100
AcDbLine
 10
215.0042251482
 20
61.2724188804
 30
0.0
 11
217.5577854786
 21
59.7982798796
 31
0.0
  0
LINE
  5
24E
330
1F
100
AcDbEntity
  8
0
  6
Continuous
 62
     7
370
    15
100
AcDbLine
 10
214.7059328035
 20
62.4007285538
 30
0.0
 11
214.7059328035
 21
61.9353225844
 31
0.0
  0
LINE
  5
24F
330
1F
100
AcDbEntity
  8
0
  6
Continuous
 62
     7
370
    15
100
AcDbLine
 10
214.7059328035
 20
54.929379889
 30
0.0
 11
214.7059328035
 21
54.4639739196
 31
0.0
  0
SPLINE
  5
250
330
1F
100
AcDbEntity
  8
0
  6
Continuous
 62
     7
370
    15
100
AcDbSpline
210
0.0
220
0.0
230
1.0
 70
     8
 71
     3
 72
    11
 73
     7
 74
     0
 42
0.000000001
 43
0.00000001
 40
0.0
 40
0.0
 40
0.0
 40
0.0
 40
0.2559620812723608
 40
0.600776655719963
 40
0.9411929879348645
 40
0.9999999999999999
 40
0.9999999999999999
 40
0.9999999999999999
 40
0.9999999999999999
 10
214.822085566732
 20
54.17738761739968
 30
0.0
 10
214.9171701628943
 20
54.02245922020641
 30
0.0
 10
215.1403462107247
 20
53.65882190377601
 30
0.0
 10
215.581884398643
 20
53.1894197245375
 30
0.0
 10
215.9589706119733
 20
52.85089310400989
 30
0.0
 10
216.1926270699626
 20
52.7197279869165
 30
0.0
 10
216.2270454934866
 20
52.70040690077774
 30
0.0
  0
LINE
  5
251
330
1F
100
AcDbEntity
  8
0
  6
Continuous
 62
     7
370
    15
100
AcDbLine
 10
266.8375369969
 20
38.1594399994
 30
0.0
 11
267.7638233113
 21
38.3481647723
 31
0.0
  0
LINE
  5
252
330
1F
100
AcDbEntity
  8
0
  6
Continuous
 62
     7
370
    15
100
AcDbLine
 10
266.8375369969
 20
38.1594399994
 30
0.0
 11
267.7638233113
 21
38.3481647723
 31
0.0
  0
LINE
  5
253
330
1F
100
AcDbEntity
  8
0
  6
Continuous
 62
     7
370
    15
100
AcDbLine
 10
265.4658220433
 20
45.2915529322
 30
0.0
 11
265.2182952484
 21
45.4344939346
 31
0.0
  0
LINE
  5
254
330
1F
100
AcDbEntity
  8
0
  6
Continuous
 62
     7
370
    15
100
AcDbLine
 10
262.8844649444
 20
45.4344932122
 30
0.0
 11
262.6369357986
 21
45.2915527536
 31
0.0
  0
LINE
  5
255
330
1F
100
AcDbEntity
  8
0
  6
Continuous
 62
     7
370
    15
100
AcDbLine
 10
262.0513795695
 20
44.4752770806
 30
0.0
 11
262.0513795695
 21
44.3527957867
 31
0.0
  0
LINE
  5
256
330
1F
100
AcDbEntity
  8
0
  6
Continuous
 62
     7
370
    15
100
AcDbLine
 10
266.0513792403
 20
44.3527959768
 30
0.0
 11
266.0513792403
 21
44.4752772707
 31
0.0
  0
LWPOLYLINE
  5
257
330
1F
100
AcDbEntity
  8
0
  6
Continuous
 62
     7
370
    15
100
AcDbPolyline
 90
       51
 70
   128
 43
0.0
 10
268.3116987562
 20
42.1791550496
 10
267.6160004842
 20
41.7269935802
 10
266.9312738929
 20
41.1808760812
 10
266.2683173014
 20
40.549414257
 10
265.6375860914
 20
39.8425678594
 10
265.0490272486
 20
39.0714837708
 10
264.5119226284
 20
38.2483218724
 10
264.0347429243
 20
37.3860650376
 10
263.6250133243
 20
36.4983107774
 10
263.2891954672
 20
35.5990599381
 10
263.0325853678
 20
34.7024937051
 10
262.8592301115
 20
33.8227520308
 10
262.7718636458
 20
32.9737086864
 10
262.7718636458
 20
32.168753678
 10
262.8592301115
 20
31.4205815077
 10
263.0325853678
 20
30.740991552
 10
263.2891954672
 20
30.1407010334
 10
263.6250133243
 20
29.6291772389
 10
264.0347429243
 20
29.2144867053
 10
264.5119226284
 20
28.9031698298
 10
265.0490272486
 20
28.7001357261
 10
265.6375860914
 20
28.6085872131
 10
266.2683173014
 20
28.6299675698
 10
266.9312738929
 20
28.7639391335
 10
267.6160004842
 20
29.0083901291
 10
268.3116987562
 20
29.3594647872
 10
269.0073970283
 20
29.8116262566
 10
269.6921236195
 20
30.3577437555
 10
270.3550802111
 20
30.9892055798
 10
270.985811421
 20
31.6960519774
 10
271.5743702639
 20
32.467136066
 10
272.111474884
 20
33.2902979643
 10
272.5886545882
 20
34.1525547992
 10
272.9983841881
 20
35.0403090594
 10
273.3342020453
 20
35.9395598987
 10
273.5908121446
 20
36.8361261317
 10
273.7641674009
 20
37.7158678059
 10
273.8515338666
 20
38.5649111504
 10
273.8515338666
 20
39.3698661588
 10
273.7641674009
 20
40.1180383291
 10
273.5908121446
 20
40.7976282847
 10
273.3342020453
 20
41.3979188034
 10
272.9983841881
 20
41.9094425979
 10
272.5886545882
 20
42.3241331314
 10
272.111474884
 20
42.635450007
 10
271.5743702639
 20
42.8384841107
 10
270.985811421
 20
42.9300326236
 10
270.3550802111
 20
42.9086522669
 10
269.6921236195
 20
42.7746807033
 10
269.0073970283
 20
42.5302297077
 10
268.3116987562
 20
42.1791550496
  0
LWPOLYLINE
  5
258
330
1F
100
AcDbEntity
  8
0
  6
Continuous
 62
     7
370
    15
100
AcDbPolyline
 90
       27
 70
   128
 43
0.0
 10
268.2056309436
 20
42.3628683686
 10
267.5104697969
 20
41.9120481628
 10
266.8258465971
 20
41.3690390462
 10
266.1621395118
 20
40.7420721509
 10
265.5294096193
 20
40.0406510831
 10
264.937248538
 20
39.2754092084
 10
264.3946328881
 20
38.4579469262
 10
263.9097880551
 20
37.6006553025
 10
263.4900637252
 20
36.716530909
 10
263.1418227552
 20
35.8189757369
 10
262.8703437087
 20
34.921595873
 10
262.6797424888
 20
34.0379948518
 10
262.5729081304
 20
33.181566958
 10
262.5514593357
 20
32.3652944008
 10
262.615722743
 20
31.6015519007
 10
262.764723377
 20
30.9019164323
 10
262.9962027594
 20
30.2769940269
 10
263.3066515064
 20
29.7362575298
 10
263.6913636591
 20
29.287904412
 10
264.1445078058
 20
28.9387309072
 10
264.6592143394
 20
28.6940302916
 10
265.2276808247
 20
28.5575116947
 10
265.8412902067
 20
28.5312447643
 10
266.4907403797
 20
28.6156280002
 10
267.1661866794
 20
28.8093816593
 10
267.8573898501
 20
29.1095696757
 10
268.2065503415
 20
29.2987462755
  0
LWPOLYLINE
  5
259
330
1F
100
AcDbEntity
  8
0
  6
Continuous
 62
     7
370
    15
100
AcDbPolyline
 90
       14
 70
   128
 43
0.0
 10
273.8624854618
 20
39.0961741657
 10
273.8383537568
 20
39.6849702894
 10
273.7315193984
 20
40.4180498584
 10
273.5409181785
 20
41.0815873953
 10
273.269439132
 20
41.6655242239
 10
272.921198162
 20
42.1610089304
 10
272.501473832
 20
42.5605299276
 10
272.0166289991
 20
42.8580316227
 10
271.4740133492
 20
43.0490032108
 10
270.8818522679
 20
43.1305504538
 10
270.2491223754
 20
43.1014371375
 10
269.58541529
 20
42.9621041433
 10
268.9007920903
 20
42.7146641386
 10
268.2056309436
 20
42.3628683686
  0
SPLINE
  5
25A
330
1F
100
AcDbEntity
  8
0
  6
Continuous
 62
     7
370
    15
100
AcDbSpline
210
0.0
220
0.0
230
1.0
 70
    11
 71
     3
 72
    82
 73
    78
 74
     0
 42
0.000000001
 43
0.00000001
 40
0.0
 40
0.0
 40
0.0
 40
0.0
 40
0.0312499999999985
 40
0.0312499999999985
 40
0.0624999999999971
 40
0.0624999999999971
 40
0.0937499999999956
 40
0.0937499999999956
 40
0.1249999999999942
 40
0.1249999999999942
 40
0.1562499999999927
 40
0.1562499999999927
 40
0.1874999999999913
 40
0.1874999999999913
 40
0.2187499999999898
 40
0.2187499999999898
 40
0.2343749999999897
 40
0.2343749999999897
 40
0.2499999999999895
 40
0.2499999999999895
 40
0.2812499999999891
 40
0.2812499999999891
 40
0.2968749999999894
 40
0.2968749999999894
 40
0.3124999999999897
 40
0.3124999999999897
 40
0.3437499999999901
 40
0.3437499999999901
 40
0.3593749999999902
 40
0.3593749999999902
 40
0.3749999999999902
 40
0.3749999999999902
 40
0.3906249999999903
 40
0.3906249999999903
 40
0.4062499999999903
 40
0.4062499999999903
 40
0.4374999999999908
 40
0.4374999999999908
 40
0.4687499999999914
 40
0.4687499999999914
 40
0.4999999999999919
 40
0.4999999999999919
 40
0.5312499999999925
 40
0.5312499999999925
 40
0.5624999999999929
 40
0.5624999999999929
 40
0.5937499999999934
 40
0.5937499999999934
 40
0.624999999999994
 40
0.624999999999994
 40
0.6562499999999944
 40
0.6562499999999944
 40
0.687499999999995
 40
0.687499999999995
 40
0.7187499999999956
 40
0.7187499999999956
 40
0.749999999999996
 40
0.749999999999996
 40
0.7812499999999966
 40
0.7812499999999966
 40
0.8124999999999971
 40
0.8124999999999971
 40
0.8281249999999973
 40
0.8281249999999973
 40
0.8437499999999977
 40
0.8437499999999977
 40
0.8749999999999983
 40
0.8749999999999983
 40
0.8906249999999988
 40
0.8906249999999988
 40
0.9062499999999991
 40
0.9062499999999991
 40
0.9374999999999994
 40
0.9374999999999994
 40
0.9687499999999997
 40
0.9687499999999997
 40
1.0
 40
1.0
 40
1.0
 40
1.0
 10
264.0344855157917
 20
45.96854108457743
 30
0.0
 10
264.187608799027
 20
45.94150885880691
 30
0.0
 10
264.3366254600232
 20
45.90712627118801
 30
0.0
 10
264.6274515246546
 20
45.82665720120608
 30
0.0
 10
264.7699970015249
 20
45.78026642837402
 30
0.0
 10
265.0446393821383
 20
45.67813286092697
 30
0.0
 10
265.1745246836894
 20
45.62329492537183
 30
0.0
 10
265.4201540411853
 20
45.50725291827879
 30
0.0
 10
265.536779246455
 20
45.44550053077087
 30
0.0
 10
265.7506949897412
 20
45.31822556364744
 30
0.0
 10
265.847345829479
 20
45.2532285418872
 30
0.0
 10
266.020369577693
 20
45.12014760216218
 30
0.0
 10
266.0973195229973
 20
45.0514167490553
 30
0.0
 10
266.2261901338613
 20
44.9128880510885
 30
0.0
 10
266.2779919536158
 20
44.84351333657029
 30
0.0
 10
266.3364414722619
 20
44.73810605088563
 30
0.0
 10
266.3526945154227
 20
44.70274253901641
 30
0.0
 10
266.3783944847715
 20
44.63130247206756
 30
0.0
 10
266.387828823707
 20
44.59508937223261
 30
0.0
 10
266.4048526505198
 20
44.48734082180952
 30
0.0
 10
266.401640122328
 20
44.41600856061951
 30
0.0
 10
266.3736482743789
 20
44.30831795221167
 30
0.0
 10
266.3604269943262
 20
44.27230622398041
 30
0.0
 10
266.3255524146937
 20
44.19979834454844
 30
0.0
 10
266.3038485255929
 20
44.16335854071617
 30
0.0
 10
266.2273993984481
 20
44.05614593069468
 30
0.0
 10
266.1610104418024
 20
43.98640166823096
 30
0.0
 10
266.03664284145
 20
43.88368497485013
 30
0.0
 10
265.9906044585288
 20
43.84950398765306
 30
0.0
 10
265.891850075348
 20
43.78331436735979
 30
0.0
 10
265.8392616021511
 20
43.75132460172485
 30
0.0
 10
265.7278212753616
 20
43.68948521481417
 30
0.0
 10
265.6689691372039
 20
43.65963571588733
 30
0.0
 10
265.5449545124172
 20
43.60213114916889
 30
0.0
 10
265.4793438963168
 20
43.57432114105506
 30
0.0
 10
265.2777893738756
 20
43.49632760631721
 30
0.0
 10
265.1363750137942
 20
43.45099650460065
 30
0.0
 10
264.8402701093107
 20
43.37396263067969
 30
0.0
 10
264.6881324240821
 20
43.34306190030297
 30
0.0
 10
264.3829719770762
 20
43.29785542187915
 30
0.0
 10
264.2275070611648
 20
43.28330627423936
 30
0.0
 10
263.9233778598976
 20
43.27205591294423
 30
0.0
 10
263.7739351883068
 20
43.27509570486866
 30
0.0
 10
263.4798037196975
 20
43.29938793753182
 30
0.0
 10
263.3363313161528
 20
43.32072112340173
 30
0.0
 10
263.063554179186
 20
43.38095312423125
 30
0.0
 10
262.9330660459332
 20
43.41993437059352
 30
0.0
 10
262.6839910806393
 20
43.51678528774988
 30
0.0
 10
262.5681998762166
 20
43.57364290357339
 30
0.0
 10
262.3553943322083
 20
43.7027916016588
 30
0.0
 10
262.2580181666736
 20
43.77522170422095
 30
0.0
 10
262.0822155241175
 20
43.93616131017183
 30
0.0
 10
262.0062528598116
 20
44.02242663960626
 30
0.0
 10
261.877948783274
 20
44.20504704129515
 30
0.0
 10
261.8255035935723
 20
44.30153047965768
 30
0.0
 10
261.7462971024767
 20
44.50386196972197
 30
0.0
 10
261.7207192342416
 20
44.60662658873463
 30
0.0
 10
261.698001993826
 20
44.81380655170757
 30
0.0
 10
261.7009037728865
 20
44.91869829784353
 30
0.0
 10
261.7390569934523
 20
45.12668475842997
 30
0.0
 10
261.7736155889394
 20
45.22659366852837
 30
0.0
 10
261.8496242157146
 20
45.36895895229477
 30
0.0
 10
261.8790192430454
 20
45.4151584912882
 30
0.0
 10
261.9465183323254
 20
45.50471561075138
 30
0.0
 10
261.9848974449082
 20
45.54826026354839
 30
0.0
 10
262.1102411129502
 20
45.67027213533762
 30
0.0
 10
262.2080480156044
 20
45.74147391915556
 30
0.0
 10
262.3766289394289
 20
45.83246224916149
 30
0.0
 10
262.43689421314
 20
45.8602511514323
 30
0.0
 10
262.5615427756396
 20
45.90897862049501
 30
0.0
 10
262.6262092057706
 20
45.93012248691862
 30
0.0
 10
262.8269721576248
 20
45.98440361994145
 30
0.0
 10
262.9715920217774
 20
46.00847677572628
 30
0.0
 10
263.2668635895369
 20
46.03272229132229
 30
0.0
 10
263.4179541237943
 20
46.03336060850005
 30
0.0
 10
263.7268518761485
 20
46.01471314107977
 30
0.0
 10
263.8813622325564
 20
45.99557331034795
 30
0.0
 10
264.0344855157917
 20
45.96854108457742
 30
0.0
  0
LINE
  5
25B
330
1F
100
AcDbEntity
  8
0
  6
Continuous
 62
     7
370
    15
100
AcDbLine
 10
265.6678351809
 20
32.1004251217
 30
0.0
 11
265.7083274364
 21
32.0761924041
 31
0.0
  0
LINE
  5
25C
330
1F
100
AcDbEntity
  8
0
  6
Continuous
 62
     7
370
    15
100
AcDbLine
 10
270.2079618619
 20
39.8706323158
 30
0.0
 11
270.1584761934
 21
39.8979698967
 31
0.0
  0
SPLINE
  5
25D
330
1F
100
AcDbEntity
  8
0
  6
Continuous
 62
     7
370
    15
100
AcDbSpline
210
0.0
220
0.0
230
1.0
 70
     8
 71
     3
 72
    10
 73
     6
 74
     0
 42
0.000000001
 43
0.00000001
 40
0.0
 40
0.0
 40
0.0
 40
0.0
 40
0.5
 40
0.5
 40
1.0
 40
1.0
 40
1.0
 40
1.0
 10
231.6799333540949
 20
48.52418648173182
 30
0.0
 10
231.6234046683124
 20
48.49155316604921
 30
0.0
 10
231.5447613457376
 20
48.47118019059023
 30
0.0
 10
231.3845314314065
 20
48.46811879062889
 30
0.0
 10
231.3033644188658
 20
48.48577799050913
 30
0.0
 10
231.246250518528
 20
48.51874914336344
 30
0.0
  0
SPLINE
  5
25E
330
1F
100
AcDbEntity
  8
0
  6
Continuous
 62
     7
370
    15
100
AcDbSpline
210
0.0
220
0.0
230
1.0
 70
     8
 71
     3
 72
    12
 73
     8
 74
     0
 42
0.000000001
 43
0.00000001
 40
0.0
 40
0.0
 40
0.0
 40
0.0
 40
0.2500000000000033
 40
0.2500000000000033
 40
0.5000000000000067
 40
0.5000000000000067
 40
1.0
 40
1.0
 40
1.0
 40
1.0
 10
248.9369724248728
 20
65.04271102161854
 30
0.0
 10
248.9688767532175
 20
65.02429304490279
 30
0.0
 10
249.0010140896584
 20
64.99437850427073
 30
0.0
 10
249.0556723960846
 20
64.92398108432782
 30
0.0
 10
249.078645735415
 20
64.88360038765198
 30
0.0
 10
249.1323275243527
 20
64.7610765576166
 30
0.0
 10
249.1491044592288
 20
64.67627523601092
 30
0.0
 10
249.1491044592287
 20
64.60272264037731
 30
0.0
  0
LINE
  5
25F
330
1F
100
AcDbEntity
  8
0
  6
Continuous
 62
     7
370
    15
100
AcDbLine
 10
231.2462507917
 20
48.5187488534
 30
0.0
 11
229.8468621515
 21
49.3265987198
 31
0.0
  0
LWPOLYLINE
  5
260
330
1F
100
AcDbEntity
  8
0
  6
Continuous
 62
     7
370
    15
100
AcDbPolyline
 90
       23
 70
   128
 43
0.0
 10
229.8468621515
 20
49.3265987198
 10
230.1728252193
 20
50.5982647511
 10
230.5810925213
 20
51.8795965278
 10
231.0684161157
 20
53.16040111
 10
231.6309204683
 20
54.4304913202
 10
232.2641301105
 20
55.679763308
 10
232.9630091525
 20
56.8982794366
 10
233.7219968445
 20
58.0763466073
 10
234.5350569675
 20
59.2045949627
 10
235.3957212973
 20
60.2740486059
 10
236.2971439345
 20
61.2762003105
 10
237.232153988
 20
62.203079197
 10
238.1933141854
 20
63.0473119449
 10
239.1729786603
 20
63.8021835287
 10
240.1633545674
 20
64.4616879971
 10
241.1565639034
 20
65.0205793707
 10
242.1447060275
 20
65.4744138179
 10
243.1199205525
 20
65.8195791172
 10
244.0744501945
 20
66.0533301787
 10
245.0007019353
 20
66.1738083832
 10
245.891307979
 20
66.1800539574
 10
246.7391833745
 20
66.0720187063
 10
247.5375842967
 20
65.8505608748
  0
LINE
  5
261
330
1F
100
AcDbEntity
  8
0
  6
Continuous
 62
     7
370
    15
100
AcDbLine
 10
247.5375842967
 20
65.8505608748
 30
0.0
 11
248.936972937
 21
65.0427110084
 31
0.0
  0
LINE
  5
262
330
1F
100
AcDbEntity
  8
0
  6
Continuous
 62
     7
370
    15
100
AcDbLine
 10
251.4648790075
 20
59.5375223674
 30
0.0
 11
252.6833799593
 21
60.2409479941
 31
0.0
  0
LINE
  5
263
330
1F
100
AcDbEntity
  8
0
  6
Continuous
 62
     7
370
    15
100
AcDbLine
 10
251.4648790075
 20
54.7321259888
 30
0.0
 11
251.4648790075
 21
59.5375223674
 31
0.0
  0
LINE
  5
264
330
1F
100
AcDbEntity
  8
0
  6
Continuous
 62
     7
370
    15
100
AcDbLine
 10
231.6799333018
 20
41.1753194293
 30
0.0
 11
232.7972600853
 21
41.8203384518
 31
0.0
  0
LINE
  5
265
330
1F
100
AcDbEntity
  8
0
  6
Continuous
 62
     7
370
    15
100
AcDbLine
 10
232.7972600853
 20
41.8203384518
 30
0.0
 11
232.7972600853
 21
49.1692054424
 31
0.0
  0
LINE
  5
266
330
1F
100
AcDbEntity
  8
0
  6
Continuous
 62
     7
370
    15
100
AcDbLine
 10
232.7972600853
 20
49.1692054424
 30
0.0
 11
231.6799333018
 21
48.5241864199
 31
0.0
  0
LINE
  5
267
330
1F
100
AcDbEntity
  8
0
  6
Continuous
 62
     7
370
    15
100
AcDbLine
 10
249.149104611
 20
64.6027225218
 30
0.0
 11
249.149104611
 21
63.0386587214
 31
0.0
  0
LINE
  5
268
330
1F
100
AcDbEntity
  8
0
  6
Continuous
 62
     7
370
    15
100
AcDbLine
 10
250.5035502227
 20
63.8205635297
 30
0.0
 11
249.149104611
 21
63.0386587214
 31
0.0
  0
LWPOLYLINE
  5
269
330
1F
100
AcDbEntity
  8
0
  6
Continuous
 62
     7
370
    15
100
AcDbPolyline
 90
       20
 70
   128
 43
0.0
 10
228.9230796233
 20
50.9575805123
 10
229.2717815745
 20
52.215248851
 10
229.706335339
 20
53.4791479714
 10
230.2227613323
 20
54.7377017205
 10
230.8163285708
 20
55.9793815444
 10
231.4816007694
 20
57.1928156111
 10
232.212484416
 20
58.3668899468
 10
233.0022854055
 20
59.4908503334
 10
233.8437699558
 20
60.5544028732
 10
234.729230462
 20
61.5478059994
 10
235.6505566192
 20
62.4619602037
 10
236.5993096734
 20
63.288492726
 10
237.5668002122
 20
64.0198336409
 10
238.5441665622
 20
64.6492839294
 10
239.5224567061
 20
65.1710794992
 10
240.4927104154
 20
65.5804393587
 10
241.4460406832
 20
65.8736149091
 10
242.373715868
 20
66.0479213952
 10
243.2672392638
 20
66.1017610262
 10
244.0381456236
 20
66.0464119729
  0
SPLINE
  5
26A
330
1F
100
AcDbEntity
  8
0
  6
Continuous
 62
     7
370
    15
100
AcDbSpline
210
0.0
220
0.0
230
1.0
 70
     8
 71
     3
 72
     8
 73
     4
 74
     0
 42
0.000000001
 43
0.00000001
 40
0.0
 40
0.0
 40
0.0
 40
0.0
 40
1.0
 40
1.0
 40
1.0
 40
1.0
 10
228.923079663137
 20
50.95758071321011
 30
0.0
 10
228.4317786340845
 20
50.87493349300622
 30
0.0
 10
227.9401985431818
 20
50.79284970551577
 30
0.0
 10
227.4484037444298
 20
50.71119941843403
 30
0.0
  0
LWPOLYLINE
  5
26B
330
1F
100
AcDbEntity
  8
0
  6
Continuous
 62
     7
370
    15
100
AcDbPolyline
 90
       23
 70
   128
 43
0.0
 10
227.44840387
 20
50.7111992136
 10
227.7743669379
 20
51.982865245
 10
228.1826342398
 20
53.2641970216
 10
228.6699578342
 20
54.5450016038
 10
229.2324621868
 20
55.815091814
 10
229.865671829
 20
57.0643638018
 10
230.564550871
 20
58.2828799304
 10
231.323538563
 20
59.4609471011
 10
232.136598686
 20
60.5891954566
 10
232.9972630158
 20
61.6586490998
 10
233.8986856531
 20
62.6608008043
 10
234.8336957066
 20
63.5876796909
 10
235.7948559039
 20
64.4319124388
 10
236.7745203788
 20
65.1867840225
 10
237.7648962859
 20
65.8462884909
 10
238.7581056219
 20
66.4051798645
 10
239.746247746
 20
66.8590143118
 10
240.721462271
 20
67.204179611
 10
241.675991913
 20
67.4379306725
 10
242.6022436539
 20
67.558408877
 10
243.4928496976
 20
67.5646544512
 10
244.340725093
 20
67.4566192002
 10
245.1391260153
 20
67.2351613687
  0
LINE
  5
26C
330
1F
100
AcDbEntity
  8
0
  6
Continuous
 62
     7
370
    15
100
AcDbLine
 10
245.1391260153
 20
67.2351613687
 30
0.0
 11
245.466086778
 21
66.1787942627
 31
0.0
  0
LINE
  5
26D
330
1F
100
AcDbEntity
  8
0
  6
Continuous
 62
     7
370
    15
100
AcDbLine
 10
241.7244835086
 20
69.206392529
 30
0.0
 11
245.1391260153
 21
67.2351613687
 31
0.0
  0
LINE
  5
26E
330
1F
100
AcDbEntity
  8
0
  6
Continuous
 62
     7
370
    15
100
AcDbLine
 10
227.44840387
 20
50.7111992136
 30
0.0
 11
226.8621886225
 21
51.0496140727
 31
0.0
  0
SPLINE
  5
26F
330
1F
100
AcDbEntity
  8
0
  6
Continuous
 62
     7
370
    15
100
AcDbSpline
210
0.0
220
0.0
230
1.0
 70
     8
 71
     3
 72
    28
 73
    24
 74
     0
 42
0.000000001
 43
0.00000001
 40
0.0
 40
0.0
 40
0.0
 40
0.0
 40
0.1249999999999999
 40
0.1249999999999999
 40
0.1874999999999998
 40
0.1874999999999998
 40
0.2499999999999997
 40
0.2499999999999997
 40
0.3749999999999993
 40
0.3749999999999993
 40
0.4374999999999993
 40
0.4374999999999993
 40
0.4999999999999992
 40
0.4999999999999992
 40
0.6249999999999992
 40
0.6249999999999992
 40
0.7499999999999992
 40
0.7499999999999992
 40
0.8124999999999993
 40
0.8124999999999993
 40
0.8749999999999996
 40
0.8749999999999996
 40
1.0
 40
1.0
 40
1.0
 40
1.0
 10
226.8621884751714
 20
51.04961429001385
 30
0.0
 10
226.6742013947051
 20
51.15813692159792
 30
0.0
 10
226.4839814401044
 20
51.24008064214583
 30
0.0
 10
226.1958828381563
 20
51.32523837218429
 30
0.0
 10
226.0993929675568
 20
51.34728830258809
 30
0.0
 10
225.9056547947219
 20
51.37856212604705
 30
0.0
 10
225.8084037741905
 20
51.38768937737049
 30
0.0
 10
225.5223818993052
 20
51.39547221947888
 30
0.0
 10
225.3370400829486
 20
51.37516567584181
 30
0.0
 10
225.0685274961328
 20
51.30794502270868
 30
0.0
 10
224.980166836467
 20
51.27915866510309
 30
0.0
 10
224.8098141261773
 20
51.21014677500794
 30
0.0
 10
224.7277870963959
 20
51.17000688509781
 30
0.0
 10
224.4913508426433
 20
51.03338711733458
 30
0.0
 10
224.3464835925209
 20
50.92087262764552
 30
0.0
 10
224.0856267990368
 20
50.65261566264606
 30
0.0
 10
223.9733343915345
 20
50.50046227626878
 30
0.0
 10
223.8341099100807
 20
50.24854588857047
 30
0.0
 10
223.7925141237149
 20
50.1605036028941
 30
0.0
 10
223.7193894086537
 20
49.97616254784227
 30
0.0
 10
223.6877649246007
 20
49.87937378516049
 30
0.0
 10
223.6102716211785
 20
49.58135870626368
 30
0.0
 10
223.5810969057887
 20
49.37188582912715
 30
0.0
 10
223.5751300230469
 20
49.15150503644328
 30
0.0
  0
ARC
  5
270
330
1F
100
AcDbEntity
  8
0
  6
Continuous
 62
     7
370
    15
100
AcDbCircle
 10
238.4196798608
 20
48.7432345673
 30
0.0
 40
14.85016324625892
100
AcDbArc
 50
178.4245883564
 51
181.5754116436
  0
SPLINE
  5
271
330
1F
100
AcDbEntity
  8
0
  6
Continuous
 62
     7
370
    15
100
AcDbSpline
210
0.0
220
0.0
230
1.0
 70
     8
 71
     3
 72
    30
 73
    26
 74
     0
 42
0.000000001
 43
0.00000001
 40
0.0
 40
0.0
 40
0.0
 40
0.0
 40
0.1250000000000001
 40
0.1250000000000001
 40
0.1875000000000002
 40
0.1875000000000002
 40
0.2500000000000003
 40
0.2500000000000003
 40
0.3750000000000004
 40
0.3750000000000004
 40
0.4375000000000004
 40
0.4375000000000004
 40
0.5000000000000004
 40
0.5000000000000004
 40
0.6250000000000007
 40
0.6250000000000007
 40
0.6875000000000006
 40
0.6875000000000006
 40
0.7500000000000004
 40
0.7500000000000004
 40
0.8125000000000004
 40
0.8125000000000004
 40
0.8750000000000003
 40
0.8750000000000003
 40
1.0
 40
1.0
 40
1.0
 40
1.0
 10
223.5751300230469
 20
48.33496422455753
 30
0.0
 10
223.5810976217384
 20
48.12144703178282
 30
0.0
 10
223.6102428417378
 20
47.90389713376369
 30
0.0
 10
223.6866775029967
 20
47.5715981042281
 30
0.0
 10
223.7176434865741
 20
47.45982380292853
 30
0.0
 10
223.7906134273897
 20
47.23412192939354
 30
0.0
 10
223.8327496259483
 20
47.12003415682102
 30
0.0
 10
223.9726414153127
 20
46.78187142945983
 30
0.0
 10
224.084485339855
 20
46.55936121018706
 30
0.0
 10
224.2782719369996
 20
46.22875095423749
 30
0.0
 10
224.3476125746028
 20
46.11852431453135
 30
0.0
 10
224.4931049590495
 20
45.9017943140778
 30
0.0
 10
224.5689922497686
 20
45.79559737844708
 30
0.0
 10
224.80538019824
 20
45.48295920519747
 30
0.0
 10
224.9745257004908
 20
45.28241665736231
 30
0.0
 10
225.2443916978249
 20
44.99231181793997
 30
0.0
 10
225.3365832038758
 20
44.89796840156752
 30
0.0
 10
225.5221817989105
 20
44.71666337350712
 30
0.0
 10
225.6160106791973
 20
44.62924404001297
 30
0.0
 10
225.8054607296627
 20
44.46063648968832
 30
0.0
 10
225.9010821448684
 20
44.37944830391898
 30
0.0
 10
226.0939438342948
 20
44.22328562437084
 30
0.0
 10
226.1916787431932
 20
44.14795864467413
 30
0.0
 10
226.4829346983135
 20
43.9346684112303
 30
0.0
 10
226.6741920892867
 20
43.80927498652986
 30
0.0
 10
226.8621884751714
 20
43.70074698304209
 30
0.0
  0
LINE
  5
272
330
1F
100
AcDbEntity
  8
0
  6
Continuous
 62
     7
370
    15
100
AcDbLine
 10
226.8621886225
 20
43.7007470821
 30
0.0
 11
227.44840387
 21
43.362332223
 31
0.0
  0
ARC
  5
273
330
1F
100
AcDbEntity
  8
0
  6
Continuous
 62
     7
370
    15
100
AcDbCircle
 10
233.2397557051
 20
44.7254449467
 30
0.0
 40
5.949607749634573
100
AcDbArc
 50
193.2446605253
 51
253.3775175081
  0
LINE
  5
274
330
1F
100
AcDbEntity
  8
0
  6
Continuous
 62
     7
370
    15
100
AcDbLine
 10
246.7685435936
 20
66.2942128362
 30
0.0
 11
247.1028556887
 21
65.9868841158
 31
0.0
  0
LINE
  5
275
330
1F
100
AcDbEntity
  8
0
  6
Continuous
 62
     7
370
    15
100
AcDbLine
 10
245.9156148568
 20
66.7865981152
 30
0.0
 11
246.7685435936
 21
66.2942128362
 31
0.0
  0
SPLINE
  5
276
330
1F
100
AcDbEntity
  8
0
  6
Continuous
 62
     7
370
    15
100
AcDbSpline
210
0.0
220
0.0
230
1.0
 70
     8
 71
     3
 72
    20
 73
    16
 74
     0
 42
0.000000001
 43
0.00000001
 40
0.0
 40
0.0
 40
0.0
 40
0.0
 40
0.2499999999999995
 40
0.2499999999999995
 40
0.3749999999999996
 40
0.3749999999999996
 40
0.4999999999999997
 40
0.4999999999999997
 40
0.6249999999999998
 40
0.6249999999999998
 40
0.7499999999999998
 40
0.7499999999999998
 40
0.8749999999999999
 40
0.8749999999999999
 40
1.0
 40
1.0
 40
1.0
 40
1.0
 10
241.72448325677
 20
69.20639239191428
 30
0.0
 10
242.043471911168
 20
69.0725020026545
 30
0.0
 10
242.369927511266
 20
68.9126056555925
 30
0.0
 10
242.8822776286491
 20
68.63468672812297
 30
0.0
 10
243.0568809953269
 20
68.53568771531268
 30
0.0
 10
243.4167548576758
 20
68.32474701041399
 30
0.0
 10
243.5996152740293
 20
68.21419119320394
 30
0.0
 10
243.9659103632065
 20
67.98877332419312
 30
0.0
 10
244.1503938794652
 20
67.87329272281364
 30
0.0
 10
244.5239787037007
 20
67.63846037851788
 30
0.0
 10
244.7083281749399
 20
67.52213045324262
 30
0.0
 10
245.0690380814164
 20
67.29643576644324
 30
0.0
 10
245.2460920706702
 20
67.18662579234655
 30
0.0
 10
245.5938214220226
 20
66.97523102881064
 30
0.0
 10
245.7590718384808
 20
66.87696819366764
 30
0.0
 10
245.9156147532623
 20
66.78659789255026
 30
0.0
  0
LINE
  5
277
330
1F
100
AcDbEntity
  8
0
  6
Continuous
 62
     7
370
    15
100
AcDbLine
 10
230.0576945172
 20
50.1833218461
 30
0.0
 11
229.5940666712
 21
50.4509685046
 31
0.0
  0
LINE
  5
278
330
1F
100
AcDbEntity
  8
0
  6
Continuous
 62
     7
370
    15
100
AcDbLine
 10
229.1682484996
 20
51.099113492
 30
0.0
 11
228.9230796233
 21
50.9575805123
 31
0.0
  0
SPLINE
  5
279
330
1F
100
AcDbEntity
  8
0
  6
Continuous
 62
     7
370
    15
100
AcDbSpline
210
0.0
220
0.0
230
1.0
 70
     8
 71
     3
 72
    14
 73
    10
 74
     0
 42
0.000000001
 43
0.00000001
 40
0.0
 40
0.0
 40
0.0
 40
0.0
 40
0.1249999999999983
 40
0.1249999999999983
 40
0.2499999999999967
 40
0.2499999999999967
 40
0.4999999999999968
 40
0.4999999999999968
 40
1.0
 40
1.0
 40
1.0
 40
1.0
 10
229.5940664255147
 20
50.45096857238812
 30
0.0
 10
229.5698699923496
 20
50.46493687593067
 30
0.0
 10
229.5466945538907
 20
50.49230205192821
 30
0.0
 10
229.5097741614598
 20
50.55010382105374
 30
0.0
 10
229.4947323704271
 20
50.5810743001701
 30
0.0
 10
229.4549189138403
 20
50.67410077309931
 30
0.0
 10
229.4352828954562
 20
50.73671182738408
 30
0.0
 10
229.3848620469867
 20
50.92104257829906
 30
0.0
 10
229.3624448687462
 20
51.04258681319975
 30
0.0
 10
229.3457569705802
 20
51.16171587850211
 30
0.0
  0
SPLINE
  5
27A
330
1F
100
AcDbEntity
  8
0
  6
Continuous
 62
     7
370
    15
100
AcDbSpline
210
0.0
220
0.0
230
1.0
 70
     8
 71
     3
 72
    10
 73
     6
 74
     0
 42
0.000000001
 43
0.00000001
 40
0.0
 40
0.0
 40
0.0
 40
0.0
 40
0.5
 40
0.5
 40
1.0
 40
1.0
 40
1.0
 40
1.0
 10
229.3457569705802
 20
51.16171587850211
 30
0.0
 10
229.3123669523925
 20
51.15556610930189
 30
0.0
 10
229.2801276009644
 20
51.14701950145381
 30
0.0
 10
229.2201397067021
 20
51.12578352768492
 30
0.0
 10
229.1928778334531
 20
51.11333188167673
 30
0.0
 10
229.1682482675032
 20
51.09911353589988
 30
0.0
  0
LWPOLYLINE
  5
27B
330
1F
100
AcDbEntity
  8
0
  6
Continuous
 62
     7
370
    15
100
AcDbPolyline
 90
       21
 70
   128
 43
0.0
 10
221.9254936828
 20
49.8115299186
 10
221.9686592997
 20
50.9622378778
 10
222.0978183169
 20
52.1537780473
 10
222.3119605273
 20
53.3768250605
 10
222.609409935
 20
54.6218072233
 10
222.9878379267
 20
55.8789803729
 10
223.4442830277
 20
57.1385059183
 10
223.9751726341
 20
58.3905255537
 10
224.5763526471
 20
59.6252411047
 10
225.2431177662
 20
60.8329894304
 10
225.9702490261
 20
62.0043173263
 10
226.7520566024
 20
63.1300587065
 10
227.5824209701
 20
64.2014032321
 10
228.4548436122
 20
65.2099643676
 10
229.362496739
 20
66.1478506697
 10
230.2982767957
 20
67.0077210112
 10
231.2548599441
 20
67.7828462678
 10
232.224759521
 20
68.467159979
 10
233.2003849366
 20
69.055305277
 10
234.1741004908
 20
69.5426810086
 10
235.0386252086
 20
69.8906101402
  0
LINE
  5
27C
330
1F
100
AcDbEntity
  8
0
  6
Continuous
 62
     7
370
    15
100
AcDbLine
 10
230.6272643938
 20
43.0730502997
 30
0.0
 11
232.7972600853
 21
41.8203384518
 31
0.0
  0
SPLINE
  5
27D
330
1F
100
AcDbEntity
  8
0
  6
Continuous
 62
     7
370
    15
100
AcDbSpline
210
0.0
220
0.0
230
1.0
 70
     8
 71
     3
 72
    14
 73
    10
 74
     0
 42
0.000000001
 43
0.00000001
 40
0.0
 40
0.0
 40
0.0
 40
0.0
 40
0.1249999999999993
 40
0.1249999999999993
 40
0.2499999999999987
 40
0.2499999999999987
 40
0.4999999999999973
 40
0.4999999999999973
 40
1.0
 40
1.0
 40
1.0
 40
1.0
 10
230.3789549526318
 20
43.7837973813262
 30
0.0
 10
230.4031835305845
 20
43.7698105209928
 30
0.0
 10
230.4262693719504
 20
43.74251175117606
 30
0.0
 10
230.4630117460136
 20
43.68507254286865
 30
0.0
 10
230.4781700456973
 20
43.65392206786625
 30
0.0
 10
230.517732972585
 20
43.56162252766049
 30
0.0
 10
230.5373428458279
 20
43.49938474690496
 30
0.0
 10
230.5881656947828
 20
43.31392898070839
 30
0.0
 10
230.6105973789069
 20
43.19203016041067
 30
0.0
 10
230.6272644075663
 20
43.07305007521209
 30
0.0
  0
LINE
  5
27E
330
1F
100
AcDbEntity
  8
0
  6
Continuous
 62
     7
370
    15
100
AcDbLine
 10
229.5940666712
 20
44.2369037843
 30
0.0
 11
230.3789549187
 21
43.7837974437
 31
0.0
  0
SPLINE
  5
27F
330
1F
100
AcDbEntity
  8
0
  6
Continuous
 62
     7
370
    15
100
AcDbSpline
210
0.0
220
0.0
230
1.0
 70
     8
 71
     3
 72
    14
 73
    10
 74
     0
 42
0.000000001
 43
0.00000001
 40
0.0
 40
0.0
 40
0.0
 40
0.0
 40
0.5
 40
0.5
 40
0.75
 40
0.75
 40
0.875
 40
0.875
 40
1.0
 40
1.0
 40
1.0
 40
1.0
 10
229.3457569705802
 20
43.81284857153012
 30
0.0
 10
229.362381052034
 20
43.91232831576023
 30
0.0
 10
229.3847984536383
 20
44.00816344915624
 30
0.0
 10
229.435229511487
 20
44.13437939872987
 30
0.0
 10
229.4547642054182
 20
44.17421294742413
 30
0.0
 10
229.4947073627536
 20
44.22147327889597
 30
0.0
 10
229.5097243299193
 20
44.23507589250124
 30
0.0
 10
229.546785697441
 20
44.25029629407695
 30
0.0
 10
229.5697693597893
 20
44.25093028087082
 30
0.0
 10
229.5940664255148
 20
44.23690388338779
 30
0.0
  0
LINE
  5
280
330
1F
100
AcDbEntity
  8
0
  6
Continuous
 62
     7
370
    15
100
AcDbLine
 10
228.201066242
 20
44.4736646798
 30
0.0
 11
229.3457571961
 21
43.8128486579
 31
0.0
  0
ARC
  5
281
330
1F
100
AcDbEntity
  8
0
  6
Continuous
 62
     7
370
    15
100
AcDbCircle
 10
231.48753009
 20
49.6370919647
 30
0.0
 40
6.120606665202453
100
AcDbArc
 50
182.4763014998
 51
237.5237020156
  0
LINE
  5
282
330
1F
100
AcDbEntity
  8
0
  6
Continuous
 62
     7
370
    15
100
AcDbLine
 10
225.3726389829
 20
50.1891849017
 30
0.0
 11
225.3726389829
 21
49.372644051
 31
0.0
  0
ARC
  5
283
330
1F
100
AcDbEntity
  8
0
  6
Continuous
 62
     7
370
    15
100
AcDbCircle
 10
227.9696654654
 20
50.2727330595
 30
0.0
 40
2.598370036260699
100
AcDbArc
 50
154.6770959118
 51
181.8426097915
  0
ARC
  5
284
330
1F
100
AcDbEntity
  8
0
  6
Continuous
 62
     7
370
    15
100
AcDbCircle
 10
236.8452645953
 20
42.2165242976
 30
0.0
 40
5.589134415231831
100
AcDbArc
 50
209.5403183129
 51
270.5279475366
  0
SPLINE
  5
285
330
1F
100
AcDbEntity
  8
0
  6
Continuous
 62
     7
370
    15
100
AcDbSpline
210
0.0
220
0.0
230
1.0
 70
     8
 71
     3
 72
    12
 73
     8
 74
     0
 42
0.000000001
 43
0.00000001
 40
0.0
 40
0.0
 40
0.0
 40
0.0
 40
0.2500000000000001
 40
0.2500000000000001
 40
0.5000000000000002
 40
0.5000000000000002
 40
1.0
 40
1.0
 40
1.0
 40
1.0
 10
231.246250518528
 20
41.1698818363917
 30
0.0
 10
231.2744927186004
 20
41.15357796132767
 30
0.0
 10
231.3090388505058
 20
41.14062216791767
 30
0.0
 10
231.3837629102035
 20
41.12391042972513
 30
0.0
 10
231.4240533015051
 20
41.12002352093767
 30
0.0
 10
231.5451663189414
 20
41.12228691882697
 30
0.0
 10
231.6232838813594
 20
41.14261613025371
 30
0.0
 10
231.6799333540949
 20
41.17531917476006
 30
0.0
  0
ARC
  5
286
330
1F
100
AcDbEntity
  8
0
  6
Continuous
 62
     7
370
    15
100
AcDbCircle
 10
235.9876324999
 20
43.5629025275
 30
0.0
 40
6.342068032718897
100
AcDbArc
 50
194.4742818894
 51
238.1951738406
  0
LINE
  5
287
330
1F
100
AcDbEntity
  8
0
  6
Continuous
 62
     7
370
    15
100
AcDbLine
 10
229.8468621515
 20
41.9777317292
 30
0.0
 11
231.2462507917
 21
41.1698818627
 31
0.0
  0
SPLINE
  5
288
330
1F
100
AcDbEntity
  8
0
  6
Continuous
 62
     7
370
    15
100
AcDbSpline
210
0.0
220
0.0
230
1.0
 70
     8
 71
     3
 72
     8
 73
     4
 74
     0
 42
0.000000001
 43
0.00000001
 40
0.0
 40
0.0
 40
0.0
 40
0.0
 40
1.0
 40
1.0
 40
1.0
 40
1.0
 10
230.2736536152033
 20
42.82904365944767
 30
0.0
 10
230.1304889185128
 20
42.54542161244066
 30
0.0
 10
229.9883002216602
 20
42.26163846645664
 30
0.0
 10
229.846862450905
 20
41.97773137226957
 30
0.0
  0
LINE
  5
289
330
1F
100
AcDbEntity
  8
0
  6
Continuous
 62
     7
370
    15
100
AcDbLine
 10
230.5188225282
 20
42.9705767105
 30
0.0
 11
230.2736536519
 21
42.8290437308
 31
0.0
  0
SPLINE
  5
28A
330
1F
100
AcDbEntity
  8
0
  6
Continuous
 62
     7
370
    15
100
AcDbSpline
210
0.0
220
0.0
230
1.0
 70
     8
 71
     3
 72
    10
 73
     6
 74
     0
 42
0.000000001
 43
0.00000001
 40
0.0
 40
0.0
 40
0.0
 40
0.0
 40
0.5
 40
0.5
 40
1.0
 40
1.0
 40
1.0
 40
1.0
 10
230.6272644075664
 20
43.07305007521219
 30
0.0
 10
230.6166115405965
 20
43.05377442800604
 30
0.0
 10
230.6018067774443
 20
43.03516304658096
 30
0.0
 10
230.5650210061134
 20
43.00053277234938
 30
0.0
 10
230.5434517855194
 20
42.98479482791426
 30
0.0
 10
230.5188222195694
 20
42.97057648213739
 30
0.0
  0
SPLINE
  5
28B
330
1F
100
AcDbEntity
  8
0
  6
Continuous
 62
     7
370
    15
100
AcDbSpline
210
0.0
220
0.0
230
1.0
 70
     8
 71
     3
 72
    14
 73
    10
 74
     0
 42
0.000000001
 43
0.00000001
 40
0.0
 40
0.0
 40
0.0
 40
0.0
 40
0.5000000000000019
 40
0.5000000000000019
 40
0.7500000000000018
 40
0.7500000000000018
 40
0.875000000000001
 40
0.875000000000001
 40
1.0
 40
1.0
 40
1.0
 40
1.0
 10
214.7059551508876
 20
54.46810942234887
 30
0.0
 10
215.0211210947275
 20
54.24102143145301
 30
0.0
 10
215.3373967499934
 20
54.01117505640486
 30
0.0
 10
215.8162212385645
 20
53.65586645441574
 30
0.0
 10
215.9765412489886
 20
53.53572814022019
 30
0.0
 10
216.2195937849423
 20
53.34945930597638
 30
0.0
 10
216.3010372229589
 20
53.28636606474937
 30
0.0
 10
216.4656986719922
 20
53.15602082233723
 30
0.0
 10
216.5486046900585
 20
53.08949638035999
 30
0.0
 10
216.6346235181432
 20
53.01570290903643
 30
0.0
  0
SPLINE
  5
28C
330
1F
100
AcDbEntity
  8
0
  6
Continuous
 62
     7
370
    15
100
AcDbSpline
210
0.0
220
0.0
230
1.0
 70
     8
 71
     3
 72
     8
 73
     4
 74
     0
 42
0.000000001
 43
0.00000001
 40
0.0
 40
0.0
 40
0.0
 40
0.0
 40
1.0
 40
1.0
 40
1.0
 40
1.0
 10
216.6346235181431
 20
53.01570290903643
 30
0.0
 10
216.9362759913807
 20
52.75692255095461
 30
0.0
 10
217.2415555349041
 20
52.50934753554995
 30
0.0
 10
217.5462151080307
 20
52.26837467898343
 30
0.0
  0
SPLINE
  5
28D
330
1F
100
AcDbEntity
  8
0
  6
Continuous
 62
     7
370
    15
100
AcDbSpline
210
0.0
220
0.0
230
1.0
 70
     8
 71
     3
 72
    14
 73
    10
 74
     0
 42
0.000000001
 43
0.00000001
 40
0.0
 40
0.0
 40
0.0
 40
0.0
 40
0.1250000000000027
 40
0.1250000000000027
 40
0.2500000000000053
 40
0.2500000000000053
 40
0.5000000000000048
 40
0.5000000000000048
 40
1.0
 40
1.0
 40
1.0
 40
1.0
 10
217.5462151080308
 20
52.26837467898338
 30
0.0
 10
217.5654104839563
 20
52.25319194724717
 30
0.0
 10
217.5830225573567
 20
52.24182412875039
 30
0.0
 10
217.608867487276
 20
52.23055565953795
 30
0.0
 10
217.6170058515236
 20
52.23017218930089
 30
0.0
 10
217.6339559424917
 20
52.23594798199528
 30
0.0
 10
217.6361252150014
 20
52.24861340761332
 30
0.0
 10
217.6349496671868
 20
52.29305023465709
 30
0.0
 10
217.6228761465827
 20
52.33353350543052
 30
0.0
 10
217.6080979185426
 20
52.37753717531302
 30
0.0
  0
SPLINE
  5
28E
330
1F
100
AcDbEntity
  8
0
  6
Continuous
 62
     7
370
    15
100
AcDbSpline
210
0.0
220
0.0
230
1.0
 70
     8
 71
     3
 72
    14
 73
    10
 74
     0
 42
0.000000001
 43
0.00000001
 40
0.0
 40
0.0
 40
0.0
 40
0.0
 40
0.25
 40
0.25
 40
0.5
 40
0.5
 40
0.75
 40
0.75
 40
1.0
 40
1.0
 40
1.0
 40
1.0
 10
217.6080979185419
 20
52.37753717531373
 30
0.0
 10
217.5900416715953
 20
52.43130147830049
 30
0.0
 10
217.5871188734941
 20
52.47585208739754
 30
0.0
 10
217.5817051449508
 20
52.56811343724225
 30
0.0
 10
217.5801378669097
 20
52.61540784016251
 30
0.0
 10
217.5699994671026
 20
52.72016889499029
 30
0.0
 10
217.5616844693584
 20
52.77743010202531
 30
0.0
 10
217.5328842946995
 20
52.90705145939972
 30
0.0
 10
217.512230898029
 20
52.97984565901277
 30
0.0
 10
217.4835413808679
 20
53.05953235797254
 30
0.0
  0
ARC
  5
28F
330
1F
100
AcDbEntity
  8
0
  6
Continuous
 62
     7
370
    15
100
AcDbCircle
 10
227.8385117092
 20
56.1460938246
 30
0.0
 40
10.80519673566366
100
AcDbArc
 50
163.4019784234
 51
196.5980215766
  0
SPLINE
  5
290
330
1F
100
AcDbEntity
  8
0
  6
Continuous
 62
     7
370
    15
100
AcDbSpline
210
0.0
220
0.0
230
1.0
 70
     8
 71
     3
 72
    14
 73
    10
 74
     0
 42
0.000000001
 43
0.00000001
 40
0.0
 40
0.0
 40
0.0
 40
0.0
 40
0.25
 40
0.25
 40
0.5
 40
0.5
 40
0.75
 40
0.75
 40
1.0
 40
1.0
 40
1.0
 40
1.0
 10
217.6080979185419
 20
60.69386037023671
 30
0.0
 10
217.5900416715953
 20
60.57301829129215
 30
0.0
 10
217.5871188734941
 20
60.44792402472604
 30
0.0
 10
217.5817051449508
 20
60.19997271407468
 30
0.0
 10
217.5801378669097
 20
60.07606408976093
 30
0.0
 10
217.5699994671026
 20
59.82990835052072
 30
0.0
 10
217.5616844693584
 20
59.70762040865931
 30
0.0
 10
217.5328842946995
 20
59.46562323145054
 30
0.0
 10
217.512230898029
 20
59.34546626427094
 30
0.0
 10
217.4835413808679
 20
59.23265535386566
 30
0.0
  0
SPLINE
  5
291
330
1F
100
AcDbEntity
  8
0
  6
Continuous
 62
     7
370
    15
100
AcDbSpline
210
0.0
220
0.0
230
1.0
 70
     8
 71
     3
 72
    14
 73
    10
 74
     0
 42
0.000000001
 43
0.00000001
 40
0.0
 40
0.0
 40
0.0
 40
0.0
 40
0.1249999999999979
 40
0.1249999999999979
 40
0.2499999999999958
 40
0.2499999999999958
 40
0.4999999999999948
 40
0.4999999999999948
 40
1.0
 40
1.0
 40
1.0
 40
1.0
 10
217.5462151080309
 20
61.23914593453073
 30
0.0
 10
217.5654104839564
 20
61.2368591265569
 30
0.0
 10
217.5830225573568
 20
61.22536088728407
 30
0.0
 10
217.608867487276
 20
61.18866938475755
 30
0.0
 10
217.6170058515237
 20
61.16558796965549
 30
0.0
 10
217.6339559424917
 20
61.09425545057839
 30
0.0
 10
217.6361252150014
 20
61.04301134497032
 30
0.0
 10
217.6349496671868
 20
60.89297586520873
 30
0.0
 10
217.6228761465827
 20
60.79276419032566
 30
0.0
 10
217.6080979185426
 20
60.69386037023704
 30
0.0
  0
SPLINE
  5
292
330
1F
100
AcDbEntity
  8
0
  6
Continuous
 62
     7
370
    15
100
AcDbSpline
210
0.0
220
0.0
230
1.0
 70
     8
 71
     3
 72
     8
 73
     4
 74
     0
 42
0.000000001
 43
0.00000001
 40
0.0
 40
0.0
 40
0.0
 40
0.0
 40
1.0
 40
1.0
 40
1.0
 40
1.0
 10
216.6346235181431
 20
61.29135874566681
 30
0.0
 10
216.9362759913807
 20
61.29870499280991
 30
0.0
 10
217.2415555349042
 20
61.27544102683998
 30
0.0
 10
217.5462151080309
 20
61.23914593453073
 30
0.0
  0
SPLINE
  5
293
330
1F
100
AcDbEntity
  8
0
  6
Continuous
 62
     7
370
    15
100
AcDbSpline
210
0.0
220
0.0
230
1.0
 70
     8
 71
     3
 72
    14
 73
    10
 74
     0
 42
0.000000001
 43
0.00000001
 40
0.0
 40
0.0
 40
0.0
 40
0.0
 40
0.5000000000000019
 40
0.5000000000000019
 40
0.7500000000000018
 40
0.7500000000000018
 40
0.875000000000001
 40
0.875000000000001
 40
1.0
 40
1.0
 40
1.0
 40
1.0
 10
214.7059551508876
 20
61.9239980906518
 30
0.0
 10
215.0211210947275
 20
61.78661359692568
 30
0.0
 10
215.3373967499934
 20
61.65504008929452
 30
0.0
 10
215.8162212385645
 20
61.48014462277376
 30
0.0
 10
215.9765412489886
 20
61.42547347250923
 30
0.0
 10
216.2195937849423
 20
61.35644165678919
 30
0.0
 10
216.3010372229589
 20
61.33557937228039
 30
0.0
 10
216.4656986719922
 20
61.30277165885076
 30
0.0
 10
216.5486046900585
 20
61.2892638993581
 30
0.0
 10
216.6346235181432
 20
61.29135874566681
 30
0.0
  0
SPLINE
  5
294
330
1F
100
AcDbEntity
  8
0
  6
Continuous
 62
     7
370
    15
100
AcDbSpline
210
0.0
220
0.0
230
1.0
 70
     8
 71
     3
 72
     8
 73
     4
 74
     0
 42
0.000000001
 43
0.00000001
 40
0.0000005163856998
 40
0.0000005163856998
 40
0.0000005163856998
 40
0.0000005163856998
 40
0.000026289209185
 40
0.000026289209185
 40
0.000026289209185
 40
0.000026289209185
 10
214.7059335638684
 20
61.93687720184299
 30
0.0
 10
214.7059312627091
 20
61.93258436681646
 30
0.0
 10
214.7059385090334
 20
61.92829129914093
 30
0.0
 10
214.7059551508876
 20
61.9239980906518
 30
0.0
  0
LINE
  5
295
330
1F
100
AcDbEntity
  8
0
  6
Continuous
 62
     7
370
    15
100
AcDbLine
 10
227.5127084363
 20
72.4600952899
 30
0.0
 11
227.5701091513
 21
72.4320938427
 31
0.0
  0
SPLINE
  5
296
330
1F
100
AcDbEntity
  8
0
  6
Continuous
 62
     7
370
    15
100
AcDbSpline
210
0.0
220
0.0
230
1.0
 70
     8
 71
     3
 72
     8
 73
     4
 74
     0
 42
0.000000001
 43
0.00000001
 40
0.0000005163857002
 40
0.0000005163857002
 40
0.0000005163857002
 40
0.0000005163857002
 40
0.0000262892091854
 40
0.0000262892091854
 40
0.0000262892091854
 40
0.0000262892091854
 10
214.7059335638684
 20
54.46340614998323
 30
0.0
 10
214.7059312627091
 20
54.46497953568092
 30
0.0
 10
214.7059385090334
 20
54.4665472656131
 30
0.0
 10
214.7059551508876
 20
54.46810942234887
 30
0.0
  0
SPLINE
  5
297
330
1F
100
AcDbEntity
  8
0
  6
Continuous
 62
     7
370
    15
100
AcDbSpline
210
0.0
220
0.0
230
1.0
 70
     8
 71
     3
 72
    18
 73
    14
 74
     0
 42
0.000000001
 43
0.00000001
 40
0.0
 40
0.0
 40
0.0
 40
0.0
 40
0.1239924522692602
 40
0.2486620335967331
 40
0.3733088481561407
 40
0.497246430260975
 40
0.6201266942736688
 40
0.6819367156361164
 40
0.7429470415190238
 40
0.8038698899820894
 40
0.8660714880136107
 40
0.9893876672634961
 40
0.9999999999999999
 40
0.9999999999999999
 40
0.9999999999999999
 40
0.9999999999999999
 10
220.3948021336649
 20
52.59043505365597
 30
0.0
 10
220.2617552551056
 20
52.83536980573962
 30
0.0
 10
219.9949349222484
 20
53.32657691098637
 30
0.0
 10
219.8702395785039
 20
54.07859798865522
 30
0.0
 10
220.0060659228319
 20
54.70328493688121
 30
0.0
 10
220.3731425608636
 20
55.12015046282609
 30
0.0
 10
220.8157801493751
 20
55.2141328813051
 30
0.0
 10
221.1920100143436
 20
55.13219099217055
 30
0.0
 10
221.4742199741857
 20
54.98991081473832
 30
0.0
 10
221.7466507620142
 20
54.77324169632413
 30
0.0
 10
222.0726491545215
 20
54.39535228534392
 30
0.0
 10
222.3238481286809
 20
54.021822771566
 30
0.0
 10
222.4134017607283
 20
53.73663636245839
 30
0.0
 10
222.4204978818376
 20
53.71403853754052
 30
0.0
  0
SPLINE
  5
298
330
1F
100
AcDbEntity
  8
0
  6
Continuous
 62
     7
370
    15
100
AcDbSpline
210
0.0
220
0.0
230
1.0
 70
     8
 71
     3
 72
    13
 73
     9
 74
     0
 42
0.000000001
 43
0.00000001
 40
0.0
 40
0.0
 40
0.0
 40
0.0
 40
0.0382884577739783
 40
0.1999070734342615
 40
0.3588615397859281
 40
0.5179346752985956
 40
0.67930407448288
 40
1.0
 40
1.0
 40
1.0
 40
1.0
 10
222.0315947519207
 20
51.26091941227865
 30
0.0
 10
222.0156607068246
 20
51.25792771656603
 30
0.0
 10
221.9324677941736
 20
51.24230783607761
 30
0.0
 10
221.7336356150408
 20
51.32805595497035
 30
0.0
 10
221.4665493922702
 20
51.46394593380489
 30
0.0
 10
221.1834434232764
 20
51.67519117051089
 30
0.0
 10
220.8038076321054
 20
52.02312822767249
 30
0.0
 10
220.558196164989
 20
52.36380106059586
 30
0.0
 10
220.3948021336649
 20
52.59043505365597
 30
0.0
  0
ARC
  5
299
330
1F
100
AcDbEntity
  8
0
  6
Continuous
 62
     7
370
    15
100
AcDbCircle
 10
235.164624794
 20
45.63945356
 30
0.0
 40
6.563595906302528
100
AcDbArc
 50
198.0227400511
 51
217.4462887124
  0
SPLINE
  5
29A
330
1F
100
AcDbEntity
  8
0
  6
Continuous
 62
     7
370
    15
100
AcDbSpline
210
0.0
220
0.0
230
1.0
 70
     8
 71
     3
 72
     8
 73
     4
 74
     0
 42
0.000000001
 43
0.00000001
 40
0.0
 40
0.0
 40
0.0
 40
0.0
 40
1.0
 40
1.0
 40
1.0
 40
1.0
 10
227.4484037444298
 20
43.36233211146229
 30
0.0
 10
227.9401985431818
 20
43.44398239854402
 30
0.0
 10
228.4317786340845
 20
43.52606618603447
 30
0.0
 10
228.923079663137
 20
43.60871340623836
 30
0.0
  0
LINE
  5
29B
330
1F
100
AcDbEntity
  8
0
  6
Continuous
 62
     7
370
    15
100
AcDbLine
 10
228.9230796233
 20
43.6087135217
 30
0.0
 11
229.1682484996
 21
43.7502465014
 31
0.0
  0
SPLINE
  5
29C
330
1F
100
AcDbEntity
  8
0
  6
Continuous
 62
     7
370
    15
100
AcDbSpline
210
0.0
220
0.0
230
1.0
 70
     8
 71
     3
 72
    10
 73
     6
 74
     0
 42
0.000000001
 43
0.00000001
 40
0.0
 40
0.0
 40
0.0
 40
0.0
 40
0.5
 40
0.5
 40
1.0
 40
1.0
 40
1.0
 40
1.0
 10
229.1682482675032
 20
43.75024622892813
 30
0.0
 10
229.1930805708551
 20
43.76458161251598
 30
0.0
 10
229.2207555683485
 20
43.77717705265206
 30
0.0
 10
229.2808805778031
 20
43.79837495079234
 30
0.0
 10
229.3125749779978
 20
43.80673711645899
 30
0.0
 10
229.3457569705795
 20
43.81284857153023
 30
0.0
  0
SPLINE
  5
29D
330
1F
100
AcDbEntity
  8
0
  6
Continuous
 62
     7
370
    15
100
AcDbSpline
210
0.0
220
0.0
230
1.0
 70
     8
 71
     3
 72
    12
 73
     8
 74
     0
 42
0.000000001
 43
0.00000001
 40
0.0
 40
0.0
 40
0.0
 40
0.0
 40
0.0825082355552829
 40
0.3399029965700665
 40
0.5964558857694288
 40
0.8565367483236588
 40
1.0
 40
1.0
 40
1.0
 40
1.0
 10
221.4142876424833
 20
54.91193843478889
 30
0.0
 10
221.4005509362
 20
54.86467940988383
 30
0.0
 10
221.343960856467
 20
54.66998994558853
 30
0.0
 10
221.4220602023999
 20
54.23585288117816
 30
0.0
 10
221.645503319219
 20
53.6877372103896
 30
0.0
 10
221.9499665540668
 20
53.22842398024697
 30
0.0
 10
222.178580405653
 20
53.01219106092539
 30
0.0
 10
222.2598545101938
 20
52.93531847963527
 30
0.0
  0
LINE
  5
29E
330
1F
100
AcDbEntity
  8
0
  6
Continuous
 62
     7
370
    15
100
AcDbLine
 10
249.0719936589
 20
64.8885638694
 30
0.0
 11
249.1670018751
 21
64.9096123424
 31
0.0
  0
LINE
  5
29F
330
1F
100
AcDbEntity
  8
0
  6
Continuous
 62
     7
370
    15
100
AcDbLine
 10
249.1670018751
 20
64.9096123424
 30
0.0
 11
250.5663905153
 21
64.1017624759
 31
0.0
  0
SPLINE
  5
2A0
330
1F
100
AcDbEntity
  8
0
  6
Continuous
 62
     7
370
    15
100
AcDbSpline
210
0.0
220
0.0
230
1.0
 70
     8
 71
     3
 72
    12
 73
     8
 74
     0
 42
0.000000001
 43
0.00000001
 40
0.0
 40
0.0
 40
0.0
 40
0.0
 40
0.249999999999998
 40
0.249999999999998
 40
0.499999999999996
 40
0.499999999999996
 40
1.0
 40
1.0
 40
1.0
 40
1.0
 10
250.566390281195
 20
64.10176232860654
 30
0.0
 10
250.5986342520676
 20
64.08314828043292
 30
0.0
 10
250.6206872546013
 20
64.05889795763552
 30
0.0
 10
250.6415361987662
 20
64.00831009974797
 30
0.0
 10
250.6411550295389
 20
63.98147153131392
 30
0.0
 10
250.6154020966416
 20
63.9042374150451
 30
0.0
 10
250.5674506695329
 20
63.85745204421726
 30
0.0
 10
250.5035506203976
 20
63.8205633310498
 30
0.0
  0
SPLINE
  5
2A1
330
1F
100
AcDbEntity
  8
0
  6
Continuous
 62
     7
370
    15
100
AcDbSpline
210
0.0
220
0.0
230
1.0
 70
     8
 71
     3
 72
    12
 73
     8
 74
     0
 42
0.000000001
 43
0.00000001
 40
0.0
 40
0.0
 40
0.0
 40
0.0
 40
0.1944272249263918
 40
0.3737616281740699
 40
0.6863629778974257
 40
0.9660590807286625
 40
1.0
 40
1.0
 40
1.0
 40
1.0
 10
220.6860714304618
 20
52.77335821191727
 30
0.0
 10
220.7656248569945
 20
52.65895870478435
 30
0.0
 10
220.9185562082441
 20
52.4390401925261
 30
0.0
 10
221.2434182552804
 20
52.08508800291983
 30
0.0
 10
221.6279144688837
 20
51.78165488932571
 30
0.0
 10
221.9203183238067
 20
51.61617345422272
 30
0.0
 10
222.0429803087903
 20
51.59958332208668
 30
0.0
 10
222.0562544449305
 20
51.59778798449626
 30
0.0
  0
SPLINE
  5
2A2
330
1F
100
AcDbEntity
  8
0
  6
Continuous
 62
     7
370
    15
100
AcDbSpline
210
0.0
220
0.0
230
1.0
 70
     8
 71
     3
 72
    16
 73
    12
 74
     0
 42
0.000000001
 43
0.00000001
 40
0.0
 40
0.0
 40
0.0
 40
0.0
 40
0.1460145305939677
 40
0.2335492376916815
 40
0.3282846220575775
 40
0.4359414424092971
 40
0.5278790444189856
 40
0.6640995040190557
 40
0.8013222617507234
 40
0.8930413283347902
 40
1.0
 40
1.0
 40
1.0
 40
1.0
 10
221.6256787831845
 20
54.8553272193015
 30
0.0
 10
221.4788178966554
 20
54.92879801265404
 30
0.0
 10
221.243914918465
 20
55.04631404143755
 30
0.0
 10
220.9270649590923
 20
55.03634446269034
 30
0.0
 10
220.6739351653012
 20
54.94860898667702
 30
0.0
 10
220.4652115076912
 20
54.76681647191084
 30
0.0
 10
220.3021811793058
 20
54.47495156892727
 30
0.0
 10
220.2251535474335
 20
54.06506795513657
 30
0.0
 10
220.3005518774174
 20
53.60049847059214
 30
0.0
 10
220.4592955760265
 20
53.15855445746598
 30
0.0
 10
220.6067103223958
 20
52.90815916304034
 30
0.0
 10
220.6860714304618
 20
52.77335821191727
 30
0.0
  0
SPLINE
  5
2A3
330
1F
100
AcDbEntity
  8
0
  6
Continuous
 62
     7
370
    15
100
AcDbSpline
210
0.0
220
0.0
230
1.0
 70
     8
 71
     3
 72
    10
 73
     6
 74
     0
 42
0.000000001
 43
0.00000001
 40
0.0
 40
0.0
 40
0.0
 40
0.0
 40
0.3338920408868679
 40
0.7038851905328003
 40
1.0
 40
1.0
 40
1.0
 40
1.0
 10
252.6833799593101
 20
60.24094799407931
 30
0.0
 10
252.7041422995068
 20
60.25537664588071
 30
0.0
 10
252.7479118477311
 20
60.28579400562187
 30
0.0
 10
252.7798921993608
 20
60.3411037043735
 30
0.0
 10
252.7733494191004
 20
60.37844574990789
 30
0.0
 10
252.7704408603544
 20
60.39504596095063
 30
0.0
  0
SPLINE
  5
2A4
330
1F
100
AcDbEntity
  8
0
  6
Continuous
 62
     7
370
    15
100
AcDbSpline
210
0.0
220
0.0
230
1.0
 70
     8
 71
     3
 72
     9
 73
     5
 74
     0
 42
0.000000001
 43
0.00000001
 40
0.0
 40
0.0
 40
0.0
 40
0.0
 40
0.935164869677117
 40
0.9999999999999999
 40
0.9999999999999999
 40
0.9999999999999999
 40
0.9999999999999999
 10
246.7685435935796
 20
66.29421283622102
 30
0.0
 10
246.7170969803881
 20
66.21555432398651
 30
0.0
 10
246.6620835652571
 20
66.13144240448972
 30
0.0
 10
246.604552855193
 20
66.04789784248489
 30
0.0
 10
246.6008228441085
 20
66.04248121991952
 30
0.0
  0
LINE
  5
2A5
330
1F
100
AcDbEntity
  8
0
  6
Continuous
 62
     7
370
    15
100
AcDbLine
 10
216.5457105711
 20
56.6430906425
 30
0.0
 11
217.0460937617
 21
56.3542255753
 31
0.0
  0
SPLINE
  5
2A6
330
1F
100
AcDbEntity
  8
0
  6
Continuous
 62
     7
370
    15
100
AcDbSpline
210
0.0
220
0.0
230
1.0
 70
     8
 71
     3
 72
     9
 73
     5
 74
     0
 42
0.000000001
 43
0.00000001
 40
0.0
 40
0.0
 40
0.0
 40
0.0
 40
0.7009339503679092
 40
0.9999999999999999
 40
0.9999999999999999
 40
0.9999999999999999
 40
0.9999999999999999
 10
214.7198998739728
 20
62.40046923588706
 30
0.0
 10
214.7168279854539
 20
62.45447322024106
 30
0.0
 10
214.7124454205671
 20
62.53151897373276
 30
0.0
 10
214.7368557446436
 20
62.62115171414703
 30
0.0
 10
214.7441560438353
 20
62.64795782374041
 30
0.0
  0
SPLINE
  5
2A7
330
1F
100
AcDbEntity
  8
0
  6
Continuous
 62
     7
370
    15
100
AcDbSpline
210
0.0
220
0.0
230
1.0
 70
     8
 71
     3
 72
    10
 73
     6
 74
     0
 42
0.000000001
 43
0.00000001
 40
0.0
 40
0.0
 40
0.0
 40
0.0
 40
0.5
 40
0.5
 40
1.0
 40
1.0
 40
1.0
 40
1.0
 10
214.7603925010864
 20
62.45281938096465
 30
0.0
 10
214.7404664505898
 20
62.36885890694663
 30
0.0
 10
214.7271721864488
 20
62.28341304443287
 30
0.0
 10
214.7099036603081
 20
62.11099957349558
 30
0.0
 10
214.7059802056861
 20
62.02388796722928
 30
0.0
 10
214.7059335638684
 20
61.93687720184299
 30
0.0
  0
SPLINE
  5
2A8
330
1F
100
AcDbEntity
  8
0
  6
Continuous
 62
     7
370
    15
100
AcDbSpline
210
0.0
220
0.0
230
1.0
 70
     8
 71
     3
 72
    24
 73
    20
 74
     0
 42
0.000000001
 43
0.00000001
 40
0.0
 40
0.0
 40
0.0
 40
0.0
 40
0.2500000000000114
 40
0.2500000000000114
 40
0.3750000000000163
 40
0.3750000000000163
 40
0.4375000000000177
 40
0.4375000000000177
 40
0.4687500000000166
 40
0.4687500000000166
 40
0.5000000000000155
 40
0.5000000000000155
 40
0.5625000000000157
 40
0.5625000000000157
 40
0.6250000000000157
 40
0.6250000000000157
 40
0.7500000000000099
 40
0.7500000000000099
 40
1.0
 40
1.0
 40
1.0
 40
1.0
 10
214.7441560981181
 20
62.6479577316809
 30
0.0
 10
214.7739971274033
 20
62.75523678823715
 30
0.0
 10
214.8038266674443
 20
62.86112136160782
 30
0.0
 10
214.8484978243156
 20
63.01106940485812
 30
0.0
 10
214.8634506164074
 20
63.06006966762105
 30
0.0
 10
214.8850337546968
 20
63.12321994952379
 30
0.0
 10
214.8921634662264
 20
63.14286013375231
 30
0.0
 10
214.9010150915279
 20
63.1605700632403
 30
0.0
 10
214.9036531887977
 20
63.16428642972598
 30
0.0
 10
214.9068057268427
 20
63.16213808134377
 30
0.0
 10
214.9071856879795
 20
63.15597567227718
 30
0.0
 10
214.9051757627187
 20
63.12733058892443
 30
0.0
 10
214.9005991211203
 20
63.09902958393625
 30
0.0
 10
214.8906677350139
 20
63.04265057378696
 30
0.0
 10
214.8849775492789
 20
63.01318082583092
 30
0.0
 10
214.8673959486603
 20
62.92532640526459
 30
0.0
 10
214.854715075732
 20
62.86610141221526
 30
0.0
 10
214.8154740121117
 20
62.68760810508547
 30
0.0
 10
214.7881705520752
 20
62.56986507091178
 30
0.0
 10
214.7603925010864
 20
62.45281938096467
 30
0.0
  0
ARC
  5
2A9
330
1F
100
AcDbEntity
  8
0
  6
Continuous
 62
     7
370
    15
100
AcDbCircle
 10
215.4230705285
 20
61.85821055
 30
0.0
 40
0.7201273031242176
100
AcDbArc
 50
174.7584203609
 51
234.4349513409
  0
ARC
  5
2AA
330
1F
100
AcDbEntity
  8
0
  6
Continuous
 62
     7
370
    15
100
AcDbCircle
 10
216.9184052959
 20
54.3583128137
 30
0.0
 40
2.215173511102298
100
AcDbArc
 50
122.6235856257
 51
177.1589283586
  0
LINE
  5
2AB
330
1F
100
AcDbEntity
  8
0
  6
Continuous
 62
     7
370
    15
100
AcDbLine
 10
215.7241664192
 20
56.2239996014
 30
0.0
 11
216.4682532246
 21
56.6535517709
 31
0.0
  0
SPLINE
  5
2AC
330
1F
100
AcDbEntity
  8
0
  6
Continuous
 62
     7
370
    15
100
AcDbSpline
210
0.0
220
0.0
230
1.0
 70
     8
 71
     3
 72
     8
 73
     4
 74
     0
 42
0.000000001
 43
0.00000001
 40
0.0
 40
0.0
 40
0.0
 40
0.0
 40
0.0001590976915385
 40
0.0001590976915385
 40
0.0001590976915385
 40
0.0001590976915385
 10
216.545710996046
 20
56.64309062561023
 30
0.0
 10
216.5198908670983
 20
56.64657517499015
 30
0.0
 10
216.4940717231638
 20
56.65006215764558
 30
0.0
 10
216.4682535441254
 20
56.65355151868277
 30
0.0
  0
SPLINE
  5
2AD
330
1F
100
AcDbEntity
  8
0
  6
Continuous
 62
     7
370
    15
100
AcDbSpline
210
0.0
220
0.0
230
1.0
 70
     8
 71
     3
 72
    10
 73
     6
 74
     0
 42
0.000000001
 43
0.00000001
 40
0.0
 40
0.0
 40
0.0
 40
0.0
 40
0.5
 40
0.5
 40
1.0
 40
1.0
 40
1.0
 40
1.0
 10
214.7603925010864
 20
54.26816376526067
 30
0.0
 10
214.7404664505898
 20
54.30668532677735
 30
0.0
 10
214.7271721864488
 20
54.33864865397116
 30
0.0
 10
214.7099036603081
 20
54.4010920774696
 30
0.0
 10
214.7059802056861
 20
54.43151545468265
 30
0.0
 10
214.7059335638684
 20
54.46340614998321
 30
0.0
  0
LINE
  5
2AE
330
1F
100
AcDbEntity
  8
0
  6
Continuous
 62
     7
370
    15
100
AcDbLine
 10
214.7163002697
 20
55.065276228
 30
0.0
 11
214.719899874
 21
54.9296399672
 31
0.0
  0
ARC
  5
2AF
330
1F
100
AcDbEntity
  8
0
  6
Continuous
 62
     7
370
    15
100
AcDbCircle
 10
216.0530252459
 20
54.8529715707
 30
0.0
 40
1.353479563765781
100
AcDbArc
 50
122.9135810547
 51
170.975405912
  0
LINE
  5
2B0
330
1F
100
AcDbEntity
  8
0
  6
Continuous
 62
     7
370
    15
100
AcDbLine
 10
215.7241664192
 20
56.2239996014
 30
0.0
 11
215.3175803814
 21
55.9892056051
 31
0.0
  0
LINE
  5
2B1
330
1F
100
AcDbEntity
  8
0
  6
Continuous
 62
     7
370
    15
100
AcDbLine
 10
214.8155521467
 20
54.1724395927
 30
0.0
 11
214.7603924587
 21
54.268163943
 31
0.0
  0
LINE
  5
2B2
330
1F
100
AcDbEntity
  8
0
  6
Continuous
 62
     7
370
    15
100
AcDbLine
 10
266.8642791723
 20
38.1655994064
 30
0.0
 11
266.6999301707
 21
38.1481313617
 31
0.0
  0
LINE
  5
2B3
330
1F
100
AcDbEntity
  8
0
  6
Continuous
 62
     7
370
    15
100
AcDbLine
 10
266.898275874
 20
38.1755830065
 30
0.0
 11
266.8375369969
 21
38.1594399994
 31
0.0
  0
LWPOLYLINE
  5
2B4
330
1F
100
AcDbEntity
  8
0
  6
Continuous
 62
     7
370
    15
100
AcDbPolyline
 90
        3
 70
   128
 43
0.0
 10
265.9353449327
 20
44.8628229271
 10
265.7092067579
 20
45.1211197407
 10
265.4658220433
 20
45.2915529322
  0
LWPOLYLINE
  5
2B5
330
1F
100
AcDbEntity
  8
0
  6
Continuous
 62
     7
370
    15
100
AcDbPolyline
 90
       19
 70
   128
 43
0.0
 10
262.6369357986
 20
45.2915527536
 10
262.3332318033
 20
45.0662495458
 10
262.132627457
 20
44.8010151589
 10
262.0525829773
 20
44.5153147901
 10
262.0981301381
 20
44.227098815
 10
262.2664088394
 20
43.9544758309
 10
262.5468437619
 20
43.7145768049
 10
262.9218109376
 20
43.5224769845
 10
263.3677576867
 20
43.3902426694
 10
263.8566568489
 20
43.3261861739
 10
264.3577900393
 20
43.3343320216
 10
264.8396704342
 20
43.4141674585
 10
265.2720220464
 20
43.5606749699
 10
265.6276750995
 20
43.7646509101
 10
265.8842817209
 20
44.0132792847
 10
266.0257231694
 20
44.2909350022
 10
266.0431085798
 20
44.5801740614
 10
265.9353449327
 20
44.8628229271
 10
265.9353449327
 20
44.8628229271
  0
LWPOLYLINE
  5
2B6
330
1F
100
AcDbEntity
  8
0
  6
Continuous
 62
     7
370
    15
100
AcDbPolyline
 90
       24
 70
   128
 43
0.0
 10
265.6056526097
 20
45.0807910281
 10
265.3985915638
 20
45.3110133108
 10
265.0916129347
 20
45.5004491398
 10
264.707486475
 20
45.6350473974
 10
264.2746990916
 20
45.7048268718
 10
263.8253506308
 20
45.7046110305
 10
263.392763486
 20
45.6344181453
 10
263.0090230981
 20
45.4994526439
 10
262.7025900114
 20
45.3097241436
 10
262.4961931282
 20
45.0793026639
 10
262.4051332156
 20
44.8252814759
 10
262.4361705006
 20
44.5664962394
 10
262.5869993365
 20
44.3221420528
 10
262.8464334393
 20
44.1103414609
 10
263.1952347484
 20
43.9468011729
 10
263.6075323426
 20
43.8436512618
 10
264.0527467079
 20
43.8085426419
 10
264.497862662
 20
43.8440766003
 10
264.909861771
 20
43.9476214126
 10
265.2581929847
 20
44.1114946951
 10
265.5170181989
 20
44.3235450214
 10
265.6671458083
 20
44.5680430784
 10
265.6974393907
 20
44.8268568039
 10
265.6056526097
 20
45.0807910281
  0
LWPOLYLINE
  5
2B7
330
1F
100
AcDbEntity
  8
0
  6
Continuous
 62
     7
370
    15
100
AcDbPolyline
 90
       20
 70
   128
 43
0.0
 10
265.1817587051
 20
44.9935941762
 10
264.9897262211
 20
45.1928785852
 10
264.6960072211
 20
45.3453705729
 10
264.3324336886
 20
45.4345437368
 10
263.9384051891
 20
45.4507342594
 10
263.5566163566
 20
45.3921902476
 10
263.2284449241
 20
45.2652529684
 10
262.9894498176
 20
45.0836800918
 10
262.8655315181
 20
44.8671468748
 10
262.8701193919
 20
44.639117577
 10
263.0027142005
 20
44.4243039505
 10
263.2489479433
 20
44.2459838544
 10
263.5821387018
 20
44.1234803617
 10
263.9661782747
 20
44.0700696382
 10
264.3594511356
 20
44.0915389352
 10
264.7193382388
 20
44.1855627431
 10
265.0068440669
 20
44.3419499669
 10
265.1908090823
 20
44.5437557739
 10
265.2512992765
 20
44.7691106019
 10
265.1817587051
 20
44.9935941762
  0
SPLINE
  5
2B8
330
1F
100
AcDbEntity
  8
0
  6
Continuous
 62
     7
370
    15
100
AcDbSpline
210
0.0
220
0.0
230
1.0
 70
     8
 71
     3
 72
    10
 73
     6
 74
     0
 42
0.000000001
 43
0.00000001
 40
0.0
 40
0.0
 40
0.0
 40
0.0
 40
0.4391227832433116
 40
0.7513719514425652
 40
1.0
 40
1.0
 40
1.0
 40
1.0
 10
264.7995692718538
 20
45.23181054766989
 30
0.0
 10
264.636971759864
 20
45.19309135047291
 30
0.0
 10
264.3587552460652
 20
45.12683990585118
 30
0.0
 10
263.9543216483692
 20
45.21217287091054
 30
0.0
 10
263.7530251440967
 20
45.30905235070949
 30
0.0
 10
263.6637935697993
 20
45.35199750035731
 30
0.0
  0
SPLINE
  5
2B9
330
1F
100
AcDbEntity
  8
0
  6
Continuous
 62
     7
370
    15
100
AcDbSpline
210
0.0
220
0.0
230
1.0
 70
     8
 71
     3
 72
    10
 73
     6
 74
     0
 42
0.000000001
 43
0.00000001
 40
0.0
 40
0.0
 40
0.0
 40
0.0
 40
0.4391222187156623
 40
0.7513712054534089
 40
1.0
 40
1.0
 40
1.0
 40
1.0
 10
263.6637935697993
 20
45.35199750035731
 30
0.0
 10
263.5566833925308
 20
45.22338512963127
 30
0.0
 10
263.3734098081378
 20
45.00331967197513
 30
0.0
 10
263.106985641683
 20
44.86506174543549
 30
0.0
 10
262.9743840292502
 20
44.8506522762596
 30
0.0
 10
262.9156037028507
 20
44.84426477247393
 30
0.0
  0
SPLINE
  5
2BA
330
1F
100
AcDbEntity
  8
0
  6
Continuous
 62
     7
370
    15
100
AcDbSpline
210
0.0
220
0.0
230
1.0
 70
     8
 71
     3
 72
    11
 73
     7
 74
     0
 42
0.000000001
 43
0.00000001
 40
0.0
 40
0.0
 40
0.0
 40
0.0
 40
0.2041253055521153
 40
0.5738077826764784
 40
0.9618999740825545
 40
1.0
 40
1.0
 40
1.0
 40
1.0
 10
262.9156037028507
 20
44.84426477247393
 30
0.0
 10
262.9381700277976
 20
44.78219130427523
 30
0.0
 10
263.0016052439553
 20
44.60769927324654
 30
0.0
 10
263.1197214519389
 20
44.36469079023981
 30
0.0
 10
263.2172269151727
 20
44.26024421364237
 30
0.0
 10
263.2643982642892
 20
44.23650924694106
 30
0.0
 10
263.2686152104249
 20
44.23438742770149
 30
0.0
  0
SPLINE
  5
2BB
330
1F
100
AcDbEntity
  8
0
  6
Continuous
 62
     7
370
    15
100
AcDbSpline
210
0.0
220
0.0
230
1.0
 70
     8
 71
     3
 72
     9
 73
     5
 74
     0
 42
0.000000001
 43
0.00000001
 40
0.0
 40
0.0
 40
0.0
 40
0.0
 40
0.4693584746094205
 40
1.0
 40
1.0
 40
1.0
 40
1.0
 10
264.8374666612767
 20
44.25241383568658
 30
0.0
 10
264.8950180205497
 20
44.29502360253303
 30
0.0
 10
265.0176350870061
 20
44.38580659496093
 30
0.0
 10
265.1283877690152
 20
44.52828460032141
 30
0.0
 10
265.1871577411376
 20
44.60388934642049
 30
0.0
  0
SPLINE
  5
2BC
330
1F
100
AcDbEntity
  8
0
  6
Continuous
 62
     7
370
    15
100
AcDbSpline
210
0.0
220
0.0
230
1.0
 70
     8
 71
     3
 72
    11
 73
     7
 74
     0
 42
0.000000001
 43
0.00000001
 40
0.0
 40
0.0
 40
0.0
 40
0.0
 40
0.1285563699690005
 40
0.480154385435466
 40
0.8150684342788194
 40
1.0
 40
1.0
 40
1.0
 40
1.0
 10
265.1871577411376
 20
44.60388934642049
 30
0.0
 10
265.1715484280063
 20
44.61118068276619
 30
0.0
 10
265.1132480874208
 20
44.63841361663726
 30
0.0
 10
265.0039206890647
 20
44.75073521410059
 30
0.0
 10
264.8855452737636
 20
44.99542890636696
 30
0.0
 10
264.8221291348749
 20
45.16978466451605
 30
0.0
 10
264.7995692718538
 20
45.23181054766989
 30
0.0
  0
LINE
  5
2BD
330
1F
100
AcDbEntity
  8
0
  6
Continuous
 62
     7
370
    15
100
AcDbLine
 10
264.7995692719
 20
44.2194568714
 30
0.0
 11
264.7995692719
 21
45.2318105477
 31
0.0
  0
LINE
  5
2BE
330
1F
100
AcDbEntity
  8
0
  6
Continuous
 62
     7
370
    15
100
AcDbLine
 10
263.6637935698
 20
44.1054497709
 30
0.0
 11
263.6637935698
 21
45.3519975004
 31
0.0
  0
LWPOLYLINE
  5
2BF
330
1F
100
AcDbEntity
  8
0
  6
Continuous
 62
     7
370
     0
100
AcDbPolyline
 90
        8
 70
   128
 43
0.0
 10
237.5348753738
 20
47.0051266693
 10
237.5777518897
 20
46.2271323209
 10
237.7057301366
 20
45.5104349884
 10
237.9168703719
 20
44.8658992067
 10
238.2079723983
 20
44.3032957035
 10
238.5746229801
 20
43.8311528187
 10
239.0112640014
 20
43.4566277901
 10
239.1920548837
 20
43.342368387
  0
LWPOLYLINE
  5
2C0
330
1F
100
AcDbEntity
  8
0
  6
Continuous
 62
     7
370
     0
100
AcDbPolyline
 90
       21
 70
   128
 43
0.0
 10
247.1914049003
 20
57.1991501564
 10
247.1296581209
 20
57.2337119544
 10
246.6007461237
 20
57.4516516928
 10
246.0201571511
 20
57.5607362075
 10
245.3966918273
 20
57.5593120917
 10
244.7398015831
 20
57.4474012725
 10
244.0594441054
 20
57.2266996934
 10
243.3659330449
 20
56.9005532908
 10
242.6697812209
 20
56.4739051207
 10
241.9815415828
 20
55.9532244607
 10
241.3116472249
 20
55.3464034258
 10
240.6702530269
 20
54.662640454
 10
240.06708174
 20
53.912301263
 10
239.5112770899
 20
53.1067599039
 10
239.0112640014
 20
52.2582275743
 10
238.5746229801
 20
51.3795675534
 10
238.2079723983
 20
50.4840989176
 10
237.9168703719
 20
49.5853961687
 10
237.7057301366
 20
48.6970830604
 10
237.5777518897
 20
47.832625189
 10
237.5348753738
 20
47.0051266693
  0
LWPOLYLINE
  5
2C1
330
1F
100
AcDbEntity
  8
0
  6
Continuous
 62
     7
370
     0
100
AcDbPolyline
 90
       41
 70
   128
 43
0.0
 10
268.3116987562
 20
39.8520138866
 10
267.7586194103
 20
39.4824632804
 10
267.2191586825
 20
39.0214824164
 10
266.7065999095
 20
38.480422143
 10
266.2335640967
 20
37.8726053464
 10
265.8116988385
 20
37.2129983166
 10
265.4513916868
 20
36.5178429961
 10
265.1615148823
 20
35.8042563818
 10
264.9492060599
 20
35.0898091547
 10
264.8196930749
 20
34.3920935627
 10
264.7761649293
 20
33.7282896844
 10
264.8196930749
 20
33.1147423333
 10
264.9492060599
 20
32.5665592509
 10
265.1615148823
 20
32.0972385725
 10
265.4513916868
 20
31.7183365927
 10
265.8116988385
 20
31.4391830547
 10
266.2335640967
 20
31.2666512844
 10
266.7065999095
 20
31.204990012
 10
267.2191586825
 20
31.2557175014
 10
267.7586194103
 20
31.417584736
 10
268.3116987562
 20
31.6866059502
 10
268.8647781021
 20
32.0561565564
 10
269.4042388299
 20
32.5171374204
 10
269.9167976029
 20
33.0581976937
 10
270.3898334157
 20
33.6660144904
 10
270.8116986739
 20
34.3256215201
 10
271.1720058257
 20
35.0207768407
 10
271.4618826301
 20
35.734363455
 10
271.6741914526
 20
36.4488106821
 10
271.8037044375
 20
37.146526274
 10
271.8472325831
 20
37.8103301523
 10
271.8037044375
 20
38.4238775034
 10
271.6741914526
 20
38.9720605858
 10
271.4618826301
 20
39.4413812642
 10
271.1720058257
 20
39.8202832441
 10
270.8116986739
 20
40.0994367821
 10
270.3898334157
 20
40.2719685524
 10
269.9167976029
 20
40.3336298248
 10
269.4042388299
 20
40.2829023354
 10
268.8647781021
 20
40.1210351008
 10
268.3116987562
 20
39.8520138866
  0
LWPOLYLINE
  5
2C2
330
1F
100
AcDbEntity
  8
0
  6
Continuous
 62
     7
370
     0
100
AcDbPolyline
 90
       21
 70
   128
 43
0.0
 10
265.7083274364
 20
32.0761924041
 10
266.0037317341
 20
31.945509366
 10
266.4436893502
 20
31.8675678808
 10
266.9249572986
 20
31.9016232088
 10
267.4344078651
 20
32.0467465594
 10
267.9581446491
 20
32.2989788647
 10
268.4818814332
 20
32.651440179
 10
268.9913319996
 20
33.0945159322
 10
269.472599948
 20
33.6161207499
 10
269.9125575641
 20
34.2020264863
 10
270.299203862
 20
34.8362508584
 10
270.6219920868
 20
35.5014940399
 10
270.8721174984
 20
36.179609931
 10
271.0427572464
 20
36.8521011973
 10
271.1292570675
 20
37.5006242707
 10
271.1292570675
 20
38.1074889147
 10
271.0427572464
 20
38.6561414205
 10
270.8721174984
 20
39.1316162273
 10
270.6219920868
 20
39.5209434653
 10
270.299203862
 20
39.8135032952
 10
270.2079618619
 20
39.8706323158
  0
LWPOLYLINE
  5
2C3
330
1F
100
AcDbEntity
  8
0
  6
Continuous
 62
     7
370
     0
100
AcDbPolyline
 90
       23
 70
   128
 43
0.0
 10
231.6799333018
 20
48.5241864199
 10
232.0068927475
 20
49.7789830094
 10
232.4152133915
 20
51.0426518897
 10
232.9016150237
 20
52.3050385274
 10
233.4621872066
 20
53.5559971936
 10
234.0924261546
 20
54.7854757517
 10
234.7872670017
 20
55.9835928422
 10
235.5411252905
 20
57.1407200078
 10
236.3479424115
 20
58.2475588768
 10
237.2012353234
 20
59.2952132121
 10
238.0941462729
 20
60.2752647625
 10
239.0194991004
 20
61.1798369467
 10
239.9698580154
 20
62.0016599617
 10
240.937585054
 20
62.7341305696
 10
241.9149035052
 20
63.3713608793
 10
242.8939591146
 20
63.9082311697
 10
243.8668838803
 20
64.3404259583
 10
244.8258588624
 20
64.6644725405
 10
245.7631776083
 20
64.8777661986
 10
246.6713075213
 20
64.978593461
 10
247.5429501174
 20
64.9661433135
 10
248.3711007878
 20
64.8405166043
 10
249.149104611
 20
64.6027225218
  0
LWPOLYLINE
  5
2C4
330
1F
100
AcDbEntity
  8
0
  6
Continuous
 62
     7
370
     0
100
AcDbPolyline
 90
       23
 70
   128
 43
0.0
 10
231.2462507917
 20
48.5187488534
 10
231.5722138596
 20
49.7904148847
 10
231.9804811615
 20
51.0717466614
 10
232.4678047559
 20
52.3525512435
 10
233.0303091085
 20
53.6226414538
 10
233.6635187507
 20
54.8719134416
 10
234.3623977927
 20
56.0904295702
 10
235.1213854847
 20
57.2684967408
 10
235.9344456077
 20
58.3967450963
 10
236.7951099375
 20
59.4661987395
 10
237.6965325747
 20
60.468350444
 10
238.6315426283
 20
61.3952293306
 10
239.5927028256
 20
62.2394620785
 10
240.5723673005
 20
62.9943336623
 10
241.5627432076
 20
63.6538381307
 10
242.5559525436
 20
64.2127295043
 10
243.5440946677
 20
64.6665639515
 10
244.5193091927
 20
65.0117292508
 10
245.4738388347
 20
65.2454803123
 10
246.4000905755
 20
65.3659585168
 10
247.2906966192
 20
65.372204091
 10
248.1385720147
 20
65.2641688399
 10
248.936972937
 20
65.0427110084
  0
LWPOLYLINE
  5
2C5
330
1F
100
AcDbEntity
  8
0
  6
Continuous
 62
     7
370
     0
100
AcDbPolyline
 90
       19
 70
   128
 43
0.0
 10
244.7406853499
 20
40.1392123643
 10
244.7237235483
 20
40.124618962
 10
243.7689999649
 20
39.3556607899
 10
242.8012790179
 20
38.6781751657
 10
241.82823983
 20
38.0975373661
 10
240.8576036711
 20
37.618355357
 10
239.897072713
 20
37.244430635
 10
238.9542689498
 20
36.9787313321
 10
238.0366734473
 20
36.8233655099
 10
237.1515678966
 20
36.7795656708
 10
236.3059753456
 20
36.8476796378
 10
235.506606363
 20
37.0271668527
 10
234.75980372
 20
37.3166029436
 10
234.0714930003
 20
37.7136915171
 10
233.4471368305
 20
38.2152818431
 10
232.8916887823
 20
38.8173924335
 10
232.4095571527
 20
39.5152471677
 10
232.0045674268
 20
40.3033068553
 10
231.6799333018
 20
41.1753194293
  0
ARC
  5
2C6
330
1F
100
AcDbEntity
  8
0
  6
Continuous
 62
     7
370
     0
100
AcDbCircle
 10
246.1569234633
 20
58.7201390248
 30
0.0
 40
6.701305418784214
100
AcDbArc
 50
13.117112618
 51
49.5620710787
  0
LWPOLYLINE
  5
2C7
330
1F
100
AcDbEntity
  8
0
  6
Continuous
 62
     7
370
     0
100
AcDbPolyline
 90
       27
 70
   128
 43
0.0
 10
235.4135553411
 20
47.0051270494
 10
235.4573419654
 20
47.9146515778
 10
235.5881302218
 20
48.8628736026
 10
235.8042164556
 20
49.8374323395
 10
236.1027827548
 20
50.825622239
 10
236.4799371214
 20
51.8145612348
 10
236.9307622036
 20
52.7913567104
 10
237.4493814794
 20
53.7432746956
 10
238.0290336725
 20
54.6579054508
 10
238.6621623137
 20
55.5233254368
 10
239.3405132063
 20
56.3282520599
 10
240.0552434146
 20
57.0621929027
 10
240.7970351924
 20
57.7155795547
 10
241.556218184
 20
58.2798932911
 10
242.3228952268
 20
58.747778002
 10
243.0870715293
 20
59.1131345362
 10
243.8387849386
 20
59.371199707
 10
244.5682355923
 20
59.5186089695
 10
245.265913943
 20
59.553440671
 10
245.9227251619
 20
59.4752407178
 10
246.5301060299
 20
59.2850288387
 10
247.0801388666
 20
58.9852841252
 10
247.5656527808
 20
58.5799148888
 10
247.9803191596
 20
58.0742054194
 10
248.3187306943
 20
57.4747481069
 10
248.5764771122
 20
56.7893582619
 10
248.6926904615
 20
56.3324766516
  0
LWPOLYLINE
  5
2C8
330
1F
100
AcDbEntity
  8
0
  6
Continuous
 62
     7
370
     0
100
AcDbPolyline
 90
       13
 70
   128
 43
0.0
 10
240.6933404449
 20
42.475694502
 10
240.0552434146
 20
42.3072401726
 10
239.3405132063
 20
42.2159710819
 10
238.6621623137
 20
42.2376904354
 10
238.0290336725
 20
42.3721156519
 10
237.4493814794
 20
42.6174942305
 10
236.9307622036
 20
42.9706271453
 10
236.4799371214
 20
43.4269110604
 10
236.1027827548
 20
43.9803968934
 10
235.8042164556
 20
44.6238694813
 10
235.5881302218
 20
45.3489403632
 10
235.4573419654
 20
46.1461574814
 10
235.4135553411
 20
47.0051270494
  0
LWPOLYLINE
  5
2C9
330
1F
100
AcDbEntity
  8
0
  6
Continuous
 62
     7
370
     0
100
AcDbPolyline
 90
       28
 70
   128
 43
0.0
 10
221.9254932095
 20
49.6890684228
 10
221.9690743679
 20
50.8508411731
 10
222.0994754001
 20
52.053838455
 10
222.3156768792
 20
53.2886456435
 10
222.6159856872
 20
54.5455987448
 10
222.9980527958
 20
55.8148602513
 10
223.4588864374
 20
57.0864961367
 10
223.9948810808
 20
58.3505541811
 10
224.6018417975
 20
59.5971422968
 10
225.2750178474
 20
60.81650343
 10
226.0091408744
 20
61.999094266
 10
226.7984657362
 20
63.1356605103
 10
227.6368142975
 20
64.217305517
 10
228.5176258088
 20
65.2355649991
 10
229.4340062967
 20
66.1824697624
 10
230.3787843763
 20
67.0506083429
 10
231.3445654158
 20
67.8331864135
 10
232.3237909708
 20
68.5240793448
 10
233.3087973735
 20
69.1178812382
 10
234.291875599
 20
69.609942527
 10
235.2653316455
 20
69.9964131986
 10
236.2215471615
 20
70.2742686682
 10
237.1530379532
 20
70.4413351896
 10
238.0525142621
 20
70.4963033592
 10
238.9129365768
 20
70.4387451267
 10
239.7275706212
 20
70.2691090367
 10
240.4900406965
 20
69.9887236457
 10
240.9367854369
 20
69.758551967
  0
LWPOLYLINE
  5
2CA
330
1F
100
AcDbEntity
  8
0
  6
Continuous
 62
     7
370
     0
100
AcDbPolyline
 90
       10
 70
   128
 43
0.0
 10
225.1880649476
 20
42.4780128466
 10
224.6018417975
 20
42.8710408551
 10
223.9948810808
 20
43.4168470438
 10
223.4588864374
 20
44.0620588455
 10
222.9980527958
 20
44.8016275336
 10
222.6159856872
 20
45.6297637461
 10
222.3156768792
 20
46.5399876781
 10
222.0994754001
 20
47.5251739521
 10
221.9690743679
 20
48.577613407
 10
221.9254932095
 20
49.6890684228
  0
LWPOLYLINE
  5
2CB
330
1F
100
AcDbEntity
  8
0
  6
Continuous
 62
     7
370
     0
100
AcDbPolyline
 90
       17
 70
   128
 43
0.0
 10
229.5940666712
 20
50.4509685046
 10
229.8933968821
 20
51.6380648161
 10
230.2751742311
 20
52.8351458738
 10
230.7359156765
 20
54.0312883352
 10
231.271415753
 20
55.2155753897
 10
231.8767874018
 20
56.3771997972
 10
232.5465067515
 20
57.5055608432
 10
233.2744618506
 20
58.5903605324
 10
234.0540093022
 20
59.6217005428
 10
234.8780348497
 20
60.590166631
 10
235.7390189029
 20
61.4869234942
 10
236.6291042026
 20
62.3037857719
 10
237.5401676021
 20
63.0332982678
 10
238.4638952242
 20
63.6688051928
 10
239.3918570405
 20
64.2045061466
 10
240.3155846625
 20
64.6355124327
 10
240.7401297029
 20
64.7987089027
  0
LWPOLYLINE
  5
2CC
330
1F
100
AcDbEntity
  8
0
  6
Continuous
 62
     7
370
     0
100
AcDbPolyline
 90
       19
 70
   128
 43
0.0
 10
229.1682484996
 20
51.099113492
 10
229.5186534469
 20
52.3380077432
 10
229.9538631217
 20
53.582082295
 10
230.4698334023
 20
54.8197769699
 10
231.061769426
 20
56.0395909772
 10
231.7241710291
 20
57.2301889929
 10
232.4508834548
 20
58.3805091407
 10
233.2351529997
 20
59.4798601363
 10
234.0696925396
 20
60.518028316
 10
234.9467473837
 20
61.4853658444
 10
235.8581677144
 20
62.372885005
 10
236.7954843201
 20
63.1723376613
 10
237.749987291
 20
63.8762956687
 10
238.7128072469
 20
64.4782167773
 10
239.6749974285
 20
64.9725087527
 10
240.6276170445
 20
65.3545790122
 10
241.5618137955
 20
65.6208754207
 10
242.4689071595
 20
65.7689252446
 10
243.0595257649
 20
65.8012550878
  0
LINE
  5
2CD
330
1F
100
AcDbEntity
  8
0
  6
Continuous
 62
     7
370
     0
100
AcDbLine
 10
223.5751298946
 20
49.1515049926
 30
0.0
 11
225.3726389829
 21
50.1891849017
 31
0.0
  0
LWPOLYLINE
  5
2CE
330
1F
100
AcDbEntity
  8
0
  6
Continuous
 62
     7
370
     0
100
AcDbPolyline
 90
        3
 70
   128
 43
0.0
 10
231.9826675292
 20
39.4608804011
 10
231.5733123118
 20
40.2720140831
 10
231.2462507917
 20
41.1698818627
  0
LWPOLYLINE
  5
2CF
330
1F
100
AcDbEntity
  8
0
  6
Continuous
 62
     7
370
     0
100
AcDbPolyline
 90
       20
 70
   128
 43
0.0
 10
214.7059341206
 20
61.9368772706
 10
215.0865445288
 20
63.0303172317
 10
215.544508892
 20
64.1174244041
 10
216.0747623444
 20
65.1861763448
 10
216.6714408764
 20
66.2247535391
 10
217.3279452135
 20
67.2216701945
 10
218.0370149025
 20
68.165901041
 10
218.7908086539
 20
69.047002997
 10
219.5809899529
 20
69.8552334141
 10
220.3988197491
 20
70.5816514945
 10
221.2352535923
 20
71.2182260779
 10
222.081041237
 20
71.7579151953
 10
222.9268288818
 20
72.1947517066
 10
223.763262725
 20
72.5239030825
 10
224.5810925212
 20
72.741731186
 10
225.3712738202
 20
72.8458246773
 10
226.1250675716
 20
72.8350344616
 10
226.8341372606
 20
72.7094780521
 10
227.4906415977
 20
72.4705451701
 10
227.5127084363
 20
72.4600952899
  0
ARC
  5
2D0
330
1F
100
AcDbEntity
  8
0
  6
Continuous
 62
     7
370
     0
100
AcDbCircle
 10
218.5824872569
 20
56.2502273156
 30
0.0
 40
4.268535355723372
100
AcDbArc
 50
204.74641238
 51
235.8842981422
  0
LINE
  5
2D1
330
1F
100
AcDbEntity
  8
0
  6
Continuous
 62
     7
370
     0
100
AcDbLine
 10
223.5751298946
 20
48.334964142
 30
0.0
 11
225.3726389829
 21
49.372644051
 31
0.0
  0
LINE
  5
2D2
330
1F
100
AcDbEntity
  8
0
  6
Continuous
 62
     7
370
     0
100
AcDbLine
 10
226.8621886225
 20
43.7007470821
 30
0.0
 11
228.201066242
 21
44.4736646798
 31
0.0
  0
LINE
  5
2D3
330
1F
100
AcDbEntity
  8
0
  6
Continuous
 62
     7
370
     0
100
AcDbLine
 10
230.5841534361
 20
43.1745166138
 30
0.0
 11
230.3789549187
 21
43.7837974437
 31
0.0
  0
LWPOLYLINE
  5
2D4
330
1F
100
AcDbEntity
  8
0
  6
Continuous
 62
     7
370
     0
100
AcDbPolyline
 90
        3
 70
   128
 43
0.0
 10
230.2181475695
 20
42.7373755227
 10
229.8933968821
 20
43.3954067779
 10
229.5940666712
 20
44.2369037843
  0
ARC
  5
2D5
330
1F
100
AcDbEntity
  8
0
  6
Continuous
 62
     7
370
     0
100
AcDbCircle
 10
235.3223362348
 20
45.8340327152
 30
0.0
 40
6.497304120706726
100
AcDbArc
 50
198.7062014924
 51
214.0955692034
  0
LINE
  5
2D6
330
1F
100
AcDbEntity
  8
0
  6
Continuous
 62
     7
370
     0
100
AcDbLine
 10
245.9156148568
 20
66.7865981152
 30
0.0
 11
245.3746258119
 21
66.4742917872
 31
0.0
  0
ARC
  5
2D7
330
1F
100
AcDbEntity
  8
0
  6
Continuous
 62
     7
370
     0
100
AcDbCircle
 10
218.4683731936
 20
60.440786302
 30
0.0
 40
1.102097410650042
100
AcDbArc
 50
159.4112025223
 51
213.191486534
  0
ARC
  5
2D8
330
1F
100
AcDbEntity
  8
0
  6
Continuous
 62
     7
370
     0
100
AcDbCircle
 10
217.1365485364
 20
60.2692885169
 30
0.0
 40
0.6345234148785764
100
AcDbArc
 50
41.9991509505
 51
61.7717641965
  0
LINE
  5
2D9
330
1F
100
AcDbEntity
  8
0
  6
Continuous
 62
     7
370
     0
100
AcDbLine
 10
217.4366686068
 20
60.8283483593
 30
0.0
 11
217.5462155101
 21
61.2391462177
 31
0.0
  0
LINE
  5
2DA
330
1F
100
AcDbEntity
  8
0
  6
Continuous
 62
     7
370
     0
100
AcDbLine
 10
217.4366686068
 20
60.8283483593
 30
0.0
 11
216.6346239578
 21
61.2913588797
 31
0.0
  0
LINE
  5
2DB
330
1F
100
AcDbEntity
  8
0
  6
Continuous
 62
     7
370
     0
100
AcDbLine
 10
214.7603924587
 20
62.4528191951
 30
0.0
 11
214.7441560438
 21
62.6479578237
 31
0.0
  0
ARC
  5
2DC
330
1F
100
AcDbEntity
  8
0
  6
Continuous
 62
     7
370
     0
100
AcDbCircle
 10
217.2267049557
 20
52.1757265507
 30
0.0
 40
0.4314949854783575
100
AcDbArc
 50
27.885175929
 51
60.8829215863
  0
ARC
  5
2DD
330
1F
100
AcDbEntity
  8
0
  6
Continuous
 62
     7
370
     0
100
AcDbCircle
 10
218.6764036459
 20
52.9477872833
 30
0.0
 40
1.301169858630622
100
AcDbArc
 50
165.9701496118
 51
197.6767200265
  0
LINE
  5
2DE
330
1F
100
AcDbEntity
  8
0
  6
Continuous
 62
     7
370
     0
100
AcDbLine
 10
217.0448971863
 20
55.4615579586
 30
0.0
 11
215.7241664192
 21
56.2239996014
 31
0.0
  0
LINE
  5
2DF
330
1F
100
AcDbEntity
  8
0
  6
Continuous
 62
     7
370
     0
100
AcDbLine
 10
217.4366686068
 20
52.5526923153
 30
0.0
 11
216.6346239578
 21
53.0157028357
 31
0.0
  0
LINE
  5
2E0
330
1F
100
AcDbEntity
  8
0
  6
Continuous
 62
     7
370
     0
100
AcDbLine
 10
217.4366686068
 20
52.5526923153
 30
0.0
 11
217.5462155101
 21
52.2683746192
 31
0.0
  0
ARC
  5
2E1
330
1F
100
AcDbEntity
  8
0
  6
Continuous
 62
     7
370
     0
100
AcDbCircle
 10
266.6297809268
 20
38.8026946095
 30
0.0
 40
0.6788812303767446
100
AcDbArc
 50
290.2073544764
 51
10.4821342803
  0
ARC
  5
2E2
330
1F
100
AcDbEntity
  8
0
  6
Continuous
 62
     7
370
     0
100
AcDbCircle
 10
266.5967427192
 20
38.8162495156
 30
0.0
 40
0.7080789640923832
100
AcDbArc
 50
295.2042743119
 51
8.2503331143
  0
ARC
  5
2E3
330
1F
100
AcDbEntity
  8
0
  6
Continuous
 62
     7
370
     0
100
AcDbCircle
 10
266.5630773074
 20
38.7713381757
 30
0.0
 40
0.5412006704054231
100
AcDbArc
 50
279.6963775966
 51
355.6112296226
  0
OLE2FRAME
  5
2E4
330
1F
100
AcDbEntity
  8
0
100
AcDbOle2Frame
 70
     2
  3
Paintbrush-Bild
 10
13.8511154363
 20
38.264191557
 30
0.0
 11
51.6290888628
 21
31.9806341108
 31
0.0
 71
     2
 72
     0
 73
     1
 90
    12928
310
80552BED0767C5B32B40DDAF6807D121434000000000000000006FFBDDFB85D0
310
4940DDAF6807D121434000000000000000006FFBDDFB85D04940416F4BD60AFB
310
3F4000000000000000002BED0767C5B32B40416F4BD60AFB3F40000000000000
310
0000000000000100000000010000010000000100000000000100000000320000
310
D0CF11E0A1B11AE1000000000000000000000000000000003E000300FEFF0900
310
0600000000000000000000000100000001000000000000000010000002000000
310
01000000FEFFFFFF0000000000000000FFFFFFFFFFFFFFFFFFFFFFFFFFFFFFFF
310
FFFFFFFFFFFFFFFFFFFFFFFFFFFFFFFFFFFFFFFFFFFFFFFFFFFFFFFFFFFFFFFF
310
FFFFFFFFFFFFFFFFFFFFFFFFFFFFFFFFFFFFFFFFFFFFFFFFFFFFFFFFFFFFFFFF
310
FFFFFFFFFFFFFFFFFFFFFFFFFFFFFFFFFFFFFFFFFFFFFFFFFFFFFFFFFFFFFFFF
310
FFFFFFFFFFFFFFFFFFFFFFFFFFFFFFFFFFFFFFFFFFFFFFFFFFFFFFFFFFFFFFFF
310
FFFFFFFFFFFFFFFFFFFFFFFFFFFFFFFFFFFFFFFFFFFFFFFFFFFFFFFFFFFFFFFF
310
FFFFFFFFFFFFFFFFFFFFFFFFFFFFFFFFFFFFFFFFFFFFFFFFFFFFFFFFFFFFFFFF
310
FFFFFFFFFFFFFFFFFFFFFFFFFFFFFFFFFFFFFFFFFFFFFFFFFFFFFFFFFFFFFFFF
310
FFFFFFFFFFFFFFFFFFFFFFFFFFFFFFFFFFFFFFFFFFFFFFFFFFFFFFFFFFFFFFFF
310
FFFFFFFFFFFFFFFFFFFFFFFFFFFFFFFFFFFFFFFFFFFFFFFFFFFFFFFFFFFFFFFF
310
FFFFFFFFFFFFFFFFFFFFFFFFFFFFFFFFFFFFFFFFFFFFFFFFFFFFFFFFFFFFFFFF
310
FFFFFFFFFFFFFFFFFFFFFFFFFFFFFFFFFFFFFFFFFFFFFFFFFFFFFFFFFFFFFFFF
310
FFFFFFFFFFFFFFFFFFFFFFFFFFFFFFFFFFFFFFFFFFFFFFFFFFFFFFFFFFFFFFFF
310
FFFFFFFFFFFFFFFFFFFFFFFFFFFFFFFFFFFFFFFFFFFFFFFFFFFFFFFFFFFFFFFF
310
FDFFFFFFFEFFFFFFFEFFFFFFFEFFFFFF05000000060000000700000008000000
310
090000000A0000000B0000000C0000000D0000000E0000000F00000010000000
310
11000000120000001300000014000000150000001600000017000000FEFFFFFF
310
FFFFFFFFFFFFFFFFFFFFFFFFFFFFFFFFFFFFFFFFFFFFFFFFFFFFFFFFFFFFFFFF
310
FFFFFFFFFFFFFFFFFFFFFFFFFFFFFFFFFFFFFFFFFFFFFFFFFFFFFFFFFFFFFFFF
310
FFFFFFFFFFFFFFFFFFFFFFFFFFFFFFFFFFFFFFFFFFFFFFFFFFFFFFFFFFFFFFFF
310
FFFFFFFFFFFFFFFFFFFFFFFFFFFFFFFFFFFFFFFFFFFFFFFFFFFFFFFFFFFFFFFF
310
FFFFFFFFFFFFFFFFFFFFFFFFFFFFFFFFFFFFFFFFFFFFFFFFFFFFFFFFFFFFFFFF
310
FFFFFFFFFFFFFFFFFFFFFFFFFFFFFFFFFFFFFFFFFFFFFFFFFFFFFFFFFFFFFFFF
310
FFFFFFFFFFFFFFFFFFFFFFFFFFFFFFFFFFFFFFFFFFFFFFFFFFFFFFFFFFFFFFFF
310
FFFFFFFFFFFFFFFFFFFFFFFFFFFFFFFFFFFFFFFFFFFFFFFFFFFFFFFFFFFFFFFF
310
FFFFFFFFFFFFFFFFFFFFFFFFFFFFFFFFFFFFFFFFFFFFFFFFFFFFFFFFFFFFFFFF
310
FFFFFFFFFFFFFFFFFFFFFFFFFFFFFFFFFFFFFFFFFFFFFFFFFFFFFFFFFFFFFFFF
310
FFFFFFFFFFFFFFFFFFFFFFFFFFFFFFFFFFFFFFFFFFFFFFFFFFFFFFFFFFFFFFFF
310
FFFFFFFFFFFFFFFFFFFFFFFFFFFFFFFFFFFFFFFFFFFFFFFFFFFFFFFFFFFFFFFF
310
FFFFFFFFFFFFFFFFFFFFFFFFFFFFFFFFFFFFFFFFFFFFFFFFFFFFFFFFFFFFFFFF
310
52006F006F007400200045006E00740072007900000000000000000000000000
310
0000000000000000000000000000000000000000000000000000000000000000
310
16000500FFFFFFFFFFFFFFFF020000000A00030000000000C000000000000046
310
000000000000000000000000E0BABC722325D20103000000C000000000000000
310
01004F006C006500000000000000000000000000000000000000000000000000
310
0000000000000000000000000000000000000000000000000000000000000000
310
0A000200FFFFFFFFFFFFFFFFFFFFFFFF00000000000000000000000000000000
310
0000000000000000000000000000000000000000000000001400000000000000
310
010043006F006D0070004F0062006A0000000000000000000000000000000000
310
0000000000000000000000000000000000000000000000000000000000000000
310
120002010100000003000000FFFFFFFF00000000000000000000000000000000
310
0000000000000000000000000000000000000000010000004D00000000000000
310
01004F006C006500310030004E00610074006900760065000000000000000000
310
0000000000000000000000000000000000000000000000000000000000000000
310
1A000200FFFFFFFFFFFFFFFFFFFFFFFF00000000000000000000000000000000
310
0000000000000000000000000000000000000000040000002426000000000000
310
FEFFFFFF02000000FEFFFFFFFFFFFFFFFFFFFFFFFFFFFFFFFFFFFFFFFFFFFFFF
310
FFFFFFFFFFFFFFFFFFFFFFFFFFFFFFFFFFFFFFFFFFFFFFFFFFFFFFFFFFFFFFFF
310
FFFFFFFFFFFFFFFFFFFFFFFFFFFFFFFFFFFFFFFFFFFFFFFFFFFFFFFFFFFFFFFF
310
FFFFFFFFFFFFFFFFFFFFFFFFFFFFFFFFFFFFFFFFFFFFFFFFFFFFFFFFFFFFFFFF
310
FFFFFFFFFFFFFFFFFFFFFFFFFFFFFFFFFFFFFFFFFFFFFFFFFFFFFFFFFFFFFFFF
310
FFFFFFFFFFFFFFFFFFFFFFFFFFFFFFFFFFFFFFFFFFFFFFFFFFFFFFFFFFFFFFFF
310
FFFFFFFFFFFFFFFFFFFFFFFFFFFFFFFFFFFFFFFFFFFFFFFFFFFFFFFFFFFFFFFF
310
FFFFFFFFFFFFFFFFFFFFFFFFFFFFFFFFFFFFFFFFFFFFFFFFFFFFFFFFFFFFFFFF
310
FFFFFFFFFFFFFFFFFFFFFFFFFFFFFFFFFFFFFFFFFFFFFFFFFFFFFFFFFFFFFFFF
310
FFFFFFFFFFFFFFFFFFFFFFFFFFFFFFFFFFFFFFFFFFFFFFFFFFFFFFFFFFFFFFFF
310
FFFFFFFFFFFFFFFFFFFFFFFFFFFFFFFFFFFFFFFFFFFFFFFFFFFFFFFFFFFFFFFF
310
FFFFFFFFFFFFFFFFFFFFFFFFFFFFFFFFFFFFFFFFFFFFFFFFFFFFFFFFFFFFFFFF
310
FFFFFFFFFFFFFFFFFFFFFFFFFFFFFFFFFFFFFFFFFFFFFFFFFFFFFFFFFFFFFFFF
310
FFFFFFFFFFFFFFFFFFFFFFFFFFFFFFFFFFFFFFFFFFFFFFFFFFFFFFFFFFFFFFFF
310
FFFFFFFFFFFFFFFFFFFFFFFFFFFFFFFFFFFFFFFFFFFFFFFFFFFFFFFFFFFFFFFF
310
FFFFFFFFFFFFFFFFFFFFFFFFFFFFFFFFFFFFFFFFFFFFFFFFFFFFFFFFFFFFFFFF
310
0100000200000000000000000000000000000000000000000000000000000000
310
0000000000000000000000000000000000000000000000000000000000000000
310
0100FEFF030A0000FFFFFFFF0A00030000000000C00000000000004607000000
310
5042727573680007000000504272757368000700000050427275736800F439B2
310
7100000000000000000000000000000000000000000000000000000000000000
310
0000000000000000000000000000000000000000000000000000000000000000
310
0000000000000000000000000000000000000000000000000000000000000000
310
0000000000000000000000000000000000000000000000000000000000000000
310
0000000000000000000000000000000000000000000000000000000000000000
310
0000000000000000000000000000000000000000000000000000000000000000
310
0000000000000000000000000000000000000000000000000000000000000000
310
0000000000000000000000000000000000000000000000000000000000000000
310
0000000000000000000000000000000000000000000000000000000000000000
310
0000000000000000000000000000000000000000000000000000000000000000
310
0000000000000000000000000000000000000000000000000000000000000000
310
0000000000000000000000000000000000000000000000000000000000000000
310
20260000424D0E260000000000003E00000028000000B40200006E0000000100
310
01000000000000000000130B0000130B00000200000002000000000000FFFFFF
310
FFFFFFFFFFFFFFFFFFFFFFFFFFFFFFFFFFFFFFFFFFFFFFFFFFFFFFFFFFFFFFFF
310
FFFFFFFFFFFFFFFFFFFFFFFFFFFFFFFFFFFFFFFFFFFFFFFFFFFFFFFFFFFFFFFF
310
FFFFFFFFFFFFFFFFFFFFFFFFFFFFFFFFFFFFFFFFFFFFFFFFF000FFFFFFFFFFFF
310
FFFFFFFFFFFFFFFFFFFFFFFFFFFFFFFFFFFFFFFFFFFFFFFFFFFFFFFFFFFFFFFF
310
FFFFFFFFFFFFFFFFFFFFFFFFFFFFFFFFFFFFFFFFFFFFFFFFFFFFFFFFFFFFFFFF
310
FFFFFFFFFFFFFFFFFFFFFFFFFFFFFFFFF000FFFFFFFFFFFFFFFFFFFFFFFFFFFF
310
FFFFFFFFFFFFFFFFFFFFFFFFFFFFFFFFFFFFFFFFFFFFFFFFFFFFFFFFFFFFFFFF
310
FFFFFFFFFFFFFFFFFFFFFFFFFFFFFFFFFFFFFFFFFFFFFFFFFFFFFFFFFFFFFFFF
310
FFFFFFFFFFFFFFFFF000FFFFFFFFFFFFFFFFFFFFFFFFFFFFFFFFFFFFFFFFFFFF
310
FFFFFFFFFFFFFFFFFFFFFFFFFFFFFFFFFFFFFFFFFFFFFFFFFFFFFFFFFFFFFFFF
310
FFFFFFFFFFFFFFFFFFFFFFFFFFFFFFFFFFFFFFFFFFFFFFFFFFFFFFFFFFFFFFFF
310
F000FFFFFFFFFFFFFFFFFFFFFFFFFFFFFFFFFFFFFFFFFFFFFFFFFFFFFFFFFFFF
310
FFFFFFFFFFFFFFFFFFFFFFFFFFFFFFFFFFFFFFFFFFFFFFFFFFFFFFFFFFFFFFFF
310
FFFFFFFFFFFFFFFFFFFFFFFFFFFFFFFFFFFFFFFFFFFFFFFFF000FFFFFFFFFFFF
310
FFFFFFFFFFFFFFFFFFFFFFFFFFFFFFFFFFFFFFFFFFFFFFFFFFFFFFFFFFFFFFFF
310
FFFFFFFFFFFFFFFFFFFFFFFFFFFFFFFFFFFFFFFFFFFFFFFFFFFFFFFFFFFFFFFF
310
FFFFFFFFFFFFFFFFFFFFFFFFFFFFFFFFF000FFFFFFFFFFFFFFFFFFFFFFFFFFFF
310
FFFFFFFFFFFFFFFFFFFFFFFFFFFFFFFFFFFFFFFFFFFFFFFFFFFFFFFFFFFFFFFF
310
FFFFFFFFFFFFFFFFFFFFFFFFFFFFFFFFFFFFFFFFFFFFFFFFFFFFFFFFFFFFFFFF
310
FFFFFFFFFFFFFFFFF000FFFFFFFFFFFFFFFFFFFFFFFFFFFFFFFFFFFFFFFFFFFF
310
FFFFFFFFFFFFFFFFFFFFFFFFFFFFFFFFFFFFFFFFFFFFFFFFFFFFFFFFFFFFFFFF
310
FFFFFFFFFFFFFFFFFFFFFFFFFFFFFFFFFFFFFFFFFFFFFFFFFFFFFFFFFFFFFFFF
310
F000FFFFFFFFFFFFFFFFFFFFFFFFFFFFFFFFFFFFFFFFFFFFFFFFFFFFFFFFFFFF
310
FFFFFFFFFFFFFFFFFFFFFFFFFFFFFFFFFFFFFFFFFFFFFFFFFFFFFFFFFFFFFFFF
310
FFFFFFFFFFFFFFFFFFFFFFFFFFFFFFFFFFFFFFFFFFFFFFFFF000FFFFFFFFFFFF
310
FFFFFFFFFFFFFFFFFFFFFFFFFFFFFFFFFFFFFFFFFFFFFFFFFFFFFFFFFFFFFFFF
310
FFFFFFFFFFFFFFFFFFFFFFFFFFFFFFFFFFFFFFFFFFFFFFFFFFFFFFFFFFFFFFFF
310
FFFFFFFFFFFFFFFFFFFFFFFFFFFFFFFFF000FFFFFFFFFFFFFFFFFFFFFFFFFFFF
310
FFFFFFFFFFFFFFFFFFFFFFFFFFFFFFFFFFFFFFFFFFFFFFFFFFFFFFFFFFFFFFFF
310
FFFFFFFFFFFFFFFFFFFFFFFFFFFFFFFFFFFFFFFFFFFFFFFFFFFFFFFFFFFFFFFF
310
FFFFFFFFFFFFFFFFF000FFFFFFFFFFFFFFFFFFFFFFFFFFFFFFFFFFFFFFFFFFFF
310
FFFFFFFFFFFFFFFFFFFFFFFFFFFFFFFFFFFFFFFFFFFFFFFFFFFFFFFFFFFFFFFF
310
FFFFFFFFFFFFFFFFFFFFFFFFFFFFFFFFFFFFFFFFFFFFFFFFFFFFFFFFFFFFFFFF
310
F000FFFFFFFFFFFFFFFFFFFFFFFFFFFFFFFFFFFFFFFFFFFFFFFFFFFFFFFFFFFF
310
FFFFFFFFFFFFFFFFFFFFFFFFFFFFFFFFFFFFFFFFFFFFFFFFFFFFFFFFFFFFFFFF
310
FFFFFFFFFFFFFFFFFFFFFFFFFFFFFFFFFFFFFFFFFFFFFFFFF000FFFFFFFFFFFF
310
FFFFFFFFFFFFFFFFFFFFFFFFFFFFFFFFFFFFFFFFFFFFFFFFFFFFFFFFFFFFFFFF
310
FFFFFFFFFFFFFFFFFFFFFFFFFFFFFFFFFFFFFFFFFFFFFFFFFFFFFFFFFFFFFFFF
310
FFFFFFFFFFFFFFFFFFFFFFFFFFFFFFFFF000FFFFFFFFFFFFFFFFFFFFFFFFFFFF
310
FFFFFFFFFFFFFFFFFFFFFFFFFFFFFFFFFFFFFFFFFFFFFFFFFFFFFFFFFFFFFFFF
310
FFFFFFFFFFFFFFFFFFFFFFFFFFFFFFFFFFFFFFFFFFFFFFFFFFFFFFFFFFFFFFFF
310
FFFFFFFFFFFFFFFFF000FFFFFFFFFFFFFFFFFFFFFFFFFFFFFFFFFFFFFFFFFFFF
310
FFFFFFFFFFFFFFFFFFFFFFFFFFFFFFFFFFFFFFFFFFFFFFFFFFFFFFFFFFFFFFFF
310
FFFFFFFFFFFFFFFFFFFFFFFFFFFFFFFFFFFFFFFFFFFFFFFFFFFFFFFFFFFFFFFF
310
F000FFFFFFFFFFFFFFFFFFFFFFFFFFFFFFFFFFFFFFFFFFFFFFFFFFFFFFFFFFFF
310
FFFFFFFFFFFFFFFFFFFFFFFFFFFFFFFFFFFFFFFFFFFFFFFFFFFFFFFFFFFFFFFF
310
FFFFFFFFFFFFFFFFFFFFFFFFFFFFFFFFFFFFFFFFFFFFFFFFF000FFFFFFFFFFFF
310
FFFFFFFFFFFFFFFFFFFFFFFFFFFFFFFFFFFFFFFFFFFFFFFFFFFFFFFFFFFFFFFF
310
FFFFFFFFFFFFFFFFFFFFFFFFFFFFFFFFFFFFFFFFFFFFFFFFFFFFFFFFFFFFFFFF
310
FFFFFFFFFFFFFFFFFFFFFFFFFFFFFFFFF000FFFFFFFFFFFFFFFFFFFFFFFFFFFF
310
FFFFFFFFFFFFFFFFFFFFFFFFFFFFFFFFFFFFFFFFFFFFFFFFFFFFFFFFFFFFFFFF
310
FFFFFFFFFFFFFFFFFFFFFFFFFFFFFFFFFFFFFFFFFFFFFFFFFFFFFFFFFFFFFFFF
310
FFFFFFFFFFFFFFFFF000FFFFF80003FFFFFFFFFFFFFFFFFFFFFFFFFFFFFFFFFF
310
FFFFF00007FFFFFFFFFF00007FFFFFF800000000000000007FFFFFFFFFFFFFFF
310
FFFFFFFC001FFFFFFFFFFFFFFC001FFFFFFFFFFFFFFFFFFFFFFFFFFE0007FFFF
310
F000FFFF8000007FFFFFFFF8000FFFFFC0007FFFFF80007FFFFF0000007FFFFF
310
FFF8000007FFFFF800000000000000007FFFFFF0001FFFFFFFFFFFC00001FFFF
310
FFFFFFFFC00001FFFFFFFF000000000003FFFFE000007FFFF000FFFE0000000F
310
FFFFFFF0000FFFFF80007FFFFF80007FFFFC0000001FFFFFFFC0000001FFFFF8
310
00000000000000007FFFFFF0001FFFFFFFFFFE0000003FFFFFFFFFFE0000003F
310
FFFFFF000000000003FFFF0000000FFFF000FFF800000003FFFFFFF00007FFFF
310
80007FFFFF80007FFFF000000007FFFFFF000000003FFFF80000000000000000
310
7FFFFFF0001FFFFFFFFFF80000000FFFFFFFFFF80000000FFFFFFF0000000000
310
03FFFC00000003FFF000FFE000000000FFFFFFF00007FFFF80003FFFFF80007F
310
FFC000000001FFFFFC000000001FFFF800000000000000007FFFFFF0001FFFFF
310
FFFFE000000003FFFFFFFFE000000003FFFFFF000000000003FFF000000000FF
310
F000FF80000000007FFFFFF00007FFFF80003FFFFF80007FFF8000000000FFFF
310
F80000000007FFF800000000000000007FFFFFF0001FFFFFFFFFC000000001FF
310
FFFFFFC000000001FFFFFF000000000003FFC0000000007FF000FF0000000000
310
3FFFFFE00007FFFF00003FFFFF80007FFE00000000003FFFF00000000003FFF8
310
00000000000000007FFFFFF0001FFFFFFFFF8000000000FFFFFFFF8000000000
310
FFFFFF000000000003FF80000000003FF000FE00000000001FFFFFE00003FFFF
310
00003FFFFF80007FFC00000000001FFFE00000000001FFF8000001FFFE000000
310
7FFFFFF0001FFFFFFFFE00000000003FFFFFFE00000000003FFFFF0000000000
310
03FF00000000001FF000FC00000000000FFFFFE00003FFFF00001FFFFF80007F
310
F800000000001FFFC00000000000FFF8000001FFFE0000007FFFFFF0001FFFFF
310
FFFC00000000001FFFFFFC00000000001FFFFF000000000003FE00000000000F
310
F000F8000000000007FFFFE00003FFFF00001FFFFF80007FF800000000000FFF
310
800000000000FFF8000001FFFE0000007FFFFFF0001FFFFFFFF800000000000F
310
FFFFF800000000000FFFFF000000000003FC000000000007F000F80000000000
310
03FFFFC00003FFFE00001FFFFF80007FF0000000000007FF0000000000007FF8
310
000001FFFE0000007FFFFFF0001FFFFFFFF0000000000007FFFFF00000000000
310
07FFFF000000000003F8000000000003F000F0000000000003FFFFC00001FFFE
310
00001FFFFF80007FE0000000000007FE0000000000003FF8000001FFFE000000
310
7FFFFFF0001FFFFFFFF0000000000007FFFFF0000000000007FFFF0000000000
310
03F800001F800003F000E00001FFF00001FFFFC00001FFFE00000FFFFF80007F
310
E00001FFE00003FE00001FFF00003FF8000001FFFE0000007FFFFFF0001FFFFF
310
FFE000003E000003FFFFE000003E000003FFFF000000000003F00001FFF80001
310
F000E00007FFFC0001FFFFC00001FFFE00000FFFFF80007FC0000FFFFC0003FC
310
0000FFFFC0001FF8000001FFFE0000007FFFFFF0001FFFFFFFC00003FFE00001
310
FFFFC00003FFE00001FFFF0001FFFFFFFFF00007FFFE0001F000E0000FFFFF00
310
00FFFF800001FFFC00000FFFFF80007FC0001FFFFE0001FC0001FFFFE0001FF8
310
000001FFFE0000007FFFFFF0001FFFFFFF80000FFFF80000FFFF80000FFFF800
310
00FFFF0003FFFFFFFFE0000FFFFF8000F000C0003FFFFF8000FFFF800000FFFC
310
000007FFFF80007F80003FFFFF0001FC0003FFFFF0001FF8000001FFFE000000
310
7FFFFFF0001FFFFFFF80003FFFFE0000FFFF80003FFFFE0000FFFF0003FFFFFF
310
FFE0003FFFFF8000F000C0003FFFFF8000FFFF800000FFFC000007FFFF80007F
310
80007FFFFF8001F80007FFFFF8000FF8000001FFFE0000007FFFFFF0001FFFFF
310
FF00007FFFFF00007FFF00007FFFFF00007FFF0003FFFFFFFFE0003FFFFFC000
310
F000C0007FFFFFC000FFFF000000FFFC000007FFFF80007F8000FFFFFF8000F8
310
000FFFFFF8000FF8000001FFFE0000007FFFFFF0001FFFFFFF0000FFFFFF8000
310
7FFF0000FFFFFF80007FFF0003FFFFFFFFC0007FFFFFC00070008000FFFFFFC0
310
00FFFF000000FFF8000007FFFF80007F8000FFFFFF8000F8000FFFFFF8000FF8
310
000001FFFE0000007FFFFFF0001FFFFFFE0001FFFFFFC0003FFE0001FFFFFFC0
310
003FFF0003FFFFFFFFC0007FFFFFE00070008000FFFFFFC0007FFF0000007FF8
310
000003FFFF80007F0001FFFFFF8000F8000FFFFFF8000FF8000001FFFE000000
310
7FFFFFF0001FFFFFFE0001FFFFFFC0003FFE0001FFFFFFC0003FFF0003FFFFFF
310
FFC000FFFFFFE00070008000FFFFFFC0007FFF0000007FF8000003FFFF80007F
310
0001FFFFFF8000F8001FFFFFF8000FF8000001FFFE0000007FFFFFF0001FFFFF
310
FE0003FFFFFFE0003FFE0003FFFFFFE0003FFF0003FFFFFFFFC000FFFFFFE000
310
70008000FFFFFFC0007FFE0000007FF8000003FFFF80007F0001FFFFFF8000F0
310
001FFFFFF8000FF8000001FFFE0000007FFFFFF0001FFFFFFC0003FFFFFFE000
310
1FFC0003FFFFFFE0001FFF0003FFFFFFFFC000FFFFFFC00070008000FFFFFF80
310
007FFE0000007FF0000003FFFF80007F0001FFFFFF0000F0001FFFFFF8000FF8
310
000001FFFE0000007FFFFFF0001FFFFFFC0007FFFFFFF0001FFC0007FFFFFFF0
310
001FFF0003FFFFFFFFC000FFFFFFC00070008001FFFFFF0000FFFE0000003FF0
310
000001FFFF80007F0001FFFFFF0000F8001FFFFFF0000FF8000001FFFE000000
310
7FFFFFF0001FFFFFFC0007FFFFFFF0001FFC0007FFFFFFF0001FFF0003FFFFFF
310
FFC001FFFFFF80007000FFFFFFFFFE0000FFFE0008003FF0008001FFFF80007F
310
FFFFFFFFFC0000FFFFFFFFFFE0000FF8000001FFFE0000007FFFFFF0001FFFFF
310
F8000FFFFFFFF8000FF8000FFFFFFFF8000FFF0003FFFFFFFFFFFFFFFFFF0000
310
7000FFFFFFFFFC0000FFFC0008003FF0008001FFFF80007FFFFFFFFFF80001FF
310
FFFFFFFF80000FF8000001FFFE0000007FFFFFF0001FFFFFF8000FFFFFFFF800
310
0FF8000FFFFFFFF8000FFF0003FFFFFFFFFFFFFFFFFE0000F000FFFFFFFFE000
310
00FFFC000C003FE000C001FFFF80007FFFFFFFFFC00001FFFFFFFFFE00001FF8
310
000001FFFE0000007FFFFFF0001FFFFFF8000FFFFFFFF8000FF8000FFFFFFFF8
310
000FFF0003FFFFFFFFFFFFFFFFF00000F000FFFFFFFE000001FFFC000C001FE0
310
00C000FFFF80007FFFFFFFFE000001FFFFFFFFE000001FF80FFFFFFFFFFFFFC0
310
7FFFFFF0001FFFFFF8000FFFFFFFF8000FF8000FFFFFFFF8000FFF0003FFFFFF
310
FFFFFFFFFF800000F000FFFFFFC0000001FFFC001C001FE001C000FFFF80007F
310
FFFFFF80000003FFFFFFF80000001FF80FFFFFFFFFFFFFC07FFFFFF0001FFFFF
310
F8001FFFFFFFFC000FF8001FFFFFFFFC000FFF0003FFFFFFFFFFFFFFF0000001
310
F000FFFFF800000001FFF8001C001FE001C000FFFF80007FFFFFF800000003FF
310
FFFF800000003FF80FFFFFFFFFFFFFC07FFFFFF0001FFFFFF8001FFFFFFFFC00
310
0FF8001FFFFFFFFC000FFF0003FFFFFFFFFFFFFE00000001F000FFFFC0000000
310
03FFF8001E001FC001E000FFFF80007FFFFF8000000007FFFFFC000000003FF8
310
0FFFFFFFFFFFFFC07FFFFFF0001FFFFFF8001FFFFFFFFC000FF8001FFFFFFFFC
310
000FFF0003FFFFFFFFFFFFE000000003F000FFFE0000000007FFF8001E000FC0
310
01E0007FFF80007FFFFE0000000007FFFFE0000000007FF80FFFFFFFFFFFFFC0
310
7FFFFFF0001FFFFFF0001FFFFFFFFC0007F0001FFFFFFFFC0007FF0003FFFFFF
310
FFFFFF0000000003F000FFF80000000007FFF8001E000FC003E0007FFF80007F
310
FFF0000000000FFFFF8000000000FFF80FFFFFFFFFFFFFC07FFFFFF0001FFFFF
310
F0001FFFFFFFFC0007F0001FFFFFFFFC0007FF0003FFFFFFFFFFFC0000000007
310
F000FFE0000000000FFFF0003E000FC003E0007FFF80007FFFC0000000001FFF
310
FE0000000001FFF80FFFFFFFFFFFFFC07FFFFFF0001FFFFFF0001FFFFFFFFC00
310
07F0001FFFFFFFFC0007FF0003FFFFFFFFFFF0000000000FF000FFC000000000
310
1FFFF0003F000F8003F0003FFF80007FFF80000000003FFFF80000000003FFF8
310
0FFFFFFFFFFFFFC07FFFFFF0001FFFFFF0001FFFFFFFFC0007F0001FFFFFFFFC
310
0007FF0003FFFFFFFFFFE0000000001FF000FF00000000007FFFF0003F000780
310
03F0003FFF80007FFF00000000007FFFF00000000007FFF80FFFFFFFFFFFFFC0
310
7FFFFFF0001FFFFFF0001FFFFFFFFC0007F0001FFFFFFFFC0007FF0003FFFFFF
310
FFFF80000000007FF000FE0000000000FFFFE0003F00078007F0003FFF80007F
310
FE0000000001FFFFE0000000001FFFF80FFFFFFFFFFFFFC07FFFFFF0001FFFFF
310
F0001FFFFFFFFC0007F0001FFFFFFFFC0007FF0003FFFFFFFFFF0000000000FF
310
F000FC0000000003FFFFE0007F00078007F0003FFF80007FFC0000000007FFFF
310
C0000000007FFFF80FFFFFFFFFFFFFC07FFFFFF0001FFFFFF8001FFFFFFFFC00
310
0FF8001FFFFFFFFC000FFF0003FFFFFFFFFE0000000003FFF000FC000000000F
310
FFFFE0007F80070007F8001FFF80007FF8000000001FFFFF8000000001FFFFF8
310
0FFFFFFFFFFFFFC07FFFFFF0001FFFFFF8001FFFFFFFFC000FF8001FFFFFFFFC
310
000FFF0003FFFFFFFFFC000000000FFFF000F8000000007FFFFFE0007F800700
310
07F8001FFF80007FF000000000FFFFFF800000000FFFFFF80FFFFFFFFFFFFFC0
310
7FFFFFF0001FFFFFF8000FFFFFFFF8000FF8000FFFFFFFF8000FFF0003FFFFFF
310
FFFC000000007FFFF000F800000007FFFFFFC0007F8003000FF8001FFF80007F
310
F000000007FFFFFF000000007FFFFFF80FFFFFFFFFFFFFC07FFFFFF0001FFFFF
310
F8000FFFFFFFF8000FF8000FFFFFFFF8000FFF0003FFFFFFFFF80000000FFFFF
310
F000F0000000FFFFFFFFC000FF8003000FF8001FFF80007FE0000000FFFFFFFF
310
0000000FFFFFFFF8000001FFFE0000007FFFFFF0001FFFFFF8000FFFFFFFF800
310
0FF8000FFFFFFFF8000FFF0003FFFFFFFFF8000000FFFFFFF000F000000FFFFF
310
FFFFC000FFC002000FF8000FFF80007FE000001FFFFFFFFE000001FFFFFFFFF8
310
000001FFFE0000007FFFFFF0001FFFFFF8000FFFFFFFF8000FF8000FFFFFFFF8
310
000FFF0003FFFFFFFFF000001FFFFFFFF000E00000FFFFFFFFFFC000FFC00200
310
0FFC000FFF80007FE00001FFFFFFFFFE00001FFFFFFFFFF8000001FFFE000000
310
7FFFFFF0001FFFFFFC000FFFFFFFF8001FFC000FFFFFFFF8001FFF0003FFFFFF
310
FFF00001FFFFFFFFF000E00007FFFFFFFFFF8000FFC000001FFC000FFF80007F
310
C0000FFFFFFFFFFE0000FFFFFFFFFFF8000001FFFE0000007FFFFFF0001FFFFF
310
FC0007FFFFFFF0001FFC0007FFFFFFF0001FFF0003FFFFFFFFF00007FFFFFFFF
310
F000E0001FFFFFFFFFFF8000FFC000001FFC000FFF80007FC0003FFFFFFFFFFE
310
0001FFFFFFFFFFF8000001FFFE0000007FFFFFF0001FFFFFFC0007FFFFFFF000
310
1FFC0007FFFFFFF0001FFF0003FFFFFFFFF0001FFFFFFFFFF000E0003FFFFF00
310
03FF8001FFE000001FFC0007FF80007FC0007FFFFF0007FC0003FFFFF0003FF8
310
000001FFFE0000007FFFFFF0001FFFFFFC0003FFFFFFE0001FFC0003FFFFFFE0
310
001FFF0003FFFFFFFFF0003FFFFFFFFFF000E0003FFFFF0001FF8001FFE00000
310
1FFE0007FF80007FC0007FFFFE0003FC0007FFFFE0003FF8000001FFFE000000
310
7FFFFFF0001FFFFFFE0003FFFFFFE0003FFE0003FFFFFFE0003FFF0003FFFFFF
310
FFF0003FFFFF8001F000E0003FFFFF0001FF0001FFE000001FFE0007FF80007F
310
C0007FFFFE0003FC0007FFFFE0003FF8000001FFFE0000007FFFFFF0001FFFFF
310
FE0001FFFFFFC0003FFE0001FFFFFFC0003FFF0003FFFFFFFFF0003FFFFF0001
310
F000E0003FFFFF0003FF0001FFE000003FFE0007FF80007FC0007FFFFE0003FC
310
0007FFFFE0003FF8000001FFFE0000007FFFFFF0001FFFFFFF0001FFFFFFC000
310
7FFF0001FFFFFFC0007FFF0003FFFFFFFFF0003FFFFF0001F000E0003FFFFE00
310
03FF0003FFF000003FFE0003FF80007FC0007FFFFC0003FE0007FFFFE0003FF8
310
000001FFFE0000007FFFFFF0001FFFFFFF0000FFFFFF80007FFF0000FFFFFF80
310
007FFF0003FFFFFFFFF0003FFFFF0001F000E0003FFFFE0003FF0003FFF00000
310
3FFF0003FF80007FC0007FFFFC0007FE0007FFFFC0003FF8000001FFFE000000
310
7FFFFFF0001FFFFFFF80007FFFFF0000FFFF80007FFFFF0000FFFF0003FFFFFF
310
FFF0003FFFFF0003F000E0003FFFFC0003FE0003FFF000003FFF0003FF80007F
310
E0003FFFF80007FE0003FFFFC0007FF8000001FFFE0000007FFFFFF0001FFFFF
310
FF80003FFFFE0000FFFF80003FFFFE0000FFFF0003FFFFFFFFF0001FFFFE0003
310
F000F0001FFFF80003FE0003FFF000007FFF0001FF80007FE0003FFFF00007FE
310
0001FFFF80007FF8000001FFFE0000007FFFFFF0001FFFFFFFC0000FFFF80001
310
FFFFC0000FFFF80001FFFF0003FFFFFFFFF0001FFFFC0003F000F0000FFFF000
310
07FE0007FFF800007FFF0001FF80007FE0001FFFE00007FF0000FFFE00007FF8
310
000001FFFE0000007FFFFFF0001FFFFFFFC00003FFE00001FFFFC00003FFE000
310
01FFFF0003FFFFFFFFF8000FFFF80003F000F00003FFC00007FC0007FFF80000
310
7FFF8001FF80007FF00007FF80000FFF00007FF80000FFF8000001FFFE000000
310
7F80000000000001FFE000003E000003FFFFE000003E000003FFFF0003FFFFFF
310
FFF80003FFE00007F000F800000000000FFC0007FFF800007FFF8001FF80007F
310
F000000000000FFF000000000000FFF8000001FFFE0000007F80000000000001
310
FFF0000000000007FFFFF0000000000007FFFF0003FFFFFFFFFC00007E000007
310
F000F800000000000FFC0007FFF80000FFFF8000FF80007FF800000000001FFF
310
800000000001FFF8000001FFFE0000007F80000000000001FFF800000000000F
310
FFFFF800000000000FFFFF0003FFFFFFFFFC00000000000FF000FC0000000000
310
1FFC0007FFFC0000FFFF8000FF80007FF800000000003FFFC00000000001FFF8
310
000001FFFE0000007F80000000000001FFF800000000000FFFFFF80000000000
310
0FFFFF0003FFFFFFFFFE00000000001FF000FE00000000003FF8000FFFFC0000
310
FFFF8000FF80007FFC00000000003FFFC00000000003FFF8000001FFFE000000
310
7F80000000000001FFFC00000000001FFFFFFC00000000001FFFFF0003FFFFFF
310
FFFF00000000001FF000FF00000000003FF8000FFFFC0000FFFFC000FF80007F
310
FE00000000007FFFE00000000007FFF8000001FFFE0000007F80000000000001
310
FFFE00000000003FFFFFFE00000000003FFFFF0003FFFFFFFFFF80000000003F
310
F000FF80000000007FF8000FFFFC0001FFFFC0007F80007FFF0000000000FFFF
310
F0000000000FFFF800000000000000007F80000000000001FFFF8000000000FF
310
FFFFFF8000000000FFFFFF0003FFFFFFFFFFC0000000007FF000FFC000000000
310
FFF8000FFFFE0001FFFFC0007F80007FFF8000000001FFFFF8000000001FFFF8
310
00000000000000007F80000000000001FFFFC000000001FFFFFFFFC000000001
310
FFFFFF0003FFFFFFFFFFE000000000FFF000FFE000000003FFF0001FFFFE0001
310
FFFFC0007F80007FFFC000000007FFFFFE000000003FFFF80000000000000000
310
7F80000000000001FFFFE000000003FFFFFFFFE000000003FFFFFF0003FFFFFF
310
FFFFF000000003FFF000FFF80000000FFFF0001FFFFE0001FFFFE0007F80007F
310
FFF00000000FFFFFFF00000000FFFFF800000000000000007F80000000000001
310
FFFFF80000000FFFFFFFFFF80000000FFFFFFF0003FFFFFFFFFFFC0000000FFF
310
F000FFFE0000003FFFF0001FFFFE0003FFFFE0003F80007FFFFC0000003FFFFF
310
FFC0000003FFFFF800000000000000007F80000000000001FFFFFE0000003FFF
310
FFFFFFFE0000003FFFFFFF0003FFFFFFFFFFFF0000003FFFF000FFFF800000FF
310
FFF0001FFFFF0003FFFFE0003F80007FFFFF000001FFFFFFFFF800001FFFFFF8
310
00000000000000007F80000000000001FFFFFFC00001FFFFFFFFFFFFC00001FF
310
FFFFFF0003FFFFFFFFFFFFC00000FFFFF000FFFFF8000FFFFFFFFFFFFFFFFFFF
310
FFFFFFFFFFFFFFFFFFFFF0001FFFFFFFFFFF0000FFFFFFF80000000000000000
310
7FFFFFFFFFFFFFFFFFFFFFFC001FFFFFFFFFFFFFFC001FFFFFFFFFFFFFFFFFFF
310
FFFFFFFC001FFFFFF000FFFFFFFFFFFFFFFFFFFFFFFFFFFFFFFFFFFFFFFFFFFF
310
FFFFFFFFFFFFFFFFFFFFFFFFFFFFFFFFFFFFFFFFFFFFFFFFFFFFFFFFFFFFFFFF
310
FFFFFFFFFFFFFFFFFFFFFFFFFFFFFFFFFFFFFFFFFFFFFFFFFFFFFFFFFFFFFFFF
310
F000FFFFFFFFFFFFFFFFFFFFFFFFFFFFFFFFFFFFFFFFFFFFFFFFFFFFFFFFFFFF
310
FFFFFFFFFFFFFFFFFFFFFFFFFFFFFFFFFFFFFFFFFFFFFFFFFFFFFFFFFFFFFFFF
310
FFFFFFFFFFFFFFFFFFFFFFFFFFFFFFFFFFFFFFFFFFFFFFFFF000FFFFFFFFFFFF
310
FFFFFFFFFFFFFFFFFFFFFFFFFFFFFFFFFFFFFFFFFFFFFFFFFFFFFFFFFFFFFFFF
310
FFFFFFFFFFFFFFFFFFFFFFFFFFFFFFFFFFFFFFFFFFFFFFFFFFFFFFFFFFFFFFFF
310
FFFFFFFFFFFFFFFFFFFFFFFFFFFFFFFFF000FFFFFFFFFFFFFFFFFFFFFFFFFFFF
310
FFFFFFFFFFFFFFFFFFFFFFFFFFFFFFFFFFFFFFFFFFFFFFFFFFFFFFFFFFFFFFFF
310
FFFFFFFFFFFFFFFFFFFFFFFFFFFFFFFFFFFFFFFFFFFFFFFFFFFFFFFFFFFFFFFF
310
FFFFFFFFFFFFFFFFF000FFFFFFFFFFFFFFFFFFFFFFFFFFFFFFFFFFFFFFFFFFFF
310
FFFFFFFFFFFFFFFFFFFFFFFFFFFFFFFFFFFFFFFFFFFFFFFFFFFFFFFFFFFFFFFF
310
FFFFFFFFFFFFFFFFFFFFFFFFFFFFFFFFFFFFFFFFFFFFFFFFFFFFFFFFFFFFFFFF
310
F000FFFFFFFFFFFFFFFFFFFFFFFFFFFFFFFFFFFFFFFFFFFFFFFFFFFFFFFFFFFF
310
FFFFFFFFFFFFFFFFFFFFFFFFFFFFFFFFFFFFFFFFFFFFFFFFFFFFFFFFFFFFFFFF
310
FFFFFFFFFFFFFFFFFFFFFFFFFFFFFFFFFFFFFFFFFFFFFFFFF000FFFFFFFFFFFF
310
FFFFFFFFFFFFFFFFFFFFFFFFFFFFFFFFFFFFFFFFFFFFFFFFFFFFFFFFFFFFFFFF
310
FFFFFFFFFFFFFFFFFFFFFFFFFFFFFFFFFFFFFFFFFFFFFFFFFFFFFFFFFFFFFFFF
310
FFFFFFFFFFFFFFFFFFFFFFFFFFFFFFFFF000FFFFFFFFFFFFFFFFFFFFFFFFFFFF
310
FFFFFFFFFFFFFFFFFFFFFFFFFFFFFFFFFFFFFFFFFFFFFFFFFFFFFFFFFFFFFFFF
310
FFFFFFFFFFFFFFFFFFFFFFFFFFFFFFFFFFFFFFFFFFFFFFFFFFFFFFFFFFFFFFFF
310
FFFFFFFFFFFFFFFFF000FFFFFFFFFFFFFFFFFFFFFFFFFFFFFFFFFFFFFFFFFFFF
310
FFFFFFFFFFFFFFFFFFFFFFFFFFFFFFFFFFFFFFFFFFFFFFFFFFFFFFFFFFFFFFFF
310
FFFFFFFFFFFFFFFFFFFFFFFFFFFFFFFFFFFFFFFFFFFFFFFFFFFFFFFFFFFFFFFF
310
F000FFFFFFFFFFFFFFFFFFFFFFFFFFFFFFFFFFFFFFFFFFFFFFFFFFFFFFFFFFFF
310
FFFFFFFFFFFFFFFFFFFFFFFFFFFFFFFFFFFFFFFFFFFFFFFFFFFFFFFFFFFFFFFF
310
FFFFFFFFFFFFFFFFFFFFFFFFFFFFFFFFFFFFFFFFFFFFFFFFF000FFFFFFFFFFFF
310
FFFFFFFFFFFFFFFFFFFFFFFFFFFFFFFFFFFFFFFFFFFFFFFFFFFFFFFFFFFFFFFF
310
FFFFFFFFFFFFFFFFFFFFFFFFFFFFFFFFFFFFFFFFFFFFFFFFFFFFFFFFFFFFFFFF
310
FFFFFFFFFFFFFFFFFFFFFFFFFFFFFFFFF000FFFFFFFFFFFFFFFFFFFFFFFFFFFF
310
FFFFFFFFFFFFFFFFFFFFFFFFFFFFFFFFFFFFFFFFFFFFFFFFFFFFFFFFFFFFFFFF
310
FFFFFFFFFFFFFFFFFFFFFFFFFFFFFFFFFFFFFFFFFFFFFFFFFFFFFFFFFFFFFFFF
310
FFFFFFFFFFFFFFFFF000FFFFFFFFFFFFFFFFFFFFFFFFFFFFFFFFFFFFFFFFFFFF
310
FFFFFFFFFFFFFFFFFFFFFFFFFFFFFFFFFFFFFFFFFFFFFFFFFFFFFFFFFFFFFFFF
310
FFFFFFFFFFFFFFFFFFFFFFFFFFFFFFFFFFFFFFFFFFFFFFFFFFFFFFFFFFFFFFFF
310
F000FFFFFFFFFFFFFFFFFFFFFFFFFFFFFFFFFFFFFFFFFFFFFFFFFFFFFFFFFFFF
310
FFFFFFFFFFFFFFFFFFFFFFFFFFFFFFFFFFFFFFFFFFFFFFFFFFFFFFFFFFFFFFFF
310
FFFFFFFFFFFFFFFFFFFFFFFFFFFFFFFFFFFFFFFFFFFFFFFFF000FFFFFFFFFFFF
310
FFFFFFFFFFFFFFFFFFFFFFFFFFFFFFFFFFFFFFFFFFFFFFFFFFFFFFFFFFFFFFFF
310
FFFFFFFFFFFFFFFFFFFFFFFFFFFFFFFFFFFFFFFFFFFFFFFFFFFFFFFFFFFFFFFF
310
FFFFFFFFFFFFFFFFFFFFFFFFFFFFFFFFF000FFFFFFFFFFFFFFFFFFFFFFFFFFFF
310
FFFFFFFFFFFFFFFFFFFFFFFFFFFFFFFFFFFFFFFFFFFFFFFFFFFFFFFFFFFFFFFF
310
FFFFFFFFFFFFFFFFFFFFFFFFFFFFFFFFFFFFFFFFFFFFFFFFFFFFFFFFFFFFFFFF
310
FFFFFFFFFFFFFFFFF000FFFFFFFFFFFFFFFFFFFFFFFFFFFFFFFFFFFFFFFFFFFF
310
FFFFFFFFFFFFFFFFFFFFFFFFFFFFFFFFFFFFFFFFFFFFFFFFFFFFFFFFFFFFFFFF
310
FFFFFFFFFFFFFFFFFFFFFFFFFFFFFFFFFFFFFFFFFFFFFFFFFFFFFFFFFFFFFFFF
310
F000FFFFFFFFFFFFFFFFFFFFFFFFFFFFFFFFFFFFFFFFFFFFFFFFFFFFFFFFFFFF
310
FFFFFFFFFFFFFFFFFFFFFFFFFFFFFFFFFFFFFFFFFFFFFFFFFFFFFFFFFFFFFFFF
310
FFFFFFFFFFFFFFFFFFFFFFFFFFFFFFFFFFFFFFFFFFFFFFFFF000FFFFFFFFFFFF
310
FFFFFFFFFFFFFFFFFFFFFFFFFFFFFFFFFFFFFFFFFFFFFFFFFFFFFFFFFFFFFFFF
310
FFFFFFFFFFFFFFFFFFFFFFFFFFFFFFFFFFFFFFFFFFFFFFFFFFFFFFFFFFFFFFFF
310
FFFFFFFFFFFFFFFFFFFFFFFFFFFFFFFFF000FFFFFFFFFFFFFFFFFFFFFFFFFFFF
310
FFFFFFFFFFFFFFFFFFFFFFFFFFFFFFFFFFFFFFFFFFFFFFFFFFFFFFFFFFFFFFFF
310
FFFFFFFFFFFFFFFFFFFFFFFFFFFFFFFFFFFFFFFFFFFFFFFFFFFFFFFFFFFFFFFF
310
FFFFFFFFFFFFFFFFF000FFFFFFFFFFFFFFFFFFFFFFFFFFFFFFFFFFFFFFFFFFFF
310
FFFFFFFFFFFFFFFFFFFFFFFFFFFFFFFFFFFFFFFFFFFFFFFFFFFFFFFFFFFFFFFF
310
FFFFFFFFFFFFFFFFFFFFFFFFFFFFFFFFFFFFFFFFFFFFFFFFFFFFFFFFFFFFFFFF
310
F000FFFFFFFFFFFFFFFFFFFFFFFFFFFFFFFFFFFFFFFFFFFFFFFFFFFFFFFFFFFF
310
FFFFFFFFFFFFFFFFFFFFFFFFFFFFFFFFFFFFFFFFFFFFFFFFFFFFFFFFFFFFFFFF
310
FFFFFFFFFFFFFFFFFFFFFFFFFFFFFFFFFFFFFFFFFFFFFFFFF000FFFFFFFFFFFF
310
FFFFFFFFFFFFFFFFFFFFFFFFFFFFFFFFFFFFFFFFFFFFFFFFFFFFFFFFFFFFFFFF
310
FFFFFFFFFFFFFFFFFFFFFFFFFFFFFFFFFFFFFFFFFFFFFFFFFFFFFFFFFFFFFFFF
310
FFFFFFFFFFFFFFFFFFFFFFFFFFFFFFFFF0000000000000000000000000000000
310
0000000000000000000000000000000000000000000000000000000000000000
310
0000000000000000000000000000000000000000000000000000000000000000
310
0000000000000000000000000000000000000000000000000000000000000000
310
0000000000000000000000000000000000000000000000000000000000000000
310
0000000000000000000000000000000000000000000000000000000000000000
310
0000000000000000000000000000000000000000000000000000000000000000
310
0000000000000000000000000000000000000000000000000000000000000000
310
0000000000000000000000000000000000000000000000000000000000000000
310
0000000000000000000000000000000000000000000000000000000000000000
310
0000000000000000000000000000000000000000000000000000000000000000
310
0000000000000000000000000000000000000000000000000000000000000000
310
0000000000000000000000000000000000000000000000000000000000000000
310
0000000000000000000000000000000000000000000000000000000000000000
310
0000000000000000000000000000000000000000000000000000000000000000
310
0000000000000000000000000000000000000000000000000000000000000000
  1
OLE
  0
ENDSEC
  0
SECTION
  2
OBJECTS
  0
DICTIONARY
  5
C
330
0
100
AcDbDictionary
281
     1
  3
ACAD_GROUP
350
D
  3
ACAD_LAYOUT
350
1A
  3
ACAD_MLINESTYLE
350
17
  3
ACAD_PLOTSETTINGS
350
19
  3
ACAD_PLOTSTYLENAME
350
E
  3
ACAD_SCALELIST
350
47
  0
DICTIONARY
  5
D
102
{ACAD_REACTORS
330
C
102
}
330
C
100
AcDbDictionary
281
     1
  0
DICTIONARY
  5
1A
102
{ACAD_REACTORS
330
C
102
}
330
C
100
AcDbDictionary
281
     1
  3
Layout1
350
1E
  3
Layout2
350
26
  3
Model
350
22
  0
DICTIONARY
  5
17
102
{ACAD_REACTORS
330
C
102
}
330
C
100
AcDbDictionary
281
     1
  3
Standard
350
18
  0
DICTIONARY
  5
19
102
{ACAD_REACTORS
330
C
102
}
330
C
100
AcDbDictionary
281
     1
  0
ACDBDICTIONARYWDFLT
  5
E
102
{ACAD_REACTORS
330
C
102
}
330
C
100
AcDbDictionary
281
     1
  3
Normal
350
F
100
AcDbDictionaryWithDefault
340
F
  0
DICTIONARY
  5
47
102
{ACAD_REACTORS
330
C
102
}
330
C
100
AcDbDictionary
281
     1
  3
A0
350
48
  3
A1
350
49
  3
A2
350
4A
  3
A3
350
4B
  3
A4
350
4C
  3
A5
350
4D
  3
A6
350
4E
  3
A7
350
4F
  3
A8
350
50
  3
A9
350
51
  3
B0
350
52
  3
B1
350
53
  3
B2
350
54
  3
B3
350
55
  3
B4
350
56
  3
B5
350
57
  3
B6
350
58
  3
B7
350
59
  3
B8
350
5A
  3
B9
350
5B
  3
C0
350
5C
  3
C1
350
5D
  3
C2
350
5E
  3
C3
350
5F
  3
C4
350
60
  3
C5
350
61
  3
C6
350
62
  3
C7
350
63
  3
C8
350
64
  3
C9
350
65
  3
D0
350
66
  3
D1
350
67
  3
D2
350
68
  0
LAYOUT
  5
1E
102
{ACAD_REACTORS
330
1A
102
}
330
1A
100
AcDbPlotSettings
  1

  2
none_device
  4

  6

 40
0.0
 41
0.0
 42
0.0
 43
0.0
 44
0.0
 45
0.0
 46
0.0
 47
0.0
 48
0.0
 49
0.0
140
0.0
141
0.0
142
1.0
143
1.0
 70
   688
 72
     1
 73
     0
 74
     5
  7

 75
    16
147
1.0
148
0.0
149
0.0
100
AcDbLayout
  1
Layout1
 70
     1
 71
     1
 10
0.0
 20
0.0
 11
420.0
 21
297.0
 12
0.0
 22
0.0
 32
0.0
 14
1.0000000000E+20
 24
1.0000000000E+20
 34
1.0000000000E+20
 15
-1.0000000000E+20
 25
-1.0000000000E+20
 35
-1.0000000000E+20
146
0.0
 13
0.0
 23
0.0
 33
0.0
 16
1.0
 26
0.0
 36
0.0
 17
0.0
 27
1.0
 37
0.0
 76
     0
330
1B
  0
LAYOUT
  5
26
102
{ACAD_REACTORS
330
1A
102
}
330
1A
100
AcDbPlotSettings
  1

  2
none_device
  4

  6

 40
0.0
 41
0.0
 42
0.0
 43
0.0
 44
0.0
 45
0.0
 46
0.0
 47
0.0
 48
0.0
 49
0.0
140
0.0
141
0.0
142
1.0
143
1.0
 70
   688
 72
     1
 73
     0
 74
     5
  7

 75
    16
147
1.0
148
0.0
149
0.0
100
AcDbLayout
  1
Layout2
 70
     1
 71
     2
 10
0.0
 20
0.0
 11
0.0
 21
0.0
 12
0.0
 22
0.0
 32
0.0
 14
0.0
 24
0.0
 34
0.0
 15
0.0
 25
0.0
 35
0.0
146
0.0
 13
0.0
 23
0.0
 33
0.0
 16
1.0
 26
0.0
 36
0.0
 17
0.0
 27
1.0
 37
0.0
 76
     0
330
23
  0
LAYOUT
  5
22
102
{ACAD_REACTORS
330
1A
102
}
330
1A
100
AcDbPlotSettings
  1

  2
none_device
  4
Letter_(8.50_x_11.00_Inches)
  6

 40
6.35
 41
6.35
 42
6.35000508
 43
6.35000508
 44
215.9
 45
279.4
 46
0.0
 47
0.0
 48
0.0
 49
0.0
140
0.0
141
0.0
142
1.0
143
1.0
 70
  1712
 72
     1
 73
     0
 74
     0
  7

 75
     0
147
1.0
148
0.0
149
0.0
100
AcDbLayout
  1
Model
 70
     1
 71
     0
 10
0.0
 20
0.0
 11
297.0
 21
210.0
 12
0.0
 22
0.0
 32
0.0
 14
0.0
 24
0.0
 34
0.0
 15
297.0
 25
210.0
 35
0.0
146
0.0
 13
0.0
 23
0.0
 33
0.0
 16
1.0
 26
0.0
 36
0.0
 17
0.0
 27
1.0
 37
0.0
 76
     0
330
1F
331
29
  0
MLINESTYLE
  5
18
102
{ACAD_REACTORS
330
17
102
}
330
17
100
AcDbMlineStyle
  2
Standard
 70
     0
  3

 62
   256
 51
90.0
 52
90.0
 71
     2
 49
0.5
 62
   256
  6
BYLAYER
 49
-0.5
 62
   256
  6
BYLAYER
  0
ACDBPLACEHOLDER
  5
F
102
{ACAD_REACTORS
330
E
102
}
330
E
  0
SCALE
  5
48
102
{ACAD_REACTORS
330
47
102
}
330
47
100
AcDbScale
 70
     0
300
1:1
140
1.0
141
1.0
290
     1
  0
SCALE
  5
49
102
{ACAD_REACTORS
330
47
102
}
330
47
100
AcDbScale
 70
     0
300
1:2
140
1.0
141
2.0
290
     0
  0
SCALE
  5
4A
102
{ACAD_REACTORS
330
47
102
}
330
47
100
AcDbScale
 70
     0
300
1:4
140
1.0
141
4.0
290
     0
  0
SCALE
  5
4B
102
{ACAD_REACTORS
330
47
102
}
330
47
100
AcDbScale
 70
     0
300
1:5
140
1.0
141
5.0
290
     0
  0
SCALE
  5
4C
102
{ACAD_REACTORS
330
47
102
}
330
47
100
AcDbScale
 70
     0
300
1:8
140
1.0
141
8.0
290
     0
  0
SCALE
  5
4D
102
{ACAD_REACTORS
330
47
102
}
330
47
100
AcDbScale
 70
     0
300
1:10
140
1.0
141
10.0
290
     0
  0
SCALE
  5
4E
102
{ACAD_REACTORS
330
47
102
}
330
47
100
AcDbScale
 70
     0
300
1:16
140
1.0
141
16.0
290
     0
  0
SCALE
  5
4F
102
{ACAD_REACTORS
330
47
102
}
330
47
100
AcDbScale
 70
     0
300
1:20
140
1.0
141
20.0
290
     0
  0
SCALE
  5
50
102
{ACAD_REACTORS
330
47
102
}
330
47
100
AcDbScale
 70
     0
300
1:30
140
1.0
141
30.0
290
     0
  0
SCALE
  5
51
102
{ACAD_REACTORS
330
47
102
}
330
47
100
AcDbScale
 70
     0
300
1:40
140
1.0
141
40.0
290
     0
  0
SCALE
  5
52
102
{ACAD_REACTORS
330
47
102
}
330
47
100
AcDbScale
 70
     0
300
1:50
140
1.0
141
50.0
290
     0
  0
SCALE
  5
53
102
{ACAD_REACTORS
330
47
102
}
330
47
100
AcDbScale
 70
     0
300
1:100
140
1.0
141
100.0
290
     0
  0
SCALE
  5
54
102
{ACAD_REACTORS
330
47
102
}
330
47
100
AcDbScale
 70
     0
300
2:1
140
2.0
141
1.0
290
     0
  0
SCALE
  5
55
102
{ACAD_REACTORS
330
47
102
}
330
47
100
AcDbScale
 70
     0
300
4:1
140
4.0
141
1.0
290
     0
  0
SCALE
  5
56
102
{ACAD_REACTORS
330
47
102
}
330
47
100
AcDbScale
 70
     0
300
8:1
140
8.0
141
1.0
290
     0
  0
SCALE
  5
57
102
{ACAD_REACTORS
330
47
102
}
330
47
100
AcDbScale
 70
     0
300
10:1
140
10.0
141
1.0
290
     0
  0
SCALE
  5
58
102
{ACAD_REACTORS
330
47
102
}
330
47
100
AcDbScale
 70
     0
300
100:1
140
100.0
141
1.0
290
     0
  0
SCALE
  5
59
102
{ACAD_REACTORS
330
47
102
}
330
47
100
AcDbScale
 70
     0
300
1/128" = 1'-0"
140
0.0078125
141
12.0
290
     0
  0
SCALE
  5
5A
102
{ACAD_REACTORS
330
47
102
}
330
47
100
AcDbScale
 70
     0
300
1/64" = 1'-0"
140
0.015625
141
12.0
290
     0
  0
SCALE
  5
5B
102
{ACAD_REACTORS
330
47
102
}
330
47
100
AcDbScale
 70
     0
300
1/32" = 1'-0"
140
0.03125
141
12.0
290
     0
  0
SCALE
  5
5C
102
{ACAD_REACTORS
330
47
102
}
330
47
100
AcDbScale
 70
     0
300
1/16" = 1'-0"
140
0.0625
141
12.0
290
     0
  0
SCALE
  5
5D
102
{ACAD_REACTORS
330
47
102
}
330
47
100
AcDbScale
 70
     0
300
3/32" = 1'-0"
140
0.09375
141
12.0
290
     0
  0
SCALE
  5
5E
102
{ACAD_REACTORS
330
47
102
}
330
47
100
AcDbScale
 70
     0
300
1/8" = 1'-0"
140
0.125
141
12.0
290
     0
  0
SCALE
  5
5F
102
{ACAD_REACTORS
330
47
102
}
330
47
100
AcDbScale
 70
     0
300
3/16" = 1'-0"
140
0.1875
141
12.0
290
     0
  0
SCALE
  5
60
102
{ACAD_REACTORS
330
47
102
}
330
47
100
AcDbScale
 70
     0
300
1/4" = 1'-0"
140
0.25
141
12.0
290
     0
  0
SCALE
  5
61
102
{ACAD_REACTORS
330
47
102
}
330
47
100
AcDbScale
 70
     0
300
3/8" = 1'-0"
140
0.375
141
12.0
290
     0
  0
SCALE
  5
62
102
{ACAD_REACTORS
330
47
102
}
330
47
100
AcDbScale
 70
     0
300
1/2" = 1'-0"
140
0.5
141
12.0
290
     0
  0
SCALE
  5
63
102
{ACAD_REACTORS
330
47
102
}
330
47
100
AcDbScale
 70
     0
300
3/4" = 1'-0"
140
0.75
141
12.0
290
     0
  0
SCALE
  5
64
102
{ACAD_REACTORS
330
47
102
}
330
47
100
AcDbScale
 70
     0
300
1" = 1'-0"
140
1.0
141
12.0
290
     0
  0
SCALE
  5
65
102
{ACAD_REACTORS
330
47
102
}
330
47
100
AcDbScale
 70
     0
300
1-1/2" = 1'-0"
140
1.5
141
12.0
290
     0
  0
SCALE
  5
66
102
{ACAD_REACTORS
330
47
102
}
330
47
100
AcDbScale
 70
     0
300
3" = 1'-0"
140
3.0
141
12.0
290
     0
  0
SCALE
  5
67
102
{ACAD_REACTORS
330
47
102
}
330
47
100
AcDbScale
 70
     0
300
6" = 1'-0"
140
6.0
141
12.0
290
     0
  0
SCALE
  5
68
102
{ACAD_REACTORS
330
47
102
}
330
47
100
AcDbScale
 70
     0
300
1'-0" = 1'-0"
140
12.0
141
12.0
290
     0
  0
ENDSEC
  0
EOF
