  0
SECTION
  2
HEADER
  9
$ACADVER
  1
AC1015
  9
$ACADMAINTVER
 70
     6
  9
$DWGCODEPAGE
  3
ANSI_1252
  9
$INSBASE
 10
0.0
 20
0.0
 30
0.0
  9
$EXTMIN
 10
0.0
 20
0.0
 30
0.0
  9
$EXTMAX
 10
297.0
 20
210.0
 30
0.0
  9
$LIMMIN
 10
0.0
 20
0.0
  9
$LIMMAX
 10
297.0
 20
210.0
  9
$ORTHOMODE
 70
     0
  9
$REGENMODE
 70
     1
  9
$FILLMODE
 70
     1
  9
$QTEXTMODE
 70
     0
  9
$MIRRTEXT
 70
     1
  9
$LTSCALE
 40
1.0
  9
$ATTMODE
 70
     1
  9
$TEXTSIZE
 40
2.0
  9
$TRACEWID
 40
1.0
  9
$TEXTSTYLE
  7
Standard
  9
$CLAYER
  8
0
  9
$CELTYPE
  6
ByLayer
  9
$CECOLOR
 62
   256
  9
$CELTSCALE
 40
1.0
  9
$DISPSILH
 70
     0
  9
$DIMSCALE
 40
1.0
  9
$DIMASZ
 40
3.0
  9
$DIMEXO
 40
0.0
  9
$DIMDLI
 40
3.75
  9
$DIMRND
 40
0.0
  9
$DIMDLE
 40
0.0
  9
$DIMEXE
 40
1.0
  9
$DIMTP
 40
0.0
  9
$DIMTM
 40
0.0
  9
$DIMTXT
 40
2.0
  9
$DIMCEN
 40
2.5
  9
$DIMTSZ
 40
0.0
  9
$DIMTOL
 70
     0
  9
$DIMLIM
 70
     0
  9
$DIMTIH
 70
     1
  9
$DIMTOH
 70
     1
  9
$DIMSE1
 70
     0
  9
$DIMSE2
 70
     0
  9
$DIMTAD
 70
     1
  9
$DIMZIN
 70
     0
  9
$DIMBLK
  1

  9
$DIMASO
 70
     1
  9
$DIMSHO
 70
     1
  9
$DIMPOST
  1

  9
$DIMAPOST
  1

  9
$DIMALT
 70
     0
  9
$DIMALTD
 70
     3
  9
$DIMALTF
 40
0.0393700787
  9
$DIMLFAC
 40
2.0
  9
$DIMTOFL
 70
     1
  9
$DIMTVP
 40
0.0
  9
$DIMTIX
 70
     0
  9
$DIMSOXD
 70
     0
  9
$DIMSAH
 70
     0
  9
$DIMBLK1
  1

  9
$DIMBLK2
  1

  9
$DIMSTYLE
  2
ISO-25
  9
$DIMCLRD
 70
     0
  9
$DIMCLRE
 70
     0
  9
$DIMCLRT
 70
     0
  9
$DIMTFAC
 40
1.0
  9
$DIMGAP
 40
1.524
  9
$DIMJUST
 70
     0
  9
$DIMSD1
 70
     0
  9
$DIMSD2
 70
     0
  9
$DIMTOLJ
 70
     0
  9
$DIMTZIN
 70
     0
  9
$DIMALTZ
 70
     0
  9
$DIMALTTZ
 70
     0
  9
$DIMUPT
 70
     0
  9
$DIMDEC
 70
     2
  9
$DIMTDEC
 70
     3
  9
$DIMALTU
 70
     2
  9
$DIMALTTD
 70
     3
  9
$DIMTXSTY
  7
Standard
  9
$DIMAUNIT
 70
     0
  9
$DIMADEC
 70
     2
  9
$DIMALTRND
 40
0.0
  9
$DIMAZIN
 70
     0
  9
$DIMDSEP
 70
    44
  9
$DIMATFIT
 70
     3
  9
$DIMFRAC
 70
     0
  9
$DIMLDRBLK
  1

  9
$DIMLUNIT
 70
     2
  9
$DIMLWD
 70
    -2
  9
$DIMLWE
 70
    -2
  9
$DIMTMOVE
 70
     0
  9
$LUNITS
 70
     2
  9
$LUPREC
 70
     2
  9
$SKETCHINC
 40
1.0
  9
$FILLETRAD
 40
10.0
  9
$AUNITS
 70
     0
  9
$AUPREC
 70
     2
  9
$MENU
  1
.
  9
$ELEVATION
 40
0.0
  9
$PELEVATION
 40
0.0
  9
$THICKNESS
 40
0.0
  9
$LIMCHECK
 70
     0
  9
$CHAMFERA
 40
0.0
  9
$CHAMFERB
 40
0.0
  9
$CHAMFERC
 40
0.0
  9
$CHAMFERD
 40
0.0
  9
$SKPOLY
 70
     0
  9
$TDCREATE
 40
2457675.392863681
  9
$TDUCREATE
 40
2457675.309530347
  9
$TDUPDATE
 40
2457675.392865243
  9
$TDUUPDATE
 40
2457675.30953191
  9
$TDINDWG
 40
0.0000000116
  9
$TDUSRTIMER
 40
0.0000000116
  9
$USRTIMER
 70
     1
  9
$ANGBASE
 50
0.0
  9
$ANGDIR
 70
     0
  9
$PDMODE
 70
     0
  9
$PDSIZE
 40
-1.0
  9
$PLINEWID
 40
0.0
  9
$SPLFRAME
 70
     0
  9
$SPLINETYPE
 70
     6
  9
$SPLINESEGS
 70
     8
  9
$HANDSEED
  5
28B
  9
$SURFTAB1
 70
     6
  9
$SURFTAB2
 70
     6
  9
$SURFTYPE
 70
     6
  9
$SURFU
 70
     6
  9
$SURFV
 70
     6
  9
$UCSBASE
  2

  9
$UCSNAME
  2

  9
$UCSORG
 10
0.0
 20
0.0
 30
0.0
  9
$UCSXDIR
 10
1.0
 20
0.0
 30
0.0
  9
$UCSYDIR
 10
0.0
 20
1.0
 30
0.0
  9
$UCSORTHOREF
  2

  9
$UCSORTHOVIEW
 70
     0
  9
$UCSORGTOP
 10
0.0
 20
0.0
 30
0.0
  9
$UCSORGBOTTOM
 10
0.0
 20
0.0
 30
0.0
  9
$UCSORGLEFT
 10
0.0
 20
0.0
 30
0.0
  9
$UCSORGRIGHT
 10
0.0
 20
0.0
 30
0.0
  9
$UCSORGFRONT
 10
0.0
 20
0.0
 30
0.0
  9
$UCSORGBACK
 10
0.0
 20
0.0
 30
0.0
  9
$PUCSBASE
  2

  9
$PUCSNAME
  2

  9
$PUCSORG
 10
0.0
 20
0.0
 30
0.0
  9
$PUCSXDIR
 10
1.0
 20
0.0
 30
0.0
  9
$PUCSYDIR
 10
0.0
 20
1.0
 30
0.0
  9
$PUCSORTHOREF
  2

  9
$PUCSORTHOVIEW
 70
     0
  9
$PUCSORGTOP
 10
0.0
 20
0.0
 30
0.0
  9
$PUCSORGBOTTOM
 10
0.0
 20
0.0
 30
0.0
  9
$PUCSORGLEFT
 10
0.0
 20
0.0
 30
0.0
  9
$PUCSORGRIGHT
 10
0.0
 20
0.0
 30
0.0
  9
$PUCSORGFRONT
 10
0.0
 20
0.0
 30
0.0
  9
$PUCSORGBACK
 10
0.0
 20
0.0
 30
0.0
  9
$USERI1
 70
     0
  9
$USERI2
 70
     0
  9
$USERI3
 70
     0
  9
$USERI4
 70
     0
  9
$USERI5
 70
     0
  9
$USERR1
 40
0.0
  9
$USERR2
 40
0.0
  9
$USERR3
 40
0.0
  9
$USERR4
 40
0.0
  9
$USERR5
 40
0.0
  9
$WORLDVIEW
 70
     1
  9
$SHADEDGE
 70
     3
  9
$SHADEDIF
 70
    70
  9
$TILEMODE
 70
     1
  9
$MAXACTVP
 70
    64
  9
$PINSBASE
 10
0.0
 20
0.0
 30
0.0
  9
$PLIMCHECK
 70
     0
  9
$PEXTMIN
 10
1.0000000000E+20
 20
1.0000000000E+20
 30
1.0000000000E+20
  9
$PEXTMAX
 10
-1.0000000000E+20
 20
-1.0000000000E+20
 30
-1.0000000000E+20
  9
$PLIMMIN
 10
0.0
 20
0.0
  9
$PLIMMAX
 10
420.0
 20
297.0
  9
$UNITMODE
 70
     0
  9
$VISRETAIN
 70
     1
  9
$PLINEGEN
 70
     0
  9
$PSLTSCALE
 70
     1
  9
$TREEDEPTH
 70
  3020
  9
$CMLSTYLE
  2
Standard
  9
$CMLJUST
 70
     0
  9
$CMLSCALE
 40
20.0
  9
$PROXYGRAPHICS
 70
     1
  9
$MEASUREMENT
 70
     1
  9
$CELWEIGHT
370
    -1
  9
$ENDCAPS
280
     0
  9
$JOINSTYLE
280
     0
  9
$LWDISPLAY
290
     1
  9
$INSUNITS
 70
     4
  9
$HYPERLINKBASE
  1

  9
$STYLESHEET
  1

  9
$XEDIT
290
     1
  9
$CEPSNTYPE
380
     0
  9
$PSTYLEMODE
290
     1
  9
$FINGERPRINTGUID
  2
{E66B4429-D398-427A-8F6A-6FE6C84C6595}
  9
$VERSIONGUID
  2
{FAEB1C32-E019-11D5-929B-00C0DF256EC4}
  9
$EXTNAMES
290
     1
  9
$PSVPSCALE
 40
0.0
  9
$OLESTARTUP
290
     0
  0
ENDSEC
  0
SECTION
  2
CLASSES
  0
CLASS
  1
ACDBDICTIONARYWDFLT
  2
AcDbDictionaryWithDefault
  3
ObjectDBX Classes
 90
        0
280
     0
281
     0
  0
CLASS
  1
VISUALSTYLE
  2
AcDbVisualStyle
  3
ObjectDBX Classes
 90
     4095
280
     0
281
     0
  0
CLASS
  1
MATERIAL
  2
AcDbMaterial
  3
ObjectDBX Classes
 90
     1153
280
     0
281
     0
  0
CLASS
  1
SCALE
  2
AcDbScale
  3
ObjectDBX Classes
 90
     1153
280
     0
281
     0
  0
CLASS
  1
TABLESTYLE
  2
AcDbTableStyle
  3
ObjectDBX Classes
 90
     4095
280
     0
281
     0
  0
CLASS
  1
MLEADERSTYLE
  2
AcDbMLeaderStyle
  3
ACDB_MLEADERSTYLE_CLASS
 90
     4095
280
     0
281
     0
  0
CLASS
  1
SUN
  2
AcDbSun
  3
SCENEOE
 90
     1153
280
     0
281
     0
  0
CLASS
  1
ACDBPLACEHOLDER
  2
AcDbPlaceHolder
  3
ObjectDBX Classes
 90
        0
280
     0
281
     0
  0
CLASS
  1
LAYOUT
  2
AcDbLayout
  3
ObjectDBX Classes
 90
        0
280
     0
281
     0
  0
ENDSEC
  0
SECTION
  2
TABLES
  0
TABLE
  2
VPORT
  5
8
330
0
100
AcDbSymbolTable
 70
     1
  0
VPORT
  5
29
330
8
100
AcDbSymbolTableRecord
100
AcDbViewportTableRecord
  2
*Active
 70
     0
 10
0.0
 20
0.0
 11
1.0
 21
1.0
 12
148.5
 22
105.0
 13
0.0
 23
0.0
 14
10.0
 24
10.0
 15
10.0
 25
10.0
 16
0.0
 26
0.0
 36
1.0
 17
0.0
 27
0.0
 37
0.0
 40
210.0
 41
1.4142857143
 42
50.0
 43
0.0
 44
0.0
 50
0.0
 51
0.0
 71
     0
 72
  2000
 73
     1
 74
     3
 75
     0
 76
     0
 77
     0
 78
     0
281
     0
 65
     1
110
0.0
120
0.0
130
0.0
111
1.0
121
0.0
131
0.0
112
0.0
122
1.0
132
0.0
 79
     0
146
0.0
  0
ENDTAB
  0
TABLE
  2
LTYPE
  5
5
330
0
100
AcDbSymbolTable
 70
     6
  0
LTYPE
  5
14
330
5
100
AcDbSymbolTableRecord
100
AcDbLinetypeTableRecord
  2
ByBlock
 70
     0
  3

 72
    65
 73
     0
 40
0.0
  0
LTYPE
  5
15
330
5
100
AcDbSymbolTableRecord
100
AcDbLinetypeTableRecord
  2
ByLayer
 70
     0
  3

 72
    65
 73
     0
 40
0.0
  0
LTYPE
  5
16
330
5
100
AcDbSymbolTableRecord
100
AcDbLinetypeTableRecord
  2
Continuous
 70
     0
  3
Solid line
 72
    65
 73
     0
 40
0.0
  0
LTYPE
  5
6E
330
5
100
AcDbSymbolTableRecord
100
AcDbLinetypeTableRecord
  2
HIDDEN
 70
     0
  3
Hidden __ __ __ __ __ __ __ __ __ __ __ __ __ __
 72
    65
 73
     2
 40
1.905
 49
1.27
 74
     0
 49
-0.635
 74
     0
  0
LTYPE
  5
6F
330
5
100
AcDbSymbolTableRecord
100
AcDbLinetypeTableRecord
  2
PHANTOM
 70
     0
  3
Phantom ______  __  __  ______  __  __  ______
 72
    65
 73
     6
 40
12.7
 49
6.35
 74
     0
 49
-1.27
 74
     0
 49
1.27
 74
     0
 49
-1.27
 74
     0
 49
1.27
 74
     0
 49
-1.27
 74
     0
  0
LTYPE
  5
70
330
5
100
AcDbSymbolTableRecord
100
AcDbLinetypeTableRecord
  2
CENTER
 70
     0
  3
Center ____ _ ____ _ ____ _ ____ _ ____ _ ____
 72
    65
 73
     4
 40
10.16
 49
6.35
 74
     0
 49
-1.27
 74
     0
 49
1.27
 74
     0
 49
-1.27
 74
     0
  0
LTYPE
  5
71
330
5
100
AcDbSymbolTableRecord
100
AcDbLinetypeTableRecord
  2
CENTERX2
 70
     0
  3
Center (2x) ________  __  ________  __  _____
 72
    65
 73
     4
 40
20.32
 49
12.7
 74
     0
 49
-2.54
 74
     0
 49
2.54
 74
     0
 49
-2.54
 74
     0
  0
LTYPE
  5
72
330
5
100
AcDbSymbolTableRecord
100
AcDbLinetypeTableRecord
  2
DOT2
 70
     0
  3
Dot (.5x) ........................................
 72
    65
 73
     2
 40
0.635
 49
0.0
 74
     0
 49
-0.635
 74
     0
  0
ENDTAB
  0
TABLE
  2
LAYER
  5
2
330
0
100
AcDbSymbolTable
 70
     5
  0
LAYER
  5
10
330
2
100
AcDbSymbolTableRecord
100
AcDbLayerTableRecord
  2
0
 70
     0
 62
     7
  6
Continuous
370
    -3
390
F
  0
LAYER
  5
73
330
2
100
AcDbSymbolTableRecord
100
AcDbLayerTableRecord
  2
FORMAT
 70
     0
 62
     7
  6
Continuous
370
    -3
390
F
  0
LAYER
  5
74
330
2
100
AcDbSymbolTableRecord
100
AcDbLayerTableRecord
  2
VERMASSUNG
 70
     0
 62
     7
  6
Continuous
370
    -3
390
F
  0
LAYER
  5
75
330
2
100
AcDbSymbolTableRecord
100
AcDbLayerTableRecord
  2
KOPF_DÜNN
 70
     0
 62
     7
  6
Continuous
370
    -3
390
F
  0
LAYER
  5
76
330
2
100
AcDbSymbolTableRecord
100
AcDbLayerTableRecord
  2
KOPF_DICK
 70
     0
 62
     7
  6
Continuous
370
    15
390
F
  0
ENDTAB
  0
TABLE
  2
STYLE
  5
3
330
0
100
AcDbSymbolTable
 70
     2
  0
STYLE
  5
11
330
3
100
AcDbSymbolTableRecord
100
AcDbTextStyleTableRecord
  2
Standard
 70
     0
 40
0.0
 41
1.0
 50
0.0
 71
     0
 42
2.0
  3
txt
  4

  0
STYLE
  5
77
330
3
100
AcDbSymbolTableRecord
100
AcDbTextStyleTableRecord
  2
SLDTEXTSTYLE0
 70
     0
 40
0.0
 41
0.7
 50
0.0
 71
     0
 42
2.0
  3
TXT
  4

  0
ENDTAB
  0
TABLE
  2
VIEW
  5
6
330
0
100
AcDbSymbolTable
 70
     0
  0
ENDTAB
  0
TABLE
  2
UCS
  5
7
330
0
100
AcDbSymbolTable
 70
     0
  0
ENDTAB
  0
TABLE
  2
APPID
  5
9
330
0
100
AcDbSymbolTable
 70
     1
  0
APPID
  5
12
330
9
100
AcDbSymbolTableRecord
100
AcDbRegAppTableRecord
  2
ACAD
 70
     0
  0
ENDTAB
  0
TABLE
  2
DIMSTYLE
  5
A
330
0
100
AcDbSymbolTable
 70
     2
100
AcDbDimStyleTable
  0
DIMSTYLE
105
27
330
A
100
AcDbSymbolTableRecord
100
AcDbDimStyleTableRecord
  2
ISO-25
 70
     0
 41
2.5
 42
0.625
 43
3.75
 44
1.25
 73
     0
 74
     0
 77
     1
 78
     8
140
2.5
141
2.5
143
0.0393700787
147
0.625
171
     3
172
     1
178
     0
271
     2
272
     2
274
     3
278
    44
283
     0
284
     8
340
11
  0
DIMSTYLE
105
19F
102
{ACAD_REACTORS
330
19E
330
1AB
330
1B7
330
1C1
330
1CD
330
1D8
102
}
330
A
100
AcDbSymbolTableRecord
100
AcDbDimStyleTableRecord
  2
SLDDIMSTYLE0
 70
     0
 41
3.0
 44
0.0
 45
0.000000001
 73
     0
 74
     0
 77
     1
 78
    12
 79
     3
140
2.0
147
0.5
173
     1
178
     0
271
     2
272
     3
276
     2
284
    12
340
77
  0
ENDTAB
  0
TABLE
  2
BLOCK_RECORD
  5
1
330
0
100
AcDbSymbolTable
 70
     7
  0
BLOCK_RECORD
  5
1F
330
1
100
AcDbSymbolTableRecord
100
AcDbBlockTableRecord
  2
*Model_Space
340
22
  0
BLOCK_RECORD
  5
1B
330
1
100
AcDbSymbolTableRecord
100
AcDbBlockTableRecord
  2
*Paper_Space
340
1E
  0
BLOCK_RECORD
  5
23
330
1
100
AcDbSymbolTableRecord
100
AcDbBlockTableRecord
  2
*Paper_Space0
340
26
  0
BLOCK_RECORD
  5
1A0
330
1
100
AcDbSymbolTableRecord
100
AcDbBlockTableRecord
  2
_D
340
0
  0
BLOCK_RECORD
  5
1AC
330
1
100
AcDbSymbolTableRecord
100
AcDbBlockTableRecord
  2
_D_1
340
0
  0
BLOCK_RECORD
  5
1B8
330
1
100
AcDbSymbolTableRecord
100
AcDbBlockTableRecord
  2
_D_2
340
0
  0
BLOCK_RECORD
  5
1C2
330
1
100
AcDbSymbolTableRecord
100
AcDbBlockTableRecord
  2
_D_3
340
0
  0
BLOCK_RECORD
  5
1CE
330
1
100
AcDbSymbolTableRecord
100
AcDbBlockTableRecord
  2
_D_4
340
0
  0
BLOCK_RECORD
  5
1D9
330
1
100
AcDbSymbolTableRecord
100
AcDbBlockTableRecord
  2
_D_5
340
0
  0
ENDTAB
  0
ENDSEC
  0
SECTION
  2
BLOCKS
  0
BLOCK
  5
20
330
1F
100
AcDbEntity
  8
0
100
AcDbBlockBegin
  2
*Model_Space
 70
     0
 10
0.0
 20
0.0
 30
0.0
  3
*Model_Space
  1

  0
ENDBLK
  5
21
330
1F
100
AcDbEntity
  8
0
100
AcDbBlockEnd
  0
BLOCK
  5
1C
330
1B
100
AcDbEntity
 67
     1
  8
0
100
AcDbBlockBegin
  2
*Paper_Space
 70
     0
 10
0.0
 20
0.0
 30
0.0
  3
*Paper_Space
  1

  0
ENDBLK
  5
1D
330
1B
100
AcDbEntity
 67
     1
  8
0
100
AcDbBlockEnd
  0
BLOCK
  5
24
330
23
100
AcDbEntity
  8
0
100
AcDbBlockBegin
  2
*Paper_Space0
 70
     0
 10
0.0
 20
0.0
 30
0.0
  3
*Paper_Space0
  1

  0
ENDBLK
  5
25
330
23
100
AcDbEntity
  8
0
100
AcDbBlockEnd
  0
BLOCK
  5
1A1
330
1A0
100
AcDbEntity
  8
0
100
AcDbBlockBegin
  2
_D
 70
     0
 10
0.0
 20
0.0
 30
0.0
  3
_D
  1

  0
SOLID
  5
1A3
330
1A0
100
AcDbEntity
  8
VERMASSUNG
100
AcDbTrace
 10
79.207634704
 20
142.1878472854
 30
0.0
 11
78.757634704
 21
139.1878472854
 31
0.0
 12
79.657634704
 22
139.1878472854
 32
0.0
 13
79.657634704
 23
139.1878472854
 33
0.0
  0
SOLID
  5
1A4
330
1A0
100
AcDbEntity
  8
VERMASSUNG
100
AcDbTrace
 10
79.207634704
 20
79.1878472854
 30
0.0
 11
79.657634704
 21
82.1878472854
 31
0.0
 12
78.757634704
 22
82.1878472854
 32
0.0
 13
78.757634704
 23
82.1878472854
 33
0.0
  0
LINE
  5
1A5
330
1A0
100
AcDbEntity
  8
VERMASSUNG
100
AcDbLine
 10
119.1144415443
 20
142.1878472854
 30
0.0
 11
78.207634704
 21
142.1878472854
 31
0.0
  0
LINE
  5
1A6
330
1A0
100
AcDbEntity
  8
VERMASSUNG
100
AcDbLine
 10
119.1144415443
 20
79.1878472854
 30
0.0
 11
78.207634704
 21
79.1878472854
 31
0.0
  0
LINE
  5
1A7
330
1A0
100
AcDbEntity
  8
VERMASSUNG
100
AcDbLine
 10
79.207634704
 20
142.1878472854
 30
0.0
 11
79.207634704
 21
79.1878472854
 31
0.0
  0
MTEXT
  5
1A8
330
1A0
100
AcDbEntity
  8
VERMASSUNG
100
AcDbMText
 10
76.4294994478
 20
102.9828479876
 30
0.0
 40
2.0
 41
0.0
 71
     1
 72
     1
  1
HSK A
  7
SLDTEXTSTYLE0
 11
-7.044195017643634E-15
 21
1.0
 31
0.0
 73
     1
 44
1.0
  0
MTEXT
  5
1A9
330
1A0
100
AcDbEntity
  8
VERMASSUNG
100
AcDbMText
 10
76.629499399
 20
111.9828476002
 30
0.0
 40
2.0
 41
0.0
 71
     1
 72
     1
  1
%%c
  7
SLDTEXTSTYLE0
 11
-7.044195017643634E-15
 21
1.0
 31
0.0
 73
     1
 44
1.0
  0
MTEXT
  5
1AA
330
1A0
100
AcDbEntity
  8
VERMASSUNG
100
AcDbMText
 10
76.4294994478
 20
115.5928476145
 30
0.0
 40
2.0
 41
0.0
 71
     1
 72
     1
  1
63
  7
SLDTEXTSTYLE0
 11
-7.044195017643634E-15
 21
1.0
 31
0.0
 73
     1
 44
1.0
  0
ENDBLK
  5
1A2
330
1A0
100
AcDbEntity
  8
0
100
AcDbBlockEnd
  0
BLOCK
  5
1AD
330
1AC
100
AcDbEntity
  8
0
100
AcDbBlockBegin
  2
_D_1
 70
     0
 10
0.0
 20
0.0
 30
0.0
  3
_D_1
  1

  0
ARC
  5
1AF
330
1AC
100
AcDbEntity
  8
VERMASSUNG
100
AcDbCircle
 10
182.3894417183
 20
148.0731032421
 30
0.0
 40
4.24852922888762
100
AcDbArc
 50
153.4349488229
 51
206.5650511771
  0
ARC
  5
1B0
330
1AC
100
AcDbEntity
  8
VERMASSUNG
100
AcDbCircle
 10
181.1894414285
 20
148.0731032421
 30
0.0
 40
4.24852922888762
100
AcDbArc
 50
333.4349488229
 51
26.5650511771
  0
SOLID
  5
1B1
330
1AC
100
AcDbEntity
  8
VERMASSUNG
100
AcDbTrace
 10
144.7644415443
 20
146.1731029772
 30
0.0
 11
147.7644415443
 21
145.7231029772
 31
0.0
 12
147.7644415443
 22
146.6231029772
 32
0.0
 13
147.7644415443
 23
146.6231029772
 33
0.0
  0
SOLID
  5
1B2
330
1AC
100
AcDbEntity
  8
VERMASSUNG
100
AcDbTrace
 10
218.8144415443
 20
146.1731029772
 30
0.0
 11
215.8144415443
 21
146.6231029772
 31
0.0
 12
215.8144415443
 22
145.7231029772
 32
0.0
 13
215.8144415443
 23
145.7231029772
 33
0.0
  0
LINE
  5
1B3
330
1AC
100
AcDbEntity
  8
VERMASSUNG
100
AcDbLine
 10
144.7644415443
 20
140.5342876092
 30
0.0
 11
144.7644415443
 21
147.1731029772
 31
0.0
  0
LINE
  5
1B4
330
1AC
100
AcDbEntity
  8
VERMASSUNG
100
AcDbLine
 10
218.8144415443
 20
130.2878472854
 30
0.0
 11
218.8144415443
 21
147.1731029772
 31
0.0
  0
LINE
  5
1B5
330
1AC
100
AcDbEntity
  8
VERMASSUNG
100
AcDbLine
 10
144.7644415443
 20
146.1731029772
 30
0.0
 11
218.8144415443
 21
146.1731029772
 31
0.0
  0
MTEXT
  5
1B6
330
1AC
100
AcDbEntity
  8
VERMASSUNG
100
AcDbMText
 10
178.5894416542
 20
148.751238806
 30
0.0
 40
2.0
 41
0.0
 71
     1
 72
     1
  1
74.05
  7
SLDTEXTSTYLE0
 73
     1
 44
1.0
  0
ENDBLK
  5
1AE
330
1AC
100
AcDbEntity
  8
0
100
AcDbBlockEnd
  0
BLOCK
  5
1B9
330
1B8
100
AcDbEntity
  8
0
100
AcDbBlockBegin
  2
_D_2
 70
     0
 10
0.0
 20
0.0
 30
0.0
  3
_D_2
  1

  0
SOLID
  5
1BB
330
1B8
100
AcDbEntity
  8
VERMASSUNG
100
AcDbTrace
 10
218.8144415443
 20
152.1731029772
 30
0.0
 11
215.8144415443
 21
152.6231029772
 31
0.0
 12
215.8144415443
 22
151.7231029772
 32
0.0
 13
215.8144415443
 23
151.7231029772
 33
0.0
  0
SOLID
  5
1BC
330
1B8
100
AcDbEntity
  8
VERMASSUNG
100
AcDbTrace
 10
118.8144415443
 20
152.1731029772
 30
0.0
 11
121.8144415443
 21
151.7231029772
 31
0.0
 12
121.8144415443
 22
152.6231029772
 32
0.0
 13
121.8144415443
 23
152.6231029772
 33
0.0
  0
LINE
  5
1BD
330
1B8
100
AcDbEntity
  8
VERMASSUNG
100
AcDbLine
 10
218.8144415443
 20
130.2878472854
 30
0.0
 11
218.8144415443
 21
153.1731029772
 31
0.0
  0
LINE
  5
1BE
330
1B8
100
AcDbEntity
  8
VERMASSUNG
100
AcDbLine
 10
118.8144415443
 20
141.8878472854
 30
0.0
 11
118.8144415443
 21
153.1731029772
 31
0.0
  0
LINE
  5
1BF
330
1B8
100
AcDbEntity
  8
VERMASSUNG
100
AcDbLine
 10
218.8144415443
 20
152.1731029772
 30
0.0
 11
118.8144415443
 21
152.1731029772
 31
0.0
  0
MTEXT
  5
1C0
330
1B8
100
AcDbEntity
  8
VERMASSUNG
100
AcDbMText
 10
166.9144415123
 20
154.7512385732
 30
0.0
 40
2.0
 41
0.0
 71
     1
 72
     1
  1
100
  7
SLDTEXTSTYLE0
 73
     1
 44
1.0
  0
ENDBLK
  5
1BA
330
1B8
100
AcDbEntity
  8
0
100
AcDbBlockEnd
  0
BLOCK
  5
1C3
330
1C2
100
AcDbEntity
  8
0
100
AcDbBlockBegin
  2
_D_3
 70
     0
 10
0.0
 20
0.0
 30
0.0
  3
_D_3
  1

  0
ARC
  5
1C5
330
1C2
100
AcDbEntity
  8
VERMASSUNG
100
AcDbCircle
 10
153.9644415674
 20
160.0731032421
 30
0.0
 40
4.248529228887633
100
AcDbArc
 50
153.4349488229
 51
206.5650511771
  0
ARC
  5
1C6
330
1C2
100
AcDbEntity
  8
VERMASSUNG
100
AcDbCircle
 10
151.7644415794
 20
160.0731032421
 30
0.0
 40
4.248529228887608
100
AcDbArc
 50
333.4349488229
 51
26.5650511771
  0
SOLID
  5
1C7
330
1C2
100
AcDbEntity
  8
VERMASSUNG
100
AcDbTrace
 10
218.8144415443
 20
158.1731029772
 30
0.0
 11
215.8144415443
 21
158.6231029772
 31
0.0
 12
215.8144415443
 22
157.7231029772
 32
0.0
 13
215.8144415443
 23
157.7231029772
 33
0.0
  0
SOLID
  5
1C8
330
1C2
100
AcDbEntity
  8
VERMASSUNG
100
AcDbTrace
 10
86.9144415443
 20
158.1731029772
 30
0.0
 11
89.9144415443
 21
157.7231029772
 31
0.0
 12
89.9144415443
 22
158.6231029772
 32
0.0
 13
89.9144415443
 23
158.6231029772
 33
0.0
  0
LINE
  5
1C9
330
1C2
100
AcDbEntity
  8
VERMASSUNG
100
AcDbLine
 10
218.8144415443
 20
130.2878472854
 30
0.0
 11
218.8144415443
 21
159.1731029772
 31
0.0
  0
LINE
  5
1CA
330
1C2
100
AcDbEntity
  8
VERMASSUNG
100
AcDbLine
 10
86.9144415443
 20
130.3785250319
 30
0.0
 11
86.9144415443
 21
159.1731029772
 31
0.0
  0
LINE
  5
1CB
330
1C2
100
AcDbEntity
  8
VERMASSUNG
100
AcDbLine
 10
218.8144415443
 20
158.1731029772
 30
0.0
 11
86.9144415443
 21
158.1731029772
 31
0.0
  0
MTEXT
  5
1CC
330
1C2
100
AcDbEntity
  8
VERMASSUNG
100
AcDbMText
 10
150.1644415034
 20
160.751238806
 30
0.0
 40
2.0
 41
0.0
 71
     1
 72
     1
  1
131.9
  7
SLDTEXTSTYLE0
 73
     1
 44
1.0
  0
ENDBLK
  5
1C4
330
1C2
100
AcDbEntity
  8
0
100
AcDbBlockEnd
  0
BLOCK
  5
1CF
330
1CE
100
AcDbEntity
  8
0
100
AcDbBlockBegin
  2
_D_4
 70
     0
 10
0.0
 20
0.0
 30
0.0
  3
_D_4
  1

  0
SOLID
  5
1D1
330
1CE
100
AcDbEntity
  8
VERMASSUNG
100
AcDbTrace
 10
228.3166864281
 20
121.6878472854
 30
0.0
 11
227.8666864281
 21
118.6878472854
 31
0.0
 12
228.7666864281
 22
118.6878472854
 32
0.0
 13
228.7666864281
 23
118.6878472854
 33
0.0
  0
SOLID
  5
1D2
330
1CE
100
AcDbEntity
  8
VERMASSUNG
100
AcDbTrace
 10
228.3166864281
 20
99.6878472854
 30
0.0
 11
228.7666864281
 21
102.6878472854
 31
0.0
 12
227.8666864281
 22
102.6878472854
 32
0.0
 13
227.8666864281
 23
102.6878472854
 33
0.0
  0
LINE
  5
1D3
330
1CE
100
AcDbEntity
  8
VERMASSUNG
100
AcDbLine
 10
217.8144415443
 20
121.6878472854
 30
0.0
 11
229.3166864281
 21
121.6878472854
 31
0.0
  0
LINE
  5
1D4
330
1CE
100
AcDbEntity
  8
VERMASSUNG
100
AcDbLine
 10
217.8144415443
 20
99.6878472854
 30
0.0
 11
229.3166864281
 21
99.6878472854
 31
0.0
  0
LINE
  5
1D5
330
1CE
100
AcDbEntity
  8
VERMASSUNG
100
AcDbLine
 10
228.3166864281
 20
121.6878472854
 30
0.0
 11
228.3166864281
 21
99.6878472854
 31
0.0
  0
MTEXT
  5
1D6
330
1CE
100
AcDbEntity
  8
VERMASSUNG
100
AcDbMText
 10
225.7385511232
 20
107.4828473282
 30
0.0
 40
2.0
 41
0.0
 71
     1
 72
     1
  1
%%c
  7
SLDTEXTSTYLE0
 11
-7.044195017643634E-15
 21
1.0
 31
0.0
 73
     1
 44
1.0
  0
MTEXT
  5
1D7
330
1CE
100
AcDbEntity
  8
VERMASSUNG
100
AcDbMText
 10
225.5385511719
 20
111.0928473425
 30
0.0
 40
2.0
 41
0.0
 71
     1
 72
     1
  1
22
  7
SLDTEXTSTYLE0
 11
-7.044195017643634E-15
 21
1.0
 31
0.0
 73
     1
 44
1.0
  0
ENDBLK
  5
1D0
330
1CE
100
AcDbEntity
  8
0
100
AcDbBlockEnd
  0
BLOCK
  5
1DA
330
1D9
100
AcDbEntity
  8
0
100
AcDbBlockBegin
  2
_D_5
 70
     0
 10
0.0
 20
0.0
 30
0.0
  3
_D_5
  1

  0
SOLID
  5
1DC
330
1D9
100
AcDbEntity
  8
VERMASSUNG
100
AcDbTrace
 10
234.4166864281
 20
130.6878472854
 30
0.0
 11
233.9666864281
 21
127.6878472854
 31
0.0
 12
234.8666864281
 22
127.6878472854
 32
0.0
 13
234.8666864281
 23
127.6878472854
 33
0.0
  0
SOLID
  5
1DD
330
1D9
100
AcDbEntity
  8
VERMASSUNG
100
AcDbTrace
 10
234.4166864281
 20
90.6878472854
 30
0.0
 11
234.8666864281
 21
93.6878472854
 31
0.0
 12
233.9666864281
 22
93.6878472854
 32
0.0
 13
233.9666864281
 23
93.6878472854
 33
0.0
  0
LINE
  5
1DE
330
1D9
100
AcDbEntity
  8
VERMASSUNG
100
AcDbLine
 10
218.4144415443
 20
130.6878472854
 30
0.0
 11
235.4166864281
 21
130.6878472854
 31
0.0
  0
LINE
  5
1DF
330
1D9
100
AcDbEntity
  8
VERMASSUNG
100
AcDbLine
 10
218.4144415443
 20
90.6878472854
 30
0.0
 11
235.4166864281
 21
90.6878472854
 31
0.0
  0
LINE
  5
1E0
330
1D9
100
AcDbEntity
  8
VERMASSUNG
100
AcDbLine
 10
234.4166864281
 20
130.6878472854
 30
0.0
 11
234.4166864281
 21
90.6878472854
 31
0.0
  0
MTEXT
  5
1E1
330
1D9
100
AcDbEntity
  8
VERMASSUNG
100
AcDbMText
 10
231.6385511719
 20
105.482847466
 30
0.0
 40
2.0
 41
0.0
 71
     1
 72
     1
  1
WH
  7
SLDTEXTSTYLE0
 11
-7.044195017643634E-15
 21
1.0
 31
0.0
 73
     1
 44
1.0
  0
MTEXT
  5
1E2
330
1D9
100
AcDbEntity
  8
VERMASSUNG
100
AcDbMText
 10
231.8385511232
 20
109.2828475301
 30
0.0
 40
2.0
 41
0.0
 71
     1
 72
     1
  1
%%c
  7
SLDTEXTSTYLE0
 11
-7.044195017643634E-15
 21
1.0
 31
0.0
 73
     1
 44
1.0
  0
MTEXT
  5
1E3
330
1D9
100
AcDbEntity
  8
VERMASSUNG
100
AcDbMText
 10
231.6385511719
 20
112.8928475444
 30
0.0
 40
2.0
 41
0.0
 71
     1
 72
     1
  1
40
  7
SLDTEXTSTYLE0
 11
-7.044195017643634E-15
 21
1.0
 31
0.0
 73
     1
 44
1.0
  0
ENDBLK
  5
1DB
330
1D9
100
AcDbEntity
  8
0
100
AcDbBlockEnd
  0
ENDSEC
  0
SECTION
  2
ENTITIES
  0
MTEXT
  5
78
330
1F
100
AcDbEntity
  8
KOPF_DÜNN
100
AcDbMText
 10
13.8892156294
 20
23.8442973028
 30
0.0
 40
3.0
 41
0.0
 71
     1
 72
     1
  1
A44.806.040.100
  7
SLDTEXTSTYLE0
 73
     1
 44
1.0
  0
MTEXT
  5
79
330
1F
100
AcDbEntity
  8
VERMASSUNG
100
AcDbMText
 10
13.9329988022
 20
28.8834360957
 30
0.0
 40
3.0
 41
0.0
 71
     1
 72
     1
  1
Aufnahme Master shank WH40
  7
SLDTEXTSTYLE0
 73
     1
 44
1.0
  0
MTEXT
  5
7A
330
1F
100
AcDbEntity
  8
VERMASSUNG
100
AcDbMText
 10
98.8601118557
 20
13.8365368761
 30
0.0
 40
2.0
 41
0.0
 71
     1
 72
     1
  1
Datum: 25.11.2011
  7
SLDTEXTSTYLE0
 73
     1
 44
1.0
  0
MTEXT
  5
7B
330
1F
100
AcDbEntity
  8
VERMASSUNG
100
AcDbMText
 10
13.933048693
 20
18.0482802738
 30
0.0
 40
2.0
 41
0.0
 71
     1
 72
     1
  1
DIN 69893
  7
SLDTEXTSTYLE0
 73
     1
 44
1.0
  0
MTEXT
  5
7C
330
1F
100
AcDbEntity
  8
VERMASSUNG
100
AcDbMText
 10
13.9808475933
 20
13.9090974274
 30
0.0
 40
2.0
 41
0.0
 71
     1
 72
     1
  1
Gewicht: 1267g
  7
SLDTEXTSTYLE0
 73
     1
 44
1.0
  0
LINE
  5
7D
330
1F
100
AcDbEntity
  8
0
  6
Continuous
 62
     7
370
    15
100
AcDbLine
 10
119.1144415443
 20
79.1878472854
 30
0.0
 11
123.7644415443
 21
79.1878472854
 31
0.0
  0
LINE
  5
7E
330
1F
100
AcDbEntity
  8
0
  6
Continuous
 62
     7
370
    15
100
AcDbLine
 10
123.7737496311
 20
142.1878472854
 30
0.0
 11
119.1144415443
 21
142.1878472854
 31
0.0
  0
ARC
  5
7F
330
1F
100
AcDbEntity
  8
0
  6
Continuous
 62
     7
370
    15
100
AcDbCircle
 10
119.1144415443
 20
79.4878472854
 30
0.0
 40
0.3000000000000114
100
AcDbArc
 50
180.0
 51
270.0
  0
ARC
  5
80
330
1F
100
AcDbEntity
  8
0
  6
Continuous
 62
     7
370
    15
100
AcDbCircle
 10
119.1144415443
 20
141.8878472854
 30
0.0
 40
0.3000000000000398
100
AcDbArc
 50
90.0
 51
180.0
  0
ARC
  5
81
330
1F
100
AcDbEntity
  8
0
  6
Continuous
 62
     7
370
    15
100
AcDbCircle
 10
118.3144347916
 20
86.117409671
 30
0.0
 40
0.6000067526677242
100
AcDbArc
 50
33.5571153394
 51
90.0
  0
ARC
  5
82
330
1F
100
AcDbEntity
  8
0
  6
Continuous
 62
     7
370
    15
100
AcDbCircle
 10
118.3144347916
 20
135.2582848998
 30
0.0
 40
0.6000067526677045
100
AcDbArc
 50
270.0
 51
326.4428846606
  0
LINE
  5
83
330
1F
100
AcDbEntity
  8
0
  6
Continuous
 62
     7
370
    15
100
AcDbLine
 10
116.8144415443
 20
86.4674164237
 30
0.0
 11
117.6711543177
 21
86.6969719195
 31
0.0
  0
LINE
  5
84
330
1F
100
AcDbEntity
  8
0
  6
Continuous
 62
     7
370
    15
100
AcDbLine
 10
117.6711543177
 20
134.6787226514
 30
0.0
 11
116.8144415443
 21
134.9082781472
 31
0.0
  0
LINE
  5
85
330
1F
100
AcDbEntity
  8
0
  6
Continuous
 62
     7
370
    15
100
AcDbLine
 10
105.5829327455
 20
134.3455773055
 30
0.0
 11
93.0144415443
 21
133.7158933776
 31
0.0
  0
LINE
  5
86
330
1F
100
AcDbEntity
  8
0
  6
Continuous
 62
     7
370
    15
100
AcDbLine
 10
116.8144415443
 20
134.9082781472
 30
0.0
 11
113.997439887
 21
134.7671457996
 31
0.0
  0
LINE
  5
87
330
1F
100
AcDbEntity
  8
0
  6
Continuous
 62
     7
370
    15
100
AcDbLine
 10
113.997495977
 20
86.6085459612
 30
0.0
 11
116.8144415443
 21
86.4674164237
 31
0.0
  0
LINE
  5
88
330
1F
100
AcDbEntity
  8
0
  6
Continuous
 62
     7
370
    15
100
AcDbLine
 10
97.0144415443
 20
87.4594003917
 30
0.0
 11
105.5833352642
 21
87.0300970991
 31
0.0
  0
ARC
  5
89
330
1F
100
AcDbEntity
  8
0
  6
Continuous
 62
     7
370
    15
100
AcDbCircle
 10
117.8264457447
 20
86.1174164237
 30
0.0
 40
0.5999999999999833
100
AcDbArc
 50
90.0
 51
105.0
  0
ARC
  5
8A
330
1F
100
AcDbEntity
  8
0
  6
Continuous
 62
     7
370
    15
100
AcDbCircle
 10
117.8264457447
 20
135.2582781472
 30
0.0
 40
0.5999999999999971
100
AcDbArc
 50
255.0
 51
270.0
  0
LINE
  5
8B
330
1F
100
AcDbEntity
  8
0
  6
Continuous
 62
     7
370
    15
100
AcDbLine
 10
117.8264457447
 20
86.7174164237
 30
0.0
 11
118.3144347916
 21
86.7174164237
 31
0.0
  0
LINE
  5
8C
330
1F
100
AcDbEntity
  8
0
  6
Continuous
 62
     7
370
    15
100
AcDbLine
 10
118.3144347916
 20
134.6582781472
 30
0.0
 11
117.8264457447
 21
134.6582781472
 31
0.0
  0
ARC
  5
8D
330
1F
100
AcDbEntity
  8
0
  6
Continuous
 62
     7
370
    15
100
AcDbCircle
 10
147.7644415443
 20
87.6878472854
 30
0.0
 40
2.999999999999986
100
AcDbArc
 50
90.0
 51
180.0
  0
ARC
  5
8E
330
1F
100
AcDbEntity
  8
0
  6
Continuous
 62
     7
370
    15
100
AcDbCircle
 10
147.7644415443
 20
133.6878472854
 30
0.0
 40
3.0
100
AcDbArc
 50
180.0
 51
270.0
  0
LINE
  5
8F
330
1F
100
AcDbEntity
  8
0
  6
Continuous
 62
     7
370
    15
100
AcDbLine
 10
218.4144415443
 20
90.6878472854
 30
0.0
 11
218.8144415443
 21
91.0878472854
 31
0.0
  0
LINE
  5
90
330
1F
100
AcDbEntity
  8
0
  6
Continuous
 62
     7
370
    15
100
AcDbLine
 10
218.8144415443
 20
130.2878472854
 30
0.0
 11
218.4144415443
 21
130.6878472854
 31
0.0
  0
LINE
  5
91
330
1F
100
AcDbEntity
  8
0
  6
Continuous
 62
     7
370
    15
100
AcDbLine
 10
200.5354348062
 20
130.6878472854
 30
0.0
 11
147.7644415443
 21
130.6878472854
 31
0.0
  0
LINE
  5
92
330
1F
100
AcDbEntity
  8
0
  6
Continuous
 62
     7
370
    15
100
AcDbLine
 10
218.4144415443
 20
130.6878472854
 30
0.0
 11
213.0025881001
 21
130.6878472854
 31
0.0
  0
LINE
  5
93
330
1F
100
AcDbEntity
  8
0
  6
Continuous
 62
     7
370
    15
100
AcDbLine
 10
147.7644415443
 20
90.6878472854
 30
0.0
 11
218.4144415443
 21
90.6878472854
 31
0.0
  0
LINE
  5
94
330
1F
100
AcDbEntity
  8
0
  6
Continuous
 62
     7
370
    15
100
AcDbLine
 10
88.1977781843
 20
89.8178472854
 30
0.0
 11
95.6144415443
 21
89.8178472854
 31
0.0
  0
ARC
  5
95
330
1F
100
AcDbEntity
  8
0
  6
Continuous
 62
     7
370
    15
100
AcDbCircle
 10
95.6144415443
 20
88.4178472854
 30
0.0
 40
1.400000000000006
100
AcDbArc
 50
42.2465410162
 51
90.0
  0
LINE
  5
96
330
1F
100
AcDbEntity
  8
0
  6
Continuous
 62
     7
370
    15
100
AcDbLine
 10
86.9154740385
 20
90.9668147913
 30
0.0
 11
88.0556050025
 21
89.8266838273
 31
0.0
  0
LINE
  5
97
330
1F
100
AcDbEntity
  8
0
  6
Continuous
 62
     7
370
    15
100
AcDbLine
 10
88.0556050025
 20
131.5490107436
 30
0.0
 11
86.9243423177
 21
130.4177480588
 31
0.0
  0
ARC
  5
98
330
1F
100
AcDbEntity
  8
0
  6
Continuous
 62
     7
370
    15
100
AcDbCircle
 10
91.6144415443
 20
132.9578472854
 30
0.0
 40
1.400000000000034
100
AcDbArc
 50
270.0
 51
301.7485287426
  0
LINE
  5
99
330
1F
100
AcDbEntity
  8
0
  6
Continuous
 62
     7
370
    15
100
AcDbLine
 10
91.6144415443
 20
131.5578472854
 30
0.0
 11
88.1887072782
 21
131.5578472854
 31
0.0
  0
LINE
  5
9A
330
1F
100
AcDbEntity
  8
0
  6
Continuous
 62
     7
370
    15
100
AcDbLine
 10
211.402316889
 20
130.3499719407
 30
0.0
 11
211.0644415443
 21
130.6878472854
 31
0.0
  0
LINE
  5
9B
330
1F
100
AcDbEntity
  8
0
  6
Continuous
 62
     7
370
    15
100
AcDbLine
 10
202.4644415443
 20
130.6878472854
 30
0.0
 11
202.1282056741
 21
130.3516114152
 31
0.0
  0
LINE
  5
9C
330
1F
100
AcDbEntity
  8
0
  6
Continuous
 62
     7
370
    15
100
AcDbLine
 10
144.7644415443
 20
81.1275698848
 30
0.0
 11
144.7644415443
 21
130.5378472854
 31
0.0
  0
SPLINE
  5
9D
330
1F
100
AcDbEntity
  8
0
  6
Continuous
 62
     7
370
    15
100
AcDbSpline
210
0.0
220
0.0
230
1.0
 70
     8
 71
     3
 72
    10
 73
     6
 74
     0
 42
0.000000001
 43
0.00000001
 40
0.0
 40
0.0
 40
0.0
 40
0.0
 40
0.5
 40
0.5
 40
1.0
 40
1.0
 40
1.0
 40
1.0
 10
144.7644415443
 20
81.12756988484574
 30
0.0
 10
144.7644415443
 20
80.96768261665207
 30
0.0
 10
144.7031318930641
 20
80.80655536113748
 30
0.0
 10
144.484032255529
 20
80.57245636278265
 30
0.0
 10
144.3259840492155
 20
80.50092958919141
 30
0.0
 10
144.1644415442999
 20
80.50092958919141
 30
0.0
  0
SPLINE
  5
9E
330
1F
100
AcDbEntity
  8
0
  6
Continuous
 62
     7
370
    15
100
AcDbSpline
210
0.0
220
0.0
230
1.0
 70
    24
 71
     3
 72
    12
 73
     8
 74
     0
 42
0.000000001
 43
0.00000001
 40
0.0
 40
0.0
 40
0.0
 40
0.0
 40
0.2500000000000033
 40
0.2500000000000033
 40
0.5000000000000067
 40
0.5000000000000067
 40
1.0
 40
1.0
 40
1.0
 40
1.0
 10
144.1644415442999
 20
130.5378472854386
 30
0.0
 10
144.254680611987
 20
130.5378472854386
 30
0.0
 10
144.3455787260935
 20
130.5378472854386
 30
0.0
 10
144.500175762582
 20
130.5378472854386
 30
0.0
 10
144.5651541786901
 20
130.5378472854386
 30
0.0
 10
144.7169892066264
 20
130.5378472854386
 30
0.0
 10
144.7644415443
 20
130.5378472854386
 30
0.0
 10
144.7644415443
 20
130.5378472854386
 30
0.0
  0
LINE
  5
9F
330
1F
100
AcDbEntity
  8
0
  6
Continuous
 62
     7
370
    15
100
AcDbLine
 10
144.1644415443
 20
80.5009295892
 30
0.0
 11
140.2063743758
 21
80.5009295892
 31
0.0
  0
LINE
  5
A0
330
1F
100
AcDbEntity
  8
0
  6
Continuous
 62
     7
370
    15
100
AcDbLine
 10
140.2063743758
 20
80.5009295892
 30
0.0
 11
140.2063743758
 21
130.5378472854
 31
0.0
  0
LINE
  5
A1
330
1F
100
AcDbEntity
  8
0
  6
Continuous
 62
     7
370
    15
100
AcDbLine
 10
140.2063743758
 20
130.5378472854
 30
0.0
 11
144.1644415443
 21
130.5378472854
 31
0.0
  0
SPLINE
  5
A2
330
1F
100
AcDbEntity
  8
0
  6
Continuous
 62
     7
370
    15
100
AcDbSpline
210
0.0
220
0.0
230
1.0
 70
     8
 71
     3
 72
     8
 73
     4
 74
     0
 42
0.000000001
 43
0.00000001
 40
0.0
 40
0.0
 40
0.0
 40
0.0
 40
1.0
 40
1.0
 40
1.0
 40
1.0
 10
140.206374375789
 20
80.50092958919141
 30
0.0
 10
139.7108947151233
 20
81.39645567712478
 30
0.0
 10
139.2167806670811
 20
82.29274009217701
 30
0.0
 10
138.7244415442999
 20
83.19001012638371
 30
0.0
  0
LINE
  5
A3
330
1F
100
AcDbEntity
  8
0
  6
Continuous
 62
     7
370
    15
100
AcDbLine
 10
138.7244415443
 20
83.1900101264
 30
0.0
 11
138.7244415443
 21
130.5378472854
 31
0.0
  0
SPLINE
  5
A4
330
1F
100
AcDbEntity
  8
0
  6
Continuous
 62
     7
370
    15
100
AcDbSpline
210
0.0
220
0.0
230
1.0
 70
    24
 71
     3
 72
     8
 73
     4
 74
     0
 42
0.000000001
 43
0.00000001
 40
0.0
 40
0.0
 40
0.0
 40
0.0
 40
1.0
 40
1.0
 40
1.0
 40
1.0
 10
138.7244415442999
 20
130.5378472854386
 30
0.0
 10
139.2043935386648
 20
130.5378472854386
 30
0.0
 10
139.6996942676385
 20
130.5378472854386
 30
0.0
 10
140.206374375789
 20
130.5378472854386
 30
0.0
  0
LINE
  5
A5
330
1F
100
AcDbEntity
  8
0
  6
Continuous
 62
     7
370
    15
100
AcDbLine
 10
123.7644415443
 20
130.5378472854
 30
0.0
 11
133.4225087128
 21
130.5378472854
 31
0.0
  0
LINE
  5
A6
330
1F
100
AcDbEntity
  8
0
  6
Continuous
 62
     7
370
    15
100
AcDbLine
 10
133.4225087128
 20
80.5009295892
 30
0.0
 11
133.4225087128
 21
130.5378472854
 31
0.0
  0
LINE
  5
A7
330
1F
100
AcDbEntity
  8
0
  6
Continuous
 62
     7
370
    15
100
AcDbLine
 10
133.4225087128
 20
80.5009295892
 30
0.0
 11
131.7644415443
 21
80.5009295892
 31
0.0
  0
SPLINE
  5
A8
330
1F
100
AcDbEntity
  8
0
  6
Continuous
 62
     7
370
    15
100
AcDbSpline
210
0.0
220
0.0
230
1.0
 70
     8
 71
     3
 72
    28
 73
    24
 74
     0
 42
0.000000001
 43
0.00000001
 40
0.0
 40
0.0
 40
0.0
 40
0.0
 40
0.1249999999999999
 40
0.1249999999999999
 40
0.1874999999999998
 40
0.1874999999999998
 40
0.2499999999999997
 40
0.2499999999999997
 40
0.3749999999999993
 40
0.3749999999999993
 40
0.4374999999999993
 40
0.4374999999999993
 40
0.4999999999999992
 40
0.4999999999999992
 40
0.6249999999999992
 40
0.6249999999999992
 40
0.7499999999999992
 40
0.7499999999999992
 40
0.8124999999999993
 40
0.8124999999999993
 40
0.8749999999999996
 40
0.8749999999999996
 40
1.0
 40
1.0
 40
1.0
 40
1.0
 10
131.7644415443
 20
80.50092958919141
 30
0.0
 10
131.232733786807
 20
80.50092958919141
 30
0.0
 10
130.7104952214967
 20
80.48514487524119
 30
0.0
 10
129.9406247352217
 20
80.44014946116499
 30
0.0
 10
129.6862651630303
 20
80.42159446608926
 30
0.0
 10
129.1821435823318
 20
80.37774174364277
 30
0.0
 10
128.9324207649039
 20
80.35239713669057
 30
0.0
 10
128.2068308134575
 20
80.26899505894046
 30
0.0
 10
127.7484705518759
 20
80.20312949978937
 30
0.0
 10
127.0979726084821
 20
80.0941591592976
 30
0.0
 10
126.8862905576896
 20
80.05591952353095
 30
0.0
 10
126.4822190685516
 20
79.97816078611159
 30
0.0
 10
126.2897125547308
 20
79.93865982393625
 30
0.0
 10
125.7398775837095
 20
79.81975208157023
 30
0.0
 10
125.4099488054007
 20
79.73993440014561
 30
0.0
 10
124.825477536832
 20
79.58659123834956
 30
0.0
 10
124.5792003988185
 20
79.5152574850803
 30
0.0
 10
124.2793576061205
 20
79.42131397800568
 30
0.0
 10
124.1909007490483
 20
79.39212018464575
 30
0.0
 10
124.0375393957432
 20
79.33865361038235
 30
0.0
 10
123.9724511815169
 20
79.31429427610718
 30
0.0
 10
123.8168571655761
 20
79.25070413066243
 30
0.0
 10
123.7644415442999
 20
79.22060119557317
 30
0.0
 10
123.7644415442999
 20
79.20372430257625
 30
0.0
  0
LINE
  5
A9
330
1F
100
AcDbEntity
  8
0
  6
Continuous
 62
     7
370
    15
100
AcDbLine
 10
123.7644415443
 20
79.2037243026
 30
0.0
 11
123.7644415443
 21
79.1878472854
 31
0.0
  0
SPLINE
  5
AA
330
1F
100
AcDbEntity
  8
0
  6
Continuous
 62
     7
370
    15
100
AcDbSpline
210
0.0
220
0.0
230
1.0
 70
     8
 71
     3
 72
    22
 73
    18
 74
     0
 42
0.000000001
 43
0.00000001
 40
0.0
 40
0.0
 40
0.0
 40
0.0
 40
0.0515773377536172
 40
0.1565264849943629
 40
0.2100197540385886
 40
0.2615951369298746
 40
0.3664424119934944
 40
0.4198226601719804
 40
0.4724528789006787
 40
0.5794488992297345
 40
0.6339397336480287
 40
0.6872670452602945
 40
0.7409741315029982
 40
0.795896881336183
 40
0.8512481408256363
 40
0.9034470736265864
 40
1.0
 40
1.0
 40
1.0
 40
1.0
 10
131.7644415443
 20
141.1550427586028
 30
0.0
 10
131.5476313482975
 20
141.1564393796714
 30
0.0
 10
130.8896575293827
 20
141.1606778339275
 30
0.0
 10
130.0145625520518
 20
141.2002101582819
 30
0.0
 10
129.1697370571949
 20
141.2631834051238
 30
0.0
 10
128.3500117735907
 20
141.3411974383789
 30
0.0
 10
127.5742217955623
 20
141.4380805662541
 30
0.0
 10
126.8567333342558
 20
141.54633997817
 30
0.0
 10
126.1774685870838
 20
141.6600583504745
 30
0.0
 10
125.5691536091748
 20
141.7765585354153
 30
0.0
 10
125.0490616684516
 20
141.8856587868324
 30
0.0
 10
124.7051714907355
 20
141.9616626845624
 30
0.0
 10
124.410217763008
 20
142.029696140484
 30
0.0
 10
124.1644434756668
 20
142.0884091912426
 30
0.0
 10
123.9785411666934
 20
142.1340245711763
 30
0.0
 10
123.8069445609697
 20
142.1769840227368
 30
0.0
 10
123.7868152857934
 20
142.1821450445389
 30
0.0
 10
123.7737496311197
 20
142.1854949976812
 30
0.0
  0
LINE
  5
AB
330
1F
100
AcDbEntity
  8
0
  6
Continuous
 62
     7
370
    15
100
AcDbLine
 10
133.4225087128
 20
141.1550427586
 30
0.0
 11
131.7644415443
 21
141.1550427586
 31
0.0
  0
LINE
  5
AC
330
1F
100
AcDbEntity
  8
0
  6
Continuous
 62
     7
370
    15
100
AcDbLine
 10
133.4225087128
 20
135.1465369478
 30
0.0
 11
133.4225087128
 21
141.1550427586
 31
0.0
  0
LINE
  5
AD
330
1F
100
AcDbEntity
  8
0
  6
Continuous
 62
     7
370
    15
100
AcDbLine
 10
131.01006189
 20
135.1465369478
 30
0.0
 11
133.4225087128
 21
135.1465369478
 31
0.0
  0
SPLINE
  5
AE
330
1F
100
AcDbEntity
  8
0
  6
Continuous
 62
     7
370
    15
100
AcDbSpline
210
0.0
220
0.0
230
1.0
 70
     8
 71
     3
 72
    20
 73
    16
 74
     0
 42
0.000000001
 43
0.00000001
 40
0.0
 40
0.0
 40
0.0
 40
0.0
 40
0.2499999999999995
 40
0.2499999999999995
 40
0.3749999999999996
 40
0.3749999999999996
 40
0.4999999999999997
 40
0.4999999999999997
 40
0.6249999999999998
 40
0.6249999999999998
 40
0.7499999999999998
 40
0.7499999999999998
 40
0.8749999999999999
 40
0.8749999999999999
 40
1.0
 40
1.0
 40
1.0
 40
1.0
 10
123.7644415442999
 20
130.5378472854386
 30
0.0
 10
124.012815278588
 20
131.191709713736
 30
0.0
 10
124.3323853709333
 20
131.7954954957331
 30
0.0
 10
124.9546916041379
 20
132.6223342319017
 30
0.0
 10
125.1861158645687
 20
132.8847628698547
 30
0.0
 10
125.7073302042184
 20
133.3814255239596
 30
0.0
 10
125.9939506868535
 20
133.6120124029812
 30
0.0
 10
126.6134354281611
 20
134.0285666275638
 30
0.0
 10
126.9477358076481
 20
134.2160644295313
 30
0.0
 10
127.6729962802728
 20
134.5474614071677
 30
0.0
 10
128.0549113376633
 20
134.686965394663
 30
0.0
 10
128.849699513835
 20
134.9124189021339
 30
0.0
 10
129.2638577080414
 20
134.9990450136776
 30
0.0
 10
130.1294040486228
 20
135.1170258025317
 30
0.0
 10
130.5672916636346
 20
135.146536947806
 30
0.0
 10
131.0100618899892
 20
135.146536947806
 30
0.0
  0
LINE
  5
AF
330
1F
100
AcDbEntity
  8
0
  6
Continuous
 62
     7
370
    15
100
AcDbLine
 10
118.8144415443
 20
79.4878472854
 30
0.0
 11
118.8144415443
 21
141.8878472851
 31
0.0
  0
LINE
  5
B0
330
1F
100
AcDbEntity
  8
0
  6
Continuous
 62
     7
370
    15
100
AcDbLine
 10
134.9044415443
 20
83.1900101264
 30
0.0
 11
134.9044415443
 21
130.5378472854
 31
0.0
  0
SPLINE
  5
B1
330
1F
100
AcDbEntity
  8
0
  6
Continuous
 62
     7
370
    15
100
AcDbSpline
210
0.0
220
0.0
230
1.0
 70
     8
 71
     3
 72
     8
 73
     4
 74
     0
 42
0.000000001
 43
0.00000001
 40
0.0
 40
0.0
 40
0.0
 40
0.0
 40
1.0
 40
1.0
 40
1.0
 40
1.0
 10
134.9044415442999
 20
83.19001012638371
 30
0.0
 10
134.4121024215188
 20
82.29274009217701
 30
0.0
 10
133.9179883734766
 20
81.39645567712478
 30
0.0
 10
133.4225087128109
 20
80.50092958919141
 30
0.0
  0
SPLINE
  5
B2
330
1F
100
AcDbEntity
  8
0
  6
Continuous
 62
     7
370
    15
100
AcDbSpline
210
0.0
220
0.0
230
1.0
 70
    24
 71
     3
 72
     8
 73
     4
 74
     0
 42
0.000000001
 43
0.00000001
 40
0.0
 40
0.0
 40
0.0
 40
0.0
 40
1.0
 40
1.0
 40
1.0
 40
1.0
 10
133.4225087128109
 20
130.5378472854386
 30
0.0
 10
133.9291888209614
 20
130.5378472854386
 30
0.0
 10
134.4244895499351
 20
130.5378472854386
 30
0.0
 10
134.9044415442999
 20
130.5378472854386
 30
0.0
  0
SPLINE
  5
B3
330
1F
100
AcDbEntity
  8
0
  6
Continuous
 62
     7
370
    15
100
AcDbSpline
210
0.0
220
0.0
230
1.0
 70
    24
 71
     3
 72
    14
 73
    10
 74
     0
 42
0.000000001
 43
0.00000001
 40
0.0
 40
0.0
 40
0.0
 40
0.0
 40
0.4999999999999982
 40
0.4999999999999982
 40
0.7499999999999973
 40
0.7499999999999973
 40
0.8749999999999987
 40
0.8749999999999987
 40
1.0
 40
1.0
 40
1.0
 40
1.0
 10
138.6267667419677
 20
84.28784728543859
 30
0.0
 10
138.5795565827378
 20
84.28784728543857
 30
0.0
 10
138.5163221091942
 20
84.28784728543859
 30
0.0
 10
138.3725101784663
 20
84.28784728543857
 30
0.0
 10
138.3171851039899
 20
84.28784728543857
 30
0.0
 10
138.2052739307548
 20
84.28784728543859
 30
0.0
 10
138.1624868443138
 20
84.28784728543859
 30
0.0
 10
138.0581215112802
 20
84.28784728543857
 30
0.0
 10
137.9938977169785
 20
84.28784728543859
 30
0.0
 10
137.9244415443554
 20
84.28784728543859
 30
0.0
  0
SPLINE
  5
B4
330
1F
100
AcDbEntity
  8
0
  6
Continuous
 62
     7
370
    15
100
AcDbSpline
210
0.0
220
0.0
230
1.0
 70
    24
 71
     3
 72
    12
 73
     8
 74
     0
 42
0.000000001
 43
0.00000001
 40
0.0
 40
0.0
 40
0.0
 40
0.0
 40
0.4999999999999983
 40
0.4999999999999983
 40
0.7499999999999991
 40
0.7499999999999991
 40
1.0
 40
1.0
 40
1.0
 40
1.0
 10
138.3301440126092
 20
137.0878472854386
 30
0.0
 10
138.2867058248062
 20
137.0878472854386
 30
0.0
 10
138.2375115765082
 20
137.0878472854386
 30
0.0
 10
138.1407928191272
 20
137.0878472854386
 30
0.0
 10
138.1046053376255
 20
137.0878472854386
 30
0.0
 10
138.0217274791008
 20
137.0878472854386
 30
0.0
 10
137.9737740317941
 20
137.0878472854386
 30
0.0
 10
137.9244415443
 20
137.0878472854386
 30
0.0
  0
SPLINE
  5
B5
330
1F
100
AcDbEntity
  8
0
  6
Continuous
 62
     7
370
    15
100
AcDbSpline
210
0.0
220
0.0
230
1.0
 70
     8
 71
     3
 72
    10
 73
     6
 74
     0
 42
0.000000001
 43
0.00000001
 40
0.0
 40
0.0
 40
0.0
 40
0.0
 40
0.5
 40
0.5
 40
1.0
 40
1.0
 40
1.0
 40
1.0
 10
138.7244415442999
 20
137.8075011364744
 30
0.0
 10
138.7244415442999
 20
137.6637310786566
 30
0.0
 10
138.6883924855811
 20
137.5213117161616
 30
0.0
 10
138.5528836248075
 20
137.2714174228047
 30
0.0
 10
138.4530076317117
 20
137.1633870865565
 30
0.0
 10
138.33014401261
 20
137.0878472854392
 30
0.0
  0
SPLINE
  5
B6
330
1F
100
AcDbEntity
  8
0
  6
Continuous
 62
     7
370
    15
100
AcDbSpline
210
0.0
220
0.0
230
1.0
 70
     8
 71
     3
 72
     9
 73
     5
 74
     0
 42
0.000000001
 43
0.00000001
 40
0.0
 40
0.0
 40
0.0
 40
0.0
 40
0.5
 40
1.0
 40
1.0
 40
1.0
 40
1.0
 10
138.6982939211398
 20
130.5378472854386
 30
0.0
 10
138.7070324910221
 20
130.584990085774
 30
0.0
 10
138.7200517773585
 20
130.6797861674445
 30
0.0
 10
138.7244415442999
 20
130.7755704390049
 30
0.0
 10
138.7244415442999
 20
130.8237139168999
 30
0.0
  0
SPLINE
  5
B7
330
1F
100
AcDbEntity
  8
0
  6
Continuous
 62
     7
370
    15
100
AcDbSpline
210
0.0
220
0.0
230
1.0
 70
     8
 71
     3
 72
    10
 73
     6
 74
     0
 42
0.000000001
 43
0.00000001
 40
0.0
 40
0.0
 40
0.0
 40
0.0
 40
0.5
 40
0.5
 40
1.0
 40
1.0
 40
1.0
 40
1.0
 10
135.2987390759909
 20
137.0878472854386
 30
0.0
 10
135.1771988123224
 20
137.1625734526504
 30
0.0
 10
135.0758644519734
 20
137.2715184685671
 30
0.0
 10
134.940225509085
 20
137.5219489493287
 30
0.0
 10
134.9044415442999
 20
137.6643683114277
 30
0.0
 10
134.9044415442999
 20
137.8075011364744
 30
0.0
  0
SPLINE
  5
B8
330
1F
100
AcDbEntity
  8
0
  6
Continuous
 62
     7
370
    15
100
AcDbSpline
210
0.0
220
0.0
230
1.0
 70
    24
 71
     3
 72
    12
 73
     8
 74
     0
 42
0.000000001
 43
0.00000001
 40
0.0
 40
0.0
 40
0.0
 40
0.0
 40
0.2500000000000021
 40
0.2500000000000021
 40
0.5000000000000041
 40
0.5000000000000041
 40
1.0
 40
1.0
 40
1.0
 40
1.0
 10
135.7044415443
 20
137.0878472854386
 30
0.0
 10
135.6545648619825
 20
137.0878472854386
 30
0.0
 10
135.6065616685789
 20
137.0878472854386
 30
0.0
 10
135.5235135658669
 20
137.0878472854386
 30
0.0
 10
135.4873839863991
 20
137.0878472854386
 30
0.0
 10
135.3914719554549
 20
137.0878472854386
 30
0.0
 10
135.3417132874861
 20
137.0878472854386
 30
0.0
 10
135.2987390759909
 20
137.0878472854386
 30
0.0
  0
SPLINE
  5
B9
330
1F
100
AcDbEntity
  8
0
  6
Continuous
 62
     7
370
    15
100
AcDbSpline
210
0.0
220
0.0
230
1.0
 70
    24
 71
     3
 72
    14
 73
    10
 74
     0
 42
0.000000001
 43
0.00000001
 40
0.0
 40
0.0
 40
0.0
 40
0.0
 40
0.1249999999999983
 40
0.1249999999999983
 40
0.2499999999999967
 40
0.2499999999999967
 40
0.4999999999999968
 40
0.4999999999999968
 40
1.0
 40
1.0
 40
1.0
 40
1.0
 10
135.7044415442999
 20
84.28784728543859
 30
0.0
 10
135.6360036964135
 20
84.28784728543859
 30
0.0
 10
135.5704536576484
 20
84.28784728543859
 30
0.0
 10
135.4660270182405
 20
84.28784728543857
 30
0.0
 10
135.4234824084791
 20
84.28784728543859
 30
0.0
 10
135.3108729479388
 20
84.28784728543859
 30
0.0
 10
135.2553339009193
 20
84.28784728543859
 30
0.0
 10
135.1127222054555
 20
84.28784728543857
 30
0.0
 10
135.0493168504598
 20
84.28784728543859
 30
0.0
 10
135.0021163466322
 20
84.28784728543859
 30
0.0
  0
SPLINE
  5
BA
330
1F
100
AcDbEntity
  8
0
  6
Continuous
 62
     7
370
    15
100
AcDbSpline
210
0.0
220
0.0
230
1.0
 70
     8
 71
     3
 72
    10
 73
     6
 74
     0
 42
0.000000001
 43
0.00000001
 40
0.0
 40
0.0
 40
0.0
 40
0.0
 40
0.5
 40
0.5
 40
1.0
 40
1.0
 40
1.0
 40
1.0
 10
134.9044415442999
 20
130.8237139168999
 30
0.0
 10
134.9044415442999
 20
130.7759424089067
 30
0.0
 10
134.9066027878971
 20
130.728232686845
 30
0.0
 10
134.9152741617573
 20
130.6329375692967
 30
0.0
 10
134.9218033447132
 20
130.5852450053301
 30
0.0
 10
134.9305891674601
 20
130.5378472854386
 30
0.0
  0
LINE
  5
BB
330
1F
100
AcDbEntity
  8
0
  6
Continuous
 62
     7
370
    15
100
AcDbLine
 10
137.9244415443
 20
137.0878472854
 30
0.0
 11
135.7044415443
 21
137.0878472854
 31
0.0
  0
LINE
  5
BC
330
1F
100
AcDbEntity
  8
0
  6
Continuous
 62
     7
370
    15
100
AcDbLine
 10
137.9244415443
 20
84.2878472854
 30
0.0
 11
135.7044415443
 21
84.2878472854
 31
0.0
  0
LINE
  5
BD
330
1F
100
AcDbEntity
  8
0
  6
Continuous
 62
     7
370
    15
100
AcDbLine
 10
116.8144415443
 20
86.4674164237
 30
0.0
 11
116.8144415443
 21
134.9082781472
 31
0.0
  0
LINE
  5
BE
330
1F
100
AcDbEntity
  8
0
  6
Continuous
 62
     7
370
    15
100
AcDbLine
 10
97.0144415443
 20
87.4594003917
 30
0.0
 11
97.0144415443
 21
88.7241097542
 31
0.0
  0
SPLINE
  5
BF
330
1F
100
AcDbEntity
  8
0
  6
Continuous
 62
     7
370
    15
100
AcDbSpline
210
0.0
220
0.0
230
1.0
 70
     8
 71
     3
 72
    14
 73
    10
 74
     0
 42
0.000000001
 43
0.00000001
 40
0.0
 40
0.0
 40
0.0
 40
0.0
 40
0.25
 40
0.25
 40
0.5
 40
0.5
 40
0.75
 40
0.75
 40
1.0
 40
1.0
 40
1.0
 40
1.0
 10
96.23615442638422
 20
89.85469596187863
 30
0.0
 10
96.2927811015863
 20
89.74699850804177
 30
0.0
 10
96.38730376187604
 20
89.64420892632245
 30
0.0
 10
96.57034873743828
 20
89.44585161410231
 30
0.0
 10
96.66197531439299
 20
89.34979210542406
 30
0.0
 10
96.82082863208619
 20
89.16226306271481
 30
0.0
 10
96.88871923970788
 20
89.07085408993126
 30
0.0
 10
96.98563626541547
 20
88.8924778690211
 30
0.0
 10
97.01444154430052
 20
88.80525596277492
 30
0.0
 10
97.01444154430051
 20
88.72410975424069
 30
0.0
  0
SPLINE
  5
C0
330
1F
100
AcDbEntity
  8
0
  6
Continuous
 62
     7
370
    15
100
AcDbSpline
210
0.0
220
0.0
230
1.0
 70
     8
 71
     3
 72
    14
 73
    10
 74
     0
 42
0.000000001
 43
0.00000001
 40
0.0
 40
0.0
 40
0.0
 40
0.0
 40
0.1249999999999979
 40
0.1249999999999979
 40
0.2499999999999958
 40
0.2499999999999958
 40
0.4999999999999948
 40
0.4999999999999948
 40
1.0
 40
1.0
 40
1.0
 40
1.0
 10
95.61444154429995
 20
90.30137782415795
 30
0.0
 10
95.66298595295711
 20
90.30712613743825
 30
0.0
 10
95.715901307742
 20
90.304025248782
 30
0.0
 10
95.81119665272506
 20
90.28183040461967
 30
0.0
 10
95.85144765001003
 20
90.26459817752381
 30
0.0
 10
95.95571766352299
 20
90.20827026107176
 30
0.0
 10
96.00603963867631
 20
90.16408391512596
 30
0.0
 10
96.13372258620167
 20
90.03307601627533
 30
0.0
 10
96.18980803326394
 20
89.94284149604503
 30
0.0
 10
96.23615442638568
 20
89.85469596187917
 30
0.0
  0
SPLINE
  5
C1
330
1F
100
AcDbEntity
  8
0
  6
Continuous
 62
     7
370
    15
100
AcDbSpline
210
0.0
220
0.0
230
1.0
 70
     8
 71
     3
 72
     8
 73
     4
 74
     0
 42
0.000000001
 43
0.00000001
 40
0.0
 40
0.0
 40
0.0
 40
0.0
 40
1.0
 40
1.0
 40
1.0
 40
1.0
 10
93.34591645135377
 20
89.99153253757517
 30
0.0
 10
94.08049347783671
 20
90.11015754864411
 30
0.0
 10
94.84396854723235
 20
90.2101434207804
 30
0.0
 10
95.61444154429995
 20
90.30137782415795
 30
0.0
  0
SPLINE
  5
C2
330
1F
100
AcDbEntity
  8
0
  6
Continuous
 62
     7
370
    15
100
AcDbSpline
210
0.0
220
0.0
230
1.0
 70
     8
 71
     3
 72
    14
 73
    10
 74
     0
 42
0.000000001
 43
0.00000001
 40
0.0
 40
0.0
 40
0.0
 40
0.0
 40
0.5000000000000019
 40
0.5000000000000019
 40
0.7500000000000018
 40
0.7500000000000018
 40
0.875000000000001
 40
0.875000000000001
 40
1.0
 40
1.0
 40
1.0
 40
1.0
 10
88.06444154429994
 20
89.81790952004351
 30
0.0
 10
88.95658767485352
 20
89.81718729384286
 30
0.0
 10
89.84656411064712
 20
89.82177350030032
 30
0.0
 10
91.17315927772276
 20
89.84949850469187
 30
0.0
 10
91.6140062062215
 20
89.86210504231603
 30
0.0
 10
92.27044644364393
 20
89.89312119032347
 30
0.0
 10
92.48846010023581
 20
89.90546436295026
 30
0.0
 10
92.92116895391858
 20
89.93848841811352
 30
0.0
 10
93.13644541908339
 20
89.95770558325198
 30
0.0
 10
93.34591645135379
 20
89.99153253757515
 30
0.0
  0
SPLINE
  5
C3
330
1F
100
AcDbEntity
  8
0
  6
Continuous
 62
     7
370
    15
100
AcDbSpline
210
0.0
220
0.0
230
1.0
 70
     8
 71
     3
 72
     8
 73
     4
 74
     0
 42
0.000000001
 43
0.00000001
 40
0.0000005163856998
 40
0.0000005163856998
 40
0.0000005163856998
 40
0.0000005163856998
 40
0.000026289209185
 40
0.000026289209185
 40
0.000026289209185
 40
0.000026289209185
 10
88.05439661389234
 20
89.82789339314029
 30
0.0
 10
88.05772435210015
 20
89.82455914627118
 30
0.0
 10
88.06107280507577
 20
89.82123118899587
 30
0.0
 10
88.06444154429994
 20
89.8179095200435
 30
0.0
  0
SPLINE
  5
C4
330
1F
100
AcDbEntity
  8
0
  6
Continuous
 62
     7
370
    15
100
AcDbSpline
210
0.0
220
0.0
230
1.0
 70
     8
 71
     3
 72
     8
 73
     4
 74
     0
 42
0.000000001
 43
0.00000001
 40
0.0000005099763573
 40
0.0000005099763573
 40
0.0000005099763573
 40
0.0000005099763573
 40
0.0000262827998699
 40
0.0000262827998699
 40
0.0000262827998699
 40
0.0000262827998699
 10
88.06444154429994
 20
131.5577850508336
 30
0.0
 10
88.06107280507219
 20
131.5544633818778
 30
0.0
 10
88.05772435209303
 20
131.5511354245989
 30
0.0
 10
88.0543966138817
 20
131.5478011777262
 30
0.0
  0
SPLINE
  5
C5
330
1F
100
AcDbEntity
  8
0
  6
Continuous
 62
     7
370
    15
100
AcDbSpline
210
0.0
220
0.0
230
1.0
 70
     8
 71
     3
 72
    10
 73
     6
 74
     0
 42
0.000000001
 43
0.00000001
 40
0.0
 40
0.0
 40
0.0
 40
0.0
 40
0.5
 40
0.5
 40
1.0
 40
1.0
 40
1.0
 40
1.0
 10
91.61444154429995
 20
131.5109346772663
 30
0.0
 10
91.02685599720937
 20
131.5320001975028
 30
0.0
 10
90.43610960374897
 20
131.542758683375
 30
0.0
 10
89.25209043845011
 20
131.5561234639106
 30
0.0
 10
88.65867645024466
 20
131.5582661065752
 30
0.0
 10
88.06444154429994
 20
131.5577850508336
 30
0.0
  0
SPLINE
  5
C6
330
1F
100
AcDbEntity
  8
0
  6
Continuous
 62
     7
370
    15
100
AcDbSpline
210
0.0
220
0.0
230
1.0
 70
     8
 71
     3
 72
    18
 73
    14
 74
     0
 42
0.000000001
 43
0.00000001
 40
0.0
 40
0.0
 40
0.0
 40
0.0
 40
0.2499999999999996
 40
0.2499999999999996
 40
0.5
 40
0.5
 40
0.7500000000000003
 40
0.7500000000000003
 40
0.8750000000000002
 40
0.8750000000000002
 40
0.9375000000000001
 40
0.9375000000000001
 40
1.0
 40
1.0
 40
1.0
 40
1.0
 10
93.01444154429996
 20
132.5319549578016
 30
0.0
 10
93.01444154429996
 20
132.4487480489444
 30
0.0
 10
92.97859244436168
 20
132.3600113936308
 30
0.0
 10
92.85372070832778
 20
132.1778862030706
 30
0.0
 10
92.7633202906799
 20
132.082756154444
 30
0.0
 10
92.54107763593773
 20
131.8935746453196
 30
0.0
 10
92.41131284949196
 20
131.7986294772249
 30
0.0
 10
92.17067539218043
 20
131.660350769645
 30
0.0
 10
92.08290809404299
 20
131.6146403363426
 30
0.0
 10
91.92838400683617
 20
131.5568170311211
 30
0.0
 10
91.87177312078143
 20
131.5391022670833
 30
0.0
 10
91.74772908987482
 20
131.5145629638503
 30
0.0
 10
91.68001441485654
 20
131.5085838253121
 30
0.0
 10
91.61444154429995
 20
131.5109346772663
 30
0.0
  0
LINE
  5
C7
330
1F
100
AcDbEntity
  8
0
  6
Continuous
 62
     7
370
    15
100
AcDbLine
 10
93.0144415443
 20
132.5319549578
 30
0.0
 11
93.0144415443
 21
133.7158933776
 31
0.0
  0
SPLINE
  5
C8
330
1F
100
AcDbEntity
  8
0
  6
Continuous
 62
     7
370
    15
100
AcDbSpline
210
0.0
220
0.0
230
1.0
 70
     8
 71
     3
 72
    24
 73
    20
 74
     0
 42
0.000000001
 43
0.00000001
 40
0.0
 40
0.0
 40
0.0
 40
0.0
 40
0.0010489762969683
 40
0.0637843125635315
 40
0.1272220590447826
 40
0.1903788924482514
 40
0.2526748653693586
 40
0.3146354154423437
 40
0.3770891997149696
 40
0.4393540298504715
 40
0.5008133242537849
 40
0.5621845104596535
 40
0.6248438451115941
 40
0.6874304766625864
 40
0.7496743174679406
 40
0.8119848426972686
 40
0.8750960525413011
 40
0.9384412526960678
 40
0.9999999999999999
 40
0.9999999999999999
 40
0.9999999999999999
 40
0.9999999999999999
 10
105.5833473762756
 20
87.03033885685844
 30
0.0
 10
105.5829009161714
 20
87.03028057103954
 30
0.0
 10
105.5557533524778
 20
87.0267364290972
 30
0.0
 10
105.6513651300917
 20
87.03957017377961
 30
0.0
 10
105.8849253879841
 20
87.06881685897979
 30
0.0
 10
106.2804796953015
 20
87.1154311820427
 30
0.0
 10
106.8075199991387
 20
87.16561432370193
 30
0.0
 10
107.4510504111291
 20
87.2099907861519
 30
0.0
 10
108.1897242663691
 20
87.2369355670899
 30
0.0
 10
108.987238771803
 20
87.24040741779677
 30
0.0
 10
109.8138176542498
 20
87.21278017376616
 30
0.0
 10
110.6393406718613
 20
87.15430128479349
 30
0.0
 10
111.4314672198651
 20
87.06885625543214
 30
0.0
 10
112.1640394938641
 20
86.96712201559583
 30
0.0
 10
112.7996797305933
 20
86.85927889362368
 30
0.0
 10
113.3215908375981
 20
86.75764873688492
 30
0.0
 10
113.7032196147149
 20
86.67516358020683
 30
0.0
 10
113.9540340849514
 20
86.61901437385688
 30
0.0
 10
113.9831556409348
 20
86.61216491524316
 30
0.0
 10
113.9975081617506
 20
86.60878916851496
 30
0.0
  0
SPLINE
  5
C9
330
1F
100
AcDbEntity
  8
0
  6
Continuous
 62
     7
370
    15
100
AcDbSpline
210
0.0
220
0.0
230
1.0
 70
     8
 71
     3
 72
    24
 73
    20
 74
     0
 42
0.000000001
 43
0.00000001
 40
0.0
 40
0.0
 40
0.0
 40
0.0
 40
0.0614384276249444
 40
0.1250736755369608
 40
0.1884253490728071
 40
0.2508623904037412
 40
0.3129665632509547
 40
0.3753451453465095
 40
0.4377328972323699
 40
0.4990927322917189
 40
0.5605807588447941
 40
0.6229469893028794
 40
0.6854686282026514
 40
0.7475477813740068
 40
0.809822506080335
 40
0.8730684085990212
 40
0.9364041844534696
 40
0.9991757196257863
 40
0.9999999999999999
 40
0.9999999999999999
 40
0.9999999999999999
 40
0.9999999999999999
 10
113.9974533909477
 20
134.766876259896
 30
0.0
 10
113.9828526666442
 20
134.7635082030434
 30
0.0
 10
113.9531291479161
 20
134.7566516595696
 30
0.0
 10
113.700391332268
 20
134.7003130390437
 30
0.0
 10
113.3173954158184
 20
134.6174559569137
 30
0.0
 10
112.7950398313818
 20
134.5155489269625
 30
0.0
 10
112.1602553533814
 20
134.4077097879187
 30
0.0
 10
111.4300317492095
 20
134.3062428359436
 30
0.0
 10
110.6395631639749
 20
134.2211831222527
 30
0.0
 10
109.8150796491465
 20
134.1629788283664
 30
0.0
 10
108.9880431902624
 20
134.1353953895397
 30
0.0
 10
108.1897189226106
 20
134.1388883670326
 30
0.0
 10
107.4498949583217
 20
134.1658442868857
 30
0.0
 10
106.8056407253469
 20
134.2101982288848
 30
0.0
 10
106.2782334701316
 20
134.2604036786428
 30
0.0
 10
105.883568867981
 20
134.3070135338411
 30
0.0
 10
105.6510395887916
 20
134.3362091263884
 30
0.0
 10
105.5556595562435
 20
134.3489871953299
 30
0.0
 10
105.5825931931445
 20
134.345432936822
 30
0.0
 10
105.5829422863689
 20
134.3453868692386
 30
0.0
  0
SPLINE
  5
CA
330
1F
100
AcDbEntity
  8
0
  6
Continuous
 62
     7
370
    15
100
AcDbSpline
210
0.0
220
0.0
230
1.0
 70
     8
 71
     3
 72
     9
 73
     5
 74
     0
 42
0.000000001
 43
0.00000001
 40
0.0
 40
0.0
 40
0.0
 40
0.0
 40
0.7009329310330055
 40
1.0
 40
1.0
 40
1.0
 40
1.0
 10
86.93522622853538
 20
90.98656698133595
 30
0.0
 10
86.9443655052107
 20
90.96873769579443
 30
0.0
 10
86.95740423726431
 20
90.94330118860216
 30
0.0
 10
86.9725694910296
 20
90.99718104879393
 30
0.0
 10
86.97710491902333
 20
91.01329474065786
 30
0.0
  0
LINE
  5
CB
330
1F
100
AcDbEntity
  8
0
  6
Continuous
 62
     7
370
    15
100
AcDbLine
 10
86.9144415443
 20
90.997169539
 30
0.0
 11
86.9144415443
 21
130.3785250319
 31
0.0
  0
SPLINE
  5
CC
330
1F
100
AcDbEntity
  8
0
  6
Continuous
 62
     7
370
    15
100
AcDbSpline
210
0.0
220
0.0
230
1.0
 70
     8
 71
     3
 72
    10
 73
     6
 74
     0
 42
0.000000001
 43
0.00000001
 40
0.0
 40
0.0
 40
0.0
 40
0.0
 40
0.5
 40
0.5
 40
1.0
 40
1.0
 40
1.0
 40
1.0
 10
86.97710491902336
 20
130.3623998302193
 30
0.0
 10
86.9682006299146
 20
130.4081413494325
 30
0.0
 10
86.95168524972162
 20
130.4253321889015
 30
0.0
 10
86.92457730366002
 20
130.4250089119658
 30
0.0
 10
86.91444154429995
 20
130.4071313696693
 30
0.0
 10
86.91444154429995
 20
130.3785250319168
 30
0.0
  0
SPLINE
  5
CD
330
1F
100
AcDbEntity
  8
0
  6
Continuous
 62
     7
370
    15
100
AcDbSpline
210
0.0
220
0.0
230
1.0
 70
     8
 71
     3
 72
    26
 73
    22
 74
     0
 42
0.000000001
 43
0.00000001
 40
0.0
 40
0.0
 40
0.0
 40
0.0
 40
0.249999999999996
 40
0.249999999999996
 40
0.3749999999999944
 40
0.3749999999999944
 40
0.4374999999999944
 40
0.4374999999999944
 40
0.4687499999999969
 40
0.4687499999999969
 40
0.4999999999999993
 40
0.4999999999999993
 40
0.5312500000000017
 40
0.5312500000000017
 40
0.5625000000000041
 40
0.5625000000000041
 40
0.625000000000004
 40
0.625000000000004
 40
0.7500000000000023
 40
0.7500000000000023
 40
1.0
 40
1.0
 40
1.0
 40
1.0
 10
87.73859519040444
 20
131.0779666190364
 30
0.0
 10
87.699994667536
 20
130.960191922681
 30
0.0
 10
87.6536976649817
 20
130.835802236519
 30
0.0
 10
87.5597583165478
 20
130.6305829041656
 30
0.0
 10
87.52444684963436
 20
130.5590100377191
 30
0.0
 10
87.45826687388869
 20
130.4430568051187
 30
0.0
 10
87.43372850722048
 20
130.4024722703085
 30
0.0
 10
87.39035576166665
 20
130.3383305884367
 30
0.0
 10
87.37484736024146
 20
130.3164641631517
 30
0.0
 10
87.33980471565442
 20
130.2708698948085
 30
0.0
 10
87.32025442493467
 20
130.247199603841
 30
0.0
 10
87.27832714456409
 20
130.2025830445011
 30
0.0
 10
87.25567503433244
 20
130.1817030319832
 30
0.0
 10
87.21470132024582
 20
130.1508296182324
 30
0.0
 10
87.1971020203504
 20
130.1409907484
 30
0.0
 10
87.15247503449422
 20
130.1220011327038
 30
0.0
 10
87.1319158118409
 20
130.1216768080504
 30
0.0
 10
87.08079037234423
 20
130.1309002489265
 30
0.0
 10
87.05987895935569
 20
130.1521471451435
 30
0.0
 10
87.00842905179474
 20
130.2261160239743
 30
0.0
 10
86.99076375249018
 20
130.292234117289
 30
0.0
 10
86.97710491902336
 20
130.3623998302193
 30
0.0
  0
SPLINE
  5
CE
330
1F
100
AcDbEntity
  8
0
  6
Continuous
 62
     7
370
    15
100
AcDbSpline
210
0.0
220
0.0
230
1.0
 70
     8
 71
     3
 72
    10
 73
     6
 74
     0
 42
0.000000001
 43
0.00000001
 40
0.0
 40
0.0
 40
0.0
 40
0.0
 40
0.5
 40
0.5
 40
1.0
 40
1.0
 40
1.0
 40
1.0
 10
88.05439661388174
 20
131.5478011777262
 30
0.0
 10
87.98683735896348
 20
131.4801097849165
 30
0.0
 10
87.923200703627
 20
131.4054026201628
 30
0.0
 10
87.81297994905513
 20
131.2464364877362
 30
0.0
 10
87.76616365583253
 20
131.1620812217282
 30
0.0
 10
87.73859519040444
 20
131.0779666190364
 30
0.0
  0
SPLINE
  5
CF
330
1F
100
AcDbEntity
  8
0
  6
Continuous
 62
     7
370
    15
100
AcDbSpline
210
0.0
220
0.0
230
1.0
 70
     8
 71
     3
 72
    10
 73
     6
 74
     0
 42
0.000000001
 43
0.00000001
 40
0.0
 40
0.0
 40
0.0
 40
0.0
 40
0.5
 40
0.5
 40
1.0
 40
1.0
 40
1.0
 40
1.0
 10
87.73859519040448
 20
90.29772795184063
 30
0.0
 10
87.76607260515846
 20
90.21389115537274
 30
0.0
 10
87.81278123544787
 20
90.1295806677836
 30
0.0
 10
87.92305969819385
 20
89.97045943729687
 30
0.0
 10
87.98694723680775
 20
89.89547469320725
 30
0.0
 10
88.05439661389235
 20
89.82789339314029
 30
0.0
  0
SPLINE
  5
D0
330
1F
100
AcDbEntity
  8
0
  6
Continuous
 62
     7
370
    15
100
AcDbSpline
210
0.0
220
0.0
230
1.0
 70
     8
 71
     3
 72
    24
 73
    20
 74
     0
 42
0.000000001
 43
0.00000001
 40
0.0
 40
0.0
 40
0.0
 40
0.0
 40
0.2500000000000114
 40
0.2500000000000114
 40
0.3750000000000163
 40
0.3750000000000163
 40
0.4375000000000177
 40
0.4375000000000177
 40
0.4687500000000166
 40
0.4687500000000166
 40
0.5000000000000155
 40
0.5000000000000155
 40
0.5625000000000157
 40
0.5625000000000157
 40
0.6250000000000157
 40
0.6250000000000157
 40
0.7500000000000099
 40
0.7500000000000099
 40
1.0
 40
1.0
 40
1.0
 40
1.0
 10
86.97710491902336
 20
91.01329474065786
 30
0.0
 10
86.99085803769356
 20
91.08394479864812
 30
0.0
 10
87.00863060509944
 20
91.15054291141305
 30
0.0
 10
87.0608816966548
 20
91.22464093164625
 30
0.0
 10
87.08191677223637
 20
91.24589873880781
 30
0.0
 10
87.13481717986483
 20
91.25404466495404
 30
0.0
 10
87.15592285274273
 20
91.25310486155827
 30
0.0
 10
87.20197502142068
 20
91.23208886998091
 30
0.0
 10
87.22034549340407
 20
91.2211800638733
 30
0.0
 10
87.26189712846978
 20
91.18854515292593
 30
0.0
 10
87.2844638012267
 20
91.16705317255457
 30
0.0
 10
87.34724481768674
 20
91.09858722896824
 30
0.0
 10
87.38037457865461
 20
91.05251277076314
 30
0.0
 10
87.43729226513963
 20
90.9675048824285
 30
0.0
 10
87.46147829064338
 20
90.9272245812471
 30
0.0
 10
87.52668624102314
 20
90.81228835478117
 30
0.0
 10
87.5614023012144
 20
90.74170536963416
 30
0.0
 10
87.65461757154526
 20
90.53749961055556
 30
0.0
 10
87.70029010690594
 20
90.4146012282282
 30
0.0
 10
87.73859519040448
 20
90.29772795184063
 30
0.0
  0
LINE
  5
D1
330
1F
100
AcDbEntity
  8
0
  6
Continuous
 62
     7
370
    15
100
AcDbLine
 10
218.8144415443
 20
110.6878472854
 30
0.0
 11
218.8144415443
 21
91.0878472854
 31
0.0
  0
LINE
  5
D2
330
1F
100
AcDbEntity
  8
0
  6
Continuous
 62
     7
370
    15
100
AcDbLine
 10
218.8144415443
 20
130.2878472854
 30
0.0
 11
218.8144415443
 21
110.6878472854
 31
0.0
  0
LINE
  5
D3
330
1F
100
AcDbEntity
  8
0
  6
Continuous
 62
     7
370
    15
100
AcDbLine
 10
218.4144415443
 20
110.6878472854
 30
0.0
 11
218.4144415443
 21
90.6878472854
 31
0.0
  0
LINE
  5
D4
330
1F
100
AcDbEntity
  8
0
  6
Continuous
 62
     7
370
    15
100
AcDbLine
 10
218.4144415443
 20
130.6878472854
 30
0.0
 11
218.4144415443
 21
110.6878472854
 31
0.0
  0
SPLINE
  5
D5
330
1F
100
AcDbEntity
  8
0
  6
Continuous
 62
     7
370
    15
100
AcDbSpline
210
0.0
220
0.0
230
1.0
 70
     8
 71
     3
 72
    27
 73
    23
 74
     0
 42
0.000000001
 43
0.00000001
 40
0.0
 40
0.0
 40
0.0
 40
0.0
 40
0.0094755149790916
 40
0.0552335167809363
 40
0.0970789766715528
 40
0.1400015331534205
 40
0.1846774098274231
 40
0.2303702970998512
 40
0.2810116210876493
 40
0.3328204291960564
 40
0.389672786021369
 40
0.4479914059491967
 40
0.5082002424342771
 40
0.5701177672069992
 40
0.6309363065051147
 40
0.6935646321281024
 40
0.7534187651691384
 40
0.8153072813720524
 40
0.8701820454296475
 40
0.9272353594654749
 40
0.9739917504996852
 40
1.0
 40
1.0
 40
1.0
 40
1.0
 10
213.0025881001314
 20
130.6850320433062
 30
0.0
 10
213.0062449581442
 20
130.6859004832232
 30
0.0
 10
213.0275610690744
 20
130.690962687318
 30
0.0
 10
212.9255476313189
 20
130.6666442579414
 30
0.0
 10
212.7013460137826
 20
130.6145330050056
 30
0.0
 10
212.352577705886
 20
130.5367897097141
 30
0.0
 10
211.8891706800077
 20
130.4401333693721
 30
0.0
 10
211.298737099903
 20
130.3279836546156
 30
0.0
 10
210.5865371844699
 20
130.2096544779807
 30
0.0
 10
209.7375736958751
 20
130.0936881452927
 30
0.0
 10
208.7778342826974
 20
129.9962506109125
 30
0.0
 10
207.7187342285514
 20
129.9318383955497
 30
0.0
 10
206.6033126441403
 20
129.9132405485247
 30
0.0
 10
205.4764864206312
 20
129.9465271852695
 30
0.0
 10
204.3715129482386
 20
130.0291279421507
 30
0.0
 10
203.3464377783824
 20
130.1494126768266
 30
0.0
 10
202.4161551654308
 20
130.2936049753592
 30
0.0
 10
201.6542102476911
 20
130.4361523579052
 30
0.0
 10
201.0600919807937
 20
130.5616816971203
 30
0.0
 10
200.6964932313847
 20
130.6446682162527
 30
0.0
 10
200.5223161385848
 20
130.6859655977728
 30
0.0
 10
200.5319804820185
 20
130.6836751668126
 30
0.0
 10
200.5354348061714
 20
130.682856498577
 30
0.0
  0
SPLINE
  5
D6
330
1F
100
AcDbEntity
  8
0
  6
Continuous
 62
     7
370
    15
100
AcDbSpline
210
0.0
220
0.0
230
1.0
 70
    11
 71
     3
 72
    88
 73
    84
 74
     0
 42
0.000000001
 43
0.00000001
 40
0.0
 40
0.0
 40
0.0
 40
0.0
 40
0.0312500000000005
 40
0.0312500000000005
 40
0.0625000000000011
 40
0.0625000000000011
 40
0.0937500000000016
 40
0.0937500000000016
 40
0.1093750000000024
 40
0.1093750000000024
 40
0.1250000000000032
 40
0.1250000000000032
 40
0.1562500000000037
 40
0.1562500000000037
 40
0.1718750000000034
 40
0.1718750000000034
 40
0.1875000000000031
 40
0.1875000000000031
 40
0.2187500000000024
 40
0.2187500000000024
 40
0.2343750000000026
 40
0.2343750000000026
 40
0.2500000000000028
 40
0.2500000000000028
 40
0.2812500000000032
 40
0.2812500000000032
 40
0.2968750000000033
 40
0.2968750000000033
 40
0.3125000000000035
 40
0.3125000000000035
 40
0.3437500000000033
 40
0.3437500000000033
 40
0.3593750000000032
 40
0.3593750000000032
 40
0.3750000000000032
 40
0.3750000000000032
 40
0.3906250000000031
 40
0.3906250000000031
 40
0.406250000000003
 40
0.406250000000003
 40
0.4375000000000029
 40
0.4375000000000029
 40
0.4531250000000028
 40
0.4531250000000028
 40
0.4687500000000027
 40
0.4687500000000027
 40
0.5000000000000026
 40
0.5000000000000026
 40
0.5312500000000023
 40
0.5312500000000023
 40
0.562500000000002
 40
0.562500000000002
 40
0.5937500000000018
 40
0.5937500000000018
 40
0.6250000000000016
 40
0.6250000000000016
 40
0.6562500000000013
 40
0.6562500000000013
 40
0.687500000000001
 40
0.687500000000001
 40
0.7187500000000008
 40
0.7187500000000008
 40
0.7500000000000006
 40
0.7500000000000006
 40
0.7812500000000003
 40
0.7812500000000003
 40
0.8125
 40
0.8125
 40
0.828125
 40
0.828125
 40
0.8437499999999999
 40
0.8437499999999999
 40
0.8749999999999997
 40
0.8749999999999997
 40
0.8906249999999996
 40
0.8906249999999996
 40
0.9062499999999996
 40
0.9062499999999996
 40
0.9374999999999996
 40
0.9374999999999996
 40
0.9687499999999998
 40
0.9687499999999998
 40
1.0
 40
1.0
 40
1.0
 40
1.0
 10
202.6071954311072
 20
114.7728506477674
 30
0.0
 10
202.9106703389349
 20
115.010843352202
 30
0.0
 10
203.2317357523111
 20
115.2167858733209
 30
0.0
 10
203.90612809736
 20
115.5710421294313
 30
0.0
 10
204.2615052144757
 20
115.7199216490733
 30
0.0
 10
204.9965958632504
 20
115.956457235494
 30
0.0
 10
205.3701220404348
 20
116.0425075448177
 30
0.0
 10
205.9390556756204
 20
116.1255200757744
 30
0.0
 10
206.1301499879821
 20
116.145461394287
 30
0.0
 10
206.5152876962244
 20
116.169661273816
 30
0.0
 10
206.7101658599628
 20
116.1738604054986
 30
0.0
 10
207.2895516279465
 20
116.1624415099243
 30
0.0
 10
207.6708329537495
 20
116.1234107077651
 30
0.0
 10
208.2354444913531
 20
116.0184722418207
 30
0.0
 10
208.4224230252813
 20
115.9757133624601
 30
0.0
 10
208.7938676846982
 20
115.8741587822294
 30
0.0
 10
208.9790178370985
 20
115.8150508432232
 30
0.0
 10
209.5204259411892
 20
115.6163374974725
 30
0.0
 10
209.8655562028735
 20
115.4550407660085
 30
0.0
 10
210.3594318582447
 20
115.1689023269701
 30
0.0
 10
210.5200613133057
 20
115.0661080384657
 30
0.0
 10
210.8329550316753
 20
114.8448427037355
 30
0.0
 10
210.9857037095612
 20
114.7258419046621
 30
0.0
 10
211.4208976455083
 20
114.3520293101034
 30
0.0
 10
211.6837270303554
 20
114.0786661681136
 30
0.0
 10
212.0348967025467
 20
113.6298100423899
 30
0.0
 10
212.1447209158881
 20
113.4736753975419
 30
0.0
 10
212.3487537077948
 20
113.1472255267055
 30
0.0
 10
212.4426301291406
 20
112.9770682570596
 30
0.0
 10
212.6916483046111
 20
112.4591050065592
 30
0.0
 10
212.817605767774
 20
112.099312239705
 30
0.0
 10
212.9423065559652
 20
111.5361923543119
 30
0.0
 10
212.97318308276
 20
111.342971604538
 30
0.0
 10
213.0107695549947
 20
110.9570279885567
 30
0.0
 10
213.0176951953061
 20
110.7645501366261
 30
0.0
 10
213.0083961743559
 20
110.3805584586444
 30
0.0
 10
212.9921704742376
 20
110.1890446750967
 30
0.0
 10
212.9363935277701
 20
109.8069873593848
 30
0.0
 10
212.8964295992493
 20
109.6152639431284
 30
0.0
 10
212.7444255242746
 20
109.0553692079804
 30
0.0
 10
212.600822406153
 20
108.6993648616977
 30
0.0
 10
212.3260909314571
 20
108.1893415217244
 30
0.0
 10
212.2246393715568
 20
108.0238425775129
 30
0.0
 10
212.0069763875447
 20
107.7076976404486
 30
0.0
 10
211.8902722070354
 20
107.5560955431005
 30
0.0
 10
211.5176277869299
 20
107.1196534372629
 30
0.0
 10
211.2364488991735
 20
106.8511586761639
 30
0.0
 10
210.6353045545171
 20
106.3768515107328
 30
0.0
 10
210.3145134193967
 20
106.1691274983353
 30
0.0
 10
209.6338636973638
 20
105.809436256763
 30
0.0
 10
209.2763644767963
 20
105.6594238934538
 30
0.0
 10
208.547383321124
 20
105.4233603001516
 30
0.0
 10
208.1731871677555
 20
105.3358414211856
 30
0.0
 10
207.4049054209939
 20
105.222656745158
 30
0.0
 10
207.019316809245
 20
105.1984337983754
 30
0.0
 10
206.2519038864314
 20
105.2124663631754
 30
0.0
 10
205.8689890044972
 20
105.2505562651541
 30
0.0
 10
205.1048129559652
 20
105.3919788926662
 30
0.0
 10
204.7342774618669
 20
105.4933559733571
 30
0.0
 10
204.0167969886267
 20
105.7559056679567
 30
0.0
 10
203.6693400298134
 20
105.9172354270046
 30
0.0
 10
203.0004424089942
 20
106.3046461478934
 30
0.0
 10
202.689045384057
 20
106.5248537235025
 30
0.0
 10
202.1125074587153
 20
107.0194901573856
 30
0.0
 10
201.8462176279714
 20
107.2952146042232
 30
0.0
 10
201.3708534337906
 20
107.9037317006628
 30
0.0
 10
201.1687809891536
 20
108.2271039188676
 30
0.0
 10
200.921002164404
 20
108.7422829429903
 30
0.0
 10
200.8477012232409
 20
108.9190663721854
 30
0.0
 10
200.7210029371788
 20
109.2835216249247
 30
0.0
 10
200.667534120565
 20
109.4722353889813
 30
0.0
 10
200.5433210264736
 20
110.0383214060984
 30
0.0
 10
200.5062307257431
 20
110.4204110408598
 30
0.0
 10
200.5207954323348
 20
111.0007787533685
 30
0.0
 10
200.5377387674908
 20
111.1965702995953
 30
0.0
 10
200.5945630017235
 20
111.5798547961945
 30
0.0
 10
200.6343369533924
 20
111.7684414079293
 30
0.0
 10
200.7864375226146
 20
112.3254098238046
 30
0.0
 10
200.9338274736105
 20
112.6889490674884
 30
0.0
 10
201.3004907568374
 20
113.3657480790184
 30
0.0
 10
201.519189583921
 20
113.6810828000808
 30
0.0
 10
202.0233898022957
 20
114.2688566085363
 30
0.0
 10
202.3037205232795
 20
114.5348579433328
 30
0.0
 10
202.6071954311072
 20
114.7728506477674
 30
0.0
  0
LINE
  5
D7
330
1F
100
AcDbEntity
  8
0
  6
Continuous
 62
     7
370
    15
100
AcDbLine
 10
138.7244415443
 20
130.8237139169
 30
0.0
 11
138.7244415443
 21
131.737990953
 31
0.0
  0
SPLINE
  5
D8
330
1F
100
AcDbEntity
  8
0
  6
Continuous
 62
     7
370
    15
100
AcDbSpline
210
0.0
220
0.0
230
1.0
 70
     8
 71
     3
 72
     8
 73
     4
 74
     0
 42
0.000000001
 43
0.00000001
 40
0.0
 40
0.0
 40
0.0
 40
0.0
 40
1.0
 40
1.0
 40
1.0
 40
1.0
 10
138.7244415442999
 20
131.7379909530219
 30
0.0
 10
139.2037196948898
 20
132.8790021828745
 30
0.0
 10
139.6992875340297
 20
134.0153865936423
 30
0.0
 10
140.206374375789
 20
135.146536947806
 30
0.0
  0
LINE
  5
D9
330
1F
100
AcDbEntity
  8
0
  6
Continuous
 62
     7
370
    15
100
AcDbLine
 10
140.2063743758
 20
135.1465369478
 30
0.0
 11
144.1644415443
 21
135.1465369478
 31
0.0
  0
SPLINE
  5
DA
330
1F
100
AcDbEntity
  8
0
  6
Continuous
 62
     7
370
    15
100
AcDbSpline
210
0.0
220
0.0
230
1.0
 70
     8
 71
     3
 72
    12
 73
     8
 74
     0
 42
0.000000001
 43
0.00000001
 40
0.0
 40
0.0
 40
0.0
 40
0.0
 40
0.249999999999998
 40
0.249999999999998
 40
0.499999999999996
 40
0.499999999999996
 40
1.0
 40
1.0
 40
1.0
 40
1.0
 10
144.1644415442999
 20
135.146536947806
 30
0.0
 10
144.2556412661256
 20
135.146536947806
 30
0.0
 10
144.3462362752616
 20
135.1183172492181
 30
0.0
 10
144.4996490017083
 20
135.02387424197
 30
0.0
 10
144.564857869032
 20
134.9575872652647
 30
0.0
 10
144.7176423983719
 20
134.7319624419764
 30
0.0
 10
144.7644415443
 20
134.5495361789439
 30
0.0
 10
144.7644415443
 20
134.368799546697
 30
0.0
  0
LINE
  5
DB
330
1F
100
AcDbEntity
  8
0
  6
Continuous
 62
     7
370
    15
100
AcDbLine
 10
144.7644415443
 20
134.3687995467
 30
0.0
 11
144.7644415443
 21
130.5378472854
 31
0.0
  0
SPLINE
  5
DC
330
1F
100
AcDbEntity
  8
0
  6
Continuous
 62
     7
370
    15
100
AcDbSpline
210
0.0
220
0.0
230
1.0
 70
     8
 71
     3
 72
     8
 73
     4
 74
     0
 42
0.000000001
 43
0.00000001
 40
0.0
 40
0.0
 40
0.0
 40
0.0
 40
1.0
 40
1.0
 40
1.0
 40
1.0
 10
134.9044415442999
 20
138.4930814766102
 30
0.0
 10
134.4117314474542
 20
139.3811004747366
 30
0.0
 10
133.9176487421752
 20
140.2683631104226
 30
0.0
 10
133.4225087128109
 20
141.1550427586028
 30
0.0
  0
SPLINE
  5
DD
330
1F
100
AcDbEntity
  8
0
  6
Continuous
 62
     7
370
    15
100
AcDbSpline
210
0.0
220
0.0
230
1.0
 70
     8
 71
     3
 72
     8
 73
     4
 74
     0
 42
0.000000001
 43
0.00000001
 40
0.0
 40
0.0
 40
0.0
 40
0.0
 40
1.0
 40
1.0
 40
1.0
 40
1.0
 10
133.4225087128109
 20
135.146536947806
 30
0.0
 10
133.9295955545701
 20
134.0153865936423
 30
0.0
 10
134.4251633937101
 20
132.8790021828745
 30
0.0
 10
134.9044415442999
 20
131.7379909530219
 30
0.0
  0
LINE
  5
DE
330
1F
100
AcDbEntity
  8
0
  6
Continuous
 62
     7
370
    15
100
AcDbLine
 10
134.9044415443
 20
131.737990953
 30
0.0
 11
134.9044415443
 21
138.4930814766
 31
0.0
  0
LINE
  5
DF
330
1F
100
AcDbEntity
  8
0
  6
Continuous
 62
     7
370
    15
100
AcDbLine
 10
144.1644415443
 20
141.1550427586
 30
0.0
 11
140.2063743758
 21
141.1550427586
 31
0.0
  0
LINE
  5
E0
330
1F
100
AcDbEntity
  8
0
  6
Continuous
 62
     7
370
    15
100
AcDbLine
 10
140.2063743758
 20
135.1465369478
 30
0.0
 11
140.2063743758
 21
141.1550427586
 31
0.0
  0
LINE
  5
E1
330
1F
100
AcDbEntity
  8
0
  6
Continuous
 62
     7
370
    15
100
AcDbLine
 10
134.9044415443
 20
131.737990953
 30
0.0
 11
134.9044415443
 21
130.8237139169
 31
0.0
  0
SPLINE
  5
E2
330
1F
100
AcDbEntity
  8
0
  6
Continuous
 62
     7
370
    15
100
AcDbSpline
210
0.0
220
0.0
230
1.0
 70
     8
 71
     3
 72
    10
 73
     6
 74
     0
 42
0.000000001
 43
0.00000001
 40
0.0
 40
0.0
 40
0.0
 40
0.0
 40
0.5
 40
0.5
 40
1.0
 40
1.0
 40
1.0
 40
1.0
 10
144.7644415443
 20
140.5342876092025
 30
0.0
 10
144.7644415442999
 20
140.6946928755533
 30
0.0
 10
144.7022037131931
 20
140.8537546885419
 30
0.0
 10
144.4830687894505
 20
141.0846671541722
 30
0.0
 10
144.3254800944587
 20
141.1550427586028
 30
0.0
 10
144.1644415442999
 20
141.1550427586028
 30
0.0
  0
LINE
  5
E3
330
1F
100
AcDbEntity
  8
0
  6
Continuous
 62
     7
370
    15
100
AcDbLine
 10
144.7644415443
 20
134.3687995467
 30
0.0
 11
144.7644415443
 21
140.5342876092
 31
0.0
  0
SPLINE
  5
E4
330
1F
100
AcDbEntity
  8
0
  6
Continuous
 62
     7
370
    15
100
AcDbSpline
210
0.0
220
0.0
230
1.0
 70
     8
 71
     3
 72
     8
 73
     4
 74
     0
 42
0.000000001
 43
0.00000001
 40
0.0
 40
0.0
 40
0.0
 40
0.0
 40
1.0
 40
1.0
 40
1.0
 40
1.0
 10
140.206374375789
 20
141.1550427586028
 30
0.0
 10
139.7112343464247
 20
140.2683631104226
 30
0.0
 10
139.2171516411457
 20
139.3811004747366
 30
0.0
 10
138.7244415442999
 20
138.4930814766102
 30
0.0
  0
LINE
  5
E5
330
1F
100
AcDbEntity
  8
0
  6
Continuous
 62
     7
370
    15
100
AcDbLine
 10
138.7244415443
 20
131.737990953
 30
0.0
 11
138.7244415443
 21
138.4930814766
 31
0.0
  0
LINE
  5
E6
330
1F
100
AcDbEntity
  8
0
  6
Continuous
 62
     7
370
    15
100
AcDbLine
 10
205.0170031673
 20
129.9878472854
 30
0.0
 11
208.5425253091
 21
129.9878472854
 31
0.0
  0
LINE
  5
E7
330
1F
100
AcDbEntity
  8
0
  6
Continuous
 62
     7
370
    15
100
AcDbLine
 10
202.4644415443
 20
130.6878472854
 30
0.0
 11
211.0644415443
 21
130.6878472854
 31
0.0
  0
SPLINE
  5
E8
330
1F
100
AcDbEntity
  8
0
  6
Continuous
 62
     7
370
    15
100
AcDbSpline
210
0.0
220
0.0
230
1.0
 70
    24
 71
     3
 72
    11
 73
     7
 74
     0
 42
0.000000001
 43
0.00000001
 40
0.0
 40
0.0
 40
0.0
 40
0.0
 40
0.2164543009644975
 40
0.4403089937225383
 40
0.7518987489759511
 40
1.0
 40
1.0
 40
1.0
 40
1.0
 10
205.7364946405702
 20
113.3853755052067
 30
0.0
 10
205.6116759239418
 20
113.2320031451293
 30
0.0
 10
205.3577710429968
 20
112.9200147520614
 30
0.0
 10
204.8865903120151
 20
112.3410462873499
 30
0.0
 10
204.381162005372
 20
111.7199957403352
 30
0.0
 10
204.0577174505746
 20
111.3225597142054
 30
0.0
 10
203.9143401266904
 20
111.1463832629512
 30
0.0
  0
SPLINE
  5
E9
330
1F
100
AcDbEntity
  8
0
  6
Continuous
 62
     7
370
    15
100
AcDbSpline
210
0.0
220
0.0
230
1.0
 70
    24
 71
     3
 72
    11
 73
     7
 74
     0
 42
0.000000001
 43
0.00000001
 40
0.0
 40
0.0
 40
0.0
 40
0.0
 40
0.1849308168246172
 40
0.5198464202157799
 40
0.8714438233692642
 40
1.0
 40
1.0
 40
1.0
 40
1.0
 10
203.9143401266903
 20
111.1463832629512
 30
0.0
 10
203.9741716591633
 20
110.9893739401037
 30
0.0
 10
204.1423600038975
 20
110.5480157293726
 30
0.0
 10
204.4563156675602
 20
109.7241363447339
 30
0.0
 10
204.7462665684294
 20
108.9632500240455
 30
0.0
 10
204.900888579238
 20
108.5574924542328
 30
0.0
 10
204.9422870304199
 20
108.4488550431829
 30
0.0
  0
SPLINE
  5
EA
330
1F
100
AcDbEntity
  8
0
  6
Continuous
 62
     7
370
    15
100
AcDbSpline
210
0.0
220
0.0
230
1.0
 70
    24
 71
     3
 72
    11
 73
     7
 74
     0
 42
0.000000001
 43
0.00000001
 40
0.0
 40
0.0
 40
0.0
 40
0.0
 40
0.2164543009645215
 40
0.4403089937225336
 40
0.7518987489759649
 40
1.0
 40
1.0
 40
1.0
 40
1.0
 10
204.9422870304199
 20
108.4488550431829
 30
0.0
 10
205.1375207487996
 20
108.4174450437536
 30
0.0
 10
205.5346630633548
 20
108.3535511632443
 30
0.0
 10
206.2716548272758
 20
108.2349809127961
 30
0.0
 10
207.0622145313463
 20
108.1077924329588
 30
0.0
 10
207.5681265037526
 20
108.0263992448535
 30
0.0
 10
207.7923884480294
 20
107.9903190656702
 30
0.0
  0
SPLINE
  5
EB
330
1F
100
AcDbEntity
  8
0
  6
Continuous
 62
     7
370
    15
100
AcDbSpline
210
0.0
220
0.0
230
1.0
 70
    24
 71
     3
 72
    11
 73
     7
 74
     0
 42
0.000000001
 43
0.00000001
 40
0.0
 40
0.0
 40
0.0
 40
0.0
 40
0.2164543009644977
 40
0.4403089937225404
 40
0.7518987489759383
 40
0.9999999999999999
 40
0.9999999999999999
 40
0.9999999999999999
 40
0.9999999999999999
 10
207.7923884480294
 20
107.9903190656702
 30
0.0
 10
207.9172071646579
 20
108.1436914257476
 30
0.0
 10
208.1711120456029
 20
108.4556798188155
 30
0.0
 10
208.6422927765847
 20
109.0346482835269
 30
0.0
 10
209.1477210832278
 20
109.6556988305416
 30
0.0
 10
209.4711656380252
 20
110.0531348566715
 30
0.0
 10
209.6145429619095
 20
110.2293113079257
 30
0.0
  0
SPLINE
  5
EC
330
1F
100
AcDbEntity
  8
0
  6
Continuous
 62
     7
370
    15
100
AcDbSpline
210
0.0
220
0.0
230
1.0
 70
    24
 71
     3
 72
    11
 73
     7
 74
     0
 42
0.000000001
 43
0.00000001
 40
0.0
 40
0.0
 40
0.0
 40
0.0
 40
0.1285561766307388
 40
0.4801535797842282
 40
0.8150691831753918
 40
1.0
 40
1.0
 40
1.0
 40
1.0
 10
209.6145429619095
 20
110.2293113079257
 30
0.0
 10
209.5731445107275
 20
110.3379487189756
 30
0.0
 10
209.4185224999188
 20
110.7437062887882
 30
0.0
 10
209.1285715990496
 20
111.5045926094766
 30
0.0
 10
208.814615935387
 20
112.3284719941153
 30
0.0
 10
208.6464275906527
 20
112.7698302048465
 30
0.0
 10
208.5865960581798
 20
112.9268395276939
 30
0.0
  0
CIRCLE
  5
ED
330
1F
100
AcDbEntity
  8
0
  6
Continuous
 62
     7
370
    15
100
AcDbCircle
 10
206.7644415443
 20
110.6878472854
 30
0.0
 40
3.0
  0
SPLINE
  5
EE
330
1F
100
AcDbEntity
  8
0
  6
Continuous
 62
     7
370
    15
100
AcDbSpline
210
0.0
220
0.0
230
1.0
 70
    24
 71
     3
 72
    11
 73
     7
 74
     0
 42
0.000000001
 43
0.00000001
 40
0.0
 40
0.0
 40
0.0
 40
0.0
 40
0.2164543009645226
 40
0.4403089937225427
 40
0.7518987489759432
 40
1.0
 40
1.0
 40
1.0
 40
1.0
 10
208.5865960581798
 20
112.9268395276939
 30
0.0
 10
208.3913623398002
 20
112.9582495271233
 30
0.0
 10
207.994220025245
 20
113.0221434076326
 30
0.0
 10
207.2572282613239
 20
113.1407136580807
 30
0.0
 10
206.4666685572534
 20
113.2679021379181
 30
0.0
 10
205.9607565848471
 20
113.3492953260234
 30
0.0
 10
205.7364946405702
 20
113.3853755052067
 30
0.0
  0
CIRCLE
  5
EF
330
1F
100
AcDbEntity
  8
0
  6
Continuous
 62
     7
370
    15
100
AcDbCircle
 10
206.7644415443
 20
110.6878472854
 30
0.0
 40
4.300000000000002
  0
CIRCLE
  5
F0
330
1F
100
AcDbEntity
  8
0
  6
Continuous
 62
     7
370
    15
100
AcDbCircle
 10
206.7644415443
 20
110.6878472854
 30
0.0
 40
5.000000000000012
  0
ARC
  5
F1
330
1F
100
AcDbEntity
  8
0
  6
Continuous
 62
     7
370
    15
100
AcDbCircle
 10
206.7644415443
 20
110.6878472854
 30
0.0
 40
2.500000000000041
100
AcDbArc
 50
140.860339578
 51
200.860339578
  0
ARC
  5
F2
330
1F
100
AcDbEntity
  8
0
  6
Continuous
 62
     7
370
    15
100
AcDbCircle
 10
206.7644415443
 20
110.6878472854
 30
0.0
 40
2.500000000000041
100
AcDbArc
 50
200.860339578
 51
260.860339578
  0
ARC
  5
F3
330
1F
100
AcDbEntity
  8
0
  6
Continuous
 62
     7
370
    15
100
AcDbCircle
 10
206.7644415443
 20
110.6878472854
 30
0.0
 40
2.500000000000033
100
AcDbArc
 50
80.860339578
 51
140.860339578
  0
ARC
  5
F4
330
1F
100
AcDbEntity
  8
0
  6
Continuous
 62
     7
370
    15
100
AcDbCircle
 10
206.7644415443
 20
110.6878472854
 30
0.0
 40
2.50000000000002
100
AcDbArc
 50
20.860339578
 51
80.860339578
  0
ARC
  5
F5
330
1F
100
AcDbEntity
  8
0
  6
Continuous
 62
     7
370
    15
100
AcDbCircle
 10
206.7644415443
 20
110.6878472854
 30
0.0
 40
2.500000000000011
100
AcDbArc
 50
260.860339578
 51
320.860339578
  0
ARC
  5
F6
330
1F
100
AcDbEntity
  8
0
  6
Continuous
 62
     7
370
    15
100
AcDbCircle
 10
206.7644415443
 20
110.6878472854
 30
0.0
 40
2.50000000000002
100
AcDbArc
 50
320.860339578
 51
20.860339578
  0
LINE
  5
F7
330
1F
100
AcDbEntity
  8
0
  6
HIDDEN
 62
     7
370
     0
100
AcDbLine
 10
133.4225087128
 20
135.1465369478
 30
0.0
 11
133.4225087128
 21
130.5378472854
 31
0.0
  0
LINE
  5
F8
330
1F
100
AcDbEntity
  8
0
  6
HIDDEN
 62
     7
370
     0
100
AcDbLine
 10
106.8095917489
 20
87.1632476626
 30
0.0
 11
106.5579341547
 21
87.1397260412
 31
0.0
  0
LINE
  5
F9
330
1F
100
AcDbEntity
  8
0
  6
HIDDEN
 62
     7
370
     0
100
AcDbLine
 10
106.435242536
 20
134.247278318
 30
0.0
 11
106.8094990286
 21
134.2124303154
 31
0.0
  0
SPLINE
  5
FA
330
1F
100
AcDbEntity
  8
0
  6
HIDDEN
 62
     7
370
     0
100
AcDbSpline
210
0.0
220
0.0
230
1.0
 70
     8
 71
     3
 72
    22
 73
    18
 74
     0
 42
0.000000001
 43
0.00000001
 40
0.0
 40
0.0
 40
0.0
 40
0.0
 40
0.069470503305567
 40
0.1409377255045835
 40
0.210413548914841
 40
0.2819466223559928
 40
0.3506518733998512
 40
0.4213897814436843
 40
0.4894670043894698
 40
0.5594810940348491
 40
0.6282706827033763
 40
0.6989997382187424
 40
0.7687375408512298
 40
0.8405098102584774
 40
0.9099666189318139
 40
0.9814998892127899
 40
1.0
 40
1.0
 40
1.0
 40
1.0
 10
112.5694435459015
 20
90.85031880962212
 30
0.0
 10
112.4212696914422
 20
90.87004514943143
 30
0.0
 10
112.1206631745311
 20
90.91006480285222
 30
0.0
 10
111.5857683118503
 20
90.96543846638208
 30
0.0
 10
111.0001297591815
 20
91.0098948515099
 30
0.0
 10
110.3858970996082
 20
91.03757982696204
 30
0.0
 10
109.75198045424
 20
91.04583308043192
 30
0.0
 10
109.1298317536682
 20
91.03385302555145
 30
0.0
 10
108.5238342838075
 20
91.00310227179048
 30
0.0
 10
107.959345362681
 20
90.95763630104028
 30
0.0
 10
107.4399691250993
 20
90.90155514924068
 30
0.0
 10
106.9871036274179
 20
90.84156498692228
 30
0.0
 10
106.6083884837522
 20
90.78358507256335
 30
0.0
 10
106.3203033626771
 20
90.73466626441687
 30
0.0
 10
106.1378454661245
 20
90.7016309018911
 30
0.0
 10
106.0571875147904
 20
90.68649110563547
 30
0.0
 10
106.0714773934893
 20
90.68916305900846
 30
0.0
 10
106.0744136859613
 20
90.68971209352026
 30
0.0
  0
SPLINE
  5
FB
330
1F
100
AcDbEntity
  8
0
  6
HIDDEN
 62
     7
370
     0
100
AcDbSpline
210
0.0
220
0.0
230
1.0
 70
     8
 71
     3
 72
    22
 73
    18
 74
     0
 42
0.000000001
 43
0.00000001
 40
0.0
 40
0.0
 40
0.0
 40
0.0
 40
0.0499040281125879
 40
0.1203075863893539
 40
0.1885125365560125
 40
0.2586444168297183
 40
0.327783940729315
 40
0.3988873214655093
 40
0.468696948893033
 40
0.5405663748364747
 40
0.6097087891223003
 40
0.6809159691092489
 40
0.7490773369981701
 40
0.8192056085539684
 40
0.8876078379088241
 40
0.9579332867310414
 40
1.0
 40
1.0
 40
1.0
 40
1.0
 10
106.0744136859613
 20
130.6859824773569
 30
0.0
 10
106.0756646199868
 20
130.6857434469612
 30
0.0
 10
106.0786803455511
 20
130.6851671974865
 30
0.0
 10
106.2035736726047
 20
130.661969162663
 30
0.0
 10
106.4280555004822
 20
130.6222891263454
 30
0.0
 10
106.7470836626597
 20
130.5700777049462
 30
0.0
 10
107.1546188936564
 20
130.5107478932739
 30
0.0
 10
107.6364054474893
 20
130.4512731167579
 30
0.0
 10
108.1868251292846
 20
130.3976667603959
 30
0.0
 10
108.7797200152329
 20
130.3571928419216
 30
0.0
 10
109.40667258555
 20
130.3339935935553
 30
0.0
 10
110.034883559378
 20
130.3310154903404
 30
0.0
 10
110.6591436518551
 20
130.3481498160397
 30
0.0
 10
111.2517619416834
 20
130.3828356717297
 30
0.0
 10
111.8085880252115
 20
130.4317920353935
 30
0.0
 10
112.2463948698444
 20
130.4816922000167
 30
0.0
 10
112.4814615766173
 20
130.5134785890084
 30
0.0
 10
112.5694435459015
 20
130.525375761255
 30
0.0
  0
SPLINE
  5
FC
330
1F
100
AcDbEntity
  8
0
  6
HIDDEN
 62
     7
370
     0
100
AcDbSpline
210
0.0
220
0.0
230
1.0
 70
     8
 71
     3
 72
    12
 73
     8
 74
     0
 42
0.000000001
 43
0.00000001
 40
0.0
 40
0.0
 40
0.0
 40
0.0
 40
0.220822239616518
 40
0.4480970101862093
 40
0.6689536278141427
 40
0.8961510028112478
 40
1.0
 40
1.0
 40
1.0
 40
1.0
 10
112.5694435459015
 20
130.525375761255
 30
0.0
 10
112.7014867521123
 20
130.5424328485241
 30
0.0
 10
112.9694315298719
 20
130.5770454392715
 30
0.0
 10
113.2645876517627
 20
130.6040173854796
 30
0.0
 10
113.4656798366186
 20
130.6195271101668
 30
0.0
 10
113.5630106847096
 20
130.6256362975636
 30
0.0
 10
113.5543531035697
 20
130.62509110873
 30
0.0
 10
113.5516372268981
 20
130.6249200834042
 30
0.0
  0
SPLINE
  5
FD
330
1F
100
AcDbEntity
  8
0
  6
HIDDEN
 62
     7
370
     0
100
AcDbSpline
210
0.0
220
0.0
230
1.0
 70
     8
 71
     3
 72
    12
 73
     8
 74
     0
 42
0.000000001
 43
0.00000001
 40
0.0
 40
0.0
 40
0.0
 40
0.0
 40
0.1181237309796437
 40
0.3465099096369231
 40
0.5687665618909852
 40
0.7975211382752565
 40
1.0
 40
1.0
 40
1.0
 40
1.0
 10
113.5516373040574
 20
90.75077448255531
 30
0.0
 10
113.5537608304427
 20
90.75064040422198
 30
0.0
 10
113.5599900862389
 20
90.75024709230419
 30
0.0
 10
113.4553232054239
 20
90.7568704822431
 30
0.0
 10
113.2453487305575
 20
90.77327491583176
 30
0.0
 10
112.9498904828952
 20
90.80087661335898
 30
0.0
 10
112.6910010141239
 20
90.83452142077049
 30
0.0
 10
112.5694435459015
 20
90.85031880962212
 30
0.0
  0
LINE
  5
FE
330
1F
100
AcDbEntity
  8
0
  6
HIDDEN
 62
     7
370
     0
100
AcDbLine
 10
202.6071954311
 20
130.2662220927
 30
0.0
 11
202.9876794048
 21
130.2103433026
 31
0.0
  0
CIRCLE
  5
FF
330
1F
100
AcDbEntity
  8
0
  6
HIDDEN
 62
     7
370
     0
100
AcDbCircle
 10
206.7644415443
 20
110.6878472854
 30
0.0
 40
4.5
  0
LINE
  5
100
330
1F
100
AcDbEntity
  8
0
  6
HIDDEN
 62
     7
370
     0
100
AcDbLine
 10
99.8184161405
 20
93.6878472854
 30
0.0
 11
99.8184161405
 21
127.6878472854
 31
0.0
  0
SPLINE
  5
101
330
1F
100
AcDbEntity
  8
0
  6
HIDDEN
 62
     7
370
     0
100
AcDbSpline
210
0.0
220
0.0
230
1.0
 70
     8
 71
     3
 72
     8
 73
     4
 74
     0
 42
0.000000001
 43
0.00000001
 40
0.0
 40
0.0
 40
0.0
 40
0.0
 40
0.0011559732291307
 40
0.0011559732291307
 40
0.0011559732291307
 40
0.0011559732291307
 10
86.91444154429993
 20
112.6876879040713
 30
0.0
 10
87.24777611936724
 20
112.6837206242717
 30
0.0
 10
87.58110731039397
 20
112.6795407416948
 30
0.0
 10
87.91444154429993
 20
112.6749755882867
 30
0.0
  0
SPLINE
  5
102
330
1F
100
AcDbEntity
  8
0
  6
HIDDEN
 62
     7
370
     0
100
AcDbSpline
210
0.0
220
0.0
230
1.0
 70
     8
 71
     3
 72
     8
 73
     4
 74
     0
 42
0.000000001
 43
0.00000001
 40
0.0
 40
0.0
 40
0.0
 40
0.0
 40
0.0011564765856723
 40
0.0011564765856723
 40
0.0011564765856723
 40
0.0011564765856723
 10
87.91444154429995
 20
108.6911469832214
 30
0.0
 10
87.58113361373108
 20
108.6902718276384
 30
0.0
 10
87.2477983813389
 20
108.6892169763872
 30
0.0
 10
86.91444154429993
 20
108.6880458893499
 30
0.0
  0
LINE
  5
103
330
1F
100
AcDbEntity
  8
0
  6
HIDDEN
 62
     7
370
     0
100
AcDbLine
 10
126.4742675128
 20
93.6878472854
 30
0.0
 11
126.4742675128
 21
127.6878472854
 31
0.0
  0
LINE
  5
104
330
1F
100
AcDbEntity
  8
0
  6
HIDDEN
 62
     7
370
     0
100
AcDbLine
 10
128.7644415443
 20
94.9628472854
 30
0.0
 11
128.7644415443
 21
126.4128472854
 31
0.0
  0
SPLINE
  5
105
330
1F
100
AcDbEntity
  8
0
  6
HIDDEN
 62
     7
370
     0
100
AcDbSpline
210
0.0
220
0.0
230
1.0
 70
     8
 71
     3
 72
    16
 73
    12
 74
     0
 42
0.000000001
 43
0.00000001
 40
0.0
 40
0.0
 40
0.0
 40
0.0
 40
0.124999999999998
 40
0.124999999999998
 40
0.249999999999996
 40
0.249999999999996
 40
0.4999999999999973
 40
0.4999999999999973
 40
0.7499999999999987
 40
0.7499999999999987
 40
1.0
 40
1.0
 40
1.0
 40
1.0
 10
95.61444154429995
 20
94.88635684940692
 30
0.0
 10
95.70956329896576
 20
94.88635684940692
 30
0.0
 10
95.80289336769384
 20
94.88254101601412
 30
0.0
 10
95.98615512843185
 20
94.86777046328432
 30
0.0
 10
96.07703284398886
 20
94.85661241530875
 30
0.0
 10
96.3338345415086
 20
94.81414114516701
 30
0.0
 10
96.48890190638059
 20
94.77309494796421
 30
0.0
 10
96.74264836793522
 20
94.67794883138232
 30
0.0
 10
96.84351881960308
 20
94.62318609730075
 30
0.0
 10
96.97876523429791
 20
94.51192497339686
 30
0.0
 10
97.01444154429994
 20
94.45475523606818
 30
0.0
 10
97.01444154429994
 20
94.40033366303446
 30
0.0
  0
SPLINE
  5
106
330
1F
100
AcDbEntity
  8
0
  6
HIDDEN
 62
     7
370
     0
100
AcDbSpline
210
0.0
220
0.0
230
1.0
 70
     8
 71
     3
 72
     8
 73
     4
 74
     0
 42
0.000000001
 43
0.00000001
 40
0.0
 40
0.0
 40
0.0
 40
0.0
 40
1.0
 40
1.0
 40
1.0
 40
1.0
 10
88.21444154439257
 20
97.03115979548916
 30
0.0
 10
88.21444154439449
 20
96.14726265317223
 30
0.0
 10
88.20096091848396
 20
95.43267940811029
 30
0.0
 10
88.19960955029285
 20
94.88635684940692
 30
0.0
  0
SPLINE
  5
107
330
1F
100
AcDbEntity
  8
0
  6
HIDDEN
 62
     7
370
     0
100
AcDbSpline
210
0.0
220
0.0
230
1.0
 70
     8
 71
     3
 72
    10
 73
     6
 74
     0
 42
0.000000001
 43
0.00000001
 40
0.0
 40
0.0
 40
0.0
 40
0.0
 40
0.5
 40
0.5
 40
1.0
 40
1.0
 40
1.0
 40
1.0
 10
87.91444154429995
 20
98.05607005491895
 30
0.0
 10
88.00583265896742
 20
97.88143126835084
 30
0.0
 10
88.07848449202751
 20
97.70782944218142
 30
0.0
 10
88.18598338388091
 20
97.36421602529457
 30
0.0
 10
88.21444154438691
 20
97.19589019978771
 30
0.0
 10
88.21444154439254
 20
97.03115979554865
 30
0.0
  0
LINE
  5
108
330
1F
100
AcDbEntity
  8
0
  6
HIDDEN
 62
     7
370
     0
100
AcDbLine
 10
87.9144415443
 20
101.0870205005
 30
0.0
 11
87.9144415443
 21
98.0560700549
 31
0.0
  0
SPLINE
  5
109
330
1F
100
AcDbEntity
  8
0
  6
HIDDEN
 62
     7
370
     0
100
AcDbSpline
210
0.0
220
0.0
230
1.0
 70
     8
 71
     3
 72
    10
 73
     6
 74
     0
 42
0.000000001
 43
0.00000001
 40
0.0
 40
0.0
 40
0.0
 40
0.0
 40
0.5
 40
0.5
 40
1.0
 40
1.0
 40
1.0
 40
1.0
 10
88.2144415443865
 20
102.4548609097958
 30
0.0
 10
88.2144415443865
 20
102.2128769435814
 30
0.0
 10
88.18629151562804
 20
101.9785345159228
 30
0.0
 10
88.08270160261281
 20
101.5231594961144
 30
0.0
 10
88.00607289381924
 20
101.3015549341968
 30
0.0
 10
87.91444154429995
 20
101.0870205004575
 30
0.0
  0
LINE
  5
10A
330
1F
100
AcDbEntity
  8
0
  6
HIDDEN
 62
     7
370
     0
100
AcDbLine
 10
88.2144415444
 20
114.292480907
 30
0.0
 11
88.2144415444
 21
102.4548609097
 31
0.0
  0
SPLINE
  5
10B
330
1F
100
AcDbEntity
  8
0
  6
HIDDEN
 62
     7
370
     0
100
AcDbSpline
210
0.0
220
0.0
230
1.0
 70
     8
 71
     3
 72
     8
 73
     4
 74
     0
 42
0.000000001
 43
0.00000001
 40
0.0
 40
0.0
 40
0.0
 40
0.0
 40
1.0
 40
1.0
 40
1.0
 40
1.0
 10
87.91444154429995
 20
120.2947865989441
 30
0.0
 10
88.09547300903877
 20
119.8626791154696
 30
0.0
 10
88.21444154439212
 20
119.4085337118208
 30
0.0
 10
88.21444154438645
 20
118.9208336610505
 30
0.0
  0
LINE
  5
10C
330
1F
100
AcDbEntity
  8
0
  6
HIDDEN
 62
     7
370
     0
100
AcDbLine
 10
87.9144415443
 20
123.3279895989
 30
0.0
 11
87.9144415443
 21
120.2947865989
 31
0.0
  0
SPLINE
  5
10D
330
1F
100
AcDbEntity
  8
0
  6
HIDDEN
 62
     7
370
     0
100
AcDbSpline
210
0.0
220
0.0
230
1.0
 70
     8
 71
     3
 72
    10
 73
     6
 74
     0
 42
0.000000001
 43
0.00000001
 40
0.0
 40
0.0
 40
0.0
 40
0.0
 40
0.5
 40
0.5
 40
1.0
 40
1.0
 40
1.0
 40
1.0
 10
88.2144415444055
 20
124.3445347753584
 30
0.0
 10
88.21444154440371
 20
124.1798984297651
 30
0.0
 10
88.18728287397867
 20
124.0127432069786
 30
0.0
 10
88.08151787991903
 20
123.6741202013162
 30
0.0
 10
88.00510309239823
 20
123.5018484251595
 30
0.0
 10
87.91444154429998
 20
123.3279895989089
 30
0.0
  0
SPLINE
  5
10E
330
1F
100
AcDbEntity
  8
0
  6
HIDDEN
 62
     7
370
     0
100
AcDbSpline
210
0.0
220
0.0
230
1.0
 70
     8
 71
     3
 72
    18
 73
    14
 74
     0
 42
0.000000001
 43
0.00000001
 40
0.0
 40
0.0
 40
0.0
 40
0.0
 40
0.2500000000000033
 40
0.2500000000000033
 40
0.3750000000000029
 40
0.3750000000000029
 40
0.5000000000000026
 40
0.5000000000000026
 40
0.6250000000000022
 40
0.6250000000000022
 40
0.7500000000000018
 40
0.7500000000000018
 40
1.0
 40
1.0
 40
1.0
 40
1.0
 10
93.01444154429994
 20
126.9753609078427
 30
0.0
 10
93.01444154429994
 20
126.9208863872905
 30
0.0
 10
92.97953085290777
 20
126.864505327938
 30
0.0
 10
92.87752155157472
 20
126.7804284870845
 30
0.0
 10
92.83588519689661
 20
126.7530947830936
 30
0.0
 10
92.73747940140787
 20
126.7001408674947
 30
0.0
 10
92.67993618970358
 20
126.6742535137775
 30
0.0
 10
92.55263801613063
 20
126.6264759689442
 30
0.0
 10
92.48305071137317
 20
126.6045280507663
 30
0.0
 10
92.33161646621821
 20
126.5650954858536
 30
0.0
 10
92.24893256312426
 20
126.5475392366278
 30
0.0
 10
91.99282110108621
 20
126.5051004712072
 30
0.0
 10
91.80490609719823
 20
126.4893377214702
 30
0.0
 10
91.61444154429995
 20
126.4893377214702
 30
0.0
  0
LINE
  5
10F
330
1F
100
AcDbEntity
  8
0
  6
HIDDEN
 62
     7
370
     0
100
AcDbLine
 10
91.6144415443
 20
126.4893377215
 30
0.0
 11
88.2144415444
 21
126.4893377215
 31
0.0
  0
LINE
  5
110
330
1F
100
AcDbEntity
  8
0
  6
HIDDEN
 62
     7
370
     0
100
AcDbLine
 10
88.1454725577
 20
94.8863568494
 30
0.0
 11
95.6144415443
 21
94.8863568494
 31
0.0
  0
SPLINE
  5
111
330
1F
100
AcDbEntity
  8
0
  6
HIDDEN
 62
     7
370
     0
100
AcDbSpline
210
0.0
220
0.0
230
1.0
 70
     8
 71
     3
 72
    22
 73
    18
 74
     0
 42
0.000000001
 43
0.00000001
 40
0.0
 40
0.0
 40
0.0
 40
0.0
 40
0.1249999999999998
 40
0.1249999999999998
 40
0.2499999999999997
 40
0.2499999999999997
 40
0.4999999999999991
 40
0.4999999999999991
 40
0.562499999999999
 40
0.562499999999999
 40
0.624999999999999
 40
0.624999999999999
 40
0.7499999999999993
 40
0.7499999999999993
 40
0.8749999999999997
 40
0.8749999999999997
 40
1.0
 40
1.0
 40
1.0
 40
1.0
 10
88.14547255765785
 20
94.88635684940692
 30
0.0
 10
88.1323901649295
 20
95.1414625595546
 30
0.0
 10
88.11917060148967
 20
95.43462081865852
 30
0.0
 10
88.09672342369556
 20
96.09692128428333
 30
0.0
 10
88.08724495667106
 20
96.4671952048947
 30
0.0
 10
88.06804699573453
 20
97.68975200800847
 30
0.0
 10
88.0691607687314
 20
98.62689093414035
 30
0.0
 10
88.0880715616845
 20
99.94676216365534
 30
0.0
 10
88.0927010895435
 20
100.2182640726316
 30
0.0
 10
88.10318230928945
 20
100.7766489074339
 30
0.0
 10
88.10897757057388
 20
101.0637717633736
 30
0.0
 10
88.12728679147881
 20
101.9363610177453
 30
0.0
 10
88.14132172575917
 20
102.5368166941011
 30
0.0
 10
88.17077889789599
 20
103.7742911865972
 30
0.0
 10
88.18633458887756
 20
104.4113073432406
 30
0.0
 10
88.21012913887445
 20
105.7227959409252
 30
0.0
 10
88.21814819101982
 20
106.3989185525857
 30
0.0
 10
88.21444154429994
 20
107.0832136638705
 30
0.0
  0
LINE
  5
112
330
1F
100
AcDbEntity
  8
0
  6
HIDDEN
 62
     7
370
     0
100
AcDbLine
 10
88.2144415444
 20
114.292480907
 30
0.0
 11
88.2144415444
 21
126.4893377215
 31
0.0
  0
SPLINE
  5
113
330
1F
100
AcDbEntity
  8
0
  6
HIDDEN
 62
     7
370
     0
100
AcDbSpline
210
0.0
220
0.0
230
1.0
 70
     8
 71
     3
 72
    10
 73
     6
 74
     0
 42
0.000000001
 43
0.00000001
 40
0.0
 40
0.0
 40
0.0
 40
0.0
 40
0.5
 40
0.5
 40
1.0
 40
1.0
 40
1.0
 40
1.0
 10
88.21444154429994
 20
107.0832136638554
 30
0.0
 10
88.21444154429975
 20
107.3571288119296
 30
0.0
 10
88.18868231443192
 20
107.6280703906596
 30
0.0
 10
88.08547638169878
 20
108.1637614722621
 30
0.0
 10
88.00813821782363
 20
108.429508275784
 30
0.0
 10
87.91444154429993
 20
108.6911469832214
 30
0.0
  0
SPLINE
  5
114
330
1F
100
AcDbEntity
  8
0
  6
HIDDEN
 62
     7
370
     0
100
AcDbSpline
210
0.0
220
0.0
230
1.0
 70
     8
 71
     3
 72
    10
 73
     6
 74
     0
 42
0.000000001
 43
0.00000001
 40
0.0
 40
0.0
 40
0.0
 40
0.0
 40
0.5
 40
0.5
 40
1.0
 40
1.0
 40
1.0
 40
1.0
 10
87.91444154429995
 20
112.6749755882868
 30
0.0
 10
88.0076721246512
 20
112.9388693948851
 30
0.0
 10
88.08270173618
 20
113.2050497039837
 30
0.0
 10
88.18776883415968
 20
113.7433722758026
 30
0.0
 10
88.21444154440428
 20
114.0161203904184
 30
0.0
 10
88.21444154440547
 20
114.2924809070057
 30
0.0
  0
LINE
  5
115
330
1F
100
AcDbEntity
  8
0
  6
HIDDEN
 62
     7
370
     0
100
AcDbLine
 10
87.9144415443
 20
108.6911469832
 30
0.0
 11
87.9144415443
 21
112.6749755883
 31
0.0
  0
LINE
  5
116
330
1F
100
AcDbEntity
  8
0
  6
HIDDEN
 62
     7
370
     0
100
AcDbLine
 10
190.3144415443
 20
110.6878472854
 30
0.0
 11
190.3144415443
 21
100.1878472854
 31
0.0
  0
LINE
  5
117
330
1F
100
AcDbEntity
  8
0
  6
HIDDEN
 62
     7
370
     0
100
AcDbLine
 10
190.3144415443
 20
121.1878472854
 30
0.0
 11
190.3144415443
 21
110.6878472854
 31
0.0
  0
LINE
  5
118
330
1F
100
AcDbEntity
  8
0
  6
HIDDEN
 62
     7
370
     0
100
AcDbLine
 10
88.0644415443
 20
92.6978472854
 30
0.0
 11
88.0644415443
 21
89.81790952
 31
0.0
  0
LINE
  5
119
330
1F
100
AcDbEntity
  8
0
  6
HIDDEN
 62
     7
370
     0
100
AcDbLine
 10
194.1804669481
 20
110.6878472854
 30
0.0
 11
194.1804669481
 21
99.6878472854
 31
0.0
  0
LINE
  5
11A
330
1F
100
AcDbEntity
  8
0
  6
HIDDEN
 62
     7
370
     0
100
AcDbLine
 10
194.1804669481
 20
121.6878472854
 30
0.0
 11
194.1804669481
 21
110.6878472854
 31
0.0
  0
SPLINE
  5
11B
330
1F
100
AcDbEntity
  8
0
  6
HIDDEN
 62
     7
370
     0
100
AcDbSpline
210
0.0
220
0.0
230
1.0
 70
     8
 71
     3
 72
    23
 73
    19
 74
     0
 42
0.000000001
 43
0.00000001
 40
0.0
 40
0.0
 40
0.0
 40
0.0
 40
0.0663917611561352
 40
0.1336798277661016
 40
0.2022846624051605
 40
0.2683958165822798
 40
0.3357637019118512
 40
0.4040012929088498
 40
0.4737006044641795
 40
0.5447193206971617
 40
0.6166951063189585
 40
0.6528945998079226
 40
0.6890944277862461
 40
0.7630728017630531
 40
0.8382766436292363
 40
0.9069360346813711
 40
0.9771726077242114
 40
1.0
 40
1.0
 40
1.0
 40
1.0
 10
206.7644415443
 20
120.7252772353809
 30
0.0
 10
206.9226562058914
 20
120.7274501333897
 30
0.0
 10
207.2412214667508
 20
120.7318252640761
 30
0.0
 10
207.7168252652122
 20
120.7669588864207
 30
0.0
 10
208.1790216324533
 20
120.8210735038509
 30
0.0
 10
208.6231543905329
 20
120.8930287835463
 30
0.0
 10
209.0439823324458
 20
120.9782578664497
 30
0.0
 10
209.4449563950832
 20
121.0747693355214
 30
0.0
 10
209.8210671542363
 20
121.1784602494665
 30
0.0
 10
210.167058537895
 20
121.2848065197402
 30
0.0
 10
210.4240598462449
 20
121.3709668991309
 30
0.0
 10
210.6080805228168
 20
121.4357984586526
 30
0.0
 10
210.7785318572332
 20
121.4976863186605
 30
0.0
 10
210.9619146005465
 20
121.5671009420887
 30
0.0
 10
211.1233186858599
 20
121.6306727467823
 30
0.0
 10
211.2224907217731
 20
121.6706839067255
 30
0.0
 10
211.2671493518596
 20
121.6889536305478
 30
0.0
 10
211.2599198044921
 20
121.6859991344763
 30
0.0
 10
211.2581464896203
 20
121.685274434636
 30
0.0
  0
LINE
  5
11C
330
1F
100
AcDbEntity
  8
0
  6
HIDDEN
 62
     7
370
     0
100
AcDbLine
 10
206.9520631182
 20
120.7297010168
 30
0.0
 11
206.6418318248
 21
120.7265774591
 31
0.0
  0
SPLINE
  5
11D
330
1F
100
AcDbEntity
  8
0
  6
HIDDEN
 62
     7
370
     0
100
AcDbSpline
210
0.0
220
0.0
230
1.0
 70
     8
 71
     3
 72
    26
 73
    22
 74
     0
 42
0.000000001
 43
0.00000001
 40
0.0
 40
0.0
 40
0.0
 40
0.0
 40
0.0469585282407803
 40
0.1086484384968584
 40
0.1639509897251339
 40
0.2204723427886792
 40
0.2778806406057637
 40
0.3314820725100259
 40
0.3861156061590814
 40
0.4414697254650455
 40
0.4975275286639605
 40
0.5546161825906871
 40
0.6124315903496931
 40
0.6422486544103005
 40
0.672065817625875
 40
0.7329010977674189
 40
0.7946543131492597
 40
0.85357241668437
 40
0.9138855029128449
 40
0.975266940133956
 40
1.0
 40
1.0
 40
1.0
 40
1.0
 10
202.5050575448477
 20
121.5917767239732
 30
0.0
 10
202.4635698200526
 20
121.6080598245221
 30
0.0
 10
202.3675792367731
 20
121.6457342047635
 30
0.0
 10
202.2895448548296
 20
121.6776167900157
 30
0.0
 10
202.2558565022524
 20
121.6913527636745
 30
0.0
 10
202.2766757539146
 20
121.6828300819396
 30
0.0
 10
202.3490319142508
 20
121.6533952576327
 30
0.0
 10
202.4695691606852
 20
121.6052859679735
 30
0.0
 10
202.6337747173605
 20
121.541531903438
 30
0.0
 10
202.8445949968645
 20
121.462796526718
 30
0.0
 10
203.1010519934555
 20
121.3718393791423
 30
0.0
 10
203.4019444808493
 20
121.2720448369406
 30
0.0
 10
203.6889726801862
 20
121.1847229909995
 30
0.0
 10
203.9400008224126
 20
121.1145265172395
 30
0.0
 10
204.2095439644386
 20
121.0438413176695
 30
0.0
 10
204.5727337732263
 20
120.9585764783223
 30
0.0
 10
205.0360454290783
 20
120.8694143535783
 30
0.0
 10
205.5229726051161
 20
120.7977943563768
 30
0.0
 10
206.0275216900128
 20
120.7480747736044
 30
0.0
 10
206.4462579742503
 20
120.7273459749563
 30
0.0
 10
206.6934462648122
 20
120.7257388266074
 30
0.0
 10
206.7644415443
 20
120.7252772353809
 30
0.0
  0
LINE
  5
11E
330
1F
100
AcDbEntity
  8
0
  6
HIDDEN
 62
     7
370
     0
100
AcDbLine
 10
97.0144415443
 20
92.6978472854
 30
0.0
 11
97.0144415443
 21
88.7241097542
 31
0.0
  0
LINE
  5
11F
330
1F
100
AcDbEntity
  8
0
  6
HIDDEN
 62
     7
370
     0
100
AcDbLine
 10
88.0644415443
 20
128.6778472854
 30
0.0
 11
88.0644415443
 21
131.5577850508
 31
0.0
  0
LINE
  5
120
330
1F
100
AcDbEntity
  8
0
  6
HIDDEN
 62
     7
370
     0
100
AcDbLine
 10
93.0144415443
 20
128.6778472854
 30
0.0
 11
93.0144415443
 21
132.5319549578
 31
0.0
  0
LINE
  5
121
330
1F
100
AcDbEntity
  8
0
  6
HIDDEN
 62
     7
370
     0
100
AcDbLine
 10
137.6144415443
 20
101.1878472854
 30
0.0
 11
137.6144415443
 21
120.1878472854
 31
0.0
  0
LINE
  5
122
330
1F
100
AcDbEntity
  8
0
  6
HIDDEN
 62
     7
370
     0
100
AcDbLine
 10
140.6144415443
 20
101.1878472854
 30
0.0
 11
140.6144415443
 21
120.1878472854
 31
0.0
  0
LINE
  5
123
330
1F
100
AcDbEntity
  8
0
  6
HIDDEN
 62
     7
370
     0
100
AcDbLine
 10
129.2644415443
 20
102.1878472854
 30
0.0
 11
129.2644415443
 21
119.1878472854
 31
0.0
  0
LINE
  5
124
330
1F
100
AcDbEntity
  8
0
  6
HIDDEN
 62
     7
370
     0
100
AcDbLine
 10
144.7644415443
 20
84.2878472854
 30
0.0
 11
138.626766742
 21
84.2878472854
 31
0.0
  0
LINE
  5
125
330
1F
100
AcDbEntity
  8
0
  6
HIDDEN
 62
     7
370
     0
100
AcDbLine
 10
123.7644415443
 20
79.2037243026
 30
0.0
 11
123.7644415443
 21
84.2878472854
 31
0.0
  0
LINE
  5
126
330
1F
100
AcDbEntity
  8
0
  6
HIDDEN
 62
     7
370
     0
100
AcDbLine
 10
131.7644415443
 20
84.2878472854
 30
0.0
 11
123.7644415443
 21
84.2878472854
 31
0.0
  0
LINE
  5
127
330
1F
100
AcDbEntity
  8
0
  6
HIDDEN
 62
     7
370
     0
100
AcDbLine
 10
135.0021163466
 20
84.2878472854
 30
0.0
 11
131.7644415443
 21
84.2878472854
 31
0.0
  0
LINE
  5
128
330
1F
100
AcDbEntity
  8
0
  6
HIDDEN
 62
     7
370
     0
100
AcDbLine
 10
135.298739076
 20
137.0878472854
 30
0.0
 11
131.7644415443
 21
137.0878472854
 31
0.0
  0
LINE
  5
129
330
1F
100
AcDbEntity
  8
0
  6
HIDDEN
 62
     7
370
     0
100
AcDbLine
 10
131.7644415443
 20
137.0878472854
 30
0.0
 11
123.7644415443
 21
137.0878472854
 31
0.0
  0
LINE
  5
12A
330
1F
100
AcDbEntity
  8
0
  6
HIDDEN
 62
     7
370
     0
100
AcDbLine
 10
144.7644415443
 20
137.0878472854
 30
0.0
 11
138.3301440126
 21
137.0878472854
 31
0.0
  0
SPLINE
  5
12B
330
1F
100
AcDbEntity
  8
0
  6
HIDDEN
 62
     7
370
     0
100
AcDbSpline
210
0.0
220
0.0
230
1.0
 70
     8
 71
     3
 72
    11
 73
     7
 74
     0
 42
0.000000001
 43
0.00000001
 40
0.0
 40
0.0
 40
0.0
 40
0.0
 40
0.0008203708524183
 40
0.0008203708524183
 40
0.0008203708524183
 40
0.0016409967870154
 40
0.0016409967870154
 40
0.0016409967870154
 40
0.0016409967870154
 10
88.06444154429994
 20
94.83581453479584
 30
0.0
 10
87.87328324400129
 20
94.79463550617672
 30
0.0
 10
87.6818561739291
 20
94.75588153394672
 30
0.0
 10
87.49021055040848
 20
94.71951377466819
 30
0.0
 10
87.29850514532802
 20
94.68313467090215
 30
0.0
 10
87.10656619326906
 20
94.64914042013459
 30
0.0
 10
86.91444154619823
 20
94.61749229474337
 30
0.0
  0
ELLIPSE
  5
12C
330
1F
100
AcDbEntity
  8
0
  6
HIDDEN
 62
     7
370
     0
100
AcDbEllipse
 10
82.6720096816
 20
110.6878472854
 30
0.0
 11
20.19992452771986
 21
-1.421085471520200E-14
 31
0.0
210
0.0
220
0.0
230
1.0
 40
0.816496581
 41
1.300566354937427
 42
1.359198697443033
  0
LINE
  5
12D
330
1F
100
AcDbEntity
  8
0
  6
HIDDEN
 62
     7
370
     0
100
AcDbLine
 10
97.0144415443
 20
92.6978472854
 30
0.0
 11
97.0144415443
 21
94.400333663
 31
0.0
  0
LINE
  5
12E
330
1F
100
AcDbEntity
  8
0
  6
HIDDEN
 62
     7
370
     0
100
AcDbLine
 10
88.0644415443
 20
92.6978472854
 30
0.0
 11
88.0644415443
 21
94.8358145348
 31
0.0
  0
LINE
  5
12F
330
1F
100
AcDbEntity
  8
0
  6
HIDDEN
 62
     7
370
     0
100
AcDbLine
 10
88.1454725577
 20
94.8863568494
 30
0.0
 11
88.0644415443
 21
94.8358145348
 31
0.0
  0
LINE
  5
130
330
1F
100
AcDbEntity
  8
0
  6
HIDDEN
 62
     7
370
     0
100
AcDbLine
 10
88.0644415443
 20
128.6778472854
 30
0.0
 11
88.0644415443
 21
126.5824717344
 31
0.0
  0
SPLINE
  5
131
330
1F
100
AcDbEntity
  8
0
  6
HIDDEN
 62
     7
370
     0
100
AcDbSpline
210
0.0
220
0.0
230
1.0
 70
     8
 71
     3
 72
     8
 73
     4
 74
     0
 42
0.000000001
 43
0.00000001
 40
0.0
 40
0.0
 40
0.0
 40
0.0
 40
1.0
 40
1.0
 40
1.0
 40
1.0
 10
88.06444154429994
 20
126.5824717344373
 30
0.0
 10
88.11444704214753
 20
126.5514359609045
 30
0.0
 10
88.16444711171603
 20
126.5203913165635
 30
0.0
 10
88.21444154440549
 20
126.4893377214702
 30
0.0
  0
LINE
  5
132
330
1F
100
AcDbEntity
  8
0
  6
HIDDEN
 62
     7
370
     0
100
AcDbLine
 10
93.0144415443
 20
128.6778472854
 30
0.0
 11
93.0144415443
 21
126.9753609078
 31
0.0
  0
LINE
  5
133
330
1F
100
AcDbEntity
  8
0
  6
HIDDEN
 62
     7
370
     0
100
AcDbLine
 10
206.7644415443
 20
128.9378472854
 30
0.0
 11
211.2644415443
 21
128.9378472854
 31
0.0
  0
LINE
  5
134
330
1F
100
AcDbEntity
  8
0
  6
HIDDEN
 62
     7
370
     0
100
AcDbLine
 10
202.2644415443
 20
128.9378472854
 30
0.0
 11
206.7644415443
 21
128.9378472854
 31
0.0
  0
LWPOLYLINE
  5
135
330
1F
100
AcDbEntity
  8
0
  6
HIDDEN
 62
     7
370
     0
100
AcDbPolyline
 90
       17
 70
   128
 43
0.0
 10
113.5631636124
 20
87.0878851324
 10
113.3344153073
 20
87.1489624101
 10
112.9973037723
 20
87.2266460597
 10
112.4786126502
 20
87.3356472842
 10
111.7368362416
 20
87.4657523184
 10
111.0066269268
 20
87.5663311293
 10
109.8352067756
 20
87.6789100816
 10
108.5136267918
 20
87.704993258
 10
107.825083884
 20
87.6838286117
 10
107.1749575304
 20
87.6398598089
 10
106.5943115195
 20
87.5828841571
 10
106.2583342243
 20
87.5421210485
 10
106.0644613551
 20
87.5092324608
 10
106.253460626
 20
87.5412819106
 10
106.5854482409
 20
87.5816979146
 10
107.1582987698
 20
87.6383747714
 10
107.1582987698
 20
87.6383747714
  0
SPLINE
  5
136
330
1F
100
AcDbEntity
  8
0
  6
HIDDEN
 62
     7
370
     0
100
AcDbSpline
210
0.0
220
0.0
230
1.0
 70
     8
 71
     3
 72
    27
 73
    23
 74
     0
 42
0.000000001
 43
0.00000001
 40
0.0
 40
0.0
 40
0.0
 40
0.0
 40
0.0007884410149895
 40
0.0456707458473202
 40
0.1022521510292747
 40
0.1705299269620253
 40
0.2091214214819441
 40
0.2506484693911965
 40
0.3210939224933846
 40
0.3861873572984194
 40
0.4266663207954118
 40
0.4647973981852623
 40
0.5006015501540148
 40
0.5451931092400921
 40
0.6016871053907696
 40
0.6700927653563788
 40
0.7088299171846099
 40
0.7505584706766246
 40
0.8222227262804502
 40
0.8877618493908351
 40
0.9472353307700537
 40
1.0
 40
1.0
 40
1.0
 40
1.0
 10
106.0650936669585
 20
133.8662649496681
 30
0.0
 10
106.0648769451496
 20
133.8663116661793
 30
0.0
 10
106.0523232518921
 20
133.8690177378741
 30
0.0
 10
106.1014058699997
 20
133.8571844118214
 30
0.0
 10
106.2465025117492
 20
133.8337420291646
 30
0.0
 10
106.5195571075163
 20
133.7998373185579
 30
0.0
 10
106.8480831962028
 20
133.7662686120366
 30
0.0
 10
107.2408110653106
 20
133.7280852494939
 30
0.0
 10
107.7905389956208
 20
133.6891165873187
 30
0.0
 10
108.4165616528634
 20
133.6696554801448
 30
0.0
 10
108.9597531613661
 20
133.6674698027482
 30
0.0
 10
109.4048220586279
 20
133.6759846838432
 30
0.0
 10
109.8712698548804
 20
133.6957680807666
 30
0.0
 10
110.4085105045658
 20
133.7399304664048
 30
0.0
 10
111.0567239326315
 20
133.8123460857312
 30
0.0
 10
111.6422625733684
 20
133.8932481816466
 30
0.0
 10
112.1232321621148
 20
133.9714141635571
 30
0.0
 10
112.568647169425
 20
134.0561863307216
 30
0.0
 10
113.0071461874648
 20
134.1499691941862
 30
0.0
 10
113.3461739959896
 20
134.2278736110177
 30
0.0
 10
113.5335329565433
 20
134.2780701757668
 30
0.0
 10
113.5540236967886
 20
134.2847371754655
 30
0.0
 10
113.5636566702959
 20
134.2878714219935
 30
0.0
  0
SPLINE
  5
137
330
1F
100
AcDbEntity
  8
0
  6
HIDDEN
 62
     7
370
     0
100
AcDbSpline
210
0.0
220
0.0
230
1.0
 70
     8
 71
     3
 72
     8
 73
     4
 74
     0
 42
0.000000001
 43
0.00000001
 40
0.0
 40
0.0
 40
0.0
 40
0.0
 40
0.0001590976915385
 40
0.0001590976915385
 40
0.0001590976915385
 40
0.0001590976915385
 10
88.19960955029285
 20
94.88635684940692
 30
0.0
 10
88.15455808086332
 20
94.85837796575626
 30
0.0
 10
88.10950204352356
 20
94.83040643605395
 30
0.0
 10
88.06444154429995
 20
94.80244209737386
 30
0.0
  0
SPLINE
  5
138
330
1F
100
AcDbEntity
  8
0
  6
HIDDEN
 62
     7
370
     0
100
AcDbSpline
210
0.0
220
0.0
230
1.0
 70
     8
 71
     3
 72
    11
 73
     7
 74
     0
 42
0.000000001
 43
0.00000001
 40
0.0
 40
0.0
 40
0.0
 40
0.0
 40
0.000821290931132
 40
0.000821290931132
 40
0.000821290931132
 40
0.0016428257242788
 40
0.0016428257242788
 40
0.0016428257242788
 40
0.0016428257242788
 10
88.06444154429994
 20
94.80244209737386
 30
0.0
 10
87.87329652281751
 20
94.75915590855222
 30
0.0
 10
87.68187818714092
 20
94.71821939894645
 30
0.0
 10
87.49023211247979
 20
94.67961762759198
 30
0.0
 10
87.29852903093818
 20
94.64100437378703
 30
0.0
 10
87.10658390765285
 20
94.60472416453378
 30
0.0
 10
86.91444154429995
 20
94.57075725821566
 30
0.0
  0
LINE
  5
139
330
1F
100
AcDbEntity
  8
0
  6
HIDDEN
 62
     7
370
     0
100
AcDbLine
 10
134.9044415443
 20
130.8237139169
 30
0.0
 11
134.9044415443
 21
130.5378472854
 31
0.0
  0
LINE
  5
13A
330
1F
100
AcDbEntity
  8
0
  6
HIDDEN
 62
     7
370
     0
100
AcDbLine
 10
138.7244415443
 20
130.8237139169
 30
0.0
 11
138.7244415443
 21
130.5378472854
 31
0.0
  0
LINE
  5
13B
330
1F
100
AcDbEntity
  8
0
  6
HIDDEN
 62
     7
370
     0
100
AcDbLine
 10
140.2063743758
 20
135.1465369478
 30
0.0
 11
140.2063743758
 21
130.5378472854
 31
0.0
  0
SPLINE
  5
13C
330
1F
100
AcDbEntity
  8
0
  6
HIDDEN
 62
     7
370
     0
100
AcDbSpline
210
0.0
220
0.0
230
1.0
 70
     8
 71
     3
 72
    24
 73
    20
 74
     0
 42
0.000000001
 43
0.00000001
 40
0.0
 40
0.0
 40
0.0
 40
0.0
 40
0.2500000000000114
 40
0.2500000000000114
 40
0.3750000000000163
 40
0.3750000000000163
 40
0.4375000000000177
 40
0.4375000000000177
 40
0.4687500000000166
 40
0.4687500000000166
 40
0.5000000000000155
 40
0.5000000000000155
 40
0.5625000000000157
 40
0.5625000000000157
 40
0.6250000000000157
 40
0.6250000000000157
 40
0.7500000000000099
 40
0.7500000000000099
 40
1.0
 40
1.0
 40
1.0
 40
1.0
 10
86.97710491902336
 20
91.01329474065786
 30
0.0
 10
86.99085803769356
 20
91.08394479864812
 30
0.0
 10
87.00863060509944
 20
91.15054291141305
 30
0.0
 10
87.0608816966548
 20
91.22464093164625
 30
0.0
 10
87.08191677223637
 20
91.24589873880781
 30
0.0
 10
87.13481717986483
 20
91.25404466495404
 30
0.0
 10
87.15592285274273
 20
91.25310486155827
 30
0.0
 10
87.20197502142068
 20
91.23208886998091
 30
0.0
 10
87.22034549340407
 20
91.2211800638733
 30
0.0
 10
87.26189712846978
 20
91.18854515292593
 30
0.0
 10
87.2844638012267
 20
91.16705317255457
 30
0.0
 10
87.34724481768674
 20
91.09858722896824
 30
0.0
 10
87.38037457865461
 20
91.05251277076314
 30
0.0
 10
87.43729226513963
 20
90.9675048824285
 30
0.0
 10
87.46147829064338
 20
90.9272245812471
 30
0.0
 10
87.52668624102314
 20
90.81228835478117
 30
0.0
 10
87.5614023012144
 20
90.74170536963416
 30
0.0
 10
87.65461757154526
 20
90.53749961055556
 30
0.0
 10
87.70029010690594
 20
90.4146012282282
 30
0.0
 10
87.73859519040448
 20
90.29772795184063
 30
0.0
  0
SPLINE
  5
13D
330
1F
100
AcDbEntity
  8
0
  6
HIDDEN
 62
     7
370
     0
100
AcDbSpline
210
0.0
220
0.0
230
1.0
 70
     8
 71
     3
 72
     8
 73
     4
 74
     0
 42
0.000000001
 43
0.00000001
 40
0.0
 40
0.0
 40
0.0
 40
0.0
 40
0.0011563724678166
 40
0.0011563724678166
 40
0.0011563724678166
 40
0.0011563724678166
 10
87.91444154429995
 20
123.3279895989089
 30
0.0
 10
87.5811204291028
 20
123.4570486245358
 30
0.0
 10
87.24778774829481
 20
123.5860089607095
 30
0.0
 10
86.91444154429993
 20
123.7149204904826
 30
0.0
  0
SPLINE
  5
13E
330
1F
100
AcDbEntity
  8
0
  6
HIDDEN
 62
     7
370
     0
100
AcDbSpline
210
0.0
220
0.0
230
1.0
 70
     8
 71
     3
 72
     8
 73
     4
 74
     0
 42
0.000000001
 43
0.00000001
 40
0.0000000000000001
 40
0.0000000000000001
 40
0.0000000000000001
 40
0.0000000000000001
 40
0.0011557494192775
 40
0.0011557494192775
 40
0.0011557494192775
 40
0.0011557494192775
 10
86.91444154429992
 20
97.66062542298772
 30
0.0
 10
87.24777535431407
 20
97.79224969918262
 30
0.0
 10
87.58110896597674
 20
97.92406661275608
 30
0.0
 10
87.91444154429995
 20
98.05607005491898
 30
0.0
  0
SPLINE
  5
13F
330
1F
100
AcDbEntity
  8
0
  6
HIDDEN
 62
     7
370
     0
100
AcDbSpline
210
0.0
220
0.0
230
1.0
 70
     8
 71
     3
 72
     8
 73
     4
 74
     0
 42
0.000000001
 43
0.00000001
 40
0.0000000000000006
 40
0.0000000000000006
 40
0.0000000000000006
 40
0.0000000000000006
 40
0.0011560973009451
 40
0.0011560973009451
 40
0.0011560973009451
 40
0.0011560973009451
 10
86.91444154429992
 20
120.6686617787256
 30
0.0
 10
87.24778128188666
 20
120.5439180464524
 30
0.0
 10
87.58111191509529
 20
120.4192368222754
 30
0.0
 10
87.91444154429995
 20
120.2947865989441
 30
0.0
  0
SPLINE
  5
140
330
1F
100
AcDbEntity
  8
0
  6
HIDDEN
 62
     7
370
     0
100
AcDbSpline
210
0.0
220
0.0
230
1.0
 70
     8
 71
     3
 72
     8
 73
     4
 74
     0
 42
0.000000001
 43
0.00000001
 40
0.0
 40
0.0
 40
0.0
 40
0.0
 40
0.0011564805411644
 40
0.0011564805411644
 40
0.0011564805411644
 40
0.0011564805411644
 10
87.91444154429995
 20
101.0870205004575
 30
0.0
 10
87.58113957889849
 20
100.9601695600232
 30
0.0
 10
87.24780276199184
 20
100.833604491161
 30
0.0
 10
86.91444154429998
 20
100.7072045175002
 30
0.0
  0
CIRCLE
  5
141
330
1F
100
AcDbEntity
  8
0
  6
HIDDEN
 62
     7
370
     0
100
AcDbCircle
 10
125.8144415443
 20
110.6878472854
 30
0.0
 40
5.0
  0
LINE
  5
142
330
1F
100
AcDbEntity
  8
0
  6
HIDDEN
 62
     7
370
     0
100
AcDbLine
 10
201.7644415443
 20
123.4653463602
 30
0.0
 11
211.7644415443
 21
123.4653463602
 31
0.0
  0
LINE
  5
143
330
1F
100
AcDbEntity
  8
0
  6
HIDDEN
 62
     7
370
     0
100
AcDbLine
 10
201.7644415443
 20
129.9878472854
 30
0.0
 11
205.0170031673
 21
129.9878472854
 31
0.0
  0
LINE
  5
144
330
1F
100
AcDbEntity
  8
0
  6
HIDDEN
 62
     7
370
     0
100
AcDbLine
 10
208.5425253091
 20
129.9878472854
 30
0.0
 11
211.7644415443
 21
129.9878472854
 31
0.0
  0
SPLINE
  5
145
330
1F
100
AcDbEntity
  8
0
  6
HIDDEN
 62
     7
370
     0
100
AcDbSpline
210
0.0
220
0.0
230
1.0
 70
     8
 71
     3
 72
    11
 73
     7
 74
     0
 42
0.000000001
 43
0.00000001
 40
0.0
 40
0.0
 40
0.0
 40
0.0
 40
0.2164543009645227
 40
0.4403089937225427
 40
0.7518987489759432
 40
1.0
 40
1.0
 40
1.0
 40
1.0
 10
208.5865960581798
 20
130.5745986313867
 30
0.0
 10
208.3913623398002
 20
130.4840505809907
 30
0.0
 10
207.994220025245
 20
130.2998587179702
 30
0.0
 10
207.2572282613239
 20
130.1463328128719
 30
0.0
 10
206.4666685572534
 20
130.2388941393824
 30
0.0
 10
205.9607565848471
 20
130.4714920421767
 30
0.0
 10
205.7364946405702
 20
130.5745986313867
 30
0.0
  0
SPLINE
  5
146
330
1F
100
AcDbEntity
  8
0
  6
HIDDEN
 62
     7
370
     0
100
AcDbSpline
210
0.0
220
0.0
230
1.0
 70
     8
 71
     3
 72
    11
 73
     7
 74
     0
 42
0.000000001
 43
0.00000001
 40
0.0
 40
0.0
 40
0.0
 40
0.0
 40
0.2164543009644974
 40
0.4403089937225384
 40
0.7518987489759512
 40
1.0
 40
1.0
 40
1.0
 40
1.0
 10
205.7364946405702
 20
130.5745986313867
 30
0.0
 10
205.6116759239418
 20
130.4840505809906
 30
0.0
 10
205.3577710429968
 20
130.2998587179702
 30
0.0
 10
204.8865903120151
 20
130.1463328128719
 30
0.0
 10
204.3811620053719
 20
130.2388941393824
 30
0.0
 10
204.0577174505746
 20
130.4714920421766
 30
0.0
 10
203.9143401266904
 20
130.5745986313867
 30
0.0
  0
SPLINE
  5
147
330
1F
100
AcDbEntity
  8
0
  6
HIDDEN
 62
     7
370
     0
100
AcDbSpline
210
0.0
220
0.0
230
1.0
 70
     8
 71
     3
 72
    11
 73
     7
 74
     0
 42
0.000000001
 43
0.00000001
 40
0.0
 40
0.0
 40
0.0
 40
0.0
 40
0.184930816824617
 40
0.5198464202157799
 40
0.8714438233692642
 40
1.0
 40
1.0
 40
1.0
 40
1.0
 10
203.9143401266904
 20
130.5745986313867
 30
0.0
 10
203.9741716591633
 20
130.4965938958729
 30
0.0
 10
204.1423600038975
 20
130.2773200981738
 30
0.0
 10
204.4563156675602
 20
130.1153157671537
 30
0.0
 10
204.7462665684294
 20
130.3136998137923
 30
0.0
 10
204.900888579238
 20
130.5194982257763
 30
0.0
 10
204.9422870304199
 20
130.5745986313867
 30
0.0
  0
SPLINE
  5
148
330
1F
100
AcDbEntity
  8
0
  6
HIDDEN
 62
     7
370
     0
100
AcDbSpline
210
0.0
220
0.0
230
1.0
 70
     8
 71
     3
 72
    11
 73
     7
 74
     0
 42
0.000000001
 43
0.00000001
 40
0.0
 40
0.0
 40
0.0
 40
0.0
 40
0.2164543009645215
 40
0.4403089937225335
 40
0.7518987489759648
 40
1.0
 40
1.0
 40
1.0
 40
1.0
 10
204.9422870304199
 20
130.5745986313867
 30
0.0
 10
205.1375207487996
 20
130.4840505809906
 30
0.0
 10
205.5346630633548
 20
130.2998587179702
 30
0.0
 10
206.2716548272759
 20
130.1463328128718
 30
0.0
 10
207.0622145313463
 20
130.2388941393824
 30
0.0
 10
207.5681265037526
 20
130.4714920421766
 30
0.0
 10
207.7923884480294
 20
130.5745986313867
 30
0.0
  0
SPLINE
  5
149
330
1F
100
AcDbEntity
  8
0
  6
HIDDEN
 62
     7
370
     0
100
AcDbSpline
210
0.0
220
0.0
230
1.0
 70
     8
 71
     3
 72
    11
 73
     7
 74
     0
 42
0.000000001
 43
0.00000001
 40
0.0
 40
0.0
 40
0.0
 40
0.0
 40
0.2164543009644978
 40
0.4403089937225404
 40
0.7518987489759382
 40
0.9999999999999999
 40
0.9999999999999999
 40
0.9999999999999999
 40
0.9999999999999999
 10
207.7923884480294
 20
130.5745986313867
 30
0.0
 10
207.9172071646579
 20
130.4840505809906
 30
0.0
 10
208.1711120456029
 20
130.2998587179702
 30
0.0
 10
208.6422927765847
 20
130.1463328128719
 30
0.0
 10
209.1477210832278
 20
130.2388941393824
 30
0.0
 10
209.4711656380252
 20
130.4714920421766
 30
0.0
 10
209.6145429619095
 20
130.5745986313867
 30
0.0
  0
SPLINE
  5
14A
330
1F
100
AcDbEntity
  8
0
  6
HIDDEN
 62
     7
370
     0
100
AcDbSpline
210
0.0
220
0.0
230
1.0
 70
     8
 71
     3
 72
    11
 73
     7
 74
     0
 42
0.000000001
 43
0.00000001
 40
0.0
 40
0.0
 40
0.0
 40
0.0
 40
0.1285561766307391
 40
0.4801535797842283
 40
0.8150691831753918
 40
1.0
 40
1.0
 40
1.0
 40
1.0
 10
209.6145429619095
 20
130.5745986313867
 30
0.0
 10
209.5731445107275
 20
130.5194982257764
 30
0.0
 10
209.4185224999188
 20
130.3136998137923
 30
0.0
 10
209.1285715990496
 20
130.1153157671537
 30
0.0
 10
208.814615935387
 20
130.2773200981738
 30
0.0
 10
208.6464275906527
 20
130.4965938958729
 30
0.0
 10
208.5865960581798
 20
130.5745986313867
 30
0.0
  0
LINE
  5
14B
330
1F
100
AcDbEntity
  8
0
  6
HIDDEN
 62
     7
370
     0
100
AcDbLine
 10
203.9446396407
 20
116.1878472854
 30
0.0
 11
209.5842434479
 21
116.1878472854
 31
0.0
  0
LINE
  5
14C
330
1F
100
AcDbEntity
  8
0
  6
HIDDEN
 62
     7
370
     0
100
AcDbLine
 10
204.2644415443
 20
122.6878472854
 30
0.0
 11
209.2644415443
 21
122.6878472854
 31
0.0
  0
LINE
  5
14D
330
1F
100
AcDbEntity
  8
0
  6
HIDDEN
 62
     7
370
     0
100
AcDbLine
 10
207.792388448
 20
123.6878472854
 30
0.0
 11
206.3673377392
 21
123.6878472854
 31
0.0
  0
LINE
  5
14E
330
1F
100
AcDbEntity
  8
0
  6
HIDDEN
 62
     7
370
     0
100
AcDbLine
 10
208.703465705
 20
123.6878472854
 30
0.0
 11
207.792388448
 21
123.6878472854
 31
0.0
  0
LINE
  5
14F
330
1F
100
AcDbEntity
  8
0
  6
HIDDEN
 62
     7
370
     0
100
AcDbLine
 10
207.792388448
 20
123.6878472854
 30
0.0
 11
207.792388448
 21
130.5745986314
 31
0.0
  0
LINE
  5
150
330
1F
100
AcDbEntity
  8
0
  6
HIDDEN
 62
     7
370
     0
100
AcDbLine
 10
206.3673377392
 20
123.6878472854
 30
0.0
 11
204.9422870304
 21
123.6878472854
 31
0.0
  0
LINE
  5
151
330
1F
100
AcDbEntity
  8
0
  6
HIDDEN
 62
     7
370
     0
100
AcDbLine
 10
204.9422870304
 20
123.6878472854
 30
0.0
 11
204.4283135786
 21
123.6878472854
 31
0.0
  0
LINE
  5
152
330
1F
100
AcDbEntity
  8
0
  6
HIDDEN
 62
     7
370
     0
100
AcDbLine
 10
204.9422870304
 20
123.6878472854
 30
0.0
 11
204.9422870304
 21
130.5745986314
 31
0.0
  0
LINE
  5
153
330
1F
100
AcDbEntity
  8
0
  6
HIDDEN
 62
     7
370
     0
100
AcDbLine
 10
209.6145429619
 20
123.6878472854
 30
0.0
 11
208.703465705
 21
123.6878472854
 31
0.0
  0
LINE
  5
154
330
1F
100
AcDbEntity
  8
0
  6
HIDDEN
 62
     7
370
     0
100
AcDbLine
 10
204.4283135786
 20
123.6878472854
 30
0.0
 11
203.9143401267
 21
123.6878472854
 31
0.0
  0
LINE
  5
155
330
1F
100
AcDbEntity
  8
0
  6
HIDDEN
 62
     7
370
     0
100
AcDbLine
 10
208.5865960582
 20
123.6878472854
 30
0.0
 11
208.5865960582
 21
130.5745986314
 31
0.0
  0
LINE
  5
156
330
1F
100
AcDbEntity
  8
0
  6
HIDDEN
 62
     7
370
     0
100
AcDbLine
 10
209.6145429619
 20
123.6878472854
 30
0.0
 11
209.6145429619
 21
130.5745986314
 31
0.0
  0
LINE
  5
157
330
1F
100
AcDbEntity
  8
0
  6
HIDDEN
 62
     7
370
     0
100
AcDbLine
 10
205.7364946406
 20
123.6878472854
 30
0.0
 11
205.7364946406
 21
130.5745986314
 31
0.0
  0
LINE
  5
158
330
1F
100
AcDbEntity
  8
0
  6
HIDDEN
 62
     7
370
     0
100
AcDbLine
 10
203.9143401267
 20
123.6878472854
 30
0.0
 11
203.9143401267
 21
130.5745986314
 31
0.0
  0
LINE
  5
159
330
1F
100
AcDbEntity
  8
0
  6
HIDDEN
 62
     7
370
     0
100
AcDbLine
 10
118.8144415443
 20
85.3639161395
 30
0.0
 11
118.9086023198
 21
86.0339048707
 31
0.0
  0
LINE
  5
15A
330
1F
100
AcDbEntity
  8
0
  6
HIDDEN
 62
     7
370
     0
100
AcDbLine
 10
118.9086023198
 20
135.3417897002
 30
0.0
 11
118.8144415443
 21
136.0117784314
 31
0.0
  0
ARC
  5
15B
330
1F
100
AcDbEntity
  8
0
  6
HIDDEN
 62
     7
370
     0
100
AcDbCircle
 10
118.3144347916
 20
86.117409671
 30
0.0
 40
0.6000067526677242
100
AcDbArc
 50
352.0
 51
0.0
  0
ARC
  5
15C
330
1F
100
AcDbEntity
  8
0
  6
HIDDEN
 62
     7
370
     0
100
AcDbCircle
 10
118.3144347916
 20
86.117409671
 30
0.0
 40
0.6000067526677242
100
AcDbArc
 50
0.0
 51
33.5571153394
  0
ARC
  5
15D
330
1F
100
AcDbEntity
  8
0
  6
HIDDEN
 62
     7
370
     0
100
AcDbCircle
 10
118.3144347916
 20
135.2582848998
 30
0.0
 40
0.6000067526677262
100
AcDbArc
 50
348.75
 51
8.0
  0
LWPOLYLINE
  5
15E
330
1F
100
AcDbEntity
  8
0
  6
HIDDEN
 62
     7
370
     0
100
AcDbPolyline
 90
        3
 70
   128
 43
0.0
 10
118.9029125828
 20
135.1412293892
 10
118.8687687498
 20
135.0286722563
 10
118.8144415443
 20
134.9266203848
  0
LINE
  5
15F
330
1F
100
AcDbEntity
  8
0
  6
HIDDEN
 62
     7
370
     0
100
AcDbLine
 10
118.9144415443
 20
86.117409671
 30
0.0
 11
118.9144415443
 21
135.2582848998
 31
0.0
  0
LINE
  5
160
330
1F
100
AcDbEntity
  8
0
  6
HIDDEN
 62
     7
370
     0
100
AcDbLine
 10
101.8968771096
 20
90.6878472854
 30
0.0
 11
106.074413686
 21
90.6878472854
 31
0.0
  0
LINE
  5
161
330
1F
100
AcDbEntity
  8
0
  6
HIDDEN
 62
     7
370
     0
100
AcDbLine
 10
106.074413686
 20
130.6878472854
 30
0.0
 11
101.8968771096
 21
130.6878472854
 31
0.0
  0
ARC
  5
162
330
1F
100
AcDbEntity
  8
0
  6
HIDDEN
 62
     7
370
     0
100
AcDbCircle
 10
112.5694435459
 20
98.6878472854
 30
0.0
 40
8.000000000000014
100
AcDbArc
 50
277.0522505187
 51
321.3178125465
  0
ARC
  5
163
330
1F
100
AcDbEntity
  8
0
  6
HIDDEN
 62
     7
370
     0
100
AcDbCircle
 10
112.5694435459
 20
122.6878472854
 30
0.0
 40
8.000000000000018
100
AcDbArc
 50
38.6821874535
 51
82.9386025247
  0
ARC
  5
164
330
1F
100
AcDbEntity
  8
0
  6
HIDDEN
 62
     7
370
     0
100
AcDbCircle
 10
101.8968771096
 20
91.2878472854
 30
0.0
 40
0.6000000000000085
100
AcDbArc
 50
210.0
 51
270.0
  0
ARC
  5
165
330
1F
100
AcDbEntity
  8
0
  6
HIDDEN
 62
     7
370
     0
100
AcDbCircle
 10
101.8968771096
 20
130.0878472854
 30
0.0
 40
0.6000000000000032
100
AcDbArc
 50
90.0
 51
150.0
  0
LINE
  5
166
330
1F
100
AcDbEntity
  8
0
  6
HIDDEN
 62
     7
370
     0
100
AcDbLine
 10
101.3772618673
 20
130.3878472854
 30
0.0
 11
99.8184161405
 21
127.6878472854
 31
0.0
  0
LINE
  5
167
330
1F
100
AcDbEntity
  8
0
  6
HIDDEN
 62
     7
370
     0
100
AcDbLine
 10
99.8184161405
 20
93.6878472854
 30
0.0
 11
101.3772618673
 21
90.9878472854
 31
0.0
  0
ARC
  5
168
330
1F
100
AcDbEntity
  8
0
  6
HIDDEN
 62
     7
370
     0
100
AcDbCircle
 10
127.2644415443
 20
94.9628472854
 30
0.0
 40
1.500000000000014
100
AcDbArc
 50
238.2116693829
 51
0.0
  0
ARC
  5
169
330
1F
100
AcDbEntity
  8
0
  6
HIDDEN
 62
     7
370
     0
100
AcDbCircle
 10
127.2644415443
 20
126.4128472854
 30
0.0
 40
1.500000000000014
100
AcDbArc
 50
0.0
 51
121.7883306171
  0
LINE
  5
16A
330
1F
100
AcDbEntity
  8
0
  6
HIDDEN
 62
     7
370
     0
100
AcDbLine
 10
118.8144415443
 20
93.6878472854
 30
0.0
 11
126.4742675128
 21
93.6878472854
 31
0.0
  0
LINE
  5
16B
330
1F
100
AcDbEntity
  8
0
  6
HIDDEN
 62
     7
370
     0
100
AcDbLine
 10
126.4742675128
 20
127.6878472854
 30
0.0
 11
118.8144415443
 21
127.6878472854
 31
0.0
  0
LINE
  5
16C
330
1F
100
AcDbEntity
  8
0
  6
HIDDEN
 62
     7
370
     0
100
AcDbLine
 10
97.0144415443
 20
93.6878472854
 30
0.0
 11
99.8184161405
 21
93.6878472854
 31
0.0
  0
LINE
  5
16D
330
1F
100
AcDbEntity
  8
0
  6
HIDDEN
 62
     7
370
     0
100
AcDbLine
 10
99.8184161405
 20
127.6878472854
 30
0.0
 11
93.0144415443
 21
127.6878472854
 31
0.0
  0
ARC
  5
16E
330
1F
100
AcDbEntity
  8
0
  6
HIDDEN
 62
     7
370
     0
100
AcDbCircle
 10
217.8144415443
 20
122.6878472854
 30
0.0
 40
1.0
100
AcDbArc
 50
270.0
 51
0.0
  0
ARC
  5
16F
330
1F
100
AcDbEntity
  8
0
  6
HIDDEN
 62
     7
370
     0
100
AcDbCircle
 10
217.8144415443
 20
98.6878472854
 30
0.0
 40
1.0
100
AcDbArc
 50
0.0
 51
90.0
  0
LINE
  5
170
330
1F
100
AcDbEntity
  8
0
  6
HIDDEN
 62
     7
370
     0
100
AcDbLine
 10
192.1827890467
 20
122.1878472854
 30
0.0
 11
191.3144415443
 21
122.1878472854
 31
0.0
  0
LINE
  5
171
330
1F
100
AcDbEntity
  8
0
  6
HIDDEN
 62
     7
370
     0
100
AcDbLine
 10
191.3144415443
 20
99.1878472854
 30
0.0
 11
192.1827890467
 21
99.1878472854
 31
0.0
  0
ARC
  5
172
330
1F
100
AcDbEntity
  8
0
  6
HIDDEN
 62
     7
370
     0
100
AcDbCircle
 10
192.1827890467
 20
121.1878472854
 30
0.0
 40
1.000000000000003
100
AcDbArc
 50
75.0
 51
90.0
  0
ARC
  5
173
330
1F
100
AcDbEntity
  8
0
  6
HIDDEN
 62
     7
370
     0
100
AcDbCircle
 10
192.1827890467
 20
100.1878472854
 30
0.0
 40
1.000000000000003
100
AcDbArc
 50
270.0
 51
285.0
  0
ARC
  5
174
330
1F
100
AcDbEntity
  8
0
  6
HIDDEN
 62
     7
370
     0
100
AcDbCircle
 10
191.3144415443
 20
121.1878472854
 30
0.0
 40
1.0
100
AcDbArc
 50
90.0
 51
180.0
  0
ARC
  5
175
330
1F
100
AcDbEntity
  8
0
  6
HIDDEN
 62
     7
370
     0
100
AcDbCircle
 10
191.3144415443
 20
100.1878472854
 30
0.0
 40
1.0
100
AcDbArc
 50
180.0
 51
270.0
  0
LINE
  5
176
330
1F
100
AcDbEntity
  8
0
  6
HIDDEN
 62
     7
370
     0
100
AcDbLine
 10
192.4416080918
 20
99.2219214591
 30
0.0
 11
194.1804669481
 21
99.6878472854
 31
0.0
  0
LINE
  5
177
330
1F
100
AcDbEntity
  8
0
  6
HIDDEN
 62
     7
370
     0
100
AcDbLine
 10
194.1804669481
 20
121.6878472854
 30
0.0
 11
192.4416080918
 21
122.1537731117
 31
0.0
  0
LINE
  5
178
330
1F
100
AcDbEntity
  8
0
  6
HIDDEN
 62
     7
370
     0
100
AcDbLine
 10
202.2670474502
 20
121.6878472854
 30
0.0
 11
194.1804669481
 21
121.6878472854
 31
0.0
  0
LINE
  5
179
330
1F
100
AcDbEntity
  8
0
  6
HIDDEN
 62
     7
370
     0
100
AcDbLine
 10
217.8144415443
 20
121.6878472854
 30
0.0
 11
211.2581464896
 21
121.6878472854
 31
0.0
  0
LINE
  5
17A
330
1F
100
AcDbEntity
  8
0
  6
HIDDEN
 62
     7
370
     0
100
AcDbLine
 10
194.1804669481
 20
99.6878472854
 30
0.0
 11
217.8144415443
 21
99.6878472854
 31
0.0
  0
LINE
  5
17B
330
1F
100
AcDbEntity
  8
0
  6
HIDDEN
 62
     7
370
     0
100
AcDbLine
 10
137.6144415443
 20
101.1878472854
 30
0.0
 11
140.6144415443
 21
101.1878472854
 31
0.0
  0
LINE
  5
17C
330
1F
100
AcDbEntity
  8
0
  6
HIDDEN
 62
     7
370
     0
100
AcDbLine
 10
140.6144415443
 20
120.1878472854
 30
0.0
 11
137.6144415443
 21
120.1878472854
 31
0.0
  0
LINE
  5
17D
330
1F
100
AcDbEntity
  8
0
  6
HIDDEN
 62
     7
370
     0
100
AcDbLine
 10
128.7644415443
 20
101.6878472854
 30
0.0
 11
129.2644415443
 21
102.1878472854
 31
0.0
  0
LINE
  5
17E
330
1F
100
AcDbEntity
  8
0
  6
HIDDEN
 62
     7
370
     0
100
AcDbLine
 10
129.2644415443
 20
119.1878472854
 30
0.0
 11
128.7644415443
 21
119.6878472854
 31
0.0
  0
LINE
  5
17F
330
1F
100
AcDbEntity
  8
0
  6
HIDDEN
 62
     7
370
     0
100
AcDbLine
 10
129.2644415443
 20
102.1878472854
 30
0.0
 11
137.6144415443
 21
102.1878472854
 31
0.0
  0
LINE
  5
180
330
1F
100
AcDbEntity
  8
0
  6
HIDDEN
 62
     7
370
     0
100
AcDbLine
 10
137.6144415443
 20
119.1878472854
 30
0.0
 11
129.2644415443
 21
119.1878472854
 31
0.0
  0
LINE
  5
181
330
1F
100
AcDbEntity
  8
0
  6
HIDDEN
 62
     7
370
     0
100
AcDbLine
 10
123.7644415443
 20
142.1878472854
 30
0.0
 11
123.7644415443
 21
137.0878472854
 31
0.0
  0
LINE
  5
182
330
1F
100
AcDbEntity
  8
0
  6
HIDDEN
 62
     7
370
     0
100
AcDbLine
 10
200.5144415443
 20
130.6878472854
 30
0.0
 11
202.2644415443
 21
128.9378472854
 31
0.0
  0
LINE
  5
183
330
1F
100
AcDbEntity
  8
0
  6
HIDDEN
 62
     7
370
     0
100
AcDbLine
 10
211.2644415443
 20
128.9378472854
 30
0.0
 11
213.0144415443
 21
130.6878472854
 31
0.0
  0
LINE
  5
184
330
1F
100
AcDbEntity
  8
0
  6
HIDDEN
 62
     7
370
     0
100
AcDbLine
 10
202.2644415443
 20
128.9378472854
 30
0.0
 11
202.2644415443
 21
121.6867846271
 31
0.0
  0
LINE
  5
185
330
1F
100
AcDbEntity
  8
0
  6
HIDDEN
 62
     7
370
     0
100
AcDbLine
 10
211.2644415443
 20
121.6852753323
 30
0.0
 11
211.2644415443
 21
128.9378472854
 31
0.0
  0
LINE
  5
186
330
1F
100
AcDbEntity
  8
0
  6
HIDDEN
 62
     7
370
     0
100
AcDbLine
 10
113.9988793748
 20
86.6084759519
 30
0.0
 11
113.5644472253
 21
87.087541971
 31
0.0
  0
LINE
  5
187
330
1F
100
AcDbEntity
  8
0
  6
HIDDEN
 62
     7
370
     0
100
AcDbLine
 10
106.0644439002
 20
87.5092299301
 30
0.0
 11
105.5820101569
 21
87.0301639547
 31
0.0
  0
LINE
  5
188
330
1F
100
AcDbEntity
  8
0
  6
HIDDEN
 62
     7
370
     0
100
AcDbLine
 10
105.5818882286
 20
134.3455253258
 30
0.0
 11
106.0644389796
 21
133.8664050679
 31
0.0
  0
LINE
  5
189
330
1F
100
AcDbEntity
  8
0
  6
HIDDEN
 62
     7
370
     0
100
AcDbLine
 10
113.5644414263
 20
134.2881028455
 30
0.0
 11
113.9989838166
 21
134.7672230961
 31
0.0
  0
LINE
  5
18A
330
1F
100
AcDbEntity
  8
0
  6
HIDDEN
 62
     7
370
     0
100
AcDbLine
 10
140.6144415443
 20
106.4878472854
 30
0.0
 11
190.3144415443
 21
106.4878472854
 31
0.0
  0
LINE
  5
18B
330
1F
100
AcDbEntity
  8
0
  6
HIDDEN
 62
     7
370
     0
100
AcDbLine
 10
190.3144415443
 20
114.8878472854
 30
0.0
 11
140.6144415443
 21
114.8878472854
 31
0.0
  0
LINE
  5
18C
330
1F
100
AcDbEntity
  8
0
  6
HIDDEN
 62
     7
370
     0
100
AcDbLine
 10
113.5644415443
 20
87.0880258727
 30
0.0
 11
113.5644415443
 21
90.7507744594
 31
0.0
  0
LINE
  5
18D
330
1F
100
AcDbEntity
  8
0
  6
HIDDEN
 62
     7
370
     0
100
AcDbLine
 10
106.0644415443
 20
90.689709531
 30
0.0
 11
106.0644415443
 21
87.5095531679
 31
0.0
  0
LINE
  5
18E
330
1F
100
AcDbEntity
  8
0
  6
HIDDEN
 62
     7
370
     0
100
AcDbLine
 10
113.5644415443
 20
130.6249201115
 30
0.0
 11
113.5644415443
 21
134.2878115394
 31
0.0
  0
LINE
  5
18F
330
1F
100
AcDbEntity
  8
0
  6
HIDDEN
 62
     7
370
     0
100
AcDbLine
 10
106.0644415443
 20
133.8662612886
 30
0.0
 11
106.0644415443
 21
130.6859850399
 31
0.0
  0
LINE
  5
190
330
1F
100
AcDbEntity
  8
0
  6
HIDDEN
 62
     7
370
     0
100
AcDbLine
 10
201.7644415443
 20
129.9878472854
 30
0.0
 11
201.7644415443
 21
123.4653463602
 31
0.0
  0
LINE
  5
191
330
1F
100
AcDbEntity
  8
0
  6
HIDDEN
 62
     7
370
     0
100
AcDbLine
 10
211.7644415443
 20
123.4653463602
 30
0.0
 11
211.7644415443
 21
129.9878472854
 31
0.0
  0
LINE
  5
192
330
1F
100
AcDbEntity
  8
0
  6
HIDDEN
 62
     7
370
     0
100
AcDbLine
 10
211.7644415443
 20
129.9878472854
 30
0.0
 11
211.402316889
 21
130.3499719407
 31
0.0
  0
LINE
  5
193
330
1F
100
AcDbEntity
  8
0
  6
HIDDEN
 62
     7
370
     0
100
AcDbLine
 10
202.1282056741
 20
130.3516114152
 30
0.0
 11
201.7644415443
 21
129.9878472854
 31
0.0
  0
LINE
  5
194
330
1F
100
AcDbEntity
  8
0
  6
HIDDEN
 62
     7
370
     0
100
AcDbLine
 10
201.7644415443
 20
123.4653463602
 30
0.0
 11
203.6548618928
 21
116.4102015719
 31
0.0
  0
LINE
  5
195
330
1F
100
AcDbEntity
  8
0
  6
HIDDEN
 62
     7
370
     0
100
AcDbLine
 10
209.8740211958
 20
116.4102015719
 30
0.0
 11
211.7644415443
 21
123.4653463602
 31
0.0
  0
LINE
  5
196
330
1F
100
AcDbEntity
  8
0
  6
HIDDEN
 62
     7
370
     0
100
AcDbLine
 10
203.7644415443
 20
130.6878472854
 30
0.0
 11
204.08834368
 21
130.3639451498
 31
0.0
  0
LINE
  5
197
330
1F
100
AcDbEntity
  8
0
  6
HIDDEN
 62
     7
370
     0
100
AcDbLine
 10
209.4512610177
 20
130.3746667588
 30
0.0
 11
209.7644415443
 21
130.6878472854
 31
0.0
  0
ARC
  5
198
330
1F
100
AcDbEntity
  8
0
  6
HIDDEN
 62
     7
370
     0
100
AcDbCircle
 10
203.9446396407
 20
116.4878472854
 30
0.0
 40
0.3000000000000241
100
AcDbArc
 50
195.0
 51
270.0
  0
ARC
  5
199
330
1F
100
AcDbEntity
  8
0
  6
HIDDEN
 62
     7
370
     0
100
AcDbCircle
 10
209.5842434479
 20
116.4878472854
 30
0.0
 40
0.2999999999999829
100
AcDbArc
 50
270.0
 51
345.0
  0
LINE
  5
19A
330
1F
100
AcDbEntity
  8
0
  6
HIDDEN
 62
     7
370
     0
100
AcDbLine
 10
204.2644415443
 20
123.6878472854
 30
0.0
 11
204.2644415443
 21
122.6878472854
 31
0.0
  0
LINE
  5
19B
330
1F
100
AcDbEntity
  8
0
  6
HIDDEN
 62
     7
370
     0
100
AcDbLine
 10
209.2644415443
 20
122.6878472854
 30
0.0
 11
209.2644415443
 21
123.6878472854
 31
0.0
  0
LINE
  5
19C
330
1F
100
AcDbEntity
  8
0
  6
HIDDEN
 62
     7
370
     0
100
AcDbLine
 10
204.2644415443
 20
122.6878472854
 30
0.0
 11
206.7644415443
 21
121.7779216998
 31
0.0
  0
LINE
  5
19D
330
1F
100
AcDbEntity
  8
0
  6
HIDDEN
 62
     7
370
     0
100
AcDbLine
 10
206.7644415443
 20
121.7779216998
 30
0.0
 11
209.2644415443
 21
122.6878472854
 31
0.0
  0
DIMENSION
  5
19E
330
1F
100
AcDbEntity
  8
VERMASSUNG
100
AcDbDimension
  2
_D
 10
79.207634704
 20
79.1878472854
 30
0.0
 11
79.207634704
 21
110.6878472854
 31
0.0
 70
   160
  1
HSK A %%c<>
 71
     2
 42
-1.0
  3
SLDDIMSTYLE0
100
AcDbAlignedDimension
 13
119.1144415443
 23
142.1878472854
 33
0.0
 14
119.1144415443
 24
79.1878472854
 34
0.0
 50
90.0
100
AcDbRotatedDimension
  0
DIMENSION
  5
1AB
330
1F
100
AcDbEntity
  8
VERMASSUNG
100
AcDbDimension
  2
_D_1
 10
218.8144415443
 20
146.1731029772
 30
0.0
 11
181.7894415443
 21
146.1731029772
 31
0.0
 70
   160
  1
(<>)
 71
     2
 42
-1.0
  3
SLDDIMSTYLE0
100
AcDbAlignedDimension
 13
144.7644415443
 23
140.5342876092
 33
0.0
 14
218.8144415443
 24
130.2878472854
 34
0.0
100
AcDbRotatedDimension
  0
DIMENSION
  5
1B7
330
1F
100
AcDbEntity
  8
VERMASSUNG
100
AcDbDimension
  2
_D_2
 10
118.8144415443
 20
152.1731029772
 30
0.0
 11
168.8144415443
 21
152.1731029772
 31
0.0
 70
   160
  1
<>
 71
     2
 42
-1.0
  3
SLDDIMSTYLE0
100
AcDbAlignedDimension
 13
218.8144415443
 23
130.2878472854
 33
0.0
 14
118.8144415443
 24
141.8878472854
 34
0.0
100
AcDbRotatedDimension
  0
DIMENSION
  5
1C1
330
1F
100
AcDbEntity
  8
VERMASSUNG
100
AcDbDimension
  2
_D_3
 10
86.9144415443
 20
158.1731029772
 30
0.0
 11
152.8644415443
 21
158.1731029772
 31
0.0
 70
   160
  1
(<>)
 71
     2
 42
-1.0
  3
SLDDIMSTYLE0
100
AcDbAlignedDimension
 13
218.8144415443
 23
130.2878472854
 33
0.0
 14
86.9144415443
 24
130.3785250319
 34
0.0
100
AcDbRotatedDimension
  0
DIMENSION
  5
1CD
330
1F
100
AcDbEntity
  8
VERMASSUNG
100
AcDbDimension
  2
_D_4
 10
228.3166864281
 20
99.6878472854
 30
0.0
 11
228.3166864281
 21
110.6878472854
 31
0.0
 70
   160
  1
%%c<>
 71
     2
 42
-1.0
  3
SLDDIMSTYLE0
100
AcDbAlignedDimension
 13
217.8144415443
 23
121.6878472854
 33
0.0
 14
217.8144415443
 24
99.6878472854
 34
0.0
 50
90.0
100
AcDbRotatedDimension
  0
DIMENSION
  5
1D8
330
1F
100
AcDbEntity
  8
VERMASSUNG
100
AcDbDimension
  2
_D_5
 10
234.4166864281
 20
90.6878472854
 30
0.0
 11
234.4166864281
 21
110.6878472854
 31
0.0
 70
   160
  1
WH%%c<>
 71
     2
 42
-1.0
  3
SLDDIMSTYLE0
100
AcDbAlignedDimension
 13
218.4144415443
 23
130.6878472854
 33
0.0
 14
218.4144415443
 24
90.6878472854
 34
0.0
 50
90.0
100
AcDbRotatedDimension
  0
LINE
  5
1E4
330
1F
100
AcDbEntity
  8
VERMASSUNG
  6
CENTERX2
370
     0
100
AcDbLine
 10
84.0548329798
 20
110.6878472854
 30
0.0
 11
223.0078502212
 21
110.6878472854
 31
0.0
  0
LINE
  5
1E5
330
1F
100
AcDbEntity
  8
0
  6
Continuous
 62
     7
370
    15
100
AcDbLine
 10
273.3737492462
 20
24.2933870393
 30
0.0
 11
273.5151476175
 21
24.3750411194
 31
0.0
  0
LINE
  5
1E6
330
1F
100
AcDbEntity
  8
0
  6
Continuous
 62
     7
370
    15
100
AcDbLine
 10
280.4436678107
 20
36.3768905407
 30
0.0
 11
280.4436678107
 21
36.540172163
 31
0.0
  0
LINE
  5
1E7
330
1F
100
AcDbEntity
  8
0
  6
Continuous
 62
     7
370
    15
100
AcDbLine
 10
278.372193662
 20
41.1186202277
 30
0.0
 11
253.3936466166
 21
55.5384285028
 31
0.0
  0
LINE
  5
1E8
330
1F
100
AcDbEntity
  8
0
  6
Continuous
 62
     7
370
    15
100
AcDbLine
 10
243.3944592902
 20
38.2174512552
 30
0.0
 11
268.3730063356
 21
23.7976429801
 31
0.0
  0
SPLINE
  5
1E9
330
1F
100
AcDbEntity
  8
0
  6
Continuous
 62
     7
370
    15
100
AcDbSpline
210
0.0
220
0.0
230
1.0
 70
     8
 71
     3
 72
    25
 73
    21
 74
     0
 42
0.000000001
 43
0.00000001
 40
0.0
 40
0.0
 40
0.0
 40
0.0
 40
0.0156847288680445
 40
0.0799384592914494
 40
0.1368070872960464
 40
0.1972249056867579
 40
0.25582223385828
 40
0.3136212254422175
 40
0.3712313523514846
 40
0.4288597946908405
 40
0.4866252854519622
 40
0.5445485028375646
 40
0.6026029558175061
 40
0.6607431705235849
 40
0.7189167559721745
 40
0.7770610991247467
 40
0.8351099338794831
 40
0.8930081381424406
 40
0.9507058488787884
 40
1.0
 40
1.0
 40
1.0
 40
1.0
 10
270.4229407429318
 20
27.82113695345454
 30
0.0
 10
270.3930919189587
 20
27.83491220883241
 30
0.0
 10
270.2409650304328
 20
27.90511888569093
 30
0.0
 10
270.0295762465472
 20
28.11118939546268
 30
0.0
 10
269.7798096074178
 20
28.45042888366019
 30
0.0
 10
269.5923129074162
 20
28.87312802102756
 30
0.0
 10
269.4654790838021
 20
29.37995112669675
 30
0.0
 10
269.4089271345516
 20
29.94863649092976
 30
0.0
 10
269.4239669431971
 20
30.56933950111258
 30
0.0
 10
269.5117115136637
 20
31.23108149292483
 30
0.0
 10
269.6717204126409
 20
31.92087391548244
 30
0.0
 10
269.9019146101792
 20
32.62489435948903
 30
0.0
 10
270.1984292997445
 20
33.32866412213328
 30
0.0
 10
270.5556959976662
 20
34.01757374302046
 30
0.0
 10
270.9665757472259
 20
34.67734600103957
 30
0.0
 10
271.4224809519391
 20
35.29416270180958
 30
0.0
 10
271.9136551038773
 20
35.85591775639731
 30
0.0
 10
272.4290413901398
 20
36.34933681332972
 30
0.0
 10
272.9328066294108
 20
36.75237561920643
 30
0.0
 10
273.259794955894
 20
36.9539447223979
 30
0.0
 10
273.4104476476098
 20
37.04681326082297
 30
0.0
  0
SPLINE
  5
1EA
330
1F
100
AcDbEntity
  8
0
  6
Continuous
 62
     7
370
    15
100
AcDbSpline
210
0.0
220
0.0
230
1.0
 70
     8
 71
     3
 72
    14
 73
    10
 74
     0
 42
0.000000001
 43
0.00000001
 40
0.0
 40
0.0
 40
0.0
 40
0.0
 40
0.0886762495022914
 40
0.2579557158300258
 40
0.4271122598304343
 40
0.5970268389341432
 40
0.769796967554087
 40
0.9487687585426654
 40
1.0
 40
1.0
 40
1.0
 40
1.0
 10
273.4104476476098
 20
37.04681326082297
 30
0.0
 10
273.501358092256
 20
37.09704809112683
 30
0.0
 10
273.765812993729
 20
37.24317923315599
 30
0.0
 10
274.1935121376003
 20
37.41819057456424
 30
0.0
 10
274.6742542437615
 20
37.53940465336704
 30
0.0
 10
275.1182633775473
 20
37.57238507653323
 30
0.0
 10
275.5164324061928
 20
37.51409071286395
 30
0.0
 10
275.7935882878813
 20
37.42618875740062
 30
0.0
 10
275.9242698971652
 20
37.32761059049363
 30
0.0
 10
275.9533528375944
 20
37.30567220932822
 30
0.0
  0
LINE
  5
1EB
330
1F
100
AcDbEntity
  8
0
  6
Continuous
 62
     7
370
    15
100
AcDbLine
 10
230.3903882934
 20
39.0851933974
 30
0.0
 11
235.4490539536
 21
36.1648878722
 31
0.0
  0
LINE
  5
1EC
330
1F
100
AcDbEntity
  8
0
  6
Continuous
 62
     7
370
    15
100
AcDbLine
 10
248.3324088371
 20
65.0995671321
 30
0.0
 11
246.1391083324
 21
66.3657325624
 31
0.0
  0
SPLINE
  5
1ED
330
1F
100
AcDbEntity
  8
0
  6
Continuous
 62
     7
370
    15
100
AcDbSpline
210
0.0
220
0.0
230
1.0
 70
     8
 71
     3
 72
    15
 73
    11
 74
     0
 42
0.000000001
 43
0.00000001
 40
0.0
 40
0.0
 40
0.0
 40
0.0
 40
0.0699157957972702
 40
0.2180573944767484
 40
0.3667426180399121
 40
0.5158376402055471
 40
0.6651975292485645
 40
0.8146996663523239
 40
0.9642553005002052
 40
1.0
 40
1.0
 40
1.0
 40
1.0
 10
242.1979034364083
 20
33.22113206080505
 30
0.0
 10
242.3296095158394
 20
33.2177272389243
 30
0.0
 10
242.7403819913577
 20
33.20710808513356
 30
0.0
 10
243.4631820248041
 20
33.29697596539071
 30
0.0
 10
244.3583508773846
 20
33.48493126424412
 30
0.0
 10
245.2746639342774
 20
33.77762743845847
 30
0.0
 10
246.2035401518754
 20
34.16364369107581
 30
0.0
 10
247.137867837557
 20
34.65074734547812
 30
0.0
 10
247.8369144832963
 20
35.06231880746018
 30
0.0
 10
248.2192023700947
 20
35.33668859971404
 30
0.0
 10
248.2929462504592
 20
35.38961492522506
 30
0.0
  0
LINE
  5
1EE
330
1F
100
AcDbEntity
  8
0
  6
Continuous
 62
     7
370
    15
100
AcDbLine
 10
237.8475126601
 20
34.780287133
 30
0.0
 11
239.2469007277
 21
33.9724375971
 31
0.0
  0
LINE
  5
1EF
330
1F
100
AcDbEntity
  8
0
  6
Continuous
 62
     7
370
    15
100
AcDbLine
 10
238.9628148707
 20
65.9550549241
 30
0.0
 11
232.7724320857
 21
69.0392743631
 31
0.0
  0
LINE
  5
1F0
330
1F
100
AcDbEntity
  8
0
  6
Continuous
 62
     7
370
    15
100
AcDbLine
 10
221.3907342725
 20
49.3234592247
 30
0.0
 11
231.1862167403
 21
42.8372975767
 31
0.0
  0
SPLINE
  5
1F1
330
1F
100
AcDbEntity
  8
0
  6
Continuous
 62
     7
370
    15
100
AcDbSpline
210
0.0
220
0.0
230
1.0
 70
     8
 71
     3
 72
    10
 73
     6
 74
     0
 42
0.000000001
 43
0.00000001
 40
0.0
 40
0.0
 40
0.0
 40
0.0
 40
0.0348630152143177
 40
0.6297955295302642
 40
1.0
 40
1.0
 40
1.0
 40
1.0
 10
256.7113186441039
 20
59.71049278648164
 30
0.0
 10
256.7023925461432
 20
59.72399754163232
 30
0.0
 10
256.5411438257664
 20
59.96795906845419
 30
0.0
 10
256.2355522968623
 20
60.29817798653223
 30
0.0
 10
255.914397573133
 20
60.57716851191027
 30
0.0
 10
255.7912099673203
 20
60.68418289571463
 30
0.0
  0
SPLINE
  5
1F2
330
1F
100
AcDbEntity
  8
0
  6
Continuous
 62
     7
370
    15
100
AcDbSpline
210
0.0
220
0.0
230
1.0
 70
     8
 71
     3
 72
    11
 73
     7
 74
     0
 42
0.000000001
 43
0.00000001
 40
0.0
 40
0.0
 40
0.0
 40
0.0
 40
0.1526263877253758
 40
0.4412715536776326
 40
0.7294839293308576
 40
1.0
 40
1.0
 40
1.0
 40
1.0
 10
257.9856180299805
 20
56.9636420129487
 30
0.0
 10
257.9417693256466
 20
57.1232581279882
 30
0.0
 10
257.8149944856175
 20
57.5847382961633
 30
0.0
 10
257.5454752927542
 20
58.29563728547641
 30
0.0
 10
257.168718515525
 20
59.06010279033941
 30
0.0
 10
256.8605315884238
 20
59.4983226212845
 30
0.0
 10
256.7113186441039
 20
59.71049278648164
 30
0.0
  0
SPLINE
  5
1F3
330
1F
100
AcDbEntity
  8
0
  6
Continuous
 62
     7
370
    15
100
AcDbSpline
210
0.0
220
0.0
230
1.0
 70
     8
 71
     3
 72
    27
 73
    23
 74
     0
 42
0.000000001
 43
0.00000001
 40
0.0
 40
0.0
 40
0.0
 40
0.0
 40
0.0013000211134387
 40
0.0538937227925974
 40
0.1065610308464723
 40
0.1596380518139674
 40
0.2133201281994832
 40
0.267628632168064
 40
0.3224488917854233
 40
0.3776074705783173
 40
0.4329412411903485
 40
0.4883265115172221
 40
0.5436826534602275
 40
0.5989845905613522
 40
0.6542271010315199
 40
0.7094161434464956
 40
0.7645635275411666
 40
0.8196839438402808
 40
0.8747934456626368
 40
0.9299087456671088
 40
0.9850414025635982
 40
1.0
 40
1.0
 40
1.0
 40
1.0
 10
232.7088045475359
 20
69.06885285546338
 30
0.0
 10
232.7039806207261
 20
69.07164161767766
 30
0.0
 10
232.5039997345893
 20
69.18725264595795
 30
0.0
 10
232.0608255863696
 20
69.32753903203317
 30
0.0
 10
231.3853987663538
 20
69.47884861532583
 30
0.0
 10
230.6670114037792
 20
69.51909287284681
 30
0.0
 10
229.9184788185294
 20
69.46220091009006
 30
0.0
 10
229.1434127658936
 20
69.3038441919907
 30
0.0
 10
228.3496073650847
 20
69.04574237470831
 30
0.0
 10
227.545106495444
 20
68.68981624218769
 30
0.0
 10
226.73851484198
 20
68.23994367601208
 30
0.0
 10
225.9382191833511
 20
67.70119331048953
 30
0.0
 10
225.1521255109492
 20
67.07954504597899
 30
0.0
 10
224.3876197889773
 20
66.38157317242866
 30
0.0
 10
223.6516194180063
 20
65.61429718970201
 30
0.0
 10
222.9507781971112
 20
64.78521121985541
 30
0.0
 10
222.291277286806
 20
63.90226668891663
 30
0.0
 10
221.6795814800602
 20
62.97377665684515
 30
0.0
 10
221.1194794049599
 20
62.0085601962936
 30
0.0
 10
220.622948592215
 20
61.01515938779547
 30
0.0
 10
220.2796669641802
 20
60.25018293472851
 30
0.0
 10
220.1257075837919
 20
59.81824232665513
 30
0.0
 10
220.0928501836112
 20
59.72605927565825
 30
0.0
  0
LINE
  5
1F4
330
1F
100
AcDbEntity
  8
0
  6
Continuous
 62
     7
370
    15
100
AcDbLine
 10
220.2065485507
 20
57.8795993176
 30
0.0
 11
222.7601084493
 21
56.405460566
 31
0.0
  0
LINE
  5
1F5
330
1F
100
AcDbEntity
  8
0
  6
Continuous
 62
     7
370
    15
100
AcDbLine
 10
219.9082562733
 20
59.0079090349
 30
0.0
 11
219.9082562733
 21
58.5425029511
 31
0.0
  0
LINE
  5
1F6
330
1F
100
AcDbEntity
  8
0
  6
Continuous
 62
     7
370
    15
100
AcDbLine
 10
219.9082562733
 20
51.5365606061
 30
0.0
 11
219.9082562733
 21
51.0711545223
 31
0.0
  0
SPLINE
  5
1F7
330
1F
100
AcDbEntity
  8
0
  6
Continuous
 62
     7
370
    15
100
AcDbSpline
210
0.0
220
0.0
230
1.0
 70
     8
 71
     3
 72
    11
 73
     7
 74
     0
 42
0.000000001
 43
0.00000001
 40
0.0
 40
0.0
 40
0.0
 40
0.0
 40
0.2559621575050952
 40
0.6007766703699854
 40
0.9411930391302444
 40
1.0
 40
1.0
 40
1.0
 40
1.0
 10
220.0244092318327
 20
50.78456814248992
 30
0.0
 10
220.1194937528767
 20
50.62963978206955
 30
0.0
 10
220.3426695633688
 20
50.26600265138403
 30
0.0
 10
220.7842073301416
 20
49.79659959940112
 30
0.0
 10
221.1612936214025
 20
49.45807343381155
 30
0.0
 10
221.3949498729602
 20
49.32690856207503
 30
0.0
 10
221.4293682373756
 20
49.30758752818945
 30
0.0
  0
LINE
  5
1F8
330
1F
100
AcDbEntity
  8
0
  6
Continuous
 62
     7
370
    15
100
AcDbLine
 10
271.8927942554
 20
34.5966906133
 30
0.0
 11
274.0028340868
 21
35.0265954272
 31
0.0
  0
LINE
  5
1F9
330
1F
100
AcDbEntity
  8
0
  6
Continuous
 62
     7
370
    15
100
AcDbLine
 10
271.0217571932
 20
43.735883356
 30
0.0
 11
270.7742296059
 21
43.8788244393
 31
0.0
  0
LINE
  5
1FA
330
1F
100
AcDbEntity
  8
0
  6
Continuous
 62
     7
370
    15
100
AcDbLine
 10
267.7331763909
 20
43.8788244393
 30
0.0
 11
267.4856488036
 21
43.735883356
 31
0.0
  0
LINE
  5
1FB
330
1F
100
AcDbEntity
  8
0
  6
Continuous
 62
     7
370
    15
100
AcDbLine
 10
266.7537029984
 20
42.7155390643
 30
0.0
 11
266.7537029984
 21
42.490990341
 31
0.0
  0
LINE
  5
1FC
330
1F
100
AcDbEntity
  8
0
  6
Continuous
 62
     7
370
    15
100
AcDbLine
 10
271.7537029984
 20
42.490990341
 30
0.0
 11
271.7537029984
 21
42.7155390643
 31
0.0
  0
LWPOLYLINE
  5
1FD
330
1F
100
AcDbEntity
  8
0
  6
Continuous
 62
     7
370
    15
100
AcDbPolyline
 90
       57
 70
   128
 43
0.0
 10
273.514021355
 20
40.3785907492
 10
272.7381471201
 20
39.8803725623
 10
271.9720299538
 20
39.2877887083
 10
271.225304224
 20
38.6082912729
 10
270.5073604401
 20
37.8504253308
 10
269.8272271617
 20
37.0237214858
 10
269.1934574595
 20
36.1385760184
 10
268.614021355
 20
35.2061201465
 10
268.0962055937
 20
34.2380800437
 10
267.646522009
 20
33.2466293759
 10
267.270625633
 20
32.2442362106
 10
266.9732435806
 20
31.2435062234
 10
266.7581156039
 20
30.2570241745
 10
266.6279470618
 20
29.2971956481
 10
266.5843748994
 20
28.3760910448
 10
266.6279470618
 20
27.5052937894
 10
266.7581156039
 20
26.6957546627
 10
266.9732435806
 20
25.9576540888
 10
267.270625633
 20
25.3002741108
 10
267.646522009
 20
24.7318816633
 10
268.0962055937
 20
24.259624611
 10
268.614021355
 20
23.8894418606
 10
269.1934574595
 20
23.6259886747
 10
269.8272271617
 20
23.4725781302
 10
270.5073604401
 20
23.4311394535
 10
271.225304224
 20
23.5021937602
 10
271.9720299538
 20
23.684847501
 10
272.7381471201
 20
23.9768036992
 10
273.514021355
 20
24.3743908363
 10
274.28989559
 20
24.8726090232
 10
275.0560127563
 20
25.4651928772
 10
275.8027384861
 20
26.1446903126
 10
276.52068227
 20
26.9025562547
 10
277.2008155483
 20
27.7292600997
 10
277.8345852506
 20
28.6144055671
 10
278.414021355
 20
29.546861439
 10
278.9318371164
 20
30.5149015418
 10
279.3815207011
 20
31.5063522096
 10
279.7574170771
 20
32.5087453749
 10
280.0547991294
 20
33.5094753621
 10
280.2699271062
 20
34.495957411
 10
280.4000956482
 20
35.4557859374
 10
280.4436678107
 20
36.3768905407
 10
280.4000956482
 20
37.2476877961
 10
280.2699271062
 20
38.0572269228
 10
280.0547991294
 20
38.7953274967
 10
279.7574170771
 20
39.4527074747
 10
279.3815207011
 20
40.0210999222
 10
278.9318371164
 20
40.4933569745
 10
278.414021355
 20
40.8635397249
 10
277.8345852506
 20
41.1269929108
 10
277.2008155483
 20
41.2804034553
 10
276.52068227
 20
41.321842132
 10
275.8027384861
 20
41.2507878253
 10
275.0560127563
 20
41.0681340845
 10
274.28989559
 20
40.7761778863
 10
273.514021355
 20
40.3785907492
  0
LWPOLYLINE
  5
1FE
330
1F
100
AcDbEntity
  8
0
  6
Continuous
 62
     7
370
    15
100
AcDbPolyline
 90
       30
 70
   128
 43
0.0
 10
273.3725999988
 20
40.6235397228
 10
272.5947244083
 20
40.1249232061
 10
271.8262911737
 20
39.5332422252
 10
271.0766280336
 20
38.8556789854
 10
270.3548348829
 20
38.1004581869
 10
269.6696733128
 20
37.2767471869
 10
269.0294602565
 20
36.3945447211
 10
268.4419670333
 20
35.4645595326
 10
267.9143250151
 20
34.4980803816
 10
267.4529390612
 20
33.5068390159
 10
267.0634097721
 20
32.5028677627
 10
266.7504655057
 20
31.4983534732
 10
266.5179049815
 20
30.5054895901
 10
266.3685511692
 20
29.5363281359
 10
266.3042170217
 20
28.6026334178
 10
266.3256834685
 20
27.7157392249
 10
266.432689936
 20
26.8864112513
 10
266.6239375105
 20
26.1247164151
 10
266.8971047057
 20
25.4399006598
 10
267.2488756418
 20
24.840276721
 10
267.6749802962
 20
24.3331232211
 10
268.1702463356
 20
23.9245963165
 10
268.7286619012
 20
23.6196549705
 10
269.3434485844
 20
23.4220007579
 10
270.0071437078
 20
23.3340329331
 10
270.7116909115
 20
23.3568193064
 10
271.448537947
 20
23.4900832819
 10
272.2087404895
 20
23.7322072157
 10
272.9830707097
 20
24.080252051
 10
273.3737492462
 20
24.2933870393
  0
LWPOLYLINE
  5
1FF
330
1F
100
AcDbEntity
  8
0
  6
Continuous
 62
     7
370
    15
100
AcDbPolyline
 90
       16
 70
   128
 43
0.0
 10
280.4436678107
 20
36.540172163
 10
280.4409829759
 20
36.7636146918
 10
280.3766488284
 20
37.6230307843
 10
280.2272950161
 20
38.4197519973
 10
279.9947344919
 20
39.1441072145
 10
279.6817902255
 20
39.7873037449
 10
279.2922609364
 20
40.3415340539
 10
278.8308749825
 20
40.8000705362
 10
278.3032329643
 20
41.1573471802
 10
277.7157397411
 20
41.4090271314
 10
277.0755266849
 20
41.5520553361
 10
276.3903651147
 20
41.5846956256
 10
275.668571964
 20
41.5065517911
 10
274.9189088239
 20
41.3185723928
 10
274.1504755893
 20
41.023039246
 10
273.3725999988
 20
40.6235397228
  0
SPLINE
  5
200
330
1F
100
AcDbEntity
  8
0
  6
Continuous
 62
     7
370
    15
100
AcDbSpline
210
0.0
220
0.0
230
1.0
 70
    11
 71
     3
 72
    88
 73
    84
 74
     0
 42
0.000000001
 43
0.00000001
 40
0.0
 40
0.0
 40
0.0
 40
0.0
 40
0.0312500000000005
 40
0.0312500000000005
 40
0.0625000000000011
 40
0.0625000000000011
 40
0.0937500000000016
 40
0.0937500000000016
 40
0.1093750000000024
 40
0.1093750000000024
 40
0.1250000000000032
 40
0.1250000000000032
 40
0.1562500000000037
 40
0.1562500000000037
 40
0.1718750000000034
 40
0.1718750000000034
 40
0.1875000000000031
 40
0.1875000000000031
 40
0.2187500000000024
 40
0.2187500000000024
 40
0.2343750000000026
 40
0.2343750000000026
 40
0.2500000000000028
 40
0.2500000000000028
 40
0.2812500000000032
 40
0.2812500000000032
 40
0.2968750000000033
 40
0.2968750000000033
 40
0.3125000000000035
 40
0.3125000000000035
 40
0.3437500000000033
 40
0.3437500000000033
 40
0.3593750000000032
 40
0.3593750000000032
 40
0.3750000000000032
 40
0.3750000000000032
 40
0.3906250000000031
 40
0.3906250000000031
 40
0.406250000000003
 40
0.406250000000003
 40
0.4375000000000029
 40
0.4375000000000029
 40
0.4531250000000028
 40
0.4531250000000028
 40
0.4687500000000027
 40
0.4687500000000027
 40
0.5000000000000026
 40
0.5000000000000026
 40
0.5312500000000023
 40
0.5312500000000023
 40
0.562500000000002
 40
0.562500000000002
 40
0.5937500000000018
 40
0.5937500000000018
 40
0.6250000000000016
 40
0.6250000000000016
 40
0.6562500000000013
 40
0.6562500000000013
 40
0.687500000000001
 40
0.687500000000001
 40
0.7187500000000008
 40
0.7187500000000008
 40
0.7500000000000006
 40
0.7500000000000006
 40
0.7812500000000003
 40
0.7812500000000003
 40
0.8125
 40
0.8125
 40
0.828125
 40
0.828125
 40
0.8437499999999999
 40
0.8437499999999999
 40
0.8749999999999997
 40
0.8749999999999997
 40
0.8906249999999996
 40
0.8906249999999996
 40
0.9062499999999996
 40
0.9062499999999996
 40
0.9374999999999996
 40
0.9374999999999996
 40
0.9687499999999998
 40
0.9687499999999998
 40
1.0
 40
1.0
 40
1.0
 40
1.0
 10
269.2281613288815
 20
44.51145109275193
 30
0.0
 10
269.4195990390932
 20
44.47781260790946
 30
0.0
 10
269.6059244812036
 20
44.43496566500298
 30
0.0
 10
269.9696066818724
 20
44.33460959683015
 30
0.0
 10
270.1478883255273
 20
44.27671890245085
 30
0.0
 10
270.49141007537
 20
44.14922625495714
 30
0.0
 10
270.6538949004118
 20
44.08075041224907
 30
0.0
 10
270.8843926779358
 20
43.97205025338508
 30
0.0
 10
270.9590050407674
 20
43.93480576699741
 30
0.0
 10
271.1037277328212
 20
43.8583284633108
 30
0.0
 10
271.1741121856074
 20
43.81892016287419
 30
0.0
 10
271.3749187990924
 20
43.69966452978791
 30
0.0
 10
271.495922632159
 20
43.6184509031814
 30
0.0
 10
271.6584416052086
 20
43.4937257856999
 30
0.0
 10
271.7094309530711
 20
43.45165793266244
 30
0.0
 10
271.8048515056549
 20
43.36636728980022
 30
0.0
 10
271.8494141575583
 20
43.32297386481736
 30
0.0
 10
271.9705750513079
 20
43.19313371250667
 30
0.0
 10
272.035570019222
 20
43.1064299949828
 30
0.0
 10
272.1090162164089
 20
42.97468747293782
 30
0.0
 10
272.1294640356405
 20
42.93048768296563
 30
0.0
 10
272.1618595613508
 20
42.84119519089431
 30
0.0
 10
272.1737912383303
 20
42.79593450831857
 30
0.0
 10
272.1954928196973
 20
42.66126567762311
 30
0.0
 10
272.1917685741439
 20
42.57210579650245
 30
0.0
 10
272.1572311972824
 20
42.43749087115329
 30
0.0
 10
272.1408579872034
 20
42.39247398152589
 30
0.0
 10
272.0975770138813
 20
42.30183062396845
 30
0.0
 10
272.0706076613275
 20
42.25627770998116
 30
0.0
 10
271.9755212181673
 20
42.1222410464524
 30
0.0
 10
271.8928479537068
 20
42.03503432301633
 30
0.0
 10
271.7378433953903
 20
41.90657442358101
 30
0.0
 10
271.6804460449127
 20
41.86382249703824
 30
0.0
 10
271.5572831956038
 20
41.78102117331061
 30
0.0
 10
271.4916805820537
 20
41.74099800681961
 30
0.0
 10
271.3526313219575
 20
41.66361872250229
 30
0.0
 10
271.2791843231473
 20
41.62626275747326
 30
0.0
 10
271.1243865352359
 20
41.55428498228303
 30
0.0
 10
271.0424726889323
 20
41.51946748292493
 30
0.0
 10
270.7907784508541
 20
41.42179546197244
 30
0.0
 10
270.6141405378483
 20
41.36500157637352
 30
0.0
 10
270.3366878123376
 20
41.29256917882125
 30
0.0
 10
270.2423065564883
 20
41.27066393570908
 30
0.0
 10
270.0535769560662
 20
41.23216686160239
 30
0.0
 10
269.9587163618122
 20
41.21543593398683
 30
0.0
 10
269.6726610772818
 20
41.17281671911764
 30
0.0
 10
269.4783220950091
 20
41.1544632081339
 30
0.0
 10
269.0980925671991
 20
41.14006220377843
 30
0.0
 10
268.9112342448142
 20
41.14369039371265
 30
0.0
 10
268.5434181697585
 20
41.17370580186682
 30
0.0
 10
268.3639857285135
 20
41.20019466063707
 30
0.0
 10
268.0227908854393
 20
41.27513570207615
 30
0.0
 10
267.8595499702696
 20
41.32368952238807
 30
0.0
 10
267.5479045277984
 20
41.44441596282638
 30
0.0
 10
267.4030142617752
 20
41.51531927316461
 30
0.0
 10
267.1366540817932
 20
41.67644688821873
 30
0.0
 10
267.0147400409686
 20
41.76684125420556
 30
0.0
 10
266.7945634574635
 20
41.96775853774431
 30
0.0
 10
266.6994015877966
 20
42.07546290753768
 30
0.0
 10
266.538559268523
 20
42.30353944632074
 30
0.0
 10
266.4727533659643
 20
42.42407479151913
 30
0.0
 10
266.3732327180863
 20
42.67685227740493
 30
0.0
 10
266.34099237909
 20
42.80526618665788
 30
0.0
 10
266.3120358290902
 20
43.06421294904477
 30
0.0
 10
266.315371469599
 20
43.19534988026928
 30
0.0
 10
266.36244812966
 20
43.45540169934529
 30
0.0
 10
266.405334075883
 20
43.58035791264138
 30
0.0
 10
266.4998743230167
 20
43.75847172670309
 30
0.0
 10
266.5364609075276
 20
43.81628227970949
 30
0.0
 10
266.6205206892334
 20
43.92836869119724
 30
0.0
 10
266.6683369989624
 20
43.9828791027268
 30
0.0
 10
266.8245626691095
 20
44.13565307604736
 30
0.0
 10
266.9465383534085
 20
44.22485555382352
 30
0.0
 10
267.1568787273553
 20
44.33892160090687
 30
0.0
 10
267.2320918659657
 20
44.37377591798719
 30
0.0
 10
267.387693799981
 20
44.43492396863911
 30
0.0
 10
267.4684314514502
 20
44.46147333471571
 30
0.0
 10
267.7191251952959
 20
44.52968187355037
 30
0.0
 10
267.8997659444281
 20
44.56001351652511
 30
0.0
 10
268.2686855766956
 20
44.59076721733854
 30
0.0
 10
268.4574949483331
 20
44.59177170889065
 30
0.0
 10
268.8435660679587
 20
44.56884485767259
 30
0.0
 10
269.0367236186697
 20
44.54508957759438
 30
0.0
 10
269.2281613288815
 20
44.51145109275193
 30
0.0
  0
LINE
  5
201
330
1F
100
AcDbEntity
  8
0
  6
Continuous
 62
     7
370
    15
100
AcDbLine
 10
275.9690950933
 20
37.3084017113
 30
0.0
 11
275.9102444792
 21
37.3438615638
 31
0.0
  0
SPLINE
  5
202
330
1F
100
AcDbEntity
  8
0
  6
Continuous
 62
     7
370
    15
100
AcDbSpline
210
0.0
220
0.0
230
1.0
 70
     8
 71
     3
 72
    28
 73
    24
 74
     0
 42
0.000000001
 43
0.00000001
 40
0.0
 40
0.0
 40
0.0
 40
0.0
 40
0.0326391214255387
 40
0.0617972356069874
 40
0.0909556192142758
 40
0.1505440185942635
 40
0.2111195127979678
 40
0.2664235563348536
 40
0.3229979947899428
 40
0.3805177569193429
 40
0.432700088796121
 40
0.4859405947537022
 40
0.5399290639876635
 40
0.5930029114557568
 40
0.6470539980678564
 40
0.7017860884973856
 40
0.75845152998635
 40
0.8162096983075641
 40
0.8747650596480882
 40
0.903880784710451
 40
0.9329968450793689
 40
0.9925266853811741
 40
0.9999999999999999
 40
0.9999999999999999
 40
0.9999999999999999
 40
0.9999999999999999
 10
274.2636006464638
 20
37.42260912322786
 30
0.0
 10
274.2915717460708
 20
37.38444916933574
 30
0.0
 10
274.3445307889955
 20
37.31219907318032
 30
0.0
 10
274.4124278508544
 20
37.20233297388217
 30
0.0
 10
274.4948499057826
 20
37.05864268766297
 30
0.0
 10
274.5841933819176
 20
36.87332246666339
 30
0.0
 10
274.6633218757684
 20
36.65312508037039
 30
0.0
 10
274.7140985641909
 20
36.43693585069678
 30
0.0
 10
274.7370950054291
 20
36.22739295708507
 30
0.0
 10
274.7320538139874
 20
36.02741218307443
 30
0.0
 10
274.7012604237985
 20
35.83969116745063
 30
0.0
 10
274.6475884176598
 20
35.66607030403689
 30
0.0
 10
274.5708681207588
 20
35.50400587858984
 30
0.0
 10
274.4727440196743
 20
35.35575610054177
 30
0.0
 10
274.355115504971
 20
35.22332609429416
 30
0.0
 10
274.2174971347375
 20
35.10679627054322
 30
0.0
 10
274.0612431962233
 20
35.00904886236376
 30
0.0
 10
273.8881136827686
 20
34.93320624170293
 30
0.0
 10
273.7337884356067
 20
34.8916961479745
 30
0.0
 10
273.606345753952
 20
34.87219503480547
 30
0.0
 10
273.4761183350009
 20
34.86369478264032
 30
0.0
 10
273.3679010697388
 20
34.8624884380157
 30
0.0
 10
273.2930519496205
 20
34.87849624372095
 30
0.0
 10
273.2847035214868
 20
34.88028170245844
 30
0.0
  0
SPLINE
  5
203
330
1F
100
AcDbEntity
  8
0
  6
Continuous
 62
     7
370
    15
100
AcDbSpline
210
0.0
220
0.0
230
1.0
 70
     8
 71
     3
 72
    10
 73
     6
 74
     0
 42
0.000000001
 43
0.00000001
 40
0.0
 40
0.0
 40
0.0
 40
0.0
 40
0.5
 40
0.5
 40
1.0
 40
1.0
 40
1.0
 40
1.0
 10
236.8822564797549
 20
45.13136705195357
 30
0.0
 10
236.8257277939723
 20
45.09873373627095
 30
0.0
 10
236.7470844713976
 20
45.07836076081198
 30
0.0
 10
236.5868545570665
 20
45.07529936085063
 30
0.0
 10
236.5056875445258
 20
45.09295856073086
 30
0.0
 10
236.448573644188
 20
45.12592971358518
 30
0.0
  0
SPLINE
  5
204
330
1F
100
AcDbEntity
  8
0
  6
Continuous
 62
     7
370
    15
100
AcDbSpline
210
0.0
220
0.0
230
1.0
 70
     8
 71
     3
 72
    12
 73
     8
 74
     0
 42
0.000000001
 43
0.00000001
 40
0.0
 40
0.0
 40
0.0
 40
0.0
 40
0.2500000000000033
 40
0.2500000000000033
 40
0.5000000000000067
 40
0.5000000000000067
 40
1.0
 40
1.0
 40
1.0
 40
1.0
 10
254.1392955505328
 20
61.64989159184028
 30
0.0
 10
254.1711998788775
 20
61.63147361512453
 30
0.0
 10
254.2033372153184
 20
61.60155907449246
 30
0.0
 10
254.2579955217446
 20
61.53116165454956
 30
0.0
 10
254.280968861075
 20
61.49078095787372
 30
0.0
 10
254.3346506500127
 20
61.36825712783835
 30
0.0
 10
254.3514275848888
 20
61.28345580623267
 30
0.0
 10
254.3514275848888
 20
61.20990321059905
 30
0.0
  0
LINE
  5
205
330
1F
100
AcDbEntity
  8
0
  6
Continuous
 62
     7
370
    15
100
AcDbLine
 10
236.4485736442
 20
45.1259297136
 30
0.0
 11
235.0491855766
 21
45.9337792495
 31
0.0
  0
LWPOLYLINE
  5
206
330
1F
100
AcDbEntity
  8
0
  6
Continuous
 62
     7
370
    15
100
AcDbPolyline
 90
       23
 70
   128
 43
0.0
 10
235.0491855766
 20
45.9337792495
 10
235.3751485479
 20
47.205445204
 10
235.7834158149
 20
48.4867769132
 10
236.2707397654
 20
49.7675818657
 10
236.8332439206
 20
51.0376717401
 10
237.4664537717
 20
52.2869434496
 10
238.1653323728
 20
53.5054595081
 10
238.9243204077
 20
54.6835270789
 10
239.7373804121
 20
55.8117750779
 10
240.5980447998
 20
56.881228717
 10
241.4994673097
 20
57.8833808951
 10
242.4344774649
 20
58.8102598688
 10
243.3956376116
 20
59.6544926648
 10
244.3753020826
 20
60.4093637289
 10
245.3656780158
 20
61.0688683461
 10
246.3588873435
 20
61.6277604052
 10
247.3470294594
 20
62.0815941305
 10
248.3222440648
 20
62.4267594453
 10
249.2767736946
 20
62.6605106896
 10
250.203025425
 20
62.7809884601
 10
251.0936312721
 20
62.7872344017
 10
251.9415068017
 20
62.6791988301
 10
252.7399074829
 20
62.4577411277
  0
LINE
  5
207
330
1F
100
AcDbEntity
  8
0
  6
Continuous
 62
     7
370
    15
100
AcDbLine
 10
252.7399074829
 20
62.4577411277
 30
0.0
 11
254.1392955505
 21
61.6498915918
 31
0.0
  0
LINE
  5
208
330
1F
100
AcDbEntity
  8
0
  6
Continuous
 62
     7
370
    15
100
AcDbLine
 10
256.6672022933
 20
56.1447027484
 30
0.0
 11
257.8857029552
 21
56.8481282077
 31
0.0
  0
LINE
  5
209
330
1F
100
AcDbEntity
  8
0
  6
Continuous
 62
     7
370
    15
100
AcDbLine
 10
256.6672022933
 20
53.6486450358
 30
0.0
 11
256.6672022933
 21
56.1447027484
 31
0.0
  0
LINE
  5
20A
330
1F
100
AcDbEntity
  8
0
  6
Continuous
 62
     7
370
    15
100
AcDbLine
 10
236.8822564798
 20
37.782499745
 30
0.0
 11
237.9995832699
 21
38.4275187713
 31
0.0
  0
LINE
  5
20B
330
1F
100
AcDbEntity
  8
0
  6
Continuous
 62
     7
370
    15
100
AcDbLine
 10
237.9995832699
 20
38.4275187713
 30
0.0
 11
237.9995832699
 21
45.7763860783
 31
0.0
  0
LINE
  5
20C
330
1F
100
AcDbEntity
  8
0
  6
Continuous
 62
     7
370
    15
100
AcDbLine
 10
237.9995832699
 20
45.7763860783
 30
0.0
 11
236.8822564798
 21
45.131367052
 31
0.0
  0
LINE
  5
20D
330
1F
100
AcDbEntity
  8
0
  6
Continuous
 62
     7
370
    15
100
AcDbLine
 10
254.3514275849
 20
61.2099032106
 30
0.0
 11
254.3514275849
 21
59.6458387757
 31
0.0
  0
LINE
  5
20E
330
1F
100
AcDbEntity
  8
0
  6
Continuous
 62
     7
370
    15
100
AcDbLine
 10
255.7058737461
 20
60.4277439013
 30
0.0
 11
254.3514275849
 21
59.6458387757
 31
0.0
  0
LWPOLYLINE
  5
20F
330
1F
100
AcDbEntity
  8
0
  6
Continuous
 62
     7
370
    15
100
AcDbPolyline
 90
       20
 70
   128
 43
0.0
 10
234.1254027888
 20
47.5647612834
 10
234.4741048259
 20
48.8224295759
 10
234.9086587391
 20
50.0863285559
 10
235.4250843439
 20
51.3448818673
 10
236.0186515736
 20
52.5865621161
 10
236.6839238023
 20
53.7999964528
 10
237.414807641
 20
54.974070739
 10
238.204608748
 20
56.0980313447
 10
239.0460931439
 20
57.161583643
 10
239.9315534699
 20
58.1549863014
 10
240.8528795809
 20
59.0691405049
 10
241.8016328283
 20
59.895673294
 10
242.7691233519
 20
60.6270142554
 10
243.746489672
 20
61.2564648603
 10
244.7247798545
 20
61.7782598186
 10
245.695033503
 20
62.1876198842
 10
246.64836383
 20
62.4807956291
 10
247.5760390524
 20
62.6551017861
 10
248.4695623689
 20
62.7089418427
 10
249.2404688366
 20
62.6535927896
  0
SPLINE
  5
210
330
1F
100
AcDbEntity
  8
0
  6
Continuous
 62
     7
370
    15
100
AcDbSpline
210
0.0
220
0.0
230
1.0
 70
     8
 71
     3
 72
     8
 73
     4
 74
     0
 42
0.000000001
 43
0.00000001
 40
0.0
 40
0.0
 40
0.0
 40
0.0
 40
1.0
 40
1.0
 40
1.0
 40
1.0
 10
234.125402788797
 20
47.56476128343184
 30
0.0
 10
233.6341017597445
 20
47.48211406322795
 30
0.0
 10
233.1425216688418
 20
47.40003027573751
 30
0.0
 10
232.6507268700898
 20
47.31837998865577
 30
0.0
  0
LWPOLYLINE
  5
211
330
1F
100
AcDbEntity
  8
0
  6
Continuous
 62
     7
370
    15
100
AcDbPolyline
 90
       23
 70
   128
 43
0.0
 10
232.6507268701
 20
47.3183799887
 10
232.9766898414
 20
48.5900459432
 10
233.3849571085
 20
49.8713776524
 10
233.8722810589
 20
51.1521826048
 10
234.4347852141
 20
52.4222724793
 10
235.0679950653
 20
53.6715441888
 10
235.7668736664
 20
54.8900602473
 10
236.5258617012
 20
56.068127818
 10
237.3389217056
 20
57.1963758171
 10
238.1995860934
 20
58.2658294562
 10
239.1010086032
 20
59.2679816343
 10
240.0360187584
 20
60.194860608
 10
240.9971789051
 20
61.039093404
 10
241.9768433761
 20
61.7939644681
 10
242.9672193093
 20
62.4534690853
 10
243.9604286371
 20
63.0123611444
 10
244.9485707529
 20
63.4661948696
 10
245.9237853583
 20
63.8113601845
 10
246.8783149882
 20
64.0451114288
 10
247.8045667186
 20
64.1655891993
 10
248.6951725657
 20
64.1718351409
 10
249.5430480952
 20
64.0637995693
 10
250.3414487764
 20
63.8423418669
  0
LINE
  5
212
330
1F
100
AcDbEntity
  8
0
  6
Continuous
 62
     7
370
    15
100
AcDbLine
 10
250.3414487764
 20
63.8423418669
 30
0.0
 11
250.6684097012
 21
62.7859744488
 31
0.0
  0
LINE
  5
213
330
1F
100
AcDbEntity
  8
0
  6
Continuous
 62
     7
370
    15
100
AcDbLine
 10
246.9268063824
 20
65.8135729621
 30
0.0
 11
250.3414487764
 21
63.8423418669
 31
0.0
  0
LINE
  5
214
330
1F
100
AcDbEntity
  8
0
  6
Continuous
 62
     7
370
    15
100
AcDbLine
 10
232.6507268701
 20
47.3183799887
 30
0.0
 11
232.0645116008
 21
47.6567948602
 31
0.0
  0
SPLINE
  5
215
330
1F
100
AcDbEntity
  8
0
  6
Continuous
 62
     7
370
    15
100
AcDbSpline
210
0.0
220
0.0
230
1.0
 70
     8
 71
     3
 72
    28
 73
    24
 74
     0
 42
0.000000001
 43
0.00000001
 40
0.0
 40
0.0
 40
0.0
 40
0.0
 40
0.1249999999999999
 40
0.1249999999999999
 40
0.1874999999999998
 40
0.1874999999999998
 40
0.2499999999999997
 40
0.2499999999999997
 40
0.3749999999999993
 40
0.3749999999999993
 40
0.4374999999999993
 40
0.4374999999999993
 40
0.4999999999999992
 40
0.4999999999999992
 40
0.6249999999999992
 40
0.6249999999999992
 40
0.7499999999999992
 40
0.7499999999999992
 40
0.8124999999999993
 40
0.8124999999999993
 40
0.8749999999999996
 40
0.8749999999999996
 40
1.0
 40
1.0
 40
1.0
 40
1.0
 10
232.0645116008314
 20
47.65679486023559
 30
0.0
 10
231.876524520365
 20
47.76531749181966
 30
0.0
 10
231.6863045657644
 20
47.84726121236757
 30
0.0
 10
231.3982059638163
 20
47.93241894240603
 30
0.0
 10
231.3017160932168
 20
47.95446887280983
 30
0.0
 10
231.1079779203819
 20
47.98574269626879
 30
0.0
 10
231.0107268998505
 20
47.99486994759222
 30
0.0
 10
230.7247050249652
 20
48.00265278970063
 30
0.0
 10
230.5393632086086
 20
47.98234624606356
 30
0.0
 10
230.2708506217928
 20
47.91512559293042
 30
0.0
 10
230.182489962127
 20
47.88633923532483
 30
0.0
 10
230.0121372518373
 20
47.81732734522968
 30
0.0
 10
229.9301102220559
 20
47.77718745531954
 30
0.0
 10
229.6936739683032
 20
47.64056768755633
 30
0.0
 10
229.5488067181809
 20
47.52805319786727
 30
0.0
 10
229.2879499246968
 20
47.2597962328678
 30
0.0
 10
229.1756575171945
 20
47.10764284649051
 30
0.0
 10
229.0364330357407
 20
46.8557264587922
 30
0.0
 10
228.9948372493749
 20
46.76768417311584
 30
0.0
 10
228.9217125343137
 20
46.58334311806401
 30
0.0
 10
228.8900880502607
 20
46.48655435538223
 30
0.0
 10
228.8125947468385
 20
46.18853927648542
 30
0.0
 10
228.7834200314486
 20
45.97906639934889
 30
0.0
 10
228.7774531487069
 20
45.75868560666503
 30
0.0
  0
ARC
  5
216
330
1F
100
AcDbEntity
  8
0
  6
Continuous
 62
     7
370
    15
100
AcDbCircle
 10
243.620819611
 20
45.3504152007
 30
0.0
 40
14.84898018921161
100
AcDbArc
 50
178.4244628824
 51
181.5755371176
  0
SPLINE
  5
217
330
1F
100
AcDbEntity
  8
0
  6
Continuous
 62
     7
370
    15
100
AcDbSpline
210
0.0
220
0.0
230
1.0
 70
     8
 71
     3
 72
    30
 73
    26
 74
     0
 42
0.000000001
 43
0.00000001
 40
0.0
 40
0.0
 40
0.0
 40
0.0
 40
0.1250000000000001
 40
0.1250000000000001
 40
0.1875000000000002
 40
0.1875000000000002
 40
0.2500000000000003
 40
0.2500000000000003
 40
0.3750000000000004
 40
0.3750000000000004
 40
0.4375000000000004
 40
0.4375000000000004
 40
0.5000000000000004
 40
0.5000000000000004
 40
0.6250000000000007
 40
0.6250000000000007
 40
0.6875000000000006
 40
0.6875000000000006
 40
0.7500000000000004
 40
0.7500000000000004
 40
0.8125000000000004
 40
0.8125000000000004
 40
0.8750000000000003
 40
0.8750000000000003
 40
1.0
 40
1.0
 40
1.0
 40
1.0
 10
228.7774531487069
 20
44.94214479477927
 30
0.0
 10
228.7834207473984
 20
44.72862760200456
 30
0.0
 10
228.8125659673978
 20
44.51107770398544
 30
0.0
 10
228.8890006286567
 20
44.17877867444984
 30
0.0
 10
228.9199666122341
 20
44.06700437315027
 30
0.0
 10
228.9929365530497
 20
43.84130249961528
 30
0.0
 10
229.0350727516083
 20
43.72721472704276
 30
0.0
 10
229.1749645409727
 20
43.38905199968157
 30
0.0
 10
229.286808465515
 20
43.16654178040879
 30
0.0
 10
229.4805950626595
 20
42.83593152445923
 30
0.0
 10
229.5499357002628
 20
42.72570488475309
 30
0.0
 10
229.6954280847095
 20
42.50897488429954
 30
0.0
 10
229.7713153754285
 20
42.40277794866883
 30
0.0
 10
230.0077033239
 20
42.09013977541921
 30
0.0
 10
230.1768488261508
 20
41.88959722758405
 30
0.0
 10
230.4467148234849
 20
41.59949238816171
 30
0.0
 10
230.5389063295358
 20
41.50514897178926
 30
0.0
 10
230.7245049245705
 20
41.32384394372887
 30
0.0
 10
230.8183338048573
 20
41.23642461023471
 30
0.0
 10
231.0077838553227
 20
41.06781705991006
 30
0.0
 10
231.1034052705283
 20
40.98662887414071
 30
0.0
 10
231.2962669599547
 20
40.83046619459258
 30
0.0
 10
231.3940018688531
 20
40.75513921489588
 30
0.0
 10
231.6852578239735
 20
40.54184898145203
 30
0.0
 10
231.8765152149466
 20
40.41645555675161
 30
0.0
 10
232.0645116008314
 20
40.30792755326383
 30
0.0
  0
LINE
  5
218
330
1F
100
AcDbEntity
  8
0
  6
Continuous
 62
     7
370
    15
100
AcDbLine
 10
232.0645116008
 20
40.3079275533
 30
0.0
 11
232.6507268701
 21
39.9695126817
 31
0.0
  0
ARC
  5
219
330
1F
100
AcDbEntity
  8
0
  6
Continuous
 62
     7
370
    15
100
AcDbCircle
 10
238.4420826007
 20
41.3326286199
 30
0.0
 40
5.949612278125913
100
AcDbArc
 50
193.2446820632
 51
253.3774892935
  0
LINE
  5
21A
330
1F
100
AcDbEntity
  8
0
  6
Continuous
 62
     7
370
    15
100
AcDbLine
 10
251.9708666328
 20
62.9013931739
 30
0.0
 11
252.3051790365
 21
62.5940650637
 31
0.0
  0
LINE
  5
21B
330
1F
100
AcDbEntity
  8
0
  6
Continuous
 62
     7
370
    15
100
AcDbLine
 10
251.1179378789
 20
63.3937784628
 30
0.0
 11
251.9708666328
 21
62.9013931739
 31
0.0
  0
SPLINE
  5
21C
330
1F
100
AcDbEntity
  8
0
  6
Continuous
 62
     7
370
    15
100
AcDbSpline
210
0.0
220
0.0
230
1.0
 70
     8
 71
     3
 72
    20
 73
    16
 74
     0
 42
0.000000001
 43
0.00000001
 40
0.0
 40
0.0
 40
0.0
 40
0.0
 40
0.2499999999999995
 40
0.2499999999999995
 40
0.3749999999999996
 40
0.3749999999999996
 40
0.4999999999999997
 40
0.4999999999999997
 40
0.6249999999999998
 40
0.6249999999999998
 40
0.7499999999999998
 40
0.7499999999999998
 40
0.8749999999999999
 40
0.8749999999999999
 40
1.0
 40
1.0
 40
1.0
 40
1.0
 10
246.92680638243
 20
65.81357296213602
 30
0.0
 10
247.245795036828
 20
65.67968257287623
 30
0.0
 10
247.572250636926
 20
65.51978622581424
 30
0.0
 10
248.084600754309
 20
65.24186729834472
 30
0.0
 10
248.2592041209869
 20
65.14286828553442
 30
0.0
 10
248.6190779833358
 20
64.93192758063572
 30
0.0
 10
248.8019383996893
 20
64.82137176342569
 30
0.0
 10
249.1682334888665
 20
64.59595389441486
 30
0.0
 10
249.3527170051252
 20
64.48047329303539
 30
0.0
 10
249.7263018293606
 20
64.24564094873962
 30
0.0
 10
249.9106513005999
 20
64.12931102346437
 30
0.0
 10
250.2713612070763
 20
63.90361633666498
 30
0.0
 10
250.4484151963302
 20
63.79380636256829
 30
0.0
 10
250.7961445476826
 20
63.58241159903238
 30
0.0
 10
250.9613949641408
 20
63.48414876388937
 30
0.0
 10
251.1179378789222
 20
63.393778462772
 30
0.0
  0
LINE
  5
21D
330
1F
100
AcDbEntity
  8
0
  6
Continuous
 62
     7
370
    15
100
AcDbLine
 10
235.2600173436
 20
46.790502515
 30
0.0
 11
234.7963895512
 21
47.0581491426
 31
0.0
  0
LINE
  5
21E
330
1F
100
AcDbEntity
  8
0
  6
Continuous
 62
     7
370
    15
100
AcDbLine
 10
234.3705713932
 20
47.7062941061
 30
0.0
 11
234.1254027888
 21
47.5647612834
 31
0.0
  0
SPLINE
  5
21F
330
1F
100
AcDbEntity
  8
0
  6
Continuous
 62
     7
370
    15
100
AcDbSpline
210
0.0
220
0.0
230
1.0
 70
     8
 71
     3
 72
    14
 73
    10
 74
     0
 42
0.000000001
 43
0.00000001
 40
0.0
 40
0.0
 40
0.0
 40
0.0
 40
0.1249999999999983
 40
0.1249999999999983
 40
0.2499999999999967
 40
0.2499999999999967
 40
0.4999999999999968
 40
0.4999999999999968
 40
1.0
 40
1.0
 40
1.0
 40
1.0
 10
234.7963895511747
 20
47.05814914260986
 30
0.0
 10
234.7721931180096
 20
47.07211744615241
 30
0.0
 10
234.7490176795507
 20
47.09948262214996
 30
0.0
 10
234.7120972871197
 20
47.15728439127547
 30
0.0
 10
234.6970554960871
 20
47.18825487039184
 30
0.0
 10
234.6572420395003
 20
47.28128134332106
 30
0.0
 10
234.6376060211162
 20
47.34389239760582
 30
0.0
 10
234.5871851726467
 20
47.5282231485208
 30
0.0
 10
234.5647679944062
 20
47.64976738342148
 30
0.0
 10
234.5480800962402
 20
47.76889644872386
 30
0.0
  0
SPLINE
  5
220
330
1F
100
AcDbEntity
  8
0
  6
Continuous
 62
     7
370
    15
100
AcDbSpline
210
0.0
220
0.0
230
1.0
 70
     8
 71
     3
 72
    10
 73
     6
 74
     0
 42
0.000000001
 43
0.00000001
 40
0.0
 40
0.0
 40
0.0
 40
0.0
 40
0.5
 40
0.5
 40
1.0
 40
1.0
 40
1.0
 40
1.0
 10
234.5480800962402
 20
47.76889644872386
 30
0.0
 10
234.5146900780525
 20
47.76274667952363
 30
0.0
 10
234.4824507266244
 20
47.75420007167555
 30
0.0
 10
234.4224628323621
 20
47.73296409790666
 30
0.0
 10
234.3952009591131
 20
47.72051245189847
 30
0.0
 10
234.3705713931632
 20
47.70629410612163
 30
0.0
  0
LWPOLYLINE
  5
221
330
1F
100
AcDbEntity
  8
0
  6
Continuous
 62
     7
370
    15
100
AcDbPolyline
 90
       21
 70
   128
 43
0.0
 10
227.1278165092
 20
46.4187103161
 10
227.1709822497
 20
47.5694183805
 10
227.3001416407
 20
48.7609586973
 10
227.5142838349
 20
49.9840058479
 10
227.8117328793
 20
51.22898783
 10
228.1901608318
 20
52.4861609718
 10
228.6466059805
 20
53.7456861887
 10
229.1774960234
 20
54.9977059883
 10
229.7786760259
 20
56.2324216181
 10
230.4454409396
 20
57.4401697542
 10
231.1725724249
 20
58.6114981298
 10
231.954379692
 20
59.7372395123
 10
232.7847440392
 20
60.8085834491
 10
233.6571667394
 20
61.8171452212
 10
234.5648199022
 20
62.7550314654
 10
235.500599911
 20
63.6149019501
 10
236.4571830185
 20
64.390027023
 10
237.4270826647
 20
65.0743402793
 10
238.40270807
 20
65.6624860401
 10
239.3764236428
 20
66.1498612673
 10
240.2409483741
 20
66.4977906414
  0
LINE
  5
222
330
1F
100
AcDbEntity
  8
0
  6
Continuous
 62
     7
370
    15
100
AcDbLine
 10
235.8295875332
 20
39.6802306454
 30
0.0
 11
237.9995832699
 21
38.4275187713
 31
0.0
  0
SPLINE
  5
223
330
1F
100
AcDbEntity
  8
0
  6
Continuous
 62
     7
370
    15
100
AcDbSpline
210
0.0
220
0.0
230
1.0
 70
     8
 71
     3
 72
    14
 73
    10
 74
     0
 42
0.000000001
 43
0.00000001
 40
0.0
 40
0.0
 40
0.0
 40
0.0
 40
0.1249999999999993
 40
0.1249999999999993
 40
0.2499999999999987
 40
0.2499999999999987
 40
0.4999999999999973
 40
0.4999999999999973
 40
1.0
 40
1.0
 40
1.0
 40
1.0
 10
235.5812780782918
 20
40.39097795154794
 30
0.0
 10
235.6055066562445
 20
40.37699109121453
 30
0.0
 10
235.6285924976104
 20
40.3496923213978
 30
0.0
 10
235.6653348716736
 20
40.29225311309038
 30
0.0
 10
235.6804931713573
 20
40.26110263808799
 30
0.0
 10
235.720056098245
 20
40.16880309788223
 30
0.0
 10
235.7396659714879
 20
40.10656531712669
 30
0.0
 10
235.7904888204428
 20
39.92110955093013
 30
0.0
 10
235.8129205045669
 20
39.79921073063242
 30
0.0
 10
235.8295875332263
 20
39.68023064543384
 30
0.0
  0
LINE
  5
224
330
1F
100
AcDbEntity
  8
0
  6
Continuous
 62
     7
370
    15
100
AcDbLine
 10
234.7963895512
 20
40.8440844536
 30
0.0
 11
235.5812780783
 21
40.3909779515
 31
0.0
  0
SPLINE
  5
225
330
1F
100
AcDbEntity
  8
0
  6
Continuous
 62
     7
370
    15
100
AcDbSpline
210
0.0
220
0.0
230
1.0
 70
     8
 71
     3
 72
    14
 73
    10
 74
     0
 42
0.000000001
 43
0.00000001
 40
0.0
 40
0.0
 40
0.0
 40
0.0
 40
0.5
 40
0.5
 40
0.75
 40
0.75
 40
0.875
 40
0.875
 40
1.0
 40
1.0
 40
1.0
 40
1.0
 10
234.5480800962402
 20
40.42002914175185
 30
0.0
 10
234.564704177694
 20
40.51950888598198
 30
0.0
 10
234.5871215792983
 20
40.61534401937798
 30
0.0
 10
234.637552637147
 20
40.74155996895161
 30
0.0
 10
234.6570873310782
 20
40.78139351764587
 30
0.0
 10
234.6970304884136
 20
40.82865384911771
 30
0.0
 10
234.7120474555793
 20
40.84225646272298
 30
0.0
 10
234.749108823101
 20
40.85747686429869
 30
0.0
 10
234.7720924854493
 20
40.85811085109256
 30
0.0
 10
234.7963895511748
 20
40.84408445360953
 30
0.0
  0
LINE
  5
226
330
1F
100
AcDbEntity
  8
0
  6
Continuous
 62
     7
370
    15
100
AcDbLine
 10
233.4033891922
 20
41.0808451348
 30
0.0
 11
234.5480800962
 21
40.4200291418
 31
0.0
  0
ARC
  5
227
330
1F
100
AcDbEntity
  8
0
  6
Continuous
 62
     7
370
    15
100
AcDbCircle
 10
236.6898539821
 20
46.2442727904
 30
0.0
 40
6.120607483709661
100
AcDbArc
 50
182.476303705
 51
237.5236964406
  0
LINE
  5
228
330
1F
100
AcDbEntity
  8
0
  6
Continuous
 62
     7
370
    15
100
AcDbLine
 10
230.5749620675
 20
46.7963654178
 30
0.0
 11
230.5749620675
 21
45.979824606
 31
0.0
  0
ARC
  5
229
330
1F
100
AcDbEntity
  8
0
  6
Continuous
 62
     7
370
    15
100
AcDbCircle
 10
233.1719857494
 20
46.8799140808
 30
0.0
 40
2.59836725336821
100
AcDbArc
 50
154.677078997
 51
181.8426229113
  0
ARC
  5
22A
330
1F
100
AcDbEntity
  8
0
  6
Continuous
 62
     7
370
    15
100
AcDbCircle
 10
242.0475882117
 20
38.8237067931
 30
0.0
 40
5.589136068743521
100
AcDbArc
 50
209.5403304489
 51
270.5279406684
  0
SPLINE
  5
22B
330
1F
100
AcDbEntity
  8
0
  6
Continuous
 62
     7
370
    15
100
AcDbSpline
210
0.0
220
0.0
230
1.0
 70
     8
 71
     3
 72
    12
 73
     8
 74
     0
 42
0.000000001
 43
0.00000001
 40
0.0
 40
0.0
 40
0.0
 40
0.0
 40
0.2500000000000001
 40
0.2500000000000001
 40
0.5000000000000002
 40
0.5000000000000002
 40
1.0
 40
1.0
 40
1.0
 40
1.0
 10
236.448573644188
 20
37.77706240661344
 30
0.0
 10
236.4768158442603
 20
37.76075853154941
 30
0.0
 10
236.5113619761658
 20
37.74780273813941
 30
0.0
 10
236.5860860358634
 20
37.73109099994687
 30
0.0
 10
236.6263764271651
 20
37.72720409115941
 30
0.0
 10
236.7474894446014
 20
37.72946748904872
 30
0.0
 10
236.8256070070194
 20
37.74979670047546
 30
0.0
 10
236.8822564797549
 20
37.78249974498181
 30
0.0
  0
ARC
  5
22C
330
1F
100
AcDbEntity
  8
0
  6
Continuous
 62
     7
370
    15
100
AcDbCircle
 10
241.1899521578
 20
40.1700803984
 30
0.0
 40
6.342063799654944
100
AcDbArc
 50
194.4742699055
 51
238.1951928029
  0
LINE
  5
22D
330
1F
100
AcDbEntity
  8
0
  6
Continuous
 62
     7
370
    15
100
AcDbLine
 10
235.0491855766
 20
38.5849119425
 30
0.0
 11
236.4485736442
 21
37.7770624066
 31
0.0
  0
SPLINE
  5
22E
330
1F
100
AcDbEntity
  8
0
  6
Continuous
 62
     7
370
    15
100
AcDbSpline
210
0.0
220
0.0
230
1.0
 70
     8
 71
     3
 72
     8
 73
     4
 74
     0
 42
0.000000001
 43
0.00000001
 40
0.0
 40
0.0
 40
0.0
 40
0.0
 40
1.0
 40
1.0
 40
1.0
 40
1.0
 10
235.4759767408633
 20
39.43622422966941
 30
0.0
 10
235.3328120441728
 20
39.1526021826624
 30
0.0
 10
235.1906233473202
 20
38.86881903667838
 30
0.0
 10
235.049185576565
 20
38.58491194249131
 30
0.0
  0
LINE
  5
22F
330
1F
100
AcDbEntity
  8
0
  6
Continuous
 62
     7
370
    15
100
AcDbLine
 10
235.7211453452
 20
39.5777570524
 30
0.0
 11
235.4759767409
 21
39.4362242297
 31
0.0
  0
SPLINE
  5
230
330
1F
100
AcDbEntity
  8
0
  6
Continuous
 62
     7
370
    15
100
AcDbSpline
210
0.0
220
0.0
230
1.0
 70
     8
 71
     3
 72
    10
 73
     6
 74
     0
 42
0.000000001
 43
0.00000001
 40
0.0
 40
0.0
 40
0.0
 40
0.0
 40
0.5
 40
0.5
 40
1.0
 40
1.0
 40
1.0
 40
1.0
 10
235.8295875332264
 20
39.68023064543393
 30
0.0
 10
235.8189346662565
 20
39.66095499822778
 30
0.0
 10
235.8041299031043
 20
39.64234361680271
 30
0.0
 10
235.7673441317734
 20
39.60771334257112
 30
0.0
 10
235.7457749111794
 20
39.591975398136
 30
0.0
 10
235.7211453452294
 20
39.57775705235913
 30
0.0
  0
SPLINE
  5
231
330
1F
100
AcDbEntity
  8
0
  6
Continuous
 62
     7
370
    15
100
AcDbSpline
210
0.0
220
0.0
230
1.0
 70
     8
 71
     3
 72
    14
 73
    10
 74
     0
 42
0.000000001
 43
0.00000001
 40
0.0
 40
0.0
 40
0.0
 40
0.0
 40
0.5000000000000019
 40
0.5000000000000019
 40
0.7500000000000018
 40
0.7500000000000018
 40
0.875000000000001
 40
0.875000000000001
 40
1.0
 40
1.0
 40
1.0
 40
1.0
 10
219.9082782765476
 20
51.0752899925706
 30
0.0
 10
220.2234442203875
 20
50.84820200167474
 30
0.0
 10
220.5397198756534
 20
50.6183556266266
 30
0.0
 10
221.0185443642245
 20
50.26304702463749
 30
0.0
 10
221.1788643746485
 20
50.14290871044194
 30
0.0
 10
221.4219169106022
 20
49.95663987619812
 30
0.0
 10
221.5033603486188
 20
49.89354663497112
 30
0.0
 10
221.6680217976522
 20
49.76320139255897
 30
0.0
 10
221.7509278157185
 20
49.69667695058173
 30
0.0
 10
221.8369466438031
 20
49.62288347925817
 30
0.0
  0
SPLINE
  5
232
330
1F
100
AcDbEntity
  8
0
  6
Continuous
 62
     7
370
    15
100
AcDbSpline
210
0.0
220
0.0
230
1.0
 70
     8
 71
     3
 72
     8
 73
     4
 74
     0
 42
0.000000001
 43
0.00000001
 40
0.0
 40
0.0
 40
0.0
 40
0.0
 40
1.0
 40
1.0
 40
1.0
 40
1.0
 10
221.8369466438031
 20
49.62288347925817
 30
0.0
 10
222.1385991170407
 20
49.36410312117635
 30
0.0
 10
222.4438786605641
 20
49.11652810577169
 30
0.0
 10
222.7485382336907
 20
48.87555524920517
 30
0.0
  0
SPLINE
  5
233
330
1F
100
AcDbEntity
  8
0
  6
Continuous
 62
     7
370
    15
100
AcDbSpline
210
0.0
220
0.0
230
1.0
 70
     8
 71
     3
 72
    14
 73
    10
 74
     0
 42
0.000000001
 43
0.00000001
 40
0.0
 40
0.0
 40
0.0
 40
0.0
 40
0.1250000000000027
 40
0.1250000000000027
 40
0.2500000000000053
 40
0.2500000000000053
 40
0.5000000000000048
 40
0.5000000000000048
 40
1.0
 40
1.0
 40
1.0
 40
1.0
 10
222.7485382336908
 20
48.87555524920511
 30
0.0
 10
222.7677336096163
 20
48.86037251746892
 30
0.0
 10
222.7853456830167
 20
48.84900469897213
 30
0.0
 10
222.811190612936
 20
48.83773622975969
 30
0.0
 10
222.8193289771836
 20
48.83735275952263
 30
0.0
 10
222.8362790681517
 20
48.84312855221702
 30
0.0
 10
222.8384483406614
 20
48.85579397783506
 30
0.0
 10
222.8372727928468
 20
48.90023080487882
 30
0.0
 10
222.8251992722427
 20
48.94071407565227
 30
0.0
 10
222.8104210442026
 20
48.98471774553477
 30
0.0
  0
SPLINE
  5
234
330
1F
100
AcDbEntity
  8
0
  6
Continuous
 62
     7
370
    15
100
AcDbSpline
210
0.0
220
0.0
230
1.0
 70
     8
 71
     3
 72
    14
 73
    10
 74
     0
 42
0.000000001
 43
0.00000001
 40
0.0
 40
0.0
 40
0.0
 40
0.0
 40
0.25
 40
0.25
 40
0.5
 40
0.5
 40
0.75
 40
0.75
 40
1.0
 40
1.0
 40
1.0
 40
1.0
 10
222.8104210442019
 20
48.98471774553546
 30
0.0
 10
222.7923647972553
 20
49.03848204852223
 30
0.0
 10
222.7894419991541
 20
49.08303265761928
 30
0.0
 10
222.7840282706108
 20
49.175294007464
 30
0.0
 10
222.7824609925697
 20
49.22258841038425
 30
0.0
 10
222.7723225927625
 20
49.32734946521204
 30
0.0
 10
222.7640075950184
 20
49.38461067224704
 30
0.0
 10
222.7352074203595
 20
49.51423202962146
 30
0.0
 10
222.714554023689
 20
49.58702622923451
 30
0.0
 10
222.6858645065279
 20
49.66671292819427
 30
0.0
  0
ARC
  5
235
330
1F
100
AcDbEntity
  8
0
  6
Continuous
 62
     7
370
    15
100
AcDbCircle
 10
233.0408317839
 20
52.7532744261
 30
0.0
 40
10.80519362138142
100
AcDbArc
 50
163.4019732888
 51
196.5980267112
  0
SPLINE
  5
236
330
1F
100
AcDbEntity
  8
0
  6
Continuous
 62
     7
370
    15
100
AcDbSpline
210
0.0
220
0.0
230
1.0
 70
     8
 71
     3
 72
    14
 73
    10
 74
     0
 42
0.000000001
 43
0.00000001
 40
0.0
 40
0.0
 40
0.0
 40
0.0
 40
0.25
 40
0.25
 40
0.5
 40
0.5
 40
0.75
 40
0.75
 40
1.0
 40
1.0
 40
1.0
 40
1.0
 10
222.8104210442019
 20
57.30104094045845
 30
0.0
 10
222.7923647972553
 20
57.18019886151389
 30
0.0
 10
222.7894419991541
 20
57.05510459494778
 30
0.0
 10
222.7840282706108
 20
56.80715328429643
 30
0.0
 10
222.7824609925697
 20
56.68324465998268
 30
0.0
 10
222.7723225927625
 20
56.43708892074247
 30
0.0
 10
222.7640075950184
 20
56.31480097888105
 30
0.0
 10
222.7352074203595
 20
56.07280380167227
 30
0.0
 10
222.714554023689
 20
55.95264683449268
 30
0.0
 10
222.6858645065279
 20
55.8398359240874
 30
0.0
  0
SPLINE
  5
237
330
1F
100
AcDbEntity
  8
0
  6
Continuous
 62
     7
370
    15
100
AcDbSpline
210
0.0
220
0.0
230
1.0
 70
     8
 71
     3
 72
    14
 73
    10
 74
     0
 42
0.000000001
 43
0.00000001
 40
0.0
 40
0.0
 40
0.0
 40
0.0
 40
0.1249999999999979
 40
0.1249999999999979
 40
0.2499999999999958
 40
0.2499999999999958
 40
0.4999999999999948
 40
0.4999999999999948
 40
1.0
 40
1.0
 40
1.0
 40
1.0
 10
222.7485382336909
 20
57.84632650475247
 30
0.0
 10
222.7677336096164
 20
57.84403969677864
 30
0.0
 10
222.7853456830168
 20
57.83254145750581
 30
0.0
 10
222.811190612936
 20
57.7958499549793
 30
0.0
 10
222.8193289771837
 20
57.77276853987723
 30
0.0
 10
222.8362790681517
 20
57.70143602080013
 30
0.0
 10
222.8384483406614
 20
57.65019191519207
 30
0.0
 10
222.8372727928468
 20
57.50015643543048
 30
0.0
 10
222.8251992722427
 20
57.3999447605474
 30
0.0
 10
222.8104210442026
 20
57.30104094045878
 30
0.0
  0
SPLINE
  5
238
330
1F
100
AcDbEntity
  8
0
  6
Continuous
 62
     7
370
    15
100
AcDbSpline
210
0.0
220
0.0
230
1.0
 70
     8
 71
     3
 72
     8
 73
     4
 74
     0
 42
0.000000001
 43
0.00000001
 40
0.0
 40
0.0
 40
0.0
 40
0.0
 40
1.0
 40
1.0
 40
1.0
 40
1.0
 10
221.8369466438031
 20
57.89853931588855
 30
0.0
 10
222.1385991170407
 20
57.90588556303165
 30
0.0
 10
222.4438786605642
 20
57.88262159706171
 30
0.0
 10
222.7485382336909
 20
57.84632650475247
 30
0.0
  0
SPLINE
  5
239
330
1F
100
AcDbEntity
  8
0
  6
Continuous
 62
     7
370
    15
100
AcDbSpline
210
0.0
220
0.0
230
1.0
 70
     8
 71
     3
 72
    14
 73
    10
 74
     0
 42
0.000000001
 43
0.00000001
 40
0.0
 40
0.0
 40
0.0
 40
0.0
 40
0.5000000000000019
 40
0.5000000000000019
 40
0.7500000000000018
 40
0.7500000000000018
 40
0.875000000000001
 40
0.875000000000001
 40
1.0
 40
1.0
 40
1.0
 40
1.0
 10
219.9082782765476
 20
58.53117866087354
 30
0.0
 10
220.2234442203875
 20
58.39379416714742
 30
0.0
 10
220.5397198756534
 20
58.26222065951627
 30
0.0
 10
221.0185443642245
 20
58.08732519299549
 30
0.0
 10
221.1788643746485
 20
58.03265404273098
 30
0.0
 10
221.4219169106022
 20
57.96362222701093
 30
0.0
 10
221.5033603486188
 20
57.94275994250214
 30
0.0
 10
221.6680217976522
 20
57.90995222907249
 30
0.0
 10
221.7509278157185
 20
57.89644446957985
 30
0.0
 10
221.8369466438031
 20
57.89853931588854
 30
0.0
  0
SPLINE
  5
23A
330
1F
100
AcDbEntity
  8
0
  6
Continuous
 62
     7
370
    15
100
AcDbSpline
210
0.0
220
0.0
230
1.0
 70
     8
 71
     3
 72
     8
 73
     4
 74
     0
 42
0.000000001
 43
0.00000001
 40
0.0000005163856998
 40
0.0000005163856998
 40
0.0000005163856998
 40
0.0000005163856998
 40
0.000026289209185
 40
0.000026289209185
 40
0.000026289209185
 40
0.000026289209185
 10
219.9082566895283
 20
58.54405777206473
 30
0.0
 10
219.9082543883691
 20
58.5397649370382
 30
0.0
 10
219.9082616346934
 20
58.53547186936267
 30
0.0
 10
219.9082782765476
 20
58.53117866087354
 30
0.0
  0
LINE
  5
23B
330
1F
100
AcDbEntity
  8
0
  6
Continuous
 62
     7
370
    15
100
AcDbLine
 10
232.7150311894
 20
69.0672756624
 30
0.0
 11
232.7724320857
 21
69.0392743631
 31
0.0
  0
SPLINE
  5
23C
330
1F
100
AcDbEntity
  8
0
  6
Continuous
 62
     7
370
    15
100
AcDbSpline
210
0.0
220
0.0
230
1.0
 70
     8
 71
     3
 72
     8
 73
     4
 74
     0
 42
0.000000001
 43
0.00000001
 40
0.0000005163857002
 40
0.0000005163857002
 40
0.0000005163857002
 40
0.0000005163857002
 40
0.0000262892091854
 40
0.0000262892091854
 40
0.0000262892091854
 40
0.0000262892091854
 10
219.9082566895283
 20
51.07058672020496
 30
0.0
 10
219.9082543883691
 20
51.07216010590267
 30
0.0
 10
219.9082616346934
 20
51.07372783583484
 30
0.0
 10
219.9082782765476
 20
51.07528999257061
 30
0.0
  0
SPLINE
  5
23D
330
1F
100
AcDbEntity
  8
0
  6
Continuous
 62
     7
370
    15
100
AcDbSpline
210
0.0
220
0.0
230
1.0
 70
     8
 71
     3
 72
    18
 73
    14
 74
     0
 42
0.000000001
 43
0.00000001
 40
0.0
 40
0.0
 40
0.0
 40
0.0
 40
0.1239924398723225
 40
0.248662015472557
 40
0.3733088288804859
 40
0.4972464153495756
 40
0.6201266906733968
 40
0.6819366721410036
 40
0.7429470023677782
 40
0.803869868033269
 40
0.8660714721359477
 40
0.989387646975135
 40
1.0
 40
1.0
 40
1.0
 40
1.0
 10
225.5971249879822
 20
49.1976156049487
 30
0.0
 10
225.4640781813015
 20
49.44255037322241
 30
0.0
 10
225.1972579853648
 20
49.93375752424678
 30
0.0
 10
225.0725633913713
 20
50.68577864446519
 30
0.0
 10
225.2083890620754
 20
51.3104656870967
 30
0.0
 10
225.5754657040083
 20
51.7273310737463
 30
0.0
 10
226.0181031235365
 20
51.82131331494826
 30
0.0
 10
226.3943331905552
 20
51.73937158959281
 30
0.0
 10
226.6765424011115
 20
51.59709110691231
 30
0.0
 10
226.9489741122437
 20
51.38042231170701
 30
0.0
 10
227.2749713678576
 20
51.00253252971185
 30
0.0
 10
227.5261722960587
 20
50.62900378682652
 30
0.0
 10
227.6157248173231
 20
50.34381681054745
 30
0.0
 10
227.62282086314
 20
50.32121890016469
 30
0.0
  0
SPLINE
  5
23E
330
1F
100
AcDbEntity
  8
0
  6
Continuous
 62
     7
370
    15
100
AcDbSpline
210
0.0
220
0.0
230
1.0
 70
     8
 71
     3
 72
    13
 73
     9
 74
     0
 42
0.000000001
 43
0.00000001
 40
0.0
 40
0.0
 40
0.0
 40
0.0
 40
0.0382885351515911
 40
0.1999071033718844
 40
0.3588616305053315
 40
0.51793467972399
 40
0.6793040398967264
 40
1.0
 40
1.0
 40
1.0
 40
1.0
 10
227.2339176463384
 20
47.8680998219438
 30
0.0
 10
227.217983594443
 20
47.86510810934593
 30
0.0
 10
227.134790801959
 20
47.84948816992555
 30
0.0
 10
226.9359583386945
 20
47.93523634546521
 30
0.0
 10
226.6688727267823
 20
48.07112662966019
 30
0.0
 10
226.3857668378049
 20
48.2823720145535
 30
0.0
 10
226.0061307123497
 20
48.63030875718442
 30
0.0
 10
225.7605191210448
 20
48.97098158726044
 30
0.0
 10
225.5971249879822
 20
49.1976156049487
 30
0.0
  0
ARC
  5
23F
330
1F
100
AcDbEntity
  8
0
  6
Continuous
 62
     7
370
    15
100
AcDbCircle
 10
240.3669539994
 20
42.2466375017
 30
0.0
 40
6.563602728732447
100
AcDbArc
 50
198.0227526841
 51
217.4462785396
  0
SPLINE
  5
240
330
1F
100
AcDbEntity
  8
0
  6
Continuous
 62
     7
370
    15
100
AcDbSpline
210
0.0
220
0.0
230
1.0
 70
     8
 71
     3
 72
     8
 73
     4
 74
     0
 42
0.000000001
 43
0.00000001
 40
0.0
 40
0.0
 40
0.0
 40
0.0
 40
1.0
 40
1.0
 40
1.0
 40
1.0
 10
232.6507268700898
 20
39.96951268168403
 30
0.0
 10
233.1425216688418
 20
40.05116296876577
 30
0.0
 10
233.6341017597445
 20
40.13324675625621
 30
0.0
 10
234.125402788797
 20
40.21589397646009
 30
0.0
  0
LINE
  5
241
330
1F
100
AcDbEntity
  8
0
  6
Continuous
 62
     7
370
    15
100
AcDbLine
 10
234.1254027888
 20
40.2158939765
 30
0.0
 11
234.3705713932
 21
40.3574267991
 31
0.0
  0
SPLINE
  5
242
330
1F
100
AcDbEntity
  8
0
  6
Continuous
 62
     7
370
    15
100
AcDbSpline
210
0.0
220
0.0
230
1.0
 70
     8
 71
     3
 72
    10
 73
     6
 74
     0
 42
0.000000001
 43
0.00000001
 40
0.0
 40
0.0
 40
0.0
 40
0.0
 40
0.5
 40
0.5
 40
1.0
 40
1.0
 40
1.0
 40
1.0
 10
234.3705713931632
 20
40.35742679914986
 30
0.0
 10
234.3954036965151
 20
40.37176218273771
 30
0.0
 10
234.4230786940085
 20
40.38435762287381
 30
0.0
 10
234.483203703463
 20
40.40555552101407
 30
0.0
 10
234.5148981036578
 20
40.41391768668073
 30
0.0
 10
234.5480800962395
 20
40.42002914175198
 30
0.0
  0
SPLINE
  5
243
330
1F
100
AcDbEntity
  8
0
  6
Continuous
 62
     7
370
    15
100
AcDbSpline
210
0.0
220
0.0
230
1.0
 70
     8
 71
     3
 72
    16
 73
    12
 74
     0
 42
0.000000001
 43
0.00000001
 40
0.0
 40
0.0
 40
0.0
 40
0.0
 40
0.0931563782714565
 40
0.2183341667759444
 40
0.3471703664421558
 40
0.4719831854668946
 40
0.6003222233091315
 40
0.7268452815747091
 40
0.8569621333602261
 40
0.9847114590764011
 40
1.0
 40
1.0
 40
1.0
 40
1.0
 10
226.6062693645395
 20
51.5496561594058
 30
0.0
 10
226.5960002200869
 20
51.49212121707149
 30
0.0
 10
226.5719320334615
 20
51.35727437214094
 30
0.0
 10
226.5851563040329
 20
51.11826503517273
 30
0.0
 10
226.6369734461794
 20
50.84874769389816
 30
0.0
 10
226.7318542079403
 20
50.57160298782278
 30
0.0
 10
226.8627543958316
 20
50.29889872159085
 30
0.0
 10
227.0277223458059
 20
50.03066207907522
 30
0.0
 10
227.2198286482908
 20
49.78105769360771
 30
0.0
 10
227.367628840174
 20
49.6109915138057
 30
0.0
 10
227.450347296087
 20
49.53602321786334
 30
0.0
 10
227.4591886227096
 20
49.52801026375956
 30
0.0
  0
LINE
  5
244
330
1F
100
AcDbEntity
  8
0
  6
Continuous
 62
     7
370
    15
100
AcDbLine
 10
254.2743170239
 20
61.4957439133
 30
0.0
 11
254.3693253392
 21
61.5167924347
 31
0.0
  0
LINE
  5
245
330
1F
100
AcDbEntity
  8
0
  6
Continuous
 62
     7
370
    15
100
AcDbLine
 10
254.3693253392
 20
61.5167924347
 30
0.0
 11
255.7687134069
 21
60.7089428988
 31
0.0
  0
SPLINE
  5
246
330
1F
100
AcDbEntity
  8
0
  6
Continuous
 62
     7
370
    15
100
AcDbSpline
210
0.0
220
0.0
230
1.0
 70
     8
 71
     3
 72
    12
 73
     8
 74
     0
 42
0.000000001
 43
0.00000001
 40
0.0
 40
0.0
 40
0.0
 40
0.0
 40
0.249999999999998
 40
0.249999999999998
 40
0.499999999999996
 40
0.499999999999996
 40
1.0
 40
1.0
 40
1.0
 40
1.0
 10
255.768713406855
 20
60.70894289882828
 30
0.0
 10
255.8009573777276
 20
60.69032885065467
 30
0.0
 10
255.8230103802612
 20
60.66607852785726
 30
0.0
 10
255.8438593244261
 20
60.61549066996971
 30
0.0
 10
255.8434781551989
 20
60.58865210153566
 30
0.0
 10
255.8177252223016
 20
60.51141798526684
 30
0.0
 10
255.7697737951929
 20
60.464632614439
 30
0.0
 10
255.7058737460576
 20
60.42774390127153
 30
0.0
  0
SPLINE
  5
247
330
1F
100
AcDbEntity
  8
0
  6
Continuous
 62
     7
370
    15
100
AcDbSpline
210
0.0
220
0.0
230
1.0
 70
     8
 71
     3
 72
    12
 73
     8
 74
     0
 42
0.000000001
 43
0.00000001
 40
0.0
 40
0.0
 40
0.0
 40
0.0
 40
0.1944272588039715
 40
0.3737617258565514
 40
0.6863630052030528
 40
0.9660591267251734
 40
1.0
 40
1.0
 40
1.0
 40
1.0
 10
225.8883943378314
 20
49.38053869013708
 30
0.0
 10
225.9679479707729
 20
49.26613928669718
 30
0.0
 10
226.1208797321386
 20
49.04622095461922
 30
0.0
 10
226.4457410149576
 20
48.69226846186206
 30
0.0
 10
226.8302392051538
 20
48.38883607230954
 30
0.0
 10
227.1226391995733
 20
48.22335327158556
 30
0.0
 10
227.2453034415128
 20
48.20676398388257
 30
0.0
 10
227.2585778050608
 20
48.20496873995094
 30
0.0
  0
SPLINE
  5
248
330
1F
100
AcDbEntity
  8
0
  6
Continuous
 62
     7
370
    15
100
AcDbSpline
210
0.0
220
0.0
230
1.0
 70
     8
 71
     3
 72
    16
 73
    12
 74
     0
 42
0.000000001
 43
0.00000001
 40
0.0
 40
0.0
 40
0.0
 40
0.0
 40
0.1460145430680038
 40
0.2335492809465956
 40
0.3282846594090491
 40
0.4359414638218692
 40
0.5278790608120891
 40
0.6640995322706775
 40
0.8013223014627425
 40
0.8930413578038069
 40
1.0
 40
1.0
 40
1.0
 40
1.0
 10
226.828001809778
 20
51.46250760759463
 30
0.0
 10
226.6811412038497
 20
51.53597850753211
 30
0.0
 10
226.4462386510407
 20
51.65349471852287
 30
0.0
 10
226.1293875614007
 20
51.64352478498152
 30
0.0
 10
225.8762584023177
 20
51.55578944269859
 30
0.0
 10
225.6675351267713
 20
51.37399722778762
 30
0.0
 10
225.5045042103585
 20
51.08213185315221
 30
0.0
 10
225.4274764038779
 20
50.67224847937875
 30
0.0
 10
225.5028757439113
 20
50.20767931718601
 30
0.0
 10
225.6616182809933
 20
49.76573465068392
 30
0.0
 10
225.8090331628356
 20
49.51533953489487
 30
0.0
 10
225.8883943378314
 20
49.38053869013708
 30
0.0
  0
SPLINE
  5
249
330
1F
100
AcDbEntity
  8
0
  6
Continuous
 62
     7
370
    15
100
AcDbSpline
210
0.0
220
0.0
230
1.0
 70
     8
 71
     3
 72
    10
 73
     6
 74
     0
 42
0.000000001
 43
0.00000001
 40
0.0
 40
0.0
 40
0.0
 40
0.0
 40
0.3338925824292444
 40
0.7038858844675331
 40
1.0
 40
1.0
 40
1.0
 40
1.0
 10
257.8857029552188
 20
56.84812820774236
 30
0.0
 10
257.9064655434867
 20
56.86255685600514
 30
0.0
 10
257.9502355868357
 20
56.89297418893968
 30
0.0
 10
257.9822143854891
 20
56.94828421097711
 30
0.0
 10
257.9756725702414
 20
56.98562627348869
 30
0.0
 10
257.9727644449377
 20
57.00222646667239
 30
0.0
  0
SPLINE
  5
24A
330
1F
100
AcDbEntity
  8
0
  6
Continuous
 62
     7
370
    15
100
AcDbSpline
210
0.0
220
0.0
230
1.0
 70
     8
 71
     3
 72
     9
 73
     5
 74
     0
 42
0.000000001
 43
0.00000001
 40
0.0
 40
0.0
 40
0.0
 40
0.0
 40
0.9351644297790086
 40
1.0
 40
1.0
 40
1.0
 40
1.0
 10
251.9708666327568
 20
62.90139317389887
 30
0.0
 10
251.9194199741113
 20
62.82273468222514
 30
0.0
 10
251.8644064844968
 20
62.73862274514866
 30
0.0
 10
251.8068761335824
 20
62.65507806521288
 30
0.0
 10
251.8031461204759
 20
62.64966139825032
 30
0.0
  0
LINE
  5
24B
330
1F
100
AcDbEntity
  8
0
  6
Continuous
 62
     7
370
    15
100
AcDbLine
 10
221.7480341217
 20
53.2502711958
 30
0.0
 11
222.2484169571
 21
52.9614063336
 31
0.0
  0
SPLINE
  5
24C
330
1F
100
AcDbEntity
  8
0
  6
Continuous
 62
     7
370
    15
100
AcDbSpline
210
0.0
220
0.0
230
1.0
 70
     8
 71
     3
 72
     9
 73
     5
 74
     0
 42
0.000000001
 43
0.00000001
 40
0.0
 40
0.0
 40
0.0
 40
0.0
 40
0.7009329310329868
 40
1.0
 40
1.0
 40
1.0
 40
1.0
 10
219.9222231808313
 20
59.0076496265542
 30
0.0
 10
219.9191507987323
 20
59.06165380137923
 30
0.0
 10
219.9147675232963
 20
59.13869993865436
 30
0.0
 10
219.9391786574397
 20
59.22833223403759
 30
0.0
 10
219.9464792237781
 20
59.25513830190264
 30
0.0
  0
SPLINE
  5
24D
330
1F
100
AcDbEntity
  8
0
  6
Continuous
 62
     7
370
    15
100
AcDbSpline
210
0.0
220
0.0
230
1.0
 70
     8
 71
     3
 72
    10
 73
     6
 74
     0
 42
0.000000001
 43
0.00000001
 40
0.0
 40
0.0
 40
0.0
 40
0.0
 40
0.5
 40
0.5
 40
1.0
 40
1.0
 40
1.0
 40
1.0
 10
219.9627156267464
 20
59.05999995118639
 30
0.0
 10
219.9427895762497
 20
58.97603947716837
 30
0.0
 10
219.9294953121088
 20
58.89059361465461
 30
0.0
 10
219.9122267859681
 20
58.71818014371733
 30
0.0
 10
219.908303331346
 20
58.63106853745101
 30
0.0
 10
219.9082566895283
 20
58.54405777206473
 30
0.0
  0
SPLINE
  5
24E
330
1F
100
AcDbEntity
  8
0
  6
Continuous
 62
     7
370
    15
100
AcDbSpline
210
0.0
220
0.0
230
1.0
 70
     8
 71
     3
 72
    24
 73
    20
 74
     0
 42
0.000000001
 43
0.00000001
 40
0.0
 40
0.0
 40
0.0
 40
0.0
 40
0.2500000000000114
 40
0.2500000000000114
 40
0.3750000000000163
 40
0.3750000000000163
 40
0.4375000000000177
 40
0.4375000000000177
 40
0.4687500000000166
 40
0.4687500000000166
 40
0.5000000000000155
 40
0.5000000000000155
 40
0.5625000000000157
 40
0.5625000000000157
 40
0.6250000000000157
 40
0.6250000000000157
 40
0.7500000000000099
 40
0.7500000000000099
 40
1.0
 40
1.0
 40
1.0
 40
1.0
 10
219.9464792237781
 20
59.25513830190264
 30
0.0
 10
219.9763202530633
 20
59.36241735845889
 30
0.0
 10
220.0061497931043
 20
59.46830193182956
 30
0.0
 10
220.0508209499756
 20
59.61824997507986
 30
0.0
 10
220.0657737420674
 20
59.66725023784279
 30
0.0
 10
220.0873568803567
 20
59.73040051974553
 30
0.0
 10
220.0944865918864
 20
59.75004070397404
 30
0.0
 10
220.1033382171878
 20
59.76775063346204
 30
0.0
 10
220.1059763144577
 20
59.77146699994772
 30
0.0
 10
220.1091288525027
 20
59.76931865156551
 30
0.0
 10
220.1095088136395
 20
59.76315624249893
 30
0.0
 10
220.1074988883787
 20
59.73451115914617
 30
0.0
 10
220.1029222467803
 20
59.70621015415799
 30
0.0
 10
220.0929908606739
 20
59.6498311440087
 30
0.0
 10
220.0873006749389
 20
59.62036139605266
 30
0.0
 10
220.0697190743203
 20
59.53250697548633
 30
0.0
 10
220.057038201392
 20
59.47328198243699
 30
0.0
 10
220.0177971377717
 20
59.29478867530722
 30
0.0
 10
219.9904936777351
 20
59.17704564113351
 30
0.0
 10
219.9627156267464
 20
59.05999995118641
 30
0.0
  0
ARC
  5
24F
330
1F
100
AcDbEntity
  8
0
  6
Continuous
 62
     7
370
    15
100
AcDbCircle
 10
220.6253936638
 20
58.4653905173
 30
0.0
 40
0.7201267655269452
100
AcDbArc
 50
174.7583590299
 51
234.4349468916
  0
ARC
  5
250
330
1F
100
AcDbEntity
  8
0
  6
Continuous
 62
     7
370
    15
100
AcDbCircle
 10
222.1207276088
 20
50.96549414
 30
0.0
 40
2.215172042338736
100
AcDbArc
 50
122.6235698332
 51
177.1589486026
  0
LINE
  5
251
330
1F
100
AcDbEntity
  8
0
  6
Continuous
 62
     7
370
    15
100
AcDbLine
 10
220.9264900382
 20
52.8311800198
 30
0.0
 11
221.6705766698
 21
53.2607320889
 31
0.0
  0
SPLINE
  5
252
330
1F
100
AcDbEntity
  8
0
  6
Continuous
 62
     7
370
    15
100
AcDbSpline
210
0.0
220
0.0
230
1.0
 70
     8
 71
     3
 72
     8
 73
     4
 74
     0
 42
0.000000001
 43
0.00000001
 40
0.0
 40
0.0
 40
0.0
 40
0.0
 40
0.0001590976915385
 40
0.0001590976915385
 40
0.0001590976915385
 40
0.0001590976915385
 10
221.748034121706
 20
53.25027119583198
 30
0.0
 10
221.7222139927583
 20
53.25375574521189
 30
0.0
 10
221.6963948488238
 20
53.25724272786732
 30
0.0
 10
221.6705766697854
 20
53.2607320889045
 30
0.0
  0
SPLINE
  5
253
330
1F
100
AcDbEntity
  8
0
  6
Continuous
 62
     7
370
    15
100
AcDbSpline
210
0.0
220
0.0
230
1.0
 70
     8
 71
     3
 72
    10
 73
     6
 74
     0
 42
0.000000001
 43
0.00000001
 40
0.0
 40
0.0
 40
0.0
 40
0.0
 40
0.5
 40
0.5
 40
1.0
 40
1.0
 40
1.0
 40
1.0
 10
219.9627156267464
 20
50.87534433548242
 30
0.0
 10
219.9427895762497
 20
50.91386589699909
 30
0.0
 10
219.9294953121088
 20
50.9458292241929
 30
0.0
 10
219.9122267859681
 20
51.00827264769134
 30
0.0
 10
219.908303331346
 20
51.03869602490439
 30
0.0
 10
219.9082566895283
 20
51.07058672020495
 30
0.0
  0
LINE
  5
254
330
1F
100
AcDbEntity
  8
0
  6
Continuous
 62
     7
370
    15
100
AcDbLine
 10
219.9186232554
 20
51.6724568967
 30
0.0
 11
219.9222231808
 21
51.5368200145
 31
0.0
  0
ARC
  5
255
330
1F
100
AcDbEntity
  8
0
  6
Continuous
 62
     7
370
    15
100
AcDbCircle
 10
221.2553488541
 20
51.4601517548
 30
0.0
 40
1.353480254557038
100
AcDbArc
 50
122.9135798094
 51
170.9753897871
  0
LINE
  5
256
330
1F
100
AcDbEntity
  8
0
  6
Continuous
 62
     7
370
    15
100
AcDbLine
 10
220.9264900382
 20
52.8311800198
 30
0.0
 11
220.519903639
 21
52.5963863851
 31
0.0
  0
LINE
  5
257
330
1F
100
AcDbEntity
  8
0
  6
Continuous
 62
     7
370
    15
100
AcDbLine
 10
220.0178752137
 20
50.7796202088
 30
0.0
 11
219.9627156267
 21
50.8753443355
 31
0.0
  0
LWPOLYLINE
  5
258
330
1F
100
AcDbEntity
  8
0
  6
Continuous
 62
     7
370
    15
100
AcDbPolyline
 90
        6
 70
   128
 43
0.0
 10
272.2356035045
 20
34.8290733935
 10
272.1522894598
 20
34.730498608
 10
271.9294582299
 20
34.6054383565
 10
271.6537574341
 20
34.5936702617
 10
271.3475227111
 20
34.6961477048
 10
271.1136377725
 20
34.8426112311
  0
LWPOLYLINE
  5
259
330
1F
100
AcDbEntity
  8
0
  6
Continuous
 62
     7
370
    15
100
AcDbPolyline
 90
        7
 70
   128
 43
0.0
 10
271.5350812739
 20
42.1253168879
 10
271.7053890013
 20
42.4331776514
 10
271.7527589552
 20
42.7551971952
 10
271.6748158083
 20
43.0752281148
 10
271.4754679554
 20
43.3772227234
 10
271.1647115302
 20
43.6460377504
 10
271.0217571932
 20
43.735883356
  0
LWPOLYLINE
  5
25A
330
1F
100
AcDbEntity
  8
0
  6
Continuous
 62
     7
370
    15
100
AcDbPolyline
 90
       18
 70
   128
 43
0.0
 10
267.4856488036
 20
43.735883356
 10
267.2570302833
 20
43.5840257998
 10
266.9723247229
 20
43.3057612407
 10
266.8020169955
 20
42.9979004772
 10
266.7546470416
 20
42.6758809334
 10
266.8325901885
 20
42.3558500139
 10
267.0319380414
 20
42.0538554052
 10
267.3426944665
 20
41.7850403783
 10
267.7492768391
 20
41.5628844408
 10
268.2312974213
 20
41.3985274192
 10
268.7645856883
 20
41.3002108609
 10
269.3224003396
 20
41.2728647686
 10
269.8767702193
 20
41.3178603896
 10
270.3998969069
 20
41.4329414555
 10
270.8655486458
 20
41.6123373212
 10
271.2503757135
 20
41.8470523288
 10
271.5350812739
 20
42.1253168879
 10
271.5350812739
 20
42.1253168879
  0
LWPOLYLINE
  5
25B
330
1F
100
AcDbEntity
  8
0
  6
Continuous
 62
     7
370
    15
100
AcDbPolyline
 90
       27
 70
   128
 43
0.0
 10
271.2156883153
 20
42.4937372767
 10
271.3690993839
 20
42.7795430551
 10
271.3995713036
 20
43.0782381886
 10
271.3053331574
 20
43.3724636018
 10
271.0918617237
 20
43.645119983
 10
270.7715631863
 20
43.8803615346
 10
270.363052132
 20
44.0645168725
 10
269.8900697384
 20
44.1868835579
 10
269.3801040229
 20
44.2403500839
 10
268.8627923394
 20
44.2218091702
 10
268.3681989624
 20
44.1323383475
 10
267.9250678614
 20
43.9771373347
 10
267.5591522051
 20
43.7652258505
 10
267.2917176815
 20
43.5089194202
 10
267.1383066129
 20
43.2231136418
 10
267.1078346932
 20
42.9244185083
 10
267.2020728394
 20
42.6301930951
 10
267.4155442731
 20
42.3575367139
 10
267.7358428105
 20
42.1222951624
 10
268.1443538648
 20
41.9381398245
 10
268.6173362584
 20
41.815773139
 10
269.1273019739
 20
41.7623066131
 10
269.6446136574
 20
41.7808475267
 10
270.1392070344
 20
41.8703183494
 10
270.5823381354
 20
42.0255193622
 10
270.9482537917
 20
42.2374308464
 10
271.2156883153
 20
42.4937372767
  0
LWPOLYLINE
  5
25C
330
1F
100
AcDbEntity
  8
0
  6
Continuous
 62
     7
370
    15
100
AcDbPolyline
 90
       23
 70
   128
 43
0.0
 10
270.6225299637
 20
42.6471950426
 10
270.7399098161
 20
42.8841669647
 10
270.736886031
 20
43.1306306053
 10
270.6137035774
 20
43.366618946
 10
270.3803419651
 20
43.573013615
 10
270.0557067641
 20
43.7330937436
 10
269.6660979877
 20
43.8338905919
 10
269.2430794219
 20
43.8672381987
 10
268.8209215151
 20
43.8304349392
 10
268.4338249902
 20
43.7264623945
 10
268.1131501055
 20
43.563743802
 10
267.8848760331
 20
43.3554616543
 10
267.7674961807
 20
43.1184897323
 10
267.7705199658
 20
42.8720260917
 10
267.8937024194
 20
42.6360377509
 10
268.1270640317
 20
42.429643082
 10
268.4516992327
 20
42.2695629533
 10
268.8413080091
 20
42.168766105
 10
269.2643265749
 20
42.1354184982
 10
269.6864844817
 20
42.1722217578
 10
270.0735810066
 20
42.2761943024
 10
270.3942558913
 20
42.4389128949
 10
270.6225299637
 20
42.6471950426
  0
SPLINE
  5
25D
330
1F
100
AcDbEntity
  8
0
  6
Continuous
 62
     7
370
    15
100
AcDbSpline
210
0.0
220
0.0
230
1.0
 70
     8
 71
     3
 72
    11
 73
     7
 74
     0
 42
0.000000001
 43
0.00000001
 40
0.0
 40
0.0
 40
0.0
 40
0.0
 40
0.2164543009645145
 40
0.4403089937225399
 40
0.7518987489759459
 40
0.9999999999999999
 40
0.9999999999999999
 40
0.9999999999999999
 40
0.9999999999999999
 10
270.6895352037237
 20
43.04016970019418
 30
0.0
 10
270.6316147724292
 20
43.04946005332987
 30
0.0
 10
270.5137936586624
 20
43.06835838901677
 30
0.0
 10
270.2951486357582
 20
43.18030024759412
 30
0.0
 10
270.0606114902085
 20
43.40540456343143
 30
0.0
 10
269.9105214346484
 20
43.62023757791595
 30
0.0
 10
269.8439891335518
 20
43.71546930230863
 30
0.0
  0
SPLINE
  5
25E
330
1F
100
AcDbEntity
  8
0
  6
Continuous
 62
     7
370
    15
100
AcDbSpline
210
0.0
220
0.0
230
1.0
 70
     8
 71
     3
 72
    11
 73
     7
 74
     0
 42
0.000000001
 43
0.00000001
 40
0.0
 40
0.0
 40
0.0
 40
0.0
 40
0.2164543009645008
 40
0.4403089937225363
 40
0.7518987489759484
 40
1.0
 40
1.0
 40
1.0
 40
1.0
 10
269.8439891335518
 20
43.71546930230863
 30
0.0
 10
269.7456337351496
 20
43.67267335648263
 30
0.0
 10
269.5455602494085
 20
43.58561830718084
 30
0.0
 10
269.1742764406423
 20
43.5009385285406
 30
0.0
 10
268.7760060225
 20
43.51512984515306
 30
0.0
 10
268.5211362489003
 20
43.59499087599794
 30
0.0
 10
268.4081569282232
 20
43.63039187661873
 30
0.0
  0
SPLINE
  5
25F
330
1F
100
AcDbEntity
  8
0
  6
Continuous
 62
     7
370
    15
100
AcDbSpline
210
0.0
220
0.0
230
1.0
 70
     8
 71
     3
 72
    11
 73
     7
 74
     0
 42
0.000000001
 43
0.00000001
 40
0.0
 40
0.0
 40
0.0
 40
0.0
 40
0.1849308168246172
 40
0.5198464202157798
 40
0.8714438233692661
 40
1.0
 40
1.0
 40
1.0
 40
1.0
 10
268.4081569282232
 20
43.63039187661873
 30
0.0
 10
268.373799390946
 20
43.55428719327051
 30
0.0
 10
268.2772192586148
 20
43.34035450276738
 30
0.0
 10
268.0969339981198
 20
43.04197848793994
 30
0.0
 10
267.9304331836922
 20
42.90849481522246
 30
0.0
 10
267.8416433553078
 20
42.87814160759585
 30
0.0
 10
267.8178707930665
 20
42.8700148488144
 30
0.0
  0
SPLINE
  5
260
330
1F
100
AcDbEntity
  8
0
  6
Continuous
 62
     7
370
    15
100
AcDbSpline
210
0.0
220
0.0
230
1.0
 70
     8
 71
     3
 72
    10
 73
     6
 74
     0
 42
0.000000001
 43
0.00000001
 40
0.0
 40
0.0
 40
0.0
 40
0.0
 40
0.3405157461245251
 40
0.6926734412514555
 40
1.0
 40
1.0
 40
1.0
 40
1.0
 10
267.8178707930665
 20
42.8700148488144
 30
0.0
 10
267.8757219257527
 20
42.78747731848204
 30
0.0
 10
267.9934020730413
 20
42.61958036858061
 30
0.0
 10
268.179286158448
 20
42.4086372484476
 30
0.0
 10
268.3016082496672
 20
42.34097535390264
 30
0.0
 10
268.3586116233375
 20
42.30944420348213
 30
0.0
  0
SPLINE
  5
261
330
1F
100
AcDbEntity
  8
0
  6
Continuous
 62
     7
370
    15
100
AcDbSpline
210
0.0
220
0.0
230
1.0
 70
     8
 71
     3
 72
    10
 73
     6
 74
     0
 42
0.000000001
 43
0.00000001
 40
0.0
 40
0.0
 40
0.0
 40
0.0
 40
0.3695797032394066
 40
0.7757334937992656
 40
1.0
 40
1.0
 40
1.0
 40
1.0
 10
270.1993372344947
 20
42.33148345242633
 30
0.0
 10
270.259786335558
 20
42.3725614114321
 30
0.0
 10
270.386666659217
 20
42.45878245760534
 30
0.0
 10
270.5587711257482
 20
42.75130317143464
 30
0.0
 10
270.6552232162184
 20
42.9643722420624
 30
0.0
 10
270.6895352037237
 20
43.04016970019418
 30
0.0
  0
LINE
  5
262
330
1F
100
AcDbEntity
  8
0
  6
Continuous
 62
     7
370
    15
100
AcDbLine
 10
268.4081569282
 20
42.2860849845
 30
0.0
 11
268.4081569282
 21
43.6303918766
 31
0.0
  0
LINE
  5
263
330
1F
100
AcDbEntity
  8
0
  6
Continuous
 62
     7
370
    15
100
AcDbLine
 10
269.8439891336
 20
42.2052650711
 30
0.0
 11
269.8439891336
 21
43.7154693023
 31
0.0
  0
LWPOLYLINE
  5
264
330
1F
100
AcDbEntity
  8
0
  6
Continuous
 62
     7
370
     0
100
AcDbPolyline
 90
        9
 70
   128
 43
0.0
 10
241.3229851415
 20
42.7958993199
 10
241.3659017338
 20
41.9224125204
 10
241.4941305613
 20
41.1090791101
 10
241.7061150997
 20
40.3657718548
 10
241.999282144
 20
39.7015134978
 10
242.3700730433
 20
39.1243672355
 10
242.8139868984
 20
38.6413388419
 10
243.3256351964
 20
38.2582916273
 10
243.3944592902
 20
38.2174512552
  0
LWPOLYLINE
  5
265
330
1F
100
AcDbEntity
  8
0
  6
Continuous
 62
     7
370
     0
100
AcDbPolyline
 90
       23
 70
   128
 43
0.0
 10
253.3936466166
 20
55.5384285028
 10
253.1831568741
 20
55.6501167178
 10
252.5817885856
 20
55.8748691366
 10
251.9295868593
 20
55.9904110217
 10
251.2344685408
 20
55.9953398513
 10
250.5048714248
 20
55.889595796
 10
249.749651832
 20
55.6744624454
 10
248.9779771051
 20
55.3525512269
 10
248.19921433
 20
54.9277697066
 10
247.4228166319
 20
54.4052741568
 10
246.658208427
 20
53.7914069657
 10
245.9146710232
 20
53.0936196494
 10
245.2012299575
 20
52.3203824007
 10
244.5265454377
 20
51.4810812722
 10
243.8988072202
 20
50.5859042429
 10
243.3256351964
 20
49.6457175491
 10
242.8139868984
 20
48.6719337837
 10
242.3700730433
 20
47.6763733625
 10
241.999282144
 20
46.6711210404
 10
241.7061150997
 20
45.6683792189
 10
241.4941305613
 20
44.6803198252
 10
241.3659017338
 20
43.7189365621
 10
241.3229851415
 20
42.7958993199
  0
LWPOLYLINE
  5
266
330
1F
100
AcDbEntity
  8
0
  6
Continuous
 62
     7
370
     0
100
AcDbPolyline
 90
       45
 70
   128
 43
0.0
 10
273.514021355
 20
37.2757356641
 10
272.9102306318
 20
36.8773074502
 10
272.3187313465
 20
36.3872555885
 10
271.7515647188
 20
35.8155561216
 10
271.2202766258
 20
35.1738472021
 10
270.7356825608
 20
34.475192173
 10
270.3076474616
 20
33.7338136359
 10
269.9448848885
 20
32.96480392
 10
269.6547796412
 20
32.1838178453
 10
269.4432374262
 20
31.4067540362
 10
269.3145646327
 20
30.649431271
 10
269.2713806679
 20
29.9272664573
 10
269.3145646327
 20
29.254960788
 10
269.4432374262
 20
28.6462004679
 10
269.6547796412
 20
28.1133781015
 10
269.9448848885
 20
27.6673404157
 10
270.3076474616
 20
27.3171674515
 10
270.7356825608
 20
27.0699877207
 10
271.2202766258
 20
26.9308330897
 10
271.7515647188
 20
26.9025363456
 10
272.3187313465
 20
26.9856735284
 10
272.9102306318
 20
27.1785522049
 10
273.514021355
 20
27.4772459214
 10
274.1178120783
 20
27.8756741353
 10
274.7093113636
 20
28.365725997
 10
275.2764779912
 20
28.9374254639
 10
275.8077660843
 20
29.5791343834
 10
276.2923601493
 20
30.2777894125
 10
276.7203952485
 20
31.0191679496
 10
277.0831578216
 20
31.7881776655
 10
277.3732630688
 20
32.5691637402
 10
277.5848052839
 20
33.3462275492
 10
277.7134780774
 20
34.1035503144
 10
277.7566620422
 20
34.8257151282
 10
277.7134780774
 20
35.4980207975
 10
277.5848052839
 20
36.1067811176
 10
277.3732630688
 20
36.639603484
 10
277.0831578216
 20
37.0856411698
 10
276.7203952485
 20
37.435814134
 10
276.2923601493
 20
37.6829938648
 10
275.8077660843
 20
37.8221484958
 10
275.2764779912
 20
37.8504452399
 10
274.7093113636
 20
37.7673080571
 10
274.1178120783
 20
37.5744293806
 10
273.514021355
 20
37.2757356641
  0
LWPOLYLINE
  5
267
330
1F
100
AcDbEntity
  8
0
  6
Continuous
 62
     7
370
     0
100
AcDbPolyline
 90
       23
 70
   128
 43
0.0
 10
270.4193232513
 20
27.8123722262
 10
270.5152168105
 20
27.761404596
 10
270.9696670828
 20
27.6052531543
 10
271.4730562265
 20
27.5602425793
 10
272.0141393601
 20
27.6273783328
 10
272.5808295804
 20
27.805160713
 10
273.1604679645
 20
28.0896183553
 10
273.7401063485
 20
28.4743969461
 10
274.3067965688
 20
28.9509011674
 10
274.8478797024
 20
29.5084867024
 10
275.3512688461
 20
30.1346980116
 10
275.8057191184
 20
30.815546569
 10
276.2010788509
 20
31.5358233431
 10
276.5285163608
 20
32.2794385409
 10
276.780717235
 20
33.0297810277
 10
276.9520477227
 20
33.7700893921
 10
277.0386805841
 20
34.4838263688
 10
277.0386805841
 20
35.155048253
 10
276.9520477227
 20
35.768761057
 10
276.780717235
 20
36.3112554508
 10
276.5285163608
 20
36.7704130063
 10
276.2010788509
 20
37.1359769023
 10
275.9690950933
 20
37.3084017113
  0
LWPOLYLINE
  5
268
330
1F
100
AcDbEntity
  8
0
  6
Continuous
 62
     7
370
     0
100
AcDbPolyline
 90
       23
 70
   128
 43
0.0
 10
236.8822564798
 20
45.131367052
 10
237.2092157389
 20
46.3861632587
 10
237.6175366985
 20
47.6498322899
 10
238.1039379375
 20
48.9122188253
 10
238.6645105524
 20
50.1631778511
 10
239.2947495705
 20
51.3926561894
 10
239.9895901536
 20
52.590773289
 10
240.743448301
 20
53.7479006297
 10
241.5502657247
 20
54.8547391002
 10
242.4035585359
 20
55.9023937297
 10
243.2964693522
 20
56.8824451708
 10
244.2218224059
 20
57.7870173611
 10
245.1721812113
 20
58.6088408176
 10
246.1399083269
 20
59.3413110575
 10
247.1172267333
 20
59.978541674
 10
248.0962823314
 20
60.5154116418
 10
249.0692070617
 20
60.9476064716
 10
250.0281821346
 20
61.271652883
 10
250.9655008651
 20
61.4849467169
 10
251.8736306068
 20
61.5857738638
 10
252.7452732871
 20
61.5733240386
 10
253.573424057
 20
61.4476972929
 10
254.3514275849
 20
61.2099032106
  0
LWPOLYLINE
  5
269
330
1F
100
AcDbEntity
  8
0
  6
Continuous
 62
     7
370
     0
100
AcDbPolyline
 90
       23
 70
   128
 43
0.0
 10
236.4485736442
 20
45.1259297136
 10
236.7745366155
 20
46.3975956681
 10
237.1828038826
 20
47.6789273773
 10
237.670127833
 20
48.9597323298
 10
238.2326319882
 20
50.2298222042
 10
238.8658418394
 20
51.4790939138
 10
239.5647204405
 20
52.6976099722
 10
240.3237084753
 20
53.875677543
 10
241.1367684797
 20
55.003925542
 10
241.9974328675
 20
56.0733791811
 10
242.8988553773
 20
57.0755313592
 10
243.8338655325
 20
58.0024103329
 10
244.7950256792
 20
58.8466431289
 10
245.7746901502
 20
59.601514193
 10
246.7650660834
 20
60.2610188102
 10
247.7582754112
 20
60.8199108694
 10
248.746417527
 20
61.2737445946
 10
249.7216321324
 20
61.6189099094
 10
250.6761617623
 20
61.8526611537
 10
251.6024134927
 20
61.9731389243
 10
252.4930193398
 20
61.9793848658
 10
253.3408948693
 20
61.8713492942
 10
254.1392955505
 20
61.6498915918
  0
LWPOLYLINE
  5
26A
330
1F
100
AcDbEntity
  8
0
  6
Continuous
 62
     7
370
     0
100
AcDbPolyline
 90
       17
 70
   128
 43
0.0
 10
248.2228789077
 20
35.4300639412
 10
248.0036022344
 20
35.2853559211
 10
247.0305630664
 20
34.70471818
 10
246.0599269064
 20
34.2255358872
 10
245.0993959257
 20
33.85161144
 10
244.1565921094
 20
33.5859119957
 10
243.2389967743
 20
33.4305459268
 10
242.3538912034
 20
33.3867460909
 10
241.5082988677
 20
33.4548600476
 10
240.7089296934
 20
33.6343473004
 10
239.9621268178
 20
33.9237835858
 10
239.2738162553
 20
34.3208721753
 10
238.6494598732
 20
34.8224620998
 10
238.094012051
 20
35.4245731536
 10
237.6118803665
 20
36.122427478
 10
237.2068906207
 20
36.9104874741
 10
236.8822564798
 20
37.782499745
  0
ARC
  5
26B
330
1F
100
AcDbEntity
  8
0
  6
Continuous
 62
     7
370
     0
100
AcDbCircle
 10
251.3592510971
 20
55.3273229282
 30
0.0
 40
6.701300064527732
100
AcDbArc
 50
13.1170908933
 51
49.5620782406
  0
LWPOLYLINE
  5
26C
330
1F
100
AcDbEntity
  8
0
  6
Continuous
 62
     7
370
     0
100
AcDbPolyline
 90
       29
 70
   128
 43
0.0
 10
239.201664798
 20
42.7958993199
 10
239.2447639677
 20
43.7862916565
 10
239.3736046152
 20
44.8159468303
 10
239.5868209973
 20
45.8739502401
 10
239.8821529675
 20
46.9490867867
 10
240.2564699334
 20
48.0299597551
 10
240.705804042
 20
49.1051116231
 10
241.2253922399
 20
50.1631455134
 10
241.8097267632
 20
51.1928460035
 10
242.4526135203
 20
52.1832980121
 10
243.1472377518
 20
53.1240025014
 10
243.886236268
 20
54.00498777
 10
244.6617755008
 20
54.8169151547
 10
245.4656345414
 20
55.5511780233
 10
246.289292284
 20
56.1999930067
 10
247.1240177516
 20
56.7564825048
 10
247.9609626466
 20
57.2147475903
 10
248.791255145
 20
57.5699305394
 10
249.6060939396
 20
57.8182663245
 10
250.3968415365
 20
57.9571225244
 10
251.1551158146
 20
57.9850272289
 10
251.8728788777
 20
57.9016846412
 10
252.542522259
 20
57.7079782134
 10
253.1569475719
 20
57.405961282
 10
253.7096417553
 20
56.9988353013
 10
254.1947461133
 20
56.4909159083
 10
254.6071184192
 20
55.8875871747
 10
254.9423874238
 20
55.1952445353
 10
255.1726713539
 20
54.5114193824
  0
LWPOLYLINE
  5
26D
330
1F
100
AcDbEntity
  8
0
  6
Continuous
 62
     7
370
     0
100
AcDbPolyline
 90
       14
 70
   128
 43
0.0
 10
245.1734840275
 20
37.1904421348
 10
244.6617755008
 20
37.0789931158
 10
243.886236268
 20
36.9955019619
 10
243.1472377518
 20
37.0232577051
 10
242.4526135203
 20
37.1619661277
 10
241.8097267632
 20
37.410156886
 10
241.2253922399
 20
37.7651990961
 10
240.705804042
 20
38.2233292223
 10
240.2564699334
 20
38.7796909712
 10
239.8821529675
 20
39.4283867701
 10
239.5868209973
 20
40.1625402819
 10
239.3736046152
 20
40.9743692969
 10
239.2447639677
 20
41.8552682255
 10
239.201664798
 20
42.7958993199
  0
LWPOLYLINE
  5
26E
330
1F
100
AcDbEntity
  8
0
  6
Continuous
 62
     7
370
     0
100
AcDbPolyline
 90
       28
 70
   128
 43
0.0
 10
227.1278165092
 20
46.2962490993
 10
227.1713973049
 20
47.4580216644
 10
227.3017986131
 20
48.6610190996
 10
227.5179998669
 20
49.8958263189
 10
227.8183089982
 20
51.1527792817
 10
228.200375681
 20
52.4220406267
 10
228.6612097254
 20
53.693676663
 10
229.1972044802
 20
54.9577351146
 10
229.8041650597
 20
56.20432301
 10
230.4773411745
 20
57.4236841089
 10
231.2114643087
 20
58.6062752574
 10
232.0007889534
 20
59.7428410763
 10
232.8391375731
 20
60.8244863971
 10
233.7199489531
 20
61.8427458786
 10
234.6363295502
 20
62.7896502597
 10
235.5811074437
 20
63.6577887298
 10
236.5468884657
 20
64.4403669284
 10
237.5261140701
 20
65.1312601199
 10
238.5111204889
 20
65.7250611284
 10
239.4941987114
 20
66.2171226558
 10
240.4676548175
 20
66.6035936537
 10
241.4238701935
 20
66.8814494623
 10
242.3553611575
 20
67.0485154833
 10
243.2548375297
 20
67.1034841986
 10
244.1152596879
 20
67.0459254034
 10
244.9298936622
 20
66.8762895733
 10
245.6923638373
 20
66.5959043388
 10
246.1391083324
 20
66.3657325624
  0
LWPOLYLINE
  5
26F
330
1F
100
AcDbEntity
  8
0
  6
Continuous
 62
     7
370
     0
100
AcDbPolyline
 90
       10
 70
   128
 43
0.0
 10
230.3903882934
 20
39.0851933974
 10
229.8041650597
 20
39.4782214516
 10
229.1972044802
 20
40.0240275785
 10
228.6612097254
 20
40.6692396586
 10
228.200375681
 20
41.4088080327
 10
227.8183089982
 20
42.2369445754
 10
227.5179998669
 20
43.1471679955
 10
227.3017986131
 20
44.1323545605
 10
227.1713973049
 20
45.1847938499
 10
227.1278165092
 20
46.2962490993
  0
LWPOLYLINE
  5
270
330
1F
100
AcDbEntity
  8
0
  6
Continuous
 62
     7
370
     0
100
AcDbPolyline
 90
       17
 70
   128
 43
0.0
 10
234.7963895512
 20
47.0581491426
 10
235.0957196144
 20
48.245245325
 10
235.4774972593
 20
49.4423267268
 10
235.9382384288
 20
50.6384689259
 10
236.4737384539
 20
51.8227560712
 10
237.0791104252
 20
52.9843804996
 10
237.7488297903
 20
54.1127413651
 10
238.4767847701
 20
55.197541381
 10
239.2563321345
 20
56.2288807918
 10
240.080357827
 20
57.197347717
 10
240.9413418876
 20
58.0941040429
 10
241.8314270784
 20
58.9109660785
 10
242.7424905881
 20
59.640479238
 10
243.6662181598
 20
60.2759860716
 10
244.5941799659
 20
60.8116870195
 10
245.5179075376
 20
61.2426933389
 10
245.9424527051
 20
61.4058899021
  0
LWPOLYLINE
  5
271
330
1F
100
AcDbEntity
  8
0
  6
Continuous
 62
     7
370
     0
100
AcDbPolyline
 90
       19
 70
   128
 43
0.0
 10
234.3705713932
 20
47.7062941061
 10
234.7209764329
 20
48.9451881732
 10
235.1561860736
 20
50.1892627046
 10
235.6721562387
 20
51.4269574492
 10
236.2640924047
 20
52.6467714384
 10
236.9264941527
 20
53.837369856
 10
237.6532062804
 20
54.9876893642
 10
238.4374759973
 20
56.0870409069
 10
239.2720156732
 20
57.125209035
 10
240.1490705572
 20
58.0925468312
 10
241.0604908362
 20
58.980065551
 10
241.9978073654
 20
59.7795181488
 10
242.9523103657
 20
60.4834759116
 10
243.9151303567
 20
61.085397488
 10
244.8773205748
 20
61.5796896724
 10
245.8299401081
 20
61.9617593785
 10
246.764136978
 20
62.228056319
 10
247.6712303941
 20
62.3761059964
 10
248.261848861
 20
62.4084356733
  0
LINE
  5
272
330
1F
100
AcDbEntity
  8
0
  6
Continuous
 62
     7
370
     0
100
AcDbLine
 10
228.7774531487
 20
45.7586856067
 30
0.0
 11
230.5749620675
 21
46.7963654178
 31
0.0
  0
LWPOLYLINE
  5
273
330
1F
100
AcDbEntity
  8
0
  6
Continuous
 62
     7
370
     0
100
AcDbPolyline
 90
        3
 70
   128
 43
0.0
 10
237.1849902907
 20
36.0680610514
 10
236.7756352295
 20
36.8791949563
 10
236.4485736442
 20
37.7770624066
  0
LWPOLYLINE
  5
274
330
1F
100
AcDbEntity
  8
0
  6
Continuous
 62
     7
370
     0
100
AcDbPolyline
 90
       20
 70
   128
 43
0.0
 10
219.9082566895
 20
58.5440577721
 10
220.2888674117
 20
59.6374978071
 10
220.7468318832
 20
60.7246051425
 10
221.2770853695
 20
61.7933572081
 10
221.8737636752
 20
62.8319344287
 10
222.5302679976
 20
63.8288509397
 10
223.2393379042
 20
64.773081612
 10
223.9931316276
 20
65.654183981
 10
224.7833127897
 20
66.4624137329
 10
225.6011425949
 20
67.1888324688
 10
226.4375764752
 20
67.8254065567
 10
227.2833641158
 20
68.3650959771
 10
228.1291517563
 20
68.8019321805
 10
228.9655856366
 20
69.1310840948
 10
229.7834154418
 20
69.3489115532
 10
230.5735966039
 20
69.4530055516
 10
231.3273903274
 20
69.4422148906
 10
232.036460234
 20
69.3166589066
 10
232.6929645563
 20
69.077726152
 10
232.7150311894
 20
69.0672756624
  0
ARC
  5
275
330
1F
100
AcDbEntity
  8
0
  6
Continuous
 62
     7
370
     0
100
AcDbCircle
 10
223.7848150055
 20
52.8574131973
 30
0.0
 40
4.268542284735616
100
AcDbArc
 50
204.7464480705
 51
235.884283369
  0
LINE
  5
276
330
1F
100
AcDbEntity
  8
0
  6
Continuous
 62
     7
370
     0
100
AcDbLine
 10
228.7774531487
 20
44.9421447948
 30
0.0
 11
230.5749620675
 21
45.979824606
 31
0.0
  0
LINE
  5
277
330
1F
100
AcDbEntity
  8
0
  6
Continuous
 62
     7
370
     0
100
AcDbLine
 10
232.0645116008
 20
40.3079275533
 30
0.0
 11
233.4033891922
 21
41.0808451348
 31
0.0
  0
LINE
  5
278
330
1F
100
AcDbEntity
  8
0
  6
Continuous
 62
     7
370
     0
100
AcDbLine
 10
235.7864764633
 20
39.7816968654
 30
0.0
 11
235.5812780783
 21
40.3909779515
 31
0.0
  0
LWPOLYLINE
  5
279
330
1F
100
AcDbEntity
  8
0
  6
Continuous
 62
     7
370
     0
100
AcDbPolyline
 90
        3
 70
   128
 43
0.0
 10
235.4204705665
 20
39.3445561504
 10
235.0957196144
 20
40.0025874059
 10
234.7963895512
 20
40.8440844536
  0
ARC
  5
27A
330
1F
100
AcDbEntity
  8
0
  6
Continuous
 62
     7
370
     0
100
AcDbCircle
 10
240.5247114522
 20
42.4412399924
 30
0.0
 40
6.497362333356011
100
AcDbArc
 50
198.7062788578
 51
214.095507875
  0
LINE
  5
27B
330
1F
100
AcDbEntity
  8
0
  6
Continuous
 62
     7
370
     0
100
AcDbLine
 10
251.1179378789
 20
63.3937784628
 30
0.0
 11
250.576948901
 21
63.0814721735
 31
0.0
  0
ARC
  5
27C
330
1F
100
AcDbEntity
  8
0
  6
Continuous
 62
     7
370
     0
100
AcDbCircle
 10
223.6706944186
 20
57.0479671607
 30
0.0
 40
1.102095792745923
100
AcDbArc
 50
159.4111972489
 51
213.1915491986
  0
ARC
  5
27D
330
1F
100
AcDbEntity
  8
0
  6
Continuous
 62
     7
370
     0
100
AcDbCircle
 10
222.3388836097
 20
56.8764823379
 30
0.0
 40
0.6345057597340603
100
AcDbArc
 50
41.9989524423
 51
61.7721687694
  0
LINE
  5
27E
330
1F
100
AcDbEntity
  8
0
  6
Continuous
 62
     7
370
     0
100
AcDbLine
 10
222.6389913821
 20
57.4355287439
 30
0.0
 11
222.7485382337
 21
57.8463265048
 31
0.0
  0
LINE
  5
27F
330
1F
100
AcDbEntity
  8
0
  6
Continuous
 62
     7
370
     0
100
AcDbLine
 10
222.6389913821
 20
57.4355287439
 30
0.0
 11
221.8369466438
 21
57.8985393159
 31
0.0
  0
LINE
  5
280
330
1F
100
AcDbEntity
  8
0
  6
Continuous
 62
     7
370
     0
100
AcDbLine
 10
219.9627156267
 20
59.0599999512
 30
0.0
 11
219.9464792238
 21
59.2551383019
 31
0.0
  0
ARC
  5
281
330
1F
100
AcDbEntity
  8
0
  6
Continuous
 62
     7
370
     0
100
AcDbCircle
 10
222.4290314006
 20
48.7829094317
 30
0.0
 40
0.4314912001450375
100
AcDbArc
 50
27.8850837497
 51
60.8831993912
  0
ARC
  5
282
330
1F
100
AcDbEntity
  8
0
  6
Continuous
 62
     7
370
     0
100
AcDbCircle
 10
223.8787300774
 20
49.5549676273
 30
0.0
 40
1.301173266867202
100
AcDbArc
 50
165.9701785416
 51
197.6766607319
  0
LINE
  5
283
330
1F
100
AcDbEntity
  8
0
  6
Continuous
 62
     7
370
     0
100
AcDbLine
 10
222.2472202163
 20
52.068738717
 30
0.0
 11
220.9264900382
 21
52.8311800198
 31
0.0
  0
LINE
  5
284
330
1F
100
AcDbEntity
  8
0
  6
Continuous
 62
     7
370
     0
100
AcDbLine
 10
222.6389913821
 20
49.1598729073
 30
0.0
 11
221.8369466438
 21
49.6228834793
 31
0.0
  0
LINE
  5
285
330
1F
100
AcDbEntity
  8
0
  6
Continuous
 62
     7
370
     0
100
AcDbLine
 10
222.6389913821
 20
49.1598729073
 30
0.0
 11
222.7485382337
 21
48.8755552492
 31
0.0
  0
LINE
  5
286
330
1F
100
AcDbEntity
  8
0
  6
Continuous
 62
     7
370
     0
100
AcDbLine
 10
272.3041986626
 20
34.9587193784
 30
0.0
 11
272.2356035045
 21
34.8290733935
 31
0.0
  0
ARC
  5
287
330
1F
100
AcDbEntity
  8
0
  6
Continuous
 62
     7
370
     0
100
AcDbCircle
 10
270.6727957484
 20
35.4195214083
 30
0.0
 40
1.695232721313174
100
AcDbArc
 50
344.2272678282
 51
24.2823863622
  0
LWPOLYLINE
  5
288
330
1F
100
AcDbEntity
  8
0
  6
Continuous
 62
     7
370
     0
100
AcDbPolyline
 90
        6
 70
   128
 43
0.0
 10
272.1298482463
 20
35.0107321394
 10
271.983820134
 20
34.7961537044
 10
271.7679903699
 20
34.6848531846
 10
271.5015363756
 20
34.6867201194
 10
271.2081337581
 20
34.8015886235
 10
271.1196806005
 20
34.8561753566
  0
ARC
  5
289
330
1F
100
AcDbEntity
  8
0
  6
Continuous
 62
     7
370
     0
100
AcDbCircle
 10
270.761815631
 20
35.4299839092
 30
0.0
 40
1.430833772033294
100
AcDbArc
 50
342.9616208382
 51
22.8366609336
  0
OLE2FRAME
  5
28A
330
1F
100
AcDbEntity
  8
0
100
AcDbOle2Frame
 70
     2
  3
Paintbrush-Bild
 10
13.8511154363
 20
38.264191557
 30
0.0
 11
51.6290888628
 21
31.9806341108
 31
0.0
 71
     2
 72
     0
 73
     1
 90
    12928
310
80552BED0767C5B32B40DDAF6807D121434000000000000000006FFBDDFB85D0
310
4940DDAF6807D121434000000000000000006FFBDDFB85D04940416F4BD60AFB
310
3F4000000000000000002BED0767C5B32B40416F4BD60AFB3F40000000000000
310
0000000000000100000000010000010000000100000000000100000000320000
310
D0CF11E0A1B11AE1000000000000000000000000000000003E000300FEFF0900
310
0600000000000000000000000100000001000000000000000010000002000000
310
01000000FEFFFFFF0000000000000000FFFFFFFFFFFFFFFFFFFFFFFFFFFFFFFF
310
FFFFFFFFFFFFFFFFFFFFFFFFFFFFFFFFFFFFFFFFFFFFFFFFFFFFFFFFFFFFFFFF
310
FFFFFFFFFFFFFFFFFFFFFFFFFFFFFFFFFFFFFFFFFFFFFFFFFFFFFFFFFFFFFFFF
310
FFFFFFFFFFFFFFFFFFFFFFFFFFFFFFFFFFFFFFFFFFFFFFFFFFFFFFFFFFFFFFFF
310
FFFFFFFFFFFFFFFFFFFFFFFFFFFFFFFFFFFFFFFFFFFFFFFFFFFFFFFFFFFFFFFF
310
FFFFFFFFFFFFFFFFFFFFFFFFFFFFFFFFFFFFFFFFFFFFFFFFFFFFFFFFFFFFFFFF
310
FFFFFFFFFFFFFFFFFFFFFFFFFFFFFFFFFFFFFFFFFFFFFFFFFFFFFFFFFFFFFFFF
310
FFFFFFFFFFFFFFFFFFFFFFFFFFFFFFFFFFFFFFFFFFFFFFFFFFFFFFFFFFFFFFFF
310
FFFFFFFFFFFFFFFFFFFFFFFFFFFFFFFFFFFFFFFFFFFFFFFFFFFFFFFFFFFFFFFF
310
FFFFFFFFFFFFFFFFFFFFFFFFFFFFFFFFFFFFFFFFFFFFFFFFFFFFFFFFFFFFFFFF
310
FFFFFFFFFFFFFFFFFFFFFFFFFFFFFFFFFFFFFFFFFFFFFFFFFFFFFFFFFFFFFFFF
310
FFFFFFFFFFFFFFFFFFFFFFFFFFFFFFFFFFFFFFFFFFFFFFFFFFFFFFFFFFFFFFFF
310
FFFFFFFFFFFFFFFFFFFFFFFFFFFFFFFFFFFFFFFFFFFFFFFFFFFFFFFFFFFFFFFF
310
FFFFFFFFFFFFFFFFFFFFFFFFFFFFFFFFFFFFFFFFFFFFFFFFFFFFFFFFFFFFFFFF
310
FDFFFFFFFEFFFFFFFEFFFFFFFEFFFFFF05000000060000000700000008000000
310
090000000A0000000B0000000C0000000D0000000E0000000F00000010000000
310
11000000120000001300000014000000150000001600000017000000FEFFFFFF
310
FFFFFFFFFFFFFFFFFFFFFFFFFFFFFFFFFFFFFFFFFFFFFFFFFFFFFFFFFFFFFFFF
310
FFFFFFFFFFFFFFFFFFFFFFFFFFFFFFFFFFFFFFFFFFFFFFFFFFFFFFFFFFFFFFFF
310
FFFFFFFFFFFFFFFFFFFFFFFFFFFFFFFFFFFFFFFFFFFFFFFFFFFFFFFFFFFFFFFF
310
FFFFFFFFFFFFFFFFFFFFFFFFFFFFFFFFFFFFFFFFFFFFFFFFFFFFFFFFFFFFFFFF
310
FFFFFFFFFFFFFFFFFFFFFFFFFFFFFFFFFFFFFFFFFFFFFFFFFFFFFFFFFFFFFFFF
310
FFFFFFFFFFFFFFFFFFFFFFFFFFFFFFFFFFFFFFFFFFFFFFFFFFFFFFFFFFFFFFFF
310
FFFFFFFFFFFFFFFFFFFFFFFFFFFFFFFFFFFFFFFFFFFFFFFFFFFFFFFFFFFFFFFF
310
FFFFFFFFFFFFFFFFFFFFFFFFFFFFFFFFFFFFFFFFFFFFFFFFFFFFFFFFFFFFFFFF
310
FFFFFFFFFFFFFFFFFFFFFFFFFFFFFFFFFFFFFFFFFFFFFFFFFFFFFFFFFFFFFFFF
310
FFFFFFFFFFFFFFFFFFFFFFFFFFFFFFFFFFFFFFFFFFFFFFFFFFFFFFFFFFFFFFFF
310
FFFFFFFFFFFFFFFFFFFFFFFFFFFFFFFFFFFFFFFFFFFFFFFFFFFFFFFFFFFFFFFF
310
FFFFFFFFFFFFFFFFFFFFFFFFFFFFFFFFFFFFFFFFFFFFFFFFFFFFFFFFFFFFFFFF
310
FFFFFFFFFFFFFFFFFFFFFFFFFFFFFFFFFFFFFFFFFFFFFFFFFFFFFFFFFFFFFFFF
310
52006F006F007400200045006E00740072007900000000000000000000000000
310
0000000000000000000000000000000000000000000000000000000000000000
310
16000500FFFFFFFFFFFFFFFF020000000A00030000000000C000000000000046
310
00000000000000000000000030650B022325D20103000000C000000000000000
310
01004F006C006500000000000000000000000000000000000000000000000000
310
0000000000000000000000000000000000000000000000000000000000000000
310
0A000200FFFFFFFFFFFFFFFFFFFFFFFF00000000000000000000000000000000
310
0000000000000000000000000000000000000000000000001400000000000000
310
010043006F006D0070004F0062006A0000000000000000000000000000000000
310
0000000000000000000000000000000000000000000000000000000000000000
310
120002010100000003000000FFFFFFFF00000000000000000000000000000000
310
0000000000000000000000000000000000000000010000004D00000000000000
310
01004F006C006500310030004E00610074006900760065000000000000000000
310
0000000000000000000000000000000000000000000000000000000000000000
310
1A000200FFFFFFFFFFFFFFFFFFFFFFFF00000000000000000000000000000000
310
0000000000000000000000000000000000000000040000002426000000000000
310
FEFFFFFF02000000FEFFFFFFFFFFFFFFFFFFFFFFFFFFFFFFFFFFFFFFFFFFFFFF
310
FFFFFFFFFFFFFFFFFFFFFFFFFFFFFFFFFFFFFFFFFFFFFFFFFFFFFFFFFFFFFFFF
310
FFFFFFFFFFFFFFFFFFFFFFFFFFFFFFFFFFFFFFFFFFFFFFFFFFFFFFFFFFFFFFFF
310
FFFFFFFFFFFFFFFFFFFFFFFFFFFFFFFFFFFFFFFFFFFFFFFFFFFFFFFFFFFFFFFF
310
FFFFFFFFFFFFFFFFFFFFFFFFFFFFFFFFFFFFFFFFFFFFFFFFFFFFFFFFFFFFFFFF
310
FFFFFFFFFFFFFFFFFFFFFFFFFFFFFFFFFFFFFFFFFFFFFFFFFFFFFFFFFFFFFFFF
310
FFFFFFFFFFFFFFFFFFFFFFFFFFFFFFFFFFFFFFFFFFFFFFFFFFFFFFFFFFFFFFFF
310
FFFFFFFFFFFFFFFFFFFFFFFFFFFFFFFFFFFFFFFFFFFFFFFFFFFFFFFFFFFFFFFF
310
FFFFFFFFFFFFFFFFFFFFFFFFFFFFFFFFFFFFFFFFFFFFFFFFFFFFFFFFFFFFFFFF
310
FFFFFFFFFFFFFFFFFFFFFFFFFFFFFFFFFFFFFFFFFFFFFFFFFFFFFFFFFFFFFFFF
310
FFFFFFFFFFFFFFFFFFFFFFFFFFFFFFFFFFFFFFFFFFFFFFFFFFFFFFFFFFFFFFFF
310
FFFFFFFFFFFFFFFFFFFFFFFFFFFFFFFFFFFFFFFFFFFFFFFFFFFFFFFFFFFFFFFF
310
FFFFFFFFFFFFFFFFFFFFFFFFFFFFFFFFFFFFFFFFFFFFFFFFFFFFFFFFFFFFFFFF
310
FFFFFFFFFFFFFFFFFFFFFFFFFFFFFFFFFFFFFFFFFFFFFFFFFFFFFFFFFFFFFFFF
310
FFFFFFFFFFFFFFFFFFFFFFFFFFFFFFFFFFFFFFFFFFFFFFFFFFFFFFFFFFFFFFFF
310
FFFFFFFFFFFFFFFFFFFFFFFFFFFFFFFFFFFFFFFFFFFFFFFFFFFFFFFFFFFFFFFF
310
0100000200000000000000000000000000000000000000000000000000000000
310
0000000000000000000000000000000000000000000000000000000000000000
310
0100FEFF030A0000FFFFFFFF0A00030000000000C00000000000004607000000
310
5042727573680007000000504272757368000700000050427275736800F439B2
310
7100000000000000000000000000000000000000000000000000000000000000
310
0000000000000000000000000000000000000000000000000000000000000000
310
0000000000000000000000000000000000000000000000000000000000000000
310
0000000000000000000000000000000000000000000000000000000000000000
310
0000000000000000000000000000000000000000000000000000000000000000
310
0000000000000000000000000000000000000000000000000000000000000000
310
0000000000000000000000000000000000000000000000000000000000000000
310
0000000000000000000000000000000000000000000000000000000000000000
310
0000000000000000000000000000000000000000000000000000000000000000
310
0000000000000000000000000000000000000000000000000000000000000000
310
0000000000000000000000000000000000000000000000000000000000000000
310
0000000000000000000000000000000000000000000000000000000000000000
310
20260000424D0E260000000000003E00000028000000B40200006E0000000100
310
01000000000000000000130B0000130B00000200000002000000000000FFFFFF
310
FFFFFFFFFFFFFFFFFFFFFFFFFFFFFFFFFFFFFFFFFFFFFFFFFFFFFFFFFFFFFFFF
310
FFFFFFFFFFFFFFFFFFFFFFFFFFFFFFFFFFFFFFFFFFFFFFFFFFFFFFFFFFFFFFFF
310
FFFFFFFFFFFFFFFFFFFFFFFFFFFFFFFFFFFFFFFFFFFFFFFFF000FFFFFFFFFFFF
310
FFFFFFFFFFFFFFFFFFFFFFFFFFFFFFFFFFFFFFFFFFFFFFFFFFFFFFFFFFFFFFFF
310
FFFFFFFFFFFFFFFFFFFFFFFFFFFFFFFFFFFFFFFFFFFFFFFFFFFFFFFFFFFFFFFF
310
FFFFFFFFFFFFFFFFFFFFFFFFFFFFFFFFF000FFFFFFFFFFFFFFFFFFFFFFFFFFFF
310
FFFFFFFFFFFFFFFFFFFFFFFFFFFFFFFFFFFFFFFFFFFFFFFFFFFFFFFFFFFFFFFF
310
FFFFFFFFFFFFFFFFFFFFFFFFFFFFFFFFFFFFFFFFFFFFFFFFFFFFFFFFFFFFFFFF
310
FFFFFFFFFFFFFFFFF000FFFFFFFFFFFFFFFFFFFFFFFFFFFFFFFFFFFFFFFFFFFF
310
FFFFFFFFFFFFFFFFFFFFFFFFFFFFFFFFFFFFFFFFFFFFFFFFFFFFFFFFFFFFFFFF
310
FFFFFFFFFFFFFFFFFFFFFFFFFFFFFFFFFFFFFFFFFFFFFFFFFFFFFFFFFFFFFFFF
310
F000FFFFFFFFFFFFFFFFFFFFFFFFFFFFFFFFFFFFFFFFFFFFFFFFFFFFFFFFFFFF
310
FFFFFFFFFFFFFFFFFFFFFFFFFFFFFFFFFFFFFFFFFFFFFFFFFFFFFFFFFFFFFFFF
310
FFFFFFFFFFFFFFFFFFFFFFFFFFFFFFFFFFFFFFFFFFFFFFFFF000FFFFFFFFFFFF
310
FFFFFFFFFFFFFFFFFFFFFFFFFFFFFFFFFFFFFFFFFFFFFFFFFFFFFFFFFFFFFFFF
310
FFFFFFFFFFFFFFFFFFFFFFFFFFFFFFFFFFFFFFFFFFFFFFFFFFFFFFFFFFFFFFFF
310
FFFFFFFFFFFFFFFFFFFFFFFFFFFFFFFFF000FFFFFFFFFFFFFFFFFFFFFFFFFFFF
310
FFFFFFFFFFFFFFFFFFFFFFFFFFFFFFFFFFFFFFFFFFFFFFFFFFFFFFFFFFFFFFFF
310
FFFFFFFFFFFFFFFFFFFFFFFFFFFFFFFFFFFFFFFFFFFFFFFFFFFFFFFFFFFFFFFF
310
FFFFFFFFFFFFFFFFF000FFFFFFFFFFFFFFFFFFFFFFFFFFFFFFFFFFFFFFFFFFFF
310
FFFFFFFFFFFFFFFFFFFFFFFFFFFFFFFFFFFFFFFFFFFFFFFFFFFFFFFFFFFFFFFF
310
FFFFFFFFFFFFFFFFFFFFFFFFFFFFFFFFFFFFFFFFFFFFFFFFFFFFFFFFFFFFFFFF
310
F000FFFFFFFFFFFFFFFFFFFFFFFFFFFFFFFFFFFFFFFFFFFFFFFFFFFFFFFFFFFF
310
FFFFFFFFFFFFFFFFFFFFFFFFFFFFFFFFFFFFFFFFFFFFFFFFFFFFFFFFFFFFFFFF
310
FFFFFFFFFFFFFFFFFFFFFFFFFFFFFFFFFFFFFFFFFFFFFFFFF000FFFFFFFFFFFF
310
FFFFFFFFFFFFFFFFFFFFFFFFFFFFFFFFFFFFFFFFFFFFFFFFFFFFFFFFFFFFFFFF
310
FFFFFFFFFFFFFFFFFFFFFFFFFFFFFFFFFFFFFFFFFFFFFFFFFFFFFFFFFFFFFFFF
310
FFFFFFFFFFFFFFFFFFFFFFFFFFFFFFFFF000FFFFFFFFFFFFFFFFFFFFFFFFFFFF
310
FFFFFFFFFFFFFFFFFFFFFFFFFFFFFFFFFFFFFFFFFFFFFFFFFFFFFFFFFFFFFFFF
310
FFFFFFFFFFFFFFFFFFFFFFFFFFFFFFFFFFFFFFFFFFFFFFFFFFFFFFFFFFFFFFFF
310
FFFFFFFFFFFFFFFFF000FFFFFFFFFFFFFFFFFFFFFFFFFFFFFFFFFFFFFFFFFFFF
310
FFFFFFFFFFFFFFFFFFFFFFFFFFFFFFFFFFFFFFFFFFFFFFFFFFFFFFFFFFFFFFFF
310
FFFFFFFFFFFFFFFFFFFFFFFFFFFFFFFFFFFFFFFFFFFFFFFFFFFFFFFFFFFFFFFF
310
F000FFFFFFFFFFFFFFFFFFFFFFFFFFFFFFFFFFFFFFFFFFFFFFFFFFFFFFFFFFFF
310
FFFFFFFFFFFFFFFFFFFFFFFFFFFFFFFFFFFFFFFFFFFFFFFFFFFFFFFFFFFFFFFF
310
FFFFFFFFFFFFFFFFFFFFFFFFFFFFFFFFFFFFFFFFFFFFFFFFF000FFFFFFFFFFFF
310
FFFFFFFFFFFFFFFFFFFFFFFFFFFFFFFFFFFFFFFFFFFFFFFFFFFFFFFFFFFFFFFF
310
FFFFFFFFFFFFFFFFFFFFFFFFFFFFFFFFFFFFFFFFFFFFFFFFFFFFFFFFFFFFFFFF
310
FFFFFFFFFFFFFFFFFFFFFFFFFFFFFFFFF000FFFFFFFFFFFFFFFFFFFFFFFFFFFF
310
FFFFFFFFFFFFFFFFFFFFFFFFFFFFFFFFFFFFFFFFFFFFFFFFFFFFFFFFFFFFFFFF
310
FFFFFFFFFFFFFFFFFFFFFFFFFFFFFFFFFFFFFFFFFFFFFFFFFFFFFFFFFFFFFFFF
310
FFFFFFFFFFFFFFFFF000FFFFFFFFFFFFFFFFFFFFFFFFFFFFFFFFFFFFFFFFFFFF
310
FFFFFFFFFFFFFFFFFFFFFFFFFFFFFFFFFFFFFFFFFFFFFFFFFFFFFFFFFFFFFFFF
310
FFFFFFFFFFFFFFFFFFFFFFFFFFFFFFFFFFFFFFFFFFFFFFFFFFFFFFFFFFFFFFFF
310
F000FFFFFFFFFFFFFFFFFFFFFFFFFFFFFFFFFFFFFFFFFFFFFFFFFFFFFFFFFFFF
310
FFFFFFFFFFFFFFFFFFFFFFFFFFFFFFFFFFFFFFFFFFFFFFFFFFFFFFFFFFFFFFFF
310
FFFFFFFFFFFFFFFFFFFFFFFFFFFFFFFFFFFFFFFFFFFFFFFFF000FFFFFFFFFFFF
310
FFFFFFFFFFFFFFFFFFFFFFFFFFFFFFFFFFFFFFFFFFFFFFFFFFFFFFFFFFFFFFFF
310
FFFFFFFFFFFFFFFFFFFFFFFFFFFFFFFFFFFFFFFFFFFFFFFFFFFFFFFFFFFFFFFF
310
FFFFFFFFFFFFFFFFFFFFFFFFFFFFFFFFF000FFFFFFFFFFFFFFFFFFFFFFFFFFFF
310
FFFFFFFFFFFFFFFFFFFFFFFFFFFFFFFFFFFFFFFFFFFFFFFFFFFFFFFFFFFFFFFF
310
FFFFFFFFFFFFFFFFFFFFFFFFFFFFFFFFFFFFFFFFFFFFFFFFFFFFFFFFFFFFFFFF
310
FFFFFFFFFFFFFFFFF000FFFFF80003FFFFFFFFFFFFFFFFFFFFFFFFFFFFFFFFFF
310
FFFFF00007FFFFFFFFFF00007FFFFFF800000000000000007FFFFFFFFFFFFFFF
310
FFFFFFFC001FFFFFFFFFFFFFFC001FFFFFFFFFFFFFFFFFFFFFFFFFFE0007FFFF
310
F000FFFF8000007FFFFFFFF8000FFFFFC0007FFFFF80007FFFFF0000007FFFFF
310
FFF8000007FFFFF800000000000000007FFFFFF0001FFFFFFFFFFFC00001FFFF
310
FFFFFFFFC00001FFFFFFFF000000000003FFFFE000007FFFF000FFFE0000000F
310
FFFFFFF0000FFFFF80007FFFFF80007FFFFC0000001FFFFFFFC0000001FFFFF8
310
00000000000000007FFFFFF0001FFFFFFFFFFE0000003FFFFFFFFFFE0000003F
310
FFFFFF000000000003FFFF0000000FFFF000FFF800000003FFFFFFF00007FFFF
310
80007FFFFF80007FFFF000000007FFFFFF000000003FFFF80000000000000000
310
7FFFFFF0001FFFFFFFFFF80000000FFFFFFFFFF80000000FFFFFFF0000000000
310
03FFFC00000003FFF000FFE000000000FFFFFFF00007FFFF80003FFFFF80007F
310
FFC000000001FFFFFC000000001FFFF800000000000000007FFFFFF0001FFFFF
310
FFFFE000000003FFFFFFFFE000000003FFFFFF000000000003FFF000000000FF
310
F000FF80000000007FFFFFF00007FFFF80003FFFFF80007FFF8000000000FFFF
310
F80000000007FFF800000000000000007FFFFFF0001FFFFFFFFFC000000001FF
310
FFFFFFC000000001FFFFFF000000000003FFC0000000007FF000FF0000000000
310
3FFFFFE00007FFFF00003FFFFF80007FFE00000000003FFFF00000000003FFF8
310
00000000000000007FFFFFF0001FFFFFFFFF8000000000FFFFFFFF8000000000
310
FFFFFF000000000003FF80000000003FF000FE00000000001FFFFFE00003FFFF
310
00003FFFFF80007FFC00000000001FFFE00000000001FFF8000001FFFE000000
310
7FFFFFF0001FFFFFFFFE00000000003FFFFFFE00000000003FFFFF0000000000
310
03FF00000000001FF000FC00000000000FFFFFE00003FFFF00001FFFFF80007F
310
F800000000001FFFC00000000000FFF8000001FFFE0000007FFFFFF0001FFFFF
310
FFFC00000000001FFFFFFC00000000001FFFFF000000000003FE00000000000F
310
F000F8000000000007FFFFE00003FFFF00001FFFFF80007FF800000000000FFF
310
800000000000FFF8000001FFFE0000007FFFFFF0001FFFFFFFF800000000000F
310
FFFFF800000000000FFFFF000000000003FC000000000007F000F80000000000
310
03FFFFC00003FFFE00001FFFFF80007FF0000000000007FF0000000000007FF8
310
000001FFFE0000007FFFFFF0001FFFFFFFF0000000000007FFFFF00000000000
310
07FFFF000000000003F8000000000003F000F0000000000003FFFFC00001FFFE
310
00001FFFFF80007FE0000000000007FE0000000000003FF8000001FFFE000000
310
7FFFFFF0001FFFFFFFF0000000000007FFFFF0000000000007FFFF0000000000
310
03F800001F800003F000E00001FFF00001FFFFC00001FFFE00000FFFFF80007F
310
E00001FFE00003FE00001FFF00003FF8000001FFFE0000007FFFFFF0001FFFFF
310
FFE000003E000003FFFFE000003E000003FFFF000000000003F00001FFF80001
310
F000E00007FFFC0001FFFFC00001FFFE00000FFFFF80007FC0000FFFFC0003FC
310
0000FFFFC0001FF8000001FFFE0000007FFFFFF0001FFFFFFFC00003FFE00001
310
FFFFC00003FFE00001FFFF0001FFFFFFFFF00007FFFE0001F000E0000FFFFF00
310
00FFFF800001FFFC00000FFFFF80007FC0001FFFFE0001FC0001FFFFE0001FF8
310
000001FFFE0000007FFFFFF0001FFFFFFF80000FFFF80000FFFF80000FFFF800
310
00FFFF0003FFFFFFFFE0000FFFFF8000F000C0003FFFFF8000FFFF800000FFFC
310
000007FFFF80007F80003FFFFF0001FC0003FFFFF0001FF8000001FFFE000000
310
7FFFFFF0001FFFFFFF80003FFFFE0000FFFF80003FFFFE0000FFFF0003FFFFFF
310
FFE0003FFFFF8000F000C0003FFFFF8000FFFF800000FFFC000007FFFF80007F
310
80007FFFFF8001F80007FFFFF8000FF8000001FFFE0000007FFFFFF0001FFFFF
310
FF00007FFFFF00007FFF00007FFFFF00007FFF0003FFFFFFFFE0003FFFFFC000
310
F000C0007FFFFFC000FFFF000000FFFC000007FFFF80007F8000FFFFFF8000F8
310
000FFFFFF8000FF8000001FFFE0000007FFFFFF0001FFFFFFF0000FFFFFF8000
310
7FFF0000FFFFFF80007FFF0003FFFFFFFFC0007FFFFFC00070008000FFFFFFC0
310
00FFFF000000FFF8000007FFFF80007F8000FFFFFF8000F8000FFFFFF8000FF8
310
000001FFFE0000007FFFFFF0001FFFFFFE0001FFFFFFC0003FFE0001FFFFFFC0
310
003FFF0003FFFFFFFFC0007FFFFFE00070008000FFFFFFC0007FFF0000007FF8
310
000003FFFF80007F0001FFFFFF8000F8000FFFFFF8000FF8000001FFFE000000
310
7FFFFFF0001FFFFFFE0001FFFFFFC0003FFE0001FFFFFFC0003FFF0003FFFFFF
310
FFC000FFFFFFE00070008000FFFFFFC0007FFF0000007FF8000003FFFF80007F
310
0001FFFFFF8000F8001FFFFFF8000FF8000001FFFE0000007FFFFFF0001FFFFF
310
FE0003FFFFFFE0003FFE0003FFFFFFE0003FFF0003FFFFFFFFC000FFFFFFE000
310
70008000FFFFFFC0007FFE0000007FF8000003FFFF80007F0001FFFFFF8000F0
310
001FFFFFF8000FF8000001FFFE0000007FFFFFF0001FFFFFFC0003FFFFFFE000
310
1FFC0003FFFFFFE0001FFF0003FFFFFFFFC000FFFFFFC00070008000FFFFFF80
310
007FFE0000007FF0000003FFFF80007F0001FFFFFF0000F0001FFFFFF8000FF8
310
000001FFFE0000007FFFFFF0001FFFFFFC0007FFFFFFF0001FFC0007FFFFFFF0
310
001FFF0003FFFFFFFFC000FFFFFFC00070008001FFFFFF0000FFFE0000003FF0
310
000001FFFF80007F0001FFFFFF0000F8001FFFFFF0000FF8000001FFFE000000
310
7FFFFFF0001FFFFFFC0007FFFFFFF0001FFC0007FFFFFFF0001FFF0003FFFFFF
310
FFC001FFFFFF80007000FFFFFFFFFE0000FFFE0008003FF0008001FFFF80007F
310
FFFFFFFFFC0000FFFFFFFFFFE0000FF8000001FFFE0000007FFFFFF0001FFFFF
310
F8000FFFFFFFF8000FF8000FFFFFFFF8000FFF0003FFFFFFFFFFFFFFFFFF0000
310
7000FFFFFFFFFC0000FFFC0008003FF0008001FFFF80007FFFFFFFFFF80001FF
310
FFFFFFFF80000FF8000001FFFE0000007FFFFFF0001FFFFFF8000FFFFFFFF800
310
0FF8000FFFFFFFF8000FFF0003FFFFFFFFFFFFFFFFFE0000F000FFFFFFFFE000
310
00FFFC000C003FE000C001FFFF80007FFFFFFFFFC00001FFFFFFFFFE00001FF8
310
000001FFFE0000007FFFFFF0001FFFFFF8000FFFFFFFF8000FF8000FFFFFFFF8
310
000FFF0003FFFFFFFFFFFFFFFFF00000F000FFFFFFFE000001FFFC000C001FE0
310
00C000FFFF80007FFFFFFFFE000001FFFFFFFFE000001FF80FFFFFFFFFFFFFC0
310
7FFFFFF0001FFFFFF8000FFFFFFFF8000FF8000FFFFFFFF8000FFF0003FFFFFF
310
FFFFFFFFFF800000F000FFFFFFC0000001FFFC001C001FE001C000FFFF80007F
310
FFFFFF80000003FFFFFFF80000001FF80FFFFFFFFFFFFFC07FFFFFF0001FFFFF
310
F8001FFFFFFFFC000FF8001FFFFFFFFC000FFF0003FFFFFFFFFFFFFFF0000001
310
F000FFFFF800000001FFF8001C001FE001C000FFFF80007FFFFFF800000003FF
310
FFFF800000003FF80FFFFFFFFFFFFFC07FFFFFF0001FFFFFF8001FFFFFFFFC00
310
0FF8001FFFFFFFFC000FFF0003FFFFFFFFFFFFFE00000001F000FFFFC0000000
310
03FFF8001E001FC001E000FFFF80007FFFFF8000000007FFFFFC000000003FF8
310
0FFFFFFFFFFFFFC07FFFFFF0001FFFFFF8001FFFFFFFFC000FF8001FFFFFFFFC
310
000FFF0003FFFFFFFFFFFFE000000003F000FFFE0000000007FFF8001E000FC0
310
01E0007FFF80007FFFFE0000000007FFFFE0000000007FF80FFFFFFFFFFFFFC0
310
7FFFFFF0001FFFFFF0001FFFFFFFFC0007F0001FFFFFFFFC0007FF0003FFFFFF
310
FFFFFF0000000003F000FFF80000000007FFF8001E000FC003E0007FFF80007F
310
FFF0000000000FFFFF8000000000FFF80FFFFFFFFFFFFFC07FFFFFF0001FFFFF
310
F0001FFFFFFFFC0007F0001FFFFFFFFC0007FF0003FFFFFFFFFFFC0000000007
310
F000FFE0000000000FFFF0003E000FC003E0007FFF80007FFFC0000000001FFF
310
FE0000000001FFF80FFFFFFFFFFFFFC07FFFFFF0001FFFFFF0001FFFFFFFFC00
310
07F0001FFFFFFFFC0007FF0003FFFFFFFFFFF0000000000FF000FFC000000000
310
1FFFF0003F000F8003F0003FFF80007FFF80000000003FFFF80000000003FFF8
310
0FFFFFFFFFFFFFC07FFFFFF0001FFFFFF0001FFFFFFFFC0007F0001FFFFFFFFC
310
0007FF0003FFFFFFFFFFE0000000001FF000FF00000000007FFFF0003F000780
310
03F0003FFF80007FFF00000000007FFFF00000000007FFF80FFFFFFFFFFFFFC0
310
7FFFFFF0001FFFFFF0001FFFFFFFFC0007F0001FFFFFFFFC0007FF0003FFFFFF
310
FFFF80000000007FF000FE0000000000FFFFE0003F00078007F0003FFF80007F
310
FE0000000001FFFFE0000000001FFFF80FFFFFFFFFFFFFC07FFFFFF0001FFFFF
310
F0001FFFFFFFFC0007F0001FFFFFFFFC0007FF0003FFFFFFFFFF0000000000FF
310
F000FC0000000003FFFFE0007F00078007F0003FFF80007FFC0000000007FFFF
310
C0000000007FFFF80FFFFFFFFFFFFFC07FFFFFF0001FFFFFF8001FFFFFFFFC00
310
0FF8001FFFFFFFFC000FFF0003FFFFFFFFFE0000000003FFF000FC000000000F
310
FFFFE0007F80070007F8001FFF80007FF8000000001FFFFF8000000001FFFFF8
310
0FFFFFFFFFFFFFC07FFFFFF0001FFFFFF8001FFFFFFFFC000FF8001FFFFFFFFC
310
000FFF0003FFFFFFFFFC000000000FFFF000F8000000007FFFFFE0007F800700
310
07F8001FFF80007FF000000000FFFFFF800000000FFFFFF80FFFFFFFFFFFFFC0
310
7FFFFFF0001FFFFFF8000FFFFFFFF8000FF8000FFFFFFFF8000FFF0003FFFFFF
310
FFFC000000007FFFF000F800000007FFFFFFC0007F8003000FF8001FFF80007F
310
F000000007FFFFFF000000007FFFFFF80FFFFFFFFFFFFFC07FFFFFF0001FFFFF
310
F8000FFFFFFFF8000FF8000FFFFFFFF8000FFF0003FFFFFFFFF80000000FFFFF
310
F000F0000000FFFFFFFFC000FF8003000FF8001FFF80007FE0000000FFFFFFFF
310
0000000FFFFFFFF8000001FFFE0000007FFFFFF0001FFFFFF8000FFFFFFFF800
310
0FF8000FFFFFFFF8000FFF0003FFFFFFFFF8000000FFFFFFF000F000000FFFFF
310
FFFFC000FFC002000FF8000FFF80007FE000001FFFFFFFFE000001FFFFFFFFF8
310
000001FFFE0000007FFFFFF0001FFFFFF8000FFFFFFFF8000FF8000FFFFFFFF8
310
000FFF0003FFFFFFFFF000001FFFFFFFF000E00000FFFFFFFFFFC000FFC00200
310
0FFC000FFF80007FE00001FFFFFFFFFE00001FFFFFFFFFF8000001FFFE000000
310
7FFFFFF0001FFFFFFC000FFFFFFFF8001FFC000FFFFFFFF8001FFF0003FFFFFF
310
FFF00001FFFFFFFFF000E00007FFFFFFFFFF8000FFC000001FFC000FFF80007F
310
C0000FFFFFFFFFFE0000FFFFFFFFFFF8000001FFFE0000007FFFFFF0001FFFFF
310
FC0007FFFFFFF0001FFC0007FFFFFFF0001FFF0003FFFFFFFFF00007FFFFFFFF
310
F000E0001FFFFFFFFFFF8000FFC000001FFC000FFF80007FC0003FFFFFFFFFFE
310
0001FFFFFFFFFFF8000001FFFE0000007FFFFFF0001FFFFFFC0007FFFFFFF000
310
1FFC0007FFFFFFF0001FFF0003FFFFFFFFF0001FFFFFFFFFF000E0003FFFFF00
310
03FF8001FFE000001FFC0007FF80007FC0007FFFFF0007FC0003FFFFF0003FF8
310
000001FFFE0000007FFFFFF0001FFFFFFC0003FFFFFFE0001FFC0003FFFFFFE0
310
001FFF0003FFFFFFFFF0003FFFFFFFFFF000E0003FFFFF0001FF8001FFE00000
310
1FFE0007FF80007FC0007FFFFE0003FC0007FFFFE0003FF8000001FFFE000000
310
7FFFFFF0001FFFFFFE0003FFFFFFE0003FFE0003FFFFFFE0003FFF0003FFFFFF
310
FFF0003FFFFF8001F000E0003FFFFF0001FF0001FFE000001FFE0007FF80007F
310
C0007FFFFE0003FC0007FFFFE0003FF8000001FFFE0000007FFFFFF0001FFFFF
310
FE0001FFFFFFC0003FFE0001FFFFFFC0003FFF0003FFFFFFFFF0003FFFFF0001
310
F000E0003FFFFF0003FF0001FFE000003FFE0007FF80007FC0007FFFFE0003FC
310
0007FFFFE0003FF8000001FFFE0000007FFFFFF0001FFFFFFF0001FFFFFFC000
310
7FFF0001FFFFFFC0007FFF0003FFFFFFFFF0003FFFFF0001F000E0003FFFFE00
310
03FF0003FFF000003FFE0003FF80007FC0007FFFFC0003FE0007FFFFE0003FF8
310
000001FFFE0000007FFFFFF0001FFFFFFF0000FFFFFF80007FFF0000FFFFFF80
310
007FFF0003FFFFFFFFF0003FFFFF0001F000E0003FFFFE0003FF0003FFF00000
310
3FFF0003FF80007FC0007FFFFC0007FE0007FFFFC0003FF8000001FFFE000000
310
7FFFFFF0001FFFFFFF80007FFFFF0000FFFF80007FFFFF0000FFFF0003FFFFFF
310
FFF0003FFFFF0003F000E0003FFFFC0003FE0003FFF000003FFF0003FF80007F
310
E0003FFFF80007FE0003FFFFC0007FF8000001FFFE0000007FFFFFF0001FFFFF
310
FF80003FFFFE0000FFFF80003FFFFE0000FFFF0003FFFFFFFFF0001FFFFE0003
310
F000F0001FFFF80003FE0003FFF000007FFF0001FF80007FE0003FFFF00007FE
310
0001FFFF80007FF8000001FFFE0000007FFFFFF0001FFFFFFFC0000FFFF80001
310
FFFFC0000FFFF80001FFFF0003FFFFFFFFF0001FFFFC0003F000F0000FFFF000
310
07FE0007FFF800007FFF0001FF80007FE0001FFFE00007FF0000FFFE00007FF8
310
000001FFFE0000007FFFFFF0001FFFFFFFC00003FFE00001FFFFC00003FFE000
310
01FFFF0003FFFFFFFFF8000FFFF80003F000F00003FFC00007FC0007FFF80000
310
7FFF8001FF80007FF00007FF80000FFF00007FF80000FFF8000001FFFE000000
310
7F80000000000001FFE000003E000003FFFFE000003E000003FFFF0003FFFFFF
310
FFF80003FFE00007F000F800000000000FFC0007FFF800007FFF8001FF80007F
310
F000000000000FFF000000000000FFF8000001FFFE0000007F80000000000001
310
FFF0000000000007FFFFF0000000000007FFFF0003FFFFFFFFFC00007E000007
310
F000F800000000000FFC0007FFF80000FFFF8000FF80007FF800000000001FFF
310
800000000001FFF8000001FFFE0000007F80000000000001FFF800000000000F
310
FFFFF800000000000FFFFF0003FFFFFFFFFC00000000000FF000FC0000000000
310
1FFC0007FFFC0000FFFF8000FF80007FF800000000003FFFC00000000001FFF8
310
000001FFFE0000007F80000000000001FFF800000000000FFFFFF80000000000
310
0FFFFF0003FFFFFFFFFE00000000001FF000FE00000000003FF8000FFFFC0000
310
FFFF8000FF80007FFC00000000003FFFC00000000003FFF8000001FFFE000000
310
7F80000000000001FFFC00000000001FFFFFFC00000000001FFFFF0003FFFFFF
310
FFFF00000000001FF000FF00000000003FF8000FFFFC0000FFFFC000FF80007F
310
FE00000000007FFFE00000000007FFF8000001FFFE0000007F80000000000001
310
FFFE00000000003FFFFFFE00000000003FFFFF0003FFFFFFFFFF80000000003F
310
F000FF80000000007FF8000FFFFC0001FFFFC0007F80007FFF0000000000FFFF
310
F0000000000FFFF800000000000000007F80000000000001FFFF8000000000FF
310
FFFFFF8000000000FFFFFF0003FFFFFFFFFFC0000000007FF000FFC000000000
310
FFF8000FFFFE0001FFFFC0007F80007FFF8000000001FFFFF8000000001FFFF8
310
00000000000000007F80000000000001FFFFC000000001FFFFFFFFC000000001
310
FFFFFF0003FFFFFFFFFFE000000000FFF000FFE000000003FFF0001FFFFE0001
310
FFFFC0007F80007FFFC000000007FFFFFE000000003FFFF80000000000000000
310
7F80000000000001FFFFE000000003FFFFFFFFE000000003FFFFFF0003FFFFFF
310
FFFFF000000003FFF000FFF80000000FFFF0001FFFFE0001FFFFE0007F80007F
310
FFF00000000FFFFFFF00000000FFFFF800000000000000007F80000000000001
310
FFFFF80000000FFFFFFFFFF80000000FFFFFFF0003FFFFFFFFFFFC0000000FFF
310
F000FFFE0000003FFFF0001FFFFE0003FFFFE0003F80007FFFFC0000003FFFFF
310
FFC0000003FFFFF800000000000000007F80000000000001FFFFFE0000003FFF
310
FFFFFFFE0000003FFFFFFF0003FFFFFFFFFFFF0000003FFFF000FFFF800000FF
310
FFF0001FFFFF0003FFFFE0003F80007FFFFF000001FFFFFFFFF800001FFFFFF8
310
00000000000000007F80000000000001FFFFFFC00001FFFFFFFFFFFFC00001FF
310
FFFFFF0003FFFFFFFFFFFFC00000FFFFF000FFFFF8000FFFFFFFFFFFFFFFFFFF
310
FFFFFFFFFFFFFFFFFFFFF0001FFFFFFFFFFF0000FFFFFFF80000000000000000
310
7FFFFFFFFFFFFFFFFFFFFFFC001FFFFFFFFFFFFFFC001FFFFFFFFFFFFFFFFFFF
310
FFFFFFFC001FFFFFF000FFFFFFFFFFFFFFFFFFFFFFFFFFFFFFFFFFFFFFFFFFFF
310
FFFFFFFFFFFFFFFFFFFFFFFFFFFFFFFFFFFFFFFFFFFFFFFFFFFFFFFFFFFFFFFF
310
FFFFFFFFFFFFFFFFFFFFFFFFFFFFFFFFFFFFFFFFFFFFFFFFFFFFFFFFFFFFFFFF
310
F000FFFFFFFFFFFFFFFFFFFFFFFFFFFFFFFFFFFFFFFFFFFFFFFFFFFFFFFFFFFF
310
FFFFFFFFFFFFFFFFFFFFFFFFFFFFFFFFFFFFFFFFFFFFFFFFFFFFFFFFFFFFFFFF
310
FFFFFFFFFFFFFFFFFFFFFFFFFFFFFFFFFFFFFFFFFFFFFFFFF000FFFFFFFFFFFF
310
FFFFFFFFFFFFFFFFFFFFFFFFFFFFFFFFFFFFFFFFFFFFFFFFFFFFFFFFFFFFFFFF
310
FFFFFFFFFFFFFFFFFFFFFFFFFFFFFFFFFFFFFFFFFFFFFFFFFFFFFFFFFFFFFFFF
310
FFFFFFFFFFFFFFFFFFFFFFFFFFFFFFFFF000FFFFFFFFFFFFFFFFFFFFFFFFFFFF
310
FFFFFFFFFFFFFFFFFFFFFFFFFFFFFFFFFFFFFFFFFFFFFFFFFFFFFFFFFFFFFFFF
310
FFFFFFFFFFFFFFFFFFFFFFFFFFFFFFFFFFFFFFFFFFFFFFFFFFFFFFFFFFFFFFFF
310
FFFFFFFFFFFFFFFFF000FFFFFFFFFFFFFFFFFFFFFFFFFFFFFFFFFFFFFFFFFFFF
310
FFFFFFFFFFFFFFFFFFFFFFFFFFFFFFFFFFFFFFFFFFFFFFFFFFFFFFFFFFFFFFFF
310
FFFFFFFFFFFFFFFFFFFFFFFFFFFFFFFFFFFFFFFFFFFFFFFFFFFFFFFFFFFFFFFF
310
F000FFFFFFFFFFFFFFFFFFFFFFFFFFFFFFFFFFFFFFFFFFFFFFFFFFFFFFFFFFFF
310
FFFFFFFFFFFFFFFFFFFFFFFFFFFFFFFFFFFFFFFFFFFFFFFFFFFFFFFFFFFFFFFF
310
FFFFFFFFFFFFFFFFFFFFFFFFFFFFFFFFFFFFFFFFFFFFFFFFF000FFFFFFFFFFFF
310
FFFFFFFFFFFFFFFFFFFFFFFFFFFFFFFFFFFFFFFFFFFFFFFFFFFFFFFFFFFFFFFF
310
FFFFFFFFFFFFFFFFFFFFFFFFFFFFFFFFFFFFFFFFFFFFFFFFFFFFFFFFFFFFFFFF
310
FFFFFFFFFFFFFFFFFFFFFFFFFFFFFFFFF000FFFFFFFFFFFFFFFFFFFFFFFFFFFF
310
FFFFFFFFFFFFFFFFFFFFFFFFFFFFFFFFFFFFFFFFFFFFFFFFFFFFFFFFFFFFFFFF
310
FFFFFFFFFFFFFFFFFFFFFFFFFFFFFFFFFFFFFFFFFFFFFFFFFFFFFFFFFFFFFFFF
310
FFFFFFFFFFFFFFFFF000FFFFFFFFFFFFFFFFFFFFFFFFFFFFFFFFFFFFFFFFFFFF
310
FFFFFFFFFFFFFFFFFFFFFFFFFFFFFFFFFFFFFFFFFFFFFFFFFFFFFFFFFFFFFFFF
310
FFFFFFFFFFFFFFFFFFFFFFFFFFFFFFFFFFFFFFFFFFFFFFFFFFFFFFFFFFFFFFFF
310
F000FFFFFFFFFFFFFFFFFFFFFFFFFFFFFFFFFFFFFFFFFFFFFFFFFFFFFFFFFFFF
310
FFFFFFFFFFFFFFFFFFFFFFFFFFFFFFFFFFFFFFFFFFFFFFFFFFFFFFFFFFFFFFFF
310
FFFFFFFFFFFFFFFFFFFFFFFFFFFFFFFFFFFFFFFFFFFFFFFFF000FFFFFFFFFFFF
310
FFFFFFFFFFFFFFFFFFFFFFFFFFFFFFFFFFFFFFFFFFFFFFFFFFFFFFFFFFFFFFFF
310
FFFFFFFFFFFFFFFFFFFFFFFFFFFFFFFFFFFFFFFFFFFFFFFFFFFFFFFFFFFFFFFF
310
FFFFFFFFFFFFFFFFFFFFFFFFFFFFFFFFF000FFFFFFFFFFFFFFFFFFFFFFFFFFFF
310
FFFFFFFFFFFFFFFFFFFFFFFFFFFFFFFFFFFFFFFFFFFFFFFFFFFFFFFFFFFFFFFF
310
FFFFFFFFFFFFFFFFFFFFFFFFFFFFFFFFFFFFFFFFFFFFFFFFFFFFFFFFFFFFFFFF
310
FFFFFFFFFFFFFFFFF000FFFFFFFFFFFFFFFFFFFFFFFFFFFFFFFFFFFFFFFFFFFF
310
FFFFFFFFFFFFFFFFFFFFFFFFFFFFFFFFFFFFFFFFFFFFFFFFFFFFFFFFFFFFFFFF
310
FFFFFFFFFFFFFFFFFFFFFFFFFFFFFFFFFFFFFFFFFFFFFFFFFFFFFFFFFFFFFFFF
310
F000FFFFFFFFFFFFFFFFFFFFFFFFFFFFFFFFFFFFFFFFFFFFFFFFFFFFFFFFFFFF
310
FFFFFFFFFFFFFFFFFFFFFFFFFFFFFFFFFFFFFFFFFFFFFFFFFFFFFFFFFFFFFFFF
310
FFFFFFFFFFFFFFFFFFFFFFFFFFFFFFFFFFFFFFFFFFFFFFFFF000FFFFFFFFFFFF
310
FFFFFFFFFFFFFFFFFFFFFFFFFFFFFFFFFFFFFFFFFFFFFFFFFFFFFFFFFFFFFFFF
310
FFFFFFFFFFFFFFFFFFFFFFFFFFFFFFFFFFFFFFFFFFFFFFFFFFFFFFFFFFFFFFFF
310
FFFFFFFFFFFFFFFFFFFFFFFFFFFFFFFFF000FFFFFFFFFFFFFFFFFFFFFFFFFFFF
310
FFFFFFFFFFFFFFFFFFFFFFFFFFFFFFFFFFFFFFFFFFFFFFFFFFFFFFFFFFFFFFFF
310
FFFFFFFFFFFFFFFFFFFFFFFFFFFFFFFFFFFFFFFFFFFFFFFFFFFFFFFFFFFFFFFF
310
FFFFFFFFFFFFFFFFF000FFFFFFFFFFFFFFFFFFFFFFFFFFFFFFFFFFFFFFFFFFFF
310
FFFFFFFFFFFFFFFFFFFFFFFFFFFFFFFFFFFFFFFFFFFFFFFFFFFFFFFFFFFFFFFF
310
FFFFFFFFFFFFFFFFFFFFFFFFFFFFFFFFFFFFFFFFFFFFFFFFFFFFFFFFFFFFFFFF
310
F000FFFFFFFFFFFFFFFFFFFFFFFFFFFFFFFFFFFFFFFFFFFFFFFFFFFFFFFFFFFF
310
FFFFFFFFFFFFFFFFFFFFFFFFFFFFFFFFFFFFFFFFFFFFFFFFFFFFFFFFFFFFFFFF
310
FFFFFFFFFFFFFFFFFFFFFFFFFFFFFFFFFFFFFFFFFFFFFFFFF000FFFFFFFFFFFF
310
FFFFFFFFFFFFFFFFFFFFFFFFFFFFFFFFFFFFFFFFFFFFFFFFFFFFFFFFFFFFFFFF
310
FFFFFFFFFFFFFFFFFFFFFFFFFFFFFFFFFFFFFFFFFFFFFFFFFFFFFFFFFFFFFFFF
310
FFFFFFFFFFFFFFFFFFFFFFFFFFFFFFFFF000FFFFFFFFFFFFFFFFFFFFFFFFFFFF
310
FFFFFFFFFFFFFFFFFFFFFFFFFFFFFFFFFFFFFFFFFFFFFFFFFFFFFFFFFFFFFFFF
310
FFFFFFFFFFFFFFFFFFFFFFFFFFFFFFFFFFFFFFFFFFFFFFFFFFFFFFFFFFFFFFFF
310
FFFFFFFFFFFFFFFFF000FFFFFFFFFFFFFFFFFFFFFFFFFFFFFFFFFFFFFFFFFFFF
310
FFFFFFFFFFFFFFFFFFFFFFFFFFFFFFFFFFFFFFFFFFFFFFFFFFFFFFFFFFFFFFFF
310
FFFFFFFFFFFFFFFFFFFFFFFFFFFFFFFFFFFFFFFFFFFFFFFFFFFFFFFFFFFFFFFF
310
F000FFFFFFFFFFFFFFFFFFFFFFFFFFFFFFFFFFFFFFFFFFFFFFFFFFFFFFFFFFFF
310
FFFFFFFFFFFFFFFFFFFFFFFFFFFFFFFFFFFFFFFFFFFFFFFFFFFFFFFFFFFFFFFF
310
FFFFFFFFFFFFFFFFFFFFFFFFFFFFFFFFFFFFFFFFFFFFFFFFF000FFFFFFFFFFFF
310
FFFFFFFFFFFFFFFFFFFFFFFFFFFFFFFFFFFFFFFFFFFFFFFFFFFFFFFFFFFFFFFF
310
FFFFFFFFFFFFFFFFFFFFFFFFFFFFFFFFFFFFFFFFFFFFFFFFFFFFFFFFFFFFFFFF
310
FFFFFFFFFFFFFFFFFFFFFFFFFFFFFFFFF0000000000000000000000000000000
310
0000000000000000000000000000000000000000000000000000000000000000
310
0000000000000000000000000000000000000000000000000000000000000000
310
0000000000000000000000000000000000000000000000000000000000000000
310
0000000000000000000000000000000000000000000000000000000000000000
310
0000000000000000000000000000000000000000000000000000000000000000
310
0000000000000000000000000000000000000000000000000000000000000000
310
0000000000000000000000000000000000000000000000000000000000000000
310
0000000000000000000000000000000000000000000000000000000000000000
310
0000000000000000000000000000000000000000000000000000000000000000
310
0000000000000000000000000000000000000000000000000000000000000000
310
0000000000000000000000000000000000000000000000000000000000000000
310
0000000000000000000000000000000000000000000000000000000000000000
310
0000000000000000000000000000000000000000000000000000000000000000
310
0000000000000000000000000000000000000000000000000000000000000000
310
0000000000000000000000000000000000000000000000000000000000000000
  1
OLE
  0
ENDSEC
  0
SECTION
  2
OBJECTS
  0
DICTIONARY
  5
C
330
0
100
AcDbDictionary
281
     1
  3
ACAD_GROUP
350
D
  3
ACAD_LAYOUT
350
1A
  3
ACAD_MLINESTYLE
350
17
  3
ACAD_PLOTSETTINGS
350
19
  3
ACAD_PLOTSTYLENAME
350
E
  3
ACAD_SCALELIST
350
47
  0
DICTIONARY
  5
D
102
{ACAD_REACTORS
330
C
102
}
330
C
100
AcDbDictionary
281
     1
  0
DICTIONARY
  5
1A
102
{ACAD_REACTORS
330
C
102
}
330
C
100
AcDbDictionary
281
     1
  3
Layout1
350
1E
  3
Layout2
350
26
  3
Model
350
22
  0
DICTIONARY
  5
17
102
{ACAD_REACTORS
330
C
102
}
330
C
100
AcDbDictionary
281
     1
  3
Standard
350
18
  0
DICTIONARY
  5
19
102
{ACAD_REACTORS
330
C
102
}
330
C
100
AcDbDictionary
281
     1
  0
ACDBDICTIONARYWDFLT
  5
E
102
{ACAD_REACTORS
330
C
102
}
330
C
100
AcDbDictionary
281
     1
  3
Normal
350
F
100
AcDbDictionaryWithDefault
340
F
  0
DICTIONARY
  5
47
102
{ACAD_REACTORS
330
C
102
}
330
C
100
AcDbDictionary
281
     1
  3
A0
350
48
  3
A1
350
49
  3
A2
350
4A
  3
A3
350
4B
  3
A4
350
4C
  3
A5
350
4D
  3
A6
350
4E
  3
A7
350
4F
  3
A8
350
50
  3
A9
350
51
  3
B0
350
52
  3
B1
350
53
  3
B2
350
54
  3
B3
350
55
  3
B4
350
56
  3
B5
350
57
  3
B6
350
58
  3
B7
350
59
  3
B8
350
5A
  3
B9
350
5B
  3
C0
350
5C
  3
C1
350
5D
  3
C2
350
5E
  3
C3
350
5F
  3
C4
350
60
  3
C5
350
61
  3
C6
350
62
  3
C7
350
63
  3
C8
350
64
  3
C9
350
65
  3
D0
350
66
  3
D1
350
67
  3
D2
350
68
  0
LAYOUT
  5
1E
102
{ACAD_REACTORS
330
1A
102
}
330
1A
100
AcDbPlotSettings
  1

  2
none_device
  4

  6

 40
0.0
 41
0.0
 42
0.0
 43
0.0
 44
0.0
 45
0.0
 46
0.0
 47
0.0
 48
0.0
 49
0.0
140
0.0
141
0.0
142
1.0
143
1.0
 70
   688
 72
     1
 73
     0
 74
     5
  7

 75
    16
147
1.0
148
0.0
149
0.0
100
AcDbLayout
  1
Layout1
 70
     1
 71
     1
 10
0.0
 20
0.0
 11
420.0
 21
297.0
 12
0.0
 22
0.0
 32
0.0
 14
1.0000000000E+20
 24
1.0000000000E+20
 34
1.0000000000E+20
 15
-1.0000000000E+20
 25
-1.0000000000E+20
 35
-1.0000000000E+20
146
0.0
 13
0.0
 23
0.0
 33
0.0
 16
1.0
 26
0.0
 36
0.0
 17
0.0
 27
1.0
 37
0.0
 76
     0
330
1B
  0
LAYOUT
  5
26
102
{ACAD_REACTORS
330
1A
102
}
330
1A
100
AcDbPlotSettings
  1

  2
none_device
  4

  6

 40
0.0
 41
0.0
 42
0.0
 43
0.0
 44
0.0
 45
0.0
 46
0.0
 47
0.0
 48
0.0
 49
0.0
140
0.0
141
0.0
142
1.0
143
1.0
 70
   688
 72
     1
 73
     0
 74
     5
  7

 75
    16
147
1.0
148
0.0
149
0.0
100
AcDbLayout
  1
Layout2
 70
     1
 71
     2
 10
0.0
 20
0.0
 11
0.0
 21
0.0
 12
0.0
 22
0.0
 32
0.0
 14
0.0
 24
0.0
 34
0.0
 15
0.0
 25
0.0
 35
0.0
146
0.0
 13
0.0
 23
0.0
 33
0.0
 16
1.0
 26
0.0
 36
0.0
 17
0.0
 27
1.0
 37
0.0
 76
     0
330
23
  0
LAYOUT
  5
22
102
{ACAD_REACTORS
330
1A
102
}
330
1A
100
AcDbPlotSettings
  1

  2
none_device
  4
Letter_(8.50_x_11.00_Inches)
  6

 40
6.35
 41
6.35
 42
6.35000508
 43
6.35000508
 44
215.9
 45
279.4
 46
0.0
 47
0.0
 48
0.0
 49
0.0
140
0.0
141
0.0
142
1.0
143
1.0
 70
  1712
 72
     1
 73
     0
 74
     0
  7

 75
     0
147
1.0
148
0.0
149
0.0
100
AcDbLayout
  1
Model
 70
     1
 71
     0
 10
0.0
 20
0.0
 11
297.0
 21
210.0
 12
0.0
 22
0.0
 32
0.0
 14
0.0
 24
0.0
 34
0.0
 15
297.0
 25
210.0
 35
0.0
146
0.0
 13
0.0
 23
0.0
 33
0.0
 16
1.0
 26
0.0
 36
0.0
 17
0.0
 27
1.0
 37
0.0
 76
     0
330
1F
331
29
  0
MLINESTYLE
  5
18
102
{ACAD_REACTORS
330
17
102
}
330
17
100
AcDbMlineStyle
  2
Standard
 70
     0
  3

 62
   256
 51
90.0
 52
90.0
 71
     2
 49
0.5
 62
   256
  6
BYLAYER
 49
-0.5
 62
   256
  6
BYLAYER
  0
ACDBPLACEHOLDER
  5
F
102
{ACAD_REACTORS
330
E
102
}
330
E
  0
SCALE
  5
48
102
{ACAD_REACTORS
330
47
102
}
330
47
100
AcDbScale
 70
     0
300
1:1
140
1.0
141
1.0
290
     1
  0
SCALE
  5
49
102
{ACAD_REACTORS
330
47
102
}
330
47
100
AcDbScale
 70
     0
300
1:2
140
1.0
141
2.0
290
     0
  0
SCALE
  5
4A
102
{ACAD_REACTORS
330
47
102
}
330
47
100
AcDbScale
 70
     0
300
1:4
140
1.0
141
4.0
290
     0
  0
SCALE
  5
4B
102
{ACAD_REACTORS
330
47
102
}
330
47
100
AcDbScale
 70
     0
300
1:5
140
1.0
141
5.0
290
     0
  0
SCALE
  5
4C
102
{ACAD_REACTORS
330
47
102
}
330
47
100
AcDbScale
 70
     0
300
1:8
140
1.0
141
8.0
290
     0
  0
SCALE
  5
4D
102
{ACAD_REACTORS
330
47
102
}
330
47
100
AcDbScale
 70
     0
300
1:10
140
1.0
141
10.0
290
     0
  0
SCALE
  5
4E
102
{ACAD_REACTORS
330
47
102
}
330
47
100
AcDbScale
 70
     0
300
1:16
140
1.0
141
16.0
290
     0
  0
SCALE
  5
4F
102
{ACAD_REACTORS
330
47
102
}
330
47
100
AcDbScale
 70
     0
300
1:20
140
1.0
141
20.0
290
     0
  0
SCALE
  5
50
102
{ACAD_REACTORS
330
47
102
}
330
47
100
AcDbScale
 70
     0
300
1:30
140
1.0
141
30.0
290
     0
  0
SCALE
  5
51
102
{ACAD_REACTORS
330
47
102
}
330
47
100
AcDbScale
 70
     0
300
1:40
140
1.0
141
40.0
290
     0
  0
SCALE
  5
52
102
{ACAD_REACTORS
330
47
102
}
330
47
100
AcDbScale
 70
     0
300
1:50
140
1.0
141
50.0
290
     0
  0
SCALE
  5
53
102
{ACAD_REACTORS
330
47
102
}
330
47
100
AcDbScale
 70
     0
300
1:100
140
1.0
141
100.0
290
     0
  0
SCALE
  5
54
102
{ACAD_REACTORS
330
47
102
}
330
47
100
AcDbScale
 70
     0
300
2:1
140
2.0
141
1.0
290
     0
  0
SCALE
  5
55
102
{ACAD_REACTORS
330
47
102
}
330
47
100
AcDbScale
 70
     0
300
4:1
140
4.0
141
1.0
290
     0
  0
SCALE
  5
56
102
{ACAD_REACTORS
330
47
102
}
330
47
100
AcDbScale
 70
     0
300
8:1
140
8.0
141
1.0
290
     0
  0
SCALE
  5
57
102
{ACAD_REACTORS
330
47
102
}
330
47
100
AcDbScale
 70
     0
300
10:1
140
10.0
141
1.0
290
     0
  0
SCALE
  5
58
102
{ACAD_REACTORS
330
47
102
}
330
47
100
AcDbScale
 70
     0
300
100:1
140
100.0
141
1.0
290
     0
  0
SCALE
  5
59
102
{ACAD_REACTORS
330
47
102
}
330
47
100
AcDbScale
 70
     0
300
1/128" = 1'-0"
140
0.0078125
141
12.0
290
     0
  0
SCALE
  5
5A
102
{ACAD_REACTORS
330
47
102
}
330
47
100
AcDbScale
 70
     0
300
1/64" = 1'-0"
140
0.015625
141
12.0
290
     0
  0
SCALE
  5
5B
102
{ACAD_REACTORS
330
47
102
}
330
47
100
AcDbScale
 70
     0
300
1/32" = 1'-0"
140
0.03125
141
12.0
290
     0
  0
SCALE
  5
5C
102
{ACAD_REACTORS
330
47
102
}
330
47
100
AcDbScale
 70
     0
300
1/16" = 1'-0"
140
0.0625
141
12.0
290
     0
  0
SCALE
  5
5D
102
{ACAD_REACTORS
330
47
102
}
330
47
100
AcDbScale
 70
     0
300
3/32" = 1'-0"
140
0.09375
141
12.0
290
     0
  0
SCALE
  5
5E
102
{ACAD_REACTORS
330
47
102
}
330
47
100
AcDbScale
 70
     0
300
1/8" = 1'-0"
140
0.125
141
12.0
290
     0
  0
SCALE
  5
5F
102
{ACAD_REACTORS
330
47
102
}
330
47
100
AcDbScale
 70
     0
300
3/16" = 1'-0"
140
0.1875
141
12.0
290
     0
  0
SCALE
  5
60
102
{ACAD_REACTORS
330
47
102
}
330
47
100
AcDbScale
 70
     0
300
1/4" = 1'-0"
140
0.25
141
12.0
290
     0
  0
SCALE
  5
61
102
{ACAD_REACTORS
330
47
102
}
330
47
100
AcDbScale
 70
     0
300
3/8" = 1'-0"
140
0.375
141
12.0
290
     0
  0
SCALE
  5
62
102
{ACAD_REACTORS
330
47
102
}
330
47
100
AcDbScale
 70
     0
300
1/2" = 1'-0"
140
0.5
141
12.0
290
     0
  0
SCALE
  5
63
102
{ACAD_REACTORS
330
47
102
}
330
47
100
AcDbScale
 70
     0
300
3/4" = 1'-0"
140
0.75
141
12.0
290
     0
  0
SCALE
  5
64
102
{ACAD_REACTORS
330
47
102
}
330
47
100
AcDbScale
 70
     0
300
1" = 1'-0"
140
1.0
141
12.0
290
     0
  0
SCALE
  5
65
102
{ACAD_REACTORS
330
47
102
}
330
47
100
AcDbScale
 70
     0
300
1-1/2" = 1'-0"
140
1.5
141
12.0
290
     0
  0
SCALE
  5
66
102
{ACAD_REACTORS
330
47
102
}
330
47
100
AcDbScale
 70
     0
300
3" = 1'-0"
140
3.0
141
12.0
290
     0
  0
SCALE
  5
67
102
{ACAD_REACTORS
330
47
102
}
330
47
100
AcDbScale
 70
     0
300
6" = 1'-0"
140
6.0
141
12.0
290
     0
  0
SCALE
  5
68
102
{ACAD_REACTORS
330
47
102
}
330
47
100
AcDbScale
 70
     0
300
1'-0" = 1'-0"
140
12.0
141
12.0
290
     0
  0
ENDSEC
  0
EOF
