  0
SECTION
  2
HEADER
  9
$ACADVER
  1
AC1015
  9
$ACADMAINTVER
 70
     6
  9
$DWGCODEPAGE
  3
ANSI_1252
  9
$INSBASE
 10
0.0
 20
0.0
 30
0.0
  9
$EXTMIN
 10
0.0
 20
0.0
 30
0.0
  9
$EXTMAX
 10
297.0
 20
210.0
 30
0.0
  9
$LIMMIN
 10
0.0
 20
0.0
  9
$LIMMAX
 10
297.0
 20
210.0
  9
$ORTHOMODE
 70
     0
  9
$REGENMODE
 70
     1
  9
$FILLMODE
 70
     1
  9
$QTEXTMODE
 70
     0
  9
$MIRRTEXT
 70
     1
  9
$LTSCALE
 40
1.0
  9
$ATTMODE
 70
     1
  9
$TEXTSIZE
 40
2.0
  9
$TRACEWID
 40
1.0
  9
$TEXTSTYLE
  7
Standard
  9
$CLAYER
  8
0
  9
$CELTYPE
  6
ByLayer
  9
$CECOLOR
 62
   256
  9
$CELTSCALE
 40
1.0
  9
$DISPSILH
 70
     0
  9
$DIMSCALE
 40
1.0
  9
$DIMASZ
 40
3.0
  9
$DIMEXO
 40
0.0
  9
$DIMDLI
 40
3.75
  9
$DIMRND
 40
0.0
  9
$DIMDLE
 40
0.0
  9
$DIMEXE
 40
1.0
  9
$DIMTP
 40
0.0
  9
$DIMTM
 40
0.0
  9
$DIMTXT
 40
2.0
  9
$DIMCEN
 40
2.5
  9
$DIMTSZ
 40
0.0
  9
$DIMTOL
 70
     0
  9
$DIMLIM
 70
     0
  9
$DIMTIH
 70
     1
  9
$DIMTOH
 70
     1
  9
$DIMSE1
 70
     0
  9
$DIMSE2
 70
     0
  9
$DIMTAD
 70
     1
  9
$DIMZIN
 70
     0
  9
$DIMBLK
  1

  9
$DIMASO
 70
     1
  9
$DIMSHO
 70
     1
  9
$DIMPOST
  1

  9
$DIMAPOST
  1

  9
$DIMALT
 70
     0
  9
$DIMALTD
 70
     3
  9
$DIMALTF
 40
0.0393700787
  9
$DIMLFAC
 40
2.0
  9
$DIMTOFL
 70
     1
  9
$DIMTVP
 40
0.0
  9
$DIMTIX
 70
     0
  9
$DIMSOXD
 70
     0
  9
$DIMSAH
 70
     0
  9
$DIMBLK1
  1

  9
$DIMBLK2
  1

  9
$DIMSTYLE
  2
ISO-25
  9
$DIMCLRD
 70
     0
  9
$DIMCLRE
 70
     0
  9
$DIMCLRT
 70
     0
  9
$DIMTFAC
 40
1.0
  9
$DIMGAP
 40
1.524
  9
$DIMJUST
 70
     0
  9
$DIMSD1
 70
     0
  9
$DIMSD2
 70
     0
  9
$DIMTOLJ
 70
     0
  9
$DIMTZIN
 70
     0
  9
$DIMALTZ
 70
     0
  9
$DIMALTTZ
 70
     0
  9
$DIMUPT
 70
     0
  9
$DIMDEC
 70
     2
  9
$DIMTDEC
 70
     3
  9
$DIMALTU
 70
     2
  9
$DIMALTTD
 70
     3
  9
$DIMTXSTY
  7
Standard
  9
$DIMAUNIT
 70
     0
  9
$DIMADEC
 70
     2
  9
$DIMALTRND
 40
0.0
  9
$DIMAZIN
 70
     0
  9
$DIMDSEP
 70
    44
  9
$DIMATFIT
 70
     3
  9
$DIMFRAC
 70
     0
  9
$DIMLDRBLK
  1

  9
$DIMLUNIT
 70
     2
  9
$DIMLWD
 70
    -2
  9
$DIMLWE
 70
    -2
  9
$DIMTMOVE
 70
     0
  9
$LUNITS
 70
     2
  9
$LUPREC
 70
     2
  9
$SKETCHINC
 40
1.0
  9
$FILLETRAD
 40
10.0
  9
$AUNITS
 70
     0
  9
$AUPREC
 70
     2
  9
$MENU
  1
.
  9
$ELEVATION
 40
0.0
  9
$PELEVATION
 40
0.0
  9
$THICKNESS
 40
0.0
  9
$LIMCHECK
 70
     0
  9
$CHAMFERA
 40
0.0
  9
$CHAMFERB
 40
0.0
  9
$CHAMFERC
 40
0.0
  9
$CHAMFERD
 40
0.0
  9
$SKPOLY
 70
     0
  9
$TDCREATE
 40
2457675.390640382
  9
$TDUCREATE
 40
2457675.307307049
  9
$TDUPDATE
 40
2457675.390642141
  9
$TDUUPDATE
 40
2457675.307308808
  9
$TDINDWG
 40
0.0000000116
  9
$TDUSRTIMER
 40
0.0000000116
  9
$USRTIMER
 70
     1
  9
$ANGBASE
 50
0.0
  9
$ANGDIR
 70
     0
  9
$PDMODE
 70
     0
  9
$PDSIZE
 40
-1.0
  9
$PLINEWID
 40
0.0
  9
$SPLFRAME
 70
     0
  9
$SPLINETYPE
 70
     6
  9
$SPLINESEGS
 70
     8
  9
$HANDSEED
  5
293
  9
$SURFTAB1
 70
     6
  9
$SURFTAB2
 70
     6
  9
$SURFTYPE
 70
     6
  9
$SURFU
 70
     6
  9
$SURFV
 70
     6
  9
$UCSBASE
  2

  9
$UCSNAME
  2

  9
$UCSORG
 10
0.0
 20
0.0
 30
0.0
  9
$UCSXDIR
 10
1.0
 20
0.0
 30
0.0
  9
$UCSYDIR
 10
0.0
 20
1.0
 30
0.0
  9
$UCSORTHOREF
  2

  9
$UCSORTHOVIEW
 70
     0
  9
$UCSORGTOP
 10
0.0
 20
0.0
 30
0.0
  9
$UCSORGBOTTOM
 10
0.0
 20
0.0
 30
0.0
  9
$UCSORGLEFT
 10
0.0
 20
0.0
 30
0.0
  9
$UCSORGRIGHT
 10
0.0
 20
0.0
 30
0.0
  9
$UCSORGFRONT
 10
0.0
 20
0.0
 30
0.0
  9
$UCSORGBACK
 10
0.0
 20
0.0
 30
0.0
  9
$PUCSBASE
  2

  9
$PUCSNAME
  2

  9
$PUCSORG
 10
0.0
 20
0.0
 30
0.0
  9
$PUCSXDIR
 10
1.0
 20
0.0
 30
0.0
  9
$PUCSYDIR
 10
0.0
 20
1.0
 30
0.0
  9
$PUCSORTHOREF
  2

  9
$PUCSORTHOVIEW
 70
     0
  9
$PUCSORGTOP
 10
0.0
 20
0.0
 30
0.0
  9
$PUCSORGBOTTOM
 10
0.0
 20
0.0
 30
0.0
  9
$PUCSORGLEFT
 10
0.0
 20
0.0
 30
0.0
  9
$PUCSORGRIGHT
 10
0.0
 20
0.0
 30
0.0
  9
$PUCSORGFRONT
 10
0.0
 20
0.0
 30
0.0
  9
$PUCSORGBACK
 10
0.0
 20
0.0
 30
0.0
  9
$USERI1
 70
     0
  9
$USERI2
 70
     0
  9
$USERI3
 70
     0
  9
$USERI4
 70
     0
  9
$USERI5
 70
     0
  9
$USERR1
 40
0.0
  9
$USERR2
 40
0.0
  9
$USERR3
 40
0.0
  9
$USERR4
 40
0.0
  9
$USERR5
 40
0.0
  9
$WORLDVIEW
 70
     1
  9
$SHADEDGE
 70
     3
  9
$SHADEDIF
 70
    70
  9
$TILEMODE
 70
     1
  9
$MAXACTVP
 70
    64
  9
$PINSBASE
 10
0.0
 20
0.0
 30
0.0
  9
$PLIMCHECK
 70
     0
  9
$PEXTMIN
 10
1.0000000000E+20
 20
1.0000000000E+20
 30
1.0000000000E+20
  9
$PEXTMAX
 10
-1.0000000000E+20
 20
-1.0000000000E+20
 30
-1.0000000000E+20
  9
$PLIMMIN
 10
0.0
 20
0.0
  9
$PLIMMAX
 10
420.0
 20
297.0
  9
$UNITMODE
 70
     0
  9
$VISRETAIN
 70
     1
  9
$PLINEGEN
 70
     0
  9
$PSLTSCALE
 70
     1
  9
$TREEDEPTH
 70
  3020
  9
$CMLSTYLE
  2
Standard
  9
$CMLJUST
 70
     0
  9
$CMLSCALE
 40
20.0
  9
$PROXYGRAPHICS
 70
     1
  9
$MEASUREMENT
 70
     1
  9
$CELWEIGHT
370
    -1
  9
$ENDCAPS
280
     0
  9
$JOINSTYLE
280
     0
  9
$LWDISPLAY
290
     1
  9
$INSUNITS
 70
     4
  9
$HYPERLINKBASE
  1

  9
$STYLESHEET
  1

  9
$XEDIT
290
     1
  9
$CEPSNTYPE
380
     0
  9
$PSTYLEMODE
290
     1
  9
$FINGERPRINTGUID
  2
{2CA69B70-93D5-4840-8B98-899E2EF0EF81}
  9
$VERSIONGUID
  2
{FAEB1C32-E019-11D5-929B-00C0DF256EC4}
  9
$EXTNAMES
290
     1
  9
$PSVPSCALE
 40
0.0
  9
$OLESTARTUP
290
     0
  0
ENDSEC
  0
SECTION
  2
CLASSES
  0
CLASS
  1
ACDBDICTIONARYWDFLT
  2
AcDbDictionaryWithDefault
  3
ObjectDBX Classes
 90
        0
280
     0
281
     0
  0
CLASS
  1
VISUALSTYLE
  2
AcDbVisualStyle
  3
ObjectDBX Classes
 90
     4095
280
     0
281
     0
  0
CLASS
  1
MATERIAL
  2
AcDbMaterial
  3
ObjectDBX Classes
 90
     1153
280
     0
281
     0
  0
CLASS
  1
SCALE
  2
AcDbScale
  3
ObjectDBX Classes
 90
     1153
280
     0
281
     0
  0
CLASS
  1
TABLESTYLE
  2
AcDbTableStyle
  3
ObjectDBX Classes
 90
     4095
280
     0
281
     0
  0
CLASS
  1
MLEADERSTYLE
  2
AcDbMLeaderStyle
  3
ACDB_MLEADERSTYLE_CLASS
 90
     4095
280
     0
281
     0
  0
CLASS
  1
SUN
  2
AcDbSun
  3
SCENEOE
 90
     1153
280
     0
281
     0
  0
CLASS
  1
ACDBPLACEHOLDER
  2
AcDbPlaceHolder
  3
ObjectDBX Classes
 90
        0
280
     0
281
     0
  0
CLASS
  1
LAYOUT
  2
AcDbLayout
  3
ObjectDBX Classes
 90
        0
280
     0
281
     0
  0
ENDSEC
  0
SECTION
  2
TABLES
  0
TABLE
  2
VPORT
  5
8
330
0
100
AcDbSymbolTable
 70
     1
  0
VPORT
  5
29
330
8
100
AcDbSymbolTableRecord
100
AcDbViewportTableRecord
  2
*Active
 70
     0
 10
0.0
 20
0.0
 11
1.0
 21
1.0
 12
148.5
 22
105.0
 13
0.0
 23
0.0
 14
10.0
 24
10.0
 15
10.0
 25
10.0
 16
0.0
 26
0.0
 36
1.0
 17
0.0
 27
0.0
 37
0.0
 40
210.0
 41
1.4142857143
 42
50.0
 43
0.0
 44
0.0
 50
0.0
 51
0.0
 71
     0
 72
  2000
 73
     1
 74
     3
 75
     0
 76
     0
 77
     0
 78
     0
281
     0
 65
     1
110
0.0
120
0.0
130
0.0
111
1.0
121
0.0
131
0.0
112
0.0
122
1.0
132
0.0
 79
     0
146
0.0
  0
ENDTAB
  0
TABLE
  2
LTYPE
  5
5
330
0
100
AcDbSymbolTable
 70
     6
  0
LTYPE
  5
14
330
5
100
AcDbSymbolTableRecord
100
AcDbLinetypeTableRecord
  2
ByBlock
 70
     0
  3

 72
    65
 73
     0
 40
0.0
  0
LTYPE
  5
15
330
5
100
AcDbSymbolTableRecord
100
AcDbLinetypeTableRecord
  2
ByLayer
 70
     0
  3

 72
    65
 73
     0
 40
0.0
  0
LTYPE
  5
16
330
5
100
AcDbSymbolTableRecord
100
AcDbLinetypeTableRecord
  2
Continuous
 70
     0
  3
Solid line
 72
    65
 73
     0
 40
0.0
  0
LTYPE
  5
6E
330
5
100
AcDbSymbolTableRecord
100
AcDbLinetypeTableRecord
  2
HIDDEN
 70
     0
  3
Hidden __ __ __ __ __ __ __ __ __ __ __ __ __ __
 72
    65
 73
     2
 40
1.905
 49
1.27
 74
     0
 49
-0.635
 74
     0
  0
LTYPE
  5
6F
330
5
100
AcDbSymbolTableRecord
100
AcDbLinetypeTableRecord
  2
PHANTOM
 70
     0
  3
Phantom ______  __  __  ______  __  __  ______
 72
    65
 73
     6
 40
12.7
 49
6.35
 74
     0
 49
-1.27
 74
     0
 49
1.27
 74
     0
 49
-1.27
 74
     0
 49
1.27
 74
     0
 49
-1.27
 74
     0
  0
LTYPE
  5
70
330
5
100
AcDbSymbolTableRecord
100
AcDbLinetypeTableRecord
  2
CENTER
 70
     0
  3
Center ____ _ ____ _ ____ _ ____ _ ____ _ ____
 72
    65
 73
     4
 40
10.16
 49
6.35
 74
     0
 49
-1.27
 74
     0
 49
1.27
 74
     0
 49
-1.27
 74
     0
  0
LTYPE
  5
71
330
5
100
AcDbSymbolTableRecord
100
AcDbLinetypeTableRecord
  2
CENTERX2
 70
     0
  3
Center (2x) ________  __  ________  __  _____
 72
    65
 73
     4
 40
20.32
 49
12.7
 74
     0
 49
-2.54
 74
     0
 49
2.54
 74
     0
 49
-2.54
 74
     0
  0
LTYPE
  5
72
330
5
100
AcDbSymbolTableRecord
100
AcDbLinetypeTableRecord
  2
DOT2
 70
     0
  3
Dot (.5x) ........................................
 72
    65
 73
     2
 40
0.635
 49
0.0
 74
     0
 49
-0.635
 74
     0
  0
ENDTAB
  0
TABLE
  2
LAYER
  5
2
330
0
100
AcDbSymbolTable
 70
     5
  0
LAYER
  5
10
330
2
100
AcDbSymbolTableRecord
100
AcDbLayerTableRecord
  2
0
 70
     0
 62
     7
  6
Continuous
370
    -3
390
F
  0
LAYER
  5
73
330
2
100
AcDbSymbolTableRecord
100
AcDbLayerTableRecord
  2
FORMAT
 70
     0
 62
     7
  6
Continuous
370
    -3
390
F
  0
LAYER
  5
74
330
2
100
AcDbSymbolTableRecord
100
AcDbLayerTableRecord
  2
VERMASSUNG
 70
     0
 62
     7
  6
Continuous
370
    -3
390
F
  0
LAYER
  5
75
330
2
100
AcDbSymbolTableRecord
100
AcDbLayerTableRecord
  2
KOPF_DÜNN
 70
     0
 62
     7
  6
Continuous
370
    -3
390
F
  0
LAYER
  5
76
330
2
100
AcDbSymbolTableRecord
100
AcDbLayerTableRecord
  2
KOPF_DICK
 70
     0
 62
     7
  6
Continuous
370
    15
390
F
  0
ENDTAB
  0
TABLE
  2
STYLE
  5
3
330
0
100
AcDbSymbolTable
 70
     2
  0
STYLE
  5
11
330
3
100
AcDbSymbolTableRecord
100
AcDbTextStyleTableRecord
  2
Standard
 70
     0
 40
0.0
 41
1.0
 50
0.0
 71
     0
 42
2.0
  3
txt
  4

  0
STYLE
  5
77
330
3
100
AcDbSymbolTableRecord
100
AcDbTextStyleTableRecord
  2
SLDTEXTSTYLE0
 70
     0
 40
0.0
 41
0.7
 50
0.0
 71
     0
 42
2.0
  3
TXT
  4

  0
ENDTAB
  0
TABLE
  2
VIEW
  5
6
330
0
100
AcDbSymbolTable
 70
     0
  0
ENDTAB
  0
TABLE
  2
UCS
  5
7
330
0
100
AcDbSymbolTable
 70
     0
  0
ENDTAB
  0
TABLE
  2
APPID
  5
9
330
0
100
AcDbSymbolTable
 70
     1
  0
APPID
  5
12
330
9
100
AcDbSymbolTableRecord
100
AcDbRegAppTableRecord
  2
ACAD
 70
     0
  0
ENDTAB
  0
TABLE
  2
DIMSTYLE
  5
A
330
0
100
AcDbSymbolTable
 70
     2
100
AcDbDimStyleTable
  0
DIMSTYLE
105
27
330
A
100
AcDbSymbolTableRecord
100
AcDbDimStyleTableRecord
  2
ISO-25
 70
     0
 41
2.5
 42
0.625
 43
3.75
 44
1.25
 73
     0
 74
     0
 77
     1
 78
     8
140
2.5
141
2.5
143
0.0393700787
147
0.625
171
     3
172
     1
178
     0
271
     2
272
     2
274
     3
278
    44
283
     0
284
     8
340
11
  0
DIMSTYLE
105
1A8
102
{ACAD_REACTORS
330
1A7
330
1B4
330
1C0
330
1CA
330
1D6
330
1E1
102
}
330
A
100
AcDbSymbolTableRecord
100
AcDbDimStyleTableRecord
  2
SLDDIMSTYLE0
 70
     0
 41
3.0
 44
0.0
 45
0.000000001
 73
     0
 74
     0
 77
     1
 78
    12
 79
     3
140
2.0
147
0.5
173
     1
178
     0
271
     2
272
     3
276
     2
284
    12
340
77
  0
ENDTAB
  0
TABLE
  2
BLOCK_RECORD
  5
1
330
0
100
AcDbSymbolTable
 70
     7
  0
BLOCK_RECORD
  5
1F
330
1
100
AcDbSymbolTableRecord
100
AcDbBlockTableRecord
  2
*Model_Space
340
22
  0
BLOCK_RECORD
  5
1B
330
1
100
AcDbSymbolTableRecord
100
AcDbBlockTableRecord
  2
*Paper_Space
340
1E
  0
BLOCK_RECORD
  5
23
330
1
100
AcDbSymbolTableRecord
100
AcDbBlockTableRecord
  2
*Paper_Space0
340
26
  0
BLOCK_RECORD
  5
1A9
330
1
100
AcDbSymbolTableRecord
100
AcDbBlockTableRecord
  2
_D
340
0
  0
BLOCK_RECORD
  5
1B5
330
1
100
AcDbSymbolTableRecord
100
AcDbBlockTableRecord
  2
_D_1
340
0
  0
BLOCK_RECORD
  5
1C1
330
1
100
AcDbSymbolTableRecord
100
AcDbBlockTableRecord
  2
_D_2
340
0
  0
BLOCK_RECORD
  5
1CB
330
1
100
AcDbSymbolTableRecord
100
AcDbBlockTableRecord
  2
_D_3
340
0
  0
BLOCK_RECORD
  5
1D7
330
1
100
AcDbSymbolTableRecord
100
AcDbBlockTableRecord
  2
_D_4
340
0
  0
BLOCK_RECORD
  5
1E2
330
1
100
AcDbSymbolTableRecord
100
AcDbBlockTableRecord
  2
_D_5
340
0
  0
ENDTAB
  0
ENDSEC
  0
SECTION
  2
BLOCKS
  0
BLOCK
  5
20
330
1F
100
AcDbEntity
  8
0
100
AcDbBlockBegin
  2
*Model_Space
 70
     0
 10
0.0
 20
0.0
 30
0.0
  3
*Model_Space
  1

  0
ENDBLK
  5
21
330
1F
100
AcDbEntity
  8
0
100
AcDbBlockEnd
  0
BLOCK
  5
1C
330
1B
100
AcDbEntity
 67
     1
  8
0
100
AcDbBlockBegin
  2
*Paper_Space
 70
     0
 10
0.0
 20
0.0
 30
0.0
  3
*Paper_Space
  1

  0
ENDBLK
  5
1D
330
1B
100
AcDbEntity
 67
     1
  8
0
100
AcDbBlockEnd
  0
BLOCK
  5
24
330
23
100
AcDbEntity
  8
0
100
AcDbBlockBegin
  2
*Paper_Space0
 70
     0
 10
0.0
 20
0.0
 30
0.0
  3
*Paper_Space0
  1

  0
ENDBLK
  5
25
330
23
100
AcDbEntity
  8
0
100
AcDbBlockEnd
  0
BLOCK
  5
1AA
330
1A9
100
AcDbEntity
  8
0
100
AcDbBlockBegin
  2
_D
 70
     0
 10
0.0
 20
0.0
 30
0.0
  3
_D
  1

  0
SOLID
  5
1AC
330
1A9
100
AcDbEntity
  8
VERMASSUNG
100
AcDbTrace
 10
72.1837221886
 20
144.3987858664
 30
0.0
 11
71.7337221886
 21
141.3987858664
 31
0.0
 12
72.6337221886
 22
141.3987858664
 32
0.0
 13
72.6337221886
 23
141.3987858664
 33
0.0
  0
SOLID
  5
1AD
330
1A9
100
AcDbEntity
  8
VERMASSUNG
100
AcDbTrace
 10
72.1837221886
 20
81.3987858664
 30
0.0
 11
72.6337221886
 21
84.3987858664
 31
0.0
 12
71.7337221886
 22
84.3987858664
 32
0.0
 13
71.7337221886
 23
84.3987858664
 33
0.0
  0
LINE
  5
1AE
330
1A9
100
AcDbEntity
  8
VERMASSUNG
100
AcDbLine
 10
112.6151936926
 20
144.3987858664
 30
0.0
 11
71.1837221886
 21
144.3987858664
 31
0.0
  0
LINE
  5
1AF
330
1A9
100
AcDbEntity
  8
VERMASSUNG
100
AcDbLine
 10
112.6151936926
 20
81.3987858664
 30
0.0
 11
71.1837221886
 21
81.3987858664
 31
0.0
  0
LINE
  5
1B0
330
1A9
100
AcDbEntity
  8
VERMASSUNG
100
AcDbLine
 10
72.1837221886
 20
144.3987858664
 30
0.0
 11
72.1837221886
 21
81.3987858664
 31
0.0
  0
MTEXT
  5
1B1
330
1A9
100
AcDbEntity
  8
VERMASSUNG
100
AcDbMText
 10
69.4055869324
 20
105.1937865686
 30
0.0
 40
2.0
 41
0.0
 71
     1
 72
     1
  1
HSK A
  7
SLDTEXTSTYLE0
 11
-7.044195017643634E-15
 21
1.0
 31
0.0
 73
     1
 44
1.0
  0
MTEXT
  5
1B2
330
1A9
100
AcDbEntity
  8
VERMASSUNG
100
AcDbMText
 10
69.6055868837
 20
114.1937861812
 30
0.0
 40
2.0
 41
0.0
 71
     1
 72
     1
  1
%%c
  7
SLDTEXTSTYLE0
 11
-7.044195017643634E-15
 21
1.0
 31
0.0
 73
     1
 44
1.0
  0
MTEXT
  5
1B3
330
1A9
100
AcDbEntity
  8
VERMASSUNG
100
AcDbMText
 10
69.4055869324
 20
117.8037861955
 30
0.0
 40
2.0
 41
0.0
 71
     1
 72
     1
  1
63
  7
SLDTEXTSTYLE0
 11
-7.044195017643634E-15
 21
1.0
 31
0.0
 73
     1
 44
1.0
  0
ENDBLK
  5
1AB
330
1A9
100
AcDbEntity
  8
0
100
AcDbBlockEnd
  0
BLOCK
  5
1B6
330
1B5
100
AcDbEntity
  8
0
100
AcDbBlockBegin
  2
_D_1
 70
     0
 10
0.0
 20
0.0
 30
0.0
  3
_D_1
  1

  0
ARC
  5
1B8
330
1B5
100
AcDbEntity
  8
VERMASSUNG
100
AcDbCircle
 10
175.8901938667
 20
151.4747036395
 30
0.0
 40
4.24852922888762
100
AcDbArc
 50
153.4349488229
 51
206.5650511771
  0
ARC
  5
1B9
330
1B5
100
AcDbEntity
  8
VERMASSUNG
100
AcDbCircle
 10
174.6901935768
 20
151.4747036395
 30
0.0
 40
4.24852922888762
100
AcDbArc
 50
333.4349488229
 51
26.5650511771
  0
SOLID
  5
1BA
330
1B5
100
AcDbEntity
  8
VERMASSUNG
100
AcDbTrace
 10
138.2651936926
 20
149.5747033746
 30
0.0
 11
141.2651936926
 21
149.1247033746
 31
0.0
 12
141.2651936926
 22
150.0247033746
 32
0.0
 13
141.2651936926
 23
150.0247033746
 33
0.0
  0
SOLID
  5
1BB
330
1B5
100
AcDbEntity
  8
VERMASSUNG
100
AcDbTrace
 10
212.3151936926
 20
149.5747033746
 30
0.0
 11
209.3151936926
 21
150.0247033746
 31
0.0
 12
209.3151936926
 22
149.1247033746
 32
0.0
 13
209.3151936926
 23
149.1247033746
 33
0.0
  0
LINE
  5
1BC
330
1B5
100
AcDbEntity
  8
VERMASSUNG
100
AcDbLine
 10
138.2651936926
 20
142.7452261902
 30
0.0
 11
138.2651936926
 21
150.5747033746
 31
0.0
  0
LINE
  5
1BD
330
1B5
100
AcDbEntity
  8
VERMASSUNG
100
AcDbLine
 10
212.3151936926
 20
137.3987858664
 30
0.0
 11
212.3151936926
 21
150.5747033746
 31
0.0
  0
LINE
  5
1BE
330
1B5
100
AcDbEntity
  8
VERMASSUNG
100
AcDbLine
 10
138.2651936926
 20
149.5747033746
 30
0.0
 11
212.3151936926
 21
149.5747033746
 31
0.0
  0
MTEXT
  5
1BF
330
1B5
100
AcDbEntity
  8
VERMASSUNG
100
AcDbMText
 10
172.0901938026
 20
152.1528392034
 30
0.0
 40
2.0
 41
0.0
 71
     1
 72
     1
  1
74.05
  7
SLDTEXTSTYLE0
 73
     1
 44
1.0
  0
ENDBLK
  5
1B7
330
1B5
100
AcDbEntity
  8
0
100
AcDbBlockEnd
  0
BLOCK
  5
1C2
330
1C1
100
AcDbEntity
  8
0
100
AcDbBlockBegin
  2
_D_2
 70
     0
 10
0.0
 20
0.0
 30
0.0
  3
_D_2
  1

  0
SOLID
  5
1C4
330
1C1
100
AcDbEntity
  8
VERMASSUNG
100
AcDbTrace
 10
212.3151936926
 20
155.5747033746
 30
0.0
 11
209.3151936926
 21
156.0247033746
 31
0.0
 12
209.3151936926
 22
155.1247033746
 32
0.0
 13
209.3151936926
 23
155.1247033746
 33
0.0
  0
SOLID
  5
1C5
330
1C1
100
AcDbEntity
  8
VERMASSUNG
100
AcDbTrace
 10
112.3151936926
 20
155.5747033746
 30
0.0
 11
115.3151936926
 21
155.1247033746
 31
0.0
 12
115.3151936926
 22
156.0247033746
 32
0.0
 13
115.3151936926
 23
156.0247033746
 33
0.0
  0
LINE
  5
1C6
330
1C1
100
AcDbEntity
  8
VERMASSUNG
100
AcDbLine
 10
212.3151936926
 20
137.3987858664
 30
0.0
 11
212.3151936926
 21
156.5747033746
 31
0.0
  0
LINE
  5
1C7
330
1C1
100
AcDbEntity
  8
VERMASSUNG
100
AcDbLine
 10
112.3151936926
 20
144.0987858664
 30
0.0
 11
112.3151936926
 21
156.5747033746
 31
0.0
  0
LINE
  5
1C8
330
1C1
100
AcDbEntity
  8
VERMASSUNG
100
AcDbLine
 10
212.3151936926
 20
155.5747033746
 30
0.0
 11
112.3151936926
 21
155.5747033746
 31
0.0
  0
MTEXT
  5
1C9
330
1C1
100
AcDbEntity
  8
VERMASSUNG
100
AcDbMText
 10
160.4151936606
 20
158.1528389706
 30
0.0
 40
2.0
 41
0.0
 71
     1
 72
     1
  1
100
  7
SLDTEXTSTYLE0
 73
     1
 44
1.0
  0
ENDBLK
  5
1C3
330
1C1
100
AcDbEntity
  8
0
100
AcDbBlockEnd
  0
BLOCK
  5
1CC
330
1CB
100
AcDbEntity
  8
0
100
AcDbBlockBegin
  2
_D_3
 70
     0
 10
0.0
 20
0.0
 30
0.0
  3
_D_3
  1

  0
ARC
  5
1CE
330
1CB
100
AcDbEntity
  8
VERMASSUNG
100
AcDbCircle
 10
147.4651937158
 20
163.4747036395
 30
0.0
 40
4.248529228887633
100
AcDbArc
 50
153.4349488229
 51
206.5650511771
  0
ARC
  5
1CF
330
1CB
100
AcDbEntity
  8
VERMASSUNG
100
AcDbCircle
 10
145.2651937277
 20
163.4747036395
 30
0.0
 40
4.248529228887608
100
AcDbArc
 50
333.4349488229
 51
26.5650511771
  0
SOLID
  5
1D0
330
1CB
100
AcDbEntity
  8
VERMASSUNG
100
AcDbTrace
 10
212.3151936926
 20
161.5747033746
 30
0.0
 11
209.3151936926
 21
162.0247033746
 31
0.0
 12
209.3151936926
 22
161.1247033746
 32
0.0
 13
209.3151936926
 23
161.1247033746
 33
0.0
  0
SOLID
  5
1D1
330
1CB
100
AcDbEntity
  8
VERMASSUNG
100
AcDbTrace
 10
80.4151936926
 20
161.5747033746
 30
0.0
 11
83.4151936926
 21
161.1247033746
 31
0.0
 12
83.4151936926
 22
162.0247033746
 32
0.0
 13
83.4151936926
 23
162.0247033746
 33
0.0
  0
LINE
  5
1D2
330
1CB
100
AcDbEntity
  8
VERMASSUNG
100
AcDbLine
 10
212.3151936926
 20
137.3987858664
 30
0.0
 11
212.3151936926
 21
162.5747033746
 31
0.0
  0
LINE
  5
1D3
330
1CB
100
AcDbEntity
  8
VERMASSUNG
100
AcDbLine
 10
80.4151936926
 20
132.5894636129
 30
0.0
 11
80.4151936926
 21
162.5747033746
 31
0.0
  0
LINE
  5
1D4
330
1CB
100
AcDbEntity
  8
VERMASSUNG
100
AcDbLine
 10
212.3151936926
 20
161.5747033746
 30
0.0
 11
80.4151936926
 21
161.5747033746
 31
0.0
  0
MTEXT
  5
1D5
330
1CB
100
AcDbEntity
  8
VERMASSUNG
100
AcDbMText
 10
143.6651936517
 20
164.1528392034
 30
0.0
 40
2.0
 41
0.0
 71
     1
 72
     1
  1
131.9
  7
SLDTEXTSTYLE0
 73
     1
 44
1.0
  0
ENDBLK
  5
1CD
330
1CB
100
AcDbEntity
  8
0
100
AcDbBlockEnd
  0
BLOCK
  5
1D8
330
1D7
100
AcDbEntity
  8
0
100
AcDbBlockBegin
  2
_D_4
 70
     0
 10
0.0
 20
0.0
 30
0.0
  3
_D_4
  1

  0
SOLID
  5
1DA
330
1D7
100
AcDbEntity
  8
VERMASSUNG
100
AcDbTrace
 10
219.8598591491
 20
126.8987858664
 30
0.0
 11
219.4098591491
 21
123.8987858664
 31
0.0
 12
220.3098591491
 22
123.8987858664
 32
0.0
 13
220.3098591491
 23
123.8987858664
 33
0.0
  0
SOLID
  5
1DB
330
1D7
100
AcDbEntity
  8
VERMASSUNG
100
AcDbTrace
 10
219.8598591491
 20
98.8987858664
 30
0.0
 11
220.3098591491
 21
101.8987858664
 31
0.0
 12
219.4098591491
 22
101.8987858664
 32
0.0
 13
219.4098591491
 23
101.8987858664
 33
0.0
  0
LINE
  5
1DC
330
1D7
100
AcDbEntity
  8
VERMASSUNG
100
AcDbLine
 10
211.3151936926
 20
126.8987858664
 30
0.0
 11
220.8598591491
 21
126.8987858664
 31
0.0
  0
LINE
  5
1DD
330
1D7
100
AcDbEntity
  8
VERMASSUNG
100
AcDbLine
 10
211.3151936926
 20
98.8987858664
 30
0.0
 11
220.8598591491
 21
98.8987858664
 31
0.0
  0
LINE
  5
1DE
330
1D7
100
AcDbEntity
  8
VERMASSUNG
100
AcDbLine
 10
219.8598591491
 20
126.8987858664
 30
0.0
 11
219.8598591491
 21
98.8987858664
 31
0.0
  0
MTEXT
  5
1DF
330
1D7
100
AcDbEntity
  8
VERMASSUNG
100
AcDbMText
 10
217.2817238442
 20
109.6937859092
 30
0.0
 40
2.0
 41
0.0
 71
     1
 72
     1
  1
%%c
  7
SLDTEXTSTYLE0
 11
-7.044195017643634E-15
 21
1.0
 31
0.0
 73
     1
 44
1.0
  0
MTEXT
  5
1E0
330
1D7
100
AcDbEntity
  8
VERMASSUNG
100
AcDbMText
 10
217.0817238929
 20
113.3037859235
 30
0.0
 40
2.0
 41
0.0
 71
     1
 72
     1
  1
28
  7
SLDTEXTSTYLE0
 11
-7.044195017643634E-15
 21
1.0
 31
0.0
 73
     1
 44
1.0
  0
ENDBLK
  5
1D9
330
1D7
100
AcDbEntity
  8
0
100
AcDbBlockEnd
  0
BLOCK
  5
1E3
330
1E2
100
AcDbEntity
  8
0
100
AcDbBlockBegin
  2
_D_5
 70
     0
 10
0.0
 20
0.0
 30
0.0
  3
_D_5
  1

  0
SOLID
  5
1E5
330
1E2
100
AcDbEntity
  8
VERMASSUNG
100
AcDbTrace
 10
225.8598591491
 20
137.8987858664
 30
0.0
 11
225.4098591491
 21
134.8987858664
 31
0.0
 12
226.3098591491
 22
134.8987858664
 32
0.0
 13
226.3098591491
 23
134.8987858664
 33
0.0
  0
SOLID
  5
1E6
330
1E2
100
AcDbEntity
  8
VERMASSUNG
100
AcDbTrace
 10
225.8598591491
 20
87.8987858664
 30
0.0
 11
226.3098591491
 21
90.8987858664
 31
0.0
 12
225.4098591491
 22
90.8987858664
 32
0.0
 13
225.4098591491
 23
90.8987858664
 33
0.0
  0
LINE
  5
1E7
330
1E2
100
AcDbEntity
  8
VERMASSUNG
100
AcDbLine
 10
211.8151936926
 20
137.8987858664
 30
0.0
 11
226.8598591491
 21
137.8987858664
 31
0.0
  0
LINE
  5
1E8
330
1E2
100
AcDbEntity
  8
VERMASSUNG
100
AcDbLine
 10
211.8151936926
 20
87.8987858664
 30
0.0
 11
226.8598591491
 21
87.8987858664
 31
0.0
  0
LINE
  5
1E9
330
1E2
100
AcDbEntity
  8
VERMASSUNG
100
AcDbLine
 10
225.8598591491
 20
137.8987858664
 30
0.0
 11
225.8598591491
 21
87.8987858664
 31
0.0
  0
MTEXT
  5
1EA
330
1E2
100
AcDbEntity
  8
VERMASSUNG
100
AcDbMText
 10
223.0817238929
 20
107.7937858772
 30
0.0
 40
2.0
 41
0.0
 71
     1
 72
     1
  1
WH
  7
SLDTEXTSTYLE0
 11
-7.044195017643634E-15
 21
1.0
 31
0.0
 73
     1
 44
1.0
  0
MTEXT
  5
1EB
330
1E2
100
AcDbEntity
  8
VERMASSUNG
100
AcDbMText
 10
223.2817238442
 20
111.5937859412
 30
0.0
 40
2.0
 41
0.0
 71
     1
 72
     1
  1
%%c
  7
SLDTEXTSTYLE0
 11
-7.044195017643634E-15
 21
1.0
 31
0.0
 73
     1
 44
1.0
  0
MTEXT
  5
1EC
330
1E2
100
AcDbEntity
  8
VERMASSUNG
100
AcDbMText
 10
223.0817238929
 20
115.2037859555
 30
0.0
 40
2.0
 41
0.0
 71
     1
 72
     1
  1
50
  7
SLDTEXTSTYLE0
 11
-7.044195017643634E-15
 21
1.0
 31
0.0
 73
     1
 44
1.0
  0
ENDBLK
  5
1E4
330
1E2
100
AcDbEntity
  8
0
100
AcDbBlockEnd
  0
ENDSEC
  0
SECTION
  2
ENTITIES
  0
MTEXT
  5
78
330
1F
100
AcDbEntity
  8
KOPF_DÜNN
100
AcDbMText
 10
13.8892156294
 20
23.8442973028
 30
0.0
 40
3.0
 41
0.0
 71
     1
 72
     1
  1
A44.806.050.100
  7
SLDTEXTSTYLE0
 73
     1
 44
1.0
  0
MTEXT
  5
79
330
1F
100
AcDbEntity
  8
VERMASSUNG
100
AcDbMText
 10
13.9329988022
 20
28.8834360957
 30
0.0
 40
3.0
 41
0.0
 71
     1
 72
     1
  1
Aufnahme Master shank WH50
  7
SLDTEXTSTYLE0
 73
     1
 44
1.0
  0
MTEXT
  5
7A
330
1F
100
AcDbEntity
  8
VERMASSUNG
100
AcDbMText
 10
98.8601118557
 20
13.8365368761
 30
0.0
 40
2.0
 41
0.0
 71
     1
 72
     1
  1
Datum: 29.11.2011
  7
SLDTEXTSTYLE0
 73
     1
 44
1.0
  0
MTEXT
  5
7B
330
1F
100
AcDbEntity
  8
VERMASSUNG
100
AcDbMText
 10
13.933048693
 20
18.0482802738
 30
0.0
 40
2.0
 41
0.0
 71
     1
 72
     1
  1
DIN 69893
  7
SLDTEXTSTYLE0
 73
     1
 44
1.0
  0
MTEXT
  5
7C
330
1F
100
AcDbEntity
  8
VERMASSUNG
100
AcDbMText
 10
13.9808475933
 20
13.9090974274
 30
0.0
 40
2.0
 41
0.0
 71
     1
 72
     1
  1
Gewicht: 1625g
  7
SLDTEXTSTYLE0
 73
     1
 44
1.0
  0
LINE
  5
7D
330
1F
100
AcDbEntity
  8
0
  6
Continuous
 62
     7
370
    15
100
AcDbLine
 10
112.6151936926
 20
81.3987858664
 30
0.0
 11
117.2651936926
 21
81.3987858664
 31
0.0
  0
LINE
  5
7E
330
1F
100
AcDbEntity
  8
0
  6
Continuous
 62
     7
370
    15
100
AcDbLine
 10
117.2761419122
 20
144.3987858664
 30
0.0
 11
112.6151936926
 21
144.3987858664
 31
0.0
  0
ARC
  5
7F
330
1F
100
AcDbEntity
  8
0
  6
Continuous
 62
     7
370
    15
100
AcDbCircle
 10
112.6151936926
 20
81.6987858664
 30
0.0
 40
0.3000000000000114
100
AcDbArc
 50
180.0
 51
270.0
  0
ARC
  5
80
330
1F
100
AcDbEntity
  8
0
  6
Continuous
 62
     7
370
    15
100
AcDbCircle
 10
112.6151936926
 20
144.0987858664
 30
0.0
 40
0.3000000000000114
100
AcDbArc
 50
90.0
 51
180.0
  0
ARC
  5
81
330
1F
100
AcDbEntity
  8
0
  6
Continuous
 62
     7
370
    15
100
AcDbCircle
 10
141.2651936926
 20
84.8987858664
 30
0.0
 40
2.999999999999986
100
AcDbArc
 50
90.0
 51
147.7858795752
  0
ARC
  5
82
330
1F
100
AcDbEntity
  8
0
  6
Continuous
 62
     7
370
    15
100
AcDbCircle
 10
141.2651936926
 20
140.8987858664
 30
0.0
 40
3.000000000000028
100
AcDbArc
 50
212.129183246
 51
270.0
  0
LINE
  5
83
330
1F
100
AcDbEntity
  8
0
  6
Continuous
 62
     7
370
    15
100
AcDbLine
 10
211.8151936926
 20
87.8987858664
 30
0.0
 11
212.3151936926
 21
88.3987858664
 31
0.0
  0
LINE
  5
84
330
1F
100
AcDbEntity
  8
0
  6
Continuous
 62
     7
370
    15
100
AcDbLine
 10
212.3151936926
 20
137.3987858664
 30
0.0
 11
211.8151936926
 21
137.8987858664
 31
0.0
  0
LINE
  5
85
330
1F
100
AcDbEntity
  8
0
  6
Continuous
 62
     7
370
    15
100
AcDbLine
 10
190.7717752463
 20
137.8987858664
 30
0.0
 11
141.2651936926
 21
137.8987858664
 31
0.0
  0
LINE
  5
86
330
1F
100
AcDbEntity
  8
0
  6
Continuous
 62
     7
370
    15
100
AcDbLine
 10
211.8151936926
 20
137.8987858664
 30
0.0
 11
205.7334666001
 21
137.8987858664
 31
0.0
  0
LINE
  5
87
330
1F
100
AcDbEntity
  8
0
  6
Continuous
 62
     7
370
    15
100
AcDbLine
 10
141.2651936926
 20
87.8987858664
 30
0.0
 11
211.8151936926
 21
87.8987858664
 31
0.0
  0
ARC
  5
88
330
1F
100
AcDbEntity
  8
0
  6
Continuous
 62
     7
370
    15
100
AcDbCircle
 10
111.81518694
 20
88.328348252
 30
0.0
 40
0.6000067526677242
100
AcDbArc
 50
33.5571153394
 51
90.0
  0
ARC
  5
89
330
1F
100
AcDbEntity
  8
0
  6
Continuous
 62
     7
370
    15
100
AcDbCircle
 10
111.81518694
 20
137.4692234808
 30
0.0
 40
0.6000067526677321
100
AcDbArc
 50
270.0
 51
326.4428846606
  0
LINE
  5
8A
330
1F
100
AcDbEntity
  8
0
  6
Continuous
 62
     7
370
    15
100
AcDbLine
 10
99.0836848938
 20
136.5565158865
 30
0.0
 11
86.5151936926
 21
135.9268319586
 31
0.0
  0
LINE
  5
8B
330
1F
100
AcDbEntity
  8
0
  6
Continuous
 62
     7
370
    15
100
AcDbLine
 10
110.3151936926
 20
137.1192167282
 30
0.0
 11
107.4981920353
 21
136.9780843806
 31
0.0
  0
LINE
  5
8C
330
1F
100
AcDbEntity
  8
0
  6
Continuous
 62
     7
370
    15
100
AcDbLine
 10
107.4982481254
 20
88.8194845422
 30
0.0
 11
110.3151936926
 21
88.6783550047
 31
0.0
  0
LINE
  5
8D
330
1F
100
AcDbEntity
  8
0
  6
Continuous
 62
     7
370
    15
100
AcDbLine
 10
90.5151936926
 20
89.6703389727
 30
0.0
 11
99.0840874125
 21
89.2410356801
 31
0.0
  0
LINE
  5
8E
330
1F
100
AcDbEntity
  8
0
  6
Continuous
 62
     7
370
    15
100
AcDbLine
 10
110.3151936926
 20
88.6783550047
 30
0.0
 11
111.171906466
 21
88.9079105005
 31
0.0
  0
LINE
  5
8F
330
1F
100
AcDbEntity
  8
0
  6
Continuous
 62
     7
370
    15
100
AcDbLine
 10
111.171906466
 20
136.8896612324
 30
0.0
 11
110.3151936926
 21
137.1192167282
 31
0.0
  0
ARC
  5
90
330
1F
100
AcDbEntity
  8
0
  6
Continuous
 62
     7
370
    15
100
AcDbCircle
 10
111.3271978931
 20
88.3283550047
 30
0.0
 40
0.5999999999999971
100
AcDbArc
 50
90.0
 51
105.0
  0
ARC
  5
91
330
1F
100
AcDbEntity
  8
0
  6
Continuous
 62
     7
370
    15
100
AcDbCircle
 10
111.3271978931
 20
137.4692167282
 30
0.0
 40
0.5999999999999971
100
AcDbArc
 50
255.0
 51
270.0
  0
LINE
  5
92
330
1F
100
AcDbEntity
  8
0
  6
Continuous
 62
     7
370
    15
100
AcDbLine
 10
111.3271978931
 20
88.9283550047
 30
0.0
 11
111.81518694
 21
88.9283550047
 31
0.0
  0
LINE
  5
93
330
1F
100
AcDbEntity
  8
0
  6
Continuous
 62
     7
370
    15
100
AcDbLine
 10
111.81518694
 20
136.8692167282
 30
0.0
 11
111.3271978931
 21
136.8692167282
 31
0.0
  0
LINE
  5
94
330
1F
100
AcDbEntity
  8
0
  6
Continuous
 62
     7
370
    15
100
AcDbLine
 10
81.6985303326
 20
92.0287858664
 30
0.0
 11
89.1151936926
 21
92.0287858664
 31
0.0
  0
ARC
  5
95
330
1F
100
AcDbEntity
  8
0
  6
Continuous
 62
     7
370
    15
100
AcDbCircle
 10
89.1151936926
 20
90.6287858664
 30
0.0
 40
1.400000000000006
100
AcDbArc
 50
42.2465410162
 51
90.0
  0
LINE
  5
96
330
1F
100
AcDbEntity
  8
0
  6
Continuous
 62
     7
370
    15
100
AcDbLine
 10
80.4162261868
 20
93.1777533723
 30
0.0
 11
81.5563571508
 21
92.0376224083
 31
0.0
  0
LINE
  5
97
330
1F
100
AcDbEntity
  8
0
  6
Continuous
 62
     7
370
    15
100
AcDbLine
 10
81.5563571508
 20
133.7599493246
 30
0.0
 11
80.425094466
 21
132.6286866398
 31
0.0
  0
ARC
  5
98
330
1F
100
AcDbEntity
  8
0
  6
Continuous
 62
     7
370
    15
100
AcDbCircle
 10
85.1151936926
 20
135.1687858664
 30
0.0
 40
1.400000000000006
100
AcDbArc
 50
270.0
 51
301.7485287426
  0
LINE
  5
99
330
1F
100
AcDbEntity
  8
0
  6
Continuous
 62
     7
370
    15
100
AcDbLine
 10
85.1151936926
 20
133.7687858664
 30
0.0
 11
81.6894594265
 21
133.7687858664
 31
0.0
  0
LINE
  5
9A
330
1F
100
AcDbEntity
  8
0
  6
Continuous
 62
     7
370
    15
100
AcDbLine
 10
203.9389994599
 20
137.5249800992
 30
0.0
 11
203.5651936926
 21
137.8987858664
 31
0.0
  0
LINE
  5
9B
330
1F
100
AcDbEntity
  8
0
  6
Continuous
 62
     7
370
    15
100
AcDbLine
 10
192.9651936926
 20
137.8987858664
 30
0.0
 11
192.5922851108
 21
137.5258772846
 31
0.0
  0
LINE
  5
9C
330
1F
100
AcDbEntity
  8
0
  6
Continuous
 62
     7
370
    15
100
AcDbLine
 10
137.6651936926
 20
82.7118681702
 30
0.0
 11
133.7071265241
 21
82.7118681702
 31
0.0
  0
LINE
  5
9D
330
1F
100
AcDbEntity
  8
0
  6
Continuous
 62
     7
370
    15
100
AcDbLine
 10
133.7071265241
 20
82.7118681702
 30
0.0
 11
133.7071265241
 21
132.7487858664
 31
0.0
  0
LINE
  5
9E
330
1F
100
AcDbEntity
  8
0
  6
Continuous
 62
     7
370
    15
100
AcDbLine
 10
133.7071265241
 20
132.7487858664
 30
0.0
 11
137.6651936926
 21
132.7487858664
 31
0.0
  0
LINE
  5
9F
330
1F
100
AcDbEntity
  8
0
  6
Continuous
 62
     7
370
    15
100
AcDbLine
 10
138.2651936926
 20
83.3385084658
 30
0.0
 11
138.2651936926
 21
132.7487858664
 31
0.0
  0
SPLINE
  5
A0
330
1F
100
AcDbEntity
  8
0
  6
Continuous
 62
     7
370
    15
100
AcDbSpline
210
0.0
220
0.0
230
1.0
 70
     8
 71
     3
 72
    10
 73
     6
 74
     0
 42
0.000000001
 43
0.00000001
 40
0.0
 40
0.0
 40
0.0
 40
0.0
 40
0.5
 40
0.5
 40
1.0
 40
1.0
 40
1.0
 40
1.0
 10
138.2651936926451
 20
83.33850846584562
 30
0.0
 10
138.2651936926451
 20
83.17862119765196
 30
0.0
 10
138.2038840414092
 20
83.01749394213736
 30
0.0
 10
137.9847844038741
 20
82.78339494378254
 30
0.0
 10
137.8267361975606
 20
82.7118681701913
 30
0.0
 10
137.665193692645
 20
82.7118681701913
 30
0.0
  0
SPLINE
  5
A1
330
1F
100
AcDbEntity
  8
0
  6
Continuous
 62
     7
370
    15
100
AcDbSpline
210
0.0
220
0.0
230
1.0
 70
    24
 71
     3
 72
    12
 73
     8
 74
     0
 42
0.000000001
 43
0.00000001
 40
0.0
 40
0.0
 40
0.0
 40
0.0
 40
0.2500000000000033
 40
0.2500000000000033
 40
0.5000000000000067
 40
0.5000000000000067
 40
1.0
 40
1.0
 40
1.0
 40
1.0
 10
137.665193692645
 20
132.7487858664385
 30
0.0
 10
137.7554327603321
 20
132.7487858664385
 30
0.0
 10
137.8463308744386
 20
132.7487858664385
 30
0.0
 10
138.0009279109271
 20
132.7487858664385
 30
0.0
 10
138.0659063270352
 20
132.7487858664385
 30
0.0
 10
138.2177413549715
 20
132.7487858664385
 30
0.0
 10
138.2651936926451
 20
132.7487858664385
 30
0.0
 10
138.2651936926451
 20
132.7487858664385
 30
0.0
  0
LINE
  5
A2
330
1F
100
AcDbEntity
  8
0
  6
Continuous
 62
     7
370
    15
100
AcDbLine
 10
117.2651936926
 20
132.7487858664
 30
0.0
 11
126.9232608612
 21
132.7487858664
 31
0.0
  0
LINE
  5
A3
330
1F
100
AcDbEntity
  8
0
  6
Continuous
 62
     7
370
    15
100
AcDbLine
 10
126.9232608612
 20
82.7118681702
 30
0.0
 11
126.9232608612
 21
132.7487858664
 31
0.0
  0
LINE
  5
A4
330
1F
100
AcDbEntity
  8
0
  6
Continuous
 62
     7
370
    15
100
AcDbLine
 10
126.9232608612
 20
82.7118681702
 30
0.0
 11
125.2651936926
 21
82.7118681702
 31
0.0
  0
SPLINE
  5
A5
330
1F
100
AcDbEntity
  8
0
  6
Continuous
 62
     7
370
    15
100
AcDbSpline
210
0.0
220
0.0
230
1.0
 70
     8
 71
     3
 72
    28
 73
    24
 74
     0
 42
0.000000001
 43
0.00000001
 40
0.0
 40
0.0
 40
0.0
 40
0.0
 40
0.1249999999999999
 40
0.1249999999999999
 40
0.1874999999999998
 40
0.1874999999999998
 40
0.2499999999999997
 40
0.2499999999999997
 40
0.3749999999999993
 40
0.3749999999999993
 40
0.4374999999999993
 40
0.4374999999999993
 40
0.4999999999999992
 40
0.4999999999999992
 40
0.6249999999999992
 40
0.6249999999999992
 40
0.7499999999999992
 40
0.7499999999999992
 40
0.8124999999999993
 40
0.8124999999999993
 40
0.8749999999999996
 40
0.8749999999999996
 40
1.0
 40
1.0
 40
1.0
 40
1.0
 10
125.2651936926451
 20
82.7118681701913
 30
0.0
 10
124.7334859351521
 20
82.7118681701913
 30
0.0
 10
124.2112473698418
 20
82.69608345624107
 30
0.0
 10
123.4413768835668
 20
82.65108804216489
 30
0.0
 10
123.1870173113754
 20
82.63253304708914
 30
0.0
 10
122.6828957306769
 20
82.58868032464265
 30
0.0
 10
122.433172913249
 20
82.56333571769045
 30
0.0
 10
121.7075829618026
 20
82.47993363994034
 30
0.0
 10
121.2492227002211
 20
82.41406808078926
 30
0.0
 10
120.5987247568272
 20
82.30509774029748
 30
0.0
 10
120.3870427060347
 20
82.26685810453083
 30
0.0
 10
119.9829712168967
 20
82.18909936711147
 30
0.0
 10
119.7904647030758
 20
82.14959840493613
 30
0.0
 10
119.2406297320546
 20
82.03069066257011
 30
0.0
 10
118.9107009537458
 20
81.9508729811455
 30
0.0
 10
118.3262296851771
 20
81.79752981934945
 30
0.0
 10
118.0799525471636
 20
81.72619606608018
 30
0.0
 10
117.7801097544656
 20
81.63225255900556
 30
0.0
 10
117.6916528973934
 20
81.60305876564564
 30
0.0
 10
117.5382915440883
 20
81.54959219138223
 30
0.0
 10
117.473203329862
 20
81.52523285710706
 30
0.0
 10
117.3176093139212
 20
81.46164271166231
 30
0.0
 10
117.265193692645
 20
81.43153977657305
 30
0.0
 10
117.265193692645
 20
81.41466288357613
 30
0.0
  0
LINE
  5
A6
330
1F
100
AcDbEntity
  8
0
  6
Continuous
 62
     7
370
    15
100
AcDbLine
 10
117.2651936926
 20
81.4146628836
 30
0.0
 11
117.2651936926
 21
81.3987858664
 31
0.0
  0
SPLINE
  5
A7
330
1F
100
AcDbEntity
  8
0
  6
Continuous
 62
     7
370
    15
100
AcDbSpline
210
0.0
220
0.0
230
1.0
 70
     8
 71
     3
 72
    23
 73
    19
 74
     0
 42
0.000000001
 43
0.00000001
 40
0.0
 40
0.0
 40
0.0
 40
0.0
 40
0.0515223903769952
 40
0.1299944479049128
 40
0.2100163499924086
 40
0.2615387539386628
 40
0.3399482710921802
 40
0.4198138183542222
 40
0.4723904879135374
 40
0.5524042338614492
 40
0.6339251577575508
 40
0.6871961598180741
 40
0.7683390888946728
 40
0.7957758067530479
 40
0.8511694287578653
 40
0.9033124930461391
 40
0.9827510383347224
 40
1.0
 40
1.0
 40
1.0
 40
1.0
 10
125.2651936926451
 20
143.3659813396027
 30
0.0
 10
125.0485443115427
 20
143.3673575547801
 30
0.0
 10
124.501923386557
 20
143.3708298380123
 30
0.0
 10
123.6261873265952
 20
143.4051115572516
 30
0.0
 10
122.7742427735574
 20
143.464231889335
 30
0.0
 10
121.9542301613946
 20
143.5423024549429
 30
0.0
 10
121.1715494857545
 20
143.6358581075945
 30
0.0
 10
120.4420788713001
 20
143.743112718632
 30
0.0
 10
119.7644511053197
 20
143.8565628361833
 30
0.0
 10
119.1438905303804
 20
143.9726164095605
 30
0.0
 10
118.607401402982
 20
144.0838708305833
 30
0.0
 10
118.1477840312004
 20
144.1854508190827
 30
0.0
 10
117.8652117283931
 20
144.2514696839995
 30
0.0
 10
117.6340980714023
 20
144.3069756580436
 30
0.0
 10
117.4771888083196
 20
144.3454996341777
 30
0.0
 10
117.3313907142568
 20
144.3819520471906
 30
0.0
 10
117.2536673478242
 20
144.4017071672892
 30
0.0
 10
117.2727394642892
 20
144.3968730580836
 30
0.0
 10
117.2761419121973
 20
144.3960106574799
 30
0.0
  0
LINE
  5
A8
330
1F
100
AcDbEntity
  8
0
  6
Continuous
 62
     7
370
    15
100
AcDbLine
 10
126.9232608612
 20
143.3659813396
 30
0.0
 11
125.2651936926
 21
143.3659813396
 31
0.0
  0
LINE
  5
A9
330
1F
100
AcDbEntity
  8
0
  6
Continuous
 62
     7
370
    15
100
AcDbLine
 10
126.9232608612
 20
137.3574755288
 30
0.0
 11
126.9232608612
 21
143.3659813396
 31
0.0
  0
LINE
  5
AA
330
1F
100
AcDbEntity
  8
0
  6
Continuous
 62
     7
370
    15
100
AcDbLine
 10
124.5108140383
 20
137.3574755288
 30
0.0
 11
126.9232608612
 21
137.3574755288
 31
0.0
  0
SPLINE
  5
AB
330
1F
100
AcDbEntity
  8
0
  6
Continuous
 62
     7
370
    15
100
AcDbSpline
210
0.0
220
0.0
230
1.0
 70
     8
 71
     3
 72
    20
 73
    16
 74
     0
 42
0.000000001
 43
0.00000001
 40
0.0
 40
0.0
 40
0.0
 40
0.0
 40
0.2499999999999995
 40
0.2499999999999995
 40
0.3749999999999996
 40
0.3749999999999996
 40
0.4999999999999997
 40
0.4999999999999997
 40
0.6249999999999998
 40
0.6249999999999998
 40
0.7499999999999998
 40
0.7499999999999998
 40
0.8749999999999999
 40
0.8749999999999999
 40
1.0
 40
1.0
 40
1.0
 40
1.0
 10
117.265193692645
 20
132.7487858664385
 30
0.0
 10
117.5135674269331
 20
133.4026482947359
 30
0.0
 10
117.8331375192784
 20
134.006434076733
 30
0.0
 10
118.455443752483
 20
134.8332728129016
 30
0.0
 10
118.6868680129138
 20
135.0957014508545
 30
0.0
 10
119.2080823525635
 20
135.5923641049595
 30
0.0
 10
119.4947028351986
 20
135.822950983981
 30
0.0
 10
120.1141875765062
 20
136.2395052085637
 30
0.0
 10
120.4484879559932
 20
136.4270030105312
 30
0.0
 10
121.173748428618
 20
136.7583999881676
 30
0.0
 10
121.5556634860084
 20
136.8979039756629
 30
0.0
 10
122.3504516621801
 20
137.1233574831338
 30
0.0
 10
122.7646098563865
 20
137.2099835946775
 30
0.0
 10
123.6301561969679
 20
137.3279643835316
 30
0.0
 10
124.0680438119797
 20
137.3574755288059
 30
0.0
 10
124.5108140383343
 20
137.3574755288059
 30
0.0
  0
SPLINE
  5
AC
330
1F
100
AcDbEntity
  8
0
  6
Continuous
 62
     7
370
    15
100
AcDbSpline
210
0.0
220
0.0
230
1.0
 70
     8
 71
     3
 72
     8
 73
     4
 74
     0
 42
0.000000001
 43
0.00000001
 40
0.0
 40
0.0
 40
0.0
 40
0.0
 40
1.0
 40
1.0
 40
1.0
 40
1.0
 10
133.7071265241341
 20
82.7118681701913
 30
0.0
 10
133.2116468634684
 20
83.60739425812466
 30
0.0
 10
132.7175328154262
 20
84.5036786731769
 30
0.0
 10
132.225193692645
 20
85.4009487073836
 30
0.0
  0
LINE
  5
AD
330
1F
100
AcDbEntity
  8
0
  6
Continuous
 62
     7
370
    15
100
AcDbLine
 10
132.2251936926
 20
85.4009487074
 30
0.0
 11
132.2251936926
 21
132.7487858664
 31
0.0
  0
SPLINE
  5
AE
330
1F
100
AcDbEntity
  8
0
  6
Continuous
 62
     7
370
    15
100
AcDbSpline
210
0.0
220
0.0
230
1.0
 70
    24
 71
     3
 72
     8
 73
     4
 74
     0
 42
0.000000001
 43
0.00000001
 40
0.0
 40
0.0
 40
0.0
 40
0.0
 40
1.0
 40
1.0
 40
1.0
 40
1.0
 10
132.225193692645
 20
132.7487858664385
 30
0.0
 10
132.7051456870099
 20
132.7487858664385
 30
0.0
 10
133.2004464159836
 20
132.7487858664385
 30
0.0
 10
133.7071265241341
 20
132.7487858664385
 30
0.0
  0
LINE
  5
AF
330
1F
100
AcDbEntity
  8
0
  6
Continuous
 62
     7
370
    15
100
AcDbLine
 10
128.4051936926
 20
85.4009487074
 30
0.0
 11
128.4051936926
 21
132.7487858664
 31
0.0
  0
SPLINE
  5
B0
330
1F
100
AcDbEntity
  8
0
  6
Continuous
 62
     7
370
    15
100
AcDbSpline
210
0.0
220
0.0
230
1.0
 70
     8
 71
     3
 72
     8
 73
     4
 74
     0
 42
0.000000001
 43
0.00000001
 40
0.0
 40
0.0
 40
0.0
 40
0.0
 40
1.0
 40
1.0
 40
1.0
 40
1.0
 10
128.405193692645
 20
85.4009487073836
 30
0.0
 10
127.9128545698639
 20
84.5036786731769
 30
0.0
 10
127.4187405218217
 20
83.60739425812466
 30
0.0
 10
126.923260861156
 20
82.7118681701913
 30
0.0
  0
SPLINE
  5
B1
330
1F
100
AcDbEntity
  8
0
  6
Continuous
 62
     7
370
    15
100
AcDbSpline
210
0.0
220
0.0
230
1.0
 70
    24
 71
     3
 72
     8
 73
     4
 74
     0
 42
0.000000001
 43
0.00000001
 40
0.0
 40
0.0
 40
0.0
 40
0.0
 40
1.0
 40
1.0
 40
1.0
 40
1.0
 10
126.923260861156
 20
132.7487858664385
 30
0.0
 10
127.4299409693065
 20
132.7487858664385
 30
0.0
 10
127.9252416982801
 20
132.7487858664385
 30
0.0
 10
128.405193692645
 20
132.7487858664385
 30
0.0
  0
LINE
  5
B2
330
1F
100
AcDbEntity
  8
0
  6
Continuous
 62
     7
370
    15
100
AcDbLine
 10
112.3151936926
 20
81.6987858664
 30
0.0
 11
112.3151936926
 21
144.0987858661
 31
0.0
  0
SPLINE
  5
B3
330
1F
100
AcDbEntity
  8
0
  6
Continuous
 62
     7
370
    15
100
AcDbSpline
210
0.0
220
0.0
230
1.0
 70
    24
 71
     3
 72
    14
 73
    10
 74
     0
 42
0.000000001
 43
0.00000001
 40
0.0
 40
0.0
 40
0.0
 40
0.0
 40
0.4999999999999982
 40
0.4999999999999982
 40
0.7499999999999973
 40
0.7499999999999973
 40
0.8749999999999987
 40
0.8749999999999987
 40
1.0
 40
1.0
 40
1.0
 40
1.0
 10
132.1275188903128
 20
86.49878586643847
 30
0.0
 10
132.080308731083
 20
86.49878586643845
 30
0.0
 10
132.0170742575393
 20
86.49878586643847
 30
0.0
 10
131.8732623268114
 20
86.49878586643845
 30
0.0
 10
131.817937252335
 20
86.49878586643845
 30
0.0
 10
131.7060260790999
 20
86.49878586643847
 30
0.0
 10
131.6632389926589
 20
86.49878586643847
 30
0.0
 10
131.5588736596253
 20
86.49878586643845
 30
0.0
 10
131.4946498653236
 20
86.49878586643847
 30
0.0
 10
131.4251936927005
 20
86.49878586643847
 30
0.0
  0
SPLINE
  5
B4
330
1F
100
AcDbEntity
  8
0
  6
Continuous
 62
     7
370
    15
100
AcDbSpline
210
0.0
220
0.0
230
1.0
 70
    24
 71
     3
 72
    12
 73
     8
 74
     0
 42
0.000000001
 43
0.00000001
 40
0.0
 40
0.0
 40
0.0
 40
0.0
 40
0.4999999999999983
 40
0.4999999999999983
 40
0.7499999999999991
 40
0.7499999999999991
 40
1.0
 40
1.0
 40
1.0
 40
1.0
 10
131.8308961609543
 20
139.2987858664385
 30
0.0
 10
131.7874579731513
 20
139.2987858664385
 30
0.0
 10
131.7382637248533
 20
139.2987858664385
 30
0.0
 10
131.6415449674723
 20
139.2987858664385
 30
0.0
 10
131.6053574859706
 20
139.2987858664385
 30
0.0
 10
131.5224796274459
 20
139.2987858664385
 30
0.0
 10
131.4745261801392
 20
139.2987858664385
 30
0.0
 10
131.4251936926451
 20
139.2987858664385
 30
0.0
  0
SPLINE
  5
B5
330
1F
100
AcDbEntity
  8
0
  6
Continuous
 62
     7
370
    15
100
AcDbSpline
210
0.0
220
0.0
230
1.0
 70
     8
 71
     3
 72
    10
 73
     6
 74
     0
 42
0.000000001
 43
0.00000001
 40
0.0
 40
0.0
 40
0.0
 40
0.0
 40
0.5
 40
0.5
 40
1.0
 40
1.0
 40
1.0
 40
1.0
 10
132.225193692645
 20
140.0184397174743
 30
0.0
 10
132.225193692645
 20
139.8746696596564
 30
0.0
 10
132.1891446339262
 20
139.7322502971615
 30
0.0
 10
132.0536357731526
 20
139.4823560038045
 30
0.0
 10
131.9537597800568
 20
139.3743256675564
 30
0.0
 10
131.8308961609551
 20
139.2987858664391
 30
0.0
  0
SPLINE
  5
B6
330
1F
100
AcDbEntity
  8
0
  6
Continuous
 62
     7
370
    15
100
AcDbSpline
210
0.0
220
0.0
230
1.0
 70
     8
 71
     3
 72
     9
 73
     5
 74
     0
 42
0.000000001
 43
0.00000001
 40
0.0
 40
0.0
 40
0.0
 40
0.0
 40
0.5
 40
1.0
 40
1.0
 40
1.0
 40
1.0
 10
132.1990460694849
 20
132.7487858664385
 30
0.0
 10
132.2077846393672
 20
132.7959286667738
 30
0.0
 10
132.2208039257036
 20
132.8907247484443
 30
0.0
 10
132.225193692645
 20
132.9865090200047
 30
0.0
 10
132.225193692645
 20
133.0346524978998
 30
0.0
  0
SPLINE
  5
B7
330
1F
100
AcDbEntity
  8
0
  6
Continuous
 62
     7
370
    15
100
AcDbSpline
210
0.0
220
0.0
230
1.0
 70
     8
 71
     3
 72
    10
 73
     6
 74
     0
 42
0.000000001
 43
0.00000001
 40
0.0
 40
0.0
 40
0.0
 40
0.0
 40
0.5
 40
0.5
 40
1.0
 40
1.0
 40
1.0
 40
1.0
 10
128.799491224336
 20
139.2987858664385
 30
0.0
 10
128.6779509606675
 20
139.3735120336502
 30
0.0
 10
128.5766166003185
 20
139.482457049567
 30
0.0
 10
128.4409776574301
 20
139.7328875303286
 30
0.0
 10
128.405193692645
 20
139.8753068924275
 30
0.0
 10
128.405193692645
 20
140.0184397174743
 30
0.0
  0
SPLINE
  5
B8
330
1F
100
AcDbEntity
  8
0
  6
Continuous
 62
     7
370
    15
100
AcDbSpline
210
0.0
220
0.0
230
1.0
 70
    24
 71
     3
 72
    12
 73
     8
 74
     0
 42
0.000000001
 43
0.00000001
 40
0.0
 40
0.0
 40
0.0
 40
0.0
 40
0.2500000000000021
 40
0.2500000000000021
 40
0.5000000000000041
 40
0.5000000000000041
 40
1.0
 40
1.0
 40
1.0
 40
1.0
 10
129.2051936926451
 20
139.2987858664385
 30
0.0
 10
129.1553170103276
 20
139.2987858664385
 30
0.0
 10
129.107313816924
 20
139.2987858664385
 30
0.0
 10
129.024265714212
 20
139.2987858664385
 30
0.0
 10
128.9881361347442
 20
139.2987858664385
 30
0.0
 10
128.8922241038
 20
139.2987858664385
 30
0.0
 10
128.8424654358312
 20
139.2987858664385
 30
0.0
 10
128.799491224336
 20
139.2987858664385
 30
0.0
  0
SPLINE
  5
B9
330
1F
100
AcDbEntity
  8
0
  6
Continuous
 62
     7
370
    15
100
AcDbSpline
210
0.0
220
0.0
230
1.0
 70
    24
 71
     3
 72
    14
 73
    10
 74
     0
 42
0.000000001
 43
0.00000001
 40
0.0
 40
0.0
 40
0.0
 40
0.0
 40
0.1249999999999983
 40
0.1249999999999983
 40
0.2499999999999967
 40
0.2499999999999967
 40
0.4999999999999968
 40
0.4999999999999968
 40
1.0
 40
1.0
 40
1.0
 40
1.0
 10
129.205193692645
 20
86.49878586643847
 30
0.0
 10
129.1367558447586
 20
86.49878586643847
 30
0.0
 10
129.0712058059935
 20
86.49878586643847
 30
0.0
 10
128.9667791665856
 20
86.49878586643845
 30
0.0
 10
128.9242345568242
 20
86.49878586643847
 30
0.0
 10
128.8116250962839
 20
86.49878586643847
 30
0.0
 10
128.7560860492644
 20
86.49878586643847
 30
0.0
 10
128.6134743538006
 20
86.49878586643845
 30
0.0
 10
128.5500689988049
 20
86.49878586643847
 30
0.0
 10
128.5028684949773
 20
86.49878586643847
 30
0.0
  0
SPLINE
  5
BA
330
1F
100
AcDbEntity
  8
0
  6
Continuous
 62
     7
370
    15
100
AcDbSpline
210
0.0
220
0.0
230
1.0
 70
     8
 71
     3
 72
    10
 73
     6
 74
     0
 42
0.000000001
 43
0.00000001
 40
0.0
 40
0.0
 40
0.0
 40
0.0
 40
0.5
 40
0.5
 40
1.0
 40
1.0
 40
1.0
 40
1.0
 10
128.405193692645
 20
133.0346524978998
 30
0.0
 10
128.405193692645
 20
132.9868809899066
 30
0.0
 10
128.4073549362422
 20
132.9391712678449
 30
0.0
 10
128.4160263101024
 20
132.8438761502966
 30
0.0
 10
128.4225554930583
 20
132.7961835863299
 30
0.0
 10
128.4313413158052
 20
132.7487858664385
 30
0.0
  0
SPLINE
  5
BB
330
1F
100
AcDbEntity
  8
0
  6
Continuous
 62
     7
370
    15
100
AcDbSpline
210
0.0
220
0.0
230
1.0
 70
    24
 71
     3
 72
    10
 73
     6
 74
     0
 42
0.000000001
 43
0.00000001
 40
0.0
 40
0.0
 40
0.0
 40
0.0
 40
0.3744571994411033
 40
0.7489227192406382
 40
1.0
 40
1.0
 40
1.0
 40
1.0
 10
138.2939662356547
 20
139.2987858664385
 30
0.0
 10
138.3539039917009
 20
139.2987858664385
 30
0.0
 10
138.4737808355974
 20
139.2987858664385
 30
0.0
 10
138.6992452513683
 20
139.2987858664385
 30
0.0
 10
138.7113163240792
 20
139.2987858664385
 30
0.0
 10
138.7161613516448
 20
139.2987858664385
 30
0.0
  0
SPLINE
  5
BC
330
1F
100
AcDbEntity
  8
0
  6
Continuous
 62
     7
370
    15
100
AcDbSpline
210
0.0
220
0.0
230
1.0
 70
    24
 71
     3
 72
    10
 73
     6
 74
     0
 42
0.000000001
 43
0.00000001
 40
0.0
 40
0.0
 40
0.0
 40
0.0
 40
0.3343220724745767
 40
0.6701182487677486
 40
1.0
 40
1.0
 40
1.0
 40
1.0
 10
138.7272420745396
 20
86.49878586643847
 30
0.0
 10
138.7059145116443
 20
86.49878586643845
 30
0.0
 10
138.6631653476656
 20
86.49878586643847
 30
0.0
 10
138.3840644000414
 20
86.49878586643847
 30
0.0
 10
138.3058837195366
 20
86.49878586643847
 30
0.0
 10
138.2671406897154
 20
86.49878586643845
 30
0.0
  0
LINE
  5
BD
330
1F
100
AcDbEntity
  8
0
  6
Continuous
 62
     7
370
    15
100
AcDbLine
 10
131.4251936926
 20
139.2987858664
 30
0.0
 11
129.2051936926
 21
139.2987858664
 31
0.0
  0
LINE
  5
BE
330
1F
100
AcDbEntity
  8
0
  6
Continuous
 62
     7
370
    15
100
AcDbLine
 10
131.4251936926
 20
86.4987858664
 30
0.0
 11
129.2051936926
 21
86.4987858664
 31
0.0
  0
LINE
  5
BF
330
1F
100
AcDbEntity
  8
0
  6
Continuous
 62
     7
370
    15
100
AcDbLine
 10
212.3151936926
 20
112.8987858664
 30
0.0
 11
212.3151936926
 21
88.3987858664
 31
0.0
  0
LINE
  5
C0
330
1F
100
AcDbEntity
  8
0
  6
Continuous
 62
     7
370
    15
100
AcDbLine
 10
212.3151936926
 20
137.3987858664
 30
0.0
 11
212.3151936926
 21
112.8987858664
 31
0.0
  0
LINE
  5
C1
330
1F
100
AcDbEntity
  8
0
  6
Continuous
 62
     7
370
    15
100
AcDbLine
 10
211.8151936926
 20
112.8987858664
 30
0.0
 11
211.8151936926
 21
87.8987858664
 31
0.0
  0
LINE
  5
C2
330
1F
100
AcDbEntity
  8
0
  6
Continuous
 62
     7
370
    15
100
AcDbLine
 10
211.8151936926
 20
137.8987858664
 30
0.0
 11
211.8151936926
 21
112.8987858664
 31
0.0
  0
SPLINE
  5
C3
330
1F
100
AcDbEntity
  8
0
  6
Continuous
 62
     7
370
    15
100
AcDbSpline
210
0.0
220
0.0
230
1.0
 70
     8
 71
     3
 72
    36
 73
    32
 74
     0
 42
0.000000001
 43
0.00000001
 40
0.0
 40
0.0
 40
0.0
 40
0.0
 40
0.0363399339369349
 40
0.0537507997534827
 40
0.0713455487564036
 40
0.1140405941670879
 40
0.1393051128356857
 40
0.1580086693530744
 40
0.203341679173209
 40
0.2301209988050721
 40
0.2512193924245605
 40
0.3109163569503668
 40
0.3325517974020012
 40
0.3537909585934756
 40
0.4254022105319306
 40
0.4472890896246088
 40
0.4697778435515211
 40
0.5226179162614026
 40
0.5689862575331465
 40
0.5916640381295568
 40
0.614430789403689
 40
0.6452125748643232
 40
0.6921330369011043
 40
0.7145024886424709
 40
0.7671127670000553
 40
0.813502547991909
 40
0.8340718740581844
 40
0.903782655629728
 40
0.9253147583367789
 40
0.9429603617134024
 40
1.0
 40
1.0
 40
1.0
 40
1.0
 10
205.7334666000611
 20
137.8914828932956
 30
0.0
 10
205.7372740923024
 20
137.8923442003528
 30
0.0
 10
205.7429057963496
 20
137.8936181691838
 30
0.0
 10
205.6445694978546
 20
137.8711166556446
 30
0.0
 10
205.509827330869
 20
137.8406185778093
 30
0.0
 10
205.2893487101215
 20
137.7916201255132
 30
0.0
 10
204.9968505378929
 20
137.7293978182331
 30
0.0
 10
204.6519002827586
 20
137.6584325038835
 30
0.0
 10
204.240114673158
 20
137.5780417537683
 30
0.0
 10
203.7593434471701
 20
137.4919819244765
 30
0.0
 10
203.1644895797004
 20
137.392359676042
 30
0.0
 10
202.5376133993532
 20
137.299852970517
 30
0.0
 10
201.8675189069718
 20
137.2178737794339
 30
0.0
 10
201.0968403601778
 20
137.133817288942
 30
0.0
 10
200.2782269631257
 20
137.0686848344271
 30
0.0
 10
199.4312863225952
 20
137.0298756286795
 30
0.0
 10
198.714910307379
 20
137.008341803956
 30
0.0
 10
197.8093892685377
 20
137.00578057876
 30
0.0
 10
196.9104883967875
 20
137.0357029981847
 30
0.0
 10
196.2459741438738
 20
137.0739765627748
 30
0.0
 10
195.7029967957571
 20
137.1137970877559
 30
0.0
 10
195.0044026402182
 20
137.1777180213869
 30
0.0
 10
194.3391128052135
 20
137.2555587505023
 30
0.0
 10
193.575136630952
 20
137.3603781067642
 30
0.0
 10
192.8681557848498
 20
137.4728083421398
 30
0.0
 10
192.2631590476786
 20
137.5835204209861
 30
0.0
 10
191.6580370805172
 20
137.7020354484988
 30
0.0
 10
191.2619016983797
 20
137.7869980840149
 30
0.0
 10
191.0057992967201
 20
137.8439843851708
 30
0.0
 10
190.823249493965
 20
137.8852695442648
 30
0.0
 10
190.794064676104
 20
137.8920787040752
 30
0.0
 10
190.7717752462624
 20
137.897279089104
 30
0.0
  0
SPLINE
  5
C4
330
1F
100
AcDbEntity
  8
0
  6
Continuous
 62
     7
370
    15
100
AcDbSpline
210
0.0
220
0.0
230
1.0
 70
    11
 71
     3
 72
    96
 73
    92
 74
     0
 42
0.000000001
 43
0.00000001
 40
0.0
 40
0.0
 40
0.0
 40
0.0
 40
0.0312499999999995
 40
0.0312499999999995
 40
0.0468749999999996
 40
0.0468749999999996
 40
0.0624999999999998
 40
0.0624999999999998
 40
0.0937500000000001
 40
0.0937500000000001
 40
0.1093750000000002
 40
0.1093750000000002
 40
0.1250000000000004
 40
0.1250000000000004
 40
0.1562499999999998
 40
0.1562499999999998
 40
0.1718749999999995
 40
0.1718749999999995
 40
0.1874999999999992
 40
0.1874999999999992
 40
0.2187499999999986
 40
0.2187499999999986
 40
0.2343749999999987
 40
0.2343749999999987
 40
0.2499999999999988
 40
0.2499999999999988
 40
0.281249999999999
 40
0.281249999999999
 40
0.2968749999999994
 40
0.2968749999999994
 40
0.3124999999999998
 40
0.3124999999999998
 40
0.3437500000000007
 40
0.3437500000000007
 40
0.3593750000000011
 40
0.3593750000000011
 40
0.3750000000000014
 40
0.3750000000000014
 40
0.3906250000000018
 40
0.3906250000000018
 40
0.4062500000000023
 40
0.4062500000000023
 40
0.4375000000000031
 40
0.4375000000000031
 40
0.4531250000000034
 40
0.4531250000000034
 40
0.4687500000000036
 40
0.4687500000000036
 40
0.5000000000000033
 40
0.5000000000000033
 40
0.5312500000000031
 40
0.5312500000000031
 40
0.5468750000000034
 40
0.5468750000000034
 40
0.5625000000000037
 40
0.5625000000000037
 40
0.5937500000000034
 40
0.5937500000000034
 40
0.6250000000000031
 40
0.6250000000000031
 40
0.6562500000000029
 40
0.6562500000000029
 40
0.6875000000000026
 40
0.6875000000000026
 40
0.7187500000000022
 40
0.7187500000000022
 40
0.7500000000000019
 40
0.7500000000000019
 40
0.7656250000000018
 40
0.7656250000000018
 40
0.7812500000000016
 40
0.7812500000000016
 40
0.8125000000000008
 40
0.8125000000000008
 40
0.8281250000000007
 40
0.8281250000000007
 40
0.8437500000000004
 40
0.8437500000000004
 40
0.8750000000000003
 40
0.8750000000000003
 40
0.8906250000000003
 40
0.8906250000000003
 40
0.9062500000000003
 40
0.9062500000000003
 40
0.9218750000000002
 40
0.9218750000000002
 40
0.9375000000000002
 40
0.9375000000000002
 40
0.9687500000000001
 40
0.9687500000000001
 40
1.0
 40
1.0
 40
1.0
 40
1.0
 10
193.2639323907255
 20
117.8137564121209
 30
0.0
 10
193.6277553810284
 20
118.1016189897064
 30
0.0
 10
194.0129498374792
 20
118.3508843726815
 30
0.0
 10
194.62014776938
 20
118.6726435553956
 30
0.0
 10
194.8274906874423
 20
118.7711275034949
 30
0.0
 10
195.2520717190323
 20
118.9506859572098
 30
0.0
 10
195.4703060912691
 20
119.032066234661
 30
0.0
 10
196.1325722868786
 20
119.247146404911
 30
0.0
 10
196.5814384339562
 20
119.351617816121
 30
0.0
 10
197.2653700461027
 20
119.4526368671416
 30
0.0
 10
197.4951305188717
 20
119.4769651508722
 30
0.0
 10
197.9582805587537
 20
119.5066502360234
 30
0.0
 10
198.1925992589438
 20
119.5119293512318
 30
0.0
 10
198.8889426821449
 20
119.4987380160524
 30
0.0
 10
199.3473253855179
 20
119.4519686844619
 30
0.0
 10
200.0262940882072
 20
119.3256577556783
 30
0.0
 10
200.2511745714894
 20
119.2741371849339
 30
0.0
 10
200.6979740894415
 20
119.1516658748588
 30
0.0
 10
200.9205502280519
 20
119.0803837398759
 30
0.0
 10
201.5710514404537
 20
118.8408213327893
 30
0.0
 10
201.9858026441286
 20
118.6462587246705
 30
0.0
 10
202.5793593062612
 20
118.3009102775994
 30
0.0
 10
202.7724189320558
 20
118.17681724153
 30
0.0
 10
203.1484928771821
 20
117.9096422459223
 30
0.0
 10
203.3318264379085
 20
117.7661138270876
 30
0.0
 10
203.8538971015391
 20
117.3155124148015
 30
0.0
 10
204.1692382748253
 20
116.9859395564396
 30
0.0
 10
204.5905758882702
 20
116.4446979836207
 30
0.0
 10
204.7223458208067
 20
116.2564134050428
 30
0.0
 10
204.9671441823868
 20
115.8627153744239
 30
0.0
 10
205.0793545962788
 20
115.6582406153686
 30
0.0
 10
205.3774245696791
 20
115.035286133633
 30
0.0
 10
205.5283922434775
 20
114.6024085430308
 30
0.0
 10
205.67809054202
 20
113.9246068409637
 30
0.0
 10
205.7151857880789
 20
113.6920304188936
 30
0.0
 10
205.7604522520685
 20
113.2285846517367
 30
0.0
 10
205.7689685591475
 20
112.9973390971398
 30
0.0
 10
205.7583880540572
 20
112.5357820887534
 30
0.0
 10
205.7392903903585
 20
112.3054706634456
 30
0.0
 10
205.6732028260967
 20
111.8457903864181
 30
0.0
 10
205.6257380420753
 20
111.6151329802855
 30
0.0
 10
205.4450793688106
 20
110.9417658669525
 30
0.0
 10
205.2740542811629
 20
110.5130712229228
 30
0.0
 10
204.9461331496773
 20
109.898290917407
 30
0.0
 10
204.8249985870562
 20
109.6987812271148
 30
0.0
 10
204.5649057542662
 20
109.3174681362955
 30
0.0
 10
204.4253651305501
 20
109.1345278102718
 30
0.0
 10
203.9795272955396
 20
108.6076538490465
 30
0.0
 10
203.6427342539627
 20
108.2832004843256
 30
0.0
 10
202.9220740987423
 20
107.7097405154895
 30
0.0
 10
202.5372459655966
 20
107.4584328897197
 30
0.0
 10
201.9244894339829
 20
107.1318910125938
 30
0.0
 10
201.7137521489041
 20
107.0313920674645
 30
0.0
 10
201.2878924012836
 20
106.8505955807324
 30
0.0
 10
201.0719173502945
 20
106.7697891167582
 30
0.0
 10
200.415093214609
 20
106.5551971111435
 30
0.0
 10
199.9654170735065
 20
106.449001816757
 30
0.0
 10
199.041903398972
 20
106.3113787207632
 30
0.0
 10
198.5785527114158
 20
106.2817249011693
 30
0.0
 10
197.6559879886164
 20
106.2979306933588
 30
0.0
 10
197.195493177889
 20
106.343619982149
 30
0.0
 10
196.2766271986985
 20
106.5139047677787
 30
0.0
 10
195.8315384433799
 20
106.6360184410765
 30
0.0
 10
194.9691422547591
 20
106.9526698743776
 30
0.0
 10
194.5510301677002
 20
107.1476105493335
 30
0.0
 10
193.7479113717315
 20
107.6147930281834
 30
0.0
 10
193.3740367516948
 20
107.88038452726
 30
0.0
 10
192.8549312055837
 20
108.3278587459973
 30
0.0
 10
192.6888969198617
 20
108.4852565187158
 30
0.0
 10
192.371536883585
 20
108.8175189421771
 30
0.0
 10
192.2194798517125
 20
108.9933334582729
 30
0.0
 10
191.7924413793996
 20
109.5427600293957
 30
0.0
 10
191.550326800424
 20
109.9320762545773
 30
0.0
 10
191.2533543465343
 20
110.5523390825498
 30
0.0
 10
191.1654804437488
 20
110.7651858247735
 30
0.0
 10
191.0135472734593
 20
111.2039943000196
 30
0.0
 10
190.9495287887349
 20
111.4308032059568
 30
0.0
 10
190.8006318014419
 20
112.110861555593
 30
0.0
 10
190.7557845426715
 20
112.5701372930781
 30
0.0
 10
190.7723279376915
 20
113.2681652921732
 30
0.0
 10
190.7922645369075
 20
113.5035205394868
 30
0.0
 10
190.8594679895275
 20
113.9641904170035
 30
0.0
 10
190.9066321229799
 20
114.1909710494327
 30
0.0
 10
191.0271080767581
 20
114.6376972854413
 30
0.0
 10
191.1004223452929
 20
114.8576422168306
 30
0.0
 10
191.2731056778091
 20
115.2907483214954
 30
0.0
 10
191.3721871833401
 20
115.5027587649647
 30
0.0
 10
191.7002130133046
 20
116.1144650240081
 30
0.0
 10
191.9614220880453
 20
116.4948404402408
 30
0.0
 10
192.564401974573
 20
117.2043766337158
 30
0.0
 10
192.9001094004226
 20
117.5258938345354
 30
0.0
 10
193.2639323907255
 20
117.8137564121209
 30
0.0
  0
LINE
  5
C5
330
1F
100
AcDbEntity
  8
0
  6
Continuous
 62
     7
370
    15
100
AcDbLine
 10
90.5151936926
 20
89.6703389727
 30
0.0
 11
90.5151936926
 21
90.9350483352
 31
0.0
  0
SPLINE
  5
C6
330
1F
100
AcDbEntity
  8
0
  6
Continuous
 62
     7
370
    15
100
AcDbSpline
210
0.0
220
0.0
230
1.0
 70
     8
 71
     3
 72
    14
 73
    10
 74
     0
 42
0.000000001
 43
0.00000001
 40
0.0
 40
0.0
 40
0.0
 40
0.0
 40
0.25
 40
0.25
 40
0.5
 40
0.5
 40
0.75
 40
0.75
 40
1.0
 40
1.0
 40
1.0
 40
1.0
 10
89.73690657472932
 20
92.06563454287851
 30
0.0
 10
89.7935332499314
 20
91.95793708904165
 30
0.0
 10
89.88805591022114
 20
91.85514750732233
 30
0.0
 10
90.07110088578338
 20
91.65679019510219
 30
0.0
 10
90.16272746273809
 20
91.56073068642394
 30
0.0
 10
90.32158078043129
 20
91.3732016437147
 30
0.0
 10
90.38947138805298
 20
91.28179267093114
 30
0.0
 10
90.48638841376057
 20
91.10341645002099
 30
0.0
 10
90.51519369264562
 20
91.01619454377482
 30
0.0
 10
90.51519369264561
 20
90.93504833524057
 30
0.0
  0
SPLINE
  5
C7
330
1F
100
AcDbEntity
  8
0
  6
Continuous
 62
     7
370
    15
100
AcDbSpline
210
0.0
220
0.0
230
1.0
 70
     8
 71
     3
 72
    14
 73
    10
 74
     0
 42
0.000000001
 43
0.00000001
 40
0.0
 40
0.0
 40
0.0
 40
0.0
 40
0.1249999999999979
 40
0.1249999999999979
 40
0.2499999999999958
 40
0.2499999999999958
 40
0.4999999999999948
 40
0.4999999999999948
 40
1.0
 40
1.0
 40
1.0
 40
1.0
 10
89.11519369264505
 20
92.51231640515783
 30
0.0
 10
89.16373810130222
 20
92.51806471843813
 30
0.0
 10
89.2166534560871
 20
92.51496382978188
 30
0.0
 10
89.31194880107016
 20
92.49276898561955
 30
0.0
 10
89.35219979835513
 20
92.47553675852369
 30
0.0
 10
89.45646981186809
 20
92.41920884207164
 30
0.0
 10
89.50679178702141
 20
92.37502249612584
 30
0.0
 10
89.63447473454677
 20
92.24401459727521
 30
0.0
 10
89.69056018160904
 20
92.15378007704491
 30
0.0
 10
89.73690657473078
 20
92.06563454287905
 30
0.0
  0
SPLINE
  5
C8
330
1F
100
AcDbEntity
  8
0
  6
Continuous
 62
     7
370
    15
100
AcDbSpline
210
0.0
220
0.0
230
1.0
 70
     8
 71
     3
 72
     8
 73
     4
 74
     0
 42
0.000000001
 43
0.00000001
 40
0.0
 40
0.0
 40
0.0
 40
0.0
 40
1.0
 40
1.0
 40
1.0
 40
1.0
 10
86.84666859969887
 20
92.20247111857505
 30
0.0
 10
87.58124562618181
 20
92.32109612964399
 30
0.0
 10
88.34472069557745
 20
92.42108200178029
 30
0.0
 10
89.11519369264505
 20
92.51231640515783
 30
0.0
  0
SPLINE
  5
C9
330
1F
100
AcDbEntity
  8
0
  6
Continuous
 62
     7
370
    15
100
AcDbSpline
210
0.0
220
0.0
230
1.0
 70
     8
 71
     3
 72
    14
 73
    10
 74
     0
 42
0.000000001
 43
0.00000001
 40
0.0
 40
0.0
 40
0.0
 40
0.0
 40
0.5000000000000019
 40
0.5000000000000019
 40
0.7500000000000018
 40
0.7500000000000018
 40
0.875000000000001
 40
0.875000000000001
 40
1.0
 40
1.0
 40
1.0
 40
1.0
 10
81.56519369264505
 20
92.0288481010434
 30
0.0
 10
82.45733982319862
 20
92.02812587484274
 30
0.0
 10
83.34731625899222
 20
92.0327120813002
 30
0.0
 10
84.67391142606786
 20
92.06043708569176
 30
0.0
 10
85.11475835456662
 20
92.07304362331593
 30
0.0
 10
85.77119859198903
 20
92.10405977132335
 30
0.0
 10
85.98921224858091
 20
92.11640294395013
 30
0.0
 10
86.42192110226368
 20
92.14942699911342
 30
0.0
 10
86.63719756742849
 20
92.16864416425186
 30
0.0
 10
86.84666859969889
 20
92.20247111857503
 30
0.0
  0
SPLINE
  5
CA
330
1F
100
AcDbEntity
  8
0
  6
Continuous
 62
     7
370
    15
100
AcDbSpline
210
0.0
220
0.0
230
1.0
 70
     8
 71
     3
 72
     8
 73
     4
 74
     0
 42
0.000000001
 43
0.00000001
 40
0.0000005163856998
 40
0.0000005163856998
 40
0.0000005163856998
 40
0.0000005163856998
 40
0.000026289209185
 40
0.000026289209185
 40
0.000026289209185
 40
0.000026289209185
 10
81.55514876223744
 20
92.03883197414017
 30
0.0
 10
81.55847650044527
 20
92.03549772727106
 30
0.0
 10
81.56182495342088
 20
92.03216976999575
 30
0.0
 10
81.56519369264504
 20
92.02884810104338
 30
0.0
  0
SPLINE
  5
CB
330
1F
100
AcDbEntity
  8
0
  6
Continuous
 62
     7
370
    15
100
AcDbSpline
210
0.0
220
0.0
230
1.0
 70
     8
 71
     3
 72
     8
 73
     4
 74
     0
 42
0.000000001
 43
0.00000001
 40
0.0000005099763573
 40
0.0000005099763573
 40
0.0000005099763573
 40
0.0000005099763573
 40
0.0000262827998699
 40
0.0000262827998699
 40
0.0000262827998699
 40
0.0000262827998699
 10
81.56519369264504
 20
133.7687236318335
 30
0.0
 10
81.56182495341729
 20
133.7654019628776
 30
0.0
 10
81.55847650043813
 20
133.7620740055988
 30
0.0
 10
81.5551487622268
 20
133.7587397587261
 30
0.0
  0
SPLINE
  5
CC
330
1F
100
AcDbEntity
  8
0
  6
Continuous
 62
     7
370
    15
100
AcDbSpline
210
0.0
220
0.0
230
1.0
 70
     8
 71
     3
 72
    10
 73
     6
 74
     0
 42
0.000000001
 43
0.00000001
 40
0.0
 40
0.0
 40
0.0
 40
0.0
 40
0.5
 40
0.5
 40
1.0
 40
1.0
 40
1.0
 40
1.0
 10
85.11519369264505
 20
133.7218732582662
 30
0.0
 10
84.52760814555447
 20
133.7429387785026
 30
0.0
 10
83.93686175209407
 20
133.7536972643748
 30
0.0
 10
82.75284258679521
 20
133.7670620449105
 30
0.0
 10
82.15942859858976
 20
133.7692046875751
 30
0.0
 10
81.56519369264505
 20
133.7687236318335
 30
0.0
  0
SPLINE
  5
CD
330
1F
100
AcDbEntity
  8
0
  6
Continuous
 62
     7
370
    15
100
AcDbSpline
210
0.0
220
0.0
230
1.0
 70
     8
 71
     3
 72
    18
 73
    14
 74
     0
 42
0.000000001
 43
0.00000001
 40
0.0
 40
0.0
 40
0.0
 40
0.0
 40
0.2499999999999996
 40
0.2499999999999996
 40
0.5
 40
0.5
 40
0.7500000000000003
 40
0.7500000000000003
 40
0.8750000000000002
 40
0.8750000000000002
 40
0.9375000000000001
 40
0.9375000000000001
 40
1.0
 40
1.0
 40
1.0
 40
1.0
 10
86.51519369264506
 20
134.7428935388014
 30
0.0
 10
86.51519369264506
 20
134.6596866299443
 30
0.0
 10
86.47934459270678
 20
134.5709499746307
 30
0.0
 10
86.35447285667288
 20
134.3888247840705
 30
0.0
 10
86.264072439025
 20
134.2936947354438
 30
0.0
 10
86.04182978428283
 20
134.1045132263195
 30
0.0
 10
85.91206499783706
 20
134.0095680582248
 30
0.0
 10
85.67142754052554
 20
133.8712893506448
 30
0.0
 10
85.58366024238809
 20
133.8255789173425
 30
0.0
 10
85.42913615518127
 20
133.767755612121
 30
0.0
 10
85.37252526912653
 20
133.7500408480832
 30
0.0
 10
85.24848123821994
 20
133.7255015448502
 30
0.0
 10
85.18076656320164
 20
133.719522406312
 30
0.0
 10
85.11519369264505
 20
133.7218732582662
 30
0.0
  0
LINE
  5
CE
330
1F
100
AcDbEntity
  8
0
  6
Continuous
 62
     7
370
    15
100
AcDbLine
 10
86.5151936926
 20
134.7428935388
 30
0.0
 11
86.5151936926
 21
135.9268319586
 31
0.0
  0
LINE
  5
CF
330
1F
100
AcDbEntity
  8
0
  6
Continuous
 62
     7
370
    15
100
AcDbLine
 10
110.3151936926
 20
88.6783550047
 30
0.0
 11
110.3151936926
 21
137.1192167282
 31
0.0
  0
SPLINE
  5
D0
330
1F
100
AcDbEntity
  8
0
  6
Continuous
 62
     7
370
    15
100
AcDbSpline
210
0.0
220
0.0
230
1.0
 70
     8
 71
     3
 72
    24
 73
    20
 74
     0
 42
0.000000001
 43
0.00000001
 40
0.0
 40
0.0
 40
0.0
 40
0.0
 40
0.0010489762969683
 40
0.0637843125635315
 40
0.1272220590447826
 40
0.1903788924482514
 40
0.2526748653693586
 40
0.3146354154423437
 40
0.3770891997149696
 40
0.4393540298504715
 40
0.5008133242537849
 40
0.5621845104596535
 40
0.6248438451115941
 40
0.6874304766625864
 40
0.7496743174679406
 40
0.8119848426972686
 40
0.8750960525413011
 40
0.9384412526960678
 40
0.9999999999999999
 40
0.9999999999999999
 40
0.9999999999999999
 40
0.9999999999999999
 10
99.08409952462074
 20
89.24127743785832
 30
0.0
 10
99.08365306451653
 20
89.24121915203942
 30
0.0
 10
99.05650550082287
 20
89.23767501009708
 30
0.0
 10
99.15211727843683
 20
89.25050875477949
 30
0.0
 10
99.38567753632921
 20
89.27975543997967
 30
0.0
 10
99.78123184364657
 20
89.32636976304258
 30
0.0
 10
100.3082721474838
 20
89.37655290470181
 30
0.0
 10
100.9518025594742
 20
89.42092936715179
 30
0.0
 10
101.6904764147142
 20
89.44787414808978
 30
0.0
 10
102.4879909201481
 20
89.45134599879665
 30
0.0
 10
103.3145698025949
 20
89.42371875476604
 30
0.0
 10
104.1400928202064
 20
89.36523986579337
 30
0.0
 10
104.9322193682102
 20
89.27979483643202
 30
0.0
 10
105.6647916422092
 20
89.17806059659571
 30
0.0
 10
106.3004318789384
 20
89.07021747462358
 30
0.0
 10
106.8223429859432
 20
88.9685873178848
 30
0.0
 10
107.20397176306
 20
88.88610216120671
 30
0.0
 10
107.4547862332965
 20
88.82995295485676
 30
0.0
 10
107.4839077892799
 20
88.82310349624304
 30
0.0
 10
107.4982603100957
 20
88.81972774951484
 30
0.0
  0
SPLINE
  5
D1
330
1F
100
AcDbEntity
  8
0
  6
Continuous
 62
     7
370
    15
100
AcDbSpline
210
0.0
220
0.0
230
1.0
 70
     8
 71
     3
 72
    24
 73
    20
 74
     0
 42
0.000000001
 43
0.00000001
 40
0.0
 40
0.0
 40
0.0
 40
0.0
 40
0.0614384276249444
 40
0.1250736755369608
 40
0.1884253490728071
 40
0.2508623904037412
 40
0.3129665632509547
 40
0.3753451453465095
 40
0.4377328972323699
 40
0.4990927322917189
 40
0.5605807588447941
 40
0.6229469893028794
 40
0.6854686282026514
 40
0.7475477813740068
 40
0.809822506080335
 40
0.8730684085990212
 40
0.9364041844534696
 40
0.9991757196257863
 40
0.9999999999999999
 40
0.9999999999999999
 40
0.9999999999999999
 40
0.9999999999999999
 10
107.4982055392928
 20
136.9778148408959
 30
0.0
 10
107.4836048149893
 20
136.9744467840432
 30
0.0
 10
107.4538812962612
 20
136.9675902405695
 30
0.0
 10
107.2011434806131
 20
136.9112516200436
 30
0.0
 10
106.8181475641635
 20
136.8283945379136
 30
0.0
 10
106.2957919797269
 20
136.7264875079624
 30
0.0
 10
105.6610075017265
 20
136.6186483689185
 30
0.0
 10
104.9307838975546
 20
136.5171814169435
 30
0.0
 10
104.14031531232
 20
136.4321217032526
 30
0.0
 10
103.3158317974916
 20
136.3739174093663
 30
0.0
 10
102.4887953386075
 20
136.3463339705395
 30
0.0
 10
101.6904710709557
 20
136.3498269480324
 30
0.0
 10
100.9506471066668
 20
136.3767828678856
 30
0.0
 10
100.306392873692
 20
136.4211368098847
 30
0.0
 10
99.77898561847672
 20
136.4713422596427
 30
0.0
 10
99.38432101632611
 20
136.517952114841
 30
0.0
 10
99.1517917371367
 20
136.5471477073883
 30
0.0
 10
99.05641170458856
 20
136.5599257763298
 30
0.0
 10
99.08334534148963
 20
136.5563715178219
 30
0.0
 10
99.08369443471396
 20
136.5563254502385
 30
0.0
  0
SPLINE
  5
D2
330
1F
100
AcDbEntity
  8
0
  6
Continuous
 62
     7
370
    15
100
AcDbSpline
210
0.0
220
0.0
230
1.0
 70
     8
 71
     3
 72
     9
 73
     5
 74
     0
 42
0.000000001
 43
0.00000001
 40
0.0
 40
0.0
 40
0.0
 40
0.0
 40
0.7009329310330055
 40
1.0
 40
1.0
 40
1.0
 40
1.0
 10
80.43597837688048
 20
93.19750556233583
 30
0.0
 10
80.4451176535558
 20
93.17967627679431
 30
0.0
 10
80.45815638560941
 20
93.15423976960204
 30
0.0
 10
80.4733216393747
 20
93.20811962979381
 30
0.0
 10
80.47785706736843
 20
93.22423332165774
 30
0.0
  0
LINE
  5
D3
330
1F
100
AcDbEntity
  8
0
  6
Continuous
 62
     7
370
    15
100
AcDbLine
 10
80.4151936926
 20
93.20810812
 30
0.0
 11
80.4151936926
 21
132.5894636129
 31
0.0
  0
SPLINE
  5
D4
330
1F
100
AcDbEntity
  8
0
  6
Continuous
 62
     7
370
    15
100
AcDbSpline
210
0.0
220
0.0
230
1.0
 70
     8
 71
     3
 72
    10
 73
     6
 74
     0
 42
0.000000001
 43
0.00000001
 40
0.0
 40
0.0
 40
0.0
 40
0.0
 40
0.5
 40
0.5
 40
1.0
 40
1.0
 40
1.0
 40
1.0
 10
80.47785706736846
 20
132.5733384112192
 30
0.0
 10
80.4689527782597
 20
132.6190799304324
 30
0.0
 10
80.45243739806672
 20
132.6362707699014
 30
0.0
 10
80.42532945200512
 20
132.6359474929656
 30
0.0
 10
80.41519369264505
 20
132.6180699506692
 30
0.0
 10
80.41519369264505
 20
132.5894636129166
 30
0.0
  0
SPLINE
  5
D5
330
1F
100
AcDbEntity
  8
0
  6
Continuous
 62
     7
370
    15
100
AcDbSpline
210
0.0
220
0.0
230
1.0
 70
     8
 71
     3
 72
    26
 73
    22
 74
     0
 42
0.000000001
 43
0.00000001
 40
0.0
 40
0.0
 40
0.0
 40
0.0
 40
0.249999999999996
 40
0.249999999999996
 40
0.3749999999999944
 40
0.3749999999999944
 40
0.4374999999999944
 40
0.4374999999999944
 40
0.4687499999999969
 40
0.4687499999999969
 40
0.4999999999999993
 40
0.4999999999999993
 40
0.5312500000000017
 40
0.5312500000000017
 40
0.5625000000000041
 40
0.5625000000000041
 40
0.625000000000004
 40
0.625000000000004
 40
0.7500000000000023
 40
0.7500000000000023
 40
1.0
 40
1.0
 40
1.0
 40
1.0
 10
81.23934733874954
 20
133.2889052000363
 30
0.0
 10
81.2007468158811
 20
133.1711305036808
 30
0.0
 10
81.1544498133268
 20
133.046740817519
 30
0.0
 10
81.0605104648929
 20
132.8415214851655
 30
0.0
 10
81.02519899797946
 20
132.769948618719
 30
0.0
 10
80.95901902223379
 20
132.6539953861186
 30
0.0
 10
80.93448065556558
 20
132.6134108513083
 30
0.0
 10
80.89110791001175
 20
132.5492691694366
 30
0.0
 10
80.87559950858657
 20
132.5274027441515
 30
0.0
 10
80.84055686399952
 20
132.4818084758084
 30
0.0
 10
80.82100657327977
 20
132.4581381848409
 30
0.0
 10
80.77907929290919
 20
132.413521625501
 30
0.0
 10
80.75642718267754
 20
132.3926416129831
 30
0.0
 10
80.71545346859092
 20
132.3617681992323
 30
0.0
 10
80.6978541686955
 20
132.3519293293998
 30
0.0
 10
80.65322718283932
 20
132.3329397137037
 30
0.0
 10
80.63266796018601
 20
132.3326153890502
 30
0.0
 10
80.58154252068933
 20
132.3418388299264
 30
0.0
 10
80.56063110770079
 20
132.3630857261434
 30
0.0
 10
80.50918120013984
 20
132.4370546049742
 30
0.0
 10
80.49151590083528
 20
132.5031726982889
 30
0.0
 10
80.47785706736846
 20
132.5733384112192
 30
0.0
  0
SPLINE
  5
D6
330
1F
100
AcDbEntity
  8
0
  6
Continuous
 62
     7
370
    15
100
AcDbSpline
210
0.0
220
0.0
230
1.0
 70
     8
 71
     3
 72
    10
 73
     6
 74
     0
 42
0.000000001
 43
0.00000001
 40
0.0
 40
0.0
 40
0.0
 40
0.0
 40
0.5
 40
0.5
 40
1.0
 40
1.0
 40
1.0
 40
1.0
 10
81.55514876222684
 20
133.7587397587261
 30
0.0
 10
81.48758950730858
 20
133.6910483659163
 30
0.0
 10
81.4239528519721
 20
133.6163412011627
 30
0.0
 10
81.31373209740023
 20
133.4573750687361
 30
0.0
 10
81.26691580417763
 20
133.3730198027281
 30
0.0
 10
81.23934733874954
 20
133.2889052000363
 30
0.0
  0
SPLINE
  5
D7
330
1F
100
AcDbEntity
  8
0
  6
Continuous
 62
     7
370
    15
100
AcDbSpline
210
0.0
220
0.0
230
1.0
 70
     8
 71
     3
 72
    10
 73
     6
 74
     0
 42
0.000000001
 43
0.00000001
 40
0.0
 40
0.0
 40
0.0
 40
0.0
 40
0.5
 40
0.5
 40
1.0
 40
1.0
 40
1.0
 40
1.0
 10
81.23934733874958
 20
92.50866653284051
 30
0.0
 10
81.26682475350356
 20
92.42482973637262
 30
0.0
 10
81.31353338379297
 20
92.34051924878348
 30
0.0
 10
81.42381184653895
 20
92.18139801829675
 30
0.0
 10
81.48769938515285
 20
92.10641327420713
 30
0.0
 10
81.55514876223745
 20
92.03883197414017
 30
0.0
  0
SPLINE
  5
D8
330
1F
100
AcDbEntity
  8
0
  6
Continuous
 62
     7
370
    15
100
AcDbSpline
210
0.0
220
0.0
230
1.0
 70
     8
 71
     3
 72
    24
 73
    20
 74
     0
 42
0.000000001
 43
0.00000001
 40
0.0
 40
0.0
 40
0.0
 40
0.0
 40
0.2500000000000114
 40
0.2500000000000114
 40
0.3750000000000163
 40
0.3750000000000163
 40
0.4375000000000177
 40
0.4375000000000177
 40
0.4687500000000166
 40
0.4687500000000166
 40
0.5000000000000155
 40
0.5000000000000155
 40
0.5625000000000157
 40
0.5625000000000157
 40
0.6250000000000157
 40
0.6250000000000157
 40
0.7500000000000099
 40
0.7500000000000099
 40
1.0
 40
1.0
 40
1.0
 40
1.0
 10
80.47785706736846
 20
93.22423332165774
 30
0.0
 10
80.49161018603866
 20
93.294883379648
 30
0.0
 10
80.50938275344454
 20
93.36148149241293
 30
0.0
 10
80.56163384499992
 20
93.43557951264614
 30
0.0
 10
80.58266892058147
 20
93.45683731980769
 30
0.0
 10
80.63556932820993
 20
93.46498324595393
 30
0.0
 10
80.65667500108783
 20
93.46404344255815
 30
0.0
 10
80.70272716976578
 20
93.4430274509808
 30
0.0
 10
80.72109764174917
 20
93.43211864487319
 30
0.0
 10
80.76264927681488
 20
93.39948373392582
 30
0.0
 10
80.7852159495718
 20
93.37799175355447
 30
0.0
 10
80.84799696603184
 20
93.30952580996812
 30
0.0
 10
80.88112672699971
 20
93.26345135176304
 30
0.0
 10
80.93804441348473
 20
93.17844346342838
 30
0.0
 10
80.96223043898848
 20
93.138163162247
 30
0.0
 10
81.02743838936824
 20
93.02322693578105
 30
0.0
 10
81.0621544495595
 20
92.95264395063404
 30
0.0
 10
81.15536971989036
 20
92.74843819155544
 30
0.0
 10
81.20104225525104
 20
92.62553980922809
 30
0.0
 10
81.23934733874958
 20
92.50866653284051
 30
0.0
  0
SPLINE
  5
D9
330
1F
100
AcDbEntity
  8
0
  6
Continuous
 62
     7
370
    15
100
AcDbSpline
210
0.0
220
0.0
230
1.0
 70
     8
 71
     3
 72
     8
 73
     4
 74
     0
 42
0.000000001
 43
0.00000001
 40
0.0
 40
0.0
 40
0.0
 40
0.0
 40
1.0
 40
1.0
 40
1.0
 40
1.0
 10
126.923260861156
 20
137.3574755288059
 30
0.0
 10
127.4303477029153
 20
136.2263251746422
 30
0.0
 10
127.9259155420552
 20
135.0899407638744
 30
0.0
 10
128.405193692645
 20
133.9489295340218
 30
0.0
  0
LINE
  5
DA
330
1F
100
AcDbEntity
  8
0
  6
Continuous
 62
     7
370
    15
100
AcDbLine
 10
128.4051936926
 20
133.948929534
 30
0.0
 11
128.4051936926
 21
133.0346524979
 31
0.0
  0
SPLINE
  5
DB
330
1F
100
AcDbEntity
  8
0
  6
Continuous
 62
     7
370
    15
100
AcDbSpline
210
0.0
220
0.0
230
1.0
 70
     8
 71
     3
 72
     8
 73
     4
 74
     0
 42
0.000000001
 43
0.00000001
 40
0.0
 40
0.0
 40
0.0
 40
0.0
 40
1.0
 40
1.0
 40
1.0
 40
1.0
 10
128.405193692645
 20
140.7040200576101
 30
0.0
 10
127.9124835957993
 20
141.5920390557365
 30
0.0
 10
127.4184008905203
 20
142.4793016914224
 30
0.0
 10
126.923260861156
 20
143.3659813396027
 30
0.0
  0
LINE
  5
DC
330
1F
100
AcDbEntity
  8
0
  6
Continuous
 62
     7
370
    15
100
AcDbLine
 10
128.4051936926
 20
133.948929534
 30
0.0
 11
128.4051936926
 21
140.7040200576
 31
0.0
  0
SPLINE
  5
DD
330
1F
100
AcDbEntity
  8
0
  6
Continuous
 62
     7
370
    15
100
AcDbSpline
210
0.0
220
0.0
230
1.0
 70
     8
 71
     3
 72
    10
 73
     6
 74
     0
 42
0.000000001
 43
0.00000001
 40
0.0
 40
0.0
 40
0.0
 40
0.0
 40
0.5
 40
0.5
 40
1.0
 40
1.0
 40
1.0
 40
1.0
 10
138.2651936926451
 20
142.7452261902023
 30
0.0
 10
138.265193692645
 20
142.9056314565532
 30
0.0
 10
138.2029558615382
 20
143.0646932695418
 30
0.0
 10
137.9838209377956
 20
143.2956057351721
 30
0.0
 10
137.8262322428038
 20
143.3659813396027
 30
0.0
 10
137.665193692645
 20
143.3659813396027
 30
0.0
  0
SPLINE
  5
DE
330
1F
100
AcDbEntity
  8
0
  6
Continuous
 62
     7
370
    15
100
AcDbSpline
210
0.0
220
0.0
230
1.0
 70
     8
 71
     3
 72
    12
 73
     8
 74
     0
 42
0.000000001
 43
0.00000001
 40
0.0
 40
0.0
 40
0.0
 40
0.0
 40
0.249999999999998
 40
0.249999999999998
 40
0.499999999999996
 40
0.499999999999996
 40
1.0
 40
1.0
 40
1.0
 40
1.0
 10
137.665193692645
 20
137.3574755288059
 30
0.0
 10
137.7563934144707
 20
137.3574755288059
 30
0.0
 10
137.8469884236067
 20
137.329255830218
 30
0.0
 10
138.0004011500534
 20
137.2348128229699
 30
0.0
 10
138.0656100173771
 20
137.1685258462646
 30
0.0
 10
138.218394546717
 20
136.9429010229763
 30
0.0
 10
138.2651936926451
 20
136.7604747599437
 30
0.0
 10
138.2651936926451
 20
136.5797381276969
 30
0.0
  0
LINE
  5
DF
330
1F
100
AcDbEntity
  8
0
  6
Continuous
 62
     7
370
    15
100
AcDbLine
 10
138.2651936926
 20
136.5797381277
 30
0.0
 11
138.2651936926
 21
142.7452261902
 31
0.0
  0
LINE
  5
E0
330
1F
100
AcDbEntity
  8
0
  6
Continuous
 62
     7
370
    15
100
AcDbLine
 10
137.6651936926
 20
143.3659813396
 30
0.0
 11
133.7071265241
 21
143.3659813396
 31
0.0
  0
LINE
  5
E1
330
1F
100
AcDbEntity
  8
0
  6
Continuous
 62
     7
370
    15
100
AcDbLine
 10
133.7071265241
 20
137.3574755288
 30
0.0
 11
137.6651936926
 21
137.3574755288
 31
0.0
  0
LINE
  5
E2
330
1F
100
AcDbEntity
  8
0
  6
Continuous
 62
     7
370
    15
100
AcDbLine
 10
133.7071265241
 20
137.3574755288
 30
0.0
 11
133.7071265241
 21
143.3659813396
 31
0.0
  0
SPLINE
  5
E3
330
1F
100
AcDbEntity
  8
0
  6
Continuous
 62
     7
370
    15
100
AcDbSpline
210
0.0
220
0.0
230
1.0
 70
     8
 71
     3
 72
     8
 73
     4
 74
     0
 42
0.000000001
 43
0.00000001
 40
0.0
 40
0.0
 40
0.0
 40
0.0
 40
1.0
 40
1.0
 40
1.0
 40
1.0
 10
132.225193692645
 20
133.9489295340218
 30
0.0
 10
132.7044718432349
 20
135.0899407638744
 30
0.0
 10
133.2000396823748
 20
136.2263251746422
 30
0.0
 10
133.7071265241341
 20
137.3574755288059
 30
0.0
  0
LINE
  5
E4
330
1F
100
AcDbEntity
  8
0
  6
Continuous
 62
     7
370
    15
100
AcDbLine
 10
132.2251936926
 20
133.0346524979
 30
0.0
 11
132.2251936926
 21
133.948929534
 31
0.0
  0
LINE
  5
E5
330
1F
100
AcDbEntity
  8
0
  6
Continuous
 62
     7
370
    15
100
AcDbLine
 10
138.2651936926
 20
136.5797381277
 30
0.0
 11
138.2651936926
 21
132.7487858664
 31
0.0
  0
SPLINE
  5
E6
330
1F
100
AcDbEntity
  8
0
  6
Continuous
 62
     7
370
    15
100
AcDbSpline
210
0.0
220
0.0
230
1.0
 70
     8
 71
     3
 72
     8
 73
     4
 74
     0
 42
0.000000001
 43
0.00000001
 40
0.0
 40
0.0
 40
0.0
 40
0.0
 40
1.0
 40
1.0
 40
1.0
 40
1.0
 10
133.7071265241341
 20
143.3659813396027
 30
0.0
 10
133.2119864947698
 20
142.4793016914224
 30
0.0
 10
132.7179037894908
 20
141.5920390557365
 30
0.0
 10
132.225193692645
 20
140.7040200576101
 30
0.0
  0
LINE
  5
E7
330
1F
100
AcDbEntity
  8
0
  6
Continuous
 62
     7
370
    15
100
AcDbLine
 10
132.2251936926
 20
133.948929534
 30
0.0
 11
132.2251936926
 21
140.7040200576
 31
0.0
  0
LINE
  5
E8
330
1F
100
AcDbEntity
  8
0
  6
Continuous
 62
     7
370
    15
100
AcDbLine
 10
199.2330398457
 20
137.1987858664
 30
0.0
 11
201.7289353876
 21
137.1987858664
 31
0.0
  0
LINE
  5
E9
330
1F
100
AcDbEntity
  8
0
  6
Continuous
 62
     7
370
    15
100
AcDbLine
 10
194.8474679739
 20
137.1987858664
 30
0.0
 11
199.2330398457
 21
137.1987858664
 31
0.0
  0
LINE
  5
EA
330
1F
100
AcDbEntity
  8
0
  6
Continuous
 62
     7
370
    15
100
AcDbLine
 10
199.1201244612
 20
137.8987858664
 30
0.0
 11
203.5651936926
 21
137.8987858664
 31
0.0
  0
LINE
  5
EB
330
1F
100
AcDbEntity
  8
0
  6
Continuous
 62
     7
370
    15
100
AcDbLine
 10
192.9651936926
 20
137.8987858664
 30
0.0
 11
199.1201244612
 21
137.8987858664
 31
0.0
  0
SPLINE
  5
EC
330
1F
100
AcDbEntity
  8
0
  6
Continuous
 62
     7
370
    15
100
AcDbSpline
210
0.0
220
0.0
230
1.0
 70
    24
 71
     3
 72
    11
 73
     7
 74
     0
 42
0.000000001
 43
0.00000001
 40
0.0
 40
0.0
 40
0.0
 40
0.0
 40
0.2164553779443426
 40
0.4403112895790631
 40
0.7519005688038894
 40
1.0
 40
1.0
 40
1.0
 40
1.0
 10
201.6839300003115
 20
113.4575721034227
 30
0.0
 10
201.5336874259307
 20
113.6412450784162
 30
0.0
 10
201.2280655360816
 20
114.0148707431988
 30
0.0
 10
200.6609129350644
 20
114.708220187811
 30
0.0
 10
200.0525400352088
 20
115.4519618394856
 30
0.0
 10
199.6632179118378
 20
115.9279118351844
 30
0.0
 10
199.4906387699648
 20
116.1388914762099
 30
0.0
  0
SPLINE
  5
ED
330
1F
100
AcDbEntity
  8
0
  6
Continuous
 62
     7
370
    15
100
AcDbSpline
210
0.0
220
0.0
230
1.0
 70
    24
 71
     3
 72
    11
 73
     7
 74
     0
 42
0.000000001
 43
0.00000001
 40
0.0
 40
0.0
 40
0.0
 40
0.0
 40
0.1849308168246296
 40
0.5198464202157614
 40
0.8714438233692644
 40
0.9999999999999999
 40
0.9999999999999999
 40
0.9999999999999999
 40
0.9999999999999999
 10
199.4906387699648
 20
116.1388914762099
 30
0.0
 10
199.2916516124896
 20
116.1063673869186
 30
0.0
 10
198.7322923707009
 20
116.014941135312
 30
0.0
 10
197.6881415274358
 20
115.8442765774039
 30
0.0
 10
196.7238255023128
 20
115.6866608754459
 30
0.0
 10
196.2095850484545
 20
115.6026092077369
 30
0.0
 10
196.0719024622983
 20
115.5801052392255
 30
0.0
  0
SPLINE
  5
EE
330
1F
100
AcDbEntity
  8
0
  6
Continuous
 62
     7
370
    15
100
AcDbSpline
210
0.0
220
0.0
230
1.0
 70
    24
 71
     3
 72
    11
 73
     7
 74
     0
 42
0.000000001
 43
0.00000001
 40
0.0
 40
0.0
 40
0.0
 40
0.0
 40
0.2164553779443353
 40
0.4403112895790575
 40
0.7519005688038753
 40
0.9999999999999999
 40
0.9999999999999999
 40
0.9999999999999999
 40
0.9999999999999999
 10
196.0719024622983
 20
115.5801052392255
 30
0.0
 10
195.9879582871557
 20
115.3581548655849
 30
0.0
 10
195.8171999148728
 20
114.9066657126317
 30
0.0
 10
195.5003179826472
 20
114.0688224300224
 30
0.0
 10
195.1604052683722
 20
113.1700852179361
 30
0.0
 10
194.9428815428516
 20
112.594947370992
 30
0.0
 10
194.8464573849786
 20
112.3399996294539
 30
0.0
  0
SPLINE
  5
EF
330
1F
100
AcDbEntity
  8
0
  6
Continuous
 62
     7
370
    15
100
AcDbSpline
210
0.0
220
0.0
230
1.0
 70
    24
 71
     3
 72
    11
 73
     7
 74
     0
 42
0.000000001
 43
0.00000001
 40
0.0
 40
0.0
 40
0.0
 40
0.0
 40
0.2164553779443467
 40
0.4403112895790575
 40
0.7519005688038737
 40
1.0
 40
1.0
 40
1.0
 40
1.0
 10
194.8464573849786
 20
112.3399996294539
 30
0.0
 10
194.9966999593596
 20
112.1563266544604
 30
0.0
 10
195.3023218492086
 20
111.7827009896779
 30
0.0
 10
195.8694744502257
 20
111.0893515450657
 30
0.0
 10
196.4778473500813
 20
110.3456098933911
 30
0.0
 10
196.8671694734525
 20
109.8696598976923
 30
0.0
 10
197.0397486153255
 20
109.6586802566668
 30
0.0
  0
SPLINE
  5
F0
330
1F
100
AcDbEntity
  8
0
  6
Continuous
 62
     7
370
    15
100
AcDbSpline
210
0.0
220
0.0
230
1.0
 70
    24
 71
     3
 72
    11
 73
     7
 74
     0
 42
0.000000001
 43
0.00000001
 40
0.0
 40
0.0
 40
0.0
 40
0.0
 40
0.1285561766307347
 40
0.4801535797842222
 40
0.8150691831753873
 40
0.9999999999999999
 40
0.9999999999999999
 40
0.9999999999999999
 40
0.9999999999999999
 10
197.0397486153255
 20
109.6586802566668
 30
0.0
 10
197.1774312014817
 20
109.6811842251782
 30
0.0
 10
197.69167165534
 20
109.7652358928872
 30
0.0
 10
198.6559876804629
 20
109.9228515948452
 30
0.0
 10
199.700138523728
 20
110.0935161527532
 30
0.0
 10
200.2594977655168
 20
110.1849424043599
 30
0.0
 10
200.4584849229919
 20
110.2174664936512
 30
0.0
  0
CIRCLE
  5
F1
330
1F
100
AcDbEntity
  8
0
  6
Continuous
 62
     7
370
    15
100
AcDbCircle
 10
198.2651936926
 20
112.8987858664
 30
0.0
 40
3.60000000000002
  0
SPLINE
  5
F2
330
1F
100
AcDbEntity
  8
0
  6
Continuous
 62
     7
370
    15
100
AcDbSpline
210
0.0
220
0.0
230
1.0
 70
    24
 71
     3
 72
    11
 73
     7
 74
     0
 42
0.000000001
 43
0.00000001
 40
0.0
 40
0.0
 40
0.0
 40
0.0
 40
0.2164553779443456
 40
0.4403112895790582
 40
0.751900568803889
 40
1.0
 40
1.0
 40
1.0
 40
1.0
 10
200.4584849229919
 20
110.2174664936512
 30
0.0
 10
200.5424290981345
 20
110.4394168672918
 30
0.0
 10
200.7131874704175
 20
110.8909060202449
 30
0.0
 10
201.030069402643
 20
111.7287493028543
 30
0.0
 10
201.3699821169181
 20
112.6274865149405
 30
0.0
 10
201.5875058424386
 20
113.2026243618846
 30
0.0
 10
201.6839300003115
 20
113.4575721034227
 30
0.0
  0
CIRCLE
  5
F3
330
1F
100
AcDbEntity
  8
0
  6
Continuous
 62
     7
370
    15
100
AcDbCircle
 10
198.2651936926
 20
112.8987858664
 30
0.0
 40
5.300000000000015
  0
CIRCLE
  5
F4
330
1F
100
AcDbEntity
  8
0
  6
Continuous
 62
     7
370
    15
100
AcDbCircle
 10
198.2651936926
 20
112.8987858664
 30
0.0
 40
6.000000000000031
  0
ARC
  5
F5
330
1F
100
AcDbEntity
  8
0
  6
Continuous
 62
     7
370
    15
100
AcDbCircle
 10
198.2651936926
 20
112.8987858664
 30
0.0
 40
3.000000000000024
100
AcDbArc
 50
159.2828074954
 51
219.2828074954
  0
ARC
  5
F6
330
1F
100
AcDbEntity
  8
0
  6
Continuous
 62
     7
370
    15
100
AcDbCircle
 10
198.2651936926
 20
112.8987858664
 30
0.0
 40
3.000000000000024
100
AcDbArc
 50
99.2828074954
 51
159.2828074954
  0
ARC
  5
F7
330
1F
100
AcDbEntity
  8
0
  6
Continuous
 62
     7
370
    15
100
AcDbCircle
 10
198.2651936926
 20
112.8987858664
 30
0.0
 40
3.000000000000023
100
AcDbArc
 50
219.2828074954
 51
279.2828074954
  0
ARC
  5
F8
330
1F
100
AcDbEntity
  8
0
  6
Continuous
 62
     7
370
    15
100
AcDbCircle
 10
198.2651936926
 20
112.8987858664
 30
0.0
 40
3.000000000000011
100
AcDbArc
 50
279.2828074954
 51
339.2828074954
  0
ARC
  5
F9
330
1F
100
AcDbEntity
  8
0
  6
Continuous
 62
     7
370
    15
100
AcDbCircle
 10
198.2651936926
 20
112.8987858664
 30
0.0
 40
2.999999999999983
100
AcDbArc
 50
339.2828074954
 51
39.2828074954
  0
ARC
  5
FA
330
1F
100
AcDbEntity
  8
0
  6
Continuous
 62
     7
370
    15
100
AcDbCircle
 10
198.2651936926
 20
112.8987858664
 30
0.0
 40
3.000000000000016
100
AcDbArc
 50
39.2828074954
 51
99.2828074954
  0
LINE
  5
FB
330
1F
100
AcDbEntity
  8
0
  6
HIDDEN
 62
     7
370
     0
100
AcDbLine
 10
126.9232608612
 20
137.3574755288
 30
0.0
 11
126.9232608612
 21
132.7487858664
 31
0.0
  0
SPLINE
  5
FC
330
1F
100
AcDbEntity
  8
0
  6
HIDDEN
 62
     7
370
     0
100
AcDbSpline
210
0.0
220
0.0
230
1.0
 70
     8
 71
     3
 72
     9
 73
     5
 74
     0
 42
0.000000001
 43
0.00000001
 40
0.0
 40
0.0
 40
0.0
 40
0.0
 40
0.9035511437892024
 40
1.0
 40
1.0
 40
1.0
 40
1.0
 10
193.2639323907255
 20
137.4108865164937
 30
0.0
 10
193.3865523064277
 20
137.3903927982379
 30
0.0
 10
193.5222611885922
 20
137.3677114941451
 30
0.0
 10
193.6778584086155
 20
137.3484294699124
 30
0.0
 10
193.6928655825163
 20
137.3465697407297
 30
0.0
  0
SPLINE
  5
FD
330
1F
100
AcDbEntity
  8
0
  6
HIDDEN
 62
     7
370
     0
100
AcDbSpline
210
0.0
220
0.0
230
1.0
 70
     8
 71
     3
 72
    12
 73
     8
 74
     0
 42
0.000000001
 43
0.00000001
 40
0.0
 40
0.0
 40
0.0
 40
0.0
 40
0.031264552727431
 40
0.2442778820359982
 40
0.4491955708208322
 40
0.9468421444375087
 40
1.0
 40
1.0
 40
1.0
 40
1.0
 10
190.7717752462624
 20
137.897279089104
 30
0.0
 10
190.7694895239647
 20
137.8978023019298
 30
0.0
 10
190.751630595782
 20
137.9018902964729
 30
0.0
 10
190.7844499861798
 20
137.8943387966192
 30
0.0
 10
190.8445184037784
 20
137.8805886795959
 30
0.0
 10
190.9463201486206
 20
137.856986378025
 30
0.0
 10
191.0711694217982
 20
137.829523236909
 30
0.0
 10
191.0832185617089
 20
137.8268727831156
 30
0.0
  0
LINE
  5
FE
330
1F
100
AcDbEntity
  8
0
  6
HIDDEN
 62
     7
370
     0
100
AcDbLine
 10
193.0719696599
 20
137.4441830891
 30
0.0
 11
193.2639322895
 21
137.4108862281
 31
0.0
  0
CIRCLE
  5
FF
330
1F
100
AcDbEntity
  8
0
  6
HIDDEN
 62
     7
370
     0
100
AcDbCircle
 10
198.2651936926
 20
112.8987858664
 30
0.0
 40
5.5
  0
LINE
  5
100
330
1F
100
AcDbEntity
  8
0
  6
HIDDEN
 62
     7
370
     0
100
AcDbLine
 10
100.3103438972
 20
89.3741862436
 30
0.0
 11
100.0586863031
 21
89.3506646222
 31
0.0
  0
LINE
  5
101
330
1F
100
AcDbEntity
  8
0
  6
HIDDEN
 62
     7
370
     0
100
AcDbLine
 10
99.9359946844
 20
136.458216899
 30
0.0
 11
100.3102511769
 21
136.4233688964
 31
0.0
  0
SPLINE
  5
102
330
1F
100
AcDbEntity
  8
0
  6
HIDDEN
 62
     7
370
     0
100
AcDbSpline
210
0.0
220
0.0
230
1.0
 70
     8
 71
     3
 72
    22
 73
    18
 74
     0
 42
0.000000001
 43
0.00000001
 40
0.0
 40
0.0
 40
0.0
 40
0.0
 40
0.069470503305567
 40
0.1409377255045835
 40
0.210413548914841
 40
0.2819466223559928
 40
0.3506518733998512
 40
0.4213897814436843
 40
0.4894670043894698
 40
0.5594810940348491
 40
0.6282706827033763
 40
0.6989997382187424
 40
0.7687375408512298
 40
0.8405098102584774
 40
0.9099666189318139
 40
0.9814998892127899
 40
1.0
 40
1.0
 40
1.0
 40
1.0
 10
106.0701956942466
 20
93.061257390622
 30
0.0
 10
105.9220218397873
 20
93.08098373043131
 30
0.0
 10
105.6214153228762
 20
93.1210033838521
 30
0.0
 10
105.0865204601954
 20
93.17637704738196
 30
0.0
 10
104.5008819075267
 20
93.22083343250978
 30
0.0
 10
103.8866492479533
 20
93.24851840796192
 30
0.0
 10
103.2527326025851
 20
93.2567716614318
 30
0.0
 10
102.6305839020133
 20
93.24479160655133
 30
0.0
 10
102.0245864321526
 20
93.21404085279036
 30
0.0
 10
101.4600975110261
 20
93.16857488204016
 30
0.0
 10
100.9407212734444
 20
93.11249373024057
 30
0.0
 10
100.487855775763
 20
93.05250356792216
 30
0.0
 10
100.1091406320973
 20
92.99452365356323
 30
0.0
 10
99.82105551102221
 20
92.94560484541675
 30
0.0
 10
99.63859761446957
 20
92.91256948289097
 30
0.0
 10
99.55793966313551
 20
92.89742968663535
 30
0.0
 10
99.57222954183437
 20
92.90010164000834
 30
0.0
 10
99.57516583430643
 20
92.90065067452014
 30
0.0
  0
SPLINE
  5
103
330
1F
100
AcDbEntity
  8
0
  6
HIDDEN
 62
     7
370
     0
100
AcDbSpline
210
0.0
220
0.0
230
1.0
 70
     8
 71
     3
 72
    22
 73
    18
 74
     0
 42
0.000000001
 43
0.00000001
 40
0.0
 40
0.0
 40
0.0
 40
0.0
 40
0.0499040281125879
 40
0.1203075863893539
 40
0.1885125365560125
 40
0.2586444168297183
 40
0.327783940729315
 40
0.3988873214655093
 40
0.468696948893033
 40
0.5405663748364747
 40
0.6097087891223003
 40
0.6809159691092489
 40
0.7490773369981701
 40
0.8192056085539684
 40
0.8876078379088241
 40
0.9579332867310414
 40
1.0
 40
1.0
 40
1.0
 40
1.0
 10
99.57516583430643
 20
132.8969210583568
 30
0.0
 10
99.57641676833194
 20
132.8966820279611
 30
0.0
 10
99.57943249389622
 20
132.8961057784864
 30
0.0
 10
99.70432582094976
 20
132.8729077436629
 30
0.0
 10
99.9288076488273
 20
132.8332277073453
 30
0.0
 10
100.2478358110048
 20
132.781016285946
 30
0.0
 10
100.6553710420015
 20
132.7216864742738
 30
0.0
 10
101.1371575958344
 20
132.6622116977578
 30
0.0
 10
101.6875772776297
 20
132.6086053413958
 30
0.0
 10
102.280472163578
 20
132.5681314229215
 30
0.0
 10
102.9074247338951
 20
132.5449321745552
 30
0.0
 10
103.5356357077231
 20
132.5419540713403
 30
0.0
 10
104.1598958002002
 20
132.5590883970395
 30
0.0
 10
104.7525140900285
 20
132.5937742527296
 30
0.0
 10
105.3093401735566
 20
132.6427306163934
 30
0.0
 10
105.7471470181895
 20
132.6926307810166
 30
0.0
 10
105.9822137249624
 20
132.7244171700083
 30
0.0
 10
106.0701956942466
 20
132.7363143422549
 30
0.0
  0
SPLINE
  5
104
330
1F
100
AcDbEntity
  8
0
  6
HIDDEN
 62
     7
370
     0
100
AcDbSpline
210
0.0
220
0.0
230
1.0
 70
     8
 71
     3
 72
    12
 73
     8
 74
     0
 42
0.000000001
 43
0.00000001
 40
0.0
 40
0.0
 40
0.0
 40
0.0
 40
0.220822239616518
 40
0.4480970101862093
 40
0.6689536278141427
 40
0.8961510028112478
 40
1.0
 40
1.0
 40
1.0
 40
1.0
 10
106.0701956942466
 20
132.7363143422549
 30
0.0
 10
106.2022389004574
 20
132.753371429524
 30
0.0
 10
106.470183678217
 20
132.7879840202714
 30
0.0
 10
106.7653398001078
 20
132.8149559664794
 30
0.0
 10
106.9664319849637
 20
132.8304656911667
 30
0.0
 10
107.0637628330547
 20
132.8365748785635
 30
0.0
 10
107.0551052519148
 20
132.8360296897299
 30
0.0
 10
107.0523893752432
 20
132.8358586644042
 30
0.0
  0
SPLINE
  5
105
330
1F
100
AcDbEntity
  8
0
  6
HIDDEN
 62
     7
370
     0
100
AcDbSpline
210
0.0
220
0.0
230
1.0
 70
     8
 71
     3
 72
    12
 73
     8
 74
     0
 42
0.000000001
 43
0.00000001
 40
0.0
 40
0.0
 40
0.0
 40
0.0
 40
0.1181237309796437
 40
0.3465099096369231
 40
0.5687665618909852
 40
0.7975211382752565
 40
1.0
 40
1.0
 40
1.0
 40
1.0
 10
107.0523894524025
 20
92.96171306355521
 30
0.0
 10
107.0545129787878
 20
92.96157898522186
 30
0.0
 10
107.060742234584
 20
92.96118567330409
 30
0.0
 10
106.956075353769
 20
92.96780906324298
 30
0.0
 10
106.7461008789026
 20
92.98421349683164
 30
0.0
 10
106.4506426312404
 20
93.01181519435886
 30
0.0
 10
106.191753162469
 20
93.04546000177037
 30
0.0
 10
106.0701956942466
 20
93.061257390622
 30
0.0
  0
LINE
  5
106
330
1F
100
AcDbEntity
  8
0
  6
HIDDEN
 62
     7
370
     0
100
AcDbLine
 10
93.3191682889
 20
95.8987858664
 30
0.0
 11
93.3191682889
 21
129.8987858664
 31
0.0
  0
SPLINE
  5
107
330
1F
100
AcDbEntity
  8
0
  6
HIDDEN
 62
     7
370
     0
100
AcDbSpline
210
0.0
220
0.0
230
1.0
 70
     8
 71
     3
 72
     8
 73
     4
 74
     0
 42
0.000000001
 43
0.00000001
 40
0.0
 40
0.0
 40
0.0
 40
0.0
 40
0.0011559732291307
 40
0.0011559732291307
 40
0.0011559732291307
 40
0.0011559732291307
 10
80.41519369264503
 20
114.8986264850711
 30
0.0
 10
80.74852826771236
 20
114.8946592052716
 30
0.0
 10
81.08185945873907
 20
114.8904793226947
 30
0.0
 10
81.41519369264503
 20
114.8859141692866
 30
0.0
  0
SPLINE
  5
108
330
1F
100
AcDbEntity
  8
0
  6
HIDDEN
 62
     7
370
     0
100
AcDbSpline
210
0.0
220
0.0
230
1.0
 70
     8
 71
     3
 72
     8
 73
     4
 74
     0
 42
0.000000001
 43
0.00000001
 40
0.0
 40
0.0
 40
0.0
 40
0.0
 40
0.0011564765856723
 40
0.0011564765856723
 40
0.0011564765856723
 40
0.0011564765856723
 10
81.41519369264505
 20
110.9020855642213
 30
0.0
 10
81.08188576207618
 20
110.9012104086383
 30
0.0
 10
80.748550529684
 20
110.9001555573871
 30
0.0
 10
80.41519369264503
 20
110.8989844703498
 30
0.0
  0
LINE
  5
109
330
1F
100
AcDbEntity
  8
0
  6
HIDDEN
 62
     7
370
     0
100
AcDbLine
 10
119.9750196612
 20
95.8987858664
 30
0.0
 11
119.9750196612
 21
129.8987858664
 31
0.0
  0
LINE
  5
10A
330
1F
100
AcDbEntity
  8
0
  6
HIDDEN
 62
     7
370
     0
100
AcDbLine
 10
122.2651936926
 20
97.1737858664
 30
0.0
 11
122.2651936926
 21
128.6237858664
 31
0.0
  0
SPLINE
  5
10B
330
1F
100
AcDbEntity
  8
0
  6
HIDDEN
 62
     7
370
     0
100
AcDbSpline
210
0.0
220
0.0
230
1.0
 70
     8
 71
     3
 72
    16
 73
    12
 74
     0
 42
0.000000001
 43
0.00000001
 40
0.0
 40
0.0
 40
0.0
 40
0.0
 40
0.124999999999998
 40
0.124999999999998
 40
0.249999999999996
 40
0.249999999999996
 40
0.4999999999999973
 40
0.4999999999999973
 40
0.7499999999999987
 40
0.7499999999999987
 40
1.0
 40
1.0
 40
1.0
 40
1.0
 10
89.11519369264505
 20
97.0972954304068
 30
0.0
 10
89.21031544731086
 20
97.0972954304068
 30
0.0
 10
89.30364551603896
 20
97.09347959701401
 30
0.0
 10
89.48690727677695
 20
97.0787090442842
 30
0.0
 10
89.57778499233396
 20
97.06755099630863
 30
0.0
 10
89.8345866898537
 20
97.0250797261669
 30
0.0
 10
89.9896540547257
 20
96.98403352896409
 30
0.0
 10
90.24340051628032
 20
96.8888874123822
 30
0.0
 10
90.34427096794818
 20
96.83412467830063
 30
0.0
 10
90.47951738264301
 20
96.72286355439674
 30
0.0
 10
90.51519369264504
 20
96.66569381706806
 30
0.0
 10
90.51519369264504
 20
96.61127224403435
 30
0.0
  0
SPLINE
  5
10C
330
1F
100
AcDbEntity
  8
0
  6
HIDDEN
 62
     7
370
     0
100
AcDbSpline
210
0.0
220
0.0
230
1.0
 70
     8
 71
     3
 72
     8
 73
     4
 74
     0
 42
0.000000001
 43
0.00000001
 40
0.0
 40
0.0
 40
0.0
 40
0.0
 40
1.0
 40
1.0
 40
1.0
 40
1.0
 10
81.71519369273769
 20
99.24209837648905
 30
0.0
 10
81.71519369273959
 20
98.35820123417211
 30
0.0
 10
81.70171306682907
 20
97.64361798911017
 30
0.0
 10
81.70036169863795
 20
97.0972954304068
 30
0.0
  0
SPLINE
  5
10D
330
1F
100
AcDbEntity
  8
0
  6
HIDDEN
 62
     7
370
     0
100
AcDbSpline
210
0.0
220
0.0
230
1.0
 70
     8
 71
     3
 72
    10
 73
     6
 74
     0
 42
0.000000001
 43
0.00000001
 40
0.0
 40
0.0
 40
0.0
 40
0.0
 40
0.5
 40
0.5
 40
1.0
 40
1.0
 40
1.0
 40
1.0
 10
81.41519369264505
 20
100.2670086359188
 30
0.0
 10
81.50658480731252
 20
100.0923698493507
 30
0.0
 10
81.57923664037261
 20
99.91876802318131
 30
0.0
 10
81.68673553222601
 20
99.57515460629445
 30
0.0
 10
81.71519369273202
 20
99.40682878078759
 30
0.0
 10
81.71519369273764
 20
99.24209837654853
 30
0.0
  0
LINE
  5
10E
330
1F
100
AcDbEntity
  8
0
  6
HIDDEN
 62
     7
370
     0
100
AcDbLine
 10
81.4151936926
 20
103.2979590815
 30
0.0
 11
81.4151936926
 21
100.2670086359
 31
0.0
  0
SPLINE
  5
10F
330
1F
100
AcDbEntity
  8
0
  6
HIDDEN
 62
     7
370
     0
100
AcDbSpline
210
0.0
220
0.0
230
1.0
 70
     8
 71
     3
 72
    10
 73
     6
 74
     0
 42
0.000000001
 43
0.00000001
 40
0.0
 40
0.0
 40
0.0
 40
0.0
 40
0.5
 40
0.5
 40
1.0
 40
1.0
 40
1.0
 40
1.0
 10
81.7151936927316
 20
104.6657994907956
 30
0.0
 10
81.7151936927316
 20
104.4238155245812
 30
0.0
 10
81.68704366397314
 20
104.1894730969227
 30
0.0
 10
81.58345375095791
 20
103.7340980771142
 30
0.0
 10
81.50682504216434
 20
103.5124935151967
 30
0.0
 10
81.41519369264505
 20
103.2979590814573
 30
0.0
  0
LINE
  5
110
330
1F
100
AcDbEntity
  8
0
  6
HIDDEN
 62
     7
370
     0
100
AcDbLine
 10
81.7151936927
 20
116.503419488
 30
0.0
 11
81.7151936927
 21
104.6657994907
 31
0.0
  0
SPLINE
  5
111
330
1F
100
AcDbEntity
  8
0
  6
HIDDEN
 62
     7
370
     0
100
AcDbSpline
210
0.0
220
0.0
230
1.0
 70
     8
 71
     3
 72
     8
 73
     4
 74
     0
 42
0.000000001
 43
0.00000001
 40
0.0
 40
0.0
 40
0.0
 40
0.0
 40
1.0
 40
1.0
 40
1.0
 40
1.0
 10
81.41519369264505
 20
122.505725179944
 30
0.0
 10
81.59622515738387
 20
122.0736176964695
 30
0.0
 10
81.71519369273722
 20
121.6194722928207
 30
0.0
 10
81.71519369273155
 20
121.1317722420504
 30
0.0
  0
LINE
  5
112
330
1F
100
AcDbEntity
  8
0
  6
HIDDEN
 62
     7
370
     0
100
AcDbLine
 10
81.4151936926
 20
125.5389281799
 30
0.0
 11
81.4151936926
 21
122.5057251799
 31
0.0
  0
SPLINE
  5
113
330
1F
100
AcDbEntity
  8
0
  6
HIDDEN
 62
     7
370
     0
100
AcDbSpline
210
0.0
220
0.0
230
1.0
 70
     8
 71
     3
 72
    10
 73
     6
 74
     0
 42
0.000000001
 43
0.00000001
 40
0.0
 40
0.0
 40
0.0
 40
0.0
 40
0.5
 40
0.5
 40
1.0
 40
1.0
 40
1.0
 40
1.0
 10
81.7151936927506
 20
126.5554733563583
 30
0.0
 10
81.71519369274881
 20
126.390837010765
 30
0.0
 10
81.68803502232377
 20
126.2236817879785
 30
0.0
 10
81.58227002826413
 20
125.8850587823161
 30
0.0
 10
81.50585524074333
 20
125.7127870061593
 30
0.0
 10
81.41519369264508
 20
125.5389281799088
 30
0.0
  0
SPLINE
  5
114
330
1F
100
AcDbEntity
  8
0
  6
HIDDEN
 62
     7
370
     0
100
AcDbSpline
210
0.0
220
0.0
230
1.0
 70
     8
 71
     3
 72
    18
 73
    14
 74
     0
 42
0.000000001
 43
0.00000001
 40
0.0
 40
0.0
 40
0.0
 40
0.0
 40
0.2500000000000033
 40
0.2500000000000033
 40
0.3750000000000029
 40
0.3750000000000029
 40
0.5000000000000026
 40
0.5000000000000026
 40
0.6250000000000022
 40
0.6250000000000022
 40
0.7500000000000018
 40
0.7500000000000018
 40
1.0
 40
1.0
 40
1.0
 40
1.0
 10
86.51519369264504
 20
129.1862994888426
 30
0.0
 10
86.51519369264504
 20
129.1318249682904
 30
0.0
 10
86.48028300125287
 20
129.0754439089379
 30
0.0
 10
86.37827369991982
 20
128.9913670680844
 30
0.0
 10
86.33663734524171
 20
128.9640333640935
 30
0.0
 10
86.23823154975297
 20
128.9110794484945
 30
0.0
 10
86.18068833804868
 20
128.8851920947774
 30
0.0
 10
86.05339016447573
 20
128.8374145499441
 30
0.0
 10
85.98380285971827
 20
128.8154666317662
 30
0.0
 10
85.83236861456331
 20
128.7760340668535
 30
0.0
 10
85.74968471146936
 20
128.7584778176276
 30
0.0
 10
85.49357324943131
 20
128.7160390522071
 30
0.0
 10
85.30565824554333
 20
128.7002763024701
 30
0.0
 10
85.11519369264505
 20
128.7002763024701
 30
0.0
  0
LINE
  5
115
330
1F
100
AcDbEntity
  8
0
  6
HIDDEN
 62
     7
370
     0
100
AcDbLine
 10
85.1151936926
 20
128.7002763025
 30
0.0
 11
81.7151936928
 21
128.7002763025
 31
0.0
  0
LINE
  5
116
330
1F
100
AcDbEntity
  8
0
  6
HIDDEN
 62
     7
370
     0
100
AcDbLine
 10
81.646224706
 20
97.0972954304
 30
0.0
 11
89.1151936926
 21
97.0972954304
 31
0.0
  0
SPLINE
  5
117
330
1F
100
AcDbEntity
  8
0
  6
HIDDEN
 62
     7
370
     0
100
AcDbSpline
210
0.0
220
0.0
230
1.0
 70
     8
 71
     3
 72
    22
 73
    18
 74
     0
 42
0.000000001
 43
0.00000001
 40
0.0
 40
0.0
 40
0.0
 40
0.0
 40
0.1249999999999998
 40
0.1249999999999998
 40
0.2499999999999997
 40
0.2499999999999997
 40
0.4999999999999991
 40
0.4999999999999991
 40
0.562499999999999
 40
0.562499999999999
 40
0.624999999999999
 40
0.624999999999999
 40
0.7499999999999993
 40
0.7499999999999993
 40
0.8749999999999997
 40
0.8749999999999997
 40
1.0
 40
1.0
 40
1.0
 40
1.0
 10
81.64622470600295
 20
97.0972954304068
 30
0.0
 10
81.6331423132746
 20
97.35240114055448
 30
0.0
 10
81.61992274983477
 20
97.6455593996584
 30
0.0
 10
81.59747557204066
 20
98.3078598652832
 30
0.0
 10
81.58799710501616
 20
98.67813378589457
 30
0.0
 10
81.56879914407963
 20
99.90069058900836
 30
0.0
 10
81.5699129170765
 20
100.8378295151402
 30
0.0
 10
81.5888237100296
 20
102.1577007446552
 30
0.0
 10
81.5934532378886
 20
102.4292026536315
 30
0.0
 10
81.60393445763455
 20
102.9875874884338
 30
0.0
 10
81.60972971891898
 20
103.2747103443734
 30
0.0
 10
81.62803893982391
 20
104.1472995987451
 30
0.0
 10
81.64207387410427
 20
104.747755275101
 30
0.0
 10
81.67153104624109
 20
105.9852297675971
 30
0.0
 10
81.68708673722266
 20
106.6222459242405
 30
0.0
 10
81.71088128721955
 20
107.9337345219251
 30
0.0
 10
81.71890033936492
 20
108.6098571335856
 30
0.0
 10
81.71519369264504
 20
109.2941522448704
 30
0.0
  0
LINE
  5
118
330
1F
100
AcDbEntity
  8
0
  6
HIDDEN
 62
     7
370
     0
100
AcDbLine
 10
81.7151936928
 20
116.503419488
 30
0.0
 11
81.7151936928
 21
128.7002763025
 31
0.0
  0
SPLINE
  5
119
330
1F
100
AcDbEntity
  8
0
  6
HIDDEN
 62
     7
370
     0
100
AcDbSpline
210
0.0
220
0.0
230
1.0
 70
     8
 71
     3
 72
    10
 73
     6
 74
     0
 42
0.000000001
 43
0.00000001
 40
0.0
 40
0.0
 40
0.0
 40
0.0
 40
0.5
 40
0.5
 40
1.0
 40
1.0
 40
1.0
 40
1.0
 10
81.71519369264504
 20
109.2941522448553
 30
0.0
 10
81.71519369264485
 20
109.5680673929295
 30
0.0
 10
81.68943446277702
 20
109.8390089716594
 30
0.0
 10
81.58622853004388
 20
110.374700053262
 30
0.0
 10
81.50889036616873
 20
110.6404468567839
 30
0.0
 10
81.41519369264503
 20
110.9020855642213
 30
0.0
  0
SPLINE
  5
11A
330
1F
100
AcDbEntity
  8
0
  6
HIDDEN
 62
     7
370
     0
100
AcDbSpline
210
0.0
220
0.0
230
1.0
 70
     8
 71
     3
 72
    10
 73
     6
 74
     0
 42
0.000000001
 43
0.00000001
 40
0.0
 40
0.0
 40
0.0
 40
0.0
 40
0.5
 40
0.5
 40
1.0
 40
1.0
 40
1.0
 40
1.0
 10
81.41519369264505
 20
114.8859141692866
 30
0.0
 10
81.5084242729963
 20
115.149807975885
 30
0.0
 10
81.58345388452511
 20
115.4159882849836
 30
0.0
 10
81.68852098250478
 20
115.9543108568025
 30
0.0
 10
81.71519369274938
 20
116.2270589714183
 30
0.0
 10
81.71519369275057
 20
116.5034194880056
 30
0.0
  0
LINE
  5
11B
330
1F
100
AcDbEntity
  8
0
  6
HIDDEN
 62
     7
370
     0
100
AcDbLine
 10
81.4151936926
 20
110.9020855642
 30
0.0
 11
81.4151936926
 21
114.8859141693
 31
0.0
  0
LINE
  5
11C
330
1F
100
AcDbEntity
  8
0
  6
HIDDEN
 62
     7
370
     0
100
AcDbLine
 10
183.8151936926
 20
112.8987858664
 30
0.0
 11
183.8151936926
 21
99.3987858664
 31
0.0
  0
LINE
  5
11D
330
1F
100
AcDbEntity
  8
0
  6
HIDDEN
 62
     7
370
     0
100
AcDbLine
 10
183.8151936926
 20
126.3987858664
 30
0.0
 11
183.8151936926
 21
112.8987858664
 31
0.0
  0
LINE
  5
11E
330
1F
100
AcDbEntity
  8
0
  6
HIDDEN
 62
     7
370
     0
100
AcDbLine
 10
188.6812190964
 20
112.8987858664
 30
0.0
 11
188.6812190964
 21
98.8987858664
 31
0.0
  0
LINE
  5
11F
330
1F
100
AcDbEntity
  8
0
  6
HIDDEN
 62
     7
370
     0
100
AcDbLine
 10
188.6812190964
 20
126.8987858664
 30
0.0
 11
188.6812190964
 21
112.8987858664
 31
0.0
  0
SPLINE
  5
120
330
1F
100
AcDbEntity
  8
0
  6
HIDDEN
 62
     7
370
     0
100
AcDbSpline
210
0.0
220
0.0
230
1.0
 70
     8
 71
     3
 72
    25
 73
    21
 74
     0
 42
0.000000001
 43
0.00000001
 40
0.0
 40
0.0
 40
0.0
 40
0.0
 40
0.1004181924457178
 40
0.1514353198505064
 40
0.2032270534313209
 40
0.3035504751738406
 40
0.3544115475131836
 40
0.4059352288669078
 40
0.458294978302864
 40
0.5113473972842625
 40
0.5647504951449763
 40
0.6188770588401674
 40
0.6730666258475018
 40
0.7276542956898976
 40
0.7835420433104509
 40
0.8399005109297769
 40
0.8915075420448532
 40
0.9439305675993511
 40
0.9967739786542025
 40
1.0
 40
1.0
 40
1.0
 40
1.0
 10
198.2651936926451
 20
125.7731790560223
 30
0.0
 10
198.5576821585533
 20
125.7787436287747
 30
0.0
 10
198.9987684130322
 20
125.7871352641356
 30
0.0
 10
199.5766892205691
 20
125.8376525852408
 30
0.0
 10
200.1412773146436
 20
125.9038649119923
 30
0.0
 10
200.6813058895267
 20
125.9937699413682
 30
0.0
 10
201.185422924608
 20
126.0985473883333
 30
0.0
 10
201.5507648646694
 20
126.1843064096957
 30
0.0
 10
201.8990636388045
 20
126.2748673333341
 30
0.0
 10
202.2268701148074
 20
126.3678031567967
 30
0.0
 10
202.5312302784216
 20
126.4606295388798
 30
0.0
 10
202.8082945814828
 20
126.5505019744649
 30
0.0
 10
203.0555802828891
 20
126.6349510371014
 30
0.0
 10
203.271299308286
 20
126.7118104668499
 30
0.0
 10
203.4528294079514
 20
126.7787716507882
 30
0.0
 10
203.5919346588886
 20
126.8314907270831
 30
0.0
 10
203.6912228674424
 20
126.8698352871327
 30
0.0
 10
203.7472136399925
 20
126.8917163421803
 30
0.0
 10
203.7709103372058
 20
126.9010287612211
 30
0.0
 10
203.764439049729
 20
126.8984897741857
 30
0.0
 10
203.7640667165228
 20
126.8983436905529
 30
0.0
  0
LINE
  5
121
330
1F
100
AcDbEntity
  8
0
  6
HIDDEN
 62
     7
370
     0
100
AcDbLine
 10
198.2934102884
 20
125.7741344888
 30
0.0
 11
197.9195196654
 21
125.77815321
 31
0.0
  0
SPLINE
  5
122
330
1F
100
AcDbEntity
  8
0
  6
HIDDEN
 62
     7
370
     0
100
AcDbSpline
210
0.0
220
0.0
230
1.0
 70
     8
 71
     3
 72
    23
 73
    19
 74
     0
 42
0.000000001
 43
0.00000001
 40
0.0
 40
0.0
 40
0.0
 40
0.0
 40
0.0036318227721341
 40
0.0978337681478629
 40
0.1456945867822718
 40
0.1942941639898553
 40
0.2859213557657553
 40
0.3793773861519008
 40
0.475063333051397
 40
0.523556539220605
 40
0.5726745379244697
 40
0.622979024274405
 40
0.6736312096112668
 40
0.7254050166740622
 40
0.7775821370222553
 40
0.8698523169811748
 40
0.9640840206357486
 40
1.0
 40
1.0
 40
1.0
 40
1.0
 10
192.8023690077287
 20
126.8842337216772
 30
0.0
 10
192.8006347604301
 20
126.8849077511544
 30
0.0
 10
192.7539177373893
 20
126.9030647064174
 30
0.0
 10
192.7558613649776
 20
126.9024763967313
 30
0.0
 10
192.8079720071856
 20
126.8819947382359
 30
0.0
 10
192.9106385561307
 20
126.842112002118
 30
0.0
 10
193.1210540749436
 20
126.7618669606287
 30
0.0
 10
193.498845928471
 20
126.6251036468183
 30
0.0
 10
193.916712619944
 20
126.4856481172971
 30
0.0
 10
194.3102539231791
 20
126.3658597630627
 30
0.0
 10
194.6377103416385
 20
126.2731045631473
 30
0.0
 10
194.9951857329166
 20
126.1803326082448
 30
0.0
 10
195.3829966310755
 20
126.0899135252663
 30
0.0
 10
195.7979576651492
 20
126.0052150647548
 30
0.0
 10
196.3499357006732
 20
125.9098810694445
 30
0.0
 10
197.0587949984281
 20
125.8206902107382
 30
0.0
 10
197.7476056189693
 20
125.7773234146908
 30
0.0
 10
198.1532505841615
 20
125.7740753911884
 30
0.0
 10
198.2651936926451
 20
125.7731790560223
 30
0.0
  0
LINE
  5
123
330
1F
100
AcDbEntity
  8
0
  6
HIDDEN
 62
     7
370
     0
100
AcDbLine
 10
81.5651936926
 20
94.9087858664
 30
0.0
 11
81.5651936926
 21
92.028848101
 31
0.0
  0
LINE
  5
124
330
1F
100
AcDbEntity
  8
0
  6
HIDDEN
 62
     7
370
     0
100
AcDbLine
 10
90.5151936926
 20
94.9087858664
 30
0.0
 11
90.5151936926
 21
90.9350483352
 31
0.0
  0
LINE
  5
125
330
1F
100
AcDbEntity
  8
0
  6
HIDDEN
 62
     7
370
     0
100
AcDbLine
 10
81.5651936926
 20
130.8887858664
 30
0.0
 11
81.5651936926
 21
133.7687236318
 31
0.0
  0
LINE
  5
126
330
1F
100
AcDbEntity
  8
0
  6
HIDDEN
 62
     7
370
     0
100
AcDbLine
 10
86.5151936926
 20
130.8887858664
 30
0.0
 11
86.5151936926
 21
134.7428935388
 31
0.0
  0
LINE
  5
127
330
1F
100
AcDbEntity
  8
0
  6
HIDDEN
 62
     7
370
     0
100
AcDbLine
 10
131.1151936926
 20
103.3987858664
 30
0.0
 11
131.1151936926
 21
122.3987858664
 31
0.0
  0
LINE
  5
128
330
1F
100
AcDbEntity
  8
0
  6
HIDDEN
 62
     7
370
     0
100
AcDbLine
 10
134.1151936926
 20
103.3987858664
 30
0.0
 11
134.1151936926
 21
122.3987858664
 31
0.0
  0
LINE
  5
129
330
1F
100
AcDbEntity
  8
0
  6
HIDDEN
 62
     7
370
     0
100
AcDbLine
 10
138.2671406897
 20
86.4987858664
 30
0.0
 11
132.1275188903
 21
86.4987858664
 31
0.0
  0
LINE
  5
12A
330
1F
100
AcDbEntity
  8
0
  6
HIDDEN
 62
     7
370
     0
100
AcDbLine
 10
122.7651936926
 20
104.3987858664
 30
0.0
 11
122.7651936926
 21
121.3987858664
 31
0.0
  0
LINE
  5
12B
330
1F
100
AcDbEntity
  8
0
  6
HIDDEN
 62
     7
370
     0
100
AcDbLine
 10
117.2651936926
 20
81.4146628836
 30
0.0
 11
117.2651936926
 21
86.4987858664
 31
0.0
  0
LINE
  5
12C
330
1F
100
AcDbEntity
  8
0
  6
HIDDEN
 62
     7
370
     0
100
AcDbLine
 10
125.2651936926
 20
86.4987858664
 30
0.0
 11
117.2651936926
 21
86.4987858664
 31
0.0
  0
LINE
  5
12D
330
1F
100
AcDbEntity
  8
0
  6
HIDDEN
 62
     7
370
     0
100
AcDbLine
 10
128.502868495
 20
86.4987858664
 30
0.0
 11
125.2651936926
 21
86.4987858664
 31
0.0
  0
LINE
  5
12E
330
1F
100
AcDbEntity
  8
0
  6
HIDDEN
 62
     7
370
     0
100
AcDbLine
 10
128.7994912243
 20
139.2987858664
 30
0.0
 11
125.2651936926
 21
139.2987858664
 31
0.0
  0
LINE
  5
12F
330
1F
100
AcDbEntity
  8
0
  6
HIDDEN
 62
     7
370
     0
100
AcDbLine
 10
138.2939662357
 20
139.2987858664
 30
0.0
 11
131.830896161
 21
139.2987858664
 31
0.0
  0
LINE
  5
130
330
1F
100
AcDbEntity
  8
0
  6
HIDDEN
 62
     7
370
     0
100
AcDbLine
 10
125.2651936926
 20
139.2987858664
 30
0.0
 11
117.2651936926
 21
139.2987858664
 31
0.0
  0
SPLINE
  5
131
330
1F
100
AcDbEntity
  8
0
  6
HIDDEN
 62
     7
370
     0
100
AcDbSpline
210
0.0
220
0.0
230
1.0
 70
     8
 71
     3
 72
    11
 73
     7
 74
     0
 42
0.000000001
 43
0.00000001
 40
0.0
 40
0.0
 40
0.0
 40
0.0
 40
0.0008203708524183
 40
0.0008203708524183
 40
0.0008203708524183
 40
0.0016409967870154
 40
0.0016409967870154
 40
0.0016409967870154
 40
0.0016409967870154
 10
81.56519369264505
 20
97.04675311579574
 30
0.0
 10
81.37403539234639
 20
97.0055740871766
 30
0.0
 10
81.1826083222742
 20
96.9668201149466
 30
0.0
 10
80.99096269875358
 20
96.93045235566807
 30
0.0
 10
80.79925729367312
 20
96.89407325190204
 30
0.0
 10
80.60731834161416
 20
96.86007900113447
 30
0.0
 10
80.41519369454333
 20
96.82843087574325
 30
0.0
  0
ELLIPSE
  5
132
330
1F
100
AcDbEntity
  8
0
  6
HIDDEN
 62
     7
370
     0
100
AcDbEllipse
 10
76.1727618299
 20
112.8987858664
 30
0.0
 11
20.19992452771986
 21
-1.421085471520200E-14
 31
0.0
210
0.0
220
0.0
230
1.0
 40
0.816496581
 41
1.300566354937426
 42
1.359198697443034
  0
LINE
  5
133
330
1F
100
AcDbEntity
  8
0
  6
HIDDEN
 62
     7
370
     0
100
AcDbLine
 10
198.2651936926
 20
135.8987858664
 30
0.0
 11
203.7651936926
 21
135.8987858664
 31
0.0
  0
LINE
  5
134
330
1F
100
AcDbEntity
  8
0
  6
HIDDEN
 62
     7
370
     0
100
AcDbLine
 10
192.7651936926
 20
135.8987858664
 30
0.0
 11
198.2651936926
 21
135.8987858664
 31
0.0
  0
LINE
  5
135
330
1F
100
AcDbEntity
  8
0
  6
HIDDEN
 62
     7
370
     0
100
AcDbLine
 10
81.5651936926
 20
94.9087858664
 30
0.0
 11
81.5651936926
 21
97.0467531158
 31
0.0
  0
LINE
  5
136
330
1F
100
AcDbEntity
  8
0
  6
HIDDEN
 62
     7
370
     0
100
AcDbLine
 10
81.646224706
 20
97.0972954304
 30
0.0
 11
81.5651936926
 21
97.0467531158
 31
0.0
  0
LINE
  5
137
330
1F
100
AcDbEntity
  8
0
  6
HIDDEN
 62
     7
370
     0
100
AcDbLine
 10
90.5151936926
 20
94.9087858664
 30
0.0
 11
90.5151936926
 21
96.611272244
 31
0.0
  0
LINE
  5
138
330
1F
100
AcDbEntity
  8
0
  6
HIDDEN
 62
     7
370
     0
100
AcDbLine
 10
86.5151936926
 20
130.8887858664
 30
0.0
 11
86.5151936926
 21
129.1862994888
 31
0.0
  0
LINE
  5
139
330
1F
100
AcDbEntity
  8
0
  6
HIDDEN
 62
     7
370
     0
100
AcDbLine
 10
81.5651936926
 20
130.8887858664
 30
0.0
 11
81.5651936926
 21
128.7934103154
 31
0.0
  0
SPLINE
  5
13A
330
1F
100
AcDbEntity
  8
0
  6
HIDDEN
 62
     7
370
     0
100
AcDbSpline
210
0.0
220
0.0
230
1.0
 70
     8
 71
     3
 72
     8
 73
     4
 74
     0
 42
0.000000001
 43
0.00000001
 40
0.0
 40
0.0
 40
0.0
 40
0.0
 40
1.0
 40
1.0
 40
1.0
 40
1.0
 10
81.56519369264505
 20
128.7934103154372
 30
0.0
 10
81.61519919049263
 20
128.7623745419043
 30
0.0
 10
81.66519926006113
 20
128.7313298975634
 30
0.0
 10
81.71519369275059
 20
128.7002763024701
 30
0.0
  0
LWPOLYLINE
  5
13B
330
1F
100
AcDbEntity
  8
0
  6
HIDDEN
 62
     7
370
     0
100
AcDbPolyline
 90
       17
 70
   128
 43
0.0
 10
107.0639157607
 20
89.2988237134
 10
106.8351674556
 20
89.3599009911
 10
106.4980559206
 20
89.4375846407
 10
105.9793647985
 20
89.5465858652
 10
105.2375883899
 20
89.6766908994
 10
104.5073790751
 20
89.7772697103
 10
103.3359589239
 20
89.8898486626
 10
102.0143789402
 20
89.915931839
 10
101.3258360323
 20
89.8947671927
 10
100.6757096787
 20
89.8507983899
 10
100.0950636678
 20
89.7938227381
 10
99.7590863727
 20
89.7530596295
 10
99.5652135034
 20
89.7201710418
 10
99.7542127743
 20
89.7522204916
 10
100.0862003892
 20
89.7926364956
 10
100.6590509181
 20
89.8493133524
 10
100.6590509181
 20
89.8493133524
  0
SPLINE
  5
13C
330
1F
100
AcDbEntity
  8
0
  6
HIDDEN
 62
     7
370
     0
100
AcDbSpline
210
0.0
220
0.0
230
1.0
 70
     8
 71
     3
 72
    27
 73
    23
 74
     0
 42
0.000000001
 43
0.00000001
 40
0.0
 40
0.0
 40
0.0
 40
0.0
 40
0.0007884410149895
 40
0.0456707458473202
 40
0.1022521510292747
 40
0.1705299269620253
 40
0.2091214214819441
 40
0.2506484693911965
 40
0.3210939224933846
 40
0.3861873572984194
 40
0.4266663207954118
 40
0.4647973981852623
 40
0.5006015501540148
 40
0.5451931092400921
 40
0.6016871053907696
 40
0.6700927653563788
 40
0.7088299171846099
 40
0.7505584706766246
 40
0.8222227262804502
 40
0.8877618493908351
 40
0.9472353307700537
 40
1.0
 40
1.0
 40
1.0
 40
1.0
 10
99.56584581530365
 20
136.0772035306679
 30
0.0
 10
99.56562909349475
 20
136.0772502471792
 30
0.0
 10
99.55307540023719
 20
136.079956318874
 30
0.0
 10
99.60215801834482
 20
136.0681229928213
 30
0.0
 10
99.74725466009427
 20
136.0446806101644
 30
0.0
 10
100.0203092558614
 20
136.0107758995578
 30
0.0
 10
100.3488353445479
 20
135.9772071930365
 30
0.0
 10
100.7415632136557
 20
135.9390238304938
 30
0.0
 10
101.2912911439659
 20
135.9000551683186
 30
0.0
 10
101.9173138012085
 20
135.8805940611447
 30
0.0
 10
102.4605053097112
 20
135.8784083837481
 30
0.0
 10
102.905574206973
 20
135.886923264843
 30
0.0
 10
103.3720220032255
 20
135.9067066617664
 30
0.0
 10
103.9092626529109
 20
135.9508690474046
 30
0.0
 10
104.5574760809766
 20
136.0232846667311
 30
0.0
 10
105.1430147217135
 20
136.1041867626465
 30
0.0
 10
105.6239843104599
 20
136.182352744557
 30
0.0
 10
106.0693993177701
 20
136.2671249117215
 30
0.0
 10
106.5078983358099
 20
136.3609077751861
 30
0.0
 10
106.8469261443347
 20
136.4388121920176
 30
0.0
 10
107.0342851048884
 20
136.4890087567667
 30
0.0
 10
107.0547758451337
 20
136.4956757564654
 30
0.0
 10
107.064408818641
 20
136.4988100029934
 30
0.0
  0
SPLINE
  5
13D
330
1F
100
AcDbEntity
  8
0
  6
HIDDEN
 62
     7
370
     0
100
AcDbSpline
210
0.0
220
0.0
230
1.0
 70
     8
 71
     3
 72
     8
 73
     4
 74
     0
 42
0.000000001
 43
0.00000001
 40
0.0
 40
0.0
 40
0.0
 40
0.0
 40
0.0001590976915385
 40
0.0001590976915385
 40
0.0001590976915385
 40
0.0001590976915385
 10
81.70036169863795
 20
97.0972954304068
 30
0.0
 10
81.65531022920842
 20
97.06931654675614
 30
0.0
 10
81.61025419186866
 20
97.04134501705383
 30
0.0
 10
81.56519369264507
 20
97.01338067837374
 30
0.0
  0
SPLINE
  5
13E
330
1F
100
AcDbEntity
  8
0
  6
HIDDEN
 62
     7
370
     0
100
AcDbSpline
210
0.0
220
0.0
230
1.0
 70
     8
 71
     3
 72
    11
 73
     7
 74
     0
 42
0.000000001
 43
0.00000001
 40
0.0
 40
0.0
 40
0.0
 40
0.0
 40
0.000821290931132
 40
0.000821290931132
 40
0.000821290931132
 40
0.0016428257242788
 40
0.0016428257242788
 40
0.0016428257242788
 40
0.0016428257242788
 10
81.56519369264505
 20
97.01338067837374
 30
0.0
 10
81.37404867116261
 20
96.9700944895521
 30
0.0
 10
81.18263033548602
 20
96.92915797994634
 30
0.0
 10
80.99098426082489
 20
96.89055620859187
 30
0.0
 10
80.79928117928328
 20
96.8519429547869
 30
0.0
 10
80.60733605599795
 20
96.81566274553366
 30
0.0
 10
80.41519369264505
 20
96.78169583921554
 30
0.0
  0
LINE
  5
13F
330
1F
100
AcDbEntity
  8
0
  6
HIDDEN
 62
     7
370
     0
100
AcDbLine
 10
128.4051936926
 20
133.0346524979
 30
0.0
 11
128.4051936926
 21
132.7487858664
 31
0.0
  0
LINE
  5
140
330
1F
100
AcDbEntity
  8
0
  6
HIDDEN
 62
     7
370
     0
100
AcDbLine
 10
132.2251936926
 20
133.0346524979
 30
0.0
 11
132.2251936926
 21
132.7487858664
 31
0.0
  0
LINE
  5
141
330
1F
100
AcDbEntity
  8
0
  6
HIDDEN
 62
     7
370
     0
100
AcDbLine
 10
133.7071265241
 20
137.3574755288
 30
0.0
 11
133.7071265241
 21
132.7487858664
 31
0.0
  0
SPLINE
  5
142
330
1F
100
AcDbEntity
  8
0
  6
HIDDEN
 62
     7
370
     0
100
AcDbSpline
210
0.0
220
0.0
230
1.0
 70
     8
 71
     3
 72
    24
 73
    20
 74
     0
 42
0.000000001
 43
0.00000001
 40
0.0
 40
0.0
 40
0.0
 40
0.0
 40
0.2500000000000114
 40
0.2500000000000114
 40
0.3750000000000163
 40
0.3750000000000163
 40
0.4375000000000177
 40
0.4375000000000177
 40
0.4687500000000166
 40
0.4687500000000166
 40
0.5000000000000155
 40
0.5000000000000155
 40
0.5625000000000157
 40
0.5625000000000157
 40
0.6250000000000157
 40
0.6250000000000157
 40
0.7500000000000099
 40
0.7500000000000099
 40
1.0
 40
1.0
 40
1.0
 40
1.0
 10
80.47785706736846
 20
93.22423332165774
 30
0.0
 10
80.49161018603866
 20
93.294883379648
 30
0.0
 10
80.50938275344454
 20
93.36148149241293
 30
0.0
 10
80.56163384499992
 20
93.43557951264614
 30
0.0
 10
80.58266892058147
 20
93.45683731980769
 30
0.0
 10
80.63556932820993
 20
93.46498324595393
 30
0.0
 10
80.65667500108783
 20
93.46404344255815
 30
0.0
 10
80.70272716976578
 20
93.4430274509808
 30
0.0
 10
80.72109764174917
 20
93.43211864487319
 30
0.0
 10
80.76264927681488
 20
93.39948373392582
 30
0.0
 10
80.7852159495718
 20
93.37799175355447
 30
0.0
 10
80.84799696603184
 20
93.30952580996812
 30
0.0
 10
80.88112672699971
 20
93.26345135176304
 30
0.0
 10
80.93804441348473
 20
93.17844346342838
 30
0.0
 10
80.96223043898848
 20
93.138163162247
 30
0.0
 10
81.02743838936824
 20
93.02322693578105
 30
0.0
 10
81.0621544495595
 20
92.95264395063404
 30
0.0
 10
81.15536971989036
 20
92.74843819155544
 30
0.0
 10
81.20104225525104
 20
92.62553980922809
 30
0.0
 10
81.23934733874958
 20
92.50866653284051
 30
0.0
  0
SPLINE
  5
143
330
1F
100
AcDbEntity
  8
0
  6
HIDDEN
 62
     7
370
     0
100
AcDbSpline
210
0.0
220
0.0
230
1.0
 70
     8
 71
     3
 72
     8
 73
     4
 74
     0
 42
0.000000001
 43
0.00000001
 40
0.0
 40
0.0
 40
0.0
 40
0.0
 40
0.0011563724678166
 40
0.0011563724678166
 40
0.0011563724678166
 40
0.0011563724678166
 10
81.41519369264505
 20
125.5389281799088
 30
0.0
 10
81.0818725774479
 20
125.6679872055357
 30
0.0
 10
80.74853989663991
 20
125.7969475417094
 30
0.0
 10
80.41519369264503
 20
125.9258590714825
 30
0.0
  0
SPLINE
  5
144
330
1F
100
AcDbEntity
  8
0
  6
HIDDEN
 62
     7
370
     0
100
AcDbSpline
210
0.0
220
0.0
230
1.0
 70
     8
 71
     3
 72
     8
 73
     4
 74
     0
 42
0.000000001
 43
0.00000001
 40
0.0000000000000001
 40
0.0000000000000001
 40
0.0000000000000001
 40
0.0000000000000001
 40
0.0011557494192775
 40
0.0011557494192775
 40
0.0011557494192775
 40
0.0011557494192775
 10
80.41519369264502
 20
99.8715640039876
 30
0.0
 10
80.74852750265917
 20
100.0031882801825
 30
0.0
 10
81.08186111432184
 20
100.135005193756
 30
0.0
 10
81.41519369264505
 20
100.2670086359189
 30
0.0
  0
SPLINE
  5
145
330
1F
100
AcDbEntity
  8
0
  6
HIDDEN
 62
     7
370
     0
100
AcDbSpline
210
0.0
220
0.0
230
1.0
 70
     8
 71
     3
 72
     8
 73
     4
 74
     0
 42
0.000000001
 43
0.00000001
 40
0.0000000000000006
 40
0.0000000000000006
 40
0.0000000000000006
 40
0.0000000000000006
 40
0.0011560973009451
 40
0.0011560973009451
 40
0.0011560973009451
 40
0.0011560973009451
 10
80.41519369264502
 20
122.8796003597255
 30
0.0
 10
80.74853343023176
 20
122.7548566274522
 30
0.0
 10
81.08186406344039
 20
122.6301754032753
 30
0.0
 10
81.41519369264505
 20
122.505725179944
 30
0.0
  0
SPLINE
  5
146
330
1F
100
AcDbEntity
  8
0
  6
HIDDEN
 62
     7
370
     0
100
AcDbSpline
210
0.0
220
0.0
230
1.0
 70
     8
 71
     3
 72
     8
 73
     4
 74
     0
 42
0.000000001
 43
0.00000001
 40
0.0
 40
0.0
 40
0.0
 40
0.0
 40
0.0011564805411644
 40
0.0011564805411644
 40
0.0011564805411644
 40
0.0011564805411644
 10
81.41519369264505
 20
103.2979590814573
 30
0.0
 10
81.08189172724359
 20
103.1711081410231
 30
0.0
 10
80.74855491033694
 20
103.0445430721608
 30
0.0
 10
80.41519369264508
 20
102.9181430985001
 30
0.0
  0
CIRCLE
  5
147
330
1F
100
AcDbEntity
  8
0
  6
HIDDEN
 62
     7
370
     0
100
AcDbCircle
 10
119.3151936926
 20
112.8987858664
 30
0.0
 40
5.0
  0
LINE
  5
148
330
1F
100
AcDbEntity
  8
0
  6
HIDDEN
 62
     7
370
     0
100
AcDbLine
 10
201.7289353876
 20
137.1987858664
 30
0.0
 11
204.2651936926
 21
137.1987858664
 31
0.0
  0
LINE
  5
149
330
1F
100
AcDbEntity
  8
0
  6
HIDDEN
 62
     7
370
     0
100
AcDbLine
 10
192.2651936926
 20
137.1987858664
 30
0.0
 11
194.8474679739
 21
137.1987858664
 31
0.0
  0
LINE
  5
14A
330
1F
100
AcDbEntity
  8
0
  6
HIDDEN
 62
     7
370
     0
100
AcDbLine
 10
199.2330398457
 20
129.7959001835
 30
0.0
 11
204.2651936926
 21
129.7959001835
 31
0.0
  0
LINE
  5
14B
330
1F
100
AcDbEntity
  8
0
  6
HIDDEN
 62
     7
370
     0
100
AcDbLine
 10
192.2651936926
 20
129.7959001835
 30
0.0
 11
199.2330398457
 21
129.7959001835
 31
0.0
  0
LINE
  5
14C
330
1F
100
AcDbEntity
  8
0
  6
HIDDEN
 62
     7
370
     0
100
AcDbLine
 10
198.8329648146
 20
121.3987858664
 30
0.0
 11
201.7849955963
 21
121.3987858664
 31
0.0
  0
LINE
  5
14D
330
1F
100
AcDbEntity
  8
0
  6
HIDDEN
 62
     7
370
     0
100
AcDbLine
 10
194.745391789
 20
121.3987858664
 30
0.0
 11
198.8329648146
 21
121.3987858664
 31
0.0
  0
SPLINE
  5
14E
330
1F
100
AcDbEntity
  8
0
  6
HIDDEN
 62
     7
370
     0
100
AcDbSpline
210
0.0
220
0.0
230
1.0
 70
     8
 71
     3
 72
    11
 73
     7
 74
     0
 42
0.000000001
 43
0.00000001
 40
0.0
 40
0.0
 40
0.0
 40
0.0
 40
0.2164553779443456
 40
0.4403112895790581
 40
0.7519005688038887
 40
0.9999999999999999
 40
0.9999999999999999
 40
0.9999999999999999
 40
0.9999999999999999
 10
200.4584849229919
 20
137.7628874815762
 30
0.0
 10
200.5424290981345
 20
137.6542293113112
 30
0.0
 10
200.7131874704175
 20
137.4331979859312
 30
0.0
 10
201.030069402643
 20
137.2489680615138
 30
0.0
 10
201.3699821169181
 20
137.360043965613
 30
0.0
 10
201.5875058424386
 20
137.6391604273867
 30
0.0
 10
201.6839300003115
 20
137.7628874815762
 30
0.0
  0
SPLINE
  5
14F
330
1F
100
AcDbEntity
  8
0
  6
HIDDEN
 62
     7
370
     0
100
AcDbSpline
210
0.0
220
0.0
230
1.0
 70
     8
 71
     3
 72
    11
 73
     7
 74
     0
 42
0.000000001
 43
0.00000001
 40
0.0
 40
0.0
 40
0.0
 40
0.0
 40
0.2164553779443427
 40
0.4403112895790632
 40
0.7519005688038894
 40
1.0
 40
1.0
 40
1.0
 40
1.0
 10
201.6839300003115
 20
137.7628874815762
 30
0.0
 10
201.5336874259307
 20
137.6542293113112
 30
0.0
 10
201.2280655360816
 20
137.4331979859312
 30
0.0
 10
200.6609129350645
 20
137.2489680615138
 30
0.0
 10
200.0525400352088
 20
137.3600439656131
 30
0.0
 10
199.6632179118378
 20
137.6391604273867
 30
0.0
 10
199.4906387699648
 20
137.7628874815763
 30
0.0
  0
SPLINE
  5
150
330
1F
100
AcDbEntity
  8
0
  6
HIDDEN
 62
     7
370
     0
100
AcDbSpline
210
0.0
220
0.0
230
1.0
 70
     8
 71
     3
 72
    11
 73
     7
 74
     0
 42
0.000000001
 43
0.00000001
 40
0.0
 40
0.0
 40
0.0
 40
0.0
 40
0.1849308168246294
 40
0.5198464202157614
 40
0.8714438233692644
 40
1.0
 40
1.0
 40
1.0
 40
1.0
 10
199.4906387699648
 20
137.7628874815763
 30
0.0
 10
199.2916516124896
 20
137.6692817989597
 30
0.0
 10
198.7322923707008
 20
137.4061532417208
 30
0.0
 10
197.6881415274358
 20
137.2117480444967
 30
0.0
 10
196.7238255023128
 20
137.4498089004629
 30
0.0
 10
196.2095850484545
 20
137.6967669948439
 30
0.0
 10
196.0719024622983
 20
137.7628874815763
 30
0.0
  0
SPLINE
  5
151
330
1F
100
AcDbEntity
  8
0
  6
HIDDEN
 62
     7
370
     0
100
AcDbSpline
210
0.0
220
0.0
230
1.0
 70
     8
 71
     3
 72
    11
 73
     7
 74
     0
 42
0.000000001
 43
0.00000001
 40
0.0
 40
0.0
 40
0.0
 40
0.0
 40
0.2164553779443353
 40
0.4403112895790576
 40
0.7519005688038756
 40
1.0
 40
1.0
 40
1.0
 40
1.0
 10
196.0719024622983
 20
137.7628874815762
 30
0.0
 10
195.9879582871557
 20
137.6542293113113
 30
0.0
 10
195.8171999148728
 20
137.4331979859312
 30
0.0
 10
195.5003179826472
 20
137.2489680615138
 30
0.0
 10
195.1604052683722
 20
137.3600439656131
 30
0.0
 10
194.9428815428516
 20
137.6391604273867
 30
0.0
 10
194.8464573849786
 20
137.7628874815762
 30
0.0
  0
SPLINE
  5
152
330
1F
100
AcDbEntity
  8
0
  6
HIDDEN
 62
     7
370
     0
100
AcDbSpline
210
0.0
220
0.0
230
1.0
 70
     8
 71
     3
 72
    11
 73
     7
 74
     0
 42
0.000000001
 43
0.00000001
 40
0.0
 40
0.0
 40
0.0
 40
0.0
 40
0.2164553779443465
 40
0.4403112895790573
 40
0.7519005688038737
 40
1.0
 40
1.0
 40
1.0
 40
1.0
 10
194.8464573849786
 20
137.7628874815762
 30
0.0
 10
194.9966999593596
 20
137.6542293113112
 30
0.0
 10
195.3023218492086
 20
137.4331979859312
 30
0.0
 10
195.8694744502257
 20
137.2489680615138
 30
0.0
 10
196.4778473500813
 20
137.360043965613
 30
0.0
 10
196.8671694734525
 20
137.6391604273867
 30
0.0
 10
197.0397486153255
 20
137.7628874815762
 30
0.0
  0
SPLINE
  5
153
330
1F
100
AcDbEntity
  8
0
  6
HIDDEN
 62
     7
370
     0
100
AcDbSpline
210
0.0
220
0.0
230
1.0
 70
     8
 71
     3
 72
    11
 73
     7
 74
     0
 42
0.000000001
 43
0.00000001
 40
0.0
 40
0.0
 40
0.0
 40
0.0
 40
0.1285561766307348
 40
0.4801535797842221
 40
0.8150691831753875
 40
0.9999999999999999
 40
0.9999999999999999
 40
0.9999999999999999
 40
0.9999999999999999
 10
197.0397486153255
 20
137.7628874815762
 30
0.0
 10
197.1774312014817
 20
137.6967669948438
 30
0.0
 10
197.6916716553399
 20
137.4498089004629
 30
0.0
 10
198.6559876804629
 20
137.2117480444966
 30
0.0
 10
199.700138523728
 20
137.4061532417207
 30
0.0
 10
200.2594977655167
 20
137.6692817989596
 30
0.0
 10
200.4584849229919
 20
137.7628874815762
 30
0.0
  0
LINE
  5
154
330
1F
100
AcDbEntity
  8
0
  6
HIDDEN
 62
     7
370
     0
100
AcDbLine
 10
198.7491167692
 20
129.8987858664
 30
0.0
 11
201.2651936926
 21
129.8987858664
 31
0.0
  0
LINE
  5
155
330
1F
100
AcDbEntity
  8
0
  6
HIDDEN
 62
     7
370
     0
100
AcDbLine
 10
195.2651936926
 20
129.8987858664
 30
0.0
 11
198.7491167692
 21
129.8987858664
 31
0.0
  0
LINE
  5
156
330
1F
100
AcDbEntity
  8
0
  6
HIDDEN
 62
     7
370
     0
100
AcDbLine
 10
197.0397486153
 20
130.8987858664
 30
0.0
 11
195.9431030002
 21
130.8987858664
 31
0.0
  0
LINE
  5
157
330
1F
100
AcDbEntity
  8
0
  6
HIDDEN
 62
     7
370
     0
100
AcDbLine
 10
198.7491167692
 20
130.8987858664
 30
0.0
 11
197.0397486153
 21
130.8987858664
 31
0.0
  0
LINE
  5
158
330
1F
100
AcDbEntity
  8
0
  6
HIDDEN
 62
     7
370
     0
100
AcDbLine
 10
197.0397486153
 20
130.8987858664
 30
0.0
 11
197.0397486153
 21
137.7628874816
 31
0.0
  0
LINE
  5
159
330
1F
100
AcDbEntity
  8
0
  6
HIDDEN
 62
     7
370
     0
100
AcDbLine
 10
200.458484923
 20
130.8987858664
 30
0.0
 11
198.7491167692
 21
130.8987858664
 31
0.0
  0
LINE
  5
15A
330
1F
100
AcDbEntity
  8
0
  6
HIDDEN
 62
     7
370
     0
100
AcDbLine
 10
201.0712074617
 20
130.8987858664
 30
0.0
 11
200.458484923
 21
130.8987858664
 31
0.0
  0
LINE
  5
15B
330
1F
100
AcDbEntity
  8
0
  6
HIDDEN
 62
     7
370
     0
100
AcDbLine
 10
200.458484923
 20
130.8987858664
 30
0.0
 11
200.458484923
 21
137.7628874816
 31
0.0
  0
LINE
  5
15C
330
1F
100
AcDbEntity
  8
0
  6
HIDDEN
 62
     7
370
     0
100
AcDbLine
 10
195.9431030002
 20
130.8987858664
 30
0.0
 11
194.846457385
 21
130.8987858664
 31
0.0
  0
LINE
  5
15D
330
1F
100
AcDbEntity
  8
0
  6
HIDDEN
 62
     7
370
     0
100
AcDbLine
 10
201.6839300003
 20
130.8987858664
 30
0.0
 11
201.0712074617
 21
130.8987858664
 31
0.0
  0
LINE
  5
15E
330
1F
100
AcDbEntity
  8
0
  6
HIDDEN
 62
     7
370
     0
100
AcDbLine
 10
196.0719024623
 20
130.8987858664
 30
0.0
 11
196.0719024623
 21
137.7628874816
 31
0.0
  0
LINE
  5
15F
330
1F
100
AcDbEntity
  8
0
  6
HIDDEN
 62
     7
370
     0
100
AcDbLine
 10
194.846457385
 20
130.8987858664
 30
0.0
 11
194.846457385
 21
137.7628874816
 31
0.0
  0
LINE
  5
160
330
1F
100
AcDbEntity
  8
0
  6
HIDDEN
 62
     7
370
     0
100
AcDbLine
 10
199.49063877
 20
130.8987858664
 30
0.0
 11
199.49063877
 21
137.7628874816
 31
0.0
  0
LINE
  5
161
330
1F
100
AcDbEntity
  8
0
  6
HIDDEN
 62
     7
370
     0
100
AcDbLine
 10
201.6839300003
 20
130.8987858664
 30
0.0
 11
201.6839300003
 21
137.7628874816
 31
0.0
  0
LINE
  5
162
330
1F
100
AcDbEntity
  8
0
  6
HIDDEN
 62
     7
370
     0
100
AcDbLine
 10
112.3151936926
 20
87.5748547205
 30
0.0
 11
112.4093544682
 21
88.2448434517
 31
0.0
  0
LINE
  5
163
330
1F
100
AcDbEntity
  8
0
  6
HIDDEN
 62
     7
370
     0
100
AcDbLine
 10
112.4093544682
 20
137.5527282812
 30
0.0
 11
112.3151936926
 21
138.2227170124
 31
0.0
  0
ARC
  5
164
330
1F
100
AcDbEntity
  8
0
  6
HIDDEN
 62
     7
370
     0
100
AcDbCircle
 10
111.81518694
 20
88.328348252
 30
0.0
 40
0.6000067526677242
100
AcDbArc
 50
352.0
 51
0.0
  0
ARC
  5
165
330
1F
100
AcDbEntity
  8
0
  6
HIDDEN
 62
     7
370
     0
100
AcDbCircle
 10
111.81518694
 20
88.328348252
 30
0.0
 40
0.6000067526677242
100
AcDbArc
 50
0.0
 51
33.5571153394
  0
ARC
  5
166
330
1F
100
AcDbEntity
  8
0
  6
HIDDEN
 62
     7
370
     0
100
AcDbCircle
 10
111.81518694
 20
137.4692234808
 30
0.0
 40
0.6000067526677253
100
AcDbArc
 50
348.75
 51
8.0
  0
LWPOLYLINE
  5
167
330
1F
100
AcDbEntity
  8
0
  6
HIDDEN
 62
     7
370
     0
100
AcDbPolyline
 90
        3
 70
   128
 43
0.0
 10
112.4036647311
 20
137.3521679702
 10
112.3695208981
 20
137.2396108373
 10
112.3151936926
 20
137.1375589658
  0
LINE
  5
168
330
1F
100
AcDbEntity
  8
0
  6
HIDDEN
 62
     7
370
     0
100
AcDbLine
 10
112.4151936926
 20
88.328348252
 30
0.0
 11
112.4151936926
 21
137.4692234808
 31
0.0
  0
LINE
  5
169
330
1F
100
AcDbEntity
  8
0
  6
HIDDEN
 62
     7
370
     0
100
AcDbLine
 10
95.3976292579
 20
92.8987858664
 30
0.0
 11
99.5751658343
 21
92.8987858664
 31
0.0
  0
LINE
  5
16A
330
1F
100
AcDbEntity
  8
0
  6
HIDDEN
 62
     7
370
     0
100
AcDbLine
 10
99.5751658343
 20
132.8987858664
 30
0.0
 11
95.3976292579
 21
132.8987858664
 31
0.0
  0
ARC
  5
16B
330
1F
100
AcDbEntity
  8
0
  6
HIDDEN
 62
     7
370
     0
100
AcDbCircle
 10
106.0701956942
 20
100.8987858664
 30
0.0
 40
8.000000000000025
100
AcDbArc
 50
277.0522505187
 51
321.3178125465
  0
ARC
  5
16C
330
1F
100
AcDbEntity
  8
0
  6
HIDDEN
 62
     7
370
     0
100
AcDbCircle
 10
106.0701956942
 20
124.8987858664
 30
0.0
 40
8.000000000000016
100
AcDbArc
 50
38.6821874535
 51
82.9386025247
  0
ARC
  5
16D
330
1F
100
AcDbEntity
  8
0
  6
HIDDEN
 62
     7
370
     0
100
AcDbCircle
 10
95.3976292579
 20
93.4987858664
 30
0.0
 40
0.6000000000000085
100
AcDbArc
 50
210.0
 51
270.0
  0
ARC
  5
16E
330
1F
100
AcDbEntity
  8
0
  6
HIDDEN
 62
     7
370
     0
100
AcDbCircle
 10
95.3976292579
 20
132.2987858664
 30
0.0
 40
0.6000000000000032
100
AcDbArc
 50
90.0
 51
150.0
  0
LINE
  5
16F
330
1F
100
AcDbEntity
  8
0
  6
HIDDEN
 62
     7
370
     0
100
AcDbLine
 10
94.8780140157
 20
132.5987858664
 30
0.0
 11
93.3191682889
 21
129.8987858664
 31
0.0
  0
LINE
  5
170
330
1F
100
AcDbEntity
  8
0
  6
HIDDEN
 62
     7
370
     0
100
AcDbLine
 10
93.3191682889
 20
95.8987858664
 30
0.0
 11
94.8780140157
 21
93.1987858664
 31
0.0
  0
ARC
  5
171
330
1F
100
AcDbEntity
  8
0
  6
HIDDEN
 62
     7
370
     0
100
AcDbCircle
 10
120.7651936926
 20
97.1737858664
 30
0.0
 40
1.500000000000001
100
AcDbArc
 50
238.2116693829
 51
0.0
  0
ARC
  5
172
330
1F
100
AcDbEntity
  8
0
  6
HIDDEN
 62
     7
370
     0
100
AcDbCircle
 10
120.7651936926
 20
128.6237858664
 30
0.0
 40
1.500000000000001
100
AcDbArc
 50
0.0
 51
121.7883306171
  0
LINE
  5
173
330
1F
100
AcDbEntity
  8
0
  6
HIDDEN
 62
     7
370
     0
100
AcDbLine
 10
112.3151936926
 20
95.8987858664
 30
0.0
 11
119.9750196612
 21
95.8987858664
 31
0.0
  0
LINE
  5
174
330
1F
100
AcDbEntity
  8
0
  6
HIDDEN
 62
     7
370
     0
100
AcDbLine
 10
119.9750196612
 20
129.8987858664
 30
0.0
 11
112.3151936926
 21
129.8987858664
 31
0.0
  0
LINE
  5
175
330
1F
100
AcDbEntity
  8
0
  6
HIDDEN
 62
     7
370
     0
100
AcDbLine
 10
90.5151936926
 20
95.8987858664
 30
0.0
 11
93.3191682889
 21
95.8987858664
 31
0.0
  0
LINE
  5
176
330
1F
100
AcDbEntity
  8
0
  6
HIDDEN
 62
     7
370
     0
100
AcDbLine
 10
93.3191682889
 20
129.8987858664
 30
0.0
 11
86.5151936926
 21
129.8987858664
 31
0.0
  0
ARC
  5
177
330
1F
100
AcDbEntity
  8
0
  6
HIDDEN
 62
     7
370
     0
100
AcDbCircle
 10
211.3151936926
 20
127.8987858664
 30
0.0
 40
1.0
100
AcDbArc
 50
270.0
 51
0.0
  0
ARC
  5
178
330
1F
100
AcDbEntity
  8
0
  6
HIDDEN
 62
     7
370
     0
100
AcDbCircle
 10
211.3151936926
 20
97.8987858664
 30
0.0
 40
1.0
100
AcDbArc
 50
0.0
 51
90.0
  0
ARC
  5
179
330
1F
100
AcDbEntity
  8
0
  6
HIDDEN
 62
     7
370
     0
100
AcDbCircle
 10
186.6835411951
 20
126.3987858664
 30
0.0
 40
1.000000000000024
100
AcDbArc
 50
75.0
 51
90.0
  0
ARC
  5
17A
330
1F
100
AcDbEntity
  8
0
  6
HIDDEN
 62
     7
370
     0
100
AcDbCircle
 10
186.6835411951
 20
99.3987858664
 30
0.0
 40
1.00000000000001
100
AcDbArc
 50
270.0
 51
285.0
  0
LINE
  5
17B
330
1F
100
AcDbEntity
  8
0
  6
HIDDEN
 62
     7
370
     0
100
AcDbLine
 10
186.6835411951
 20
127.3987858664
 30
0.0
 11
184.8151936926
 21
127.3987858664
 31
0.0
  0
LINE
  5
17C
330
1F
100
AcDbEntity
  8
0
  6
HIDDEN
 62
     7
370
     0
100
AcDbLine
 10
184.8151936926
 20
98.3987858664
 30
0.0
 11
186.6835411951
 21
98.3987858664
 31
0.0
  0
ARC
  5
17D
330
1F
100
AcDbEntity
  8
0
  6
HIDDEN
 62
     7
370
     0
100
AcDbCircle
 10
184.8151936926
 20
126.3987858664
 30
0.0
 40
1.0
100
AcDbArc
 50
90.0
 51
180.0
  0
ARC
  5
17E
330
1F
100
AcDbEntity
  8
0
  6
HIDDEN
 62
     7
370
     0
100
AcDbCircle
 10
184.8151936926
 20
99.3987858664
 30
0.0
 40
1.0
100
AcDbArc
 50
180.0
 51
270.0
  0
LINE
  5
17F
330
1F
100
AcDbEntity
  8
0
  6
HIDDEN
 62
     7
370
     0
100
AcDbLine
 10
186.9423602402
 20
98.4328600401
 30
0.0
 11
188.6812190964
 21
98.8987858664
 31
0.0
  0
LINE
  5
180
330
1F
100
AcDbEntity
  8
0
  6
HIDDEN
 62
     7
370
     0
100
AcDbLine
 10
188.6812190964
 20
126.8987858664
 30
0.0
 11
186.9423602402
 21
127.3647116927
 31
0.0
  0
LINE
  5
181
330
1F
100
AcDbEntity
  8
0
  6
HIDDEN
 62
     7
370
     0
100
AcDbLine
 10
192.7807252125
 20
126.8987858664
 30
0.0
 11
188.6812190964
 21
126.8987858664
 31
0.0
  0
LINE
  5
182
330
1F
100
AcDbEntity
  8
0
  6
HIDDEN
 62
     7
370
     0
100
AcDbLine
 10
211.3151936926
 20
126.8987858664
 30
0.0
 11
203.7640667165
 21
126.8987858664
 31
0.0
  0
LINE
  5
183
330
1F
100
AcDbEntity
  8
0
  6
HIDDEN
 62
     7
370
     0
100
AcDbLine
 10
188.6812190964
 20
98.8987858664
 30
0.0
 11
211.3151936926
 21
98.8987858664
 31
0.0
  0
LINE
  5
184
330
1F
100
AcDbEntity
  8
0
  6
HIDDEN
 62
     7
370
     0
100
AcDbLine
 10
131.1151936926
 20
103.3987858664
 30
0.0
 11
134.1151936926
 21
103.3987858664
 31
0.0
  0
LINE
  5
185
330
1F
100
AcDbEntity
  8
0
  6
HIDDEN
 62
     7
370
     0
100
AcDbLine
 10
134.1151936926
 20
122.3987858664
 30
0.0
 11
131.1151936926
 21
122.3987858664
 31
0.0
  0
LINE
  5
186
330
1F
100
AcDbEntity
  8
0
  6
HIDDEN
 62
     7
370
     0
100
AcDbLine
 10
122.2651936926
 20
103.8987858664
 30
0.0
 11
122.7651936926
 21
104.3987858664
 31
0.0
  0
LINE
  5
187
330
1F
100
AcDbEntity
  8
0
  6
HIDDEN
 62
     7
370
     0
100
AcDbLine
 10
122.7651936926
 20
121.3987858664
 30
0.0
 11
122.2651936926
 21
121.8987858664
 31
0.0
  0
LINE
  5
188
330
1F
100
AcDbEntity
  8
0
  6
HIDDEN
 62
     7
370
     0
100
AcDbLine
 10
122.7651936926
 20
104.3987858664
 30
0.0
 11
131.1151936926
 21
104.3987858664
 31
0.0
  0
LINE
  5
189
330
1F
100
AcDbEntity
  8
0
  6
HIDDEN
 62
     7
370
     0
100
AcDbLine
 10
131.1151936926
 20
121.3987858664
 30
0.0
 11
122.7651936926
 21
121.3987858664
 31
0.0
  0
LINE
  5
18A
330
1F
100
AcDbEntity
  8
0
  6
HIDDEN
 62
     7
370
     0
100
AcDbLine
 10
117.2651936926
 20
144.3987858664
 30
0.0
 11
117.2651936926
 21
139.2987858664
 31
0.0
  0
LINE
  5
18B
330
1F
100
AcDbEntity
  8
0
  6
HIDDEN
 62
     7
370
     0
100
AcDbLine
 10
190.7651936926
 20
137.8987858664
 30
0.0
 11
192.7651936926
 21
135.8987858664
 31
0.0
  0
LINE
  5
18C
330
1F
100
AcDbEntity
  8
0
  6
HIDDEN
 62
     7
370
     0
100
AcDbLine
 10
203.7651936926
 20
135.8987858664
 30
0.0
 11
205.7651936926
 21
137.8987858664
 31
0.0
  0
LINE
  5
18D
330
1F
100
AcDbEntity
  8
0
  6
HIDDEN
 62
     7
370
     0
100
AcDbLine
 10
192.7651936926
 20
135.8987858664
 30
0.0
 11
192.7651936926
 21
126.8926994731
 31
0.0
  0
LINE
  5
18E
330
1F
100
AcDbEntity
  8
0
  6
HIDDEN
 62
     7
370
     0
100
AcDbLine
 10
203.7651936926
 20
126.8983442162
 30
0.0
 11
203.7651936926
 21
135.8987858664
 31
0.0
  0
LINE
  5
18F
330
1F
100
AcDbEntity
  8
0
  6
HIDDEN
 62
     7
370
     0
100
AcDbLine
 10
107.4996315231
 20
88.8194145329
 30
0.0
 11
107.0651993736
 21
89.298480552
 31
0.0
  0
LINE
  5
190
330
1F
100
AcDbEntity
  8
0
  6
HIDDEN
 62
     7
370
     0
100
AcDbLine
 10
99.5651960486
 20
89.7201685111
 30
0.0
 11
99.0827623052
 21
89.2411025357
 31
0.0
  0
LINE
  5
191
330
1F
100
AcDbEntity
  8
0
  6
HIDDEN
 62
     7
370
     0
100
AcDbLine
 10
99.082640377
 20
136.5564639068
 30
0.0
 11
99.5651911279
 21
136.0773436489
 31
0.0
  0
LINE
  5
192
330
1F
100
AcDbEntity
  8
0
  6
HIDDEN
 62
     7
370
     0
100
AcDbLine
 10
107.0651935746
 20
136.4990414265
 30
0.0
 11
107.499735965
 21
136.9781616771
 31
0.0
  0
LINE
  5
193
330
1F
100
AcDbEntity
  8
0
  6
HIDDEN
 62
     7
370
     0
100
AcDbLine
 10
134.1151936926
 20
108.6987858664
 30
0.0
 11
183.8151936926
 21
108.6987858664
 31
0.0
  0
LINE
  5
194
330
1F
100
AcDbEntity
  8
0
  6
HIDDEN
 62
     7
370
     0
100
AcDbLine
 10
183.8151936926
 20
117.0987858664
 30
0.0
 11
134.1151936926
 21
117.0987858664
 31
0.0
  0
LINE
  5
195
330
1F
100
AcDbEntity
  8
0
  6
HIDDEN
 62
     7
370
     0
100
AcDbLine
 10
107.0651936926
 20
89.2989644537
 30
0.0
 11
107.0651936926
 21
92.9617130404
 31
0.0
  0
LINE
  5
196
330
1F
100
AcDbEntity
  8
0
  6
HIDDEN
 62
     7
370
     0
100
AcDbLine
 10
99.5651936926
 20
92.900648112
 30
0.0
 11
99.5651936926
 21
89.7204917489
 31
0.0
  0
LINE
  5
197
330
1F
100
AcDbEntity
  8
0
  6
HIDDEN
 62
     7
370
     0
100
AcDbLine
 10
107.0651936926
 20
132.8358586925
 30
0.0
 11
107.0651936926
 21
136.4987501204
 31
0.0
  0
LINE
  5
198
330
1F
100
AcDbEntity
  8
0
  6
HIDDEN
 62
     7
370
     0
100
AcDbLine
 10
99.5651936926
 20
136.0771998696
 30
0.0
 11
99.5651936926
 21
132.8969236209
 31
0.0
  0
LINE
  5
199
330
1F
100
AcDbEntity
  8
0
  6
HIDDEN
 62
     7
370
     0
100
AcDbLine
 10
204.2651936926
 20
137.1987858664
 30
0.0
 11
203.9389994599
 21
137.5249800992
 31
0.0
  0
LINE
  5
19A
330
1F
100
AcDbEntity
  8
0
  6
HIDDEN
 62
     7
370
     0
100
AcDbLine
 10
192.5922851108
 20
137.5258772846
 30
0.0
 11
192.2651936926
 21
137.1987858664
 31
0.0
  0
LINE
  5
19B
330
1F
100
AcDbEntity
  8
0
  6
HIDDEN
 62
     7
370
     0
100
AcDbLine
 10
192.2651936926
 20
137.1987858664
 30
0.0
 11
192.2651936926
 21
129.7959001835
 31
0.0
  0
LINE
  5
19C
330
1F
100
AcDbEntity
  8
0
  6
HIDDEN
 62
     7
370
     0
100
AcDbLine
 10
204.2651936926
 20
129.7959001835
 30
0.0
 11
204.2651936926
 21
137.1987858664
 31
0.0
  0
LINE
  5
19D
330
1F
100
AcDbEntity
  8
0
  6
HIDDEN
 62
     7
370
     0
100
AcDbLine
 10
192.2651936926
 20
129.7959001835
 30
0.0
 11
194.4556140412
 21
121.6211401529
 31
0.0
  0
LINE
  5
19E
330
1F
100
AcDbEntity
  8
0
  6
HIDDEN
 62
     7
370
     0
100
AcDbLine
 10
202.0747733441
 20
121.6211401529
 30
0.0
 11
204.2651936926
 21
129.7959001835
 31
0.0
  0
ARC
  5
19F
330
1F
100
AcDbEntity
  8
0
  6
HIDDEN
 62
     7
370
     0
100
AcDbCircle
 10
194.745391789
 20
121.6987858664
 30
0.0
 40
0.2999999999999972
100
AcDbArc
 50
195.0
 51
270.0
  0
ARC
  5
1A0
330
1F
100
AcDbEntity
  8
0
  6
HIDDEN
 62
     7
370
     0
100
AcDbCircle
 10
201.7849955963
 20
121.6987858664
 30
0.0
 40
0.2999999999999972
100
AcDbArc
 50
270.0
 51
345.0
  0
LINE
  5
1A1
330
1F
100
AcDbEntity
  8
0
  6
HIDDEN
 62
     7
370
     0
100
AcDbLine
 10
194.6651936926
 20
137.8987858664
 30
0.0
 11
195.0488264946
 21
137.5151530645
 31
0.0
  0
LINE
  5
1A2
330
1F
100
AcDbEntity
  8
0
  6
HIDDEN
 62
     7
370
     0
100
AcDbLine
 10
201.4815608907
 20
137.5151530645
 30
0.0
 11
201.8651936926
 21
137.8987858664
 31
0.0
  0
LINE
  5
1A3
330
1F
100
AcDbEntity
  8
0
  6
HIDDEN
 62
     7
370
     0
100
AcDbLine
 10
195.2651936926
 20
130.8987858664
 30
0.0
 11
195.2651936926
 21
129.8987858664
 31
0.0
  0
LINE
  5
1A4
330
1F
100
AcDbEntity
  8
0
  6
HIDDEN
 62
     7
370
     0
100
AcDbLine
 10
201.2651936926
 20
129.8987858664
 30
0.0
 11
201.2651936926
 21
130.8987858664
 31
0.0
  0
LINE
  5
1A5
330
1F
100
AcDbEntity
  8
0
  6
HIDDEN
 62
     7
370
     0
100
AcDbLine
 10
195.2651936926
 20
129.8987858664
 30
0.0
 11
198.2651936926
 21
128.8068751636
 31
0.0
  0
LINE
  5
1A6
330
1F
100
AcDbEntity
  8
0
  6
HIDDEN
 62
     7
370
     0
100
AcDbLine
 10
198.2651936926
 20
128.8068751636
 30
0.0
 11
201.2651936926
 21
129.8987858664
 31
0.0
  0
DIMENSION
  5
1A7
330
1F
100
AcDbEntity
  8
VERMASSUNG
100
AcDbDimension
  2
_D
 10
72.1837221886
 20
81.3987858664
 30
0.0
 11
72.1837221886
 21
112.8987858664
 31
0.0
 70
   160
  1
HSK A %%c<>
 71
     2
 42
-1.0
  3
SLDDIMSTYLE0
100
AcDbAlignedDimension
 13
112.6151936926
 23
144.3987858664
 33
0.0
 14
112.6151936926
 24
81.3987858664
 34
0.0
 50
90.0
100
AcDbRotatedDimension
  0
DIMENSION
  5
1B4
330
1F
100
AcDbEntity
  8
VERMASSUNG
100
AcDbDimension
  2
_D_1
 10
212.3151936926
 20
149.5747033746
 30
0.0
 11
175.2901936926
 21
149.5747033746
 31
0.0
 70
   160
  1
(<>)
 71
     2
 42
-1.0
  3
SLDDIMSTYLE0
100
AcDbAlignedDimension
 13
138.2651936926
 23
142.7452261902
 33
0.0
 14
212.3151936926
 24
137.3987858664
 34
0.0
100
AcDbRotatedDimension
  0
DIMENSION
  5
1C0
330
1F
100
AcDbEntity
  8
VERMASSUNG
100
AcDbDimension
  2
_D_2
 10
112.3151936926
 20
155.5747033746
 30
0.0
 11
162.3151936926
 21
155.5747033746
 31
0.0
 70
   160
  1
<>
 71
     2
 42
-1.0
  3
SLDDIMSTYLE0
100
AcDbAlignedDimension
 13
212.3151936926
 23
137.3987858664
 33
0.0
 14
112.3151936926
 24
144.0987858664
 34
0.0
100
AcDbRotatedDimension
  0
DIMENSION
  5
1CA
330
1F
100
AcDbEntity
  8
VERMASSUNG
100
AcDbDimension
  2
_D_3
 10
80.4151936926
 20
161.5747033746
 30
0.0
 11
146.3651936926
 21
161.5747033746
 31
0.0
 70
   160
  1
(<>)
 71
     2
 42
-1.0
  3
SLDDIMSTYLE0
100
AcDbAlignedDimension
 13
212.3151936926
 23
137.3987858664
 33
0.0
 14
80.4151936926
 24
132.5894636129
 34
0.0
100
AcDbRotatedDimension
  0
DIMENSION
  5
1D6
330
1F
100
AcDbEntity
  8
VERMASSUNG
100
AcDbDimension
  2
_D_4
 10
219.8598591491
 20
98.8987858664
 30
0.0
 11
219.8598591491
 21
112.8987858664
 31
0.0
 70
   160
  1
%%c<>
 71
     2
 42
-1.0
  3
SLDDIMSTYLE0
100
AcDbAlignedDimension
 13
211.3151936926
 23
126.8987858664
 33
0.0
 14
211.3151936926
 24
98.8987858664
 34
0.0
 50
90.0
100
AcDbRotatedDimension
  0
DIMENSION
  5
1E1
330
1F
100
AcDbEntity
  8
VERMASSUNG
100
AcDbDimension
  2
_D_5
 10
225.8598591491
 20
87.8987858664
 30
0.0
 11
225.8598591491
 21
112.8987858664
 31
0.0
 70
   160
  1
WH%%c<>
 71
     2
 42
-1.0
  3
SLDDIMSTYLE0
100
AcDbAlignedDimension
 13
211.8151936926
 23
137.8987858664
 33
0.0
 14
211.8151936926
 24
87.8987858664
 34
0.0
 50
90.0
100
AcDbRotatedDimension
  0
LINE
  5
1ED
330
1F
100
AcDbEntity
  8
VERMASSUNG
  6
CENTERX2
370
     0
100
AcDbLine
 10
79.2512541618
 20
112.8987858664
 30
0.0
 11
213.6072733041
 21
112.8987858664
 31
0.0
  0
LINE
  5
1EE
330
1F
100
AcDbEntity
  8
0
  6
Continuous
 62
     7
370
    15
100
AcDbLine
 10
275.2859024624
 20
20.5932098527
 30
0.0
 11
275.4626504265
 21
20.6952774529
 31
0.0
  0
LINE
  5
1EF
330
1F
100
AcDbEntity
  8
0
  6
Continuous
 62
     7
370
    15
100
AcDbLine
 10
284.123300668
 20
35.6975892294
 30
0.0
 11
284.123300668
 21
35.9016912574
 31
0.0
  0
LINE
  5
1F0
330
1F
100
AcDbEntity
  8
0
  6
Continuous
 62
     7
370
    15
100
AcDbLine
 10
281.5339579821
 20
41.6247513383
 30
0.0
 11
256.5907662758
 21
56.0241494105
 31
0.0
  0
LINE
  5
1F1
330
1F
100
AcDbEntity
  8
0
  6
Continuous
 62
     7
370
    15
100
AcDbLine
 10
244.0917821178
 20
34.372927851
 30
0.0
 11
269.0349738242
 21
19.9735297787
 31
0.0
  0
SPLINE
  5
1F2
330
1F
100
AcDbEntity
  8
0
  6
Continuous
 62
     7
370
    15
100
AcDbSpline
210
0.0
220
0.0
230
1.0
 70
     8
 71
     3
 72
    27
 73
    23
 74
     0
 42
0.000000001
 43
0.00000001
 40
0.0
 40
0.0
 40
0.0
 40
0.0
 40
0.0403024181168332
 40
0.096457168421229
 40
0.1512036792991024
 40
0.204331382066998
 40
0.2564556036079393
 40
0.308131007025779
 40
0.3596811720884113
 40
0.4112335584117428
 40
0.4628633023362829
 40
0.5145935313151871
 40
0.5664165126601008
 40
0.6183104152276859
 40
0.6702474806411189
 40
0.7221976461505365
 40
0.7741236963925627
 40
0.8259901864859626
 40
0.8777660853234213
 40
0.929422690810485
 40
0.9809385451358976
 40
1.0
 40
1.0
 40
1.0
 40
1.0
 10
271.6101735982153
 20
24.84973694193656
 30
0.0
 10
271.5143436458388
 20
24.90665699732226
 30
0.0
 10
271.2849905129976
 20
25.04288573061983
 30
0.0
 10
270.986275843685
 20
25.3657344102268
 30
0.0
 10
270.7103419558182
 20
25.80009861094527
 30
0.0
 10
270.5033481109935
 20
26.31611461281223
 30
0.0
 10
270.3654574451429
 20
26.89999209789895
 30
0.0
 10
270.298716116154
 20
27.54507369039406
 30
0.0
 10
270.304487346641
 20
28.24260727232693
 30
0.0
 10
270.3837166324791
 20
28.9826097596066
 30
0.0
 10
270.5361661331401
 20
29.75369809794113
 30
0.0
 10
270.7603258968565
 20
30.54378478800158
 30
0.0
 10
271.0533234171444
 20
31.34022155987343
 30
0.0
 10
271.410954335287
 20
32.13013647737916
 30
0.0
 10
271.827769082935
 20
32.90074286348229
 30
0.0
 10
272.2971605137216
 20
33.63955683170078
 30
0.0
 10
272.8114787700309
 20
34.33468121631504
 30
0.0
 10
273.3621401191293
 20
34.97490535043889
 30
0.0
 10
273.9398515818394
 20
35.5504820877308
 30
0.0
 10
274.5344765422025
 20
36.05133612468478
 30
0.0
 10
275.0103973599896
 20
36.38620736967116
 30
0.0
 10
275.2838224844654
 20
36.5484144823612
 30
0.0
 10
275.3576688910337
 20
36.59222323042319
 30
0.0
  0
SPLINE
  5
1F3
330
1F
100
AcDbEntity
  8
0
  6
Continuous
 62
     7
370
    15
100
AcDbSpline
210
0.0
220
0.0
230
1.0
 70
     8
 71
     3
 72
    14
 73
    10
 74
     0
 42
0.000000001
 43
0.00000001
 40
0.0
 40
0.0
 40
0.0
 40
0.0
 40
0.0822769690047621
 40
0.2392849944822048
 40
0.3962036218668058
 40
0.5534986120069556
 40
0.7122457569440781
 40
0.8741536765700043
 40
1.0
 40
1.0
 40
1.0
 40
1.0
 10
275.3576688910337
 20
36.59222323042319
 30
0.0
 10
275.4614444121435
 20
36.64983829265882
 30
0.0
 10
275.7632533545064
 20
36.81739939773969
 30
0.0
 10
276.2546533148616
 20
37.02740559648203
 30
0.0
 10
276.8154952350245
 20
37.18944059248419
 30
0.0
 10
277.3441654359148
 20
37.25961300974637
 30
0.0
 10
277.8325883553434
 20
37.23788745423636
 30
0.0
 10
278.247833170152
 20
37.14683419414747
 30
0.0
 10
278.47681112451
 20
37.02372889875807
 30
0.0
 10
278.5769522497858
 20
36.9698900790243
 30
0.0
  0
LINE
  5
1F4
330
1F
100
AcDbEntity
  8
0
  6
Continuous
 62
     7
370
    15
100
AcDbLine
 10
232.3376095368
 20
37.4057921492
 30
0.0
 11
237.3962751971
 21
34.485486624
 31
0.0
  0
LINE
  5
1F5
330
1F
100
AcDbEntity
  8
0
  6
Continuous
 62
     7
370
    15
100
AcDbLine
 10
250.2695061432
 20
63.4260103085
 30
0.0
 11
248.0863295758
 21
64.6863313142
 31
0.0
  0
SPLINE
  5
1F6
330
1F
100
AcDbEntity
  8
0
  6
Continuous
 62
     7
370
    15
100
AcDbSpline
210
0.0
220
0.0
230
1.0
 70
     8
 71
     3
 72
    12
 73
     8
 74
     0
 42
0.000000001
 43
0.00000001
 40
0.0
 40
0.0
 40
0.0
 40
0.0
 40
0.1187173488704975
 40
0.3702624775801889
 40
0.6227306838896594
 40
0.8758947301463327
 40
1.0
 40
1.0
 40
1.0
 40
1.0
 10
244.1451246798322
 20
31.54173081257666
 30
0.0
 10
244.2768325143469
 20
31.53834794370215
 30
0.0
 10
244.6876104637211
 20
31.52779725820655
 30
0.0
 10
245.4103335642721
 20
31.61670284343866
 30
0.0
 10
246.305828588931
 20
31.80873798053149
 30
0.0
 10
247.0648329714759
 20
32.03889388972214
 30
0.0
 10
247.5256942884125
 20
32.23766625737488
 30
0.0
 10
247.6772977071406
 20
32.30305375981302
 30
0.0
  0
LINE
  5
1F7
330
1F
100
AcDbEntity
  8
0
  6
Continuous
 62
     7
370
    15
100
AcDbLine
 10
239.7947339035
 20
33.1008858848
 30
0.0
 11
241.1941219712
 21
32.2930363489
 31
0.0
  0
LINE
  5
1F8
330
1F
100
AcDbEntity
  8
0
  6
Continuous
 62
     7
370
    15
100
AcDbLine
 10
240.9100361141
 20
64.2756536759
 30
0.0
 11
234.7196533291
 21
67.3598731148
 31
0.0
  0
LINE
  5
1F9
330
1F
100
AcDbEntity
  8
0
  6
Continuous
 62
     7
370
    15
100
AcDbLine
 10
223.337955516
 20
47.6440579764
 30
0.0
 11
233.1334379837
 21
41.1578963285
 31
0.0
  0
SPLINE
  5
1FA
330
1F
100
AcDbEntity
  8
0
  6
Continuous
 62
     7
370
    15
100
AcDbSpline
210
0.0
220
0.0
230
1.0
 70
     8
 71
     3
 72
    10
 73
     6
 74
     0
 42
0.000000001
 43
0.00000001
 40
0.0
 40
0.0
 40
0.0
 40
0.0
 40
0.0348630152143177
 40
0.6297955295302642
 40
1.0
 40
1.0
 40
1.0
 40
1.0
 10
258.6585398875277
 20
58.03109153825326
 30
0.0
 10
258.649613789567
 20
58.04459629340393
 30
0.0
 10
258.4883650691902
 20
58.2885578202258
 30
0.0
 10
258.1827735402861
 20
58.61877673830384
 30
0.0
 10
257.8616188165568
 20
58.89776726368187
 30
0.0
 10
257.7384312107441
 20
59.00478164748624
 30
0.0
  0
SPLINE
  5
1FB
330
1F
100
AcDbEntity
  8
0
  6
Continuous
 62
     7
370
    15
100
AcDbSpline
210
0.0
220
0.0
230
1.0
 70
     8
 71
     3
 72
    11
 73
     7
 74
     0
 42
0.000000001
 43
0.00000001
 40
0.0
 40
0.0
 40
0.0
 40
0.0
 40
0.1526263877253758
 40
0.4412715536776326
 40
0.7294839293308576
 40
1.0
 40
1.0
 40
1.0
 40
1.0
 10
259.9328392734043
 20
55.28424076472032
 30
0.0
 10
259.8889905690705
 20
55.44385687975981
 30
0.0
 10
259.7622157290414
 20
55.90533704793491
 30
0.0
 10
259.492696536178
 20
56.61623603724802
 30
0.0
 10
259.1159397589489
 20
57.38070154211101
 30
0.0
 10
258.8077528318476
 20
57.81892137305611
 30
0.0
 10
258.6585398875277
 20
58.03109153825326
 30
0.0
  0
SPLINE
  5
1FC
330
1F
100
AcDbEntity
  8
0
  6
Continuous
 62
     7
370
    15
100
AcDbSpline
210
0.0
220
0.0
230
1.0
 70
     8
 71
     3
 72
    27
 73
    23
 74
     0
 42
0.000000001
 43
0.00000001
 40
0.0
 40
0.0
 40
0.0
 40
0.0
 40
0.0013000211134387
 40
0.0538937227925974
 40
0.1065610308464723
 40
0.1596380518139674
 40
0.2133201281994832
 40
0.267628632168064
 40
0.3224488917854233
 40
0.3776074705783173
 40
0.4329412411903485
 40
0.4883265115172221
 40
0.5436826534602275
 40
0.5989845905613522
 40
0.6542271010315199
 40
0.7094161434464956
 40
0.7645635275411666
 40
0.8196839438402808
 40
0.8747934456626368
 40
0.9299087456671088
 40
0.9850414025635982
 40
1.0
 40
1.0
 40
1.0
 40
1.0
 10
234.6560257909598
 20
67.38945160723499
 30
0.0
 10
234.6512018641499
 20
67.39224036944927
 30
0.0
 10
234.4512209780132
 20
67.50785139772957
 30
0.0
 10
234.0080468297934
 20
67.64813778380478
 30
0.0
 10
233.3326200097776
 20
67.79944736709741
 30
0.0
 10
232.6142326472031
 20
67.83969162461842
 30
0.0
 10
231.8657000619532
 20
67.78279966186169
 30
0.0
 10
231.0906340093174
 20
67.62444294376232
 30
0.0
 10
230.2968286085085
 20
67.36634112647994
 30
0.0
 10
229.4923277388678
 20
67.01041499395929
 30
0.0
 10
228.6857360854038
 20
66.56054242778369
 30
0.0
 10
227.8854404267749
 20
66.02179206226114
 30
0.0
 10
227.099346754373
 20
65.4001437977506
 30
0.0
 10
226.3348410324012
 20
64.70217192420024
 30
0.0
 10
225.5988406614301
 20
63.93489594147361
 30
0.0
 10
224.897999440535
 20
63.10580997162701
 30
0.0
 10
224.2384985302298
 20
62.22286544068824
 30
0.0
 10
223.6268027234841
 20
61.29437540861676
 30
0.0
 10
223.0667006483837
 20
60.32915894806521
 30
0.0
 10
222.5701698356389
 20
59.33575813956708
 30
0.0
 10
222.226888207604
 20
58.57078168650012
 30
0.0
 10
222.0729288272158
 20
58.13884107842674
 30
0.0
 10
222.040071427035
 20
58.04665802742986
 30
0.0
  0
LINE
  5
1FD
330
1F
100
AcDbEntity
  8
0
  6
Continuous
 62
     7
370
    15
100
AcDbLine
 10
222.1537697941
 20
56.2001980693
 30
0.0
 11
224.7073296928
 21
54.7260593178
 31
0.0
  0
LINE
  5
1FE
330
1F
100
AcDbEntity
  8
0
  6
Continuous
 62
     7
370
    15
100
AcDbLine
 10
221.8554775167
 20
57.3285077867
 30
0.0
 11
221.8554775167
 21
56.8631017029
 31
0.0
  0
LINE
  5
1FF
330
1F
100
AcDbEntity
  8
0
  6
Continuous
 62
     7
370
    15
100
AcDbLine
 10
221.8554775167
 20
49.8571593579
 30
0.0
 11
221.8554775167
 21
49.3917532741
 31
0.0
  0
SPLINE
  5
200
330
1F
100
AcDbEntity
  8
0
  6
Continuous
 62
     7
370
    15
100
AcDbSpline
210
0.0
220
0.0
230
1.0
 70
     8
 71
     3
 72
    11
 73
     7
 74
     0
 42
0.000000001
 43
0.00000001
 40
0.0
 40
0.0
 40
0.0
 40
0.0
 40
0.2559621575050952
 40
0.6007766703699854
 40
0.9411930391302444
 40
1.0
 40
1.0
 40
1.0
 40
1.0
 10
221.9716304752565
 20
49.10516689426152
 30
0.0
 10
222.0667149963005
 20
48.95023853384116
 30
0.0
 10
222.2898908067927
 20
48.58660140315563
 30
0.0
 10
222.7314285735654
 20
48.11719835117273
 30
0.0
 10
223.1085148648264
 20
47.77867218558315
 30
0.0
 10
223.342171116384
 20
47.64750731384663
 30
0.0
 10
223.3765894807994
 20
47.62818627996106
 30
0.0
  0
LINE
  5
201
330
1F
100
AcDbEntity
  8
0
  6
Continuous
 62
     7
370
    15
100
AcDbLine
 10
274.332222179
 20
33.6210294838
 30
0.0
 11
276.8975286139
 21
34.1436914587
 31
0.0
  0
LINE
  5
202
330
1F
100
AcDbEntity
  8
0
  6
Continuous
 62
     7
370
    15
100
AcDbLine
 10
272.6154824944
 20
44.7101070517
 30
0.0
 11
272.3679549071
 21
44.853048135
 31
0.0
  0
LINE
  5
203
330
1F
100
AcDbEntity
  8
0
  6
Continuous
 62
     7
370
    15
100
AcDbLine
 10
268.6196800142
 20
44.853048135
 30
0.0
 11
268.3721524269
 21
44.7101070517
 31
0.0
  0
LINE
  5
204
330
1F
100
AcDbEntity
  8
0
  6
Continuous
 62
     7
370
    15
100
AcDbLine
 10
267.4938174606
 20
43.4856939017
 30
0.0
 11
267.4938174606
 21
43.1590775769
 31
0.0
  0
LINE
  5
205
330
1F
100
AcDbEntity
  8
0
  6
Continuous
 62
     7
370
    15
100
AcDbLine
 10
273.4938174606
 20
43.1590775769
 30
0.0
 11
273.4938174606
 21
43.4856939017
 31
0.0
  0
LWPOLYLINE
  5
206
330
1F
100
AcDbEntity
  8
0
  6
Continuous
 62
     7
370
    15
100
AcDbPolyline
 90
       64
 70
   128
 43
0.0
 10
275.4612425985
 20
40.6997144901
 10
274.5987801294
 20
40.1521202143
 10
273.7448891998
 20
39.5105575958
 10
272.9080561614
 20
38.7814027722
 10
272.0965978369
 20
37.9719024118
 10
271.3185788637
 20
37.0901016927
 10
270.5817315438
 20
36.1447643467
 10
269.893378997
 20
35.145285561
 10
269.2603623801
 20
34.1015986049
 10
268.6889728967
 20
33.0240761082
 10
268.1848892722
 20
31.9234269736
 10
267.7531213161
 20
30.8105899466
 10
267.3979601323
 20
29.6966249017
 10
267.1229354722
 20
28.5926029239
 10
266.9307806545
 20
27.5094962796
 10
266.8234054001
 20
26.4580693692
 10
266.8018768525
 20
25.4487717458
 10
266.866408972
 20
24.4916342626
 10
267.0163604095
 20
23.5961693819
 10
267.2502408803
 20
22.771276636
 10
267.565725975
 20
22.0251541797
 10
267.9596802612
 20
21.365217313
 10
268.4281884441
 20
20.798024785
 10
268.9665942789
 20
20.32921361
 10
269.5695468466
 20
19.963443044
 10
270.2310537336
 20
19.7043482792
 10
270.9445405873
 20
19.5545043158
 10
271.7029164548
 20
19.5154003705
 10
272.498644256
 20
19.5874250757
 10
273.3238156906
 20
19.7698626177
 10
274.170229834
 20
20.0608998501
 10
275.0294746423
 20
20.4576443142
 10
275.8930105546
 20
20.9561529853
 10
276.7522553629
 20
21.5514714602
 10
277.5986695063
 20
22.2376831965
 10
278.4238409409
 20
23.0079683136
 10
279.2195687421
 20
23.854671372
 10
279.9779446096
 20
24.7693774562
 10
280.6914314633
 20
25.7429958064
 10
281.3529383504
 20
26.7658501658
 10
281.955890918
 20
27.8277749484
 10
282.4942967528
 20
28.9182162685
 10
282.9628049357
 20
30.0263368305
 10
283.3567592219
 20
31.1411236342
 10
283.6722443167
 20
32.2514974277
 10
283.9061247874
 20
33.3464228173
 10
284.0560762249
 20
34.4150179425
 10
284.1206083444
 20
35.446662625
 10
284.0990797968
 20
36.4311039164
 10
283.9917045424
 20
37.3585579968
 10
283.7995497247
 20
38.219807411
 10
283.5245250646
 20
39.0062926753
 10
283.1693638808
 20
39.7101973458
 10
282.7375959247
 20
40.3245257016
 10
282.2335123002
 20
40.8431722717
 10
281.6621228168
 20
41.2609825132
 10
281.0291062
 20
41.5738040404
 10
280.3407536531
 20
41.7785278924
 10
279.6039063333
 20
41.8731194315
 10
278.82588736
 20
41.8566385645
 10
278.0144290355
 20
41.7292490858
 10
277.1775959971
 20
41.4922170491
 10
276.3237050675
 20
41.1478981854
 10
275.4612425985
 20
40.6997144901
  0
LWPOLYLINE
  5
207
330
1F
100
AcDbEntity
  8
0
  6
Continuous
 62
     7
370
    15
100
AcDbPolyline
 90
       33
 70
   128
 43
0.0
 10
275.2844659032
 20
41.0059007071
 10
274.4044021592
 20
40.4471310379
 10
273.5330848841
 20
39.7924753047
 10
272.6791736205
 20
39.0484397705
 10
271.851154922
 20
38.2224189945
 10
271.0572580105
 20
37.3226223423
 10
270.3053729902
 20
36.3579923974
 10
269.6029724323
 20
35.3381160855
 10
268.9570371089
 20
34.2731293956
 10
268.3739866157
 20
33.1736166439
 10
267.8596155703
 20
32.050505282
 10
267.4190360232
 20
30.9149572953
 10
267.056626652
 20
29.7782582699
 10
266.7759892438
 20
28.6517052313
 10
266.5799128992
 20
27.5464943698
 10
266.470346313
 20
26.4736097674
 10
266.4483784073
 20
25.4437142333
 10
266.5142275088
 20
24.4670433321
 10
266.6672391798
 20
23.5533036579
 10
266.9058927213
 20
22.7115763662
 10
267.2278162874
 20
21.9502269209
 10
267.629810457
 20
21.2768219549
 10
268.1078800314
 20
20.6980540692
 10
268.6572737404
 20
20.2196753192
 10
269.2725314625
 20
19.8464400478
 10
269.94753849
 20
19.5820576347
 10
270.6755862999
 20
19.4291556313
 10
271.449439226
 20
19.3892536462
 10
272.2614063701
 20
19.4627482434
 10
273.103418038
 20
19.6489090005
 10
273.9671059395
 20
19.9458857683
 10
274.8438863561
 20
20.3507270582
 10
275.2859024624
 20
20.5932098527
  0
LWPOLYLINE
  5
208
330
1F
100
AcDbEntity
  8
0
  6
Continuous
 62
     7
370
    15
100
AcDbPolyline
 90
       17
 70
   128
 43
0.0
 10
284.123300668
 20
35.9016912574
 10
284.0985854933
 20
36.6501756319
 10
283.9890189072
 20
37.5965573466
 10
283.7929425626
 20
38.4753832794
 10
283.5123051544
 20
39.2779192634
 10
283.1498957831
 20
39.9961893353
 10
282.7093162361
 20
40.6230550045
 10
282.1949451906
 20
41.1522861984
 10
281.6118946974
 20
41.5786231796
 10
280.9659593741
 20
41.8978288196
 10
280.2635588161
 20
42.1067307094
 10
279.5116737958
 20
42.203252688
 10
278.7177768844
 20
42.1864354769
 10
277.8897581859
 20
42.0564462128
 10
277.0358469222
 20
41.8145767877
 10
276.1645296471
 20
41.4632310083
 10
275.2844659032
 20
41.0059007071
  0
SPLINE
  5
209
330
1F
100
AcDbEntity
  8
0
  6
Continuous
 62
     7
370
    15
100
AcDbSpline
210
0.0
220
0.0
230
1.0
 70
    11
 71
     3
 72
    96
 73
    92
 74
     0
 42
0.000000001
 43
0.00000001
 40
0.0
 40
0.0
 40
0.0
 40
0.0
 40
0.0312499999999995
 40
0.0312499999999995
 40
0.0468749999999996
 40
0.0468749999999996
 40
0.0624999999999998
 40
0.0624999999999998
 40
0.0937500000000001
 40
0.0937500000000001
 40
0.1093750000000002
 40
0.1093750000000002
 40
0.1250000000000004
 40
0.1250000000000004
 40
0.1562499999999998
 40
0.1562499999999998
 40
0.1718749999999995
 40
0.1718749999999995
 40
0.1874999999999992
 40
0.1874999999999992
 40
0.2187499999999986
 40
0.2187499999999986
 40
0.2343749999999987
 40
0.2343749999999987
 40
0.2499999999999988
 40
0.2499999999999988
 40
0.281249999999999
 40
0.281249999999999
 40
0.2968749999999994
 40
0.2968749999999994
 40
0.3124999999999998
 40
0.3124999999999998
 40
0.3437500000000007
 40
0.3437500000000007
 40
0.3593750000000011
 40
0.3593750000000011
 40
0.3750000000000014
 40
0.3750000000000014
 40
0.3906250000000018
 40
0.3906250000000018
 40
0.4062500000000023
 40
0.4062500000000023
 40
0.4375000000000031
 40
0.4375000000000031
 40
0.4531250000000034
 40
0.4531250000000034
 40
0.4687500000000036
 40
0.4687500000000036
 40
0.5000000000000033
 40
0.5000000000000033
 40
0.5312500000000031
 40
0.5312500000000031
 40
0.5468750000000034
 40
0.5468750000000034
 40
0.5625000000000037
 40
0.5625000000000037
 40
0.5937500000000034
 40
0.5937500000000034
 40
0.6250000000000031
 40
0.6250000000000031
 40
0.6562500000000029
 40
0.6562500000000029
 40
0.6875000000000026
 40
0.6875000000000026
 40
0.7187500000000022
 40
0.7187500000000022
 40
0.7500000000000019
 40
0.7500000000000019
 40
0.7656250000000018
 40
0.7656250000000018
 40
0.7812500000000016
 40
0.7812500000000016
 40
0.8125000000000008
 40
0.8125000000000008
 40
0.8281250000000007
 40
0.8281250000000007
 40
0.8437500000000004
 40
0.8437500000000004
 40
0.8750000000000003
 40
0.8750000000000003
 40
0.8906250000000003
 40
0.8906250000000003
 40
0.9062500000000003
 40
0.9062500000000003
 40
0.9218750000000002
 40
0.9218750000000002
 40
0.9375000000000002
 40
0.9375000000000002
 40
0.9687500000000001
 40
0.9687500000000001
 40
1.0
 40
1.0
 40
1.0
 40
1.0
 10
270.463309071188
 20
45.59621134997688
 30
0.0
 10
270.6937147133157
 20
45.55714234716515
 30
0.0
 10
270.91803014074
 20
45.50688840479169
 30
0.0
 10
271.2464660783277
 20
45.41805841087219
 30
0.0
 10
271.3545922037937
 20
45.38617977146252
 30
0.0
 10
271.5681877672145
 20
45.31816778745893
 30
0.0
 10
271.6741175424831
 20
45.28186097792153
 30
0.0
 10
271.9843063248575
 20
45.1680908370604
 30
0.0
 10
272.1799406947326
 20
45.08635872562891
 30
0.0
 10
272.4574626631439
 20
44.95624298050858
 30
0.0
 10
272.5472966045159
 20
44.911601967609
 30
0.0
 10
272.7215401339748
 20
44.81981741490807
 30
0.0
 10
272.8062507539877
 20
44.77247720308486
 30
0.0
 10
273.0477814909986
 20
44.62913592420076
 30
0.0
 10
273.1933087942059
 20
44.53130340811641
 30
0.0
 10
273.388702824008
 20
44.38075864340937
 30
0.0
 10
273.4499948088787
 20
44.32993384750264
 30
0.0
 10
273.5646621464386
 20
44.22679624140957
 30
0.0
 10
273.6181526543975
 20
44.17431475476625
 30
0.0
 10
273.7634414623431
 20
44.017266954443
 30
0.0
 10
273.8412898868719
 20
43.91224467677679
 30
0.0
 10
273.92904474288
 20
43.75251508859036
 30
0.0
 10
273.9534281145151
 20
43.69890034332067
 30
0.0
 10
273.9919297073494
 20
43.59054897571269
 30
0.0
 10
274.0060029502283
 20
43.53568494864067
 30
0.0
 10
274.0312711463642
 20
43.37250739047923
 30
0.0
 10
274.0262394858519
 20
43.26442857181299
 30
0.0
 10
273.9838470344696
 20
43.10127297812028
 30
0.0
 10
273.9638660897435
 20
43.04671545364737
 30
0.0
 10
273.9112221068967
 20
42.93688338174854
 30
0.0
 10
273.8786017348332
 20
42.88190062996962
 30
0.0
 10
273.7637377153601
 20
42.72001437478369
 30
0.0
 10
273.6640675084323
 20
42.61471138475158
 30
0.0
 10
273.4773547595323
 20
42.45969010117613
 30
0.0
 10
273.4082417269564
 20
42.40812712112369
 30
0.0
 10
273.2603930164456
 20
42.30854884287113
 30
0.0
 10
273.1816463358014
 20
42.26041800919557
 30
0.0
 10
273.0147205170854
 20
42.16737611479528
 30
0.0
 10
272.9265410880224
 20
42.12246517133813
 30
0.0
 10
272.7406540850697
 20
42.03594935870775
 30
0.0
 10
272.6423230417415
 20
41.99413486440848
 30
0.0
 10
272.3403793292358
 20
41.87695769587908
 30
0.0
 10
272.1283463846955
 20
41.80884578616509
 30
0.0
 10
271.7950510953265
 20
41.72205297890277
 30
0.0
 10
271.6816862325348
 20
41.69583180452828
 30
0.0
 10
271.4549149934961
 20
41.64977942117785
 30
0.0
 10
271.3409007603138
 20
41.62978404367061
 30
0.0
 10
270.9969952066846
 20
41.57891556401027
 30
0.0
 10
270.7632092977204
 20
41.55711529351945
 30
0.0
 10
270.3056687400253
 20
41.54033964364133
 30
0.0
 10
270.0807607855831
 20
41.54497325220505
 30
0.0
 10
269.7486686483943
 20
41.57241384123981
 30
0.0
 10
269.6386300239288
 20
41.58506495422517
 30
0.0
 10
269.4241446553489
 20
41.61697031320541
 30
0.0
 10
269.3192165444682
 20
41.63624733208339
 30
0.0
 10
269.0111244130939
 20
41.70407744524653
 30
0.0
 10
268.8145941823427
 20
41.7625659068342
 30
0.0
 10
268.4394256792392
 20
41.90779229072574
 30
0.0
 10
268.2651222641585
 20
41.99295333665483
 30
0.0
 10
267.9446759911469
 20
42.18637190838734
 30
0.0
 10
267.7980200924292
 20
42.29483766043408
 30
0.0
 10
267.5333566733114
 20
42.5357625712757
 30
0.0
 10
267.4191677379858
 20
42.66472397761287
 30
0.0
 10
267.226217829344
 20
42.93792248026995
 30
0.0
 10
267.1473148199116
 20
43.08245596345891
 30
0.0
 10
267.0285433959708
 20
43.38488757544005
 30
0.0
 10
266.9902595314113
 20
43.53852659358844
 30
0.0
 10
266.9649340327456
 20
43.77093178300144
 30
0.0
 10
266.9618805642903
 20
43.84872716766203
 30
0.0
 10
266.9671493538074
 20
44.00470330469608
 30
0.0
 10
266.9755488929065
 20
44.08328582519349
 30
0.0
 10
267.0188196202089
 20
44.31635954207815
 30
0.0
 10
267.0708632613261
 20
44.46578899019013
 30
0.0
 10
267.1851636692292
 20
44.67899690017068
 30
0.0
 10
267.2293482403446
 20
44.74823488451788
 30
0.0
 10
267.3307739770895
 20
44.88256415949197
 30
0.0
 10
267.3883290824654
 20
44.94781690967014
 30
0.0
 10
267.576122983074
 20
45.13081112467322
 30
0.0
 10
267.722645576882
 20
45.23797729082175
 30
0.0
 10
267.9752847160923
 20
45.37551132471496
 30
0.0
 10
268.0655440140237
 20
45.41759800558025
 30
0.0
 10
268.2521754196973
 20
45.49161946833971
 30
0.0
 10
268.34902952051
 20
45.52388431644697
 30
0.0
 10
268.5495657778611
 20
45.57939575076978
 30
0.0
 10
268.6532485623169
 20
45.60264125040943
 30
0.0
 10
268.8674274718178
 20
45.6403488618912
 30
0.0
 10
268.9774150851732
 20
45.65466367179279
 30
0.0
 10
269.3096605514912
 20
45.68433508872602
 30
0.0
 10
269.5364949236269
 20
45.6869790560193
 30
0.0
 10
270.0005394339201
 20
45.66236543455013
 30
0.0
 10
270.2329034290603
 20
45.63528035278862
 30
0.0
 10
270.463309071188
 20
45.59621134997688
 30
0.0
  0
SPLINE
  5
20A
330
1F
100
AcDbEntity
  8
0
  6
Continuous
 62
     7
370
    15
100
AcDbSpline
210
0.0
220
0.0
230
1.0
 70
     8
 71
     3
 72
    30
 73
    26
 74
     0
 42
0.000000001
 43
0.00000001
 40
0.0
 40
0.0
 40
0.0
 40
0.0
 40
0.0486125881695405
 40
0.0867837273499168
 40
0.1249992977306587
 40
0.1634956182216572
 40
0.2029087796577936
 40
0.2426539022856534
 40
0.2790482165168855
 40
0.3532100399330607
 40
0.3910877778284716
 40
0.4255834473228467
 40
0.4957275358699808
 40
0.5314448548369957
 40
0.5665148567453652
 40
0.6377250976526229
 40
0.6739246305999206
 40
0.7112024933277484
 40
0.7869552360164632
 40
0.8255195785098757
 40
0.8636664813812673
 40
0.9020988990290757
 40
0.9414703275298842
 40
0.9811846986047363
 40
1.0
 40
1.0
 40
1.0
 40
1.0
 10
276.6073005827096
 20
37.11568622952108
 30
0.0
 10
276.67144450503
 20
37.0391194099078
 30
0.0
 10
276.7859549410183
 20
36.90243148096654
 30
0.0
 10
276.9262994767197
 20
36.69400188888552
 30
0.0
 10
277.0440373662815
 20
36.49938532408169
 30
0.0
 10
277.147365303064
 20
36.29898034560455
 30
0.0
 10
277.2352193172818
 20
36.09365580712688
 30
0.0
 10
277.3031585138127
 20
35.89087033550851
 30
0.0
 10
277.3672343447288
 20
35.62774877107034
 30
0.0
 10
277.3941546693648
 20
35.37064115704508
 30
0.0
 10
277.3829335943249
 20
35.12664888493451
 30
0.0
 10
277.3486680744296
 20
34.89707367618993
 30
0.0
 10
277.2820405268619
 20
34.6840440689264
 30
0.0
 10
277.1847140757587
 20
34.48887460737001
 30
0.0
 10
277.0674410669994
 20
34.30591067705375
 30
0.0
 10
276.9225620424343
 20
34.14466258067054
 30
0.0
 10
276.7528852233593
 20
34.0079487041269
 30
0.0
 10
276.5636847982886
 20
33.88688589320699
 30
0.0
 10
276.3518476266951
 20
33.79677714624478
 30
0.0
 10
276.1261833826145
 20
33.74333802279821
 30
0.0
 10
275.9508875523681
 20
33.72259149529903
 30
0.0
 10
275.7712844509
 20
33.72182951300017
 30
0.0
 10
275.5882204667935
 20
33.74371520414291
 30
0.0
 10
275.4358373814978
 20
33.77729039921324
 30
0.0
 10
275.3467091953121
 20
33.8110375026413
 30
0.0
 10
275.3180575112154
 20
33.82188604997496
 30
0.0
  0
SPLINE
  5
20B
330
1F
100
AcDbEntity
  8
0
  6
Continuous
 62
     7
370
    15
100
AcDbSpline
210
0.0
220
0.0
230
1.0
 70
     8
 71
     3
 72
    10
 73
     6
 74
     0
 42
0.000000001
 43
0.00000001
 40
0.0
 40
0.0
 40
0.0
 40
0.0
 40
0.5
 40
0.5
 40
1.0
 40
1.0
 40
1.0
 40
1.0
 10
238.8294777231787
 20
43.45196580372517
 30
0.0
 10
238.7729490373962
 20
43.41933248804256
 30
0.0
 10
238.6943057148215
 20
43.39895951258358
 30
0.0
 10
238.5340758004903
 20
43.39589811262223
 30
0.0
 10
238.4529087879497
 20
43.41355731250248
 30
0.0
 10
238.3957948876118
 20
43.44652846535678
 30
0.0
  0
SPLINE
  5
20C
330
1F
100
AcDbEntity
  8
0
  6
Continuous
 62
     7
370
    15
100
AcDbSpline
210
0.0
220
0.0
230
1.0
 70
     8
 71
     3
 72
    12
 73
     8
 74
     0
 42
0.000000001
 43
0.00000001
 40
0.0
 40
0.0
 40
0.0
 40
0.0
 40
0.2500000000000033
 40
0.2500000000000033
 40
0.5000000000000067
 40
0.5000000000000067
 40
1.0
 40
1.0
 40
1.0
 40
1.0
 10
256.0865167939566
 20
59.97049034361189
 30
0.0
 10
256.1184211223014
 20
59.95207236689613
 30
0.0
 10
256.1505584587422
 20
59.92215782626407
 30
0.0
 10
256.2052167651684
 20
59.85176040632116
 30
0.0
 10
256.2281901044988
 20
59.81137970964533
 30
0.0
 10
256.2818718934365
 20
59.68885587960995
 30
0.0
 10
256.2986488283126
 20
59.60405455800427
 30
0.0
 10
256.2986488283126
 20
59.53050196237066
 30
0.0
  0
LINE
  5
20D
330
1F
100
AcDbEntity
  8
0
  6
Continuous
 62
     7
370
    15
100
AcDbLine
 10
238.3957948876
 20
43.4465284654
 30
0.0
 11
236.99640682
 21
44.2543780012
 31
0.0
  0
LWPOLYLINE
  5
20E
330
1F
100
AcDbEntity
  8
0
  6
Continuous
 62
     7
370
    15
100
AcDbPolyline
 90
       23
 70
   128
 43
0.0
 10
236.99640682
 20
44.2543780012
 10
237.3223697913
 20
45.5260439558
 10
237.7306370584
 20
46.807375665
 10
238.2179610088
 20
48.0881806174
 10
238.780465164
 20
49.3582704919
 10
239.4136750152
 20
50.6075422014
 10
240.1125536163
 20
51.8260582598
 10
240.8715416511
 20
53.0041258306
 10
241.6846016555
 20
54.1323738296
 10
242.5452660433
 20
55.2018274688
 10
243.4466885531
 20
56.2039796469
 10
244.3816987083
 20
57.1308586206
 10
245.342858855
 20
57.9750914165
 10
246.322523326
 20
58.7299624807
 10
247.3128992592
 20
59.3894670978
 10
248.306108587
 20
59.948359157
 10
249.2942507028
 20
60.4021928822
 10
250.2694653082
 20
60.7473581971
 10
251.2239949381
 20
60.9811094413
 10
252.1502466685
 20
61.1015872119
 10
253.0408525156
 20
61.1078331535
 10
253.8887280451
 20
60.9997975819
 10
254.6871287263
 20
60.7783398795
  0
LINE
  5
20F
330
1F
100
AcDbEntity
  8
0
  6
Continuous
 62
     7
370
    15
100
AcDbLine
 10
254.6871287263
 20
60.7783398795
 30
0.0
 11
256.086516794
 21
59.9704903436
 31
0.0
  0
LINE
  5
210
330
1F
100
AcDbEntity
  8
0
  6
Continuous
 62
     7
370
    15
100
AcDbLine
 10
256.2986488283
 20
59.5305019624
 30
0.0
 11
256.2986488283
 21
57.9664375275
 31
0.0
  0
LINE
  5
211
330
1F
100
AcDbEntity
  8
0
  6
Continuous
 62
     7
370
    15
100
AcDbLine
 10
257.6530949895
 20
58.748342653
 30
0.0
 11
256.2986488283
 21
57.9664375275
 31
0.0
  0
LINE
  5
212
330
1F
100
AcDbEntity
  8
0
  6
Continuous
 62
     7
370
    15
100
AcDbLine
 10
258.9527430886
 20
54.6606092203
 30
0.0
 11
259.8329241986
 21
55.1687269595
 31
0.0
  0
LINE
  5
213
330
1F
100
AcDbEntity
  8
0
  6
Continuous
 62
     7
370
    15
100
AcDbLine
 10
239.9064473954
 20
44.0736871618
 30
0.0
 11
238.8294777232
 21
43.4519658037
 31
0.0
  0
SPLINE
  5
214
330
1F
100
AcDbEntity
  8
0
  6
Continuous
 62
     7
370
    15
100
AcDbSpline
210
0.0
220
0.0
230
1.0
 70
     8
 71
     3
 72
     8
 73
     4
 74
     0
 42
0.000000001
 43
0.00000001
 40
0.0
 40
0.0
 40
0.0
 40
0.0
 40
0.0001141637707875
 40
0.0001141637707875
 40
0.0001141637707875
 40
0.0001141637707875
 10
239.9064473954097
 20
36.72481985482116
 30
0.0
 10
239.9199017248247
 20
36.73258687386676
 30
0.0
 10
239.9335876173091
 20
36.74022246952846
 30
0.0
 10
239.9474928807894
 20
36.74772013706643
 30
0.0
  0
SPLINE
  5
215
330
1F
100
AcDbEntity
  8
0
  6
Continuous
 62
     7
370
    15
100
AcDbSpline
210
0.0
220
0.0
230
1.0
 70
     8
 71
     3
 72
    17
 73
    13
 74
     0
 42
0.000000001
 43
0.00000001
 40
0.0
 40
0.0
 40
0.0
 40
0.0
 40
0.25
 40
0.25
 40
0.375
 40
0.375
 40
0.5
 40
0.625
 40
0.625
 40
0.75
 40
0.75
 40
1.0
 40
1.0
 40
1.0
 40
1.0
 10
239.9474928807894
 20
36.74772013706643
 30
0.0
 10
239.9536767732056
 20
37.35811360860738
 30
0.0
 10
239.9987764432591
 20
37.9438749625655
 30
0.0
 10
240.0582044749989
 20
38.82784117403034
 30
0.0
 10
240.0767596465481
 20
39.12322035196055
 30
0.0
 10
240.1028414329963
 20
39.7203432108089
 30
0.0
 10
240.1176535237763
 20
40.32396973228773
 30
0.0
 10
240.1028386094997
 20
40.94469379138523
 30
0.0
 10
240.0767552837551
 20
41.57192077201026
 30
0.0
 10
240.0581999726704
 20
41.88871615018319
 30
0.0
 10
239.9987729607889
 20
42.84127277689952
 30
0.0
 10
239.9536764752553
 20
43.47908395607569
 30
0.0
 10
239.9474928807894
 20
44.09658744403818
 30
0.0
  0
SPLINE
  5
216
330
1F
100
AcDbEntity
  8
0
  6
Continuous
 62
     7
370
    15
100
AcDbSpline
210
0.0
220
0.0
230
1.0
 70
     8
 71
     3
 72
     8
 73
     4
 74
     0
 42
0.000000001
 43
0.00000001
 40
0.0
 40
0.0
 40
0.0
 40
0.0
 40
0.0001141637707875
 40
0.0001141637707875
 40
0.0001141637707875
 40
0.0001141637707875
 10
239.9474928807894
 20
44.09658744403818
 30
0.0
 10
239.9335876173091
 20
44.08908977650021
 30
0.0
 10
239.9199017248247
 20
44.08145418083851
 30
0.0
 10
239.9064473954097
 20
44.07368716179291
 30
0.0
  0
LWPOLYLINE
  5
217
330
1F
100
AcDbEntity
  8
0
  6
Continuous
 62
     7
370
    15
100
AcDbPolyline
 90
       20
 70
   128
 43
0.0
 10
236.0726240322
 20
45.8853600352
 10
236.4213260693
 20
47.1430283277
 10
236.8558799825
 20
48.4069273077
 10
237.3723055874
 20
49.665480619
 10
237.965872817
 20
50.9071608678
 10
238.6311450458
 20
52.1205952045
 10
239.3620288845
 20
53.2946694908
 10
240.1518299914
 20
54.4186300965
 10
240.9933143873
 20
55.4821823948
 10
241.8787747134
 20
56.4755850532
 10
242.8001008243
 20
57.3897392566
 10
243.7488540717
 20
58.2162720458
 10
244.7163445953
 20
58.9476130072
 10
245.6937109155
 20
59.5770636121
 10
246.6720010979
 20
60.0988585704
 10
247.6422547464
 20
60.5082186359
 10
248.5955850734
 20
60.8013943809
 10
249.5232602959
 20
60.9757005378
 10
250.4167836123
 20
61.0295405945
 10
251.18769008
 20
60.9741915414
  0
SPLINE
  5
218
330
1F
100
AcDbEntity
  8
0
  6
Continuous
 62
     7
370
    15
100
AcDbSpline
210
0.0
220
0.0
230
1.0
 70
     8
 71
     3
 72
     8
 73
     4
 74
     0
 42
0.000000001
 43
0.00000001
 40
0.0
 40
0.0
 40
0.0
 40
0.0
 40
1.0
 40
1.0
 40
1.0
 40
1.0
 10
236.0726240322209
 20
45.88536003520345
 30
0.0
 10
235.5813230031683
 20
45.80271281499957
 30
0.0
 10
235.0897429122656
 20
45.72062902750912
 30
0.0
 10
234.5979481135137
 20
45.63897874042738
 30
0.0
  0
LWPOLYLINE
  5
219
330
1F
100
AcDbEntity
  8
0
  6
Continuous
 62
     7
370
    15
100
AcDbPolyline
 90
       23
 70
   128
 43
0.0
 10
234.5979481135
 20
45.6389787404
 10
234.9239110848
 20
46.910644695
 10
235.3321783519
 20
48.1919764042
 10
235.8195023023
 20
49.4727813566
 10
236.3820064575
 20
50.7428712311
 10
237.0152163087
 20
51.9921429406
 10
237.7140949098
 20
53.210658999
 10
238.4730829446
 20
54.3887265698
 10
239.286142949
 20
55.5169745688
 10
240.1468073368
 20
56.586428208
 10
241.0482298466
 20
57.5885803861
 10
241.9832400018
 20
58.5154593598
 10
242.9444001485
 20
59.3596921557
 10
243.9240646195
 20
60.1145632199
 10
244.9144405528
 20
60.774067837
 10
245.9076498805
 20
61.3329598962
 10
246.8957919963
 20
61.7867936214
 10
247.8710066017
 20
62.1319589362
 10
248.8255362316
 20
62.3657101805
 10
249.751787962
 20
62.4861879511
 10
250.6423938091
 20
62.4924338927
 10
251.4902693386
 20
62.3843983211
 10
252.2886700199
 20
62.1629406187
  0
LINE
  5
21A
330
1F
100
AcDbEntity
  8
0
  6
Continuous
 62
     7
370
    15
100
AcDbLine
 10
252.2886700199
 20
62.1629406187
 30
0.0
 11
252.6156309446
 21
61.1065732006
 31
0.0
  0
LINE
  5
21B
330
1F
100
AcDbEntity
  8
0
  6
Continuous
 62
     7
370
    15
100
AcDbLine
 10
248.8740276259
 20
64.1341717139
 30
0.0
 11
252.2886700199
 21
62.1629406187
 31
0.0
  0
LINE
  5
21C
330
1F
100
AcDbEntity
  8
0
  6
Continuous
 62
     7
370
    15
100
AcDbLine
 10
234.5979481135
 20
45.6389787404
 30
0.0
 11
234.0117328443
 21
45.977393612
 31
0.0
  0
SPLINE
  5
21D
330
1F
100
AcDbEntity
  8
0
  6
Continuous
 62
     7
370
    15
100
AcDbSpline
210
0.0
220
0.0
230
1.0
 70
     8
 71
     3
 72
    28
 73
    24
 74
     0
 42
0.000000001
 43
0.00000001
 40
0.0
 40
0.0
 40
0.0
 40
0.0
 40
0.1249999999999999
 40
0.1249999999999999
 40
0.1874999999999998
 40
0.1874999999999998
 40
0.2499999999999997
 40
0.2499999999999997
 40
0.3749999999999993
 40
0.3749999999999993
 40
0.4374999999999993
 40
0.4374999999999993
 40
0.4999999999999992
 40
0.4999999999999992
 40
0.6249999999999992
 40
0.6249999999999992
 40
0.7499999999999992
 40
0.7499999999999992
 40
0.8124999999999993
 40
0.8124999999999993
 40
0.8749999999999996
 40
0.8749999999999996
 40
1.0
 40
1.0
 40
1.0
 40
1.0
 10
234.0117328442552
 20
45.97739361200719
 30
0.0
 10
233.8237457637889
 20
46.08591624359126
 30
0.0
 10
233.6335258091882
 20
46.16785996413918
 30
0.0
 10
233.3454272072402
 20
46.25301769417764
 30
0.0
 10
233.2489373366406
 20
46.27506762458144
 30
0.0
 10
233.0551991638057
 20
46.3063414480404
 30
0.0
 10
232.9579481432744
 20
46.31546869936383
 30
0.0
 10
232.671926268389
 20
46.32325154147223
 30
0.0
 10
232.4865844520324
 20
46.30294499783516
 30
0.0
 10
232.2180718652166
 20
46.23572434470203
 30
0.0
 10
232.1297112055508
 20
46.20693798709644
 30
0.0
 10
231.9593584952612
 20
46.13792609700128
 30
0.0
 10
231.8773314654797
 20
46.09778620709115
 30
0.0
 10
231.6408952117271
 20
45.96116643932793
 30
0.0
 10
231.4960279616048
 20
45.84865194963887
 30
0.0
 10
231.2351711681206
 20
45.5803949846394
 30
0.0
 10
231.1228787606183
 20
45.42824159826212
 30
0.0
 10
230.9836542791645
 20
45.17632521056381
 30
0.0
 10
230.9420584927987
 20
45.08828292488744
 30
0.0
 10
230.8689337777375
 20
44.90394186983561
 30
0.0
 10
230.8373092936845
 20
44.80715310715384
 30
0.0
 10
230.7598159902624
 20
44.50913802825703
 30
0.0
 10
230.7306412748725
 20
44.2996651511205
 30
0.0
 10
230.7246743921307
 20
44.07928435843663
 30
0.0
  0
ARC
  5
21E
330
1F
100
AcDbEntity
  8
0
  6
Continuous
 62
     7
370
    15
100
AcDbCircle
 10
245.5680408545
 20
43.6710139525
 30
0.0
 40
14.84898018921195
100
AcDbArc
 50
178.4244628824
 51
181.5755371176
  0
SPLINE
  5
21F
330
1F
100
AcDbEntity
  8
0
  6
Continuous
 62
     7
370
    15
100
AcDbSpline
210
0.0
220
0.0
230
1.0
 70
     8
 71
     3
 72
    30
 73
    26
 74
     0
 42
0.000000001
 43
0.00000001
 40
0.0
 40
0.0
 40
0.0
 40
0.0
 40
0.1250000000000001
 40
0.1250000000000001
 40
0.1875000000000002
 40
0.1875000000000002
 40
0.2500000000000003
 40
0.2500000000000003
 40
0.3750000000000004
 40
0.3750000000000004
 40
0.4375000000000004
 40
0.4375000000000004
 40
0.5000000000000004
 40
0.5000000000000004
 40
0.6250000000000007
 40
0.6250000000000007
 40
0.6875000000000006
 40
0.6875000000000006
 40
0.7500000000000004
 40
0.7500000000000004
 40
0.8125000000000004
 40
0.8125000000000004
 40
0.8750000000000003
 40
0.8750000000000003
 40
1.0
 40
1.0
 40
1.0
 40
1.0
 10
230.7246743921307
 20
43.26274354655088
 30
0.0
 10
230.7306419908222
 20
43.04922635377617
 30
0.0
 10
230.7597872108217
 20
42.83167645575704
 30
0.0
 10
230.8362218720805
 20
42.49937742622144
 30
0.0
 10
230.8671878556579
 20
42.38760312492187
 30
0.0
 10
230.9401577964735
 20
42.16190125138689
 30
0.0
 10
230.9822939950321
 20
42.04781347881437
 30
0.0
 10
231.1221857843965
 20
41.70965075145318
 30
0.0
 10
231.2340297089388
 20
41.4871405321804
 30
0.0
 10
231.4278163060834
 20
41.15653027623084
 30
0.0
 10
231.4971569436866
 20
41.04630363652469
 30
0.0
 10
231.6426493281333
 20
40.82957363607115
 30
0.0
 10
231.7185366188524
 20
40.72337670044043
 30
0.0
 10
231.9549245673238
 20
40.41073852719082
 30
0.0
 10
232.1240700695747
 20
40.21019597935565
 30
0.0
 10
232.3939360669087
 20
39.92009113993332
 30
0.0
 10
232.4861275729596
 20
39.82574772356087
 30
0.0
 10
232.6717261679943
 20
39.64444269550047
 30
0.0
 10
232.7655550482811
 20
39.55702336200632
 30
0.0
 10
232.9550050987465
 20
39.38841581168167
 30
0.0
 10
233.0506265139522
 20
39.30722762591232
 30
0.0
 10
233.2434882033786
 20
39.15106494636419
 30
0.0
 10
233.341223112277
 20
39.07573796666748
 30
0.0
 10
233.6324790673974
 20
38.86244773322364
 30
0.0
 10
233.8237364583705
 20
38.73705430852321
 30
0.0
 10
234.0117328442552
 20
38.62852630503544
 30
0.0
  0
LINE
  5
220
330
1F
100
AcDbEntity
  8
0
  6
Continuous
 62
     7
370
    15
100
AcDbLine
 10
234.0117328443
 20
38.628526305
 30
0.0
 11
234.5979481135
 21
38.2901114335
 31
0.0
  0
ARC
  5
221
330
1F
100
AcDbEntity
  8
0
  6
Continuous
 62
     7
370
    15
100
AcDbCircle
 10
240.3893038442
 20
39.6532273717
 30
0.0
 40
5.949612278126041
100
AcDbArc
 50
193.2446820632
 51
253.3774892935
  0
LINE
  5
222
330
1F
100
AcDbEntity
  8
0
  6
Continuous
 62
     7
370
    15
100
AcDbLine
 10
253.9180878762
 20
61.2219919257
 30
0.0
 11
254.2524002799
 21
60.9146638155
 31
0.0
  0
LINE
  5
223
330
1F
100
AcDbEntity
  8
0
  6
Continuous
 62
     7
370
    15
100
AcDbLine
 10
253.0651591223
 20
61.7143772145
 30
0.0
 11
253.9180878762
 21
61.2219919257
 31
0.0
  0
SPLINE
  5
224
330
1F
100
AcDbEntity
  8
0
  6
Continuous
 62
     7
370
    15
100
AcDbSpline
210
0.0
220
0.0
230
1.0
 70
     8
 71
     3
 72
    20
 73
    16
 74
     0
 42
0.000000001
 43
0.00000001
 40
0.0
 40
0.0
 40
0.0
 40
0.0
 40
0.2499999999999995
 40
0.2499999999999995
 40
0.3749999999999996
 40
0.3749999999999996
 40
0.4999999999999997
 40
0.4999999999999997
 40
0.6249999999999998
 40
0.6249999999999998
 40
0.7499999999999998
 40
0.7499999999999998
 40
0.8749999999999999
 40
0.8749999999999999
 40
1.0
 40
1.0
 40
1.0
 40
1.0
 10
248.8740276258538
 20
64.13417171390763
 30
0.0
 10
249.1930162802518
 20
64.00028132464784
 30
0.0
 10
249.5194718803498
 20
63.84038497758585
 30
0.0
 10
250.0318219977329
 20
63.56246605011634
 30
0.0
 10
250.2064253644107
 20
63.46346703730605
 30
0.0
 10
250.5662992267596
 20
63.25252633240733
 30
0.0
 10
250.7491596431131
 20
63.14197051519729
 30
0.0
 10
251.1154547322903
 20
62.91655264618645
 30
0.0
 10
251.299938248549
 20
62.80107204480701
 30
0.0
 10
251.6735230727845
 20
62.56623970051123
 30
0.0
 10
251.8578725440238
 20
62.44990977523597
 30
0.0
 10
252.2185824505002
 20
62.22421508843659
 30
0.0
 10
252.395636439754
 20
62.1144051143399
 30
0.0
 10
252.7433657911064
 20
61.90301035080399
 30
0.0
 10
252.9086162075646
 20
61.80474751566098
 30
0.0
 10
253.0651591223461
 20
61.7143772145436
 30
0.0
  0
LINE
  5
225
330
1F
100
AcDbEntity
  8
0
  6
Continuous
 62
     7
370
    15
100
AcDbLine
 10
237.2072385871
 20
45.1111012668
 30
0.0
 11
236.7436107946
 21
45.3787478944
 31
0.0
  0
LINE
  5
226
330
1F
100
AcDbEntity
  8
0
  6
Continuous
 62
     7
370
    15
100
AcDbLine
 10
236.3177926366
 20
46.0268928579
 30
0.0
 11
236.0726240322
 21
45.8853600352
 31
0.0
  0
SPLINE
  5
227
330
1F
100
AcDbEntity
  8
0
  6
Continuous
 62
     7
370
    15
100
AcDbSpline
210
0.0
220
0.0
230
1.0
 70
     8
 71
     3
 72
    14
 73
    10
 74
     0
 42
0.000000001
 43
0.00000001
 40
0.0
 40
0.0
 40
0.0
 40
0.0
 40
0.1249999999999983
 40
0.1249999999999983
 40
0.2499999999999967
 40
0.2499999999999967
 40
0.4999999999999968
 40
0.4999999999999968
 40
1.0
 40
1.0
 40
1.0
 40
1.0
 10
236.7436107945986
 20
45.37874789438147
 30
0.0
 10
236.7194143614334
 20
45.39271619792402
 30
0.0
 10
236.6962389229745
 20
45.42008137392156
 30
0.0
 10
236.6593185305436
 20
45.47788314304709
 30
0.0
 10
236.644276739511
 20
45.50885362216345
 30
0.0
 10
236.6044632829241
 20
45.60188009509266
 30
0.0
 10
236.58482726454
 20
45.66449114937743
 30
0.0
 10
236.5344064160705
 20
45.84882190029241
 30
0.0
 10
236.51198923783
 20
45.97036613519309
 30
0.0
 10
236.4953013396641
 20
46.08949520049546
 30
0.0
  0
SPLINE
  5
228
330
1F
100
AcDbEntity
  8
0
  6
Continuous
 62
     7
370
    15
100
AcDbSpline
210
0.0
220
0.0
230
1.0
 70
     8
 71
     3
 72
    10
 73
     6
 74
     0
 42
0.000000001
 43
0.00000001
 40
0.0
 40
0.0
 40
0.0
 40
0.0
 40
0.5
 40
0.5
 40
1.0
 40
1.0
 40
1.0
 40
1.0
 10
236.4953013396641
 20
46.08949520049546
 30
0.0
 10
236.4619113214763
 20
46.08334543129524
 30
0.0
 10
236.4296719700482
 20
46.07479882344716
 30
0.0
 10
236.3696840757859
 20
46.05356284967826
 30
0.0
 10
236.3424222025369
 20
46.04111120367008
 30
0.0
 10
236.317792636587
 20
46.02689285789323
 30
0.0
  0
LWPOLYLINE
  5
229
330
1F
100
AcDbEntity
  8
0
  6
Continuous
 62
     7
370
    15
100
AcDbPolyline
 90
       21
 70
   128
 43
0.0
 10
229.0750377526
 20
44.7393090679
 10
229.1182034931
 20
45.8900171323
 10
229.2473628841
 20
47.0815574491
 10
229.4615050783
 20
48.3046045996
 10
229.7589541227
 20
49.5495865818
 10
230.1373820752
 20
50.8067597236
 10
230.5938272239
 20
52.0662849405
 10
231.1247172668
 20
53.3183047401
 10
231.7258972694
 20
54.5530203699
 10
232.392662183
 20
55.7607685059
 10
233.1197936683
 20
56.9320968816
 10
233.9016009355
 20
58.0578382641
 10
234.7319652826
 20
59.1291822009
 10
235.6043879828
 20
60.137743973
 10
236.5120411456
 20
61.0756302172
 10
237.4478211545
 20
61.9355007019
 10
238.4044042619
 20
62.7106257748
 10
239.3743039081
 20
63.3949390311
 10
240.3499293134
 20
63.9830847919
 10
241.3236448862
 20
64.4704600191
 10
242.1881696175
 20
64.8183893931
  0
SPLINE
  5
22A
330
1F
100
AcDbEntity
  8
0
  6
Continuous
 62
     7
370
    15
100
AcDbSpline
210
0.0
220
0.0
230
1.0
 70
     8
 71
     3
 72
    14
 73
    10
 74
     0
 42
0.000000001
 43
0.00000001
 40
0.0
 40
0.0
 40
0.0
 40
0.0
 40
0.1249999999999993
 40
0.1249999999999993
 40
0.2499999999999987
 40
0.2499999999999987
 40
0.4999999999999973
 40
0.4999999999999973
 40
1.0
 40
1.0
 40
1.0
 40
1.0
 10
237.5284993217157
 20
38.71157670331954
 30
0.0
 10
237.5527278996684
 20
38.69758984298614
 30
0.0
 10
237.5758137410342
 20
38.67029107316941
 30
0.0
 10
237.6125561150974
 20
38.61285186486199
 30
0.0
 10
237.6277144147812
 20
38.5817013898596
 30
0.0
 10
237.6672773416689
 20
38.48940184965384
 30
0.0
 10
237.6868872149117
 20
38.42716406889831
 30
0.0
 10
237.7377100638666
 20
38.24170830270174
 30
0.0
 10
237.7601417479907
 20
38.11980948240402
 30
0.0
 10
237.7768087766502
 20
38.00082939720544
 30
0.0
  0
LINE
  5
22B
330
1F
100
AcDbEntity
  8
0
  6
Continuous
 62
     7
370
    15
100
AcDbLine
 10
236.7436107946
 20
39.1646832054
 30
0.0
 11
237.5284993217
 21
38.7115767033
 31
0.0
  0
SPLINE
  5
22C
330
1F
100
AcDbEntity
  8
0
  6
Continuous
 62
     7
370
    15
100
AcDbSpline
210
0.0
220
0.0
230
1.0
 70
     8
 71
     3
 72
    14
 73
    10
 74
     0
 42
0.000000001
 43
0.00000001
 40
0.0
 40
0.0
 40
0.0
 40
0.0
 40
0.5
 40
0.5
 40
0.75
 40
0.75
 40
0.875
 40
0.875
 40
1.0
 40
1.0
 40
1.0
 40
1.0
 10
236.495301339664
 20
38.74062789352347
 30
0.0
 10
236.5119254211178
 20
38.84010763775358
 30
0.0
 10
236.5343428227221
 20
38.93594277114958
 30
0.0
 10
236.5847738805708
 20
39.06215872072322
 30
0.0
 10
236.604308574502
 20
39.10199226941748
 30
0.0
 10
236.6442517318375
 20
39.14925260088932
 30
0.0
 10
236.6592686990031
 20
39.16285521449458
 30
0.0
 10
236.6963300665248
 20
39.1780756160703
 30
0.0
 10
236.7193137288732
 20
39.17870960286417
 30
0.0
 10
236.7436107945986
 20
39.16468320538114
 30
0.0
  0
LINE
  5
22D
330
1F
100
AcDbEntity
  8
0
  6
Continuous
 62
     7
370
    15
100
AcDbLine
 10
235.3506104357
 20
39.4014438865
 30
0.0
 11
236.4953013397
 21
38.7406278935
 31
0.0
  0
ARC
  5
22E
330
1F
100
AcDbEntity
  8
0
  6
Continuous
 62
     7
370
    15
100
AcDbCircle
 10
238.6370752255
 20
44.5648715421
 30
0.0
 40
6.120607483709779
100
AcDbArc
 50
182.476303705
 51
237.5236964406
  0
LINE
  5
22F
330
1F
100
AcDbEntity
  8
0
  6
Continuous
 62
     7
370
    15
100
AcDbLine
 10
232.5221833109
 20
45.1169641696
 30
0.0
 11
232.5221833109
 21
44.3004233577
 31
0.0
  0
ARC
  5
230
330
1F
100
AcDbEntity
  8
0
  6
Continuous
 62
     7
370
    15
100
AcDbCircle
 10
235.1192069928
 20
45.2005128326
 30
0.0
 40
2.598367253369027
100
AcDbArc
 50
154.677078997
 51
181.8426229113
  0
LINE
  5
231
330
1F
100
AcDbEntity
  8
0
  6
Continuous
 62
     7
370
    15
100
AcDbLine
 10
237.7768087766
 20
38.0008293972
 30
0.0
 11
239.9474928808
 21
36.7477201371
 31
0.0
  0
ARC
  5
232
330
1F
100
AcDbEntity
  8
0
  6
Continuous
 62
     7
370
    15
100
AcDbCircle
 10
243.9948094552
 20
37.1443055448
 30
0.0
 40
5.589136068743619
100
AcDbArc
 50
209.5403304489
 51
270.5279406684
  0
SPLINE
  5
233
330
1F
100
AcDbEntity
  8
0
  6
Continuous
 62
     7
370
    15
100
AcDbSpline
210
0.0
220
0.0
230
1.0
 70
     8
 71
     3
 72
    12
 73
     8
 74
     0
 42
0.000000001
 43
0.00000001
 40
0.0
 40
0.0
 40
0.0
 40
0.0
 40
0.2500000000000001
 40
0.2500000000000001
 40
0.5000000000000002
 40
0.5000000000000002
 40
1.0
 40
1.0
 40
1.0
 40
1.0
 10
238.3957948876118
 20
36.09766115838504
 30
0.0
 10
238.4240370876842
 20
36.08135728332101
 30
0.0
 10
238.4585832195896
 20
36.06840148991101
 30
0.0
 10
238.5333072792873
 20
36.05168975171848
 30
0.0
 10
238.573597670589
 20
36.04780284293102
 30
0.0
 10
238.6947106880253
 20
36.05006624082032
 30
0.0
 10
238.7728282504432
 20
36.07039545224706
 30
0.0
 10
238.8294777231787
 20
36.10309849675341
 30
0.0
  0
ARC
  5
234
330
1F
100
AcDbEntity
  8
0
  6
Continuous
 62
     7
370
    15
100
AcDbCircle
 10
243.1371734012
 20
38.4906791501
 30
0.0
 40
6.342063799655246
100
AcDbArc
 50
194.4742699055
 51
238.1951928029
  0
LINE
  5
235
330
1F
100
AcDbEntity
  8
0
  6
Continuous
 62
     7
370
    15
100
AcDbLine
 10
236.99640682
 20
36.9055106943
 30
0.0
 11
238.3957948876
 21
36.0976611584
 31
0.0
  0
LINE
  5
236
330
1F
100
AcDbEntity
  8
0
  6
Continuous
 62
     7
370
    15
100
AcDbLine
 10
238.8294777232
 20
36.1030984968
 30
0.0
 11
239.9064473954
 21
36.7248198548
 31
0.0
  0
SPLINE
  5
237
330
1F
100
AcDbEntity
  8
0
  6
Continuous
 62
     7
370
    15
100
AcDbSpline
210
0.0
220
0.0
230
1.0
 70
     8
 71
     3
 72
     8
 73
     4
 74
     0
 42
0.000000001
 43
0.00000001
 40
0.0
 40
0.0
 40
0.0
 40
0.0
 40
1.0
 40
1.0
 40
1.0
 40
1.0
 10
237.4231979842871
 20
37.75682298144101
 30
0.0
 10
237.2800332875966
 20
37.473200934434
 30
0.0
 10
237.137844590744
 20
37.18941778844999
 30
0.0
 10
236.9964068199889
 20
36.90551069426292
 30
0.0
  0
LINE
  5
238
330
1F
100
AcDbEntity
  8
0
  6
Continuous
 62
     7
370
    15
100
AcDbLine
 10
237.6683665887
 20
37.8983558041
 30
0.0
 11
237.4231979843
 21
37.7568229814
 31
0.0
  0
SPLINE
  5
239
330
1F
100
AcDbEntity
  8
0
  6
Continuous
 62
     7
370
    15
100
AcDbSpline
210
0.0
220
0.0
230
1.0
 70
     8
 71
     3
 72
    10
 73
     6
 74
     0
 42
0.000000001
 43
0.00000001
 40
0.0
 40
0.0
 40
0.0
 40
0.0
 40
0.5
 40
0.5
 40
1.0
 40
1.0
 40
1.0
 40
1.0
 10
237.7768087766503
 20
38.00082939720554
 30
0.0
 10
237.7661559096803
 20
37.98155374999939
 30
0.0
 10
237.7513511465282
 20
37.96294236857431
 30
0.0
 10
237.7145653751972
 20
37.92831209434273
 30
0.0
 10
237.6929961546032
 20
37.91257414990761
 30
0.0
 10
237.6683665886533
 20
37.89835580413074
 30
0.0
  0
SPLINE
  5
23A
330
1F
100
AcDbEntity
  8
0
  6
Continuous
 62
     7
370
    15
100
AcDbSpline
210
0.0
220
0.0
230
1.0
 70
     8
 71
     3
 72
    14
 73
    10
 74
     0
 42
0.000000001
 43
0.00000001
 40
0.0
 40
0.0
 40
0.0
 40
0.0
 40
0.5000000000000019
 40
0.5000000000000019
 40
0.7500000000000018
 40
0.7500000000000018
 40
0.875000000000001
 40
0.875000000000001
 40
1.0
 40
1.0
 40
1.0
 40
1.0
 10
221.8554995199715
 20
49.39588874434221
 30
0.0
 10
222.1706654638113
 20
49.16880075344636
 30
0.0
 10
222.4869411190773
 20
48.93895437839821
 30
0.0
 10
222.9657656076484
 20
48.58364577640909
 30
0.0
 10
223.1260856180724
 20
48.46350746221354
 30
0.0
 10
223.3691381540261
 20
48.27723862796973
 30
0.0
 10
223.4505815920427
 20
48.21414538674272
 30
0.0
 10
223.615243041076
 20
48.08380014433058
 30
0.0
 10
223.6981490591423
 20
48.01727570235333
 30
0.0
 10
223.784167887227
 20
47.94348223102978
 30
0.0
  0
SPLINE
  5
23B
330
1F
100
AcDbEntity
  8
0
  6
Continuous
 62
     7
370
    15
100
AcDbSpline
210
0.0
220
0.0
230
1.0
 70
     8
 71
     3
 72
     8
 73
     4
 74
     0
 42
0.000000001
 43
0.00000001
 40
0.0
 40
0.0
 40
0.0
 40
0.0
 40
1.0
 40
1.0
 40
1.0
 40
1.0
 10
223.784167887227
 20
47.94348223102978
 30
0.0
 10
224.0858203604645
 20
47.68470187294795
 30
0.0
 10
224.3910999039879
 20
47.4371268575433
 30
0.0
 10
224.6957594771145
 20
47.19615400097678
 30
0.0
  0
SPLINE
  5
23C
330
1F
100
AcDbEntity
  8
0
  6
Continuous
 62
     7
370
    15
100
AcDbSpline
210
0.0
220
0.0
230
1.0
 70
     8
 71
     3
 72
    14
 73
    10
 74
     0
 42
0.000000001
 43
0.00000001
 40
0.0
 40
0.0
 40
0.0
 40
0.0
 40
0.1250000000000027
 40
0.1250000000000027
 40
0.2500000000000053
 40
0.2500000000000053
 40
0.5000000000000048
 40
0.5000000000000048
 40
1.0
 40
1.0
 40
1.0
 40
1.0
 10
224.6957594771146
 20
47.19615400097673
 30
0.0
 10
224.7149548530402
 20
47.18097126924052
 30
0.0
 10
224.7325669264405
 20
47.16960345074374
 30
0.0
 10
224.7584118563598
 20
47.1583349815313
 30
0.0
 10
224.7665502206075
 20
47.15795151129424
 30
0.0
 10
224.7835003115755
 20
47.16372730398863
 30
0.0
 10
224.7856695840852
 20
47.17639272960666
 30
0.0
 10
224.7844940362706
 20
47.22082955665044
 30
0.0
 10
224.7724205156665
 20
47.26131282742387
 30
0.0
 10
224.7576422876265
 20
47.30531649730637
 30
0.0
  0
SPLINE
  5
23D
330
1F
100
AcDbEntity
  8
0
  6
Continuous
 62
     7
370
    15
100
AcDbSpline
210
0.0
220
0.0
230
1.0
 70
     8
 71
     3
 72
    14
 73
    10
 74
     0
 42
0.000000001
 43
0.00000001
 40
0.0
 40
0.0
 40
0.0
 40
0.0
 40
0.25
 40
0.25
 40
0.5
 40
0.5
 40
0.75
 40
0.75
 40
1.0
 40
1.0
 40
1.0
 40
1.0
 10
224.7576422876257
 20
47.30531649730707
 30
0.0
 10
224.7395860406792
 20
47.35908080029384
 30
0.0
 10
224.736663242578
 20
47.40363140939089
 30
0.0
 10
224.7312495140347
 20
47.4958927592356
 30
0.0
 10
224.7296822359936
 20
47.54318716215586
 30
0.0
 10
224.7195438361864
 20
47.64794821698364
 30
0.0
 10
224.7112288384422
 20
47.70520942401865
 30
0.0
 10
224.6824286637834
 20
47.83483078139307
 30
0.0
 10
224.6617752671128
 20
47.90762498100612
 30
0.0
 10
224.6330857499517
 20
47.98731167996588
 30
0.0
  0
ARC
  5
23E
330
1F
100
AcDbEntity
  8
0
  6
Continuous
 62
     7
370
    15
100
AcDbCircle
 10
234.9880530273
 20
51.0738731779
 30
0.0
 40
10.80519362138088
100
AcDbArc
 50
163.4019732888
 51
196.5980267112
  0
SPLINE
  5
23F
330
1F
100
AcDbEntity
  8
0
  6
Continuous
 62
     7
370
    15
100
AcDbSpline
210
0.0
220
0.0
230
1.0
 70
     8
 71
     3
 72
    14
 73
    10
 74
     0
 42
0.000000001
 43
0.00000001
 40
0.0
 40
0.0
 40
0.0
 40
0.0
 40
0.25
 40
0.25
 40
0.5
 40
0.5
 40
0.75
 40
0.75
 40
1.0
 40
1.0
 40
1.0
 40
1.0
 10
224.7576422876257
 20
55.62163969223006
 30
0.0
 10
224.7395860406792
 20
55.5007976132855
 30
0.0
 10
224.736663242578
 20
55.37570334671939
 30
0.0
 10
224.7312495140347
 20
55.12775203606803
 30
0.0
 10
224.7296822359936
 20
55.00384341175428
 30
0.0
 10
224.7195438361864
 20
54.75768767251407
 30
0.0
 10
224.7112288384422
 20
54.63539973065266
 30
0.0
 10
224.6824286637834
 20
54.39340255344388
 30
0.0
 10
224.6617752671128
 20
54.27324558626429
 30
0.0
 10
224.6330857499517
 20
54.16043467585901
 30
0.0
  0
SPLINE
  5
240
330
1F
100
AcDbEntity
  8
0
  6
Continuous
 62
     7
370
    15
100
AcDbSpline
210
0.0
220
0.0
230
1.0
 70
     8
 71
     3
 72
    14
 73
    10
 74
     0
 42
0.000000001
 43
0.00000001
 40
0.0
 40
0.0
 40
0.0
 40
0.0
 40
0.1249999999999979
 40
0.1249999999999979
 40
0.2499999999999958
 40
0.2499999999999958
 40
0.4999999999999948
 40
0.4999999999999948
 40
1.0
 40
1.0
 40
1.0
 40
1.0
 10
224.6957594771147
 20
56.16692525652407
 30
0.0
 10
224.7149548530402
 20
56.16463844855025
 30
0.0
 10
224.7325669264406
 20
56.15314020927742
 30
0.0
 10
224.7584118563598
 20
56.1164487067509
 30
0.0
 10
224.7665502206075
 20
56.09336729164883
 30
0.0
 10
224.7835003115755
 20
56.02203477257174
 30
0.0
 10
224.7856695840853
 20
55.97079066696367
 30
0.0
 10
224.7844940362706
 20
55.82075518720208
 30
0.0
 10
224.7724205156665
 20
55.720543512319
 30
0.0
 10
224.7576422876265
 20
55.62163969223038
 30
0.0
  0
SPLINE
  5
241
330
1F
100
AcDbEntity
  8
0
  6
Continuous
 62
     7
370
    15
100
AcDbSpline
210
0.0
220
0.0
230
1.0
 70
     8
 71
     3
 72
     8
 73
     4
 74
     0
 42
0.000000001
 43
0.00000001
 40
0.0
 40
0.0
 40
0.0
 40
0.0
 40
1.0
 40
1.0
 40
1.0
 40
1.0
 10
223.784167887227
 20
56.21913806766015
 30
0.0
 10
224.0858203604645
 20
56.22648431480326
 30
0.0
 10
224.391099903988
 20
56.20322034883332
 30
0.0
 10
224.6957594771147
 20
56.16692525652407
 30
0.0
  0
SPLINE
  5
242
330
1F
100
AcDbEntity
  8
0
  6
Continuous
 62
     7
370
    15
100
AcDbSpline
210
0.0
220
0.0
230
1.0
 70
     8
 71
     3
 72
    14
 73
    10
 74
     0
 42
0.000000001
 43
0.00000001
 40
0.0
 40
0.0
 40
0.0
 40
0.0
 40
0.5000000000000019
 40
0.5000000000000019
 40
0.7500000000000018
 40
0.7500000000000018
 40
0.875000000000001
 40
0.875000000000001
 40
1.0
 40
1.0
 40
1.0
 40
1.0
 10
221.8554995199715
 20
56.85177741264515
 30
0.0
 10
222.1706654638113
 20
56.71439291891902
 30
0.0
 10
222.4869411190773
 20
56.58281941128787
 30
0.0
 10
222.9657656076484
 20
56.40792394476711
 30
0.0
 10
223.1260856180724
 20
56.35325279450258
 30
0.0
 10
223.3691381540261
 20
56.28422097878254
 30
0.0
 10
223.4505815920427
 20
56.26335869427374
 30
0.0
 10
223.615243041076
 20
56.23055098084411
 30
0.0
 10
223.6981490591423
 20
56.21704322135145
 30
0.0
 10
223.784167887227
 20
56.21913806766015
 30
0.0
  0
SPLINE
  5
243
330
1F
100
AcDbEntity
  8
0
  6
Continuous
 62
     7
370
    15
100
AcDbSpline
210
0.0
220
0.0
230
1.0
 70
     8
 71
     3
 72
     8
 73
     4
 74
     0
 42
0.000000001
 43
0.00000001
 40
0.0000005163856998
 40
0.0000005163856998
 40
0.0000005163856998
 40
0.0000005163856998
 40
0.000026289209185
 40
0.000026289209185
 40
0.000026289209185
 40
0.000026289209185
 10
221.8554779329522
 20
56.86465652383634
 30
0.0
 10
221.8554756317929
 20
56.86036368880981
 30
0.0
 10
221.8554828781172
 20
56.85607062113428
 30
0.0
 10
221.8554995199714
 20
56.85177741264515
 30
0.0
  0
LINE
  5
244
330
1F
100
AcDbEntity
  8
0
  6
Continuous
 62
     7
370
    15
100
AcDbLine
 10
234.6622524329
 20
67.3878744142
 30
0.0
 11
234.7196533291
 21
67.3598731148
 31
0.0
  0
SPLINE
  5
245
330
1F
100
AcDbEntity
  8
0
  6
Continuous
 62
     7
370
    15
100
AcDbSpline
210
0.0
220
0.0
230
1.0
 70
     8
 71
     3
 72
     8
 73
     4
 74
     0
 42
0.000000001
 43
0.00000001
 40
0.0000005163857002
 40
0.0000005163857002
 40
0.0000005163857002
 40
0.0000005163857002
 40
0.0000262892091854
 40
0.0000262892091854
 40
0.0000262892091854
 40
0.0000262892091854
 10
221.8554779329522
 20
49.39118547197657
 30
0.0
 10
221.8554756317929
 20
49.39275885767427
 30
0.0
 10
221.8554828781172
 20
49.39432658760644
 30
0.0
 10
221.8554995199714
 20
49.39588874434222
 30
0.0
  0
SPLINE
  5
246
330
1F
100
AcDbEntity
  8
0
  6
Continuous
 62
     7
370
    15
100
AcDbSpline
210
0.0
220
0.0
230
1.0
 70
     8
 71
     3
 72
    18
 73
    14
 74
     0
 42
0.000000001
 43
0.00000001
 40
0.0
 40
0.0
 40
0.0
 40
0.0
 40
0.1239924398723225
 40
0.248662015472557
 40
0.3733088288804859
 40
0.4972464153495756
 40
0.6201266906733968
 40
0.6819366721410036
 40
0.7429470023677782
 40
0.803869868033269
 40
0.8660714721359477
 40
0.989387646975135
 40
1.0
 40
1.0
 40
1.0
 40
1.0
 10
227.5443462314061
 20
47.51821435672031
 30
0.0
 10
227.4112994247254
 20
47.76314912499402
 30
0.0
 10
227.1444792287886
 20
48.25435627601838
 30
0.0
 10
227.0197846347952
 20
49.0063773962368
 30
0.0
 10
227.1556103054992
 20
49.63106443886831
 30
0.0
 10
227.5226869474321
 20
50.04792982551791
 30
0.0
 10
227.9653243669603
 20
50.14191206671986
 30
0.0
 10
228.341554433979
 20
50.05997034136442
 30
0.0
 10
228.6237636445353
 20
49.91768985868391
 30
0.0
 10
228.8961953556675
 20
49.70102106347861
 30
0.0
 10
229.2221926112815
 20
49.32313128148346
 30
0.0
 10
229.4733935394826
 20
48.94960253859814
 30
0.0
 10
229.5629460607469
 20
48.66441556231906
 30
0.0
 10
229.5700421065639
 20
48.6418176519363
 30
0.0
  0
SPLINE
  5
247
330
1F
100
AcDbEntity
  8
0
  6
Continuous
 62
     7
370
    15
100
AcDbSpline
210
0.0
220
0.0
230
1.0
 70
     8
 71
     3
 72
    13
 73
     9
 74
     0
 42
0.000000001
 43
0.00000001
 40
0.0
 40
0.0
 40
0.0
 40
0.0
 40
0.0382885351515911
 40
0.1999071033718844
 40
0.3588616305053315
 40
0.51793467972399
 40
0.6793040398967264
 40
1.0
 40
1.0
 40
1.0
 40
1.0
 10
229.1811388897622
 20
46.18869857371541
 30
0.0
 10
229.1652048378668
 20
46.18570686111753
 30
0.0
 10
229.0820120453828
 20
46.17008692169716
 30
0.0
 10
228.8831795821184
 20
46.25583509723681
 30
0.0
 10
228.6160939702061
 20
46.3917253814318
 30
0.0
 10
228.3329880812287
 20
46.60297076632511
 30
0.0
 10
227.9533519557736
 20
46.95090750895602
 30
0.0
 10
227.7077403644686
 20
47.29158033903204
 30
0.0
 10
227.5443462314061
 20
47.51821435672031
 30
0.0
  0
ARC
  5
248
330
1F
100
AcDbEntity
  8
0
  6
Continuous
 62
     7
370
    15
100
AcDbCircle
 10
242.3141752429
 20
40.5672362535
 30
0.0
 40
6.563602728730301
100
AcDbArc
 50
198.0227526841
 51
217.4462785396
  0
SPLINE
  5
249
330
1F
100
AcDbEntity
  8
0
  6
Continuous
 62
     7
370
    15
100
AcDbSpline
210
0.0
220
0.0
230
1.0
 70
     8
 71
     3
 72
     8
 73
     4
 74
     0
 42
0.000000001
 43
0.00000001
 40
0.0
 40
0.0
 40
0.0
 40
0.0
 40
1.0
 40
1.0
 40
1.0
 40
1.0
 10
234.5979481135137
 20
38.29011143345564
 30
0.0
 10
235.0897429122656
 20
38.37176172053737
 30
0.0
 10
235.5813230031683
 20
38.45384550802781
 30
0.0
 10
236.0726240322209
 20
38.5364927282317
 30
0.0
  0
LINE
  5
24A
330
1F
100
AcDbEntity
  8
0
  6
Continuous
 62
     7
370
    15
100
AcDbLine
 10
236.0726240322
 20
38.5364927282
 30
0.0
 11
236.3177926366
 21
38.6780255509
 31
0.0
  0
SPLINE
  5
24B
330
1F
100
AcDbEntity
  8
0
  6
Continuous
 62
     7
370
    15
100
AcDbSpline
210
0.0
220
0.0
230
1.0
 70
     8
 71
     3
 72
    10
 73
     6
 74
     0
 42
0.000000001
 43
0.00000001
 40
0.0
 40
0.0
 40
0.0
 40
0.0
 40
0.5
 40
0.5
 40
1.0
 40
1.0
 40
1.0
 40
1.0
 10
236.317792636587
 20
38.67802555092148
 30
0.0
 10
236.342624939939
 20
38.69236093450932
 30
0.0
 10
236.3702999374323
 20
38.70495637464541
 30
0.0
 10
236.4304249468869
 20
38.72615427278568
 30
0.0
 10
236.4621193470816
 20
38.73451643845234
 30
0.0
 10
236.4953013396633
 20
38.74062789352358
 30
0.0
  0
SPLINE
  5
24C
330
1F
100
AcDbEntity
  8
0
  6
Continuous
 62
     7
370
    15
100
AcDbSpline
210
0.0
220
0.0
230
1.0
 70
     8
 71
     3
 72
    16
 73
    12
 74
     0
 42
0.000000001
 43
0.00000001
 40
0.0
 40
0.0
 40
0.0
 40
0.0
 40
0.0931563782714565
 40
0.2183341667759444
 40
0.3471703664421558
 40
0.4719831854668946
 40
0.6003222233091315
 40
0.7268452815747091
 40
0.8569621333602261
 40
0.9847114590764011
 40
1.0
 40
1.0
 40
1.0
 40
1.0
 10
228.5534906079634
 20
49.8702549111774
 30
0.0
 10
228.5432214635107
 20
49.8127199688431
 30
0.0
 10
228.5191532768854
 20
49.67787312391255
 30
0.0
 10
228.5323775474567
 20
49.43886378694435
 30
0.0
 10
228.5841946896033
 20
49.16934644566977
 30
0.0
 10
228.6790754513641
 20
48.89220173959438
 30
0.0
 10
228.8099756392554
 20
48.61949747336245
 30
0.0
 10
228.9749435892297
 20
48.35126083084683
 30
0.0
 10
229.1670498917147
 20
48.10165644537932
 30
0.0
 10
229.3148500835978
 20
47.93159026557731
 30
0.0
 10
229.3975685395108
 20
47.85662196963494
 30
0.0
 10
229.4064098661335
 20
47.84860901553117
 30
0.0
  0
LINE
  5
24D
330
1F
100
AcDbEntity
  8
0
  6
Continuous
 62
     7
370
    15
100
AcDbLine
 10
256.2215382673
 20
59.8163426651
 30
0.0
 11
256.3165465827
 21
59.8373911865
 31
0.0
  0
LINE
  5
24E
330
1F
100
AcDbEntity
  8
0
  6
Continuous
 62
     7
370
    15
100
AcDbLine
 10
256.3165465827
 20
59.8373911865
 30
0.0
 11
257.7159346503
 21
59.0295416506
 31
0.0
  0
SPLINE
  5
24F
330
1F
100
AcDbEntity
  8
0
  6
Continuous
 62
     7
370
    15
100
AcDbSpline
210
0.0
220
0.0
230
1.0
 70
     8
 71
     3
 72
    12
 73
     8
 74
     0
 42
0.000000001
 43
0.00000001
 40
0.0
 40
0.0
 40
0.0
 40
0.0
 40
0.249999999999998
 40
0.249999999999998
 40
0.499999999999996
 40
0.499999999999996
 40
1.0
 40
1.0
 40
1.0
 40
1.0
 10
257.7159346502788
 20
59.02954165059988
 30
0.0
 10
257.7481786211515
 20
59.01092760242627
 30
0.0
 10
257.770231623685
 20
58.98667727962886
 30
0.0
 10
257.79108056785
 20
58.93608942174132
 30
0.0
 10
257.7906993986227
 20
58.90925085330726
 30
0.0
 10
257.7649464657255
 20
58.83201673703844
 30
0.0
 10
257.7169950386168
 20
58.78523136621061
 30
0.0
 10
257.6530949894815
 20
58.74834265304315
 30
0.0
  0
SPLINE
  5
250
330
1F
100
AcDbEntity
  8
0
  6
Continuous
 62
     7
370
    15
100
AcDbSpline
210
0.0
220
0.0
230
1.0
 70
     8
 71
     3
 72
    12
 73
     8
 74
     0
 42
0.000000001
 43
0.00000001
 40
0.0
 40
0.0
 40
0.0
 40
0.0
 40
0.1944272588039715
 40
0.3737617258565514
 40
0.6863630052030528
 40
0.9660591267251734
 40
1.0
 40
1.0
 40
1.0
 40
1.0
 10
227.8356155812552
 20
47.70113744190868
 30
0.0
 10
227.9151692141967
 20
47.58673803846879
 30
0.0
 10
228.0681009755624
 20
47.36681970639083
 30
0.0
 10
228.3929622583815
 20
47.01286721363367
 30
0.0
 10
228.7774604485777
 20
46.70943482408114
 30
0.0
 10
229.0698604429971
 20
46.54395202335716
 30
0.0
 10
229.1925246849367
 20
46.52736273565417
 30
0.0
 10
229.2057990484846
 20
46.52556749172254
 30
0.0
  0
SPLINE
  5
251
330
1F
100
AcDbEntity
  8
0
  6
Continuous
 62
     7
370
    15
100
AcDbSpline
210
0.0
220
0.0
230
1.0
 70
     8
 71
     3
 72
    16
 73
    12
 74
     0
 42
0.000000001
 43
0.00000001
 40
0.0
 40
0.0
 40
0.0
 40
0.0
 40
0.1460145430680038
 40
0.2335492809465956
 40
0.3282846594090491
 40
0.4359414638218692
 40
0.5278790608120891
 40
0.6640995322706775
 40
0.8013223014627425
 40
0.8930413578038069
 40
1.0
 40
1.0
 40
1.0
 40
1.0
 10
228.7752230532018
 20
49.78310635936624
 30
0.0
 10
228.6283624472736
 20
49.85657725930373
 30
0.0
 10
228.3934598944645
 20
49.97409347029448
 30
0.0
 10
228.0766088048246
 20
49.96412353675312
 30
0.0
 10
227.8234796457416
 20
49.8763881944702
 30
0.0
 10
227.6147563701952
 20
49.69459597955922
 30
0.0
 10
227.4517254537824
 20
49.40273060492382
 30
0.0
 10
227.3746976473017
 20
48.99284723115036
 30
0.0
 10
227.4500969873351
 20
48.52827806895761
 30
0.0
 10
227.6088395244172
 20
48.08633340245552
 30
0.0
 10
227.7562544062595
 20
47.83593828666648
 30
0.0
 10
227.8356155812552
 20
47.70113744190868
 30
0.0
  0
SPLINE
  5
252
330
1F
100
AcDbEntity
  8
0
  6
Continuous
 62
     7
370
    15
100
AcDbSpline
210
0.0
220
0.0
230
1.0
 70
     8
 71
     3
 72
    10
 73
     6
 74
     0
 42
0.000000001
 43
0.00000001
 40
0.0
 40
0.0
 40
0.0
 40
0.0
 40
0.3338925824292444
 40
0.7038858844675331
 40
1.0
 40
1.0
 40
1.0
 40
1.0
 10
259.8329241986426
 20
55.16872695951396
 30
0.0
 10
259.8536867869105
 20
55.18315560777675
 30
0.0
 10
259.8974568302595
 20
55.21357294071129
 30
0.0
 10
259.929435628913
 20
55.26888296274871
 30
0.0
 10
259.9228938136653
 20
55.3062250252603
 30
0.0
 10
259.9199856883616
 20
55.322825218444
 30
0.0
  0
SPLINE
  5
253
330
1F
100
AcDbEntity
  8
0
  6
Continuous
 62
     7
370
    15
100
AcDbSpline
210
0.0
220
0.0
230
1.0
 70
     8
 71
     3
 72
     9
 73
     5
 74
     0
 42
0.000000001
 43
0.00000001
 40
0.0
 40
0.0
 40
0.0
 40
0.0
 40
0.9351644297790086
 40
1.0
 40
1.0
 40
1.0
 40
1.0
 10
253.9180878761806
 20
61.22199192567047
 30
0.0
 10
253.8666412175351
 20
61.14333343399675
 30
0.0
 10
253.8116277279206
 20
61.05922149692027
 30
0.0
 10
253.7540973770063
 20
60.97567681698449
 30
0.0
 10
253.7503673638998
 20
60.97026015002192
 30
0.0
  0
LINE
  5
254
330
1F
100
AcDbEntity
  8
0
  6
Continuous
 62
     7
370
    15
100
AcDbLine
 10
223.6952553651
 20
51.5708699476
 30
0.0
 11
224.1956382005
 21
51.2820050854
 31
0.0
  0
SPLINE
  5
255
330
1F
100
AcDbEntity
  8
0
  6
Continuous
 62
     7
370
    15
100
AcDbSpline
210
0.0
220
0.0
230
1.0
 70
     8
 71
     3
 72
     9
 73
     5
 74
     0
 42
0.000000001
 43
0.00000001
 40
0.0
 40
0.0
 40
0.0
 40
0.0
 40
0.7009329310329868
 40
1.0
 40
1.0
 40
1.0
 40
1.0
 10
221.8694444242551
 20
57.32824837832581
 30
0.0
 10
221.8663720421562
 20
57.38225255315084
 30
0.0
 10
221.8619887667201
 20
57.45929869042597
 30
0.0
 10
221.8863999008635
 20
57.5489309858092
 30
0.0
 10
221.8937004672019
 20
57.57573705367425
 30
0.0
  0
SPLINE
  5
256
330
1F
100
AcDbEntity
  8
0
  6
Continuous
 62
     7
370
    15
100
AcDbSpline
210
0.0
220
0.0
230
1.0
 70
     8
 71
     3
 72
    10
 73
     6
 74
     0
 42
0.000000001
 43
0.00000001
 40
0.0
 40
0.0
 40
0.0
 40
0.0
 40
0.5
 40
0.5
 40
1.0
 40
1.0
 40
1.0
 40
1.0
 10
221.9099368701703
 20
57.380598702958
 30
0.0
 10
221.8900108196736
 20
57.29663822893998
 30
0.0
 10
221.8767165555327
 20
57.21119236642622
 30
0.0
 10
221.859448029392
 20
57.03877889548893
 30
0.0
 10
221.8555245747699
 20
56.95166728922262
 30
0.0
 10
221.8554779329522
 20
56.86465652383634
 30
0.0
  0
SPLINE
  5
257
330
1F
100
AcDbEntity
  8
0
  6
Continuous
 62
     7
370
    15
100
AcDbSpline
210
0.0
220
0.0
230
1.0
 70
     8
 71
     3
 72
    24
 73
    20
 74
     0
 42
0.000000001
 43
0.00000001
 40
0.0
 40
0.0
 40
0.0
 40
0.0
 40
0.2500000000000114
 40
0.2500000000000114
 40
0.3750000000000163
 40
0.3750000000000163
 40
0.4375000000000177
 40
0.4375000000000177
 40
0.4687500000000166
 40
0.4687500000000166
 40
0.5000000000000155
 40
0.5000000000000155
 40
0.5625000000000157
 40
0.5625000000000157
 40
0.6250000000000157
 40
0.6250000000000157
 40
0.7500000000000099
 40
0.7500000000000099
 40
1.0
 40
1.0
 40
1.0
 40
1.0
 10
221.8937004672019
 20
57.57573705367425
 30
0.0
 10
221.9235414964871
 20
57.6830161102305
 30
0.0
 10
221.9533710365282
 20
57.78890068360116
 30
0.0
 10
221.9980421933995
 20
57.93884872685146
 30
0.0
 10
222.0129949854913
 20
57.98784898961439
 30
0.0
 10
222.0345781237806
 20
58.05099927151714
 30
0.0
 10
222.0417078353102
 20
58.07063945574565
 30
0.0
 10
222.0505594606117
 20
58.08834938523365
 30
0.0
 10
222.0531975578815
 20
58.09206575171932
 30
0.0
 10
222.0563500959265
 20
58.08991740333712
 30
0.0
 10
222.0567300570633
 20
58.08375499427054
 30
0.0
 10
222.0547201318025
 20
58.05510991091778
 30
0.0
 10
222.0501434902041
 20
58.02680890592959
 30
0.0
 10
222.0402121040977
 20
57.97042989578031
 30
0.0
 10
222.0345219183627
 20
57.94096014782426
 30
0.0
 10
222.0169403177441
 20
57.85310572725793
 30
0.0
 10
222.0042594448159
 20
57.7938807342086
 30
0.0
 10
221.9650183811955
 20
57.61538742707882
 30
0.0
 10
221.937714921159
 20
57.49764439290512
 30
0.0
 10
221.9099368701703
 20
57.38059870295802
 30
0.0
  0
ARC
  5
258
330
1F
100
AcDbEntity
  8
0
  6
Continuous
 62
     7
370
    15
100
AcDbCircle
 10
222.5726149072
 20
56.7859892691
 30
0.0
 40
0.7201267655269452
100
AcDbArc
 50
174.7583590299
 51
234.4349468916
  0
ARC
  5
259
330
1F
100
AcDbEntity
  8
0
  6
Continuous
 62
     7
370
    15
100
AcDbCircle
 10
224.0679488523
 20
49.2860928917
 30
0.0
 40
2.215172042338717
100
AcDbArc
 50
122.6235698331
 51
177.1589486026
  0
LINE
  5
25A
330
1F
100
AcDbEntity
  8
0
  6
Continuous
 62
     7
370
    15
100
AcDbLine
 10
222.8737112816
 20
51.1517787715
 30
0.0
 11
223.6177979132
 21
51.5813308407
 31
0.0
  0
SPLINE
  5
25B
330
1F
100
AcDbEntity
  8
0
  6
Continuous
 62
     7
370
    15
100
AcDbSpline
210
0.0
220
0.0
230
1.0
 70
     8
 71
     3
 72
     8
 73
     4
 74
     0
 42
0.000000001
 43
0.00000001
 40
0.0
 40
0.0
 40
0.0
 40
0.0
 40
0.0001590976915385
 40
0.0001590976915385
 40
0.0001590976915385
 40
0.0001590976915385
 10
223.6952553651298
 20
51.57086994760358
 30
0.0
 10
223.6694352361821
 20
51.5743544969835
 30
0.0
 10
223.6436160922476
 20
51.57784147963893
 30
0.0
 10
223.6177979132092
 20
51.58133084067612
 30
0.0
  0
SPLINE
  5
25C
330
1F
100
AcDbEntity
  8
0
  6
Continuous
 62
     7
370
    15
100
AcDbSpline
210
0.0
220
0.0
230
1.0
 70
     8
 71
     3
 72
    10
 73
     6
 74
     0
 42
0.000000001
 43
0.00000001
 40
0.0
 40
0.0
 40
0.0
 40
0.0
 40
0.5
 40
0.5
 40
1.0
 40
1.0
 40
1.0
 40
1.0
 10
221.9099368701703
 20
49.19594308725402
 30
0.0
 10
221.8900108196736
 20
49.2344646487707
 30
0.0
 10
221.8767165555327
 20
49.2664279759645
 30
0.0
 10
221.859448029392
 20
49.32887139946295
 30
0.0
 10
221.8555245747699
 20
49.359294776676
 30
0.0
 10
221.8554779329522
 20
49.39118547197656
 30
0.0
  0
LINE
  5
25D
330
1F
100
AcDbEntity
  8
0
  6
Continuous
 62
     7
370
    15
100
AcDbLine
 10
221.8658444989
 20
49.9930556484
 30
0.0
 11
221.8694444243
 21
49.8574187662
 31
0.0
  0
ARC
  5
25E
330
1F
100
AcDbEntity
  8
0
  6
Continuous
 62
     7
370
    15
100
AcDbCircle
 10
223.2025700976
 20
49.7807505066
 30
0.0
 40
1.353480254557248
100
AcDbArc
 50
122.9135798094
 51
170.9753897871
  0
LINE
  5
25F
330
1F
100
AcDbEntity
  8
0
  6
Continuous
 62
     7
370
    15
100
AcDbLine
 10
222.8737112816
 20
51.1517787715
 30
0.0
 11
222.4671248824
 21
50.9169851368
 31
0.0
  0
LINE
  5
260
330
1F
100
AcDbEntity
  8
0
  6
Continuous
 62
     7
370
    15
100
AcDbLine
 10
221.9650964571
 20
49.1002189606
 30
0.0
 11
221.9099368702
 21
49.1959430873
 31
0.0
  0
LWPOLYLINE
  5
261
330
1F
100
AcDbEntity
  8
0
  6
Continuous
 62
     7
370
    15
100
AcDbPolyline
 90
        8
 70
   128
 43
0.0
 10
274.7754179042
 20
33.9421991713
 10
274.6201688173
 20
33.7583709596
 10
274.3639292722
 20
33.628262958
 10
274.0541050986
 20
33.6151459248
 10
273.7118103019
 20
33.7199137641
 10
273.3603717069
 20
33.9354267209
 10
273.023739273
 20
34.2469979434
 10
272.8898264262
 20
34.4047878526
  0
LWPOLYLINE
  5
262
330
1F
100
AcDbEntity
  8
0
  6
Continuous
 62
     7
370
    15
100
AcDbPolyline
 90
       16
 70
   128
 43
0.0
 10
268.7424628699
 20
42.0795796918
 10
269.268621073
 20
41.9048429854
 10
269.8449389603
 20
41.7948265013
 10
270.4478220095
 20
41.7540343273
 10
271.052588118
 20
41.7841364997
 10
271.6344780901
 20
41.883900632
 10
272.1696692819
 20
42.049242369
 10
272.6362509034
 20
42.2733926005
 10
273.0151210479
 20
42.5471745898
 10
273.2907687274
 20
42.8593796699
 10
273.4519088933
 20
43.1972261283
 10
273.4919444485
 20
43.5468824912
 10
273.4092363324
 20
43.8940337861
 10
273.2071706253
 20
44.2244675981
 10
272.8940199208
 20
44.5246559282
 10
272.6154824944
 20
44.7101070517
  0
LWPOLYLINE
  5
263
330
1F
100
AcDbEntity
  8
0
  6
Continuous
 62
     7
370
    15
100
AcDbPolyline
 90
       10
 70
   128
 43
0.0
 10
268.3721524269
 20
44.7101070517
 10
268.1499231821
 20
44.5666502457
 10
267.8209765513
 20
44.2721457034
 10
267.6014563414
 20
43.945443732
 10
267.5003497355
 20
43.5999195485
 10
267.5217960501
 20
43.2497189536
 10
267.6649172704
 20
42.9091792008
 10
267.9238539968
 20
42.5922420276
 10
268.2880053294
 20
42.3118828791
 10
268.7424628699
 20
42.0795796918
  0
LWPOLYLINE
  5
264
330
1F
100
AcDbEntity
  8
0
  6
Continuous
 62
     7
370
    15
100
AcDbPolyline
 90
       30
 70
   128
 43
0.0
 10
268.9467875721
 20
42.5294156338
 10
269.4454774766
 20
42.3664683931
 10
269.9931865936
 20
42.2692180825
 10
270.5643046535
 20
42.2422120185
 10
271.1321268106
 20
42.2867129747
 10
271.6701023319
 20
42.4006401357
 10
272.15307608
 20
42.5786663942
 10
272.5584647392
 20
42.8124674401
 10
272.8673127864
 20
43.0911109964
 10
273.06517883
 20
43.4015680001
 10
273.1428108739
 20
43.7293218268
 10
273.0965789299
 20
44.0590470718
 10
272.9286447524
 20
44.375326149
 10
272.6468607568
 20
44.6633702005
 10
272.2644028497
 20
44.9097106064
 10
271.7991543376
 20
45.1028287631
 10
271.2728697239
 20
45.2336946804
 10
270.7101574923
 20
45.2961892133
 10
270.1373294412
 20
45.2873901869
 10
269.5811703737
 20
45.207709034
 10
269.0676856696
 20
45.0608715567
 10
268.6208853031
 20
44.8537437122
 10
268.2616611626
 20
44.5960105683
 10
268.0068101698
 20
44.2997234405
 10
267.8682488737
 20
43.9787363854
 10
267.8524562467
 20
43.6480584011
 10
267.9601707344
 20
43.3231516225
 10
268.1863557271
 20
43.0192083295
 10
268.5204350658
 20
42.7504405728
 10
268.9467875721
 20
42.5294156338
  0
LWPOLYLINE
  5
265
330
1F
100
AcDbEntity
  8
0
  6
Continuous
 62
     7
370
    15
100
AcDbPolyline
 90
       25
 70
   128
 43
0.0
 10
269.4430047062
 20
42.9278146599
 10
269.8570575199
 20
42.7995568246
 10
270.3145044713
 20
42.7375341646
 10
270.7841713065
 20
42.7459734217
 10
271.234051007
 20
42.8242994745
 10
271.6334850147
 20
42.967174532
 10
271.9552525619
 20
43.164861895
 10
272.177425722
 20
43.4038894965
 10
272.2848637615
 20
43.6679680005
 10
272.2702449554
 20
43.9391008933
 10
272.1345655512
 20
44.1988109163
 10
271.8870718761
 20
44.4293992607
 10
271.5446302151
 20
44.6151517118
 10
271.1305774014
 20
44.7434095471
 10
270.67313045
 20
44.8054322071
 10
270.2034636147
 20
44.79699295
 10
269.7535839142
 20
44.7186668972
 10
269.3541499066
 20
44.5757918397
 10
269.0323823594
 20
44.3781044767
 10
268.8102091992
 20
44.1390768752
 10
268.7027711598
 20
43.8749983712
 10
268.7173899659
 20
43.6038654785
 10
268.85306937
 20
43.3441554554
 10
269.1005630451
 20
43.1135671111
 10
269.4430047062
 20
42.9278146599
  0
LINE
  5
266
330
1F
100
AcDbEntity
  8
0
  6
Continuous
 62
     7
370
    15
100
AcDbLine
 10
271.6278422235
 20
42.9640526974
 30
0.0
 11
271.9000840425
 21
43.1322782878
 31
0.0
  0
SPLINE
  5
267
330
1F
100
AcDbEntity
  8
0
  6
Continuous
 62
     7
370
    15
100
AcDbSpline
210
0.0
220
0.0
230
1.0
 70
     8
 71
     3
 72
    11
 73
     7
 74
     0
 42
0.000000001
 43
0.00000001
 40
0.0
 40
0.0
 40
0.0
 40
0.0
 40
0.2164553779443456
 40
0.4403112895790611
 40
0.7519005688038861
 40
1.0
 40
1.0
 40
1.0
 40
1.0
 10
271.9000840424549
 20
43.13227828783096
 30
0.0
 10
271.9119034739404
 20
43.15606921334113
 30
0.0
 10
271.9359464391413
 20
43.20446446778637
 30
0.0
 10
271.9805637610765
 20
43.38651986551287
 30
0.0
 10
272.0284238422625
 20
43.70783819196565
 30
0.0
 10
272.0590514202439
 20
43.99839697735499
 30
0.0
 10
272.0726280469196
 20
44.12719619742485
 30
0.0
  0
SPLINE
  5
268
330
1F
100
AcDbEntity
  8
0
  6
Continuous
 62
     7
370
    15
100
AcDbSpline
210
0.0
220
0.0
230
1.0
 70
     8
 71
     3
 72
    11
 73
     7
 74
     0
 42
0.000000001
 43
0.00000001
 40
0.0
 40
0.0
 40
0.0
 40
0.0
 40
0.1849308168246237
 40
0.5198464202157657
 40
0.8714438233692634
 40
0.9999999999999999
 40
0.9999999999999999
 40
0.9999999999999999
 40
0.9999999999999999
 10
272.0726280469196
 20
44.12719619742485
 30
0.0
 10
271.990776460665
 20
44.1229552171805
 30
0.0
 10
271.7606890429261
 20
44.11103368654494
 30
0.0
 10
271.3311869388963
 20
44.20994411998966
 30
0.0
 10
270.9345241727727
 20
44.4717864942046
 30
0.0
 10
270.7229959646273
 20
44.66041457930524
 30
0.0
 10
270.6663614650972
 20
44.71091780670305
 30
0.0
  0
SPLINE
  5
269
330
1F
100
AcDbEntity
  8
0
  6
Continuous
 62
     7
370
    15
100
AcDbSpline
210
0.0
220
0.0
230
1.0
 70
     8
 71
     3
 72
    11
 73
     7
 74
     0
 42
0.000000001
 43
0.00000001
 40
0.0
 40
0.0
 40
0.0
 40
0.0
 40
0.2164553779443386
 40
0.4403112895790576
 40
0.7519005688038761
 40
1.0
 40
1.0
 40
1.0
 40
1.0
 10
270.6663614650972
 20
44.71091780670305
 30
0.0
 10
270.5582114102108
 20
44.63838854643605
 30
0.0
 10
270.3382136878753
 20
44.49085027585269
 30
0.0
 10
269.929956672967
 20
44.30930538172411
 30
0.0
 10
269.4920277917439
 20
44.24059717290659
 30
0.0
 10
269.2117796052059
 20
44.28156239665214
 30
0.0
 10
269.08755087881
 20
44.29972150638735
 30
0.0
  0
SPLINE
  5
26A
330
1F
100
AcDbEntity
  8
0
  6
Continuous
 62
     7
370
    15
100
AcDbSpline
210
0.0
220
0.0
230
1.0
 70
     8
 71
     3
 72
    11
 73
     7
 74
     0
 42
0.000000001
 43
0.00000001
 40
0.0
 40
0.0
 40
0.0
 40
0.0
 40
0.2164553779443464
 40
0.4403112895790571
 40
0.7519005688038737
 40
1.0
 40
1.0
 40
1.0
 40
1.0
 10
269.08755087881
 20
44.29972150638735
 30
0.0
 10
269.0757314473245
 20
44.18720675031099
 30
0.0
 10
269.0516884821236
 20
43.95833039798776
 30
0.0
 10
269.0070711601883
 20
43.62584374820381
 30
0.0
 10
268.9592110790024
 20
43.39522343066521
 30
0.0
 10
268.9285835010211
 20
43.33257462758318
 30
0.0
 10
268.9150068743452
 20
43.30480359679346
 30
0.0
  0
SPLINE
  5
26B
330
1F
100
AcDbEntity
  8
0
  6
Continuous
 62
     7
370
    15
100
AcDbSpline
210
0.0
220
0.0
230
1.0
 70
     8
 71
     3
 72
     9
 73
     5
 74
     0
 42
0.000000001
 43
0.00000001
 40
0.0
 40
0.0
 40
0.0
 40
0.0
 40
0.3555744232171366
 40
1.0
 40
1.0
 40
1.0
 40
1.0
 10
268.9150068743452
 20
43.30480359679346
 30
0.0
 10
268.9714435919652
 20
43.25322027635433
 30
0.0
 10
269.1301634377555
 20
43.10814988582281
 30
0.0
 10
269.3061313768551
 20
43.0081993401356
 30
0.0
 10
269.4195296175047
 20
42.94378865208137
 30
0.0
  0
LINE
  5
26C
330
1F
100
AcDbEntity
  8
0
  6
Continuous
 62
     7
370
    15
100
AcDbLine
 10
269.0875508788
 20
43.1550879856
 30
0.0
 11
269.0875508788
 21
44.2997215064
 31
0.0
  0
LINE
  5
26D
330
1F
100
AcDbEntity
  8
0
  6
Continuous
 62
     7
370
    15
100
AcDbLine
 10
270.6663614651
 20
42.7371504002
 30
0.0
 11
270.6663614651
 21
44.7109178067
 31
0.0
  0
LWPOLYLINE
  5
26E
330
1F
100
AcDbEntity
  8
0
  6
Continuous
 62
     7
370
     0
100
AcDbPolyline
 90
        9
 70
   128
 43
0.0
 10
241.502439432
 20
40.0959879319
 10
241.5463615874
 20
39.1050785238
 10
241.6776915357
 20
38.1747286599
 10
241.8951240607
 20
37.314184575
 10
242.1964982204
 20
36.5319987429
 10
242.5788188229
 20
35.8359448779
 10
243.0382861943
 20
35.2329406759
 10
243.5703339416
 20
34.7289790636
 10
244.0917821178
 20
34.372927851
  0
LWPOLYLINE
  5
26F
330
1F
100
AcDbEntity
  8
0
  6
Continuous
 62
     7
370
     0
100
AcDbPolyline
 90
       25
 70
   128
 43
0.0
 10
256.5907662758
 20
56.0241494105
 10
256.1898059816
 20
56.2276610664
 10
255.5008880607
 20
56.4643767934
 10
254.7606915792
 20
56.5891275592
 10
253.9765729423
 20
56.6006735349
 10
253.1563250732
 20
56.4988999712
 10
252.3080999638
 20
56.2848183396
 10
251.4403276562
 20
55.9605562796
 10
250.5616324617
 20
55.5293364531
 10
249.6807472476
 20
54.9954445166
 10
248.8064266472
 20
54.3641865279
 10
247.9473600513
 20
53.6418362126
 10
247.1120852496
 20
52.8355726126
 10
246.3089035785
 20
51.9534087378
 10
245.5457974182
 20
51.0041119291
 10
244.8303508606
 20
49.9971167247
 10
244.169674335
 20
48.9424310954
 10
243.5703339416
 20
47.8505369807
 10
243.0382861943
 20
46.732286115
 10
242.5788188229
 20
45.5987921777
 10
242.1964982204
 20
44.4613203408
 10
241.8951240607
 20
43.3311753105
 10
241.6776915357
 20
42.2195889759
 10
241.5463615874
 20
41.1376087812
 10
241.502439432
 20
40.0959879319
  0
LWPOLYLINE
  5
270
330
1F
100
AcDbEntity
  8
0
  6
Continuous
 62
     7
370
     0
100
AcDbPolyline
 90
       50
 70
   128
 43
0.0
 10
275.4612425985
 20
36.8211456337
 10
274.7830715371
 20
36.3793673974
 10
274.1160360258
 20
35.8442863159
 10
273.4710887692
 20
35.2246884057
 10
272.8588197834
 20
34.5307474473
 10
272.2892825084
 20
33.7738579322
 10
271.7718287303
 20
32.9664479652
 10
271.314955026
 20
32.1217751957
 10
270.9261632489
 20
31.2537091272
 10
270.6118373494
 20
30.3765033806
 10
270.3771385501
 20
29.5045616498
 10
270.2259205986
 20
28.6522011942
 10
270.1606664896
 20
27.8334177487
 10
270.1824476938
 20
27.0616557149
 10
270.2909065644
 20
26.3495874042
 10
270.4842622098
 20
25.7089049583
 10
270.7593397355
 20
25.1501283655
 10
271.1116223762
 20
24.6824327219
 10
271.5353256608
 20
24.313497577
 10
272.0234923929
 20
24.0493808357
 10
272.5681068883
 20
23.8944192876
 10
273.1602265921
 20
23.8511573971
 10
273.7901289152
 20
23.9203055232
 10
274.4474708787
 20
24.1007282556
 10
275.1214589458
 20
24.389463058
 10
275.8010262511
 20
24.7817689129
 10
276.4750143182
 20
25.271204169
 10
277.1323562818
 20
25.849732313
 10
277.7622586048
 20
26.5078539287
 10
278.3543783086
 20
27.2347626774
 10
278.8989928041
 20
28.0185227375
 10
279.3871595362
 20
28.8462647906
 10
279.8108628207
 20
29.7043973349
 10
280.1631454615
 20
30.5788298579
 10
280.4382229872
 20
31.4552042017
 10
280.6315786325
 20
32.3191303238
 10
280.7400375031
 20
33.1564225811
 10
280.7618187073
 20
33.9533326579
 10
280.6965645983
 20
34.6967753129
 10
280.5453466469
 20
35.3745432381
 10
280.3106478475
 20
35.9755075029
 10
279.996321948
 20
36.4898002909
 10
279.607530171
 20
36.9089769285
 10
279.1506564666
 20
37.226154547
 10
278.6332026885
 20
37.4361250987
 10
278.0636654135
 20
37.5354408728
 10
277.4513964278
 20
37.5224711073
 10
276.8064491712
 20
37.3974287651
 10
276.1394136599
 20
37.1623670383
 10
275.4612425985
 20
36.8211456337
  0
LWPOLYLINE
  5
271
330
1F
100
AcDbEntity
  8
0
  6
Continuous
 62
     7
370
     0
100
AcDbPolyline
 90
       26
 70
   128
 43
0.0
 10
271.6040972618
 20
24.8410922854
 10
271.7874741881
 20
24.7453477527
 10
272.3063940105
 20
24.5717070099
 10
272.8753030121
 20
24.511016069
 10
273.4840489982
 20
24.5643579614
 10
274.1217688824
 20
24.7307807997
 10
274.7770825381
 20
25.0073147645
 10
275.4382958777
 20
25.3890251005
 10
276.0936095334
 20
25.8691001777
 10
276.7313294175
 20
26.4389730452
 10
277.3400754036
 20
27.0884743079
 10
277.9089844052
 20
27.8060136006
 10
278.4279042277
 20
28.5787864175
 10
278.8875747344
 20
29.3930026094
 10
279.2797930944
 20
30.2341324691
 10
279.5975601617
 20
31.0871660143
 10
279.8352053754
 20
31.9368808412
 10
279.9884879511
 20
32.7681137685
 10
280.0546725577
 20
33.566031425
 10
280.0325781291
 20
34.3163949512
 10
279.9225989411
 20
35.0058140922
 10
279.7266975748
 20
35.6219861472
 10
279.4483698948
 20
36.153915511
 10
279.0925826652
 20
36.5921098918
 10
278.6656849173
 20
36.9287497004
 10
278.57784888
 20
36.9803101224
  0
LWPOLYLINE
  5
272
330
1F
100
AcDbEntity
  8
0
  6
Continuous
 62
     7
370
     0
100
AcDbPolyline
 90
       23
 70
   128
 43
0.0
 10
238.8294777232
 20
43.4519658037
 10
239.1564369823
 20
44.7067620104
 10
239.5647579419
 20
45.9704310417
 10
240.0511591809
 20
47.2328175771
 10
240.6117317958
 20
48.4837766029
 10
241.2419708139
 20
49.7132549411
 10
241.936811397
 20
50.9113720408
 10
242.6906695444
 20
52.0684993815
 10
243.4974869681
 20
53.175337852
 10
244.3507797794
 20
54.2229924814
 10
245.2436905956
 20
55.2030439226
 10
246.1690436493
 20
56.1076161129
 10
247.1194024547
 20
56.9294395694
 10
248.0871295704
 20
57.6619098093
 10
249.0644479767
 20
58.2991404257
 10
250.0435035748
 20
58.8360103935
 10
251.0164283051
 20
59.2682052234
 10
251.975403378
 20
59.5922516348
 10
252.9127221085
 20
59.8055454687
 10
253.8208518503
 20
59.9063726155
 10
254.6924945305
 20
59.8939227904
 10
255.5206453004
 20
59.7682960447
 10
256.2986488283
 20
59.5305019624
  0
LWPOLYLINE
  5
273
330
1F
100
AcDbEntity
  8
0
  6
Continuous
 62
     7
370
     0
100
AcDbPolyline
 90
       23
 70
   128
 43
0.0
 10
238.3957948876
 20
43.4465284654
 10
238.7217578589
 20
44.7181944199
 10
239.130025126
 20
45.9995261291
 10
239.6173490764
 20
47.2803310816
 10
240.1798532316
 20
48.550420956
 10
240.8130630828
 20
49.7996926655
 10
241.5119416839
 20
51.018208724
 10
242.2709297187
 20
52.1962762947
 10
243.0839897231
 20
53.3245242938
 10
243.9446541109
 20
54.3939779329
 10
244.8460766207
 20
55.396130111
 10
245.7810867759
 20
56.3230090847
 10
246.7422469226
 20
57.1672418807
 10
247.7219113936
 20
57.9221129448
 10
248.7122873269
 20
58.581617562
 10
249.7054966546
 20
59.1405096211
 10
250.6936387704
 20
59.5943433463
 10
251.6688533758
 20
59.9395086612
 10
252.6233830057
 20
60.1732599055
 10
253.5496347361
 20
60.293737676
 10
254.4402405832
 20
60.2999836176
 10
255.2881161127
 20
60.191948046
 10
256.086516794
 20
59.9704903436
  0
ARC
  5
274
330
1F
100
AcDbEntity
  8
0
  6
Continuous
 62
     7
370
     0
100
AcDbCircle
 10
253.3064723405
 20
53.64792168
 30
0.0
 40
6.701300064527992
100
AcDbArc
 50
13.1170908933
 51
49.5620782406
  0
LWPOLYLINE
  5
275
330
1F
100
AcDbEntity
  8
0
  6
Continuous
 62
     7
370
     0
100
AcDbPolyline
 90
       28
 70
   128
 43
0.0
 10
239.9064473954
 20
44.0736871618
 10
240.2444905399
 20
45.2634834639
 10
240.6614786521
 20
46.4580618406
 10
241.1537686751
 20
47.6469857423
 10
241.7170596693
 20
48.81986802
 10
242.3464303885
 20
49.9664616743
 10
243.0363822745
 20
51.0767493786
 10
243.7808874957
 20
52.141030997
 10
244.5734416102
 20
53.1500083301
 10
245.4071203924
 20
54.0948663496
 10
246.2746403267
 20
54.9673502119
 10
247.1684222412
 20
55.7598373775
 10
248.0806575238
 20
56.4654042053
 10
249.0033763425
 20
57.0778864425
 10
249.9285172751
 20
57.5919330787
 10
250.8479977383
 20
58.0030530958
 10
251.7537846018
 20
58.3076547038
 10
252.6379643712
 20
58.5030767214
 10
253.4928123242
 20
58.5876118251
 10
254.3108599988
 20
58.5605214659
 10
255.0849604425
 20
58.4220423212
 10
255.8083506518
 20
58.1733842276
 10
256.4747106579
 20
57.8167196105
 10
257.0782187422
 20
57.355164505
 10
257.6136022979
 20
56.7927513318
 10
258.0761838948
 20
56.1343936681
 10
258.4619221438
 20
55.3858433195
 10
258.682742322
 20
54.816477345
  0
ARC
  5
276
330
1F
100
AcDbEntity
  8
0
  6
Continuous
 62
     7
370
     0
100
AcDbCircle
 10
244.9233998954
 20
38.2574250905
 30
0.0
 40
5.245826073737019
100
AcDbArc
 50
196.9871415635
 51
283.9018423507
  0
LWPOLYLINE
  5
277
330
1F
100
AcDbEntity
  8
0
  6
Continuous
 62
     7
370
     0
100
AcDbPolyline
 90
       28
 70
   128
 43
0.0
 10
229.0750377526
 20
44.6168478511
 10
229.1186185483
 20
45.7786204161
 10
229.2490198566
 20
46.9816178513
 10
229.4652211103
 20
48.2164250707
 10
229.7655302417
 20
49.4733780334
 10
230.1475969244
 20
50.7426393785
 10
230.6084309688
 20
52.0142754148
 10
231.1444257236
 20
53.2783338663
 10
231.7513863032
 20
54.5249217618
 10
232.4245624179
 20
55.7442828607
 10
233.1586855521
 20
56.9268740092
 10
233.9480101968
 20
58.0634398281
 10
234.7863588165
 20
59.1450851488
 10
235.6671701966
 20
60.1633446303
 10
236.5835507937
 20
61.1102490115
 10
237.5283286872
 20
61.9783874816
 10
238.4941097091
 20
62.7609656802
 10
239.4733353135
 20
63.4518588717
 10
240.4583417323
 20
64.0456598801
 10
241.4414199548
 20
64.5377214076
 10
242.414876061
 20
64.9241924054
 10
243.3710914369
 20
65.2020482141
 10
244.3025824009
 20
65.3691142351
 10
245.2020587731
 20
65.4240829504
 10
246.0624809313
 20
65.3665241552
 10
246.8771149057
 20
65.1968883251
 10
247.6395850807
 20
64.9165030905
 10
248.0863295758
 20
64.6863313142
  0
LWPOLYLINE
  5
278
330
1F
100
AcDbEntity
  8
0
  6
Continuous
 62
     7
370
     0
100
AcDbPolyline
 90
       10
 70
   128
 43
0.0
 10
232.3376095368
 20
37.4057921492
 10
231.7513863032
 20
37.7988202034
 10
231.1444257236
 20
38.3446263302
 10
230.6084309688
 20
38.9898384104
 10
230.1475969244
 20
39.7294067844
 10
229.7655302417
 20
40.5575433271
 10
229.4652211103
 20
41.4677667472
 10
229.2490198566
 20
42.4529533123
 10
229.1186185483
 20
43.5053926017
 10
229.0750377526
 20
44.6168478511
  0
LWPOLYLINE
  5
279
330
1F
100
AcDbEntity
  8
0
  6
Continuous
 62
     7
370
     0
100
AcDbPolyline
 90
       17
 70
   128
 43
0.0
 10
236.7436107946
 20
45.3787478944
 10
237.0429408578
 20
46.5658440768
 10
237.4247185028
 20
47.7629254786
 10
237.8854596723
 20
48.9590676777
 10
238.4209596973
 20
50.143354823
 10
239.0263316686
 20
51.3049792514
 10
239.6960510337
 20
52.4333401169
 10
240.4240060136
 20
53.5181401328
 10
241.2035533779
 20
54.5494795435
 10
242.0275790704
 20
55.5179464687
 10
242.888563131
 20
56.4147027947
 10
243.7786483218
 20
57.2315648302
 10
244.6897118315
 20
57.9610779898
 10
245.6134394032
 20
58.5965848233
 10
246.5414012093
 20
59.1322857713
 10
247.465128781
 20
59.5632920907
 10
247.8896739486
 20
59.7264886539
  0
LWPOLYLINE
  5
27A
330
1F
100
AcDbEntity
  8
0
  6
Continuous
 62
     7
370
     0
100
AcDbPolyline
 90
       19
 70
   128
 43
0.0
 10
236.3177926366
 20
46.0268928579
 10
236.6681976763
 20
47.2657869249
 10
237.103407317
 20
48.5098614564
 10
237.6193774822
 20
49.747556201
 10
238.2113136481
 20
50.9673701902
 10
238.8737153961
 20
52.1579686078
 10
239.6004275238
 20
53.308288116
 10
240.3846972407
 20
54.4076396586
 10
241.2192369166
 20
55.4458077868
 10
242.0962918006
 20
56.413145583
 10
243.0077120796
 20
57.3006643027
 10
243.9450286089
 20
58.1001169006
 10
244.8995316091
 20
58.8040746634
 10
245.8623516001
 20
59.4059962398
 10
246.8245418182
 20
59.9002884242
 10
247.7771613515
 20
60.2823581302
 10
248.7113582214
 20
60.5486550708
 10
249.6184516375
 20
60.6967047482
 10
250.2090701044
 20
60.7290344251
  0
LINE
  5
27B
330
1F
100
AcDbEntity
  8
0
  6
Continuous
 62
     7
370
     0
100
AcDbLine
 10
230.7246743921
 20
44.0792843584
 30
0.0
 11
232.5221833109
 21
45.1169641696
 31
0.0
  0
LWPOLYLINE
  5
27C
330
1F
100
AcDbEntity
  8
0
  6
Continuous
 62
     7
370
     0
100
AcDbPolyline
 90
       14
 70
   128
 43
0.0
 10
247.571658832
 20
32.3640377844
 10
247.0466171691
 20
32.1722101918
 10
246.1038133528
 20
31.9065107474
 10
245.1862180178
 20
31.7511446786
 10
244.3011124469
 20
31.7073448427
 10
243.4555201111
 20
31.7754587994
 10
242.6561509368
 20
31.9549460522
 10
241.9093480612
 20
32.2443823376
 10
241.2210374987
 20
32.641470927
 10
240.5966811166
 20
33.1430608516
 10
240.0412332944
 20
33.7451719054
 10
239.5591016099
 20
34.4430262298
 10
239.1541118642
 20
35.2310862259
 10
238.8294777232
 20
36.1030984968
  0
LWPOLYLINE
  5
27D
330
1F
100
AcDbEntity
  8
0
  6
Continuous
 62
     7
370
     0
100
AcDbPolyline
 90
        3
 70
   128
 43
0.0
 10
239.1322115342
 20
34.3886598032
 10
238.7228564729
 20
35.1997937081
 10
238.3957948876
 20
36.0976611584
  0
LWPOLYLINE
  5
27E
330
1F
100
AcDbEntity
  8
0
  6
Continuous
 62
     7
370
     0
100
AcDbPolyline
 90
       20
 70
   128
 43
0.0
 10
221.855477933
 20
56.8646565238
 10
222.2360886551
 20
57.9580965589
 10
222.6940531266
 20
59.0452038943
 10
223.2243066129
 20
60.1139559599
 10
223.8209849186
 20
61.1525331805
 10
224.477489241
 20
62.1494496915
 10
225.1865591476
 20
63.0936803637
 10
225.9403528711
 20
63.9747827328
 10
226.7305340331
 20
64.7830124847
 10
227.5483638383
 20
65.5094312206
 10
228.3847977186
 20
66.1460053085
 10
229.2305853592
 20
66.6856947289
 10
230.0763729997
 20
67.1225309323
 10
230.91280688
 20
67.4516828466
 10
231.7306366853
 20
67.669510305
 10
232.5208178473
 20
67.7736043034
 10
233.2746115708
 20
67.7628136424
 10
233.9836814774
 20
67.6372576583
 10
234.6401857998
 20
67.3983249038
 10
234.6622524329
 20
67.3878744142
  0
ARC
  5
27F
330
1F
100
AcDbEntity
  8
0
  6
Continuous
 62
     7
370
     0
100
AcDbCircle
 10
225.732036249
 20
51.178011949
 30
0.0
 40
4.268542284735922
100
AcDbArc
 50
204.7464480705
 51
235.884283369
  0
LINE
  5
280
330
1F
100
AcDbEntity
  8
0
  6
Continuous
 62
     7
370
     0
100
AcDbLine
 10
230.7246743921
 20
43.2627435466
 30
0.0
 11
232.5221833109
 21
44.3004233577
 31
0.0
  0
LINE
  5
281
330
1F
100
AcDbEntity
  8
0
  6
Continuous
 62
     7
370
     0
100
AcDbLine
 10
234.0117328443
 20
38.628526305
 30
0.0
 11
235.3506104357
 21
39.4014438865
 31
0.0
  0
LINE
  5
282
330
1F
100
AcDbEntity
  8
0
  6
Continuous
 62
     7
370
     0
100
AcDbLine
 10
237.7336977067
 20
38.1022956172
 30
0.0
 11
237.5284993217
 21
38.7115767033
 31
0.0
  0
LWPOLYLINE
  5
283
330
1F
100
AcDbEntity
  8
0
  6
Continuous
 62
     7
370
     0
100
AcDbPolyline
 90
        3
 70
   128
 43
0.0
 10
237.3676918099
 20
37.6651549022
 10
237.0429408578
 20
38.3231861577
 10
236.7436107946
 20
39.1646832054
  0
ARC
  5
284
330
1F
100
AcDbEntity
  8
0
  6
Continuous
 62
     7
370
     0
100
AcDbCircle
 10
242.4719326956
 20
40.7618387442
 30
0.0
 40
6.497362333334505
100
AcDbArc
 50
198.7062788578
 51
214.0955078751
  0
LINE
  5
285
330
1F
100
AcDbEntity
  8
0
  6
Continuous
 62
     7
370
     0
100
AcDbLine
 10
253.0651591223
 20
61.7143772145
 30
0.0
 11
252.5241701445
 21
61.4020709252
 31
0.0
  0
ARC
  5
286
330
1F
100
AcDbEntity
  8
0
  6
Continuous
 62
     7
370
     0
100
AcDbCircle
 10
225.617915662
 20
55.3685659124
 30
0.0
 40
1.102095792745905
100
AcDbArc
 50
159.4111972489
 51
213.1915491986
  0
ARC
  5
287
330
1F
100
AcDbEntity
  8
0
  6
Continuous
 62
     7
370
     0
100
AcDbCircle
 10
224.2861048531
 20
55.1970810897
 30
0.0
 40
0.6345057597330018
100
AcDbArc
 50
41.9989524423
 51
61.7721687695
  0
LINE
  5
288
330
1F
100
AcDbEntity
  8
0
  6
Continuous
 62
     7
370
     0
100
AcDbLine
 10
224.5862126255
 20
55.7561274957
 30
0.0
 11
224.6957594771
 21
56.1669252565
 31
0.0
  0
LINE
  5
289
330
1F
100
AcDbEntity
  8
0
  6
Continuous
 62
     7
370
     0
100
AcDbLine
 10
224.5862126255
 20
55.7561274957
 30
0.0
 11
223.7841678872
 21
56.2191380677
 31
0.0
  0
LINE
  5
28A
330
1F
100
AcDbEntity
  8
0
  6
Continuous
 62
     7
370
     0
100
AcDbLine
 10
221.9099368702
 20
57.380598703
 30
0.0
 11
221.8937004672
 21
57.5757370537
 31
0.0
  0
ARC
  5
28B
330
1F
100
AcDbEntity
  8
0
  6
Continuous
 62
     7
370
     0
100
AcDbCircle
 10
224.376252644
 20
47.1035081834
 30
0.0
 40
0.4314912001445604
100
AcDbArc
 50
27.8850837496
 51
60.8831993912
  0
ARC
  5
28C
330
1F
100
AcDbEntity
  8
0
  6
Continuous
 62
     7
370
     0
100
AcDbCircle
 10
225.8259513208
 20
47.8755663791
 30
0.0
 40
1.301173266867204
100
AcDbArc
 50
165.9701785416
 51
197.6766607319
  0
LINE
  5
28D
330
1F
100
AcDbEntity
  8
0
  6
Continuous
 62
     7
370
     0
100
AcDbLine
 10
224.1944414597
 20
50.3893374687
 30
0.0
 11
222.8737112816
 21
51.1517787715
 31
0.0
  0
LINE
  5
28E
330
1F
100
AcDbEntity
  8
0
  6
Continuous
 62
     7
370
     0
100
AcDbLine
 10
224.5862126255
 20
47.4804716591
 30
0.0
 11
223.7841678872
 21
47.943482231
 31
0.0
  0
LINE
  5
28F
330
1F
100
AcDbEntity
  8
0
  6
Continuous
 62
     7
370
     0
100
AcDbLine
 10
224.5862126255
 20
47.4804716591
 30
0.0
 11
224.6957594771
 21
47.196154001
 31
0.0
  0
ARC
  5
290
330
1F
100
AcDbEntity
  8
0
  6
Continuous
 62
     7
370
     0
100
AcDbCircle
 10
272.8541190262
 20
34.7040069252
 30
0.0
 40
2.066818916201491
100
AcDbArc
 50
338.371345542
 51
38.2958467038
  0
LWPOLYLINE
  5
291
330
1F
100
AcDbEntity
  8
0
  6
Continuous
 62
     7
370
     0
100
AcDbPolyline
 90
       12
 70
   128
 43
0.0
 10
274.3413617771
 20
35.8711007241
 10
274.5336047974
 20
35.500932059
 10
274.6818217314
 20
35.0634283127
 10
274.7423157669
 20
34.6434396189
 10
274.710600338
 20
34.2721146175
 10
274.5890276331
 20
33.9769927852
 10
274.3866141434
 20
33.7799619582
 10
274.1183719516
 20
33.6956350117
 10
273.8041953538
 20
33.7302660894
 10
273.4673853912
 20
33.8812867628
 10
273.1329217177
 20
34.1374965194
 10
272.8873370435
 20
34.4012580707
  0
OLE2FRAME
  5
292
330
1F
100
AcDbEntity
  8
0
100
AcDbOle2Frame
 70
     2
  3
Paintbrush-Bild
 10
13.8511154363
 20
38.264191557
 30
0.0
 11
51.6290888628
 21
31.9806341108
 31
0.0
 71
     2
 72
     0
 73
     1
 90
    12928
310
80552BED0767C5B32B40DDAF6807D121434000000000000000006FFBDDFB85D0
310
4940DDAF6807D121434000000000000000006FFBDDFB85D04940416F4BD60AFB
310
3F4000000000000000002BED0767C5B32B40416F4BD60AFB3F40000000000000
310
0000000000000100000000010000010000000100000000000100000000320000
310
D0CF11E0A1B11AE1000000000000000000000000000000003E000300FEFF0900
310
0600000000000000000000000100000001000000000000000010000002000000
310
01000000FEFFFFFF0000000000000000FFFFFFFFFFFFFFFFFFFFFFFFFFFFFFFF
310
FFFFFFFFFFFFFFFFFFFFFFFFFFFFFFFFFFFFFFFFFFFFFFFFFFFFFFFFFFFFFFFF
310
FFFFFFFFFFFFFFFFFFFFFFFFFFFFFFFFFFFFFFFFFFFFFFFFFFFFFFFFFFFFFFFF
310
FFFFFFFFFFFFFFFFFFFFFFFFFFFFFFFFFFFFFFFFFFFFFFFFFFFFFFFFFFFFFFFF
310
FFFFFFFFFFFFFFFFFFFFFFFFFFFFFFFFFFFFFFFFFFFFFFFFFFFFFFFFFFFFFFFF
310
FFFFFFFFFFFFFFFFFFFFFFFFFFFFFFFFFFFFFFFFFFFFFFFFFFFFFFFFFFFFFFFF
310
FFFFFFFFFFFFFFFFFFFFFFFFFFFFFFFFFFFFFFFFFFFFFFFFFFFFFFFFFFFFFFFF
310
FFFFFFFFFFFFFFFFFFFFFFFFFFFFFFFFFFFFFFFFFFFFFFFFFFFFFFFFFFFFFFFF
310
FFFFFFFFFFFFFFFFFFFFFFFFFFFFFFFFFFFFFFFFFFFFFFFFFFFFFFFFFFFFFFFF
310
FFFFFFFFFFFFFFFFFFFFFFFFFFFFFFFFFFFFFFFFFFFFFFFFFFFFFFFFFFFFFFFF
310
FFFFFFFFFFFFFFFFFFFFFFFFFFFFFFFFFFFFFFFFFFFFFFFFFFFFFFFFFFFFFFFF
310
FFFFFFFFFFFFFFFFFFFFFFFFFFFFFFFFFFFFFFFFFFFFFFFFFFFFFFFFFFFFFFFF
310
FFFFFFFFFFFFFFFFFFFFFFFFFFFFFFFFFFFFFFFFFFFFFFFFFFFFFFFFFFFFFFFF
310
FFFFFFFFFFFFFFFFFFFFFFFFFFFFFFFFFFFFFFFFFFFFFFFFFFFFFFFFFFFFFFFF
310
FDFFFFFFFEFFFFFFFEFFFFFFFEFFFFFF05000000060000000700000008000000
310
090000000A0000000B0000000C0000000D0000000E0000000F00000010000000
310
11000000120000001300000014000000150000001600000017000000FEFFFFFF
310
FFFFFFFFFFFFFFFFFFFFFFFFFFFFFFFFFFFFFFFFFFFFFFFFFFFFFFFFFFFFFFFF
310
FFFFFFFFFFFFFFFFFFFFFFFFFFFFFFFFFFFFFFFFFFFFFFFFFFFFFFFFFFFFFFFF
310
FFFFFFFFFFFFFFFFFFFFFFFFFFFFFFFFFFFFFFFFFFFFFFFFFFFFFFFFFFFFFFFF
310
FFFFFFFFFFFFFFFFFFFFFFFFFFFFFFFFFFFFFFFFFFFFFFFFFFFFFFFFFFFFFFFF
310
FFFFFFFFFFFFFFFFFFFFFFFFFFFFFFFFFFFFFFFFFFFFFFFFFFFFFFFFFFFFFFFF
310
FFFFFFFFFFFFFFFFFFFFFFFFFFFFFFFFFFFFFFFFFFFFFFFFFFFFFFFFFFFFFFFF
310
FFFFFFFFFFFFFFFFFFFFFFFFFFFFFFFFFFFFFFFFFFFFFFFFFFFFFFFFFFFFFFFF
310
FFFFFFFFFFFFFFFFFFFFFFFFFFFFFFFFFFFFFFFFFFFFFFFFFFFFFFFFFFFFFFFF
310
FFFFFFFFFFFFFFFFFFFFFFFFFFFFFFFFFFFFFFFFFFFFFFFFFFFFFFFFFFFFFFFF
310
FFFFFFFFFFFFFFFFFFFFFFFFFFFFFFFFFFFFFFFFFFFFFFFFFFFFFFFFFFFFFFFF
310
FFFFFFFFFFFFFFFFFFFFFFFFFFFFFFFFFFFFFFFFFFFFFFFFFFFFFFFFFFFFFFFF
310
FFFFFFFFFFFFFFFFFFFFFFFFFFFFFFFFFFFFFFFFFFFFFFFFFFFFFFFFFFFFFFFF
310
FFFFFFFFFFFFFFFFFFFFFFFFFFFFFFFFFFFFFFFFFFFFFFFFFFFFFFFFFFFFFFFF
310
52006F006F007400200045006E00740072007900000000000000000000000000
310
0000000000000000000000000000000000000000000000000000000000000000
310
16000500FFFFFFFFFFFFFFFF020000000A00030000000000C000000000000046
310
00000000000000000000000070EC8E8F2225D20103000000C000000000000000
310
01004F006C006500000000000000000000000000000000000000000000000000
310
0000000000000000000000000000000000000000000000000000000000000000
310
0A000200FFFFFFFFFFFFFFFFFFFFFFFF00000000000000000000000000000000
310
0000000000000000000000000000000000000000000000001400000000000000
310
010043006F006D0070004F0062006A0000000000000000000000000000000000
310
0000000000000000000000000000000000000000000000000000000000000000
310
120002010100000003000000FFFFFFFF00000000000000000000000000000000
310
0000000000000000000000000000000000000000010000004D00000000000000
310
01004F006C006500310030004E00610074006900760065000000000000000000
310
0000000000000000000000000000000000000000000000000000000000000000
310
1A000200FFFFFFFFFFFFFFFFFFFFFFFF00000000000000000000000000000000
310
0000000000000000000000000000000000000000040000002426000000000000
310
FEFFFFFF02000000FEFFFFFFFFFFFFFFFFFFFFFFFFFFFFFFFFFFFFFFFFFFFFFF
310
FFFFFFFFFFFFFFFFFFFFFFFFFFFFFFFFFFFFFFFFFFFFFFFFFFFFFFFFFFFFFFFF
310
FFFFFFFFFFFFFFFFFFFFFFFFFFFFFFFFFFFFFFFFFFFFFFFFFFFFFFFFFFFFFFFF
310
FFFFFFFFFFFFFFFFFFFFFFFFFFFFFFFFFFFFFFFFFFFFFFFFFFFFFFFFFFFFFFFF
310
FFFFFFFFFFFFFFFFFFFFFFFFFFFFFFFFFFFFFFFFFFFFFFFFFFFFFFFFFFFFFFFF
310
FFFFFFFFFFFFFFFFFFFFFFFFFFFFFFFFFFFFFFFFFFFFFFFFFFFFFFFFFFFFFFFF
310
FFFFFFFFFFFFFFFFFFFFFFFFFFFFFFFFFFFFFFFFFFFFFFFFFFFFFFFFFFFFFFFF
310
FFFFFFFFFFFFFFFFFFFFFFFFFFFFFFFFFFFFFFFFFFFFFFFFFFFFFFFFFFFFFFFF
310
FFFFFFFFFFFFFFFFFFFFFFFFFFFFFFFFFFFFFFFFFFFFFFFFFFFFFFFFFFFFFFFF
310
FFFFFFFFFFFFFFFFFFFFFFFFFFFFFFFFFFFFFFFFFFFFFFFFFFFFFFFFFFFFFFFF
310
FFFFFFFFFFFFFFFFFFFFFFFFFFFFFFFFFFFFFFFFFFFFFFFFFFFFFFFFFFFFFFFF
310
FFFFFFFFFFFFFFFFFFFFFFFFFFFFFFFFFFFFFFFFFFFFFFFFFFFFFFFFFFFFFFFF
310
FFFFFFFFFFFFFFFFFFFFFFFFFFFFFFFFFFFFFFFFFFFFFFFFFFFFFFFFFFFFFFFF
310
FFFFFFFFFFFFFFFFFFFFFFFFFFFFFFFFFFFFFFFFFFFFFFFFFFFFFFFFFFFFFFFF
310
FFFFFFFFFFFFFFFFFFFFFFFFFFFFFFFFFFFFFFFFFFFFFFFFFFFFFFFFFFFFFFFF
310
FFFFFFFFFFFFFFFFFFFFFFFFFFFFFFFFFFFFFFFFFFFFFFFFFFFFFFFFFFFFFFFF
310
0100000200000000000000000000000000000000000000000000000000000000
310
0000000000000000000000000000000000000000000000000000000000000000
310
0100FEFF030A0000FFFFFFFF0A00030000000000C00000000000004607000000
310
5042727573680007000000504272757368000700000050427275736800F439B2
310
7100000000000000000000000000000000000000000000000000000000000000
310
0000000000000000000000000000000000000000000000000000000000000000
310
0000000000000000000000000000000000000000000000000000000000000000
310
0000000000000000000000000000000000000000000000000000000000000000
310
0000000000000000000000000000000000000000000000000000000000000000
310
0000000000000000000000000000000000000000000000000000000000000000
310
0000000000000000000000000000000000000000000000000000000000000000
310
0000000000000000000000000000000000000000000000000000000000000000
310
0000000000000000000000000000000000000000000000000000000000000000
310
0000000000000000000000000000000000000000000000000000000000000000
310
0000000000000000000000000000000000000000000000000000000000000000
310
0000000000000000000000000000000000000000000000000000000000000000
310
20260000424D0E260000000000003E00000028000000B40200006E0000000100
310
01000000000000000000130B0000130B00000200000002000000000000FFFFFF
310
FFFFFFFFFFFFFFFFFFFFFFFFFFFFFFFFFFFFFFFFFFFFFFFFFFFFFFFFFFFFFFFF
310
FFFFFFFFFFFFFFFFFFFFFFFFFFFFFFFFFFFFFFFFFFFFFFFFFFFFFFFFFFFFFFFF
310
FFFFFFFFFFFFFFFFFFFFFFFFFFFFFFFFFFFFFFFFFFFFFFFFF000FFFFFFFFFFFF
310
FFFFFFFFFFFFFFFFFFFFFFFFFFFFFFFFFFFFFFFFFFFFFFFFFFFFFFFFFFFFFFFF
310
FFFFFFFFFFFFFFFFFFFFFFFFFFFFFFFFFFFFFFFFFFFFFFFFFFFFFFFFFFFFFFFF
310
FFFFFFFFFFFFFFFFFFFFFFFFFFFFFFFFF000FFFFFFFFFFFFFFFFFFFFFFFFFFFF
310
FFFFFFFFFFFFFFFFFFFFFFFFFFFFFFFFFFFFFFFFFFFFFFFFFFFFFFFFFFFFFFFF
310
FFFFFFFFFFFFFFFFFFFFFFFFFFFFFFFFFFFFFFFFFFFFFFFFFFFFFFFFFFFFFFFF
310
FFFFFFFFFFFFFFFFF000FFFFFFFFFFFFFFFFFFFFFFFFFFFFFFFFFFFFFFFFFFFF
310
FFFFFFFFFFFFFFFFFFFFFFFFFFFFFFFFFFFFFFFFFFFFFFFFFFFFFFFFFFFFFFFF
310
FFFFFFFFFFFFFFFFFFFFFFFFFFFFFFFFFFFFFFFFFFFFFFFFFFFFFFFFFFFFFFFF
310
F000FFFFFFFFFFFFFFFFFFFFFFFFFFFFFFFFFFFFFFFFFFFFFFFFFFFFFFFFFFFF
310
FFFFFFFFFFFFFFFFFFFFFFFFFFFFFFFFFFFFFFFFFFFFFFFFFFFFFFFFFFFFFFFF
310
FFFFFFFFFFFFFFFFFFFFFFFFFFFFFFFFFFFFFFFFFFFFFFFFF000FFFFFFFFFFFF
310
FFFFFFFFFFFFFFFFFFFFFFFFFFFFFFFFFFFFFFFFFFFFFFFFFFFFFFFFFFFFFFFF
310
FFFFFFFFFFFFFFFFFFFFFFFFFFFFFFFFFFFFFFFFFFFFFFFFFFFFFFFFFFFFFFFF
310
FFFFFFFFFFFFFFFFFFFFFFFFFFFFFFFFF000FFFFFFFFFFFFFFFFFFFFFFFFFFFF
310
FFFFFFFFFFFFFFFFFFFFFFFFFFFFFFFFFFFFFFFFFFFFFFFFFFFFFFFFFFFFFFFF
310
FFFFFFFFFFFFFFFFFFFFFFFFFFFFFFFFFFFFFFFFFFFFFFFFFFFFFFFFFFFFFFFF
310
FFFFFFFFFFFFFFFFF000FFFFFFFFFFFFFFFFFFFFFFFFFFFFFFFFFFFFFFFFFFFF
310
FFFFFFFFFFFFFFFFFFFFFFFFFFFFFFFFFFFFFFFFFFFFFFFFFFFFFFFFFFFFFFFF
310
FFFFFFFFFFFFFFFFFFFFFFFFFFFFFFFFFFFFFFFFFFFFFFFFFFFFFFFFFFFFFFFF
310
F000FFFFFFFFFFFFFFFFFFFFFFFFFFFFFFFFFFFFFFFFFFFFFFFFFFFFFFFFFFFF
310
FFFFFFFFFFFFFFFFFFFFFFFFFFFFFFFFFFFFFFFFFFFFFFFFFFFFFFFFFFFFFFFF
310
FFFFFFFFFFFFFFFFFFFFFFFFFFFFFFFFFFFFFFFFFFFFFFFFF000FFFFFFFFFFFF
310
FFFFFFFFFFFFFFFFFFFFFFFFFFFFFFFFFFFFFFFFFFFFFFFFFFFFFFFFFFFFFFFF
310
FFFFFFFFFFFFFFFFFFFFFFFFFFFFFFFFFFFFFFFFFFFFFFFFFFFFFFFFFFFFFFFF
310
FFFFFFFFFFFFFFFFFFFFFFFFFFFFFFFFF000FFFFFFFFFFFFFFFFFFFFFFFFFFFF
310
FFFFFFFFFFFFFFFFFFFFFFFFFFFFFFFFFFFFFFFFFFFFFFFFFFFFFFFFFFFFFFFF
310
FFFFFFFFFFFFFFFFFFFFFFFFFFFFFFFFFFFFFFFFFFFFFFFFFFFFFFFFFFFFFFFF
310
FFFFFFFFFFFFFFFFF000FFFFFFFFFFFFFFFFFFFFFFFFFFFFFFFFFFFFFFFFFFFF
310
FFFFFFFFFFFFFFFFFFFFFFFFFFFFFFFFFFFFFFFFFFFFFFFFFFFFFFFFFFFFFFFF
310
FFFFFFFFFFFFFFFFFFFFFFFFFFFFFFFFFFFFFFFFFFFFFFFFFFFFFFFFFFFFFFFF
310
F000FFFFFFFFFFFFFFFFFFFFFFFFFFFFFFFFFFFFFFFFFFFFFFFFFFFFFFFFFFFF
310
FFFFFFFFFFFFFFFFFFFFFFFFFFFFFFFFFFFFFFFFFFFFFFFFFFFFFFFFFFFFFFFF
310
FFFFFFFFFFFFFFFFFFFFFFFFFFFFFFFFFFFFFFFFFFFFFFFFF000FFFFFFFFFFFF
310
FFFFFFFFFFFFFFFFFFFFFFFFFFFFFFFFFFFFFFFFFFFFFFFFFFFFFFFFFFFFFFFF
310
FFFFFFFFFFFFFFFFFFFFFFFFFFFFFFFFFFFFFFFFFFFFFFFFFFFFFFFFFFFFFFFF
310
FFFFFFFFFFFFFFFFFFFFFFFFFFFFFFFFF000FFFFFFFFFFFFFFFFFFFFFFFFFFFF
310
FFFFFFFFFFFFFFFFFFFFFFFFFFFFFFFFFFFFFFFFFFFFFFFFFFFFFFFFFFFFFFFF
310
FFFFFFFFFFFFFFFFFFFFFFFFFFFFFFFFFFFFFFFFFFFFFFFFFFFFFFFFFFFFFFFF
310
FFFFFFFFFFFFFFFFF000FFFFFFFFFFFFFFFFFFFFFFFFFFFFFFFFFFFFFFFFFFFF
310
FFFFFFFFFFFFFFFFFFFFFFFFFFFFFFFFFFFFFFFFFFFFFFFFFFFFFFFFFFFFFFFF
310
FFFFFFFFFFFFFFFFFFFFFFFFFFFFFFFFFFFFFFFFFFFFFFFFFFFFFFFFFFFFFFFF
310
F000FFFFFFFFFFFFFFFFFFFFFFFFFFFFFFFFFFFFFFFFFFFFFFFFFFFFFFFFFFFF
310
FFFFFFFFFFFFFFFFFFFFFFFFFFFFFFFFFFFFFFFFFFFFFFFFFFFFFFFFFFFFFFFF
310
FFFFFFFFFFFFFFFFFFFFFFFFFFFFFFFFFFFFFFFFFFFFFFFFF000FFFFFFFFFFFF
310
FFFFFFFFFFFFFFFFFFFFFFFFFFFFFFFFFFFFFFFFFFFFFFFFFFFFFFFFFFFFFFFF
310
FFFFFFFFFFFFFFFFFFFFFFFFFFFFFFFFFFFFFFFFFFFFFFFFFFFFFFFFFFFFFFFF
310
FFFFFFFFFFFFFFFFFFFFFFFFFFFFFFFFF000FFFFFFFFFFFFFFFFFFFFFFFFFFFF
310
FFFFFFFFFFFFFFFFFFFFFFFFFFFFFFFFFFFFFFFFFFFFFFFFFFFFFFFFFFFFFFFF
310
FFFFFFFFFFFFFFFFFFFFFFFFFFFFFFFFFFFFFFFFFFFFFFFFFFFFFFFFFFFFFFFF
310
FFFFFFFFFFFFFFFFF000FFFFF80003FFFFFFFFFFFFFFFFFFFFFFFFFFFFFFFFFF
310
FFFFF00007FFFFFFFFFF00007FFFFFF800000000000000007FFFFFFFFFFFFFFF
310
FFFFFFFC001FFFFFFFFFFFFFFC001FFFFFFFFFFFFFFFFFFFFFFFFFFE0007FFFF
310
F000FFFF8000007FFFFFFFF8000FFFFFC0007FFFFF80007FFFFF0000007FFFFF
310
FFF8000007FFFFF800000000000000007FFFFFF0001FFFFFFFFFFFC00001FFFF
310
FFFFFFFFC00001FFFFFFFF000000000003FFFFE000007FFFF000FFFE0000000F
310
FFFFFFF0000FFFFF80007FFFFF80007FFFFC0000001FFFFFFFC0000001FFFFF8
310
00000000000000007FFFFFF0001FFFFFFFFFFE0000003FFFFFFFFFFE0000003F
310
FFFFFF000000000003FFFF0000000FFFF000FFF800000003FFFFFFF00007FFFF
310
80007FFFFF80007FFFF000000007FFFFFF000000003FFFF80000000000000000
310
7FFFFFF0001FFFFFFFFFF80000000FFFFFFFFFF80000000FFFFFFF0000000000
310
03FFFC00000003FFF000FFE000000000FFFFFFF00007FFFF80003FFFFF80007F
310
FFC000000001FFFFFC000000001FFFF800000000000000007FFFFFF0001FFFFF
310
FFFFE000000003FFFFFFFFE000000003FFFFFF000000000003FFF000000000FF
310
F000FF80000000007FFFFFF00007FFFF80003FFFFF80007FFF8000000000FFFF
310
F80000000007FFF800000000000000007FFFFFF0001FFFFFFFFFC000000001FF
310
FFFFFFC000000001FFFFFF000000000003FFC0000000007FF000FF0000000000
310
3FFFFFE00007FFFF00003FFFFF80007FFE00000000003FFFF00000000003FFF8
310
00000000000000007FFFFFF0001FFFFFFFFF8000000000FFFFFFFF8000000000
310
FFFFFF000000000003FF80000000003FF000FE00000000001FFFFFE00003FFFF
310
00003FFFFF80007FFC00000000001FFFE00000000001FFF8000001FFFE000000
310
7FFFFFF0001FFFFFFFFE00000000003FFFFFFE00000000003FFFFF0000000000
310
03FF00000000001FF000FC00000000000FFFFFE00003FFFF00001FFFFF80007F
310
F800000000001FFFC00000000000FFF8000001FFFE0000007FFFFFF0001FFFFF
310
FFFC00000000001FFFFFFC00000000001FFFFF000000000003FE00000000000F
310
F000F8000000000007FFFFE00003FFFF00001FFFFF80007FF800000000000FFF
310
800000000000FFF8000001FFFE0000007FFFFFF0001FFFFFFFF800000000000F
310
FFFFF800000000000FFFFF000000000003FC000000000007F000F80000000000
310
03FFFFC00003FFFE00001FFFFF80007FF0000000000007FF0000000000007FF8
310
000001FFFE0000007FFFFFF0001FFFFFFFF0000000000007FFFFF00000000000
310
07FFFF000000000003F8000000000003F000F0000000000003FFFFC00001FFFE
310
00001FFFFF80007FE0000000000007FE0000000000003FF8000001FFFE000000
310
7FFFFFF0001FFFFFFFF0000000000007FFFFF0000000000007FFFF0000000000
310
03F800001F800003F000E00001FFF00001FFFFC00001FFFE00000FFFFF80007F
310
E00001FFE00003FE00001FFF00003FF8000001FFFE0000007FFFFFF0001FFFFF
310
FFE000003E000003FFFFE000003E000003FFFF000000000003F00001FFF80001
310
F000E00007FFFC0001FFFFC00001FFFE00000FFFFF80007FC0000FFFFC0003FC
310
0000FFFFC0001FF8000001FFFE0000007FFFFFF0001FFFFFFFC00003FFE00001
310
FFFFC00003FFE00001FFFF0001FFFFFFFFF00007FFFE0001F000E0000FFFFF00
310
00FFFF800001FFFC00000FFFFF80007FC0001FFFFE0001FC0001FFFFE0001FF8
310
000001FFFE0000007FFFFFF0001FFFFFFF80000FFFF80000FFFF80000FFFF800
310
00FFFF0003FFFFFFFFE0000FFFFF8000F000C0003FFFFF8000FFFF800000FFFC
310
000007FFFF80007F80003FFFFF0001FC0003FFFFF0001FF8000001FFFE000000
310
7FFFFFF0001FFFFFFF80003FFFFE0000FFFF80003FFFFE0000FFFF0003FFFFFF
310
FFE0003FFFFF8000F000C0003FFFFF8000FFFF800000FFFC000007FFFF80007F
310
80007FFFFF8001F80007FFFFF8000FF8000001FFFE0000007FFFFFF0001FFFFF
310
FF00007FFFFF00007FFF00007FFFFF00007FFF0003FFFFFFFFE0003FFFFFC000
310
F000C0007FFFFFC000FFFF000000FFFC000007FFFF80007F8000FFFFFF8000F8
310
000FFFFFF8000FF8000001FFFE0000007FFFFFF0001FFFFFFF0000FFFFFF8000
310
7FFF0000FFFFFF80007FFF0003FFFFFFFFC0007FFFFFC00070008000FFFFFFC0
310
00FFFF000000FFF8000007FFFF80007F8000FFFFFF8000F8000FFFFFF8000FF8
310
000001FFFE0000007FFFFFF0001FFFFFFE0001FFFFFFC0003FFE0001FFFFFFC0
310
003FFF0003FFFFFFFFC0007FFFFFE00070008000FFFFFFC0007FFF0000007FF8
310
000003FFFF80007F0001FFFFFF8000F8000FFFFFF8000FF8000001FFFE000000
310
7FFFFFF0001FFFFFFE0001FFFFFFC0003FFE0001FFFFFFC0003FFF0003FFFFFF
310
FFC000FFFFFFE00070008000FFFFFFC0007FFF0000007FF8000003FFFF80007F
310
0001FFFFFF8000F8001FFFFFF8000FF8000001FFFE0000007FFFFFF0001FFFFF
310
FE0003FFFFFFE0003FFE0003FFFFFFE0003FFF0003FFFFFFFFC000FFFFFFE000
310
70008000FFFFFFC0007FFE0000007FF8000003FFFF80007F0001FFFFFF8000F0
310
001FFFFFF8000FF8000001FFFE0000007FFFFFF0001FFFFFFC0003FFFFFFE000
310
1FFC0003FFFFFFE0001FFF0003FFFFFFFFC000FFFFFFC00070008000FFFFFF80
310
007FFE0000007FF0000003FFFF80007F0001FFFFFF0000F0001FFFFFF8000FF8
310
000001FFFE0000007FFFFFF0001FFFFFFC0007FFFFFFF0001FFC0007FFFFFFF0
310
001FFF0003FFFFFFFFC000FFFFFFC00070008001FFFFFF0000FFFE0000003FF0
310
000001FFFF80007F0001FFFFFF0000F8001FFFFFF0000FF8000001FFFE000000
310
7FFFFFF0001FFFFFFC0007FFFFFFF0001FFC0007FFFFFFF0001FFF0003FFFFFF
310
FFC001FFFFFF80007000FFFFFFFFFE0000FFFE0008003FF0008001FFFF80007F
310
FFFFFFFFFC0000FFFFFFFFFFE0000FF8000001FFFE0000007FFFFFF0001FFFFF
310
F8000FFFFFFFF8000FF8000FFFFFFFF8000FFF0003FFFFFFFFFFFFFFFFFF0000
310
7000FFFFFFFFFC0000FFFC0008003FF0008001FFFF80007FFFFFFFFFF80001FF
310
FFFFFFFF80000FF8000001FFFE0000007FFFFFF0001FFFFFF8000FFFFFFFF800
310
0FF8000FFFFFFFF8000FFF0003FFFFFFFFFFFFFFFFFE0000F000FFFFFFFFE000
310
00FFFC000C003FE000C001FFFF80007FFFFFFFFFC00001FFFFFFFFFE00001FF8
310
000001FFFE0000007FFFFFF0001FFFFFF8000FFFFFFFF8000FF8000FFFFFFFF8
310
000FFF0003FFFFFFFFFFFFFFFFF00000F000FFFFFFFE000001FFFC000C001FE0
310
00C000FFFF80007FFFFFFFFE000001FFFFFFFFE000001FF80FFFFFFFFFFFFFC0
310
7FFFFFF0001FFFFFF8000FFFFFFFF8000FF8000FFFFFFFF8000FFF0003FFFFFF
310
FFFFFFFFFF800000F000FFFFFFC0000001FFFC001C001FE001C000FFFF80007F
310
FFFFFF80000003FFFFFFF80000001FF80FFFFFFFFFFFFFC07FFFFFF0001FFFFF
310
F8001FFFFFFFFC000FF8001FFFFFFFFC000FFF0003FFFFFFFFFFFFFFF0000001
310
F000FFFFF800000001FFF8001C001FE001C000FFFF80007FFFFFF800000003FF
310
FFFF800000003FF80FFFFFFFFFFFFFC07FFFFFF0001FFFFFF8001FFFFFFFFC00
310
0FF8001FFFFFFFFC000FFF0003FFFFFFFFFFFFFE00000001F000FFFFC0000000
310
03FFF8001E001FC001E000FFFF80007FFFFF8000000007FFFFFC000000003FF8
310
0FFFFFFFFFFFFFC07FFFFFF0001FFFFFF8001FFFFFFFFC000FF8001FFFFFFFFC
310
000FFF0003FFFFFFFFFFFFE000000003F000FFFE0000000007FFF8001E000FC0
310
01E0007FFF80007FFFFE0000000007FFFFE0000000007FF80FFFFFFFFFFFFFC0
310
7FFFFFF0001FFFFFF0001FFFFFFFFC0007F0001FFFFFFFFC0007FF0003FFFFFF
310
FFFFFF0000000003F000FFF80000000007FFF8001E000FC003E0007FFF80007F
310
FFF0000000000FFFFF8000000000FFF80FFFFFFFFFFFFFC07FFFFFF0001FFFFF
310
F0001FFFFFFFFC0007F0001FFFFFFFFC0007FF0003FFFFFFFFFFFC0000000007
310
F000FFE0000000000FFFF0003E000FC003E0007FFF80007FFFC0000000001FFF
310
FE0000000001FFF80FFFFFFFFFFFFFC07FFFFFF0001FFFFFF0001FFFFFFFFC00
310
07F0001FFFFFFFFC0007FF0003FFFFFFFFFFF0000000000FF000FFC000000000
310
1FFFF0003F000F8003F0003FFF80007FFF80000000003FFFF80000000003FFF8
310
0FFFFFFFFFFFFFC07FFFFFF0001FFFFFF0001FFFFFFFFC0007F0001FFFFFFFFC
310
0007FF0003FFFFFFFFFFE0000000001FF000FF00000000007FFFF0003F000780
310
03F0003FFF80007FFF00000000007FFFF00000000007FFF80FFFFFFFFFFFFFC0
310
7FFFFFF0001FFFFFF0001FFFFFFFFC0007F0001FFFFFFFFC0007FF0003FFFFFF
310
FFFF80000000007FF000FE0000000000FFFFE0003F00078007F0003FFF80007F
310
FE0000000001FFFFE0000000001FFFF80FFFFFFFFFFFFFC07FFFFFF0001FFFFF
310
F0001FFFFFFFFC0007F0001FFFFFFFFC0007FF0003FFFFFFFFFF0000000000FF
310
F000FC0000000003FFFFE0007F00078007F0003FFF80007FFC0000000007FFFF
310
C0000000007FFFF80FFFFFFFFFFFFFC07FFFFFF0001FFFFFF8001FFFFFFFFC00
310
0FF8001FFFFFFFFC000FFF0003FFFFFFFFFE0000000003FFF000FC000000000F
310
FFFFE0007F80070007F8001FFF80007FF8000000001FFFFF8000000001FFFFF8
310
0FFFFFFFFFFFFFC07FFFFFF0001FFFFFF8001FFFFFFFFC000FF8001FFFFFFFFC
310
000FFF0003FFFFFFFFFC000000000FFFF000F8000000007FFFFFE0007F800700
310
07F8001FFF80007FF000000000FFFFFF800000000FFFFFF80FFFFFFFFFFFFFC0
310
7FFFFFF0001FFFFFF8000FFFFFFFF8000FF8000FFFFFFFF8000FFF0003FFFFFF
310
FFFC000000007FFFF000F800000007FFFFFFC0007F8003000FF8001FFF80007F
310
F000000007FFFFFF000000007FFFFFF80FFFFFFFFFFFFFC07FFFFFF0001FFFFF
310
F8000FFFFFFFF8000FF8000FFFFFFFF8000FFF0003FFFFFFFFF80000000FFFFF
310
F000F0000000FFFFFFFFC000FF8003000FF8001FFF80007FE0000000FFFFFFFF
310
0000000FFFFFFFF8000001FFFE0000007FFFFFF0001FFFFFF8000FFFFFFFF800
310
0FF8000FFFFFFFF8000FFF0003FFFFFFFFF8000000FFFFFFF000F000000FFFFF
310
FFFFC000FFC002000FF8000FFF80007FE000001FFFFFFFFE000001FFFFFFFFF8
310
000001FFFE0000007FFFFFF0001FFFFFF8000FFFFFFFF8000FF8000FFFFFFFF8
310
000FFF0003FFFFFFFFF000001FFFFFFFF000E00000FFFFFFFFFFC000FFC00200
310
0FFC000FFF80007FE00001FFFFFFFFFE00001FFFFFFFFFF8000001FFFE000000
310
7FFFFFF0001FFFFFFC000FFFFFFFF8001FFC000FFFFFFFF8001FFF0003FFFFFF
310
FFF00001FFFFFFFFF000E00007FFFFFFFFFF8000FFC000001FFC000FFF80007F
310
C0000FFFFFFFFFFE0000FFFFFFFFFFF8000001FFFE0000007FFFFFF0001FFFFF
310
FC0007FFFFFFF0001FFC0007FFFFFFF0001FFF0003FFFFFFFFF00007FFFFFFFF
310
F000E0001FFFFFFFFFFF8000FFC000001FFC000FFF80007FC0003FFFFFFFFFFE
310
0001FFFFFFFFFFF8000001FFFE0000007FFFFFF0001FFFFFFC0007FFFFFFF000
310
1FFC0007FFFFFFF0001FFF0003FFFFFFFFF0001FFFFFFFFFF000E0003FFFFF00
310
03FF8001FFE000001FFC0007FF80007FC0007FFFFF0007FC0003FFFFF0003FF8
310
000001FFFE0000007FFFFFF0001FFFFFFC0003FFFFFFE0001FFC0003FFFFFFE0
310
001FFF0003FFFFFFFFF0003FFFFFFFFFF000E0003FFFFF0001FF8001FFE00000
310
1FFE0007FF80007FC0007FFFFE0003FC0007FFFFE0003FF8000001FFFE000000
310
7FFFFFF0001FFFFFFE0003FFFFFFE0003FFE0003FFFFFFE0003FFF0003FFFFFF
310
FFF0003FFFFF8001F000E0003FFFFF0001FF0001FFE000001FFE0007FF80007F
310
C0007FFFFE0003FC0007FFFFE0003FF8000001FFFE0000007FFFFFF0001FFFFF
310
FE0001FFFFFFC0003FFE0001FFFFFFC0003FFF0003FFFFFFFFF0003FFFFF0001
310
F000E0003FFFFF0003FF0001FFE000003FFE0007FF80007FC0007FFFFE0003FC
310
0007FFFFE0003FF8000001FFFE0000007FFFFFF0001FFFFFFF0001FFFFFFC000
310
7FFF0001FFFFFFC0007FFF0003FFFFFFFFF0003FFFFF0001F000E0003FFFFE00
310
03FF0003FFF000003FFE0003FF80007FC0007FFFFC0003FE0007FFFFE0003FF8
310
000001FFFE0000007FFFFFF0001FFFFFFF0000FFFFFF80007FFF0000FFFFFF80
310
007FFF0003FFFFFFFFF0003FFFFF0001F000E0003FFFFE0003FF0003FFF00000
310
3FFF0003FF80007FC0007FFFFC0007FE0007FFFFC0003FF8000001FFFE000000
310
7FFFFFF0001FFFFFFF80007FFFFF0000FFFF80007FFFFF0000FFFF0003FFFFFF
310
FFF0003FFFFF0003F000E0003FFFFC0003FE0003FFF000003FFF0003FF80007F
310
E0003FFFF80007FE0003FFFFC0007FF8000001FFFE0000007FFFFFF0001FFFFF
310
FF80003FFFFE0000FFFF80003FFFFE0000FFFF0003FFFFFFFFF0001FFFFE0003
310
F000F0001FFFF80003FE0003FFF000007FFF0001FF80007FE0003FFFF00007FE
310
0001FFFF80007FF8000001FFFE0000007FFFFFF0001FFFFFFFC0000FFFF80001
310
FFFFC0000FFFF80001FFFF0003FFFFFFFFF0001FFFFC0003F000F0000FFFF000
310
07FE0007FFF800007FFF0001FF80007FE0001FFFE00007FF0000FFFE00007FF8
310
000001FFFE0000007FFFFFF0001FFFFFFFC00003FFE00001FFFFC00003FFE000
310
01FFFF0003FFFFFFFFF8000FFFF80003F000F00003FFC00007FC0007FFF80000
310
7FFF8001FF80007FF00007FF80000FFF00007FF80000FFF8000001FFFE000000
310
7F80000000000001FFE000003E000003FFFFE000003E000003FFFF0003FFFFFF
310
FFF80003FFE00007F000F800000000000FFC0007FFF800007FFF8001FF80007F
310
F000000000000FFF000000000000FFF8000001FFFE0000007F80000000000001
310
FFF0000000000007FFFFF0000000000007FFFF0003FFFFFFFFFC00007E000007
310
F000F800000000000FFC0007FFF80000FFFF8000FF80007FF800000000001FFF
310
800000000001FFF8000001FFFE0000007F80000000000001FFF800000000000F
310
FFFFF800000000000FFFFF0003FFFFFFFFFC00000000000FF000FC0000000000
310
1FFC0007FFFC0000FFFF8000FF80007FF800000000003FFFC00000000001FFF8
310
000001FFFE0000007F80000000000001FFF800000000000FFFFFF80000000000
310
0FFFFF0003FFFFFFFFFE00000000001FF000FE00000000003FF8000FFFFC0000
310
FFFF8000FF80007FFC00000000003FFFC00000000003FFF8000001FFFE000000
310
7F80000000000001FFFC00000000001FFFFFFC00000000001FFFFF0003FFFFFF
310
FFFF00000000001FF000FF00000000003FF8000FFFFC0000FFFFC000FF80007F
310
FE00000000007FFFE00000000007FFF8000001FFFE0000007F80000000000001
310
FFFE00000000003FFFFFFE00000000003FFFFF0003FFFFFFFFFF80000000003F
310
F000FF80000000007FF8000FFFFC0001FFFFC0007F80007FFF0000000000FFFF
310
F0000000000FFFF800000000000000007F80000000000001FFFF8000000000FF
310
FFFFFF8000000000FFFFFF0003FFFFFFFFFFC0000000007FF000FFC000000000
310
FFF8000FFFFE0001FFFFC0007F80007FFF8000000001FFFFF8000000001FFFF8
310
00000000000000007F80000000000001FFFFC000000001FFFFFFFFC000000001
310
FFFFFF0003FFFFFFFFFFE000000000FFF000FFE000000003FFF0001FFFFE0001
310
FFFFC0007F80007FFFC000000007FFFFFE000000003FFFF80000000000000000
310
7F80000000000001FFFFE000000003FFFFFFFFE000000003FFFFFF0003FFFFFF
310
FFFFF000000003FFF000FFF80000000FFFF0001FFFFE0001FFFFE0007F80007F
310
FFF00000000FFFFFFF00000000FFFFF800000000000000007F80000000000001
310
FFFFF80000000FFFFFFFFFF80000000FFFFFFF0003FFFFFFFFFFFC0000000FFF
310
F000FFFE0000003FFFF0001FFFFE0003FFFFE0003F80007FFFFC0000003FFFFF
310
FFC0000003FFFFF800000000000000007F80000000000001FFFFFE0000003FFF
310
FFFFFFFE0000003FFFFFFF0003FFFFFFFFFFFF0000003FFFF000FFFF800000FF
310
FFF0001FFFFF0003FFFFE0003F80007FFFFF000001FFFFFFFFF800001FFFFFF8
310
00000000000000007F80000000000001FFFFFFC00001FFFFFFFFFFFFC00001FF
310
FFFFFF0003FFFFFFFFFFFFC00000FFFFF000FFFFF8000FFFFFFFFFFFFFFFFFFF
310
FFFFFFFFFFFFFFFFFFFFF0001FFFFFFFFFFF0000FFFFFFF80000000000000000
310
7FFFFFFFFFFFFFFFFFFFFFFC001FFFFFFFFFFFFFFC001FFFFFFFFFFFFFFFFFFF
310
FFFFFFFC001FFFFFF000FFFFFFFFFFFFFFFFFFFFFFFFFFFFFFFFFFFFFFFFFFFF
310
FFFFFFFFFFFFFFFFFFFFFFFFFFFFFFFFFFFFFFFFFFFFFFFFFFFFFFFFFFFFFFFF
310
FFFFFFFFFFFFFFFFFFFFFFFFFFFFFFFFFFFFFFFFFFFFFFFFFFFFFFFFFFFFFFFF
310
F000FFFFFFFFFFFFFFFFFFFFFFFFFFFFFFFFFFFFFFFFFFFFFFFFFFFFFFFFFFFF
310
FFFFFFFFFFFFFFFFFFFFFFFFFFFFFFFFFFFFFFFFFFFFFFFFFFFFFFFFFFFFFFFF
310
FFFFFFFFFFFFFFFFFFFFFFFFFFFFFFFFFFFFFFFFFFFFFFFFF000FFFFFFFFFFFF
310
FFFFFFFFFFFFFFFFFFFFFFFFFFFFFFFFFFFFFFFFFFFFFFFFFFFFFFFFFFFFFFFF
310
FFFFFFFFFFFFFFFFFFFFFFFFFFFFFFFFFFFFFFFFFFFFFFFFFFFFFFFFFFFFFFFF
310
FFFFFFFFFFFFFFFFFFFFFFFFFFFFFFFFF000FFFFFFFFFFFFFFFFFFFFFFFFFFFF
310
FFFFFFFFFFFFFFFFFFFFFFFFFFFFFFFFFFFFFFFFFFFFFFFFFFFFFFFFFFFFFFFF
310
FFFFFFFFFFFFFFFFFFFFFFFFFFFFFFFFFFFFFFFFFFFFFFFFFFFFFFFFFFFFFFFF
310
FFFFFFFFFFFFFFFFF000FFFFFFFFFFFFFFFFFFFFFFFFFFFFFFFFFFFFFFFFFFFF
310
FFFFFFFFFFFFFFFFFFFFFFFFFFFFFFFFFFFFFFFFFFFFFFFFFFFFFFFFFFFFFFFF
310
FFFFFFFFFFFFFFFFFFFFFFFFFFFFFFFFFFFFFFFFFFFFFFFFFFFFFFFFFFFFFFFF
310
F000FFFFFFFFFFFFFFFFFFFFFFFFFFFFFFFFFFFFFFFFFFFFFFFFFFFFFFFFFFFF
310
FFFFFFFFFFFFFFFFFFFFFFFFFFFFFFFFFFFFFFFFFFFFFFFFFFFFFFFFFFFFFFFF
310
FFFFFFFFFFFFFFFFFFFFFFFFFFFFFFFFFFFFFFFFFFFFFFFFF000FFFFFFFFFFFF
310
FFFFFFFFFFFFFFFFFFFFFFFFFFFFFFFFFFFFFFFFFFFFFFFFFFFFFFFFFFFFFFFF
310
FFFFFFFFFFFFFFFFFFFFFFFFFFFFFFFFFFFFFFFFFFFFFFFFFFFFFFFFFFFFFFFF
310
FFFFFFFFFFFFFFFFFFFFFFFFFFFFFFFFF000FFFFFFFFFFFFFFFFFFFFFFFFFFFF
310
FFFFFFFFFFFFFFFFFFFFFFFFFFFFFFFFFFFFFFFFFFFFFFFFFFFFFFFFFFFFFFFF
310
FFFFFFFFFFFFFFFFFFFFFFFFFFFFFFFFFFFFFFFFFFFFFFFFFFFFFFFFFFFFFFFF
310
FFFFFFFFFFFFFFFFF000FFFFFFFFFFFFFFFFFFFFFFFFFFFFFFFFFFFFFFFFFFFF
310
FFFFFFFFFFFFFFFFFFFFFFFFFFFFFFFFFFFFFFFFFFFFFFFFFFFFFFFFFFFFFFFF
310
FFFFFFFFFFFFFFFFFFFFFFFFFFFFFFFFFFFFFFFFFFFFFFFFFFFFFFFFFFFFFFFF
310
F000FFFFFFFFFFFFFFFFFFFFFFFFFFFFFFFFFFFFFFFFFFFFFFFFFFFFFFFFFFFF
310
FFFFFFFFFFFFFFFFFFFFFFFFFFFFFFFFFFFFFFFFFFFFFFFFFFFFFFFFFFFFFFFF
310
FFFFFFFFFFFFFFFFFFFFFFFFFFFFFFFFFFFFFFFFFFFFFFFFF000FFFFFFFFFFFF
310
FFFFFFFFFFFFFFFFFFFFFFFFFFFFFFFFFFFFFFFFFFFFFFFFFFFFFFFFFFFFFFFF
310
FFFFFFFFFFFFFFFFFFFFFFFFFFFFFFFFFFFFFFFFFFFFFFFFFFFFFFFFFFFFFFFF
310
FFFFFFFFFFFFFFFFFFFFFFFFFFFFFFFFF000FFFFFFFFFFFFFFFFFFFFFFFFFFFF
310
FFFFFFFFFFFFFFFFFFFFFFFFFFFFFFFFFFFFFFFFFFFFFFFFFFFFFFFFFFFFFFFF
310
FFFFFFFFFFFFFFFFFFFFFFFFFFFFFFFFFFFFFFFFFFFFFFFFFFFFFFFFFFFFFFFF
310
FFFFFFFFFFFFFFFFF000FFFFFFFFFFFFFFFFFFFFFFFFFFFFFFFFFFFFFFFFFFFF
310
FFFFFFFFFFFFFFFFFFFFFFFFFFFFFFFFFFFFFFFFFFFFFFFFFFFFFFFFFFFFFFFF
310
FFFFFFFFFFFFFFFFFFFFFFFFFFFFFFFFFFFFFFFFFFFFFFFFFFFFFFFFFFFFFFFF
310
F000FFFFFFFFFFFFFFFFFFFFFFFFFFFFFFFFFFFFFFFFFFFFFFFFFFFFFFFFFFFF
310
FFFFFFFFFFFFFFFFFFFFFFFFFFFFFFFFFFFFFFFFFFFFFFFFFFFFFFFFFFFFFFFF
310
FFFFFFFFFFFFFFFFFFFFFFFFFFFFFFFFFFFFFFFFFFFFFFFFF000FFFFFFFFFFFF
310
FFFFFFFFFFFFFFFFFFFFFFFFFFFFFFFFFFFFFFFFFFFFFFFFFFFFFFFFFFFFFFFF
310
FFFFFFFFFFFFFFFFFFFFFFFFFFFFFFFFFFFFFFFFFFFFFFFFFFFFFFFFFFFFFFFF
310
FFFFFFFFFFFFFFFFFFFFFFFFFFFFFFFFF000FFFFFFFFFFFFFFFFFFFFFFFFFFFF
310
FFFFFFFFFFFFFFFFFFFFFFFFFFFFFFFFFFFFFFFFFFFFFFFFFFFFFFFFFFFFFFFF
310
FFFFFFFFFFFFFFFFFFFFFFFFFFFFFFFFFFFFFFFFFFFFFFFFFFFFFFFFFFFFFFFF
310
FFFFFFFFFFFFFFFFF000FFFFFFFFFFFFFFFFFFFFFFFFFFFFFFFFFFFFFFFFFFFF
310
FFFFFFFFFFFFFFFFFFFFFFFFFFFFFFFFFFFFFFFFFFFFFFFFFFFFFFFFFFFFFFFF
310
FFFFFFFFFFFFFFFFFFFFFFFFFFFFFFFFFFFFFFFFFFFFFFFFFFFFFFFFFFFFFFFF
310
F000FFFFFFFFFFFFFFFFFFFFFFFFFFFFFFFFFFFFFFFFFFFFFFFFFFFFFFFFFFFF
310
FFFFFFFFFFFFFFFFFFFFFFFFFFFFFFFFFFFFFFFFFFFFFFFFFFFFFFFFFFFFFFFF
310
FFFFFFFFFFFFFFFFFFFFFFFFFFFFFFFFFFFFFFFFFFFFFFFFF000FFFFFFFFFFFF
310
FFFFFFFFFFFFFFFFFFFFFFFFFFFFFFFFFFFFFFFFFFFFFFFFFFFFFFFFFFFFFFFF
310
FFFFFFFFFFFFFFFFFFFFFFFFFFFFFFFFFFFFFFFFFFFFFFFFFFFFFFFFFFFFFFFF
310
FFFFFFFFFFFFFFFFFFFFFFFFFFFFFFFFF000FFFFFFFFFFFFFFFFFFFFFFFFFFFF
310
FFFFFFFFFFFFFFFFFFFFFFFFFFFFFFFFFFFFFFFFFFFFFFFFFFFFFFFFFFFFFFFF
310
FFFFFFFFFFFFFFFFFFFFFFFFFFFFFFFFFFFFFFFFFFFFFFFFFFFFFFFFFFFFFFFF
310
FFFFFFFFFFFFFFFFF000FFFFFFFFFFFFFFFFFFFFFFFFFFFFFFFFFFFFFFFFFFFF
310
FFFFFFFFFFFFFFFFFFFFFFFFFFFFFFFFFFFFFFFFFFFFFFFFFFFFFFFFFFFFFFFF
310
FFFFFFFFFFFFFFFFFFFFFFFFFFFFFFFFFFFFFFFFFFFFFFFFFFFFFFFFFFFFFFFF
310
F000FFFFFFFFFFFFFFFFFFFFFFFFFFFFFFFFFFFFFFFFFFFFFFFFFFFFFFFFFFFF
310
FFFFFFFFFFFFFFFFFFFFFFFFFFFFFFFFFFFFFFFFFFFFFFFFFFFFFFFFFFFFFFFF
310
FFFFFFFFFFFFFFFFFFFFFFFFFFFFFFFFFFFFFFFFFFFFFFFFF000FFFFFFFFFFFF
310
FFFFFFFFFFFFFFFFFFFFFFFFFFFFFFFFFFFFFFFFFFFFFFFFFFFFFFFFFFFFFFFF
310
FFFFFFFFFFFFFFFFFFFFFFFFFFFFFFFFFFFFFFFFFFFFFFFFFFFFFFFFFFFFFFFF
310
FFFFFFFFFFFFFFFFFFFFFFFFFFFFFFFFF0000000000000000000000000000000
310
0000000000000000000000000000000000000000000000000000000000000000
310
0000000000000000000000000000000000000000000000000000000000000000
310
0000000000000000000000000000000000000000000000000000000000000000
310
0000000000000000000000000000000000000000000000000000000000000000
310
0000000000000000000000000000000000000000000000000000000000000000
310
0000000000000000000000000000000000000000000000000000000000000000
310
0000000000000000000000000000000000000000000000000000000000000000
310
0000000000000000000000000000000000000000000000000000000000000000
310
0000000000000000000000000000000000000000000000000000000000000000
310
0000000000000000000000000000000000000000000000000000000000000000
310
0000000000000000000000000000000000000000000000000000000000000000
310
0000000000000000000000000000000000000000000000000000000000000000
310
0000000000000000000000000000000000000000000000000000000000000000
310
0000000000000000000000000000000000000000000000000000000000000000
310
0000000000000000000000000000000000000000000000000000000000000000
  1
OLE
  0
ENDSEC
  0
SECTION
  2
OBJECTS
  0
DICTIONARY
  5
C
330
0
100
AcDbDictionary
281
     1
  3
ACAD_GROUP
350
D
  3
ACAD_LAYOUT
350
1A
  3
ACAD_MLINESTYLE
350
17
  3
ACAD_PLOTSETTINGS
350
19
  3
ACAD_PLOTSTYLENAME
350
E
  3
ACAD_SCALELIST
350
47
  0
DICTIONARY
  5
D
102
{ACAD_REACTORS
330
C
102
}
330
C
100
AcDbDictionary
281
     1
  0
DICTIONARY
  5
1A
102
{ACAD_REACTORS
330
C
102
}
330
C
100
AcDbDictionary
281
     1
  3
Layout1
350
1E
  3
Layout2
350
26
  3
Model
350
22
  0
DICTIONARY
  5
17
102
{ACAD_REACTORS
330
C
102
}
330
C
100
AcDbDictionary
281
     1
  3
Standard
350
18
  0
DICTIONARY
  5
19
102
{ACAD_REACTORS
330
C
102
}
330
C
100
AcDbDictionary
281
     1
  0
ACDBDICTIONARYWDFLT
  5
E
102
{ACAD_REACTORS
330
C
102
}
330
C
100
AcDbDictionary
281
     1
  3
Normal
350
F
100
AcDbDictionaryWithDefault
340
F
  0
DICTIONARY
  5
47
102
{ACAD_REACTORS
330
C
102
}
330
C
100
AcDbDictionary
281
     1
  3
A0
350
48
  3
A1
350
49
  3
A2
350
4A
  3
A3
350
4B
  3
A4
350
4C
  3
A5
350
4D
  3
A6
350
4E
  3
A7
350
4F
  3
A8
350
50
  3
A9
350
51
  3
B0
350
52
  3
B1
350
53
  3
B2
350
54
  3
B3
350
55
  3
B4
350
56
  3
B5
350
57
  3
B6
350
58
  3
B7
350
59
  3
B8
350
5A
  3
B9
350
5B
  3
C0
350
5C
  3
C1
350
5D
  3
C2
350
5E
  3
C3
350
5F
  3
C4
350
60
  3
C5
350
61
  3
C6
350
62
  3
C7
350
63
  3
C8
350
64
  3
C9
350
65
  3
D0
350
66
  3
D1
350
67
  3
D2
350
68
  0
LAYOUT
  5
1E
102
{ACAD_REACTORS
330
1A
102
}
330
1A
100
AcDbPlotSettings
  1

  2
none_device
  4

  6

 40
0.0
 41
0.0
 42
0.0
 43
0.0
 44
0.0
 45
0.0
 46
0.0
 47
0.0
 48
0.0
 49
0.0
140
0.0
141
0.0
142
1.0
143
1.0
 70
   688
 72
     1
 73
     0
 74
     5
  7

 75
    16
147
1.0
148
0.0
149
0.0
100
AcDbLayout
  1
Layout1
 70
     1
 71
     1
 10
0.0
 20
0.0
 11
420.0
 21
297.0
 12
0.0
 22
0.0
 32
0.0
 14
1.0000000000E+20
 24
1.0000000000E+20
 34
1.0000000000E+20
 15
-1.0000000000E+20
 25
-1.0000000000E+20
 35
-1.0000000000E+20
146
0.0
 13
0.0
 23
0.0
 33
0.0
 16
1.0
 26
0.0
 36
0.0
 17
0.0
 27
1.0
 37
0.0
 76
     0
330
1B
  0
LAYOUT
  5
26
102
{ACAD_REACTORS
330
1A
102
}
330
1A
100
AcDbPlotSettings
  1

  2
none_device
  4

  6

 40
0.0
 41
0.0
 42
0.0
 43
0.0
 44
0.0
 45
0.0
 46
0.0
 47
0.0
 48
0.0
 49
0.0
140
0.0
141
0.0
142
1.0
143
1.0
 70
   688
 72
     1
 73
     0
 74
     5
  7

 75
    16
147
1.0
148
0.0
149
0.0
100
AcDbLayout
  1
Layout2
 70
     1
 71
     2
 10
0.0
 20
0.0
 11
0.0
 21
0.0
 12
0.0
 22
0.0
 32
0.0
 14
0.0
 24
0.0
 34
0.0
 15
0.0
 25
0.0
 35
0.0
146
0.0
 13
0.0
 23
0.0
 33
0.0
 16
1.0
 26
0.0
 36
0.0
 17
0.0
 27
1.0
 37
0.0
 76
     0
330
23
  0
LAYOUT
  5
22
102
{ACAD_REACTORS
330
1A
102
}
330
1A
100
AcDbPlotSettings
  1

  2
none_device
  4
Letter_(8.50_x_11.00_Inches)
  6

 40
6.35
 41
6.35
 42
6.35000508
 43
6.35000508
 44
215.9
 45
279.4
 46
0.0
 47
0.0
 48
0.0
 49
0.0
140
0.0
141
0.0
142
1.0
143
1.0
 70
  1712
 72
     1
 73
     0
 74
     0
  7

 75
     0
147
1.0
148
0.0
149
0.0
100
AcDbLayout
  1
Model
 70
     1
 71
     0
 10
0.0
 20
0.0
 11
297.0
 21
210.0
 12
0.0
 22
0.0
 32
0.0
 14
0.0
 24
0.0
 34
0.0
 15
297.0
 25
210.0
 35
0.0
146
0.0
 13
0.0
 23
0.0
 33
0.0
 16
1.0
 26
0.0
 36
0.0
 17
0.0
 27
1.0
 37
0.0
 76
     0
330
1F
331
29
  0
MLINESTYLE
  5
18
102
{ACAD_REACTORS
330
17
102
}
330
17
100
AcDbMlineStyle
  2
Standard
 70
     0
  3

 62
   256
 51
90.0
 52
90.0
 71
     2
 49
0.5
 62
   256
  6
BYLAYER
 49
-0.5
 62
   256
  6
BYLAYER
  0
ACDBPLACEHOLDER
  5
F
102
{ACAD_REACTORS
330
E
102
}
330
E
  0
SCALE
  5
48
102
{ACAD_REACTORS
330
47
102
}
330
47
100
AcDbScale
 70
     0
300
1:1
140
1.0
141
1.0
290
     1
  0
SCALE
  5
49
102
{ACAD_REACTORS
330
47
102
}
330
47
100
AcDbScale
 70
     0
300
1:2
140
1.0
141
2.0
290
     0
  0
SCALE
  5
4A
102
{ACAD_REACTORS
330
47
102
}
330
47
100
AcDbScale
 70
     0
300
1:4
140
1.0
141
4.0
290
     0
  0
SCALE
  5
4B
102
{ACAD_REACTORS
330
47
102
}
330
47
100
AcDbScale
 70
     0
300
1:5
140
1.0
141
5.0
290
     0
  0
SCALE
  5
4C
102
{ACAD_REACTORS
330
47
102
}
330
47
100
AcDbScale
 70
     0
300
1:8
140
1.0
141
8.0
290
     0
  0
SCALE
  5
4D
102
{ACAD_REACTORS
330
47
102
}
330
47
100
AcDbScale
 70
     0
300
1:10
140
1.0
141
10.0
290
     0
  0
SCALE
  5
4E
102
{ACAD_REACTORS
330
47
102
}
330
47
100
AcDbScale
 70
     0
300
1:16
140
1.0
141
16.0
290
     0
  0
SCALE
  5
4F
102
{ACAD_REACTORS
330
47
102
}
330
47
100
AcDbScale
 70
     0
300
1:20
140
1.0
141
20.0
290
     0
  0
SCALE
  5
50
102
{ACAD_REACTORS
330
47
102
}
330
47
100
AcDbScale
 70
     0
300
1:30
140
1.0
141
30.0
290
     0
  0
SCALE
  5
51
102
{ACAD_REACTORS
330
47
102
}
330
47
100
AcDbScale
 70
     0
300
1:40
140
1.0
141
40.0
290
     0
  0
SCALE
  5
52
102
{ACAD_REACTORS
330
47
102
}
330
47
100
AcDbScale
 70
     0
300
1:50
140
1.0
141
50.0
290
     0
  0
SCALE
  5
53
102
{ACAD_REACTORS
330
47
102
}
330
47
100
AcDbScale
 70
     0
300
1:100
140
1.0
141
100.0
290
     0
  0
SCALE
  5
54
102
{ACAD_REACTORS
330
47
102
}
330
47
100
AcDbScale
 70
     0
300
2:1
140
2.0
141
1.0
290
     0
  0
SCALE
  5
55
102
{ACAD_REACTORS
330
47
102
}
330
47
100
AcDbScale
 70
     0
300
4:1
140
4.0
141
1.0
290
     0
  0
SCALE
  5
56
102
{ACAD_REACTORS
330
47
102
}
330
47
100
AcDbScale
 70
     0
300
8:1
140
8.0
141
1.0
290
     0
  0
SCALE
  5
57
102
{ACAD_REACTORS
330
47
102
}
330
47
100
AcDbScale
 70
     0
300
10:1
140
10.0
141
1.0
290
     0
  0
SCALE
  5
58
102
{ACAD_REACTORS
330
47
102
}
330
47
100
AcDbScale
 70
     0
300
100:1
140
100.0
141
1.0
290
     0
  0
SCALE
  5
59
102
{ACAD_REACTORS
330
47
102
}
330
47
100
AcDbScale
 70
     0
300
1/128" = 1'-0"
140
0.0078125
141
12.0
290
     0
  0
SCALE
  5
5A
102
{ACAD_REACTORS
330
47
102
}
330
47
100
AcDbScale
 70
     0
300
1/64" = 1'-0"
140
0.015625
141
12.0
290
     0
  0
SCALE
  5
5B
102
{ACAD_REACTORS
330
47
102
}
330
47
100
AcDbScale
 70
     0
300
1/32" = 1'-0"
140
0.03125
141
12.0
290
     0
  0
SCALE
  5
5C
102
{ACAD_REACTORS
330
47
102
}
330
47
100
AcDbScale
 70
     0
300
1/16" = 1'-0"
140
0.0625
141
12.0
290
     0
  0
SCALE
  5
5D
102
{ACAD_REACTORS
330
47
102
}
330
47
100
AcDbScale
 70
     0
300
3/32" = 1'-0"
140
0.09375
141
12.0
290
     0
  0
SCALE
  5
5E
102
{ACAD_REACTORS
330
47
102
}
330
47
100
AcDbScale
 70
     0
300
1/8" = 1'-0"
140
0.125
141
12.0
290
     0
  0
SCALE
  5
5F
102
{ACAD_REACTORS
330
47
102
}
330
47
100
AcDbScale
 70
     0
300
3/16" = 1'-0"
140
0.1875
141
12.0
290
     0
  0
SCALE
  5
60
102
{ACAD_REACTORS
330
47
102
}
330
47
100
AcDbScale
 70
     0
300
1/4" = 1'-0"
140
0.25
141
12.0
290
     0
  0
SCALE
  5
61
102
{ACAD_REACTORS
330
47
102
}
330
47
100
AcDbScale
 70
     0
300
3/8" = 1'-0"
140
0.375
141
12.0
290
     0
  0
SCALE
  5
62
102
{ACAD_REACTORS
330
47
102
}
330
47
100
AcDbScale
 70
     0
300
1/2" = 1'-0"
140
0.5
141
12.0
290
     0
  0
SCALE
  5
63
102
{ACAD_REACTORS
330
47
102
}
330
47
100
AcDbScale
 70
     0
300
3/4" = 1'-0"
140
0.75
141
12.0
290
     0
  0
SCALE
  5
64
102
{ACAD_REACTORS
330
47
102
}
330
47
100
AcDbScale
 70
     0
300
1" = 1'-0"
140
1.0
141
12.0
290
     0
  0
SCALE
  5
65
102
{ACAD_REACTORS
330
47
102
}
330
47
100
AcDbScale
 70
     0
300
1-1/2" = 1'-0"
140
1.5
141
12.0
290
     0
  0
SCALE
  5
66
102
{ACAD_REACTORS
330
47
102
}
330
47
100
AcDbScale
 70
     0
300
3" = 1'-0"
140
3.0
141
12.0
290
     0
  0
SCALE
  5
67
102
{ACAD_REACTORS
330
47
102
}
330
47
100
AcDbScale
 70
     0
300
6" = 1'-0"
140
6.0
141
12.0
290
     0
  0
SCALE
  5
68
102
{ACAD_REACTORS
330
47
102
}
330
47
100
AcDbScale
 70
     0
300
1'-0" = 1'-0"
140
12.0
141
12.0
290
     0
  0
ENDSEC
  0
EOF
