  0
SECTION
  2
HEADER
  9
$ACADVER
  1
AC1015
  9
$ACADMAINTVER
 70
     6
  9
$DWGCODEPAGE
  3
ANSI_1252
  9
$INSBASE
 10
0.0
 20
0.0
 30
0.0
  9
$EXTMIN
 10
0.0
 20
0.0
 30
0.0
  9
$EXTMAX
 10
297.0
 20
210.0
 30
0.0
  9
$LIMMIN
 10
0.0
 20
0.0
  9
$LIMMAX
 10
297.0
 20
210.0
  9
$ORTHOMODE
 70
     0
  9
$REGENMODE
 70
     1
  9
$FILLMODE
 70
     1
  9
$QTEXTMODE
 70
     0
  9
$MIRRTEXT
 70
     1
  9
$LTSCALE
 40
1.0
  9
$ATTMODE
 70
     1
  9
$TEXTSIZE
 40
2.0
  9
$TRACEWID
 40
1.0
  9
$TEXTSTYLE
  7
Standard
  9
$CLAYER
  8
0
  9
$CELTYPE
  6
ByLayer
  9
$CECOLOR
 62
   256
  9
$CELTSCALE
 40
1.0
  9
$DISPSILH
 70
     0
  9
$DIMSCALE
 40
1.0
  9
$DIMASZ
 40
3.0
  9
$DIMEXO
 40
0.0
  9
$DIMDLI
 40
3.75
  9
$DIMRND
 40
0.0
  9
$DIMDLE
 40
0.0
  9
$DIMEXE
 40
1.0
  9
$DIMTP
 40
0.0
  9
$DIMTM
 40
0.0
  9
$DIMTXT
 40
2.0
  9
$DIMCEN
 40
2.5
  9
$DIMTSZ
 40
0.0
  9
$DIMTOL
 70
     0
  9
$DIMLIM
 70
     0
  9
$DIMTIH
 70
     1
  9
$DIMTOH
 70
     1
  9
$DIMSE1
 70
     0
  9
$DIMSE2
 70
     0
  9
$DIMTAD
 70
     1
  9
$DIMZIN
 70
     0
  9
$DIMBLK
  1

  9
$DIMASO
 70
     1
  9
$DIMSHO
 70
     1
  9
$DIMPOST
  1

  9
$DIMAPOST
  1

  9
$DIMALT
 70
     0
  9
$DIMALTD
 70
     3
  9
$DIMALTF
 40
0.0393700787
  9
$DIMLFAC
 40
2.0
  9
$DIMTOFL
 70
     1
  9
$DIMTVP
 40
0.0
  9
$DIMTIX
 70
     0
  9
$DIMSOXD
 70
     0
  9
$DIMSAH
 70
     0
  9
$DIMBLK1
  1

  9
$DIMBLK2
  1

  9
$DIMSTYLE
  2
ISO-25
  9
$DIMCLRD
 70
     0
  9
$DIMCLRE
 70
     0
  9
$DIMCLRT
 70
     0
  9
$DIMTFAC
 40
1.0
  9
$DIMGAP
 40
1.524
  9
$DIMJUST
 70
     0
  9
$DIMSD1
 70
     0
  9
$DIMSD2
 70
     0
  9
$DIMTOLJ
 70
     0
  9
$DIMTZIN
 70
     0
  9
$DIMALTZ
 70
     0
  9
$DIMALTTZ
 70
     0
  9
$DIMUPT
 70
     0
  9
$DIMDEC
 70
     2
  9
$DIMTDEC
 70
     3
  9
$DIMALTU
 70
     2
  9
$DIMALTTD
 70
     3
  9
$DIMTXSTY
  7
Standard
  9
$DIMAUNIT
 70
     0
  9
$DIMADEC
 70
     2
  9
$DIMALTRND
 40
0.0
  9
$DIMAZIN
 70
     0
  9
$DIMDSEP
 70
    44
  9
$DIMATFIT
 70
     3
  9
$DIMFRAC
 70
     0
  9
$DIMLDRBLK
  1

  9
$DIMLUNIT
 70
     2
  9
$DIMLWD
 70
    -2
  9
$DIMLWE
 70
    -2
  9
$DIMTMOVE
 70
     0
  9
$LUNITS
 70
     2
  9
$LUPREC
 70
     2
  9
$SKETCHINC
 40
1.0
  9
$FILLETRAD
 40
10.0
  9
$AUNITS
 70
     0
  9
$AUPREC
 70
     2
  9
$MENU
  1
.
  9
$ELEVATION
 40
0.0
  9
$PELEVATION
 40
0.0
  9
$THICKNESS
 40
0.0
  9
$LIMCHECK
 70
     0
  9
$CHAMFERA
 40
0.0
  9
$CHAMFERB
 40
0.0
  9
$CHAMFERC
 40
0.0
  9
$CHAMFERD
 40
0.0
  9
$SKPOLY
 70
     0
  9
$TDCREATE
 40
2457675.436796967
  9
$TDUCREATE
 40
2457675.353463634
  9
$TDUPDATE
 40
2457675.436798565
  9
$TDUUPDATE
 40
2457675.353465232
  9
$TDINDWG
 40
0.0000000116
  9
$TDUSRTIMER
 40
0.0000000116
  9
$USRTIMER
 70
     1
  9
$ANGBASE
 50
0.0
  9
$ANGDIR
 70
     0
  9
$PDMODE
 70
     0
  9
$PDSIZE
 40
-1.0
  9
$PLINEWID
 40
0.0
  9
$SPLFRAME
 70
     0
  9
$SPLINETYPE
 70
     6
  9
$SPLINESEGS
 70
     8
  9
$HANDSEED
  5
284
  9
$SURFTAB1
 70
     6
  9
$SURFTAB2
 70
     6
  9
$SURFTYPE
 70
     6
  9
$SURFU
 70
     6
  9
$SURFV
 70
     6
  9
$UCSBASE
  2

  9
$UCSNAME
  2

  9
$UCSORG
 10
0.0
 20
0.0
 30
0.0
  9
$UCSXDIR
 10
1.0
 20
0.0
 30
0.0
  9
$UCSYDIR
 10
0.0
 20
1.0
 30
0.0
  9
$UCSORTHOREF
  2

  9
$UCSORTHOVIEW
 70
     0
  9
$UCSORGTOP
 10
0.0
 20
0.0
 30
0.0
  9
$UCSORGBOTTOM
 10
0.0
 20
0.0
 30
0.0
  9
$UCSORGLEFT
 10
0.0
 20
0.0
 30
0.0
  9
$UCSORGRIGHT
 10
0.0
 20
0.0
 30
0.0
  9
$UCSORGFRONT
 10
0.0
 20
0.0
 30
0.0
  9
$UCSORGBACK
 10
0.0
 20
0.0
 30
0.0
  9
$PUCSBASE
  2

  9
$PUCSNAME
  2

  9
$PUCSORG
 10
0.0
 20
0.0
 30
0.0
  9
$PUCSXDIR
 10
1.0
 20
0.0
 30
0.0
  9
$PUCSYDIR
 10
0.0
 20
1.0
 30
0.0
  9
$PUCSORTHOREF
  2

  9
$PUCSORTHOVIEW
 70
     0
  9
$PUCSORGTOP
 10
0.0
 20
0.0
 30
0.0
  9
$PUCSORGBOTTOM
 10
0.0
 20
0.0
 30
0.0
  9
$PUCSORGLEFT
 10
0.0
 20
0.0
 30
0.0
  9
$PUCSORGRIGHT
 10
0.0
 20
0.0
 30
0.0
  9
$PUCSORGFRONT
 10
0.0
 20
0.0
 30
0.0
  9
$PUCSORGBACK
 10
0.0
 20
0.0
 30
0.0
  9
$USERI1
 70
     0
  9
$USERI2
 70
     0
  9
$USERI3
 70
     0
  9
$USERI4
 70
     0
  9
$USERI5
 70
     0
  9
$USERR1
 40
0.0
  9
$USERR2
 40
0.0
  9
$USERR3
 40
0.0
  9
$USERR4
 40
0.0
  9
$USERR5
 40
0.0
  9
$WORLDVIEW
 70
     1
  9
$SHADEDGE
 70
     3
  9
$SHADEDIF
 70
    70
  9
$TILEMODE
 70
     1
  9
$MAXACTVP
 70
    64
  9
$PINSBASE
 10
0.0
 20
0.0
 30
0.0
  9
$PLIMCHECK
 70
     0
  9
$PEXTMIN
 10
1.0000000000E+20
 20
1.0000000000E+20
 30
1.0000000000E+20
  9
$PEXTMAX
 10
-1.0000000000E+20
 20
-1.0000000000E+20
 30
-1.0000000000E+20
  9
$PLIMMIN
 10
0.0
 20
0.0
  9
$PLIMMAX
 10
420.0
 20
297.0
  9
$UNITMODE
 70
     0
  9
$VISRETAIN
 70
     1
  9
$PLINEGEN
 70
     0
  9
$PSLTSCALE
 70
     1
  9
$TREEDEPTH
 70
  3020
  9
$CMLSTYLE
  2
Standard
  9
$CMLJUST
 70
     0
  9
$CMLSCALE
 40
20.0
  9
$PROXYGRAPHICS
 70
     1
  9
$MEASUREMENT
 70
     1
  9
$CELWEIGHT
370
    -1
  9
$ENDCAPS
280
     0
  9
$JOINSTYLE
280
     0
  9
$LWDISPLAY
290
     1
  9
$INSUNITS
 70
     4
  9
$HYPERLINKBASE
  1

  9
$STYLESHEET
  1

  9
$XEDIT
290
     1
  9
$CEPSNTYPE
380
     0
  9
$PSTYLEMODE
290
     1
  9
$FINGERPRINTGUID
  2
{B7B78E22-1E5F-4078-9AA3-6862E6452013}
  9
$VERSIONGUID
  2
{FAEB1C32-E019-11D5-929B-00C0DF256EC4}
  9
$EXTNAMES
290
     1
  9
$PSVPSCALE
 40
0.0
  9
$OLESTARTUP
290
     0
  0
ENDSEC
  0
SECTION
  2
CLASSES
  0
CLASS
  1
ACDBDICTIONARYWDFLT
  2
AcDbDictionaryWithDefault
  3
ObjectDBX Classes
 90
        0
280
     0
281
     0
  0
CLASS
  1
VISUALSTYLE
  2
AcDbVisualStyle
  3
ObjectDBX Classes
 90
     4095
280
     0
281
     0
  0
CLASS
  1
MATERIAL
  2
AcDbMaterial
  3
ObjectDBX Classes
 90
     1153
280
     0
281
     0
  0
CLASS
  1
SCALE
  2
AcDbScale
  3
ObjectDBX Classes
 90
     1153
280
     0
281
     0
  0
CLASS
  1
TABLESTYLE
  2
AcDbTableStyle
  3
ObjectDBX Classes
 90
     4095
280
     0
281
     0
  0
CLASS
  1
MLEADERSTYLE
  2
AcDbMLeaderStyle
  3
ACDB_MLEADERSTYLE_CLASS
 90
     4095
280
     0
281
     0
  0
CLASS
  1
SUN
  2
AcDbSun
  3
SCENEOE
 90
     1153
280
     0
281
     0
  0
CLASS
  1
ACDBPLACEHOLDER
  2
AcDbPlaceHolder
  3
ObjectDBX Classes
 90
        0
280
     0
281
     0
  0
CLASS
  1
LAYOUT
  2
AcDbLayout
  3
ObjectDBX Classes
 90
        0
280
     0
281
     0
  0
ENDSEC
  0
SECTION
  2
TABLES
  0
TABLE
  2
VPORT
  5
8
330
0
100
AcDbSymbolTable
 70
     1
  0
VPORT
  5
29
330
8
100
AcDbSymbolTableRecord
100
AcDbViewportTableRecord
  2
*Active
 70
     0
 10
0.0
 20
0.0
 11
1.0
 21
1.0
 12
148.5
 22
105.0
 13
0.0
 23
0.0
 14
10.0
 24
10.0
 15
10.0
 25
10.0
 16
0.0
 26
0.0
 36
1.0
 17
0.0
 27
0.0
 37
0.0
 40
210.0
 41
1.4142857143
 42
50.0
 43
0.0
 44
0.0
 50
0.0
 51
0.0
 71
     0
 72
  2000
 73
     1
 74
     3
 75
     0
 76
     0
 77
     0
 78
     0
281
     0
 65
     1
110
0.0
120
0.0
130
0.0
111
1.0
121
0.0
131
0.0
112
0.0
122
1.0
132
0.0
 79
     0
146
0.0
  0
ENDTAB
  0
TABLE
  2
LTYPE
  5
5
330
0
100
AcDbSymbolTable
 70
     6
  0
LTYPE
  5
14
330
5
100
AcDbSymbolTableRecord
100
AcDbLinetypeTableRecord
  2
ByBlock
 70
     0
  3

 72
    65
 73
     0
 40
0.0
  0
LTYPE
  5
15
330
5
100
AcDbSymbolTableRecord
100
AcDbLinetypeTableRecord
  2
ByLayer
 70
     0
  3

 72
    65
 73
     0
 40
0.0
  0
LTYPE
  5
16
330
5
100
AcDbSymbolTableRecord
100
AcDbLinetypeTableRecord
  2
Continuous
 70
     0
  3
Solid line
 72
    65
 73
     0
 40
0.0
  0
LTYPE
  5
6E
330
5
100
AcDbSymbolTableRecord
100
AcDbLinetypeTableRecord
  2
HIDDEN
 70
     0
  3
Hidden __ __ __ __ __ __ __ __ __ __ __ __ __ __
 72
    65
 73
     2
 40
1.905
 49
1.27
 74
     0
 49
-0.635
 74
     0
  0
LTYPE
  5
6F
330
5
100
AcDbSymbolTableRecord
100
AcDbLinetypeTableRecord
  2
PHANTOM
 70
     0
  3
Phantom ______  __  __  ______  __  __  ______
 72
    65
 73
     6
 40
12.7
 49
6.35
 74
     0
 49
-1.27
 74
     0
 49
1.27
 74
     0
 49
-1.27
 74
     0
 49
1.27
 74
     0
 49
-1.27
 74
     0
  0
LTYPE
  5
70
330
5
100
AcDbSymbolTableRecord
100
AcDbLinetypeTableRecord
  2
CENTER
 70
     0
  3
Center ____ _ ____ _ ____ _ ____ _ ____ _ ____
 72
    65
 73
     4
 40
10.16
 49
6.35
 74
     0
 49
-1.27
 74
     0
 49
1.27
 74
     0
 49
-1.27
 74
     0
  0
LTYPE
  5
71
330
5
100
AcDbSymbolTableRecord
100
AcDbLinetypeTableRecord
  2
CENTERX2
 70
     0
  3
Center (2x) ________  __  ________  __  _____
 72
    65
 73
     4
 40
20.32
 49
12.7
 74
     0
 49
-2.54
 74
     0
 49
2.54
 74
     0
 49
-2.54
 74
     0
  0
LTYPE
  5
72
330
5
100
AcDbSymbolTableRecord
100
AcDbLinetypeTableRecord
  2
DOT2
 70
     0
  3
Dot (.5x) ........................................
 72
    65
 73
     2
 40
0.635
 49
0.0
 74
     0
 49
-0.635
 74
     0
  0
ENDTAB
  0
TABLE
  2
LAYER
  5
2
330
0
100
AcDbSymbolTable
 70
     5
  0
LAYER
  5
10
330
2
100
AcDbSymbolTableRecord
100
AcDbLayerTableRecord
  2
0
 70
     0
 62
     7
  6
Continuous
370
    -3
390
F
  0
LAYER
  5
73
330
2
100
AcDbSymbolTableRecord
100
AcDbLayerTableRecord
  2
FORMAT
 70
     0
 62
     7
  6
Continuous
370
    -3
390
F
  0
LAYER
  5
74
330
2
100
AcDbSymbolTableRecord
100
AcDbLayerTableRecord
  2
VERMASSUNG
 70
     0
 62
     7
  6
Continuous
370
    -3
390
F
  0
LAYER
  5
75
330
2
100
AcDbSymbolTableRecord
100
AcDbLayerTableRecord
  2
KOPF_DÜNN
 70
     0
 62
     7
  6
Continuous
370
    -3
390
F
  0
LAYER
  5
76
330
2
100
AcDbSymbolTableRecord
100
AcDbLayerTableRecord
  2
KOPF_DICK
 70
     0
 62
     7
  6
Continuous
370
    15
390
F
  0
ENDTAB
  0
TABLE
  2
STYLE
  5
3
330
0
100
AcDbSymbolTable
 70
     2
  0
STYLE
  5
11
330
3
100
AcDbSymbolTableRecord
100
AcDbTextStyleTableRecord
  2
Standard
 70
     0
 40
0.0
 41
1.0
 50
0.0
 71
     0
 42
2.0
  3
txt
  4

  0
STYLE
  5
77
330
3
100
AcDbSymbolTableRecord
100
AcDbTextStyleTableRecord
  2
SLDTEXTSTYLE0
 70
     0
 40
0.0
 41
0.7
 50
0.0
 71
     0
 42
2.0
  3
TXT
  4

  0
ENDTAB
  0
TABLE
  2
VIEW
  5
6
330
0
100
AcDbSymbolTable
 70
     0
  0
ENDTAB
  0
TABLE
  2
UCS
  5
7
330
0
100
AcDbSymbolTable
 70
     0
  0
ENDTAB
  0
TABLE
  2
APPID
  5
9
330
0
100
AcDbSymbolTable
 70
     1
  0
APPID
  5
12
330
9
100
AcDbSymbolTableRecord
100
AcDbRegAppTableRecord
  2
ACAD
 70
     0
  0
ENDTAB
  0
TABLE
  2
DIMSTYLE
  5
A
330
0
100
AcDbSymbolTable
 70
     2
100
AcDbDimStyleTable
  0
DIMSTYLE
105
27
330
A
100
AcDbSymbolTableRecord
100
AcDbDimStyleTableRecord
  2
ISO-25
 70
     0
 41
2.5
 42
0.625
 43
3.75
 44
1.25
 73
     0
 74
     0
 77
     1
 78
     8
140
2.5
141
2.5
143
0.0393700787
147
0.625
171
     3
172
     1
178
     0
271
     2
272
     2
274
     3
278
    44
283
     0
284
     8
340
11
  0
DIMSTYLE
105
194
102
{ACAD_REACTORS
330
193
330
1A0
330
1AB
330
1B7
330
1C3
330
1CD
102
}
330
A
100
AcDbSymbolTableRecord
100
AcDbDimStyleTableRecord
  2
SLDDIMSTYLE0
 70
     0
 41
3.0
 44
0.0
 45
0.000000001
 73
     0
 74
     0
 77
     1
 78
    12
 79
     3
140
2.0
147
0.5
173
     1
178
     0
271
     2
272
     3
276
     2
284
    12
340
77
  0
ENDTAB
  0
TABLE
  2
BLOCK_RECORD
  5
1
330
0
100
AcDbSymbolTable
 70
     7
  0
BLOCK_RECORD
  5
1F
330
1
100
AcDbSymbolTableRecord
100
AcDbBlockTableRecord
  2
*Model_Space
340
22
  0
BLOCK_RECORD
  5
1B
330
1
100
AcDbSymbolTableRecord
100
AcDbBlockTableRecord
  2
*Paper_Space
340
1E
  0
BLOCK_RECORD
  5
23
330
1
100
AcDbSymbolTableRecord
100
AcDbBlockTableRecord
  2
*Paper_Space0
340
26
  0
BLOCK_RECORD
  5
195
330
1
100
AcDbSymbolTableRecord
100
AcDbBlockTableRecord
  2
_D
340
0
  0
BLOCK_RECORD
  5
1A1
330
1
100
AcDbSymbolTableRecord
100
AcDbBlockTableRecord
  2
_D_1
340
0
  0
BLOCK_RECORD
  5
1AC
330
1
100
AcDbSymbolTableRecord
100
AcDbBlockTableRecord
  2
_D_2
340
0
  0
BLOCK_RECORD
  5
1B8
330
1
100
AcDbSymbolTableRecord
100
AcDbBlockTableRecord
  2
_D_3
340
0
  0
BLOCK_RECORD
  5
1C4
330
1
100
AcDbSymbolTableRecord
100
AcDbBlockTableRecord
  2
_D_4
340
0
  0
BLOCK_RECORD
  5
1CE
330
1
100
AcDbSymbolTableRecord
100
AcDbBlockTableRecord
  2
_D_5
340
0
  0
ENDTAB
  0
ENDSEC
  0
SECTION
  2
BLOCKS
  0
BLOCK
  5
20
330
1F
100
AcDbEntity
  8
0
100
AcDbBlockBegin
  2
*Model_Space
 70
     0
 10
0.0
 20
0.0
 30
0.0
  3
*Model_Space
  1

  0
ENDBLK
  5
21
330
1F
100
AcDbEntity
  8
0
100
AcDbBlockEnd
  0
BLOCK
  5
1C
330
1B
100
AcDbEntity
 67
     1
  8
0
100
AcDbBlockBegin
  2
*Paper_Space
 70
     0
 10
0.0
 20
0.0
 30
0.0
  3
*Paper_Space
  1

  0
ENDBLK
  5
1D
330
1B
100
AcDbEntity
 67
     1
  8
0
100
AcDbBlockEnd
  0
BLOCK
  5
24
330
23
100
AcDbEntity
  8
0
100
AcDbBlockBegin
  2
*Paper_Space0
 70
     0
 10
0.0
 20
0.0
 30
0.0
  3
*Paper_Space0
  1

  0
ENDBLK
  5
25
330
23
100
AcDbEntity
  8
0
100
AcDbBlockEnd
  0
BLOCK
  5
196
330
195
100
AcDbEntity
  8
0
100
AcDbBlockBegin
  2
_D
 70
     0
 10
0.0
 20
0.0
 30
0.0
  3
_D
  1

  0
SOLID
  5
198
330
195
100
AcDbEntity
  8
VERMASSUNG
100
AcDbTrace
 10
84.0837154929
 20
159.2963572102
 30
0.0
 11
83.6337154929
 21
156.2963572102
 31
0.0
 12
84.5337154929
 22
156.2963572102
 32
0.0
 13
84.5337154929
 23
156.2963572102
 33
0.0
  0
SOLID
  5
199
330
195
100
AcDbEntity
  8
VERMASSUNG
100
AcDbTrace
 10
84.0837154929
 20
58.9963572102
 30
0.0
 11
84.5337154929
 21
61.9963572102
 31
0.0
 12
83.6337154929
 22
61.9963572102
 32
0.0
 13
83.6337154929
 23
61.9963572102
 33
0.0
  0
LINE
  5
19A
330
195
100
AcDbEntity
  8
VERMASSUNG
100
AcDbLine
 10
144.5833344939
 20
159.2963572102
 30
0.0
 11
83.0837154929
 21
159.2963572102
 31
0.0
  0
LINE
  5
19B
330
195
100
AcDbEntity
  8
VERMASSUNG
100
AcDbLine
 10
144.5833344939
 20
58.9963572102
 30
0.0
 11
83.0837154929
 21
58.9963572102
 31
0.0
  0
LINE
  5
19C
330
195
100
AcDbEntity
  8
VERMASSUNG
100
AcDbLine
 10
84.0837154929
 20
159.2963572102
 30
0.0
 11
84.0837154929
 21
58.9963572102
 31
0.0
  0
MTEXT
  5
19D
330
195
100
AcDbEntity
  8
VERMASSUNG
100
AcDbMText
 10
81.3055802367
 20
99.9413576664
 30
0.0
 40
2.0
 41
0.0
 71
     1
 72
     1
  1
HSK A
  7
SLDTEXTSTYLE0
 11
-7.044195017643634E-15
 21
1.0
 31
0.0
 73
     1
 44
1.0
  0
MTEXT
  5
19E
330
195
100
AcDbEntity
  8
VERMASSUNG
100
AcDbMText
 10
81.5055801879
 20
108.941357279
 30
0.0
 40
2.0
 41
0.0
 71
     1
 72
     1
  1
%%c
  7
SLDTEXTSTYLE0
 11
-7.044195017643634E-15
 21
1.0
 31
0.0
 73
     1
 44
1.0
  0
MTEXT
  5
19F
330
195
100
AcDbEntity
  8
VERMASSUNG
100
AcDbMText
 10
81.3055802367
 20
112.5513572933
 30
0.0
 40
2.0
 41
0.0
 71
     1
 72
     1
  1
100.3
  7
SLDTEXTSTYLE0
 11
-7.044195017643634E-15
 21
1.0
 31
0.0
 73
     1
 44
1.0
  0
ENDBLK
  5
197
330
195
100
AcDbEntity
  8
0
100
AcDbBlockEnd
  0
BLOCK
  5
1A2
330
1A1
100
AcDbEntity
  8
0
100
AcDbBlockBegin
  2
_D_1
 70
     0
 10
0.0
 20
0.0
 30
0.0
  3
_D_1
  1

  0
SOLID
  5
1A4
330
1A1
100
AcDbEntity
  8
VERMASSUNG
100
AcDbTrace
 10
219.0833344939
 20
123.1463572102
 30
0.0
 11
218.6333344939
 21
120.1463572102
 31
0.0
 12
219.5333344939
 22
120.1463572102
 32
0.0
 13
219.5333344939
 23
120.1463572102
 33
0.0
  0
SOLID
  5
1A5
330
1A1
100
AcDbEntity
  8
VERMASSUNG
100
AcDbTrace
 10
219.0833344939
 20
95.1463572102
 30
0.0
 11
219.5333344939
 21
98.1463572102
 31
0.0
 12
218.6333344939
 22
98.1463572102
 32
0.0
 13
218.6333344939
 23
98.1463572102
 33
0.0
  0
LINE
  5
1A6
330
1A1
100
AcDbEntity
  8
VERMASSUNG
100
AcDbLine
 10
208.0833344939
 20
123.1463572102
 30
0.0
 11
220.0833344939
 21
123.1463572102
 31
0.0
  0
LINE
  5
1A7
330
1A1
100
AcDbEntity
  8
VERMASSUNG
100
AcDbLine
 10
208.0833344939
 20
95.1463572102
 30
0.0
 11
220.0833344939
 21
95.1463572102
 31
0.0
  0
LINE
  5
1A8
330
1A1
100
AcDbEntity
  8
VERMASSUNG
100
AcDbLine
 10
219.0833344939
 20
123.1463572102
 30
0.0
 11
219.0833344939
 21
95.1463572102
 31
0.0
  0
MTEXT
  5
1A9
330
1A1
100
AcDbEntity
  8
VERMASSUNG
100
AcDbMText
 10
216.505199189
 20
105.9413572529
 30
0.0
 40
2.0
 41
0.0
 71
     1
 72
     1
  1
%%c
  7
SLDTEXTSTYLE0
 11
-7.044195017643634E-15
 21
1.0
 31
0.0
 73
     1
 44
1.0
  0
MTEXT
  5
1AA
330
1A1
100
AcDbEntity
  8
VERMASSUNG
100
AcDbMText
 10
216.3051992377
 20
109.5513572672
 30
0.0
 40
2.0
 41
0.0
 71
     1
 72
     1
  1
28
  7
SLDTEXTSTYLE0
 11
-7.044195017643634E-15
 21
1.0
 31
0.0
 73
     1
 44
1.0
  0
ENDBLK
  5
1A3
330
1A1
100
AcDbEntity
  8
0
100
AcDbBlockEnd
  0
BLOCK
  5
1AD
330
1AC
100
AcDbEntity
  8
0
100
AcDbBlockBegin
  2
_D_2
 70
     0
 10
0.0
 20
0.0
 30
0.0
  3
_D_2
  1

  0
SOLID
  5
1AF
330
1AC
100
AcDbEntity
  8
VERMASSUNG
100
AcDbTrace
 10
225.0833344939
 20
134.1463572102
 30
0.0
 11
224.6333344939
 21
131.1463572102
 31
0.0
 12
225.5333344939
 22
131.1463572102
 32
0.0
 13
225.5333344939
 23
131.1463572102
 33
0.0
  0
SOLID
  5
1B0
330
1AC
100
AcDbEntity
  8
VERMASSUNG
100
AcDbTrace
 10
225.0833344939
 20
84.1463572102
 30
0.0
 11
225.5333344939
 21
87.1463572102
 31
0.0
 12
224.6333344939
 22
87.1463572102
 32
0.0
 13
224.6333344939
 23
87.1463572102
 33
0.0
  0
LINE
  5
1B1
330
1AC
100
AcDbEntity
  8
VERMASSUNG
100
AcDbLine
 10
208.5833344939
 20
134.1463572102
 30
0.0
 11
226.0833344939
 21
134.1463572102
 31
0.0
  0
LINE
  5
1B2
330
1AC
100
AcDbEntity
  8
VERMASSUNG
100
AcDbLine
 10
208.5833344939
 20
84.1463572102
 30
0.0
 11
226.0833344939
 21
84.1463572102
 31
0.0
  0
LINE
  5
1B3
330
1AC
100
AcDbEntity
  8
VERMASSUNG
100
AcDbLine
 10
225.0833344939
 20
134.1463572102
 30
0.0
 11
225.0833344939
 21
84.1463572102
 31
0.0
  0
MTEXT
  5
1B4
330
1AC
100
AcDbEntity
  8
VERMASSUNG
100
AcDbMText
 10
222.3051992377
 20
104.0413572209
 30
0.0
 40
2.0
 41
0.0
 71
     1
 72
     1
  1
WH
  7
SLDTEXTSTYLE0
 11
-7.044195017643634E-15
 21
1.0
 31
0.0
 73
     1
 44
1.0
  0
MTEXT
  5
1B5
330
1AC
100
AcDbEntity
  8
VERMASSUNG
100
AcDbMText
 10
222.505199189
 20
107.841357285
 30
0.0
 40
2.0
 41
0.0
 71
     1
 72
     1
  1
%%c
  7
SLDTEXTSTYLE0
 11
-7.044195017643634E-15
 21
1.0
 31
0.0
 73
     1
 44
1.0
  0
MTEXT
  5
1B6
330
1AC
100
AcDbEntity
  8
VERMASSUNG
100
AcDbMText
 10
222.3051992377
 20
111.4513572993
 30
0.0
 40
2.0
 41
0.0
 71
     1
 72
     1
  1
50
  7
SLDTEXTSTYLE0
 11
-7.044195017643634E-15
 21
1.0
 31
0.0
 73
     1
 44
1.0
  0
ENDBLK
  5
1AE
330
1AC
100
AcDbEntity
  8
0
100
AcDbBlockEnd
  0
BLOCK
  5
1B9
330
1B8
100
AcDbEntity
  8
0
100
AcDbBlockBegin
  2
_D_3
 70
     0
 10
0.0
 20
0.0
 30
0.0
  3
_D_3
  1

  0
ARC
  5
1BB
330
1B8
100
AcDbEntity
  8
VERMASSUNG
100
AcDbCircle
 10
191.7583347309
 20
165.2371583686
 30
0.0
 40
4.248529228887633
100
AcDbArc
 50
153.4349488229
 51
206.5650511771
  0
ARC
  5
1BC
330
1B8
100
AcDbEntity
  8
VERMASSUNG
100
AcDbCircle
 10
190.3583343151
 20
165.2371583686
 30
0.0
 40
4.248529228887608
100
AcDbArc
 50
333.4349488229
 51
26.5650511771
  0
SOLID
  5
1BD
330
1B8
100
AcDbEntity
  8
VERMASSUNG
100
AcDbTrace
 10
209.0833344939
 20
163.3371581037
 30
0.0
 11
206.0833344939
 21
163.7871581037
 31
0.0
 12
206.0833344939
 22
162.8871581037
 32
0.0
 13
206.0833344939
 23
162.8871581037
 33
0.0
  0
SOLID
  5
1BE
330
1B8
100
AcDbEntity
  8
VERMASSUNG
100
AcDbTrace
 10
173.0333344939
 20
163.3371581037
 30
0.0
 11
176.0333344939
 21
162.8871581037
 31
0.0
 12
176.0333344939
 22
163.7871581037
 32
0.0
 13
176.0333344939
 23
163.7871581037
 33
0.0
  0
LINE
  5
1BF
330
1B8
100
AcDbEntity
  8
VERMASSUNG
100
AcDbLine
 10
209.0833344939
 20
133.6463572102
 30
0.0
 11
209.0833344939
 21
164.3371581037
 31
0.0
  0
LINE
  5
1C0
330
1B8
100
AcDbEntity
  8
VERMASSUNG
100
AcDbLine
 10
173.0333344939
 20
157.2683116592
 30
0.0
 11
173.0333344939
 21
164.3371581037
 31
0.0
  0
LINE
  5
1C1
330
1B8
100
AcDbEntity
  8
VERMASSUNG
100
AcDbLine
 10
209.0833344939
 20
163.3371581037
 30
0.0
 11
173.0333344939
 21
163.3371581037
 31
0.0
  0
MTEXT
  5
1C2
330
1B8
100
AcDbEntity
  8
VERMASSUNG
100
AcDbMText
 10
187.9583346668
 20
165.9152939325
 30
0.0
 40
2.0
 41
0.0
 71
     1
 72
     1
  1
36.05
  7
SLDTEXTSTYLE0
 73
     1
 44
1.0
  0
ENDBLK
  5
1BA
330
1B8
100
AcDbEntity
  8
0
100
AcDbBlockEnd
  0
BLOCK
  5
1C5
330
1C4
100
AcDbEntity
  8
0
100
AcDbBlockBegin
  2
_D_4
 70
     0
 10
0.0
 20
0.0
 30
0.0
  3
_D_4
  1

  0
SOLID
  5
1C7
330
1C4
100
AcDbEntity
  8
VERMASSUNG
100
AcDbTrace
 10
209.0833344939
 20
169.3371581037
 30
0.0
 11
206.0833344939
 21
169.7871581037
 31
0.0
 12
206.0833344939
 22
168.8871581037
 32
0.0
 13
206.0833344939
 23
168.8871581037
 33
0.0
  0
SOLID
  5
1C8
330
1C4
100
AcDbEntity
  8
VERMASSUNG
100
AcDbTrace
 10
144.0833344939
 20
169.3371581037
 30
0.0
 11
147.0833344939
 21
168.8871581037
 31
0.0
 12
147.0833344939
 22
169.7871581037
 32
0.0
 13
147.0833344939
 23
169.7871581037
 33
0.0
  0
LINE
  5
1C9
330
1C4
100
AcDbEntity
  8
VERMASSUNG
100
AcDbLine
 10
209.0833344939
 20
133.6463572102
 30
0.0
 11
209.0833344939
 21
170.3371581037
 31
0.0
  0
LINE
  5
1CA
330
1C4
100
AcDbEntity
  8
VERMASSUNG
100
AcDbLine
 10
144.0833344939
 20
158.7963572102
 30
0.0
 11
144.0833344939
 21
170.3371581037
 31
0.0
  0
LINE
  5
1CB
330
1C4
100
AcDbEntity
  8
VERMASSUNG
100
AcDbLine
 10
209.0833344939
 20
169.3371581037
 30
0.0
 11
144.0833344939
 21
169.3371581037
 31
0.0
  0
MTEXT
  5
1CC
330
1C4
100
AcDbEntity
  8
VERMASSUNG
100
AcDbMText
 10
175.1833345438
 20
171.9152936997
 30
0.0
 40
2.0
 41
0.0
 71
     1
 72
     1
  1
65
  7
SLDTEXTSTYLE0
 73
     1
 44
1.0
  0
ENDBLK
  5
1C6
330
1C4
100
AcDbEntity
  8
0
100
AcDbBlockEnd
  0
BLOCK
  5
1CF
330
1CE
100
AcDbEntity
  8
0
100
AcDbBlockBegin
  2
_D_5
 70
     0
 10
0.0
 20
0.0
 30
0.0
  3
_D_5
  1

  0
ARC
  5
1D1
330
1CE
100
AcDbEntity
  8
VERMASSUNG
100
AcDbCircle
 10
152.6833346869
 20
177.2371583686
 30
0.0
 40
4.248529228887633
100
AcDbArc
 50
153.4349488229
 51
206.5650511771
  0
ARC
  5
1D2
330
1CE
100
AcDbEntity
  8
VERMASSUNG
100
AcDbCircle
 10
150.6833343591
 20
177.2371583686
 30
0.0
 40
4.248529228887608
100
AcDbArc
 50
333.4349488229
 51
26.5650511771
  0
SOLID
  5
1D3
330
1CE
100
AcDbEntity
  8
VERMASSUNG
100
AcDbTrace
 10
209.0833344939
 20
175.3371581037
 30
0.0
 11
206.0833344939
 21
175.7871581037
 31
0.0
 12
206.0833344939
 22
174.8871581037
 32
0.0
 13
206.0833344939
 23
174.8871581037
 33
0.0
  0
SOLID
  5
1D4
330
1CE
100
AcDbEntity
  8
VERMASSUNG
100
AcDbTrace
 10
94.2833344939
 20
175.3371581037
 30
0.0
 11
97.2833344939
 21
174.8871581037
 31
0.0
 12
97.2833344939
 22
175.7871581037
 32
0.0
 13
97.2833344939
 23
175.7871581037
 33
0.0
  0
LINE
  5
1D5
330
1CE
100
AcDbEntity
  8
VERMASSUNG
100
AcDbLine
 10
209.0833344939
 20
133.6463572102
 30
0.0
 11
209.0833344939
 21
176.3371581037
 31
0.0
  0
LINE
  5
1D6
330
1CE
100
AcDbEntity
  8
VERMASSUNG
100
AcDbLine
 10
94.2833344939
 20
139.7005095071
 30
0.0
 11
94.2833344939
 21
176.3371581037
 31
0.0
  0
LINE
  5
1D7
330
1CE
100
AcDbEntity
  8
VERMASSUNG
100
AcDbLine
 10
209.0833344939
 20
175.3371581037
 30
0.0
 11
94.2833344939
 21
175.3371581037
 31
0.0
  0
MTEXT
  5
1D8
330
1CE
100
AcDbEntity
  8
VERMASSUNG
100
AcDbMText
 10
148.8833346228
 20
177.9152939325
 30
0.0
 40
2.0
 41
0.0
 71
     1
 72
     1
  1
114.8
  7
SLDTEXTSTYLE0
 73
     1
 44
1.0
  0
ENDBLK
  5
1D0
330
1CE
100
AcDbEntity
  8
0
100
AcDbBlockEnd
  0
ENDSEC
  0
SECTION
  2
ENTITIES
  0
MTEXT
  5
78
330
1F
100
AcDbEntity
  8
KOPF_DÜNN
100
AcDbMText
 10
13.8892156294
 20
23.8442973028
 30
0.0
 40
3.0
 41
0.0
 71
     1
 72
     1
  1
A44.810.050.065
  7
SLDTEXTSTYLE0
 73
     1
 44
1.0
  0
MTEXT
  5
79
330
1F
100
AcDbEntity
  8
VERMASSUNG
100
AcDbMText
 10
13.9329988022
 20
28.8834360957
 30
0.0
 40
3.0
 41
0.0
 71
     1
 72
     1
  1
Aufnahme Master shank WH50
  7
SLDTEXTSTYLE0
 73
     1
 44
1.0
  0
MTEXT
  5
7A
330
1F
100
AcDbEntity
  8
VERMASSUNG
100
AcDbMText
 10
98.8601118557
 20
13.8365368761
 30
0.0
 40
2.0
 41
0.0
 71
     1
 72
     1
  1
Datum: 29.11.2011
  7
SLDTEXTSTYLE0
 73
     1
 44
1.0
  0
MTEXT
  5
7B
330
1F
100
AcDbEntity
  8
VERMASSUNG
100
AcDbMText
 10
13.933048693
 20
18.0482802738
 30
0.0
 40
2.0
 41
0.0
 71
     1
 72
     1
  1
DIN 69893
  7
SLDTEXTSTYLE0
 73
     1
 44
1.0
  0
MTEXT
  5
7C
330
1F
100
AcDbEntity
  8
VERMASSUNG
100
AcDbMText
 10
13.9808475933
 20
13.9090974274
 30
0.0
 40
2.0
 41
0.0
 71
     1
 72
     1
  1
Gewicht: 2430g
  7
SLDTEXTSTYLE0
 73
     1
 44
1.0
  0
LINE
  5
7D
330
1F
100
AcDbEntity
  8
0
  6
Continuous
 62
     7
370
    15
100
AcDbLine
 10
200.7069875152
 20
133.7727041888
 30
0.0
 11
200.3333344939
 21
134.1463572102
 31
0.0
  0
LINE
  5
7E
330
1F
100
AcDbEntity
  8
0
  6
Continuous
 62
     7
370
    15
100
AcDbLine
 10
189.7333344939
 20
134.1463572102
 30
0.0
 11
189.3604234283
 21
133.7734461446
 31
0.0
  0
ARC
  5
7F
330
1F
100
AcDbEntity
  8
0
  6
Continuous
 62
     7
370
    15
100
AcDbCircle
 10
144.5833344939
 20
59.4963572102
 30
0.0
 40
0.5
100
AcDbArc
 50
180.0
 51
270.0
  0
ARC
  5
80
330
1F
100
AcDbEntity
  8
0
  6
Continuous
 62
     7
370
    15
100
AcDbCircle
 10
144.5833344939
 20
158.7963572102
 30
0.0
 40
0.5
100
AcDbArc
 50
90.0
 51
180.0
  0
LINE
  5
81
330
1F
100
AcDbEntity
  8
0
  6
Continuous
 62
     7
370
    15
100
AcDbLine
 10
144.5833344939
 20
58.9963572102
 30
0.0
 11
148.9333344939
 21
58.9963572102
 31
0.0
  0
LINE
  5
82
330
1F
100
AcDbEntity
  8
0
  6
Continuous
 62
     7
370
    15
100
AcDbLine
 10
148.9487476426
 20
159.2963572102
 30
0.0
 11
144.5833344939
 21
159.2963572102
 31
0.0
  0
ARC
  5
83
330
1F
100
AcDbEntity
  8
0
  6
Continuous
 62
     7
370
    15
100
AcDbCircle
 10
143.1863975754
 20
70.5178718857
 30
0.0
 40
0.996233821438679
100
AcDbArc
 50
25.7988228126
 51
90.0
  0
ARC
  5
84
330
1F
100
AcDbEntity
  8
0
  6
Continuous
 62
     7
370
    15
100
AcDbCircle
 10
143.1863975754
 20
147.7748425346
 30
0.0
 40
0.9962338214386932
100
AcDbArc
 50
270.0
 51
334.2011771874
  0
LINE
  5
85
330
1F
100
AcDbEntity
  8
0
  6
Continuous
 62
     7
370
    15
100
AcDbLine
 10
122.558934052
 20
146.2204724185
 30
0.0
 11
104.3833344939
 21
145.3098712382
 31
0.0
  0
LINE
  5
86
330
1F
100
AcDbEntity
  8
0
  6
Continuous
 62
     7
370
    15
100
AcDbLine
 10
141.1274619683
 20
147.1507593882
 30
0.0
 11
135.7446403316
 21
146.8810789455
 31
0.0
  0
LINE
  5
87
330
1F
100
AcDbEntity
  8
0
  6
Continuous
 62
     7
370
    15
100
AcDbLine
 10
135.7447510502
 20
71.4116299278
 30
0.0
 11
141.1274619683
 21
71.1419550321
 31
0.0
  0
LINE
  5
88
330
1F
100
AcDbEntity
  8
0
  6
Continuous
 62
     7
370
    15
100
AcDbLine
 10
109.3833344939
 20
72.7323421801
 30
0.0
 11
122.559550092
 21
72.0722111381
 31
0.0
  0
LINE
  5
89
330
1F
100
AcDbEntity
  8
0
  6
Continuous
 62
     7
370
    15
100
AcDbLine
 10
141.1274619683
 20
71.1419550321
 30
0.0
 11
142.3891806483
 21
71.4800315334
 31
0.0
  0
LINE
  5
8A
330
1F
100
AcDbEntity
  8
0
  6
Continuous
 62
     7
370
    15
100
AcDbLine
 10
142.3891806483
 20
146.8126828869
 30
0.0
 11
141.1274619683
 21
147.1507593882
 31
0.0
  0
ARC
  5
8B
330
1F
100
AcDbEntity
  8
0
  6
Continuous
 62
     7
370
    15
100
AcDbCircle
 10
142.6479996934
 20
70.5141057071
 30
0.0
 40
0.9999999999999858
100
AcDbArc
 50
90.0
 51
105.0
  0
ARC
  5
8C
330
1F
100
AcDbEntity
  8
0
  6
Continuous
 62
     7
370
    15
100
AcDbCircle
 10
142.6479996934
 20
147.7786087132
 30
0.0
 40
0.9999999999999716
100
AcDbArc
 50
255.0
 51
270.0
  0
LINE
  5
8D
330
1F
100
AcDbEntity
  8
0
  6
Continuous
 62
     7
370
    15
100
AcDbLine
 10
142.6479996934
 20
71.5141057071
 30
0.0
 11
143.1863975754
 21
71.5141057071
 31
0.0
  0
LINE
  5
8E
330
1F
100
AcDbEntity
  8
0
  6
Continuous
 62
     7
370
    15
100
AcDbLine
 10
143.1863975754
 20
146.7786087132
 30
0.0
 11
142.6479996934
 21
146.7786087132
 31
0.0
  0
ARC
  5
8F
330
1F
100
AcDbEntity
  8
0
  6
Continuous
 62
     7
370
    15
100
AcDbCircle
 10
176.0333344939
 20
81.1463572102
 30
0.0
 40
3.0
100
AcDbArc
 50
90.0
 51
180.0
  0
ARC
  5
90
330
1F
100
AcDbEntity
  8
0
  6
Continuous
 62
     7
370
    15
100
AcDbCircle
 10
176.0333344939
 20
137.1463572102
 30
0.0
 40
3.0
100
AcDbArc
 50
180.0
 51
270.0
  0
LINE
  5
91
330
1F
100
AcDbEntity
  8
0
  6
Continuous
 62
     7
370
    15
100
AcDbLine
 10
187.5474165995
 20
134.1463572102
 30
0.0
 11
176.0333344939
 21
134.1463572102
 31
0.0
  0
LINE
  5
92
330
1F
100
AcDbEntity
  8
0
  6
Continuous
 62
     7
370
    15
100
AcDbLine
 10
208.5833344939
 20
134.1463572102
 30
0.0
 11
202.5272548335
 21
134.1463572102
 31
0.0
  0
LINE
  5
93
330
1F
100
AcDbEntity
  8
0
  6
Continuous
 62
     7
370
    15
100
AcDbLine
 10
176.0333344939
 20
84.1463572102
 30
0.0
 11
208.5833344939
 21
84.1463572102
 31
0.0
  0
LINE
  5
94
330
1F
100
AcDbEntity
  8
0
  6
Continuous
 62
     7
370
    15
100
AcDbLine
 10
208.5833344939
 20
84.1463572102
 30
0.0
 11
209.0833344939
 21
84.6463572102
 31
0.0
  0
LINE
  5
95
330
1F
100
AcDbEntity
  8
0
  6
Continuous
 62
     7
370
    15
100
AcDbLine
 10
209.0833344939
 20
133.6463572102
 30
0.0
 11
208.5833344939
 21
134.1463572102
 31
0.0
  0
LINE
  5
96
330
1F
100
AcDbEntity
  8
0
  6
Continuous
 62
     7
370
    15
100
AcDbLine
 10
95.9333344939
 20
76.8963572102
 30
0.0
 11
107.4833344939
 21
76.8963572102
 31
0.0
  0
LINE
  5
97
330
1F
100
AcDbEntity
  8
0
  6
Continuous
 62
     7
370
    15
100
AcDbLine
 10
102.4833344939
 20
141.3963572102
 30
0.0
 11
95.9333344939
 21
141.3963572102
 31
0.0
  0
ARC
  5
98
330
1F
100
AcDbEntity
  8
0
  6
Continuous
 62
     7
370
    15
100
AcDbCircle
 10
107.4833344939
 20
74.9963572102
 30
0.0
 40
1.900000000000007
100
AcDbArc
 50
29.7154989008
 51
90.0
  0
ARC
  5
99
330
1F
100
AcDbEntity
  8
0
  6
Continuous
 62
     7
370
    15
100
AcDbCircle
 10
102.4833344939
 20
143.2963572102
 30
0.0
 40
1.900000000000001
100
AcDbArc
 50
270.0
 51
319.7388303617
  0
LINE
  5
9A
330
1F
100
AcDbEntity
  8
0
  6
Continuous
 62
     7
370
    15
100
AcDbLine
 10
94.3032168809
 20
78.5264748231
 30
0.0
 11
95.9333344939
 21
76.8963572102
 31
0.0
  0
LINE
  5
9B
330
1F
100
AcDbEntity
  8
0
  6
Continuous
 62
     7
370
    15
100
AcDbLine
 10
95.9333344939
 20
141.3963572102
 30
0.0
 11
94.3029712363
 21
139.7659939525
 31
0.0
  0
LINE
  5
9C
330
1F
100
AcDbEntity
  8
0
  6
Continuous
 62
     7
370
    15
100
AcDbLine
 10
191.5861481639
 20
133.4463572102
 30
0.0
 11
198.492602893
 21
133.4463572102
 31
0.0
  0
LINE
  5
9D
330
1F
100
AcDbEntity
  8
0
  6
Continuous
 62
     7
370
    15
100
AcDbLine
 10
200.277888594
 20
134.1463572102
 30
0.0
 11
200.3333344939
 21
134.1463572102
 31
0.0
  0
LINE
  5
9E
330
1F
100
AcDbEntity
  8
0
  6
Continuous
 62
     7
370
    15
100
AcDbLine
 10
189.7333344939
 20
134.1463572102
 30
0.0
 11
200.277888594
 21
134.1463572102
 31
0.0
  0
SPLINE
  5
9F
330
1F
100
AcDbEntity
  8
0
  6
Continuous
 62
     7
370
    15
100
AcDbSpline
210
0.0
220
0.0
230
1.0
 70
    24
 71
     3
 72
    11
 73
     7
 74
     0
 42
0.000000001
 43
0.00000001
 40
0.0
 40
0.0
 40
0.0
 40
0.0
 40
0.2164553779443601
 40
0.4403112895790666
 40
0.751900568803885
 40
1.0
 40
1.0
 40
1.0
 40
1.0
 10
195.5330968972486
 20
112.5742191589771
 30
0.0
 10
195.3126267528077
 20
112.4864609211313
 30
0.0
 10
194.8641486667728
 20
112.3079440219716
 30
0.0
 10
194.0318931201577
 20
111.976664336037
 30
0.0
 10
193.1391497572478
 20
111.6213074482542
 30
0.0
 10
192.5678476138484
 20
111.3939003791048
 30
0.0
 10
192.3146001672242
 20
111.2930951217261
 30
0.0
  0
SPLINE
  5
A0
330
1F
100
AcDbEntity
  8
0
  6
Continuous
 62
     7
370
    15
100
AcDbSpline
210
0.0
220
0.0
230
1.0
 70
    24
 71
     3
 72
    11
 73
     7
 74
     0
 42
0.000000001
 43
0.00000001
 40
0.0
 40
0.0
 40
0.0
 40
0.0
 40
0.1849308168246111
 40
0.5198464202157798
 40
0.8714438233692672
 40
1.0
 40
1.0
 40
1.0
 40
1.0
 10
192.3146001672242
 20
111.2930951217261
 30
0.0
 10
192.285511553448
 20
111.0935768073465
 30
0.0
 10
192.2037425330097
 20
110.5327244665705
 30
0.0
 10
192.0511050412781
 20
109.485786468915
 30
0.0
 10
191.9101380725103
 20
108.5188963926762
 30
0.0
 10
191.8349646686576
 20
108.0032832755213
 30
0.0
 10
191.8148377638703
 20
107.8652331729023
 30
0.0
  0
SPLINE
  5
A1
330
1F
100
AcDbEntity
  8
0
  6
Continuous
 62
     7
370
    15
100
AcDbSpline
210
0.0
220
0.0
230
1.0
 70
    24
 71
     3
 72
    11
 73
     7
 74
     0
 42
0.000000001
 43
0.00000001
 40
0.0
 40
0.0
 40
0.0
 40
0.0
 40
0.216455377944337
 40
0.440311289579043
 40
0.751900568803887
 40
1.0
 40
1.0
 40
1.0
 40
1.0
 10
191.8148377638703
 20
107.8652331729023
 30
0.0
 10
192.0010736994566
 20
107.7181795459633
 30
0.0
 10
192.3799129121511
 20
107.4190445799964
 30
0.0
 10
193.0829373092357
 20
106.8639299771545
 30
0.0
 10
193.8370570829204
 20
106.2684699897059
 30
0.0
 10
194.3196484535037
 20
105.8874113548602
 30
0.0
 10
194.5335720905408
 20
105.7184952613295
 30
0.0
  0
SPLINE
  5
A2
330
1F
100
AcDbEntity
  8
0
  6
Continuous
 62
     7
370
    15
100
AcDbSpline
210
0.0
220
0.0
230
1.0
 70
    24
 71
     3
 72
    11
 73
     7
 74
     0
 42
0.000000001
 43
0.00000001
 40
0.0
 40
0.0
 40
0.0
 40
0.0
 40
0.2164553779443485
 40
0.4403112895790477
 40
0.7519005688038658
 40
1.0
 40
1.0
 40
1.0
 40
1.0
 10
194.5335720905408
 20
105.7184952613295
 30
0.0
 10
194.7540422349817
 20
105.8062534991753
 30
0.0
 10
195.2025203210166
 20
105.984770398335
 30
0.0
 10
196.0347758676316
 20
106.3160500842697
 30
0.0
 10
196.9275192305416
 20
106.6714069720523
 30
0.0
 10
197.498821373941
 20
106.8988140412018
 30
0.0
 10
197.7520688205652
 20
106.9996192985806
 30
0.0
  0
SPLINE
  5
A3
330
1F
100
AcDbEntity
  8
0
  6
Continuous
 62
     7
370
    15
100
AcDbSpline
210
0.0
220
0.0
230
1.0
 70
    24
 71
     3
 72
    13
 73
     9
 74
     0
 42
0.000000001
 43
0.00000001
 40
0.0
 40
0.0
 40
0.0
 40
0.0
 40
0.1281940639112316
 40
0.3016059688761495
 40
0.4802226824374505
 40
0.6449624637538015
 40
0.8155900900874721
 40
0.9999999999999999
 40
0.9999999999999999
 40
0.9999999999999999
 40
0.9999999999999999
 10
197.7520688205652
 20
106.9996192985806
 30
0.0
 10
197.7722196726458
 20
107.1378336552826
 30
0.0
 10
197.8196291788275
 20
107.4630146636216
 30
0.0
 10
197.8994542388482
 20
108.0105334124746
 30
0.0
 10
197.9891276383494
 20
108.6256017567688
 30
0.0
 10
198.0787737127266
 20
109.240482678497
 30
0.0
 10
198.1666284717132
 20
109.8430769979818
 30
0.0
 10
198.2227046945964
 20
110.2277028709269
 30
0.0
 10
198.2518312239191
 20
110.4274812474044
 30
0.0
  0
CIRCLE
  5
A4
330
1F
100
AcDbEntity
  8
0
  6
Continuous
 62
     7
370
    15
100
AcDbCircle
 10
195.0333344939
 20
109.1463572102
 30
0.0
 40
3.600000000000048
  0
SPLINE
  5
A5
330
1F
100
AcDbEntity
  8
0
  6
Continuous
 62
     7
370
    15
100
AcDbSpline
210
0.0
220
0.0
230
1.0
 70
    24
 71
     3
 72
    11
 73
     7
 74
     0
 42
0.000000001
 43
0.00000001
 40
0.0
 40
0.0
 40
0.0
 40
0.0
 40
0.2164553779443538
 40
0.4403112895790568
 40
0.7519005688038924
 40
1.0
 40
1.0
 40
1.0
 40
1.0
 10
198.2518312239191
 20
110.4274812474044
 30
0.0
 10
198.0655952883328
 20
110.5745348743433
 30
0.0
 10
197.6867560756382
 20
110.8736698403103
 30
0.0
 10
196.9837316785536
 20
111.4287844431522
 30
0.0
 10
196.229611904869
 20
112.0242444306007
 30
0.0
 10
195.7470205342858
 20
112.4053030654464
 30
0.0
 10
195.5330968972486
 20
112.5742191589771
 30
0.0
  0
CIRCLE
  5
A6
330
1F
100
AcDbEntity
  8
0
  6
Continuous
 62
     7
370
    15
100
AcDbCircle
 10
195.0333344939
 20
109.1463572102
 30
0.0
 40
6.000000000000041
  0
CIRCLE
  5
A7
330
1F
100
AcDbEntity
  8
0
  6
Continuous
 62
     7
370
    15
100
AcDbCircle
 10
195.0333344939
 20
109.1463572102
 30
0.0
 40
5.300000000000033
  0
ARC
  5
A8
330
1F
100
AcDbEntity
  8
0
  6
Continuous
 62
     7
370
    15
100
AcDbCircle
 10
195.0333344939
 20
109.1463572102
 30
0.0
 40
3.000000000000078
100
AcDbArc
 50
351.7050503154
 51
51.7050503154
  0
ARC
  5
A9
330
1F
100
AcDbEntity
  8
0
  6
Continuous
 62
     7
370
    15
100
AcDbCircle
 10
195.0333344939
 20
109.1463572102
 30
0.0
 40
3.00000000000005
100
AcDbArc
 50
111.7050503154
 51
171.7050503154
  0
ARC
  5
AA
330
1F
100
AcDbEntity
  8
0
  6
Continuous
 62
     7
370
    15
100
AcDbCircle
 10
195.0333344939
 20
109.1463572102
 30
0.0
 40
3.00000000000007
100
AcDbArc
 50
51.7050503154
 51
111.7050503154
  0
ARC
  5
AB
330
1F
100
AcDbEntity
  8
0
  6
Continuous
 62
     7
370
    15
100
AcDbCircle
 10
195.0333344939
 20
109.1463572102
 30
0.0
 40
3.000000000000078
100
AcDbArc
 50
291.7050503154
 51
351.7050503154
  0
ARC
  5
AC
330
1F
100
AcDbEntity
  8
0
  6
Continuous
 62
     7
370
    15
100
AcDbCircle
 10
195.0333344939
 20
109.1463572102
 30
0.0
 40
2.999999999999979
100
AcDbArc
 50
231.7050503154
 51
291.7050503154
  0
ARC
  5
AD
330
1F
100
AcDbEntity
  8
0
  6
Continuous
 62
     7
370
    15
100
AcDbCircle
 10
195.0333344939
 20
109.1463572102
 30
0.0
 40
2.999999999999969
100
AcDbArc
 50
171.7050503154
 51
231.7050503154
  0
LINE
  5
AE
330
1F
100
AcDbEntity
  8
0
  6
Continuous
 62
     7
370
    15
100
AcDbLine
 10
144.0833344939
 20
59.4963572102
 30
0.0
 11
144.0833344939
 21
158.7963572072
 31
0.0
  0
LINE
  5
AF
330
1F
100
AcDbEntity
  8
0
  6
Continuous
 62
     7
370
    15
100
AcDbLine
 10
167.2587609744
 20
60.2176079925
 30
0.0
 11
167.2587609744
 21
140.4963572102
 31
0.0
  0
SPLINE
  5
B0
330
1F
100
AcDbEntity
  8
0
  6
Continuous
 62
     7
370
    15
100
AcDbSpline
210
0.0
220
0.0
230
1.0
 70
     8
 71
     3
 72
     8
 73
     4
 74
     0
 42
0.000000001
 43
0.00000001
 40
0.0
 40
0.0
 40
0.0
 40
0.0
 40
1.0
 40
1.0
 40
1.0
 40
1.0
 10
167.2587609744376
 20
60.21760799254096
 30
0.0
 10
166.8365816709166
 20
60.96709548541686
 30
0.0
 10
166.4147556913117
 20
61.7167824769834
 30
0.0
 10
165.9933344938947
 20
62.46669802232964
 30
0.0
  0
LINE
  5
B1
330
1F
100
AcDbEntity
  8
0
  6
Continuous
 62
     7
370
    15
100
AcDbLine
 10
165.9933344939
 20
62.4666980223
 30
0.0
 11
165.9933344939
 21
140.4963572102
 31
0.0
  0
SPLINE
  5
B2
330
1F
100
AcDbEntity
  8
0
  6
Continuous
 62
     7
370
    15
100
AcDbSpline
210
0.0
220
0.0
230
1.0
 70
    24
 71
     3
 72
     8
 73
     4
 74
     0
 42
0.000000001
 43
0.00000001
 40
0.0
 40
0.0
 40
0.0
 40
0.0
 40
1.0
 40
1.0
 40
1.0
 40
1.0
 10
165.9933344938947
 20
140.4963572101533
 30
0.0
 10
166.4096097783712
 20
140.4963572101533
 30
0.0
 10
166.8316884968092
 20
140.4963572101533
 30
0.0
 10
167.2587609744376
 20
140.4963572101533
 30
0.0
  0
LINE
  5
B3
330
1F
100
AcDbEntity
  8
0
  6
Continuous
 62
     7
370
    15
100
AcDbLine
 10
162.1733344939
 20
62.4666980223
 30
0.0
 11
162.1733344939
 21
140.4963572102
 31
0.0
  0
SPLINE
  5
B4
330
1F
100
AcDbEntity
  8
0
  6
Continuous
 62
     7
370
    15
100
AcDbSpline
210
0.0
220
0.0
230
1.0
 70
     8
 71
     3
 72
     8
 73
     4
 74
     0
 42
0.000000001
 43
0.00000001
 40
0.0
 40
0.0
 40
0.0
 40
0.0
 40
1.0
 40
1.0
 40
1.0
 40
1.0
 10
162.1733344938947
 20
62.46669802232962
 30
0.0
 10
161.7519132964777
 20
61.71678247698338
 30
0.0
 10
161.3300873168727
 20
60.96709548541685
 30
0.0
 10
160.9079080133517
 20
60.21760799254095
 30
0.0
  0
LINE
  5
B5
330
1F
100
AcDbEntity
  8
0
  6
Continuous
 62
     7
370
    15
100
AcDbLine
 10
160.9079080134
 20
60.2176079925
 30
0.0
 11
160.9079080134
 21
140.4963572102
 31
0.0
  0
SPLINE
  5
B6
330
1F
100
AcDbEntity
  8
0
  6
Continuous
 62
     7
370
    15
100
AcDbSpline
210
0.0
220
0.0
230
1.0
 70
    24
 71
     3
 72
     8
 73
     4
 74
     0
 42
0.000000001
 43
0.00000001
 40
0.0
 40
0.0
 40
0.0
 40
0.0
 40
1.0
 40
1.0
 40
1.0
 40
1.0
 10
160.9079080133517
 20
140.4963572101533
 30
0.0
 10
161.3349804909802
 20
140.4963572101533
 30
0.0
 10
161.7570592094181
 20
140.4963572101533
 30
0.0
 10
162.1733344938947
 20
140.4963572101533
 30
0.0
  0
LINE
  5
B7
330
1F
100
AcDbEntity
  8
0
  6
Continuous
 62
     7
370
    15
100
AcDbLine
 10
172.0333344939
 20
60.2176079925
 30
0.0
 11
167.2587609744
 21
60.2176079925
 31
0.0
  0
LINE
  5
B8
330
1F
100
AcDbEntity
  8
0
  6
Continuous
 62
     7
370
    15
100
AcDbLine
 10
167.2587609744
 20
140.4963572102
 30
0.0
 11
172.0333344939
 21
140.4963572102
 31
0.0
  0
LINE
  5
B9
330
1F
100
AcDbEntity
  8
0
  6
Continuous
 62
     7
370
    15
100
AcDbLine
 10
173.0333344939
 20
61.243095317
 30
0.0
 11
173.0333344939
 21
140.4963572102
 31
0.0
  0
SPLINE
  5
BA
330
1F
100
AcDbEntity
  8
0
  6
Continuous
 62
     7
370
    15
100
AcDbSpline
210
0.0
220
0.0
230
1.0
 70
     8
 71
     3
 72
    14
 73
    10
 74
     0
 42
0.000000001
 43
0.00000001
 40
0.0
 40
0.0
 40
0.0
 40
0.0
 40
0.25
 40
0.25
 40
0.5
 40
0.5
 40
0.75
 40
0.75
 40
1.0
 40
1.0
 40
1.0
 40
1.0
 10
173.0333344938947
 20
61.24309531704209
 30
0.0
 10
173.0333344938947
 20
61.10996262717291
 30
0.0
 10
173.0079564777739
 20
60.9777031591804
 30
0.0
 10
172.9097694806765
 20
60.7315769922135
 30
0.0
 10
172.8364847933494
 20
60.61753678076448
 30
0.0
 10
172.6532073446932
 20
60.42726470721355
 30
0.0
 10
172.5414411345225
 20
60.34955639502161
 30
0.0
 10
172.2989558813393
 20
60.24527920760904
 30
0.0
 10
172.1656650177275
 20
60.21760799254093
 30
0.0
 10
172.0333344938947
 20
60.21760799254093
 30
0.0
  0
SPLINE
  5
BB
330
1F
100
AcDbEntity
  8
0
  6
Continuous
 62
     7
370
    15
100
AcDbSpline
210
0.0
220
0.0
230
1.0
 70
    24
 71
     3
 72
    14
 73
    10
 74
     0
 42
0.000000001
 43
0.00000001
 40
0.0
 40
0.0
 40
0.0
 40
0.0
 40
0.25
 40
0.25
 40
0.5
 40
0.5
 40
0.75
 40
0.75
 40
1.0
 40
1.0
 40
1.0
 40
1.0
 10
172.0333344938947
 20
140.4963572101533
 30
0.0
 10
172.1834712141805
 20
140.4963572101533
 30
0.0
 10
172.3345618546448
 20
140.4963572101533
 30
0.0
 10
172.5917073184962
 20
140.4963572101533
 30
0.0
 10
172.7001241623511
 20
140.4963572101533
 30
0.0
 10
172.8693979485984
 20
140.4963572101533
 30
0.0
 10
172.9315781115657
 20
140.4963572101533
 30
0.0
 10
173.0132147589071
 20
140.4963572101533
 30
0.0
 10
173.0333344938947
 20
140.4963572101533
 30
0.0
 10
173.0333344938947
 20
140.4963572101533
 30
0.0
  0
LINE
  5
BC
330
1F
100
AcDbEntity
  8
0
  6
Continuous
 62
     7
370
    15
100
AcDbLine
 10
148.9333344939
 20
140.4963572102
 30
0.0
 11
160.9079080134
 21
140.4963572102
 31
0.0
  0
LINE
  5
BD
330
1F
100
AcDbEntity
  8
0
  6
Continuous
 62
     7
370
    15
100
AcDbLine
 10
160.9079080134
 20
60.2176079925
 30
0.0
 11
158.9333344939
 21
60.2176079925
 31
0.0
  0
SPLINE
  5
BE
330
1F
100
AcDbEntity
  8
0
  6
Continuous
 62
     7
370
    15
100
AcDbSpline
210
0.0
220
0.0
230
1.0
 70
     8
 71
     3
 72
    30
 73
    26
 74
     0
 42
0.000000001
 43
0.00000001
 40
0.0
 40
0.0
 40
0.0
 40
0.0
 40
0.1250000000000002
 40
0.1250000000000002
 40
0.1875000000000004
 40
0.1875000000000004
 40
0.2500000000000005
 40
0.2500000000000005
 40
0.3750000000000008
 40
0.3750000000000008
 40
0.4375000000000008
 40
0.4375000000000008
 40
0.5000000000000008
 40
0.5000000000000008
 40
0.6250000000000007
 40
0.6250000000000007
 40
0.6875000000000006
 40
0.6875000000000006
 40
0.7500000000000004
 40
0.7500000000000004
 40
0.8125000000000003
 40
0.8125000000000003
 40
0.8750000000000002
 40
0.8750000000000002
 40
1.0
 40
1.0
 40
1.0
 40
1.0
 10
158.9333344938946
 20
60.21760799254096
 30
0.0
 10
158.2706049362875
 20
60.21760799254095
 30
0.0
 10
157.6193613185613
 20
60.20281525306277
 30
0.0
 10
156.6589255976041
 20
60.16058005711721
 30
0.0
 10
156.3415385014421
 20
60.1431573097011
 30
0.0
 10
155.7123826364915
 20
60.10195960823602
 30
0.0
 10
155.4002344266246
 20
60.07810956131294
 30
0.0
 10
154.4929236017907
 20
59.99954980925104
 30
0.0
 10
153.9194942130489
 20
59.9374379123074
 30
0.0
 10
153.1056105913745
 20
59.83462803675002
 30
0.0
 10
152.840803440211
 20
59.79855613972325
 30
0.0
 10
152.3338803570177
 20
59.72498708505191
 30
0.0
 10
152.0924796992404
 20
59.68762765669696
 30
0.0
 10
151.4033226054376
 20
59.57525946398431
 30
0.0
 10
150.9902626409751
 20
59.49995316908265
 30
0.0
 10
150.4421068046025
 20
59.3918894927506
 30
0.0
 10
150.2726382747474
 20
59.35692249557683
 30
0.0
 10
149.9646171420911
 20
59.29088677469554
 30
0.0
 10
149.8252367185431
 20
59.2596546148253
 30
0.0
 10
149.5754524430118
 20
59.2014222751232
 30
0.0
 10
149.4650479751292
 20
59.17442093908117
 30
0.0
 10
149.2737943259415
 20
59.1253103064257
 30
0.0
 10
149.1926772252943
 20
59.10311578676433
 30
0.0
 10
148.998533766884
 20
59.04572241606961
 30
0.0
 10
148.9333344938947
 20
59.01954209805206
 30
0.0
 10
148.9333344938947
 20
59.00632829113492
 30
0.0
  0
LINE
  5
BF
330
1F
100
AcDbEntity
  8
0
  6
Continuous
 62
     7
370
    15
100
AcDbLine
 10
148.9333344939
 20
59.0063282911
 30
0.0
 11
148.9333344939
 21
58.9963572102
 31
0.0
  0
SPLINE
  5
C0
330
1F
100
AcDbEntity
  8
0
  6
Continuous
 62
     7
370
    15
100
AcDbSpline
210
0.0
220
0.0
230
1.0
 70
     8
 71
     3
 72
    23
 73
    19
 74
     0
 42
0.000000001
 43
0.00000001
 40
0.0
 40
0.0
 40
0.0
 40
0.0
 40
0.0520300727456131
 40
0.1044274133049883
 40
0.1579786812027082
 40
0.2119260654826426
 40
0.2639549385134643
 40
0.3697454391499784
 40
0.423622911413217
 40
0.4763045352579295
 40
0.583425645357364
 40
0.6379915790134644
 40
0.6910916206983828
 40
0.7445662725097442
 40
0.7992333202959504
 40
0.8543175093421019
 40
0.9067130024580088
 40
1.0
 40
1.0
 40
1.0
 40
1.0
 10
158.9333344938946
 20
158.2892356362284
 30
0.0
 10
158.6603032264098
 20
158.2905532690772
 30
0.0
 10
158.1123134291588
 20
158.2931978356291
 30
0.0
 10
157.289110416839
 20
158.3146088022138
 30
0.0
 10
156.4678084585987
 20
158.3487248026375
 30
0.0
 10
155.6663228367207
 20
158.3956371684204
 30
0.0
 10
154.633863750401
 20
158.4723985257233
 30
0.0
 10
153.6565432359823
 20
158.5679936392852
 30
0.0
 10
152.7554558827695
 20
158.6746068383641
 30
0.0
 10
151.906483818459
 20
158.7861181639537
 30
0.0
 10
151.1489435642421
 20
158.9000006839619
 30
0.0
 10
150.5040054888605
 20
159.0062537160771
 30
0.0
 10
150.0794829547904
 20
159.0799539882038
 30
0.0
 10
149.7169856105167
 20
159.1456370733093
 30
0.0
 10
149.4158421582413
 20
159.2021532669933
 30
0.0
 10
149.1886380922861
 20
159.2459487927432
 30
0.0
 10
148.9826112508063
 20
159.2864700422744
 30
0.0
 10
148.9619670471205
 20
159.2906324266708
 30
0.0
 10
148.9487476425798
 20
159.2932977870802
 30
0.0
  0
LINE
  5
C1
330
1F
100
AcDbEntity
  8
0
  6
Continuous
 62
     7
370
    15
100
AcDbLine
 10
160.9079080134
 20
158.2892356362
 30
0.0
 11
158.9333344939
 21
158.2892356362
 31
0.0
  0
LINE
  5
C2
330
1F
100
AcDbEntity
  8
0
  6
Continuous
 62
     7
370
    15
100
AcDbLine
 10
160.9079080134
 20
148.289683589
 30
0.0
 11
160.9079080134
 21
158.2892356362
 31
0.0
  0
LINE
  5
C3
330
1F
100
AcDbEntity
  8
0
  6
Continuous
 62
     7
370
    15
100
AcDbLine
 10
158.6868257421
 20
148.289683589
 30
0.0
 11
160.9079080134
 21
148.289683589
 31
0.0
  0
SPLINE
  5
C4
330
1F
100
AcDbEntity
  8
0
  6
Continuous
 62
     7
370
    15
100
AcDbSpline
210
0.0
220
0.0
230
1.0
 70
     8
 71
     3
 72
    24
 73
    20
 74
     0
 42
0.000000001
 43
0.00000001
 40
0.0
 40
0.0
 40
0.0
 40
0.0
 40
0.2499999999999992
 40
0.2499999999999992
 40
0.3749999999999983
 40
0.3749999999999983
 40
0.4999999999999974
 40
0.4999999999999974
 40
0.5624999999999977
 40
0.5624999999999977
 40
0.6249999999999979
 40
0.6249999999999979
 40
0.6874999999999981
 40
0.6874999999999981
 40
0.7499999999999983
 40
0.7499999999999983
 40
0.8749999999999992
 40
0.8749999999999992
 40
1.0
 40
1.0
 40
1.0
 40
1.0
 10
148.9333344938946
 20
140.4963572101533
 30
0.0
 10
149.122028442902
 20
141.5377154374775
 30
0.0
 10
149.4249142768141
 20
142.5187763278979
 30
0.0
 10
150.1212109360973
 20
143.8940324056089
 30
0.0
 10
150.3966062135606
 20
144.3388408522148
 30
0.0
 10
151.0312902652066
 20
145.170261700781
 30
0.0
 10
151.3910441941449
 20
145.5593225860139
 30
0.0
 10
152.0061713091123
 20
146.1009048350445
 30
0.0
 10
152.2249198441597
 20
146.2751448357305
 30
0.0
 10
152.6856352799868
 20
146.6051733006834
 30
0.0
 10
152.9263660950915
 20
146.7602414658941
 30
0.0
 10
153.4295206998868
 20
147.0505407374853
 30
0.0
 10
153.6919379341404
 20
147.1857765586606
 30
0.0
 10
154.2399766137234
 20
147.435966174213
 30
0.0
 10
154.5265781556607
 20
147.5512700930029
 30
0.0
 10
155.4182974390866
 20
147.8628345651693
 30
0.0
 10
156.037903122631
 20
148.0196012107843
 30
0.0
 10
157.3290572068279
 20
148.233310086923
 30
0.0
 10
158.0074724183206
 20
148.2896835889883
 30
0.0
 10
158.6868257421429
 20
148.2896835889883
 30
0.0
  0
SPLINE
  5
C5
330
1F
100
AcDbEntity
  8
0
  6
Continuous
 62
     7
370
    15
100
AcDbSpline
210
0.0
220
0.0
230
1.0
 70
     8
 71
     3
 72
    14
 73
    10
 74
     0
 42
0.000000001
 43
0.00000001
 40
0.0
 40
0.0
 40
0.0
 40
0.0
 40
0.25
 40
0.25
 40
0.5
 40
0.5
 40
0.75
 40
0.75
 40
1.0
 40
1.0
 40
1.0
 40
1.0
 10
165.9933344938947
 20
63.68317842775842
 30
0.0
 10
165.9933344938947
 20
63.7902225087528
 30
0.0
 10
165.9732168067365
 20
63.89545764899523
 30
0.0
 10
165.8947256174709
 20
64.09330813584292
 30
0.0
 10
165.8365689926697
 20
64.18435989940782
 30
0.0
 10
165.6900537370516
 20
64.33752599333263
 30
0.0
 10
165.6014111884105
 20
64.39982043954204
 30
0.0
 10
165.4056878656102
 20
64.48461422507802
 30
0.0
 10
165.3004566745393
 20
64.50668175210366
 30
0.0
 10
165.1933344938947
 20
64.50668175210366
 30
0.0
  0
SPLINE
  5
C6
330
1F
100
AcDbEntity
  8
0
  6
Continuous
 62
     7
370
    15
100
AcDbSpline
210
0.0
220
0.0
230
1.0
 70
    24
 71
     3
 72
    14
 73
    10
 74
     0
 42
0.000000001
 43
0.00000001
 40
0.0
 40
0.0
 40
0.0
 40
0.0
 40
0.25
 40
0.25
 40
0.5
 40
0.5
 40
0.75
 40
0.75
 40
1.0
 40
1.0
 40
1.0
 40
1.0
 10
165.1933344938947
 20
140.4963572101533
 30
0.0
 10
165.3171042586598
 20
140.4963572101533
 30
0.0
 10
165.4414713626667
 20
140.4963572101533
 30
0.0
 10
165.6478278313928
 20
140.4963572101533
 30
0.0
 10
165.7331559748111
 20
140.4963572101533
 30
0.0
 10
165.8653480335263
 20
140.4963572101533
 30
0.0
 10
165.9139932772769
 20
140.4963572101533
 30
0.0
 10
165.9775290690056
 20
140.4963572101533
 30
0.0
 10
165.9933344938947
 20
140.4963572101533
 30
0.0
 10
165.9933344938947
 20
140.4963572101533
 30
0.0
  0
SPLINE
  5
C7
330
1F
100
AcDbEntity
  8
0
  6
Continuous
 62
     7
370
    15
100
AcDbSpline
210
0.0
220
0.0
230
1.0
 70
     8
 71
     3
 72
    12
 73
     8
 74
     0
 42
0.000000001
 43
0.00000001
 40
0.0
 40
0.0
 40
0.0
 40
0.0
 40
0.25
 40
0.25
 40
0.5
 40
0.5
 40
1.0
 40
1.0
 40
1.0
 40
1.0
 10
162.9733344938947
 20
64.50668175210367
 30
0.0
 10
162.8675738405457
 20
64.50668175210365
 30
0.0
 10
162.7595862123628
 20
64.48414224610325
 30
0.0
 10
162.5649915470972
 20
64.39957161410794
 30
0.0
 10
162.4761196342583
 20
64.33708996134915
 30
0.0
 10
162.2569273419325
 20
64.10770100987699
 30
0.0
 10
162.1733344938947
 20
63.8951176723546
 30
0.0
 10
162.1733344938947
 20
63.68317842775842
 30
0.0
  0
SPLINE
  5
C8
330
1F
100
AcDbEntity
  8
0
  6
Continuous
 62
     7
370
    15
100
AcDbSpline
210
0.0
220
0.0
230
1.0
 70
    24
 71
     3
 72
    14
 73
    10
 74
     0
 42
0.000000001
 43
0.00000001
 40
0.0
 40
0.0
 40
0.0
 40
0.0
 40
0.25
 40
0.25
 40
0.5
 40
0.5
 40
0.75
 40
0.75
 40
1.0
 40
1.0
 40
1.0
 40
1.0
 10
162.1733344938947
 20
140.4963572101533
 30
0.0
 10
162.1733344938947
 20
140.4963572101533
 30
0.0
 10
162.1890488143606
 20
140.4963572101533
 30
0.0
 10
162.252732792829
 20
140.4963572101533
 30
0.0
 10
162.3013359872394
 20
140.4963572101533
 30
0.0
 10
162.434019509665
 20
140.4963572101533
 30
0.0
 10
162.5191216139757
 20
140.4963572101533
 30
0.0
 10
162.7255638488857
 20
140.4963572101533
 30
0.0
 10
162.8496447905088
 20
140.4963572101533
 30
0.0
 10
162.9733344938947
 20
140.4963572101533
 30
0.0
  0
LINE
  5
C9
330
1F
100
AcDbEntity
  8
0
  6
Continuous
 62
     7
370
    15
100
AcDbLine
 10
165.1933344939
 20
64.5066817521
 30
0.0
 11
162.9733344939
 21
64.5066817521
 31
0.0
  0
LINE
  5
CA
330
1F
100
AcDbEntity
  8
0
  6
Continuous
 62
     7
370
    15
100
AcDbLine
 10
162.9733344939
 20
140.4963572102
 30
0.0
 11
165.1933344939
 21
140.4963572102
 31
0.0
  0
LINE
  5
CB
330
1F
100
AcDbEntity
  8
0
  6
Continuous
 62
     7
370
    15
100
AcDbLine
 10
109.3833344939
 20
72.7323421801
 30
0.0
 11
109.3833344939
 21
75.20984138
 31
0.0
  0
SPLINE
  5
CC
330
1F
100
AcDbEntity
  8
0
  6
Continuous
 62
     7
370
    15
100
AcDbSpline
210
0.0
220
0.0
230
1.0
 70
     8
 71
     3
 72
    12
 73
     8
 74
     0
 42
0.000000001
 43
0.00000001
 40
0.0
 40
0.0
 40
0.0
 40
0.0
 40
0.2499999999999997
 40
0.2499999999999997
 40
0.4999999999999993
 40
0.4999999999999993
 40
1.0
 40
1.0
 40
1.0
 40
1.0
 10
108.6345237374683
 20
76.82562738147122
 30
0.0
 10
108.6924197332949
 20
76.67448773363628
 30
0.0
 10
108.7761713577862
 20
76.52854579766077
 30
0.0
 10
108.9482518802593
 20
76.2442113486037
 30
0.0
 10
109.0369988638893
 20
76.10568028639739
 30
0.0
 10
109.2703002147999
 20
75.70141300466709
 30
0.0
 10
109.3833344938947
 20
75.44722339829354
 30
0.0
 10
109.3833344938947
 20
75.20984138000314
 30
0.0
  0
SPLINE
  5
CD
330
1F
100
AcDbEntity
  8
0
  6
Continuous
 62
     7
370
    15
100
AcDbSpline
210
0.0
220
0.0
230
1.0
 70
     8
 71
     3
 72
    20
 73
    16
 74
     0
 42
0.000000001
 43
0.00000001
 40
0.0
 40
0.0
 40
0.0
 40
0.0
 40
0.0624999999999996
 40
0.0624999999999996
 40
0.1249999999999991
 40
0.1249999999999991
 40
0.2499999999999975
 40
0.2499999999999975
 40
0.3749999999999959
 40
0.3749999999999959
 40
0.4999999999999943
 40
0.4999999999999943
 40
0.7499999999999971
 40
0.7499999999999971
 40
1.0
 40
1.0
 40
1.0
 40
1.0
 10
107.4833344938947
 20
77.90452382191762
 30
0.0
 10
107.5367297092674
 20
77.9094700751601
 30
0.0
 10
107.5925987328138
 20
77.90807377247769
 30
0.0
 10
107.6997385891584
 20
77.89259814971844
 30
0.0
 10
107.75086911326
 20
77.87870173297969
 30
0.0
 10
107.8881879630903
 20
77.82787405731989
 30
0.0
 10
107.9620022487156
 20
77.78236519519318
 30
0.0
 10
108.0884728750897
 20
77.68773087020128
 30
0.0
 10
108.1416646526476
 20
77.63757450705575
 30
0.0
 10
108.2356083650581
 20
77.53711337073703
 30
0.0
 10
108.2766677810317
 20
77.48626434155334
 30
0.0
 10
108.3887575476368
 20
77.33305226979736
 30
0.0
 10
108.4489907886696
 20
77.22978928935515
 30
0.0
 10
108.5529044902027
 20
77.02593273561756
 30
0.0
 10
108.5964169218678
 20
76.92510663919438
 30
0.0
 10
108.6345237374683
 20
76.82562738147125
 30
0.0
  0
SPLINE
  5
CE
330
1F
100
AcDbEntity
  8
0
  6
Continuous
 62
     7
370
    15
100
AcDbSpline
210
0.0
220
0.0
230
1.0
 70
     8
 71
     3
 72
    10
 73
     6
 74
     0
 42
0.000000001
 43
0.00000001
 40
0.0
 40
0.0
 40
0.0
 40
0.0
 40
0.5
 40
0.5
 40
1.0
 40
1.0
 40
1.0
 40
1.0
 10
100.9446941058139
 20
77.19065722071808
 30
0.0
 10
102.0108628740263
 20
77.33264321196414
 30
0.0
 10
103.0932994937422
 20
77.45877238271694
 30
0.0
 10
105.2760478171297
 20
77.6936072803507
 30
0.0
 10
106.3766720203405
 20
77.80200840344953
 30
0.0
 10
107.4833344938945
 20
77.90452382191778
 30
0.0
  0
SPLINE
  5
CF
330
1F
100
AcDbEntity
  8
0
  6
Continuous
 62
     7
370
    15
100
AcDbSpline
210
0.0
220
0.0
230
1.0
 70
     8
 71
     3
 72
    12
 73
     8
 74
     0
 42
0.000000001
 43
0.00000001
 40
0.0
 40
0.0
 40
0.0
 40
0.0
 40
0.4999999999999978
 40
0.4999999999999978
 40
0.7499999999999989
 40
0.7499999999999989
 40
1.0
 40
1.0
 40
1.0
 40
1.0
 10
96.18325960986316
 20
76.93693114935229
 30
0.0
 10
96.98833663749232
 20
76.95343495555915
 30
0.0
 10
97.790726213491
 20
76.97591861737729
 30
0.0
 10
98.98532450398648
 20
77.02978886081632
 30
0.0
 10
99.38202143724992
 20
77.0511139396092
 30
0.0
 10
100.1696830865484
 20
77.10665113710131
 30
0.0
 10
100.5612135175105
 20
77.13958756544649
 30
0.0
 10
100.944694105814
 20
77.19065722071802
 30
0.0
  0
SPLINE
  5
D0
330
1F
100
AcDbEntity
  8
0
  6
Continuous
 62
     7
370
    15
100
AcDbSpline
210
0.0
220
0.0
230
1.0
 70
     8
 71
     3
 72
    12
 73
     8
 74
     0
 42
0.000000001
 43
0.00000001
 40
0.0
 40
0.0
 40
0.0
 40
0.0
 40
0.2500000000000001
 40
0.2500000000000001
 40
0.5000000000000001
 40
0.5000000000000001
 40
1.0
 40
1.0
 40
1.0
 40
1.0
 10
100.9446941058139
 20
141.1020571995885
 30
0.0
 10
100.5612135175106
 20
141.1531268548601
 30
0.0
 10
100.1696830865485
 20
141.1860632832053
 30
0.0
 10
99.38202143725022
 20
141.2416004806973
 30
0.0
 10
98.98532450398686
 20
141.2629255594902
 30
0.0
 10
97.79072621349164
 20
141.3167958029293
 30
0.0
 10
96.98833663749315
 20
141.3392794647474
 30
0.0
 10
96.18325960986417
 20
141.3557832709543
 30
0.0
  0
SPLINE
  5
D1
330
1F
100
AcDbEntity
  8
0
  6
Continuous
 62
     7
370
    15
100
AcDbSpline
210
0.0
220
0.0
230
1.0
 70
     8
 71
     3
 72
     8
 73
     4
 74
     0
 42
0.000000001
 43
0.00000001
 40
0.0
 40
0.0
 40
0.0
 40
0.0
 40
1.0
 40
1.0
 40
1.0
 40
1.0
 10
102.4833344938947
 20
140.9087296163888
 30
0.0
 10
101.9670476321331
 20
140.9701374351545
 30
0.0
 10
101.4538048085191
 20
141.0342568757254
 30
0.0
 10
100.9446941058139
 20
141.1020571995885
 30
0.0
  0
SPLINE
  5
D2
330
1F
100
AcDbEntity
  8
0
  6
Continuous
 62
     7
370
    15
100
AcDbSpline
210
0.0
220
0.0
230
1.0
 70
     8
 71
     3
 72
    14
 73
    10
 74
     0
 42
0.000000001
 43
0.00000001
 40
0.0
 40
0.0
 40
0.0
 40
0.0
 40
0.5000000000000101
 40
0.5000000000000101
 40
0.7500000000000071
 40
0.7500000000000071
 40
0.8750000000000036
 40
0.8750000000000036
 40
1.0
 40
1.0
 40
1.0
 40
1.0
 10
103.1201623767769
 20
141.2053314560079
 30
0.0
 10
103.0596282548797
 20
141.1362387301071
 30
0.0
 10
102.9892324350294
 20
141.067163077679
 30
0.0
 10
102.8404470672923
 20
140.9756202975625
 30
0.0
 10
102.7816263550377
 20
140.9464647182974
 30
0.0
 10
102.6769658189952
 20
140.917150430237
 30
0.0
 10
102.6386507177214
 20
140.9098491923076
 30
0.0
 10
102.5606550881719
 20
140.9033983065434
 30
0.0
 10
102.5208282710893
 20
140.9042700586403
 30
0.0
 10
102.4833344938947
 20
140.9087296163888
 30
0.0
  0
SPLINE
  5
D3
330
1F
100
AcDbEntity
  8
0
  6
Continuous
 62
     7
370
    15
100
AcDbSpline
210
0.0
220
0.0
230
1.0
 70
     8
 71
     3
 72
    18
 73
    14
 74
     0
 42
0.000000001
 43
0.00000001
 40
0.0
 40
0.0
 40
0.0
 40
0.0
 40
0.1250000000000002
 40
0.1250000000000002
 40
0.2500000000000004
 40
0.2500000000000004
 40
0.5000000000000016
 40
0.5000000000000016
 40
0.7500000000000027
 40
0.7500000000000027
 40
0.8750000000000013
 40
0.8750000000000013
 40
1.0
 40
1.0
 40
1.0
 40
1.0
 10
104.3833344938948
 20
142.9674057595504
 30
0.0
 10
104.3833344938948
 20
142.9024340222206
 30
0.0
 10
104.3728747080367
 20
142.8350504485524
 30
0.0
 10
104.3342499605342
 20
142.6982576962755
 30
0.0
 10
104.3062410737189
 20
142.6289772805424
 30
0.0
 10
104.2005760090446
 20
142.4185247104387
 30
0.0
 10
104.1013364659965
 20
142.2747531339635
 30
0.0
 10
103.862782485219
 20
141.9803286985239
 30
0.0
 10
103.7229704458648
 20
141.8297043513456
 30
0.0
 10
103.4994150400044
 20
141.5999226487804
 30
0.0
 10
103.4225041803693
 20
141.5225883803162
 30
0.0
 10
103.2686676263367
 20
141.3658663870459
 30
0.0
 10
103.1913126162057
 20
141.2865412569744
 30
0.0
 10
103.1201623767724
 20
141.2053314560087
 30
0.0
  0
LINE
  5
D4
330
1F
100
AcDbEntity
  8
0
  6
Continuous
 62
     7
370
    15
100
AcDbLine
 10
104.3833344939
 20
142.9674057596
 30
0.0
 11
104.3833344939
 21
145.3098712382
 31
0.0
  0
LINE
  5
D5
330
1F
100
AcDbEntity
  8
0
  6
Continuous
 62
     7
370
    15
100
AcDbLine
 10
141.1274619683
 20
71.1419550321
 30
0.0
 11
141.1274619683
 21
147.1507593882
 31
0.0
  0
SPLINE
  5
D6
330
1F
100
AcDbEntity
  8
0
  6
Continuous
 62
     7
370
    15
100
AcDbSpline
210
0.0
220
0.0
230
1.0
 70
     8
 71
     3
 72
    24
 73
    20
 74
     0
 42
0.000000001
 43
0.00000001
 40
0.0
 40
0.0
 40
0.0
 40
0.0
 40
0.0007000344438065
 40
0.0633328728078429
 40
0.1266715900687826
 40
0.1897700366805079
 40
0.2520389292624597
 40
0.3140275311116325
 40
0.376539877091475
 40
0.4388982783214274
 40
0.5004660241196781
 40
0.5619432424751003
 40
0.6246931143557483
 40
0.6873438335836848
 40
0.7495987815288788
 40
0.8118902583375622
 40
0.8749332928374766
 40
0.9381951796348352
 40
1.0
 40
1.0
 40
1.0
 40
1.0
 10
122.5595627543468
 20
72.07246387816181
 30
0.0
 10
122.5590921862548
 20
72.07240308371239
 30
0.0
 10
122.5165193823204
 20
72.0669029441595
 30
0.0
 10
122.6655810718954
 20
72.0867173230131
 30
0.0
 10
123.0300332748984
 20
72.13190876852289
 30
0.0
 10
123.6487449725803
 20
72.20412446092162
 30
0.0
 10
124.4735505027953
 20
72.28188834848642
 30
0.0
 10
125.4809939962883
 20
72.35063868148129
 30
0.0
 10
126.6376546936994
 20
72.39230391854525
 30
0.0
 10
127.8866649250029
 20
72.39748284885808
 30
0.0
 10
129.1814400778551
 20
72.35433970614002
 30
0.0
 10
130.4749179126607
 20
72.26319912889417
 30
0.0
 10
131.716448103948
 20
72.13004026548597
 30
0.0
 10
132.8649327382286
 20
71.97149775205733
 30
0.0
 10
133.8618840400846
 20
71.80337541818584
 30
0.0
 10
134.6807958463857
 20
71.64486787633456
 30
0.0
 10
135.2801764959255
 20
71.5160854474914
 30
0.0
 10
135.6751126551725
 20
71.42817410659683
 30
0.0
 10
135.7217278030409
 20
71.41727245973992
 30
0.0
 10
135.7447638364159
 20
71.41188514011695
 30
0.0
  0
SPLINE
  5
D7
330
1F
100
AcDbEntity
  8
0
  6
Continuous
 62
     7
370
    15
100
AcDbSpline
210
0.0
220
0.0
230
1.0
 70
     8
 71
     3
 72
    24
 73
    20
 74
     0
 42
0.000000001
 43
0.00000001
 40
0.0
 40
0.0
 40
0.0
 40
0.0
 40
0.0616973187453739
 40
0.125240200792288
 40
0.1885321607654868
 40
0.250938396839374
 40
0.3130673509798522
 40
0.3754974835895784
 40
0.4379745471193576
 40
0.499440408036176
 40
0.5610377799499184
 40
0.6234961298382572
 40
0.6860886556985577
 40
0.7481833079418837
 40
0.8104444755154602
 40
0.8736219955557447
 40
0.936873866571246
 40
0.9995311283030167
 40
0.9999999999999999
 40
0.9999999999999999
 40
0.9999999999999999
 40
0.9999999999999999
 10
135.7446552025902
 20
146.8807821213009
 30
0.0
 10
135.7212244986678
 20
146.8754049848885
 30
0.0
 10
135.6736622038449
 20
146.8644898647883
 30
0.0
 10
135.2756134613218
 20
146.7762704275558
 30
0.0
 10
134.6741424392062
 20
146.6469125649185
 30
0.0
 10
133.854456461605
 20
146.487965317948
 30
0.0
 10
132.8588866746874
 20
146.3198605288614
 30
0.0
 10
131.7140771119494
 20
146.1617362898078
 30
0.0
 10
130.4752081866231
 20
146.0292080192484
 30
0.0
 10
129.183394038253
 20
145.9384810980101
 30
0.0
 10
127.8878916328692
 20
145.8953846478875
 30
0.0
 10
126.6375664658295
 20
145.9006129964835
 30
0.0
 10
125.4791253111802
 20
145.9422947512803
 30
0.0
 10
124.4705232696398
 20
146.0110209623637
 30
0.0
 10
123.6452391549118
 20
146.0888200034763
 30
0.0
 10
123.0279105974087
 20
146.1610342201787
 30
0.0
 10
122.6651260906151
 20
146.2061361682197
 30
0.0
 10
122.5164118930372
 20
146.225860178763
 30
0.0
 10
122.5586289870488
 20
146.2203436517351
 30
0.0
 10
122.5589425560802
 20
146.220302677526
 30
0.0
  0
SPLINE
  5
D8
330
1F
100
AcDbEntity
  8
0
  6
Continuous
 62
     7
370
    15
100
AcDbSpline
210
0.0
220
0.0
230
1.0
 70
     8
 71
     3
 72
    24
 73
    20
 74
     0
 42
0.000000001
 43
0.00000001
 40
0.0
 40
0.0
 40
0.0
 40
0.0
 40
0.249999999999975
 40
0.249999999999975
 40
0.3749999999999629
 40
0.3749999999999629
 40
0.4374999999999568
 40
0.4374999999999568
 40
0.4687499999999565
 40
0.4687499999999565
 40
0.4999999999999561
 40
0.4999999999999561
 40
0.5624999999999615
 40
0.5624999999999615
 40
0.6249999999999667
 40
0.6249999999999667
 40
0.7499999999999779
 40
0.7499999999999779
 40
1.0
 40
1.0
 40
1.0
 40
1.0
 10
94.42597077742671
 20
78.60711578192343
 30
0.0
 10
94.45247888986277
 20
78.68439440347821
 30
0.0
 10
94.48558630674466
 20
78.75509628833873
 30
0.0
 10
94.57528291426695
 20
78.81932877420171
 30
0.0
 10
94.61074747665009
 20
78.83481510737478
 30
0.0
 10
94.6956658803091
 20
78.82100389520627
 30
0.0
 10
94.7295906551221
 20
78.80992266390409
 30
0.0
 10
94.79631983530857
 20
78.76890816622382
 30
0.0
 10
94.82144132982037
 20
78.75071749154078
 30
0.0
 10
94.87391027974968
 20
78.70617986713408
 30
0.0
 10
94.9014381126107
 20
78.67964634453034
 30
0.0
 10
94.98008135171382
 20
78.59606700590591
 30
0.0
 10
95.02546996681242
 20
78.53816435891336
 30
0.0
 10
95.10462230130489
 20
78.42929081533829
 30
0.0
 10
95.13949054018734
 20
78.37653944969324
 30
0.0
 10
95.23411990504563
 20
78.22556394714672
 30
0.0
 10
95.28532765753559
 20
78.13275080683339
 30
0.0
 10
95.42447299009946
 20
77.86386363617451
 30
0.0
 10
95.49614810176662
 20
77.69941955562847
 30
0.0
 10
95.557959746049
 20
77.54339410129796
 30
0.0
  0
SPLINE
  5
D9
330
1F
100
AcDbEntity
  8
0
  6
Continuous
 62
     7
370
    15
100
AcDbSpline
210
0.0
220
0.0
230
1.0
 70
     8
 71
     3
 72
    10
 73
     6
 74
     0
 42
0.000000001
 43
0.00000001
 40
0.0
 40
0.0
 40
0.0
 40
0.0
 40
0.2974943046265136
 40
0.8002369808644876
 40
1.0
 40
1.0
 40
1.0
 40
1.0
 10
94.30923737399613
 20
78.53249531621412
 30
0.0
 10
94.31751549633589
 20
78.52309771942492
 30
0.0
 10
94.33978301381558
 20
78.4978189010912
 30
0.0
 10
94.39234603031704
 20
78.52774586906328
 30
0.0
 10
94.41852623137045
 20
78.58954321937469
 30
0.0
 10
94.42597077742671
 20
78.60711578192343
 30
0.0
  0
LINE
  5
DA
330
1F
100
AcDbEntity
  8
0
  6
Continuous
 62
     7
370
    15
100
AcDbLine
 10
94.2833344939
 20
78.5922049132
 30
0.0
 11
94.2833344939
 21
139.7005095071
 31
0.0
  0
SPLINE
  5
DB
330
1F
100
AcDbEntity
  8
0
  6
Continuous
 62
     7
370
    15
100
AcDbSpline
210
0.0
220
0.0
230
1.0
 70
     8
 71
     3
 72
    10
 73
     6
 74
     0
 42
0.000000001
 43
0.00000001
 40
0.0
 40
0.0
 40
0.0
 40
0.0
 40
0.1850530422122211
 40
0.6937894178568255
 40
1.0
 40
1.0
 40
1.0
 40
1.0
 10
94.4259707774267
 20
139.6855986383831
 30
0.0
 10
94.41911740421023
 20
139.7020185151514
 30
0.0
 10
94.39342316131979
 20
139.763578901342
 30
0.0
 10
94.3404666327699
 20
139.79559975854
 30
0.0
 10
94.31817656318711
 20
139.7691153081085
 30
0.0
 10
94.30980122646399
 20
139.75916396231
 30
0.0
  0
SPLINE
  5
DC
330
1F
100
AcDbEntity
  8
0
  6
Continuous
 62
     7
370
    15
100
AcDbSpline
210
0.0
220
0.0
230
1.0
 70
     8
 71
     3
 72
    24
 73
    20
 74
     0
 42
0.000000001
 43
0.00000001
 40
0.0
 40
0.0
 40
0.0
 40
0.0
 40
0.2500000000000068
 40
0.2500000000000068
 40
0.3750000000000104
 40
0.3750000000000104
 40
0.4375000000000113
 40
0.4375000000000113
 40
0.5000000000000122
 40
0.5000000000000122
 40
0.5312500000000128
 40
0.5312500000000128
 40
0.5625000000000131
 40
0.5625000000000131
 40
0.6250000000000108
 40
0.6250000000000108
 40
0.7500000000000062
 40
0.7500000000000062
 40
1.0
 40
1.0
 40
1.0
 40
1.0
 10
95.557959746049
 20
140.7493203190086
 30
0.0
 10
95.49599306965139
 20
140.5929035313542
 30
0.0
 10
95.42426601273348
 20
140.4282992010021
 30
0.0
 10
95.28431964756814
 20
140.1580924300717
 30
0.0
 10
95.23280905736559
 20
140.0648287332281
 30
0.0
 10
95.13745460159228
 20
139.9130468786528
 30
0.0
 10
95.10249017294288
 20
139.8602894679625
 30
0.0
 10
95.02270666076964
 20
139.7509633044705
 30
0.0
 10
94.97622251610555
 20
139.692108455342
 30
0.0
 10
94.89812776555256
 20
139.6097916921136
 30
0.0
 10
94.87049966141223
 20
139.5834057393564
 30
0.0
 10
94.81828585521515
 20
139.5395835210158
 30
0.0
 10
94.79331138883845
 20
139.5217417430496
 30
0.0
 10
94.72676353028471
 20
139.4815308036991
 30
0.0
 10
94.69325472791687
 20
139.471044615393
 30
0.0
 10
94.60968422295889
 20
139.4583038299939
 30
0.0
 10
94.57418206295932
 20
139.4739251739708
 30
0.0
 10
94.48529339921136
 20
139.5383360993354
 30
0.0
 10
94.45238331627662
 20
139.6085986407783
 30
0.0
 10
94.4259707774267
 20
139.6855986383831
 30
0.0
  0
SPLINE
  5
DD
330
1F
100
AcDbEntity
  8
0
  6
Continuous
 62
     7
370
    15
100
AcDbSpline
210
0.0
220
0.0
230
1.0
 70
     8
 71
     3
 72
    10
 73
     6
 74
     0
 42
0.000000001
 43
0.00000001
 40
0.0
 40
0.0
 40
0.0
 40
0.0
 40
0.5
 40
0.5
 40
1.0
 40
1.0
 40
1.0
 40
1.0
 10
95.93333449389411
 20
141.3663292512616
 30
0.0
 10
95.85754547980402
 20
141.2714722263008
 30
0.0
 10
95.78588141189722
 20
141.1714273950055
 30
0.0
 10
95.65746517455061
 20
140.964163076228
 30
0.0
 10
95.60056905801319
 20
140.8568750902027
 30
0.0
 10
95.557959746049
 20
140.7493203190086
 30
0.0
  0
SPLINE
  5
DE
330
1F
100
AcDbEntity
  8
0
  6
Continuous
 62
     7
370
    15
100
AcDbSpline
210
0.0
220
0.0
230
1.0
 70
     8
 71
     3
 72
     8
 73
     4
 74
     0
 42
0.000000001
 43
0.00000001
 40
0.0
 40
0.0
 40
0.0
 40
0.0
 40
1.0
 40
1.0
 40
1.0
 40
1.0
 10
96.18325960986417
 20
141.3557832709543
 30
0.0
 10
96.09458205849592
 20
141.3576011307024
 30
0.0
 10
96.01202539964854
 20
141.3616257358213
 30
0.0
 10
95.93333449389469
 20
141.3663292512609
 30
0.0
  0
SPLINE
  5
DF
330
1F
100
AcDbEntity
  8
0
  6
Continuous
 62
     7
370
    15
100
AcDbSpline
210
0.0
220
0.0
230
1.0
 70
     8
 71
     3
 72
     8
 73
     4
 74
     0
 42
0.000000001
 43
0.00000001
 40
0.0
 40
0.0
 40
0.0
 40
0.0
 40
1.0
 40
1.0
 40
1.0
 40
1.0
 10
95.93333449388858
 20
76.9263851690453
 30
0.0
 10
96.01202539964397
 20
76.931088684485
 30
0.0
 10
96.094582058493
 20
76.93511328960409
 30
0.0
 10
96.18325960986317
 20
76.93693114935229
 30
0.0
  0
SPLINE
  5
E0
330
1F
100
AcDbEntity
  8
0
  6
Continuous
 62
     7
370
    15
100
AcDbSpline
210
0.0
220
0.0
230
1.0
 70
     8
 71
     3
 72
    10
 73
     6
 74
     0
 42
0.000000001
 43
0.00000001
 40
0.0
 40
0.0
 40
0.0
 40
0.0
 40
0.5
 40
0.5
 40
1.0
 40
1.0
 40
1.0
 40
1.0
 10
95.557959746049
 20
77.54339410129796
 30
0.0
 10
95.6005690580138
 20
77.43583933010225
 30
0.0
 10
95.65746517455226
 20
77.32855134407546
 30
0.0
 10
95.7858814119012
 20
77.12128702529516
 30
0.0
 10
95.85754547980923
 20
77.02124219399862
 30
0.0
 10
95.93333449390066
 20
76.92638516903678
 30
0.0
  0
SPLINE
  5
E1
330
1F
100
AcDbEntity
  8
0
  6
Continuous
 62
     7
370
    15
100
AcDbSpline
210
0.0
220
0.0
230
1.0
 70
     8
 71
     3
 72
    12
 73
     8
 74
     0
 42
0.000000001
 43
0.00000001
 40
0.0
 40
0.0
 40
0.0
 40
0.0
 40
0.4999999999999953
 40
0.4999999999999953
 40
0.7499999999999977
 40
0.7499999999999977
 40
1.0
 40
1.0
 40
1.0
 40
1.0
 10
173.0333344938947
 20
157.2683116592403
 30
0.0
 10
173.0333344938947
 20
157.5339150567818
 30
0.0
 10
172.9284895329631
 20
157.7962803606957
 30
0.0
 10
172.6521584211606
 20
158.0814229141327
 30
0.0
 10
172.5416567044731
 20
158.1578611882953
 30
0.0
 10
172.2976038294379
 20
158.2621732732092
 30
0.0
 10
172.1660289696308
 20
158.2892356362284
 30
0.0
 10
172.0333344938947
 20
158.2892356362284
 30
0.0
  0
SPLINE
  5
E2
330
1F
100
AcDbEntity
  8
0
  6
Continuous
 62
     7
370
    15
100
AcDbSpline
210
0.0
220
0.0
230
1.0
 70
     8
 71
     3
 72
    14
 73
    10
 74
     0
 42
0.000000001
 43
0.00000001
 40
0.0
 40
0.0
 40
0.0
 40
0.0
 40
0.125
 40
0.125
 40
0.25
 40
0.25
 40
0.5
 40
0.5
 40
1.0
 40
1.0
 40
1.0
 40
1.0
 10
172.0333344938947
 20
148.2896835889883
 30
0.0
 10
172.1090211988361
 20
148.2896835889883
 30
0.0
 10
172.1850686260611
 20
148.2784088864762
 30
0.0
 10
172.3295946766126
 20
148.2358371570625
 30
0.0
 10
172.3978218866413
 20
148.205033569871
 30
0.0
 10
172.591614184412
 20
148.0869423356585
 30
0.0
 10
172.7001748767135
 20
147.9768213151592
 30
0.0
 10
172.9537151548138
 20
147.6053341169255
 30
0.0
 10
173.0333344938946
 20
147.2995154028023
 30
0.0
 10
173.0333344938947
 20
147.0000228186518
 30
0.0
  0
LINE
  5
E3
330
1F
100
AcDbEntity
  8
0
  6
Continuous
 62
     7
370
    15
100
AcDbLine
 10
173.0333344939
 20
147.0000228187
 30
0.0
 11
173.0333344939
 21
157.2683116592
 31
0.0
  0
SPLINE
  5
E4
330
1F
100
AcDbEntity
  8
0
  6
Continuous
 62
     7
370
    15
100
AcDbSpline
210
0.0
220
0.0
230
1.0
 70
     8
 71
     3
 72
     8
 73
     4
 74
     0
 42
0.000000001
 43
0.00000001
 40
0.0
 40
0.0
 40
0.0
 40
0.0
 40
1.0
 40
1.0
 40
1.0
 40
1.0
 10
162.1733344938947
 20
156.0504144109048
 30
0.0
 10
161.7518429928382
 20
156.7968667225566
 30
0.0
 10
161.3300201025772
 20
157.5431326735319
 30
0.0
 10
160.9079080133517
 20
158.2892356362284
 30
0.0
  0
LINE
  5
E5
330
1F
100
AcDbEntity
  8
0
  6
Continuous
 62
     7
370
    15
100
AcDbLine
 10
162.1733344939
 20
145.4391675435
 30
0.0
 11
162.1733344939
 21
156.0504144109
 31
0.0
  0
SPLINE
  5
E6
330
1F
100
AcDbEntity
  8
0
  6
Continuous
 62
     7
370
    15
100
AcDbSpline
210
0.0
220
0.0
230
1.0
 70
     8
 71
     3
 72
     8
 73
     4
 74
     0
 42
0.000000001
 43
0.00000001
 40
0.0
 40
0.0
 40
0.0
 40
0.0
 40
1.0
 40
1.0
 40
1.0
 40
1.0
 10
160.9079080133517
 20
148.2896835889883
 30
0.0
 10
161.3350616467395
 20
147.3417935912522
 30
0.0
 10
161.7573160034961
 20
146.3913401674157
 30
0.0
 10
162.1733344938947
 20
145.4391675434875
 30
0.0
  0
LINE
  5
E7
330
1F
100
AcDbEntity
  8
0
  6
Continuous
 62
     7
370
    15
100
AcDbLine
 10
162.1733344939
 20
145.4391675435
 30
0.0
 11
162.1733344939
 21
143.8605924027
 31
0.0
  0
SPLINE
  5
E8
330
1F
100
AcDbEntity
  8
0
  6
Continuous
 62
     7
370
    15
100
AcDbSpline
210
0.0
220
0.0
230
1.0
 70
     8
 71
     3
 72
    14
 73
    10
 74
     0
 42
0.000000001
 43
0.00000001
 40
0.0
 40
0.0
 40
0.0
 40
0.0
 40
0.25
 40
0.25
 40
0.5
 40
0.5
 40
0.75
 40
0.75
 40
1.0
 40
1.0
 40
1.0
 40
1.0
 10
162.1733344938947
 20
143.8605924026503
 30
0.0
 10
162.1733344938947
 20
143.7367255258611
 30
0.0
 10
162.1891936215223
 20
143.6124658490237
 30
0.0
 10
162.2525552670421
 20
143.3748574866178
 30
0.0
 10
162.3011449750915
 20
143.2580771018653
 30
0.0
 10
162.4334305798664
 20
143.0492745732563
 30
0.0
 10
162.518755371127
 20
142.9547638696637
 30
0.0
 10
162.7256466194331
 20
142.8168070688614
 30
0.0
 10
162.8496145653231
 20
142.7748886232257
 30
0.0
 10
162.9733344938947
 20
142.7748886232257
 30
0.0
  0
LINE
  5
E9
330
1F
100
AcDbEntity
  8
0
  6
Continuous
 62
     7
370
    15
100
AcDbLine
 10
162.9733344939
 20
142.7748886232
 30
0.0
 11
165.1933344939
 21
142.7748886232
 31
0.0
  0
SPLINE
  5
EA
330
1F
100
AcDbEntity
  8
0
  6
Continuous
 62
     7
370
    15
100
AcDbSpline
210
0.0
220
0.0
230
1.0
 70
     8
 71
     3
 72
    12
 73
     8
 74
     0
 42
0.000000001
 43
0.00000001
 40
0.0
 40
0.0
 40
0.0
 40
0.0
 40
0.25
 40
0.25
 40
0.5
 40
0.5
 40
1.0
 40
1.0
 40
1.0
 40
1.0
 10
165.1933344938947
 20
142.7748886232258
 30
0.0
 10
165.3170354438747
 20
142.7748886232258
 30
0.0
 10
165.4411320561449
 20
142.8168822349583
 30
0.0
 10
165.6477872192319
 20
142.9546775616028
 30
0.0
 10
165.7328279859587
 20
143.0486511600676
 30
0.0
 10
165.9323065544323
 20
143.3634393662885
 30
0.0
 10
165.9933344938947
 20
143.6136783585161
 30
0.0
 10
165.9933344938947
 20
143.8605924026503
 30
0.0
  0
LINE
  5
EB
330
1F
100
AcDbEntity
  8
0
  6
Continuous
 62
     7
370
    15
100
AcDbLine
 10
165.9933344939
 20
143.8605924027
 30
0.0
 11
165.9933344939
 21
145.4391675435
 31
0.0
  0
SPLINE
  5
EC
330
1F
100
AcDbEntity
  8
0
  6
Continuous
 62
     7
370
    15
100
AcDbSpline
210
0.0
220
0.0
230
1.0
 70
     8
 71
     3
 72
     8
 73
     4
 74
     0
 42
0.000000001
 43
0.00000001
 40
0.0
 40
0.0
 40
0.0
 40
0.0
 40
1.0
 40
1.0
 40
1.0
 40
1.0
 10
165.9933344938947
 20
145.4391675434875
 30
0.0
 10
166.4095597254081
 20
146.3918133512629
 30
0.0
 10
166.8316941347267
 20
147.3419861937535
 30
0.0
 10
167.2587609744376
 20
148.2896835889883
 30
0.0
  0
LINE
  5
ED
330
1F
100
AcDbEntity
  8
0
  6
Continuous
 62
     7
370
    15
100
AcDbLine
 10
167.2587609744
 20
148.289683589
 30
0.0
 11
172.0333344939
 21
148.289683589
 31
0.0
  0
LINE
  5
EE
330
1F
100
AcDbEntity
  8
0
  6
Continuous
 62
     7
370
    15
100
AcDbLine
 10
173.0333344939
 20
147.0000228187
 30
0.0
 11
173.0333344939
 21
140.4963572102
 31
0.0
  0
LINE
  5
EF
330
1F
100
AcDbEntity
  8
0
  6
Continuous
 62
     7
370
    15
100
AcDbLine
 10
165.1933344939
 20
154.0206329703
 30
0.0
 11
162.9733344939
 21
154.0206329703
 31
0.0
  0
SPLINE
  5
F0
330
1F
100
AcDbEntity
  8
0
  6
Continuous
 62
     7
370
    15
100
AcDbSpline
210
0.0
220
0.0
230
1.0
 70
     8
 71
     3
 72
     8
 73
     4
 74
     0
 42
0.000000001
 43
0.00000001
 40
0.0
 40
0.0
 40
0.0
 40
0.0
 40
1.0
 40
1.0
 40
1.0
 40
1.0
 10
167.2587609744376
 20
158.2892356362284
 30
0.0
 10
166.8366488852121
 20
157.5431326735319
 30
0.0
 10
166.4148259949511
 20
156.7968667225566
 30
0.0
 10
165.9933344938947
 20
156.0504144109048
 30
0.0
  0
LINE
  5
F1
330
1F
100
AcDbEntity
  8
0
  6
Continuous
 62
     7
370
    15
100
AcDbLine
 10
167.2587609744
 20
148.289683589
 30
0.0
 11
167.2587609744
 21
158.2892356362
 31
0.0
  0
LINE
  5
F2
330
1F
100
AcDbEntity
  8
0
  6
Continuous
 62
     7
370
    15
100
AcDbLine
 10
165.9933344939
 20
145.4391675435
 30
0.0
 11
165.9933344939
 21
156.0504144109
 31
0.0
  0
LINE
  5
F3
330
1F
100
AcDbEntity
  8
0
  6
Continuous
 62
     7
370
    15
100
AcDbLine
 10
172.0333344939
 20
158.2892356362
 30
0.0
 11
167.2587609744
 21
158.2892356362
 31
0.0
  0
SPLINE
  5
F4
330
1F
100
AcDbEntity
  8
0
  6
Continuous
 62
     7
370
    15
100
AcDbSpline
210
0.0
220
0.0
230
1.0
 70
     8
 71
     3
 72
    14
 73
    10
 74
     0
 42
0.000000001
 43
0.00000001
 40
0.0
 40
0.0
 40
0.0
 40
0.0
 40
0.25
 40
0.25
 40
0.5
 40
0.5
 40
0.75
 40
0.75
 40
1.0
 40
1.0
 40
1.0
 40
1.0
 10
165.9933344938947
 20
154.8399084510013
 30
0.0
 10
165.9933344938947
 20
154.733551757249
 30
0.0
 10
165.9729469377534
 20
154.6277112694888
 30
0.0
 10
165.8943125922919
 20
154.4311463559524
 30
0.0
 10
165.8355812326533
 20
154.3399756136652
 30
0.0
 10
165.6889723270507
 20
154.1880645246337
 30
0.0
 10
165.5995670070241
 20
154.1259956878141
 30
0.0
 10
165.4056762744239
 20
154.0427276400553
 30
0.0
 10
165.299171284534
 20
154.0206329703257
 30
0.0
 10
165.1933344938947
 20
154.0206329703257
 30
0.0
  0
SPLINE
  5
F5
330
1F
100
AcDbEntity
  8
0
  6
Continuous
 62
     7
370
    15
100
AcDbSpline
210
0.0
220
0.0
230
1.0
 70
     8
 71
     3
 72
    10
 73
     6
 74
     0
 42
0.000000001
 43
0.00000001
 40
0.0
 40
0.0
 40
0.0
 40
0.0
 40
0.5
 40
0.5
 40
1.0
 40
1.0
 40
1.0
 40
1.0
 10
162.9733344938947
 20
154.0206329703257
 30
0.0
 10
162.7607981800383
 20
154.0206329703257
 30
0.0
 10
162.5508620083843
 20
154.1120455569559
 30
0.0
 10
162.2571548673731
 20
154.4167904228601
 30
0.0
 10
162.1733344938947
 20
154.6289453927687
 30
0.0
 10
162.1733344938947
 20
154.8399084510013
 30
0.0
  0
SPLINE
  5
F6
330
1F
100
AcDbEntity
  8
0
  6
Continuous
 62
     7
370
    15
100
AcDbSpline
210
0.0
220
0.0
230
1.0
 70
     8
 71
     3
 72
    38
 73
    34
 74
     0
 42
0.000000001
 43
0.00000001
 40
0.0
 40
0.0
 40
0.0
 40
0.0
 40
0.0191116136805204
 40
0.0537954522422725
 40
0.0818333651154153
 40
0.1103998084819073
 40
0.1393286075902104
 40
0.1691450097743836
 40
0.1994638808768204
 40
0.2301197714775315
 40
0.2469421027309238
 40
0.2637642270885121
 40
0.2979657702766909
 40
0.3325557843481807
 40
0.3607737395587942
 40
0.4036720056651891
 40
0.4473066984320985
 40
0.4771764195815142
 40
0.5226381070036005
 40
0.5689613445462613
 40
0.5991523932636569
 40
0.6451304073499893
 40
0.6606738968288082
 40
0.6920526137203784
 40
0.7217469686259614
 40
0.7670406642510473
 40
0.8133818717546837
 40
0.8406707991352994
 40
0.8823934199809431
 40
0.9252397280494403
 40
0.9486568743619185
 40
0.9844227805200632
 40
1.0
 40
1.0
 40
1.0
 40
1.0
 10
202.5272548334974
 20
134.1449552109022
 30
0.0
 10
202.526534991924
 20
134.1447885599116
 30
0.0
 10
202.5245087787724
 20
134.1443194699876
 30
0.0
 10
202.4317999987852
 20
134.1229708231142
 30
0.0
 10
202.2598960619223
 20
134.0841203411533
 30
0.0
 10
202.0334479906061
 20
134.0341474280596
 30
0.0
 10
201.7421097727249
 20
133.9719774731677
 30
0.0
 10
201.3867582358156
 20
133.89940456963
 30
0.0
 10
200.9700990281281
 20
133.8189640749267
 30
0.0
 10
200.5708934987059
 20
133.7470948178652
 30
0.0
 10
200.2172485121564
 20
133.6875347827838
 30
0.0
 10
199.8275490986908
 20
133.6252157707635
 30
0.0
 10
199.3062157883105
 20
133.5487883409135
 30
0.0
 10
198.6777207516285
 20
133.4692274166199
 30
0.0
 10
197.9621593914717
 20
133.3927270412614
 30
0.0
 10
197.1533913426262
 20
133.3249443157352
 30
0.0
 10
196.3059835863611
 20
133.2793559303557
 30
0.0
 10
195.427627993969
 20
133.2552875885807
 30
0.0
 10
194.5229946209772
 20
133.2551729852778
 30
0.0
 10
193.6229393580523
 20
133.2851338426336
 30
0.0
 10
192.7377913318702
 20
133.3385020874554
 30
0.0
 10
192.0934552011127
 20
133.394397749023
 30
0.0
 10
191.4646975392292
 20
133.4612962906492
 30
0.0
 10
190.961863110563
 20
133.5223171731502
 30
0.0
 10
190.2989366310726
 20
133.6147826212336
 30
0.0
 10
189.599150843436
 20
133.7271837809411
 30
0.0
 10
188.9972277736543
 20
133.8373256471441
 30
0.0
 10
188.4931723071268
 20
133.936803807244
 30
0.0
 10
188.0842817193561
 20
134.0226632688945
 30
0.0
 10
187.7962389486461
 20
134.0864621107281
 30
0.0
 10
187.6189775033231
 20
134.1266088747652
 30
0.0
 10
187.5329067526937
 20
134.1464548699402
 30
0.0
 10
187.5440391054232
 20
134.1438889544312
 30
0.0
 10
187.5474165994819
 20
134.1431104699009
 30
0.0
  0
SPLINE
  5
F7
330
1F
100
AcDbEntity
  8
0
  6
Continuous
 62
     7
370
    15
100
AcDbSpline
210
0.0
220
0.0
230
1.0
 70
    11
 71
     3
 72
    96
 73
    92
 74
     0
 42
0.000000001
 43
0.00000001
 40
0.0
 40
0.0
 40
0.0
 40
0.0
 40
0.0312500000000007
 40
0.0312500000000007
 40
0.0468750000000013
 40
0.0468750000000013
 40
0.0625000000000019
 40
0.0625000000000019
 40
0.0937500000000026
 40
0.0937500000000026
 40
0.109375000000003
 40
0.109375000000003
 40
0.1250000000000033
 40
0.1250000000000033
 40
0.1562500000000036
 40
0.1562500000000036
 40
0.1718750000000035
 40
0.1718750000000035
 40
0.1875000000000034
 40
0.1875000000000034
 40
0.2187500000000027
 40
0.2187500000000027
 40
0.2343750000000024
 40
0.2343750000000024
 40
0.2500000000000021
 40
0.2500000000000021
 40
0.2812500000000014
 40
0.2812500000000014
 40
0.2968750000000009
 40
0.2968750000000009
 40
0.3125000000000004
 40
0.3125000000000004
 40
0.3437499999999996
 40
0.3437499999999996
 40
0.3593749999999993
 40
0.3593749999999993
 40
0.374999999999999
 40
0.374999999999999
 40
0.3906249999999987
 40
0.3906249999999987
 40
0.4062499999999984
 40
0.4062499999999984
 40
0.4374999999999978
 40
0.4374999999999978
 40
0.4531249999999975
 40
0.4531249999999975
 40
0.4687499999999972
 40
0.4687499999999972
 40
0.4999999999999968
 40
0.4999999999999968
 40
0.5312499999999966
 40
0.5312499999999966
 40
0.5468749999999966
 40
0.5468749999999966
 40
0.5624999999999966
 40
0.5624999999999966
 40
0.5937499999999971
 40
0.5937499999999971
 40
0.6249999999999977
 40
0.6249999999999977
 40
0.6562499999999981
 40
0.6562499999999981
 40
0.6874999999999987
 40
0.6874999999999987
 40
0.7187499999999992
 40
0.7187499999999992
 40
0.7499999999999997
 40
0.7499999999999997
 40
0.7656249999999998
 40
0.7656249999999998
 40
0.7812499999999998
 40
0.7812499999999998
 40
0.8125
 40
0.8125
 40
0.828125
 40
0.828125
 40
0.8437500000000001
 40
0.8437500000000001
 40
0.875
 40
0.875
 40
0.8906250000000001
 40
0.8906250000000001
 40
0.9062500000000001
 40
0.9062500000000001
 40
0.9218750000000001
 40
0.9218750000000001
 40
0.9375000000000002
 40
0.9375000000000002
 40
0.9687500000000001
 40
0.9687500000000001
 40
1.0
 40
1.0
 40
1.0
 40
1.0
 10
190.0320731919751
 20
114.0613277558357
 30
0.0
 10
190.3958961822781
 20
114.3491903334212
 30
0.0
 10
190.7810906387289
 20
114.5984557163964
 30
0.0
 10
191.3882885706296
 20
114.9202148991104
 30
0.0
 10
191.5956314886919
 20
115.0186988472097
 30
0.0
 10
192.0202125202819
 20
115.1982573009246
 30
0.0
 10
192.2384468925187
 20
115.2796375783758
 30
0.0
 10
192.9007130881283
 20
115.4947177486258
 30
0.0
 10
193.3495792352058
 20
115.5991891598358
 30
0.0
 10
194.0335108473523
 20
115.7002082108565
 30
0.0
 10
194.2632713201213
 20
115.724536494587
 30
0.0
 10
194.7264213600033
 20
115.7542215797382
 30
0.0
 10
194.9607400601935
 20
115.7595006949466
 30
0.0
 10
195.6570834833945
 20
115.7463093597672
 30
0.0
 10
196.1154661867675
 20
115.6995400281768
 30
0.0
 10
196.7944348894568
 20
115.5732290993931
 30
0.0
 10
197.0193153727391
 20
115.5217085286488
 30
0.0
 10
197.466114890691
 20
115.3992372185737
 30
0.0
 10
197.6886910293015
 20
115.3279550835907
 30
0.0
 10
198.3391922417033
 20
115.0883926765041
 30
0.0
 10
198.7539434453782
 20
114.8938300683853
 30
0.0
 10
199.3475001075109
 20
114.5484816213142
 30
0.0
 10
199.5405597333054
 20
114.4243885852449
 30
0.0
 10
199.9166336784317
 20
114.1572135896372
 30
0.0
 10
200.0999672391581
 20
114.0136851708024
 30
0.0
 10
200.6220379027887
 20
113.5630837585164
 30
0.0
 10
200.937379076075
 20
113.2335109001544
 30
0.0
 10
201.3587166895198
 20
112.6922693273356
 30
0.0
 10
201.4904866220563
 20
112.5039847487577
 30
0.0
 10
201.7352849836365
 20
112.1102867181388
 30
0.0
 10
201.8474953975284
 20
111.9058119590834
 30
0.0
 10
202.1455653709287
 20
111.2828574773479
 30
0.0
 10
202.2965330447271
 20
110.8499798867456
 30
0.0
 10
202.4462313432696
 20
110.1721781846785
 30
0.0
 10
202.4833265893286
 20
109.9396017626084
 30
0.0
 10
202.5285930533181
 20
109.4761559954516
 30
0.0
 10
202.5371093603971
 20
109.2449104408546
 30
0.0
 10
202.5265288553069
 20
108.7833534324683
 30
0.0
 10
202.5074311916081
 20
108.5530420071605
 30
0.0
 10
202.4413436273463
 20
108.0933617301329
 30
0.0
 10
202.3938788433249
 20
107.8627043240003
 30
0.0
 10
202.2132201700603
 20
107.1893372106673
 30
0.0
 10
202.0421950824124
 20
106.7606425666377
 30
0.0
 10
201.7142739509269
 20
106.1458622611218
 30
0.0
 10
201.5931393883058
 20
105.9463525708296
 30
0.0
 10
201.3330465555159
 20
105.5650394800103
 30
0.0
 10
201.1935059317997
 20
105.3820991539866
 30
0.0
 10
200.7476680967892
 20
104.8552251927613
 30
0.0
 10
200.4108750552124
 20
104.5307718280404
 30
0.0
 10
199.690214899992
 20
103.9573118592043
 30
0.0
 10
199.3053867668461
 20
103.7060042334346
 30
0.0
 10
198.6926302352325
 20
103.3794623563086
 30
0.0
 10
198.4818929501538
 20
103.2789634111793
 30
0.0
 10
198.0560332025332
 20
103.0981669244472
 30
0.0
 10
197.8400581515441
 20
103.0173604604731
 30
0.0
 10
197.1832340158587
 20
102.8027684548583
 30
0.0
 10
196.7335578747562
 20
102.6965731604719
 30
0.0
 10
195.8100442002215
 20
102.558950064478
 30
0.0
 10
195.3466935126654
 20
102.5292962448841
 30
0.0
 10
194.4241287898661
 20
102.5455020370736
 30
0.0
 10
193.9636339791386
 20
102.5911913258638
 30
0.0
 10
193.044767999948
 20
102.7614761114935
 30
0.0
 10
192.5996792446295
 20
102.8835897847914
 30
0.0
 10
191.7372830560087
 20
103.2002412180924
 30
0.0
 10
191.3191709689499
 20
103.3951818930483
 30
0.0
 10
190.5160521729811
 20
103.8623643718982
 30
0.0
 10
190.1421775529444
 20
104.1279558709748
 30
0.0
 10
189.6230720068333
 20
104.5754300897121
 30
0.0
 10
189.4570377211113
 20
104.7328278624306
 30
0.0
 10
189.1396776848346
 20
105.065090285892
 30
0.0
 10
188.9876206529622
 20
105.2409048019877
 30
0.0
 10
188.5605821806493
 20
105.7903313731105
 30
0.0
 10
188.3184676016736
 20
106.1796475982921
 30
0.0
 10
188.0214951477839
 20
106.7999104262647
 30
0.0
 10
187.9336212449984
 20
107.0127571684883
 30
0.0
 10
187.7816880747089
 20
107.4515656437344
 30
0.0
 10
187.7176695899845
 20
107.6783745496717
 30
0.0
 10
187.5687726026914
 20
108.3584328993078
 30
0.0
 10
187.5239253439211
 20
108.8177086367929
 30
0.0
 10
187.5404687389411
 20
109.515736635888
 30
0.0
 10
187.5604053381571
 20
109.7510918832016
 30
0.0
 10
187.6276087907771
 20
110.2117617607183
 30
0.0
 10
187.6747729242295
 20
110.4385423931476
 30
0.0
 10
187.7952488780078
 20
110.8852686291561
 30
0.0
 10
187.8685631465425
 20
111.1052135605455
 30
0.0
 10
188.0412464790587
 20
111.5383196652102
 30
0.0
 10
188.1403279845897
 20
111.7503301086795
 30
0.0
 10
188.4683538145543
 20
112.3620363677229
 30
0.0
 10
188.7295628892949
 20
112.7424117839557
 30
0.0
 10
189.3325427758226
 20
113.4519479774306
 30
0.0
 10
189.6682502016722
 20
113.7734651782502
 30
0.0
 10
190.0320731919751
 20
114.0613277558357
 30
0.0
  0
LINE
  5
F8
330
1F
100
AcDbEntity
  8
0
  6
Continuous
 62
     7
370
    15
100
AcDbLine
 10
208.5833344939
 20
109.1463572102
 30
0.0
 11
208.5833344939
 21
84.1463572102
 31
0.0
  0
LINE
  5
F9
330
1F
100
AcDbEntity
  8
0
  6
Continuous
 62
     7
370
    15
100
AcDbLine
 10
208.5833344939
 20
134.1463572102
 30
0.0
 11
208.5833344939
 21
109.1463572102
 31
0.0
  0
LINE
  5
FA
330
1F
100
AcDbEntity
  8
0
  6
Continuous
 62
     7
370
    15
100
AcDbLine
 10
209.0833344939
 20
109.1463572102
 30
0.0
 11
209.0833344939
 21
84.6463572102
 31
0.0
  0
LINE
  5
FB
330
1F
100
AcDbEntity
  8
0
  6
Continuous
 62
     7
370
    15
100
AcDbLine
 10
209.0833344939
 20
133.6463572102
 30
0.0
 11
209.0833344939
 21
109.1463572102
 31
0.0
  0
LINE
  5
FC
330
1F
100
AcDbEntity
  8
0
  6
Continuous
 62
     7
370
    15
100
AcDbLine
 10
95.9333344939
 20
76.8963572102
 30
0.0
 11
95.9333344939
 21
76.926385169
 31
0.0
  0
LINE
  5
FD
330
1F
100
AcDbEntity
  8
0
  6
Continuous
 62
     7
370
    15
100
AcDbLine
 10
95.9333344939
 20
141.3963572102
 30
0.0
 11
95.9333344939
 21
141.3663292513
 31
0.0
  0
LINE
  5
FE
330
1F
100
AcDbEntity
  8
0
  6
HIDDEN
 62
     7
370
     0
100
AcDbLine
 10
200.9705655506
 20
126.0434715272
 30
0.0
 11
201.0333344939
 21
126.0434715272
 31
0.0
  0
LINE
  5
FF
330
1F
100
AcDbEntity
  8
0
  6
HIDDEN
 62
     7
370
     0
100
AcDbLine
 10
189.0333344939
 20
126.0434715272
 30
0.0
 11
200.9705655506
 21
126.0434715272
 31
0.0
  0
LINE
  5
100
330
1F
100
AcDbEntity
  8
0
  6
HIDDEN
 62
     7
370
     0
100
AcDbLine
 10
200.9705655506
 20
133.4463572102
 30
0.0
 11
201.0333344939
 21
133.4463572102
 31
0.0
  0
LINE
  5
101
330
1F
100
AcDbEntity
  8
0
  6
HIDDEN
 62
     7
370
     0
100
AcDbLine
 10
189.0333344939
 20
133.4463572102
 30
0.0
 11
191.5861481639
 21
133.4463572102
 31
0.0
  0
LINE
  5
102
330
1F
100
AcDbEntity
  8
0
  6
HIDDEN
 62
     7
370
     0
100
AcDbLine
 10
198.492602893
 20
133.4463572102
 30
0.0
 11
200.9705655506
 21
133.4463572102
 31
0.0
  0
LINE
  5
103
330
1F
100
AcDbEntity
  8
0
  6
HIDDEN
 62
     7
370
     0
100
AcDbLine
 10
198.5163140231
 20
117.6463572102
 30
0.0
 11
198.5531363975
 21
117.6463572102
 31
0.0
  0
LINE
  5
104
330
1F
100
AcDbEntity
  8
0
  6
HIDDEN
 62
     7
370
     0
100
AcDbLine
 10
191.5135325903
 20
117.6463572102
 30
0.0
 11
198.5163140231
 21
117.6463572102
 31
0.0
  0
SPLINE
  5
105
330
1F
100
AcDbEntity
  8
0
  6
HIDDEN
 62
     7
370
     0
100
AcDbSpline
210
0.0
220
0.0
230
1.0
 70
     8
 71
     3
 72
    11
 73
     7
 74
     0
 42
0.000000001
 43
0.00000001
 40
0.0
 40
0.0
 40
0.0
 40
0.0
 40
0.216455377944354
 40
0.440311289579057
 40
0.7519005688038927
 40
1.0
 40
1.0
 40
1.0
 40
1.0
 10
198.2518312239191
 20
134.0104588252911
 30
0.0
 10
198.0655952883328
 20
133.9018006550261
 30
0.0
 10
197.6867560756382
 20
133.6807693296461
 30
0.0
 10
196.9837316785536
 20
133.4965394052286
 30
0.0
 10
196.229611904869
 20
133.6076153093279
 30
0.0
 10
195.7470205342858
 20
133.8867317711016
 30
0.0
 10
195.5330968972486
 20
134.0104588252911
 30
0.0
  0
SPLINE
  5
106
330
1F
100
AcDbEntity
  8
0
  6
HIDDEN
 62
     7
370
     0
100
AcDbSpline
210
0.0
220
0.0
230
1.0
 70
     8
 71
     3
 72
    11
 73
     7
 74
     0
 42
0.000000001
 43
0.00000001
 40
0.0
 40
0.0
 40
0.0
 40
0.0
 40
0.2164553779443598
 40
0.4403112895790663
 40
0.7519005688038848
 40
0.9999999999999999
 40
0.9999999999999999
 40
0.9999999999999999
 40
0.9999999999999999
 10
195.5330968972486
 20
134.0104588252911
 30
0.0
 10
195.3126267528077
 20
133.9018006550261
 30
0.0
 10
194.8641486667728
 20
133.6807693296461
 30
0.0
 10
194.0318931201577
 20
133.4965394052286
 30
0.0
 10
193.1391497572478
 20
133.6076153093279
 30
0.0
 10
192.5678476138484
 20
133.8867317711015
 30
0.0
 10
192.3146001672242
 20
134.010458825291
 30
0.0
  0
SPLINE
  5
107
330
1F
100
AcDbEntity
  8
0
  6
HIDDEN
 62
     7
370
     0
100
AcDbSpline
210
0.0
220
0.0
230
1.0
 70
     8
 71
     3
 72
    11
 73
     7
 74
     0
 42
0.000000001
 43
0.00000001
 40
0.0
 40
0.0
 40
0.0
 40
0.0
 40
0.1849308168246108
 40
0.5198464202157796
 40
0.8714438233692672
 40
1.0
 40
1.0
 40
1.0
 40
1.0
 10
192.3146001672242
 20
134.010458825291
 30
0.0
 10
192.285511553448
 20
133.9168531426745
 30
0.0
 10
192.2037425330097
 20
133.6537245854356
 30
0.0
 10
192.0511050412781
 20
133.4593193882114
 30
0.0
 10
191.9101380725103
 20
133.6973802441777
 30
0.0
 10
191.8349646686577
 20
133.9443383385586
 30
0.0
 10
191.8148377638703
 20
134.010458825291
 30
0.0
  0
SPLINE
  5
108
330
1F
100
AcDbEntity
  8
0
  6
HIDDEN
 62
     7
370
     0
100
AcDbSpline
210
0.0
220
0.0
230
1.0
 70
     8
 71
     3
 72
    11
 73
     7
 74
     0
 42
0.000000001
 43
0.00000001
 40
0.0
 40
0.0
 40
0.0
 40
0.0
 40
0.2164553779443368
 40
0.440311289579043
 40
0.7519005688038854
 40
0.9999999999999999
 40
0.9999999999999999
 40
0.9999999999999999
 40
0.9999999999999999
 10
191.8148377638703
 20
134.010458825291
 30
0.0
 10
192.0010736994566
 20
133.9018006550261
 30
0.0
 10
192.3799129121511
 20
133.680769329646
 30
0.0
 10
193.0829373092357
 20
133.4965394052286
 30
0.0
 10
193.8370570829204
 20
133.6076153093278
 30
0.0
 10
194.3196484535037
 20
133.8867317711015
 30
0.0
 10
194.5335720905408
 20
134.010458825291
 30
0.0
  0
SPLINE
  5
109
330
1F
100
AcDbEntity
  8
0
  6
HIDDEN
 62
     7
370
     0
100
AcDbSpline
210
0.0
220
0.0
230
1.0
 70
     8
 71
     3
 72
    11
 73
     7
 74
     0
 42
0.000000001
 43
0.00000001
 40
0.0
 40
0.0
 40
0.0
 40
0.0
 40
0.2164553779443488
 40
0.4403112895790478
 40
0.7519005688038659
 40
1.0
 40
1.0
 40
1.0
 40
1.0
 10
194.5335720905408
 20
134.010458825291
 30
0.0
 10
194.7540422349817
 20
133.901800655026
 30
0.0
 10
195.2025203210166
 20
133.680769329646
 30
0.0
 10
196.0347758676316
 20
133.4965394052285
 30
0.0
 10
196.9275192305416
 20
133.6076153093279
 30
0.0
 10
197.498821373941
 20
133.8867317711015
 30
0.0
 10
197.7520688205652
 20
134.010458825291
 30
0.0
  0
SPLINE
  5
10A
330
1F
100
AcDbEntity
  8
0
  6
HIDDEN
 62
     7
370
     0
100
AcDbSpline
210
0.0
220
0.0
230
1.0
 70
     8
 71
     3
 72
    13
 73
     9
 74
     0
 42
0.000000001
 43
0.00000001
 40
0.0
 40
0.0
 40
0.0
 40
0.0
 40
0.1281940639112317
 40
0.3016059688761495
 40
0.4802226824374504
 40
0.6449624637538014
 40
0.815590090087472
 40
1.0
 40
1.0
 40
1.0
 40
1.0
 10
197.7520688205652
 20
134.010458825291
 30
0.0
 10
197.7722196726458
 20
133.9442592945052
 30
0.0
 10
197.8196291788275
 20
133.7885096988326
 30
0.0
 10
197.8994542388483
 20
133.6100352215719
 30
0.0
 10
197.9891276383494
 20
133.5253512339437
 30
0.0
 10
198.0787737127266
 20
133.5746270486465
 30
0.0
 10
198.1666284717132
 20
133.7364248368337
 30
0.0
 10
198.2227046945964
 20
133.9167804077098
 30
0.0
 10
198.2518312239191
 20
134.0104588252911
 30
0.0
  0
LINE
  5
10B
330
1F
100
AcDbEntity
  8
0
  6
HIDDEN
 62
     7
370
     0
100
AcDbLine
 10
194.5335720905
 20
127.1463572102
 30
0.0
 11
194.5335720905
 21
134.0104588253
 31
0.0
  0
LINE
  5
10C
330
1F
100
AcDbEntity
  8
0
  6
HIDDEN
 62
     7
370
     0
100
AcDbLine
 10
194.5335720905
 20
127.1463572102
 30
0.0
 11
193.1742049272
 21
127.1463572102
 31
0.0
  0
LINE
  5
10D
330
1F
100
AcDbEntity
  8
0
  6
HIDDEN
 62
     7
370
     0
100
AcDbLine
 10
196.1428204556
 20
127.1463572102
 30
0.0
 11
194.5335720905
 21
127.1463572102
 31
0.0
  0
LINE
  5
10E
330
1F
100
AcDbEntity
  8
0
  6
HIDDEN
 62
     7
370
     0
100
AcDbLine
 10
198.0019500222
 20
126.1463572102
 30
0.0
 11
198.0333344939
 21
126.1463572102
 31
0.0
  0
LINE
  5
10F
330
1F
100
AcDbEntity
  8
0
  6
HIDDEN
 62
     7
370
     0
100
AcDbLine
 10
192.0333344939
 20
126.1463572102
 30
0.0
 11
198.0019500222
 21
126.1463572102
 31
0.0
  0
LINE
  5
110
330
1F
100
AcDbEntity
  8
0
  6
HIDDEN
 62
     7
370
     0
100
AcDbLine
 10
197.7520688206
 20
127.1463572102
 30
0.0
 11
196.1428204556
 21
127.1463572102
 31
0.0
  0
LINE
  5
111
330
1F
100
AcDbEntity
  8
0
  6
HIDDEN
 62
     7
370
     0
100
AcDbLine
 10
193.1742049272
 20
127.1463572102
 30
0.0
 11
191.8148377639
 21
127.1463572102
 31
0.0
  0
LINE
  5
112
330
1F
100
AcDbEntity
  8
0
  6
HIDDEN
 62
     7
370
     0
100
AcDbLine
 10
198.0019500222
 20
127.1463572102
 30
0.0
 11
197.7520688206
 21
127.1463572102
 31
0.0
  0
LINE
  5
113
330
1F
100
AcDbEntity
  8
0
  6
HIDDEN
 62
     7
370
     0
100
AcDbLine
 10
197.7520688206
 20
127.1463572102
 30
0.0
 11
197.7520688206
 21
134.0104588253
 31
0.0
  0
LINE
  5
114
330
1F
100
AcDbEntity
  8
0
  6
HIDDEN
 62
     7
370
     0
100
AcDbLine
 10
192.3146001672
 20
127.1463572102
 30
0.0
 11
192.3146001672
 21
134.0104588253
 31
0.0
  0
LINE
  5
115
330
1F
100
AcDbEntity
  8
0
  6
HIDDEN
 62
     7
370
     0
100
AcDbLine
 10
191.8148377639
 20
127.1463572102
 30
0.0
 11
191.8148377639
 21
134.0104588253
 31
0.0
  0
LINE
  5
116
330
1F
100
AcDbEntity
  8
0
  6
HIDDEN
 62
     7
370
     0
100
AcDbLine
 10
198.2518312239
 20
127.1463572102
 30
0.0
 11
198.0019500222
 21
127.1463572102
 31
0.0
  0
LINE
  5
117
330
1F
100
AcDbEntity
  8
0
  6
HIDDEN
 62
     7
370
     0
100
AcDbLine
 10
195.5330968972
 20
127.1463572102
 30
0.0
 11
195.5330968972
 21
134.0104588253
 31
0.0
  0
LINE
  5
118
330
1F
100
AcDbEntity
  8
0
  6
HIDDEN
 62
     7
370
     0
100
AcDbLine
 10
198.2518312239
 20
127.1463572102
 30
0.0
 11
198.2518312239
 21
134.0104588253
 31
0.0
  0
LINE
  5
119
330
1F
100
AcDbEntity
  8
0
  6
HIDDEN
 62
     7
370
     0
100
AcDbLine
 10
160.9079080134
 20
148.289683589
 30
0.0
 11
160.9079080134
 21
140.4963572102
 31
0.0
  0
LINE
  5
11A
330
1F
100
AcDbEntity
  8
0
  6
HIDDEN
 62
     7
370
     0
100
AcDbLine
 10
124.4866843178
 20
72.2790116917
 30
0.0
 11
124.1204271969
 21
72.2452044954
 31
0.0
  0
SPLINE
  5
11B
330
1F
100
AcDbEntity
  8
0
  6
HIDDEN
 62
     7
370
     0
100
AcDbSpline
210
0.0
220
0.0
230
1.0
 70
     8
 71
     3
 72
     8
 73
     4
 74
     0
 42
0.000000001
 43
0.00000001
 40
0.0
 40
0.0
 40
0.0
 40
0.0
 40
1.0
 40
1.0
 40
1.0
 40
1.0
 10
94.28333449389467
 20
78.59220491316485
 30
0.0
 10
94.28333449389467
 20
78.57444699731361
 30
0.0
 10
94.286075594749
 20
78.55905188352965
 30
0.0
 10
94.29112052537758
 20
78.54655065186432
 30
0.0
  0
SPLINE
  5
11C
330
1F
100
AcDbEntity
  8
0
  6
HIDDEN
 62
     7
370
     0
100
AcDbSpline
210
0.0
220
0.0
230
1.0
 70
     8
 71
     3
 72
     8
 73
     4
 74
     0
 42
0.000000001
 43
0.00000001
 40
0.0
 40
0.0
 40
0.0
 40
0.0
 40
1.0
 40
1.0
 40
1.0
 40
1.0
 10
94.29005474798073
 20
139.7433857294566
 30
0.0
 10
94.28569171900116
 20
139.7314107359257
 30
0.0
 10
94.28333449389467
 20
139.7169802982535
 30
0.0
 10
94.28333449389467
 20
139.7005095071418
 30
0.0
  0
SPLINE
  5
11D
330
1F
100
AcDbEntity
  8
0
  6
HIDDEN
 62
     7
370
     0
100
AcDbSpline
210
0.0
220
0.0
230
1.0
 70
     8
 71
     3
 72
    32
 73
    28
 74
     0
 42
0.000000001
 43
0.00000001
 40
0.0
 40
0.0
 40
0.0
 40
0.0
 40
0.0542728483485314
 40
0.1095047219731521
 40
0.1318996068648271
 40
0.1750679262622245
 40
0.2135780758528238
 40
0.2386716846285288
 40
0.2638717007330997
 40
0.2852891181203046
 40
0.3698429307087984
 40
0.3948966542559171
 40
0.458580377593857
 40
0.5019803539636783
 40
0.5238825454061823
 40
0.5876052220996922
 40
0.6310028056240519
 40
0.6528970545383508
 40
0.7176392611090391
 40
0.761744838583855
 40
0.7840015027607894
 40
0.82719956551902
 40
0.8657453349520494
 40
0.8908668068441881
 40
0.9160962560771748
 40
0.9804465708052822
 40
0.9999999999999999
 40
0.9999999999999999
 40
0.9999999999999999
 40
0.9999999999999999
 10
134.2305430112741
 20
77.8138770367309
 30
0.0
 10
134.0705216598154
 20
77.83904856886426
 30
0.0
 10
133.7476513087198
 20
77.88983642525605
 30
0.0
 10
133.2647275695053
 20
77.95602061694647
 30
0.0
 10
132.7874960614839
 20
78.01459537774072
 30
0.0
 10
132.3475558101911
 20
78.06313296265829
 30
0.0
 10
131.8661538183325
 20
78.10796461738141
 30
0.0
 10
131.4492913634234
 20
78.14084625990212
 30
0.0
 10
131.1033905427553
 20
78.1641353447358
 30
0.0
 10
130.4579650767188
 20
78.20053299228225
 30
0.0
 10
129.784802457604
 20
78.22147608787023
 30
0.0
 10
128.8924800365619
 20
78.22439059458692
 30
0.0
 10
128.2115986708729
 20
78.21143277108465
 30
0.0
 10
127.5650399159111
 20
78.18203553651011
 30
0.0
 10
126.9350587687465
 20
78.14369806158226
 30
0.0
 10
126.3294256090934
 20
78.09443218735146
 30
0.0
 10
125.7701175869444
 20
78.03616615076692
 30
0.0
 10
125.2394615111127
 20
77.97415219961395
 30
0.0
 10
124.751970267304
 20
77.90877653689299
 30
0.0
 10
124.3341231281467
 20
77.84561435343514
 30
0.0
 10
124.0240247923464
 20
77.79601150085969
 30
0.0
 10
123.7673458571041
 20
77.75273510868396
 30
0.0
 10
123.5557612839981
 20
77.71530901894698
 30
0.0
 10
123.4143784407744
 20
77.68960609070328
 30
0.0
 10
123.2710062627882
 20
77.6630707719834
 30
0.0
 10
123.1821541226605
 20
77.6461307310664
 30
0.0
 10
123.190788413877
 20
77.64777552826385
 30
0.0
 10
123.1928006006288
 20
77.64815884161838
 30
0.0
  0
SPLINE
  5
11E
330
1F
100
AcDbEntity
  8
0
  6
HIDDEN
 62
     7
370
     0
100
AcDbSpline
210
0.0
220
0.0
230
1.0
 70
     8
 71
     3
 72
    24
 73
    20
 74
     0
 42
0.000000001
 43
0.00000001
 40
0.0
 40
0.0
 40
0.0
 40
0.0
 40
0.0464257132087637
 40
0.1098907882459422
 40
0.1751749260395351
 40
0.2390748377359938
 40
0.304771857467014
 40
0.3696543168181066
 40
0.4364124899575132
 40
0.501323837162448
 40
0.5681764668205243
 40
0.6320703421568122
 40
0.6978478818353352
 40
0.761277612864387
 40
0.826504165363941
 40
0.8907316340952658
 40
0.9567727076570343
 40
0.9783533312844678
 40
0.9999999999999999
 40
0.9999999999999999
 40
0.9999999999999999
 40
0.9999999999999999
 10
123.2015510862376
 20
140.6428964286846
 30
0.0
 10
123.202567499821
 20
140.6426949071859
 30
0.0
 10
123.2049733754046
 20
140.6422179009149
 30
0.0
 10
123.4022794458553
 20
140.6049891377178
 30
0.0
 10
123.7543688546545
 20
140.5416493381059
 30
0.0
 10
124.2659209614117
 20
140.4564658302319
 30
0.0
 10
124.91010196766
 20
140.3608659584803
 30
0.0
 10
125.6843997750174
 20
140.2633553821264
 30
0.0
 10
126.5557691706659
 20
140.1765863637222
 30
0.0
 10
127.5123459772566
 20
140.1095952412858
 30
0.0
 10
128.5045159515547
 20
140.0716095959791
 30
0.0
 10
129.5203606919061
 20
140.0660337330441
 30
0.0
 10
130.5093167494986
 20
140.0929299001399
 30
0.0
 10
131.4665852852404
 20
140.1492742152548
 30
0.0
 10
132.3528020890396
 20
140.2278157841853
 30
0.0
 10
133.1620543656165
 20
140.3215411721125
 30
0.0
 10
133.7038619096854
 20
140.3973603181848
 30
0.0
 10
134.0461406754202
 20
140.4494250072738
 30
0.0
 10
134.1690129889128
 20
140.4690232770289
 30
0.0
 10
134.2305430112741
 20
140.4788373835757
 30
0.0
  0
SPLINE
  5
11F
330
1F
100
AcDbEntity
  8
0
  6
HIDDEN
 62
     7
370
     0
100
AcDbSpline
210
0.0
220
0.0
230
1.0
 70
     8
 71
     3
 72
    11
 73
     7
 74
     0
 42
0.000000001
 43
0.00000001
 40
0.0
 40
0.0
 40
0.0
 40
0.0
 40
0.2878169955052105
 40
0.5840261394205768
 40
0.8718780605719603
 40
1.0
 40
1.0
 40
1.0
 40
1.0
 10
134.2305430112741
 20
140.4788373835757
 30
0.0
 10
134.3954248953395
 20
140.5039478856319
 30
0.0
 10
134.7299962782492
 20
140.554901060058
 30
0.0
 10
135.0314141523426
 20
140.591231990136
 30
0.0
 10
135.183435766623
 20
140.6085146668333
 30
0.0
 10
135.1672190613893
 20
140.6066800304743
 30
0.0
 10
135.1622242385829
 20
140.6061149536972
 30
0.0
  0
SPLINE
  5
120
330
1F
100
AcDbEntity
  8
0
  6
HIDDEN
 62
     7
370
     0
100
AcDbSpline
210
0.0
220
0.0
230
1.0
 70
     8
 71
     3
 72
    15
 73
    11
 74
     0
 42
0.000000001
 43
0.00000001
 40
0.0
 40
0.0
 40
0.0
 40
0.0
 40
0.0689677060265227
 40
0.1680909366328235
 40
0.3598370962591131
 40
0.4575679818393134
 40
0.555610768961957
 40
0.6547761667263918
 40
0.7542691195277224
 40
0.9999999999999999
 40
0.9999999999999999
 40
0.9999999999999999
 40
0.9999999999999999
 10
135.1813170655413
 20
77.68446672973204
 30
0.0
 10
135.1812097521796
 20
77.68447841115831
 30
0.0
 10
135.1809482036298
 20
77.68450688161202
 30
0.0
 10
135.1507628753208
 20
77.6878717929328
 30
0.0
 10
135.0848612276521
 20
77.69533478861406
 30
0.0
 10
134.9820475434959
 20
77.70759657768492
 30
0.0
 10
134.885876615701
 20
77.71949228158664
 30
0.0
 10
134.7705442161666
 20
77.73445792467906
 30
0.0
 10
134.5735268242146
 20
77.76097864274489
 30
0.0
 10
134.3731625934201
 20
77.79188081836189
 30
0.0
 10
134.2305430112741
 20
77.8138770367309
 30
0.0
  0
LINE
  5
121
330
1F
100
AcDbEntity
  8
0
  6
HIDDEN
 62
     7
370
     0
100
AcDbLine
 10
114.1933562805
 20
82.7963572102
 30
0.0
 11
114.1933562805
 21
135.4963572102
 31
0.0
  0
LINE
  5
122
330
1F
100
AcDbEntity
  8
0
  6
HIDDEN
 62
     7
370
     0
100
AcDbLine
 10
153.3674121123
 20
82.7963572102
 30
0.0
 11
153.3674121123
 21
135.4963572102
 31
0.0
  0
LINE
  5
123
330
1F
100
AcDbEntity
  8
0
  6
HIDDEN
 62
     7
370
     0
100
AcDbLine
 10
156.5333344939
 20
84.4213572102
 30
0.0
 11
156.5333344939
 21
133.8713571921
 31
0.0
  0
SPLINE
  5
124
330
1F
100
AcDbEntity
  8
0
  6
HIDDEN
 62
     7
370
     0
100
AcDbSpline
210
0.0
220
0.0
230
1.0
 70
     8
 71
     3
 72
    20
 73
    16
 74
     0
 42
0.000000001
 43
0.00000001
 40
0.0
 40
0.0
 40
0.0
 40
0.0
 40
0.2500000000000019
 40
0.2500000000000019
 40
0.3750000000000016
 40
0.3750000000000016
 40
0.5000000000000012
 40
0.5000000000000012
 40
0.6250000000000009
 40
0.6250000000000009
 40
0.7500000000000007
 40
0.7500000000000007
 40
0.8750000000000003
 40
0.8750000000000003
 40
1.0
 40
1.0
 40
1.0
 40
1.0
 10
104.3833344938947
 20
134.2172646528447
 30
0.0
 10
104.3833344938947
 20
134.137579876675
 30
0.0
 10
104.3363787489953
 20
134.0559959196773
 30
0.0
 10
104.1986148378209
 20
133.9350501837552
 30
0.0
 10
104.1423555980909
 20
133.8958792754192
 30
0.0
 10
104.0093244077302
 20
133.8202150846859
 30
0.0
 10
103.9315178881632
 20
133.7833393033885
 30
0.0
 10
103.7589143529265
 20
133.7152992687558
 30
0.0
 10
103.6645349368329
 20
133.6841333361934
 30
0.0
 10
103.4591218271199
 20
133.6282324382598
 30
0.0
 10
103.3467683144638
 20
133.6033494526775
 30
0.0
 10
103.1144737597165
 20
133.563266736109
 30
0.0
 10
102.9937362572541
 20
133.5477358535227
 30
0.0
 10
102.742612723354
 20
133.5265030587371
 30
0.0
 10
102.6130236561839
 20
133.5209833611325
 30
0.0
 10
102.4833344938947
 20
133.5209833611325
 30
0.0
  0
LINE
  5
125
330
1F
100
AcDbEntity
  8
0
  6
HIDDEN
 62
     7
370
     0
100
AcDbLine
 10
102.4833344939
 20
133.5209833611
 30
0.0
 11
95.9333344939
 21
133.5209833611
 31
0.0
  0
LINE
  5
126
330
1F
100
AcDbEntity
  8
0
  6
HIDDEN
 62
     7
370
     0
100
AcDbLine
 10
95.9333344939
 20
84.7717310592
 30
0.0
 11
107.4833344939
 21
84.7717310592
 31
0.0
  0
SPLINE
  5
127
330
1F
100
AcDbEntity
  8
0
  6
HIDDEN
 62
     7
370
     0
100
AcDbSpline
210
0.0
220
0.0
230
1.0
 70
     8
 71
     3
 72
    18
 73
    14
 74
     0
 42
0.000000001
 43
0.00000001
 40
0.0
 40
0.0
 40
0.0
 40
0.0
 40
0.1249999999999978
 40
0.1249999999999978
 40
0.2499999999999956
 40
0.2499999999999956
 40
0.4999999999999979
 40
0.4999999999999979
 40
0.7500000000000001
 40
0.7500000000000001
 40
0.8750000000000001
 40
0.8750000000000001
 40
1.0
 40
1.0
 40
1.0
 40
1.0
 10
107.4833344938947
 20
84.77173105917409
 30
0.0
 10
107.6128528329812
 20
84.77173105917407
 30
0.0
 10
107.7399097040913
 20
84.76633824151278
 30
0.0
 10
107.9893567014796
 20
84.7454476804481
 30
0.0
 10
108.1130150999721
 20
84.72966085533548
 30
0.0
 10
108.4620958738429
 20
84.66954148219256
 30
0.0
 10
108.6725951280131
 20
84.61137617672654
 30
0.0
 10
109.0164354821027
 20
84.47596634435853
 30
0.0
 10
109.1527180815152
 20
84.39780949811447
 30
0.0
 10
109.2896983920724
 20
84.277773744915
 30
0.0
 10
109.324899218947
 20
84.2366030240334
 30
0.0
 10
109.3714963980618
 20
84.15546040878155
 30
0.0
 10
109.3833344938947
 20
84.11525004003961
 30
0.0
 10
109.3833344938947
 20
84.07544976746186
 30
0.0
  0
LINE
  5
128
330
1F
100
AcDbEntity
  8
0
  6
HIDDEN
 62
     7
370
     0
100
AcDbLine
 10
95.9333344939
 20
84.7717310592
 30
0.0
 11
95.9333344939
 21
133.5209833611
 31
0.0
  0
LINE
  5
129
330
1F
100
AcDbEntity
  8
0
  6
HIDDEN
 62
     7
370
     0
100
AcDbLine
 10
190.032073192
 20
133.6584578602
 30
0.0
 11
190.3047102665
 21
133.6173270749
 31
0.0
  0
SPLINE
  5
12A
330
1F
100
AcDbEntity
  8
0
  6
HIDDEN
 62
     7
370
     0
100
AcDbSpline
210
0.0
220
0.0
230
1.0
 70
     8
 71
     3
 72
    12
 73
     8
 74
     0
 42
0.000000001
 43
0.00000001
 40
0.0
 40
0.0
 40
0.0
 40
0.0
 40
0.1727410594676183
 40
0.4040551041250053
 40
0.640049340860283
 40
0.8793148983835329
 40
1.0
 40
1.0
 40
1.0
 40
1.0
 10
187.5474165994819
 20
134.1431104699009
 30
0.0
 10
187.5454141784305
 20
134.143572027129
 30
0.0
 10
187.5407303560152
 20
134.1446516462678
 30
0.0
 10
187.6283302612372
 20
134.1244657185636
 30
0.0
 10
187.7820461510699
 20
134.0897494289604
 30
0.0
 10
187.9607228689529
 20
134.049826051009
 30
0.0
 10
188.1077852674023
 20
134.0185674284508
 30
0.0
 10
188.1570926934346
 20
134.0080869641315
 30
0.0
  0
LINE
  5
12B
330
1F
100
AcDbEntity
  8
0
  6
HIDDEN
 62
     7
370
     0
100
AcDbLine
 10
189.7158560862
 20
133.7111022919
 30
0.0
 11
190.032073192
 21
133.6584578602
 31
0.0
  0
CIRCLE
  5
12C
330
1F
100
AcDbEntity
  8
0
  6
HIDDEN
 62
     7
370
     0
100
AcDbCircle
 10
195.0333344939
 20
109.1463572102
 30
0.0
 40
5.5
  0
LINE
  5
12D
330
1F
100
AcDbEntity
  8
0
  6
HIDDEN
 62
     7
370
     0
100
AcDbLine
 10
95.9333344939
 20
81.7763572102
 30
0.0
 11
95.9333344939
 21
76.926385169
 31
0.0
  0
LINE
  5
12E
330
1F
100
AcDbEntity
  8
0
  6
HIDDEN
 62
     7
370
     0
100
AcDbLine
 10
95.9333344939
 20
136.5163572102
 30
0.0
 11
95.9333344939
 21
141.3663292513
 31
0.0
  0
LINE
  5
12F
330
1F
100
AcDbEntity
  8
0
  6
HIDDEN
 62
     7
370
     0
100
AcDbLine
 10
109.3833344939
 20
81.7763572102
 30
0.0
 11
109.3833344939
 21
75.20984138
 31
0.0
  0
LINE
  5
130
330
1F
100
AcDbEntity
  8
0
  6
HIDDEN
 62
     7
370
     0
100
AcDbLine
 10
104.3833344939
 20
136.5163572102
 30
0.0
 11
104.3833344939
 21
142.9674057596
 31
0.0
  0
LINE
  5
131
330
1F
100
AcDbEntity
  8
0
  6
HIDDEN
 62
     7
370
     0
100
AcDbLine
 10
180.5833344939
 20
109.1463572102
 30
0.0
 11
180.5833344939
 21
95.6463572102
 31
0.0
  0
LINE
  5
132
330
1F
100
AcDbEntity
  8
0
  6
HIDDEN
 62
     7
370
     0
100
AcDbLine
 10
180.5833344939
 20
122.6463572102
 30
0.0
 11
180.5833344939
 21
109.1463572102
 31
0.0
  0
LINE
  5
133
330
1F
100
AcDbEntity
  8
0
  6
HIDDEN
 62
     7
370
     0
100
AcDbLine
 10
185.4493598977
 20
109.1463572102
 30
0.0
 11
185.4493598977
 21
95.1463572102
 31
0.0
  0
LINE
  5
134
330
1F
100
AcDbEntity
  8
0
  6
HIDDEN
 62
     7
370
     0
100
AcDbLine
 10
185.4493598977
 20
123.1463572102
 30
0.0
 11
185.4493598977
 21
109.1463572102
 31
0.0
  0
SPLINE
  5
135
330
1F
100
AcDbEntity
  8
0
  6
HIDDEN
 62
     7
370
     0
100
AcDbSpline
210
0.0
220
0.0
230
1.0
 70
     8
 71
     3
 72
    29
 73
    25
 74
     0
 42
0.000000001
 43
0.00000001
 40
0.0
 40
0.0
 40
0.0
 40
0.0
 40
0.050221656656202
 40
0.101964577924613
 40
0.1521696633594847
 40
0.2037239246979581
 40
0.2560303050842358
 40
0.3097303218164272
 40
0.3641334304737428
 40
0.392104422387728
 40
0.4203108748699334
 40
0.4722442899053142
 40
0.5259066161839788
 40
0.5744940085359908
 40
0.6244436862464147
 40
0.6740856458738654
 40
0.7249787097499432
 40
0.7782556631164549
 40
0.8330163543757821
 40
0.8871438987962397
 40
0.9149972344352916
 40
0.9430903720868667
 40
0.9941081806388753
 40
1.0
 40
1.0
 40
1.0
 40
1.0
 10
189.5333344938947
 20
123.1463572101533
 30
0.0
 10
189.5468594146992
 20
123.1410157453866
 30
0.0
 10
189.5743189397949
 20
123.1301710175002
 30
0.0
 10
189.7942874087186
 20
123.0450919355503
 30
0.0
 10
190.1394379832857
 20
122.9178276002396
 30
0.0
 10
190.6112679643963
 20
122.7559134734621
 30
0.0
 10
191.2076504597944
 20
122.5722817876028
 30
0.0
 10
191.9195158056857
 20
122.3849578869593
 30
0.0
 10
192.6006404684188
 20
122.2431650495873
 30
0.0
 10
193.190678250203
 20
122.1493186246744
 30
0.0
 10
193.788144897874
 20
122.0748879942966
 30
0.0
 10
194.5569041944258
 20
122.0185328231257
 30
0.0
 10
195.4584147442738
 20
122.0174320787847
 30
0.0
 10
196.3338842121179
 20
122.0773566681222
 30
0.0
 10
197.1500826251999
 20
122.1857056106641
 30
0.0
 10
197.9212974659136
 20
122.3341350495638
 30
0.0
 10
198.6336277479243
 20
122.5093512835992
 30
0.0
 10
199.2731065739526
 20
122.6969734853952
 30
0.0
 10
199.8083094369123
 20
122.875384378907
 30
0.0
 10
200.1457154160023
 20
122.9980469730155
 30
0.0
 10
200.3433069742785
 20
123.0726380842773
 30
0.0
 10
200.4757758919189
 20
123.1236717249934
 30
0.0
 10
200.5522422410312
 20
123.1537532201664
 30
0.0
 10
200.5282075788186
 20
123.1443512927578
 30
0.0
 10
200.525719284775
 20
123.1433779168991
 30
0.0
  0
SPLINE
  5
136
330
1F
100
AcDbEntity
  8
0
  6
HIDDEN
 62
     7
370
     0
100
AcDbSpline
210
0.0
220
0.0
230
1.0
 70
     8
 71
     3
 72
     9
 73
     5
 74
     0
 42
0.000000001
 43
0.00000001
 40
0.0
 40
0.0
 40
0.0
 40
0.0
 40
0.454712101486222
 40
0.9999999999999999
 40
0.9999999999999999
 40
0.9999999999999999
 40
0.9999999999999999
 10
190.0020772003879
 20
122.9698247664614
 30
0.0
 10
189.9732071622432
 20
122.9799983655633
 30
0.0
 10
189.9097163555322
 20
123.0023720808631
 30
0.0
 10
189.876122356861
 20
123.0153785537702
 30
0.0
 10
189.8578039559229
 20
123.0224708260489
 30
0.0
  0
LINE
  5
137
330
1F
100
AcDbEntity
  8
0
  6
HIDDEN
 62
     7
370
     0
100
AcDbLine
 10
172.4833344939
 20
96.1463572102
 30
0.0
 11
172.4833344939
 21
122.1463572102
 31
0.0
  0
LINE
  5
138
330
1F
100
AcDbEntity
  8
0
  6
HIDDEN
 62
     7
370
     0
100
AcDbLine
 10
168.4833344939
 20
96.1463572102
 30
0.0
 11
168.4833344939
 21
122.1463572102
 31
0.0
  0
LINE
  5
139
330
1F
100
AcDbEntity
  8
0
  6
HIDDEN
 62
     7
370
     0
100
AcDbLine
 10
157.2833344939
 20
97.8963572102
 30
0.0
 11
157.2833344939
 21
120.3963572102
 31
0.0
  0
ELLIPSE
  5
13A
330
1F
100
AcDbEntity
  8
0
  6
HIDDEN
 62
     7
370
     0
100
AcDbEllipse
 10
88.1285651042
 20
109.1463572102
 30
0.0
 11
30.85608570811716
 21
1.421085471520200E-14
 31
0.0
210
0.0
220
0.0
230
1.0
 40
0.8164965809
 41
1.315077416024407
 42
1.369982414906925
  0
ELLIPSE
  5
13B
330
1F
100
AcDbEntity
  8
0
  6
HIDDEN
 62
     7
370
     0
100
AcDbEllipse
 10
88.1285651042
 20
109.1463572102
 30
0.0
 11
30.85608570811716
 21
-1.421085471520200E-14
 31
0.0
210
0.0
220
0.0
230
1.0
 40
0.8164965809
 41
4.913202892272672
 42
4.96810789115519
  0
LINE
  5
13C
330
1F
100
AcDbEntity
  8
0
  6
HIDDEN
 62
     7
370
     0
100
AcDbLine
 10
173.0333344939
 20
65.2463572102
 30
0.0
 11
158.9333344939
 21
65.2463572102
 31
0.0
  0
LINE
  5
13D
330
1F
100
AcDbEntity
  8
0
  6
HIDDEN
 62
     7
370
     0
100
AcDbLine
 10
148.9333344939
 20
59.0063282911
 30
0.0
 11
148.9333344939
 21
65.2463572102
 31
0.0
  0
LINE
  5
13E
330
1F
100
AcDbEntity
  8
0
  6
HIDDEN
 62
     7
370
     0
100
AcDbLine
 10
158.9333344939
 20
65.2463572102
 30
0.0
 11
148.9333344939
 21
65.2463572102
 31
0.0
  0
LINE
  5
13F
330
1F
100
AcDbEntity
  8
0
  6
HIDDEN
 62
     7
370
     0
100
AcDbLine
 10
109.3833344939
 20
81.7763572102
 30
0.0
 11
109.3833344939
 21
84.0754497675
 31
0.0
  0
LINE
  5
140
330
1F
100
AcDbEntity
  8
0
  6
HIDDEN
 62
     7
370
     0
100
AcDbLine
 10
95.9333344939
 20
81.7763572102
 30
0.0
 11
95.9333344939
 21
84.7717310592
 31
0.0
  0
LINE
  5
141
330
1F
100
AcDbEntity
  8
0
  6
HIDDEN
 62
     7
370
     0
100
AcDbLine
 10
95.9333344939
 20
136.5163572102
 30
0.0
 11
95.9333344939
 21
133.5209833611
 31
0.0
  0
LINE
  5
142
330
1F
100
AcDbEntity
  8
0
  6
HIDDEN
 62
     7
370
     0
100
AcDbLine
 10
104.3833344939
 20
136.5163572102
 30
0.0
 11
104.3833344939
 21
134.2172646528
 31
0.0
  0
LINE
  5
143
330
1F
100
AcDbEntity
  8
0
  6
HIDDEN
 62
     7
370
     0
100
AcDbLine
 10
158.9333344939
 20
153.0463572102
 30
0.0
 11
148.9333344939
 21
153.0463572102
 31
0.0
  0
LINE
  5
144
330
1F
100
AcDbEntity
  8
0
  6
HIDDEN
 62
     7
370
     0
100
AcDbLine
 10
173.0333344939
 20
153.0463572102
 30
0.0
 11
158.9333344939
 21
153.0463572102
 31
0.0
  0
LINE
  5
145
330
1F
100
AcDbEntity
  8
0
  6
HIDDEN
 62
     7
370
     0
100
AcDbLine
 10
189.5333344939
 20
132.1463572102
 30
0.0
 11
200.5333344939
 21
132.1463572102
 31
0.0
  0
SPLINE
  5
146
330
1F
100
AcDbEntity
  8
0
  6
HIDDEN
 62
     7
370
     0
100
AcDbSpline
210
0.0
220
0.0
230
1.0
 70
     8
 71
     3
 72
    30
 73
    26
 74
     0
 42
0.000000001
 43
0.00000001
 40
0.0
 40
0.0
 40
0.0
 40
0.0
 40
0.0527485365888289
 40
0.112104128552104
 40
0.1774903252925642
 40
0.2125155723849955
 40
0.2490749480181807
 40
0.2908666506192255
 40
0.3257236820893486
 40
0.3536423489813161
 40
0.37462004849306
 40
0.4410840578819782
 40
0.4998067098633606
 40
0.5542768905152426
 40
0.613999740976171
 40
0.6790316828217047
 40
0.7136037463812045
 40
0.7495240901327404
 40
0.7908957539909972
 40
0.8255316493733859
 40
0.8534280917885155
 40
0.8745823260191359
 40
0.9407503653884429
 40
0.999509741149469
 40
1.0
 40
1.0
 40
1.0
 40
1.0
 10
135.182310397193
 20
72.03371454595391
 30
0.0
 10
135.1665333104896
 20
72.03867804235682
 30
0.0
 10
135.1330029668943
 20
72.04922674142605
 30
0.0
 10
134.8334072004926
 20
72.12734535847734
 30
0.0
 10
134.3925064735046
 20
72.22701197864859
 30
0.0
 10
133.8986866952663
 20
72.33024399913005
 30
0.0
 10
133.4289426713649
 20
72.42586426394112
 30
0.0
 10
132.8986472328322
 20
72.52497264003632
 30
0.0
 10
132.3609711057327
 20
72.6137286738248
 30
0.0
 10
131.9033753171293
 20
72.68343294011456
 30
0.0
 10
131.2484190411196
 20
72.77491154559581
 30
0.0
 10
130.3656190576384
 20
72.87488445590242
 30
0.0
 10
129.2372874271097
 20
72.96439705474674
 30
0.0
 10
128.1475856036654
 20
73.00314972738359
 30
0.0
 10
127.051271305291
 20
73.0040708852655
 30
0.0
 10
126.1450995292293
 20
72.97591635813976
 30
0.0
 10
125.4478282301148
 20
72.93701358564589
 30
0.0
 10
124.9207772438553
 20
72.89577283205537
 30
0.0
 10
124.4538041683999
 20
72.8512442043522
 30
0.0
 10
124.082040696176
 20
72.81220541045485
 30
0.0
 10
123.8269518834021
 20
72.78188173174615
 30
0.0
 10
123.5246690705927
 20
72.74346569376274
 30
0.0
 10
123.2676845990617
 20
72.70878497033591
 30
0.0
 10
123.1675185246337
 20
72.6914887516337
 30
0.0
 10
123.1836106212215
 20
72.69419009771724
 30
0.0
 10
123.1837437746633
 20
72.69421244990278
 30
0.0
  0
LINE
  5
147
330
1F
100
AcDbEntity
  8
0
  6
HIDDEN
 62
     7
370
     0
100
AcDbLine
 10
124.9381262486
 20
145.396832956
 30
0.0
 11
124.8251759407
 21
145.407690213
 31
0.0
  0
SPLINE
  5
148
330
1F
100
AcDbEntity
  8
0
  6
HIDDEN
 62
     7
370
     0
100
AcDbSpline
210
0.0
220
0.0
230
1.0
 70
     8
 71
     3
 72
    30
 73
    26
 74
     0
 42
0.000000001
 43
0.00000001
 40
0.0
 40
0.0
 40
0.0
 40
0.0
 40
0.0005350103057488
 40
0.028972634954102
 40
0.0592750835020928
 40
0.0914469956846081
 40
0.1254921884086844
 40
0.1551859183263321
 40
0.1968616233352045
 40
0.2505051849379004
 40
0.3209563038811883
 40
0.3860464820853108
 40
0.4458179250125132
 40
0.5003268967420529
 40
0.52871969674531
 40
0.5590050968719033
 40
0.5911914421462217
 40
0.6252856246602093
 40
0.6545496276963716
 40
0.6962382385368646
 40
0.7503371243788151
 40
0.8220029439244508
 40
0.887544694026686
 40
0.9470186840364392
 40
1.0
 40
1.0
 40
1.0
 40
1.0
 10
123.1837852565148
 20
145.5983882025091
 30
0.0
 10
123.1836345736433
 20
145.598422654123
 30
0.0
 10
123.175474581612
 20
145.6002883266567
 30
0.0
 10
123.2046128047381
 20
145.5945178467665
 30
0.0
 10
123.2788639592777
 20
145.5832993032003
 30
0.0
 10
123.4232691921043
 20
145.562510019579
 30
0.0
 10
123.6252582310626
 20
145.5362560178594
 30
0.0
 10
123.9090249283362
 20
145.5001349004403
 30
0.0
 10
124.3235251358835
 20
145.4540186931502
 30
0.0
 10
125.0006577624784
 20
145.38749280074
 30
0.0
 10
125.9398303546662
 20
145.3226030383736
 30
0.0
 10
127.0504368949549
 20
145.2888998068235
 30
0.0
 10
128.1482422595031
 20
145.2896191175516
 30
0.0
 10
129.0481665198429
 20
145.321469676588
 30
0.0
 10
129.7592675729047
 20
145.3696878821306
 30
0.0
 10
130.3246027454312
 20
145.4183809473716
 30
0.0
 10
130.9133113497823
 20
145.479838123176
 30
0.0
 10
131.4773024070531
 20
145.548497227998
 30
0.0
 10
132.0709472085789
 20
145.633335174242
 30
0.0
 10
132.7369384225398
 20
145.7386535154546
 30
0.0
 10
133.5372753695486
 20
145.8859464491467
 30
0.0
 10
134.2884803576568
 20
146.0426553795913
 30
0.0
 10
134.8322580289377
 20
146.1646508323711
 30
0.0
 10
135.1332638915559
 20
146.2433677028516
 30
0.0
 10
135.1667033618315
 20
146.2539786773717
 30
0.0
 10
135.1824577731062
 20
146.2589778491659
 30
0.0
  0
LINE
  5
149
330
1F
100
AcDbEntity
  8
0
  6
HIDDEN
 62
     7
370
     0
100
AcDbLine
 10
167.2587609744
 20
148.289683589
 30
0.0
 11
167.2587609744
 21
140.4963572102
 31
0.0
  0
LINE
  5
14A
330
1F
100
AcDbEntity
  8
0
  6
HIDDEN
 62
     7
370
     0
100
AcDbLine
 10
162.1733344939
 20
143.8605924027
 30
0.0
 11
162.1733344939
 21
140.4963572102
 31
0.0
  0
LINE
  5
14B
330
1F
100
AcDbEntity
  8
0
  6
HIDDEN
 62
     7
370
     0
100
AcDbLine
 10
165.9933344939
 20
143.8605924027
 30
0.0
 11
165.9933344939
 21
140.4963572102
 31
0.0
  0
SPLINE
  5
14C
330
1F
100
AcDbEntity
  8
0
  6
HIDDEN
 62
     7
370
     0
100
AcDbSpline
210
0.0
220
0.0
230
1.0
 70
     8
 71
     3
 72
    24
 73
    20
 74
     0
 42
0.000000001
 43
0.00000001
 40
0.0
 40
0.0
 40
0.0
 40
0.0
 40
0.249999999999975
 40
0.249999999999975
 40
0.3749999999999629
 40
0.3749999999999629
 40
0.4374999999999568
 40
0.4374999999999568
 40
0.4687499999999565
 40
0.4687499999999565
 40
0.4999999999999561
 40
0.4999999999999561
 40
0.5624999999999615
 40
0.5624999999999615
 40
0.6249999999999667
 40
0.6249999999999667
 40
0.7499999999999779
 40
0.7499999999999779
 40
1.0
 40
1.0
 40
1.0
 40
1.0
 10
94.42597077742671
 20
78.60711578192343
 30
0.0
 10
94.45247888986277
 20
78.68439440347821
 30
0.0
 10
94.48558630674466
 20
78.75509628833873
 30
0.0
 10
94.57528291426695
 20
78.81932877420171
 30
0.0
 10
94.61074747665009
 20
78.83481510737478
 30
0.0
 10
94.6956658803091
 20
78.82100389520627
 30
0.0
 10
94.7295906551221
 20
78.80992266390409
 30
0.0
 10
94.79631983530857
 20
78.76890816622382
 30
0.0
 10
94.82144132982037
 20
78.75071749154078
 30
0.0
 10
94.87391027974968
 20
78.70617986713408
 30
0.0
 10
94.9014381126107
 20
78.67964634453034
 30
0.0
 10
94.98008135171382
 20
78.59606700590591
 30
0.0
 10
95.02546996681242
 20
78.53816435891336
 30
0.0
 10
95.10462230130489
 20
78.42929081533829
 30
0.0
 10
95.13949054018734
 20
78.37653944969324
 30
0.0
 10
95.23411990504563
 20
78.22556394714672
 30
0.0
 10
95.28532765753559
 20
78.13275080683339
 30
0.0
 10
95.42447299009946
 20
77.86386363617451
 30
0.0
 10
95.49614810176662
 20
77.69941955562847
 30
0.0
 10
95.557959746049
 20
77.54339410129796
 30
0.0
  0
CIRCLE
  5
14D
330
1F
100
AcDbEntity
  8
0
  6
HIDDEN
 62
     7
370
     0
100
AcDbCircle
 10
151.1833344939
 20
109.1463572102
 30
0.0
 40
5.0
  0
LINE
  5
14E
330
1F
100
AcDbEntity
  8
0
  6
HIDDEN
 62
     7
370
     0
100
AcDbLine
 10
189.0333344939
 20
133.4463572102
 30
0.0
 11
189.0333344939
 21
126.0434715272
 31
0.0
  0
LINE
  5
14F
330
1F
100
AcDbEntity
  8
0
  6
HIDDEN
 62
     7
370
     0
100
AcDbLine
 10
201.0333344939
 20
126.0434715272
 30
0.0
 11
201.0333344939
 21
133.4463572102
 31
0.0
  0
LINE
  5
150
330
1F
100
AcDbEntity
  8
0
  6
HIDDEN
 62
     7
370
     0
100
AcDbLine
 10
201.0333344939
 20
133.4463572102
 30
0.0
 11
200.7069875152
 21
133.7727041888
 31
0.0
  0
LINE
  5
151
330
1F
100
AcDbEntity
  8
0
  6
HIDDEN
 62
     7
370
     0
100
AcDbLine
 10
189.3604234283
 20
133.7734461446
 30
0.0
 11
189.0333344939
 21
133.4463572102
 31
0.0
  0
LINE
  5
152
330
1F
100
AcDbEntity
  8
0
  6
HIDDEN
 62
     7
370
     0
100
AcDbLine
 10
189.0333344939
 20
126.0434715272
 30
0.0
 11
191.2237548424
 21
117.8687114966
 31
0.0
  0
LINE
  5
153
330
1F
100
AcDbEntity
  8
0
  6
HIDDEN
 62
     7
370
     0
100
AcDbLine
 10
198.8429141454
 20
117.8687114966
 30
0.0
 11
201.0333344939
 21
126.0434715272
 31
0.0
  0
ARC
  5
154
330
1F
100
AcDbEntity
  8
0
  6
HIDDEN
 62
     7
370
     0
100
AcDbCircle
 10
191.5135325903
 20
117.9463572102
 30
0.0
 40
0.3000000000000205
100
AcDbArc
 50
195.0
 51
270.0
  0
ARC
  5
155
330
1F
100
AcDbEntity
  8
0
  6
HIDDEN
 62
     7
370
     0
100
AcDbCircle
 10
198.5531363975
 20
117.9463572102
 30
0.0
 40
0.3000000000000205
100
AcDbArc
 50
270.0
 51
345.0
  0
LINE
  5
156
330
1F
100
AcDbEntity
  8
0
  6
HIDDEN
 62
     7
370
     0
100
AcDbLine
 10
191.4333344939
 20
134.1463572102
 30
0.0
 11
192.0333344939
 21
133.5463572102
 31
0.0
  0
LINE
  5
157
330
1F
100
AcDbEntity
  8
0
  6
HIDDEN
 62
     7
370
     0
100
AcDbLine
 10
198.0333344939
 20
133.5463572102
 30
0.0
 11
198.6333344939
 21
134.1463572102
 31
0.0
  0
LINE
  5
158
330
1F
100
AcDbEntity
  8
0
  6
HIDDEN
 62
     7
370
     0
100
AcDbLine
 10
192.0333344939
 20
127.1463572102
 30
0.0
 11
192.0333344939
 21
126.1463572102
 31
0.0
  0
LINE
  5
159
330
1F
100
AcDbEntity
  8
0
  6
HIDDEN
 62
     7
370
     0
100
AcDbLine
 10
198.0333344939
 20
126.1463572102
 30
0.0
 11
198.0333344939
 21
127.1463572102
 31
0.0
  0
LINE
  5
15A
330
1F
100
AcDbEntity
  8
0
  6
HIDDEN
 62
     7
370
     0
100
AcDbLine
 10
192.0333344939
 20
126.1463572102
 30
0.0
 11
195.0333344939
 21
125.0544465074
 31
0.0
  0
LINE
  5
15B
330
1F
100
AcDbEntity
  8
0
  6
HIDDEN
 62
     7
370
     0
100
AcDbLine
 10
195.0333344939
 20
125.0544465074
 30
0.0
 11
198.0333344939
 21
126.1463572102
 31
0.0
  0
LINE
  5
15C
330
1F
100
AcDbEntity
  8
0
  6
HIDDEN
 62
     7
370
     0
100
AcDbLine
 10
144.0833344939
 20
69.7416742536
 30
0.0
 11
144.1729361178
 21
70.3792229355
 31
0.0
  0
LINE
  5
15D
330
1F
100
AcDbEntity
  8
0
  6
HIDDEN
 62
     7
370
     0
100
AcDbLine
 10
144.1729361178
 20
147.9134914848
 30
0.0
 11
144.0833344939
 21
148.5510401667
 31
0.0
  0
ARC
  5
15E
330
1F
100
AcDbEntity
  8
0
  6
HIDDEN
 62
     7
370
     0
100
AcDbCircle
 10
143.1863975754
 20
70.5178718857
 30
0.0
 40
0.9962338214386932
100
AcDbArc
 50
352.0
 51
0.0
  0
ARC
  5
15F
330
1F
100
AcDbEntity
  8
0
  6
HIDDEN
 62
     7
370
     0
100
AcDbCircle
 10
143.1863975754
 20
70.5178718857
 30
0.0
 40
0.9962338214386932
100
AcDbArc
 50
0.0
 51
25.7988228126
  0
ARC
  5
160
330
1F
100
AcDbEntity
  8
0
  6
HIDDEN
 62
     7
370
     0
100
AcDbCircle
 10
143.1863975754
 20
147.7748425346
 30
0.0
 40
0.9962338214386799
100
AcDbArc
 50
348.75
 51
8.0
  0
LWPOLYLINE
  5
161
330
1F
100
AcDbEntity
  8
0
  6
HIDDEN
 62
     7
370
     0
100
AcDbPolyline
 90
        3
 70
   128
 43
0.0
 10
144.1634890434
 20
147.5804869576
 10
144.1067976127
 20
147.3936003564
 10
144.0833344939
 20
147.3412690215
  0
LINE
  5
162
330
1F
100
AcDbEntity
  8
0
  6
HIDDEN
 62
     7
370
     0
100
AcDbLine
 10
144.1826313969
 20
70.5178718857
 30
0.0
 11
144.1826313969
 21
147.7748425346
 31
0.0
  0
LINE
  5
163
330
1F
100
AcDbEntity
  8
0
  6
HIDDEN
 62
     7
370
     0
100
AcDbLine
 10
117.7440604361
 20
77.6463572102
 30
0.0
 11
123.1928006006
 21
77.6463572102
 31
0.0
  0
LINE
  5
164
330
1F
100
AcDbEntity
  8
0
  6
HIDDEN
 62
     7
370
     0
100
AcDbLine
 10
123.2015510862
 20
140.6463572102
 30
0.0
 11
117.7440604361
 21
140.6463572102
 31
0.0
  0
ARC
  5
165
330
1F
100
AcDbEntity
  8
0
  6
HIDDEN
 62
     7
370
     0
100
AcDbCircle
 10
117.7440604361
 20
78.6463572102
 30
0.0
 40
1.0
100
AcDbArc
 50
210.0
 51
270.0
  0
ARC
  5
166
330
1F
100
AcDbEntity
  8
0
  6
HIDDEN
 62
     7
370
     0
100
AcDbCircle
 10
117.7440604361
 20
139.6463572102
 30
0.0
 40
1.0
100
AcDbArc
 50
90.0
 51
150.0
  0
ARC
  5
167
330
1F
100
AcDbEntity
  8
0
  6
HIDDEN
 62
     7
370
     0
100
AcDbCircle
 10
134.2305430113
 20
89.6463572102
 30
0.0
 40
12.0
100
AcDbArc
 50
274.5501620794
 51
325.1916429146
  0
ARC
  5
168
330
1F
100
AcDbEntity
  8
0
  6
HIDDEN
 62
     7
370
     0
100
AcDbCircle
 10
134.2305430113
 20
128.6463572102
 30
0.0
 40
12.00000000000002
100
AcDbArc
 50
34.8083570854
 51
85.5447508447
  0
LINE
  5
169
330
1F
100
AcDbEntity
  8
0
  6
HIDDEN
 62
     7
370
     0
100
AcDbLine
 10
116.8780350323
 20
140.1463572102
 30
0.0
 11
114.1933562805
 21
135.4963572102
 31
0.0
  0
LINE
  5
16A
330
1F
100
AcDbEntity
  8
0
  6
HIDDEN
 62
     7
370
     0
100
AcDbLine
 10
114.1933562805
 20
82.7963572102
 30
0.0
 11
116.8780350323
 21
78.1463572102
 31
0.0
  0
ARC
  5
16B
330
1F
100
AcDbEntity
  8
0
  6
HIDDEN
 62
     7
370
     0
100
AcDbCircle
 10
154.5333344939
 20
84.4213572102
 30
0.0
 40
2.0
100
AcDbArc
 50
234.3409123039
 51
0.0
  0
ARC
  5
16C
330
1F
100
AcDbEntity
  8
0
  6
HIDDEN
 62
     7
370
     0
100
AcDbCircle
 10
154.5333344939
 20
133.8713572102
 30
0.0
 40
2.0
100
AcDbArc
 50
0.0
 51
125.6590876961
  0
LINE
  5
16D
330
1F
100
AcDbEntity
  8
0
  6
HIDDEN
 62
     7
370
     0
100
AcDbLine
 10
144.0833344939
 20
82.7963572102
 30
0.0
 11
153.3674121123
 21
82.7963572102
 31
0.0
  0
LINE
  5
16E
330
1F
100
AcDbEntity
  8
0
  6
HIDDEN
 62
     7
370
     0
100
AcDbLine
 10
153.3674121123
 20
135.4963572102
 30
0.0
 11
144.0833344939
 21
135.4963572102
 31
0.0
  0
LINE
  5
16F
330
1F
100
AcDbEntity
  8
0
  6
HIDDEN
 62
     7
370
     0
100
AcDbLine
 10
109.3833344939
 20
82.7963572102
 30
0.0
 11
114.1933562805
 21
82.7963572102
 31
0.0
  0
LINE
  5
170
330
1F
100
AcDbEntity
  8
0
  6
HIDDEN
 62
     7
370
     0
100
AcDbLine
 10
114.1933562805
 20
135.4963572102
 30
0.0
 11
104.3833344939
 21
135.4963572102
 31
0.0
  0
ARC
  5
171
330
1F
100
AcDbEntity
  8
0
  6
HIDDEN
 62
     7
370
     0
100
AcDbCircle
 10
208.0833344939
 20
124.1463572102
 30
0.0
 40
1.0
100
AcDbArc
 50
270.0
 51
0.0
  0
ARC
  5
172
330
1F
100
AcDbEntity
  8
0
  6
HIDDEN
 62
     7
370
     0
100
AcDbCircle
 10
208.0833344939
 20
94.1463572102
 30
0.0
 40
1.0
100
AcDbArc
 50
0.0
 51
90.0
  0
ARC
  5
173
330
1F
100
AcDbEntity
  8
0
  6
HIDDEN
 62
     7
370
     0
100
AcDbCircle
 10
181.5833344939
 20
122.6463572102
 30
0.0
 40
1.0
100
AcDbArc
 50
90.0
 51
180.0
  0
ARC
  5
174
330
1F
100
AcDbEntity
  8
0
  6
HIDDEN
 62
     7
370
     0
100
AcDbCircle
 10
181.5833344939
 20
95.6463572102
 30
0.0
 40
1.0
100
AcDbArc
 50
180.0
 51
270.0
  0
LINE
  5
175
330
1F
100
AcDbEntity
  8
0
  6
HIDDEN
 62
     7
370
     0
100
AcDbLine
 10
183.4516819963
 20
123.6463572102
 30
0.0
 11
181.5833344939
 21
123.6463572102
 31
0.0
  0
LINE
  5
176
330
1F
100
AcDbEntity
  8
0
  6
HIDDEN
 62
     7
370
     0
100
AcDbLine
 10
181.5833344939
 20
94.6463572102
 30
0.0
 11
183.4516819963
 21
94.6463572102
 31
0.0
  0
ARC
  5
177
330
1F
100
AcDbEntity
  8
0
  6
HIDDEN
 62
     7
370
     0
100
AcDbCircle
 10
183.4516819963
 20
122.6463572102
 30
0.0
 40
1.0
100
AcDbArc
 50
75.0
 51
90.0
  0
ARC
  5
178
330
1F
100
AcDbEntity
  8
0
  6
HIDDEN
 62
     7
370
     0
100
AcDbCircle
 10
183.4516819963
 20
95.6463572102
 30
0.0
 40
1.0
100
AcDbArc
 50
270.0
 51
285.0
  0
LINE
  5
179
330
1F
100
AcDbEntity
  8
0
  6
HIDDEN
 62
     7
370
     0
100
AcDbLine
 10
183.7105010414
 20
94.6804313839
 30
0.0
 11
185.4493598977
 21
95.1463572102
 31
0.0
  0
LINE
  5
17A
330
1F
100
AcDbEntity
  8
0
  6
HIDDEN
 62
     7
370
     0
100
AcDbLine
 10
185.4493598977
 20
123.1463572102
 30
0.0
 11
183.7105010414
 21
123.6122830364
 31
0.0
  0
LINE
  5
17B
330
1F
100
AcDbEntity
  8
0
  6
HIDDEN
 62
     7
370
     0
100
AcDbLine
 10
189.5333344939
 20
123.1463572102
 30
0.0
 11
185.4493598977
 21
123.1463572102
 31
0.0
  0
LINE
  5
17C
330
1F
100
AcDbEntity
  8
0
  6
HIDDEN
 62
     7
370
     0
100
AcDbLine
 10
208.0833344939
 20
123.1463572102
 30
0.0
 11
200.5257192848
 21
123.1463572102
 31
0.0
  0
LINE
  5
17D
330
1F
100
AcDbEntity
  8
0
  6
HIDDEN
 62
     7
370
     0
100
AcDbLine
 10
185.4493598977
 20
95.1463572102
 30
0.0
 11
208.0833344939
 21
95.1463572102
 31
0.0
  0
LINE
  5
17E
330
1F
100
AcDbEntity
  8
0
  6
HIDDEN
 62
     7
370
     0
100
AcDbLine
 10
168.4833344939
 20
96.1463572102
 30
0.0
 11
172.4833344939
 21
96.1463572102
 31
0.0
  0
LINE
  5
17F
330
1F
100
AcDbEntity
  8
0
  6
HIDDEN
 62
     7
370
     0
100
AcDbLine
 10
172.4833344939
 20
122.1463572102
 30
0.0
 11
168.4833344939
 21
122.1463572102
 31
0.0
  0
LINE
  5
180
330
1F
100
AcDbEntity
  8
0
  6
HIDDEN
 62
     7
370
     0
100
AcDbLine
 10
156.5333344939
 20
97.1463572102
 30
0.0
 11
157.2833344939
 21
97.8963572102
 31
0.0
  0
LINE
  5
181
330
1F
100
AcDbEntity
  8
0
  6
HIDDEN
 62
     7
370
     0
100
AcDbLine
 10
157.2833344939
 20
120.3963572102
 30
0.0
 11
156.5333344939
 21
121.1463572102
 31
0.0
  0
LINE
  5
182
330
1F
100
AcDbEntity
  8
0
  6
HIDDEN
 62
     7
370
     0
100
AcDbLine
 10
157.2833344939
 20
97.8963572102
 30
0.0
 11
168.4833344939
 21
97.8963572102
 31
0.0
  0
LINE
  5
183
330
1F
100
AcDbEntity
  8
0
  6
HIDDEN
 62
     7
370
     0
100
AcDbLine
 10
168.4833344939
 20
120.3963572102
 30
0.0
 11
157.2833344939
 21
120.3963572102
 31
0.0
  0
LINE
  5
184
330
1F
100
AcDbEntity
  8
0
  6
HIDDEN
 62
     7
370
     0
100
AcDbLine
 10
148.9333344939
 20
159.2963572102
 30
0.0
 11
148.9333344939
 21
153.0463572102
 31
0.0
  0
LINE
  5
185
330
1F
100
AcDbEntity
  8
0
  6
HIDDEN
 62
     7
370
     0
100
AcDbLine
 10
187.5333344939
 20
134.1463572102
 30
0.0
 11
189.5333344939
 21
132.1463572102
 31
0.0
  0
LINE
  5
186
330
1F
100
AcDbEntity
  8
0
  6
HIDDEN
 62
     7
370
     0
100
AcDbLine
 10
200.5333344939
 20
132.1463572102
 30
0.0
 11
202.5333344939
 21
134.1463572102
 31
0.0
  0
LINE
  5
187
330
1F
100
AcDbEntity
  8
0
  6
HIDDEN
 62
     7
370
     0
100
AcDbLine
 10
135.74621395
 20
71.4115557942
 30
0.0
 11
135.1833413234
 21
72.0334188323
 31
0.0
  0
LINE
  5
188
330
1F
100
AcDbEntity
  8
0
  6
HIDDEN
 62
     7
370
     0
100
AcDbLine
 10
123.1833369659
 20
72.6941445367
 30
0.0
 11
122.5581543371
 21
72.0722815208
 31
0.0
  0
LINE
  5
189
330
1F
100
AcDbEntity
  8
0
  6
HIDDEN
 62
     7
370
     0
100
AcDbLine
 10
122.5579958156
 20
146.2204257321
 30
0.0
 11
123.1833321362
 21
145.5984914057
 31
0.0
  0
LINE
  5
18A
330
1F
100
AcDbEntity
  8
0
  6
HIDDEN
 62
     7
370
     0
100
AcDbLine
 10
135.1833344865
 20
146.2592304029
 30
0.0
 11
135.7463525024
 21
146.881164723
 31
0.0
  0
LINE
  5
18B
330
1F
100
AcDbEntity
  8
0
  6
HIDDEN
 62
     7
370
     0
100
AcDbLine
 10
135.1833344939
 20
140.6061152781
 30
0.0
 11
135.1833344939
 21
146.3592642696
 31
0.0
  0
LINE
  5
18C
330
1F
100
AcDbEntity
  8
0
  6
HIDDEN
 62
     7
370
     0
100
AcDbLine
 10
123.1833344939
 20
145.5984021389
 30
0.0
 11
123.1833344939
 21
140.6429003867
 31
0.0
  0
LINE
  5
18D
330
1F
100
AcDbEntity
  8
0
  6
HIDDEN
 62
     7
370
     0
100
AcDbLine
 10
135.1833344939
 20
71.9333044157
 30
0.0
 11
135.1833344939
 21
77.6844665424
 31
0.0
  0
LINE
  5
18E
330
1F
100
AcDbEntity
  8
0
  6
HIDDEN
 62
     7
370
     0
100
AcDbLine
 10
123.1833344939
 20
77.648158776
 30
0.0
 11
123.1833344939
 21
72.6942394321
 31
0.0
  0
LINE
  5
18F
330
1F
100
AcDbEntity
  8
0
  6
HIDDEN
 62
     7
370
     0
100
AcDbLine
 10
172.4833344939
 20
103.1463572102
 30
0.0
 11
180.5833344939
 21
103.1463572102
 31
0.0
  0
LINE
  5
190
330
1F
100
AcDbEntity
  8
0
  6
HIDDEN
 62
     7
370
     0
100
AcDbLine
 10
180.5833344939
 20
115.1463572102
 30
0.0
 11
172.4833344939
 21
115.1463572102
 31
0.0
  0
LINE
  5
191
330
1F
100
AcDbEntity
  8
0
  6
HIDDEN
 62
     7
370
     0
100
AcDbLine
 10
189.5333344939
 20
132.1463572102
 30
0.0
 11
189.5333344939
 21
123.1463572102
 31
0.0
  0
LINE
  5
192
330
1F
100
AcDbEntity
  8
0
  6
HIDDEN
 62
     7
370
     0
100
AcDbLine
 10
200.5333344939
 20
123.1433885147
 30
0.0
 11
200.5333344939
 21
132.1463572102
 31
0.0
  0
DIMENSION
  5
193
330
1F
100
AcDbEntity
  8
VERMASSUNG
100
AcDbDimension
  2
_D
 10
84.0837154929
 20
58.9963572102
 30
0.0
 11
84.0837154929
 21
109.1463572102
 31
0.0
 70
   160
  1
HSK A %%c<>
 71
     2
 42
-1.0
  3
SLDDIMSTYLE0
100
AcDbAlignedDimension
 13
144.5833344939
 23
159.2963572102
 33
0.0
 14
144.5833344939
 24
58.9963572102
 34
0.0
 50
90.0
100
AcDbRotatedDimension
  0
DIMENSION
  5
1A0
330
1F
100
AcDbEntity
  8
VERMASSUNG
100
AcDbDimension
  2
_D_1
 10
219.0833344939
 20
95.1463572102
 30
0.0
 11
219.0833344939
 21
109.1463572102
 31
0.0
 70
   160
  1
%%c<>
 71
     2
 42
-1.0
  3
SLDDIMSTYLE0
100
AcDbAlignedDimension
 13
208.0833344939
 23
123.1463572102
 33
0.0
 14
208.0833344939
 24
95.1463572102
 34
0.0
 50
90.0
100
AcDbRotatedDimension
  0
DIMENSION
  5
1AB
330
1F
100
AcDbEntity
  8
VERMASSUNG
100
AcDbDimension
  2
_D_2
 10
225.0833344939
 20
84.1463572102
 30
0.0
 11
225.0833344939
 21
109.1463572102
 31
0.0
 70
   160
  1
WH%%c<>
 71
     2
 42
-1.0
  3
SLDDIMSTYLE0
100
AcDbAlignedDimension
 13
208.5833344939
 23
134.1463572102
 33
0.0
 14
208.5833344939
 24
84.1463572102
 34
0.0
 50
90.0
100
AcDbRotatedDimension
  0
DIMENSION
  5
1B7
330
1F
100
AcDbEntity
  8
VERMASSUNG
100
AcDbDimension
  2
_D_3
 10
173.0333344939
 20
163.3371581037
 30
0.0
 11
191.0583344939
 21
163.3371581037
 31
0.0
 70
   160
  1
(<>)
 71
     2
 42
-1.0
  3
SLDDIMSTYLE0
100
AcDbAlignedDimension
 13
209.0833344939
 23
133.6463572102
 33
0.0
 14
173.0333344939
 24
157.2683116592
 34
0.0
100
AcDbRotatedDimension
  0
DIMENSION
  5
1C3
330
1F
100
AcDbEntity
  8
VERMASSUNG
100
AcDbDimension
  2
_D_4
 10
144.0833344939
 20
169.3371581037
 30
0.0
 11
176.5833344939
 21
169.3371581037
 31
0.0
 70
   160
  1
<>
 71
     2
 42
-1.0
  3
SLDDIMSTYLE0
100
AcDbAlignedDimension
 13
209.0833344939
 23
133.6463572102
 33
0.0
 14
144.0833344939
 24
158.7963572102
 34
0.0
100
AcDbRotatedDimension
  0
DIMENSION
  5
1CD
330
1F
100
AcDbEntity
  8
VERMASSUNG
100
AcDbDimension
  2
_D_5
 10
94.2833344939
 20
175.3371581037
 30
0.0
 11
151.6833344939
 21
175.3371581037
 31
0.0
 70
   160
  1
(<>)
 71
     2
 42
-1.0
  3
SLDDIMSTYLE0
100
AcDbAlignedDimension
 13
209.0833344939
 23
133.6463572102
 33
0.0
 14
94.2833344939
 24
139.7005095071
 34
0.0
100
AcDbRotatedDimension
  0
LINE
  5
1D9
330
1F
100
AcDbEntity
  8
VERMASSUNG
  6
CENTERX2
370
     0
100
AcDbLine
 10
90.1856801658
 20
109.1463572102
 30
0.0
 11
212.5197318899
 21
109.1463572102
 31
0.0
  0
LINE
  5
1DA
330
1F
100
AcDbEntity
  8
0
  6
Continuous
 62
     7
370
    15
100
AcDbLine
 10
274.3857312855
 20
32.2753592549
 30
0.0
 11
276.9510377204
 21
32.7980212298
 31
0.0
  0
LINE
  5
1DB
330
1F
100
AcDbEntity
  8
0
  6
Continuous
 62
     7
370
    15
100
AcDbLine
 10
272.6689916009
 20
43.3644368228
 30
0.0
 11
272.4214640136
 21
43.5073779061
 31
0.0
  0
LINE
  5
1DC
330
1F
100
AcDbEntity
  8
0
  6
Continuous
 62
     7
370
    15
100
AcDbLine
 10
268.6731891207
 20
43.5073779061
 30
0.0
 11
268.4256615334
 21
43.3644368228
 31
0.0
  0
LINE
  5
1DD
330
1F
100
AcDbEntity
  8
0
  6
Continuous
 62
     7
370
    15
100
AcDbLine
 10
267.5473265672
 20
42.1400236728
 30
0.0
 11
267.5473265672
 21
41.8134073481
 31
0.0
  0
LINE
  5
1DE
330
1F
100
AcDbEntity
  8
0
  6
Continuous
 62
     7
370
    15
100
AcDbLine
 10
273.5473265672
 20
41.8134073481
 30
0.0
 11
273.5473265672
 21
42.1400236728
 31
0.0
  0
LINE
  5
1DF
330
1F
100
AcDbEntity
  8
0
  6
Continuous
 62
     7
370
    15
100
AcDbLine
 10
240.1740769013
 20
20.7998248946
 30
0.0
 11
245.9456852191
 21
17.4679463337
 31
0.0
  0
LINE
  5
1E0
330
1F
100
AcDbEntity
  8
0
  6
Continuous
 62
     7
370
    15
100
AcDbLine
 10
267.3874355954
 20
62.99655076
 30
0.0
 11
265.2470391222
 21
64.232175343
 31
0.0
  0
LINE
  5
1E1
330
1F
100
AcDbEntity
  8
0
  6
Continuous
 62
     7
370
    15
100
AcDbLine
 10
275.3394115689
 20
19.2475396238
 30
0.0
 11
275.516159533
 21
19.349607224
 31
0.0
  0
LINE
  5
1E2
330
1F
100
AcDbEntity
  8
0
  6
Continuous
 62
     7
370
    15
100
AcDbLine
 10
284.1768097745
 20
34.3519190005
 30
0.0
 11
284.1768097745
 21
34.5560210285
 31
0.0
  0
LINE
  5
1E3
330
1F
100
AcDbEntity
  8
0
  6
Continuous
 62
     7
370
    15
100
AcDbLine
 10
281.5874670887
 20
40.2790811094
 30
0.0
 11
270.0793042249
 21
46.9226021193
 31
0.0
  0
LINE
  5
1E4
330
1F
100
AcDbEntity
  8
0
  6
Continuous
 62
     7
370
    15
100
AcDbLine
 10
257.5803200669
 20
25.2713805598
 30
0.0
 11
269.0884829307
 21
18.6278595498
 31
0.0
  0
SPLINE
  5
1E5
330
1F
100
AcDbEntity
  8
0
  6
Continuous
 62
     7
370
    15
100
AcDbSpline
210
0.0
220
0.0
230
1.0
 70
     8
 71
     3
 72
    14
 73
    10
 74
     0
 42
0.000000001
 43
0.00000001
 40
0.0
 40
0.0
 40
0.0
 40
0.0
 40
0.0434607027919081
 40
0.20158183721579
 40
0.3597281484297466
 40
0.5179038017911981
 40
0.6761121719813925
 40
0.8343552554390867
 40
1.0
 40
1.0
 40
1.0
 40
1.0
 10
236.7546171119833
 20
42.52008423658658
 30
0.0
 10
236.6998464791932
 20
42.36800411818172
 30
0.0
 10
236.4458062986612
 20
41.66261769544404
 30
0.0
 10
236.0765996747314
 20
40.40444264365677
 30
0.0
 10
235.6531310807666
 20
38.7565745368024
 30
0.0
 10
235.3250977792117
 20
37.12779231257467
 30
0.0
 10
235.0885122183547
 20
35.52798700308166
 30
0.0
 10
234.935849021744
 20
33.93622787111467
 30
0.0
 10
234.9165183712889
 20
32.90813045827758
 30
0.0
 10
234.9066321687835
 20
32.38233443076107
 30
0.0
  0
SPLINE
  5
1E6
330
1F
100
AcDbEntity
  8
0
  6
Continuous
 62
     7
370
    15
100
AcDbSpline
210
0.0
220
0.0
230
1.0
 70
     8
 71
     3
 72
    10
 73
     6
 74
     0
 42
0.000000001
 43
0.00000001
 40
0.0
 40
0.0
 40
0.0
 40
0.0
 40
0.1510919131101033
 40
0.6431612927157497
 40
0.9999999999999999
 40
0.9999999999999999
 40
0.9999999999999999
 40
0.9999999999999999
 10
238.0833202234151
 20
45.87980153411446
 30
0.0
 10
238.0059305153224
 20
45.71229319767573
 30
0.0
 10
237.6765014699469
 20
44.99925120894872
 30
0.0
 10
237.2263101526489
 20
43.87562815494113
 30
0.0
 10
236.8942138628761
 20
42.92125514728676
 30
0.0
 10
236.7546171119833
 20
42.52008423658658
 30
0.0
  0
SPLINE
  5
1E7
330
1F
100
AcDbEntity
  8
0
  6
Continuous
 62
     7
370
    15
100
AcDbSpline
210
0.0
220
0.0
230
1.0
 70
     8
 71
     3
 72
    19
 73
    15
 74
     0
 42
0.000000001
 43
0.00000001
 40
0.0
 40
0.0
 40
0.0
 40
0.0
 40
0.029463274123468
 40
0.1243324697545313
 40
0.219271061524671
 40
0.3142485181377309
 40
0.4092422600807222
 40
0.5042341077657516
 40
0.5992154782791025
 40
0.6941824036925559
 40
0.7891335233198341
 40
0.8840691815542607
 40
0.9789907973105325
 40
1.0
 40
1.0
 40
1.0
 40
1.0
 10
257.4071218376971
 20
65.0048026591748
 30
0.0
 10
257.2787541645807
 20
64.97588283090631
 30
0.0
 10
256.7370536811817
 20
64.8538436556799
 30
0.0
 10
255.7586682665032
 20
64.51837236774787
 30
0.0
 10
254.479482836434
 20
63.99898219571339
 30
0.0
 10
253.1894954011845
 20
63.35766430972634
 30
0.0
 10
251.8977937516948
 20
62.60888594201474
 30
0.0
 10
250.6106394451055
 20
61.75377117199129
 30
0.0
 10
249.3348484478234
 20
60.79787808567858
 30
0.0
 10
248.0773675001799
 20
59.74559227854015
 30
0.0
 10
246.8434327042156
 20
58.6045257951987
 30
0.0
 10
245.6442958475407
 20
57.37339365674575
 30
0.0
 10
244.7733027952706
 20
56.42006362323698
 30
0.0
 10
244.3184326054858
 20
55.85828211993303
 30
0.0
 10
244.2360001673928
 20
55.75647501093181
 30
0.0
  0
SPLINE
  5
1E8
330
1F
100
AcDbEntity
  8
0
  6
Continuous
 62
     7
370
    15
100
AcDbSpline
210
0.0
220
0.0
230
1.0
 70
     8
 71
     3
 72
    12
 73
     8
 74
     0
 42
0.000000001
 43
0.00000001
 40
0.0
 40
0.0
 40
0.0
 40
0.0
 40
0.1462904636961065
 40
0.4242081837861706
 40
0.7021974897284774
 40
0.9801505842995013
 40
1.0
 40
1.0
 40
1.0
 40
1.0
 10
234.9066321687835
 20
32.38233443076107
 30
0.0
 10
234.9093028014724
 20
32.12222641350196
 30
0.0
 10
234.9170470126392
 20
31.36797390242287
 30
0.0
 10
234.9996116183651
 20
30.1602989061595
 30
0.0
 10
235.1968135195549
 20
28.79700335980209
 30
0.0
 10
235.3723954897142
 20
27.88278286310785
 30
0.0
 10
235.5072704225708
 20
27.44832190287024
 30
0.0
 10
235.5162602346695
 20
27.41936379839513
 30
0.0
  0
SPLINE
  5
1E9
330
1F
100
AcDbEntity
  8
0
  6
Continuous
 62
     7
370
    15
100
AcDbSpline
210
0.0
220
0.0
230
1.0
 70
     8
 71
     3
 72
    25
 73
    21
 74
     0
 42
0.000000001
 43
0.00000001
 40
0.0
 40
0.0
 40
0.0
 40
0.0
 40
0.0294486210492961
 40
0.0916401380777874
 40
0.1522456481155429
 40
0.2109142156147812
 40
0.2684626134230209
 40
0.3255748569361457
 40
0.382601606765108
 40
0.4396684259293128
 40
0.4968464857137215
 40
0.5541410077527466
 40
0.6115281367078205
 40
0.6689723378228448
 40
0.7264337956797565
 40
0.7838627296833457
 40
0.8412117596600235
 40
0.8984396490898648
 40
0.9555099223088166
 40
1.0
 40
1.0
 40
1.0
 40
1.0
 10
271.6217721719243
 20
23.5351834165988
 30
0.0
 10
271.5512031290324
 20
23.57481540477157
 30
0.0
 10
271.3316017825445
 20
23.69814480829001
 30
0.0
 10
271.0343787605389
 20
24.02405170089275
 30
0.0
 10
270.7338885889347
 20
24.50659686189248
 30
0.0
 10
270.5184980003305
 20
25.08962494878689
 30
0.0
 10
270.3873196944085
 20
25.75192510040823
 30
0.0
 10
270.343193115255
 20
26.48470343457003
 30
0.0
 10
270.3874151564204
 20
27.27553191874923
 30
0.0
 10
270.5205002981913
 20
28.11047970604713
 30
0.0
 10
270.7411074649415
 20
28.97386104824999
 30
0.0
 10
271.046026672051
 20
29.84920876297777
 30
0.0
 10
271.4300875223071
 20
30.7195183170322
 30
0.0
 10
271.8862777941229
 20
31.56778537946825
 30
0.0
 10
272.405887750502
 20
32.37747124211445
 30
0.0
 10
272.9786617775804
 20
33.13263523995496
 30
0.0
 10
273.5930929849769
 20
33.81932824858537
 30
0.0
 10
274.2363262873054
 20
34.4222338582129
 30
0.0
 10
274.8478825950086
 20
34.9014947902546
 30
0.0
 10
275.2395861955952
 20
35.14144090583211
 30
0.0
 10
275.4111779975714
 20
35.24655300152769
 30
0.0
  0
SPLINE
  5
1EA
330
1F
100
AcDbEntity
  8
0
  6
Continuous
 62
     7
370
    15
100
AcDbSpline
210
0.0
220
0.0
230
1.0
 70
     8
 71
     3
 72
    14
 73
    10
 74
     0
 42
0.000000001
 43
0.00000001
 40
0.0
 40
0.0
 40
0.0
 40
0.0
 40
0.087972042674464
 40
0.2558751843673011
 40
0.423698805409554
 40
0.5921073501113486
 40
0.7626499380376667
 40
0.9376871574927634
 40
1.0
 40
1.0
 40
1.0
 40
1.0
 10
275.4111779975714
 20
35.24655300152769
 30
0.0
 10
275.5251551684277
 20
35.30958267416482
 30
0.0
 10
275.8566687802516
 20
35.49291056580325
 30
0.0
 10
276.3951923450122
 20
35.71497468276102
 30
0.0
 10
277.005231329318
 20
35.87268969660168
 30
0.0
 10
277.5745117828902
 20
35.92086857160832
 30
0.0
 10
278.0911014810511
 20
35.85534233234933
 30
0.0
 10
278.4641586861563
 20
35.74337762229811
 30
0.0
 10
278.6450106399881
 20
35.6158971434134
 30
0.0
 10
278.6924907174023
 20
35.58242897855254
 30
0.0
  0
LINE
  5
1EB
330
1F
100
AcDbEntity
  8
0
  6
Continuous
 62
     7
370
    15
100
AcDbLine
 10
253.4284618768
 20
63.4583910417
 30
0.0
 11
244.213685359
 21
68.0494468533
 31
0.0
  0
LINE
  5
1EC
330
1F
100
AcDbEntity
  8
0
  6
Continuous
 62
     7
370
    15
100
AcDbLine
 10
226.3500157804
 20
37.1053106719
 30
0.0
 11
234.931924249
 21
31.422727322
 31
0.0
  0
SPLINE
  5
1ED
330
1F
100
AcDbEntity
  8
0
  6
Continuous
 62
     7
370
    15
100
AcDbSpline
210
0.0
220
0.0
230
1.0
 70
     8
 71
     3
 72
    19
 73
    15
 74
     0
 42
0.000000001
 43
0.00000001
 40
0.0
 40
0.0
 40
0.0
 40
0.0
 40
0.0391933943910006
 40
0.1258366123437726
 40
0.2128073785118791
 40
0.3000919433582143
 40
0.3876387162815931
 40
0.475380030471404
 40
0.563249340483661
 40
0.6511909343357514
 40
0.7391631604659186
 40
0.8271323235161141
 40
0.9150823501251513
 40
1.0
 40
1.0
 40
1.0
 40
1.0
 10
252.9666135215785
 20
14.12694972002392
 30
0.0
 10
253.1316777095542
 20
14.09660440969782
 30
0.0
 10
253.661642479304
 20
13.99917597535856
 30
0.0
 10
254.6057955109736
 20
13.96328614705857
 30
0.0
 10
255.7907385442001
 20
14.01478668500868
 30
0.0
 10
257.0138020580215
 20
14.19430233954698
 30
0.0
 10
258.2650674062746
 20
14.49242092946284
 30
0.0
 10
259.538559783557
 20
14.91005232225309
 30
0.0
 10
260.8269918259925
 20
15.44422687670736
 30
0.0
 10
262.1233077862547
 20
16.09224998823792
 30
0.0
 10
263.4206391091822
 20
16.84971760628491
 30
0.0
 10
264.7114177987054
 20
17.71475145205964
 30
0.0
 10
265.9767782343395
 20
18.66262659134144
 30
0.0
 10
266.7984242308317
 20
19.36959562106647
 30
0.0
 10
267.2020407337567
 20
19.71687944971298
 30
0.0
  0
SPLINE
  5
1EE
330
1F
100
AcDbEntity
  8
0
  6
Continuous
 62
     7
370
    15
100
AcDbSpline
210
0.0
220
0.0
230
1.0
 70
     8
 71
     3
 72
     9
 73
     5
 74
     0
 42
0.000000001
 43
0.00000001
 40
0.0
 40
0.0
 40
0.0
 40
0.0
 40
0.8169404634625265
 40
0.9999999999999999
 40
0.9999999999999999
 40
0.9999999999999999
 40
0.9999999999999999
 10
279.6933361861145
 20
41.37253960449071
 30
0.0
 10
279.7658839534803
 20
41.71734248687447
 30
0.0
 10
279.8546881817082
 20
42.13940859548946
 30
0.0
 10
279.9189004610339
 20
42.5541223265502
 30
0.0
 10
279.9306551311273
 20
42.63003962995391
 30
0.0
  0
LINE
  5
1EF
330
1F
100
AcDbEntity
  8
0
  6
Continuous
 62
     7
370
    15
100
AcDbLine
 10
248.1910508167
 20
16.1717243651
 30
0.0
 11
249.8791174731
 21
15.1972242272
 31
0.0
  0
SPLINE
  5
1F0
330
1F
100
AcDbEntity
  8
0
  6
Continuous
 62
     7
370
    15
100
AcDbSpline
210
0.0
220
0.0
230
1.0
 70
     8
 71
     3
 72
    15
 73
    11
 74
     0
 42
0.000000001
 43
0.00000001
 40
0.0
 40
0.0
 40
0.0
 40
0.0
 40
0.0803943994712578
 40
0.2326032820701802
 40
0.3846904854873089
 40
0.5364644784040218
 40
0.6877951628695012
 40
0.8385721995567798
 40
0.9887447917302284
 40
1.0
 40
1.0
 40
1.0
 40
1.0
 10
279.9448599319624
 20
50.78745987575321
 30
0.0
 10
279.8970834946807
 20
51.0194687415912
 30
0.0
 10
279.7588530185477
 20
51.69073470064087
 30
0.0
 10
279.458439014626
 20
52.74408237118529
 30
0.0
 10
279.0147889750137
 20
53.91486943288842
 30
0.0
 10
278.4800718492584
 20
54.99453649428293
 30
0.0
 10
277.8599758357734
 20
55.97896990327259
 30
0.0
 10
277.154882128354
 20
56.85747367766668
 30
0.0
 10
276.618698050966
 20
57.40145196993954
 30
0.0
 10
276.3202813126117
 20
57.65198891977263
 30
0.0
 10
276.2994748435144
 20
57.66945707297735
 30
0.0
  0
SPLINE
  5
1F1
330
1F
100
AcDbEntity
  8
0
  6
Continuous
 62
     7
370
    15
100
AcDbSpline
210
0.0
220
0.0
230
1.0
 70
     8
 71
     3
 72
    29
 73
    25
 74
     0
 42
0.000000001
 43
0.00000001
 40
0.0
 40
0.0
 40
0.0
 40
0.0
 40
0.0261723510244498
 40
0.0727320443034262
 40
0.1195270053338725
 40
0.1667503704313527
 40
0.2144922410956274
 40
0.2627366405065574
 40
0.3113901994574876
 40
0.3603263897671162
 40
0.4094242904220377
 40
0.4585898557894899
 40
0.5077489859111247
 40
0.5568705095622337
 40
0.6059428407918807
 40
0.6549649861407582
 40
0.7039422041072526
 40
0.7528832452800984
 40
0.8017987176410638
 40
0.8507001807884174
 40
0.8995996807890503
 40
0.948507591531361
 40
0.9974342093003719
 40
1.0
 40
1.0
 40
1.0
 40
1.0
 10
244.0055652906021
 20
68.13092778505603
 30
0.0
 10
243.8470197406363
 20
68.20592338485353
 30
0.0
 10
243.4064272255256
 20
68.41433352278654
 30
0.0
 10
242.620722859766
 20
68.62572330238959
 30
0.0
 10
241.6632966560766
 20
68.77386837872551
 30
0.0
 10
240.6599552976829
 20
68.7956491004898
 30
0.0
 10
239.6197282494357
 20
68.69725651531284
 30
0.0
 10
238.548358144989
 20
68.47634728881582
 30
0.0
 10
237.4541302106374
 20
68.13421919173948
 30
0.0
 10
236.3458673318496
 20
67.67305828830963
 30
0.0
 10
235.2327528353933
 20
67.09675104960836
 30
0.0
 10
234.1238277863657
 20
66.41041706607609
 30
0.0
 10
233.0276687860431
 20
65.62009968095578
 30
0.0
 10
231.9523383379222
 20
64.73247982401004
 30
0.0
 10
230.905376509292
 20
63.75464844759173
 30
0.0
 10
229.8940064795448
 20
62.69413547849652
 30
0.0
 10
228.9251579289891
 20
61.55890336904224
 30
0.0
 10
228.0055596442808
 20
60.35731809571744
 30
0.0
 10
227.1413676600448
 20
59.09814127615336
 30
0.0
 10
226.3394389320533
 20
57.79040093955812
 30
0.0
 10
225.6024297596344
 20
56.44368103431083
 30
0.0
 10
224.9469467288702
 20
55.06685449368342
 30
0.0
 10
224.5287993269086
 20
54.11318000793484
 30
0.0
 10
224.3524613315797
 20
53.62088159426333
 30
0.0
 10
224.343674669587
 20
53.59635109105314
 30
0.0
  0
LINE
  5
1F2
330
1F
100
AcDbEntity
  8
0
  6
Continuous
 62
     7
370
    15
100
AcDbLine
 10
224.613528405
 20
50.8252783939
 30
0.0
 11
228.3735486037
 21
48.654664936
 31
0.0
  0
LINE
  5
1F3
330
1F
100
AcDbEntity
  8
0
  6
Continuous
 62
     7
370
    15
100
AcDbLine
 10
224.1080887127
 20
52.607840343
 30
0.0
 11
224.1080887127
 21
51.9424197217
 31
0.0
  0
LINE
  5
1F4
330
1F
100
AcDbEntity
  8
0
  6
Continuous
 62
     7
370
    15
100
AcDbLine
 10
224.1080887127
 20
40.4488441879
 30
0.0
 11
224.1080887127
 21
39.7841270327
 31
0.0
  0
SPLINE
  5
1F5
330
1F
100
AcDbEntity
  8
0
  6
Continuous
 62
     7
370
    15
100
AcDbSpline
210
0.0
220
0.0
230
1.0
 70
     8
 71
     3
 72
    11
 73
     7
 74
     0
 42
0.000000001
 43
0.00000001
 40
0.0
 40
0.0
 40
0.0
 40
0.0
 40
0.2803374961339422
 40
0.6090326048392892
 40
0.9339070171607559
 40
1.0
 40
1.0
 40
1.0
 40
1.0
 10
224.2320841937818
 20
39.33350638720594
 30
0.0
 10
224.3871050642239
 20
39.09268228805764
 30
0.0
 10
224.7238875704239
 20
38.56949245282314
 30
0.0
 10
225.3548440827871
 20
37.89243125468533
 30
0.0
 10
225.8780082247078
 20
37.41373623593214
 30
0.0
 10
226.2018719532056
 20
37.21501812843873
 30
0.0
 10
226.2566210706891
 20
37.1814248604809
 30
0.0
  0
LWPOLYLINE
  5
1F6
330
1F
100
AcDbEntity
  8
0
  6
Continuous
 62
     7
370
    15
100
AcDbPolyline
 90
        8
 70
   128
 43
0.0
 10
274.8836075631
 20
32.7041700725
 10
274.8574209471
 20
32.6480724408
 10
274.6507954827
 20
32.3944637494
 10
274.3615639597
 20
32.2708695903
 10
274.013158196
 20
32.2873028272
 10
273.6338039545
 20
32.442432137
 10
273.2542342597
 20
32.7236898656
 10
272.9418145277
 20
33.0610404533
  0
LWPOLYLINE
  5
1F7
330
1F
100
AcDbEntity
  8
0
  6
Continuous
 62
     7
370
    15
100
AcDbPolyline
 90
        9
 70
   128
 43
0.0
 10
272.3404140178
 20
40.7515492265
 10
272.8306579997
 20
41.0166986849
 10
273.2064062093
 20
41.3381763487
 10
273.4488170622
 20
41.6998619857
 10
273.5457350661
 20
42.0836191675
 10
273.4923003477
 20
42.4702047068
 10
273.2911923467
 20
42.8402335903
 10
272.9524954582
 20
43.1751510247
 10
272.6689916009
 20
43.3644368228
  0
LWPOLYLINE
  5
1F8
330
1F
100
AcDbEntity
  8
0
  6
Continuous
 62
     7
370
    15
100
AcDbPolyline
 90
       15
 70
   128
 43
0.0
 10
268.4256615334
 20
43.3644368228
 10
268.2639951346
 20
43.2633486607
 10
267.8882469251
 20
42.9418709969
 10
267.6458360721
 20
42.58018536
 10
267.5489180682
 20
42.1964281781
 10
267.6023527867
 20
41.8098426388
 10
267.8034607876
 20
41.4398137553
 10
268.1421576761
 20
41.1048963209
 10
268.601459776
 20
40.8218844942
 10
269.1583357619
 20
40.60496967
 10
269.7848615468
 20
40.4650288633
 10
270.4496205116
 20
40.4090792905
 10
271.119278866
 20
40.4399264969
 10
271.7602571438
 20
40.5560236747
 10
272.3404140178
 20
40.7515492265
  0
LWPOLYLINE
  5
1F9
330
1F
100
AcDbEntity
  8
0
  6
Continuous
 62
     7
370
    15
100
AcDbPolyline
 90
       27
 70
   128
 43
0.0
 10
272.1312204819
 20
41.1993271961
 10
272.5936372919
 20
41.4537879109
 10
272.9371299607
 20
41.7647391883
 10
273.1417359428
 20
42.1141096702
 10
273.1955642823
 20
42.4815952142
 10
273.0954866718
 20
42.8458388961
 10
272.8473192582
 20
43.1856721971
 10
272.4654846294
 20
43.4813452411
 10
271.9721736264
 20
43.7156745855
 10
271.3960556913
 20
43.8750418604
 10
270.7706127046
 20
43.9501852192
 10
270.1321931392
 20
43.936737603
 10
269.5178996196
 20
43.8354805384
 10
268.9634326525
 20
43.6522987179
 10
268.5010158424
 20
43.397838003
 10
268.1575231736
 20
43.0868867256
 10
267.9529171915
 20
42.7375162437
 10
267.899088852
 20
42.3700306998
 10
267.9991664625
 20
42.0057870179
 10
268.2473338762
 20
41.6659537168
 10
268.6291685049
 20
41.3702806728
 10
269.122479508
 20
41.1359513285
 10
269.698597443
 20
40.9765840535
 10
270.3240404297
 20
40.9014406947
 10
270.9624599952
 20
40.9148883109
 10
271.5767535147
 20
41.0161453755
 10
272.1312204819
 20
41.1993271961
  0
LWPOLYLINE
  5
1FA
330
1F
100
AcDbEntity
  8
0
  6
Continuous
 62
     7
370
    15
100
AcDbPolyline
 90
       22
 70
   128
 43
0.0
 10
271.6231790375
 20
41.5927282892
 10
272.0007435165
 20
41.8128053894
 10
272.2491655212
 20
42.0873509022
 10
272.3463716666
 20
42.3919702538
 10
272.2837247598
 20
42.6995966781
 10
272.0667912536
 20
42.9828962173
 10
271.7148466419
 20
43.2166964641
 10
271.259162748
 20
43.3802232406
 10
270.7402290856
 20
43.458946475
 10
270.2041551879
 20
43.4458712625
 10
269.6985735732
 20
43.3421593931
 10
269.2684073868
 20
43.1570261215
 10
268.9518787819
 20
42.9069213514
 10
268.7771127143
 20
42.6140679891
 10
268.759637916
 20
42.3044873411
 10
268.9010070994
 20
42.0056870065
 10
269.1886589924
 20
41.7442167062
 10
269.5970344617
 20
41.543309224
 10
270.089847555
 20
41.4208160713
 10
270.623309666
 20
41.3876213022
 10
271.1500203453
 20
41.4466744176
 10
271.6231790375
 20
41.5927282892
  0
SPLINE
  5
1FB
330
1F
100
AcDbEntity
  8
0
  6
Continuous
 62
     7
370
    15
100
AcDbSpline
210
0.0
220
0.0
230
1.0
 70
     8
 71
     3
 72
    11
 73
     7
 74
     0
 42
0.000000001
 43
0.00000001
 40
0.0
 40
0.0
 40
0.0
 40
0.0
 40
0.2164553779443549
 40
0.4403112895790575
 40
0.7519005688038913
 40
1.0
 40
1.0
 40
1.0
 40
1.0
 10
272.1381827458243
 20
41.97490797271269
 30
0.0
 10
272.1243297077508
 20
41.99857113303744
 30
0.0
 10
272.0961500010756
 20
42.04670648886487
 30
0.0
 10
272.0438559918191
 20
42.22827958417124
 30
0.0
 10
271.9877612864445
 20
42.54908055476356
 30
0.0
 10
271.9518640434683
 20
42.83930826346919
 30
0.0
 10
271.9359514738593
 20
42.96796072350017
 30
0.0
  0
SPLINE
  5
1FC
330
1F
100
AcDbEntity
  8
0
  6
Continuous
 62
     7
370
    15
100
AcDbSpline
210
0.0
220
0.0
230
1.0
 70
     8
 71
     3
 72
    11
 73
     7
 74
     0
 42
0.000000001
 43
0.00000001
 40
0.0
 40
0.0
 40
0.0
 40
0.0
 40
0.2164553779443613
 40
0.4403112895790666
 40
0.7519005688038845
 40
1.0
 40
1.0
 40
1.0
 40
1.0
 10
271.9359514738593
 20
42.96796072350017
 30
0.0
 10
271.8269762842248
 20
42.95068557748701
 30
0.0
 10
271.6053000813243
 20
42.91554465425858
 30
0.0
 10
271.1939282547816
 20
42.94257921735154
 30
0.0
 10
270.7526581793488
 20
43.09760989117806
 30
0.0
 10
270.4702718291541
 20
43.28175456439009
 30
0.0
 10
270.3450952952052
 20
43.36338241900117
 30
0.0
  0
SPLINE
  5
1FD
330
1F
100
AcDbEntity
  8
0
  6
Continuous
 62
     7
370
    15
100
AcDbSpline
210
0.0
220
0.0
230
1.0
 70
     8
 71
     3
 72
    11
 73
     7
 74
     0
 42
0.000000001
 43
0.00000001
 40
0.0
 40
0.0
 40
0.0
 40
0.0
 40
0.184930816824611
 40
0.5198464202157801
 40
0.8714438233692671
 40
0.9999999999999999
 40
0.9999999999999999
 40
0.9999999999999999
 40
0.9999999999999999
 10
270.3450952952052
 20
43.36338241900117
 30
0.0
 10
270.2642705406426
 20
43.29038094144371
 30
0.0
 10
270.0370695795177
 20
43.08517146132397
 30
0.0
 10
269.6129555979722
 20
42.82327302567499
 30
0.0
 10
269.2212689834175
 20
42.75189364680917
 30
0.0
 10
269.0123944057984
 20
42.76282468957574
 30
0.0
 10
268.956470388516
 20
42.76575136371465
 30
0.0
  0
SPLINE
  5
1FE
330
1F
100
AcDbEntity
  8
0
  6
Continuous
 62
     7
370
    15
100
AcDbSpline
210
0.0
220
0.0
230
1.0
 70
     8
 71
     3
 72
    11
 73
     7
 74
     0
 42
0.000000001
 43
0.00000001
 40
0.0
 40
0.0
 40
0.0
 40
0.0
 40
0.216455377944339
 40
0.4403112895790447
 40
0.7519005688038841
 40
0.9999999999999999
 40
0.9999999999999999
 40
0.9999999999999999
 40
0.9999999999999999
 10
268.956470388516
 20
42.76575136371465
 30
0.0
 10
268.9703234265896
 20
42.65336437282372
 30
0.0
 10
268.9985031332648
 20
42.42474791911832
 30
0.0
 10
269.0507971425213
 20
42.09274357175447
 30
0.0
 10
269.1068918478958
 20
41.8626406100763
 30
0.0
 10
269.1427890908721
 20
41.80032288367801
 30
0.0
 10
269.1587016604811
 20
41.77269861292717
 30
0.0
  0
LINE
  5
1FF
330
1F
100
AcDbEntity
  8
0
  6
Continuous
 62
     7
370
    15
100
AcDbLine
 10
269.1587016605
 20
41.7726986129
 30
0.0
 11
269.4056149818
 21
41.6205334809
 31
0.0
  0
SPLINE
  5
200
330
1F
100
AcDbEntity
  8
0
  6
Continuous
 62
     7
370
    15
100
AcDbSpline
210
0.0
220
0.0
230
1.0
 70
     8
 71
     3
 72
    10
 73
     6
 74
     0
 42
0.000000001
 43
0.00000001
 40
0.0
 40
0.0
 40
0.0
 40
0.0
 40
0.0617370775640137
 40
0.5126572169521193
 40
1.0
 40
1.0
 40
1.0
 40
1.0
 10
271.619500319528
 20
41.57806494815321
 30
0.0
 10
271.6307693106832
 20
41.58365618633194
 30
0.0
 10
271.7243456487836
 20
41.63008515117964
 30
0.0
 10
271.9011780826075
 20
41.76389809285501
 30
0.0
 10
272.0571627893784
 20
41.90277432334185
 30
0.0
 10
272.1381827458243
 20
41.97490797271269
 30
0.0
  0
LINE
  5
201
330
1F
100
AcDbEntity
  8
0
  6
Continuous
 62
     7
370
    15
100
AcDbLine
 10
271.9359514739
 20
41.7997788242
 30
0.0
 11
271.9359514739
 21
42.9679607235
 31
0.0
  0
LINE
  5
202
330
1F
100
AcDbEntity
  8
0
  6
Continuous
 62
     7
370
    15
100
AcDbLine
 10
270.3450952952
 20
41.3932741294
 30
0.0
 11
270.3450952952
 21
43.363382419
 31
0.0
  0
SPLINE
  5
203
330
1F
100
AcDbEntity
  8
0
  6
Continuous
 62
     7
370
    15
100
AcDbSpline
210
0.0
220
0.0
230
1.0
 70
     8
 71
     3
 72
    14
 73
    10
 74
     0
 42
0.000000001
 43
0.00000001
 40
0.0
 40
0.0
 40
0.0
 40
0.0
 40
0.25
 40
0.25
 40
0.5
 40
0.5
 40
0.75
 40
0.75
 40
1.0
 40
1.0
 40
1.0
 40
1.0
 10
245.8327913113311
 20
31.42311899071713
 30
0.0
 10
245.7857217974291
 20
31.39594633872764
 30
0.0
 10
245.7299885304362
 20
31.37413161764976
 30
0.0
 10
245.6082554438554
 20
31.34393693306532
 30
0.0
 10
245.5420260907505
 20
31.33561864794164
 30
0.0
 10
245.4099563906197
 20
31.33419103081584
 30
0.0
 10
245.3429670308074
 20
31.34114231686121
 30
0.0
 10
245.2203679942043
 20
31.36935086336484
 30
0.0
 10
245.1634593055301
 20
31.39090804782457
 30
0.0
 10
245.11667340015
 20
31.41791697609928
 30
0.0
  0
SPLINE
  5
204
330
1F
100
AcDbEntity
  8
0
  6
Continuous
 62
     7
370
    15
100
AcDbSpline
210
0.0
220
0.0
230
1.0
 70
     8
 71
     3
 72
    14
 73
    10
 74
     0
 42
0.000000001
 43
0.00000001
 40
0.0
 40
0.0
 40
0.0
 40
0.0
 40
0.25
 40
0.25
 40
0.5
 40
0.5
 40
0.75
 40
0.75
 40
1.0
 40
1.0
 40
1.0
 40
1.0
 10
273.4994973786241
 20
59.29305977842903
 30
0.0
 10
273.5525787251337
 20
59.26241656934808
 30
0.0
 10
273.6059973333567
 20
59.21282223815736
 30
0.0
 10
273.696911983977
 20
59.09623261417265
 30
0.0
 10
273.7352431267194
 20
59.02927589486717
 30
0.0
 10
273.7950904477856
 20
58.89344493983808
 30
0.0
 10
273.8170744552304
 20
58.82382028139371
 30
0.0
 10
273.8459373686946
 20
58.68949213492199
 30
0.0
 10
273.8530507692173
 20
58.62357801281841
 30
0.0
 10
273.8530507692173
 20
58.56242742423927
 30
0.0
  0
LINE
  5
205
330
1F
100
AcDbEntity
  8
0
  6
Continuous
 62
     7
370
    15
100
AcDbLine
 10
245.1166734002
 20
31.4179169761
 30
0.0
 11
243.4286067437
 21
32.392417114
 31
0.0
  0
LWPOLYLINE
  5
206
330
1F
100
AcDbEntity
  8
0
  6
Continuous
 62
     7
370
    15
100
AcDbPolyline
 90
       27
 70
   128
 43
0.0
 10
243.4286067437
 20
32.392417114
 10
243.7836313734
 20
34.1379778139
 10
244.2413806647
 20
35.9062729157
 10
244.7990794513
 20
37.6865818941
 10
245.4533466097
 20
39.4681113878
 10
246.2002155579
 20
41.2400606364
 10
247.0351583032
 20
42.9916869606
 10
247.9531128934
 20
44.7123708918
 10
248.9485141062
 20
46.3916805536
 10
250.0153271887
 20
48.0194349069
 10
251.1470844442
 20
49.5857654733
 10
252.3369244428
 20
51.0811761645
 10
253.5776336207
 20
52.4966008531
 10
254.8616900126
 20
53.8234583381
 10
256.181308855
 20
55.0537043684
 10
257.5284897824
 20
56.1798804131
 10
258.8950653303
 20
57.1951588795
 10
260.2727504518
 20
58.0933845061
 10
261.6531927469
 20
58.8691116801
 10
263.0280230995
 20
59.5176374518
 10
264.3889064169
 20
60.035030047
 10
265.7275921621
 20
60.418152704
 10
267.035964374
 20
60.6646826904
 10
268.3060908711
 20
60.7731253853
 10
269.5302713417
 20
60.7428233403
 10
270.7010840282
 20
60.5739602657
 10
271.8114307222
 20
60.2675599164
  0
LINE
  5
207
330
1F
100
AcDbEntity
  8
0
  6
Continuous
 62
     7
370
    15
100
AcDbLine
 10
271.8114307222
 20
60.2675599164
 30
0.0
 11
273.4994973786
 21
59.2930597784
 31
0.0
  0
LINE
  5
208
330
1F
100
AcDbEntity
  8
0
  6
Continuous
 62
     7
370
    15
100
AcDbLine
 10
278.2901458212
 20
49.7520805101
 30
0.0
 11
279.7828321316
 21
50.6137899751
 31
0.0
  0
LINE
  5
209
330
1F
100
AcDbEntity
  8
0
  6
Continuous
 62
     7
370
    15
100
AcDbLine
 10
278.2901458212
 20
42.1825841599
 30
0.0
 11
278.2901458212
 21
49.7520805101
 31
0.0
  0
LINE
  5
20A
330
1F
100
AcDbEntity
  8
0
  6
Continuous
 62
     7
370
    15
100
AcDbLine
 10
279.7828321316
 20
42.4483818562
 30
0.0
 11
278.8062764751
 21
41.8846282756
 31
0.0
  0
LINE
  5
20B
330
1F
100
AcDbEntity
  8
0
  6
Continuous
 62
     7
370
    15
100
AcDbLine
 10
245.8327913113
 20
22.44117006
 30
0.0
 11
247.2481581271
 21
23.2582439308
 31
0.0
  0
LINE
  5
20C
330
1F
100
AcDbEntity
  8
0
  6
Continuous
 62
     7
370
    15
100
AcDbLine
 10
247.2481581271
 20
23.2582439308
 30
0.0
 11
247.2481581271
 21
32.2401928615
 31
0.0
  0
LINE
  5
20D
330
1F
100
AcDbEntity
  8
0
  6
Continuous
 62
     7
370
    15
100
AcDbLine
 10
247.2481581271
 20
32.2401928615
 30
0.0
 11
245.8327913113
 21
31.4231189907
 31
0.0
  0
LINE
  5
20E
330
1F
100
AcDbEntity
  8
0
  6
Continuous
 62
     7
370
    15
100
AcDbLine
 10
273.8530507692
 20
58.5624274242
 30
0.0
 11
273.8530507692
 21
55.9071732261
 31
0.0
  0
LINE
  5
20F
330
1F
100
AcDbEntity
  8
0
  6
Continuous
 62
     7
370
    15
100
AcDbLine
 10
276.1524437964
 20
57.234584566
 30
0.0
 11
273.8530507692
 21
55.9071732261
 31
0.0
  0
LWPOLYLINE
  5
210
330
1F
100
AcDbEntity
  8
0
  6
Continuous
 62
     7
370
    15
100
AcDbPolyline
 90
       25
 70
   128
 43
0.0
 10
242.4258103747
 20
33.8894068079
 10
242.7837688127
 20
35.5844959587
 10
243.2422277123
 20
37.3003835404
 10
243.7983333685
 20
39.0263889074
 10
244.448624268
 20
40.7517684356
 10
245.1890526363
 20
42.4657823964
 10
246.0150096322
 20
44.1577618068
 10
246.9213540369
 20
45.8171748391
 10
247.9024442552
 20
47.4336923773
 10
248.9521734318
 20
48.9972523107
 10
250.0640074645
 20
50.4981221664
 10
251.2310256755
 20
51.9269596898
 10
252.4459638897
 20
53.2748709958
 10
253.7012596512
 20
54.5334659294
 10
254.989099296
 20
55.6949102909
 10
256.3014665888
 20
56.7519745998
 10
257.6301926204
 20
57.6980790958
 10
258.9670066558
 20
58.5273346947
 10
260.3035876157
 20
59.2345796451
 10
261.6316158715
 20
59.8154116583
 10
262.9428250314
 20
60.2662153104
 10
264.2290533952
 20
60.584184547
 10
265.482294757
 20
60.7673401496
 10
266.6947482408
 20
60.8145420549
 10
267.7382163514
 20
60.7413518933
  0
SPLINE
  5
211
330
1F
100
AcDbEntity
  8
0
  6
Continuous
 62
     7
370
    15
100
AcDbSpline
210
0.0
220
0.0
230
1.0
 70
     8
 71
     3
 72
     8
 73
     4
 74
     0
 42
0.000000001
 43
0.00000001
 40
0.0
 40
0.0
 40
0.0
 40
0.0
 40
1.0
 40
1.0
 40
1.0
 40
1.0
 10
242.4258103746817
 20
33.88940680787702
 30
0.0
 10
242.0116802977512
 20
33.82236044529269
 30
0.0
 10
241.5974879146696
 20
33.75544334786373
 30
0.0
 10
241.1832411461579
 20
33.6886390826499
 30
0.0
  0
LWPOLYLINE
  5
212
330
1F
100
AcDbEntity
  8
0
  6
Continuous
 62
     7
370
    15
100
AcDbPolyline
 90
       27
 70
   128
 43
0.0
 10
241.1832411462
 20
33.6886390826
 10
241.5382657759
 20
35.4341997825
 10
241.9960150671
 20
37.2024948843
 10
242.5537138537
 20
38.9828038627
 10
243.2079810122
 20
40.7643333564
 10
243.9548499604
 20
42.536282605
 10
244.7897927056
 20
44.2879089292
 10
245.7077472958
 20
46.0085928604
 10
246.7031485086
 20
47.6879025222
 10
247.7699615912
 20
49.3156568755
 10
248.9017188466
 20
50.8819874419
 10
250.0915588452
 20
52.3773981331
 10
251.3322680231
 20
53.7928228218
 10
252.616324415
 20
55.1196803067
 10
253.9359432574
 20
56.349926337
 10
255.2831241848
 20
57.4761023817
 10
256.6496997327
 20
58.4913808481
 10
258.0273848543
 20
59.3896064747
 10
259.4078271493
 20
60.1653336487
 10
260.7826575019
 20
60.8138594204
 10
262.1435408193
 20
61.3312520156
 10
263.4822265646
 20
61.7143746726
 10
264.7905987765
 20
61.960904659
 10
266.0607252735
 20
62.0693473539
 10
267.2849057441
 20
62.0390453089
 10
268.4557184306
 20
61.8701822343
 10
269.5660651246
 20
61.563781885
  0
LINE
  5
213
330
1F
100
AcDbEntity
  8
0
  6
Continuous
 62
     7
370
    15
100
AcDbLine
 10
269.5660651246
 20
61.563781885
 30
0.0
 11
269.8554944468
 21
60.6438244243
 31
0.0
  0
LINE
  5
214
330
1F
100
AcDbEntity
  8
0
  6
Continuous
 62
     7
370
    15
100
AcDbLine
 10
265.3324140559
 20
64.0078166242
 30
0.0
 11
269.5660651246
 21
61.563781885
 31
0.0
  0
LINE
  5
215
330
1F
100
AcDbEntity
  8
0
  6
Continuous
 62
     7
370
    15
100
AcDbLine
 10
241.1832411462
 20
33.6886390826
 30
0.0
 11
240.4851239834
 21
34.0916535423
 31
0.0
  0
SPLINE
  5
216
330
1F
100
AcDbEntity
  8
0
  6
Continuous
 62
     7
370
    15
100
AcDbSpline
210
0.0
220
0.0
230
1.0
 70
     8
 71
     3
 72
    30
 73
    26
 74
     0
 42
0.000000001
 43
0.00000001
 40
0.0
 40
0.0
 40
0.0
 40
0.0
 40
0.1250000000000002
 40
0.1250000000000002
 40
0.1875000000000004
 40
0.1875000000000004
 40
0.2500000000000005
 40
0.2500000000000005
 40
0.3750000000000008
 40
0.3750000000000008
 40
0.4375000000000008
 40
0.4375000000000008
 40
0.5000000000000008
 40
0.5000000000000008
 40
0.6250000000000007
 40
0.6250000000000007
 40
0.6875000000000006
 40
0.6875000000000006
 40
0.7500000000000004
 40
0.7500000000000004
 40
0.8125000000000003
 40
0.8125000000000003
 40
0.8750000000000002
 40
0.8750000000000002
 40
1.0
 40
1.0
 40
1.0
 40
1.0
 10
240.4851239833781
 20
34.09165354231866
 30
0.0
 10
240.2508137012397
 20
34.22691798901244
 30
0.0
 10
240.0153342888918
 20
34.33018887589137
 30
0.0
 10
239.6608365865715
 20
34.43945876848365
 30
0.0
 10
239.5424634311705
 20
34.46822322577226
 30
0.0
 10
239.3054576548679
 20
34.51020390818495
 30
0.0
 10
239.1866643319464
 20
34.52332529674348
 30
0.0
 10
238.8381064467987
 20
34.53862966420076
 30
0.0
 10
238.6134086703826
 20
34.5175921803261
 30
0.0
 10
238.2893085763016
 20
34.44065627446687
 30
0.0
 10
238.1829317686554
 20
34.40717137854558
 30
0.0
 10
237.9776968051006
 20
34.32567842354774
 30
0.0
 10
237.8791402314865
 20
34.27789552936403
 30
0.0
 10
237.5957582487927
 20
34.11429617526686
 30
0.0
 10
237.4230947019431
 20
33.9784288889928
 30
0.0
 10
237.1910860682529
 20
33.73412394118944
 30
0.0
 10
237.1188071945141
 20
33.64632521385972
 30
0.0
 10
236.9865581256713
 20
33.46098165209219
 30
0.0
 10
236.9262374683259
 20
33.36307843397728
 30
0.0
 10
236.8173371496511
 20
33.15702484368801
 30
0.0
 10
236.7687568617863
 20
33.04887451405855
 30
0.0
 10
236.6837752549631
 20
32.82221664672812
 30
0.0
 10
236.6472490813154
 20
32.70309181791468
 30
0.0
 10
236.5583173825262
 20
32.33514399769953
 30
0.0
 10
236.5260098182947
 20
32.07593782835896
 30
0.0
 10
236.5213380320565
 20
31.80274511896817
 30
0.0
  0
ARC
  5
217
330
1F
100
AcDbEntity
  8
0
  6
Continuous
 62
     7
370
    15
100
AcDbCircle
 10
260.160135552
 20
31.394474713
 30
0.0
 40
23.64232291705749
100
AcDbArc
 50
179.0105314943
 51
180.9894685057
  0
SPLINE
  5
218
330
1F
100
AcDbEntity
  8
0
  6
Continuous
 62
     7
370
    15
100
AcDbSpline
210
0.0
220
0.0
230
1.0
 70
     8
 71
     3
 72
    30
 73
    26
 74
     0
 42
0.000000001
 43
0.00000001
 40
0.0
 40
0.0
 40
0.0
 40
0.0
 40
0.1250000000000001
 40
0.1250000000000001
 40
0.1875000000000001
 40
0.1875000000000001
 40
0.2500000000000003
 40
0.2500000000000003
 40
0.3750000000000006
 40
0.3750000000000006
 40
0.4375000000000007
 40
0.4375000000000007
 40
0.5000000000000007
 40
0.5000000000000007
 40
0.6250000000000008
 40
0.6250000000000008
 40
0.6875000000000007
 40
0.6875000000000007
 40
0.7500000000000006
 40
0.7500000000000006
 40
0.8125000000000004
 40
0.8125000000000004
 40
0.8750000000000004
 40
0.8750000000000004
 40
1.0
 40
1.0
 40
1.0
 40
1.0
 10
236.5213380320565
 20
30.98620430708242
 30
0.0
 10
236.526010156078
 20
30.71838616466309
 30
0.0
 10
236.5582907345931
 20
30.44465862554788
 30
0.0
 10
236.6458862028506
 20
30.02538087899522
 30
0.0
 10
236.6816563057336
 20
29.88415850339437
 30
0.0
 10
236.7664628016848
 20
29.59862996435431
 30
0.0
 10
236.8156856020626
 20
29.45402793524855
 30
0.0
 10
236.9797950872354
 20
29.02487951263025
 30
0.0
 10
237.1117762560619
 20
28.74186299901174
 30
0.0
 10
237.341712446999
 20
28.32078808059506
 30
0.0
 10
237.424135399862
 20
28.18035908821189
 30
0.0
 10
237.5978099280372
 20
27.90364060275915
 30
0.0
 10
237.6885726510918
 20
27.76802919628443
 30
0.0
 10
237.9718507605818
 20
27.36885335603011
 30
0.0
 10
238.1752533798298
 20
27.11287626847288
 30
0.0
 10
238.5010500080028
 20
26.74318320423674
 30
0.0
 10
238.612756744335
 20
26.62284092596849
 30
0.0
 10
238.837996016871
 20
26.39196207837407
 30
0.0
 10
238.9520880163647
 20
26.28078093040518
 30
0.0
 10
239.1829406598206
 20
26.06667448264279
 30
0.0
 10
239.2997015802996
 20
25.96374927163601
 30
0.0
 10
239.5357363346101
 20
25.76616773909601
 30
0.0
 10
239.6555915944394
 20
25.67108686769806
 30
0.0
 10
240.0140224284997
 20
25.4022588116861
 30
0.0
 10
240.2508103256033
 20
25.24497100698263
 30
0.0
 10
240.4851239833781
 20
25.10970461157542
 30
0.0
  0
LINE
  5
219
330
1F
100
AcDbEntity
  8
0
  6
Continuous
 62
     7
370
    15
100
AcDbLine
 10
240.4851239834
 20
25.1097046116
 30
0.0
 11
241.1832411462
 21
24.7066901519
 31
0.0
  0
LWPOLYLINE
  5
21A
330
1F
100
AcDbEntity
  8
0
  6
Continuous
 62
     7
370
    15
100
AcDbPolyline
 90
       10
 70
   128
 43
0.0
 10
247.1187227632
 20
16.9070617779
 10
246.6844228191
 20
17.0890126536
 10
245.6925452641
 20
17.6201043775
 10
244.777855166
 20
18.2813384753
 10
243.9458728293
 20
19.0687242908
 10
243.2016194035
 20
19.9775098218
 10
242.5495865799
 20
21.002210399
 10
241.9937094834
 20
22.1366417864
 10
241.5373429232
 20
23.373957505
 10
241.1832411462
 20
24.7066901519
  0
LINE
  5
21B
330
1F
100
AcDbEntity
  8
0
  6
Continuous
 62
     7
370
    15
100
AcDbLine
 10
271.5361509221
 20
60.4259584749
 30
0.0
 11
271.8091813075
 21
60.2683413884
 31
0.0
  0
SPLINE
  5
21C
330
1F
100
AcDbEntity
  8
0
  6
Continuous
 62
     7
370
    15
100
AcDbSpline
210
0.0
220
0.0
230
1.0
 70
     8
 71
     3
 72
    24
 73
    20
 74
     0
 42
0.000000001
 43
0.00000001
 40
0.0
 40
0.0
 40
0.0
 40
0.0
 40
0.2499999999999992
 40
0.2499999999999992
 40
0.3749999999999983
 40
0.3749999999999983
 40
0.4999999999999974
 40
0.4999999999999974
 40
0.5624999999999977
 40
0.5624999999999977
 40
0.6249999999999979
 40
0.6249999999999979
 40
0.6874999999999981
 40
0.6874999999999981
 40
0.7499999999999983
 40
0.7499999999999983
 40
0.8749999999999992
 40
0.8749999999999992
 40
1.0
 40
1.0
 40
1.0
 40
1.0
 10
265.3324140559195
 20
64.00781662420513
 30
0.0
 10
265.7673031734681
 20
63.84133870172715
 30
0.0
 10
266.221246891197
 20
63.63100123237076
 30
0.0
 10
266.953651385154
 20
63.24349364862631
 30
0.0
 10
267.2082818537166
 20
63.10115654939255
 30
0.0
 10
267.726628212152
 20
62.79903861246472
 30
0.0
 10
267.9913742286287
 20
62.6387941064942
 30
0.0
 10
268.4003327462012
 20
62.38532060116601
 30
0.0
 10
268.539275175474
 20
62.29823752199918
 30
0.0
 10
268.8188453626858
 20
62.12169388836487
 30
0.0
 10
268.9587814341696
 20
62.03268037430658
 30
0.0
 10
269.2393097424455
 20
61.85364063618814
 30
0.0
 10
269.3799013284721
 20
61.76361400257777
 30
0.0
 10
269.6621176486847
 20
61.58300137286417
 30
0.0
 10
269.8042126870228
 20
61.49211495267339
 30
0.0
 10
270.2296377386583
 20
61.22123041291682
 30
0.0
 10
270.5041268079954
 20
61.04814577994802
 30
0.0
 10
271.0361762100002
 20
60.72044751078908
 30
0.0
 10
271.2959632510483
 20
60.56461586598867
 30
0.0
 10
271.5361509220965
 20
60.42595847489812
 30
0.0
  0
ARC
  5
21D
330
1F
100
AcDbEntity
  8
0
  6
Continuous
 62
     7
370
    15
100
AcDbCircle
 10
260.4636161349
 20
55.3527201544
 30
0.0
 40
10.08592385063725
100
AcDbArc
 50
61.6883509923
 51
106.9641445598
  0
ARC
  5
21E
330
1F
100
AcDbEntity
  8
0
  6
Continuous
 62
     7
370
    15
100
AcDbCircle
 10
245.6448382429
 20
29.5235861246
 30
0.0
 40
10.29724427484466
100
AcDbArc
 50
192.2988566905
 51
237.907747943
  0
LWPOLYLINE
  5
21F
330
1F
100
AcDbEntity
  8
0
  6
Continuous
 62
     7
370
    15
100
AcDbPolyline
 90
       58
 70
   128
 43
0.0
 10
275.514751705
 20
39.3540442612
 10
274.5618541066
 20
38.7432390283
 10
273.6205233943
 20
38.0184298266
 10
272.7021860476
 20
37.188414858
 10
271.817989438
 20
36.2632693797
 10
270.9786665146
 20
35.2542234047
 10
270.1944055206
 20
34.1735253842
 10
269.4747263222
 20
33.0342935282
 10
268.8283648499
 20
31.8503565683
 10
268.2631670564
 20
30.6360858952
 10
267.7859936773
 20
29.4062211102
 10
267.402636951
 20
28.1756911055
 10
267.1177503088
 20
26.9594328487
 10
266.9347918887
 20
25.7722100673
 10
266.8559825581
 20
24.6284340376
 10
266.8822789554
 20
23.5419886513
 10
267.013361878
 20
22.5260618836
 10
267.2476401569
 20
21.5929857093
 10
267.582269971
 20
20.7540864091
 10
268.0131893677
 20
20.0195470841
 10
268.5351675694
 20
19.3982840467
 10
269.1418684676
 20
18.8978385886
 10
269.8259275354
 20
18.5242854397
 10
270.5790412224
 20
18.2821590293
 10
271.3920677485
 20
18.1743984439
 10
272.2551380731
 20
18.2023117511
 10
273.1577756916
 20
18.3655601211
 10
274.0890238061
 20
18.66216194
 10
275.0375783259
 20
19.0885168633
 10
275.9919250841
 20
19.6394495199
 10
276.9404796039
 20
20.3082723337
 10
277.8717277184
 20
21.0868667016
 10
278.7743653369
 20
21.9657815428
 10
279.6374356615
 20
22.9343480217
 10
280.4504621876
 20
23.9808090533
 10
281.2035758746
 20
25.0924620183
 10
281.8876349424
 20
26.2558129556
 10
282.4943358406
 20
27.4567403606
 10
283.0163140423
 20
28.6806666016
 10
283.447233439
 20
29.9127348718
 10
283.7818632531
 20
31.1379895316
 10
284.016141532
 20
32.3415576492
 10
284.1472244546
 20
33.5088295379
 10
284.1735208519
 20
34.6256360983
 10
284.0947115213
 20
35.6784208116
 10
283.9117531012
 20
36.6544042975
 10
283.626866459
 20
37.5417394386
 10
283.2435097327
 20
38.3296551883
 10
282.7663363536
 20
39.0085873168
 10
282.2011385601
 20
39.5702945077
 10
281.5547770878
 20
40.0079583966
 10
280.8350978894
 20
40.3162663368
 10
280.0508368954
 20
40.4914758875
 10
279.211513972
 20
40.5314602422
 10
278.3273173624
 20
40.4357340449
 10
277.4089800157
 20
40.205459282
 10
276.4676493034
 20
39.8434311772
 10
275.514751705
 20
39.3540442612
  0
LWPOLYLINE
  5
220
330
1F
100
AcDbEntity
  8
0
  6
Continuous
 62
     7
370
    15
100
AcDbPolyline
 90
       31
 70
   128
 43
0.0
 10
275.3379750097
 20
39.6602304782
 10
274.3823288709
 20
39.0487152398
 10
273.4378868094
 20
38.324704528
 10
272.5157215447
 20
37.4966867061
 10
271.6266446215
 20
36.5743695263
 10
270.7810796537
 20
35.5685663141
 10
269.9889401177
 20
34.4910691925
 10
269.259513125
 20
33.3545108302
 10
268.6013505404
 20
32.1722163348
 10
268.0221687183
 20
30.9580470282
 10
267.5287580361
 20
29.7262379355
 10
267.1269032829
 20
28.491230892
 10
266.8213158382
 20
27.2675052262
 10
266.6155784354
 20
26.0694080025
 10
266.5121031575
 20
24.9109858155
 10
266.5121031575
 20
23.8058201062
 10
266.6155784354
 20
22.7668679321
 10
266.8213158382
 20
21.8063100575
 10
267.1269032829
 20
20.9354081453
 10
267.5287580361
 20
20.1643727239
 10
268.0221687183
 20
19.502243479
 10
268.6013505404
 20
18.9567832703
 10
269.259513125
 20
18.5343871202
 10
269.9889401177
 20
18.2400072373
 10
270.7810796537
 20
18.0770949566
 10
271.6266446215
 20
18.0475602757
 10
272.5157215447
 20
18.1517494615
 10
273.4378868094
 20
18.3884409914
 10
274.3823288709
 20
18.7548598733
 10
275.3379750097
 20
19.246710181
 10
275.3394115689
 20
19.2475396238
  0
LWPOLYLINE
  5
221
330
1F
100
AcDbEntity
  8
0
  6
Continuous
 62
     7
370
    15
100
AcDbPolyline
 90
       16
 70
   128
 43
0.0
 10
284.1768097745
 20
34.5560210285
 10
284.1638468619
 20
35.1011205529
 10
284.060371584
 20
36.140072727
 10
283.8546341812
 20
37.1006306017
 10
283.5490467365
 20
37.9715325139
 10
283.1471919833
 20
38.7425679353
 10
282.6537813011
 20
39.4046971802
 10
282.074599479
 20
39.9501573889
 10
281.4164368944
 20
40.372553539
 10
280.6870099017
 20
40.6669334219
 10
279.8948703657
 20
40.8298457026
 10
279.049305398
 20
40.8593803835
 10
278.1602284747
 20
40.7551911976
 10
277.2380632101
 20
40.5184996678
 10
276.2936211485
 20
40.1520807859
 10
275.3379750097
 20
39.6602304782
  0
SPLINE
  5
222
330
1F
100
AcDbEntity
  8
0
  6
Continuous
 62
     7
370
    15
100
AcDbSpline
210
0.0
220
0.0
230
1.0
 70
    11
 71
     3
 72
    96
 73
    92
 74
     0
 42
0.000000001
 43
0.00000001
 40
0.0
 40
0.0
 40
0.0
 40
0.0
 40
0.0312500000000007
 40
0.0312500000000007
 40
0.0468750000000013
 40
0.0468750000000013
 40
0.0625000000000019
 40
0.0625000000000019
 40
0.0937500000000026
 40
0.0937500000000026
 40
0.109375000000003
 40
0.109375000000003
 40
0.1250000000000033
 40
0.1250000000000033
 40
0.1562500000000036
 40
0.1562500000000036
 40
0.1718750000000035
 40
0.1718750000000035
 40
0.1875000000000034
 40
0.1875000000000034
 40
0.2187500000000027
 40
0.2187500000000027
 40
0.2343750000000024
 40
0.2343750000000024
 40
0.2500000000000021
 40
0.2500000000000021
 40
0.2812500000000014
 40
0.2812500000000014
 40
0.2968750000000009
 40
0.2968750000000009
 40
0.3125000000000004
 40
0.3125000000000004
 40
0.3437499999999996
 40
0.3437499999999996
 40
0.3593749999999993
 40
0.3593749999999993
 40
0.374999999999999
 40
0.374999999999999
 40
0.3906249999999987
 40
0.3906249999999987
 40
0.4062499999999984
 40
0.4062499999999984
 40
0.4374999999999978
 40
0.4374999999999978
 40
0.4531249999999975
 40
0.4531249999999975
 40
0.4687499999999972
 40
0.4687499999999972
 40
0.4999999999999968
 40
0.4999999999999968
 40
0.5312499999999966
 40
0.5312499999999966
 40
0.5468749999999966
 40
0.5468749999999966
 40
0.5624999999999966
 40
0.5624999999999966
 40
0.5937499999999971
 40
0.5937499999999971
 40
0.6249999999999977
 40
0.6249999999999977
 40
0.6562499999999981
 40
0.6562499999999981
 40
0.6874999999999987
 40
0.6874999999999987
 40
0.7187499999999992
 40
0.7187499999999992
 40
0.7499999999999997
 40
0.7499999999999997
 40
0.7656249999999998
 40
0.7656249999999998
 40
0.7812499999999998
 40
0.7812499999999998
 40
0.8125
 40
0.8125
 40
0.828125
 40
0.828125
 40
0.8437500000000001
 40
0.8437500000000001
 40
0.875
 40
0.875
 40
0.8906250000000001
 40
0.8906250000000001
 40
0.9062500000000001
 40
0.9062500000000001
 40
0.9218750000000001
 40
0.9218750000000001
 40
0.9375000000000002
 40
0.9375000000000002
 40
0.9687500000000001
 40
0.9687500000000001
 40
1.0
 40
1.0
 40
1.0
 40
1.0
 10
270.5168181777257
 20
44.25054112108137
 30
0.0
 10
270.7472238198533
 20
44.21147211826964
 30
0.0
 10
270.9715392472776
 20
44.16121817589617
 30
0.0
 10
271.2999751848654
 20
44.07238818197668
 30
0.0
 10
271.4081013103314
 20
44.040509542567
 30
0.0
 10
271.6216968737522
 20
43.97249755856341
 30
0.0
 10
271.7276266490209
 20
43.93619074902603
 30
0.0
 10
272.0378154313951
 20
43.82242060816488
 30
0.0
 10
272.2334498012704
 20
43.74068849673339
 30
0.0
 10
272.5109717696815
 20
43.61057275161307
 30
0.0
 10
272.6008057110536
 20
43.56593173871348
 30
0.0
 10
272.7750492405125
 20
43.47414718601255
 30
0.0
 10
272.8597598605254
 20
43.42680697418934
 30
0.0
 10
273.1012905975364
 20
43.28346569530524
 30
0.0
 10
273.2468179007436
 20
43.18563317922091
 30
0.0
 10
273.4422119305456
 20
43.03508841451386
 30
0.0
 10
273.5035039154164
 20
42.98426361860712
 30
0.0
 10
273.6181712529763
 20
42.88112601251405
 30
0.0
 10
273.6716617609352
 20
42.82864452587073
 30
0.0
 10
273.8169505688808
 20
42.67159672554747
 30
0.0
 10
273.8947989934096
 20
42.56657444788129
 30
0.0
 10
273.9825538494177
 20
42.40684485969485
 30
0.0
 10
274.0069372210527
 20
42.35323011442516
 30
0.0
 10
274.045438813887
 20
42.24487874681716
 30
0.0
 10
274.0595120567659
 20
42.19001471974516
 30
0.0
 10
274.084780252902
 20
42.02683716158371
 30
0.0
 10
274.0797485923896
 20
41.91875834291749
 30
0.0
 10
274.0373561410073
 20
41.75560274922476
 30
0.0
 10
274.0173751962812
 20
41.70104522475185
 30
0.0
 10
273.9647312134343
 20
41.59121315285302
 30
0.0
 10
273.9321108413709
 20
41.53623040107411
 30
0.0
 10
273.8172468218978
 20
41.37434414588818
 30
0.0
 10
273.7175766149699
 20
41.26904115585607
 30
0.0
 10
273.53086386607
 20
41.11401987228061
 30
0.0
 10
273.4617508334941
 20
41.06245689222817
 30
0.0
 10
273.3139021229833
 20
40.96287861397561
 30
0.0
 10
273.2351554423391
 20
40.91474778030005
 30
0.0
 10
273.0682296236232
 20
40.82170588589976
 30
0.0
 10
272.9800501945601
 20
40.7767949424426
 30
0.0
 10
272.7941631916073
 20
40.69027912981223
 30
0.0
 10
272.6958321482791
 20
40.64846463551295
 30
0.0
 10
272.3938884357734
 20
40.53128746698356
 30
0.0
 10
272.1818554912332
 20
40.46317555726959
 30
0.0
 10
271.8485602018642
 20
40.37638275000725
 30
0.0
 10
271.7351953390725
 20
40.35016157563276
 30
0.0
 10
271.5084241000338
 20
40.30410919228233
 30
0.0
 10
271.3944098668516
 20
40.2841138147751
 30
0.0
 10
271.0505043132223
 20
40.23324533511475
 30
0.0
 10
270.8167184042582
 20
40.21144506462394
 30
0.0
 10
270.3591778465629
 20
40.19466941474582
 30
0.0
 10
270.1342698921208
 20
40.19930302330957
 30
0.0
 10
269.802177754932
 20
40.22674361234429
 30
0.0
 10
269.6921391304664
 20
40.23939472532965
 30
0.0
 10
269.4776537618865
 20
40.2713000843099
 30
0.0
 10
269.3727256510059
 20
40.29057710318788
 30
0.0
 10
269.0646335196315
 20
40.35840721635102
 30
0.0
 10
268.8681032888804
 20
40.41689567793869
 30
0.0
 10
268.4929347857769
 20
40.56212206183024
 30
0.0
 10
268.3186313706962
 20
40.64728310775932
 30
0.0
 10
267.9981850976847
 20
40.84070167949181
 30
0.0
 10
267.8515291989669
 20
40.94916743153858
 30
0.0
 10
267.5868657798491
 20
41.19009234238018
 30
0.0
 10
267.4726768445235
 20
41.31905374871736
 30
0.0
 10
267.2797269358817
 20
41.59225225137443
 30
0.0
 10
267.2008239264492
 20
41.7367857345634
 30
0.0
 10
267.0820525025084
 20
42.03921734654455
 30
0.0
 10
267.043768637949
 20
42.19285636469293
 30
0.0
 10
267.0184431392833
 20
42.42526155410593
 30
0.0
 10
267.015389670828
 20
42.50305693876653
 30
0.0
 10
267.0206584603451
 20
42.65903307580059
 30
0.0
 10
267.0290579994441
 20
42.73761559629798
 30
0.0
 10
267.0723287267467
 20
42.97068931318262
 30
0.0
 10
267.1243723678637
 20
43.12011876129463
 30
0.0
 10
267.2386727757669
 20
43.33332667127517
 30
0.0
 10
267.2828573468823
 20
43.40256465562236
 30
0.0
 10
267.3842830836272
 20
43.53689393059646
 30
0.0
 10
267.4418381890031
 20
43.60214668077464
 30
0.0
 10
267.6296320896117
 20
43.78514089577772
 30
0.0
 10
267.7761546834196
 20
43.89230706192624
 30
0.0
 10
268.02879382263
 20
44.02984109581945
 30
0.0
 10
268.1190531205614
 20
44.07192777668474
 30
0.0
 10
268.305684526235
 20
44.14594923944419
 30
0.0
 10
268.4025386270477
 20
44.17821408755146
 30
0.0
 10
268.6030748843988
 20
44.23372552187427
 30
0.0
 10
268.7067576688546
 20
44.25697102151391
 30
0.0
 10
268.9209365783555
 20
44.29467863299569
 30
0.0
 10
269.0309241917108
 20
44.30899344289728
 30
0.0
 10
269.3631696580289
 20
44.3386648598305
 30
0.0
 10
269.5900040301646
 20
44.34130882712379
 30
0.0
 10
270.0540485404578
 20
44.31669520565463
 30
0.0
 10
270.2864125355981
 20
44.28961012389311
 30
0.0
 10
270.5168181777257
 20
44.25054112108138
 30
0.0
  0
LINE
  5
223
330
1F
100
AcDbEntity
  8
0
  6
Continuous
 62
     7
370
    15
100
AcDbLine
 10
242.8559011466
 20
34.1376929256
 30
0.0
 11
242.4258103747
 21
33.8894068079
 31
0.0
  0
LINE
  5
224
330
1F
100
AcDbEntity
  8
0
  6
Continuous
 62
     7
370
    15
100
AcDbLine
 10
243.7433155367
 20
33.9615568997
 30
0.0
 11
243.4298962516
 21
34.1424900018
 31
0.0
  0
SPLINE
  5
225
330
1F
100
AcDbEntity
  8
0
  6
Continuous
 62
     7
370
    15
100
AcDbSpline
210
0.0
220
0.0
230
1.0
 70
     8
 71
     3
 72
    12
 73
     8
 74
     0
 42
0.000000001
 43
0.00000001
 40
0.0
 40
0.0
 40
0.0
 40
0.0
 40
0.25
 40
0.25
 40
0.5
 40
0.5
 40
1.0
 40
1.0
 40
1.0
 40
1.0
 10
243.429896251573
 20
34.14249000175595
 30
0.0
 10
243.3925042139901
 20
34.16407596558238
 30
0.0
 10
243.3463559031352
 20
34.18151610060484
 30
0.0
 10
243.2476560657526
 20
34.20397222891917
 30
0.0
 10
243.1941444994572
 20
34.20935853451979
 30
0.0
 10
243.0355470797558
 20
34.20727737570967
 30
0.0
 10
242.930832985138
 20
34.18095015521887
 30
0.0
 10
242.8559011466113
 20
34.13769292559339
 30
0.0
  0
ARC
  5
226
330
1F
100
AcDbEntity
  8
0
  6
Continuous
 62
     7
370
    15
100
AcDbCircle
 10
276.7856506626
 20
28.6116858992
 30
0.0
 40
42.34114376272313
100
AcDbArc
 50
140.363542715
 51
155.8634982017
  0
LINE
  5
227
330
1F
100
AcDbEntity
  8
0
  6
Continuous
 62
     7
370
    15
100
AcDbLine
 10
271.6063890309
 20
23.5260015776
 30
0.0
 11
271.6614827502
 21
23.4931793069
 31
0.0
  0
LINE
  5
228
330
1F
100
AcDbEntity
  8
0
  6
Continuous
 62
     7
370
    15
100
AcDbLine
 10
278.7068131777
 20
35.5906620707
 30
0.0
 11
278.6609138786
 21
35.6178633802
 31
0.0
  0
SPLINE
  5
229
330
1F
100
AcDbEntity
  8
0
  6
Continuous
 62
     7
370
    15
100
AcDbSpline
210
0.0
220
0.0
230
1.0
 70
     8
 71
     3
 72
    23
 73
    19
 74
     0
 42
0.000000001
 43
0.00000001
 40
0.0
 40
0.0
 40
0.0
 40
0.0
 40
0.0423882947591162
 40
0.1196567262721228
 40
0.1960317749217687
 40
0.2353333890493714
 40
0.2749733686167674
 40
0.3469605177083728
 40
0.421230385499489
 40
0.4902623814291569
 40
0.5611892396717807
 40
0.6323931160042958
 40
0.7054264621939683
 40
0.7810850830049043
 40
0.8588937105667762
 40
0.9349478087186761
 40
0.9741123312089082
 40
1.0
 40
1.0
 40
1.0
 40
1.0
 10
276.6622964778487
 20
35.76764506602071
 30
0.0
 10
276.7184235989099
 20
35.70114959859568
 30
0.0
 10
276.8768632719242
 20
35.51344141195527
 30
0.0
 10
277.0882099159816
 20
35.18215184523278
 30
0.0
 10
277.2525529523931
 20
34.84763325330515
 30
0.0
 10
277.3478651595939
 20
34.57543142536457
 30
0.0
 10
277.4157224113143
 20
34.31121870367122
 30
0.0
 10
277.4535209697526
 20
33.98917904669131
 30
0.0
 10
277.4249274268972
 20
33.63314277522989
 30
0.0
 10
277.3277985783351
 20
33.30650911644837
 30
0.0
 10
277.1710881582575
 20
33.02013322167685
 30
0.0
 10
276.9563647773648
 20
32.77348247214895
 30
0.0
 10
276.6896628893965
 20
32.57537894895166
 30
0.0
 10
276.3762697236046
 20
32.43580554128137
 30
0.0
 10
276.0312224557409
 20
32.3680096401825
 30
0.0
 10
275.7301769924995
 20
32.38102023240308
 30
0.0
 10
275.5106527461134
 20
32.42560220686116
 30
0.0
 10
275.4114554826984
 20
32.46186794902053
 30
0.0
 10
275.3719797041014
 20
32.47629998432929
 30
0.0
  0
LINE
  5
22A
330
1F
100
AcDbEntity
  8
0
  6
Continuous
 62
     7
370
    15
100
AcDbLine
 10
242.2630553197
 20
26.136082525
 30
0.0
 11
247.2481581271
 21
23.2582439308
 31
0.0
  0
ARC
  5
22B
330
1F
100
AcDbEntity
  8
0
  6
Continuous
 62
     7
370
    15
100
AcDbCircle
 10
246.371136307
 20
32.5903670945
 30
0.0
 40
7.650759354637071
100
AcDbArc
 50
182.476303705
 51
237.5236964406
  0
LINE
  5
22C
330
1F
100
AcDbEntity
  8
0
  6
Continuous
 62
     7
370
    15
100
AcDbLine
 10
238.7275214138
 20
33.0763476758
 30
0.0
 11
238.7275214138
 21
32.259806864
 31
0.0
  0
ARC
  5
22D
330
1F
100
AcDbEntity
  8
0
  6
Continuous
 62
     7
370
    15
100
AcDbCircle
 10
241.9803780022
 20
33.1799886201
 30
0.0
 40
3.254507248434574
100
AcDbArc
 50
154.9154884383
 51
181.8249130749
  0
SPLINE
  5
22E
330
1F
100
AcDbEntity
  8
0
  6
Continuous
 62
     7
370
    15
100
AcDbSpline
210
0.0
220
0.0
230
1.0
 70
     8
 71
     3
 72
    10
 73
     6
 74
     0
 42
0.000000001
 43
0.00000001
 40
0.0
 40
0.0
 40
0.0
 40
0.0
 40
0.5
 40
0.5
 40
1.0
 40
1.0
 40
1.0
 40
1.0
 10
225.9839226616068
 20
38.13993849266957
 30
0.0
 10
226.4110698731747
 20
37.7920432790675
 30
0.0
 10
226.8383624061499
 20
37.45537816788787
 30
0.0
 10
227.6931071509834
 20
36.79438756047957
 30
0.0
 10
228.1205621544133
 20
36.47027779045355
 30
0.0
 10
228.5480710979682
 20
36.15033638859807
 30
0.0
  0
SPLINE
  5
22F
330
1F
100
AcDbEntity
  8
0
  6
Continuous
 62
     7
370
    15
100
AcDbSpline
210
0.0
220
0.0
230
1.0
 70
     8
 71
     3
 72
    20
 73
    16
 74
     0
 42
0.000000001
 43
0.00000001
 40
0.0
 40
0.0
 40
0.0
 40
0.0
 40
0.0625000000000018
 40
0.0625000000000018
 40
0.1250000000000037
 40
0.1250000000000037
 40
0.2500000000000049
 40
0.2500000000000049
 40
0.3750000000000061
 40
0.3750000000000061
 40
0.5000000000000073
 40
0.5000000000000073
 40
0.7500000000000037
 40
0.7500000000000037
 40
1.0
 40
1.0
 40
1.0
 40
1.0
 10
228.5480710979682
 20
36.15033638859816
 30
0.0
 10
228.5686979220093
 20
36.13489957704364
 30
0.0
 10
228.5879569371656
 20
36.12193390075407
 30
0.0
 10
228.6203651377459
 20
36.10326585234372
 30
0.0
 10
228.6335293826497
 20
36.09751342625586
 30
0.0
 10
228.6641086305341
 20
36.08872142779603
 30
0.0
 10
228.6741161089842
 20
36.09299131185885
 30
0.0
 10
228.6853719412818
 20
36.10909201729255
 30
0.0
 10
228.6864451223392
 20
36.12128634611402
 30
0.0
 10
228.6841408650185
 20
36.14946529622519
 30
0.0
 10
228.6806797140754
 20
36.16564218193374
 30
0.0
 10
228.6661407836604
 20
36.21830810365418
 30
0.0
 10
228.6509274733958
 20
36.25900010997953
 30
0.0
 10
228.6155923391333
 20
36.34618241131007
 30
0.0
 10
228.5953288986308
 20
36.39282064076065
 30
0.0
 10
228.5736304636294
 20
36.44168253521702
 30
0.0
  0
SPLINE
  5
230
330
1F
100
AcDbEntity
  8
0
  6
Continuous
 62
     7
370
    15
100
AcDbSpline
210
0.0
220
0.0
230
1.0
 70
     8
 71
     3
 72
    12
 73
     8
 74
     0
 42
0.000000001
 43
0.00000001
 40
0.0
 40
0.0
 40
0.0
 40
0.0
 40
0.2499999999999997
 40
0.2499999999999997
 40
0.4999999999999993
 40
0.4999999999999993
 40
1.0
 40
1.0
 40
1.0
 40
1.0
 10
228.5736304636294
 20
36.44168253521703
 30
0.0
 10
228.5406638543105
 20
36.51591881009193
 30
0.0
 10
228.5186762588232
 20
36.58448240111684
 30
0.0
 10
228.478988502472
 20
36.72334629488572
 30
0.0
 10
228.4613871726938
 20
36.79366200299585
 30
0.0
 10
228.4009415881766
 20
37.01747276413038
 30
0.0
 10
228.3510356436169
 20
37.18320709748522
 30
0.0
 10
228.2671084261844
 20
37.38388493389415
 30
0.0
  0
LWPOLYLINE
  5
231
330
1F
100
AcDbEntity
  8
0
  6
Continuous
 62
     7
370
    15
100
AcDbPolyline
 90
        9
 70
   128
 43
0.0
 10
228.2671084262
 20
37.3838849339
 10
227.8863730788
 20
38.4705154386
 10
227.6120569712
 20
39.6536856218
 10
227.4465183118
 20
40.9232241452
 10
227.3911801839
 20
42.2682171892
 10
227.4465183118
 20
43.6771022756
 10
227.6120569712
 20
45.1377676669
 10
227.8863730788
 20
46.6376564864
 10
228.2671084262
 20
48.1638746663
  0
SPLINE
  5
232
330
1F
100
AcDbEntity
  8
0
  6
Continuous
 62
     7
370
    15
100
AcDbSpline
210
0.0
220
0.0
230
1.0
 70
     8
 71
     3
 72
    12
 73
     8
 74
     0
 42
0.000000001
 43
0.00000001
 40
0.0
 40
0.0
 40
0.0
 40
0.0
 40
0.2499999999999997
 40
0.2499999999999997
 40
0.4999999999999993
 40
0.4999999999999993
 40
1.0
 40
1.0
 40
1.0
 40
1.0
 10
228.5736304636294
 20
50.07131505218372
 30
0.0
 10
228.5406638543105
 20
49.91174957973612
 30
0.0
 10
228.5186762588232
 20
49.74942414571196
 30
0.0
 10
228.478988502472
 20
49.4242498093858
 30
0.0
 10
228.4613871726938
 20
49.2611582811457
 30
0.0
 10
228.4009415881766
 20
48.7770894182453
 30
0.0
 10
228.3510356436169
 20
48.46145280541475
 30
0.0
 10
228.2671084261844
 20
48.16387466633925
 30
0.0
  0
SPLINE
  5
233
330
1F
100
AcDbEntity
  8
0
  6
Continuous
 62
     7
370
    15
100
AcDbSpline
210
0.0
220
0.0
230
1.0
 70
     8
 71
     3
 72
    20
 73
    16
 74
     0
 42
0.000000001
 43
0.00000001
 40
0.0
 40
0.0
 40
0.0
 40
0.0
 40
0.0624999999999996
 40
0.0624999999999996
 40
0.1249999999999991
 40
0.1249999999999991
 40
0.2499999999999975
 40
0.2499999999999975
 40
0.3749999999999959
 40
0.3749999999999959
 40
0.4999999999999943
 40
0.4999999999999943
 40
0.7499999999999971
 40
0.7499999999999971
 40
1.0
 40
1.0
 40
1.0
 40
1.0
 10
228.5480710979682
 20
51.27299122004941
 30
0.0
 10
228.5686979220093
 20
51.26865096875768
 30
0.0
 10
228.5879569371656
 20
51.25824070661756
 30
0.0
 10
228.6203651377459
 20
51.22685661914019
 30
0.0
 10
228.6335293826497
 20
51.20606478423351
 30
0.0
 10
228.6641086305341
 20
51.13805460788268
 30
0.0
 10
228.6741161089842
 20
51.08507653094335
 30
0.0
 10
228.6853719412818
 20
50.97871988757998
 30
0.0
 10
228.6864451223392
 20
50.92433842855245
 30
0.0
 10
228.6841408650185
 20
50.81680263070121
 30
0.0
 10
228.6806797140755
 20
50.76310834490693
 30
0.0
 10
228.6661407836604
 20
50.60214513672677
 30
0.0
 10
228.6509274733958
 20
50.49471330966914
 30
0.0
 10
228.6155923391333
 20
50.28189794184821
 30
0.0
 10
228.5953288986308
 20
50.17634013980776
 30
0.0
 10
228.5736304636294
 20
50.07131505218375
 30
0.0
  0
SPLINE
  5
234
330
1F
100
AcDbEntity
  8
0
  6
Continuous
 62
     7
370
    15
100
AcDbSpline
210
0.0
220
0.0
230
1.0
 70
     8
 71
     3
 72
    10
 73
     6
 74
     0
 42
0.000000001
 43
0.00000001
 40
0.0
 40
0.0
 40
0.0
 40
0.0
 40
0.5
 40
0.5
 40
1.0
 40
1.0
 40
1.0
 40
1.0
 10
225.9839226616068
 20
51.66108540054906
 30
0.0
 10
226.4110698731747
 20
51.63172545619007
 30
0.0
 10
226.8383624061499
 20
51.57802198800474
 30
0.0
 10
227.6931071509834
 20
51.44386643445615
 30
0.0
 10
228.1205621544133
 20
51.36294671881164
 30
0.0
 10
228.5480710979682
 20
51.27299122004965
 30
0.0
  0
SPLINE
  5
235
330
1F
100
AcDbEntity
  8
0
  6
Continuous
 62
     7
370
    15
100
AcDbSpline
210
0.0
220
0.0
230
1.0
 70
     8
 71
     3
 72
    12
 73
     8
 74
     0
 42
0.000000001
 43
0.00000001
 40
0.0
 40
0.0
 40
0.0
 40
0.0
 40
0.4999999999999978
 40
0.4999999999999978
 40
0.7499999999999989
 40
0.7499999999999989
 40
1.0
 40
1.0
 40
1.0
 40
1.0
 10
224.2107956386623
 20
52.15607524081301
 30
0.0
 10
224.5012683281115
 20
52.04705150143197
 30
0.0
 10
224.7929050581513
 20
51.94421952563327
 30
0.0
 10
225.2343053413728
 20
51.81069072699379
 30
0.0
 10
225.3820984410779
 20
51.76964543793629
 30
0.0
 10
225.6802142523051
 20
51.70077545607486
 30
0.0
 10
225.8302859496077
 20
51.67164561303225
 30
0.0
 10
225.9839226616068
 20
51.66108540054898
 30
0.0
  0
LWPOLYLINE
  5
236
330
1F
100
AcDbEntity
  8
0
  6
Continuous
 62
     7
370
    15
100
AcDbPolyline
 90
        3
 70
   128
 43
0.0
 10
244.0329201617
 20
68.1357675628
 10
244.1952117128
 20
68.0586112258
 10
244.213685359
 20
68.0494468533
  0
LINE
  5
237
330
1F
100
AcDbEntity
  8
0
  6
Continuous
 62
     7
370
    15
100
AcDbLine
 10
226.3500157804
 20
37.1053106719
 30
0.0
 11
226.2606647804
 21
37.1656394842
 31
0.0
  0
SPLINE
  5
238
330
1F
100
AcDbEntity
  8
0
  6
Continuous
 62
     7
370
    15
100
AcDbSpline
210
0.0
220
0.0
230
1.0
 70
     8
 71
     3
 72
    12
 73
     8
 74
     0
 42
0.000000001
 43
0.00000001
 40
0.0
 40
0.0
 40
0.0
 40
0.0
 40
0.4999999999999978
 40
0.4999999999999978
 40
0.7499999999999989
 40
0.7499999999999989
 40
1.0
 40
1.0
 40
1.0
 40
1.0
 10
224.2107956386623
 20
39.485013514187
 30
0.0
 10
224.5012683281115
 20
39.27213846620037
 30
0.0
 10
224.7929050581513
 20
39.05660968460133
 30
0.0
 10
225.2343053413728
 20
38.72448866774052
 30
0.0
 10
225.3820984410779
 20
38.61230564332818
 30
0.0
 10
225.6802142523051
 20
38.38231945453036
 30
0.0
 10
225.8302859496077
 20
38.26506977127924
 30
0.0
 10
225.9839226616068
 20
38.13993849266961
 30
0.0
  0
SPLINE
  5
239
330
1F
100
AcDbEntity
  8
0
  6
Continuous
 62
     7
370
    15
100
AcDbSpline
210
0.0
220
0.0
230
1.0
 70
     8
 71
     3
 72
    18
 73
    14
 74
     0
 42
0.000000001
 43
0.00000001
 40
0.0
 40
0.0
 40
0.0
 40
0.0
 40
0.1246406693422893
 40
0.2498459126972225
 40
0.3750268041223899
 40
0.4996119902743403
 40
0.62330794800083
 40
0.685577473345921
 40
0.7470574701355568
 40
0.8084470685059827
 40
0.8711075065609016
 40
0.995230237345704
 40
1.0
 40
1.0
 40
1.0
 40
1.0
 10
232.5707441922082
 20
37.15821576298739
 30
0.0
 10
232.3622313283756
 20
37.54093978413934
 30
0.0
 10
231.9442611181042
 20
38.30812141819541
 30
0.0
 10
231.7476744340287
 20
39.48364812037792
 30
0.0
 10
231.9593271872898
 20
40.45963949902895
 30
0.0
 10
232.5333569954615
 20
41.11018732544425
 30
0.0
 10
233.2257553125659
 20
41.25621762931372
 30
0.0
 10
233.814735277476
 20
41.12791525111908
 30
0.0
 10
234.2567956793833
 20
40.9055194737921
 30
0.0
 10
234.6840082362381
 20
40.56706489566504
 30
0.0
 10
235.1942668604336
 20
39.97637365162537
 30
0.0
 10
235.5809552067152
 20
39.41204332145468
 30
0.0
 10
235.7174495192631
 20
38.98606719735258
 30
0.0
 10
235.7225005928915
 20
38.97030363382649
 30
0.0
  0
SPLINE
  5
23A
330
1F
100
AcDbEntity
  8
0
  6
Continuous
 62
     7
370
    15
100
AcDbSpline
210
0.0
220
0.0
230
1.0
 70
     8
 71
     3
 72
    12
 73
     8
 74
     0
 42
0.000000001
 43
0.00000001
 40
0.0
 40
0.0
 40
0.0
 40
0.0
 40
0.00074943699397
 40
0.3328017319371079
 40
0.4984693127440655
 40
0.6664246316676089
 40
0.9999999999999999
 40
0.9999999999999999
 40
0.9999999999999999
 40
0.9999999999999999
 10
235.0598779829021
 20
35.06921289387306
 30
0.0
 10
235.0593984135782
 20
35.06914756658225
 30
0.0
 10
234.8464365464156
 20
35.040137742277
 30
0.0
 10
234.3877923699629
 20
35.30787903372999
 30
0.0
 10
233.8081006376501
 20
35.72348897092125
 30
0.0
 10
233.210823607651
 20
36.27329893350986
 30
0.0
 10
232.8264179779981
 20
36.80474394301771
 30
0.0
 10
232.5707441922082
 20
37.15821576298739
 30
0.0
  0
SPLINE
  5
23B
330
1F
100
AcDbEntity
  8
0
  6
Continuous
 62
     7
370
    15
100
AcDbSpline
210
0.0
220
0.0
230
1.0
 70
     8
 71
     3
 72
    14
 73
    10
 74
     0
 42
0.000000001
 43
0.00000001
 40
0.0
 40
0.0
 40
0.0
 40
0.0
 40
0.25
 40
0.25
 40
0.5
 40
0.5
 40
0.75
 40
0.75
 40
1.0
 40
1.0
 40
1.0
 40
1.0
 10
279.7902298745768
 20
42.86085653828955
 30
0.0
 10
279.836870875323
 20
42.8339312616794
 30
0.0
 10
279.8745870856907
 20
42.80082015902263
 30
0.0
 10
279.9234896111025
 20
42.730175383629
 30
0.0
 10
279.9355812224933
 20
42.69169711825994
 30
0.0
 10
279.9334183503522
 20
42.61574579148596
 30
0.0
 10
279.919167951818
 20
42.57753521499372
 30
0.0
 10
279.8673552073599
 20
42.50758639651554
 30
0.0
 10
279.829593938823
 20
42.47537687296526
 30
0.0
 10
279.7828321315679
 20
42.448381856242
 30
0.0
  0
ARC
  5
23C
330
1F
100
AcDbEntity
  8
0
  6
Continuous
 62
     7
370
    15
100
AcDbCircle
 10
254.1877136714
 20
22.6597755975
 30
0.0
 40
8.61254347478626
100
AcDbArc
 50
219.3942468193
 51
261.0688929928
  0
SPLINE
  5
23D
330
1F
100
AcDbEntity
  8
0
  6
Continuous
 62
     7
370
    15
100
AcDbSpline
210
0.0
220
0.0
230
1.0
 70
     8
 71
     3
 72
    14
 73
    10
 74
     0
 42
0.000000001
 43
0.00000001
 40
0.0
 40
0.0
 40
0.0
 40
0.0
 40
0.25
 40
0.25
 40
0.5
 40
0.5
 40
0.75
 40
0.75
 40
1.0
 40
1.0
 40
1.0
 40
1.0
 10
245.11667340015
 20
22.43596804535604
 30
0.0
 10
245.1637739970805
 20
22.40877744951617
 30
0.0
 10
245.2200678474407
 20
22.38745127000488
 30
0.0
 10
245.3437051373498
 20
22.35904334951345
 30
0.0
 10
245.410220964189
 20
22.35221986274444
 30
0.0
 10
245.5424291599846
 20
22.35369929852104
 30
0.0
 10
245.608742194587
 20
22.36208869646653
 30
0.0
 10
245.7299646667483
 20
22.39219688396117
 30
0.0
 10
245.7861049453293
 20
22.4142185945591
 30
0.0
 10
245.8327913113311
 20
22.44117005997389
 30
0.0
  0
LINE
  5
23E
330
1F
100
AcDbEntity
  8
0
  6
Continuous
 62
     7
370
    15
100
AcDbLine
 10
243.4286067437
 20
23.4104681833
 30
0.0
 11
245.1166734002
 21
22.4359680454
 31
0.0
  0
SPLINE
  5
23F
330
1F
100
AcDbEntity
  8
0
  6
Continuous
 62
     7
370
    15
100
AcDbSpline
210
0.0
220
0.0
230
1.0
 70
     8
 71
     3
 72
     8
 73
     4
 74
     0
 42
0.000000001
 43
0.00000001
 40
0.0
 40
0.0
 40
0.0
 40
0.0
 40
1.0
 40
1.0
 40
1.0
 40
1.0
 10
243.776384326748
 20
24.1277881303431
 30
0.0
 10
243.6602440362469
 20
23.88871592572612
 30
0.0
 10
243.5443276638245
 20
23.64960775253364
 30
0.0
 10
243.4286067437091
 20
23.4104681833007
 30
0.0
  0
LINE
  5
240
330
1F
100
AcDbEntity
  8
0
  6
Continuous
 62
     7
370
    15
100
AcDbLine
 10
244.2064750987
 20
24.3760742481
 30
0.0
 11
243.7763843267
 21
24.1277881303
 31
0.0
  0
SPLINE
  5
241
330
1F
100
AcDbEntity
  8
0
  6
Continuous
 62
     7
370
    15
100
AcDbSpline
210
0.0
220
0.0
230
1.0
 70
     8
 71
     3
 72
    12
 73
     8
 74
     0
 42
0.000000001
 43
0.00000001
 40
0.0
 40
0.0
 40
0.0
 40
0.0
 40
0.25
 40
0.25
 40
0.5
 40
0.5
 40
1.0
 40
1.0
 40
1.0
 40
1.0
 10
244.2147847786901
 20
24.7074345689511
 30
0.0
 10
244.252176816273
 20
24.68584860512466
 30
0.0
 10
244.2823872895904
 20
24.65920775233459
 30
0.0
 10
244.3212866595999
 20
24.6022295490288
 30
0.0
 10
244.3306170255298
 20
24.57133797935198
 30
0.0
 10
244.3270119621159
 20
24.4797816377899
 30
0.0
 10
244.2814069372043
 20
24.4193314776849
 30
0.0
 10
244.2064750986775
 20
24.37607424805942
 30
0.0
  0
LINE
  5
242
330
1F
100
AcDbEntity
  8
0
  6
Continuous
 62
     7
370
    15
100
AcDbLine
 10
243.4298962516
 20
25.160541071
 30
0.0
 11
244.2147847787
 21
24.707434569
 31
0.0
  0
SPLINE
  5
243
330
1F
100
AcDbEntity
  8
0
  6
Continuous
 62
     7
370
    15
100
AcDbSpline
210
0.0
220
0.0
230
1.0
 70
     8
 71
     3
 72
    14
 73
    10
 74
     0
 42
0.000000001
 43
0.00000001
 40
0.0
 40
0.0
 40
0.0
 40
0.0
 40
0.25
 40
0.25
 40
0.5
 40
0.5
 40
0.75
 40
0.75
 40
1.0
 40
1.0
 40
1.0
 40
1.0
 10
242.8559011466113
 20
25.15574399485014
 30
0.0
 10
242.8937469443898
 20
25.17759190886175
 30
0.0
 10
242.9380658615378
 20
25.19496455365067
 30
0.0
 10
243.0357673980898
 20
25.21932602834254
 30
0.0
 10
243.0885205297016
 20
25.22603999287409
 30
0.0
 10
243.19447388693
 20
25.2273974424601
 30
0.0
 10
243.2478381732254
 20
25.22201974132101
 30
0.0
 10
243.3470159479972
 20
25.19937879780517
 30
0.0
 10
243.3920228413984
 20
25.1824049253213
 30
0.0
 10
243.429896251573
 20
25.16054107101271
 30
0.0
  0
LINE
  5
244
330
1F
100
AcDbEntity
  8
0
  6
Continuous
 62
     7
370
    15
100
AcDbLine
 10
242.4258103747
 20
24.9074578771
 30
0.0
 11
242.8559011466
 21
25.1557439949
 31
0.0
  0
SPLINE
  5
245
330
1F
100
AcDbEntity
  8
0
  6
Continuous
 62
     7
370
    15
100
AcDbSpline
210
0.0
220
0.0
230
1.0
 70
     8
 71
     3
 72
     8
 73
     4
 74
     0
 42
0.000000001
 43
0.00000001
 40
0.0
 40
0.0
 40
0.0
 40
0.0
 40
1.0
 40
1.0
 40
1.0
 40
1.0
 10
241.1832411461579
 20
24.70669015190666
 30
0.0
 10
241.5974879146696
 20
24.77349441712049
 30
0.0
 10
242.0116802977512
 20
24.84041151454944
 30
0.0
 10
242.4258103746817
 20
24.90745787713378
 30
0.0
  0
LINE
  5
246
330
1F
100
AcDbEntity
  8
0
  6
Continuous
 62
     7
370
    15
100
AcDbLine
 10
278.2901458212
 20
43.7268366294
 30
0.0
 11
279.7902298746
 21
42.8608565383
 31
0.0
  0
LWPOLYLINE
  5
247
330
1F
100
AcDbEntity
  8
0
  6
Continuous
 62
     7
370
    15
100
AcDbPolyline
 90
        9
 70
   128
 43
0.0
 10
248.1910508167
 20
16.1717243651
 10
247.9379108617
 20
16.3238824089
 10
247.0232207636
 20
16.9851165067
 10
246.1912384268
 20
17.7725023222
 10
245.446985001
 20
18.6812878532
 10
244.7949521775
 20
19.7059884303
 10
244.2390750809
 20
20.8404198178
 10
243.7827085207
 20
22.0777355364
 10
243.4286067437
 20
23.4104681833
  0
ARC
  5
248
330
1F
100
AcDbEntity
  8
0
  6
Continuous
 62
     7
370
    15
100
AcDbCircle
 10
254.0317552942
 20
27.3776958571
 30
0.0
 40
11.86591897635247
100
AcDbArc
 50
192.0156722922
 51
216.0887968369
  0
SPLINE
  5
249
330
1F
100
AcDbEntity
  8
0
  6
Continuous
 62
     7
370
    15
100
AcDbSpline
210
0.0
220
0.0
230
1.0
 70
     8
 71
     3
 72
    20
 73
    16
 74
     0
 42
0.000000001
 43
0.00000001
 40
0.0
 40
0.0
 40
0.0
 40
0.0
 40
0.1000516419146835
 40
0.1845570080683623
 40
0.2272161803599509
 40
0.3496623313454725
 40
0.4330866028695713
 40
0.4751818928317055
 40
0.5984618911291653
 40
0.6824204051914996
 40
0.7247787612240348
 40
0.8499627907289729
 40
0.9352649284211652
 40
0.9783162407347034
 40
1.0
 40
1.0
 40
1.0
 40
1.0
 10
234.0555718157527
 20
40.88361203872365
 30
0.0
 10
234.0368849030839
 20
40.78309888671589
 30
0.0
 10
234.0024146972363
 20
40.59769056906039
 30
0.0
 10
234.007207625773
 20
40.34665628547562
 30
0.0
 10
234.0322500291308
 20
40.06552273763602
 30
0.0
 10
234.0886740838887
 20
39.77619083213258
 30
0.0
 10
234.1807706070559
 20
39.4840229888299
 30
0.0
 10
234.2938755420485
 20
39.19101549324919
 30
0.0
 10
234.4338665650412
 20
38.89848128722555
 30
0.0
 10
234.6023907666092
 20
38.61388234885063
 30
0.0
 10
234.7874195792494
 20
38.33435731368184
 30
0.0
 10
234.9925576740445
 20
38.06308316999684
 30
0.0
 10
235.2162289960896
 20
37.81212713372037
 30
0.0
 10
235.352256309462
 20
37.66891604601282
 30
0.0
 10
235.4130446626957
 20
37.61230183812616
 30
0.0
 10
235.4334064231063
 20
37.59333825586899
 30
0.0
  0
SPLINE
  5
24A
330
1F
100
AcDbEntity
  8
0
  6
Continuous
 62
     7
370
    15
100
AcDbSpline
210
0.0
220
0.0
230
1.0
 70
     8
 71
     3
 72
    15
 73
    11
 74
     0
 42
0.000000001
 43
0.00000001
 40
0.0
 40
0.0
 40
0.0
 40
0.0
 40
0.1982496112717013
 40
0.3811995563126943
 40
0.5489664786913158
 40
0.7017068285461346
 40
0.7816446672751821
 40
0.8668759514811538
 40
0.9574242990907392
 40
1.0
 40
1.0
 40
1.0
 40
1.0
 10
232.9484184369772
 20
37.39571485035609
 30
0.0
 10
233.0754443602666
 20
37.21260253409916
 30
0.0
 10
233.3196931398103
 20
36.86050936597252
 30
0.0
 10
233.7271725288484
 20
36.41841967382593
 30
0.0
 10
234.1133787548177
 20
36.07334949177554
 30
0.0
 10
234.4199275692586
 20
35.85281658230974
 30
0.0
 10
234.6543364430283
 20
35.71087706461795
 30
0.0
 10
234.8369452999267
 20
35.61855072440562
 30
0.0
 10
234.988592893132
 20
35.55449830230859
 30
0.0
 10
235.0746519354541
 20
35.53262992771108
 30
0.0
 10
235.1021753174967
 20
35.52563598945128
 30
0.0
  0
SPLINE
  5
24B
330
1F
100
AcDbEntity
  8
0
  6
Continuous
 62
     7
370
    15
100
AcDbSpline
210
0.0
220
0.0
230
1.0
 70
     8
 71
     3
 72
    22
 73
    18
 74
     0
 42
0.000000001
 43
0.00000001
 40
0.0
 40
0.0
 40
0.0
 40
0.0
 40
0.1468659255285125
 40
0.2341660402613696
 40
0.2805762354615187
 40
0.3287963876169184
 40
0.4008011061281623
 40
0.4567474435773258
 40
0.4966164839041419
 40
0.5854417175456225
 40
0.6643214203500213
 40
0.702587519146232
 40
0.7433304973933169
 40
0.7865566721643794
 40
0.8322712550219857
 40
0.8990571635344586
 40
1.0
 40
1.0
 40
1.0
 40
1.0
 10
234.4529876598755
 20
40.72813163268862
 30
0.0
 10
234.2159087817164
 20
40.84648170748682
 30
0.0
 10
233.8379053617376
 20
41.0351814911868
 30
0.0
 10
233.4033637025863
 20
41.02017314770821
 30
0.0
 10
233.1432233070764
 20
40.95475588813882
 30
0.0
 10
232.9202245696262
 20
40.85277050755939
 30
0.0
 10
232.7120275387433
 20
40.69401499841548
 30
0.0
 10
232.5489933278381
 20
40.49578807619388
 30
0.0
 10
232.4013446935356
 20
40.24257653417141
 30
0.0
 10
232.2880723330799
 20
39.90899305426816
 30
0.0
 10
232.2499698425409
 20
39.52959105059022
 30
0.0
 10
232.263155064369
 20
39.22196952849738
 30
0.0
 10
232.2948308631234
 20
38.97647988254703
 30
0.0
 10
232.3517303140027
 20
38.70997969237052
 30
0.0
 10
232.4490572932979
 20
38.3857458567642
 30
0.0
 10
232.6268214559687
 20
37.93784513091386
 30
0.0
 10
232.8275909520332
 20
37.59939909548292
 30
0.0
 10
232.9484184369772
 20
37.39571485035609
 30
0.0
  0
SPLINE
  5
24C
330
1F
100
AcDbEntity
  8
0
  6
Continuous
 62
     7
370
    15
100
AcDbSpline
210
0.0
220
0.0
230
1.0
 70
     8
 71
     3
 72
     9
 73
     5
 74
     0
 42
0.000000001
 43
0.00000001
 40
0.0
 40
0.0
 40
0.0
 40
0.0
 40
0.1614839644295121
 40
1.0
 40
1.0
 40
1.0
 40
1.0
 10
273.8530507692173
 20
58.51888462244076
 30
0.0
 10
273.8913923958909
 20
58.52748004257556
 30
0.0
 10
274.1288254240494
 20
58.58070774332696
 30
0.0
 10
274.3670405143165
 20
58.63276133726006
 30
0.0
 10
274.5667876874203
 20
58.67640911048204
 30
0.0
  0
LINE
  5
24D
330
1F
100
AcDbEntity
  8
0
  6
Continuous
 62
     7
370
    15
100
AcDbLine
 10
274.5667876874
 20
58.6764091105
 30
0.0
 11
276.2548543439
 21
57.7019089725
 31
0.0
  0
SPLINE
  5
24E
330
1F
100
AcDbEntity
  8
0
  6
Continuous
 62
     7
370
    15
100
AcDbSpline
210
0.0
220
0.0
230
1.0
 70
     8
 71
     3
 72
    14
 73
    10
 74
     0
 42
0.000000001
 43
0.00000001
 40
0.0
 40
0.0
 40
0.0
 40
0.0
 40
0.125
 40
0.125
 40
0.25
 40
0.25
 40
0.5
 40
0.5
 40
1.0
 40
1.0
 40
1.0
 40
1.0
 10
276.2548543438612
 20
57.70190897253738
 30
0.0
 10
276.281613635016
 20
57.68646116256955
 30
0.0
 10
276.3045142514562
 20
57.66863853880481
 30
0.0
 10
276.3405605473802
 20
57.63045150248791
 30
0.0
 10
276.3537917961225
 20
57.61023911594518
 30
0.0
 10
276.3805561638151
 20
57.54658305458143
 30
0.0
 10
276.3800045044903
 20
57.50194967352199
 30
0.0
 10
276.3383039709671
 20
57.37438029807419
 30
0.0
 10
276.2583304149708
 20
57.29571160976397
 30
0.0
 10
276.1524437963869
 20
57.23458456598115
 30
0.0
  0
LINE
  5
24F
330
1F
100
AcDbEntity
  8
0
  6
Continuous
 62
     7
370
    15
100
AcDbLine
 10
226.8924538393
 20
43.3838663872
 30
0.0
 11
227.4101091509
 21
43.0850303367
 31
0.0
  0
SPLINE
  5
250
330
1F
100
AcDbEntity
  8
0
  6
Continuous
 62
     7
370
    15
100
AcDbSpline
210
0.0
220
0.0
230
1.0
 70
     8
 71
     3
 72
    14
 73
    10
 74
     0
 42
0.000000001
 43
0.00000001
 40
0.0
 40
0.0
 40
0.0
 40
0.0
 40
0.0351125595422869
 40
0.2230621938930716
 40
0.4164765648089558
 40
0.6040419956058043
 40
0.7971971131552399
 40
0.9820711751474865
 40
0.9999999999999999
 40
0.9999999999999999
 40
0.9999999999999999
 40
0.9999999999999999
 10
279.7828321315679
 20
50.61378997509951
 30
0.0
 10
279.786603180003
 20
50.61601032569398
 30
0.0
 10
279.8105598025949
 20
50.63011571365978
 30
0.0
 10
279.8503995119468
 20
50.65922504108873
 30
0.0
 10
279.8925924289244
 20
50.70355672687718
 30
0.0
 10
279.9218210954475
 20
50.75187769011145
 30
0.0
 10
279.9345795181083
 20
50.80145181857218
 30
0.0
 10
279.937184317555
 20
50.83697583856682
 30
0.0
 10
279.9313179877882
 20
50.85462096441818
 30
0.0
 10
279.9307993738743
 20
50.85618088487006
 30
0.0
  0
SPLINE
  5
251
330
1F
100
AcDbEntity
  8
0
  6
Continuous
 62
     7
370
    15
100
AcDbSpline
210
0.0
220
0.0
230
1.0
 70
     8
 71
     3
 72
    24
 73
    20
 74
     0
 42
0.000000001
 43
0.00000001
 40
0.0
 40
0.0
 40
0.0
 40
0.0
 40
0.249999999999975
 40
0.249999999999975
 40
0.3749999999999629
 40
0.3749999999999629
 40
0.4374999999999568
 40
0.4374999999999568
 40
0.4687499999999565
 40
0.4687499999999565
 40
0.4999999999999561
 40
0.4999999999999561
 40
0.5624999999999615
 40
0.5624999999999615
 40
0.6249999999999667
 40
0.6249999999999667
 40
0.7499999999999779
 40
0.7499999999999779
 40
1.0
 40
1.0
 40
1.0
 40
1.0
 10
224.179999653465
 20
53.0701888171901
 30
0.0
 10
224.2166938051661
 20
53.19887847951284
 30
0.0
 10
224.2533959357722
 20
53.32537927758358
 30
0.0
 10
224.3078180886496
 20
53.49930355185107
 30
0.0
 10
224.3258319505272
 20
53.5549313349173
 30
0.0
 10
224.3509721391742
 20
53.62065553092302
 30
0.0
 10
224.3590485514356
 20
53.63953584360444
 30
0.0
 10
224.3681400646237
 20
53.65119342548421
 30
0.0
 10
224.3705904794738
 20
53.65193619309748
 30
0.0
 10
224.3733946265042
 20
53.64481082307105
 30
0.0
 10
224.373746168267
 20
53.63687382582761
 30
0.0
 10
224.3720009935449
 20
53.60388843323
 30
0.0
 10
224.3675766151388
 20
53.57203680088832
 30
0.0
 10
224.3570685808951
 20
53.5060197541958
 30
0.0
 10
224.3507459407938
 20
53.4705867992697
 30
0.0
 10
224.3308245727673
 20
53.36406639363958
 30
0.0
 10
224.3161148468354
 20
53.29168850234635
 30
0.0
 10
224.2702441800751
 20
53.07289198653084
 30
0.0
 10
224.2374453965861
 20
52.92579918117379
 30
0.0
 10
224.2041357846029
 20
52.78010702800953
 30
0.0
  0
SPLINE
  5
252
330
1F
100
AcDbEntity
  8
0
  6
Continuous
 62
     7
370
    15
100
AcDbSpline
210
0.0
220
0.0
230
1.0
 70
     8
 71
     3
 72
    10
 73
     6
 74
     0
 42
0.000000001
 43
0.00000001
 40
0.0
 40
0.0
 40
0.0
 40
0.0
 40
0.2974943046264956
 40
0.8002369808644825
 40
1.0
 40
1.0
 40
1.0
 40
1.0
 10
224.1123458442275
 20
52.60779637712265
 30
0.0
 10
224.1119500502402
 20
52.6511938014501
 30
0.0
 10
224.1108853946131
 20
52.76792956170169
 30
0.0
 10
224.1400500083138
 20
52.92187382726091
 30
0.0
 10
224.1711547698949
 20
53.03735175912205
 30
0.0
 10
224.179999653465
 20
53.0701888171901
 30
0.0
  0
SPLINE
  5
253
330
1F
100
AcDbEntity
  8
0
  6
Continuous
 62
     7
370
    15
100
AcDbSpline
210
0.0
220
0.0
230
1.0
 70
     8
 71
     3
 72
     8
 73
     4
 74
     0
 42
0.000000001
 43
0.00000001
 40
0.0
 40
0.0
 40
0.0
 40
0.0
 40
1.0
 40
1.0
 40
1.0
 40
1.0
 10
224.1187051994204
 20
52.16923033245788
 30
0.0
 10
224.1481895797905
 20
52.17135958336862
 30
0.0
 10
224.1788006792283
 20
52.16808397776325
 30
0.0
 10
224.2107956386623
 20
52.15607524081301
 30
0.0
  0
SPLINE
  5
254
330
1F
100
AcDbEntity
  8
0
  6
Continuous
 62
     7
370
    15
100
AcDbSpline
210
0.0
220
0.0
230
1.0
 70
     8
 71
     3
 72
    10
 73
     6
 74
     0
 42
0.000000001
 43
0.00000001
 40
0.0
 40
0.0
 40
0.0
 40
0.0
 40
0.5
 40
0.5
 40
1.0
 40
1.0
 40
1.0
 40
1.0
 10
224.2041357846029
 20
52.78010702800953
 30
0.0
 10
224.1811740972882
 20
52.67967542685942
 30
0.0
 10
224.1633578809723
 20
52.57840451878964
 30
0.0
 10
224.1354808744404
 20
52.37466521512163
 30
0.0
 10
224.1254467593168
 20
52.27219178527352
 30
0.0
 10
224.1187051994217
 20
52.16923033244917
 30
0.0
  0
ARC
  5
255
330
1F
100
AcDbEntity
  8
0
  6
Continuous
 62
     7
370
    15
100
AcDbCircle
 10
225.4124948599
 20
51.8825152717
 30
0.0
 40
1.325178181123486
100
AcDbArc
 50
167.5046939741
 51
232.9212257938
  0
SPLINE
  5
256
330
1F
100
AcDbEntity
  8
0
  6
Continuous
 62
     7
370
    15
100
AcDbSpline
210
0.0
220
0.0
230
1.0
 70
     8
 71
     3
 72
     8
 73
     4
 74
     0
 42
0.000000001
 43
0.00000001
 40
0.0
 40
0.0
 40
0.0
 40
0.0
 40
1.0
 40
1.0
 40
1.0
 40
1.0
 10
224.1187051994227
 20
39.5695739566197
 30
0.0
 10
224.1481895797921
 20
39.53724275289682
 30
0.0
 10
224.1788006792291
 20
39.50846125565145
 30
0.0
 10
224.2107956386623
 20
39.485013514187
 30
0.0
  0
ARC
  5
257
330
1F
100
AcDbEntity
  8
0
  6
Continuous
 62
     7
370
    15
100
AcDbCircle
 10
227.7919406241
 20
39.663530476
 30
0.0
 40
3.674436870179565
100
AcDbArc
 50
122.2090506494
 51
181.4652310059
  0
LINE
  5
258
330
1F
100
AcDbEntity
  8
0
  6
Continuous
 62
     7
370
    15
100
AcDbLine
 10
225.8334292588
 20
42.7725045102
 30
0.0
 11
226.8924538393
 21
43.3838663872
 31
0.0
  0
SPLINE
  5
259
330
1F
100
AcDbEntity
  8
0
  6
Continuous
 62
     7
370
    15
100
AcDbSpline
210
0.0
220
0.0
230
1.0
 70
     8
 71
     3
 72
     9
 73
     5
 74
     0
 42
0.000000001
 43
0.00000001
 40
0.0
 40
0.0
 40
0.0
 40
0.0
 40
0.5821256499500034
 40
1.0
 40
1.0
 40
1.0
 40
1.0
 10
224.1242983235943
 20
40.68842067599981
 30
0.0
 10
224.1188200957174
 20
40.64188077191415
 30
0.0
 10
224.1094093647567
 20
40.56193256126641
 30
0.0
 10
224.1089880401616
 20
40.4821657752932
 30
0.0
 10
224.1088119794204
 20
40.44883328144907
 30
0.0
  0
ARC
  5
25A
330
1F
100
AcDbEntity
  8
0
  6
Continuous
 62
     7
370
    15
100
AcDbCircle
 10
226.6217219934
 20
40.3155521012
 30
0.0
 40
2.525105138571981
100
AcDbArc
 50
122.9022494104
 51
171.5083906235
  0
LINE
  5
25B
330
1F
100
AcDbEntity
  8
0
  6
Continuous
 62
     7
370
    15
100
AcDbLine
 10
225.8334292588
 20
42.7725045102
 30
0.0
 11
225.2500661644
 21
42.4356266865
 31
0.0
  0
SPLINE
  5
25C
330
1F
100
AcDbEntity
  8
0
  6
Continuous
 62
     7
370
    15
100
AcDbSpline
210
0.0
220
0.0
230
1.0
 70
     8
 71
     3
 72
    10
 73
     6
 74
     0
 42
0.000000001
 43
0.00000001
 40
0.0
 40
0.0
 40
0.0
 40
0.0
 40
0.5
 40
0.5
 40
1.0
 40
1.0
 40
1.0
 40
1.0
 10
224.2041357846029
 20
39.36379230430443
 30
0.0
 10
224.1811740972885
 20
39.40292631765565
 30
0.0
 10
224.1633578809727
 20
39.4371766091417
 30
0.0
 10
224.1354808744411
 20
39.50388974830628
 30
0.0
 10
224.1254467593174
 20
39.53627090906252
 30
0.0
 10
224.1187051994223
 20
39.5695739566196
 30
0.0
  0
LWPOLYLINE
  5
25D
330
1F
100
AcDbEntity
  8
0
  6
Continuous
 62
     7
370
     0
100
AcDbPolyline
 90
        3
 70
   128
 43
0.0
 10
274.9639438267
 20
33.4542814487
 10
274.9647007866
 20
33.0111497966
 10
274.8836075631
 20
32.7041700725
  0
ARC
  5
25E
330
1F
100
AcDbEntity
  8
0
  6
Continuous
 62
     7
370
     0
100
AcDbCircle
 10
271.9914705858
 20
33.0369109573
 30
0.0
 40
3.001632105172926
100
AcDbArc
 50
7.992753199
 51
32.1912410361
  0
LWPOLYLINE
  5
25F
330
1F
100
AcDbEntity
  8
0
  6
Continuous
 62
     7
370
     0
100
AcDbPolyline
 90
        9
 70
   128
 43
0.0
 10
274.7839496091
 20
33.4503558491
 10
274.7821596203
 20
33.0230374755
 10
274.671111678
 20
32.6784321034
 10
274.4606728791
 20
32.4471594324
 10
274.1695416346
 20
32.3497690543
 10
273.823586233
 20
32.3949145314
 10
273.45354633
 20
32.5785844901
 10
273.0923015948
 20
32.8844590485
 10
272.9393314508
 20
33.0574511194
  0
ARC
  5
260
330
1F
100
AcDbEntity
  8
0
  6
Continuous
 62
     7
370
     0
100
AcDbCircle
 10
272.0325931213
 20
33.0626133254
 30
0.0
 40
2.778544005040059
100
AcDbArc
 50
8.0217389724
 51
31.8318880072
  0
LWPOLYLINE
  5
261
330
1F
100
AcDbEntity
  8
0
  6
Continuous
 62
     7
370
     0
100
AcDbPolyline
 90
       27
 70
   128
 43
0.0
 10
245.8327913113
 20
31.4231189907
 10
246.1890817589
 20
33.1455457373
 10
246.6470681244
 20
34.889831197
 10
247.2039412916
 20
36.6452765785
 10
247.8562856099
 20
38.4011146399
 10
248.6000998445
 20
40.1465757304
 10
249.4308217184
 20
41.8709538479
 10
250.343355896
 20
43.5636723053
 10
251.3321052357
 20
45.2143486039
 10
252.3910051206
 20
46.8128581157
 10
253.513560657
 20
48.3493961844
 10
254.6928865112
 20
49.8145382629
 10
255.9217491417
 20
51.1992977207
 10
257.1926111671
 20
52.4951809637
 10
258.4976775975
 20
53.6942395313
 10
259.828943646
 20
54.789118849
 10
261.1782438271
 20
55.7731033386
 10
262.5373020408
 20
56.6401576091
 10
263.8977823347
 20
57.3849634756
 10
265.2513400343
 20
58.0029525789
 10
266.5896729255
 20
58.4903344062
 10
267.9045721773
 20
58.8441195406
 10
269.1879726921
 20
59.0621379969
 10
270.4320025736
 20
59.1430525321
 10
271.6290314101
 20
59.0863668466
 10
272.7717170768
 20
58.8924286293
 10
273.8530507692
 20
58.5624274242
  0
LWPOLYLINE
  5
262
330
1F
100
AcDbEntity
  8
0
  6
Continuous
 62
     7
370
     0
100
AcDbPolyline
 90
       27
 70
   128
 43
0.0
 10
245.1166734002
 20
31.4179169761
 10
245.4716980299
 20
33.163477676
 10
245.9294473211
 20
34.9317727778
 10
246.4871461077
 20
36.7120817561
 10
247.1414132661
 20
38.4936112499
 10
247.8882822144
 20
40.2655604984
 10
248.7232249596
 20
42.0171868226
 10
249.6411795498
 20
43.7378707538
 10
250.6365807626
 20
45.4171804157
 10
251.7033938452
 20
47.044934769
 10
252.8351511006
 20
48.6112653354
 10
254.0249910992
 20
50.1066760265
 10
255.2657002771
 20
51.5221007152
 10
256.549756669
 20
52.8489582001
 10
257.8693755114
 20
54.0792042304
 10
259.2165564388
 20
55.2053802752
 10
260.5831319867
 20
56.2206587416
 10
261.9608171083
 20
57.1188843682
 10
263.3412594033
 20
57.8946115422
 10
264.7160897559
 20
58.5431373138
 10
266.0769730733
 20
59.060529909
 10
267.4156588186
 20
59.443652566
 10
268.7240310304
 20
59.6901825524
 10
269.9941575275
 20
59.7986252473
 10
271.2183379981
 20
59.7683232024
 10
272.3891506846
 20
59.5994601278
 10
273.4994973786
 20
59.2930597784
  0
LINE
  5
263
330
1F
100
AcDbEntity
  8
0
  6
Continuous
 62
     7
370
     0
100
AcDbLine
 10
279.7828321316
 20
42.4483818562
 30
0.0
 11
279.5987360387
 21
41.4271511072
 31
0.0
  0
LWPOLYLINE
  5
264
330
1F
100
AcDbEntity
  8
0
  6
Continuous
 62
     7
370
     0
100
AcDbPolyline
 90
       22
 70
   128
 43
0.0
 10
267.0997518807
 20
19.7759295477
 10
266.2904978385
 20
19.0919597215
 10
264.9632048534
 20
18.0699972376
 10
263.6227551161
 20
17.1598062871
 10
262.2771867031
 20
16.3668448775
 10
260.9345683854
 20
15.6958680431
 10
259.6029512437
 20
15.1508993313
 10
258.2903203894
 20
14.7352066755
 10
257.0045470818
 20
14.4512827982
 10
255.7533415273
 20
14.3008302637
 10
254.5442066453
 20
14.2847512686
 10
253.3843930759
 20
14.4031422313
 10
252.2808557015
 20
14.6552932143
 10
251.2402119415
 20
15.039692181
 10
250.2687020703
 20
15.5540340631
 10
249.3721517973
 20
16.1952345828
 10
248.555937333
 20
16.9594487477
 10
247.8249531499
 20
17.8420939078
 10
247.1835826326
 20
18.8378772355
 10
246.6356717928
 20
19.9408274643
 10
246.1845062064
 20
21.1443306957
 10
245.8327913113
 20
22.44117006
  0
ARC
  5
265
330
1F
100
AcDbEntity
  8
0
  6
Continuous
 62
     7
370
     0
100
AcDbCircle
 10
268.7380685512
 20
48.8633262704
 30
0.0
 40
11.18261712331642
100
AcDbArc
 50
9.005794381
 51
48.4688729198
  0
LWPOLYLINE
  5
266
330
1F
100
AcDbEntity
  8
0
  6
Continuous
 62
     7
370
     0
100
AcDbPolyline
 90
       29
 70
   128
 43
0.0
 10
252.8696570375
 20
30.9944406407
 10
252.922125592
 20
32.2001356592
 10
253.0789750758
 20
33.4536289142
 10
253.3385428454
 20
34.7416330653
 10
253.6980774178
 20
36.0504949481
 10
254.1537676371
 20
37.366340301
 10
254.7007830737
 20
38.6752208359
 10
255.3333252277
 20
39.9632620937
 10
256.0446889951
 20
41.2168105164
 10
256.8273337429
 20
42.422578179
 10
257.6729632422
 20
43.5677836443
 10
258.5726136097
 20
44.6402874495
 10
259.5167483279
 20
45.6287207874
 10
260.4953593339
 20
46.5226060187
 10
261.4980731075
 20
47.3124677377
 10
262.5142606333
 20
47.9899332136
 10
263.5331500707
 20
48.5478211438
 10
264.5439409382
 20
48.9802177775
 10
265.5359186012
 20
49.2825396028
 10
266.4985678496
 20
49.4515819331
 10
267.421684362
 20
49.4855528777
 10
268.2954828737
 20
49.3840923362
 10
269.1107009031
 20
49.1482758154
 10
269.8586969362
 20
48.7806030293
 10
270.531542029
 20
48.2849714007
 10
271.1221038562
 20
47.6666347483
 10
271.6241223155
 20
46.9321475944
 10
272.0322758863
 20
46.0892956855
 10
272.1712802711
 20
45.7149300538
  0
LWPOLYLINE
  5
267
330
1F
100
AcDbEntity
  8
0
  6
Continuous
 62
     7
370
     0
100
AcDbPolyline
 90
       14
 70
   128
 43
0.0
 10
259.6722961132
 20
24.0637084943
 10
259.5167483279
 20
24.0347287401
 10
258.5726136097
 20
23.9330873352
 10
257.6729632422
 20
23.9668769357
 10
256.8273337429
 20
24.1357393632
 10
256.0446889951
 20
24.4378846342
 10
255.3333252277
 20
24.8701099334
 10
254.7007830737
 20
25.4278335653
 10
254.1537676371
 20
26.1051435206
 10
253.6980774178
 20
26.8948601453
 10
253.3385428454
 20
27.7886122466
 10
253.0789750758
 20
28.77692583
 10
252.922125592
 20
29.8493245257
 10
252.8696570375
 20
30.9944406407
  0
LWPOLYLINE
  5
268
330
1F
100
AcDbEntity
  8
0
  6
Continuous
 62
     7
370
     0
100
AcDbPolyline
 90
       26
 70
   128
 43
0.0
 10
234.9798554735
 20
32.2802834168
 10
235.0318808799
 20
33.8776446903
 10
235.1876517933
 20
35.5256992684
 10
235.4462540881
 20
37.2147757114
 10
235.8061701832
 20
38.9349618472
 10
236.2652879477
 20
40.6761629395
 10
236.8209130962
 20
42.4281609279
 10
237.4697849993
 20
44.1806743917
 10
238.2080958187
 20
45.9234188849
 10
239.0315128528
 20
47.6461672898
 10
239.9352039632
 20
49.3388098339
 10
240.913865931
 20
50.9914134176
 10
241.9617555788
 20
52.594279906
 10
243.0727234732
 20
54.1380030411
 10
244.2402500131
 20
55.6135236418
 10
245.4574836883
 20
57.0121827665
 10
246.7172812878
 20
58.3257725272
 10
248.0122498182
 20
59.5465842569
 10
249.3347898892
 20
60.6674537471
 10
250.6771403099
 20
61.6818032897
 10
252.0314236343
 20
62.5836802783
 10
253.3896923892
 20
63.3677921403
 10
254.7439757135
 20
64.0295373953
 10
256.0863261343
 20
64.565032659
 10
257.4088662053
 20
64.9711354324
 10
257.5208138953
 20
64.9997805823
  0
ARC
  5
269
330
1F
100
AcDbEntity
  8
0
  6
Continuous
 62
     7
370
     0
100
AcDbCircle
 10
253.930186307
 20
32.0808689682
 30
0.0
 40
18.95138002424109
100
AcDbArc
 50
179.3970984108
 51
194.517679968
  0
LWPOLYLINE
  5
26A
330
1F
100
AcDbEntity
  8
0
  6
Continuous
 62
     7
370
     0
100
AcDbPolyline
 90
        9
 70
   128
 43
0.0
 10
254.9909773811
 20
30.9944406407
 10
255.0427910092
 20
29.9208071229
 10
255.197624426
 20
28.9195837182
 10
255.4536623514
 20
28.0025088555
 10
255.8079029748
 20
27.180334399
 10
256.2561931487
 20
26.4626995926
 10
256.7932770807
 20
25.8580180482
 10
257.4128579528
 20
25.373379104
 10
257.5803200669
 20
25.2713805598
  0
LWPOLYLINE
  5
26B
330
1F
100
AcDbEntity
  8
0
  6
Continuous
 62
     7
370
     0
100
AcDbPolyline
 90
       23
 70
   128
 43
0.0
 10
270.0793042249
 20
46.9226021193
 10
269.5519525461
 20
47.1795179705
 10
268.7900518888
 20
47.4084998739
 10
267.9699969557
 20
47.504864682
 10
267.1014021411
 20
47.4674826055
 10
266.1944509251
 20
47.2967919151
 10
265.2597764814
 20
46.994793803
 10
264.3083370132
 20
46.5650289209
 10
263.3512872786
 20
46.0125358692
 10
262.3998478104
 20
45.3437921238
 10
261.4651733667
 20
44.5666380936
 10
260.5582221507
 20
43.6901851991
 10
259.6896273361
 20
42.7247090491
 10
258.869572403
 20
41.6815289688
 10
258.1076717457
 20
40.5728752907
 10
257.4128579528
 20
39.4117459657
 10
256.7932770807
 20
38.2117541733
 10
256.2561931487
 20
36.9869687203
 10
255.8079029748
 20
35.7517490962
 10
255.4536623514
 20
34.5205771218
 10
255.197624426
 20
33.3078871627
 10
255.0427910092
 20
32.1278969
 10
254.9909773811
 20
30.9944406407
  0
LWPOLYLINE
  5
26C
330
1F
100
AcDbEntity
  8
0
  6
Continuous
 62
     7
370
     0
100
AcDbPolyline
 90
       46
 70
   128
 43
0.0
 10
275.514751705
 20
35.4754754048
 10
274.7766748791
 20
34.9897938297
 10
274.0529638792
 20
34.3943677084
 10
273.3577049164
 20
33.7007863328
 10
272.7044304159
 20
32.9225494755
 10
272.1058556225
 20
32.0748046318
 10
271.5736311138
 20
31.1740521908
 10
271.1181160344
 20
30.237824274
 10
270.7481764673
 20
29.284343493
 10
270.4710128653
 20
28.3321682665
 10
270.2920199026
 20
27.3998316024
 10
270.2146814737
 20
26.5054803732
 10
270.2405028831
 20
25.6665221083
 10
270.3689815465
 20
24.899286176
 10
270.5976167727
 20
24.2187059511
 10
270.9219584373
 20
23.6380281534
 10
271.3356935986
 20
23.1685550159
 10
271.8307693723
 20
22.819424299
 10
272.3975496717
 20
22.5974314351
 10
273.0250027629
 20
22.5068972627
 10
273.7009159851
 20
22.5495839266
 10
274.4121334565
 20
22.7246605793
 10
275.1448121379
 20
23.028719553
 10
275.8846912721
 20
23.4558426856
 10
276.6173699535
 20
23.9977165112
 10
277.3285874249
 20
24.6437940722
 10
278.0045006472
 20
25.3815002037
 10
278.6319537383
 20
26.1964762949
 10
279.1987340377
 20
27.0728597634
 10
279.6938098114
 20
27.9935928017
 10
280.1075449727
 20
28.9407543887
 10
280.4318866373
 20
29.8959091013
 10
280.6605218636
 20
30.8404659395
 10
280.7890005269
 20
31.756040179
 10
280.8148219363
 20
32.6248112086
 10
280.7374835074
 20
33.4298693885
 10
280.5584905447
 20
34.1555451768
 10
280.2813269427
 20
34.7877141199
 10
279.9113873756
 20
35.3140717683
 10
279.4558722962
 20
35.7243731691
 10
278.9236477875
 20
36.0106322723
 10
278.3250729942
 20
36.16727737
 10
277.6717984936
 20
36.1912595436
 10
276.9765395309
 20
36.0821120074
 10
276.2528285309
 20
35.841959194
 10
275.514751705
 20
35.4754754048
  0
LWPOLYLINE
  5
26D
330
1F
100
AcDbEntity
  8
0
  6
Continuous
 62
     7
370
     0
100
AcDbPolyline
 90
       23
 70
   128
 43
0.0
 10
242.8559011466
 20
34.1376929256
 10
243.2157089799
 20
35.8059322606
 10
243.674868616
 20
37.4938974385
 10
244.2304769897
 20
39.1909161957
 10
244.879021233
 20
40.8862590268
 10
245.616400885
 20
42.5692070225
 10
246.4379538176
 20
44.2291196407
 10
247.3384857119
 20
45.8555019817
 10
248.3123028995
 20
47.4380711434
 10
249.3532483614
 20
48.9668212347
 10
250.454740656
 20
50.4320866394
 10
251.6098155305
 20
51.8246031267
 10
252.811169953
 20
53.1355664257
 10
254.0512082864
 20
54.3566878902
 10
255.3220903119
 20
55.4802469047
 10
256.6157808
 20
56.4991396983
 10
257.9241003128
 20
57.4069242587
 10
259.23877692
 20
58.1978610621
 10
260.5514984978
 20
58.866949362
 10
261.8539652834
 20
59.4099588066
 10
263.1379423503
 20
59.8234561851
 10
264.3953116748
 20
60.104827135
 10
264.8101113682
 20
60.1693342293
  0
LWPOLYLINE
  5
26E
330
1F
100
AcDbEntity
  8
0
  6
Continuous
 62
     7
370
     0
100
AcDbPolyline
 90
       19
 70
   128
 43
0.0
 10
243.4298962516
 20
34.1424900018
 10
243.7910774376
 20
35.7927660987
 10
244.2508587771
 20
37.4620303479
 10
244.806300542
 20
39.1396098864
 10
245.4538513749
 20
40.8147786857
 10
246.1893709961
 20
42.4768261307
 10
247.008156675
 20
44.1151255011
 10
247.9049732984
 20
45.719201916
 10
248.8740868427
 20
47.2787993075
 10
249.9093010355
 20
48.7839459956
 10
251.0039969733
 20
50.2250184445
 10
252.151175441
 20
51.5928027935
 10
253.3435016633
 20
52.8785537678
 10
254.5733522012
 20
54.0740505936
 10
255.8328636944
 20
55.1716495598
 10
257.1139831381
 20
56.1643328902
 10
258.4085193713
 20
57.045753613
 10
259.7081954495
 20
57.8102761422
 10
260.3823171725
 20
58.1594910938
  0
LWPOLYLINE
  5
26F
330
1F
100
AcDbEntity
  8
0
  6
Continuous
 62
     7
370
     0
100
AcDbPolyline
 90
       23
 70
   128
 43
0.0
 10
271.6614827502
 20
23.4931793069
 10
272.1360427704
 20
23.285111924
 10
272.7387035613
 20
23.1725973679
 10
273.392995622
 20
23.1961237546
 10
274.0849738533
 20
23.3551896601
 10
274.7998899405
 20
23.6464048707
 10
275.5225066884
 20
24.0635626398
 10
276.2374227755
 20
24.5977719738
 10
276.9294010068
 20
25.2376471282
 10
277.5836930676
 20
25.969550275
 10
278.1863538585
 20
26.7778821694
 10
278.7245387111
 20
27.6454146204
 10
279.1867771496
 20
28.55365768
 10
279.5632173643
 20
29.4832537241
 10
279.8458361855
 20
30.4143900271
 10
280.0286100837
 20
31.3272210353
 10
280.1076435506
 20
32.2022913404
 10
280.0812521251
 20
33.0209503383
 10
279.9499982945
 20
33.7657497336
 10
279.7166795065
 20
34.4208154204
 10
279.3862685458
 20
34.9721858108
 10
278.9658075486
 20
35.4081094023
 10
278.7068131777
 20
35.5906620707
  0
LINE
  5
270
330
1F
100
AcDbEntity
  8
0
  6
Continuous
 62
     7
370
     0
100
AcDbLine
 10
236.5213380321
 20
31.802745119
 30
0.0
 11
238.7275214138
 21
33.0763476758
 31
0.0
  0
LWPOLYLINE
  5
271
330
1F
100
AcDbEntity
  8
0
  6
Continuous
 62
     7
370
     0
100
AcDbPolyline
 90
       21
 70
   128
 43
0.0
 10
224.2107956387
 20
52.1560752408
 10
224.7726773684
 20
53.6803387093
 10
225.4291036004
 20
55.1933731573
 10
226.1743416323
 20
56.6819649504
 10
227.0018831502
 20
58.1331139168
 10
227.9045010677
 20
59.5341468805
 10
228.8743126407
 20
60.8728283386
 10
229.9028483095
 20
62.1374673167
 10
230.9811256652
 20
63.3170194678
 10
232.0997278946
 20
64.4011835256
 10
233.2488860192
 20
65.3804912673
 10
234.4185642099
 20
66.2463902012
 10
235.5985474315
 20
66.9913182576
 10
236.7785306532
 20
67.6087698298
 10
237.9482088438
 20
68.0933525891
 10
239.0973669684
 20
68.4408345766
 10
240.2159691978
 20
68.6481811622
 10
241.2942465535
 20
68.7135815464
 10
242.3227822224
 20
68.6364645745
 10
243.2925937953
 20
68.4175037246
 10
244.0329201617
 20
68.1357675628
  0
ARC
  5
272
330
1F
100
AcDbEntity
  8
0
  6
Continuous
 62
     7
370
     0
100
AcDbCircle
 10
230.0405132151
 20
42.571806924
 30
0.0
 40
6.596506694929108
100
AcDbArc
 50
207.9008968934
 51
235.0397780955
  0
ARC
  5
273
330
1F
100
AcDbEntity
  8
0
  6
Continuous
 62
     7
370
     0
100
AcDbCircle
 10
257.1261111239
 20
24.7917292451
 30
0.0
 40
12.23830892204388
100
AcDbArc
 50
191.0981770308
 51
218.3768912894
  0
LINE
  5
274
330
1F
100
AcDbEntity
  8
0
  6
Continuous
 62
     7
370
     0
100
AcDbLine
 10
240.4851239834
 20
25.1097046116
 30
0.0
 11
242.2630553197
 21
26.136082525
 31
0.0
  0
LINE
  5
275
330
1F
100
AcDbEntity
  8
0
  6
Continuous
 62
     7
370
     0
100
AcDbLine
 10
236.5213380321
 20
30.9862043071
 30
0.0
 11
238.7275214138
 21
32.259806864
 31
0.0
  0
LINE
  5
276
330
1F
100
AcDbEntity
  8
0
  6
Continuous
 62
     7
370
     0
100
AcDbLine
 10
244.2808388245
 20
24.4466215133
 30
0.0
 11
244.2147847787
 21
24.707434569
 31
0.0
  0
LINE
  5
277
330
1F
100
AcDbEntity
  8
0
  6
Continuous
 62
     7
370
     0
100
AcDbLine
 10
243.7377486014
 20
24.0846405908
 30
0.0
 11
243.4298962516
 21
25.160541071
 31
0.0
  0
LWPOLYLINE
  5
278
330
1F
100
AcDbEntity
  8
0
  6
Continuous
 62
     7
370
     0
100
AcDbPolyline
 90
        3
 70
   128
 43
0.0
 10
243.4739104935
 20
23.209945647
 10
243.213367335
 20
23.9098289471
 10
242.8559011466
 20
25.1557439949
  0
LINE
  5
279
330
1F
100
AcDbEntity
  8
0
  6
Continuous
 62
     7
370
     0
100
AcDbLine
 10
271.5361509221
 20
60.4259584749
 30
0.0
 11
271.4593352079
 21
60.381613707
 31
0.0
  0
ARC
  5
27A
330
1F
100
AcDbEntity
  8
0
  6
Continuous
 62
     7
370
     0
100
AcDbCircle
 10
230.1730292777
 20
49.6577813865
 30
0.0
 40
1.992904482253549
100
AcDbArc
 50
160.3929405663
 51
205.7634223581
  0
ARC
  5
27B
330
1F
100
AcDbEntity
  8
0
  6
Continuous
 62
     7
370
     0
100
AcDbCircle
 10
228.0204728821
 20
49.7478572534
 30
0.0
 40
0.640787217083749
100
AcDbArc
 50
30.3168764955
 51
64.5651423114
  0
LINE
  5
27C
330
1F
100
AcDbEntity
  8
0
  6
Continuous
 62
     7
370
     0
100
AcDbLine
 10
228.2956811407
 20
50.3265356373
 30
0.0
 11
228.548071098
 21
51.27299122
 31
0.0
  0
LINE
  5
27D
330
1F
100
AcDbEntity
  8
0
  6
Continuous
 62
     7
370
     0
100
AcDbLine
 10
228.2956811407
 20
50.3265356373
 30
0.0
 11
225.9839226616
 21
51.6610854005
 31
0.0
  0
LINE
  5
27E
330
1F
100
AcDbEntity
  8
0
  6
Continuous
 62
     7
370
     0
100
AcDbLine
 10
224.2041357846
 20
52.780107028
 30
0.0
 11
224.1799996535
 21
53.0701888172
 31
0.0
  0
LINE
  5
27F
330
1F
100
AcDbEntity
  8
0
  6
Continuous
 62
     7
370
     0
100
AcDbLine
 10
228.1953918084
 20
37.560407766
 30
0.0
 11
228.1916305799
 21
37.4257756986
 31
0.0
  0
LINE
  5
280
330
1F
100
AcDbEntity
  8
0
  6
Continuous
 62
     7
370
     0
100
AcDbLine
 10
227.3958497028
 20
41.8705383868
 30
0.0
 11
225.8334292588
 21
42.7725045102
 31
0.0
  0
LINE
  5
281
330
1F
100
AcDbEntity
  8
0
  6
Continuous
 62
     7
370
     0
100
AcDbLine
 10
228.2956811407
 20
36.8053887294
 30
0.0
 11
225.9839226616
 21
38.1399384927
 31
0.0
  0
LINE
  5
282
330
1F
100
AcDbEntity
  8
0
  6
Continuous
 62
     7
370
     0
100
AcDbLine
 10
228.2956811407
 20
36.8053887294
 30
0.0
 11
228.548071098
 21
36.1503363886
 31
0.0
  0
OLE2FRAME
  5
283
330
1F
100
AcDbEntity
  8
0
100
AcDbOle2Frame
 70
     2
  3
Paintbrush-Bild
 10
13.8511154363
 20
38.264191557
 30
0.0
 11
51.6290888628
 21
31.9806341108
 31
0.0
 71
     2
 72
     0
 73
     1
 90
    12928
310
80552BED0767C5B32B40DDAF6807D121434000000000000000006FFBDDFB85D0
310
4940DDAF6807D121434000000000000000006FFBDDFB85D04940416F4BD60AFB
310
3F4000000000000000002BED0767C5B32B40416F4BD60AFB3F40000000000000
310
0000000000000100000000010000010000000100000000000100000000320000
310
D0CF11E0A1B11AE1000000000000000000000000000000003E000300FEFF0900
310
0600000000000000000000000100000001000000000000000010000002000000
310
01000000FEFFFFFF0000000000000000FFFFFFFFFFFFFFFFFFFFFFFFFFFFFFFF
310
FFFFFFFFFFFFFFFFFFFFFFFFFFFFFFFFFFFFFFFFFFFFFFFFFFFFFFFFFFFFFFFF
310
FFFFFFFFFFFFFFFFFFFFFFFFFFFFFFFFFFFFFFFFFFFFFFFFFFFFFFFFFFFFFFFF
310
FFFFFFFFFFFFFFFFFFFFFFFFFFFFFFFFFFFFFFFFFFFFFFFFFFFFFFFFFFFFFFFF
310
FFFFFFFFFFFFFFFFFFFFFFFFFFFFFFFFFFFFFFFFFFFFFFFFFFFFFFFFFFFFFFFF
310
FFFFFFFFFFFFFFFFFFFFFFFFFFFFFFFFFFFFFFFFFFFFFFFFFFFFFFFFFFFFFFFF
310
FFFFFFFFFFFFFFFFFFFFFFFFFFFFFFFFFFFFFFFFFFFFFFFFFFFFFFFFFFFFFFFF
310
FFFFFFFFFFFFFFFFFFFFFFFFFFFFFFFFFFFFFFFFFFFFFFFFFFFFFFFFFFFFFFFF
310
FFFFFFFFFFFFFFFFFFFFFFFFFFFFFFFFFFFFFFFFFFFFFFFFFFFFFFFFFFFFFFFF
310
FFFFFFFFFFFFFFFFFFFFFFFFFFFFFFFFFFFFFFFFFFFFFFFFFFFFFFFFFFFFFFFF
310
FFFFFFFFFFFFFFFFFFFFFFFFFFFFFFFFFFFFFFFFFFFFFFFFFFFFFFFFFFFFFFFF
310
FFFFFFFFFFFFFFFFFFFFFFFFFFFFFFFFFFFFFFFFFFFFFFFFFFFFFFFFFFFFFFFF
310
FFFFFFFFFFFFFFFFFFFFFFFFFFFFFFFFFFFFFFFFFFFFFFFFFFFFFFFFFFFFFFFF
310
FFFFFFFFFFFFFFFFFFFFFFFFFFFFFFFFFFFFFFFFFFFFFFFFFFFFFFFFFFFFFFFF
310
FDFFFFFFFEFFFFFFFEFFFFFFFEFFFFFF05000000060000000700000008000000
310
090000000A0000000B0000000C0000000D0000000E0000000F00000010000000
310
11000000120000001300000014000000150000001600000017000000FEFFFFFF
310
FFFFFFFFFFFFFFFFFFFFFFFFFFFFFFFFFFFFFFFFFFFFFFFFFFFFFFFFFFFFFFFF
310
FFFFFFFFFFFFFFFFFFFFFFFFFFFFFFFFFFFFFFFFFFFFFFFFFFFFFFFFFFFFFFFF
310
FFFFFFFFFFFFFFFFFFFFFFFFFFFFFFFFFFFFFFFFFFFFFFFFFFFFFFFFFFFFFFFF
310
FFFFFFFFFFFFFFFFFFFFFFFFFFFFFFFFFFFFFFFFFFFFFFFFFFFFFFFFFFFFFFFF
310
FFFFFFFFFFFFFFFFFFFFFFFFFFFFFFFFFFFFFFFFFFFFFFFFFFFFFFFFFFFFFFFF
310
FFFFFFFFFFFFFFFFFFFFFFFFFFFFFFFFFFFFFFFFFFFFFFFFFFFFFFFFFFFFFFFF
310
FFFFFFFFFFFFFFFFFFFFFFFFFFFFFFFFFFFFFFFFFFFFFFFFFFFFFFFFFFFFFFFF
310
FFFFFFFFFFFFFFFFFFFFFFFFFFFFFFFFFFFFFFFFFFFFFFFFFFFFFFFFFFFFFFFF
310
FFFFFFFFFFFFFFFFFFFFFFFFFFFFFFFFFFFFFFFFFFFFFFFFFFFFFFFFFFFFFFFF
310
FFFFFFFFFFFFFFFFFFFFFFFFFFFFFFFFFFFFFFFFFFFFFFFFFFFFFFFFFFFFFFFF
310
FFFFFFFFFFFFFFFFFFFFFFFFFFFFFFFFFFFFFFFFFFFFFFFFFFFFFFFFFFFFFFFF
310
FFFFFFFFFFFFFFFFFFFFFFFFFFFFFFFFFFFFFFFFFFFFFFFFFFFFFFFFFFFFFFFF
310
FFFFFFFFFFFFFFFFFFFFFFFFFFFFFFFFFFFFFFFFFFFFFFFFFFFFFFFFFFFFFFFF
310
52006F006F007400200045006E00740072007900000000000000000000000000
310
0000000000000000000000000000000000000000000000000000000000000000
310
16000500FFFFFFFFFFFFFFFF020000000A00030000000000C000000000000046
310
00000000000000000000000020768AD82B25D20103000000C000000000000000
310
01004F006C006500000000000000000000000000000000000000000000000000
310
0000000000000000000000000000000000000000000000000000000000000000
310
0A000200FFFFFFFFFFFFFFFFFFFFFFFF00000000000000000000000000000000
310
0000000000000000000000000000000000000000000000001400000000000000
310
010043006F006D0070004F0062006A0000000000000000000000000000000000
310
0000000000000000000000000000000000000000000000000000000000000000
310
120002010100000003000000FFFFFFFF00000000000000000000000000000000
310
0000000000000000000000000000000000000000010000004D00000000000000
310
01004F006C006500310030004E00610074006900760065000000000000000000
310
0000000000000000000000000000000000000000000000000000000000000000
310
1A000200FFFFFFFFFFFFFFFFFFFFFFFF00000000000000000000000000000000
310
0000000000000000000000000000000000000000040000002426000000000000
310
FEFFFFFF02000000FEFFFFFFFFFFFFFFFFFFFFFFFFFFFFFFFFFFFFFFFFFFFFFF
310
FFFFFFFFFFFFFFFFFFFFFFFFFFFFFFFFFFFFFFFFFFFFFFFFFFFFFFFFFFFFFFFF
310
FFFFFFFFFFFFFFFFFFFFFFFFFFFFFFFFFFFFFFFFFFFFFFFFFFFFFFFFFFFFFFFF
310
FFFFFFFFFFFFFFFFFFFFFFFFFFFFFFFFFFFFFFFFFFFFFFFFFFFFFFFFFFFFFFFF
310
FFFFFFFFFFFFFFFFFFFFFFFFFFFFFFFFFFFFFFFFFFFFFFFFFFFFFFFFFFFFFFFF
310
FFFFFFFFFFFFFFFFFFFFFFFFFFFFFFFFFFFFFFFFFFFFFFFFFFFFFFFFFFFFFFFF
310
FFFFFFFFFFFFFFFFFFFFFFFFFFFFFFFFFFFFFFFFFFFFFFFFFFFFFFFFFFFFFFFF
310
FFFFFFFFFFFFFFFFFFFFFFFFFFFFFFFFFFFFFFFFFFFFFFFFFFFFFFFFFFFFFFFF
310
FFFFFFFFFFFFFFFFFFFFFFFFFFFFFFFFFFFFFFFFFFFFFFFFFFFFFFFFFFFFFFFF
310
FFFFFFFFFFFFFFFFFFFFFFFFFFFFFFFFFFFFFFFFFFFFFFFFFFFFFFFFFFFFFFFF
310
FFFFFFFFFFFFFFFFFFFFFFFFFFFFFFFFFFFFFFFFFFFFFFFFFFFFFFFFFFFFFFFF
310
FFFFFFFFFFFFFFFFFFFFFFFFFFFFFFFFFFFFFFFFFFFFFFFFFFFFFFFFFFFFFFFF
310
FFFFFFFFFFFFFFFFFFFFFFFFFFFFFFFFFFFFFFFFFFFFFFFFFFFFFFFFFFFFFFFF
310
FFFFFFFFFFFFFFFFFFFFFFFFFFFFFFFFFFFFFFFFFFFFFFFFFFFFFFFFFFFFFFFF
310
FFFFFFFFFFFFFFFFFFFFFFFFFFFFFFFFFFFFFFFFFFFFFFFFFFFFFFFFFFFFFFFF
310
FFFFFFFFFFFFFFFFFFFFFFFFFFFFFFFFFFFFFFFFFFFFFFFFFFFFFFFFFFFFFFFF
310
0100000200000000000000000000000000000000000000000000000000000000
310
0000000000000000000000000000000000000000000000000000000000000000
310
0100FEFF030A0000FFFFFFFF0A00030000000000C00000000000004607000000
310
5042727573680007000000504272757368000700000050427275736800F439B2
310
7100000000000000000000000000000000000000000000000000000000000000
310
0000000000000000000000000000000000000000000000000000000000000000
310
0000000000000000000000000000000000000000000000000000000000000000
310
0000000000000000000000000000000000000000000000000000000000000000
310
0000000000000000000000000000000000000000000000000000000000000000
310
0000000000000000000000000000000000000000000000000000000000000000
310
0000000000000000000000000000000000000000000000000000000000000000
310
0000000000000000000000000000000000000000000000000000000000000000
310
0000000000000000000000000000000000000000000000000000000000000000
310
0000000000000000000000000000000000000000000000000000000000000000
310
0000000000000000000000000000000000000000000000000000000000000000
310
0000000000000000000000000000000000000000000000000000000000000000
310
20260000424D0E260000000000003E00000028000000B40200006E0000000100
310
01000000000000000000130B0000130B00000200000002000000000000FFFFFF
310
FFFFFFFFFFFFFFFFFFFFFFFFFFFFFFFFFFFFFFFFFFFFFFFFFFFFFFFFFFFFFFFF
310
FFFFFFFFFFFFFFFFFFFFFFFFFFFFFFFFFFFFFFFFFFFFFFFFFFFFFFFFFFFFFFFF
310
FFFFFFFFFFFFFFFFFFFFFFFFFFFFFFFFFFFFFFFFFFFFFFFFF000FFFFFFFFFFFF
310
FFFFFFFFFFFFFFFFFFFFFFFFFFFFFFFFFFFFFFFFFFFFFFFFFFFFFFFFFFFFFFFF
310
FFFFFFFFFFFFFFFFFFFFFFFFFFFFFFFFFFFFFFFFFFFFFFFFFFFFFFFFFFFFFFFF
310
FFFFFFFFFFFFFFFFFFFFFFFFFFFFFFFFF000FFFFFFFFFFFFFFFFFFFFFFFFFFFF
310
FFFFFFFFFFFFFFFFFFFFFFFFFFFFFFFFFFFFFFFFFFFFFFFFFFFFFFFFFFFFFFFF
310
FFFFFFFFFFFFFFFFFFFFFFFFFFFFFFFFFFFFFFFFFFFFFFFFFFFFFFFFFFFFFFFF
310
FFFFFFFFFFFFFFFFF000FFFFFFFFFFFFFFFFFFFFFFFFFFFFFFFFFFFFFFFFFFFF
310
FFFFFFFFFFFFFFFFFFFFFFFFFFFFFFFFFFFFFFFFFFFFFFFFFFFFFFFFFFFFFFFF
310
FFFFFFFFFFFFFFFFFFFFFFFFFFFFFFFFFFFFFFFFFFFFFFFFFFFFFFFFFFFFFFFF
310
F000FFFFFFFFFFFFFFFFFFFFFFFFFFFFFFFFFFFFFFFFFFFFFFFFFFFFFFFFFFFF
310
FFFFFFFFFFFFFFFFFFFFFFFFFFFFFFFFFFFFFFFFFFFFFFFFFFFFFFFFFFFFFFFF
310
FFFFFFFFFFFFFFFFFFFFFFFFFFFFFFFFFFFFFFFFFFFFFFFFF000FFFFFFFFFFFF
310
FFFFFFFFFFFFFFFFFFFFFFFFFFFFFFFFFFFFFFFFFFFFFFFFFFFFFFFFFFFFFFFF
310
FFFFFFFFFFFFFFFFFFFFFFFFFFFFFFFFFFFFFFFFFFFFFFFFFFFFFFFFFFFFFFFF
310
FFFFFFFFFFFFFFFFFFFFFFFFFFFFFFFFF000FFFFFFFFFFFFFFFFFFFFFFFFFFFF
310
FFFFFFFFFFFFFFFFFFFFFFFFFFFFFFFFFFFFFFFFFFFFFFFFFFFFFFFFFFFFFFFF
310
FFFFFFFFFFFFFFFFFFFFFFFFFFFFFFFFFFFFFFFFFFFFFFFFFFFFFFFFFFFFFFFF
310
FFFFFFFFFFFFFFFFF000FFFFFFFFFFFFFFFFFFFFFFFFFFFFFFFFFFFFFFFFFFFF
310
FFFFFFFFFFFFFFFFFFFFFFFFFFFFFFFFFFFFFFFFFFFFFFFFFFFFFFFFFFFFFFFF
310
FFFFFFFFFFFFFFFFFFFFFFFFFFFFFFFFFFFFFFFFFFFFFFFFFFFFFFFFFFFFFFFF
310
F000FFFFFFFFFFFFFFFFFFFFFFFFFFFFFFFFFFFFFFFFFFFFFFFFFFFFFFFFFFFF
310
FFFFFFFFFFFFFFFFFFFFFFFFFFFFFFFFFFFFFFFFFFFFFFFFFFFFFFFFFFFFFFFF
310
FFFFFFFFFFFFFFFFFFFFFFFFFFFFFFFFFFFFFFFFFFFFFFFFF000FFFFFFFFFFFF
310
FFFFFFFFFFFFFFFFFFFFFFFFFFFFFFFFFFFFFFFFFFFFFFFFFFFFFFFFFFFFFFFF
310
FFFFFFFFFFFFFFFFFFFFFFFFFFFFFFFFFFFFFFFFFFFFFFFFFFFFFFFFFFFFFFFF
310
FFFFFFFFFFFFFFFFFFFFFFFFFFFFFFFFF000FFFFFFFFFFFFFFFFFFFFFFFFFFFF
310
FFFFFFFFFFFFFFFFFFFFFFFFFFFFFFFFFFFFFFFFFFFFFFFFFFFFFFFFFFFFFFFF
310
FFFFFFFFFFFFFFFFFFFFFFFFFFFFFFFFFFFFFFFFFFFFFFFFFFFFFFFFFFFFFFFF
310
FFFFFFFFFFFFFFFFF000FFFFFFFFFFFFFFFFFFFFFFFFFFFFFFFFFFFFFFFFFFFF
310
FFFFFFFFFFFFFFFFFFFFFFFFFFFFFFFFFFFFFFFFFFFFFFFFFFFFFFFFFFFFFFFF
310
FFFFFFFFFFFFFFFFFFFFFFFFFFFFFFFFFFFFFFFFFFFFFFFFFFFFFFFFFFFFFFFF
310
F000FFFFFFFFFFFFFFFFFFFFFFFFFFFFFFFFFFFFFFFFFFFFFFFFFFFFFFFFFFFF
310
FFFFFFFFFFFFFFFFFFFFFFFFFFFFFFFFFFFFFFFFFFFFFFFFFFFFFFFFFFFFFFFF
310
FFFFFFFFFFFFFFFFFFFFFFFFFFFFFFFFFFFFFFFFFFFFFFFFF000FFFFFFFFFFFF
310
FFFFFFFFFFFFFFFFFFFFFFFFFFFFFFFFFFFFFFFFFFFFFFFFFFFFFFFFFFFFFFFF
310
FFFFFFFFFFFFFFFFFFFFFFFFFFFFFFFFFFFFFFFFFFFFFFFFFFFFFFFFFFFFFFFF
310
FFFFFFFFFFFFFFFFFFFFFFFFFFFFFFFFF000FFFFFFFFFFFFFFFFFFFFFFFFFFFF
310
FFFFFFFFFFFFFFFFFFFFFFFFFFFFFFFFFFFFFFFFFFFFFFFFFFFFFFFFFFFFFFFF
310
FFFFFFFFFFFFFFFFFFFFFFFFFFFFFFFFFFFFFFFFFFFFFFFFFFFFFFFFFFFFFFFF
310
FFFFFFFFFFFFFFFFF000FFFFFFFFFFFFFFFFFFFFFFFFFFFFFFFFFFFFFFFFFFFF
310
FFFFFFFFFFFFFFFFFFFFFFFFFFFFFFFFFFFFFFFFFFFFFFFFFFFFFFFFFFFFFFFF
310
FFFFFFFFFFFFFFFFFFFFFFFFFFFFFFFFFFFFFFFFFFFFFFFFFFFFFFFFFFFFFFFF
310
F000FFFFFFFFFFFFFFFFFFFFFFFFFFFFFFFFFFFFFFFFFFFFFFFFFFFFFFFFFFFF
310
FFFFFFFFFFFFFFFFFFFFFFFFFFFFFFFFFFFFFFFFFFFFFFFFFFFFFFFFFFFFFFFF
310
FFFFFFFFFFFFFFFFFFFFFFFFFFFFFFFFFFFFFFFFFFFFFFFFF000FFFFFFFFFFFF
310
FFFFFFFFFFFFFFFFFFFFFFFFFFFFFFFFFFFFFFFFFFFFFFFFFFFFFFFFFFFFFFFF
310
FFFFFFFFFFFFFFFFFFFFFFFFFFFFFFFFFFFFFFFFFFFFFFFFFFFFFFFFFFFFFFFF
310
FFFFFFFFFFFFFFFFFFFFFFFFFFFFFFFFF000FFFFFFFFFFFFFFFFFFFFFFFFFFFF
310
FFFFFFFFFFFFFFFFFFFFFFFFFFFFFFFFFFFFFFFFFFFFFFFFFFFFFFFFFFFFFFFF
310
FFFFFFFFFFFFFFFFFFFFFFFFFFFFFFFFFFFFFFFFFFFFFFFFFFFFFFFFFFFFFFFF
310
FFFFFFFFFFFFFFFFF000FFFFF80003FFFFFFFFFFFFFFFFFFFFFFFFFFFFFFFFFF
310
FFFFF00007FFFFFFFFFF00007FFFFFF800000000000000007FFFFFFFFFFFFFFF
310
FFFFFFFC001FFFFFFFFFFFFFFC001FFFFFFFFFFFFFFFFFFFFFFFFFFE0007FFFF
310
F000FFFF8000007FFFFFFFF8000FFFFFC0007FFFFF80007FFFFF0000007FFFFF
310
FFF8000007FFFFF800000000000000007FFFFFF0001FFFFFFFFFFFC00001FFFF
310
FFFFFFFFC00001FFFFFFFF000000000003FFFFE000007FFFF000FFFE0000000F
310
FFFFFFF0000FFFFF80007FFFFF80007FFFFC0000001FFFFFFFC0000001FFFFF8
310
00000000000000007FFFFFF0001FFFFFFFFFFE0000003FFFFFFFFFFE0000003F
310
FFFFFF000000000003FFFF0000000FFFF000FFF800000003FFFFFFF00007FFFF
310
80007FFFFF80007FFFF000000007FFFFFF000000003FFFF80000000000000000
310
7FFFFFF0001FFFFFFFFFF80000000FFFFFFFFFF80000000FFFFFFF0000000000
310
03FFFC00000003FFF000FFE000000000FFFFFFF00007FFFF80003FFFFF80007F
310
FFC000000001FFFFFC000000001FFFF800000000000000007FFFFFF0001FFFFF
310
FFFFE000000003FFFFFFFFE000000003FFFFFF000000000003FFF000000000FF
310
F000FF80000000007FFFFFF00007FFFF80003FFFFF80007FFF8000000000FFFF
310
F80000000007FFF800000000000000007FFFFFF0001FFFFFFFFFC000000001FF
310
FFFFFFC000000001FFFFFF000000000003FFC0000000007FF000FF0000000000
310
3FFFFFE00007FFFF00003FFFFF80007FFE00000000003FFFF00000000003FFF8
310
00000000000000007FFFFFF0001FFFFFFFFF8000000000FFFFFFFF8000000000
310
FFFFFF000000000003FF80000000003FF000FE00000000001FFFFFE00003FFFF
310
00003FFFFF80007FFC00000000001FFFE00000000001FFF8000001FFFE000000
310
7FFFFFF0001FFFFFFFFE00000000003FFFFFFE00000000003FFFFF0000000000
310
03FF00000000001FF000FC00000000000FFFFFE00003FFFF00001FFFFF80007F
310
F800000000001FFFC00000000000FFF8000001FFFE0000007FFFFFF0001FFFFF
310
FFFC00000000001FFFFFFC00000000001FFFFF000000000003FE00000000000F
310
F000F8000000000007FFFFE00003FFFF00001FFFFF80007FF800000000000FFF
310
800000000000FFF8000001FFFE0000007FFFFFF0001FFFFFFFF800000000000F
310
FFFFF800000000000FFFFF000000000003FC000000000007F000F80000000000
310
03FFFFC00003FFFE00001FFFFF80007FF0000000000007FF0000000000007FF8
310
000001FFFE0000007FFFFFF0001FFFFFFFF0000000000007FFFFF00000000000
310
07FFFF000000000003F8000000000003F000F0000000000003FFFFC00001FFFE
310
00001FFFFF80007FE0000000000007FE0000000000003FF8000001FFFE000000
310
7FFFFFF0001FFFFFFFF0000000000007FFFFF0000000000007FFFF0000000000
310
03F800001F800003F000E00001FFF00001FFFFC00001FFFE00000FFFFF80007F
310
E00001FFE00003FE00001FFF00003FF8000001FFFE0000007FFFFFF0001FFFFF
310
FFE000003E000003FFFFE000003E000003FFFF000000000003F00001FFF80001
310
F000E00007FFFC0001FFFFC00001FFFE00000FFFFF80007FC0000FFFFC0003FC
310
0000FFFFC0001FF8000001FFFE0000007FFFFFF0001FFFFFFFC00003FFE00001
310
FFFFC00003FFE00001FFFF0001FFFFFFFFF00007FFFE0001F000E0000FFFFF00
310
00FFFF800001FFFC00000FFFFF80007FC0001FFFFE0001FC0001FFFFE0001FF8
310
000001FFFE0000007FFFFFF0001FFFFFFF80000FFFF80000FFFF80000FFFF800
310
00FFFF0003FFFFFFFFE0000FFFFF8000F000C0003FFFFF8000FFFF800000FFFC
310
000007FFFF80007F80003FFFFF0001FC0003FFFFF0001FF8000001FFFE000000
310
7FFFFFF0001FFFFFFF80003FFFFE0000FFFF80003FFFFE0000FFFF0003FFFFFF
310
FFE0003FFFFF8000F000C0003FFFFF8000FFFF800000FFFC000007FFFF80007F
310
80007FFFFF8001F80007FFFFF8000FF8000001FFFE0000007FFFFFF0001FFFFF
310
FF00007FFFFF00007FFF00007FFFFF00007FFF0003FFFFFFFFE0003FFFFFC000
310
F000C0007FFFFFC000FFFF000000FFFC000007FFFF80007F8000FFFFFF8000F8
310
000FFFFFF8000FF8000001FFFE0000007FFFFFF0001FFFFFFF0000FFFFFF8000
310
7FFF0000FFFFFF80007FFF0003FFFFFFFFC0007FFFFFC00070008000FFFFFFC0
310
00FFFF000000FFF8000007FFFF80007F8000FFFFFF8000F8000FFFFFF8000FF8
310
000001FFFE0000007FFFFFF0001FFFFFFE0001FFFFFFC0003FFE0001FFFFFFC0
310
003FFF0003FFFFFFFFC0007FFFFFE00070008000FFFFFFC0007FFF0000007FF8
310
000003FFFF80007F0001FFFFFF8000F8000FFFFFF8000FF8000001FFFE000000
310
7FFFFFF0001FFFFFFE0001FFFFFFC0003FFE0001FFFFFFC0003FFF0003FFFFFF
310
FFC000FFFFFFE00070008000FFFFFFC0007FFF0000007FF8000003FFFF80007F
310
0001FFFFFF8000F8001FFFFFF8000FF8000001FFFE0000007FFFFFF0001FFFFF
310
FE0003FFFFFFE0003FFE0003FFFFFFE0003FFF0003FFFFFFFFC000FFFFFFE000
310
70008000FFFFFFC0007FFE0000007FF8000003FFFF80007F0001FFFFFF8000F0
310
001FFFFFF8000FF8000001FFFE0000007FFFFFF0001FFFFFFC0003FFFFFFE000
310
1FFC0003FFFFFFE0001FFF0003FFFFFFFFC000FFFFFFC00070008000FFFFFF80
310
007FFE0000007FF0000003FFFF80007F0001FFFFFF0000F0001FFFFFF8000FF8
310
000001FFFE0000007FFFFFF0001FFFFFFC0007FFFFFFF0001FFC0007FFFFFFF0
310
001FFF0003FFFFFFFFC000FFFFFFC00070008001FFFFFF0000FFFE0000003FF0
310
000001FFFF80007F0001FFFFFF0000F8001FFFFFF0000FF8000001FFFE000000
310
7FFFFFF0001FFFFFFC0007FFFFFFF0001FFC0007FFFFFFF0001FFF0003FFFFFF
310
FFC001FFFFFF80007000FFFFFFFFFE0000FFFE0008003FF0008001FFFF80007F
310
FFFFFFFFFC0000FFFFFFFFFFE0000FF8000001FFFE0000007FFFFFF0001FFFFF
310
F8000FFFFFFFF8000FF8000FFFFFFFF8000FFF0003FFFFFFFFFFFFFFFFFF0000
310
7000FFFFFFFFFC0000FFFC0008003FF0008001FFFF80007FFFFFFFFFF80001FF
310
FFFFFFFF80000FF8000001FFFE0000007FFFFFF0001FFFFFF8000FFFFFFFF800
310
0FF8000FFFFFFFF8000FFF0003FFFFFFFFFFFFFFFFFE0000F000FFFFFFFFE000
310
00FFFC000C003FE000C001FFFF80007FFFFFFFFFC00001FFFFFFFFFE00001FF8
310
000001FFFE0000007FFFFFF0001FFFFFF8000FFFFFFFF8000FF8000FFFFFFFF8
310
000FFF0003FFFFFFFFFFFFFFFFF00000F000FFFFFFFE000001FFFC000C001FE0
310
00C000FFFF80007FFFFFFFFE000001FFFFFFFFE000001FF80FFFFFFFFFFFFFC0
310
7FFFFFF0001FFFFFF8000FFFFFFFF8000FF8000FFFFFFFF8000FFF0003FFFFFF
310
FFFFFFFFFF800000F000FFFFFFC0000001FFFC001C001FE001C000FFFF80007F
310
FFFFFF80000003FFFFFFF80000001FF80FFFFFFFFFFFFFC07FFFFFF0001FFFFF
310
F8001FFFFFFFFC000FF8001FFFFFFFFC000FFF0003FFFFFFFFFFFFFFF0000001
310
F000FFFFF800000001FFF8001C001FE001C000FFFF80007FFFFFF800000003FF
310
FFFF800000003FF80FFFFFFFFFFFFFC07FFFFFF0001FFFFFF8001FFFFFFFFC00
310
0FF8001FFFFFFFFC000FFF0003FFFFFFFFFFFFFE00000001F000FFFFC0000000
310
03FFF8001E001FC001E000FFFF80007FFFFF8000000007FFFFFC000000003FF8
310
0FFFFFFFFFFFFFC07FFFFFF0001FFFFFF8001FFFFFFFFC000FF8001FFFFFFFFC
310
000FFF0003FFFFFFFFFFFFE000000003F000FFFE0000000007FFF8001E000FC0
310
01E0007FFF80007FFFFE0000000007FFFFE0000000007FF80FFFFFFFFFFFFFC0
310
7FFFFFF0001FFFFFF0001FFFFFFFFC0007F0001FFFFFFFFC0007FF0003FFFFFF
310
FFFFFF0000000003F000FFF80000000007FFF8001E000FC003E0007FFF80007F
310
FFF0000000000FFFFF8000000000FFF80FFFFFFFFFFFFFC07FFFFFF0001FFFFF
310
F0001FFFFFFFFC0007F0001FFFFFFFFC0007FF0003FFFFFFFFFFFC0000000007
310
F000FFE0000000000FFFF0003E000FC003E0007FFF80007FFFC0000000001FFF
310
FE0000000001FFF80FFFFFFFFFFFFFC07FFFFFF0001FFFFFF0001FFFFFFFFC00
310
07F0001FFFFFFFFC0007FF0003FFFFFFFFFFF0000000000FF000FFC000000000
310
1FFFF0003F000F8003F0003FFF80007FFF80000000003FFFF80000000003FFF8
310
0FFFFFFFFFFFFFC07FFFFFF0001FFFFFF0001FFFFFFFFC0007F0001FFFFFFFFC
310
0007FF0003FFFFFFFFFFE0000000001FF000FF00000000007FFFF0003F000780
310
03F0003FFF80007FFF00000000007FFFF00000000007FFF80FFFFFFFFFFFFFC0
310
7FFFFFF0001FFFFFF0001FFFFFFFFC0007F0001FFFFFFFFC0007FF0003FFFFFF
310
FFFF80000000007FF000FE0000000000FFFFE0003F00078007F0003FFF80007F
310
FE0000000001FFFFE0000000001FFFF80FFFFFFFFFFFFFC07FFFFFF0001FFFFF
310
F0001FFFFFFFFC0007F0001FFFFFFFFC0007FF0003FFFFFFFFFF0000000000FF
310
F000FC0000000003FFFFE0007F00078007F0003FFF80007FFC0000000007FFFF
310
C0000000007FFFF80FFFFFFFFFFFFFC07FFFFFF0001FFFFFF8001FFFFFFFFC00
310
0FF8001FFFFFFFFC000FFF0003FFFFFFFFFE0000000003FFF000FC000000000F
310
FFFFE0007F80070007F8001FFF80007FF8000000001FFFFF8000000001FFFFF8
310
0FFFFFFFFFFFFFC07FFFFFF0001FFFFFF8001FFFFFFFFC000FF8001FFFFFFFFC
310
000FFF0003FFFFFFFFFC000000000FFFF000F8000000007FFFFFE0007F800700
310
07F8001FFF80007FF000000000FFFFFF800000000FFFFFF80FFFFFFFFFFFFFC0
310
7FFFFFF0001FFFFFF8000FFFFFFFF8000FF8000FFFFFFFF8000FFF0003FFFFFF
310
FFFC000000007FFFF000F800000007FFFFFFC0007F8003000FF8001FFF80007F
310
F000000007FFFFFF000000007FFFFFF80FFFFFFFFFFFFFC07FFFFFF0001FFFFF
310
F8000FFFFFFFF8000FF8000FFFFFFFF8000FFF0003FFFFFFFFF80000000FFFFF
310
F000F0000000FFFFFFFFC000FF8003000FF8001FFF80007FE0000000FFFFFFFF
310
0000000FFFFFFFF8000001FFFE0000007FFFFFF0001FFFFFF8000FFFFFFFF800
310
0FF8000FFFFFFFF8000FFF0003FFFFFFFFF8000000FFFFFFF000F000000FFFFF
310
FFFFC000FFC002000FF8000FFF80007FE000001FFFFFFFFE000001FFFFFFFFF8
310
000001FFFE0000007FFFFFF0001FFFFFF8000FFFFFFFF8000FF8000FFFFFFFF8
310
000FFF0003FFFFFFFFF000001FFFFFFFF000E00000FFFFFFFFFFC000FFC00200
310
0FFC000FFF80007FE00001FFFFFFFFFE00001FFFFFFFFFF8000001FFFE000000
310
7FFFFFF0001FFFFFFC000FFFFFFFF8001FFC000FFFFFFFF8001FFF0003FFFFFF
310
FFF00001FFFFFFFFF000E00007FFFFFFFFFF8000FFC000001FFC000FFF80007F
310
C0000FFFFFFFFFFE0000FFFFFFFFFFF8000001FFFE0000007FFFFFF0001FFFFF
310
FC0007FFFFFFF0001FFC0007FFFFFFF0001FFF0003FFFFFFFFF00007FFFFFFFF
310
F000E0001FFFFFFFFFFF8000FFC000001FFC000FFF80007FC0003FFFFFFFFFFE
310
0001FFFFFFFFFFF8000001FFFE0000007FFFFFF0001FFFFFFC0007FFFFFFF000
310
1FFC0007FFFFFFF0001FFF0003FFFFFFFFF0001FFFFFFFFFF000E0003FFFFF00
310
03FF8001FFE000001FFC0007FF80007FC0007FFFFF0007FC0003FFFFF0003FF8
310
000001FFFE0000007FFFFFF0001FFFFFFC0003FFFFFFE0001FFC0003FFFFFFE0
310
001FFF0003FFFFFFFFF0003FFFFFFFFFF000E0003FFFFF0001FF8001FFE00000
310
1FFE0007FF80007FC0007FFFFE0003FC0007FFFFE0003FF8000001FFFE000000
310
7FFFFFF0001FFFFFFE0003FFFFFFE0003FFE0003FFFFFFE0003FFF0003FFFFFF
310
FFF0003FFFFF8001F000E0003FFFFF0001FF0001FFE000001FFE0007FF80007F
310
C0007FFFFE0003FC0007FFFFE0003FF8000001FFFE0000007FFFFFF0001FFFFF
310
FE0001FFFFFFC0003FFE0001FFFFFFC0003FFF0003FFFFFFFFF0003FFFFF0001
310
F000E0003FFFFF0003FF0001FFE000003FFE0007FF80007FC0007FFFFE0003FC
310
0007FFFFE0003FF8000001FFFE0000007FFFFFF0001FFFFFFF0001FFFFFFC000
310
7FFF0001FFFFFFC0007FFF0003FFFFFFFFF0003FFFFF0001F000E0003FFFFE00
310
03FF0003FFF000003FFE0003FF80007FC0007FFFFC0003FE0007FFFFE0003FF8
310
000001FFFE0000007FFFFFF0001FFFFFFF0000FFFFFF80007FFF0000FFFFFF80
310
007FFF0003FFFFFFFFF0003FFFFF0001F000E0003FFFFE0003FF0003FFF00000
310
3FFF0003FF80007FC0007FFFFC0007FE0007FFFFC0003FF8000001FFFE000000
310
7FFFFFF0001FFFFFFF80007FFFFF0000FFFF80007FFFFF0000FFFF0003FFFFFF
310
FFF0003FFFFF0003F000E0003FFFFC0003FE0003FFF000003FFF0003FF80007F
310
E0003FFFF80007FE0003FFFFC0007FF8000001FFFE0000007FFFFFF0001FFFFF
310
FF80003FFFFE0000FFFF80003FFFFE0000FFFF0003FFFFFFFFF0001FFFFE0003
310
F000F0001FFFF80003FE0003FFF000007FFF0001FF80007FE0003FFFF00007FE
310
0001FFFF80007FF8000001FFFE0000007FFFFFF0001FFFFFFFC0000FFFF80001
310
FFFFC0000FFFF80001FFFF0003FFFFFFFFF0001FFFFC0003F000F0000FFFF000
310
07FE0007FFF800007FFF0001FF80007FE0001FFFE00007FF0000FFFE00007FF8
310
000001FFFE0000007FFFFFF0001FFFFFFFC00003FFE00001FFFFC00003FFE000
310
01FFFF0003FFFFFFFFF8000FFFF80003F000F00003FFC00007FC0007FFF80000
310
7FFF8001FF80007FF00007FF80000FFF00007FF80000FFF8000001FFFE000000
310
7F80000000000001FFE000003E000003FFFFE000003E000003FFFF0003FFFFFF
310
FFF80003FFE00007F000F800000000000FFC0007FFF800007FFF8001FF80007F
310
F000000000000FFF000000000000FFF8000001FFFE0000007F80000000000001
310
FFF0000000000007FFFFF0000000000007FFFF0003FFFFFFFFFC00007E000007
310
F000F800000000000FFC0007FFF80000FFFF8000FF80007FF800000000001FFF
310
800000000001FFF8000001FFFE0000007F80000000000001FFF800000000000F
310
FFFFF800000000000FFFFF0003FFFFFFFFFC00000000000FF000FC0000000000
310
1FFC0007FFFC0000FFFF8000FF80007FF800000000003FFFC00000000001FFF8
310
000001FFFE0000007F80000000000001FFF800000000000FFFFFF80000000000
310
0FFFFF0003FFFFFFFFFE00000000001FF000FE00000000003FF8000FFFFC0000
310
FFFF8000FF80007FFC00000000003FFFC00000000003FFF8000001FFFE000000
310
7F80000000000001FFFC00000000001FFFFFFC00000000001FFFFF0003FFFFFF
310
FFFF00000000001FF000FF00000000003FF8000FFFFC0000FFFFC000FF80007F
310
FE00000000007FFFE00000000007FFF8000001FFFE0000007F80000000000001
310
FFFE00000000003FFFFFFE00000000003FFFFF0003FFFFFFFFFF80000000003F
310
F000FF80000000007FF8000FFFFC0001FFFFC0007F80007FFF0000000000FFFF
310
F0000000000FFFF800000000000000007F80000000000001FFFF8000000000FF
310
FFFFFF8000000000FFFFFF0003FFFFFFFFFFC0000000007FF000FFC000000000
310
FFF8000FFFFE0001FFFFC0007F80007FFF8000000001FFFFF8000000001FFFF8
310
00000000000000007F80000000000001FFFFC000000001FFFFFFFFC000000001
310
FFFFFF0003FFFFFFFFFFE000000000FFF000FFE000000003FFF0001FFFFE0001
310
FFFFC0007F80007FFFC000000007FFFFFE000000003FFFF80000000000000000
310
7F80000000000001FFFFE000000003FFFFFFFFE000000003FFFFFF0003FFFFFF
310
FFFFF000000003FFF000FFF80000000FFFF0001FFFFE0001FFFFE0007F80007F
310
FFF00000000FFFFFFF00000000FFFFF800000000000000007F80000000000001
310
FFFFF80000000FFFFFFFFFF80000000FFFFFFF0003FFFFFFFFFFFC0000000FFF
310
F000FFFE0000003FFFF0001FFFFE0003FFFFE0003F80007FFFFC0000003FFFFF
310
FFC0000003FFFFF800000000000000007F80000000000001FFFFFE0000003FFF
310
FFFFFFFE0000003FFFFFFF0003FFFFFFFFFFFF0000003FFFF000FFFF800000FF
310
FFF0001FFFFF0003FFFFE0003F80007FFFFF000001FFFFFFFFF800001FFFFFF8
310
00000000000000007F80000000000001FFFFFFC00001FFFFFFFFFFFFC00001FF
310
FFFFFF0003FFFFFFFFFFFFC00000FFFFF000FFFFF8000FFFFFFFFFFFFFFFFFFF
310
FFFFFFFFFFFFFFFFFFFFF0001FFFFFFFFFFF0000FFFFFFF80000000000000000
310
7FFFFFFFFFFFFFFFFFFFFFFC001FFFFFFFFFFFFFFC001FFFFFFFFFFFFFFFFFFF
310
FFFFFFFC001FFFFFF000FFFFFFFFFFFFFFFFFFFFFFFFFFFFFFFFFFFFFFFFFFFF
310
FFFFFFFFFFFFFFFFFFFFFFFFFFFFFFFFFFFFFFFFFFFFFFFFFFFFFFFFFFFFFFFF
310
FFFFFFFFFFFFFFFFFFFFFFFFFFFFFFFFFFFFFFFFFFFFFFFFFFFFFFFFFFFFFFFF
310
F000FFFFFFFFFFFFFFFFFFFFFFFFFFFFFFFFFFFFFFFFFFFFFFFFFFFFFFFFFFFF
310
FFFFFFFFFFFFFFFFFFFFFFFFFFFFFFFFFFFFFFFFFFFFFFFFFFFFFFFFFFFFFFFF
310
FFFFFFFFFFFFFFFFFFFFFFFFFFFFFFFFFFFFFFFFFFFFFFFFF000FFFFFFFFFFFF
310
FFFFFFFFFFFFFFFFFFFFFFFFFFFFFFFFFFFFFFFFFFFFFFFFFFFFFFFFFFFFFFFF
310
FFFFFFFFFFFFFFFFFFFFFFFFFFFFFFFFFFFFFFFFFFFFFFFFFFFFFFFFFFFFFFFF
310
FFFFFFFFFFFFFFFFFFFFFFFFFFFFFFFFF000FFFFFFFFFFFFFFFFFFFFFFFFFFFF
310
FFFFFFFFFFFFFFFFFFFFFFFFFFFFFFFFFFFFFFFFFFFFFFFFFFFFFFFFFFFFFFFF
310
FFFFFFFFFFFFFFFFFFFFFFFFFFFFFFFFFFFFFFFFFFFFFFFFFFFFFFFFFFFFFFFF
310
FFFFFFFFFFFFFFFFF000FFFFFFFFFFFFFFFFFFFFFFFFFFFFFFFFFFFFFFFFFFFF
310
FFFFFFFFFFFFFFFFFFFFFFFFFFFFFFFFFFFFFFFFFFFFFFFFFFFFFFFFFFFFFFFF
310
FFFFFFFFFFFFFFFFFFFFFFFFFFFFFFFFFFFFFFFFFFFFFFFFFFFFFFFFFFFFFFFF
310
F000FFFFFFFFFFFFFFFFFFFFFFFFFFFFFFFFFFFFFFFFFFFFFFFFFFFFFFFFFFFF
310
FFFFFFFFFFFFFFFFFFFFFFFFFFFFFFFFFFFFFFFFFFFFFFFFFFFFFFFFFFFFFFFF
310
FFFFFFFFFFFFFFFFFFFFFFFFFFFFFFFFFFFFFFFFFFFFFFFFF000FFFFFFFFFFFF
310
FFFFFFFFFFFFFFFFFFFFFFFFFFFFFFFFFFFFFFFFFFFFFFFFFFFFFFFFFFFFFFFF
310
FFFFFFFFFFFFFFFFFFFFFFFFFFFFFFFFFFFFFFFFFFFFFFFFFFFFFFFFFFFFFFFF
310
FFFFFFFFFFFFFFFFFFFFFFFFFFFFFFFFF000FFFFFFFFFFFFFFFFFFFFFFFFFFFF
310
FFFFFFFFFFFFFFFFFFFFFFFFFFFFFFFFFFFFFFFFFFFFFFFFFFFFFFFFFFFFFFFF
310
FFFFFFFFFFFFFFFFFFFFFFFFFFFFFFFFFFFFFFFFFFFFFFFFFFFFFFFFFFFFFFFF
310
FFFFFFFFFFFFFFFFF000FFFFFFFFFFFFFFFFFFFFFFFFFFFFFFFFFFFFFFFFFFFF
310
FFFFFFFFFFFFFFFFFFFFFFFFFFFFFFFFFFFFFFFFFFFFFFFFFFFFFFFFFFFFFFFF
310
FFFFFFFFFFFFFFFFFFFFFFFFFFFFFFFFFFFFFFFFFFFFFFFFFFFFFFFFFFFFFFFF
310
F000FFFFFFFFFFFFFFFFFFFFFFFFFFFFFFFFFFFFFFFFFFFFFFFFFFFFFFFFFFFF
310
FFFFFFFFFFFFFFFFFFFFFFFFFFFFFFFFFFFFFFFFFFFFFFFFFFFFFFFFFFFFFFFF
310
FFFFFFFFFFFFFFFFFFFFFFFFFFFFFFFFFFFFFFFFFFFFFFFFF000FFFFFFFFFFFF
310
FFFFFFFFFFFFFFFFFFFFFFFFFFFFFFFFFFFFFFFFFFFFFFFFFFFFFFFFFFFFFFFF
310
FFFFFFFFFFFFFFFFFFFFFFFFFFFFFFFFFFFFFFFFFFFFFFFFFFFFFFFFFFFFFFFF
310
FFFFFFFFFFFFFFFFFFFFFFFFFFFFFFFFF000FFFFFFFFFFFFFFFFFFFFFFFFFFFF
310
FFFFFFFFFFFFFFFFFFFFFFFFFFFFFFFFFFFFFFFFFFFFFFFFFFFFFFFFFFFFFFFF
310
FFFFFFFFFFFFFFFFFFFFFFFFFFFFFFFFFFFFFFFFFFFFFFFFFFFFFFFFFFFFFFFF
310
FFFFFFFFFFFFFFFFF000FFFFFFFFFFFFFFFFFFFFFFFFFFFFFFFFFFFFFFFFFFFF
310
FFFFFFFFFFFFFFFFFFFFFFFFFFFFFFFFFFFFFFFFFFFFFFFFFFFFFFFFFFFFFFFF
310
FFFFFFFFFFFFFFFFFFFFFFFFFFFFFFFFFFFFFFFFFFFFFFFFFFFFFFFFFFFFFFFF
310
F000FFFFFFFFFFFFFFFFFFFFFFFFFFFFFFFFFFFFFFFFFFFFFFFFFFFFFFFFFFFF
310
FFFFFFFFFFFFFFFFFFFFFFFFFFFFFFFFFFFFFFFFFFFFFFFFFFFFFFFFFFFFFFFF
310
FFFFFFFFFFFFFFFFFFFFFFFFFFFFFFFFFFFFFFFFFFFFFFFFF000FFFFFFFFFFFF
310
FFFFFFFFFFFFFFFFFFFFFFFFFFFFFFFFFFFFFFFFFFFFFFFFFFFFFFFFFFFFFFFF
310
FFFFFFFFFFFFFFFFFFFFFFFFFFFFFFFFFFFFFFFFFFFFFFFFFFFFFFFFFFFFFFFF
310
FFFFFFFFFFFFFFFFFFFFFFFFFFFFFFFFF000FFFFFFFFFFFFFFFFFFFFFFFFFFFF
310
FFFFFFFFFFFFFFFFFFFFFFFFFFFFFFFFFFFFFFFFFFFFFFFFFFFFFFFFFFFFFFFF
310
FFFFFFFFFFFFFFFFFFFFFFFFFFFFFFFFFFFFFFFFFFFFFFFFFFFFFFFFFFFFFFFF
310
FFFFFFFFFFFFFFFFF000FFFFFFFFFFFFFFFFFFFFFFFFFFFFFFFFFFFFFFFFFFFF
310
FFFFFFFFFFFFFFFFFFFFFFFFFFFFFFFFFFFFFFFFFFFFFFFFFFFFFFFFFFFFFFFF
310
FFFFFFFFFFFFFFFFFFFFFFFFFFFFFFFFFFFFFFFFFFFFFFFFFFFFFFFFFFFFFFFF
310
F000FFFFFFFFFFFFFFFFFFFFFFFFFFFFFFFFFFFFFFFFFFFFFFFFFFFFFFFFFFFF
310
FFFFFFFFFFFFFFFFFFFFFFFFFFFFFFFFFFFFFFFFFFFFFFFFFFFFFFFFFFFFFFFF
310
FFFFFFFFFFFFFFFFFFFFFFFFFFFFFFFFFFFFFFFFFFFFFFFFF000FFFFFFFFFFFF
310
FFFFFFFFFFFFFFFFFFFFFFFFFFFFFFFFFFFFFFFFFFFFFFFFFFFFFFFFFFFFFFFF
310
FFFFFFFFFFFFFFFFFFFFFFFFFFFFFFFFFFFFFFFFFFFFFFFFFFFFFFFFFFFFFFFF
310
FFFFFFFFFFFFFFFFFFFFFFFFFFFFFFFFF000FFFFFFFFFFFFFFFFFFFFFFFFFFFF
310
FFFFFFFFFFFFFFFFFFFFFFFFFFFFFFFFFFFFFFFFFFFFFFFFFFFFFFFFFFFFFFFF
310
FFFFFFFFFFFFFFFFFFFFFFFFFFFFFFFFFFFFFFFFFFFFFFFFFFFFFFFFFFFFFFFF
310
FFFFFFFFFFFFFFFFF000FFFFFFFFFFFFFFFFFFFFFFFFFFFFFFFFFFFFFFFFFFFF
310
FFFFFFFFFFFFFFFFFFFFFFFFFFFFFFFFFFFFFFFFFFFFFFFFFFFFFFFFFFFFFFFF
310
FFFFFFFFFFFFFFFFFFFFFFFFFFFFFFFFFFFFFFFFFFFFFFFFFFFFFFFFFFFFFFFF
310
F000FFFFFFFFFFFFFFFFFFFFFFFFFFFFFFFFFFFFFFFFFFFFFFFFFFFFFFFFFFFF
310
FFFFFFFFFFFFFFFFFFFFFFFFFFFFFFFFFFFFFFFFFFFFFFFFFFFFFFFFFFFFFFFF
310
FFFFFFFFFFFFFFFFFFFFFFFFFFFFFFFFFFFFFFFFFFFFFFFFF000FFFFFFFFFFFF
310
FFFFFFFFFFFFFFFFFFFFFFFFFFFFFFFFFFFFFFFFFFFFFFFFFFFFFFFFFFFFFFFF
310
FFFFFFFFFFFFFFFFFFFFFFFFFFFFFFFFFFFFFFFFFFFFFFFFFFFFFFFFFFFFFFFF
310
FFFFFFFFFFFFFFFFFFFFFFFFFFFFFFFFF0000000000000000000000000000000
310
0000000000000000000000000000000000000000000000000000000000000000
310
0000000000000000000000000000000000000000000000000000000000000000
310
0000000000000000000000000000000000000000000000000000000000000000
310
0000000000000000000000000000000000000000000000000000000000000000
310
0000000000000000000000000000000000000000000000000000000000000000
310
0000000000000000000000000000000000000000000000000000000000000000
310
0000000000000000000000000000000000000000000000000000000000000000
310
0000000000000000000000000000000000000000000000000000000000000000
310
0000000000000000000000000000000000000000000000000000000000000000
310
0000000000000000000000000000000000000000000000000000000000000000
310
0000000000000000000000000000000000000000000000000000000000000000
310
0000000000000000000000000000000000000000000000000000000000000000
310
0000000000000000000000000000000000000000000000000000000000000000
310
0000000000000000000000000000000000000000000000000000000000000000
310
0000000000000000000000000000000000000000000000000000000000000000
  1
OLE
  0
ENDSEC
  0
SECTION
  2
OBJECTS
  0
DICTIONARY
  5
C
330
0
100
AcDbDictionary
281
     1
  3
ACAD_GROUP
350
D
  3
ACAD_LAYOUT
350
1A
  3
ACAD_MLINESTYLE
350
17
  3
ACAD_PLOTSETTINGS
350
19
  3
ACAD_PLOTSTYLENAME
350
E
  3
ACAD_SCALELIST
350
47
  0
DICTIONARY
  5
D
102
{ACAD_REACTORS
330
C
102
}
330
C
100
AcDbDictionary
281
     1
  0
DICTIONARY
  5
1A
102
{ACAD_REACTORS
330
C
102
}
330
C
100
AcDbDictionary
281
     1
  3
Layout1
350
1E
  3
Layout2
350
26
  3
Model
350
22
  0
DICTIONARY
  5
17
102
{ACAD_REACTORS
330
C
102
}
330
C
100
AcDbDictionary
281
     1
  3
Standard
350
18
  0
DICTIONARY
  5
19
102
{ACAD_REACTORS
330
C
102
}
330
C
100
AcDbDictionary
281
     1
  0
ACDBDICTIONARYWDFLT
  5
E
102
{ACAD_REACTORS
330
C
102
}
330
C
100
AcDbDictionary
281
     1
  3
Normal
350
F
100
AcDbDictionaryWithDefault
340
F
  0
DICTIONARY
  5
47
102
{ACAD_REACTORS
330
C
102
}
330
C
100
AcDbDictionary
281
     1
  3
A0
350
48
  3
A1
350
49
  3
A2
350
4A
  3
A3
350
4B
  3
A4
350
4C
  3
A5
350
4D
  3
A6
350
4E
  3
A7
350
4F
  3
A8
350
50
  3
A9
350
51
  3
B0
350
52
  3
B1
350
53
  3
B2
350
54
  3
B3
350
55
  3
B4
350
56
  3
B5
350
57
  3
B6
350
58
  3
B7
350
59
  3
B8
350
5A
  3
B9
350
5B
  3
C0
350
5C
  3
C1
350
5D
  3
C2
350
5E
  3
C3
350
5F
  3
C4
350
60
  3
C5
350
61
  3
C6
350
62
  3
C7
350
63
  3
C8
350
64
  3
C9
350
65
  3
D0
350
66
  3
D1
350
67
  3
D2
350
68
  0
LAYOUT
  5
1E
102
{ACAD_REACTORS
330
1A
102
}
330
1A
100
AcDbPlotSettings
  1

  2
none_device
  4

  6

 40
0.0
 41
0.0
 42
0.0
 43
0.0
 44
0.0
 45
0.0
 46
0.0
 47
0.0
 48
0.0
 49
0.0
140
0.0
141
0.0
142
1.0
143
1.0
 70
   688
 72
     1
 73
     0
 74
     5
  7

 75
    16
147
1.0
148
0.0
149
0.0
100
AcDbLayout
  1
Layout1
 70
     1
 71
     1
 10
0.0
 20
0.0
 11
420.0
 21
297.0
 12
0.0
 22
0.0
 32
0.0
 14
1.0000000000E+20
 24
1.0000000000E+20
 34
1.0000000000E+20
 15
-1.0000000000E+20
 25
-1.0000000000E+20
 35
-1.0000000000E+20
146
0.0
 13
0.0
 23
0.0
 33
0.0
 16
1.0
 26
0.0
 36
0.0
 17
0.0
 27
1.0
 37
0.0
 76
     0
330
1B
  0
LAYOUT
  5
26
102
{ACAD_REACTORS
330
1A
102
}
330
1A
100
AcDbPlotSettings
  1

  2
none_device
  4

  6

 40
0.0
 41
0.0
 42
0.0
 43
0.0
 44
0.0
 45
0.0
 46
0.0
 47
0.0
 48
0.0
 49
0.0
140
0.0
141
0.0
142
1.0
143
1.0
 70
   688
 72
     1
 73
     0
 74
     5
  7

 75
    16
147
1.0
148
0.0
149
0.0
100
AcDbLayout
  1
Layout2
 70
     1
 71
     2
 10
0.0
 20
0.0
 11
0.0
 21
0.0
 12
0.0
 22
0.0
 32
0.0
 14
0.0
 24
0.0
 34
0.0
 15
0.0
 25
0.0
 35
0.0
146
0.0
 13
0.0
 23
0.0
 33
0.0
 16
1.0
 26
0.0
 36
0.0
 17
0.0
 27
1.0
 37
0.0
 76
     0
330
23
  0
LAYOUT
  5
22
102
{ACAD_REACTORS
330
1A
102
}
330
1A
100
AcDbPlotSettings
  1

  2
none_device
  4
Letter_(8.50_x_11.00_Inches)
  6

 40
6.35
 41
6.35
 42
6.35000508
 43
6.35000508
 44
215.9
 45
279.4
 46
0.0
 47
0.0
 48
0.0
 49
0.0
140
0.0
141
0.0
142
1.0
143
1.0
 70
  1712
 72
     1
 73
     0
 74
     0
  7

 75
     0
147
1.0
148
0.0
149
0.0
100
AcDbLayout
  1
Model
 70
     1
 71
     0
 10
0.0
 20
0.0
 11
297.0
 21
210.0
 12
0.0
 22
0.0
 32
0.0
 14
0.0
 24
0.0
 34
0.0
 15
297.0
 25
210.0
 35
0.0
146
0.0
 13
0.0
 23
0.0
 33
0.0
 16
1.0
 26
0.0
 36
0.0
 17
0.0
 27
1.0
 37
0.0
 76
     0
330
1F
331
29
  0
MLINESTYLE
  5
18
102
{ACAD_REACTORS
330
17
102
}
330
17
100
AcDbMlineStyle
  2
Standard
 70
     0
  3

 62
   256
 51
90.0
 52
90.0
 71
     2
 49
0.5
 62
   256
  6
BYLAYER
 49
-0.5
 62
   256
  6
BYLAYER
  0
ACDBPLACEHOLDER
  5
F
102
{ACAD_REACTORS
330
E
102
}
330
E
  0
SCALE
  5
48
102
{ACAD_REACTORS
330
47
102
}
330
47
100
AcDbScale
 70
     0
300
1:1
140
1.0
141
1.0
290
     1
  0
SCALE
  5
49
102
{ACAD_REACTORS
330
47
102
}
330
47
100
AcDbScale
 70
     0
300
1:2
140
1.0
141
2.0
290
     0
  0
SCALE
  5
4A
102
{ACAD_REACTORS
330
47
102
}
330
47
100
AcDbScale
 70
     0
300
1:4
140
1.0
141
4.0
290
     0
  0
SCALE
  5
4B
102
{ACAD_REACTORS
330
47
102
}
330
47
100
AcDbScale
 70
     0
300
1:5
140
1.0
141
5.0
290
     0
  0
SCALE
  5
4C
102
{ACAD_REACTORS
330
47
102
}
330
47
100
AcDbScale
 70
     0
300
1:8
140
1.0
141
8.0
290
     0
  0
SCALE
  5
4D
102
{ACAD_REACTORS
330
47
102
}
330
47
100
AcDbScale
 70
     0
300
1:10
140
1.0
141
10.0
290
     0
  0
SCALE
  5
4E
102
{ACAD_REACTORS
330
47
102
}
330
47
100
AcDbScale
 70
     0
300
1:16
140
1.0
141
16.0
290
     0
  0
SCALE
  5
4F
102
{ACAD_REACTORS
330
47
102
}
330
47
100
AcDbScale
 70
     0
300
1:20
140
1.0
141
20.0
290
     0
  0
SCALE
  5
50
102
{ACAD_REACTORS
330
47
102
}
330
47
100
AcDbScale
 70
     0
300
1:30
140
1.0
141
30.0
290
     0
  0
SCALE
  5
51
102
{ACAD_REACTORS
330
47
102
}
330
47
100
AcDbScale
 70
     0
300
1:40
140
1.0
141
40.0
290
     0
  0
SCALE
  5
52
102
{ACAD_REACTORS
330
47
102
}
330
47
100
AcDbScale
 70
     0
300
1:50
140
1.0
141
50.0
290
     0
  0
SCALE
  5
53
102
{ACAD_REACTORS
330
47
102
}
330
47
100
AcDbScale
 70
     0
300
1:100
140
1.0
141
100.0
290
     0
  0
SCALE
  5
54
102
{ACAD_REACTORS
330
47
102
}
330
47
100
AcDbScale
 70
     0
300
2:1
140
2.0
141
1.0
290
     0
  0
SCALE
  5
55
102
{ACAD_REACTORS
330
47
102
}
330
47
100
AcDbScale
 70
     0
300
4:1
140
4.0
141
1.0
290
     0
  0
SCALE
  5
56
102
{ACAD_REACTORS
330
47
102
}
330
47
100
AcDbScale
 70
     0
300
8:1
140
8.0
141
1.0
290
     0
  0
SCALE
  5
57
102
{ACAD_REACTORS
330
47
102
}
330
47
100
AcDbScale
 70
     0
300
10:1
140
10.0
141
1.0
290
     0
  0
SCALE
  5
58
102
{ACAD_REACTORS
330
47
102
}
330
47
100
AcDbScale
 70
     0
300
100:1
140
100.0
141
1.0
290
     0
  0
SCALE
  5
59
102
{ACAD_REACTORS
330
47
102
}
330
47
100
AcDbScale
 70
     0
300
1/128" = 1'-0"
140
0.0078125
141
12.0
290
     0
  0
SCALE
  5
5A
102
{ACAD_REACTORS
330
47
102
}
330
47
100
AcDbScale
 70
     0
300
1/64" = 1'-0"
140
0.015625
141
12.0
290
     0
  0
SCALE
  5
5B
102
{ACAD_REACTORS
330
47
102
}
330
47
100
AcDbScale
 70
     0
300
1/32" = 1'-0"
140
0.03125
141
12.0
290
     0
  0
SCALE
  5
5C
102
{ACAD_REACTORS
330
47
102
}
330
47
100
AcDbScale
 70
     0
300
1/16" = 1'-0"
140
0.0625
141
12.0
290
     0
  0
SCALE
  5
5D
102
{ACAD_REACTORS
330
47
102
}
330
47
100
AcDbScale
 70
     0
300
3/32" = 1'-0"
140
0.09375
141
12.0
290
     0
  0
SCALE
  5
5E
102
{ACAD_REACTORS
330
47
102
}
330
47
100
AcDbScale
 70
     0
300
1/8" = 1'-0"
140
0.125
141
12.0
290
     0
  0
SCALE
  5
5F
102
{ACAD_REACTORS
330
47
102
}
330
47
100
AcDbScale
 70
     0
300
3/16" = 1'-0"
140
0.1875
141
12.0
290
     0
  0
SCALE
  5
60
102
{ACAD_REACTORS
330
47
102
}
330
47
100
AcDbScale
 70
     0
300
1/4" = 1'-0"
140
0.25
141
12.0
290
     0
  0
SCALE
  5
61
102
{ACAD_REACTORS
330
47
102
}
330
47
100
AcDbScale
 70
     0
300
3/8" = 1'-0"
140
0.375
141
12.0
290
     0
  0
SCALE
  5
62
102
{ACAD_REACTORS
330
47
102
}
330
47
100
AcDbScale
 70
     0
300
1/2" = 1'-0"
140
0.5
141
12.0
290
     0
  0
SCALE
  5
63
102
{ACAD_REACTORS
330
47
102
}
330
47
100
AcDbScale
 70
     0
300
3/4" = 1'-0"
140
0.75
141
12.0
290
     0
  0
SCALE
  5
64
102
{ACAD_REACTORS
330
47
102
}
330
47
100
AcDbScale
 70
     0
300
1" = 1'-0"
140
1.0
141
12.0
290
     0
  0
SCALE
  5
65
102
{ACAD_REACTORS
330
47
102
}
330
47
100
AcDbScale
 70
     0
300
1-1/2" = 1'-0"
140
1.5
141
12.0
290
     0
  0
SCALE
  5
66
102
{ACAD_REACTORS
330
47
102
}
330
47
100
AcDbScale
 70
     0
300
3" = 1'-0"
140
3.0
141
12.0
290
     0
  0
SCALE
  5
67
102
{ACAD_REACTORS
330
47
102
}
330
47
100
AcDbScale
 70
     0
300
6" = 1'-0"
140
6.0
141
12.0
290
     0
  0
SCALE
  5
68
102
{ACAD_REACTORS
330
47
102
}
330
47
100
AcDbScale
 70
     0
300
1'-0" = 1'-0"
140
12.0
141
12.0
290
     0
  0
ENDSEC
  0
EOF
