  0
SECTION
  2
HEADER
  9
$ACADVER
  1
AC1015
  9
$ACADMAINTVER
 70
     6
  9
$DWGCODEPAGE
  3
ANSI_1252
  9
$INSBASE
 10
0.0
 20
0.0
 30
0.0
  9
$EXTMIN
 10
0.0
 20
0.0
 30
0.0
  9
$EXTMAX
 10
297.0
 20
210.0
 30
0.0
  9
$LIMMIN
 10
0.0
 20
0.0
  9
$LIMMAX
 10
297.0
 20
210.0
  9
$ORTHOMODE
 70
     0
  9
$REGENMODE
 70
     1
  9
$FILLMODE
 70
     1
  9
$QTEXTMODE
 70
     0
  9
$MIRRTEXT
 70
     1
  9
$LTSCALE
 40
1.0
  9
$ATTMODE
 70
     1
  9
$TEXTSIZE
 40
2.0
  9
$TRACEWID
 40
1.0
  9
$TEXTSTYLE
  7
Standard
  9
$CLAYER
  8
0
  9
$CELTYPE
  6
ByLayer
  9
$CECOLOR
 62
   256
  9
$CELTSCALE
 40
1.0
  9
$DISPSILH
 70
     0
  9
$DIMSCALE
 40
1.0
  9
$DIMASZ
 40
3.0
  9
$DIMEXO
 40
0.0
  9
$DIMDLI
 40
3.75
  9
$DIMRND
 40
0.0
  9
$DIMDLE
 40
0.0
  9
$DIMEXE
 40
1.0
  9
$DIMTP
 40
0.0
  9
$DIMTM
 40
0.0
  9
$DIMTXT
 40
2.0
  9
$DIMCEN
 40
2.5
  9
$DIMTSZ
 40
0.0
  9
$DIMTOL
 70
     0
  9
$DIMLIM
 70
     0
  9
$DIMTIH
 70
     1
  9
$DIMTOH
 70
     1
  9
$DIMSE1
 70
     0
  9
$DIMSE2
 70
     0
  9
$DIMTAD
 70
     1
  9
$DIMZIN
 70
     0
  9
$DIMBLK
  1

  9
$DIMASO
 70
     1
  9
$DIMSHO
 70
     1
  9
$DIMPOST
  1

  9
$DIMAPOST
  1

  9
$DIMALT
 70
     0
  9
$DIMALTD
 70
     3
  9
$DIMALTF
 40
0.0393700787
  9
$DIMLFAC
 40
2.0
  9
$DIMTOFL
 70
     1
  9
$DIMTVP
 40
0.0
  9
$DIMTIX
 70
     0
  9
$DIMSOXD
 70
     0
  9
$DIMSAH
 70
     0
  9
$DIMBLK1
  1

  9
$DIMBLK2
  1

  9
$DIMSTYLE
  2
ISO-25
  9
$DIMCLRD
 70
     0
  9
$DIMCLRE
 70
     0
  9
$DIMCLRT
 70
     0
  9
$DIMTFAC
 40
1.0
  9
$DIMGAP
 40
1.524
  9
$DIMJUST
 70
     0
  9
$DIMSD1
 70
     0
  9
$DIMSD2
 70
     0
  9
$DIMTOLJ
 70
     0
  9
$DIMTZIN
 70
     0
  9
$DIMALTZ
 70
     0
  9
$DIMALTTZ
 70
     0
  9
$DIMUPT
 70
     0
  9
$DIMDEC
 70
     2
  9
$DIMTDEC
 70
     3
  9
$DIMALTU
 70
     2
  9
$DIMALTTD
 70
     3
  9
$DIMTXSTY
  7
Standard
  9
$DIMAUNIT
 70
     0
  9
$DIMADEC
 70
     2
  9
$DIMALTRND
 40
0.0
  9
$DIMAZIN
 70
     0
  9
$DIMDSEP
 70
    44
  9
$DIMATFIT
 70
     3
  9
$DIMFRAC
 70
     0
  9
$DIMLDRBLK
  1

  9
$DIMLUNIT
 70
     2
  9
$DIMLWD
 70
    -2
  9
$DIMLWE
 70
    -2
  9
$DIMTMOVE
 70
     0
  9
$LUNITS
 70
     2
  9
$LUPREC
 70
     2
  9
$SKETCHINC
 40
1.0
  9
$FILLETRAD
 40
10.0
  9
$AUNITS
 70
     0
  9
$AUPREC
 70
     2
  9
$MENU
  1
.
  9
$ELEVATION
 40
0.0
  9
$PELEVATION
 40
0.0
  9
$THICKNESS
 40
0.0
  9
$LIMCHECK
 70
     0
  9
$CHAMFERA
 40
0.0
  9
$CHAMFERB
 40
0.0
  9
$CHAMFERC
 40
0.0
  9
$CHAMFERD
 40
0.0
  9
$SKPOLY
 70
     0
  9
$TDCREATE
 40
2457675.435801528
  9
$TDUCREATE
 40
2457675.352468194
  9
$TDUPDATE
 40
2457675.435803067
  9
$TDUUPDATE
 40
2457675.352469734
  9
$TDINDWG
 40
0.0000000116
  9
$TDUSRTIMER
 40
0.0000000116
  9
$USRTIMER
 70
     1
  9
$ANGBASE
 50
0.0
  9
$ANGDIR
 70
     0
  9
$PDMODE
 70
     0
  9
$PDSIZE
 40
-1.0
  9
$PLINEWID
 40
0.0
  9
$SPLFRAME
 70
     0
  9
$SPLINETYPE
 70
     6
  9
$SPLINESEGS
 70
     8
  9
$HANDSEED
  5
26D
  9
$SURFTAB1
 70
     6
  9
$SURFTAB2
 70
     6
  9
$SURFTYPE
 70
     6
  9
$SURFU
 70
     6
  9
$SURFV
 70
     6
  9
$UCSBASE
  2

  9
$UCSNAME
  2

  9
$UCSORG
 10
0.0
 20
0.0
 30
0.0
  9
$UCSXDIR
 10
1.0
 20
0.0
 30
0.0
  9
$UCSYDIR
 10
0.0
 20
1.0
 30
0.0
  9
$UCSORTHOREF
  2

  9
$UCSORTHOVIEW
 70
     0
  9
$UCSORGTOP
 10
0.0
 20
0.0
 30
0.0
  9
$UCSORGBOTTOM
 10
0.0
 20
0.0
 30
0.0
  9
$UCSORGLEFT
 10
0.0
 20
0.0
 30
0.0
  9
$UCSORGRIGHT
 10
0.0
 20
0.0
 30
0.0
  9
$UCSORGFRONT
 10
0.0
 20
0.0
 30
0.0
  9
$UCSORGBACK
 10
0.0
 20
0.0
 30
0.0
  9
$PUCSBASE
  2

  9
$PUCSNAME
  2

  9
$PUCSORG
 10
0.0
 20
0.0
 30
0.0
  9
$PUCSXDIR
 10
1.0
 20
0.0
 30
0.0
  9
$PUCSYDIR
 10
0.0
 20
1.0
 30
0.0
  9
$PUCSORTHOREF
  2

  9
$PUCSORTHOVIEW
 70
     0
  9
$PUCSORGTOP
 10
0.0
 20
0.0
 30
0.0
  9
$PUCSORGBOTTOM
 10
0.0
 20
0.0
 30
0.0
  9
$PUCSORGLEFT
 10
0.0
 20
0.0
 30
0.0
  9
$PUCSORGRIGHT
 10
0.0
 20
0.0
 30
0.0
  9
$PUCSORGFRONT
 10
0.0
 20
0.0
 30
0.0
  9
$PUCSORGBACK
 10
0.0
 20
0.0
 30
0.0
  9
$USERI1
 70
     0
  9
$USERI2
 70
     0
  9
$USERI3
 70
     0
  9
$USERI4
 70
     0
  9
$USERI5
 70
     0
  9
$USERR1
 40
0.0
  9
$USERR2
 40
0.0
  9
$USERR3
 40
0.0
  9
$USERR4
 40
0.0
  9
$USERR5
 40
0.0
  9
$WORLDVIEW
 70
     1
  9
$SHADEDGE
 70
     3
  9
$SHADEDIF
 70
    70
  9
$TILEMODE
 70
     1
  9
$MAXACTVP
 70
    64
  9
$PINSBASE
 10
0.0
 20
0.0
 30
0.0
  9
$PLIMCHECK
 70
     0
  9
$PEXTMIN
 10
1.0000000000E+20
 20
1.0000000000E+20
 30
1.0000000000E+20
  9
$PEXTMAX
 10
-1.0000000000E+20
 20
-1.0000000000E+20
 30
-1.0000000000E+20
  9
$PLIMMIN
 10
0.0
 20
0.0
  9
$PLIMMAX
 10
420.0
 20
297.0
  9
$UNITMODE
 70
     0
  9
$VISRETAIN
 70
     1
  9
$PLINEGEN
 70
     0
  9
$PSLTSCALE
 70
     1
  9
$TREEDEPTH
 70
  3020
  9
$CMLSTYLE
  2
Standard
  9
$CMLJUST
 70
     0
  9
$CMLSCALE
 40
20.0
  9
$PROXYGRAPHICS
 70
     1
  9
$MEASUREMENT
 70
     1
  9
$CELWEIGHT
370
    -1
  9
$ENDCAPS
280
     0
  9
$JOINSTYLE
280
     0
  9
$LWDISPLAY
290
     1
  9
$INSUNITS
 70
     4
  9
$HYPERLINKBASE
  1

  9
$STYLESHEET
  1

  9
$XEDIT
290
     1
  9
$CEPSNTYPE
380
     0
  9
$PSTYLEMODE
290
     1
  9
$FINGERPRINTGUID
  2
{DB03D30B-C9FD-42A2-9068-FA534AE5840B}
  9
$VERSIONGUID
  2
{FAEB1C32-E019-11D5-929B-00C0DF256EC4}
  9
$EXTNAMES
290
     1
  9
$PSVPSCALE
 40
0.0
  9
$OLESTARTUP
290
     0
  0
ENDSEC
  0
SECTION
  2
CLASSES
  0
CLASS
  1
ACDBDICTIONARYWDFLT
  2
AcDbDictionaryWithDefault
  3
ObjectDBX Classes
 90
        0
280
     0
281
     0
  0
CLASS
  1
VISUALSTYLE
  2
AcDbVisualStyle
  3
ObjectDBX Classes
 90
     4095
280
     0
281
     0
  0
CLASS
  1
MATERIAL
  2
AcDbMaterial
  3
ObjectDBX Classes
 90
     1153
280
     0
281
     0
  0
CLASS
  1
SCALE
  2
AcDbScale
  3
ObjectDBX Classes
 90
     1153
280
     0
281
     0
  0
CLASS
  1
TABLESTYLE
  2
AcDbTableStyle
  3
ObjectDBX Classes
 90
     4095
280
     0
281
     0
  0
CLASS
  1
MLEADERSTYLE
  2
AcDbMLeaderStyle
  3
ACDB_MLEADERSTYLE_CLASS
 90
     4095
280
     0
281
     0
  0
CLASS
  1
SUN
  2
AcDbSun
  3
SCENEOE
 90
     1153
280
     0
281
     0
  0
CLASS
  1
ACDBPLACEHOLDER
  2
AcDbPlaceHolder
  3
ObjectDBX Classes
 90
        0
280
     0
281
     0
  0
CLASS
  1
LAYOUT
  2
AcDbLayout
  3
ObjectDBX Classes
 90
        0
280
     0
281
     0
  0
ENDSEC
  0
SECTION
  2
TABLES
  0
TABLE
  2
VPORT
  5
8
330
0
100
AcDbSymbolTable
 70
     1
  0
VPORT
  5
29
330
8
100
AcDbSymbolTableRecord
100
AcDbViewportTableRecord
  2
*Active
 70
     0
 10
0.0
 20
0.0
 11
1.0
 21
1.0
 12
148.5
 22
105.0
 13
0.0
 23
0.0
 14
10.0
 24
10.0
 15
10.0
 25
10.0
 16
0.0
 26
0.0
 36
1.0
 17
0.0
 27
0.0
 37
0.0
 40
210.0
 41
1.4142857143
 42
50.0
 43
0.0
 44
0.0
 50
0.0
 51
0.0
 71
     0
 72
  2000
 73
     1
 74
     3
 75
     0
 76
     0
 77
     0
 78
     0
281
     0
 65
     1
110
0.0
120
0.0
130
0.0
111
1.0
121
0.0
131
0.0
112
0.0
122
1.0
132
0.0
 79
     0
146
0.0
  0
ENDTAB
  0
TABLE
  2
LTYPE
  5
5
330
0
100
AcDbSymbolTable
 70
     6
  0
LTYPE
  5
14
330
5
100
AcDbSymbolTableRecord
100
AcDbLinetypeTableRecord
  2
ByBlock
 70
     0
  3

 72
    65
 73
     0
 40
0.0
  0
LTYPE
  5
15
330
5
100
AcDbSymbolTableRecord
100
AcDbLinetypeTableRecord
  2
ByLayer
 70
     0
  3

 72
    65
 73
     0
 40
0.0
  0
LTYPE
  5
16
330
5
100
AcDbSymbolTableRecord
100
AcDbLinetypeTableRecord
  2
Continuous
 70
     0
  3
Solid line
 72
    65
 73
     0
 40
0.0
  0
LTYPE
  5
6E
330
5
100
AcDbSymbolTableRecord
100
AcDbLinetypeTableRecord
  2
HIDDEN
 70
     0
  3
Hidden __ __ __ __ __ __ __ __ __ __ __ __ __ __
 72
    65
 73
     2
 40
1.905
 49
1.27
 74
     0
 49
-0.635
 74
     0
  0
LTYPE
  5
6F
330
5
100
AcDbSymbolTableRecord
100
AcDbLinetypeTableRecord
  2
PHANTOM
 70
     0
  3
Phantom ______  __  __  ______  __  __  ______
 72
    65
 73
     6
 40
12.7
 49
6.35
 74
     0
 49
-1.27
 74
     0
 49
1.27
 74
     0
 49
-1.27
 74
     0
 49
1.27
 74
     0
 49
-1.27
 74
     0
  0
LTYPE
  5
70
330
5
100
AcDbSymbolTableRecord
100
AcDbLinetypeTableRecord
  2
CENTER
 70
     0
  3
Center ____ _ ____ _ ____ _ ____ _ ____ _ ____
 72
    65
 73
     4
 40
10.16
 49
6.35
 74
     0
 49
-1.27
 74
     0
 49
1.27
 74
     0
 49
-1.27
 74
     0
  0
LTYPE
  5
71
330
5
100
AcDbSymbolTableRecord
100
AcDbLinetypeTableRecord
  2
CENTERX2
 70
     0
  3
Center (2x) ________  __  ________  __  _____
 72
    65
 73
     4
 40
20.32
 49
12.7
 74
     0
 49
-2.54
 74
     0
 49
2.54
 74
     0
 49
-2.54
 74
     0
  0
LTYPE
  5
72
330
5
100
AcDbSymbolTableRecord
100
AcDbLinetypeTableRecord
  2
DOT2
 70
     0
  3
Dot (.5x) ........................................
 72
    65
 73
     2
 40
0.635
 49
0.0
 74
     0
 49
-0.635
 74
     0
  0
ENDTAB
  0
TABLE
  2
LAYER
  5
2
330
0
100
AcDbSymbolTable
 70
     5
  0
LAYER
  5
10
330
2
100
AcDbSymbolTableRecord
100
AcDbLayerTableRecord
  2
0
 70
     0
 62
     7
  6
Continuous
370
    -3
390
F
  0
LAYER
  5
73
330
2
100
AcDbSymbolTableRecord
100
AcDbLayerTableRecord
  2
FORMAT
 70
     0
 62
     7
  6
Continuous
370
    -3
390
F
  0
LAYER
  5
74
330
2
100
AcDbSymbolTableRecord
100
AcDbLayerTableRecord
  2
VERMASSUNG
 70
     0
 62
     7
  6
Continuous
370
    -3
390
F
  0
LAYER
  5
75
330
2
100
AcDbSymbolTableRecord
100
AcDbLayerTableRecord
  2
KOPF_DÜNN
 70
     0
 62
     7
  6
Continuous
370
    -3
390
F
  0
LAYER
  5
76
330
2
100
AcDbSymbolTableRecord
100
AcDbLayerTableRecord
  2
KOPF_DICK
 70
     0
 62
     7
  6
Continuous
370
    15
390
F
  0
ENDTAB
  0
TABLE
  2
STYLE
  5
3
330
0
100
AcDbSymbolTable
 70
     2
  0
STYLE
  5
11
330
3
100
AcDbSymbolTableRecord
100
AcDbTextStyleTableRecord
  2
Standard
 70
     0
 40
0.0
 41
1.0
 50
0.0
 71
     0
 42
2.0
  3
txt
  4

  0
STYLE
  5
77
330
3
100
AcDbSymbolTableRecord
100
AcDbTextStyleTableRecord
  2
SLDTEXTSTYLE0
 70
     0
 40
0.0
 41
0.7
 50
0.0
 71
     0
 42
2.0
  3
TXT
  4

  0
ENDTAB
  0
TABLE
  2
VIEW
  5
6
330
0
100
AcDbSymbolTable
 70
     0
  0
ENDTAB
  0
TABLE
  2
UCS
  5
7
330
0
100
AcDbSymbolTable
 70
     0
  0
ENDTAB
  0
TABLE
  2
APPID
  5
9
330
0
100
AcDbSymbolTable
 70
     1
  0
APPID
  5
12
330
9
100
AcDbSymbolTableRecord
100
AcDbRegAppTableRecord
  2
ACAD
 70
     0
  0
ENDTAB
  0
TABLE
  2
DIMSTYLE
  5
A
330
0
100
AcDbSymbolTable
 70
     3
100
AcDbDimStyleTable
  0
DIMSTYLE
105
27
330
A
100
AcDbSymbolTableRecord
100
AcDbDimStyleTableRecord
  2
ISO-25
 70
     0
 41
2.5
 42
0.625
 43
3.75
 44
1.25
 73
     0
 74
     0
 77
     1
 78
     8
140
2.5
141
2.5
143
0.0393700787
147
0.625
171
     3
172
     1
178
     0
271
     2
272
     2
274
     3
278
    44
283
     0
284
     8
340
11
  0
DIMSTYLE
105
188
102
{ACAD_REACTORS
330
187
102
}
330
A
100
AcDbSymbolTableRecord
100
AcDbDimStyleTableRecord
  2
SLDDIMSTYLE0
 70
     0
 41
3.0
 44
0.0
 45
0.000000001
 73
     0
 74
     0
 77
     1
 78
    12
 79
     3
140
2.0
147
0.5
173
     1
178
     0
271
     0
272
     3
276
     2
284
    12
340
77
  0
DIMSTYLE
105
195
102
{ACAD_REACTORS
330
194
330
1A0
330
1AC
330
1B6
330
1C0
102
}
330
A
100
AcDbSymbolTableRecord
100
AcDbDimStyleTableRecord
  2
SLDDIMSTYLE1
 70
     0
 41
3.0
 44
0.0
 45
0.000000001
 73
     0
 74
     0
 77
     1
 78
    12
 79
     3
140
2.0
147
0.5
173
     1
178
     0
271
     2
272
     3
276
     2
284
    12
340
77
  0
ENDTAB
  0
TABLE
  2
BLOCK_RECORD
  5
1
330
0
100
AcDbSymbolTable
 70
     7
  0
BLOCK_RECORD
  5
1F
330
1
100
AcDbSymbolTableRecord
100
AcDbBlockTableRecord
  2
*Model_Space
340
22
  0
BLOCK_RECORD
  5
1B
330
1
100
AcDbSymbolTableRecord
100
AcDbBlockTableRecord
  2
*Paper_Space
340
1E
  0
BLOCK_RECORD
  5
23
330
1
100
AcDbSymbolTableRecord
100
AcDbBlockTableRecord
  2
*Paper_Space0
340
26
  0
BLOCK_RECORD
  5
189
330
1
100
AcDbSymbolTableRecord
100
AcDbBlockTableRecord
  2
_D
340
0
  0
BLOCK_RECORD
  5
196
330
1
100
AcDbSymbolTableRecord
100
AcDbBlockTableRecord
  2
_D_1
340
0
  0
BLOCK_RECORD
  5
1A1
330
1
100
AcDbSymbolTableRecord
100
AcDbBlockTableRecord
  2
_D_2
340
0
  0
BLOCK_RECORD
  5
1AD
330
1
100
AcDbSymbolTableRecord
100
AcDbBlockTableRecord
  2
_D_3
340
0
  0
BLOCK_RECORD
  5
1B7
330
1
100
AcDbSymbolTableRecord
100
AcDbBlockTableRecord
  2
_D_4
340
0
  0
BLOCK_RECORD
  5
1C1
330
1
100
AcDbSymbolTableRecord
100
AcDbBlockTableRecord
  2
_D_5
340
0
  0
ENDTAB
  0
ENDSEC
  0
SECTION
  2
BLOCKS
  0
BLOCK
  5
20
330
1F
100
AcDbEntity
  8
0
100
AcDbBlockBegin
  2
*Model_Space
 70
     0
 10
0.0
 20
0.0
 30
0.0
  3
*Model_Space
  1

  0
ENDBLK
  5
21
330
1F
100
AcDbEntity
  8
0
100
AcDbBlockEnd
  0
BLOCK
  5
1C
330
1B
100
AcDbEntity
 67
     1
  8
0
100
AcDbBlockBegin
  2
*Paper_Space
 70
     0
 10
0.0
 20
0.0
 30
0.0
  3
*Paper_Space
  1

  0
ENDBLK
  5
1D
330
1B
100
AcDbEntity
 67
     1
  8
0
100
AcDbBlockEnd
  0
BLOCK
  5
24
330
23
100
AcDbEntity
  8
0
100
AcDbBlockBegin
  2
*Paper_Space0
 70
     0
 10
0.0
 20
0.0
 30
0.0
  3
*Paper_Space0
  1

  0
ENDBLK
  5
25
330
23
100
AcDbEntity
  8
0
100
AcDbBlockEnd
  0
BLOCK
  5
18A
330
189
100
AcDbEntity
  8
0
100
AcDbBlockBegin
  2
_D
 70
     0
 10
0.0
 20
0.0
 30
0.0
  3
_D
  1

  0
SOLID
  5
18C
330
189
100
AcDbEntity
  8
VERMASSUNG
100
AcDbTrace
 10
73.3332086737
 20
161.7279770306
 30
0.0
 11
72.8832086737
 21
158.7279770306
 31
0.0
 12
73.7832086737
 22
158.7279770306
 32
0.0
 13
73.7832086737
 23
158.7279770306
 33
0.0
  0
SOLID
  5
18D
330
189
100
AcDbEntity
  8
VERMASSUNG
100
AcDbTrace
 10
73.3332086737
 20
61.4279770306
 30
0.0
 11
73.7832086737
 21
64.4279770306
 31
0.0
 12
72.8832086737
 22
64.4279770306
 32
0.0
 13
72.8832086737
 23
64.4279770306
 33
0.0
  0
LINE
  5
18E
330
189
100
AcDbEntity
  8
VERMASSUNG
100
AcDbLine
 10
133.8328276747
 20
161.7279770306
 30
0.0
 11
72.3332086737
 21
161.7279770306
 31
0.0
  0
LINE
  5
18F
330
189
100
AcDbEntity
  8
VERMASSUNG
100
AcDbLine
 10
133.8328276747
 20
61.4279770306
 30
0.0
 11
72.3332086737
 21
61.4279770306
 31
0.0
  0
LINE
  5
190
330
189
100
AcDbEntity
  8
VERMASSUNG
100
AcDbLine
 10
73.3332086737
 20
161.7279770306
 30
0.0
 11
73.3332086737
 21
61.4279770306
 31
0.0
  0
MTEXT
  5
191
330
189
100
AcDbEntity
  8
VERMASSUNG
100
AcDbMText
 10
70.5550734174
 20
103.3729776508
 30
0.0
 40
2.0
 41
0.0
 71
     1
 72
     1
  1
HSK A
  7
SLDTEXTSTYLE0
 11
-7.044195017643634E-15
 21
1.0
 31
0.0
 73
     1
 44
1.0
  0
MTEXT
  5
192
330
189
100
AcDbEntity
  8
VERMASSUNG
100
AcDbMText
 10
70.7550733687
 20
112.3729772633
 30
0.0
 40
2.0
 41
0.0
 71
     1
 72
     1
  1
%%c
  7
SLDTEXTSTYLE0
 11
-7.044195017643634E-15
 21
1.0
 31
0.0
 73
     1
 44
1.0
  0
MTEXT
  5
193
330
189
100
AcDbEntity
  8
VERMASSUNG
100
AcDbMText
 10
70.5550734174
 20
115.9829772776
 30
0.0
 40
2.0
 41
0.0
 71
     1
 72
     1
  1
100
  7
SLDTEXTSTYLE0
 11
-7.044195017643634E-15
 21
1.0
 31
0.0
 73
     1
 44
1.0
  0
ENDBLK
  5
18B
330
189
100
AcDbEntity
  8
0
100
AcDbBlockEnd
  0
BLOCK
  5
197
330
196
100
AcDbEntity
  8
0
100
AcDbBlockBegin
  2
_D_1
 70
     0
 10
0.0
 20
0.0
 30
0.0
  3
_D_1
  1

  0
SOLID
  5
199
330
196
100
AcDbEntity
  8
VERMASSUNG
100
AcDbTrace
 10
220.4776165999
 20
129.5779770306
 30
0.0
 11
220.0276165999
 21
126.5779770306
 31
0.0
 12
220.9276165999
 22
126.5779770306
 32
0.0
 13
220.9276165999
 23
126.5779770306
 33
0.0
  0
SOLID
  5
19A
330
196
100
AcDbEntity
  8
VERMASSUNG
100
AcDbTrace
 10
220.4776165999
 20
93.5779770306
 30
0.0
 11
220.9276165999
 21
96.5779770306
 31
0.0
 12
220.0276165999
 22
96.5779770306
 32
0.0
 13
220.0276165999
 23
96.5779770306
 33
0.0
  0
LINE
  5
19B
330
196
100
AcDbEntity
  8
VERMASSUNG
100
AcDbLine
 10
212.3328276747
 20
129.5779770306
 30
0.0
 11
221.4776165999
 21
129.5779770306
 31
0.0
  0
LINE
  5
19C
330
196
100
AcDbEntity
  8
VERMASSUNG
100
AcDbLine
 10
212.3328276747
 20
93.5779770306
 30
0.0
 11
221.4776165999
 21
93.5779770306
 31
0.0
  0
LINE
  5
19D
330
196
100
AcDbEntity
  8
VERMASSUNG
100
AcDbLine
 10
220.4776165999
 20
129.5779770306
 30
0.0
 11
220.4776165999
 21
93.5779770306
 31
0.0
  0
MTEXT
  5
19E
330
196
100
AcDbEntity
  8
VERMASSUNG
100
AcDbMText
 10
217.899481295
 20
108.3729770733
 30
0.0
 40
2.0
 41
0.0
 71
     1
 72
     1
  1
%%c
  7
SLDTEXTSTYLE0
 11
-7.044195017643634E-15
 21
1.0
 31
0.0
 73
     1
 44
1.0
  0
MTEXT
  5
19F
330
196
100
AcDbEntity
  8
VERMASSUNG
100
AcDbMText
 10
217.6994813437
 20
111.9829770877
 30
0.0
 40
2.0
 41
0.0
 71
     1
 72
     1
  1
36
  7
SLDTEXTSTYLE0
 11
-7.044195017643634E-15
 21
1.0
 31
0.0
 73
     1
 44
1.0
  0
ENDBLK
  5
198
330
196
100
AcDbEntity
  8
0
100
AcDbBlockEnd
  0
BLOCK
  5
1A2
330
1A1
100
AcDbEntity
  8
0
100
AcDbBlockBegin
  2
_D_2
 70
     0
 10
0.0
 20
0.0
 30
0.0
  3
_D_2
  1

  0
SOLID
  5
1A4
330
1A1
100
AcDbEntity
  8
VERMASSUNG
100
AcDbTrace
 10
226.3776165999
 20
143.0779770306
 30
0.0
 11
225.9276165999
 21
140.0779770306
 31
0.0
 12
226.8276165999
 22
140.0779770306
 32
0.0
 13
226.8276165999
 23
140.0779770306
 33
0.0
  0
SOLID
  5
1A5
330
1A1
100
AcDbEntity
  8
VERMASSUNG
100
AcDbTrace
 10
226.3776165999
 20
80.0779770306
 30
0.0
 11
226.8276165999
 21
83.0779770306
 31
0.0
 12
225.9276165999
 22
83.0779770306
 32
0.0
 13
225.9276165999
 23
83.0779770306
 33
0.0
  0
LINE
  5
1A6
330
1A1
100
AcDbEntity
  8
VERMASSUNG
100
AcDbLine
 10
212.7328276747
 20
143.0779770306
 30
0.0
 11
227.3776165999
 21
143.0779770306
 31
0.0
  0
LINE
  5
1A7
330
1A1
100
AcDbEntity
  8
VERMASSUNG
100
AcDbLine
 10
212.7328276747
 20
80.0779770306
 30
0.0
 11
227.3776165999
 21
80.0779770306
 31
0.0
  0
LINE
  5
1A8
330
1A1
100
AcDbEntity
  8
VERMASSUNG
100
AcDbLine
 10
226.3776165999
 20
143.0779770306
 30
0.0
 11
226.3776165999
 21
80.0779770306
 31
0.0
  0
MTEXT
  5
1A9
330
1A1
100
AcDbEntity
  8
VERMASSUNG
100
AcDbMText
 10
223.5994813437
 20
106.4729770413
 30
0.0
 40
2.0
 41
0.0
 71
     1
 72
     1
  1
WH
  7
SLDTEXTSTYLE0
 11
-7.044195017643634E-15
 21
1.0
 31
0.0
 73
     1
 44
1.0
  0
MTEXT
  5
1AA
330
1A1
100
AcDbEntity
  8
VERMASSUNG
100
AcDbMText
 10
223.799481295
 20
110.2729771054
 30
0.0
 40
2.0
 41
0.0
 71
     1
 72
     1
  1
%%c
  7
SLDTEXTSTYLE0
 11
-7.044195017643634E-15
 21
1.0
 31
0.0
 73
     1
 44
1.0
  0
MTEXT
  5
1AB
330
1A1
100
AcDbEntity
  8
VERMASSUNG
100
AcDbMText
 10
223.5994813437
 20
113.8829771197
 30
0.0
 40
2.0
 41
0.0
 71
     1
 72
     1
  1
63
  7
SLDTEXTSTYLE0
 11
-7.044195017643634E-15
 21
1.0
 31
0.0
 73
     1
 44
1.0
  0
ENDBLK
  5
1A3
330
1A1
100
AcDbEntity
  8
0
100
AcDbBlockEnd
  0
BLOCK
  5
1AE
330
1AD
100
AcDbEntity
  8
0
100
AcDbBlockBegin
  2
_D_3
 70
     0
 10
0.0
 20
0.0
 30
0.0
  3
_D_3
  1

  0
SOLID
  5
1B0
330
1AD
100
AcDbEntity
  8
VERMASSUNG
100
AcDbTrace
 10
213.3328276747
 20
165.6972670688
 30
0.0
 11
210.3328276747
 21
166.1472670688
 31
0.0
 12
210.3328276747
 22
165.2472670688
 32
0.0
 13
210.3328276747
 23
165.2472670688
 33
0.0
  0
SOLID
  5
1B1
330
1AD
100
AcDbEntity
  8
VERMASSUNG
100
AcDbTrace
 10
162.2828276747
 20
165.6972670688
 30
0.0
 11
165.2828276747
 21
165.2472670688
 31
0.0
 12
165.2828276747
 22
166.1472670688
 32
0.0
 13
165.2828276747
 23
166.1472670688
 33
0.0
  0
LINE
  5
1B2
330
1AD
100
AcDbEntity
  8
VERMASSUNG
100
AcDbLine
 10
213.3328276747
 20
142.4779770306
 30
0.0
 11
213.3328276747
 21
166.6972670688
 31
0.0
  0
LINE
  5
1B3
330
1AD
100
AcDbEntity
  8
VERMASSUNG
100
AcDbLine
 10
162.2828276747
 20
159.6999314797
 30
0.0
 11
162.2828276747
 21
166.6972670688
 31
0.0
  0
LINE
  5
1B4
330
1AD
100
AcDbEntity
  8
VERMASSUNG
100
AcDbLine
 10
213.3328276747
 20
165.6972670688
 30
0.0
 11
162.2828276747
 21
165.6972670688
 31
0.0
  0
MTEXT
  5
1B5
330
1AD
100
AcDbEntity
  8
VERMASSUNG
100
AcDbMText
 10
184.9078277116
 20
168.2754026648
 30
0.0
 40
2.0
 41
0.0
 71
     1
 72
     1
  1
51.05
  7
SLDTEXTSTYLE0
 73
     1
 44
1.0
  0
ENDBLK
  5
1AF
330
1AD
100
AcDbEntity
  8
0
100
AcDbBlockEnd
  0
BLOCK
  5
1B8
330
1B7
100
AcDbEntity
  8
0
100
AcDbBlockBegin
  2
_D_4
 70
     0
 10
0.0
 20
0.0
 30
0.0
  3
_D_4
  1

  0
SOLID
  5
1BA
330
1B7
100
AcDbEntity
  8
VERMASSUNG
100
AcDbTrace
 10
213.3328276747
 20
171.6972670688
 30
0.0
 11
210.3328276747
 21
172.1472670688
 31
0.0
 12
210.3328276747
 22
171.2472670688
 32
0.0
 13
210.3328276747
 23
171.2472670688
 33
0.0
  0
SOLID
  5
1BB
330
1B7
100
AcDbEntity
  8
VERMASSUNG
100
AcDbTrace
 10
133.3328276747
 20
171.6972670688
 30
0.0
 11
136.3328276747
 21
171.2472670688
 31
0.0
 12
136.3328276747
 22
172.1472670688
 32
0.0
 13
136.3328276747
 23
172.1472670688
 33
0.0
  0
LINE
  5
1BC
330
1B7
100
AcDbEntity
  8
VERMASSUNG
100
AcDbLine
 10
213.3328276747
 20
142.4779770306
 30
0.0
 11
213.3328276747
 21
172.6972670688
 31
0.0
  0
LINE
  5
1BD
330
1B7
100
AcDbEntity
  8
VERMASSUNG
100
AcDbLine
 10
133.3328276747
 20
161.2279770306
 30
0.0
 11
133.3328276747
 21
172.6972670688
 31
0.0
  0
LINE
  5
1BE
330
1B7
100
AcDbEntity
  8
VERMASSUNG
100
AcDbLine
 10
213.3328276747
 20
171.6972670688
 30
0.0
 11
133.3328276747
 21
171.6972670688
 31
0.0
  0
MTEXT
  5
1BF
330
1B7
100
AcDbEntity
  8
VERMASSUNG
100
AcDbMText
 10
171.9328277246
 20
174.2754026648
 30
0.0
 40
2.0
 41
0.0
 71
     1
 72
     1
  1
80
  7
SLDTEXTSTYLE0
 73
     1
 44
1.0
  0
ENDBLK
  5
1B9
330
1B7
100
AcDbEntity
  8
0
100
AcDbBlockEnd
  0
BLOCK
  5
1C2
330
1C1
100
AcDbEntity
  8
0
100
AcDbBlockBegin
  2
_D_5
 70
     0
 10
0.0
 20
0.0
 30
0.0
  3
_D_5
  1

  0
SOLID
  5
1C4
330
1C1
100
AcDbEntity
  8
VERMASSUNG
100
AcDbTrace
 10
213.3328276747
 20
177.6972670688
 30
0.0
 11
210.3328276747
 21
178.1472670688
 31
0.0
 12
210.3328276747
 22
177.2472670688
 32
0.0
 13
210.3328276747
 23
177.2472670688
 33
0.0
  0
SOLID
  5
1C5
330
1C1
100
AcDbEntity
  8
VERMASSUNG
100
AcDbTrace
 10
83.5328276747
 20
177.6972670688
 30
0.0
 11
86.5328276747
 21
177.2472670688
 31
0.0
 12
86.5328276747
 22
178.1472670688
 32
0.0
 13
86.5328276747
 23
178.1472670688
 33
0.0
  0
LINE
  5
1C6
330
1C1
100
AcDbEntity
  8
VERMASSUNG
100
AcDbLine
 10
213.3328276747
 20
142.4779770306
 30
0.0
 11
213.3328276747
 21
178.6972670688
 31
0.0
  0
LINE
  5
1C7
330
1C1
100
AcDbEntity
  8
VERMASSUNG
100
AcDbLine
 10
83.5328276747
 20
142.1321293276
 30
0.0
 11
83.5328276747
 21
178.6972670688
 31
0.0
  0
LINE
  5
1C8
330
1C1
100
AcDbEntity
  8
VERMASSUNG
100
AcDbLine
 10
213.3328276747
 20
177.6972670688
 30
0.0
 11
83.5328276747
 21
177.6972670688
 31
0.0
  0
MTEXT
  5
1C9
330
1C1
100
AcDbEntity
  8
VERMASSUNG
100
AcDbMText
 10
145.5328277116
 20
180.2754026648
 30
0.0
 40
2.0
 41
0.0
 71
     1
 72
     1
  1
129.8
  7
SLDTEXTSTYLE0
 73
     1
 44
1.0
  0
ENDBLK
  5
1C3
330
1C1
100
AcDbEntity
  8
0
100
AcDbBlockEnd
  0
ENDSEC
  0
SECTION
  2
ENTITIES
  0
MTEXT
  5
78
330
1F
100
AcDbEntity
  8
KOPF_DÜNN
100
AcDbMText
 10
13.8892156294
 20
23.8442973028
 30
0.0
 40
3.0
 41
0.0
 71
     1
 72
     1
  1
A44.810.063.080
  7
SLDTEXTSTYLE0
 73
     1
 44
1.0
  0
MTEXT
  5
79
330
1F
100
AcDbEntity
  8
VERMASSUNG
100
AcDbMText
 10
13.9329988022
 20
28.8834360957
 30
0.0
 40
3.0
 41
0.0
 71
     1
 72
     1
  1
Aufnahme Master shank WH63
  7
SLDTEXTSTYLE0
 73
     1
 44
1.0
  0
MTEXT
  5
7A
330
1F
100
AcDbEntity
  8
VERMASSUNG
100
AcDbMText
 10
98.8601118557
 20
13.8365368761
 30
0.0
 40
2.0
 41
0.0
 71
     1
 72
     1
  1
Datum: 29.11.2011
  7
SLDTEXTSTYLE0
 73
     1
 44
1.0
  0
MTEXT
  5
7B
330
1F
100
AcDbEntity
  8
VERMASSUNG
100
AcDbMText
 10
13.933048693
 20
18.0482802738
 30
0.0
 40
2.0
 41
0.0
 71
     1
 72
     1
  1
DIN 69893
  7
SLDTEXTSTYLE0
 73
     1
 44
1.0
  0
MTEXT
  5
7C
330
1F
100
AcDbEntity
  8
VERMASSUNG
100
AcDbMText
 10
13.9808475933
 20
13.9090974274
 30
0.0
 40
2.0
 41
0.0
 71
     1
 72
     1
  1
Gewicht: 2950g
  7
SLDTEXTSTYLE0
 73
     1
 44
1.0
  0
ARC
  5
7D
330
1F
100
AcDbEntity
  8
0
  6
Continuous
 62
     7
370
    15
100
AcDbCircle
 10
133.8328276747
 20
61.9279770306
 30
0.0
 40
0.5
100
AcDbArc
 50
180.0
 51
270.0
  0
ARC
  5
7E
330
1F
100
AcDbEntity
  8
0
  6
Continuous
 62
     7
370
    15
100
AcDbCircle
 10
133.8328276747
 20
161.2279770306
 30
0.0
 40
0.5
100
AcDbArc
 50
90.0
 51
180.0
  0
LINE
  5
7F
330
1F
100
AcDbEntity
  8
0
  6
Continuous
 62
     7
370
    15
100
AcDbLine
 10
133.8328276747
 20
61.4279770306
 30
0.0
 11
138.1828276747
 21
61.4279770306
 31
0.0
  0
LINE
  5
80
330
1F
100
AcDbEntity
  8
0
  6
Continuous
 62
     7
370
    15
100
AcDbLine
 10
138.2168901469
 20
161.7279770306
 30
0.0
 11
133.8328276747
 21
161.7279770306
 31
0.0
  0
ARC
  5
81
330
1F
100
AcDbEntity
  8
0
  6
Continuous
 62
     7
370
    15
100
AcDbCircle
 10
132.4358907562
 20
72.9494917061
 30
0.0
 40
0.9962338214386932
100
AcDbArc
 50
25.7988228126
 51
90.0
  0
ARC
  5
82
330
1F
100
AcDbEntity
  8
0
  6
Continuous
 62
     7
370
    15
100
AcDbCircle
 10
132.4358907562
 20
150.206462355
 30
0.0
 40
0.9962338214387216
100
AcDbArc
 50
270.0
 51
334.2011771874
  0
LINE
  5
83
330
1F
100
AcDbEntity
  8
0
  6
Continuous
 62
     7
370
    15
100
AcDbLine
 10
111.8084272328
 20
148.6520922389
 30
0.0
 11
93.6328276747
 21
147.7414910586
 31
0.0
  0
LINE
  5
84
330
1F
100
AcDbEntity
  8
0
  6
Continuous
 62
     7
370
    15
100
AcDbLine
 10
130.3769551491
 20
149.5823792087
 30
0.0
 11
124.9941335124
 21
149.3126987659
 31
0.0
  0
LINE
  5
85
330
1F
100
AcDbEntity
  8
0
  6
Continuous
 62
     7
370
    15
100
AcDbLine
 10
124.994244231
 20
73.8432497482
 30
0.0
 11
130.3769551491
 21
73.5735748525
 31
0.0
  0
LINE
  5
86
330
1F
100
AcDbEntity
  8
0
  6
Continuous
 62
     7
370
    15
100
AcDbLine
 10
98.6328276747
 20
75.1639620005
 30
0.0
 11
111.8090432728
 21
74.5038309585
 31
0.0
  0
LINE
  5
87
330
1F
100
AcDbEntity
  8
0
  6
Continuous
 62
     7
370
    15
100
AcDbLine
 10
130.3769551491
 20
73.5735748525
 30
0.0
 11
131.6386738291
 21
73.9116513539
 31
0.0
  0
LINE
  5
88
330
1F
100
AcDbEntity
  8
0
  6
Continuous
 62
     7
370
    15
100
AcDbLine
 10
131.6386738291
 20
149.2443027073
 30
0.0
 11
130.3769551491
 21
149.5823792087
 31
0.0
  0
ARC
  5
89
330
1F
100
AcDbEntity
  8
0
  6
Continuous
 62
     7
370
    15
100
AcDbCircle
 10
131.8974928742
 20
72.9457255276
 30
0.0
 40
1.0
100
AcDbArc
 50
90.0
 51
105.0
  0
ARC
  5
8A
330
1F
100
AcDbEntity
  8
0
  6
Continuous
 62
     7
370
    15
100
AcDbCircle
 10
131.8974928742
 20
150.2102285336
 30
0.0
 40
1.0
100
AcDbArc
 50
255.0
 51
270.0
  0
LINE
  5
8B
330
1F
100
AcDbEntity
  8
0
  6
Continuous
 62
     7
370
    15
100
AcDbLine
 10
131.8974928742
 20
73.9457255276
 30
0.0
 11
132.4358907562
 21
73.9457255276
 31
0.0
  0
LINE
  5
8C
330
1F
100
AcDbEntity
  8
0
  6
Continuous
 62
     7
370
    15
100
AcDbLine
 10
132.4358907562
 20
149.2102285336
 30
0.0
 11
131.8974928742
 21
149.2102285336
 31
0.0
  0
ARC
  5
8D
330
1F
100
AcDbEntity
  8
0
  6
Continuous
 62
     7
370
    15
100
AcDbCircle
 10
165.2828276747
 20
77.0779770306
 30
0.0
 40
3.0
100
AcDbArc
 50
90.0
 51
180.0
  0
ARC
  5
8E
330
1F
100
AcDbEntity
  8
0
  6
Continuous
 62
     7
370
    15
100
AcDbCircle
 10
165.2828276747
 20
146.0779770306
 30
0.0
 40
3.0
100
AcDbArc
 50
180.0
 51
270.0
  0
LINE
  5
8F
330
1F
100
AcDbEntity
  8
0
  6
Continuous
 62
     7
370
    15
100
AcDbLine
 10
185.2867029482
 20
143.0779770306
 30
0.0
 11
165.2828276747
 21
143.0779770306
 31
0.0
  0
LINE
  5
90
330
1F
100
AcDbEntity
  8
0
  6
Continuous
 62
     7
370
    15
100
AcDbLine
 10
212.7328276747
 20
143.0779770306
 30
0.0
 11
205.2739625195
 21
143.0779770306
 31
0.0
  0
LINE
  5
91
330
1F
100
AcDbEntity
  8
0
  6
Continuous
 62
     7
370
    15
100
AcDbLine
 10
165.2828276747
 20
80.0779770306
 30
0.0
 11
212.7328276747
 21
80.0779770306
 31
0.0
  0
LINE
  5
92
330
1F
100
AcDbEntity
  8
0
  6
Continuous
 62
     7
370
    15
100
AcDbLine
 10
212.7328276747
 20
80.0779770306
 30
0.0
 11
213.3328276747
 21
80.6779770306
 31
0.0
  0
LINE
  5
93
330
1F
100
AcDbEntity
  8
0
  6
Continuous
 62
     7
370
    15
100
AcDbLine
 10
213.3328276747
 20
142.4779770306
 30
0.0
 11
212.7328276747
 21
143.0779770306
 31
0.0
  0
LINE
  5
94
330
1F
100
AcDbEntity
  8
0
  6
Continuous
 62
     7
370
    15
100
AcDbLine
 10
85.1828276747
 20
79.3279770306
 30
0.0
 11
96.7328276747
 21
79.3279770306
 31
0.0
  0
LINE
  5
95
330
1F
100
AcDbEntity
  8
0
  6
Continuous
 62
     7
370
    15
100
AcDbLine
 10
91.7328276747
 20
143.8279770306
 30
0.0
 11
85.1828276747
 21
143.8279770306
 31
0.0
  0
ARC
  5
96
330
1F
100
AcDbEntity
  8
0
  6
Continuous
 62
     7
370
    15
100
AcDbCircle
 10
96.7328276747
 20
77.4279770306
 30
0.0
 40
1.900000000000014
100
AcDbArc
 50
29.7154989008
 51
90.0
  0
ARC
  5
97
330
1F
100
AcDbEntity
  8
0
  6
Continuous
 62
     7
370
    15
100
AcDbCircle
 10
91.7328276747
 20
145.7279770306
 30
0.0
 40
1.899999999999986
100
AcDbArc
 50
270.0
 51
319.9491356202
  0
LINE
  5
98
330
1F
100
AcDbEntity
  8
0
  6
Continuous
 62
     7
370
    15
100
AcDbLine
 10
83.5527100617
 20
80.9580946436
 30
0.0
 11
85.1828276747
 21
79.3279770306
 31
0.0
  0
LINE
  5
99
330
1F
100
AcDbEntity
  8
0
  6
Continuous
 62
     7
370
    15
100
AcDbLine
 10
85.1828276747
 20
143.8279770306
 30
0.0
 11
83.552464417
 21
142.1976137729
 31
0.0
  0
SPLINE
  5
9A
330
1F
100
AcDbEntity
  8
0
  6
Continuous
 62
     7
370
    15
100
AcDbSpline
210
0.0
220
0.0
230
1.0
 70
    24
 71
     3
 72
    11
 73
     7
 74
     0
 42
0.000000001
 43
0.00000001
 40
0.0
 40
0.0
 40
0.0
 40
0.0
 40
0.216456724493406
 40
0.4403141600939137
 40
0.75190284447986
 40
1.0
 40
1.0
 40
1.0
 40
1.0
 10
196.9164692999941
 20
115.8982256777486
 30
0.0
 10
196.6042216897673
 20
115.8471682132824
 30
0.0
 10
195.9690506431754
 20
115.7433076165024
 30
0.0
 10
194.7903462197126
 20
115.5505706435171
 30
0.0
 10
193.5259819628008
 20
115.3438269215311
 30
0.0
 10
192.7168672316853
 20
115.2115237580162
 30
0.0
 10
192.3582034082216
 20
115.1528765023703
 30
0.0
  0
SPLINE
  5
9B
330
1F
100
AcDbEntity
  8
0
  6
Continuous
 62
     7
370
    15
100
AcDbSpline
210
0.0
220
0.0
230
1.0
 70
    24
 71
     3
 72
    11
 73
     7
 74
     0
 42
0.000000001
 43
0.00000001
 40
0.0
 40
0.0
 40
0.0
 40
0.0
 40
0.2164567244934157
 40
0.4403141600939137
 40
0.7519028444798675
 40
1.0
 40
1.0
 40
1.0
 40
1.0
 10
192.3582034082216
 20
115.1528765023703
 30
0.0
 10
192.2462966643887
 20
114.8569334074099
 30
0.0
 10
192.0186570563564
 20
114.254928846923
 30
0.0
 10
191.5962199594789
 20
113.1377723861584
 30
0.0
 10
191.1430831463358
 20
111.9394289590428
 30
0.0
 10
190.853103681383
 20
111.172563465563
 30
0.0
 10
190.7245617829028
 20
110.8326278552021
 30
0.0
  0
SPLINE
  5
9C
330
1F
100
AcDbEntity
  8
0
  6
Continuous
 62
     7
370
    15
100
AcDbSpline
210
0.0
220
0.0
230
1.0
 70
    24
 71
     3
 72
    11
 73
     7
 74
     0
 42
0.000000001
 43
0.00000001
 40
0.0
 40
0.0
 40
0.0
 40
0.0
 40
0.1845133558519064
 40
0.518056503916382
 40
0.8676122830484981
 40
1.0
 40
1.0
 40
1.0
 40
1.0
 10
190.7245617829028
 20
110.8326278552021
 30
0.0
 10
190.8944095316753
 20
110.625015330634
 30
0.0
 10
191.3712895413684
 20
110.0421034966888
 30
0.0
 10
192.2601810959108
 20
108.9555714640918
 30
0.0
 10
193.0861370887397
 20
107.9459683925608
 30
0.0
 10
193.5278496027518
 20
107.4060433665883
 30
0.0
 10
193.6491860493563
 20
107.2577283834122
 30
0.0
  0
SPLINE
  5
9D
330
1F
100
AcDbEntity
  8
0
  6
Continuous
 62
     7
370
    15
100
AcDbSpline
210
0.0
220
0.0
230
1.0
 70
    24
 71
     3
 72
    11
 73
     7
 74
     0
 42
0.000000001
 43
0.00000001
 40
0.0
 40
0.0
 40
0.0
 40
0.0
 40
0.2164567244934158
 40
0.4403141600939192
 40
0.7519028444798762
 40
0.9999999999999999
 40
0.9999999999999999
 40
0.9999999999999999
 40
0.9999999999999999
 10
193.6491860493563
 20
107.2577283834122
 30
0.0
 10
193.9614336595831
 20
107.3087858478783
 30
0.0
 10
194.596604706175
 20
107.4126464446583
 30
0.0
 10
195.7753091296377
 20
107.6053834176437
 30
0.0
 10
197.0396733865496
 20
107.8121271396296
 30
0.0
 10
197.8487881176651
 20
107.9444303031445
 30
0.0
 10
198.2074519411288
 20
108.0030775587904
 30
0.0
  0
SPLINE
  5
9E
330
1F
100
AcDbEntity
  8
0
  6
Continuous
 62
     7
370
    15
100
AcDbSpline
210
0.0
220
0.0
230
1.0
 70
    24
 71
     3
 72
    11
 73
     7
 74
     0
 42
0.000000001
 43
0.00000001
 40
0.0
 40
0.0
 40
0.0
 40
0.0
 40
0.2164567244934231
 40
0.440314160093916
 40
0.7519028444798771
 40
1.0
 40
1.0
 40
1.0
 40
1.0
 10
198.2074519411288
 20
108.0030775587904
 30
0.0
 10
198.3193586849617
 20
108.2990206537509
 30
0.0
 10
198.546998292994
 20
108.9010252142378
 30
0.0
 10
198.9694353898714
 20
110.0181816750024
 30
0.0
 10
199.4225722030146
 20
111.216525102118
 30
0.0
 10
199.7125516679674
 20
111.9833905955977
 30
0.0
 10
199.8410935664476
 20
112.3233262059586
 30
0.0
  0
SPLINE
  5
9F
330
1F
100
AcDbEntity
  8
0
  6
Continuous
 62
     7
370
    15
100
AcDbSpline
210
0.0
220
0.0
230
1.0
 70
    24
 71
     3
 72
    11
 73
     7
 74
     0
 42
0.000000001
 43
0.00000001
 40
0.0
 40
0.0
 40
0.0
 40
0.0
 40
0.132387716951496
 40
0.4819434960836136
 40
0.8154866441480868
 40
1.0
 40
1.0
 40
1.0
 40
1.0
 10
199.8410935664476
 20
112.3233262059586
 30
0.0
 10
199.7197571198431
 20
112.4716411891347
 30
0.0
 10
199.278044605831
 20
113.0115662151073
 30
0.0
 10
198.4520886130021
 20
114.0211692866383
 30
0.0
 10
197.5631970584597
 20
115.1077013192352
 30
0.0
 10
197.0863170487665
 20
115.6906131531804
 30
0.0
 10
196.9164692999941
 20
115.8982256777486
 30
0.0
  0
CIRCLE
  5
A0
330
1F
100
AcDbEntity
  8
0
  6
Continuous
 62
     7
370
    15
100
AcDbCircle
 10
195.2828276747
 20
111.5779770306
 30
0.0
 40
4.699999999999999
  0
CIRCLE
  5
A1
330
1F
100
AcDbEntity
  8
0
  6
Continuous
 62
     7
370
    15
100
AcDbCircle
 10
195.2828276747
 20
111.5779770306
 30
0.0
 40
7.000000000000016
  0
ARC
  5
A2
330
1F
100
AcDbEntity
  8
0
  6
Continuous
 62
     7
370
    15
100
AcDbCircle
 10
195.2828276747
 20
111.5779770306
 30
0.0
 40
4.000000000000032
100
AcDbArc
 50
219.2865891706
 51
279.2865891706
  0
ARC
  5
A3
330
1F
100
AcDbEntity
  8
0
  6
Continuous
 62
     7
370
    15
100
AcDbCircle
 10
195.2828276747
 20
111.5779770306
 30
0.0
 40
3.999999999999992
100
AcDbArc
 50
159.2865891706
 51
219.2865891706
  0
ARC
  5
A4
330
1F
100
AcDbEntity
  8
0
  6
Continuous
 62
     7
370
    15
100
AcDbCircle
 10
195.2828276747
 20
111.5779770306
 30
0.0
 40
4.000000000000048
100
AcDbArc
 50
279.2865891706
 51
339.2865891706
  0
ARC
  5
A5
330
1F
100
AcDbEntity
  8
0
  6
Continuous
 62
     7
370
    15
100
AcDbCircle
 10
195.2828276747
 20
111.5779770306
 30
0.0
 40
4.000000000000048
100
AcDbArc
 50
339.2865891706
 51
39.2865891706
  0
ARC
  5
A6
330
1F
100
AcDbEntity
  8
0
  6
Continuous
 62
     7
370
    15
100
AcDbCircle
 10
195.2828276747
 20
111.5779770306
 30
0.0
 40
3.999999999999995
100
AcDbArc
 50
99.2865891706
 51
159.2865891706
  0
ARC
  5
A7
330
1F
100
AcDbEntity
  8
0
  6
Continuous
 62
     7
370
    15
100
AcDbCircle
 10
195.2828276747
 20
111.5779770306
 30
0.0
 40
3.999999999999995
100
AcDbArc
 50
39.2865891706
 51
99.2865891706
  0
LINE
  5
A8
330
1F
100
AcDbEntity
  8
0
  6
Continuous
 62
     7
370
    15
100
AcDbLine
 10
161.2828276747
 20
62.649227813
 30
0.0
 11
156.5082541552
 21
62.649227813
 31
0.0
  0
LINE
  5
A9
330
1F
100
AcDbEntity
  8
0
  6
Continuous
 62
     7
370
    15
100
AcDbLine
 10
156.5082541552
 20
62.649227813
 30
0.0
 11
156.5082541552
 21
142.9279770306
 31
0.0
  0
LINE
  5
AA
330
1F
100
AcDbEntity
  8
0
  6
Continuous
 62
     7
370
    15
100
AcDbLine
 10
156.5082541552
 20
142.9279770306
 30
0.0
 11
161.2828276747
 21
142.9279770306
 31
0.0
  0
SPLINE
  5
AB
330
1F
100
AcDbEntity
  8
0
  6
Continuous
 62
     7
370
    15
100
AcDbSpline
210
0.0
220
0.0
230
1.0
 70
     8
 71
     3
 72
     8
 73
     4
 74
     0
 42
0.000000001
 43
0.00000001
 40
0.0
 40
0.0
 40
0.0
 40
0.0
 40
1.0
 40
1.0
 40
1.0
 40
1.0
 10
156.5082541552182
 20
62.649227812968
 30
0.0
 10
156.0860748516972
 20
63.3987153058439
 30
0.0
 10
155.6642488720923
 20
64.14840229741044
 30
0.0
 10
155.2428276746753
 20
64.89831784275668
 30
0.0
  0
LINE
  5
AC
330
1F
100
AcDbEntity
  8
0
  6
Continuous
 62
     7
370
    15
100
AcDbLine
 10
155.2428276747
 20
64.8983178428
 30
0.0
 11
155.2428276747
 21
142.9279770306
 31
0.0
  0
SPLINE
  5
AD
330
1F
100
AcDbEntity
  8
0
  6
Continuous
 62
     7
370
    15
100
AcDbSpline
210
0.0
220
0.0
230
1.0
 70
    24
 71
     3
 72
     8
 73
     4
 74
     0
 42
0.000000001
 43
0.00000001
 40
0.0
 40
0.0
 40
0.0
 40
0.0
 40
1.0
 40
1.0
 40
1.0
 40
1.0
 10
155.2428276746753
 20
142.9279770305804
 30
0.0
 10
155.6591029591518
 20
142.9279770305804
 30
0.0
 10
156.0811816775898
 20
142.9279770305804
 30
0.0
 10
156.5082541552182
 20
142.9279770305804
 30
0.0
  0
LINE
  5
AE
330
1F
100
AcDbEntity
  8
0
  6
Continuous
 62
     7
370
    15
100
AcDbLine
 10
151.4228276747
 20
64.8983178428
 30
0.0
 11
151.4228276747
 21
142.9279770306
 31
0.0
  0
SPLINE
  5
AF
330
1F
100
AcDbEntity
  8
0
  6
Continuous
 62
     7
370
    15
100
AcDbSpline
210
0.0
220
0.0
230
1.0
 70
     8
 71
     3
 72
     8
 73
     4
 74
     0
 42
0.000000001
 43
0.00000001
 40
0.0
 40
0.0
 40
0.0
 40
0.0
 40
1.0
 40
1.0
 40
1.0
 40
1.0
 10
151.4228276746752
 20
64.89831784275667
 30
0.0
 10
151.0014064772583
 20
64.14840229741043
 30
0.0
 10
150.5795804976533
 20
63.3987153058439
 30
0.0
 10
150.1574011941323
 20
62.649227812968
 30
0.0
  0
LINE
  5
B0
330
1F
100
AcDbEntity
  8
0
  6
Continuous
 62
     7
370
    15
100
AcDbLine
 10
150.1574011941
 20
62.649227813
 30
0.0
 11
150.1574011941
 21
142.9279770306
 31
0.0
  0
SPLINE
  5
B1
330
1F
100
AcDbEntity
  8
0
  6
Continuous
 62
     7
370
    15
100
AcDbSpline
210
0.0
220
0.0
230
1.0
 70
    24
 71
     3
 72
     8
 73
     4
 74
     0
 42
0.000000001
 43
0.00000001
 40
0.0
 40
0.0
 40
0.0
 40
0.0
 40
1.0
 40
1.0
 40
1.0
 40
1.0
 10
150.1574011941323
 20
142.9279770305804
 30
0.0
 10
150.5844736717607
 20
142.9279770305804
 30
0.0
 10
151.0065523901987
 20
142.9279770305804
 30
0.0
 10
151.4228276746752
 20
142.9279770305804
 30
0.0
  0
LINE
  5
B2
330
1F
100
AcDbEntity
  8
0
  6
Continuous
 62
     7
370
    15
100
AcDbLine
 10
133.3328276747
 20
61.9279770306
 30
0.0
 11
133.3328276747
 21
161.2279770247
 31
0.0
  0
LINE
  5
B3
330
1F
100
AcDbEntity
  8
0
  6
Continuous
 62
     7
370
    15
100
AcDbLine
 10
162.2828276747
 20
63.6747151375
 30
0.0
 11
162.2828276747
 21
142.9279770306
 31
0.0
  0
SPLINE
  5
B4
330
1F
100
AcDbEntity
  8
0
  6
Continuous
 62
     7
370
    15
100
AcDbSpline
210
0.0
220
0.0
230
1.0
 70
     8
 71
     3
 72
    14
 73
    10
 74
     0
 42
0.000000001
 43
0.00000001
 40
0.0
 40
0.0
 40
0.0
 40
0.0
 40
0.25
 40
0.25
 40
0.5
 40
0.5
 40
0.75
 40
0.75
 40
1.0
 40
1.0
 40
1.0
 40
1.0
 10
162.2828276746752
 20
63.67471513746914
 30
0.0
 10
162.2828276746752
 20
63.54158244759996
 30
0.0
 10
162.2574496585545
 20
63.40932297960744
 30
0.0
 10
162.1592626614571
 20
63.16319681264054
 30
0.0
 10
162.08597797413
 20
63.04915660119152
 30
0.0
 10
161.9027005254738
 20
62.8588845276406
 30
0.0
 10
161.7909343153031
 20
62.78117621544865
 30
0.0
 10
161.5484490621199
 20
62.67689902803608
 30
0.0
 10
161.4151581985081
 20
62.64922781296797
 30
0.0
 10
161.2828276746752
 20
62.64922781296797
 30
0.0
  0
SPLINE
  5
B5
330
1F
100
AcDbEntity
  8
0
  6
Continuous
 62
     7
370
    15
100
AcDbSpline
210
0.0
220
0.0
230
1.0
 70
    24
 71
     3
 72
    14
 73
    10
 74
     0
 42
0.000000001
 43
0.00000001
 40
0.0
 40
0.0
 40
0.0
 40
0.0
 40
0.25
 40
0.25
 40
0.5
 40
0.5
 40
0.75
 40
0.75
 40
1.0
 40
1.0
 40
1.0
 40
1.0
 10
161.2828276746752
 20
142.9279770305804
 30
0.0
 10
161.4329643949611
 20
142.9279770305804
 30
0.0
 10
161.5840550354254
 20
142.9279770305804
 30
0.0
 10
161.8412004992768
 20
142.9279770305803
 30
0.0
 10
161.9496173431316
 20
142.9279770305804
 30
0.0
 10
162.118891129379
 20
142.9279770305804
 30
0.0
 10
162.1810712923463
 20
142.9279770305804
 30
0.0
 10
162.2627079396876
 20
142.9279770305804
 30
0.0
 10
162.2828276746753
 20
142.9279770305804
 30
0.0
 10
162.2828276746753
 20
142.9279770305804
 30
0.0
  0
LINE
  5
B6
330
1F
100
AcDbEntity
  8
0
  6
Continuous
 62
     7
370
    15
100
AcDbLine
 10
138.1828276747
 20
142.9279770306
 30
0.0
 11
150.1574011941
 21
142.9279770306
 31
0.0
  0
LINE
  5
B7
330
1F
100
AcDbEntity
  8
0
  6
Continuous
 62
     7
370
    15
100
AcDbLine
 10
150.1574011941
 20
62.649227813
 30
0.0
 11
148.1828276747
 21
62.649227813
 31
0.0
  0
SPLINE
  5
B8
330
1F
100
AcDbEntity
  8
0
  6
Continuous
 62
     7
370
    15
100
AcDbSpline
210
0.0
220
0.0
230
1.0
 70
     8
 71
     3
 72
    30
 73
    26
 74
     0
 42
0.000000001
 43
0.00000001
 40
0.0
 40
0.0
 40
0.0
 40
0.0
 40
0.1250000000000002
 40
0.1250000000000002
 40
0.1875000000000004
 40
0.1875000000000004
 40
0.2500000000000005
 40
0.2500000000000005
 40
0.3750000000000008
 40
0.3750000000000008
 40
0.4375000000000008
 40
0.4375000000000008
 40
0.5000000000000008
 40
0.5000000000000008
 40
0.6250000000000007
 40
0.6250000000000007
 40
0.6875000000000006
 40
0.6875000000000006
 40
0.7500000000000004
 40
0.7500000000000004
 40
0.8125000000000003
 40
0.8125000000000003
 40
0.8750000000000002
 40
0.8750000000000002
 40
1.0
 40
1.0
 40
1.0
 40
1.0
 10
148.1828276746753
 20
62.649227812968
 30
0.0
 10
147.5200981170681
 20
62.64922781296799
 30
0.0
 10
146.8688544993419
 20
62.63443507348981
 30
0.0
 10
145.9084187783847
 20
62.59219987754425
 30
0.0
 10
145.5910316822227
 20
62.57477713012813
 30
0.0
 10
144.9618758172721
 20
62.53357942866305
 30
0.0
 10
144.6497276074052
 20
62.50972938173999
 30
0.0
 10
143.7424167825713
 20
62.43116962967808
 30
0.0
 10
143.1689873938296
 20
62.36905773273443
 30
0.0
 10
142.3551037721551
 20
62.26624785717706
 30
0.0
 10
142.0902966209916
 20
62.2301759601503
 30
0.0
 10
141.5833735377983
 20
62.15660690547895
 30
0.0
 10
141.341972880021
 20
62.11924747712401
 30
0.0
 10
140.6528157862182
 20
62.00687928441135
 30
0.0
 10
140.2397558217557
 20
61.9315729895097
 30
0.0
 10
139.6915999853831
 20
61.82350931317765
 30
0.0
 10
139.522131455528
 20
61.78854231600387
 30
0.0
 10
139.2141103228717
 20
61.72250659512258
 30
0.0
 10
139.0747298993237
 20
61.69127443525235
 30
0.0
 10
138.8249456237924
 20
61.63304209555024
 30
0.0
 10
138.7145411559098
 20
61.6060407595082
 30
0.0
 10
138.5232875067221
 20
61.55693012685274
 30
0.0
 10
138.4421704060748
 20
61.53473560719137
 30
0.0
 10
138.2480269476646
 20
61.47734223649665
 30
0.0
 10
138.1828276746753
 20
61.4511619184791
 30
0.0
 10
138.1828276746753
 20
61.43794811156196
 30
0.0
  0
LINE
  5
B9
330
1F
100
AcDbEntity
  8
0
  6
Continuous
 62
     7
370
    15
100
AcDbLine
 10
138.1828276747
 20
61.4379481116
 30
0.0
 11
138.1828276747
 21
61.4279770306
 31
0.0
  0
SPLINE
  5
BA
330
1F
100
AcDbEntity
  8
0
  6
Continuous
 62
     7
370
    15
100
AcDbSpline
210
0.0
220
0.0
230
1.0
 70
     8
 71
     3
 72
    17
 73
    13
 74
     0
 42
0.000000001
 43
0.00000001
 40
0.0
 40
0.0
 40
0.0
 40
0.0
 40
0.1043931762694509
 40
0.2118521777632385
 40
0.3162346582068185
 40
0.4235735653951617
 40
0.5292646523002429
 40
0.6379660259534836
 40
0.7445056502031555
 40
0.8542129232353476
 40
0.9593413814827391
 40
1.0
 40
1.0
 40
1.0
 40
1.0
 10
148.1828276746753
 20
160.7208554566555
 30
0.0
 10
147.6348515434368
 20
160.726207657651
 30
0.0
 10
146.5228062842189
 20
160.7370692434103
 30
0.0
 10
144.9098355514448
 20
160.8219935342873
 30
0.0
 10
143.376208343133
 20
160.9479951809018
 30
0.0
 10
141.9851271742689
 20
161.1044330155501
 30
0.0
 10
140.7496095246431
 20
161.2756175947524
 30
0.0
 10
139.7263276651844
 20
161.4404478311934
 30
0.0
 10
138.9260908883227
 20
161.5837135153598
 30
0.0
 10
138.4158648575509
 20
161.6815550135676
 30
0.0
 10
138.1760359144787
 20
161.7293244940343
 30
0.0
 10
138.2079809755132
 20
161.7229709183879
 30
0.0
 10
138.216890146881
 20
161.7211989670315
 30
0.0
  0
LINE
  5
BB
330
1F
100
AcDbEntity
  8
0
  6
Continuous
 62
     7
370
    15
100
AcDbLine
 10
150.1574011941
 20
160.7208554567
 30
0.0
 11
148.1828276747
 21
160.7208554567
 31
0.0
  0
LINE
  5
BC
330
1F
100
AcDbEntity
  8
0
  6
Continuous
 62
     7
370
    15
100
AcDbLine
 10
150.1574011941
 20
150.7213034094
 30
0.0
 11
150.1574011941
 21
160.7208554567
 31
0.0
  0
LINE
  5
BD
330
1F
100
AcDbEntity
  8
0
  6
Continuous
 62
     7
370
    15
100
AcDbLine
 10
147.9363189229
 20
150.7213034094
 30
0.0
 11
150.1574011941
 21
150.7213034094
 31
0.0
  0
SPLINE
  5
BE
330
1F
100
AcDbEntity
  8
0
  6
Continuous
 62
     7
370
    15
100
AcDbSpline
210
0.0
220
0.0
230
1.0
 70
     8
 71
     3
 72
    24
 73
    20
 74
     0
 42
0.000000001
 43
0.00000001
 40
0.0
 40
0.0
 40
0.0
 40
0.0
 40
0.2499999999999992
 40
0.2499999999999992
 40
0.3749999999999983
 40
0.3749999999999983
 40
0.4999999999999974
 40
0.4999999999999974
 40
0.5624999999999977
 40
0.5624999999999977
 40
0.6249999999999979
 40
0.6249999999999979
 40
0.6874999999999981
 40
0.6874999999999981
 40
0.7499999999999983
 40
0.7499999999999983
 40
0.8749999999999992
 40
0.8749999999999992
 40
1.0
 40
1.0
 40
1.0
 40
1.0
 10
138.1828276746753
 20
142.9279770305804
 30
0.0
 10
138.3715216236826
 20
143.9693352579046
 30
0.0
 10
138.6744074575947
 20
144.950396148325
 30
0.0
 10
139.3707041168778
 20
146.3256522260359
 30
0.0
 10
139.6460993943412
 20
146.7704606726418
 30
0.0
 10
140.2807834459872
 20
147.601881521208
 30
0.0
 10
140.6405373749255
 20
147.990942406441
 30
0.0
 10
141.2556644898929
 20
148.5325246554715
 30
0.0
 10
141.4744130249403
 20
148.7067646561575
 30
0.0
 10
141.9351284607674
 20
149.0367931211105
 30
0.0
 10
142.1758592758721
 20
149.1918612863211
 30
0.0
 10
142.6790138806674
 20
149.4821605579124
 30
0.0
 10
142.941431114921
 20
149.6173963790876
 30
0.0
 10
143.489469794504
 20
149.8675859946401
 30
0.0
 10
143.7760713364413
 20
149.9828899134299
 30
0.0
 10
144.6677906198672
 20
150.2944543855964
 30
0.0
 10
145.2873963034116
 20
150.4512210312114
 30
0.0
 10
146.5785503876085
 20
150.66492990735
 30
0.0
 10
147.2569655991011
 20
150.7213034094153
 30
0.0
 10
147.9363189229235
 20
150.7213034094153
 30
0.0
  0
SPLINE
  5
BF
330
1F
100
AcDbEntity
  8
0
  6
Continuous
 62
     7
370
    15
100
AcDbSpline
210
0.0
220
0.0
230
1.0
 70
     8
 71
     3
 72
    12
 73
     8
 74
     0
 42
0.000000001
 43
0.00000001
 40
0.0
 40
0.0
 40
0.0
 40
0.0
 40
0.25
 40
0.25
 40
0.5
 40
0.5
 40
1.0
 40
1.0
 40
1.0
 40
1.0
 10
152.2228276746753
 20
66.93830157253069
 30
0.0
 10
152.1170670213263
 20
66.93830157253069
 30
0.0
 10
152.0090793931434
 20
66.9157620665303
 30
0.0
 10
151.8144847278778
 20
66.83119143453497
 30
0.0
 10
151.7256128150389
 20
66.76870978177621
 30
0.0
 10
151.506420522713
 20
66.53932083030404
 30
0.0
 10
151.4228276746752
 20
66.32673749278165
 30
0.0
 10
151.4228276746752
 20
66.11479824818545
 30
0.0
  0
SPLINE
  5
C0
330
1F
100
AcDbEntity
  8
0
  6
Continuous
 62
     7
370
    15
100
AcDbSpline
210
0.0
220
0.0
230
1.0
 70
    24
 71
     3
 72
    14
 73
    10
 74
     0
 42
0.000000001
 43
0.00000001
 40
0.0
 40
0.0
 40
0.0
 40
0.0
 40
0.25
 40
0.25
 40
0.5
 40
0.5
 40
0.75
 40
0.75
 40
1.0
 40
1.0
 40
1.0
 40
1.0
 10
151.4228276746752
 20
142.9279770305804
 30
0.0
 10
151.4228276746752
 20
142.9279770305804
 30
0.0
 10
151.4385419951412
 20
142.9279770305804
 30
0.0
 10
151.5022259736096
 20
142.9279770305803
 30
0.0
 10
151.55082916802
 20
142.9279770305804
 30
0.0
 10
151.6835126904456
 20
142.9279770305804
 30
0.0
 10
151.7686147947563
 20
142.9279770305804
 30
0.0
 10
151.9750570296663
 20
142.9279770305804
 30
0.0
 10
152.0991379712893
 20
142.9279770305804
 30
0.0
 10
152.2228276746753
 20
142.9279770305804
 30
0.0
  0
SPLINE
  5
C1
330
1F
100
AcDbEntity
  8
0
  6
Continuous
 62
     7
370
    15
100
AcDbSpline
210
0.0
220
0.0
230
1.0
 70
     8
 71
     3
 72
    14
 73
    10
 74
     0
 42
0.000000001
 43
0.00000001
 40
0.0
 40
0.0
 40
0.0
 40
0.0
 40
0.25
 40
0.25
 40
0.5
 40
0.5
 40
0.75
 40
0.75
 40
1.0
 40
1.0
 40
1.0
 40
1.0
 10
155.2428276746753
 20
66.11479824818545
 30
0.0
 10
155.2428276746753
 20
66.22184232917984
 30
0.0
 10
155.2227099875171
 20
66.32707746942229
 30
0.0
 10
155.1442187982515
 20
66.52492795626996
 30
0.0
 10
155.0860621734503
 20
66.61597971983488
 30
0.0
 10
154.9395469178322
 20
66.76914581375968
 30
0.0
 10
154.8509043691911
 20
66.83144025996909
 30
0.0
 10
154.6551810463908
 20
66.91623404550506
 30
0.0
 10
154.5499498553199
 20
66.93830157253069
 30
0.0
 10
154.4428276746753
 20
66.93830157253069
 30
0.0
  0
SPLINE
  5
C2
330
1F
100
AcDbEntity
  8
0
  6
Continuous
 62
     7
370
    15
100
AcDbSpline
210
0.0
220
0.0
230
1.0
 70
    24
 71
     3
 72
    14
 73
    10
 74
     0
 42
0.000000001
 43
0.00000001
 40
0.0
 40
0.0
 40
0.0
 40
0.0
 40
0.25
 40
0.25
 40
0.5
 40
0.5
 40
0.75
 40
0.75
 40
1.0
 40
1.0
 40
1.0
 40
1.0
 10
154.4428276746753
 20
142.9279770305804
 30
0.0
 10
154.5665974394404
 20
142.9279770305804
 30
0.0
 10
154.6909645434473
 20
142.9279770305804
 30
0.0
 10
154.8973210121733
 20
142.9279770305803
 30
0.0
 10
154.9826491555917
 20
142.9279770305804
 30
0.0
 10
155.1148412143069
 20
142.9279770305804
 30
0.0
 10
155.1634864580575
 20
142.9279770305804
 30
0.0
 10
155.2270222497862
 20
142.9279770305804
 30
0.0
 10
155.2428276746753
 20
142.9279770305804
 30
0.0
 10
155.2428276746753
 20
142.9279770305804
 30
0.0
  0
LINE
  5
C3
330
1F
100
AcDbEntity
  8
0
  6
Continuous
 62
     7
370
    15
100
AcDbLine
 10
154.4428276747
 20
66.9383015725
 30
0.0
 11
152.2228276747
 21
66.9383015725
 31
0.0
  0
LINE
  5
C4
330
1F
100
AcDbEntity
  8
0
  6
Continuous
 62
     7
370
    15
100
AcDbLine
 10
152.2228276747
 20
142.9279770306
 30
0.0
 11
154.4428276747
 21
142.9279770306
 31
0.0
  0
LINE
  5
C5
330
1F
100
AcDbEntity
  8
0
  6
Continuous
 62
     7
370
    15
100
AcDbLine
 10
98.6328276747
 20
75.1639620005
 30
0.0
 11
98.6328276747
 21
77.6414612004
 31
0.0
  0
SPLINE
  5
C6
330
1F
100
AcDbEntity
  8
0
  6
Continuous
 62
     7
370
    15
100
AcDbSpline
210
0.0
220
0.0
230
1.0
 70
     8
 71
     3
 72
    12
 73
     8
 74
     0
 42
0.000000001
 43
0.00000001
 40
0.0
 40
0.0
 40
0.0
 40
0.0
 40
0.2499999999999997
 40
0.2499999999999997
 40
0.4999999999999993
 40
0.4999999999999993
 40
1.0
 40
1.0
 40
1.0
 40
1.0
 10
97.88401691824893
 20
79.25724720189827
 30
0.0
 10
97.94191291407553
 20
79.10610755406333
 30
0.0
 10
98.02566453856679
 20
78.9601656180878
 30
0.0
 10
98.19774506103992
 20
78.67583116903073
 30
0.0
 10
98.28649204466986
 20
78.53730010682445
 30
0.0
 10
98.51979339558045
 20
78.13303282509413
 30
0.0
 10
98.63282767467527
 20
77.8788432187206
 30
0.0
 10
98.63282767467527
 20
77.64146120043017
 30
0.0
  0
SPLINE
  5
C7
330
1F
100
AcDbEntity
  8
0
  6
Continuous
 62
     7
370
    15
100
AcDbSpline
210
0.0
220
0.0
230
1.0
 70
     8
 71
     3
 72
    20
 73
    16
 74
     0
 42
0.000000001
 43
0.00000001
 40
0.0
 40
0.0
 40
0.0
 40
0.0
 40
0.0624999999999996
 40
0.0624999999999996
 40
0.1249999999999991
 40
0.1249999999999991
 40
0.2499999999999975
 40
0.2499999999999975
 40
0.3749999999999959
 40
0.3749999999999959
 40
0.4999999999999943
 40
0.4999999999999943
 40
0.7499999999999971
 40
0.7499999999999971
 40
1.0
 40
1.0
 40
1.0
 40
1.0
 10
96.73282767467525
 20
80.33614364234467
 30
0.0
 10
96.78622289004798
 20
80.34108989558713
 30
0.0
 10
96.84209191359436
 20
80.33969359290472
 30
0.0
 10
96.94923176993903
 20
80.32421797014547
 30
0.0
 10
97.00036229404061
 20
80.31032155340672
 30
0.0
 10
97.13768114387088
 20
80.25949387774695
 30
0.0
 10
97.21149542949624
 20
80.21398501562021
 30
0.0
 10
97.33796605587034
 20
80.11935069062834
 30
0.0
 10
97.39115783342824
 20
80.06919432748279
 30
0.0
 10
97.48510154583866
 20
79.96873319116408
 30
0.0
 10
97.52616096181231
 20
79.91788416198037
 30
0.0
 10
97.63825072841739
 20
79.7646720902244
 30
0.0
 10
97.6984839694502
 20
79.6614091097822
 30
0.0
 10
97.80239767098331
 20
79.4575525560446
 30
0.0
 10
97.84591010264838
 20
79.35672645962141
 30
0.0
 10
97.88401691824892
 20
79.2572472018983
 30
0.0
  0
SPLINE
  5
C8
330
1F
100
AcDbEntity
  8
0
  6
Continuous
 62
     7
370
    15
100
AcDbSpline
210
0.0
220
0.0
230
1.0
 70
     8
 71
     3
 72
    10
 73
     6
 74
     0
 42
0.000000001
 43
0.00000001
 40
0.0
 40
0.0
 40
0.0
 40
0.0
 40
0.5
 40
0.5
 40
1.0
 40
1.0
 40
1.0
 40
1.0
 10
90.19418728659454
 20
79.62227704114514
 30
0.0
 10
91.26035605480686
 20
79.76426303239117
 30
0.0
 10
92.34279267452278
 20
79.890392203144
 30
0.0
 10
94.52554099791033
 20
80.12522710077774
 30
0.0
 10
95.62616520112105
 20
80.23362822387658
 30
0.0
 10
96.73282767467512
 20
80.33614364234481
 30
0.0
  0
SPLINE
  5
C9
330
1F
100
AcDbEntity
  8
0
  6
Continuous
 62
     7
370
    15
100
AcDbSpline
210
0.0
220
0.0
230
1.0
 70
     8
 71
     3
 72
    12
 73
     8
 74
     0
 42
0.000000001
 43
0.00000001
 40
0.0
 40
0.0
 40
0.0
 40
0.0
 40
0.4999999999999978
 40
0.4999999999999978
 40
0.7499999999999989
 40
0.7499999999999989
 40
1.0
 40
1.0
 40
1.0
 40
1.0
 10
85.43275279064375
 20
79.36855096977935
 30
0.0
 10
86.23782981827291
 20
79.3850547759862
 30
0.0
 10
87.04021939427159
 20
79.40753843780433
 30
0.0
 10
88.23481768476707
 20
79.46140868124338
 30
0.0
 10
88.63151461803051
 20
79.48273376003625
 30
0.0
 10
89.41917626732898
 20
79.53827095752835
 30
0.0
 10
89.81070669829113
 20
79.57120738587354
 30
0.0
 10
90.19418728659458
 20
79.62227704114508
 30
0.0
  0
SPLINE
  5
CA
330
1F
100
AcDbEntity
  8
0
  6
Continuous
 62
     7
370
    15
100
AcDbSpline
210
0.0
220
0.0
230
1.0
 70
     8
 71
     3
 72
    12
 73
     8
 74
     0
 42
0.000000001
 43
0.00000001
 40
0.0
 40
0.0
 40
0.0
 40
0.0
 40
0.2500000000000001
 40
0.2500000000000001
 40
0.5000000000000001
 40
0.5000000000000001
 40
1.0
 40
1.0
 40
1.0
 40
1.0
 10
90.19418728659454
 20
143.5336770200156
 30
0.0
 10
89.81070669829117
 20
143.5847466752871
 30
0.0
 10
89.41917626732912
 20
143.6176831036323
 30
0.0
 10
88.63151461803082
 20
143.6732203011244
 30
0.0
 10
88.23481768476746
 20
143.6945453799173
 30
0.0
 10
87.04021939427223
 20
143.7484156233563
 30
0.0
 10
86.23782981827374
 20
143.7708992851744
 30
0.0
 10
85.43275279064476
 20
143.7874030913813
 30
0.0
  0
SPLINE
  5
CB
330
1F
100
AcDbEntity
  8
0
  6
Continuous
 62
     7
370
    15
100
AcDbSpline
210
0.0
220
0.0
230
1.0
 70
     8
 71
     3
 72
     8
 73
     4
 74
     0
 42
0.000000001
 43
0.00000001
 40
0.0
 40
0.0
 40
0.0
 40
0.0
 40
1.0
 40
1.0
 40
1.0
 40
1.0
 10
91.73282767467528
 20
143.3403494368158
 30
0.0
 10
91.21654081291369
 20
143.4017572555815
 30
0.0
 10
90.70329798929968
 20
143.4658766961524
 30
0.0
 10
90.19418728659451
 20
143.5336770200156
 30
0.0
  0
SPLINE
  5
CC
330
1F
100
AcDbEntity
  8
0
  6
Continuous
 62
     7
370
    15
100
AcDbSpline
210
0.0
220
0.0
230
1.0
 70
     8
 71
     3
 72
    14
 73
    10
 74
     0
 42
0.000000001
 43
0.00000001
 40
0.0
 40
0.0
 40
0.0
 40
0.0
 40
0.5000000000000101
 40
0.5000000000000101
 40
0.7500000000000071
 40
0.7500000000000071
 40
0.8750000000000036
 40
0.8750000000000036
 40
1.0
 40
1.0
 40
1.0
 40
1.0
 10
92.36965555755746
 20
143.636951276435
 30
0.0
 10
92.30912143566027
 20
143.5678585505341
 30
0.0
 10
92.23872561581004
 20
143.4987828981061
 30
0.0
 10
92.08994024807289
 20
143.4072401179895
 30
0.0
 10
92.03111953581833
 20
143.3780845387244
 30
0.0
 10
91.92645899977578
 20
143.348770250664
 30
0.0
 10
91.88814389850197
 20
143.3414690127346
 30
0.0
 10
91.81014826895247
 20
143.3350181269705
 30
0.0
 10
91.77032145186989
 20
143.3358898790673
 30
0.0
 10
91.73282767467526
 20
143.3403494368158
 30
0.0
  0
SPLINE
  5
CD
330
1F
100
AcDbEntity
  8
0
  6
Continuous
 62
     7
370
    15
100
AcDbSpline
210
0.0
220
0.0
230
1.0
 70
     8
 71
     3
 72
    18
 73
    14
 74
     0
 42
0.000000001
 43
0.00000001
 40
0.0
 40
0.0
 40
0.0
 40
0.0
 40
0.1250000000000002
 40
0.1250000000000002
 40
0.2500000000000004
 40
0.2500000000000004
 40
0.5000000000000016
 40
0.5000000000000016
 40
0.7500000000000027
 40
0.7500000000000027
 40
0.8750000000000013
 40
0.8750000000000013
 40
1.0
 40
1.0
 40
1.0
 40
1.0
 10
93.63282767467543
 20
145.3990255799775
 30
0.0
 10
93.63282767467543
 20
145.3340538426477
 30
0.0
 10
93.62236788881728
 20
145.2666702689794
 30
0.0
 10
93.58374314131478
 20
145.1298775167026
 30
0.0
 10
93.55573425449954
 20
145.0605971009694
 30
0.0
 10
93.4500691898252
 20
144.8501445308658
 30
0.0
 10
93.35082964677713
 20
144.7063729543905
 30
0.0
 10
93.11227566599959
 20
144.411948518951
 30
0.0
 10
92.97246362664535
 20
144.2613241717726
 30
0.0
 10
92.74890822078494
 20
144.0315424692075
 30
0.0
 10
92.67199736114992
 20
143.9542082007432
 30
0.0
 10
92.51816080711725
 20
143.7974862074729
 30
0.0
 10
92.44080579698627
 20
143.7181610774015
 30
0.0
 10
92.36965555755305
 20
143.6369512764357
 30
0.0
  0
LINE
  5
CE
330
1F
100
AcDbEntity
  8
0
  6
Continuous
 62
     7
370
    15
100
AcDbLine
 10
93.6328276747
 20
145.39902558
 30
0.0
 11
93.6328276747
 21
147.7414910586
 31
0.0
  0
LINE
  5
CF
330
1F
100
AcDbEntity
  8
0
  6
Continuous
 62
     7
370
    15
100
AcDbLine
 10
130.3769551491
 20
73.5735748525
 30
0.0
 11
130.3769551491
 21
149.5823792087
 31
0.0
  0
SPLINE
  5
D0
330
1F
100
AcDbEntity
  8
0
  6
Continuous
 62
     7
370
    15
100
AcDbSpline
210
0.0
220
0.0
230
1.0
 70
     8
 71
     3
 72
    24
 73
    20
 74
     0
 42
0.000000001
 43
0.00000001
 40
0.0
 40
0.0
 40
0.0
 40
0.0
 40
0.0007000344438065
 40
0.0633328728078429
 40
0.1266715900687826
 40
0.1897700366805079
 40
0.2520389292624597
 40
0.3140275311116325
 40
0.376539877091475
 40
0.4388982783214274
 40
0.5004660241196781
 40
0.5619432424751003
 40
0.6246931143557483
 40
0.6873438335836848
 40
0.7495987815288788
 40
0.8118902583375622
 40
0.8749332928374766
 40
0.9381951796348352
 40
1.0
 40
1.0
 40
1.0
 40
1.0
 10
111.8090559351274
 20
74.50408369858886
 30
0.0
 10
111.8085853670354
 20
74.50402290413943
 30
0.0
 10
111.766012563101
 20
74.49852276458651
 30
0.0
 10
111.915074252676
 20
74.51833714344016
 30
0.0
 10
112.279526455679
 20
74.56352858894994
 30
0.0
 10
112.8982381533609
 20
74.63574428134865
 30
0.0
 10
113.7230436835759
 20
74.71350816891346
 30
0.0
 10
114.7304871770689
 20
74.78225850190834
 30
0.0
 10
115.88714787448
 20
74.82392373897228
 30
0.0
 10
117.1361581057835
 20
74.8291026692851
 30
0.0
 10
118.4309332586357
 20
74.78595952656707
 30
0.0
 10
119.7244110934414
 20
74.69481894932122
 30
0.0
 10
120.9659412847285
 20
74.56166008591303
 30
0.0
 10
122.1144259190092
 20
74.40311757248438
 30
0.0
 10
123.1113772208652
 20
74.23499523861288
 30
0.0
 10
123.9302890271663
 20
74.07648769676162
 30
0.0
 10
124.5296696767061
 20
73.94770526791845
 30
0.0
 10
124.9246058359531
 20
73.85979392702387
 30
0.0
 10
124.9712209838215
 20
73.84889228016696
 30
0.0
 10
124.9942570171965
 20
73.843504960544
 30
0.0
  0
SPLINE
  5
D1
330
1F
100
AcDbEntity
  8
0
  6
Continuous
 62
     7
370
    15
100
AcDbSpline
210
0.0
220
0.0
230
1.0
 70
     8
 71
     3
 72
    24
 73
    20
 74
     0
 42
0.000000001
 43
0.00000001
 40
0.0
 40
0.0
 40
0.0
 40
0.0
 40
0.0616973187453739
 40
0.125240200792288
 40
0.1885321607654868
 40
0.250938396839374
 40
0.3130673509798522
 40
0.3754974835895784
 40
0.4379745471193576
 40
0.499440408036176
 40
0.5610377799499184
 40
0.6234961298382572
 40
0.6860886556985577
 40
0.7481833079418837
 40
0.8104444755154602
 40
0.8736219955557447
 40
0.936873866571246
 40
0.9995311283030167
 40
0.9999999999999999
 40
0.9999999999999999
 40
0.9999999999999999
 40
0.9999999999999999
 10
124.9941483833708
 20
149.312401941728
 30
0.0
 10
124.9707176794484
 20
149.3070248053156
 30
0.0
 10
124.9231553846254
 20
149.2961096852153
 30
0.0
 10
124.5251066421024
 20
149.2078902479828
 30
0.0
 10
123.9236356199868
 20
149.0785323853456
 30
0.0
 10
123.1039496423856
 20
148.919585138375
 30
0.0
 10
122.108379855468
 20
148.7514803492884
 30
0.0
 10
120.9635702927299
 20
148.5933561102348
 30
0.0
 10
119.7247013674037
 20
148.4608278396755
 30
0.0
 10
118.4328872190336
 20
148.3701009184371
 30
0.0
 10
117.1373848136497
 20
148.3270044683146
 30
0.0
 10
115.8870596466101
 20
148.3322328169106
 30
0.0
 10
114.7286184919608
 20
148.3739145717073
 30
0.0
 10
113.7200164504204
 20
148.4426407827907
 30
0.0
 10
112.8947323356924
 20
148.5204398239034
 30
0.0
 10
112.2774037781893
 20
148.5926540406057
 30
0.0
 10
111.9146192713957
 20
148.6377559886467
 30
0.0
 10
111.7659050738178
 20
148.65747999919
 30
0.0
 10
111.8081221678294
 20
148.6519634721622
 30
0.0
 10
111.8084357368608
 20
148.6519224979531
 30
0.0
  0
SPLINE
  5
D2
330
1F
100
AcDbEntity
  8
0
  6
Continuous
 62
     7
370
    15
100
AcDbSpline
210
0.0
220
0.0
230
1.0
 70
     8
 71
     3
 72
    24
 73
    20
 74
     0
 42
0.000000001
 43
0.00000001
 40
0.0
 40
0.0
 40
0.0
 40
0.0
 40
0.249999999999975
 40
0.249999999999975
 40
0.3749999999999629
 40
0.3749999999999629
 40
0.4374999999999568
 40
0.4374999999999568
 40
0.4687499999999565
 40
0.4687499999999565
 40
0.4999999999999561
 40
0.4999999999999561
 40
0.5624999999999615
 40
0.5624999999999615
 40
0.6249999999999667
 40
0.6249999999999667
 40
0.7499999999999779
 40
0.7499999999999779
 40
1.0
 40
1.0
 40
1.0
 40
1.0
 10
83.67546395820732
 20
81.03873560235046
 30
0.0
 10
83.70197207064336
 20
81.11601422390525
 30
0.0
 10
83.73507948752525
 20
81.18671610876578
 30
0.0
 10
83.82477609504754
 20
81.25094859462875
 30
0.0
 10
83.86024065743068
 20
81.26643492780182
 30
0.0
 10
83.94515906108968
 20
81.25262371563332
 30
0.0
 10
83.97908383590268
 20
81.24154248433113
 30
0.0
 10
84.04581301608916
 20
81.20052798665087
 30
0.0
 10
84.07093451060096
 20
81.1823373119678
 30
0.0
 10
84.12340346053027
 20
81.13779968756113
 30
0.0
 10
84.1509312933913
 20
81.11126616495739
 30
0.0
 10
84.22957453249441
 20
81.02768682633295
 30
0.0
 10
84.27496314759301
 20
80.96978417934041
 30
0.0
 10
84.35411548208548
 20
80.86091063576534
 30
0.0
 10
84.38898372096793
 20
80.80815927012027
 30
0.0
 10
84.48361308582622
 20
80.65718376757374
 30
0.0
 10
84.53482083831618
 20
80.56437062726042
 30
0.0
 10
84.67396617088005
 20
80.29548345660153
 30
0.0
 10
84.74564128254721
 20
80.13103937605551
 30
0.0
 10
84.8074529268296
 20
79.97501392172501
 30
0.0
  0
SPLINE
  5
D3
330
1F
100
AcDbEntity
  8
0
  6
Continuous
 62
     7
370
    15
100
AcDbSpline
210
0.0
220
0.0
230
1.0
 70
     8
 71
     3
 72
    10
 73
     6
 74
     0
 42
0.000000001
 43
0.00000001
 40
0.0
 40
0.0
 40
0.0
 40
0.0
 40
0.2974943046265136
 40
0.8002369808644876
 40
1.0
 40
1.0
 40
1.0
 40
1.0
 10
83.55873055477672
 20
80.96411513664117
 30
0.0
 10
83.56700867711648
 20
80.95471753985198
 30
0.0
 10
83.58927619459617
 20
80.92943872151824
 30
0.0
 10
83.64183921109763
 20
80.95936568949033
 30
0.0
 10
83.66801941215104
 20
81.02116303980173
 30
0.0
 10
83.67546395820732
 20
81.03873560235046
 30
0.0
  0
LINE
  5
D4
330
1F
100
AcDbEntity
  8
0
  6
Continuous
 62
     7
370
    15
100
AcDbLine
 10
83.5328276747
 20
81.0238247336
 30
0.0
 11
83.5328276747
 21
142.1321293276
 31
0.0
  0
SPLINE
  5
D5
330
1F
100
AcDbEntity
  8
0
  6
Continuous
 62
     7
370
    15
100
AcDbSpline
210
0.0
220
0.0
230
1.0
 70
     8
 71
     3
 72
    10
 73
     6
 74
     0
 42
0.000000001
 43
0.00000001
 40
0.0
 40
0.0
 40
0.0
 40
0.0
 40
0.1850530422122211
 40
0.6937894178568255
 40
1.0
 40
1.0
 40
1.0
 40
1.0
 10
83.6754639582073
 20
142.1172184588102
 30
0.0
 10
83.66861058499083
 20
142.1336383355785
 30
0.0
 10
83.64291634210039
 20
142.195198721769
 30
0.0
 10
83.5899598135505
 20
142.227219578967
 30
0.0
 10
83.5676697439677
 20
142.2007351285355
 30
0.0
 10
83.55929440724458
 20
142.190783782737
 30
0.0
  0
SPLINE
  5
D6
330
1F
100
AcDbEntity
  8
0
  6
Continuous
 62
     7
370
    15
100
AcDbSpline
210
0.0
220
0.0
230
1.0
 70
     8
 71
     3
 72
    24
 73
    20
 74
     0
 42
0.000000001
 43
0.00000001
 40
0.0
 40
0.0
 40
0.0
 40
0.0
 40
0.2500000000000068
 40
0.2500000000000068
 40
0.3750000000000104
 40
0.3750000000000104
 40
0.4375000000000113
 40
0.4375000000000113
 40
0.5000000000000122
 40
0.5000000000000122
 40
0.5312500000000128
 40
0.5312500000000128
 40
0.5625000000000131
 40
0.5625000000000131
 40
0.6250000000000108
 40
0.6250000000000108
 40
0.7500000000000062
 40
0.7500000000000062
 40
1.0
 40
1.0
 40
1.0
 40
1.0
 10
84.8074529268296
 20
143.1809401394356
 30
0.0
 10
84.745486250432
 20
143.0245233517812
 30
0.0
 10
84.67375919351409
 20
142.8599190214291
 30
0.0
 10
84.53381282834874
 20
142.5897122504988
 30
0.0
 10
84.48230223814618
 20
142.4964485536552
 30
0.0
 10
84.38694778237289
 20
142.3446666990799
 30
0.0
 10
84.35198335372347
 20
142.2919092883895
 30
0.0
 10
84.27219984155023
 20
142.1825831248975
 30
0.0
 10
84.22571569688614
 20
142.1237282757691
 30
0.0
 10
84.14762094633316
 20
142.0414115125407
 30
0.0
 10
84.11999284219281
 20
142.0150255597834
 30
0.0
 10
84.06777903599574
 20
141.9712033414428
 30
0.0
 10
84.04280456961905
 20
141.9533615634766
 30
0.0
 10
83.9762567110653
 20
141.9131506241262
 30
0.0
 10
83.94274790869746
 20
141.90266443582
 30
0.0
 10
83.85917740373948
 20
141.8899236504209
 30
0.0
 10
83.82367524373991
 20
141.9055449943978
 30
0.0
 10
83.73478657999195
 20
141.9699559197624
 30
0.0
 10
83.70187649705721
 20
142.0402184612053
 30
0.0
 10
83.6754639582073
 20
142.1172184588102
 30
0.0
  0
SPLINE
  5
D7
330
1F
100
AcDbEntity
  8
0
  6
Continuous
 62
     7
370
    15
100
AcDbSpline
210
0.0
220
0.0
230
1.0
 70
     8
 71
     3
 72
    10
 73
     6
 74
     0
 42
0.000000001
 43
0.00000001
 40
0.0
 40
0.0
 40
0.0
 40
0.0
 40
0.5
 40
0.5
 40
1.0
 40
1.0
 40
1.0
 40
1.0
 10
85.1828276746747
 20
143.7979490716886
 30
0.0
 10
85.1070386605846
 20
143.7030920467279
 30
0.0
 10
85.03537459267783
 20
143.6030472154326
 30
0.0
 10
84.9069583553312
 20
143.395782896655
 30
0.0
 10
84.85006223879378
 20
143.2884949106298
 30
0.0
 10
84.8074529268296
 20
143.1809401394356
 30
0.0
  0
SPLINE
  5
D8
330
1F
100
AcDbEntity
  8
0
  6
Continuous
 62
     7
370
    15
100
AcDbSpline
210
0.0
220
0.0
230
1.0
 70
     8
 71
     3
 72
     8
 73
     4
 74
     0
 42
0.000000001
 43
0.00000001
 40
0.0
 40
0.0
 40
0.0
 40
0.0
 40
1.0
 40
1.0
 40
1.0
 40
1.0
 10
85.43275279064476
 20
143.7874030913813
 30
0.0
 10
85.3440752392765
 20
143.7892209511294
 30
0.0
 10
85.26151858042913
 20
143.7932455562484
 30
0.0
 10
85.18282767467528
 20
143.797949071688
 30
0.0
  0
SPLINE
  5
D9
330
1F
100
AcDbEntity
  8
0
  6
Continuous
 62
     7
370
    15
100
AcDbSpline
210
0.0
220
0.0
230
1.0
 70
     8
 71
     3
 72
     8
 73
     4
 74
     0
 42
0.000000001
 43
0.00000001
 40
0.0
 40
0.0
 40
0.0
 40
0.0
 40
1.0
 40
1.0
 40
1.0
 40
1.0
 10
85.18282767466917
 20
79.35800498947235
 30
0.0
 10
85.26151858042456
 20
79.36270850491206
 30
0.0
 10
85.3440752392736
 20
79.36673311003115
 30
0.0
 10
85.43275279064376
 20
79.36855096977935
 30
0.0
  0
SPLINE
  5
DA
330
1F
100
AcDbEntity
  8
0
  6
Continuous
 62
     7
370
    15
100
AcDbSpline
210
0.0
220
0.0
230
1.0
 70
     8
 71
     3
 72
    10
 73
     6
 74
     0
 42
0.000000001
 43
0.00000001
 40
0.0
 40
0.0
 40
0.0
 40
0.0
 40
0.5
 40
0.5
 40
1.0
 40
1.0
 40
1.0
 40
1.0
 10
84.8074529268296
 20
79.975013921725
 30
0.0
 10
84.8500622387944
 20
79.86745915052931
 30
0.0
 10
84.90695835533285
 20
79.76017116450248
 30
0.0
 10
85.03537459268179
 20
79.55290684572222
 30
0.0
 10
85.10703866058982
 20
79.45286201442565
 30
0.0
 10
85.18282767468126
 20
79.3580049894638
 30
0.0
  0
SPLINE
  5
DB
330
1F
100
AcDbEntity
  8
0
  6
Continuous
 62
     7
370
    15
100
AcDbSpline
210
0.0
220
0.0
230
1.0
 70
     8
 71
     3
 72
    38
 73
    34
 74
     0
 42
0.000000001
 43
0.00000001
 40
0.0
 40
0.0
 40
0.0
 40
0.0
 40
0.0044995549235451
 40
0.0383950209302716
 40
0.0555775221293732
 40
0.0920925014286481
 40
0.1239385577891279
 40
0.1400278310171937
 40
0.179063144567036
 40
0.2130409501724632
 40
0.2301852208827347
 40
0.2745165801040767
 40
0.3131101441426619
 40
0.3325885431339399
 40
0.3824363361540972
 40
0.4259085159904884
 40
0.4478795029984434
 40
0.500690250101769
 40
0.5468236679103214
 40
0.5701676413423086
 40
0.6004882672306092
 40
0.623540392007551
 40
0.6466862943466908
 40
0.6937849477527077
 40
0.7463049802697284
 40
0.7923421729009307
 40
0.8157099614853208
 40
0.8565286207681823
 40
0.8921590620780467
 40
0.9101929636168435
 40
0.9510686091818977
 40
0.9869346325085381
 40
0.9999999999999999
 40
0.9999999999999999
 40
0.9999999999999999
 40
0.9999999999999999
 10
205.2739625195218
 20
143.075846488532
 30
0.0
 10
205.2768728901996
 20
143.0765458598653
 30
0.0
 10
205.3017072893765
 20
143.0825136449991
 30
0.0
 10
205.2290965874765
 20
143.0650084049356
 30
0.0
 10
205.0787870594221
 20
143.0291673120071
 30
0.0
 10
204.8384958995921
 20
142.972577700224
 30
0.0
 10
204.5062180404849
 20
142.8969268255211
 30
0.0
 10
204.0989082601745
 20
142.8072020227814
 30
0.0
 10
203.6090146464029
 20
142.7034170428802
 30
0.0
 10
203.0296089256048
 20
142.5893799336567
 30
0.0
 10
202.3624755435422
 20
142.4663011910399
 30
0.0
 10
201.5988426909638
 20
142.3367197912505
 30
0.0
 10
200.7464716153349
 20
142.2124972627755
 30
0.0
 10
199.8057418607191
 20
142.0927655852594
 30
0.0
 10
198.773263916312
 20
141.984247591967
 30
0.0
 10
197.6722369604557
 20
141.9050567411207
 30
0.0
 10
196.5227751078141
 20
141.8502908931967
 30
0.0
 10
195.3285414001856
 20
141.8267535816884
 30
0.0
 10
194.1217134483107
 20
141.8486738805966
 30
0.0
 10
193.1494202219843
 20
141.8916338977241
 30
0.0
 10
192.412300951106
 20
141.9388568255402
 30
0.0
 10
191.69227825201
 20
141.9987766532215
 30
0.0
 10
190.8338802649515
 20
142.084051374134
 30
0.0
 10
189.7496303645247
 20
142.2179094315154
 30
0.0
 10
188.5666693421786
 20
142.4007248516144
 30
0.0
 10
187.6877255306752
 20
142.5598711785344
 30
0.0
 10
186.9807639359769
 20
142.6987597278296
 30
0.0
 10
186.4197615039882
 20
142.8167494824149
 30
0.0
 10
185.9941897158355
 20
142.9116366538144
 30
0.0
 10
185.6507370288227
 20
142.9904302277206
 30
0.0
 10
185.4047331068159
 20
143.0486118349433
 30
0.0
 10
185.2892836585751
 20
143.0764223551347
 30
0.0
 10
185.2872468142184
 20
143.0769126291083
 30
0.0
 10
185.2867029482134
 20
143.0770435391342
 30
0.0
  0
SPLINE
  5
DC
330
1F
100
AcDbEntity
  8
0
  6
Continuous
 62
     7
370
    15
100
AcDbSpline
210
0.0
220
0.0
230
1.0
 70
    11
 71
     3
 72
    94
 73
    90
 74
     0
 42
0.000000001
 43
0.00000001
 40
0.0
 40
0.0
 40
0.0
 40
0.0
 40
0.0312499999999988
 40
0.0312499999999988
 40
0.0468749999999983
 40
0.0468749999999983
 40
0.0624999999999977
 40
0.0624999999999977
 40
0.0937499999999969
 40
0.0937499999999969
 40
0.1093749999999965
 40
0.1093749999999965
 40
0.124999999999996
 40
0.124999999999996
 40
0.1562499999999952
 40
0.1562499999999952
 40
0.1718749999999948
 40
0.1718749999999948
 40
0.1874999999999943
 40
0.1874999999999943
 40
0.2187499999999928
 40
0.2187499999999928
 40
0.2343749999999924
 40
0.2343749999999924
 40
0.249999999999992
 40
0.249999999999992
 40
0.2812499999999916
 40
0.2812499999999916
 40
0.2968749999999915
 40
0.2968749999999915
 40
0.3124999999999912
 40
0.3124999999999912
 40
0.3437499999999912
 40
0.3437499999999912
 40
0.3593749999999912
 40
0.3593749999999912
 40
0.3749999999999912
 40
0.3749999999999912
 40
0.3906249999999913
 40
0.3906249999999913
 40
0.4062499999999913
 40
0.4062499999999913
 40
0.4374999999999915
 40
0.4374999999999915
 40
0.4531249999999916
 40
0.4531249999999916
 40
0.4687499999999918
 40
0.4687499999999918
 40
0.4999999999999923
 40
0.4999999999999923
 40
0.5312499999999929
 40
0.5312499999999929
 40
0.5468749999999933
 40
0.5468749999999933
 40
0.5624999999999939
 40
0.5624999999999939
 40
0.5937499999999943
 40
0.5937499999999943
 40
0.6249999999999947
 40
0.6249999999999947
 40
0.6562499999999951
 40
0.6562499999999951
 40
0.6874999999999954
 40
0.6874999999999954
 40
0.7187499999999959
 40
0.7187499999999959
 40
0.7499999999999962
 40
0.7499999999999962
 40
0.7812499999999967
 40
0.7812499999999967
 40
0.8124999999999971
 40
0.8124999999999971
 40
0.8281249999999973
 40
0.8281249999999973
 40
0.8437499999999977
 40
0.8437499999999977
 40
0.8749999999999982
 40
0.8749999999999982
 40
0.9062499999999987
 40
0.9062499999999987
 40
0.9218749999999989
 40
0.9218749999999989
 40
0.9374999999999991
 40
0.9374999999999991
 40
0.9531249999999993
 40
0.9531249999999993
 40
0.9687499999999994
 40
0.9687499999999994
 40
1.0
 40
1.0
 40
1.0
 40
1.0
 10
188.6320674318964
 20
118.1026407036756
 30
0.0
 10
189.1174926738445
 20
118.4825802518288
 30
0.0
 10
189.6309661822542
 20
118.8113232928895
 30
0.0
 10
190.4397497332965
 20
119.2354488637026
 30
0.0
 10
190.7158292741171
 20
119.3652198436835
 30
0.0
 10
191.2809664144277
 20
119.6017481296712
 30
0.0
 10
191.5712879234254
 20
119.7088920853459
 30
0.0
 10
192.4527776409194
 20
119.9921771670456
 30
0.0
 10
193.0499540138263
 20
120.1296271296218
 30
0.0
 10
193.9594726313536
 20
120.2623308877489
 30
0.0
 10
194.2649521884594
 20
120.2942367646969
 30
0.0
 10
194.8806027297166
 20
120.3330405268179
 30
0.0
 10
195.1921377984947
 20
120.3398472603902
 30
0.0
 10
196.1185481326385
 20
120.3219503683235
 30
0.0
 10
196.7281709189054
 20
120.2598933907504
 30
0.0
 10
197.6308834831389
 20
120.0928361869776
 30
0.0
 10
197.9298230388678
 20
120.0247464154447
 30
0.0
 10
198.5236759362216
 20
119.8630062026428
 30
0.0
 10
198.8197509430519
 20
119.7688405590541
 30
0.0
 10
199.6857714982584
 20
119.4521288003273
 30
0.0
 10
200.237841042775
 20
119.1950064652216
 30
0.0
 10
201.0278957755145
 20
118.7388526456118
 30
0.0
 10
201.2848645234513
 20
118.5749777236097
 30
0.0
 10
201.7854464179418
 20
118.2222358811969
 30
0.0
 10
202.0299462991863
 20
118.0324447561773
 30
0.0
 10
202.7268078904574
 20
117.4360264914363
 30
0.0
 10
203.1477266975677
 20
116.9998435699494
 30
0.0
 10
203.7102648734798
 20
116.2836015931192
 30
0.0
 10
203.8862189597934
 20
116.0344506101906
 30
0.0
 10
204.2131761380119
 20
115.5135078127098
 30
0.0
 10
204.3638482680671
 20
115.2416168564346
 30
0.0
 10
204.763497767555
 20
114.4140564189637
 30
0.0
 10
204.9657223187567
 20
113.8392272823228
 30
0.0
 10
205.1661818895075
 20
112.9396046450826
 30
0.0
 10
205.2158935693555
 20
112.6309588440939
 30
0.0
 10
205.2766394851997
 20
112.0136860653351
 30
0.0
 10
205.2879591912739
 20
111.7058845700229
 30
0.0
 10
205.2734706760784
 20
111.0919092934303
 30
0.0
 10
205.247660580259
 20
110.7857355926943
 30
0.0
 10
205.1586681932499
 20
110.1750247800225
 30
0.0
 10
205.0948191505584
 20
109.8685363606995
 30
0.0
 10
204.8516893349526
 20
108.9732192668297
 30
0.0
 10
204.6218662259241
 20
108.4041716107902
 30
0.0
 10
204.1822660512667
 20
107.5891795693363
 30
0.0
 10
204.0198974091534
 20
107.3246882707357
 30
0.0
 10
203.6715797608875
 20
106.8195326883317
 30
0.0
 10
203.4848378309561
 20
106.5773277960544
 30
0.0
 10
202.8886251071944
 20
105.880125774033
 30
0.0
 10
202.4388491544329
 20
105.4513205397602
 30
0.0
 10
201.4773856623058
 20
104.6938302854939
 30
0.0
 10
200.9643860389334
 20
104.3621066788294
 30
0.0
 10
200.1481403779193
 20
103.9312769927906
 30
0.0
 10
199.8675346471512
 20
103.7987304575665
 30
0.0
 10
199.3005915636271
 20
103.5603107203396
 30
0.0
 10
199.0131223532094
 20
103.4537698403719
 30
0.0
 10
198.1390266446455
 20
103.1708909512867
 30
0.0
 10
197.5408054472777
 20
103.0309852010099
 30
0.0
 10
196.3126174594846
 20
102.8498226870406
 30
0.0
 10
195.6960630289368
 20
102.8108615024723
 30
0.0
 10
194.4691153308835
 20
102.8326210319071
 30
0.0
 10
193.8569105917471
 20
102.893066480848
 30
0.0
 10
192.6351508317072
 20
103.1179754046054
 30
0.0
 10
192.0423566879058
 20
103.2794307568588
 30
0.0
 10
190.8948000910663
 20
103.6976519967137
 30
0.0
 10
190.3392929023468
 20
103.9545532806517
 30
0.0
 10
189.2687405770521
 20
104.5721930675484
 30
0.0
 10
188.7702871843561
 20
104.9233292622611
 30
0.0
 10
187.8472283652302
 20
105.7121746323602
 30
0.0
 10
187.4211678514878
 20
106.1514478484243
 30
0.0
 10
186.6587135147668
 20
107.1233105844246
 30
0.0
 10
186.3332203774908
 20
107.6414583451981
 30
0.0
 10
185.9333884753432
 20
108.4705395646355
 30
0.0
 10
185.8146359062684
 20
108.7565565092161
 30
0.0
 10
185.6107189439526
 20
109.3434979701436
 30
0.0
 10
185.5269362235924
 20
109.6401216294899
 30
0.0
 10
185.329480723614
 20
110.5393753470825
 30
0.0
 10
185.2691002002026
 20
111.1526539696924
 30
0.0
 10
185.3017502654413
 20
112.400429248737
 30
0.0
 10
185.3937835273697
 20
113.0092773406066
 30
0.0
 10
185.6383820379763
 20
113.9014670573617
 30
0.0
 10
185.738636757635
 20
114.1971348378228
 30
0.0
 10
185.9710752120509
 20
114.7708008684531
 30
0.0
 10
186.1028871664712
 20
115.0486921070049
 30
0.0
 10
186.3958503599987
 20
115.5877502956244
 30
0.0
 10
186.5570084509669
 20
115.8489131556835
 30
0.0
 10
186.9079135684178
 20
116.3550602620641
 30
0.0
 10
187.0982256682432
 20
116.6004605436913
 30
0.0
 10
187.7001082324374
 20
117.2996359814128
 30
0.0
 10
188.1466421899483
 20
117.7227011555222
 30
0.0
 10
188.6320674318964
 20
118.1026407036755
 30
0.0
  0
LINE
  5
DD
330
1F
100
AcDbEntity
  8
0
  6
Continuous
 62
     7
370
    15
100
AcDbLine
 10
212.7328276747
 20
111.5779770306
 30
0.0
 11
212.7328276747
 21
80.0779770306
 31
0.0
  0
LINE
  5
DE
330
1F
100
AcDbEntity
  8
0
  6
Continuous
 62
     7
370
    15
100
AcDbLine
 10
212.7328276747
 20
143.0779770306
 30
0.0
 11
212.7328276747
 21
111.5779770306
 31
0.0
  0
LINE
  5
DF
330
1F
100
AcDbEntity
  8
0
  6
Continuous
 62
     7
370
    15
100
AcDbLine
 10
213.3328276747
 20
111.5779770306
 30
0.0
 11
213.3328276747
 21
80.6779770306
 31
0.0
  0
LINE
  5
E0
330
1F
100
AcDbEntity
  8
0
  6
Continuous
 62
     7
370
    15
100
AcDbLine
 10
213.3328276747
 20
142.4779770306
 30
0.0
 11
213.3328276747
 21
111.5779770306
 31
0.0
  0
CIRCLE
  5
E1
330
1F
100
AcDbEntity
  8
0
  6
Continuous
 62
     7
370
    15
100
AcDbCircle
 10
195.2828276747
 20
111.5779770306
 30
0.0
 40
7.249999999999972
  0
SPLINE
  5
E2
330
1F
100
AcDbEntity
  8
0
  6
Continuous
 62
     7
370
    15
100
AcDbSpline
210
0.0
220
0.0
230
1.0
 70
     8
 71
     3
 72
    12
 73
     8
 74
     0
 42
0.000000001
 43
0.00000001
 40
0.0
 40
0.0
 40
0.0
 40
0.0
 40
0.4999999999999953
 40
0.4999999999999953
 40
0.7499999999999977
 40
0.7499999999999977
 40
1.0
 40
1.0
 40
1.0
 40
1.0
 10
162.2828276746752
 20
159.6999314796673
 30
0.0
 10
162.2828276746753
 20
159.9655348772088
 30
0.0
 10
162.1779827137437
 20
160.2279001811227
 30
0.0
 10
161.9016516019412
 20
160.5130427345598
 30
0.0
 10
161.7911498852537
 20
160.5894810087223
 30
0.0
 10
161.5470970102185
 20
160.6937930936362
 30
0.0
 10
161.4155221504114
 20
160.7208554566555
 30
0.0
 10
161.2828276746752
 20
160.7208554566555
 30
0.0
  0
SPLINE
  5
E3
330
1F
100
AcDbEntity
  8
0
  6
Continuous
 62
     7
370
    15
100
AcDbSpline
210
0.0
220
0.0
230
1.0
 70
     8
 71
     3
 72
    14
 73
    10
 74
     0
 42
0.000000001
 43
0.00000001
 40
0.0
 40
0.0
 40
0.0
 40
0.0
 40
0.125
 40
0.125
 40
0.25
 40
0.25
 40
0.5
 40
0.5
 40
1.0
 40
1.0
 40
1.0
 40
1.0
 10
161.2828276746752
 20
150.7213034094153
 30
0.0
 10
161.3585143796167
 20
150.7213034094153
 30
0.0
 10
161.4345618068417
 20
150.7100287069032
 30
0.0
 10
161.5790878573932
 20
150.6674569774896
 30
0.0
 10
161.6473150674219
 20
150.6366533902981
 30
0.0
 10
161.8411073651926
 20
150.5185621560855
 30
0.0
 10
161.9496680574941
 20
150.4084411355863
 30
0.0
 10
162.2032083355944
 20
150.0369539373526
 30
0.0
 10
162.2828276746752
 20
149.7311352232294
 30
0.0
 10
162.2828276746753
 20
149.4316426390789
 30
0.0
  0
LINE
  5
E4
330
1F
100
AcDbEntity
  8
0
  6
Continuous
 62
     7
370
    15
100
AcDbLine
 10
162.2828276747
 20
149.4316426391
 30
0.0
 11
162.2828276747
 21
159.6999314797
 31
0.0
  0
SPLINE
  5
E5
330
1F
100
AcDbEntity
  8
0
  6
Continuous
 62
     7
370
    15
100
AcDbSpline
210
0.0
220
0.0
230
1.0
 70
     8
 71
     3
 72
    10
 73
     6
 74
     0
 42
0.000000001
 43
0.00000001
 40
0.0
 40
0.0
 40
0.0
 40
0.0
 40
0.5
 40
0.5
 40
1.0
 40
1.0
 40
1.0
 40
1.0
 10
152.2228276746753
 20
156.4522527907528
 30
0.0
 10
152.0102913608189
 20
156.4522527907528
 30
0.0
 10
151.8003551891649
 20
156.543665377383
 30
0.0
 10
151.5066480481536
 20
156.8484102432872
 30
0.0
 10
151.4228276746752
 20
157.0605652131958
 30
0.0
 10
151.4228276746752
 20
157.2715282714283
 30
0.0
  0
SPLINE
  5
E6
330
1F
100
AcDbEntity
  8
0
  6
Continuous
 62
     7
370
    15
100
AcDbSpline
210
0.0
220
0.0
230
1.0
 70
     8
 71
     3
 72
    14
 73
    10
 74
     0
 42
0.000000001
 43
0.00000001
 40
0.0
 40
0.0
 40
0.0
 40
0.0
 40
0.25
 40
0.25
 40
0.5
 40
0.5
 40
0.75
 40
0.75
 40
1.0
 40
1.0
 40
1.0
 40
1.0
 10
151.4228276746752
 20
146.2922122230774
 30
0.0
 10
151.4228276746752
 20
146.1683453462882
 30
0.0
 10
151.4386868023028
 20
146.0440856694507
 30
0.0
 10
151.5020484478227
 20
145.8064773070448
 30
0.0
 10
151.5506381558721
 20
145.6896969222923
 30
0.0
 10
151.682923760647
 20
145.4808943936833
 30
0.0
 10
151.7682485519075
 20
145.3863836900907
 30
0.0
 10
151.9751398002137
 20
145.2484268892885
 30
0.0
 10
152.0991077461037
 20
145.2065084436528
 30
0.0
 10
152.2228276746753
 20
145.2065084436528
 30
0.0
  0
SPLINE
  5
E7
330
1F
100
AcDbEntity
  8
0
  6
Continuous
 62
     7
370
    15
100
AcDbSpline
210
0.0
220
0.0
230
1.0
 70
     8
 71
     3
 72
     8
 73
     4
 74
     0
 42
0.000000001
 43
0.00000001
 40
0.0
 40
0.0
 40
0.0
 40
0.0
 40
1.0
 40
1.0
 40
1.0
 40
1.0
 10
151.4228276746752
 20
158.4820342313319
 30
0.0
 10
151.0013361736188
 20
159.2284865429836
 30
0.0
 10
150.5795132833578
 20
159.9747524939589
 30
0.0
 10
150.1574011941323
 20
160.7208554566555
 30
0.0
  0
SPLINE
  5
E8
330
1F
100
AcDbEntity
  8
0
  6
Continuous
 62
     7
370
    15
100
AcDbSpline
210
0.0
220
0.0
230
1.0
 70
     8
 71
     3
 72
     8
 73
     4
 74
     0
 42
0.000000001
 43
0.00000001
 40
0.0
 40
0.0
 40
0.0
 40
0.0
 40
1.0
 40
1.0
 40
1.0
 40
1.0
 10
150.1574011941323
 20
150.7213034094153
 30
0.0
 10
150.5845548275201
 20
149.7734134116793
 30
0.0
 10
151.0068091842767
 20
148.8229599878427
 30
0.0
 10
151.4228276746752
 20
147.8707873639145
 30
0.0
  0
LINE
  5
E9
330
1F
100
AcDbEntity
  8
0
  6
Continuous
 62
     7
370
    15
100
AcDbLine
 10
151.4228276747
 20
147.8707873639
 30
0.0
 11
151.4228276747
 21
158.4820342313
 31
0.0
  0
LINE
  5
EA
330
1F
100
AcDbEntity
  8
0
  6
Continuous
 62
     7
370
    15
100
AcDbLine
 10
152.2228276747
 20
145.2065084437
 30
0.0
 11
154.4428276747
 21
145.2065084437
 31
0.0
  0
SPLINE
  5
EB
330
1F
100
AcDbEntity
  8
0
  6
Continuous
 62
     7
370
    15
100
AcDbSpline
210
0.0
220
0.0
230
1.0
 70
     8
 71
     3
 72
    12
 73
     8
 74
     0
 42
0.000000001
 43
0.00000001
 40
0.0
 40
0.0
 40
0.0
 40
0.0
 40
0.25
 40
0.25
 40
0.5
 40
0.5
 40
1.0
 40
1.0
 40
1.0
 40
1.0
 10
154.4428276746753
 20
145.2065084436528
 30
0.0
 10
154.5665286246553
 20
145.2065084436528
 30
0.0
 10
154.6906252369255
 20
145.2485020553854
 30
0.0
 10
154.8972804000125
 20
145.3862973820298
 30
0.0
 10
154.9823211667393
 20
145.4802709804946
 30
0.0
 10
155.1817997352129
 20
145.7950591867155
 30
0.0
 10
155.2428276746753
 20
146.0452981789431
 30
0.0
 10
155.2428276746753
 20
146.2922122230774
 30
0.0
  0
LINE
  5
EC
330
1F
100
AcDbEntity
  8
0
  6
Continuous
 62
     7
370
    15
100
AcDbLine
 10
155.2428276747
 20
146.2922122231
 30
0.0
 11
155.2428276747
 21
147.8707873639
 31
0.0
  0
SPLINE
  5
ED
330
1F
100
AcDbEntity
  8
0
  6
Continuous
 62
     7
370
    15
100
AcDbSpline
210
0.0
220
0.0
230
1.0
 70
     8
 71
     3
 72
     8
 73
     4
 74
     0
 42
0.000000001
 43
0.00000001
 40
0.0
 40
0.0
 40
0.0
 40
0.0
 40
1.0
 40
1.0
 40
1.0
 40
1.0
 10
155.2428276746753
 20
147.8707873639145
 30
0.0
 10
155.6590529061886
 20
148.8234331716899
 30
0.0
 10
156.0811873155073
 20
149.7736060141805
 30
0.0
 10
156.5082541552182
 20
150.7213034094153
 30
0.0
  0
LINE
  5
EE
330
1F
100
AcDbEntity
  8
0
  6
Continuous
 62
     7
370
    15
100
AcDbLine
 10
156.5082541552
 20
150.7213034094
 30
0.0
 11
161.2828276747
 21
150.7213034094
 31
0.0
  0
LINE
  5
EF
330
1F
100
AcDbEntity
  8
0
  6
Continuous
 62
     7
370
    15
100
AcDbLine
 10
151.4228276747
 20
147.8707873639
 30
0.0
 11
151.4228276747
 21
146.2922122231
 31
0.0
  0
LINE
  5
F0
330
1F
100
AcDbEntity
  8
0
  6
Continuous
 62
     7
370
    15
100
AcDbLine
 10
162.2828276747
 20
149.4316426391
 30
0.0
 11
162.2828276747
 21
142.9279770306
 31
0.0
  0
SPLINE
  5
F1
330
1F
100
AcDbEntity
  8
0
  6
Continuous
 62
     7
370
    15
100
AcDbSpline
210
0.0
220
0.0
230
1.0
 70
     8
 71
     3
 72
    14
 73
    10
 74
     0
 42
0.000000001
 43
0.00000001
 40
0.0
 40
0.0
 40
0.0
 40
0.0
 40
0.25
 40
0.25
 40
0.5
 40
0.5
 40
0.75
 40
0.75
 40
1.0
 40
1.0
 40
1.0
 40
1.0
 10
155.2428276746753
 20
157.2715282714283
 30
0.0
 10
155.2428276746753
 20
157.165171577676
 30
0.0
 10
155.222440118534
 20
157.0593310899159
 30
0.0
 10
155.1438057730725
 20
156.8627661763794
 30
0.0
 10
155.0850744134339
 20
156.7715954340923
 30
0.0
 10
154.9384655078313
 20
156.6196843450607
 30
0.0
 10
154.8490601878048
 20
156.5576155082411
 30
0.0
 10
154.6551694552044
 20
156.4743474604824
 30
0.0
 10
154.5486644653146
 20
156.4522527907528
 30
0.0
 10
154.4428276746753
 20
156.4522527907528
 30
0.0
  0
SPLINE
  5
F2
330
1F
100
AcDbEntity
  8
0
  6
Continuous
 62
     7
370
    15
100
AcDbSpline
210
0.0
220
0.0
230
1.0
 70
     8
 71
     3
 72
     8
 73
     4
 74
     0
 42
0.000000001
 43
0.00000001
 40
0.0
 40
0.0
 40
0.0
 40
0.0
 40
1.0
 40
1.0
 40
1.0
 40
1.0
 10
156.5082541552182
 20
160.7208554566555
 30
0.0
 10
156.0861420659927
 20
159.9747524939589
 30
0.0
 10
155.6643191757317
 20
159.2284865429836
 30
0.0
 10
155.2428276746753
 20
158.4820342313319
 30
0.0
  0
LINE
  5
F3
330
1F
100
AcDbEntity
  8
0
  6
Continuous
 62
     7
370
    15
100
AcDbLine
 10
156.5082541552
 20
150.7213034094
 30
0.0
 11
156.5082541552
 21
160.7208554567
 31
0.0
  0
LINE
  5
F4
330
1F
100
AcDbEntity
  8
0
  6
Continuous
 62
     7
370
    15
100
AcDbLine
 10
155.2428276747
 20
147.8707873639
 30
0.0
 11
155.2428276747
 21
158.4820342313
 31
0.0
  0
LINE
  5
F5
330
1F
100
AcDbEntity
  8
0
  6
Continuous
 62
     7
370
    15
100
AcDbLine
 10
154.4428276747
 20
156.4522527908
 30
0.0
 11
152.2228276747
 21
156.4522527908
 31
0.0
  0
LINE
  5
F6
330
1F
100
AcDbEntity
  8
0
  6
Continuous
 62
     7
370
    15
100
AcDbLine
 10
161.2828276747
 20
160.7208554567
 30
0.0
 11
156.5082541552
 21
160.7208554567
 31
0.0
  0
LINE
  5
F7
330
1F
100
AcDbEntity
  8
0
  6
Continuous
 62
     7
370
    15
100
AcDbLine
 10
85.1828276747
 20
79.3279770306
 30
0.0
 11
85.1828276747
 21
79.3580049895
 31
0.0
  0
LINE
  5
F8
330
1F
100
AcDbEntity
  8
0
  6
Continuous
 62
     7
370
    15
100
AcDbLine
 10
85.1828276747
 20
143.8279770306
 30
0.0
 11
85.1828276747
 21
143.7979490717
 31
0.0
  0
CIRCLE
  5
F9
330
1F
100
AcDbEntity
  8
0
  6
HIDDEN
 62
     7
370
     0
100
AcDbCircle
 10
195.2828276747
 20
111.5779770306
 30
0.0
 40
8.00000000000002
  0
LINE
  5
FA
330
1F
100
AcDbEntity
  8
0
  6
HIDDEN
 62
     7
370
     0
100
AcDbLine
 10
187.2828276747
 20
129.1581040495
 30
0.0
 11
203.2828276747
 21
129.1581040495
 31
0.0
  0
LINE
  5
FB
330
1F
100
AcDbEntity
  8
0
  6
HIDDEN
 62
     7
370
     0
100
AcDbLine
 10
187.2828276747
 20
139.3279770306
 30
0.0
 11
203.2828276747
 21
139.3279770306
 31
0.0
  0
LINE
  5
FC
330
1F
100
AcDbEntity
  8
0
  6
HIDDEN
 62
     7
370
     0
100
AcDbLine
 10
190.1664911687
 20
119.8279770306
 30
0.0
 11
200.3991641807
 21
119.8279770306
 31
0.0
  0
SPLINE
  5
FD
330
1F
100
AcDbEntity
  8
0
  6
HIDDEN
 62
     7
370
     0
100
AcDbSpline
210
0.0
220
0.0
230
1.0
 70
     8
 71
     3
 72
    11
 73
     7
 74
     0
 42
0.000000001
 43
0.00000001
 40
0.0
 40
0.0
 40
0.0
 40
0.0
 40
0.2164567244934062
 40
0.4403141600939142
 40
0.7519028444798609
 40
1.0
 40
1.0
 40
1.0
 40
1.0
 10
196.9164692999941
 20
140.2467791840973
 30
0.0
 10
196.6042216897673
 20
140.1019007738912
 30
0.0
 10
195.9690506431754
 20
139.8071905233553
 30
0.0
 10
194.7903462197126
 20
139.5615525606733
 30
0.0
 10
193.5259819628008
 20
139.7096576211534
 30
0.0
 10
192.7168672316853
 20
140.0818112005059
 30
0.0
 10
192.3582034082216
 20
140.2467791840974
 30
0.0
  0
SPLINE
  5
FE
330
1F
100
AcDbEntity
  8
0
  6
HIDDEN
 62
     7
370
     0
100
AcDbSpline
210
0.0
220
0.0
230
1.0
 70
     8
 71
     3
 72
    11
 73
     7
 74
     0
 42
0.000000001
 43
0.00000001
 40
0.0
 40
0.0
 40
0.0
 40
0.0
 40
0.2164567244934162
 40
0.4403141600939141
 40
0.7519028444798677
 40
1.0
 40
1.0
 40
1.0
 40
1.0
 10
192.3582034082216
 20
140.2467791840974
 30
0.0
 10
192.2462966643887
 20
140.1019007738913
 30
0.0
 10
192.0186570563565
 20
139.8071905233553
 30
0.0
 10
191.5962199594789
 20
139.5615525606733
 30
0.0
 10
191.1430831463358
 20
139.7096576211534
 30
0.0
 10
190.853103681383
 20
140.0818112005059
 30
0.0
 10
190.7245617829028
 20
140.2467791840973
 30
0.0
  0
SPLINE
  5
FF
330
1F
100
AcDbEntity
  8
0
  6
HIDDEN
 62
     7
370
     0
100
AcDbSpline
210
0.0
220
0.0
230
1.0
 70
     8
 71
     3
 72
    11
 73
     7
 74
     0
 42
0.000000001
 43
0.00000001
 40
0.0
 40
0.0
 40
0.0
 40
0.0
 40
0.1845133558519064
 40
0.518056503916381
 40
0.867612283048498
 40
1.0
 40
1.0
 40
1.0
 40
1.0
 10
190.7245617829028
 20
140.2467791840973
 30
0.0
 10
190.8944095316753
 20
140.1222375202228
 30
0.0
 10
191.3712895413684
 20
139.7725630011025
 30
0.0
 10
192.2601810959108
 20
139.5128422195318
 30
0.0
 10
193.0861370887397
 20
139.825950104717
 30
0.0
 10
193.5278496027517
 20
140.1560909692324
 30
0.0
 10
193.6491860493563
 20
140.2467791840973
 30
0.0
  0
SPLINE
  5
100
330
1F
100
AcDbEntity
  8
0
  6
HIDDEN
 62
     7
370
     0
100
AcDbSpline
210
0.0
220
0.0
230
1.0
 70
     8
 71
     3
 72
    11
 73
     7
 74
     0
 42
0.000000001
 43
0.00000001
 40
0.0
 40
0.0
 40
0.0
 40
0.0
 40
0.2164567244934146
 40
0.4403141600939194
 40
0.7519028444798764
 40
0.9999999999999999
 40
0.9999999999999999
 40
0.9999999999999999
 40
0.9999999999999999
 10
193.6491860493563
 20
140.2467791840973
 30
0.0
 10
193.9614336595831
 20
140.1019007738912
 30
0.0
 10
194.596604706175
 20
139.8071905233552
 30
0.0
 10
195.7753091296377
 20
139.5615525606732
 30
0.0
 10
197.0396733865495
 20
139.7096576211533
 30
0.0
 10
197.8487881176651
 20
140.0818112005058
 30
0.0
 10
198.2074519411288
 20
140.2467791840972
 30
0.0
  0
SPLINE
  5
101
330
1F
100
AcDbEntity
  8
0
  6
HIDDEN
 62
     7
370
     0
100
AcDbSpline
210
0.0
220
0.0
230
1.0
 70
     8
 71
     3
 72
    11
 73
     7
 74
     0
 42
0.000000001
 43
0.00000001
 40
0.0
 40
0.0
 40
0.0
 40
0.0
 40
0.216456724493423
 40
0.440314160093916
 40
0.7519028444798772
 40
1.0
 40
1.0
 40
1.0
 40
1.0
 10
198.2074519411288
 20
140.2467791840972
 30
0.0
 10
198.3193586849617
 20
140.1019007738912
 30
0.0
 10
198.546998292994
 20
139.8071905233552
 30
0.0
 10
198.9694353898715
 20
139.5615525606732
 30
0.0
 10
199.4225722030146
 20
139.7096576211533
 30
0.0
 10
199.7125516679674
 20
140.0818112005059
 30
0.0
 10
199.8410935664476
 20
140.2467791840973
 30
0.0
  0
SPLINE
  5
102
330
1F
100
AcDbEntity
  8
0
  6
HIDDEN
 62
     7
370
     0
100
AcDbSpline
210
0.0
220
0.0
230
1.0
 70
     8
 71
     3
 72
    11
 73
     7
 74
     0
 42
0.000000001
 43
0.00000001
 40
0.0
 40
0.0
 40
0.0
 40
0.0
 40
0.1323877169514958
 40
0.4819434960836135
 40
0.8154866441480868
 40
1.0
 40
1.0
 40
1.0
 40
1.0
 10
199.8410935664476
 20
140.2467791840973
 30
0.0
 10
199.7197571198431
 20
140.1560909692324
 30
0.0
 10
199.278044605831
 20
139.8259501047171
 30
0.0
 10
198.4520886130022
 20
139.5128422195318
 30
0.0
 10
197.5631970584597
 20
139.7725630011026
 30
0.0
 10
197.0863170487665
 20
140.1222375202228
 30
0.0
 10
196.9164692999941
 20
140.2467791840973
 30
0.0
  0
LINE
  5
103
330
1F
100
AcDbEntity
  8
0
  6
HIDDEN
 62
     7
370
     0
100
AcDbLine
 10
191.2828276747
 20
129.3279770306
 30
0.0
 11
199.2828276747
 21
129.3279770306
 31
0.0
  0
LINE
  5
104
330
1F
100
AcDbEntity
  8
0
  6
HIDDEN
 62
     7
370
     0
100
AcDbLine
 10
195.9283189952
 20
130.3279770306
 30
0.0
 11
193.6491860494
 21
130.3279770306
 31
0.0
  0
LINE
  5
105
330
1F
100
AcDbEntity
  8
0
  6
HIDDEN
 62
     7
370
     0
100
AcDbLine
 10
198.2074519411
 20
130.3279770306
 30
0.0
 11
195.9283189952
 21
130.3279770306
 31
0.0
  0
LINE
  5
106
330
1F
100
AcDbEntity
  8
0
  6
HIDDEN
 62
     7
370
     0
100
AcDbLine
 10
193.6491860494
 20
130.3279770306
 30
0.0
 11
192.1868739161
 21
130.3279770306
 31
0.0
  0
LINE
  5
107
330
1F
100
AcDbEntity
  8
0
  6
HIDDEN
 62
     7
370
     0
100
AcDbLine
 10
193.6491860494
 20
130.3279770306
 30
0.0
 11
193.6491860494
 21
140.2467791841
 31
0.0
  0
LINE
  5
108
330
1F
100
AcDbEntity
  8
0
  6
HIDDEN
 62
     7
370
     0
100
AcDbLine
 10
199.0242727538
 20
130.3279770306
 30
0.0
 11
198.2074519411
 21
130.3279770306
 31
0.0
  0
LINE
  5
109
330
1F
100
AcDbEntity
  8
0
  6
HIDDEN
 62
     7
370
     0
100
AcDbLine
 10
198.2074519411
 20
130.3279770306
 30
0.0
 11
198.2074519411
 21
140.2467791841
 31
0.0
  0
LINE
  5
10A
330
1F
100
AcDbEntity
  8
0
  6
HIDDEN
 62
     7
370
     0
100
AcDbLine
 10
192.1868739161
 20
130.3279770306
 30
0.0
 11
190.7245617829
 21
130.3279770306
 31
0.0
  0
LINE
  5
10B
330
1F
100
AcDbEntity
  8
0
  6
HIDDEN
 62
     7
370
     0
100
AcDbLine
 10
199.8410935664
 20
130.3279770306
 30
0.0
 11
199.0242727538
 21
130.3279770306
 31
0.0
  0
LINE
  5
10C
330
1F
100
AcDbEntity
  8
0
  6
HIDDEN
 62
     7
370
     0
100
AcDbLine
 10
192.3582034082
 20
130.3279770306
 30
0.0
 11
192.3582034082
 21
140.2467791841
 31
0.0
  0
LINE
  5
10D
330
1F
100
AcDbEntity
  8
0
  6
HIDDEN
 62
     7
370
     0
100
AcDbLine
 10
190.7245617829
 20
130.3279770306
 30
0.0
 11
190.7245617829
 21
140.2467791841
 31
0.0
  0
LINE
  5
10E
330
1F
100
AcDbEntity
  8
0
  6
HIDDEN
 62
     7
370
     0
100
AcDbLine
 10
196.9164693
 20
130.3279770306
 30
0.0
 11
196.9164693
 21
140.2467791841
 31
0.0
  0
LINE
  5
10F
330
1F
100
AcDbEntity
  8
0
  6
HIDDEN
 62
     7
370
     0
100
AcDbLine
 10
199.8410935664
 20
130.3279770306
 30
0.0
 11
199.8410935664
 21
140.2467791841
 31
0.0
  0
LINE
  5
110
330
1F
100
AcDbEntity
  8
0
  6
HIDDEN
 62
     7
370
     0
100
AcDbLine
 10
150.1574011941
 20
150.7213034094
 30
0.0
 11
150.1574011941
 21
142.9279770306
 31
0.0
  0
LINE
  5
111
330
1F
100
AcDbEntity
  8
0
  6
HIDDEN
 62
     7
370
     0
100
AcDbLine
 10
113.7361774986
 20
74.7106315122
 30
0.0
 11
113.3699203776
 21
74.6768243159
 31
0.0
  0
SPLINE
  5
112
330
1F
100
AcDbEntity
  8
0
  6
HIDDEN
 62
     7
370
     0
100
AcDbSpline
210
0.0
220
0.0
230
1.0
 70
     8
 71
     3
 72
     8
 73
     4
 74
     0
 42
0.000000001
 43
0.00000001
 40
0.0
 40
0.0
 40
0.0
 40
0.0
 40
1.0
 40
1.0
 40
1.0
 40
1.0
 10
83.53282767467526
 20
81.02382473359191
 30
0.0
 10
83.53282767467526
 20
81.00606681774067
 30
0.0
 10
83.53556877552958
 20
80.99067170395668
 30
0.0
 10
83.54061370615817
 20
80.97817047229137
 30
0.0
  0
SPLINE
  5
113
330
1F
100
AcDbEntity
  8
0
  6
HIDDEN
 62
     7
370
     0
100
AcDbSpline
210
0.0
220
0.0
230
1.0
 70
     8
 71
     3
 72
     8
 73
     4
 74
     0
 42
0.000000001
 43
0.00000001
 40
0.0
 40
0.0
 40
0.0
 40
0.0
 40
1.0
 40
1.0
 40
1.0
 40
1.0
 10
83.53954792876132
 20
142.1750055498837
 30
0.0
 10
83.53518489978177
 20
142.1630305563527
 30
0.0
 10
83.53282767467526
 20
142.1486001186805
 30
0.0
 10
83.53282767467526
 20
142.1321293275688
 30
0.0
  0
LINE
  5
114
330
1F
100
AcDbEntity
  8
0
  6
HIDDEN
 62
     7
370
     0
100
AcDbLine
 10
188.6320674319
 20
142.3948359283
 30
0.0
 11
189.3459768459
 21
142.287066243
 31
0.0
  0
SPLINE
  5
115
330
1F
100
AcDbEntity
  8
0
  6
HIDDEN
 62
     7
370
     0
100
AcDbSpline
210
0.0
220
0.0
230
1.0
 70
     8
 71
     3
 72
    13
 73
     9
 74
     0
 42
0.000000001
 43
0.00000001
 40
0.0
 40
0.0
 40
0.0
 40
0.0
 40
0.0388028294646075
 40
0.3183693403534713
 40
0.5627479266071371
 40
0.6864153172467302
 40
0.9663932971347885
 40
1.0
 40
1.0
 40
1.0
 40
1.0
 10
185.2867029482134
 20
143.0770435391342
 30
0.0
 10
185.2856453250923
 20
143.0772982355683
 30
0.0
 10
185.2769677420381
 20
143.0793879681174
 30
0.0
 10
185.3595093609719
 20
143.0595167822615
 30
0.0
 10
185.5436029611975
 20
143.0155831055719
 30
0.0
 10
185.8144390025188
 20
142.9529428378636
 30
0.0
 10
186.0182298613378
 20
142.904606900021
 30
0.0
 10
186.2400244165277
 20
142.8575505142015
 30
0.0
 10
186.2637940204763
 20
142.852507506481
 30
0.0
  0
SPLINE
  5
116
330
1F
100
AcDbEntity
  8
0
  6
HIDDEN
 62
     7
370
     0
100
AcDbSpline
210
0.0
220
0.0
230
1.0
 70
     8
 71
     3
 72
    11
 73
     7
 74
     0
 42
0.000000001
 43
0.00000001
 40
0.0
 40
0.0
 40
0.0
 40
0.0
 40
0.2878088186943465
 40
0.5840095473799529
 40
0.8718532907282431
 40
1.0
 40
1.0
 40
1.0
 40
1.0
 10
123.4800361920547
 20
142.9104572040027
 30
0.0
 10
123.6449179920255
 20
142.9355676965057
 30
0.0
 10
123.979489204294
 20
142.986520851547
 30
0.0
 10
124.2809083744007
 20
143.0228519288524
 30
0.0
 10
124.4329321162399
 20
143.0401348477589
 30
0.0
 10
124.4167127229124
 20
143.0382999065499
 30
0.0
 10
124.4117163056432
 20
143.0377346491595
 30
0.0
  0
SPLINE
  5
117
330
1F
100
AcDbEntity
  8
0
  6
HIDDEN
 62
     7
370
     0
100
AcDbSpline
210
0.0
220
0.0
230
1.0
 70
     8
 71
     3
 72
    11
 73
     7
 74
     0
 42
0.000000001
 43
0.00000001
 40
0.0
 40
0.0
 40
0.0
 40
0.0
 40
0.1679796129512193
 40
0.4568251812885805
 40
0.7540742746017149
 40
1.0
 40
1.0
 40
1.0
 40
1.0
 10
124.4117152785962
 20
80.11821952724068
 30
0.0
 10
124.4146694598214
 20
80.11787615149166
 30
0.0
 10
124.4227034369812
 20
80.11694233169023
 30
0.0
 10
124.2473860603465
 20
80.1369962702068
 30
0.0
 10
123.9363743012557
 20
80.17542415026539
 30
0.0
 10
123.6222554331512
 20
80.22365847242762
 30
0.0
 10
123.4800361920547
 20
80.24549685715795
 30
0.0
  0
SPLINE
  5
118
330
1F
100
AcDbEntity
  8
0
  6
HIDDEN
 62
     7
370
     0
100
AcDbSpline
210
0.0
220
0.0
230
1.0
 70
     8
 71
     3
 72
    23
 73
    19
 74
     0
 42
0.000000001
 43
0.00000001
 40
0.0
 40
0.0
 40
0.0
 40
0.0
 40
0.0650044125746528
 40
0.1318907194047333
 40
0.196895340412737
 40
0.2638055229595601
 40
0.3283882692671433
 40
0.3949046714072754
 40
0.458475616189899
 40
0.5238916250258399
 40
0.5875060738407994
 40
0.6529089662756605
 40
0.7175385654617887
 40
0.7840146299716275
 40
0.8490665816738
 40
0.9160505760671153
 40
0.9802830450213051
 40
1.0
 40
1.0
 40
1.0
 40
1.0
 10
123.4800361920547
 20
80.24549685715795
 30
0.0
 10
123.286080524261
 20
80.27586808066889
 30
0.0
 10
122.8925541228253
 20
80.33748978232582
 30
0.0
 10
122.1405529789702
 20
80.43657102283674
 30
0.0
 10
121.2850316928816
 20
80.52771611611782
 30
0.0
 10
120.3538562964554
 20
80.60009027309842
 30
0.0
 10
119.3602135046096
 20
80.64622250013272
 30
0.0
 10
118.355539679446
 20
80.66009372253882
 30
0.0
 10
117.3495868148055
 20
80.6409405101006
 30
0.0
 10
116.3888416408188
 20
80.59193655696973
 30
0.0
 10
115.4772789798042
 20
80.51779266671348
 30
0.0
 10
114.6512912591316
 20
80.42754266739334
 30
0.0
 10
113.9192441108025
 20
80.3293652832636
 30
0.0
 10
113.3158064444319
 20
80.2356615185241
 30
0.0
 10
112.8475610530895
 20
80.15506301211798
 30
0.0
 10
112.5557310242579
 20
80.10139708129113
 30
0.0
 10
112.4233669993749
 20
80.07618120196935
 30
0.0
 10
112.4457801549137
 20
80.08043802460236
 30
0.0
 10
112.4510442670182
 20
80.08143781204906
 30
0.0
  0
SPLINE
  5
119
330
1F
100
AcDbEntity
  8
0
  6
HIDDEN
 62
     7
370
     0
100
AcDbSpline
210
0.0
220
0.0
230
1.0
 70
     8
 71
     3
 72
    16
 73
    12
 74
     0
 42
0.000000001
 43
0.00000001
 40
0.0
 40
0.0
 40
0.0
 40
0.0
 40
0.046592683184033
 40
0.1753040381794895
 40
0.3048711499526293
 40
0.4364673372553373
 40
0.5681702697442723
 40
0.6977897817623185
 40
0.8264136643519597
 40
0.956649972602164
 40
1.0
 40
1.0
 40
1.0
 40
1.0
 10
112.5103430808253
 20
143.0633370848635
 30
0.0
 10
112.4894943278964
 20
143.0672682137885
 30
0.0
 10
112.4110513121767
 20
143.0820590077086
 30
0.0
 10
112.9629510891994
 20
142.9772513967126
 30
0.0
 10
114.1020810261883
 20
142.7927399137074
 30
0.0
 10
115.777697945033
 20
142.5964255423276
 30
0.0
 10
117.7477314012631
 20
142.4863039034628
 30
0.0
 10
119.7862214097182
 20
142.5097938652835
 30
0.0
 10
121.6544806623934
 20
142.6529921647239
 30
0.0
 10
122.8487478267985
 20
142.8108178165061
 30
0.0
 10
123.3538869031778
 20
142.8905464333176
 30
0.0
 10
123.4800361920547
 20
142.9104572040027
 30
0.0
  0
LINE
  5
11A
330
1F
100
AcDbEntity
  8
0
  6
HIDDEN
 62
     7
370
     0
100
AcDbLine
 10
103.4428494613
 20
85.2279770306
 30
0.0
 11
103.4428494613
 21
137.9279770306
 31
0.0
  0
LINE
  5
11B
330
1F
100
AcDbEntity
  8
0
  6
HIDDEN
 62
     7
370
     0
100
AcDbLine
 10
142.616905293
 20
85.2279770306
 30
0.0
 11
142.616905293
 21
137.9279770306
 31
0.0
  0
LINE
  5
11C
330
1F
100
AcDbEntity
  8
0
  6
HIDDEN
 62
     7
370
     0
100
AcDbLine
 10
145.7828276747
 20
86.8529770306
 30
0.0
 11
145.7828276747
 21
136.3029770066
 31
0.0
  0
SPLINE
  5
11D
330
1F
100
AcDbEntity
  8
0
  6
HIDDEN
 62
     7
370
     0
100
AcDbSpline
210
0.0
220
0.0
230
1.0
 70
     8
 71
     3
 72
    20
 73
    16
 74
     0
 42
0.000000001
 43
0.00000001
 40
0.0
 40
0.0
 40
0.0
 40
0.0
 40
0.2500000000000019
 40
0.2500000000000019
 40
0.3750000000000016
 40
0.3750000000000016
 40
0.5000000000000012
 40
0.5000000000000012
 40
0.6250000000000009
 40
0.6250000000000009
 40
0.7500000000000007
 40
0.7500000000000007
 40
0.8750000000000003
 40
0.8750000000000003
 40
1.0
 40
1.0
 40
1.0
 40
1.0
 10
93.63282767467526
 20
136.6488844732717
 30
0.0
 10
93.63282767467526
 20
136.5691996971021
 30
0.0
 10
93.58587192977585
 20
136.4876157401043
 30
0.0
 10
93.44810801860146
 20
136.3666700041822
 30
0.0
 10
93.39184877887152
 20
136.3274990958462
 30
0.0
 10
93.25881758851075
 20
136.251834905113
 30
0.0
 10
93.18101106894379
 20
136.2149591238156
 30
0.0
 10
93.00840753370711
 20
136.1469190891828
 30
0.0
 10
92.91402811761351
 20
136.1157531566205
 30
0.0
 10
92.70861500790048
 20
136.0598522586868
 30
0.0
 10
92.59626149524436
 20
136.0349692731046
 30
0.0
 10
92.36396694049712
 20
135.994886556536
 30
0.0
 10
92.24322943803467
 20
135.9793556739497
 30
0.0
 10
91.99210590413456
 20
135.9581228791641
 30
0.0
 10
91.86251683696446
 20
135.9526031815596
 30
0.0
 10
91.73282767467526
 20
135.9526031815595
 30
0.0
  0
LINE
  5
11E
330
1F
100
AcDbEntity
  8
0
  6
HIDDEN
 62
     7
370
     0
100
AcDbLine
 10
91.7328276747
 20
135.9526031816
 30
0.0
 11
85.1828276747
 21
135.9526031816
 31
0.0
  0
LINE
  5
11F
330
1F
100
AcDbEntity
  8
0
  6
HIDDEN
 62
     7
370
     0
100
AcDbLine
 10
85.1828276747
 20
87.2033508796
 30
0.0
 11
96.7328276747
 21
87.2033508796
 31
0.0
  0
SPLINE
  5
120
330
1F
100
AcDbEntity
  8
0
  6
HIDDEN
 62
     7
370
     0
100
AcDbSpline
210
0.0
220
0.0
230
1.0
 70
     8
 71
     3
 72
    18
 73
    14
 74
     0
 42
0.000000001
 43
0.00000001
 40
0.0
 40
0.0
 40
0.0
 40
0.0
 40
0.1249999999999978
 40
0.1249999999999978
 40
0.2499999999999956
 40
0.2499999999999956
 40
0.4999999999999979
 40
0.4999999999999979
 40
0.7500000000000001
 40
0.7500000000000001
 40
0.8750000000000001
 40
0.8750000000000001
 40
1.0
 40
1.0
 40
1.0
 40
1.0
 10
96.73282767467525
 20
87.20335087960113
 30
0.0
 10
96.86234601376175
 20
87.20335087960112
 30
0.0
 10
96.98940288487192
 20
87.19795806193983
 30
0.0
 10
97.2388498822602
 20
87.17706750087513
 30
0.0
 10
97.36250828075269
 20
87.16128067576253
 30
0.0
 10
97.71158905462352
 20
87.10116130261959
 30
0.0
 10
97.9220883087937
 20
87.0429959971536
 30
0.0
 10
98.26592866288327
 20
86.90758616478557
 30
0.0
 10
98.40221126229581
 20
86.82942931854151
 30
0.0
 10
98.53919157285294
 20
86.70939356534203
 30
0.0
 10
98.5743923997276
 20
86.66822284446043
 30
0.0
 10
98.62098957884236
 20
86.5870802292086
 30
0.0
 10
98.63282767467527
 20
86.54686986046664
 30
0.0
 10
98.63282767467527
 20
86.50706958788892
 30
0.0
  0
LINE
  5
121
330
1F
100
AcDbEntity
  8
0
  6
HIDDEN
 62
     7
370
     0
100
AcDbLine
 10
85.1828276747
 20
87.2033508796
 30
0.0
 11
85.1828276747
 21
135.9526031816
 31
0.0
  0
LINE
  5
122
330
1F
100
AcDbEntity
  8
0
  6
HIDDEN
 62
     7
370
     0
100
AcDbLine
 10
172.8328276747
 20
111.5779770306
 30
0.0
 11
172.8328276747
 21
94.0779770306
 31
0.0
  0
LINE
  5
123
330
1F
100
AcDbEntity
  8
0
  6
HIDDEN
 62
     7
370
     0
100
AcDbLine
 10
172.8328276747
 20
129.0779770306
 30
0.0
 11
172.8328276747
 21
111.5779770306
 31
0.0
  0
LINE
  5
124
330
1F
100
AcDbEntity
  8
0
  6
HIDDEN
 62
     7
370
     0
100
AcDbLine
 10
177.6988530785
 20
111.5779770306
 30
0.0
 11
177.6988530785
 21
93.5779770306
 31
0.0
  0
LINE
  5
125
330
1F
100
AcDbEntity
  8
0
  6
HIDDEN
 62
     7
370
     0
100
AcDbLine
 10
177.6988530785
 20
129.5779770306
 30
0.0
 11
177.6988530785
 21
111.5779770306
 31
0.0
  0
SPLINE
  5
126
330
1F
100
AcDbEntity
  8
0
  6
HIDDEN
 62
     7
370
     0
100
AcDbSpline
210
0.0
220
0.0
230
1.0
 70
     8
 71
     3
 72
    40
 73
    36
 74
     0
 42
0.000000001
 43
0.00000001
 40
0.0
 40
0.0
 40
0.0
 40
0.0
 40
0.0235249350752546
 40
0.0714158514114891
 40
0.0958356759467639
 40
0.1193587967672651
 40
0.167153406849934
 40
0.1914652514775701
 40
0.2160172494590255
 40
0.2658861479710116
 40
0.2912554917537003
 40
0.3168461260625214
 40
0.3426231443538286
 40
0.369011479347841
 40
0.3956232922966645
 40
0.4200005843521148
 40
0.4697051310079428
 40
0.4951119960898461
 40
0.5178311707481892
 40
0.5640240239699222
 40
0.5875397103189861
 40
0.6107728321048257
 40
0.6579295759650802
 40
0.6818903127628513
 40
0.7069166984917201
 40
0.7577800846524437
 40
0.7836799536427739
 40
0.8091396177250397
 40
0.8347910053585892
 40
0.86107072902816
 40
0.8875783274045046
 40
0.911512989541484
 40
0.9602732886939631
 40
0.9851665879723961
 40
1.0
 40
1.0
 40
1.0
 40
1.0
 10
188.0328276746753
 20
129.5779770305803
 30
0.0
 10
188.0374082460448
 20
129.5761324909531
 30
0.0
 10
188.051313721374
 20
129.5705329274465
 30
0.0
 10
188.1814425588584
 20
129.5182553879073
 30
0.0
 10
188.3962577398216
 20
129.4344248261382
 30
0.0
 10
188.669899198719
 20
129.3300694721561
 30
0.0
 10
189.0265462795111
 20
129.19933914354
 30
0.0
 10
189.4631907424736
 20
129.0499393426468
 30
0.0
 10
189.9591678121135
 20
128.8890746423857
 30
0.0
 10
190.5340574991824
 20
128.7194282763897
 30
0.0
 10
191.1780361990728
 20
128.5546455148608
 30
0.0
 10
191.6986151921585
 20
128.4359826529177
 30
0.0
 10
192.2539704681544
 20
128.3262955983
 30
0.0
 10
192.8417551030002
 20
128.2296128568929
 30
0.0
 10
193.4401399064451
 20
128.1524935917718
 30
0.0
 10
194.2386347291757
 20
128.0781343486135
 30
0.0
 10
195.0499902317538
 20
128.0460904732085
 30
0.0
 10
195.8466123721664
 20
128.0595234414479
 30
0.0
 10
196.6086461799114
 20
128.0993445617247
 30
0.0
 10
197.3406037328419
 20
128.1747746198836
 30
0.0
 10
198.0445111998164
 20
128.2805597788929
 30
0.0
 10
198.7309459183103
 20
128.4045433861831
 30
0.0
 10
199.3784340713389
 20
128.5502885277742
 30
0.0
 10
199.9826230037965
 20
128.7087690586974
 30
0.0
 10
200.568106741771
 20
128.876486545542
 30
0.0
 10
201.094393745875
 20
129.0458971348195
 30
0.0
 10
201.5389780868269
 20
129.2003627824521
 30
0.0
 10
201.829733113886
 20
129.3058957307415
 30
0.0
 10
202.0750884347963
 20
129.398142380435
 30
0.0
 10
202.2732541173429
 20
129.4747711235801
 30
0.0
 10
202.4145361359362
 20
129.5305615533864
 30
0.0
 10
202.5309985788821
 20
129.5771669311926
 30
0.0
 10
202.5454854334487
 20
129.5831130853861
 30
0.0
 10
202.4777621543889
 20
129.5557696162041
 30
0.0
 10
202.4150998127966
 20
129.5309298218511
 30
0.0
 10
202.3917025493208
 20
129.5216549815181
 30
0.0
  0
LINE
  5
127
330
1F
100
AcDbEntity
  8
0
  6
HIDDEN
 62
     7
370
     0
100
AcDbLine
 10
85.1828276747
 20
84.2079770306
 30
0.0
 11
85.1828276747
 21
79.3580049895
 31
0.0
  0
LINE
  5
128
330
1F
100
AcDbEntity
  8
0
  6
HIDDEN
 62
     7
370
     0
100
AcDbLine
 10
85.1828276747
 20
138.9479770306
 30
0.0
 11
85.1828276747
 21
143.7979490717
 31
0.0
  0
LINE
  5
129
330
1F
100
AcDbEntity
  8
0
  6
HIDDEN
 62
     7
370
     0
100
AcDbLine
 10
98.6328276747
 20
84.2079770306
 30
0.0
 11
98.6328276747
 21
77.6414612004
 31
0.0
  0
LINE
  5
12A
330
1F
100
AcDbEntity
  8
0
  6
HIDDEN
 62
     7
370
     0
100
AcDbLine
 10
93.6328276747
 20
138.9479770306
 30
0.0
 11
93.6328276747
 21
145.39902558
 31
0.0
  0
LINE
  5
12B
330
1F
100
AcDbEntity
  8
0
  6
HIDDEN
 62
     7
370
     0
100
AcDbLine
 10
157.7328276747
 20
98.5779770306
 30
0.0
 11
157.7328276747
 21
124.5779770306
 31
0.0
  0
LINE
  5
12C
330
1F
100
AcDbEntity
  8
0
  6
HIDDEN
 62
     7
370
     0
100
AcDbLine
 10
159.0285145307
 20
124.5779770306
 30
0.0
 11
159.0285145307
 21
98.5779770306
 31
0.0
  0
LINE
  5
12D
330
1F
100
AcDbEntity
  8
0
  6
HIDDEN
 62
     7
370
     0
100
AcDbLine
 10
146.5328276747
 20
100.3279770306
 30
0.0
 11
146.5328276747
 21
122.8279770306
 31
0.0
  0
ELLIPSE
  5
12E
330
1F
100
AcDbEntity
  8
0
  6
HIDDEN
 62
     7
370
     0
100
AcDbEllipse
 10
77.378058285
 20
111.5779770306
 30
0.0
 11
30.85608570811715
 21
-1.421085471520200E-14
 31
0.0
210
0.0
220
0.0
230
1.0
 40
0.8164965809
 41
4.913202892272672
 42
4.96810789115519
  0
ELLIPSE
  5
12F
330
1F
100
AcDbEntity
  8
0
  6
HIDDEN
 62
     7
370
     0
100
AcDbEllipse
 10
77.378058285
 20
111.5779770306
 30
0.0
 11
30.85608570811715
 21
1.421085471520200E-14
 31
0.0
210
0.0
220
0.0
230
1.0
 40
0.8164965809
 41
1.315077416024408
 42
1.369982414906926
  0
LINE
  5
130
330
1F
100
AcDbEntity
  8
0
  6
HIDDEN
 62
     7
370
     0
100
AcDbLine
 10
162.2828276747
 20
67.6779770306
 30
0.0
 11
148.1828276747
 21
67.6779770306
 31
0.0
  0
LINE
  5
131
330
1F
100
AcDbEntity
  8
0
  6
HIDDEN
 62
     7
370
     0
100
AcDbLine
 10
138.1828276747
 20
61.4379481116
 30
0.0
 11
138.1828276747
 21
67.6779770306
 31
0.0
  0
LINE
  5
132
330
1F
100
AcDbEntity
  8
0
  6
HIDDEN
 62
     7
370
     0
100
AcDbLine
 10
148.1828276747
 20
67.6779770306
 30
0.0
 11
138.1828276747
 21
67.6779770306
 31
0.0
  0
LINE
  5
133
330
1F
100
AcDbEntity
  8
0
  6
HIDDEN
 62
     7
370
     0
100
AcDbLine
 10
98.6328276747
 20
84.2079770306
 30
0.0
 11
98.6328276747
 21
86.5070695879
 31
0.0
  0
LINE
  5
134
330
1F
100
AcDbEntity
  8
0
  6
HIDDEN
 62
     7
370
     0
100
AcDbLine
 10
85.1828276747
 20
84.2079770306
 30
0.0
 11
85.1828276747
 21
87.2033508796
 31
0.0
  0
LINE
  5
135
330
1F
100
AcDbEntity
  8
0
  6
HIDDEN
 62
     7
370
     0
100
AcDbLine
 10
85.1828276747
 20
138.9479770306
 30
0.0
 11
85.1828276747
 21
135.9526031816
 31
0.0
  0
LINE
  5
136
330
1F
100
AcDbEntity
  8
0
  6
HIDDEN
 62
     7
370
     0
100
AcDbLine
 10
93.6328276747
 20
138.9479770306
 30
0.0
 11
93.6328276747
 21
136.6488844733
 31
0.0
  0
LINE
  5
137
330
1F
100
AcDbEntity
  8
0
  6
HIDDEN
 62
     7
370
     0
100
AcDbLine
 10
148.1828276747
 20
155.4779770306
 30
0.0
 11
138.1828276747
 21
155.4779770306
 31
0.0
  0
LINE
  5
138
330
1F
100
AcDbEntity
  8
0
  6
HIDDEN
 62
     7
370
     0
100
AcDbLine
 10
162.2828276747
 20
155.4779770306
 30
0.0
 11
148.1828276747
 21
155.4779770306
 31
0.0
  0
LINE
  5
139
330
1F
100
AcDbEntity
  8
0
  6
HIDDEN
 62
     7
370
     0
100
AcDbLine
 10
188.0328276747
 20
140.3279770306
 30
0.0
 11
202.5328276747
 21
140.3279770306
 31
0.0
  0
SPLINE
  5
13A
330
1F
100
AcDbEntity
  8
0
  6
HIDDEN
 62
     7
370
     0
100
AcDbSpline
210
0.0
220
0.0
230
1.0
 70
     8
 71
     3
 72
    30
 73
    26
 74
     0
 42
0.000000001
 43
0.00000001
 40
0.0
 40
0.0
 40
0.0
 40
0.0
 40
0.0527576492774374
 40
0.1121129597444511
 40
0.1774988463882663
 40
0.2125239273720668
 40
0.2490831296209554
 40
0.2908746340231843
 40
0.3257315001824459
 40
0.3536500346690226
 40
0.3746276346931902
 40
0.4410913288738939
 40
0.499813702360758
 40
0.5542836246856366
 40
0.6140061919085655
 40
0.6790378253375222
 40
0.7136097249376322
 40
0.7495298983355057
 40
0.7909013659869971
 40
0.825537097107271
 40
0.8534334072224102
 40
0.8745875411282313
 40
0.9407552666929735
 40
0.9995143637853173
 40
1.0
 40
1.0
 40
1.0
 40
1.0
 10
124.4318180979548
 20
74.46533019885555
 30
0.0
 10
124.4160392194648
 20
74.47029432497673
 30
0.0
 10
124.3825082188765
 20
74.4808433710319
 30
0.0
 10
124.0829015716849
 20
74.55896488231483
 30
0.0
 10
123.6419994884406
 20
74.65863184039556
 30
0.0
 10
123.1481799100736
 20
74.76186381107938
 30
0.0
 10
122.6784358413116
 20
74.8574840870674
 30
0.0
 10
122.1481404161423
 20
74.95659245983316
 30
0.0
 10
121.6104642860219
 20
75.04534849437428
 30
0.0
 10
121.1528684979928
 20
75.11505276052094
 30
0.0
 10
120.4979122218299
 20
75.20653136604038
 30
0.0
 10
119.6151122384415
 20
75.30650427632354
 30
0.0
 10
118.4867806078871
 20
75.39601687517549
 30
0.0
 10
117.3970787844396
 20
75.4347695478089
 30
0.0
 10
116.3007644861052
 20
75.4356907056985
 30
0.0
 10
115.3945927098983
 20
75.40753617854764
 30
0.0
 10
114.6973214111051
 20
75.36863340610887
 30
0.0
 10
114.1702704237483
 20
75.32739265233023
 30
0.0
 10
113.7032973527877
 20
75.28286402539771
 30
0.0
 10
113.3315338668445
 20
75.24382522914813
 30
0.0
 10
113.0764450910135
 20
75.21350155677351
 30
0.0
 10
112.7741621126
 20
75.17508549039634
 30
0.0
 10
112.5171795426329
 20
75.14040509300327
 30
0.0
 10
112.4170121374975
 20
75.12310865064512
 30
0.0
 10
112.4331013465535
 20
75.12580950614816
 30
0.0
 10
112.433233231738
 20
75.125831645386
 30
0.0
  0
LINE
  5
13B
330
1F
100
AcDbEntity
  8
0
  6
HIDDEN
 62
     7
370
     0
100
AcDbLine
 10
114.1876194294
 20
147.8284527764
 30
0.0
 11
114.0746691215
 21
147.8393100334
 31
0.0
  0
SPLINE
  5
13C
330
1F
100
AcDbEntity
  8
0
  6
HIDDEN
 62
     7
370
     0
100
AcDbSpline
210
0.0
220
0.0
230
1.0
 70
     8
 71
     3
 72
    34
 73
    30
 74
     0
 42
0.000000001
 43
0.00000001
 40
0.0
 40
0.0
 40
0.0
 40
0.0
 40
0.000442953490228
 40
0.0242057356617309
 40
0.0495267845542858
 40
0.0764099771798028
 40
0.1048585029864723
 40
0.129670900105349
 40
0.1644955632836428
 40
0.2093206949544862
 40
0.268190400631009
 40
0.3225804471027151
 40
0.3725261017035739
 40
0.4180743792977318
 40
0.4417997055181662
 40
0.4671065085681428
 40
0.4940017616389614
 40
0.5224912238360886
 40
0.5469445365938681
 40
0.5817799840225812
 40
0.6269855894794248
 40
0.6868703119224362
 40
0.7416376966839013
 40
0.7913347964574488
 40
0.8360712491435203
 40
0.883876610856161
 40
0.9360336235939429
 40
0.9732999471779693
 40
1.0
 40
1.0
 40
1.0
 40
1.0
 10
112.433274354824
 20
148.0300089577035
 30
0.0
 10
112.4331250788584
 20
148.0300430880887
 30
0.0
 10
112.424967710999
 20
148.0319081847615
 30
0.0
 10
112.4541071898158
 20
148.0261374152743
 30
0.0
 10
112.5283567865302
 20
148.0149191975797
 30
0.0
 10
112.6727624766671
 20
147.9941298182965
 30
0.0
 10
112.8747513877061
 20
147.9678758433358
 30
0.0
 10
113.1585181179479
 20
147.9317547190189
 30
0.0
 10
113.5730183131501
 20
147.8856385143197
 30
0.0
 10
114.2501509445922
 20
147.8191126208474
 30
0.0
 10
115.1893235354445
 20
147.7542228589981
 30
0.0
 10
116.2999300745686
 20
147.7205196268503
 30
0.0
 10
117.3977354443835
 20
147.7212389392312
 30
0.0
 10
118.2976596894965
 20
147.7530894936446
 30
0.0
 10
119.0087607744207
 20
147.8013077088363
 30
0.0
 10
119.574095838908
 20
147.8500007413641
 30
0.0
 10
120.1628048877889
 20
147.9114580517663
 30
0.0
 10
120.7267942548816
 20
147.980116644825
 30
0.0
 10
121.3204453193868
 20
148.0649564874151
 30
0.0
 10
121.9864005852677
 20
148.1702639440318
 30
0.0
 10
122.7869427435696
 20
148.317619012948
 30
0.0
 10
123.5371271508133
 20
148.4740189252105
 30
0.0
 10
124.0844744308685
 20
148.5970952075969
 30
0.0
 10
124.3749383440292
 20
148.6725813017553
 30
0.0
 10
124.4631486266855
 20
148.7000881593974
 30
0.0
 10
124.3626427032106
 20
148.6702054915899
 30
0.0
 10
124.0717653677087
 20
148.5981044679193
 30
0.0
 10
123.6991193038734
 20
148.5131818081839
 30
0.0
 10
123.4288913870554
 20
148.45476784144
 30
0.0
 10
123.3160961959189
 20
148.4303854067104
 30
0.0
  0
LINE
  5
13D
330
1F
100
AcDbEntity
  8
0
  6
HIDDEN
 62
     7
370
     0
100
AcDbLine
 10
156.5082541552
 20
150.7213034094
 30
0.0
 11
156.5082541552
 21
142.9279770306
 31
0.0
  0
LINE
  5
13E
330
1F
100
AcDbEntity
  8
0
  6
HIDDEN
 62
     7
370
     0
100
AcDbLine
 10
155.2428276747
 20
146.2922122231
 30
0.0
 11
155.2428276747
 21
142.9279770306
 31
0.0
  0
LINE
  5
13F
330
1F
100
AcDbEntity
  8
0
  6
HIDDEN
 62
     7
370
     0
100
AcDbLine
 10
151.4228276747
 20
146.2922122231
 30
0.0
 11
151.4228276747
 21
142.9279770306
 31
0.0
  0
SPLINE
  5
140
330
1F
100
AcDbEntity
  8
0
  6
HIDDEN
 62
     7
370
     0
100
AcDbSpline
210
0.0
220
0.0
230
1.0
 70
     8
 71
     3
 72
    24
 73
    20
 74
     0
 42
0.000000001
 43
0.00000001
 40
0.0
 40
0.0
 40
0.0
 40
0.0
 40
0.249999999999975
 40
0.249999999999975
 40
0.3749999999999629
 40
0.3749999999999629
 40
0.4374999999999568
 40
0.4374999999999568
 40
0.4687499999999565
 40
0.4687499999999565
 40
0.4999999999999561
 40
0.4999999999999561
 40
0.5624999999999615
 40
0.5624999999999615
 40
0.6249999999999667
 40
0.6249999999999667
 40
0.7499999999999779
 40
0.7499999999999779
 40
1.0
 40
1.0
 40
1.0
 40
1.0
 10
83.67546395820732
 20
81.03873560235046
 30
0.0
 10
83.70197207064336
 20
81.11601422390525
 30
0.0
 10
83.73507948752525
 20
81.18671610876578
 30
0.0
 10
83.82477609504754
 20
81.25094859462875
 30
0.0
 10
83.86024065743068
 20
81.26643492780182
 30
0.0
 10
83.94515906108968
 20
81.25262371563332
 30
0.0
 10
83.97908383590268
 20
81.24154248433113
 30
0.0
 10
84.04581301608916
 20
81.20052798665087
 30
0.0
 10
84.07093451060096
 20
81.1823373119678
 30
0.0
 10
84.12340346053027
 20
81.13779968756113
 30
0.0
 10
84.1509312933913
 20
81.11126616495739
 30
0.0
 10
84.22957453249441
 20
81.02768682633295
 30
0.0
 10
84.27496314759301
 20
80.96978417934041
 30
0.0
 10
84.35411548208548
 20
80.86091063576534
 30
0.0
 10
84.38898372096793
 20
80.80815927012027
 30
0.0
 10
84.48361308582622
 20
80.65718376757374
 30
0.0
 10
84.53482083831618
 20
80.56437062726042
 30
0.0
 10
84.67396617088005
 20
80.29548345660153
 30
0.0
 10
84.74564128254721
 20
80.13103937605551
 30
0.0
 10
84.8074529268296
 20
79.97501392172501
 30
0.0
  0
CIRCLE
  5
141
330
1F
100
AcDbEntity
  8
0
  6
HIDDEN
 62
     7
370
     0
100
AcDbCircle
 10
140.4328276747
 20
111.5779770306
 30
0.0
 40
5.000000000000014
  0
LINE
  5
142
330
1F
100
AcDbEntity
  8
0
  6
HIDDEN
 62
     7
370
     0
100
AcDbLine
 10
187.2828276747
 20
139.3279770306
 30
0.0
 11
187.2828276747
 21
129.1581040495
 31
0.0
  0
LINE
  5
143
330
1F
100
AcDbEntity
  8
0
  6
HIDDEN
 62
     7
370
     0
100
AcDbLine
 10
203.2828276747
 20
129.1581040495
 30
0.0
 11
203.2828276747
 21
139.3279770306
 31
0.0
  0
LINE
  5
144
330
1F
100
AcDbEntity
  8
0
  6
HIDDEN
 62
     7
370
     0
100
AcDbLine
 10
203.2828276747
 20
139.3279770306
 30
0.0
 11
202.2828276747
 21
140.3279770306
 31
0.0
  0
LINE
  5
145
330
1F
100
AcDbEntity
  8
0
  6
HIDDEN
 62
     7
370
     0
100
AcDbLine
 10
188.2828276747
 20
140.3279770306
 30
0.0
 11
187.2828276747
 21
139.3279770306
 31
0.0
  0
LINE
  5
146
330
1F
100
AcDbEntity
  8
0
  6
HIDDEN
 62
     7
370
     0
100
AcDbLine
 10
187.2828276747
 20
129.1581040495
 30
0.0
 11
189.6835282555
 21
120.198567508
 31
0.0
  0
LINE
  5
147
330
1F
100
AcDbEntity
  8
0
  6
HIDDEN
 62
     7
370
     0
100
AcDbLine
 10
200.8821270938
 20
120.198567508
 30
0.0
 11
203.2828276747
 21
129.1581040495
 31
0.0
  0
ARC
  5
148
330
1F
100
AcDbEntity
  8
0
  6
HIDDEN
 62
     7
370
     0
100
AcDbCircle
 10
190.1664911687
 20
120.3279770306
 30
0.0
 40
0.5000000000000079
100
AcDbArc
 50
195.0
 51
270.0
  0
ARC
  5
149
330
1F
100
AcDbEntity
  8
0
  6
HIDDEN
 62
     7
370
     0
100
AcDbCircle
 10
200.3991641807
 20
120.3279770306
 30
0.0
 40
0.5
100
AcDbArc
 50
270.0
 51
345.0
  0
LINE
  5
14A
330
1F
100
AcDbEntity
  8
0
  6
HIDDEN
 62
     7
370
     0
100
AcDbLine
 10
190.5828276747
 20
140.3279770306
 30
0.0
 11
190.994452241
 21
139.9163524643
 31
0.0
  0
LINE
  5
14B
330
1F
100
AcDbEntity
  8
0
  6
HIDDEN
 62
     7
370
     0
100
AcDbLine
 10
199.5712031084
 20
139.9163524643
 30
0.0
 11
199.9828276747
 21
140.3279770306
 31
0.0
  0
LINE
  5
14C
330
1F
100
AcDbEntity
  8
0
  6
HIDDEN
 62
     7
370
     0
100
AcDbLine
 10
191.2828276747
 20
130.3279770306
 30
0.0
 11
191.2828276747
 21
129.3279770306
 31
0.0
  0
LINE
  5
14D
330
1F
100
AcDbEntity
  8
0
  6
HIDDEN
 62
     7
370
     0
100
AcDbLine
 10
199.2828276747
 20
129.3279770306
 30
0.0
 11
199.2828276747
 21
130.3279770306
 31
0.0
  0
LINE
  5
14E
330
1F
100
AcDbEntity
  8
0
  6
HIDDEN
 62
     7
370
     0
100
AcDbLine
 10
191.2828276747
 20
129.3279770306
 30
0.0
 11
195.2828276747
 21
127.8720960935
 31
0.0
  0
LINE
  5
14F
330
1F
100
AcDbEntity
  8
0
  6
HIDDEN
 62
     7
370
     0
100
AcDbLine
 10
195.2828276747
 20
127.8720960935
 30
0.0
 11
199.2828276747
 21
129.3279770306
 31
0.0
  0
LINE
  5
150
330
1F
100
AcDbEntity
  8
0
  6
HIDDEN
 62
     7
370
     0
100
AcDbLine
 10
133.3328276747
 20
72.173294074
 30
0.0
 11
133.4224292986
 21
72.8108427559
 31
0.0
  0
LINE
  5
151
330
1F
100
AcDbEntity
  8
0
  6
HIDDEN
 62
     7
370
     0
100
AcDbLine
 10
133.4224292986
 20
150.3451113052
 30
0.0
 11
133.3328276747
 21
150.9826599872
 31
0.0
  0
ARC
  5
152
330
1F
100
AcDbEntity
  8
0
  6
HIDDEN
 62
     7
370
     0
100
AcDbCircle
 10
132.4358907562
 20
72.9494917061
 30
0.0
 40
0.9962338214386701
100
AcDbArc
 50
352.0
 51
0.0
  0
ARC
  5
153
330
1F
100
AcDbEntity
  8
0
  6
HIDDEN
 62
     7
370
     0
100
AcDbCircle
 10
132.4358907562
 20
72.9494917061
 30
0.0
 40
0.9962338214386727
100
AcDbArc
 50
0.0
 51
25.7988228126
  0
ARC
  5
154
330
1F
100
AcDbEntity
  8
0
  6
HIDDEN
 62
     7
370
     0
100
AcDbCircle
 10
132.4358907562
 20
150.206462355
 30
0.0
 40
0.9962338214386854
100
AcDbArc
 50
348.75
 51
8.0
  0
LWPOLYLINE
  5
155
330
1F
100
AcDbEntity
  8
0
  6
HIDDEN
 62
     7
370
     0
100
AcDbPolyline
 90
        3
 70
   128
 43
0.0
 10
133.4129822241
 20
150.012106778
 10
133.3562907934
 20
149.8252201768
 10
133.3328276747
 20
149.7728888419
  0
LINE
  5
156
330
1F
100
AcDbEntity
  8
0
  6
HIDDEN
 62
     7
370
     0
100
AcDbLine
 10
133.4321245777
 20
72.9494917061
 30
0.0
 11
133.4321245777
 21
150.206462355
 31
0.0
  0
ARC
  5
157
330
1F
100
AcDbEntity
  8
0
  6
HIDDEN
 62
     7
370
     0
100
AcDbCircle
 10
123.4800361921
 20
92.0779770306
 30
0.0
 40
11.99999999999999
100
AcDbArc
 50
274.4545889965
 51
325.1916429146
  0
ARC
  5
158
330
1F
100
AcDbEntity
  8
0
  6
HIDDEN
 62
     7
370
     0
100
AcDbCircle
 10
123.4800361921
 20
131.0779770306
 30
0.0
 40
12.00000000000002
100
AcDbArc
 50
34.8083570854
 51
85.5495711255
  0
LINE
  5
159
330
1F
100
AcDbEntity
  8
0
  6
HIDDEN
 62
     7
370
     0
100
AcDbLine
 10
106.9935536168
 20
80.0779770306
 30
0.0
 11
112.451044267
 21
80.0779770306
 31
0.0
  0
LINE
  5
15A
330
1F
100
AcDbEntity
  8
0
  6
HIDDEN
 62
     7
370
     0
100
AcDbLine
 10
112.5103430808
 20
143.0779770306
 30
0.0
 11
106.9935536168
 21
143.0779770306
 31
0.0
  0
ARC
  5
15B
330
1F
100
AcDbEntity
  8
0
  6
HIDDEN
 62
     7
370
     0
100
AcDbCircle
 10
106.9935536168
 20
81.0779770306
 30
0.0
 40
1.000000000000008
100
AcDbArc
 50
210.0
 51
270.0
  0
ARC
  5
15C
330
1F
100
AcDbEntity
  8
0
  6
HIDDEN
 62
     7
370
     0
100
AcDbCircle
 10
106.9935536168
 20
142.0779770306
 30
0.0
 40
1.000000000000008
100
AcDbArc
 50
90.0
 51
150.0
  0
LINE
  5
15D
330
1F
100
AcDbEntity
  8
0
  6
HIDDEN
 62
     7
370
     0
100
AcDbLine
 10
106.1275282131
 20
142.5779770306
 30
0.0
 11
103.4428494613
 21
137.9279770306
 31
0.0
  0
LINE
  5
15E
330
1F
100
AcDbEntity
  8
0
  6
HIDDEN
 62
     7
370
     0
100
AcDbLine
 10
103.4428494613
 20
85.2279770306
 30
0.0
 11
106.1275282131
 21
80.5779770306
 31
0.0
  0
ARC
  5
15F
330
1F
100
AcDbEntity
  8
0
  6
HIDDEN
 62
     7
370
     0
100
AcDbCircle
 10
143.7828276747
 20
86.8529770306
 30
0.0
 40
2.000000000000015
100
AcDbArc
 50
234.3409123039
 51
0.0
  0
ARC
  5
160
330
1F
100
AcDbEntity
  8
0
  6
HIDDEN
 62
     7
370
     0
100
AcDbCircle
 10
143.7828276747
 20
136.3029770306
 30
0.0
 40
2.000000000000003
100
AcDbArc
 50
0.0
 51
125.6590876961
  0
LINE
  5
161
330
1F
100
AcDbEntity
  8
0
  6
HIDDEN
 62
     7
370
     0
100
AcDbLine
 10
133.3328276747
 20
85.2279770306
 30
0.0
 11
142.616905293
 21
85.2279770306
 31
0.0
  0
LINE
  5
162
330
1F
100
AcDbEntity
  8
0
  6
HIDDEN
 62
     7
370
     0
100
AcDbLine
 10
142.616905293
 20
137.9279770306
 30
0.0
 11
133.3328276747
 21
137.9279770306
 31
0.0
  0
LINE
  5
163
330
1F
100
AcDbEntity
  8
0
  6
HIDDEN
 62
     7
370
     0
100
AcDbLine
 10
98.6328276747
 20
85.2279770306
 30
0.0
 11
103.4428494613
 21
85.2279770306
 31
0.0
  0
LINE
  5
164
330
1F
100
AcDbEntity
  8
0
  6
HIDDEN
 62
     7
370
     0
100
AcDbLine
 10
103.4428494613
 20
137.9279770306
 30
0.0
 11
93.6328276747
 21
137.9279770306
 31
0.0
  0
ARC
  5
165
330
1F
100
AcDbEntity
  8
0
  6
HIDDEN
 62
     7
370
     0
100
AcDbCircle
 10
212.3328276747
 20
130.5779770306
 30
0.0
 40
1.0
100
AcDbArc
 50
270.0
 51
0.0
  0
ARC
  5
166
330
1F
100
AcDbEntity
  8
0
  6
HIDDEN
 62
     7
370
     0
100
AcDbCircle
 10
212.3328276747
 20
92.5779770306
 30
0.0
 40
1.000000000000014
100
AcDbArc
 50
0.0
 51
90.0
  0
ARC
  5
167
330
1F
100
AcDbEntity
  8
0
  6
HIDDEN
 62
     7
370
     0
100
AcDbCircle
 10
173.8328276747
 20
129.0779770306
 30
0.0
 40
1.0
100
AcDbArc
 50
90.0
 51
180.0
  0
ARC
  5
168
330
1F
100
AcDbEntity
  8
0
  6
HIDDEN
 62
     7
370
     0
100
AcDbCircle
 10
173.8328276747
 20
94.0779770306
 30
0.0
 40
1.0
100
AcDbArc
 50
180.0
 51
270.0
  0
LINE
  5
169
330
1F
100
AcDbEntity
  8
0
  6
HIDDEN
 62
     7
370
     0
100
AcDbLine
 10
175.7011751771
 20
130.0779770306
 30
0.0
 11
173.8328276747
 21
130.0779770306
 31
0.0
  0
LINE
  5
16A
330
1F
100
AcDbEntity
  8
0
  6
HIDDEN
 62
     7
370
     0
100
AcDbLine
 10
173.8328276747
 20
93.0779770306
 30
0.0
 11
175.7011751771
 21
93.0779770306
 31
0.0
  0
ARC
  5
16B
330
1F
100
AcDbEntity
  8
0
  6
HIDDEN
 62
     7
370
     0
100
AcDbCircle
 10
175.7011751771
 20
129.0779770306
 30
0.0
 40
1.000000000000016
100
AcDbArc
 50
75.0
 51
90.0
  0
ARC
  5
16C
330
1F
100
AcDbEntity
  8
0
  6
HIDDEN
 62
     7
370
     0
100
AcDbCircle
 10
175.7011751771
 20
94.0779770306
 30
0.0
 40
0.9999999999999883
100
AcDbArc
 50
270.0
 51
285.0
  0
LINE
  5
16D
330
1F
100
AcDbEntity
  8
0
  6
HIDDEN
 62
     7
370
     0
100
AcDbLine
 10
175.9599942222
 20
93.1120512043
 30
0.0
 11
177.6988530785
 21
93.5779770306
 31
0.0
  0
LINE
  5
16E
330
1F
100
AcDbEntity
  8
0
  6
HIDDEN
 62
     7
370
     0
100
AcDbLine
 10
177.6988530785
 20
129.5779770306
 30
0.0
 11
175.9599942222
 21
130.0439028569
 31
0.0
  0
LINE
  5
16F
330
1F
100
AcDbEntity
  8
0
  6
HIDDEN
 62
     7
370
     0
100
AcDbLine
 10
188.0328276747
 20
129.5779770306
 30
0.0
 11
177.6988530785
 21
129.5779770306
 31
0.0
  0
LINE
  5
170
330
1F
100
AcDbEntity
  8
0
  6
HIDDEN
 62
     7
370
     0
100
AcDbLine
 10
212.3328276747
 20
129.5779770306
 30
0.0
 11
202.5100354641
 21
129.5779770306
 31
0.0
  0
LINE
  5
171
330
1F
100
AcDbEntity
  8
0
  6
HIDDEN
 62
     7
370
     0
100
AcDbLine
 10
177.6988530785
 20
93.5779770306
 30
0.0
 11
212.3328276747
 21
93.5779770306
 31
0.0
  0
LINE
  5
172
330
1F
100
AcDbEntity
  8
0
  6
HIDDEN
 62
     7
370
     0
100
AcDbLine
 10
157.7328276747
 20
98.5779770306
 30
0.0
 11
159.0285145307
 21
98.5779770306
 31
0.0
  0
LINE
  5
173
330
1F
100
AcDbEntity
  8
0
  6
HIDDEN
 62
     7
370
     0
100
AcDbLine
 10
159.0285145307
 20
124.5779770306
 30
0.0
 11
157.7328276747
 21
124.5779770306
 31
0.0
  0
LINE
  5
174
330
1F
100
AcDbEntity
  8
0
  6
HIDDEN
 62
     7
370
     0
100
AcDbLine
 10
145.7828276747
 20
99.5779770306
 30
0.0
 11
146.5328276747
 21
100.3279770306
 31
0.0
  0
LINE
  5
175
330
1F
100
AcDbEntity
  8
0
  6
HIDDEN
 62
     7
370
     0
100
AcDbLine
 10
146.5328276747
 20
122.8279770306
 30
0.0
 11
145.7828276747
 21
123.5779770306
 31
0.0
  0
LINE
  5
176
330
1F
100
AcDbEntity
  8
0
  6
HIDDEN
 62
     7
370
     0
100
AcDbLine
 10
146.5328276747
 20
100.3279770306
 30
0.0
 11
157.7328276747
 21
100.3279770306
 31
0.0
  0
LINE
  5
177
330
1F
100
AcDbEntity
  8
0
  6
HIDDEN
 62
     7
370
     0
100
AcDbLine
 10
157.7328276747
 20
122.8279770306
 30
0.0
 11
146.5328276747
 21
122.8279770306
 31
0.0
  0
LINE
  5
178
330
1F
100
AcDbEntity
  8
0
  6
HIDDEN
 62
     7
370
     0
100
AcDbLine
 10
138.1828276747
 20
161.7279770306
 30
0.0
 11
138.1828276747
 21
155.4779770306
 31
0.0
  0
LINE
  5
179
330
1F
100
AcDbEntity
  8
0
  6
HIDDEN
 62
     7
370
     0
100
AcDbLine
 10
185.2828276747
 20
143.0779770306
 30
0.0
 11
188.0328276747
 21
140.3279770306
 31
0.0
  0
LINE
  5
17A
330
1F
100
AcDbEntity
  8
0
  6
HIDDEN
 62
     7
370
     0
100
AcDbLine
 10
202.5328276747
 20
140.3279770306
 30
0.0
 11
205.2828276747
 21
143.0779770306
 31
0.0
  0
LINE
  5
17B
330
1F
100
AcDbEntity
  8
0
  6
HIDDEN
 62
     7
370
     0
100
AcDbLine
 10
188.0328276747
 20
140.3279770306
 30
0.0
 11
188.0328276747
 21
129.5779770306
 31
0.0
  0
LINE
  5
17C
330
1F
100
AcDbEntity
  8
0
  6
HIDDEN
 62
     7
370
     0
100
AcDbLine
 10
202.5328276747
 20
129.5688161215
 30
0.0
 11
202.5328276747
 21
140.3279770306
 31
0.0
  0
LINE
  5
17D
330
1F
100
AcDbEntity
  8
0
  6
HIDDEN
 62
     7
370
     0
100
AcDbLine
 10
124.9957071308
 20
73.8431756146
 30
0.0
 11
124.4328345042
 21
74.4650386527
 31
0.0
  0
LINE
  5
17E
330
1F
100
AcDbEntity
  8
0
  6
HIDDEN
 62
     7
370
     0
100
AcDbLine
 10
112.4328301467
 20
75.1257643572
 30
0.0
 11
111.8076475179
 21
74.5039013412
 31
0.0
  0
LINE
  5
17F
330
1F
100
AcDbEntity
  8
0
  6
HIDDEN
 62
     7
370
     0
100
AcDbLine
 10
111.8074889964
 20
148.6520455526
 30
0.0
 11
112.432825317
 21
148.0301112261
 31
0.0
  0
LINE
  5
180
330
1F
100
AcDbEntity
  8
0
  6
HIDDEN
 62
     7
370
     0
100
AcDbLine
 10
124.4328276673
 20
148.6908502234
 30
0.0
 11
124.9958456832
 21
149.3127845434
 31
0.0
  0
LINE
  5
181
330
1F
100
AcDbEntity
  8
0
  6
HIDDEN
 62
     7
370
     0
100
AcDbLine
 10
124.4328276747
 20
143.0377350985
 30
0.0
 11
124.4328276747
 21
148.79088409
 31
0.0
  0
LINE
  5
182
330
1F
100
AcDbEntity
  8
0
  6
HIDDEN
 62
     7
370
     0
100
AcDbLine
 10
112.4328276747
 20
148.0300219593
 30
0.0
 11
112.4328276747
 21
143.0633697254
 31
0.0
  0
LINE
  5
183
330
1F
100
AcDbEntity
  8
0
  6
HIDDEN
 62
     7
370
     0
100
AcDbLine
 10
124.4328276747
 20
74.3649242361
 30
0.0
 11
124.4328276747
 21
80.1182189626
 31
0.0
  0
LINE
  5
184
330
1F
100
AcDbEntity
  8
0
  6
HIDDEN
 62
     7
370
     0
100
AcDbLine
 10
112.4328276747
 20
80.081433854
 30
0.0
 11
112.4328276747
 21
75.1258592526
 31
0.0
  0
LINE
  5
185
330
1F
100
AcDbEntity
  8
0
  6
HIDDEN
 62
     7
370
     0
100
AcDbLine
 10
159.0285145307
 20
105.5779770306
 30
0.0
 11
172.8328276747
 21
105.5779770306
 31
0.0
  0
LINE
  5
186
330
1F
100
AcDbEntity
  8
0
  6
HIDDEN
 62
     7
370
     0
100
AcDbLine
 10
172.8328276747
 20
117.5779770306
 30
0.0
 11
159.0285145307
 21
117.5779770306
 31
0.0
  0
DIMENSION
  5
187
330
1F
100
AcDbEntity
  8
VERMASSUNG
100
AcDbDimension
  2
_D
 10
73.3332086737
 20
61.4279770306
 30
0.0
 11
73.3332086737
 21
111.5779770306
 31
0.0
 70
   160
  1
HSK A %%c<>
 71
     2
 42
-1.0
  3
SLDDIMSTYLE0
100
AcDbAlignedDimension
 13
133.8328276747
 23
161.7279770306
 33
0.0
 14
133.8328276747
 24
61.4279770306
 34
0.0
 50
90.0
100
AcDbRotatedDimension
  0
DIMENSION
  5
194
330
1F
100
AcDbEntity
  8
VERMASSUNG
100
AcDbDimension
  2
_D_1
 10
220.4776165999
 20
93.5779770306
 30
0.0
 11
220.4776165999
 21
111.5779770306
 31
0.0
 70
   160
  1
%%c<>
 71
     2
 42
-1.0
  3
SLDDIMSTYLE1
100
AcDbAlignedDimension
 13
212.3328276747
 23
129.5779770306
 33
0.0
 14
212.3328276747
 24
93.5779770306
 34
0.0
 50
90.0
100
AcDbRotatedDimension
  0
DIMENSION
  5
1A0
330
1F
100
AcDbEntity
  8
VERMASSUNG
100
AcDbDimension
  2
_D_2
 10
226.3776165999
 20
80.0779770306
 30
0.0
 11
226.3776165999
 21
111.5779770306
 31
0.0
 70
   160
  1
WH%%c<>
 71
     2
 42
-1.0
  3
SLDDIMSTYLE1
100
AcDbAlignedDimension
 13
212.7328276747
 23
143.0779770306
 33
0.0
 14
212.7328276747
 24
80.0779770306
 34
0.0
 50
90.0
100
AcDbRotatedDimension
  0
DIMENSION
  5
1AC
330
1F
100
AcDbEntity
  8
VERMASSUNG
100
AcDbDimension
  2
_D_3
 10
162.2828276747
 20
165.6972670688
 30
0.0
 11
187.8078276747
 21
165.6972670688
 31
0.0
 70
   160
  1
<>
 71
     2
 42
-1.0
  3
SLDDIMSTYLE1
100
AcDbAlignedDimension
 13
213.3328276747
 23
142.4779770306
 33
0.0
 14
162.2828276747
 24
159.6999314797
 34
0.0
100
AcDbRotatedDimension
  0
DIMENSION
  5
1B6
330
1F
100
AcDbEntity
  8
VERMASSUNG
100
AcDbDimension
  2
_D_4
 10
133.3328276747
 20
171.6972670688
 30
0.0
 11
173.3328276747
 21
171.6972670688
 31
0.0
 70
   160
  1
<>
 71
     2
 42
-1.0
  3
SLDDIMSTYLE1
100
AcDbAlignedDimension
 13
213.3328276747
 23
142.4779770306
 33
0.0
 14
133.3328276747
 24
161.2279770306
 34
0.0
100
AcDbRotatedDimension
  0
DIMENSION
  5
1C0
330
1F
100
AcDbEntity
  8
VERMASSUNG
100
AcDbDimension
  2
_D_5
 10
83.5328276747
 20
177.6972670688
 30
0.0
 11
148.4328276747
 21
177.6972670688
 31
0.0
 70
   160
  1
<>
 71
     2
 42
-1.0
  3
SLDDIMSTYLE1
100
AcDbAlignedDimension
 13
213.3328276747
 23
142.4779770306
 33
0.0
 14
83.5328276747
 24
142.1321293276
 34
0.0
100
AcDbRotatedDimension
  0
LINE
  5
1CA
330
1F
100
AcDbEntity
  8
VERMASSUNG
  6
CENTERX2
370
     0
100
AcDbLine
 10
80.6964726661
 20
111.5779770306
 30
0.0
 11
214.5856602215
 21
111.5779770306
 31
0.0
  0
LINE
  5
1CB
330
1F
100
AcDbEntity
  8
0
  6
Continuous
 62
     7
370
    15
100
AcDbLine
 10
272.0054763897
 20
42.6843537402
 30
0.0
 11
271.91707368
 21
42.7354041271
 31
0.0
  0
LINE
  5
1CC
330
1F
100
AcDbEntity
  8
0
  6
Continuous
 62
     7
370
    15
100
AcDbLine
 10
266.9665219346
 20
42.7354041271
 30
0.0
 11
266.8781192248
 21
42.6843537402
 31
0.0
  0
LINE
  5
1CD
330
1F
100
AcDbEntity
  8
0
  6
Continuous
 62
     7
370
    15
100
AcDbLine
 10
273.5987243476
 20
28.7947848111
 30
0.0
 11
276.9259556051
 21
29.4726832627
 31
0.0
  0
LINE
  5
1CE
330
1F
100
AcDbEntity
  8
0
  6
Continuous
 62
     7
370
    15
100
AcDbLine
 10
275.6131145377
 20
13.1480948708
 30
0.0
 11
275.8252120947
 21
13.270575991
 31
0.0
  0
LINE
  5
1CF
330
1F
100
AcDbEntity
  8
0
  6
Continuous
 62
     7
370
    15
100
AcDbLine
 10
286.7482362768
 20
32.1918590071
 30
0.0
 11
286.7482362768
 21
32.4367814407
 31
0.0
  0
LINE
  5
1D0
330
1F
100
AcDbEntity
  8
0
  6
Continuous
 62
     7
370
    15
100
AcDbLine
 10
283.4856644926
 20
39.6478371426
 30
0.0
 11
266.709556109
 21
49.3324783691
 31
0.0
  0
LINE
  5
1D1
330
1F
100
AcDbEntity
  8
0
  6
Continuous
 62
     7
370
    15
100
AcDbLine
 10
250.96083607
 20
22.0519392041
 30
0.0
 11
267.7369444536
 21
12.3672979776
 31
0.0
  0
SPLINE
  5
1D2
330
1F
100
AcDbEntity
  8
0
  6
Continuous
 62
     7
370
    15
100
AcDbSpline
210
0.0
220
0.0
230
1.0
 70
     8
 71
     3
 72
    27
 73
    23
 74
     0
 42
0.000000001
 43
0.00000001
 40
0.0
 40
0.0
 40
0.0
 40
0.0
 40
0.0349090375243828
 40
0.089796433195507
 40
0.1438330725708854
 40
0.196657117274887
 40
0.248625230817485
 40
0.3001675737298983
 40
0.3515654153578575
 40
0.4029473720975849
 40
0.4543770228365945
 40
0.5058816800189191
 40
0.5574598753990226
 40
0.6090966843318705
 40
0.6607713900185856
 40
0.7124609750986487
 40
0.7641383272595916
 40
0.8157742990171634
 40
0.8673446430407679
 40
0.9188264863549009
 40
0.9702016088908112
 40
1.0
 40
1.0
 40
1.0
 40
1.0
 10
271.0001954263264
 20
18.29545549829883
 30
0.0
 10
270.8877706603174
 20
18.35813272246184
 30
0.0
 10
270.5985807053267
 20
18.51935719530791
 30
0.0
 10
270.2125097660301
 20
18.91179719005805
 30
0.0
 10
269.8402320523728
 20
19.45437559041079
 30
0.0
 10
269.5558066912651
 20
20.10350830810821
 30
0.0
 10
269.3597312378583
 20
20.8407882846164
 30
0.0
 10
269.2550499882287
 20
21.65729105645336
 30
0.0
 10
269.2433533289898
 20
22.54166568339529
 30
0.0
 10
269.325767577105
 20
23.48142163969055
 30
0.0
 10
269.5020085224888
 20
24.46240639729717
 30
0.0
 10
269.7702534390575
 20
25.46952763450371
 30
0.0
 10
270.1270462038673
 20
26.48703588452604
 30
0.0
 10
270.5673131736147
 20
27.49885778035159
 30
0.0
 10
271.0844562110928
 20
28.48896985260224
 30
0.0
 10
271.6704644245111
 20
29.44167700370717
 30
0.0
 10
272.3160420453915
 20
30.34195105242652
 30
0.0
 10
273.010744081951
 20
31.17548960673115
 30
0.0
 10
273.7432281063839
 20
31.92989039529596
 30
0.0
 10
274.5011371064646
 20
32.59156235738092
 30
0.0
 10
275.1649749874388
 20
33.07949030213904
 30
0.0
 10
275.5708632483207
 20
33.32368061114717
 30
0.0
 10
275.7198628000374
 20
33.4133216529864
 30
0.0
  0
SPLINE
  5
1D3
330
1F
100
AcDbEntity
  8
0
  6
Continuous
 62
     7
370
    15
100
AcDbSpline
210
0.0
220
0.0
230
1.0
 70
     8
 71
     3
 72
    14
 73
    10
 74
     0
 42
0.000000001
 43
0.00000001
 40
0.0
 40
0.0
 40
0.0
 40
0.0
 40
0.0808004100689794
 40
0.2349419104911019
 40
0.3890312634019311
 40
0.5434261022763428
 40
0.6989515367606137
 40
0.8568707977976111
 40
1.0
 40
1.0
 40
1.0
 40
1.0
 10
275.7198628000374
 20
33.4133216529864
 30
0.0
 10
275.8535633351588
 20
33.4875501111621
 30
0.0
 10
276.242321995273
 20
33.7033828744082
 30
0.0
 10
276.8770234780885
 20
33.97469372362941
 30
0.0
 10
277.6044349878347
 20
34.18502524013954
 30
0.0
 10
278.2936868082555
 20
34.27668351552982
 30
0.0
 10
278.9344281965633
 20
34.24958036969192
 30
0.0
 10
279.5063847236115
 20
34.12272503107797
 30
0.0
 10
279.8314177642101
 20
33.94895768547812
 30
0.0
 10
279.9859500919612
 20
33.86634247702659
 30
0.0
  0
LINE
  5
1D4
330
1F
100
AcDbEntity
  8
0
  6
Continuous
 62
     7
370
    15
100
AcDbLine
 10
235.1794608449
 20
20.3950423416
 30
0.0
 11
240.9510691627
 21
17.0631637808
 31
0.0
  0
LINE
  5
1D5
330
1F
100
AcDbEntity
  8
0
  6
Continuous
 62
     7
370
    15
100
AcDbLine
 10
262.392819539
 20
62.591768207
 30
0.0
 11
260.2524230657
 21
63.82739279
 31
0.0
  0
SPLINE
  5
1D6
330
1F
100
AcDbEntity
  8
0
  6
Continuous
 62
     7
370
    15
100
AcDbSpline
210
0.0
220
0.0
230
1.0
 70
     8
 71
     3
 72
    12
 73
     8
 74
     0
 42
0.000000001
 43
0.00000001
 40
0.0
 40
0.0
 40
0.0
 40
0.0
 40
0.0406976617745957
 40
0.2822975656584478
 40
0.5239487181310623
 40
0.7656543538774016
 40
0.9999999999999999
 40
0.9999999999999999
 40
0.9999999999999999
 40
0.9999999999999999
 10
230.7547569032277
 20
38.67278400020745
 30
0.0
 10
230.73019561315
 20
38.57794566960818
 30
0.0
 10
230.5598272898597
 20
37.92010370297223
 30
0.0
 10
230.333566040675
 20
36.71689929339995
 30
0.0
 10
230.0863110562454
 20
35.07701085110796
 30
0.0
 10
229.9394755650062
 20
33.48943835543183
 30
0.0
 10
229.9210744330177
 20
32.47629279220468
 30
0.0
 10
229.9120161123504
 20
31.97755187778346
 30
0.0
  0
SPLINE
  5
1D7
330
1F
100
AcDbEntity
  8
0
  6
Continuous
 62
     7
370
    15
100
AcDbSpline
210
0.0
220
0.0
230
1.0
 70
     8
 71
     3
 72
    17
 73
    13
 74
     0
 42
0.000000001
 43
0.00000001
 40
0.0
 40
0.0
 40
0.0
 40
0.0
 40
0.0962657492466499
 40
0.2072539214920404
 40
0.3182738177907314
 40
0.42930082516139
 40
0.5403187744795775
 40
0.6513210107140042
 40
0.7623047365828692
 40
0.8732696930258045
 40
0.9842172253652669
 40
1.0
 40
1.0
 40
1.0
 40
1.0
 10
251.2401292822171
 20
64.26080855948678
 30
0.0
 10
250.8637518679758
 20
64.12897222414377
 30
0.0
 10
250.0534356789575
 20
63.84513713524867
 30
0.0
 10
248.7923431299342
 20
63.26208140507502
 30
0.0
 10
247.4692613394664
 20
62.54710961515898
 30
0.0
 10
246.1474793594629
 20
61.71598545956101
 30
0.0
 10
244.8347810047586
 20
60.77769034442454
 30
0.0
 10
243.5386073086785
 20
59.73578557690597
 30
0.0
 10
242.2645658875482
 20
58.59882385745451
 30
0.0
 10
241.0251890471296
 20
57.36398834127922
 30
0.0
 10
240.1547459101857
 20
56.44131352691076
 30
0.0
 10
239.7135002185893
 20
55.9110024883754
 30
0.0
 10
239.6585482384727
 20
55.84495846301674
 30
0.0
  0
SPLINE
  5
1D8
330
1F
100
AcDbEntity
  8
0
  6
Continuous
 62
     7
370
    15
100
AcDbSpline
210
0.0
220
0.0
230
1.0
 70
     8
 71
     3
 72
    11
 73
     7
 74
     0
 42
0.000000001
 43
0.00000001
 40
0.0
 40
0.0
 40
0.0
 40
0.0
 40
0.1840264740910112
 40
0.5336463587031178
 40
0.8833592251461089
 40
0.9999999999999999
 40
0.9999999999999999
 40
0.9999999999999999
 40
0.9999999999999999
 10
229.9120161123504
 20
31.97755187778346
 30
0.0
 10
229.9146351855713
 20
31.71094642087478
 30
0.0
 10
229.9222300650276
 20
30.9378346607737
 30
0.0
 10
230.0157108610144
 20
29.70740756417345
 30
0.0
 10
230.1545864889019
 20
28.60529952895131
 30
0.0
 10
230.2914877769568
 20
28.02080827064609
 30
0.0
 10
230.3257284709348
 20
27.87461982645498
 30
0.0
  0
LINE
  5
1D9
330
1F
100
AcDbEntity
  8
0
  6
Continuous
 62
     7
370
    15
100
AcDbLine
 10
248.436773095
 20
63.0521500397
 30
0.0
 11
239.2190693026
 21
67.6446643003
 31
0.0
  0
LINE
  5
1DA
330
1F
100
AcDbEntity
  8
0
  6
Continuous
 62
     7
370
    15
100
AcDbLine
 10
221.355399724
 20
36.7005281189
 30
0.0
 11
229.9369492809
 21
31.0181824254
 31
0.0
  0
SPLINE
  5
1DB
330
1F
100
AcDbEntity
  8
0
  6
Continuous
 62
     7
370
    15
100
AcDbSpline
210
0.0
220
0.0
230
1.0
 70
     8
 71
     3
 72
    17
 73
    13
 74
     0
 42
0.000000001
 43
0.00000001
 40
0.0
 40
0.0
 40
0.0
 40
0.0
 40
0.0638882531026665
 40
0.1754946358481724
 40
0.2875340629809188
 40
0.3999702726800236
 40
0.5127239186835055
 40
0.6257021732946257
 40
0.7388195919701698
 40
0.8520082082500086
 40
0.9652169584231656
 40
1.0
 40
1.0
 40
1.0
 40
1.0
 10
248.1364759203098
 20
13.69740190669408
 30
0.0
 10
248.3529731434615
 20
13.66382434746269
 30
0.0
 10
248.9476693433729
 20
13.57159015347852
 30
0.0
 10
249.9723444639116
 20
13.56151090716209
 30
0.0
 10
251.1990609925584
 20
13.65498127373663
 30
0.0
 10
252.4629706181611
 20
13.8813612184452
 30
0.0
 10
253.7541320252205
 20
14.2320016997604
 30
0.0
 10
255.065733554748
 20
14.70772403467099
 30
0.0
 10
256.3902732443664
 20
15.30257076662428
 30
0.0
 10
257.7190452308752
 20
16.02295689161975
 30
0.0
 10
258.7418113475629
 20
16.64196565393214
 30
0.0
 10
259.31495411627
 20
17.05448779451891
 30
0.0
 10
259.4496619167342
 20
17.15144435270178
 30
0.0
  0
LINE
  5
1DC
330
1F
100
AcDbEntity
  8
0
  6
Continuous
 62
     7
370
    15
100
AcDbLine
 10
243.1964347602
 20
15.7669418121
 30
0.0
 11
244.8845014167
 21
14.7924416742
 31
0.0
  0
SPLINE
  5
1DD
330
1F
100
AcDbEntity
  8
0
  6
Continuous
 62
     7
370
    15
100
AcDbSpline
210
0.0
220
0.0
230
1.0
 70
     8
 71
     3
 72
    15
 73
    11
 74
     0
 42
0.000000001
 43
0.00000001
 40
0.0
 40
0.0
 40
0.0
 40
0.0
 40
0.0817146124295178
 40
0.236427982951957
 40
0.391013331837673
 40
0.5452667927362638
 40
0.6990497441638768
 40
0.8522478580073731
 40
0.9961676938516482
 40
1.0
 40
1.0
 40
1.0
 40
1.0
 10
274.9502438755293
 20
50.3826773227756
 30
0.0
 10
274.901228588329
 20
50.62032944717218
 30
0.0
 10
274.7594108014972
 20
51.30793733938115
 30
0.0
 10
274.4495024621432
 20
52.38542979165216
 30
0.0
 10
273.9903001492101
 20
53.58065242815653
 30
0.0
 10
273.4356956442941
 20
54.67985271936826
 30
0.0
 10
272.7916242998987
 20
55.67832655151028
 30
0.0
 10
272.0731024938611
 20
56.54903483330934
 30
0.0
 10
271.5448383953209
 20
57.06750018642811
 30
0.0
 10
271.2685603502002
 20
57.29723077099875
 30
0.0
 10
271.2613944165176
 20
57.30318938465971
 30
0.0
  0
SPLINE
  5
1DE
330
1F
100
AcDbEntity
  8
0
  6
Continuous
 62
     7
370
    15
100
AcDbSpline
210
0.0
220
0.0
230
1.0
 70
     8
 71
     3
 72
    28
 73
    24
 74
     0
 42
0.000000001
 43
0.00000001
 40
0.0
 40
0.0
 40
0.0
 40
0.0
 40
0.0388536059619879
 40
0.0862385210326458
 40
0.1338996648639374
 40
0.1820289712551113
 40
0.2307027948625273
 40
0.2798851959597493
 40
0.3294650640116185
 40
0.3793059158845322
 40
0.4292850885446701
 40
0.4793092216554911
 40
0.529311760106614
 40
0.5792694594917983
 40
0.6291747786256222
 40
0.6790297198915676
 40
0.7288417231027382
 40
0.7786211609354969
 40
0.8283799153615679
 40
0.8781306256573468
 40
0.9278862694877061
 40
0.9776557678615609
 40
1.0
 40
1.0
 40
1.0
 40
1.0
 10
239.1332281185835
 20
67.67540401353368
 30
0.0
 10
238.8947493023104
 20
67.78479388292733
 30
0.0
 10
238.365427508263
 20
68.02759298275073
 30
0.0
 10
237.474962071285
 20
68.254572138369
 30
0.0
 10
236.4852678416792
 20
68.38319996628938
 30
0.0
 10
235.4496275607551
 20
68.38131275607287
 30
0.0
 10
234.3764137537274
 20
68.25258416689317
 30
0.0
 10
233.2724591022045
 20
67.9955519464865
 30
0.0
 10
232.1467859145194
 20
67.61175031480644
 30
0.0
 10
231.0090200132993
 20
67.10401629832656
 30
0.0
 10
229.8690250874032
 20
66.47692348808943
 30
0.0
 10
228.7364085985708
 20
65.73632219437897
 30
0.0
 10
227.6202217333909
 20
64.88896940512177
 30
0.0
 10
226.5289486174255
 20
63.9422424017977
 30
0.0
 10
225.4705571820813
 20
62.90395096470134
 30
0.0
 10
224.4526853128766
 20
61.78239517648621
 30
0.0
 10
223.4827107837134
 20
60.58633571616985
 30
0.0
 10
222.5675442089029
 20
59.3249836198327
 30
0.0
 10
221.7143252956284
 20
58.00788810902819
 30
0.0
 10
220.9276715018679
 20
56.6451491902256
 30
0.0
 10
220.2197759398586
 20
55.246401950136
 30
0.0
 10
219.6915535691109
 20
54.08583805317387
 30
0.0
 10
219.4327256798393
 20
53.39193700327503
 30
0.0
 10
219.3525286022411
 20
53.17693375729259
 30
0.0
  0
LINE
  5
1DF
330
1F
100
AcDbEntity
  8
0
  6
Continuous
 62
     7
370
    15
100
AcDbLine
 10
219.6189123486
 20
50.420495841
 30
0.0
 11
223.3789325473
 21
48.249882383
 31
0.0
  0
LINE
  5
1E0
330
1F
100
AcDbEntity
  8
0
  6
Continuous
 62
     7
370
    15
100
AcDbLine
 10
219.1134726563
 20
52.20305779
 30
0.0
 11
219.1134726563
 21
51.5376371687
 31
0.0
  0
LINE
  5
1E1
330
1F
100
AcDbEntity
  8
0
  6
Continuous
 62
     7
370
    15
100
AcDbLine
 10
219.1134726563
 20
40.0440616349
 30
0.0
 11
219.1134726563
 21
39.3793444798
 31
0.0
  0
SPLINE
  5
1E2
330
1F
100
AcDbEntity
  8
0
  6
Continuous
 62
     7
370
    15
100
AcDbSpline
210
0.0
220
0.0
230
1.0
 70
     8
 71
     3
 72
    11
 73
     7
 74
     0
 42
0.000000001
 43
0.00000001
 40
0.0
 40
0.0
 40
0.0
 40
0.0
 40
0.2759901251831847
 40
0.5930962546875628
 40
0.9064410857339982
 40
1.0
 40
1.0
 40
1.0
 40
1.0
 10
219.2370348436034
 20
38.92867716329553
 30
0.0
 10
219.3996244345414
 20
38.67751839039186
 30
0.0
 10
219.7490256218935
 20
38.13778412474659
 30
0.0
 10
220.4027113986099
 20
37.44398886792842
 30
0.0
 10
220.9683478641766
 20
36.94201945817551
 30
0.0
 10
221.3301672973174
 20
36.72902218446755
 30
0.0
 10
221.4133600270845
 20
36.68004796415303
 30
0.0
  0
LWPOLYLINE
  5
1E3
330
1F
100
AcDbEntity
  8
0
  6
Continuous
 62
     7
370
    15
100
AcDbPolyline
 90
       21
 70
   128
 43
0.0
 10
272.9244108419
 20
41.1057752876
 10
272.9178923561
 20
41.5426695475
 10
272.7488355526
 20
41.9685405197
 10
272.4251453396
 20
42.3634749507
 10
271.9619571118
 20
42.7090061456
 10
271.3809290358
 20
42.9889774498
 10
270.7092293388
 20
43.1902977161
 10
269.978265952
 20
43.3035534327
 10
269.222217911
 20
43.3234488881
 10
268.476437182
 20
43.2490537931
 10
267.7757956428
 20
43.0838467795
 10
267.1530545132
 20
42.8355527436
 10
266.6373324763
 20
42.5157816387
 10
266.2527441213
 20
42.1394856062
 10
266.0172723723
 20
41.7242598303
 10
265.9419276266
 20
41.2895198069
 10
266.0302329206
 20
40.8555934962
 10
266.2780591971
 20
40.4427708103
 10
266.6738183748
 20
40.0703548792
 10
267.1990051943
 20
39.7557594579
 10
267.5073793706
 20
39.6230593287
  0
ARC
  5
1E4
330
1F
100
AcDbEntity
  8
0
  6
Continuous
 62
     7
370
    15
100
AcDbCircle
 10
271.1532495992
 20
41.5465674688
 30
0.0
 40
1.825187632740601
100
AcDbArc
 50
298.293217308
 51
346.0246084611
  0
LWPOLYLINE
  5
1E5
330
1F
100
AcDbEntity
  8
0
  6
Continuous
 62
     7
370
    15
100
AcDbPolyline
 90
       25
 70
   128
 43
0.0
 10
271.780123702
 20
41.1718663893
 10
271.7609975672
 20
41.5258447157
 10
271.5838218015
 20
41.864903829
 10
271.2606706404
 20
42.1659374109
 10
270.8135663016
 20
42.4084305201
 10
270.2729782068
 20
42.5758576522
 10
269.6757465414
 20
42.6568089246
 10
269.0625716564
 20
42.6457676421
 10
268.4752404069
 20
42.5434862496
 10
267.9537784469
 20
42.3569350552
 10
267.5337225472
 20
42.0988272144
 10
267.2436988233
 20
41.78675235
 10
267.1034719126
 20
41.4419778483
 10
267.1225980473
 20
41.0879995218
 10
267.299773813
 20
40.7489404085
 10
267.6229249741
 20
40.4479068267
 10
268.0700293129
 20
40.2054137174
 10
268.6106174077
 20
40.0379865854
 10
269.2078490731
 20
39.9570353129
 10
269.8210239581
 20
39.9680765955
 10
270.4083552076
 20
40.0703579879
 10
270.9298171676
 20
40.2569091823
 10
271.3498730673
 20
40.5150170232
 10
271.6398967912
 20
40.8270918876
 10
271.780123702
 20
41.1718663893
  0
SPLINE
  5
1E6
330
1F
100
AcDbEntity
  8
0
  6
Continuous
 62
     7
370
    15
100
AcDbSpline
210
0.0
220
0.0
230
1.0
 70
     8
 71
     3
 72
    11
 73
     7
 74
     0
 42
0.000000001
 43
0.00000001
 40
0.0
 40
0.0
 40
0.0
 40
0.0
 40
0.2164567244934035
 40
0.4403141600939102
 40
0.751902844479858
 40
1.0
 40
1.0
 40
1.0
 40
1.0
 10
271.5468159003212
 20
41.8221133824982
 30
0.0
 10
271.4183681593439
 20
41.81627325358277
 30
0.0
 10
271.157081016074
 20
41.80439332024159
 30
0.0
 10
270.6722032603597
 20
41.90534456564317
 30
0.0
 10
270.1520880464916
 20
42.1816739747935
 30
0.0
 10
269.8192465578799
 20
42.47175188120002
 30
0.0
 10
269.6717048109285
 20
42.60033741674039
 30
0.0
  0
SPLINE
  5
1E7
330
1F
100
AcDbEntity
  8
0
  6
Continuous
 62
     7
370
    15
100
AcDbSpline
210
0.0
220
0.0
230
1.0
 70
     8
 71
     3
 72
    11
 73
     7
 74
     0
 42
0.000000001
 43
0.00000001
 40
0.0
 40
0.0
 40
0.0
 40
0.0
 40
0.2164567244934148
 40
0.4403141600939152
 40
0.751902844479866
 40
1.0
 40
1.0
 40
1.0
 40
1.0
 10
269.6717048109285
 20
42.60033741674039
 30
0.0
 10
269.5275081175702
 20
42.50362565691048
 30
0.0
 10
269.2341846088044
 20
42.30689553729709
 30
0.0
 10
268.6898560863644
 20
42.06481519552853
 30
0.0
 10
268.1059696479231
 20
41.97318392753515
 30
0.0
 10
267.7323185295379
 20
42.02778981492443
 30
0.0
 10
267.5666867178704
 20
42.05199547526095
 30
0.0
  0
SPLINE
  5
1E8
330
1F
100
AcDbEntity
  8
0
  6
Continuous
 62
     7
370
    15
100
AcDbSpline
210
0.0
220
0.0
230
1.0
 70
     8
 71
     3
 72
    11
 73
     7
 74
     0
 42
0.000000001
 43
0.00000001
 40
0.0
 40
0.0
 40
0.0
 40
0.0
 40
0.184513355851909
 40
0.5180565039163828
 40
0.867612283048501
 40
1.0
 40
1.0
 40
1.0
 40
1.0
 10
267.5666867178704
 20
42.05199547526095
 30
0.0
 10
267.5533348533428
 20
41.92410839233256
 30
0.0
 10
267.5158469423678
 20
41.565040969966
 30
0.0
 10
267.4459704812331
 20
41.05581670083568
 30
0.0
 10
267.3810414338854
 20
40.80900805675588
 30
0.0
 10
267.3463180672831
 20
40.74344058890165
 30
0.0
 10
267.336779714205
 20
40.72542949953941
 30
0.0
  0
SPLINE
  5
1E9
330
1F
100
AcDbEntity
  8
0
  6
Continuous
 62
     7
370
    15
100
AcDbSpline
210
0.0
220
0.0
230
1.0
 70
     8
 71
     3
 72
     9
 73
     5
 74
     0
 42
0.000000001
 43
0.00000001
 40
0.0
 40
0.0
 40
0.0
 40
0.0
 40
0.7525985403167949
 40
1.0
 40
1.0
 40
1.0
 40
1.0
 10
267.336779714205
 20
40.72542949953941
 30
0.0
 10
267.4640435317959
 20
40.60843758208078
 30
0.0
 10
267.6331427404356
 20
40.45298695177611
 30
0.0
 10
267.8181797724117
 20
40.34381309638422
 30
0.0
 10
267.8639582042181
 20
40.31680332520101
 30
0.0
  0
LINE
  5
1EA
330
1F
100
AcDbEntity
  8
0
  6
Continuous
 62
     7
370
    15
100
AcDbLine
 10
270.9537928532
 20
40.2711473087
 30
0.0
 11
271.3169088967
 21
40.4955474068
 31
0.0
  0
SPLINE
  5
1EB
330
1F
100
AcDbEntity
  8
0
  6
Continuous
 62
     7
370
    15
100
AcDbSpline
210
0.0
220
0.0
230
1.0
 70
     8
 71
     3
 72
    11
 73
     7
 74
     0
 42
0.000000001
 43
0.00000001
 40
0.0
 40
0.0
 40
0.0
 40
0.0
 40
0.132387716951496
 40
0.4819434960836124
 40
0.8154866441480849
 40
1.0
 40
1.0
 40
1.0
 40
1.0
 10
271.3169088966558
 20
40.49554740677664
 30
0.0
 10
271.3264472497339
 20
40.51355849613889
 30
0.0
 10
271.3611706163363
 20
40.57912596399315
 30
0.0
 10
271.426099663684
 20
40.82593460807292
 30
0.0
 10
271.4959761248186
 20
41.33515887720326
 30
0.0
 10
271.5334640357937
 20
41.69422629956981
 30
0.0
 10
271.5468159003212
 20
41.8221133824982
 30
0.0
  0
LINE
  5
1EC
330
1F
100
AcDbEntity
  8
0
  6
Continuous
 62
     7
370
    15
100
AcDbLine
 10
267.5666867179
 20
40.534380292
 30
0.0
 11
267.5666867179
 21
42.0519954753
 31
0.0
  0
LINE
  5
1ED
330
1F
100
AcDbEntity
  8
0
  6
Continuous
 62
     7
370
    15
100
AcDbLine
 10
269.6717048109
 20
39.9568039092
 30
0.0
 11
269.6717048109
 21
42.6003374167
 31
0.0
  0
LWPOLYLINE
  5
1EE
330
1F
100
AcDbEntity
  8
0
  6
Continuous
 62
     7
370
    15
100
AcDbPolyline
 90
        7
 70
   128
 43
0.0
 10
274.021864016
 20
28.9965795386
 10
273.677354584
 20
28.8140872531
 10
273.2638193116
 20
28.7777309327
 10
272.8052913656
 20
28.8896234746
 10
272.3284187236
 20
29.143262091
 10
271.8609154901
 20
29.5239062275
 10
271.7943378115
 20
29.5896258875
  0
LINE
  5
1EF
330
1F
100
AcDbEntity
  8
0
  6
Continuous
 62
     7
370
    15
100
AcDbLine
 10
277.8464812188
 20
29.8253729637
 30
0.0
 11
277.6571487871
 21
29.6930920747
 31
0.0
  0
LWPOLYLINE
  5
1F0
330
1F
100
AcDbEntity
  8
0
  6
Continuous
 62
     7
370
    15
100
AcDbPolyline
 90
        8
 70
   128
 43
0.0
 10
278.1337216776
 20
33.3056993839
 10
278.1497009995
 20
33.2625632343
 10
278.3626771744
 20
32.5484519446
 10
278.4716876568
 20
31.8577378648
 10
278.4725432349
 20
31.2169647495
 10
278.3652110294
 20
30.6507571504
 10
278.1538157568
 20
30.1808741078
 10
277.8464812188
 20
29.8253729637
  0
LWPOLYLINE
  5
1F1
330
1F
100
AcDbEntity
  8
0
  6
Continuous
 62
     7
370
    15
100
AcDbPolyline
 90
       64
 70
   128
 43
0.0
 10
275.8234365075
 20
38.5006618869
 10
274.7356777199
 20
37.8100225758
 10
273.658729568
 20
37.0008680897
 10
272.6032952461
 20
36.0812401693
 10
271.5798641347
 20
35.0602784902
 10
270.5986075521
 20
33.9481298281
 10
269.6692776671
 20
32.7558472162
 10
268.8011105774
 20
31.4952800947
 10
268.0027345178
 20
30.178956546
 10
267.2820841081
 20
28.8199587848
 10
266.646321496
 20
27.4317931416
 10
266.1017651758
 20
26.0282558301
 10
265.653827193
 20
24.6232958346
 10
265.3069593564
 20
23.2308762789
 10
265.0646089945
 20
21.864835654
 10
264.929184694
 20
20.5387502855
 10
264.9020323625
 20
19.2657994054
 10
264.9834218521
 20
18.0586341714
 10
265.1725442774
 20
16.9292519342
 10
265.4675200547
 20
15.8888770016
 10
265.8654175824
 20
14.9478490872
 10
266.362282376
 20
14.1155205492
 10
266.9531763699
 20
13.4001634426
 10
267.6322269942
 20
12.8088873076
 10
268.3926855388
 20
12.3475685121
 10
269.2269942248
 20
12.0207918495
 10
270.1268613179
 20
11.8318049733
 10
271.0833435344
 20
11.7824861197
 10
272.0869349246
 20
11.8733254418
 10
273.1276613461
 20
12.1034201376
 10
274.1951795923
 20
12.4704834226
 10
275.2788801873
 20
12.9708672569
 10
276.3679928276
 20
13.5995986013
 10
277.4516934226
 20
14.350428841
 10
278.5192116688
 20
15.215895888
 10
279.5599380904
 20
16.1873983418
 10
280.5635294805
 20
17.2552809747
 10
281.5200116971
 20
18.4089306891
 10
282.4198787901
 20
19.6368819961
 10
283.2541874762
 20
20.9269309637
 10
284.0146460207
 20
22.2662565058
 10
284.693696645
 20
23.6415478034
 10
285.284590639
 20
25.0391365938
 10
285.7814554326
 20
26.4451330115
 10
286.1793529602
 20
27.8455636327
 10
286.4743287376
 20
29.2265103486
 10
286.6634511629
 20
30.5742486902
 10
286.7448406524
 20
31.8753842285
 10
286.7176883209
 20
33.116985694
 10
286.5822640204
 20
34.2867134934
 10
286.3399136585
 20
35.3729423463
 10
285.9930458219
 20
36.3648768225
 10
285.5451078391
 20
37.2526586314
 10
285.0005515189
 20
38.0274645986
 10
284.3647889068
 20
38.6815943543
 10
283.6441384971
 20
39.208546863
 10
282.8457624375
 20
39.603085034
 10
281.9775953479
 20
39.8612877698
 10
281.0482654628
 20
39.9805889354
 10
280.0670088802
 20
39.9598028624
 10
279.0435777689
 20
39.7991361321
 10
277.988143447
 20
39.5001855226
 10
276.911195295
 20
39.0659221393
 10
275.8234365075
 20
38.5006618869
  0
LWPOLYLINE
  5
1F2
330
1F
100
AcDbEntity
  8
0
  6
Continuous
 62
     7
370
    15
100
AcDbPolyline
 90
       33
 70
   128
 43
0.0
 10
275.6113044731
 20
38.8680853473
 10
274.5024241557
 20
38.1640355641
 10
273.4045643891
 20
37.3391693403
 10
272.3286361969
 20
36.4016845672
 10
271.2853326368
 20
35.3608983894
 10
270.2850225284
 20
34.2271546077
 10
269.3376474028
 20
33.0117208771
 10
268.4526226998
 20
31.7266767241
 10
267.6387441924
 20
30.3847934948
 10
266.9041005709
 20
28.9994074276
 10
266.2559930537
 20
27.5842871117
 10
265.7008628244
 20
26.1534966485
 10
265.2442270166
 20
24.7212558765
 10
264.8906238823
 20
23.3017990478
 10
264.6435676881
 20
21.9092333623
 10
264.5055137895
 20
20.5573987633
 10
264.4778342283
 20
19.2597303903
 10
264.5608040963
 20
18.0291250548
 10
264.7535988016
 20
16.8778130653
 10
265.054302264
 20
15.8172366778
 10
265.4599259573
 20
14.8579363767
 10
265.9664386109
 20
14.0094461195
 10
266.5688062746
 20
13.2801985836
 10
267.261042348
 20
12.6774413586
 10
268.0362670778
 20
12.2071649166
 10
268.8867759326
 20
11.8740430761
 10
269.804116173
 20
11.6813865518
 10
270.7791708598
 20
11.6311100506
 10
271.8022494614
 20
11.723713243
 10
272.863184163
 20
11.958275797
 10
273.9514309188
 20
12.3324665244
 10
275.0561742438
 20
12.8425665497
 10
275.6131145377
 20
13.1480948708
  0
LWPOLYLINE
  5
1F3
330
1F
100
AcDbEntity
  8
0
  6
Continuous
 62
     7
370
    15
100
AcDbPolyline
 90
       17
 70
   128
 43
0.0
 10
286.7482362768
 20
32.4367814407
 10
286.7170951567
 20
33.3798717525
 10
286.5790412582
 20
34.5723127131
 10
286.331985064
 20
35.6796333884
 10
285.9783819296
 20
36.6908287282
 10
285.5217461219
 20
37.5958490188
 10
284.9666158926
 20
38.3856997621
 10
284.3185083753
 20
39.0525310664
 10
283.5838647538
 20
39.5897156627
 10
282.7699862465
 20
39.9919147691
 10
281.8849615434
 20
40.2551311502
 10
280.9375864179
 20
40.3767488433
 10
279.9372763094
 20
40.3555591572
 10
278.8939727493
 20
40.1917726846
 10
277.8180445571
 20
39.8870172088
 10
276.7201847905
 20
39.4443215269
 10
275.6113044731
 20
38.8680853473
  0
SPLINE
  5
1F4
330
1F
100
AcDbEntity
  8
0
  6
Continuous
 62
     7
370
    15
100
AcDbSpline
210
0.0
220
0.0
230
1.0
 70
    11
 71
     3
 72
    94
 73
    90
 74
     0
 42
0.000000001
 43
0.00000001
 40
0.0
 40
0.0
 40
0.0
 40
0.0
 40
0.0312499999999988
 40
0.0312499999999988
 40
0.0468749999999983
 40
0.0468749999999983
 40
0.0624999999999977
 40
0.0624999999999977
 40
0.0937499999999969
 40
0.0937499999999969
 40
0.1093749999999965
 40
0.1093749999999965
 40
0.124999999999996
 40
0.124999999999996
 40
0.1562499999999952
 40
0.1562499999999952
 40
0.1718749999999948
 40
0.1718749999999948
 40
0.1874999999999943
 40
0.1874999999999943
 40
0.2187499999999928
 40
0.2187499999999928
 40
0.2343749999999924
 40
0.2343749999999924
 40
0.249999999999992
 40
0.249999999999992
 40
0.2812499999999916
 40
0.2812499999999916
 40
0.2968749999999915
 40
0.2968749999999915
 40
0.3124999999999912
 40
0.3124999999999912
 40
0.3437499999999912
 40
0.3437499999999912
 40
0.3593749999999912
 40
0.3593749999999912
 40
0.3749999999999912
 40
0.3749999999999912
 40
0.3906249999999913
 40
0.3906249999999913
 40
0.4062499999999913
 40
0.4062499999999913
 40
0.4374999999999915
 40
0.4374999999999915
 40
0.4531249999999916
 40
0.4531249999999916
 40
0.4687499999999918
 40
0.4687499999999918
 40
0.4999999999999923
 40
0.4999999999999923
 40
0.5312499999999929
 40
0.5312499999999929
 40
0.5468749999999933
 40
0.5468749999999933
 40
0.5624999999999939
 40
0.5624999999999939
 40
0.5937499999999943
 40
0.5937499999999943
 40
0.6249999999999947
 40
0.6249999999999947
 40
0.6562499999999951
 40
0.6562499999999951
 40
0.6874999999999954
 40
0.6874999999999954
 40
0.7187499999999959
 40
0.7187499999999959
 40
0.7499999999999962
 40
0.7499999999999962
 40
0.7812499999999967
 40
0.7812499999999967
 40
0.8124999999999971
 40
0.8124999999999971
 40
0.8281249999999973
 40
0.8281249999999973
 40
0.8437499999999977
 40
0.8437499999999977
 40
0.8749999999999982
 40
0.8749999999999982
 40
0.9062499999999987
 40
0.9062499999999987
 40
0.9218749999999989
 40
0.9218749999999989
 40
0.9374999999999991
 40
0.9374999999999991
 40
0.9531249999999993
 40
0.9531249999999993
 40
0.9687499999999994
 40
0.9687499999999994
 40
1.0
 40
1.0
 40
1.0
 40
1.0
 10
269.3972159375094
 20
44.83989018035246
 30
0.0
 10
269.7031685931497
 20
44.78551814228973
 30
0.0
 10
270.0009371098287
 20
44.71646832484646
 30
0.0
 10
270.4368363101541
 20
44.5954134255038
 30
0.0
 10
270.5803261378574
 20
44.55211224649175
 30
0.0
 10
270.8637576674466
 20
44.4600058221341
 30
0.0
 10
271.0042829301252
 20
44.4109781153584
 30
0.0
 10
271.4160930096578
 20
44.25759732653474
 30
0.0
 10
271.675822641387
 20
44.14787386609925
 30
0.0
 10
272.0443038960518
 20
43.97387095998431
 30
0.0
 10
272.1635876601983
 20
43.91427903516304
 30
0.0
 10
272.394972198146
 20
43.79197061413532
 30
0.0
 10
272.5075230217346
 20
43.72896804427073
 30
0.0
 10
272.8287310295805
 20
43.53834737697417
 30
0.0
 10
273.0223247778171
 20
43.40863794355211
 30
0.0
 10
273.2824182248161
 20
43.20958042733495
 30
0.0
 10
273.3640359487363
 20
43.14246514458508
 30
0.0
 10
273.516810853478
 20
43.00643784382152
 30
0.0
 10
273.5881965934446
 20
42.93723851950563
 30
0.0
 10
273.7824065809227
 20
42.73018016009644
 30
0.0
 10
273.886686166856
 20
42.59198630841405
 30
0.0
 10
274.0047379668151
 20
42.38208249555272
 30
0.0
 10
274.0376516046177
 20
42.31167199319443
 30
0.0
 10
274.0899209562952
 20
42.16944770351408
 30
0.0
 10
274.1092634225537
 20
42.09733472894502
 30
0.0
 10
274.1447755012109
 20
41.88271367642271
 30
0.0
 10
274.1393788218186
 20
41.74063891700043
 30
0.0
 10
274.0850363218569
 20
41.52611292342951
 30
0.0
 10
274.0591573108778
 20
41.45436963828648
 30
0.0
 10
273.9905730374613
 20
41.30989735894322
 30
0.0
 10
273.9477157104475
 20
41.23719077309485
 30
0.0
 10
273.7964263474516
 20
41.0232640649693
 30
0.0
 10
273.664690732919
 20
40.88405727198796
 30
0.0
 10
273.4174992601841
 20
40.67892834252462
 30
0.0
 10
273.3259522237145
 20
40.61065317103922
 30
0.0
 10
273.1291902643748
 20
40.47822494289966
 30
0.0
 10
273.0243681225405
 20
40.41420900756344
 30
0.0
 10
272.8021726180888
 20
40.29042745290619
 30
0.0
 10
272.6847986211945
 20
40.23066211549129
 30
0.0
 10
272.4374161825384
 20
40.11548512800759
 30
0.0
 10
272.3064821171795
 20
40.05974730797022
 30
0.0
 10
271.9039803523239
 20
39.90328729787603
 30
0.0
 10
271.6215368846883
 20
39.81227408472724
 30
0.0
 10
271.1779715528702
 20
39.69611518533605
 30
0.0
 10
271.0270537735224
 20
39.66095895494808
 30
0.0
 10
270.7253054190384
 20
39.59914020561665
 30
0.0
 10
270.5736498156624
 20
39.57225251397355
 30
0.0
 10
270.1163586468474
 20
39.5036860337125
 30
0.0
 10
269.8057332892599
 20
39.47403818106658
 30
0.0
 10
269.1979913639496
 20
39.45039356482572
 30
0.0
 10
268.8993366018571
 20
39.45587894365412
 30
0.0
 10
268.4584288845813
 20
39.49140447905473
 30
0.0
 10
268.3123575001085
 20
39.50791261228883
 30
0.0
 10
268.0276187441742
 20
39.54975200949062
 30
0.0
 10
267.8883151407905
 20
39.57511238391517
 30
0.0
 10
267.4792628489613
 20
39.66456767729174
 30
0.0
 10
267.2182955639333
 20
39.74195353763314
 30
0.0
 10
266.7200149155009
 20
39.93456381875102
 30
0.0
 10
266.4882551471898
 20
40.04779460454242
 30
0.0
 10
266.0621567838718
 20
40.30522907489968
 30
0.0
 10
265.8670804160319
 20
40.44971461305293
 30
0.0
 10
265.5146404229484
 20
40.77095179758506
 30
0.0
 10
265.3621391307022
 20
40.94330830999412
 30
0.0
 10
265.1042801423608
 20
41.30825756023831
 30
0.0
 10
264.9987070122741
 20
41.50106224826904
 30
0.0
 10
264.8385782486813
 20
41.90582613975986
 30
0.0
 10
264.7864937538416
 20
42.11147573632037
 30
0.0
 10
264.7390421338749
 20
42.52618735222524
 30
0.0
 10
264.7437135295797
 20
42.73600393248506
 30
0.0
 10
264.8177505791635
 20
43.15299460507413
 30
0.0
 10
264.8858642745146
 20
43.35404796099537
 30
0.0
 10
265.0376268260522
 20
43.64144450306308
 30
0.0
 10
265.0967637131378
 20
43.73515802428302
 30
0.0
 10
265.2321833233023
 20
43.91586700388874
 30
0.0
 10
265.3074339589378
 20
44.0015685785399
 30
0.0
 10
265.5555570982877
 20
44.2445274480506
 30
0.0
 10
265.7510360959119
 20
44.38802866849453
 30
0.0
 10
266.2037348177848
 20
44.632826864807
 30
0.0
 10
266.4515337968237
 20
44.72919244225152
 30
0.0
 10
266.8534491289939
 20
44.83788949034752
 30
0.0
 10
266.9934288713234
 20
44.86823634535556
 30
0.0
 10
267.278429845184
 20
44.91618223627504
 30
0.0
 10
267.4232817981961
 20
44.93386924782341
 30
0.0
 10
267.7174457789004
 20
44.95777953268176
 30
0.0
 10
267.8667587830545
 20
44.96399946211866
 30
0.0
 10
268.1697725027057
 20
44.96569556494643
 30
0.0
 10
268.3238200924917
 20
44.96110066854538
 30
0.0
 10
268.7838135604276
 20
44.93265564723793
 30
0.0
 10
269.0912632818689
 20
44.89426221841516
 30
0.0
 10
269.3972159375093
 20
44.83989018035245
 30
0.0
  0
LINE
  5
1F5
330
1F
100
AcDbEntity
  8
0
  6
Continuous
 62
     7
370
    15
100
AcDbLine
 10
250.96083607
 20
22.0519392041
 30
0.0
 11
251.0014963252
 21
22.0287076657
 31
0.0
  0
SPLINE
  5
1F6
330
1F
100
AcDbEntity
  8
0
  6
Continuous
 62
     7
370
    15
100
AcDbSpline
210
0.0
220
0.0
230
1.0
 70
     8
 71
     3
 72
    14
 73
    10
 74
     0
 42
0.000000001
 43
0.00000001
 40
0.0
 40
0.0
 40
0.0
 40
0.0
 40
0.25
 40
0.25
 40
0.5
 40
0.5
 40
0.75
 40
0.75
 40
1.0
 40
1.0
 40
1.0
 40
1.0
 10
240.838175254898
 20
31.01833643773951
 30
0.0
 10
240.791105740996
 20
30.99116378575002
 30
0.0
 10
240.7353724740032
 20
30.96934906467214
 30
0.0
 10
240.6136393874223
 20
30.9391543800877
 30
0.0
 10
240.5474100343175
 20
30.93083609496402
 30
0.0
 10
240.4153403341867
 20
30.92940847783822
 30
0.0
 10
240.3483509743743
 20
30.9363597638836
 30
0.0
 10
240.2257519377713
 20
30.96456831038722
 30
0.0
 10
240.1688432490971
 20
30.98612549484695
 30
0.0
 10
240.122057343717
 20
31.01313442312166
 30
0.0
  0
SPLINE
  5
1F7
330
1F
100
AcDbEntity
  8
0
  6
Continuous
 62
     7
370
    15
100
AcDbSpline
210
0.0
220
0.0
230
1.0
 70
     8
 71
     3
 72
    14
 73
    10
 74
     0
 42
0.000000001
 43
0.00000001
 40
0.0
 40
0.0
 40
0.0
 40
0.0
 40
0.25
 40
0.25
 40
0.5
 40
0.5
 40
0.75
 40
0.75
 40
1.0
 40
1.0
 40
1.0
 40
1.0
 10
268.504881322191
 20
58.88827722545142
 30
0.0
 10
268.5579626687006
 20
58.85763401637046
 30
0.0
 10
268.6113812769237
 20
58.80803968517974
 30
0.0
 10
268.702295927544
 20
58.69145006119503
 30
0.0
 10
268.7406270702863
 20
58.62449334188956
 30
0.0
 10
268.8004743913526
 20
58.48866238686046
 30
0.0
 10
268.8224583987974
 20
58.41903772841609
 30
0.0
 10
268.8513213122616
 20
58.28470958194437
 30
0.0
 10
268.8584347127842
 20
58.21879545984079
 30
0.0
 10
268.8584347127842
 20
58.15764487126166
 30
0.0
  0
LINE
  5
1F8
330
1F
100
AcDbEntity
  8
0
  6
Continuous
 62
     7
370
    15
100
AcDbLine
 10
240.1220573437
 20
31.0131344231
 30
0.0
 11
238.4339906873
 21
31.9876345611
 31
0.0
  0
LWPOLYLINE
  5
1F9
330
1F
100
AcDbEntity
  8
0
  6
Continuous
 62
     7
370
    15
100
AcDbPolyline
 90
       26
 70
   128
 43
0.0
 10
238.4339906873
 20
31.9876345611
 10
238.8053694354
 20
33.8035615568
 10
239.2877433591
 20
35.6436156704
 10
239.8779494969
 20
37.4957315306
 10
240.5721178233
 20
39.3477646767
 10
241.3656966254
 20
41.1875711901
 10
242.253482348
 20
43.0030873232
 10
243.2296537144
 20
44.7824086024
 10
244.2878098968
 20
46.5138678863
 10
245.4210124866
 20
48.186111868
 10
246.6218309906
 20
49.78817552
 10
247.8823915529
 20
51.3095539922
 10
249.1944285846
 20
52.7402714933
 10
250.5493389615
 20
54.0709467028
 10
251.9382384362
 20
55.2928542847
 10
253.3520198918
 20
56.3979821006
 10
254.7814130587
 20
57.3790837454
 10
256.2170453
 20
58.229726063
 10
257.6495030688
 20
58.9443313289
 10
259.0693936334
 20
59.5182138232
 10
260.4674066661
 20
59.9476105561
 10
261.8343752922
 20
60.2297059413
 10
263.1613361969
 20
60.3626502585
 10
264.4395883994
 20
60.345571782
 10
265.6607503054
 20
60.1785824966
 10
266.8168146658
 20
59.8627773634
  0
LINE
  5
1FA
330
1F
100
AcDbEntity
  8
0
  6
Continuous
 62
     7
370
    15
100
AcDbLine
 10
266.8168146658
 20
59.8627773634
 30
0.0
 11
268.5048813222
 21
58.8882772255
 31
0.0
  0
LINE
  5
1FB
330
1F
100
AcDbEntity
  8
0
  6
Continuous
 62
     7
370
    15
100
AcDbLine
 10
273.2955297647
 20
49.3472979571
 30
0.0
 11
274.7882160751
 21
50.2090074221
 31
0.0
  0
LINE
  5
1FC
330
1F
100
AcDbEntity
  8
0
  6
Continuous
 62
     7
370
    15
100
AcDbLine
 10
273.2955297647
 20
45.5304767055
 30
0.0
 11
273.2955297647
 21
49.3472979571
 31
0.0
  0
LINE
  5
1FD
330
1F
100
AcDbEntity
  8
0
  6
Continuous
 62
     7
370
    15
100
AcDbLine
 10
240.8381752549
 20
22.036387507
 30
0.0
 11
242.2535420706
 21
22.8534613778
 31
0.0
  0
LINE
  5
1FE
330
1F
100
AcDbEntity
  8
0
  6
Continuous
 62
     7
370
    15
100
AcDbLine
 10
242.2535420706
 20
22.8534613778
 30
0.0
 11
242.2535420706
 21
31.8354103086
 31
0.0
  0
LINE
  5
1FF
330
1F
100
AcDbEntity
  8
0
  6
Continuous
 62
     7
370
    15
100
AcDbLine
 10
242.2535420706
 20
31.8354103086
 30
0.0
 11
240.8381752549
 21
31.0183364377
 31
0.0
  0
LINE
  5
200
330
1F
100
AcDbEntity
  8
0
  6
Continuous
 62
     7
370
    15
100
AcDbLine
 10
268.8584347128
 20
58.1576448713
 30
0.0
 11
268.8584347128
 21
55.5023906732
 31
0.0
  0
LINE
  5
201
330
1F
100
AcDbEntity
  8
0
  6
Continuous
 62
     7
370
    15
100
AcDbLine
 10
271.15782774
 20
56.829802013
 30
0.0
 11
268.8584347128
 21
55.5023906732
 31
0.0
  0
LWPOLYLINE
  5
202
330
1F
100
AcDbEntity
  8
0
  6
Continuous
 62
     7
370
    15
100
AcDbPolyline
 90
       24
 70
   128
 43
0.0
 10
237.4311943182
 20
33.4846242549
 10
237.8055784785
 20
35.2480203353
 10
238.288548753
 20
37.0334511899
 10
238.8768536896
 20
38.8288969427
 10
239.5665327023
 20
40.6222702954
 10
240.3529427348
 20
42.4014979015
 10
241.2307895181
 20
44.1546016465
 10
242.1941632129
 20
45.869779287
 10
243.2365781956
 20
47.5354839056
 10
244.3510167211
 20
49.1405016472
 10
245.5299761674
 20
50.6740272127
 10
246.7655195446
 20
52.1257366028
 10
248.0493289288
 20
53.4858566208
 10
249.3727614596
 20
54.7452306679
 10
250.7269075258
 20
55.8953803873
 10
252.1026507463
 20
56.9285627421
 10
253.4907293439
 20
57.837822143
 10
254.8817984971
 20
58.6170372746
 10
256.2664932514
 20
59.2609623055
 10
257.6354915661
 20
59.7652622043
 10
258.9795770719
 20
60.1265419236
 10
260.2897011176
 20
60.3423692564
 10
261.5570436872
 20
60.4112912101
 10
262.7436002949
 20
60.3365693403
  0
SPLINE
  5
203
330
1F
100
AcDbEntity
  8
0
  6
Continuous
 62
     7
370
    15
100
AcDbSpline
210
0.0
220
0.0
230
1.0
 70
     8
 71
     3
 72
     8
 73
     4
 74
     0
 42
0.000000001
 43
0.00000001
 40
0.0
 40
0.0
 40
0.0
 40
0.0
 40
1.0
 40
1.0
 40
1.0
 40
1.0
 10
237.4311943182486
 20
33.48462425489941
 30
0.0
 10
237.0170642413182
 20
33.41757789231507
 30
0.0
 10
236.6028718582365
 20
33.35066079488612
 30
0.0
 10
236.1886250897248
 20
33.28385652967228
 30
0.0
  0
LWPOLYLINE
  5
204
330
1F
100
AcDbEntity
  8
0
  6
Continuous
 62
     7
370
    15
100
AcDbPolyline
 90
       26
 70
   128
 43
0.0
 10
236.1886250897
 20
33.2838565297
 10
236.5600038379
 20
35.0997835254
 10
237.0423777616
 20
36.939837639
 10
237.6325838993
 20
38.7919534992
 10
238.3267522258
 20
40.6439866453
 10
239.1203310278
 20
42.4837931587
 10
240.0081167504
 20
44.2993092918
 10
240.9842881169
 20
46.078630571
 10
242.0424442992
 20
47.8100898549
 10
243.1756468891
 20
49.4823338366
 10
244.3764653931
 20
51.0843974886
 10
245.6370259554
 20
52.6057759608
 10
246.949062987
 20
54.036493462
 10
248.303973364
 20
55.3671686714
 10
249.6928728387
 20
56.5890762533
 10
251.1066542943
 20
57.6942040692
 10
252.5360474612
 20
58.675305714
 10
253.9716797025
 20
59.5259480316
 10
255.4041374712
 20
60.2405532975
 10
256.8240280358
 20
60.8144357918
 10
258.2220410686
 20
61.2438325247
 10
259.5890096946
 20
61.5259279099
 10
260.9159705994
 20
61.6588722271
 10
262.1942228019
 20
61.6417937506
 10
263.4153847078
 20
61.4748044652
 10
264.5714490682
 20
61.158999332
  0
LINE
  5
205
330
1F
100
AcDbEntity
  8
0
  6
Continuous
 62
     7
370
    15
100
AcDbLine
 10
264.5714490682
 20
61.158999332
 30
0.0
 11
264.8462529201
 21
60.2855292501
 31
0.0
  0
LINE
  5
206
330
1F
100
AcDbEntity
  8
0
  6
Continuous
 62
     7
370
    15
100
AcDbLine
 10
260.3377979995
 20
63.6030340712
 30
0.0
 11
264.5714490682
 21
61.158999332
 31
0.0
  0
LINE
  5
207
330
1F
100
AcDbEntity
  8
0
  6
Continuous
 62
     7
370
    15
100
AcDbLine
 10
236.1886250897
 20
33.2838565297
 30
0.0
 11
235.4905079269
 21
33.6868709893
 31
0.0
  0
SPLINE
  5
208
330
1F
100
AcDbEntity
  8
0
  6
Continuous
 62
     7
370
    15
100
AcDbSpline
210
0.0
220
0.0
230
1.0
 70
     8
 71
     3
 72
    30
 73
    26
 74
     0
 42
0.000000001
 43
0.00000001
 40
0.0
 40
0.0
 40
0.0
 40
0.0
 40
0.1250000000000002
 40
0.1250000000000002
 40
0.1875000000000004
 40
0.1875000000000004
 40
0.2500000000000005
 40
0.2500000000000005
 40
0.3750000000000008
 40
0.3750000000000008
 40
0.4375000000000008
 40
0.4375000000000008
 40
0.5000000000000008
 40
0.5000000000000008
 40
0.6250000000000007
 40
0.6250000000000007
 40
0.6875000000000006
 40
0.6875000000000006
 40
0.7500000000000004
 40
0.7500000000000004
 40
0.8125000000000003
 40
0.8125000000000003
 40
0.8750000000000002
 40
0.8750000000000002
 40
1.0
 40
1.0
 40
1.0
 40
1.0
 10
235.4905079269451
 20
33.68687098934105
 30
0.0
 10
235.2561976448067
 20
33.82213543603483
 30
0.0
 10
235.0207182324587
 20
33.92540632291376
 30
0.0
 10
234.6662205301384
 20
34.03467621550603
 30
0.0
 10
234.5478473747374
 20
34.06344067279464
 30
0.0
 10
234.3108415984349
 20
34.10542135520733
 30
0.0
 10
234.1920482755133
 20
34.11854274376586
 30
0.0
 10
233.8434903903657
 20
34.13384711122314
 30
0.0
 10
233.6187926139496
 20
34.11280962734849
 30
0.0
 10
233.2946925198685
 20
34.03587372148925
 30
0.0
 10
233.1883157122223
 20
34.00238882556797
 30
0.0
 10
232.9830807486676
 20
33.92089587057012
 30
0.0
 10
232.8845241750535
 20
33.87311297638642
 30
0.0
 10
232.6011421923596
 20
33.70951362228924
 30
0.0
 10
232.4284786455101
 20
33.57364633601519
 30
0.0
 10
232.1964700118199
 20
33.32934138821182
 30
0.0
 10
232.1241911380811
 20
33.2415426608821
 30
0.0
 10
231.9919420692383
 20
33.05619909911457
 30
0.0
 10
231.9316214118928
 20
32.95829588099966
 30
0.0
 10
231.822721093218
 20
32.75224229071039
 30
0.0
 10
231.7741408053533
 20
32.64409196108094
 30
0.0
 10
231.6891591985301
 20
32.4174340937505
 30
0.0
 10
231.6526330248823
 20
32.29830926493706
 30
0.0
 10
231.5637013260932
 20
31.93036144472191
 30
0.0
 10
231.5313937618617
 20
31.67115527538134
 30
0.0
 10
231.5267219756235
 20
31.39796256599055
 30
0.0
  0
ARC
  5
209
330
1F
100
AcDbEntity
  8
0
  6
Continuous
 62
     7
370
    15
100
AcDbCircle
 10
255.1655194954
 20
30.98969216
 30
0.0
 40
23.64232291682424
100
AcDbArc
 50
179.0105314943
 51
180.9894685057
  0
SPLINE
  5
20A
330
1F
100
AcDbEntity
  8
0
  6
Continuous
 62
     7
370
    15
100
AcDbSpline
210
0.0
220
0.0
230
1.0
 70
     8
 71
     3
 72
    30
 73
    26
 74
     0
 42
0.000000001
 43
0.00000001
 40
0.0
 40
0.0
 40
0.0
 40
0.0
 40
0.1250000000000001
 40
0.1250000000000001
 40
0.1875000000000001
 40
0.1875000000000001
 40
0.2500000000000003
 40
0.2500000000000003
 40
0.3750000000000006
 40
0.3750000000000006
 40
0.4375000000000007
 40
0.4375000000000007
 40
0.5000000000000007
 40
0.5000000000000007
 40
0.6250000000000008
 40
0.6250000000000008
 40
0.6875000000000007
 40
0.6875000000000007
 40
0.7500000000000006
 40
0.7500000000000006
 40
0.8125000000000004
 40
0.8125000000000004
 40
0.8750000000000004
 40
0.8750000000000004
 40
1.0
 40
1.0
 40
1.0
 40
1.0
 10
231.5267219756235
 20
30.5814217541048
 30
0.0
 10
231.531394099645
 20
30.31360361168548
 30
0.0
 10
231.5636746781601
 20
30.03987607257027
 30
0.0
 10
231.6512701464175
 20
29.62059832601761
 30
0.0
 10
231.6870402493006
 20
29.47937595041676
 30
0.0
 10
231.7718467452517
 20
29.19384741137669
 30
0.0
 10
231.8210695456296
 20
29.04924538227093
 30
0.0
 10
231.9851790308024
 20
28.62009695965263
 30
0.0
 10
232.1171601996288
 20
28.33708044603412
 30
0.0
 10
232.347096390566
 20
27.91600552761744
 30
0.0
 10
232.4295193434289
 20
27.77557653523428
 30
0.0
 10
232.6031938716041
 20
27.49885804978154
 30
0.0
 10
232.6939565946587
 20
27.36324664330681
 30
0.0
 10
232.9772347041488
 20
26.96407080305249
 30
0.0
 10
233.1806373233968
 20
26.70809371549526
 30
0.0
 10
233.5064339515698
 20
26.33840065125912
 30
0.0
 10
233.6181406879019
 20
26.21805837299087
 30
0.0
 10
233.843379960438
 20
25.98717952539645
 30
0.0
 10
233.9574719599317
 20
25.87599837742756
 30
0.0
 10
234.1883246033876
 20
25.66189192966518
 30
0.0
 10
234.3050855238666
 20
25.55896671865839
 30
0.0
 10
234.5411202781771
 20
25.3613851861184
 30
0.0
 10
234.6609755380064
 20
25.26630431472045
 30
0.0
 10
235.0194063720667
 20
24.99747625870848
 30
0.0
 10
235.2561942691702
 20
24.84018845400502
 30
0.0
 10
235.4905079269451
 20
24.7049220585978
 30
0.0
  0
LINE
  5
20B
330
1F
100
AcDbEntity
  8
0
  6
Continuous
 62
     7
370
    15
100
AcDbLine
 10
235.4905079269
 20
24.7049220586
 30
0.0
 11
236.1886250897
 21
24.3019075989
 31
0.0
  0
LWPOLYLINE
  5
20C
330
1F
100
AcDbEntity
  8
0
  6
Continuous
 62
     7
370
    15
100
AcDbPolyline
 90
       10
 70
   128
 43
0.0
 10
242.1241067068
 20
16.5022792249
 10
241.9337682367
 20
16.5785443794
 10
240.8960194794
 20
17.0952235719
 10
239.9387961046
 20
17.7505770622
 10
239.0682197491
 20
18.5404137321
 10
238.2898579245
 20
19.4596824168
 10
237.6086884119
 20
20.5025042073
 10
237.0290674279
 20
21.6622100477
 10
236.5547017658
 20
22.9313833848
 10
236.1886250897
 20
24.3019075989
  0
LINE
  5
20D
330
1F
100
AcDbEntity
  8
0
  6
Continuous
 62
     7
370
    15
100
AcDbLine
 10
266.5415348657
 20
60.0211759219
 30
0.0
 11
266.8145652511
 21
59.8635588354
 31
0.0
  0
SPLINE
  5
20E
330
1F
100
AcDbEntity
  8
0
  6
Continuous
 62
     7
370
    15
100
AcDbSpline
210
0.0
220
0.0
230
1.0
 70
     8
 71
     3
 72
    24
 73
    20
 74
     0
 42
0.000000001
 43
0.00000001
 40
0.0
 40
0.0
 40
0.0
 40
0.0
 40
0.2499999999999992
 40
0.2499999999999992
 40
0.3749999999999983
 40
0.3749999999999983
 40
0.4999999999999974
 40
0.4999999999999974
 40
0.5624999999999977
 40
0.5624999999999977
 40
0.6249999999999979
 40
0.6249999999999979
 40
0.6874999999999981
 40
0.6874999999999981
 40
0.7499999999999983
 40
0.7499999999999983
 40
0.8749999999999992
 40
0.8749999999999992
 40
1.0
 40
1.0
 40
1.0
 40
1.0
 10
260.3377979994864
 20
63.6030340712275
 30
0.0
 10
260.772687117035
 20
63.43655614874953
 30
0.0
 10
261.226630834764
 20
63.22621867939314
 30
0.0
 10
261.959035328721
 20
62.8387110956487
 30
0.0
 10
262.2136657972836
 20
62.69637399641492
 30
0.0
 10
262.732012155719
 20
62.39425605948711
 30
0.0
 10
262.9967581721957
 20
62.23401155351659
 30
0.0
 10
263.4057166897682
 20
61.9805380481884
 30
0.0
 10
263.544659119041
 20
61.89345496902157
 30
0.0
 10
263.8242293062527
 20
61.71691133538724
 30
0.0
 10
263.9641653777366
 20
61.62789782132896
 30
0.0
 10
264.2446936860125
 20
61.44885808321052
 30
0.0
 10
264.3852852720391
 20
61.35883144960015
 30
0.0
 10
264.6675015922517
 20
61.17821881988656
 30
0.0
 10
264.8095966305897
 20
61.08733239969577
 30
0.0
 10
265.2350216822252
 20
60.8164478599392
 30
0.0
 10
265.5095107515623
 20
60.64336322697039
 30
0.0
 10
266.0415601535672
 20
60.31566495781146
 30
0.0
 10
266.3013471946153
 20
60.15983331301106
 30
0.0
 10
266.5415348656634
 20
60.02117592192049
 30
0.0
  0
LWPOLYLINE
  5
20F
330
1F
100
AcDbEntity
  8
0
  6
Continuous
 62
     7
370
    15
100
AcDbPolyline
 90
        9
 70
   128
 43
0.0
 10
251.3574378333
 20
64.2517032338
 10
251.8550922608
 20
64.4097397613
 10
253.1950303618
 20
64.7468827099
 10
254.5011880609
 20
64.9444692558
 10
255.7655124614
 20
65.0012812122
 10
256.9802085829
 20
64.9169683145
 10
258.1377874201
 20
64.6920503798
 10
259.2311121143
 20
64.3279141018
 10
260.2524230657
 20
63.82739279
  0
ARC
  5
210
330
1F
100
AcDbEntity
  8
0
  6
Continuous
 62
     7
370
    15
100
AcDbCircle
 10
241.0104176437
 20
29.4279225483
 30
0.0
 40
10.75141767477076
100
AcDbArc
 50
188.8567156199
 51
237.1567157791
  0
ARC
  5
211
330
1F
100
AcDbEntity
  8
0
  6
Continuous
 62
     7
370
    15
100
AcDbCircle
 10
267.4499582149
 20
41.306961904
 30
0.0
 40
1.586201597251226
100
AcDbArc
 50
111.115293216
 51
248.8685784961
  0
LWPOLYLINE
  5
212
330
1F
100
AcDbEntity
  8
0
  6
Continuous
 62
     7
370
    15
100
AcDbPolyline
 90
       16
 70
   128
 43
0.0
 10
272.3337354654
 20
40.0451394681
 10
272.4819786161
 20
40.1671734624
 10
272.8260268533
 20
40.5569769942
 10
273.0221680419
 20
40.9795567265
 10
273.0618298707
 20
41.4164438974
 10
272.9432789276
 20
41.8485444409
 10
272.6716964574
 20
42.25697349
 10
272.2589519175
 20
42.6238807354
 10
271.7230842248
 20
42.9332305697
 10
271.0875133688
 20
43.1715029208
 10
270.3800168458
 20
43.3282841436
 10
269.6315156486
 20
43.3967221464
 10
268.8747228715
 20
43.3738258599
 10
268.1427139902
 20
43.2605959619
 10
267.4674813053
 20
43.0619811422
 10
266.8785357255
 20
42.7866618214
  0
LINE
  5
213
330
1F
100
AcDbEntity
  8
0
  6
Continuous
 62
     7
370
    15
100
AcDbLine
 10
237.8612850902
 20
33.7329103726
 30
0.0
 11
237.4311943182
 21
33.4846242549
 31
0.0
  0
LINE
  5
214
330
1F
100
AcDbEntity
  8
0
  6
Continuous
 62
     7
370
    15
100
AcDbLine
 10
238.7486994802
 20
33.5567743468
 30
0.0
 11
238.4352801951
 21
33.7377074488
 31
0.0
  0
LWPOLYLINE
  5
215
330
1F
100
AcDbEntity
  8
0
  6
Continuous
 62
     7
370
    15
100
AcDbPolyline
 90
       18
 70
   128
 43
0.0
 10
238.4352801951
 20
33.7377074488
 10
238.8129770449
 20
35.4544602762
 10
239.2972009723
 20
37.1912900969
 10
239.8846034808
 20
38.9361864164
 10
240.571122575
 20
40.677082959
 10
241.3520108505
 20
42.4019411083
 10
242.2218683226
 20
44.098833156
 10
243.1746797687
 20
45.7560247849
 10
244.2038563241
 20
47.3620562131
 10
245.3022810455
 20
48.905821441
 10
246.4623581261
 20
50.3766450508
 10
247.6760654217
 20
51.7643560298
 10
248.9350099254
 20
53.0593581037
 10
250.2304858067
 20
54.2526960975
 10
251.5535346142
 20
55.3361178618
 10
252.8950072244
 20
56.3021313379
 10
254.24562711
 20
57.1440563666
 10
255.3877011161
 20
57.7547085408
  0
SPLINE
  5
216
330
1F
100
AcDbEntity
  8
0
  6
Continuous
 62
     7
370
    15
100
AcDbSpline
210
0.0
220
0.0
230
1.0
 70
     8
 71
     3
 72
    12
 73
     8
 74
     0
 42
0.000000001
 43
0.00000001
 40
0.0
 40
0.0
 40
0.0
 40
0.0
 40
0.25
 40
0.25
 40
0.5
 40
0.5
 40
1.0
 40
1.0
 40
1.0
 40
1.0
 10
238.43528019514
 20
33.73770744877834
 30
0.0
 10
238.3978881575571
 20
33.75929341260476
 30
0.0
 10
238.3517398467021
 20
33.77673354762722
 30
0.0
 10
238.2530400093196
 20
33.79918967594156
 30
0.0
 10
238.1995284430241
 20
33.80457598154218
 30
0.0
 10
238.0409310233228
 20
33.80249482273205
 30
0.0
 10
237.936216928705
 20
33.77616760224125
 30
0.0
 10
237.8612850901782
 20
33.73291037261578
 30
0.0
  0
ARC
  5
217
330
1F
100
AcDbEntity
  8
0
  6
Continuous
 62
     7
370
    15
100
AcDbCircle
 10
270.9913518696
 20
28.7092949974
 30
0.0
 40
41.40535676226341
100
AcDbArc
 50
139.2540653119
 51
165.8330734741
  0
LINE
  5
218
330
1F
100
AcDbEntity
  8
0
  6
Continuous
 62
     7
370
    15
100
AcDbLine
 10
237.2684392633
 20
25.731299972
 30
0.0
 11
242.2535420706
 21
22.8534613778
 31
0.0
  0
ARC
  5
219
330
1F
100
AcDbEntity
  8
0
  6
Continuous
 62
     7
370
    15
100
AcDbCircle
 10
241.4089858642
 20
32.2043285723
 30
0.0
 40
7.684024037860549
100
AcDbArc
 50
182.6054784857
 51
237.39452166
  0
LINE
  5
21A
330
1F
100
AcDbEntity
  8
0
  6
Continuous
 62
     7
370
    15
100
AcDbLine
 10
233.7329053573
 20
32.6715651229
 30
0.0
 11
233.7329053573
 21
31.855024311
 31
0.0
  0
ARC
  5
21B
330
1F
100
AcDbEntity
  8
0
  6
Continuous
 62
     7
370
    15
100
AcDbCircle
 10
236.9452255398
 20
32.7847715586
 30
0.0
 40
3.214314336196935
100
AcDbArc
 50
155.3280831484
 51
182.0183441907
  0
SPLINE
  5
21C
330
1F
100
AcDbEntity
  8
0
  6
Continuous
 62
     7
370
    15
100
AcDbSpline
210
0.0
220
0.0
230
1.0
 70
     8
 71
     3
 72
    10
 73
     6
 74
     0
 42
0.000000001
 43
0.00000001
 40
0.0
 40
0.0
 40
0.0
 40
0.0
 40
0.5
 40
0.5
 40
1.0
 40
1.0
 40
1.0
 40
1.0
 10
220.9893066051737
 20
37.73515593969196
 30
0.0
 10
221.4164538167416
 20
37.38726072608989
 30
0.0
 10
221.8437463497169
 20
37.05059561491026
 30
0.0
 10
222.6984910945504
 20
36.38960500750196
 30
0.0
 10
223.1259460979802
 20
36.06549523747593
 30
0.0
 10
223.5534550415352
 20
35.74555383562046
 30
0.0
  0
SPLINE
  5
21D
330
1F
100
AcDbEntity
  8
0
  6
Continuous
 62
     7
370
    15
100
AcDbSpline
210
0.0
220
0.0
230
1.0
 70
     8
 71
     3
 72
    20
 73
    16
 74
     0
 42
0.000000001
 43
0.00000001
 40
0.0
 40
0.0
 40
0.0
 40
0.0
 40
0.0625000000000018
 40
0.0625000000000018
 40
0.1250000000000037
 40
0.1250000000000037
 40
0.2500000000000049
 40
0.2500000000000049
 40
0.3750000000000061
 40
0.3750000000000061
 40
0.5000000000000073
 40
0.5000000000000073
 40
0.7500000000000037
 40
0.7500000000000037
 40
1.0
 40
1.0
 40
1.0
 40
1.0
 10
223.5534550415352
 20
35.74555383562055
 30
0.0
 10
223.5740818655763
 20
35.73011702406602
 30
0.0
 10
223.5933408807326
 20
35.71715134777644
 30
0.0
 10
223.6257490813128
 20
35.6984832993661
 30
0.0
 10
223.6389133262167
 20
35.69273087327825
 30
0.0
 10
223.669492574101
 20
35.68393887481841
 30
0.0
 10
223.6795000525512
 20
35.68820875888123
 30
0.0
 10
223.6907558848488
 20
35.70430946431493
 30
0.0
 10
223.6918290659061
 20
35.7165037931364
 30
0.0
 10
223.6895248085854
 20
35.74468274324757
 30
0.0
 10
223.6860636576424
 20
35.76085962895613
 30
0.0
 10
223.6715247272273
 20
35.81352555067657
 30
0.0
 10
223.6563114169628
 20
35.85421755700192
 30
0.0
 10
223.6209762827003
 20
35.94139985833246
 30
0.0
 10
223.6007128421977
 20
35.98803808778303
 30
0.0
 10
223.5790144071963
 20
36.0368999822394
 30
0.0
  0
SPLINE
  5
21E
330
1F
100
AcDbEntity
  8
0
  6
Continuous
 62
     7
370
    15
100
AcDbSpline
210
0.0
220
0.0
230
1.0
 70
     8
 71
     3
 72
    12
 73
     8
 74
     0
 42
0.000000001
 43
0.00000001
 40
0.0
 40
0.0
 40
0.0
 40
0.0
 40
0.2499999999999997
 40
0.2499999999999997
 40
0.4999999999999993
 40
0.4999999999999993
 40
1.0
 40
1.0
 40
1.0
 40
1.0
 10
223.5790144071963
 20
36.03689998223941
 30
0.0
 10
223.5460477978775
 20
36.11113625711431
 30
0.0
 10
223.5240602023902
 20
36.17969984813923
 30
0.0
 10
223.484372446039
 20
36.31856374190809
 30
0.0
 10
223.4667711162608
 20
36.38887945001823
 30
0.0
 10
223.4063255317435
 20
36.61269021115277
 30
0.0
 10
223.3564195871838
 20
36.77842454450761
 30
0.0
 10
223.2724923697513
 20
36.97910238091653
 30
0.0
  0
LWPOLYLINE
  5
21F
330
1F
100
AcDbEntity
  8
0
  6
Continuous
 62
     7
370
    15
100
AcDbPolyline
 90
        9
 70
   128
 43
0.0
 10
223.2724923698
 20
36.9791023809
 10
222.8917570224
 20
38.0657328856
 10
222.6174409148
 20
39.2489030688
 10
222.4519022553
 20
40.5184415922
 10
222.3965641274
 20
41.8634346362
 10
222.4519022553
 20
43.2723197226
 10
222.6174409148
 20
44.7329851139
 10
222.8917570224
 20
46.2328739335
 10
223.2724923698
 20
47.7590921134
  0
SPLINE
  5
220
330
1F
100
AcDbEntity
  8
0
  6
Continuous
 62
     7
370
    15
100
AcDbSpline
210
0.0
220
0.0
230
1.0
 70
     8
 71
     3
 72
    12
 73
     8
 74
     0
 42
0.000000001
 43
0.00000001
 40
0.0
 40
0.0
 40
0.0
 40
0.0
 40
0.2499999999999997
 40
0.2499999999999997
 40
0.4999999999999993
 40
0.4999999999999993
 40
1.0
 40
1.0
 40
1.0
 40
1.0
 10
223.5790144071963
 20
49.6665324992061
 30
0.0
 10
223.5460477978775
 20
49.50696702675851
 30
0.0
 10
223.5240602023902
 20
49.34464159273435
 30
0.0
 10
223.484372446039
 20
49.01946725640818
 30
0.0
 10
223.4667711162608
 20
48.85637572816809
 30
0.0
 10
223.4063255317435
 20
48.37230686526769
 30
0.0
 10
223.3564195871838
 20
48.05667025243714
 30
0.0
 10
223.2724923697513
 20
47.75909211336164
 30
0.0
  0
SPLINE
  5
221
330
1F
100
AcDbEntity
  8
0
  6
Continuous
 62
     7
370
    15
100
AcDbSpline
210
0.0
220
0.0
230
1.0
 70
     8
 71
     3
 72
    20
 73
    16
 74
     0
 42
0.000000001
 43
0.00000001
 40
0.0
 40
0.0
 40
0.0
 40
0.0
 40
0.0624999999999996
 40
0.0624999999999996
 40
0.1249999999999991
 40
0.1249999999999991
 40
0.2499999999999975
 40
0.2499999999999975
 40
0.3749999999999959
 40
0.3749999999999959
 40
0.4999999999999943
 40
0.4999999999999943
 40
0.7499999999999971
 40
0.7499999999999971
 40
1.0
 40
1.0
 40
1.0
 40
1.0
 10
223.5534550415352
 20
50.8682086670718
 30
0.0
 10
223.5740818655763
 20
50.86386841578007
 30
0.0
 10
223.5933408807326
 20
50.85345815363995
 30
0.0
 10
223.6257490813128
 20
50.82207406616257
 30
0.0
 10
223.6389133262167
 20
50.80128223125589
 30
0.0
 10
223.669492574101
 20
50.73327205490506
 30
0.0
 10
223.6795000525512
 20
50.68029397796573
 30
0.0
 10
223.6907558848488
 20
50.57393733460236
 30
0.0
 10
223.6918290659061
 20
50.51955587557484
 30
0.0
 10
223.6895248085854
 20
50.4120200777236
 30
0.0
 10
223.6860636576424
 20
50.35832579192931
 30
0.0
 10
223.6715247272273
 20
50.19736258374915
 30
0.0
 10
223.6563114169628
 20
50.08993075669153
 30
0.0
 10
223.6209762827003
 20
49.8771153888706
 30
0.0
 10
223.6007128421977
 20
49.77155758683014
 30
0.0
 10
223.5790144071963
 20
49.66653249920613
 30
0.0
  0
SPLINE
  5
222
330
1F
100
AcDbEntity
  8
0
  6
Continuous
 62
     7
370
    15
100
AcDbSpline
210
0.0
220
0.0
230
1.0
 70
     8
 71
     3
 72
    10
 73
     6
 74
     0
 42
0.000000001
 43
0.00000001
 40
0.0
 40
0.0
 40
0.0
 40
0.0
 40
0.5
 40
0.5
 40
1.0
 40
1.0
 40
1.0
 40
1.0
 10
220.9893066051737
 20
51.25630284757144
 30
0.0
 10
221.4164538167416
 20
51.22694290321245
 30
0.0
 10
221.8437463497169
 20
51.17323943502712
 30
0.0
 10
222.6984910945504
 20
51.03908388147854
 30
0.0
 10
223.1259460979803
 20
50.95816416583403
 30
0.0
 10
223.5534550415352
 20
50.86820866707203
 30
0.0
  0
SPLINE
  5
223
330
1F
100
AcDbEntity
  8
0
  6
Continuous
 62
     7
370
    15
100
AcDbSpline
210
0.0
220
0.0
230
1.0
 70
     8
 71
     3
 72
    12
 73
     8
 74
     0
 42
0.000000001
 43
0.00000001
 40
0.0
 40
0.0
 40
0.0
 40
0.0
 40
0.4999999999999978
 40
0.4999999999999978
 40
0.7499999999999989
 40
0.7499999999999989
 40
1.0
 40
1.0
 40
1.0
 40
1.0
 10
219.2161795822293
 20
51.7512926878354
 30
0.0
 10
219.5066522716784
 20
51.64226894845435
 30
0.0
 10
219.7982890017182
 20
51.53943697265566
 30
0.0
 10
220.2396892849398
 20
51.40590817401617
 30
0.0
 10
220.3874823846449
 20
51.36486288495868
 30
0.0
 10
220.6855981958721
 20
51.29599290309724
 30
0.0
 10
220.8356698931747
 20
51.26686306005464
 30
0.0
 10
220.9893066051737
 20
51.25630284757136
 30
0.0
  0
LWPOLYLINE
  5
224
330
1F
100
AcDbEntity
  8
0
  6
Continuous
 62
     7
370
    15
100
AcDbPolyline
 90
        3
 70
   128
 43
0.0
 10
239.1462040724
 20
67.680353365
 10
239.2005956564
 20
67.6538286728
 10
239.2190693026
 20
67.6446643003
  0
SPLINE
  5
225
330
1F
100
AcDbEntity
  8
0
  6
Continuous
 62
     7
370
    15
100
AcDbSpline
210
0.0
220
0.0
230
1.0
 70
     8
 71
     3
 72
    12
 73
     8
 74
     0
 42
0.000000001
 43
0.00000001
 40
0.0
 40
0.0
 40
0.0
 40
0.0
 40
0.4999999999999978
 40
0.4999999999999978
 40
0.7499999999999989
 40
0.7499999999999989
 40
1.0
 40
1.0
 40
1.0
 40
1.0
 10
219.2161795822293
 20
39.08023096120938
 30
0.0
 10
219.5066522716784
 20
38.86735591322275
 30
0.0
 10
219.7982890017182
 20
38.6518271316237
 30
0.0
 10
220.2396892849398
 20
38.3197061147629
 30
0.0
 10
220.3874823846449
 20
38.20752309035056
 30
0.0
 10
220.6855981958721
 20
37.97753690155275
 30
0.0
 10
220.8356698931747
 20
37.86028721830163
 30
0.0
 10
220.9893066051737
 20
37.73515593969199
 30
0.0
  0
SPLINE
  5
226
330
1F
100
AcDbEntity
  8
0
  6
Continuous
 62
     7
370
    15
100
AcDbSpline
210
0.0
220
0.0
230
1.0
 70
     8
 71
     3
 72
    17
 73
    13
 74
     0
 42
0.000000001
 43
0.00000001
 40
0.0
 40
0.0
 40
0.0
 40
0.0
 40
0.1263631562049136
 40
0.2532986886215838
 40
0.3802095325740383
 40
0.5065164388319279
 40
0.6319218278641697
 40
0.6950518944749227
 40
0.7573815215444916
 40
0.8196195009229209
 40
0.8831458825091562
 40
1.0
 40
1.0
 40
1.0
 40
1.0
 10
227.5761281357751
 20
36.75343321000977
 30
0.0
 10
227.36761550573
 20
37.13615733176575
 30
0.0
 10
226.9496457640923
 20
37.90333916748556
 30
0.0
 10
226.7530555532854
 20
39.07886435203562
 30
0.0
 10
226.9647216968523
 20
40.05486149283856
 30
0.0
 10
227.5387018200758
 20
40.7053879386951
 30
0.0
 10
228.2312537354256
 20
40.85148433936914
 30
0.0
 10
228.8199204227707
 20
40.72304715074142
 30
0.0
 10
229.2629269718531
 20
40.50105852197745
 30
0.0
 10
229.6865776090834
 20
40.16107116914591
 30
0.0
 10
230.1960007104869
 20
39.59895250651648
 30
0.0
 10
230.4817509485567
 20
39.04782758381729
 30
0.0
 10
230.6668657035513
 20
38.69079776740846
 30
0.0
  0
SPLINE
  5
227
330
1F
100
AcDbEntity
  8
0
  6
Continuous
 62
     7
370
    15
100
AcDbSpline
210
0.0
220
0.0
230
1.0
 70
     8
 71
     3
 72
    12
 73
     8
 74
     0
 42
0.000000001
 43
0.00000001
 40
0.0
 40
0.0
 40
0.0
 40
0.0
 40
0.0006098377843252
 40
0.3327085217310333
 40
0.4983992469466113
 40
0.6663780298847327
 40
0.9999999999999999
 40
0.9999999999999999
 40
0.9999999999999999
 40
0.9999999999999999
 10
230.0649936836315
 20
34.66439400903801
 30
0.0
 10
230.064603475357
 20
34.66434091096472
 30
0.0
 10
229.8517179810324
 20
34.63537225417013
 30
0.0
 10
229.3931704922305
 20
34.9031094508568
 30
0.0
 10
228.8134856664278
 20
35.31870400004769
 30
0.0
 10
228.2162069498845
 20
35.86851772032875
 30
0.0
 10
227.831801681368
 20
36.39996192520939
 30
0.0
 10
227.5761281357751
 20
36.75343321000977
 30
0.0
  0
ARC
  5
228
330
1F
100
AcDbEntity
  8
0
  6
Continuous
 62
     7
370
    15
100
AcDbCircle
 10
249.2064581823
 20
22.2795621141
 30
0.0
 40
8.639708285537633
100
AcDbArc
 50
217.7498199185
 51
262.0713406462
  0
SPLINE
  5
229
330
1F
100
AcDbEntity
  8
0
  6
Continuous
 62
     7
370
    15
100
AcDbSpline
210
0.0
220
0.0
230
1.0
 70
     8
 71
     3
 72
    14
 73
    10
 74
     0
 42
0.000000001
 43
0.00000001
 40
0.0
 40
0.0
 40
0.0
 40
0.0
 40
0.25
 40
0.25
 40
0.5
 40
0.5
 40
0.75
 40
0.75
 40
1.0
 40
1.0
 40
1.0
 40
1.0
 10
240.122057343717
 20
22.03118549237842
 30
0.0
 10
240.1691579406475
 20
22.00399489653856
 30
0.0
 10
240.2254517910077
 20
21.98266871702726
 30
0.0
 10
240.3490890809167
 20
21.95426079653583
 30
0.0
 10
240.4156049077559
 20
21.94743730976682
 30
0.0
 10
240.5478131035515
 20
21.94891674554342
 30
0.0
 10
240.614126138154
 20
21.95730614348891
 30
0.0
 10
240.7353486103152
 20
21.98741433098355
 30
0.0
 10
240.7914888888962
 20
22.00943604158148
 30
0.0
 10
240.8381752548981
 20
22.03638750699627
 30
0.0
  0
LINE
  5
22A
330
1F
100
AcDbEntity
  8
0
  6
Continuous
 62
     7
370
    15
100
AcDbLine
 10
238.4339906873
 20
23.0056856303
 30
0.0
 11
240.1220573437
 21
22.0311854924
 31
0.0
  0
SPLINE
  5
22B
330
1F
100
AcDbEntity
  8
0
  6
Continuous
 62
     7
370
    15
100
AcDbSpline
210
0.0
220
0.0
230
1.0
 70
     8
 71
     3
 72
     8
 73
     4
 74
     0
 42
0.000000001
 43
0.00000001
 40
0.0
 40
0.0
 40
0.0
 40
0.0
 40
1.0
 40
1.0
 40
1.0
 40
1.0
 10
238.7817682703149
 20
23.72300557736548
 30
0.0
 10
238.6656279798138
 20
23.4839333727485
 30
0.0
 10
238.5497116073914
 20
23.24482519955603
 30
0.0
 10
238.4339906872761
 20
23.00568563032309
 30
0.0
  0
LINE
  5
22C
330
1F
100
AcDbEntity
  8
0
  6
Continuous
 62
     7
370
    15
100
AcDbLine
 10
239.2118590422
 20
23.9712916951
 30
0.0
 11
238.7817682703
 21
23.7230055774
 31
0.0
  0
SPLINE
  5
22D
330
1F
100
AcDbEntity
  8
0
  6
Continuous
 62
     7
370
    15
100
AcDbSpline
210
0.0
220
0.0
230
1.0
 70
     8
 71
     3
 72
    12
 73
     8
 74
     0
 42
0.000000001
 43
0.00000001
 40
0.0
 40
0.0
 40
0.0
 40
0.0
 40
0.25
 40
0.25
 40
0.5
 40
0.5
 40
1.0
 40
1.0
 40
1.0
 40
1.0
 10
239.220168722257
 20
24.30265201597348
 30
0.0
 10
239.2575607598399
 20
24.28106605214704
 30
0.0
 10
239.2877712331574
 20
24.25442519935698
 30
0.0
 10
239.3266706031668
 20
24.19744699605118
 30
0.0
 10
239.3360009690968
 20
24.16655542637436
 30
0.0
 10
239.3323959056828
 20
24.07499908481229
 30
0.0
 10
239.2867908807713
 20
24.01454892470728
 30
0.0
 10
239.2118590422445
 20
23.9712916950818
 30
0.0
  0
LINE
  5
22E
330
1F
100
AcDbEntity
  8
0
  6
Continuous
 62
     7
370
    15
100
AcDbLine
 10
238.4352801951
 20
24.755758518
 30
0.0
 11
239.2201687223
 21
24.302652016
 31
0.0
  0
SPLINE
  5
22F
330
1F
100
AcDbEntity
  8
0
  6
Continuous
 62
     7
370
    15
100
AcDbSpline
210
0.0
220
0.0
230
1.0
 70
     8
 71
     3
 72
    14
 73
    10
 74
     0
 42
0.000000001
 43
0.00000001
 40
0.0
 40
0.0
 40
0.0
 40
0.0
 40
0.25
 40
0.25
 40
0.5
 40
0.5
 40
0.75
 40
0.75
 40
1.0
 40
1.0
 40
1.0
 40
1.0
 10
237.8612850901782
 20
24.75096144187253
 30
0.0
 10
237.8991308879567
 20
24.77280935588413
 30
0.0
 10
237.9434498051047
 20
24.79018200067305
 30
0.0
 10
238.0411513416568
 20
24.81454347536492
 30
0.0
 10
238.0939044732686
 20
24.82125743989648
 30
0.0
 10
238.199857830497
 20
24.82261488948248
 30
0.0
 10
238.2532221167924
 20
24.81723718834339
 30
0.0
 10
238.3523998915641
 20
24.79459624482755
 30
0.0
 10
238.3974067849653
 20
24.77762237234369
 30
0.0
 10
238.43528019514
 20
24.75575851803509
 30
0.0
  0
LINE
  5
230
330
1F
100
AcDbEntity
  8
0
  6
Continuous
 62
     7
370
    15
100
AcDbLine
 10
237.4311943182
 20
24.5026753242
 30
0.0
 11
237.8612850902
 21
24.7509614419
 31
0.0
  0
SPLINE
  5
231
330
1F
100
AcDbEntity
  8
0
  6
Continuous
 62
     7
370
    15
100
AcDbSpline
210
0.0
220
0.0
230
1.0
 70
     8
 71
     3
 72
     8
 73
     4
 74
     0
 42
0.000000001
 43
0.00000001
 40
0.0
 40
0.0
 40
0.0
 40
0.0
 40
1.0
 40
1.0
 40
1.0
 40
1.0
 10
236.1886250897248
 20
24.30190759892904
 30
0.0
 10
236.6028718582365
 20
24.36871186414287
 30
0.0
 10
237.0170642413182
 20
24.43562896157183
 30
0.0
 10
237.4311943182486
 20
24.50267532415617
 30
0.0
  0
LWPOLYLINE
  5
232
330
1F
100
AcDbEntity
  8
0
  6
Continuous
 62
     7
370
    15
100
AcDbPolyline
 90
        9
 70
   128
 43
0.0
 10
243.1964347602
 20
15.7669418121
 10
243.141385077
 20
15.7990016033
 10
242.1841617021
 20
16.4543550936
 10
241.3135853466
 20
17.2441917635
 10
240.535223522
 20
18.1634604482
 10
239.8540540094
 20
19.2062822387
 10
239.2744330254
 20
20.3659880791
 10
238.8000673633
 20
21.6351614162
 10
238.4339906873
 20
23.0056856303
  0
ARC
  5
233
330
1F
100
AcDbEntity
  8
0
  6
Continuous
 62
     7
370
    15
100
AcDbCircle
 10
249.0095423862
 20
26.9605962355
 30
0.0
 40
11.83636427236832
100
AcDbArc
 50
191.9851658964
 51
216.1193032326
  0
SPLINE
  5
234
330
1F
100
AcDbEntity
  8
0
  6
Continuous
 62
     7
370
    15
100
AcDbSpline
210
0.0
220
0.0
230
1.0
 70
     8
 71
     3
 72
    16
 73
    12
 74
     0
 42
0.000000001
 43
0.00000001
 40
0.0
 40
0.0
 40
0.0
 40
0.0
 40
0.0998063265500296
 40
0.2271862491746967
 40
0.3494096326346118
 40
0.4751362342768838
 40
0.5981970422213443
 40
0.7247187871346561
 40
0.8496718216098441
 40
0.9782371749151265
 40
1.0
 40
1.0
 40
1.0
 40
1.0
 10
229.0609406028128
 20
40.47883541540351
 30
0.0
 10
229.0425282038247
 20
40.37849249923154
 30
0.0
 10
229.0006165935189
 20
40.15008482664845
 30
0.0
 10
229.0199419345024
 20
39.75849782081824
 30
0.0
 10
229.1030504082842
 20
39.32323599440679
 30
0.0
 10
229.2523799799851
 20
38.88428084462804
 30
0.0
 10
229.4627734302749
 20
38.44474994627229
 30
0.0
 10
229.7242214048742
 20
38.01901449570617
 30
0.0
 10
230.0334661605521
 20
37.61574419068291
 30
0.0
 10
230.2769036065059
 20
37.33687688246361
 30
0.0
 10
230.4188506874883
 20
37.20830330241834
 30
0.0
 10
230.4394001914323
 20
37.18968986372025
 30
0.0
  0
SPLINE
  5
235
330
1F
100
AcDbEntity
  8
0
  6
Continuous
 62
     7
370
    15
100
AcDbSpline
210
0.0
220
0.0
230
1.0
 70
     8
 71
     3
 72
    14
 73
    10
 74
     0
 42
0.000000001
 43
0.00000001
 40
0.0
 40
0.0
 40
0.0
 40
0.0
 40
0.1984349551681437
 40
0.3815559404217772
 40
0.7010254260618718
 40
0.7810379988113705
 40
0.866348965888911
 40
0.9569819673016223
 40
1.0
 40
1.0
 40
1.0
 40
1.0
 10
227.9538023805442
 20
36.99093229737848
 30
0.0
 10
228.0809054175801
 20
36.80780514039196
 30
0.0
 10
228.3253024734597
 20
36.45568343612091
 30
0.0
 10
228.8438650410723
 20
35.8919160453274
 30
0.0
 10
229.3026986984638
 20
35.52193097517932
 30
0.0
 10
229.6597066448549
 20
35.30614815477604
 30
0.0
 10
229.842335651753
 20
35.21374594075573
 30
0.0
 10
229.9942480730276
 20
35.14961996843805
 30
0.0
 10
230.0805632437388
 20
35.1276954565021
 30
0.0
 10
230.1083453620046
 20
35.12063865086172
 30
0.0
  0
SPLINE
  5
236
330
1F
100
AcDbEntity
  8
0
  6
Continuous
 62
     7
370
    15
100
AcDbSpline
210
0.0
220
0.0
230
1.0
 70
     8
 71
     3
 72
    21
 73
    17
 74
     0
 42
0.000000001
 43
0.00000001
 40
0.0
 40
0.0
 40
0.0
 40
0.0
 40
0.1468738704753985
 40
0.2341787078474397
 40
0.2805914136812467
 40
0.3288141743828176
 40
0.4008227881043497
 40
0.4567721520600218
 40
0.4966433491662723
 40
0.5854733879506809
 40
0.6643573578786274
 40
0.7159176220043684
 40
0.7718815678832044
 40
0.8322621814675493
 40
0.8990517028704456
 40
0.9999999999999999
 40
0.9999999999999999
 40
0.9999999999999999
 40
0.9999999999999999
 10
229.4583716034424
 20
40.32334907971101
 30
0.0
 10
229.2212927250485
 20
40.44169915540022
 30
0.0
 10
228.8432893046952
 20
40.63039894052088
 30
0.0
 10
228.4087476472414
 20
40.61539059060227
 30
0.0
 10
228.1486072485693
 20
40.54997334302965
 30
0.0
 10
227.9256085231765
 20
40.44798791670733
 30
0.0
 10
227.7174114297792
 20
40.28923264472854
 30
0.0
 10
227.5543774004845
 20
40.0910050335185
 30
0.0
 10
227.4067281380701
 20
39.83779587440899
 30
0.0
 10
227.2934606593141
 20
39.50419387445002
 30
0.0
 10
227.2528830438205
 20
39.10037100201033
 30
0.0
 10
227.2741683446426
 20
38.73479986201917
 30
0.0
 10
227.3328845069731
 20
38.39287374503137
 30
0.0
 10
227.4421856954582
 20
38.01165490912882
 30
0.0
 10
227.6322237794444
 20
37.53309510231565
 30
0.0
 10
227.8329818011318
 20
37.19462876226854
 30
0.0
 10
227.9538023805442
 20
36.99093229737848
 30
0.0
  0
SPLINE
  5
237
330
1F
100
AcDbEntity
  8
0
  6
Continuous
 62
     7
370
    15
100
AcDbSpline
210
0.0
220
0.0
230
1.0
 70
     8
 71
     3
 72
     9
 73
     5
 74
     0
 42
0.000000001
 43
0.00000001
 40
0.0
 40
0.0
 40
0.0
 40
0.0
 40
0.1614839644295121
 40
1.0
 40
1.0
 40
1.0
 40
1.0
 10
268.8584347127842
 20
58.11410206946314
 30
0.0
 10
268.8967763394578
 20
58.12269748959795
 30
0.0
 10
269.1342093676163
 20
58.17592519034934
 30
0.0
 10
269.3724244578834
 20
58.22797878428244
 30
0.0
 10
269.5721716309872
 20
58.27162655750443
 30
0.0
  0
LINE
  5
238
330
1F
100
AcDbEntity
  8
0
  6
Continuous
 62
     7
370
    15
100
AcDbLine
 10
269.572171631
 20
58.2716265575
 30
0.0
 11
271.2602382874
 21
57.2971264196
 31
0.0
  0
SPLINE
  5
239
330
1F
100
AcDbEntity
  8
0
  6
Continuous
 62
     7
370
    15
100
AcDbSpline
210
0.0
220
0.0
230
1.0
 70
     8
 71
     3
 72
    14
 73
    10
 74
     0
 42
0.000000001
 43
0.00000001
 40
0.0
 40
0.0
 40
0.0
 40
0.0
 40
0.125
 40
0.125
 40
0.25
 40
0.25
 40
0.5
 40
0.5
 40
1.0
 40
1.0
 40
1.0
 40
1.0
 10
271.2602382874281
 20
57.29712641955977
 30
0.0
 10
271.286997578583
 20
57.28167860959194
 30
0.0
 10
271.3098981950232
 20
57.26385598582718
 30
0.0
 10
271.3459444909471
 20
57.22566894951029
 30
0.0
 10
271.3591757396895
 20
57.20545656296756
 30
0.0
 10
271.385940107382
 20
57.1418005016038
 30
0.0
 10
271.3853884480572
 20
57.09716712054438
 30
0.0
 10
271.3436879145341
 20
56.96959774509656
 30
0.0
 10
271.2637143585378
 20
56.89092905678635
 30
0.0
 10
271.1578277399538
 20
56.82980201300353
 30
0.0
  0
LINE
  5
23A
330
1F
100
AcDbEntity
  8
0
  6
Continuous
 62
     7
370
    15
100
AcDbLine
 10
221.8978377828
 20
42.9790838343
 30
0.0
 11
222.4154930945
 21
42.6802477837
 31
0.0
  0
SPLINE
  5
23B
330
1F
100
AcDbEntity
  8
0
  6
Continuous
 62
     7
370
    15
100
AcDbSpline
210
0.0
220
0.0
230
1.0
 70
     8
 71
     3
 72
    14
 73
    10
 74
     0
 42
0.000000001
 43
0.00000001
 40
0.0
 40
0.0
 40
0.0
 40
0.0
 40
0.0351143882268689
 40
0.2230738111149465
 40
0.4164982551751027
 40
0.604073454499677
 40
0.7972386316913033
 40
0.9821223220430652
 40
1.0
 40
1.0
 40
1.0
 40
1.0
 10
274.7882160751349
 20
50.20900742212189
 30
0.0
 10
274.7919871235226
 20
50.21122777271275
 30
0.0
 10
274.8159437458138
 20
50.22533316065559
 30
0.0
 10
274.8557834653041
 20
50.25444248885847
 30
0.0
 10
274.8979763368158
 20
50.29877417117618
 30
0.0
 10
274.9272051687876
 20
50.34709514704041
 30
0.0
 10
274.9399629699838
 20
50.39666922805996
 30
0.0
 10
274.9425690007358
 20
50.43218869594592
 30
0.0
 10
274.9367047318456
 20
50.44982933301617
 30
0.0
 10
274.9361876732385
 20
50.45138472609291
 30
0.0
  0
SPLINE
  5
23C
330
1F
100
AcDbEntity
  8
0
  6
Continuous
 62
     7
370
    15
100
AcDbSpline
210
0.0
220
0.0
230
1.0
 70
     8
 71
     3
 72
     9
 73
     5
 74
     0
 42
0.000000001
 43
0.00000001
 40
0.0
 40
0.0
 40
0.0
 40
0.0
 40
0.8984449823757941
 40
1.0
 40
1.0
 40
1.0
 40
1.0
 10
219.185383597032
 20
52.66540626421249
 30
0.0
 10
219.2210491345786
 20
52.79220460024086
 30
0.0
 10
219.2607460979388
 20
52.93333548584402
 30
0.0
 10
219.2986803902261
 20
53.04669736214771
 30
0.0
 10
219.302532807948
 20
53.05820982949365
 30
0.0
  0
SPLINE
  5
23D
330
1F
100
AcDbEntity
  8
0
  6
Continuous
 62
     7
370
    15
100
AcDbSpline
210
0.0
220
0.0
230
1.0
 70
     8
 71
     3
 72
    17
 73
    13
 74
     0
 42
0.000000001
 43
0.00000001
 40
0.0
 40
0.0
 40
0.0
 40
0.0
 40
0.0078395072195521
 40
0.0934580141308987
 40
0.1364927162469114
 40
0.1799246021786185
 40
0.2176724344511262
 40
0.2716467002244592
 40
0.3710565424124
 40
0.526991787713103
 40
0.6868778546442879
 40
1.0
 40
1.0
 40
1.0
 40
1.0
 10
219.3432258933779
 20
53.18063183895134
 30
0.0
 10
219.343935405497
 20
53.18278134656018
 30
0.0
 10
219.35239379348
 20
53.20840651748677
 30
0.0
 10
219.3633513019125
 20
53.23229515408469
 30
0.0
 10
219.3744603161286
 20
53.24868818893035
 30
0.0
 10
219.3789581832762
 20
53.24304116523933
 30
0.0
 10
219.3789651977223
 20
53.21825808003024
 30
0.0
 10
219.3728721439686
 20
53.1638345995402
 30
0.0
 10
219.3549573503034
 20
53.05630718225543
 30
0.0
 10
219.3250877606009
 20
52.9034067044884
 30
0.0
 10
219.2758250225098
 20
52.66872291583798
 30
0.0
 10
219.2359296687228
 20
52.49218747152617
 30
0.0
 10
219.2095197281699
 20
52.37532447503191
 30
0.0
  0
SPLINE
  5
23E
330
1F
100
AcDbEntity
  8
0
  6
Continuous
 62
     7
370
    15
100
AcDbSpline
210
0.0
220
0.0
230
1.0
 70
     8
 71
     3
 72
    10
 73
     6
 74
     0
 42
0.000000001
 43
0.00000001
 40
0.0
 40
0.0
 40
0.0
 40
0.0
 40
0.2974943046264956
 40
0.8002369808644825
 40
1.0
 40
1.0
 40
1.0
 40
1.0
 10
219.1177297877944
 20
52.20301382414503
 30
0.0
 10
219.1173339938071
 20
52.24641124847248
 30
0.0
 10
219.1162693381801
 20
52.36314700872408
 30
0.0
 10
219.1454339518807
 20
52.5170912742833
 30
0.0
 10
219.1765387134618
 20
52.63256920614444
 30
0.0
 10
219.185383597032
 20
52.66540626421249
 30
0.0
  0
SPLINE
  5
23F
330
1F
100
AcDbEntity
  8
0
  6
Continuous
 62
     7
370
    15
100
AcDbSpline
210
0.0
220
0.0
230
1.0
 70
     8
 71
     3
 72
     8
 73
     4
 74
     0
 42
0.000000001
 43
0.00000001
 40
0.0
 40
0.0
 40
0.0
 40
0.0
 40
1.0
 40
1.0
 40
1.0
 40
1.0
 10
219.1240891429874
 20
51.76444777948026
 30
0.0
 10
219.1535735233575
 20
51.76657703039101
 30
0.0
 10
219.1841846227952
 20
51.76330142478563
 30
0.0
 10
219.2161795822293
 20
51.7512926878354
 30
0.0
  0
SPLINE
  5
240
330
1F
100
AcDbEntity
  8
0
  6
Continuous
 62
     7
370
    15
100
AcDbSpline
210
0.0
220
0.0
230
1.0
 70
     8
 71
     3
 72
    10
 73
     6
 74
     0
 42
0.000000001
 43
0.00000001
 40
0.0
 40
0.0
 40
0.0
 40
0.0
 40
0.5
 40
0.5
 40
1.0
 40
1.0
 40
1.0
 40
1.0
 10
219.2095197281699
 20
52.37532447503192
 30
0.0
 10
219.1865580408551
 20
52.2748928738818
 30
0.0
 10
219.1687418245392
 20
52.17362196581202
 30
0.0
 10
219.1408648180074
 20
51.96988266214402
 30
0.0
 10
219.1308307028837
 20
51.86740923229591
 30
0.0
 10
219.1240891429886
 20
51.76444777947156
 30
0.0
  0
ARC
  5
241
330
1F
100
AcDbEntity
  8
0
  6
Continuous
 62
     7
370
    15
100
AcDbCircle
 10
220.4178788035
 20
51.4777327187
 30
0.0
 40
1.325178181123514
100
AcDbArc
 50
167.5046939741
 51
232.9212257938
  0
SPLINE
  5
242
330
1F
100
AcDbEntity
  8
0
  6
Continuous
 62
     7
370
    15
100
AcDbSpline
210
0.0
220
0.0
230
1.0
 70
     8
 71
     3
 72
     8
 73
     4
 74
     0
 42
0.000000001
 43
0.00000001
 40
0.0
 40
0.0
 40
0.0
 40
0.0
 40
1.0
 40
1.0
 40
1.0
 40
1.0
 10
219.1240891429896
 20
39.16479140364208
 30
0.0
 10
219.153573523359
 20
39.1324601999192
 30
0.0
 10
219.1841846227961
 20
39.10367870267384
 30
0.0
 10
219.2161795822293
 20
39.08023096120937
 30
0.0
  0
ARC
  5
243
330
1F
100
AcDbEntity
  8
0
  6
Continuous
 62
     7
370
    15
100
AcDbCircle
 10
222.7973245677
 20
39.2587479231
 30
0.0
 40
3.674436870179569
100
AcDbArc
 50
122.2090506494
 51
181.4652310059
  0
LINE
  5
244
330
1F
100
AcDbEntity
  8
0
  6
Continuous
 62
     7
370
    15
100
AcDbLine
 10
220.8388132024
 20
42.3677219572
 30
0.0
 11
221.8978377828
 21
42.9790838343
 31
0.0
  0
SPLINE
  5
245
330
1F
100
AcDbEntity
  8
0
  6
Continuous
 62
     7
370
    15
100
AcDbSpline
210
0.0
220
0.0
230
1.0
 70
     8
 71
     3
 72
     9
 73
     5
 74
     0
 42
0.000000001
 43
0.00000001
 40
0.0
 40
0.0
 40
0.0
 40
0.0
 40
0.5821256499500034
 40
1.0
 40
1.0
 40
1.0
 40
1.0
 10
219.1296822671613
 20
40.28363812302219
 30
0.0
 10
219.1242040392843
 20
40.23709821893654
 30
0.0
 10
219.1147933083236
 20
40.15715000828879
 30
0.0
 10
219.1143719837286
 20
40.07738322231558
 30
0.0
 10
219.1141959229873
 20
40.04405072847145
 30
0.0
  0
ARC
  5
246
330
1F
100
AcDbEntity
  8
0
  6
Continuous
 62
     7
370
    15
100
AcDbCircle
 10
221.627105937
 20
39.9107695482
 30
0.0
 40
2.525105138571706
100
AcDbArc
 50
122.9022494104
 51
171.5083906235
  0
LINE
  5
247
330
1F
100
AcDbEntity
  8
0
  6
Continuous
 62
     7
370
    15
100
AcDbLine
 10
220.8388132024
 20
42.3677219572
 30
0.0
 11
220.2554501079
 21
42.0308441335
 31
0.0
  0
SPLINE
  5
248
330
1F
100
AcDbEntity
  8
0
  6
Continuous
 62
     7
370
    15
100
AcDbSpline
210
0.0
220
0.0
230
1.0
 70
     8
 71
     3
 72
    10
 73
     6
 74
     0
 42
0.000000001
 43
0.00000001
 40
0.0
 40
0.0
 40
0.0
 40
0.0
 40
0.5
 40
0.5
 40
1.0
 40
1.0
 40
1.0
 40
1.0
 10
219.2095197281699
 20
38.95900975132681
 30
0.0
 10
219.1865580408555
 20
38.99814376467803
 30
0.0
 10
219.1687418245397
 20
39.03239405616409
 30
0.0
 10
219.1408648180081
 20
39.09910719532866
 30
0.0
 10
219.1308307028844
 20
39.13148835608491
 30
0.0
 10
219.1240891429892
 20
39.16479140364198
 30
0.0
  0
LWPOLYLINE
  5
249
330
1F
100
AcDbEntity
  8
0
  6
Continuous
 62
     7
370
     0
100
AcDbPolyline
 90
        7
 70
   128
 43
0.0
 10
273.9287786555
 20
32.0675806856
 10
274.2050286269
 20
31.479438141
 10
274.3916634068
 20
30.8644848256
 10
274.4677593138
 20
30.2765058213
 10
274.4288939304
 20
29.7496723305
 10
274.2773259716
 20
29.3146020009
 10
274.021864016
 20
28.9965795386
  0
LWPOLYLINE
  5
24A
330
1F
100
AcDbEntity
  8
0
  6
Continuous
 62
     7
370
     0
100
AcDbPolyline
 90
        6
 70
   128
 43
0.0
 10
273.7586795123
 20
29.1220901659
 10
273.429846003
 20
28.9514073743
 10
273.033703002
 20
28.9253414634
 10
272.5951416309
 20
29.0455302504
 10
272.1417183136
 20
29.3044218317
 10
271.795335612
 20
29.5931689767
  0
LWPOLYLINE
  5
24B
330
1F
100
AcDbEntity
  8
0
  6
Continuous
 62
     7
370
     0
100
AcDbPolyline
 90
        7
 70
   128
 43
0.0
 10
273.7089651562
 20
31.8633254285
 10
273.8805917729
 20
31.5032619345
 10
274.0758942501
 20
30.9179714129
 10
274.1632936483
 20
30.353731321
 10
274.1372983417
 20
29.8459949389
 10
273.9995417111
 20
29.4266652109
 10
273.7586795123
 20
29.1220901659
  0
LWPOLYLINE
  5
24C
330
1F
100
AcDbEntity
  8
0
  6
Continuous
 62
     7
370
     0
100
AcDbPolyline
 90
        9
 70
   128
 43
0.0
 10
247.6982642858
 20
29.262994906
 10
247.7536062016
 20
28.0144490518
 10
247.9190819364
 20
26.8422082232
 10
248.193046918
 20
25.7579226763
 10
248.5727783591
 20
24.7723685279
 10
249.0545023183
 20
23.895340658
 10
249.6334312063
 20
23.1355553634
 10
250.3038113679
 20
22.500563732
 10
250.96083607
 20
22.0519392041
  0
LWPOLYLINE
  5
24D
330
1F
100
AcDbEntity
  8
0
  6
Continuous
 62
     7
370
     0
100
AcDbPolyline
 90
       25
 70
   128
 43
0.0
 10
266.709556109
 20
49.3324783691
 10
266.2043461382
 20
49.5889030555
 10
265.336309558
 20
49.8871648714
 10
264.4036619913
 20
50.0443508364
 10
263.4156725088
 20
50.0588987657
 10
262.3821601937
 20
49.9306640755
 10
261.3133965558
 20
49.6609212197
 10
260.2200034483
 20
49.2523510241
 10
259.1128475032
 20
48.7090140427
 10
258.0029321335
 20
48.0363102027
 10
256.901288177
 20
47.240925137
 10
255.8188642661
 20
46.3307637397
 10
254.766418016
 20
45.3148716036
 10
253.7544091104
 20
44.2033451214
 10
252.7928953484
 20
43.0072311425
 10
251.8914326859
 20
41.7384171849
 10
251.0589802636
 20
40.409513292
 10
250.3038113679
 20
39.0337267075
 10
249.6334312063
 20
37.6247306167
 10
249.0545023183
 20
36.1965282557
 10
248.5727783591
 20
34.7633137412
 10
248.193046918
 20
33.3393310031
 10
247.9190819364
 20
31.9387322214
 10
247.7536062016
 20
30.5754371761
 10
247.6982642858
 20
29.262994906
  0
LWPOLYLINE
  5
24E
330
1F
100
AcDbEntity
  8
0
  6
Continuous
 62
     7
370
     0
100
AcDbPolyline
 90
       50
 70
   128
 43
0.0
 10
275.8234365075
 20
33.6422440562
 10
274.9644198297
 20
33.0826582903
 10
274.119508182
 20
32.4048889203
 10
273.3025749904
 20
31.6200649008
 10
272.5270342751
 20
30.7410730202
 10
271.8056203934
 20
29.7823463011
 10
271.1501789412
 20
28.7596270096
 10
270.571472249
 20
27.6897081682
 10
270.0790026647
 20
26.5901578147
 10
269.6808565254
 20
25.4790305356
 10
269.3835713795
 20
24.3745710101
 10
269.192028641
 20
23.2949144329
 10
269.1093734363
 20
22.2577887353
 10
269.1369629616
 20
21.2802234925
 10
269.2743441977
 20
20.3782702988
 10
269.5192613484
 20
19.5667392008
 10
269.867692881
 20
18.8589555165
 10
270.3139175593
 20
18.2665410346
 10
270.8506083864
 20
17.7992231844
 10
271.4689529137
 20
17.4646753121
 10
272.1587979413
 20
17.2683906846
 10
272.9088162328
 20
17.21359229
 10
273.7066925086
 20
17.3011799164
 10
274.5393256624
 20
17.5297153774
 10
275.3930438808
 20
17.895446127
 10
276.2538291342
 20
18.3923668765
 10
277.1075473525
 20
19.012318201
 10
277.9401805063
 20
19.7451205167
 10
278.7380567821
 20
20.5787412299
 10
279.4880750737
 20
21.4994923116
 10
280.1779201012
 20
22.4922550544
 10
280.7962646286
 20
23.5407283217
 10
281.3329554557
 20
24.6276962112
 10
281.7791801339
 20
25.7353107403
 10
282.1276116665
 20
26.8453849091
 10
282.3725288173
 20
27.9396913304
 10
282.5099100533
 20
29.0002615229
 10
282.5374995787
 20
30.0096809536
 10
282.454844374
 20
30.9513749832
 10
282.2633016355
 20
31.8098810218
 10
281.9660164896
 20
32.571102424
 10
281.5678703502
 20
33.2225399553
 10
281.075400766
 20
33.7534970297
 10
280.4966940738
 20
34.1552553464
 10
279.8412526216
 20
34.4212180452
 10
279.1198387398
 20
34.5470180259
 10
278.3442980246
 20
34.5305896561
 10
277.5273648329
 20
34.3722026894
 10
276.6824531852
 20
34.0744578354
 10
275.8234365075
 20
33.6422440562
  0
LWPOLYLINE
  5
24F
330
1F
100
AcDbEntity
  8
0
  6
Continuous
 62
     7
370
     0
100
AcDbPolyline
 90
       26
 70
   128
 43
0.0
 10
240.8381752549
 20
31.0183364377
 10
241.210849279
 20
32.8101857762
 10
241.6934043313
 20
34.6252159729
 10
242.2826392135
 20
36.4513863882
 10
242.9746450292
 20
38.2765824798
 10
243.764831115
 20
40.0886961688
 10
244.6479554942
 20
41.8757061632
 10
245.6181596513
 20
43.6257577049
 10
246.6690073965
 20
45.327241213
 10
247.7935275625
 20
46.9688692994
 10
248.9842602503
 20
48.5397516482
 10
250.2333063165
 20
50.02946726
 10
251.5323797758
 20
51.4281335835
 10
252.8728627684
 20
52.7264720747
 10
254.2458627302
 20
53.9158697497
 10
255.6422713838
 20
54.9884363215
 10
257.0528251626
 20
55.9370565435
 10
258.4681666629
 20
56.7554374104
 10
259.8789067203
 20
57.4381499056
 10
261.2756866954
 20
57.9806650161
 10
262.6492405581
 20
58.3793837776
 10
263.9904563569
 20
58.6316611492
 10
265.290436666
 20
58.7358235605
 10
266.5405576099
 20
58.6911800135
 10
267.7325260725
 20
58.498026667
 10
268.8584347128
 20
58.1576448713
  0
LWPOLYLINE
  5
250
330
1F
100
AcDbEntity
  8
0
  6
Continuous
 62
     7
370
     0
100
AcDbPolyline
 90
       26
 70
   128
 43
0.0
 10
240.1220573437
 20
31.0131344231
 10
240.4934360919
 20
32.8290614189
 10
240.9758100156
 20
34.6691155324
 10
241.5660161533
 20
36.5212313927
 10
242.2601844798
 20
38.3732645387
 10
243.0537632818
 20
40.2130710521
 10
243.9415490044
 20
42.0285871853
 10
244.9177203709
 20
43.8079084645
 10
245.9758765532
 20
45.5393677483
 10
247.1090791431
 20
47.2116117301
 10
248.3098976471
 20
48.813675382
 10
249.5704582094
 20
50.3350538542
 10
250.882495241
 20
51.7657713554
 10
252.237405618
 20
53.0964465649
 10
253.6263050927
 20
54.3183541468
 10
255.0400865483
 20
55.4234819626
 10
256.4694797152
 20
56.4045836074
 10
257.9051119565
 20
57.2552259251
 10
259.3375697252
 20
57.9698311909
 10
260.7574602898
 20
58.5437136853
 10
262.1554733226
 20
58.9731104182
 10
263.5224419486
 20
59.2552058034
 10
264.8494028533
 20
59.3881501206
 10
266.1276550559
 20
59.3710716441
 10
267.3488169618
 20
59.2040823587
 10
268.5048813222
 20
58.8882772255
  0
LWPOLYLINE
  5
251
330
1F
100
AcDbEntity
  8
0
  6
Continuous
 62
     7
370
     0
100
AcDbPolyline
 90
       19
 70
   128
 43
0.0
 10
259.3331759986
 20
17.2186902419
 10
257.955490542
 20
16.343575316
 10
256.5708929596
 20
15.5913710838
 10
255.1939436713
 20
14.970784134
 10
253.8333922095
 20
14.485757855
 10
252.4978839102
 20
14.1393742433
 10
251.1959049777
 20
13.9338343203
 10
249.9357285614
 20
13.8704441458
 10
248.7253621851
 20
13.9496065192
 10
247.5724968655
 20
14.1708184201
 10
246.4844582409
 20
14.5326742043
 10
245.4681600222
 20
15.0328745359
 10
244.5300600611
 20
15.6682409978
 10
243.6761193149
 20
16.4347362887
 10
242.9117639691
 20
17.3274898765
 10
242.2418509577
 20
18.3408289478
 10
241.6706371011
 20
19.4683144543
 10
241.2017520566
 20
20.7027820282
 10
240.8381752549
 20
22.036387507
  0
ARC
  5
252
330
1F
100
AcDbEntity
  8
0
  6
Continuous
 62
     7
370
     0
100
AcDbCircle
 10
263.7434524948
 20
48.4585437175
 30
0.0
 40
11.18261712331668
100
AcDbArc
 50
9.005794381
 51
48.4688729198
  0
LWPOLYLINE
  5
253
330
1F
100
AcDbEntity
  8
0
  6
Continuous
 62
     7
370
     0
100
AcDbPolyline
 90
       31
 70
   128
 43
0.0
 10
245.5769439422
 20
29.262994906
 10
245.6321755831
 20
30.6337750974
 10
245.7973703195
 20
32.0559103864
 10
246.0710321222
 20
33.5165216955
 10
246.4506826676
 20
35.0023815025
 10
246.9328837817
 20
36.500033631
 10
247.5132685763
 20
37.9959151112
 10
248.186580997
 20
39.476479009
 10
248.9467234221
 20
40.9283171084
 10
249.7868118843
 20
42.3382813386
 10
250.6992384122
 20
43.6936028454
 10
251.67573993
 20
44.9820076272
 10
252.7074730886
 20
46.1918276909
 10
253.7850943529
 20
47.3121067186
 10
254.8988446178
 20
48.33269929
 10
256.0386375884
 20
49.2443627606
 10
257.1941511231
 20
50.038840965
 10
258.3549207123
 20
50.7089389854
 10
259.510434247
 20
51.2485883105
 10
260.6502272176
 20
51.6529017924
 10
261.7639774825
 20
51.9182179055
 10
262.8415987468
 20
52.0421339061
 10
263.8733319054
 20
52.0235275917
 10
264.8498334232
 20
51.8625674639
 10
265.7622599511
 20
51.5607112027
 10
266.6023484132
 20
51.1206924649
 10
267.3624908384
 20
50.5464961285
 10
268.0358032591
 20
49.8433222045
 10
268.6161880537
 20
49.0175387446
 10
269.0983891677
 20
48.0766241719
 10
269.1669936171
 20
47.9138298924
  0
LWPOLYLINE
  5
254
330
1F
100
AcDbEntity
  8
0
  6
Continuous
 62
     7
370
     0
100
AcDbPolyline
 90
       14
 70
   128
 43
0.0
 10
253.4182735781
 20
20.6332907274
 10
252.7074730886
 20
20.5668958348
 10
251.67573993
 20
20.5855021492
 10
250.6992384122
 20
20.746462277
 10
249.7868118843
 20
21.0483185382
 10
248.9467234221
 20
21.488337276
 10
248.186580997
 20
22.0625336123
 10
247.5132685763
 20
22.7657075364
 10
246.9328837817
 20
23.5914909963
 10
246.4506826676
 20
24.5324055689
 10
246.0710321222
 20
25.5799301864
 10
245.7973703195
 20
26.7245783036
 10
245.6321755831
 20
27.9559838097
 10
245.5769439422
 20
29.262994906
  0
LWPOLYLINE
  5
255
330
1F
100
AcDbEntity
  8
0
  6
Continuous
 62
     7
370
     0
100
AcDbPolyline
 90
       25
 70
   128
 43
0.0
 10
270.9960040572
 20
18.2800696413
 10
271.5957491057
 20
18.0224699863
 10
272.2879026015
 20
17.8879843428
 10
273.0345006662
 20
17.8938239162
 10
273.8227687998
 20
18.0398887899
 10
274.6392195161
 20
18.3236797532
 10
275.4698831169
 20
18.7403410643
 10
276.3005467176
 20
19.2827435324
 10
277.1169974339
 20
19.9416065011
 10
277.9052655675
 20
20.7056566422
 10
278.6518636322
 20
21.561820846
 10
279.3440171281
 20
22.4954499056
 10
279.9698831169
 20
23.4905691688
 10
280.5187528581
 20
24.5301518694
 10
280.9812350381
 20
25.5964104589
 10
281.3494164588
 20
26.6711009573
 10
281.6169974339
 20
27.7358351123
 10
281.7793995787
 20
28.7723950272
 10
281.8338441476
 20
29.7630448745
 10
281.7793995787
 20
30.6908343606
 10
281.6169974339
 20
31.5398887502
 10
281.3494164588
 20
32.2956804874
 10
280.9812350381
 20
32.9452777659
 10
280.5187528581
 20
33.4775657961
 10
279.9916597373
 20
33.8707392353
  0
LWPOLYLINE
  5
256
330
1F
100
AcDbEntity
  8
0
  6
Continuous
 62
     7
370
     0
100
AcDbPolyline
 90
       24
 70
   128
 43
0.0
 10
229.9852394171
 20
31.8755008638
 10
230.0398972557
 20
33.5134853846
 10
230.2035337877
 20
35.2044777833
 10
230.4751401396
 20
36.9380525294
 10
230.8530417678
 20
38.7035215583
 10
231.3349087832
 20
40.4900001662
 10
231.9177703153
 20
42.2864741186
 10
232.598032829
 20
44.081867556
 10
233.3715022797
 20
45.8651112808
 10
234.2334099709
 20
47.6252110027
 10
235.1784419553
 20
49.3513151214
 10
236.2007717963
 20
51.0327816311
 10
237.2940964905
 20
52.6592437316
 10
238.4516753277
 20
54.2206737433
 10
239.6663714492
 20
55.7074449308
 10
240.9306958497
 20
57.1103908554
 10
242.2368535488
 20
58.4208618889
 10
243.5767916498
 20
59.6307785417
 10
244.9422489889
 20
60.7326812752
 10
246.3248070675
 20
61.7197764926
 10
247.7159419553
 20
62.5859784238
 10
249.1070768431
 20
63.3259466458
 10
250.4896349217
 20
63.9351190083
 10
251.3574378333
 20
64.2517032338
  0
ARC
  5
257
330
1F
100
AcDbEntity
  8
0
  6
Continuous
 62
     7
370
     0
100
AcDbCircle
 10
249.8362585217
 20
31.7491294395
 30
0.0
 40
19.85142134034137
100
AcDbArc
 50
179.6352604662
 51
191.5553814892
  0
LWPOLYLINE
  5
258
330
1F
100
AcDbEntity
  8
0
  6
Continuous
 62
     7
370
     0
100
AcDbPolyline
 90
       22
 70
   128
 43
0.0
 10
237.8612850902
 20
33.7329103726
 10
238.2375690503
 20
35.4683602957
 10
238.7211946305
 20
37.224685174
 10
239.308854708
 20
38.9898749273
 10
239.9965307525
 20
40.7518588556
 10
240.7795203057
 20
42.4985881811
 10
241.6524691378
 20
44.2181184397
 10
242.60940786
 20
45.8986911597
 10
243.6437927454
 20
47.5288142683
 10
244.7485504752
 20
49.097340677
 10
245.9161265081
 20
50.5935445066
 10
247.1385367392
 20
52.0071944336
 10
248.4074220974
 20
53.3286236537
 10
249.7141057055
 20
54.5487959851
 10
251.0496522149
 20
55.6593676595
 10
252.4049289073
 20
56.6527443788
 10
253.7706681452
 20
57.5221332458
 10
255.1375307467
 20
58.2615892158
 10
256.496169848
 20
58.8660557497
 10
257.8372948189
 20
59.3313993914
 10
259.1517347945
 20
59.6544380335
 10
259.8154953118
 20
59.7645516763
  0
LINE
  5
259
330
1F
100
AcDbEntity
  8
0
  6
Continuous
 62
     7
370
     0
100
AcDbLine
 10
231.5267219756
 20
31.397962566
 30
0.0
 11
233.7329053573
 21
32.6715651229
 31
0.0
  0
LWPOLYLINE
  5
25A
330
1F
100
AcDbEntity
  8
0
  6
Continuous
 62
     7
370
     0
100
AcDbPolyline
 90
       21
 70
   128
 43
0.0
 10
219.2161795822
 20
51.7512926878
 10
219.778061312
 20
53.2755561564
 10
220.434487544
 20
54.7885906043
 10
221.1797255758
 20
56.2771823974
 10
222.0072670938
 20
57.7283313638
 10
222.9098850113
 20
59.1293643275
 10
223.8796965843
 20
60.4680457857
 10
224.9082322531
 20
61.7326847637
 10
225.9865096088
 20
62.9122369148
 10
227.1051118382
 20
63.9964009727
 10
228.2542699628
 20
64.9757087143
 10
229.4239481535
 20
65.8416076482
 10
230.6039313751
 20
66.5865357046
 10
231.7839145967
 20
67.2039872768
 10
232.9535927874
 20
67.6885700361
 10
234.102750912
 20
68.0360520236
 10
235.2213531414
 20
68.2433986092
 10
236.2996304971
 20
68.3087989934
 10
237.3281661659
 20
68.2316820215
 10
238.2979777389
 20
68.0127211716
 10
239.1462040724
 20
67.680353365
  0
ARC
  5
25B
330
1F
100
AcDbEntity
  8
0
  6
Continuous
 62
     7
370
     0
100
AcDbCircle
 10
225.0310861883
 20
42.1561364849
 30
0.0
 40
6.578323010298121
100
AcDbArc
 50
207.877453982
 51
236.0300949094
  0
ARC
  5
25C
330
1F
100
AcDbEntity
  8
0
  6
Continuous
 62
     7
370
     0
100
AcDbCircle
 10
252.203857973
 20
24.4071337913
 30
0.0
 40
12.31320578748637
100
AcDbArc
 50
191.1255396316
 51
217.0387946515
  0
LINE
  5
25D
330
1F
100
AcDbEntity
  8
0
  6
Continuous
 62
     7
370
     0
100
AcDbLine
 10
235.4905079269
 20
24.7049220586
 30
0.0
 11
237.2684392633
 21
25.731299972
 31
0.0
  0
LINE
  5
25E
330
1F
100
AcDbEntity
  8
0
  6
Continuous
 62
     7
370
     0
100
AcDbLine
 10
231.5267219756
 20
30.5814217541
 30
0.0
 11
233.7329053573
 21
31.855024311
 31
0.0
  0
LINE
  5
25F
330
1F
100
AcDbEntity
  8
0
  6
Continuous
 62
     7
370
     0
100
AcDbLine
 10
239.286988332
 20
24.0389325576
 30
0.0
 11
239.2201687223
 21
24.302652016
 31
0.0
  0
LINE
  5
260
330
1F
100
AcDbEntity
  8
0
  6
Continuous
 62
     7
370
     0
100
AcDbLine
 10
238.7495441415
 20
23.6605790656
 30
0.0
 11
238.4352801951
 21
24.755758518
 31
0.0
  0
LWPOLYLINE
  5
261
330
1F
100
AcDbEntity
  8
0
  6
Continuous
 62
     7
370
     0
100
AcDbPolyline
 90
        3
 70
   128
 43
0.0
 10
238.479294437
 20
22.805163094
 10
238.2311299532
 20
23.4687187359
 10
237.8612850902
 20
24.7509614419
  0
LINE
  5
262
330
1F
100
AcDbEntity
  8
0
  6
Continuous
 62
     7
370
     0
100
AcDbLine
 10
266.5415348657
 20
60.0211759219
 30
0.0
 11
266.4647191514
 21
59.976831154
 31
0.0
  0
ARC
  5
263
330
1F
100
AcDbEntity
  8
0
  6
Continuous
 62
     7
370
     0
100
AcDbCircle
 10
225.1784132212
 20
49.2529988335
 30
0.0
 40
1.992904482253248
100
AcDbArc
 50
160.3929405663
 51
205.7634223581
  0
ARC
  5
264
330
1F
100
AcDbEntity
  8
0
  6
Continuous
 62
     7
370
     0
100
AcDbCircle
 10
223.0258568257
 20
49.3430747004
 30
0.0
 40
0.6407872170831513
100
AcDbArc
 50
30.3168764955
 51
64.5651423114
  0
LINE
  5
265
330
1F
100
AcDbEntity
  8
0
  6
Continuous
 62
     7
370
     0
100
AcDbLine
 10
223.3010650842
 20
49.9217530843
 30
0.0
 11
223.5534550415
 21
50.8682086671
 31
0.0
  0
LINE
  5
266
330
1F
100
AcDbEntity
  8
0
  6
Continuous
 62
     7
370
     0
100
AcDbLine
 10
223.3010650842
 20
49.9217530843
 30
0.0
 11
220.9893066052
 21
51.2563028476
 31
0.0
  0
LINE
  5
267
330
1F
100
AcDbEntity
  8
0
  6
Continuous
 62
     7
370
     0
100
AcDbLine
 10
219.2095197282
 20
52.375324475
 30
0.0
 11
219.185383597
 21
52.6654062642
 31
0.0
  0
LINE
  5
268
330
1F
100
AcDbEntity
  8
0
  6
Continuous
 62
     7
370
     0
100
AcDbLine
 10
223.200775752
 20
37.155625213
 30
0.0
 11
223.1970144304
 21
37.0226862108
 31
0.0
  0
LINE
  5
269
330
1F
100
AcDbEntity
  8
0
  6
Continuous
 62
     7
370
     0
100
AcDbLine
 10
222.4012336463
 20
41.4657558338
 30
0.0
 11
220.8388132024
 21
42.3677219572
 31
0.0
  0
LINE
  5
26A
330
1F
100
AcDbEntity
  8
0
  6
Continuous
 62
     7
370
     0
100
AcDbLine
 10
223.3010650842
 20
36.4006061764
 30
0.0
 11
220.9893066052
 21
37.7351559397
 31
0.0
  0
LINE
  5
26B
330
1F
100
AcDbEntity
  8
0
  6
Continuous
 62
     7
370
     0
100
AcDbLine
 10
223.3010650842
 20
36.4006061764
 30
0.0
 11
223.5534550415
 21
35.7455538356
 31
0.0
  0
OLE2FRAME
  5
26C
330
1F
100
AcDbEntity
  8
0
100
AcDbOle2Frame
 70
     2
  3
Paintbrush-Bild
 10
13.8511154363
 20
38.264191557
 30
0.0
 11
51.6290888628
 21
31.9806341108
 31
0.0
 71
     2
 72
     0
 73
     1
 90
    12928
310
80552BED0767C5B32B40DDAF6807D121434000000000000000006FFBDDFB85D0
310
4940DDAF6807D121434000000000000000006FFBDDFB85D04940416F4BD60AFB
310
3F4000000000000000002BED0767C5B32B40416F4BD60AFB3F40000000000000
310
0000000000000100000000010000010000000100000000000100000000320000
310
D0CF11E0A1B11AE1000000000000000000000000000000003E000300FEFF0900
310
0600000000000000000000000100000001000000000000000010000002000000
310
01000000FEFFFFFF0000000000000000FFFFFFFFFFFFFFFFFFFFFFFFFFFFFFFF
310
FFFFFFFFFFFFFFFFFFFFFFFFFFFFFFFFFFFFFFFFFFFFFFFFFFFFFFFFFFFFFFFF
310
FFFFFFFFFFFFFFFFFFFFFFFFFFFFFFFFFFFFFFFFFFFFFFFFFFFFFFFFFFFFFFFF
310
FFFFFFFFFFFFFFFFFFFFFFFFFFFFFFFFFFFFFFFFFFFFFFFFFFFFFFFFFFFFFFFF
310
FFFFFFFFFFFFFFFFFFFFFFFFFFFFFFFFFFFFFFFFFFFFFFFFFFFFFFFFFFFFFFFF
310
FFFFFFFFFFFFFFFFFFFFFFFFFFFFFFFFFFFFFFFFFFFFFFFFFFFFFFFFFFFFFFFF
310
FFFFFFFFFFFFFFFFFFFFFFFFFFFFFFFFFFFFFFFFFFFFFFFFFFFFFFFFFFFFFFFF
310
FFFFFFFFFFFFFFFFFFFFFFFFFFFFFFFFFFFFFFFFFFFFFFFFFFFFFFFFFFFFFFFF
310
FFFFFFFFFFFFFFFFFFFFFFFFFFFFFFFFFFFFFFFFFFFFFFFFFFFFFFFFFFFFFFFF
310
FFFFFFFFFFFFFFFFFFFFFFFFFFFFFFFFFFFFFFFFFFFFFFFFFFFFFFFFFFFFFFFF
310
FFFFFFFFFFFFFFFFFFFFFFFFFFFFFFFFFFFFFFFFFFFFFFFFFFFFFFFFFFFFFFFF
310
FFFFFFFFFFFFFFFFFFFFFFFFFFFFFFFFFFFFFFFFFFFFFFFFFFFFFFFFFFFFFFFF
310
FFFFFFFFFFFFFFFFFFFFFFFFFFFFFFFFFFFFFFFFFFFFFFFFFFFFFFFFFFFFFFFF
310
FFFFFFFFFFFFFFFFFFFFFFFFFFFFFFFFFFFFFFFFFFFFFFFFFFFFFFFFFFFFFFFF
310
FDFFFFFFFEFFFFFFFEFFFFFFFEFFFFFF05000000060000000700000008000000
310
090000000A0000000B0000000C0000000D0000000E0000000F00000010000000
310
11000000120000001300000014000000150000001600000017000000FEFFFFFF
310
FFFFFFFFFFFFFFFFFFFFFFFFFFFFFFFFFFFFFFFFFFFFFFFFFFFFFFFFFFFFFFFF
310
FFFFFFFFFFFFFFFFFFFFFFFFFFFFFFFFFFFFFFFFFFFFFFFFFFFFFFFFFFFFFFFF
310
FFFFFFFFFFFFFFFFFFFFFFFFFFFFFFFFFFFFFFFFFFFFFFFFFFFFFFFFFFFFFFFF
310
FFFFFFFFFFFFFFFFFFFFFFFFFFFFFFFFFFFFFFFFFFFFFFFFFFFFFFFFFFFFFFFF
310
FFFFFFFFFFFFFFFFFFFFFFFFFFFFFFFFFFFFFFFFFFFFFFFFFFFFFFFFFFFFFFFF
310
FFFFFFFFFFFFFFFFFFFFFFFFFFFFFFFFFFFFFFFFFFFFFFFFFFFFFFFFFFFFFFFF
310
FFFFFFFFFFFFFFFFFFFFFFFFFFFFFFFFFFFFFFFFFFFFFFFFFFFFFFFFFFFFFFFF
310
FFFFFFFFFFFFFFFFFFFFFFFFFFFFFFFFFFFFFFFFFFFFFFFFFFFFFFFFFFFFFFFF
310
FFFFFFFFFFFFFFFFFFFFFFFFFFFFFFFFFFFFFFFFFFFFFFFFFFFFFFFFFFFFFFFF
310
FFFFFFFFFFFFFFFFFFFFFFFFFFFFFFFFFFFFFFFFFFFFFFFFFFFFFFFFFFFFFFFF
310
FFFFFFFFFFFFFFFFFFFFFFFFFFFFFFFFFFFFFFFFFFFFFFFFFFFFFFFFFFFFFFFF
310
FFFFFFFFFFFFFFFFFFFFFFFFFFFFFFFFFFFFFFFFFFFFFFFFFFFFFFFFFFFFFFFF
310
FFFFFFFFFFFFFFFFFFFFFFFFFFFFFFFFFFFFFFFFFFFFFFFFFFFFFFFFFFFFFFFF
310
52006F006F007400200045006E00740072007900000000000000000000000000
310
0000000000000000000000000000000000000000000000000000000000000000
310
16000500FFFFFFFFFFFFFFFF020000000A00030000000000C000000000000046
310
000000000000000000000000703946A52B25D20103000000C000000000000000
310
01004F006C006500000000000000000000000000000000000000000000000000
310
0000000000000000000000000000000000000000000000000000000000000000
310
0A000200FFFFFFFFFFFFFFFFFFFFFFFF00000000000000000000000000000000
310
0000000000000000000000000000000000000000000000001400000000000000
310
010043006F006D0070004F0062006A0000000000000000000000000000000000
310
0000000000000000000000000000000000000000000000000000000000000000
310
120002010100000003000000FFFFFFFF00000000000000000000000000000000
310
0000000000000000000000000000000000000000010000004D00000000000000
310
01004F006C006500310030004E00610074006900760065000000000000000000
310
0000000000000000000000000000000000000000000000000000000000000000
310
1A000200FFFFFFFFFFFFFFFFFFFFFFFF00000000000000000000000000000000
310
0000000000000000000000000000000000000000040000002426000000000000
310
FEFFFFFF02000000FEFFFFFFFFFFFFFFFFFFFFFFFFFFFFFFFFFFFFFFFFFFFFFF
310
FFFFFFFFFFFFFFFFFFFFFFFFFFFFFFFFFFFFFFFFFFFFFFFFFFFFFFFFFFFFFFFF
310
FFFFFFFFFFFFFFFFFFFFFFFFFFFFFFFFFFFFFFFFFFFFFFFFFFFFFFFFFFFFFFFF
310
FFFFFFFFFFFFFFFFFFFFFFFFFFFFFFFFFFFFFFFFFFFFFFFFFFFFFFFFFFFFFFFF
310
FFFFFFFFFFFFFFFFFFFFFFFFFFFFFFFFFFFFFFFFFFFFFFFFFFFFFFFFFFFFFFFF
310
FFFFFFFFFFFFFFFFFFFFFFFFFFFFFFFFFFFFFFFFFFFFFFFFFFFFFFFFFFFFFFFF
310
FFFFFFFFFFFFFFFFFFFFFFFFFFFFFFFFFFFFFFFFFFFFFFFFFFFFFFFFFFFFFFFF
310
FFFFFFFFFFFFFFFFFFFFFFFFFFFFFFFFFFFFFFFFFFFFFFFFFFFFFFFFFFFFFFFF
310
FFFFFFFFFFFFFFFFFFFFFFFFFFFFFFFFFFFFFFFFFFFFFFFFFFFFFFFFFFFFFFFF
310
FFFFFFFFFFFFFFFFFFFFFFFFFFFFFFFFFFFFFFFFFFFFFFFFFFFFFFFFFFFFFFFF
310
FFFFFFFFFFFFFFFFFFFFFFFFFFFFFFFFFFFFFFFFFFFFFFFFFFFFFFFFFFFFFFFF
310
FFFFFFFFFFFFFFFFFFFFFFFFFFFFFFFFFFFFFFFFFFFFFFFFFFFFFFFFFFFFFFFF
310
FFFFFFFFFFFFFFFFFFFFFFFFFFFFFFFFFFFFFFFFFFFFFFFFFFFFFFFFFFFFFFFF
310
FFFFFFFFFFFFFFFFFFFFFFFFFFFFFFFFFFFFFFFFFFFFFFFFFFFFFFFFFFFFFFFF
310
FFFFFFFFFFFFFFFFFFFFFFFFFFFFFFFFFFFFFFFFFFFFFFFFFFFFFFFFFFFFFFFF
310
FFFFFFFFFFFFFFFFFFFFFFFFFFFFFFFFFFFFFFFFFFFFFFFFFFFFFFFFFFFFFFFF
310
0100000200000000000000000000000000000000000000000000000000000000
310
0000000000000000000000000000000000000000000000000000000000000000
310
0100FEFF030A0000FFFFFFFF0A00030000000000C00000000000004607000000
310
5042727573680007000000504272757368000700000050427275736800F439B2
310
7100000000000000000000000000000000000000000000000000000000000000
310
0000000000000000000000000000000000000000000000000000000000000000
310
0000000000000000000000000000000000000000000000000000000000000000
310
0000000000000000000000000000000000000000000000000000000000000000
310
0000000000000000000000000000000000000000000000000000000000000000
310
0000000000000000000000000000000000000000000000000000000000000000
310
0000000000000000000000000000000000000000000000000000000000000000
310
0000000000000000000000000000000000000000000000000000000000000000
310
0000000000000000000000000000000000000000000000000000000000000000
310
0000000000000000000000000000000000000000000000000000000000000000
310
0000000000000000000000000000000000000000000000000000000000000000
310
0000000000000000000000000000000000000000000000000000000000000000
310
20260000424D0E260000000000003E00000028000000B40200006E0000000100
310
01000000000000000000130B0000130B00000200000002000000000000FFFFFF
310
FFFFFFFFFFFFFFFFFFFFFFFFFFFFFFFFFFFFFFFFFFFFFFFFFFFFFFFFFFFFFFFF
310
FFFFFFFFFFFFFFFFFFFFFFFFFFFFFFFFFFFFFFFFFFFFFFFFFFFFFFFFFFFFFFFF
310
FFFFFFFFFFFFFFFFFFFFFFFFFFFFFFFFFFFFFFFFFFFFFFFFF000FFFFFFFFFFFF
310
FFFFFFFFFFFFFFFFFFFFFFFFFFFFFFFFFFFFFFFFFFFFFFFFFFFFFFFFFFFFFFFF
310
FFFFFFFFFFFFFFFFFFFFFFFFFFFFFFFFFFFFFFFFFFFFFFFFFFFFFFFFFFFFFFFF
310
FFFFFFFFFFFFFFFFFFFFFFFFFFFFFFFFF000FFFFFFFFFFFFFFFFFFFFFFFFFFFF
310
FFFFFFFFFFFFFFFFFFFFFFFFFFFFFFFFFFFFFFFFFFFFFFFFFFFFFFFFFFFFFFFF
310
FFFFFFFFFFFFFFFFFFFFFFFFFFFFFFFFFFFFFFFFFFFFFFFFFFFFFFFFFFFFFFFF
310
FFFFFFFFFFFFFFFFF000FFFFFFFFFFFFFFFFFFFFFFFFFFFFFFFFFFFFFFFFFFFF
310
FFFFFFFFFFFFFFFFFFFFFFFFFFFFFFFFFFFFFFFFFFFFFFFFFFFFFFFFFFFFFFFF
310
FFFFFFFFFFFFFFFFFFFFFFFFFFFFFFFFFFFFFFFFFFFFFFFFFFFFFFFFFFFFFFFF
310
F000FFFFFFFFFFFFFFFFFFFFFFFFFFFFFFFFFFFFFFFFFFFFFFFFFFFFFFFFFFFF
310
FFFFFFFFFFFFFFFFFFFFFFFFFFFFFFFFFFFFFFFFFFFFFFFFFFFFFFFFFFFFFFFF
310
FFFFFFFFFFFFFFFFFFFFFFFFFFFFFFFFFFFFFFFFFFFFFFFFF000FFFFFFFFFFFF
310
FFFFFFFFFFFFFFFFFFFFFFFFFFFFFFFFFFFFFFFFFFFFFFFFFFFFFFFFFFFFFFFF
310
FFFFFFFFFFFFFFFFFFFFFFFFFFFFFFFFFFFFFFFFFFFFFFFFFFFFFFFFFFFFFFFF
310
FFFFFFFFFFFFFFFFFFFFFFFFFFFFFFFFF000FFFFFFFFFFFFFFFFFFFFFFFFFFFF
310
FFFFFFFFFFFFFFFFFFFFFFFFFFFFFFFFFFFFFFFFFFFFFFFFFFFFFFFFFFFFFFFF
310
FFFFFFFFFFFFFFFFFFFFFFFFFFFFFFFFFFFFFFFFFFFFFFFFFFFFFFFFFFFFFFFF
310
FFFFFFFFFFFFFFFFF000FFFFFFFFFFFFFFFFFFFFFFFFFFFFFFFFFFFFFFFFFFFF
310
FFFFFFFFFFFFFFFFFFFFFFFFFFFFFFFFFFFFFFFFFFFFFFFFFFFFFFFFFFFFFFFF
310
FFFFFFFFFFFFFFFFFFFFFFFFFFFFFFFFFFFFFFFFFFFFFFFFFFFFFFFFFFFFFFFF
310
F000FFFFFFFFFFFFFFFFFFFFFFFFFFFFFFFFFFFFFFFFFFFFFFFFFFFFFFFFFFFF
310
FFFFFFFFFFFFFFFFFFFFFFFFFFFFFFFFFFFFFFFFFFFFFFFFFFFFFFFFFFFFFFFF
310
FFFFFFFFFFFFFFFFFFFFFFFFFFFFFFFFFFFFFFFFFFFFFFFFF000FFFFFFFFFFFF
310
FFFFFFFFFFFFFFFFFFFFFFFFFFFFFFFFFFFFFFFFFFFFFFFFFFFFFFFFFFFFFFFF
310
FFFFFFFFFFFFFFFFFFFFFFFFFFFFFFFFFFFFFFFFFFFFFFFFFFFFFFFFFFFFFFFF
310
FFFFFFFFFFFFFFFFFFFFFFFFFFFFFFFFF000FFFFFFFFFFFFFFFFFFFFFFFFFFFF
310
FFFFFFFFFFFFFFFFFFFFFFFFFFFFFFFFFFFFFFFFFFFFFFFFFFFFFFFFFFFFFFFF
310
FFFFFFFFFFFFFFFFFFFFFFFFFFFFFFFFFFFFFFFFFFFFFFFFFFFFFFFFFFFFFFFF
310
FFFFFFFFFFFFFFFFF000FFFFFFFFFFFFFFFFFFFFFFFFFFFFFFFFFFFFFFFFFFFF
310
FFFFFFFFFFFFFFFFFFFFFFFFFFFFFFFFFFFFFFFFFFFFFFFFFFFFFFFFFFFFFFFF
310
FFFFFFFFFFFFFFFFFFFFFFFFFFFFFFFFFFFFFFFFFFFFFFFFFFFFFFFFFFFFFFFF
310
F000FFFFFFFFFFFFFFFFFFFFFFFFFFFFFFFFFFFFFFFFFFFFFFFFFFFFFFFFFFFF
310
FFFFFFFFFFFFFFFFFFFFFFFFFFFFFFFFFFFFFFFFFFFFFFFFFFFFFFFFFFFFFFFF
310
FFFFFFFFFFFFFFFFFFFFFFFFFFFFFFFFFFFFFFFFFFFFFFFFF000FFFFFFFFFFFF
310
FFFFFFFFFFFFFFFFFFFFFFFFFFFFFFFFFFFFFFFFFFFFFFFFFFFFFFFFFFFFFFFF
310
FFFFFFFFFFFFFFFFFFFFFFFFFFFFFFFFFFFFFFFFFFFFFFFFFFFFFFFFFFFFFFFF
310
FFFFFFFFFFFFFFFFFFFFFFFFFFFFFFFFF000FFFFFFFFFFFFFFFFFFFFFFFFFFFF
310
FFFFFFFFFFFFFFFFFFFFFFFFFFFFFFFFFFFFFFFFFFFFFFFFFFFFFFFFFFFFFFFF
310
FFFFFFFFFFFFFFFFFFFFFFFFFFFFFFFFFFFFFFFFFFFFFFFFFFFFFFFFFFFFFFFF
310
FFFFFFFFFFFFFFFFF000FFFFFFFFFFFFFFFFFFFFFFFFFFFFFFFFFFFFFFFFFFFF
310
FFFFFFFFFFFFFFFFFFFFFFFFFFFFFFFFFFFFFFFFFFFFFFFFFFFFFFFFFFFFFFFF
310
FFFFFFFFFFFFFFFFFFFFFFFFFFFFFFFFFFFFFFFFFFFFFFFFFFFFFFFFFFFFFFFF
310
F000FFFFFFFFFFFFFFFFFFFFFFFFFFFFFFFFFFFFFFFFFFFFFFFFFFFFFFFFFFFF
310
FFFFFFFFFFFFFFFFFFFFFFFFFFFFFFFFFFFFFFFFFFFFFFFFFFFFFFFFFFFFFFFF
310
FFFFFFFFFFFFFFFFFFFFFFFFFFFFFFFFFFFFFFFFFFFFFFFFF000FFFFFFFFFFFF
310
FFFFFFFFFFFFFFFFFFFFFFFFFFFFFFFFFFFFFFFFFFFFFFFFFFFFFFFFFFFFFFFF
310
FFFFFFFFFFFFFFFFFFFFFFFFFFFFFFFFFFFFFFFFFFFFFFFFFFFFFFFFFFFFFFFF
310
FFFFFFFFFFFFFFFFFFFFFFFFFFFFFFFFF000FFFFFFFFFFFFFFFFFFFFFFFFFFFF
310
FFFFFFFFFFFFFFFFFFFFFFFFFFFFFFFFFFFFFFFFFFFFFFFFFFFFFFFFFFFFFFFF
310
FFFFFFFFFFFFFFFFFFFFFFFFFFFFFFFFFFFFFFFFFFFFFFFFFFFFFFFFFFFFFFFF
310
FFFFFFFFFFFFFFFFF000FFFFF80003FFFFFFFFFFFFFFFFFFFFFFFFFFFFFFFFFF
310
FFFFF00007FFFFFFFFFF00007FFFFFF800000000000000007FFFFFFFFFFFFFFF
310
FFFFFFFC001FFFFFFFFFFFFFFC001FFFFFFFFFFFFFFFFFFFFFFFFFFE0007FFFF
310
F000FFFF8000007FFFFFFFF8000FFFFFC0007FFFFF80007FFFFF0000007FFFFF
310
FFF8000007FFFFF800000000000000007FFFFFF0001FFFFFFFFFFFC00001FFFF
310
FFFFFFFFC00001FFFFFFFF000000000003FFFFE000007FFFF000FFFE0000000F
310
FFFFFFF0000FFFFF80007FFFFF80007FFFFC0000001FFFFFFFC0000001FFFFF8
310
00000000000000007FFFFFF0001FFFFFFFFFFE0000003FFFFFFFFFFE0000003F
310
FFFFFF000000000003FFFF0000000FFFF000FFF800000003FFFFFFF00007FFFF
310
80007FFFFF80007FFFF000000007FFFFFF000000003FFFF80000000000000000
310
7FFFFFF0001FFFFFFFFFF80000000FFFFFFFFFF80000000FFFFFFF0000000000
310
03FFFC00000003FFF000FFE000000000FFFFFFF00007FFFF80003FFFFF80007F
310
FFC000000001FFFFFC000000001FFFF800000000000000007FFFFFF0001FFFFF
310
FFFFE000000003FFFFFFFFE000000003FFFFFF000000000003FFF000000000FF
310
F000FF80000000007FFFFFF00007FFFF80003FFFFF80007FFF8000000000FFFF
310
F80000000007FFF800000000000000007FFFFFF0001FFFFFFFFFC000000001FF
310
FFFFFFC000000001FFFFFF000000000003FFC0000000007FF000FF0000000000
310
3FFFFFE00007FFFF00003FFFFF80007FFE00000000003FFFF00000000003FFF8
310
00000000000000007FFFFFF0001FFFFFFFFF8000000000FFFFFFFF8000000000
310
FFFFFF000000000003FF80000000003FF000FE00000000001FFFFFE00003FFFF
310
00003FFFFF80007FFC00000000001FFFE00000000001FFF8000001FFFE000000
310
7FFFFFF0001FFFFFFFFE00000000003FFFFFFE00000000003FFFFF0000000000
310
03FF00000000001FF000FC00000000000FFFFFE00003FFFF00001FFFFF80007F
310
F800000000001FFFC00000000000FFF8000001FFFE0000007FFFFFF0001FFFFF
310
FFFC00000000001FFFFFFC00000000001FFFFF000000000003FE00000000000F
310
F000F8000000000007FFFFE00003FFFF00001FFFFF80007FF800000000000FFF
310
800000000000FFF8000001FFFE0000007FFFFFF0001FFFFFFFF800000000000F
310
FFFFF800000000000FFFFF000000000003FC000000000007F000F80000000000
310
03FFFFC00003FFFE00001FFFFF80007FF0000000000007FF0000000000007FF8
310
000001FFFE0000007FFFFFF0001FFFFFFFF0000000000007FFFFF00000000000
310
07FFFF000000000003F8000000000003F000F0000000000003FFFFC00001FFFE
310
00001FFFFF80007FE0000000000007FE0000000000003FF8000001FFFE000000
310
7FFFFFF0001FFFFFFFF0000000000007FFFFF0000000000007FFFF0000000000
310
03F800001F800003F000E00001FFF00001FFFFC00001FFFE00000FFFFF80007F
310
E00001FFE00003FE00001FFF00003FF8000001FFFE0000007FFFFFF0001FFFFF
310
FFE000003E000003FFFFE000003E000003FFFF000000000003F00001FFF80001
310
F000E00007FFFC0001FFFFC00001FFFE00000FFFFF80007FC0000FFFFC0003FC
310
0000FFFFC0001FF8000001FFFE0000007FFFFFF0001FFFFFFFC00003FFE00001
310
FFFFC00003FFE00001FFFF0001FFFFFFFFF00007FFFE0001F000E0000FFFFF00
310
00FFFF800001FFFC00000FFFFF80007FC0001FFFFE0001FC0001FFFFE0001FF8
310
000001FFFE0000007FFFFFF0001FFFFFFF80000FFFF80000FFFF80000FFFF800
310
00FFFF0003FFFFFFFFE0000FFFFF8000F000C0003FFFFF8000FFFF800000FFFC
310
000007FFFF80007F80003FFFFF0001FC0003FFFFF0001FF8000001FFFE000000
310
7FFFFFF0001FFFFFFF80003FFFFE0000FFFF80003FFFFE0000FFFF0003FFFFFF
310
FFE0003FFFFF8000F000C0003FFFFF8000FFFF800000FFFC000007FFFF80007F
310
80007FFFFF8001F80007FFFFF8000FF8000001FFFE0000007FFFFFF0001FFFFF
310
FF00007FFFFF00007FFF00007FFFFF00007FFF0003FFFFFFFFE0003FFFFFC000
310
F000C0007FFFFFC000FFFF000000FFFC000007FFFF80007F8000FFFFFF8000F8
310
000FFFFFF8000FF8000001FFFE0000007FFFFFF0001FFFFFFF0000FFFFFF8000
310
7FFF0000FFFFFF80007FFF0003FFFFFFFFC0007FFFFFC00070008000FFFFFFC0
310
00FFFF000000FFF8000007FFFF80007F8000FFFFFF8000F8000FFFFFF8000FF8
310
000001FFFE0000007FFFFFF0001FFFFFFE0001FFFFFFC0003FFE0001FFFFFFC0
310
003FFF0003FFFFFFFFC0007FFFFFE00070008000FFFFFFC0007FFF0000007FF8
310
000003FFFF80007F0001FFFFFF8000F8000FFFFFF8000FF8000001FFFE000000
310
7FFFFFF0001FFFFFFE0001FFFFFFC0003FFE0001FFFFFFC0003FFF0003FFFFFF
310
FFC000FFFFFFE00070008000FFFFFFC0007FFF0000007FF8000003FFFF80007F
310
0001FFFFFF8000F8001FFFFFF8000FF8000001FFFE0000007FFFFFF0001FFFFF
310
FE0003FFFFFFE0003FFE0003FFFFFFE0003FFF0003FFFFFFFFC000FFFFFFE000
310
70008000FFFFFFC0007FFE0000007FF8000003FFFF80007F0001FFFFFF8000F0
310
001FFFFFF8000FF8000001FFFE0000007FFFFFF0001FFFFFFC0003FFFFFFE000
310
1FFC0003FFFFFFE0001FFF0003FFFFFFFFC000FFFFFFC00070008000FFFFFF80
310
007FFE0000007FF0000003FFFF80007F0001FFFFFF0000F0001FFFFFF8000FF8
310
000001FFFE0000007FFFFFF0001FFFFFFC0007FFFFFFF0001FFC0007FFFFFFF0
310
001FFF0003FFFFFFFFC000FFFFFFC00070008001FFFFFF0000FFFE0000003FF0
310
000001FFFF80007F0001FFFFFF0000F8001FFFFFF0000FF8000001FFFE000000
310
7FFFFFF0001FFFFFFC0007FFFFFFF0001FFC0007FFFFFFF0001FFF0003FFFFFF
310
FFC001FFFFFF80007000FFFFFFFFFE0000FFFE0008003FF0008001FFFF80007F
310
FFFFFFFFFC0000FFFFFFFFFFE0000FF8000001FFFE0000007FFFFFF0001FFFFF
310
F8000FFFFFFFF8000FF8000FFFFFFFF8000FFF0003FFFFFFFFFFFFFFFFFF0000
310
7000FFFFFFFFFC0000FFFC0008003FF0008001FFFF80007FFFFFFFFFF80001FF
310
FFFFFFFF80000FF8000001FFFE0000007FFFFFF0001FFFFFF8000FFFFFFFF800
310
0FF8000FFFFFFFF8000FFF0003FFFFFFFFFFFFFFFFFE0000F000FFFFFFFFE000
310
00FFFC000C003FE000C001FFFF80007FFFFFFFFFC00001FFFFFFFFFE00001FF8
310
000001FFFE0000007FFFFFF0001FFFFFF8000FFFFFFFF8000FF8000FFFFFFFF8
310
000FFF0003FFFFFFFFFFFFFFFFF00000F000FFFFFFFE000001FFFC000C001FE0
310
00C000FFFF80007FFFFFFFFE000001FFFFFFFFE000001FF80FFFFFFFFFFFFFC0
310
7FFFFFF0001FFFFFF8000FFFFFFFF8000FF8000FFFFFFFF8000FFF0003FFFFFF
310
FFFFFFFFFF800000F000FFFFFFC0000001FFFC001C001FE001C000FFFF80007F
310
FFFFFF80000003FFFFFFF80000001FF80FFFFFFFFFFFFFC07FFFFFF0001FFFFF
310
F8001FFFFFFFFC000FF8001FFFFFFFFC000FFF0003FFFFFFFFFFFFFFF0000001
310
F000FFFFF800000001FFF8001C001FE001C000FFFF80007FFFFFF800000003FF
310
FFFF800000003FF80FFFFFFFFFFFFFC07FFFFFF0001FFFFFF8001FFFFFFFFC00
310
0FF8001FFFFFFFFC000FFF0003FFFFFFFFFFFFFE00000001F000FFFFC0000000
310
03FFF8001E001FC001E000FFFF80007FFFFF8000000007FFFFFC000000003FF8
310
0FFFFFFFFFFFFFC07FFFFFF0001FFFFFF8001FFFFFFFFC000FF8001FFFFFFFFC
310
000FFF0003FFFFFFFFFFFFE000000003F000FFFE0000000007FFF8001E000FC0
310
01E0007FFF80007FFFFE0000000007FFFFE0000000007FF80FFFFFFFFFFFFFC0
310
7FFFFFF0001FFFFFF0001FFFFFFFFC0007F0001FFFFFFFFC0007FF0003FFFFFF
310
FFFFFF0000000003F000FFF80000000007FFF8001E000FC003E0007FFF80007F
310
FFF0000000000FFFFF8000000000FFF80FFFFFFFFFFFFFC07FFFFFF0001FFFFF
310
F0001FFFFFFFFC0007F0001FFFFFFFFC0007FF0003FFFFFFFFFFFC0000000007
310
F000FFE0000000000FFFF0003E000FC003E0007FFF80007FFFC0000000001FFF
310
FE0000000001FFF80FFFFFFFFFFFFFC07FFFFFF0001FFFFFF0001FFFFFFFFC00
310
07F0001FFFFFFFFC0007FF0003FFFFFFFFFFF0000000000FF000FFC000000000
310
1FFFF0003F000F8003F0003FFF80007FFF80000000003FFFF80000000003FFF8
310
0FFFFFFFFFFFFFC07FFFFFF0001FFFFFF0001FFFFFFFFC0007F0001FFFFFFFFC
310
0007FF0003FFFFFFFFFFE0000000001FF000FF00000000007FFFF0003F000780
310
03F0003FFF80007FFF00000000007FFFF00000000007FFF80FFFFFFFFFFFFFC0
310
7FFFFFF0001FFFFFF0001FFFFFFFFC0007F0001FFFFFFFFC0007FF0003FFFFFF
310
FFFF80000000007FF000FE0000000000FFFFE0003F00078007F0003FFF80007F
310
FE0000000001FFFFE0000000001FFFF80FFFFFFFFFFFFFC07FFFFFF0001FFFFF
310
F0001FFFFFFFFC0007F0001FFFFFFFFC0007FF0003FFFFFFFFFF0000000000FF
310
F000FC0000000003FFFFE0007F00078007F0003FFF80007FFC0000000007FFFF
310
C0000000007FFFF80FFFFFFFFFFFFFC07FFFFFF0001FFFFFF8001FFFFFFFFC00
310
0FF8001FFFFFFFFC000FFF0003FFFFFFFFFE0000000003FFF000FC000000000F
310
FFFFE0007F80070007F8001FFF80007FF8000000001FFFFF8000000001FFFFF8
310
0FFFFFFFFFFFFFC07FFFFFF0001FFFFFF8001FFFFFFFFC000FF8001FFFFFFFFC
310
000FFF0003FFFFFFFFFC000000000FFFF000F8000000007FFFFFE0007F800700
310
07F8001FFF80007FF000000000FFFFFF800000000FFFFFF80FFFFFFFFFFFFFC0
310
7FFFFFF0001FFFFFF8000FFFFFFFF8000FF8000FFFFFFFF8000FFF0003FFFFFF
310
FFFC000000007FFFF000F800000007FFFFFFC0007F8003000FF8001FFF80007F
310
F000000007FFFFFF000000007FFFFFF80FFFFFFFFFFFFFC07FFFFFF0001FFFFF
310
F8000FFFFFFFF8000FF8000FFFFFFFF8000FFF0003FFFFFFFFF80000000FFFFF
310
F000F0000000FFFFFFFFC000FF8003000FF8001FFF80007FE0000000FFFFFFFF
310
0000000FFFFFFFF8000001FFFE0000007FFFFFF0001FFFFFF8000FFFFFFFF800
310
0FF8000FFFFFFFF8000FFF0003FFFFFFFFF8000000FFFFFFF000F000000FFFFF
310
FFFFC000FFC002000FF8000FFF80007FE000001FFFFFFFFE000001FFFFFFFFF8
310
000001FFFE0000007FFFFFF0001FFFFFF8000FFFFFFFF8000FF8000FFFFFFFF8
310
000FFF0003FFFFFFFFF000001FFFFFFFF000E00000FFFFFFFFFFC000FFC00200
310
0FFC000FFF80007FE00001FFFFFFFFFE00001FFFFFFFFFF8000001FFFE000000
310
7FFFFFF0001FFFFFFC000FFFFFFFF8001FFC000FFFFFFFF8001FFF0003FFFFFF
310
FFF00001FFFFFFFFF000E00007FFFFFFFFFF8000FFC000001FFC000FFF80007F
310
C0000FFFFFFFFFFE0000FFFFFFFFFFF8000001FFFE0000007FFFFFF0001FFFFF
310
FC0007FFFFFFF0001FFC0007FFFFFFF0001FFF0003FFFFFFFFF00007FFFFFFFF
310
F000E0001FFFFFFFFFFF8000FFC000001FFC000FFF80007FC0003FFFFFFFFFFE
310
0001FFFFFFFFFFF8000001FFFE0000007FFFFFF0001FFFFFFC0007FFFFFFF000
310
1FFC0007FFFFFFF0001FFF0003FFFFFFFFF0001FFFFFFFFFF000E0003FFFFF00
310
03FF8001FFE000001FFC0007FF80007FC0007FFFFF0007FC0003FFFFF0003FF8
310
000001FFFE0000007FFFFFF0001FFFFFFC0003FFFFFFE0001FFC0003FFFFFFE0
310
001FFF0003FFFFFFFFF0003FFFFFFFFFF000E0003FFFFF0001FF8001FFE00000
310
1FFE0007FF80007FC0007FFFFE0003FC0007FFFFE0003FF8000001FFFE000000
310
7FFFFFF0001FFFFFFE0003FFFFFFE0003FFE0003FFFFFFE0003FFF0003FFFFFF
310
FFF0003FFFFF8001F000E0003FFFFF0001FF0001FFE000001FFE0007FF80007F
310
C0007FFFFE0003FC0007FFFFE0003FF8000001FFFE0000007FFFFFF0001FFFFF
310
FE0001FFFFFFC0003FFE0001FFFFFFC0003FFF0003FFFFFFFFF0003FFFFF0001
310
F000E0003FFFFF0003FF0001FFE000003FFE0007FF80007FC0007FFFFE0003FC
310
0007FFFFE0003FF8000001FFFE0000007FFFFFF0001FFFFFFF0001FFFFFFC000
310
7FFF0001FFFFFFC0007FFF0003FFFFFFFFF0003FFFFF0001F000E0003FFFFE00
310
03FF0003FFF000003FFE0003FF80007FC0007FFFFC0003FE0007FFFFE0003FF8
310
000001FFFE0000007FFFFFF0001FFFFFFF0000FFFFFF80007FFF0000FFFFFF80
310
007FFF0003FFFFFFFFF0003FFFFF0001F000E0003FFFFE0003FF0003FFF00000
310
3FFF0003FF80007FC0007FFFFC0007FE0007FFFFC0003FF8000001FFFE000000
310
7FFFFFF0001FFFFFFF80007FFFFF0000FFFF80007FFFFF0000FFFF0003FFFFFF
310
FFF0003FFFFF0003F000E0003FFFFC0003FE0003FFF000003FFF0003FF80007F
310
E0003FFFF80007FE0003FFFFC0007FF8000001FFFE0000007FFFFFF0001FFFFF
310
FF80003FFFFE0000FFFF80003FFFFE0000FFFF0003FFFFFFFFF0001FFFFE0003
310
F000F0001FFFF80003FE0003FFF000007FFF0001FF80007FE0003FFFF00007FE
310
0001FFFF80007FF8000001FFFE0000007FFFFFF0001FFFFFFFC0000FFFF80001
310
FFFFC0000FFFF80001FFFF0003FFFFFFFFF0001FFFFC0003F000F0000FFFF000
310
07FE0007FFF800007FFF0001FF80007FE0001FFFE00007FF0000FFFE00007FF8
310
000001FFFE0000007FFFFFF0001FFFFFFFC00003FFE00001FFFFC00003FFE000
310
01FFFF0003FFFFFFFFF8000FFFF80003F000F00003FFC00007FC0007FFF80000
310
7FFF8001FF80007FF00007FF80000FFF00007FF80000FFF8000001FFFE000000
310
7F80000000000001FFE000003E000003FFFFE000003E000003FFFF0003FFFFFF
310
FFF80003FFE00007F000F800000000000FFC0007FFF800007FFF8001FF80007F
310
F000000000000FFF000000000000FFF8000001FFFE0000007F80000000000001
310
FFF0000000000007FFFFF0000000000007FFFF0003FFFFFFFFFC00007E000007
310
F000F800000000000FFC0007FFF80000FFFF8000FF80007FF800000000001FFF
310
800000000001FFF8000001FFFE0000007F80000000000001FFF800000000000F
310
FFFFF800000000000FFFFF0003FFFFFFFFFC00000000000FF000FC0000000000
310
1FFC0007FFFC0000FFFF8000FF80007FF800000000003FFFC00000000001FFF8
310
000001FFFE0000007F80000000000001FFF800000000000FFFFFF80000000000
310
0FFFFF0003FFFFFFFFFE00000000001FF000FE00000000003FF8000FFFFC0000
310
FFFF8000FF80007FFC00000000003FFFC00000000003FFF8000001FFFE000000
310
7F80000000000001FFFC00000000001FFFFFFC00000000001FFFFF0003FFFFFF
310
FFFF00000000001FF000FF00000000003FF8000FFFFC0000FFFFC000FF80007F
310
FE00000000007FFFE00000000007FFF8000001FFFE0000007F80000000000001
310
FFFE00000000003FFFFFFE00000000003FFFFF0003FFFFFFFFFF80000000003F
310
F000FF80000000007FF8000FFFFC0001FFFFC0007F80007FFF0000000000FFFF
310
F0000000000FFFF800000000000000007F80000000000001FFFF8000000000FF
310
FFFFFF8000000000FFFFFF0003FFFFFFFFFFC0000000007FF000FFC000000000
310
FFF8000FFFFE0001FFFFC0007F80007FFF8000000001FFFFF8000000001FFFF8
310
00000000000000007F80000000000001FFFFC000000001FFFFFFFFC000000001
310
FFFFFF0003FFFFFFFFFFE000000000FFF000FFE000000003FFF0001FFFFE0001
310
FFFFC0007F80007FFFC000000007FFFFFE000000003FFFF80000000000000000
310
7F80000000000001FFFFE000000003FFFFFFFFE000000003FFFFFF0003FFFFFF
310
FFFFF000000003FFF000FFF80000000FFFF0001FFFFE0001FFFFE0007F80007F
310
FFF00000000FFFFFFF00000000FFFFF800000000000000007F80000000000001
310
FFFFF80000000FFFFFFFFFF80000000FFFFFFF0003FFFFFFFFFFFC0000000FFF
310
F000FFFE0000003FFFF0001FFFFE0003FFFFE0003F80007FFFFC0000003FFFFF
310
FFC0000003FFFFF800000000000000007F80000000000001FFFFFE0000003FFF
310
FFFFFFFE0000003FFFFFFF0003FFFFFFFFFFFF0000003FFFF000FFFF800000FF
310
FFF0001FFFFF0003FFFFE0003F80007FFFFF000001FFFFFFFFF800001FFFFFF8
310
00000000000000007F80000000000001FFFFFFC00001FFFFFFFFFFFFC00001FF
310
FFFFFF0003FFFFFFFFFFFFC00000FFFFF000FFFFF8000FFFFFFFFFFFFFFFFFFF
310
FFFFFFFFFFFFFFFFFFFFF0001FFFFFFFFFFF0000FFFFFFF80000000000000000
310
7FFFFFFFFFFFFFFFFFFFFFFC001FFFFFFFFFFFFFFC001FFFFFFFFFFFFFFFFFFF
310
FFFFFFFC001FFFFFF000FFFFFFFFFFFFFFFFFFFFFFFFFFFFFFFFFFFFFFFFFFFF
310
FFFFFFFFFFFFFFFFFFFFFFFFFFFFFFFFFFFFFFFFFFFFFFFFFFFFFFFFFFFFFFFF
310
FFFFFFFFFFFFFFFFFFFFFFFFFFFFFFFFFFFFFFFFFFFFFFFFFFFFFFFFFFFFFFFF
310
F000FFFFFFFFFFFFFFFFFFFFFFFFFFFFFFFFFFFFFFFFFFFFFFFFFFFFFFFFFFFF
310
FFFFFFFFFFFFFFFFFFFFFFFFFFFFFFFFFFFFFFFFFFFFFFFFFFFFFFFFFFFFFFFF
310
FFFFFFFFFFFFFFFFFFFFFFFFFFFFFFFFFFFFFFFFFFFFFFFFF000FFFFFFFFFFFF
310
FFFFFFFFFFFFFFFFFFFFFFFFFFFFFFFFFFFFFFFFFFFFFFFFFFFFFFFFFFFFFFFF
310
FFFFFFFFFFFFFFFFFFFFFFFFFFFFFFFFFFFFFFFFFFFFFFFFFFFFFFFFFFFFFFFF
310
FFFFFFFFFFFFFFFFFFFFFFFFFFFFFFFFF000FFFFFFFFFFFFFFFFFFFFFFFFFFFF
310
FFFFFFFFFFFFFFFFFFFFFFFFFFFFFFFFFFFFFFFFFFFFFFFFFFFFFFFFFFFFFFFF
310
FFFFFFFFFFFFFFFFFFFFFFFFFFFFFFFFFFFFFFFFFFFFFFFFFFFFFFFFFFFFFFFF
310
FFFFFFFFFFFFFFFFF000FFFFFFFFFFFFFFFFFFFFFFFFFFFFFFFFFFFFFFFFFFFF
310
FFFFFFFFFFFFFFFFFFFFFFFFFFFFFFFFFFFFFFFFFFFFFFFFFFFFFFFFFFFFFFFF
310
FFFFFFFFFFFFFFFFFFFFFFFFFFFFFFFFFFFFFFFFFFFFFFFFFFFFFFFFFFFFFFFF
310
F000FFFFFFFFFFFFFFFFFFFFFFFFFFFFFFFFFFFFFFFFFFFFFFFFFFFFFFFFFFFF
310
FFFFFFFFFFFFFFFFFFFFFFFFFFFFFFFFFFFFFFFFFFFFFFFFFFFFFFFFFFFFFFFF
310
FFFFFFFFFFFFFFFFFFFFFFFFFFFFFFFFFFFFFFFFFFFFFFFFF000FFFFFFFFFFFF
310
FFFFFFFFFFFFFFFFFFFFFFFFFFFFFFFFFFFFFFFFFFFFFFFFFFFFFFFFFFFFFFFF
310
FFFFFFFFFFFFFFFFFFFFFFFFFFFFFFFFFFFFFFFFFFFFFFFFFFFFFFFFFFFFFFFF
310
FFFFFFFFFFFFFFFFFFFFFFFFFFFFFFFFF000FFFFFFFFFFFFFFFFFFFFFFFFFFFF
310
FFFFFFFFFFFFFFFFFFFFFFFFFFFFFFFFFFFFFFFFFFFFFFFFFFFFFFFFFFFFFFFF
310
FFFFFFFFFFFFFFFFFFFFFFFFFFFFFFFFFFFFFFFFFFFFFFFFFFFFFFFFFFFFFFFF
310
FFFFFFFFFFFFFFFFF000FFFFFFFFFFFFFFFFFFFFFFFFFFFFFFFFFFFFFFFFFFFF
310
FFFFFFFFFFFFFFFFFFFFFFFFFFFFFFFFFFFFFFFFFFFFFFFFFFFFFFFFFFFFFFFF
310
FFFFFFFFFFFFFFFFFFFFFFFFFFFFFFFFFFFFFFFFFFFFFFFFFFFFFFFFFFFFFFFF
310
F000FFFFFFFFFFFFFFFFFFFFFFFFFFFFFFFFFFFFFFFFFFFFFFFFFFFFFFFFFFFF
310
FFFFFFFFFFFFFFFFFFFFFFFFFFFFFFFFFFFFFFFFFFFFFFFFFFFFFFFFFFFFFFFF
310
FFFFFFFFFFFFFFFFFFFFFFFFFFFFFFFFFFFFFFFFFFFFFFFFF000FFFFFFFFFFFF
310
FFFFFFFFFFFFFFFFFFFFFFFFFFFFFFFFFFFFFFFFFFFFFFFFFFFFFFFFFFFFFFFF
310
FFFFFFFFFFFFFFFFFFFFFFFFFFFFFFFFFFFFFFFFFFFFFFFFFFFFFFFFFFFFFFFF
310
FFFFFFFFFFFFFFFFFFFFFFFFFFFFFFFFF000FFFFFFFFFFFFFFFFFFFFFFFFFFFF
310
FFFFFFFFFFFFFFFFFFFFFFFFFFFFFFFFFFFFFFFFFFFFFFFFFFFFFFFFFFFFFFFF
310
FFFFFFFFFFFFFFFFFFFFFFFFFFFFFFFFFFFFFFFFFFFFFFFFFFFFFFFFFFFFFFFF
310
FFFFFFFFFFFFFFFFF000FFFFFFFFFFFFFFFFFFFFFFFFFFFFFFFFFFFFFFFFFFFF
310
FFFFFFFFFFFFFFFFFFFFFFFFFFFFFFFFFFFFFFFFFFFFFFFFFFFFFFFFFFFFFFFF
310
FFFFFFFFFFFFFFFFFFFFFFFFFFFFFFFFFFFFFFFFFFFFFFFFFFFFFFFFFFFFFFFF
310
F000FFFFFFFFFFFFFFFFFFFFFFFFFFFFFFFFFFFFFFFFFFFFFFFFFFFFFFFFFFFF
310
FFFFFFFFFFFFFFFFFFFFFFFFFFFFFFFFFFFFFFFFFFFFFFFFFFFFFFFFFFFFFFFF
310
FFFFFFFFFFFFFFFFFFFFFFFFFFFFFFFFFFFFFFFFFFFFFFFFF000FFFFFFFFFFFF
310
FFFFFFFFFFFFFFFFFFFFFFFFFFFFFFFFFFFFFFFFFFFFFFFFFFFFFFFFFFFFFFFF
310
FFFFFFFFFFFFFFFFFFFFFFFFFFFFFFFFFFFFFFFFFFFFFFFFFFFFFFFFFFFFFFFF
310
FFFFFFFFFFFFFFFFFFFFFFFFFFFFFFFFF000FFFFFFFFFFFFFFFFFFFFFFFFFFFF
310
FFFFFFFFFFFFFFFFFFFFFFFFFFFFFFFFFFFFFFFFFFFFFFFFFFFFFFFFFFFFFFFF
310
FFFFFFFFFFFFFFFFFFFFFFFFFFFFFFFFFFFFFFFFFFFFFFFFFFFFFFFFFFFFFFFF
310
FFFFFFFFFFFFFFFFF000FFFFFFFFFFFFFFFFFFFFFFFFFFFFFFFFFFFFFFFFFFFF
310
FFFFFFFFFFFFFFFFFFFFFFFFFFFFFFFFFFFFFFFFFFFFFFFFFFFFFFFFFFFFFFFF
310
FFFFFFFFFFFFFFFFFFFFFFFFFFFFFFFFFFFFFFFFFFFFFFFFFFFFFFFFFFFFFFFF
310
F000FFFFFFFFFFFFFFFFFFFFFFFFFFFFFFFFFFFFFFFFFFFFFFFFFFFFFFFFFFFF
310
FFFFFFFFFFFFFFFFFFFFFFFFFFFFFFFFFFFFFFFFFFFFFFFFFFFFFFFFFFFFFFFF
310
FFFFFFFFFFFFFFFFFFFFFFFFFFFFFFFFFFFFFFFFFFFFFFFFF000FFFFFFFFFFFF
310
FFFFFFFFFFFFFFFFFFFFFFFFFFFFFFFFFFFFFFFFFFFFFFFFFFFFFFFFFFFFFFFF
310
FFFFFFFFFFFFFFFFFFFFFFFFFFFFFFFFFFFFFFFFFFFFFFFFFFFFFFFFFFFFFFFF
310
FFFFFFFFFFFFFFFFFFFFFFFFFFFFFFFFF000FFFFFFFFFFFFFFFFFFFFFFFFFFFF
310
FFFFFFFFFFFFFFFFFFFFFFFFFFFFFFFFFFFFFFFFFFFFFFFFFFFFFFFFFFFFFFFF
310
FFFFFFFFFFFFFFFFFFFFFFFFFFFFFFFFFFFFFFFFFFFFFFFFFFFFFFFFFFFFFFFF
310
FFFFFFFFFFFFFFFFF000FFFFFFFFFFFFFFFFFFFFFFFFFFFFFFFFFFFFFFFFFFFF
310
FFFFFFFFFFFFFFFFFFFFFFFFFFFFFFFFFFFFFFFFFFFFFFFFFFFFFFFFFFFFFFFF
310
FFFFFFFFFFFFFFFFFFFFFFFFFFFFFFFFFFFFFFFFFFFFFFFFFFFFFFFFFFFFFFFF
310
F000FFFFFFFFFFFFFFFFFFFFFFFFFFFFFFFFFFFFFFFFFFFFFFFFFFFFFFFFFFFF
310
FFFFFFFFFFFFFFFFFFFFFFFFFFFFFFFFFFFFFFFFFFFFFFFFFFFFFFFFFFFFFFFF
310
FFFFFFFFFFFFFFFFFFFFFFFFFFFFFFFFFFFFFFFFFFFFFFFFF000FFFFFFFFFFFF
310
FFFFFFFFFFFFFFFFFFFFFFFFFFFFFFFFFFFFFFFFFFFFFFFFFFFFFFFFFFFFFFFF
310
FFFFFFFFFFFFFFFFFFFFFFFFFFFFFFFFFFFFFFFFFFFFFFFFFFFFFFFFFFFFFFFF
310
FFFFFFFFFFFFFFFFFFFFFFFFFFFFFFFFF0000000000000000000000000000000
310
0000000000000000000000000000000000000000000000000000000000000000
310
0000000000000000000000000000000000000000000000000000000000000000
310
0000000000000000000000000000000000000000000000000000000000000000
310
0000000000000000000000000000000000000000000000000000000000000000
310
0000000000000000000000000000000000000000000000000000000000000000
310
0000000000000000000000000000000000000000000000000000000000000000
310
0000000000000000000000000000000000000000000000000000000000000000
310
0000000000000000000000000000000000000000000000000000000000000000
310
0000000000000000000000000000000000000000000000000000000000000000
310
0000000000000000000000000000000000000000000000000000000000000000
310
0000000000000000000000000000000000000000000000000000000000000000
310
0000000000000000000000000000000000000000000000000000000000000000
310
0000000000000000000000000000000000000000000000000000000000000000
310
0000000000000000000000000000000000000000000000000000000000000000
310
0000000000000000000000000000000000000000000000000000000000000000
  1
OLE
  0
ENDSEC
  0
SECTION
  2
OBJECTS
  0
DICTIONARY
  5
C
330
0
100
AcDbDictionary
281
     1
  3
ACAD_GROUP
350
D
  3
ACAD_LAYOUT
350
1A
  3
ACAD_MLINESTYLE
350
17
  3
ACAD_PLOTSETTINGS
350
19
  3
ACAD_PLOTSTYLENAME
350
E
  3
ACAD_SCALELIST
350
47
  0
DICTIONARY
  5
D
102
{ACAD_REACTORS
330
C
102
}
330
C
100
AcDbDictionary
281
     1
  0
DICTIONARY
  5
1A
102
{ACAD_REACTORS
330
C
102
}
330
C
100
AcDbDictionary
281
     1
  3
Layout1
350
1E
  3
Layout2
350
26
  3
Model
350
22
  0
DICTIONARY
  5
17
102
{ACAD_REACTORS
330
C
102
}
330
C
100
AcDbDictionary
281
     1
  3
Standard
350
18
  0
DICTIONARY
  5
19
102
{ACAD_REACTORS
330
C
102
}
330
C
100
AcDbDictionary
281
     1
  0
ACDBDICTIONARYWDFLT
  5
E
102
{ACAD_REACTORS
330
C
102
}
330
C
100
AcDbDictionary
281
     1
  3
Normal
350
F
100
AcDbDictionaryWithDefault
340
F
  0
DICTIONARY
  5
47
102
{ACAD_REACTORS
330
C
102
}
330
C
100
AcDbDictionary
281
     1
  3
A0
350
48
  3
A1
350
49
  3
A2
350
4A
  3
A3
350
4B
  3
A4
350
4C
  3
A5
350
4D
  3
A6
350
4E
  3
A7
350
4F
  3
A8
350
50
  3
A9
350
51
  3
B0
350
52
  3
B1
350
53
  3
B2
350
54
  3
B3
350
55
  3
B4
350
56
  3
B5
350
57
  3
B6
350
58
  3
B7
350
59
  3
B8
350
5A
  3
B9
350
5B
  3
C0
350
5C
  3
C1
350
5D
  3
C2
350
5E
  3
C3
350
5F
  3
C4
350
60
  3
C5
350
61
  3
C6
350
62
  3
C7
350
63
  3
C8
350
64
  3
C9
350
65
  3
D0
350
66
  3
D1
350
67
  3
D2
350
68
  0
LAYOUT
  5
1E
102
{ACAD_REACTORS
330
1A
102
}
330
1A
100
AcDbPlotSettings
  1

  2
none_device
  4

  6

 40
0.0
 41
0.0
 42
0.0
 43
0.0
 44
0.0
 45
0.0
 46
0.0
 47
0.0
 48
0.0
 49
0.0
140
0.0
141
0.0
142
1.0
143
1.0
 70
   688
 72
     1
 73
     0
 74
     5
  7

 75
    16
147
1.0
148
0.0
149
0.0
100
AcDbLayout
  1
Layout1
 70
     1
 71
     1
 10
0.0
 20
0.0
 11
420.0
 21
297.0
 12
0.0
 22
0.0
 32
0.0
 14
1.0000000000E+20
 24
1.0000000000E+20
 34
1.0000000000E+20
 15
-1.0000000000E+20
 25
-1.0000000000E+20
 35
-1.0000000000E+20
146
0.0
 13
0.0
 23
0.0
 33
0.0
 16
1.0
 26
0.0
 36
0.0
 17
0.0
 27
1.0
 37
0.0
 76
     0
330
1B
  0
LAYOUT
  5
26
102
{ACAD_REACTORS
330
1A
102
}
330
1A
100
AcDbPlotSettings
  1

  2
none_device
  4

  6

 40
0.0
 41
0.0
 42
0.0
 43
0.0
 44
0.0
 45
0.0
 46
0.0
 47
0.0
 48
0.0
 49
0.0
140
0.0
141
0.0
142
1.0
143
1.0
 70
   688
 72
     1
 73
     0
 74
     5
  7

 75
    16
147
1.0
148
0.0
149
0.0
100
AcDbLayout
  1
Layout2
 70
     1
 71
     2
 10
0.0
 20
0.0
 11
0.0
 21
0.0
 12
0.0
 22
0.0
 32
0.0
 14
0.0
 24
0.0
 34
0.0
 15
0.0
 25
0.0
 35
0.0
146
0.0
 13
0.0
 23
0.0
 33
0.0
 16
1.0
 26
0.0
 36
0.0
 17
0.0
 27
1.0
 37
0.0
 76
     0
330
23
  0
LAYOUT
  5
22
102
{ACAD_REACTORS
330
1A
102
}
330
1A
100
AcDbPlotSettings
  1

  2
none_device
  4
Letter_(8.50_x_11.00_Inches)
  6

 40
6.35
 41
6.35
 42
6.35000508
 43
6.35000508
 44
215.9
 45
279.4
 46
0.0
 47
0.0
 48
0.0
 49
0.0
140
0.0
141
0.0
142
1.0
143
1.0
 70
  1712
 72
     1
 73
     0
 74
     0
  7

 75
     0
147
1.0
148
0.0
149
0.0
100
AcDbLayout
  1
Model
 70
     1
 71
     0
 10
0.0
 20
0.0
 11
297.0
 21
210.0
 12
0.0
 22
0.0
 32
0.0
 14
0.0
 24
0.0
 34
0.0
 15
297.0
 25
210.0
 35
0.0
146
0.0
 13
0.0
 23
0.0
 33
0.0
 16
1.0
 26
0.0
 36
0.0
 17
0.0
 27
1.0
 37
0.0
 76
     0
330
1F
331
29
  0
MLINESTYLE
  5
18
102
{ACAD_REACTORS
330
17
102
}
330
17
100
AcDbMlineStyle
  2
Standard
 70
     0
  3

 62
   256
 51
90.0
 52
90.0
 71
     2
 49
0.5
 62
   256
  6
BYLAYER
 49
-0.5
 62
   256
  6
BYLAYER
  0
ACDBPLACEHOLDER
  5
F
102
{ACAD_REACTORS
330
E
102
}
330
E
  0
SCALE
  5
48
102
{ACAD_REACTORS
330
47
102
}
330
47
100
AcDbScale
 70
     0
300
1:1
140
1.0
141
1.0
290
     1
  0
SCALE
  5
49
102
{ACAD_REACTORS
330
47
102
}
330
47
100
AcDbScale
 70
     0
300
1:2
140
1.0
141
2.0
290
     0
  0
SCALE
  5
4A
102
{ACAD_REACTORS
330
47
102
}
330
47
100
AcDbScale
 70
     0
300
1:4
140
1.0
141
4.0
290
     0
  0
SCALE
  5
4B
102
{ACAD_REACTORS
330
47
102
}
330
47
100
AcDbScale
 70
     0
300
1:5
140
1.0
141
5.0
290
     0
  0
SCALE
  5
4C
102
{ACAD_REACTORS
330
47
102
}
330
47
100
AcDbScale
 70
     0
300
1:8
140
1.0
141
8.0
290
     0
  0
SCALE
  5
4D
102
{ACAD_REACTORS
330
47
102
}
330
47
100
AcDbScale
 70
     0
300
1:10
140
1.0
141
10.0
290
     0
  0
SCALE
  5
4E
102
{ACAD_REACTORS
330
47
102
}
330
47
100
AcDbScale
 70
     0
300
1:16
140
1.0
141
16.0
290
     0
  0
SCALE
  5
4F
102
{ACAD_REACTORS
330
47
102
}
330
47
100
AcDbScale
 70
     0
300
1:20
140
1.0
141
20.0
290
     0
  0
SCALE
  5
50
102
{ACAD_REACTORS
330
47
102
}
330
47
100
AcDbScale
 70
     0
300
1:30
140
1.0
141
30.0
290
     0
  0
SCALE
  5
51
102
{ACAD_REACTORS
330
47
102
}
330
47
100
AcDbScale
 70
     0
300
1:40
140
1.0
141
40.0
290
     0
  0
SCALE
  5
52
102
{ACAD_REACTORS
330
47
102
}
330
47
100
AcDbScale
 70
     0
300
1:50
140
1.0
141
50.0
290
     0
  0
SCALE
  5
53
102
{ACAD_REACTORS
330
47
102
}
330
47
100
AcDbScale
 70
     0
300
1:100
140
1.0
141
100.0
290
     0
  0
SCALE
  5
54
102
{ACAD_REACTORS
330
47
102
}
330
47
100
AcDbScale
 70
     0
300
2:1
140
2.0
141
1.0
290
     0
  0
SCALE
  5
55
102
{ACAD_REACTORS
330
47
102
}
330
47
100
AcDbScale
 70
     0
300
4:1
140
4.0
141
1.0
290
     0
  0
SCALE
  5
56
102
{ACAD_REACTORS
330
47
102
}
330
47
100
AcDbScale
 70
     0
300
8:1
140
8.0
141
1.0
290
     0
  0
SCALE
  5
57
102
{ACAD_REACTORS
330
47
102
}
330
47
100
AcDbScale
 70
     0
300
10:1
140
10.0
141
1.0
290
     0
  0
SCALE
  5
58
102
{ACAD_REACTORS
330
47
102
}
330
47
100
AcDbScale
 70
     0
300
100:1
140
100.0
141
1.0
290
     0
  0
SCALE
  5
59
102
{ACAD_REACTORS
330
47
102
}
330
47
100
AcDbScale
 70
     0
300
1/128" = 1'-0"
140
0.0078125
141
12.0
290
     0
  0
SCALE
  5
5A
102
{ACAD_REACTORS
330
47
102
}
330
47
100
AcDbScale
 70
     0
300
1/64" = 1'-0"
140
0.015625
141
12.0
290
     0
  0
SCALE
  5
5B
102
{ACAD_REACTORS
330
47
102
}
330
47
100
AcDbScale
 70
     0
300
1/32" = 1'-0"
140
0.03125
141
12.0
290
     0
  0
SCALE
  5
5C
102
{ACAD_REACTORS
330
47
102
}
330
47
100
AcDbScale
 70
     0
300
1/16" = 1'-0"
140
0.0625
141
12.0
290
     0
  0
SCALE
  5
5D
102
{ACAD_REACTORS
330
47
102
}
330
47
100
AcDbScale
 70
     0
300
3/32" = 1'-0"
140
0.09375
141
12.0
290
     0
  0
SCALE
  5
5E
102
{ACAD_REACTORS
330
47
102
}
330
47
100
AcDbScale
 70
     0
300
1/8" = 1'-0"
140
0.125
141
12.0
290
     0
  0
SCALE
  5
5F
102
{ACAD_REACTORS
330
47
102
}
330
47
100
AcDbScale
 70
     0
300
3/16" = 1'-0"
140
0.1875
141
12.0
290
     0
  0
SCALE
  5
60
102
{ACAD_REACTORS
330
47
102
}
330
47
100
AcDbScale
 70
     0
300
1/4" = 1'-0"
140
0.25
141
12.0
290
     0
  0
SCALE
  5
61
102
{ACAD_REACTORS
330
47
102
}
330
47
100
AcDbScale
 70
     0
300
3/8" = 1'-0"
140
0.375
141
12.0
290
     0
  0
SCALE
  5
62
102
{ACAD_REACTORS
330
47
102
}
330
47
100
AcDbScale
 70
     0
300
1/2" = 1'-0"
140
0.5
141
12.0
290
     0
  0
SCALE
  5
63
102
{ACAD_REACTORS
330
47
102
}
330
47
100
AcDbScale
 70
     0
300
3/4" = 1'-0"
140
0.75
141
12.0
290
     0
  0
SCALE
  5
64
102
{ACAD_REACTORS
330
47
102
}
330
47
100
AcDbScale
 70
     0
300
1" = 1'-0"
140
1.0
141
12.0
290
     0
  0
SCALE
  5
65
102
{ACAD_REACTORS
330
47
102
}
330
47
100
AcDbScale
 70
     0
300
1-1/2" = 1'-0"
140
1.5
141
12.0
290
     0
  0
SCALE
  5
66
102
{ACAD_REACTORS
330
47
102
}
330
47
100
AcDbScale
 70
     0
300
3" = 1'-0"
140
3.0
141
12.0
290
     0
  0
SCALE
  5
67
102
{ACAD_REACTORS
330
47
102
}
330
47
100
AcDbScale
 70
     0
300
6" = 1'-0"
140
6.0
141
12.0
290
     0
  0
SCALE
  5
68
102
{ACAD_REACTORS
330
47
102
}
330
47
100
AcDbScale
 70
     0
300
1'-0" = 1'-0"
140
12.0
141
12.0
290
     0
  0
ENDSEC
  0
EOF
