  0
SECTION
  2
HEADER
  9
$ACADVER
  1
AC1015
  9
$ACADMAINTVER
 70
     6
  9
$DWGCODEPAGE
  3
ANSI_1252
  9
$INSBASE
 10
0.0
 20
0.0
 30
0.0
  9
$EXTMIN
 10
0.0
 20
0.0
 30
0.0
  9
$EXTMAX
 10
297.0
 20
210.0
 30
0.0
  9
$LIMMIN
 10
0.0
 20
0.0
  9
$LIMMAX
 10
297.0
 20
210.0
  9
$ORTHOMODE
 70
     0
  9
$REGENMODE
 70
     1
  9
$FILLMODE
 70
     1
  9
$QTEXTMODE
 70
     0
  9
$MIRRTEXT
 70
     1
  9
$LTSCALE
 40
1.0
  9
$ATTMODE
 70
     1
  9
$TEXTSIZE
 40
2.0
  9
$TRACEWID
 40
1.0
  9
$TEXTSTYLE
  7
Standard
  9
$CLAYER
  8
0
  9
$CELTYPE
  6
ByLayer
  9
$CECOLOR
 62
   256
  9
$CELTSCALE
 40
1.0
  9
$DISPSILH
 70
     0
  9
$DIMSCALE
 40
1.0
  9
$DIMASZ
 40
3.0
  9
$DIMEXO
 40
0.0
  9
$DIMDLI
 40
3.75
  9
$DIMRND
 40
0.0
  9
$DIMDLE
 40
0.0
  9
$DIMEXE
 40
1.0
  9
$DIMTP
 40
0.0
  9
$DIMTM
 40
0.0
  9
$DIMTXT
 40
2.0
  9
$DIMCEN
 40
2.5
  9
$DIMTSZ
 40
0.0
  9
$DIMTOL
 70
     0
  9
$DIMLIM
 70
     0
  9
$DIMTIH
 70
     1
  9
$DIMTOH
 70
     1
  9
$DIMSE1
 70
     0
  9
$DIMSE2
 70
     0
  9
$DIMTAD
 70
     1
  9
$DIMZIN
 70
     0
  9
$DIMBLK
  1

  9
$DIMASO
 70
     1
  9
$DIMSHO
 70
     1
  9
$DIMPOST
  1

  9
$DIMAPOST
  1

  9
$DIMALT
 70
     0
  9
$DIMALTD
 70
     3
  9
$DIMALTF
 40
0.0393700787
  9
$DIMLFAC
 40
2.0
  9
$DIMTOFL
 70
     1
  9
$DIMTVP
 40
0.0
  9
$DIMTIX
 70
     0
  9
$DIMSOXD
 70
     0
  9
$DIMSAH
 70
     0
  9
$DIMBLK1
  1

  9
$DIMBLK2
  1

  9
$DIMSTYLE
  2
ISO-25
  9
$DIMCLRD
 70
     0
  9
$DIMCLRE
 70
     0
  9
$DIMCLRT
 70
     0
  9
$DIMTFAC
 40
1.0
  9
$DIMGAP
 40
1.524
  9
$DIMJUST
 70
     0
  9
$DIMSD1
 70
     0
  9
$DIMSD2
 70
     0
  9
$DIMTOLJ
 70
     0
  9
$DIMTZIN
 70
     0
  9
$DIMALTZ
 70
     0
  9
$DIMALTTZ
 70
     0
  9
$DIMUPT
 70
     0
  9
$DIMDEC
 70
     2
  9
$DIMTDEC
 70
     3
  9
$DIMALTU
 70
     2
  9
$DIMALTTD
 70
     3
  9
$DIMTXSTY
  7
Standard
  9
$DIMAUNIT
 70
     0
  9
$DIMADEC
 70
     2
  9
$DIMALTRND
 40
0.0
  9
$DIMAZIN
 70
     0
  9
$DIMDSEP
 70
    44
  9
$DIMATFIT
 70
     3
  9
$DIMFRAC
 70
     0
  9
$DIMLDRBLK
  1

  9
$DIMLUNIT
 70
     2
  9
$DIMLWD
 70
    -2
  9
$DIMLWE
 70
    -2
  9
$DIMTMOVE
 70
     0
  9
$LUNITS
 70
     2
  9
$LUPREC
 70
     2
  9
$SKETCHINC
 40
1.0
  9
$FILLETRAD
 40
10.0
  9
$AUNITS
 70
     0
  9
$AUPREC
 70
     2
  9
$MENU
  1
.
  9
$ELEVATION
 40
0.0
  9
$PELEVATION
 40
0.0
  9
$THICKNESS
 40
0.0
  9
$LIMCHECK
 70
     0
  9
$CHAMFERA
 40
0.0
  9
$CHAMFERB
 40
0.0
  9
$CHAMFERC
 40
0.0
  9
$CHAMFERD
 40
0.0
  9
$SKPOLY
 70
     0
  9
$TDCREATE
 40
2457675.434541574
  9
$TDUCREATE
 40
2457675.351208241
  9
$TDUPDATE
 40
2457675.434543113
  9
$TDUUPDATE
 40
2457675.35120978
  9
$TDINDWG
 40
0.0000000116
  9
$TDUSRTIMER
 40
0.0000000116
  9
$USRTIMER
 70
     1
  9
$ANGBASE
 50
0.0
  9
$ANGDIR
 70
     0
  9
$PDMODE
 70
     0
  9
$PDSIZE
 40
-1.0
  9
$PLINEWID
 40
0.0
  9
$SPLFRAME
 70
     0
  9
$SPLINETYPE
 70
     6
  9
$SPLINESEGS
 70
     8
  9
$HANDSEED
  5
26F
  9
$SURFTAB1
 70
     6
  9
$SURFTAB2
 70
     6
  9
$SURFTYPE
 70
     6
  9
$SURFU
 70
     6
  9
$SURFV
 70
     6
  9
$UCSBASE
  2

  9
$UCSNAME
  2

  9
$UCSORG
 10
0.0
 20
0.0
 30
0.0
  9
$UCSXDIR
 10
1.0
 20
0.0
 30
0.0
  9
$UCSYDIR
 10
0.0
 20
1.0
 30
0.0
  9
$UCSORTHOREF
  2

  9
$UCSORTHOVIEW
 70
     0
  9
$UCSORGTOP
 10
0.0
 20
0.0
 30
0.0
  9
$UCSORGBOTTOM
 10
0.0
 20
0.0
 30
0.0
  9
$UCSORGLEFT
 10
0.0
 20
0.0
 30
0.0
  9
$UCSORGRIGHT
 10
0.0
 20
0.0
 30
0.0
  9
$UCSORGFRONT
 10
0.0
 20
0.0
 30
0.0
  9
$UCSORGBACK
 10
0.0
 20
0.0
 30
0.0
  9
$PUCSBASE
  2

  9
$PUCSNAME
  2

  9
$PUCSORG
 10
0.0
 20
0.0
 30
0.0
  9
$PUCSXDIR
 10
1.0
 20
0.0
 30
0.0
  9
$PUCSYDIR
 10
0.0
 20
1.0
 30
0.0
  9
$PUCSORTHOREF
  2

  9
$PUCSORTHOVIEW
 70
     0
  9
$PUCSORGTOP
 10
0.0
 20
0.0
 30
0.0
  9
$PUCSORGBOTTOM
 10
0.0
 20
0.0
 30
0.0
  9
$PUCSORGLEFT
 10
0.0
 20
0.0
 30
0.0
  9
$PUCSORGRIGHT
 10
0.0
 20
0.0
 30
0.0
  9
$PUCSORGFRONT
 10
0.0
 20
0.0
 30
0.0
  9
$PUCSORGBACK
 10
0.0
 20
0.0
 30
0.0
  9
$USERI1
 70
     0
  9
$USERI2
 70
     0
  9
$USERI3
 70
     0
  9
$USERI4
 70
     0
  9
$USERI5
 70
     0
  9
$USERR1
 40
0.0
  9
$USERR2
 40
0.0
  9
$USERR3
 40
0.0
  9
$USERR4
 40
0.0
  9
$USERR5
 40
0.0
  9
$WORLDVIEW
 70
     1
  9
$SHADEDGE
 70
     3
  9
$SHADEDIF
 70
    70
  9
$TILEMODE
 70
     1
  9
$MAXACTVP
 70
    64
  9
$PINSBASE
 10
0.0
 20
0.0
 30
0.0
  9
$PLIMCHECK
 70
     0
  9
$PEXTMIN
 10
1.0000000000E+20
 20
1.0000000000E+20
 30
1.0000000000E+20
  9
$PEXTMAX
 10
-1.0000000000E+20
 20
-1.0000000000E+20
 30
-1.0000000000E+20
  9
$PLIMMIN
 10
0.0
 20
0.0
  9
$PLIMMAX
 10
420.0
 20
297.0
  9
$UNITMODE
 70
     0
  9
$VISRETAIN
 70
     1
  9
$PLINEGEN
 70
     0
  9
$PSLTSCALE
 70
     1
  9
$TREEDEPTH
 70
  3020
  9
$CMLSTYLE
  2
Standard
  9
$CMLJUST
 70
     0
  9
$CMLSCALE
 40
20.0
  9
$PROXYGRAPHICS
 70
     1
  9
$MEASUREMENT
 70
     1
  9
$CELWEIGHT
370
    -1
  9
$ENDCAPS
280
     0
  9
$JOINSTYLE
280
     0
  9
$LWDISPLAY
290
     1
  9
$INSUNITS
 70
     4
  9
$HYPERLINKBASE
  1

  9
$STYLESHEET
  1

  9
$XEDIT
290
     1
  9
$CEPSNTYPE
380
     0
  9
$PSTYLEMODE
290
     1
  9
$FINGERPRINTGUID
  2
{64606B05-C5DD-4517-8D7F-E6AE377A62D3}
  9
$VERSIONGUID
  2
{FAEB1C32-E019-11D5-929B-00C0DF256EC4}
  9
$EXTNAMES
290
     1
  9
$PSVPSCALE
 40
0.0
  9
$OLESTARTUP
290
     0
  0
ENDSEC
  0
SECTION
  2
CLASSES
  0
CLASS
  1
ACDBDICTIONARYWDFLT
  2
AcDbDictionaryWithDefault
  3
ObjectDBX Classes
 90
        0
280
     0
281
     0
  0
CLASS
  1
VISUALSTYLE
  2
AcDbVisualStyle
  3
ObjectDBX Classes
 90
     4095
280
     0
281
     0
  0
CLASS
  1
MATERIAL
  2
AcDbMaterial
  3
ObjectDBX Classes
 90
     1153
280
     0
281
     0
  0
CLASS
  1
SCALE
  2
AcDbScale
  3
ObjectDBX Classes
 90
     1153
280
     0
281
     0
  0
CLASS
  1
TABLESTYLE
  2
AcDbTableStyle
  3
ObjectDBX Classes
 90
     4095
280
     0
281
     0
  0
CLASS
  1
MLEADERSTYLE
  2
AcDbMLeaderStyle
  3
ACDB_MLEADERSTYLE_CLASS
 90
     4095
280
     0
281
     0
  0
CLASS
  1
SUN
  2
AcDbSun
  3
SCENEOE
 90
     1153
280
     0
281
     0
  0
CLASS
  1
ACDBPLACEHOLDER
  2
AcDbPlaceHolder
  3
ObjectDBX Classes
 90
        0
280
     0
281
     0
  0
CLASS
  1
LAYOUT
  2
AcDbLayout
  3
ObjectDBX Classes
 90
        0
280
     0
281
     0
  0
ENDSEC
  0
SECTION
  2
TABLES
  0
TABLE
  2
VPORT
  5
8
330
0
100
AcDbSymbolTable
 70
     1
  0
VPORT
  5
29
330
8
100
AcDbSymbolTableRecord
100
AcDbViewportTableRecord
  2
*Active
 70
     0
 10
0.0
 20
0.0
 11
1.0
 21
1.0
 12
148.5
 22
105.0
 13
0.0
 23
0.0
 14
10.0
 24
10.0
 15
10.0
 25
10.0
 16
0.0
 26
0.0
 36
1.0
 17
0.0
 27
0.0
 37
0.0
 40
210.0
 41
1.4142857143
 42
50.0
 43
0.0
 44
0.0
 50
0.0
 51
0.0
 71
     0
 72
  2000
 73
     1
 74
     3
 75
     0
 76
     0
 77
     0
 78
     0
281
     0
 65
     1
110
0.0
120
0.0
130
0.0
111
1.0
121
0.0
131
0.0
112
0.0
122
1.0
132
0.0
 79
     0
146
0.0
  0
ENDTAB
  0
TABLE
  2
LTYPE
  5
5
330
0
100
AcDbSymbolTable
 70
     6
  0
LTYPE
  5
14
330
5
100
AcDbSymbolTableRecord
100
AcDbLinetypeTableRecord
  2
ByBlock
 70
     0
  3

 72
    65
 73
     0
 40
0.0
  0
LTYPE
  5
15
330
5
100
AcDbSymbolTableRecord
100
AcDbLinetypeTableRecord
  2
ByLayer
 70
     0
  3

 72
    65
 73
     0
 40
0.0
  0
LTYPE
  5
16
330
5
100
AcDbSymbolTableRecord
100
AcDbLinetypeTableRecord
  2
Continuous
 70
     0
  3
Solid line
 72
    65
 73
     0
 40
0.0
  0
LTYPE
  5
6E
330
5
100
AcDbSymbolTableRecord
100
AcDbLinetypeTableRecord
  2
HIDDEN
 70
     0
  3
Hidden __ __ __ __ __ __ __ __ __ __ __ __ __ __
 72
    65
 73
     2
 40
1.905
 49
1.27
 74
     0
 49
-0.635
 74
     0
  0
LTYPE
  5
6F
330
5
100
AcDbSymbolTableRecord
100
AcDbLinetypeTableRecord
  2
PHANTOM
 70
     0
  3
Phantom ______  __  __  ______  __  __  ______
 72
    65
 73
     6
 40
12.7
 49
6.35
 74
     0
 49
-1.27
 74
     0
 49
1.27
 74
     0
 49
-1.27
 74
     0
 49
1.27
 74
     0
 49
-1.27
 74
     0
  0
LTYPE
  5
70
330
5
100
AcDbSymbolTableRecord
100
AcDbLinetypeTableRecord
  2
CENTER
 70
     0
  3
Center ____ _ ____ _ ____ _ ____ _ ____ _ ____
 72
    65
 73
     4
 40
10.16
 49
6.35
 74
     0
 49
-1.27
 74
     0
 49
1.27
 74
     0
 49
-1.27
 74
     0
  0
LTYPE
  5
71
330
5
100
AcDbSymbolTableRecord
100
AcDbLinetypeTableRecord
  2
CENTERX2
 70
     0
  3
Center (2x) ________  __  ________  __  _____
 72
    65
 73
     4
 40
20.32
 49
12.7
 74
     0
 49
-2.54
 74
     0
 49
2.54
 74
     0
 49
-2.54
 74
     0
  0
LTYPE
  5
72
330
5
100
AcDbSymbolTableRecord
100
AcDbLinetypeTableRecord
  2
DOT2
 70
     0
  3
Dot (.5x) ........................................
 72
    65
 73
     2
 40
0.635
 49
0.0
 74
     0
 49
-0.635
 74
     0
  0
ENDTAB
  0
TABLE
  2
LAYER
  5
2
330
0
100
AcDbSymbolTable
 70
     5
  0
LAYER
  5
10
330
2
100
AcDbSymbolTableRecord
100
AcDbLayerTableRecord
  2
0
 70
     0
 62
     7
  6
Continuous
370
    -3
390
F
  0
LAYER
  5
73
330
2
100
AcDbSymbolTableRecord
100
AcDbLayerTableRecord
  2
FORMAT
 70
     0
 62
     7
  6
Continuous
370
    -3
390
F
  0
LAYER
  5
74
330
2
100
AcDbSymbolTableRecord
100
AcDbLayerTableRecord
  2
VERMASSUNG
 70
     0
 62
     7
  6
Continuous
370
    -3
390
F
  0
LAYER
  5
75
330
2
100
AcDbSymbolTableRecord
100
AcDbLayerTableRecord
  2
KOPF_DÜNN
 70
     0
 62
     7
  6
Continuous
370
    -3
390
F
  0
LAYER
  5
76
330
2
100
AcDbSymbolTableRecord
100
AcDbLayerTableRecord
  2
KOPF_DICK
 70
     0
 62
     7
  6
Continuous
370
    15
390
F
  0
ENDTAB
  0
TABLE
  2
STYLE
  5
3
330
0
100
AcDbSymbolTable
 70
     2
  0
STYLE
  5
11
330
3
100
AcDbSymbolTableRecord
100
AcDbTextStyleTableRecord
  2
Standard
 70
     0
 40
0.0
 41
1.0
 50
0.0
 71
     0
 42
2.0
  3
txt
  4

  0
STYLE
  5
77
330
3
100
AcDbSymbolTableRecord
100
AcDbTextStyleTableRecord
  2
SLDTEXTSTYLE0
 70
     0
 40
0.0
 41
0.7
 50
0.0
 71
     0
 42
2.0
  3
TXT
  4

  0
ENDTAB
  0
TABLE
  2
VIEW
  5
6
330
0
100
AcDbSymbolTable
 70
     0
  0
ENDTAB
  0
TABLE
  2
UCS
  5
7
330
0
100
AcDbSymbolTable
 70
     0
  0
ENDTAB
  0
TABLE
  2
APPID
  5
9
330
0
100
AcDbSymbolTable
 70
     1
  0
APPID
  5
12
330
9
100
AcDbSymbolTableRecord
100
AcDbRegAppTableRecord
  2
ACAD
 70
     0
  0
ENDTAB
  0
TABLE
  2
DIMSTYLE
  5
A
330
0
100
AcDbSymbolTable
 70
     2
100
AcDbDimStyleTable
  0
DIMSTYLE
105
27
330
A
100
AcDbSymbolTableRecord
100
AcDbDimStyleTableRecord
  2
ISO-25
 70
     0
 41
2.5
 42
0.625
 43
3.75
 44
1.25
 73
     0
 74
     0
 77
     1
 78
     8
140
2.5
141
2.5
143
0.0393700787
147
0.625
171
     3
172
     1
178
     0
271
     2
272
     2
274
     3
278
    44
283
     0
284
     8
340
11
  0
DIMSTYLE
105
187
102
{ACAD_REACTORS
330
186
330
193
330
19E
330
1AA
330
1B6
330
1C0
102
}
330
A
100
AcDbSymbolTableRecord
100
AcDbDimStyleTableRecord
  2
SLDDIMSTYLE0
 70
     0
 41
3.0
 44
0.0
 45
0.000000001
 73
     0
 74
     0
 77
     1
 78
    12
 79
     3
140
2.0
147
0.5
173
     1
178
     0
271
     2
272
     3
276
     2
284
    12
340
77
  0
ENDTAB
  0
TABLE
  2
BLOCK_RECORD
  5
1
330
0
100
AcDbSymbolTable
 70
     7
  0
BLOCK_RECORD
  5
1F
330
1
100
AcDbSymbolTableRecord
100
AcDbBlockTableRecord
  2
*Model_Space
340
22
  0
BLOCK_RECORD
  5
1B
330
1
100
AcDbSymbolTableRecord
100
AcDbBlockTableRecord
  2
*Paper_Space
340
1E
  0
BLOCK_RECORD
  5
23
330
1
100
AcDbSymbolTableRecord
100
AcDbBlockTableRecord
  2
*Paper_Space0
340
26
  0
BLOCK_RECORD
  5
188
330
1
100
AcDbSymbolTableRecord
100
AcDbBlockTableRecord
  2
_D
340
0
  0
BLOCK_RECORD
  5
194
330
1
100
AcDbSymbolTableRecord
100
AcDbBlockTableRecord
  2
_D_1
340
0
  0
BLOCK_RECORD
  5
19F
330
1
100
AcDbSymbolTableRecord
100
AcDbBlockTableRecord
  2
_D_2
340
0
  0
BLOCK_RECORD
  5
1AB
330
1
100
AcDbSymbolTableRecord
100
AcDbBlockTableRecord
  2
_D_3
340
0
  0
BLOCK_RECORD
  5
1B7
330
1
100
AcDbSymbolTableRecord
100
AcDbBlockTableRecord
  2
_D_4
340
0
  0
BLOCK_RECORD
  5
1C1
330
1
100
AcDbSymbolTableRecord
100
AcDbBlockTableRecord
  2
_D_5
340
0
  0
ENDTAB
  0
ENDSEC
  0
SECTION
  2
BLOCKS
  0
BLOCK
  5
20
330
1F
100
AcDbEntity
  8
0
100
AcDbBlockBegin
  2
*Model_Space
 70
     0
 10
0.0
 20
0.0
 30
0.0
  3
*Model_Space
  1

  0
ENDBLK
  5
21
330
1F
100
AcDbEntity
  8
0
100
AcDbBlockEnd
  0
BLOCK
  5
1C
330
1B
100
AcDbEntity
 67
     1
  8
0
100
AcDbBlockBegin
  2
*Paper_Space
 70
     0
 10
0.0
 20
0.0
 30
0.0
  3
*Paper_Space
  1

  0
ENDBLK
  5
1D
330
1B
100
AcDbEntity
 67
     1
  8
0
100
AcDbBlockEnd
  0
BLOCK
  5
24
330
23
100
AcDbEntity
  8
0
100
AcDbBlockBegin
  2
*Paper_Space0
 70
     0
 10
0.0
 20
0.0
 30
0.0
  3
*Paper_Space0
  1

  0
ENDBLK
  5
25
330
23
100
AcDbEntity
  8
0
100
AcDbBlockEnd
  0
BLOCK
  5
189
330
188
100
AcDbEntity
  8
0
100
AcDbBlockBegin
  2
_D
 70
     0
 10
0.0
 20
0.0
 30
0.0
  3
_D
  1

  0
SOLID
  5
18B
330
188
100
AcDbEntity
  8
VERMASSUNG
100
AcDbTrace
 10
72.3997864748
 20
167.1540516669
 30
0.0
 11
71.9497864748
 21
164.1540516669
 31
0.0
 12
72.8497864748
 22
164.1540516669
 32
0.0
 13
72.8497864748
 23
164.1540516669
 33
0.0
  0
SOLID
  5
18C
330
188
100
AcDbEntity
  8
VERMASSUNG
100
AcDbTrace
 10
72.3997864748
 20
67.1540516669
 30
0.0
 11
72.8497864748
 21
70.1540516669
 31
0.0
 12
71.9497864748
 22
70.1540516669
 32
0.0
 13
71.9497864748
 23
70.1540516669
 33
0.0
  0
LINE
  5
18D
330
188
100
AcDbEntity
  8
VERMASSUNG
100
AcDbLine
 10
129.870342003
 20
167.1540516669
 30
0.0
 11
71.3997864748
 21
167.1540516669
 31
0.0
  0
LINE
  5
18E
330
188
100
AcDbEntity
  8
VERMASSUNG
100
AcDbLine
 10
129.870342003
 20
67.1540516669
 30
0.0
 11
71.3997864748
 21
67.1540516669
 31
0.0
  0
LINE
  5
18F
330
188
100
AcDbEntity
  8
VERMASSUNG
100
AcDbLine
 10
72.3997864748
 20
167.1540516669
 30
0.0
 11
72.3997864748
 21
67.1540516669
 31
0.0
  0
MTEXT
  5
190
330
188
100
AcDbEntity
  8
VERMASSUNG
100
AcDbMText
 10
69.6216512186
 20
108.949052287
 30
0.0
 40
2.0
 41
0.0
 71
     1
 72
     1
  1
HSK A
  7
SLDTEXTSTYLE0
 11
-7.044195017643634E-15
 21
1.0
 31
0.0
 73
     1
 44
1.0
  0
MTEXT
  5
191
330
188
100
AcDbEntity
  8
VERMASSUNG
100
AcDbMText
 10
69.8216511699
 20
117.9490518996
 30
0.0
 40
2.0
 41
0.0
 71
     1
 72
     1
  1
%%c
  7
SLDTEXTSTYLE0
 11
-7.044195017643634E-15
 21
1.0
 31
0.0
 73
     1
 44
1.0
  0
MTEXT
  5
192
330
188
100
AcDbEntity
  8
VERMASSUNG
100
AcDbMText
 10
69.6216512186
 20
121.5590519139
 30
0.0
 40
2.0
 41
0.0
 71
     1
 72
     1
  1
100
  7
SLDTEXTSTYLE0
 11
-7.044195017643634E-15
 21
1.0
 31
0.0
 73
     1
 44
1.0
  0
ENDBLK
  5
18A
330
188
100
AcDbEntity
  8
0
100
AcDbBlockEnd
  0
BLOCK
  5
195
330
194
100
AcDbEntity
  8
0
100
AcDbBlockBegin
  2
_D_1
 70
     0
 10
0.0
 20
0.0
 30
0.0
  3
_D_1
  1

  0
SOLID
  5
197
330
194
100
AcDbEntity
  8
VERMASSUNG
100
AcDbTrace
 10
217.8725048263
 20
135.1540516669
 30
0.0
 11
217.4225048263
 21
132.1540516669
 31
0.0
 12
218.3225048263
 22
132.1540516669
 32
0.0
 13
218.3225048263
 23
132.1540516669
 33
0.0
  0
SOLID
  5
198
330
194
100
AcDbEntity
  8
VERMASSUNG
100
AcDbTrace
 10
217.8725048263
 20
99.1540516669
 30
0.0
 11
218.3225048263
 21
102.1540516669
 31
0.0
 12
217.4225048263
 22
102.1540516669
 32
0.0
 13
217.4225048263
 23
102.1540516669
 33
0.0
  0
LINE
  5
199
330
194
100
AcDbEntity
  8
VERMASSUNG
100
AcDbLine
 10
208.370342003
 20
135.1540516669
 30
0.0
 11
218.8725048263
 21
135.1540516669
 31
0.0
  0
LINE
  5
19A
330
194
100
AcDbEntity
  8
VERMASSUNG
100
AcDbLine
 10
208.370342003
 20
99.1540516669
 30
0.0
 11
218.8725048263
 21
99.1540516669
 31
0.0
  0
LINE
  5
19B
330
194
100
AcDbEntity
  8
VERMASSUNG
100
AcDbLine
 10
217.8725048263
 20
135.1540516669
 30
0.0
 11
217.8725048263
 21
99.1540516669
 31
0.0
  0
MTEXT
  5
19C
330
194
100
AcDbEntity
  8
VERMASSUNG
100
AcDbMText
 10
215.2943695214
 20
113.9490517096
 30
0.0
 40
2.0
 41
0.0
 71
     1
 72
     1
  1
%%c
  7
SLDTEXTSTYLE0
 11
-7.044195017643634E-15
 21
1.0
 31
0.0
 73
     1
 44
1.0
  0
MTEXT
  5
19D
330
194
100
AcDbEntity
  8
VERMASSUNG
100
AcDbMText
 10
215.0943695701
 20
117.5590517239
 30
0.0
 40
2.0
 41
0.0
 71
     1
 72
     1
  1
36
  7
SLDTEXTSTYLE0
 11
-7.044195017643634E-15
 21
1.0
 31
0.0
 73
     1
 44
1.0
  0
ENDBLK
  5
196
330
194
100
AcDbEntity
  8
0
100
AcDbBlockEnd
  0
BLOCK
  5
1A0
330
19F
100
AcDbEntity
  8
0
100
AcDbBlockBegin
  2
_D_2
 70
     0
 10
0.0
 20
0.0
 30
0.0
  3
_D_2
  1

  0
SOLID
  5
1A2
330
19F
100
AcDbEntity
  8
VERMASSUNG
100
AcDbTrace
 10
223.8725048263
 20
157.1540516669
 30
0.0
 11
223.4225048263
 21
154.1540516669
 31
0.0
 12
224.3225048263
 22
154.1540516669
 32
0.0
 13
224.3225048263
 23
154.1540516669
 33
0.0
  0
SOLID
  5
1A3
330
19F
100
AcDbEntity
  8
VERMASSUNG
100
AcDbTrace
 10
223.8725048263
 20
77.1540516669
 30
0.0
 11
224.3225048263
 21
80.1540516669
 31
0.0
 12
223.4225048263
 22
80.1540516669
 32
0.0
 13
223.4225048263
 23
80.1540516669
 33
0.0
  0
LINE
  5
1A4
330
19F
100
AcDbEntity
  8
VERMASSUNG
100
AcDbLine
 10
208.570342003
 20
157.1540516669
 30
0.0
 11
224.8725048263
 21
157.1540516669
 31
0.0
  0
LINE
  5
1A5
330
19F
100
AcDbEntity
  8
VERMASSUNG
100
AcDbLine
 10
208.570342003
 20
77.1540516669
 30
0.0
 11
224.8725048263
 21
77.1540516669
 31
0.0
  0
LINE
  5
1A6
330
19F
100
AcDbEntity
  8
VERMASSUNG
100
AcDbLine
 10
223.8725048263
 20
157.1540516669
 30
0.0
 11
223.8725048263
 21
77.1540516669
 31
0.0
  0
MTEXT
  5
1A7
330
19F
100
AcDbEntity
  8
VERMASSUNG
100
AcDbMText
 10
221.0943695701
 20
112.0490516776
 30
0.0
 40
2.0
 41
0.0
 71
     1
 72
     1
  1
WH
  7
SLDTEXTSTYLE0
 11
-7.044195017643634E-15
 21
1.0
 31
0.0
 73
     1
 44
1.0
  0
MTEXT
  5
1A8
330
19F
100
AcDbEntity
  8
VERMASSUNG
100
AcDbMText
 10
221.2943695214
 20
115.8490517417
 30
0.0
 40
2.0
 41
0.0
 71
     1
 72
     1
  1
%%c
  7
SLDTEXTSTYLE0
 11
-7.044195017643634E-15
 21
1.0
 31
0.0
 73
     1
 44
1.0
  0
MTEXT
  5
1A9
330
19F
100
AcDbEntity
  8
VERMASSUNG
100
AcDbMText
 10
221.0943695701
 20
119.459051756
 30
0.0
 40
2.0
 41
0.0
 71
     1
 72
     1
  1
80
  7
SLDTEXTSTYLE0
 11
-7.044195017643634E-15
 21
1.0
 31
0.0
 73
     1
 44
1.0
  0
ENDBLK
  5
1A1
330
19F
100
AcDbEntity
  8
0
100
AcDbBlockEnd
  0
BLOCK
  5
1AC
330
1AB
100
AcDbEntity
  8
0
100
AcDbBlockBegin
  2
_D_3
 70
     0
 10
0.0
 20
0.0
 30
0.0
  3
_D_3
  1

  0
ARC
  5
1AE
330
1AB
100
AcDbEntity
  8
VERMASSUNG
100
AcDbCircle
 10
184.7453421331
 20
174.0179993909
 30
0.0
 40
4.248529228887633
100
AcDbArc
 50
153.4349488229
 51
206.5650511771
  0
ARC
  5
1AF
330
1AB
100
AcDbEntity
  8
VERMASSUNG
100
AcDbCircle
 10
182.9453419312
 20
174.0179993909
 30
0.0
 40
4.248529228887608
100
AcDbArc
 50
333.4349488229
 51
26.5650511771
  0
SOLID
  5
1B0
330
1AB
100
AcDbEntity
  8
VERMASSUNG
100
AcDbTrace
 10
209.370342003
 20
172.117999126
 30
0.0
 11
206.370342003
 21
172.567999126
 31
0.0
 12
206.370342003
 22
171.667999126
 32
0.0
 13
206.370342003
 23
171.667999126
 33
0.0
  0
SOLID
  5
1B1
330
1AB
100
AcDbEntity
  8
VERMASSUNG
100
AcDbTrace
 10
158.320342003
 20
172.117999126
 30
0.0
 11
161.320342003
 21
171.667999126
 31
0.0
 12
161.320342003
 22
172.567999126
 32
0.0
 13
161.320342003
 23
172.567999126
 33
0.0
  0
LINE
  5
1B2
330
1AB
100
AcDbEntity
  8
VERMASSUNG
100
AcDbLine
 10
209.370342003
 20
156.3540516669
 30
0.0
 11
209.370342003
 21
173.117999126
 31
0.0
  0
LINE
  5
1B3
330
1AB
100
AcDbEntity
  8
VERMASSUNG
100
AcDbLine
 10
158.320342003
 20
165.1227914877
 30
0.0
 11
158.320342003
 21
173.117999126
 31
0.0
  0
LINE
  5
1B4
330
1AB
100
AcDbEntity
  8
VERMASSUNG
100
AcDbLine
 10
209.370342003
 20
172.117999126
 30
0.0
 11
158.320342003
 21
172.117999126
 31
0.0
  0
MTEXT
  5
1B5
330
1AB
100
AcDbEntity
  8
VERMASSUNG
100
AcDbMText
 10
180.945342069
 20
174.6961349548
 30
0.0
 40
2.0
 41
0.0
 71
     1
 72
     1
  1
51.05
  7
SLDTEXTSTYLE0
 73
     1
 44
1.0
  0
ENDBLK
  5
1AD
330
1AB
100
AcDbEntity
  8
0
100
AcDbBlockEnd
  0
BLOCK
  5
1B8
330
1B7
100
AcDbEntity
  8
0
100
AcDbBlockBegin
  2
_D_4
 70
     0
 10
0.0
 20
0.0
 30
0.0
  3
_D_4
  1

  0
SOLID
  5
1BA
330
1B7
100
AcDbEntity
  8
VERMASSUNG
100
AcDbTrace
 10
209.370342003
 20
178.117999126
 30
0.0
 11
206.370342003
 21
178.567999126
 31
0.0
 12
206.370342003
 22
177.667999126
 32
0.0
 13
206.370342003
 23
177.667999126
 33
0.0
  0
SOLID
  5
1BB
330
1B7
100
AcDbEntity
  8
VERMASSUNG
100
AcDbTrace
 10
129.370342003
 20
178.117999126
 30
0.0
 11
132.370342003
 21
177.667999126
 31
0.0
 12
132.370342003
 22
178.567999126
 32
0.0
 13
132.370342003
 23
178.567999126
 33
0.0
  0
LINE
  5
1BC
330
1B7
100
AcDbEntity
  8
VERMASSUNG
100
AcDbLine
 10
209.370342003
 20
156.3540516669
 30
0.0
 11
209.370342003
 21
179.117999126
 31
0.0
  0
LINE
  5
1BD
330
1B7
100
AcDbEntity
  8
VERMASSUNG
100
AcDbLine
 10
129.370342003
 20
166.6540516669
 30
0.0
 11
129.370342003
 21
179.117999126
 31
0.0
  0
LINE
  5
1BE
330
1B7
100
AcDbEntity
  8
VERMASSUNG
100
AcDbLine
 10
209.370342003
 20
178.117999126
 30
0.0
 11
129.370342003
 21
178.117999126
 31
0.0
  0
MTEXT
  5
1BF
330
1B7
100
AcDbEntity
  8
VERMASSUNG
100
AcDbMText
 10
167.9703420529
 20
180.696134722
 30
0.0
 40
2.0
 41
0.0
 71
     1
 72
     1
  1
80
  7
SLDTEXTSTYLE0
 73
     1
 44
1.0
  0
ENDBLK
  5
1B9
330
1B7
100
AcDbEntity
  8
0
100
AcDbBlockEnd
  0
BLOCK
  5
1C2
330
1C1
100
AcDbEntity
  8
0
100
AcDbBlockBegin
  2
_D_5
 70
     0
 10
0.0
 20
0.0
 30
0.0
  3
_D_5
  1

  0
ARC
  5
1C4
330
1C1
100
AcDbEntity
  8
VERMASSUNG
100
AcDbCircle
 10
145.3203421331
 20
186.0179993909
 30
0.0
 40
4.248529228887608
100
AcDbArc
 50
153.4349488229
 51
206.5650511771
  0
ARC
  5
1C5
330
1C1
100
AcDbEntity
  8
VERMASSUNG
100
AcDbCircle
 10
143.5203419312
 20
186.0179993909
 30
0.0
 40
4.248529228887633
100
AcDbArc
 50
333.4349488229
 51
26.5650511771
  0
SOLID
  5
1C6
330
1C1
100
AcDbEntity
  8
VERMASSUNG
100
AcDbTrace
 10
209.370342003
 20
184.117999126
 30
0.0
 11
206.370342003
 21
184.567999126
 31
0.0
 12
206.370342003
 22
183.667999126
 32
0.0
 13
206.370342003
 23
183.667999126
 33
0.0
  0
SOLID
  5
1C7
330
1C1
100
AcDbEntity
  8
VERMASSUNG
100
AcDbTrace
 10
79.470342003
 20
184.117999126
 30
0.0
 11
82.470342003
 21
183.667999126
 31
0.0
 12
82.470342003
 22
184.567999126
 32
0.0
 13
82.470342003
 23
184.567999126
 33
0.0
  0
LINE
  5
1C8
330
1C1
100
AcDbEntity
  8
VERMASSUNG
100
AcDbLine
 10
209.370342003
 20
156.3540516669
 30
0.0
 11
209.370342003
 21
185.117999126
 31
0.0
  0
LINE
  5
1C9
330
1C1
100
AcDbEntity
  8
VERMASSUNG
100
AcDbLine
 10
79.470342003
 20
147.6567214094
 30
0.0
 11
79.470342003
 21
185.117999126
 31
0.0
  0
LINE
  5
1CA
330
1C1
100
AcDbEntity
  8
VERMASSUNG
100
AcDbLine
 10
209.370342003
 20
184.117999126
 30
0.0
 11
79.470342003
 21
184.117999126
 31
0.0
  0
MTEXT
  5
1CB
330
1C1
100
AcDbEntity
  8
VERMASSUNG
100
AcDbMText
 10
141.520342069
 20
186.6961349548
 30
0.0
 40
2.0
 41
0.0
 71
     1
 72
     1
  1
129.9
  7
SLDTEXTSTYLE0
 73
     1
 44
1.0
  0
ENDBLK
  5
1C3
330
1C1
100
AcDbEntity
  8
0
100
AcDbBlockEnd
  0
ENDSEC
  0
SECTION
  2
ENTITIES
  0
MTEXT
  5
78
330
1F
100
AcDbEntity
  8
KOPF_DÜNN
100
AcDbMText
 10
13.8892156294
 20
23.8442973028
 30
0.0
 40
3.0
 41
0.0
 71
     1
 72
     1
  1
A44.810.080.080
  7
SLDTEXTSTYLE0
 73
     1
 44
1.0
  0
MTEXT
  5
79
330
1F
100
AcDbEntity
  8
VERMASSUNG
100
AcDbMText
 10
13.9329988022
 20
28.8834360957
 30
0.0
 40
3.0
 41
0.0
 71
     1
 72
     1
  1
Aufnahme Master shank WH80
  7
SLDTEXTSTYLE0
 73
     1
 44
1.0
  0
MTEXT
  5
7A
330
1F
100
AcDbEntity
  8
VERMASSUNG
100
AcDbMText
 10
98.8601118557
 20
13.8365368761
 30
0.0
 40
2.0
 41
0.0
 71
     1
 72
     1
  1
Datum: 29.11.2011
  7
SLDTEXTSTYLE0
 73
     1
 44
1.0
  0
MTEXT
  5
7B
330
1F
100
AcDbEntity
  8
VERMASSUNG
100
AcDbMText
 10
13.933048693
 20
18.0482802738
 30
0.0
 40
2.0
 41
0.0
 71
     1
 72
     1
  1
DIN 69893
  7
SLDTEXTSTYLE0
 73
     1
 44
1.0
  0
MTEXT
  5
7C
330
1F
100
AcDbEntity
  8
VERMASSUNG
100
AcDbMText
 10
13.9808475933
 20
13.9090974274
 30
0.0
 40
2.0
 41
0.0
 71
     1
 72
     1
  1
Gewicht: 3692g
  7
SLDTEXTSTYLE0
 73
     1
 44
1.0
  0
LINE
  5
7D
330
1F
100
AcDbEntity
  8
0
  6
Continuous
 62
     7
370
    15
100
AcDbLine
 10
198.7271735936
 20
156.7472200762
 30
0.0
 11
198.320342003
 21
157.1540516669
 31
0.0
  0
LINE
  5
7E
330
1F
100
AcDbEntity
  8
0
  6
Continuous
 62
     7
370
    15
100
AcDbLine
 10
184.320342003
 20
157.1540516669
 30
0.0
 11
183.9136471133
 21
156.7473567772
 31
0.0
  0
ARC
  5
7F
330
1F
100
AcDbEntity
  8
0
  6
Continuous
 62
     7
370
    15
100
AcDbCircle
 10
129.870342003
 20
67.6540516669
 30
0.0
 40
0.5
100
AcDbArc
 50
180.0
 51
270.0
  0
ARC
  5
80
330
1F
100
AcDbEntity
  8
0
  6
Continuous
 62
     7
370
    15
100
AcDbCircle
 10
129.870342003
 20
166.6540516669
 30
0.0
 40
0.5
100
AcDbArc
 50
90.0
 51
180.0
  0
LINE
  5
81
330
1F
100
AcDbEntity
  8
0
  6
Continuous
 62
     7
370
    15
100
AcDbLine
 10
129.870342003
 20
67.1540516669
 30
0.0
 11
134.320342003
 21
67.1540516669
 31
0.0
  0
LINE
  5
82
330
1F
100
AcDbEntity
  8
0
  6
Continuous
 62
     7
370
    15
100
AcDbLine
 10
134.3269661924
 20
167.1540516669
 30
0.0
 11
129.870342003
 21
167.1540516669
 31
0.0
  0
ARC
  5
83
330
1F
100
AcDbEntity
  8
0
  6
Continuous
 62
     7
370
    15
100
AcDbCircle
 10
161.320342003
 20
74.1540516669
 30
0.0
 40
3.0
100
AcDbArc
 50
90.0
 51
180.0
  0
ARC
  5
84
330
1F
100
AcDbEntity
  8
0
  6
Continuous
 62
     7
370
    15
100
AcDbCircle
 10
161.320342003
 20
160.1540516669
 30
0.0
 40
3.0
100
AcDbArc
 50
180.0
 51
270.0
  0
LINE
  5
85
330
1F
100
AcDbEntity
  8
0
  6
Continuous
 62
     7
370
    15
100
AcDbLine
 10
181.5785564972
 20
157.1540516669
 30
0.0
 11
161.320342003
 21
157.1540516669
 31
0.0
  0
LINE
  5
86
330
1F
100
AcDbEntity
  8
0
  6
Continuous
 62
     7
370
    15
100
AcDbLine
 10
208.570342003
 20
157.1540516669
 30
0.0
 11
201.0401465213
 21
157.1540516669
 31
0.0
  0
LINE
  5
87
330
1F
100
AcDbEntity
  8
0
  6
Continuous
 62
     7
370
    15
100
AcDbLine
 10
161.320342003
 20
77.1540516669
 30
0.0
 11
208.570342003
 21
77.1540516669
 31
0.0
  0
LINE
  5
88
330
1F
100
AcDbEntity
  8
0
  6
Continuous
 62
     7
370
    15
100
AcDbLine
 10
208.570342003
 20
77.1540516669
 30
0.0
 11
209.370342003
 21
77.9540516669
 31
0.0
  0
LINE
  5
89
330
1F
100
AcDbEntity
  8
0
  6
Continuous
 62
     7
370
    15
100
AcDbLine
 10
209.370342003
 20
156.3540516669
 30
0.0
 11
208.570342003
 21
157.1540516669
 31
0.0
  0
ARC
  5
8A
330
1F
100
AcDbEntity
  8
0
  6
Continuous
 62
     7
370
    15
100
AcDbCircle
 10
128.4734050846
 20
78.5255663424
 30
0.0
 40
0.996233821438679
100
AcDbArc
 50
25.7988228126
 51
90.0
  0
ARC
  5
8B
330
1F
100
AcDbEntity
  8
0
  6
Continuous
 62
     7
370
    15
100
AcDbCircle
 10
128.4734050846
 20
155.7825369913
 30
0.0
 40
0.9962338214386932
100
AcDbArc
 50
270.0
 51
334.2011771874
  0
LINE
  5
8C
330
1F
100
AcDbEntity
  8
0
  6
Continuous
 62
     7
370
    15
100
AcDbLine
 10
107.8896465817
 20
154.0853665255
 30
0.0
 11
89.570342003
 21
153.1675656949
 31
0.0
  0
LINE
  5
8D
330
1F
100
AcDbEntity
  8
0
  6
Continuous
 62
     7
370
    15
100
AcDbLine
 10
126.870342003
 20
155.0363031699
 30
0.0
 11
120.8023028485
 21
154.7322931922
 31
0.0
  0
LINE
  5
8E
330
1F
100
AcDbEntity
  8
0
  6
Continuous
 62
     7
370
    15
100
AcDbLine
 10
120.802426125
 20
79.5758039654
 30
0.0
 11
126.870342003
 21
79.2718001639
 31
0.0
  0
LINE
  5
8F
330
1F
100
AcDbEntity
  8
0
  6
Continuous
 62
     7
370
    15
100
AcDbLine
 10
94.570342003
 20
80.8900366368
 30
0.0
 11
107.8902931569
 21
80.2227044147
 31
0.0
  0
LINE
  5
90
330
1F
100
AcDbEntity
  8
0
  6
Continuous
 62
     7
370
    15
100
AcDbLine
 10
126.870342003
 20
79.2718001639
 30
0.0
 11
127.6761881574
 21
79.4877259901
 31
0.0
  0
LINE
  5
91
330
1F
100
AcDbEntity
  8
0
  6
Continuous
 62
     7
370
    15
100
AcDbLine
 10
127.6761881574
 20
154.8203773436
 30
0.0
 11
126.870342003
 21
155.0363031699
 31
0.0
  0
ARC
  5
92
330
1F
100
AcDbEntity
  8
0
  6
Continuous
 62
     7
370
    15
100
AcDbCircle
 10
127.9350072025
 20
78.5218001639
 30
0.0
 40
0.9999999999999858
100
AcDbArc
 50
90.0
 51
105.0
  0
ARC
  5
93
330
1F
100
AcDbEntity
  8
0
  6
Continuous
 62
     7
370
    15
100
AcDbCircle
 10
127.9350072025
 20
155.7863031699
 30
0.0
 40
1.0
100
AcDbArc
 50
255.0
 51
270.0
  0
LINE
  5
94
330
1F
100
AcDbEntity
  8
0
  6
Continuous
 62
     7
370
    15
100
AcDbLine
 10
127.9350072025
 20
79.5218001639
 30
0.0
 11
128.4734050846
 21
79.5218001639
 31
0.0
  0
LINE
  5
95
330
1F
100
AcDbEntity
  8
0
  6
Continuous
 62
     7
370
    15
100
AcDbLine
 10
128.4734050846
 20
154.7863031699
 30
0.0
 11
127.9350072025
 21
154.7863031699
 31
0.0
  0
LINE
  5
96
330
1F
100
AcDbEntity
  8
0
  6
Continuous
 62
     7
370
    15
100
AcDbLine
 10
81.120342003
 20
84.9040516669
 30
0.0
 11
92.670342003
 21
84.9040516669
 31
0.0
  0
ARC
  5
97
330
1F
100
AcDbEntity
  8
0
  6
Continuous
 62
     7
370
    15
100
AcDbCircle
 10
92.670342003
 20
83.0040516669
 30
0.0
 40
1.900000000000007
100
AcDbArc
 50
35.6630613694
 51
90.0
  0
ARC
  5
98
330
1F
100
AcDbEntity
  8
0
  6
Continuous
 62
     7
370
    15
100
AcDbCircle
 10
87.670342003
 20
151.3040516669
 30
0.0
 40
1.9
100
AcDbArc
 50
270.0
 51
312.7708047792
  0
LINE
  5
99
330
1F
100
AcDbEntity
  8
0
  6
Continuous
 62
     7
370
    15
100
AcDbLine
 10
79.5218632541
 20
86.5025304158
 30
0.0
 11
81.120342003
 21
84.9040516669
 31
0.0
  0
LINE
  5
9A
330
1F
100
AcDbEntity
  8
0
  6
Continuous
 62
     7
370
    15
100
AcDbLine
 10
81.120342003
 20
149.4040516669
 30
0.0
 11
79.5210258841
 21
147.804735548
 31
0.0
  0
LINE
  5
9B
330
1F
100
AcDbEntity
  8
0
  6
Continuous
 62
     7
370
    15
100
AcDbLine
 10
87.670342003
 20
149.4040516669
 30
0.0
 11
81.120342003
 21
149.4040516669
 31
0.0
  0
SPLINE
  5
9C
330
1F
100
AcDbEntity
  8
0
  6
Continuous
 62
     7
370
    15
100
AcDbSpline
210
0.0
220
0.0
230
1.0
 70
    24
 71
     3
 72
    11
 73
     7
 74
     0
 42
0.000000001
 43
0.00000001
 40
0.0
 40
0.0
 40
0.0
 40
0.0
 40
0.2164567244934119
 40
0.4403141600939099
 40
0.7519028444798678
 40
1.0
 40
1.0
 40
1.0
 40
1.0
 10
187.4300323093963
 20
119.6437953928558
 30
0.0
 10
187.4155767001477
 20
119.3277313643247
 30
0.0
 10
187.3861712406508
 20
118.6847969968004
 30
0.0
 10
187.3316027187245
 20
117.4916859646407
 30
0.0
 10
187.2730685456928
 20
116.2118681294297
 30
0.0
 10
187.2356103041973
 20
115.3928640663578
 30
0.0
 10
187.21900584058
 20
115.0298165066023
 30
0.0
  0
SPLINE
  5
9D
330
1F
100
AcDbEntity
  8
0
  6
Continuous
 62
     7
370
    15
100
AcDbSpline
210
0.0
220
0.0
230
1.0
 70
    24
 71
     3
 72
    11
 73
     7
 74
     0
 42
0.000000001
 43
0.00000001
 40
0.0
 40
0.0
 40
0.0
 40
0.0
 40
0.2164567244934234
 40
0.4403141600939222
 40
0.7519028444798539
 40
1.0
 40
1.0
 40
1.0
 40
1.0
 10
187.2190058405799
 20
115.0298165066023
 30
0.0
 10
187.4854975138861
 20
114.8592655675004
 30
0.0
 10
188.0275922793799
 20
114.512332508804
 30
0.0
 10
189.0335724818025
 20
113.868519266489
 30
0.0
 10
190.1126601527955
 20
113.1779182680483
 30
0.0
 10
190.8032093564709
 20
112.7359764477964
 30
0.0
 10
191.1093155341926
 20
112.54007278061
 30
0.0
  0
SPLINE
  5
9E
330
1F
100
AcDbEntity
  8
0
  6
Continuous
 62
     7
370
    15
100
AcDbSpline
210
0.0
220
0.0
230
1.0
 70
    24
 71
     3
 72
    11
 73
     7
 74
     0
 42
0.000000001
 43
0.00000001
 40
0.0
 40
0.0
 40
0.0
 40
0.0
 40
0.1845133558518819
 40
0.51805650391637
 40
0.8676122830485015
 40
1.0
 40
1.0
 40
1.0
 40
1.0
 10
191.1093155341925
 20
112.54007278061
 30
0.0
 10
191.3475009045794
 20
112.6634378788116
 30
0.0
 10
192.0162518451114
 20
113.0098089649833
 30
0.0
 10
193.2627856713327
 20
113.6554353845807
 30
0.0
 10
194.4210620423591
 20
114.2553499722151
 30
0.0
 10
195.0404959737173
 20
114.576177937624
 30
0.0
 10
195.2106516966209
 20
114.6643079408709
 30
0.0
  0
SPLINE
  5
9F
330
1F
100
AcDbEntity
  8
0
  6
Continuous
 62
     7
370
    15
100
AcDbSpline
210
0.0
220
0.0
230
1.0
 70
    24
 71
     3
 72
    11
 73
     7
 74
     0
 42
0.000000001
 43
0.00000001
 40
0.0
 40
0.0
 40
0.0
 40
0.0
 40
0.2164567244934205
 40
0.4403141600939158
 40
0.7519028444798782
 40
1.0
 40
1.0
 40
1.0
 40
1.0
 10
195.2106516966209
 20
114.6643079408709
 30
0.0
 10
195.2251073058694
 20
114.980371969402
 30
0.0
 10
195.2545127653663
 20
115.6233063369263
 30
0.0
 10
195.3090812872927
 20
116.816417369086
 30
0.0
 10
195.3676154603245
 20
118.096235204297
 30
0.0
 10
195.4050737018199
 20
118.9152392673689
 30
0.0
 10
195.4216781654371
 20
119.2782868271243
 30
0.0
  0
SPLINE
  5
A0
330
1F
100
AcDbEntity
  8
0
  6
Continuous
 62
     7
370
    15
100
AcDbSpline
210
0.0
220
0.0
230
1.0
 70
    24
 71
     3
 72
    11
 73
     7
 74
     0
 42
0.000000001
 43
0.00000001
 40
0.0
 40
0.0
 40
0.0
 40
0.0
 40
0.2164567244934088
 40
0.4403141600939148
 40
0.7519028444798874
 40
1.0
 40
1.0
 40
1.0
 40
1.0
 10
195.4216781654371
 20
119.2782868271243
 30
0.0
 10
195.155186492131
 20
119.4488377662263
 30
0.0
 10
194.6130917266373
 20
119.7957708249227
 30
0.0
 10
193.6071115242148
 20
120.4395840672378
 30
0.0
 10
192.5280238532214
 20
121.1301850656781
 30
0.0
 10
191.8374746495462
 20
121.5721268859303
 30
0.0
 10
191.5313684718247
 20
121.7680305531167
 30
0.0
  0
SPLINE
  5
A1
330
1F
100
AcDbEntity
  8
0
  6
Continuous
 62
     7
370
    15
100
AcDbSpline
210
0.0
220
0.0
230
1.0
 70
    24
 71
     3
 72
    11
 73
     7
 74
     0
 42
0.000000001
 43
0.00000001
 40
0.0
 40
0.0
 40
0.0
 40
0.0
 40
0.1323877169515051
 40
0.4819434960836134
 40
0.8154866441481052
 40
1.0
 40
1.0
 40
1.0
 40
1.0
 10
191.5313684718247
 20
121.7680305531167
 30
0.0
 10
191.3612127489211
 20
121.6799005498698
 30
0.0
 10
190.7417788175629
 20
121.3590725844609
 30
0.0
 10
189.5835024465365
 20
120.7591579968264
 30
0.0
 10
188.3369686203152
 20
120.1135315772291
 30
0.0
 10
187.6682176797832
 20
119.7671604910574
 30
0.0
 10
187.4300323093963
 20
119.6437953928558
 30
0.0
  0
CIRCLE
  5
A2
330
1F
100
AcDbEntity
  8
0
  6
Continuous
 62
     7
370
    15
100
AcDbCircle
 10
191.320342003
 20
117.1540516669
 30
0.0
 40
4.700000000000004
  0
CIRCLE
  5
A3
330
1F
100
AcDbEntity
  8
0
  6
Continuous
 62
     7
370
    15
100
AcDbCircle
 10
191.320342003
 20
117.1540516669
 30
0.0
 40
6.999999999999983
  0
CIRCLE
  5
A4
330
1F
100
AcDbEntity
  8
0
  6
Continuous
 62
     7
370
    15
100
AcDbCircle
 10
191.320342003
 20
117.1540516669
 30
0.0
 40
7.999999999999989
  0
ARC
  5
A5
330
1F
100
AcDbEntity
  8
0
  6
Continuous
 62
     7
370
    15
100
AcDbCircle
 10
191.320342003
 20
117.1540516669
 30
0.0
 40
4.000000000000011
100
AcDbArc
 50
357.3813261301
 51
57.3813261301
  0
ARC
  5
A6
330
1F
100
AcDbEntity
  8
0
  6
Continuous
 62
     7
370
    15
100
AcDbCircle
 10
191.320342003
 20
117.1540516669
 30
0.0
 40
4.000000000000031
100
AcDbArc
 50
237.3813261301
 51
297.3813261301
  0
ARC
  5
A7
330
1F
100
AcDbEntity
  8
0
  6
Continuous
 62
     7
370
    15
100
AcDbCircle
 10
191.320342003
 20
117.1540516669
 30
0.0
 40
4.000000000000031
100
AcDbArc
 50
177.3813261301
 51
237.3813261301
  0
ARC
  5
A8
330
1F
100
AcDbEntity
  8
0
  6
Continuous
 62
     7
370
    15
100
AcDbCircle
 10
191.320342003
 20
117.1540516669
 30
0.0
 40
3.999999999999976
100
AcDbArc
 50
117.3813261301
 51
177.3813261301
  0
ARC
  5
A9
330
1F
100
AcDbEntity
  8
0
  6
Continuous
 62
     7
370
    15
100
AcDbCircle
 10
191.320342003
 20
117.1540516669
 30
0.0
 40
4.000000000000011
100
AcDbArc
 50
57.3813261301
 51
117.3813261301
  0
ARC
  5
AA
330
1F
100
AcDbEntity
  8
0
  6
Continuous
 62
     7
370
    15
100
AcDbCircle
 10
191.320342003
 20
117.1540516669
 30
0.0
 40
4.000000000000001
100
AcDbArc
 50
297.3813261301
 51
357.3813261301
  0
LINE
  5
AB
330
1F
100
AcDbEntity
  8
0
  6
Continuous
 62
     7
370
    15
100
AcDbLine
 10
184.320342003
 20
157.1540516669
 30
0.0
 11
198.320342003
 21
157.1540516669
 31
0.0
  0
LINE
  5
AC
330
1F
100
AcDbEntity
  8
0
  6
Continuous
 62
     7
370
    15
100
AcDbLine
 10
129.370342003
 20
67.6540516669
 30
0.0
 11
129.370342003
 21
166.6540516609
 31
0.0
  0
LINE
  5
AD
330
1F
100
AcDbEntity
  8
0
  6
Continuous
 62
     7
370
    15
100
AcDbLine
 10
157.320342003
 20
68.3790580738
 30
0.0
 11
152.6323710239
 21
68.3790580738
 31
0.0
  0
LINE
  5
AE
330
1F
100
AcDbEntity
  8
0
  6
Continuous
 62
     7
370
    15
100
AcDbLine
 10
152.6323710239
 20
68.3790580738
 30
0.0
 11
152.6323710239
 21
148.5040516669
 31
0.0
  0
LINE
  5
AF
330
1F
100
AcDbEntity
  8
0
  6
Continuous
 62
     7
370
    15
100
AcDbLine
 10
152.6323710239
 20
148.5040516669
 30
0.0
 11
157.320342003
 21
148.5040516669
 31
0.0
  0
SPLINE
  5
B0
330
1F
100
AcDbEntity
  8
0
  6
Continuous
 62
     7
370
    15
100
AcDbSpline
210
0.0
220
0.0
230
1.0
 70
     8
 71
     3
 72
     8
 73
     4
 74
     0
 42
0.000000001
 43
0.00000001
 40
0.0
 40
0.0
 40
0.0
 40
0.0
 40
1.0
 40
1.0
 40
1.0
 40
1.0
 10
152.6323710239299
 20
68.37905807383451
 30
0.0
 10
152.1812662945297
 20
69.18001800565442
 30
0.0
 10
151.7305684672864
 20
69.98120801721508
 30
0.0
 10
151.2803420030086
 20
70.78266337983985
 30
0.0
  0
LINE
  5
B1
330
1F
100
AcDbEntity
  8
0
  6
Continuous
 62
     7
370
    15
100
AcDbLine
 10
151.280342003
 20
70.7826633798
 30
0.0
 11
151.280342003
 21
148.5040516669
 31
0.0
  0
SPLINE
  5
B2
330
1F
100
AcDbEntity
  8
0
  6
Continuous
 62
     7
370
    15
100
AcDbSpline
210
0.0
220
0.0
230
1.0
 70
    24
 71
     3
 72
     8
 73
     4
 74
     0
 42
0.000000001
 43
0.00000001
 40
0.0
 40
0.0
 40
0.0
 40
0.0
 40
1.0
 40
1.0
 40
1.0
 40
1.0
 10
151.2803420030086
 20
148.5040516668633
 30
0.0
 10
151.7245548853625
 20
148.5040516668633
 30
0.0
 10
152.1755694516017
 20
148.5040516668633
 30
0.0
 10
152.6323710239299
 20
148.5040516668633
 30
0.0
  0
LINE
  5
B3
330
1F
100
AcDbEntity
  8
0
  6
Continuous
 62
     7
370
    15
100
AcDbLine
 10
147.460342003
 20
70.7826633798
 30
0.0
 11
147.460342003
 21
148.5040516669
 31
0.0
  0
SPLINE
  5
B4
330
1F
100
AcDbEntity
  8
0
  6
Continuous
 62
     7
370
    15
100
AcDbSpline
210
0.0
220
0.0
230
1.0
 70
     8
 71
     3
 72
     8
 73
     4
 74
     0
 42
0.000000001
 43
0.00000001
 40
0.0
 40
0.0
 40
0.0
 40
0.0
 40
1.0
 40
1.0
 40
1.0
 40
1.0
 10
147.4603420030086
 20
70.78266337983985
 30
0.0
 10
147.0101155387308
 20
69.98120801721508
 30
0.0
 10
146.5594177114874
 20
69.18001800565442
 30
0.0
 10
146.1083129820872
 20
68.37905807383451
 30
0.0
  0
LINE
  5
B5
330
1F
100
AcDbEntity
  8
0
  6
Continuous
 62
     7
370
    15
100
AcDbLine
 10
146.1083129821
 20
68.3790580738
 30
0.0
 11
146.1083129821
 21
148.5040516669
 31
0.0
  0
SPLINE
  5
B6
330
1F
100
AcDbEntity
  8
0
  6
Continuous
 62
     7
370
    15
100
AcDbSpline
210
0.0
220
0.0
230
1.0
 70
    24
 71
     3
 72
     8
 73
     4
 74
     0
 42
0.000000001
 43
0.00000001
 40
0.0
 40
0.0
 40
0.0
 40
0.0
 40
1.0
 40
1.0
 40
1.0
 40
1.0
 10
146.1083129820872
 20
148.5040516668633
 30
0.0
 10
146.5651145544154
 20
148.5040516668633
 30
0.0
 10
147.0161291206547
 20
148.5040516668633
 30
0.0
 10
147.4603420030086
 20
148.5040516668633
 30
0.0
  0
LINE
  5
B7
330
1F
100
AcDbEntity
  8
0
  6
Continuous
 62
     7
370
    15
100
AcDbLine
 10
158.320342003
 20
69.4047061216
 30
0.0
 11
158.320342003
 21
148.5040516669
 31
0.0
  0
SPLINE
  5
B8
330
1F
100
AcDbEntity
  8
0
  6
Continuous
 62
     7
370
    15
100
AcDbSpline
210
0.0
220
0.0
230
1.0
 70
     8
 71
     3
 72
    14
 73
    10
 74
     0
 42
0.000000001
 43
0.00000001
 40
0.0
 40
0.0
 40
0.0
 40
0.0
 40
0.25
 40
0.25
 40
0.5
 40
0.5
 40
0.75
 40
0.75
 40
1.0
 40
1.0
 40
1.0
 40
1.0
 10
158.3203420030086
 20
69.40470612161
 30
0.0
 10
158.3203420030086
 20
69.2727212294198
 30
0.0
 10
158.2948794588555
 20
69.1392136751318
 30
0.0
 10
158.1971947037962
 20
68.89399980244127
 30
0.0
 10
158.1239935153606
 20
68.77969367643666
 30
0.0
 10
157.9406323155223
 20
68.58905593044018
 30
0.0
 10
157.8298321903144
 20
68.51170264708259
 30
0.0
 10
157.5855918430276
 20
68.40649301786911
 30
0.0
 10
157.4539490396378
 20
68.37905807383451
 30
0.0
 10
157.3203420030086
 20
68.37905807383451
 30
0.0
  0
SPLINE
  5
B9
330
1F
100
AcDbEntity
  8
0
  6
Continuous
 62
     7
370
    15
100
AcDbSpline
210
0.0
220
0.0
230
1.0
 70
    24
 71
     3
 72
    14
 73
    10
 74
     0
 42
0.000000001
 43
0.00000001
 40
0.0
 40
0.0
 40
0.0
 40
0.0
 40
0.25
 40
0.25
 40
0.5
 40
0.5
 40
0.75
 40
0.75
 40
1.0
 40
1.0
 40
1.0
 40
1.0
 10
157.3203420030086
 20
148.5040516668633
 30
0.0
 10
157.4710865569394
 20
148.5040516668633
 30
0.0
 10
157.6216825761101
 20
148.5040516668633
 30
0.0
 10
157.8785124628343
 20
148.5040516668633
 30
0.0
 10
157.9869206629352
 20
148.5040516668633
 30
0.0
 10
158.1576343877488
 20
148.5040516668633
 30
0.0
 10
158.2183593293953
 20
148.5040516668633
 30
0.0
 10
158.3006652989493
 20
148.5040516668633
 30
0.0
 10
158.3203420030086
 20
148.5040516668633
 30
0.0
 10
158.3203420030086
 20
148.5040516668633
 30
0.0
  0
LINE
  5
BA
330
1F
100
AcDbEntity
  8
0
  6
Continuous
 62
     7
370
    15
100
AcDbLine
 10
134.320342003
 20
148.5040516669
 30
0.0
 11
146.1083129821
 21
148.5040516669
 31
0.0
  0
LINE
  5
BB
330
1F
100
AcDbEntity
  8
0
  6
Continuous
 62
     7
370
    15
100
AcDbLine
 10
146.1083129821
 20
68.3790580738
 30
0.0
 11
144.320342003
 21
68.3790580738
 31
0.0
  0
SPLINE
  5
BC
330
1F
100
AcDbEntity
  8
0
  6
Continuous
 62
     7
370
    15
100
AcDbSpline
210
0.0
220
0.0
230
1.0
 70
     8
 71
     3
 72
    30
 73
    26
 74
     0
 42
0.000000001
 43
0.00000001
 40
0.0
 40
0.0
 40
0.0
 40
0.0
 40
0.1250000000000002
 40
0.1250000000000002
 40
0.1875000000000002
 40
0.1875000000000002
 40
0.2500000000000002
 40
0.2500000000000002
 40
0.3749999999999998
 40
0.3749999999999998
 40
0.4374999999999996
 40
0.4374999999999996
 40
0.4999999999999994
 40
0.4999999999999994
 40
0.6249999999999993
 40
0.6249999999999993
 40
0.6874999999999994
 40
0.6874999999999994
 40
0.7499999999999996
 40
0.7499999999999996
 40
0.8124999999999997
 40
0.8124999999999997
 40
0.8749999999999998
 40
0.8749999999999998
 40
1.0
 40
1.0
 40
1.0
 40
1.0
 10
144.3203420030086
 20
68.37905807383451
 30
0.0
 10
143.6575973091636
 20
68.3790580738345
 30
0.0
 10
143.0063414500478
 20
68.36421799724569
 30
0.0
 10
142.0458909117896
 20
68.32184843301609
 30
0.0
 10
141.7284994685566
 20
68.30437033023689
 30
0.0
 10
141.0993359670017
 20
68.2630420436846
 30
0.0
 10
140.78718778056
 20
68.2391167702269
 30
0.0
 10
139.8798804787118
 20
68.16031025376
 30
0.0
 10
139.3064555210705
 20
68.09800423378351
 30
0.0
 10
138.4925786514959
 20
67.99487491354417
 30
0.0
 10
138.227772454926
 20
67.95869099449764
 30
0.0
 10
137.7208650441117
 20
67.88489621029714
 30
0.0
 10
137.4794708927582
 20
67.8474223515255
 30
0.0
 10
136.7903294206258
 20
67.73471040818576
 30
0.0
 10
136.3772746057616
 20
67.659174310712
 30
0.0
 10
135.8291197863865
 20
67.5507810536945
 30
0.0
 10
135.6596571790409
 20
67.51570882203123
 30
0.0
 10
135.3516399310255
 20
67.4494733614314
 30
0.0
 10
135.2122599104172
 20
67.41814666467667
 30
0.0
 10
134.9624743977905
 20
67.35973789309574
 30
0.0
 10
134.8520682851365
 20
67.3326546579129
 30
0.0
 10
134.6608104314988
 20
67.28339490329931
 30
0.0
 10
134.5796909132145
 20
67.26113292349164
 30
0.0
 10
134.3855439931062
 20
67.20356601632335
 30
0.0
 10
134.3203420030086
 20
67.17730641153737
 30
0.0
 10
134.3203420030086
 20
67.16405266706334
 30
0.0
  0
LINE
  5
BD
330
1F
100
AcDbEntity
  8
0
  6
Continuous
 62
     7
370
    15
100
AcDbLine
 10
134.320342003
 20
67.1640526671
 30
0.0
 11
134.320342003
 21
67.1540516669
 31
0.0
  0
SPLINE
  5
BE
330
1F
100
AcDbEntity
  8
0
  6
Continuous
 62
     7
370
    15
100
AcDbSpline
210
0.0
220
0.0
230
1.0
 70
     8
 71
     3
 72
    23
 73
    19
 74
     0
 42
0.000000001
 43
0.00000001
 40
0.0
 40
0.0
 40
0.0
 40
0.0
 40
0.104323852836391
 40
0.1578691262907377
 40
0.2118104863542517
 40
0.3164948103581977
 40
0.369613540402392
 40
0.4234845729895295
 40
0.4761641179829691
 40
0.5295818803208582
 40
0.5833743935964446
 40
0.6379379659510551
 40
0.6910385395352113
 40
0.7445137617694711
 40
0.7991815678151925
 40
0.8542666114785521
 40
0.9597239524291334
 40
1.0
 40
1.0
 40
1.0
 40
1.0
 10
144.3203420030086
 20
166.1438465225269
 30
0.0
 10
143.7722457528876
 20
166.1489763838507
 30
0.0
 10
142.9428335544566
 20
166.1567391984245
 30
0.0
 10
141.8549666375756
 20
166.2037939262183
 30
0.0
 10
140.7892455883997
 20
166.2658973534193
 30
0.0
 10
139.7704167409232
 20
166.3506228084395
 30
0.0
 10
138.8206911277946
 20
166.4499351376127
 30
0.0
 10
138.1428477258936
 20
166.5303602637957
 30
0.0
 10
137.507168505145
 20
166.614114912753
 30
0.0
 10
136.9190470754425
 20
166.6987265354317
 30
0.0
 10
136.3763530542428
 20
166.7828749623757
 30
0.0
 10
135.8913083923386
 20
166.8630218828334
 30
0.0
 10
135.466788919464
 20
166.9369433026721
 30
0.0
 10
135.1041998893619
 20
167.0028406220472
 30
0.0
 10
134.8030752433478
 20
167.0595180122276
 30
0.0
 10
134.5010853682589
 20
167.1179244015916
 30
0.0
 10
134.3341277224228
 20
167.1512987981148
 30
0.0
 10
134.3285168563134
 20
167.1524184022861
 30
0.0
 10
134.326966192374
 20
167.1527278250706
 30
0.0
  0
LINE
  5
BF
330
1F
100
AcDbEntity
  8
0
  6
Continuous
 62
     7
370
    15
100
AcDbLine
 10
146.1083129821
 20
166.1438465225
 30
0.0
 11
144.320342003
 21
166.1438465225
 31
0.0
  0
LINE
  5
C0
330
1F
100
AcDbEntity
  8
0
  6
Continuous
 62
     7
370
    15
100
AcDbLine
 10
146.1083129821
 20
156.1050144278
 30
0.0
 11
146.1083129821
 21
166.1438465225
 31
0.0
  0
LINE
  5
C1
330
1F
100
AcDbEntity
  8
0
  6
Continuous
 62
     7
370
    15
100
AcDbLine
 10
144.0283088512
 20
156.1050144278
 30
0.0
 11
146.1083129821
 21
156.1050144278
 31
0.0
  0
SPLINE
  5
C2
330
1F
100
AcDbEntity
  8
0
  6
Continuous
 62
     7
370
    15
100
AcDbSpline
210
0.0
220
0.0
230
1.0
 70
     8
 71
     3
 72
    22
 73
    18
 74
     0
 42
0.000000001
 43
0.00000001
 40
0.0
 40
0.0
 40
0.0
 40
0.0
 40
0.2500000000000002
 40
0.2500000000000002
 40
0.3750000000000003
 40
0.3750000000000003
 40
0.5000000000000004
 40
0.5000000000000004
 40
0.6250000000000004
 40
0.6250000000000004
 40
0.7500000000000004
 40
0.7500000000000004
 40
0.8750000000000004
 40
0.8750000000000004
 40
0.9375000000000002
 40
0.9375000000000002
 40
1.0
 40
1.0
 40
1.0
 40
1.0
 10
134.3203420030086
 20
148.5040516668633
 30
0.0
 10
134.5230669589277
 20
149.5232980087279
 30
0.0
 10
134.837810680723
 20
150.4824061586672
 30
0.0
 10
135.545866150394
 20
151.8248852361765
 30
0.0
 10
135.8243287806117
 20
152.2590938189165
 30
0.0
 10
136.4630961872489
 20
153.0707215344187
 30
0.0
 10
136.8235098670391
 20
153.4500018273555
 30
0.0
 10
137.6410420990284
 20
154.1529604063765
 30
0.0
 10
138.1022100823155
 20
154.4779892240771
 30
0.0
 10
139.1002003287993
 20
155.0430045474679
 30
0.0
 10
139.6399595227916
 20
155.2867081416745
 30
0.0
 10
140.8145524868229
 20
155.6909080693194
 30
0.0
 10
141.4262886728148
 20
155.8433452623649
 30
0.0
 10
142.3781978976765
 20
155.9986728099736
 30
0.0
 10
142.7014310619371
 20
156.0381775900237
 30
0.0
 10
143.3604942332124
 20
156.0914867106924
 30
0.0
 10
143.6945582437864
 20
156.1050144277503
 30
0.0
 10
144.0283088511879
 20
156.1050144277502
 30
0.0
  0
SPLINE
  5
C3
330
1F
100
AcDbEntity
  8
0
  6
Continuous
 62
     7
370
    15
100
AcDbSpline
210
0.0
220
0.0
230
1.0
 70
     8
 71
     3
 72
    14
 73
    10
 74
     0
 42
0.000000001
 43
0.00000001
 40
0.0
 40
0.0
 40
0.0
 40
0.0
 40
0.25
 40
0.25
 40
0.5
 40
0.5
 40
0.75
 40
0.75
 40
1.0
 40
1.0
 40
1.0
 40
1.0
 10
151.2803420030086
 20
71.69087288446843
 30
0.0
 10
151.2803420030086
 20
71.7979169654628
 30
0.0
 10
151.2602243158504
 20
71.90315210570525
 30
0.0
 10
151.1817331265848
 20
72.10100259255294
 30
0.0
 10
151.1235765017836
 20
72.19205435611786
 30
0.0
 10
150.9770612461655
 20
72.34522045004265
 30
0.0
 10
150.8884186975245
 20
72.40751489625205
 30
0.0
 10
150.6926953747241
 20
72.49230868178803
 30
0.0
 10
150.5874641836531
 20
72.51437620881367
 30
0.0
 10
150.4803420030086
 20
72.51437620881367
 30
0.0
  0
SPLINE
  5
C4
330
1F
100
AcDbEntity
  8
0
  6
Continuous
 62
     7
370
    15
100
AcDbSpline
210
0.0
220
0.0
230
1.0
 70
    24
 71
     3
 72
    14
 73
    10
 74
     0
 42
0.000000001
 43
0.00000001
 40
0.0
 40
0.0
 40
0.0
 40
0.0
 40
0.25
 40
0.25
 40
0.5
 40
0.5
 40
0.75
 40
0.75
 40
1.0
 40
1.0
 40
1.0
 40
1.0
 10
150.4803420030086
 20
148.5040516668633
 30
0.0
 10
150.6041117677737
 20
148.5040516668633
 30
0.0
 10
150.7284788717806
 20
148.5040516668633
 30
0.0
 10
150.9348353405067
 20
148.5040516668633
 30
0.0
 10
151.020163483925
 20
148.5040516668633
 30
0.0
 10
151.1523555426402
 20
148.5040516668633
 30
0.0
 10
151.2010007863908
 20
148.5040516668633
 30
0.0
 10
151.2645365781196
 20
148.5040516668633
 30
0.0
 10
151.2803420030086
 20
148.5040516668633
 30
0.0
 10
151.2803420030086
 20
148.5040516668633
 30
0.0
  0
SPLINE
  5
C5
330
1F
100
AcDbEntity
  8
0
  6
Continuous
 62
     7
370
    15
100
AcDbSpline
210
0.0
220
0.0
230
1.0
 70
     8
 71
     3
 72
    12
 73
     8
 74
     0
 42
0.000000001
 43
0.00000001
 40
0.0
 40
0.0
 40
0.0
 40
0.0
 40
0.25
 40
0.25
 40
0.5
 40
0.5
 40
1.0
 40
1.0
 40
1.0
 40
1.0
 10
148.2603420030086
 20
72.51437620881369
 30
0.0
 10
148.1545813496597
 20
72.51437620881366
 30
0.0
 10
148.0465937214767
 20
72.49183670281326
 30
0.0
 10
147.8519990562111
 20
72.40726607081795
 30
0.0
 10
147.7631271433723
 20
72.34478441805916
 30
0.0
 10
147.5439348510464
 20
72.115395466587
 30
0.0
 10
147.4603420030085
 20
71.90281212906461
 30
0.0
 10
147.4603420030085
 20
71.69087288446843
 30
0.0
  0
SPLINE
  5
C6
330
1F
100
AcDbEntity
  8
0
  6
Continuous
 62
     7
370
    15
100
AcDbSpline
210
0.0
220
0.0
230
1.0
 70
    24
 71
     3
 72
    14
 73
    10
 74
     0
 42
0.000000001
 43
0.00000001
 40
0.0
 40
0.0
 40
0.0
 40
0.0
 40
0.25
 40
0.25
 40
0.5
 40
0.5
 40
0.75
 40
0.75
 40
1.0
 40
1.0
 40
1.0
 40
1.0
 10
147.4603420030085
 20
148.5040516668633
 30
0.0
 10
147.4603420030085
 20
148.5040516668633
 30
0.0
 10
147.4760563234745
 20
148.5040516668633
 30
0.0
 10
147.5397403019429
 20
148.5040516668633
 30
0.0
 10
147.5883434963534
 20
148.5040516668633
 30
0.0
 10
147.7210270187789
 20
148.5040516668633
 30
0.0
 10
147.8061291230896
 20
148.5040516668633
 30
0.0
 10
148.0125713579996
 20
148.5040516668633
 30
0.0
 10
148.1366522996227
 20
148.5040516668633
 30
0.0
 10
148.2603420030086
 20
148.5040516668633
 30
0.0
  0
LINE
  5
C7
330
1F
100
AcDbEntity
  8
0
  6
Continuous
 62
     7
370
    15
100
AcDbLine
 10
150.480342003
 20
72.5143762088
 30
0.0
 11
148.260342003
 21
72.5143762088
 31
0.0
  0
LINE
  5
C8
330
1F
100
AcDbEntity
  8
0
  6
Continuous
 62
     7
370
    15
100
AcDbLine
 10
148.260342003
 20
148.5040516669
 30
0.0
 11
150.480342003
 21
148.5040516669
 31
0.0
  0
SPLINE
  5
C9
330
1F
100
AcDbEntity
  8
0
  6
Continuous
 62
     7
370
    15
100
AcDbSpline
210
0.0
220
0.0
230
1.0
 70
     8
 71
     3
 72
    37
 73
    33
 74
     0
 42
0.000000001
 43
0.00000001
 40
0.0
 40
0.0
 40
0.0
 40
0.0
 40
0.0235718433665691
 40
0.0476506562430139
 40
0.0695902177482848
 40
0.1141690634970827
 40
0.1368447466739612
 40
0.1597673548538157
 40
0.206271179974406
 40
0.2298812484857759
 40
0.2551643665417042
 40
0.3064534717493944
 40
0.3324952869797587
 40
0.3603186276655101
 40
0.4168187043684018
 40
0.4455484882156874
 40
0.4749125581077046
 40
0.5346110644920566
 40
0.5650144094339382
 40
0.5947644281858345
 40
0.6247238480384987
 40
0.6553537222190513
 40
0.6862207167478641
 40
0.7154617743476415
 40
0.7750556918473189
 40
0.8055192977938468
 40
0.832732890558225
 40
0.888304682290586
 40
0.9167863500743794
 40
0.9408646697419424
 40
0.9899885713375026
 40
0.9999999999999999
 40
0.9999999999999999
 40
0.9999999999999999
 40
0.9999999999999999
 10
201.0401465213174
 20
157.1481424209917
 30
0.0
 10
201.0470483114389
 20
157.14948993396
 30
0.0
 10
201.0610003313731
 20
157.1522139414226
 30
0.0
 10
200.9578293320868
 20
157.132070728051
 30
0.0
 10
200.7722228075597
 20
157.0962871153885
 30
0.0
 10
200.4816489138225
 20
157.0413754389182
 30
0.0
 10
200.0961089892266
 20
156.9716807388191
 30
0.0
 10
199.6407840305156
 20
156.8920982648832
 30
0.0
 10
199.0921523596151
 20
156.8016504723246
 30
0.0
 10
198.4532757093368
 20
156.7051123852025
 30
0.0
 10
197.7309243117063
 20
156.6031527190201
 30
0.0
 10
196.9155996679755
 20
156.5015313082309
 30
0.0
 10
196.0217265220997
 20
156.4079948725551
 30
0.0
 10
195.0459522261958
 20
156.3197393025622
 30
0.0
 10
193.9943565250034
 20
156.2489328432272
 30
0.0
 10
192.8997390205687
 20
156.2032064415049
 30
0.0
 10
191.7605779682672
 20
156.1754774897935
 30
0.0
 10
190.5928551565913
 20
156.1789000700453
 30
0.0
 10
189.4378016342396
 20
156.2140176381139
 30
0.0
 10
188.5823040505692
 20
156.2554022100871
 30
0.0
 10
187.7439474132279
 20
156.3106077514693
 30
0.0
 10
186.9212127936194
 20
156.3788813723061
 30
0.0
 10
186.137537652805
 20
156.4569615470688
 30
0.0
 10
185.1549108249611
 20
156.5699263089277
 30
0.0
 10
184.2604780244378
 20
156.6925163527108
 30
0.0
 10
183.4965288609378
 20
156.8105784443458
 30
0.0
 10
182.8373794462916
 20
156.9191949758227
 30
0.0
 10
182.3113449909081
 20
157.0132374722421
 30
0.0
 10
181.9423407096383
 20
157.0822744750002
 30
0.0
 10
181.6886064931316
 20
157.1308150450401
 30
0.0
 10
181.5656752220586
 20
157.1549689483988
 30
0.0
 10
181.5766914789284
 20
157.1528083139211
 30
0.0
 10
181.5785564971721
 20
157.1524425251812
 30
0.0
  0
SPLINE
  5
CA
330
1F
100
AcDbEntity
  8
0
  6
Continuous
 62
     7
370
    15
100
AcDbSpline
210
0.0
220
0.0
230
1.0
 70
    11
 71
     3
 72
    98
 73
    94
 74
     0
 42
0.000000001
 43
0.00000001
 40
0.0
 40
0.0
 40
0.0
 40
0.0
 40
0.0312500000000007
 40
0.0312500000000007
 40
0.0468750000000011
 40
0.0468750000000011
 40
0.0625000000000014
 40
0.0625000000000014
 40
0.0937500000000018
 40
0.0937500000000018
 40
0.1093750000000022
 40
0.1093750000000022
 40
0.1250000000000026
 40
0.1250000000000026
 40
0.1562500000000037
 40
0.1562500000000037
 40
0.1718750000000043
 40
0.1718750000000043
 40
0.1875000000000048
 40
0.1875000000000048
 40
0.2187500000000053
 40
0.2187500000000053
 40
0.2343750000000052
 40
0.2343750000000052
 40
0.2500000000000052
 40
0.2500000000000052
 40
0.2812500000000046
 40
0.2812500000000046
 40
0.2968750000000042
 40
0.2968750000000042
 40
0.3125000000000039
 40
0.3125000000000039
 40
0.3437500000000033
 40
0.3437500000000033
 40
0.359375000000003
 40
0.359375000000003
 40
0.3750000000000027
 40
0.3750000000000027
 40
0.3906250000000023
 40
0.3906250000000023
 40
0.4062500000000021
 40
0.4062500000000021
 40
0.4375000000000016
 40
0.4375000000000016
 40
0.4531250000000016
 40
0.4531250000000016
 40
0.4687500000000015
 40
0.4687500000000015
 40
0.5000000000000018
 40
0.5000000000000018
 40
0.5312500000000021
 40
0.5312500000000021
 40
0.5468750000000023
 40
0.5468750000000023
 40
0.5625000000000024
 40
0.5625000000000024
 40
0.5937500000000028
 40
0.5937500000000028
 40
0.6250000000000031
 40
0.6250000000000031
 40
0.6562500000000032
 40
0.6562500000000032
 40
0.6875000000000032
 40
0.6875000000000032
 40
0.7031250000000032
 40
0.7031250000000032
 40
0.7187500000000033
 40
0.7187500000000033
 40
0.750000000000003
 40
0.750000000000003
 40
0.765625000000003
 40
0.765625000000003
 40
0.781250000000003
 40
0.781250000000003
 40
0.8125000000000028
 40
0.8125000000000028
 40
0.8281250000000026
 40
0.8281250000000026
 40
0.8437500000000023
 40
0.8437500000000023
 40
0.8750000000000019
 40
0.8750000000000019
 40
0.8906250000000018
 40
0.8906250000000018
 40
0.9062500000000016
 40
0.9062500000000016
 40
0.9218750000000013
 40
0.9218750000000013
 40
0.9375000000000011
 40
0.9375000000000011
 40
0.9687500000000007
 40
0.9687500000000007
 40
1.0
 40
1.0
 40
1.0
 40
1.0
 10
184.7673553350741
 20
123.64070523334
 30
0.0
 10
185.239242658326
 20
124.0271438958493
 30
0.0
 10
185.7403298440226
 20
124.3626272868933
 30
0.0
 10
186.5322589267308
 20
124.7964186353169
 30
0.0
 10
186.8030087569623
 20
124.9293416859846
 30
0.0
 10
187.3580831376094
 20
125.1719232318961
 30
0.0
 10
187.6438379634771
 20
125.2820225614875
 30
0.0
 10
188.5097868147783
 20
125.572665872861
 30
0.0
 10
189.097592468863
 20
125.7142774232176
 30
0.0
 10
189.9945082767224
 20
125.8517324855095
 30
0.0
 10
190.2960312763078
 20
125.8849714462511
 30
0.0
 10
190.9042806858361
 20
125.9258339062516
 30
0.0
 10
191.2115027436059
 20
125.9333108086481
 30
0.0
 10
192.1235505973575
 20
125.9167466436891
 30
0.0
 10
192.7245479748643
 20
125.8546480629704
 30
0.0
 10
193.6156042343918
 20
125.6854917260164
 30
0.0
 10
193.9108727121142
 20
125.6163594699246
 30
0.0
 10
194.4977951201615
 20
125.4516820946145
 30
0.0
 10
194.7886409889129
 20
125.3562035229862
 30
0.0
 10
195.6384320814377
 20
125.0354451645292
 30
0.0
 10
196.180506454583
 20
124.7746852388967
 30
0.0
 10
196.9562912144358
 20
124.3111165416968
 30
0.0
 10
197.2086247201046
 20
124.1444423733548
 30
0.0
 10
197.7000954125226
 20
123.7853216140285
 30
0.0
 10
197.9370210469907
 20
123.5943427483339
 30
0.0
 10
198.6130004615339
 20
122.9938954112296
 30
0.0
 10
199.0212638347722
 20
122.5546145926311
 30
0.0
 10
199.5662584454693
 20
121.832957892749
 30
0.0
 10
199.7371551654992
 20
121.5809541229385
 30
0.0
 10
200.0520677083115
 20
121.0580295291188
 30
0.0
 10
200.1941417747333
 20
120.7905393362521
 30
0.0
 10
200.5746072100154
 20
119.9700598110648
 30
0.0
 10
200.7677787751702
 20
119.3992693732543
 30
0.0
 10
200.9593414895111
 20
118.5041969329975
 30
0.0
 10
201.0063306920345
 20
118.1993354679814
 30
0.0
 10
201.0638710258928
 20
117.5941026202676
 30
0.0
 10
201.0749761533131
 20
117.2915182193772
 30
0.0
 10
201.0622309913525
 20
116.6864128063989
 30
0.0
 10
201.038381683721
 20
116.3838917925985
 30
0.0
 10
200.9549898815251
 20
115.7789144436218
 30
0.0
 10
200.8951173537863
 20
115.4764052829812
 30
0.0
 10
200.667154507657
 20
114.5929493300412
 30
0.0
 10
200.4503965791861
 20
114.0275241597422
 30
0.0
 10
200.0315834718839
 20
113.2132033111189
 30
0.0
 10
199.8769348778175
 20
112.9491638690822
 30
0.0
 10
199.5438065690591
 20
112.4431409581485
 30
0.0
 10
199.3646762210046
 20
112.1998673529662
 30
0.0
 10
198.7909761645177
 20
111.4980282790549
 30
0.0
 10
198.3556669089109
 20
111.064021504008
 30
0.0
 10
197.421135488668
 20
110.2955124796155
 30
0.0
 10
196.9207416062958
 20
109.9579072846827
 30
0.0
 10
196.1219657147888
 20
109.5184976731352
 30
0.0
 10
195.8468552012918
 20
109.3830797609448
 30
0.0
 10
195.2905317483287
 20
109.1393491294258
 30
0.0
 10
195.0082010256564
 20
109.0303409830956
 30
0.0
 10
194.1490396340925
 20
108.7406598418077
 30
0.0
 10
193.5601417524228
 20
108.5970059983184
 30
0.0
 10
192.3493203102575
 20
108.4103186715881
 30
0.0
 10
191.7428007318691
 20
108.3698255189582
 30
0.0
 10
190.5331483850788
 20
108.3903523105273
 30
0.0
 10
189.927125439041
 20
108.4516027523043
 30
0.0
 10
188.7248952403196
 20
108.6793658654817
 30
0.0
 10
188.1424106974741
 20
108.8429227283968
 30
0.0
 10
187.295940297101
 20
109.1614996243719
 30
0.0
 10
187.0183553121284
 20
109.2799794815745
 30
0.0
 10
186.4725814302899
 20
109.5423265047985
 30
0.0
 10
186.2030937579916
 20
109.6869927819543
 30
0.0
 10
185.4194991683648
 20
110.1553642358839
 30
0.0
 10
184.9333732665569
 20
110.5103509705789
 30
0.0
 10
184.2590893400042
 20
111.1083478200235
 30
0.0
 10
184.0435431419578
 20
111.3186762916548
 30
0.0
 10
183.6318416841544
 20
111.7626177938879
 30
0.0
 10
183.4346351047882
 20
111.9977813606179
 30
0.0
 10
182.8864603850841
 20
112.7248362877663
 30
0.0
 10
182.5756380237882
 20
113.239946137083
 30
0.0
 10
182.1946026325658
 20
114.0604903413098
 30
0.0
 10
182.0818953983754
 20
114.3420425824717
 30
0.0
 10
181.8871404314903
 20
114.9224353137174
 30
0.0
 10
181.8062807475287
 20
115.2183844252861
 30
0.0
 10
181.6169166724518
 20
116.1085224509028
 30
0.0
 10
181.5589949231684
 20
116.7109194288277
 30
0.0
 10
181.5787358917341
 20
117.6285412230438
 30
0.0
 10
181.6035341092931
 20
117.9362451909441
 30
0.0
 10
181.6875269719264
 20
118.5392723353032
 30
0.0
 10
181.7467078963935
 20
118.836771350366
 30
0.0
 10
181.8985613381839
 20
119.4239597117414
 30
0.0
 10
181.9912351951622
 20
119.7136487143477
 30
0.0
 10
182.210282331268
 20
120.2851911243399
 30
0.0
 10
182.33595786396
 20
120.5647674979877
 30
0.0
 10
182.753502829744
 20
121.3737029750757
 30
0.0
 10
183.0874266602933
 20
121.8788040653074
 30
0.0
 10
183.8621021649593
 20
122.8239429638401
 30
0.0
 10
184.2954680118221
 20
123.2542665708308
 30
0.0
 10
184.767355335074
 20
123.64070523334
 30
0.0
  0
LINE
  5
CB
330
1F
100
AcDbEntity
  8
0
  6
Continuous
 62
     7
370
    15
100
AcDbLine
 10
208.570342003
 20
117.1540516669
 30
0.0
 11
208.570342003
 21
77.1540516669
 31
0.0
  0
LINE
  5
CC
330
1F
100
AcDbEntity
  8
0
  6
Continuous
 62
     7
370
    15
100
AcDbLine
 10
208.570342003
 20
157.1540516669
 30
0.0
 11
208.570342003
 21
117.1540516669
 31
0.0
  0
LINE
  5
CD
330
1F
100
AcDbEntity
  8
0
  6
Continuous
 62
     7
370
    15
100
AcDbLine
 10
209.370342003
 20
117.1540516669
 30
0.0
 11
209.370342003
 21
77.9540516669
 31
0.0
  0
LINE
  5
CE
330
1F
100
AcDbEntity
  8
0
  6
Continuous
 62
     7
370
    15
100
AcDbLine
 10
209.370342003
 20
156.3540516669
 30
0.0
 11
209.370342003
 21
117.1540516669
 31
0.0
  0
LINE
  5
CF
330
1F
100
AcDbEntity
  8
0
  6
Continuous
 62
     7
370
    15
100
AcDbLine
 10
94.570342003
 20
80.8900366368
 30
0.0
 11
94.570342003
 21
83.2847184015
 31
0.0
  0
SPLINE
  5
D0
330
1F
100
AcDbEntity
  8
0
  6
Continuous
 62
     7
370
    15
100
AcDbSpline
210
0.0
220
0.0
230
1.0
 70
     8
 71
     3
 72
    14
 73
    10
 74
     0
 42
0.000000001
 43
0.00000001
 40
0.0
 40
0.0
 40
0.0
 40
0.0
 40
0.25
 40
0.25
 40
0.5
 40
0.5
 40
0.75
 40
0.75
 40
1.0
 40
1.0
 40
1.0
 40
1.0
 10
93.56591953167161
 20
84.9875703231198
 30
0.0
 10
93.65468810961694
 20
84.82903619181184
 30
0.0
 10
93.77640594829586
 20
84.67659351492328
 30
0.0
 10
94.01145555815269
 20
84.37945889109436
 30
0.0
 10
94.12708574436958
 20
84.234776247477
 30
0.0
 10
94.32749067779739
 20
83.95148704497359
 30
0.0
 10
94.41289096978173
 20
83.81293305193674
 30
0.0
 10
94.53459660349894
 20
83.5415490219032
 30
0.0
 10
94.57034200301159
 20
83.40941315326857
 30
0.0
 10
94.57034200301158
 20
83.28471840149781
 30
0.0
  0
SPLINE
  5
D1
330
1F
100
AcDbEntity
  8
0
  6
Continuous
 62
     7
370
    15
100
AcDbSpline
210
0.0
220
0.0
230
1.0
 70
     8
 71
     3
 72
    14
 73
    10
 74
     0
 42
0.000000001
 43
0.00000001
 40
0.0
 40
0.0
 40
0.0
 40
0.0
 40
0.1249999999999983
 40
0.1249999999999983
 40
0.2499999999999966
 40
0.2499999999999966
 40
0.4999999999999978
 40
0.4999999999999978
 40
1.0
 40
1.0
 40
1.0
 40
1.0
 10
92.67034200300859
 20
85.6164002622199
 30
0.0
 10
92.73792430279306
 20
85.62355614732128
 30
0.0
 10
92.81041188054098
 20
85.6191316772823
 30
0.0
 10
92.94270298980689
 20
85.58942551951195
 30
0.0
 10
92.9999803691971
 20
85.56614123793369
 30
0.0
 10
93.14963079639737
 20
85.48865599808339
 30
0.0
 10
93.22334409191888
 20
85.42680417118203
 30
0.0
 10
93.4111520752451
 20
85.24212671853368
 30
0.0
 10
93.49519238160654
 20
85.11388379524247
 30
0.0
 10
93.56591953167285
 20
84.9875703231199
 30
0.0
  0
SPLINE
  5
D2
330
1F
100
AcDbEntity
  8
0
  6
Continuous
 62
     7
370
    15
100
AcDbSpline
210
0.0
220
0.0
230
1.0
 70
     8
 71
     3
 72
     8
 73
     4
 74
     0
 42
0.000000001
 43
0.00000001
 40
0.0
 40
0.0
 40
0.0
 40
0.0
 40
1.0
 40
1.0
 40
1.0
 40
1.0
 10
89.12570161492766
 20
85.19835167742811
 30
0.0
 10
90.29099992563658
 20
85.35353914931473
 30
0.0
 10
91.47561513967644
 20
85.48989778762504
 30
0.0
 10
92.67034200300856
 20
85.6164002622199
 30
0.0
  0
SPLINE
  5
D3
330
1F
100
AcDbEntity
  8
0
  6
Continuous
 62
     7
370
    15
100
AcDbSpline
210
0.0
220
0.0
230
1.0
 70
     8
 71
     3
 72
    14
 73
    10
 74
     0
 42
0.000000001
 43
0.00000001
 40
0.0
 40
0.0
 40
0.0
 40
0.0
 40
0.4999999999999997
 40
0.4999999999999997
 40
0.7499999999999997
 40
0.7499999999999997
 40
0.8749999999999999
 40
0.8749999999999999
 40
1.0
 40
1.0
 40
1.0
 40
1.0
 10
81.37026711897988
 20
84.9082194982982
 30
0.0
 10
82.67856868151361
 20
84.91523422203932
 30
0.0
 10
83.98362805617037
 20
84.9306427984838
 30
0.0
 10
85.92950410765864
 20
84.98453935395045
 30
0.0
 10
86.57620161139768
 20
85.00757091855316
 30
0.0
 10
87.540043975252
 20
85.0585134434239
 30
0.0
 10
87.86028266718607
 20
85.07824836565712
 30
0.0
 10
88.49697789352848
 20
85.12773549412867
 30
0.0
 10
88.81369330181141
 20
85.15680027305788
 30
0.0
 10
89.12570161492772
 20
85.19835167742805
 30
0.0
  0
SPLINE
  5
D4
330
1F
100
AcDbEntity
  8
0
  6
Continuous
 62
     7
370
    15
100
AcDbSpline
210
0.0
220
0.0
230
1.0
 70
     8
 71
     3
 72
    12
 73
     8
 74
     0
 42
0.000000001
 43
0.00000001
 40
0.0
 40
0.0
 40
0.0
 40
0.0
 40
0.2499999999999992
 40
0.2499999999999992
 40
0.4999999999999984
 40
0.4999999999999984
 40
1.0
 40
1.0
 40
1.0
 40
1.0
 10
87.67034200300857
 20
149.2405745583597
 30
0.0
 10
87.15164318118038
 20
149.273097333208
 30
0.0
 10
86.62993160797538
 20
149.2963940743784
 30
0.0
 10
85.5836395914798
 20
149.3342395888006
 30
0.0
 10
85.05896796580954
 20
149.3485080632967
 30
0.0
 10
83.48212194327031
 20
149.382717550755
 30
0.0
 10
82.42716662872343
 20
149.3942170546989
 30
0.0
 10
81.37026711897819
 20
149.3998838354284
 30
0.0
  0
SPLINE
  5
D5
330
1F
100
AcDbEntity
  8
0
  6
Continuous
 62
     7
370
    15
100
AcDbSpline
210
0.0
220
0.0
230
1.0
 70
     8
 71
     3
 72
    20
 73
    16
 74
     0
 42
0.000000001
 43
0.00000001
 40
0.0
 40
0.0
 40
0.0
 40
0.0
 40
0.2499999999999984
 40
0.2499999999999984
 40
0.4999999999999968
 40
0.4999999999999968
 40
0.7499999999999951
 40
0.7499999999999951
 40
0.8749999999999964
 40
0.8749999999999964
 40
0.9374999999999979
 40
0.9374999999999979
 40
0.9687499999999989
 40
0.9687499999999989
 40
1.0
 40
1.0
 40
1.0
 40
1.0
 10
89.57034200300858
 20
150.8986604038479
 30
0.0
 10
89.57034200300858
 20
150.7629780841011
 30
0.0
 10
89.52163021379195
 20
150.621891097961
 30
0.0
 10
89.35246879056677
 20
150.3298193792305
 30
0.0
 10
89.23068837664843
 20
150.1781706371401
 30
0.0
 10
88.93314128189894
 20
149.875762196987
 30
0.0
 10
88.75922867619614
 20
149.7231735608637
 30
0.0
 10
88.43981384231434
 20
149.4979027970214
 30
0.0
 10
88.3247730668671
 20
149.4231797025107
 30
0.0
 10
88.11768874285067
 20
149.3237692932537
 30
0.0
 10
88.04158090804428
 20
149.2922042009091
 30
0.0
 10
87.91018636849094
 20
149.2577608167161
 30
0.0
 10
87.86363314948947
 20
149.2487092449485
 30
0.0
 10
87.76729979840877
 20
149.23853359611
 30
0.0
 10
87.71804037505333
 20
149.237583837435
 30
0.0
 10
87.67034200300658
 20
149.2405745583496
 30
0.0
  0
LINE
  5
D6
330
1F
100
AcDbEntity
  8
0
  6
Continuous
 62
     7
370
    15
100
AcDbLine
 10
89.570342003
 20
150.8986604038
 30
0.0
 11
89.570342003
 21
153.1675656949
 31
0.0
  0
LINE
  5
D7
330
1F
100
AcDbEntity
  8
0
  6
Continuous
 62
     7
370
    15
100
AcDbLine
 10
126.870342003
 20
79.2718001639
 30
0.0
 11
126.870342003
 21
155.0363031699
 31
0.0
  0
SPLINE
  5
D8
330
1F
100
AcDbEntity
  8
0
  6
Continuous
 62
     7
370
    15
100
AcDbSpline
210
0.0
220
0.0
230
1.0
 70
     8
 71
     3
 72
    24
 73
    20
 74
     0
 42
0.000000001
 43
0.00000001
 40
0.0
 40
0.0
 40
0.0
 40
0.0
 40
0.0002934293894792
 40
0.062808005175633
 40
0.1260453927229061
 40
0.1890746766616329
 40
0.2513200540860337
 40
0.3133304633787958
 40
0.3759158453763145
 40
0.4383740564608072
 40
0.5000631094857669
 40
0.5616593988050044
 40
0.6245050380644388
 40
0.6872231506513021
 40
0.7494953263230615
 40
0.811758379754263
 40
0.8747365508230284
 40
0.9378980306238868
 40
1.0
 40
1.0
 40
1.0
 40
1.0
 10
107.890298266848
 20
80.22280640855094
 30
0.0
 10
107.8901034139632
 20
80.22278210115697
 30
0.0
 10
107.8483955229505
 20
80.21757914950378
 30
0.0
 10
107.9935139144749
 20
80.23621377283327
 30
0.0
 10
108.3485928560238
 20
80.27873355138217
 30
0.0
 10
108.9531684935699
 20
80.34686983498366
 30
0.0
 10
109.7596038023841
 20
80.42012537200003
 30
0.0
 10
110.7450812263004
 20
80.48464471281774
 30
0.0
 10
111.8767508229856
 20
80.52320894087862
 30
0.0
 10
113.0990432931466
 20
80.52690344688068
 30
0.0
 10
114.3663719746053
 20
80.48447746683044
 30
0.0
 10
115.6328575050256
 20
80.39623032604904
 30
0.0
 10
116.8489948688471
 20
80.26783705578275
 30
0.0
 10
117.9744053646815
 20
80.11519606719055
 30
0.0
 10
118.9518224262388
 20
79.9534214520858
 30
0.0
 10
119.7550879047838
 20
79.80089255898514
 30
0.0
 10
120.3435814277818
 20
79.67687881571764
 30
0.0
 10
120.7324875394251
 20
79.59195488944212
 30
0.0
 10
120.779248670167
 20
79.58122857816322
 30
0.0
 10
120.8024314767111
 20
79.5759107854716
 30
0.0
  0
SPLINE
  5
D9
330
1F
100
AcDbEntity
  8
0
  6
Continuous
 62
     7
370
    15
100
AcDbSpline
210
0.0
220
0.0
230
1.0
 70
     8
 71
     3
 72
    41
 73
    37
 74
     0
 42
0.000000001
 43
0.00000001
 40
0.0
 40
0.0
 40
0.0
 40
0.0
 40
0.061993008850356
 40
0.1254347838145752
 40
0.1886508980470717
 40
0.2510246518033943
 40
0.3131658325492082
 40
0.3756581805174396
 40
0.4382227337757406
 40
0.4998045140815423
 40
0.5615164441954489
 40
0.6240683366165892
 40
0.6867257531768944
 40
0.7488365631577389
 40
0.8110686297813529
 40
0.8741743265521287
 40
0.9373213196233271
 40
0.9685512131821434
 40
0.984208730151932
 40
0.9920641614990022
 40
0.9960005295430491
 40
0.9979711229154852
 40
0.9989570525954332
 40
0.9994501795074894
 40
0.999696783958957
 40
0.9998200964931921
 40
0.9998817553448893
 40
0.9999125854178155
 40
0.9999280006161612
 40
0.9999357082558213
 40
0.9999395620857756
 40
0.9999414890032826
 40
0.9999424524626701
 40
0.9999434159224777
 40
0.9999502132890722
 40
0.9999999999999999
 40
0.9999999999999999
 40
0.9999999999999999
 40
0.9999999999999999
 10
120.8023101462332
 20
154.7321475303035
 30
0.0
 10
120.7787385008904
 20
154.7268380506537
 30
0.0
 10
120.7310443448467
 20
154.7160950097143
 30
0.0
 10
120.3390023554197
 20
154.6308658732589
 30
0.0
 10
119.748488306149
 20
154.506297094618
 30
0.0
 10
118.9444508601038
 20
154.3533501484661
 30
0.0
 10
117.9683754599225
 20
154.1915935945124
 30
0.0
 10
116.8465667246418
 20
154.0393608265803
 30
0.0
 10
115.6330358048544
 20
153.9115808853792
 30
0.0
 10
114.3682050984559
 20
153.8237323336964
 30
0.0
 10
113.1001620610125
 20
153.7813468498254
 30
0.0
 10
111.8766547033104
 20
153.7850826577974
 30
0.0
 10
110.7431561628961
 20
153.8236781282455
 30
0.0
 10
109.7570503519224
 20
153.8881174995365
 30
0.0
 10
108.9484225431389
 20
153.9616273068179
 30
0.0
 10
108.3518038480286
 20
154.0289409916292
 30
0.0
 10
108.0364125585731
 20
154.066905542897
 30
0.0
 10
107.9263459897733
 20
154.0807046022295
 30
0.0
 10
107.898926601961
 20
154.0841906761497
 30
0.0
 10
107.8920045511254
 20
154.0850699018438
 30
0.0
 10
107.8902363109484
 20
154.0852906764492
 30
0.0
 10
107.8897759317647
 20
154.0853458791612
 30
0.0
 10
107.8896517730939
 20
154.0853596189465
 30
0.0
 10
107.8896162185805
 20
154.0853630147799
 30
0.0
 10
107.8896050745388
 20
154.0853638430967
 30
0.0
 10
107.8896011613026
 20
154.0853640396905
 30
0.0
 10
107.8895996191543
 20
154.0853640836135
 30
0.0
 10
107.8895989520729
 20
154.0853640919302
 30
0.0
 10
107.889598644008
 20
154.0853640927464
 30
0.0
 10
107.8895984970827
 20
154.0853640922211
 30
0.0
 10
107.889598424355
 20
154.0853640918633
 30
0.0
 10
107.8895983896454
 20
154.0853640914654
 30
0.0
 10
107.8895983679119
 20
154.0853640914903
 30
0.0
 10
107.8895983360568
 20
154.0853640892456
 30
0.0
 10
107.8895963867166
 20
154.0853643051915
 30
0.0
 10
107.8896233215797
 20
154.0853608240609
 30
0.0
 10
107.889647020795
 20
154.0853577611136
 30
0.0
  0
SPLINE
  5
DA
330
1F
100
AcDbEntity
  8
0
  6
Continuous
 62
     7
370
    15
100
AcDbSpline
210
0.0
220
0.0
230
1.0
 70
     8
 71
     3
 72
    20
 73
    16
 74
     0
 42
0.000000001
 43
0.00000001
 40
0.0
 40
0.0
 40
0.0
 40
0.0
 40
0.2500000000000059
 40
0.2500000000000059
 40
0.3750000000000089
 40
0.3750000000000089
 40
0.437500000000013
 40
0.437500000000013
 40
0.500000000000017
 40
0.500000000000017
 40
0.6250000000000162
 40
0.6250000000000162
 40
0.7500000000000153
 40
0.7500000000000153
 40
1.0
 40
1.0
 40
1.0
 40
1.0
 10
79.76115623472458
 20
86.4755685141626
 30
0.0
 10
79.78742845193807
 20
86.49488645524508
 30
0.0
 10
79.81810859419296
 20
86.50927516634688
 30
0.0
 10
79.88957946457508
 20
86.50237080451073
 30
0.0
 10
79.91760650161949
 20
86.49520480116225
 30
0.0
 10
79.97269009111726
 20
86.4655057744584
 30
0.0
 10
79.99358141966975
 20
86.45203213189698
 30
0.0
 10
80.03879006711537
 20
86.41683386638073
 30
0.0
 10
80.06319427951097
 20
86.39492563765336
 30
0.0
 10
80.13452659756251
 20
86.3228007776575
 30
0.0
 10
80.17642338238268
 20
86.27046023670745
 30
0.0
 10
80.24799934123853
 20
86.1729768448066
 30
0.0
 10
80.2788273310558
 20
86.12622307492815
 30
0.0
 10
80.36192726389135
 20
85.99292985908893
 30
0.0
 10
80.40678216926165
 20
85.91029246117363
 30
0.0
 10
80.4468942447142
 20
85.83118556638277
 30
0.0
  0
SPLINE
  5
DB
330
1F
100
AcDbEntity
  8
0
  6
Continuous
 62
     7
370
    15
100
AcDbSpline
210
0.0
220
0.0
230
1.0
 70
     8
 71
     3
 72
    14
 73
    10
 74
     0
 42
0.000000001
 43
0.00000001
 40
0.0
 40
0.0
 40
0.0
 40
0.0
 40
0.25
 40
0.25
 40
0.5
 40
0.5
 40
0.75
 40
0.75
 40
1.0
 40
1.0
 40
1.0
 40
1.0
 10
79.47034200300858
 20
86.65138192429539
 30
0.0
 10
79.4703420030086
 20
86.61013499327105
 30
0.0
 10
79.47895171938981
 20
86.57322802098855
 30
0.0
 10
79.51003789896018
 20
86.51232796108914
 30
0.0
 10
79.53242745244424
 20
86.48814704154944
 30
0.0
 10
79.58717138362034
 20
86.45417945066619
 30
0.0
 10
79.61962162320555
 20
86.444259366698
 30
0.0
 10
79.68962313793362
 20
86.44290815779317
 30
0.0
 10
79.72783363805617
 20
86.4510664344893
 30
0.0
 10
79.76115623472924
 20
86.4755685141574
 30
0.0
  0
LINE
  5
DC
330
1F
100
AcDbEntity
  8
0
  6
Continuous
 62
     7
370
    15
100
AcDbLine
 10
79.470342003
 20
86.6513819243
 30
0.0
 11
79.470342003
 21
147.6567214094
 31
0.0
  0
SPLINE
  5
DD
330
1F
100
AcDbEntity
  8
0
  6
Continuous
 62
     7
370
    15
100
AcDbSpline
210
0.0
220
0.0
230
1.0
 70
     8
 71
     3
 72
     9
 73
     5
 74
     0
 42
0.000000001
 43
0.00000001
 40
0.0
 40
0.0
 40
0.0
 40
0.0
 40
0.0592950272321324
 40
1.0
 40
1.0
 40
1.0
 40
1.0
 10
79.76115623472923
 20
147.8325348195692
 30
0.0
 10
79.75627339326705
 20
147.8358276649627
 30
0.0
 10
79.67392514772068
 20
147.8913609119683
 30
0.0
 10
79.60779309723914
 20
147.8340715094558
 30
0.0
 10
79.54558234849185
 20
147.7801790836254
 30
0.0
  0
SPLINE
  5
DE
330
1F
100
AcDbEntity
  8
0
  6
Continuous
 62
     7
370
    15
100
AcDbSpline
210
0.0
220
0.0
230
1.0
 70
     8
 71
     3
 72
     8
 73
     4
 74
     0
 42
0.000000001
 43
0.00000001
 40
0.0
 40
0.0
 40
0.0
 40
0.0
 40
1.0
 40
1.0
 40
1.0
 40
1.0
 10
79.49397567194477
 20
147.7643009105009
 30
0.0
 10
79.47862663330874
 20
147.7337908555049
 30
0.0
 10
79.47034200300858
 20
147.6974792999926
 30
0.0
 10
79.47034200300858
 20
147.6567214094312
 30
0.0
  0
SPLINE
  5
DF
330
1F
100
AcDbEntity
  8
0
  6
Continuous
 62
     7
370
    15
100
AcDbSpline
210
0.0
220
0.0
230
1.0
 70
     8
 71
     3
 72
    20
 73
    16
 74
     0
 42
0.000000001
 43
0.00000001
 40
0.0
 40
0.0
 40
0.0
 40
0.0
 40
0.2500000000000041
 40
0.2500000000000041
 40
0.3750000000000039
 40
0.3750000000000039
 40
0.5000000000000038
 40
0.5000000000000038
 40
0.562500000000004
 40
0.562500000000004
 40
0.6250000000000042
 40
0.6250000000000042
 40
0.7500000000000028
 40
0.7500000000000028
 40
1.0
 40
1.0
 40
1.0
 40
1.0
 10
80.446894244711
 20
148.4769177673415
 30
0.0
 10
80.40689802688716
 20
148.398039360784
 30
0.0
 10
80.36178439904951
 20
148.3149097140925
 30
0.0
 10
80.27853018468299
 20
148.1814210497416
 30
0.0
 10
80.24831085606249
 20
148.1355559938596
 30
0.0
 10
80.17622262092105
 20
148.0373644414547
 30
0.0
 10
80.13430530350996
 20
147.9850546219311
 30
0.0
 10
80.06305469895852
 20
147.9130487191966
 30
0.0
 10
80.03881888657921
 20
147.8912785068951
 30
0.0
 10
79.99322069639459
 20
147.8558038485661
 30
0.0
 10
79.97241820679483
 20
147.8424336643885
 30
0.0
 10
79.91747720837574
 20
147.8128637522533
 30
0.0
 10
79.8894082202889
 20
147.8057372299513
 30
0.0
 10
79.81890539022604
 20
147.7988628584686
 30
0.0
 10
79.78748130243524
 20
147.8131780175557
 30
0.0
 10
79.7611562347266
 20
147.8325348195663
 30
0.0
  0
SPLINE
  5
E0
330
1F
100
AcDbEntity
  8
0
  6
Continuous
 62
     7
370
    15
100
AcDbSpline
210
0.0
220
0.0
230
1.0
 70
     8
 71
     3
 72
    10
 73
     6
 74
     0
 42
0.000000001
 43
0.00000001
 40
0.0
 40
0.0
 40
0.0
 40
0.0
 40
0.5
 40
0.5
 40
1.0
 40
1.0
 40
1.0
 40
1.0
 10
81.12034200300857
 20
149.4023368686833
 30
0.0
 10
80.9954537322584
 20
149.2713405906118
 30
0.0
 10
80.87400361419795
 20
149.1276277539468
 30
0.0
 10
80.64441963924051
 20
148.8170574612576
 30
0.0
 10
80.5341446638445
 20
148.6489883881945
 30
0.0
 10
80.44689424471099
 20
148.4769177673415
 30
0.0
  0
SPLINE
  5
E1
330
1F
100
AcDbEntity
  8
0
  6
Continuous
 62
     7
370
    15
100
AcDbSpline
210
0.0
220
0.0
230
1.0
 70
     8
 71
     3
 72
     8
 73
     4
 74
     0
 42
0.000000001
 43
0.00000001
 40
0.0
 40
0.0
 40
0.0
 40
0.0
 40
1.0
 40
1.0
 40
1.0
 40
1.0
 10
81.37026711897431
 20
149.3998838354279
 30
0.0
 10
81.28324908912596
 20
149.400350400215
 30
0.0
 10
81.20029506274601
 20
149.4013904197911
 30
0.0
 10
81.12034200300627
 20
149.4023368686834
 30
0.0
  0
SPLINE
  5
E2
330
1F
100
AcDbEntity
  8
0
  6
Continuous
 62
     7
370
    15
100
AcDbSpline
210
0.0
220
0.0
230
1.0
 70
     8
 71
     3
 72
     8
 73
     4
 74
     0
 42
0.000000001
 43
0.00000001
 40
0.0
 40
0.0
 40
0.0
 40
0.0
 40
1.0
 40
1.0
 40
1.0
 40
1.0
 10
81.12034200300627
 20
84.90576646504323
 30
0.0
 10
81.20029506274653
 20
84.90671291393551
 30
0.0
 10
81.28324908912704
 20
84.90775293351163
 30
0.0
 10
81.370267118976
 20
84.9082194982987
 30
0.0
  0
SPLINE
  5
E3
330
1F
100
AcDbEntity
  8
0
  6
Continuous
 62
     7
370
    15
100
AcDbSpline
210
0.0
220
0.0
230
1.0
 70
     8
 71
     3
 72
    10
 73
     6
 74
     0
 42
0.000000001
 43
0.00000001
 40
0.0
 40
0.0
 40
0.0
 40
0.0
 40
0.4999999999999989
 40
0.4999999999999989
 40
1.0
 40
1.0
 40
1.0
 40
1.0
 10
80.44689424471098
 20
85.83118556638513
 30
0.0
 10
80.53414466384449
 20
85.65911494553208
 30
0.0
 10
80.64441963924048
 20
85.491045872469
 30
0.0
 10
80.87400361419797
 20
85.1804755797798
 30
0.0
 10
80.9954537322584
 20
85.03676274311478
 30
0.0
 10
81.12034200300857
 20
84.9057664650433
 30
0.0
  0
SPLINE
  5
E4
330
1F
100
AcDbEntity
  8
0
  6
Continuous
 62
     7
370
    15
100
AcDbSpline
210
0.0
220
0.0
230
1.0
 70
     8
 71
     3
 72
    14
 73
    10
 74
     0
 42
0.000000001
 43
0.00000001
 40
0.0
 40
0.0
 40
0.0
 40
0.0
 40
0.25
 40
0.25
 40
0.5
 40
0.5
 40
0.75
 40
0.75
 40
1.0
 40
1.0
 40
1.0
 40
1.0
 10
158.3203420030086
 20
165.1227914877092
 30
0.0
 10
158.3203420030086
 20
165.2544254091772
 30
0.0
 10
158.2949124316931
 20
165.3871720426444
 30
0.0
 10
158.1967725099458
 20
165.6320599654525
 30
0.0
 10
158.1239625170546
 20
165.7451443455113
 30
0.0
 10
157.9396949097194
 20
165.9356110584341
 30
0.0
 10
157.8271707036422
 20
166.0131898542953
 30
0.0
 10
157.5848860402868
 20
166.1165671381902
 30
0.0
 10
157.4519647321019
 20
166.1438465225269
 30
0.0
 10
157.3203420030086
 20
166.1438465225269
 30
0.0
  0
SPLINE
  5
E5
330
1F
100
AcDbEntity
  8
0
  6
Continuous
 62
     7
370
    15
100
AcDbSpline
210
0.0
220
0.0
230
1.0
 70
     8
 71
     3
 72
    12
 73
     8
 74
     0
 42
0.000000001
 43
0.00000001
 40
0.0
 40
0.0
 40
0.0
 40
0.0
 40
0.2499999999999992
 40
0.2499999999999992
 40
0.4999999999999983
 40
0.4999999999999983
 40
1.0
 40
1.0
 40
1.0
 40
1.0
 10
157.3203420030086
 20
156.1050144277502
 30
0.0
 10
157.4725944170337
 20
156.1050144277502
 30
0.0
 10
157.622530877952
 20
156.058443449544
 30
0.0
 10
157.878173833656
 20
155.9019448173811
 30
0.0
 10
157.98694810212
 20
155.7920383733441
 30
0.0
 10
158.2423830175347
 20
155.416572162294
 30
0.0
 10
158.3203420030086
 20
155.1139737975386
 30
0.0
 10
158.3203420030086
 20
154.8127492014303
 30
0.0
  0
LINE
  5
E6
330
1F
100
AcDbEntity
  8
0
  6
Continuous
 62
     7
370
    15
100
AcDbLine
 10
158.320342003
 20
154.8127492014
 30
0.0
 11
158.320342003
 21
165.1227914877
 31
0.0
  0
SPLINE
  5
E7
330
1F
100
AcDbEntity
  8
0
  6
Continuous
 62
     7
370
    15
100
AcDbSpline
210
0.0
220
0.0
230
1.0
 70
     8
 71
     3
 72
     8
 73
     4
 74
     0
 42
0.000000001
 43
0.00000001
 40
0.0
 40
0.0
 40
0.0
 40
0.0
 40
1.0
 40
1.0
 40
1.0
 40
1.0
 10
147.4603420030086
 20
163.7513225275682
 30
0.0
 10
147.010033767324
 20
164.5490376526818
 30
0.0
 10
146.5593399508004
 20
165.346535952339
 30
0.0
 10
146.1083129820872
 20
166.1438465225269
 30
0.0
  0
LINE
  5
E8
330
1F
100
AcDbEntity
  8
0
  6
Continuous
 62
     7
370
    15
100
AcDbLine
 10
147.460342003
 20
153.049499173
 30
0.0
 11
147.460342003
 21
163.7513225276
 31
0.0
  0
SPLINE
  5
E9
330
1F
100
AcDbEntity
  8
0
  6
Continuous
 62
     7
370
    15
100
AcDbSpline
210
0.0
220
0.0
230
1.0
 70
     8
 71
     3
 72
     8
 73
     4
 74
     0
 42
0.000000001
 43
0.00000001
 40
0.0
 40
0.0
 40
0.0
 40
0.0
 40
1.0
 40
1.0
 40
1.0
 40
1.0
 10
146.1083129820872
 20
156.1050144277503
 30
0.0
 10
146.5652393358867
 20
155.0890964580759
 30
0.0
 10
147.0164449776898
 20
154.0703006289848
 30
0.0
 10
147.4603420030086
 20
153.0494991730012
 30
0.0
  0
LINE
  5
EA
330
1F
100
AcDbEntity
  8
0
  6
Continuous
 62
     7
370
    15
100
AcDbLine
 10
147.460342003
 20
153.049499173
 30
0.0
 11
147.460342003
 21
151.8682868594
 31
0.0
  0
SPLINE
  5
EB
330
1F
100
AcDbEntity
  8
0
  6
Continuous
 62
     7
370
    15
100
AcDbSpline
210
0.0
220
0.0
230
1.0
 70
     8
 71
     3
 72
    14
 73
    10
 74
     0
 42
0.000000001
 43
0.00000001
 40
0.0
 40
0.0
 40
0.0
 40
0.0
 40
0.25
 40
0.25
 40
0.5
 40
0.5
 40
0.75
 40
0.75
 40
1.0
 40
1.0
 40
1.0
 40
1.0
 10
147.4603420030085
 20
151.8682868593604
 30
0.0
 10
147.4603420030085
 20
151.7444199825711
 30
0.0
 10
147.4762011306362
 20
151.6201603057337
 30
0.0
 10
147.539562776156
 20
151.3825519433278
 30
0.0
 10
147.5881524842054
 20
151.2657715585753
 30
0.0
 10
147.7204380889803
 20
151.0569690299663
 30
0.0
 10
147.8057628802408
 20
150.9624583263737
 30
0.0
 10
148.012654128547
 20
150.8245015255714
 30
0.0
 10
148.136622074437
 20
150.7825830799358
 30
0.0
 10
148.2603420030086
 20
150.7825830799358
 30
0.0
  0
LINE
  5
EC
330
1F
100
AcDbEntity
  8
0
  6
Continuous
 62
     7
370
    15
100
AcDbLine
 10
148.260342003
 20
150.7825830799
 30
0.0
 11
150.480342003
 21
150.7825830799
 31
0.0
  0
SPLINE
  5
ED
330
1F
100
AcDbEntity
  8
0
  6
Continuous
 62
     7
370
    15
100
AcDbSpline
210
0.0
220
0.0
230
1.0
 70
     8
 71
     3
 72
    12
 73
     8
 74
     0
 42
0.000000001
 43
0.00000001
 40
0.0
 40
0.0
 40
0.0
 40
0.0
 40
0.249999999999997
 40
0.249999999999997
 40
0.499999999999994
 40
0.499999999999994
 40
1.0
 40
1.0
 40
1.0
 40
1.0
 10
150.4803420030086
 20
150.7825830799358
 30
0.0
 10
150.6040429529886
 20
150.7825830799358
 30
0.0
 10
150.7281395652588
 20
150.8245766916683
 30
0.0
 10
150.9347947283458
 20
150.9623720183127
 30
0.0
 10
151.0198354950726
 20
151.0563456167776
 30
0.0
 10
151.2193140635462
 20
151.3711338229985
 30
0.0
 10
151.2803420030086
 20
151.6213728152261
 30
0.0
 10
151.2803420030086
 20
151.8682868593604
 30
0.0
  0
LINE
  5
EE
330
1F
100
AcDbEntity
  8
0
  6
Continuous
 62
     7
370
    15
100
AcDbLine
 10
151.280342003
 20
151.8682868594
 30
0.0
 11
151.280342003
 21
153.049499173
 31
0.0
  0
SPLINE
  5
EF
330
1F
100
AcDbEntity
  8
0
  6
Continuous
 62
     7
370
    15
100
AcDbSpline
210
0.0
220
0.0
230
1.0
 70
     8
 71
     3
 72
     8
 73
     4
 74
     0
 42
0.000000001
 43
0.00000001
 40
0.0
 40
0.0
 40
0.0
 40
0.0
 40
1.0
 40
1.0
 40
1.0
 40
1.0
 10
151.2803420030086
 20
153.0494991730012
 30
0.0
 10
151.7244920140341
 20
154.0708824039528
 30
0.0
 10
152.175566324292
 20
155.0893669407211
 30
0.0
 10
152.6323710239299
 20
156.1050144277502
 30
0.0
  0
LINE
  5
F0
330
1F
100
AcDbEntity
  8
0
  6
Continuous
 62
     7
370
    15
100
AcDbLine
 10
152.6323710239
 20
156.1050144278
 30
0.0
 11
157.320342003
 21
156.1050144278
 31
0.0
  0
LINE
  5
F1
330
1F
100
AcDbEntity
  8
0
  6
Continuous
 62
     7
370
    15
100
AcDbLine
 10
158.320342003
 20
154.8127492014
 30
0.0
 11
158.320342003
 21
148.5040516669
 31
0.0
  0
LINE
  5
F2
330
1F
100
AcDbEntity
  8
0
  6
Continuous
 62
     7
370
    15
100
AcDbLine
 10
157.320342003
 20
166.1438465225
 30
0.0
 11
152.6323710239
 21
166.1438465225
 31
0.0
  0
LINE
  5
F3
330
1F
100
AcDbEntity
  8
0
  6
Continuous
 62
     7
370
    15
100
AcDbLine
 10
152.6323710239
 20
156.1050144278
 30
0.0
 11
152.6323710239
 21
166.1438465225
 31
0.0
  0
SPLINE
  5
F4
330
1F
100
AcDbEntity
  8
0
  6
Continuous
 62
     7
370
    15
100
AcDbSpline
210
0.0
220
0.0
230
1.0
 70
     8
 71
     3
 72
    14
 73
    10
 74
     0
 42
0.000000001
 43
0.00000001
 40
0.0
 40
0.0
 40
0.0
 40
0.0
 40
0.25
 40
0.25
 40
0.5
 40
0.5
 40
0.75
 40
0.75
 40
1.0
 40
1.0
 40
1.0
 40
1.0
 10
151.2803420030086
 20
162.8476029077113
 30
0.0
 10
151.2803420030086
 20
162.741246213959
 30
0.0
 10
151.2599544468673
 20
162.6354057261988
 30
0.0
 10
151.1813201014058
 20
162.4388408126624
 30
0.0
 10
151.1225887417672
 20
162.3476700703753
 30
0.0
 10
150.9759798361646
 20
162.1957589813436
 30
0.0
 10
150.8865745161381
 20
162.1336901445241
 30
0.0
 10
150.6926837835377
 20
162.0504220967654
 30
0.0
 10
150.5861787936479
 20
162.0283274270357
 30
0.0
 10
150.4803420030086
 20
162.0283274270357
 30
0.0
  0
SPLINE
  5
F5
330
1F
100
AcDbEntity
  8
0
  6
Continuous
 62
     7
370
    15
100
AcDbSpline
210
0.0
220
0.0
230
1.0
 70
     8
 71
     3
 72
     8
 73
     4
 74
     0
 42
0.000000001
 43
0.00000001
 40
0.0
 40
0.0
 40
0.0
 40
0.0
 40
1.0
 40
1.0
 40
1.0
 40
1.0
 10
152.6323710239299
 20
166.1438465225269
 30
0.0
 10
152.1813440552167
 20
165.346535952339
 30
0.0
 10
151.7306502386931
 20
164.5490376526818
 30
0.0
 10
151.2803420030086
 20
163.7513225275682
 30
0.0
  0
LINE
  5
F6
330
1F
100
AcDbEntity
  8
0
  6
Continuous
 62
     7
370
    15
100
AcDbLine
 10
151.280342003
 20
153.049499173
 30
0.0
 11
151.280342003
 21
163.7513225276
 31
0.0
  0
SPLINE
  5
F7
330
1F
100
AcDbEntity
  8
0
  6
Continuous
 62
     7
370
    15
100
AcDbSpline
210
0.0
220
0.0
230
1.0
 70
     8
 71
     3
 72
    10
 73
     6
 74
     0
 42
0.000000001
 43
0.00000001
 40
0.0
 40
0.0
 40
0.0
 40
0.0
 40
0.5
 40
0.5
 40
1.0
 40
1.0
 40
1.0
 40
1.0
 10
148.2603420030086
 20
162.0283274270357
 30
0.0
 10
148.0478056891522
 20
162.0283274270357
 30
0.0
 10
147.8378695174982
 20
162.1197400136659
 30
0.0
 10
147.544162376487
 20
162.4244848795701
 30
0.0
 10
147.4603420030085
 20
162.6366398494788
 30
0.0
 10
147.4603420030085
 20
162.8476029077113
 30
0.0
  0
LINE
  5
F8
330
1F
100
AcDbEntity
  8
0
  6
Continuous
 62
     7
370
    15
100
AcDbLine
 10
150.480342003
 20
162.028327427
 30
0.0
 11
148.260342003
 21
162.028327427
 31
0.0
  0
LINE
  5
F9
330
1F
100
AcDbEntity
  8
0
  6
Continuous
 62
     7
370
    15
100
AcDbLine
 10
81.120342003
 20
84.9040516669
 30
0.0
 11
81.120342003
 21
84.905766465
 31
0.0
  0
LINE
  5
FA
330
1F
100
AcDbEntity
  8
0
  6
Continuous
 62
     7
370
    15
100
AcDbLine
 10
81.120342003
 20
149.4040516669
 30
0.0
 11
81.120342003
 21
149.4023368687
 31
0.0
  0
LINE
  5
FB
330
1F
100
AcDbEntity
  8
0
  6
HIDDEN
 62
     7
370
     0
100
AcDbLine
 10
183.320342003
 20
156.1540516669
 30
0.0
 11
199.320342003
 21
156.1540516669
 31
0.0
  0
LINE
  5
FC
330
1F
100
AcDbEntity
  8
0
  6
HIDDEN
 62
     7
370
     0
100
AcDbLine
 10
183.320342003
 20
137.4841786858
 30
0.0
 11
199.320342003
 21
137.4841786858
 31
0.0
  0
LINE
  5
FD
330
1F
100
AcDbEntity
  8
0
  6
HIDDEN
 62
     7
370
     0
100
AcDbLine
 10
186.204005497
 20
128.1540516669
 30
0.0
 11
196.436678509
 21
128.1540516669
 31
0.0
  0
SPLINE
  5
FE
330
1F
100
AcDbEntity
  8
0
  6
HIDDEN
 62
     7
370
     0
100
AcDbSpline
210
0.0
220
0.0
230
1.0
 70
     8
 71
     3
 72
    11
 73
     7
 74
     0
 42
0.000000001
 43
0.00000001
 40
0.0
 40
0.0
 40
0.0
 40
0.0
 40
0.2164567244934122
 40
0.4403141600939099
 40
0.7519028444798674
 40
1.0
 40
1.0
 40
1.0
 40
1.0
 10
187.4300323093963
 20
157.0728538203804
 30
0.0
 10
187.4155767001477
 20
156.9279754101742
 30
0.0
 10
187.3861712406508
 20
156.6332651596383
 30
0.0
 10
187.3316027187245
 20
156.3876271969563
 30
0.0
 10
187.2730685456928
 20
156.5357322574364
 30
0.0
 10
187.2356103041973
 20
156.9078858367889
 30
0.0
 10
187.21900584058
 20
157.0728538203803
 30
0.0
  0
SPLINE
  5
FF
330
1F
100
AcDbEntity
  8
0
  6
HIDDEN
 62
     7
370
     0
100
AcDbSpline
210
0.0
220
0.0
230
1.0
 70
     8
 71
     3
 72
    11
 73
     7
 74
     0
 42
0.000000001
 43
0.00000001
 40
0.0
 40
0.0
 40
0.0
 40
0.0
 40
0.2164567244934235
 40
0.4403141600939223
 40
0.751902844479854
 40
1.0
 40
1.0
 40
1.0
 40
1.0
 10
187.21900584058
 20
157.0728538203803
 30
0.0
 10
187.4854975138861
 20
156.9279754101742
 30
0.0
 10
188.0275922793799
 20
156.6332651596382
 30
0.0
 10
189.0335724818025
 20
156.3876271969563
 30
0.0
 10
190.1126601527956
 20
156.5357322574363
 30
0.0
 10
190.8032093564709
 20
156.9078858367888
 30
0.0
 10
191.1093155341926
 20
157.0728538203803
 30
0.0
  0
SPLINE
  5
100
330
1F
100
AcDbEntity
  8
0
  6
HIDDEN
 62
     7
370
     0
100
AcDbSpline
210
0.0
220
0.0
230
1.0
 70
     8
 71
     3
 72
    11
 73
     7
 74
     0
 42
0.000000001
 43
0.00000001
 40
0.0
 40
0.0
 40
0.0
 40
0.0
 40
0.1845133558518815
 40
0.5180565039163681
 40
0.8676122830485018
 40
1.0
 40
1.0
 40
1.0
 40
1.0
 10
191.1093155341926
 20
157.0728538203803
 30
0.0
 10
191.3475009045794
 20
156.9483121565057
 30
0.0
 10
192.0162518451114
 20
156.5986376373855
 30
0.0
 10
193.2627856713326
 20
156.3389168558147
 30
0.0
 10
194.4210620423592
 20
156.652024741
 30
0.0
 10
195.0404959737173
 20
156.9821656055154
 30
0.0
 10
195.2106516966209
 20
157.0728538203803
 30
0.0
  0
SPLINE
  5
101
330
1F
100
AcDbEntity
  8
0
  6
HIDDEN
 62
     7
370
     0
100
AcDbSpline
210
0.0
220
0.0
230
1.0
 70
     8
 71
     3
 72
    11
 73
     7
 74
     0
 42
0.000000001
 43
0.00000001
 40
0.0
 40
0.0
 40
0.0
 40
0.0
 40
0.2164567244934204
 40
0.440314160093916
 40
0.7519028444798785
 40
1.0
 40
1.0
 40
1.0
 40
1.0
 10
195.2106516966209
 20
157.0728538203803
 30
0.0
 10
195.2251073058695
 20
156.9279754101742
 30
0.0
 10
195.2545127653664
 20
156.6332651596382
 30
0.0
 10
195.3090812872927
 20
156.3876271969563
 30
0.0
 10
195.3676154603245
 20
156.5357322574364
 30
0.0
 10
195.4050737018199
 20
156.9078858367889
 30
0.0
 10
195.4216781654371
 20
157.0728538203804
 30
0.0
  0
SPLINE
  5
102
330
1F
100
AcDbEntity
  8
0
  6
HIDDEN
 62
     7
370
     0
100
AcDbSpline
210
0.0
220
0.0
230
1.0
 70
     8
 71
     3
 72
    11
 73
     7
 74
     0
 42
0.000000001
 43
0.00000001
 40
0.0
 40
0.0
 40
0.0
 40
0.0
 40
0.2164567244934066
 40
0.4403141600939129
 40
0.751902844479886
 40
1.0
 40
1.0
 40
1.0
 40
1.0
 10
195.4216781654371
 20
157.0728538203804
 30
0.0
 10
195.155186492131
 20
156.9279754101743
 30
0.0
 10
194.6130917266374
 20
156.6332651596383
 30
0.0
 10
193.6071115242148
 20
156.3876271969563
 30
0.0
 10
192.5280238532214
 20
156.5357322574365
 30
0.0
 10
191.8374746495463
 20
156.907885836789
 30
0.0
 10
191.5313684718247
 20
157.0728538203804
 30
0.0
  0
SPLINE
  5
103
330
1F
100
AcDbEntity
  8
0
  6
HIDDEN
 62
     7
370
     0
100
AcDbSpline
210
0.0
220
0.0
230
1.0
 70
     8
 71
     3
 72
    11
 73
     7
 74
     0
 42
0.000000001
 43
0.00000001
 40
0.0
 40
0.0
 40
0.0
 40
0.0
 40
0.1323877169515048
 40
0.4819434960836133
 40
0.8154866441481051
 40
1.0
 40
1.0
 40
1.0
 40
1.0
 10
191.5313684718247
 20
157.0728538203804
 30
0.0
 10
191.3612127489211
 20
156.9821656055155
 30
0.0
 10
190.7417788175629
 20
156.6520247410002
 30
0.0
 10
189.5835024465366
 20
156.3389168558148
 30
0.0
 10
188.3369686203152
 20
156.5986376373856
 30
0.0
 10
187.6682176797832
 20
156.9483121565058
 30
0.0
 10
187.4300323093963
 20
157.0728538203804
 30
0.0
  0
LINE
  5
104
330
1F
100
AcDbEntity
  8
0
  6
HIDDEN
 62
     7
370
     0
100
AcDbLine
 10
187.320342003
 20
145.1540516669
 30
0.0
 11
195.320342003
 21
145.1540516669
 31
0.0
  0
LINE
  5
105
330
1F
100
AcDbEntity
  8
0
  6
HIDDEN
 62
     7
370
     0
100
AcDbLine
 10
191.1093155342
 20
146.1540516669
 30
0.0
 11
189.1641606874
 21
146.1540516669
 31
0.0
  0
LINE
  5
106
330
1F
100
AcDbEntity
  8
0
  6
HIDDEN
 62
     7
370
     0
100
AcDbLine
 10
193.1599836154
 20
146.1540516669
 30
0.0
 11
191.1093155342
 21
146.1540516669
 31
0.0
  0
LINE
  5
107
330
1F
100
AcDbEntity
  8
0
  6
HIDDEN
 62
     7
370
     0
100
AcDbLine
 10
191.1093155342
 20
146.1540516669
 30
0.0
 11
191.1093155342
 21
157.0728538204
 31
0.0
  0
LINE
  5
108
330
1F
100
AcDbEntity
  8
0
  6
HIDDEN
 62
     7
370
     0
100
AcDbLine
 10
189.1641606874
 20
146.1540516669
 30
0.0
 11
187.2190058406
 21
146.1540516669
 31
0.0
  0
LINE
  5
109
330
1F
100
AcDbEntity
  8
0
  6
HIDDEN
 62
     7
370
     0
100
AcDbLine
 10
195.2106516966
 20
146.1540516669
 30
0.0
 11
193.1599836154
 21
146.1540516669
 31
0.0
  0
LINE
  5
10A
330
1F
100
AcDbEntity
  8
0
  6
HIDDEN
 62
     7
370
     0
100
AcDbLine
 10
195.316164931
 20
146.1540516669
 30
0.0
 11
195.2106516966
 21
146.1540516669
 31
0.0
  0
LINE
  5
10B
330
1F
100
AcDbEntity
  8
0
  6
HIDDEN
 62
     7
370
     0
100
AcDbLine
 10
195.2106516966
 20
146.1540516669
 30
0.0
 11
195.2106516966
 21
157.0728538204
 31
0.0
  0
LINE
  5
10C
330
1F
100
AcDbEntity
  8
0
  6
HIDDEN
 62
     7
370
     0
100
AcDbLine
 10
187.4300323094
 20
146.1540516669
 30
0.0
 11
187.4300323094
 21
157.0728538204
 31
0.0
  0
LINE
  5
10D
330
1F
100
AcDbEntity
  8
0
  6
HIDDEN
 62
     7
370
     0
100
AcDbLine
 10
187.2190058406
 20
146.1540516669
 30
0.0
 11
187.2190058406
 21
157.0728538204
 31
0.0
  0
LINE
  5
10E
330
1F
100
AcDbEntity
  8
0
  6
HIDDEN
 62
     7
370
     0
100
AcDbLine
 10
195.4216781654
 20
146.1540516669
 30
0.0
 11
195.316164931
 21
146.1540516669
 31
0.0
  0
LINE
  5
10F
330
1F
100
AcDbEntity
  8
0
  6
HIDDEN
 62
     7
370
     0
100
AcDbLine
 10
191.5313684718
 20
146.1540516669
 30
0.0
 11
191.5313684718
 21
157.0728538204
 31
0.0
  0
LINE
  5
110
330
1F
100
AcDbEntity
  8
0
  6
HIDDEN
 62
     7
370
     0
100
AcDbLine
 10
195.4216781654
 20
146.1540516669
 30
0.0
 11
195.4216781654
 21
157.0728538204
 31
0.0
  0
LINE
  5
111
330
1F
100
AcDbEntity
  8
0
  6
HIDDEN
 62
     7
370
     0
100
AcDbLine
 10
146.1083129821
 20
156.1050144278
 30
0.0
 11
146.1083129821
 21
148.5040516669
 31
0.0
  0
LINE
  5
112
330
1F
100
AcDbEntity
  8
0
  6
HIDDEN
 62
     7
370
     0
100
AcDbLine
 10
184.7673553351
 20
156.6245893571
 30
0.0
 11
185.3988341498
 21
156.5437210347
 31
0.0
  0
CIRCLE
  5
113
330
1F
100
AcDbEntity
  8
0
  6
HIDDEN
 62
     7
370
     0
100
AcDbCircle
 10
191.320342003
 20
117.1540516669
 30
0.0
 40
7.249999999999972
  0
LINE
  5
114
330
1F
100
AcDbEntity
  8
0
  6
HIDDEN
 62
     7
370
     0
100
AcDbLine
 10
89.3069199221
 20
150.2832979394
 30
0.0
 11
88.8953976871
 21
149.8972287606
 31
0.0
  0
LINE
  5
115
330
1F
100
AcDbEntity
  8
0
  6
HIDDEN
 62
     7
370
     0
100
AcDbLine
 10
109.7837667524
 20
80.4182453046
 30
0.0
 11
109.5081519302
 21
80.3938193072
 31
0.0
  0
SPLINE
  5
116
330
1F
100
AcDbEntity
  8
0
  6
HIDDEN
 62
     7
370
     0
100
AcDbSpline
210
0.0
220
0.0
230
1.0
 70
     8
 71
     3
 72
    13
 73
     9
 74
     0
 42
0.000000001
 43
0.00000001
 40
0.0
 40
0.0
 40
0.0
 40
0.0
 40
0.1247123583478897
 40
0.2490591700984353
 40
0.3740782882401092
 40
0.5009715943216392
 40
0.7521524312983103
 40
0.9999999999999999
 40
0.9999999999999999
 40
0.9999999999999999
 40
0.9999999999999999
 10
107.889647020795
 20
154.0853577611136
 30
0.0
 10
107.895433631244
 20
154.0845815163111
 30
0.0
 10
107.9069898909059
 20
154.0830313019711
 30
0.0
 10
108.0040000076608
 20
154.0708149952218
 30
0.0
 10
108.1592955435459
 20
154.0518882838441
 30
0.0
 10
108.4494638222313
 20
154.0179162054276
 30
0.0
 10
108.9370197399971
 20
153.9613948820101
 30
0.0
 10
109.5027164671194
 20
153.9135864891963
 30
0.0
 10
109.7836755404795
 20
153.8898419612544
 30
0.0
  0
SPLINE
  5
117
330
1F
100
AcDbEntity
  8
0
  6
HIDDEN
 62
     7
370
     0
100
AcDbSpline
210
0.0
220
0.0
230
1.0
 70
     8
 71
     3
 72
    23
 73
    19
 74
     0
 42
0.000000001
 43
0.00000001
 40
0.0
 40
0.0
 40
0.0
 40
0.0
 40
0.0633571260677583
 40
0.1285545266630669
 40
0.1919098540958637
 40
0.2571115402721685
 40
0.3202403144568478
 40
0.3852600750475555
 40
0.4473665375787854
 40
0.5112910021130355
 40
0.5731724132338458
 40
0.636798995150446
 40
0.6995859083620221
 40
0.7641543874110681
 40
0.8275801165506877
 40
0.8928778468939038
 40
0.9556888039615785
 40
1.0
 40
1.0
 40
1.0
 40
1.0
 10
119.6235476581996
 20
85.78772944611623
 30
0.0
 10
119.4481422486046
 20
85.81641511354175
 30
0.0
 10
119.0922365943532
 20
85.87461965384804
 30
0.0
 10
118.3875563539554
 20
85.9739326712805
 30
0.0
 10
117.5717895632818
 20
86.069420554899
 30
0.0
 10
116.6694243561163
 20
86.15017933365007
 30
0.0
 10
115.692923538826
 20
86.20780975782966
 30
0.0
 10
114.6926442347537
 20
86.23460191367647
 30
0.0
 10
113.6794985477876
 20
86.228406287112
 30
0.0
 10
112.7022410618766
 20
86.19075956231373
 30
0.0
 10
111.7650813762855
 20
86.125523114533
 30
0.0
 10
110.9057595131742
 20
86.04083352962618
 30
0.0
 10
110.1314838982494
 20
85.94428520652926
 30
0.0
 10
109.476755928839
 20
85.84776315274893
 30
0.0
 10
108.9507715878507
 20
85.76044459355312
 30
0.0
 10
108.5895942010445
 20
85.69549209809115
 30
0.0
 10
108.3907327810848
 20
85.65795170552892
 30
0.0
 10
108.3896903288641
 20
85.65773542936688
 30
0.0
 10
108.3892591173604
 20
85.65764596649542
 30
0.0
  0
SPLINE
  5
118
330
1F
100
AcDbEntity
  8
0
  6
HIDDEN
 62
     7
370
     0
100
AcDbSpline
210
0.0
220
0.0
230
1.0
 70
     8
 71
     3
 72
    16
 73
    12
 74
     0
 42
0.000000001
 43
0.00000001
 40
0.0
 40
0.0
 40
0.0
 40
0.0
 40
0.0205567982654318
 40
0.1461296737692562
 40
0.2720439921275865
 40
0.3999539720187842
 40
0.5285040974820528
 40
0.6552455464440828
 40
0.7805594897978916
 40
0.9070378665747975
 40
1.0
 40
1.0
 40
1.0
 40
1.0
 10
108.4161720536104
 20
148.6454641957185
 30
0.0
 10
108.4015048413274
 20
148.6482105723232
 30
0.0
 10
108.2972417689197
 20
148.6677334139696
 30
0.0
 10
108.7480217797663
 20
148.5813588562126
 30
0.0
 10
109.7612609103412
 20
148.4102262542785
 30
0.0
 10
111.3555892283225
 20
148.2066854693412
 30
0.0
 10
113.282088590457
 20
148.0742945033665
 30
0.0
 10
115.3285803910086
 20
148.0704983246757
 30
0.0
 10
117.2417398067315
 20
148.1932748973054
 30
0.0
 10
118.7264481921308
 20
148.3750897574269
 30
0.0
 10
119.3565963952652
 20
148.4771414663419
 30
0.0
 10
119.6235476581996
 20
148.5203738876104
 30
0.0
  0
SPLINE
  5
119
330
1F
100
AcDbEntity
  8
0
  6
HIDDEN
 62
     7
370
     0
100
AcDbSpline
210
0.0
220
0.0
230
1.0
 70
     8
 71
     3
 72
     9
 73
     5
 74
     0
 42
0.000000001
 43
0.00000001
 40
0.0
 40
0.0
 40
0.0
 40
0.0
 40
0.6612085193702569
 40
1.0
 40
1.0
 40
1.0
 40
1.0
 10
119.6235476581996
 20
148.5203738876104
 30
0.0
 10
119.9150487830142
 20
148.5641592354145
 30
0.0
 10
120.3559098975869
 20
148.6303794163731
 30
0.0
 10
120.3044954226904
 20
148.6225738640275
 30
0.0
 10
120.2870766366144
 20
148.6199294093913
 30
0.0
  0
SPLINE
  5
11A
330
1F
100
AcDbEntity
  8
0
  6
HIDDEN
 62
     7
370
     0
100
AcDbSpline
210
0.0
220
0.0
230
1.0
 70
     8
 71
     3
 72
     9
 73
     5
 74
     0
 42
0.000000001
 43
0.00000001
 40
0.0
 40
0.0
 40
0.0
 40
0.0
 40
0.3224748155641218
 40
1.0
 40
1.0
 40
1.0
 40
1.0
 10
120.28707630742
 20
85.68817396799814
 30
0.0
 10
120.3057180606898
 20
85.68540600174448
 30
0.0
 10
120.3635264611294
 20
85.67682249035057
 30
0.0
 10
119.9224130818518
 20
85.74293592745106
 30
0.0
 10
119.6235476581996
 20
85.78772944611623
 30
0.0
  0
LINE
  5
11B
330
1F
100
AcDbEntity
  8
0
  6
HIDDEN
 62
     7
370
     0
100
AcDbLine
 10
99.36696633
 20
90.6540516669
 30
0.0
 11
99.36696633
 21
143.6540516669
 31
0.0
  0
LINE
  5
11C
330
1F
100
AcDbEntity
  8
0
  6
HIDDEN
 62
     7
370
     0
100
AcDbLine
 10
138.6544196214
 20
90.6540516669
 30
0.0
 11
138.6544196214
 21
143.6540516669
 31
0.0
  0
LINE
  5
11D
330
1F
100
AcDbEntity
  8
0
  6
HIDDEN
 62
     7
370
     0
100
AcDbLine
 10
141.820342003
 20
92.2790516669
 30
0.0
 11
141.820342003
 21
142.0290516482
 31
0.0
  0
SPLINE
  5
11E
330
1F
100
AcDbEntity
  8
0
  6
HIDDEN
 62
     7
370
     0
100
AcDbSpline
210
0.0
220
0.0
230
1.0
 70
     8
 71
     3
 72
    20
 73
    16
 74
     0
 42
0.000000001
 43
0.00000001
 40
0.0
 40
0.0
 40
0.0
 40
0.0
 40
0.2499999999999978
 40
0.2499999999999978
 40
0.3749999999999982
 40
0.3749999999999982
 40
0.4999999999999986
 40
0.4999999999999986
 40
0.6249999999999989
 40
0.6249999999999989
 40
0.7499999999999992
 40
0.7499999999999992
 40
0.8749999999999997
 40
0.8749999999999997
 40
1.0
 40
1.0
 40
1.0
 40
1.0
 10
89.57034200300858
 20
142.3825652972776
 30
0.0
 10
89.57034200300859
 20
142.3033623107453
 30
0.0
 10
89.52335950779585
 20
142.2222660923424
 30
0.0
 10
89.38553791701827
 20
142.1020694005915
 30
0.0
 10
89.32925563310829
 20
142.0631426965894
 30
0.0
 10
89.19617078164104
 20
141.987953964165
 30
0.0
 10
89.118330839408
 20
141.9513117588231
 30
0.0
 10
88.94569848329365
 20
141.8837212259912
 30
0.0
 10
88.85130548620256
 20
141.8527630442156
 30
0.0
 10
88.64586817988743
 20
141.7972386228459
 30
0.0
 10
88.53352193990025
 20
141.7725301090127
 30
0.0
 10
88.30128107600063
 20
141.7327338819044
 30
0.0
 10
88.18057043357791
 20
141.7173140445074
 30
0.0
 10
87.92949957430888
 20
141.6962340696678
 30
0.0
 10
87.7999775778931
 20
141.6907568246468
 30
0.0
 10
87.67034200300857
 20
141.6907568246468
 30
0.0
  0
LINE
  5
11F
330
1F
100
AcDbEntity
  8
0
  6
HIDDEN
 62
     7
370
     0
100
AcDbLine
 10
87.670342003
 20
141.6907568246
 30
0.0
 11
81.120342003
 21
141.6907568246
 31
0.0
  0
LINE
  5
120
330
1F
100
AcDbEntity
  8
0
  6
HIDDEN
 62
     7
370
     0
100
AcDbLine
 10
81.120342003
 20
92.6173465091
 30
0.0
 11
92.670342003
 21
92.6173465091
 31
0.0
  0
SPLINE
  5
121
330
1F
100
AcDbEntity
  8
0
  6
HIDDEN
 62
     7
370
     0
100
AcDbSpline
210
0.0
220
0.0
230
1.0
 70
     8
 71
     3
 72
    18
 73
    14
 74
     0
 42
0.000000001
 43
0.00000001
 40
0.0
 40
0.0
 40
0.0
 40
0.0
 40
0.1249999999999982
 40
0.1249999999999982
 40
0.2499999999999964
 40
0.2499999999999964
 40
0.4999999999999988
 40
0.4999999999999988
 40
0.7500000000000011
 40
0.7500000000000011
 40
0.8750000000000006
 40
0.8750000000000006
 40
1.0
 40
1.0
 40
1.0
 40
1.0
 10
92.67034200300859
 20
92.6173465090798
 30
0.0
 10
92.79980931596579
 20
92.6173465090798
 30
0.0
 10
92.92682006486243
 20
92.61199351048715
 30
0.0
 10
93.17618338605968
 20
92.59125553779838
 30
0.0
 10
93.29980704068812
 20
92.57558363354408
 30
0.0
 10
93.64883937762217
 20
92.51588890514199
 30
0.0
 10
93.85935114242895
 20
92.458123725461
 30
0.0
 10
94.20326782012847
 20
92.3236018841835
 30
0.0
 10
94.33961822164628
 20
92.24593277067811
 30
0.0
 10
94.47665627820881
 20
92.12664163659076
 30
0.0
 10
94.51187529692172
 20
92.08572262745572
 30
0.0
 10
94.55849887386029
 20
92.00506663416569
 30
0.0
 10
94.57034200300859
 20
91.96509811397283
 30
0.0
 10
94.57034200300858
 20
91.92553803644901
 30
0.0
  0
LINE
  5
122
330
1F
100
AcDbEntity
  8
0
  6
HIDDEN
 62
     7
370
     0
100
AcDbLine
 10
81.120342003
 20
92.6173465091
 30
0.0
 11
81.120342003
 21
141.6907568246
 31
0.0
  0
LINE
  5
123
330
1F
100
AcDbEntity
  8
0
  6
HIDDEN
 62
     7
370
     0
100
AcDbLine
 10
168.870342003
 20
117.1540516669
 30
0.0
 11
168.870342003
 21
99.6540516669
 31
0.0
  0
LINE
  5
124
330
1F
100
AcDbEntity
  8
0
  6
HIDDEN
 62
     7
370
     0
100
AcDbLine
 10
168.870342003
 20
134.6540516669
 30
0.0
 11
168.870342003
 21
117.1540516669
 31
0.0
  0
LINE
  5
125
330
1F
100
AcDbEntity
  8
0
  6
HIDDEN
 62
     7
370
     0
100
AcDbLine
 10
173.7363674068
 20
117.1540516669
 30
0.0
 11
173.7363674068
 21
99.1540516669
 31
0.0
  0
LINE
  5
126
330
1F
100
AcDbEntity
  8
0
  6
HIDDEN
 62
     7
370
     0
100
AcDbLine
 10
173.7363674068
 20
135.1540516669
 30
0.0
 11
173.7363674068
 21
117.1540516669
 31
0.0
  0
LINE
  5
127
330
1F
100
AcDbEntity
  8
0
  6
HIDDEN
 62
     7
370
     0
100
AcDbLine
 10
81.120342003
 20
89.7840516669
 30
0.0
 11
81.120342003
 21
84.905766465
 31
0.0
  0
SPLINE
  5
128
330
1F
100
AcDbEntity
  8
0
  6
HIDDEN
 62
     7
370
     0
100
AcDbSpline
210
0.0
220
0.0
230
1.0
 70
     8
 71
     3
 72
    38
 73
    34
 74
     0
 42
0.000000001
 43
0.00000001
 40
0.0
 40
0.0
 40
0.0
 40
0.0
 40
0.0502592658638936
 40
0.0757890819429849
 40
0.1017039930103531
 40
0.1519236826905592
 40
0.2031470697280099
 40
0.2292022464675695
 40
0.2555987252779416
 40
0.282167279698748
 40
0.309089843659688
 40
0.3362472465031304
 40
0.3636024445569166
 40
0.391606386747325
 40
0.4198474891726925
 40
0.4719575474940647
 40
0.4984681367528045
 40
0.5254305192280373
 40
0.5739460002996761
 40
0.6234755503527537
 40
0.6481311036319203
 40
0.6981749858719358
 40
0.7236027018789003
 40
0.7501613104210886
 40
0.7768951690506732
 40
0.8041848419404556
 40
0.8316704121406567
 40
0.858688826197806
 40
0.8859107019454296
 40
0.9137993831596689
 40
0.9419298905488678
 40
0.9930778430356396
 40
1.0
 40
1.0
 40
1.0
 40
1.0
 10
184.0703420030086
 20
135.1540516668633
 30
0.0
 10
184.0874173842783
 20
135.1471335091584
 30
0.0
 10
184.1131664167804
 20
135.1367011876316
 30
0.0
 10
184.2726063721159
 20
135.0733759290234
 30
0.0
 10
184.4869776018611
 20
134.9897550942206
 30
0.0
 10
184.8670564089262
 20
134.8458926903839
 30
0.0
 10
185.3803590604337
 20
134.6650517133097
 30
0.0
 10
185.8712054514071
 20
134.505847368825
 30
0.0
 10
186.2812783032699
 20
134.3811668888767
 30
0.0
 10
186.7300874338261
 20
134.2549442478284
 30
0.0
 10
187.215573875096
 20
134.1307130814816
 30
0.0
 10
187.736127350419
 20
134.0120595300963
 30
0.0
 10
188.2914696271478
 20
133.9023683802848
 30
0.0
 10
188.8793342774254
 20
133.805692759016
 30
0.0
 10
189.6685380719707
 20
133.7038980323266
 30
0.0
 10
190.4789117227969
 20
133.6423214439428
 30
0.0
 10
191.2886485235613
 20
133.6256135233411
 30
0.0
 10
192.0713416371973
 20
133.6386852290337
 30
0.0
 10
193.0206173737496
 20
133.7048771619789
 30
0.0
 10
193.9129195793767
 20
133.8260629315013
 30
0.0
 10
194.7683892442782
 20
133.980616775195
 30
0.0
 10
195.4159718162908
 20
134.1263666952562
 30
0.0
 10
196.0201135882634
 20
134.2848376257374
 30
0.0
 10
196.4551783158966
 20
134.409464784888
 30
0.0
 10
196.8651721704813
 20
134.5361203576602
 30
0.0
 10
197.241189903642
 20
134.6599397618067
 30
0.0
 10
197.5765072109082
 20
134.7764422889058
 30
0.0
 10
197.8672775893552
 20
134.8819825871844
 30
0.0
 10
198.1124646015582
 20
134.9741621628224
 30
0.0
 10
198.3113065469283
 20
135.0510591337341
 30
0.0
 10
198.4939997786031
 20
135.1231970299402
 30
0.0
 10
198.5781635500296
 20
135.1572029780403
 30
0.0
 10
198.5668648854692
 20
135.1526522898345
 30
0.0
 10
198.5655180457557
 20
135.1521098321337
 30
0.0
  0
LINE
  5
129
330
1F
100
AcDbEntity
  8
0
  6
HIDDEN
 62
     7
370
     0
100
AcDbLine
 10
94.570342003
 20
89.7840516669
 30
0.0
 11
94.570342003
 21
83.2847184015
 31
0.0
  0
LINE
  5
12A
330
1F
100
AcDbEntity
  8
0
  6
HIDDEN
 62
     7
370
     0
100
AcDbLine
 10
89.570342003
 20
144.5240516669
 30
0.0
 11
89.570342003
 21
150.8986604038
 31
0.0
  0
LINE
  5
12B
330
1F
100
AcDbEntity
  8
0
  6
HIDDEN
 62
     7
370
     0
100
AcDbLine
 10
81.120342003
 20
144.5240516669
 30
0.0
 11
81.120342003
 21
149.4023368687
 31
0.0
  0
LINE
  5
12C
330
1F
100
AcDbEntity
  8
0
  6
HIDDEN
 62
     7
370
     0
100
AcDbLine
 10
155.648334246
 20
130.1540516669
 30
0.0
 11
155.648334246
 21
104.1540516669
 31
0.0
  0
LINE
  5
12D
330
1F
100
AcDbEntity
  8
0
  6
HIDDEN
 62
     7
370
     0
100
AcDbLine
 10
153.670342003
 20
104.1540516669
 30
0.0
 11
153.670342003
 21
130.1540516669
 31
0.0
  0
LINE
  5
12E
330
1F
100
AcDbEntity
  8
0
  6
HIDDEN
 62
     7
370
     0
100
AcDbLine
 10
142.570342003
 20
105.9040516669
 30
0.0
 11
142.570342003
 21
128.4040516669
 31
0.0
  0
ELLIPSE
  5
12F
330
1F
100
AcDbEntity
  8
0
  6
HIDDEN
 62
     7
370
     0
100
AcDbEllipse
 10
73.1856688027
 20
117.1540516669
 30
0.0
 11
31.08108570811723
 21
1.421085471520200E-14
 31
0.0
210
0.0
220
0.0
230
1.0
 40
0.8164965809
 41
1.312649268214797
 42
1.367189972061481
  0
ELLIPSE
  5
130
330
1F
100
AcDbEntity
  8
0
  6
HIDDEN
 62
     7
370
     0
100
AcDbEllipse
 10
73.1856688027
 20
117.1540516669
 30
0.0
 11
31.08108570811723
 21
-1.421085471520200E-14
 31
0.0
210
0.0
220
0.0
230
1.0
 40
0.8164965809
 41
4.915995335118117
 42
4.9705360389648
  0
LINE
  5
131
330
1F
100
AcDbEntity
  8
0
  6
HIDDEN
 62
     7
370
     0
100
AcDbLine
 10
144.320342003
 20
73.2540516669
 30
0.0
 11
134.320342003
 21
73.2540516669
 31
0.0
  0
LINE
  5
132
330
1F
100
AcDbEntity
  8
0
  6
HIDDEN
 62
     7
370
     0
100
AcDbLine
 10
134.320342003
 20
67.1640526671
 30
0.0
 11
134.320342003
 21
73.2540516669
 31
0.0
  0
LINE
  5
133
330
1F
100
AcDbEntity
  8
0
  6
HIDDEN
 62
     7
370
     0
100
AcDbLine
 10
158.320342003
 20
73.2540516669
 30
0.0
 11
144.320342003
 21
73.2540516669
 31
0.0
  0
LINE
  5
134
330
1F
100
AcDbEntity
  8
0
  6
HIDDEN
 62
     7
370
     0
100
AcDbLine
 10
94.570342003
 20
89.7840516669
 30
0.0
 11
94.570342003
 21
91.9255380364
 31
0.0
  0
LINE
  5
135
330
1F
100
AcDbEntity
  8
0
  6
HIDDEN
 62
     7
370
     0
100
AcDbLine
 10
81.120342003
 20
89.7840516669
 30
0.0
 11
81.120342003
 21
92.6173465091
 31
0.0
  0
LINE
  5
136
330
1F
100
AcDbEntity
  8
0
  6
HIDDEN
 62
     7
370
     0
100
AcDbLine
 10
89.570342003
 20
144.5240516669
 30
0.0
 11
89.570342003
 21
142.3825652973
 31
0.0
  0
LINE
  5
137
330
1F
100
AcDbEntity
  8
0
  6
HIDDEN
 62
     7
370
     0
100
AcDbLine
 10
81.120342003
 20
144.5240516669
 30
0.0
 11
81.120342003
 21
141.6907568246
 31
0.0
  0
LINE
  5
138
330
1F
100
AcDbEntity
  8
0
  6
HIDDEN
 62
     7
370
     0
100
AcDbLine
 10
144.320342003
 20
161.0540516669
 30
0.0
 11
134.320342003
 21
161.0540516669
 31
0.0
  0
LINE
  5
139
330
1F
100
AcDbEntity
  8
0
  6
HIDDEN
 62
     7
370
     0
100
AcDbLine
 10
158.320342003
 20
161.0540516669
 30
0.0
 11
144.320342003
 21
161.0540516669
 31
0.0
  0
LINE
  5
13A
330
1F
100
AcDbEntity
  8
0
  6
HIDDEN
 62
     7
370
     0
100
AcDbLine
 10
184.070342003
 20
154.6540516669
 30
0.0
 11
198.570342003
 21
154.6540516669
 31
0.0
  0
SPLINE
  5
13B
330
1F
100
AcDbEntity
  8
0
  6
HIDDEN
 62
     7
370
     0
100
AcDbSpline
210
0.0
220
0.0
230
1.0
 70
     8
 71
     3
 72
    30
 73
    26
 74
     0
 42
0.000000001
 43
0.00000001
 40
0.0
 40
0.0
 40
0.0
 40
0.0
 40
0.0531112311310929
 40
0.1124939554574135
 40
0.1778933310768807
 40
0.2129185282113497
 40
0.2494728172611547
 40
0.2912399913489734
 40
0.326083448094556
 40
0.3539994749994138
 40
0.3749854247400996
 40
0.4414452018829233
 40
0.5001646679545734
 40
0.5546811038125918
 40
0.6144272052446476
 40
0.6794546098631649
 40
0.7140127085523685
 40
0.7499108242701679
 40
0.7913766488618091
 40
0.826044689037754
 40
0.8539111608640926
 40
0.8749732121494443
 40
0.9411617829923631
 40
0.9999141541274849
 40
1.0
 40
1.0
 40
1.0
 40
1.0
 10
120.3698266951683
 20
80.05414014499947
 30
0.0
 10
120.353636729268
 20
80.05903840127162
 30
0.0
 10
120.3193450500119
 20
80.06941331089365
 30
0.0
 10
120.0180671207682
 20
80.14505698615484
 30
0.0
 10
119.575903294225
 20
80.24134209522144
 30
0.0
 10
119.0810698796846
 20
80.3410071030991
 30
0.0
 10
118.6105943583814
 20
80.43328520906735
 30
0.0
 10
118.0796728895573
 20
80.52891725385733
 30
0.0
 10
117.5415223972512
 20
80.61456749423493
 30
0.0
 10
117.0834750611671
 20
80.68185928774984
 30
0.0
 10
116.4279107405632
 20
80.77020745658037
 30
0.0
 10
115.5446043023613
 20
80.86686554088814
 30
0.0
 10
114.4159425696446
 20
80.95364071763994
 30
0.0
 10
113.3261808198153
 20
80.9917194153637
 30
0.0
 10
112.2301525413188
 20
80.99356985013473
 30
0.0
 10
111.324761294431
 20
80.96740839454574
 30
0.0
 10
110.6284585841311
 20
80.93080116940816
 30
0.0
 10
110.1017788563612
 20
80.89178429394939
 30
0.0
 10
109.6351327418036
 20
80.84957516651029
 30
0.0
 10
109.2639174662264
 20
80.81257107696833
 30
0.0
 10
109.0098709885492
 20
80.78387031649883
 30
0.0
 10
108.7088158354248
 20
80.74749036587392
 30
0.0
 10
108.4533320404562
 20
80.71471019884264
 30
0.0
 10
108.3541113155018
 20
80.69837231414563
 30
0.0
 10
108.3703918727892
 20
80.70096590032348
 30
0.0
 10
108.3704156263752
 20
80.70096968440599
 30
0.0
  0
SPLINE
  5
13C
330
1F
100
AcDbEntity
  8
0
  6
HIDDEN
 62
     7
370
     0
100
AcDbSpline
210
0.0
220
0.0
230
1.0
 70
     8
 71
     3
 72
    30
 73
    26
 74
     0
 42
0.000000001
 43
0.00000001
 40
0.0
 40
0.0
 40
0.0
 40
0.0
 40
0.0001272513770344
 40
0.028557613530396
 40
0.0588607256128086
 40
0.09104076218666
 40
0.1251011484072107
 40
0.1546892300206768
 40
0.1963674498941108
 40
0.2501213411712256
 40
0.3205355278788093
 40
0.3856195993174013
 40
0.4454121378123724
 40
0.4999646319949312
 40
0.5283564778740079
 40
0.5586406140748167
 40
0.5908247032174537
 40
0.6249150694023332
 40
0.6541896185538607
 40
0.695867546811143
 40
0.7499344613138383
 40
0.8215931912082144
 40
0.8871439753034931
 40
0.9466386712879679
 40
1.0
 40
1.0
 40
1.0
 40
1.0
 10
108.3704499889016
 20
153.6070606158967
 30
0.0
 10
108.3704138791184
 20
153.607068489457
 30
0.0
 10
108.362310161439
 20
153.6088354651666
 30
0.0
 10
108.3909675247913
 20
153.6033814456658
 30
0.0
 10
108.464359235073
 20
153.5928376229268
 30
0.0
 10
108.6080143501779
 20
153.5731527017171
 30
0.0
 10
108.8090504496086
 20
153.5483133577573
 30
0.0
 10
109.0916808964611
 20
153.5141049131828
 30
0.0
 10
109.5050900607288
 20
153.4704250086889
 30
0.0
 10
110.1813775462705
 20
153.4073819442652
 30
0.0
 10
111.1198084524739
 20
153.3460847727133
 30
0.0
 10
112.2293016644198
 20
153.3147963295108
 30
0.0
 10
113.3267823954994
 20
153.3164514970409
 30
0.0
 10
114.2268136338978
 20
153.3477576991556
 30
0.0
 10
114.938154559746
 20
153.394590847956
 30
0.0
 10
115.5035714606932
 20
153.4417577098505
 30
0.0
 10
116.0924948835679
 20
153.5011967164053
 30
0.0
 10
116.6569045356993
 20
153.5675539229577
 30
0.0
 10
117.251100729312
 20
153.649473329347
 30
0.0
 10
117.9177088903694
 20
153.7511213121001
 30
0.0
 10
118.7190416365378
 20
153.8932602227499
 30
0.0
 10
119.47155162136
 20
154.0445047935621
 30
0.0
 10
120.0168381163113
 20
154.1623556668247
 30
0.0
 10
120.3195596477415
 20
154.2385848985759
 30
0.0
 10
120.3538500983425
 20
154.2490372080684
 30
0.0
 10
120.3700635349856
 20
154.2539793378673
 30
0.0
  0
LINE
  5
13D
330
1F
100
AcDbEntity
  8
0
  6
HIDDEN
 62
     7
370
     0
100
AcDbLine
 10
152.6323710239
 20
156.1050144278
 30
0.0
 11
152.6323710239
 21
148.5040516669
 31
0.0
  0
LINE
  5
13E
330
1F
100
AcDbEntity
  8
0
  6
HIDDEN
 62
     7
370
     0
100
AcDbLine
 10
147.460342003
 20
151.8682868594
 30
0.0
 11
147.460342003
 21
148.5040516669
 31
0.0
  0
LINE
  5
13F
330
1F
100
AcDbEntity
  8
0
  6
HIDDEN
 62
     7
370
     0
100
AcDbLine
 10
151.280342003
 20
151.8682868594
 30
0.0
 11
151.280342003
 21
148.5040516669
 31
0.0
  0
CIRCLE
  5
140
330
1F
100
AcDbEntity
  8
0
  6
HIDDEN
 62
     7
370
     0
100
AcDbCircle
 10
136.370342003
 20
117.1540516669
 30
0.0
 40
5.0
  0
LINE
  5
141
330
1F
100
AcDbEntity
  8
0
  6
HIDDEN
 62
     7
370
     0
100
AcDbLine
 10
199.320342003
 20
156.1540516669
 30
0.0
 11
198.7271735936
 21
156.7472200762
 31
0.0
  0
LINE
  5
142
330
1F
100
AcDbEntity
  8
0
  6
HIDDEN
 62
     7
370
     0
100
AcDbLine
 10
183.9136471133
 20
156.7473567772
 30
0.0
 11
183.320342003
 21
156.1540516669
 31
0.0
  0
LINE
  5
143
330
1F
100
AcDbEntity
  8
0
  6
HIDDEN
 62
     7
370
     0
100
AcDbLine
 10
183.320342003
 20
156.1540516669
 30
0.0
 11
183.320342003
 21
137.4841786858
 31
0.0
  0
LINE
  5
144
330
1F
100
AcDbEntity
  8
0
  6
HIDDEN
 62
     7
370
     0
100
AcDbLine
 10
199.320342003
 20
137.4841786858
 30
0.0
 11
199.320342003
 21
156.1540516669
 31
0.0
  0
LINE
  5
145
330
1F
100
AcDbEntity
  8
0
  6
HIDDEN
 62
     7
370
     0
100
AcDbLine
 10
183.320342003
 20
137.4841786858
 30
0.0
 11
185.7210425839
 21
128.5246421443
 31
0.0
  0
LINE
  5
146
330
1F
100
AcDbEntity
  8
0
  6
HIDDEN
 62
     7
370
     0
100
AcDbLine
 10
196.9196414222
 20
128.5246421443
 30
0.0
 11
199.320342003
 21
137.4841786858
 31
0.0
  0
ARC
  5
147
330
1F
100
AcDbEntity
  8
0
  6
HIDDEN
 62
     7
370
     0
100
AcDbCircle
 10
186.204005497
 20
128.6540516669
 30
0.0
 40
0.5000000000000079
100
AcDbArc
 50
195.0
 51
270.0
  0
ARC
  5
148
330
1F
100
AcDbEntity
  8
0
  6
HIDDEN
 62
     7
370
     0
100
AcDbCircle
 10
196.436678509
 20
128.6540516669
 30
0.0
 40
0.5000000000000079
100
AcDbArc
 50
270.0
 51
345.0
  0
LINE
  5
149
330
1F
100
AcDbEntity
  8
0
  6
HIDDEN
 62
     7
370
     0
100
AcDbLine
 10
186.620342003
 20
157.1540516669
 30
0.0
 11
187.320342003
 21
156.4540516669
 31
0.0
  0
LINE
  5
14A
330
1F
100
AcDbEntity
  8
0
  6
HIDDEN
 62
     7
370
     0
100
AcDbLine
 10
195.320342003
 20
156.4540516669
 30
0.0
 11
196.020342003
 21
157.1540516669
 31
0.0
  0
LINE
  5
14B
330
1F
100
AcDbEntity
  8
0
  6
HIDDEN
 62
     7
370
     0
100
AcDbLine
 10
187.320342003
 20
146.1540516669
 30
0.0
 11
187.320342003
 21
145.1540516669
 31
0.0
  0
LINE
  5
14C
330
1F
100
AcDbEntity
  8
0
  6
HIDDEN
 62
     7
370
     0
100
AcDbLine
 10
195.320342003
 20
145.1540516669
 30
0.0
 11
195.320342003
 21
146.1540516669
 31
0.0
  0
LINE
  5
14D
330
1F
100
AcDbEntity
  8
0
  6
HIDDEN
 62
     7
370
     0
100
AcDbLine
 10
187.320342003
 20
145.1540516669
 30
0.0
 11
191.320342003
 21
143.6981707298
 31
0.0
  0
LINE
  5
14E
330
1F
100
AcDbEntity
  8
0
  6
HIDDEN
 62
     7
370
     0
100
AcDbLine
 10
191.320342003
 20
143.6981707298
 30
0.0
 11
195.320342003
 21
145.1540516669
 31
0.0
  0
LINE
  5
14F
330
1F
100
AcDbEntity
  8
0
  6
HIDDEN
 62
     7
370
     0
100
AcDbLine
 10
129.370342003
 20
77.7493687103
 30
0.0
 11
129.4599436269
 21
78.3869173922
 31
0.0
  0
LINE
  5
150
330
1F
100
AcDbEntity
  8
0
  6
HIDDEN
 62
     7
370
     0
100
AcDbLine
 10
129.4599436269
 20
155.9211859415
 30
0.0
 11
129.370342003
 21
156.5587346235
 31
0.0
  0
ARC
  5
151
330
1F
100
AcDbEntity
  8
0
  6
HIDDEN
 62
     7
370
     0
100
AcDbCircle
 10
128.4734050846
 20
78.5255663424
 30
0.0
 40
0.9962338214386721
100
AcDbArc
 50
352.0
 51
0.0
  0
ARC
  5
152
330
1F
100
AcDbEntity
  8
0
  6
HIDDEN
 62
     7
370
     0
100
AcDbCircle
 10
128.4734050846
 20
78.5255663424
 30
0.0
 40
0.9962338214386665
100
AcDbArc
 50
0.0
 51
25.7988228126
  0
ARC
  5
153
330
1F
100
AcDbEntity
  8
0
  6
HIDDEN
 62
     7
370
     0
100
AcDbCircle
 10
128.4734050846
 20
155.7825369913
 30
0.0
 40
0.9962338214386799
100
AcDbArc
 50
348.75
 51
8.0
  0
LWPOLYLINE
  5
154
330
1F
100
AcDbEntity
  8
0
  6
HIDDEN
 62
     7
370
     0
100
AcDbPolyline
 90
        3
 70
   128
 43
0.0
 10
129.4504965525
 20
155.5881814143
 10
129.3938051218
 20
155.4012948131
 10
129.370342003
 20
155.3489634782
  0
LINE
  5
155
330
1F
100
AcDbEntity
  8
0
  6
HIDDEN
 62
     7
370
     0
100
AcDbLine
 10
129.469638906
 20
78.5255663424
 30
0.0
 11
129.469638906
 21
155.7825369913
 31
0.0
  0
ARC
  5
156
330
1F
100
AcDbEntity
  8
0
  6
HIDDEN
 62
     7
370
     0
100
AcDbCircle
 10
102.8310679452
 20
86.6540516669
 30
0.0
 40
1.000000000000008
100
AcDbArc
 50
210.0
 51
270.0
  0
ARC
  5
157
330
1F
100
AcDbEntity
  8
0
  6
HIDDEN
 62
     7
370
     0
100
AcDbCircle
 10
102.8310679452
 20
147.6540516669
 30
0.0
 40
1.000000000000008
100
AcDbArc
 50
90.0
 51
150.0
  0
LINE
  5
158
330
1F
100
AcDbEntity
  8
0
  6
HIDDEN
 62
     7
370
     0
100
AcDbLine
 10
102.8310679452
 20
85.6540516669
 30
0.0
 11
108.3892591174
 21
85.6540516669
 31
0.0
  0
LINE
  5
159
330
1F
100
AcDbEntity
  8
0
  6
HIDDEN
 62
     7
370
     0
100
AcDbLine
 10
108.4161720536
 20
148.6540516669
 30
0.0
 11
102.8310679452
 21
148.6540516669
 31
0.0
  0
ARC
  5
15A
330
1F
100
AcDbEntity
  8
0
  6
HIDDEN
 62
     7
370
     0
100
AcDbCircle
 10
119.6235476582
 20
97.6540516669
 30
0.0
 40
12.0
100
AcDbArc
 50
273.1724059101
 51
324.3146652873
  0
ARC
  5
15B
330
1F
100
AcDbEntity
  8
0
  6
HIDDEN
 62
     7
370
     0
100
AcDbCircle
 10
119.6235476582
 20
136.6540516669
 30
0.0
 40
11.99999999999998
100
AcDbArc
 50
35.6853347127
 51
86.8181483557
  0
LINE
  5
15C
330
1F
100
AcDbEntity
  8
0
  6
HIDDEN
 62
     7
370
     0
100
AcDbLine
 10
101.9650425414
 20
148.1540516669
 30
0.0
 11
99.36696633
 21
143.6540516669
 31
0.0
  0
LINE
  5
15D
330
1F
100
AcDbEntity
  8
0
  6
HIDDEN
 62
     7
370
     0
100
AcDbLine
 10
99.36696633
 20
90.6540516669
 30
0.0
 11
101.9650425414
 21
86.1540516669
 31
0.0
  0
ARC
  5
15E
330
1F
100
AcDbEntity
  8
0
  6
HIDDEN
 62
     7
370
     0
100
AcDbCircle
 10
139.820342003
 20
92.2790516669
 30
0.0
 40
2.000000000000003
100
AcDbArc
 50
234.3409123039
 51
0.0
  0
ARC
  5
15F
330
1F
100
AcDbEntity
  8
0
  6
HIDDEN
 62
     7
370
     0
100
AcDbCircle
 10
139.820342003
 20
142.0290516669
 30
0.0
 40
2.000000000000003
100
AcDbArc
 50
0.0
 51
125.6590876961
  0
LINE
  5
160
330
1F
100
AcDbEntity
  8
0
  6
HIDDEN
 62
     7
370
     0
100
AcDbLine
 10
129.370342003
 20
90.6540516669
 30
0.0
 11
138.6544196214
 21
90.6540516669
 31
0.0
  0
LINE
  5
161
330
1F
100
AcDbEntity
  8
0
  6
HIDDEN
 62
     7
370
     0
100
AcDbLine
 10
138.6544196214
 20
143.6540516669
 30
0.0
 11
129.370342003
 21
143.6540516669
 31
0.0
  0
LINE
  5
162
330
1F
100
AcDbEntity
  8
0
  6
HIDDEN
 62
     7
370
     0
100
AcDbLine
 10
94.570342003
 20
90.6540516669
 30
0.0
 11
99.36696633
 21
90.6540516669
 31
0.0
  0
LINE
  5
163
330
1F
100
AcDbEntity
  8
0
  6
HIDDEN
 62
     7
370
     0
100
AcDbLine
 10
99.36696633
 20
143.6540516669
 30
0.0
 11
89.570342003
 21
143.6540516669
 31
0.0
  0
ARC
  5
164
330
1F
100
AcDbEntity
  8
0
  6
HIDDEN
 62
     7
370
     0
100
AcDbCircle
 10
208.370342003
 20
136.1540516669
 30
0.0
 40
1.0
100
AcDbArc
 50
270.0
 51
0.0
  0
ARC
  5
165
330
1F
100
AcDbEntity
  8
0
  6
HIDDEN
 62
     7
370
     0
100
AcDbCircle
 10
208.370342003
 20
98.1540516669
 30
0.0
 40
1.0
100
AcDbArc
 50
0.0
 51
90.0
  0
ARC
  5
166
330
1F
100
AcDbEntity
  8
0
  6
HIDDEN
 62
     7
370
     0
100
AcDbCircle
 10
171.7386895054
 20
134.6540516669
 30
0.0
 40
1.0
100
AcDbArc
 50
75.0
 51
90.0
  0
ARC
  5
167
330
1F
100
AcDbEntity
  8
0
  6
HIDDEN
 62
     7
370
     0
100
AcDbCircle
 10
171.7386895054
 20
99.6540516669
 30
0.0
 40
1.000000000000002
100
AcDbArc
 50
270.0
 51
285.0
  0
LINE
  5
168
330
1F
100
AcDbEntity
  8
0
  6
HIDDEN
 62
     7
370
     0
100
AcDbLine
 10
171.7386895054
 20
135.6540516669
 30
0.0
 11
169.870342003
 21
135.6540516669
 31
0.0
  0
LINE
  5
169
330
1F
100
AcDbEntity
  8
0
  6
HIDDEN
 62
     7
370
     0
100
AcDbLine
 10
169.870342003
 20
98.6540516669
 30
0.0
 11
171.7386895054
 21
98.6540516669
 31
0.0
  0
ARC
  5
16A
330
1F
100
AcDbEntity
  8
0
  6
HIDDEN
 62
     7
370
     0
100
AcDbCircle
 10
169.870342003
 20
134.6540516669
 30
0.0
 40
1.0
100
AcDbArc
 50
90.0
 51
180.0
  0
ARC
  5
16B
330
1F
100
AcDbEntity
  8
0
  6
HIDDEN
 62
     7
370
     0
100
AcDbCircle
 10
169.870342003
 20
99.6540516669
 30
0.0
 40
1.0
100
AcDbArc
 50
180.0
 51
270.0
  0
LINE
  5
16C
330
1F
100
AcDbEntity
  8
0
  6
HIDDEN
 62
     7
370
     0
100
AcDbLine
 10
171.9975085505
 20
98.6881258406
 30
0.0
 11
173.7363674068
 21
99.1540516669
 31
0.0
  0
LINE
  5
16D
330
1F
100
AcDbEntity
  8
0
  6
HIDDEN
 62
     7
370
     0
100
AcDbLine
 10
173.7363674068
 20
135.1540516669
 30
0.0
 11
171.9975085505
 21
135.6199774932
 31
0.0
  0
LINE
  5
16E
330
1F
100
AcDbEntity
  8
0
  6
HIDDEN
 62
     7
370
     0
100
AcDbLine
 10
184.070342003
 20
135.1540516669
 30
0.0
 11
173.7363674068
 21
135.1540516669
 31
0.0
  0
LINE
  5
16F
330
1F
100
AcDbEntity
  8
0
  6
HIDDEN
 62
     7
370
     0
100
AcDbLine
 10
208.370342003
 20
135.1540516669
 30
0.0
 11
198.5655180458
 21
135.1540516669
 31
0.0
  0
LINE
  5
170
330
1F
100
AcDbEntity
  8
0
  6
HIDDEN
 62
     7
370
     0
100
AcDbLine
 10
173.7363674068
 20
99.1540516669
 30
0.0
 11
208.370342003
 21
99.1540516669
 31
0.0
  0
LINE
  5
171
330
1F
100
AcDbEntity
  8
0
  6
HIDDEN
 62
     7
370
     0
100
AcDbLine
 10
153.670342003
 20
104.1540516669
 30
0.0
 11
155.648334246
 21
104.1540516669
 31
0.0
  0
LINE
  5
172
330
1F
100
AcDbEntity
  8
0
  6
HIDDEN
 62
     7
370
     0
100
AcDbLine
 10
155.648334246
 20
130.1540516669
 30
0.0
 11
153.670342003
 21
130.1540516669
 31
0.0
  0
LINE
  5
173
330
1F
100
AcDbEntity
  8
0
  6
HIDDEN
 62
     7
370
     0
100
AcDbLine
 10
141.820342003
 20
105.1540516669
 30
0.0
 11
142.570342003
 21
105.9040516669
 31
0.0
  0
LINE
  5
174
330
1F
100
AcDbEntity
  8
0
  6
HIDDEN
 62
     7
370
     0
100
AcDbLine
 10
142.570342003
 20
128.4040516669
 30
0.0
 11
141.820342003
 21
129.1540516669
 31
0.0
  0
LINE
  5
175
330
1F
100
AcDbEntity
  8
0
  6
HIDDEN
 62
     7
370
     0
100
AcDbLine
 10
142.570342003
 20
105.9040516669
 30
0.0
 11
153.670342003
 21
105.9040516669
 31
0.0
  0
LINE
  5
176
330
1F
100
AcDbEntity
  8
0
  6
HIDDEN
 62
     7
370
     0
100
AcDbLine
 10
153.670342003
 20
128.4040516669
 30
0.0
 11
142.570342003
 21
128.4040516669
 31
0.0
  0
LINE
  5
177
330
1F
100
AcDbEntity
  8
0
  6
HIDDEN
 62
     7
370
     0
100
AcDbLine
 10
134.320342003
 20
167.1540516669
 30
0.0
 11
134.320342003
 21
161.0540516669
 31
0.0
  0
LINE
  5
178
330
1F
100
AcDbEntity
  8
0
  6
HIDDEN
 62
     7
370
     0
100
AcDbLine
 10
181.570342003
 20
157.1540516669
 30
0.0
 11
184.070342003
 21
154.6540516669
 31
0.0
  0
LINE
  5
179
330
1F
100
AcDbEntity
  8
0
  6
HIDDEN
 62
     7
370
     0
100
AcDbLine
 10
198.570342003
 20
154.6540516669
 30
0.0
 11
201.070342003
 21
157.1540516669
 31
0.0
  0
LINE
  5
17A
330
1F
100
AcDbEntity
  8
0
  6
HIDDEN
 62
     7
370
     0
100
AcDbLine
 10
184.070342003
 20
154.6540516669
 30
0.0
 11
184.070342003
 21
135.1540516669
 31
0.0
  0
LINE
  5
17B
330
1F
100
AcDbEntity
  8
0
  6
HIDDEN
 62
     7
370
     0
100
AcDbLine
 10
198.570342003
 20
135.1521104382
 30
0.0
 11
198.570342003
 21
154.6540516669
 31
0.0
  0
LINE
  5
17C
330
1F
100
AcDbEntity
  8
0
  6
HIDDEN
 62
     7
370
     0
100
AcDbLine
 10
120.8030546191
 20
79.5757720963
 30
0.0
 11
120.3703453326
 21
80.0539968136
 31
0.0
  0
LINE
  5
17D
330
1F
100
AcDbEntity
  8
0
  6
HIDDEN
 62
     7
370
     0
100
AcDbLine
 10
108.370342461
 20
80.7009581703
 30
0.0
 11
107.8897151558
 21
80.2227334595
 31
0.0
  0
LINE
  5
17E
330
1F
100
AcDbEntity
  8
0
  6
HIDDEN
 62
     7
370
     0
100
AcDbLine
 10
107.8895968143
 20
154.0853639581
 30
0.0
 11
108.3703422784
 21
153.6070842862
 31
0.0
  0
LINE
  5
17F
330
1F
100
AcDbEntity
  8
0
  6
HIDDEN
 62
     7
370
     0
100
AcDbLine
 10
120.3703420051
 20
154.2540566736
 30
0.0
 11
120.8031636749
 21
154.7323363465
 31
0.0
  0
LINE
  5
180
330
1F
100
AcDbEntity
  8
0
  6
HIDDEN
 62
     7
370
     0
100
AcDbLine
 10
120.370342003
 20
79.9538679711
 30
0.0
 11
120.370342003
 21
85.6881737398
 31
0.0
  0
LINE
  5
181
330
1F
100
AcDbEntity
  8
0
  6
HIDDEN
 62
     7
370
     0
100
AcDbLine
 10
108.370342003
 20
85.6576424901
 30
0.0
 11
108.370342003
 21
80.7009965848
 31
0.0
  0
LINE
  5
182
330
1F
100
AcDbEntity
  8
0
  6
HIDDEN
 62
     7
370
     0
100
AcDbLine
 10
120.370342003
 20
148.6199295939
 30
0.0
 11
120.370342003
 21
154.3540604996
 31
0.0
  0
LINE
  5
183
330
1F
100
AcDbEntity
  8
0
  6
HIDDEN
 62
     7
370
     0
100
AcDbLine
 10
108.370342003
 20
153.607073787
 30
0.0
 11
108.370342003
 21
148.6455722989
 31
0.0
  0
LINE
  5
184
330
1F
100
AcDbEntity
  8
0
  6
HIDDEN
 62
     7
370
     0
100
AcDbLine
 10
155.648334246
 20
111.1540516669
 30
0.0
 11
168.870342003
 21
111.1540516669
 31
0.0
  0
LINE
  5
185
330
1F
100
AcDbEntity
  8
0
  6
HIDDEN
 62
     7
370
     0
100
AcDbLine
 10
168.870342003
 20
123.1540516669
 30
0.0
 11
155.648334246
 21
123.1540516669
 31
0.0
  0
DIMENSION
  5
186
330
1F
100
AcDbEntity
  8
VERMASSUNG
100
AcDbDimension
  2
_D
 10
72.3997864748
 20
67.1540516669
 30
0.0
 11
72.3997864748
 21
117.1540516669
 31
0.0
 70
   160
  1
HSK A %%c<>
 71
     2
 42
-1.0
  3
SLDDIMSTYLE0
100
AcDbAlignedDimension
 13
129.870342003
 23
167.1540516669
 33
0.0
 14
129.870342003
 24
67.1540516669
 34
0.0
 50
90.0
100
AcDbRotatedDimension
  0
DIMENSION
  5
193
330
1F
100
AcDbEntity
  8
VERMASSUNG
100
AcDbDimension
  2
_D_1
 10
217.8725048263
 20
99.1540516669
 30
0.0
 11
217.8725048263
 21
117.1540516669
 31
0.0
 70
   160
  1
%%c<>
 71
     2
 42
-1.0
  3
SLDDIMSTYLE0
100
AcDbAlignedDimension
 13
208.370342003
 23
135.1540516669
 33
0.0
 14
208.370342003
 24
99.1540516669
 34
0.0
 50
90.0
100
AcDbRotatedDimension
  0
DIMENSION
  5
19E
330
1F
100
AcDbEntity
  8
VERMASSUNG
100
AcDbDimension
  2
_D_2
 10
223.8725048263
 20
77.1540516669
 30
0.0
 11
223.8725048263
 21
117.1540516669
 31
0.0
 70
   160
  1
WH%%c<>
 71
     2
 42
-1.0
  3
SLDDIMSTYLE0
100
AcDbAlignedDimension
 13
208.570342003
 23
157.1540516669
 33
0.0
 14
208.570342003
 24
77.1540516669
 34
0.0
 50
90.0
100
AcDbRotatedDimension
  0
DIMENSION
  5
1AA
330
1F
100
AcDbEntity
  8
VERMASSUNG
100
AcDbDimension
  2
_D_3
 10
158.320342003
 20
172.117999126
 30
0.0
 11
183.845342003
 21
172.117999126
 31
0.0
 70
   160
  1
(<>)
 71
     2
 42
-1.0
  3
SLDDIMSTYLE0
100
AcDbAlignedDimension
 13
209.370342003
 23
156.3540516669
 33
0.0
 14
158.320342003
 24
165.1227914877
 34
0.0
100
AcDbRotatedDimension
  0
DIMENSION
  5
1B6
330
1F
100
AcDbEntity
  8
VERMASSUNG
100
AcDbDimension
  2
_D_4
 10
129.370342003
 20
178.117999126
 30
0.0
 11
169.370342003
 21
178.117999126
 31
0.0
 70
   160
  1
<>
 71
     2
 42
-1.0
  3
SLDDIMSTYLE0
100
AcDbAlignedDimension
 13
209.370342003
 23
156.3540516669
 33
0.0
 14
129.370342003
 24
166.6540516669
 34
0.0
100
AcDbRotatedDimension
  0
DIMENSION
  5
1C0
330
1F
100
AcDbEntity
  8
VERMASSUNG
100
AcDbDimension
  2
_D_5
 10
79.470342003
 20
184.117999126
 30
0.0
 11
144.420342003
 21
184.117999126
 31
0.0
 70
   160
  1
(<>)
 71
     2
 42
-1.0
  3
SLDDIMSTYLE0
100
AcDbAlignedDimension
 13
209.370342003
 23
156.3540516669
 33
0.0
 14
79.470342003
 24
147.6567214094
 34
0.0
100
AcDbRotatedDimension
  0
LINE
  5
1CC
330
1F
100
AcDbEntity
  8
VERMASSUNG
  6
CENTERX2
370
     0
100
AcDbLine
 10
76.2789376749
 20
117.1540516669
 30
0.0
 11
211.2137766519
 21
117.1540516669
 31
0.0
  0
LINE
  5
1CD
330
1F
100
AcDbEntity
  8
0
  6
Continuous
 62
     7
370
    15
100
AcDbLine
 10
269.0766304408
 20
48.4986133449
 30
0.0
 11
268.7230196018
 21
48.7028148925
 31
0.0
  0
LINE
  5
1CE
330
1F
100
AcDbEntity
  8
0
  6
Continuous
 62
     7
370
    15
100
AcDbLine
 10
263.7724678564
 20
48.7028148925
 30
0.0
 11
263.4188570174
 21
48.4986133449
 31
0.0
  0
LINE
  5
1CF
330
1F
100
AcDbEntity
  8
0
  6
Continuous
 62
     7
370
    15
100
AcDbLine
 10
262.2477437291
 20
46.8660624783
 30
0.0
 11
262.2477437291
 21
46.5598596738
 31
0.0
  0
LINE
  5
1D0
330
1F
100
AcDbEntity
  8
0
  6
Continuous
 62
     7
370
    15
100
AcDbLine
 10
270.2477437291
 20
46.5598596738
 30
0.0
 11
270.2477437291
 21
46.8660624783
 31
0.0
  0
LINE
  5
1D1
330
1F
100
AcDbEntity
  8
0
  6
Continuous
 62
     7
370
    15
100
AcDbLine
 10
271.3769420935
 20
30.7304340866
 30
0.0
 11
273.6697615397
 21
31.1975788782
 31
0.0
  0
SPLINE
  5
1D2
330
1F
100
AcDbEntity
  8
0
  6
Continuous
 62
     7
370
    15
100
AcDbSpline
210
0.0
220
0.0
230
1.0
 70
     8
 71
     3
 72
    11
 73
     7
 74
     0
 42
0.000000001
 43
0.00000001
 40
0.0
 40
0.0
 40
0.0
 40
0.0
 40
0.1496312538784781
 40
0.4342112926177338
 40
0.7210797139978413
 40
1.0
 40
1.0
 40
1.0
 40
1.0
 10
269.2912657745376
 20
31.7541291967395
 30
0.0
 10
269.361691903429
 20
31.67500631454007
 30
0.0
 10
269.5660597722221
 20
31.44540154905869
 30
0.0
 10
269.9375219455478
 20
31.13095452330418
 30
0.0
 10
270.3943234921342
 20
30.85212833209744
 30
0.0
 10
270.6983681544073
 20
30.77279492101811
 30
0.0
 10
270.8482548931353
 20
30.73368544884402
 30
0.0
  0
LINE
  5
1D3
330
1F
100
AcDbEntity
  8
0
  6
Continuous
 62
     7
370
    15
100
AcDbLine
 10
272.3488382116
 20
11.093267535
 30
0.0
 11
272.6316349542
 21
11.2565756953
 31
0.0
  0
LINE
  5
1D4
330
1F
100
AcDbEntity
  8
0
  6
Continuous
 62
     7
370
    15
100
AcDbLine
 10
286.4886753406
 20
35.2602745378
 30
0.0
 11
286.4886753406
 21
35.5868377825
 31
0.0
  0
LINE
  5
1D5
330
1F
100
AcDbEntity
  8
0
  6
Continuous
 62
     7
370
    15
100
AcDbLine
 10
282.3457270432
 20
44.7437339119
 30
0.0
 11
265.6403293377
 21
54.3875547328
 31
0.0
  0
LINE
  5
1D6
330
1F
100
AcDbEntity
  8
0
  6
Continuous
 62
     7
370
    15
100
AcDbLine
 10
245.6419546849
 20
19.7456002376
 30
0.0
 11
262.3473523905
 21
10.1017794167
 31
0.0
  0
SPLINE
  5
1D7
330
1F
100
AcDbEntity
  8
0
  6
Continuous
 62
     7
370
    15
100
AcDbSpline
210
0.0
220
0.0
230
1.0
 70
     8
 71
     3
 72
    27
 73
    23
 74
     0
 42
0.000000001
 43
0.00000001
 40
0.0
 40
0.0
 40
0.0
 40
0.0
 40
0.0334379277948184
 40
0.0883149283608593
 40
0.1423609388408462
 40
0.1951928923125501
 40
0.247159400136825
 40
0.298692242870972
 40
0.3500759097291055
 40
0.4014419794534836
 40
0.4528544799053089
 40
0.5043416822087258
 40
0.5559026184829855
 40
0.6075226156943357
 40
0.6591810855320198
 40
0.7108550849694304
 40
0.7625177897345957
 40
0.8141398768911112
 40
0.8656971229689764
 40
0.91716661588898
 40
0.9685299391344251
 40
1.0
 40
1.0
 40
1.0
 40
1.0
 10
267.803060506338
 20
19.67206773849754
 30
0.0
 10
267.6951861115205
 20
19.73169464339412
 30
0.0
 10
267.4102725394612
 20
19.88917885912165
 30
0.0
 10
267.02735162892
 20
20.27586014332438
 30
0.0
 10
266.6534375445143
 20
20.81553774091064
 30
0.0
 10
266.3672683944943
 20
21.46215955043931
 30
0.0
 10
266.1692390499235
 20
22.19700579622236
 30
0.0
 10
266.0624469259774
 20
23.01123105038119
 30
0.0
 10
266.048478130904
 20
23.89352045567335
 30
0.0
 10
266.1284873788518
 20
24.83145295812531
 30
0.0
 10
266.3022282121241
 20
25.81093426812544
 30
0.0
 10
266.5679224509676
 20
26.81691917025053
 30
0.0
 10
266.9221637495957
 20
27.83370213523833
 30
0.0
 10
267.3599306415799
 20
28.8452440477788
 30
0.0
 10
267.8746779521566
 20
29.83554654373521
 30
0.0
 10
268.4584486180564
 20
30.78893164953928
 30
0.0
 10
269.101999516308
 20
31.69037896672248
 30
0.0
 10
269.7949369311611
 20
32.52557816208844
 30
0.0
 10
270.5259658210222
 20
33.28212863742203
 30
0.0
 10
271.2827757816042
 20
33.94635133936056
 30
0.0
 10
271.9543980624248
 20
34.44319639575058
 30
0.0
 10
272.3684877571733
 20
34.69284416597866
 30
0.0
 10
272.5258087218713
 20
34.78769035158786
 30
0.0
  0
SPLINE
  5
1D8
330
1F
100
AcDbEntity
  8
0
  6
Continuous
 62
     7
370
    15
100
AcDbSpline
210
0.0
220
0.0
230
1.0
 70
     8
 71
     3
 72
    14
 73
    10
 74
     0
 42
0.000000001
 43
0.00000001
 40
0.0
 40
0.0
 40
0.0
 40
0.0
 40
0.0804744578351766
 40
0.2339939586751721
 40
0.3874614456736465
 40
0.5412324230836092
 40
0.6961270378240808
 40
0.8534012128235293
 40
1.0
 40
1.0
 40
1.0
 40
1.0
 10
272.5258087218713
 20
34.78769035158786
 30
0.0
 10
272.6594240250766
 20
34.86187341406085
 30
0.0
 10
273.0479345485104
 20
35.07757400927648
 30
0.0
 10
273.6822377630733
 20
35.34877480631103
 30
0.0
 10
274.4092289216455
 20
35.55913220556345
 30
0.0
 10
275.0981036395552
 20
35.65092780452852
 30
0.0
 10
275.7386338406545
 20
35.62425965564051
 30
0.0
 10
276.3152384263112
 20
35.4962661850625
 30
0.0
 10
276.6444899751598
 20
35.32035769235247
 30
0.0
 10
276.8033322669898
 20
35.23549337438
 30
0.0
  0
LINE
  5
1D9
330
1F
100
AcDbEntity
  8
0
  6
Continuous
 62
     7
370
    15
100
AcDbLine
 10
232.0229037192
 20
21.8343647049
 30
0.0
 11
237.7638934152
 21
18.5201618982
 31
0.0
  0
LINE
  5
1DA
330
1F
100
AcDbEntity
  8
0
  6
Continuous
 62
     7
370
    15
100
AcDbLine
 10
259.2072658438
 20
63.8746295444
 30
0.0
 11
257.0208720351
 21
65.1368078239
 31
0.0
  0
SPLINE
  5
1DB
330
1F
100
AcDbEntity
  8
0
  6
Continuous
 62
     7
370
    15
100
AcDbSpline
210
0.0
220
0.0
230
1.0
 70
     8
 71
     3
 72
    12
 73
     8
 74
     0
 42
0.000000001
 43
0.00000001
 40
0.0
 40
0.0
 40
0.0
 40
0.0
 40
0.0581950805747454
 40
0.2998066677935877
 40
0.541470020013397
 40
0.7831881814847198
 40
0.9999999999999999
 40
0.9999999999999999
 40
0.9999999999999999
 40
0.9999999999999999
 10
227.614587667459
 20
40.0638628638381
 30
0.0
 10
227.5798915096073
 20
39.9285970794441
 30
0.0
 10
227.4011454821417
 20
39.23174119944295
 30
0.0
 10
227.1706238397903
 20
37.99200309413302
 30
0.0
 10
226.931414506991
 20
36.35809583070581
 30
0.0
 10
226.7952195112863
 20
34.81565008743887
 30
0.0
 10
226.7787720692842
 20
33.84262305128026
 30
0.0
 10
226.7709950427733
 20
33.38253588057827
 30
0.0
  0
SPLINE
  5
1DC
330
1F
100
AcDbEntity
  8
0
  6
Continuous
 62
     7
370
    15
100
AcDbSpline
210
0.0
220
0.0
230
1.0
 70
     8
 71
     3
 72
    18
 73
    14
 74
     0
 42
0.000000001
 43
0.00000001
 40
0.0
 40
0.0
 40
0.0
 40
0.0
 40
0.0037584875534804
 40
0.1135433871485122
 40
0.2233903078530478
 40
0.3332673285597823
 40
0.4431502248230605
 40
0.5530236403139394
 40
0.6628812084115898
 40
0.7727203184674966
 40
0.8825408243860771
 40
0.9923441339185352
 40
1.0
 40
1.0
 40
1.0
 40
1.0
 10
248.1839402266599
 20
65.62277542269828
 30
0.0
 10
248.1693015117419
 20
65.61866128872413
 30
0.0
 10
247.7270679665635
 20
65.4943738725861
 30
0.0
 10
246.8383428386656
 20
65.13637750720171
 30
0.0
 10
245.5247965095055
 20
64.54225833923316
 30
0.0
 10
244.2035406751383
 20
63.81703551122554
 30
0.0
 10
242.8851148259494
 20
62.98311700291352
 30
0.0
 10
241.5758506248827
 20
62.04056617808755
 30
0.0
 10
240.2836184903015
 20
60.99529229151378
 30
0.0
 10
239.0137023630478
 20
59.85554445054949
 30
0.0
 10
237.7794369288807
 20
58.61753545400424
 30
0.0
 10
236.9406296973544
 20
57.72663407394533
 30
0.0
 10
236.5288750618731
 20
57.23021296378218
 30
0.0
 10
236.5020373258581
 20
57.19785675559702
 30
0.0
  0
SPLINE
  5
1DD
330
1F
100
AcDbEntity
  8
0
  6
Continuous
 62
     7
370
    15
100
AcDbSpline
210
0.0
220
0.0
230
1.0
 70
     8
 71
     3
 72
    11
 73
     7
 74
     0
 42
0.000000001
 43
0.00000001
 40
0.0
 40
0.0
 40
0.0
 40
0.0
 40
0.1860235964282476
 40
0.5394373106867966
 40
0.8929452216946303
 40
1.0
 40
1.0
 40
1.0
 40
1.0
 10
226.7709950427733
 20
33.38253588057827
 30
0.0
 10
226.7736038342425
 20
33.11649164211303
 30
0.0
 10
226.7811688930916
 20
32.3450078557711
 30
0.0
 10
226.8747913152639
 20
31.11744380773995
 30
0.0
 10
227.0108382668456
 20
30.031563254411
 30
0.0
 10
227.1441013139508
 20
29.46157433967746
 30
0.0
 10
227.1750774357582
 20
29.32908415252333
 30
0.0
  0
LINE
  5
1DE
330
1F
100
AcDbEntity
  8
0
  6
Continuous
 62
     7
370
    15
100
AcDbLine
 10
245.2223941873
 20
64.3557521061
 30
0.0
 11
235.9535151718
 21
68.9737632743
 31
0.0
  0
LINE
  5
1DF
330
1F
100
AcDbEntity
  8
0
  6
Continuous
 62
     7
370
    15
100
AcDbLine
 10
218.1647924165
 20
38.1594528655
 30
0.0
 11
226.794514894
 21
32.4452090649
 31
0.0
  0
SPLINE
  5
1E0
330
1F
100
AcDbEntity
  8
0
  6
Continuous
 62
     7
370
    15
100
AcDbSpline
210
0.0
220
0.0
230
1.0
 70
     8
 71
     3
 72
    13
 73
     9
 74
     0
 42
0.000000001
 43
0.00000001
 40
0.0
 40
0.0
 40
0.0
 40
0.0
 40
0.1055671122750724
 40
0.2847798741917497
 40
0.4646903229470515
 40
0.6452382591552617
 40
0.8262948937443205
 40
1.0
 40
1.0
 40
1.0
 40
1.0
 10
244.972212526642
 20
15.13947938840764
 30
0.0
 10
245.19469437439
 20
15.10537674007693
 30
0.0
 10
245.7948656895485
 20
15.01338077947966
 30
0.0
 10
246.824581694698
 20
15.0050583836045
 30
0.0
 10
248.0494886796374
 20
15.10046484678249
 30
0.0
 10
249.311576943168
 20
15.33094577346475
 30
0.0
 10
250.5815313081102
 20
15.67122668989192
 30
0.0
 10
251.4366217600792
 20
15.99847480698065
 30
0.0
 10
251.8553072064405
 20
16.15870817604553
 30
0.0
  0
LINE
  5
1E1
330
1F
100
AcDbEntity
  8
0
  6
Continuous
 62
     7
370
    15
100
AcDbLine
 10
240.0704962563
 20
17.1885884213
 30
0.0
 11
241.727944291
 21
16.2317640375
 31
0.0
  0
SPLINE
  5
1E2
330
1F
100
AcDbEntity
  8
0
  6
Continuous
 62
     7
370
    15
100
AcDbSpline
210
0.0
220
0.0
230
1.0
 70
     8
 71
     3
 72
    15
 73
    11
 74
     0
 42
0.000000001
 43
0.00000001
 40
0.0
 40
0.0
 40
0.0
 40
0.0
 40
0.0815991592217149
 40
0.2360898337414477
 40
0.3904512267428268
 40
0.5444785995535114
 40
0.6980329573986072
 40
0.8510001521543387
 40
0.9946965579195339
 40
1.0
 40
1.0
 40
1.0
 40
1.0
 10
271.7020878279694
 20
51.72587721784527
 30
0.0
 10
271.6530328713156
 20
51.9629273549882
 30
0.0
 10
271.5111027745958
 20
52.64878157211803
 30
0.0
 10
271.2011058510648
 20
53.72340086671817
 30
0.0
 10
270.7419289405672
 20
54.91525640012225
 30
0.0
 10
270.1874841254668
 20
56.01112740178263
 30
0.0
 10
269.5437526544181
 20
57.00637373493169
 30
0.0
 10
268.8256179217926
 20
57.87380462846834
 30
0.0
 10
268.2953957979343
 20
58.39306996456583
 30
0.0
 10
268.0162753582926
 20
58.62360965896876
 30
0.0
 10
268.0063404549587
 20
58.63181539833154
 30
0.0
  0
SPLINE
  5
1E3
330
1F
100
AcDbEntity
  8
0
  6
Continuous
 62
     7
370
    15
100
AcDbSpline
210
0.0
220
0.0
230
1.0
 70
     8
 71
     3
 72
    28
 73
    24
 74
     0
 42
0.000000001
 43
0.00000001
 40
0.0
 40
0.0
 40
0.0
 40
0.0
 40
0.0339092271110815
 40
0.0807287380331147
 40
0.1278074909862235
 40
0.1753425460801654
 40
0.2234171470619191
 40
0.2720015231025009
 40
0.3209882570791589
 40
0.3702418465426889
 40
0.4196388313550946
 40
0.469085323315058
 40
0.5185121210412067
 40
0.5678950952821781
 40
0.617226133441004
 40
0.6665068858028471
 40
0.7157445761617951
 40
0.7649494391376265
 40
0.8141332602334767
 40
0.8633086027168826
 40
0.9124884308171016
 40
0.9616816760513577
 40
1.0
 40
1.0
 40
1.0
 40
1.0
 10
235.8372028783651
 20
69.01510004935493
 30
0.0
 10
235.6278972840191
 20
69.11293157019779
 30
0.0
 10
235.1295970296527
 20
69.34584207540138
 30
0.0
 10
234.2734644981076
 20
69.56943422813403
 30
0.0
 10
233.2893918891534
 20
69.70580173383921
 30
0.0
 10
232.2587664555945
 20
69.71112494198674
 30
0.0
 10
231.1903513995666
 20
69.59001662433806
 30
0.0
 10
230.0907581265295
 20
69.34069050457892
 30
0.0
 10
228.9689765651208
 20
68.96465506346495
 30
0.0
 10
227.8345995210412
 20
68.46463175453998
 30
0.0
 10
226.6974988894537
 20
67.84512010327394
 30
0.0
 10
225.5673150660209
 20
67.11191811347052
 30
0.0
 10
224.4531335931822
 20
66.27175180020117
 30
0.0
 10
223.3634727583093
 20
65.33198357817422
 30
0.0
 10
222.3063159859011
 20
64.30040427711883
 30
0.0
 10
221.2893185622899
 20
63.18529542239397
 30
0.0
 10
220.3198562984415
 20
61.99540245616549
 30
0.0
 10
219.4049069592585
 20
60.73991382534491
 30
0.0
 10
218.5514222815249
 20
59.42839091537934
 30
0.0
 10
217.7647885329644
 20
58.070825638564
 30
0.0
 10
217.0544020479135
 20
56.67720327841185
 30
0.0
 10
216.460106503571
 20
55.36369295146253
 30
0.0
 10
216.1441897308276
 20
54.51387315138499
 30
0.0
 10
216.0058605778731
 20
54.14176611797912
 30
0.0
  0
LINE
  5
1E4
330
1F
100
AcDbEntity
  8
0
  6
Continuous
 62
     7
370
    15
100
AcDbLine
 10
216.3895029314
 20
51.8152747424
 30
0.0
 11
220.1741815199
 21
49.630426299
 31
0.0
  0
LINE
  5
1E5
330
1F
100
AcDbEntity
  8
0
  6
Continuous
 62
     7
370
    15
100
AcDbLine
 10
215.8840632391
 20
53.5849215788
 30
0.0
 11
215.8840632391
 21
52.9324160701
 31
0.0
  0
LINE
  5
1E6
330
1F
100
AcDbEntity
  8
0
  6
Continuous
 62
     7
370
    15
100
AcDbLine
 10
220.2794440131
 20
37.70401483
 30
0.0
 11
220.2652421741
 21
37.8139652673
 31
0.0
  0
LINE
  5
1E7
330
1F
100
AcDbEntity
  8
0
  6
Continuous
 62
     7
370
    15
100
AcDbLine
 10
215.8840632391
 20
41.4266288898
 30
0.0
 11
215.8840632391
 21
40.7741233812
 31
0.0
  0
SPLINE
  5
1E8
330
1F
100
AcDbEntity
  8
0
  6
Continuous
 62
     7
370
    15
100
AcDbSpline
210
0.0
220
0.0
230
1.0
 70
     8
 71
     3
 72
    11
 73
     7
 74
     0
 42
0.000000001
 43
0.00000001
 40
0.0
 40
0.0
 40
0.0
 40
0.0
 40
0.2722007598267434
 40
0.5838422521392684
 40
0.8917409639507622
 40
1.0
 40
1.0
 40
1.0
 40
1.0
 10
216.0157006959803
 20
40.44212137828728
 30
0.0
 10
216.1767023991895
 20
40.18862012886866
 30
0.0
 10
216.5220342676962
 20
39.64488637707867
 30
0.0
 10
217.1692585397334
 20
38.94411198198794
 30
0.0
 10
217.7437352733654
 20
38.42754755362797
 30
0.0
 10
218.1180966109908
 20
38.20350577222499
 30
0.0
 10
218.2154827530338
 20
38.1452236726747
 30
0.0
  0
SPLINE
  5
1E9
330
1F
100
AcDbEntity
  8
0
  6
Continuous
 62
     7
370
    15
100
AcDbSpline
210
0.0
220
0.0
230
1.0
 70
     8
 71
     3
 72
     9
 73
     5
 74
     0
 42
0.000000001
 43
0.00000001
 40
0.0
 40
0.0
 40
0.0
 40
0.0
 40
0.1144360152946433
 40
1.0
 40
1.0
 40
1.0
 40
1.0
 10
215.9290526093066
 20
40.57394560471516
 30
0.0
 10
215.9319431654794
 20
40.5685130786959
 30
0.0
 10
215.9572023128321
 20
40.52104090828459
 30
0.0
 10
215.9882266554811
 20
40.4791863063525
 30
0.0
 10
216.0157006959803
 20
40.44212137828728
 30
0.0
  0
LWPOLYLINE
  5
1EA
330
1F
100
AcDbEntity
  8
0
  6
Continuous
 62
     7
370
    15
100
AcDbPolyline
 90
       26
 70
   128
 43
0.0
 10
263.4188570174
 20
48.4986133449
 10
263.1888980203
 20
48.3540167049
 10
262.7448292174
 20
47.98092895
 10
262.4353754546
 20
47.5649975019
 10
262.2724288667
 20
47.1222063727
 10
262.2622513995
 20
46.6695717773
 10
262.4052341675
 20
46.2244882094
 10
262.695882423
 20
45.8040599808
 10
263.1230267166
 20
45.4244439126
 10
263.6702521326
 20
45.1002284374
 10
264.3165291052
 20
44.8438729742
 10
265.0370215728
 20
44.6652291195
 10
265.8040414138
 20
44.5711620565
 10
266.588112486
 20
44.5652867298
 10
267.3591033778
 20
44.6478289248
 10
268.0873853415
 20
44.8156165912
 10
268.7449709097
 20
45.0622017432
 10
269.3065894379
 20
45.3781082516
 10
269.7506582408
 20
45.7511960065
 10
270.0601120036
 20
46.1671274547
 10
270.2230585915
 20
46.6099185839
 10
270.2332360587
 20
47.0625531792
 10
270.0902532907
 20
47.5076367472
 10
269.7996050352
 20
47.9280649758
 10
269.3724607416
 20
48.3076810439
 10
269.0766304408
 20
48.4986133449
  0
LWPOLYLINE
  5
1EB
330
1F
100
AcDbEntity
  8
0
  6
Continuous
 62
     7
370
    15
100
AcDbPolyline
 90
       30
 70
   128
 43
0.0
 10
267.3071256159
 20
49.2000620732
 10
266.5652546806
 20
49.2865086684
 10
265.8085372862
 20
49.2788681603
 10
265.0723566969
 20
49.1774978105
 10
264.3911358988
 20
48.9871375841
 10
263.7967280195
 20
48.7166885135
 10
263.3169269106
 20
48.3787964968
 10
262.9741675388
 20
47.989260989
 10
262.7844769513
 20
47.5662962377
 10
262.7567248692
 20
47.1296796044
 10
262.892208949
 20
46.6998267978
 10
263.1845941057
 20
46.2968372572
 10
263.6202087343
 20
45.9395543257
 10
264.1786839791
 20
45.6446841562
 10
264.8339061581
 20
45.4260145499
 10
265.5552378106
 20
45.2937702547
 10
266.3089502701
 20
45.2541348668
 10
267.0598007799
 20
45.3089616929
 10
267.7726804045
 20
45.4556870916
 10
268.414255685
 20
45.6874503462
 10
268.9545272743
 20
45.9934144647
 10
269.3682326734
 20
46.3592729048
 10
269.6360274777
 20
46.7679185325
 10
269.7453898997
 20
47.2002435324
 10
269.6912062741
 20
47.6360328682
 10
269.476010167
 20
48.0549095146
 10
269.1098639093
 20
48.4372872654
 10
268.609888093
 20
48.7652865618
 10
267.9994610315
 20
49.0235705214
 10
267.3071256159
 20
49.2000620732
  0
LWPOLYLINE
  5
1EC
330
1F
100
AcDbEntity
  8
0
  6
Continuous
 62
     7
370
    15
100
AcDbPolyline
 90
       25
 70
   128
 43
0.0
 10
266.9590429959
 20
48.5673224825
 10
266.3551118703
 20
48.6295423264
 10
265.7438637832
 20
48.5994068864
 10
265.1669542818
 20
48.4789698429
 10
264.6636987951
 20
48.2764387814
 10
264.2683933529
 20
48.0056158591
 10
264.0079773678
 20
47.6849572106
 10
263.9001977589
 20
47.3363151928
 10
263.9523995283
 20
46.9834491831
 10
264.1610252117
 20
46.650406417
 10
264.5118573137
 20
46.3598832085
 10
264.9809872062
 20
46.1316782342
 10
265.5364444623
 20
45.9813432859
 10
266.1403755879
 20
45.9191234421
 10
266.751623675
 20
45.9492588821
 10
267.3285331764
 20
46.0696959256
 10
267.8317886631
 20
46.272226987
 10
268.2270941053
 20
46.5430499093
 10
268.4875100904
 20
46.8637085579
 10
268.5952896993
 20
47.2123505756
 10
268.5430879299
 20
47.5652165853
 10
268.3344622464
 20
47.8982593515
 10
267.9836301445
 20
48.18878256
 10
267.514500252
 20
48.4169875343
 10
266.9590429959
 20
48.5673224825
  0
SPLINE
  5
1ED
330
1F
100
AcDbEntity
  8
0
  6
Continuous
 62
     7
370
    15
100
AcDbSpline
210
0.0
220
0.0
230
1.0
 70
     8
 71
     3
 72
    11
 73
     7
 74
     0
 42
0.000000001
 43
0.00000001
 40
0.0
 40
0.0
 40
0.0
 40
0.0
 40
0.2164567244934116
 40
0.4403141600939109
 40
0.7519028444798672
 40
1.0
 40
1.0
 40
1.0
 40
1.0
 10
265.7525688824954
 20
48.54336404788449
 30
0.0
 10
265.6357125439008
 20
48.42265559051321
 30
0.0
 10
265.3980045184265
 20
48.17711162255353
 30
0.0
 10
264.9568831817056
 20
47.84444607656198
 30
0.0
 10
264.483704291384
 20
47.6556465175665
 30
0.0
 10
264.1808991396888
 20
47.6480707233578
 30
0.0
 10
264.0466718795798
 20
47.6447125304932
 30
0.0
  0
SPLINE
  5
1EE
330
1F
100
AcDbEntity
  8
0
  6
Continuous
 62
     7
370
    15
100
AcDbSpline
210
0.0
220
0.0
230
1.0
 70
     8
 71
     3
 72
    11
 73
     7
 74
     0
 42
0.000000001
 43
0.00000001
 40
0.0
 40
0.0
 40
0.0
 40
0.0
 40
0.2164567244934248
 40
0.4403141600939218
 40
0.751902844479854
 40
1.0
 40
1.0
 40
1.0
 40
1.0
 10
264.0466718795798
 20
47.6447125304932
 30
0.0
 10
264.0805920514537
 20
47.49636167965046
 30
0.0
 10
264.1495921346059
 20
47.19458782420237
 30
0.0
 10
264.2776374913128
 20
46.75757492568433
 30
0.0
 10
264.414988271594
 20
46.45684479256708
 30
0.0
 10
264.5028842549299
 20
46.37764037085726
 30
0.0
 10
264.5418467261815
 20
46.3425306890863
 30
0.0
  0
LINE
  5
1EF
330
1F
100
AcDbEntity
  8
0
  6
Continuous
 62
     7
370
    15
100
AcDbLine
 10
264.5418467262
 20
46.3425306891
 30
0.0
 11
264.6545852321
 21
46.2805344584
 31
0.0
  0
SPLINE
  5
1F0
330
1F
100
AcDbEntity
  8
0
  6
Continuous
 62
     7
370
    15
100
AcDbSpline
210
0.0
220
0.0
230
1.0
 70
     8
 71
     3
 72
     9
 73
     5
 74
     0
 42
0.000000001
 43
0.00000001
 40
0.0
 40
0.0
 40
0.0
 40
0.0
 40
0.2909129020376346
 40
0.9999999999999999
 40
0.9999999999999999
 40
0.9999999999999999
 40
0.9999999999999999
 10
267.8593990012167
 20
46.32436243681803
 30
0.0
 10
267.9199102936269
 20
46.36108475616754
 30
0.0
 10
268.1279151362666
 20
46.48731607520598
 30
0.0
 10
268.3156764520767
 20
46.6923002493149
 30
0.0
 10
268.4488155786141
 20
46.837651882462
 30
0.0
  0
SPLINE
  5
1F1
330
1F
100
AcDbEntity
  8
0
  6
Continuous
 62
     7
370
    15
100
AcDbSpline
210
0.0
220
0.0
230
1.0
 70
     8
 71
     3
 72
    11
 73
     7
 74
     0
 42
0.000000001
 43
0.00000001
 40
0.0
 40
0.0
 40
0.0
 40
0.0
 40
0.2164567244934106
 40
0.4403141600939167
 40
0.751902844479887
 40
1.0
 40
1.0
 40
1.0
 40
1.0
 10
268.4488155786141
 20
46.837651882462
 30
0.0
 10
268.4148954067402
 20
46.86770359861033
 30
0.0
 10
268.3458953235881
 20
46.92883450681472
 30
0.0
 10
268.2178499668813
 20
47.16527398385446
 30
0.0
 10
268.0804991865998
 20
47.58693794330051
 30
0.0
 10
267.9926032032641
 20
47.97002095084101
 30
0.0
 10
267.9536407320126
 20
48.13983372386889
 30
0.0
  0
SPLINE
  5
1F2
330
1F
100
AcDbEntity
  8
0
  6
Continuous
 62
     7
370
    15
100
AcDbSpline
210
0.0
220
0.0
230
1.0
 70
     8
 71
     3
 72
    11
 73
     7
 74
     0
 42
0.000000001
 43
0.00000001
 40
0.0
 40
0.0
 40
0.0
 40
0.0
 40
0.1323877169515062
 40
0.4819434960836141
 40
0.8154866441481058
 40
1.0
 40
1.0
 40
1.0
 40
1.0
 10
267.9536407320126
 20
48.13983372386889
 30
0.0
 10
267.8623229377902
 20
48.11955002529822
 30
0.0
 10
267.5298901561425
 20
48.04570936373413
 30
0.0
 10
266.9082757813975
 20
48.03183945266883
 30
0.0
 10
266.2392961109425
 20
48.26052218189809
 30
0.0
 10
265.8803962765355
 20
48.46908232181418
 30
0.0
 10
265.7525688824954
 20
48.54336404788449
 30
0.0
  0
LINE
  5
1F3
330
1F
100
AcDbEntity
  8
0
  6
Continuous
 62
     7
370
    15
100
AcDbLine
 10
267.953640732
 20
46.3855925228
 30
0.0
 11
267.953640732
 21
48.1398337239
 31
0.0
  0
LINE
  5
1F4
330
1F
100
AcDbEntity
  8
0
  6
Continuous
 62
     7
370
    15
100
AcDbLine
 10
265.7525688825
 20
45.9481656851
 30
0.0
 11
265.7525688825
 21
48.5433640479
 31
0.0
  0
LWPOLYLINE
  5
1F5
330
1F
100
AcDbEntity
  8
0
  6
Continuous
 62
     7
370
    15
100
AcDbPolyline
 90
        3
 70
   128
 43
0.0
 10
271.3769420935
 20
30.7304340866
 10
271.1973448766
 20
30.709312353
 10
270.9040535428
 20
30.7322438326
  0
LWPOLYLINE
  5
1F6
330
1F
100
AcDbEntity
  8
0
  6
Continuous
 62
     7
370
    15
100
AcDbPolyline
 90
       72
 70
   128
 43
0.0
 10
272.6293824293
 20
43.2636749549
 10
271.4044966722
 20
42.4939361768
 10
270.1891973068
 20
41.6049670846
 10
268.9929956986
 20
40.6037250669
 10
267.825253747
 20
39.4980461999
 10
266.6951106159
 20
38.29658392
 10
265.6114112078
 20
37.0087412984
 10
264.5826369398
 20
35.6445974499
 10
263.6168393654
 20
34.2148286495
 10
262.7215771602
 20
32.7306247767
 10
261.9038569647
 20
31.2036017392
 10
261.1700785482
 20
29.6457105626
 10
260.5259847216
 20
28.0691438577
 10
259.9766163925
 20
26.4862403965
 10
259.5262731129
 20
24.9093885448
 10
259.1784794295
 20
23.3509293064
 10
258.9359572996
 20
21.8230597377
 10
258.8006047875
 20
20.3377374897
 10
258.7734812102
 20
18.9065872229
 10
258.8547988464
 20
17.5408096286
 10
259.0439212755
 20
16.2510937682
 10
259.3393683579
 20
15.0475334169
 10
259.7388278197
 20
13.9395480665
 10
260.239173349
 20
12.9358092044
 10
260.8364890636
 20
12.0441724483
 10
261.5261001582
 20
11.2716160646
 10
262.302609491
 20
10.6241863546
 10
263.1599398235
 20
10.1069503335
 10
264.0913813836
 20
9.7239560745
 10
265.0896443781
 20
9.4782010269
 10
266.1469160457
 20
9.3716085573
 10
267.2549218019
 20
9.4050128961
 10
268.4049899995
 20
9.5781526093
 10
269.5881197955
 20
9.8896726437
 10
270.7950515951
 20
10.3371349327
 10
272.0163395206
 20
10.9170374772
 10
273.242425338
 20
11.6248417536
 10
274.4637132635
 20
12.4550082336
 10
275.6706450631
 20
13.4010397391
 10
276.8537748591
 20
14.4555322908
 10
278.0038430567
 20
15.6102330547
 10
279.1118488129
 20
16.8561049318
 10
280.1691204805
 20
18.1833972855
 10
281.167383475
 20
19.5817222533
 10
282.0988250351
 20
21.0401360467
 10
282.9561553676
 20
22.5472246001
 10
283.7326647004
 20
24.0911929024
 10
284.422275795
 20
25.6599573081
 10
285.0195915096
 20
27.2412401088
 10
285.5199370389
 20
28.8226656226
 10
285.9193965007
 20
30.3918570506
 10
286.2148435831
 20
31.9365333424
 10
286.4039660122
 20
33.4446053116
 10
286.4852836485
 20
34.9042702503
 10
286.4581600712
 20
36.3041043013
 10
286.322807559
 20
37.6331518652
 10
286.0802854291
 20
38.8810113428
 10
285.7324917457
 20
40.0379165418
 10
285.2821484661
 20
41.0948131104
 10
284.732780137
 20
42.0434293999
 10
284.0886863104
 20
42.8763412018
 10
283.3549078939
 20
43.5870298519
 10
282.5371876984
 20
44.1699332478
 10
281.6419254932
 20
44.6204893803
 10
280.6761279188
 20
44.9351720366
 10
279.6473536508
 20
45.1115183983
 10
278.5636542427
 20
45.1481483161
 10
277.4335111117
 20
45.0447751111
 10
276.26576916
 20
44.8022078189
 10
275.0695675518
 20
44.4223448574
 10
273.8542681864
 20
43.9081591694
 10
272.6293824293
 20
43.2636749549
  0
LWPOLYLINE
  5
1F7
330
1F
100
AcDbEntity
  8
0
  6
Continuous
 62
     7
370
    15
100
AcDbPolyline
 90
       37
 70
   128
 43
0.0
 10
272.3465397168
 20
43.753572902
 10
271.0966562912
 20
42.9681251692
 10
269.856554898
 20
42.0610138507
 10
268.635941012
 20
41.0393383224
 10
267.444367592
 20
39.9110945806
 10
266.2911603154
 20
38.6851126623
 10
265.1853445928
 20
37.3709875383
 10
264.1355749316
 20
35.9790040193
 10
263.1500672027
 20
34.5200562638
 10
262.2365343402
 20
33.0055625161
 10
261.4021259775
 20
31.4473757431
 10
260.6533724912
 20
29.8576908691
 10
259.9961338927
 20
28.2489493334
 10
259.435553965
 20
26.63374172
 10
258.9760200062
 20
25.0247092183
 10
258.6211284926
 20
23.4344446892
 10
258.3736569314
 20
21.8753941089
 10
258.2355421231
 20
20.359759162
 10
258.2078650034
 20
18.8994017469
 10
258.2908421833
 20
17.5057511405
 10
258.4838242537
 20
16.1897145482
 10
258.7853008685
 20
14.9615917408
 10
259.1929125642
 20
13.8309944444
 10
259.7034692267
 20
12.8067711158
 10
260.312975058
 20
11.8969376912
 10
261.0166598484
 20
11.1086148507
 10
261.8090163104
 20
10.4479722894
 10
262.6838431803
 20
9.9201804312
 10
263.6342937518
 20
9.5293699628
 10
264.6529294605
 20
9.2785995061
 10
265.7317781009
 20
9.1698316799
 10
266.8623962195
 20
9.20391774
 10
268.0359351966
 20
9.3805909167
 10
269.2432104987
 20
9.6984685028
 10
270.4747735595
 20
10.1550626753
 10
271.7209857283
 20
10.7467999656
 10
272.3488382116
 20
11.093267535
  0
LWPOLYLINE
  5
1F8
330
1F
100
AcDbEntity
  8
0
  6
Continuous
 62
     7
370
    15
100
AcDbPolyline
 90
       19
 70
   128
 43
0.0
 10
286.4886753406
 20
35.5868377825
 10
286.4575373105
 20
36.6519701943
 10
286.3194225023
 20
38.0081411778
 10
286.0719509411
 20
39.2814671754
 10
285.7170594274
 20
40.4619826846
 10
285.2575254686
 20
41.5404485709
 10
284.696945541
 20
42.5084243766
 10
284.0397069425
 20
43.3583343785
 10
283.2909534562
 20
44.0835268785
 10
282.4565450935
 20
44.6783262622
 10
281.543012231
 20
45.1380774177
 10
280.557504502
 20
45.4591821691
 10
279.5077348408
 20
45.6391274361
 10
278.4019191183
 20
45.6765049032
 10
277.2487118417
 20
45.571022041
 10
276.0571384216
 20
45.3235043959
 10
274.8365245357
 20
44.9358891291
 10
273.5964231425
 20
44.4112098556
 10
272.3465397168
 20
43.753572902
  0
SPLINE
  5
1F9
330
1F
100
AcDbEntity
  8
0
  6
Continuous
 62
     7
370
    15
100
AcDbSpline
210
0.0
220
0.0
230
1.0
 70
    11
 71
     3
 72
    98
 73
    94
 74
     0
 42
0.000000001
 43
0.00000001
 40
0.0
 40
0.0
 40
0.0
 40
0.0
 40
0.0312500000000007
 40
0.0312500000000007
 40
0.0468750000000011
 40
0.0468750000000011
 40
0.0625000000000014
 40
0.0625000000000014
 40
0.0937500000000018
 40
0.0937500000000018
 40
0.1093750000000022
 40
0.1093750000000022
 40
0.1250000000000026
 40
0.1250000000000026
 40
0.1562500000000037
 40
0.1562500000000037
 40
0.1718750000000043
 40
0.1718750000000043
 40
0.1875000000000048
 40
0.1875000000000048
 40
0.2187500000000053
 40
0.2187500000000053
 40
0.2343750000000052
 40
0.2343750000000052
 40
0.2500000000000052
 40
0.2500000000000052
 40
0.2812500000000046
 40
0.2812500000000046
 40
0.2968750000000042
 40
0.2968750000000042
 40
0.3125000000000039
 40
0.3125000000000039
 40
0.3437500000000033
 40
0.3437500000000033
 40
0.359375000000003
 40
0.359375000000003
 40
0.3750000000000027
 40
0.3750000000000027
 40
0.3906250000000023
 40
0.3906250000000023
 40
0.4062500000000021
 40
0.4062500000000021
 40
0.4375000000000016
 40
0.4375000000000016
 40
0.4531250000000016
 40
0.4531250000000016
 40
0.4687500000000015
 40
0.4687500000000015
 40
0.5000000000000018
 40
0.5000000000000018
 40
0.5312500000000021
 40
0.5312500000000021
 40
0.5468750000000023
 40
0.5468750000000023
 40
0.5625000000000024
 40
0.5625000000000024
 40
0.5937500000000028
 40
0.5937500000000028
 40
0.6250000000000031
 40
0.6250000000000031
 40
0.6562500000000032
 40
0.6562500000000032
 40
0.6875000000000032
 40
0.6875000000000032
 40
0.7031250000000032
 40
0.7031250000000032
 40
0.7187500000000033
 40
0.7187500000000033
 40
0.750000000000003
 40
0.750000000000003
 40
0.765625000000003
 40
0.765625000000003
 40
0.781250000000003
 40
0.781250000000003
 40
0.8125000000000028
 40
0.8125000000000028
 40
0.8281250000000026
 40
0.8281250000000026
 40
0.8437500000000023
 40
0.8437500000000023
 40
0.8750000000000019
 40
0.8750000000000019
 40
0.8906250000000018
 40
0.8906250000000018
 40
0.9062500000000016
 40
0.9062500000000016
 40
0.9218750000000013
 40
0.9218750000000013
 40
0.9375000000000011
 40
0.9375000000000011
 40
0.9687500000000007
 40
0.9687500000000007
 40
1.0
 40
1.0
 40
1.0
 40
1.0
 10
266.224291436168
 20
49.7195861077373
 30
0.0
 10
266.5277554986682
 20
49.67621743805068
 30
0.0
 10
266.8235278625454
 20
49.61758063899487
 30
0.0
 10
267.2568854768915
 20
49.5106878143193
 30
0.0
 10
267.399605392624
 20
49.47186557034884
 30
0.0
 10
267.6816193499856
 20
49.38814093886895
 30
0.0
 10
267.8215749288286
 20
49.34299801431131
 30
0.0
 10
268.2304920094758
 20
49.20064498896523
 30
0.0
 10
268.4883799352631
 20
49.09686060444965
 30
0.0
 10
268.854085263536
 20
48.92942050670145
 30
0.0
 10
268.9724414896513
 20
48.87162477653691
 30
0.0
 10
269.2019371919976
 20
48.75207937282385
 30
0.0
 10
269.3132000763805
 20
48.69021222666881
 30
0.0
 10
269.6298013707741
 20
48.50220099971142
 30
0.0
 10
269.8203308675652
 20
48.37260191198516
 30
0.0
 10
270.0755610328601
 20
48.17139159020867
 30
0.0
 10
270.1555122607535
 20
48.10317183810044
 30
0.0
 10
270.3047984237389
 20
47.96417370039715
 30
0.0
 10
270.3738711940479
 20
47.89356565973851
 30
0.0
 10
270.5609125109124
 20
47.68171717163762
 30
0.0
 10
270.6603721876534
 20
47.53915065772551
 30
0.0
 10
270.770757235202
 20
47.32138397762387
 30
0.0
 10
270.8010423843498
 20
47.24813420964065
 30
0.0
 10
270.8478351519392
 20
47.09986154757358
 30
0.0
 10
270.8640797878259
 20
47.02547947024524
 30
0.0
 10
270.8907844099029
 20
46.80367569078198
 30
0.0
 10
270.8798180869283
 20
46.65650521798069
 30
0.0
 10
270.8173586063077
 20
46.43449194263579
 30
0.0
 10
270.7886829338567
 20
46.36001744331782
 30
0.0
 10
270.7151395679388
 20
46.21136720022176
 30
0.0
 10
270.6707982711991
 20
46.13814555915153
 30
0.0
 10
270.5152297978044
 20
45.92129351292817
 30
0.0
 10
270.3817213650249
 20
45.78042193790885
 30
0.0
 10
270.1329931161119
 20
45.57371067979517
 30
0.0
 10
270.0418215033678
 20
45.50563816015956
 30
0.0
 10
269.8481829580916
 20
45.37495340353989
 30
0.0
 10
269.7451294726685
 20
45.31182019315047
 30
0.0
 10
269.5266863070188
 20
45.18989865649299
 30
0.0
 10
269.4112969732876
 20
45.13111012638189
 30
0.0
 10
269.1679217259107
 20
45.01802762253354
 30
0.0
 10
269.0398004512953
 20
44.96376505317404
 30
0.0
 10
268.6468545665152
 20
44.8121727761416
 30
0.0
 10
268.3703110798804
 20
44.72429818004674
 30
0.0
 10
267.9343323887072
 20
44.61294653438505
 30
0.0
 10
267.7863038139421
 20
44.57953748934218
 30
0.0
 10
267.4896190549995
 20
44.52108061579278
 30
0.0
 10
267.3402767051326
 20
44.49585403970033
 30
0.0
 10
266.8893055207459
 20
44.43221880201491
 30
0.0
 10
266.5819558906113
 20
44.40581788198121
 30
0.0
 10
265.9798401670929
 20
44.38824060523231
 30
0.0
 10
265.6835627519977
 20
44.39654405795766
 30
0.0
 10
265.2457980692093
 20
44.4356986447274
 30
0.0
 10
265.1006543523726
 20
44.45332458643321
 30
0.0
 10
264.817792518146
 20
44.49709661600489
 30
0.0
 10
264.6794333341392
 20
44.52327592962071
 30
0.0
 10
264.2732561613918
 20
44.61467299329942
 30
0.0
 10
264.0142600151768
 20
44.69266154948476
 30
0.0
 10
263.5201660515499
 20
44.88480680614147
 30
0.0
 10
263.2914125067414
 20
44.9965743337001
 30
0.0
 10
262.8709931348518
 20
45.24954052682202
 30
0.0
 10
262.6783869688684
 20
45.39139749813508
 30
0.0
 10
262.3338608267528
 20
45.70370486685115
 30
0.0
 10
262.1857475251001
 20
45.87047785305576
 30
0.0
 10
261.999108986748
 20
46.13515750237845
 30
0.0
 10
261.9428568293641
 20
46.22581511976373
 30
0.0
 10
261.8426503025157
 20
46.41188720629042
 30
0.0
 10
261.7985192750446
 20
46.50779060325399
 30
0.0
 10
261.6870710666254
 20
46.79886856246399
 30
0.0
 10
261.640706369453
 20
46.99594422837503
 30
0.0
 10
261.613734814683
 20
47.2942098114157
 30
0.0
 10
261.6118900698177
 20
47.39407675637309
 30
0.0
 10
261.6232886468388
 20
47.59440492737264
 30
0.0
 10
261.6367084684179
 20
47.69547072891658
 30
0.0
 10
261.6999521722699
 20
47.99249157992208
 30
0.0
 10
261.7721787063154
 20
48.18344023177495
 30
0.0
 10
261.9275685373487
 20
48.45698509727732
 30
0.0
 10
261.9872642620483
 20
48.54600994457117
 30
0.0
 10
262.1236078011788
 20
48.71918798022166
 30
0.0
 10
262.19965339759
 20
48.80241645067783
 30
0.0
 10
262.4474144038429
 20
49.0376481332966
 30
0.0
 10
262.6399154670231
 20
49.17710717354596
 30
0.0
 10
262.9713232500205
 20
49.35878721213001
 30
0.0
 10
263.0888805250693
 20
49.41454205580476
 30
0.0
 10
263.3317787779469
 20
49.51380538923551
 30
0.0
 10
263.4578841799243
 20
49.55776202820912
 30
0.0
 10
263.7191749152237
 20
49.63475566081485
 30
0.0
 10
263.8543606006667
 20
49.66779191326253
 30
0.0
 10
264.1338762152573
 20
49.72309602835502
 30
0.0
 10
264.2771544007882
 20
49.74509768098551
 30
0.0
 10
264.7107807198619
 20
49.7944645244887
 30
0.0
 10
265.0074208253963
 20
49.8058621717154
 30
0.0
 10
265.6154670388383
 20
49.79008787882857
 30
0.0
 10
265.9208273736679
 20
49.76295477742391
 30
0.0
 10
266.224291436168
 20
49.7195861077373
 30
0.0
  0
SPLINE
  5
1FA
330
1F
100
AcDbEntity
  8
0
  6
Continuous
 62
     7
370
    15
100
AcDbSpline
210
0.0
220
0.0
230
1.0
 70
     8
 71
     3
 72
    14
 73
    10
 74
     0
 42
0.000000001
 43
0.00000001
 40
0.0
 40
0.0
 40
0.0
 40
0.0
 40
0.25
 40
0.25
 40
0.5
 40
0.5
 40
0.75
 40
0.75
 40
1.0
 40
1.0
 40
1.0
 40
1.0
 10
237.6985388233848
 20
32.4241197750743
 30
0.0
 10
237.6518751172439
 20
32.39718139091877
 30
0.0
 10
237.5956706999371
 20
32.37512918523976
 30
0.0
 10
237.4744377274664
 20
32.34501819314871
 30
0.0
 10
237.408143880685
 20
32.33662859203187
 30
0.0
 10
237.2759152853068
 20
32.33514343420448
 30
0.0
 10
237.2093930097568
 20
32.34197000245483
 30
0.0
 10
237.0858437857223
 20
32.37034645396174
 30
0.0
 10
237.0296013087525
 20
32.39161548938504
 30
0.0
 10
236.9823640879451
 20
32.41888495651022
 30
0.0
  0
SPLINE
  5
1FB
330
1F
100
AcDbEntity
  8
0
  6
Continuous
 62
     7
370
    15
100
AcDbSpline
210
0.0
220
0.0
230
1.0
 70
     8
 71
     3
 72
    14
 73
    10
 74
     0
 42
0.000000001
 43
0.00000001
 40
0.0
 40
0.0
 40
0.0
 40
0.0
 40
0.25
 40
0.25
 40
0.5
 40
0.5
 40
0.75
 40
0.75
 40
1.0
 40
1.0
 40
1.0
 40
1.0
 10
265.3108272440249
 20
60.18410955166453
 30
0.0
 10
265.3641234921806
 20
60.15334228250397
 30
0.0
 10
265.4173672253683
 20
60.10378039172845
 30
0.0
 10
265.5081703026253
 20
59.98721724020435
 30
0.0
 10
265.546498389339
 20
59.92032612951333
 30
0.0
 10
265.6068548055677
 20
59.78297617835594
 30
0.0
 10
265.6283243145804
 20
59.71473612463267
 30
0.0
 10
265.6574238691823
 20
59.57894717496301
 30
0.0
 10
265.6643806346181
 20
59.51412116722335
 30
0.0
 10
265.6643806346181
 20
59.45241387517331
 30
0.0
  0
LINE
  5
1FC
330
1F
100
AcDbEntity
  8
0
  6
Continuous
 62
     7
370
    15
100
AcDbLine
 10
236.9823640879
 20
32.4188849565
 30
0.0
 11
235.3249160533
 21
33.3757093403
 31
0.0
  0
LWPOLYLINE
  5
1FD
330
1F
100
AcDbEntity
  8
0
  6
Continuous
 62
     7
370
    15
100
AcDbPolyline
 90
       26
 70
   128
 43
0.0
 10
235.3249160533
 20
33.3757093403
 10
235.6964815223
 20
35.1880138728
 10
236.1788735741
 20
37.0243044249
 10
236.7689237224
 20
38.872519726
 10
237.4627563527
 20
40.7205201803
 10
238.2558141779
 20
42.5561676033
 10
239.1428881721
 20
44.3674049485
 10
240.1181517848
 20
46.1423355017
 10
241.1751992115
 20
47.8693010219
 10
242.3070874686
 20
49.5369583159
 10
243.5063819969
 20
51.1343537434
 10
244.7652054942
 20
52.6509951638
 10
246.075289655
 20
54.0769208516
 10
247.4280294797
 20
55.4027649274
 10
248.8145397943
 20
56.619818876
 10
250.2257136105
 20
57.7200887461
 10
251.6522819436
 20
58.6963476571
 10
253.0848746931
 20
59.5421832669
 10
254.5140821887
 20
60.2520398904
 10
255.9305169952
 20
60.8212549905
 10
257.3248755719
 20
61.246089803
 10
258.6879993814
 20
61.5237538937
 10
260.0109350445
 20
61.6524234873
 10
261.2849931493
 20
61.6312534457
 10
262.5018053253
 20
61.4603828197
 10
263.6533792094
 20
61.1409339355
  0
LINE
  5
1FE
330
1F
100
AcDbEntity
  8
0
  6
Continuous
 62
     7
370
    15
100
AcDbLine
 10
263.6533792094
 20
61.1409339355
 30
0.0
 11
265.310827244
 21
60.1841095517
 31
0.0
  0
LINE
  5
1FF
330
1F
100
AcDbEntity
  8
0
  6
Continuous
 62
     7
370
    15
100
AcDbLine
 10
271.0459987426
 20
51.2669282097
 30
0.0
 11
271.5399924457
 21
51.5521047044
 31
0.0
  0
LINE
  5
200
330
1F
100
AcDbEntity
  8
0
  6
Continuous
 62
     7
370
    15
100
AcDbLine
 10
237.6985388234
 20
23.4421708443
 30
0.0
 11
239.0594879925
 21
24.2278300764
 31
0.0
  0
LINE
  5
201
330
1F
100
AcDbEntity
  8
0
  6
Continuous
 62
     7
370
    15
100
AcDbLine
 10
239.0594879925
 20
24.2278300764
 30
0.0
 11
239.0594879925
 21
33.2097790072
 31
0.0
  0
LINE
  5
202
330
1F
100
AcDbEntity
  8
0
  6
Continuous
 62
     7
370
    15
100
AcDbLine
 10
239.0594879925
 20
33.2097790072
 30
0.0
 11
237.6985388234
 21
32.4241197751
 31
0.0
  0
LINE
  5
203
330
1F
100
AcDbEntity
  8
0
  6
Continuous
 62
     7
370
    15
100
AcDbLine
 10
265.6643806346
 20
59.4524138752
 30
0.0
 11
265.6643806346
 21
56.8767593718
 31
0.0
  0
LINE
  5
204
330
1F
100
AcDbEntity
  8
0
  6
Continuous
 62
     7
370
    15
100
AcDbLine
 10
267.8948420382
 20
58.1643773323
 30
0.0
 11
265.6643806346
 21
56.8767593718
 31
0.0
  0
LWPOLYLINE
  5
205
330
1F
100
AcDbEntity
  8
0
  6
Continuous
 62
     7
370
    15
100
AcDbPolyline
 90
       24
 70
   128
 43
0.0
 10
234.3461304623
 20
34.9219116695
 10
234.7209762172
 20
36.6781916213
 10
235.2040884076
 20
38.4562144529
 10
235.7922020452
 20
40.2439638593
 10
236.4813425172
 20
42.029357801
 10
237.2668524466
 20
43.8003301573
 10
238.143423169
 20
45.544912272
 10
239.105130609
 20
47.2513138405
 10
240.145475317
 20
48.9080025915
 10
241.2574263937
 20
50.5037822248
 10
242.4334690069
 20
52.0278680788
 10
243.6656551785
 20
53.4699600154
 10
244.9456574986
 20
54.8203120314
 10
246.2648254042
 20
56.0697981236
 10
247.6142436423
 20
57.2099739653
 10
248.9847925203
 20
58.2331339746
 10
250.3672095402
 20
59.1323633904
 10
251.752151996
 20
59.9015850046
 10
253.1302601142
 20
60.535600233
 10
254.4922203093
 20
61.0301242485
 10
255.8288281276
 20
61.3818149391
 10
257.1310504527
 20
61.5882954947
 10
258.3900865536
 20
61.6481704703
 10
259.2774327482
 20
61.5989912953
  0
SPLINE
  5
206
330
1F
100
AcDbEntity
  8
0
  6
Continuous
 62
     7
370
    15
100
AcDbSpline
210
0.0
220
0.0
230
1.0
 70
     8
 71
     3
 72
     8
 73
     4
 74
     0
 42
0.000000001
 43
0.00000001
 40
0.0
 40
0.0
 40
0.0
 40
0.0
 40
1.0
 40
1.0
 40
1.0
 40
1.0
 10
234.3461304622816
 20
34.92191166951392
 30
0.0
 10
233.9035941084363
 20
34.85022513908466
 30
0.0
 10
233.4609849183846
 20
34.77868897348289
 30
0.0
 10
233.0183132121682
 20
34.70728281717818
 30
0.0
  0
LWPOLYLINE
  5
207
330
1F
100
AcDbEntity
  8
0
  6
Continuous
 62
     7
370
    15
100
AcDbPolyline
 90
       26
 70
   128
 43
0.0
 10
233.0183132122
 20
34.7072828172
 10
233.3898786812
 20
36.5195873496
 10
233.8722707329
 20
38.3558779017
 10
234.4623208813
 20
40.2040932028
 10
235.1561535116
 20
42.0520936572
 10
235.9492113368
 20
43.8877410801
 10
236.836285331
 20
45.6989784253
 10
237.8115489437
 20
47.4739089785
 10
238.8685963704
 20
49.2008744987
 10
240.0004846275
 20
50.8685317927
 10
241.1997791558
 20
52.4659272202
 10
242.458602653
 20
53.9825686407
 10
243.7686868139
 20
55.4084943285
 10
245.1214266386
 20
56.7343384043
 10
246.5079369531
 20
57.9513923528
 10
247.9191107694
 20
59.0516622229
 10
249.3456791025
 20
60.0279211339
 10
250.778271852
 20
60.8737567437
 10
252.2074793476
 20
61.5836133673
 10
253.623914154
 20
62.1528284674
 10
255.0182727308
 20
62.5776632798
 10
256.3813965403
 20
62.8553273706
 10
257.7043322034
 20
62.9839969641
 10
258.9783903082
 20
62.9628269225
 10
260.1952024842
 20
62.7919562965
 10
261.3467763682
 20
62.4725074123
  0
LINE
  5
208
330
1F
100
AcDbEntity
  8
0
  6
Continuous
 62
     7
370
    15
100
AcDbLine
 10
261.3467763682
 20
62.4725074123
 30
0.0
 11
261.6255517945
 21
61.5840522961
 31
0.0
  0
LINE
  5
209
330
1F
100
AcDbEntity
  8
0
  6
Continuous
 62
     7
370
    15
100
AcDbLine
 10
257.1790992604
 20
64.8784561946
 30
0.0
 11
261.3467763682
 21
62.4725074123
 31
0.0
  0
LINE
  5
20A
330
1F
100
AcDbEntity
  8
0
  6
Continuous
 62
     7
370
    15
100
AcDbLine
 10
233.0183132122
 20
34.7072828172
 30
0.0
 11
232.3861700102
 21
35.0722113199
 31
0.0
  0
SPLINE
  5
20B
330
1F
100
AcDbEntity
  8
0
  6
Continuous
 62
     7
370
    15
100
AcDbSpline
210
0.0
220
0.0
230
1.0
 70
     8
 71
     3
 72
    30
 73
    26
 74
     0
 42
0.000000001
 43
0.00000001
 40
0.0
 40
0.0
 40
0.0
 40
0.0
 40
0.1250000000000002
 40
0.1250000000000002
 40
0.1875000000000002
 40
0.1875000000000002
 40
0.2500000000000002
 40
0.2500000000000002
 40
0.3749999999999998
 40
0.3749999999999998
 40
0.4374999999999996
 40
0.4374999999999996
 40
0.4999999999999994
 40
0.4999999999999994
 40
0.6249999999999993
 40
0.6249999999999993
 40
0.6874999999999994
 40
0.6874999999999994
 40
0.7499999999999996
 40
0.7499999999999996
 40
0.8124999999999997
 40
0.8124999999999997
 40
0.8749999999999998
 40
0.8749999999999998
 40
1.0
 40
1.0
 40
1.0
 40
1.0
 10
232.3861700102326
 20
35.07221131993403
 30
0.0
 10
232.151854376626
 20
35.20747885596466
 30
0.0
 10
231.9163539000972
 20
35.31074138489402
 30
0.0
 10
231.5618034527076
 20
35.41998412265779
 30
0.0
 10
231.4434091893085
 20
35.4487370846545
 30
0.0
 10
231.2063545442583
 20
35.4906902493042
 30
0.0
 10
231.0875346330224
 20
35.5037953842063
 30
0.0
 10
230.7388907490462
 20
35.51904677322062
 30
0.0
 10
230.5141259064043
 20
35.4979680117786
 30
0.0
 10
230.1899152588006
 20
35.42096495990291
 30
0.0
 10
230.0834991828893
 20
35.3874563548697
 30
0.0
 10
229.8781899529169
 20
35.30591800874607
 30
0.0
 10
229.7795952224091
 20
35.25811240364474
 30
0.0
 10
229.4960972286102
 20
35.09444519409183
 30
0.0
 10
229.32335425494
 20
34.95853309761525
 30
0.0
 10
229.091229456444
 20
34.71416196071017
 30
0.0
 10
229.0189154706179
 20
34.62634487550252
 30
0.0
 10
228.8865971565483
 20
34.44096430656225
 30
0.0
 10
228.8262432178275
 20
34.34304330652192
 30
0.0
 10
228.7172800836844
 20
34.13695545581768
 30
0.0
 10
228.6686702585863
 20
34.02878864897342
 30
0.0
 10
228.5836344426916
 20
33.80209893546668
 30
0.0
 10
228.5470835635166
 20
33.6829585077439
 30
0.0
 10
228.4580892864238
 20
33.31497417928978
 30
0.0
 10
228.4257527294436
 20
33.0557490539931
 30
0.0
 10
228.4210668231468
 20
32.78254247256295
 30
0.0
  0
ARC
  5
20C
330
1F
100
AcDbEntity
  8
0
  6
Continuous
 62
     7
370
    15
100
AcDbCircle
 10
251.9891318991
 20
32.3742720666
 30
0.0
 40
23.57160105185111
100
AcDbArc
 50
179.0075624958
 51
180.9924375042
  0
SPLINE
  5
20D
330
1F
100
AcDbEntity
  8
0
  6
Continuous
 62
     7
370
    15
100
AcDbSpline
210
0.0
220
0.0
230
1.0
 70
     8
 71
     3
 72
    30
 73
    26
 74
     0
 42
0.000000001
 43
0.00000001
 40
0.0
 40
0.0
 40
0.0
 40
0.0
 40
0.1249999999999996
 40
0.1249999999999996
 40
0.1874999999999995
 40
0.1874999999999995
 40
0.2499999999999994
 40
0.2499999999999994
 40
0.3749999999999993
 40
0.3749999999999993
 40
0.4374999999999994
 40
0.4374999999999994
 40
0.4999999999999996
 40
0.4999999999999996
 40
0.6249999999999997
 40
0.6249999999999997
 40
0.6874999999999998
 40
0.6874999999999998
 40
0.7499999999999998
 40
0.7499999999999998
 40
0.8124999999999998
 40
0.8124999999999998
 40
0.8749999999999998
 40
0.8749999999999998
 40
1.0
 40
1.0
 40
1.0
 40
1.0
 10
228.4210668231468
 20
31.9660016606772
 30
0.0
 10
228.4257530698055
 20
31.69818586004547
 30
0.0
 10
228.4580625901243
 20
31.42446969506007
 30
0.0
 10
228.5457206454928
 20
31.00522154786465
 30
0.0
 10
228.5815148168063
 20
30.86401112917235
 30
0.0
 10
228.6663754316588
 20
30.57851051418021
 30
0.0
 10
228.7156280795725
 20
30.43392544934918
 30
0.0
 10
228.8798324157418
 20
30.00483318019756
 30
0.0
 10
229.0118848738022
 20
29.72186036471372
 30
0.0
 10
229.2419354413211
 20
29.30085645397658
 30
0.0
 10
229.324398479815
 20
29.16045138410279
 30
0.0
 10
229.4981502150341
 20
28.88378709000856
 30
0.0
 10
229.5889518068678
 20
28.74820254096219
 30
0.0
 10
229.8723462790991
 20
28.34910547420255
 30
0.0
 10
230.0758261537662
 20
28.09317853119537
 30
0.0
 10
230.4017341410149
 20
27.72355255115968
 30
0.0
 10
230.5134747564761
 20
27.60323370397416
 30
0.0
 10
230.7387788606134
 20
27.37239610584336
 30
0.0
 10
230.8529015080925
 20
27.26123351176381
 30
0.0
 10
231.0838112946569
 20
27.04715970258882
 30
0.0
 10
231.2005987106656
 20
26.94424857585436
 30
0.0
 10
231.4366816731354
 20
26.74669040893914
 30
0.0
 10
231.5565590475252
 20
26.65161863633375
 30
0.0
 10
231.915042302689
 20
26.38281355773118
 30
0.0
 10
232.1518509692522
 20
26.22553189225641
 30
0.0
 10
232.3861700102326
 20
26.09026238919078
 30
0.0
  0
LINE
  5
20E
330
1F
100
AcDbEntity
  8
0
  6
Continuous
 62
     7
370
    15
100
AcDbLine
 10
232.3861700102
 20
26.0902623892
 30
0.0
 11
233.0183132122
 21
25.7253338864
 31
0.0
  0
LWPOLYLINE
  5
20F
330
1F
100
AcDbEntity
  8
0
  6
Continuous
 62
     7
370
    15
100
AcDbPolyline
 90
       10
 70
   128
 43
0.0
 10
238.9704996992
 20
17.9467118963
 10
238.7486442177
 20
18.034924031
 10
237.7141115333
 20
18.5491301699
 10
236.7597549657
 20
19.2014844185
 10
235.8916720552
 20
19.9878187788
 10
235.1154091251
 20
20.9031092321
 10
234.4359258462
 20
21.9415078382
 10
233.8575635483
 20
23.0963800986
 10
233.3840174826
 20
24.3603473458
 10
233.0183132122
 20
25.7253338864
  0
LINE
  5
210
330
1F
100
AcDbEntity
  8
0
  6
Continuous
 62
     7
370
    15
100
AcDbLine
 10
263.2987300112
 20
61.3451642356
 30
0.0
 11
263.6511408484
 21
61.1417217897
 31
0.0
  0
SPLINE
  5
211
330
1F
100
AcDbEntity
  8
0
  6
Continuous
 62
     7
370
    15
100
AcDbSpline
210
0.0
220
0.0
230
1.0
 70
     8
 71
     3
 72
    22
 73
    18
 74
     0
 42
0.000000001
 43
0.00000001
 40
0.0
 40
0.0
 40
0.0
 40
0.0
 40
0.2500000000000002
 40
0.2500000000000002
 40
0.3750000000000003
 40
0.3750000000000003
 40
0.5000000000000004
 40
0.5000000000000004
 40
0.6250000000000004
 40
0.6250000000000004
 40
0.7500000000000004
 40
0.7500000000000004
 40
0.8750000000000004
 40
0.8750000000000004
 40
0.9375000000000002
 40
0.9375000000000002
 40
1.0
 40
1.0
 40
1.0
 40
1.0
 10
257.1790992603796
 20
64.87845619464508
 30
0.0
 10
257.6111313559187
 20
64.71018575653864
 30
0.0
 10
258.0615060042841
 20
64.49950975165844
 30
0.0
 10
258.7864794459683
 20
64.11441551540179
 30
0.0
 10
259.0384467696877
 20
63.97328997712601
 30
0.0
 10
259.55123888282
 20
63.67427300790883
 30
0.0
 10
259.812760194879
 20
63.51610717055302
 30
0.0
 10
260.3503348764776
 20
63.18350722921554
 30
0.0
 10
260.6282974211404
 20
63.0078094178495
 30
0.0
 10
261.1809033398858
 20
62.65616650175613
 30
0.0
 10
261.4578992650571
 20
62.47878767263342
 30
0.0
 10
262.0160868449539
 20
62.12447725332085
 30
0.0
 10
262.2862629341136
 20
61.9546194136084
 30
0.0
 10
262.6777302492101
 20
61.71405042863368
 30
0.0
 10
262.805977479318
 20
61.63618254608529
 30
0.0
 10
263.0578391184994
 20
61.48557625058685
 30
0.0
 10
263.1807313523459
 20
61.41328341137592
 30
0.0
 10
263.2987300112052
 20
61.34516423557382
 30
0.0
  0
LWPOLYLINE
  5
212
330
1F
100
AcDbEntity
  8
0
  6
Continuous
 62
     7
370
    15
100
AcDbPolyline
 90
        9
 70
   128
 43
0.0
 10
248.2995150683
 20
65.6083413518
 10
248.6486578726
 20
65.7174129797
 10
249.9845881828
 20
66.0535475247
 10
251.286839129
 20
66.250543084
 10
252.5473819011
 20
66.3071851143
 10
253.7584448339
 20
66.2231243987
 10
254.9125613216
 20
65.9988791996
 10
256.0026158522
 20
65.635832063
 10
257.0208720351
 20
65.1368078239
  0
ARC
  5
213
330
1F
100
AcDbEntity
  8
0
  6
Continuous
 62
     7
370
    15
100
AcDbCircle
 10
237.8447165791
 20
30.8485767671
 30
0.0
 40
10.73077462624381
100
AcDbArc
 50
188.688786799
 51
237.1436759596
  0
SPLINE
  5
214
330
1F
100
AcDbEntity
  8
0
  6
Continuous
 62
     7
370
    15
100
AcDbSpline
210
0.0
220
0.0
230
1.0
 70
     8
 71
     3
 72
    27
 73
    23
 74
     0
 42
0.000000001
 43
0.00000001
 40
0.0
 40
0.0
 40
0.0
 40
0.0
 40
0.0360150457580604
 40
0.0788113930803901
 40
0.1219149514627446
 40
0.1642859039017241
 40
0.2069759300506562
 40
0.2507116572038092
 40
0.2948266222106735
 40
0.3750381201018587
 40
0.4158117555736685
 40
0.4572401419171656
 40
0.5339072225991588
 40
0.6121434994997068
 40
0.6912391927767592
 40
0.7718426725890802
 40
0.8137524321699671
 40
0.8559425940502732
 40
0.8990267299086108
 40
0.9424283670168198
 40
0.9846364969660408
 40
1.0
 40
1.0
 40
1.0
 40
1.0
 10
274.187916564579
 20
35.47739907366618
 30
0.0
 10
274.2427012795437
 20
35.40946783590034
 30
0.0
 10
274.3625861669568
 20
35.26081453366751
 30
0.0
 10
274.5301157199469
 20
35.02235657340545
 30
0.0
 10
274.6901535558491
 20
34.76627303138651
 30
0.0
 10
274.8301698328331
 20
34.50545320970853
 30
0.0
 10
274.9495593452346
 20
34.23998244152142
 30
0.0
 10
275.0466897147612
 20
33.96893396330091
 30
0.0
 10
275.1384853218183
 20
33.62003812536767
 30
0.0
 10
275.1800705441991
 20
33.28024096739729
 30
0.0
 10
275.1724039238057
 20
32.95751381741974
 30
0.0
 10
275.1330024684349
 20
32.65151270266733
 30
0.0
 10
275.0283997977353
 20
32.29472850636892
 30
0.0
 10
274.8230984323849
 20
31.91589649604411
 30
0.0
 10
274.5416950840341
 20
31.58918385049402
 30
0.0
 10
274.2513670688938
 20
31.37051196943387
 30
0.0
 10
273.9894902114856
 20
31.23291884541742
 30
0.0
 10
273.7760724239457
 20
31.14957270287794
 30
0.0
 10
273.5509586358556
 20
31.0893216040772
 30
0.0
 10
273.3187775062181
 20
31.05699715853009
 30
0.0
 10
273.1332942176452
 20
31.04729284522912
 30
0.0
 10
273.0266993473089
 20
31.05792647632112
 30
0.0
 10
272.9982535567528
 20
31.06076415548842
 30
0.0
  0
LINE
  5
215
330
1F
100
AcDbEntity
  8
0
  6
Continuous
 62
     7
370
    15
100
AcDbLine
 10
234.667231012
 20
35.1072790712
 30
0.0
 11
234.3461304623
 21
34.9219116695
 31
0.0
  0
LINE
  5
216
330
1F
100
AcDbEntity
  8
0
  6
Continuous
 62
     7
370
    15
100
AcDbLine
 10
235.6278807955
 20
34.8888651526
 30
0.0
 11
235.241226117
 21
35.1120761474
 31
0.0
  0
LWPOLYLINE
  5
217
330
1F
100
AcDbEntity
  8
0
  6
Continuous
 62
     7
370
    15
100
AcDbPolyline
 90
       19
 70
   128
 43
0.0
 10
235.241226117
 20
35.1120761474
 10
235.6189229667
 20
36.8288289748
 10
236.1031468941
 20
38.5656587955
 10
236.6905494026
 20
40.310555115
 10
237.3770684968
 20
42.0514516576
 10
238.1579567723
 20
43.7763098069
 10
239.0278142444
 20
45.4732018546
 10
239.9806256905
 20
47.1303934835
 10
241.0098022459
 20
48.7364249117
 10
242.1082269673
 20
50.2801901396
 10
243.268304048
 20
51.7510137494
 10
244.4820113436
 20
53.1387247284
 10
245.7409558472
 20
54.4337268023
 10
247.0364317286
 20
55.6270647961
 10
248.359480536
 20
56.7104865604
 10
249.7009531462
 20
57.6765000365
 10
251.0515730319
 20
58.5184250652
 10
252.4020004106
 20
59.2304395817
 10
253.0721760196
 20
59.5352749163
  0
SPLINE
  5
218
330
1F
100
AcDbEntity
  8
0
  6
Continuous
 62
     7
370
    15
100
AcDbSpline
210
0.0
220
0.0
230
1.0
 70
     8
 71
     3
 72
    12
 73
     8
 74
     0
 42
0.000000001
 43
0.00000001
 40
0.0
 40
0.0
 40
0.0
 40
0.0
 40
0.25
 40
0.25
 40
0.5
 40
0.5
 40
1.0
 40
1.0
 40
1.0
 40
1.0
 10
235.2412261169738
 20
35.1120761473798
 30
0.0
 10
235.2038340793909
 20
35.13366211120623
 30
0.0
 10
235.157685768536
 20
35.15110224622869
 30
0.0
 10
235.0589859311534
 20
35.17355837454301
 30
0.0
 10
235.005474364858
 20
35.17894468014363
 30
0.0
 10
234.8468769451567
 20
35.17686352133351
 30
0.0
 10
234.7421628505389
 20
35.15053630084272
 30
0.0
 10
234.6672310120121
 20
35.10727907121723
 30
0.0
  0
ARC
  5
219
330
1F
100
AcDbEntity
  8
0
  6
Continuous
 62
     7
370
    15
100
AcDbCircle
 10
267.7243492905
 20
30.1258743045
 30
0.0
 40
41.27775410186032
100
AcDbArc
 50
139.2705578257
 51
165.8533225179
  0
LINE
  5
21A
330
1F
100
AcDbEntity
  8
0
  6
Continuous
 62
     7
370
    15
100
AcDbLine
 10
234.1097405242
 20
27.0852584678
 30
0.0
 11
239.0594879925
 21
24.2278300764
 31
0.0
  0
ARC
  5
21B
330
1F
100
AcDbEntity
  8
0
  6
Continuous
 62
     7
370
    15
100
AcDbCircle
 10
238.2502871251
 20
33.5582870681
 30
0.0
 40
7.684024037860311
100
AcDbArc
 50
182.6054784857
 51
237.39452166
  0
LINE
  5
21C
330
1F
100
AcDbEntity
  8
0
  6
Continuous
 62
     7
370
    15
100
AcDbLine
 10
230.5742066182
 20
34.0255236187
 30
0.0
 11
230.5742066182
 21
33.2089828068
 31
0.0
  0
ARC
  5
21D
330
1F
100
AcDbEntity
  8
0
  6
Continuous
 62
     7
370
    15
100
AcDbCircle
 10
233.7445120259
 20
34.1444927042
 30
0.0
 40
3.172536843152344
100
AcDbArc
 50
153.7564338217
 51
182.1490767215
  0
SPLINE
  5
21E
330
1F
100
AcDbEntity
  8
0
  6
Continuous
 62
     7
370
    15
100
AcDbSpline
210
0.0
220
0.0
230
1.0
 70
     8
 71
     3
 72
     8
 73
     4
 74
     0
 42
0.000000001
 43
0.00000001
 40
0.0
 40
0.0
 40
0.0
 40
0.0
 40
1.0
 40
1.0
 40
1.0
 40
1.0
 10
218.8184360393844
 20
38.51885336938971
 30
0.0
 10
219.2852982650513
 20
38.13861178212776
 30
0.0
 10
219.7523330494347
 20
37.77170513358491
 30
0.0
 10
220.2194581616101
 20
37.41177880799294
 30
0.0
  0
SPLINE
  5
21F
330
1F
100
AcDbEntity
  8
0
  6
Continuous
 62
     7
370
    15
100
AcDbSpline
210
0.0
220
0.0
230
1.0
 70
     8
 71
     3
 72
    14
 73
    10
 74
     0
 42
0.000000001
 43
0.00000001
 40
0.0
 40
0.0
 40
0.0
 40
0.0
 40
0.1250000000000007
 40
0.1250000000000007
 40
0.2500000000000014
 40
0.2500000000000014
 40
0.5000000000000029
 40
0.5000000000000029
 40
1.0
 40
1.0
 40
1.0
 40
1.0
 10
220.2194581616101
 20
37.4117788079929
 30
0.0
 10
220.2458821002834
 20
37.39141879970728
 30
0.0
 10
220.2699460427881
 20
37.37590649639262
 30
0.0
 10
220.3062153002133
 20
37.35892312783324
 30
0.0
 10
220.3182336752014
 20
37.35704888642731
 30
0.0
 10
220.3437479218718
 20
37.36118972776256
 30
0.0
 10
220.3479415843199
 20
37.37613211582558
 30
0.0
 10
220.3490483940554
 20
37.43048345217073
 30
0.0
 10
220.3334204089668
 20
37.48190441284674
 30
0.0
 10
220.3137676763332
 20
37.5382532404327
 30
0.0
  0
SPLINE
  5
220
330
1F
100
AcDbEntity
  8
0
  6
Continuous
 62
     7
370
    15
100
AcDbSpline
210
0.0
220
0.0
230
1.0
 70
     8
 71
     3
 72
    14
 73
    10
 74
     0
 42
0.000000001
 43
0.00000001
 40
0.0
 40
0.0
 40
0.0
 40
0.0
 40
0.25
 40
0.25
 40
0.5
 40
0.5
 40
0.75
 40
0.75
 40
1.0
 40
1.0
 40
1.0
 40
1.0
 10
220.3137676763327
 20
37.53825324043306
 30
0.0
 10
220.2891018283948
 20
37.60897580297087
 30
0.0
 10
220.2782389576703
 20
37.67204210072108
 30
0.0
 10
220.2562885904754
 20
37.80360884167968
 30
0.0
 10
220.2460169956564
 20
37.87156218067135
 30
0.0
 10
220.2167129812979
 20
38.02016718451478
 30
0.0
 10
220.1979203100682
 20
38.10063099094565
 30
0.0
 10
220.145001005552
 20
38.28020186475999
 30
0.0
 10
220.1109218283731
 20
38.37903291068785
 30
0.0
 10
220.0668355760953
 20
38.48663296566712
 30
0.0
  0
LWPOLYLINE
  5
221
330
1F
100
AcDbEntity
  8
0
  6
Continuous
 62
     7
370
    15
100
AcDbPolyline
 90
        9
 70
   128
 43
0.0
 10
220.0668355761
 20
38.4866329657
 10
219.6987556522
 20
39.5577785051
 10
219.4336262633
 20
40.7217812247
 10
219.2736588557
 20
41.9689321688
 10
219.2201877188
 20
43.2888288418
 10
219.2736588557
 20
44.6704619753
 10
219.4336262633
 20
46.1023073569
 10
219.6987556522
 20
47.5724219531
 10
220.0668355761
 20
49.0685435268
  0
SPLINE
  5
222
330
1F
100
AcDbEntity
  8
0
  6
Continuous
 62
     7
370
    15
100
AcDbSpline
210
0.0
220
0.0
230
1.0
 70
     8
 71
     3
 72
    14
 73
    10
 74
     0
 42
0.000000001
 43
0.00000001
 40
0.0
 40
0.0
 40
0.0
 40
0.0
 40
0.25
 40
0.25
 40
0.5
 40
0.5
 40
0.75
 40
0.75
 40
1.0
 40
1.0
 40
1.0
 40
1.0
 10
220.3137676763327
 20
51.12204363974158
 30
0.0
 10
220.2891018283948
 20
50.95037110824871
 30
0.0
 10
220.2782389576703
 20
50.77539137607312
 30
0.0
 10
220.2562885904754
 20
50.42658487243192
 30
0.0
 10
220.2460169956564
 20
50.25237078049613
 30
0.0
 10
220.2167129812979
 20
49.90631986854504
 30
0.0
 10
220.1979203100682
 20
49.73443701462979
 30
0.0
 10
220.145001005552
 20
49.39440534573558
 30
0.0
 10
220.1109218283731
 20
49.22704448523846
 30
0.0
 10
220.0668355760953
 20
49.0685435268355
 30
0.0
  0
SPLINE
  5
223
330
1F
100
AcDbEntity
  8
0
  6
Continuous
 62
     7
370
    15
100
AcDbSpline
210
0.0
220
0.0
230
1.0
 70
     8
 71
     3
 72
    14
 73
    10
 74
     0
 42
0.000000001
 43
0.00000001
 40
0.0
 40
0.0
 40
0.0
 40
0.0
 40
0.1249999999999983
 40
0.1249999999999983
 40
0.2499999999999966
 40
0.2499999999999966
 40
0.4999999999999978
 40
0.4999999999999978
 40
1.0
 40
1.0
 40
1.0
 40
1.0
 10
220.2194581616102
 20
51.87078738338423
 30
0.0
 10
220.2458821002834
 20
51.86648108411203
 30
0.0
 10
220.2699460427881
 20
51.85059757757163
 30
0.0
 10
220.3062153002133
 20
51.80145300468023
 30
0.0
 10
220.3182336752014
 20
51.77044164932787
 30
0.0
 10
220.3437479218718
 20
51.67358310746044
 30
0.0
 10
220.3479415843199
 20
51.60330248658429
 30
0.0
 10
220.3490483940554
 20
51.39690108450641
 30
0.0
 10
220.3334204089668
 20
51.25882524848424
 30
0.0
 10
220.3137676763332
 20
51.12204363974148
 30
0.0
  0
SPLINE
  5
224
330
1F
100
AcDbEntity
  8
0
  6
Continuous
 62
     7
370
    15
100
AcDbSpline
210
0.0
220
0.0
230
1.0
 70
     8
 71
     3
 72
     8
 73
     4
 74
     0
 42
0.000000001
 43
0.00000001
 40
0.0
 40
0.0
 40
0.0
 40
0.0
 40
1.0
 40
1.0
 40
1.0
 40
1.0
 10
218.8184360393844
 20
52.04000027726921
 30
0.0
 10
219.2852982650513
 20
52.0079105232039
 30
0.0
 10
219.7523330494348
 20
51.94691458589824
 30
0.0
 10
220.2194581616102
 20
51.87078738338424
 30
0.0
  0
SPLINE
  5
225
330
1F
100
AcDbEntity
  8
0
  6
Continuous
 62
     7
370
    15
100
AcDbSpline
210
0.0
220
0.0
230
1.0
 70
     8
 71
     3
 72
    14
 73
    10
 74
     0
 42
0.000000001
 43
0.00000001
 40
0.0
 40
0.0
 40
0.0
 40
0.0
 40
0.4999999999999997
 40
0.4999999999999997
 40
0.7499999999999997
 40
0.7499999999999997
 40
0.8749999999999999
 40
0.8749999999999999
 40
1.0
 40
1.0
 40
1.0
 40
1.0
 10
215.9738986621665
 20
52.96458215343141
 30
0.0
 10
216.4389331948815
 20
52.76823690417057
 30
0.0
 10
216.9057891161631
 20
52.58058439270252
 30
0.0
 10
217.6128155017676
 20
52.33056643575811
 30
0.0
 10
217.8496004846587
 20
52.25240517795925
 30
0.0
 10
218.2083811227902
 20
52.15183791256427
 30
0.0
 10
218.3285799467913
 20
52.12111641631265
 30
0.0
 10
218.5711820449011
 20
52.06984170992808
 30
0.0
 10
218.6934338024899
 20
52.04859230039508
 30
0.0
 10
218.8184360393844
 20
52.04000027726914
 30
0.0
  0
LINE
  5
226
330
1F
100
AcDbEntity
  8
0
  6
Continuous
 62
     7
370
    15
100
AcDbLine
 10
235.8547654656
 20
69.0218328368
 30
0.0
 11
235.9535151718
 21
68.9737632743
 31
0.0
  0
SPLINE
  5
227
330
1F
100
AcDbEntity
  8
0
  6
Continuous
 62
     7
370
    15
100
AcDbSpline
210
0.0
220
0.0
230
1.0
 70
     8
 71
     3
 72
    14
 73
    10
 74
     0
 42
0.000000001
 43
0.00000001
 40
0.0
 40
0.0
 40
0.0
 40
0.0
 40
0.4999999999999999
 40
0.4999999999999999
 40
0.7499999999999998
 40
0.7499999999999998
 40
0.8749999999999999
 40
0.8749999999999999
 40
1.0
 40
1.0
 40
1.0
 40
1.0
 10
215.9738986621665
 20
40.64163817755701
 30
0.0
 10
216.4389331948815
 20
40.30679286131864
 30
0.0
 10
216.9057891161631
 20
39.96800468624711
 30
0.0
 10
217.6128155017676
 20
39.4457089392144
 30
0.0
 10
217.8496004846587
 20
39.26928723112404
 30
0.0
 10
218.2083811227902
 20
38.9972050796051
 30
0.0
 10
218.3285799467913
 20
38.90525971824817
 30
0.0
 10
218.5711820449011
 20
38.71683369741787
 30
0.0
 10
218.6934338024899
 20
38.62066295336324
 30
0.0
 10
218.8184360393844
 20
38.51885336938975
 30
0.0
  0
SPLINE
  5
228
330
1F
100
AcDbEntity
  8
0
  6
Continuous
 62
     7
370
    15
100
AcDbSpline
210
0.0
220
0.0
230
1.0
 70
     8
 71
     3
 72
    17
 73
    13
 74
     0
 42
0.000000001
 43
0.00000001
 40
0.0
 40
0.0
 40
0.0
 40
0.0
 40
0.122976653281985
 40
0.2463861378402291
 40
0.3697715497246647
 40
0.49269531331855
 40
0.6149288229207805
 40
0.6765126921380735
 40
0.7373381706086056
 40
0.8594135034621091
 40
0.9820576194892355
 40
0.9999999999999999
 40
0.9999999999999999
 40
0.9999999999999999
 40
0.9999999999999999
 10
224.4321421963335
 20
38.19786213433417
 30
0.0
 10
224.2283734648642
 20
38.57175173806142
 30
0.0
 10
223.8201188131119
 20
39.32084689541411
 30
0.0
 10
223.6268511390962
 20
40.46916537896077
 30
0.0
 10
223.8322138874842
 20
41.42150410151436
 30
0.0
 10
224.3915017194239
 20
42.05496999369397
 30
0.0
 10
225.0674018962143
 20
42.19627876213875
 30
0.0
 10
225.6422818826122
 20
42.07008189555651
 30
0.0
 10
226.2225574233746
 20
41.78202323019443
 30
0.0
 10
226.8858529209764
 20
41.12325408458215
 30
0.0
 10
227.3935312100961
 20
40.35530351633811
 30
0.0
 10
227.5385435212621
 20
39.89437034544788
 30
0.0
 10
227.5570507472743
 20
39.83554365479259
 30
0.0
  0
SPLINE
  5
229
330
1F
100
AcDbEntity
  8
0
  6
Continuous
 62
     7
370
    15
100
AcDbSpline
210
0.0
220
0.0
230
1.0
 70
     8
 71
     3
 72
    12
 73
     8
 74
     0
 42
0.000000001
 43
0.00000001
 40
0.0
 40
0.0
 40
0.0
 40
0.0
 40
0.0330294840991926
 40
0.3544707452247793
 40
0.514870892010182
 40
0.6774255693399932
 40
1.0
 40
1.0
 40
1.0
 40
1.0
 10
226.9306305461254
 20
36.16503025743215
 30
0.0
 10
226.9094622801894
 20
36.16148819587166
 30
0.0
 10
226.6822855256601
 20
36.12347497116578
 30
0.0
 10
226.2102313409597
 20
36.38687361679426
 30
0.0
 10
225.6416259938273
 20
36.79608390299789
 30
0.0
 10
225.0581541536945
 20
37.33236369055391
 30
0.0
 10
224.682154039874
 20
37.8522060187175
 30
0.0
 10
224.4321421963335
 20
38.19786213433417
 30
0.0
  0
ARC
  5
22A
330
1F
100
AcDbEntity
  8
0
  6
Continuous
 62
     7
370
    15
100
AcDbCircle
 10
246.037031656
 20
23.6965891638
 30
0.0
 40
8.61398258544355
100
AcDbArc
 50
217.7398201759
 51
262.0821314952
  0
SPLINE
  5
22B
330
1F
100
AcDbEntity
  8
0
  6
Continuous
 62
     7
370
    15
100
AcDbSpline
210
0.0
220
0.0
230
1.0
 70
     8
 71
     3
 72
    14
 73
    10
 74
     0
 42
0.000000001
 43
0.00000001
 40
0.0
 40
0.0
 40
0.0
 40
0.0
 40
0.25
 40
0.25
 40
0.5
 40
0.5
 40
0.75
 40
0.75
 40
1.0
 40
1.0
 40
1.0
 40
1.0
 10
236.9823640879451
 20
23.43693602576697
 30
0.0
 10
237.0290044438945
 20
23.4100111213901
 30
0.0
 10
237.0857398576937
 20
23.38845568405508
 30
0.0
 10
237.208735323013
 20
23.36013804814039
 30
0.0
 10
237.2749910747567
 20
23.3532088443571
 30
0.0
 10
237.4084196322534
 20
23.35465815692082
 30
0.0
 10
237.4739564604162
 20
23.3629529492546
 30
0.0
 10
237.5960782878206
 20
23.39327826967721
 30
0.0
 10
237.6517770548813
 20
23.41517584997861
 30
0.0
 10
237.6985388233847
 20
23.44217084433101
 30
0.0
  0
LINE
  5
22C
330
1F
100
AcDbEntity
  8
0
  6
Continuous
 62
     7
370
    15
100
AcDbLine
 10
235.3249160533
 20
24.3937604096
 30
0.0
 11
236.9823640879
 21
23.4369360258
 31
0.0
  0
SPLINE
  5
22D
330
1F
100
AcDbEntity
  8
0
  6
Continuous
 62
     7
370
    15
100
AcDbSpline
210
0.0
220
0.0
230
1.0
 70
     8
 71
     3
 72
     8
 73
     4
 74
     0
 42
0.000000001
 43
0.00000001
 40
0.0
 40
0.0
 40
0.0
 40
0.0
 40
1.0
 40
1.0
 40
1.0
 40
1.0
 10
235.6967044143479
 20
25.16029299197998
 30
0.0
 10
235.572526246463
 20
24.9048221927539
 30
0.0
 10
235.4486085463212
 20
24.64930934608095
 30
0.0
 10
235.324916053289
 20
24.39376040959428
 30
0.0
  0
LINE
  5
22E
330
1F
100
AcDbEntity
  8
0
  6
Continuous
 62
     7
370
    15
100
AcDbLine
 10
236.0178049641
 20
25.3456603937
 30
0.0
 11
235.6967044143
 21
25.160292992
 31
0.0
  0
SPLINE
  5
22F
330
1F
100
AcDbEntity
  8
0
  6
Continuous
 62
     7
370
    15
100
AcDbSpline
210
0.0
220
0.0
230
1.0
 70
     8
 71
     3
 72
    12
 73
     8
 74
     0
 42
0.000000001
 43
0.00000001
 40
0.0
 40
0.0
 40
0.0
 40
0.0
 40
0.2499999999999986
 40
0.2499999999999986
 40
0.4999999999999971
 40
0.4999999999999971
 40
1.0
 40
1.0
 40
1.0
 40
1.0
 10
236.0261146440909
 20
25.67702071457494
 30
0.0
 10
236.0635066816737
 20
25.6554347507485
 30
0.0
 10
236.0937171549912
 20
25.62879389795844
 30
0.0
 10
236.1326165250007
 20
25.57181569465263
 30
0.0
 10
236.1419468909306
 20
25.54092412497583
 30
0.0
 10
236.1383418275167
 20
25.44936778341375
 30
0.0
 10
236.0927368026051
 20
25.38891762330873
 30
0.0
 10
236.0178049640784
 20
25.34566039368326
 30
0.0
  0
LINE
  5
230
330
1F
100
AcDbEntity
  8
0
  6
Continuous
 62
     7
370
    15
100
AcDbLine
 10
235.241226117
 20
26.1301272166
 30
0.0
 11
236.0261146441
 21
25.6770207146
 31
0.0
  0
SPLINE
  5
231
330
1F
100
AcDbEntity
  8
0
  6
Continuous
 62
     7
370
    15
100
AcDbSpline
210
0.0
220
0.0
230
1.0
 70
     8
 71
     3
 72
    14
 73
    10
 74
     0
 42
0.000000001
 43
0.00000001
 40
0.0
 40
0.0
 40
0.0
 40
0.0
 40
0.25
 40
0.25
 40
0.5
 40
0.5
 40
0.75
 40
0.75
 40
1.0
 40
1.0
 40
1.0
 40
1.0
 10
234.6672310120121
 20
26.12533014047398
 30
0.0
 10
234.7050768097906
 20
26.14717805448559
 30
0.0
 10
234.7493957269385
 20
26.16455069927451
 30
0.0
 10
234.8470972634906
 20
26.18891217396638
 30
0.0
 10
234.8998503951024
 20
26.19562613849793
 30
0.0
 10
235.0058037523309
 20
26.19698358808394
 30
0.0
 10
235.0591680386262
 20
26.19160588694485
 30
0.0
 10
235.1583458133979
 20
26.16896494342901
 30
0.0
 10
235.2033527067992
 20
26.15199107094514
 30
0.0
 10
235.2412261169738
 20
26.13012721663655
 30
0.0
  0
LINE
  5
232
330
1F
100
AcDbEntity
  8
0
  6
Continuous
 62
     7
370
    15
100
AcDbLine
 10
234.3461304623
 20
25.9399627388
 30
0.0
 11
234.667231012
 21
26.1253301405
 31
0.0
  0
SPLINE
  5
233
330
1F
100
AcDbEntity
  8
0
  6
Continuous
 62
     7
370
    15
100
AcDbSpline
210
0.0
220
0.0
230
1.0
 70
     8
 71
     3
 72
     8
 73
     4
 74
     0
 42
0.000000001
 43
0.00000001
 40
0.0
 40
0.0
 40
0.0
 40
0.0
 40
1.0
 40
1.0
 40
1.0
 40
1.0
 10
233.0183132121682
 20
25.72533388643494
 30
0.0
 10
233.4609849183846
 20
25.79674004273964
 30
0.0
 10
233.9035941084363
 20
25.86827620834141
 30
0.0
 10
234.3461304622816
 20
25.93996273877067
 30
0.0
  0
LWPOLYLINE
  5
234
330
1F
100
AcDbEntity
  8
0
  6
Continuous
 62
     7
370
    15
100
AcDbPolyline
 90
        9
 70
   128
 43
0.0
 10
240.0704962563
 20
17.1885884213
 10
240.0207143744
 20
17.2175566931
 10
239.0663578069
 20
17.8699109416
 10
238.1982748963
 20
18.656245302
 10
237.4220119662
 20
19.5715357553
 10
236.7425286874
 20
20.6099343614
 10
236.1641663894
 20
21.7648066218
 10
235.6906203237
 20
23.028773869
 10
235.3249160533
 20
24.3937604096
  0
ARC
  5
235
330
1F
100
AcDbEntity
  8
0
  6
Continuous
 62
     7
370
    15
100
AcDbCircle
 10
245.9184057416
 20
28.4284125897
 30
0.0
 40
11.83680437452059
100
AcDbArc
 50
192.1358235799
 51
214.938999544
  0
SPLINE
  5
236
330
1F
100
AcDbEntity
  8
0
  6
Continuous
 62
     7
370
    15
100
AcDbSpline
210
0.0
220
0.0
230
1.0
 70
     8
 71
     3
 72
    16
 73
    12
 74
     0
 42
0.000000001
 43
0.00000001
 40
0.0
 40
0.0
 40
0.0
 40
0.0
 40
0.0472188728044627
 40
0.171932969904021
 40
0.291315573932894
 40
0.4141466647890351
 40
0.533887595485553
 40
0.6569961197024665
 40
0.7786112504424268
 40
0.903713879812706
 40
1.0
 40
1.0
 40
1.0
 40
1.0
 10
225.8332180321425
 20
41.86659020894425
 30
0.0
 10
225.8213593729479
 20
41.81973651061138
 30
0.0
 10
225.7781797209717
 20
41.64913321097913
 30
0.0
 10
225.7777212143271
 20
41.31986784684036
 30
0.0
 10
225.8318486169327
 20
40.891007081034
 30
0.0
 10
225.9564933120386
 20
40.45337090460432
 30
0.0
 10
226.1437106957512
 20
40.01160877382858
 30
0.0
 10
226.3853704361464
 20
39.58075004388918
 30
0.0
 10
226.6775202737675
 20
39.16558441829519
 30
0.0
 10
226.9804567329598
 20
38.80360838412739
 30
0.0
 10
227.1926878916652
 20
38.60160009467603
 30
0.0
 10
227.2849912038047
 20
38.51374290014463
 30
0.0
  0
SPLINE
  5
237
330
1F
100
AcDbEntity
  8
0
  6
Continuous
 62
     7
370
    15
100
AcDbSpline
210
0.0
220
0.0
230
1.0
 70
     8
 71
     3
 72
    14
 73
    10
 74
     0
 42
0.000000001
 43
0.00000001
 40
0.0
 40
0.0
 40
0.0
 40
0.0
 40
0.1894695067021837
 40
0.3645174730539842
 40
0.6705164168159031
 40
0.7469883968056791
 40
0.8285588880678859
 40
0.9152484849540767
 40
1.0
 40
1.0
 40
1.0
 40
1.0
 10
224.7224556475344
 20
38.38027253961619
 30
0.0
 10
224.8489524961999
 20
38.19724502273539
 30
0.0
 10
225.0923178399294
 20
37.84512119492805
 30
0.0
 10
225.6097632599281
 20
37.28106612042546
 30
0.0
 10
226.0684951900899
 20
36.91099108330702
 30
0.0
 10
226.4261883620384
 20
36.69617672097715
 30
0.0
 10
226.6094314376429
 20
36.60366803814065
 30
0.0
 10
226.7925346014712
 20
36.52950836200618
 30
0.0
 10
226.9083329969295
 20
36.50183829741906
 30
0.0
 10
226.9655776644678
 20
36.48815966532932
 30
0.0
  0
SPLINE
  5
238
330
1F
100
AcDbEntity
  8
0
  6
Continuous
 62
     7
370
    15
100
AcDbSpline
210
0.0
220
0.0
230
1.0
 70
     8
 71
     3
 72
    23
 73
    19
 74
     0
 42
0.000000001
 43
0.00000001
 40
0.0
 40
0.0
 40
0.0
 40
0.0
 40
0.029070338895686
 40
0.1765108463051842
 40
0.2607716268992424
 40
0.3055510916261739
 40
0.3520669147623208
 40
0.4217142531844141
 40
0.4757184916117549
 40
0.5140609135306097
 40
0.5998263024208395
 40
0.675956061599133
 40
0.712857291099748
 40
0.7521767279810351
 40
0.7939198165532733
 40
0.83809102897619
 40
0.9019084356233772
 40
1.0
 40
1.0
 40
1.0
 40
1.0
 10
226.385085080235
 20
41.59655339446444
 30
0.0
 10
226.339491096698
 20
41.63391119690159
 30
0.0
 10
226.0626510966754
 20
41.8607423098083
 30
0.0
 10
225.6102595498011
 20
42.00815180416681
 30
0.0
 10
225.1713140931365
 20
42.0079997140129
 30
0.0
 10
224.9119653692469
 20
41.94085833178986
 30
0.0
 10
224.6900532143603
 20
41.8392707731213
 30
0.0
 10
224.4829829265134
 20
41.6803089269148
 30
0.0
 10
224.3212101944895
 20
41.4821146922845
 30
0.0
 10
224.1749350589929
 20
41.22912216518368
 30
0.0
 10
224.06290515456
 20
40.89580885312169
 30
0.0
 10
224.0255898707506
 20
40.51641320758184
 30
0.0
 10
224.0390343577183
 20
40.20877201301871
 30
0.0
 10
224.0707471773244
 20
39.96318503162375
 30
0.0
 10
224.1275753019416
 20
39.69635427265296
 30
0.0
 10
224.2242671020787
 20
39.37306308247956
 30
0.0
 10
224.4012314773919
 20
38.92456719283083
 30
0.0
 10
224.6012659687657
 20
38.58562101681617
 30
0.0
 10
224.7224556475344
 20
38.3802725396162
 30
0.0
  0
SPLINE
  5
239
330
1F
100
AcDbEntity
  8
0
  6
Continuous
 62
     7
370
    15
100
AcDbSpline
210
0.0
220
0.0
230
1.0
 70
     8
 71
     3
 72
     9
 73
     5
 74
     0
 42
0.000000001
 43
0.00000001
 40
0.0
 40
0.0
 40
0.0
 40
0.0
 40
0.1883699358114548
 40
1.0
 40
1.0
 40
1.0
 40
1.0
 10
265.6643806346181
 20
59.43942771044541
 30
0.0
 10
265.7067566767441
 20
59.4489602100373
 30
0.0
 10
265.931718488954
 20
59.49956541702439
 30
0.0
 10
266.1574858155096
 20
59.54896417795527
 30
0.0
 10
266.3407253652535
 20
59.58905769746044
 30
0.0
  0
LINE
  5
23A
330
1F
100
AcDbEntity
  8
0
  6
Continuous
 62
     7
370
    15
100
AcDbLine
 10
266.3407253653
 20
59.5890576975
 30
0.0
 11
267.9981733999
 21
58.6322333136
 31
0.0
  0
SPLINE
  5
23B
330
1F
100
AcDbEntity
  8
0
  6
Continuous
 62
     7
370
    15
100
AcDbSpline
210
0.0
220
0.0
230
1.0
 70
     8
 71
     3
 72
    12
 73
     8
 74
     0
 42
0.000000001
 43
0.00000001
 40
0.0
 40
0.0
 40
0.0
 40
0.0
 40
0.2499999999999992
 40
0.2499999999999992
 40
0.4999999999999983
 40
0.4999999999999983
 40
1.0
 40
1.0
 40
1.0
 40
1.0
 10
267.9981733999096
 20
58.63223331363312
 30
0.0
 10
268.0520027571142
 20
58.60115828716946
 30
0.0
 10
268.0885479739974
 20
58.56105072033575
 30
0.0
 10
268.1236007857434
 20
58.47693178644726
 30
0.0
 10
268.1232005012308
 20
58.432298609551
 30
0.0
 10
268.0807630296816
 20
58.30353041020002
 30
0.0
 10
268.0013410154759
 20
58.22585788326479
 30
0.0
 10
267.8948420381917
 20
58.16437733232895
 30
0.0
  0
LINE
  5
23C
330
1F
100
AcDbEntity
  8
0
  6
Continuous
 62
     7
370
    15
100
AcDbLine
 10
218.6111247832
 20
44.3407820817
 30
0.0
 11
219.2338983145
 21
43.9812625747
 31
0.0
  0
SPLINE
  5
23D
330
1F
100
AcDbEntity
  8
0
  6
Continuous
 62
     7
370
    15
100
AcDbSpline
210
0.0
220
0.0
230
1.0
 70
     8
 71
     3
 72
    13
 73
     9
 74
     0
 42
0.000000001
 43
0.00000001
 40
0.0
 40
0.0
 40
0.0
 40
0.0
 40
0.1520839507885282
 40
0.3402016687555227
 40
0.5338348614879496
 40
0.720772484753261
 40
0.9133130352136029
 40
1.0
 40
1.0
 40
1.0
 40
1.0
 10
271.5399924456656
 20
51.55210470438686
 30
0.0
 10
271.5558575457581
 20
51.56201284513212
 30
0.0
 10
271.5913467180109
 20
51.58417669607316
 30
0.0
 10
271.6350609115892
 20
51.62451043021173
 30
0.0
 10
271.669462568571
 20
51.67111337934831
 30
0.0
 10
271.6884331036852
 20
51.7207585328856
 30
0.0
 10
271.6953705029836
 20
51.76239800576647
 30
0.0
 10
271.6880779766029
 20
51.78682692788299
 30
0.0
 10
271.6858139913471
 20
51.79441095522863
 30
0.0
  0
LINE
  5
23E
330
1F
100
AcDbEntity
  8
0
  6
Continuous
 62
     7
370
    15
100
AcDbLine
 10
215.959133612
 20
54.0222133077
 30
0.0
 11
215.9735419658
 21
54.0655272277
 31
0.0
  0
LWPOLYLINE
  5
23F
330
1F
100
AcDbEntity
  8
0
  6
Continuous
 62
     7
370
    15
100
AcDbPolyline
 90
       11
 70
   128
 43
0.0
 10
215.9997195841
 20
54.1442215242
 10
216.0063812494
 20
54.1642476036
 10
216.0235493991
 20
54.2059935186
 10
216.0318400881
 20
54.2191671652
 10
216.0361220117
 20
54.2181520469
 10
216.0372873679
 20
54.2042591071
 10
216.0348128849
 20
54.174407612
 10
216.0251896411
 20
54.1094670021
 10
215.9846642392
 20
53.8985947713
 10
215.9737548345
 20
53.8464871174
 10
215.9737548345
 20
53.8464871174
  0
SPLINE
  5
240
330
1F
100
AcDbEntity
  8
0
  6
Continuous
 62
     7
370
    15
100
AcDbSpline
210
0.0
220
0.0
230
1.0
 70
     8
 71
     3
 72
     9
 73
     5
 74
     0
 42
0.000000001
 43
0.00000001
 40
0.0
 40
0.0
 40
0.0
 40
0.0
 40
0.7766521846938242
 40
0.9999999999999999
 40
0.9999999999999999
 40
0.9999999999999999
 40
0.9999999999999999
 10
215.9079700777347
 20
53.58401787756382
 30
0.0
 10
215.9047842098673
 20
53.69285369244471
 30
0.0
 10
215.9006821575842
 20
53.83298825592861
 30
0.0
 10
215.9484620724078
 20
53.98766630362233
 30
0.0
 10
215.9591336119992
 20
54.02221330765053
 30
0.0
  0
SPLINE
  5
241
330
1F
100
AcDbEntity
  8
0
  6
Continuous
 62
     7
370
    15
100
AcDbSpline
210
0.0
220
0.0
230
1.0
 70
     8
 71
     3
 72
     8
 73
     4
 74
     0
 42
0.000000001
 43
0.00000001
 40
0.0
 40
0.0
 40
0.0
 40
0.0
 40
1.0
 40
1.0
 40
1.0
 40
1.0
 10
215.8846695117951
 20
52.98557910322216
 30
0.0
 10
215.9132718073694
 20
52.98402568808861
 30
0.0
 10
215.942968187107
 20
52.97764151012585
 30
0.0
 10
215.9738986621653
 20
52.96458215343776
 30
0.0
  0
SPLINE
  5
242
330
1F
100
AcDbEntity
  8
0
  6
Continuous
 62
     7
370
    15
100
AcDbSpline
210
0.0
220
0.0
230
1.0
 70
     8
 71
     3
 72
    10
 73
     6
 74
     0
 42
0.000000001
 43
0.00000001
 40
0.0
 40
0.0
 40
0.0
 40
0.0
 40
0.4999999999999989
 40
0.4999999999999989
 40
1.0
 40
1.0
 40
1.0
 40
1.0
 10
215.9737548344615
 20
53.84648711741505
 30
0.0
 10
215.9437663645528
 20
53.7046962612453
 30
0.0
 10
215.9233330653663
 20
53.56243844520221
 30
0.0
 10
215.8947000781406
 20
53.27562817703294
 30
0.0
 10
215.8868290184941
 20
53.13117164383765
 30
0.0
 10
215.8846695117959
 20
52.98557910321844
 30
0.0
  0
ARC
  5
243
330
1F
100
AcDbEntity
  8
0
  6
Continuous
 62
     7
370
    15
100
AcDbCircle
 10
217.1040022809
 20
52.817524865
 30
0.0
 40
1.230859305077852
100
AcDbArc
 50
172.152662553
 51
234.515109951
  0
SPLINE
  5
244
330
1F
100
AcDbEntity
  8
0
  6
Continuous
 62
     7
370
    15
100
AcDbSpline
210
0.0
220
0.0
230
1.0
 70
     8
 71
     3
 72
     8
 73
     4
 74
     0
 42
0.000000001
 43
0.00000001
 40
0.0
 40
0.0
 40
0.0
 40
0.0
 40
1.0
 40
1.0
 40
1.0
 40
1.0
 10
215.8846695117958
 20
40.72166033565609
 30
0.0
 10
215.9132718073699
 20
40.69096293179798
 30
0.0
 10
215.9429681871073
 20
40.66390947994752
 30
0.0
 10
215.9738986621653
 20
40.64163817755245
 30
0.0
  0
ARC
  5
245
330
1F
100
AcDbEntity
  8
0
  6
Continuous
 62
     7
370
    15
100
AcDbCircle
 10
219.6171711481
 20
40.6141690696
 30
0.0
 40
3.734049120875732
100
AcDbArc
 50
122.5266432908
 51
178.3504108787
  0
LINE
  5
246
330
1F
100
AcDbEntity
  8
0
  6
Continuous
 62
     7
370
    15
100
AcDbLine
 10
217.6094037852
 20
43.7625008586
 30
0.0
 11
218.6111247832
 21
44.3407820817
 31
0.0
  0
SPLINE
  5
247
330
1F
100
AcDbEntity
  8
0
  6
Continuous
 62
     7
370
    15
100
AcDbSpline
210
0.0
220
0.0
230
1.0
 70
     8
 71
     3
 72
     9
 73
     5
 74
     0
 42
0.000000001
 43
0.00000001
 40
0.0
 40
0.0
 40
0.0
 40
0.0
 40
0.3901122753667928
 40
0.9999999999999999
 40
0.9999999999999999
 40
0.9999999999999999
 40
0.9999999999999999
 10
215.9184746816076
 20
41.78881117348306
 30
0.0
 10
215.9093974393197
 20
41.74202485034036
 30
0.0
 10
215.8861291576965
 20
41.62209444543648
 30
0.0
 10
215.8996958926334
 20
41.50124014516955
 30
0.0
 10
215.9079700777347
 20
41.42753259096762
 30
0.0
  0
ARC
  5
248
330
1F
100
AcDbEntity
  8
0
  6
Continuous
 62
     7
370
    15
100
AcDbCircle
 10
218.4020850168
 20
41.3013790875
 30
0.0
 40
2.530989991238217
100
AcDbArc
 50
122.9343892187
 51
168.8962877716
  0
LINE
  5
249
330
1F
100
AcDbEntity
  8
0
  6
Continuous
 62
     7
370
    15
100
AcDbLine
 10
217.6094037852
 20
43.7625008586
 30
0.0
 11
217.0260406907
 21
43.4256230349
 31
0.0
  0
LINE
  5
24A
330
1F
100
AcDbEntity
  8
0
  6
Continuous
 62
     7
370
    15
100
AcDbLine
 10
215.9440867732
 20
40.582767728
 30
0.0
 11
215.8846695118
 21
40.7216603357
 31
0.0
  0
LWPOLYLINE
  5
24B
330
1F
100
AcDbEntity
  8
0
  6
Continuous
 62
     7
370
     0
100
AcDbPolyline
 90
        9
 70
   128
 43
0.0
 10
271.6109136127
 20
34.1684062603
 10
271.8909478777
 20
33.6360896559
 10
272.1150232354
 20
33.020155689
 10
272.231747863
 20
32.4184091782
 10
272.2343381494
 20
31.8658214434
 10
272.1226435567
 20
31.3945068754
 10
271.9031553685
 20
31.0318565636
 10
271.5886294406
 20
30.7989464259
 10
271.3769420935
 20
30.7304340866
  0
LWPOLYLINE
  5
24C
330
1F
100
AcDbEntity
  8
0
  6
Continuous
 62
     7
370
     0
100
AcDbPolyline
 90
       13
 70
   128
 43
0.0
 10
271.3756178834
 20
33.9956535363
 10
271.5016369091
 20
33.7716751244
 10
271.7540008774
 20
33.1909763849
 10
271.9047521165
 20
32.6101307761
 10
271.9444183714
 20
32.0656349636
 10
271.8705072656
 20
31.591701622
 10
271.6876629056
 20
31.2181097261
 10
271.407374075
 20
30.9683334287
 10
271.0472523519
 20
30.8580670931
 10
270.6299255086
 20
30.8942391589
 10
270.1816157254
 20
31.0745768019
 10
269.7304919548
 20
31.387748745
 10
269.3048999625
 20
31.8140772431
  0
LWPOLYLINE
  5
24D
330
1F
100
AcDbEntity
  8
0
  6
Continuous
 62
     7
370
     0
100
AcDbPolyline
 90
       10
 70
   128
 43
0.0
 10
241.4990063876
 20
28.902496367
 10
241.5543470805
 20
27.4911246217
 10
241.7199360434
 20
26.154693778
 10
241.994477318
 20
24.9036632192
 10
242.3758222467
 20
23.7478239556
 10
242.8609862883
 20
22.6962219966
 10
243.4461723764
 20
21.7570875534
 10
244.1268006365
 20
20.9377706262
 10
244.8975442295
 20
20.244683481
 10
245.6419546849
 20
19.7456002376
  0
LWPOLYLINE
  5
24E
330
1F
100
AcDbEntity
  8
0
  6
Continuous
 62
     7
370
     0
100
AcDbPolyline
 90
       28
 70
   128
 43
0.0
 10
265.6403293377
 20
54.3875547328
 10
265.0730347407
 20
54.6798363536
 10
264.1048186454
 20
55.0358810959
 10
263.070362805
 20
55.2512916737
 10
261.9777632389
 20
55.3243822073
 10
260.8355710203
 20
55.2545806641
 10
259.6527253518
 20
55.0424333358
 10
258.4384836045
 20
54.689600563
 10
257.2023488665
 20
54.1988437403
 10
255.9539955681
 20
53.5740037054
 10
254.7031937664
 20
52.8199706788
 10
253.4597326815
 20
51.9426459912
 10
252.2333440822
 20
50.9488958978
 10
251.0336261222
 20
49.8464978404
 10
249.8699682211
 20
48.6440795787
 10
248.7514775798
 20
47.3510516657
 10
247.686907904
 20
45.977533798
 10
246.6845908949
 20
44.5342756153
 10
245.7523710419
 20
43.0325725696
 10
244.8975442295
 20
41.4841775234
 10
244.1268006365
 20
39.9012087673
 10
243.4461723764
 20
38.296055178
 10
242.8609862883
 20
36.6812792589
 10
242.3758222467
 20
35.0695188207
 10
241.994477318
 20
33.4733880743
 10
241.7199360434
 20
31.9053789069
 10
241.5543470805
 20
30.3777631162
 10
241.4990063876
 20
28.902496367
  0
LWPOLYLINE
  5
24F
330
1F
100
AcDbEntity
  8
0
  6
Continuous
 62
     7
370
     0
100
AcDbPolyline
 90
       50
 70
   128
 43
0.0
 10
272.6293824293
 20
35.0166127548
 10
271.7703657515
 20
34.4570269889
 10
270.9254541039
 20
33.7792576189
 10
270.1085209122
 20
32.9944335994
 10
269.3329801969
 20
32.1154417188
 10
268.6115663152
 20
31.1567149997
 10
267.956124863
 20
30.1339957082
 10
267.3774181708
 20
29.0640768668
 10
266.8849485866
 20
27.9645265133
 10
266.4868024472
 20
26.8533992342
 10
266.1895173013
 20
25.7489397087
 10
265.9979745628
 20
24.6692831315
 10
265.9153193581
 20
23.6321574339
 10
265.9429088834
 20
22.6545921911
 10
266.0802901195
 20
21.7526389975
 10
266.3252072703
 20
20.9411078994
 10
266.6736388029
 20
20.2333242151
 10
267.1198634811
 20
19.6409097332
 10
267.6565543082
 20
19.173591883
 10
268.2748988355
 20
18.8390440107
 10
268.9647438631
 20
18.6427593832
 10
269.7147621546
 20
18.5879609886
 10
270.5126384305
 20
18.675548615
 10
271.3452715843
 20
18.904084076
 10
272.1989898026
 20
19.2698148256
 10
273.059775056
 20
19.7667355751
 10
273.9134932744
 20
20.3866868996
 10
274.7461264281
 20
21.1194892153
 10
275.544002704
 20
21.9531099285
 10
276.2940209955
 20
22.8738610102
 10
276.9838660231
 20
23.8666237531
 10
277.6022105504
 20
24.9150970203
 10
278.1389013775
 20
26.0020649098
 10
278.5851260558
 20
27.1096794389
 10
278.9335575883
 20
28.2197536077
 10
279.1784747391
 20
29.314060029
 10
279.3158559752
 20
30.3746302215
 10
279.3434455005
 20
31.3840496522
 10
279.2607902958
 20
32.3257436818
 10
279.0692475573
 20
33.1842497204
 10
278.7719624114
 20
33.9454711226
 10
278.373816272
 20
34.5969086539
 10
277.8813466878
 20
35.1278657283
 10
277.3026399956
 20
35.529624045
 10
276.6471985434
 20
35.7955867438
 10
275.9257846617
 20
35.9213867245
 10
275.1502439464
 20
35.9049583547
 10
274.3333107547
 20
35.746571388
 10
273.4883991071
 20
35.448826534
 10
272.6293824293
 20
35.0166127548
  0
LWPOLYLINE
  5
250
330
1F
100
AcDbEntity
  8
0
  6
Continuous
 62
     7
370
     0
100
AcDbPolyline
 90
       26
 70
   128
 43
0.0
 10
237.6985388234
 20
32.4241197751
 10
238.0714177339
 20
34.2123727302
 10
238.5540126261
 20
36.0236634322
 10
239.1431162695
 20
37.8459544005
 10
239.8348135976
 20
39.667135049
 10
240.6245077264
 20
41.4751021707
 10
241.5069505047
 20
43.2578403728
 10
242.4762773919
 20
45.003501929
 10
243.5260464328
 20
46.7004855174
 10
244.6492810696
 20
48.3375133198
 10
245.8385165065
 20
49.9037059726
 10
247.0858493197
 20
51.3886548685
 10
248.3829899813
 20
52.7824913303
 10
249.7213179507
 20
54.0759521959
 10
251.0919389641
 20
55.2604413798
 10
252.485744145
 20
56.3280870005
 10
253.8934705392
 20
57.2717936961
 10
255.3057626748
 20
58.0852897781
 10
256.7132347372
 20
58.763168912
 10
258.1065329448
 20
59.300926047
 10
259.4763977127
 20
59.6949873553
 10
260.81372519
 20
59.9427339831
 10
262.1096277622
 20
60.0425194554
 10
263.3554931167
 20
59.9936806175
 10
264.5430414782
 20
59.7965420427
 10
265.6643806346
 20
59.4524138752
  0
LWPOLYLINE
  5
251
330
1F
100
AcDbEntity
  8
0
  6
Continuous
 62
     7
370
     0
100
AcDbPolyline
 90
       26
 70
   128
 43
0.0
 10
236.9823640879
 20
32.4188849565
 10
237.353929557
 20
34.2311894889
 10
237.8363216087
 20
36.067480041
 10
238.4263717571
 20
37.9156953421
 10
239.1202043874
 20
39.7636957965
 10
239.9132622126
 20
41.5993432195
 10
240.8003362068
 20
43.4105805646
 10
241.7755998195
 20
45.1855111179
 10
242.8326472462
 20
46.9124766381
 10
243.9645355032
 20
48.580133932
 10
245.1638300316
 20
50.1775293595
 10
246.4226535288
 20
51.69417078
 10
247.7327376897
 20
53.1200964678
 10
249.0854775144
 20
54.4459405436
 10
250.4719878289
 20
55.6629944922
 10
251.8831616452
 20
56.7632643623
 10
253.3097299783
 20
57.7395232732
 10
254.7423227278
 20
58.5853588831
 10
256.1715302234
 20
59.2952155066
 10
257.5879650298
 20
59.8644306067
 10
258.9823236066
 20
60.2892654191
 10
260.345447416
 20
60.5669295099
 10
261.6683830791
 20
60.6955991034
 10
262.942441184
 20
60.6744290619
 10
264.15925336
 20
60.5035584359
 10
265.310827244
 20
60.1841095517
  0
LWPOLYLINE
  5
252
330
1F
100
AcDbEntity
  8
0
  6
Continuous
 62
     7
370
     0
100
AcDbPolyline
 90
       16
 70
   128
 43
0.0
 10
251.6573553216
 20
16.2729833668
 10
250.6539235567
 20
15.9275037482
 10
249.3230856994
 20
15.5820483404
 10
248.0256218722
 20
15.3768639763
 10
246.7697683951
 20
15.3132531695
 10
245.5634974448
 20
15.3916197224
 10
244.4144664478
 20
15.6114661627
 10
243.32996947
 20
15.9713969021
 10
242.3168909146
 20
16.4691270947
 10
241.3816618197
 20
17.1014971418
 10
240.5302190336
 20
17.8644927487
 10
239.7679675281
 20
18.7532704079
 10
239.0997460871
 20
19.7621881453
 10
238.5297965905
 20
20.8848413358
 10
238.0617370864
 20
22.1141033601
 10
237.6985388234
 20
23.4421708443
  0
ARC
  5
253
330
1F
100
AcDbEntity
  8
0
  6
Continuous
 62
     7
370
     0
100
AcDbCircle
 10
260.5537975144
 20
49.8066083856
 30
0.0
 40
11.12399372828639
100
AcDbArc
 50
9.0277456972
 51
48.705552358
  0
LWPOLYLINE
  5
254
330
1F
100
AcDbEntity
  8
0
  6
Continuous
 62
     7
370
     0
100
AcDbPolyline
 90
       34
 70
   128
 43
0.0
 10
239.377686044
 20
28.902496367
 10
239.43245429
 20
30.4229346185
 10
239.5963644217
 20
31.9956521485
 10
239.8682354627
 20
33.6093174912
 10
240.246108576
 20
35.2523041507
 10
240.7272611771
 20
36.9127743705
 10
241.3082265505
 20
38.5787644246
 10
241.9848188275
 20
40.2382708165
 10
242.752163145
 20
41.8793367647
 10
243.6047307698
 20
43.4901383514
 10
244.5363789326
 20
45.0590697141
 10
245.5403950869
 20
46.5748266666
 10
246.6095452735
 20
48.0264881453
 10
247.7361262407
 20
49.4035948958
 10
248.9120209468
 20
50.6962248325
 10
250.1287570435
 20
51.8950645272
 10
251.3775679194
 20
52.9914763123
 10
252.6494558635
 20
53.9775605158
 10
253.935256894
 20
54.8462123784
 10
255.225706785
 20
55.5911732435
 10
256.5115078155
 20
56.2070756511
 10
257.7833957596
 20
56.6894820102
 10
259.0322066355
 20
57.0349165718
 10
260.2489427322
 20
57.2408904722
 10
261.4248374384
 20
57.3059196645
 10
262.5514184055
 20
57.229535612
 10
263.6205685921
 20
57.0122886636
 10
264.6245847465
 20
56.6557440884
 10
265.5562329092
 20
56.1624707983
 10
266.408800534
 20
55.5360228387
 10
267.1761448516
 20
54.7809137814
 10
267.8527371285
 20
53.9025842046
 10
268.4337025019
 20
52.9073624929
 10
268.5249231937
 20
52.7223141454
  0
LWPOLYLINE
  5
255
330
1F
100
AcDbEntity
  8
0
  6
Continuous
 62
     7
370
     0
100
AcDbPolyline
 90
       15
 70
   128
 43
0.0
 10
248.526548541
 20
18.0803596501
 10
247.7361262407
 20
18.0518474736
 10
246.6095452735
 20
18.1282315261
 10
245.5403950869
 20
18.3454784745
 10
244.5363789326
 20
18.7020230497
 10
243.6047307698
 20
19.1952963398
 10
242.752163145
 20
19.8217442994
 10
241.9848188275
 20
20.5768533567
 10
241.3082265505
 20
21.4551829335
 10
240.7272611771
 20
22.4504046452
 10
240.246108576
 20
23.5553478964
 10
239.8682354627
 20
24.7620515459
 10
239.5963644217
 20
26.061821266
 10
239.43245429
 20
27.4452921863
 10
239.377686044
 20
28.902496367
  0
LWPOLYLINE
  5
256
330
1F
100
AcDbEntity
  8
0
  6
Continuous
 62
     7
370
     0
100
AcDbPolyline
 90
       25
 70
   128
 43
0.0
 10
267.798231229
 20
19.6565398928
 10
268.4016950275
 20
19.3968386849
 10
269.0938485234
 20
19.2623530414
 10
269.8404465881
 20
19.2681926148
 10
270.6287147217
 20
19.4142574885
 10
271.4451654379
 20
19.6980484518
 10
272.2758290387
 20
20.1147097629
 10
273.1064926395
 20
20.6571122311
 10
273.9229433557
 20
21.3159751997
 10
274.7112114894
 20
22.0800253408
 10
275.4578095541
 20
22.9361895446
 10
276.1499630499
 20
23.8698186042
 10
276.7758290387
 20
24.8649378674
 10
277.3246987799
 20
25.904520568
 10
277.78718096
 20
26.9707791575
 10
278.1553623807
 20
28.0454696559
 10
278.4229433557
 20
29.1102038109
 10
278.5853455006
 20
30.1467637258
 10
278.6397900694
 20
31.1374135731
 10
278.5853455006
 20
32.0652030592
 10
278.4229433557
 20
32.9142574488
 10
278.1553623807
 20
33.670049186
 10
277.78718096
 20
34.3196464645
 10
277.3246987799
 20
34.8519344948
 10
276.8098064759
 20
35.2378860329
  0
LWPOLYLINE
  5
257
330
1F
100
AcDbEntity
  8
0
  6
Continuous
 62
     7
370
     0
100
AcDbPolyline
 90
       24
 70
   128
 43
0.0
 10
226.8442183475
 20
33.2804848666
 10
226.898712703
 20
34.9135701316
 10
227.0618597938
 20
36.5995047265
 10
227.3326537638
 20
38.3278943039
 10
227.709425078
 20
40.0880827674
 10
228.1898508162
 20
41.8692179697
 10
228.7709689938
 20
43.6603186201
 10
229.449196824
 20
45.4503419874
 10
230.2203528067
 20
47.2282519823
 10
231.0796825089
 20
48.9830871985
 10
232.0218878771
 20
50.7040284933
 10
233.0411599021
 20
52.3804656914
 10
234.1312144327
 20
54.002063
 10
235.2853309204
 20
55.5588227325
 10
236.4963938531
 20
57.0411469473
 10
237.7569366253
 20
58.4398966229
 10
239.0591875715
 20
59.7464480023
 10
240.3951178817
 20
60.9527457618
 10
241.7564911011
 20
62.0513526745
 10
243.1349139113
 20
63.0354954636
 10
244.5218878771
 20
63.8991065615
 10
245.908861843
 20
64.6368615186
 10
247.2872846532
 20
65.2442118302
 10
248.2995150683
 20
65.6083413518
  0
ARC
  5
258
330
1F
100
AcDbEntity
  8
0
  6
Continuous
 62
     7
370
     0
100
AcDbCircle
 10
246.6591219215
 20
33.1557130513
 30
0.0
 40
19.81529640593876
100
AcDbArc
 50
179.6392208567
 51
191.4341219913
  0
LWPOLYLINE
  5
259
330
1F
100
AcDbEntity
  8
0
  6
Continuous
 62
     7
370
     0
100
AcDbPolyline
 90
       22
 70
   128
 43
0.0
 10
234.667231012
 20
35.1072790712
 10
235.0435149721
 20
36.8427289943
 10
235.5271405523
 20
38.5990538727
 10
236.1148006298
 20
40.3642436259
 10
236.8024766743
 20
42.1262275542
 10
237.5854662276
 20
43.8729568797
 10
238.4584150596
 20
45.5924871383
 10
239.4153537819
 20
47.2730598583
 10
240.4497386672
 20
48.903182967
 10
241.554496397
 20
50.4717093756
 10
242.7220724299
 20
51.9679132052
 10
243.9444826611
 20
53.3815631322
 10
245.2133680192
 20
54.7029923523
 10
246.5200516273
 20
55.9231646837
 10
247.8555981368
 20
57.0337363581
 10
249.2108748291
 20
58.0271130774
 10
250.5766140671
 20
58.8965019444
 10
251.9434766686
 20
59.6359579144
 10
253.3021157698
 20
60.2404244483
 10
254.6432407408
 20
60.70576809
 10
255.9576807163
 20
61.0288067321
 10
257.1460390556
 20
61.1993634361
  0
LINE
  5
25A
330
1F
100
AcDbEntity
  8
0
  6
Continuous
 62
     7
370
     0
100
AcDbLine
 10
228.4210668231
 20
32.7825424726
 30
0.0
 11
230.5742066182
 21
34.0255236187
 31
0.0
  0
LWPOLYLINE
  5
25B
330
1F
100
AcDbEntity
  8
0
  6
Continuous
 62
     7
370
     0
100
AcDbPolyline
 90
       21
 70
   128
 43
0.0
 10
215.9738986622
 20
52.9645821534
 10
216.5277392207
 20
54.4980782057
 10
217.1782118623
 20
56.0216540298
 10
217.9195216404
 20
57.5217363562
 10
218.7450643564
 20
58.9849612149
 10
219.6474853951
 20
60.3982929924
 10
220.6187452459
 20
61.7491405642
 10
221.6501911253
 20
63.0254694663
 10
222.7326340631
 20
64.2159091087
 10
223.8564307653
 20
65.3098540735
 10
225.0115695242
 20
66.2975585972
 10
226.1877594114
 20
67.1702233936
 10
227.3745219579
 20
67.9200740451
 10
228.5612845043
 20
68.540430264
 10
229.7374743916
 20
69.0257654057
 10
230.8926131505
 20
69.3717557045
 10
232.0164098526
 20
69.5753187937
 10
233.0988527904
 20
69.6346411654
 10
234.1302986699
 20
69.5491943271
 10
235.1015585207
 20
69.3197395095
 10
235.8547654656
 20
69.0218328368
  0
ARC
  5
25C
330
1F
100
AcDbEntity
  8
0
  6
Continuous
 62
     7
370
     0
100
AcDbCircle
 10
221.8578428211
 20
43.6270989284
 30
0.0
 40
6.598012940307621
100
AcDbArc
 50
206.9028305451
 51
235.9634528152
  0
ARC
  5
25D
330
1F
100
AcDbEntity
  8
0
  6
Continuous
 62
     7
370
     0
100
AcDbCircle
 10
249.0185010904
 20
25.8138910959
 30
0.0
 40
12.26859850784694
100
AcDbArc
 50
191.1713024538
 51
217.036812803
  0
LINE
  5
25E
330
1F
100
AcDbEntity
  8
0
  6
Continuous
 62
     7
370
     0
100
AcDbLine
 10
232.3861700102
 20
26.0902623892
 30
0.0
 11
234.1097405242
 21
27.0852584678
 31
0.0
  0
LINE
  5
25F
330
1F
100
AcDbEntity
  8
0
  6
Continuous
 62
     7
370
     0
100
AcDbLine
 10
228.4210668231
 20
31.9660016607
 30
0.0
 11
230.5742066182
 21
33.2089828068
 31
0.0
  0
LINE
  5
260
330
1F
100
AcDbEntity
  8
0
  6
Continuous
 62
     7
370
     0
100
AcDbLine
 10
236.0929123517
 20
25.4133843712
 30
0.0
 11
236.0261146441
 21
25.6770207146
 31
0.0
  0
LINE
  5
261
330
1F
100
AcDbEntity
  8
0
  6
Continuous
 62
     7
370
     0
100
AcDbLine
 10
235.5866091123
 20
24.942784793
 30
0.0
 11
235.241226117
 21
26.1301272166
 31
0.0
  0
LWPOLYLINE
  5
262
330
1F
100
AcDbEntity
  8
0
  6
Continuous
 62
     7
370
     0
100
AcDbPolyline
 90
        3
 70
   128
 43
0.0
 10
235.4952395105
 20
23.6950149252
 10
235.037075875
 20
24.8430874345
 10
234.667231012
 20
26.1253301405
  0
LINE
  5
263
330
1F
100
AcDbEntity
  8
0
  6
Continuous
 62
     7
370
     0
100
AcDbLine
 10
263.2987300112
 20
61.3451642356
 30
0.0
 11
263.1983599916
 21
61.2872218566
 31
0.0
  0
ARC
  5
264
330
1F
100
AcDbEntity
  8
0
  6
Continuous
 62
     7
370
     0
100
AcDbCircle
 10
221.9284420886
 20
50.6496869768
 30
0.0
 40
1.972900930438653
100
AcDbArc
 50
160.2447912923
 51
206.8893927025
  0
ARC
  5
265
330
1F
100
AcDbEntity
  8
0
  6
Continuous
 62
     7
370
     0
100
AcDbCircle
 10
219.6864638396
 20
50.5890768906
 30
0.0
 40
0.8231425509793399
100
AcDbArc
 50
40.3517278188
 51
62.0985124778
  0
LINE
  5
266
330
1F
100
AcDbEntity
  8
0
  6
Continuous
 62
     7
370
     0
100
AcDbLine
 10
220.071655667
 20
51.3165319857
 30
0.0
 11
220.2194581616
 21
51.8707873834
 31
0.0
  0
LINE
  5
267
330
1F
100
AcDbEntity
  8
0
  6
Continuous
 62
     7
370
     0
100
AcDbLine
 10
220.071655667
 20
51.3165319857
 30
0.0
 11
218.8184360394
 21
52.0400002773
 31
0.0
  0
LINE
  5
268
330
1F
100
AcDbEntity
  8
0
  6
Continuous
 62
     7
370
     0
100
AcDbLine
 10
215.9737548345
 20
53.8464871174
 30
0.0
 11
215.959133612
 21
54.0222133077
 31
0.0
  0
ARC
  5
269
330
1F
100
AcDbEntity
  8
0
  6
Continuous
 62
     7
370
     0
100
AcDbCircle
 10
219.7900050842
 20
37.2876358497
 30
0.0
 40
0.5806344198070329
100
AcDbArc
 50
25.5708468831
 51
60.9826879702
  0
ARC
  5
26A
330
1F
100
AcDbEntity
  8
0
  6
Continuous
 62
     7
370
     0
100
AcDbCircle
 10
222.027376704
 20
38.4414032883
 30
0.0
 40
2.059656355467785
100
AcDbArc
 50
172.8744043427
 51
198.2795396693
  0
LINE
  5
26B
330
1F
100
AcDbEntity
  8
0
  6
Continuous
 62
     7
370
     0
100
AcDbLine
 10
219.2264711984
 20
42.8289877113
 30
0.0
 11
217.6094037852
 21
43.7625008586
 31
0.0
  0
LINE
  5
26C
330
1F
100
AcDbEntity
  8
0
  6
Continuous
 62
     7
370
     0
100
AcDbLine
 10
220.071655667
 20
37.7953850778
 30
0.0
 11
218.8184360394
 21
38.5188533694
 31
0.0
  0
LINE
  5
26D
330
1F
100
AcDbEntity
  8
0
  6
Continuous
 62
     7
370
     0
100
AcDbLine
 10
220.071655667
 20
37.7953850778
 30
0.0
 11
220.2194581616
 21
37.411778808
 31
0.0
  0
OLE2FRAME
  5
26E
330
1F
100
AcDbEntity
  8
0
100
AcDbOle2Frame
 70
     2
  3
Paintbrush-Bild
 10
13.8511154363
 20
38.264191557
 30
0.0
 11
51.6290888628
 21
31.9806341108
 31
0.0
 71
     2
 72
     0
 73
     1
 90
    12928
310
80552BED0767C5B32B40DDAF6807D121434000000000000000006FFBDDFB85D0
310
4940DDAF6807D121434000000000000000006FFBDDFB85D04940416F4BD60AFB
310
3F4000000000000000002BED0767C5B32B40416F4BD60AFB3F40000000000000
310
0000000000000100000000010000010000000100000000000100000000320000
310
D0CF11E0A1B11AE1000000000000000000000000000000003E000300FEFF0900
310
0600000000000000000000000100000001000000000000000010000002000000
310
01000000FEFFFFFF0000000000000000FFFFFFFFFFFFFFFFFFFFFFFFFFFFFFFF
310
FFFFFFFFFFFFFFFFFFFFFFFFFFFFFFFFFFFFFFFFFFFFFFFFFFFFFFFFFFFFFFFF
310
FFFFFFFFFFFFFFFFFFFFFFFFFFFFFFFFFFFFFFFFFFFFFFFFFFFFFFFFFFFFFFFF
310
FFFFFFFFFFFFFFFFFFFFFFFFFFFFFFFFFFFFFFFFFFFFFFFFFFFFFFFFFFFFFFFF
310
FFFFFFFFFFFFFFFFFFFFFFFFFFFFFFFFFFFFFFFFFFFFFFFFFFFFFFFFFFFFFFFF
310
FFFFFFFFFFFFFFFFFFFFFFFFFFFFFFFFFFFFFFFFFFFFFFFFFFFFFFFFFFFFFFFF
310
FFFFFFFFFFFFFFFFFFFFFFFFFFFFFFFFFFFFFFFFFFFFFFFFFFFFFFFFFFFFFFFF
310
FFFFFFFFFFFFFFFFFFFFFFFFFFFFFFFFFFFFFFFFFFFFFFFFFFFFFFFFFFFFFFFF
310
FFFFFFFFFFFFFFFFFFFFFFFFFFFFFFFFFFFFFFFFFFFFFFFFFFFFFFFFFFFFFFFF
310
FFFFFFFFFFFFFFFFFFFFFFFFFFFFFFFFFFFFFFFFFFFFFFFFFFFFFFFFFFFFFFFF
310
FFFFFFFFFFFFFFFFFFFFFFFFFFFFFFFFFFFFFFFFFFFFFFFFFFFFFFFFFFFFFFFF
310
FFFFFFFFFFFFFFFFFFFFFFFFFFFFFFFFFFFFFFFFFFFFFFFFFFFFFFFFFFFFFFFF
310
FFFFFFFFFFFFFFFFFFFFFFFFFFFFFFFFFFFFFFFFFFFFFFFFFFFFFFFFFFFFFFFF
310
FFFFFFFFFFFFFFFFFFFFFFFFFFFFFFFFFFFFFFFFFFFFFFFFFFFFFFFFFFFFFFFF
310
FDFFFFFFFEFFFFFFFEFFFFFFFEFFFFFF05000000060000000700000008000000
310
090000000A0000000B0000000C0000000D0000000E0000000F00000010000000
310
11000000120000001300000014000000150000001600000017000000FEFFFFFF
310
FFFFFFFFFFFFFFFFFFFFFFFFFFFFFFFFFFFFFFFFFFFFFFFFFFFFFFFFFFFFFFFF
310
FFFFFFFFFFFFFFFFFFFFFFFFFFFFFFFFFFFFFFFFFFFFFFFFFFFFFFFFFFFFFFFF
310
FFFFFFFFFFFFFFFFFFFFFFFFFFFFFFFFFFFFFFFFFFFFFFFFFFFFFFFFFFFFFFFF
310
FFFFFFFFFFFFFFFFFFFFFFFFFFFFFFFFFFFFFFFFFFFFFFFFFFFFFFFFFFFFFFFF
310
FFFFFFFFFFFFFFFFFFFFFFFFFFFFFFFFFFFFFFFFFFFFFFFFFFFFFFFFFFFFFFFF
310
FFFFFFFFFFFFFFFFFFFFFFFFFFFFFFFFFFFFFFFFFFFFFFFFFFFFFFFFFFFFFFFF
310
FFFFFFFFFFFFFFFFFFFFFFFFFFFFFFFFFFFFFFFFFFFFFFFFFFFFFFFFFFFFFFFF
310
FFFFFFFFFFFFFFFFFFFFFFFFFFFFFFFFFFFFFFFFFFFFFFFFFFFFFFFFFFFFFFFF
310
FFFFFFFFFFFFFFFFFFFFFFFFFFFFFFFFFFFFFFFFFFFFFFFFFFFFFFFFFFFFFFFF
310
FFFFFFFFFFFFFFFFFFFFFFFFFFFFFFFFFFFFFFFFFFFFFFFFFFFFFFFFFFFFFFFF
310
FFFFFFFFFFFFFFFFFFFFFFFFFFFFFFFFFFFFFFFFFFFFFFFFFFFFFFFFFFFFFFFF
310
FFFFFFFFFFFFFFFFFFFFFFFFFFFFFFFFFFFFFFFFFFFFFFFFFFFFFFFFFFFFFFFF
310
FFFFFFFFFFFFFFFFFFFFFFFFFFFFFFFFFFFFFFFFFFFFFFFFFFFFFFFFFFFFFFFF
310
52006F006F007400200045006E00740072007900000000000000000000000000
310
0000000000000000000000000000000000000000000000000000000000000000
310
16000500FFFFFFFFFFFFFFFF020000000A00030000000000C000000000000046
310
000000000000000000000000C0A863642B25D20103000000C000000000000000
310
01004F006C006500000000000000000000000000000000000000000000000000
310
0000000000000000000000000000000000000000000000000000000000000000
310
0A000200FFFFFFFFFFFFFFFFFFFFFFFF00000000000000000000000000000000
310
0000000000000000000000000000000000000000000000001400000000000000
310
010043006F006D0070004F0062006A0000000000000000000000000000000000
310
0000000000000000000000000000000000000000000000000000000000000000
310
120002010100000003000000FFFFFFFF00000000000000000000000000000000
310
0000000000000000000000000000000000000000010000004D00000000000000
310
01004F006C006500310030004E00610074006900760065000000000000000000
310
0000000000000000000000000000000000000000000000000000000000000000
310
1A000200FFFFFFFFFFFFFFFFFFFFFFFF00000000000000000000000000000000
310
0000000000000000000000000000000000000000040000002426000000000000
310
FEFFFFFF02000000FEFFFFFFFFFFFFFFFFFFFFFFFFFFFFFFFFFFFFFFFFFFFFFF
310
FFFFFFFFFFFFFFFFFFFFFFFFFFFFFFFFFFFFFFFFFFFFFFFFFFFFFFFFFFFFFFFF
310
FFFFFFFFFFFFFFFFFFFFFFFFFFFFFFFFFFFFFFFFFFFFFFFFFFFFFFFFFFFFFFFF
310
FFFFFFFFFFFFFFFFFFFFFFFFFFFFFFFFFFFFFFFFFFFFFFFFFFFFFFFFFFFFFFFF
310
FFFFFFFFFFFFFFFFFFFFFFFFFFFFFFFFFFFFFFFFFFFFFFFFFFFFFFFFFFFFFFFF
310
FFFFFFFFFFFFFFFFFFFFFFFFFFFFFFFFFFFFFFFFFFFFFFFFFFFFFFFFFFFFFFFF
310
FFFFFFFFFFFFFFFFFFFFFFFFFFFFFFFFFFFFFFFFFFFFFFFFFFFFFFFFFFFFFFFF
310
FFFFFFFFFFFFFFFFFFFFFFFFFFFFFFFFFFFFFFFFFFFFFFFFFFFFFFFFFFFFFFFF
310
FFFFFFFFFFFFFFFFFFFFFFFFFFFFFFFFFFFFFFFFFFFFFFFFFFFFFFFFFFFFFFFF
310
FFFFFFFFFFFFFFFFFFFFFFFFFFFFFFFFFFFFFFFFFFFFFFFFFFFFFFFFFFFFFFFF
310
FFFFFFFFFFFFFFFFFFFFFFFFFFFFFFFFFFFFFFFFFFFFFFFFFFFFFFFFFFFFFFFF
310
FFFFFFFFFFFFFFFFFFFFFFFFFFFFFFFFFFFFFFFFFFFFFFFFFFFFFFFFFFFFFFFF
310
FFFFFFFFFFFFFFFFFFFFFFFFFFFFFFFFFFFFFFFFFFFFFFFFFFFFFFFFFFFFFFFF
310
FFFFFFFFFFFFFFFFFFFFFFFFFFFFFFFFFFFFFFFFFFFFFFFFFFFFFFFFFFFFFFFF
310
FFFFFFFFFFFFFFFFFFFFFFFFFFFFFFFFFFFFFFFFFFFFFFFFFFFFFFFFFFFFFFFF
310
FFFFFFFFFFFFFFFFFFFFFFFFFFFFFFFFFFFFFFFFFFFFFFFFFFFFFFFFFFFFFFFF
310
0100000200000000000000000000000000000000000000000000000000000000
310
0000000000000000000000000000000000000000000000000000000000000000
310
0100FEFF030A0000FFFFFFFF0A00030000000000C00000000000004607000000
310
5042727573680007000000504272757368000700000050427275736800F439B2
310
7100000000000000000000000000000000000000000000000000000000000000
310
0000000000000000000000000000000000000000000000000000000000000000
310
0000000000000000000000000000000000000000000000000000000000000000
310
0000000000000000000000000000000000000000000000000000000000000000
310
0000000000000000000000000000000000000000000000000000000000000000
310
0000000000000000000000000000000000000000000000000000000000000000
310
0000000000000000000000000000000000000000000000000000000000000000
310
0000000000000000000000000000000000000000000000000000000000000000
310
0000000000000000000000000000000000000000000000000000000000000000
310
0000000000000000000000000000000000000000000000000000000000000000
310
0000000000000000000000000000000000000000000000000000000000000000
310
0000000000000000000000000000000000000000000000000000000000000000
310
20260000424D0E260000000000003E00000028000000B40200006E0000000100
310
01000000000000000000130B0000130B00000200000002000000000000FFFFFF
310
FFFFFFFFFFFFFFFFFFFFFFFFFFFFFFFFFFFFFFFFFFFFFFFFFFFFFFFFFFFFFFFF
310
FFFFFFFFFFFFFFFFFFFFFFFFFFFFFFFFFFFFFFFFFFFFFFFFFFFFFFFFFFFFFFFF
310
FFFFFFFFFFFFFFFFFFFFFFFFFFFFFFFFFFFFFFFFFFFFFFFFF000FFFFFFFFFFFF
310
FFFFFFFFFFFFFFFFFFFFFFFFFFFFFFFFFFFFFFFFFFFFFFFFFFFFFFFFFFFFFFFF
310
FFFFFFFFFFFFFFFFFFFFFFFFFFFFFFFFFFFFFFFFFFFFFFFFFFFFFFFFFFFFFFFF
310
FFFFFFFFFFFFFFFFFFFFFFFFFFFFFFFFF000FFFFFFFFFFFFFFFFFFFFFFFFFFFF
310
FFFFFFFFFFFFFFFFFFFFFFFFFFFFFFFFFFFFFFFFFFFFFFFFFFFFFFFFFFFFFFFF
310
FFFFFFFFFFFFFFFFFFFFFFFFFFFFFFFFFFFFFFFFFFFFFFFFFFFFFFFFFFFFFFFF
310
FFFFFFFFFFFFFFFFF000FFFFFFFFFFFFFFFFFFFFFFFFFFFFFFFFFFFFFFFFFFFF
310
FFFFFFFFFFFFFFFFFFFFFFFFFFFFFFFFFFFFFFFFFFFFFFFFFFFFFFFFFFFFFFFF
310
FFFFFFFFFFFFFFFFFFFFFFFFFFFFFFFFFFFFFFFFFFFFFFFFFFFFFFFFFFFFFFFF
310
F000FFFFFFFFFFFFFFFFFFFFFFFFFFFFFFFFFFFFFFFFFFFFFFFFFFFFFFFFFFFF
310
FFFFFFFFFFFFFFFFFFFFFFFFFFFFFFFFFFFFFFFFFFFFFFFFFFFFFFFFFFFFFFFF
310
FFFFFFFFFFFFFFFFFFFFFFFFFFFFFFFFFFFFFFFFFFFFFFFFF000FFFFFFFFFFFF
310
FFFFFFFFFFFFFFFFFFFFFFFFFFFFFFFFFFFFFFFFFFFFFFFFFFFFFFFFFFFFFFFF
310
FFFFFFFFFFFFFFFFFFFFFFFFFFFFFFFFFFFFFFFFFFFFFFFFFFFFFFFFFFFFFFFF
310
FFFFFFFFFFFFFFFFFFFFFFFFFFFFFFFFF000FFFFFFFFFFFFFFFFFFFFFFFFFFFF
310
FFFFFFFFFFFFFFFFFFFFFFFFFFFFFFFFFFFFFFFFFFFFFFFFFFFFFFFFFFFFFFFF
310
FFFFFFFFFFFFFFFFFFFFFFFFFFFFFFFFFFFFFFFFFFFFFFFFFFFFFFFFFFFFFFFF
310
FFFFFFFFFFFFFFFFF000FFFFFFFFFFFFFFFFFFFFFFFFFFFFFFFFFFFFFFFFFFFF
310
FFFFFFFFFFFFFFFFFFFFFFFFFFFFFFFFFFFFFFFFFFFFFFFFFFFFFFFFFFFFFFFF
310
FFFFFFFFFFFFFFFFFFFFFFFFFFFFFFFFFFFFFFFFFFFFFFFFFFFFFFFFFFFFFFFF
310
F000FFFFFFFFFFFFFFFFFFFFFFFFFFFFFFFFFFFFFFFFFFFFFFFFFFFFFFFFFFFF
310
FFFFFFFFFFFFFFFFFFFFFFFFFFFFFFFFFFFFFFFFFFFFFFFFFFFFFFFFFFFFFFFF
310
FFFFFFFFFFFFFFFFFFFFFFFFFFFFFFFFFFFFFFFFFFFFFFFFF000FFFFFFFFFFFF
310
FFFFFFFFFFFFFFFFFFFFFFFFFFFFFFFFFFFFFFFFFFFFFFFFFFFFFFFFFFFFFFFF
310
FFFFFFFFFFFFFFFFFFFFFFFFFFFFFFFFFFFFFFFFFFFFFFFFFFFFFFFFFFFFFFFF
310
FFFFFFFFFFFFFFFFFFFFFFFFFFFFFFFFF000FFFFFFFFFFFFFFFFFFFFFFFFFFFF
310
FFFFFFFFFFFFFFFFFFFFFFFFFFFFFFFFFFFFFFFFFFFFFFFFFFFFFFFFFFFFFFFF
310
FFFFFFFFFFFFFFFFFFFFFFFFFFFFFFFFFFFFFFFFFFFFFFFFFFFFFFFFFFFFFFFF
310
FFFFFFFFFFFFFFFFF000FFFFFFFFFFFFFFFFFFFFFFFFFFFFFFFFFFFFFFFFFFFF
310
FFFFFFFFFFFFFFFFFFFFFFFFFFFFFFFFFFFFFFFFFFFFFFFFFFFFFFFFFFFFFFFF
310
FFFFFFFFFFFFFFFFFFFFFFFFFFFFFFFFFFFFFFFFFFFFFFFFFFFFFFFFFFFFFFFF
310
F000FFFFFFFFFFFFFFFFFFFFFFFFFFFFFFFFFFFFFFFFFFFFFFFFFFFFFFFFFFFF
310
FFFFFFFFFFFFFFFFFFFFFFFFFFFFFFFFFFFFFFFFFFFFFFFFFFFFFFFFFFFFFFFF
310
FFFFFFFFFFFFFFFFFFFFFFFFFFFFFFFFFFFFFFFFFFFFFFFFF000FFFFFFFFFFFF
310
FFFFFFFFFFFFFFFFFFFFFFFFFFFFFFFFFFFFFFFFFFFFFFFFFFFFFFFFFFFFFFFF
310
FFFFFFFFFFFFFFFFFFFFFFFFFFFFFFFFFFFFFFFFFFFFFFFFFFFFFFFFFFFFFFFF
310
FFFFFFFFFFFFFFFFFFFFFFFFFFFFFFFFF000FFFFFFFFFFFFFFFFFFFFFFFFFFFF
310
FFFFFFFFFFFFFFFFFFFFFFFFFFFFFFFFFFFFFFFFFFFFFFFFFFFFFFFFFFFFFFFF
310
FFFFFFFFFFFFFFFFFFFFFFFFFFFFFFFFFFFFFFFFFFFFFFFFFFFFFFFFFFFFFFFF
310
FFFFFFFFFFFFFFFFF000FFFFFFFFFFFFFFFFFFFFFFFFFFFFFFFFFFFFFFFFFFFF
310
FFFFFFFFFFFFFFFFFFFFFFFFFFFFFFFFFFFFFFFFFFFFFFFFFFFFFFFFFFFFFFFF
310
FFFFFFFFFFFFFFFFFFFFFFFFFFFFFFFFFFFFFFFFFFFFFFFFFFFFFFFFFFFFFFFF
310
F000FFFFFFFFFFFFFFFFFFFFFFFFFFFFFFFFFFFFFFFFFFFFFFFFFFFFFFFFFFFF
310
FFFFFFFFFFFFFFFFFFFFFFFFFFFFFFFFFFFFFFFFFFFFFFFFFFFFFFFFFFFFFFFF
310
FFFFFFFFFFFFFFFFFFFFFFFFFFFFFFFFFFFFFFFFFFFFFFFFF000FFFFFFFFFFFF
310
FFFFFFFFFFFFFFFFFFFFFFFFFFFFFFFFFFFFFFFFFFFFFFFFFFFFFFFFFFFFFFFF
310
FFFFFFFFFFFFFFFFFFFFFFFFFFFFFFFFFFFFFFFFFFFFFFFFFFFFFFFFFFFFFFFF
310
FFFFFFFFFFFFFFFFFFFFFFFFFFFFFFFFF000FFFFFFFFFFFFFFFFFFFFFFFFFFFF
310
FFFFFFFFFFFFFFFFFFFFFFFFFFFFFFFFFFFFFFFFFFFFFFFFFFFFFFFFFFFFFFFF
310
FFFFFFFFFFFFFFFFFFFFFFFFFFFFFFFFFFFFFFFFFFFFFFFFFFFFFFFFFFFFFFFF
310
FFFFFFFFFFFFFFFFF000FFFFF80003FFFFFFFFFFFFFFFFFFFFFFFFFFFFFFFFFF
310
FFFFF00007FFFFFFFFFF00007FFFFFF800000000000000007FFFFFFFFFFFFFFF
310
FFFFFFFC001FFFFFFFFFFFFFFC001FFFFFFFFFFFFFFFFFFFFFFFFFFE0007FFFF
310
F000FFFF8000007FFFFFFFF8000FFFFFC0007FFFFF80007FFFFF0000007FFFFF
310
FFF8000007FFFFF800000000000000007FFFFFF0001FFFFFFFFFFFC00001FFFF
310
FFFFFFFFC00001FFFFFFFF000000000003FFFFE000007FFFF000FFFE0000000F
310
FFFFFFF0000FFFFF80007FFFFF80007FFFFC0000001FFFFFFFC0000001FFFFF8
310
00000000000000007FFFFFF0001FFFFFFFFFFE0000003FFFFFFFFFFE0000003F
310
FFFFFF000000000003FFFF0000000FFFF000FFF800000003FFFFFFF00007FFFF
310
80007FFFFF80007FFFF000000007FFFFFF000000003FFFF80000000000000000
310
7FFFFFF0001FFFFFFFFFF80000000FFFFFFFFFF80000000FFFFFFF0000000000
310
03FFFC00000003FFF000FFE000000000FFFFFFF00007FFFF80003FFFFF80007F
310
FFC000000001FFFFFC000000001FFFF800000000000000007FFFFFF0001FFFFF
310
FFFFE000000003FFFFFFFFE000000003FFFFFF000000000003FFF000000000FF
310
F000FF80000000007FFFFFF00007FFFF80003FFFFF80007FFF8000000000FFFF
310
F80000000007FFF800000000000000007FFFFFF0001FFFFFFFFFC000000001FF
310
FFFFFFC000000001FFFFFF000000000003FFC0000000007FF000FF0000000000
310
3FFFFFE00007FFFF00003FFFFF80007FFE00000000003FFFF00000000003FFF8
310
00000000000000007FFFFFF0001FFFFFFFFF8000000000FFFFFFFF8000000000
310
FFFFFF000000000003FF80000000003FF000FE00000000001FFFFFE00003FFFF
310
00003FFFFF80007FFC00000000001FFFE00000000001FFF8000001FFFE000000
310
7FFFFFF0001FFFFFFFFE00000000003FFFFFFE00000000003FFFFF0000000000
310
03FF00000000001FF000FC00000000000FFFFFE00003FFFF00001FFFFF80007F
310
F800000000001FFFC00000000000FFF8000001FFFE0000007FFFFFF0001FFFFF
310
FFFC00000000001FFFFFFC00000000001FFFFF000000000003FE00000000000F
310
F000F8000000000007FFFFE00003FFFF00001FFFFF80007FF800000000000FFF
310
800000000000FFF8000001FFFE0000007FFFFFF0001FFFFFFFF800000000000F
310
FFFFF800000000000FFFFF000000000003FC000000000007F000F80000000000
310
03FFFFC00003FFFE00001FFFFF80007FF0000000000007FF0000000000007FF8
310
000001FFFE0000007FFFFFF0001FFFFFFFF0000000000007FFFFF00000000000
310
07FFFF000000000003F8000000000003F000F0000000000003FFFFC00001FFFE
310
00001FFFFF80007FE0000000000007FE0000000000003FF8000001FFFE000000
310
7FFFFFF0001FFFFFFFF0000000000007FFFFF0000000000007FFFF0000000000
310
03F800001F800003F000E00001FFF00001FFFFC00001FFFE00000FFFFF80007F
310
E00001FFE00003FE00001FFF00003FF8000001FFFE0000007FFFFFF0001FFFFF
310
FFE000003E000003FFFFE000003E000003FFFF000000000003F00001FFF80001
310
F000E00007FFFC0001FFFFC00001FFFE00000FFFFF80007FC0000FFFFC0003FC
310
0000FFFFC0001FF8000001FFFE0000007FFFFFF0001FFFFFFFC00003FFE00001
310
FFFFC00003FFE00001FFFF0001FFFFFFFFF00007FFFE0001F000E0000FFFFF00
310
00FFFF800001FFFC00000FFFFF80007FC0001FFFFE0001FC0001FFFFE0001FF8
310
000001FFFE0000007FFFFFF0001FFFFFFF80000FFFF80000FFFF80000FFFF800
310
00FFFF0003FFFFFFFFE0000FFFFF8000F000C0003FFFFF8000FFFF800000FFFC
310
000007FFFF80007F80003FFFFF0001FC0003FFFFF0001FF8000001FFFE000000
310
7FFFFFF0001FFFFFFF80003FFFFE0000FFFF80003FFFFE0000FFFF0003FFFFFF
310
FFE0003FFFFF8000F000C0003FFFFF8000FFFF800000FFFC000007FFFF80007F
310
80007FFFFF8001F80007FFFFF8000FF8000001FFFE0000007FFFFFF0001FFFFF
310
FF00007FFFFF00007FFF00007FFFFF00007FFF0003FFFFFFFFE0003FFFFFC000
310
F000C0007FFFFFC000FFFF000000FFFC000007FFFF80007F8000FFFFFF8000F8
310
000FFFFFF8000FF8000001FFFE0000007FFFFFF0001FFFFFFF0000FFFFFF8000
310
7FFF0000FFFFFF80007FFF0003FFFFFFFFC0007FFFFFC00070008000FFFFFFC0
310
00FFFF000000FFF8000007FFFF80007F8000FFFFFF8000F8000FFFFFF8000FF8
310
000001FFFE0000007FFFFFF0001FFFFFFE0001FFFFFFC0003FFE0001FFFFFFC0
310
003FFF0003FFFFFFFFC0007FFFFFE00070008000FFFFFFC0007FFF0000007FF8
310
000003FFFF80007F0001FFFFFF8000F8000FFFFFF8000FF8000001FFFE000000
310
7FFFFFF0001FFFFFFE0001FFFFFFC0003FFE0001FFFFFFC0003FFF0003FFFFFF
310
FFC000FFFFFFE00070008000FFFFFFC0007FFF0000007FF8000003FFFF80007F
310
0001FFFFFF8000F8001FFFFFF8000FF8000001FFFE0000007FFFFFF0001FFFFF
310
FE0003FFFFFFE0003FFE0003FFFFFFE0003FFF0003FFFFFFFFC000FFFFFFE000
310
70008000FFFFFFC0007FFE0000007FF8000003FFFF80007F0001FFFFFF8000F0
310
001FFFFFF8000FF8000001FFFE0000007FFFFFF0001FFFFFFC0003FFFFFFE000
310
1FFC0003FFFFFFE0001FFF0003FFFFFFFFC000FFFFFFC00070008000FFFFFF80
310
007FFE0000007FF0000003FFFF80007F0001FFFFFF0000F0001FFFFFF8000FF8
310
000001FFFE0000007FFFFFF0001FFFFFFC0007FFFFFFF0001FFC0007FFFFFFF0
310
001FFF0003FFFFFFFFC000FFFFFFC00070008001FFFFFF0000FFFE0000003FF0
310
000001FFFF80007F0001FFFFFF0000F8001FFFFFF0000FF8000001FFFE000000
310
7FFFFFF0001FFFFFFC0007FFFFFFF0001FFC0007FFFFFFF0001FFF0003FFFFFF
310
FFC001FFFFFF80007000FFFFFFFFFE0000FFFE0008003FF0008001FFFF80007F
310
FFFFFFFFFC0000FFFFFFFFFFE0000FF8000001FFFE0000007FFFFFF0001FFFFF
310
F8000FFFFFFFF8000FF8000FFFFFFFF8000FFF0003FFFFFFFFFFFFFFFFFF0000
310
7000FFFFFFFFFC0000FFFC0008003FF0008001FFFF80007FFFFFFFFFF80001FF
310
FFFFFFFF80000FF8000001FFFE0000007FFFFFF0001FFFFFF8000FFFFFFFF800
310
0FF8000FFFFFFFF8000FFF0003FFFFFFFFFFFFFFFFFE0000F000FFFFFFFFE000
310
00FFFC000C003FE000C001FFFF80007FFFFFFFFFC00001FFFFFFFFFE00001FF8
310
000001FFFE0000007FFFFFF0001FFFFFF8000FFFFFFFF8000FF8000FFFFFFFF8
310
000FFF0003FFFFFFFFFFFFFFFFF00000F000FFFFFFFE000001FFFC000C001FE0
310
00C000FFFF80007FFFFFFFFE000001FFFFFFFFE000001FF80FFFFFFFFFFFFFC0
310
7FFFFFF0001FFFFFF8000FFFFFFFF8000FF8000FFFFFFFF8000FFF0003FFFFFF
310
FFFFFFFFFF800000F000FFFFFFC0000001FFFC001C001FE001C000FFFF80007F
310
FFFFFF80000003FFFFFFF80000001FF80FFFFFFFFFFFFFC07FFFFFF0001FFFFF
310
F8001FFFFFFFFC000FF8001FFFFFFFFC000FFF0003FFFFFFFFFFFFFFF0000001
310
F000FFFFF800000001FFF8001C001FE001C000FFFF80007FFFFFF800000003FF
310
FFFF800000003FF80FFFFFFFFFFFFFC07FFFFFF0001FFFFFF8001FFFFFFFFC00
310
0FF8001FFFFFFFFC000FFF0003FFFFFFFFFFFFFE00000001F000FFFFC0000000
310
03FFF8001E001FC001E000FFFF80007FFFFF8000000007FFFFFC000000003FF8
310
0FFFFFFFFFFFFFC07FFFFFF0001FFFFFF8001FFFFFFFFC000FF8001FFFFFFFFC
310
000FFF0003FFFFFFFFFFFFE000000003F000FFFE0000000007FFF8001E000FC0
310
01E0007FFF80007FFFFE0000000007FFFFE0000000007FF80FFFFFFFFFFFFFC0
310
7FFFFFF0001FFFFFF0001FFFFFFFFC0007F0001FFFFFFFFC0007FF0003FFFFFF
310
FFFFFF0000000003F000FFF80000000007FFF8001E000FC003E0007FFF80007F
310
FFF0000000000FFFFF8000000000FFF80FFFFFFFFFFFFFC07FFFFFF0001FFFFF
310
F0001FFFFFFFFC0007F0001FFFFFFFFC0007FF0003FFFFFFFFFFFC0000000007
310
F000FFE0000000000FFFF0003E000FC003E0007FFF80007FFFC0000000001FFF
310
FE0000000001FFF80FFFFFFFFFFFFFC07FFFFFF0001FFFFFF0001FFFFFFFFC00
310
07F0001FFFFFFFFC0007FF0003FFFFFFFFFFF0000000000FF000FFC000000000
310
1FFFF0003F000F8003F0003FFF80007FFF80000000003FFFF80000000003FFF8
310
0FFFFFFFFFFFFFC07FFFFFF0001FFFFFF0001FFFFFFFFC0007F0001FFFFFFFFC
310
0007FF0003FFFFFFFFFFE0000000001FF000FF00000000007FFFF0003F000780
310
03F0003FFF80007FFF00000000007FFFF00000000007FFF80FFFFFFFFFFFFFC0
310
7FFFFFF0001FFFFFF0001FFFFFFFFC0007F0001FFFFFFFFC0007FF0003FFFFFF
310
FFFF80000000007FF000FE0000000000FFFFE0003F00078007F0003FFF80007F
310
FE0000000001FFFFE0000000001FFFF80FFFFFFFFFFFFFC07FFFFFF0001FFFFF
310
F0001FFFFFFFFC0007F0001FFFFFFFFC0007FF0003FFFFFFFFFF0000000000FF
310
F000FC0000000003FFFFE0007F00078007F0003FFF80007FFC0000000007FFFF
310
C0000000007FFFF80FFFFFFFFFFFFFC07FFFFFF0001FFFFFF8001FFFFFFFFC00
310
0FF8001FFFFFFFFC000FFF0003FFFFFFFFFE0000000003FFF000FC000000000F
310
FFFFE0007F80070007F8001FFF80007FF8000000001FFFFF8000000001FFFFF8
310
0FFFFFFFFFFFFFC07FFFFFF0001FFFFFF8001FFFFFFFFC000FF8001FFFFFFFFC
310
000FFF0003FFFFFFFFFC000000000FFFF000F8000000007FFFFFE0007F800700
310
07F8001FFF80007FF000000000FFFFFF800000000FFFFFF80FFFFFFFFFFFFFC0
310
7FFFFFF0001FFFFFF8000FFFFFFFF8000FF8000FFFFFFFF8000FFF0003FFFFFF
310
FFFC000000007FFFF000F800000007FFFFFFC0007F8003000FF8001FFF80007F
310
F000000007FFFFFF000000007FFFFFF80FFFFFFFFFFFFFC07FFFFFF0001FFFFF
310
F8000FFFFFFFF8000FF8000FFFFFFFF8000FFF0003FFFFFFFFF80000000FFFFF
310
F000F0000000FFFFFFFFC000FF8003000FF8001FFF80007FE0000000FFFFFFFF
310
0000000FFFFFFFF8000001FFFE0000007FFFFFF0001FFFFFF8000FFFFFFFF800
310
0FF8000FFFFFFFF8000FFF0003FFFFFFFFF8000000FFFFFFF000F000000FFFFF
310
FFFFC000FFC002000FF8000FFF80007FE000001FFFFFFFFE000001FFFFFFFFF8
310
000001FFFE0000007FFFFFF0001FFFFFF8000FFFFFFFF8000FF8000FFFFFFFF8
310
000FFF0003FFFFFFFFF000001FFFFFFFF000E00000FFFFFFFFFFC000FFC00200
310
0FFC000FFF80007FE00001FFFFFFFFFE00001FFFFFFFFFF8000001FFFE000000
310
7FFFFFF0001FFFFFFC000FFFFFFFF8001FFC000FFFFFFFF8001FFF0003FFFFFF
310
FFF00001FFFFFFFFF000E00007FFFFFFFFFF8000FFC000001FFC000FFF80007F
310
C0000FFFFFFFFFFE0000FFFFFFFFFFF8000001FFFE0000007FFFFFF0001FFFFF
310
FC0007FFFFFFF0001FFC0007FFFFFFF0001FFF0003FFFFFFFFF00007FFFFFFFF
310
F000E0001FFFFFFFFFFF8000FFC000001FFC000FFF80007FC0003FFFFFFFFFFE
310
0001FFFFFFFFFFF8000001FFFE0000007FFFFFF0001FFFFFFC0007FFFFFFF000
310
1FFC0007FFFFFFF0001FFF0003FFFFFFFFF0001FFFFFFFFFF000E0003FFFFF00
310
03FF8001FFE000001FFC0007FF80007FC0007FFFFF0007FC0003FFFFF0003FF8
310
000001FFFE0000007FFFFFF0001FFFFFFC0003FFFFFFE0001FFC0003FFFFFFE0
310
001FFF0003FFFFFFFFF0003FFFFFFFFFF000E0003FFFFF0001FF8001FFE00000
310
1FFE0007FF80007FC0007FFFFE0003FC0007FFFFE0003FF8000001FFFE000000
310
7FFFFFF0001FFFFFFE0003FFFFFFE0003FFE0003FFFFFFE0003FFF0003FFFFFF
310
FFF0003FFFFF8001F000E0003FFFFF0001FF0001FFE000001FFE0007FF80007F
310
C0007FFFFE0003FC0007FFFFE0003FF8000001FFFE0000007FFFFFF0001FFFFF
310
FE0001FFFFFFC0003FFE0001FFFFFFC0003FFF0003FFFFFFFFF0003FFFFF0001
310
F000E0003FFFFF0003FF0001FFE000003FFE0007FF80007FC0007FFFFE0003FC
310
0007FFFFE0003FF8000001FFFE0000007FFFFFF0001FFFFFFF0001FFFFFFC000
310
7FFF0001FFFFFFC0007FFF0003FFFFFFFFF0003FFFFF0001F000E0003FFFFE00
310
03FF0003FFF000003FFE0003FF80007FC0007FFFFC0003FE0007FFFFE0003FF8
310
000001FFFE0000007FFFFFF0001FFFFFFF0000FFFFFF80007FFF0000FFFFFF80
310
007FFF0003FFFFFFFFF0003FFFFF0001F000E0003FFFFE0003FF0003FFF00000
310
3FFF0003FF80007FC0007FFFFC0007FE0007FFFFC0003FF8000001FFFE000000
310
7FFFFFF0001FFFFFFF80007FFFFF0000FFFF80007FFFFF0000FFFF0003FFFFFF
310
FFF0003FFFFF0003F000E0003FFFFC0003FE0003FFF000003FFF0003FF80007F
310
E0003FFFF80007FE0003FFFFC0007FF8000001FFFE0000007FFFFFF0001FFFFF
310
FF80003FFFFE0000FFFF80003FFFFE0000FFFF0003FFFFFFFFF0001FFFFE0003
310
F000F0001FFFF80003FE0003FFF000007FFF0001FF80007FE0003FFFF00007FE
310
0001FFFF80007FF8000001FFFE0000007FFFFFF0001FFFFFFFC0000FFFF80001
310
FFFFC0000FFFF80001FFFF0003FFFFFFFFF0001FFFFC0003F000F0000FFFF000
310
07FE0007FFF800007FFF0001FF80007FE0001FFFE00007FF0000FFFE00007FF8
310
000001FFFE0000007FFFFFF0001FFFFFFFC00003FFE00001FFFFC00003FFE000
310
01FFFF0003FFFFFFFFF8000FFFF80003F000F00003FFC00007FC0007FFF80000
310
7FFF8001FF80007FF00007FF80000FFF00007FF80000FFF8000001FFFE000000
310
7F80000000000001FFE000003E000003FFFFE000003E000003FFFF0003FFFFFF
310
FFF80003FFE00007F000F800000000000FFC0007FFF800007FFF8001FF80007F
310
F000000000000FFF000000000000FFF8000001FFFE0000007F80000000000001
310
FFF0000000000007FFFFF0000000000007FFFF0003FFFFFFFFFC00007E000007
310
F000F800000000000FFC0007FFF80000FFFF8000FF80007FF800000000001FFF
310
800000000001FFF8000001FFFE0000007F80000000000001FFF800000000000F
310
FFFFF800000000000FFFFF0003FFFFFFFFFC00000000000FF000FC0000000000
310
1FFC0007FFFC0000FFFF8000FF80007FF800000000003FFFC00000000001FFF8
310
000001FFFE0000007F80000000000001FFF800000000000FFFFFF80000000000
310
0FFFFF0003FFFFFFFFFE00000000001FF000FE00000000003FF8000FFFFC0000
310
FFFF8000FF80007FFC00000000003FFFC00000000003FFF8000001FFFE000000
310
7F80000000000001FFFC00000000001FFFFFFC00000000001FFFFF0003FFFFFF
310
FFFF00000000001FF000FF00000000003FF8000FFFFC0000FFFFC000FF80007F
310
FE00000000007FFFE00000000007FFF8000001FFFE0000007F80000000000001
310
FFFE00000000003FFFFFFE00000000003FFFFF0003FFFFFFFFFF80000000003F
310
F000FF80000000007FF8000FFFFC0001FFFFC0007F80007FFF0000000000FFFF
310
F0000000000FFFF800000000000000007F80000000000001FFFF8000000000FF
310
FFFFFF8000000000FFFFFF0003FFFFFFFFFFC0000000007FF000FFC000000000
310
FFF8000FFFFE0001FFFFC0007F80007FFF8000000001FFFFF8000000001FFFF8
310
00000000000000007F80000000000001FFFFC000000001FFFFFFFFC000000001
310
FFFFFF0003FFFFFFFFFFE000000000FFF000FFE000000003FFF0001FFFFE0001
310
FFFFC0007F80007FFFC000000007FFFFFE000000003FFFF80000000000000000
310
7F80000000000001FFFFE000000003FFFFFFFFE000000003FFFFFF0003FFFFFF
310
FFFFF000000003FFF000FFF80000000FFFF0001FFFFE0001FFFFE0007F80007F
310
FFF00000000FFFFFFF00000000FFFFF800000000000000007F80000000000001
310
FFFFF80000000FFFFFFFFFF80000000FFFFFFF0003FFFFFFFFFFFC0000000FFF
310
F000FFFE0000003FFFF0001FFFFE0003FFFFE0003F80007FFFFC0000003FFFFF
310
FFC0000003FFFFF800000000000000007F80000000000001FFFFFE0000003FFF
310
FFFFFFFE0000003FFFFFFF0003FFFFFFFFFFFF0000003FFFF000FFFF800000FF
310
FFF0001FFFFF0003FFFFE0003F80007FFFFF000001FFFFFFFFF800001FFFFFF8
310
00000000000000007F80000000000001FFFFFFC00001FFFFFFFFFFFFC00001FF
310
FFFFFF0003FFFFFFFFFFFFC00000FFFFF000FFFFF8000FFFFFFFFFFFFFFFFFFF
310
FFFFFFFFFFFFFFFFFFFFF0001FFFFFFFFFFF0000FFFFFFF80000000000000000
310
7FFFFFFFFFFFFFFFFFFFFFFC001FFFFFFFFFFFFFFC001FFFFFFFFFFFFFFFFFFF
310
FFFFFFFC001FFFFFF000FFFFFFFFFFFFFFFFFFFFFFFFFFFFFFFFFFFFFFFFFFFF
310
FFFFFFFFFFFFFFFFFFFFFFFFFFFFFFFFFFFFFFFFFFFFFFFFFFFFFFFFFFFFFFFF
310
FFFFFFFFFFFFFFFFFFFFFFFFFFFFFFFFFFFFFFFFFFFFFFFFFFFFFFFFFFFFFFFF
310
F000FFFFFFFFFFFFFFFFFFFFFFFFFFFFFFFFFFFFFFFFFFFFFFFFFFFFFFFFFFFF
310
FFFFFFFFFFFFFFFFFFFFFFFFFFFFFFFFFFFFFFFFFFFFFFFFFFFFFFFFFFFFFFFF
310
FFFFFFFFFFFFFFFFFFFFFFFFFFFFFFFFFFFFFFFFFFFFFFFFF000FFFFFFFFFFFF
310
FFFFFFFFFFFFFFFFFFFFFFFFFFFFFFFFFFFFFFFFFFFFFFFFFFFFFFFFFFFFFFFF
310
FFFFFFFFFFFFFFFFFFFFFFFFFFFFFFFFFFFFFFFFFFFFFFFFFFFFFFFFFFFFFFFF
310
FFFFFFFFFFFFFFFFFFFFFFFFFFFFFFFFF000FFFFFFFFFFFFFFFFFFFFFFFFFFFF
310
FFFFFFFFFFFFFFFFFFFFFFFFFFFFFFFFFFFFFFFFFFFFFFFFFFFFFFFFFFFFFFFF
310
FFFFFFFFFFFFFFFFFFFFFFFFFFFFFFFFFFFFFFFFFFFFFFFFFFFFFFFFFFFFFFFF
310
FFFFFFFFFFFFFFFFF000FFFFFFFFFFFFFFFFFFFFFFFFFFFFFFFFFFFFFFFFFFFF
310
FFFFFFFFFFFFFFFFFFFFFFFFFFFFFFFFFFFFFFFFFFFFFFFFFFFFFFFFFFFFFFFF
310
FFFFFFFFFFFFFFFFFFFFFFFFFFFFFFFFFFFFFFFFFFFFFFFFFFFFFFFFFFFFFFFF
310
F000FFFFFFFFFFFFFFFFFFFFFFFFFFFFFFFFFFFFFFFFFFFFFFFFFFFFFFFFFFFF
310
FFFFFFFFFFFFFFFFFFFFFFFFFFFFFFFFFFFFFFFFFFFFFFFFFFFFFFFFFFFFFFFF
310
FFFFFFFFFFFFFFFFFFFFFFFFFFFFFFFFFFFFFFFFFFFFFFFFF000FFFFFFFFFFFF
310
FFFFFFFFFFFFFFFFFFFFFFFFFFFFFFFFFFFFFFFFFFFFFFFFFFFFFFFFFFFFFFFF
310
FFFFFFFFFFFFFFFFFFFFFFFFFFFFFFFFFFFFFFFFFFFFFFFFFFFFFFFFFFFFFFFF
310
FFFFFFFFFFFFFFFFFFFFFFFFFFFFFFFFF000FFFFFFFFFFFFFFFFFFFFFFFFFFFF
310
FFFFFFFFFFFFFFFFFFFFFFFFFFFFFFFFFFFFFFFFFFFFFFFFFFFFFFFFFFFFFFFF
310
FFFFFFFFFFFFFFFFFFFFFFFFFFFFFFFFFFFFFFFFFFFFFFFFFFFFFFFFFFFFFFFF
310
FFFFFFFFFFFFFFFFF000FFFFFFFFFFFFFFFFFFFFFFFFFFFFFFFFFFFFFFFFFFFF
310
FFFFFFFFFFFFFFFFFFFFFFFFFFFFFFFFFFFFFFFFFFFFFFFFFFFFFFFFFFFFFFFF
310
FFFFFFFFFFFFFFFFFFFFFFFFFFFFFFFFFFFFFFFFFFFFFFFFFFFFFFFFFFFFFFFF
310
F000FFFFFFFFFFFFFFFFFFFFFFFFFFFFFFFFFFFFFFFFFFFFFFFFFFFFFFFFFFFF
310
FFFFFFFFFFFFFFFFFFFFFFFFFFFFFFFFFFFFFFFFFFFFFFFFFFFFFFFFFFFFFFFF
310
FFFFFFFFFFFFFFFFFFFFFFFFFFFFFFFFFFFFFFFFFFFFFFFFF000FFFFFFFFFFFF
310
FFFFFFFFFFFFFFFFFFFFFFFFFFFFFFFFFFFFFFFFFFFFFFFFFFFFFFFFFFFFFFFF
310
FFFFFFFFFFFFFFFFFFFFFFFFFFFFFFFFFFFFFFFFFFFFFFFFFFFFFFFFFFFFFFFF
310
FFFFFFFFFFFFFFFFFFFFFFFFFFFFFFFFF000FFFFFFFFFFFFFFFFFFFFFFFFFFFF
310
FFFFFFFFFFFFFFFFFFFFFFFFFFFFFFFFFFFFFFFFFFFFFFFFFFFFFFFFFFFFFFFF
310
FFFFFFFFFFFFFFFFFFFFFFFFFFFFFFFFFFFFFFFFFFFFFFFFFFFFFFFFFFFFFFFF
310
FFFFFFFFFFFFFFFFF000FFFFFFFFFFFFFFFFFFFFFFFFFFFFFFFFFFFFFFFFFFFF
310
FFFFFFFFFFFFFFFFFFFFFFFFFFFFFFFFFFFFFFFFFFFFFFFFFFFFFFFFFFFFFFFF
310
FFFFFFFFFFFFFFFFFFFFFFFFFFFFFFFFFFFFFFFFFFFFFFFFFFFFFFFFFFFFFFFF
310
F000FFFFFFFFFFFFFFFFFFFFFFFFFFFFFFFFFFFFFFFFFFFFFFFFFFFFFFFFFFFF
310
FFFFFFFFFFFFFFFFFFFFFFFFFFFFFFFFFFFFFFFFFFFFFFFFFFFFFFFFFFFFFFFF
310
FFFFFFFFFFFFFFFFFFFFFFFFFFFFFFFFFFFFFFFFFFFFFFFFF000FFFFFFFFFFFF
310
FFFFFFFFFFFFFFFFFFFFFFFFFFFFFFFFFFFFFFFFFFFFFFFFFFFFFFFFFFFFFFFF
310
FFFFFFFFFFFFFFFFFFFFFFFFFFFFFFFFFFFFFFFFFFFFFFFFFFFFFFFFFFFFFFFF
310
FFFFFFFFFFFFFFFFFFFFFFFFFFFFFFFFF000FFFFFFFFFFFFFFFFFFFFFFFFFFFF
310
FFFFFFFFFFFFFFFFFFFFFFFFFFFFFFFFFFFFFFFFFFFFFFFFFFFFFFFFFFFFFFFF
310
FFFFFFFFFFFFFFFFFFFFFFFFFFFFFFFFFFFFFFFFFFFFFFFFFFFFFFFFFFFFFFFF
310
FFFFFFFFFFFFFFFFF000FFFFFFFFFFFFFFFFFFFFFFFFFFFFFFFFFFFFFFFFFFFF
310
FFFFFFFFFFFFFFFFFFFFFFFFFFFFFFFFFFFFFFFFFFFFFFFFFFFFFFFFFFFFFFFF
310
FFFFFFFFFFFFFFFFFFFFFFFFFFFFFFFFFFFFFFFFFFFFFFFFFFFFFFFFFFFFFFFF
310
F000FFFFFFFFFFFFFFFFFFFFFFFFFFFFFFFFFFFFFFFFFFFFFFFFFFFFFFFFFFFF
310
FFFFFFFFFFFFFFFFFFFFFFFFFFFFFFFFFFFFFFFFFFFFFFFFFFFFFFFFFFFFFFFF
310
FFFFFFFFFFFFFFFFFFFFFFFFFFFFFFFFFFFFFFFFFFFFFFFFF000FFFFFFFFFFFF
310
FFFFFFFFFFFFFFFFFFFFFFFFFFFFFFFFFFFFFFFFFFFFFFFFFFFFFFFFFFFFFFFF
310
FFFFFFFFFFFFFFFFFFFFFFFFFFFFFFFFFFFFFFFFFFFFFFFFFFFFFFFFFFFFFFFF
310
FFFFFFFFFFFFFFFFFFFFFFFFFFFFFFFFF000FFFFFFFFFFFFFFFFFFFFFFFFFFFF
310
FFFFFFFFFFFFFFFFFFFFFFFFFFFFFFFFFFFFFFFFFFFFFFFFFFFFFFFFFFFFFFFF
310
FFFFFFFFFFFFFFFFFFFFFFFFFFFFFFFFFFFFFFFFFFFFFFFFFFFFFFFFFFFFFFFF
310
FFFFFFFFFFFFFFFFF000FFFFFFFFFFFFFFFFFFFFFFFFFFFFFFFFFFFFFFFFFFFF
310
FFFFFFFFFFFFFFFFFFFFFFFFFFFFFFFFFFFFFFFFFFFFFFFFFFFFFFFFFFFFFFFF
310
FFFFFFFFFFFFFFFFFFFFFFFFFFFFFFFFFFFFFFFFFFFFFFFFFFFFFFFFFFFFFFFF
310
F000FFFFFFFFFFFFFFFFFFFFFFFFFFFFFFFFFFFFFFFFFFFFFFFFFFFFFFFFFFFF
310
FFFFFFFFFFFFFFFFFFFFFFFFFFFFFFFFFFFFFFFFFFFFFFFFFFFFFFFFFFFFFFFF
310
FFFFFFFFFFFFFFFFFFFFFFFFFFFFFFFFFFFFFFFFFFFFFFFFF000FFFFFFFFFFFF
310
FFFFFFFFFFFFFFFFFFFFFFFFFFFFFFFFFFFFFFFFFFFFFFFFFFFFFFFFFFFFFFFF
310
FFFFFFFFFFFFFFFFFFFFFFFFFFFFFFFFFFFFFFFFFFFFFFFFFFFFFFFFFFFFFFFF
310
FFFFFFFFFFFFFFFFFFFFFFFFFFFFFFFFF0000000000000000000000000000000
310
0000000000000000000000000000000000000000000000000000000000000000
310
0000000000000000000000000000000000000000000000000000000000000000
310
0000000000000000000000000000000000000000000000000000000000000000
310
0000000000000000000000000000000000000000000000000000000000000000
310
0000000000000000000000000000000000000000000000000000000000000000
310
0000000000000000000000000000000000000000000000000000000000000000
310
0000000000000000000000000000000000000000000000000000000000000000
310
0000000000000000000000000000000000000000000000000000000000000000
310
0000000000000000000000000000000000000000000000000000000000000000
310
0000000000000000000000000000000000000000000000000000000000000000
310
0000000000000000000000000000000000000000000000000000000000000000
310
0000000000000000000000000000000000000000000000000000000000000000
310
0000000000000000000000000000000000000000000000000000000000000000
310
0000000000000000000000000000000000000000000000000000000000000000
310
0000000000000000000000000000000000000000000000000000000000000000
  1
OLE
  0
ENDSEC
  0
SECTION
  2
OBJECTS
  0
DICTIONARY
  5
C
330
0
100
AcDbDictionary
281
     1
  3
ACAD_GROUP
350
D
  3
ACAD_LAYOUT
350
1A
  3
ACAD_MLINESTYLE
350
17
  3
ACAD_PLOTSETTINGS
350
19
  3
ACAD_PLOTSTYLENAME
350
E
  3
ACAD_SCALELIST
350
47
  0
DICTIONARY
  5
D
102
{ACAD_REACTORS
330
C
102
}
330
C
100
AcDbDictionary
281
     1
  0
DICTIONARY
  5
1A
102
{ACAD_REACTORS
330
C
102
}
330
C
100
AcDbDictionary
281
     1
  3
Layout1
350
1E
  3
Layout2
350
26
  3
Model
350
22
  0
DICTIONARY
  5
17
102
{ACAD_REACTORS
330
C
102
}
330
C
100
AcDbDictionary
281
     1
  3
Standard
350
18
  0
DICTIONARY
  5
19
102
{ACAD_REACTORS
330
C
102
}
330
C
100
AcDbDictionary
281
     1
  0
ACDBDICTIONARYWDFLT
  5
E
102
{ACAD_REACTORS
330
C
102
}
330
C
100
AcDbDictionary
281
     1
  3
Normal
350
F
100
AcDbDictionaryWithDefault
340
F
  0
DICTIONARY
  5
47
102
{ACAD_REACTORS
330
C
102
}
330
C
100
AcDbDictionary
281
     1
  3
A0
350
48
  3
A1
350
49
  3
A2
350
4A
  3
A3
350
4B
  3
A4
350
4C
  3
A5
350
4D
  3
A6
350
4E
  3
A7
350
4F
  3
A8
350
50
  3
A9
350
51
  3
B0
350
52
  3
B1
350
53
  3
B2
350
54
  3
B3
350
55
  3
B4
350
56
  3
B5
350
57
  3
B6
350
58
  3
B7
350
59
  3
B8
350
5A
  3
B9
350
5B
  3
C0
350
5C
  3
C1
350
5D
  3
C2
350
5E
  3
C3
350
5F
  3
C4
350
60
  3
C5
350
61
  3
C6
350
62
  3
C7
350
63
  3
C8
350
64
  3
C9
350
65
  3
D0
350
66
  3
D1
350
67
  3
D2
350
68
  0
LAYOUT
  5
1E
102
{ACAD_REACTORS
330
1A
102
}
330
1A
100
AcDbPlotSettings
  1

  2
none_device
  4

  6

 40
0.0
 41
0.0
 42
0.0
 43
0.0
 44
0.0
 45
0.0
 46
0.0
 47
0.0
 48
0.0
 49
0.0
140
0.0
141
0.0
142
1.0
143
1.0
 70
   688
 72
     1
 73
     0
 74
     5
  7

 75
    16
147
1.0
148
0.0
149
0.0
100
AcDbLayout
  1
Layout1
 70
     1
 71
     1
 10
0.0
 20
0.0
 11
420.0
 21
297.0
 12
0.0
 22
0.0
 32
0.0
 14
1.0000000000E+20
 24
1.0000000000E+20
 34
1.0000000000E+20
 15
-1.0000000000E+20
 25
-1.0000000000E+20
 35
-1.0000000000E+20
146
0.0
 13
0.0
 23
0.0
 33
0.0
 16
1.0
 26
0.0
 36
0.0
 17
0.0
 27
1.0
 37
0.0
 76
     0
330
1B
  0
LAYOUT
  5
26
102
{ACAD_REACTORS
330
1A
102
}
330
1A
100
AcDbPlotSettings
  1

  2
none_device
  4

  6

 40
0.0
 41
0.0
 42
0.0
 43
0.0
 44
0.0
 45
0.0
 46
0.0
 47
0.0
 48
0.0
 49
0.0
140
0.0
141
0.0
142
1.0
143
1.0
 70
   688
 72
     1
 73
     0
 74
     5
  7

 75
    16
147
1.0
148
0.0
149
0.0
100
AcDbLayout
  1
Layout2
 70
     1
 71
     2
 10
0.0
 20
0.0
 11
0.0
 21
0.0
 12
0.0
 22
0.0
 32
0.0
 14
0.0
 24
0.0
 34
0.0
 15
0.0
 25
0.0
 35
0.0
146
0.0
 13
0.0
 23
0.0
 33
0.0
 16
1.0
 26
0.0
 36
0.0
 17
0.0
 27
1.0
 37
0.0
 76
     0
330
23
  0
LAYOUT
  5
22
102
{ACAD_REACTORS
330
1A
102
}
330
1A
100
AcDbPlotSettings
  1

  2
none_device
  4
Letter_(8.50_x_11.00_Inches)
  6

 40
6.35
 41
6.35
 42
6.35000508
 43
6.35000508
 44
215.9
 45
279.4
 46
0.0
 47
0.0
 48
0.0
 49
0.0
140
0.0
141
0.0
142
1.0
143
1.0
 70
  1712
 72
     1
 73
     0
 74
     0
  7

 75
     0
147
1.0
148
0.0
149
0.0
100
AcDbLayout
  1
Model
 70
     1
 71
     0
 10
0.0
 20
0.0
 11
297.0
 21
210.0
 12
0.0
 22
0.0
 32
0.0
 14
0.0
 24
0.0
 34
0.0
 15
297.0
 25
210.0
 35
0.0
146
0.0
 13
0.0
 23
0.0
 33
0.0
 16
1.0
 26
0.0
 36
0.0
 17
0.0
 27
1.0
 37
0.0
 76
     0
330
1F
331
29
  0
MLINESTYLE
  5
18
102
{ACAD_REACTORS
330
17
102
}
330
17
100
AcDbMlineStyle
  2
Standard
 70
     0
  3

 62
   256
 51
90.0
 52
90.0
 71
     2
 49
0.5
 62
   256
  6
BYLAYER
 49
-0.5
 62
   256
  6
BYLAYER
  0
ACDBPLACEHOLDER
  5
F
102
{ACAD_REACTORS
330
E
102
}
330
E
  0
SCALE
  5
48
102
{ACAD_REACTORS
330
47
102
}
330
47
100
AcDbScale
 70
     0
300
1:1
140
1.0
141
1.0
290
     1
  0
SCALE
  5
49
102
{ACAD_REACTORS
330
47
102
}
330
47
100
AcDbScale
 70
     0
300
1:2
140
1.0
141
2.0
290
     0
  0
SCALE
  5
4A
102
{ACAD_REACTORS
330
47
102
}
330
47
100
AcDbScale
 70
     0
300
1:4
140
1.0
141
4.0
290
     0
  0
SCALE
  5
4B
102
{ACAD_REACTORS
330
47
102
}
330
47
100
AcDbScale
 70
     0
300
1:5
140
1.0
141
5.0
290
     0
  0
SCALE
  5
4C
102
{ACAD_REACTORS
330
47
102
}
330
47
100
AcDbScale
 70
     0
300
1:8
140
1.0
141
8.0
290
     0
  0
SCALE
  5
4D
102
{ACAD_REACTORS
330
47
102
}
330
47
100
AcDbScale
 70
     0
300
1:10
140
1.0
141
10.0
290
     0
  0
SCALE
  5
4E
102
{ACAD_REACTORS
330
47
102
}
330
47
100
AcDbScale
 70
     0
300
1:16
140
1.0
141
16.0
290
     0
  0
SCALE
  5
4F
102
{ACAD_REACTORS
330
47
102
}
330
47
100
AcDbScale
 70
     0
300
1:20
140
1.0
141
20.0
290
     0
  0
SCALE
  5
50
102
{ACAD_REACTORS
330
47
102
}
330
47
100
AcDbScale
 70
     0
300
1:30
140
1.0
141
30.0
290
     0
  0
SCALE
  5
51
102
{ACAD_REACTORS
330
47
102
}
330
47
100
AcDbScale
 70
     0
300
1:40
140
1.0
141
40.0
290
     0
  0
SCALE
  5
52
102
{ACAD_REACTORS
330
47
102
}
330
47
100
AcDbScale
 70
     0
300
1:50
140
1.0
141
50.0
290
     0
  0
SCALE
  5
53
102
{ACAD_REACTORS
330
47
102
}
330
47
100
AcDbScale
 70
     0
300
1:100
140
1.0
141
100.0
290
     0
  0
SCALE
  5
54
102
{ACAD_REACTORS
330
47
102
}
330
47
100
AcDbScale
 70
     0
300
2:1
140
2.0
141
1.0
290
     0
  0
SCALE
  5
55
102
{ACAD_REACTORS
330
47
102
}
330
47
100
AcDbScale
 70
     0
300
4:1
140
4.0
141
1.0
290
     0
  0
SCALE
  5
56
102
{ACAD_REACTORS
330
47
102
}
330
47
100
AcDbScale
 70
     0
300
8:1
140
8.0
141
1.0
290
     0
  0
SCALE
  5
57
102
{ACAD_REACTORS
330
47
102
}
330
47
100
AcDbScale
 70
     0
300
10:1
140
10.0
141
1.0
290
     0
  0
SCALE
  5
58
102
{ACAD_REACTORS
330
47
102
}
330
47
100
AcDbScale
 70
     0
300
100:1
140
100.0
141
1.0
290
     0
  0
SCALE
  5
59
102
{ACAD_REACTORS
330
47
102
}
330
47
100
AcDbScale
 70
     0
300
1/128" = 1'-0"
140
0.0078125
141
12.0
290
     0
  0
SCALE
  5
5A
102
{ACAD_REACTORS
330
47
102
}
330
47
100
AcDbScale
 70
     0
300
1/64" = 1'-0"
140
0.015625
141
12.0
290
     0
  0
SCALE
  5
5B
102
{ACAD_REACTORS
330
47
102
}
330
47
100
AcDbScale
 70
     0
300
1/32" = 1'-0"
140
0.03125
141
12.0
290
     0
  0
SCALE
  5
5C
102
{ACAD_REACTORS
330
47
102
}
330
47
100
AcDbScale
 70
     0
300
1/16" = 1'-0"
140
0.0625
141
12.0
290
     0
  0
SCALE
  5
5D
102
{ACAD_REACTORS
330
47
102
}
330
47
100
AcDbScale
 70
     0
300
3/32" = 1'-0"
140
0.09375
141
12.0
290
     0
  0
SCALE
  5
5E
102
{ACAD_REACTORS
330
47
102
}
330
47
100
AcDbScale
 70
     0
300
1/8" = 1'-0"
140
0.125
141
12.0
290
     0
  0
SCALE
  5
5F
102
{ACAD_REACTORS
330
47
102
}
330
47
100
AcDbScale
 70
     0
300
3/16" = 1'-0"
140
0.1875
141
12.0
290
     0
  0
SCALE
  5
60
102
{ACAD_REACTORS
330
47
102
}
330
47
100
AcDbScale
 70
     0
300
1/4" = 1'-0"
140
0.25
141
12.0
290
     0
  0
SCALE
  5
61
102
{ACAD_REACTORS
330
47
102
}
330
47
100
AcDbScale
 70
     0
300
3/8" = 1'-0"
140
0.375
141
12.0
290
     0
  0
SCALE
  5
62
102
{ACAD_REACTORS
330
47
102
}
330
47
100
AcDbScale
 70
     0
300
1/2" = 1'-0"
140
0.5
141
12.0
290
     0
  0
SCALE
  5
63
102
{ACAD_REACTORS
330
47
102
}
330
47
100
AcDbScale
 70
     0
300
3/4" = 1'-0"
140
0.75
141
12.0
290
     0
  0
SCALE
  5
64
102
{ACAD_REACTORS
330
47
102
}
330
47
100
AcDbScale
 70
     0
300
1" = 1'-0"
140
1.0
141
12.0
290
     0
  0
SCALE
  5
65
102
{ACAD_REACTORS
330
47
102
}
330
47
100
AcDbScale
 70
     0
300
1-1/2" = 1'-0"
140
1.5
141
12.0
290
     0
  0
SCALE
  5
66
102
{ACAD_REACTORS
330
47
102
}
330
47
100
AcDbScale
 70
     0
300
3" = 1'-0"
140
3.0
141
12.0
290
     0
  0
SCALE
  5
67
102
{ACAD_REACTORS
330
47
102
}
330
47
100
AcDbScale
 70
     0
300
6" = 1'-0"
140
6.0
141
12.0
290
     0
  0
SCALE
  5
68
102
{ACAD_REACTORS
330
47
102
}
330
47
100
AcDbScale
 70
     0
300
1'-0" = 1'-0"
140
12.0
141
12.0
290
     0
  0
ENDSEC
  0
EOF
