  0
SECTION
  2
HEADER
  9
$ACADVER
  1
AC1015
  9
$ACADMAINTVER
 70
     6
  9
$DWGCODEPAGE
  3
ANSI_1252
  9
$INSBASE
 10
0.0
 20
0.0
 30
0.0
  9
$EXTMIN
 10
0.0
 20
0.0
 30
0.0
  9
$EXTMAX
 10
297.0
 20
210.0
 30
0.0
  9
$LIMMIN
 10
0.0
 20
0.0
  9
$LIMMAX
 10
297.0
 20
210.0
  9
$ORTHOMODE
 70
     0
  9
$REGENMODE
 70
     1
  9
$FILLMODE
 70
     1
  9
$QTEXTMODE
 70
     0
  9
$MIRRTEXT
 70
     1
  9
$LTSCALE
 40
1.0
  9
$ATTMODE
 70
     1
  9
$TEXTSIZE
 40
2.0
  9
$TRACEWID
 40
1.0
  9
$TEXTSTYLE
  7
Standard
  9
$CLAYER
  8
0
  9
$CELTYPE
  6
ByLayer
  9
$CECOLOR
 62
   256
  9
$CELTSCALE
 40
1.0
  9
$DISPSILH
 70
     0
  9
$DIMSCALE
 40
1.0
  9
$DIMASZ
 40
3.0
  9
$DIMEXO
 40
0.0
  9
$DIMDLI
 40
3.75
  9
$DIMRND
 40
0.0
  9
$DIMDLE
 40
0.0
  9
$DIMEXE
 40
1.0
  9
$DIMTP
 40
0.0
  9
$DIMTM
 40
0.0
  9
$DIMTXT
 40
2.0
  9
$DIMCEN
 40
2.5
  9
$DIMTSZ
 40
0.0
  9
$DIMTOL
 70
     0
  9
$DIMLIM
 70
     0
  9
$DIMTIH
 70
     1
  9
$DIMTOH
 70
     1
  9
$DIMSE1
 70
     0
  9
$DIMSE2
 70
     0
  9
$DIMTAD
 70
     1
  9
$DIMZIN
 70
     0
  9
$DIMBLK
  1

  9
$DIMASO
 70
     1
  9
$DIMSHO
 70
     1
  9
$DIMPOST
  1

  9
$DIMAPOST
  1

  9
$DIMALT
 70
     0
  9
$DIMALTD
 70
     3
  9
$DIMALTF
 40
0.0393700787
  9
$DIMLFAC
 40
2.0
  9
$DIMTOFL
 70
     1
  9
$DIMTVP
 40
0.0
  9
$DIMTIX
 70
     0
  9
$DIMSOXD
 70
     0
  9
$DIMSAH
 70
     0
  9
$DIMBLK1
  1

  9
$DIMBLK2
  1

  9
$DIMSTYLE
  2
ISO-25
  9
$DIMCLRD
 70
     0
  9
$DIMCLRE
 70
     0
  9
$DIMCLRT
 70
     0
  9
$DIMTFAC
 40
1.0
  9
$DIMGAP
 40
1.524
  9
$DIMJUST
 70
     0
  9
$DIMSD1
 70
     0
  9
$DIMSD2
 70
     0
  9
$DIMTOLJ
 70
     0
  9
$DIMTZIN
 70
     0
  9
$DIMALTZ
 70
     0
  9
$DIMALTTZ
 70
     0
  9
$DIMUPT
 70
     0
  9
$DIMDEC
 70
     2
  9
$DIMTDEC
 70
     3
  9
$DIMALTU
 70
     2
  9
$DIMALTTD
 70
     3
  9
$DIMTXSTY
  7
Standard
  9
$DIMAUNIT
 70
     0
  9
$DIMADEC
 70
     2
  9
$DIMALTRND
 40
0.0
  9
$DIMAZIN
 70
     0
  9
$DIMDSEP
 70
    44
  9
$DIMATFIT
 70
     3
  9
$DIMFRAC
 70
     0
  9
$DIMLDRBLK
  1

  9
$DIMLUNIT
 70
     2
  9
$DIMLWD
 70
    -2
  9
$DIMLWE
 70
    -2
  9
$DIMTMOVE
 70
     0
  9
$LUNITS
 70
     2
  9
$LUPREC
 70
     2
  9
$SKETCHINC
 40
1.0
  9
$FILLETRAD
 40
10.0
  9
$AUNITS
 70
     0
  9
$AUPREC
 70
     2
  9
$MENU
  1
.
  9
$ELEVATION
 40
0.0
  9
$PELEVATION
 40
0.0
  9
$THICKNESS
 40
0.0
  9
$LIMCHECK
 70
     0
  9
$CHAMFERA
 40
0.0
  9
$CHAMFERB
 40
0.0
  9
$CHAMFERC
 40
0.0
  9
$CHAMFERD
 40
0.0
  9
$SKPOLY
 70
     0
  9
$TDCREATE
 40
2457673.460441736
  9
$TDUCREATE
 40
2457673.377108403
  9
$TDUPDATE
 40
2457673.460442882
  9
$TDUUPDATE
 40
2457673.377109549
  9
$TDINDWG
 40
0.0000000116
  9
$TDUSRTIMER
 40
0.0000000116
  9
$USRTIMER
 70
     1
  9
$ANGBASE
 50
0.0
  9
$ANGDIR
 70
     0
  9
$PDMODE
 70
     0
  9
$PDSIZE
 40
-1.0
  9
$PLINEWID
 40
0.0
  9
$SPLFRAME
 70
     0
  9
$SPLINETYPE
 70
     6
  9
$SPLINESEGS
 70
     8
  9
$HANDSEED
  5
214
  9
$SURFTAB1
 70
     6
  9
$SURFTAB2
 70
     6
  9
$SURFTYPE
 70
     6
  9
$SURFU
 70
     6
  9
$SURFV
 70
     6
  9
$UCSBASE
  2

  9
$UCSNAME
  2

  9
$UCSORG
 10
0.0
 20
0.0
 30
0.0
  9
$UCSXDIR
 10
1.0
 20
0.0
 30
0.0
  9
$UCSYDIR
 10
0.0
 20
1.0
 30
0.0
  9
$UCSORTHOREF
  2

  9
$UCSORTHOVIEW
 70
     0
  9
$UCSORGTOP
 10
0.0
 20
0.0
 30
0.0
  9
$UCSORGBOTTOM
 10
0.0
 20
0.0
 30
0.0
  9
$UCSORGLEFT
 10
0.0
 20
0.0
 30
0.0
  9
$UCSORGRIGHT
 10
0.0
 20
0.0
 30
0.0
  9
$UCSORGFRONT
 10
0.0
 20
0.0
 30
0.0
  9
$UCSORGBACK
 10
0.0
 20
0.0
 30
0.0
  9
$PUCSBASE
  2

  9
$PUCSNAME
  2

  9
$PUCSORG
 10
0.0
 20
0.0
 30
0.0
  9
$PUCSXDIR
 10
1.0
 20
0.0
 30
0.0
  9
$PUCSYDIR
 10
0.0
 20
1.0
 30
0.0
  9
$PUCSORTHOREF
  2

  9
$PUCSORTHOVIEW
 70
     0
  9
$PUCSORGTOP
 10
0.0
 20
0.0
 30
0.0
  9
$PUCSORGBOTTOM
 10
0.0
 20
0.0
 30
0.0
  9
$PUCSORGLEFT
 10
0.0
 20
0.0
 30
0.0
  9
$PUCSORGRIGHT
 10
0.0
 20
0.0
 30
0.0
  9
$PUCSORGFRONT
 10
0.0
 20
0.0
 30
0.0
  9
$PUCSORGBACK
 10
0.0
 20
0.0
 30
0.0
  9
$USERI1
 70
     0
  9
$USERI2
 70
     0
  9
$USERI3
 70
     0
  9
$USERI4
 70
     0
  9
$USERI5
 70
     0
  9
$USERR1
 40
0.0
  9
$USERR2
 40
0.0
  9
$USERR3
 40
0.0
  9
$USERR4
 40
0.0
  9
$USERR5
 40
0.0
  9
$WORLDVIEW
 70
     1
  9
$SHADEDGE
 70
     3
  9
$SHADEDIF
 70
    70
  9
$TILEMODE
 70
     1
  9
$MAXACTVP
 70
    64
  9
$PINSBASE
 10
0.0
 20
0.0
 30
0.0
  9
$PLIMCHECK
 70
     0
  9
$PEXTMIN
 10
1.0000000000E+20
 20
1.0000000000E+20
 30
1.0000000000E+20
  9
$PEXTMAX
 10
-1.0000000000E+20
 20
-1.0000000000E+20
 30
-1.0000000000E+20
  9
$PLIMMIN
 10
0.0
 20
0.0
  9
$PLIMMAX
 10
420.0
 20
297.0
  9
$UNITMODE
 70
     0
  9
$VISRETAIN
 70
     1
  9
$PLINEGEN
 70
     0
  9
$PSLTSCALE
 70
     1
  9
$TREEDEPTH
 70
  3020
  9
$CMLSTYLE
  2
Standard
  9
$CMLJUST
 70
     0
  9
$CMLSCALE
 40
20.0
  9
$PROXYGRAPHICS
 70
     1
  9
$MEASUREMENT
 70
     1
  9
$CELWEIGHT
370
    -1
  9
$ENDCAPS
280
     0
  9
$JOINSTYLE
280
     0
  9
$LWDISPLAY
290
     1
  9
$INSUNITS
 70
     4
  9
$HYPERLINKBASE
  1

  9
$STYLESHEET
  1

  9
$XEDIT
290
     1
  9
$CEPSNTYPE
380
     0
  9
$PSTYLEMODE
290
     1
  9
$FINGERPRINTGUID
  2
{E3527C93-045D-4C08-AEC6-C14F83DDBA4D}
  9
$VERSIONGUID
  2
{FAEB1C32-E019-11D5-929B-00C0DF256EC4}
  9
$EXTNAMES
290
     1
  9
$PSVPSCALE
 40
0.0
  9
$OLESTARTUP
290
     0
  0
ENDSEC
  0
SECTION
  2
CLASSES
  0
CLASS
  1
ACDBDICTIONARYWDFLT
  2
AcDbDictionaryWithDefault
  3
ObjectDBX Classes
 90
        0
280
     0
281
     0
  0
CLASS
  1
VISUALSTYLE
  2
AcDbVisualStyle
  3
ObjectDBX Classes
 90
     4095
280
     0
281
     0
  0
CLASS
  1
MATERIAL
  2
AcDbMaterial
  3
ObjectDBX Classes
 90
     1153
280
     0
281
     0
  0
CLASS
  1
SCALE
  2
AcDbScale
  3
ObjectDBX Classes
 90
     1153
280
     0
281
     0
  0
CLASS
  1
TABLESTYLE
  2
AcDbTableStyle
  3
ObjectDBX Classes
 90
     4095
280
     0
281
     0
  0
CLASS
  1
MLEADERSTYLE
  2
AcDbMLeaderStyle
  3
ACDB_MLEADERSTYLE_CLASS
 90
     4095
280
     0
281
     0
  0
CLASS
  1
SUN
  2
AcDbSun
  3
SCENEOE
 90
     1153
280
     0
281
     0
  0
CLASS
  1
ACDBPLACEHOLDER
  2
AcDbPlaceHolder
  3
ObjectDBX Classes
 90
        0
280
     0
281
     0
  0
CLASS
  1
LAYOUT
  2
AcDbLayout
  3
ObjectDBX Classes
 90
        0
280
     0
281
     0
  0
ENDSEC
  0
SECTION
  2
TABLES
  0
TABLE
  2
VPORT
  5
8
330
0
100
AcDbSymbolTable
 70
     1
  0
VPORT
  5
29
330
8
100
AcDbSymbolTableRecord
100
AcDbViewportTableRecord
  2
*Active
 70
     0
 10
0.0
 20
0.0
 11
1.0
 21
1.0
 12
148.5
 22
105.0
 13
0.0
 23
0.0
 14
10.0
 24
10.0
 15
10.0
 25
10.0
 16
0.0
 26
0.0
 36
1.0
 17
0.0
 27
0.0
 37
0.0
 40
210.0
 41
1.4142857143
 42
50.0
 43
0.0
 44
0.0
 50
0.0
 51
0.0
 71
     0
 72
  2000
 73
     1
 74
     3
 75
     0
 76
     0
 77
     0
 78
     0
281
     0
 65
     1
110
0.0
120
0.0
130
0.0
111
1.0
121
0.0
131
0.0
112
0.0
122
1.0
132
0.0
 79
     0
146
0.0
  0
ENDTAB
  0
TABLE
  2
LTYPE
  5
5
330
0
100
AcDbSymbolTable
 70
     6
  0
LTYPE
  5
14
330
5
100
AcDbSymbolTableRecord
100
AcDbLinetypeTableRecord
  2
ByBlock
 70
     0
  3

 72
    65
 73
     0
 40
0.0
  0
LTYPE
  5
15
330
5
100
AcDbSymbolTableRecord
100
AcDbLinetypeTableRecord
  2
ByLayer
 70
     0
  3

 72
    65
 73
     0
 40
0.0
  0
LTYPE
  5
16
330
5
100
AcDbSymbolTableRecord
100
AcDbLinetypeTableRecord
  2
Continuous
 70
     0
  3
Solid line
 72
    65
 73
     0
 40
0.0
  0
LTYPE
  5
6E
330
5
100
AcDbSymbolTableRecord
100
AcDbLinetypeTableRecord
  2
HIDDEN
 70
     0
  3
Hidden __ __ __ __ __ __ __ __ __ __ __ __ __ __
 72
    65
 73
     2
 40
1.905
 49
1.27
 74
     0
 49
-0.635
 74
     0
  0
LTYPE
  5
6F
330
5
100
AcDbSymbolTableRecord
100
AcDbLinetypeTableRecord
  2
PHANTOM
 70
     0
  3
Phantom ______  __  __  ______  __  __  ______
 72
    65
 73
     6
 40
12.7
 49
6.35
 74
     0
 49
-1.27
 74
     0
 49
1.27
 74
     0
 49
-1.27
 74
     0
 49
1.27
 74
     0
 49
-1.27
 74
     0
  0
LTYPE
  5
70
330
5
100
AcDbSymbolTableRecord
100
AcDbLinetypeTableRecord
  2
CENTER
 70
     0
  3
Center ____ _ ____ _ ____ _ ____ _ ____ _ ____
 72
    65
 73
     4
 40
10.16
 49
6.35
 74
     0
 49
-1.27
 74
     0
 49
1.27
 74
     0
 49
-1.27
 74
     0
  0
LTYPE
  5
71
330
5
100
AcDbSymbolTableRecord
100
AcDbLinetypeTableRecord
  2
CENTERX2
 70
     0
  3
Center (2x) ________  __  ________  __  _____
 72
    65
 73
     4
 40
20.32
 49
12.7
 74
     0
 49
-2.54
 74
     0
 49
2.54
 74
     0
 49
-2.54
 74
     0
  0
LTYPE
  5
72
330
5
100
AcDbSymbolTableRecord
100
AcDbLinetypeTableRecord
  2
DOT2
 70
     0
  3
Dot (.5x) ........................................
 72
    65
 73
     2
 40
0.635
 49
0.0
 74
     0
 49
-0.635
 74
     0
  0
ENDTAB
  0
TABLE
  2
LAYER
  5
2
330
0
100
AcDbSymbolTable
 70
     5
  0
LAYER
  5
10
330
2
100
AcDbSymbolTableRecord
100
AcDbLayerTableRecord
  2
0
 70
     0
 62
     7
  6
Continuous
370
    -3
390
F
  0
LAYER
  5
73
330
2
100
AcDbSymbolTableRecord
100
AcDbLayerTableRecord
  2
FORMAT
 70
     0
 62
     7
  6
Continuous
370
    -3
390
F
  0
LAYER
  5
74
330
2
100
AcDbSymbolTableRecord
100
AcDbLayerTableRecord
  2
VERMASSUNG
 70
     0
 62
     7
  6
Continuous
370
    -3
390
F
  0
LAYER
  5
75
330
2
100
AcDbSymbolTableRecord
100
AcDbLayerTableRecord
  2
KOPF_DÜNN
 70
     0
 62
     7
  6
Continuous
370
    -3
390
F
  0
LAYER
  5
76
330
2
100
AcDbSymbolTableRecord
100
AcDbLayerTableRecord
  2
KOPF_DICK
 70
     0
 62
     7
  6
Continuous
370
    15
390
F
  0
ENDTAB
  0
TABLE
  2
STYLE
  5
3
330
0
100
AcDbSymbolTable
 70
     3
  0
STYLE
  5
11
330
3
100
AcDbSymbolTableRecord
100
AcDbTextStyleTableRecord
  2
Standard
 70
     0
 40
0.0
 41
1.0
 50
0.0
 71
     0
 42
2.0
  3
txt
  4

  0
STYLE
  5
77
330
3
100
AcDbSymbolTableRecord
100
AcDbTextStyleTableRecord
  2
SLDTEXTSTYLE0
 70
     0
 40
0.0
 41
0.7
 50
0.0
 71
     0
 42
2.0
  3
TXT
  4

  0
STYLE
  5
13F
330
3
100
AcDbSymbolTableRecord
100
AcDbTextStyleTableRecord
  2
SLDTEXTSTYLE1
 70
     0
 40
0.0
 41
0.6428571429
 50
0.0
 71
     0
 42
2.0
  3
TXT
  4

  0
ENDTAB
  0
TABLE
  2
VIEW
  5
6
330
0
100
AcDbSymbolTable
 70
     0
  0
ENDTAB
  0
TABLE
  2
UCS
  5
7
330
0
100
AcDbSymbolTable
 70
     0
  0
ENDTAB
  0
TABLE
  2
APPID
  5
9
330
0
100
AcDbSymbolTable
 70
     1
  0
APPID
  5
12
330
9
100
AcDbSymbolTableRecord
100
AcDbRegAppTableRecord
  2
ACAD
 70
     0
  0
ENDTAB
  0
TABLE
  2
DIMSTYLE
  5
A
330
0
100
AcDbSymbolTable
 70
     3
100
AcDbDimStyleTable
  0
DIMSTYLE
105
27
330
A
100
AcDbSymbolTableRecord
100
AcDbDimStyleTableRecord
  2
ISO-25
 70
     0
 41
2.5
 42
0.625
 43
3.75
 44
1.25
 73
     0
 74
     0
 77
     1
 78
     8
140
2.5
141
2.5
143
0.0393700787
147
0.625
171
     3
172
     1
178
     0
271
     2
272
     2
274
     3
278
    44
283
     0
284
     8
340
11
  0
DIMSTYLE
105
136
102
{ACAD_REACTORS
330
135
102
}
330
A
100
AcDbSymbolTableRecord
100
AcDbDimStyleTableRecord
  2
SLDDIMSTYLE0
 70
     0
 41
3.0
 44
0.0
 45
0.000000001
 73
     0
 74
     0
 77
     1
 78
    12
 79
     3
140
2.0
147
0.5
173
     1
178
     0
271
     1
272
     1
276
     2
284
    12
340
77
  0
DIMSTYLE
105
143
102
{ACAD_REACTORS
330
142
330
14E
330
15A
330
166
330
170
102
}
330
A
100
AcDbSymbolTableRecord
100
AcDbDimStyleTableRecord
  2
SLDDIMSTYLE1
 70
     0
 41
3.0
 44
0.0
 45
0.000000001
 73
     0
 74
     0
 77
     1
 78
    12
 79
     3
140
2.0
147
0.5
173
     1
178
     0
271
     2
272
     3
276
     2
284
    12
340
77
  0
ENDTAB
  0
TABLE
  2
BLOCK_RECORD
  5
1
330
0
100
AcDbSymbolTable
 70
     7
  0
BLOCK_RECORD
  5
1F
330
1
100
AcDbSymbolTableRecord
100
AcDbBlockTableRecord
  2
*Model_Space
340
22
  0
BLOCK_RECORD
  5
1B
330
1
100
AcDbSymbolTableRecord
100
AcDbBlockTableRecord
  2
*Paper_Space
340
1E
  0
BLOCK_RECORD
  5
23
330
1
100
AcDbSymbolTableRecord
100
AcDbBlockTableRecord
  2
*Paper_Space0
340
26
  0
BLOCK_RECORD
  5
137
330
1
100
AcDbSymbolTableRecord
100
AcDbBlockTableRecord
  2
_D
340
0
  0
BLOCK_RECORD
  5
144
330
1
100
AcDbSymbolTableRecord
100
AcDbBlockTableRecord
  2
_D_1
340
0
  0
BLOCK_RECORD
  5
14F
330
1
100
AcDbSymbolTableRecord
100
AcDbBlockTableRecord
  2
_D_2
340
0
  0
BLOCK_RECORD
  5
15B
330
1
100
AcDbSymbolTableRecord
100
AcDbBlockTableRecord
  2
_D_3
340
0
  0
BLOCK_RECORD
  5
167
330
1
100
AcDbSymbolTableRecord
100
AcDbBlockTableRecord
  2
_D_4
340
0
  0
BLOCK_RECORD
  5
171
330
1
100
AcDbSymbolTableRecord
100
AcDbBlockTableRecord
  2
_D_5
340
0
  0
ENDTAB
  0
ENDSEC
  0
SECTION
  2
BLOCKS
  0
BLOCK
  5
20
330
1F
100
AcDbEntity
  8
0
100
AcDbBlockBegin
  2
*Model_Space
 70
     0
 10
0.0
 20
0.0
 30
0.0
  3
*Model_Space
  1

  0
ENDBLK
  5
21
330
1F
100
AcDbEntity
  8
0
100
AcDbBlockEnd
  0
BLOCK
  5
1C
330
1B
100
AcDbEntity
 67
     1
  8
0
100
AcDbBlockBegin
  2
*Paper_Space
 70
     0
 10
0.0
 20
0.0
 30
0.0
  3
*Paper_Space
  1

  0
ENDBLK
  5
1D
330
1B
100
AcDbEntity
 67
     1
  8
0
100
AcDbBlockEnd
  0
BLOCK
  5
24
330
23
100
AcDbEntity
  8
0
100
AcDbBlockBegin
  2
*Paper_Space0
 70
     0
 10
0.0
 20
0.0
 30
0.0
  3
*Paper_Space0
  1

  0
ENDBLK
  5
25
330
23
100
AcDbEntity
  8
0
100
AcDbBlockEnd
  0
BLOCK
  5
138
330
137
100
AcDbEntity
  8
0
100
AcDbBlockBegin
  2
_D
 70
     0
 10
0.0
 20
0.0
 30
0.0
  3
_D
  1

  0
SOLID
  5
13A
330
137
100
AcDbEntity
  8
VERMASSUNG
100
AcDbTrace
 10
75.1069096404
 20
84.2586765624
 30
0.0
 11
75.5569096404
 21
87.2586765624
 31
0.0
 12
74.6569096404
 22
87.2586765624
 32
0.0
 13
74.6569096404
 23
87.2586765624
 33
0.0
  0
SOLID
  5
13B
330
137
100
AcDbEntity
  8
VERMASSUNG
100
AcDbTrace
 10
75.1069096404
 20
147.0586765624
 30
0.0
 11
74.6569096404
 21
144.0586765624
 31
0.0
 12
75.5569096404
 22
144.0586765624
 32
0.0
 13
75.5569096404
 23
144.0586765624
 33
0.0
  0
LINE
  5
13C
330
137
100
AcDbEntity
  8
VERMASSUNG
100
AcDbLine
 10
187.607566695
 20
84.2586765624
 30
0.0
 11
74.1069096404
 21
84.2586765624
 31
0.0
  0
LINE
  5
13D
330
137
100
AcDbEntity
  8
VERMASSUNG
100
AcDbLine
 10
187.607566695
 20
147.0586765624
 30
0.0
 11
74.1069096404
 21
147.0586765624
 31
0.0
  0
LINE
  5
13E
330
137
100
AcDbEntity
  8
VERMASSUNG
100
AcDbLine
 10
75.1069096404
 20
84.2586765624
 30
0.0
 11
75.1069096404
 21
147.0586765624
 31
0.0
  0
MTEXT
  5
140
330
137
100
AcDbEntity
  8
VERMASSUNG
100
AcDbMText
 10
72.5287740445
 20
107.3598052957
 30
0.0
 40
2.0
 41
0.0
 71
     1
 72
     1
  1
SK 40 Ø
  7
SLDTEXTSTYLE1
 11
3.391901413832837E-15
 21
1.0
 31
0.0
 73
     1
 44
1.0
  0
MTEXT
  5
141
330
137
100
AcDbEntity
  8
VERMASSUNG
100
AcDbMText
 10
72.5287740445
 20
119.1595560681
 30
0.0
 40
2.0
 41
0.0
 71
     1
 72
     1
  1
62.8
  7
SLDTEXTSTYLE0
 11
3.391901413832837E-15
 21
1.0
 31
0.0
 73
     1
 44
1.0
  0
ENDBLK
  5
139
330
137
100
AcDbEntity
  8
0
100
AcDbBlockEnd
  0
BLOCK
  5
145
330
144
100
AcDbEntity
  8
0
100
AcDbBlockBegin
  2
_D_1
 70
     0
 10
0.0
 20
0.0
 30
0.0
  3
_D_1
  1

  0
SOLID
  5
147
330
144
100
AcDbEntity
  8
VERMASSUNG
100
AcDbTrace
 10
224.4704010977
 20
126.6586765624
 30
0.0
 11
224.0204010977
 21
123.6586765624
 31
0.0
 12
224.9204010977
 22
123.6586765624
 32
0.0
 13
224.9204010977
 23
123.6586765624
 33
0.0
  0
SOLID
  5
148
330
144
100
AcDbEntity
  8
VERMASSUNG
100
AcDbTrace
 10
224.4704010977
 20
104.6586765624
 30
0.0
 11
224.9204010977
 21
107.6586765624
 31
0.0
 12
224.0204010977
 22
107.6586765624
 32
0.0
 13
224.0204010977
 23
107.6586765624
 33
0.0
  0
LINE
  5
149
330
144
100
AcDbEntity
  8
VERMASSUNG
100
AcDbLine
 10
215.607566695
 20
126.6586765624
 30
0.0
 11
225.4704010977
 21
126.6586765624
 31
0.0
  0
LINE
  5
14A
330
144
100
AcDbEntity
  8
VERMASSUNG
100
AcDbLine
 10
215.607566695
 20
104.6586765624
 30
0.0
 11
225.4704010977
 21
104.6586765624
 31
0.0
  0
LINE
  5
14B
330
144
100
AcDbEntity
  8
VERMASSUNG
100
AcDbLine
 10
224.4704010977
 20
126.6586765624
 30
0.0
 11
224.4704010977
 21
104.6586765624
 31
0.0
  0
MTEXT
  5
14C
330
144
100
AcDbEntity
  8
VERMASSUNG
100
AcDbMText
 10
221.8922657928
 20
112.4536766052
 30
0.0
 40
2.0
 41
0.0
 71
     1
 72
     1
  1
%%c
  7
SLDTEXTSTYLE0
 11
-7.044195017643634E-15
 21
1.0
 31
0.0
 73
     1
 44
1.0
  0
MTEXT
  5
14D
330
144
100
AcDbEntity
  8
VERMASSUNG
100
AcDbMText
 10
221.6922658415
 20
116.0636766195
 30
0.0
 40
2.0
 41
0.0
 71
     1
 72
     1
  1
22
  7
SLDTEXTSTYLE0
 11
-7.044195017643634E-15
 21
1.0
 31
0.0
 73
     1
 44
1.0
  0
ENDBLK
  5
146
330
144
100
AcDbEntity
  8
0
100
AcDbBlockEnd
  0
BLOCK
  5
150
330
14F
100
AcDbEntity
  8
0
100
AcDbBlockBegin
  2
_D_2
 70
     0
 10
0.0
 20
0.0
 30
0.0
  3
_D_2
  1

  0
SOLID
  5
152
330
14F
100
AcDbEntity
  8
VERMASSUNG
100
AcDbTrace
 10
230.4704010977
 20
95.6586765624
 30
0.0
 11
230.9204010977
 21
98.6586765624
 31
0.0
 12
230.0204010977
 22
98.6586765624
 32
0.0
 13
230.0204010977
 23
98.6586765624
 33
0.0
  0
SOLID
  5
153
330
14F
100
AcDbEntity
  8
VERMASSUNG
100
AcDbTrace
 10
230.4704010977
 20
135.6586765624
 30
0.0
 11
230.0204010977
 21
132.6586765624
 31
0.0
 12
230.9204010977
 22
132.6586765624
 32
0.0
 13
230.9204010977
 23
132.6586765624
 33
0.0
  0
LINE
  5
154
330
14F
100
AcDbEntity
  8
VERMASSUNG
100
AcDbLine
 10
216.207566695
 20
95.6586765624
 30
0.0
 11
231.4704010977
 21
95.6586765624
 31
0.0
  0
LINE
  5
155
330
14F
100
AcDbEntity
  8
VERMASSUNG
100
AcDbLine
 10
216.207566695
 20
135.6586765624
 30
0.0
 11
231.4704010977
 21
135.6586765624
 31
0.0
  0
LINE
  5
156
330
14F
100
AcDbEntity
  8
VERMASSUNG
100
AcDbLine
 10
230.4704010977
 20
95.6586765624
 30
0.0
 11
230.4704010977
 21
135.6586765624
 31
0.0
  0
MTEXT
  5
157
330
14F
100
AcDbEntity
  8
VERMASSUNG
100
AcDbMText
 10
227.6922658415
 20
110.453676743
 30
0.0
 40
2.0
 41
0.0
 71
     1
 72
     1
  1
WH
  7
SLDTEXTSTYLE0
 11
6.123233995736766E-17
 21
1.0
 31
0.0
 73
     1
 44
1.0
  0
MTEXT
  5
158
330
14F
100
AcDbEntity
  8
VERMASSUNG
100
AcDbMText
 10
227.8922657928
 20
114.2536768071
 30
0.0
 40
2.0
 41
0.0
 71
     1
 72
     1
  1
%%c
  7
SLDTEXTSTYLE0
 11
6.123233995736766E-17
 21
1.0
 31
0.0
 73
     1
 44
1.0
  0
MTEXT
  5
159
330
14F
100
AcDbEntity
  8
VERMASSUNG
100
AcDbMText
 10
227.6922658415
 20
117.8636768214
 30
0.0
 40
2.0
 41
0.0
 71
     1
 72
     1
  1
40
  7
SLDTEXTSTYLE0
 11
6.123233995736766E-17
 21
1.0
 31
0.0
 73
     1
 44
1.0
  0
ENDBLK
  5
151
330
14F
100
AcDbEntity
  8
0
100
AcDbBlockEnd
  0
BLOCK
  5
15C
330
15B
100
AcDbEntity
  8
0
100
AcDbBlockBegin
  2
_D_3
 70
     0
 10
0.0
 20
0.0
 30
0.0
  3
_D_3
  1

  0
ARC
  5
15E
330
15B
100
AcDbEntity
  8
VERMASSUNG
100
AcDbCircle
 10
203.7075668441
 20
152.8827601705
 30
0.0
 40
4.248529228887633
100
AcDbArc
 50
153.4349488229
 51
206.5650511771
  0
ARC
  5
15F
330
15B
100
AcDbEntity
  8
VERMASSUNG
100
AcDbCircle
 10
201.1075666042
 20
152.8827601705
 30
0.0
 40
4.248529228887608
100
AcDbArc
 50
333.4349488229
 51
26.5650511771
  0
SOLID
  5
160
330
15B
100
AcDbEntity
  8
VERMASSUNG
100
AcDbTrace
 10
216.607566695
 20
150.9827599057
 30
0.0
 11
213.607566695
 21
151.4327599057
 31
0.0
 12
213.607566695
 22
150.5327599057
 32
0.0
 13
213.607566695
 23
150.5327599057
 33
0.0
  0
SOLID
  5
161
330
15B
100
AcDbEntity
  8
VERMASSUNG
100
AcDbTrace
 10
188.207566695
 20
150.9827599057
 30
0.0
 11
191.207566695
 21
150.5327599057
 31
0.0
 12
191.207566695
 22
151.4327599057
 32
0.0
 13
191.207566695
 23
151.4327599057
 33
0.0
  0
LINE
  5
162
330
15B
100
AcDbEntity
  8
VERMASSUNG
100
AcDbLine
 10
216.607566695
 20
135.2586765624
 30
0.0
 11
216.607566695
 21
151.9827599057
 31
0.0
  0
LINE
  5
163
330
15B
100
AcDbEntity
  8
VERMASSUNG
100
AcDbLine
 10
188.207566695
 20
145.0990824699
 30
0.0
 11
188.207566695
 21
151.9827599057
 31
0.0
  0
LINE
  5
164
330
15B
100
AcDbEntity
  8
VERMASSUNG
100
AcDbLine
 10
216.607566695
 20
150.9827599057
 30
0.0
 11
188.207566695
 21
150.9827599057
 31
0.0
  0
MTEXT
  5
165
330
15B
100
AcDbEntity
  8
VERMASSUNG
100
AcDbMText
 10
199.90756678
 20
153.5608957345
 30
0.0
 40
2.0
 41
0.0
 71
     1
 72
     1
  1
28.4
  7
SLDTEXTSTYLE0
 73
     1
 44
1.0
  0
ENDBLK
  5
15D
330
15B
100
AcDbEntity
  8
0
100
AcDbBlockEnd
  0
BLOCK
  5
168
330
167
100
AcDbEntity
  8
0
100
AcDbBlockBegin
  2
_D_4
 70
     0
 10
0.0
 20
0.0
 30
0.0
  3
_D_4
  1

  0
SOLID
  5
16A
330
167
100
AcDbEntity
  8
VERMASSUNG
100
AcDbTrace
 10
216.607566695
 20
156.9827599057
 30
0.0
 11
213.607566695
 21
157.4327599057
 31
0.0
 12
213.607566695
 22
156.5327599057
 32
0.0
 13
213.607566695
 23
156.5327599057
 33
0.0
  0
SOLID
  5
16B
330
167
100
AcDbEntity
  8
VERMASSUNG
100
AcDbTrace
 10
176.607566695
 20
156.9827599057
 30
0.0
 11
179.607566695
 21
156.5327599057
 31
0.0
 12
179.607566695
 22
157.4327599057
 32
0.0
 13
179.607566695
 23
157.4327599057
 33
0.0
  0
LINE
  5
16C
330
167
100
AcDbEntity
  8
VERMASSUNG
100
AcDbLine
 10
216.607566695
 20
135.2586765624
 30
0.0
 11
216.607566695
 21
157.9827599057
 31
0.0
  0
LINE
  5
16D
330
167
100
AcDbEntity
  8
VERMASSUNG
100
AcDbLine
 10
176.607566695
 20
137.8836765624
 30
0.0
 11
176.607566695
 21
157.9827599057
 31
0.0
  0
LINE
  5
16E
330
167
100
AcDbEntity
  8
VERMASSUNG
100
AcDbLine
 10
216.607566695
 20
156.9827599057
 30
0.0
 11
176.607566695
 21
156.9827599057
 31
0.0
  0
MTEXT
  5
16F
330
167
100
AcDbEntity
  8
VERMASSUNG
100
AcDbMText
 10
195.107566682
 20
159.5608955016
 30
0.0
 40
2.0
 41
0.0
 71
     1
 72
     1
  1
40
  7
SLDTEXTSTYLE0
 73
     1
 44
1.0
  0
ENDBLK
  5
169
330
167
100
AcDbEntity
  8
0
100
AcDbBlockEnd
  0
BLOCK
  5
172
330
171
100
AcDbEntity
  8
0
100
AcDbBlockBegin
  2
_D_5
 70
     0
 10
0.0
 20
0.0
 30
0.0
  3
_D_5
  1

  0
ARC
  5
174
330
171
100
AcDbEntity
  8
VERMASSUNG
100
AcDbCircle
 10
150.7075667621
 20
164.8827601705
 30
0.0
 40
4.248529228887633
100
AcDbArc
 50
153.4349488229
 51
206.5650511771
  0
ARC
  5
175
330
171
100
AcDbEntity
  8
VERMASSUNG
100
AcDbCircle
 10
149.1075666861
 20
164.8827601705
 30
0.0
 40
4.248529228887608
100
AcDbArc
 50
333.4349488229
 51
26.5650511771
  0
SOLID
  5
176
330
171
100
AcDbEntity
  8
VERMASSUNG
100
AcDbTrace
 10
216.607566695
 20
162.9827599057
 30
0.0
 11
213.607566695
 21
163.4327599057
 31
0.0
 12
213.607566695
 22
162.5327599057
 32
0.0
 13
213.607566695
 23
162.5327599057
 33
0.0
  0
SOLID
  5
177
330
171
100
AcDbEntity
  8
VERMASSUNG
100
AcDbTrace
 10
83.207566695
 20
162.9827599057
 30
0.0
 11
86.207566695
 21
162.5327599057
 31
0.0
 12
86.207566695
 22
163.4327599057
 32
0.0
 13
86.207566695
 23
163.4327599057
 33
0.0
  0
LINE
  5
178
330
171
100
AcDbEntity
  8
VERMASSUNG
100
AcDbLine
 10
216.607566695
 20
135.2586765624
 30
0.0
 11
216.607566695
 21
163.9827599057
 31
0.0
  0
LINE
  5
179
330
171
100
AcDbEntity
  8
VERMASSUNG
100
AcDbLine
 10
83.207566695
 20
126.2086765624
 30
0.0
 11
83.207566695
 21
163.9827599057
 31
0.0
  0
LINE
  5
17A
330
171
100
AcDbEntity
  8
VERMASSUNG
100
AcDbLine
 10
216.607566695
 20
162.9827599057
 30
0.0
 11
83.207566695
 21
162.9827599057
 31
0.0
  0
MTEXT
  5
17B
330
171
100
AcDbEntity
  8
VERMASSUNG
100
AcDbMText
 10
146.9075666981
 20
165.5608957345
 30
0.0
 40
2.0
 41
0.0
 71
     1
 72
     1
  1
133.4
  7
SLDTEXTSTYLE0
 73
     1
 44
1.0
  0
ENDBLK
  5
173
330
171
100
AcDbEntity
  8
0
100
AcDbBlockEnd
  0
ENDSEC
  0
SECTION
  2
ENTITIES
  0
MTEXT
  5
78
330
1F
100
AcDbEntity
  8
KOPF_DÜNN
100
AcDbMText
 10
13.8892156294
 20
23.8442973028
 30
0.0
 40
3.0
 41
0.0
 71
     1
 72
     1
  1
A54.400.040.040
  7
SLDTEXTSTYLE0
 73
     1
 44
1.0
  0
MTEXT
  5
79
330
1F
100
AcDbEntity
  8
VERMASSUNG
100
AcDbMText
 10
13.9329988022
 20
28.8834360957
 30
0.0
 40
3.0
 41
0.0
 71
     1
 72
     1
  1
Aufnahme Master shank WH40
  7
SLDTEXTSTYLE0
 73
     1
 44
1.0
  0
MTEXT
  5
7A
330
1F
100
AcDbEntity
  8
VERMASSUNG
100
AcDbMText
 10
98.8601118557
 20
13.8365368761
 30
0.0
 40
2.0
 41
0.0
 71
     1
 72
     1
  1
Datum: 01.12.2011
  7
SLDTEXTSTYLE0
 73
     1
 44
1.0
  0
MTEXT
  5
7B
330
1F
100
AcDbEntity
  8
VERMASSUNG
100
AcDbMText
 10
13.933048693
 20
18.0482802738
 30
0.0
 40
2.0
 41
0.0
 71
     1
 72
     1
  1
DIN 2080
  7
SLDTEXTSTYLE0
 73
     1
 44
1.0
  0
MTEXT
  5
7C
330
1F
100
AcDbEntity
  8
VERMASSUNG
100
AcDbMText
 10
13.9808475933
 20
13.9090974274
 30
0.0
 40
2.0
 41
0.0
 71
     1
 72
     1
  1
Gewicht: 933g
  7
SLDTEXTSTYLE0
 73
     1
 44
1.0
  0
LINE
  5
7D
330
1F
100
AcDbEntity
  8
0
  6
Continuous
 62
     7
370
    15
100
AcDbLine
 10
209.1957062554
 20
135.320537002
 30
0.0
 11
208.857566695
 21
135.6586765624
 31
0.0
  0
LINE
  5
7E
330
1F
100
AcDbEntity
  8
0
  6
Continuous
 62
     7
370
    15
100
AcDbLine
 10
200.257566695
 20
135.6586765624
 30
0.0
 11
199.9197842177
 21
135.3208940851
 31
0.0
  0
ARC
  5
7F
330
1F
100
AcDbEntity
  8
0
  6
Continuous
 62
     7
370
    15
100
AcDbCircle
 10
177.407566695
 20
92.6336765624
 30
0.0
 40
0.8000000000000114
100
AcDbArc
 50
0.0
 51
90.0
  0
ARC
  5
80
330
1F
100
AcDbEntity
  8
0
  6
Continuous
 62
     7
370
    15
100
AcDbCircle
 10
177.407566695
 20
138.6836765624
 30
0.0
 40
0.8000000000000114
100
AcDbArc
 50
270.0
 51
0.0
  0
LINE
  5
81
330
1F
100
AcDbEntity
  8
0
  6
Continuous
 62
     7
370
    15
100
AcDbLine
 10
176.607566695
 20
137.8836765624
 30
0.0
 11
111.6199039078
 21
128.4063090726
 31
0.0
  0
LINE
  5
82
330
1F
100
AcDbEntity
  8
0
  6
Continuous
 62
     7
370
    15
100
AcDbLine
 10
111.6199039078
 20
102.9110440522
 30
0.0
 11
176.607566695
 21
93.4336765624
 31
0.0
  0
LINE
  5
83
330
1F
100
AcDbEntity
  8
0
  6
Continuous
 62
     7
370
    15
100
AcDbLine
 10
176.607566695
 20
93.4336765624
 30
0.0
 11
177.407566695
 21
93.4336765624
 31
0.0
  0
LINE
  5
84
330
1F
100
AcDbEntity
  8
0
  6
Continuous
 62
     7
370
    15
100
AcDbLine
 10
177.407566695
 20
137.8836765624
 30
0.0
 11
176.607566695
 21
137.8836765624
 31
0.0
  0
LINE
  5
85
330
1F
100
AcDbEntity
  8
0
  6
Continuous
 62
     7
370
    15
100
AcDbLine
 10
198.3156069796
 20
135.6586765624
 30
0.0
 11
191.1661443938
 21
135.6586765624
 31
0.0
  0
LINE
  5
86
330
1F
100
AcDbEntity
  8
0
  6
Continuous
 62
     7
370
    15
100
AcDbLine
 10
216.207566695
 20
135.6586765624
 30
0.0
 11
210.8027354463
 21
135.6586765624
 31
0.0
  0
LINE
  5
87
330
1F
100
AcDbEntity
  8
0
  6
Continuous
 62
     7
370
    15
100
AcDbLine
 10
191.1661443938
 20
95.6586765624
 30
0.0
 11
216.207566695
 21
95.6586765624
 31
0.0
  0
LINE
  5
88
330
1F
100
AcDbEntity
  8
0
  6
Continuous
 62
     7
370
    15
100
AcDbLine
 10
216.207566695
 20
95.6586765624
 30
0.0
 11
216.607566695
 21
96.0586765624
 31
0.0
  0
LINE
  5
89
330
1F
100
AcDbEntity
  8
0
  6
Continuous
 62
     7
370
    15
100
AcDbLine
 10
216.607566695
 20
135.2586765624
 30
0.0
 11
216.207566695
 21
135.6586765624
 31
0.0
  0
ARC
  5
8A
330
1F
100
AcDbEntity
  8
0
  6
Continuous
 62
     7
370
    15
100
AcDbCircle
 10
111.6920573543
 20
103.4058105427
 30
0.0
 40
0.4999999999999909
100
AcDbArc
 50
194.3079804814
 51
261.7028550302
  0
ARC
  5
8B
330
1F
100
AcDbEntity
  8
0
  6
Continuous
 62
     7
370
    15
100
AcDbCircle
 10
111.6920573543
 20
127.9115425821
 30
0.0
 40
0.500000000000005
100
AcDbArc
 50
98.2971449698
 51
165.6920195186
  0
LINE
  5
8C
330
1F
100
AcDbEntity
  8
0
  6
Continuous
 62
     7
370
    15
100
AcDbLine
 10
101.607566695
 20
103.0086765624
 30
0.0
 11
105.7391918451
 21
103.0086765624
 31
0.0
  0
LINE
  5
8D
330
1F
100
AcDbEntity
  8
0
  6
Continuous
 62
     7
370
    15
100
AcDbLine
 10
105.7391918451
 20
128.3086765624
 30
0.0
 11
101.607566695
 21
128.3086765624
 31
0.0
  0
ARC
  5
8E
330
1F
100
AcDbEntity
  8
0
  6
Continuous
 62
     7
370
    15
100
AcDbCircle
 10
105.7391918451
 20
103.5086765624
 30
0.0
 40
0.5
100
AcDbArc
 50
270.0
 51
339.5126848853
  0
ARC
  5
8F
330
1F
100
AcDbEntity
  8
0
  6
Continuous
 62
     7
370
    15
100
AcDbCircle
 10
105.7391918451
 20
127.8086765624
 30
0.0
 40
0.5000000000000033
100
AcDbArc
 50
20.4873151147
 51
90.0
  0
LINE
  5
90
330
1F
100
AcDbEntity
  8
0
  6
Continuous
 62
     7
370
    15
100
AcDbLine
 10
91.007566695
 20
103.2036765624
 30
0.0
 11
94.0904247536
 21
103.2036765624
 31
0.0
  0
LINE
  5
91
330
1F
100
AcDbEntity
  8
0
  6
Continuous
 62
     7
370
    15
100
AcDbLine
 10
94.0904247536
 20
128.1136765624
 30
0.0
 11
91.007566695
 21
128.1136765624
 31
0.0
  0
LINE
  5
92
330
1F
100
AcDbEntity
  8
0
  6
Continuous
 62
     7
370
    15
100
AcDbLine
 10
94.0904247536
 20
103.2036765624
 30
0.0
 11
94.5082672759
 21
104.763086085
 31
0.0
  0
LINE
  5
93
330
1F
100
AcDbEntity
  8
0
  6
Continuous
 62
     7
370
    15
100
AcDbLine
 10
94.5082672759
 20
126.5542670399
 30
0.0
 11
94.0904247536
 21
128.1136765624
 31
0.0
  0
ARC
  5
94
330
1F
100
AcDbEntity
  8
0
  6
Continuous
 62
     7
370
    15
100
AcDbCircle
 10
110.7230760357
 20
103.1586765624
 30
0.0
 40
0.4999999999999986
100
AcDbArc
 50
14.3079804814
 51
90.0
  0
ARC
  5
95
330
1F
100
AcDbEntity
  8
0
  6
Continuous
 62
     7
370
    15
100
AcDbCircle
 10
110.7230760357
 20
128.1586765624
 30
0.0
 40
0.5000000000000142
100
AcDbArc
 50
270.0
 51
345.6920195186
  0
ARC
  5
96
330
1F
100
AcDbEntity
  8
0
  6
Continuous
 62
     7
370
    15
100
AcDbCircle
 10
106.6759415449
 20
103.1586765624
 30
0.0
 40
0.5
100
AcDbArc
 50
90.0
 51
159.5126848853
  0
ARC
  5
97
330
1F
100
AcDbEntity
  8
0
  6
Continuous
 62
     7
370
    15
100
AcDbCircle
 10
106.6759415449
 20
128.1586765624
 30
0.0
 40
0.5000000000000142
100
AcDbArc
 50
200.4873151147
 51
270.0
  0
LINE
  5
98
330
1F
100
AcDbEntity
  8
0
  6
Continuous
 62
     7
370
    15
100
AcDbLine
 10
106.6759415449
 20
103.6586765624
 30
0.0
 11
110.7230760357
 21
103.6586765624
 31
0.0
  0
LINE
  5
99
330
1F
100
AcDbEntity
  8
0
  6
Continuous
 62
     7
370
    15
100
AcDbLine
 10
110.7230760357
 20
127.6586765624
 30
0.0
 11
106.6759415449
 21
127.6586765624
 31
0.0
  0
ARC
  5
9A
330
1F
100
AcDbEntity
  8
0
  6
Continuous
 62
     7
370
    15
100
AcDbCircle
 10
90.207566695
 20
104.1836765624
 30
0.0
 40
0.7999999999999972
100
AcDbArc
 50
0.0
 51
90.0
  0
ARC
  5
9B
330
1F
100
AcDbEntity
  8
0
  6
Continuous
 62
     7
370
    15
100
AcDbCircle
 10
90.207566695
 20
127.1336765624
 30
0.0
 40
0.7999999999999972
100
AcDbArc
 50
270.0
 51
0.0
  0
ARC
  5
9C
330
1F
100
AcDbEntity
  8
0
  6
Continuous
 62
     7
370
    15
100
AcDbCircle
 10
101.107566695
 20
104.6336765624
 30
0.0
 40
0.5
100
AcDbArc
 50
0.0
 51
90.0
  0
ARC
  5
9D
330
1F
100
AcDbEntity
  8
0
  6
Continuous
 62
     7
370
    15
100
AcDbCircle
 10
101.107566695
 20
126.6836765624
 30
0.0
 40
0.5
100
AcDbArc
 50
270.0
 51
0.0
  0
ARC
  5
9E
330
1F
100
AcDbEntity
  8
0
  6
Continuous
 62
     7
370
    15
100
AcDbCircle
 10
94.991230189
 20
104.6336765624
 30
0.0
 40
0.5
100
AcDbArc
 50
90.0
 51
165.0
  0
ARC
  5
9F
330
1F
100
AcDbEntity
  8
0
  6
Continuous
 62
     7
370
    15
100
AcDbCircle
 10
94.991230189
 20
126.6836765624
 30
0.0
 40
0.5000000000000052
100
AcDbArc
 50
195.0
 51
270.0
  0
ARC
  5
A0
330
1F
100
AcDbEntity
  8
0
  6
Continuous
 62
     7
370
    15
100
AcDbCircle
 10
83.407566695
 20
105.1086765624
 30
0.0
 40
0.2000000000000028
100
AcDbArc
 50
180.0
 51
270.0
  0
ARC
  5
A1
330
1F
100
AcDbEntity
  8
0
  6
Continuous
 62
     7
370
    15
100
AcDbCircle
 10
83.407566695
 20
126.2086765624
 30
0.0
 40
0.2000000000000028
100
AcDbArc
 50
90.0
 51
180.0
  0
LINE
  5
A2
330
1F
100
AcDbEntity
  8
0
  6
Continuous
 62
     7
370
    15
100
AcDbLine
 10
83.407566695
 20
104.9086765624
 30
0.0
 11
89.007566695
 21
104.9086765624
 31
0.0
  0
LINE
  5
A3
330
1F
100
AcDbEntity
  8
0
  6
Continuous
 62
     7
370
    15
100
AcDbLine
 10
89.007566695
 20
126.4086765624
 30
0.0
 11
83.407566695
 21
126.4086765624
 31
0.0
  0
ARC
  5
A4
330
1F
100
AcDbEntity
  8
0
  6
Continuous
 62
     7
370
    15
100
AcDbCircle
 10
89.3457604265
 20
104.1836765624
 30
0.0
 40
0.8000000000000067
100
AcDbArc
 50
90.0
 51
115.0078332347
  0
ARC
  5
A5
330
1F
100
AcDbEntity
  8
0
  6
Continuous
 62
     7
370
    15
100
AcDbCircle
 10
89.3457604265
 20
127.1336765624
 30
0.0
 40
0.8000000000000256
100
AcDbArc
 50
244.9921667653
 51
270.0
  0
LINE
  5
A6
330
1F
100
AcDbEntity
  8
0
  6
Continuous
 62
     7
370
    15
100
AcDbLine
 10
89.3457604265
 20
104.9836765624
 30
0.0
 11
90.207566695
 21
104.9836765624
 31
0.0
  0
LINE
  5
A7
330
1F
100
AcDbEntity
  8
0
  6
Continuous
 62
     7
370
    15
100
AcDbLine
 10
90.207566695
 20
126.3336765624
 30
0.0
 11
89.3457604265
 21
126.3336765624
 31
0.0
  0
LINE
  5
A8
330
1F
100
AcDbEntity
  8
0
  6
Continuous
 62
     7
370
    15
100
AcDbLine
 10
94.991230189
 20
105.1336765624
 30
0.0
 11
101.107566695
 21
105.1336765624
 31
0.0
  0
LINE
  5
A9
330
1F
100
AcDbEntity
  8
0
  6
Continuous
 62
     7
370
    15
100
AcDbLine
 10
101.107566695
 20
126.1836765624
 30
0.0
 11
94.991230189
 21
126.1836765624
 31
0.0
  0
SPLINE
  5
AA
330
1F
100
AcDbEntity
  8
0
  6
Continuous
 62
     7
370
    15
100
AcDbSpline
210
0.0
220
0.0
230
1.0
 70
     8
 71
     3
 72
    10
 73
     6
 74
     0
 42
0.000000001
 43
0.00000001
 40
0.0
 40
0.0
 40
0.0
 40
0.0
 40
0.2978545708426026
 40
0.7539455043330419
 40
1.0
 40
1.0
 40
1.0
 40
1.0
 10
188.2221220708263
 20
93.15803444285321
 30
0.0
 10
188.2221130484627
 20
93.1740412867463
 30
0.0
 10
188.2220902105706
 20
93.2145586706415
 30
0.0
 10
188.2434844237236
 20
93.34063705871104
 30
0.0
 10
188.2488877683471
 20
93.36326788557
 30
0.0
 10
188.2507812752775
 20
93.37119846014625
 30
0.0
  0
SPLINE
  5
AB
330
1F
100
AcDbEntity
  8
0
  6
Continuous
 62
     7
370
    15
100
AcDbSpline
210
0.0
220
0.0
230
1.0
 70
     8
 71
     3
 72
     9
 73
     5
 74
     0
 42
0.000000001
 43
0.00000001
 40
0.0
 40
0.0
 40
0.0
 40
0.0
 40
0.7600549553229135
 40
1.0
 40
1.0
 40
1.0
 40
1.0
 10
188.2519479264146
 20
93.37661945244362
 30
0.0
 10
188.2506994275871
 20
93.37336875632082
 30
0.0
 10
188.2490567847508
 20
93.36909183384299
 30
0.0
 10
188.2332836723882
 20
93.29224285348859
 30
0.0
 10
188.2294989922377
 20
93.27380332146406
 30
0.0
  0
SPLINE
  5
AC
330
1F
100
AcDbEntity
  8
0
  6
Continuous
 62
     7
370
    15
100
AcDbSpline
210
0.0
220
0.0
230
1.0
 70
     8
 71
     3
 72
    20
 73
    16
 74
     0
 42
0.000000001
 43
0.00000001
 40
0.0
 40
0.0
 40
0.0
 40
0.0
 40
0.1143195321328784
 40
0.2380437526372128
 40
0.3355531194989591
 40
0.400829807331845
 40
0.4446373505777305
 40
0.4841801971737334
 40
0.5344388209621064
 40
0.5972028208725576
 40
0.6783599163854862
 40
0.7600635727885647
 40
0.8468491172033414
 40
0.9390274077953255
 40
1.0
 40
1.0
 40
1.0
 40
1.0
 10
188.2207421581304
 20
93.15738131219729
 30
0.0
 10
188.2217962021353
 20
93.1733330992374
 30
0.0
 10
188.223991002846
 20
93.20654897387797
 30
0.0
 10
188.2428023035202
 20
93.31735683377165
 30
0.0
 10
188.2732180204678
 20
93.44849609984874
 30
0.0
 10
188.3185199328963
 20
93.60377264455371
 30
0.0
 10
188.3869523675556
 20
93.79202680873266
 30
0.0
 10
188.4885034670592
 20
94.0189528585322
 30
0.0
 10
188.6445652000703
 20
94.29631387722009
 30
0.0
 10
188.8907647747469
 20
94.63163227318022
 30
0.0
 10
189.236866268122
 20
94.975588558193
 30
0.0
 10
189.6811697202785
 20
95.28483844338056
 30
0.0
 10
190.1964770453945
 20
95.51434283077329
 30
0.0
 10
190.7034985186366
 20
95.64656910708993
 30
0.0
 10
191.034812655409
 20
95.6448009843593
 30
0.0
 10
191.1667157916116
 20
95.6440970574589
 30
0.0
  0
SPLINE
  5
AD
330
1F
100
AcDbEntity
  8
0
  6
Continuous
 62
     7
370
    15
100
AcDbSpline
210
0.0
220
0.0
230
1.0
 70
     8
 71
     3
 72
    21
 73
    17
 74
     0
 42
0.000000001
 43
0.00000001
 40
0.0
 40
0.0
 40
0.0
 40
0.0
 40
0.0083488528228395
 40
0.1473942557971586
 40
0.2756247319413994
 40
0.3945486229039344
 40
0.5045883674238527
 40
0.605525695897341
 40
0.6966141828327881
 40
0.7765606588468494
 40
0.8432209968151845
 40
0.8921376010275167
 40
0.9241126084936508
 40
0.9451122886948525
 40
0.9713612472170219
 40
1.0
 40
1.0
 40
1.0
 40
1.0
 10
191.1654850828237
 20
135.6625141030379
 30
0.0
 10
191.1534069420524
 20
135.6612499672229
 30
0.0
 10
190.9401742251538
 20
135.6389323672334
 30
0.0
 10
190.5373873560298
 20
135.714332219128
 30
0.0
 10
189.9998370475159
 20
135.87492086974
 30
0.0
 10
189.5386395814214
 20
136.1222151440292
 30
0.0
 10
189.1565467849787
 20
136.4149280356145
 30
0.0
 10
188.8520521734647
 20
136.733784541777
 30
0.0
 10
188.6207373444627
 20
137.0557558212515
 30
0.0
 10
188.4551921306939
 20
137.3599879052022
 30
0.0
 10
188.346862793432
 20
137.6218722835528
 30
0.0
 10
188.2824523320598
 20
137.8245914235358
 30
0.0
 10
188.2502509970957
 20
137.9504829664805
 30
0.0
 10
188.235380884641
 20
138.0160269577854
 30
0.0
 10
188.2266815139096
 20
138.0574454938255
 30
0.0
 10
188.2238139988505
 20
138.0724692500548
 30
0.0
 10
188.2223178159541
 20
138.0803081930584
 30
0.0
  0
SPLINE
  5
AE
330
1F
100
AcDbEntity
  8
0
  6
Continuous
 62
     7
370
    15
100
AcDbSpline
210
0.0
220
0.0
230
1.0
 70
    24
 71
     3
 72
    11
 73
     7
 74
     0
 42
0.000000001
 43
0.00000001
 40
0.0
 40
0.0
 40
0.0
 40
0.0
 40
0.2164543009644963
 40
0.4403089937225327
 40
0.7518987489759436
 40
1.0
 40
1.0
 40
1.0
 40
1.0
 10
201.682456739264
 20
115.3996860690983
 30
0.0
 10
201.7962943137875
 20
115.2379956257099
 30
0.0
 10
202.0278614744439
 20
114.909086677698
 30
0.0
 10
202.4575892670856
 20
114.2987181098555
 30
0.0
 10
202.9185516457887
 20
113.6439851562601
 30
0.0
 10
203.2135406074243
 20
113.2249943599327
 30
0.0
 10
203.3443040636872
 20
113.0392630553906
 30
0.0
  0
SPLINE
  5
AF
330
1F
100
AcDbEntity
  8
0
  6
Continuous
 62
     7
370
    15
100
AcDbSpline
210
0.0
220
0.0
230
1.0
 70
    24
 71
     3
 72
    11
 73
     7
 74
     0
 42
0.000000001
 43
0.00000001
 40
0.0
 40
0.0
 40
0.0
 40
0.0
 40
0.2164543009645002
 40
0.4403089937225325
 40
0.7518987489759422
 40
1.0
 40
1.0
 40
1.0
 40
1.0
 10
203.3443040636872
 20
113.0392630553906
 30
0.0
 10
203.5412508824724
 20
113.0570040651389
 30
0.0
 10
203.9418779673109
 20
113.0930926349437
 30
0.0
 10
204.685336549055
 20
113.1600635361623
 30
0.0
 10
205.4828331089149
 20
113.2319021895104
 30
0.0
 10
205.9931842633042
 20
113.2778747259591
 30
0.0
 10
206.2194140194471
 20
113.2982535486984
 30
0.0
  0
SPLINE
  5
B0
330
1F
100
AcDbEntity
  8
0
  6
Continuous
 62
     7
370
    15
100
AcDbSpline
210
0.0
220
0.0
230
1.0
 70
    24
 71
     3
 72
    11
 73
     7
 74
     0
 42
0.000000001
 43
0.00000001
 40
0.0
 40
0.0
 40
0.0
 40
0.0
 40
0.1849308168246148
 40
0.5198464202157762
 40
0.8714438233692694
 40
1.0
 40
1.0
 40
1.0
 40
1.0
 10
206.2194140194471
 20
113.2982535486984
 30
0.0
 10
206.2900318327424
 20
113.4507162135855
 30
0.0
 10
206.4885407566489
 20
113.8792936238788
 30
0.0
 10
206.8590955715293
 20
114.6793152038049
 30
0.0
 10
207.2013181042989
 20
115.4181678657006
 30
0.0
 10
207.383814989124
 20
115.8121755543513
 30
0.0
 10
207.4326766507838
 20
115.9176670557139
 30
0.0
  0
SPLINE
  5
B1
330
1F
100
AcDbEntity
  8
0
  6
Continuous
 62
     7
370
    15
100
AcDbSpline
210
0.0
220
0.0
230
1.0
 70
    24
 71
     3
 72
    11
 73
     7
 74
     0
 42
0.000000001
 43
0.00000001
 40
0.0
 40
0.0
 40
0.0
 40
0.0
 40
0.2164543009645055
 40
0.4403089937225387
 40
0.7518987489759416
 40
1.0
 40
1.0
 40
1.0
 40
1.0
 10
207.4326766507838
 20
115.9176670557139
 30
0.0
 10
207.3188390762604
 20
116.0793574991023
 30
0.0
 10
207.0872719156039
 20
116.4082664471142
 30
0.0
 10
206.6575441229623
 20
117.0186350149567
 30
0.0
 10
206.1965817442592
 20
117.6733679685521
 30
0.0
 10
205.9015927826235
 20
118.0923587648795
 30
0.0
 10
205.7708293263606
 20
118.2780900694216
 30
0.0
  0
SPLINE
  5
B2
330
1F
100
AcDbEntity
  8
0
  6
Continuous
 62
     7
370
    15
100
AcDbSpline
210
0.0
220
0.0
230
1.0
 70
    24
 71
     3
 72
    11
 73
     7
 74
     0
 42
0.000000001
 43
0.00000001
 40
0.0
 40
0.0
 40
0.0
 40
0.0
 40
0.2164543009645025
 40
0.4403089937225423
 40
0.7518987489759469
 40
1.0
 40
1.0
 40
1.0
 40
1.0
 10
205.7708293263606
 20
118.2780900694216
 30
0.0
 10
205.5738825075754
 20
118.2603490596733
 30
0.0
 10
205.1732554227369
 20
118.2242604898686
 30
0.0
 10
204.4297968409929
 20
118.1572895886499
 30
0.0
 10
203.6323002811329
 20
118.0854509353019
 30
0.0
 10
203.1219491267437
 20
118.039478398853
 30
0.0
 10
202.8957193706007
 20
118.0190995761138
 30
0.0
  0
SPLINE
  5
B3
330
1F
100
AcDbEntity
  8
0
  6
Continuous
 62
     7
370
    15
100
AcDbSpline
210
0.0
220
0.0
230
1.0
 70
    24
 71
     3
 72
    11
 73
     7
 74
     0
 42
0.000000001
 43
0.00000001
 40
0.0
 40
0.0
 40
0.0
 40
0.0
 40
0.1285561766307304
 40
0.4801535797842178
 40
0.8150691831753835
 40
1.0
 40
1.0
 40
1.0
 40
1.0
 10
202.8957193706007
 20
118.0190995761138
 30
0.0
 10
202.846857708941
 20
117.9136080747512
 30
0.0
 10
202.6643608241158
 20
117.5196003861005
 30
0.0
 10
202.3221382913463
 20
116.7807477242048
 30
0.0
 10
201.9515834764659
 20
115.9807261442787
 30
0.0
 10
201.7530745525593
 20
115.5521487339854
 30
0.0
 10
201.682456739264
 20
115.3996860690983
 30
0.0
  0
CIRCLE
  5
B4
330
1F
100
AcDbEntity
  8
0
  6
Continuous
 62
     7
370
    15
100
AcDbCircle
 10
204.557566695
 20
115.6586765624
 30
0.0
 40
2.999999999999996
  0
CIRCLE
  5
B5
330
1F
100
AcDbEntity
  8
0
  6
Continuous
 62
     7
370
    15
100
AcDbCircle
 10
204.557566695
 20
115.6586765624
 30
0.0
 40
4.999999999999989
  0
CIRCLE
  5
B6
330
1F
100
AcDbEntity
  8
0
  6
Continuous
 62
     7
370
    15
100
AcDbCircle
 10
204.557566695
 20
115.6586765624
 30
0.0
 40
4.300000000000003
  0
ARC
  5
B7
330
1F
100
AcDbEntity
  8
0
  6
Continuous
 62
     7
370
    15
100
AcDbCircle
 10
204.557566695
 20
115.6586765624
 30
0.0
 40
2.499999999999989
100
AcDbArc
 50
275.1473229916
 51
335.1473229916
  0
ARC
  5
B8
330
1F
100
AcDbEntity
  8
0
  6
Continuous
 62
     7
370
    15
100
AcDbCircle
 10
204.557566695
 20
115.6586765624
 30
0.0
 40
2.49999999999998
100
AcDbArc
 50
35.1473229916
 51
95.1473229916
  0
ARC
  5
B9
330
1F
100
AcDbEntity
  8
0
  6
Continuous
 62
     7
370
    15
100
AcDbCircle
 10
204.557566695
 20
115.6586765624
 30
0.0
 40
2.500000000000036
100
AcDbArc
 50
95.1473229916
 51
155.1473229916
  0
ARC
  5
BA
330
1F
100
AcDbEntity
  8
0
  6
Continuous
 62
     7
370
    15
100
AcDbCircle
 10
204.557566695
 20
115.6586765624
 30
0.0
 40
2.500000000000024
100
AcDbArc
 50
215.1473229916
 51
275.1473229916
  0
ARC
  5
BB
330
1F
100
AcDbEntity
  8
0
  6
Continuous
 62
     7
370
    15
100
AcDbCircle
 10
204.557566695
 20
115.6586765624
 30
0.0
 40
2.500000000000036
100
AcDbArc
 50
155.1473229916
 51
215.1473229916
  0
ARC
  5
BC
330
1F
100
AcDbEntity
  8
0
  6
Continuous
 62
     7
370
    15
100
AcDbCircle
 10
204.557566695
 20
115.6586765624
 30
0.0
 40
2.499999999999985
100
AcDbArc
 50
335.1473229916
 51
35.1473229916
  0
LINE
  5
BD
330
1F
100
AcDbEntity
  8
0
  6
Continuous
 62
     7
370
    15
100
AcDbLine
 10
202.7163254636
 20
134.9586765624
 30
0.0
 11
206.3770768752
 21
134.9586765624
 31
0.0
  0
LINE
  5
BE
330
1F
100
AcDbEntity
  8
0
  6
Continuous
 62
     7
370
    15
100
AcDbLine
 10
200.257566695
 20
135.6586765624
 30
0.0
 11
208.857566695
 21
135.6586765624
 31
0.0
  0
SPLINE
  5
BF
330
1F
100
AcDbEntity
  8
0
  6
Continuous
 62
     7
370
    15
100
AcDbSpline
210
0.0
220
0.0
230
1.0
 70
     8
 71
     3
 72
    12
 73
     8
 74
     0
 42
0.000000001
 43
0.00000001
 40
0.0
 40
0.0
 40
0.0
 40
0.0
 40
0.2500000000000002
 40
0.2500000000000002
 40
0.5000000000000004
 40
0.5000000000000004
 40
1.0
 40
1.0
 40
1.0
 40
1.0
 10
188.2075666950239
 20
145.0990824699339
 30
0.0
 10
188.2075666950239
 20
145.2050306271641
 30
0.0
 10
188.1824979547984
 20
145.3065485105354
 30
0.0
 10
188.1081430039918
 20
145.4859830341759
 30
0.0
 10
188.0580463333882
 20
145.5656183246782
 30
0.0
 10
187.8906894084991
 20
145.767402357699
 30
0.0
 10
187.7531514928561
 20
145.8596495876997
 30
0.0
 10
187.6075666950239
 20
145.9003283030105
 30
0.0
  0
LINE
  5
C0
330
1F
100
AcDbEntity
  8
0
  6
Continuous
 62
     7
370
    15
100
AcDbLine
 10
188.207566695
 20
86.2182706549
 30
0.0
 11
188.207566695
 21
145.0990824699
 31
0.0
  0
SPLINE
  5
C1
330
1F
100
AcDbEntity
  8
0
  6
Continuous
 62
     7
370
    15
100
AcDbSpline
210
0.0
220
0.0
230
1.0
 70
     8
 71
     3
 72
    14
 73
    10
 74
     0
 42
0.000000001
 43
0.00000001
 40
0.0
 40
0.0
 40
0.0
 40
0.0
 40
0.25
 40
0.25
 40
0.5
 40
0.5
 40
0.75
 40
0.75
 40
1.0
 40
1.0
 40
1.0
 40
1.0
 10
187.6075666950239
 20
85.41702482180173
 30
0.0
 10
187.6805016686038
 20
85.43740401709293
 30
0.0
 10
187.7500132333366
 20
85.47047381390135
 30
0.0
 10
187.8827600046738
 20
85.55987991278933
 30
0.0
 10
187.9460088114124
 20
85.61679308535757
 30
0.0
 10
188.0572694737284
 20
85.7506566003798
 30
0.0
 10
188.1074044771084
 20
85.82989298650796
 30
0.0
 10
188.1824256047412
 20
86.01032818276602
 30
0.0
 10
188.2075666950239
 20
86.11208538719086
 30
0.0
 10
188.2075666950239
 20
86.21827065487828
 30
0.0
  0
ARC
  5
C2
330
1F
100
AcDbEntity
  8
0
  6
Continuous
 62
     7
370
    15
100
AcDbCircle
 10
187.257566695
 20
115.6586765624
 30
0.0
 40
31.40000000000008
100
AcDbArc
 50
254.3887887701
 51
255.1452547234
  0
ARC
  5
C3
330
1F
100
AcDbEntity
  8
0
  6
Continuous
 62
     7
370
    15
100
AcDbCircle
 10
187.257566695
 20
115.6586765624
 30
0.0
 40
31.40000000000008
100
AcDbArc
 50
104.8547452766
 51
105.6112112299
  0
LINE
  5
C4
330
1F
100
AcDbEntity
  8
0
  6
Continuous
 62
     7
370
    15
100
AcDbLine
 10
187.207566695
 20
146.0092531632
 30
0.0
 11
179.207566695
 21
146.0092531632
 31
0.0
  0
ARC
  5
C5
330
1F
100
AcDbEntity
  8
0
  6
Continuous
 62
     7
370
    15
100
AcDbCircle
 10
179.157566695
 20
115.6586765624
 30
0.0
 40
31.39999999999999
100
AcDbArc
 50
74.3887887701
 51
75.1452547234
  0
ARC
  5
C6
330
1F
100
AcDbEntity
  8
0
  6
Continuous
 62
     7
370
    15
100
AcDbCircle
 10
179.157566695
 20
115.6586765624
 30
0.0
 40
31.40000000000001
100
AcDbArc
 50
284.8547452766
 51
285.6112112299
  0
LINE
  5
C7
330
1F
100
AcDbEntity
  8
0
  6
Continuous
 62
     7
370
    15
100
AcDbLine
 10
187.207566695
 20
85.3080999616
 30
0.0
 11
179.207566695
 21
85.3080999616
 31
0.0
  0
LINE
  5
C8
330
1F
100
AcDbEntity
  8
0
  6
Continuous
 62
     7
370
    15
100
AcDbLine
 10
178.207566695
 20
86.2182706549
 30
0.0
 11
178.207566695
 21
145.0990824699
 31
0.0
  0
SPLINE
  5
C9
330
1F
100
AcDbEntity
  8
0
  6
Continuous
 62
     7
370
    15
100
AcDbSpline
210
0.0
220
0.0
230
1.0
 70
     8
 71
     3
 72
    14
 73
    10
 74
     0
 42
0.000000001
 43
0.00000001
 40
0.0
 40
0.0
 40
0.0
 40
0.0
 40
0.25
 40
0.25
 40
0.5
 40
0.5
 40
0.75
 40
0.75
 40
1.0
 40
1.0
 40
1.0
 40
1.0
 10
178.8075666950239
 20
145.9003283030105
 30
0.0
 10
178.734653126493
 20
145.8799550886315
 30
0.0
 10
178.6651587392897
 20
145.8468978283858
 30
0.0
 10
178.532439540472
 20
145.7575252303876
 30
0.0
 10
178.4692046152142
 20
145.7006364586177
 30
0.0
 10
178.3579577264542
 20
145.5668292382918
 30
0.0
 10
178.307815798592
 20
145.48759958895
 30
0.0
 10
178.2328075046115
 20
145.3073341268677
 30
0.0
 10
178.2075666950239
 20
145.2048186633453
 30
0.0
 10
178.2075666950239
 20
145.0990824699339
 30
0.0
  0
SPLINE
  5
CA
330
1F
100
AcDbEntity
  8
0
  6
Continuous
 62
     7
370
    15
100
AcDbSpline
210
0.0
220
0.0
230
1.0
 70
     8
 71
     3
 72
    14
 73
    10
 74
     0
 42
0.000000001
 43
0.00000001
 40
0.0
 40
0.0
 40
0.0
 40
0.0
 40
0.25
 40
0.25
 40
0.5
 40
0.5
 40
0.75
 40
0.75
 40
1.0
 40
1.0
 40
1.0
 40
1.0
 10
178.8075666950239
 20
85.41702482180173
 30
0.0
 10
178.734653126493
 20
85.43739803618075
 30
0.0
 10
178.6651587392897
 20
85.4704552964264
 30
0.0
 10
178.532439540472
 20
85.55982789442459
 30
0.0
 10
178.4692046152142
 20
85.61671666619459
 30
0.0
 10
178.3579577264542
 20
85.7505238865204
 30
0.0
 10
178.307815798592
 20
85.82975353586215
 30
0.0
 10
178.2328075046115
 20
86.01001899794451
 30
0.0
 10
178.2075666950239
 20
86.11253446146691
 30
0.0
 10
178.2075666950239
 20
86.21827065487827
 30
0.0
  0
LINE
  5
CB
330
1F
100
AcDbEntity
  8
0
  6
Continuous
 62
     7
370
    15
100
AcDbLine
 10
176.607566695
 20
93.4336765624
 30
0.0
 11
176.607566695
 21
137.8836765624
 31
0.0
  0
SPLINE
  5
CC
330
1F
100
AcDbEntity
  8
0
  6
Continuous
 62
     7
370
    15
100
AcDbSpline
210
0.0
220
0.0
230
1.0
 70
    11
 71
     3
 72
    88
 73
    84
 74
     0
 42
0.000000001
 43
0.00000001
 40
0.0
 40
0.0
 40
0.0
 40
0.0
 40
0.0312499999999996
 40
0.0312499999999996
 40
0.0624999999999992
 40
0.0624999999999992
 40
0.0937499999999988
 40
0.0937499999999988
 40
0.1093749999999987
 40
0.1093749999999987
 40
0.1249999999999985
 40
0.1249999999999985
 40
0.1562499999999981
 40
0.1562499999999981
 40
0.1718749999999979
 40
0.1718749999999979
 40
0.1874999999999977
 40
0.1874999999999977
 40
0.2187499999999973
 40
0.2187499999999973
 40
0.2343749999999971
 40
0.2343749999999971
 40
0.2499999999999969
 40
0.2499999999999969
 40
0.2812499999999969
 40
0.2812499999999969
 40
0.2968749999999969
 40
0.2968749999999969
 40
0.312499999999997
 40
0.312499999999997
 40
0.3437499999999968
 40
0.3437499999999968
 40
0.3593749999999967
 40
0.3593749999999967
 40
0.3749999999999967
 40
0.3749999999999967
 40
0.3906249999999966
 40
0.3906249999999966
 40
0.4062499999999965
 40
0.4062499999999965
 40
0.4374999999999964
 40
0.4374999999999964
 40
0.4531249999999963
 40
0.4531249999999963
 40
0.4687499999999962
 40
0.4687499999999962
 40
0.4999999999999964
 40
0.4999999999999964
 40
0.5312499999999967
 40
0.5312499999999967
 40
0.562499999999997
 40
0.562499999999997
 40
0.5937499999999972
 40
0.5937499999999972
 40
0.6249999999999976
 40
0.6249999999999976
 40
0.6562499999999978
 40
0.6562499999999978
 40
0.6874999999999981
 40
0.6874999999999981
 40
0.7187499999999983
 40
0.7187499999999983
 40
0.7499999999999987
 40
0.7499999999999987
 40
0.7812499999999988
 40
0.7812499999999988
 40
0.812499999999999
 40
0.812499999999999
 40
0.8281249999999991
 40
0.8281249999999991
 40
0.8437499999999992
 40
0.8437499999999992
 40
0.8749999999999994
 40
0.8749999999999994
 40
0.8906249999999994
 40
0.8906249999999994
 40
0.9062499999999994
 40
0.9062499999999994
 40
0.9374999999999997
 40
0.9374999999999997
 40
0.9687499999999998
 40
0.9687499999999998
 40
1.0
 40
1.0
 40
1.0
 40
1.0
 10
200.4003205818312
 20
119.7436799247349
 30
0.0
 10
200.7037954896589
 20
119.9816726291696
 30
0.0
 10
201.0248609030351
 20
120.1876151502885
 30
0.0
 10
201.6992532480839
 20
120.5418714063989
 30
0.0
 10
202.0546303651997
 20
120.6907509260409
 30
0.0
 10
202.7897210139745
 20
120.9272865124616
 30
0.0
 10
203.1632471911587
 20
121.0133368217852
 30
0.0
 10
203.7321808263444
 20
121.0963493527419
 30
0.0
 10
203.9232751387061
 20
121.1162906712546
 30
0.0
 10
204.3084128469485
 20
121.1404905507836
 30
0.0
 10
204.5032910106868
 20
121.1446896824661
 30
0.0
 10
205.0826767786705
 20
121.1332707868918
 30
0.0
 10
205.4639581044736
 20
121.0942399847326
 30
0.0
 10
206.028569642077
 20
120.9893015187883
 30
0.0
 10
206.2155481760053
 20
120.9465426394276
 30
0.0
 10
206.5869928354222
 20
120.844988059197
 30
0.0
 10
206.7721429878225
 20
120.7858801201907
 30
0.0
 10
207.3135510919132
 20
120.58716677444
 30
0.0
 10
207.6586813535974
 20
120.4258700429761
 30
0.0
 10
208.1525570089687
 20
120.1397316039376
 30
0.0
 10
208.3131864640296
 20
120.0369373154332
 30
0.0
 10
208.6260801823993
 20
119.815671980703
 30
0.0
 10
208.7788288602852
 20
119.6966711816297
 30
0.0
 10
209.2140227962323
 20
119.3228585870709
 30
0.0
 10
209.4768521810793
 20
119.0494954450812
 30
0.0
 10
209.8280218532707
 20
118.6006393193574
 30
0.0
 10
209.9378460666121
 20
118.4445046745095
 30
0.0
 10
210.1418788585187
 20
118.118054803673
 30
0.0
 10
210.2357552798645
 20
117.9478975340271
 30
0.0
 10
210.4847734553351
 20
117.4299342835267
 30
0.0
 10
210.610730918498
 20
117.0701415166725
 30
0.0
 10
210.7354317066892
 20
116.5070216312794
 30
0.0
 10
210.766308233484
 20
116.3138008815055
 30
0.0
 10
210.8038947057187
 20
115.9278572655242
 30
0.0
 10
210.8108203460301
 20
115.7353794135936
 30
0.0
 10
210.8015213250799
 20
115.3513877356119
 30
0.0
 10
210.7852956249615
 20
115.1598739520643
 30
0.0
 10
210.729518678494
 20
114.7778166363524
 30
0.0
 10
210.6895547499732
 20
114.5860932200959
 30
0.0
 10
210.5375506749985
 20
114.026198484948
 30
0.0
 10
210.393947556877
 20
113.6701941386652
 30
0.0
 10
210.119216082181
 20
113.1601707986919
 30
0.0
 10
210.0177645222808
 20
112.9946718544804
 30
0.0
 10
209.8001015382686
 20
112.6785269174162
 30
0.0
 10
209.6833973577594
 20
112.526924820068
 30
0.0
 10
209.3107529376539
 20
112.0904827142304
 30
0.0
 10
209.0295740498975
 20
111.8219879531314
 30
0.0
 10
208.4284297052411
 20
111.3476807877003
 30
0.0
 10
208.1076385701207
 20
111.1399567753028
 30
0.0
 10
207.4269888480877
 20
110.7802655337305
 30
0.0
 10
207.0694896275203
 20
110.6302531704214
 30
0.0
 10
206.340508471848
 20
110.3941895771191
 30
0.0
 10
205.9663123184795
 20
110.3066706981531
 30
0.0
 10
205.1980305717178
 20
110.1934860221255
 30
0.0
 10
204.8124419599689
 20
110.1692630753429
 30
0.0
 10
204.0450290371554
 20
110.1832956401429
 30
0.0
 10
203.6621141552211
 20
110.2213855421216
 30
0.0
 10
202.8979381066892
 20
110.3628081696337
 30
0.0
 10
202.5274026125909
 20
110.4641852503246
 30
0.0
 10
201.8099221393506
 20
110.7267349449243
 30
0.0
 10
201.4624651805374
 20
110.8880647039721
 30
0.0
 10
200.7935675597182
 20
111.2754754248609
 30
0.0
 10
200.4821705347809
 20
111.49568300047
 30
0.0
 10
199.9056326094392
 20
111.9903194343532
 30
0.0
 10
199.6393427786953
 20
112.2660438811908
 30
0.0
 10
199.1639785845145
 20
112.8745609776303
 30
0.0
 10
198.9619061398776
 20
113.1979331958351
 30
0.0
 10
198.714127315128
 20
113.7131122199578
 30
0.0
 10
198.6408263739648
 20
113.8898956491529
 30
0.0
 10
198.5141280879027
 20
114.2543509018922
 30
0.0
 10
198.4606592712889
 20
114.4430646659488
 30
0.0
 10
198.3364461771976
 20
115.0091506830659
 30
0.0
 10
198.299355876467
 20
115.3912403178273
 30
0.0
 10
198.3139205830587
 20
115.971608030336
 30
0.0
 10
198.3308639182148
 20
116.1673995765628
 30
0.0
 10
198.3876881524475
 20
116.550684073162
 30
0.0
 10
198.4274621041164
 20
116.7392706848968
 30
0.0
 10
198.5795626733386
 20
117.2962391007721
 30
0.0
 10
198.7269526243345
 20
117.659778344456
 30
0.0
 10
199.0936159075614
 20
118.3365773559859
 30
0.0
 10
199.312314734645
 20
118.6519120770484
 30
0.0
 10
199.8165149530197
 20
119.2396858855038
 30
0.0
 10
200.0968456740035
 20
119.5056872203003
 30
0.0
 10
200.4003205818312
 20
119.7436799247349
 30
0.0
  0
SPLINE
  5
CD
330
1F
100
AcDbEntity
  8
0
  6
Continuous
 62
     7
370
    15
100
AcDbSpline
210
0.0
220
0.0
230
1.0
 70
     8
 71
     3
 72
    38
 73
    34
 74
     0
 42
0.000000001
 43
0.00000001
 40
0.0
 40
0.0
 40
0.0
 40
0.0
 40
0.0246290373516426
 40
0.0552121597161544
 40
0.0830005366975847
 40
0.1113091435422198
 40
0.1399733308388281
 40
0.1696505811252944
 40
0.1998238221746558
 40
0.2303287518487621
 40
0.2471544834892986
 40
0.2639800030594716
 40
0.2981850227798352
 40
0.3327756363917928
 40
0.3516611361724248
 40
0.3705465322067144
 40
0.4090011497076164
 40
0.4479515475926979
 40
0.4779344068899321
 40
0.5235692839522293
 40
0.5700703896094251
 40
0.6003537578048865
 40
0.6464718785879802
 40
0.6935134903783666
 40
0.7233081072902144
 40
0.7687573344020701
 40
0.8152638668282338
 40
0.8425661013451495
 40
0.884318317437741
 40
0.927212132735977
 40
0.958233626482093
 40
0.9900371689883766
 40
1.0
 40
1.0
 40
1.0
 40
1.0
 10
210.8027354463399
 20
135.6575277391833
 30
0.0
 10
210.8004594809328
 20
135.6569839087459
 30
0.0
 10
210.7953573340737
 20
135.6557647765264
 30
0.0
 10
210.7109392445621
 20
135.6357521663667
 30
0.0
 10
210.5715312461159
 20
135.6032768167628
 30
0.0
 10
210.3818678297728
 20
135.5601368830512
 30
0.0
 10
210.1387121004643
 20
135.5066514661092
 30
0.0
 10
209.8426770611113
 20
135.4443195723571
 30
0.0
 10
209.495827545014
 20
135.3752678643739
 30
0.0
 10
209.163722361164
 20
135.3135924296669
 30
0.0
 10
208.8693336129199
 20
135.2624329546203
 30
0.0
 10
208.5442896913423
 20
135.2087959396275
 30
0.0
 10
208.1097361100595
 20
135.1430569448086
 30
0.0
 10
207.6365448566749
 20
135.0812413829532
 30
0.0
 10
207.2313261491939
 20
135.0353604710156
 30
0.0
 10
206.7946857377761
 20
134.9913975092892
 30
0.0
 10
206.2264160440631
 20
134.9452386652684
 30
0.0
 10
205.5753167797515
 20
134.9104847283829
 30
0.0
 10
204.871500618154
 20
134.8909005960662
 30
0.0
 10
204.1161223626713
 20
134.8912735664711
 30
0.0
 10
203.364944942154
 20
134.917683886028
 30
0.0
 10
202.6265349427107
 20
134.9643157174687
 30
0.0
 10
201.906047079536
 20
135.0295243307707
 30
0.0
 10
201.2268143950293
 20
135.1122540060464
 30
0.0
 10
200.5938012273952
 20
135.2040205840093
 30
0.0
 10
200.0107751650507
 20
135.3012352669981
 30
0.0
 10
199.5101235275507
 20
135.3962215822131
 30
0.0
 10
199.0919022223678
 20
135.4817168456822
 30
0.0
 10
198.7537563362751
 20
135.5551947502684
 30
0.0
 10
198.4999558116607
 20
135.6133160567116
 30
0.0
 10
198.3609814465024
 20
135.6459561607699
 30
0.0
 10
198.3036818098552
 20
135.659600398872
 30
0.0
 10
198.3133102412
 20
135.6573103283656
 30
0.0
 10
198.3156069796121
 20
135.6567640615117
 30
0.0
  0
LINE
  5
CE
330
1F
100
AcDbEntity
  8
0
  6
Continuous
 62
     7
370
    15
100
AcDbLine
 10
216.207566695
 20
115.6586765624
 30
0.0
 11
216.207566695
 21
95.6586765624
 31
0.0
  0
LINE
  5
CF
330
1F
100
AcDbEntity
  8
0
  6
Continuous
 62
     7
370
    15
100
AcDbLine
 10
216.207566695
 20
135.6586765624
 30
0.0
 11
216.207566695
 21
115.6586765624
 31
0.0
  0
LINE
  5
D0
330
1F
100
AcDbEntity
  8
0
  6
Continuous
 62
     7
370
    15
100
AcDbLine
 10
216.607566695
 20
115.6586765624
 30
0.0
 11
216.607566695
 21
96.0586765624
 31
0.0
  0
LINE
  5
D1
330
1F
100
AcDbEntity
  8
0
  6
Continuous
 62
     7
370
    15
100
AcDbLine
 10
216.607566695
 20
135.2586765624
 30
0.0
 11
216.607566695
 21
115.6586765624
 31
0.0
  0
LINE
  5
D2
330
1F
100
AcDbEntity
  8
0
  6
Continuous
 62
     7
370
    15
100
AcDbLine
 10
101.607566695
 20
103.0086765624
 30
0.0
 11
101.607566695
 21
128.3086765624
 31
0.0
  0
LINE
  5
D3
330
1F
100
AcDbEntity
  8
0
  6
Continuous
 62
     7
370
    15
100
AcDbLine
 10
94.0904247536
 20
103.2036765624
 30
0.0
 11
94.0904247536
 21
128.1136765624
 31
0.0
  0
LINE
  5
D4
330
1F
100
AcDbEntity
  8
0
  6
Continuous
 62
     7
370
    15
100
AcDbLine
 10
91.007566695
 20
103.2036765624
 30
0.0
 11
91.007566695
 21
128.1136765624
 31
0.0
  0
LINE
  5
D5
330
1F
100
AcDbEntity
  8
0
  6
Continuous
 62
     7
370
    15
100
AcDbLine
 10
83.207566695
 20
105.1086765624
 30
0.0
 11
83.207566695
 21
126.208676488
 31
0.0
  0
LINE
  5
D6
330
1F
100
AcDbEntity
  8
0
  6
Continuous
 62
     7
370
    15
100
AcDbLine
 10
89.007566695
 20
104.9086765624
 30
0.0
 11
89.007566695
 21
126.4086765624
 31
0.0
  0
LINE
  5
D7
330
1F
100
AcDbEntity
  8
0
  6
HIDDEN
 62
     7
370
     0
100
AcDbLine
 10
199.557566695
 20
128.4361756372
 30
0.0
 11
209.557566695
 21
128.4361756372
 31
0.0
  0
LINE
  5
D8
330
1F
100
AcDbEntity
  8
0
  6
HIDDEN
 62
     7
370
     0
100
AcDbLine
 10
199.557566695
 20
134.9586765624
 30
0.0
 11
202.7163254636
 21
134.9586765624
 31
0.0
  0
LINE
  5
D9
330
1F
100
AcDbEntity
  8
0
  6
HIDDEN
 62
     7
370
     0
100
AcDbLine
 10
206.3770768752
 20
134.9586765624
 30
0.0
 11
209.557566695
 21
134.9586765624
 31
0.0
  0
SPLINE
  5
DA
330
1F
100
AcDbEntity
  8
0
  6
HIDDEN
 62
     7
370
     0
100
AcDbSpline
210
0.0
220
0.0
230
1.0
 70
     8
 71
     3
 72
    11
 73
     7
 74
     0
 42
0.000000001
 43
0.00000001
 40
0.0
 40
0.0
 40
0.0
 40
0.0
 40
0.2164543009644961
 40
0.4403089937225328
 40
0.7518987489759437
 40
0.9999999999999999
 40
0.9999999999999999
 40
0.9999999999999999
 40
0.9999999999999999
 10
201.682456739264
 20
135.5454279083542
 30
0.0
 10
201.7962943137875
 20
135.4548798579582
 30
0.0
 10
202.0278614744439
 20
135.2706879949377
 30
0.0
 10
202.4575892670856
 20
135.1171620898394
 30
0.0
 10
202.9185516457887
 20
135.2097234163499
 30
0.0
 10
203.2135406074243
 20
135.4423213191442
 30
0.0
 10
203.3443040636872
 20
135.5454279083542
 30
0.0
  0
SPLINE
  5
DB
330
1F
100
AcDbEntity
  8
0
  6
HIDDEN
 62
     7
370
     0
100
AcDbSpline
210
0.0
220
0.0
230
1.0
 70
     8
 71
     3
 72
    11
 73
     7
 74
     0
 42
0.000000001
 43
0.00000001
 40
0.0
 40
0.0
 40
0.0
 40
0.0
 40
0.2164543009645002
 40
0.4403089937225325
 40
0.7518987489759424
 40
1.0
 40
1.0
 40
1.0
 40
1.0
 10
203.3443040636872
 20
135.5454279083542
 30
0.0
 10
203.5412508824724
 20
135.4548798579581
 30
0.0
 10
203.9418779673109
 20
135.2706879949377
 30
0.0
 10
204.685336549055
 20
135.1171620898393
 30
0.0
 10
205.4828331089149
 20
135.20972341635
 30
0.0
 10
205.9931842633042
 20
135.4423213191442
 30
0.0
 10
206.2194140194471
 20
135.5454279083542
 30
0.0
  0
SPLINE
  5
DC
330
1F
100
AcDbEntity
  8
0
  6
HIDDEN
 62
     7
370
     0
100
AcDbSpline
210
0.0
220
0.0
230
1.0
 70
     8
 71
     3
 72
    11
 73
     7
 74
     0
 42
0.000000001
 43
0.00000001
 40
0.0
 40
0.0
 40
0.0
 40
0.0
 40
0.1849308168246149
 40
0.5198464202157762
 40
0.8714438233692692
 40
0.9999999999999999
 40
0.9999999999999999
 40
0.9999999999999999
 40
0.9999999999999999
 10
206.2194140194471
 20
135.5454279083542
 30
0.0
 10
206.2900318327424
 20
135.4674231728404
 30
0.0
 10
206.4885407566489
 20
135.2481493751413
 30
0.0
 10
206.8590955715293
 20
135.0861450441212
 30
0.0
 10
207.2013181042989
 20
135.2845290907598
 30
0.0
 10
207.383814989124
 20
135.4903275027439
 30
0.0
 10
207.4326766507838
 20
135.5454279083542
 30
0.0
  0
SPLINE
  5
DD
330
1F
100
AcDbEntity
  8
0
  6
HIDDEN
 62
     7
370
     0
100
AcDbSpline
210
0.0
220
0.0
230
1.0
 70
     8
 71
     3
 72
    11
 73
     7
 74
     0
 42
0.000000001
 43
0.00000001
 40
0.0
 40
0.0
 40
0.0
 40
0.0
 40
0.2164543009645056
 40
0.4403089937225387
 40
0.7518987489759413
 40
1.0
 40
1.0
 40
1.0
 40
1.0
 10
207.4326766507838
 20
135.5454279083542
 30
0.0
 10
207.3188390762604
 20
135.4548798579582
 30
0.0
 10
207.087271915604
 20
135.2706879949377
 30
0.0
 10
206.6575441229623
 20
135.1171620898394
 30
0.0
 10
206.1965817442592
 20
135.20972341635
 30
0.0
 10
205.9015927826235
 20
135.4423213191442
 30
0.0
 10
205.7708293263606
 20
135.5454279083543
 30
0.0
  0
SPLINE
  5
DE
330
1F
100
AcDbEntity
  8
0
  6
HIDDEN
 62
     7
370
     0
100
AcDbSpline
210
0.0
220
0.0
230
1.0
 70
     8
 71
     3
 72
    11
 73
     7
 74
     0
 42
0.000000001
 43
0.00000001
 40
0.0
 40
0.0
 40
0.0
 40
0.0
 40
0.2164543009645024
 40
0.4403089937225421
 40
0.7518987489759468
 40
1.0
 40
1.0
 40
1.0
 40
1.0
 10
205.7708293263606
 20
135.5454279083543
 30
0.0
 10
205.5738825075754
 20
135.4548798579582
 30
0.0
 10
205.1732554227369
 20
135.2706879949377
 30
0.0
 10
204.4297968409929
 20
135.1171620898394
 30
0.0
 10
203.6323002811329
 20
135.20972341635
 30
0.0
 10
203.1219491267437
 20
135.4423213191442
 30
0.0
 10
202.8957193706007
 20
135.5454279083543
 30
0.0
  0
SPLINE
  5
DF
330
1F
100
AcDbEntity
  8
0
  6
HIDDEN
 62
     7
370
     0
100
AcDbSpline
210
0.0
220
0.0
230
1.0
 70
     8
 71
     3
 72
    11
 73
     7
 74
     0
 42
0.000000001
 43
0.00000001
 40
0.0
 40
0.0
 40
0.0
 40
0.0
 40
0.1285561766307304
 40
0.4801535797842179
 40
0.8150691831753838
 40
1.0
 40
1.0
 40
1.0
 40
1.0
 10
202.8957193706007
 20
135.5454279083543
 30
0.0
 10
202.846857708941
 20
135.490327502744
 30
0.0
 10
202.6643608241158
 20
135.2845290907598
 30
0.0
 10
202.3221382913463
 20
135.0861450441213
 30
0.0
 10
201.9515834764659
 20
135.2481493751414
 30
0.0
 10
201.7530745525593
 20
135.4674231728404
 30
0.0
 10
201.682456739264
 20
135.5454279083542
 30
0.0
  0
LINE
  5
E0
330
1F
100
AcDbEntity
  8
0
  6
HIDDEN
 62
     7
370
     0
100
AcDbLine
 10
201.7377647914
 20
121.1586765624
 30
0.0
 11
207.3773685986
 21
121.1586765624
 31
0.0
  0
LINE
  5
E1
330
1F
100
AcDbEntity
  8
0
  6
HIDDEN
 62
     7
370
     0
100
AcDbLine
 10
202.057566695
 20
127.6586765624
 30
0.0
 11
207.057566695
 21
127.6586765624
 31
0.0
  0
LINE
  5
E2
330
1F
100
AcDbEntity
  8
0
  6
HIDDEN
 62
     7
370
     0
100
AcDbLine
 10
204.7818590416
 20
128.6586765624
 30
0.0
 11
203.3443040637
 21
128.6586765624
 31
0.0
  0
LINE
  5
E3
330
1F
100
AcDbEntity
  8
0
  6
HIDDEN
 62
     7
370
     0
100
AcDbLine
 10
206.2194140194
 20
128.6586765624
 30
0.0
 11
204.7818590416
 21
128.6586765624
 31
0.0
  0
LINE
  5
E4
330
1F
100
AcDbEntity
  8
0
  6
HIDDEN
 62
     7
370
     0
100
AcDbLine
 10
203.3443040637
 20
128.6586765624
 30
0.0
 11
202.5133804015
 21
128.6586765624
 31
0.0
  0
LINE
  5
E5
330
1F
100
AcDbEntity
  8
0
  6
HIDDEN
 62
     7
370
     0
100
AcDbLine
 10
203.3443040637
 20
128.6586765624
 30
0.0
 11
203.3443040637
 21
135.5454279084
 31
0.0
  0
LINE
  5
E6
330
1F
100
AcDbEntity
  8
0
  6
HIDDEN
 62
     7
370
     0
100
AcDbLine
 10
206.8260453351
 20
128.6586765624
 30
0.0
 11
206.2194140194
 21
128.6586765624
 31
0.0
  0
LINE
  5
E7
330
1F
100
AcDbEntity
  8
0
  6
HIDDEN
 62
     7
370
     0
100
AcDbLine
 10
206.2194140194
 20
128.6586765624
 30
0.0
 11
206.2194140194
 21
135.5454279084
 31
0.0
  0
LINE
  5
E8
330
1F
100
AcDbEntity
  8
0
  6
HIDDEN
 62
     7
370
     0
100
AcDbLine
 10
202.5133804015
 20
128.6586765624
 30
0.0
 11
201.6824567393
 21
128.6586765624
 31
0.0
  0
LINE
  5
E9
330
1F
100
AcDbEntity
  8
0
  6
HIDDEN
 62
     7
370
     0
100
AcDbLine
 10
207.4326766508
 20
128.6586765624
 30
0.0
 11
206.8260453351
 21
128.6586765624
 31
0.0
  0
LINE
  5
EA
330
1F
100
AcDbEntity
  8
0
  6
HIDDEN
 62
     7
370
     0
100
AcDbLine
 10
202.8957193706
 20
128.6586765624
 30
0.0
 11
202.8957193706
 21
135.5454279084
 31
0.0
  0
LINE
  5
EB
330
1F
100
AcDbEntity
  8
0
  6
HIDDEN
 62
     7
370
     0
100
AcDbLine
 10
201.6824567393
 20
128.6586765624
 30
0.0
 11
201.6824567393
 21
135.5454279084
 31
0.0
  0
LINE
  5
EC
330
1F
100
AcDbEntity
  8
0
  6
HIDDEN
 62
     7
370
     0
100
AcDbLine
 10
205.7708293264
 20
128.6586765624
 30
0.0
 11
205.7708293264
 21
135.5454279084
 31
0.0
  0
LINE
  5
ED
330
1F
100
AcDbEntity
  8
0
  6
HIDDEN
 62
     7
370
     0
100
AcDbLine
 10
207.4326766508
 20
128.6586765624
 30
0.0
 11
207.4326766508
 21
135.5454279084
 31
0.0
  0
CIRCLE
  5
EE
330
1F
100
AcDbEntity
  8
0
  6
HIDDEN
 62
     7
370
     0
100
AcDbCircle
 10
204.557566695
 20
115.6586765624
 30
0.0
 40
4.5
  0
LINE
  5
EF
330
1F
100
AcDbEntity
  8
0
  6
HIDDEN
 62
     7
370
     0
100
AcDbLine
 10
200.4003205818
 20
135.2370513697
 30
0.0
 11
200.5978956577
 21
135.2063159216
 31
0.0
  0
LINE
  5
F0
330
1F
100
AcDbEntity
  8
0
  6
HIDDEN
 62
     7
370
     0
100
AcDbLine
 10
188.107566695
 20
115.6586765624
 30
0.0
 11
188.107566695
 21
105.1586765624
 31
0.0
  0
LINE
  5
F1
330
1F
100
AcDbEntity
  8
0
  6
HIDDEN
 62
     7
370
     0
100
AcDbLine
 10
188.107566695
 20
126.1586765624
 30
0.0
 11
188.107566695
 21
115.6586765624
 31
0.0
  0
LINE
  5
F2
330
1F
100
AcDbEntity
  8
0
  6
HIDDEN
 62
     7
370
     0
100
AcDbLine
 10
191.9735920988
 20
115.6586765624
 30
0.0
 11
191.9735920988
 21
104.6586765624
 31
0.0
  0
LINE
  5
F3
330
1F
100
AcDbEntity
  8
0
  6
HIDDEN
 62
     7
370
     0
100
AcDbLine
 10
191.9735920988
 20
126.6586765624
 30
0.0
 11
191.9735920988
 21
115.6586765624
 31
0.0
  0
SPLINE
  5
F4
330
1F
100
AcDbEntity
  8
0
  6
HIDDEN
 62
     7
370
     0
100
AcDbSpline
210
0.0
220
0.0
230
1.0
 70
     8
 71
     3
 72
    27
 73
    23
 74
     0
 42
0.000000001
 43
0.00000001
 40
0.0
 40
0.0
 40
0.0
 40
0.0
 40
0.0500092550265675
 40
0.1015384526477478
 40
0.1515300607885556
 40
0.2028582805831551
 40
0.2550892981947214
 40
0.3087002802757943
 40
0.3632459604440104
 40
0.4195201413252285
 40
0.4714279324561962
 40
0.5250886900801125
 40
0.5733156632022365
 40
0.6228931526934063
 40
0.6722176279993709
 40
0.722769926879878
 40
0.7760416697726209
 40
0.8307877679671628
 40
0.8850614898790838
 40
0.9411127646001918
 40
0.9920520526501316
 40
1.0
 40
1.0
 40
1.0
 40
1.0
 10
200.057566695024
 20
126.6586765624061
 30
0.0
 10
200.0685583523604
 20
126.654156712354
 30
0.0
 10
200.0908757389598
 20
126.6449796394253
 30
0.0
 10
200.269593313052
 20
126.572974558684
 30
0.0
 10
200.5498307521046
 20
126.4652252778336
 30
0.0
 10
200.9330479718711
 20
126.3278818807316
 30
0.0
 10
201.4177630127822
 20
126.1716550464368
 30
0.0
 10
201.9980317655593
 20
126.0114037498766
 30
0.0
 10
202.669237308062
 20
125.8641973527689
 30
0.0
 10
203.3952433372515
 20
125.7540534109104
 30
0.0
 10
204.1557773411366
 20
125.6946826470444
 30
0.0
 10
204.8922840958978
 20
125.6928510669777
 30
0.0
 10
205.6059327743913
 20
125.7431534090917
 30
0.0
 10
206.2700214702621
 20
125.834443781054
 30
0.0
 10
206.898117671642
 20
125.9598335587347
 30
0.0
 10
207.480488297096
 20
126.1084711506574
 30
0.0
 10
208.0058438722609
 20
126.2685437583223
 30
0.0
 10
208.447254782241
 20
126.4213552396163
 30
0.0
 10
208.7887131669846
 20
126.5505095374002
 30
0.0
 10
208.9878857660875
 20
126.6301117998552
 30
0.0
 10
209.0712142154403
 20
126.6642381496706
 30
0.0
 10
209.0521067097248
 20
126.6564507311518
 30
0.0
 10
209.0495277900594
 20
126.6553996715808
 30
0.0
  0
LINE
  5
F5
330
1F
100
AcDbEntity
  8
0
  6
HIDDEN
 62
     7
370
     0
100
AcDbLine
 10
188.207566695
 20
93.1586765624
 30
0.0
 11
187.8703083948
 21
93.1586765624
 31
0.0
  0
ELLIPSE
  5
F6
330
1F
100
AcDbEntity
  8
0
  6
HIDDEN
 62
     7
370
     0
100
AcDbEllipse
 10
187.8703083948
 20
91.5586765624
 30
0.0
 11
0.0
 21
1.599999999999994
 31
0.0
210
0.0
220
0.0
230
1.0
 40
0.4142135624
 41
0.0
 42
1.570796326794897
  0
ELLIPSE
  5
F7
330
1F
100
AcDbEntity
  8
0
  6
HIDDEN
 62
     7
370
     0
100
AcDbEllipse
 10
187.8703083948
 20
139.7586765624
 30
0.0
 11
0.0
 21
1.599999999999994
 31
0.0
210
0.0
220
0.0
230
1.0
 40
0.4142135624
 41
1.570796326794897
 42
3.141592653589793
  0
LINE
  5
F8
330
1F
100
AcDbEntity
  8
0
  6
HIDDEN
 62
     7
370
     0
100
AcDbLine
 10
187.8703083948
 20
138.1586765624
 30
0.0
 11
188.207566695
 21
138.1586765624
 31
0.0
  0
LINE
  5
F9
330
1F
100
AcDbEntity
  8
0
  6
HIDDEN
 62
     7
370
     0
100
AcDbLine
 10
178.207566695
 20
138.1586765624
 30
0.0
 11
178.5448249952
 21
138.1586765624
 31
0.0
  0
ELLIPSE
  5
FA
330
1F
100
AcDbEntity
  8
0
  6
HIDDEN
 62
     7
370
     0
100
AcDbEllipse
 10
178.5448249952
 20
139.7586765624
 30
0.0
 11
0.0
 21
1.599999999999994
 31
0.0
210
0.0
220
0.0
230
1.0
 40
0.4142135624
 41
3.141592653589793
 42
4.712388980384695
  0
ELLIPSE
  5
FB
330
1F
100
AcDbEntity
  8
0
  6
HIDDEN
 62
     7
370
     0
100
AcDbEllipse
 10
178.5448249952
 20
91.5586765624
 30
0.0
 11
0.0
 21
1.599999999999994
 31
0.0
210
0.0
220
0.0
230
1.0
 40
0.4142135624
 41
4.712388980384695
 42
6.283185307179586
  0
LINE
  5
FC
330
1F
100
AcDbEntity
  8
0
  6
HIDDEN
 62
     7
370
     0
100
AcDbLine
 10
178.5448249952
 20
93.1586765624
 30
0.0
 11
178.207566695
 21
93.1586765624
 31
0.0
  0
LINE
  5
FD
330
1F
100
AcDbEntity
  8
0
  6
HIDDEN
 62
     7
370
     0
100
AcDbLine
 10
93.0735920988
 20
108.6586765624
 30
0.0
 11
93.0735920988
 21
122.6586765624
 31
0.0
  0
LINE
  5
FE
330
1F
100
AcDbEntity
  8
0
  6
HIDDEN
 62
     7
370
     0
100
AcDbLine
 10
187.207566695
 20
146.0092531632
 30
0.0
 11
187.207566695
 21
139.7586765624
 31
0.0
  0
LINE
  5
FF
330
1F
100
AcDbEntity
  8
0
  6
HIDDEN
 62
     7
370
     0
100
AcDbLine
 10
179.207566695
 20
146.0092531632
 30
0.0
 11
179.207566695
 21
139.7586765624
 31
0.0
  0
LINE
  5
100
330
1F
100
AcDbEntity
  8
0
  6
HIDDEN
 62
     7
370
     0
100
AcDbLine
 10
178.5448249952
 20
138.1586765624
 30
0.0
 11
187.8703083948
 21
138.1586765624
 31
0.0
  0
LINE
  5
101
330
1F
100
AcDbEntity
  8
0
  6
HIDDEN
 62
     7
370
     0
100
AcDbLine
 10
187.8703083948
 20
93.1586765624
 30
0.0
 11
178.5448249952
 21
93.1586765624
 31
0.0
  0
LINE
  5
102
330
1F
100
AcDbEntity
  8
0
  6
HIDDEN
 62
     7
370
     0
100
AcDbLine
 10
179.207566695
 20
85.3080999616
 30
0.0
 11
179.207566695
 21
91.5586765624
 31
0.0
  0
LINE
  5
103
330
1F
100
AcDbEntity
  8
0
  6
HIDDEN
 62
     7
370
     0
100
AcDbLine
 10
187.207566695
 20
91.5586765624
 30
0.0
 11
187.207566695
 21
85.3080999616
 31
0.0
  0
LINE
  5
104
330
1F
100
AcDbEntity
  8
0
  6
HIDDEN
 62
     7
370
     0
100
AcDbLine
 10
153.207566695
 20
108.6586765624
 30
0.0
 11
153.207566695
 21
122.6586765624
 31
0.0
  0
LINE
  5
105
330
1F
100
AcDbEntity
  8
0
  6
HIDDEN
 62
     7
370
     0
100
AcDbLine
 10
155.3706649235
 20
112.2586765624
 30
0.0
 11
155.3706649235
 21
119.0586765624
 31
0.0
  0
LINE
  5
106
330
1F
100
AcDbEntity
  8
0
  6
HIDDEN
 62
     7
370
     0
100
AcDbLine
 10
200.057566695
 20
133.9086765624
 30
0.0
 11
209.057566695
 21
133.9086765624
 31
0.0
  0
LINE
  5
107
330
1F
100
AcDbEntity
  8
0
  6
HIDDEN
 62
     7
370
     0
100
AcDbLine
 10
199.557566695
 20
134.9586765624
 30
0.0
 11
199.557566695
 21
128.4361756372
 31
0.0
  0
LINE
  5
108
330
1F
100
AcDbEntity
  8
0
  6
HIDDEN
 62
     7
370
     0
100
AcDbLine
 10
209.557566695
 20
128.4361756372
 30
0.0
 11
209.557566695
 21
134.9586765624
 31
0.0
  0
LINE
  5
109
330
1F
100
AcDbEntity
  8
0
  6
HIDDEN
 62
     7
370
     0
100
AcDbLine
 10
209.557566695
 20
134.9586765624
 30
0.0
 11
209.1957062554
 21
135.320537002
 31
0.0
  0
LINE
  5
10A
330
1F
100
AcDbEntity
  8
0
  6
HIDDEN
 62
     7
370
     0
100
AcDbLine
 10
199.9197842177
 20
135.3208940851
 30
0.0
 11
199.557566695
 21
134.9586765624
 31
0.0
  0
LINE
  5
10B
330
1F
100
AcDbEntity
  8
0
  6
HIDDEN
 62
     7
370
     0
100
AcDbLine
 10
199.557566695
 20
128.4361756372
 30
0.0
 11
201.4479870435
 21
121.3810308489
 31
0.0
  0
LINE
  5
10C
330
1F
100
AcDbEntity
  8
0
  6
HIDDEN
 62
     7
370
     0
100
AcDbLine
 10
207.6671463465
 20
121.3810308489
 30
0.0
 11
209.557566695
 21
128.4361756372
 31
0.0
  0
LINE
  5
10D
330
1F
100
AcDbEntity
  8
0
  6
HIDDEN
 62
     7
370
     0
100
AcDbLine
 10
201.557566695
 20
135.6586765624
 30
0.0
 11
201.7976721794
 21
135.418571078
 31
0.0
  0
LINE
  5
10E
330
1F
100
AcDbEntity
  8
0
  6
HIDDEN
 62
     7
370
     0
100
AcDbLine
 10
207.3140673706
 20
135.415177238
 30
0.0
 11
207.557566695
 21
135.6586765624
 31
0.0
  0
ARC
  5
10F
330
1F
100
AcDbEntity
  8
0
  6
HIDDEN
 62
     7
370
     0
100
AcDbCircle
 10
201.7377647914
 20
121.4586765624
 30
0.0
 40
0.2999999999999972
100
AcDbArc
 50
195.0
 51
270.0
  0
ARC
  5
110
330
1F
100
AcDbEntity
  8
0
  6
HIDDEN
 62
     7
370
     0
100
AcDbCircle
 10
207.3773685986
 20
121.4586765624
 30
0.0
 40
0.2999999999999972
100
AcDbArc
 50
270.0
 51
345.0
  0
LINE
  5
111
330
1F
100
AcDbEntity
  8
0
  6
HIDDEN
 62
     7
370
     0
100
AcDbLine
 10
202.057566695
 20
128.6586765624
 30
0.0
 11
202.057566695
 21
127.6586765624
 31
0.0
  0
LINE
  5
112
330
1F
100
AcDbEntity
  8
0
  6
HIDDEN
 62
     7
370
     0
100
AcDbLine
 10
207.057566695
 20
127.6586765624
 30
0.0
 11
207.057566695
 21
128.6586765624
 31
0.0
  0
LINE
  5
113
330
1F
100
AcDbEntity
  8
0
  6
HIDDEN
 62
     7
370
     0
100
AcDbLine
 10
202.057566695
 20
127.6586765624
 30
0.0
 11
204.557566695
 21
126.7487509767
 31
0.0
  0
LINE
  5
114
330
1F
100
AcDbEntity
  8
0
  6
HIDDEN
 62
     7
370
     0
100
AcDbLine
 10
204.557566695
 20
126.7487509767
 30
0.0
 11
207.057566695
 21
127.6586765624
 31
0.0
  0
ARC
  5
115
330
1F
100
AcDbEntity
  8
0
  6
HIDDEN
 62
     7
370
     0
100
AcDbCircle
 10
215.607566695
 20
127.6586765624
 30
0.0
 40
1.0
100
AcDbArc
 50
270.0
 51
0.0
  0
ARC
  5
116
330
1F
100
AcDbEntity
  8
0
  6
HIDDEN
 62
     7
370
     0
100
AcDbCircle
 10
215.607566695
 20
103.6586765624
 30
0.0
 40
1.0
100
AcDbArc
 50
0.0
 51
90.0
  0
ARC
  5
117
330
1F
100
AcDbEntity
  8
0
  6
HIDDEN
 62
     7
370
     0
100
AcDbCircle
 10
189.107566695
 20
126.1586765624
 30
0.0
 40
1.0
100
AcDbArc
 50
90.0
 51
180.0
  0
ARC
  5
118
330
1F
100
AcDbEntity
  8
0
  6
HIDDEN
 62
     7
370
     0
100
AcDbCircle
 10
189.107566695
 20
105.1586765624
 30
0.0
 40
1.0
100
AcDbArc
 50
180.0
 51
270.0
  0
LINE
  5
119
330
1F
100
AcDbEntity
  8
0
  6
HIDDEN
 62
     7
370
     0
100
AcDbLine
 10
189.9759141974
 20
127.1586765624
 30
0.0
 11
189.107566695
 21
127.1586765624
 31
0.0
  0
LINE
  5
11A
330
1F
100
AcDbEntity
  8
0
  6
HIDDEN
 62
     7
370
     0
100
AcDbLine
 10
189.107566695
 20
104.1586765624
 30
0.0
 11
189.9759141974
 21
104.1586765624
 31
0.0
  0
ARC
  5
11B
330
1F
100
AcDbEntity
  8
0
  6
HIDDEN
 62
     7
370
     0
100
AcDbCircle
 10
189.9759141974
 20
126.1586765624
 30
0.0
 40
1.000000000000002
100
AcDbArc
 50
75.0
 51
90.0
  0
ARC
  5
11C
330
1F
100
AcDbEntity
  8
0
  6
HIDDEN
 62
     7
370
     0
100
AcDbCircle
 10
189.9759141974
 20
105.1586765624
 30
0.0
 40
1.0
100
AcDbArc
 50
270.0
 51
285.0
  0
LINE
  5
11D
330
1F
100
AcDbEntity
  8
0
  6
HIDDEN
 62
     7
370
     0
100
AcDbLine
 10
190.2347332425
 20
104.1927507361
 30
0.0
 11
191.9735920988
 21
104.6586765624
 31
0.0
  0
LINE
  5
11E
330
1F
100
AcDbEntity
  8
0
  6
HIDDEN
 62
     7
370
     0
100
AcDbLine
 10
191.9735920988
 20
126.6586765624
 30
0.0
 11
190.2347332425
 21
127.1246023887
 31
0.0
  0
LINE
  5
11F
330
1F
100
AcDbEntity
  8
0
  6
HIDDEN
 62
     7
370
     0
100
AcDbLine
 10
200.057566695
 20
126.6586765624
 30
0.0
 11
191.9735920988
 21
126.6586765624
 31
0.0
  0
LINE
  5
120
330
1F
100
AcDbEntity
  8
0
  6
HIDDEN
 62
     7
370
     0
100
AcDbLine
 10
215.607566695
 20
126.6586765624
 30
0.0
 11
209.0495277901
 21
126.6586765624
 31
0.0
  0
LINE
  5
121
330
1F
100
AcDbEntity
  8
0
  6
HIDDEN
 62
     7
370
     0
100
AcDbLine
 10
191.9735920988
 20
104.6586765624
 30
0.0
 11
215.607566695
 21
104.6586765624
 31
0.0
  0
ARC
  5
122
330
1F
100
AcDbEntity
  8
0
  6
HIDDEN
 62
     7
370
     0
100
AcDbCircle
 10
84.207566695
 20
106.1586765624
 30
0.0
 40
1.0
100
AcDbArc
 50
90.0
 51
180.0
  0
ARC
  5
123
330
1F
100
AcDbEntity
  8
0
  6
HIDDEN
 62
     7
370
     0
100
AcDbCircle
 10
84.207566695
 20
125.1586765624
 30
0.0
 40
1.0
100
AcDbArc
 50
180.0
 51
270.0
  0
LINE
  5
124
330
1F
100
AcDbEntity
  8
0
  6
HIDDEN
 62
     7
370
     0
100
AcDbLine
 10
84.207566695
 20
107.1586765624
 30
0.0
 11
91.9766265873
 21
107.1586765624
 31
0.0
  0
LINE
  5
125
330
1F
100
AcDbEntity
  8
0
  6
HIDDEN
 62
     7
370
     0
100
AcDbLine
 10
91.9766265873
 20
124.1586765624
 30
0.0
 11
84.207566695
 21
124.1586765624
 31
0.0
  0
ARC
  5
126
330
1F
100
AcDbEntity
  8
0
  6
HIDDEN
 62
     7
370
     0
100
AcDbCircle
 10
91.9766265873
 20
107.5586765624
 30
0.0
 40
0.4000000000000199
100
AcDbArc
 50
270.0
 51
330.0
  0
ARC
  5
127
330
1F
100
AcDbEntity
  8
0
  6
HIDDEN
 62
     7
370
     0
100
AcDbCircle
 10
91.9766265873
 20
123.7586765624
 30
0.0
 40
0.4000000000000057
100
AcDbArc
 50
30.0
 51
90.0
  0
LINE
  5
128
330
1F
100
AcDbEntity
  8
0
  6
HIDDEN
 62
     7
370
     0
100
AcDbLine
 10
92.3230367489
 20
107.3586765624
 30
0.0
 11
93.0735920988
 21
108.6586765624
 31
0.0
  0
LINE
  5
129
330
1F
100
AcDbEntity
  8
0
  6
HIDDEN
 62
     7
370
     0
100
AcDbLine
 10
93.0735920988
 20
122.6586765624
 30
0.0
 11
92.3230367489
 21
123.9586765624
 31
0.0
  0
LINE
  5
12A
330
1F
100
AcDbEntity
  8
0
  6
HIDDEN
 62
     7
370
     0
100
AcDbLine
 10
93.0735920988
 20
108.6586765624
 30
0.0
 11
153.207566695
 21
108.6586765624
 31
0.0
  0
LINE
  5
12B
330
1F
100
AcDbEntity
  8
0
  6
HIDDEN
 62
     7
370
     0
100
AcDbLine
 10
153.207566695
 20
122.6586765624
 30
0.0
 11
93.0735920988
 21
122.6586765624
 31
0.0
  0
LINE
  5
12C
330
1F
100
AcDbEntity
  8
0
  6
HIDDEN
 62
     7
370
     0
100
AcDbLine
 10
153.207566695
 20
108.6586765624
 30
0.0
 11
155.3706649235
 21
112.2586765624
 31
0.0
  0
LINE
  5
12D
330
1F
100
AcDbEntity
  8
0
  6
HIDDEN
 62
     7
370
     0
100
AcDbLine
 10
155.3706649235
 20
119.0586765624
 30
0.0
 11
153.207566695
 21
122.6586765624
 31
0.0
  0
LINE
  5
12E
330
1F
100
AcDbEntity
  8
0
  6
HIDDEN
 62
     7
370
     0
100
AcDbLine
 10
198.307566695
 20
135.6586765624
 30
0.0
 11
200.057566695
 21
133.9086765624
 31
0.0
  0
LINE
  5
12F
330
1F
100
AcDbEntity
  8
0
  6
HIDDEN
 62
     7
370
     0
100
AcDbLine
 10
209.057566695
 20
133.9086765624
 30
0.0
 11
210.807566695
 21
135.6586765624
 31
0.0
  0
SPLINE
  5
130
330
1F
100
AcDbEntity
  8
0
  6
HIDDEN
 62
     7
370
     0
100
AcDbSpline
210
0.0
220
0.0
230
1.0
 70
     8
 71
     3
 72
     9
 73
     5
 74
     0
 42
0.000000001
 43
0.00000001
 40
0.0
 40
0.0
 40
0.0
 40
0.0
 40
0.5765575045789343
 40
0.9999999999999999
 40
0.9999999999999999
 40
0.9999999999999999
 40
0.9999999999999999
 10
188.2294989922377
 20
93.27380332146407
 30
0.0
 10
188.2262747591279
 20
93.26024346612711
 30
0.0
 10
188.2206825448488
 20
93.23672481407718
 30
0.0
 10
188.212479769997
 20
93.18173742039322
 30
0.0
 10
188.2090063665444
 20
93.15845342119498
 30
0.0
  0
LINE
  5
131
330
1F
100
AcDbEntity
  8
0
  6
HIDDEN
 62
     7
370
     0
100
AcDbLine
 10
200.057566695
 20
133.9086765624
 30
0.0
 11
200.057566695
 21
126.6586765624
 31
0.0
  0
LINE
  5
132
330
1F
100
AcDbEntity
  8
0
  6
HIDDEN
 62
     7
370
     0
100
AcDbLine
 10
209.057566695
 20
126.6554089411
 30
0.0
 11
209.057566695
 21
133.9086765624
 31
0.0
  0
LINE
  5
133
330
1F
100
AcDbEntity
  8
0
  6
HIDDEN
 62
     7
370
     0
100
AcDbLine
 10
188.107566695
 20
119.0586765624
 30
0.0
 11
155.3706649235
 21
119.0586765624
 31
0.0
  0
LINE
  5
134
330
1F
100
AcDbEntity
  8
0
  6
HIDDEN
 62
     7
370
     0
100
AcDbLine
 10
155.3706649235
 20
112.2586765624
 30
0.0
 11
188.107566695
 21
112.2586765624
 31
0.0
  0
DIMENSION
  5
135
330
1F
100
AcDbEntity
  8
VERMASSUNG
100
AcDbDimension
  2
_D
 10
73.207566695
 20
147.0586765624
 30
0.0
 11
73.207566695
 21
115.6586765624
 31
0.0
 70
   160
  1
SK 40 Ø <>
 71
     2
 42
-1.0
  3
SLDDIMSTYLE0
100
AcDbAlignedDimension
 13
187.607566695
 23
84.2586765624
 33
0.0
 14
187.607566695
 24
147.0586765624
 34
0.0
 50
90.0
100
AcDbRotatedDimension
  0
DIMENSION
  5
142
330
1F
100
AcDbEntity
  8
VERMASSUNG
100
AcDbDimension
  2
_D_1
 10
224.4704010977
 20
104.6586765624
 30
0.0
 11
224.4704010977
 21
115.6586765624
 31
0.0
 70
   160
  1
%%c<>
 71
     2
 42
-1.0
  3
SLDDIMSTYLE1
100
AcDbAlignedDimension
 13
215.607566695
 23
126.6586765624
 33
0.0
 14
215.607566695
 24
104.6586765624
 34
0.0
 50
90.0
100
AcDbRotatedDimension
  0
DIMENSION
  5
14E
330
1F
100
AcDbEntity
  8
VERMASSUNG
100
AcDbDimension
  2
_D_2
 10
230.4704010977
 20
135.6586765624
 30
0.0
 11
230.4704010977
 21
115.6586765624
 31
0.0
 70
   160
  1
WH%%c<>
 71
     2
 42
-1.0
  3
SLDDIMSTYLE1
100
AcDbAlignedDimension
 13
216.207566695
 23
95.6586765624
 33
0.0
 14
216.207566695
 24
135.6586765624
 34
0.0
 50
90.0
100
AcDbRotatedDimension
  0
DIMENSION
  5
15A
330
1F
100
AcDbEntity
  8
VERMASSUNG
100
AcDbDimension
  2
_D_3
 10
188.207566695
 20
150.9827599057
 30
0.0
 11
202.407566695
 21
150.9827599057
 31
0.0
 70
   160
  1
(<>)
 71
     2
 42
-1.0
  3
SLDDIMSTYLE1
100
AcDbAlignedDimension
 13
216.607566695
 23
135.2586765624
 33
0.0
 14
188.207566695
 24
145.0990824699
 34
0.0
100
AcDbRotatedDimension
  0
DIMENSION
  5
166
330
1F
100
AcDbEntity
  8
VERMASSUNG
100
AcDbDimension
  2
_D_4
 10
176.607566695
 20
156.9827599057
 30
0.0
 11
196.607566695
 21
156.9827599057
 31
0.0
 70
   160
  1
<>
 71
     2
 42
-1.0
  3
SLDDIMSTYLE1
100
AcDbAlignedDimension
 13
216.607566695
 23
135.2586765624
 33
0.0
 14
176.607566695
 24
137.8836765624
 34
0.0
100
AcDbRotatedDimension
  0
DIMENSION
  5
170
330
1F
100
AcDbEntity
  8
VERMASSUNG
100
AcDbDimension
  2
_D_5
 10
83.207566695
 20
162.9827599057
 30
0.0
 11
149.907566695
 21
162.9827599057
 31
0.0
 70
   160
  1
(<>)
 71
     2
 42
-1.0
  3
SLDDIMSTYLE1
100
AcDbAlignedDimension
 13
216.607566695
 23
135.2586765624
 33
0.0
 14
83.207566695
 24
126.2086765624
 34
0.0
100
AcDbRotatedDimension
  0
LINE
  5
17C
330
1F
100
AcDbEntity
  8
VERMASSUNG
  6
CENTERX2
370
     0
100
AcDbLine
 10
79.166951556
 20
115.6586765624
 30
0.0
 11
219.3216174892
 21
115.6586765624
 31
0.0
  0
LINE
  5
17D
330
1F
100
AcDbEntity
  8
0
  6
Continuous
 62
     7
370
    15
100
AcDbLine
 10
262.6818170216
 20
45.5007821492
 30
0.0
 11
262.4342894343
 21
45.6437232326
 31
0.0
  0
LINE
  5
17E
330
1F
100
AcDbEntity
  8
0
  6
Continuous
 62
     7
370
    15
100
AcDbLine
 10
259.3932362193
 20
45.6437232326
 30
0.0
 11
259.145708632
 21
45.5007821492
 31
0.0
  0
LINE
  5
17F
330
1F
100
AcDbEntity
  8
0
  6
Continuous
 62
     7
370
    15
100
AcDbLine
 10
258.4137628268
 20
44.4804378576
 30
0.0
 11
258.4137628268
 21
44.2558891343
 31
0.0
  0
LINE
  5
180
330
1F
100
AcDbEntity
  8
0
  6
Continuous
 62
     7
370
    15
100
AcDbLine
 10
263.4137628268
 20
44.2558891343
 30
0.0
 11
263.4137628268
 21
44.4804378576
 31
0.0
  0
LINE
  5
181
330
1F
100
AcDbEntity
  8
0
  6
Continuous
 62
     7
370
    15
100
AcDbLine
 10
263.5528540838
 20
36.3615894066
 30
0.0
 11
265.4509078396
 21
36.7483036451
 31
0.0
  0
SPLINE
  5
182
330
1F
100
AcDbEntity
  8
0
  6
Continuous
 62
     7
370
    15
100
AcDbSpline
210
0.0
220
0.0
230
1.0
 70
     8
 71
     3
 72
    10
 73
     6
 74
     0
 42
0.000000001
 43
0.00000001
 40
0.0
 40
0.0
 40
0.0
 40
0.0
 40
0.3550376132263304
 40
0.7811128953287478
 40
1.0
 40
1.0
 40
1.0
 40
1.0
 10
262.7550668940831
 20
36.59697406260042
 30
0.0
 10
262.839729201907
 20
36.54059508659611
 30
0.0
 10
263.0259934677932
 20
36.41655655224982
 30
0.0
 10
263.2745139316024
 20
36.3397741874908
 30
0.0
 10
263.4225784052591
 20
36.35606136669835
 30
0.0
 10
263.4728284734925
 20
36.3615889037658
 30
0.0
  0
LINE
  5
183
330
1F
100
AcDbEntity
  8
0
  6
Continuous
 62
     7
370
    15
100
AcDbLine
 10
265.0338090746
 20
26.0582858326
 30
0.0
 11
265.1752074459
 21
26.1399399127
 31
0.0
  0
LINE
  5
184
330
1F
100
AcDbEntity
  8
0
  6
Continuous
 62
     7
370
    15
100
AcDbLine
 10
272.1037276391
 20
38.141789334
 30
0.0
 11
272.1037276391
 21
38.3050709563
 31
0.0
  0
LINE
  5
185
330
1F
100
AcDbEntity
  8
0
  6
Continuous
 62
     7
370
    15
100
AcDbLine
 10
270.0322534904
 20
42.883519021
 30
0.0
 11
261.1934187256
 21
47.9860697199
 31
0.0
  0
LINE
  5
186
330
1F
100
AcDbEntity
  8
0
  6
Continuous
 62
     7
370
    15
100
AcDbLine
 10
251.1942313992
 20
30.6650924723
 30
0.0
 11
260.033066164
 21
25.5625417734
 31
0.0
  0
SPLINE
  5
187
330
1F
100
AcDbEntity
  8
0
  6
Continuous
 62
     7
370
    15
100
AcDbSpline
210
0.0
220
0.0
230
1.0
 70
     8
 71
     3
 72
    11
 73
     7
 74
     0
 42
0.000000001
 43
0.00000001
 40
0.0
 40
0.0
 40
0.0
 40
0.0
 40
0.0848949446874444
 40
0.516044591128602
 40
0.9465330835072772
 40
1.0
 40
1.0
 40
1.0
 40
1.0
 10
265.6575593277855
 20
49.70765241343224
 30
0.0
 10
265.6408748732272
 20
49.76650730317399
 30
0.0
 10
265.5394563192439
 20
50.12426414752462
 30
0.0
 10
265.296106476064
 20
50.72963014696487
 30
0.0
 10
265.0363497368786
 20
51.29285028955886
 30
0.0
 10
264.8616965466455
 20
51.54969179479711
 30
0.0
 10
264.8424010343603
 20
51.57806739110352
 30
0.0
  0
LINE
  5
188
330
1F
100
AcDbEntity
  8
0
  6
Continuous
 62
     7
370
    15
100
AcDbLine
 10
262.7703949075
 20
53.6573155361
 30
0.0
 11
259.6591250702
 21
55.4534133821
 31
0.0
  0
SPLINE
  5
189
330
1F
100
AcDbEntity
  8
0
  6
Continuous
 62
     7
370
    15
100
AcDbSpline
210
0.0
220
0.0
230
1.0
 70
     8
 71
     3
 72
    29
 73
    25
 74
     0
 42
0.000000001
 43
0.00000001
 40
0.0
 40
0.0
 40
0.0
 40
0.0
 40
0.0145443619891035
 40
0.0619118835458125
 40
0.1094609068252069
 40
0.1571514353066952
 40
0.2049365994972661
 40
0.2527750248165992
 40
0.3006358542802214
 40
0.3484953951271655
 40
0.3963429370456779
 40
0.4441743140859209
 40
0.4919887290489106
 40
0.5397874245564752
 40
0.5875728201288025
 40
0.6353479832301551
 40
0.6831163224664671
 40
0.7308814208864852
 40
0.77864695261374
 40
0.8264156898436763
 40
0.8741911068362324
 40
0.9219769666460881
 40
0.9697769759318531
 40
1.0
 40
1.0
 40
1.0
 40
1.0
 10
256.7580815352806
 20
56.20387494924298
 30
0.0
 10
256.6733935290563
 20
56.20789935030893
 30
0.0
 10
256.3128968649188
 20
56.22503026676462
 30
0.0
 10
255.6442407148647
 20
56.15393957897163
 30
0.0
 10
254.7579807815498
 20
55.98932878190517
 30
0.0
 10
253.8485994552486
 20
55.71882214025769
 30
0.0
 10
252.9256497390375
 20
55.35354908015511
 30
0.0
 10
251.995006952293
 20
54.89368667441357
 30
0.0
 10
251.0635492786515
 20
54.34334158490849
 30
0.0
 10
250.1377632257706
 20
53.70641671955497
 30
0.0
 10
249.2240567470941
 20
52.98760791106778
 30
0.0
 10
248.3286373484984
 20
52.19203697191793
 30
0.0
 10
247.4575580282753
 20
51.32531165113835
 30
0.0
 10
246.6166978741714
 20
50.39347953167271
 30
0.0
 10
245.811735564508
 20
49.40300070037478
 30
0.0
 10
245.0481194880084
 20
48.36071013999469
 30
0.0
 10
244.3310249091109
 20
47.27377508949587
 30
0.0
 10
243.6653541695458
 20
46.14965692478651
 30
0.0
 10
243.055580708244
 20
44.99604274938495
 30
0.0
 10
242.506189628122
 20
43.82089042611668
 30
0.0
 10
242.0198733143245
 20
42.63199292893969
 30
0.0
 10
241.6041324443846
 20
41.43832881732996
 30
0.0
 10
241.2903967978074
 20
40.39117897163116
 30
0.0
 10
241.1482964216216
 20
39.75102395166271
 30
0.0
 10
241.0932523800745
 20
39.50305332370607
 30
0.0
  0
SPLINE
  5
18A
330
1F
100
AcDbEntity
  8
0
  6
Continuous
 62
     7
370
    15
100
AcDbSpline
210
0.0
220
0.0
230
1.0
 70
     8
 71
     3
 72
    25
 73
    21
 74
     0
 42
0.000000001
 43
0.00000001
 40
0.0
 40
0.0
 40
0.0
 40
0.0
 40
0.0110795163935482
 40
0.0751060630348982
 40
0.1320473429902662
 40
0.1925435956197795
 40
0.2511354097159513
 40
0.3088697347309667
 40
0.366386039970964
 40
0.4239115853434677
 40
0.4815688040110785
 40
0.5393838497023854
 40
0.5973328199117764
 40
0.6553714711398797
 40
0.7134480745626701
 40
0.7715021586357634
 40
0.8294662819174181
 40
0.8872854823751883
 40
0.9449093466308084
 40
1.0
 40
1.0
 40
1.0
 40
1.0
 10
262.0787121976695
 20
29.58602530941246
 30
0.0
 10
262.0575083574774
 20
29.5955425940367
 30
0.0
 10
261.913771311429
 20
29.66005856689321
 30
0.0
 10
261.7088303068261
 20
29.85634242125291
 30
0.0
 10
261.4554918480569
 20
30.18801525465992
 30
0.0
 10
261.2640259622924
 20
30.60475985654831
 30
0.0
 10
261.1324854629291
 20
31.10565303499629
 30
0.0
 10
261.070831790111
 20
31.66878665684162
 30
0.0
 10
261.0803154381571
 20
32.28444332914928
 30
0.0
 10
261.1621395348311
 20
32.94189989879126
 30
0.0
 10
261.3159955326097
 20
33.6283625350195
 30
0.0
 10
261.5399588251776
 20
34.33015509649769
 30
0.0
 10
261.8303363029775
 20
35.03292718457576
 30
0.0
 10
262.1817363024009
 20
35.72215834970284
 30
0.0
 10
262.5872008587442
 20
36.38363305670444
 30
0.0
 10
263.03831994563
 20
37.0035426578154
 30
0.0
 10
263.5255080345826
 20
37.5697849177157
 30
0.0
 10
264.0378715037053
 20
38.06891579901267
 30
0.0
 10
264.5576529442401
 20
38.49338679632715
 30
0.0
 10
264.9021366739149
 20
38.70720546273505
 30
0.0
 10
265.070507476033
 20
38.81171205410556
 30
0.0
  0
SPLINE
  5
18B
330
1F
100
AcDbEntity
  8
0
  6
Continuous
 62
     7
370
    15
100
AcDbSpline
210
0.0
220
0.0
230
1.0
 70
     8
 71
     3
 72
    14
 73
    10
 74
     0
 42
0.000000001
 43
0.00000001
 40
0.0
 40
0.0
 40
0.0
 40
0.0
 40
0.0893252178920736
 40
0.2598429431199988
 40
0.4302362585209914
 40
0.6013863530638326
 40
0.7753908574142172
 40
0.9556003711236523
 40
1.0
 40
1.0
 40
1.0
 40
1.0
 10
265.070507476033
 20
38.81171205410556
 30
0.0
 10
265.161215137984
 20
38.86183974879636
 30
0.0
 10
265.4250795471742
 20
39.00765890297982
 30
0.0
 10
265.8518581565653
 20
39.18246202865344
 30
0.0
 10
266.331652011658
 20
39.30378935582603
 30
0.0
 10
266.7749905121091
 20
39.33737156615427
 30
0.0
 10
267.1724721352629
 20
39.27964137600466
 30
0.0
 10
267.4450121579254
 20
39.19510600601509
 30
0.0
 10
267.5717902744296
 20
39.10071002900769
 30
0.0
 10
267.5968511479881
 20
39.0820502972697
 30
0.0
  0
LINE
  5
18C
330
1F
100
AcDbEntity
  8
0
  6
Continuous
 62
     7
370
    15
100
AcDbLine
 10
250.7336820559
 20
54.1013320628
 30
0.0
 11
230.8963086689
 21
61.2499351052
 31
0.0
  0
LINE
  5
18D
330
1F
100
AcDbEntity
  8
0
  6
Continuous
 62
     7
370
    15
100
AcDbLine
 10
224.5569923078
 20
50.2687272458
 30
0.0
 11
243.5903122986
 21
34.1971491917
 31
0.0
  0
SPLINE
  5
18E
330
1F
100
AcDbEntity
  8
0
  6
Continuous
 62
     7
370
    15
100
AcDbSpline
210
0.0
220
0.0
230
1.0
 70
     8
 71
     3
 72
    15
 73
    11
 74
     0
 42
0.000000001
 43
0.00000001
 40
0.0
 40
0.0
 40
0.0
 40
0.0
 40
0.0453230677757884
 40
0.19292950052912
 40
0.3411015280390201
 40
0.489714513348921
 40
0.6386224019801184
 40
0.7876962626732466
 40
0.936839939048271
 40
1.0
 40
1.0
 40
1.0
 40
1.0
 10
249.9727143400231
 20
25.71291969024774
 30
0.0
 10
250.0574023664641
 20
25.70889509049279
 30
0.0
 10
250.4178991166599
 20
25.69176332826539
 30
0.0
 10
251.0865534758433
 20
25.76287161656484
 30
0.0
 10
251.9728212209673
 20
25.92740563991765
 30
0.0
 10
252.8821735132007
 20
26.19819762561343
 30
0.0
 10
253.8052318317315
 20
26.56240335247525
 30
0.0
 10
254.7354686703495
 20
27.02625537768749
 30
0.0
 10
255.4891299287333
 20
27.45879150526988
 30
0.0
 10
255.9275356275685
 20
27.7659439069472
 30
0.0
 10
256.0579607016094
 20
27.85732131111203
 30
0.0
  0
LINE
  5
18F
330
1F
100
AcDbEntity
  8
0
  6
Continuous
 62
     7
370
    15
100
AcDbLine
 10
243.9604009678
 20
28.2594791034
 30
0.0
 11
247.0716708051
 21
26.4633812574
 31
0.0
  0
SPLINE
  5
190
330
1F
100
AcDbEntity
  8
0
  6
Continuous
 62
     7
370
    15
100
AcDbSpline
210
0.0
220
0.0
230
1.0
 70
     8
 71
     3
 72
    11
 73
     7
 74
     0
 42
0.000000001
 43
0.00000001
 40
0.0
 40
0.0
 40
0.0
 40
0.0
 40
0.0850573943540186
 40
0.5161305030079116
 40
0.9465425749674912
 40
1.0
 40
1.0
 40
1.0
 40
1.0
 10
241.0731300953923
 20
32.20950992983562
 30
0.0
 10
241.089848963736
 20
32.15053152312534
 30
0.0
 10
241.1912994959733
 20
31.79264900211512
 30
0.0
 10
241.4346870114451
 20
31.1871623751649
 30
0.0
 10
241.6944461932728
 20
30.62394439856794
 30
0.0
 10
241.8690993341146
 20
30.36710284953278
 30
0.0
 10
241.888394840943
 20
30.33872724838798
 30
0.0
  0
SPLINE
  5
191
330
1F
100
AcDbEntity
  8
0
  6
Continuous
 62
     7
370
    15
100
AcDbSpline
210
0.0
220
0.0
230
1.0
 70
     8
 71
     3
 72
    10
 73
     6
 74
     0
 42
0.000000001
 43
0.00000001
 40
0.0
 40
0.0
 40
0.0
 40
0.0
 40
0.2386514215562325
 40
0.7814805626006378
 40
1.0
 40
1.0
 40
1.0
 40
1.0
 10
223.641484024057
 20
54.38894740638489
 30
0.0
 10
223.618297215991
 20
54.27873973864001
 30
0.0
 10
223.5423704115577
 20
53.91785711899935
 30
0.0
 10
223.5055949675306
 20
53.47323519106121
 30
0.0
 10
223.5003190723233
 20
53.14751111614416
 30
0.0
 10
223.4988048045029
 20
53.05402300358501
 30
0.0
  0
SPLINE
  5
192
330
1F
100
AcDbEntity
  8
0
  6
Continuous
 62
     7
370
    15
100
AcDbSpline
210
0.0
220
0.0
230
1.0
 70
     8
 71
     3
 72
    10
 73
     6
 74
     0
 42
0.000000001
 43
0.00000001
 40
0.0
 40
0.0
 40
0.0
 40
0.0
 40
0.3150022922103509
 40
0.7080577987496912
 40
1.0
 40
1.0
 40
1.0
 40
1.0
 10
228.7711814641606
 20
61.15201863249791
 30
0.0
 10
228.6121105772236
 20
61.09039961006251
 30
0.0
 10
228.2545532361027
 20
60.95189322307535
 30
0.0
 10
227.7446810151021
 20
60.66309344353034
 30
0.0
 10
227.4031136604316
 20
60.40781881591273
 30
0.0
 10
227.2575395595788
 20
60.29902219387655
 30
0.0
  0
SPLINE
  5
193
330
1F
100
AcDbEntity
  8
0
  6
Continuous
 62
     7
370
    15
100
AcDbSpline
210
0.0
220
0.0
230
1.0
 70
     8
 71
     3
 72
    10
 73
     6
 74
     0
 42
0.000000001
 43
0.00000001
 40
0.0
 40
0.0
 40
0.0
 40
0.0
 40
0.2378680365079406
 40
0.8158811319166224
 40
1.0
 40
1.0
 40
1.0
 40
1.0
 10
223.5012243663572
 20
52.97555740501271
 30
0.0
 10
223.5033958495918
 20
52.88173053216227
 30
0.0
 10
223.5108439801834
 20
52.55990681700811
 30
0.0
 10
223.550727516458
 20
52.18063161747186
 30
0.0
 10
223.6255976206863
 20
51.92558176862793
 30
0.0
 10
223.6436850379633
 20
51.86396581269975
 30
0.0
  0
LINE
  5
194
330
1F
100
AcDbEntity
  8
0
  6
Continuous
 62
     7
370
    15
100
AcDbLine
 10
223.4988048045
 20
53.0540230036
 30
0.0
 11
223.5012243664
 21
52.975557405
 31
0.0
  0
LINE
  5
195
330
1F
100
AcDbEntity
  8
0
  6
Continuous
 62
     7
370
    15
100
AcDbLine
 10
223.3076261803
 20
51.3823640413
 30
0.0
 11
223.9801407601
 21
50.9941296382
 31
0.0
  0
LINE
  5
196
330
1F
100
AcDbEntity
  8
0
  6
Continuous
 62
     7
370
    15
100
AcDbLine
 10
229.9796531559
 20
61.3867159868
 30
0.0
 11
229.3071385761
 21
61.7749503899
 31
0.0
  0
LINE
  5
197
330
1F
100
AcDbEntity
  8
0
  6
Continuous
 62
     7
370
    15
100
AcDbLine
 10
221.3531982733
 20
52.1353637464
 30
0.0
 11
222.8139483538
 21
51.2920906745
 31
0.0
  0
LINE
  5
198
330
1F
100
AcDbEntity
  8
0
  6
Continuous
 62
     7
370
    15
100
AcDbLine
 10
229.1384343377
 20
62.2476087836
 30
0.0
 11
227.6776842572
 21
63.0908818555
 31
0.0
  0
LINE
  5
199
330
1F
100
AcDbEntity
  8
0
  6
Continuous
 62
     7
370
    15
100
AcDbLine
 10
219.545176895
 20
54.4059483612
 30
0.0
 11
220.1298595926
 21
54.0684182244
 31
0.0
  0
LINE
  5
19A
330
1F
100
AcDbEntity
  8
0
  6
Continuous
 62
     7
370
    15
100
AcDbLine
 10
225.3919319231
 20
63.1835825009
 30
0.0
 11
224.8072492255
 21
63.5211126377
 31
0.0
  0
LINE
  5
19B
330
1F
100
AcDbEntity
  8
0
  6
Continuous
 62
     7
370
    15
100
AcDbLine
 10
217.6542783712
 20
54.3832850068
 30
0.0
 11
218.7442332905
 21
53.7540674251
 31
0.0
  0
LINE
  5
19C
330
1F
100
AcDbEntity
  8
0
  6
Continuous
 62
     7
370
    15
100
AcDbLine
 10
224.971227198
 20
64.5407060061
 30
0.0
 11
223.8812722787
 21
65.1699235877
 31
0.0
  0
LINE
  5
19D
330
1F
100
AcDbEntity
  8
0
  6
Continuous
 62
     7
370
    15
100
AcDbLine
 10
215.3934879625
 20
56.6727670744
 30
0.0
 11
216.5078575018
 21
56.0294552326
 31
0.0
  0
LINE
  5
19E
330
1F
100
AcDbEntity
  8
0
  6
Continuous
 62
     7
370
    15
100
AcDbLine
 10
221.8824206898
 20
65.3394805032
 30
0.0
 11
220.7680511504
 21
65.982792345
 31
0.0
  0
LWPOLYLINE
  5
19F
330
1F
100
AcDbEntity
  8
0
  6
Continuous
 62
     7
370
    15
100
AcDbPolyline
 90
       23
 70
   128
 43
0.0
 10
259.145708632
 20
45.5007821492
 10
259.1196132341
 20
45.4854868511
 10
258.7771907999
 20
45.2298142281
 10
258.5419050087
 20
44.9365647447
 10
258.4255540725
 20
44.6204431546
 10
258.4339723131
 20
44.2973011143
 10
258.5667376047
 20
43.983342315
 10
258.8171925414
 20
43.6943099619
 10
259.1727782666
 20
43.4446973441
 10
259.6156642274
 20
43.2470210805
 10
260.1236422724
 20
43.1111934844
 10
260.6712402612
 20
43.0440255186
 10
261.2309993442
 20
43.0488852655
 10
261.7748508635
 20
43.1255290369
 10
262.2755238331
 20
43.2701135943
 10
262.7079124196
 20
43.4753888641
 10
263.0503348538
 20
43.7310614871
 10
263.285620645
 20
44.0243109705
 10
263.4019715812
 20
44.3404325606
 10
263.3935533406
 20
44.6635746009
 10
263.2607880489
 20
44.9775334002
 10
263.0103331123
 20
45.2665657533
 10
262.6818170216
 20
45.5007821492
  0
LWPOLYLINE
  5
1A0
330
1F
100
AcDbEntity
  8
0
  6
Continuous
 62
     7
370
    15
100
AcDbPolyline
 90
       27
 70
   128
 43
0.0
 10
260.1732271153
 20
45.9314487275
 10
259.7117010231
 20
45.7952815409
 10
259.3200343936
 20
45.5993094531
 10
259.0209894677
 20
45.3549216495
 10
258.8319456495
 20
45.076321061
 10
258.7638894785
 20
44.779698941
 10
258.820776132
 20
44.4822938889
 10
258.9992995646
 20
44.2013900055
 10
259.2890846432
 20
43.9533124034
 10
259.6732901123
 20
43.752478451
 10
260.1295873467
 20
43.6105598877
 10
260.6314580096
 20
43.5358045045
 10
261.1497352024
 20
43.5325568126
 10
261.6542985384
 20
43.601005556
 10
262.1158246306
 20
43.7371727426
 10
262.50749126
 20
43.9331448303
 10
262.806536186
 20
44.1775326339
 10
262.9955800042
 20
44.4561332225
 10
263.0636361752
 20
44.7527553425
 10
263.0067495216
 20
45.0501603946
 10
262.828226089
 20
45.331064278
 10
262.5384410105
 20
45.5791418801
 10
262.1542355413
 20
45.7799758325
 10
261.6979383069
 20
45.9218943958
 10
261.196067644
 20
45.996649779
 10
260.6777904513
 20
45.9998974709
 10
260.1732271153
 20
45.9314487275
  0
LWPOLYLINE
  5
1A1
330
1F
100
AcDbEntity
  8
0
  6
Continuous
 62
     7
370
    15
100
AcDbPolyline
 90
       23
 70
   128
 43
0.0
 10
260.3971100048
 20
45.5791724341
 10
260.0212980242
 20
45.4622136388
 10
259.7177882343
 20
45.2888701567
 10
259.511169193
 20
45.0731852457
 10
259.4181799465
 20
44.8326324148
 10
259.4463539303
 20
44.5866998235
 10
259.593408656
 20
44.3553114679
 10
259.8474306241
 20
44.1572130564
 10
260.1878404855
 20
44.0084533441
 10
260.5870602578
 20
43.9210839582
 10
261.0127475293
 20
43.9021830468
 10
261.4304156488
 20
43.9532818494
 10
261.8062276294
 20
44.0702406447
 10
262.1097374194
 20
44.2435841268
 10
262.3163564606
 20
44.4592690378
 10
262.4093457071
 20
44.6998218687
 10
262.3811717233
 20
44.94575446
 10
262.2341169977
 20
45.1771428156
 10
261.9800950296
 20
45.3752412271
 10
261.6396851681
 20
45.5240009394
 10
261.2404653958
 20
45.6113703253
 10
260.8147781244
 20
45.6302712367
 10
260.3971100048
 20
45.5791724341
  0
SPLINE
  5
1A2
330
1F
100
AcDbEntity
  8
0
  6
Continuous
 62
     7
370
    15
100
AcDbSpline
210
0.0
220
0.0
230
1.0
 70
     8
 71
     3
 72
    11
 73
     7
 74
     0
 42
0.000000001
 43
0.00000001
 40
0.0
 40
0.0
 40
0.0
 40
0.0
 40
0.2164543009644963
 40
0.4403089937225327
 40
0.7518987489759436
 40
1.0
 40
1.0
 40
1.0
 40
1.0
 10
259.8056909865905
 20
45.25394635544767
 30
0.0
 10
259.7887724425537
 20
45.16074243894073
 30
0.0
 10
259.7543569235878
 20
44.97114804185409
 30
0.0
 10
259.6904907650361
 20
44.69618218181269
 30
0.0
 10
259.6219825212857
 20
44.50625655225898
 30
0.0
 10
259.5781412521906
 20
44.45549467593467
 30
0.0
 10
259.5587071830579
 20
44.4329928224492
 30
0.0
  0
SPLINE
  5
1A3
330
1F
100
AcDbEntity
  8
0
  6
Continuous
 62
     7
370
    15
100
AcDbSpline
210
0.0
220
0.0
230
1.0
 70
     8
 71
     3
 72
     9
 73
     5
 74
     0
 42
0.000000001
 43
0.00000001
 40
0.0
 40
0.0
 40
0.0
 40
0.0
 40
0.6461675430434567
 40
1.0
 40
1.0
 40
1.0
 40
1.0
 10
259.5587071830579
 20
44.43299282244919
 30
0.0
 10
259.6341626379623
 20
44.35740693591593
 30
0.0
 10
259.7509364618982
 20
44.24043125778568
 30
0.0
 10
259.8786796108195
 20
44.15667064139136
 30
0.0
 10
259.9238792830616
 20
44.12703341669637
 30
0.0
  0
LINE
  5
1A4
330
1F
100
AcDbEntity
  8
0
  6
Continuous
 62
     7
370
    15
100
AcDbLine
 10
261.8880628424
 20
44.1051767639
 30
0.0
 11
262.021834667
 21
44.1860357801
 31
0.0
  0
SPLINE
  5
1A5
330
1F
100
AcDbEntity
  8
0
  6
Continuous
 62
     7
370
    15
100
AcDbSpline
210
0.0
220
0.0
230
1.0
 70
     8
 71
     3
 72
    11
 73
     7
 74
     0
 42
0.000000001
 43
0.00000001
 40
0.0
 40
0.0
 40
0.0
 40
0.0
 40
0.2164543009645056
 40
0.4403089937225381
 40
0.7518987489759422
 40
0.9999999999999999
 40
0.9999999999999999
 40
0.9999999999999999
 40
0.9999999999999999
 10
262.0218346670461
 20
44.18603578012611
 30
0.0
 10
262.0387532110829
 20
44.20530351804798
 30
0.0
 10
262.0731687300488
 20
44.24449774176115
 30
0.0
 10
262.1370348886005
 20
44.39410343460806
 30
0.0
 10
262.2055431323509
 20
44.65960916485994
 30
0.0
 10
262.2493844014459
 20
44.90029672157476
 30
0.0
 10
262.2688184705787
 20
45.00698931312459
 30
0.0
  0
SPLINE
  5
1A6
330
1F
100
AcDbEntity
  8
0
  6
Continuous
 62
     7
370
    15
100
AcDbSpline
210
0.0
220
0.0
230
1.0
 70
     8
 71
     3
 72
    11
 73
     7
 74
     0
 42
0.000000001
 43
0.00000001
 40
0.0
 40
0.0
 40
0.0
 40
0.0
 40
0.2164543009645025
 40
0.4403089937225423
 40
0.7518987489759469
 40
1.0
 40
1.0
 40
1.0
 40
1.0
 10
262.2688184705787
 20
45.00698931312459
 30
0.0
 10
262.1929148608816
 20
45.00659749287792
 30
0.0
 10
262.0385125604573
 20
45.00580045637752
 30
0.0
 10
261.751982468919
 20
45.08119288026256
 30
0.0
 10
261.4446260567273
 20
45.26709118093279
 30
0.0
 10
261.2479359295641
 20
45.45683463878894
 30
0.0
 10
261.1607466303509
 20
45.54094460078537
 30
0.0
  0
SPLINE
  5
1A7
330
1F
100
AcDbEntity
  8
0
  6
Continuous
 62
     7
370
    15
100
AcDbSpline
210
0.0
220
0.0
230
1.0
 70
     8
 71
     3
 72
    11
 73
     7
 74
     0
 42
0.000000001
 43
0.00000001
 40
0.0
 40
0.0
 40
0.0
 40
0.0
 40
0.1285561766307312
 40
0.4801535797842182
 40
0.8150691831753837
 40
1.0
 40
1.0
 40
1.0
 40
1.0
 10
261.1607466303509
 20
45.54094460078537
 30
0.0
 10
261.1061745462155
 20
45.50689047069308
 30
0.0
 10
260.9023493995706
 20
45.3796992854946
 30
0.0
 10
260.5201315990104
 20
45.21775193653792
 30
0.0
 10
260.1062703456781
 20
45.1962384728426
 30
0.0
 10
259.8845618460271
 20
45.23880403060161
 30
0.0
 10
259.8056909865905
 20
45.25394635544767
 30
0.0
  0
LINE
  5
1A8
330
1F
100
AcDbEntity
  8
0
  6
Continuous
 62
     7
370
    15
100
AcDbLine
 10
259.8056909866
 20
44.2089834409
 30
0.0
 11
259.8056909866
 21
45.2539463554
 31
0.0
  0
LINE
  5
1A9
330
1F
100
AcDbEntity
  8
0
  6
Continuous
 62
     7
370
    15
100
AcDbLine
 10
261.1607466304
 20
43.9121146079
 30
0.0
 11
261.1607466304
 21
45.5409446008
 31
0.0
  0
LWPOLYLINE
  5
1AA
330
1F
100
AcDbEntity
  8
0
  6
Continuous
 62
     7
370
    15
100
AcDbPolyline
 90
        3
 70
   128
 43
0.0
 10
263.5528540838
 20
36.3615894066
 10
263.5362530728
 20
36.3584586676
 10
263.4862017553
 20
36.3519279796
  0
LWPOLYLINE
  5
1AB
330
1F
100
AcDbEntity
  8
0
  6
Continuous
 62
     7
370
    15
100
AcDbPolyline
 90
       57
 70
   128
 43
0.0
 10
265.1740811835
 20
42.1434895425
 10
264.3982069485
 20
41.6452713556
 10
263.6320897822
 20
41.0526875016
 10
262.8853640524
 20
40.3731900662
 10
262.1674202685
 20
39.6153241241
 10
261.4872869902
 20
38.788620279
 10
260.8535172879
 20
37.9034748117
 10
260.2740811835
 20
36.9710189398
 10
259.7562654221
 20
36.002978837
 10
259.3065818374
 20
35.0115281692
 10
258.9306854614
 20
34.0091350039
 10
258.6333034091
 20
33.0084050167
 10
258.4181754323
 20
32.0219229678
 10
258.2880068903
 20
31.0620944414
 10
258.2444347278
 20
30.1409898381
 10
258.2880068903
 20
29.2701925827
 10
258.4181754323
 20
28.460653456
 10
258.6333034091
 20
27.7225528821
 10
258.9306854614
 20
27.0651729041
 10
259.3065818374
 20
26.4967804565
 10
259.7562654221
 20
26.0245234043
 10
260.2740811835
 20
25.6543406538
 10
260.8535172879
 20
25.390887468
 10
261.4872869902
 20
25.2374769234
 10
262.1674202685
 20
25.1960382468
 10
262.8853640524
 20
25.2670925535
 10
263.6320897822
 20
25.4497462943
 10
264.3982069485
 20
25.7417024925
 10
265.1740811835
 20
26.1392896295
 10
265.9499554185
 20
26.6375078165
 10
266.7160725848
 20
27.2300916705
 10
267.4627983145
 20
27.9095891058
 10
268.1807420984
 20
28.667455048
 10
268.8608753768
 20
29.494158893
 10
269.494645079
 20
30.3793043604
 10
270.0740811835
 20
31.3117602323
 10
270.5918969449
 20
32.2798003351
 10
271.0415805295
 20
33.2712510029
 10
271.4174769056
 20
34.2736441682
 10
271.7148589579
 20
35.2743741554
 10
271.9299869346
 20
36.2608562042
 10
272.0601554767
 20
37.2206847306
 10
272.1037276391
 20
38.141789334
 10
272.0601554767
 20
39.0125865894
 10
271.9299869346
 20
39.8221257161
 10
271.7148589579
 20
40.56022629
 10
271.4174769056
 20
41.217606268
 10
271.0415805295
 20
41.7859987155
 10
270.5918969449
 20
42.2582557677
 10
270.0740811835
 20
42.6284385182
 10
269.494645079
 20
42.8918917041
 10
268.8608753768
 20
43.0453022486
 10
268.1807420984
 20
43.0867409253
 10
267.4627983145
 20
43.0156866186
 10
266.7160725848
 20
42.8330328778
 10
265.9499554185
 20
42.5410766795
 10
265.1740811835
 20
42.1434895425
  0
LWPOLYLINE
  5
1AC
330
1F
100
AcDbEntity
  8
0
  6
Continuous
 62
     7
370
    15
100
AcDbPolyline
 90
       30
 70
   128
 43
0.0
 10
265.0326598272
 20
42.3884385161
 10
264.2547842367
 20
41.8898219994
 10
263.4863510021
 20
41.2981410185
 10
262.736687862
 20
40.6205777787
 10
262.0148947113
 20
39.8653569801
 10
261.3297331412
 20
39.0416459801
 10
260.6895200849
 20
38.1594435144
 10
260.1020268617
 20
37.2294583259
 10
259.5743848435
 20
36.2629791749
 10
259.1129988896
 20
35.2717378091
 10
258.7234696005
 20
34.267766556
 10
258.4105253342
 20
33.2632522665
 10
258.1779648099
 20
32.2703883834
 10
258.0286109976
 20
31.3012269292
 10
257.9642768501
 20
30.3675322111
 10
257.9857432969
 20
29.4806380182
 10
258.0927497644
 20
28.6513100446
 10
258.283997339
 20
27.8896152084
 10
258.5571645342
 20
27.2047994531
 10
258.9089354703
 20
26.6051755143
 10
259.3350401247
 20
26.0980220144
 10
259.830306164
 20
25.6894951098
 10
260.3887217296
 20
25.3845537638
 10
261.0035084128
 20
25.1868995512
 10
261.6672035362
 20
25.0989317264
 10
262.3717507399
 20
25.1217180996
 10
263.1085977755
 20
25.2549820752
 10
263.8688003179
 20
25.4971060089
 10
264.6431305381
 20
25.8451508443
 10
265.0338090746
 20
26.0582858326
  0
LWPOLYLINE
  5
1AD
330
1F
100
AcDbEntity
  8
0
  6
Continuous
 62
     7
370
    15
100
AcDbPolyline
 90
       16
 70
   128
 43
0.0
 10
272.1037276391
 20
38.3050709563
 10
272.1010428043
 20
38.5285134851
 10
272.0367086569
 20
39.3879295776
 10
271.8873548445
 20
40.1846507905
 10
271.6547943203
 20
40.9090060078
 10
271.3418500539
 20
41.5522025382
 10
270.9523207648
 20
42.1064328471
 10
270.490934811
 20
42.5649693295
 10
269.9632927928
 20
42.9222459735
 10
269.3757995696
 20
43.1739259247
 10
268.7355865133
 20
43.3169541294
 10
268.0504249431
 20
43.3495944189
 10
267.3286317925
 20
43.2714505844
 10
266.5789686523
 20
43.0834711861
 10
265.8105354177
 20
42.7879380393
 10
265.0326598272
 20
42.3884385161
  0
SPLINE
  5
1AE
330
1F
100
AcDbEntity
  8
0
  6
Continuous
 62
     7
370
    15
100
AcDbSpline
210
0.0
220
0.0
230
1.0
 70
    11
 71
     3
 72
    88
 73
    84
 74
     0
 42
0.000000001
 43
0.00000001
 40
0.0
 40
0.0
 40
0.0
 40
0.0
 40
0.0312499999999996
 40
0.0312499999999996
 40
0.0624999999999992
 40
0.0624999999999992
 40
0.0937499999999988
 40
0.0937499999999988
 40
0.1093749999999987
 40
0.1093749999999987
 40
0.1249999999999985
 40
0.1249999999999985
 40
0.1562499999999981
 40
0.1562499999999981
 40
0.1718749999999979
 40
0.1718749999999979
 40
0.1874999999999977
 40
0.1874999999999977
 40
0.2187499999999973
 40
0.2187499999999973
 40
0.2343749999999971
 40
0.2343749999999971
 40
0.2499999999999969
 40
0.2499999999999969
 40
0.2812499999999969
 40
0.2812499999999969
 40
0.2968749999999969
 40
0.2968749999999969
 40
0.312499999999997
 40
0.312499999999997
 40
0.3437499999999968
 40
0.3437499999999968
 40
0.3593749999999967
 40
0.3593749999999967
 40
0.3749999999999967
 40
0.3749999999999967
 40
0.3906249999999966
 40
0.3906249999999966
 40
0.4062499999999965
 40
0.4062499999999965
 40
0.4374999999999964
 40
0.4374999999999964
 40
0.4531249999999963
 40
0.4531249999999963
 40
0.4687499999999962
 40
0.4687499999999962
 40
0.4999999999999964
 40
0.4999999999999964
 40
0.5312499999999967
 40
0.5312499999999967
 40
0.562499999999997
 40
0.562499999999997
 40
0.5937499999999972
 40
0.5937499999999972
 40
0.6249999999999976
 40
0.6249999999999976
 40
0.6562499999999978
 40
0.6562499999999978
 40
0.6874999999999981
 40
0.6874999999999981
 40
0.7187499999999983
 40
0.7187499999999983
 40
0.7499999999999987
 40
0.7499999999999987
 40
0.7812499999999988
 40
0.7812499999999988
 40
0.812499999999999
 40
0.812499999999999
 40
0.8281249999999991
 40
0.8281249999999991
 40
0.8437499999999992
 40
0.8437499999999992
 40
0.8749999999999994
 40
0.8749999999999994
 40
0.8906249999999994
 40
0.8906249999999994
 40
0.9062499999999994
 40
0.9062499999999994
 40
0.9374999999999997
 40
0.9374999999999997
 40
0.9687499999999998
 40
0.9687499999999998
 40
1.0
 40
1.0
 40
1.0
 40
1.0
 10
260.8882211573046
 20
46.27634988603452
 30
0.0
 10
261.0796588675164
 20
46.24271140119206
 30
0.0
 10
261.2659843096267
 20
46.19986445828558
 30
0.0
 10
261.6296665102956
 20
46.09950839011275
 30
0.0
 10
261.8079481539504
 20
46.04161769573344
 30
0.0
 10
262.1514699037932
 20
45.91412504823973
 30
0.0
 10
262.313954728835
 20
45.84564920553168
 30
0.0
 10
262.5444525063589
 20
45.73694904666768
 30
0.0
 10
262.6190648691905
 20
45.69970456028
 30
0.0
 10
262.7637875612443
 20
45.62322725659338
 30
0.0
 10
262.8341720140305
 20
45.58381895615678
 30
0.0
 10
263.0349786275155
 20
45.4645633230705
 30
0.0
 10
263.1559824605822
 20
45.38334969646399
 30
0.0
 10
263.3185014336317
 20
45.2586245789825
 30
0.0
 10
263.3694907814942
 20
45.21655672594503
 30
0.0
 10
263.464911334078
 20
45.13126608308282
 30
0.0
 10
263.5094739859813
 20
45.08787265809995
 30
0.0
 10
263.630634879731
 20
44.95803250578928
 30
0.0
 10
263.6956298476451
 20
44.87132878826542
 30
0.0
 10
263.769076044832
 20
44.73958626622041
 30
0.0
 10
263.7895238640636
 20
44.69538647624822
 30
0.0
 10
263.8219193897739
 20
44.60609398417691
 30
0.0
 10
263.8338510667534
 20
44.56083330160118
 30
0.0
 10
263.8555526481205
 20
44.42616447090571
 30
0.0
 10
263.8518284025669
 20
44.33700458978504
 30
0.0
 10
263.8172910257055
 20
44.20238966443589
 30
0.0
 10
263.8009178156265
 20
44.15737277480849
 30
0.0
 10
263.7576368423044
 20
44.06672941725106
 30
0.0
 10
263.7306674897505
 20
44.02117650326375
 30
0.0
 10
263.6355810465903
 20
43.88713983973501
 30
0.0
 10
263.5529077821299
 20
43.79993311629894
 30
0.0
 10
263.3979032238133
 20
43.67147321686358
 30
0.0
 10
263.3405058733359
 20
43.62872129032083
 30
0.0
 10
263.2173430240269
 20
43.5459199665932
 30
0.0
 10
263.1517404104768
 20
43.50589680010219
 30
0.0
 10
263.0126911503806
 20
43.42851751578489
 30
0.0
 10
262.9392441515704
 20
43.39116155075585
 30
0.0
 10
262.784446363659
 20
43.31918377556562
 30
0.0
 10
262.7025325173555
 20
43.28436627620754
 30
0.0
 10
262.4508382792772
 20
43.18669425525504
 30
0.0
 10
262.2742003662714
 20
43.12990036965612
 30
0.0
 10
261.9967476407607
 20
43.05746797210384
 30
0.0
 10
261.9023663849114
 20
43.03556272899167
 30
0.0
 10
261.7136367844893
 20
42.99706565488498
 30
0.0
 10
261.6187761902353
 20
42.98033472726943
 30
0.0
 10
261.3327209057049
 20
42.93771551240023
 30
0.0
 10
261.1383819234322
 20
42.91936200141649
 30
0.0
 10
260.7581523956222
 20
42.90496099706103
 30
0.0
 10
260.5712940732373
 20
42.90858918699524
 30
0.0
 10
260.2034779981815
 20
42.93860459514941
 30
0.0
 10
260.0240455569366
 20
42.96509345391966
 30
0.0
 10
259.6828507138624
 20
43.04003449535875
 30
0.0
 10
259.5196097986927
 20
43.08858831567066
 30
0.0
 10
259.2079643562215
 20
43.20931475610898
 30
0.0
 10
259.0630740901984
 20
43.2802180664472
 30
0.0
 10
258.7967139102162
 20
43.44134568150132
 30
0.0
 10
258.6747998693917
 20
43.53174004748816
 30
0.0
 10
258.4546232858866
 20
43.73265733102691
 30
0.0
 10
258.3594614162197
 20
43.84036170082027
 30
0.0
 10
258.1986190969461
 20
44.06843823960332
 30
0.0
 10
258.1328131943874
 20
44.18897358480174
 30
0.0
 10
258.0332925465094
 20
44.44175107068752
 30
0.0
 10
258.0010522075131
 20
44.57016497994049
 30
0.0
 10
257.9720956575133
 20
44.82911174232736
 30
0.0
 10
257.9754312980222
 20
44.96024867355187
 30
0.0
 10
258.0225079580831
 20
45.22030049262789
 30
0.0
 10
258.0653939043062
 20
45.34525670592398
 30
0.0
 10
258.1599341514398
 20
45.52337051998569
 30
0.0
 10
258.1965207359506
 20
45.58118107299209
 30
0.0
 10
258.2805805176565
 20
45.69326748447983
 30
0.0
 10
258.3283968273855
 20
45.7477778960094
 30
0.0
 10
258.4846224975326
 20
45.90055186932995
 30
0.0
 10
258.6065981818316
 20
45.98975434710611
 30
0.0
 10
258.8169385557784
 20
46.10382039418947
 30
0.0
 10
258.8921516943888
 20
46.13867471126979
 30
0.0
 10
259.0477536284042
 20
46.1998227619217
 30
0.0
 10
259.1284912798733
 20
46.22637212799831
 30
0.0
 10
259.3791850237191
 20
46.29458066683296
 30
0.0
 10
259.5598257728512
 20
46.32491230980771
 30
0.0
 10
259.9287454051187
 20
46.35566601062114
 30
0.0
 10
260.1175547767563
 20
46.35667050217325
 30
0.0
 10
260.5036258963819
 20
46.33374365095519
 30
0.0
 10
260.6967834470928
 20
46.30998837087698
 30
0.0
 10
260.8882211573046
 20
46.27634988603452
 30
0.0
  0
LINE
  5
1AF
330
1F
100
AcDbEntity
  8
0
  6
Continuous
 62
     7
370
    15
100
AcDbLine
 10
261.1934187256
 20
47.9860697199
 30
0.0
 11
261.1501579701
 21
48.0106151916
 31
0.0
  0
SPLINE
  5
1B0
330
1F
100
AcDbEntity
  8
0
  6
Continuous
 62
     7
370
    15
100
AcDbSpline
210
0.0
220
0.0
230
1.0
 70
     8
 71
     3
 72
    10
 73
     6
 74
     0
 42
0.000000001
 43
0.00000001
 40
0.0
 40
0.0
 40
0.0
 40
0.0
 40
0.2748726418536195
 40
0.6228067225076521
 40
1.0
 40
1.0
 40
1.0
 40
1.0
 10
265.541920219667
 20
49.6415809033147
 30
0.0
 10
265.5631401863789
 20
49.65383052175959
 30
0.0
 10
265.6112204093884
 20
49.68158572018233
 30
0.0
 10
265.6527707006675
 20
49.70556592790092
 30
0.0
 10
265.6547590497881
 20
49.70670718422742
 30
0.0
 10
265.6557933397142
 20
49.70730083747938
 30
0.0
  0
SPLINE
  5
1B1
330
1F
100
AcDbEntity
  8
0
  6
Continuous
 62
     7
370
    15
100
AcDbSpline
210
0.0
220
0.0
230
1.0
 70
     8
 71
     3
 72
     8
 73
     4
 74
     0
 42
0.000000001
 43
0.00000001
 40
0.0
 40
0.0
 40
0.0
 40
0.0
 40
1.0
 40
1.0
 40
1.0
 40
1.0
 10
265.6589600413259
 20
49.70912605923272
 30
0.0
 10
265.6547818477118
 20
49.7067080807288
 30
0.0
 10
265.63940897893
 20
49.69782701535465
 30
0.0
 10
265.613071366294
 20
49.68261577594433
 30
0.0
  0
SPLINE
  5
1B2
330
1F
100
AcDbEntity
  8
0
  6
Continuous
 62
     7
370
    15
100
AcDbSpline
210
0.0
220
0.0
230
1.0
 70
     8
 71
     3
 72
    14
 73
    10
 74
     0
 42
0.000000001
 43
0.00000001
 40
0.0
 40
0.0
 40
0.0
 40
0.0
 40
0.25
 40
0.25
 40
0.5
 40
0.5
 40
0.75
 40
0.75
 40
1.0
 40
1.0
 40
1.0
 40
1.0
 10
244.2289943462306
 20
37.33785087797099
 30
0.0
 10
244.2619858870254
 20
37.35690132831239
 30
0.0
 10
244.29825387521
 20
37.37784300432791
 30
0.0
 10
244.3767967757081
 20
37.42319366340949
 30
0.0
 10
244.4192804509125
 20
37.44772316362952
 30
0.0
 10
244.5059449349268
 20
37.49776088747367
 30
0.0
 10
244.5516846283331
 20
37.52416917689077
 30
0.0
 10
244.6420020777933
 20
37.5763133083052
 30
0.0
 10
244.6868674001476
 20
37.60221517571125
 30
0.0
 10
244.7244095615696
 20
37.62388780418527
 30
0.0
  0
ARC
  5
1B3
330
1F
100
AcDbEntity
  8
0
  6
Continuous
 62
     7
370
    15
100
AcDbCircle
 10
259.9988322411
 20
48.8583371646
 30
0.0
 40
5.534000811040899
100
AcDbArc
 50
30.2783678063
 51
90.3311170455
  0
ELLIPSE
  5
1B4
330
1F
100
AcDbEntity
  8
0
  6
Continuous
 62
     7
370
    15
100
AcDbEllipse
 10
254.7972891696
 20
40.1317841065
 30
0.0
 11
-11.10202753506465
 21
19.22823400583198
 31
0.0
210
0.0
220
0.0
230
1.0
 40
0.5773346305
 41
1.298288658577346
 42
1.31149148014206
  0
ARC
  5
1B5
330
1F
100
AcDbEntity
  8
0
  6
Continuous
 62
     7
370
    15
100
AcDbCircle
 10
256.8626508464
 20
50.5004956352
 30
0.0
 40
5.687852168670547
100
AcDbArc
 50
60.5504284582
 51
90.0712157742
  0
ELLIPSE
  5
1B6
330
1F
100
AcDbEntity
  8
0
  6
Continuous
 62
     7
370
    15
100
AcDbEllipse
 10
251.9335067057
 20
41.785010533
 30
0.0
 11
15.69999994584083
 21
9.064890288227524
 31
0.0
210
0.0
220
0.0
230
1.0
 40
0.0000703729
 41
5.757010727644953
 42
5.770213549212119
  0
ELLIPSE
  5
1B7
330
1F
100
AcDbEntity
  8
0
  6
Continuous
 62
     7
370
    15
100
AcDbEllipse
 10
251.9335067057
 20
41.785010533
 30
0.0
 11
15.69999994584083
 21
9.064890288227524
 31
0.0
210
0.0
220
0.0
230
1.0
 40
0.0000703729
 41
2.083686823092185
 42
2.096889644682478
  0
LINE
  5
1B8
330
1F
100
AcDbEntity
  8
0
  6
Continuous
 62
     7
370
    15
100
AcDbLine
 10
244.0490622364
 20
37.2339517419
 30
0.0
 11
241.2206351116
 21
38.8667679656
 31
0.0
  0
ELLIPSE
  5
1B9
330
1F
100
AcDbEntity
  8
0
  6
Continuous
 62
     7
370
    15
100
AcDbEllipse
 10
246.6125281773
 20
37.7900650077
 30
0.0
 11
0.26000757892092
 21
0.9705436209909237
 31
0.0
210
0.0
220
0.0
230
1.0
 40
0.5176380889
 41
5.189970678142607
 42
6.760767004937485
  0
LINE
  5
1BA
330
1F
100
AcDbEntity
  8
0
  6
Continuous
 62
     7
370
    15
100
AcDbLine
 10
244.7244095616
 20
37.6238878042
 30
0.0
 11
246.6125281773
 21
38.71387548
 31
0.0
  0
LINE
  5
1BB
330
1F
100
AcDbEntity
  8
0
  6
Continuous
 62
     7
370
    15
100
AcDbLine
 10
263.6538016039
 20
48.5515932275
 30
0.0
 11
265.5419202197
 21
49.6415809033
 31
0.0
  0
ELLIPSE
  5
1BC
330
1F
100
AcDbEntity
  8
0
  6
Continuous
 62
     7
370
    15
100
AcDbEllipse
 10
263.6538016039
 20
47.6277827552
 30
0.0
 11
0.2600075789209199
 21
0.9705436209909377
 31
0.0
210
0.0
220
0.0
230
1.0
 40
0.5176380889
 41
0.4775816977579212
 42
2.048378024552718
  0
LINE
  5
1BD
330
1F
100
AcDbEntity
  8
0
  6
Continuous
 62
     7
370
    15
100
AcDbLine
 10
263.088116179
 20
46.8922841619
 30
0.0
 11
263.088116179
 21
47.3012195104
 31
0.0
  0
LINE
  5
1BE
330
1F
100
AcDbEntity
  8
0
  6
Continuous
 62
     7
370
    15
100
AcDbLine
 10
247.1782136023
 20
38.1166282524
 30
0.0
 11
247.1782136023
 21
37.292917276
 31
0.0
  0
SPLINE
  5
1BF
330
1F
100
AcDbEntity
  8
0
  6
Continuous
 62
     7
370
    15
100
AcDbSpline
210
0.0
220
0.0
230
1.0
 70
     8
 71
     3
 72
     9
 73
     5
 74
     0
 42
0.000000001
 43
0.00000001
 40
0.0
 40
0.0
 40
0.0
 40
0.0
 40
0.5325684875875818
 40
1.0
 40
1.0
 40
1.0
 40
1.0
 10
241.1177245090098
 20
39.13394872398096
 30
0.0
 10
241.0970008427988
 20
39.2013455384773
 30
0.0
 10
241.0580881645349
 20
39.32789604994603
 30
0.0
 10
241.0791715498729
 20
39.44773237014946
 30
0.0
 10
241.0890265885683
 20
39.50374764254408
 30
0.0
  0
LINE
  5
1C0
330
1F
100
AcDbEntity
  8
0
  6
Continuous
 62
     7
370
    15
100
AcDbLine
 10
267.6082050838
 20
39.0862691736
 30
0.0
 11
267.5703043076
 21
39.1087603571
 31
0.0
  0
SPLINE
  5
1C1
330
1F
100
AcDbEntity
  8
0
  6
Continuous
 62
     7
370
    15
100
AcDbSpline
210
0.0
220
0.0
230
1.0
 70
     8
 71
     3
 72
    14
 73
    10
 74
     0
 42
0.000000001
 43
0.00000001
 40
0.0
 40
0.0
 40
0.0
 40
0.0
 40
0.0742695700241714
 40
0.256535596565969
 40
0.4275636982276428
 40
0.590560815795311
 40
0.758676611033498
 40
0.9383753801576404
 40
1.0
 40
1.0
 40
1.0
 40
1.0
 10
265.8982042295591
 20
39.19295775243604
 30
0.0
 10
265.9641712590264
 20
39.11019986964308
 30
0.0
 10
266.1920289301096
 20
38.82434466910914
 30
0.0
 10
266.3885604605538
 20
38.28673456224745
 30
0.0
 10
266.4126525486915
 20
37.66889862868035
 30
0.0
 10
266.1972271807763
 20
37.14851465530292
 30
0.0
 10
265.795032176578
 20
36.78559398718765
 30
0.0
 10
265.3724110577515
 20
36.60043373268105
 30
0.0
 10
265.1091521852974
 20
36.65184757830851
 30
0.0
 10
265.04192609501
 20
36.66497667741901
 30
0.0
  0
LINE
  5
1C2
330
1F
100
AcDbEntity
  8
0
  6
Continuous
 62
     7
370
    15
100
AcDbLine
 10
246.2589747867
 20
38.509707102
 30
0.0
 11
244.0490622364
 21
37.2339517419
 31
0.0
  0
ARC
  5
1C3
330
1F
100
AcDbEntity
  8
0
  6
Continuous
 62
     7
370
    15
100
AcDbCircle
 10
252.8645531984
 20
37.2572322402
 30
0.0
 40
9.408883316019415
100
AcDbArc
 50
178.0740677166
 51
191.4425483356
  0
ARC
  5
1C4
330
1F
100
AcDbEntity
  8
0
  6
Continuous
 62
     7
370
    15
100
AcDbCircle
 10
250.9307697937
 20
37.6129321595
 30
0.0
 40
7.758124388699154
100
AcDbArc
 50
178.8450812193
 51
200.046635121
  0
ELLIPSE
  5
1C5
330
1F
100
AcDbEntity
  8
0
  6
Continuous
 62
     7
370
    15
100
AcDbEllipse
 10
246.4932893618
 20
37.7212075276
 30
0.0
 11
-6.005970385558612E-5
 21
0.8534489614827194
 31
0.0
210
0.0
220
0.0
230
1.0
 40
0.7174342186
 41
5.104989972352364
 42
6.675786299147259
  0
ARC
  5
1C6
330
1F
100
AcDbEntity
  8
0
  6
Continuous
 62
     7
370
    15
100
AcDbCircle
 10
230.0064348732
 20
58.4599002353
 30
0.0
 40
2.928509851054554
100
AcDbArc
 50
72.3100632314
 51
112.9407260861
  0
ARC
  5
1C7
330
1F
100
AcDbEntity
  8
0
  6
Continuous
 62
     7
370
    15
100
AcDbCircle
 10
226.5085844061
 20
52.404379441
 30
0.0
 40
2.893047185418276
100
AcDbArc
 50
192.4597189484
 51
227.5784479215
  0
LINE
  5
1C8
330
1F
100
AcDbEntity
  8
0
  6
Continuous
 62
     7
370
    15
100
AcDbLine
 10
247.1782136023
 20
37.292917276
 30
0.0
 11
247.1782136023
 21
33.3982658259
 31
0.0
  0
LINE
  5
1C9
330
1F
100
AcDbEntity
  8
0
  6
Continuous
 62
     7
370
    15
100
AcDbLine
 10
247.1782136023
 20
33.3982658259
 30
0.0
 11
247.1782136023
 21
32.5745548495
 31
0.0
  0
LINE
  5
1CA
330
1F
100
AcDbEntity
  8
0
  6
Continuous
 62
     7
370
    15
100
AcDbLine
 10
243.6426796963
 20
35.3906486319
 30
0.0
 11
243.6426796963
 21
34.6155751291
 31
0.0
  0
LINE
  5
1CB
330
1F
100
AcDbEntity
  8
0
  6
Continuous
 62
     7
370
    15
100
AcDbLine
 10
243.6426796963
 20
37.4685513887
 30
0.0
 11
243.6426796963
 21
35.3906486319
 31
0.0
  0
LINE
  5
1CC
330
1F
100
AcDbEntity
  8
0
  6
Continuous
 62
     7
370
    15
100
AcDbLine
 10
246.6125281773
 20
31.3241811325
 30
0.0
 11
244.7244095616
 21
30.2341934566
 31
0.0
  0
ELLIPSE
  5
1CD
330
1F
100
AcDbEntity
  8
0
  6
Continuous
 62
     7
370
    15
100
AcDbEllipse
 10
246.6125281773
 20
32.2479916048
 30
0.0
 11
0.2600075789209199
 21
0.9705436209909308
 31
0.0
210
0.0
220
0.0
230
1.0
 40
0.5176380889
 41
3.619174351347717
 42
5.189970678142608
  0
SPLINE
  5
1CE
330
1F
100
AcDbEntity
  8
0
  6
Continuous
 62
     7
370
    15
100
AcDbSpline
210
0.0
220
0.0
230
1.0
 70
     8
 71
     3
 72
    12
 73
     8
 74
     0
 42
0.000000001
 43
0.00000001
 40
0.0
 40
0.0
 40
0.0
 40
0.0
 40
0.2499999999999976
 40
0.2499999999999976
 40
0.4999999999999951
 40
0.4999999999999951
 40
1.0
 40
1.0
 40
1.0
 40
1.0
 10
244.7244095615696
 20
30.23419345661923
 30
0.0
 10
244.6869512313537
 20
30.21256922287039
 30
0.0
 10
244.6421961013773
 20
30.20720062246724
 30
0.0
 10
244.5524679721896
 20
30.21611059450476
 30
0.0
 10
244.5066007974723
 20
30.23053469032414
 30
0.0
 10
244.3760897601965
 20
30.29183492739964
 30
0.0
 10
244.2948484428461
 20
30.35723150883881
 30
0.0
 10
244.2289943462306
 20
30.43808101753641
 30
0.0
  0
ELLIPSE
  5
1CF
330
1F
100
AcDbEntity
  8
0
  6
Continuous
 62
     7
370
    15
100
AcDbEllipse
 10
251.9335067057
 20
41.785010533
 30
0.0
 11
-11.10202753506419
 21
19.22823400583184
 31
0.0
210
0.0
220
0.0
230
1.0
 40
0.5773346305
 41
1.83001990938562
 42
1.843222730950332
  0
LINE
  5
1D0
330
1F
100
AcDbEntity
  8
0
  6
Continuous
 62
     7
370
    15
100
AcDbLine
 10
244.0490622364
 20
30.6607982062
 30
0.0
 11
246.2589747867
 21
31.9365535664
 31
0.0
  0
ARC
  5
1D1
330
1F
100
AcDbEntity
  8
0
  6
Continuous
 62
     7
370
    15
100
AcDbCircle
 10
249.8432334714
 20
31.2623596288
 30
0.0
 40
5.534000811041047
100
AcDbArc
 50
210.2783678063
 51
270.3311170455
  0
ARC
  5
1D2
330
1F
100
AcDbEntity
  8
0
  6
Continuous
 62
     7
370
    15
100
AcDbCircle
 10
246.8436293865
 20
33.1485033546
 30
0.0
 40
5.675875636671332
100
AcDbArc
 50
210.4950018572
 51
239.4706618495
  0
ELLIPSE
  5
1D3
330
1F
100
AcDbEntity
  8
0
  6
Continuous
 62
     7
370
    15
100
AcDbEllipse
 10
254.7972891696
 20
40.1317841065
 30
0.0
 11
15.70000004673961
 21
9.064890346484653
 31
0.0
210
0.0
220
0.0
230
1.0
 40
0.0000703729
 41
2.615418071093181
 42
2.628620892686749
  0
LINE
  5
1D4
330
1F
100
AcDbEntity
  8
0
  6
Continuous
 62
     7
370
    15
100
AcDbLine
 10
241.2206351116
 20
32.2936144299
 30
0.0
 11
244.0490622364
 21
30.6607982062
 31
0.0
  0
LINE
  5
1D5
330
1F
100
AcDbEntity
  8
0
  6
Continuous
 62
     7
370
    15
100
AcDbLine
 10
241.2206351116
 20
32.2936144299
 30
0.0
 11
243.430547662
 21
33.56936979
 31
0.0
  0
ELLIPSE
  5
1D6
330
1F
100
AcDbEntity
  8
0
  6
Continuous
 62
     7
370
    15
100
AcDbEllipse
 10
246.4932893618
 20
32.4545192909
 30
0.0
 11
0.5835172301023022
 21
0.5835446095888699
 31
0.0
210
0.0
220
0.0
230
1.0
 40
0.3178881559
 41
4.011890258715374
 42
5.58268658551035
  0
ELLIPSE
  5
1D7
330
1F
100
AcDbEntity
  8
0
  6
Continuous
 62
     7
370
    15
100
AcDbEllipse
 10
243.1962330869
 20
34.3578693644
 30
0.0
 11
-6.005970385558612E-5
 21
0.8534489614827194
 31
0.0
210
0.0
220
0.0
230
1.0
 40
0.7174342186
 41
3.534193645557487
 42
5.104989972352328
  0
SPLINE
  5
1D8
330
1F
100
AcDbEntity
  8
0
  6
Continuous
 62
     7
370
    15
100
AcDbSpline
210
0.0
220
0.0
230
1.0
 70
     8
 71
     3
 72
     9
 73
     5
 74
     0
 42
0.000000001
 43
0.00000001
 40
0.0
 40
0.0
 40
0.0
 40
0.0
 40
0.4530754613387382
 40
1.0
 40
1.0
 40
1.0
 40
1.0
 10
241.0774283006935
 20
32.21089432476587
 30
0.0
 10
241.0763974863721
 20
32.21030223729383
 30
0.0
 10
241.0741223370659
 20
32.2089954186233
 30
0.0
 10
241.1023086970688
 20
32.22527510408543
 30
0.0
 10
241.1177245090098
 20
32.23417886354636
 30
0.0
  0
ELLIPSE
  5
1D9
330
1F
100
AcDbEntity
  8
0
  6
Continuous
 62
     7
370
    15
100
AcDbEllipse
 10
243.0769942714
 20
34.2890118843
 30
0.0
 11
0.2600075789209484
 21
0.9705436209909308
 31
0.0
210
0.0
220
0.0
230
1.0
 40
0.5176380889
 41
3.619174351347761
 42
5.189970678142631
  0
LINE
  5
1DA
330
1F
100
AcDbEntity
  8
0
  6
Continuous
 62
     7
370
    15
100
AcDbLine
 10
265.5101607637
 20
49.6231802096
 30
0.0
 11
263.6470218908
 21
48.5476130324
 31
0.0
  0
LINE
  5
1DB
330
1F
100
AcDbEntity
  8
0
  6
Continuous
 62
     7
370
    15
100
AcDbLine
 10
229.1037693907
 20
61.8774169096
 30
0.0
 11
229.3071385761
 21
61.7749503899
 31
0.0
  0
ARC
  5
1DC
330
1F
100
AcDbEntity
  8
0
  6
Continuous
 62
     7
370
    15
100
AcDbCircle
 10
227.9843958609
 20
60.2584125903
 30
0.0
 40
2.290475805262358
100
AcDbArc
 50
29.5605361761
 51
97.6076079357
  0
ARC
  5
1DD
330
1F
100
AcDbEntity
  8
0
  6
Continuous
 62
     7
370
    15
100
AcDbCircle
 10
223.9692497859
 20
53.3021695229
 30
0.0
 40
2.306367156193645
100
AcDbArc
 50
202.0504178538
 51
270.1979836261
  0
LWPOLYLINE
  5
1DE
330
1F
100
AcDbEntity
  8
0
  6
Continuous
 62
     7
370
    15
100
AcDbPolyline
 90
       18
 70
   128
 43
0.0
 10
220.0429908742
 20
55.0312321473
 10
220.086516454
 20
55.7751351987
 10
220.2162460174
 20
56.5548125882
 10
220.429654526
 20
57.3550887821
 10
220.722588226
 20
58.1603873147
 10
221.0893454961
 20
58.955033966
 10
221.5227878232
 20
59.7235618429
 10
222.0144787455
 20
60.4510124244
 10
222.5548480584
 20
61.1232267125
 10
223.1333780879
 20
61.7271208206
 10
223.7388084051
 20
62.2509406369
 10
224.3593549976
 20
62.6844906044
 10
224.9829396317
 20
63.0193321662
 10
225.5974249418
 20
63.2489480122
 10
226.1908506704
 20
63.3688689312
 10
226.7516664607
 20
63.3767607987
 10
227.2689566713
 20
63.2724700087
 10
227.6776842572
 20
63.0908818555
  0
ARC
  5
1DF
330
1F
100
AcDbEntity
  8
0
  6
Continuous
 62
     7
370
    15
100
AcDbCircle
 10
223.1907704425
 20
54.7110848192
 30
0.0
 40
3.164018097597606
100
AcDbArc
 50
174.1926578304
 51
234.4951617762
  0
LWPOLYLINE
  5
1E0
330
1F
100
AcDbEntity
  8
0
  6
Continuous
 62
     7
370
    15
100
AcDbPolyline
 90
       21
 70
   128
 43
0.0
 10
217.4542227645
 20
56.6052959574
 10
217.4970773965
 20
57.3377317286
 10
217.6248071761
 20
58.1053903757
 10
217.8349259884
 20
58.8933302962
 10
218.1233441096
 20
59.686215136
 10
218.4844478091
 20
60.4686122935
 10
218.9112086142
 20
61.225293298
 10
219.3953201112
 20
61.9415302145
 10
219.9273596205
 20
62.603382306
 10
220.4969715982
 20
63.1979673745
 10
221.0930691951
 20
63.7137124979
 10
221.7040500495
 20
64.1405792842
 10
222.3180221141
 20
64.4702592567
 10
222.9230351211
 20
64.6963355699
 10
223.5073131804
 20
64.8144079055
 10
224.0594839842
 20
64.8221781197
 10
224.5688001559
 20
64.7194949743
 10
225.0253484356
 20
64.5083570798
 10
225.4202426303
 20
64.1928739952
 10
225.7457965738
 20
63.7791862398
 10
225.9712361757
 20
63.3368963541
  0
LWPOLYLINE
  5
1E1
330
1F
100
AcDbEntity
  8
0
  6
Continuous
 62
     7
370
    15
100
AcDbPolyline
 90
       10
 70
   128
 43
0.0
 10
220.2867922979
 20
53.4900838223
 10
219.9273596205
 20
53.4626326434
 10
219.3953201112
 20
53.5102049928
 10
218.9112086142
 20
53.6674986723
 10
218.4844478091
 20
53.9314521392
 10
218.1233441096
 20
54.2969278397
 10
217.8349259884
 20
54.7568122048
 10
217.6248071761
 20
55.3021541086
 10
217.4970773965
 20
55.9223390912
 10
217.4542227645
 20
56.6052959574
  0
LWPOLYLINE
  5
1E2
330
1F
100
AcDbEntity
  8
0
  6
Continuous
 62
     7
370
    15
100
AcDbPolyline
 90
       18
 70
   128
 43
0.0
 10
216.3642678451
 20
57.2345135391
 10
216.4071224772
 20
57.9669493103
 10
216.5348522568
 20
58.7346079573
 10
216.744971069
 20
59.5225478779
 10
217.0333891903
 20
60.3154327177
 10
217.3944928898
 20
61.0978298752
 10
217.8212536949
 20
61.8545108797
 10
218.3053651918
 20
62.5707477961
 10
218.8374047011
 20
63.2325998877
 10
219.4070166788
 20
63.8271849562
 10
220.0031142757
 20
64.3429300796
 10
220.6140951302
 20
64.7697968658
 10
221.2280671948
 20
65.0994768384
 10
221.8330802018
 20
65.3255531516
 10
222.4173582611
 20
65.4436254871
 10
222.9695290649
 20
65.4513957014
 10
223.4788452366
 20
65.348712556
 10
223.8812722787
 20
65.1699235877
  0
ARC
  5
1E3
330
1F
100
AcDbEntity
  8
0
  6
Continuous
 62
     7
370
    15
100
AcDbCircle
 10
219.4635243291
 20
56.9193012884
 30
0.0
 40
3.115244696092973
100
AcDbArc
 50
174.1926578304
 51
234.4951617762
  0
LWPOLYLINE
  5
1E4
330
1F
100
AcDbEntity
  8
0
  6
Continuous
 62
     7
370
    15
100
AcDbPolyline
 90
       13
 70
   128
 43
0.0
 10
216.2599695949
 20
57.9907115526
 10
216.3045121759
 20
58.6863889286
 10
216.4370958786
 20
59.4171879859
 10
216.6546130534
 20
60.165979414
 10
216.951965282
 20
60.9152121764
 10
217.3221828803
 20
61.6473248923
 10
217.7565882615
 20
62.3451574601
 10
218.2449993317
 20
62.9923532759
 10
218.7759681493
 20
63.5737426182
 10
219.3370492553
 20
64.0756982137
 10
219.9150913841
 20
64.4864546486
 10
220.4965457181
 20
64.7963841403
 10
220.9622371256
 20
64.9689118919
  0
LWPOLYLINE
  5
1E5
330
1F
100
AcDbEntity
  8
0
  6
Continuous
 62
     7
370
    15
100
AcDbPolyline
 90
        3
 70
   128
 43
0.0
 10
216.368595385
 20
57.0116288172
 10
216.3045121759
 20
57.3464619461
 10
216.2599695949
 20
57.9907115526
  0
LWPOLYLINE
  5
1E6
330
1F
100
AcDbEntity
  8
0
  6
Continuous
 62
     7
370
    15
100
AcDbPolyline
 90
       15
 70
   128
 43
0.0
 10
214.2800706076
 20
59.2153237204
 10
214.3237844894
 20
59.8980582614
 10
214.4539015186
 20
60.6152610572
 10
214.6673718622
 20
61.3501214819
 10
214.9591919564
 20
62.0854150302
 10
215.3225217854
 20
62.8039070444
 10
215.748845206
 20
63.4887566807
 10
216.2281695586
 20
64.1239116441
 10
216.7492598865
 20
64.6944844405
 10
217.2999022743
 20
65.1871013272
 10
217.8671901309
 20
65.590215782
 10
218.4378267099
 20
65.8943791436
 10
218.9984367735
 20
66.0924620806
 10
219.5358800969
 20
66.1798216969
 10
220.0020995593
 20
66.1601305543
  0
LWPOLYLINE
  5
1E7
330
1F
100
AcDbEntity
  8
0
  6
Continuous
 62
     7
370
     0
100
AcDbPolyline
 90
        7
 70
   128
 43
0.0
 10
263.8774581909
 20
37.8831807951
 10
263.9345089579
 20
37.7264420858
 10
264.0242780926
 20
37.3284561807
 10
264.0259559889
 20
36.9661413265
 10
263.9394067137
 20
36.6688501181
 10
263.7716419745
 20
36.4606673211
 10
263.5528540838
 20
36.3615894066
  0
LWPOLYLINE
  5
1E8
330
1F
100
AcDbEntity
  8
0
  6
Continuous
 62
     7
370
     0
100
AcDbPolyline
 90
        9
 70
   128
 43
0.0
 10
263.7399254079
 20
37.7519351173
 10
263.8152763879
 20
37.4936867679
 10
263.8551442765
 20
37.1306063483
 10
263.8064387518
 20
36.8201964846
 10
263.6734875135
 20
36.5900384556
 10
263.4681038626
 20
36.4605828121
 10
263.2085370378
 20
36.4433322561
 10
262.9178506905
 20
36.5398195752
 10
262.7762937766
 20
36.6233854395
  0
LWPOLYLINE
  5
1E9
330
1F
100
AcDbEntity
  8
0
  6
Continuous
 62
     7
370
     0
100
AcDbPolyline
 90
       20
 70
   128
 43
0.0
 10
261.1501579701
 20
48.0106151916
 10
260.645290868
 20
48.2396697628
 10
259.994462407
 20
48.4052803372
 10
259.2947327317
 20
48.4540662111
 10
258.5551049715
 20
48.3853996771
 10
257.7850956084
 20
48.2001642386
 10
256.9946120312
 20
47.9007432429
 10
256.1938250624
 20
47.490989215
 10
255.3930380936
 20
46.9761742887
 10
254.6025545164
 20
46.3629223731
 10
253.8325451533
 20
45.6591239244
 10
253.0929173931
 20
44.8738344236
 10
252.3931877178
 20
44.0171578629
 10
251.7423592568
 20
43.1001167421
 10
251.1488059484
 20
42.1345102465
 10
250.6201647954
 20
41.132762432
 10
250.1632376027
 20
40.1077623694
 10
249.7839034618
 20
39.0726983069
 10
249.4870431068
 20
38.0408879817
 10
249.276476116
 20
37.0256072666
  0
ARC
  5
1EA
330
1F
100
AcDbEntity
  8
0
  6
Continuous
 62
     7
370
     0
100
AcDbCircle
 10
253.4561522329
 20
34.2290208818
 30
0.0
 40
4.221122074271381
100
AcDbArc
 50
188.0356452249
 51
237.5979016861
  0
SPLINE
  5
1EB
330
1F
100
AcDbEntity
  8
0
  6
Continuous
 62
     7
370
     0
100
AcDbSpline
210
0.0
220
0.0
230
1.0
 70
     8
 71
     3
 72
    14
 73
    10
 74
     0
 42
0.000000001
 43
0.00000001
 40
0.0
 40
0.0
 40
0.0
 40
0.0
 40
0.25
 40
0.25
 40
0.5
 40
0.5
 40
0.75
 40
0.75
 40
1.0
 40
1.0
 40
1.0
 40
1.0
 10
249.276476116008
 20
37.02560726656417
 30
0.0
 10
249.2252115824121
 20
36.71675738971034
 30
0.0
 10
249.1822324551156
 20
36.41623931057534
 30
0.0
 10
249.1235172046097
 20
35.8252459134475
 30
0.0
 10
249.1078251495348
 20
35.53372022876576
 30
0.0
 10
249.1080200010136
 20
34.96507990017386
 30
0.0
 10
249.1237483594175
 20
34.687860800479
 30
0.0
 10
249.1823453881753
 20
34.14961428006034
 30
0.0
 10
249.2252183023063
 20
33.88858221169481
 30
0.0
 10
249.276476116008
 20
33.63895383171791
 30
0.0
  0
LWPOLYLINE
  5
1EC
330
1F
100
AcDbEntity
  8
0
  6
Continuous
 62
     7
370
     0
100
AcDbPolyline
 90
       45
 70
   128
 43
0.0
 10
265.1740811835
 20
39.0406344573
 10
264.5702904602
 20
38.6422062435
 10
263.9787911749
 20
38.1521543818
 10
263.4116245473
 20
37.5804549149
 10
262.8803364542
 20
36.9387459954
 10
262.3957423892
 20
36.2400909663
 10
261.96770729
 20
35.4987124292
 10
261.6049447169
 20
34.7297027133
 10
261.3148394697
 20
33.9487166386
 10
261.1032972546
 20
33.1716528295
 10
260.9746244612
 20
32.4143300643
 10
260.9314404963
 20
31.6921652506
 10
260.9746244612
 20
31.0198595813
 10
261.1032972546
 20
30.4110992612
 10
261.3148394697
 20
29.8782768948
 10
261.6049447169
 20
29.432239209
 10
261.96770729
 20
29.0820662448
 10
262.3957423892
 20
28.834886514
 10
262.8803364542
 20
28.695731883
 10
263.4116245473
 20
28.6674351388
 10
263.9787911749
 20
28.7505723217
 10
264.5702904602
 20
28.9434509982
 10
265.1740811835
 20
29.2421447147
 10
265.7778719067
 20
29.6405729286
 10
266.369371192
 20
30.1306247903
 10
266.9365378197
 20
30.7023242572
 10
267.4678259127
 20
31.3440331767
 10
267.9524199777
 20
32.0426882058
 10
268.3804550769
 20
32.7840667428
 10
268.74321765
 20
33.5530764588
 10
269.0333228973
 20
34.3340625335
 10
269.2448651123
 20
35.1111263425
 10
269.3735379058
 20
35.8684491077
 10
269.4167218706
 20
36.5906139215
 10
269.3735379058
 20
37.2629195908
 10
269.2448651123
 20
37.8716799109
 10
269.0333228973
 20
38.4045022773
 10
268.74321765
 20
38.8505399631
 10
268.3804550769
 20
39.2007129273
 10
267.9524199777
 20
39.4478926581
 10
267.4678259127
 20
39.5870472891
 10
266.9365378197
 20
39.6153440332
 10
266.369371192
 20
39.5322068504
 10
265.7778719067
 20
39.3393281739
 10
265.1740811835
 20
39.0406344573
  0
LWPOLYLINE
  5
1ED
330
1F
100
AcDbEntity
  8
0
  6
Continuous
 62
     7
370
     0
100
AcDbPolyline
 90
       29
 70
   128
 43
0.0
 10
244.7244095616
 20
37.6238878042
 10
245.0578206311
 20
38.8921593188
 10
245.4744203246
 20
40.1690650458
 10
245.9707689229
 20
41.4440620174
 10
246.5427682476
 20
42.7066230255
 10
247.1856954987
 20
43.9463235418
 10
247.8942422487
 20
45.152927789
 10
248.662558273
 20
46.3164732542
 10
249.4842998524
 20
47.427352946
 10
250.3526821517
 20
48.4763947159
 10
251.2605352394
 20
49.4549369897
 10
252.2003632873
 20
50.3549002833
 10
253.1644064611
 20
51.1688539118
 10
254.1447049905
 20
51.8900773423
 10
255.1331648906
 20
52.512615683
 10
256.1216247907
 20
53.0313288507
 10
257.1019233202
 20
53.4419340107
 10
258.065966494
 20
53.7410409385
 10
259.0057945418
 20
53.9261800119
 10
259.9136476295
 20
53.9958226018
 10
260.7820299288
 20
53.9493936936
 10
261.6037715082
 20
53.7872766344
 10
262.3720875325
 20
53.5108099688
 10
263.0806342826
 20
53.1222763861
 10
263.7235615337
 20
52.6248838734
 10
264.2955608584
 20
52.0227392282
 10
264.7919094566
 20
51.3208141501
 10
265.2085091501
 20
50.5249041909
 10
265.5419202197
 20
49.6415809033
  0
LWPOLYLINE
  5
1EE
330
1F
100
AcDbEntity
  8
0
  6
Continuous
 62
     7
370
     0
100
AcDbPolyline
 90
       21
 70
   128
 43
0.0
 10
244.2289943462
 20
37.337850878
 10
244.5389725497
 20
38.607029821
 10
244.9321323156
 20
39.8878528217
 10
245.4053236292
 20
41.1700578653
 10
245.9547552592
 20
42.4433718636
 10
246.5760251329
 20
43.6975929642
 10
247.2641556067
 20
44.9226722879
 10
248.0136333463
 20
46.1087944405
 10
248.8184535003
 20
47.2464561549
 10
249.6721678113
 20
48.3265424311
 10
250.5679362794
 20
49.3403995663
 10
251.498581965
 20
50.2799044888
 10
252.4566484903
 20
51.1375298404
 10
253.4344597808
 20
51.9064042858
 10
254.4241815657
 20
52.5803675662
 10
255.4178841468
 20
53.1540198558
 10
256.4076059317
 20
53.6227650249
 10
257.3854172222
 20
53.982847465
 10
258.3434837476
 20
54.2313821784
 10
259.2741294331
 20
54.366377893
 10
259.966850971
 20
54.3922455642
  0
LWPOLYLINE
  5
1EF
330
1F
100
AcDbEntity
  8
0
  6
Continuous
 62
     7
370
     0
100
AcDbPolyline
 90
       21
 70
   128
 43
0.0
 10
241.117724509
 20
39.133948724
 10
241.4277027125
 20
40.403127667
 10
241.8208624784
 20
41.6839506677
 10
242.294053792
 20
42.9661557113
 10
242.8434854219
 20
44.2394697096
 10
243.4647552957
 20
45.4936908102
 10
244.1528857695
 20
46.7187701339
 10
244.9023635091
 20
47.9048922865
 10
245.7071836631
 20
49.0425540009
 10
246.5608979741
 20
50.1226402771
 10
247.4566664422
 20
51.1364974123
 10
248.3873121277
 20
52.0760023349
 10
249.3453786531
 20
52.9336276864
 10
250.3231899436
 20
53.7025021318
 10
251.3129117285
 20
54.3764654122
 10
252.3066143096
 20
54.9501177018
 10
253.2963360945
 20
55.4188628709
 10
254.274147385
 20
55.778945311
 10
255.2322139103
 20
56.0274800244
 10
256.1628595959
 20
56.162475739
 10
256.8555811338
 20
56.1883434102
  0
LWPOLYLINE
  5
1F0
330
1F
100
AcDbEntity
  8
0
  6
Continuous
 62
     7
370
     0
100
AcDbPolyline
 90
       27
 70
   128
 43
0.0
 10
247.1782136023
 20
37.292917276
 10
247.3981676871
 20
38.3698084722
 10
247.7029358868
 20
39.4638936252
 10
248.089176423
 20
40.5631761096
 10
248.5526541748
 20
41.6556023113
 10
249.0882871164
 20
42.7291937954
 10
249.6902020416
 20
43.7721786492
 10
250.3517989632
 20
44.7731205613
 10
251.0658234822
 20
45.7210442203
 10
251.8244463315
 20
46.6055556592
 10
252.6193492245
 20
47.4169562249
 10
253.4418160641
 20
48.1463489238
 10
254.2828285153
 20
48.7857359772
 10
255.1331648906
 20
49.3281065167
 10
255.9835012659
 20
49.7675134584
 10
256.8245137171
 20
50.0991387126
 10
257.6469805567
 20
50.3193460139
 10
258.4418834497
 20
50.425720793
 10
259.2005062991
 20
50.4170966522
 10
259.914530818
 20
50.293568155
 10
260.5761277396
 20
50.0564897894
 10
261.1780426648
 20
49.7084611156
 10
261.7136756064
 20
49.2532982623
 10
262.1771533582
 20
48.6959920824
 10
262.5633938944
 20
48.042653429
 10
262.8681620941
 20
47.3004461494
 10
262.9724434629
 20
46.9590605996
  0
LWPOLYLINE
  5
1F1
330
1F
100
AcDbEntity
  8
0
  6
Continuous
 62
     7
370
     0
100
AcDbPolyline
 90
       23
 70
   128
 43
0.0
 10
262.0755238834
 20
29.5794772503
 10
262.175276639
 20
29.5263033893
 10
262.6297269112
 20
29.3701519476
 10
263.1331160549
 20
29.3251413726
 10
263.6741991885
 20
29.3922771261
 10
264.2408894088
 20
29.5700595063
 10
264.8205277929
 20
29.8545171486
 10
265.4001661769
 20
30.2392957394
 10
265.9668563973
 20
30.7157999607
 10
266.5079395308
 20
31.2733854957
 10
267.0113286746
 20
31.8995968049
 10
267.4657789468
 20
32.5804453623
 10
267.8611386794
 20
33.3007221364
 10
268.1885761892
 20
34.0443373342
 10
268.4407770634
 20
34.794679821
 10
268.6121075512
 20
35.5349881854
 10
268.6987404125
 20
36.2487251621
 10
268.6987404125
 20
36.9199470463
 10
268.6121075512
 20
37.5336598502
 10
268.4407770634
 20
38.0761542441
 10
268.1885761892
 20
38.5353117996
 10
267.8611386794
 20
38.9008756956
 10
267.6082050838
 20
39.0862691736
  0
ARC
  5
1F2
330
1F
100
AcDbEntity
  8
0
  6
Continuous
 62
     7
370
     0
100
AcDbCircle
 10
247.8880702999
 20
34.4961106333
 30
0.0
 40
2.88548504205025
100
AcDbArc
 50
61.2382239709
 51
104.2414991675
  0
LINE
  5
1F3
330
1F
100
AcDbEntity
  8
0
  6
Continuous
 62
     7
370
     0
100
AcDbLine
 10
246.2589747867
 20
38.509707102
 30
0.0
 11
246.6125281773
 21
38.71387548
 31
0.0
  0
LINE
  5
1F4
330
1F
100
AcDbEntity
  8
0
  6
Continuous
 62
     7
370
     0
100
AcDbLine
 10
243.4583140889
 20
37.4449050522
 30
0.0
 11
243.4570641663
 21
37.6060215106
 31
0.0
  0
LINE
  5
1F5
330
1F
100
AcDbEntity
  8
0
  6
Continuous
 62
     7
370
     0
100
AcDbLine
 10
247.1782136023
 20
38.1166282524
 30
0.0
 11
247.0589747867
 21
38.0477707723
 31
0.0
  0
LWPOLYLINE
  5
1F6
330
1F
100
AcDbEntity
  8
0
  6
Continuous
 62
     7
370
     0
100
AcDbPolyline
 90
       14
 70
   128
 43
0.0
 10
223.5483683386
 20
52.9677668243
 10
223.5922298481
 20
53.7174113083
 10
223.7229606623
 20
54.5031062361
 10
223.9380162546
 20
55.3095589497
 10
224.2332108125
 20
56.1210727643
 10
224.6027987097
 20
56.9218524865
 10
225.0395863382
 20
57.6963118501
 10
225.5350721236
 20
58.4293768843
 10
226.0796119988
 20
59.1067793121
 10
226.6626071144
 20
59.7153342659
 10
227.2727101337
 20
60.2431969156
 10
227.8980460954
 20
60.6800930153
 10
228.5264435464
 20
61.0175188793
 10
228.8649643029
 20
61.1567900893
  0
LWPOLYLINE
  5
1F7
330
1F
100
AcDbEntity
  8
0
  6
Continuous
 62
     7
370
     0
100
AcDbPolyline
 90
        3
 70
   128
 43
0.0
 10
223.6836744679
 20
51.7801952868
 10
223.5922298481
 20
52.2687637612
 10
223.5483683386
 20
52.9677668243
  0
LINE
  5
1F8
330
1F
100
AcDbEntity
  8
0
  6
Continuous
 62
     7
370
     0
100
AcDbLine
 10
247.0589747867
 20
38.0477707723
 30
0.0
 11
246.2588828395
 21
38.509654022
 31
0.0
  0
ARC
  5
1F9
330
1F
100
AcDbEntity
  8
0
  6
Continuous
 62
     7
370
     0
100
AcDbCircle
 10
248.4171001617
 20
31.8643668727
 30
0.0
 40
1.971721558888383
100
AcDbArc
 50
64.1605710328
 51
128.9268241383
  0
LINE
  5
1FA
330
1F
100
AcDbEntity
  8
0
  6
Continuous
 62
     7
370
     0
100
AcDbLine
 10
247.0589747867
 20
32.7810825356
 30
0.0
 11
247.1782136023
 21
32.5745548495
 31
0.0
  0
LINE
  5
1FB
330
1F
100
AcDbEntity
  8
0
  6
Continuous
 62
     7
370
     0
100
AcDbLine
 10
243.7619185119
 20
34.6844326092
 30
0.0
 11
247.0589747867
 21
32.7810825356
 31
0.0
  0
LINE
  5
1FC
330
1F
100
AcDbEntity
  8
0
  6
Continuous
 62
     7
370
     0
100
AcDbLine
 10
243.6426796963
 20
34.6155751291
 30
0.0
 11
243.7619185119
 21
34.6844326092
 31
0.0
  0
LWPOLYLINE
  5
1FD
330
1F
100
AcDbEntity
  8
0
  6
Continuous
 62
     7
370
     0
100
AcDbPolyline
 90
       16
 70
   128
 43
0.0
 10
255.9898134602
 20
27.8966618762
 10
255.1331648906
 20
27.3631586769
 10
254.1447049905
 20
26.8444455092
 10
253.1644064611
 20
26.4338403492
 10
252.2003632873
 20
26.1347334214
 10
251.2605352394
 20
25.949594348
 10
250.3526821517
 20
25.8799517581
 10
249.4842998524
 20
25.9263806664
 10
248.662558273
 20
26.0884977255
 10
247.8942422487
 20
26.3649643911
 10
247.1856954987
 20
26.7534979738
 10
246.5427682476
 20
27.2508904865
 10
245.9707689229
 20
27.8530351317
 10
245.4744203246
 20
28.5549602099
 10
245.0578206311
 20
29.350870169
 10
244.7244095616
 20
30.2341934566
  0
ARC
  5
1FE
330
1F
100
AcDbEntity
  8
0
  6
Continuous
 62
     7
370
     0
100
AcDbCircle
 10
251.6310651645
 20
33.9151873076
 30
0.0
 40
4.482755274760478
100
AcDbArc
 50
186.6216983256
 51
287.4222932586
  0
LINE
  5
1FF
330
1F
100
AcDbEntity
  8
0
  6
Continuous
 62
     7
370
     0
100
AcDbLine
 10
246.6125281773
 20
31.3241811325
 30
0.0
 11
246.2589747867
 21
31.9365535664
 31
0.0
  0
ARC
  5
200
330
1F
100
AcDbEntity
  8
0
  6
Continuous
 62
     7
370
     0
100
AcDbCircle
 10
251.7558944914
 20
32.4751640763
 30
0.0
 40
7.797687681826219
100
AcDbArc
 50
195.14376724
 51
210.888202954
  0
ARC
  5
201
330
1F
100
AcDbEntity
  8
0
  6
Continuous
 62
     7
370
     0
100
AcDbCircle
 10
248.6446246542
 20
34.2712619223
 30
0.0
 40
7.797687681824765
100
AcDbArc
 50
195.14376724
 51
210.888202954
  0
LINE
  5
202
330
1F
100
AcDbEntity
  8
0
  6
Continuous
 62
     7
370
     0
100
AcDbLine
 10
246.2589747867
 20
31.9365535664
 30
0.0
 11
243.430547662
 21
33.56936979
 31
0.0
  0
LINE
  5
203
330
1F
100
AcDbEntity
  8
0
  6
Continuous
 62
     7
370
     0
100
AcDbLine
 10
223.4956198125
 20
53.3034045232
 30
0.0
 11
223.5068313331
 21
53.665812188
 31
0.0
  0
ARC
  5
204
330
1F
100
AcDbEntity
  8
0
  6
Continuous
 62
     7
370
     0
100
AcDbCircle
 10
232.8871774832
 20
52.7659591987
 30
0.0
 40
9.43444477440971
100
AcDbArc
 50
125.49289083
 51
171.7385822023
  0
LINE
  5
205
330
1F
100
AcDbEntity
  8
0
  6
Continuous
 62
     7
370
     0
100
AcDbLine
 10
223.4992805441
 20
53.1020403815
 30
0.0
 11
223.4956198125
 21
53.3034045232
 31
0.0
  0
LWPOLYLINE
  5
206
330
1F
100
AcDbEntity
  8
0
  6
Continuous
 62
     7
370
     0
100
AcDbPolyline
 90
       18
 70
   128
 43
0.0
 10
222.0647416911
 20
54.1294328802
 10
222.1079256559
 20
54.8515976939
 10
222.2365984494
 20
55.6089204591
 10
222.4481406644
 20
56.3859842682
 10
222.7382459116
 20
57.1669703429
 10
223.1010084848
 20
57.9359800588
 10
223.529043584
 20
58.6773585959
 10
224.013637649
 20
59.376013625
 10
224.544925742
 20
60.0177225445
 10
225.1120923697
 20
60.5894220114
 10
225.703591655
 20
61.0794738731
 10
226.3073823782
 20
61.4779020869
 10
226.9111731015
 20
61.7765958035
 10
227.5026723868
 20
61.96947448
 10
228.0698390144
 20
62.0526116628
 10
228.6011271075
 20
62.0243149187
 10
229.0857211724
 20
61.8851602877
 10
229.1037693907
 20
61.8774169096
  0
ARC
  5
207
330
1F
100
AcDbEntity
  8
0
  6
Continuous
 62
     7
370
     0
100
AcDbCircle
 10
225.0394040915
 20
53.8205899566
 30
0.0
 40
2.990652160921362
100
AcDbArc
 50
174.0725302334
 51
234.6152893732
  0
LWPOLYLINE
  5
208
330
1F
100
AcDbEntity
  8
0
  6
Continuous
 62
     7
370
     0
100
AcDbPolyline
 90
       20
 70
   128
 43
0.0
 10
221.7842413229
 20
54.1586959778
 10
221.8285948534
 20
54.9004194219
 10
221.960752535
 20
55.678253012
 10
222.1780240184
 20
56.4763622992
 10
222.4759862828
 20
57.2785000801
 10
222.8485736756
 20
58.0683371425
 10
223.2882013921
 20
58.8297946816
 10
223.7859198796
 20
59.5473716178
 10
224.3315970252
 20
60.2064601539
 10
224.9141244157
 20
60.793643148
 10
225.5216434733
 20
61.2969672476
 10
226.141786862
 20
61.7061862256
 10
226.7619302506
 20
62.0129695636
 10
227.3694493082
 20
62.2110720376
 10
227.9519766987
 20
62.2964608525
 10
228.4976538443
 20
62.2673977382
 10
228.9953723319
 20
62.1244743359
 10
229.4350000483
 20
61.8706001541
 10
229.8075874412
 20
61.5109433388
 10
229.8445237622
 20
61.4647245253
  0
LWPOLYLINE
  5
209
330
1F
100
AcDbEntity
  8
0
  6
Continuous
 62
     7
370
     0
100
AcDbPolyline
 90
        9
 70
   128
 43
0.0
 10
223.8450113664
 20
51.0721381767
 10
223.7859198796
 20
51.0811092065
 10
223.2882013921
 20
51.2240326087
 10
222.8485736756
 20
51.4779067906
 10
222.4759862828
 20
51.8375636059
 10
222.1780240184
 20
52.295681479
 10
221.960752535
 20
52.8429344512
 10
221.8285948534
 20
53.46818203
 10
221.7842413229
 20
54.1586959778
  0
LWPOLYLINE
  5
20A
330
1F
100
AcDbEntity
  8
0
  6
Continuous
 62
     7
370
     0
100
AcDbPolyline
 90
       16
 70
   128
 43
0.0
 10
221.5037409547
 20
54.1879590754
 10
221.5472665345
 20
54.9318621268
 10
221.6769960979
 20
55.7115395163
 10
221.8904046065
 20
56.5118157102
 10
222.1833383065
 20
57.3171142428
 10
222.5500955766
 20
58.1117608941
 10
222.9835379037
 20
58.880288771
 10
223.475228826
 20
59.6077393525
 10
224.0155981389
 20
60.2799536406
 10
224.5941281684
 20
60.8838477487
 10
225.1995584856
 20
61.407667565
 10
225.8201050781
 20
61.8412175325
 10
226.4436897121
 20
62.1760590943
 10
227.0581750223
 20
62.4056749403
 10
227.6516007509
 20
62.5255958593
 10
227.6811643358
 20
62.5287275589
  0
ARC
  5
20B
330
1F
100
AcDbEntity
  8
0
  6
Continuous
 62
     7
370
     0
100
AcDbCircle
 10
225.8217600293
 20
54.0896249102
 30
0.0
 40
4.319138610517721
100
AcDbArc
 50
178.6954298057
 51
202.5065236978
  0
LWPOLYLINE
  5
20C
330
1F
100
AcDbEntity
  8
0
  6
Continuous
 62
     7
370
     0
100
AcDbPolyline
 90
       17
 70
   128
 43
0.0
 10
218.4550636242
 20
56.8153566552
 10
218.4986739187
 20
57.4964733419
 10
218.6284826137
 20
58.211976605
 10
218.8414471034
 20
58.9450956543
 10
219.1325756807
 20
59.6786468008
 10
219.4950445386
 20
60.3954362273
 10
219.9203577141
 20
61.0786629972
 10
220.398546227
 20
61.712312854
 10
220.9184017438
 20
62.2815335822
 10
221.4677392917
 20
62.7729831303
 10
222.0336828644
 20
63.1751423375
 10
222.602967224
 20
63.4785849328
 10
223.1622488277
 20
63.676198479
 10
223.6984185887
 20
63.7633510821
 10
224.1989091423
 20
63.7379999588
 10
224.6519894142
 20
63.600739318
 10
224.8072492255
 20
63.5211126377
  0
ARC
  5
20D
330
1F
100
AcDbEntity
  8
0
  6
Continuous
 62
     7
370
     0
100
AcDbCircle
 10
221.0325213037
 20
56.5301925276
 30
0.0
 40
2.593184657676268
100
AcDbArc
 50
173.6866002849
 51
235.0012193218
  0
LWPOLYLINE
  5
20E
330
1F
100
AcDbEntity
  8
0
  6
Continuous
 62
     7
370
     0
100
AcDbPolyline
 90
       19
 70
   128
 43
0.0
 10
218.1532869289
 20
56.8382920972
 10
218.1963125181
 20
57.5261219807
 10
218.324428165
 20
58.248263169
 10
218.5347719778
 20
58.9885842214
 10
218.8226452233
 20
59.7305475888
 10
219.1816172889
 20
60.4575790357
 10
219.6036693318
 20
61.1534378809
 10
220.0793734069
 20
61.8025797877
 10
220.598103071
 20
62.3905039986
 10
221.1482707609
 20
62.9040772582
 10
221.7175866393
 20
63.3318271886
 10
222.2933331303
 20
63.6641985631
 10
222.8626490087
 20
63.8937667545
 10
223.4128166985
 20
64.0154035887
 10
223.9315463627
 20
64.0263918999
 10
224.4072504377
 20
63.9264862273
 10
224.8293024806
 20
63.7179182986
 10
225.1882745462
 20
63.4053471766
 10
225.34092654
 20
63.2130272818
  0
LWPOLYLINE
  5
20F
330
1F
100
AcDbEntity
  8
0
  6
Continuous
 62
     7
370
     0
100
AcDbPolyline
 90
        8
 70
   128
 43
0.0
 10
220.0788542095
 20
54.0978630053
 10
219.6036693318
 20
54.1977221916
 10
219.1816172889
 20
54.4062901203
 10
218.8226452233
 20
54.7188612423
 10
218.5347719778
 20
55.1284532351
 10
218.324428165
 20
55.6259164906
 10
218.1963125181
 20
56.2001385016
 10
218.1532869289
 20
56.8382920972
  0
ARC
  5
210
330
1F
100
AcDbEntity
  8
0
  6
Continuous
 62
     7
370
     0
100
AcDbCircle
 10
224.5345606909
 20
57.603137652
 30
0.0
 40
8.135358251549553
100
AcDbArc
 50
122.5157989814
 51
177.6480586214
  0
LWPOLYLINE
  5
211
330
1F
100
AcDbEntity
  8
0
  6
Continuous
 62
     7
370
     0
100
AcDbPolyline
 90
       17
 70
   128
 43
0.0
 10
214.2800706076
 20
59.1336829092
 10
214.3246131886
 20
59.8293602852
 10
214.4571968913
 20
60.5601593424
 10
214.6747140661
 20
61.3089507705
 10
214.9720662947
 20
62.058183533
 10
215.342283893
 20
62.7902962489
 10
215.7766892742
 20
63.4881288167
 10
216.2651003444
 20
64.1353246324
 10
216.796069162
 20
64.7167139747
 10
217.357150268
 20
65.2186695702
 10
217.9351923968
 20
65.6294260051
 10
218.5166467308
 20
65.9393554968
 10
219.0878844733
 20
66.1411935606
 10
219.6355162958
 20
66.2302092834
 10
220.1467061724
 20
66.2043162121
 10
220.6094722457
 20
66.0641212584
 10
220.7680511504
 20
65.982792345
  0
ARC
  5
212
330
1F
100
AcDbEntity
  8
0
  6
Continuous
 62
     7
370
     0
100
AcDbCircle
 10
216.9126283324
 20
58.8424226364
 30
0.0
 40
2.648620909265518
100
AcDbArc
 50
173.6866002849
 51
235.0012193218
  0
OLE2FRAME
  5
213
330
1F
100
AcDbEntity
  8
0
100
AcDbOle2Frame
 70
     2
  3
Paintbrush-Bild
 10
13.8511154363
 20
38.264191557
 30
0.0
 11
51.6290888628
 21
31.9806341108
 31
0.0
 71
     2
 72
     0
 73
     1
 90
    12928
310
80552BED0767C5B32B40DDAF6807D121434000000000000000006FFBDDFB85D0
310
4940DDAF6807D121434000000000000000006FFBDDFB85D04940416F4BD60AFB
310
3F4000000000000000002BED0767C5B32B40416F4BD60AFB3F40000000000000
310
0000000000000100000000010000010000000100000000000100000000320000
310
D0CF11E0A1B11AE1000000000000000000000000000000003E000300FEFF0900
310
0600000000000000000000000100000001000000000000000010000002000000
310
01000000FEFFFFFF0000000000000000FFFFFFFFFFFFFFFFFFFFFFFFFFFFFFFF
310
FFFFFFFFFFFFFFFFFFFFFFFFFFFFFFFFFFFFFFFFFFFFFFFFFFFFFFFFFFFFFFFF
310
FFFFFFFFFFFFFFFFFFFFFFFFFFFFFFFFFFFFFFFFFFFFFFFFFFFFFFFFFFFFFFFF
310
FFFFFFFFFFFFFFFFFFFFFFFFFFFFFFFFFFFFFFFFFFFFFFFFFFFFFFFFFFFFFFFF
310
FFFFFFFFFFFFFFFFFFFFFFFFFFFFFFFFFFFFFFFFFFFFFFFFFFFFFFFFFFFFFFFF
310
FFFFFFFFFFFFFFFFFFFFFFFFFFFFFFFFFFFFFFFFFFFFFFFFFFFFFFFFFFFFFFFF
310
FFFFFFFFFFFFFFFFFFFFFFFFFFFFFFFFFFFFFFFFFFFFFFFFFFFFFFFFFFFFFFFF
310
FFFFFFFFFFFFFFFFFFFFFFFFFFFFFFFFFFFFFFFFFFFFFFFFFFFFFFFFFFFFFFFF
310
FFFFFFFFFFFFFFFFFFFFFFFFFFFFFFFFFFFFFFFFFFFFFFFFFFFFFFFFFFFFFFFF
310
FFFFFFFFFFFFFFFFFFFFFFFFFFFFFFFFFFFFFFFFFFFFFFFFFFFFFFFFFFFFFFFF
310
FFFFFFFFFFFFFFFFFFFFFFFFFFFFFFFFFFFFFFFFFFFFFFFFFFFFFFFFFFFFFFFF
310
FFFFFFFFFFFFFFFFFFFFFFFFFFFFFFFFFFFFFFFFFFFFFFFFFFFFFFFFFFFFFFFF
310
FFFFFFFFFFFFFFFFFFFFFFFFFFFFFFFFFFFFFFFFFFFFFFFFFFFFFFFFFFFFFFFF
310
FFFFFFFFFFFFFFFFFFFFFFFFFFFFFFFFFFFFFFFFFFFFFFFFFFFFFFFFFFFFFFFF
310
FDFFFFFFFEFFFFFFFEFFFFFFFEFFFFFF05000000060000000700000008000000
310
090000000A0000000B0000000C0000000D0000000E0000000F00000010000000
310
11000000120000001300000014000000150000001600000017000000FEFFFFFF
310
FFFFFFFFFFFFFFFFFFFFFFFFFFFFFFFFFFFFFFFFFFFFFFFFFFFFFFFFFFFFFFFF
310
FFFFFFFFFFFFFFFFFFFFFFFFFFFFFFFFFFFFFFFFFFFFFFFFFFFFFFFFFFFFFFFF
310
FFFFFFFFFFFFFFFFFFFFFFFFFFFFFFFFFFFFFFFFFFFFFFFFFFFFFFFFFFFFFFFF
310
FFFFFFFFFFFFFFFFFFFFFFFFFFFFFFFFFFFFFFFFFFFFFFFFFFFFFFFFFFFFFFFF
310
FFFFFFFFFFFFFFFFFFFFFFFFFFFFFFFFFFFFFFFFFFFFFFFFFFFFFFFFFFFFFFFF
310
FFFFFFFFFFFFFFFFFFFFFFFFFFFFFFFFFFFFFFFFFFFFFFFFFFFFFFFFFFFFFFFF
310
FFFFFFFFFFFFFFFFFFFFFFFFFFFFFFFFFFFFFFFFFFFFFFFFFFFFFFFFFFFFFFFF
310
FFFFFFFFFFFFFFFFFFFFFFFFFFFFFFFFFFFFFFFFFFFFFFFFFFFFFFFFFFFFFFFF
310
FFFFFFFFFFFFFFFFFFFFFFFFFFFFFFFFFFFFFFFFFFFFFFFFFFFFFFFFFFFFFFFF
310
FFFFFFFFFFFFFFFFFFFFFFFFFFFFFFFFFFFFFFFFFFFFFFFFFFFFFFFFFFFFFFFF
310
FFFFFFFFFFFFFFFFFFFFFFFFFFFFFFFFFFFFFFFFFFFFFFFFFFFFFFFFFFFFFFFF
310
FFFFFFFFFFFFFFFFFFFFFFFFFFFFFFFFFFFFFFFFFFFFFFFFFFFFFFFFFFFFFFFF
310
FFFFFFFFFFFFFFFFFFFFFFFFFFFFFFFFFFFFFFFFFFFFFFFFFFFFFFFFFFFFFFFF
310
52006F006F007400200045006E00740072007900000000000000000000000000
310
0000000000000000000000000000000000000000000000000000000000000000
310
16000500FFFFFFFFFFFFFFFF020000000A00030000000000C000000000000046
310
00000000000000000000000070085C459E23D20103000000C000000000000000
310
01004F006C006500000000000000000000000000000000000000000000000000
310
0000000000000000000000000000000000000000000000000000000000000000
310
0A000200FFFFFFFFFFFFFFFFFFFFFFFF00000000000000000000000000000000
310
0000000000000000000000000000000000000000000000001400000000000000
310
010043006F006D0070004F0062006A0000000000000000000000000000000000
310
0000000000000000000000000000000000000000000000000000000000000000
310
120002010100000003000000FFFFFFFF00000000000000000000000000000000
310
0000000000000000000000000000000000000000010000004D00000000000000
310
01004F006C006500310030004E00610074006900760065000000000000000000
310
0000000000000000000000000000000000000000000000000000000000000000
310
1A000200FFFFFFFFFFFFFFFFFFFFFFFF00000000000000000000000000000000
310
0000000000000000000000000000000000000000040000002426000000000000
310
FEFFFFFF02000000FEFFFFFFFFFFFFFFFFFFFFFFFFFFFFFFFFFFFFFFFFFFFFFF
310
FFFFFFFFFFFFFFFFFFFFFFFFFFFFFFFFFFFFFFFFFFFFFFFFFFFFFFFFFFFFFFFF
310
FFFFFFFFFFFFFFFFFFFFFFFFFFFFFFFFFFFFFFFFFFFFFFFFFFFFFFFFFFFFFFFF
310
FFFFFFFFFFFFFFFFFFFFFFFFFFFFFFFFFFFFFFFFFFFFFFFFFFFFFFFFFFFFFFFF
310
FFFFFFFFFFFFFFFFFFFFFFFFFFFFFFFFFFFFFFFFFFFFFFFFFFFFFFFFFFFFFFFF
310
FFFFFFFFFFFFFFFFFFFFFFFFFFFFFFFFFFFFFFFFFFFFFFFFFFFFFFFFFFFFFFFF
310
FFFFFFFFFFFFFFFFFFFFFFFFFFFFFFFFFFFFFFFFFFFFFFFFFFFFFFFFFFFFFFFF
310
FFFFFFFFFFFFFFFFFFFFFFFFFFFFFFFFFFFFFFFFFFFFFFFFFFFFFFFFFFFFFFFF
310
FFFFFFFFFFFFFFFFFFFFFFFFFFFFFFFFFFFFFFFFFFFFFFFFFFFFFFFFFFFFFFFF
310
FFFFFFFFFFFFFFFFFFFFFFFFFFFFFFFFFFFFFFFFFFFFFFFFFFFFFFFFFFFFFFFF
310
FFFFFFFFFFFFFFFFFFFFFFFFFFFFFFFFFFFFFFFFFFFFFFFFFFFFFFFFFFFFFFFF
310
FFFFFFFFFFFFFFFFFFFFFFFFFFFFFFFFFFFFFFFFFFFFFFFFFFFFFFFFFFFFFFFF
310
FFFFFFFFFFFFFFFFFFFFFFFFFFFFFFFFFFFFFFFFFFFFFFFFFFFFFFFFFFFFFFFF
310
FFFFFFFFFFFFFFFFFFFFFFFFFFFFFFFFFFFFFFFFFFFFFFFFFFFFFFFFFFFFFFFF
310
FFFFFFFFFFFFFFFFFFFFFFFFFFFFFFFFFFFFFFFFFFFFFFFFFFFFFFFFFFFFFFFF
310
FFFFFFFFFFFFFFFFFFFFFFFFFFFFFFFFFFFFFFFFFFFFFFFFFFFFFFFFFFFFFFFF
310
0100000200000000000000000000000000000000000000000000000000000000
310
0000000000000000000000000000000000000000000000000000000000000000
310
0100FEFF030A0000FFFFFFFF0A00030000000000C00000000000004607000000
310
5042727573680007000000504272757368000700000050427275736800F439B2
310
7100000000000000000000000000000000000000000000000000000000000000
310
0000000000000000000000000000000000000000000000000000000000000000
310
0000000000000000000000000000000000000000000000000000000000000000
310
0000000000000000000000000000000000000000000000000000000000000000
310
0000000000000000000000000000000000000000000000000000000000000000
310
0000000000000000000000000000000000000000000000000000000000000000
310
0000000000000000000000000000000000000000000000000000000000000000
310
0000000000000000000000000000000000000000000000000000000000000000
310
0000000000000000000000000000000000000000000000000000000000000000
310
0000000000000000000000000000000000000000000000000000000000000000
310
0000000000000000000000000000000000000000000000000000000000000000
310
0000000000000000000000000000000000000000000000000000000000000000
310
20260000424D0E260000000000003E00000028000000B40200006E0000000100
310
01000000000000000000130B0000130B00000200000002000000000000FFFFFF
310
FFFFFFFFFFFFFFFFFFFFFFFFFFFFFFFFFFFFFFFFFFFFFFFFFFFFFFFFFFFFFFFF
310
FFFFFFFFFFFFFFFFFFFFFFFFFFFFFFFFFFFFFFFFFFFFFFFFFFFFFFFFFFFFFFFF
310
FFFFFFFFFFFFFFFFFFFFFFFFFFFFFFFFFFFFFFFFFFFFFFFFF000FFFFFFFFFFFF
310
FFFFFFFFFFFFFFFFFFFFFFFFFFFFFFFFFFFFFFFFFFFFFFFFFFFFFFFFFFFFFFFF
310
FFFFFFFFFFFFFFFFFFFFFFFFFFFFFFFFFFFFFFFFFFFFFFFFFFFFFFFFFFFFFFFF
310
FFFFFFFFFFFFFFFFFFFFFFFFFFFFFFFFF000FFFFFFFFFFFFFFFFFFFFFFFFFFFF
310
FFFFFFFFFFFFFFFFFFFFFFFFFFFFFFFFFFFFFFFFFFFFFFFFFFFFFFFFFFFFFFFF
310
FFFFFFFFFFFFFFFFFFFFFFFFFFFFFFFFFFFFFFFFFFFFFFFFFFFFFFFFFFFFFFFF
310
FFFFFFFFFFFFFFFFF000FFFFFFFFFFFFFFFFFFFFFFFFFFFFFFFFFFFFFFFFFFFF
310
FFFFFFFFFFFFFFFFFFFFFFFFFFFFFFFFFFFFFFFFFFFFFFFFFFFFFFFFFFFFFFFF
310
FFFFFFFFFFFFFFFFFFFFFFFFFFFFFFFFFFFFFFFFFFFFFFFFFFFFFFFFFFFFFFFF
310
F000FFFFFFFFFFFFFFFFFFFFFFFFFFFFFFFFFFFFFFFFFFFFFFFFFFFFFFFFFFFF
310
FFFFFFFFFFFFFFFFFFFFFFFFFFFFFFFFFFFFFFFFFFFFFFFFFFFFFFFFFFFFFFFF
310
FFFFFFFFFFFFFFFFFFFFFFFFFFFFFFFFFFFFFFFFFFFFFFFFF000FFFFFFFFFFFF
310
FFFFFFFFFFFFFFFFFFFFFFFFFFFFFFFFFFFFFFFFFFFFFFFFFFFFFFFFFFFFFFFF
310
FFFFFFFFFFFFFFFFFFFFFFFFFFFFFFFFFFFFFFFFFFFFFFFFFFFFFFFFFFFFFFFF
310
FFFFFFFFFFFFFFFFFFFFFFFFFFFFFFFFF000FFFFFFFFFFFFFFFFFFFFFFFFFFFF
310
FFFFFFFFFFFFFFFFFFFFFFFFFFFFFFFFFFFFFFFFFFFFFFFFFFFFFFFFFFFFFFFF
310
FFFFFFFFFFFFFFFFFFFFFFFFFFFFFFFFFFFFFFFFFFFFFFFFFFFFFFFFFFFFFFFF
310
FFFFFFFFFFFFFFFFF000FFFFFFFFFFFFFFFFFFFFFFFFFFFFFFFFFFFFFFFFFFFF
310
FFFFFFFFFFFFFFFFFFFFFFFFFFFFFFFFFFFFFFFFFFFFFFFFFFFFFFFFFFFFFFFF
310
FFFFFFFFFFFFFFFFFFFFFFFFFFFFFFFFFFFFFFFFFFFFFFFFFFFFFFFFFFFFFFFF
310
F000FFFFFFFFFFFFFFFFFFFFFFFFFFFFFFFFFFFFFFFFFFFFFFFFFFFFFFFFFFFF
310
FFFFFFFFFFFFFFFFFFFFFFFFFFFFFFFFFFFFFFFFFFFFFFFFFFFFFFFFFFFFFFFF
310
FFFFFFFFFFFFFFFFFFFFFFFFFFFFFFFFFFFFFFFFFFFFFFFFF000FFFFFFFFFFFF
310
FFFFFFFFFFFFFFFFFFFFFFFFFFFFFFFFFFFFFFFFFFFFFFFFFFFFFFFFFFFFFFFF
310
FFFFFFFFFFFFFFFFFFFFFFFFFFFFFFFFFFFFFFFFFFFFFFFFFFFFFFFFFFFFFFFF
310
FFFFFFFFFFFFFFFFFFFFFFFFFFFFFFFFF000FFFFFFFFFFFFFFFFFFFFFFFFFFFF
310
FFFFFFFFFFFFFFFFFFFFFFFFFFFFFFFFFFFFFFFFFFFFFFFFFFFFFFFFFFFFFFFF
310
FFFFFFFFFFFFFFFFFFFFFFFFFFFFFFFFFFFFFFFFFFFFFFFFFFFFFFFFFFFFFFFF
310
FFFFFFFFFFFFFFFFF000FFFFFFFFFFFFFFFFFFFFFFFFFFFFFFFFFFFFFFFFFFFF
310
FFFFFFFFFFFFFFFFFFFFFFFFFFFFFFFFFFFFFFFFFFFFFFFFFFFFFFFFFFFFFFFF
310
FFFFFFFFFFFFFFFFFFFFFFFFFFFFFFFFFFFFFFFFFFFFFFFFFFFFFFFFFFFFFFFF
310
F000FFFFFFFFFFFFFFFFFFFFFFFFFFFFFFFFFFFFFFFFFFFFFFFFFFFFFFFFFFFF
310
FFFFFFFFFFFFFFFFFFFFFFFFFFFFFFFFFFFFFFFFFFFFFFFFFFFFFFFFFFFFFFFF
310
FFFFFFFFFFFFFFFFFFFFFFFFFFFFFFFFFFFFFFFFFFFFFFFFF000FFFFFFFFFFFF
310
FFFFFFFFFFFFFFFFFFFFFFFFFFFFFFFFFFFFFFFFFFFFFFFFFFFFFFFFFFFFFFFF
310
FFFFFFFFFFFFFFFFFFFFFFFFFFFFFFFFFFFFFFFFFFFFFFFFFFFFFFFFFFFFFFFF
310
FFFFFFFFFFFFFFFFFFFFFFFFFFFFFFFFF000FFFFFFFFFFFFFFFFFFFFFFFFFFFF
310
FFFFFFFFFFFFFFFFFFFFFFFFFFFFFFFFFFFFFFFFFFFFFFFFFFFFFFFFFFFFFFFF
310
FFFFFFFFFFFFFFFFFFFFFFFFFFFFFFFFFFFFFFFFFFFFFFFFFFFFFFFFFFFFFFFF
310
FFFFFFFFFFFFFFFFF000FFFFFFFFFFFFFFFFFFFFFFFFFFFFFFFFFFFFFFFFFFFF
310
FFFFFFFFFFFFFFFFFFFFFFFFFFFFFFFFFFFFFFFFFFFFFFFFFFFFFFFFFFFFFFFF
310
FFFFFFFFFFFFFFFFFFFFFFFFFFFFFFFFFFFFFFFFFFFFFFFFFFFFFFFFFFFFFFFF
310
F000FFFFFFFFFFFFFFFFFFFFFFFFFFFFFFFFFFFFFFFFFFFFFFFFFFFFFFFFFFFF
310
FFFFFFFFFFFFFFFFFFFFFFFFFFFFFFFFFFFFFFFFFFFFFFFFFFFFFFFFFFFFFFFF
310
FFFFFFFFFFFFFFFFFFFFFFFFFFFFFFFFFFFFFFFFFFFFFFFFF000FFFFFFFFFFFF
310
FFFFFFFFFFFFFFFFFFFFFFFFFFFFFFFFFFFFFFFFFFFFFFFFFFFFFFFFFFFFFFFF
310
FFFFFFFFFFFFFFFFFFFFFFFFFFFFFFFFFFFFFFFFFFFFFFFFFFFFFFFFFFFFFFFF
310
FFFFFFFFFFFFFFFFFFFFFFFFFFFFFFFFF000FFFFFFFFFFFFFFFFFFFFFFFFFFFF
310
FFFFFFFFFFFFFFFFFFFFFFFFFFFFFFFFFFFFFFFFFFFFFFFFFFFFFFFFFFFFFFFF
310
FFFFFFFFFFFFFFFFFFFFFFFFFFFFFFFFFFFFFFFFFFFFFFFFFFFFFFFFFFFFFFFF
310
FFFFFFFFFFFFFFFFF000FFFFF80003FFFFFFFFFFFFFFFFFFFFFFFFFFFFFFFFFF
310
FFFFF00007FFFFFFFFFF00007FFFFFF800000000000000007FFFFFFFFFFFFFFF
310
FFFFFFFC001FFFFFFFFFFFFFFC001FFFFFFFFFFFFFFFFFFFFFFFFFFE0007FFFF
310
F000FFFF8000007FFFFFFFF8000FFFFFC0007FFFFF80007FFFFF0000007FFFFF
310
FFF8000007FFFFF800000000000000007FFFFFF0001FFFFFFFFFFFC00001FFFF
310
FFFFFFFFC00001FFFFFFFF000000000003FFFFE000007FFFF000FFFE0000000F
310
FFFFFFF0000FFFFF80007FFFFF80007FFFFC0000001FFFFFFFC0000001FFFFF8
310
00000000000000007FFFFFF0001FFFFFFFFFFE0000003FFFFFFFFFFE0000003F
310
FFFFFF000000000003FFFF0000000FFFF000FFF800000003FFFFFFF00007FFFF
310
80007FFFFF80007FFFF000000007FFFFFF000000003FFFF80000000000000000
310
7FFFFFF0001FFFFFFFFFF80000000FFFFFFFFFF80000000FFFFFFF0000000000
310
03FFFC00000003FFF000FFE000000000FFFFFFF00007FFFF80003FFFFF80007F
310
FFC000000001FFFFFC000000001FFFF800000000000000007FFFFFF0001FFFFF
310
FFFFE000000003FFFFFFFFE000000003FFFFFF000000000003FFF000000000FF
310
F000FF80000000007FFFFFF00007FFFF80003FFFFF80007FFF8000000000FFFF
310
F80000000007FFF800000000000000007FFFFFF0001FFFFFFFFFC000000001FF
310
FFFFFFC000000001FFFFFF000000000003FFC0000000007FF000FF0000000000
310
3FFFFFE00007FFFF00003FFFFF80007FFE00000000003FFFF00000000003FFF8
310
00000000000000007FFFFFF0001FFFFFFFFF8000000000FFFFFFFF8000000000
310
FFFFFF000000000003FF80000000003FF000FE00000000001FFFFFE00003FFFF
310
00003FFFFF80007FFC00000000001FFFE00000000001FFF8000001FFFE000000
310
7FFFFFF0001FFFFFFFFE00000000003FFFFFFE00000000003FFFFF0000000000
310
03FF00000000001FF000FC00000000000FFFFFE00003FFFF00001FFFFF80007F
310
F800000000001FFFC00000000000FFF8000001FFFE0000007FFFFFF0001FFFFF
310
FFFC00000000001FFFFFFC00000000001FFFFF000000000003FE00000000000F
310
F000F8000000000007FFFFE00003FFFF00001FFFFF80007FF800000000000FFF
310
800000000000FFF8000001FFFE0000007FFFFFF0001FFFFFFFF800000000000F
310
FFFFF800000000000FFFFF000000000003FC000000000007F000F80000000000
310
03FFFFC00003FFFE00001FFFFF80007FF0000000000007FF0000000000007FF8
310
000001FFFE0000007FFFFFF0001FFFFFFFF0000000000007FFFFF00000000000
310
07FFFF000000000003F8000000000003F000F0000000000003FFFFC00001FFFE
310
00001FFFFF80007FE0000000000007FE0000000000003FF8000001FFFE000000
310
7FFFFFF0001FFFFFFFF0000000000007FFFFF0000000000007FFFF0000000000
310
03F800001F800003F000E00001FFF00001FFFFC00001FFFE00000FFFFF80007F
310
E00001FFE00003FE00001FFF00003FF8000001FFFE0000007FFFFFF0001FFFFF
310
FFE000003E000003FFFFE000003E000003FFFF000000000003F00001FFF80001
310
F000E00007FFFC0001FFFFC00001FFFE00000FFFFF80007FC0000FFFFC0003FC
310
0000FFFFC0001FF8000001FFFE0000007FFFFFF0001FFFFFFFC00003FFE00001
310
FFFFC00003FFE00001FFFF0001FFFFFFFFF00007FFFE0001F000E0000FFFFF00
310
00FFFF800001FFFC00000FFFFF80007FC0001FFFFE0001FC0001FFFFE0001FF8
310
000001FFFE0000007FFFFFF0001FFFFFFF80000FFFF80000FFFF80000FFFF800
310
00FFFF0003FFFFFFFFE0000FFFFF8000F000C0003FFFFF8000FFFF800000FFFC
310
000007FFFF80007F80003FFFFF0001FC0003FFFFF0001FF8000001FFFE000000
310
7FFFFFF0001FFFFFFF80003FFFFE0000FFFF80003FFFFE0000FFFF0003FFFFFF
310
FFE0003FFFFF8000F000C0003FFFFF8000FFFF800000FFFC000007FFFF80007F
310
80007FFFFF8001F80007FFFFF8000FF8000001FFFE0000007FFFFFF0001FFFFF
310
FF00007FFFFF00007FFF00007FFFFF00007FFF0003FFFFFFFFE0003FFFFFC000
310
F000C0007FFFFFC000FFFF000000FFFC000007FFFF80007F8000FFFFFF8000F8
310
000FFFFFF8000FF8000001FFFE0000007FFFFFF0001FFFFFFF0000FFFFFF8000
310
7FFF0000FFFFFF80007FFF0003FFFFFFFFC0007FFFFFC00070008000FFFFFFC0
310
00FFFF000000FFF8000007FFFF80007F8000FFFFFF8000F8000FFFFFF8000FF8
310
000001FFFE0000007FFFFFF0001FFFFFFE0001FFFFFFC0003FFE0001FFFFFFC0
310
003FFF0003FFFFFFFFC0007FFFFFE00070008000FFFFFFC0007FFF0000007FF8
310
000003FFFF80007F0001FFFFFF8000F8000FFFFFF8000FF8000001FFFE000000
310
7FFFFFF0001FFFFFFE0001FFFFFFC0003FFE0001FFFFFFC0003FFF0003FFFFFF
310
FFC000FFFFFFE00070008000FFFFFFC0007FFF0000007FF8000003FFFF80007F
310
0001FFFFFF8000F8001FFFFFF8000FF8000001FFFE0000007FFFFFF0001FFFFF
310
FE0003FFFFFFE0003FFE0003FFFFFFE0003FFF0003FFFFFFFFC000FFFFFFE000
310
70008000FFFFFFC0007FFE0000007FF8000003FFFF80007F0001FFFFFF8000F0
310
001FFFFFF8000FF8000001FFFE0000007FFFFFF0001FFFFFFC0003FFFFFFE000
310
1FFC0003FFFFFFE0001FFF0003FFFFFFFFC000FFFFFFC00070008000FFFFFF80
310
007FFE0000007FF0000003FFFF80007F0001FFFFFF0000F0001FFFFFF8000FF8
310
000001FFFE0000007FFFFFF0001FFFFFFC0007FFFFFFF0001FFC0007FFFFFFF0
310
001FFF0003FFFFFFFFC000FFFFFFC00070008001FFFFFF0000FFFE0000003FF0
310
000001FFFF80007F0001FFFFFF0000F8001FFFFFF0000FF8000001FFFE000000
310
7FFFFFF0001FFFFFFC0007FFFFFFF0001FFC0007FFFFFFF0001FFF0003FFFFFF
310
FFC001FFFFFF80007000FFFFFFFFFE0000FFFE0008003FF0008001FFFF80007F
310
FFFFFFFFFC0000FFFFFFFFFFE0000FF8000001FFFE0000007FFFFFF0001FFFFF
310
F8000FFFFFFFF8000FF8000FFFFFFFF8000FFF0003FFFFFFFFFFFFFFFFFF0000
310
7000FFFFFFFFFC0000FFFC0008003FF0008001FFFF80007FFFFFFFFFF80001FF
310
FFFFFFFF80000FF8000001FFFE0000007FFFFFF0001FFFFFF8000FFFFFFFF800
310
0FF8000FFFFFFFF8000FFF0003FFFFFFFFFFFFFFFFFE0000F000FFFFFFFFE000
310
00FFFC000C003FE000C001FFFF80007FFFFFFFFFC00001FFFFFFFFFE00001FF8
310
000001FFFE0000007FFFFFF0001FFFFFF8000FFFFFFFF8000FF8000FFFFFFFF8
310
000FFF0003FFFFFFFFFFFFFFFFF00000F000FFFFFFFE000001FFFC000C001FE0
310
00C000FFFF80007FFFFFFFFE000001FFFFFFFFE000001FF80FFFFFFFFFFFFFC0
310
7FFFFFF0001FFFFFF8000FFFFFFFF8000FF8000FFFFFFFF8000FFF0003FFFFFF
310
FFFFFFFFFF800000F000FFFFFFC0000001FFFC001C001FE001C000FFFF80007F
310
FFFFFF80000003FFFFFFF80000001FF80FFFFFFFFFFFFFC07FFFFFF0001FFFFF
310
F8001FFFFFFFFC000FF8001FFFFFFFFC000FFF0003FFFFFFFFFFFFFFF0000001
310
F000FFFFF800000001FFF8001C001FE001C000FFFF80007FFFFFF800000003FF
310
FFFF800000003FF80FFFFFFFFFFFFFC07FFFFFF0001FFFFFF8001FFFFFFFFC00
310
0FF8001FFFFFFFFC000FFF0003FFFFFFFFFFFFFE00000001F000FFFFC0000000
310
03FFF8001E001FC001E000FFFF80007FFFFF8000000007FFFFFC000000003FF8
310
0FFFFFFFFFFFFFC07FFFFFF0001FFFFFF8001FFFFFFFFC000FF8001FFFFFFFFC
310
000FFF0003FFFFFFFFFFFFE000000003F000FFFE0000000007FFF8001E000FC0
310
01E0007FFF80007FFFFE0000000007FFFFE0000000007FF80FFFFFFFFFFFFFC0
310
7FFFFFF0001FFFFFF0001FFFFFFFFC0007F0001FFFFFFFFC0007FF0003FFFFFF
310
FFFFFF0000000003F000FFF80000000007FFF8001E000FC003E0007FFF80007F
310
FFF0000000000FFFFF8000000000FFF80FFFFFFFFFFFFFC07FFFFFF0001FFFFF
310
F0001FFFFFFFFC0007F0001FFFFFFFFC0007FF0003FFFFFFFFFFFC0000000007
310
F000FFE0000000000FFFF0003E000FC003E0007FFF80007FFFC0000000001FFF
310
FE0000000001FFF80FFFFFFFFFFFFFC07FFFFFF0001FFFFFF0001FFFFFFFFC00
310
07F0001FFFFFFFFC0007FF0003FFFFFFFFFFF0000000000FF000FFC000000000
310
1FFFF0003F000F8003F0003FFF80007FFF80000000003FFFF80000000003FFF8
310
0FFFFFFFFFFFFFC07FFFFFF0001FFFFFF0001FFFFFFFFC0007F0001FFFFFFFFC
310
0007FF0003FFFFFFFFFFE0000000001FF000FF00000000007FFFF0003F000780
310
03F0003FFF80007FFF00000000007FFFF00000000007FFF80FFFFFFFFFFFFFC0
310
7FFFFFF0001FFFFFF0001FFFFFFFFC0007F0001FFFFFFFFC0007FF0003FFFFFF
310
FFFF80000000007FF000FE0000000000FFFFE0003F00078007F0003FFF80007F
310
FE0000000001FFFFE0000000001FFFF80FFFFFFFFFFFFFC07FFFFFF0001FFFFF
310
F0001FFFFFFFFC0007F0001FFFFFFFFC0007FF0003FFFFFFFFFF0000000000FF
310
F000FC0000000003FFFFE0007F00078007F0003FFF80007FFC0000000007FFFF
310
C0000000007FFFF80FFFFFFFFFFFFFC07FFFFFF0001FFFFFF8001FFFFFFFFC00
310
0FF8001FFFFFFFFC000FFF0003FFFFFFFFFE0000000003FFF000FC000000000F
310
FFFFE0007F80070007F8001FFF80007FF8000000001FFFFF8000000001FFFFF8
310
0FFFFFFFFFFFFFC07FFFFFF0001FFFFFF8001FFFFFFFFC000FF8001FFFFFFFFC
310
000FFF0003FFFFFFFFFC000000000FFFF000F8000000007FFFFFE0007F800700
310
07F8001FFF80007FF000000000FFFFFF800000000FFFFFF80FFFFFFFFFFFFFC0
310
7FFFFFF0001FFFFFF8000FFFFFFFF8000FF8000FFFFFFFF8000FFF0003FFFFFF
310
FFFC000000007FFFF000F800000007FFFFFFC0007F8003000FF8001FFF80007F
310
F000000007FFFFFF000000007FFFFFF80FFFFFFFFFFFFFC07FFFFFF0001FFFFF
310
F8000FFFFFFFF8000FF8000FFFFFFFF8000FFF0003FFFFFFFFF80000000FFFFF
310
F000F0000000FFFFFFFFC000FF8003000FF8001FFF80007FE0000000FFFFFFFF
310
0000000FFFFFFFF8000001FFFE0000007FFFFFF0001FFFFFF8000FFFFFFFF800
310
0FF8000FFFFFFFF8000FFF0003FFFFFFFFF8000000FFFFFFF000F000000FFFFF
310
FFFFC000FFC002000FF8000FFF80007FE000001FFFFFFFFE000001FFFFFFFFF8
310
000001FFFE0000007FFFFFF0001FFFFFF8000FFFFFFFF8000FF8000FFFFFFFF8
310
000FFF0003FFFFFFFFF000001FFFFFFFF000E00000FFFFFFFFFFC000FFC00200
310
0FFC000FFF80007FE00001FFFFFFFFFE00001FFFFFFFFFF8000001FFFE000000
310
7FFFFFF0001FFFFFFC000FFFFFFFF8001FFC000FFFFFFFF8001FFF0003FFFFFF
310
FFF00001FFFFFFFFF000E00007FFFFFFFFFF8000FFC000001FFC000FFF80007F
310
C0000FFFFFFFFFFE0000FFFFFFFFFFF8000001FFFE0000007FFFFFF0001FFFFF
310
FC0007FFFFFFF0001FFC0007FFFFFFF0001FFF0003FFFFFFFFF00007FFFFFFFF
310
F000E0001FFFFFFFFFFF8000FFC000001FFC000FFF80007FC0003FFFFFFFFFFE
310
0001FFFFFFFFFFF8000001FFFE0000007FFFFFF0001FFFFFFC0007FFFFFFF000
310
1FFC0007FFFFFFF0001FFF0003FFFFFFFFF0001FFFFFFFFFF000E0003FFFFF00
310
03FF8001FFE000001FFC0007FF80007FC0007FFFFF0007FC0003FFFFF0003FF8
310
000001FFFE0000007FFFFFF0001FFFFFFC0003FFFFFFE0001FFC0003FFFFFFE0
310
001FFF0003FFFFFFFFF0003FFFFFFFFFF000E0003FFFFF0001FF8001FFE00000
310
1FFE0007FF80007FC0007FFFFE0003FC0007FFFFE0003FF8000001FFFE000000
310
7FFFFFF0001FFFFFFE0003FFFFFFE0003FFE0003FFFFFFE0003FFF0003FFFFFF
310
FFF0003FFFFF8001F000E0003FFFFF0001FF0001FFE000001FFE0007FF80007F
310
C0007FFFFE0003FC0007FFFFE0003FF8000001FFFE0000007FFFFFF0001FFFFF
310
FE0001FFFFFFC0003FFE0001FFFFFFC0003FFF0003FFFFFFFFF0003FFFFF0001
310
F000E0003FFFFF0003FF0001FFE000003FFE0007FF80007FC0007FFFFE0003FC
310
0007FFFFE0003FF8000001FFFE0000007FFFFFF0001FFFFFFF0001FFFFFFC000
310
7FFF0001FFFFFFC0007FFF0003FFFFFFFFF0003FFFFF0001F000E0003FFFFE00
310
03FF0003FFF000003FFE0003FF80007FC0007FFFFC0003FE0007FFFFE0003FF8
310
000001FFFE0000007FFFFFF0001FFFFFFF0000FFFFFF80007FFF0000FFFFFF80
310
007FFF0003FFFFFFFFF0003FFFFF0001F000E0003FFFFE0003FF0003FFF00000
310
3FFF0003FF80007FC0007FFFFC0007FE0007FFFFC0003FF8000001FFFE000000
310
7FFFFFF0001FFFFFFF80007FFFFF0000FFFF80007FFFFF0000FFFF0003FFFFFF
310
FFF0003FFFFF0003F000E0003FFFFC0003FE0003FFF000003FFF0003FF80007F
310
E0003FFFF80007FE0003FFFFC0007FF8000001FFFE0000007FFFFFF0001FFFFF
310
FF80003FFFFE0000FFFF80003FFFFE0000FFFF0003FFFFFFFFF0001FFFFE0003
310
F000F0001FFFF80003FE0003FFF000007FFF0001FF80007FE0003FFFF00007FE
310
0001FFFF80007FF8000001FFFE0000007FFFFFF0001FFFFFFFC0000FFFF80001
310
FFFFC0000FFFF80001FFFF0003FFFFFFFFF0001FFFFC0003F000F0000FFFF000
310
07FE0007FFF800007FFF0001FF80007FE0001FFFE00007FF0000FFFE00007FF8
310
000001FFFE0000007FFFFFF0001FFFFFFFC00003FFE00001FFFFC00003FFE000
310
01FFFF0003FFFFFFFFF8000FFFF80003F000F00003FFC00007FC0007FFF80000
310
7FFF8001FF80007FF00007FF80000FFF00007FF80000FFF8000001FFFE000000
310
7F80000000000001FFE000003E000003FFFFE000003E000003FFFF0003FFFFFF
310
FFF80003FFE00007F000F800000000000FFC0007FFF800007FFF8001FF80007F
310
F000000000000FFF000000000000FFF8000001FFFE0000007F80000000000001
310
FFF0000000000007FFFFF0000000000007FFFF0003FFFFFFFFFC00007E000007
310
F000F800000000000FFC0007FFF80000FFFF8000FF80007FF800000000001FFF
310
800000000001FFF8000001FFFE0000007F80000000000001FFF800000000000F
310
FFFFF800000000000FFFFF0003FFFFFFFFFC00000000000FF000FC0000000000
310
1FFC0007FFFC0000FFFF8000FF80007FF800000000003FFFC00000000001FFF8
310
000001FFFE0000007F80000000000001FFF800000000000FFFFFF80000000000
310
0FFFFF0003FFFFFFFFFE00000000001FF000FE00000000003FF8000FFFFC0000
310
FFFF8000FF80007FFC00000000003FFFC00000000003FFF8000001FFFE000000
310
7F80000000000001FFFC00000000001FFFFFFC00000000001FFFFF0003FFFFFF
310
FFFF00000000001FF000FF00000000003FF8000FFFFC0000FFFFC000FF80007F
310
FE00000000007FFFE00000000007FFF8000001FFFE0000007F80000000000001
310
FFFE00000000003FFFFFFE00000000003FFFFF0003FFFFFFFFFF80000000003F
310
F000FF80000000007FF8000FFFFC0001FFFFC0007F80007FFF0000000000FFFF
310
F0000000000FFFF800000000000000007F80000000000001FFFF8000000000FF
310
FFFFFF8000000000FFFFFF0003FFFFFFFFFFC0000000007FF000FFC000000000
310
FFF8000FFFFE0001FFFFC0007F80007FFF8000000001FFFFF8000000001FFFF8
310
00000000000000007F80000000000001FFFFC000000001FFFFFFFFC000000001
310
FFFFFF0003FFFFFFFFFFE000000000FFF000FFE000000003FFF0001FFFFE0001
310
FFFFC0007F80007FFFC000000007FFFFFE000000003FFFF80000000000000000
310
7F80000000000001FFFFE000000003FFFFFFFFE000000003FFFFFF0003FFFFFF
310
FFFFF000000003FFF000FFF80000000FFFF0001FFFFE0001FFFFE0007F80007F
310
FFF00000000FFFFFFF00000000FFFFF800000000000000007F80000000000001
310
FFFFF80000000FFFFFFFFFF80000000FFFFFFF0003FFFFFFFFFFFC0000000FFF
310
F000FFFE0000003FFFF0001FFFFE0003FFFFE0003F80007FFFFC0000003FFFFF
310
FFC0000003FFFFF800000000000000007F80000000000001FFFFFE0000003FFF
310
FFFFFFFE0000003FFFFFFF0003FFFFFFFFFFFF0000003FFFF000FFFF800000FF
310
FFF0001FFFFF0003FFFFE0003F80007FFFFF000001FFFFFFFFF800001FFFFFF8
310
00000000000000007F80000000000001FFFFFFC00001FFFFFFFFFFFFC00001FF
310
FFFFFF0003FFFFFFFFFFFFC00000FFFFF000FFFFF8000FFFFFFFFFFFFFFFFFFF
310
FFFFFFFFFFFFFFFFFFFFF0001FFFFFFFFFFF0000FFFFFFF80000000000000000
310
7FFFFFFFFFFFFFFFFFFFFFFC001FFFFFFFFFFFFFFC001FFFFFFFFFFFFFFFFFFF
310
FFFFFFFC001FFFFFF000FFFFFFFFFFFFFFFFFFFFFFFFFFFFFFFFFFFFFFFFFFFF
310
FFFFFFFFFFFFFFFFFFFFFFFFFFFFFFFFFFFFFFFFFFFFFFFFFFFFFFFFFFFFFFFF
310
FFFFFFFFFFFFFFFFFFFFFFFFFFFFFFFFFFFFFFFFFFFFFFFFFFFFFFFFFFFFFFFF
310
F000FFFFFFFFFFFFFFFFFFFFFFFFFFFFFFFFFFFFFFFFFFFFFFFFFFFFFFFFFFFF
310
FFFFFFFFFFFFFFFFFFFFFFFFFFFFFFFFFFFFFFFFFFFFFFFFFFFFFFFFFFFFFFFF
310
FFFFFFFFFFFFFFFFFFFFFFFFFFFFFFFFFFFFFFFFFFFFFFFFF000FFFFFFFFFFFF
310
FFFFFFFFFFFFFFFFFFFFFFFFFFFFFFFFFFFFFFFFFFFFFFFFFFFFFFFFFFFFFFFF
310
FFFFFFFFFFFFFFFFFFFFFFFFFFFFFFFFFFFFFFFFFFFFFFFFFFFFFFFFFFFFFFFF
310
FFFFFFFFFFFFFFFFFFFFFFFFFFFFFFFFF000FFFFFFFFFFFFFFFFFFFFFFFFFFFF
310
FFFFFFFFFFFFFFFFFFFFFFFFFFFFFFFFFFFFFFFFFFFFFFFFFFFFFFFFFFFFFFFF
310
FFFFFFFFFFFFFFFFFFFFFFFFFFFFFFFFFFFFFFFFFFFFFFFFFFFFFFFFFFFFFFFF
310
FFFFFFFFFFFFFFFFF000FFFFFFFFFFFFFFFFFFFFFFFFFFFFFFFFFFFFFFFFFFFF
310
FFFFFFFFFFFFFFFFFFFFFFFFFFFFFFFFFFFFFFFFFFFFFFFFFFFFFFFFFFFFFFFF
310
FFFFFFFFFFFFFFFFFFFFFFFFFFFFFFFFFFFFFFFFFFFFFFFFFFFFFFFFFFFFFFFF
310
F000FFFFFFFFFFFFFFFFFFFFFFFFFFFFFFFFFFFFFFFFFFFFFFFFFFFFFFFFFFFF
310
FFFFFFFFFFFFFFFFFFFFFFFFFFFFFFFFFFFFFFFFFFFFFFFFFFFFFFFFFFFFFFFF
310
FFFFFFFFFFFFFFFFFFFFFFFFFFFFFFFFFFFFFFFFFFFFFFFFF000FFFFFFFFFFFF
310
FFFFFFFFFFFFFFFFFFFFFFFFFFFFFFFFFFFFFFFFFFFFFFFFFFFFFFFFFFFFFFFF
310
FFFFFFFFFFFFFFFFFFFFFFFFFFFFFFFFFFFFFFFFFFFFFFFFFFFFFFFFFFFFFFFF
310
FFFFFFFFFFFFFFFFFFFFFFFFFFFFFFFFF000FFFFFFFFFFFFFFFFFFFFFFFFFFFF
310
FFFFFFFFFFFFFFFFFFFFFFFFFFFFFFFFFFFFFFFFFFFFFFFFFFFFFFFFFFFFFFFF
310
FFFFFFFFFFFFFFFFFFFFFFFFFFFFFFFFFFFFFFFFFFFFFFFFFFFFFFFFFFFFFFFF
310
FFFFFFFFFFFFFFFFF000FFFFFFFFFFFFFFFFFFFFFFFFFFFFFFFFFFFFFFFFFFFF
310
FFFFFFFFFFFFFFFFFFFFFFFFFFFFFFFFFFFFFFFFFFFFFFFFFFFFFFFFFFFFFFFF
310
FFFFFFFFFFFFFFFFFFFFFFFFFFFFFFFFFFFFFFFFFFFFFFFFFFFFFFFFFFFFFFFF
310
F000FFFFFFFFFFFFFFFFFFFFFFFFFFFFFFFFFFFFFFFFFFFFFFFFFFFFFFFFFFFF
310
FFFFFFFFFFFFFFFFFFFFFFFFFFFFFFFFFFFFFFFFFFFFFFFFFFFFFFFFFFFFFFFF
310
FFFFFFFFFFFFFFFFFFFFFFFFFFFFFFFFFFFFFFFFFFFFFFFFF000FFFFFFFFFFFF
310
FFFFFFFFFFFFFFFFFFFFFFFFFFFFFFFFFFFFFFFFFFFFFFFFFFFFFFFFFFFFFFFF
310
FFFFFFFFFFFFFFFFFFFFFFFFFFFFFFFFFFFFFFFFFFFFFFFFFFFFFFFFFFFFFFFF
310
FFFFFFFFFFFFFFFFFFFFFFFFFFFFFFFFF000FFFFFFFFFFFFFFFFFFFFFFFFFFFF
310
FFFFFFFFFFFFFFFFFFFFFFFFFFFFFFFFFFFFFFFFFFFFFFFFFFFFFFFFFFFFFFFF
310
FFFFFFFFFFFFFFFFFFFFFFFFFFFFFFFFFFFFFFFFFFFFFFFFFFFFFFFFFFFFFFFF
310
FFFFFFFFFFFFFFFFF000FFFFFFFFFFFFFFFFFFFFFFFFFFFFFFFFFFFFFFFFFFFF
310
FFFFFFFFFFFFFFFFFFFFFFFFFFFFFFFFFFFFFFFFFFFFFFFFFFFFFFFFFFFFFFFF
310
FFFFFFFFFFFFFFFFFFFFFFFFFFFFFFFFFFFFFFFFFFFFFFFFFFFFFFFFFFFFFFFF
310
F000FFFFFFFFFFFFFFFFFFFFFFFFFFFFFFFFFFFFFFFFFFFFFFFFFFFFFFFFFFFF
310
FFFFFFFFFFFFFFFFFFFFFFFFFFFFFFFFFFFFFFFFFFFFFFFFFFFFFFFFFFFFFFFF
310
FFFFFFFFFFFFFFFFFFFFFFFFFFFFFFFFFFFFFFFFFFFFFFFFF000FFFFFFFFFFFF
310
FFFFFFFFFFFFFFFFFFFFFFFFFFFFFFFFFFFFFFFFFFFFFFFFFFFFFFFFFFFFFFFF
310
FFFFFFFFFFFFFFFFFFFFFFFFFFFFFFFFFFFFFFFFFFFFFFFFFFFFFFFFFFFFFFFF
310
FFFFFFFFFFFFFFFFFFFFFFFFFFFFFFFFF000FFFFFFFFFFFFFFFFFFFFFFFFFFFF
310
FFFFFFFFFFFFFFFFFFFFFFFFFFFFFFFFFFFFFFFFFFFFFFFFFFFFFFFFFFFFFFFF
310
FFFFFFFFFFFFFFFFFFFFFFFFFFFFFFFFFFFFFFFFFFFFFFFFFFFFFFFFFFFFFFFF
310
FFFFFFFFFFFFFFFFF000FFFFFFFFFFFFFFFFFFFFFFFFFFFFFFFFFFFFFFFFFFFF
310
FFFFFFFFFFFFFFFFFFFFFFFFFFFFFFFFFFFFFFFFFFFFFFFFFFFFFFFFFFFFFFFF
310
FFFFFFFFFFFFFFFFFFFFFFFFFFFFFFFFFFFFFFFFFFFFFFFFFFFFFFFFFFFFFFFF
310
F000FFFFFFFFFFFFFFFFFFFFFFFFFFFFFFFFFFFFFFFFFFFFFFFFFFFFFFFFFFFF
310
FFFFFFFFFFFFFFFFFFFFFFFFFFFFFFFFFFFFFFFFFFFFFFFFFFFFFFFFFFFFFFFF
310
FFFFFFFFFFFFFFFFFFFFFFFFFFFFFFFFFFFFFFFFFFFFFFFFF000FFFFFFFFFFFF
310
FFFFFFFFFFFFFFFFFFFFFFFFFFFFFFFFFFFFFFFFFFFFFFFFFFFFFFFFFFFFFFFF
310
FFFFFFFFFFFFFFFFFFFFFFFFFFFFFFFFFFFFFFFFFFFFFFFFFFFFFFFFFFFFFFFF
310
FFFFFFFFFFFFFFFFFFFFFFFFFFFFFFFFF000FFFFFFFFFFFFFFFFFFFFFFFFFFFF
310
FFFFFFFFFFFFFFFFFFFFFFFFFFFFFFFFFFFFFFFFFFFFFFFFFFFFFFFFFFFFFFFF
310
FFFFFFFFFFFFFFFFFFFFFFFFFFFFFFFFFFFFFFFFFFFFFFFFFFFFFFFFFFFFFFFF
310
FFFFFFFFFFFFFFFFF000FFFFFFFFFFFFFFFFFFFFFFFFFFFFFFFFFFFFFFFFFFFF
310
FFFFFFFFFFFFFFFFFFFFFFFFFFFFFFFFFFFFFFFFFFFFFFFFFFFFFFFFFFFFFFFF
310
FFFFFFFFFFFFFFFFFFFFFFFFFFFFFFFFFFFFFFFFFFFFFFFFFFFFFFFFFFFFFFFF
310
F000FFFFFFFFFFFFFFFFFFFFFFFFFFFFFFFFFFFFFFFFFFFFFFFFFFFFFFFFFFFF
310
FFFFFFFFFFFFFFFFFFFFFFFFFFFFFFFFFFFFFFFFFFFFFFFFFFFFFFFFFFFFFFFF
310
FFFFFFFFFFFFFFFFFFFFFFFFFFFFFFFFFFFFFFFFFFFFFFFFF000FFFFFFFFFFFF
310
FFFFFFFFFFFFFFFFFFFFFFFFFFFFFFFFFFFFFFFFFFFFFFFFFFFFFFFFFFFFFFFF
310
FFFFFFFFFFFFFFFFFFFFFFFFFFFFFFFFFFFFFFFFFFFFFFFFFFFFFFFFFFFFFFFF
310
FFFFFFFFFFFFFFFFFFFFFFFFFFFFFFFFF0000000000000000000000000000000
310
0000000000000000000000000000000000000000000000000000000000000000
310
0000000000000000000000000000000000000000000000000000000000000000
310
0000000000000000000000000000000000000000000000000000000000000000
310
0000000000000000000000000000000000000000000000000000000000000000
310
0000000000000000000000000000000000000000000000000000000000000000
310
0000000000000000000000000000000000000000000000000000000000000000
310
0000000000000000000000000000000000000000000000000000000000000000
310
0000000000000000000000000000000000000000000000000000000000000000
310
0000000000000000000000000000000000000000000000000000000000000000
310
0000000000000000000000000000000000000000000000000000000000000000
310
0000000000000000000000000000000000000000000000000000000000000000
310
0000000000000000000000000000000000000000000000000000000000000000
310
0000000000000000000000000000000000000000000000000000000000000000
310
0000000000000000000000000000000000000000000000000000000000000000
310
0000000000000000000000000000000000000000000000000000000000000000
  1
OLE
  0
ENDSEC
  0
SECTION
  2
OBJECTS
  0
DICTIONARY
  5
C
330
0
100
AcDbDictionary
281
     1
  3
ACAD_GROUP
350
D
  3
ACAD_LAYOUT
350
1A
  3
ACAD_MLINESTYLE
350
17
  3
ACAD_PLOTSETTINGS
350
19
  3
ACAD_PLOTSTYLENAME
350
E
  3
ACAD_SCALELIST
350
47
  0
DICTIONARY
  5
D
102
{ACAD_REACTORS
330
C
102
}
330
C
100
AcDbDictionary
281
     1
  0
DICTIONARY
  5
1A
102
{ACAD_REACTORS
330
C
102
}
330
C
100
AcDbDictionary
281
     1
  3
Layout1
350
1E
  3
Layout2
350
26
  3
Model
350
22
  0
DICTIONARY
  5
17
102
{ACAD_REACTORS
330
C
102
}
330
C
100
AcDbDictionary
281
     1
  3
Standard
350
18
  0
DICTIONARY
  5
19
102
{ACAD_REACTORS
330
C
102
}
330
C
100
AcDbDictionary
281
     1
  0
ACDBDICTIONARYWDFLT
  5
E
102
{ACAD_REACTORS
330
C
102
}
330
C
100
AcDbDictionary
281
     1
  3
Normal
350
F
100
AcDbDictionaryWithDefault
340
F
  0
DICTIONARY
  5
47
102
{ACAD_REACTORS
330
C
102
}
330
C
100
AcDbDictionary
281
     1
  3
A0
350
48
  3
A1
350
49
  3
A2
350
4A
  3
A3
350
4B
  3
A4
350
4C
  3
A5
350
4D
  3
A6
350
4E
  3
A7
350
4F
  3
A8
350
50
  3
A9
350
51
  3
B0
350
52
  3
B1
350
53
  3
B2
350
54
  3
B3
350
55
  3
B4
350
56
  3
B5
350
57
  3
B6
350
58
  3
B7
350
59
  3
B8
350
5A
  3
B9
350
5B
  3
C0
350
5C
  3
C1
350
5D
  3
C2
350
5E
  3
C3
350
5F
  3
C4
350
60
  3
C5
350
61
  3
C6
350
62
  3
C7
350
63
  3
C8
350
64
  3
C9
350
65
  3
D0
350
66
  3
D1
350
67
  3
D2
350
68
  0
LAYOUT
  5
1E
102
{ACAD_REACTORS
330
1A
102
}
330
1A
100
AcDbPlotSettings
  1

  2
none_device
  4

  6

 40
0.0
 41
0.0
 42
0.0
 43
0.0
 44
0.0
 45
0.0
 46
0.0
 47
0.0
 48
0.0
 49
0.0
140
0.0
141
0.0
142
1.0
143
1.0
 70
   688
 72
     1
 73
     0
 74
     5
  7

 75
    16
147
1.0
148
0.0
149
0.0
100
AcDbLayout
  1
Layout1
 70
     1
 71
     1
 10
0.0
 20
0.0
 11
420.0
 21
297.0
 12
0.0
 22
0.0
 32
0.0
 14
1.0000000000E+20
 24
1.0000000000E+20
 34
1.0000000000E+20
 15
-1.0000000000E+20
 25
-1.0000000000E+20
 35
-1.0000000000E+20
146
0.0
 13
0.0
 23
0.0
 33
0.0
 16
1.0
 26
0.0
 36
0.0
 17
0.0
 27
1.0
 37
0.0
 76
     0
330
1B
  0
LAYOUT
  5
26
102
{ACAD_REACTORS
330
1A
102
}
330
1A
100
AcDbPlotSettings
  1

  2
none_device
  4

  6

 40
0.0
 41
0.0
 42
0.0
 43
0.0
 44
0.0
 45
0.0
 46
0.0
 47
0.0
 48
0.0
 49
0.0
140
0.0
141
0.0
142
1.0
143
1.0
 70
   688
 72
     1
 73
     0
 74
     5
  7

 75
    16
147
1.0
148
0.0
149
0.0
100
AcDbLayout
  1
Layout2
 70
     1
 71
     2
 10
0.0
 20
0.0
 11
0.0
 21
0.0
 12
0.0
 22
0.0
 32
0.0
 14
0.0
 24
0.0
 34
0.0
 15
0.0
 25
0.0
 35
0.0
146
0.0
 13
0.0
 23
0.0
 33
0.0
 16
1.0
 26
0.0
 36
0.0
 17
0.0
 27
1.0
 37
0.0
 76
     0
330
23
  0
LAYOUT
  5
22
102
{ACAD_REACTORS
330
1A
102
}
330
1A
100
AcDbPlotSettings
  1

  2
none_device
  4
Letter_(8.50_x_11.00_Inches)
  6

 40
6.35
 41
6.35
 42
6.35000508
 43
6.35000508
 44
215.9
 45
279.4
 46
0.0
 47
0.0
 48
0.0
 49
0.0
140
0.0
141
0.0
142
1.0
143
1.0
 70
  1712
 72
     1
 73
     0
 74
     0
  7

 75
     0
147
1.0
148
0.0
149
0.0
100
AcDbLayout
  1
Model
 70
     1
 71
     0
 10
0.0
 20
0.0
 11
297.0
 21
210.0
 12
0.0
 22
0.0
 32
0.0
 14
0.0
 24
0.0
 34
0.0
 15
297.0
 25
210.0
 35
0.0
146
0.0
 13
0.0
 23
0.0
 33
0.0
 16
1.0
 26
0.0
 36
0.0
 17
0.0
 27
1.0
 37
0.0
 76
     0
330
1F
331
29
  0
MLINESTYLE
  5
18
102
{ACAD_REACTORS
330
17
102
}
330
17
100
AcDbMlineStyle
  2
Standard
 70
     0
  3

 62
   256
 51
90.0
 52
90.0
 71
     2
 49
0.5
 62
   256
  6
BYLAYER
 49
-0.5
 62
   256
  6
BYLAYER
  0
ACDBPLACEHOLDER
  5
F
102
{ACAD_REACTORS
330
E
102
}
330
E
  0
SCALE
  5
48
102
{ACAD_REACTORS
330
47
102
}
330
47
100
AcDbScale
 70
     0
300
1:1
140
1.0
141
1.0
290
     1
  0
SCALE
  5
49
102
{ACAD_REACTORS
330
47
102
}
330
47
100
AcDbScale
 70
     0
300
1:2
140
1.0
141
2.0
290
     0
  0
SCALE
  5
4A
102
{ACAD_REACTORS
330
47
102
}
330
47
100
AcDbScale
 70
     0
300
1:4
140
1.0
141
4.0
290
     0
  0
SCALE
  5
4B
102
{ACAD_REACTORS
330
47
102
}
330
47
100
AcDbScale
 70
     0
300
1:5
140
1.0
141
5.0
290
     0
  0
SCALE
  5
4C
102
{ACAD_REACTORS
330
47
102
}
330
47
100
AcDbScale
 70
     0
300
1:8
140
1.0
141
8.0
290
     0
  0
SCALE
  5
4D
102
{ACAD_REACTORS
330
47
102
}
330
47
100
AcDbScale
 70
     0
300
1:10
140
1.0
141
10.0
290
     0
  0
SCALE
  5
4E
102
{ACAD_REACTORS
330
47
102
}
330
47
100
AcDbScale
 70
     0
300
1:16
140
1.0
141
16.0
290
     0
  0
SCALE
  5
4F
102
{ACAD_REACTORS
330
47
102
}
330
47
100
AcDbScale
 70
     0
300
1:20
140
1.0
141
20.0
290
     0
  0
SCALE
  5
50
102
{ACAD_REACTORS
330
47
102
}
330
47
100
AcDbScale
 70
     0
300
1:30
140
1.0
141
30.0
290
     0
  0
SCALE
  5
51
102
{ACAD_REACTORS
330
47
102
}
330
47
100
AcDbScale
 70
     0
300
1:40
140
1.0
141
40.0
290
     0
  0
SCALE
  5
52
102
{ACAD_REACTORS
330
47
102
}
330
47
100
AcDbScale
 70
     0
300
1:50
140
1.0
141
50.0
290
     0
  0
SCALE
  5
53
102
{ACAD_REACTORS
330
47
102
}
330
47
100
AcDbScale
 70
     0
300
1:100
140
1.0
141
100.0
290
     0
  0
SCALE
  5
54
102
{ACAD_REACTORS
330
47
102
}
330
47
100
AcDbScale
 70
     0
300
2:1
140
2.0
141
1.0
290
     0
  0
SCALE
  5
55
102
{ACAD_REACTORS
330
47
102
}
330
47
100
AcDbScale
 70
     0
300
4:1
140
4.0
141
1.0
290
     0
  0
SCALE
  5
56
102
{ACAD_REACTORS
330
47
102
}
330
47
100
AcDbScale
 70
     0
300
8:1
140
8.0
141
1.0
290
     0
  0
SCALE
  5
57
102
{ACAD_REACTORS
330
47
102
}
330
47
100
AcDbScale
 70
     0
300
10:1
140
10.0
141
1.0
290
     0
  0
SCALE
  5
58
102
{ACAD_REACTORS
330
47
102
}
330
47
100
AcDbScale
 70
     0
300
100:1
140
100.0
141
1.0
290
     0
  0
SCALE
  5
59
102
{ACAD_REACTORS
330
47
102
}
330
47
100
AcDbScale
 70
     0
300
1/128" = 1'-0"
140
0.0078125
141
12.0
290
     0
  0
SCALE
  5
5A
102
{ACAD_REACTORS
330
47
102
}
330
47
100
AcDbScale
 70
     0
300
1/64" = 1'-0"
140
0.015625
141
12.0
290
     0
  0
SCALE
  5
5B
102
{ACAD_REACTORS
330
47
102
}
330
47
100
AcDbScale
 70
     0
300
1/32" = 1'-0"
140
0.03125
141
12.0
290
     0
  0
SCALE
  5
5C
102
{ACAD_REACTORS
330
47
102
}
330
47
100
AcDbScale
 70
     0
300
1/16" = 1'-0"
140
0.0625
141
12.0
290
     0
  0
SCALE
  5
5D
102
{ACAD_REACTORS
330
47
102
}
330
47
100
AcDbScale
 70
     0
300
3/32" = 1'-0"
140
0.09375
141
12.0
290
     0
  0
SCALE
  5
5E
102
{ACAD_REACTORS
330
47
102
}
330
47
100
AcDbScale
 70
     0
300
1/8" = 1'-0"
140
0.125
141
12.0
290
     0
  0
SCALE
  5
5F
102
{ACAD_REACTORS
330
47
102
}
330
47
100
AcDbScale
 70
     0
300
3/16" = 1'-0"
140
0.1875
141
12.0
290
     0
  0
SCALE
  5
60
102
{ACAD_REACTORS
330
47
102
}
330
47
100
AcDbScale
 70
     0
300
1/4" = 1'-0"
140
0.25
141
12.0
290
     0
  0
SCALE
  5
61
102
{ACAD_REACTORS
330
47
102
}
330
47
100
AcDbScale
 70
     0
300
3/8" = 1'-0"
140
0.375
141
12.0
290
     0
  0
SCALE
  5
62
102
{ACAD_REACTORS
330
47
102
}
330
47
100
AcDbScale
 70
     0
300
1/2" = 1'-0"
140
0.5
141
12.0
290
     0
  0
SCALE
  5
63
102
{ACAD_REACTORS
330
47
102
}
330
47
100
AcDbScale
 70
     0
300
3/4" = 1'-0"
140
0.75
141
12.0
290
     0
  0
SCALE
  5
64
102
{ACAD_REACTORS
330
47
102
}
330
47
100
AcDbScale
 70
     0
300
1" = 1'-0"
140
1.0
141
12.0
290
     0
  0
SCALE
  5
65
102
{ACAD_REACTORS
330
47
102
}
330
47
100
AcDbScale
 70
     0
300
1-1/2" = 1'-0"
140
1.5
141
12.0
290
     0
  0
SCALE
  5
66
102
{ACAD_REACTORS
330
47
102
}
330
47
100
AcDbScale
 70
     0
300
3" = 1'-0"
140
3.0
141
12.0
290
     0
  0
SCALE
  5
67
102
{ACAD_REACTORS
330
47
102
}
330
47
100
AcDbScale
 70
     0
300
6" = 1'-0"
140
6.0
141
12.0
290
     0
  0
SCALE
  5
68
102
{ACAD_REACTORS
330
47
102
}
330
47
100
AcDbScale
 70
     0
300
1'-0" = 1'-0"
140
12.0
141
12.0
290
     0
  0
ENDSEC
  0
EOF
