  0
SECTION
  2
HEADER
  9
$ACADVER
  1
AC1015
  9
$ACADMAINTVER
 70
     6
  9
$DWGCODEPAGE
  3
ANSI_1252
  9
$INSBASE
 10
0.0
 20
0.0
 30
0.0
  9
$EXTMIN
 10
0.0
 20
0.0
 30
0.0
  9
$EXTMAX
 10
297.0
 20
210.0
 30
0.0
  9
$LIMMIN
 10
0.0
 20
0.0
  9
$LIMMAX
 10
297.0
 20
210.0
  9
$ORTHOMODE
 70
     0
  9
$REGENMODE
 70
     1
  9
$FILLMODE
 70
     1
  9
$QTEXTMODE
 70
     0
  9
$MIRRTEXT
 70
     1
  9
$LTSCALE
 40
1.0
  9
$ATTMODE
 70
     1
  9
$TEXTSIZE
 40
2.0
  9
$TRACEWID
 40
1.0
  9
$TEXTSTYLE
  7
Standard
  9
$CLAYER
  8
0
  9
$CELTYPE
  6
ByLayer
  9
$CECOLOR
 62
   256
  9
$CELTSCALE
 40
1.0
  9
$DISPSILH
 70
     0
  9
$DIMSCALE
 40
1.0
  9
$DIMASZ
 40
3.0
  9
$DIMEXO
 40
0.0
  9
$DIMDLI
 40
3.75
  9
$DIMRND
 40
0.0
  9
$DIMDLE
 40
0.0
  9
$DIMEXE
 40
1.0
  9
$DIMTP
 40
0.0
  9
$DIMTM
 40
0.0
  9
$DIMTXT
 40
2.0
  9
$DIMCEN
 40
2.5
  9
$DIMTSZ
 40
0.0
  9
$DIMTOL
 70
     0
  9
$DIMLIM
 70
     0
  9
$DIMTIH
 70
     1
  9
$DIMTOH
 70
     1
  9
$DIMSE1
 70
     0
  9
$DIMSE2
 70
     0
  9
$DIMTAD
 70
     1
  9
$DIMZIN
 70
     0
  9
$DIMBLK
  1

  9
$DIMASO
 70
     1
  9
$DIMSHO
 70
     1
  9
$DIMPOST
  1

  9
$DIMAPOST
  1

  9
$DIMALT
 70
     0
  9
$DIMALTD
 70
     3
  9
$DIMALTF
 40
0.0393700787
  9
$DIMLFAC
 40
2.0
  9
$DIMTOFL
 70
     1
  9
$DIMTVP
 40
0.0
  9
$DIMTIX
 70
     0
  9
$DIMSOXD
 70
     0
  9
$DIMSAH
 70
     0
  9
$DIMBLK1
  1

  9
$DIMBLK2
  1

  9
$DIMSTYLE
  2
ISO-25
  9
$DIMCLRD
 70
     0
  9
$DIMCLRE
 70
     0
  9
$DIMCLRT
 70
     0
  9
$DIMTFAC
 40
1.0
  9
$DIMGAP
 40
1.524
  9
$DIMJUST
 70
     0
  9
$DIMSD1
 70
     0
  9
$DIMSD2
 70
     0
  9
$DIMTOLJ
 70
     0
  9
$DIMTZIN
 70
     0
  9
$DIMALTZ
 70
     0
  9
$DIMALTTZ
 70
     0
  9
$DIMUPT
 70
     0
  9
$DIMDEC
 70
     2
  9
$DIMTDEC
 70
     3
  9
$DIMALTU
 70
     2
  9
$DIMALTTD
 70
     3
  9
$DIMTXSTY
  7
Standard
  9
$DIMAUNIT
 70
     0
  9
$DIMADEC
 70
     2
  9
$DIMALTRND
 40
0.0
  9
$DIMAZIN
 70
     0
  9
$DIMDSEP
 70
    44
  9
$DIMATFIT
 70
     3
  9
$DIMFRAC
 70
     0
  9
$DIMLDRBLK
  1

  9
$DIMLUNIT
 70
     2
  9
$DIMLWD
 70
    -2
  9
$DIMLWE
 70
    -2
  9
$DIMTMOVE
 70
     0
  9
$LUNITS
 70
     2
  9
$LUPREC
 70
     2
  9
$SKETCHINC
 40
1.0
  9
$FILLETRAD
 40
10.0
  9
$AUNITS
 70
     0
  9
$AUPREC
 70
     2
  9
$MENU
  1
.
  9
$ELEVATION
 40
0.0
  9
$PELEVATION
 40
0.0
  9
$THICKNESS
 40
0.0
  9
$LIMCHECK
 70
     0
  9
$CHAMFERA
 40
0.0
  9
$CHAMFERB
 40
0.0
  9
$CHAMFERC
 40
0.0
  9
$CHAMFERD
 40
0.0
  9
$SKPOLY
 70
     0
  9
$TDCREATE
 40
2457673.458589074
  9
$TDUCREATE
 40
2457673.375255741
  9
$TDUPDATE
 40
2457673.458590278
  9
$TDUUPDATE
 40
2457673.375256944
  9
$TDINDWG
 40
0.0000000116
  9
$TDUSRTIMER
 40
0.0000000116
  9
$USRTIMER
 70
     1
  9
$ANGBASE
 50
0.0
  9
$ANGDIR
 70
     0
  9
$PDMODE
 70
     0
  9
$PDSIZE
 40
-1.0
  9
$PLINEWID
 40
0.0
  9
$SPLFRAME
 70
     0
  9
$SPLINETYPE
 70
     6
  9
$SPLINESEGS
 70
     8
  9
$HANDSEED
  5
21F
  9
$SURFTAB1
 70
     6
  9
$SURFTAB2
 70
     6
  9
$SURFTYPE
 70
     6
  9
$SURFU
 70
     6
  9
$SURFV
 70
     6
  9
$UCSBASE
  2

  9
$UCSNAME
  2

  9
$UCSORG
 10
0.0
 20
0.0
 30
0.0
  9
$UCSXDIR
 10
1.0
 20
0.0
 30
0.0
  9
$UCSYDIR
 10
0.0
 20
1.0
 30
0.0
  9
$UCSORTHOREF
  2

  9
$UCSORTHOVIEW
 70
     0
  9
$UCSORGTOP
 10
0.0
 20
0.0
 30
0.0
  9
$UCSORGBOTTOM
 10
0.0
 20
0.0
 30
0.0
  9
$UCSORGLEFT
 10
0.0
 20
0.0
 30
0.0
  9
$UCSORGRIGHT
 10
0.0
 20
0.0
 30
0.0
  9
$UCSORGFRONT
 10
0.0
 20
0.0
 30
0.0
  9
$UCSORGBACK
 10
0.0
 20
0.0
 30
0.0
  9
$PUCSBASE
  2

  9
$PUCSNAME
  2

  9
$PUCSORG
 10
0.0
 20
0.0
 30
0.0
  9
$PUCSXDIR
 10
1.0
 20
0.0
 30
0.0
  9
$PUCSYDIR
 10
0.0
 20
1.0
 30
0.0
  9
$PUCSORTHOREF
  2

  9
$PUCSORTHOVIEW
 70
     0
  9
$PUCSORGTOP
 10
0.0
 20
0.0
 30
0.0
  9
$PUCSORGBOTTOM
 10
0.0
 20
0.0
 30
0.0
  9
$PUCSORGLEFT
 10
0.0
 20
0.0
 30
0.0
  9
$PUCSORGRIGHT
 10
0.0
 20
0.0
 30
0.0
  9
$PUCSORGFRONT
 10
0.0
 20
0.0
 30
0.0
  9
$PUCSORGBACK
 10
0.0
 20
0.0
 30
0.0
  9
$USERI1
 70
     0
  9
$USERI2
 70
     0
  9
$USERI3
 70
     0
  9
$USERI4
 70
     0
  9
$USERI5
 70
     0
  9
$USERR1
 40
0.0
  9
$USERR2
 40
0.0
  9
$USERR3
 40
0.0
  9
$USERR4
 40
0.0
  9
$USERR5
 40
0.0
  9
$WORLDVIEW
 70
     1
  9
$SHADEDGE
 70
     3
  9
$SHADEDIF
 70
    70
  9
$TILEMODE
 70
     1
  9
$MAXACTVP
 70
    64
  9
$PINSBASE
 10
0.0
 20
0.0
 30
0.0
  9
$PLIMCHECK
 70
     0
  9
$PEXTMIN
 10
1.0000000000E+20
 20
1.0000000000E+20
 30
1.0000000000E+20
  9
$PEXTMAX
 10
-1.0000000000E+20
 20
-1.0000000000E+20
 30
-1.0000000000E+20
  9
$PLIMMIN
 10
0.0
 20
0.0
  9
$PLIMMAX
 10
420.0
 20
297.0
  9
$UNITMODE
 70
     0
  9
$VISRETAIN
 70
     1
  9
$PLINEGEN
 70
     0
  9
$PSLTSCALE
 70
     1
  9
$TREEDEPTH
 70
  3020
  9
$CMLSTYLE
  2
Standard
  9
$CMLJUST
 70
     0
  9
$CMLSCALE
 40
20.0
  9
$PROXYGRAPHICS
 70
     1
  9
$MEASUREMENT
 70
     1
  9
$CELWEIGHT
370
    -1
  9
$ENDCAPS
280
     0
  9
$JOINSTYLE
280
     0
  9
$LWDISPLAY
290
     1
  9
$INSUNITS
 70
     4
  9
$HYPERLINKBASE
  1

  9
$STYLESHEET
  1

  9
$XEDIT
290
     1
  9
$CEPSNTYPE
380
     0
  9
$PSTYLEMODE
290
     1
  9
$FINGERPRINTGUID
  2
{C24E0E19-89C3-4EF7-81F4-77C74DA392CD}
  9
$VERSIONGUID
  2
{FAEB1C32-E019-11D5-929B-00C0DF256EC4}
  9
$EXTNAMES
290
     1
  9
$PSVPSCALE
 40
0.0
  9
$OLESTARTUP
290
     0
  0
ENDSEC
  0
SECTION
  2
CLASSES
  0
CLASS
  1
ACDBDICTIONARYWDFLT
  2
AcDbDictionaryWithDefault
  3
ObjectDBX Classes
 90
        0
280
     0
281
     0
  0
CLASS
  1
VISUALSTYLE
  2
AcDbVisualStyle
  3
ObjectDBX Classes
 90
     4095
280
     0
281
     0
  0
CLASS
  1
MATERIAL
  2
AcDbMaterial
  3
ObjectDBX Classes
 90
     1153
280
     0
281
     0
  0
CLASS
  1
SCALE
  2
AcDbScale
  3
ObjectDBX Classes
 90
     1153
280
     0
281
     0
  0
CLASS
  1
TABLESTYLE
  2
AcDbTableStyle
  3
ObjectDBX Classes
 90
     4095
280
     0
281
     0
  0
CLASS
  1
MLEADERSTYLE
  2
AcDbMLeaderStyle
  3
ACDB_MLEADERSTYLE_CLASS
 90
     4095
280
     0
281
     0
  0
CLASS
  1
SUN
  2
AcDbSun
  3
SCENEOE
 90
     1153
280
     0
281
     0
  0
CLASS
  1
ACDBPLACEHOLDER
  2
AcDbPlaceHolder
  3
ObjectDBX Classes
 90
        0
280
     0
281
     0
  0
CLASS
  1
LAYOUT
  2
AcDbLayout
  3
ObjectDBX Classes
 90
        0
280
     0
281
     0
  0
ENDSEC
  0
SECTION
  2
TABLES
  0
TABLE
  2
VPORT
  5
8
330
0
100
AcDbSymbolTable
 70
     1
  0
VPORT
  5
29
330
8
100
AcDbSymbolTableRecord
100
AcDbViewportTableRecord
  2
*Active
 70
     0
 10
0.0
 20
0.0
 11
1.0
 21
1.0
 12
148.5
 22
105.0
 13
0.0
 23
0.0
 14
10.0
 24
10.0
 15
10.0
 25
10.0
 16
0.0
 26
0.0
 36
1.0
 17
0.0
 27
0.0
 37
0.0
 40
210.0
 41
1.4142857143
 42
50.0
 43
0.0
 44
0.0
 50
0.0
 51
0.0
 71
     0
 72
  2000
 73
     1
 74
     3
 75
     0
 76
     0
 77
     0
 78
     0
281
     0
 65
     1
110
0.0
120
0.0
130
0.0
111
1.0
121
0.0
131
0.0
112
0.0
122
1.0
132
0.0
 79
     0
146
0.0
  0
ENDTAB
  0
TABLE
  2
LTYPE
  5
5
330
0
100
AcDbSymbolTable
 70
     6
  0
LTYPE
  5
14
330
5
100
AcDbSymbolTableRecord
100
AcDbLinetypeTableRecord
  2
ByBlock
 70
     0
  3

 72
    65
 73
     0
 40
0.0
  0
LTYPE
  5
15
330
5
100
AcDbSymbolTableRecord
100
AcDbLinetypeTableRecord
  2
ByLayer
 70
     0
  3

 72
    65
 73
     0
 40
0.0
  0
LTYPE
  5
16
330
5
100
AcDbSymbolTableRecord
100
AcDbLinetypeTableRecord
  2
Continuous
 70
     0
  3
Solid line
 72
    65
 73
     0
 40
0.0
  0
LTYPE
  5
6E
330
5
100
AcDbSymbolTableRecord
100
AcDbLinetypeTableRecord
  2
HIDDEN
 70
     0
  3
Hidden __ __ __ __ __ __ __ __ __ __ __ __ __ __
 72
    65
 73
     2
 40
1.905
 49
1.27
 74
     0
 49
-0.635
 74
     0
  0
LTYPE
  5
6F
330
5
100
AcDbSymbolTableRecord
100
AcDbLinetypeTableRecord
  2
PHANTOM
 70
     0
  3
Phantom ______  __  __  ______  __  __  ______
 72
    65
 73
     6
 40
12.7
 49
6.35
 74
     0
 49
-1.27
 74
     0
 49
1.27
 74
     0
 49
-1.27
 74
     0
 49
1.27
 74
     0
 49
-1.27
 74
     0
  0
LTYPE
  5
70
330
5
100
AcDbSymbolTableRecord
100
AcDbLinetypeTableRecord
  2
CENTER
 70
     0
  3
Center ____ _ ____ _ ____ _ ____ _ ____ _ ____
 72
    65
 73
     4
 40
10.16
 49
6.35
 74
     0
 49
-1.27
 74
     0
 49
1.27
 74
     0
 49
-1.27
 74
     0
  0
LTYPE
  5
71
330
5
100
AcDbSymbolTableRecord
100
AcDbLinetypeTableRecord
  2
CENTERX2
 70
     0
  3
Center (2x) ________  __  ________  __  _____
 72
    65
 73
     4
 40
20.32
 49
12.7
 74
     0
 49
-2.54
 74
     0
 49
2.54
 74
     0
 49
-2.54
 74
     0
  0
LTYPE
  5
72
330
5
100
AcDbSymbolTableRecord
100
AcDbLinetypeTableRecord
  2
DOT2
 70
     0
  3
Dot (.5x) ........................................
 72
    65
 73
     2
 40
0.635
 49
0.0
 74
     0
 49
-0.635
 74
     0
  0
ENDTAB
  0
TABLE
  2
LAYER
  5
2
330
0
100
AcDbSymbolTable
 70
     5
  0
LAYER
  5
10
330
2
100
AcDbSymbolTableRecord
100
AcDbLayerTableRecord
  2
0
 70
     0
 62
     7
  6
Continuous
370
    -3
390
F
  0
LAYER
  5
73
330
2
100
AcDbSymbolTableRecord
100
AcDbLayerTableRecord
  2
FORMAT
 70
     0
 62
     7
  6
Continuous
370
    -3
390
F
  0
LAYER
  5
74
330
2
100
AcDbSymbolTableRecord
100
AcDbLayerTableRecord
  2
VERMASSUNG
 70
     0
 62
     7
  6
Continuous
370
    -3
390
F
  0
LAYER
  5
75
330
2
100
AcDbSymbolTableRecord
100
AcDbLayerTableRecord
  2
KOPF_DÜNN
 70
     0
 62
     7
  6
Continuous
370
    -3
390
F
  0
LAYER
  5
76
330
2
100
AcDbSymbolTableRecord
100
AcDbLayerTableRecord
  2
KOPF_DICK
 70
     0
 62
     7
  6
Continuous
370
    15
390
F
  0
ENDTAB
  0
TABLE
  2
STYLE
  5
3
330
0
100
AcDbSymbolTable
 70
     2
  0
STYLE
  5
11
330
3
100
AcDbSymbolTableRecord
100
AcDbTextStyleTableRecord
  2
Standard
 70
     0
 40
0.0
 41
1.0
 50
0.0
 71
     0
 42
2.0
  3
txt
  4

  0
STYLE
  5
77
330
3
100
AcDbSymbolTableRecord
100
AcDbTextStyleTableRecord
  2
SLDTEXTSTYLE0
 70
     0
 40
0.0
 41
0.7
 50
0.0
 71
     0
 42
2.0
  3
TXT
  4

  0
ENDTAB
  0
TABLE
  2
VIEW
  5
6
330
0
100
AcDbSymbolTable
 70
     0
  0
ENDTAB
  0
TABLE
  2
UCS
  5
7
330
0
100
AcDbSymbolTable
 70
     0
  0
ENDTAB
  0
TABLE
  2
APPID
  5
9
330
0
100
AcDbSymbolTable
 70
     1
  0
APPID
  5
12
330
9
100
AcDbSymbolTableRecord
100
AcDbRegAppTableRecord
  2
ACAD
 70
     0
  0
ENDTAB
  0
TABLE
  2
DIMSTYLE
  5
A
330
0
100
AcDbSymbolTable
 70
     3
100
AcDbDimStyleTable
  0
DIMSTYLE
105
27
330
A
100
AcDbSymbolTableRecord
100
AcDbDimStyleTableRecord
  2
ISO-25
 70
     0
 41
2.5
 42
0.625
 43
3.75
 44
1.25
 73
     0
 74
     0
 77
     1
 78
     8
140
2.5
141
2.5
143
0.0393700787
147
0.625
171
     3
172
     1
178
     0
271
     2
272
     2
274
     3
278
    44
283
     0
284
     8
340
11
  0
DIMSTYLE
105
143
102
{ACAD_REACTORS
330
142
102
}
330
A
100
AcDbSymbolTableRecord
100
AcDbDimStyleTableRecord
  2
SLDDIMSTYLE0
 70
     0
 41
3.0
 44
0.0
 45
0.000000001
 73
     0
 74
     0
 77
     1
 78
    12
 79
     3
140
2.0
147
0.5
173
     1
178
     0
271
     1
272
     1
276
     2
284
    12
340
77
  0
DIMSTYLE
105
150
102
{ACAD_REACTORS
330
14F
330
15B
330
167
330
173
330
17D
102
}
330
A
100
AcDbSymbolTableRecord
100
AcDbDimStyleTableRecord
  2
SLDDIMSTYLE1
 70
     0
 41
3.0
 44
0.0
 45
0.000000001
 73
     0
 74
     0
 77
     1
 78
    12
 79
     3
140
2.0
147
0.5
173
     1
178
     0
271
     2
272
     3
276
     2
284
    12
340
77
  0
ENDTAB
  0
TABLE
  2
BLOCK_RECORD
  5
1
330
0
100
AcDbSymbolTable
 70
     7
  0
BLOCK_RECORD
  5
1F
330
1
100
AcDbSymbolTableRecord
100
AcDbBlockTableRecord
  2
*Model_Space
340
22
  0
BLOCK_RECORD
  5
1B
330
1
100
AcDbSymbolTableRecord
100
AcDbBlockTableRecord
  2
*Paper_Space
340
1E
  0
BLOCK_RECORD
  5
23
330
1
100
AcDbSymbolTableRecord
100
AcDbBlockTableRecord
  2
*Paper_Space0
340
26
  0
BLOCK_RECORD
  5
144
330
1
100
AcDbSymbolTableRecord
100
AcDbBlockTableRecord
  2
_D
340
0
  0
BLOCK_RECORD
  5
151
330
1
100
AcDbSymbolTableRecord
100
AcDbBlockTableRecord
  2
_D_1
340
0
  0
BLOCK_RECORD
  5
15C
330
1
100
AcDbSymbolTableRecord
100
AcDbBlockTableRecord
  2
_D_2
340
0
  0
BLOCK_RECORD
  5
168
330
1
100
AcDbSymbolTableRecord
100
AcDbBlockTableRecord
  2
_D_3
340
0
  0
BLOCK_RECORD
  5
174
330
1
100
AcDbSymbolTableRecord
100
AcDbBlockTableRecord
  2
_D_4
340
0
  0
BLOCK_RECORD
  5
17E
330
1
100
AcDbSymbolTableRecord
100
AcDbBlockTableRecord
  2
_D_5
340
0
  0
ENDTAB
  0
ENDSEC
  0
SECTION
  2
BLOCKS
  0
BLOCK
  5
20
330
1F
100
AcDbEntity
  8
0
100
AcDbBlockBegin
  2
*Model_Space
 70
     0
 10
0.0
 20
0.0
 30
0.0
  3
*Model_Space
  1

  0
ENDBLK
  5
21
330
1F
100
AcDbEntity
  8
0
100
AcDbBlockEnd
  0
BLOCK
  5
1C
330
1B
100
AcDbEntity
 67
     1
  8
0
100
AcDbBlockBegin
  2
*Paper_Space
 70
     0
 10
0.0
 20
0.0
 30
0.0
  3
*Paper_Space
  1

  0
ENDBLK
  5
1D
330
1B
100
AcDbEntity
 67
     1
  8
0
100
AcDbBlockEnd
  0
BLOCK
  5
24
330
23
100
AcDbEntity
  8
0
100
AcDbBlockBegin
  2
*Paper_Space0
 70
     0
 10
0.0
 20
0.0
 30
0.0
  3
*Paper_Space0
  1

  0
ENDBLK
  5
25
330
23
100
AcDbEntity
  8
0
100
AcDbBlockEnd
  0
BLOCK
  5
145
330
144
100
AcDbEntity
  8
0
100
AcDbBlockBegin
  2
_D
 70
     0
 10
0.0
 20
0.0
 30
0.0
  3
_D
  1

  0
SOLID
  5
147
330
144
100
AcDbEntity
  8
VERMASSUNG
100
AcDbTrace
 10
72.7584117941
 20
82.2210759928
 30
0.0
 11
73.2084117941
 21
85.2210759928
 31
0.0
 12
72.3084117941
 22
85.2210759928
 32
0.0
 13
72.3084117941
 23
85.2210759928
 33
0.0
  0
SOLID
  5
148
330
144
100
AcDbEntity
  8
VERMASSUNG
100
AcDbTrace
 10
72.7584117941
 20
145.0210759928
 30
0.0
 11
72.3084117941
 21
142.0210759928
 31
0.0
 12
73.2084117941
 22
142.0210759928
 32
0.0
 13
73.2084117941
 23
142.0210759928
 33
0.0
  0
LINE
  5
149
330
144
100
AcDbEntity
  8
VERMASSUNG
100
AcDbLine
 10
182.6667156831
 20
82.2210759928
 30
0.0
 11
71.7584117941
 21
82.2210759928
 31
0.0
  0
LINE
  5
14A
330
144
100
AcDbEntity
  8
VERMASSUNG
100
AcDbLine
 10
182.6667156831
 20
145.0210759928
 30
0.0
 11
71.7584117941
 21
145.0210759928
 31
0.0
  0
LINE
  5
14B
330
144
100
AcDbEntity
  8
VERMASSUNG
100
AcDbLine
 10
72.7584117941
 20
82.2210759928
 30
0.0
 11
72.7584117941
 21
145.0210759928
 31
0.0
  0
MTEXT
  5
14C
330
144
100
AcDbEntity
  8
VERMASSUNG
100
AcDbMText
 10
69.9802765379
 20
105.7181769197
 30
0.0
 40
2.0
 41
0.0
 71
     1
 72
     1
  1
SK 40
  7
SLDTEXTSTYLE0
 11
3.391901413832837E-15
 21
1.0
 31
0.0
 73
     1
 44
1.0
  0
MTEXT
  5
14D
330
144
100
AcDbEntity
  8
VERMASSUNG
100
AcDbMText
 10
70.1802764892
 20
113.1181769219
 30
0.0
 40
2.0
 41
0.0
 71
     1
 72
     1
  1
%%c
  7
SLDTEXTSTYLE0
 11
3.391901413832837E-15
 21
1.0
 31
0.0
 73
     1
 44
1.0
  0
MTEXT
  5
14E
330
144
100
AcDbEntity
  8
VERMASSUNG
100
AcDbMText
 10
70.1802761981
 20
116.7259833048
 30
0.0
 40
2.0
 41
0.0
 71
     1
 72
     1
  1
62.8
  7
SLDTEXTSTYLE0
 11
3.391901413832837E-15
 21
1.0
 31
0.0
 73
     1
 44
1.0
  0
ENDBLK
  5
146
330
144
100
AcDbEntity
  8
0
100
AcDbBlockEnd
  0
BLOCK
  5
152
330
151
100
AcDbEntity
  8
0
100
AcDbBlockBegin
  2
_D_1
 70
     0
 10
0.0
 20
0.0
 30
0.0
  3
_D_1
  1

  0
SOLID
  5
154
330
151
100
AcDbEntity
  8
VERMASSUNG
100
AcDbTrace
 10
219.3579560826
 20
127.6210759928
 30
0.0
 11
218.9079560826
 21
124.6210759928
 31
0.0
 12
219.8079560826
 22
124.6210759928
 32
0.0
 13
219.8079560826
 23
124.6210759928
 33
0.0
  0
SOLID
  5
155
330
151
100
AcDbEntity
  8
VERMASSUNG
100
AcDbTrace
 10
219.3579560826
 20
99.6210759928
 30
0.0
 11
219.8079560826
 21
102.6210759928
 31
0.0
 12
218.9079560826
 22
102.6210759928
 32
0.0
 13
218.9079560826
 23
102.6210759928
 33
0.0
  0
LINE
  5
156
330
151
100
AcDbEntity
  8
VERMASSUNG
100
AcDbLine
 10
210.6667156831
 20
127.6210759928
 30
0.0
 11
220.3579560826
 21
127.6210759928
 31
0.0
  0
LINE
  5
157
330
151
100
AcDbEntity
  8
VERMASSUNG
100
AcDbLine
 10
210.6667156831
 20
99.6210759928
 30
0.0
 11
220.3579560826
 21
99.6210759928
 31
0.0
  0
LINE
  5
158
330
151
100
AcDbEntity
  8
VERMASSUNG
100
AcDbLine
 10
219.3579560826
 20
127.6210759928
 30
0.0
 11
219.3579560826
 21
99.6210759928
 31
0.0
  0
MTEXT
  5
159
330
151
100
AcDbEntity
  8
VERMASSUNG
100
AcDbMText
 10
216.7798207777
 20
110.4160760355
 30
0.0
 40
2.0
 41
0.0
 71
     1
 72
     1
  1
%%c
  7
SLDTEXTSTYLE0
 11
-7.044195017643634E-15
 21
1.0
 31
0.0
 73
     1
 44
1.0
  0
MTEXT
  5
15A
330
151
100
AcDbEntity
  8
VERMASSUNG
100
AcDbMText
 10
216.5798208264
 20
114.0260760498
 30
0.0
 40
2.0
 41
0.0
 71
     1
 72
     1
  1
28
  7
SLDTEXTSTYLE0
 11
-7.044195017643634E-15
 21
1.0
 31
0.0
 73
     1
 44
1.0
  0
ENDBLK
  5
153
330
151
100
AcDbEntity
  8
0
100
AcDbBlockEnd
  0
BLOCK
  5
15D
330
15C
100
AcDbEntity
  8
0
100
AcDbBlockBegin
  2
_D_2
 70
     0
 10
0.0
 20
0.0
 30
0.0
  3
_D_2
  1

  0
SOLID
  5
15F
330
15C
100
AcDbEntity
  8
VERMASSUNG
100
AcDbTrace
 10
225.3339787508
 20
88.6210759928
 30
0.0
 11
225.7839787508
 21
91.6210759928
 31
0.0
 12
224.8839787508
 22
91.6210759928
 32
0.0
 13
224.8839787508
 23
91.6210759928
 33
0.0
  0
SOLID
  5
160
330
15C
100
AcDbEntity
  8
VERMASSUNG
100
AcDbTrace
 10
225.3339787508
 20
138.6210759928
 30
0.0
 11
224.8839787508
 21
135.6210759928
 31
0.0
 12
225.7839787508
 22
135.6210759928
 32
0.0
 13
225.7839787508
 23
135.6210759928
 33
0.0
  0
LINE
  5
161
330
15C
100
AcDbEntity
  8
VERMASSUNG
100
AcDbLine
 10
211.1667156831
 20
88.6210759928
 30
0.0
 11
226.3339787508
 21
88.6210759928
 31
0.0
  0
LINE
  5
162
330
15C
100
AcDbEntity
  8
VERMASSUNG
100
AcDbLine
 10
211.1667156831
 20
138.6210759928
 30
0.0
 11
226.3339787508
 21
138.6210759928
 31
0.0
  0
LINE
  5
163
330
15C
100
AcDbEntity
  8
VERMASSUNG
100
AcDbLine
 10
225.3339787508
 20
88.6210759928
 30
0.0
 11
225.3339787508
 21
138.6210759928
 31
0.0
  0
MTEXT
  5
164
330
15C
100
AcDbEntity
  8
VERMASSUNG
100
AcDbMText
 10
222.5558434945
 20
108.5160760035
 30
0.0
 40
2.0
 41
0.0
 71
     1
 72
     1
  1
WH
  7
SLDTEXTSTYLE0
 11
6.123233995736766E-17
 21
1.0
 31
0.0
 73
     1
 44
1.0
  0
MTEXT
  5
165
330
15C
100
AcDbEntity
  8
VERMASSUNG
100
AcDbMText
 10
222.7558434458
 20
112.3160760676
 30
0.0
 40
2.0
 41
0.0
 71
     1
 72
     1
  1
%%c
  7
SLDTEXTSTYLE0
 11
6.123233995736766E-17
 21
1.0
 31
0.0
 73
     1
 44
1.0
  0
MTEXT
  5
166
330
15C
100
AcDbEntity
  8
VERMASSUNG
100
AcDbMText
 10
222.5558434945
 20
115.9260760819
 30
0.0
 40
2.0
 41
0.0
 71
     1
 72
     1
  1
50
  7
SLDTEXTSTYLE0
 11
6.123233995736766E-17
 21
1.0
 31
0.0
 73
     1
 44
1.0
  0
ENDBLK
  5
15E
330
15C
100
AcDbEntity
  8
0
100
AcDbBlockEnd
  0
BLOCK
  5
169
330
168
100
AcDbEntity
  8
0
100
AcDbBlockBegin
  2
_D_3
 70
     0
 10
0.0
 20
0.0
 30
0.0
  3
_D_3
  1

  0
ARC
  5
16B
330
168
100
AcDbEntity
  8
VERMASSUNG
100
AcDbCircle
 10
198.7667158322
 20
150.3948524129
 30
0.0
 40
4.248529228887633
100
AcDbArc
 50
153.4349488229
 51
206.5650511771
  0
ARC
  5
16C
330
168
100
AcDbEntity
  8
VERMASSUNG
100
AcDbCircle
 10
196.1667155923
 20
150.3948524129
 30
0.0
 40
4.248529228887608
100
AcDbArc
 50
333.4349488229
 51
26.5650511771
  0
SOLID
  5
16D
330
168
100
AcDbEntity
  8
VERMASSUNG
100
AcDbTrace
 10
211.6667156831
 20
148.494852148
 30
0.0
 11
208.6667156831
 21
148.944852148
 31
0.0
 12
208.6667156831
 22
148.044852148
 32
0.0
 13
208.6667156831
 23
148.044852148
 33
0.0
  0
SOLID
  5
16E
330
168
100
AcDbEntity
  8
VERMASSUNG
100
AcDbTrace
 10
183.2667156831
 20
148.494852148
 30
0.0
 11
186.2667156831
 21
148.044852148
 31
0.0
 12
186.2667156831
 22
148.944852148
 32
0.0
 13
186.2667156831
 23
148.944852148
 33
0.0
  0
LINE
  5
16F
330
168
100
AcDbEntity
  8
VERMASSUNG
100
AcDbLine
 10
211.6667156831
 20
138.1210759928
 30
0.0
 11
211.6667156831
 21
149.494852148
 31
0.0
  0
LINE
  5
170
330
168
100
AcDbEntity
  8
VERMASSUNG
100
AcDbLine
 10
183.2667156831
 20
143.3289304354
 30
0.0
 11
183.2667156831
 21
149.494852148
 31
0.0
  0
LINE
  5
171
330
168
100
AcDbEntity
  8
VERMASSUNG
100
AcDbLine
 10
211.6667156831
 20
148.494852148
 30
0.0
 11
183.2667156831
 21
148.494852148
 31
0.0
  0
MTEXT
  5
172
330
168
100
AcDbEntity
  8
VERMASSUNG
100
AcDbMText
 10
194.9667157681
 20
151.0729879768
 30
0.0
 40
2.0
 41
0.0
 71
     1
 72
     1
  1
28.4
  7
SLDTEXTSTYLE0
 73
     1
 44
1.0
  0
ENDBLK
  5
16A
330
168
100
AcDbEntity
  8
0
100
AcDbBlockEnd
  0
BLOCK
  5
175
330
174
100
AcDbEntity
  8
0
100
AcDbBlockBegin
  2
_D_4
 70
     0
 10
0.0
 20
0.0
 30
0.0
  3
_D_4
  1

  0
SOLID
  5
177
330
174
100
AcDbEntity
  8
VERMASSUNG
100
AcDbTrace
 10
211.6667156831
 20
153.9716525936
 30
0.0
 11
208.6667156831
 21
154.4216525936
 31
0.0
 12
208.6667156831
 22
153.5216525936
 32
0.0
 13
208.6667156831
 23
153.5216525936
 33
0.0
  0
SOLID
  5
178
330
174
100
AcDbEntity
  8
VERMASSUNG
100
AcDbTrace
 10
171.6667156831
 20
153.9716525936
 30
0.0
 11
174.6667156831
 21
153.5216525936
 31
0.0
 12
174.6667156831
 22
154.4216525936
 32
0.0
 13
174.6667156831
 23
154.4216525936
 33
0.0
  0
LINE
  5
179
330
174
100
AcDbEntity
  8
VERMASSUNG
100
AcDbLine
 10
211.6667156831
 20
138.1210759928
 30
0.0
 11
211.6667156831
 21
154.9716525936
 31
0.0
  0
LINE
  5
17A
330
174
100
AcDbEntity
  8
VERMASSUNG
100
AcDbLine
 10
171.6667156831
 20
135.8460759928
 30
0.0
 11
171.6667156831
 21
154.9716525936
 31
0.0
  0
LINE
  5
17B
330
174
100
AcDbEntity
  8
VERMASSUNG
100
AcDbLine
 10
211.6667156831
 20
153.9716525936
 30
0.0
 11
171.6667156831
 21
153.9716525936
 31
0.0
  0
MTEXT
  5
17C
330
174
100
AcDbEntity
  8
VERMASSUNG
100
AcDbMText
 10
190.1667156701
 20
156.5497881895
 30
0.0
 40
2.0
 41
0.0
 71
     1
 72
     1
  1
40
  7
SLDTEXTSTYLE0
 73
     1
 44
1.0
  0
ENDBLK
  5
176
330
174
100
AcDbEntity
  8
0
100
AcDbBlockEnd
  0
BLOCK
  5
17F
330
17E
100
AcDbEntity
  8
0
100
AcDbBlockBegin
  2
_D_5
 70
     0
 10
0.0
 20
0.0
 30
0.0
  3
_D_5
  1

  0
ARC
  5
181
330
17E
100
AcDbEntity
  8
VERMASSUNG
100
AcDbCircle
 10
145.7667157502
 20
161.0068057459
 30
0.0
 40
4.248529228887633
100
AcDbArc
 50
153.4349488229
 51
206.5650511771
  0
ARC
  5
182
330
17E
100
AcDbEntity
  8
VERMASSUNG
100
AcDbCircle
 10
144.1667156742
 20
161.0068057459
 30
0.0
 40
4.248529228887608
100
AcDbArc
 50
333.4349488229
 51
26.5650511771
  0
SOLID
  5
183
330
17E
100
AcDbEntity
  8
VERMASSUNG
100
AcDbTrace
 10
211.6667156831
 20
159.106805481
 30
0.0
 11
208.6667156831
 21
159.556805481
 31
0.0
 12
208.6667156831
 22
158.656805481
 32
0.0
 13
208.6667156831
 23
158.656805481
 33
0.0
  0
SOLID
  5
184
330
17E
100
AcDbEntity
  8
VERMASSUNG
100
AcDbTrace
 10
78.2667156831
 20
159.106805481
 30
0.0
 11
81.2667156831
 21
158.656805481
 31
0.0
 12
81.2667156831
 22
159.556805481
 32
0.0
 13
81.2667156831
 23
159.556805481
 33
0.0
  0
LINE
  5
185
330
17E
100
AcDbEntity
  8
VERMASSUNG
100
AcDbLine
 10
211.6667156831
 20
138.1210759928
 30
0.0
 11
211.6667156831
 21
160.106805481
 31
0.0
  0
LINE
  5
186
330
17E
100
AcDbEntity
  8
VERMASSUNG
100
AcDbLine
 10
78.2667156831
 20
124.1710759928
 30
0.0
 11
78.2667156831
 21
160.106805481
 31
0.0
  0
LINE
  5
187
330
17E
100
AcDbEntity
  8
VERMASSUNG
100
AcDbLine
 10
211.6667156831
 20
159.106805481
 30
0.0
 11
78.2667156831
 21
159.106805481
 31
0.0
  0
MTEXT
  5
188
330
17E
100
AcDbEntity
  8
VERMASSUNG
100
AcDbMText
 10
141.9667156861
 20
161.6849413098
 30
0.0
 40
2.0
 41
0.0
 71
     1
 72
     1
  1
133.4
  7
SLDTEXTSTYLE0
 73
     1
 44
1.0
  0
ENDBLK
  5
180
330
17E
100
AcDbEntity
  8
0
100
AcDbBlockEnd
  0
ENDSEC
  0
SECTION
  2
ENTITIES
  0
MTEXT
  5
78
330
1F
100
AcDbEntity
  8
KOPF_DÜNN
100
AcDbMText
 10
13.8892156294
 20
23.8442973028
 30
0.0
 40
3.0
 41
0.0
 71
     1
 72
     1
  1
A54.400.050.040
  7
SLDTEXTSTYLE0
 73
     1
 44
1.0
  0
MTEXT
  5
79
330
1F
100
AcDbEntity
  8
VERMASSUNG
100
AcDbMText
 10
13.9329988022
 20
28.8834360957
 30
0.0
 40
3.0
 41
0.0
 71
     1
 72
     1
  1
Aufnahme Master shank WH50
  7
SLDTEXTSTYLE0
 73
     1
 44
1.0
  0
MTEXT
  5
7A
330
1F
100
AcDbEntity
  8
VERMASSUNG
100
AcDbMText
 10
98.8601118557
 20
13.8365368761
 30
0.0
 40
2.0
 41
0.0
 71
     1
 72
     1
  1
Datum: 01.12.2011
  7
SLDTEXTSTYLE0
 73
     1
 44
1.0
  0
MTEXT
  5
7B
330
1F
100
AcDbEntity
  8
VERMASSUNG
100
AcDbMText
 10
13.933048693
 20
18.0482802738
 30
0.0
 40
2.0
 41
0.0
 71
     1
 72
     1
  1
DIN 2080
  7
SLDTEXTSTYLE0
 73
     1
 44
1.0
  0
MTEXT
  5
7C
330
1F
100
AcDbEntity
  8
VERMASSUNG
100
AcDbMText
 10
13.9808475933
 20
13.9090974274
 30
0.0
 40
2.0
 41
0.0
 71
     1
 72
     1
  1
Gewicht: 1029g
  7
SLDTEXTSTYLE0
 73
     1
 44
1.0
  0
LINE
  5
7D
330
1F
100
AcDbEntity
  8
0
  6
Continuous
 62
     7
370
    15
100
AcDbLine
 10
211.1667156831
 20
138.6210759928
 30
0.0
 11
204.8572577746
 21
138.6210759928
 31
0.0
  0
LINE
  5
7E
330
1F
100
AcDbEntity
  8
0
  6
Continuous
 62
     7
370
    15
100
AcDbLine
 10
191.2878642264
 20
88.6210759928
 30
0.0
 11
211.1667156831
 21
88.6210759928
 31
0.0
  0
LINE
  5
7F
330
1F
100
AcDbEntity
  8
0
  6
Continuous
 62
     7
370
    15
100
AcDbLine
 10
211.1667156831
 20
88.6210759928
 30
0.0
 11
211.6667156831
 21
89.1210759928
 31
0.0
  0
LINE
  5
80
330
1F
100
AcDbEntity
  8
0
  6
Continuous
 62
     7
370
    15
100
AcDbLine
 10
211.6667156831
 20
138.1210759928
 30
0.0
 11
211.1667156831
 21
138.6210759928
 31
0.0
  0
ARC
  5
81
330
1F
100
AcDbEntity
  8
0
  6
Continuous
 62
     7
370
    15
100
AcDbCircle
 10
172.4667156831
 20
90.5960759928
 30
0.0
 40
0.8000000000000114
100
AcDbArc
 50
0.0
 51
90.0
  0
ARC
  5
82
330
1F
100
AcDbEntity
  8
0
  6
Continuous
 62
     7
370
    15
100
AcDbCircle
 10
172.4667156831
 20
136.6460759928
 30
0.0
 40
0.8000000000000114
100
AcDbArc
 50
270.0
 51
0.0
  0
LINE
  5
83
330
1F
100
AcDbEntity
  8
0
  6
Continuous
 62
     7
370
    15
100
AcDbLine
 10
171.6667156831
 20
91.3960759928
 30
0.0
 11
172.4667156831
 21
91.3960759928
 31
0.0
  0
LINE
  5
84
330
1F
100
AcDbEntity
  8
0
  6
Continuous
 62
     7
370
    15
100
AcDbLine
 10
172.4667156831
 20
135.8460759928
 30
0.0
 11
171.6667156831
 21
135.8460759928
 31
0.0
  0
LINE
  5
85
330
1F
100
AcDbEntity
  8
0
  6
Continuous
 62
     7
370
    15
100
AcDbLine
 10
171.6667156831
 20
135.8460759928
 30
0.0
 11
106.6790528959
 21
126.368708503
 31
0.0
  0
LINE
  5
86
330
1F
100
AcDbEntity
  8
0
  6
Continuous
 62
     7
370
    15
100
AcDbLine
 10
106.6790528959
 20
100.8734434826
 30
0.0
 11
171.6667156831
 21
91.3960759928
 31
0.0
  0
ARC
  5
87
330
1F
100
AcDbEntity
  8
0
  6
Continuous
 62
     7
370
    15
100
AcDbCircle
 10
106.7512063424
 20
101.3682099731
 30
0.0
 40
0.500000000000005
100
AcDbArc
 50
194.3079804814
 51
261.7028550302
  0
ARC
  5
88
330
1F
100
AcDbEntity
  8
0
  6
Continuous
 62
     7
370
    15
100
AcDbCircle
 10
106.7512063424
 20
125.8739420124
 30
0.0
 40
0.500000000000019
100
AcDbArc
 50
98.2971449698
 51
165.6920195186
  0
ARC
  5
89
330
1F
100
AcDbEntity
  8
0
  6
Continuous
 62
     7
370
    15
100
AcDbCircle
 10
100.7983408332
 20
101.4710759928
 30
0.0
 40
0.5000000000000033
100
AcDbArc
 50
270.0
 51
339.5126848853
  0
ARC
  5
8A
330
1F
100
AcDbEntity
  8
0
  6
Continuous
 62
     7
370
    15
100
AcDbCircle
 10
100.7983408332
 20
125.7710759928
 30
0.0
 40
0.5000000000000033
100
AcDbArc
 50
20.4873151147
 51
90.0
  0
LINE
  5
8B
330
1F
100
AcDbEntity
  8
0
  6
Continuous
 62
     7
370
    15
100
AcDbLine
 10
96.6667156831
 20
100.9710759928
 30
0.0
 11
100.7983408332
 21
100.9710759928
 31
0.0
  0
LINE
  5
8C
330
1F
100
AcDbEntity
  8
0
  6
Continuous
 62
     7
370
    15
100
AcDbLine
 10
100.7983408332
 20
126.2710759928
 30
0.0
 11
96.6667156831
 21
126.2710759928
 31
0.0
  0
LINE
  5
8D
330
1F
100
AcDbEntity
  8
0
  6
Continuous
 62
     7
370
    15
100
AcDbLine
 10
89.1495737417
 20
101.1660759928
 30
0.0
 11
89.567416264
 21
102.7254855153
 31
0.0
  0
LINE
  5
8E
330
1F
100
AcDbEntity
  8
0
  6
Continuous
 62
     7
370
    15
100
AcDbLine
 10
89.567416264
 20
124.5166664702
 30
0.0
 11
89.1495737417
 21
126.0760759928
 31
0.0
  0
LINE
  5
8F
330
1F
100
AcDbEntity
  8
0
  6
Continuous
 62
     7
370
    15
100
AcDbLine
 10
86.0667156831
 20
101.1660759928
 30
0.0
 11
89.1495737417
 21
101.1660759928
 31
0.0
  0
LINE
  5
90
330
1F
100
AcDbEntity
  8
0
  6
Continuous
 62
     7
370
    15
100
AcDbLine
 10
89.1495737417
 20
126.0760759928
 30
0.0
 11
86.0667156831
 21
126.0760759928
 31
0.0
  0
ARC
  5
91
330
1F
100
AcDbEntity
  8
0
  6
Continuous
 62
     7
370
    15
100
AcDbCircle
 10
105.7822250238
 20
101.1210759928
 30
0.0
 40
0.4999999999999858
100
AcDbArc
 50
14.3079804814
 51
90.0
  0
ARC
  5
92
330
1F
100
AcDbEntity
  8
0
  6
Continuous
 62
     7
370
    15
100
AcDbCircle
 10
105.7822250238
 20
126.1210759928
 30
0.0
 40
0.5
100
AcDbArc
 50
270.0
 51
345.6920195186
  0
ARC
  5
93
330
1F
100
AcDbEntity
  8
0
  6
Continuous
 62
     7
370
    15
100
AcDbCircle
 10
101.735090533
 20
101.1210759928
 30
0.0
 40
0.5
100
AcDbArc
 50
90.0
 51
159.5126848853
  0
ARC
  5
94
330
1F
100
AcDbEntity
  8
0
  6
Continuous
 62
     7
370
    15
100
AcDbCircle
 10
101.735090533
 20
126.1210759928
 30
0.0
 40
0.5000000000000033
100
AcDbArc
 50
200.4873151147
 51
270.0
  0
LINE
  5
95
330
1F
100
AcDbEntity
  8
0
  6
Continuous
 62
     7
370
    15
100
AcDbLine
 10
101.735090533
 20
101.6210759928
 30
0.0
 11
105.7822250238
 21
101.6210759928
 31
0.0
  0
LINE
  5
96
330
1F
100
AcDbEntity
  8
0
  6
Continuous
 62
     7
370
    15
100
AcDbLine
 10
105.7822250238
 20
125.6210759928
 30
0.0
 11
101.735090533
 21
125.6210759928
 31
0.0
  0
ARC
  5
97
330
1F
100
AcDbEntity
  8
0
  6
Continuous
 62
     7
370
    15
100
AcDbCircle
 10
85.2667156831
 20
102.1460759928
 30
0.0
 40
0.7999999999999972
100
AcDbArc
 50
0.0
 51
90.0
  0
ARC
  5
98
330
1F
100
AcDbEntity
  8
0
  6
Continuous
 62
     7
370
    15
100
AcDbCircle
 10
85.2667156831
 20
125.0960759928
 30
0.0
 40
0.7999999999999972
100
AcDbArc
 50
270.0
 51
0.0
  0
ARC
  5
99
330
1F
100
AcDbEntity
  8
0
  6
Continuous
 62
     7
370
    15
100
AcDbCircle
 10
96.1667156831
 20
102.5960759928
 30
0.0
 40
0.5
100
AcDbArc
 50
0.0
 51
90.0
  0
ARC
  5
9A
330
1F
100
AcDbEntity
  8
0
  6
Continuous
 62
     7
370
    15
100
AcDbCircle
 10
96.1667156831
 20
124.6460759928
 30
0.0
 40
0.5
100
AcDbArc
 50
270.0
 51
0.0
  0
ARC
  5
9B
330
1F
100
AcDbEntity
  8
0
  6
Continuous
 62
     7
370
    15
100
AcDbCircle
 10
90.0503791771
 20
102.5960759928
 30
0.0
 40
0.5000000000000014
100
AcDbArc
 50
90.0
 51
165.0
  0
ARC
  5
9C
330
1F
100
AcDbEntity
  8
0
  6
Continuous
 62
     7
370
    15
100
AcDbCircle
 10
90.0503791771
 20
124.6460759928
 30
0.0
 40
0.5
100
AcDbArc
 50
195.0
 51
270.0
  0
LINE
  5
9D
330
1F
100
AcDbEntity
  8
0
  6
Continuous
 62
     7
370
    15
100
AcDbLine
 10
78.4667156831
 20
102.8710759928
 30
0.0
 11
84.0667156831
 21
102.8710759928
 31
0.0
  0
LINE
  5
9E
330
1F
100
AcDbEntity
  8
0
  6
Continuous
 62
     7
370
    15
100
AcDbLine
 10
84.0667156831
 20
124.3710759928
 30
0.0
 11
78.4667156831
 21
124.3710759928
 31
0.0
  0
ARC
  5
9F
330
1F
100
AcDbEntity
  8
0
  6
Continuous
 62
     7
370
    15
100
AcDbCircle
 10
78.4667156831
 20
103.0710759928
 30
0.0
 40
0.2000000000000171
100
AcDbArc
 50
180.0
 51
270.0
  0
ARC
  5
A0
330
1F
100
AcDbEntity
  8
0
  6
Continuous
 62
     7
370
    15
100
AcDbCircle
 10
78.4667156831
 20
124.1710759928
 30
0.0
 40
0.2000000000000171
100
AcDbArc
 50
90.0
 51
180.0
  0
ARC
  5
A1
330
1F
100
AcDbEntity
  8
0
  6
Continuous
 62
     7
370
    15
100
AcDbCircle
 10
84.4049094146
 20
102.1460759928
 30
0.0
 40
0.7999999999999972
100
AcDbArc
 50
90.0
 51
115.0078332347
  0
ARC
  5
A2
330
1F
100
AcDbEntity
  8
0
  6
Continuous
 62
     7
370
    15
100
AcDbCircle
 10
84.4049094146
 20
125.0960759928
 30
0.0
 40
0.8000000000000007
100
AcDbArc
 50
244.9921667653
 51
270.0
  0
LINE
  5
A3
330
1F
100
AcDbEntity
  8
0
  6
Continuous
 62
     7
370
    15
100
AcDbLine
 10
84.4049094146
 20
102.9460759928
 30
0.0
 11
85.2667156831
 21
102.9460759928
 31
0.0
  0
LINE
  5
A4
330
1F
100
AcDbEntity
  8
0
  6
Continuous
 62
     7
370
    15
100
AcDbLine
 10
85.2667156831
 20
124.2960759928
 30
0.0
 11
84.4049094146
 21
124.2960759928
 31
0.0
  0
LINE
  5
A5
330
1F
100
AcDbEntity
  8
0
  6
Continuous
 62
     7
370
    15
100
AcDbLine
 10
90.0503791771
 20
103.0960759928
 30
0.0
 11
96.1667156831
 21
103.0960759928
 31
0.0
  0
LINE
  5
A6
330
1F
100
AcDbEntity
  8
0
  6
Continuous
 62
     7
370
    15
100
AcDbLine
 10
96.1667156831
 20
124.1460759928
 30
0.0
 11
90.0503791771
 21
124.1460759928
 31
0.0
  0
LINE
  5
A7
330
1F
100
AcDbEntity
  8
0
  6
Continuous
 62
     7
370
    15
100
AcDbLine
 10
203.2426192138
 20
138.2951724621
 30
0.0
 11
202.9167156831
 21
138.6210759928
 31
0.0
  0
LINE
  5
A8
330
1F
100
AcDbEntity
  8
0
  6
Continuous
 62
     7
370
    15
100
AcDbLine
 10
192.3167156831
 20
138.6210759928
 30
0.0
 11
191.991617462
 21
138.2959777716
 31
0.0
  0
ARC
  5
A9
330
1F
100
AcDbEntity
  8
0
  6
Continuous
 62
     7
370
    15
100
AcDbCircle
 10
182.3167156831
 20
113.6210759928
 30
0.0
 40
31.40000000000008
100
AcDbArc
 50
254.3887887701
 51
255.1452547234
  0
ARC
  5
AA
330
1F
100
AcDbEntity
  8
0
  6
Continuous
 62
     7
370
    15
100
AcDbCircle
 10
182.3167156831
 20
113.6210759928
 30
0.0
 40
31.40000000000007
100
AcDbArc
 50
104.8547452766
 51
105.6112112299
  0
LINE
  5
AB
330
1F
100
AcDbEntity
  8
0
  6
Continuous
 62
     7
370
    15
100
AcDbLine
 10
182.2667156831
 20
143.9716525936
 30
0.0
 11
174.2667156831
 21
143.9716525936
 31
0.0
  0
ARC
  5
AC
330
1F
100
AcDbEntity
  8
0
  6
Continuous
 62
     7
370
    15
100
AcDbCircle
 10
174.2167156831
 20
113.6210759928
 30
0.0
 40
31.39999999999997
100
AcDbArc
 50
74.3887887701
 51
75.1452547234
  0
ARC
  5
AD
330
1F
100
AcDbEntity
  8
0
  6
Continuous
 62
     7
370
    15
100
AcDbCircle
 10
174.2167156831
 20
113.6210759928
 30
0.0
 40
31.4
100
AcDbArc
 50
284.8547452766
 51
285.6112112299
  0
LINE
  5
AE
330
1F
100
AcDbEntity
  8
0
  6
Continuous
 62
     7
370
    15
100
AcDbLine
 10
182.2667156831
 20
83.270499392
 30
0.0
 11
174.2667156831
 21
83.270499392
 31
0.0
  0
LINE
  5
AF
330
1F
100
AcDbEntity
  8
0
  6
Continuous
 62
     7
370
    15
100
AcDbLine
 10
173.2667156831
 20
84.1806700853
 30
0.0
 11
173.2667156831
 21
143.0614819003
 31
0.0
  0
SPLINE
  5
B0
330
1F
100
AcDbEntity
  8
0
  6
Continuous
 62
     7
370
    15
100
AcDbSpline
210
0.0
220
0.0
230
1.0
 70
     8
 71
     3
 72
    14
 73
    10
 74
     0
 42
0.000000001
 43
0.00000001
 40
0.0
 40
0.0
 40
0.0
 40
0.0
 40
0.25
 40
0.25
 40
0.5
 40
0.5
 40
0.75
 40
0.75
 40
1.0
 40
1.0
 40
1.0
 40
1.0
 10
173.8667156831171
 20
143.8627277333828
 30
0.0
 10
173.7938021145862
 20
143.8423545190037
 30
0.0
 10
173.7243077273829
 20
143.8092972587581
 30
0.0
 10
173.5915885285652
 20
143.7199246607599
 30
0.0
 10
173.5283536033074
 20
143.6630358889899
 30
0.0
 10
173.4171067145474
 20
143.5292286686641
 30
0.0
 10
173.3669647866852
 20
143.4499990193223
 30
0.0
 10
173.2919564927047
 20
143.26973355724
 30
0.0
 10
173.2667156831171
 20
143.1672180937176
 30
0.0
 10
173.2667156831171
 20
143.0614819003062
 30
0.0
  0
SPLINE
  5
B1
330
1F
100
AcDbEntity
  8
0
  6
Continuous
 62
     7
370
    15
100
AcDbSpline
210
0.0
220
0.0
230
1.0
 70
     8
 71
     3
 72
    14
 73
    10
 74
     0
 42
0.000000001
 43
0.00000001
 40
0.0
 40
0.0
 40
0.0
 40
0.0
 40
0.2500000000000003
 40
0.2500000000000003
 40
0.5000000000000002
 40
0.5000000000000002
 40
0.7500000000000001
 40
0.7500000000000001
 40
1.0
 40
1.0
 40
1.0
 40
1.0
 10
173.8667156831171
 20
83.37942425217402
 30
0.0
 10
173.7938021145862
 20
83.39979746655304
 30
0.0
 10
173.7243077273829
 20
83.43285472679868
 30
0.0
 10
173.5915885285652
 20
83.52222732479686
 30
0.0
 10
173.5283536033074
 20
83.57911609656689
 30
0.0
 10
173.4171067145474
 20
83.71292331689268
 30
0.0
 10
173.3669647866852
 20
83.79215296623447
 30
0.0
 10
173.2919564927047
 20
83.97241842831681
 30
0.0
 10
173.2667156831171
 20
84.07493389183922
 30
0.0
 10
173.2667156831171
 20
84.18067008525055
 30
0.0
  0
SPLINE
  5
B2
330
1F
100
AcDbEntity
  8
0
  6
Continuous
 62
     7
370
    15
100
AcDbSpline
210
0.0
220
0.0
230
1.0
 70
     8
 71
     3
 72
    12
 73
     8
 74
     0
 42
0.000000001
 43
0.00000001
 40
0.0
 40
0.0
 40
0.0
 40
0.0
 40
0.2499999999999994
 40
0.2499999999999994
 40
0.4999999999999989
 40
0.4999999999999989
 40
1.0
 40
1.0
 40
1.0
 40
1.0
 10
183.2667156831172
 20
143.0614819003062
 30
0.0
 10
183.2667156831172
 20
143.1674300575364
 30
0.0
 10
183.2416469428916
 20
143.2689479409077
 30
0.0
 10
183.167291992085
 20
143.4483824645482
 30
0.0
 10
183.1171953214815
 20
143.5280177550505
 30
0.0
 10
182.9498383965923
 20
143.7298017880713
 30
0.0
 10
182.8123004809494
 20
143.8220490180721
 30
0.0
 10
182.6667156831172
 20
143.8627277333828
 30
0.0
  0
LINE
  5
B3
330
1F
100
AcDbEntity
  8
0
  6
Continuous
 62
     7
370
    15
100
AcDbLine
 10
183.2667156831
 20
84.1806700853
 30
0.0
 11
183.2667156831
 21
143.0614819003
 31
0.0
  0
SPLINE
  5
B4
330
1F
100
AcDbEntity
  8
0
  6
Continuous
 62
     7
370
    15
100
AcDbSpline
210
0.0
220
0.0
230
1.0
 70
     8
 71
     3
 72
    14
 73
    10
 74
     0
 42
0.000000001
 43
0.00000001
 40
0.0
 40
0.0
 40
0.0
 40
0.0
 40
0.25
 40
0.25
 40
0.5
 40
0.5
 40
0.75
 40
0.75
 40
1.0
 40
1.0
 40
1.0
 40
1.0
 10
182.6667156831172
 20
83.37942425217402
 30
0.0
 10
182.7396506566971
 20
83.39980344746523
 30
0.0
 10
182.8091622214299
 20
83.43287324427365
 30
0.0
 10
182.941908992767
 20
83.5222793431616
 30
0.0
 10
183.0051577995057
 20
83.57919251572984
 30
0.0
 10
183.1164184618216
 20
83.71305603075209
 30
0.0
 10
183.1665534652016
 20
83.79229241688026
 30
0.0
 10
183.2415745928345
 20
83.97272761313832
 30
0.0
 10
183.2667156831172
 20
84.07448481756315
 30
0.0
 10
183.2667156831172
 20
84.18067008525057
 30
0.0
  0
SPLINE
  5
B5
330
1F
100
AcDbEntity
  8
0
  6
Continuous
 62
     7
370
    15
100
AcDbSpline
210
0.0
220
0.0
230
1.0
 70
     8
 71
     3
 72
    18
 73
    14
 74
     0
 42
0.000000001
 43
0.00000001
 40
0.0
 40
0.0
 40
0.0
 40
0.0
 40
0.1249999999999995
 40
0.1249999999999995
 40
0.1874999999999993
 40
0.1874999999999993
 40
0.249999999999999
 40
0.249999999999999
 40
0.4999999999999993
 40
0.4999999999999993
 40
0.7499999999999997
 40
0.7499999999999997
 40
1.0
 40
1.0
 40
1.0
 40
1.0
 10
183.2667156831172
 20
140.1181984780597
 30
0.0
 10
183.2667156831172
 20
139.8395092144782
 30
0.0
 10
183.3005457804571
 20
139.5703942320646
 30
0.0
 10
183.3869230443098
 20
139.1768060307836
 30
0.0
 10
183.4220852086286
 20
139.0466184155291
 30
0.0
 10
183.5013710395509
 20
138.7951042128451
 30
0.0
 10
183.5455523345915
 20
138.6732069635495
 30
0.0
 10
183.7854326573879
 20
138.0798578081137
 30
0.0
 10
184.039137481404
 20
137.6517758583674
 30
0.0
 10
184.5955378717881
 20
136.8969773272436
 30
0.0
 10
184.9017766282858
 20
136.5641469697605
 30
0.0
 10
185.5591799483634
 20
135.9753992826996
 30
0.0
 10
185.9037806775756
 20
135.7250144876931
 30
0.0
 10
186.2667156831172
 20
135.525356396389
 30
0.0
  0
SPLINE
  5
B6
330
1F
100
AcDbEntity
  8
0
  6
Continuous
 62
     7
370
    15
100
AcDbSpline
210
0.0
220
0.0
230
1.0
 70
     8
 71
     3
 72
    20
 73
    16
 74
     0
 42
0.000000001
 43
0.00000001
 40
0.0
 40
0.0
 40
0.0
 40
0.0
 40
0.2499999999999997
 40
0.2499999999999997
 40
0.3749999999999997
 40
0.3749999999999997
 40
0.4999999999999998
 40
0.4999999999999998
 40
0.6249999999999998
 40
0.6249999999999998
 40
0.7499999999999999
 40
0.7499999999999999
 40
0.8749999999999999
 40
0.8749999999999999
 40
1.0
 40
1.0
 40
1.0
 40
1.0
 10
186.2667156831172
 20
91.71679558916779
 30
0.0
 10
185.9032011316653
 20
91.51681867761067
 30
0.0
 10
185.5606250281372
 20
91.26743102818821
 30
0.0
 10
185.0729332291322
 20
90.83158779212577
 30
0.0
 10
184.914883161514
 20
90.67565485327953
 30
0.0
 10
184.608581533392
 20
90.340666370308
 30
0.0
 10
184.4597940519896
 20
90.16077713478033
 30
0.0
 10
184.1797149429836
 20
89.78132654985583
 30
0.0
 10
184.0477487336296
 20
89.58123970126319
 30
0.0
 10
183.8037076538813
 20
89.15553690537881
 30
0.0
 10
183.6908371906993
 20
88.92801922261143
 30
0.0
 10
183.4978557958131
 20
88.45125517191426
 30
0.0
 10
183.416960057009
 20
88.20139713796169
 30
0.0
 10
183.3004768699052
 20
87.67225155838207
 30
0.0
 10
183.2667156831172
 20
87.402010865419
 30
0.0
 10
183.2667156831172
 20
87.12395350749709
 30
0.0
  0
SPLINE
  5
B7
330
1F
100
AcDbEntity
  8
0
  6
Continuous
 62
     7
370
    15
100
AcDbSpline
210
0.0
220
0.0
230
1.0
 70
     8
 71
     3
 72
    17
 73
    13
 74
     0
 42
0.000000001
 43
0.00000001
 40
0.0
 40
0.0
 40
0.0
 40
0.0
 40
0.0233657348999994
 40
0.1376539299791937
 40
0.2485788050194257
 40
0.3625283273512773
 40
0.4771263058807362
 40
0.5948868676771458
 40
0.7120582237798668
 40
0.8328473594146826
 40
0.9461457093029283
 40
0.9999999999999999
 40
0.9999999999999999
 40
0.9999999999999999
 40
0.9999999999999999
 10
184.2870898552366
 20
89.92474292190889
 30
0.0
 10
184.3779804241349
 20
89.92263379368131
 30
0.0
 10
184.9134416052379
 20
89.91020834288355
 30
0.0
 10
185.850733099543
 20
89.8188483484936
 30
0.0
 10
187.0620147352867
 20
89.66034773187346
 30
0.0
 10
188.1679907147532
 20
89.45747715572465
 30
0.0
 10
189.1618986623657
 20
89.23500105339353
 30
0.0
 10
190.0013613856297
 20
89.01663282155262
 30
0.0
 10
190.6685479269976
 20
88.82405155278038
 30
0.0
 10
191.1025936894425
 20
88.68984883437123
 30
0.0
 10
191.3137862308376
 20
88.62202758204108
 30
0.0
 10
191.2941808208715
 20
88.62832267379605
 30
0.0
 10
191.2878642263873
 20
88.63035086611268
 30
0.0
  0
SPLINE
  5
B8
330
1F
100
AcDbEntity
  8
0
  6
Continuous
 62
     7
370
    15
100
AcDbSpline
210
0.0
220
0.0
230
1.0
 70
     8
 71
     3
 72
    15
 73
    11
 74
     0
 42
0.000000001
 43
0.00000001
 40
0.0
 40
0.0
 40
0.0
 40
0.0
 40
0.0306768260517305
 40
0.1742264447096668
 40
0.3175173832118516
 40
0.4608379089127496
 40
0.6089165250437429
 40
0.7569890691841707
 40
0.8785022650371316
 40
0.9999999999999999
 40
0.9999999999999999
 40
0.9999999999999999
 40
0.9999999999999999
 10
184.2979593701775
 20
137.3185272858889
 30
0.0
 10
184.3915708109656
 20
137.3207682193459
 30
0.0
 10
184.9232290889492
 20
137.3334954117999
 30
0.0
 10
185.8625182835986
 20
137.4242617693328
 30
0.0
 10
187.0666378903637
 20
137.5831088020512
 30
0.0
 10
188.1776995245058
 20
137.7864630918161
 30
0.0
 10
189.1657033755968
 20
138.0082410225896
 30
0.0
 10
189.9507740965395
 20
138.2124258827949
 30
0.0
 10
190.5465523027361
 20
138.3822483433934
 30
0.0
 10
190.8017444495972
 20
138.4601124641992
 30
0.0
 10
190.9293324050848
 20
138.4990420476587
 30
0.0
  0
SPLINE
  5
B9
330
1F
100
AcDbEntity
  8
0
  6
Continuous
 62
     7
370
    15
100
AcDbSpline
210
0.0
220
0.0
230
1.0
 70
     8
 71
     3
 72
    25
 73
    21
 74
     0
 42
0.000000001
 43
0.00000001
 40
0.0
 40
0.0
 40
0.0
 40
0.0
 40
0.0066492270435388
 40
0.059412787930044
 40
0.1076554427031537
 40
0.1571588390396555
 40
0.2082584923677658
 40
0.2605418332787417
 40
0.3179504377750362
 40
0.3766987151568843
 40
0.4407631686079113
 40
0.5064816096295973
 40
0.574305943117101
 40
0.6440493878404445
 40
0.7126551463299334
 40
0.7833046149107364
 40
0.8507951278191876
 40
0.9205580679452297
 40
0.9599983500367293
 40
1.0
 40
1.0
 40
1.0
 40
1.0
 10
204.857257774618
 20
138.618957080574
 30
0.0
 10
204.8603100373858
 20
138.6196408323848
 30
0.0
 10
204.8875828977261
 20
138.6257503547498
 30
0.0
 10
204.7764585041178
 20
138.6007284615415
 30
0.0
 10
204.5248211852022
 20
138.5453893278804
 30
0.0
 10
204.1226192219979
 20
138.4605402339708
 30
0.0
 10
203.5852167118812
 20
138.3545057080384
 30
0.0
 10
202.9004821453141
 20
138.2315290445946
 30
0.0
 10
202.0741912056341
 20
138.1017905946469
 30
0.0
 10
201.0920439822394
 20
137.9749629494444
 30
0.0
 10
199.9825426895264
 20
137.8682532584442
 30
0.0
 10
198.7596304715622
 20
137.7971742855468
 30
0.0
 10
197.4708522642781
 20
137.7753975585492
 30
0.0
 10
196.1673326753699
 20
137.8096437903545
 30
0.0
 10
194.8872053242916
 20
137.8975147166823
 30
0.0
 10
193.6982145012544
 20
138.0267842784592
 30
0.0
 10
192.6175578482645
 20
138.1827645632026
 30
0.0
 10
191.8323722963666
 20
138.320076742711
 30
0.0
 10
191.2767469706073
 20
138.4273106531005
 30
0.0
 10
191.0456815266313
 20
138.475019207017
 30
0.0
 10
190.9293324050848
 20
138.4990420476587
 30
0.0
  0
SPLINE
  5
BA
330
1F
100
AcDbEntity
  8
0
  6
Continuous
 62
     7
370
    15
100
AcDbSpline
210
0.0
220
0.0
230
1.0
 70
    11
 71
     3
 72
    95
 73
    91
 74
     0
 42
0.000000001
 43
0.00000001
 40
0.0
 40
0.0
 40
0.0
 40
0.0
 40
0.0312500000000003
 40
0.0312500000000003
 40
0.0468750000000004
 40
0.0468750000000004
 40
0.0625000000000004
 40
0.0625000000000004
 40
0.0937500000000007
 40
0.0937500000000007
 40
0.1093750000000007
 40
0.1093750000000007
 40
0.1250000000000007
 40
0.1250000000000007
 40
0.1562500000000005
 40
0.1562500000000005
 40
0.1718750000000004
 40
0.1718750000000004
 40
0.1875000000000003
 40
0.1875000000000003
 40
0.2187500000000001
 40
0.2187500000000001
 40
0.2343750000000001
 40
0.2343750000000001
 40
0.2500000000000001
 40
0.2500000000000001
 40
0.28125
 40
0.28125
 40
0.2968750000000001
 40
0.2968750000000001
 40
0.3125000000000002
 40
0.3125000000000002
 40
0.3437500000000002
 40
0.3437500000000002
 40
0.3593750000000002
 40
0.3593750000000002
 40
0.3750000000000003
 40
0.3906250000000003
 40
0.3906250000000003
 40
0.4062500000000004
 40
0.4062500000000004
 40
0.4375000000000006
 40
0.4375000000000006
 40
0.4531250000000007
 40
0.4531250000000007
 40
0.4687500000000008
 40
0.4687500000000008
 40
0.5000000000000007
 40
0.5000000000000007
 40
0.5312500000000007
 40
0.5312500000000007
 40
0.5468750000000006
 40
0.5468750000000006
 40
0.5625000000000006
 40
0.5625000000000006
 40
0.5937500000000004
 40
0.5937500000000004
 40
0.6250000000000002
 40
0.6250000000000002
 40
0.6562500000000001
 40
0.6562500000000001
 40
0.6875
 40
0.6875
 40
0.7187499999999999
 40
0.7187499999999999
 40
0.7499999999999998
 40
0.7499999999999998
 40
0.7656249999999998
 40
0.7656249999999998
 40
0.7812499999999999
 40
0.7812499999999999
 40
0.8125
 40
0.8125
 40
0.828125
 40
0.828125
 40
0.8437500000000001
 40
0.8437500000000001
 40
0.8750000000000001
 40
0.8750000000000001
 40
0.8906250000000002
 40
0.8906250000000002
 40
0.9062500000000002
 40
0.9062500000000002
 40
0.9218750000000003
 40
0.9218750000000003
 40
0.9375000000000003
 40
0.9375000000000003
 40
0.9687500000000002
 40
0.9687500000000002
 40
1.0
 40
1.0
 40
1.0
 40
1.0
 10
192.7669854894174
 20
118.378015561478
 30
0.0
 10
193.1181272524973
 20
118.6584000157404
 30
0.0
 10
193.4901759262142
 20
118.9013762506012
 30
0.0
 10
194.0770219261659
 20
119.2152434056248
 30
0.0
 10
194.2774743157325
 20
119.3113563765599
 30
0.0
 10
194.6880619377947
 20
119.4866789427319
 30
0.0
 10
194.899184871526
 20
119.5661934116289
 30
0.0
 10
195.5397097528102
 20
119.776392677856
 30
0.0
 10
195.9740164431902
 20
119.8787113350191
 30
0.0
 10
196.6360161037645
 20
119.9780393724497
 30
0.0
 10
196.8584504379043
 20
120.0020620071312
 30
0.0
 10
197.3069180672856
 20
120.0316504447025
 30
0.0
 10
197.5337740154534
 20
120.0371362638201
 30
0.0
 10
198.2077611264577
 20
120.0253644062575
 30
0.0
 10
198.6515716158857
 20
119.9805882948009
 30
0.0
 10
199.3091581365208
 20
119.858749831302
 30
0.0
 10
199.5269909876589
 20
119.8089686085274
 30
0.0
 10
199.9598560313357
 20
119.6904748914415
 30
0.0
 10
200.1753564734005
 20
119.6214892568835
 30
0.0
 10
200.8050175989056
 20
119.3896014268442
 30
0.0
 10
201.2065879089878
 20
119.2010936487543
 30
0.0
 10
201.7813974039683
 20
118.8662210545223
 30
0.0
 10
201.9683798243298
 20
118.745853925853
 30
0.0
 10
202.3326505187545
 20
118.4866183313544
 30
0.0
 10
202.5099870159121
 20
118.3475123693518
 30
0.0
 10
203.0149578240927
 20
117.9108444065665
 30
0.0
 10
203.3200756643772
 20
117.5913622197245
 30
0.0
 10
203.7278818238882
 20
117.0665353600758
 30
0.0
 10
203.8554443438962
 20
116.8839371929259
 30
0.0
 10
204.0924754171843
 20
116.5020791673745
 30
0.0
 10
204.2007754688844
 20
116.3044089599734
 30
0.0
 10
204.4890257722789
 20
115.7014433592524
 30
0.0
 10
204.6353201432055
 20
115.2822781241101
 30
0.0
 10
204.7808680498008
 20
114.6256238419975
 30
0.0
 10
204.8170233257162
 20
114.4003735266841
 30
0.0
 10
204.8614628023727
 20
113.9521596647261
 30
0.0
 10
204.8788004831736
 20
113.5046609010646
 30
0.0
 10
204.8430052976515
 20
113.0585647336598
 30
0.0
 10
204.7803201615884
 20
112.6131777283454
 30
0.0
 10
204.7350954307188
 20
112.3897134634461
 30
0.0
 10
204.5625927438502
 20
111.7373965859541
 30
0.0
 10
204.398763418502
 20
111.3216350427271
 30
0.0
 10
204.0838207010598
 20
110.7248451299385
 30
0.0
 10
203.9674112043678
 20
110.5311413865789
 30
0.0
 10
203.7172523992885
 20
110.160748469518
 30
0.0
 10
203.5829483760612
 20
109.9829673195984
 30
0.0
 10
203.1535602604766
 20
109.470750511276
 30
0.0
 10
202.8288055030945
 20
109.155017284242
 30
0.0
 10
202.1332858061161
 20
108.5966343083938
 30
0.0
 10
201.7616203210642
 20
108.3517554830495
 30
0.0
 10
201.1694581884608
 20
108.0333407452546
 30
0.0
 10
200.9657364195971
 20
107.9352944391122
 30
0.0
 10
200.5539741763158
 20
107.7588384062475
 30
0.0
 10
200.3451084923519
 20
107.6799310243919
 30
0.0
 10
199.7097922163304
 20
107.4702526904425
 30
0.0
 10
199.2746933758494
 20
107.3662942981977
 30
0.0
 10
198.3808273929067
 20
107.2310660337213
 30
0.0
 10
197.9324630036712
 20
107.2015566976467
 30
0.0
 10
197.0393176762033
 20
107.215956689185
 30
0.0
 10
196.5931155147788
 20
107.2597674772672
 30
0.0
 10
195.7036986061923
 20
107.4239844258064
 30
0.0
 10
195.2727898465602
 20
107.5420506102425
 30
0.0
 10
194.4377346699522
 20
107.8486638538601
 30
0.0
 10
194.0324542763235
 20
108.037811500409
 30
0.0
 10
193.2553615022453
 20
108.4904864996171
 30
0.0
 10
192.8935497586613
 20
108.7479311550004
 30
0.0
 10
192.3911400847772
 20
109.1818049394386
 30
0.0
 10
192.2304361365988
 20
109.3344373518833
 30
0.0
 10
191.9232463616859
 20
109.6566730111879
 30
0.0
 10
191.775966945693
 20
109.8273205850385
 30
0.0
 10
191.3632213207857
 20
110.3593595803265
 30
0.0
 10
191.1290504485137
 20
110.736430559509
 30
0.0
 10
190.8415702870624
 20
111.3372959224794
 30
0.0
 10
190.7564531498014
 20
111.5435038612839
 30
0.0
 10
190.609164117627
 20
111.9686613540701
 30
0.0
 10
190.5471457003453
 20
112.1880513179212
 30
0.0
 10
190.4025344924687
 20
112.8458748756034
 30
0.0
 10
190.3583721371799
 20
113.2903960795138
 30
0.0
 10
190.372809404955
 20
113.9664220357426
 30
0.0
 10
190.3914935748573
 20
114.1942544043042
 30
0.0
 10
190.4551510676865
 20
114.6402300931892
 30
0.0
 10
190.5000404495471
 20
114.8598824072942
 30
0.0
 10
190.6150489972864
 20
115.2927591402461
 30
0.0
 10
190.6851702753717
 20
115.5059829916778
 30
0.0
 10
190.8505970448948
 20
115.9260384207075
 30
0.0
 10
190.9456077444117
 20
116.1317085837211
 30
0.0
 10
191.260499007282
 20
116.7254058222568
 30
0.0
 10
191.5116395695937
 20
117.0949147153874
 30
0.0
 10
192.0921807782471
 20
117.7846900128983
 30
0.0
 10
192.4158437263374
 20
118.0976311072155
 30
0.0
 10
192.7669854894174
 20
118.378015561478
 30
0.0
  0
LINE
  5
BB
330
1F
100
AcDbEntity
  8
0
  6
Continuous
 62
     7
370
    15
100
AcDbLine
 10
211.1667156831
 20
113.6210759928
 30
0.0
 11
211.1667156831
 21
88.6210759928
 31
0.0
  0
LINE
  5
BC
330
1F
100
AcDbEntity
  8
0
  6
Continuous
 62
     7
370
    15
100
AcDbLine
 10
211.1667156831
 20
138.6210759928
 30
0.0
 11
211.1667156831
 21
113.6210759928
 31
0.0
  0
LINE
  5
BD
330
1F
100
AcDbEntity
  8
0
  6
Continuous
 62
     7
370
    15
100
AcDbLine
 10
211.6667156831
 20
113.6210759928
 30
0.0
 11
211.6667156831
 21
89.1210759928
 31
0.0
  0
LINE
  5
BE
330
1F
100
AcDbEntity
  8
0
  6
Continuous
 62
     7
370
    15
100
AcDbLine
 10
211.6667156831
 20
138.1210759928
 30
0.0
 11
211.6667156831
 21
113.6210759928
 31
0.0
  0
LINE
  5
BF
330
1F
100
AcDbEntity
  8
0
  6
Continuous
 62
     7
370
    15
100
AcDbLine
 10
171.6667156831
 20
91.3960759928
 30
0.0
 11
171.6667156831
 21
135.8460759928
 31
0.0
  0
LINE
  5
C0
330
1F
100
AcDbEntity
  8
0
  6
Continuous
 62
     7
370
    15
100
AcDbLine
 10
96.6667156831
 20
100.9710759928
 30
0.0
 11
96.6667156831
 21
126.2710759928
 31
0.0
  0
LINE
  5
C1
330
1F
100
AcDbEntity
  8
0
  6
Continuous
 62
     7
370
    15
100
AcDbLine
 10
89.1495737417
 20
101.1660759928
 30
0.0
 11
89.1495737417
 21
126.0760759928
 31
0.0
  0
LINE
  5
C2
330
1F
100
AcDbEntity
  8
0
  6
Continuous
 62
     7
370
    15
100
AcDbLine
 10
86.0667156831
 20
101.1660759928
 30
0.0
 11
86.0667156831
 21
126.0760759928
 31
0.0
  0
LINE
  5
C3
330
1F
100
AcDbEntity
  8
0
  6
Continuous
 62
     7
370
    15
100
AcDbLine
 10
84.0667156831
 20
102.8710759928
 30
0.0
 11
84.0667156831
 21
124.3710759928
 31
0.0
  0
LINE
  5
C4
330
1F
100
AcDbEntity
  8
0
  6
Continuous
 62
     7
370
    15
100
AcDbLine
 10
78.2667156831
 20
103.0710759928
 30
0.0
 11
78.2667156831
 21
124.1710759183
 31
0.0
  0
LINE
  5
C5
330
1F
100
AcDbEntity
  8
0
  6
Continuous
 62
     7
370
    15
100
AcDbLine
 10
194.711243549
 20
137.9210759928
 30
0.0
 11
200.4889910514
 21
137.9210759928
 31
0.0
  0
LINE
  5
C6
330
1F
100
AcDbEntity
  8
0
  6
Continuous
 62
     7
370
    15
100
AcDbLine
 10
202.7588352742
 20
138.6210759928
 30
0.0
 11
202.9167156831
 21
138.6210759928
 31
0.0
  0
LINE
  5
C7
330
1F
100
AcDbEntity
  8
0
  6
Continuous
 62
     7
370
    15
100
AcDbLine
 10
192.3167156831
 20
138.6210759928
 30
0.0
 11
202.7588352742
 21
138.6210759928
 31
0.0
  0
SPLINE
  5
C8
330
1F
100
AcDbEntity
  8
0
  6
Continuous
 62
     7
370
    15
100
AcDbSpline
210
0.0
220
0.0
230
1.0
 70
    24
 71
     3
 72
    15
 73
    11
 74
     0
 42
0.000000001
 43
0.00000001
 40
0.0
 40
0.0
 40
0.0
 40
0.0
 40
0.1077869592233269
 40
0.2161701819135352
 40
0.3273150562947917
 40
0.4399598612360032
 40
0.5934902695338462
 40
0.7521517812193704
 40
0.8755082115460593
 40
1.0
 40
1.0
 40
1.0
 40
1.0
 10
200.9469568833312
 20
114.5747497044831
 30
0.0
 10
200.8626239369004
 20
114.6562459778982
 30
0.0
 10
200.6934915251262
 20
114.819689351534
 30
0.0
 10
200.4268394261194
 20
115.07737218235
 30
0.0
 10
200.148039304956
 20
115.3467944172428
 30
0.0
 10
199.823218595641
 20
115.6606892644828
 30
0.0
 10
199.4526609935149
 20
116.0187825712745
 30
0.0
 10
199.0812971911553
 20
116.3776549604703
 30
0.0
 10
198.7476790662001
 20
116.7000513082591
 30
0.0
 10
198.553476641453
 20
116.8877214250389
 30
0.0
 10
198.4559306219665
 20
116.9819863287458
 30
0.0
  0
SPLINE
  5
C9
330
1F
100
AcDbEntity
  8
0
  6
Continuous
 62
     7
370
    15
100
AcDbSpline
210
0.0
220
0.0
230
1.0
 70
    24
 71
     3
 72
    11
 73
     7
 74
     0
 42
0.000000001
 43
0.00000001
 40
0.0
 40
0.0
 40
0.0
 40
0.0
 40
0.2164553779443399
 40
0.4403112895790675
 40
0.7519005688038798
 40
1.0
 40
1.0
 40
1.0
 40
1.0
 10
198.4559306219665
 20
116.9819863287458
 30
0.0
 10
198.2278058730473
 20
116.9166587554699
 30
0.0
 10
197.763756869805
 20
116.7837700820289
 30
0.0
 10
196.9026058595869
 20
116.5371641964851
 30
0.0
 10
195.9788669287233
 20
116.2726351483231
 30
0.0
 10
195.3877294831045
 20
116.1033524423573
 30
0.0
 10
195.1256894217524
 20
116.0283126170411
 30
0.0
  0
SPLINE
  5
CA
330
1F
100
AcDbEntity
  8
0
  6
Continuous
 62
     7
370
    15
100
AcDbSpline
210
0.0
220
0.0
230
1.0
 70
    24
 71
     3
 72
    13
 73
     9
 74
     0
 42
0.000000001
 43
0.00000001
 40
0.0
 40
0.0
 40
0.0
 40
0.0
 40
0.1844095697098912
 40
0.3495005370884481
 40
0.5197705331556608
 40
0.6927076360809771
 40
0.8718061725834235
 40
1.0
 40
1.0
 40
1.0
 40
1.0
 10
195.1256894217525
 20
116.0283126170411
 30
0.0
 10
195.0767777559622
 20
115.8324298753336
 30
0.0
 10
194.9840783722456
 20
115.4611849147776
 30
0.0
 10
194.8367236231404
 20
114.8710546914044
 30
0.0
 10
194.6878185547359
 20
114.274715708015
 30
0.0
 10
194.5356284308025
 20
113.6652206467601
 30
0.0
 10
194.4014214719999
 20
113.1277450441251
 30
0.0
 10
194.3203113640155
 20
112.802913123652
 30
0.0
 10
194.286474482903
 20
112.6674022810737
 30
0.0
  0
SPLINE
  5
CB
330
1F
100
AcDbEntity
  8
0
  6
Continuous
 62
     7
370
    15
100
AcDbSpline
210
0.0
220
0.0
230
1.0
 70
    24
 71
     3
 72
    11
 73
     7
 74
     0
 42
0.000000001
 43
0.00000001
 40
0.0
 40
0.0
 40
0.0
 40
0.0
 40
0.2164553779443581
 40
0.4403112895790622
 40
0.7519005688038768
 40
1.0
 40
1.0
 40
1.0
 40
1.0
 10
194.286474482903
 20
112.6674022810737
 30
0.0
 10
194.4571121953872
 20
112.5025042399157
 30
0.0
 10
194.8042216640835
 20
112.1670703512275
 30
0.0
 10
195.4483641307961
 20
111.5445946426558
 30
0.0
 10
196.1393224719752
 20
110.8768777861444
 30
0.0
 10
196.5814943185724
 20
110.4495790940931
 30
0.0
 10
196.7775007442678
 20
110.2601656568111
 30
0.0
  0
SPLINE
  5
CC
330
1F
100
AcDbEntity
  8
0
  6
Continuous
 62
     7
370
    15
100
AcDbSpline
210
0.0
220
0.0
230
1.0
 70
    24
 71
     3
 72
    11
 73
     7
 74
     0
 42
0.000000001
 43
0.00000001
 40
0.0
 40
0.0
 40
0.0
 40
0.0
 40
0.2164553779443518
 40
0.4403112895790509
 40
0.7519005688038728
 40
1.0
 40
1.0
 40
1.0
 40
1.0
 10
196.7775007442678
 20
110.2601656568111
 30
0.0
 10
197.005625493187
 20
110.325493230087
 30
0.0
 10
197.4696744964293
 20
110.4583819035279
 30
0.0
 10
198.3308255066474
 20
110.7049877890717
 30
0.0
 10
199.254564437511
 20
110.9695168372338
 30
0.0
 10
199.8457018831298
 20
111.1387995431995
 30
0.0
 10
200.1077419444819
 20
111.2138393685157
 30
0.0
  0
SPLINE
  5
CD
330
1F
100
AcDbEntity
  8
0
  6
Continuous
 62
     7
370
    15
100
AcDbSpline
210
0.0
220
0.0
230
1.0
 70
    24
 71
     3
 72
    15
 73
    11
 74
     0
 42
0.000000001
 43
0.00000001
 40
0.0
 40
0.0
 40
0.0
 40
0.0
 40
0.0640504367340781
 40
0.1282061551362657
 40
0.301597118861538
 40
0.4801922626499594
 40
0.6449121499732051
 40
0.8155191712969918
 40
0.9075602129381545
 40
1.0
 40
1.0
 40
1.0
 40
1.0
 10
200.1077419444819
 20
111.2138393685157
 30
0.0
 10
200.1245592918997
 20
111.2811899293121
 30
0.0
 10
200.1582216299253
 20
111.416001757088
 30
0.0
 10
200.2392658869455
 20
111.7405699558661
 30
0.0
 10
200.355165852005
 20
112.2047292224309
 30
0.0
 10
200.5058122609351
 20
112.8080419727304
 30
0.0
 10
200.6564330226779
 20
113.4112520104908
 30
0.0
 10
200.7774048307535
 20
113.8957231290337
 30
0.0
 10
200.8740740803766
 20
114.2828667142918
 30
0.0
 10
200.9226276337122
 20
114.4773152777044
 30
0.0
 10
200.9469568833312
 20
114.5747497044831
 30
0.0
  0
CIRCLE
  5
CE
330
1F
100
AcDbEntity
  8
0
  6
Continuous
 62
     7
370
    15
100
AcDbCircle
 10
197.6167156831
 20
113.6210759928
 30
0.0
 40
3.600000000000041
  0
CIRCLE
  5
CF
330
1F
100
AcDbEntity
  8
0
  6
Continuous
 62
     7
370
    15
100
AcDbCircle
 10
197.6167156831
 20
113.6210759928
 30
0.0
 40
5.300000000000036
  0
CIRCLE
  5
D0
330
1F
100
AcDbEntity
  8
0
  6
Continuous
 62
     7
370
    15
100
AcDbCircle
 10
197.6167156831
 20
113.6210759928
 30
0.0
 40
6.000000000000056
  0
ARC
  5
D1
330
1F
100
AcDbEntity
  8
0
  6
Continuous
 62
     7
370
    15
100
AcDbCircle
 10
197.6167156831
 20
113.6210759928
 30
0.0
 40
3.00000000000001
100
AcDbArc
 50
165.9800054644
 51
225.9800054644
  0
ARC
  5
D2
330
1F
100
AcDbEntity
  8
0
  6
Continuous
 62
     7
370
    15
100
AcDbCircle
 10
197.6167156831
 20
113.6210759928
 30
0.0
 40
3.000000000000045
100
AcDbArc
 50
45.9800054644
 51
105.9800054644
  0
ARC
  5
D3
330
1F
100
AcDbEntity
  8
0
  6
Continuous
 62
     7
370
    15
100
AcDbCircle
 10
197.6167156831
 20
113.6210759928
 30
0.0
 40
3.000000000000045
100
AcDbArc
 50
345.9800054644
 51
45.9800054644
  0
ARC
  5
D4
330
1F
100
AcDbEntity
  8
0
  6
Continuous
 62
     7
370
    15
100
AcDbCircle
 10
197.6167156831
 20
113.6210759928
 30
0.0
 40
2.999999999999995
100
AcDbArc
 50
225.9800054644
 51
285.9800054644
  0
ARC
  5
D5
330
1F
100
AcDbEntity
  8
0
  6
Continuous
 62
     7
370
    15
100
AcDbCircle
 10
197.6167156831
 20
113.6210759928
 30
0.0
 40
3.00000000000001
100
AcDbArc
 50
105.9800054644
 51
165.9800054644
  0
ARC
  5
D6
330
1F
100
AcDbEntity
  8
0
  6
Continuous
 62
     7
370
    15
100
AcDbCircle
 10
197.6167156831
 20
113.6210759928
 30
0.0
 40
3.000000000000038
100
AcDbArc
 50
285.9800054644
 51
345.9800054644
  0
LINE
  5
D7
330
1F
100
AcDbEntity
  8
0
  6
HIDDEN
 62
     7
370
     0
100
AcDbLine
 10
183.2667156831
 20
89.9525842791
 30
0.0
 11
184.2870898552
 21
89.9247429219
 31
0.0
  0
LINE
  5
D8
330
1F
100
AcDbEntity
  8
0
  6
HIDDEN
 62
     7
370
     0
100
AcDbLine
 10
183.2667156831
 20
89.9525842791
 30
0.0
 11
182.2667156831
 21
89.9525842791
 31
0.0
  0
ARC
  5
D9
330
1F
100
AcDbEntity
  8
0
  6
HIDDEN
 62
     7
370
     0
100
AcDbCircle
 10
174.2167156831
 20
113.6210759928
 30
0.0
 40
24.99999999999999
100
AcDbArc
 50
288.783919611
 51
298.8161068328
  0
ARC
  5
DA
330
1F
100
AcDbEntity
  8
0
  6
HIDDEN
 62
     7
370
     0
100
AcDbCircle
 10
174.2167156831
 20
113.6210759928
 30
0.0
 40
24.99999999999994
100
AcDbArc
 50
61.1838931672
 51
71.216080389
  0
LINE
  5
DB
330
1F
100
AcDbEntity
  8
0
  6
HIDDEN
 62
     7
370
     0
100
AcDbLine
 10
182.2667156831
 20
137.2895677064
 30
0.0
 11
183.2667156831
 21
137.2895677064
 31
0.0
  0
LINE
  5
DC
330
1F
100
AcDbEntity
  8
0
  6
HIDDEN
 62
     7
370
     0
100
AcDbLine
 10
183.2667156831
 20
137.2895677064
 30
0.0
 11
184.2979593702
 21
137.3185272859
 31
0.0
  0
CIRCLE
  5
DD
330
1F
100
AcDbEntity
  8
0
  6
HIDDEN
 62
     7
370
     0
100
AcDbCircle
 10
197.6167156831
 20
113.6210759928
 30
0.0
 40
5.499999999999972
  0
LINE
  5
DE
330
1F
100
AcDbEntity
  8
0
  6
HIDDEN
 62
     7
370
     0
100
AcDbLine
 10
188.0327410869
 20
113.6210759928
 30
0.0
 11
188.0327410869
 21
99.6210759928
 31
0.0
  0
LINE
  5
DF
330
1F
100
AcDbEntity
  8
0
  6
HIDDEN
 62
     7
370
     0
100
AcDbLine
 10
188.0327410869
 20
127.6210759928
 30
0.0
 11
188.0327410869
 21
113.6210759928
 31
0.0
  0
SPLINE
  5
E0
330
1F
100
AcDbEntity
  8
0
  6
HIDDEN
 62
     7
370
     0
100
AcDbSpline
210
0.0
220
0.0
230
1.0
 70
     8
 71
     3
 72
    29
 73
    25
 74
     0
 42
0.000000001
 43
0.00000001
 40
0.0
 40
0.0
 40
0.0
 40
0.0
 40
0.050221656656202
 40
0.101964577924613
 40
0.1521696633594848
 40
0.2037239246979583
 40
0.2560303050842361
 40
0.3097303218164273
 40
0.3641334304737432
 40
0.3921044223877283
 40
0.4203108748699341
 40
0.4722442899053143
 40
0.5259066161839784
 40
0.5744940085359905
 40
0.6244436862464148
 40
0.6740856458738658
 40
0.7249787097499436
 40
0.7782556631164552
 40
0.8330163543757821
 40
0.8871438987962394
 40
0.9149972344352916
 40
0.9430903720868671
 40
0.9941081806388755
 40
1.0
 40
1.0
 40
1.0
 40
1.0
 10
192.1167156831172
 20
127.6210759927784
 30
0.0
 10
192.1302406039217
 20
127.6157345280117
 30
0.0
 10
192.1577001290173
 20
127.6048898001253
 30
0.0
 10
192.377668597941
 20
127.5198107181754
 30
0.0
 10
192.7228191725082
 20
127.3925463828647
 30
0.0
 10
193.1946491536187
 20
127.2306322560872
 30
0.0
 10
193.7910316490169
 20
127.0470005702279
 30
0.0
 10
194.5028969949081
 20
126.8596766695844
 30
0.0
 10
195.1840216576413
 20
126.7178838322125
 30
0.0
 10
195.7740594394255
 20
126.6240374072995
 30
0.0
 10
196.3715260870964
 20
126.5496067769218
 30
0.0
 10
197.1402853836482
 20
126.4932516057508
 30
0.0
 10
198.0417959334963
 20
126.4921508614098
 30
0.0
 10
198.9172654013404
 20
126.5520754507473
 30
0.0
 10
199.7334638144224
 20
126.6604243932892
 30
0.0
 10
200.5046786551361
 20
126.8088538321889
 30
0.0
 10
201.2170089371468
 20
126.9840700662243
 30
0.0
 10
201.856487763175
 20
127.1716922680203
 30
0.0
 10
202.3916906261347
 20
127.3501031615321
 30
0.0
 10
202.7290966052248
 20
127.4727657556406
 30
0.0
 10
202.926688163501
 20
127.5473568669024
 30
0.0
 10
203.0591570811414
 20
127.5983905076185
 30
0.0
 10
203.1356234302536
 20
127.6284720027915
 30
0.0
 10
203.1115887680411
 20
127.6190700753829
 30
0.0
 10
203.1091004739975
 20
127.6180966995242
 30
0.0
  0
LINE
  5
E1
330
1F
100
AcDbEntity
  8
0
  6
HIDDEN
 62
     7
370
     0
100
AcDbLine
 10
183.1667156831
 20
113.6210759928
 30
0.0
 11
183.1667156831
 21
126.368708503
 31
0.0
  0
LINE
  5
E2
330
1F
100
AcDbEntity
  8
0
  6
HIDDEN
 62
     7
370
     0
100
AcDbLine
 10
183.1667156831
 20
100.8734434826
 30
0.0
 11
183.1667156831
 21
113.6210759928
 31
0.0
  0
LINE
  5
E3
330
1F
100
AcDbEntity
  8
0
  6
HIDDEN
 62
     7
370
     0
100
AcDbLine
 10
175.0667156831
 20
91.1210759928
 30
0.0
 11
173.2667156831
 21
91.1210759928
 31
0.0
  0
LINE
  5
E4
330
1F
100
AcDbEntity
  8
0
  6
HIDDEN
 62
     7
370
     0
100
AcDbLine
 10
175.0667156831
 20
136.1210759928
 30
0.0
 11
173.2667156831
 21
136.1210759928
 31
0.0
  0
LINE
  5
E5
330
1F
100
AcDbEntity
  8
0
  6
HIDDEN
 62
     7
370
     0
100
AcDbLine
 10
88.1327410869
 20
106.6210759928
 30
0.0
 11
88.1327410869
 21
120.6210759928
 31
0.0
  0
LINE
  5
E6
330
1F
100
AcDbEntity
  8
0
  6
HIDDEN
 62
     7
370
     0
100
AcDbLine
 10
174.2667156831
 20
83.270499392
 30
0.0
 11
174.2667156831
 21
90.3210759928
 31
0.0
  0
LINE
  5
E7
330
1F
100
AcDbEntity
  8
0
  6
HIDDEN
 62
     7
370
     0
100
AcDbLine
 10
182.2667156831
 20
89.9525842791
 30
0.0
 11
182.2667156831
 21
83.270499392
 31
0.0
  0
SPLINE
  5
E8
330
1F
100
AcDbEntity
  8
0
  6
HIDDEN
 62
     7
370
     0
100
AcDbSpline
210
0.0
220
0.0
230
1.0
 70
     8
 71
     3
 72
    10
 73
     6
 74
     0
 42
0.000000001
 43
0.00000001
 40
0.0
 40
0.0
 40
0.0
 40
0.0
 40
0.4050290253549149
 40
0.6985482196899792
 40
0.9999999999999999
 40
0.9999999999999999
 40
0.9999999999999999
 40
0.9999999999999999
 10
191.3115809488275
 20
137.6826349585278
 30
0.0
 10
191.299280931677
 20
137.7108733184287
 30
0.0
 10
191.2780672542742
 20
137.7595756454249
 30
0.0
 10
191.1237381203314
 20
138.1007474611226
 30
0.0
 10
190.9947077524191
 20
138.3651023283294
 30
0.0
 10
190.9293324050848
 20
138.4990420476587
 30
0.0
  0
LINE
  5
E9
330
1F
100
AcDbEntity
  8
0
  6
HIDDEN
 62
     7
370
     0
100
AcDbLine
 10
183.2667156831
 20
136.1210759928
 30
0.0
 11
190.5167156831
 21
136.1210759928
 31
0.0
  0
LINE
  5
EA
330
1F
100
AcDbEntity
  8
0
  6
HIDDEN
 62
     7
370
     0
100
AcDbLine
 10
175.0667156831
 20
136.1210759928
 30
0.0
 11
183.2667156831
 21
136.1210759928
 31
0.0
  0
ARC
  5
EB
330
1F
100
AcDbEntity
  8
0
  6
HIDDEN
 62
     7
370
     0
100
AcDbCircle
 10
175.0667156831
 20
136.9210759928
 30
0.0
 40
0.8000000000000398
100
AcDbArc
 50
180.0
 51
270.0
  0
LINE
  5
EC
330
1F
100
AcDbEntity
  8
0
  6
HIDDEN
 62
     7
370
     0
100
AcDbLine
 10
183.2667156831
 20
91.1210759928
 30
0.0
 11
175.0667156831
 21
91.1210759928
 31
0.0
  0
ARC
  5
ED
330
1F
100
AcDbEntity
  8
0
  6
HIDDEN
 62
     7
370
     0
100
AcDbCircle
 10
175.0667156831
 20
90.3210759928
 30
0.0
 40
0.8000000000000398
100
AcDbArc
 50
90.0
 51
180.0
  0
LINE
  5
EE
330
1F
100
AcDbEntity
  8
0
  6
HIDDEN
 62
     7
370
     0
100
AcDbLine
 10
174.2667156831
 20
143.9716525936
 30
0.0
 11
174.2667156831
 21
136.9210759928
 31
0.0
  0
LINE
  5
EF
330
1F
100
AcDbEntity
  8
0
  6
HIDDEN
 62
     7
370
     0
100
AcDbLine
 10
182.2667156831
 20
143.9716525936
 30
0.0
 11
182.2667156831
 21
137.2895677064
 31
0.0
  0
LINE
  5
F0
330
1F
100
AcDbEntity
  8
0
  6
HIDDEN
 62
     7
370
     0
100
AcDbLine
 10
190.5167156831
 20
91.1210759928
 30
0.0
 11
183.2667156831
 21
91.1210759928
 31
0.0
  0
LINE
  5
F1
330
1F
100
AcDbEntity
  8
0
  6
HIDDEN
 62
     7
370
     0
100
AcDbLine
 10
149.9190823854
 20
109.3710759928
 30
0.0
 11
149.9190823854
 21
117.8710759928
 31
0.0
  0
LINE
  5
F2
330
1F
100
AcDbEntity
  8
0
  6
HIDDEN
 62
     7
370
     0
100
AcDbLine
 10
148.2667156831
 20
106.6210759928
 30
0.0
 11
148.2667156831
 21
120.6210759928
 31
0.0
  0
LINE
  5
F3
330
1F
100
AcDbEntity
  8
0
  6
HIDDEN
 62
     7
370
     0
100
AcDbLine
 10
192.1167156831
 20
136.8710759928
 30
0.0
 11
203.1167156831
 21
136.8710759928
 31
0.0
  0
LINE
  5
F4
330
1F
100
AcDbEntity
  8
0
  6
HIDDEN
 62
     7
370
     0
100
AcDbLine
 10
203.4379831447
 20
137.9210759928
 30
0.0
 11
203.6167156831
 21
137.9210759928
 31
0.0
  0
LINE
  5
F5
330
1F
100
AcDbEntity
  8
0
  6
HIDDEN
 62
     7
370
     0
100
AcDbLine
 10
191.6167156831
 20
137.9210759928
 30
0.0
 11
194.711243549
 21
137.9210759928
 31
0.0
  0
LINE
  5
F6
330
1F
100
AcDbEntity
  8
0
  6
HIDDEN
 62
     7
370
     0
100
AcDbLine
 10
200.4889910514
 20
137.9210759928
 30
0.0
 11
203.4379831447
 21
137.9210759928
 31
0.0
  0
LINE
  5
F7
330
1F
100
AcDbEntity
  8
0
  6
HIDDEN
 62
     7
370
     0
100
AcDbLine
 10
203.4379831447
 20
130.5181903098
 30
0.0
 11
203.6167156831
 21
130.5181903098
 31
0.0
  0
LINE
  5
F8
330
1F
100
AcDbEntity
  8
0
  6
HIDDEN
 62
     7
370
     0
100
AcDbLine
 10
191.6167156831
 20
130.5181903098
 30
0.0
 11
203.4379831447
 21
130.5181903098
 31
0.0
  0
LINE
  5
F9
330
1F
100
AcDbEntity
  8
0
  6
HIDDEN
 62
     7
370
     0
100
AcDbLine
 10
201.0316670652
 20
122.1210759928
 30
0.0
 11
201.1365175867
 21
122.1210759928
 31
0.0
  0
LINE
  5
FA
330
1F
100
AcDbEntity
  8
0
  6
HIDDEN
 62
     7
370
     0
100
AcDbLine
 10
194.0969137795
 20
122.1210759928
 30
0.0
 11
201.0316670652
 21
122.1210759928
 31
0.0
  0
SPLINE
  5
FB
330
1F
100
AcDbEntity
  8
0
  6
HIDDEN
 62
     7
370
     0
100
AcDbSpline
210
0.0
220
0.0
230
1.0
 70
     8
 71
     3
 72
    15
 73
    11
 74
     0
 42
0.000000001
 43
0.00000001
 40
0.0
 40
0.0
 40
0.0
 40
0.0
 40
0.1077869592233267
 40
0.2161701819135353
 40
0.3273150562947919
 40
0.4399598612360032
 40
0.5934902695338463
 40
0.7521517812193704
 40
0.8755082115460593
 40
1.0
 40
1.0
 40
1.0
 40
1.0
 10
200.94695688333
 20
138.4851776079162
 30
0.0
 10
200.8626239368992
 20
138.4290643199147
 30
0.0
 10
200.6934915251249
 20
138.3165273324864
 30
0.0
 10
200.4268394261182
 20
138.1796569633348
 30
0.0
 10
200.1480393049547
 20
138.0763571343487
 30
0.0
 10
199.8232185956397
 20
138.0128924354621
 30
0.0
 10
199.4526609935136
 20
138.0232756263596
 30
0.0
 10
199.081297191154
 20
138.1312422931603
 30
0.0
 10
198.7476790661988
 20
138.2923883672453
 30
0.0
 10
198.5534766414517
 20
138.420718573433
 30
0.0
 10
198.4559306219653
 20
138.4851776079162
 30
0.0
  0
SPLINE
  5
FC
330
1F
100
AcDbEntity
  8
0
  6
HIDDEN
 62
     7
370
     0
100
AcDbSpline
210
0.0
220
0.0
230
1.0
 70
     8
 71
     3
 72
    11
 73
     7
 74
     0
 42
0.000000001
 43
0.00000001
 40
0.0
 40
0.0
 40
0.0
 40
0.0
 40
0.2164553779443398
 40
0.4403112895790674
 40
0.7519005688038799
 40
1.0
 40
1.0
 40
1.0
 40
1.0
 10
198.4559306219653
 20
138.4851776079162
 30
0.0
 10
198.2278058730461
 20
138.3765194376512
 30
0.0
 10
197.7637568698037
 20
138.1554881122712
 30
0.0
 10
196.9026058595856
 20
137.9712581878538
 30
0.0
 10
195.9788669287221
 20
138.082334091953
 30
0.0
 10
195.3877294831032
 20
138.3614505537267
 30
0.0
 10
195.1256894217512
 20
138.4851776079162
 30
0.0
  0
SPLINE
  5
FD
330
1F
100
AcDbEntity
  8
0
  6
HIDDEN
 62
     7
370
     0
100
AcDbSpline
210
0.0
220
0.0
230
1.0
 70
     8
 71
     3
 72
    13
 73
     9
 74
     0
 42
0.000000001
 43
0.00000001
 40
0.0
 40
0.0
 40
0.0
 40
0.0
 40
0.1844095697098912
 40
0.3495005370884481
 40
0.5197705331556608
 40
0.6927076360809771
 40
0.8718061725834235
 40
1.0
 40
1.0
 40
1.0
 40
1.0
 10
195.1256894217512
 20
138.4851776079162
 30
0.0
 10
195.076777755961
 20
138.3914902946111
 30
0.0
 10
194.9840783722443
 20
138.2139302776878
 30
0.0
 10
194.8367236231391
 20
138.0506574433587
 30
0.0
 10
194.6878185547347
 20
137.999728678312
 30
0.0
 10
194.5356284308012
 20
138.0830208175699
 30
0.0
 10
194.4014214719986
 20
138.2603096296469
 30
0.0
 10
194.3203113640142
 20
138.4189833464877
 30
0.0
 10
194.2864744829018
 20
138.4851776079161
 30
0.0
  0
SPLINE
  5
FE
330
1F
100
AcDbEntity
  8
0
  6
HIDDEN
 62
     7
370
     0
100
AcDbSpline
210
0.0
220
0.0
230
1.0
 70
     8
 71
     3
 72
    11
 73
     7
 74
     0
 42
0.000000001
 43
0.00000001
 40
0.0
 40
0.0
 40
0.0
 40
0.0
 40
0.216455377944358
 40
0.4403112895790621
 40
0.7519005688038768
 40
1.0
 40
1.0
 40
1.0
 40
1.0
 10
194.2864744829018
 20
138.4851776079161
 30
0.0
 10
194.4571121953859
 20
138.3765194376512
 30
0.0
 10
194.8042216640822
 20
138.1554881122712
 30
0.0
 10
195.4483641307949
 20
137.9712581878537
 30
0.0
 10
196.1393224719739
 20
138.082334091953
 30
0.0
 10
196.5814943185711
 20
138.3614505537266
 30
0.0
 10
196.7775007442665
 20
138.4851776079161
 30
0.0
  0
SPLINE
  5
FF
330
1F
100
AcDbEntity
  8
0
  6
HIDDEN
 62
     7
370
     0
100
AcDbSpline
210
0.0
220
0.0
230
1.0
 70
     8
 71
     3
 72
    11
 73
     7
 74
     0
 42
0.000000001
 43
0.00000001
 40
0.0
 40
0.0
 40
0.0
 40
0.0
 40
0.2164553779443511
 40
0.4403112895790511
 40
0.7519005688038728
 40
1.0
 40
1.0
 40
1.0
 40
1.0
 10
196.7775007442665
 20
138.4851776079161
 30
0.0
 10
197.0056254931857
 20
138.3765194376512
 30
0.0
 10
197.4696744964281
 20
138.1554881122711
 30
0.0
 10
198.3308255066462
 20
137.9712581878537
 30
0.0
 10
199.2545644375097
 20
138.082334091953
 30
0.0
 10
199.8457018831286
 20
138.3614505537266
 30
0.0
 10
200.1077419444806
 20
138.4851776079161
 30
0.0
  0
SPLINE
  5
100
330
1F
100
AcDbEntity
  8
0
  6
HIDDEN
 62
     7
370
     0
100
AcDbSpline
210
0.0
220
0.0
230
1.0
 70
     8
 71
     3
 72
    15
 73
    11
 74
     0
 42
0.000000001
 43
0.00000001
 40
0.0
 40
0.0
 40
0.0
 40
0.0
 40
0.0640504367340783
 40
0.1282061551362657
 40
0.3015971188615379
 40
0.4801922626499592
 40
0.6449121499732049
 40
0.8155191712969916
 40
0.9075602129381544
 40
1.0
 40
1.0
 40
1.0
 40
1.0
 10
200.1077419444806
 20
138.4851776079161
 30
0.0
 10
200.1245592918985
 20
138.4513651983867
 30
0.0
 10
200.1582216299241
 20
138.3836848008328
 30
0.0
 10
200.2392658869442
 20
138.2412343732748
 30
0.0
 10
200.3551658520038
 20
138.0840161445602
 30
0.0
 10
200.5058122609339
 20
138.0004489301157
 30
0.0
 10
200.6564330226766
 20
138.0485736153896
 30
0.0
 10
200.7774048307522
 20
138.1846737647795
 30
0.0
 10
200.8740740803754
 20
138.340338438982
 30
0.0
 10
200.922627633711
 20
138.4368283656703
 30
0.0
 10
200.94695688333
 20
138.4851776079162
 30
0.0
  0
LINE
  5
101
330
1F
100
AcDbEntity
  8
0
  6
HIDDEN
 62
     7
370
     0
100
AcDbLine
 10
198.4426213444
 20
131.6210759928
 30
0.0
 11
196.7775007443
 21
131.6210759928
 31
0.0
  0
LINE
  5
102
330
1F
100
AcDbEntity
  8
0
  6
HIDDEN
 62
     7
370
     0
100
AcDbLine
 10
196.7775007443
 20
131.6210759928
 30
0.0
 11
195.5319876136
 21
131.6210759928
 31
0.0
  0
LINE
  5
103
330
1F
100
AcDbEntity
  8
0
  6
HIDDEN
 62
     7
370
     0
100
AcDbLine
 10
196.7775007443
 20
131.6210759928
 30
0.0
 11
196.7775007443
 21
138.4851776079
 31
0.0
  0
LINE
  5
104
330
1F
100
AcDbEntity
  8
0
  6
HIDDEN
 62
     7
370
     0
100
AcDbLine
 10
200.5273494139
 20
130.6210759928
 30
0.0
 11
200.6167156831
 21
130.6210759928
 31
0.0
  0
LINE
  5
105
330
1F
100
AcDbEntity
  8
0
  6
HIDDEN
 62
     7
370
     0
100
AcDbLine
 10
194.6167156831
 20
130.6210759928
 30
0.0
 11
200.5273494139
 21
130.6210759928
 31
0.0
  0
LINE
  5
106
330
1F
100
AcDbEntity
  8
0
  6
HIDDEN
 62
     7
370
     0
100
AcDbLine
 10
200.1077419445
 20
131.6210759928
 30
0.0
 11
198.4426213444
 21
131.6210759928
 31
0.0
  0
LINE
  5
107
330
1F
100
AcDbEntity
  8
0
  6
HIDDEN
 62
     7
370
     0
100
AcDbLine
 10
200.5273494139
 20
131.6210759928
 30
0.0
 11
200.1077419445
 21
131.6210759928
 31
0.0
  0
LINE
  5
108
330
1F
100
AcDbEntity
  8
0
  6
HIDDEN
 62
     7
370
     0
100
AcDbLine
 10
200.1077419445
 20
131.6210759928
 30
0.0
 11
200.1077419445
 21
138.4851776079
 31
0.0
  0
LINE
  5
109
330
1F
100
AcDbEntity
  8
0
  6
HIDDEN
 62
     7
370
     0
100
AcDbLine
 10
195.5319876136
 20
131.6210759928
 30
0.0
 11
194.2864744829
 21
131.6210759928
 31
0.0
  0
LINE
  5
10A
330
1F
100
AcDbEntity
  8
0
  6
HIDDEN
 62
     7
370
     0
100
AcDbLine
 10
195.1256894218
 20
131.6210759928
 30
0.0
 11
195.1256894218
 21
138.4851776079
 31
0.0
  0
LINE
  5
10B
330
1F
100
AcDbEntity
  8
0
  6
HIDDEN
 62
     7
370
     0
100
AcDbLine
 10
194.2864744829
 20
131.6210759928
 30
0.0
 11
194.2864744829
 21
138.4851776079
 31
0.0
  0
LINE
  5
10C
330
1F
100
AcDbEntity
  8
0
  6
HIDDEN
 62
     7
370
     0
100
AcDbLine
 10
200.9469568833
 20
131.6210759928
 30
0.0
 11
200.5273494139
 21
131.6210759928
 31
0.0
  0
LINE
  5
10D
330
1F
100
AcDbEntity
  8
0
  6
HIDDEN
 62
     7
370
     0
100
AcDbLine
 10
198.455930622
 20
131.6210759928
 30
0.0
 11
198.455930622
 21
138.4851776079
 31
0.0
  0
LINE
  5
10E
330
1F
100
AcDbEntity
  8
0
  6
HIDDEN
 62
     7
370
     0
100
AcDbLine
 10
200.9469568833
 20
131.6210759928
 30
0.0
 11
200.9469568833
 21
138.4851776079
 31
0.0
  0
ARC
  5
10F
330
1F
100
AcDbEntity
  8
0
  6
HIDDEN
 62
     7
370
     0
100
AcDbCircle
 10
210.6667156831
 20
128.6210759928
 30
0.0
 40
1.000000000000014
100
AcDbArc
 50
270.0
 51
0.0
  0
ARC
  5
110
330
1F
100
AcDbEntity
  8
0
  6
HIDDEN
 62
     7
370
     0
100
AcDbCircle
 10
210.6667156831
 20
98.6210759928
 30
0.0
 40
1.0
100
AcDbArc
 50
0.0
 51
90.0
  0
LINE
  5
111
330
1F
100
AcDbEntity
  8
0
  6
HIDDEN
 62
     7
370
     0
100
AcDbLine
 10
186.0350631855
 20
128.1210759928
 30
0.0
 11
184.1667156831
 21
128.1210759928
 31
0.0
  0
LINE
  5
112
330
1F
100
AcDbEntity
  8
0
  6
HIDDEN
 62
     7
370
     0
100
AcDbLine
 10
184.1667156831
 20
99.1210759928
 30
0.0
 11
186.0350631855
 21
99.1210759928
 31
0.0
  0
ARC
  5
113
330
1F
100
AcDbEntity
  8
0
  6
HIDDEN
 62
     7
370
     0
100
AcDbCircle
 10
186.0350631855
 20
127.1210759928
 30
0.0
 40
1.000000000000014
100
AcDbArc
 50
75.0
 51
90.0
  0
ARC
  5
114
330
1F
100
AcDbEntity
  8
0
  6
HIDDEN
 62
     7
370
     0
100
AcDbCircle
 10
186.0350631855
 20
100.1210759928
 30
0.0
 40
1.0
100
AcDbArc
 50
270.0
 51
285.0
  0
ARC
  5
115
330
1F
100
AcDbEntity
  8
0
  6
HIDDEN
 62
     7
370
     0
100
AcDbCircle
 10
184.1667156831
 20
127.1210759928
 30
0.0
 40
1.000000000000015
100
AcDbArc
 50
90.0
 51
154.1580672368
  0
ARC
  5
116
330
1F
100
AcDbEntity
  8
0
  6
HIDDEN
 62
     7
370
     0
100
AcDbCircle
 10
184.1667156831
 20
100.1210759928
 30
0.0
 40
1.000000000000003
100
AcDbArc
 50
205.8419327632
 51
270.0
  0
LINE
  5
117
330
1F
100
AcDbEntity
  8
0
  6
HIDDEN
 62
     7
370
     0
100
AcDbLine
 10
186.2938822306
 20
99.1551501665
 30
0.0
 11
188.0327410869
 21
99.6210759928
 31
0.0
  0
LINE
  5
118
330
1F
100
AcDbEntity
  8
0
  6
HIDDEN
 62
     7
370
     0
100
AcDbLine
 10
188.0327410869
 20
127.6210759928
 30
0.0
 11
186.2938822306
 21
128.0870018191
 31
0.0
  0
LINE
  5
119
330
1F
100
AcDbEntity
  8
0
  6
HIDDEN
 62
     7
370
     0
100
AcDbLine
 10
192.1167156831
 20
127.6210759928
 30
0.0
 11
188.0327410869
 21
127.6210759928
 31
0.0
  0
LINE
  5
11A
330
1F
100
AcDbEntity
  8
0
  6
HIDDEN
 62
     7
370
     0
100
AcDbLine
 10
210.6667156831
 20
127.6210759928
 30
0.0
 11
203.109100474
 21
127.6210759928
 31
0.0
  0
LINE
  5
11B
330
1F
100
AcDbEntity
  8
0
  6
HIDDEN
 62
     7
370
     0
100
AcDbLine
 10
188.0327410869
 20
99.6210759928
 30
0.0
 11
210.6667156831
 21
99.6210759928
 31
0.0
  0
LINE
  5
11C
330
1F
100
AcDbEntity
  8
0
  6
HIDDEN
 62
     7
370
     0
100
AcDbLine
 10
183.1667156831
 20
100.8734434826
 30
0.0
 11
183.2667156831
 21
100.8734434826
 31
0.0
  0
LINE
  5
11D
330
1F
100
AcDbEntity
  8
0
  6
HIDDEN
 62
     7
370
     0
100
AcDbLine
 10
183.2667156831
 20
126.368708503
 30
0.0
 11
183.1667156831
 21
126.368708503
 31
0.0
  0
ARC
  5
11E
330
1F
100
AcDbEntity
  8
0
  6
HIDDEN
 62
     7
370
     0
100
AcDbCircle
 10
79.2667156831
 20
104.1210759928
 30
0.0
 40
1.0
100
AcDbArc
 50
90.0
 51
180.0
  0
ARC
  5
11F
330
1F
100
AcDbEntity
  8
0
  6
HIDDEN
 62
     7
370
     0
100
AcDbCircle
 10
79.2667156831
 20
123.1210759928
 30
0.0
 40
1.0
100
AcDbArc
 50
180.0
 51
270.0
  0
LINE
  5
120
330
1F
100
AcDbEntity
  8
0
  6
HIDDEN
 62
     7
370
     0
100
AcDbLine
 10
79.2667156831
 20
105.1210759928
 30
0.0
 11
87.0357755754
 21
105.1210759928
 31
0.0
  0
LINE
  5
121
330
1F
100
AcDbEntity
  8
0
  6
HIDDEN
 62
     7
370
     0
100
AcDbLine
 10
87.0357755754
 20
122.1210759928
 30
0.0
 11
79.2667156831
 21
122.1210759928
 31
0.0
  0
ARC
  5
122
330
1F
100
AcDbEntity
  8
0
  6
HIDDEN
 62
     7
370
     0
100
AcDbCircle
 10
87.0357755754
 20
105.5210759928
 30
0.0
 40
0.4000000000000057
100
AcDbArc
 50
270.0
 51
330.0
  0
ARC
  5
123
330
1F
100
AcDbEntity
  8
0
  6
HIDDEN
 62
     7
370
     0
100
AcDbCircle
 10
87.0357755754
 20
121.7210759928
 30
0.0
 40
0.4000000000000199
100
AcDbArc
 50
30.0
 51
90.0
  0
LINE
  5
124
330
1F
100
AcDbEntity
  8
0
  6
HIDDEN
 62
     7
370
     0
100
AcDbLine
 10
87.382185737
 20
105.3210759928
 30
0.0
 11
88.1327410869
 21
106.6210759928
 31
0.0
  0
LINE
  5
125
330
1F
100
AcDbEntity
  8
0
  6
HIDDEN
 62
     7
370
     0
100
AcDbLine
 10
88.1327410869
 20
120.6210759928
 30
0.0
 11
87.382185737
 21
121.9210759928
 31
0.0
  0
LINE
  5
126
330
1F
100
AcDbEntity
  8
0
  6
HIDDEN
 62
     7
370
     0
100
AcDbLine
 10
191.3167156831
 20
136.9210759928
 30
0.0
 11
191.3167156831
 21
137.6826349585
 31
0.0
  0
LINE
  5
127
330
1F
100
AcDbEntity
  8
0
  6
HIDDEN
 62
     7
370
     0
100
AcDbLine
 10
191.3167156831
 20
88.6210759928
 30
0.0
 11
191.3167156831
 21
90.3210759928
 31
0.0
  0
ARC
  5
128
330
1F
100
AcDbEntity
  8
0
  6
HIDDEN
 62
     7
370
     0
100
AcDbCircle
 10
190.5167156831
 20
136.9210759928
 30
0.0
 40
0.799999999999983
100
AcDbArc
 50
270.0
 51
0.0
  0
ARC
  5
129
330
1F
100
AcDbEntity
  8
0
  6
HIDDEN
 62
     7
370
     0
100
AcDbCircle
 10
190.5167156831
 20
90.3210759928
 30
0.0
 40
0.8000000000000114
100
AcDbArc
 50
0.0
 51
90.0
  0
LINE
  5
12A
330
1F
100
AcDbEntity
  8
0
  6
HIDDEN
 62
     7
370
     0
100
AcDbLine
 10
148.2667156831
 20
106.6210759928
 30
0.0
 11
149.9190823854
 21
109.3710759928
 31
0.0
  0
LINE
  5
12B
330
1F
100
AcDbEntity
  8
0
  6
HIDDEN
 62
     7
370
     0
100
AcDbLine
 10
149.9190823854
 20
117.8710759928
 30
0.0
 11
148.2667156831
 21
120.6210759928
 31
0.0
  0
LINE
  5
12C
330
1F
100
AcDbEntity
  8
0
  6
HIDDEN
 62
     7
370
     0
100
AcDbLine
 10
88.1327410869
 20
106.6210759928
 30
0.0
 11
148.2667156831
 21
106.6210759928
 31
0.0
  0
LINE
  5
12D
330
1F
100
AcDbEntity
  8
0
  6
HIDDEN
 62
     7
370
     0
100
AcDbLine
 10
148.2667156831
 20
120.6210759928
 30
0.0
 11
88.1327410869
 21
120.6210759928
 31
0.0
  0
LINE
  5
12E
330
1F
100
AcDbEntity
  8
0
  6
HIDDEN
 62
     7
370
     0
100
AcDbLine
 10
191.3083618895
 20
137.6794297864
 30
0.0
 11
192.1167156831
 21
136.8710759928
 31
0.0
  0
LINE
  5
12F
330
1F
100
AcDbEntity
  8
0
  6
HIDDEN
 62
     7
370
     0
100
AcDbLine
 10
203.1167156831
 20
136.8710759928
 30
0.0
 11
204.8667156831
 21
138.6210759928
 31
0.0
  0
LINE
  5
130
330
1F
100
AcDbEntity
  8
0
  6
HIDDEN
 62
     7
370
     0
100
AcDbLine
 10
192.1167156831
 20
136.8710759928
 30
0.0
 11
192.1167156831
 21
127.6210759928
 31
0.0
  0
LINE
  5
131
330
1F
100
AcDbEntity
  8
0
  6
HIDDEN
 62
     7
370
     0
100
AcDbLine
 10
203.1167156831
 20
127.6181072973
 30
0.0
 11
203.1167156831
 21
136.8710759928
 31
0.0
  0
LINE
  5
132
330
1F
100
AcDbEntity
  8
0
  6
HIDDEN
 62
     7
370
     0
100
AcDbLine
 10
183.1667156831
 20
117.8710759928
 30
0.0
 11
149.9190823854
 21
117.8710759928
 31
0.0
  0
LINE
  5
133
330
1F
100
AcDbEntity
  8
0
  6
HIDDEN
 62
     7
370
     0
100
AcDbLine
 10
149.9190823854
 20
109.3710759928
 30
0.0
 11
183.1667156831
 21
109.3710759928
 31
0.0
  0
LINE
  5
134
330
1F
100
AcDbEntity
  8
0
  6
HIDDEN
 62
     7
370
     0
100
AcDbLine
 10
203.6167156831
 20
137.9210759928
 30
0.0
 11
203.2426192138
 21
138.2951724621
 31
0.0
  0
LINE
  5
135
330
1F
100
AcDbEntity
  8
0
  6
HIDDEN
 62
     7
370
     0
100
AcDbLine
 10
191.991617462
 20
138.2959777716
 30
0.0
 11
191.6167156831
 21
137.9210759928
 31
0.0
  0
LINE
  5
136
330
1F
100
AcDbEntity
  8
0
  6
HIDDEN
 62
     7
370
     0
100
AcDbLine
 10
191.6167156831
 20
137.9210759928
 30
0.0
 11
191.6167156831
 21
130.5181903098
 31
0.0
  0
LINE
  5
137
330
1F
100
AcDbEntity
  8
0
  6
HIDDEN
 62
     7
370
     0
100
AcDbLine
 10
203.6167156831
 20
130.5181903098
 30
0.0
 11
203.6167156831
 21
137.9210759928
 31
0.0
  0
LINE
  5
138
330
1F
100
AcDbEntity
  8
0
  6
HIDDEN
 62
     7
370
     0
100
AcDbLine
 10
191.6167156831
 20
130.5181903098
 30
0.0
 11
193.8071360316
 21
122.3434302792
 31
0.0
  0
LINE
  5
139
330
1F
100
AcDbEntity
  8
0
  6
HIDDEN
 62
     7
370
     0
100
AcDbLine
 10
201.4262953346
 20
122.3434302792
 30
0.0
 11
203.6167156831
 21
130.5181903098
 31
0.0
  0
ARC
  5
13A
330
1F
100
AcDbEntity
  8
0
  6
HIDDEN
 62
     7
370
     0
100
AcDbCircle
 10
194.0969137795
 20
122.4210759928
 30
0.0
 40
0.3000000000000241
100
AcDbArc
 50
195.0
 51
270.0
  0
ARC
  5
13B
330
1F
100
AcDbEntity
  8
0
  6
HIDDEN
 62
     7
370
     0
100
AcDbCircle
 10
201.1365175867
 20
122.4210759928
 30
0.0
 40
0.3000000000000241
100
AcDbArc
 50
270.0
 51
345.0
  0
LINE
  5
13C
330
1F
100
AcDbEntity
  8
0
  6
HIDDEN
 62
     7
370
     0
100
AcDbLine
 10
194.0167156831
 20
138.6210759928
 30
0.0
 11
194.5223270832
 21
138.1154645927
 31
0.0
  0
LINE
  5
13D
330
1F
100
AcDbEntity
  8
0
  6
HIDDEN
 62
     7
370
     0
100
AcDbLine
 10
200.7150915897
 20
138.1194518993
 30
0.0
 11
201.2167156831
 21
138.6210759928
 31
0.0
  0
LINE
  5
13E
330
1F
100
AcDbEntity
  8
0
  6
HIDDEN
 62
     7
370
     0
100
AcDbLine
 10
194.6167156831
 20
131.6210759928
 30
0.0
 11
194.6167156831
 21
130.6210759928
 31
0.0
  0
LINE
  5
13F
330
1F
100
AcDbEntity
  8
0
  6
HIDDEN
 62
     7
370
     0
100
AcDbLine
 10
200.6167156831
 20
130.6210759928
 30
0.0
 11
200.6167156831
 21
131.6210759928
 31
0.0
  0
LINE
  5
140
330
1F
100
AcDbEntity
  8
0
  6
HIDDEN
 62
     7
370
     0
100
AcDbLine
 10
194.6167156831
 20
130.6210759928
 30
0.0
 11
197.6167156831
 21
129.52916529
 31
0.0
  0
LINE
  5
141
330
1F
100
AcDbEntity
  8
0
  6
HIDDEN
 62
     7
370
     0
100
AcDbLine
 10
197.6167156831
 20
129.52916529
 30
0.0
 11
200.6167156831
 21
130.6210759928
 31
0.0
  0
DIMENSION
  5
142
330
1F
100
AcDbEntity
  8
VERMASSUNG
100
AcDbDimension
  2
_D
 10
70.8590688487
 20
145.0210759928
 30
0.0
 11
70.8590688487
 21
113.6210759928
 31
0.0
 70
   160
  1
SK 40%%c<>
 71
     2
 42
-1.0
  3
SLDDIMSTYLE0
100
AcDbAlignedDimension
 13
182.6667156831
 23
82.2210759928
 33
0.0
 14
182.6667156831
 24
145.0210759928
 34
0.0
 50
90.0
100
AcDbRotatedDimension
  0
DIMENSION
  5
14F
330
1F
100
AcDbEntity
  8
VERMASSUNG
100
AcDbDimension
  2
_D_1
 10
219.3579560826
 20
99.6210759928
 30
0.0
 11
219.3579560826
 21
113.6210759928
 31
0.0
 70
   160
  1
%%c<>
 71
     2
 42
-1.0
  3
SLDDIMSTYLE1
100
AcDbAlignedDimension
 13
210.6667156831
 23
127.6210759928
 33
0.0
 14
210.6667156831
 24
99.6210759928
 34
0.0
 50
90.0
100
AcDbRotatedDimension
  0
DIMENSION
  5
15B
330
1F
100
AcDbEntity
  8
VERMASSUNG
100
AcDbDimension
  2
_D_2
 10
225.3339787508
 20
138.6210759928
 30
0.0
 11
225.3339787508
 21
113.6210759928
 31
0.0
 70
   160
  1
WH%%c<>
 71
     2
 42
-1.0
  3
SLDDIMSTYLE1
100
AcDbAlignedDimension
 13
211.1667156831
 23
88.6210759928
 33
0.0
 14
211.1667156831
 24
138.6210759928
 34
0.0
 50
90.0
100
AcDbRotatedDimension
  0
DIMENSION
  5
167
330
1F
100
AcDbEntity
  8
VERMASSUNG
100
AcDbDimension
  2
_D_3
 10
183.2667156831
 20
148.494852148
 30
0.0
 11
197.4667156831
 21
148.494852148
 31
0.0
 70
   160
  1
(<>)
 71
     2
 42
-1.0
  3
SLDDIMSTYLE1
100
AcDbAlignedDimension
 13
211.6667156831
 23
138.1210759928
 33
0.0
 14
183.2667156831
 24
143.3289304354
 34
0.0
100
AcDbRotatedDimension
  0
DIMENSION
  5
173
330
1F
100
AcDbEntity
  8
VERMASSUNG
100
AcDbDimension
  2
_D_4
 10
171.6667156831
 20
153.9716525936
 30
0.0
 11
191.6667156831
 21
153.9716525936
 31
0.0
 70
   160
  1
<>
 71
     2
 42
-1.0
  3
SLDDIMSTYLE1
100
AcDbAlignedDimension
 13
211.6667156831
 23
138.1210759928
 33
0.0
 14
171.6667156831
 24
135.8460759928
 34
0.0
100
AcDbRotatedDimension
  0
DIMENSION
  5
17D
330
1F
100
AcDbEntity
  8
VERMASSUNG
100
AcDbDimension
  2
_D_5
 10
78.2667156831
 20
159.106805481
 30
0.0
 11
144.9667156831
 21
159.106805481
 31
0.0
 70
   160
  1
(<>)
 71
     2
 42
-1.0
  3
SLDDIMSTYLE1
100
AcDbAlignedDimension
 13
211.6667156831
 23
138.1210759928
 33
0.0
 14
78.2667156831
 24
124.1710759928
 34
0.0
100
AcDbRotatedDimension
  0
LINE
  5
189
330
1F
100
AcDbEntity
  8
VERMASSUNG
  6
CENTERX2
370
     0
100
AcDbLine
 10
183.2667156831
 20
143.3289304354
 30
0.0
 11
183.2667156831
 21
128.4735851518
 31
0.0
  0
LINE
  5
18A
330
1F
100
AcDbEntity
  8
VERMASSUNG
  6
CENTERX2
370
     0
100
AcDbLine
 10
183.2667156831
 20
83.9132215502
 30
0.0
 11
183.2667156831
 21
98.7685668337
 31
0.0
  0
LINE
  5
18B
330
1F
100
AcDbEntity
  8
VERMASSUNG
  6
CENTERX2
370
     0
100
AcDbLine
 10
197.6167156831
 20
125.6210742201
 30
0.0
 11
197.6167156831
 21
138.8710759928
 31
0.0
  0
LINE
  5
18C
330
1F
100
AcDbEntity
  8
VERMASSUNG
  6
CENTERX2
370
     0
100
AcDbLine
 10
75.4902070624
 20
113.6210759928
 30
0.0
 11
213.9815863728
 21
113.6210759928
 31
0.0
  0
LINE
  5
18D
330
1F
100
AcDbEntity
  8
0
  6
Continuous
 62
     7
370
    15
100
AcDbLine
 10
264.44374035
 20
19.6922200489
 30
0.0
 11
264.6204883142
 21
19.794287649
 31
0.0
  0
LINE
  5
18E
330
1F
100
AcDbEntity
  8
0
  6
Continuous
 62
     7
370
    15
100
AcDbLine
 10
273.2811385557
 20
34.7965994256
 30
0.0
 11
273.2811385557
 21
35.0007014536
 31
0.0
  0
LINE
  5
18F
330
1F
100
AcDbEntity
  8
0
  6
Continuous
 62
     7
370
    15
100
AcDbLine
 10
270.6917958698
 20
40.7237615344
 30
0.0
 11
261.888316444
 21
45.8059020305
 31
0.0
  0
LINE
  5
190
330
1F
100
AcDbEntity
  8
0
  6
Continuous
 62
     7
370
    15
100
AcDbLine
 10
249.3893322861
 20
24.154680471
 30
0.0
 11
258.1928117118
 21
19.0725399749
 31
0.0
  0
SPLINE
  5
191
330
1F
100
AcDbEntity
  8
0
  6
Continuous
 62
     7
370
    15
100
AcDbSpline
210
0.0
220
0.0
230
1.0
 70
     8
 71
     3
 72
    11
 73
     7
 74
     0
 42
0.000000001
 43
0.00000001
 40
0.0
 40
0.0
 40
0.0
 40
0.0
 40
0.0848949446875021
 40
0.5160445911289876
 40
0.94653308350797
 40
1.0
 40
1.0
 40
1.0
 40
1.0
 10
265.1025586304364
 20
45.36236256810954
 30
0.0
 10
265.0858741758781
 20
45.42121745785129
 30
0.0
 10
264.9844556218949
 20
45.77897430220194
 30
0.0
 10
264.7411057787148
 20
46.38434030164219
 30
0.0
 10
264.4813490395297
 20
46.94756044423578
 30
0.0
 10
264.3066958492969
 20
47.20440194947367
 30
0.0
 10
264.287400337012
 20
47.2327775457797
 30
0.0
  0
LINE
  5
192
330
1F
100
AcDbEntity
  8
0
  6
Continuous
 62
     7
370
    15
100
AcDbLine
 10
262.2153942101
 20
49.3120256908
 30
0.0
 11
259.1041243729
 21
51.1081235368
 31
0.0
  0
SPLINE
  5
193
330
1F
100
AcDbEntity
  8
0
  6
Continuous
 62
     7
370
    15
100
AcDbSpline
210
0.0
220
0.0
230
1.0
 70
     8
 71
     3
 72
    27
 73
    23
 74
     0
 42
0.000000001
 43
0.00000001
 40
0.0
 40
0.0
 40
0.0
 40
0.0
 40
0.034508891282482
 40
0.0906843104932526
 40
0.1455339220361584
 40
0.198739564270651
 40
0.2508933258097849
 40
0.3025641849465142
 40
0.3540911736137592
 40
0.4056139198592292
 40
0.4572095839882451
 40
0.5089050556189743
 40
0.5606945278783694
 40
0.6125571259875141
 40
0.664465578303074
 40
0.7163901086258309
 40
0.7682947736122266
 40
0.8201432989003845
 40
0.8719047141189683
 40
0.9235500522730795
 40
0.9750568014770927
 40
1.0
 40
1.0
 40
1.0
 40
1.0
 10
260.7563143106399
 20
23.95767376961736
 30
0.0
 10
260.6737905131732
 20
24.00526653113587
 30
0.0
 10
260.4569300637519
 20
24.13033333572971
 30
0.0
 10
260.1675104411146
 20
24.43600791024542
 30
0.0
 10
259.8870211478378
 20
24.86239221638854
 30
0.0
 10
259.6752164900063
 20
25.37160421633434
 30
0.0
 10
259.5319737171383
 20
25.94885562342198
 30
0.0
 10
259.4594509544973
 20
26.58771333457858
 30
0.0
 10
259.4589887335517
 20
27.27955415377142
 30
0.0
 10
259.5316144720793
 20
28.01460317076836
 30
0.0
 10
259.6772013984689
 20
28.78164471814305
 30
0.0
 10
259.8943685417228
 20
29.56872279675411
 30
0.0
 10
260.1803872510112
 20
30.36331084519432
 30
0.0
 10
260.531202954915
 20
31.15262981687945
 30
0.0
 10
260.9415175012006
 20
31.92395934787968
 30
0.0
 10
261.4048780116818
 20
32.6648593229861
 30
0.0
 10
261.9137851546959
 20
33.36344923546104
 30
0.0
 10
262.4598011650175
 20
34.00848507056997
 30
0.0
 10
263.033769363005
 20
34.59022760679219
 30
0.0
 10
263.6256789045459
 20
35.09829415656851
 30
0.0
 10
264.1232215153652
 20
35.45672698783375
 30
0.0
 10
264.4190027292241
 20
35.63354372199456
 30
0.0
 10
264.5155067786839
 20
35.69123342661148
 30
0.0
  0
SPLINE
  5
194
330
1F
100
AcDbEntity
  8
0
  6
Continuous
 62
     7
370
    15
100
AcDbSpline
210
0.0
220
0.0
230
1.0
 70
     8
 71
     3
 72
    14
 73
    10
 74
     0
 42
0.000000001
 43
0.00000001
 40
0.0
 40
0.0
 40
0.0
 40
0.0
 40
0.0814282074089707
 40
0.2368160422962276
 40
0.3921151355725401
 40
0.5477833082242112
 40
0.7048777264212767
 40
0.8650784027297451
 40
1.0
 40
1.0
 40
1.0
 40
1.0
 10
264.5155067786839
 20
35.69123342661148
 30
0.0
 10
264.6190505004838
 20
35.74872500039719
 30
0.0
 10
264.9201846551152
 20
35.91592660537579
 30
0.0
 10
265.4105086202314
 20
36.12563725114644
 30
0.0
 10
265.9702244479711
 20
36.28774163298959
 30
0.0
 10
266.4979091839476
 20
36.35830319982515
 30
0.0
 10
266.9857625491896
 20
36.33768597503265
 30
0.0
 10
267.4097380252379
 20
36.24466996431939
 30
0.0
 10
267.6466742688016
 20
36.11769859870199
 30
0.0
 10
267.7549948507935
 20
36.05965086394802
 30
0.0
  0
SPLINE
  5
195
330
1F
100
AcDbEntity
  8
0
  6
Continuous
 62
     7
370
    15
100
AcDbSpline
210
0.0
220
0.0
230
1.0
 70
     8
 71
     3
 72
    29
 73
    25
 74
     0
 42
0.000000001
 43
0.00000001
 40
0.0
 40
0.0
 40
0.0
 40
0.0
 40
0.0145443619891035
 40
0.0619118835458125
 40
0.1094609068252069
 40
0.1571514353066951
 40
0.2049365994972661
 40
0.2527750248165992
 40
0.3006358542802214
 40
0.3484953951271655
 40
0.3963429370456777
 40
0.4441743140859208
 40
0.4919887290489105
 40
0.5397874245564751
 40
0.5875728201288024
 40
0.635347983230155
 40
0.6831163224664669
 40
0.7308814208864851
 40
0.7786469526137397
 40
0.8264156898436762
 40
0.8741911068362321
 40
0.921976966646088
 40
0.9697769759318529
 40
1.0
 40
1.0
 40
1.0
 40
1.0
 10
256.2030808379315
 20
51.85858510392028
 30
0.0
 10
256.1183928317072
 20
51.86260950498624
 30
0.0
 10
255.7578961675697
 20
51.87974042144193
 30
0.0
 10
255.0892400175156
 20
51.80864973364893
 30
0.0
 10
254.2029800842007
 20
51.64403893658248
 30
0.0
 10
253.2935987578995
 20
51.37353229493499
 30
0.0
 10
252.3706490416884
 20
51.00825923483242
 30
0.0
 10
251.4400062549439
 20
50.54839682909087
 30
0.0
 10
250.5085485813024
 20
49.99805173958579
 30
0.0
 10
249.5827625284215
 20
49.36112687423227
 30
0.0
 10
248.6690560497451
 20
48.64231806574509
 30
0.0
 10
247.7736366511493
 20
47.84674712659524
 30
0.0
 10
246.9025573309262
 20
46.98002180581566
 30
0.0
 10
246.0616971768223
 20
46.04818968635001
 30
0.0
 10
245.2567348671589
 20
45.05771085505209
 30
0.0
 10
244.4931187906594
 20
44.015420294672
 30
0.0
 10
243.7760242117618
 20
42.92848524417317
 30
0.0
 10
243.1103534721967
 20
41.80436707946382
 30
0.0
 10
242.5005800108949
 20
40.65075290406224
 30
0.0
 10
241.9511889307729
 20
39.47560058079399
 30
0.0
 10
241.4648726169754
 20
38.28670308361698
 30
0.0
 10
241.0491317470355
 20
37.09303897200726
 30
0.0
 10
240.7353961004583
 20
36.04588912630846
 30
0.0
 10
240.5932957242725
 20
35.40573410634001
 30
0.0
 10
240.5382516827254
 20
35.15776347838337
 30
0.0
  0
LINE
  5
196
330
1F
100
AcDbEntity
  8
0
  6
Continuous
 62
     7
370
    15
100
AcDbLine
 10
250.1786813586
 20
49.7560422175
 30
0.0
 11
230.3413079716
 21
56.9046452599
 31
0.0
  0
LINE
  5
197
330
1F
100
AcDbEntity
  8
0
  6
Continuous
 62
     7
370
    15
100
AcDbLine
 10
224.0019916105
 20
45.9234374005
 30
0.0
 11
243.087678999
 21
29.8076407487
 31
0.0
  0
SPLINE
  5
198
330
1F
100
AcDbEntity
  8
0
  6
Continuous
 62
     7
370
    15
100
AcDbSpline
210
0.0
220
0.0
230
1.0
 70
     8
 71
     3
 72
    12
 73
     8
 74
     0
 42
0.000000001
 43
0.00000001
 40
0.0
 40
0.0
 40
0.0
 40
0.0
 40
0.0771417174925486
 40
0.3283739110385008
 40
0.5805687700232164
 40
0.8335141572422978
 40
1.0
 40
1.0
 40
1.0
 40
1.0
 10
249.417713642674
 20
21.36762984492504
 30
0.0
 10
249.5024023550004
 20
21.36361309807684
 30
0.0
 10
249.8629020248466
 20
21.34651476380239
 30
0.0
 10
250.5314956261144
 20
21.41692741651161
 30
0.0
 10
251.4180283983169
 20
21.58449581433974
 30
0.0
 10
252.2222640324227
 20
21.81426029479124
 30
0.0
 10
252.7320683099454
 20
22.02463629829183
 30
0.0
 10
252.9344261429317
 20
22.10814134926462
 30
0.0
  0
LINE
  5
199
330
1F
100
AcDbEntity
  8
0
  6
Continuous
 62
     7
370
    15
100
AcDbLine
 10
243.4054002705
 20
23.9141892581
 30
0.0
 11
246.5166701077
 21
22.118091412
 31
0.0
  0
SPLINE
  5
19A
330
1F
100
AcDbEntity
  8
0
  6
Continuous
 62
     7
370
    15
100
AcDbSpline
210
0.0
220
0.0
230
1.0
 70
     8
 71
     3
 72
    11
 73
     7
 74
     0
 42
0.000000001
 43
0.00000001
 40
0.0
 40
0.0
 40
0.0
 40
0.0
 40
0.0850573943540186
 40
0.5161305030079116
 40
0.9465425749674912
 40
1.0
 40
1.0
 40
1.0
 40
1.0
 10
240.5181293980432
 20
27.86422008451292
 30
0.0
 10
240.5348482663869
 20
27.80524167780265
 30
0.0
 10
240.6362987986242
 20
27.44735915679243
 30
0.0
 10
240.879686314096
 20
26.8418725298422
 30
0.0
 10
241.1394454959237
 20
26.27865455324524
 30
0.0
 10
241.3140986367655
 20
26.02181300421008
 30
0.0
 10
241.3333941435939
 20
25.99343740306529
 30
0.0
  0
SPLINE
  5
19B
330
1F
100
AcDbEntity
  8
0
  6
Continuous
 62
     7
370
    15
100
AcDbSpline
210
0.0
220
0.0
230
1.0
 70
     8
 71
     3
 72
    10
 73
     6
 74
     0
 42
0.000000001
 43
0.00000001
 40
0.0
 40
0.0
 40
0.0
 40
0.0
 40
0.2386514215562325
 40
0.7814805626006378
 40
1.0
 40
1.0
 40
1.0
 40
1.0
 10
223.0864833267078
 20
50.0436575610622
 30
0.0
 10
223.0632965186419
 20
49.93344989331732
 30
0.0
 10
222.9873697142086
 20
49.57256727367666
 30
0.0
 10
222.9505942701815
 20
49.12794534573852
 30
0.0
 10
222.9453183749742
 20
48.80222127082146
 30
0.0
 10
222.9438041071538
 20
48.70873315826231
 30
0.0
  0
SPLINE
  5
19C
330
1F
100
AcDbEntity
  8
0
  6
Continuous
 62
     7
370
    15
100
AcDbSpline
210
0.0
220
0.0
230
1.0
 70
     8
 71
     3
 72
    10
 73
     6
 74
     0
 42
0.000000001
 43
0.00000001
 40
0.0
 40
0.0
 40
0.0
 40
0.0
 40
0.3150022922103509
 40
0.7080577987496912
 40
1.0
 40
1.0
 40
1.0
 40
1.0
 10
228.2161807668115
 20
56.80672878717522
 30
0.0
 10
228.0571098798745
 20
56.74510976473981
 30
0.0
 10
227.6995525387536
 20
56.60660337775266
 30
0.0
 10
227.189680317753
 20
56.31780359820765
 30
0.0
 10
226.8481129630825
 20
56.06252897059003
 30
0.0
 10
226.7025388622297
 20
55.95373234855385
 30
0.0
  0
SPLINE
  5
19D
330
1F
100
AcDbEntity
  8
0
  6
Continuous
 62
     7
370
    15
100
AcDbSpline
210
0.0
220
0.0
230
1.0
 70
     8
 71
     3
 72
    10
 73
     6
 74
     0
 42
0.000000001
 43
0.00000001
 40
0.0
 40
0.0
 40
0.0
 40
0.0
 40
0.2378680365079406
 40
0.8158811319166224
 40
1.0
 40
1.0
 40
1.0
 40
1.0
 10
222.9462236690081
 20
48.63026755969001
 30
0.0
 10
222.9483951522427
 20
48.53644068683958
 30
0.0
 10
222.9558432828343
 20
48.21461697168542
 30
0.0
 10
222.9957268191089
 20
47.83534177214917
 30
0.0
 10
223.0705969233372
 20
47.58029192330523
 30
0.0
 10
223.0886843406142
 20
47.51867596737706
 30
0.0
  0
LINE
  5
19E
330
1F
100
AcDbEntity
  8
0
  6
Continuous
 62
     7
370
    15
100
AcDbLine
 10
222.9438041072
 20
48.7087331583
 30
0.0
 11
222.946223669
 21
48.6302675597
 31
0.0
  0
LINE
  5
19F
330
1F
100
AcDbEntity
  8
0
  6
Continuous
 62
     7
370
    15
100
AcDbLine
 10
222.752625483
 20
47.037074196
 30
0.0
 11
223.4251400628
 21
46.6488397929
 31
0.0
  0
LINE
  5
1A0
330
1F
100
AcDbEntity
  8
0
  6
Continuous
 62
     7
370
    15
100
AcDbLine
 10
229.4246524586
 20
57.0414261415
 30
0.0
 11
228.7521378788
 21
57.4296605446
 31
0.0
  0
LINE
  5
1A1
330
1F
100
AcDbEntity
  8
0
  6
Continuous
 62
     7
370
    15
100
AcDbLine
 10
220.7981975759
 20
47.790073901
 30
0.0
 11
222.2589476564
 21
46.9468008292
 31
0.0
  0
LINE
  5
1A2
330
1F
100
AcDbEntity
  8
0
  6
Continuous
 62
     7
370
    15
100
AcDbLine
 10
228.5834336403
 20
57.9023189383
 30
0.0
 11
227.1226835599
 21
58.7455920102
 31
0.0
  0
LINE
  5
1A3
330
1F
100
AcDbEntity
  8
0
  6
Continuous
 62
     7
370
    15
100
AcDbLine
 10
218.9901761976
 20
50.0606585158
 30
0.0
 11
219.5748588952
 21
49.7231283791
 31
0.0
  0
LINE
  5
1A4
330
1F
100
AcDbEntity
  8
0
  6
Continuous
 62
     7
370
    15
100
AcDbLine
 10
224.8369312257
 20
58.8382926556
 30
0.0
 11
224.2522485281
 21
59.1758227924
 31
0.0
  0
LINE
  5
1A5
330
1F
100
AcDbEntity
  8
0
  6
Continuous
 62
     7
370
    15
100
AcDbLine
 10
217.0992776739
 20
50.0379951615
 30
0.0
 11
218.1892325932
 21
49.4087775798
 31
0.0
  0
LINE
  5
1A6
330
1F
100
AcDbEntity
  8
0
  6
Continuous
 62
     7
370
    15
100
AcDbLine
 10
224.4162265007
 20
60.1954161608
 30
0.0
 11
223.3262715813
 21
60.8246337424
 31
0.0
  0
LINE
  5
1A7
330
1F
100
AcDbEntity
  8
0
  6
Continuous
 62
     7
370
    15
100
AcDbLine
 10
214.8384872651
 20
52.3274772291
 30
0.0
 11
215.9528568045
 21
51.6841653873
 31
0.0
  0
LINE
  5
1A8
330
1F
100
AcDbEntity
  8
0
  6
Continuous
 62
     7
370
    15
100
AcDbLine
 10
221.3274199924
 20
60.9941906579
 30
0.0
 11
220.2130504531
 21
61.6375024997
 31
0.0
  0
LINE
  5
1A9
330
1F
100
AcDbEntity
  8
0
  6
Continuous
 62
     7
370
    15
100
AcDbLine
 10
263.4900600666
 20
32.72003968
 30
0.0
 11
266.0553665015
 21
33.2427016549
 31
0.0
  0
LINE
  5
1AA
330
1F
100
AcDbEntity
  8
0
  6
Continuous
 62
     7
370
    15
100
AcDbLine
 10
261.773320382
 20
43.8091172479
 30
0.0
 11
261.5257927948
 21
43.9520583312
 31
0.0
  0
LINE
  5
1AB
330
1F
100
AcDbEntity
  8
0
  6
Continuous
 62
     7
370
    15
100
AcDbLine
 10
257.7775179018
 20
43.9520583312
 30
0.0
 11
257.5299903145
 21
43.8091172479
 31
0.0
  0
LINE
  5
1AC
330
1F
100
AcDbEntity
  8
0
  6
Continuous
 62
     7
370
    15
100
AcDbLine
 10
256.6516553483
 20
42.5847040979
 30
0.0
 11
256.6516553483
 21
42.3601553746
 31
0.0
  0
LINE
  5
1AD
330
1F
100
AcDbEntity
  8
0
  6
Continuous
 62
     7
370
    15
100
AcDbLine
 10
262.6516553483
 20
42.3601553746
 30
0.0
 11
262.6516553483
 21
42.5847040979
 31
0.0
  0
LWPOLYLINE
  5
1AE
330
1F
100
AcDbEntity
  8
0
  6
Continuous
 62
     7
370
    15
100
AcDbPolyline
 90
       64
 70
   128
 43
0.0
 10
264.6190804861
 20
39.7987246863
 10
263.756618017
 20
39.2511304105
 10
262.9027270875
 20
38.609567792
 10
262.0658940491
 20
37.8804129684
 10
261.2544357246
 20
37.070912608
 10
260.4764167513
 20
36.1891118889
 10
259.7395694314
 20
35.2437745428
 10
259.0512168846
 20
34.2442957572
 10
258.4182002678
 20
33.2006088011
 10
257.8468107844
 20
32.1230863044
 10
257.3427271599
 20
31.0224371698
 10
256.9109592038
 20
29.9096001428
 10
256.55579802
 20
28.7956350979
 10
256.2807733599
 20
27.6916131201
 10
256.0886185422
 20
26.6085064758
 10
255.9812432878
 20
25.5570795654
 10
255.9597147401
 20
24.547781942
 10
256.0242468597
 20
23.5906444588
 10
256.1741982972
 20
22.6951795781
 10
256.4080787679
 20
21.8702868322
 10
256.7235638627
 20
21.1241643758
 10
257.1175181488
 20
20.4642275092
 10
257.5860263317
 20
19.8970349812
 10
258.1244321666
 20
19.4282238062
 10
258.7273847342
 20
19.0624532402
 10
259.3888916212
 20
18.8033584754
 10
260.1023784749
 20
18.653514512
 10
260.8607543425
 20
18.6144105667
 10
261.6564821437
 20
18.6864352719
 10
262.4816535782
 20
18.8688728139
 10
263.3280677217
 20
19.1599100463
 10
264.18731253
 20
19.5566545104
 10
265.0508484422
 20
20.0551631815
 10
265.9100932506
 20
20.6504816564
 10
266.756507394
 20
21.3366933927
 10
267.5816788286
 20
22.1069785098
 10
268.3774066298
 20
22.9536815682
 10
269.1357824973
 20
23.8683876524
 10
269.849269351
 20
24.8420060026
 10
270.510776238
 20
25.864860362
 10
271.1137288057
 20
26.9267851446
 10
271.6521346405
 20
28.0172264647
 10
272.1206428234
 20
29.1253470267
 10
272.5145971096
 20
30.2401338304
 10
272.8300822043
 20
31.3505076239
 10
273.063962675
 20
32.4454330135
 10
273.2139141126
 20
33.5140281387
 10
273.2784462321
 20
34.5456728212
 10
273.2569176845
 20
35.5301141126
 10
273.14954243
 20
36.457568193
 10
272.9573876123
 20
37.3188176072
 10
272.6823629523
 20
38.1053028715
 10
272.3272017685
 20
38.809207542
 10
271.8954338124
 20
39.4235358978
 10
271.3913501878
 20
39.9421824678
 10
270.8199607045
 20
40.3599927094
 10
270.1869440876
 20
40.6728142366
 10
269.4985915408
 20
40.8775380886
 10
268.7617442209
 20
40.9721296277
 10
267.9837252477
 20
40.9556487607
 10
267.1722669232
 20
40.828259282
 10
266.3354338848
 20
40.5912272453
 10
265.4815429552
 20
40.2469083815
 10
264.6190804861
 20
39.7987246863
  0
LWPOLYLINE
  5
1AF
330
1F
100
AcDbEntity
  8
0
  6
Continuous
 62
     7
370
    15
100
AcDbPolyline
 90
       34
 70
   128
 43
0.0
 10
264.4423037908
 20
40.1049109033
 10
263.5759464833
 20
39.5556251355
 10
262.7179326703
 20
38.9133326101
 10
261.8765254938
 20
38.1842189552
 10
261.0598281649
 20
37.3753059339
 10
260.2757059253
 20
36.4943838209
 10
259.5317103009
 20
35.5499363775
 10
258.8350063762
 20
34.551059149
 10
258.1923037908
 20
33.5073718691
 10
257.6097921221
 20
32.4289258169
 10
257.0930812757
 20
31.3261070174
 10
256.6471474597
 20
30.2095362185
 10
256.2762852603
 20
29.0899666074
 10
255.9840662835
 20
27.9781802513
 10
255.7733047576
 20
26.8848842608
 10
255.6460304313
 20
25.8206076739
 10
255.603469026
 20
24.7956000558
 10
255.6460304313
 20
23.8197327903
 10
255.7733047576
 20
22.9024040126
 10
255.9840662835
 20
22.0524481003
 10
256.2762852603
 20
21.2780505934
 10
256.6471474597
 20
20.5866693633
 10
257.0930812757
 20
19.9849627892
 10
257.6097921221
 20
19.4787256343
 10
258.1923037908
 20
19.0728332391
 10
258.8350063762
 20
18.7711945694
 10
259.5317103009
 20
18.5767145703
 10
260.2757059253
 20
18.4912661906
 10
261.0598281649
 20
18.5156723449
 10
261.8765254938
 20
18.6496979886
 10
262.7179326703
 20
18.8920523814
 10
263.5759464833
 20
19.2404015181
 10
264.4423037908
 20
19.6913906061
 10
264.44374035
 20
19.6922200489
  0
LWPOLYLINE
  5
1B0
330
1F
100
AcDbEntity
  8
0
  6
Continuous
 62
     7
370
    15
100
AcDbPolyline
 90
       17
 70
   128
 43
0.0
 10
273.2811385557
 20
35.0007014536
 10
273.2385771504
 20
35.9765687191
 10
273.1113028241
 20
36.8938974968
 10
272.9005412982
 20
37.7438534091
 10
272.6083223213
 20
38.518250916
 10
272.237460122
 20
39.2096321461
 10
271.7915263059
 20
39.8113387202
 10
271.2748154596
 20
40.3175758751
 10
270.6923037908
 20
40.7234682702
 10
270.0496012055
 20
41.02510694
 10
269.3528972807
 20
41.2195869391
 10
268.6089016563
 20
41.3050353188
 10
267.8247794167
 20
41.2806291645
 10
267.0080820878
 20
41.1466035208
 10
266.1666749113
 20
40.904249128
 10
265.3086610983
 20
40.5558999912
 10
264.4423037908
 20
40.1049109033
  0
LINE
  5
1B1
330
1F
100
AcDbEntity
  8
0
  6
Continuous
 62
     7
370
    15
100
AcDbLine
 10
249.3532684943
 20
24.1757412954
 30
0.0
 11
249.3893322861
 21
24.154680471
 31
0.0
  0
ELLIPSE
  5
1B2
330
1F
100
AcDbEntity
  8
0
  6
Continuous
 62
     7
370
    15
100
AcDbEllipse
 10
251.3785060084
 20
37.4397206876
 30
0.0
 11
-8.839193897344103
 21
15.3091035078279
 31
0.0
210
0.0
220
0.0
230
1.0
 40
0.5773346305
 41
1.898596938405827
 42
2.073691636603311
  0
LINE
  5
1B3
330
1F
100
AcDbEntity
  8
0
  6
Continuous
 62
     7
370
    15
100
AcDbLine
 10
245.8565353071
 20
27.6793354373
 30
0.0
 11
246.2100886977
 21
27.4752334094
 31
0.0
  0
SPLINE
  5
1B4
330
1F
100
AcDbEntity
  8
0
  6
Continuous
 62
     7
370
    15
100
AcDbSpline
210
0.0
220
0.0
230
1.0
 70
     8
 71
     3
 72
    50
 73
    46
 74
     0
 42
0.000000001
 43
0.00000001
 40
0.0
 40
0.0
 40
0.0
 40
0.0
 40
0.0624999999999996
 40
0.0624999999999996
 40
0.0937499999999994
 40
0.0937499999999994
 40
0.1249999999999992
 40
0.1249999999999992
 40
0.1874999999999989
 40
0.1874999999999989
 40
0.2187499999999988
 40
0.2187499999999988
 40
0.2499999999999987
 40
0.2499999999999987
 40
0.3124999999999988
 40
0.3124999999999988
 40
0.3749999999999988
 40
0.3749999999999988
 40
0.4062499999999989
 40
0.4062499999999989
 40
0.437499999999999
 40
0.437499999999999
 40
0.4999999999999991
 40
0.4999999999999991
 40
0.5624999999999991
 40
0.5624999999999991
 40
0.6249999999999992
 40
0.6249999999999992
 40
0.6562499999999992
 40
0.6562499999999992
 40
0.6874999999999992
 40
0.6874999999999992
 40
0.7187499999999993
 40
0.7187499999999993
 40
0.7499999999999993
 40
0.7499999999999993
 40
0.8124999999999994
 40
0.8124999999999994
 40
0.8749999999999997
 40
0.8749999999999997
 40
0.9374999999999998
 40
0.9374999999999998
 40
0.96875
 40
0.96875
 40
1.0
 40
1.0
 40
1.0
 40
1.0
 10
246.2100886976728
 20
34.04838694507252
 30
0.0
 10
246.3994398900435
 20
33.93907682844819
 30
0.0
 10
246.5789288451701
 20
33.80643923463273
 30
0.0
 10
246.8347003482231
 20
33.57448621286463
 30
0.0
 10
246.9177082684032
 20
33.49163281229882
 30
0.0
 10
247.0793890274711
 20
33.31476123689389
 30
0.0
 10
247.1579685398613
 20
33.22073196973135
 30
0.0
 10
247.3824642744518
 20
32.92852893061531
 30
0.0
 10
247.5191131200181
 20
32.71836550973657
 30
0.0
 10
247.707376472989
 20
32.38135236097402
 30
0.0
 10
247.7676123902398
 20
32.26472363460267
 30
0.0
 10
247.880822616059
 20
32.02822044309745
 30
0.0
 10
247.9339229093972
 20
31.90822543446145
 30
0.0
 10
248.0836684069706
 20
31.54337591676178
 30
0.0
 10
248.1708548258105
 20
31.29370702625018
 30
0.0
 10
248.3224573269684
 20
30.78215195640797
 30
0.0
 10
248.3845499990515
 20
30.52806844998788
 30
0.0
 10
248.4594154863066
 20
30.15178075172287
 30
0.0
 10
248.4813177701261
 20
30.02707289555492
 30
0.0
 10
248.5191037572908
 20
29.77925033860489
 30
0.0
 10
248.5350324520622
 20
29.65550312710258
 30
0.0
 10
248.5728472814652
 20
29.29483319060659
 30
0.0
 10
248.5853019202088
 20
29.06653198493239
 30
0.0
 10
248.5855644569849
 20
28.6343260425329
 30
0.0
 10
248.572930248692
 20
28.42926945485376
 30
0.0
 10
248.5229815919809
 20
28.06205750062049
 30
0.0
 10
248.4858576020673
 20
27.89742015543334
 30
0.0
 10
248.4103459267158
 20
27.67842495926513
 30
0.0
 10
248.3819438599566
 20
27.6105731980008
 30
0.0
 10
248.3193970362854
 20
27.48674335854495
 30
0.0
 10
248.2851395080021
 20
27.43042272967809
 30
0.0
 10
248.21037632108
 20
27.32855004918022
 30
0.0
 10
248.1698714936583
 20
27.28299845340859
 30
0.0
 10
248.0820990505081
 20
27.20255492114056
 30
0.0
 10
248.0346060122253
 20
27.16759102956918
 30
0.0
 10
247.8839984581954
 20
27.08048838505847
 30
0.0
 10
247.7722257559187
 20
27.04513142141911
 30
0.0
 10
247.5223191950212
 20
27.01739714596227
 30
0.0
 10
247.3827850119278
 20
27.02564079513705
 30
0.0
 10
247.0847606623184
 20
27.08414959374185
 30
0.0
 10
246.9252639974637
 20
27.13396953433893
 30
0.0
 10
246.6679182824847
 20
27.239670761216
 30
0.0
 10
246.5788482022178
 20
27.28026972119745
 30
0.0
 10
246.3974421709627
 20
27.37066327123362
 30
0.0
 10
246.3047729392376
 20
27.42057336020877
 30
0.0
 10
246.2100886976728
 20
27.47523340939223
 30
0.0
  0
LINE
  5
1B5
330
1F
100
AcDbEntity
  8
0
  6
Continuous
 62
     7
370
    15
100
AcDbLine
 10
246.2100886977
 20
34.0483869451
 30
0.0
 11
245.8565353071
 21
34.252488973
 31
0.0
  0
ELLIPSE
  5
1B6
330
1F
100
AcDbEntity
  8
0
  6
Continuous
 62
     7
370
    15
100
AcDbEllipse
 10
251.3785060084
 20
37.4397206876
 30
0.0
 11
12.49999992806943
 21
7.217269321126296
 31
0.0
210
0.0
220
0.0
230
1.0
 40
0.0000703729
 41
1.853217917641633
 42
2.028312616473747
  0
LINE
  5
1B7
330
1F
100
AcDbEntity
  8
0
  6
Continuous
 62
     7
370
    15
100
AcDbLine
 10
261.9243802358
 20
45.7848412062
 30
0.0
 11
261.888316444
 21
45.8059020305
 31
0.0
  0
SPLINE
  5
1B8
330
1F
100
AcDbEntity
  8
0
  6
Continuous
 62
     7
370
    15
100
AcDbSpline
210
0.0
220
0.0
230
1.0
 70
    11
 71
     3
 72
    95
 73
    91
 74
     0
 42
0.000000001
 43
0.00000001
 40
0.0
 40
0.0
 40
0.0
 40
0.0
 40
0.0312500000000003
 40
0.0312500000000003
 40
0.0468750000000004
 40
0.0468750000000004
 40
0.0625000000000004
 40
0.0625000000000004
 40
0.0937500000000007
 40
0.0937500000000007
 40
0.1093750000000007
 40
0.1093750000000007
 40
0.1250000000000007
 40
0.1250000000000007
 40
0.1562500000000005
 40
0.1562500000000005
 40
0.1718750000000004
 40
0.1718750000000004
 40
0.1875000000000003
 40
0.1875000000000003
 40
0.2187500000000001
 40
0.2187500000000001
 40
0.2343750000000001
 40
0.2343750000000001
 40
0.2500000000000001
 40
0.2500000000000001
 40
0.28125
 40
0.28125
 40
0.2968750000000001
 40
0.2968750000000001
 40
0.3125000000000002
 40
0.3125000000000002
 40
0.3437500000000002
 40
0.3437500000000002
 40
0.3593750000000002
 40
0.3593750000000002
 40
0.3750000000000003
 40
0.3906250000000003
 40
0.3906250000000003
 40
0.4062500000000004
 40
0.4062500000000004
 40
0.4375000000000006
 40
0.4375000000000006
 40
0.4531250000000007
 40
0.4531250000000007
 40
0.4687500000000008
 40
0.4687500000000008
 40
0.5000000000000007
 40
0.5000000000000007
 40
0.5312500000000007
 40
0.5312500000000007
 40
0.5468750000000006
 40
0.5468750000000006
 40
0.5625000000000006
 40
0.5625000000000006
 40
0.5937500000000004
 40
0.5937500000000004
 40
0.6250000000000002
 40
0.6250000000000002
 40
0.6562500000000001
 40
0.6562500000000001
 40
0.6875
 40
0.6875
 40
0.7187499999999999
 40
0.7187499999999999
 40
0.7499999999999998
 40
0.7499999999999998
 40
0.7656249999999998
 40
0.7656249999999998
 40
0.7812499999999999
 40
0.7812499999999999
 40
0.8125
 40
0.8125
 40
0.828125
 40
0.828125
 40
0.8437500000000001
 40
0.8437500000000001
 40
0.8750000000000001
 40
0.8750000000000001
 40
0.8906250000000002
 40
0.8906250000000002
 40
0.9062500000000002
 40
0.9062500000000002
 40
0.9218750000000003
 40
0.9218750000000003
 40
0.9375000000000003
 40
0.9375000000000003
 40
0.9687500000000002
 40
0.9687500000000002
 40
1.0
 40
1.0
 40
1.0
 40
1.0
 10
259.6188489081986
 20
44.64476008453128
 30
0.0
 10
259.8421271435885
 20
44.60813144264085
 30
0.0
 10
260.0595712853155
 20
44.56057106230594
 30
0.0
 10
260.3780214752089
 20
44.47601381998383
 30
0.0
 10
260.4828731639469
 20
44.44559904540856
 30
0.0
 10
260.6900236975802
 20
44.3805774384839
 30
0.0
 10
260.7927795367127
 20
44.34579983795005
 30
0.0
 10
261.0935559435248
 20
44.23669607209506
 30
0.0
 10
261.283281654627
 20
44.15809466783151
 30
0.0
 10
261.5524516436092
 20
44.03264945342386
 30
0.0
 10
261.6395873405713
 20
43.98956144938884
 30
0.0
 10
261.8086056839361
 20
43.90087050808026
 30
0.0
 10
261.8907509035363
 20
43.8550921280355
 30
0.0
 10
262.1248793516932
 20
43.71640269003532
 30
0.0
 10
262.2659593089882
 20
43.62156662539529
 30
0.0
 10
262.4553748510925
 20
43.47539003466431
 30
0.0
 10
262.5147900740951
 20
43.4260004665601
 30
0.0
 10
262.6259371225166
 20
43.32569983157682
 30
0.0
 10
262.6777379294828
 20
43.27466353013384
 30
0.0
 10
262.8183720267821
 20
43.12190735085217
 30
0.0
 10
262.8937010073765
 20
43.01963272856202
 30
0.0
 10
262.9785315121645
 20
42.86395613303347
 30
0.0
 10
263.0020835744077
 20
42.8116810060373
 30
0.0
 10
263.0392190901179
 20
42.70600446225898
 30
0.0
 10
263.0527356254461
 20
42.65255588764217
 30
0.0
 10
263.0768843280228
 20
42.49359502951661
 30
0.0
 10
263.0718057645937
 20
42.3882688952139
 30
0.0
 10
263.0304326992904
 20
42.22927711167839
 30
0.0
 10
263.0109746596399
 20
42.17611315784233
 30
0.0
 10
262.959770599618
 20
42.0690996510768
 30
0.0
 10
262.928173478052
 20
42.01571869161997
 30
0.0
 10
262.8169048176107
 20
41.8583845618213
 30
0.0
 10
262.7204303983731
 20
41.75605052105413
 30
0.0
 10
262.5397270063551
 20
41.60545489051678
 30
0.0
 10
262.4728718140316
 20
41.555402594202
 30
0.0
 10
262.3301160110735
 20
41.45891587884396
 30
0.0
 10
262.1780311017269
 20
41.36563829695887
 30
0.0
 10
262.0076567800019
 20
41.27860474831599
 30
0.0
 10
261.8280261517519
 20
41.19478048861839
 30
0.0
 10
261.7330302462828
 20
41.15429352453467
 30
0.0
 10
261.4414124926754
 20
41.04090260317135
 30
0.0
 10
261.2364961759338
 20
40.97499063970445
 30
0.0
 10
260.9141500132011
 20
40.89102262738587
 30
0.0
 10
260.804508425713
 20
40.86566790276033
 30
0.0
 10
260.5851102603118
 20
40.82114498370607
 30
0.0
 10
260.4747714891919
 20
40.80181982110063
 30
0.0
 10
260.1418638757453
 20
40.7526772817825
 30
0.0
 10
259.9154171772207
 20
40.73164952146647
 30
0.0
 10
259.4720956357688
 20
40.7155669810431
 30
0.0
 10
259.2541143043773
 20
40.72013221408154
 30
0.0
 10
258.9321767644522
 20
40.74678952669395
 30
0.0
 10
258.8254856383609
 20
40.75906390221841
 30
0.0
 10
258.6175190724206
 20
40.78998921941258
 30
0.0
 10
258.5157759292787
 20
40.8086622323987
 30
0.0
 10
258.2170252198905
 20
40.8743306105574
 30
0.0
 10
258.0264397075364
 20
40.93091293653882
 30
0.0
 10
257.6625999471214
 20
41.07132101600121
 30
0.0
 10
257.4936460712624
 20
41.15357630420667
 30
0.0
 10
257.1829626782766
 20
41.34036828105192
 30
0.0
 10
257.0406958438859
 20
41.44516474367608
 30
0.0
 10
256.7842989391531
 20
41.67761078353098
 30
0.0
 10
256.6736923859706
 20
41.80201528631675
 30
0.0
 10
256.4868599488302
 20
42.06557401228481
 30
0.0
 10
256.4104454832819
 20
42.20514801250939
 30
0.0
 10
256.2957464790079
 20
42.49668916849778
 30
0.0
 10
256.2588471411082
 20
42.64481696071002
 30
0.0
 10
256.2346160450172
 20
42.868953695167
 30
0.0
 10
256.2317623261912
 20
42.94399256984377
 30
0.0
 10
256.2370818496324
 20
43.09447137990137
 30
0.0
 10
256.2453437410749
 20
43.17034847848122
 30
0.0
 10
256.2875203166483
 20
43.39493658709514
 30
0.0
 10
256.3380431339627
 20
43.53903564359278
 30
0.0
 10
256.4488415345215
 20
43.74484521780378
 30
0.0
 10
256.4916535979769
 20
43.81171706978338
 30
0.0
 10
256.5898949343651
 20
43.94153971283193
 30
0.0
 10
256.6455341782377
 20
44.00453593206244
 30
0.0
 10
256.8269821446058
 20
44.18136895932793
 30
0.0
 10
256.96853037299
 20
44.28520923246199
 30
0.0
 10
257.2126459869165
 20
44.41891595870914
 30
0.0
 10
257.2998027449278
 20
44.45988630456718
 30
0.0
 10
257.4799852842816
 20
44.53211668507758
 30
0.0
 10
257.5735148978436
 20
44.56370973501313
 30
0.0
 10
257.7672215964881
 20
44.61828234229322
 30
0.0
 10
257.8673992277369
 20
44.64126094769982
 30
0.0
 10
258.0743984441672
 20
44.67880951607434
 30
0.0
 10
258.1807051826014
 20
44.69323122345141
 30
0.0
 10
258.5019397279275
 20
44.72371986359271
 30
0.0
 10
258.7213724472691
 20
44.72755667408402
 30
0.0
 10
259.1704971551501
 20
44.70632438114268
 30
0.0
 10
259.3955706728086
 20
44.6813887264217
 30
0.0
 10
259.6188489081986
 20
44.64476008453128
 30
0.0
  0
SPLINE
  5
1B9
330
1F
100
AcDbEntity
  8
0
  6
Continuous
 62
     7
370
    15
100
AcDbSpline
210
0.0
220
0.0
230
1.0
 70
     8
 71
     3
 72
    10
 73
     6
 74
     0
 42
0.000000001
 43
0.00000001
 40
0.0
 40
0.0
 40
0.0
 40
0.0
 40
0.2748726418536148
 40
0.6228067225076463
 40
1.0
 40
1.0
 40
1.0
 40
1.0
 10
264.9869195223179
 20
45.29629105799201
 30
0.0
 10
265.0081394890298
 20
45.30854067643688
 30
0.0
 10
265.0562197120393
 20
45.33629587485962
 30
0.0
 10
265.0977700033184
 20
45.36027608257822
 30
0.0
 10
265.099758352439
 20
45.36141733890472
 30
0.0
 10
265.1007926423651
 20
45.36201099215668
 30
0.0
  0
SPLINE
  5
1BA
330
1F
100
AcDbEntity
  8
0
  6
Continuous
 62
     7
370
    15
100
AcDbSpline
210
0.0
220
0.0
230
1.0
 70
     8
 71
     3
 72
     8
 73
     4
 74
     0
 42
0.000000001
 43
0.00000001
 40
0.0
 40
0.0
 40
0.0
 40
0.0
 40
1.0
 40
1.0
 40
1.0
 40
1.0
 10
265.1039593439768
 20
45.36383621391002
 30
0.0
 10
265.0997811503627
 20
45.36141823540611
 30
0.0
 10
265.0844082815809
 20
45.35253717003196
 30
0.0
 10
265.0580706689449
 20
45.33732593062164
 30
0.0
  0
SPLINE
  5
1BB
330
1F
100
AcDbEntity
  8
0
  6
Continuous
 62
     7
370
    15
100
AcDbSpline
210
0.0
220
0.0
230
1.0
 70
     8
 71
     3
 72
    14
 73
    10
 74
     0
 42
0.000000001
 43
0.00000001
 40
0.0
 40
0.0
 40
0.0
 40
0.0
 40
0.25
 40
0.25
 40
0.5
 40
0.5
 40
0.75
 40
0.75
 40
1.0
 40
1.0
 40
1.0
 40
1.0
 10
243.6739936488815
 20
32.99256103264829
 30
0.0
 10
243.7069851896763
 20
33.01161148298969
 30
0.0
 10
243.7432531778609
 20
33.0325531590052
 30
0.0
 10
243.821796078359
 20
33.07790381808678
 30
0.0
 10
243.8642797535634
 20
33.10243331830682
 30
0.0
 10
243.9509442375777
 20
33.15247104215096
 30
0.0
 10
243.996683930984
 20
33.17887933156807
 30
0.0
 10
244.0870013804442
 20
33.2310234629825
 30
0.0
 10
244.1318667027985
 20
33.25692533038855
 30
0.0
 10
244.1694088642205
 20
33.27859795886257
 30
0.0
  0
ARC
  5
1BC
330
1F
100
AcDbEntity
  8
0
  6
Continuous
 62
     7
370
    15
100
AcDbCircle
 10
259.4438315437
 20
44.5130473193
 30
0.0
 40
5.534000811040858
100
AcDbArc
 50
30.2783678063
 51
90.3311170455
  0
ELLIPSE
  5
1BD
330
1F
100
AcDbEntity
  8
0
  6
Continuous
 62
     7
370
    15
100
AcDbEllipse
 10
254.2422884722
 20
35.7864942612
 30
0.0
 11
-11.10202753506459
 21
19.22823400583199
 31
0.0
210
0.0
220
0.0
230
1.0
 40
0.5773346305
 41
1.298288658577346
 42
1.31149148014206
  0
ARC
  5
1BE
330
1F
100
AcDbEntity
  8
0
  6
Continuous
 62
     7
370
    15
100
AcDbCircle
 10
256.307650149
 20
46.1552057899
 30
0.0
 40
5.68785216867007
100
AcDbArc
 50
60.5504284582
 51
90.0712157742
  0
ELLIPSE
  5
1BF
330
1F
100
AcDbEntity
  8
0
  6
Continuous
 62
     7
370
    15
100
AcDbEllipse
 10
251.3785060084
 20
37.4397206876
 30
0.0
 11
15.69999999765633
 21
9.064890318144954
 31
0.0
210
0.0
220
0.0
230
1.0
 40
0.0000703729
 41
5.757010726217477
 42
5.770213547815357
  0
ELLIPSE
  5
1C0
330
1F
100
AcDbEntity
  8
0
  6
Continuous
 62
     7
370
    15
100
AcDbEllipse
 10
251.3785060084
 20
37.4397206876
 30
0.0
 11
15.70000004673966
 21
9.064890346484654
 31
0.0
210
0.0
220
0.0
230
1.0
 40
0.0000703729
 41
2.083686820353718
 42
2.096889641890136
  0
LINE
  5
1C1
330
1F
100
AcDbEntity
  8
0
  6
Continuous
 62
     7
370
    15
100
AcDbLine
 10
243.494061539
 20
32.8886618966
 30
0.0
 11
240.6656344143
 21
34.5214781202
 31
0.0
  0
LINE
  5
1C2
330
1F
100
AcDbEntity
  8
0
  6
Continuous
 62
     7
370
    15
100
AcDbLine
 10
263.9463116889
 20
44.6955609427
 30
0.0
 11
264.9869195223
 21
45.296291058
 31
0.0
  0
LINE
  5
1C3
330
1F
100
AcDbEntity
  8
0
  6
Continuous
 62
     7
370
    15
100
AcDbLine
 10
244.1694088642
 20
33.2785979589
 30
0.0
 11
245.2100166976
 21
33.8793280742
 31
0.0
  0
LINE
  5
1C4
330
1F
100
AcDbEntity
  8
0
  6
Continuous
 62
     7
370
    15
100
AcDbLine
 10
263.9463116889
 20
44.6955609427
 30
0.0
 11
263.8790006841
 21
44.6567044801
 31
0.0
  0
SPLINE
  5
1C5
330
1F
100
AcDbEntity
  8
0
  6
Continuous
 62
     7
370
    15
100
AcDbSpline
210
0.0
220
0.0
230
1.0
 70
     8
 71
     3
 72
    20
 73
    16
 74
     0
 42
0.000000001
 43
0.00000001
 40
0.0
 40
0.0
 40
0.0
 40
0.0
 40
0.2499999999999997
 40
0.2499999999999997
 40
0.3749999999999997
 40
0.3749999999999997
 40
0.4999999999999998
 40
0.4999999999999998
 40
0.6249999999999998
 40
0.6249999999999998
 40
0.7499999999999999
 40
0.7499999999999999
 40
0.8749999999999999
 40
0.8749999999999999
 40
1.0
 40
1.0
 40
1.0
 40
1.0
 10
247.8944917598467
 20
35.42924159110217
 30
0.0
 10
247.6952674425295
 20
35.31420772156438
 30
0.0
 10
247.4859766505654
 20
35.19336398917564
 30
0.0
 10
247.1594577075857
 20
35.00483625726402
 30
0.0
 10
247.0484479510615
 20
34.94074120227405
 30
0.0
 10
246.8217176579305
 20
34.80983226696927
 30
0.0
 10
246.7055128902508
 20
34.74273881044792
 30
0.0
 10
246.4723339307647
 20
34.60810887916202
 30
0.0
 10
246.3549354462708
 20
34.54032742068407
 30
0.0
 10
246.1181452282118
 20
34.40361514532321
 30
0.0
 10
245.9977998450937
 20
34.3341337454841
 30
0.0
 10
245.7610090719732
 20
34.19742453750481
 30
0.0
 10
245.6440699541636
 20
34.12991165429636
 30
0.0
 10
245.4158057146381
 20
33.99812978504663
 30
0.0
 10
245.3083248193054
 20
33.93608014483127
 30
0.0
 10
245.2100166976327
 20
33.87932807419141
 30
0.0
  0
SPLINE
  5
1C6
330
1F
100
AcDbEntity
  8
0
  6
Continuous
 62
     7
370
    15
100
AcDbSpline
210
0.0
220
0.0
230
1.0
 70
     8
 71
     3
 72
    23
 73
    19
 74
     0
 42
0.000000001
 43
0.00000001
 40
0.0
 40
0.0
 40
0.0
 40
0.0
 40
0.0428608288430237
 40
0.1200911322010463
 40
0.1964284935360308
 40
0.235710714258006
 40
0.2753311334531402
 40
0.3472827604418162
 40
0.4215159797210591
 40
0.4905139117699403
 40
0.561405771110805
 40
0.632574511846815
 40
0.7055718196869579
 40
0.7811931067049903
 40
0.8589633395518063
 40
0.9349799087622657
 40
0.9741251054948222
 40
1.0
 40
1.0
 40
1.0
 40
1.0
 10
265.7647071522028
 20
36.214670105329
 30
0.0
 10
265.8214968103348
 20
36.14740451998419
 30
0.0
 10
265.9806149264908
 20
35.95893405591994
 30
0.0
 10
266.1925536444342
 20
35.62683963823041
 30
0.0
 10
266.3568798335568
 20
35.29231274185715
 30
0.0
 10
266.4521943015974
 20
35.02011202834051
 30
0.0
 10
266.5200510045092
 20
34.75589903612581
 30
0.0
 10
266.5578498153304
 20
34.43385950355168
 30
0.0
 10
266.5292561918915
 20
34.07782319236865
 30
0.0
 10
266.4321273637599
 20
33.75118954365779
 30
0.0
 10
266.2754169381973
 20
33.46481364618263
 30
0.0
 10
266.0606935588006
 20
33.21816289739213
 30
0.0
 10
265.7939916704179
 20
33.02005937399061
 30
0.0
 10
265.4805985047427
 20
32.88048596637777
 30
0.0
 10
265.1355512368465
 20
32.8126900652629
 30
0.0
 10
264.8345057736129
 20
32.82570065748732
 30
0.0
 10
264.6149815272256
 20
32.87028263194497
 30
0.0
 10
264.5157842638104
 20
32.90654837410446
 30
0.0
 10
264.4763084852132
 20
32.92098040941333
 30
0.0
  0
SPLINE
  5
1C7
330
1F
100
AcDbEntity
  8
0
  6
Continuous
 62
     7
370
    15
100
AcDbSpline
210
0.0
220
0.0
230
1.0
 70
     8
 71
     3
 72
     9
 73
     5
 74
     0
 42
0.000000001
 43
0.00000001
 40
0.0
 40
0.0
 40
0.0
 40
0.0
 40
0.5325684875875851
 40
0.9999999999999999
 40
0.9999999999999999
 40
0.9999999999999999
 40
0.9999999999999999
 10
240.5627238116607
 20
34.78865887865826
 30
0.0
 10
240.5420001454497
 20
34.8560556931546
 30
0.0
 10
240.5030874671858
 20
34.98260620462334
 30
0.0
 10
240.5241708525238
 20
35.10244252482676
 30
0.0
 10
240.5340258912192
 20
35.15845779722139
 30
0.0
  0
LINE
  5
1C8
330
1F
100
AcDbEntity
  8
0
  6
Continuous
 62
     7
370
    15
100
AcDbLine
 10
245.8565353071
 20
34.252488973
 30
0.0
 11
243.494061539
 21
32.8886618966
 31
0.0
  0
LINE
  5
1C9
330
1F
100
AcDbEntity
  8
0
  6
Continuous
 62
     7
370
    15
100
AcDbLine
 10
243.087678999
 20
31.0453587865
 30
0.0
 11
243.087678999
 21
29.3465411614
 31
0.0
  0
LINE
  5
1CA
330
1F
100
AcDbEntity
  8
0
  6
Continuous
 62
     7
370
    15
100
AcDbLine
 10
243.087678999
 20
33.1232615434
 30
0.0
 11
243.087678999
 21
31.0453587865
 31
0.0
  0
ARC
  5
1CB
330
1F
100
AcDbEntity
  8
0
  6
Continuous
 62
     7
370
    15
100
AcDbCircle
 10
252.309552501
 20
32.9119423949
 30
0.0
 40
9.40888331602086
100
AcDbArc
 50
178.0740677166
 51
191.4425483356
  0
ARC
  5
1CC
330
1F
100
AcDbEntity
  8
0
  6
Continuous
 62
     7
370
    15
100
AcDbCircle
 10
250.3757690964
 20
33.2676423142
 30
0.0
 40
7.758124388699239
100
AcDbArc
 50
178.8450812193
 51
200.046635121
  0
ARC
  5
1CD
330
1F
100
AcDbEntity
  8
0
  6
Continuous
 62
     7
370
    15
100
AcDbCircle
 10
229.4514341759
 20
54.1146103899
 30
0.0
 40
2.92850985105476
100
AcDbArc
 50
72.3100632314
 51
112.9407260861
  0
ARC
  5
1CE
330
1F
100
AcDbEntity
  8
0
  6
Continuous
 62
     7
370
    15
100
AcDbCircle
 10
225.9535837087
 20
48.0590895957
 30
0.0
 40
2.893047185418355
100
AcDbArc
 50
192.4597189484
 51
227.5784479215
  0
ELLIPSE
  5
1CF
330
1F
100
AcDbEntity
  8
0
  6
Continuous
 62
     7
370
    15
100
AcDbEllipse
 10
251.3785060084
 20
37.4397206876
 30
0.0
 11
-11.1020275350642
 21
19.22823400583184
 31
0.0
210
0.0
220
0.0
230
1.0
 40
0.5773346305
 41
1.830019909385621
 42
1.843222730950334
  0
LINE
  5
1D0
330
1F
100
AcDbEntity
  8
0
  6
Continuous
 62
     7
370
    15
100
AcDbLine
 10
243.494061539
 20
26.3155083609
 30
0.0
 11
245.8565353071
 21
27.6793354373
 31
0.0
  0
SPLINE
  5
1D1
330
1F
100
AcDbEntity
  8
0
  6
Continuous
 62
     7
370
    15
100
AcDbSpline
210
0.0
220
0.0
230
1.0
 70
     8
 71
     3
 72
    18
 73
    14
 74
     0
 42
0.000000001
 43
0.00000001
 40
0.0
 40
0.0
 40
0.0
 40
0.0
 40
0.1249999999999995
 40
0.1249999999999995
 40
0.1874999999999994
 40
0.1874999999999994
 40
0.2499999999999993
 40
0.2499999999999993
 40
0.4999999999999996
 40
0.4999999999999996
 40
0.7499999999999998
 40
0.7499999999999998
 40
1.0
 40
1.0
 40
1.0
 40
1.0
 10
245.2100166976327
 20
26.48963372662537
 30
0.0
 10
245.3085482316939
 20
26.54651477049184
 30
0.0
 10
245.4156554918043
 20
26.58072506510859
 30
0.0
 10
245.58534890937
 20
26.60816215987055
 30
0.0
 10
245.643808884572
 20
26.61320137601364
 30
0.0
 10
245.7607643580619
 20
26.61598347758552
 30
0.0
 10
245.8194819905167
 20
26.61380754619219
 30
0.0
 10
246.114073097688
 20
26.58801521498722
 30
0.0
 10
246.3551211232133
 20
26.52002576848712
 30
0.0
 10
246.8186999476547
 20
26.33335741810583
 30
0.0
 10
247.044644999726
 20
26.21375659636279
 30
0.0
 10
247.4852259134911
 20
25.93134552207722
 30
0.0
 10
247.6955850629325
 20
25.77142557923641
 30
0.0
 10
247.8944917598467
 20
25.58992480787888
 30
0.0
  0
LINE
  5
1D2
330
1F
100
AcDbEntity
  8
0
  6
Continuous
 62
     7
370
    15
100
AcDbLine
 10
245.2100166976
 20
26.4896337266
 30
0.0
 11
244.1694088642
 21
25.8889036113
 31
0.0
  0
SPLINE
  5
1D3
330
1F
100
AcDbEntity
  8
0
  6
Continuous
 62
     7
370
    15
100
AcDbSpline
210
0.0
220
0.0
230
1.0
 70
     8
 71
     3
 72
    12
 73
     8
 74
     0
 42
0.000000001
 43
0.00000001
 40
0.0
 40
0.0
 40
0.0
 40
0.0
 40
0.2499999999999987
 40
0.2499999999999987
 40
0.4999999999999973
 40
0.4999999999999973
 40
1.0
 40
1.0
 40
1.0
 40
1.0
 10
244.1694088642205
 20
25.88890361129653
 30
0.0
 10
244.1319505340046
 20
25.8672793775477
 30
0.0
 10
244.0871954040282
 20
25.86191077714454
 30
0.0
 10
243.9974672748406
 20
25.87082074918206
 30
0.0
 10
243.9516001001233
 20
25.88524484500144
 30
0.0
 10
243.8210890628474
 20
25.94654508207695
 30
0.0
 10
243.739847745497
 20
26.01194166351612
 30
0.0
 10
243.6739936488815
 20
26.09279117221371
 30
0.0
  0
LINE
  5
1D4
330
1F
100
AcDbEntity
  8
0
  6
Continuous
 62
     7
370
    15
100
AcDbLine
 10
240.6656344143
 20
27.9483245846
 30
0.0
 11
243.494061539
 21
26.3155083609
 31
0.0
  0
LINE
  5
1D5
330
1F
100
AcDbEntity
  8
0
  6
Continuous
 62
     7
370
    15
100
AcDbLine
 10
240.6656344143
 20
27.9483245846
 30
0.0
 11
243.1583896771
 21
29.387361567
 31
0.0
  0
ARC
  5
1D6
330
1F
100
AcDbEntity
  8
0
  6
Continuous
 62
     7
370
    15
100
AcDbCircle
 10
249.2882327741
 20
26.9170697835
 30
0.0
 40
5.534000811040927
100
AcDbArc
 50
210.2783678063
 51
270.3311170455
  0
ARC
  5
1D7
330
1F
100
AcDbEntity
  8
0
  6
Continuous
 62
     7
370
    15
100
AcDbCircle
 10
246.2886286892
 20
28.8032135093
 30
0.0
 40
5.675875636671288
100
AcDbArc
 50
210.4950018572
 51
239.4706618495
  0
ELLIPSE
  5
1D8
330
1F
100
AcDbEntity
  8
0
  6
Continuous
 62
     7
370
    15
100
AcDbEllipse
 10
254.2422884722
 20
35.7864942612
 30
0.0
 11
15.7000000467396
 21
9.064890346484646
 31
0.0
210
0.0
220
0.0
230
1.0
 40
0.0000703729
 41
2.615418071109551
 42
2.628620892703156
  0
ELLIPSE
  5
1D9
330
1F
100
AcDbEntity
  8
0
  6
Continuous
 62
     7
370
    15
100
AcDbEllipse
 10
243.4412323896
 20
29.5506962694
 30
0.0
 11
0.3999999977640698
 21
0.2309526183140563
 31
0.0
210
0.0
220
0.0
230
1.0
 40
0.0000703729
 41
3.926950182967888
 42
5.497746514011224
  0
SPLINE
  5
1DA
330
1F
100
AcDbEntity
  8
0
  6
Continuous
 62
     7
370
    15
100
AcDbSpline
210
0.0
220
0.0
230
1.0
 70
     8
 71
     3
 72
     9
 73
     5
 74
     0
 42
0.000000001
 43
0.00000001
 40
0.0
 40
0.0
 40
0.0
 40
0.0
 40
0.4530754613387731
 40
1.0
 40
1.0
 40
1.0
 40
1.0
 10
240.5224276033445
 20
27.86560447944317
 30
0.0
 10
240.521396789023
 20
27.86501239197113
 30
0.0
 10
240.5191216397168
 20
27.8637055733006
 30
0.0
 10
240.5473079997197
 20
27.87998525876274
 30
0.0
 10
240.5627238116607
 20
27.88888901822367
 30
0.0
  0
LINE
  5
1DB
330
1F
100
AcDbEntity
  8
0
  6
Continuous
 62
     7
370
    15
100
AcDbLine
 10
264.9551600663
 20
45.2778903643
 30
0.0
 11
263.8790593233
 21
44.6566706284
 31
0.0
  0
LINE
  5
1DC
330
1F
100
AcDbEntity
  8
0
  6
Continuous
 62
     7
370
    15
100
AcDbLine
 10
228.5487686934
 20
57.5321270643
 30
0.0
 11
228.7521378788
 21
57.4296605446
 31
0.0
  0
ARC
  5
1DD
330
1F
100
AcDbEntity
  8
0
  6
Continuous
 62
     7
370
    15
100
AcDbCircle
 10
227.4293951635
 20
55.913122745
 30
0.0
 40
2.290475805262305
100
AcDbArc
 50
29.5605361761
 51
97.6076079357
  0
ARC
  5
1DE
330
1F
100
AcDbEntity
  8
0
  6
Continuous
 62
     7
370
    15
100
AcDbCircle
 10
223.4142490886
 20
48.9568796776
 30
0.0
 40
2.306367156193692
100
AcDbArc
 50
202.0504178538
 51
270.1979836261
  0
LWPOLYLINE
  5
1DF
330
1F
100
AcDbEntity
  8
0
  6
Continuous
 62
     7
370
    15
100
AcDbPolyline
 90
       18
 70
   128
 43
0.0
 10
219.4879901769
 20
50.685942302
 10
219.5315157566
 20
51.4298453534
 10
219.66124532
 20
52.2095227428
 10
219.8746538287
 20
53.0097989368
 10
220.1675875286
 20
53.8150974693
 10
220.5343447987
 20
54.6097441207
 10
220.9677871258
 20
55.3782719976
 10
221.4594780481
 20
56.1057225791
 10
221.999847361
 20
56.7779368672
 10
222.5783773906
 20
57.3818309753
 10
223.1838077078
 20
57.9056507916
 10
223.8043543002
 20
58.3392007591
 10
224.4279389343
 20
58.6740423209
 10
225.0424242445
 20
58.9036581669
 10
225.6358499731
 20
59.0235790858
 10
226.1966657634
 20
59.0314709534
 10
226.7139559739
 20
58.9271801634
 10
227.1226835599
 20
58.7455920102
  0
ARC
  5
1E0
330
1F
100
AcDbEntity
  8
0
  6
Continuous
 62
     7
370
    15
100
AcDbCircle
 10
222.6357697451
 20
50.3657949739
 30
0.0
 40
3.1640180975975
100
AcDbArc
 50
174.1926578304
 51
234.4951617762
  0
LWPOLYLINE
  5
1E1
330
1F
100
AcDbEntity
  8
0
  6
Continuous
 62
     7
370
    15
100
AcDbPolyline
 90
       21
 70
   128
 43
0.0
 10
216.8992220671
 20
52.2600061121
 10
216.9420766992
 20
52.9924418833
 10
217.0698064788
 20
53.7601005304
 10
217.279925291
 20
54.5480404509
 10
217.5683434123
 20
55.3409252907
 10
217.9294471118
 20
56.1233224482
 10
218.3562079169
 20
56.8800034527
 10
218.8403194138
 20
57.5962403691
 10
219.3723589231
 20
58.2580924607
 10
219.9419709008
 20
58.8526775292
 10
220.5380684977
 20
59.3684226526
 10
221.1490493522
 20
59.7952894388
 10
221.7630214168
 20
60.1249694114
 10
222.3680344238
 20
60.3510457246
 10
222.952312483
 20
60.4691180602
 10
223.5044832869
 20
60.4768882744
 10
224.0137994586
 20
60.374205129
 10
224.4703477383
 20
60.1630672345
 10
224.865241933
 20
59.8475841498
 10
225.1907958764
 20
59.4338963945
 10
225.4162354783
 20
58.9916065087
  0
LWPOLYLINE
  5
1E2
330
1F
100
AcDbEntity
  8
0
  6
Continuous
 62
     7
370
    15
100
AcDbPolyline
 90
       10
 70
   128
 43
0.0
 10
219.7317916005
 20
49.144793977
 10
219.3723589231
 20
49.1173427981
 10
218.8403194138
 20
49.1649151475
 10
218.3562079169
 20
49.322208827
 10
217.9294471118
 20
49.5861622939
 10
217.5683434123
 20
49.9516379944
 10
217.279925291
 20
50.4115223595
 10
217.0698064788
 20
50.9568642633
 10
216.9420766992
 20
51.5770492459
 10
216.8992220671
 20
52.2600061121
  0
LWPOLYLINE
  5
1E3
330
1F
100
AcDbEntity
  8
0
  6
Continuous
 62
     7
370
    15
100
AcDbPolyline
 90
       18
 70
   128
 43
0.0
 10
215.8092671478
 20
52.8892236937
 10
215.8521217799
 20
53.6216594649
 10
215.9798515595
 20
54.389318112
 10
216.1899703717
 20
55.1772580326
 10
216.4783884929
 20
55.9701428724
 10
216.8394921924
 20
56.7525400299
 10
217.2662529975
 20
57.5092210344
 10
217.7503644945
 20
58.2254579508
 10
218.2824040038
 20
58.8873100423
 10
218.8520159815
 20
59.4818951108
 10
219.4481135784
 20
59.9976402343
 10
220.0590944328
 20
60.4245070205
 10
220.6730664975
 20
60.754186993
 10
221.2780795044
 20
60.9802633062
 10
221.8623575637
 20
61.0983356418
 10
222.4145283675
 20
61.1061058561
 10
222.9238445392
 20
61.0034227107
 10
223.3262715813
 20
60.8246337424
  0
ARC
  5
1E4
330
1F
100
AcDbEntity
  8
0
  6
Continuous
 62
     7
370
    15
100
AcDbCircle
 10
218.9085236318
 20
52.574011443
 30
0.0
 40
3.11524469609297
100
AcDbArc
 50
174.1926578304
 51
234.4951617762
  0
LWPOLYLINE
  5
1E5
330
1F
100
AcDbEntity
  8
0
  6
Continuous
 62
     7
370
    15
100
AcDbPolyline
 90
       13
 70
   128
 43
0.0
 10
215.7049688975
 20
53.6454217073
 10
215.7495114786
 20
54.3410990833
 10
215.8820951813
 20
55.0718981406
 10
216.0996123561
 20
55.8206895686
 10
216.3969645847
 20
56.5699223311
 10
216.767182183
 20
57.302035047
 10
217.2015875642
 20
57.9998676148
 10
217.6899986343
 20
58.6470634305
 10
218.2209674519
 20
59.2284527729
 10
218.7820485579
 20
59.7304083683
 10
219.3600906867
 20
60.1411648033
 10
219.9415450208
 20
60.4510942949
 10
220.4072364282
 20
60.6236220466
  0
LWPOLYLINE
  5
1E6
330
1F
100
AcDbEntity
  8
0
  6
Continuous
 62
     7
370
    15
100
AcDbPolyline
 90
        3
 70
   128
 43
0.0
 10
215.8135946876
 20
52.6663389719
 10
215.7495114786
 20
53.0011721007
 10
215.7049688975
 20
53.6454217073
  0
LWPOLYLINE
  5
1E7
330
1F
100
AcDbEntity
  8
0
  6
Continuous
 62
     7
370
    15
100
AcDbPolyline
 90
       15
 70
   128
 43
0.0
 10
213.7250699102
 20
54.8700338751
 10
213.7687837921
 20
55.5527684161
 10
213.8989008212
 20
56.2699712119
 10
214.1123711649
 20
57.0048316366
 10
214.404191259
 20
57.7401251849
 10
214.767521088
 20
58.4586171991
 10
215.1938445086
 20
59.1434668354
 10
215.6731688612
 20
59.7786217988
 10
216.1942591892
 20
60.3491945952
 10
216.7449015769
 20
60.8418114819
 10
217.3121894336
 20
61.2449259367
 10
217.8828260126
 20
61.5490892982
 10
218.4434360761
 20
61.7471722353
 10
218.9808793996
 20
61.8345318516
 10
219.4470988619
 20
61.814840709
  0
LWPOLYLINE
  5
1E8
330
1F
100
AcDbEntity
  8
0
  6
Continuous
 62
     7
370
    15
100
AcDbPolyline
 90
        8
 70
   128
 43
0.0
 10
263.9387705029
 20
33.0505475828
 10
263.8902251869
 20
32.9767660225
 10
263.6714396062
 20
32.7852216988
 10
263.3888694671
 20
32.706719246
 10
263.0617714576
 20
32.7466084764
 10
262.7124367666
 20
32.9021710051
 10
262.3646719759
 20
33.1628055026
 10
262.0485304549
 20
33.5027044824
  0
LWPOLYLINE
  5
1E9
330
1F
100
AcDbEntity
  8
0
  6
Continuous
 62
     7
370
    15
100
AcDbPolyline
 90
       10
 70
   128
 43
0.0
 10
261.1958721007
 20
41.0998964655
 10
261.6820099288
 20
41.3097396114
 10
262.0850248019
 20
41.5717799533
 10
262.3884172436
 20
41.8752895286
 10
262.5797663318
 20
42.2078426197
 10
262.6512382123
 20
42.555824464
 10
262.5999068179
 20
42.904988644
 10
262.4278736619
 20
43.241040337
 10
262.1421818019
 20
43.5502215472
 10
261.773320382
 20
43.8091172479
  0
LWPOLYLINE
  5
1EA
330
1F
100
AcDbEntity
  8
0
  6
Continuous
 62
     7
370
    15
100
AcDbPolyline
 90
       16
 70
   128
 43
0.0
 10
257.5299903145
 20
43.8091172479
 10
257.4082833148
 20
43.7345478901
 10
257.053258138
 20
43.4503146225
 10
256.8046116483
 20
43.1306431584
 10
256.6725234622
 20
42.788620885
 10
256.6624012856
 20
42.4382502344
 10
256.7746595215
 20
42.0938754221
 10
257.0047023046
 20
41.7695951935
 10
257.3431116563
 20
41.4786856192
 10
257.776033058
 20
41.2330565714
 10
258.2857426566
 20
41.0427641322
 10
258.8513728814
 20
40.9155988963
 10
259.4497667643
 20
40.8567670234
 10
260.0564259896
 20
40.8686770974
 10
260.6465138573
 20
40.9508415185
 10
261.1958721007
 20
41.0998964655
  0
LWPOLYLINE
  5
1EB
330
1F
100
AcDbEntity
  8
0
  6
Continuous
 62
     7
370
    15
100
AcDbPolyline
 90
       30
 70
   128
 43
0.0
 10
261.0157134796
 20
41.5589133068
 10
261.4722288423
 20
41.7588566526
 10
261.8436162119
 20
42.0107788964
 10
262.1125099277
 20
42.3029004341
 10
262.2663368184
 20
42.6215619872
 10
262.2979041095
 20
42.9518632956
 10
262.2057357497
 20
43.2783598373
 10
261.994141429
 20
43.5857849969
 10
261.6730150626
 20
43.8597639156
 10
261.2573721625
 20
44.0874856436
 10
260.7666477289
 20
44.258302166
 10
260.2237874908
 20
44.3642262921
 10
259.6541749895
 20
44.4003051276
 10
259.0844446726
 20
44.3648516661
 10
258.5412364966
 20
44.259523672
 10
258.0499502718
 20
44.0892461654
 10
257.6335579963
 20
43.8619811333
 10
257.31152971
 20
43.5883552358
 10
257.0989230977
 20
43.2811629159
 10
257.0056794083
 20
42.954768145
 10
257.036158613
 20
42.6244327798
 10
257.1889355382
 20
42.305602935
 10
257.4568665045
 20
42.0131867396
 10
257.8274233579
 20
41.76085725
 10
258.2832792717
 20
41.5604131127
 10
258.8031189299
 20
41.4212268727
 10
259.362635208
 20
41.3498067239
 10
259.9356657466
 20
41.3494921932
 10
260.4954162747
 20
41.4202979875
 10
261.0157134796
 20
41.5589133068
  0
LWPOLYLINE
  5
1EC
330
1F
100
AcDbEntity
  8
0
  6
Continuous
 62
     7
370
    15
100
AcDbPolyline
 90
       25
 70
   128
 43
0.0
 10
260.5781853997
 20
41.9796088026
 10
260.9460305626
 20
42.1484006435
 10
261.2256661936
 20
42.3664019112
 10
261.3980355868
 20
42.6187561796
 10
261.4513920527
 20
42.8882659223
 10
261.3820994364
 20
43.1565644958
 10
261.1948799151
 20
43.4053677956
 10
260.90249219
 20
43.6177202881
 10
260.5248620012
 20
43.7791505018
 10
260.087724222
 20
43.8786572344
 10
259.6208690698
 20
43.9094592665
 10
259.1561119515
 20
43.8694574905
 10
258.7251252968
 20
43.7613779615
 10
258.357280134
 20
43.5925861206
 10
258.0776445029
 20
43.3745848529
 10
257.9052751098
 20
43.1222305845
 10
257.8519186439
 20
42.8527208418
 10
257.9212112602
 20
42.5844222683
 10
258.1084307814
 20
42.3356189685
 10
258.4008185066
 20
42.123266476
 10
258.7784486954
 20
41.9618362623
 10
259.2155864745
 20
41.8623295298
 10
259.6824416268
 20
41.8315274976
 10
260.147198745
 20
41.8715292736
 10
260.5781853997
 20
41.9796088026
  0
SPLINE
  5
1ED
330
1F
100
AcDbEntity
  8
0
  6
Continuous
 62
     7
370
    15
100
AcDbSpline
210
0.0
220
0.0
230
1.0
 70
     8
 71
     3
 72
    15
 73
    11
 74
     0
 42
0.000000001
 43
0.00000001
 40
0.0
 40
0.0
 40
0.0
 40
0.0
 40
0.1077869592233281
 40
0.2161701819135352
 40
0.3273150562947925
 40
0.4399598612360039
 40
0.5934902695338469
 40
0.7521517812193715
 40
0.8755082115460591
 40
1.0
 40
1.0
 40
1.0
 40
1.0
 10
261.1662479904047
 20
42.32994784931919
 30
0.0
 10
261.1652450750419
 20
42.34088453451288
 30
0.0
 10
261.1632336963189
 20
42.3628184052231
 30
0.0
 10
261.1600625811389
 20
42.41395610655286
 30
0.0
 10
261.1567469976513
 20
42.48367513808056
 30
0.0
 10
261.1528841220695
 20
42.58812752008281
 30
0.0
 10
261.1484773281927
 20
42.7410857978274
 30
0.0
 10
261.1440609467153
 20
42.93420808029347
 30
0.0
 10
261.1400934493496
 20
43.13389313763159
 30
0.0
 10
261.1377839297194
 20
43.26422752315282
 30
0.0
 10
261.1366238801106
 20
43.32969323773576
 30
0.0
  0
SPLINE
  5
1EE
330
1F
100
AcDbEntity
  8
0
  6
Continuous
 62
     7
370
    15
100
AcDbSpline
210
0.0
220
0.0
230
1.0
 70
     8
 71
     3
 72
    11
 73
     7
 74
     0
 42
0.000000001
 43
0.00000001
 40
0.0
 40
0.0
 40
0.0
 40
0.0
 40
0.2164553779443397
 40
0.4403112895790669
 40
0.7519005688038791
 40
0.9999999999999999
 40
0.9999999999999999
 40
0.9999999999999999
 40
0.9999999999999999
 10
261.1366238801106
 20
43.32969323773576
 30
0.0
 10
261.0328728166211
 20
43.31855855614693
 30
0.0
 10
260.8218234770568
 20
43.29590850209886
 30
0.0
 10
260.4301722706071
 20
43.34612278228644
 30
0.0
 10
260.0100560976892
 20
43.52601786065132
 30
0.0
 10
259.741206974821
 20
43.72607425967088
 30
0.0
 10
259.6220312379887
 20
43.81475548171405
 30
0.0
  0
SPLINE
  5
1EF
330
1F
100
AcDbEntity
  8
0
  6
Continuous
 62
     7
370
    15
100
AcDbSpline
210
0.0
220
0.0
230
1.0
 70
     8
 71
     3
 72
    13
 73
     9
 74
     0
 42
0.000000001
 43
0.00000001
 40
0.0
 40
0.0
 40
0.0
 40
0.0
 40
0.1844095697098908
 40
0.349500537088448
 40
0.5197705331556605
 40
0.6927076360809769
 40
0.8718061725834237
 40
0.9999999999999999
 40
0.9999999999999999
 40
0.9999999999999999
 40
0.9999999999999999
 10
259.6220312379887
 20
43.81475548171405
 30
0.0
 10
259.5354833452196
 20
43.74650862963376
 30
0.0
 10
259.3714542492554
 20
43.61716441233428
 30
0.0
 10
259.1107139367241
 20
43.46013357375611
 30
0.0
 10
258.8472303753929
 20
43.34801869675178
 30
0.0
 10
258.5779339956048
 20
43.28868754715699
 30
0.0
 10
258.3404583486063
 20
43.27876137441569
 30
0.0
 10
258.1969361680608
 20
43.29379904101675
 30
0.0
 10
258.1370627061606
 20
43.3000723372758
 30
0.0
  0
SPLINE
  5
1F0
330
1F
100
AcDbEntity
  8
0
  6
Continuous
 62
     7
370
    15
100
AcDbSpline
210
0.0
220
0.0
230
1.0
 70
     8
 71
     3
 72
    11
 73
     7
 74
     0
 42
0.000000001
 43
0.00000001
 40
0.0
 40
0.0
 40
0.0
 40
0.0
 40
0.2164553779443582
 40
0.4403112895790606
 40
0.7519005688038768
 40
1.0
 40
1.0
 40
1.0
 40
1.0
 10
258.1370627061606
 20
43.3000723372758
 30
0.0
 10
258.1390919864189
 20
43.1872268942227
 30
0.0
 10
258.1432199273179
 20
42.95767786187385
 30
0.0
 10
258.1508802831218
 20
42.62394289762405
 30
0.0
 10
258.1590973888285
 20
42.39198353889944
 30
0.0
 10
258.164355843047
 20
42.32847782986724
 30
0.0
 10
258.1666868164547
 20
42.30032694885922
 30
0.0
  0
SPLINE
  5
1F1
330
1F
100
AcDbEntity
  8
0
  6
Continuous
 62
     7
370
    15
100
AcDbSpline
210
0.0
220
0.0
230
1.0
 70
     8
 71
     3
 72
     9
 73
     5
 74
     0
 42
0.000000001
 43
0.00000001
 40
0.0
 40
0.0
 40
0.0
 40
0.0
 40
0.8364753442564021
 40
1.0
 40
1.0
 40
1.0
 40
1.0
 10
258.1666868164547
 20
42.30032694885922
 30
0.0
 10
258.2692107089717
 20
42.21852797924622
 30
0.0
 10
258.3917772534861
 20
42.12073792461441
 30
0.0
 10
258.5259263295229
 20
42.05492873754792
 30
0.0
 10
258.5478630110002
 20
42.0441673128881
 30
0.0
  0
SPLINE
  5
1F2
330
1F
100
AcDbEntity
  8
0
  6
Continuous
 62
     7
370
    15
100
AcDbSpline
210
0.0
220
0.0
230
1.0
 70
     8
 71
     3
 72
    10
 73
     6
 74
     0
 42
0.000000001
 43
0.00000001
 40
0.0
 40
0.0
 40
0.0
 40
0.0
 40
0.3641818727321092
 40
0.6814037929690479
 40
1.0
 40
1.0
 40
1.0
 40
1.0
 10
260.7450450175978
 20
42.03727324007707
 30
0.0
 10
260.7983059342972
 20
42.06754474359086
 30
0.0
 10
260.8979599626093
 20
42.12418434829832
 30
0.0
 10
261.0371781426812
 20
42.22648455615514
 30
0.0
 10
261.1231627574518
 20
42.29541042507439
 30
0.0
 10
261.1662479904047
 20
42.32994784931918
 30
0.0
  0
LINE
  5
1F3
330
1F
100
AcDbEntity
  8
0
  6
Continuous
 62
     7
370
    15
100
AcDbLine
 10
261.1366238801
 20
42.3065394911
 30
0.0
 11
261.1366238801
 21
43.3296932377
 31
0.0
  0
LINE
  5
1F4
330
1F
100
AcDbEntity
  8
0
  6
Continuous
 62
     7
370
    15
100
AcDbLine
 10
259.622031238
 20
41.8315162378
 30
0.0
 11
259.622031238
 21
43.8147554817
 31
0.0
  0
ARC
  5
1F5
330
1F
100
AcDbEntity
  8
0
  6
Continuous
 62
     7
370
     0
100
AcDbCircle
 10
251.6412635635
 20
27.9953631561
 30
0.0
 40
4.45246365460261
100
AcDbArc
 50
212.7005804306
 51
239.0779323467
  0
LWPOLYLINE
  5
1F6
330
1F
100
AcDbEntity
  8
0
  6
Continuous
 62
     7
370
     0
100
AcDbPolyline
 90
       20
 70
   128
 43
0.0
 10
261.888316444
 20
45.8059020305
 10
261.7457299771
 20
45.8845428136
 10
261.0654365168
 20
46.1696534277
 10
260.3290634735
 20
46.339131167
 10
259.5442206585
 20
46.3912246181
 10
258.7190187779
 20
46.325395438
 10
257.8619856161
 20
46.1423239172
 10
256.9819779073
 20
45.8439019497
 10
256.088089809
 20
45.4332134816
 10
255.1895589211
 20
44.914502641
 10
254.2956708228
 20
44.2931298789
 10
253.415663114
 20
43.5755165728
 10
252.5586299522
 20
42.7690786672
 10
251.7334280716
 20
41.8821500361
 10
250.9485852566
 20
40.9238963588
 10
250.2122122133
 20
39.9042204008
 10
249.531918753
 20
38.8336596762
 10
248.9147351501
 20
37.7232775514
 10
248.3670394907
 20
36.5845489144
 10
247.8944917598
 20
35.4292415911
  0
LWPOLYLINE
  5
1F7
330
1F
100
AcDbEntity
  8
0
  6
Continuous
 62
     7
370
     0
100
AcDbPolyline
 90
       50
 70
   128
 43
0.0
 10
264.6190804861
 20
35.9201558298
 10
263.9409094247
 20
35.4783775936
 10
263.2738739134
 20
34.9432965121
 10
262.6289266568
 20
34.3236986018
 10
262.0166576711
 20
33.6297576435
 10
261.447120396
 20
32.8728681284
 10
260.929666618
 20
32.0654581614
 10
260.4727929136
 20
31.2207853919
 10
260.0840011366
 20
30.3527193234
 10
259.7696752371
 20
29.4755135767
 10
259.5349764377
 20
28.603571846
 10
259.3837584862
 20
27.7512113904
 10
259.3185043773
 20
26.9324279449
 10
259.3402855815
 20
26.1606659111
 10
259.4487444521
 20
25.4485976003
 10
259.6421000974
 20
24.8079151545
 10
259.9171776231
 20
24.2491385617
 10
260.2694602639
 20
23.781442918
 10
260.6931635484
 20
23.4125077732
 10
261.1813302805
 20
23.1483910319
 10
261.725944776
 20
22.9934294838
 10
262.3180644798
 20
22.9501675933
 10
262.9479668028
 20
23.0193157194
 10
263.6053087663
 20
23.1997384518
 10
264.2792968335
 20
23.4884732542
 10
264.9588641388
 20
23.880779109
 10
265.6328522059
 20
24.3702143652
 10
266.2901941694
 20
24.9487425091
 10
266.9200964924
 20
25.6068641249
 10
267.5122161963
 20
26.3337728736
 10
268.0568306917
 20
27.1175329337
 10
268.5449974238
 20
27.9452749868
 10
268.9687007084
 20
28.8034075311
 10
269.3209833491
 20
29.6778400541
 10
269.5960608748
 20
30.5542143979
 10
269.7894165202
 20
31.4181405199
 10
269.8978753908
 20
32.2554327773
 10
269.919656595
 20
33.0523428541
 10
269.854402486
 20
33.795785509
 10
269.7031845345
 20
34.4735534343
 10
269.4684857351
 20
35.0745176991
 10
269.1541598356
 20
35.588810487
 10
268.7653680586
 20
36.0079871247
 10
268.3084943543
 20
36.3251647432
 10
267.7910405762
 20
36.5351352948
 10
267.2215033011
 20
36.634451069
 10
266.6092343154
 20
36.6214813035
 10
265.9642870588
 20
36.4964389613
 10
265.2972515475
 20
36.2613772344
 10
264.6190804861
 20
35.9201558298
  0
LWPOLYLINE
  5
1F8
330
1F
100
AcDbEntity
  8
0
  6
Continuous
 62
     7
370
     0
100
AcDbPolyline
 90
       29
 70
   128
 43
0.0
 10
244.1694088642
 20
33.2785979589
 10
244.5028199338
 20
34.5468694735
 10
244.9194196273
 20
35.8237752005
 10
245.4157682255
 20
37.098772172
 10
245.9877675502
 20
38.3613331802
 10
246.6306948013
 20
39.6010336965
 10
247.3392415514
 20
40.8076379437
 10
248.1075575756
 20
41.9711834089
 10
248.9292991551
 20
43.0820631007
 10
249.7976814544
 20
44.1311048705
 10
250.7055345421
 20
45.1096471444
 10
251.6453625899
 20
46.009610438
 10
252.6094057637
 20
46.8235640665
 10
253.5897042932
 20
47.544787497
 10
254.5781641933
 20
48.1673258377
 10
255.5666240934
 20
48.6860390054
 10
256.5469226228
 20
49.0966441654
 10
257.5109657966
 20
49.3957510932
 10
258.4507938445
 20
49.5808901666
 10
259.3586469321
 20
49.6505327565
 10
260.2270292315
 20
49.6041038482
 10
261.0487708109
 20
49.4419867891
 10
261.8170868351
 20
49.1655201235
 10
262.5256335852
 20
48.7769865408
 10
263.1685608363
 20
48.2795940281
 10
263.740560161
 20
47.6774493829
 10
264.2369087593
 20
46.9755243047
 10
264.6535084528
 20
46.1796143456
 10
264.9869195223
 20
45.296291058
  0
LWPOLYLINE
  5
1F9
330
1F
100
AcDbEntity
  8
0
  6
Continuous
 62
     7
370
     0
100
AcDbPolyline
 90
       21
 70
   128
 43
0.0
 10
243.6739936489
 20
32.9925610326
 10
243.9839718523
 20
34.2617399756
 10
244.3771316183
 20
35.5425629764
 10
244.8503229319
 20
36.8247680199
 10
245.3997545618
 20
38.0980820183
 10
246.0210244356
 20
39.3523031189
 10
246.7091549094
 20
40.5773824425
 10
247.458632649
 20
41.7635045952
 10
248.263452803
 20
42.9011663096
 10
249.117167114
 20
43.9812525858
 10
250.0129355821
 20
44.995109721
 10
250.9435812676
 20
45.9346146435
 10
251.901647793
 20
46.7922399951
 10
252.8794590835
 20
47.5611144405
 10
253.8691808683
 20
48.2350777209
 10
254.8628834495
 20
48.8087300105
 10
255.8526052344
 20
49.2774751796
 10
256.8304165248
 20
49.6375576197
 10
257.7884830502
 20
49.8860923331
 10
258.7191287358
 20
50.0210880477
 10
259.4118502737
 20
50.0469557189
  0
LWPOLYLINE
  5
1FA
330
1F
100
AcDbEntity
  8
0
  6
Continuous
 62
     7
370
     0
100
AcDbPolyline
 90
       21
 70
   128
 43
0.0
 10
240.5627238117
 20
34.7886588787
 10
240.8727020151
 20
36.0578378217
 10
241.2658617811
 20
37.3386608224
 10
241.7390530947
 20
38.620865866
 10
242.2884847246
 20
39.8941798643
 10
242.9097545984
 20
41.1484009649
 10
243.5978850722
 20
42.3734802886
 10
244.3473628118
 20
43.5596024412
 10
245.1521829658
 20
44.6972641556
 10
246.0058972767
 20
45.7773504318
 10
246.9016657448
 20
46.791207567
 10
247.8323114304
 20
47.7307124895
 10
248.7903779558
 20
48.5883378411
 10
249.7681892462
 20
49.3572122865
 10
250.7579110311
 20
50.0311755669
 10
251.7516136123
 20
50.6048278565
 10
252.7413353971
 20
51.0735730256
 10
253.7191466876
 20
51.4336554657
 10
254.677213213
 20
51.6821901791
 10
255.6078588985
 20
51.8171858937
 10
256.3005804365
 20
51.8430535649
  0
LWPOLYLINE
  5
1FB
330
1F
100
AcDbEntity
  8
0
  6
Continuous
 62
     7
370
     0
100
AcDbPolyline
 90
       27
 70
   128
 43
0.0
 10
245.2100166976
 20
33.8793280742
 10
245.5578612817
 20
35.0949847654
 10
245.9879335667
 20
36.3151776167
 10
246.4963130794
 20
37.5287835367
 10
247.0783655099
 20
38.7247394796
 10
247.7287849574
 20
39.8921432941
 10
248.4416422978
 20
41.0203531056
 10
249.2104392327
 20
42.0990843262
 10
250.0281675267
 20
43.1185034072
 10
250.8873728941
 20
44.0693174802
 10
251.78022295
 20
44.9428590697
 10
252.6985786102
 20
45.7311651042
 10
253.6340682848
 20
46.4270495065
 10
254.5781641933
 20
47.024168701
 10
255.5222601017
 20
47.5170794405
 10
256.4577497764
 20
47.9012884261
 10
257.3761054365
 20
48.1732932674
 10
258.2689554925
 20
48.33061441
 10
259.1281608598
 20
48.3718177385
 10
259.9458891539
 20
48.2965276495
 10
260.7146860887
 20
48.105430476
 10
261.4275434291
 20
47.8002682306
 10
262.0779628766
 20
47.3838227257
 10
262.6600153072
 20
46.8598902147
 10
263.1683948198
 20
46.2332467861
 10
263.5984671048
 20
45.5096048257
 10
263.9463116889
 20
44.6955609427
  0
LWPOLYLINE
  5
1FC
330
1F
100
AcDbEntity
  8
0
  6
Continuous
 62
     7
370
     0
100
AcDbPolyline
 90
       26
 70
   128
 43
0.0
 10
260.747067837
 20
23.9487967474
 10
260.9453120757
 20
23.8443579489
 10
261.4642318982
 20
23.6707172061
 10
262.0331408998
 20
23.6100262652
 10
262.6418868859
 20
23.6633681576
 10
263.27960677
 20
23.8297909959
 10
263.9349204257
 20
24.1063249607
 10
264.5961337653
 20
24.4880352967
 10
265.251447421
 20
24.9681103739
 10
265.8891673052
 20
25.5379832414
 10
266.4979132913
 20
26.1874845041
 10
267.0668222929
 20
26.9050237968
 10
267.5857421153
 20
27.6777966137
 10
268.0454126221
 20
28.4920128056
 10
268.437630982
 20
29.3331426653
 10
268.7553980493
 20
30.1861762105
 10
268.993043263
 20
31.0358910373
 10
269.1463258388
 20
31.8671239647
 10
269.2125104453
 20
32.6650416212
 10
269.1904160168
 20
33.4154051474
 10
269.0804368288
 20
34.1048242884
 10
268.8845354625
 20
34.7209963433
 10
268.6062077825
 20
35.2529257072
 10
268.2504205528
 20
35.691120088
 10
267.823522805
 20
36.0277598965
 10
267.7581513516
 20
36.0666209767
  0
LINE
  5
1FD
330
1F
100
AcDbEntity
  8
0
  6
Continuous
 62
     7
370
     0
100
AcDbLine
 10
246.2100886977
 20
27.4752334094
 30
0.0
 11
246.3403701924
 21
27.5504433154
 31
0.0
  0
ARC
  5
1FE
330
1F
100
AcDbEntity
  8
0
  6
Continuous
 62
     7
370
     0
100
AcDbCircle
 10
247.5605745407
 20
29.3371232197
 30
0.0
 40
2.163590472256873
100
AcDbArc
 50
235.6690675604
 51
285.7204959329
  0
ARC
  5
1FF
330
1F
100
AcDbEntity
  8
0
  6
Continuous
 62
     7
370
     0
100
AcDbCircle
 10
247.6681888453
 20
29.4163073389
 30
0.0
 40
1.727789732332513
100
AcDbArc
 50
232.7851859025
 51
299.1373688865
  0
ARC
  5
200
330
1F
100
AcDbEntity
  8
0
  6
Continuous
 62
     7
370
     0
100
AcDbCircle
 10
246.0091264644
 20
28.0682856035
 30
0.0
 40
0.6147219230288892
100
AcDbArc
 50
302.60547834
 51
357.3945215143
  0
LINE
  5
201
330
1F
100
AcDbEntity
  8
0
  6
Continuous
 62
     7
370
     0
100
AcDbLine
 10
243.7240751021
 20
29.7139778918
 30
0.0
 11
246.6232129049
 21
28.0403412626
 31
0.0
  0
LINE
  5
202
330
1F
100
AcDbEntity
  8
0
  6
Continuous
 62
     7
370
     0
100
AcDbLine
 10
242.9033133915
 20
33.0996152069
 30
0.0
 11
242.9020634689
 21
33.2607316653
 31
0.0
  0
LWPOLYLINE
  5
203
330
1F
100
AcDbEntity
  8
0
  6
Continuous
 62
     7
370
     0
100
AcDbPolyline
 90
       14
 70
   128
 43
0.0
 10
222.9933676412
 20
48.6224769789
 10
223.0372291507
 20
49.372121463
 10
223.167959965
 20
50.1578163908
 10
223.3830155572
 20
50.9642691044
 10
223.6782101151
 20
51.7757829189
 10
224.0477980123
 20
52.5765626412
 10
224.4845856408
 20
53.3510220047
 10
224.9800714262
 20
54.0840870389
 10
225.5246113014
 20
54.7614894668
 10
226.107606417
 20
55.3700444206
 10
226.7177094364
 20
55.8979070703
 10
227.3430453981
 20
56.33480317
 10
227.971442849
 20
56.672229034
 10
228.3099636055
 20
56.811500244
  0
LWPOLYLINE
  5
204
330
1F
100
AcDbEntity
  8
0
  6
Continuous
 62
     7
370
     0
100
AcDbPolyline
 90
        3
 70
   128
 43
0.0
 10
223.1286737705
 20
47.4349054415
 10
223.0372291507
 20
47.9234739159
 10
222.9933676412
 20
48.6224769789
  0
LINE
  5
205
330
1F
100
AcDbEntity
  8
0
  6
Continuous
 62
     7
370
     0
100
AcDbLine
 10
246.3403701924
 20
27.5504433154
 30
0.0
 11
243.1583896771
 21
29.387361567
 31
0.0
  0
ARC
  5
206
330
1F
100
AcDbEntity
  8
0
  6
Continuous
 62
     7
370
     0
100
AcDbCircle
 10
251.200893794
 20
28.129874231
 30
0.0
 40
7.797687681822396
100
AcDbArc
 50
195.14376724
 51
210.888202954
  0
LWPOLYLINE
  5
207
330
1F
100
AcDbEntity
  8
0
  6
Continuous
 62
     7
370
     0
100
AcDbPolyline
 90
       14
 70
   128
 43
0.0
 10
252.8265368897
 20
22.1704244894
 10
252.6094057637
 20
22.0885505039
 10
251.6453625899
 20
21.7894435761
 10
250.7055345421
 20
21.6043045027
 10
249.7976814544
 20
21.5346619128
 10
248.9292991551
 20
21.5810908211
 10
248.1075575756
 20
21.7432078802
 10
247.3392415514
 20
22.0196745458
 10
246.6306948013
 20
22.4082081285
 10
245.9877675502
 20
22.9056006412
 10
245.4157682255
 20
23.5077452864
 10
244.9194196273
 20
24.2096703645
 10
244.5028199338
 20
25.0055803237
 10
244.1694088642
 20
25.8889036113
  0
ARC
  5
208
330
1F
100
AcDbEntity
  8
0
  6
Continuous
 62
     7
370
     0
100
AcDbCircle
 10
248.0896239568
 20
29.925972077
 30
0.0
 40
7.797687681824518
100
AcDbArc
 50
195.14376724
 51
210.888202954
  0
ARC
  5
209
330
1F
100
AcDbEntity
  8
0
  6
Continuous
 62
     7
370
     0
100
AcDbCircle
 10
250.2236546286
 20
28.0428149555
 30
0.0
 40
5.248708148939207
100
AcDbArc
 50
197.2125243834
 51
283.863644202
  0
LINE
  5
20A
330
1F
100
AcDbEntity
  8
0
  6
Continuous
 62
     7
370
     0
100
AcDbLine
 10
222.9406191152
 20
48.9581146779
 30
0.0
 11
222.9518306358
 21
49.3205223427
 31
0.0
  0
ARC
  5
20B
330
1F
100
AcDbEntity
  8
0
  6
Continuous
 62
     7
370
     0
100
AcDbCircle
 10
232.3321767859
 20
48.4206693534
 30
0.0
 40
9.434444774409503
100
AcDbArc
 50
125.49289083
 51
171.7385822023
  0
LINE
  5
20C
330
1F
100
AcDbEntity
  8
0
  6
Continuous
 62
     7
370
     0
100
AcDbLine
 10
222.9442798467
 20
48.7567505361
 30
0.0
 11
222.9406191152
 21
48.9581146779
 31
0.0
  0
LWPOLYLINE
  5
20D
330
1F
100
AcDbEntity
  8
0
  6
Continuous
 62
     7
370
     0
100
AcDbPolyline
 90
       18
 70
   128
 43
0.0
 10
221.5097409937
 20
49.7841430348
 10
221.5529249586
 20
50.5063078486
 10
221.681597752
 20
51.2636306138
 10
221.8931399671
 20
52.0406944229
 10
222.1832452143
 20
52.8216804975
 10
222.5460077874
 20
53.5906902135
 10
222.9740428866
 20
54.3320687505
 10
223.4586369516
 20
55.0307237796
 10
223.9899250447
 20
55.6724326992
 10
224.5570916723
 20
56.244132166
 10
225.1485909576
 20
56.7341840278
 10
225.7523816809
 20
57.1326122416
 10
226.3561724041
 20
57.4313059582
 10
226.9476716894
 20
57.6241846347
 10
227.5148383171
 20
57.7073218175
 10
228.0461264101
 20
57.6790250734
 10
228.5307204751
 20
57.5398704424
 10
228.5487686934
 20
57.5321270643
  0
ARC
  5
20E
330
1F
100
AcDbEntity
  8
0
  6
Continuous
 62
     7
370
     0
100
AcDbCircle
 10
224.4844033941
 20
49.4753001113
 30
0.0
 40
2.990652160921391
100
AcDbArc
 50
174.0725302334
 51
234.6152893732
  0
LWPOLYLINE
  5
20F
330
1F
100
AcDbEntity
  8
0
  6
Continuous
 62
     7
370
     0
100
AcDbPolyline
 90
       20
 70
   128
 43
0.0
 10
221.2292406256
 20
49.8134061325
 10
221.2735941561
 20
50.5551295766
 10
221.4057518377
 20
51.3329631667
 10
221.6230233211
 20
52.1310724539
 10
221.9209855854
 20
52.9332102348
 10
222.2935729782
 20
53.7230472972
 10
222.7332006947
 20
54.4845048363
 10
223.2309191823
 20
55.2020817724
 10
223.7765963279
 20
55.8611703085
 10
224.3591237183
 20
56.4483533026
 10
224.966642776
 20
56.9516774023
 10
225.5867861646
 20
57.3608963803
 10
226.2069295533
 20
57.6676797183
 10
226.8144486109
 20
57.8657821923
 10
227.3969760014
 20
57.9511710071
 10
227.942653147
 20
57.9221078929
 10
228.4403716345
 20
57.7791844906
 10
228.879999351
 20
57.5253103087
 10
229.2525867438
 20
57.1656534934
 10
229.2895230649
 20
57.11943468
  0
LWPOLYLINE
  5
210
330
1F
100
AcDbEntity
  8
0
  6
Continuous
 62
     7
370
     0
100
AcDbPolyline
 90
        9
 70
   128
 43
0.0
 10
223.2900106691
 20
46.7268483314
 10
223.2309191823
 20
46.7358193612
 10
222.7332006947
 20
46.8787427634
 10
222.2935729782
 20
47.1326169453
 10
221.9209855854
 20
47.4922737606
 10
221.6230233211
 20
47.9503916337
 10
221.4057518377
 20
48.4976446058
 10
221.2735941561
 20
49.1228921846
 10
221.2292406256
 20
49.8134061325
  0
LWPOLYLINE
  5
211
330
1F
100
AcDbEntity
  8
0
  6
Continuous
 62
     7
370
     0
100
AcDbPolyline
 90
       16
 70
   128
 43
0.0
 10
220.9487402574
 20
49.8426692301
 10
220.9922658371
 20
50.5865722815
 10
221.1219954005
 20
51.3662496709
 10
221.3354039091
 20
52.1665258649
 10
221.6283376091
 20
52.9718243974
 10
221.9950948792
 20
53.7664710488
 10
222.4285372063
 20
54.5349989257
 10
222.9202281286
 20
55.2624495072
 10
223.4605974415
 20
55.9346637953
 10
224.0391274711
 20
56.5385579034
 10
224.6445577883
 20
57.0623777197
 10
225.2651043807
 20
57.4959276872
 10
225.8886890148
 20
57.830769249
 10
226.5031743249
 20
58.060385095
 10
227.0966000536
 20
58.1803060139
 10
227.1261636384
 20
58.1834377136
  0
ARC
  5
212
330
1F
100
AcDbEntity
  8
0
  6
Continuous
 62
     7
370
     0
100
AcDbCircle
 10
225.266759332
 20
49.7443350648
 30
0.0
 40
4.319138610518485
100
AcDbArc
 50
178.6954298057
 51
202.5065236978
  0
LWPOLYLINE
  5
213
330
1F
100
AcDbEntity
  8
0
  6
Continuous
 62
     7
370
     0
100
AcDbPolyline
 90
       17
 70
   128
 43
0.0
 10
217.9000629269
 20
52.4700668099
 10
217.9436732213
 20
53.1511834966
 10
218.0734819163
 20
53.8666867596
 10
218.286446406
 20
54.599805809
 10
218.5775749834
 20
55.3333569555
 10
218.9400438412
 20
56.050146382
 10
219.3653570168
 20
56.7333731518
 10
219.8435455297
 20
57.3670230087
 10
220.3634010464
 20
57.9362437368
 10
220.9127385944
 20
58.427693285
 10
221.478682167
 20
58.8298524922
 10
222.0479665266
 20
59.1332950875
 10
222.6072481303
 20
59.3309086337
 10
223.1434178914
 20
59.4180612367
 10
223.643908445
 20
59.3927101134
 10
224.0969887168
 20
59.2554494727
 10
224.2522485281
 20
59.1758227924
  0
ARC
  5
214
330
1F
100
AcDbEntity
  8
0
  6
Continuous
 62
     7
370
     0
100
AcDbCircle
 10
220.4775206063
 20
52.1849026823
 30
0.0
 40
2.593184657676429
100
AcDbArc
 50
173.6866002849
 51
235.0012193218
  0
LWPOLYLINE
  5
215
330
1F
100
AcDbEntity
  8
0
  6
Continuous
 62
     7
370
     0
100
AcDbPolyline
 90
       19
 70
   128
 43
0.0
 10
217.5982862316
 20
52.4930022519
 10
217.6413118207
 20
53.1808321354
 10
217.7694274676
 20
53.9029733237
 10
217.9797712804
 20
54.6432943761
 10
218.2676445259
 20
55.3852577435
 10
218.6266165915
 20
56.1122891903
 10
219.0486686345
 20
56.8081480355
 10
219.5243727095
 20
57.4572899423
 10
220.0431023737
 20
58.0452141532
 10
220.5932700635
 20
58.5587874129
 10
221.1625859419
 20
58.9865373432
 10
221.7383324329
 20
59.3189087178
 10
222.3076483113
 20
59.5484769092
 10
222.8578160011
 20
59.6701137434
 10
223.3765456653
 20
59.6811020546
 10
223.8522497404
 20
59.581196382
 10
224.2743017833
 20
59.3726284533
 10
224.6332738489
 20
59.0600573313
 10
224.7859258427
 20
58.8677374365
  0
LWPOLYLINE
  5
216
330
1F
100
AcDbEntity
  8
0
  6
Continuous
 62
     7
370
     0
100
AcDbPolyline
 90
        8
 70
   128
 43
0.0
 10
219.5238535122
 20
49.7525731599
 10
219.0486686345
 20
49.8524323463
 10
218.6266165915
 20
50.061000275
 10
218.2676445259
 20
50.373571397
 10
217.9797712804
 20
50.7831633898
 10
217.7694274676
 20
51.2806266453
 10
217.6413118207
 20
51.8548486563
 10
217.5982862316
 20
52.4930022519
  0
ARC
  5
217
330
1F
100
AcDbEntity
  8
0
  6
Continuous
 62
     7
370
     0
100
AcDbCircle
 10
223.9795599935
 20
53.2578478067
 30
0.0
 40
8.135358251549727
100
AcDbArc
 50
122.5157989814
 51
177.6480586214
  0
LWPOLYLINE
  5
218
330
1F
100
AcDbEntity
  8
0
  6
Continuous
 62
     7
370
     0
100
AcDbPolyline
 90
       17
 70
   128
 43
0.0
 10
213.7250699102
 20
54.7883930639
 10
213.7696124912
 20
55.4840704398
 10
213.9021961939
 20
56.2148694971
 10
214.1197133687
 20
56.9636609252
 10
214.4170655974
 20
57.7128936876
 10
214.7872831957
 20
58.4450064035
 10
215.2216885769
 20
59.1428389713
 10
215.710099647
 20
59.7900347871
 10
216.2410684646
 20
60.3714241294
 10
216.8021495706
 20
60.8733797249
 10
217.3801916994
 20
61.2841361598
 10
217.9616460335
 20
61.5940656515
 10
218.532883776
 20
61.7959037153
 10
219.0805155984
 20
61.8849194381
 10
219.591705475
 20
61.8590263668
 10
220.0544715484
 20
61.718831413
 10
220.2130504531
 20
61.6375024997
  0
ARC
  5
219
330
1F
100
AcDbEntity
  8
0
  6
Continuous
 62
     7
370
     0
100
AcDbCircle
 10
216.357627635
 20
54.4971327911
 30
0.0
 40
2.648620909265468
100
AcDbArc
 50
173.6866002849
 51
235.0012193218
  0
ARC
  5
21A
330
1F
100
AcDbEntity
  8
0
  6
Continuous
 62
     7
370
     0
100
AcDbCircle
 10
262.6236067019
 20
33.6977001767
 30
0.0
 40
1.46576338583922
100
AcDbArc
 50
333.7995869888
 51
14.5687138632
  0
ARC
  5
21B
330
1F
100
AcDbEntity
  8
0
  6
Continuous
 62
     7
370
     0
100
AcDbCircle
 10
261.0069291631
 20
33.439311217
 30
0.0
 40
3.099412408708232
100
AcDbArc
 50
11.6729478742
 51
32.0979915288
  0
LWPOLYLINE
  5
21C
330
1F
100
AcDbEntity
  8
0
  6
Continuous
 62
     7
370
     0
100
AcDbPolyline
 90
       10
 70
   128
 43
0.0
 10
263.8642268082
 20
34.0497377847
 10
263.9007921667
 20
33.63956221
 10
263.8451007054
 20
33.2856810308
 10
263.7012828051
 20
33.0143399952
 10
263.4800047816
 20
32.8456632266
 10
263.1976778136
 20
32.7921607091
 10
262.8752408007
 20
32.8578004798
 10
262.5366074212
 20
33.0377143372
 10
262.2068925637
 20
33.3185588935
 10
262.0462603759
 20
33.4989350113
  0
ARC
  5
21D
330
1F
100
AcDbEntity
  8
0
  6
Continuous
 62
     7
370
     0
100
AcDbCircle
 10
261.0583107801
 20
33.4694715958
 30
0.0
 40
2.865287700482519
100
AcDbArc
 50
11.6841180851
 51
31.5997580168
  0
OLE2FRAME
  5
21E
330
1F
100
AcDbEntity
  8
0
100
AcDbOle2Frame
 70
     2
  3
Paintbrush-Bild
 10
13.8511154363
 20
38.264191557
 30
0.0
 11
51.6290888628
 21
31.9806341108
 31
0.0
 71
     2
 72
     0
 73
     1
 90
    12928
310
80552BED0767C5B32B40DDAF6807D121434000000000000000006FFBDDFB85D0
310
4940DDAF6807D121434000000000000000006FFBDDFB85D04940416F4BD60AFB
310
3F4000000000000000002BED0767C5B32B40416F4BD60AFB3F40000000000000
310
0000000000000100000000010000010000000100000000000100000000320000
310
D0CF11E0A1B11AE1000000000000000000000000000000003E000300FEFF0900
310
0600000000000000000000000100000001000000000000000010000002000000
310
01000000FEFFFFFF0000000000000000FFFFFFFFFFFFFFFFFFFFFFFFFFFFFFFF
310
FFFFFFFFFFFFFFFFFFFFFFFFFFFFFFFFFFFFFFFFFFFFFFFFFFFFFFFFFFFFFFFF
310
FFFFFFFFFFFFFFFFFFFFFFFFFFFFFFFFFFFFFFFFFFFFFFFFFFFFFFFFFFFFFFFF
310
FFFFFFFFFFFFFFFFFFFFFFFFFFFFFFFFFFFFFFFFFFFFFFFFFFFFFFFFFFFFFFFF
310
FFFFFFFFFFFFFFFFFFFFFFFFFFFFFFFFFFFFFFFFFFFFFFFFFFFFFFFFFFFFFFFF
310
FFFFFFFFFFFFFFFFFFFFFFFFFFFFFFFFFFFFFFFFFFFFFFFFFFFFFFFFFFFFFFFF
310
FFFFFFFFFFFFFFFFFFFFFFFFFFFFFFFFFFFFFFFFFFFFFFFFFFFFFFFFFFFFFFFF
310
FFFFFFFFFFFFFFFFFFFFFFFFFFFFFFFFFFFFFFFFFFFFFFFFFFFFFFFFFFFFFFFF
310
FFFFFFFFFFFFFFFFFFFFFFFFFFFFFFFFFFFFFFFFFFFFFFFFFFFFFFFFFFFFFFFF
310
FFFFFFFFFFFFFFFFFFFFFFFFFFFFFFFFFFFFFFFFFFFFFFFFFFFFFFFFFFFFFFFF
310
FFFFFFFFFFFFFFFFFFFFFFFFFFFFFFFFFFFFFFFFFFFFFFFFFFFFFFFFFFFFFFFF
310
FFFFFFFFFFFFFFFFFFFFFFFFFFFFFFFFFFFFFFFFFFFFFFFFFFFFFFFFFFFFFFFF
310
FFFFFFFFFFFFFFFFFFFFFFFFFFFFFFFFFFFFFFFFFFFFFFFFFFFFFFFFFFFFFFFF
310
FFFFFFFFFFFFFFFFFFFFFFFFFFFFFFFFFFFFFFFFFFFFFFFFFFFFFFFFFFFFFFFF
310
FDFFFFFFFEFFFFFFFEFFFFFFFEFFFFFF05000000060000000700000008000000
310
090000000A0000000B0000000C0000000D0000000E0000000F00000010000000
310
11000000120000001300000014000000150000001600000017000000FEFFFFFF
310
FFFFFFFFFFFFFFFFFFFFFFFFFFFFFFFFFFFFFFFFFFFFFFFFFFFFFFFFFFFFFFFF
310
FFFFFFFFFFFFFFFFFFFFFFFFFFFFFFFFFFFFFFFFFFFFFFFFFFFFFFFFFFFFFFFF
310
FFFFFFFFFFFFFFFFFFFFFFFFFFFFFFFFFFFFFFFFFFFFFFFFFFFFFFFFFFFFFFFF
310
FFFFFFFFFFFFFFFFFFFFFFFFFFFFFFFFFFFFFFFFFFFFFFFFFFFFFFFFFFFFFFFF
310
FFFFFFFFFFFFFFFFFFFFFFFFFFFFFFFFFFFFFFFFFFFFFFFFFFFFFFFFFFFFFFFF
310
FFFFFFFFFFFFFFFFFFFFFFFFFFFFFFFFFFFFFFFFFFFFFFFFFFFFFFFFFFFFFFFF
310
FFFFFFFFFFFFFFFFFFFFFFFFFFFFFFFFFFFFFFFFFFFFFFFFFFFFFFFFFFFFFFFF
310
FFFFFFFFFFFFFFFFFFFFFFFFFFFFFFFFFFFFFFFFFFFFFFFFFFFFFFFFFFFFFFFF
310
FFFFFFFFFFFFFFFFFFFFFFFFFFFFFFFFFFFFFFFFFFFFFFFFFFFFFFFFFFFFFFFF
310
FFFFFFFFFFFFFFFFFFFFFFFFFFFFFFFFFFFFFFFFFFFFFFFFFFFFFFFFFFFFFFFF
310
FFFFFFFFFFFFFFFFFFFFFFFFFFFFFFFFFFFFFFFFFFFFFFFFFFFFFFFFFFFFFFFF
310
FFFFFFFFFFFFFFFFFFFFFFFFFFFFFFFFFFFFFFFFFFFFFFFFFFFFFFFFFFFFFFFF
310
FFFFFFFFFFFFFFFFFFFFFFFFFFFFFFFFFFFFFFFFFFFFFFFFFFFFFFFFFFFFFFFF
310
52006F006F007400200045006E00740072007900000000000000000000000000
310
0000000000000000000000000000000000000000000000000000000000000000
310
16000500FFFFFFFFFFFFFFFF020000000A00030000000000C000000000000046
310
000000000000000000000000600DF4E59D23D20103000000C000000000000000
310
01004F006C006500000000000000000000000000000000000000000000000000
310
0000000000000000000000000000000000000000000000000000000000000000
310
0A000200FFFFFFFFFFFFFFFFFFFFFFFF00000000000000000000000000000000
310
0000000000000000000000000000000000000000000000001400000000000000
310
010043006F006D0070004F0062006A0000000000000000000000000000000000
310
0000000000000000000000000000000000000000000000000000000000000000
310
120002010100000003000000FFFFFFFF00000000000000000000000000000000
310
0000000000000000000000000000000000000000010000004D00000000000000
310
01004F006C006500310030004E00610074006900760065000000000000000000
310
0000000000000000000000000000000000000000000000000000000000000000
310
1A000200FFFFFFFFFFFFFFFFFFFFFFFF00000000000000000000000000000000
310
0000000000000000000000000000000000000000040000002426000000000000
310
FEFFFFFF02000000FEFFFFFFFFFFFFFFFFFFFFFFFFFFFFFFFFFFFFFFFFFFFFFF
310
FFFFFFFFFFFFFFFFFFFFFFFFFFFFFFFFFFFFFFFFFFFFFFFFFFFFFFFFFFFFFFFF
310
FFFFFFFFFFFFFFFFFFFFFFFFFFFFFFFFFFFFFFFFFFFFFFFFFFFFFFFFFFFFFFFF
310
FFFFFFFFFFFFFFFFFFFFFFFFFFFFFFFFFFFFFFFFFFFFFFFFFFFFFFFFFFFFFFFF
310
FFFFFFFFFFFFFFFFFFFFFFFFFFFFFFFFFFFFFFFFFFFFFFFFFFFFFFFFFFFFFFFF
310
FFFFFFFFFFFFFFFFFFFFFFFFFFFFFFFFFFFFFFFFFFFFFFFFFFFFFFFFFFFFFFFF
310
FFFFFFFFFFFFFFFFFFFFFFFFFFFFFFFFFFFFFFFFFFFFFFFFFFFFFFFFFFFFFFFF
310
FFFFFFFFFFFFFFFFFFFFFFFFFFFFFFFFFFFFFFFFFFFFFFFFFFFFFFFFFFFFFFFF
310
FFFFFFFFFFFFFFFFFFFFFFFFFFFFFFFFFFFFFFFFFFFFFFFFFFFFFFFFFFFFFFFF
310
FFFFFFFFFFFFFFFFFFFFFFFFFFFFFFFFFFFFFFFFFFFFFFFFFFFFFFFFFFFFFFFF
310
FFFFFFFFFFFFFFFFFFFFFFFFFFFFFFFFFFFFFFFFFFFFFFFFFFFFFFFFFFFFFFFF
310
FFFFFFFFFFFFFFFFFFFFFFFFFFFFFFFFFFFFFFFFFFFFFFFFFFFFFFFFFFFFFFFF
310
FFFFFFFFFFFFFFFFFFFFFFFFFFFFFFFFFFFFFFFFFFFFFFFFFFFFFFFFFFFFFFFF
310
FFFFFFFFFFFFFFFFFFFFFFFFFFFFFFFFFFFFFFFFFFFFFFFFFFFFFFFFFFFFFFFF
310
FFFFFFFFFFFFFFFFFFFFFFFFFFFFFFFFFFFFFFFFFFFFFFFFFFFFFFFFFFFFFFFF
310
FFFFFFFFFFFFFFFFFFFFFFFFFFFFFFFFFFFFFFFFFFFFFFFFFFFFFFFFFFFFFFFF
310
0100000200000000000000000000000000000000000000000000000000000000
310
0000000000000000000000000000000000000000000000000000000000000000
310
0100FEFF030A0000FFFFFFFF0A00030000000000C00000000000004607000000
310
5042727573680007000000504272757368000700000050427275736800F439B2
310
7100000000000000000000000000000000000000000000000000000000000000
310
0000000000000000000000000000000000000000000000000000000000000000
310
0000000000000000000000000000000000000000000000000000000000000000
310
0000000000000000000000000000000000000000000000000000000000000000
310
0000000000000000000000000000000000000000000000000000000000000000
310
0000000000000000000000000000000000000000000000000000000000000000
310
0000000000000000000000000000000000000000000000000000000000000000
310
0000000000000000000000000000000000000000000000000000000000000000
310
0000000000000000000000000000000000000000000000000000000000000000
310
0000000000000000000000000000000000000000000000000000000000000000
310
0000000000000000000000000000000000000000000000000000000000000000
310
0000000000000000000000000000000000000000000000000000000000000000
310
20260000424D0E260000000000003E00000028000000B40200006E0000000100
310
01000000000000000000130B0000130B00000200000002000000000000FFFFFF
310
FFFFFFFFFFFFFFFFFFFFFFFFFFFFFFFFFFFFFFFFFFFFFFFFFFFFFFFFFFFFFFFF
310
FFFFFFFFFFFFFFFFFFFFFFFFFFFFFFFFFFFFFFFFFFFFFFFFFFFFFFFFFFFFFFFF
310
FFFFFFFFFFFFFFFFFFFFFFFFFFFFFFFFFFFFFFFFFFFFFFFFF000FFFFFFFFFFFF
310
FFFFFFFFFFFFFFFFFFFFFFFFFFFFFFFFFFFFFFFFFFFFFFFFFFFFFFFFFFFFFFFF
310
FFFFFFFFFFFFFFFFFFFFFFFFFFFFFFFFFFFFFFFFFFFFFFFFFFFFFFFFFFFFFFFF
310
FFFFFFFFFFFFFFFFFFFFFFFFFFFFFFFFF000FFFFFFFFFFFFFFFFFFFFFFFFFFFF
310
FFFFFFFFFFFFFFFFFFFFFFFFFFFFFFFFFFFFFFFFFFFFFFFFFFFFFFFFFFFFFFFF
310
FFFFFFFFFFFFFFFFFFFFFFFFFFFFFFFFFFFFFFFFFFFFFFFFFFFFFFFFFFFFFFFF
310
FFFFFFFFFFFFFFFFF000FFFFFFFFFFFFFFFFFFFFFFFFFFFFFFFFFFFFFFFFFFFF
310
FFFFFFFFFFFFFFFFFFFFFFFFFFFFFFFFFFFFFFFFFFFFFFFFFFFFFFFFFFFFFFFF
310
FFFFFFFFFFFFFFFFFFFFFFFFFFFFFFFFFFFFFFFFFFFFFFFFFFFFFFFFFFFFFFFF
310
F000FFFFFFFFFFFFFFFFFFFFFFFFFFFFFFFFFFFFFFFFFFFFFFFFFFFFFFFFFFFF
310
FFFFFFFFFFFFFFFFFFFFFFFFFFFFFFFFFFFFFFFFFFFFFFFFFFFFFFFFFFFFFFFF
310
FFFFFFFFFFFFFFFFFFFFFFFFFFFFFFFFFFFFFFFFFFFFFFFFF000FFFFFFFFFFFF
310
FFFFFFFFFFFFFFFFFFFFFFFFFFFFFFFFFFFFFFFFFFFFFFFFFFFFFFFFFFFFFFFF
310
FFFFFFFFFFFFFFFFFFFFFFFFFFFFFFFFFFFFFFFFFFFFFFFFFFFFFFFFFFFFFFFF
310
FFFFFFFFFFFFFFFFFFFFFFFFFFFFFFFFF000FFFFFFFFFFFFFFFFFFFFFFFFFFFF
310
FFFFFFFFFFFFFFFFFFFFFFFFFFFFFFFFFFFFFFFFFFFFFFFFFFFFFFFFFFFFFFFF
310
FFFFFFFFFFFFFFFFFFFFFFFFFFFFFFFFFFFFFFFFFFFFFFFFFFFFFFFFFFFFFFFF
310
FFFFFFFFFFFFFFFFF000FFFFFFFFFFFFFFFFFFFFFFFFFFFFFFFFFFFFFFFFFFFF
310
FFFFFFFFFFFFFFFFFFFFFFFFFFFFFFFFFFFFFFFFFFFFFFFFFFFFFFFFFFFFFFFF
310
FFFFFFFFFFFFFFFFFFFFFFFFFFFFFFFFFFFFFFFFFFFFFFFFFFFFFFFFFFFFFFFF
310
F000FFFFFFFFFFFFFFFFFFFFFFFFFFFFFFFFFFFFFFFFFFFFFFFFFFFFFFFFFFFF
310
FFFFFFFFFFFFFFFFFFFFFFFFFFFFFFFFFFFFFFFFFFFFFFFFFFFFFFFFFFFFFFFF
310
FFFFFFFFFFFFFFFFFFFFFFFFFFFFFFFFFFFFFFFFFFFFFFFFF000FFFFFFFFFFFF
310
FFFFFFFFFFFFFFFFFFFFFFFFFFFFFFFFFFFFFFFFFFFFFFFFFFFFFFFFFFFFFFFF
310
FFFFFFFFFFFFFFFFFFFFFFFFFFFFFFFFFFFFFFFFFFFFFFFFFFFFFFFFFFFFFFFF
310
FFFFFFFFFFFFFFFFFFFFFFFFFFFFFFFFF000FFFFFFFFFFFFFFFFFFFFFFFFFFFF
310
FFFFFFFFFFFFFFFFFFFFFFFFFFFFFFFFFFFFFFFFFFFFFFFFFFFFFFFFFFFFFFFF
310
FFFFFFFFFFFFFFFFFFFFFFFFFFFFFFFFFFFFFFFFFFFFFFFFFFFFFFFFFFFFFFFF
310
FFFFFFFFFFFFFFFFF000FFFFFFFFFFFFFFFFFFFFFFFFFFFFFFFFFFFFFFFFFFFF
310
FFFFFFFFFFFFFFFFFFFFFFFFFFFFFFFFFFFFFFFFFFFFFFFFFFFFFFFFFFFFFFFF
310
FFFFFFFFFFFFFFFFFFFFFFFFFFFFFFFFFFFFFFFFFFFFFFFFFFFFFFFFFFFFFFFF
310
F000FFFFFFFFFFFFFFFFFFFFFFFFFFFFFFFFFFFFFFFFFFFFFFFFFFFFFFFFFFFF
310
FFFFFFFFFFFFFFFFFFFFFFFFFFFFFFFFFFFFFFFFFFFFFFFFFFFFFFFFFFFFFFFF
310
FFFFFFFFFFFFFFFFFFFFFFFFFFFFFFFFFFFFFFFFFFFFFFFFF000FFFFFFFFFFFF
310
FFFFFFFFFFFFFFFFFFFFFFFFFFFFFFFFFFFFFFFFFFFFFFFFFFFFFFFFFFFFFFFF
310
FFFFFFFFFFFFFFFFFFFFFFFFFFFFFFFFFFFFFFFFFFFFFFFFFFFFFFFFFFFFFFFF
310
FFFFFFFFFFFFFFFFFFFFFFFFFFFFFFFFF000FFFFFFFFFFFFFFFFFFFFFFFFFFFF
310
FFFFFFFFFFFFFFFFFFFFFFFFFFFFFFFFFFFFFFFFFFFFFFFFFFFFFFFFFFFFFFFF
310
FFFFFFFFFFFFFFFFFFFFFFFFFFFFFFFFFFFFFFFFFFFFFFFFFFFFFFFFFFFFFFFF
310
FFFFFFFFFFFFFFFFF000FFFFFFFFFFFFFFFFFFFFFFFFFFFFFFFFFFFFFFFFFFFF
310
FFFFFFFFFFFFFFFFFFFFFFFFFFFFFFFFFFFFFFFFFFFFFFFFFFFFFFFFFFFFFFFF
310
FFFFFFFFFFFFFFFFFFFFFFFFFFFFFFFFFFFFFFFFFFFFFFFFFFFFFFFFFFFFFFFF
310
F000FFFFFFFFFFFFFFFFFFFFFFFFFFFFFFFFFFFFFFFFFFFFFFFFFFFFFFFFFFFF
310
FFFFFFFFFFFFFFFFFFFFFFFFFFFFFFFFFFFFFFFFFFFFFFFFFFFFFFFFFFFFFFFF
310
FFFFFFFFFFFFFFFFFFFFFFFFFFFFFFFFFFFFFFFFFFFFFFFFF000FFFFFFFFFFFF
310
FFFFFFFFFFFFFFFFFFFFFFFFFFFFFFFFFFFFFFFFFFFFFFFFFFFFFFFFFFFFFFFF
310
FFFFFFFFFFFFFFFFFFFFFFFFFFFFFFFFFFFFFFFFFFFFFFFFFFFFFFFFFFFFFFFF
310
FFFFFFFFFFFFFFFFFFFFFFFFFFFFFFFFF000FFFFFFFFFFFFFFFFFFFFFFFFFFFF
310
FFFFFFFFFFFFFFFFFFFFFFFFFFFFFFFFFFFFFFFFFFFFFFFFFFFFFFFFFFFFFFFF
310
FFFFFFFFFFFFFFFFFFFFFFFFFFFFFFFFFFFFFFFFFFFFFFFFFFFFFFFFFFFFFFFF
310
FFFFFFFFFFFFFFFFF000FFFFF80003FFFFFFFFFFFFFFFFFFFFFFFFFFFFFFFFFF
310
FFFFF00007FFFFFFFFFF00007FFFFFF800000000000000007FFFFFFFFFFFFFFF
310
FFFFFFFC001FFFFFFFFFFFFFFC001FFFFFFFFFFFFFFFFFFFFFFFFFFE0007FFFF
310
F000FFFF8000007FFFFFFFF8000FFFFFC0007FFFFF80007FFFFF0000007FFFFF
310
FFF8000007FFFFF800000000000000007FFFFFF0001FFFFFFFFFFFC00001FFFF
310
FFFFFFFFC00001FFFFFFFF000000000003FFFFE000007FFFF000FFFE0000000F
310
FFFFFFF0000FFFFF80007FFFFF80007FFFFC0000001FFFFFFFC0000001FFFFF8
310
00000000000000007FFFFFF0001FFFFFFFFFFE0000003FFFFFFFFFFE0000003F
310
FFFFFF000000000003FFFF0000000FFFF000FFF800000003FFFFFFF00007FFFF
310
80007FFFFF80007FFFF000000007FFFFFF000000003FFFF80000000000000000
310
7FFFFFF0001FFFFFFFFFF80000000FFFFFFFFFF80000000FFFFFFF0000000000
310
03FFFC00000003FFF000FFE000000000FFFFFFF00007FFFF80003FFFFF80007F
310
FFC000000001FFFFFC000000001FFFF800000000000000007FFFFFF0001FFFFF
310
FFFFE000000003FFFFFFFFE000000003FFFFFF000000000003FFF000000000FF
310
F000FF80000000007FFFFFF00007FFFF80003FFFFF80007FFF8000000000FFFF
310
F80000000007FFF800000000000000007FFFFFF0001FFFFFFFFFC000000001FF
310
FFFFFFC000000001FFFFFF000000000003FFC0000000007FF000FF0000000000
310
3FFFFFE00007FFFF00003FFFFF80007FFE00000000003FFFF00000000003FFF8
310
00000000000000007FFFFFF0001FFFFFFFFF8000000000FFFFFFFF8000000000
310
FFFFFF000000000003FF80000000003FF000FE00000000001FFFFFE00003FFFF
310
00003FFFFF80007FFC00000000001FFFE00000000001FFF8000001FFFE000000
310
7FFFFFF0001FFFFFFFFE00000000003FFFFFFE00000000003FFFFF0000000000
310
03FF00000000001FF000FC00000000000FFFFFE00003FFFF00001FFFFF80007F
310
F800000000001FFFC00000000000FFF8000001FFFE0000007FFFFFF0001FFFFF
310
FFFC00000000001FFFFFFC00000000001FFFFF000000000003FE00000000000F
310
F000F8000000000007FFFFE00003FFFF00001FFFFF80007FF800000000000FFF
310
800000000000FFF8000001FFFE0000007FFFFFF0001FFFFFFFF800000000000F
310
FFFFF800000000000FFFFF000000000003FC000000000007F000F80000000000
310
03FFFFC00003FFFE00001FFFFF80007FF0000000000007FF0000000000007FF8
310
000001FFFE0000007FFFFFF0001FFFFFFFF0000000000007FFFFF00000000000
310
07FFFF000000000003F8000000000003F000F0000000000003FFFFC00001FFFE
310
00001FFFFF80007FE0000000000007FE0000000000003FF8000001FFFE000000
310
7FFFFFF0001FFFFFFFF0000000000007FFFFF0000000000007FFFF0000000000
310
03F800001F800003F000E00001FFF00001FFFFC00001FFFE00000FFFFF80007F
310
E00001FFE00003FE00001FFF00003FF8000001FFFE0000007FFFFFF0001FFFFF
310
FFE000003E000003FFFFE000003E000003FFFF000000000003F00001FFF80001
310
F000E00007FFFC0001FFFFC00001FFFE00000FFFFF80007FC0000FFFFC0003FC
310
0000FFFFC0001FF8000001FFFE0000007FFFFFF0001FFFFFFFC00003FFE00001
310
FFFFC00003FFE00001FFFF0001FFFFFFFFF00007FFFE0001F000E0000FFFFF00
310
00FFFF800001FFFC00000FFFFF80007FC0001FFFFE0001FC0001FFFFE0001FF8
310
000001FFFE0000007FFFFFF0001FFFFFFF80000FFFF80000FFFF80000FFFF800
310
00FFFF0003FFFFFFFFE0000FFFFF8000F000C0003FFFFF8000FFFF800000FFFC
310
000007FFFF80007F80003FFFFF0001FC0003FFFFF0001FF8000001FFFE000000
310
7FFFFFF0001FFFFFFF80003FFFFE0000FFFF80003FFFFE0000FFFF0003FFFFFF
310
FFE0003FFFFF8000F000C0003FFFFF8000FFFF800000FFFC000007FFFF80007F
310
80007FFFFF8001F80007FFFFF8000FF8000001FFFE0000007FFFFFF0001FFFFF
310
FF00007FFFFF00007FFF00007FFFFF00007FFF0003FFFFFFFFE0003FFFFFC000
310
F000C0007FFFFFC000FFFF000000FFFC000007FFFF80007F8000FFFFFF8000F8
310
000FFFFFF8000FF8000001FFFE0000007FFFFFF0001FFFFFFF0000FFFFFF8000
310
7FFF0000FFFFFF80007FFF0003FFFFFFFFC0007FFFFFC00070008000FFFFFFC0
310
00FFFF000000FFF8000007FFFF80007F8000FFFFFF8000F8000FFFFFF8000FF8
310
000001FFFE0000007FFFFFF0001FFFFFFE0001FFFFFFC0003FFE0001FFFFFFC0
310
003FFF0003FFFFFFFFC0007FFFFFE00070008000FFFFFFC0007FFF0000007FF8
310
000003FFFF80007F0001FFFFFF8000F8000FFFFFF8000FF8000001FFFE000000
310
7FFFFFF0001FFFFFFE0001FFFFFFC0003FFE0001FFFFFFC0003FFF0003FFFFFF
310
FFC000FFFFFFE00070008000FFFFFFC0007FFF0000007FF8000003FFFF80007F
310
0001FFFFFF8000F8001FFFFFF8000FF8000001FFFE0000007FFFFFF0001FFFFF
310
FE0003FFFFFFE0003FFE0003FFFFFFE0003FFF0003FFFFFFFFC000FFFFFFE000
310
70008000FFFFFFC0007FFE0000007FF8000003FFFF80007F0001FFFFFF8000F0
310
001FFFFFF8000FF8000001FFFE0000007FFFFFF0001FFFFFFC0003FFFFFFE000
310
1FFC0003FFFFFFE0001FFF0003FFFFFFFFC000FFFFFFC00070008000FFFFFF80
310
007FFE0000007FF0000003FFFF80007F0001FFFFFF0000F0001FFFFFF8000FF8
310
000001FFFE0000007FFFFFF0001FFFFFFC0007FFFFFFF0001FFC0007FFFFFFF0
310
001FFF0003FFFFFFFFC000FFFFFFC00070008001FFFFFF0000FFFE0000003FF0
310
000001FFFF80007F0001FFFFFF0000F8001FFFFFF0000FF8000001FFFE000000
310
7FFFFFF0001FFFFFFC0007FFFFFFF0001FFC0007FFFFFFF0001FFF0003FFFFFF
310
FFC001FFFFFF80007000FFFFFFFFFE0000FFFE0008003FF0008001FFFF80007F
310
FFFFFFFFFC0000FFFFFFFFFFE0000FF8000001FFFE0000007FFFFFF0001FFFFF
310
F8000FFFFFFFF8000FF8000FFFFFFFF8000FFF0003FFFFFFFFFFFFFFFFFF0000
310
7000FFFFFFFFFC0000FFFC0008003FF0008001FFFF80007FFFFFFFFFF80001FF
310
FFFFFFFF80000FF8000001FFFE0000007FFFFFF0001FFFFFF8000FFFFFFFF800
310
0FF8000FFFFFFFF8000FFF0003FFFFFFFFFFFFFFFFFE0000F000FFFFFFFFE000
310
00FFFC000C003FE000C001FFFF80007FFFFFFFFFC00001FFFFFFFFFE00001FF8
310
000001FFFE0000007FFFFFF0001FFFFFF8000FFFFFFFF8000FF8000FFFFFFFF8
310
000FFF0003FFFFFFFFFFFFFFFFF00000F000FFFFFFFE000001FFFC000C001FE0
310
00C000FFFF80007FFFFFFFFE000001FFFFFFFFE000001FF80FFFFFFFFFFFFFC0
310
7FFFFFF0001FFFFFF8000FFFFFFFF8000FF8000FFFFFFFF8000FFF0003FFFFFF
310
FFFFFFFFFF800000F000FFFFFFC0000001FFFC001C001FE001C000FFFF80007F
310
FFFFFF80000003FFFFFFF80000001FF80FFFFFFFFFFFFFC07FFFFFF0001FFFFF
310
F8001FFFFFFFFC000FF8001FFFFFFFFC000FFF0003FFFFFFFFFFFFFFF0000001
310
F000FFFFF800000001FFF8001C001FE001C000FFFF80007FFFFFF800000003FF
310
FFFF800000003FF80FFFFFFFFFFFFFC07FFFFFF0001FFFFFF8001FFFFFFFFC00
310
0FF8001FFFFFFFFC000FFF0003FFFFFFFFFFFFFE00000001F000FFFFC0000000
310
03FFF8001E001FC001E000FFFF80007FFFFF8000000007FFFFFC000000003FF8
310
0FFFFFFFFFFFFFC07FFFFFF0001FFFFFF8001FFFFFFFFC000FF8001FFFFFFFFC
310
000FFF0003FFFFFFFFFFFFE000000003F000FFFE0000000007FFF8001E000FC0
310
01E0007FFF80007FFFFE0000000007FFFFE0000000007FF80FFFFFFFFFFFFFC0
310
7FFFFFF0001FFFFFF0001FFFFFFFFC0007F0001FFFFFFFFC0007FF0003FFFFFF
310
FFFFFF0000000003F000FFF80000000007FFF8001E000FC003E0007FFF80007F
310
FFF0000000000FFFFF8000000000FFF80FFFFFFFFFFFFFC07FFFFFF0001FFFFF
310
F0001FFFFFFFFC0007F0001FFFFFFFFC0007FF0003FFFFFFFFFFFC0000000007
310
F000FFE0000000000FFFF0003E000FC003E0007FFF80007FFFC0000000001FFF
310
FE0000000001FFF80FFFFFFFFFFFFFC07FFFFFF0001FFFFFF0001FFFFFFFFC00
310
07F0001FFFFFFFFC0007FF0003FFFFFFFFFFF0000000000FF000FFC000000000
310
1FFFF0003F000F8003F0003FFF80007FFF80000000003FFFF80000000003FFF8
310
0FFFFFFFFFFFFFC07FFFFFF0001FFFFFF0001FFFFFFFFC0007F0001FFFFFFFFC
310
0007FF0003FFFFFFFFFFE0000000001FF000FF00000000007FFFF0003F000780
310
03F0003FFF80007FFF00000000007FFFF00000000007FFF80FFFFFFFFFFFFFC0
310
7FFFFFF0001FFFFFF0001FFFFFFFFC0007F0001FFFFFFFFC0007FF0003FFFFFF
310
FFFF80000000007FF000FE0000000000FFFFE0003F00078007F0003FFF80007F
310
FE0000000001FFFFE0000000001FFFF80FFFFFFFFFFFFFC07FFFFFF0001FFFFF
310
F0001FFFFFFFFC0007F0001FFFFFFFFC0007FF0003FFFFFFFFFF0000000000FF
310
F000FC0000000003FFFFE0007F00078007F0003FFF80007FFC0000000007FFFF
310
C0000000007FFFF80FFFFFFFFFFFFFC07FFFFFF0001FFFFFF8001FFFFFFFFC00
310
0FF8001FFFFFFFFC000FFF0003FFFFFFFFFE0000000003FFF000FC000000000F
310
FFFFE0007F80070007F8001FFF80007FF8000000001FFFFF8000000001FFFFF8
310
0FFFFFFFFFFFFFC07FFFFFF0001FFFFFF8001FFFFFFFFC000FF8001FFFFFFFFC
310
000FFF0003FFFFFFFFFC000000000FFFF000F8000000007FFFFFE0007F800700
310
07F8001FFF80007FF000000000FFFFFF800000000FFFFFF80FFFFFFFFFFFFFC0
310
7FFFFFF0001FFFFFF8000FFFFFFFF8000FF8000FFFFFFFF8000FFF0003FFFFFF
310
FFFC000000007FFFF000F800000007FFFFFFC0007F8003000FF8001FFF80007F
310
F000000007FFFFFF000000007FFFFFF80FFFFFFFFFFFFFC07FFFFFF0001FFFFF
310
F8000FFFFFFFF8000FF8000FFFFFFFF8000FFF0003FFFFFFFFF80000000FFFFF
310
F000F0000000FFFFFFFFC000FF8003000FF8001FFF80007FE0000000FFFFFFFF
310
0000000FFFFFFFF8000001FFFE0000007FFFFFF0001FFFFFF8000FFFFFFFF800
310
0FF8000FFFFFFFF8000FFF0003FFFFFFFFF8000000FFFFFFF000F000000FFFFF
310
FFFFC000FFC002000FF8000FFF80007FE000001FFFFFFFFE000001FFFFFFFFF8
310
000001FFFE0000007FFFFFF0001FFFFFF8000FFFFFFFF8000FF8000FFFFFFFF8
310
000FFF0003FFFFFFFFF000001FFFFFFFF000E00000FFFFFFFFFFC000FFC00200
310
0FFC000FFF80007FE00001FFFFFFFFFE00001FFFFFFFFFF8000001FFFE000000
310
7FFFFFF0001FFFFFFC000FFFFFFFF8001FFC000FFFFFFFF8001FFF0003FFFFFF
310
FFF00001FFFFFFFFF000E00007FFFFFFFFFF8000FFC000001FFC000FFF80007F
310
C0000FFFFFFFFFFE0000FFFFFFFFFFF8000001FFFE0000007FFFFFF0001FFFFF
310
FC0007FFFFFFF0001FFC0007FFFFFFF0001FFF0003FFFFFFFFF00007FFFFFFFF
310
F000E0001FFFFFFFFFFF8000FFC000001FFC000FFF80007FC0003FFFFFFFFFFE
310
0001FFFFFFFFFFF8000001FFFE0000007FFFFFF0001FFFFFFC0007FFFFFFF000
310
1FFC0007FFFFFFF0001FFF0003FFFFFFFFF0001FFFFFFFFFF000E0003FFFFF00
310
03FF8001FFE000001FFC0007FF80007FC0007FFFFF0007FC0003FFFFF0003FF8
310
000001FFFE0000007FFFFFF0001FFFFFFC0003FFFFFFE0001FFC0003FFFFFFE0
310
001FFF0003FFFFFFFFF0003FFFFFFFFFF000E0003FFFFF0001FF8001FFE00000
310
1FFE0007FF80007FC0007FFFFE0003FC0007FFFFE0003FF8000001FFFE000000
310
7FFFFFF0001FFFFFFE0003FFFFFFE0003FFE0003FFFFFFE0003FFF0003FFFFFF
310
FFF0003FFFFF8001F000E0003FFFFF0001FF0001FFE000001FFE0007FF80007F
310
C0007FFFFE0003FC0007FFFFE0003FF8000001FFFE0000007FFFFFF0001FFFFF
310
FE0001FFFFFFC0003FFE0001FFFFFFC0003FFF0003FFFFFFFFF0003FFFFF0001
310
F000E0003FFFFF0003FF0001FFE000003FFE0007FF80007FC0007FFFFE0003FC
310
0007FFFFE0003FF8000001FFFE0000007FFFFFF0001FFFFFFF0001FFFFFFC000
310
7FFF0001FFFFFFC0007FFF0003FFFFFFFFF0003FFFFF0001F000E0003FFFFE00
310
03FF0003FFF000003FFE0003FF80007FC0007FFFFC0003FE0007FFFFE0003FF8
310
000001FFFE0000007FFFFFF0001FFFFFFF0000FFFFFF80007FFF0000FFFFFF80
310
007FFF0003FFFFFFFFF0003FFFFF0001F000E0003FFFFE0003FF0003FFF00000
310
3FFF0003FF80007FC0007FFFFC0007FE0007FFFFC0003FF8000001FFFE000000
310
7FFFFFF0001FFFFFFF80007FFFFF0000FFFF80007FFFFF0000FFFF0003FFFFFF
310
FFF0003FFFFF0003F000E0003FFFFC0003FE0003FFF000003FFF0003FF80007F
310
E0003FFFF80007FE0003FFFFC0007FF8000001FFFE0000007FFFFFF0001FFFFF
310
FF80003FFFFE0000FFFF80003FFFFE0000FFFF0003FFFFFFFFF0001FFFFE0003
310
F000F0001FFFF80003FE0003FFF000007FFF0001FF80007FE0003FFFF00007FE
310
0001FFFF80007FF8000001FFFE0000007FFFFFF0001FFFFFFFC0000FFFF80001
310
FFFFC0000FFFF80001FFFF0003FFFFFFFFF0001FFFFC0003F000F0000FFFF000
310
07FE0007FFF800007FFF0001FF80007FE0001FFFE00007FF0000FFFE00007FF8
310
000001FFFE0000007FFFFFF0001FFFFFFFC00003FFE00001FFFFC00003FFE000
310
01FFFF0003FFFFFFFFF8000FFFF80003F000F00003FFC00007FC0007FFF80000
310
7FFF8001FF80007FF00007FF80000FFF00007FF80000FFF8000001FFFE000000
310
7F80000000000001FFE000003E000003FFFFE000003E000003FFFF0003FFFFFF
310
FFF80003FFE00007F000F800000000000FFC0007FFF800007FFF8001FF80007F
310
F000000000000FFF000000000000FFF8000001FFFE0000007F80000000000001
310
FFF0000000000007FFFFF0000000000007FFFF0003FFFFFFFFFC00007E000007
310
F000F800000000000FFC0007FFF80000FFFF8000FF80007FF800000000001FFF
310
800000000001FFF8000001FFFE0000007F80000000000001FFF800000000000F
310
FFFFF800000000000FFFFF0003FFFFFFFFFC00000000000FF000FC0000000000
310
1FFC0007FFFC0000FFFF8000FF80007FF800000000003FFFC00000000001FFF8
310
000001FFFE0000007F80000000000001FFF800000000000FFFFFF80000000000
310
0FFFFF0003FFFFFFFFFE00000000001FF000FE00000000003FF8000FFFFC0000
310
FFFF8000FF80007FFC00000000003FFFC00000000003FFF8000001FFFE000000
310
7F80000000000001FFFC00000000001FFFFFFC00000000001FFFFF0003FFFFFF
310
FFFF00000000001FF000FF00000000003FF8000FFFFC0000FFFFC000FF80007F
310
FE00000000007FFFE00000000007FFF8000001FFFE0000007F80000000000001
310
FFFE00000000003FFFFFFE00000000003FFFFF0003FFFFFFFFFF80000000003F
310
F000FF80000000007FF8000FFFFC0001FFFFC0007F80007FFF0000000000FFFF
310
F0000000000FFFF800000000000000007F80000000000001FFFF8000000000FF
310
FFFFFF8000000000FFFFFF0003FFFFFFFFFFC0000000007FF000FFC000000000
310
FFF8000FFFFE0001FFFFC0007F80007FFF8000000001FFFFF8000000001FFFF8
310
00000000000000007F80000000000001FFFFC000000001FFFFFFFFC000000001
310
FFFFFF0003FFFFFFFFFFE000000000FFF000FFE000000003FFF0001FFFFE0001
310
FFFFC0007F80007FFFC000000007FFFFFE000000003FFFF80000000000000000
310
7F80000000000001FFFFE000000003FFFFFFFFE000000003FFFFFF0003FFFFFF
310
FFFFF000000003FFF000FFF80000000FFFF0001FFFFE0001FFFFE0007F80007F
310
FFF00000000FFFFFFF00000000FFFFF800000000000000007F80000000000001
310
FFFFF80000000FFFFFFFFFF80000000FFFFFFF0003FFFFFFFFFFFC0000000FFF
310
F000FFFE0000003FFFF0001FFFFE0003FFFFE0003F80007FFFFC0000003FFFFF
310
FFC0000003FFFFF800000000000000007F80000000000001FFFFFE0000003FFF
310
FFFFFFFE0000003FFFFFFF0003FFFFFFFFFFFF0000003FFFF000FFFF800000FF
310
FFF0001FFFFF0003FFFFE0003F80007FFFFF000001FFFFFFFFF800001FFFFFF8
310
00000000000000007F80000000000001FFFFFFC00001FFFFFFFFFFFFC00001FF
310
FFFFFF0003FFFFFFFFFFFFC00000FFFFF000FFFFF8000FFFFFFFFFFFFFFFFFFF
310
FFFFFFFFFFFFFFFFFFFFF0001FFFFFFFFFFF0000FFFFFFF80000000000000000
310
7FFFFFFFFFFFFFFFFFFFFFFC001FFFFFFFFFFFFFFC001FFFFFFFFFFFFFFFFFFF
310
FFFFFFFC001FFFFFF000FFFFFFFFFFFFFFFFFFFFFFFFFFFFFFFFFFFFFFFFFFFF
310
FFFFFFFFFFFFFFFFFFFFFFFFFFFFFFFFFFFFFFFFFFFFFFFFFFFFFFFFFFFFFFFF
310
FFFFFFFFFFFFFFFFFFFFFFFFFFFFFFFFFFFFFFFFFFFFFFFFFFFFFFFFFFFFFFFF
310
F000FFFFFFFFFFFFFFFFFFFFFFFFFFFFFFFFFFFFFFFFFFFFFFFFFFFFFFFFFFFF
310
FFFFFFFFFFFFFFFFFFFFFFFFFFFFFFFFFFFFFFFFFFFFFFFFFFFFFFFFFFFFFFFF
310
FFFFFFFFFFFFFFFFFFFFFFFFFFFFFFFFFFFFFFFFFFFFFFFFF000FFFFFFFFFFFF
310
FFFFFFFFFFFFFFFFFFFFFFFFFFFFFFFFFFFFFFFFFFFFFFFFFFFFFFFFFFFFFFFF
310
FFFFFFFFFFFFFFFFFFFFFFFFFFFFFFFFFFFFFFFFFFFFFFFFFFFFFFFFFFFFFFFF
310
FFFFFFFFFFFFFFFFFFFFFFFFFFFFFFFFF000FFFFFFFFFFFFFFFFFFFFFFFFFFFF
310
FFFFFFFFFFFFFFFFFFFFFFFFFFFFFFFFFFFFFFFFFFFFFFFFFFFFFFFFFFFFFFFF
310
FFFFFFFFFFFFFFFFFFFFFFFFFFFFFFFFFFFFFFFFFFFFFFFFFFFFFFFFFFFFFFFF
310
FFFFFFFFFFFFFFFFF000FFFFFFFFFFFFFFFFFFFFFFFFFFFFFFFFFFFFFFFFFFFF
310
FFFFFFFFFFFFFFFFFFFFFFFFFFFFFFFFFFFFFFFFFFFFFFFFFFFFFFFFFFFFFFFF
310
FFFFFFFFFFFFFFFFFFFFFFFFFFFFFFFFFFFFFFFFFFFFFFFFFFFFFFFFFFFFFFFF
310
F000FFFFFFFFFFFFFFFFFFFFFFFFFFFFFFFFFFFFFFFFFFFFFFFFFFFFFFFFFFFF
310
FFFFFFFFFFFFFFFFFFFFFFFFFFFFFFFFFFFFFFFFFFFFFFFFFFFFFFFFFFFFFFFF
310
FFFFFFFFFFFFFFFFFFFFFFFFFFFFFFFFFFFFFFFFFFFFFFFFF000FFFFFFFFFFFF
310
FFFFFFFFFFFFFFFFFFFFFFFFFFFFFFFFFFFFFFFFFFFFFFFFFFFFFFFFFFFFFFFF
310
FFFFFFFFFFFFFFFFFFFFFFFFFFFFFFFFFFFFFFFFFFFFFFFFFFFFFFFFFFFFFFFF
310
FFFFFFFFFFFFFFFFFFFFFFFFFFFFFFFFF000FFFFFFFFFFFFFFFFFFFFFFFFFFFF
310
FFFFFFFFFFFFFFFFFFFFFFFFFFFFFFFFFFFFFFFFFFFFFFFFFFFFFFFFFFFFFFFF
310
FFFFFFFFFFFFFFFFFFFFFFFFFFFFFFFFFFFFFFFFFFFFFFFFFFFFFFFFFFFFFFFF
310
FFFFFFFFFFFFFFFFF000FFFFFFFFFFFFFFFFFFFFFFFFFFFFFFFFFFFFFFFFFFFF
310
FFFFFFFFFFFFFFFFFFFFFFFFFFFFFFFFFFFFFFFFFFFFFFFFFFFFFFFFFFFFFFFF
310
FFFFFFFFFFFFFFFFFFFFFFFFFFFFFFFFFFFFFFFFFFFFFFFFFFFFFFFFFFFFFFFF
310
F000FFFFFFFFFFFFFFFFFFFFFFFFFFFFFFFFFFFFFFFFFFFFFFFFFFFFFFFFFFFF
310
FFFFFFFFFFFFFFFFFFFFFFFFFFFFFFFFFFFFFFFFFFFFFFFFFFFFFFFFFFFFFFFF
310
FFFFFFFFFFFFFFFFFFFFFFFFFFFFFFFFFFFFFFFFFFFFFFFFF000FFFFFFFFFFFF
310
FFFFFFFFFFFFFFFFFFFFFFFFFFFFFFFFFFFFFFFFFFFFFFFFFFFFFFFFFFFFFFFF
310
FFFFFFFFFFFFFFFFFFFFFFFFFFFFFFFFFFFFFFFFFFFFFFFFFFFFFFFFFFFFFFFF
310
FFFFFFFFFFFFFFFFFFFFFFFFFFFFFFFFF000FFFFFFFFFFFFFFFFFFFFFFFFFFFF
310
FFFFFFFFFFFFFFFFFFFFFFFFFFFFFFFFFFFFFFFFFFFFFFFFFFFFFFFFFFFFFFFF
310
FFFFFFFFFFFFFFFFFFFFFFFFFFFFFFFFFFFFFFFFFFFFFFFFFFFFFFFFFFFFFFFF
310
FFFFFFFFFFFFFFFFF000FFFFFFFFFFFFFFFFFFFFFFFFFFFFFFFFFFFFFFFFFFFF
310
FFFFFFFFFFFFFFFFFFFFFFFFFFFFFFFFFFFFFFFFFFFFFFFFFFFFFFFFFFFFFFFF
310
FFFFFFFFFFFFFFFFFFFFFFFFFFFFFFFFFFFFFFFFFFFFFFFFFFFFFFFFFFFFFFFF
310
F000FFFFFFFFFFFFFFFFFFFFFFFFFFFFFFFFFFFFFFFFFFFFFFFFFFFFFFFFFFFF
310
FFFFFFFFFFFFFFFFFFFFFFFFFFFFFFFFFFFFFFFFFFFFFFFFFFFFFFFFFFFFFFFF
310
FFFFFFFFFFFFFFFFFFFFFFFFFFFFFFFFFFFFFFFFFFFFFFFFF000FFFFFFFFFFFF
310
FFFFFFFFFFFFFFFFFFFFFFFFFFFFFFFFFFFFFFFFFFFFFFFFFFFFFFFFFFFFFFFF
310
FFFFFFFFFFFFFFFFFFFFFFFFFFFFFFFFFFFFFFFFFFFFFFFFFFFFFFFFFFFFFFFF
310
FFFFFFFFFFFFFFFFFFFFFFFFFFFFFFFFF000FFFFFFFFFFFFFFFFFFFFFFFFFFFF
310
FFFFFFFFFFFFFFFFFFFFFFFFFFFFFFFFFFFFFFFFFFFFFFFFFFFFFFFFFFFFFFFF
310
FFFFFFFFFFFFFFFFFFFFFFFFFFFFFFFFFFFFFFFFFFFFFFFFFFFFFFFFFFFFFFFF
310
FFFFFFFFFFFFFFFFF000FFFFFFFFFFFFFFFFFFFFFFFFFFFFFFFFFFFFFFFFFFFF
310
FFFFFFFFFFFFFFFFFFFFFFFFFFFFFFFFFFFFFFFFFFFFFFFFFFFFFFFFFFFFFFFF
310
FFFFFFFFFFFFFFFFFFFFFFFFFFFFFFFFFFFFFFFFFFFFFFFFFFFFFFFFFFFFFFFF
310
F000FFFFFFFFFFFFFFFFFFFFFFFFFFFFFFFFFFFFFFFFFFFFFFFFFFFFFFFFFFFF
310
FFFFFFFFFFFFFFFFFFFFFFFFFFFFFFFFFFFFFFFFFFFFFFFFFFFFFFFFFFFFFFFF
310
FFFFFFFFFFFFFFFFFFFFFFFFFFFFFFFFFFFFFFFFFFFFFFFFF000FFFFFFFFFFFF
310
FFFFFFFFFFFFFFFFFFFFFFFFFFFFFFFFFFFFFFFFFFFFFFFFFFFFFFFFFFFFFFFF
310
FFFFFFFFFFFFFFFFFFFFFFFFFFFFFFFFFFFFFFFFFFFFFFFFFFFFFFFFFFFFFFFF
310
FFFFFFFFFFFFFFFFFFFFFFFFFFFFFFFFF000FFFFFFFFFFFFFFFFFFFFFFFFFFFF
310
FFFFFFFFFFFFFFFFFFFFFFFFFFFFFFFFFFFFFFFFFFFFFFFFFFFFFFFFFFFFFFFF
310
FFFFFFFFFFFFFFFFFFFFFFFFFFFFFFFFFFFFFFFFFFFFFFFFFFFFFFFFFFFFFFFF
310
FFFFFFFFFFFFFFFFF000FFFFFFFFFFFFFFFFFFFFFFFFFFFFFFFFFFFFFFFFFFFF
310
FFFFFFFFFFFFFFFFFFFFFFFFFFFFFFFFFFFFFFFFFFFFFFFFFFFFFFFFFFFFFFFF
310
FFFFFFFFFFFFFFFFFFFFFFFFFFFFFFFFFFFFFFFFFFFFFFFFFFFFFFFFFFFFFFFF
310
F000FFFFFFFFFFFFFFFFFFFFFFFFFFFFFFFFFFFFFFFFFFFFFFFFFFFFFFFFFFFF
310
FFFFFFFFFFFFFFFFFFFFFFFFFFFFFFFFFFFFFFFFFFFFFFFFFFFFFFFFFFFFFFFF
310
FFFFFFFFFFFFFFFFFFFFFFFFFFFFFFFFFFFFFFFFFFFFFFFFF000FFFFFFFFFFFF
310
FFFFFFFFFFFFFFFFFFFFFFFFFFFFFFFFFFFFFFFFFFFFFFFFFFFFFFFFFFFFFFFF
310
FFFFFFFFFFFFFFFFFFFFFFFFFFFFFFFFFFFFFFFFFFFFFFFFFFFFFFFFFFFFFFFF
310
FFFFFFFFFFFFFFFFFFFFFFFFFFFFFFFFF0000000000000000000000000000000
310
0000000000000000000000000000000000000000000000000000000000000000
310
0000000000000000000000000000000000000000000000000000000000000000
310
0000000000000000000000000000000000000000000000000000000000000000
310
0000000000000000000000000000000000000000000000000000000000000000
310
0000000000000000000000000000000000000000000000000000000000000000
310
0000000000000000000000000000000000000000000000000000000000000000
310
0000000000000000000000000000000000000000000000000000000000000000
310
0000000000000000000000000000000000000000000000000000000000000000
310
0000000000000000000000000000000000000000000000000000000000000000
310
0000000000000000000000000000000000000000000000000000000000000000
310
0000000000000000000000000000000000000000000000000000000000000000
310
0000000000000000000000000000000000000000000000000000000000000000
310
0000000000000000000000000000000000000000000000000000000000000000
310
0000000000000000000000000000000000000000000000000000000000000000
310
0000000000000000000000000000000000000000000000000000000000000000
  1
OLE
  0
ENDSEC
  0
SECTION
  2
OBJECTS
  0
DICTIONARY
  5
C
330
0
100
AcDbDictionary
281
     1
  3
ACAD_GROUP
350
D
  3
ACAD_LAYOUT
350
1A
  3
ACAD_MLINESTYLE
350
17
  3
ACAD_PLOTSETTINGS
350
19
  3
ACAD_PLOTSTYLENAME
350
E
  3
ACAD_SCALELIST
350
47
  0
DICTIONARY
  5
D
102
{ACAD_REACTORS
330
C
102
}
330
C
100
AcDbDictionary
281
     1
  0
DICTIONARY
  5
1A
102
{ACAD_REACTORS
330
C
102
}
330
C
100
AcDbDictionary
281
     1
  3
Layout1
350
1E
  3
Layout2
350
26
  3
Model
350
22
  0
DICTIONARY
  5
17
102
{ACAD_REACTORS
330
C
102
}
330
C
100
AcDbDictionary
281
     1
  3
Standard
350
18
  0
DICTIONARY
  5
19
102
{ACAD_REACTORS
330
C
102
}
330
C
100
AcDbDictionary
281
     1
  0
ACDBDICTIONARYWDFLT
  5
E
102
{ACAD_REACTORS
330
C
102
}
330
C
100
AcDbDictionary
281
     1
  3
Normal
350
F
100
AcDbDictionaryWithDefault
340
F
  0
DICTIONARY
  5
47
102
{ACAD_REACTORS
330
C
102
}
330
C
100
AcDbDictionary
281
     1
  3
A0
350
48
  3
A1
350
49
  3
A2
350
4A
  3
A3
350
4B
  3
A4
350
4C
  3
A5
350
4D
  3
A6
350
4E
  3
A7
350
4F
  3
A8
350
50
  3
A9
350
51
  3
B0
350
52
  3
B1
350
53
  3
B2
350
54
  3
B3
350
55
  3
B4
350
56
  3
B5
350
57
  3
B6
350
58
  3
B7
350
59
  3
B8
350
5A
  3
B9
350
5B
  3
C0
350
5C
  3
C1
350
5D
  3
C2
350
5E
  3
C3
350
5F
  3
C4
350
60
  3
C5
350
61
  3
C6
350
62
  3
C7
350
63
  3
C8
350
64
  3
C9
350
65
  3
D0
350
66
  3
D1
350
67
  3
D2
350
68
  0
LAYOUT
  5
1E
102
{ACAD_REACTORS
330
1A
102
}
330
1A
100
AcDbPlotSettings
  1

  2
none_device
  4

  6

 40
0.0
 41
0.0
 42
0.0
 43
0.0
 44
0.0
 45
0.0
 46
0.0
 47
0.0
 48
0.0
 49
0.0
140
0.0
141
0.0
142
1.0
143
1.0
 70
   688
 72
     1
 73
     0
 74
     5
  7

 75
    16
147
1.0
148
0.0
149
0.0
100
AcDbLayout
  1
Layout1
 70
     1
 71
     1
 10
0.0
 20
0.0
 11
420.0
 21
297.0
 12
0.0
 22
0.0
 32
0.0
 14
1.0000000000E+20
 24
1.0000000000E+20
 34
1.0000000000E+20
 15
-1.0000000000E+20
 25
-1.0000000000E+20
 35
-1.0000000000E+20
146
0.0
 13
0.0
 23
0.0
 33
0.0
 16
1.0
 26
0.0
 36
0.0
 17
0.0
 27
1.0
 37
0.0
 76
     0
330
1B
  0
LAYOUT
  5
26
102
{ACAD_REACTORS
330
1A
102
}
330
1A
100
AcDbPlotSettings
  1

  2
none_device
  4

  6

 40
0.0
 41
0.0
 42
0.0
 43
0.0
 44
0.0
 45
0.0
 46
0.0
 47
0.0
 48
0.0
 49
0.0
140
0.0
141
0.0
142
1.0
143
1.0
 70
   688
 72
     1
 73
     0
 74
     5
  7

 75
    16
147
1.0
148
0.0
149
0.0
100
AcDbLayout
  1
Layout2
 70
     1
 71
     2
 10
0.0
 20
0.0
 11
0.0
 21
0.0
 12
0.0
 22
0.0
 32
0.0
 14
0.0
 24
0.0
 34
0.0
 15
0.0
 25
0.0
 35
0.0
146
0.0
 13
0.0
 23
0.0
 33
0.0
 16
1.0
 26
0.0
 36
0.0
 17
0.0
 27
1.0
 37
0.0
 76
     0
330
23
  0
LAYOUT
  5
22
102
{ACAD_REACTORS
330
1A
102
}
330
1A
100
AcDbPlotSettings
  1

  2
none_device
  4
Letter_(8.50_x_11.00_Inches)
  6

 40
6.35
 41
6.35
 42
6.35000508
 43
6.35000508
 44
215.9
 45
279.4
 46
0.0
 47
0.0
 48
0.0
 49
0.0
140
0.0
141
0.0
142
1.0
143
1.0
 70
  1712
 72
     1
 73
     0
 74
     0
  7

 75
     0
147
1.0
148
0.0
149
0.0
100
AcDbLayout
  1
Model
 70
     1
 71
     0
 10
0.0
 20
0.0
 11
297.0
 21
210.0
 12
0.0
 22
0.0
 32
0.0
 14
0.0
 24
0.0
 34
0.0
 15
297.0
 25
210.0
 35
0.0
146
0.0
 13
0.0
 23
0.0
 33
0.0
 16
1.0
 26
0.0
 36
0.0
 17
0.0
 27
1.0
 37
0.0
 76
     0
330
1F
331
29
  0
MLINESTYLE
  5
18
102
{ACAD_REACTORS
330
17
102
}
330
17
100
AcDbMlineStyle
  2
Standard
 70
     0
  3

 62
   256
 51
90.0
 52
90.0
 71
     2
 49
0.5
 62
   256
  6
BYLAYER
 49
-0.5
 62
   256
  6
BYLAYER
  0
ACDBPLACEHOLDER
  5
F
102
{ACAD_REACTORS
330
E
102
}
330
E
  0
SCALE
  5
48
102
{ACAD_REACTORS
330
47
102
}
330
47
100
AcDbScale
 70
     0
300
1:1
140
1.0
141
1.0
290
     1
  0
SCALE
  5
49
102
{ACAD_REACTORS
330
47
102
}
330
47
100
AcDbScale
 70
     0
300
1:2
140
1.0
141
2.0
290
     0
  0
SCALE
  5
4A
102
{ACAD_REACTORS
330
47
102
}
330
47
100
AcDbScale
 70
     0
300
1:4
140
1.0
141
4.0
290
     0
  0
SCALE
  5
4B
102
{ACAD_REACTORS
330
47
102
}
330
47
100
AcDbScale
 70
     0
300
1:5
140
1.0
141
5.0
290
     0
  0
SCALE
  5
4C
102
{ACAD_REACTORS
330
47
102
}
330
47
100
AcDbScale
 70
     0
300
1:8
140
1.0
141
8.0
290
     0
  0
SCALE
  5
4D
102
{ACAD_REACTORS
330
47
102
}
330
47
100
AcDbScale
 70
     0
300
1:10
140
1.0
141
10.0
290
     0
  0
SCALE
  5
4E
102
{ACAD_REACTORS
330
47
102
}
330
47
100
AcDbScale
 70
     0
300
1:16
140
1.0
141
16.0
290
     0
  0
SCALE
  5
4F
102
{ACAD_REACTORS
330
47
102
}
330
47
100
AcDbScale
 70
     0
300
1:20
140
1.0
141
20.0
290
     0
  0
SCALE
  5
50
102
{ACAD_REACTORS
330
47
102
}
330
47
100
AcDbScale
 70
     0
300
1:30
140
1.0
141
30.0
290
     0
  0
SCALE
  5
51
102
{ACAD_REACTORS
330
47
102
}
330
47
100
AcDbScale
 70
     0
300
1:40
140
1.0
141
40.0
290
     0
  0
SCALE
  5
52
102
{ACAD_REACTORS
330
47
102
}
330
47
100
AcDbScale
 70
     0
300
1:50
140
1.0
141
50.0
290
     0
  0
SCALE
  5
53
102
{ACAD_REACTORS
330
47
102
}
330
47
100
AcDbScale
 70
     0
300
1:100
140
1.0
141
100.0
290
     0
  0
SCALE
  5
54
102
{ACAD_REACTORS
330
47
102
}
330
47
100
AcDbScale
 70
     0
300
2:1
140
2.0
141
1.0
290
     0
  0
SCALE
  5
55
102
{ACAD_REACTORS
330
47
102
}
330
47
100
AcDbScale
 70
     0
300
4:1
140
4.0
141
1.0
290
     0
  0
SCALE
  5
56
102
{ACAD_REACTORS
330
47
102
}
330
47
100
AcDbScale
 70
     0
300
8:1
140
8.0
141
1.0
290
     0
  0
SCALE
  5
57
102
{ACAD_REACTORS
330
47
102
}
330
47
100
AcDbScale
 70
     0
300
10:1
140
10.0
141
1.0
290
     0
  0
SCALE
  5
58
102
{ACAD_REACTORS
330
47
102
}
330
47
100
AcDbScale
 70
     0
300
100:1
140
100.0
141
1.0
290
     0
  0
SCALE
  5
59
102
{ACAD_REACTORS
330
47
102
}
330
47
100
AcDbScale
 70
     0
300
1/128" = 1'-0"
140
0.0078125
141
12.0
290
     0
  0
SCALE
  5
5A
102
{ACAD_REACTORS
330
47
102
}
330
47
100
AcDbScale
 70
     0
300
1/64" = 1'-0"
140
0.015625
141
12.0
290
     0
  0
SCALE
  5
5B
102
{ACAD_REACTORS
330
47
102
}
330
47
100
AcDbScale
 70
     0
300
1/32" = 1'-0"
140
0.03125
141
12.0
290
     0
  0
SCALE
  5
5C
102
{ACAD_REACTORS
330
47
102
}
330
47
100
AcDbScale
 70
     0
300
1/16" = 1'-0"
140
0.0625
141
12.0
290
     0
  0
SCALE
  5
5D
102
{ACAD_REACTORS
330
47
102
}
330
47
100
AcDbScale
 70
     0
300
3/32" = 1'-0"
140
0.09375
141
12.0
290
     0
  0
SCALE
  5
5E
102
{ACAD_REACTORS
330
47
102
}
330
47
100
AcDbScale
 70
     0
300
1/8" = 1'-0"
140
0.125
141
12.0
290
     0
  0
SCALE
  5
5F
102
{ACAD_REACTORS
330
47
102
}
330
47
100
AcDbScale
 70
     0
300
3/16" = 1'-0"
140
0.1875
141
12.0
290
     0
  0
SCALE
  5
60
102
{ACAD_REACTORS
330
47
102
}
330
47
100
AcDbScale
 70
     0
300
1/4" = 1'-0"
140
0.25
141
12.0
290
     0
  0
SCALE
  5
61
102
{ACAD_REACTORS
330
47
102
}
330
47
100
AcDbScale
 70
     0
300
3/8" = 1'-0"
140
0.375
141
12.0
290
     0
  0
SCALE
  5
62
102
{ACAD_REACTORS
330
47
102
}
330
47
100
AcDbScale
 70
     0
300
1/2" = 1'-0"
140
0.5
141
12.0
290
     0
  0
SCALE
  5
63
102
{ACAD_REACTORS
330
47
102
}
330
47
100
AcDbScale
 70
     0
300
3/4" = 1'-0"
140
0.75
141
12.0
290
     0
  0
SCALE
  5
64
102
{ACAD_REACTORS
330
47
102
}
330
47
100
AcDbScale
 70
     0
300
1" = 1'-0"
140
1.0
141
12.0
290
     0
  0
SCALE
  5
65
102
{ACAD_REACTORS
330
47
102
}
330
47
100
AcDbScale
 70
     0
300
1-1/2" = 1'-0"
140
1.5
141
12.0
290
     0
  0
SCALE
  5
66
102
{ACAD_REACTORS
330
47
102
}
330
47
100
AcDbScale
 70
     0
300
3" = 1'-0"
140
3.0
141
12.0
290
     0
  0
SCALE
  5
67
102
{ACAD_REACTORS
330
47
102
}
330
47
100
AcDbScale
 70
     0
300
6" = 1'-0"
140
6.0
141
12.0
290
     0
  0
SCALE
  5
68
102
{ACAD_REACTORS
330
47
102
}
330
47
100
AcDbScale
 70
     0
300
1'-0" = 1'-0"
140
12.0
141
12.0
290
     0
  0
ENDSEC
  0
EOF
