  0
SECTION
  2
HEADER
  9
$ACADVER
  1
AC1015
  9
$ACADMAINTVER
 70
     6
  9
$DWGCODEPAGE
  3
ANSI_1252
  9
$INSBASE
 10
0.0
 20
0.0
 30
0.0
  9
$EXTMIN
 10
0.0
 20
0.0
 30
0.0
  9
$EXTMAX
 10
297.0
 20
210.0
 30
0.0
  9
$LIMMIN
 10
0.0
 20
0.0
  9
$LIMMAX
 10
297.0
 20
210.0
  9
$ORTHOMODE
 70
     0
  9
$REGENMODE
 70
     1
  9
$FILLMODE
 70
     1
  9
$QTEXTMODE
 70
     0
  9
$MIRRTEXT
 70
     1
  9
$LTSCALE
 40
1.0
  9
$ATTMODE
 70
     1
  9
$TEXTSIZE
 40
2.0
  9
$TRACEWID
 40
1.0
  9
$TEXTSTYLE
  7
Standard
  9
$CLAYER
  8
0
  9
$CELTYPE
  6
ByLayer
  9
$CECOLOR
 62
   256
  9
$CELTSCALE
 40
1.0
  9
$DISPSILH
 70
     0
  9
$DIMSCALE
 40
1.0
  9
$DIMASZ
 40
3.0
  9
$DIMEXO
 40
0.0
  9
$DIMDLI
 40
3.75
  9
$DIMRND
 40
0.0
  9
$DIMDLE
 40
0.0
  9
$DIMEXE
 40
1.0
  9
$DIMTP
 40
0.0
  9
$DIMTM
 40
0.0
  9
$DIMTXT
 40
2.0
  9
$DIMCEN
 40
2.5
  9
$DIMTSZ
 40
0.0
  9
$DIMTOL
 70
     0
  9
$DIMLIM
 70
     0
  9
$DIMTIH
 70
     1
  9
$DIMTOH
 70
     1
  9
$DIMSE1
 70
     0
  9
$DIMSE2
 70
     0
  9
$DIMTAD
 70
     1
  9
$DIMZIN
 70
     0
  9
$DIMBLK
  1

  9
$DIMASO
 70
     1
  9
$DIMSHO
 70
     1
  9
$DIMPOST
  1

  9
$DIMAPOST
  1

  9
$DIMALT
 70
     0
  9
$DIMALTD
 70
     3
  9
$DIMALTF
 40
0.0393700787
  9
$DIMLFAC
 40
2.0
  9
$DIMTOFL
 70
     1
  9
$DIMTVP
 40
0.0
  9
$DIMTIX
 70
     0
  9
$DIMSOXD
 70
     0
  9
$DIMSAH
 70
     0
  9
$DIMBLK1
  1

  9
$DIMBLK2
  1

  9
$DIMSTYLE
  2
ISO-25
  9
$DIMCLRD
 70
     0
  9
$DIMCLRE
 70
     0
  9
$DIMCLRT
 70
     0
  9
$DIMTFAC
 40
1.0
  9
$DIMGAP
 40
1.524
  9
$DIMJUST
 70
     0
  9
$DIMSD1
 70
     0
  9
$DIMSD2
 70
     0
  9
$DIMTOLJ
 70
     0
  9
$DIMTZIN
 70
     0
  9
$DIMALTZ
 70
     0
  9
$DIMALTTZ
 70
     0
  9
$DIMUPT
 70
     0
  9
$DIMDEC
 70
     2
  9
$DIMTDEC
 70
     3
  9
$DIMALTU
 70
     2
  9
$DIMALTTD
 70
     3
  9
$DIMTXSTY
  7
Standard
  9
$DIMAUNIT
 70
     0
  9
$DIMADEC
 70
     2
  9
$DIMALTRND
 40
0.0
  9
$DIMAZIN
 70
     0
  9
$DIMDSEP
 70
    44
  9
$DIMATFIT
 70
     3
  9
$DIMFRAC
 70
     0
  9
$DIMLDRBLK
  1

  9
$DIMLUNIT
 70
     2
  9
$DIMLWD
 70
    -2
  9
$DIMLWE
 70
    -2
  9
$DIMTMOVE
 70
     0
  9
$LUNITS
 70
     2
  9
$LUPREC
 70
     2
  9
$SKETCHINC
 40
1.0
  9
$FILLETRAD
 40
10.0
  9
$AUNITS
 70
     0
  9
$AUPREC
 70
     2
  9
$MENU
  1
.
  9
$ELEVATION
 40
0.0
  9
$PELEVATION
 40
0.0
  9
$THICKNESS
 40
0.0
  9
$LIMCHECK
 70
     0
  9
$CHAMFERA
 40
0.0
  9
$CHAMFERB
 40
0.0
  9
$CHAMFERC
 40
0.0
  9
$CHAMFERD
 40
0.0
  9
$SKPOLY
 70
     0
  9
$TDCREATE
 40
2457673.456389433
  9
$TDUCREATE
 40
2457673.3730561
  9
$TDUPDATE
 40
2457673.456390498
  9
$TDUUPDATE
 40
2457673.373057164
  9
$TDINDWG
 40
0.0000000116
  9
$TDUSRTIMER
 40
0.0000000116
  9
$USRTIMER
 70
     1
  9
$ANGBASE
 50
0.0
  9
$ANGDIR
 70
     0
  9
$PDMODE
 70
     0
  9
$PDSIZE
 40
-1.0
  9
$PLINEWID
 40
0.0
  9
$SPLFRAME
 70
     0
  9
$SPLINETYPE
 70
     6
  9
$SPLINESEGS
 70
     8
  9
$HANDSEED
  5
1E5
  9
$SURFTAB1
 70
     6
  9
$SURFTAB2
 70
     6
  9
$SURFTYPE
 70
     6
  9
$SURFU
 70
     6
  9
$SURFV
 70
     6
  9
$UCSBASE
  2

  9
$UCSNAME
  2

  9
$UCSORG
 10
0.0
 20
0.0
 30
0.0
  9
$UCSXDIR
 10
1.0
 20
0.0
 30
0.0
  9
$UCSYDIR
 10
0.0
 20
1.0
 30
0.0
  9
$UCSORTHOREF
  2

  9
$UCSORTHOVIEW
 70
     0
  9
$UCSORGTOP
 10
0.0
 20
0.0
 30
0.0
  9
$UCSORGBOTTOM
 10
0.0
 20
0.0
 30
0.0
  9
$UCSORGLEFT
 10
0.0
 20
0.0
 30
0.0
  9
$UCSORGRIGHT
 10
0.0
 20
0.0
 30
0.0
  9
$UCSORGFRONT
 10
0.0
 20
0.0
 30
0.0
  9
$UCSORGBACK
 10
0.0
 20
0.0
 30
0.0
  9
$PUCSBASE
  2

  9
$PUCSNAME
  2

  9
$PUCSORG
 10
0.0
 20
0.0
 30
0.0
  9
$PUCSXDIR
 10
1.0
 20
0.0
 30
0.0
  9
$PUCSYDIR
 10
0.0
 20
1.0
 30
0.0
  9
$PUCSORTHOREF
  2

  9
$PUCSORTHOVIEW
 70
     0
  9
$PUCSORGTOP
 10
0.0
 20
0.0
 30
0.0
  9
$PUCSORGBOTTOM
 10
0.0
 20
0.0
 30
0.0
  9
$PUCSORGLEFT
 10
0.0
 20
0.0
 30
0.0
  9
$PUCSORGRIGHT
 10
0.0
 20
0.0
 30
0.0
  9
$PUCSORGFRONT
 10
0.0
 20
0.0
 30
0.0
  9
$PUCSORGBACK
 10
0.0
 20
0.0
 30
0.0
  9
$USERI1
 70
     0
  9
$USERI2
 70
     0
  9
$USERI3
 70
     0
  9
$USERI4
 70
     0
  9
$USERI5
 70
     0
  9
$USERR1
 40
0.0
  9
$USERR2
 40
0.0
  9
$USERR3
 40
0.0
  9
$USERR4
 40
0.0
  9
$USERR5
 40
0.0
  9
$WORLDVIEW
 70
     1
  9
$SHADEDGE
 70
     3
  9
$SHADEDIF
 70
    70
  9
$TILEMODE
 70
     1
  9
$MAXACTVP
 70
    64
  9
$PINSBASE
 10
0.0
 20
0.0
 30
0.0
  9
$PLIMCHECK
 70
     0
  9
$PEXTMIN
 10
1.0000000000E+20
 20
1.0000000000E+20
 30
1.0000000000E+20
  9
$PEXTMAX
 10
-1.0000000000E+20
 20
-1.0000000000E+20
 30
-1.0000000000E+20
  9
$PLIMMIN
 10
0.0
 20
0.0
  9
$PLIMMAX
 10
420.0
 20
297.0
  9
$UNITMODE
 70
     0
  9
$VISRETAIN
 70
     1
  9
$PLINEGEN
 70
     0
  9
$PSLTSCALE
 70
     1
  9
$TREEDEPTH
 70
  3020
  9
$CMLSTYLE
  2
Standard
  9
$CMLJUST
 70
     0
  9
$CMLSCALE
 40
20.0
  9
$PROXYGRAPHICS
 70
     1
  9
$MEASUREMENT
 70
     1
  9
$CELWEIGHT
370
    -1
  9
$ENDCAPS
280
     0
  9
$JOINSTYLE
280
     0
  9
$LWDISPLAY
290
     1
  9
$INSUNITS
 70
     4
  9
$HYPERLINKBASE
  1

  9
$STYLESHEET
  1

  9
$XEDIT
290
     1
  9
$CEPSNTYPE
380
     0
  9
$PSTYLEMODE
290
     1
  9
$FINGERPRINTGUID
  2
{59D18450-09CC-41DD-BE58-2DAA946FB8E7}
  9
$VERSIONGUID
  2
{FAEB1C32-E019-11D5-929B-00C0DF256EC4}
  9
$EXTNAMES
290
     1
  9
$PSVPSCALE
 40
0.0
  9
$OLESTARTUP
290
     0
  0
ENDSEC
  0
SECTION
  2
CLASSES
  0
CLASS
  1
ACDBDICTIONARYWDFLT
  2
AcDbDictionaryWithDefault
  3
ObjectDBX Classes
 90
        0
280
     0
281
     0
  0
CLASS
  1
VISUALSTYLE
  2
AcDbVisualStyle
  3
ObjectDBX Classes
 90
     4095
280
     0
281
     0
  0
CLASS
  1
MATERIAL
  2
AcDbMaterial
  3
ObjectDBX Classes
 90
     1153
280
     0
281
     0
  0
CLASS
  1
SCALE
  2
AcDbScale
  3
ObjectDBX Classes
 90
     1153
280
     0
281
     0
  0
CLASS
  1
TABLESTYLE
  2
AcDbTableStyle
  3
ObjectDBX Classes
 90
     4095
280
     0
281
     0
  0
CLASS
  1
MLEADERSTYLE
  2
AcDbMLeaderStyle
  3
ACDB_MLEADERSTYLE_CLASS
 90
     4095
280
     0
281
     0
  0
CLASS
  1
SUN
  2
AcDbSun
  3
SCENEOE
 90
     1153
280
     0
281
     0
  0
CLASS
  1
ACDBPLACEHOLDER
  2
AcDbPlaceHolder
  3
ObjectDBX Classes
 90
        0
280
     0
281
     0
  0
CLASS
  1
LAYOUT
  2
AcDbLayout
  3
ObjectDBX Classes
 90
        0
280
     0
281
     0
  0
ENDSEC
  0
SECTION
  2
TABLES
  0
TABLE
  2
VPORT
  5
8
330
0
100
AcDbSymbolTable
 70
     1
  0
VPORT
  5
29
330
8
100
AcDbSymbolTableRecord
100
AcDbViewportTableRecord
  2
*Active
 70
     0
 10
0.0
 20
0.0
 11
1.0
 21
1.0
 12
148.5
 22
105.0
 13
0.0
 23
0.0
 14
10.0
 24
10.0
 15
10.0
 25
10.0
 16
0.0
 26
0.0
 36
1.0
 17
0.0
 27
0.0
 37
0.0
 40
210.0
 41
1.4142857143
 42
50.0
 43
0.0
 44
0.0
 50
0.0
 51
0.0
 71
     0
 72
  2000
 73
     1
 74
     3
 75
     0
 76
     0
 77
     0
 78
     0
281
     0
 65
     1
110
0.0
120
0.0
130
0.0
111
1.0
121
0.0
131
0.0
112
0.0
122
1.0
132
0.0
 79
     0
146
0.0
  0
ENDTAB
  0
TABLE
  2
LTYPE
  5
5
330
0
100
AcDbSymbolTable
 70
     6
  0
LTYPE
  5
14
330
5
100
AcDbSymbolTableRecord
100
AcDbLinetypeTableRecord
  2
ByBlock
 70
     0
  3

 72
    65
 73
     0
 40
0.0
  0
LTYPE
  5
15
330
5
100
AcDbSymbolTableRecord
100
AcDbLinetypeTableRecord
  2
ByLayer
 70
     0
  3

 72
    65
 73
     0
 40
0.0
  0
LTYPE
  5
16
330
5
100
AcDbSymbolTableRecord
100
AcDbLinetypeTableRecord
  2
Continuous
 70
     0
  3
Solid line
 72
    65
 73
     0
 40
0.0
  0
LTYPE
  5
6E
330
5
100
AcDbSymbolTableRecord
100
AcDbLinetypeTableRecord
  2
HIDDEN
 70
     0
  3
Hidden __ __ __ __ __ __ __ __ __ __ __ __ __ __
 72
    65
 73
     2
 40
1.905
 49
1.27
 74
     0
 49
-0.635
 74
     0
  0
LTYPE
  5
6F
330
5
100
AcDbSymbolTableRecord
100
AcDbLinetypeTableRecord
  2
PHANTOM
 70
     0
  3
Phantom ______  __  __  ______  __  __  ______
 72
    65
 73
     6
 40
12.7
 49
6.35
 74
     0
 49
-1.27
 74
     0
 49
1.27
 74
     0
 49
-1.27
 74
     0
 49
1.27
 74
     0
 49
-1.27
 74
     0
  0
LTYPE
  5
70
330
5
100
AcDbSymbolTableRecord
100
AcDbLinetypeTableRecord
  2
CENTER
 70
     0
  3
Center ____ _ ____ _ ____ _ ____ _ ____ _ ____
 72
    65
 73
     4
 40
10.16
 49
6.35
 74
     0
 49
-1.27
 74
     0
 49
1.27
 74
     0
 49
-1.27
 74
     0
  0
LTYPE
  5
71
330
5
100
AcDbSymbolTableRecord
100
AcDbLinetypeTableRecord
  2
CENTERX2
 70
     0
  3
Center (2x) ________  __  ________  __  _____
 72
    65
 73
     4
 40
20.32
 49
12.7
 74
     0
 49
-2.54
 74
     0
 49
2.54
 74
     0
 49
-2.54
 74
     0
  0
LTYPE
  5
72
330
5
100
AcDbSymbolTableRecord
100
AcDbLinetypeTableRecord
  2
DOT2
 70
     0
  3
Dot (.5x) ........................................
 72
    65
 73
     2
 40
0.635
 49
0.0
 74
     0
 49
-0.635
 74
     0
  0
ENDTAB
  0
TABLE
  2
LAYER
  5
2
330
0
100
AcDbSymbolTable
 70
     5
  0
LAYER
  5
10
330
2
100
AcDbSymbolTableRecord
100
AcDbLayerTableRecord
  2
0
 70
     0
 62
     7
  6
Continuous
370
    -3
390
F
  0
LAYER
  5
73
330
2
100
AcDbSymbolTableRecord
100
AcDbLayerTableRecord
  2
FORMAT
 70
     0
 62
     7
  6
Continuous
370
    -3
390
F
  0
LAYER
  5
74
330
2
100
AcDbSymbolTableRecord
100
AcDbLayerTableRecord
  2
VERMASSUNG
 70
     0
 62
     7
  6
Continuous
370
    -3
390
F
  0
LAYER
  5
75
330
2
100
AcDbSymbolTableRecord
100
AcDbLayerTableRecord
  2
KOPF_DÜNN
 70
     0
 62
     7
  6
Continuous
370
    -3
390
F
  0
LAYER
  5
76
330
2
100
AcDbSymbolTableRecord
100
AcDbLayerTableRecord
  2
KOPF_DICK
 70
     0
 62
     7
  6
Continuous
370
    15
390
F
  0
ENDTAB
  0
TABLE
  2
STYLE
  5
3
330
0
100
AcDbSymbolTable
 70
     2
  0
STYLE
  5
11
330
3
100
AcDbSymbolTableRecord
100
AcDbTextStyleTableRecord
  2
Standard
 70
     0
 40
0.0
 41
1.0
 50
0.0
 71
     0
 42
2.0
  3
txt
  4

  0
STYLE
  5
77
330
3
100
AcDbSymbolTableRecord
100
AcDbTextStyleTableRecord
  2
SLDTEXTSTYLE0
 70
     0
 40
0.0
 41
0.7
 50
0.0
 71
     0
 42
2.0
  3
TXT
  4

  0
ENDTAB
  0
TABLE
  2
VIEW
  5
6
330
0
100
AcDbSymbolTable
 70
     0
  0
ENDTAB
  0
TABLE
  2
UCS
  5
7
330
0
100
AcDbSymbolTable
 70
     0
  0
ENDTAB
  0
TABLE
  2
APPID
  5
9
330
0
100
AcDbSymbolTable
 70
     1
  0
APPID
  5
12
330
9
100
AcDbSymbolTableRecord
100
AcDbRegAppTableRecord
  2
ACAD
 70
     0
  0
ENDTAB
  0
TABLE
  2
DIMSTYLE
  5
A
330
0
100
AcDbSymbolTable
 70
     3
100
AcDbDimStyleTable
  0
DIMSTYLE
105
27
330
A
100
AcDbSymbolTableRecord
100
AcDbDimStyleTableRecord
  2
ISO-25
 70
     0
 41
2.5
 42
0.625
 43
3.75
 44
1.25
 73
     0
 74
     0
 77
     1
 78
     8
140
2.5
141
2.5
143
0.0393700787
147
0.625
171
     3
172
     1
178
     0
271
     2
272
     2
274
     3
278
    44
283
     0
284
     8
340
11
  0
DIMSTYLE
105
122
102
{ACAD_REACTORS
330
121
102
}
330
A
100
AcDbSymbolTableRecord
100
AcDbDimStyleTableRecord
  2
SLDDIMSTYLE0
 70
     0
 41
3.0
 44
0.0
 45
0.000000001
 73
     0
 74
     0
 77
     1
 78
    12
 79
     3
140
2.0
147
0.5
173
     1
178
     0
271
     1
272
     1
276
     2
284
    12
340
77
  0
DIMSTYLE
105
130
102
{ACAD_REACTORS
330
12F
330
13B
330
147
330
151
330
15B
102
}
330
A
100
AcDbSymbolTableRecord
100
AcDbDimStyleTableRecord
  2
SLDDIMSTYLE1
 70
     0
 41
3.0
 44
0.0
 45
0.000000001
 73
     0
 74
     0
 77
     1
 78
    12
 79
     3
140
2.0
147
0.5
173
     1
178
     0
271
     2
272
     3
276
     2
284
    12
340
77
  0
ENDTAB
  0
TABLE
  2
BLOCK_RECORD
  5
1
330
0
100
AcDbSymbolTable
 70
     7
  0
BLOCK_RECORD
  5
1F
330
1
100
AcDbSymbolTableRecord
100
AcDbBlockTableRecord
  2
*Model_Space
340
22
  0
BLOCK_RECORD
  5
1B
330
1
100
AcDbSymbolTableRecord
100
AcDbBlockTableRecord
  2
*Paper_Space
340
1E
  0
BLOCK_RECORD
  5
23
330
1
100
AcDbSymbolTableRecord
100
AcDbBlockTableRecord
  2
*Paper_Space0
340
26
  0
BLOCK_RECORD
  5
123
330
1
100
AcDbSymbolTableRecord
100
AcDbBlockTableRecord
  2
_D
340
0
  0
BLOCK_RECORD
  5
131
330
1
100
AcDbSymbolTableRecord
100
AcDbBlockTableRecord
  2
_D_1
340
0
  0
BLOCK_RECORD
  5
13C
330
1
100
AcDbSymbolTableRecord
100
AcDbBlockTableRecord
  2
_D_2
340
0
  0
BLOCK_RECORD
  5
148
330
1
100
AcDbSymbolTableRecord
100
AcDbBlockTableRecord
  2
_D_3
340
0
  0
BLOCK_RECORD
  5
152
330
1
100
AcDbSymbolTableRecord
100
AcDbBlockTableRecord
  2
_D_4
340
0
  0
BLOCK_RECORD
  5
15C
330
1
100
AcDbSymbolTableRecord
100
AcDbBlockTableRecord
  2
_D_5
340
0
  0
ENDTAB
  0
ENDSEC
  0
SECTION
  2
BLOCKS
  0
BLOCK
  5
20
330
1F
100
AcDbEntity
  8
0
100
AcDbBlockBegin
  2
*Model_Space
 70
     0
 10
0.0
 20
0.0
 30
0.0
  3
*Model_Space
  1

  0
ENDBLK
  5
21
330
1F
100
AcDbEntity
  8
0
100
AcDbBlockEnd
  0
BLOCK
  5
1C
330
1B
100
AcDbEntity
 67
     1
  8
0
100
AcDbBlockBegin
  2
*Paper_Space
 70
     0
 10
0.0
 20
0.0
 30
0.0
  3
*Paper_Space
  1

  0
ENDBLK
  5
1D
330
1B
100
AcDbEntity
 67
     1
  8
0
100
AcDbBlockEnd
  0
BLOCK
  5
24
330
23
100
AcDbEntity
  8
0
100
AcDbBlockBegin
  2
*Paper_Space0
 70
     0
 10
0.0
 20
0.0
 30
0.0
  3
*Paper_Space0
  1

  0
ENDBLK
  5
25
330
23
100
AcDbEntity
  8
0
100
AcDbBlockEnd
  0
BLOCK
  5
124
330
123
100
AcDbEntity
  8
0
100
AcDbBlockBegin
  2
_D
 70
     0
 10
0.0
 20
0.0
 30
0.0
  3
_D
  1

  0
SOLID
  5
126
330
123
100
AcDbEntity
  8
VERMASSUNG
100
AcDbTrace
 10
54.9408731178
 20
64.6594827586
 30
0.0
 11
55.3908731178
 21
67.6594827586
 31
0.0
 12
54.4908731178
 22
67.6594827586
 32
0.0
 13
54.4908731178
 23
67.6594827586
 33
0.0
  0
SOLID
  5
127
330
123
100
AcDbEntity
  8
VERMASSUNG
100
AcDbTrace
 10
54.9408731178
 20
161.9594827586
 30
0.0
 11
54.4908731178
 21
158.9594827586
 31
0.0
 12
55.3908731178
 22
158.9594827586
 32
0.0
 13
55.3908731178
 23
158.9594827586
 33
0.0
  0
LINE
  5
128
330
123
100
AcDbEntity
  8
VERMASSUNG
100
AcDbLine
 10
204.4415301724
 20
64.6594827586
 30
0.0
 11
53.9408731178
 21
64.6594827586
 31
0.0
  0
LINE
  5
129
330
123
100
AcDbEntity
  8
VERMASSUNG
100
AcDbLine
 10
204.4415301724
 20
161.9594827586
 30
0.0
 11
53.9408731178
 21
161.9594827586
 31
0.0
  0
LINE
  5
12A
330
123
100
AcDbEntity
  8
VERMASSUNG
100
AcDbLine
 10
54.9408731178
 20
64.6594827586
 30
0.0
 11
54.9408731178
 21
161.9594827586
 31
0.0
  0
LINE
  5
12B
330
123
100
AcDbEntity
  8
VERMASSUNG
100
AcDbLine
 10
54.9408731178
 20
161.9594827586
 30
0.0
 11
54.9408731178
 21
103.3183277638
 31
0.0
  0
MTEXT
  5
12C
330
123
100
AcDbEntity
  8
VERMASSUNG
100
AcDbMText
 10
52.1627378616
 20
104.9058277638
 30
0.0
 40
2.0
 41
0.0
 71
     1
 72
     1
  1
SK 50
  7
SLDTEXTSTYLE0
 11
3.391901413832837E-15
 21
1.0
 31
0.0
 73
     1
 44
1.0
  0
MTEXT
  5
12D
330
123
100
AcDbEntity
  8
VERMASSUNG
100
AcDbMText
 10
52.3627378129
 20
113.3058274643
 30
0.0
 40
2.0
 41
0.0
 71
     1
 72
     1
  1
%%c
  7
SLDTEXTSTYLE0
 11
3.391901413832837E-15
 21
1.0
 31
0.0
 73
     1
 44
1.0
  0
MTEXT
  5
12E
330
123
100
AcDbEntity
  8
VERMASSUNG
100
AcDbMText
 10
52.3627375219
 20
116.9151459924
 30
0.0
 40
2.0
 41
0.0
 71
     1
 72
     1
  1
97.3
  7
SLDTEXTSTYLE0
 11
3.391901413832837E-15
 21
1.0
 31
0.0
 73
     1
 44
1.0
  0
ENDBLK
  5
125
330
123
100
AcDbEntity
  8
0
100
AcDbBlockEnd
  0
BLOCK
  5
132
330
131
100
AcDbEntity
  8
0
100
AcDbBlockBegin
  2
_D_1
 70
     0
 10
0.0
 20
0.0
 30
0.0
  3
_D_1
  1

  0
SOLID
  5
134
330
131
100
AcDbEntity
  8
VERMASSUNG
100
AcDbTrace
 10
241.8415301724
 20
127.3094827586
 30
0.0
 11
241.3915301724
 21
124.3094827586
 31
0.0
 12
242.2915301724
 22
124.3094827586
 32
0.0
 13
242.2915301724
 23
124.3094827586
 33
0.0
  0
SOLID
  5
135
330
131
100
AcDbEntity
  8
VERMASSUNG
100
AcDbTrace
 10
241.8415301724
 20
99.3094827586
 30
0.0
 11
242.2915301724
 21
102.3094827586
 31
0.0
 12
241.3915301724
 22
102.3094827586
 32
0.0
 13
241.3915301724
 23
102.3094827586
 33
0.0
  0
LINE
  5
136
330
131
100
AcDbEntity
  8
VERMASSUNG
100
AcDbLine
 10
230.8415301724
 20
127.3094827586
 30
0.0
 11
242.8415301724
 21
127.3094827586
 31
0.0
  0
LINE
  5
137
330
131
100
AcDbEntity
  8
VERMASSUNG
100
AcDbLine
 10
230.8415301724
 20
99.3094827586
 30
0.0
 11
242.8415301724
 21
99.3094827586
 31
0.0
  0
LINE
  5
138
330
131
100
AcDbEntity
  8
VERMASSUNG
100
AcDbLine
 10
241.8415301724
 20
127.3094827586
 30
0.0
 11
241.8415301724
 21
99.3094827586
 31
0.0
  0
MTEXT
  5
139
330
131
100
AcDbEntity
  8
VERMASSUNG
100
AcDbMText
 10
239.2633948675
 20
110.1044828014
 30
0.0
 40
2.0
 41
0.0
 71
     1
 72
     1
  1
%%c
  7
SLDTEXTSTYLE0
 11
-7.044195017643634E-15
 21
1.0
 31
0.0
 73
     1
 44
1.0
  0
MTEXT
  5
13A
330
131
100
AcDbEntity
  8
VERMASSUNG
100
AcDbMText
 10
239.0633949162
 20
113.7144828157
 30
0.0
 40
2.0
 41
0.0
 71
     1
 72
     1
  1
28
  7
SLDTEXTSTYLE0
 11
-7.044195017643634E-15
 21
1.0
 31
0.0
 73
     1
 44
1.0
  0
ENDBLK
  5
133
330
131
100
AcDbEntity
  8
0
100
AcDbBlockEnd
  0
BLOCK
  5
13D
330
13C
100
AcDbEntity
  8
0
100
AcDbBlockBegin
  2
_D_2
 70
     0
 10
0.0
 20
0.0
 30
0.0
  3
_D_2
  1

  0
SOLID
  5
13F
330
13C
100
AcDbEntity
  8
VERMASSUNG
100
AcDbTrace
 10
247.8415301724
 20
138.3094827586
 30
0.0
 11
247.3915301724
 21
135.3094827586
 31
0.0
 12
248.2915301724
 22
135.3094827586
 32
0.0
 13
248.2915301724
 23
135.3094827586
 33
0.0
  0
SOLID
  5
140
330
13C
100
AcDbEntity
  8
VERMASSUNG
100
AcDbTrace
 10
247.8415301724
 20
88.3094827586
 30
0.0
 11
248.2915301724
 21
91.3094827586
 31
0.0
 12
247.3915301724
 22
91.3094827586
 32
0.0
 13
247.3915301724
 23
91.3094827586
 33
0.0
  0
LINE
  5
141
330
13C
100
AcDbEntity
  8
VERMASSUNG
100
AcDbLine
 10
231.3415301724
 20
138.3094827586
 30
0.0
 11
248.8415301724
 21
138.3094827586
 31
0.0
  0
LINE
  5
142
330
13C
100
AcDbEntity
  8
VERMASSUNG
100
AcDbLine
 10
231.3415301724
 20
88.3094827586
 30
0.0
 11
248.8415301724
 21
88.3094827586
 31
0.0
  0
LINE
  5
143
330
13C
100
AcDbEntity
  8
VERMASSUNG
100
AcDbLine
 10
247.8415301724
 20
138.3094827586
 30
0.0
 11
247.8415301724
 21
88.3094827586
 31
0.0
  0
MTEXT
  5
144
330
13C
100
AcDbEntity
  8
VERMASSUNG
100
AcDbMText
 10
245.0633949162
 20
107.6044828573
 30
0.0
 40
2.0
 41
0.0
 71
     1
 72
     1
  1
WH
  7
SLDTEXTSTYLE0
 11
-7.044195017643634E-15
 21
1.0
 31
0.0
 73
     1
 44
1.0
  0
MTEXT
  5
145
330
13C
100
AcDbEntity
  8
VERMASSUNG
100
AcDbMText
 10
245.2633948675
 20
112.6044827455
 30
0.0
 40
2.0
 41
0.0
 71
     1
 72
     1
  1
%%c
  7
SLDTEXTSTYLE0
 11
-7.044195017643634E-15
 21
1.0
 31
0.0
 73
     1
 44
1.0
  0
MTEXT
  5
146
330
13C
100
AcDbEntity
  8
VERMASSUNG
100
AcDbMText
 10
245.0633949162
 20
116.2144827598
 30
0.0
 40
2.0
 41
0.0
 71
     1
 72
     1
  1
50
  7
SLDTEXTSTYLE0
 11
-7.044195017643634E-15
 21
1.0
 31
0.0
 73
     1
 44
1.0
  0
ENDBLK
  5
13E
330
13C
100
AcDbEntity
  8
0
100
AcDbBlockEnd
  0
BLOCK
  5
149
330
148
100
AcDbEntity
  8
0
100
AcDbBlockBegin
  2
_D_3
 70
     0
 10
0.0
 20
0.0
 30
0.0
  3
_D_3
  1

  0
SOLID
  5
14B
330
148
100
AcDbEntity
  8
VERMASSUNG
100
AcDbTrace
 10
231.8415301724
 20
167.4370160553
 30
0.0
 11
228.8415301724
 21
167.8870160553
 31
0.0
 12
228.8415301724
 22
166.9870160553
 32
0.0
 13
228.8415301724
 23
166.9870160553
 33
0.0
  0
SOLID
  5
14C
330
148
100
AcDbEntity
  8
VERMASSUNG
100
AcDbTrace
 10
205.0415301724
 20
167.4370160553
 30
0.0
 11
208.0415301724
 21
166.9870160553
 31
0.0
 12
208.0415301724
 22
167.8870160553
 32
0.0
 13
208.0415301724
 23
167.8870160553
 33
0.0
  0
LINE
  5
14D
330
148
100
AcDbEntity
  8
VERMASSUNG
100
AcDbLine
 10
231.8415301724
 20
137.8094827586
 30
0.0
 11
231.8415301724
 21
168.4370160553
 31
0.0
  0
LINE
  5
14E
330
148
100
AcDbEntity
  8
VERMASSUNG
100
AcDbLine
 10
205.0415301724
 20
159.3201336995
 30
0.0
 11
205.0415301724
 21
168.4370160553
 31
0.0
  0
LINE
  5
14F
330
148
100
AcDbEntity
  8
VERMASSUNG
100
AcDbLine
 10
231.8415301724
 20
167.4370160553
 30
0.0
 11
205.0415301724
 21
167.4370160553
 31
0.0
  0
MTEXT
  5
150
330
148
100
AcDbEntity
  8
VERMASSUNG
100
AcDbMText
 10
216.0415302913
 20
170.0151516512
 30
0.0
 40
2.0
 41
0.0
 71
     1
 72
     1
  1
26.8
  7
SLDTEXTSTYLE0
 73
     1
 44
1.0
  0
ENDBLK
  5
14A
330
148
100
AcDbEntity
  8
0
100
AcDbBlockEnd
  0
BLOCK
  5
153
330
152
100
AcDbEntity
  8
0
100
AcDbBlockBegin
  2
_D_4
 70
     0
 10
0.0
 20
0.0
 30
0.0
  3
_D_4
  1

  0
SOLID
  5
155
330
152
100
AcDbEntity
  8
VERMASSUNG
100
AcDbTrace
 10
231.8415301724
 20
173.4370160553
 30
0.0
 11
228.8415301724
 21
173.8870160553
 31
0.0
 12
228.8415301724
 22
172.9870160553
 32
0.0
 13
228.8415301724
 23
172.9870160553
 33
0.0
  0
SOLID
  5
156
330
152
100
AcDbEntity
  8
VERMASSUNG
100
AcDbTrace
 10
189.8415301724
 20
173.4370160553
 30
0.0
 11
192.8415301724
 21
172.9870160553
 31
0.0
 12
192.8415301724
 22
173.8870160553
 32
0.0
 13
192.8415301724
 23
173.8870160553
 33
0.0
  0
LINE
  5
157
330
152
100
AcDbEntity
  8
VERMASSUNG
100
AcDbLine
 10
231.8415301724
 20
137.8094827586
 30
0.0
 11
231.8415301724
 21
174.4370160553
 31
0.0
  0
LINE
  5
158
330
152
100
AcDbEntity
  8
VERMASSUNG
100
AcDbLine
 10
189.8415301724
 20
148.2344827586
 30
0.0
 11
189.8415301724
 21
174.4370160553
 31
0.0
  0
LINE
  5
159
330
152
100
AcDbEntity
  8
VERMASSUNG
100
AcDbLine
 10
231.8415301724
 20
173.4370160553
 30
0.0
 11
189.8415301724
 21
173.4370160553
 31
0.0
  0
MTEXT
  5
15A
330
152
100
AcDbEntity
  8
VERMASSUNG
100
AcDbMText
 10
209.3415301594
 20
176.0151516512
 30
0.0
 40
2.0
 41
0.0
 71
     1
 72
     1
  1
42
  7
SLDTEXTSTYLE0
 73
     1
 44
1.0
  0
ENDBLK
  5
154
330
152
100
AcDbEntity
  8
0
100
AcDbBlockEnd
  0
BLOCK
  5
15D
330
15C
100
AcDbEntity
  8
0
100
AcDbBlockBegin
  2
_D_5
 70
     0
 10
0.0
 20
0.0
 30
0.0
  3
_D_5
  1

  0
SOLID
  5
15F
330
15C
100
AcDbEntity
  8
VERMASSUNG
100
AcDbTrace
 10
231.8415301724
 20
179.4370160553
 30
0.0
 11
228.8415301724
 21
179.8870160553
 31
0.0
 12
228.8415301724
 22
178.9870160553
 32
0.0
 13
228.8415301724
 23
178.9870160553
 33
0.0
  0
SOLID
  5
160
330
15C
100
AcDbEntity
  8
VERMASSUNG
100
AcDbTrace
 10
63.0415301724
 20
179.4370160553
 30
0.0
 11
66.0415301724
 21
178.9870160553
 31
0.0
 12
66.0415301724
 22
179.8870160553
 32
0.0
 13
66.0415301724
 23
179.8870160553
 33
0.0
  0
LINE
  5
161
330
15C
100
AcDbEntity
  8
VERMASSUNG
100
AcDbLine
 10
231.8415301724
 20
137.8094827586
 30
0.0
 11
231.8415301724
 21
180.4370160553
 31
0.0
  0
LINE
  5
162
330
15C
100
AcDbEntity
  8
VERMASSUNG
100
AcDbLine
 10
63.0415301724
 20
130.1344827586
 30
0.0
 11
63.0415301724
 21
180.4370160553
 31
0.0
  0
LINE
  5
163
330
15C
100
AcDbEntity
  8
VERMASSUNG
100
AcDbLine
 10
231.8415301724
 20
179.4370160553
 30
0.0
 11
63.0415301724
 21
179.4370160553
 31
0.0
  0
MTEXT
  5
164
330
15C
100
AcDbEntity
  8
VERMASSUNG
100
AcDbMText
 10
144.5415302093
 20
182.0151516512
 30
0.0
 40
2.0
 41
0.0
 71
     1
 72
     1
  1
168.8
  7
SLDTEXTSTYLE0
 73
     1
 44
1.0
  0
ENDBLK
  5
15E
330
15C
100
AcDbEntity
  8
0
100
AcDbBlockEnd
  0
ENDSEC
  0
SECTION
  2
ENTITIES
  0
MTEXT
  5
78
330
1F
100
AcDbEntity
  8
KOPF_DÜNN
100
AcDbMText
 10
13.8892156294
 20
23.8442973028
 30
0.0
 40
3.0
 41
0.0
 71
     1
 72
     1
  1
A54.500.050.042
  7
SLDTEXTSTYLE0
 73
     1
 44
1.0
  0
MTEXT
  5
79
330
1F
100
AcDbEntity
  8
VERMASSUNG
100
AcDbMText
 10
13.9329988022
 20
28.8834360957
 30
0.0
 40
3.0
 41
0.0
 71
     1
 72
     1
  1
Aufnahme Master shank WH50
  7
SLDTEXTSTYLE0
 73
     1
 44
1.0
  0
MTEXT
  5
7A
330
1F
100
AcDbEntity
  8
VERMASSUNG
100
AcDbMText
 10
98.8601118557
 20
13.8365368761
 30
0.0
 40
2.0
 41
0.0
 71
     1
 72
     1
  1
Datum: 02.12.2011
  7
SLDTEXTSTYLE0
 73
     1
 44
1.0
  0
MTEXT
  5
7B
330
1F
100
AcDbEntity
  8
VERMASSUNG
100
AcDbMText
 10
13.933048693
 20
18.0482802738
 30
0.0
 40
2.0
 41
0.0
 71
     1
 72
     1
  1
DIN 2080
  7
SLDTEXTSTYLE0
 73
     1
 44
1.0
  0
MTEXT
  5
7C
330
1F
100
AcDbEntity
  8
VERMASSUNG
100
AcDbMText
 10
13.9808475933
 20
13.9090974274
 30
0.0
 40
2.0
 41
0.0
 71
     1
 72
     1
  1
Gewicht: 2821g
  7
SLDTEXTSTYLE0
 73
     1
 44
1.0
  0
ARC
  5
7D
330
1F
100
AcDbEntity
  8
0
  6
Continuous
 62
     7
370
    15
100
AcDbCircle
 10
192.0415301724
 20
77.3844827586
 30
0.0
 40
1.0
100
AcDbArc
 50
0.0
 51
90.0
  0
ARC
  5
7E
330
1F
100
AcDbEntity
  8
0
  6
Continuous
 62
     7
370
    15
100
AcDbCircle
 10
192.0415301724
 20
149.2344827586
 30
0.0
 40
1.0
100
AcDbArc
 50
270.0
 51
0.0
  0
LINE
  5
7F
330
1F
100
AcDbEntity
  8
0
  6
Continuous
 62
     7
370
    15
100
AcDbLine
 10
189.8415301724
 20
78.3844827586
 30
0.0
 11
192.0415301724
 21
78.3844827586
 31
0.0
  0
LINE
  5
80
330
1F
100
AcDbEntity
  8
0
  6
Continuous
 62
     7
370
    15
100
AcDbLine
 10
192.0415301724
 20
148.2344827586
 30
0.0
 11
189.8415301724
 21
148.2344827586
 31
0.0
  0
LINE
  5
81
330
1F
100
AcDbEntity
  8
0
  6
Continuous
 62
     7
370
    15
100
AcDbLine
 10
189.8415301724
 20
148.2344827586
 30
0.0
 11
90.0807629397
 21
133.6860375372
 31
0.0
  0
LINE
  5
82
330
1F
100
AcDbEntity
  8
0
  6
Continuous
 62
     7
370
    15
100
AcDbLine
 10
90.0807629397
 20
92.9329279801
 30
0.0
 11
189.8415301724
 21
78.3844827586
 31
0.0
  0
ARC
  5
83
330
1F
100
AcDbEntity
  8
0
  6
Continuous
 62
     7
370
    15
100
AcDbCircle
 10
208.0415301724
 20
85.3094827586
 30
0.0
 40
3.0
100
AcDbArc
 50
90.0
 51
180.0
  0
ARC
  5
84
330
1F
100
AcDbEntity
  8
0
  6
Continuous
 62
     7
370
    15
100
AcDbCircle
 10
208.0415301724
 20
141.3094827586
 30
0.0
 40
3.0
100
AcDbArc
 50
180.0
 51
270.0
  0
LINE
  5
85
330
1F
100
AcDbEntity
  8
0
  6
Continuous
 62
     7
370
    15
100
AcDbLine
 10
231.3415301724
 20
88.3094827586
 30
0.0
 11
231.8415301724
 21
88.8094827586
 31
0.0
  0
LINE
  5
86
330
1F
100
AcDbEntity
  8
0
  6
Continuous
 62
     7
370
    15
100
AcDbLine
 10
231.8415301724
 20
137.8094827586
 30
0.0
 11
231.3415301724
 21
138.3094827586
 31
0.0
  0
LINE
  5
87
330
1F
100
AcDbEntity
  8
0
  6
Continuous
 62
     7
370
    15
100
AcDbLine
 10
210.5554754648
 20
138.3094827586
 30
0.0
 11
208.0415301724
 21
138.3094827586
 31
0.0
  0
LINE
  5
88
330
1F
100
AcDbEntity
  8
0
  6
Continuous
 62
     7
370
    15
100
AcDbLine
 10
231.3415301724
 20
138.3094827586
 30
0.0
 11
225.0348367347
 21
138.3094827586
 31
0.0
  0
LINE
  5
89
330
1F
100
AcDbEntity
  8
0
  6
Continuous
 62
     7
370
    15
100
AcDbLine
 10
208.0415301724
 20
88.3094827586
 30
0.0
 11
231.3415301724
 21
88.3094827586
 31
0.0
  0
ARC
  5
8A
330
1F
100
AcDbEntity
  8
0
  6
Continuous
 62
     7
370
    15
100
AcDbCircle
 10
90.4415301724
 20
95.4067604327
 30
0.0
 40
2.500000000000007
100
AcDbArc
 50
180.0
 51
261.7028550302
  0
ARC
  5
8B
330
1F
100
AcDbEntity
  8
0
  6
Continuous
 62
     7
370
    15
100
AcDbCircle
 10
90.4415301724
 20
131.2122050845
 30
0.0
 40
2.5
100
AcDbArc
 50
98.2971449698
 51
180.0
  0
LINE
  5
8C
330
1F
100
AcDbEntity
  8
0
  6
Continuous
 62
     7
370
    15
100
AcDbLine
 10
70.8415301724
 20
93.6894827586
 30
0.0
 11
73.8715540958
 21
93.6894827586
 31
0.0
  0
LINE
  5
8D
330
1F
100
AcDbEntity
  8
0
  6
Continuous
 62
     7
370
    15
100
AcDbLine
 10
73.8715540958
 20
132.9294827586
 30
0.0
 11
70.8415301724
 21
132.9294827586
 31
0.0
  0
LINE
  5
8E
330
1F
100
AcDbEntity
  8
0
  6
Continuous
 62
     7
370
    15
100
AcDbLine
 10
73.8715540958
 20
93.6894827586
 30
0.0
 11
74.7422307533
 21
96.9388922812
 31
0.0
  0
LINE
  5
8F
330
1F
100
AcDbEntity
  8
0
  6
Continuous
 62
     7
370
    15
100
AcDbLine
 10
74.7422307533
 20
129.6800732361
 30
0.0
 11
73.8715540958
 21
132.9294827586
 31
0.0
  0
ARC
  5
90
330
1F
100
AcDbEntity
  8
0
  6
Continuous
 62
     7
370
    15
100
AcDbCircle
 10
70.0415301724
 20
95.6844827586
 30
0.0
 40
0.7999999999999972
100
AcDbArc
 50
0.0
 51
90.0
  0
ARC
  5
91
330
1F
100
AcDbEntity
  8
0
  6
Continuous
 62
     7
370
    15
100
AcDbCircle
 10
70.0415301724
 20
130.9344827586
 30
0.0
 40
0.7999999999999972
100
AcDbArc
 50
270.0
 51
0.0
  0
LINE
  5
92
330
1F
100
AcDbEntity
  8
0
  6
Continuous
 62
     7
370
    15
100
AcDbLine
 10
63.2415301724
 20
96.2844827586
 30
0.0
 11
68.8415301724
 21
96.2844827586
 31
0.0
  0
LINE
  5
93
330
1F
100
AcDbEntity
  8
0
  6
Continuous
 62
     7
370
    15
100
AcDbLine
 10
68.8415301724
 20
130.3344827586
 30
0.0
 11
63.2415301724
 21
130.3344827586
 31
0.0
  0
ARC
  5
94
330
1F
100
AcDbEntity
  8
0
  6
Continuous
 62
     7
370
    15
100
AcDbCircle
 10
63.2415301724
 20
96.4844827586
 30
0.0
 40
0.1999999999999815
100
AcDbArc
 50
180.0
 51
270.0
  0
ARC
  5
95
330
1F
100
AcDbEntity
  8
0
  6
Continuous
 62
     7
370
    15
100
AcDbCircle
 10
63.2415301724
 20
130.1344827586
 30
0.0
 40
0.1999999999999886
100
AcDbArc
 50
90.0
 51
180.0
  0
ARC
  5
96
330
1F
100
AcDbEntity
  8
0
  6
Continuous
 62
     7
370
    15
100
AcDbCircle
 10
69.3706804346
 20
95.6844827586
 30
0.0
 40
0.8000000000000096
100
AcDbArc
 50
90.0
 51
131.4096221093
  0
ARC
  5
97
330
1F
100
AcDbEntity
  8
0
  6
Continuous
 62
     7
370
    15
100
AcDbCircle
 10
69.3706804346
 20
130.9344827586
 30
0.0
 40
0.7999999999999989
100
AcDbArc
 50
228.5903778907
 51
270.0
  0
LINE
  5
98
330
1F
100
AcDbEntity
  8
0
  6
Continuous
 62
     7
370
    15
100
AcDbLine
 10
69.3706804346
 20
96.4844827586
 30
0.0
 11
70.0415301724
 21
96.4844827586
 31
0.0
  0
LINE
  5
99
330
1F
100
AcDbEntity
  8
0
  6
Continuous
 62
     7
370
    15
100
AcDbLine
 10
70.0415301724
 20
130.1344827586
 30
0.0
 11
69.3706804346
 21
130.1344827586
 31
0.0
  0
ARC
  5
9A
330
1F
100
AcDbEntity
  8
0
  6
Continuous
 62
     7
370
    15
100
AcDbCircle
 10
87.4415301724
 20
96.8094827586
 30
0.0
 40
0.5
100
AcDbArc
 50
0.0
 51
90.0
  0
ARC
  5
9B
330
1F
100
AcDbEntity
  8
0
  6
Continuous
 62
     7
370
    15
100
AcDbCircle
 10
87.4415301724
 20
129.8094827586
 30
0.0
 40
0.5
100
AcDbArc
 50
270.0
 51
0.0
  0
ARC
  5
9C
330
1F
100
AcDbEntity
  8
0
  6
Continuous
 62
     7
370
    15
100
AcDbCircle
 10
75.2251936664
 20
96.8094827586
 30
0.0
 40
0.5000000000000142
100
AcDbArc
 50
90.0
 51
165.0
  0
ARC
  5
9D
330
1F
100
AcDbEntity
  8
0
  6
Continuous
 62
     7
370
    15
100
AcDbCircle
 10
75.2251936664
 20
129.8094827586
 30
0.0
 40
0.5000000000000284
100
AcDbArc
 50
195.0
 51
270.0
  0
LINE
  5
9E
330
1F
100
AcDbEntity
  8
0
  6
Continuous
 62
     7
370
    15
100
AcDbLine
 10
75.2251936664
 20
97.3094827586
 30
0.0
 11
87.4415301724
 21
97.3094827586
 31
0.0
  0
LINE
  5
9F
330
1F
100
AcDbEntity
  8
0
  6
Continuous
 62
     7
370
    15
100
AcDbLine
 10
87.4415301724
 20
129.3094827586
 30
0.0
 11
75.2251936664
 21
129.3094827586
 31
0.0
  0
LINE
  5
A0
330
1F
100
AcDbEntity
  8
0
  6
Continuous
 62
     7
370
    15
100
AcDbLine
 10
223.4183187367
 20
137.9826941943
 30
0.0
 11
223.0915301724
 21
138.3094827586
 31
0.0
  0
LINE
  5
A1
330
1F
100
AcDbEntity
  8
0
  6
Continuous
 62
     7
370
    15
100
AcDbLine
 10
212.4915301724
 20
138.3094827586
 30
0.0
 11
212.1656111304
 21
137.9835637166
 31
0.0
  0
ARC
  5
A2
330
1F
100
AcDbEntity
  8
0
  6
Continuous
 62
     7
370
    15
100
AcDbCircle
 10
206.8915301724
 20
113.3094827586
 30
0.0
 40
48.65000000000006
100
AcDbArc
 50
254.1956353434
 51
254.6846441354
  0
ARC
  5
A3
330
1F
100
AcDbEntity
  8
0
  6
Continuous
 62
     7
370
    15
100
AcDbCircle
 10
206.8915301724
 20
113.3094827586
 30
0.0
 40
48.65000000000006
100
AcDbArc
 50
105.3153558646
 51
105.8043646566
  0
LINE
  5
A4
330
1F
100
AcDbEntity
  8
0
  6
Continuous
 62
     7
370
    15
100
AcDbLine
 10
204.0415301724
 20
160.2317589182
 30
0.0
 11
194.0415301724
 21
160.2317589182
 31
0.0
  0
ARC
  5
A5
330
1F
100
AcDbEntity
  8
0
  6
Continuous
 62
     7
370
    15
100
AcDbCircle
 10
191.1915301724
 20
113.3094827586
 30
0.0
 40
48.64999999999991
100
AcDbArc
 50
74.1956353434
 51
74.6846441354
  0
ARC
  5
A6
330
1F
100
AcDbEntity
  8
0
  6
Continuous
 62
     7
370
    15
100
AcDbCircle
 10
191.1915301724
 20
113.3094827586
 30
0.0
 40
48.65000000000011
100
AcDbArc
 50
285.3153558646
 51
285.8043646566
  0
LINE
  5
A7
330
1F
100
AcDbEntity
  8
0
  6
Continuous
 62
     7
370
    15
100
AcDbLine
 10
204.0415301724
 20
66.387206599
 30
0.0
 11
194.0415301724
 21
66.387206599
 31
0.0
  0
SPLINE
  5
A8
330
1F
100
AcDbEntity
  8
0
  6
Continuous
 62
     7
370
    15
100
AcDbSpline
210
0.0
220
0.0
230
1.0
 70
     8
 71
     3
 72
    12
 73
     8
 74
     0
 42
0.000000001
 43
0.00000001
 40
0.0
 40
0.0
 40
0.0
 40
0.0
 40
0.25
 40
0.25
 40
0.5
 40
0.5
 40
1.0
 40
1.0
 40
1.0
 40
1.0
 10
205.0415301724138
 20
159.3201336994626
 30
0.0
 10
205.0415301724138
 20
159.425988701225
 30
0.0
 10
205.0163908938327
 20
159.5273918168382
 30
0.0
 10
204.9418678434422
 20
159.706473321006
 30
0.0
 10
204.891695007437
 20
159.785876182368
 30
0.0
 10
204.7242657706286
 20
159.9871154538568
 30
0.0
 10
204.5869016934182
 20
160.0792309709811
 30
0.0
 10
204.4415301724138
 20
160.120378926073
 30
0.0
  0
LINE
  5
A9
330
1F
100
AcDbEntity
  8
0
  6
Continuous
 62
     7
370
    15
100
AcDbLine
 10
205.0415301724
 20
67.2988318178
 30
0.0
 11
205.0415301724
 21
159.3201336995
 31
0.0
  0
SPLINE
  5
AA
330
1F
100
AcDbEntity
  8
0
  6
Continuous
 62
     7
370
    15
100
AcDbSpline
210
0.0
220
0.0
230
1.0
 70
     8
 71
     3
 72
    14
 73
    10
 74
     0
 42
0.000000001
 43
0.00000001
 40
0.0
 40
0.0
 40
0.0
 40
0.0
 40
0.25
 40
0.25
 40
0.5
 40
0.5
 40
0.75
 40
0.75
 40
1.0
 40
1.0
 40
1.0
 40
1.0
 10
204.4415301724138
 20
66.49858659116839
 30
0.0
 10
204.5142792568782
 20
66.5191784927997
 30
0.0
 10
204.5836234711564
 20
66.55229908666335
 30
0.0
 10
204.7160745729702
 20
66.64149138348802
 30
0.0
 10
204.7792770628731
 20
66.69813344801082
 30
0.0
 10
204.8910720113137
 20
66.83217928055524
 30
0.0
 10
204.9413427551845
 20
66.91149477872318
 30
0.0
 10
205.0162072846174
 20
67.09087058735139
 30
0.0
 10
205.0415301724138
 20
67.1930936002387
 30
0.0
 10
205.0415301724138
 20
67.29883181777873
 30
0.0
  0
LINE
  5
AB
330
1F
100
AcDbEntity
  8
0
  6
Continuous
 62
     7
370
    15
100
AcDbLine
 10
193.0415301724
 20
67.2988318178
 30
0.0
 11
193.0415301724
 21
159.3201336995
 31
0.0
  0
SPLINE
  5
AC
330
1F
100
AcDbEntity
  8
0
  6
Continuous
 62
     7
370
    15
100
AcDbSpline
210
0.0
220
0.0
230
1.0
 70
     8
 71
     3
 72
    14
 73
    10
 74
     0
 42
0.000000001
 43
0.00000001
 40
0.0
 40
0.0
 40
0.0
 40
0.0
 40
0.25
 40
0.25
 40
0.5
 40
0.5
 40
0.75
 40
0.75
 40
1.0
 40
1.0
 40
1.0
 40
1.0
 10
193.6415301724138
 20
160.120378926073
 30
0.0
 10
193.5687760125268
 20
160.0997855878242
 30
0.0
 10
193.4994249469333
 20
160.0666611965
 30
0.0
 10
193.3669580587497
 20
159.9774526736045
 30
0.0
 10
193.3037519533339
 20
159.9208024077111
 30
0.0
 10
193.1919502922792
 20
159.7867327165553
 30
0.0
 10
193.1416781827809
 20
159.7074027308987
 30
0.0
 10
193.0668210372918
 20
159.5279917661664
 30
0.0
 10
193.0415301724137
 20
159.4247783795844
 30
0.0
 10
193.0415301724137
 20
159.3201336994626
 30
0.0
  0
SPLINE
  5
AD
330
1F
100
AcDbEntity
  8
0
  6
Continuous
 62
     7
370
    15
100
AcDbSpline
210
0.0
220
0.0
230
1.0
 70
     8
 71
     3
 72
    14
 73
    10
 74
     0
 42
0.000000001
 43
0.00000001
 40
0.0
 40
0.0
 40
0.0
 40
0.0
 40
0.25
 40
0.25
 40
0.5
 40
0.5
 40
0.75
 40
0.75
 40
1.0
 40
1.0
 40
1.0
 40
1.0
 10
193.6415301724138
 20
66.49858659116839
 30
0.0
 10
193.5687760125268
 20
66.5191799294171
 30
0.0
 10
193.4994249469333
 20
66.55230432074137
 30
0.0
 10
193.3669580587497
 20
66.64151284363687
 30
0.0
 10
193.3037519533339
 20
66.69816310953028
 30
0.0
 10
193.1919502922792
 20
66.83223280068601
 30
0.0
 10
193.1416781827809
 20
66.91156278634269
 30
0.0
 10
193.0668210372918
 20
67.09097375107496
 30
0.0
 10
193.0415301724137
 20
67.19418713765698
 30
0.0
 10
193.0415301724137
 20
67.29883181777873
 30
0.0
  0
LINE
  5
AE
330
1F
100
AcDbEntity
  8
0
  6
Continuous
 62
     7
370
    15
100
AcDbLine
 10
189.8415301724
 20
78.3844827586
 30
0.0
 11
189.8415301724
 21
148.2344827586
 31
0.0
  0
LINE
  5
AF
330
1F
100
AcDbEntity
  8
0
  6
Continuous
 62
     7
370
    15
100
AcDbLine
 10
231.8415301724
 20
113.3094827586
 30
0.0
 11
231.8415301724
 21
88.8094827586
 31
0.0
  0
LINE
  5
B0
330
1F
100
AcDbEntity
  8
0
  6
Continuous
 62
     7
370
    15
100
AcDbLine
 10
231.8415301724
 20
137.8094827586
 30
0.0
 11
231.8415301724
 21
113.3094827586
 31
0.0
  0
LINE
  5
B1
330
1F
100
AcDbEntity
  8
0
  6
Continuous
 62
     7
370
    15
100
AcDbLine
 10
231.3415301724
 20
113.3094827586
 30
0.0
 11
231.3415301724
 21
88.3094827586
 31
0.0
  0
LINE
  5
B2
330
1F
100
AcDbEntity
  8
0
  6
Continuous
 62
     7
370
    15
100
AcDbLine
 10
231.3415301724
 20
138.3094827586
 30
0.0
 11
231.3415301724
 21
113.3094827586
 31
0.0
  0
SPLINE
  5
B3
330
1F
100
AcDbEntity
  8
0
  6
Continuous
 62
     7
370
    15
100
AcDbSpline
210
0.0
220
0.0
230
1.0
 70
     8
 71
     3
 72
    38
 73
    34
 74
     0
 42
0.000000001
 43
0.00000001
 40
0.0
 40
0.0
 40
0.0
 40
0.0
 40
0.0174125906850337
 40
0.0523558164277149
 40
0.0805965241683051
 40
0.1093727598543392
 40
0.1385170963163141
 40
0.1684394915152848
 40
0.198869623221707
 40
0.2296411289275999
 40
0.2464554281697025
 40
0.2632695245949283
 40
0.2974574631546107
 40
0.3320360153148854
 40
0.3601665493025012
 40
0.402932225865234
 40
0.4464322066759034
 40
0.476206812104821
 40
0.5215228904658106
 40
0.5676965495714087
 40
0.5978107491289472
 40
0.6436719352984944
 40
0.6591759978187856
 40
0.6904751462402656
 40
0.7200918790087992
 40
0.7652647555259566
 40
0.8114768248877987
 40
0.8387648132442213
 40
0.8804785768015755
 40
0.9233022081844283
 40
0.9468500142810994
 40
0.9828122992187962
 40
1.0
 40
1.0
 40
1.0
 40
1.0
 10
225.0348367347087
 20
138.3079789098298
 30
0.0
 10
225.0349528258849
 20
138.3080047038073
 30
0.0
 10
225.035301886425
 20
138.3080822606034
 30
0.0
 10
224.9499057677548
 20
138.2889141656171
 30
0.0
 10
224.786662814708
 20
138.252940934423
 30
0.0
 10
224.5692764615191
 20
138.2061545181691
 30
0.0
 10
224.2886265133226
 20
138.1477459068373
 30
0.0
 10
223.945641741087
 20
138.0794328124259
 30
0.0
 10
223.5431394027546
 20
138.0036513759965
 30
0.0
 10
223.157204771821
 20
137.9359012923685
 30
0.0
 10
222.8154490922408
 20
137.8797817777132
 30
0.0
 10
222.4394372859704
 20
137.8211484334831
 30
0.0
 10
221.9360979029481
 20
137.7491820694333
 30
0.0
 10
221.3293769366124
 20
137.6742488734399
 30
0.0
 10
220.6390420351867
 20
137.602191061688
 30
0.0
 10
219.8592319091711
 20
137.5382623179055
 30
0.0
 10
219.0418973535888
 20
137.4950376458546
 30
0.0
 10
218.1945119679771
 20
137.4719050614459
 30
0.0
 10
217.3215710870775
 20
137.4711518647556
 30
0.0
 10
216.4525853119964
 20
137.4985602554225
 30
0.0
 10
215.597494134661
 20
137.547952359347
 30
0.0
 10
214.974666772219
 20
137.5999455126707
 30
0.0
 10
214.3667225952792
 20
137.6623271089585
 30
0.0
 10
213.8804328322964
 20
137.7193094998327
 30
0.0
 10
213.2391212164615
 20
137.8057940365268
 30
0.0
 10
212.561831634653
 20
137.9111095148799
 30
0.0
 10
211.9782498838823
 20
138.0146217989821
 30
0.0
 10
211.4883382986274
 20
138.1084394648217
 30
0.0
 10
211.0896728681275
 20
138.1897436903708
 30
0.0
 10
210.807060890168
 20
138.2505983450608
 30
0.0
 10
210.6307118372792
 20
138.2894585296362
 30
0.0
 10
210.5431024609445
 20
138.3091281896856
 30
0.0
 10
210.5524520004273
 20
138.3070292780546
 30
0.0
 10
210.5554754647781
 20
138.3063505297052
 30
0.0
  0
SPLINE
  5
B4
330
1F
100
AcDbEntity
  8
0
  6
Continuous
 62
     7
370
    15
100
AcDbSpline
210
0.0
220
0.0
230
1.0
 70
    11
 71
     3
 72
    95
 73
    91
 74
     0
 42
0.000000001
 43
0.00000001
 40
0.0
 40
0.0
 40
0.0
 40
0.0
 40
0.0312499999999995
 40
0.0312499999999995
 40
0.0468749999999992
 40
0.0468749999999992
 40
0.0624999999999988
 40
0.0624999999999988
 40
0.0937499999999984
 40
0.0937499999999984
 40
0.1093749999999983
 40
0.1093749999999983
 40
0.1249999999999981
 40
0.1249999999999981
 40
0.1562499999999981
 40
0.1562499999999981
 40
0.1718749999999981
 40
0.1718749999999981
 40
0.1874999999999981
 40
0.1874999999999981
 40
0.2187499999999984
 40
0.2187499999999984
 40
0.2343749999999987
 40
0.2343749999999987
 40
0.249999999999999
 40
0.249999999999999
 40
0.2812499999999993
 40
0.2812499999999993
 40
0.2968749999999993
 40
0.2968749999999993
 40
0.3124999999999993
 40
0.3124999999999993
 40
0.3437499999999991
 40
0.3437499999999991
 40
0.3593749999999989
 40
0.3593749999999989
 40
0.3749999999999987
 40
0.3906249999999986
 40
0.3906249999999986
 40
0.4062499999999984
 40
0.4062499999999984
 40
0.4374999999999979
 40
0.4374999999999979
 40
0.4531249999999977
 40
0.4531249999999977
 40
0.4687499999999974
 40
0.4687499999999974
 40
0.4999999999999973
 40
0.4999999999999973
 40
0.5312499999999972
 40
0.5312499999999972
 40
0.5468749999999973
 40
0.5468749999999973
 40
0.5624999999999974
 40
0.5624999999999974
 40
0.5937499999999977
 40
0.5937499999999977
 40
0.6249999999999978
 40
0.6249999999999978
 40
0.656249999999998
 40
0.656249999999998
 40
0.6874999999999982
 40
0.6874999999999982
 40
0.7187499999999984
 40
0.7187499999999984
 40
0.7499999999999987
 40
0.7499999999999987
 40
0.7656249999999988
 40
0.7656249999999988
 40
0.7812499999999989
 40
0.7812499999999989
 40
0.812499999999999
 40
0.812499999999999
 40
0.8281249999999991
 40
0.8281249999999991
 40
0.8437499999999992
 40
0.8437499999999992
 40
0.8749999999999993
 40
0.8749999999999993
 40
0.8906249999999994
 40
0.8906249999999994
 40
0.9062499999999996
 40
0.9062499999999996
 40
0.9218749999999997
 40
0.9218749999999997
 40
0.9374999999999998
 40
0.9374999999999998
 40
0.9687499999999999
 40
0.9687499999999999
 40
1.0
 40
1.0
 40
1.0
 40
1.0
 10
212.941799978714
 20
118.0664223273203
 30
0.0
 10
213.292941741794
 20
118.3468067815827
 30
0.0
 10
213.6649904155109
 20
118.5897830164435
 30
0.0
 10
214.2518364154625
 20
118.9036501714671
 30
0.0
 10
214.4522888050292
 20
118.9997631424022
 30
0.0
 10
214.8628764270913
 20
119.1750857085742
 30
0.0
 10
215.0739993608227
 20
119.2546001774712
 30
0.0
 10
215.7145242421068
 20
119.4647994436983
 30
0.0
 10
216.1488309324868
 20
119.5671181008614
 30
0.0
 10
216.8108305930611
 20
119.666446138292
 30
0.0
 10
217.0332649272009
 20
119.6904687729734
 30
0.0
 10
217.4817325565823
 20
119.7200572105448
 30
0.0
 10
217.7085885047501
 20
119.7255430296624
 30
0.0
 10
218.3825756157544
 20
119.7137711720998
 30
0.0
 10
218.8263861051823
 20
119.6689950606432
 30
0.0
 10
219.4839726258175
 20
119.5471565971444
 30
0.0
 10
219.7018054769555
 20
119.4973753743696
 30
0.0
 10
220.1346705206323
 20
119.3788816572838
 30
0.0
 10
220.3501709626971
 20
119.3098960227258
 30
0.0
 10
220.9798320882022
 20
119.0780081926865
 30
0.0
 10
221.3814023982844
 20
118.8895004145966
 30
0.0
 10
221.9562118932649
 20
118.5546278203645
 30
0.0
 10
222.1431943136265
 20
118.4342606916952
 30
0.0
 10
222.5074650080512
 20
118.1750250971967
 30
0.0
 10
222.6848015052087
 20
118.0359191351941
 30
0.0
 10
223.1897723133893
 20
117.5992511724088
 30
0.0
 10
223.4948901536739
 20
117.2797689855668
 30
0.0
 10
223.9026963131848
 20
116.754942125918
 30
0.0
 10
224.0302588331928
 20
116.5723439587682
 30
0.0
 10
224.267289906481
 20
116.1904859332167
 30
0.0
 10
224.3755899581811
 20
115.9928157258156
 30
0.0
 10
224.6638402615756
 20
115.3898501250946
 30
0.0
 10
224.8101346325021
 20
114.9706848899524
 30
0.0
 10
224.9556825390974
 20
114.3140306078398
 30
0.0
 10
224.9918378150128
 20
114.0887802925264
 30
0.0
 10
225.0362767741227
 20
113.6405664441923
 30
0.0
 10
225.0536149724703
 20
113.1930676669069
 30
0.0
 10
225.0178197869481
 20
112.7469714995021
 30
0.0
 10
224.955134650885
 20
112.3015844941877
 30
0.0
 10
224.9099099200155
 20
112.0781202292884
 30
0.0
 10
224.7374072331469
 20
111.4258033517963
 30
0.0
 10
224.5735779077986
 20
111.0100418085694
 30
0.0
 10
224.2586351903565
 20
110.4132518957807
 30
0.0
 10
224.1422256936645
 20
110.2195481524212
 30
0.0
 10
223.8920668885851
 20
109.8491552353603
 30
0.0
 10
223.7577628653578
 20
109.6713740854407
 30
0.0
 10
223.3283747497733
 20
109.1591572771183
 30
0.0
 10
223.0036199923912
 20
108.8434240500843
 30
0.0
 10
222.3081002954127
 20
108.2850410742361
 30
0.0
 10
221.9364348103608
 20
108.0401622488918
 30
0.0
 10
221.3442726777575
 20
107.7217475110969
 30
0.0
 10
221.1405509088938
 20
107.6237012049545
 30
0.0
 10
220.7287886656125
 20
107.4472451720898
 30
0.0
 10
220.5199229816485
 20
107.3683377902342
 30
0.0
 10
219.8846067056271
 20
107.1586594562848
 30
0.0
 10
219.4495078651459
 20
107.05470106404
 30
0.0
 10
218.5556418822033
 20
106.9194727995636
 30
0.0
 10
218.1072774929678
 20
106.8899634634889
 30
0.0
 10
217.2141321655
 20
106.9043634550272
 30
0.0
 10
216.7679300040754
 20
106.9481742431095
 30
0.0
 10
215.878513095489
 20
107.1123911916487
 30
0.0
 10
215.4476043358569
 20
107.2304573760848
 30
0.0
 10
214.6125491592488
 20
107.5370706197024
 30
0.0
 10
214.2072687656202
 20
107.7262182662513
 30
0.0
 10
213.430175991542
 20
108.1788932654594
 30
0.0
 10
213.0683642479579
 20
108.4363379208426
 30
0.0
 10
212.5659545740739
 20
108.8702117052808
 30
0.0
 10
212.4052506258954
 20
109.0228441177256
 30
0.0
 10
212.0980608509825
 20
109.3450797770302
 30
0.0
 10
211.9507814349896
 20
109.5157273508808
 30
0.0
 10
211.5380358100823
 20
110.0477663461688
 30
0.0
 10
211.3038649378103
 20
110.4248373253513
 30
0.0
 10
211.016384776359
 20
111.0257026883217
 30
0.0
 10
210.931267639098
 20
111.2319106271261
 30
0.0
 10
210.7839786069236
 20
111.6570681199124
 30
0.0
 10
210.7219601896419
 20
111.8764580837635
 30
0.0
 10
210.5773489817653
 20
112.5342816414457
 30
0.0
 10
210.5331866264765
 20
112.9788028453561
 30
0.0
 10
210.5476238942516
 20
113.6548288015849
 30
0.0
 10
210.566308064154
 20
113.8826611701465
 30
0.0
 10
210.6299655569831
 20
114.3286368590314
 30
0.0
 10
210.6748549388437
 20
114.5482891731365
 30
0.0
 10
210.7898634865831
 20
114.9811659060884
 30
0.0
 10
210.8599847646684
 20
115.1943897575201
 30
0.0
 10
211.0254115341914
 20
115.6144451865498
 30
0.0
 10
211.1204222337083
 20
115.8201153495635
 30
0.0
 10
211.4353134965786
 20
116.4138125880991
 30
0.0
 10
211.6864540588903
 20
116.7833214812297
 30
0.0
 10
212.2669952675438
 20
117.4730967787406
 30
0.0
 10
212.590658215634
 20
117.7860378730578
 30
0.0
 10
212.941799978714
 20
118.0664223273203
 30
0.0
  0
LINE
  5
B5
330
1F
100
AcDbEntity
  8
0
  6
Continuous
 62
     7
370
    15
100
AcDbLine
 10
87.9415301724
 20
95.4067604327
 30
0.0
 11
87.9415301724
 21
131.2122050303
 31
0.0
  0
LINE
  5
B6
330
1F
100
AcDbEntity
  8
0
  6
Continuous
 62
     7
370
    15
100
AcDbLine
 10
73.8715540958
 20
93.6894827586
 30
0.0
 11
73.8715540958
 21
132.9294827586
 31
0.0
  0
LINE
  5
B7
330
1F
100
AcDbEntity
  8
0
  6
Continuous
 62
     7
370
    15
100
AcDbLine
 10
70.8415301724
 20
93.6894827586
 30
0.0
 11
70.8415301724
 21
132.9294827586
 31
0.0
  0
LINE
  5
B8
330
1F
100
AcDbEntity
  8
0
  6
Continuous
 62
     7
370
    15
100
AcDbLine
 10
68.8415301724
 20
96.2844827586
 30
0.0
 11
68.8415301724
 21
130.3344827586
 31
0.0
  0
LINE
  5
B9
330
1F
100
AcDbEntity
  8
0
  6
Continuous
 62
     7
370
    15
100
AcDbLine
 10
63.0415301724
 20
96.4844827586
 30
0.0
 11
63.0415301724
 21
130.1344826943
 31
0.0
  0
SPLINE
  5
BA
330
1F
100
AcDbEntity
  8
0
  6
Continuous
 62
     7
370
    15
100
AcDbSpline
210
0.0
220
0.0
230
1.0
 70
    24
 71
     3
 72
    15
 73
    11
 74
     0
 42
0.000000001
 43
0.00000001
 40
0.0
 40
0.0
 40
0.0
 40
0.0
 40
0.1077869592233293
 40
0.2161701819135346
 40
0.3273150562947934
 40
0.4399598612360044
 40
0.5934902695338469
 40
0.7521517812193724
 40
0.8755082115460594
 40
1.0
 40
1.0
 40
1.0
 40
1.0
 10
221.2540506036167
 20
113.4141358211779
 30
0.0
 10
221.1923709823385
 20
113.5138820629779
 30
0.0
 10
221.0686705361238
 20
113.7139263298398
 30
0.0
 10
220.8736459202904
 20
114.029313682822
 30
0.0
 10
220.6697364565108
 20
114.3590693177951
 30
0.0
 10
220.4321683507849
 20
114.7432565943485
 30
0.0
 10
220.1611490928532
 20
115.1815399669428
 30
0.0
 10
219.8895401943695
 20
115.620776886719
 30
0.0
 10
219.6455378148766
 20
116.0153694578199
 30
0.0
 10
219.5035016058189
 20
116.2450657133974
 30
0.0
 10
219.4321581772568
 20
116.3604399444437
 30
0.0
  0
SPLINE
  5
BB
330
1F
100
AcDbEntity
  8
0
  6
Continuous
 62
     7
370
    15
100
AcDbSpline
210
0.0
220
0.0
230
1.0
 70
    24
 71
     3
 72
    11
 73
     7
 74
     0
 42
0.000000001
 43
0.00000001
 40
0.0
 40
0.0
 40
0.0
 40
0.0
 40
0.2164553779443399
 40
0.4403112895790663
 40
0.7519005688038797
 40
0.9999999999999999
 40
0.9999999999999999
 40
0.9999999999999999
 40
0.9999999999999999
 10
219.4321581772568
 20
116.3604399444437
 30
0.0
 10
219.1949721728482
 20
116.3532711082591
 30
0.0
 10
218.71249085747
 20
116.3386883358873
 30
0.0
 10
217.8171343988929
 20
116.311626605182
 30
0.0
 10
216.8567039889254
 20
116.2825980446946
 30
0.0
 10
216.2420861999878
 20
116.2640215091355
 30
0.0
 10
215.969637746054
 20
116.2557868818864
 30
0.0
  0
SPLINE
  5
BC
330
1F
100
AcDbEntity
  8
0
  6
Continuous
 62
     7
370
    15
100
AcDbSpline
210
0.0
220
0.0
230
1.0
 70
    24
 71
     3
 72
    13
 73
     9
 74
     0
 42
0.000000001
 43
0.00000001
 40
0.0
 40
0.0
 40
0.0
 40
0.0
 40
0.1844095697098905
 40
0.349500537088448
 40
0.5197705331556598
 40
0.6927076360809764
 40
0.8718061725834241
 40
1.0
 40
1.0
 40
1.0
 40
1.0
 10
215.969637746054
 20
116.2557868818864
 30
0.0
 10
215.8740176075839
 20
116.0779690293852
 30
0.0
 10
215.6927944215837
 20
115.7409613835734
 30
0.0
 10
215.4047224190047
 20
115.2052547250815
 30
0.0
 10
215.1136196109179
 20
114.6639118968937
 30
0.0
 10
214.8160946648914
 20
114.1106262834815
 30
0.0
 10
214.5537260095405
 20
113.6227182799518
 30
0.0
 10
214.395159343869
 20
113.3278433255842
 30
0.0
 10
214.3290097412109
 20
113.2048296960635
 30
0.0
  0
SPLINE
  5
BD
330
1F
100
AcDbEntity
  8
0
  6
Continuous
 62
     7
370
    15
100
AcDbSpline
210
0.0
220
0.0
230
1.0
 70
    24
 71
     3
 72
    11
 73
     7
 74
     0
 42
0.000000001
 43
0.00000001
 40
0.0
 40
0.0
 40
0.0
 40
0.0
 40
0.2164553779443486
 40
0.44031128957905
 40
0.7519005688038722
 40
0.9999999999999999
 40
0.9999999999999999
 40
0.9999999999999999
 40
0.9999999999999999
 10
216.1509021675707
 20
110.2585255727977
 30
0.0
 10
216.3880881719793
 20
110.2656944089823
 30
0.0
 10
216.8705694873576
 20
110.2802771813541
 30
0.0
 10
217.7659259459346
 20
110.3073389120593
 30
0.0
 10
218.7263563559022
 20
110.3363674725468
 30
0.0
 10
219.3409741448397
 20
110.3549440081059
 30
0.0
 10
219.6134225987736
 20
110.3631786353549
 30
0.0
  0
SPLINE
  5
BE
330
1F
100
AcDbEntity
  8
0
  6
Continuous
 62
     7
370
    15
100
AcDbSpline
210
0.0
220
0.0
230
1.0
 70
    24
 71
     3
 72
    15
 73
    11
 74
     0
 42
0.000000001
 43
0.00000001
 40
0.0
 40
0.0
 40
0.0
 40
0.0
 40
0.0640504367340784
 40
0.1282061551362652
 40
0.3015971188615377
 40
0.480192262649959
 40
0.6449121499732038
 40
0.8155191712969914
 40
0.907560212938154
 40
1.0
 40
1.0
 40
1.0
 40
1.0
 10
219.6134225987736
 20
110.3631786353549
 30
0.0
 10
219.6462997674984
 20
110.4243179270616
 30
0.0
 10
219.7121081461588
 20
110.5466970070047
 30
0.0
 10
219.8705460761143
 20
110.8413325608767
 30
0.0
 10
220.0971253702075
 20
111.2626856789701
 30
0.0
 10
220.391632421832
 20
111.810359132536
 30
0.0
 10
220.6860893343421
 20
112.3579393460188
 30
0.0
 10
220.9225838567079
 20
112.7977310966716
 30
0.0
 10
221.1115679545795
 20
113.1491711487159
 30
0.0
 10
221.2064879990752
 20
113.3256870871115
 30
0.0
 10
221.2540506036167
 20
113.4141358211779
 30
0.0
  0
CIRCLE
  5
BF
330
1F
100
AcDbEntity
  8
0
  6
Continuous
 62
     7
370
    15
100
AcDbCircle
 10
217.7915301724
 20
113.3094827586
 30
0.0
 40
3.600000000000069
  0
SPLINE
  5
C0
330
1F
100
AcDbEntity
  8
0
  6
Continuous
 62
     7
370
    15
100
AcDbSpline
210
0.0
220
0.0
230
1.0
 70
    24
 71
     3
 72
    11
 73
     7
 74
     0
 42
0.000000001
 43
0.00000001
 40
0.0
 40
0.0
 40
0.0
 40
0.0
 40
0.2164553779443585
 40
0.4403112895790596
 40
0.7519005688038772
 40
1.0
 40
1.0
 40
1.0
 40
1.0
 10
214.3290097412109
 20
113.2048296960635
 30
0.0
 10
214.4538111376666
 20
113.0030050089158
 30
0.0
 10
214.7076808466873
 20
112.5924553191328
 30
0.0
 10
215.1787952222369
 20
111.8305847459152
 30
0.0
 10
215.6841498980381
 20
111.0133418925599
 30
0.0
 10
216.0075465442154
 20
110.4903555415017
 30
0.0
 10
216.1509021675707
 20
110.2585255727977
 30
0.0
  0
CIRCLE
  5
C1
330
1F
100
AcDbEntity
  8
0
  6
Continuous
 62
     7
370
    15
100
AcDbCircle
 10
217.7915301724
 20
113.3094827586
 30
0.0
 40
6.000000000000054
  0
CIRCLE
  5
C2
330
1F
100
AcDbEntity
  8
0
  6
Continuous
 62
     7
370
    15
100
AcDbCircle
 10
217.7915301724
 20
113.3094827586
 30
0.0
 40
5.300000000000046
  0
ARC
  5
C3
330
1F
100
AcDbEntity
  8
0
  6
Continuous
 62
     7
370
    15
100
AcDbCircle
 10
217.7915301724
 20
113.3094827586
 30
0.0
 40
2.999999999999963
100
AcDbArc
 50
151.7312111324
 51
211.7312111324
  0
ARC
  5
C4
330
1F
100
AcDbEntity
  8
0
  6
Continuous
 62
     7
370
    15
100
AcDbCircle
 10
217.7915301724
 20
113.3094827586
 30
0.0
 40
3.000000000000052
100
AcDbArc
 50
271.7312111324
 51
331.7312111324
  0
ARC
  5
C5
330
1F
100
AcDbEntity
  8
0
  6
Continuous
 62
     7
370
    15
100
AcDbCircle
 10
217.7915301724
 20
113.3094827586
 30
0.0
 40
3.0
100
AcDbArc
 50
211.7312111324
 51
271.7312111324
  0
ARC
  5
C6
330
1F
100
AcDbEntity
  8
0
  6
Continuous
 62
     7
370
    15
100
AcDbCircle
 10
217.7915301724
 20
113.3094827586
 30
0.0
 40
3.000000000000063
100
AcDbArc
 50
331.7312111324
 51
31.7312111324
  0
ARC
  5
C7
330
1F
100
AcDbEntity
  8
0
  6
Continuous
 62
     7
370
    15
100
AcDbCircle
 10
217.7915301724
 20
113.3094827586
 30
0.0
 40
2.999999999999996
100
AcDbArc
 50
91.7312111324
 51
151.7312111324
  0
ARC
  5
C8
330
1F
100
AcDbEntity
  8
0
  6
Continuous
 62
     7
370
    15
100
AcDbCircle
 10
217.7915301724
 20
113.3094827586
 30
0.0
 40
3.000000000000063
100
AcDbArc
 50
31.7312111324
 51
91.7312111324
  0
LINE
  5
C9
330
1F
100
AcDbEntity
  8
0
  6
Continuous
 62
     7
370
    15
100
AcDbLine
 10
214.8744622536
 20
137.6094827586
 30
0.0
 11
220.7349043347
 21
137.6094827586
 31
0.0
  0
LINE
  5
CA
330
1F
100
AcDbEntity
  8
0
  6
Continuous
 62
     7
370
    15
100
AcDbLine
 10
212.4915301724
 20
138.3094827586
 30
0.0
 11
223.0915301724
 21
138.3094827586
 31
0.0
  0
LINE
  5
CB
330
1F
100
AcDbEntity
  8
0
  6
HIDDEN
 62
     7
370
     0
100
AcDbLine
 10
212.9417999787
 20
137.8527411599
 30
0.0
 11
213.2526758404
 21
137.8069769129
 31
0.0
  0
SPLINE
  5
CC
330
1F
100
AcDbEntity
  8
0
  6
HIDDEN
 62
     7
370
     0
100
AcDbSpline
210
0.0
220
0.0
230
1.0
 70
     8
 71
     3
 72
    10
 73
     6
 74
     0
 42
0.000000001
 43
0.00000001
 40
0.0
 40
0.0
 40
0.0
 40
0.0
 40
0.2559095061991984
 40
0.6261278808937264
 40
1.0
 40
1.0
 40
1.0
 40
1.0
 10
210.5554754647781
 20
138.3063505297052
 30
0.0
 10
210.5530948566073
 20
138.3068868511334
 30
0.0
 10
210.5472702775542
 20
138.3081990563901
 30
0.0
 10
210.6253003703023
 20
138.2906364911716
 30
0.0
 10
210.7295609838253
 20
138.2677475081894
 30
0.0
 10
210.7819472686144
 20
138.2562468202448
 30
0.0
  0
LINE
  5
CD
330
1F
100
AcDbEntity
  8
0
  6
HIDDEN
 62
     7
370
     0
100
AcDbLine
 10
212.677180372
 20
137.895700833
 30
0.0
 11
212.9417999787
 21
137.8527411599
 31
0.0
  0
CIRCLE
  5
CE
330
1F
100
AcDbEntity
  8
0
  6
HIDDEN
 62
     7
370
     0
100
AcDbCircle
 10
217.7915301724
 20
113.3094827586
 30
0.0
 40
5.499999999999972
  0
LINE
  5
CF
330
1F
100
AcDbEntity
  8
0
  6
HIDDEN
 62
     7
370
     0
100
AcDbLine
 10
203.3415301724
 20
113.3094827586
 30
0.0
 11
203.3415301724
 21
99.8094827586
 31
0.0
  0
LINE
  5
D0
330
1F
100
AcDbEntity
  8
0
  6
HIDDEN
 62
     7
370
     0
100
AcDbLine
 10
203.3415301724
 20
126.8094827586
 30
0.0
 11
203.3415301724
 21
113.3094827586
 31
0.0
  0
LINE
  5
D1
330
1F
100
AcDbEntity
  8
0
  6
HIDDEN
 62
     7
370
     0
100
AcDbLine
 10
208.2075555762
 20
113.3094827586
 30
0.0
 11
208.2075555762
 21
99.3094827586
 31
0.0
  0
LINE
  5
D2
330
1F
100
AcDbEntity
  8
0
  6
HIDDEN
 62
     7
370
     0
100
AcDbLine
 10
208.2075555762
 20
127.3094827586
 30
0.0
 11
208.2075555762
 21
113.3094827586
 31
0.0
  0
SPLINE
  5
D3
330
1F
100
AcDbEntity
  8
0
  6
HIDDEN
 62
     7
370
     0
100
AcDbSpline
210
0.0
220
0.0
230
1.0
 70
     8
 71
     3
 72
    28
 73
    24
 74
     0
 42
0.000000001
 43
0.00000001
 40
0.0
 40
0.0
 40
0.0
 40
0.0
 40
0.0472192143408457
 40
0.0958687462891886
 40
0.1430723800995624
 40
0.1915445309286357
 40
0.240723836258231
 40
0.2912134610339044
 40
0.3423641442159351
 40
0.3951274041529926
 40
0.4439560414238597
 40
0.4944102290251706
 40
0.5400928816194099
 40
0.5870563769539157
 40
0.6337305507669125
 40
0.681581033041477
 40
0.7316728867941726
 40
0.7831597749254844
 40
0.8340513681524795
 40
0.8865965532334971
 40
0.9345643224711537
 40
0.9840531538038418
 40
0.9999999999999999
 40
0.9999999999999999
 40
0.9999999999999999
 40
0.9999999999999999
 10
212.2915301724138
 20
127.3094827586207
 30
0.0
 10
212.3050550560877
 20
127.3041412969936
 30
0.0
 10
212.3325145057974
 20
127.2932965754817
 30
0.0
 10
212.5524835474664
 20
127.2082174451019
 30
0.0
 10
212.8976319758809
 20
127.0809532912641
 30
0.0
 10
213.3694701719486
 20
126.9190384698521
 30
0.0
 10
213.9658211162736
 20
126.7354094518662
 30
0.0
 10
214.6778081223105
 20
126.5480752639699
 30
0.0
 10
215.4993578166653
 20
126.3769917638835
 30
0.0
 10
216.3862765107502
 20
126.2497061573061
 30
0.0
 10
217.3150182491657
 20
126.181675451183
 30
0.0
 10
218.216630244525
 20
126.1805534695835
 30
0.0
 10
219.0920746856905
 20
126.2404833417216
 30
0.0
 10
219.9082795402628
 20
126.3488307610396
 30
0.0
 10
220.6794934145584
 20
126.4972610633099
 30
0.0
 10
221.3918209633434
 20
126.6724753052492
 30
0.0
 10
222.0313124384258
 20
126.8601050106426
 30
0.0
 10
222.5664660649851
 20
127.0384871017786
 30
0.0
 10
222.9732273138934
 20
127.1864043321611
 30
0.0
 10
223.2245785922796
 20
127.2830434957962
 30
0.0
 10
223.3099010359198
 20
127.3168909738984
 30
0.0
 10
223.2857261546051
 20
127.3067398757959
 30
0.0
 10
223.1887544667464
 20
127.2696069034066
 30
0.0
 10
223.1651222121406
 20
127.260557500667
 30
0.0
  0
ELLIPSE
  5
D4
330
1F
100
AcDbEntity
  8
0
  6
HIDDEN
 62
     7
370
     0
100
AcDbEllipse
 10
204.8699572972
 20
150.4094827586
 30
0.0
 11
0.0
 21
2.0
 31
0.0
210
0.0
220
0.0
230
1.0
 40
0.4142135624
 41
1.570796326794897
 42
3.141592653589793
  0
LINE
  5
D5
330
1F
100
AcDbEntity
  8
0
  6
HIDDEN
 62
     7
370
     0
100
AcDbLine
 10
204.8699572972
 20
148.4094827586
 30
0.0
 11
205.0415301724
 21
148.4094827586
 31
0.0
  0
LINE
  5
D6
330
1F
100
AcDbEntity
  8
0
  6
HIDDEN
 62
     7
370
     0
100
AcDbLine
 10
205.0415301724
 20
78.2094827586
 30
0.0
 11
204.8699572972
 21
78.2094827586
 31
0.0
  0
ELLIPSE
  5
D7
330
1F
100
AcDbEntity
  8
0
  6
HIDDEN
 62
     7
370
     0
100
AcDbEllipse
 10
204.8699572972
 20
76.2094827586
 30
0.0
 11
0.0
 21
2.0
 31
0.0
210
0.0
220
0.0
230
1.0
 40
0.4142135624
 41
0.0
 42
1.570796326794897
  0
LINE
  5
D8
330
1F
100
AcDbEntity
  8
0
  6
HIDDEN
 62
     7
370
     0
100
AcDbLine
 10
193.0415301724
 20
148.4094827586
 30
0.0
 11
193.2131030477
 21
148.4094827586
 31
0.0
  0
ELLIPSE
  5
D9
330
1F
100
AcDbEntity
  8
0
  6
HIDDEN
 62
     7
370
     0
100
AcDbEllipse
 10
193.2131030477
 20
150.4094827586
 30
0.0
 11
0.0
 21
2.0
 31
0.0
210
0.0
220
0.0
230
1.0
 40
0.4142135624
 41
3.141592653589793
 42
4.712388980384695
  0
ELLIPSE
  5
DA
330
1F
100
AcDbEntity
  8
0
  6
HIDDEN
 62
     7
370
     0
100
AcDbEllipse
 10
193.2131030477
 20
76.2094827586
 30
0.0
 11
0.0
 21
2.0
 31
0.0
210
0.0
220
0.0
230
1.0
 40
0.4142135624
 41
4.712388980384695
 42
6.283185307179586
  0
LINE
  5
DB
330
1F
100
AcDbEntity
  8
0
  6
HIDDEN
 62
     7
370
     0
100
AcDbLine
 10
193.2131030477
 20
78.2094827586
 30
0.0
 11
193.0415301724
 21
78.2094827586
 31
0.0
  0
LINE
  5
DC
330
1F
100
AcDbEntity
  8
0
  6
HIDDEN
 62
     7
370
     0
100
AcDbLine
 10
204.8699572972
 20
78.2094827586
 30
0.0
 11
193.2131030477
 21
78.2094827586
 31
0.0
  0
LINE
  5
DD
330
1F
100
AcDbEntity
  8
0
  6
HIDDEN
 62
     7
370
     0
100
AcDbLine
 10
194.0415301724
 20
66.387206599
 30
0.0
 11
194.0415301724
 21
76.2094827586
 31
0.0
  0
LINE
  5
DE
330
1F
100
AcDbEntity
  8
0
  6
HIDDEN
 62
     7
370
     0
100
AcDbLine
 10
204.0415301724
 20
76.2094827586
 30
0.0
 11
204.0415301724
 21
66.387206599
 31
0.0
  0
LINE
  5
DF
330
1F
100
AcDbEntity
  8
0
  6
HIDDEN
 62
     7
370
     0
100
AcDbLine
 10
193.2131030477
 20
148.4094827586
 30
0.0
 11
204.8699572972
 21
148.4094827586
 31
0.0
  0
LINE
  5
E0
330
1F
100
AcDbEntity
  8
0
  6
HIDDEN
 62
     7
370
     0
100
AcDbLine
 10
194.0415301724
 20
160.2317589182
 30
0.0
 11
194.0415301724
 21
150.4094827586
 31
0.0
  0
LINE
  5
E1
330
1F
100
AcDbEntity
  8
0
  6
HIDDEN
 62
     7
370
     0
100
AcDbLine
 10
204.0415301724
 20
160.2317589182
 30
0.0
 11
204.0415301724
 21
150.4094827586
 31
0.0
  0
LINE
  5
E2
330
1F
100
AcDbEntity
  8
0
  6
HIDDEN
 62
     7
370
     0
100
AcDbLine
 10
76.4849058454
 20
102.8094827586
 30
0.0
 11
76.4849058454
 21
123.8094827586
 31
0.0
  0
LINE
  5
E3
330
1F
100
AcDbEntity
  8
0
  6
HIDDEN
 62
     7
370
     0
100
AcDbLine
 10
166.7969090413
 20
109.0594827586
 30
0.0
 11
166.7969090413
 21
117.5594827586
 31
0.0
  0
LINE
  5
E4
330
1F
100
AcDbEntity
  8
0
  6
HIDDEN
 62
     7
370
     0
100
AcDbLine
 10
163.0415301724
 20
102.8094827586
 30
0.0
 11
163.0415301724
 21
123.8094827586
 31
0.0
  0
LINE
  5
E5
330
1F
100
AcDbEntity
  8
0
  6
HIDDEN
 62
     7
370
     0
100
AcDbLine
 10
212.2915301724
 20
136.5594827586
 30
0.0
 11
223.2915301724
 21
136.5594827586
 31
0.0
  0
LINE
  5
E6
330
1F
100
AcDbEntity
  8
0
  6
HIDDEN
 62
     7
370
     0
100
AcDbLine
 10
211.7915301724
 20
137.6094827586
 30
0.0
 11
214.8744622536
 21
137.6094827586
 31
0.0
  0
LINE
  5
E7
330
1F
100
AcDbEntity
  8
0
  6
HIDDEN
 62
     7
370
     0
100
AcDbLine
 10
220.7349043347
 20
137.6094827586
 30
0.0
 11
223.7915301724
 21
137.6094827586
 31
0.0
  0
LINE
  5
E8
330
1F
100
AcDbEntity
  8
0
  6
HIDDEN
 62
     7
370
     0
100
AcDbLine
 10
211.7915301724
 20
130.2065970757
 30
0.0
 11
223.7915301724
 21
130.2065970757
 31
0.0
  0
SPLINE
  5
E9
330
1F
100
AcDbEntity
  8
0
  6
HIDDEN
 62
     7
370
     0
100
AcDbSpline
210
0.0
220
0.0
230
1.0
 70
     8
 71
     3
 72
    15
 73
    11
 74
     0
 42
0.000000001
 43
0.00000001
 40
0.0
 40
0.0
 40
0.0
 40
0.0
 40
0.1077869592233301
 40
0.2161701819135347
 40
0.3273150562947936
 40
0.4399598612360049
 40
0.5934902695338469
 40
0.7521517812193724
 40
0.8755082115460595
 40
0.9999999999999999
 40
0.9999999999999999
 40
0.9999999999999999
 40
0.9999999999999999
 10
214.7915301724138
 20
138.1735843737584
 30
0.0
 10
214.8930942720045
 20
138.1174710857569
 30
0.0
 10
215.0967843106013
 20
138.0049340983286
 30
0.0
 10
215.4179195428657
 20
137.8680637291771
 30
0.0
 10
215.7536849165443
 20
137.7647639001909
 30
0.0
 10
216.1448739389399
 20
137.7012992013043
 30
0.0
 10
216.591144949254
 20
137.7116823922019
 30
0.0
 10
217.0383868849807
 20
137.8196490590025
 30
0.0
 10
217.4401708365948
 20
137.9807951330875
 30
0.0
 10
217.6740532662093
 20
138.1091253392752
 30
0.0
 10
217.7915301724138
 20
138.1735843737584
 30
0.0
  0
SPLINE
  5
EA
330
1F
100
AcDbEntity
  8
0
  6
HIDDEN
 62
     7
370
     0
100
AcDbSpline
210
0.0
220
0.0
230
1.0
 70
     8
 71
     3
 72
    11
 73
     7
 74
     0
 42
0.000000001
 43
0.00000001
 40
0.0
 40
0.0
 40
0.0
 40
0.0
 40
0.2164553779443405
 40
0.4403112895790667
 40
0.7519005688038801
 40
0.9999999999999999
 40
0.9999999999999999
 40
0.9999999999999999
 40
0.9999999999999999
 10
217.7915301724138
 20
138.1735843737584
 30
0.0
 10
217.9970330791443
 20
138.0649262034934
 30
0.0
 10
218.4150649651343
 20
137.8438948781134
 30
0.0
 10
219.1908204961415
 20
137.659664953696
 30
0.0
 10
220.022957457396
 20
137.7707408577953
 30
0.0
 10
220.5554751431247
 20
138.0498573195689
 30
0.0
 10
220.7915301724138
 20
138.1735843737584
 30
0.0
  0
LINE
  5
EB
330
1F
100
AcDbEntity
  8
0
  6
HIDDEN
 62
     7
370
     0
100
AcDbLine
 10
217.7915301724
 20
131.3094827586
 30
0.0
 11
217.7915301724
 21
138.1735843738
 31
0.0
  0
LINE
  5
EC
330
1F
100
AcDbEntity
  8
0
  6
HIDDEN
 62
     7
370
     0
100
AcDbLine
 10
214.2717282688
 20
121.8094827586
 30
0.0
 11
221.311331652
 21
121.8094827586
 31
0.0
  0
LINE
  5
ED
330
1F
100
AcDbEntity
  8
0
  6
HIDDEN
 62
     7
370
     0
100
AcDbLine
 10
219.2915301724
 20
131.3094827586
 30
0.0
 11
217.7915301724
 21
131.3094827586
 31
0.0
  0
LINE
  5
EE
330
1F
100
AcDbEntity
  8
0
  6
HIDDEN
 62
     7
370
     0
100
AcDbLine
 10
217.7915301724
 20
131.3094827586
 30
0.0
 11
216.2915301724
 21
131.3094827586
 31
0.0
  0
LINE
  5
EF
330
1F
100
AcDbEntity
  8
0
  6
HIDDEN
 62
     7
370
     0
100
AcDbLine
 10
214.7915301724
 20
130.3094827586
 30
0.0
 11
220.7915301724
 21
130.3094827586
 31
0.0
  0
LINE
  5
F0
330
1F
100
AcDbEntity
  8
0
  6
HIDDEN
 62
     7
370
     0
100
AcDbLine
 10
216.2915301724
 20
131.3094827586
 30
0.0
 11
214.7915301724
 21
131.3094827586
 31
0.0
  0
LINE
  5
F1
330
1F
100
AcDbEntity
  8
0
  6
HIDDEN
 62
     7
370
     0
100
AcDbLine
 10
220.7915301724
 20
131.3094827586
 30
0.0
 11
219.2915301724
 21
131.3094827586
 31
0.0
  0
LINE
  5
F2
330
1F
100
AcDbEntity
  8
0
  6
HIDDEN
 62
     7
370
     0
100
AcDbLine
 10
214.7915301724
 20
131.3094827586
 30
0.0
 11
214.7915301724
 21
138.1735843738
 31
0.0
  0
LINE
  5
F3
330
1F
100
AcDbEntity
  8
0
  6
HIDDEN
 62
     7
370
     0
100
AcDbLine
 10
220.7915301724
 20
131.3094827586
 30
0.0
 11
220.7915301724
 21
138.1735843738
 31
0.0
  0
ARC
  5
F4
330
1F
100
AcDbEntity
  8
0
  6
HIDDEN
 62
     7
370
     0
100
AcDbCircle
 10
230.8415301724
 20
128.3094827586
 30
0.0
 40
1.0
100
AcDbArc
 50
270.0
 51
0.0
  0
ARC
  5
F5
330
1F
100
AcDbEntity
  8
0
  6
HIDDEN
 62
     7
370
     0
100
AcDbCircle
 10
230.8415301724
 20
98.3094827586
 30
0.0
 40
1.0
100
AcDbArc
 50
0.0
 51
90.0
  0
LINE
  5
F6
330
1F
100
AcDbEntity
  8
0
  6
HIDDEN
 62
     7
370
     0
100
AcDbLine
 10
206.2098776748
 20
127.8094827586
 30
0.0
 11
204.3415301724
 21
127.8094827586
 31
0.0
  0
LINE
  5
F7
330
1F
100
AcDbEntity
  8
0
  6
HIDDEN
 62
     7
370
     0
100
AcDbLine
 10
204.3415301724
 20
98.8094827586
 30
0.0
 11
206.2098776748
 21
98.8094827586
 31
0.0
  0
ARC
  5
F8
330
1F
100
AcDbEntity
  8
0
  6
HIDDEN
 62
     7
370
     0
100
AcDbCircle
 10
206.2098776748
 20
126.8094827586
 30
0.0
 40
1.000000000000017
100
AcDbArc
 50
75.0
 51
90.0
  0
ARC
  5
F9
330
1F
100
AcDbEntity
  8
0
  6
HIDDEN
 62
     7
370
     0
100
AcDbCircle
 10
206.2098776748
 20
99.8094827586
 30
0.0
 40
1.000000000000017
100
AcDbArc
 50
270.0
 51
285.0
  0
ARC
  5
FA
330
1F
100
AcDbEntity
  8
0
  6
HIDDEN
 62
     7
370
     0
100
AcDbCircle
 10
204.3415301724
 20
126.8094827586
 30
0.0
 40
1.000000000000014
100
AcDbArc
 50
90.0
 51
180.0
  0
ARC
  5
FB
330
1F
100
AcDbEntity
  8
0
  6
HIDDEN
 62
     7
370
     0
100
AcDbCircle
 10
204.3415301724
 20
99.8094827586
 30
0.0
 40
1.0
100
AcDbArc
 50
180.0
 51
270.0
  0
LINE
  5
FC
330
1F
100
AcDbEntity
  8
0
  6
HIDDEN
 62
     7
370
     0
100
AcDbLine
 10
206.4686967199
 20
98.8435569323
 30
0.0
 11
208.2075555762
 21
99.3094827586
 31
0.0
  0
LINE
  5
FD
330
1F
100
AcDbEntity
  8
0
  6
HIDDEN
 62
     7
370
     0
100
AcDbLine
 10
208.2075555762
 20
127.3094827586
 30
0.0
 11
206.4686967199
 21
127.7754085849
 31
0.0
  0
LINE
  5
FE
330
1F
100
AcDbEntity
  8
0
  6
HIDDEN
 62
     7
370
     0
100
AcDbLine
 10
212.2915301724
 20
127.3094827586
 30
0.0
 11
208.2075555762
 21
127.3094827586
 31
0.0
  0
LINE
  5
FF
330
1F
100
AcDbEntity
  8
0
  6
HIDDEN
 62
     7
370
     0
100
AcDbLine
 10
230.8415301724
 20
127.3094827586
 30
0.0
 11
223.2839149633
 21
127.3094827586
 31
0.0
  0
LINE
  5
100
330
1F
100
AcDbEntity
  8
0
  6
HIDDEN
 62
     7
370
     0
100
AcDbLine
 10
208.2075555762
 20
99.3094827586
 30
0.0
 11
230.8415301724
 21
99.3094827586
 31
0.0
  0
ARC
  5
101
330
1F
100
AcDbEntity
  8
0
  6
HIDDEN
 62
     7
370
     0
100
AcDbCircle
 10
64.0415301724
 20
99.3094827586
 30
0.0
 40
1.000000000000021
100
AcDbArc
 50
90.0
 51
180.0
  0
ARC
  5
102
330
1F
100
AcDbEntity
  8
0
  6
HIDDEN
 62
     7
370
     0
100
AcDbCircle
 10
64.0415301724
 20
127.3094827586
 30
0.0
 40
1.000000000000028
100
AcDbArc
 50
180.0
 51
270.0
  0
LINE
  5
103
330
1F
100
AcDbEntity
  8
0
  6
HIDDEN
 62
     7
370
     0
100
AcDbLine
 10
64.0415301724
 20
100.3094827586
 30
0.0
 11
74.8105900647
 21
100.3094827586
 31
0.0
  0
LINE
  5
104
330
1F
100
AcDbEntity
  8
0
  6
HIDDEN
 62
     7
370
     0
100
AcDbLine
 10
74.8105900647
 20
126.3094827586
 30
0.0
 11
64.0415301724
 21
126.3094827586
 31
0.0
  0
ARC
  5
105
330
1F
100
AcDbEntity
  8
0
  6
HIDDEN
 62
     7
370
     0
100
AcDbCircle
 10
74.8105900647
 20
100.7094827586
 30
0.0
 40
0.3999999999999998
100
AcDbArc
 50
270.0
 51
330.0
  0
ARC
  5
106
330
1F
100
AcDbEntity
  8
0
  6
HIDDEN
 62
     7
370
     0
100
AcDbCircle
 10
74.8105900647
 20
125.9094827586
 30
0.0
 40
0.4000000000000057
100
AcDbArc
 50
30.0
 51
90.0
  0
LINE
  5
107
330
1F
100
AcDbEntity
  8
0
  6
HIDDEN
 62
     7
370
     0
100
AcDbLine
 10
75.1570002263
 20
100.5094827586
 30
0.0
 11
76.4849058454
 21
102.8094827586
 31
0.0
  0
LINE
  5
108
330
1F
100
AcDbEntity
  8
0
  6
HIDDEN
 62
     7
370
     0
100
AcDbLine
 10
76.4849058454
 20
123.8094827586
 30
0.0
 11
75.1570002263
 21
126.1094827586
 31
0.0
  0
LINE
  5
109
330
1F
100
AcDbEntity
  8
0
  6
HIDDEN
 62
     7
370
     0
100
AcDbLine
 10
163.0415301724
 20
102.8094827586
 30
0.0
 11
166.7969090413
 21
109.0594827586
 31
0.0
  0
LINE
  5
10A
330
1F
100
AcDbEntity
  8
0
  6
HIDDEN
 62
     7
370
     0
100
AcDbLine
 10
166.7969090413
 20
117.5594827586
 30
0.0
 11
163.0415301724
 21
123.8094827586
 31
0.0
  0
LINE
  5
10B
330
1F
100
AcDbEntity
  8
0
  6
HIDDEN
 62
     7
370
     0
100
AcDbLine
 10
76.4849058454
 20
102.8094827586
 30
0.0
 11
163.0415301724
 21
102.8094827586
 31
0.0
  0
LINE
  5
10C
330
1F
100
AcDbEntity
  8
0
  6
HIDDEN
 62
     7
370
     0
100
AcDbLine
 10
163.0415301724
 20
123.8094827586
 30
0.0
 11
76.4849058454
 21
123.8094827586
 31
0.0
  0
LINE
  5
10D
330
1F
100
AcDbEntity
  8
0
  6
HIDDEN
 62
     7
370
     0
100
AcDbLine
 10
210.5415301724
 20
138.3094827586
 30
0.0
 11
212.2915301724
 21
136.5594827586
 31
0.0
  0
LINE
  5
10E
330
1F
100
AcDbEntity
  8
0
  6
HIDDEN
 62
     7
370
     0
100
AcDbLine
 10
223.2915301724
 20
136.5594827586
 30
0.0
 11
225.0415301724
 21
138.3094827586
 31
0.0
  0
LINE
  5
10F
330
1F
100
AcDbEntity
  8
0
  6
HIDDEN
 62
     7
370
     0
100
AcDbLine
 10
212.2915301724
 20
136.5594827586
 30
0.0
 11
212.2915301724
 21
127.3094827586
 31
0.0
  0
LINE
  5
110
330
1F
100
AcDbEntity
  8
0
  6
HIDDEN
 62
     7
370
     0
100
AcDbLine
 10
223.2915301724
 20
127.3065140632
 30
0.0
 11
223.2915301724
 21
136.5594827586
 31
0.0
  0
LINE
  5
111
330
1F
100
AcDbEntity
  8
0
  6
HIDDEN
 62
     7
370
     0
100
AcDbLine
 10
203.3415301724
 20
117.5594827586
 30
0.0
 11
166.7969090413
 21
117.5594827586
 31
0.0
  0
LINE
  5
112
330
1F
100
AcDbEntity
  8
0
  6
HIDDEN
 62
     7
370
     0
100
AcDbLine
 10
166.7969090413
 20
109.0594827586
 30
0.0
 11
203.3415301724
 21
109.0594827586
 31
0.0
  0
LINE
  5
113
330
1F
100
AcDbEntity
  8
0
  6
HIDDEN
 62
     7
370
     0
100
AcDbLine
 10
223.7915301724
 20
137.6094827586
 30
0.0
 11
223.4183187367
 21
137.9826941943
 31
0.0
  0
LINE
  5
114
330
1F
100
AcDbEntity
  8
0
  6
HIDDEN
 62
     7
370
     0
100
AcDbLine
 10
212.1656111304
 20
137.9835637166
 30
0.0
 11
211.7915301724
 21
137.6094827586
 31
0.0
  0
LINE
  5
115
330
1F
100
AcDbEntity
  8
0
  6
HIDDEN
 62
     7
370
     0
100
AcDbLine
 10
211.7915301724
 20
137.6094827586
 30
0.0
 11
211.7915301724
 21
130.2065970757
 31
0.0
  0
LINE
  5
116
330
1F
100
AcDbEntity
  8
0
  6
HIDDEN
 62
     7
370
     0
100
AcDbLine
 10
223.7915301724
 20
130.2065970757
 30
0.0
 11
223.7915301724
 21
137.6094827586
 31
0.0
  0
LINE
  5
117
330
1F
100
AcDbEntity
  8
0
  6
HIDDEN
 62
     7
370
     0
100
AcDbLine
 10
211.7915301724
 20
130.2065970757
 30
0.0
 11
213.9819505209
 21
122.0318370451
 31
0.0
  0
LINE
  5
118
330
1F
100
AcDbEntity
  8
0
  6
HIDDEN
 62
     7
370
     0
100
AcDbLine
 10
221.6011098239
 20
122.0318370451
 30
0.0
 11
223.7915301724
 21
130.2065970757
 31
0.0
  0
LINE
  5
119
330
1F
100
AcDbEntity
  8
0
  6
HIDDEN
 62
     7
370
     0
100
AcDbLine
 10
214.1915301724
 20
138.3094827586
 30
0.0
 11
214.7915301724
 21
137.7094827586
 31
0.0
  0
LINE
  5
11A
330
1F
100
AcDbEntity
  8
0
  6
HIDDEN
 62
     7
370
     0
100
AcDbLine
 10
220.7915301724
 20
137.7094827586
 30
0.0
 11
221.3915301724
 21
138.3094827586
 31
0.0
  0
ARC
  5
11B
330
1F
100
AcDbEntity
  8
0
  6
HIDDEN
 62
     7
370
     0
100
AcDbCircle
 10
214.2717282688
 20
122.1094827586
 30
0.0
 40
0.3000000000000241
100
AcDbArc
 50
195.0
 51
270.0
  0
ARC
  5
11C
330
1F
100
AcDbEntity
  8
0
  6
HIDDEN
 62
     7
370
     0
100
AcDbCircle
 10
221.311332076
 20
122.1094827586
 30
0.0
 40
0.3000000000000241
100
AcDbArc
 50
270.0
 51
345.0
  0
LINE
  5
11D
330
1F
100
AcDbEntity
  8
0
  6
HIDDEN
 62
     7
370
     0
100
AcDbLine
 10
214.7915301724
 20
131.3094827586
 30
0.0
 11
214.7915301724
 21
130.3094827586
 31
0.0
  0
LINE
  5
11E
330
1F
100
AcDbEntity
  8
0
  6
HIDDEN
 62
     7
370
     0
100
AcDbLine
 10
220.7915301724
 20
130.3094827586
 30
0.0
 11
220.7915301724
 21
131.3094827586
 31
0.0
  0
LINE
  5
11F
330
1F
100
AcDbEntity
  8
0
  6
HIDDEN
 62
     7
370
     0
100
AcDbLine
 10
214.7915301724
 20
130.3094827586
 30
0.0
 11
217.7915301724
 21
129.2175720558
 31
0.0
  0
LINE
  5
120
330
1F
100
AcDbEntity
  8
0
  6
HIDDEN
 62
     7
370
     0
100
AcDbLine
 10
217.7915301724
 20
129.2175720558
 30
0.0
 11
220.7915301724
 21
130.3094827586
 31
0.0
  0
DIMENSION
  5
121
330
1F
100
AcDbEntity
  8
VERMASSUNG
100
AcDbDimension
  2
_D
 10
53.0415301724
 20
161.9594827586
 30
0.0
 11
53.0415301724
 21
113.3094827586
 31
0.0
 70
   160
  1
SK 50 %%c<>
 71
     2
 42
-1.0
  3
SLDDIMSTYLE0
100
AcDbAlignedDimension
 13
204.4415301724
 23
64.6594827586
 33
0.0
 14
204.4415301724
 24
161.9594827586
 34
0.0
 50
90.0
100
AcDbRotatedDimension
  0
DIMENSION
  5
12F
330
1F
100
AcDbEntity
  8
VERMASSUNG
100
AcDbDimension
  2
_D_1
 10
241.8415301724
 20
99.3094827586
 30
0.0
 11
241.8415301724
 21
113.3094827586
 31
0.0
 70
   160
  1
%%c<>
 71
     2
 42
-1.0
  3
SLDDIMSTYLE1
100
AcDbAlignedDimension
 13
230.8415301724
 23
127.3094827586
 33
0.0
 14
230.8415301724
 24
99.3094827586
 34
0.0
 50
90.0
100
AcDbRotatedDimension
  0
DIMENSION
  5
13B
330
1F
100
AcDbEntity
  8
VERMASSUNG
100
AcDbDimension
  2
_D_2
 10
247.8415301724
 20
88.3094827586
 30
0.0
 11
247.8415301724
 21
113.3094827586
 31
0.0
 70
   160
  1
WH %%c<>
 71
     2
 42
-1.0
  3
SLDDIMSTYLE1
100
AcDbAlignedDimension
 13
231.3415301724
 23
138.3094827586
 33
0.0
 14
231.3415301724
 24
88.3094827586
 34
0.0
 50
90.0
100
AcDbRotatedDimension
  0
DIMENSION
  5
147
330
1F
100
AcDbEntity
  8
VERMASSUNG
100
AcDbDimension
  2
_D_3
 10
205.0415301724
 20
167.4370160553
 30
0.0
 11
218.4415301724
 21
167.4370160553
 31
0.0
 70
   160
  1
<>
 71
     2
 42
-1.0
  3
SLDDIMSTYLE1
100
AcDbAlignedDimension
 13
231.8415301724
 23
137.8094827586
 33
0.0
 14
205.0415301724
 24
159.3201336995
 34
0.0
100
AcDbRotatedDimension
  0
DIMENSION
  5
151
330
1F
100
AcDbEntity
  8
VERMASSUNG
100
AcDbDimension
  2
_D_4
 10
189.8415301724
 20
173.4370160553
 30
0.0
 11
210.8415301724
 21
173.4370160553
 31
0.0
 70
   160
  1
<>
 71
     2
 42
-1.0
  3
SLDDIMSTYLE1
100
AcDbAlignedDimension
 13
231.8415301724
 23
137.8094827586
 33
0.0
 14
189.8415301724
 24
148.2344827586
 34
0.0
100
AcDbRotatedDimension
  0
DIMENSION
  5
15B
330
1F
100
AcDbEntity
  8
VERMASSUNG
100
AcDbDimension
  2
_D_5
 10
63.0415301724
 20
179.4370160553
 30
0.0
 11
147.4415301724
 21
179.4370160553
 31
0.0
 70
   160
  1
<>
 71
     2
 42
-1.0
  3
SLDDIMSTYLE1
100
AcDbAlignedDimension
 13
231.8415301724
 23
137.8094827586
 33
0.0
 14
63.0415301724
 24
130.1344827586
 34
0.0
100
AcDbRotatedDimension
  0
LINE
  5
165
330
1F
100
AcDbEntity
  8
VERMASSUNG
  6
CENTERX2
370
     0
100
AcDbLine
 10
61.0415301724
 20
113.3094827586
 30
0.0
 11
235.6158176185
 21
113.3094827586
 31
0.0
  0
LINE
  5
166
330
1F
100
AcDbEntity
  8
0
  6
Continuous
 62
     7
370
    15
100
AcDbLine
 10
286.4998577667
 20
51.7713849824
 30
0.0
 11
286.4216621875
 21
52.038879807
 31
0.0
  0
LINE
  5
167
330
1F
100
AcDbEntity
  8
0
  6
Continuous
 62
     7
370
    15
100
AcDbLine
 10
282.0682258073
 20
57.8496098017
 30
0.0
 11
278.2498491889
 21
60.0539117036
 31
0.0
  0
SPLINE
  5
168
330
1F
100
AcDbEntity
  8
0
  6
Continuous
 62
     7
370
    15
100
AcDbSpline
210
0.0
220
0.0
230
1.0
 70
     8
 71
     3
 72
    28
 73
    24
 74
     0
 42
0.000000001
 43
0.00000001
 40
0.0
 40
0.0
 40
0.0
 40
0.0
 40
0.0256402399014801
 40
0.0760177137993171
 40
0.1264444639819702
 40
0.1768972402812597
 40
0.2273591716783181
 40
0.2778173165045902
 40
0.328266768211114
 40
0.3787054215845073
 40
0.4291329827565065
 40
0.4795502759454775
 40
0.5299587866225715
 40
0.5803603750110827
 40
0.6307571049288571
 40
0.681151147278715
 40
0.73154472955254
 40
0.781939769948266
 40
0.8323381360130037
 40
0.8827421161777745
 40
0.9331539842729775
 40
0.9835759501242285
 40
1.0
 40
1.0
 40
1.0
 40
1.0
 10
270.8584850066884
 20
60.86122265513082
 30
0.0
 10
270.6361465526366
 20
60.81222639907671
 30
0.0
 10
269.9769615749751
 20
60.66696319622568
 30
0.0
 10
268.8529385813587
 20
60.27745400357451
 30
0.0
 10
267.4979050349315
 20
59.70508343570665
 30
0.0
 10
266.1329673138096
 20
58.99611192184705
 30
0.0
 10
264.7685935848107
 20
58.164163048125
 30
0.0
 10
263.4128391202714
 20
57.2122441465832
 30
0.0
 10
262.0742368449658
 20
56.14712141704654
 30
0.0
 10
260.7609743700082
 20
54.97537904898655
 30
0.0
 10
259.4811095847726
 20
53.7044392360227
 30
0.0
 10
258.242479143711
 20
52.34224472773531
 30
0.0
 10
257.0526743633785
 20
50.8972908517208
 30
0.0
 10
255.918994528033
 20
49.37855869799883
 30
0.0
 10
254.8484085868174
 20
47.79547013774361
 30
0.0
 10
253.8475011017459
 20
46.15782836236624
 30
0.0
 10
252.9224783725206
 20
44.47577378511269
 30
0.0
 10
252.0789652417163
 20
42.75968411297445
 30
0.0
 10
251.322582413638
 20
41.0202522746043
 30
0.0
 10
250.6566173915015
 20
39.26786877949726
 30
0.0
 10
250.0905720471349
 20
37.51459751825377
 30
0.0
 10
249.7166056987012
 20
36.15952019791644
 30
0.0
 10
249.5505806558836
 20
35.39698411331316
 30
0.0
 10
249.5097883430702
 20
35.20962918199244
 30
0.0
  0
LINE
  5
169
330
1F
100
AcDbEntity
  8
0
  6
Continuous
 62
     7
370
    15
100
AcDbLine
 10
279.4187369878
 20
21.0866959665
 30
0.0
 11
279.5954849519
 21
21.1887635666
 31
0.0
  0
LINE
  5
16A
330
1F
100
AcDbEntity
  8
0
  6
Continuous
 62
     7
370
    15
100
AcDbLine
 10
288.2561351934
 20
36.1910753432
 30
0.0
 11
288.2561351934
 21
36.3951773711
 31
0.0
  0
LINE
  5
16B
330
1F
100
AcDbEntity
  8
0
  6
Continuous
 62
     7
370
    15
100
AcDbLine
 10
285.6667925075
 20
42.118237452
 30
0.0
 11
277.4289985067
 21
46.8738147034
 31
0.0
  0
LINE
  5
16C
330
1F
100
AcDbEntity
  8
0
  6
Continuous
 62
     7
370
    15
100
AcDbLine
 10
264.9300143488
 20
25.2225931438
 30
0.0
 11
273.1678083496
 21
20.4670158925
 31
0.0
  0
SPLINE
  5
16D
330
1F
100
AcDbEntity
  8
0
  6
Continuous
 62
     7
370
    15
100
AcDbSpline
210
0.0
220
0.0
230
1.0
 70
     8
 71
     3
 72
    24
 73
    20
 74
     0
 42
0.000000001
 43
0.00000001
 40
0.0
 40
0.0
 40
0.0
 40
0.0
 40
0.0434357341606011
 40
0.109066789628836
 40
0.172961160513037
 40
0.2347177524555219
 40
0.2953266732051061
 40
0.3555470956668386
 40
0.4157151824665367
 40
0.4759634695425586
 40
0.5363429329599365
 40
0.5968413600121054
 40
0.6574212489155159
 40
0.7180359870290928
 40
0.7786304566961129
 40
0.8391424872231721
 40
0.8995216379332284
 40
0.9597227421137147
 40
1.0
 40
1.0
 40
1.0
 40
1.0
 10
275.8178679378727
 20
25.30770531195623
 30
0.0
 10
275.7105229603188
 20
25.36437632106315
 30
0.0
 10
275.4409805590949
 20
25.50667678283191
 30
0.0
 10
275.0960464570734
 20
25.87982725020269
 30
0.0
 10
274.7809774612278
 20
26.40836714680549
 30
0.0
 10
274.5634611899855
 20
27.04943968981618
 30
0.0
 10
274.4439996703901
 20
27.7795335736058
 30
0.0
 10
274.4253972535834
 20
28.5865335229482
 30
0.0
 10
274.5088426106563
 20
29.45467911221519
 30
0.0
 10
274.6940820318509
 20
30.36605958946751
 30
0.0
 10
274.9784030467212
 20
31.30092532972883
 30
0.0
 10
275.3565882237424
 20
32.23864347701033
 30
0.0
 10
275.8209084923413
 20
33.15822480319219
 30
0.0
 10
276.3613249959612
 20
34.03908121935379
 30
0.0
 10
276.9656767316037
 20
34.86128545652679
 30
0.0
 10
277.6200777499946
 20
35.60722305319058
 30
0.0
 10
278.3088269795392
 20
36.25814078737888
 30
0.0
 10
278.9390109417427
 20
36.74925572132984
 30
0.0
 10
279.3326936988902
 20
36.98943305098091
 30
0.0
 10
279.490503416414
 20
37.08570934416301
 30
0.0
  0
SPLINE
  5
16E
330
1F
100
AcDbEntity
  8
0
  6
Continuous
 62
     7
370
    15
100
AcDbSpline
210
0.0
220
0.0
230
1.0
 70
     8
 71
     3
 72
    13
 73
     9
 74
     0
 42
0.000000001
 43
0.00000001
 40
0.0
 40
0.0
 40
0.0
 40
0.0
 40
0.1009191402706424
 40
0.2935629524505187
 40
0.4861361852755752
 40
0.6795836501652512
 40
0.87611470480267
 40
1.0
 40
1.0
 40
1.0
 40
1.0
 10
279.490503416414
 20
37.08570934416301
 30
0.0
 10
279.6126211955585
 20
37.1530349310852
 30
0.0
 10
279.9678487143051
 20
37.34887784075866
 30
0.0
 10
280.5435295930958
 20
37.57903993222518
 30
0.0
 10
281.1926930461383
 20
37.73231299494012
 30
0.0
 10
281.7888214390586
 20
37.75322162242665
 30
0.0
 10
282.2653745251426
 20
37.68205425529422
 30
0.0
 10
282.5135555166722
 20
37.55637043984545
 30
0.0
 10
282.6095118416658
 20
37.50777623862437
 30
0.0
  0
LINE
  5
16F
330
1F
100
AcDbEntity
  8
0
  6
Continuous
 62
     7
370
    15
100
AcDbLine
 10
264.7484427548
 20
58.1290133764
 30
0.0
 11
234.0152509658
 21
69.2040374756
 31
0.0
  0
LINE
  5
170
330
1F
100
AcDbEntity
  8
0
  6
Continuous
 62
     7
370
    15
100
AcDbLine
 10
223.882120207
 20
51.6510382576
 30
0.0
 11
253.3562855722
 21
26.7632966826
 31
0.0
  0
SPLINE
  5
171
330
1F
100
AcDbEntity
  8
0
  6
Continuous
 62
     7
370
    15
100
AcDbSpline
210
0.0
220
0.0
230
1.0
 70
     8
 71
     3
 72
    15
 73
    11
 74
     0
 42
0.000000001
 43
0.00000001
 40
0.0
 40
0.0
 40
0.0
 40
0.0
 40
0.0743127156464604
 40
0.220320978717282
 40
0.3664720584916838
 40
0.5126985693623769
 40
0.6589516143130904
 40
0.8051936847035313
 40
0.9514105599577891
 40
1.0
 40
1.0
 40
1.0
 40
1.0
 10
265.1365668180853
 20
14.90902169526977
 30
0.0
 10
265.3589054582158
 20
14.95801727486233
 30
0.0
 10
266.0180909875573
 20
15.10327847215206
 30
0.0
 10
267.1421067370259
 20
15.49281400003394
 30
0.0
 10
268.4971706904506
 20
16.06507402693232
 30
0.0
 10
269.861995368293
 20
16.77445649599106
 30
0.0
 10
271.2267909454296
 20
17.60487179172209
 30
0.0
 10
272.5809712421427
 20
18.56251339040746
 30
0.0
 10
273.6263080021864
 20
19.37405060756428
 30
0.0
 10
274.2077612033401
 20
19.89910817098516
 30
0.0
 10
274.3527897944912
 20
20.03007031642549
 30
0.0
  0
LINE
  5
172
330
1F
100
AcDbEntity
  8
0
  6
Continuous
 62
     7
370
    15
100
AcDbLine
 10
253.9268260175
 20
17.9206345488
 30
0.0
 11
257.7452026359
 21
15.7163326468
 31
0.0
  0
LINE
  5
173
330
1F
100
AcDbEntity
  8
0
  6
Continuous
 62
     7
370
    15
100
AcDbLine
 10
249.4950626918
 20
23.9993087515
 30
0.0
 11
249.5733896373
 21
23.7313645434
 31
0.0
  0
SPLINE
  5
174
330
1F
100
AcDbEntity
  8
0
  6
Continuous
 62
     7
370
    15
100
AcDbSpline
210
0.0
220
0.0
230
1.0
 70
     8
 71
     3
 72
    26
 73
    22
 74
     0
 42
0.000000001
 43
0.00000001
 40
0.0
 40
0.0
 40
0.0
 40
0.0
 40
0.0329399348343297
 40
0.0839142647145175
 40
0.1357833718024777
 40
0.1890083880800064
 40
0.2436288964560779
 40
0.2993115101341666
 40
0.3555724225536883
 40
0.4119832336739701
 40
0.468299452257003
 40
0.5244683383924957
 40
0.5805044271948537
 40
0.6364536930087709
 40
0.6923755253907045
 40
0.7483316374026957
 40
0.8043711751828934
 40
0.8605630944524992
 40
0.9169736050826762
 40
0.9736558485868432
 40
1.0
 40
1.0
 40
1.0
 40
1.0
 10
234.0324958627023
 20
69.1797695975252
 30
0.0
 10
233.8700217964407
 20
69.2400547729334
 30
0.0
 10
233.4561201942033
 20
69.39363085597697
 30
0.0
 10
232.7323301029833
 20
69.48299799032867
 30
0.0
 10
231.8833099772827
 20
69.46727138709987
 30
0.0
 10
230.9992647489375
 20
69.30744227727453
 30
0.0
 10
230.0915856432932
 20
69.0099372301414
 30
0.0
 10
229.1722216978148
 20
68.57445534915787
 30
0.0
 10
228.2572529822346
 20
68.00800852437374
 30
0.0
 10
227.3628178299718
 20
67.32115471635538
 30
0.0
 10
226.5033430420642
 20
66.5269478789178
 30
0.0
 10
225.6910658762208
 20
65.63904728001727
 30
0.0
 10
224.9366738898557
 20
64.6712484048704
 30
0.0
 10
224.250011708288
 20
63.63773327984917
 30
0.0
 10
223.6402436450259
 20
62.55310499867253
 30
0.0
 10
223.1158371329484
 20
61.43238373426548
 30
0.0
 10
222.6846393210427
 20
60.29083246213371
 30
0.0
 10
222.353066790349
 20
59.14334393859459
 30
0.0
 10
222.1291810794905
 20
58.00558372330739
 30
0.0
 10
222.0328192410659
 20
57.08994874546086
 30
0.0
 10
222.0246512167354
 20
56.56362288874786
 30
0.0
 10
222.0220595147843
 20
56.39662047854188
 30
0.0
  0
SPLINE
  5
175
330
1F
100
AcDbEntity
  8
0
  6
Continuous
 62
     7
370
    15
100
AcDbSpline
210
0.0
220
0.0
230
1.0
 70
     8
 71
     3
 72
    13
 73
     9
 74
     0
 42
0.000000001
 43
0.00000001
 40
0.0
 40
0.0
 40
0.0
 40
0.0
 40
0.1003982494422305
 40
0.2890081388747089
 40
0.4775351729046403
 40
0.6638055063323811
 40
0.845738163272003
 40
1.0
 40
1.0
 40
1.0
 40
1.0
 10
222.0220595147843
 20
56.39662047854188
 30
0.0
 10
222.025472624432
 20
56.20669495606963
 30
0.0
 10
222.0352976609495
 20
55.6599720592118
 30
0.0
 10
222.1453681783571
 20
54.79903778519724
 30
0.0
 10
222.3935220538666
 20
53.84940287090046
 30
0.0
 10
222.7701346480517
 20
52.99706533176603
 30
0.0
 10
223.232340076163
 20
52.27659558512915
 30
0.0
 10
223.6205520329871
 20
51.90547015932617
 30
0.0
 10
223.7986819269249
 20
51.73518036898406
 30
0.0
  0
LINE
  5
176
330
1F
100
AcDbEntity
  8
0
  6
Continuous
 62
     7
370
    15
100
AcDbLine
 10
220.2221653993
 20
56.2278966511
 30
0.0
 11
222.1257713801
 21
55.1289683097
 31
0.0
  0
LINE
  5
177
330
1F
100
AcDbEntity
  8
0
  6
Continuous
 62
     7
370
    15
100
AcDbLine
 10
230.110330843
 20
68.994288423
 30
0.0
 11
228.2215152604
 21
70.0846784492
 31
0.0
  0
LINE
  5
178
330
1F
100
AcDbEntity
  8
0
  6
Continuous
 62
     7
370
    15
100
AcDbLine
 10
217.7673798548
 20
55.5550628192
 30
0.0
 11
218.8386550864
 21
54.9366287916
 31
0.0
  0
LINE
  5
179
330
1F
100
AcDbEntity
  8
0
  6
Continuous
 62
     7
370
    15
100
AcDbLine
 10
228.6478578536
 20
71.9285074716
 30
0.0
 11
227.5765826219
 21
72.5469414991
 31
0.0
  0
LINE
  5
17A
330
1F
100
AcDbEntity
  8
0
  6
Continuous
 62
     7
370
    15
100
AcDbLine
 10
215.729071364
 20
58.2299366306
 30
0.0
 11
215.9779780983
 21
58.0862458314
 31
0.0
  0
LINE
  5
17B
330
1F
100
AcDbEntity
  8
0
  6
Continuous
 62
     7
370
    15
100
AcDbLine
 10
224.4897863099
 20
72.8307277135
 30
0.0
 11
224.2408795756
 21
72.9744185126
 31
0.0
  0
LINE
  5
17C
330
1F
100
AcDbEntity
  8
0
  6
Continuous
 62
     7
370
    15
100
AcDbLine
 10
276.7483170198
 20
45.2035931654
 30
0.0
 11
276.5007894325
 21
45.3465342488
 31
0.0
  0
LINE
  5
17D
330
1F
100
AcDbEntity
  8
0
  6
Continuous
 62
     7
370
    15
100
AcDbLine
 10
272.7525145395
 20
45.3465342488
 30
0.0
 11
272.5049869523
 21
45.2035931654
 31
0.0
  0
LINE
  5
17E
330
1F
100
AcDbEntity
  8
0
  6
Continuous
 62
     7
370
    15
100
AcDbLine
 10
271.626651986
 20
43.9791800154
 30
0.0
 11
271.626651986
 21
43.7546312922
 31
0.0
  0
LINE
  5
17F
330
1F
100
AcDbEntity
  8
0
  6
Continuous
 62
     7
370
    15
100
AcDbLine
 10
277.626651986
 20
43.7546312922
 30
0.0
 11
277.626651986
 21
43.9791800154
 31
0.0
  0
LINE
  5
180
330
1F
100
AcDbEntity
  8
0
  6
Continuous
 62
     7
370
    15
100
AcDbLine
 10
278.4650567044
 20
34.1145155975
 30
0.0
 11
281.0303631392
 21
34.6371775725
 31
0.0
  0
SPLINE
  5
181
330
1F
100
AcDbEntity
  8
0
  6
Continuous
 62
     7
370
    15
100
AcDbSpline
210
0.0
220
0.0
230
1.0
 70
     8
 71
     3
 72
    10
 73
     6
 74
     0
 42
0.000000001
 43
0.00000001
 40
0.0
 40
0.0
 40
0.0
 40
0.0
 40
0.2756344340442419
 40
0.6243289516673352
 40
0.9999999999999999
 40
0.9999999999999999
 40
0.9999999999999999
 40
0.9999999999999999
 10
286.3860678994868
 20
51.70592229436215
 30
0.0
 10
286.4071999016047
 20
51.71812113336376
 30
0.0
 10
286.4550651865596
 20
51.74575225424256
 30
0.0
 10
286.496305738502
 20
51.76955369264809
 30
0.0
 10
286.498278682656
 20
51.77068610810419
 30
0.0
 10
286.4993018925288
 20
51.77127340231243
 30
0.0
  0
SPLINE
  5
182
330
1F
100
AcDbEntity
  8
0
  6
Continuous
 62
     7
370
    15
100
AcDbSpline
210
0.0
220
0.0
230
1.0
 70
     8
 71
     3
 72
     8
 73
     4
 74
     0
 42
0.000000001
 43
0.00000001
 40
0.0
 40
0.0
 40
0.0
 40
0.0
 40
1.0
 40
1.0
 40
1.0
 40
1.0
 10
286.5025844478137
 20
51.77316539147449
 30
0.0
 10
286.4984149733339
 20
51.77075243865701
 30
0.0
 10
286.4830944544196
 20
51.76190158794179
 30
0.0
 10
286.456865278305
 20
51.74675294118284
 30
0.0
  0
LWPOLYLINE
  5
183
330
1F
100
AcDbEntity
  8
0
  6
Continuous
 62
     7
370
    15
100
AcDbPolyline
 90
       17
 70
   128
 43
0.0
 10
253.9842403566
 20
33.4865442945
 10
254.3274963733
 20
34.7774144882
 10
254.9180016999
 20
36.6443108973
 10
255.6188539587
 20
38.5113248999
 10
256.4249654786
 20
40.3649033501
 10
257.3304844838
 20
42.1915906338
 10
258.3288375737
 20
43.9781263473
 10
259.4127774401
 20
45.7115415574
 10
260.5744354785
 20
47.3792529469
 10
261.8053789071
 20
48.9691541597
 10
263.0966719837
 20
50.4697036845
 10
264.4389408719
 20
51.8700086372
 10
265.8224416885
 20
53.1599038355
 10
267.2371312368
 20
54.3300255907
 10
268.6727399131
 20
55.3718796809
 10
270.1188462559
 20
56.277903013
 10
270.2110955666
 20
56.3308681761
  0
SPLINE
  5
184
330
1F
100
AcDbEntity
  8
0
  6
Continuous
 62
     7
370
    15
100
AcDbSpline
210
0.0
220
0.0
230
1.0
 70
     8
 71
     3
 72
    14
 73
    10
 74
     0
 42
0.000000001
 43
0.00000001
 40
0.0
 40
0.0
 40
0.0
 40
0.0
 40
0.25
 40
0.25
 40
0.5
 40
0.5
 40
0.75
 40
0.75
 40
1.0
 40
1.0
 40
1.0
 40
1.0
 10
253.3565631648801
 20
32.63835526478356
 30
0.0
 10
253.3895641869955
 20
32.65741117624113
 30
0.0
 10
253.4257909673306
 20
32.67832905236777
 30
0.0
 10
253.5041537424219
 20
32.72357570764765
 30
0.0
 10
253.5465251909832
 20
32.74804041773259
 30
0.0
 10
253.6334430326465
 20
32.79822443728418
 30
0.0
 10
253.6792586878936
 20
32.82467658754488
 30
0.0
 10
253.7691462214406
 20
32.87657252339518
 30
0.0
 10
253.8142405070837
 20
32.90260658055657
 30
0.0
 10
253.8516246124102
 20
32.92418796518889
 30
0.0
  0
LWPOLYLINE
  5
185
330
1F
100
AcDbEntity
  8
0
  6
Continuous
 62
     7
370
    15
100
AcDbPolyline
 90
       14
 70
   128
 43
0.0
 10
274.8090177655
 20
58.6515570946
 10
274.8649050087
 20
58.6645113851
 10
276.2220294801
 20
58.903837715
 10
277.5350994324
 20
58.9888528036
 10
278.7949551224
 20
58.9189636009
 10
279.9928080203
 20
58.6946576414
 10
281.1203021168
 20
58.3174996438
 10
282.1695722131
 20
57.7901205953
 10
283.1332987869
 20
57.1161993988
 10
284.0047590527
 20
56.3004372088
 10
284.7778738583
 20
55.3485246378
 10
285.4472500918
 20
54.2671020591
 10
286.0082183034
 20
53.0637132846
 10
286.3387930703
 20
52.1389768356
  0
ELLIPSE
  5
186
330
1F
100
AcDbEntity
  8
0
  6
Continuous
 62
     7
370
    15
100
AcDbEllipse
 10
270.7729200285
 20
36.2829212557
 30
0.0
 11
-17.20107132423172
 21
29.79151542623313
 31
0.0
210
0.0
220
0.0
230
1.0
 40
0.5773346305
 41
1.294917495320743
 42
1.303452308812382
  0
ARC
  5
187
330
1F
100
AcDbEntity
  8
0
  6
Continuous
 62
     7
370
    15
100
AcDbCircle
 10
273.6165757366
 20
51.3696932531
 30
0.0
 40
9.842909782146691
100
AcDbArc
 50
61.918831464
 51
105.4730079856
  0
ELLIPSE
  5
188
330
1F
100
AcDbEntity
  8
0
  6
Continuous
 62
     7
370
    15
100
AcDbEllipse
 10
265.2221317962
 20
39.4873230947
 30
0.0
 11
24.32499995420585
 21
14.04480615329151
 31
0.0
210
0.0
220
0.0
230
1.0
 40
0.0000703729
 41
5.765049898292194
 42
5.773584711783796
  0
ELLIPSE
  5
189
330
1F
100
AcDbEntity
  8
0
  6
Continuous
 62
     7
370
    15
100
AcDbEllipse
 10
265.2221317962
 20
39.4873230947
 30
0.0
 11
24.32499994591274
 21
14.04480614850242
 31
0.0
210
0.0
220
0.0
230
1.0
 40
0.0000703729
 41
2.080315659308665
 42
2.088850472808672
  0
LINE
  5
18A
330
1F
100
AcDbEntity
  8
0
  6
Continuous
 62
     7
370
    15
100
AcDbLine
 10
253.1757630348
 20
32.5339550313
 30
0.0
 11
249.6402291288
 21
34.5749753109
 31
0.0
  0
LINE
  5
18B
330
1F
100
AcDbEntity
  8
0
  6
Continuous
 62
     7
370
    15
100
AcDbLine
 10
283.235677047
 20
49.8872403669
 30
0.0
 11
286.3860678995
 21
51.7059222944
 31
0.0
  0
ELLIPSE
  5
18C
330
1F
100
AcDbEntity
  8
0
  6
Continuous
 62
     7
370
    15
100
AcDbEllipse
 10
283.235677047
 20
48.7324772765
 30
0.0
 11
0.3250094736511642
 21
1.213179526238676
 31
0.0
210
0.0
220
0.0
230
1.0
 40
0.5176380889
 41
0.4775816977578891
 42
2.04837802455283
  0
LINE
  5
18D
330
1F
100
AcDbEntity
  8
0
  6
Continuous
 62
     7
370
    15
100
AcDbLine
 10
282.5285702658
 20
43.9298945899
 30
0.0
 11
282.5285702658
 21
48.3242732206
 31
0.0
  0
LINE
  5
18E
330
1F
100
AcDbEntity
  8
0
  6
Continuous
 62
     7
370
    15
100
AcDbLine
 10
257.0020154649
 20
23.433779648
 30
0.0
 11
253.8516246124
 21
21.6150977206
 31
0.0
  0
ELLIPSE
  5
18F
330
1F
100
AcDbEntity
  8
0
  6
Continuous
 62
     7
370
    15
100
AcDbEllipse
 10
257.0020154649
 20
24.5885427384
 30
0.0
 11
0.3250094736511642
 21
1.213179526238644
 31
0.0
210
0.0
220
0.0
230
1.0
 40
0.5176380889
 41
3.619174351347739
 42
5.189970678142613
  0
LINE
  5
190
330
1F
100
AcDbEntity
  8
0
  6
Continuous
 62
     7
370
    15
100
AcDbLine
 10
257.7091222461
 20
33.9963108581
 30
0.0
 11
257.7091222461
 21
24.9967467943
 31
0.0
  0
ELLIPSE
  5
191
330
1F
100
AcDbEntity
  8
0
  6
Continuous
 62
     7
370
    15
100
AcDbEllipse
 10
257.0020154649
 20
33.5881068022
 30
0.0
 11
0.3250094736511642
 21
1.213179526238648
 31
0.0
210
0.0
220
0.0
230
1.0
 40
0.5176380889
 41
5.189970678142615
 42
6.760767004937509
  0
LINE
  5
192
330
1F
100
AcDbEntity
  8
0
  6
Continuous
 62
     7
370
    15
100
AcDbLine
 10
253.8516246124
 20
32.9241879652
 30
0.0
 11
257.0020154649
 21
34.7428698926
 31
0.0
  0
SPLINE
  5
193
330
1F
100
AcDbEntity
  8
0
  6
Continuous
 62
     7
370
    15
100
AcDbSpline
210
0.0
220
0.0
230
1.0
 70
     8
 71
     3
 72
     9
 73
     5
 74
     0
 42
0.000000001
 43
0.00000001
 40
0.0
 40
0.0
 40
0.0
 40
0.0
 40
0.5421424191681787
 40
1.0
 40
1.0
 40
1.0
 40
1.0
 10
249.5381865464727
 20
34.84265716670487
 30
0.0
 10
249.5178471505881
 20
34.9105003939611
 30
0.0
 10
249.4803304480288
 20
35.03563951766282
 30
0.0
 10
249.4970155635994
 20
35.15548913398571
 30
0.0
 10
249.5046549702504
 20
35.21036318937894
 30
0.0
  0
LWPOLYLINE
  5
194
330
1F
100
AcDbEntity
  8
0
  6
Continuous
 62
     7
370
    15
100
AcDbPolyline
 90
       54
 70
   128
 43
0.0
 10
279.5940771238
 20
41.1932006039
 10
278.5695880493
 20
40.5315681858
 10
277.5594805556
 20
39.7388087084
 10
276.5779343378
 20
38.8260507769
 10
275.6387281533
 20
37.806107512
 10
274.7550463981
 20
36.6932966812
 10
273.939294027
 20
35.5032397094
 10
273.2029224152
 20
34.2526423877
 10
272.5562686058
 20
32.9590603614
 10
272.008410201
 20
31.6406526863
 10
271.5670379318
 20
30.3159269164
 10
271.2383476974
 20
29.0034792975
 10
271.0269535882
 20
27.7217337174
 10
270.935823114
 20
26.4886830743
 10
270.966235547
 20
25.3216366965
 10
271.1177639632
 20
24.2369773568
 10
271.388281236
 20
23.2499312947
 10
271.7739898956
 20
22.3743544734
 10
272.2694754381
 20
21.6225380722
 10
272.8677823326
 20
21.0050359453
 10
273.5605116617
 20
20.5305164689
 10
274.3379390242
 20
20.2056408565
 10
275.1891510439
 20
20.0349696494
 10
276.1021985702
 20
20.0208986972
 10
277.064264417
 20
20.1636255254
 10
278.0618432888
 20
20.461146562
 10
279.080931365
 20
20.909285264
 10
280.1072228827
 20
21.5017507462
 10
281.1263109589
 20
22.2302260921
 10
282.1238898307
 20
23.0844851045
 10
283.0859556775
 20
24.0525358595
 10
283.9990032038
 20
25.1207890465
 10
284.8502152235
 20
26.2742487324
 10
285.627642586
 20
27.4967228716
 10
286.3203719151
 20
28.771050607
 10
286.9186788095
 20
30.0793431704
 10
287.4141643521
 20
31.403235002
 10
287.7998730117
 20
32.7241415626
 10
288.0703902845
 20
34.0235202196
 10
288.2219187007
 20
35.2831305448
 10
288.2523311337
 20
36.4852903704
 10
288.1612006595
 20
37.6131240075
 10
287.9498065503
 20
38.6507991443
 10
287.6211163159
 20
39.5837490963
 10
287.1797440467
 20
40.3988772913
 10
286.6318856419
 20
41.0847411163
 10
285.9852318325
 20
41.6317125465
 10
285.2488602207
 20
42.032113302
 10
284.4331078496
 20
42.2803226339
 10
283.5494260944
 20
42.3728562274
 10
282.6102199099
 20
42.3084151135
 10
281.6286736921
 20
42.0879039042
 10
280.6185661984
 20
41.7144180937
 10
279.5940771238
 20
41.1932006039
  0
LWPOLYLINE
  5
195
330
1F
100
AcDbEntity
  8
0
  6
Continuous
 62
     7
370
    15
100
AcDbPolyline
 90
       29
 70
   128
 43
0.0
 10
279.4173004286
 20
41.4993868208
 10
278.3911743432
 20
40.83800238
 10
277.3789248529
 20
40.0475331076
 10
276.3942408955
 20
39.1386687446
 10
275.4504386322
 20
38.1237001224
 10
274.5602813696
 20
37.0163529503
 10
273.7358069577
 20
35.8316021992
 10
272.9881649984
 20
34.5854695908
 10
272.3274660668
 20
33.2948069306
 10
271.7626449824
 20
31.9770682172
 10
271.3013399814
 20
30.650073606
 10
270.9497894228
 20
29.3317684228
 10
270.7127474246
 20
28.0399804835
 10
270.5934195732
 20
26.7921790041
 10
270.5934195732
 20
25.605238359
 10
270.7127474246
 20
24.4952098841
 10
270.9497894228
 20
23.4771048105
 10
271.3013399814
 20
22.5646912627
 10
271.7626449824
 20
21.7703080686
 10
272.3274660668
 20
21.1046978983
 10
272.9881649984
 20
20.5768619874
 10
273.7358069577
 20
20.1939384111
 10
274.5602813696
 20
19.961105554
 10
275.4504386322
 20
19.8815120809
 10
276.3942408955
 20
19.9562343571
 10
277.3789248529
 20
20.184261892
 10
278.3911743432
 20
20.5625110043
 10
279.4173004286
 20
21.0858665237
 10
279.4187369878
 20
21.0866959665
  0
LWPOLYLINE
  5
196
330
1F
100
AcDbEntity
  8
0
  6
Continuous
 62
     7
370
    15
100
AcDbPolyline
 90
       15
 70
   128
 43
0.0
 10
288.2561351934
 20
36.3951773711
 10
288.2411812839
 20
36.9800149855
 10
288.1218534326
 20
38.0900434603
 10
287.8848114344
 20
39.1081485339
 10
287.5332608757
 20
40.0205620818
 10
287.0719558747
 20
40.8149452759
 10
286.5071347904
 20
41.4805554462
 10
285.8464358587
 20
42.0083913571
 10
285.0987938995
 20
42.3913149333
 10
284.2743194875
 20
42.6241477905
 10
283.3841622249
 20
42.7037412635
 10
282.4403599617
 20
42.6290189873
 10
281.4556760042
 20
42.4009914525
 10
280.4434265139
 20
42.0227423402
 10
279.4173004286
 20
41.4993868208
  0
SPLINE
  5
197
330
1F
100
AcDbEntity
  8
0
  6
Continuous
 62
     7
370
    15
100
AcDbSpline
210
0.0
220
0.0
230
1.0
 70
    11
 71
     3
 72
    95
 73
    91
 74
     0
 42
0.000000001
 43
0.00000001
 40
0.0
 40
0.0
 40
0.0
 40
0.0
 40
0.0312499999999995
 40
0.0312499999999995
 40
0.0468749999999992
 40
0.0468749999999992
 40
0.0624999999999988
 40
0.0624999999999988
 40
0.0937499999999984
 40
0.0937499999999984
 40
0.1093749999999983
 40
0.1093749999999983
 40
0.1249999999999981
 40
0.1249999999999981
 40
0.1562499999999981
 40
0.1562499999999981
 40
0.1718749999999981
 40
0.1718749999999981
 40
0.1874999999999981
 40
0.1874999999999981
 40
0.2187499999999984
 40
0.2187499999999984
 40
0.2343749999999987
 40
0.2343749999999987
 40
0.249999999999999
 40
0.249999999999999
 40
0.2812499999999993
 40
0.2812499999999993
 40
0.2968749999999993
 40
0.2968749999999993
 40
0.3124999999999993
 40
0.3124999999999993
 40
0.3437499999999991
 40
0.3437499999999991
 40
0.3593749999999989
 40
0.3593749999999989
 40
0.3749999999999987
 40
0.3906249999999986
 40
0.3906249999999986
 40
0.4062499999999984
 40
0.4062499999999984
 40
0.4374999999999979
 40
0.4374999999999979
 40
0.4531249999999977
 40
0.4531249999999977
 40
0.4687499999999974
 40
0.4687499999999974
 40
0.4999999999999973
 40
0.4999999999999973
 40
0.5312499999999972
 40
0.5312499999999972
 40
0.5468749999999973
 40
0.5468749999999973
 40
0.5624999999999974
 40
0.5624999999999974
 40
0.5937499999999977
 40
0.5937499999999977
 40
0.6249999999999978
 40
0.6249999999999978
 40
0.656249999999998
 40
0.656249999999998
 40
0.6874999999999982
 40
0.6874999999999982
 40
0.7187499999999984
 40
0.7187499999999984
 40
0.7499999999999987
 40
0.7499999999999987
 40
0.7656249999999988
 40
0.7656249999999988
 40
0.7812499999999989
 40
0.7812499999999989
 40
0.812499999999999
 40
0.812499999999999
 40
0.8281249999999991
 40
0.8281249999999991
 40
0.8437499999999992
 40
0.8437499999999992
 40
0.8749999999999993
 40
0.8749999999999993
 40
0.8906249999999994
 40
0.8906249999999994
 40
0.9062499999999996
 40
0.9062499999999996
 40
0.9218749999999997
 40
0.9218749999999997
 40
0.9374999999999998
 40
0.9374999999999998
 40
0.9687499999999999
 40
0.9687499999999999
 40
1.0
 40
1.0
 40
1.0
 40
1.0
 10
274.5938455459287
 20
46.0392360020828
 30
0.0
 10
274.8171237813186
 20
46.00260736019238
 30
0.0
 10
275.0345679230456
 20
45.95504697985746
 30
0.0
 10
275.353018112939
 20
45.87048973753534
 30
0.0
 10
275.457869801677
 20
45.84007496296008
 30
0.0
 10
275.6650203353103
 20
45.77505335603542
 30
0.0
 10
275.7677761744428
 20
45.74027575550156
 30
0.0
 10
276.0685525812549
 20
45.63117198964657
 30
0.0
 10
276.2582782923571
 20
45.55257058538303
 30
0.0
 10
276.5274482813393
 20
45.42712537097538
 30
0.0
 10
276.6145839783014
 20
45.38403736694035
 30
0.0
 10
276.7836023216662
 20
45.29534642563178
 30
0.0
 10
276.8657475412664
 20
45.24956804558703
 30
0.0
 10
277.0998759894233
 20
45.11087860758683
 30
0.0
 10
277.2409559467183
 20
45.0160425429468
 30
0.0
 10
277.4303714888226
 20
44.86986595221583
 30
0.0
 10
277.4897867118252
 20
44.82047638411161
 30
0.0
 10
277.6009337602467
 20
44.72017574912834
 30
0.0
 10
277.6527345672129
 20
44.66913944768535
 30
0.0
 10
277.7933686645123
 20
44.51638326840368
 30
0.0
 10
277.8686976451066
 20
44.41410864611353
 30
0.0
 10
277.9535281498946
 20
44.25843205058498
 30
0.0
 10
277.9770802121378
 20
44.20615692358882
 30
0.0
 10
278.014215727848
 20
44.10048037981049
 30
0.0
 10
278.0277322631762
 20
44.04703180519369
 30
0.0
 10
278.0518809657529
 20
43.88807094706812
 30
0.0
 10
278.0468024023238
 20
43.78274481276542
 30
0.0
 10
278.0054293370205
 20
43.6237530292299
 30
0.0
 10
277.98597129737
 20
43.57058907539384
 30
0.0
 10
277.934767237348
 20
43.46357556862832
 30
0.0
 10
277.9031701157821
 20
43.41019460917148
 30
0.0
 10
277.7919014553407
 20
43.25286047937281
 30
0.0
 10
277.6954270361032
 20
43.15052643860563
 30
0.0
 10
277.5147236440852
 20
42.99993080806831
 30
0.0
 10
277.4478684517617
 20
42.94987851175352
 30
0.0
 10
277.30511247064
 20
42.85339186000196
 30
0.0
 10
277.153027739457
 20
42.76011421451038
 30
0.0
 10
276.9826534177321
 20
42.6730806658675
 30
0.0
 10
276.803022789482
 20
42.58925640616991
 30
0.0
 10
276.7080268840128
 20
42.54876944208619
 30
0.0
 10
276.4164091304055
 20
42.43537852072286
 30
0.0
 10
276.2114928136639
 20
42.36946655725596
 30
0.0
 10
275.8891466509313
 20
42.28549854493738
 30
0.0
 10
275.7795050634432
 20
42.26014382031184
 30
0.0
 10
275.560106898042
 20
42.21562090125759
 30
0.0
 10
275.449768126922
 20
42.19629573865215
 30
0.0
 10
275.1168605134754
 20
42.14715319933401
 30
0.0
 10
274.8904138149508
 20
42.12612543901798
 30
0.0
 10
274.4470922734989
 20
42.11004289859461
 30
0.0
 10
274.2291109421074
 20
42.11460813163306
 30
0.0
 10
273.9071734021823
 20
42.14126544424546
 30
0.0
 10
273.800482276091
 20
42.15353981976993
 30
0.0
 10
273.5925157101507
 20
42.18446513696409
 30
0.0
 10
273.4907725670088
 20
42.20313814995022
 30
0.0
 10
273.1920218576206
 20
42.26880652810893
 30
0.0
 10
273.0014363452665
 20
42.32538885409033
 30
0.0
 10
272.6375965848515
 20
42.46579693355272
 30
0.0
 10
272.4686427089925
 20
42.54805222175818
 30
0.0
 10
272.1579593160067
 20
42.73484419860343
 30
0.0
 10
272.015692481616
 20
42.83964066122759
 30
0.0
 10
271.7592955768833
 20
43.07208670108249
 30
0.0
 10
271.6486890237007
 20
43.19649120386826
 30
0.0
 10
271.4618565865603
 20
43.46004992983633
 30
0.0
 10
271.385442121012
 20
43.59962393006089
 30
0.0
 10
271.270743116738
 20
43.89116508604931
 30
0.0
 10
271.2338437788383
 20
44.03929287826154
 30
0.0
 10
271.2096126827473
 20
44.26342961271852
 30
0.0
 10
271.2067589639214
 20
44.33846848739529
 30
0.0
 10
271.2120784873626
 20
44.48894729745288
 30
0.0
 10
271.220340378805
 20
44.56482439603274
 30
0.0
 10
271.2625169543785
 20
44.78941250464666
 30
0.0
 10
271.3130397716928
 20
44.93351156114429
 30
0.0
 10
271.4238381722516
 20
45.13932113535531
 30
0.0
 10
271.466650235707
 20
45.2061929873349
 30
0.0
 10
271.5648915720952
 20
45.33601563038344
 30
0.0
 10
271.6205308159678
 20
45.39901184961395
 30
0.0
 10
271.8019787823359
 20
45.57584487687946
 30
0.0
 10
271.9435270107201
 20
45.6796851500135
 30
0.0
 10
272.1876426246466
 20
45.81339187626066
 30
0.0
 10
272.2747993826579
 20
45.8543622221187
 30
0.0
 10
272.4549819220117
 20
45.92659260262909
 30
0.0
 10
272.5485115355737
 20
45.95818565256464
 30
0.0
 10
272.7422182342182
 20
46.01275825984474
 30
0.0
 10
272.842395865467
 20
46.03573686525134
 30
0.0
 10
273.0493950818973
 20
46.07328543362586
 30
0.0
 10
273.1557018203316
 20
46.08770714100292
 30
0.0
 10
273.4769363656577
 20
46.11819578114422
 30
0.0
 10
273.6963690849992
 20
46.12203259163553
 30
0.0
 10
274.1454937928802
 20
46.1008002986942
 30
0.0
 10
274.3705673105387
 20
46.07586464397322
 30
0.0
 10
274.5938455459287
 20
46.0392360020828
 30
0.0
  0
LINE
  5
198
330
1F
100
AcDbEntity
  8
0
  6
Continuous
 62
     7
370
    15
100
AcDbLine
 10
256.6484620743
 20
34.5387015146
 30
0.0
 11
253.1757630348
 21
32.5339550313
 31
0.0
  0
ARC
  5
199
330
1F
100
AcDbEntity
  8
0
  6
Continuous
 62
     7
370
    15
100
AcDbCircle
 10
268.0017564769
 20
31.76495072
 30
0.0
 40
14.83050260470911
100
AcDbArc
 50
176.9921570066
 51
191.4514724325
  0
LINE
  5
19A
330
1F
100
AcDbEntity
  8
0
  6
Continuous
 62
     7
370
    15
100
AcDbLine
 10
252.3969825525
 20
32.634597506
 30
0.0
 11
252.4005926157
 21
32.981451389
 31
0.0
  0
ARC
  5
19B
330
1F
100
AcDbEntity
  8
0
  6
Continuous
 62
     7
370
    15
100
AcDbCircle
 10
263.9760981344
 20
32.3180399114
 30
0.0
 40
11.58344190518446
100
AcDbArc
 50
178.4339997824
 51
204.8656155277
  0
LINE
  5
19C
330
1F
100
AcDbEntity
  8
0
  6
Continuous
 62
     7
370
    15
100
AcDbLine
 10
275.740808169
 20
25.3323356495
 30
0.0
 11
275.8219761501
 21
25.2876028179
 31
0.0
  0
LINE
  5
19D
330
1F
100
AcDbEntity
  8
0
  6
Continuous
 62
     7
370
    15
100
AcDbLine
 10
282.7402392975
 20
37.4570197229
 30
0.0
 11
282.5978398655
 21
37.5327930727
 31
0.0
  0
LINE
  5
19E
330
1F
100
AcDbEntity
  8
0
  6
Continuous
 62
     7
370
    15
100
AcDbLine
 10
223.882120207
 20
51.6510382576
 30
0.0
 11
223.8099398947
 21
51.7136863673
 31
0.0
  0
SPLINE
  5
19F
330
1F
100
AcDbEntity
  8
0
  6
Continuous
 62
     7
370
    15
100
AcDbSpline
210
0.0
220
0.0
230
1.0
 70
     8
 71
     3
 72
    21
 73
    17
 74
     0
 42
0.000000001
 43
0.00000001
 40
0.0
 40
0.0
 40
0.0
 40
0.0
 40
0.0424662643691567
 40
0.1198770515687501
 40
0.196392809978848
 40
0.2753947517993757
 40
0.3475145265937908
 40
0.4219212256601789
 40
0.4910804028588936
 40
0.5621379333748499
 40
0.6334729923456629
 40
0.706640891701966
 40
0.7824389023607474
 40
0.8603908808407382
 40
0.9365850974491439
 40
1.0
 40
1.0
 40
1.0
 40
1.0
 10
280.7416223797822
 20
37.6068008181457
 30
0.0
 10
280.7977480848746
 20
37.54030653431572
 30
0.0
 10
280.9561840609048
 20
37.35260133325493
 30
0.0
 10
281.1675737004117
 20
37.02127778749679
 30
0.0
 10
281.3654285961584
 20
36.6183229016716
 30
0.0
 10
281.4870321010592
 20
36.21811833581329
 30
0.0
 10
281.5328575336572
 20
35.82838706429369
 30
0.0
 10
281.5042501434883
 20
35.47228683357864
 30
0.0
 10
281.4071244301989
 20
35.14566655919815
 30
0.0
 10
281.2504145870037
 20
34.85929776880082
 30
0.0
 10
281.0356856592623
 20
34.61260443935876
 30
0.0
 10
280.7690061899149
 20
34.41467018285016
 30
0.0
 10
280.4555248986143
 20
34.27443216292039
 30
0.0
 10
280.1108154276438
 20
34.20918360164346
 30
0.0
 10
279.7709596590101
 20
34.21498834626976
 30
0.0
 10
279.5567901877617
 20
34.28522417372398
 30
0.0
 10
279.4595076017074
 20
34.31712752058564
 30
0.0
  0
ELLIPSE
  5
1A0
330
1F
100
AcDbEntity
  8
0
  6
Continuous
 62
     7
370
    15
100
AcDbEllipse
 10
256.9413552932
 20
33.5530770466
 30
0.0
 11
-7.507462981948265E-5
 21
1.066811201853405
 31
0.0
210
0.0
220
0.0
230
1.0
 40
0.7174342186
 41
5.104989972352354
 42
6.675786299147219
  0
LINE
  5
1A1
330
1F
100
AcDbEntity
  8
0
  6
Continuous
 62
     7
370
    15
100
AcDbLine
 10
253.466481559
 20
28.820533873
 30
0.0
 11
253.466481559
 21
27.4459711298
 31
0.0
  0
LINE
  5
1A2
330
1F
100
AcDbEntity
  8
0
  6
Continuous
 62
     7
370
    15
100
AcDbLine
 10
253.466481559
 20
32.701783263
 30
0.0
 11
253.466481559
 21
28.820533873
 31
0.0
  0
SPLINE
  5
1A3
330
1F
100
AcDbEntity
  8
0
  6
Continuous
 62
     7
370
    15
100
AcDbSpline
210
0.0
220
0.0
230
1.0
 70
     8
 71
     3
 72
    12
 73
     8
 74
     0
 42
0.000000001
 43
0.00000001
 40
0.0
 40
0.0
 40
0.0
 40
0.0
 40
0.25
 40
0.25
 40
0.5
 40
0.5
 40
1.0
 40
1.0
 40
1.0
 40
1.0
 10
253.8516246124102
 20
21.61509772057127
 30
0.0
 10
253.8141992176259
 20
21.59349250004233
 30
0.0
 10
253.7694597251047
 20
21.58819051971581
 30
0.0
 10
253.6797969749707
 20
21.59727548329496
 30
0.0
 10
253.633985047828
 20
21.61179365996561
 30
0.0
 10
253.5036410467146
 20
21.6732493658005
 30
0.0
 10
253.4225077580656
 20
21.73856637624084
 30
0.0
 10
253.3565631648801
 20
21.81918950729737
 30
0.0
  0
ELLIPSE
  5
1A4
330
1F
100
AcDbEntity
  8
0
  6
Continuous
 62
     7
370
    15
100
AcDbEllipse
 10
265.2221317962
 20
39.4873230947
 30
0.0
 11
-17.20107132423226
 21
29.79151542623331
 31
0.0
210
0.0
220
0.0
230
1.0
 40
0.5773346305
 41
1.838059080715296
 42
1.846593894206937
  0
LINE
  5
1A5
330
1F
100
AcDbEntity
  8
0
  6
Continuous
 62
     7
370
    15
100
AcDbLine
 10
253.1757630348
 20
22.0414055986
 30
0.0
 11
256.6484620743
 21
24.0461520819
 31
0.0
  0
LWPOLYLINE
  5
1A6
330
1F
100
AcDbEntity
  8
0
  6
Continuous
 62
     7
370
    15
100
AcDbPolyline
 90
       14
 70
   128
 43
0.0
 10
265.0044106776
 20
14.9143853539
 10
264.9485234345
 20
14.9014310633
 10
263.5913989631
 20
14.6621047335
 10
262.2783290108
 20
14.5770896448
 10
261.0184733208
 20
14.6469788476
 10
259.8206204228
 20
14.8712848071
 10
258.6931263263
 20
15.2484428047
 10
257.6438562301
 20
15.7758218531
 10
256.6801296563
 20
16.4497430497
 10
255.8086693905
 20
17.2655052397
 10
255.0355545849
 20
18.2174178106
 10
254.3661783514
 20
19.2988403894
 10
253.8052101398
 20
20.5022291638
 10
253.4746353729
 20
21.4269656129
  0
ARC
  5
1A7
330
1F
100
AcDbEntity
  8
0
  6
Continuous
 62
     7
370
    15
100
AcDbCircle
 10
259.1495002054
 20
26.278432801
 30
0.0
 40
9.855410559576722
100
AcDbArc
 50
195.5809878002
 51
237.9992988667
  0
ELLIPSE
  5
1A8
330
1F
100
AcDbEntity
  8
0
  6
Continuous
 62
     7
370
    15
100
AcDbEllipse
 10
270.7729200285
 20
36.2829212557
 30
0.0
 11
24.32500000803628
 21
14.04480618437196
 31
0.0
210
0.0
220
0.0
230
1.0
 40
0.0000703729
 41
2.623457243607126
 42
2.631992057112701
  0
LINE
  5
1A9
330
1F
100
AcDbEntity
  8
0
  6
Continuous
 62
     7
370
    15
100
AcDbLine
 10
249.6402291288
 20
24.0824258781
 30
0.0
 11
253.1757630348
 21
22.0414055986
 31
0.0
  0
LINE
  5
1AA
330
1F
100
AcDbEntity
  8
0
  6
Continuous
 62
     7
370
    15
100
AcDbLine
 10
249.6402291288
 20
24.0824258781
 30
0.0
 11
253.1129281684
 21
26.0871723615
 31
0.0
  0
ELLIPSE
  5
1AB
330
1F
100
AcDbEntity
  8
0
  6
Continuous
 62
     7
370
    15
100
AcDbEllipse
 10
256.9413552932
 20
24.6936092376
 30
0.0
 11
0.7293965376278492
 21
0.7294307619860909
 31
0.0
210
0.0
220
0.0
230
1.0
 40
0.3178881559
 41
4.011890258715329
 42
5.582686585510317
  0
ELLIPSE
  5
1AC
330
1F
100
AcDbEntity
  8
0
  6
Continuous
 62
     7
370
    15
100
AcDbEllipse
 10
252.8200349496
 20
27.0727968295
 30
0.0
 11
-7.507462979106096E-5
 21
1.066811201853405
 31
0.0
210
0.0
220
0.0
230
1.0
 40
0.7174342186
 41
3.534193645557432
 42
5.104989972352413
  0
SPLINE
  5
1AD
330
1F
100
AcDbEntity
  8
0
  6
Continuous
 62
     7
370
    15
100
AcDbSpline
210
0.0
220
0.0
230
1.0
 70
     8
 71
     3
 72
     9
 73
     5
 74
     0
 42
0.000000001
 43
0.00000001
 40
0.0
 40
0.0
 40
0.0
 40
0.0
 40
0.4632921174749133
 40
1.0
 40
1.0
 40
1.0
 40
1.0
 10
249.4980105558812
 20
24.00027614416408
 30
0.0
 10
249.497010326199
 20
23.99970180398214
 30
0.0
 10
249.4948513650503
 20
23.99846211057861
 30
0.0
 10
249.5230513775024
 20
24.01474972055622
 30
0.0
 10
249.5381865464728
 20
24.0234914092187
 30
0.0
  0
ELLIPSE
  5
1AE
330
1F
100
AcDbEntity
  8
0
  6
Continuous
 62
     7
370
    15
100
AcDbEllipse
 10
252.7593747778
 20
27.0377670739
 30
0.0
 11
0.3250094736511642
 21
1.213179526238665
 31
0.0
210
0.0
220
0.0
230
1.0
 40
0.5176380889
 41
3.619174351347704
 42
5.189970678142648
  0
LINE
  5
1AF
330
1F
100
AcDbEntity
  8
0
  6
Continuous
 62
     7
370
    15
100
AcDbLine
 10
286.3548226959
 20
51.6878184723
 30
0.0
 11
283.2280970701
 21
49.8827981894
 31
0.0
  0
ARC
  5
1B0
330
1F
100
AcDbEntity
  8
0
  6
Continuous
 62
     7
370
    15
100
AcDbCircle
 10
226.6299803904
 20
66.867116239
 30
0.0
 40
3.589664304423627
100
AcDbArc
 50
63.6811609425
 51
114.7524168627
  0
ARC
  5
1B1
330
1F
100
AcDbEntity
  8
0
  6
Continuous
 62
     7
370
    15
100
AcDbCircle
 10
222.1392568357
 20
59.1586161895
 30
0.0
 40
3.502050340649
100
AcDbArc
 50
186.8502661849
 51
236.8098251845
  0
LWPOLYLINE
  5
1B2
330
1F
100
AcDbEntity
  8
0
  6
Continuous
 62
     7
370
    15
100
AcDbPolyline
 90
       24
 70
   128
 43
0.0
 10
216.8065389466
 20
59.4280863431
 10
216.8658835266
 20
60.5078946766
 10
217.0429018645
 20
61.6377449839
 10
217.3345651273
 20
62.7983052128
 10
217.7358828759
 20
63.9697178561
 10
218.2399884521
 20
65.1319397187
 10
218.83825647
 20
66.2650848622
 10
219.5204503978
 20
67.3497648592
 10
220.2748977083
 20
68.3674205342
 10
221.0886895988
 20
69.3006395163
 10
221.9479018645
 20
70.1334541701
 10
222.8378331452
 20
70.8516148059
 10
223.74325647
 20
71.4428334962
 10
224.6486797949
 20
71.8969943252
 10
225.5386110756
 20
72.2063264753
 10
226.3978233412
 20
72.3655371876
 10
227.2116152317
 20
72.3719023226
 10
227.9660625422
 20
72.2253129712
 10
228.64825647
 20
71.9282773178
 10
229.2465244879
 20
71.4858777247
 10
229.7506300642
 20
70.9056837717
 10
230.1519478127
 20
70.1976227382
 10
230.4436110756
 20
69.3738097447
 10
230.5025247036
 20
69.1348351543
  0
LWPOLYLINE
  5
1B3
330
1F
100
AcDbEntity
  8
0
  6
Continuous
 62
     7
370
    15
100
AcDbPolyline
 90
       12
 70
   128
 43
0.0
 10
222.1754604156
 20
54.7245067759
 10
221.9479018645
 20
54.6588097879
 10
221.0886895988
 20
54.4995990756
 10
220.2748977083
 20
54.4932339406
 10
219.5204503978
 20
54.639823292
 10
218.83825647
 20
54.9368589454
 10
218.2399884521
 20
55.3792585385
 10
217.7358828759
 20
55.9594524915
 10
217.3345651273
 20
56.667513525
 10
217.0429018645
 20
57.4913265185
 10
216.8658835266
 20
58.4167958032
 10
216.8065389466
 20
59.4280863431
  0
LWPOLYLINE
  5
1B4
330
1F
100
AcDbEntity
  8
0
  6
Continuous
 62
     7
370
    15
100
AcDbPolyline
 90
       19
 70
   128
 43
0.0
 10
215.7352637149
 20
60.0465203706
 10
215.7946082949
 20
61.1263287042
 10
215.9716266328
 20
62.2561790114
 10
216.2632898956
 20
63.4167392403
 10
216.6646076442
 20
64.5881518836
 10
217.1687132205
 20
65.7503737462
 10
217.7669812383
 20
66.8835188898
 10
218.4491751661
 20
67.9681988867
 10
219.2036224766
 20
68.9858545617
 10
220.0174143671
 20
69.9190735438
 10
220.8766266328
 20
70.7518881976
 10
221.7665579135
 20
71.4700488334
 10
222.6719812383
 20
72.0612675237
 10
223.5774045632
 20
72.5154283528
 10
224.4673358439
 20
72.8247605028
 10
225.3265481095
 20
72.9839712151
 10
226.1403400001
 20
72.9903363502
 10
226.8947873105
 20
72.8437469987
 10
227.5765826219
 20
72.5469414991
  0
LWPOLYLINE
  5
1B5
330
1F
100
AcDbEntity
  8
0
  6
Continuous
 62
     7
370
    15
100
AcDbPolyline
 90
        8
 70
   128
 43
0.0
 10
217.7673798548
 20
55.5550628192
 10
217.7669812383
 20
55.5552929729
 10
217.1687132205
 20
55.997692566
 10
216.6646076442
 20
56.577886519
 10
216.2632898956
 20
57.2859475525
 10
215.9716266328
 20
58.109760546
 10
215.7946082949
 20
59.0352298307
 10
215.7352637149
 20
60.0465203706
  0
ARC
  5
1B6
330
1F
100
AcDbEntity
  8
0
  6
Continuous
 62
     7
370
    15
100
AcDbCircle
 10
229.944369406
 20
59.8527418324
 30
0.0
 40
14.13345586693867
100
AcDbArc
 50
135.1121153591
 51
164.8932611737
  0
LWPOLYLINE
  5
1B7
330
1F
100
AcDbEntity
  8
0
  6
Continuous
 62
     7
370
    15
100
AcDbPolyline
 90
       18
 70
   128
 43
0.0
 10
213.9670975763
 20
62.2763447287
 10
214.026996245
 20
63.1519118752
 10
214.2095507707
 20
64.2263635483
 10
214.5096762884
 20
65.3288228274
 10
214.9212631079
 20
66.4368468208
 10
215.4359325085
 20
67.5278793553
 10
216.0432073055
 20
68.5797101548
 10
216.7307251352
 20
69.5709269773
 10
217.4844901172
 20
70.4813515069
 10
218.2891577702
 20
71.2924501255
 10
219.1283473812
 20
71.9877112043
 10
219.9849754698
 20
72.5529812328
 10
220.8416035584
 20
72.9767529431
 10
221.6807931694
 20
73.2503995654
 10
222.4854608224
 20
73.3683504435
 10
223.2392258045
 20
73.3282044378
 10
223.9267436341
 20
73.1307788051
 10
224.2408795756
 20
72.9744185126
  0
ARC
  5
1B8
330
1F
100
AcDbEntity
  8
0
  6
Continuous
 62
     7
370
    15
100
AcDbCircle
 10
217.9652271104
 20
61.492900761
 30
0.0
 40
3.955670289442149
100
AcDbArc
 50
183.4776049602
 51
235.5766043458
  0
LWPOLYLINE
  5
1B9
330
1F
100
AcDbEntity
  8
0
  6
Continuous
 62
     7
370
    15
100
AcDbPolyline
 90
       14
 70
   128
 43
0.0
 10
213.965728995
 20
62.2089813568
 10
214.0262765123
 20
63.2215166061
 10
214.2066864914
 20
64.2833462332
 10
214.5032863055
 20
65.3728544488
 10
214.9100380375
 20
66.4678620076
 10
215.4186613953
 20
67.5460777135
 10
216.018802274
 20
68.585552204
 10
216.6982435359
 20
69.5651247761
 10
217.4431537164
 20
70.464854157
 10
218.2383685922
 20
71.2664244512
 10
219.0676998818
 20
71.953517999
 10
219.9142647917
 20
72.5121475572
 10
220.7608297016
 20
72.9309410389
 10
220.9966374558
 20
73.02231885
  0
LWPOLYLINE
  5
1BA
330
1F
100
AcDbEntity
  8
0
  6
Continuous
 62
     7
370
    15
100
AcDbPolyline
 90
       10
 70
   128
 43
0.0
 10
275.4902987017
 20
42.3206338904
 10
276.1527559911
 20
42.4881444682
 10
276.7265216629
 20
42.7423086124
 10
277.1782505418
 20
43.0683552266
 10
277.4816897873
 20
43.4473356669
 10
277.6192046135
 20
43.8572249675
 10
277.5828031584
 20
44.2742018522
 10
277.3746009423
 20
44.6740331401
 10
277.0066979213
 20
45.0334820901
 10
276.7483170198
 20
45.2035931654
  0
LWPOLYLINE
  5
1BB
330
1F
100
AcDbEntity
  8
0
  6
Continuous
 62
     7
370
    15
100
AcDbPolyline
 90
       12
 70
   128
 43
0.0
 10
272.5049869523
 20
45.2035931654
 10
272.0750534302
 20
44.8900048043
 10
271.7716141847
 20
44.511024364
 10
271.6340993586
 20
44.1011350634
 10
271.6705008136
 20
43.6841581787
 10
271.8787030297
 20
43.2843268908
 10
272.2466060507
 20
42.9248779408
 10
272.7528286903
 20
42.6267011951
 10
273.3679511288
 20
42.4071256025
 10
274.056224686
 20
42.2789120981
 10
274.7776494044
 20
42.2495119848
 10
275.4902987017
 20
42.3206338904
  0
LWPOLYLINE
  5
1BC
330
1F
100
AcDbEntity
  8
0
  6
Continuous
 62
     7
370
    15
100
AcDbPolyline
 90
       25
 70
   128
 43
0.0
 10
275.3895399182
 20
42.7999202225
 10
276.0203798457
 20
42.9638259754
 10
276.5562395228
 20
43.2164024955
 10
276.9606009981
 20
43.5404371105
 10
277.2059077052
 20
43.9138473969
 10
277.2754423975
 20
44.3111860607
 10
277.1644664006
 20
44.7053751286
 10
276.8805425453
 20
45.069551267
 10
276.443019773
 20
45.378896474
 10
275.8817145378
 20
45.6123293849
 10
275.2348788638
 20
45.7539419326
 10
274.5465935332
 20
45.7940834561
 10
273.8637640538
 20
45.7300183767
 10
273.2329241263
 20
45.5661126238
 10
272.6970644492
 20
45.3135361037
 10
272.2927029739
 20
44.9895014887
 10
272.0473962668
 20
44.6160912023
 10
271.9778615745
 20
44.2187525385
 10
272.0888375714
 20
43.8245634707
 10
272.3727614268
 20
43.4603873322
 10
272.810284199
 20
43.1510421252
 10
273.3715894342
 20
42.9176092143
 10
274.0184251082
 20
42.7759966666
 10
274.7067104388
 20
42.7358551431
 10
275.3895399182
 20
42.7999202225
  0
LWPOLYLINE
  5
1BD
330
1F
100
AcDbEntity
  8
0
  6
Continuous
 62
     7
370
    15
100
AcDbPolyline
 90
       21
 70
   128
 43
0.0
 10
275.1448400154
 20
43.2698416246
 10
275.6521611102
 20
43.4109870903
 10
276.0590982269
 20
43.6357262847
 10
276.325817525
 20
43.9220601696
 10
276.4262106613
 20
44.2419603894
 10
276.3504504563
 20
44.5641128815
 10
276.1059528466
 20
44.8569831157
 10
275.7166509618
 20
45.0919029127
 10
275.2206523827
 20
45.245876686
 10
274.6665089062
 20
45.30383241
 10
274.1084639566
 20
45.2600969746
 10
273.6011428618
 20
45.1189515089
 10
273.1942057452
 20
44.8942123145
 10
272.9274864471
 20
44.6078784296
 10
272.8270933107
 20
44.2879782099
 10
272.9028535157
 20
43.9658257177
 10
273.1473511254
 20
43.6729554836
 10
273.5366530103
 20
43.4380356865
 10
274.0326515893
 20
43.2840619132
 10
274.5867950659
 20
43.2261061892
 10
275.1448400154
 20
43.2698416246
  0
SPLINE
  5
1BE
330
1F
100
AcDbEntity
  8
0
  6
Continuous
 62
     7
370
    15
100
AcDbSpline
210
0.0
220
0.0
230
1.0
 70
     8
 71
     3
 72
    15
 73
    11
 74
     0
 42
0.000000001
 43
0.00000001
 40
0.0
 40
0.0
 40
0.0
 40
0.0
 40
0.1077869592233298
 40
0.2161701819135343
 40
0.3273150562947931
 40
0.4399598612360042
 40
0.5934902695338465
 40
0.7521517812193722
 40
0.8755082115460593
 40
1.0
 40
1.0
 40
1.0
 40
1.0
 10
275.8878382695661
 20
43.52413847130222
 30
0.0
 10
275.9012968523201
 20
43.53417642244982
 30
0.0
 10
275.9282884689607
 20
43.55430785338775
 30
0.0
 10
275.9708431227808
 20
43.60260385014079
 30
0.0
 10
276.0153364632993
 20
43.66935171593136
 30
0.0
 10
276.0671741682714
 20
43.77034249196947
 30
0.0
 10
276.1263109631349
 20
43.91935174685683
 30
0.0
 10
276.1855764184214
 20
44.1085164148105
 30
0.0
 10
276.2388180912545
 20
44.30464611235172
 30
0.0
 10
276.2698105979211
 20
44.43291088761573
 30
0.0
 10
276.28537783743
 20
44.49733705677207
 30
0.0
  0
SPLINE
  5
1BF
330
1F
100
AcDbEntity
  8
0
  6
Continuous
 62
     7
370
    15
100
AcDbSpline
210
0.0
220
0.0
230
1.0
 70
     8
 71
     3
 72
    11
 73
     7
 74
     0
 42
0.000000001
 43
0.00000001
 40
0.0
 40
0.0
 40
0.0
 40
0.0
 40
0.2164553779443407
 40
0.4403112895790663
 40
0.7519005688038797
 40
0.9999999999999999
 40
0.9999999999999999
 40
0.9999999999999999
 40
0.9999999999999999
 10
276.2853778374299
 20
44.49733705677207
 30
0.0
 10
276.1989853550303
 20
44.49992211198813
 30
0.0
 10
276.0232466614642
 20
44.50518060455425
 30
0.0
 10
275.6971225830985
 20
44.60718569334738
 30
0.0
 10
275.3472960092412
 20
44.84263570412504
 30
0.0
 10
275.123428008911
 20
45.07824392383847
 30
0.0
 10
275.0241915538766
 20
45.18268459631884
 30
0.0
  0
SPLINE
  5
1C0
330
1F
100
AcDbEntity
  8
0
  6
Continuous
 62
     7
370
    15
100
AcDbSpline
210
0.0
220
0.0
230
1.0
 70
     8
 71
     3
 72
    13
 73
     9
 74
     0
 42
0.000000001
 43
0.00000001
 40
0.0
 40
0.0
 40
0.0
 40
0.0
 40
0.1844095697098906
 40
0.3495005370884481
 40
0.5197705331556598
 40
0.6927076360809765
 40
0.8718061725834241
 40
1.0
 40
1.0
 40
1.0
 40
1.0
 10
275.0241915538766
 20
45.18268459631884
 30
0.0
 10
274.9275166250517
 20
45.12765811875698
 30
0.0
 10
274.7442943573546
 20
45.02336969439698
 30
0.0
 10
274.4530446186346
 20
44.90616749258203
 30
0.0
 10
274.1587306414451
 20
44.83430028942399
 30
0.0
 10
273.857923683403
 20
44.81610473404591
 30
0.0
 10
273.5926608267728
 20
44.84245347097468
 30
0.0
 10
273.4323450045718
 20
44.87941445561168
 30
0.0
 10
273.3654657024595
 20
44.89483355039579
 30
0.0
  0
SPLINE
  5
1C1
330
1F
100
AcDbEntity
  8
0
  6
Continuous
 62
     7
370
    15
100
AcDbSpline
210
0.0
220
0.0
230
1.0
 70
     8
 71
     3
 72
    11
 73
     7
 74
     0
 42
0.000000001
 43
0.00000001
 40
0.0
 40
0.0
 40
0.0
 40
0.0
 40
0.2164553779443589
 40
0.4403112895790599
 40
0.7519005688038771
 40
1.0
 40
1.0
 40
1.0
 40
1.0
 10
273.3654657024595
 20
44.89483355039579
 30
0.0
 10
273.3382338568806
 20
44.783806589066
 30
0.0
 10
273.282839118444
 20
44.55795669341811
 30
0.0
 10
273.1800412789225
 20
44.23108633890713
 30
0.0
 10
273.0697721562623
 20
44.00649050549422
 30
0.0
 10
272.9992065393741
 20
43.94769701048492
 30
0.0
 10
272.9679261345956
 20
43.92163496492593
 30
0.0
  0
SPLINE
  5
1C2
330
1F
100
AcDbEntity
  8
0
  6
Continuous
 62
     7
370
    15
100
AcDbSpline
210
0.0
220
0.0
230
1.0
 70
     8
 71
     3
 72
    10
 73
     6
 74
     0
 42
0.000000001
 43
0.00000001
 40
0.0
 40
0.0
 40
0.0
 40
0.0
 40
0.4555652139883455
 40
0.9267060433589097
 40
1.0
 40
1.0
 40
1.0
 40
1.0
 10
272.9679261345956
 20
43.92163496492593
 30
0.0
 10
273.0542090099307
 20
43.83249261669808
 30
0.0
 10
273.2297247419404
 20
43.65116017452422
 30
0.0
 10
273.4370345012623
 20
43.46737596901281
 30
0.0
 10
273.5496450552819
 20
43.42270445080696
 30
0.0
 10
273.5648051318892
 20
43.41669059496491
 30
0.0
  0
LINE
  5
1C3
330
1F
100
AcDbEntity
  8
0
  6
Continuous
 62
     7
370
    15
100
AcDbLine
 10
273.3654657025
 20
43.5536513502
 30
0.0
 11
273.3654657025
 21
44.8948335504
 31
0.0
  0
LINE
  5
1C4
330
1F
100
AcDbEntity
  8
0
  6
Continuous
 62
     7
370
    15
100
AcDbLine
 10
275.0241915539
 20
43.2515107897
 30
0.0
 11
275.0241915539
 21
45.1826845963
 31
0.0
  0
LWPOLYLINE
  5
1C5
330
1F
100
AcDbEntity
  8
0
  6
Continuous
 62
     7
370
    15
100
AcDbPolyline
 90
        8
 70
   128
 43
0.0
 10
278.6114637996
 20
36.4744297412
 10
278.6978100088
 20
36.326378982
 10
278.9239756985
 20
35.8127535145
 10
279.0423160742
 20
35.3014121233
 10
279.0423160742
 20
34.8377897348
 10
278.9239756985
 20
34.4630812331
 10
278.6978100088
 20
34.2105811127
 10
278.4650567044
 20
34.1145155975
  0
LINE
  5
1C6
330
1F
100
AcDbEntity
  8
0
  6
Continuous
 62
     7
370
     0
100
AcDbLine
 10
253.8516246124
 20
32.9241879652
 30
0.0
 11
253.9842403566
 21
33.4865442945
 31
0.0
  0
LWPOLYLINE
  5
1C7
330
1F
100
AcDbEntity
  8
0
  6
Continuous
 62
     7
370
     0
100
AcDbPolyline
 90
       16
 70
   128
 43
0.0
 10
270.2110955666
 20
56.3308681761
 10
271.5649525988
 20
57.0415185251
 10
273.0005612751
 20
57.6571829313
 10
274.4152508234
 20
58.1204269614
 10
275.79875164
 20
58.4278878052
 10
277.1410205281
 20
58.5773335234
 10
278.4323136048
 20
58.5676792503
 10
279.6632570334
 20
58.3989950687
 10
280.8249150717
 20
58.0725055016
 10
281.9088549382
 20
57.5905806226
 10
282.9072080281
 20
56.9567188513
 10
283.8127270333
 20
56.1755215572
 10
284.6188385532
 20
55.252659657
 10
285.319690812
 20
54.1948324483
 10
285.9101961386
 20
53.0097189772
 10
286.3860678995
 20
51.7059222944
  0
LWPOLYLINE
  5
1C8
330
1F
100
AcDbEntity
  8
0
  6
Continuous
 62
     7
370
     0
100
AcDbPolyline
 90
       20
 70
   128
 43
0.0
 10
253.3565631649
 20
32.6383552648
 10
253.8052101398
 20
34.4733123796
 10
254.3661783514
 20
36.3243812649
 10
255.0355545849
 20
38.1786491924
 10
255.8086693905
 20
40.0231811179
 10
256.6801296563
 20
41.8451099139
 10
257.6438562301
 20
43.6317261283
 10
258.6931263263
 20
45.3705666431
 10
259.8206204228
 20
47.0495016155
 10
261.0184733208
 20
48.6568190927
 10
262.2783290108
 20
50.1813067132
 10
263.5913989631
 20
51.6123299216
 10
264.9485234345
 20
52.939906154
 10
266.3402353654
 20
54.1547744739
 10
267.7568264203
 20
55.2484601755
 10
269.1884147112
 20
56.2133339013
 10
270.625013732
 20
57.0426648632
 10
272.0566020229
 20
57.7306677956
 10
273.4731930778
 20
58.2725433121
 10
274.8090177655
 20
58.6515570946
  0
LWPOLYLINE
  5
1C9
330
1F
100
AcDbEntity
  8
0
  6
Continuous
 62
     7
370
     0
100
AcDbPolyline
 90
       20
 70
   128
 43
0.0
 10
249.5381865465
 20
34.8426571667
 10
249.9868335214
 20
36.6776142815
 10
250.547801733
 20
38.5286831668
 10
251.2171779665
 20
40.3829510943
 10
251.9902927721
 20
42.2274830199
 10
252.8617530379
 20
44.0494118159
 10
253.8254796117
 20
45.8360280302
 10
254.8747497079
 20
47.5748685451
 10
256.0022438044
 20
49.2538035174
 10
257.2000967024
 20
50.8611209946
 10
258.4599523924
 20
52.3856086151
 10
259.7730223447
 20
53.8166318236
 10
261.1301468161
 20
55.1442080559
 10
262.521858747
 20
56.3590763759
 10
263.9384498019
 20
57.4527620774
 10
265.3700380928
 20
58.4176358032
 10
266.8066371136
 20
59.2469667651
 10
268.2382254045
 20
59.9349696975
 10
269.6548164594
 20
60.476845214
 10
270.9906411471
 20
60.8558589965
  0
LWPOLYLINE
  5
1CA
330
1F
100
AcDbEntity
  8
0
  6
Continuous
 62
     7
370
     0
100
AcDbPolyline
 90
       19
 70
   128
 43
0.0
 10
274.2606014853
 20
20.0260522742
 10
273.0005612751
 20
18.9909944242
 10
271.5649525988
 20
17.949140334
 10
270.1188462559
 20
17.0431170019
 10
268.6727399131
 20
16.2795014898
 10
267.2371312368
 20
15.6638370837
 10
265.8224416885
 20
15.2005930535
 10
264.4389408719
 20
14.8931322097
 10
263.0966719837
 20
14.7436864915
 10
261.8053789071
 20
14.7533407646
 10
260.5744354785
 20
14.9220249462
 10
259.4127774401
 20
15.2485145133
 10
258.3288375737
 20
15.7304393923
 10
257.3304844838
 20
16.3643011636
 10
256.4249654786
 20
17.1454984577
 10
255.6188539587
 20
18.0683603579
 10
254.9180016999
 20
19.1261875666
 10
254.3274963733
 20
20.3113010377
 10
253.8516246124
 20
21.6150977206
  0
LWPOLYLINE
  5
1CB
330
1F
100
AcDbEntity
  8
0
  6
Continuous
 62
     7
370
     0
100
AcDbPolyline
 90
       27
 70
   128
 43
0.0
 10
260.2193513193
 20
30.9456532247
 10
260.2794345485
 20
32.2379053638
 10
260.458954907
 20
33.5838419322
 10
260.7557332608
 20
34.9671250833
 10
261.1661671227
 20
36.3709636335
 10
261.6852743818
 20
37.7783168844
 10
262.3067537789
 20
39.1721014741
 10
263.0230613962
 20
40.5353987456
 10
263.8255022295
 20
41.8516601169
 10
264.704335734
 20
43.104907958
 10
265.6488940616
 20
44.2799295378
 10
266.6477115537
 20
45.3624616861
 10
267.688663919
 20
46.3393639289
 10
268.7591154058
 20
47.1987779965
 10
269.8460721832
 20
47.9302717661
 10
270.9363400683
 20
48.5249658945
 10
272.016684686
 20
48.9756416004
 10
273.073992116
 20
49.2768282913
 10
274.0954280784
 20
49.4248699688
 10
275.0685937243
 20
49.4179696073
 10
275.981676141
 20
49.2562109681
 10
276.8235917449
 20
48.9415575817
 10
277.5841208211
 20
48.4778289142
 10
278.2540315768
 20
47.8706540033
 10
278.8251922029
 20
47.12740313
 10
279.2906695831
 20
46.2570983529
 10
279.520974553
 20
45.6661426379
  0
LWPOLYLINE
  5
1CC
330
1F
100
AcDbEntity
  8
0
  6
Continuous
 62
     7
370
     0
100
AcDbPolyline
 90
       13
 70
   128
 43
0.0
 10
267.021990395
 20
24.0149210784
 10
266.6477115537
 20
23.9508715077
 10
265.6488940616
 20
23.8801935263
 10
264.704335734
 20
23.9646512744
 10
263.8255022295
 20
24.2032195492
 10
263.0230613962
 20
24.5930024551
 10
262.3067537789
 20
25.1292685555
 10
261.6852743818
 20
25.8055083066
 10
261.1661671227
 20
26.6135130737
 10
260.7557332608
 20
27.5434747736
 10
260.458954907
 20
28.584104931
 10
260.2794345485
 20
29.7227717054
 10
260.2193513193
 20
30.9456532247
  0
LWPOLYLINE
  5
1CD
330
1F
100
AcDbEntity
  8
0
  6
Continuous
 62
     7
370
     0
100
AcDbPolyline
 90
        8
 70
   128
 43
0.0
 10
262.3406716629
 20
30.9456532247
 10
262.4004367016
 20
29.7952223177
 10
262.5789235979
 20
28.72935226
 10
262.8737186229
 20
27.7624571158
 10
263.2808351794
 20
26.907612483
 10
263.7947677146
 20
26.1763786689
 10
264.4085661725
 20
25.5786443564
 10
264.9300143488
 20
25.2225931438
  0
LWPOLYLINE
  5
1CE
330
1F
100
AcDbEntity
  8
0
  6
Continuous
 62
     7
370
     0
100
AcDbPolyline
 90
       22
 70
   128
 43
0.0
 10
277.4289985067
 20
46.8738147034
 10
277.2450828736
 20
46.9739149704
 10
276.4576925482
 20
47.2823149511
 10
275.5989238101
 20
47.438792852
 10
274.6803900334
 20
47.4412325781
 10
273.7145128117
 20
47.2896011362
 10
272.7143539773
 20
46.9859490814
 10
271.6934389629
 20
46.5343827868
 10
270.6655738926
 20
45.941008912
 10
269.6446588781
 20
45.2138518207
 10
268.6445000438
 20
44.3627450651
 10
267.678622822
 20
43.3991984041
 10
266.7600890453
 20
42.3362421532
 10
265.9013203073
 20
41.1882509722
 10
265.1139299819
 20
39.9707494726
 10
264.4085661725
 20
38.7002022735
 10
263.7947677146
 20
37.3937913462
 10
263.2808351794
 20
36.0691836573
 10
262.8737186229
 20
34.7442922536
 10
262.5789235979
 20
33.4370340183
 10
262.4004367016
 20
32.1650873766
 10
262.3406716629
 20
30.9456532247
  0
LWPOLYLINE
  5
1CF
330
1F
100
AcDbEntity
  8
0
  6
Continuous
 62
     7
370
     0
100
AcDbPolyline
 90
       42
 70
   128
 43
0.0
 10
279.5940771238
 20
37.3146317474
 10
278.7845320437
 20
36.7755199782
 10
277.9939620142
 20
36.1055018476
 10
277.2408973266
 20
35.320282013
 10
276.542989179
 20
34.4382653615
 10
275.9165959468
 20
33.480125616
 10
275.3763997565
 20
32.46832076
 10
274.935062349
 20
31.4265666418
 10
274.6029282991
 20
30.379281095
 10
274.3877825472
 20
29.3510116051
 10
274.2946679276
 20
28.3658599374
 10
274.325766968
 20
27.4469172122
 10
274.4803507332
 20
26.6157226679
 10
274.7547959108
 20
25.8917588003
 10
275.1426697385
 20
25.2919947088
 10
275.6348807825
 20
24.8304883553
 10
276.219892033
 20
24.5180570576
 10
276.8839913222
 20
24.3620239406
 10
277.6116127257
 20
24.3660462882
 10
278.3857014144
 20
24.53002982
 10
279.1881134055
 20
24.8501309011
 10
280.0000408422
 20
25.3188466334
 10
280.8024528333
 20
25.9251907173
 10
281.576541522
 20
26.6549509616
 10
282.3041629255
 20
27.4910224045
 10
282.9682622147
 20
28.4138082401
 10
283.5532734652
 20
29.4016791505
 10
284.0454845092
 20
30.4314802789
 10
284.4333583369
 20
31.4790739595
 10
284.7078035145
 20
32.5199054845
 10
284.8623872797
 20
33.5295786451
 10
284.8934863201
 20
34.484427558
 10
284.8003717005
 20
35.3620713742
 10
284.5852259486
 20
36.1419388664
 10
284.2530918987
 20
36.8057506016
 10
283.8117544911
 20
37.3379473954
 10
283.2715583009
 20
37.7260550058
 10
282.6451650687
 20
37.9609765196
 10
281.9472569211
 20
38.0372055755
 10
281.1941922335
 20
37.9529554291
 10
280.403622204
 20
37.7102008324
 10
279.5940771238
 20
37.3146317474
  0
LINE
  5
1D0
330
1F
100
AcDbEntity
  8
0
  6
Continuous
 62
     7
370
     0
100
AcDbLine
 10
256.6484620743
 20
34.5387015146
 30
0.0
 11
257.0020154649
 21
34.7428698926
 31
0.0
  0
LWPOLYLINE
  5
1D1
330
1F
100
AcDbEntity
  8
0
  6
Continuous
 62
     7
370
     0
100
AcDbPolyline
 90
        3
 70
   128
 43
0.0
 10
253.1760472725
 20
31.9836315697
 10
253.1748000118
 20
32.1855730445
 10
253.178474371
 20
32.5355202524
  0
LWPOLYLINE
  5
1D2
330
1F
100
AcDbEntity
  8
0
  6
Continuous
 62
     7
370
     0
100
AcDbPolyline
 90
       22
 70
   128
 43
0.0
 10
275.8219761501
 20
25.2876028179
 10
276.3311351688
 20
25.0909556644
 10
276.9933854065
 20
25.0046300082
 10
277.7109676477
 20
25.0756485333
 10
278.466212636
 20
25.3022625278
 10
279.2405237333
 20
25.678892003
 10
280.0148348305
 20
26.1962630914
 10
280.7700798188
 20
26.8416363996
 10
281.48766206
 20
27.599120695
 10
282.1499122977
 20
28.4500642002
 10
282.7405237333
 20
29.3735138621
 10
283.244953553
 20
30.3467312852
 10
283.6507810206
 20
31.3457526266
 10
283.948013317
 20
32.3459786654
 10
284.1293315966
 20
33.3227805168
 10
284.1902712016
 20
34.2521060776
 10
284.1293315966
 20
35.1110722681
 10
283.948013317
 20
35.87852849
 10
283.6507810206
 20
36.5355774241
 10
283.244953553
 20
37.0660403449
 10
282.7405237333
 20
37.4568554949
 10
282.7402392975
 20
37.4570197229
  0
LWPOLYLINE
  5
1D3
330
1F
100
AcDbEntity
  8
0
  6
Continuous
 62
     7
370
     0
100
AcDbPolyline
 90
       19
 70
   128
 43
0.0
 10
222.2698771851
 20
55.9653395819
 10
222.331510115
 20
57.0867857419
 10
222.5153543483
 20
58.2602035134
 10
222.8182642593
 20
59.465515393
 10
223.2350569752
 20
60.6820981603
 10
223.7586010573
 20
61.8891357469
 10
224.379938521
 20
63.0659754049
 10
225.0884381102
 20
64.1924810815
 10
225.8719772003
 20
65.2493779524
 10
226.7171492205
 20
66.2185822189
 10
227.609493043
 20
67.0835105274
 10
228.5337404176
 20
67.8293637148
 10
229.4740772156
 20
68.4433800262
 10
230.4144140136
 20
68.9150534722
 10
231.3386613883
 20
69.2363135895
 10
232.2310052108
 20
69.4016635283
 10
233.0761772309
 20
69.4082741054
 10
233.8597163211
 20
69.256032212
 10
234.0152509658
 20
69.2040374756
  0
ARC
  5
1D4
330
1F
100
AcDbEntity
  8
0
  6
Continuous
 62
     7
370
     0
100
AcDbCircle
 10
227.7010224058
 20
55.5278933028
 30
0.0
 40
5.448733582748806
100
AcDbArc
 50
175.3951081492
 51
224.4283796969
  0
LINE
  5
1D5
330
1F
100
AcDbEntity
  8
0
  6
Continuous
 62
     7
370
     0
100
AcDbLine
 10
257.7091222461
 20
33.9963108581
 30
0.0
 11
257.6484620743
 21
33.9612811025
 31
0.0
  0
LINE
  5
1D6
330
1F
100
AcDbEntity
  8
0
  6
Continuous
 62
     7
370
     0
100
AcDbLine
 10
257.6484620743
 20
33.9612811025
 30
0.0
 11
256.6483471403
 21
34.5386351646
 31
0.0
  0
LINE
  5
1D7
330
1F
100
AcDbEntity
  8
0
  6
Continuous
 62
     7
370
     0
100
AcDbLine
 10
257.6484620743
 20
25.1018132935
 30
0.0
 11
257.7091222461
 21
24.9967467943
 31
0.0
  0
LINE
  5
1D8
330
1F
100
AcDbEntity
  8
0
  6
Continuous
 62
     7
370
     0
100
AcDbLine
 10
253.5271417308
 20
27.4810008854
 30
0.0
 11
257.6484620743
 21
25.1018132935
 31
0.0
  0
LINE
  5
1D9
330
1F
100
AcDbEntity
  8
0
  6
Continuous
 62
     7
370
     0
100
AcDbLine
 10
253.466481559
 20
27.4459711298
 30
0.0
 11
253.5271417308
 21
27.4810008854
 31
0.0
  0
LINE
  5
1DA
330
1F
100
AcDbEntity
  8
0
  6
Continuous
 62
     7
370
     0
100
AcDbLine
 10
257.0020154649
 20
23.433779648
 30
0.0
 11
256.6484620743
 21
24.0461520819
 31
0.0
  0
LINE
  5
1DB
330
1F
100
AcDbEntity
  8
0
  6
Continuous
 62
     7
370
     0
100
AcDbLine
 10
253.4746353729
 20
21.4269656129
 30
0.0
 11
253.3565631649
 21
21.8191895073
 31
0.0
  0
LINE
  5
1DC
330
1F
100
AcDbEntity
  8
0
  6
Continuous
 62
     7
370
     0
100
AcDbLine
 10
249.6562587545
 20
23.6312675148
 30
0.0
 11
249.5381865465
 21
24.0234914092
 31
0.0
  0
LINE
  5
1DD
330
1F
100
AcDbEntity
  8
0
  6
Continuous
 62
     7
370
     0
100
AcDbLine
 10
256.6484620743
 20
24.0461520819
 30
0.0
 11
253.1129281684
 21
26.0871723615
 31
0.0
  0
LWPOLYLINE
  5
1DE
330
1F
100
AcDbEntity
  8
0
  6
Continuous
 62
     7
370
     0
100
AcDbPolyline
 90
       13
 70
   128
 43
0.0
 10
218.5649860804
 20
59.8906551028
 10
218.6252690939
 20
60.8765701115
 10
218.8048333069
 20
61.9110733395
 10
219.0998516199
 20
62.9721161465
 10
219.5040362297
 20
64.0370842472
 10
220.008772643
 20
65.0832796955
 10
220.6033032796
 20
66.0884046518
 10
221.274956751
 20
67.0310366227
 10
222.0094179297
 20
67.8910850442
 10
222.7910330508
 20
68.6502194774
 10
223.603143345
 20
69.2922602899
 10
224.4284400912
 20
69.8035234965
 10
225.1269949652
 20
70.1269819771
  0
LWPOLYLINE
  5
1DF
330
1F
100
AcDbEntity
  8
0
  6
Continuous
 62
     7
370
     0
100
AcDbPolyline
 90
        3
 70
   128
 43
0.0
 10
218.6622067606
 20
58.7409089193
 10
218.6252690939
 20
58.9743413801
 10
218.5649860804
 20
59.8906551028
  0
LWPOLYLINE
  5
1E0
330
1F
100
AcDbEntity
  8
0
  6
Continuous
 62
     7
370
     0
100
AcDbPolyline
 90
       19
 70
   128
 43
0.0
 10
218.2632093851
 20
59.9135905448
 10
218.3248886681
 20
60.9223412232
 10
218.5086119303
 20
61.9808055165
 10
218.8104634293
 20
63.066424096
 10
219.2240097246
 20
64.1560588865
 10
219.7404367947
 20
65.2264862142
 10
220.3487378933
 20
66.2548917791
 10
221.0359481385
 20
67.219356902
 10
221.7874208372
 20
68.0993256832
 10
222.5871396533
 20
68.8760431159
 10
223.4180599688
 20
69.5329548166
 10
224.2624721597
 20
70.0560598529
 10
225.1023790463
 20
70.4342091491
 10
225.9198794713
 20
70.6593431094
 10
226.6975498326
 20
70.7266633944
 10
227.4188154366
 20
70.6347351891
 10
228.0683037592
 20
70.3855177836
 10
228.6321720842
 20
69.9843228142
 10
228.9167218958
 20
69.6833442012
  0
LWPOLYLINE
  5
1E1
330
1F
100
AcDbEntity
  8
0
  6
Continuous
 62
     7
370
     0
100
AcDbPolyline
 90
        8
 70
   128
 43
0.0
 10
220.9173720347
 20
55.8265624031
 10
220.3487378933
 20
55.9801892726
 10
219.7404367947
 20
56.3062653385
 10
219.2240097246
 20
56.7804386627
 10
218.8104634293
 20
57.392603064
 10
218.5086119303
 20
58.129711321
 10
218.3248886681
 20
58.9760532509
 10
218.2632093851
 20
59.9135905448
  0
LWPOLYLINE
  5
1E2
330
1F
100
AcDbEntity
  8
0
  6
Continuous
 62
     7
370
     0
100
AcDbPolyline
 90
        3
 70
   128
 43
0.0
 10
214.0168408554
 20
61.2529561432
 10
213.965728995
 20
62.1273405456
 10
213.9670975763
 20
62.2763447287
  0
LWPOLYLINE
  5
1E3
330
1F
100
AcDbEntity
  8
0
  6
Continuous
 62
     7
370
     0
100
AcDbPolyline
 90
       11
 70
   128
 43
0.0
 10
278.4727268637
 20
36.366992991
 10
278.6386272134
 20
36.056545227
 10
278.8153865773
 20
35.5539056031
 10
278.8762937033
 20
35.0746776821
 10
278.8153865773
 20
34.6657716319
 10
278.6386272134
 20
34.3672140256
 10
278.3633180494
 20
34.2082297621
 10
278.0164082647
 20
34.2043813286
 10
277.6318558061
 20
34.3560454366
 10
277.2473033474
 20
34.6483761467
 10
277.0172622978
 20
34.8983258241
  0
OLE2FRAME
  5
1E4
330
1F
100
AcDbEntity
  8
0
100
AcDbOle2Frame
 70
     2
  3
Paintbrush-Bild
 10
13.8511154363
 20
38.264191557
 30
0.0
 11
51.6290888628
 21
31.9806341108
 31
0.0
 71
     2
 72
     0
 73
     1
 90
    12928
310
80552BED0767C5B32B40DDAF6807D121434000000000000000006FFBDDFB85D0
310
4940DDAF6807D121434000000000000000006FFBDDFB85D04940416F4BD60AFB
310
3F4000000000000000002BED0767C5B32B40416F4BD60AFB3F40000000000000
310
0000000000000100000000010000010000000100000000000100000000320000
310
D0CF11E0A1B11AE1000000000000000000000000000000003E000300FEFF0900
310
0600000000000000000000000100000001000000000000000010000002000000
310
01000000FEFFFFFF0000000000000000FFFFFFFFFFFFFFFFFFFFFFFFFFFFFFFF
310
FFFFFFFFFFFFFFFFFFFFFFFFFFFFFFFFFFFFFFFFFFFFFFFFFFFFFFFFFFFFFFFF
310
FFFFFFFFFFFFFFFFFFFFFFFFFFFFFFFFFFFFFFFFFFFFFFFFFFFFFFFFFFFFFFFF
310
FFFFFFFFFFFFFFFFFFFFFFFFFFFFFFFFFFFFFFFFFFFFFFFFFFFFFFFFFFFFFFFF
310
FFFFFFFFFFFFFFFFFFFFFFFFFFFFFFFFFFFFFFFFFFFFFFFFFFFFFFFFFFFFFFFF
310
FFFFFFFFFFFFFFFFFFFFFFFFFFFFFFFFFFFFFFFFFFFFFFFFFFFFFFFFFFFFFFFF
310
FFFFFFFFFFFFFFFFFFFFFFFFFFFFFFFFFFFFFFFFFFFFFFFFFFFFFFFFFFFFFFFF
310
FFFFFFFFFFFFFFFFFFFFFFFFFFFFFFFFFFFFFFFFFFFFFFFFFFFFFFFFFFFFFFFF
310
FFFFFFFFFFFFFFFFFFFFFFFFFFFFFFFFFFFFFFFFFFFFFFFFFFFFFFFFFFFFFFFF
310
FFFFFFFFFFFFFFFFFFFFFFFFFFFFFFFFFFFFFFFFFFFFFFFFFFFFFFFFFFFFFFFF
310
FFFFFFFFFFFFFFFFFFFFFFFFFFFFFFFFFFFFFFFFFFFFFFFFFFFFFFFFFFFFFFFF
310
FFFFFFFFFFFFFFFFFFFFFFFFFFFFFFFFFFFFFFFFFFFFFFFFFFFFFFFFFFFFFFFF
310
FFFFFFFFFFFFFFFFFFFFFFFFFFFFFFFFFFFFFFFFFFFFFFFFFFFFFFFFFFFFFFFF
310
FFFFFFFFFFFFFFFFFFFFFFFFFFFFFFFFFFFFFFFFFFFFFFFFFFFFFFFFFFFFFFFF
310
FDFFFFFFFEFFFFFFFEFFFFFFFEFFFFFF05000000060000000700000008000000
310
090000000A0000000B0000000C0000000D0000000E0000000F00000010000000
310
11000000120000001300000014000000150000001600000017000000FEFFFFFF
310
FFFFFFFFFFFFFFFFFFFFFFFFFFFFFFFFFFFFFFFFFFFFFFFFFFFFFFFFFFFFFFFF
310
FFFFFFFFFFFFFFFFFFFFFFFFFFFFFFFFFFFFFFFFFFFFFFFFFFFFFFFFFFFFFFFF
310
FFFFFFFFFFFFFFFFFFFFFFFFFFFFFFFFFFFFFFFFFFFFFFFFFFFFFFFFFFFFFFFF
310
FFFFFFFFFFFFFFFFFFFFFFFFFFFFFFFFFFFFFFFFFFFFFFFFFFFFFFFFFFFFFFFF
310
FFFFFFFFFFFFFFFFFFFFFFFFFFFFFFFFFFFFFFFFFFFFFFFFFFFFFFFFFFFFFFFF
310
FFFFFFFFFFFFFFFFFFFFFFFFFFFFFFFFFFFFFFFFFFFFFFFFFFFFFFFFFFFFFFFF
310
FFFFFFFFFFFFFFFFFFFFFFFFFFFFFFFFFFFFFFFFFFFFFFFFFFFFFFFFFFFFFFFF
310
FFFFFFFFFFFFFFFFFFFFFFFFFFFFFFFFFFFFFFFFFFFFFFFFFFFFFFFFFFFFFFFF
310
FFFFFFFFFFFFFFFFFFFFFFFFFFFFFFFFFFFFFFFFFFFFFFFFFFFFFFFFFFFFFFFF
310
FFFFFFFFFFFFFFFFFFFFFFFFFFFFFFFFFFFFFFFFFFFFFFFFFFFFFFFFFFFFFFFF
310
FFFFFFFFFFFFFFFFFFFFFFFFFFFFFFFFFFFFFFFFFFFFFFFFFFFFFFFFFFFFFFFF
310
FFFFFFFFFFFFFFFFFFFFFFFFFFFFFFFFFFFFFFFFFFFFFFFFFFFFFFFFFFFFFFFF
310
FFFFFFFFFFFFFFFFFFFFFFFFFFFFFFFFFFFFFFFFFFFFFFFFFFFFFFFFFFFFFFFF
310
52006F006F007400200045006E00740072007900000000000000000000000000
310
0000000000000000000000000000000000000000000000000000000000000000
310
16000500FFFFFFFFFFFFFFFF020000000A00030000000000C000000000000046
310
000000000000000000000000900BAB749D23D20103000000C000000000000000
310
01004F006C006500000000000000000000000000000000000000000000000000
310
0000000000000000000000000000000000000000000000000000000000000000
310
0A000200FFFFFFFFFFFFFFFFFFFFFFFF00000000000000000000000000000000
310
0000000000000000000000000000000000000000000000001400000000000000
310
010043006F006D0070004F0062006A0000000000000000000000000000000000
310
0000000000000000000000000000000000000000000000000000000000000000
310
120002010100000003000000FFFFFFFF00000000000000000000000000000000
310
0000000000000000000000000000000000000000010000004D00000000000000
310
01004F006C006500310030004E00610074006900760065000000000000000000
310
0000000000000000000000000000000000000000000000000000000000000000
310
1A000200FFFFFFFFFFFFFFFFFFFFFFFF00000000000000000000000000000000
310
0000000000000000000000000000000000000000040000002426000000000000
310
FEFFFFFF02000000FEFFFFFFFFFFFFFFFFFFFFFFFFFFFFFFFFFFFFFFFFFFFFFF
310
FFFFFFFFFFFFFFFFFFFFFFFFFFFFFFFFFFFFFFFFFFFFFFFFFFFFFFFFFFFFFFFF
310
FFFFFFFFFFFFFFFFFFFFFFFFFFFFFFFFFFFFFFFFFFFFFFFFFFFFFFFFFFFFFFFF
310
FFFFFFFFFFFFFFFFFFFFFFFFFFFFFFFFFFFFFFFFFFFFFFFFFFFFFFFFFFFFFFFF
310
FFFFFFFFFFFFFFFFFFFFFFFFFFFFFFFFFFFFFFFFFFFFFFFFFFFFFFFFFFFFFFFF
310
FFFFFFFFFFFFFFFFFFFFFFFFFFFFFFFFFFFFFFFFFFFFFFFFFFFFFFFFFFFFFFFF
310
FFFFFFFFFFFFFFFFFFFFFFFFFFFFFFFFFFFFFFFFFFFFFFFFFFFFFFFFFFFFFFFF
310
FFFFFFFFFFFFFFFFFFFFFFFFFFFFFFFFFFFFFFFFFFFFFFFFFFFFFFFFFFFFFFFF
310
FFFFFFFFFFFFFFFFFFFFFFFFFFFFFFFFFFFFFFFFFFFFFFFFFFFFFFFFFFFFFFFF
310
FFFFFFFFFFFFFFFFFFFFFFFFFFFFFFFFFFFFFFFFFFFFFFFFFFFFFFFFFFFFFFFF
310
FFFFFFFFFFFFFFFFFFFFFFFFFFFFFFFFFFFFFFFFFFFFFFFFFFFFFFFFFFFFFFFF
310
FFFFFFFFFFFFFFFFFFFFFFFFFFFFFFFFFFFFFFFFFFFFFFFFFFFFFFFFFFFFFFFF
310
FFFFFFFFFFFFFFFFFFFFFFFFFFFFFFFFFFFFFFFFFFFFFFFFFFFFFFFFFFFFFFFF
310
FFFFFFFFFFFFFFFFFFFFFFFFFFFFFFFFFFFFFFFFFFFFFFFFFFFFFFFFFFFFFFFF
310
FFFFFFFFFFFFFFFFFFFFFFFFFFFFFFFFFFFFFFFFFFFFFFFFFFFFFFFFFFFFFFFF
310
FFFFFFFFFFFFFFFFFFFFFFFFFFFFFFFFFFFFFFFFFFFFFFFFFFFFFFFFFFFFFFFF
310
0100000200000000000000000000000000000000000000000000000000000000
310
0000000000000000000000000000000000000000000000000000000000000000
310
0100FEFF030A0000FFFFFFFF0A00030000000000C00000000000004607000000
310
5042727573680007000000504272757368000700000050427275736800F439B2
310
7100000000000000000000000000000000000000000000000000000000000000
310
0000000000000000000000000000000000000000000000000000000000000000
310
0000000000000000000000000000000000000000000000000000000000000000
310
0000000000000000000000000000000000000000000000000000000000000000
310
0000000000000000000000000000000000000000000000000000000000000000
310
0000000000000000000000000000000000000000000000000000000000000000
310
0000000000000000000000000000000000000000000000000000000000000000
310
0000000000000000000000000000000000000000000000000000000000000000
310
0000000000000000000000000000000000000000000000000000000000000000
310
0000000000000000000000000000000000000000000000000000000000000000
310
0000000000000000000000000000000000000000000000000000000000000000
310
0000000000000000000000000000000000000000000000000000000000000000
310
20260000424D0E260000000000003E00000028000000B40200006E0000000100
310
01000000000000000000130B0000130B00000200000002000000000000FFFFFF
310
FFFFFFFFFFFFFFFFFFFFFFFFFFFFFFFFFFFFFFFFFFFFFFFFFFFFFFFFFFFFFFFF
310
FFFFFFFFFFFFFFFFFFFFFFFFFFFFFFFFFFFFFFFFFFFFFFFFFFFFFFFFFFFFFFFF
310
FFFFFFFFFFFFFFFFFFFFFFFFFFFFFFFFFFFFFFFFFFFFFFFFF000FFFFFFFFFFFF
310
FFFFFFFFFFFFFFFFFFFFFFFFFFFFFFFFFFFFFFFFFFFFFFFFFFFFFFFFFFFFFFFF
310
FFFFFFFFFFFFFFFFFFFFFFFFFFFFFFFFFFFFFFFFFFFFFFFFFFFFFFFFFFFFFFFF
310
FFFFFFFFFFFFFFFFFFFFFFFFFFFFFFFFF000FFFFFFFFFFFFFFFFFFFFFFFFFFFF
310
FFFFFFFFFFFFFFFFFFFFFFFFFFFFFFFFFFFFFFFFFFFFFFFFFFFFFFFFFFFFFFFF
310
FFFFFFFFFFFFFFFFFFFFFFFFFFFFFFFFFFFFFFFFFFFFFFFFFFFFFFFFFFFFFFFF
310
FFFFFFFFFFFFFFFFF000FFFFFFFFFFFFFFFFFFFFFFFFFFFFFFFFFFFFFFFFFFFF
310
FFFFFFFFFFFFFFFFFFFFFFFFFFFFFFFFFFFFFFFFFFFFFFFFFFFFFFFFFFFFFFFF
310
FFFFFFFFFFFFFFFFFFFFFFFFFFFFFFFFFFFFFFFFFFFFFFFFFFFFFFFFFFFFFFFF
310
F000FFFFFFFFFFFFFFFFFFFFFFFFFFFFFFFFFFFFFFFFFFFFFFFFFFFFFFFFFFFF
310
FFFFFFFFFFFFFFFFFFFFFFFFFFFFFFFFFFFFFFFFFFFFFFFFFFFFFFFFFFFFFFFF
310
FFFFFFFFFFFFFFFFFFFFFFFFFFFFFFFFFFFFFFFFFFFFFFFFF000FFFFFFFFFFFF
310
FFFFFFFFFFFFFFFFFFFFFFFFFFFFFFFFFFFFFFFFFFFFFFFFFFFFFFFFFFFFFFFF
310
FFFFFFFFFFFFFFFFFFFFFFFFFFFFFFFFFFFFFFFFFFFFFFFFFFFFFFFFFFFFFFFF
310
FFFFFFFFFFFFFFFFFFFFFFFFFFFFFFFFF000FFFFFFFFFFFFFFFFFFFFFFFFFFFF
310
FFFFFFFFFFFFFFFFFFFFFFFFFFFFFFFFFFFFFFFFFFFFFFFFFFFFFFFFFFFFFFFF
310
FFFFFFFFFFFFFFFFFFFFFFFFFFFFFFFFFFFFFFFFFFFFFFFFFFFFFFFFFFFFFFFF
310
FFFFFFFFFFFFFFFFF000FFFFFFFFFFFFFFFFFFFFFFFFFFFFFFFFFFFFFFFFFFFF
310
FFFFFFFFFFFFFFFFFFFFFFFFFFFFFFFFFFFFFFFFFFFFFFFFFFFFFFFFFFFFFFFF
310
FFFFFFFFFFFFFFFFFFFFFFFFFFFFFFFFFFFFFFFFFFFFFFFFFFFFFFFFFFFFFFFF
310
F000FFFFFFFFFFFFFFFFFFFFFFFFFFFFFFFFFFFFFFFFFFFFFFFFFFFFFFFFFFFF
310
FFFFFFFFFFFFFFFFFFFFFFFFFFFFFFFFFFFFFFFFFFFFFFFFFFFFFFFFFFFFFFFF
310
FFFFFFFFFFFFFFFFFFFFFFFFFFFFFFFFFFFFFFFFFFFFFFFFF000FFFFFFFFFFFF
310
FFFFFFFFFFFFFFFFFFFFFFFFFFFFFFFFFFFFFFFFFFFFFFFFFFFFFFFFFFFFFFFF
310
FFFFFFFFFFFFFFFFFFFFFFFFFFFFFFFFFFFFFFFFFFFFFFFFFFFFFFFFFFFFFFFF
310
FFFFFFFFFFFFFFFFFFFFFFFFFFFFFFFFF000FFFFFFFFFFFFFFFFFFFFFFFFFFFF
310
FFFFFFFFFFFFFFFFFFFFFFFFFFFFFFFFFFFFFFFFFFFFFFFFFFFFFFFFFFFFFFFF
310
FFFFFFFFFFFFFFFFFFFFFFFFFFFFFFFFFFFFFFFFFFFFFFFFFFFFFFFFFFFFFFFF
310
FFFFFFFFFFFFFFFFF000FFFFFFFFFFFFFFFFFFFFFFFFFFFFFFFFFFFFFFFFFFFF
310
FFFFFFFFFFFFFFFFFFFFFFFFFFFFFFFFFFFFFFFFFFFFFFFFFFFFFFFFFFFFFFFF
310
FFFFFFFFFFFFFFFFFFFFFFFFFFFFFFFFFFFFFFFFFFFFFFFFFFFFFFFFFFFFFFFF
310
F000FFFFFFFFFFFFFFFFFFFFFFFFFFFFFFFFFFFFFFFFFFFFFFFFFFFFFFFFFFFF
310
FFFFFFFFFFFFFFFFFFFFFFFFFFFFFFFFFFFFFFFFFFFFFFFFFFFFFFFFFFFFFFFF
310
FFFFFFFFFFFFFFFFFFFFFFFFFFFFFFFFFFFFFFFFFFFFFFFFF000FFFFFFFFFFFF
310
FFFFFFFFFFFFFFFFFFFFFFFFFFFFFFFFFFFFFFFFFFFFFFFFFFFFFFFFFFFFFFFF
310
FFFFFFFFFFFFFFFFFFFFFFFFFFFFFFFFFFFFFFFFFFFFFFFFFFFFFFFFFFFFFFFF
310
FFFFFFFFFFFFFFFFFFFFFFFFFFFFFFFFF000FFFFFFFFFFFFFFFFFFFFFFFFFFFF
310
FFFFFFFFFFFFFFFFFFFFFFFFFFFFFFFFFFFFFFFFFFFFFFFFFFFFFFFFFFFFFFFF
310
FFFFFFFFFFFFFFFFFFFFFFFFFFFFFFFFFFFFFFFFFFFFFFFFFFFFFFFFFFFFFFFF
310
FFFFFFFFFFFFFFFFF000FFFFFFFFFFFFFFFFFFFFFFFFFFFFFFFFFFFFFFFFFFFF
310
FFFFFFFFFFFFFFFFFFFFFFFFFFFFFFFFFFFFFFFFFFFFFFFFFFFFFFFFFFFFFFFF
310
FFFFFFFFFFFFFFFFFFFFFFFFFFFFFFFFFFFFFFFFFFFFFFFFFFFFFFFFFFFFFFFF
310
F000FFFFFFFFFFFFFFFFFFFFFFFFFFFFFFFFFFFFFFFFFFFFFFFFFFFFFFFFFFFF
310
FFFFFFFFFFFFFFFFFFFFFFFFFFFFFFFFFFFFFFFFFFFFFFFFFFFFFFFFFFFFFFFF
310
FFFFFFFFFFFFFFFFFFFFFFFFFFFFFFFFFFFFFFFFFFFFFFFFF000FFFFFFFFFFFF
310
FFFFFFFFFFFFFFFFFFFFFFFFFFFFFFFFFFFFFFFFFFFFFFFFFFFFFFFFFFFFFFFF
310
FFFFFFFFFFFFFFFFFFFFFFFFFFFFFFFFFFFFFFFFFFFFFFFFFFFFFFFFFFFFFFFF
310
FFFFFFFFFFFFFFFFFFFFFFFFFFFFFFFFF000FFFFFFFFFFFFFFFFFFFFFFFFFFFF
310
FFFFFFFFFFFFFFFFFFFFFFFFFFFFFFFFFFFFFFFFFFFFFFFFFFFFFFFFFFFFFFFF
310
FFFFFFFFFFFFFFFFFFFFFFFFFFFFFFFFFFFFFFFFFFFFFFFFFFFFFFFFFFFFFFFF
310
FFFFFFFFFFFFFFFFF000FFFFF80003FFFFFFFFFFFFFFFFFFFFFFFFFFFFFFFFFF
310
FFFFF00007FFFFFFFFFF00007FFFFFF800000000000000007FFFFFFFFFFFFFFF
310
FFFFFFFC001FFFFFFFFFFFFFFC001FFFFFFFFFFFFFFFFFFFFFFFFFFE0007FFFF
310
F000FFFF8000007FFFFFFFF8000FFFFFC0007FFFFF80007FFFFF0000007FFFFF
310
FFF8000007FFFFF800000000000000007FFFFFF0001FFFFFFFFFFFC00001FFFF
310
FFFFFFFFC00001FFFFFFFF000000000003FFFFE000007FFFF000FFFE0000000F
310
FFFFFFF0000FFFFF80007FFFFF80007FFFFC0000001FFFFFFFC0000001FFFFF8
310
00000000000000007FFFFFF0001FFFFFFFFFFE0000003FFFFFFFFFFE0000003F
310
FFFFFF000000000003FFFF0000000FFFF000FFF800000003FFFFFFF00007FFFF
310
80007FFFFF80007FFFF000000007FFFFFF000000003FFFF80000000000000000
310
7FFFFFF0001FFFFFFFFFF80000000FFFFFFFFFF80000000FFFFFFF0000000000
310
03FFFC00000003FFF000FFE000000000FFFFFFF00007FFFF80003FFFFF80007F
310
FFC000000001FFFFFC000000001FFFF800000000000000007FFFFFF0001FFFFF
310
FFFFE000000003FFFFFFFFE000000003FFFFFF000000000003FFF000000000FF
310
F000FF80000000007FFFFFF00007FFFF80003FFFFF80007FFF8000000000FFFF
310
F80000000007FFF800000000000000007FFFFFF0001FFFFFFFFFC000000001FF
310
FFFFFFC000000001FFFFFF000000000003FFC0000000007FF000FF0000000000
310
3FFFFFE00007FFFF00003FFFFF80007FFE00000000003FFFF00000000003FFF8
310
00000000000000007FFFFFF0001FFFFFFFFF8000000000FFFFFFFF8000000000
310
FFFFFF000000000003FF80000000003FF000FE00000000001FFFFFE00003FFFF
310
00003FFFFF80007FFC00000000001FFFE00000000001FFF8000001FFFE000000
310
7FFFFFF0001FFFFFFFFE00000000003FFFFFFE00000000003FFFFF0000000000
310
03FF00000000001FF000FC00000000000FFFFFE00003FFFF00001FFFFF80007F
310
F800000000001FFFC00000000000FFF8000001FFFE0000007FFFFFF0001FFFFF
310
FFFC00000000001FFFFFFC00000000001FFFFF000000000003FE00000000000F
310
F000F8000000000007FFFFE00003FFFF00001FFFFF80007FF800000000000FFF
310
800000000000FFF8000001FFFE0000007FFFFFF0001FFFFFFFF800000000000F
310
FFFFF800000000000FFFFF000000000003FC000000000007F000F80000000000
310
03FFFFC00003FFFE00001FFFFF80007FF0000000000007FF0000000000007FF8
310
000001FFFE0000007FFFFFF0001FFFFFFFF0000000000007FFFFF00000000000
310
07FFFF000000000003F8000000000003F000F0000000000003FFFFC00001FFFE
310
00001FFFFF80007FE0000000000007FE0000000000003FF8000001FFFE000000
310
7FFFFFF0001FFFFFFFF0000000000007FFFFF0000000000007FFFF0000000000
310
03F800001F800003F000E00001FFF00001FFFFC00001FFFE00000FFFFF80007F
310
E00001FFE00003FE00001FFF00003FF8000001FFFE0000007FFFFFF0001FFFFF
310
FFE000003E000003FFFFE000003E000003FFFF000000000003F00001FFF80001
310
F000E00007FFFC0001FFFFC00001FFFE00000FFFFF80007FC0000FFFFC0003FC
310
0000FFFFC0001FF8000001FFFE0000007FFFFFF0001FFFFFFFC00003FFE00001
310
FFFFC00003FFE00001FFFF0001FFFFFFFFF00007FFFE0001F000E0000FFFFF00
310
00FFFF800001FFFC00000FFFFF80007FC0001FFFFE0001FC0001FFFFE0001FF8
310
000001FFFE0000007FFFFFF0001FFFFFFF80000FFFF80000FFFF80000FFFF800
310
00FFFF0003FFFFFFFFE0000FFFFF8000F000C0003FFFFF8000FFFF800000FFFC
310
000007FFFF80007F80003FFFFF0001FC0003FFFFF0001FF8000001FFFE000000
310
7FFFFFF0001FFFFFFF80003FFFFE0000FFFF80003FFFFE0000FFFF0003FFFFFF
310
FFE0003FFFFF8000F000C0003FFFFF8000FFFF800000FFFC000007FFFF80007F
310
80007FFFFF8001F80007FFFFF8000FF8000001FFFE0000007FFFFFF0001FFFFF
310
FF00007FFFFF00007FFF00007FFFFF00007FFF0003FFFFFFFFE0003FFFFFC000
310
F000C0007FFFFFC000FFFF000000FFFC000007FFFF80007F8000FFFFFF8000F8
310
000FFFFFF8000FF8000001FFFE0000007FFFFFF0001FFFFFFF0000FFFFFF8000
310
7FFF0000FFFFFF80007FFF0003FFFFFFFFC0007FFFFFC00070008000FFFFFFC0
310
00FFFF000000FFF8000007FFFF80007F8000FFFFFF8000F8000FFFFFF8000FF8
310
000001FFFE0000007FFFFFF0001FFFFFFE0001FFFFFFC0003FFE0001FFFFFFC0
310
003FFF0003FFFFFFFFC0007FFFFFE00070008000FFFFFFC0007FFF0000007FF8
310
000003FFFF80007F0001FFFFFF8000F8000FFFFFF8000FF8000001FFFE000000
310
7FFFFFF0001FFFFFFE0001FFFFFFC0003FFE0001FFFFFFC0003FFF0003FFFFFF
310
FFC000FFFFFFE00070008000FFFFFFC0007FFF0000007FF8000003FFFF80007F
310
0001FFFFFF8000F8001FFFFFF8000FF8000001FFFE0000007FFFFFF0001FFFFF
310
FE0003FFFFFFE0003FFE0003FFFFFFE0003FFF0003FFFFFFFFC000FFFFFFE000
310
70008000FFFFFFC0007FFE0000007FF8000003FFFF80007F0001FFFFFF8000F0
310
001FFFFFF8000FF8000001FFFE0000007FFFFFF0001FFFFFFC0003FFFFFFE000
310
1FFC0003FFFFFFE0001FFF0003FFFFFFFFC000FFFFFFC00070008000FFFFFF80
310
007FFE0000007FF0000003FFFF80007F0001FFFFFF0000F0001FFFFFF8000FF8
310
000001FFFE0000007FFFFFF0001FFFFFFC0007FFFFFFF0001FFC0007FFFFFFF0
310
001FFF0003FFFFFFFFC000FFFFFFC00070008001FFFFFF0000FFFE0000003FF0
310
000001FFFF80007F0001FFFFFF0000F8001FFFFFF0000FF8000001FFFE000000
310
7FFFFFF0001FFFFFFC0007FFFFFFF0001FFC0007FFFFFFF0001FFF0003FFFFFF
310
FFC001FFFFFF80007000FFFFFFFFFE0000FFFE0008003FF0008001FFFF80007F
310
FFFFFFFFFC0000FFFFFFFFFFE0000FF8000001FFFE0000007FFFFFF0001FFFFF
310
F8000FFFFFFFF8000FF8000FFFFFFFF8000FFF0003FFFFFFFFFFFFFFFFFF0000
310
7000FFFFFFFFFC0000FFFC0008003FF0008001FFFF80007FFFFFFFFFF80001FF
310
FFFFFFFF80000FF8000001FFFE0000007FFFFFF0001FFFFFF8000FFFFFFFF800
310
0FF8000FFFFFFFF8000FFF0003FFFFFFFFFFFFFFFFFE0000F000FFFFFFFFE000
310
00FFFC000C003FE000C001FFFF80007FFFFFFFFFC00001FFFFFFFFFE00001FF8
310
000001FFFE0000007FFFFFF0001FFFFFF8000FFFFFFFF8000FF8000FFFFFFFF8
310
000FFF0003FFFFFFFFFFFFFFFFF00000F000FFFFFFFE000001FFFC000C001FE0
310
00C000FFFF80007FFFFFFFFE000001FFFFFFFFE000001FF80FFFFFFFFFFFFFC0
310
7FFFFFF0001FFFFFF8000FFFFFFFF8000FF8000FFFFFFFF8000FFF0003FFFFFF
310
FFFFFFFFFF800000F000FFFFFFC0000001FFFC001C001FE001C000FFFF80007F
310
FFFFFF80000003FFFFFFF80000001FF80FFFFFFFFFFFFFC07FFFFFF0001FFFFF
310
F8001FFFFFFFFC000FF8001FFFFFFFFC000FFF0003FFFFFFFFFFFFFFF0000001
310
F000FFFFF800000001FFF8001C001FE001C000FFFF80007FFFFFF800000003FF
310
FFFF800000003FF80FFFFFFFFFFFFFC07FFFFFF0001FFFFFF8001FFFFFFFFC00
310
0FF8001FFFFFFFFC000FFF0003FFFFFFFFFFFFFE00000001F000FFFFC0000000
310
03FFF8001E001FC001E000FFFF80007FFFFF8000000007FFFFFC000000003FF8
310
0FFFFFFFFFFFFFC07FFFFFF0001FFFFFF8001FFFFFFFFC000FF8001FFFFFFFFC
310
000FFF0003FFFFFFFFFFFFE000000003F000FFFE0000000007FFF8001E000FC0
310
01E0007FFF80007FFFFE0000000007FFFFE0000000007FF80FFFFFFFFFFFFFC0
310
7FFFFFF0001FFFFFF0001FFFFFFFFC0007F0001FFFFFFFFC0007FF0003FFFFFF
310
FFFFFF0000000003F000FFF80000000007FFF8001E000FC003E0007FFF80007F
310
FFF0000000000FFFFF8000000000FFF80FFFFFFFFFFFFFC07FFFFFF0001FFFFF
310
F0001FFFFFFFFC0007F0001FFFFFFFFC0007FF0003FFFFFFFFFFFC0000000007
310
F000FFE0000000000FFFF0003E000FC003E0007FFF80007FFFC0000000001FFF
310
FE0000000001FFF80FFFFFFFFFFFFFC07FFFFFF0001FFFFFF0001FFFFFFFFC00
310
07F0001FFFFFFFFC0007FF0003FFFFFFFFFFF0000000000FF000FFC000000000
310
1FFFF0003F000F8003F0003FFF80007FFF80000000003FFFF80000000003FFF8
310
0FFFFFFFFFFFFFC07FFFFFF0001FFFFFF0001FFFFFFFFC0007F0001FFFFFFFFC
310
0007FF0003FFFFFFFFFFE0000000001FF000FF00000000007FFFF0003F000780
310
03F0003FFF80007FFF00000000007FFFF00000000007FFF80FFFFFFFFFFFFFC0
310
7FFFFFF0001FFFFFF0001FFFFFFFFC0007F0001FFFFFFFFC0007FF0003FFFFFF
310
FFFF80000000007FF000FE0000000000FFFFE0003F00078007F0003FFF80007F
310
FE0000000001FFFFE0000000001FFFF80FFFFFFFFFFFFFC07FFFFFF0001FFFFF
310
F0001FFFFFFFFC0007F0001FFFFFFFFC0007FF0003FFFFFFFFFF0000000000FF
310
F000FC0000000003FFFFE0007F00078007F0003FFF80007FFC0000000007FFFF
310
C0000000007FFFF80FFFFFFFFFFFFFC07FFFFFF0001FFFFFF8001FFFFFFFFC00
310
0FF8001FFFFFFFFC000FFF0003FFFFFFFFFE0000000003FFF000FC000000000F
310
FFFFE0007F80070007F8001FFF80007FF8000000001FFFFF8000000001FFFFF8
310
0FFFFFFFFFFFFFC07FFFFFF0001FFFFFF8001FFFFFFFFC000FF8001FFFFFFFFC
310
000FFF0003FFFFFFFFFC000000000FFFF000F8000000007FFFFFE0007F800700
310
07F8001FFF80007FF000000000FFFFFF800000000FFFFFF80FFFFFFFFFFFFFC0
310
7FFFFFF0001FFFFFF8000FFFFFFFF8000FF8000FFFFFFFF8000FFF0003FFFFFF
310
FFFC000000007FFFF000F800000007FFFFFFC0007F8003000FF8001FFF80007F
310
F000000007FFFFFF000000007FFFFFF80FFFFFFFFFFFFFC07FFFFFF0001FFFFF
310
F8000FFFFFFFF8000FF8000FFFFFFFF8000FFF0003FFFFFFFFF80000000FFFFF
310
F000F0000000FFFFFFFFC000FF8003000FF8001FFF80007FE0000000FFFFFFFF
310
0000000FFFFFFFF8000001FFFE0000007FFFFFF0001FFFFFF8000FFFFFFFF800
310
0FF8000FFFFFFFF8000FFF0003FFFFFFFFF8000000FFFFFFF000F000000FFFFF
310
FFFFC000FFC002000FF8000FFF80007FE000001FFFFFFFFE000001FFFFFFFFF8
310
000001FFFE0000007FFFFFF0001FFFFFF8000FFFFFFFF8000FF8000FFFFFFFF8
310
000FFF0003FFFFFFFFF000001FFFFFFFF000E00000FFFFFFFFFFC000FFC00200
310
0FFC000FFF80007FE00001FFFFFFFFFE00001FFFFFFFFFF8000001FFFE000000
310
7FFFFFF0001FFFFFFC000FFFFFFFF8001FFC000FFFFFFFF8001FFF0003FFFFFF
310
FFF00001FFFFFFFFF000E00007FFFFFFFFFF8000FFC000001FFC000FFF80007F
310
C0000FFFFFFFFFFE0000FFFFFFFFFFF8000001FFFE0000007FFFFFF0001FFFFF
310
FC0007FFFFFFF0001FFC0007FFFFFFF0001FFF0003FFFFFFFFF00007FFFFFFFF
310
F000E0001FFFFFFFFFFF8000FFC000001FFC000FFF80007FC0003FFFFFFFFFFE
310
0001FFFFFFFFFFF8000001FFFE0000007FFFFFF0001FFFFFFC0007FFFFFFF000
310
1FFC0007FFFFFFF0001FFF0003FFFFFFFFF0001FFFFFFFFFF000E0003FFFFF00
310
03FF8001FFE000001FFC0007FF80007FC0007FFFFF0007FC0003FFFFF0003FF8
310
000001FFFE0000007FFFFFF0001FFFFFFC0003FFFFFFE0001FFC0003FFFFFFE0
310
001FFF0003FFFFFFFFF0003FFFFFFFFFF000E0003FFFFF0001FF8001FFE00000
310
1FFE0007FF80007FC0007FFFFE0003FC0007FFFFE0003FF8000001FFFE000000
310
7FFFFFF0001FFFFFFE0003FFFFFFE0003FFE0003FFFFFFE0003FFF0003FFFFFF
310
FFF0003FFFFF8001F000E0003FFFFF0001FF0001FFE000001FFE0007FF80007F
310
C0007FFFFE0003FC0007FFFFE0003FF8000001FFFE0000007FFFFFF0001FFFFF
310
FE0001FFFFFFC0003FFE0001FFFFFFC0003FFF0003FFFFFFFFF0003FFFFF0001
310
F000E0003FFFFF0003FF0001FFE000003FFE0007FF80007FC0007FFFFE0003FC
310
0007FFFFE0003FF8000001FFFE0000007FFFFFF0001FFFFFFF0001FFFFFFC000
310
7FFF0001FFFFFFC0007FFF0003FFFFFFFFF0003FFFFF0001F000E0003FFFFE00
310
03FF0003FFF000003FFE0003FF80007FC0007FFFFC0003FE0007FFFFE0003FF8
310
000001FFFE0000007FFFFFF0001FFFFFFF0000FFFFFF80007FFF0000FFFFFF80
310
007FFF0003FFFFFFFFF0003FFFFF0001F000E0003FFFFE0003FF0003FFF00000
310
3FFF0003FF80007FC0007FFFFC0007FE0007FFFFC0003FF8000001FFFE000000
310
7FFFFFF0001FFFFFFF80007FFFFF0000FFFF80007FFFFF0000FFFF0003FFFFFF
310
FFF0003FFFFF0003F000E0003FFFFC0003FE0003FFF000003FFF0003FF80007F
310
E0003FFFF80007FE0003FFFFC0007FF8000001FFFE0000007FFFFFF0001FFFFF
310
FF80003FFFFE0000FFFF80003FFFFE0000FFFF0003FFFFFFFFF0001FFFFE0003
310
F000F0001FFFF80003FE0003FFF000007FFF0001FF80007FE0003FFFF00007FE
310
0001FFFF80007FF8000001FFFE0000007FFFFFF0001FFFFFFFC0000FFFF80001
310
FFFFC0000FFFF80001FFFF0003FFFFFFFFF0001FFFFC0003F000F0000FFFF000
310
07FE0007FFF800007FFF0001FF80007FE0001FFFE00007FF0000FFFE00007FF8
310
000001FFFE0000007FFFFFF0001FFFFFFFC00003FFE00001FFFFC00003FFE000
310
01FFFF0003FFFFFFFFF8000FFFF80003F000F00003FFC00007FC0007FFF80000
310
7FFF8001FF80007FF00007FF80000FFF00007FF80000FFF8000001FFFE000000
310
7F80000000000001FFE000003E000003FFFFE000003E000003FFFF0003FFFFFF
310
FFF80003FFE00007F000F800000000000FFC0007FFF800007FFF8001FF80007F
310
F000000000000FFF000000000000FFF8000001FFFE0000007F80000000000001
310
FFF0000000000007FFFFF0000000000007FFFF0003FFFFFFFFFC00007E000007
310
F000F800000000000FFC0007FFF80000FFFF8000FF80007FF800000000001FFF
310
800000000001FFF8000001FFFE0000007F80000000000001FFF800000000000F
310
FFFFF800000000000FFFFF0003FFFFFFFFFC00000000000FF000FC0000000000
310
1FFC0007FFFC0000FFFF8000FF80007FF800000000003FFFC00000000001FFF8
310
000001FFFE0000007F80000000000001FFF800000000000FFFFFF80000000000
310
0FFFFF0003FFFFFFFFFE00000000001FF000FE00000000003FF8000FFFFC0000
310
FFFF8000FF80007FFC00000000003FFFC00000000003FFF8000001FFFE000000
310
7F80000000000001FFFC00000000001FFFFFFC00000000001FFFFF0003FFFFFF
310
FFFF00000000001FF000FF00000000003FF8000FFFFC0000FFFFC000FF80007F
310
FE00000000007FFFE00000000007FFF8000001FFFE0000007F80000000000001
310
FFFE00000000003FFFFFFE00000000003FFFFF0003FFFFFFFFFF80000000003F
310
F000FF80000000007FF8000FFFFC0001FFFFC0007F80007FFF0000000000FFFF
310
F0000000000FFFF800000000000000007F80000000000001FFFF8000000000FF
310
FFFFFF8000000000FFFFFF0003FFFFFFFFFFC0000000007FF000FFC000000000
310
FFF8000FFFFE0001FFFFC0007F80007FFF8000000001FFFFF8000000001FFFF8
310
00000000000000007F80000000000001FFFFC000000001FFFFFFFFC000000001
310
FFFFFF0003FFFFFFFFFFE000000000FFF000FFE000000003FFF0001FFFFE0001
310
FFFFC0007F80007FFFC000000007FFFFFE000000003FFFF80000000000000000
310
7F80000000000001FFFFE000000003FFFFFFFFE000000003FFFFFF0003FFFFFF
310
FFFFF000000003FFF000FFF80000000FFFF0001FFFFE0001FFFFE0007F80007F
310
FFF00000000FFFFFFF00000000FFFFF800000000000000007F80000000000001
310
FFFFF80000000FFFFFFFFFF80000000FFFFFFF0003FFFFFFFFFFFC0000000FFF
310
F000FFFE0000003FFFF0001FFFFE0003FFFFE0003F80007FFFFC0000003FFFFF
310
FFC0000003FFFFF800000000000000007F80000000000001FFFFFE0000003FFF
310
FFFFFFFE0000003FFFFFFF0003FFFFFFFFFFFF0000003FFFF000FFFF800000FF
310
FFF0001FFFFF0003FFFFE0003F80007FFFFF000001FFFFFFFFF800001FFFFFF8
310
00000000000000007F80000000000001FFFFFFC00001FFFFFFFFFFFFC00001FF
310
FFFFFF0003FFFFFFFFFFFFC00000FFFFF000FFFFF8000FFFFFFFFFFFFFFFFFFF
310
FFFFFFFFFFFFFFFFFFFFF0001FFFFFFFFFFF0000FFFFFFF80000000000000000
310
7FFFFFFFFFFFFFFFFFFFFFFC001FFFFFFFFFFFFFFC001FFFFFFFFFFFFFFFFFFF
310
FFFFFFFC001FFFFFF000FFFFFFFFFFFFFFFFFFFFFFFFFFFFFFFFFFFFFFFFFFFF
310
FFFFFFFFFFFFFFFFFFFFFFFFFFFFFFFFFFFFFFFFFFFFFFFFFFFFFFFFFFFFFFFF
310
FFFFFFFFFFFFFFFFFFFFFFFFFFFFFFFFFFFFFFFFFFFFFFFFFFFFFFFFFFFFFFFF
310
F000FFFFFFFFFFFFFFFFFFFFFFFFFFFFFFFFFFFFFFFFFFFFFFFFFFFFFFFFFFFF
310
FFFFFFFFFFFFFFFFFFFFFFFFFFFFFFFFFFFFFFFFFFFFFFFFFFFFFFFFFFFFFFFF
310
FFFFFFFFFFFFFFFFFFFFFFFFFFFFFFFFFFFFFFFFFFFFFFFFF000FFFFFFFFFFFF
310
FFFFFFFFFFFFFFFFFFFFFFFFFFFFFFFFFFFFFFFFFFFFFFFFFFFFFFFFFFFFFFFF
310
FFFFFFFFFFFFFFFFFFFFFFFFFFFFFFFFFFFFFFFFFFFFFFFFFFFFFFFFFFFFFFFF
310
FFFFFFFFFFFFFFFFFFFFFFFFFFFFFFFFF000FFFFFFFFFFFFFFFFFFFFFFFFFFFF
310
FFFFFFFFFFFFFFFFFFFFFFFFFFFFFFFFFFFFFFFFFFFFFFFFFFFFFFFFFFFFFFFF
310
FFFFFFFFFFFFFFFFFFFFFFFFFFFFFFFFFFFFFFFFFFFFFFFFFFFFFFFFFFFFFFFF
310
FFFFFFFFFFFFFFFFF000FFFFFFFFFFFFFFFFFFFFFFFFFFFFFFFFFFFFFFFFFFFF
310
FFFFFFFFFFFFFFFFFFFFFFFFFFFFFFFFFFFFFFFFFFFFFFFFFFFFFFFFFFFFFFFF
310
FFFFFFFFFFFFFFFFFFFFFFFFFFFFFFFFFFFFFFFFFFFFFFFFFFFFFFFFFFFFFFFF
310
F000FFFFFFFFFFFFFFFFFFFFFFFFFFFFFFFFFFFFFFFFFFFFFFFFFFFFFFFFFFFF
310
FFFFFFFFFFFFFFFFFFFFFFFFFFFFFFFFFFFFFFFFFFFFFFFFFFFFFFFFFFFFFFFF
310
FFFFFFFFFFFFFFFFFFFFFFFFFFFFFFFFFFFFFFFFFFFFFFFFF000FFFFFFFFFFFF
310
FFFFFFFFFFFFFFFFFFFFFFFFFFFFFFFFFFFFFFFFFFFFFFFFFFFFFFFFFFFFFFFF
310
FFFFFFFFFFFFFFFFFFFFFFFFFFFFFFFFFFFFFFFFFFFFFFFFFFFFFFFFFFFFFFFF
310
FFFFFFFFFFFFFFFFFFFFFFFFFFFFFFFFF000FFFFFFFFFFFFFFFFFFFFFFFFFFFF
310
FFFFFFFFFFFFFFFFFFFFFFFFFFFFFFFFFFFFFFFFFFFFFFFFFFFFFFFFFFFFFFFF
310
FFFFFFFFFFFFFFFFFFFFFFFFFFFFFFFFFFFFFFFFFFFFFFFFFFFFFFFFFFFFFFFF
310
FFFFFFFFFFFFFFFFF000FFFFFFFFFFFFFFFFFFFFFFFFFFFFFFFFFFFFFFFFFFFF
310
FFFFFFFFFFFFFFFFFFFFFFFFFFFFFFFFFFFFFFFFFFFFFFFFFFFFFFFFFFFFFFFF
310
FFFFFFFFFFFFFFFFFFFFFFFFFFFFFFFFFFFFFFFFFFFFFFFFFFFFFFFFFFFFFFFF
310
F000FFFFFFFFFFFFFFFFFFFFFFFFFFFFFFFFFFFFFFFFFFFFFFFFFFFFFFFFFFFF
310
FFFFFFFFFFFFFFFFFFFFFFFFFFFFFFFFFFFFFFFFFFFFFFFFFFFFFFFFFFFFFFFF
310
FFFFFFFFFFFFFFFFFFFFFFFFFFFFFFFFFFFFFFFFFFFFFFFFF000FFFFFFFFFFFF
310
FFFFFFFFFFFFFFFFFFFFFFFFFFFFFFFFFFFFFFFFFFFFFFFFFFFFFFFFFFFFFFFF
310
FFFFFFFFFFFFFFFFFFFFFFFFFFFFFFFFFFFFFFFFFFFFFFFFFFFFFFFFFFFFFFFF
310
FFFFFFFFFFFFFFFFFFFFFFFFFFFFFFFFF000FFFFFFFFFFFFFFFFFFFFFFFFFFFF
310
FFFFFFFFFFFFFFFFFFFFFFFFFFFFFFFFFFFFFFFFFFFFFFFFFFFFFFFFFFFFFFFF
310
FFFFFFFFFFFFFFFFFFFFFFFFFFFFFFFFFFFFFFFFFFFFFFFFFFFFFFFFFFFFFFFF
310
FFFFFFFFFFFFFFFFF000FFFFFFFFFFFFFFFFFFFFFFFFFFFFFFFFFFFFFFFFFFFF
310
FFFFFFFFFFFFFFFFFFFFFFFFFFFFFFFFFFFFFFFFFFFFFFFFFFFFFFFFFFFFFFFF
310
FFFFFFFFFFFFFFFFFFFFFFFFFFFFFFFFFFFFFFFFFFFFFFFFFFFFFFFFFFFFFFFF
310
F000FFFFFFFFFFFFFFFFFFFFFFFFFFFFFFFFFFFFFFFFFFFFFFFFFFFFFFFFFFFF
310
FFFFFFFFFFFFFFFFFFFFFFFFFFFFFFFFFFFFFFFFFFFFFFFFFFFFFFFFFFFFFFFF
310
FFFFFFFFFFFFFFFFFFFFFFFFFFFFFFFFFFFFFFFFFFFFFFFFF000FFFFFFFFFFFF
310
FFFFFFFFFFFFFFFFFFFFFFFFFFFFFFFFFFFFFFFFFFFFFFFFFFFFFFFFFFFFFFFF
310
FFFFFFFFFFFFFFFFFFFFFFFFFFFFFFFFFFFFFFFFFFFFFFFFFFFFFFFFFFFFFFFF
310
FFFFFFFFFFFFFFFFFFFFFFFFFFFFFFFFF000FFFFFFFFFFFFFFFFFFFFFFFFFFFF
310
FFFFFFFFFFFFFFFFFFFFFFFFFFFFFFFFFFFFFFFFFFFFFFFFFFFFFFFFFFFFFFFF
310
FFFFFFFFFFFFFFFFFFFFFFFFFFFFFFFFFFFFFFFFFFFFFFFFFFFFFFFFFFFFFFFF
310
FFFFFFFFFFFFFFFFF000FFFFFFFFFFFFFFFFFFFFFFFFFFFFFFFFFFFFFFFFFFFF
310
FFFFFFFFFFFFFFFFFFFFFFFFFFFFFFFFFFFFFFFFFFFFFFFFFFFFFFFFFFFFFFFF
310
FFFFFFFFFFFFFFFFFFFFFFFFFFFFFFFFFFFFFFFFFFFFFFFFFFFFFFFFFFFFFFFF
310
F000FFFFFFFFFFFFFFFFFFFFFFFFFFFFFFFFFFFFFFFFFFFFFFFFFFFFFFFFFFFF
310
FFFFFFFFFFFFFFFFFFFFFFFFFFFFFFFFFFFFFFFFFFFFFFFFFFFFFFFFFFFFFFFF
310
FFFFFFFFFFFFFFFFFFFFFFFFFFFFFFFFFFFFFFFFFFFFFFFFF000FFFFFFFFFFFF
310
FFFFFFFFFFFFFFFFFFFFFFFFFFFFFFFFFFFFFFFFFFFFFFFFFFFFFFFFFFFFFFFF
310
FFFFFFFFFFFFFFFFFFFFFFFFFFFFFFFFFFFFFFFFFFFFFFFFFFFFFFFFFFFFFFFF
310
FFFFFFFFFFFFFFFFFFFFFFFFFFFFFFFFF000FFFFFFFFFFFFFFFFFFFFFFFFFFFF
310
FFFFFFFFFFFFFFFFFFFFFFFFFFFFFFFFFFFFFFFFFFFFFFFFFFFFFFFFFFFFFFFF
310
FFFFFFFFFFFFFFFFFFFFFFFFFFFFFFFFFFFFFFFFFFFFFFFFFFFFFFFFFFFFFFFF
310
FFFFFFFFFFFFFFFFF000FFFFFFFFFFFFFFFFFFFFFFFFFFFFFFFFFFFFFFFFFFFF
310
FFFFFFFFFFFFFFFFFFFFFFFFFFFFFFFFFFFFFFFFFFFFFFFFFFFFFFFFFFFFFFFF
310
FFFFFFFFFFFFFFFFFFFFFFFFFFFFFFFFFFFFFFFFFFFFFFFFFFFFFFFFFFFFFFFF
310
F000FFFFFFFFFFFFFFFFFFFFFFFFFFFFFFFFFFFFFFFFFFFFFFFFFFFFFFFFFFFF
310
FFFFFFFFFFFFFFFFFFFFFFFFFFFFFFFFFFFFFFFFFFFFFFFFFFFFFFFFFFFFFFFF
310
FFFFFFFFFFFFFFFFFFFFFFFFFFFFFFFFFFFFFFFFFFFFFFFFF000FFFFFFFFFFFF
310
FFFFFFFFFFFFFFFFFFFFFFFFFFFFFFFFFFFFFFFFFFFFFFFFFFFFFFFFFFFFFFFF
310
FFFFFFFFFFFFFFFFFFFFFFFFFFFFFFFFFFFFFFFFFFFFFFFFFFFFFFFFFFFFFFFF
310
FFFFFFFFFFFFFFFFFFFFFFFFFFFFFFFFF0000000000000000000000000000000
310
0000000000000000000000000000000000000000000000000000000000000000
310
0000000000000000000000000000000000000000000000000000000000000000
310
0000000000000000000000000000000000000000000000000000000000000000
310
0000000000000000000000000000000000000000000000000000000000000000
310
0000000000000000000000000000000000000000000000000000000000000000
310
0000000000000000000000000000000000000000000000000000000000000000
310
0000000000000000000000000000000000000000000000000000000000000000
310
0000000000000000000000000000000000000000000000000000000000000000
310
0000000000000000000000000000000000000000000000000000000000000000
310
0000000000000000000000000000000000000000000000000000000000000000
310
0000000000000000000000000000000000000000000000000000000000000000
310
0000000000000000000000000000000000000000000000000000000000000000
310
0000000000000000000000000000000000000000000000000000000000000000
310
0000000000000000000000000000000000000000000000000000000000000000
310
0000000000000000000000000000000000000000000000000000000000000000
  1
OLE
  0
ENDSEC
  0
SECTION
  2
OBJECTS
  0
DICTIONARY
  5
C
330
0
100
AcDbDictionary
281
     1
  3
ACAD_GROUP
350
D
  3
ACAD_LAYOUT
350
1A
  3
ACAD_MLINESTYLE
350
17
  3
ACAD_PLOTSETTINGS
350
19
  3
ACAD_PLOTSTYLENAME
350
E
  3
ACAD_SCALELIST
350
47
  0
DICTIONARY
  5
D
102
{ACAD_REACTORS
330
C
102
}
330
C
100
AcDbDictionary
281
     1
  0
DICTIONARY
  5
1A
102
{ACAD_REACTORS
330
C
102
}
330
C
100
AcDbDictionary
281
     1
  3
Layout1
350
1E
  3
Layout2
350
26
  3
Model
350
22
  0
DICTIONARY
  5
17
102
{ACAD_REACTORS
330
C
102
}
330
C
100
AcDbDictionary
281
     1
  3
Standard
350
18
  0
DICTIONARY
  5
19
102
{ACAD_REACTORS
330
C
102
}
330
C
100
AcDbDictionary
281
     1
  0
ACDBDICTIONARYWDFLT
  5
E
102
{ACAD_REACTORS
330
C
102
}
330
C
100
AcDbDictionary
281
     1
  3
Normal
350
F
100
AcDbDictionaryWithDefault
340
F
  0
DICTIONARY
  5
47
102
{ACAD_REACTORS
330
C
102
}
330
C
100
AcDbDictionary
281
     1
  3
A0
350
48
  3
A1
350
49
  3
A2
350
4A
  3
A3
350
4B
  3
A4
350
4C
  3
A5
350
4D
  3
A6
350
4E
  3
A7
350
4F
  3
A8
350
50
  3
A9
350
51
  3
B0
350
52
  3
B1
350
53
  3
B2
350
54
  3
B3
350
55
  3
B4
350
56
  3
B5
350
57
  3
B6
350
58
  3
B7
350
59
  3
B8
350
5A
  3
B9
350
5B
  3
C0
350
5C
  3
C1
350
5D
  3
C2
350
5E
  3
C3
350
5F
  3
C4
350
60
  3
C5
350
61
  3
C6
350
62
  3
C7
350
63
  3
C8
350
64
  3
C9
350
65
  3
D0
350
66
  3
D1
350
67
  3
D2
350
68
  0
LAYOUT
  5
1E
102
{ACAD_REACTORS
330
1A
102
}
330
1A
100
AcDbPlotSettings
  1

  2
none_device
  4

  6

 40
0.0
 41
0.0
 42
0.0
 43
0.0
 44
0.0
 45
0.0
 46
0.0
 47
0.0
 48
0.0
 49
0.0
140
0.0
141
0.0
142
1.0
143
1.0
 70
   688
 72
     1
 73
     0
 74
     5
  7

 75
    16
147
1.0
148
0.0
149
0.0
100
AcDbLayout
  1
Layout1
 70
     1
 71
     1
 10
0.0
 20
0.0
 11
420.0
 21
297.0
 12
0.0
 22
0.0
 32
0.0
 14
1.0000000000E+20
 24
1.0000000000E+20
 34
1.0000000000E+20
 15
-1.0000000000E+20
 25
-1.0000000000E+20
 35
-1.0000000000E+20
146
0.0
 13
0.0
 23
0.0
 33
0.0
 16
1.0
 26
0.0
 36
0.0
 17
0.0
 27
1.0
 37
0.0
 76
     0
330
1B
  0
LAYOUT
  5
26
102
{ACAD_REACTORS
330
1A
102
}
330
1A
100
AcDbPlotSettings
  1

  2
none_device
  4

  6

 40
0.0
 41
0.0
 42
0.0
 43
0.0
 44
0.0
 45
0.0
 46
0.0
 47
0.0
 48
0.0
 49
0.0
140
0.0
141
0.0
142
1.0
143
1.0
 70
   688
 72
     1
 73
     0
 74
     5
  7

 75
    16
147
1.0
148
0.0
149
0.0
100
AcDbLayout
  1
Layout2
 70
     1
 71
     2
 10
0.0
 20
0.0
 11
0.0
 21
0.0
 12
0.0
 22
0.0
 32
0.0
 14
0.0
 24
0.0
 34
0.0
 15
0.0
 25
0.0
 35
0.0
146
0.0
 13
0.0
 23
0.0
 33
0.0
 16
1.0
 26
0.0
 36
0.0
 17
0.0
 27
1.0
 37
0.0
 76
     0
330
23
  0
LAYOUT
  5
22
102
{ACAD_REACTORS
330
1A
102
}
330
1A
100
AcDbPlotSettings
  1

  2
none_device
  4
Letter_(8.50_x_11.00_Inches)
  6

 40
6.35
 41
6.35
 42
6.35000508
 43
6.35000508
 44
215.9
 45
279.4
 46
0.0
 47
0.0
 48
0.0
 49
0.0
140
0.0
141
0.0
142
1.0
143
1.0
 70
  1712
 72
     1
 73
     0
 74
     0
  7

 75
     0
147
1.0
148
0.0
149
0.0
100
AcDbLayout
  1
Model
 70
     1
 71
     0
 10
0.0
 20
0.0
 11
297.0
 21
210.0
 12
0.0
 22
0.0
 32
0.0
 14
0.0
 24
0.0
 34
0.0
 15
297.0
 25
210.0
 35
0.0
146
0.0
 13
0.0
 23
0.0
 33
0.0
 16
1.0
 26
0.0
 36
0.0
 17
0.0
 27
1.0
 37
0.0
 76
     0
330
1F
331
29
  0
MLINESTYLE
  5
18
102
{ACAD_REACTORS
330
17
102
}
330
17
100
AcDbMlineStyle
  2
Standard
 70
     0
  3

 62
   256
 51
90.0
 52
90.0
 71
     2
 49
0.5
 62
   256
  6
BYLAYER
 49
-0.5
 62
   256
  6
BYLAYER
  0
ACDBPLACEHOLDER
  5
F
102
{ACAD_REACTORS
330
E
102
}
330
E
  0
SCALE
  5
48
102
{ACAD_REACTORS
330
47
102
}
330
47
100
AcDbScale
 70
     0
300
1:1
140
1.0
141
1.0
290
     1
  0
SCALE
  5
49
102
{ACAD_REACTORS
330
47
102
}
330
47
100
AcDbScale
 70
     0
300
1:2
140
1.0
141
2.0
290
     0
  0
SCALE
  5
4A
102
{ACAD_REACTORS
330
47
102
}
330
47
100
AcDbScale
 70
     0
300
1:4
140
1.0
141
4.0
290
     0
  0
SCALE
  5
4B
102
{ACAD_REACTORS
330
47
102
}
330
47
100
AcDbScale
 70
     0
300
1:5
140
1.0
141
5.0
290
     0
  0
SCALE
  5
4C
102
{ACAD_REACTORS
330
47
102
}
330
47
100
AcDbScale
 70
     0
300
1:8
140
1.0
141
8.0
290
     0
  0
SCALE
  5
4D
102
{ACAD_REACTORS
330
47
102
}
330
47
100
AcDbScale
 70
     0
300
1:10
140
1.0
141
10.0
290
     0
  0
SCALE
  5
4E
102
{ACAD_REACTORS
330
47
102
}
330
47
100
AcDbScale
 70
     0
300
1:16
140
1.0
141
16.0
290
     0
  0
SCALE
  5
4F
102
{ACAD_REACTORS
330
47
102
}
330
47
100
AcDbScale
 70
     0
300
1:20
140
1.0
141
20.0
290
     0
  0
SCALE
  5
50
102
{ACAD_REACTORS
330
47
102
}
330
47
100
AcDbScale
 70
     0
300
1:30
140
1.0
141
30.0
290
     0
  0
SCALE
  5
51
102
{ACAD_REACTORS
330
47
102
}
330
47
100
AcDbScale
 70
     0
300
1:40
140
1.0
141
40.0
290
     0
  0
SCALE
  5
52
102
{ACAD_REACTORS
330
47
102
}
330
47
100
AcDbScale
 70
     0
300
1:50
140
1.0
141
50.0
290
     0
  0
SCALE
  5
53
102
{ACAD_REACTORS
330
47
102
}
330
47
100
AcDbScale
 70
     0
300
1:100
140
1.0
141
100.0
290
     0
  0
SCALE
  5
54
102
{ACAD_REACTORS
330
47
102
}
330
47
100
AcDbScale
 70
     0
300
2:1
140
2.0
141
1.0
290
     0
  0
SCALE
  5
55
102
{ACAD_REACTORS
330
47
102
}
330
47
100
AcDbScale
 70
     0
300
4:1
140
4.0
141
1.0
290
     0
  0
SCALE
  5
56
102
{ACAD_REACTORS
330
47
102
}
330
47
100
AcDbScale
 70
     0
300
8:1
140
8.0
141
1.0
290
     0
  0
SCALE
  5
57
102
{ACAD_REACTORS
330
47
102
}
330
47
100
AcDbScale
 70
     0
300
10:1
140
10.0
141
1.0
290
     0
  0
SCALE
  5
58
102
{ACAD_REACTORS
330
47
102
}
330
47
100
AcDbScale
 70
     0
300
100:1
140
100.0
141
1.0
290
     0
  0
SCALE
  5
59
102
{ACAD_REACTORS
330
47
102
}
330
47
100
AcDbScale
 70
     0
300
1/128" = 1'-0"
140
0.0078125
141
12.0
290
     0
  0
SCALE
  5
5A
102
{ACAD_REACTORS
330
47
102
}
330
47
100
AcDbScale
 70
     0
300
1/64" = 1'-0"
140
0.015625
141
12.0
290
     0
  0
SCALE
  5
5B
102
{ACAD_REACTORS
330
47
102
}
330
47
100
AcDbScale
 70
     0
300
1/32" = 1'-0"
140
0.03125
141
12.0
290
     0
  0
SCALE
  5
5C
102
{ACAD_REACTORS
330
47
102
}
330
47
100
AcDbScale
 70
     0
300
1/16" = 1'-0"
140
0.0625
141
12.0
290
     0
  0
SCALE
  5
5D
102
{ACAD_REACTORS
330
47
102
}
330
47
100
AcDbScale
 70
     0
300
3/32" = 1'-0"
140
0.09375
141
12.0
290
     0
  0
SCALE
  5
5E
102
{ACAD_REACTORS
330
47
102
}
330
47
100
AcDbScale
 70
     0
300
1/8" = 1'-0"
140
0.125
141
12.0
290
     0
  0
SCALE
  5
5F
102
{ACAD_REACTORS
330
47
102
}
330
47
100
AcDbScale
 70
     0
300
3/16" = 1'-0"
140
0.1875
141
12.0
290
     0
  0
SCALE
  5
60
102
{ACAD_REACTORS
330
47
102
}
330
47
100
AcDbScale
 70
     0
300
1/4" = 1'-0"
140
0.25
141
12.0
290
     0
  0
SCALE
  5
61
102
{ACAD_REACTORS
330
47
102
}
330
47
100
AcDbScale
 70
     0
300
3/8" = 1'-0"
140
0.375
141
12.0
290
     0
  0
SCALE
  5
62
102
{ACAD_REACTORS
330
47
102
}
330
47
100
AcDbScale
 70
     0
300
1/2" = 1'-0"
140
0.5
141
12.0
290
     0
  0
SCALE
  5
63
102
{ACAD_REACTORS
330
47
102
}
330
47
100
AcDbScale
 70
     0
300
3/4" = 1'-0"
140
0.75
141
12.0
290
     0
  0
SCALE
  5
64
102
{ACAD_REACTORS
330
47
102
}
330
47
100
AcDbScale
 70
     0
300
1" = 1'-0"
140
1.0
141
12.0
290
     0
  0
SCALE
  5
65
102
{ACAD_REACTORS
330
47
102
}
330
47
100
AcDbScale
 70
     0
300
1-1/2" = 1'-0"
140
1.5
141
12.0
290
     0
  0
SCALE
  5
66
102
{ACAD_REACTORS
330
47
102
}
330
47
100
AcDbScale
 70
     0
300
3" = 1'-0"
140
3.0
141
12.0
290
     0
  0
SCALE
  5
67
102
{ACAD_REACTORS
330
47
102
}
330
47
100
AcDbScale
 70
     0
300
6" = 1'-0"
140
6.0
141
12.0
290
     0
  0
SCALE
  5
68
102
{ACAD_REACTORS
330
47
102
}
330
47
100
AcDbScale
 70
     0
300
1'-0" = 1'-0"
140
12.0
141
12.0
290
     0
  0
ENDSEC
  0
EOF
