  0
SECTION
  2
HEADER
  9
$ACADVER
  1
AC1015
  9
$ACADMAINTVER
 70
     6
  9
$DWGCODEPAGE
  3
ANSI_1252
  9
$INSBASE
 10
0.0
 20
0.0
 30
0.0
  9
$EXTMIN
 10
0.0
 20
0.0
 30
0.0
  9
$EXTMAX
 10
297.0
 20
210.0
 30
0.0
  9
$LIMMIN
 10
0.0
 20
0.0
  9
$LIMMAX
 10
297.0
 20
210.0
  9
$ORTHOMODE
 70
     0
  9
$REGENMODE
 70
     1
  9
$FILLMODE
 70
     1
  9
$QTEXTMODE
 70
     0
  9
$MIRRTEXT
 70
     1
  9
$LTSCALE
 40
1.0
  9
$ATTMODE
 70
     1
  9
$TEXTSIZE
 40
2.0
  9
$TRACEWID
 40
1.0
  9
$TEXTSTYLE
  7
Standard
  9
$CLAYER
  8
0
  9
$CELTYPE
  6
ByLayer
  9
$CECOLOR
 62
   256
  9
$CELTSCALE
 40
1.0
  9
$DISPSILH
 70
     0
  9
$DIMSCALE
 40
1.0
  9
$DIMASZ
 40
3.0
  9
$DIMEXO
 40
0.0
  9
$DIMDLI
 40
3.75
  9
$DIMRND
 40
0.0
  9
$DIMDLE
 40
0.0
  9
$DIMEXE
 40
1.0
  9
$DIMTP
 40
0.0
  9
$DIMTM
 40
0.0
  9
$DIMTXT
 40
2.0
  9
$DIMCEN
 40
2.5
  9
$DIMTSZ
 40
0.0
  9
$DIMTOL
 70
     0
  9
$DIMLIM
 70
     0
  9
$DIMTIH
 70
     1
  9
$DIMTOH
 70
     1
  9
$DIMSE1
 70
     0
  9
$DIMSE2
 70
     0
  9
$DIMTAD
 70
     1
  9
$DIMZIN
 70
     0
  9
$DIMBLK
  1

  9
$DIMASO
 70
     1
  9
$DIMSHO
 70
     1
  9
$DIMPOST
  1

  9
$DIMAPOST
  1

  9
$DIMALT
 70
     0
  9
$DIMALTD
 70
     3
  9
$DIMALTF
 40
0.0393700787
  9
$DIMLFAC
 40
2.0
  9
$DIMTOFL
 70
     1
  9
$DIMTVP
 40
0.0
  9
$DIMTIX
 70
     0
  9
$DIMSOXD
 70
     0
  9
$DIMSAH
 70
     0
  9
$DIMBLK1
  1

  9
$DIMBLK2
  1

  9
$DIMSTYLE
  2
ISO-25
  9
$DIMCLRD
 70
     0
  9
$DIMCLRE
 70
     0
  9
$DIMCLRT
 70
     0
  9
$DIMTFAC
 40
1.0
  9
$DIMGAP
 40
1.524
  9
$DIMJUST
 70
     0
  9
$DIMSD1
 70
     0
  9
$DIMSD2
 70
     0
  9
$DIMTOLJ
 70
     0
  9
$DIMTZIN
 70
     0
  9
$DIMALTZ
 70
     0
  9
$DIMALTTZ
 70
     0
  9
$DIMUPT
 70
     0
  9
$DIMDEC
 70
     2
  9
$DIMTDEC
 70
     3
  9
$DIMALTU
 70
     2
  9
$DIMALTTD
 70
     3
  9
$DIMTXSTY
  7
Standard
  9
$DIMAUNIT
 70
     0
  9
$DIMADEC
 70
     2
  9
$DIMALTRND
 40
0.0
  9
$DIMAZIN
 70
     0
  9
$DIMDSEP
 70
    44
  9
$DIMATFIT
 70
     3
  9
$DIMFRAC
 70
     0
  9
$DIMLDRBLK
  1

  9
$DIMLUNIT
 70
     2
  9
$DIMLWD
 70
    -2
  9
$DIMLWE
 70
    -2
  9
$DIMTMOVE
 70
     0
  9
$LUNITS
 70
     2
  9
$LUPREC
 70
     2
  9
$SKETCHINC
 40
1.0
  9
$FILLETRAD
 40
10.0
  9
$AUNITS
 70
     0
  9
$AUPREC
 70
     2
  9
$MENU
  1
.
  9
$ELEVATION
 40
0.0
  9
$PELEVATION
 40
0.0
  9
$THICKNESS
 40
0.0
  9
$LIMCHECK
 70
     0
  9
$CHAMFERA
 40
0.0
  9
$CHAMFERB
 40
0.0
  9
$CHAMFERC
 40
0.0
  9
$CHAMFERD
 40
0.0
  9
$SKPOLY
 70
     0
  9
$TDCREATE
 40
2457673.455009479
  9
$TDUCREATE
 40
2457673.371676146
  9
$TDUPDATE
 40
2457673.455010544
  9
$TDUUPDATE
 40
2457673.371677211
  9
$TDINDWG
 40
0.0000000116
  9
$TDUSRTIMER
 40
0.0000000116
  9
$USRTIMER
 70
     1
  9
$ANGBASE
 50
0.0
  9
$ANGDIR
 70
     0
  9
$PDMODE
 70
     0
  9
$PDSIZE
 40
-1.0
  9
$PLINEWID
 40
0.0
  9
$SPLFRAME
 70
     0
  9
$SPLINETYPE
 70
     6
  9
$SPLINESEGS
 70
     8
  9
$HANDSEED
  5
20A
  9
$SURFTAB1
 70
     6
  9
$SURFTAB2
 70
     6
  9
$SURFTYPE
 70
     6
  9
$SURFU
 70
     6
  9
$SURFV
 70
     6
  9
$UCSBASE
  2

  9
$UCSNAME
  2

  9
$UCSORG
 10
0.0
 20
0.0
 30
0.0
  9
$UCSXDIR
 10
1.0
 20
0.0
 30
0.0
  9
$UCSYDIR
 10
0.0
 20
1.0
 30
0.0
  9
$UCSORTHOREF
  2

  9
$UCSORTHOVIEW
 70
     0
  9
$UCSORGTOP
 10
0.0
 20
0.0
 30
0.0
  9
$UCSORGBOTTOM
 10
0.0
 20
0.0
 30
0.0
  9
$UCSORGLEFT
 10
0.0
 20
0.0
 30
0.0
  9
$UCSORGRIGHT
 10
0.0
 20
0.0
 30
0.0
  9
$UCSORGFRONT
 10
0.0
 20
0.0
 30
0.0
  9
$UCSORGBACK
 10
0.0
 20
0.0
 30
0.0
  9
$PUCSBASE
  2

  9
$PUCSNAME
  2

  9
$PUCSORG
 10
0.0
 20
0.0
 30
0.0
  9
$PUCSXDIR
 10
1.0
 20
0.0
 30
0.0
  9
$PUCSYDIR
 10
0.0
 20
1.0
 30
0.0
  9
$PUCSORTHOREF
  2

  9
$PUCSORTHOVIEW
 70
     0
  9
$PUCSORGTOP
 10
0.0
 20
0.0
 30
0.0
  9
$PUCSORGBOTTOM
 10
0.0
 20
0.0
 30
0.0
  9
$PUCSORGLEFT
 10
0.0
 20
0.0
 30
0.0
  9
$PUCSORGRIGHT
 10
0.0
 20
0.0
 30
0.0
  9
$PUCSORGFRONT
 10
0.0
 20
0.0
 30
0.0
  9
$PUCSORGBACK
 10
0.0
 20
0.0
 30
0.0
  9
$USERI1
 70
     0
  9
$USERI2
 70
     0
  9
$USERI3
 70
     0
  9
$USERI4
 70
     0
  9
$USERI5
 70
     0
  9
$USERR1
 40
0.0
  9
$USERR2
 40
0.0
  9
$USERR3
 40
0.0
  9
$USERR4
 40
0.0
  9
$USERR5
 40
0.0
  9
$WORLDVIEW
 70
     1
  9
$SHADEDGE
 70
     3
  9
$SHADEDIF
 70
    70
  9
$TILEMODE
 70
     1
  9
$MAXACTVP
 70
    64
  9
$PINSBASE
 10
0.0
 20
0.0
 30
0.0
  9
$PLIMCHECK
 70
     0
  9
$PEXTMIN
 10
1.0000000000E+20
 20
1.0000000000E+20
 30
1.0000000000E+20
  9
$PEXTMAX
 10
-1.0000000000E+20
 20
-1.0000000000E+20
 30
-1.0000000000E+20
  9
$PLIMMIN
 10
0.0
 20
0.0
  9
$PLIMMAX
 10
420.0
 20
297.0
  9
$UNITMODE
 70
     0
  9
$VISRETAIN
 70
     1
  9
$PLINEGEN
 70
     0
  9
$PSLTSCALE
 70
     1
  9
$TREEDEPTH
 70
  3020
  9
$CMLSTYLE
  2
Standard
  9
$CMLJUST
 70
     0
  9
$CMLSCALE
 40
20.0
  9
$PROXYGRAPHICS
 70
     1
  9
$MEASUREMENT
 70
     1
  9
$CELWEIGHT
370
    -1
  9
$ENDCAPS
280
     0
  9
$JOINSTYLE
280
     0
  9
$LWDISPLAY
290
     1
  9
$INSUNITS
 70
     4
  9
$HYPERLINKBASE
  1

  9
$STYLESHEET
  1

  9
$XEDIT
290
     1
  9
$CEPSNTYPE
380
     0
  9
$PSTYLEMODE
290
     1
  9
$FINGERPRINTGUID
  2
{A9EB1B57-06E5-448A-91AE-934817D70BF6}
  9
$VERSIONGUID
  2
{FAEB1C32-E019-11D5-929B-00C0DF256EC4}
  9
$EXTNAMES
290
     1
  9
$PSVPSCALE
 40
0.0
  9
$OLESTARTUP
290
     0
  0
ENDSEC
  0
SECTION
  2
CLASSES
  0
CLASS
  1
ACDBDICTIONARYWDFLT
  2
AcDbDictionaryWithDefault
  3
ObjectDBX Classes
 90
        0
280
     0
281
     0
  0
CLASS
  1
VISUALSTYLE
  2
AcDbVisualStyle
  3
ObjectDBX Classes
 90
     4095
280
     0
281
     0
  0
CLASS
  1
MATERIAL
  2
AcDbMaterial
  3
ObjectDBX Classes
 90
     1153
280
     0
281
     0
  0
CLASS
  1
SCALE
  2
AcDbScale
  3
ObjectDBX Classes
 90
     1153
280
     0
281
     0
  0
CLASS
  1
TABLESTYLE
  2
AcDbTableStyle
  3
ObjectDBX Classes
 90
     4095
280
     0
281
     0
  0
CLASS
  1
MLEADERSTYLE
  2
AcDbMLeaderStyle
  3
ACDB_MLEADERSTYLE_CLASS
 90
     4095
280
     0
281
     0
  0
CLASS
  1
SUN
  2
AcDbSun
  3
SCENEOE
 90
     1153
280
     0
281
     0
  0
CLASS
  1
ACDBPLACEHOLDER
  2
AcDbPlaceHolder
  3
ObjectDBX Classes
 90
        0
280
     0
281
     0
  0
CLASS
  1
LAYOUT
  2
AcDbLayout
  3
ObjectDBX Classes
 90
        0
280
     0
281
     0
  0
ENDSEC
  0
SECTION
  2
TABLES
  0
TABLE
  2
VPORT
  5
8
330
0
100
AcDbSymbolTable
 70
     1
  0
VPORT
  5
29
330
8
100
AcDbSymbolTableRecord
100
AcDbViewportTableRecord
  2
*Active
 70
     0
 10
0.0
 20
0.0
 11
1.0
 21
1.0
 12
148.5
 22
105.0
 13
0.0
 23
0.0
 14
10.0
 24
10.0
 15
10.0
 25
10.0
 16
0.0
 26
0.0
 36
1.0
 17
0.0
 27
0.0
 37
0.0
 40
210.0
 41
1.4142857143
 42
50.0
 43
0.0
 44
0.0
 50
0.0
 51
0.0
 71
     0
 72
  2000
 73
     1
 74
     3
 75
     0
 76
     0
 77
     0
 78
     0
281
     0
 65
     1
110
0.0
120
0.0
130
0.0
111
1.0
121
0.0
131
0.0
112
0.0
122
1.0
132
0.0
 79
     0
146
0.0
  0
ENDTAB
  0
TABLE
  2
LTYPE
  5
5
330
0
100
AcDbSymbolTable
 70
     6
  0
LTYPE
  5
14
330
5
100
AcDbSymbolTableRecord
100
AcDbLinetypeTableRecord
  2
ByBlock
 70
     0
  3

 72
    65
 73
     0
 40
0.0
  0
LTYPE
  5
15
330
5
100
AcDbSymbolTableRecord
100
AcDbLinetypeTableRecord
  2
ByLayer
 70
     0
  3

 72
    65
 73
     0
 40
0.0
  0
LTYPE
  5
16
330
5
100
AcDbSymbolTableRecord
100
AcDbLinetypeTableRecord
  2
Continuous
 70
     0
  3
Solid line
 72
    65
 73
     0
 40
0.0
  0
LTYPE
  5
6E
330
5
100
AcDbSymbolTableRecord
100
AcDbLinetypeTableRecord
  2
HIDDEN
 70
     0
  3
Hidden __ __ __ __ __ __ __ __ __ __ __ __ __ __
 72
    65
 73
     2
 40
1.905
 49
1.27
 74
     0
 49
-0.635
 74
     0
  0
LTYPE
  5
6F
330
5
100
AcDbSymbolTableRecord
100
AcDbLinetypeTableRecord
  2
PHANTOM
 70
     0
  3
Phantom ______  __  __  ______  __  __  ______
 72
    65
 73
     6
 40
12.7
 49
6.35
 74
     0
 49
-1.27
 74
     0
 49
1.27
 74
     0
 49
-1.27
 74
     0
 49
1.27
 74
     0
 49
-1.27
 74
     0
  0
LTYPE
  5
70
330
5
100
AcDbSymbolTableRecord
100
AcDbLinetypeTableRecord
  2
CENTER
 70
     0
  3
Center ____ _ ____ _ ____ _ ____ _ ____ _ ____
 72
    65
 73
     4
 40
10.16
 49
6.35
 74
     0
 49
-1.27
 74
     0
 49
1.27
 74
     0
 49
-1.27
 74
     0
  0
LTYPE
  5
71
330
5
100
AcDbSymbolTableRecord
100
AcDbLinetypeTableRecord
  2
CENTERX2
 70
     0
  3
Center (2x) ________  __  ________  __  _____
 72
    65
 73
     4
 40
20.32
 49
12.7
 74
     0
 49
-2.54
 74
     0
 49
2.54
 74
     0
 49
-2.54
 74
     0
  0
LTYPE
  5
72
330
5
100
AcDbSymbolTableRecord
100
AcDbLinetypeTableRecord
  2
DOT2
 70
     0
  3
Dot (.5x) ........................................
 72
    65
 73
     2
 40
0.635
 49
0.0
 74
     0
 49
-0.635
 74
     0
  0
ENDTAB
  0
TABLE
  2
LAYER
  5
2
330
0
100
AcDbSymbolTable
 70
     5
  0
LAYER
  5
10
330
2
100
AcDbSymbolTableRecord
100
AcDbLayerTableRecord
  2
0
 70
     0
 62
     7
  6
Continuous
370
    -3
390
F
  0
LAYER
  5
73
330
2
100
AcDbSymbolTableRecord
100
AcDbLayerTableRecord
  2
FORMAT
 70
     0
 62
     7
  6
Continuous
370
    -3
390
F
  0
LAYER
  5
74
330
2
100
AcDbSymbolTableRecord
100
AcDbLayerTableRecord
  2
VERMASSUNG
 70
     0
 62
     7
  6
Continuous
370
    -3
390
F
  0
LAYER
  5
75
330
2
100
AcDbSymbolTableRecord
100
AcDbLayerTableRecord
  2
KOPF_DÜNN
 70
     0
 62
     7
  6
Continuous
370
    -3
390
F
  0
LAYER
  5
76
330
2
100
AcDbSymbolTableRecord
100
AcDbLayerTableRecord
  2
KOPF_DICK
 70
     0
 62
     7
  6
Continuous
370
    15
390
F
  0
ENDTAB
  0
TABLE
  2
STYLE
  5
3
330
0
100
AcDbSymbolTable
 70
     2
  0
STYLE
  5
11
330
3
100
AcDbSymbolTableRecord
100
AcDbTextStyleTableRecord
  2
Standard
 70
     0
 40
0.0
 41
1.0
 50
0.0
 71
     0
 42
2.0
  3
txt
  4

  0
STYLE
  5
77
330
3
100
AcDbSymbolTableRecord
100
AcDbTextStyleTableRecord
  2
SLDTEXTSTYLE0
 70
     0
 40
0.0
 41
0.7
 50
0.0
 71
     0
 42
2.0
  3
TXT
  4

  0
ENDTAB
  0
TABLE
  2
VIEW
  5
6
330
0
100
AcDbSymbolTable
 70
     0
  0
ENDTAB
  0
TABLE
  2
UCS
  5
7
330
0
100
AcDbSymbolTable
 70
     0
  0
ENDTAB
  0
TABLE
  2
APPID
  5
9
330
0
100
AcDbSymbolTable
 70
     1
  0
APPID
  5
12
330
9
100
AcDbSymbolTableRecord
100
AcDbRegAppTableRecord
  2
ACAD
 70
     0
  0
ENDTAB
  0
TABLE
  2
DIMSTYLE
  5
A
330
0
100
AcDbSymbolTable
 70
     3
100
AcDbDimStyleTable
  0
DIMSTYLE
105
27
330
A
100
AcDbSymbolTableRecord
100
AcDbDimStyleTableRecord
  2
ISO-25
 70
     0
 41
2.5
 42
0.625
 43
3.75
 44
1.25
 73
     0
 74
     0
 77
     1
 78
     8
140
2.5
141
2.5
143
0.0393700787
147
0.625
171
     3
172
     1
178
     0
271
     2
272
     2
274
     3
278
    44
283
     0
284
     8
340
11
  0
DIMSTYLE
105
145
102
{ACAD_REACTORS
330
144
102
}
330
A
100
AcDbSymbolTableRecord
100
AcDbDimStyleTableRecord
  2
SLDDIMSTYLE0
 70
     0
 41
3.0
 44
0.0
 45
0.000000001
 73
     0
 74
     0
 77
     1
 78
    12
 79
     3
140
2.0
147
0.5
173
     1
178
     0
271
     1
272
     1
276
     2
284
    12
340
77
  0
DIMSTYLE
105
152
102
{ACAD_REACTORS
330
151
330
15D
330
169
330
173
330
17D
102
}
330
A
100
AcDbSymbolTableRecord
100
AcDbDimStyleTableRecord
  2
SLDDIMSTYLE1
 70
     0
 41
3.0
 44
0.0
 45
0.000000001
 73
     0
 74
     0
 77
     1
 78
    12
 79
     3
140
2.0
147
0.5
173
     1
178
     0
271
     2
272
     3
276
     2
284
    12
340
77
  0
ENDTAB
  0
TABLE
  2
BLOCK_RECORD
  5
1
330
0
100
AcDbSymbolTable
 70
     7
  0
BLOCK_RECORD
  5
1F
330
1
100
AcDbSymbolTableRecord
100
AcDbBlockTableRecord
  2
*Model_Space
340
22
  0
BLOCK_RECORD
  5
1B
330
1
100
AcDbSymbolTableRecord
100
AcDbBlockTableRecord
  2
*Paper_Space
340
1E
  0
BLOCK_RECORD
  5
23
330
1
100
AcDbSymbolTableRecord
100
AcDbBlockTableRecord
  2
*Paper_Space0
340
26
  0
BLOCK_RECORD
  5
146
330
1
100
AcDbSymbolTableRecord
100
AcDbBlockTableRecord
  2
_D
340
0
  0
BLOCK_RECORD
  5
153
330
1
100
AcDbSymbolTableRecord
100
AcDbBlockTableRecord
  2
_D_1
340
0
  0
BLOCK_RECORD
  5
15E
330
1
100
AcDbSymbolTableRecord
100
AcDbBlockTableRecord
  2
_D_2
340
0
  0
BLOCK_RECORD
  5
16A
330
1
100
AcDbSymbolTableRecord
100
AcDbBlockTableRecord
  2
_D_3
340
0
  0
BLOCK_RECORD
  5
174
330
1
100
AcDbSymbolTableRecord
100
AcDbBlockTableRecord
  2
_D_4
340
0
  0
BLOCK_RECORD
  5
17E
330
1
100
AcDbSymbolTableRecord
100
AcDbBlockTableRecord
  2
_D_5
340
0
  0
ENDTAB
  0
ENDSEC
  0
SECTION
  2
BLOCKS
  0
BLOCK
  5
20
330
1F
100
AcDbEntity
  8
0
100
AcDbBlockBegin
  2
*Model_Space
 70
     0
 10
0.0
 20
0.0
 30
0.0
  3
*Model_Space
  1

  0
ENDBLK
  5
21
330
1F
100
AcDbEntity
  8
0
100
AcDbBlockEnd
  0
BLOCK
  5
1C
330
1B
100
AcDbEntity
 67
     1
  8
0
100
AcDbBlockBegin
  2
*Paper_Space
 70
     0
 10
0.0
 20
0.0
 30
0.0
  3
*Paper_Space
  1

  0
ENDBLK
  5
1D
330
1B
100
AcDbEntity
 67
     1
  8
0
100
AcDbBlockEnd
  0
BLOCK
  5
24
330
23
100
AcDbEntity
  8
0
100
AcDbBlockBegin
  2
*Paper_Space0
 70
     0
 10
0.0
 20
0.0
 30
0.0
  3
*Paper_Space0
  1

  0
ENDBLK
  5
25
330
23
100
AcDbEntity
  8
0
100
AcDbBlockEnd
  0
BLOCK
  5
147
330
146
100
AcDbEntity
  8
0
100
AcDbBlockBegin
  2
_D
 70
     0
 10
0.0
 20
0.0
 30
0.0
  3
_D
  1

  0
SOLID
  5
149
330
146
100
AcDbEntity
  8
VERMASSUNG
100
AcDbTrace
 10
51.484062773
 20
65.0472586207
 30
0.0
 11
51.934062773
 21
68.0472586207
 31
0.0
 12
51.034062773
 22
68.0472586207
 32
0.0
 13
51.034062773
 23
68.0472586207
 33
0.0
  0
SOLID
  5
14A
330
146
100
AcDbEntity
  8
VERMASSUNG
100
AcDbTrace
 10
51.484062773
 20
162.3472586207
 30
0.0
 11
51.034062773
 21
159.3472586207
 31
0.0
 12
51.934062773
 22
159.3472586207
 32
0.0
 13
51.934062773
 23
159.3472586207
 33
0.0
  0
LINE
  5
14B
330
146
100
AcDbEntity
  8
VERMASSUNG
100
AcDbLine
 10
200.9847198276
 20
65.0472586207
 30
0.0
 11
50.484062773
 21
65.0472586207
 31
0.0
  0
LINE
  5
14C
330
146
100
AcDbEntity
  8
VERMASSUNG
100
AcDbLine
 10
200.9847198276
 20
162.3472586207
 30
0.0
 11
50.484062773
 21
162.3472586207
 31
0.0
  0
LINE
  5
14D
330
146
100
AcDbEntity
  8
VERMASSUNG
100
AcDbLine
 10
51.484062773
 20
65.0472586207
 30
0.0
 11
51.484062773
 21
162.3472586207
 31
0.0
  0
MTEXT
  5
14E
330
146
100
AcDbEntity
  8
VERMASSUNG
100
AcDbMText
 10
48.7059275168
 20
105.2936036258
 30
0.0
 40
2.0
 41
0.0
 71
     1
 72
     1
  1
SK 50
  7
SLDTEXTSTYLE0
 11
3.391901413832837E-15
 21
1.0
 31
0.0
 73
     1
 44
1.0
  0
MTEXT
  5
14F
330
146
100
AcDbEntity
  8
VERMASSUNG
100
AcDbMText
 10
48.9059274681
 20
113.6936033263
 30
0.0
 40
2.0
 41
0.0
 71
     1
 72
     1
  1
%%c
  7
SLDTEXTSTYLE0
 11
3.391901413832837E-15
 21
1.0
 31
0.0
 73
     1
 44
1.0
  0
MTEXT
  5
150
330
146
100
AcDbEntity
  8
VERMASSUNG
100
AcDbMText
 10
48.905927177
 20
117.3029218545
 30
0.0
 40
2.0
 41
0.0
 71
     1
 72
     1
  1
97.3
  7
SLDTEXTSTYLE0
 11
3.391901413832837E-15
 21
1.0
 31
0.0
 73
     1
 44
1.0
  0
ENDBLK
  5
148
330
146
100
AcDbEntity
  8
0
100
AcDbBlockEnd
  0
BLOCK
  5
154
330
153
100
AcDbEntity
  8
0
100
AcDbBlockBegin
  2
_D_1
 70
     0
 10
0.0
 20
0.0
 30
0.0
  3
_D_1
  1

  0
SOLID
  5
156
330
153
100
AcDbEntity
  8
VERMASSUNG
100
AcDbTrace
 10
248.3847198276
 20
131.6972586207
 30
0.0
 11
247.9347198276
 21
128.6972586207
 31
0.0
 12
248.8347198276
 22
128.6972586207
 32
0.0
 13
248.8347198276
 23
128.6972586207
 33
0.0
  0
SOLID
  5
157
330
153
100
AcDbEntity
  8
VERMASSUNG
100
AcDbTrace
 10
248.3847198276
 20
95.6972586207
 30
0.0
 11
248.8347198276
 21
98.6972586207
 31
0.0
 12
247.9347198276
 22
98.6972586207
 32
0.0
 13
247.9347198276
 23
98.6972586207
 33
0.0
  0
LINE
  5
158
330
153
100
AcDbEntity
  8
VERMASSUNG
100
AcDbLine
 10
237.3847198276
 20
131.6972586207
 30
0.0
 11
249.3847198276
 21
131.6972586207
 31
0.0
  0
LINE
  5
159
330
153
100
AcDbEntity
  8
VERMASSUNG
100
AcDbLine
 10
237.3847198276
 20
95.6972586207
 30
0.0
 11
249.3847198276
 21
95.6972586207
 31
0.0
  0
LINE
  5
15A
330
153
100
AcDbEntity
  8
VERMASSUNG
100
AcDbLine
 10
248.3847198276
 20
131.6972586207
 30
0.0
 11
248.3847198276
 21
95.6972586207
 31
0.0
  0
MTEXT
  5
15B
330
153
100
AcDbEntity
  8
VERMASSUNG
100
AcDbMText
 10
245.8065845227
 20
110.4922586635
 30
0.0
 40
2.0
 41
0.0
 71
     1
 72
     1
  1
%%c
  7
SLDTEXTSTYLE0
 11
-7.044195017643634E-15
 21
1.0
 31
0.0
 73
     1
 44
1.0
  0
MTEXT
  5
15C
330
153
100
AcDbEntity
  8
VERMASSUNG
100
AcDbMText
 10
245.6065845714
 20
114.1022586778
 30
0.0
 40
2.0
 41
0.0
 71
     1
 72
     1
  1
36
  7
SLDTEXTSTYLE0
 11
-7.044195017643634E-15
 21
1.0
 31
0.0
 73
     1
 44
1.0
  0
ENDBLK
  5
155
330
153
100
AcDbEntity
  8
0
100
AcDbBlockEnd
  0
BLOCK
  5
15F
330
15E
100
AcDbEntity
  8
0
100
AcDbBlockBegin
  2
_D_2
 70
     0
 10
0.0
 20
0.0
 30
0.0
  3
_D_2
  1

  0
SOLID
  5
161
330
15E
100
AcDbEntity
  8
VERMASSUNG
100
AcDbTrace
 10
254.2847198276
 20
145.1972586207
 30
0.0
 11
253.8347198276
 21
142.1972586207
 31
0.0
 12
254.7347198276
 22
142.1972586207
 32
0.0
 13
254.7347198276
 23
142.1972586207
 33
0.0
  0
SOLID
  5
162
330
15E
100
AcDbEntity
  8
VERMASSUNG
100
AcDbTrace
 10
254.2847198276
 20
82.1972586207
 30
0.0
 11
254.7347198276
 21
85.1972586207
 31
0.0
 12
253.8347198276
 22
85.1972586207
 32
0.0
 13
253.8347198276
 23
85.1972586207
 33
0.0
  0
LINE
  5
163
330
15E
100
AcDbEntity
  8
VERMASSUNG
100
AcDbLine
 10
237.7847198276
 20
145.1972586207
 30
0.0
 11
255.2847198276
 21
145.1972586207
 31
0.0
  0
LINE
  5
164
330
15E
100
AcDbEntity
  8
VERMASSUNG
100
AcDbLine
 10
237.7847198276
 20
82.1972586207
 30
0.0
 11
255.2847198276
 21
82.1972586207
 31
0.0
  0
LINE
  5
165
330
15E
100
AcDbEntity
  8
VERMASSUNG
100
AcDbLine
 10
254.2847198276
 20
145.1972586207
 30
0.0
 11
254.2847198276
 21
82.1972586207
 31
0.0
  0
MTEXT
  5
166
330
15E
100
AcDbEntity
  8
VERMASSUNG
100
AcDbMText
 10
251.5065845714
 20
107.9922587193
 30
0.0
 40
2.0
 41
0.0
 71
     1
 72
     1
  1
WH
  7
SLDTEXTSTYLE0
 11
-7.044195017643634E-15
 21
1.0
 31
0.0
 73
     1
 44
1.0
  0
MTEXT
  5
167
330
15E
100
AcDbEntity
  8
VERMASSUNG
100
AcDbMText
 10
251.7065845227
 20
112.9922586076
 30
0.0
 40
2.0
 41
0.0
 71
     1
 72
     1
  1
%%c
  7
SLDTEXTSTYLE0
 11
-7.044195017643634E-15
 21
1.0
 31
0.0
 73
     1
 44
1.0
  0
MTEXT
  5
168
330
15E
100
AcDbEntity
  8
VERMASSUNG
100
AcDbMText
 10
251.5065845714
 20
116.6022586219
 30
0.0
 40
2.0
 41
0.0
 71
     1
 72
     1
  1
63
  7
SLDTEXTSTYLE0
 11
-7.044195017643634E-15
 21
1.0
 31
0.0
 73
     1
 44
1.0
  0
ENDBLK
  5
160
330
15E
100
AcDbEntity
  8
0
100
AcDbBlockEnd
  0
BLOCK
  5
16B
330
16A
100
AcDbEntity
  8
0
100
AcDbBlockBegin
  2
_D_3
 70
     0
 10
0.0
 20
0.0
 30
0.0
  3
_D_3
  1

  0
SOLID
  5
16D
330
16A
100
AcDbEntity
  8
VERMASSUNG
100
AcDbTrace
 10
238.3847198276
 20
167.49296082
 30
0.0
 11
235.3847198276
 21
167.94296082
 31
0.0
 12
235.3847198276
 22
167.04296082
 32
0.0
 13
235.3847198276
 23
167.04296082
 33
0.0
  0
SOLID
  5
16E
330
16A
100
AcDbEntity
  8
VERMASSUNG
100
AcDbTrace
 10
201.5847198276
 20
167.49296082
 30
0.0
 11
204.5847198276
 21
167.04296082
 31
0.0
 12
204.5847198276
 22
167.94296082
 32
0.0
 13
204.5847198276
 23
167.94296082
 33
0.0
  0
LINE
  5
16F
330
16A
100
AcDbEntity
  8
VERMASSUNG
100
AcDbLine
 10
238.3847198276
 20
144.5972586207
 30
0.0
 11
238.3847198276
 21
168.49296082
 31
0.0
  0
LINE
  5
170
330
16A
100
AcDbEntity
  8
VERMASSUNG
100
AcDbLine
 10
201.5847198276
 20
159.7079095615
 30
0.0
 11
201.5847198276
 21
168.49296082
 31
0.0
  0
LINE
  5
171
330
16A
100
AcDbEntity
  8
VERMASSUNG
100
AcDbLine
 10
238.3847198276
 20
167.49296082
 30
0.0
 11
201.5847198276
 21
167.49296082
 31
0.0
  0
MTEXT
  5
172
330
16A
100
AcDbEntity
  8
VERMASSUNG
100
AcDbMText
 10
217.5847199464
 20
170.0710964159
 30
0.0
 40
2.0
 41
0.0
 71
     1
 72
     1
  1
36.8
  7
SLDTEXTSTYLE0
 73
     1
 44
1.0
  0
ENDBLK
  5
16C
330
16A
100
AcDbEntity
  8
0
100
AcDbBlockEnd
  0
BLOCK
  5
175
330
174
100
AcDbEntity
  8
0
100
AcDbBlockBegin
  2
_D_4
 70
     0
 10
0.0
 20
0.0
 30
0.0
  3
_D_4
  1

  0
SOLID
  5
177
330
174
100
AcDbEntity
  8
VERMASSUNG
100
AcDbTrace
 10
238.3847198276
 20
173.9377245129
 30
0.0
 11
235.3847198276
 21
174.3877245129
 31
0.0
 12
235.3847198276
 22
173.4877245129
 32
0.0
 13
235.3847198276
 23
173.4877245129
 33
0.0
  0
SOLID
  5
178
330
174
100
AcDbEntity
  8
VERMASSUNG
100
AcDbTrace
 10
186.3847198276
 20
173.9377245129
 30
0.0
 11
189.3847198276
 21
173.4877245129
 31
0.0
 12
189.3847198276
 22
174.3877245129
 32
0.0
 13
189.3847198276
 23
174.3877245129
 33
0.0
  0
LINE
  5
179
330
174
100
AcDbEntity
  8
VERMASSUNG
100
AcDbLine
 10
238.3847198276
 20
144.5972586207
 30
0.0
 11
238.3847198276
 21
174.9377245129
 31
0.0
  0
LINE
  5
17A
330
174
100
AcDbEntity
  8
VERMASSUNG
100
AcDbLine
 10
186.3847198276
 20
148.6222586207
 30
0.0
 11
186.3847198276
 21
174.9377245129
 31
0.0
  0
LINE
  5
17B
330
174
100
AcDbEntity
  8
VERMASSUNG
100
AcDbLine
 10
238.3847198276
 20
173.9377245129
 30
0.0
 11
186.3847198276
 21
173.9377245129
 31
0.0
  0
MTEXT
  5
17C
330
174
100
AcDbEntity
  8
VERMASSUNG
100
AcDbMText
 10
210.9847198775
 20
176.5158601089
 30
0.0
 40
2.0
 41
0.0
 71
     1
 72
     1
  1
52
  7
SLDTEXTSTYLE0
 73
     1
 44
1.0
  0
ENDBLK
  5
176
330
174
100
AcDbEntity
  8
0
100
AcDbBlockEnd
  0
BLOCK
  5
17F
330
17E
100
AcDbEntity
  8
0
100
AcDbBlockBegin
  2
_D_5
 70
     0
 10
0.0
 20
0.0
 30
0.0
  3
_D_5
  1

  0
SOLID
  5
181
330
17E
100
AcDbEntity
  8
VERMASSUNG
100
AcDbTrace
 10
238.3847198276
 20
180.4165593407
 30
0.0
 11
235.3847198276
 21
180.8665593407
 31
0.0
 12
235.3847198276
 22
179.9665593407
 32
0.0
 13
235.3847198276
 23
179.9665593407
 33
0.0
  0
SOLID
  5
182
330
17E
100
AcDbEntity
  8
VERMASSUNG
100
AcDbTrace
 10
59.5847198276
 20
180.4165593407
 30
0.0
 11
62.5847198276
 21
179.9665593407
 31
0.0
 12
62.5847198276
 22
180.8665593407
 32
0.0
 13
62.5847198276
 23
180.8665593407
 33
0.0
  0
LINE
  5
183
330
17E
100
AcDbEntity
  8
VERMASSUNG
100
AcDbLine
 10
238.3847198276
 20
144.5972586207
 30
0.0
 11
238.3847198276
 21
181.4165593407
 31
0.0
  0
LINE
  5
184
330
17E
100
AcDbEntity
  8
VERMASSUNG
100
AcDbLine
 10
59.5847198276
 20
130.5222586207
 30
0.0
 11
59.5847198276
 21
181.4165593407
 31
0.0
  0
LINE
  5
185
330
17E
100
AcDbEntity
  8
VERMASSUNG
100
AcDbLine
 10
238.3847198276
 20
180.4165593407
 30
0.0
 11
59.5847198276
 21
180.4165593407
 31
0.0
  0
MTEXT
  5
186
330
17E
100
AcDbEntity
  8
VERMASSUNG
100
AcDbMText
 10
146.0847198645
 20
182.9946949367
 30
0.0
 40
2.0
 41
0.0
 71
     1
 72
     1
  1
178.8
  7
SLDTEXTSTYLE0
 73
     1
 44
1.0
  0
ENDBLK
  5
180
330
17E
100
AcDbEntity
  8
0
100
AcDbBlockEnd
  0
ENDSEC
  0
SECTION
  2
ENTITIES
  0
MTEXT
  5
78
330
1F
100
AcDbEntity
  8
KOPF_DÜNN
100
AcDbMText
 10
13.8892156294
 20
23.8442973028
 30
0.0
 40
3.0
 41
0.0
 71
     1
 72
     1
  1
A54.500.063.052
  7
SLDTEXTSTYLE0
 73
     1
 44
1.0
  0
MTEXT
  5
79
330
1F
100
AcDbEntity
  8
VERMASSUNG
100
AcDbMText
 10
13.9329988022
 20
28.8834360957
 30
0.0
 40
3.0
 41
0.0
 71
     1
 72
     1
  1
Aufnahme Master shank WH63
  7
SLDTEXTSTYLE0
 73
     1
 44
1.0
  0
MTEXT
  5
7A
330
1F
100
AcDbEntity
  8
VERMASSUNG
100
AcDbMText
 10
98.8601118557
 20
13.8365368761
 30
0.0
 40
2.0
 41
0.0
 71
     1
 72
     1
  1
Datum: 02.12.2011
  7
SLDTEXTSTYLE0
 73
     1
 44
1.0
  0
MTEXT
  5
7B
330
1F
100
AcDbEntity
  8
VERMASSUNG
100
AcDbMText
 10
13.933048693
 20
18.0482802738
 30
0.0
 40
2.0
 41
0.0
 71
     1
 72
     1
  1
DIN 2080
  7
SLDTEXTSTYLE0
 73
     1
 44
1.0
  0
MTEXT
  5
7C
330
1F
100
AcDbEntity
  8
VERMASSUNG
100
AcDbMText
 10
13.9808475933
 20
13.9090974274
 30
0.0
 40
2.0
 41
0.0
 71
     1
 72
     1
  1
Gewicht: 3114g
  7
SLDTEXTSTYLE0
 73
     1
 44
1.0
  0
ARC
  5
7D
330
1F
100
AcDbEntity
  8
0
  6
Continuous
 62
     7
370
    15
100
AcDbCircle
 10
188.5847198276
 20
77.7722586207
 30
0.0
 40
1.0
100
AcDbArc
 50
0.0
 51
90.0
  0
ARC
  5
7E
330
1F
100
AcDbEntity
  8
0
  6
Continuous
 62
     7
370
    15
100
AcDbCircle
 10
188.5847198276
 20
149.6222586207
 30
0.0
 40
1.0
100
AcDbArc
 50
270.0
 51
0.0
  0
LINE
  5
7F
330
1F
100
AcDbEntity
  8
0
  6
Continuous
 62
     7
370
    15
100
AcDbLine
 10
186.3847198276
 20
78.7722586207
 30
0.0
 11
188.5847198276
 21
78.7722586207
 31
0.0
  0
LINE
  5
80
330
1F
100
AcDbEntity
  8
0
  6
Continuous
 62
     7
370
    15
100
AcDbLine
 10
188.5847198276
 20
148.6222586207
 30
0.0
 11
186.3847198276
 21
148.6222586207
 31
0.0
  0
LINE
  5
81
330
1F
100
AcDbEntity
  8
0
  6
Continuous
 62
     7
370
    15
100
AcDbLine
 10
186.3847198276
 20
148.6222586207
 30
0.0
 11
86.6239525949
 21
134.0738133993
 31
0.0
  0
LINE
  5
82
330
1F
100
AcDbEntity
  8
0
  6
Continuous
 62
     7
370
    15
100
AcDbLine
 10
86.6239525949
 20
93.3207038421
 30
0.0
 11
186.3847198276
 21
78.7722586207
 31
0.0
  0
ARC
  5
83
330
1F
100
AcDbEntity
  8
0
  6
Continuous
 62
     7
370
    15
100
AcDbCircle
 10
204.5847198276
 20
79.1972586207
 30
0.0
 40
3.000000000000014
100
AcDbArc
 50
90.0
 51
180.0
  0
ARC
  5
84
330
1F
100
AcDbEntity
  8
0
  6
Continuous
 62
     7
370
    15
100
AcDbCircle
 10
204.5847198276
 20
148.1972586207
 30
0.0
 40
3.0
100
AcDbArc
 50
180.0
 51
270.0
  0
LINE
  5
85
330
1F
100
AcDbEntity
  8
0
  6
Continuous
 62
     7
370
    15
100
AcDbLine
 10
237.7847198276
 20
82.1972586207
 30
0.0
 11
238.3847198276
 21
82.7972586207
 31
0.0
  0
LINE
  5
86
330
1F
100
AcDbEntity
  8
0
  6
Continuous
 62
     7
370
    15
100
AcDbLine
 10
238.3847198276
 20
144.5972586207
 30
0.0
 11
237.7847198276
 21
145.1972586207
 31
0.0
  0
LINE
  5
87
330
1F
100
AcDbEntity
  8
0
  6
Continuous
 62
     7
370
    15
100
AcDbLine
 10
210.6173783415
 20
145.1972586207
 30
0.0
 11
204.5847198276
 21
145.1972586207
 31
0.0
  0
LINE
  5
88
330
1F
100
AcDbEntity
  8
0
  6
Continuous
 62
     7
370
    15
100
AcDbLine
 10
237.7847198276
 20
145.1972586207
 30
0.0
 11
230.0674573348
 21
145.1972586207
 31
0.0
  0
LINE
  5
89
330
1F
100
AcDbEntity
  8
0
  6
Continuous
 62
     7
370
    15
100
AcDbLine
 10
204.5847198276
 20
82.1972586207
 30
0.0
 11
237.7847198276
 21
82.1972586207
 31
0.0
  0
ARC
  5
8A
330
1F
100
AcDbEntity
  8
0
  6
Continuous
 62
     7
370
    15
100
AcDbCircle
 10
86.9847198276
 20
95.7945362948
 30
0.0
 40
2.5
100
AcDbArc
 50
180.0
 51
261.7028550302
  0
ARC
  5
8B
330
1F
100
AcDbEntity
  8
0
  6
Continuous
 62
     7
370
    15
100
AcDbCircle
 10
86.9847198276
 20
131.5999809466
 30
0.0
 40
2.5
100
AcDbArc
 50
98.2971449698
 51
180.0
  0
LINE
  5
8C
330
1F
100
AcDbEntity
  8
0
  6
Continuous
 62
     7
370
    15
100
AcDbLine
 10
67.3847198276
 20
94.0772586207
 30
0.0
 11
70.414743751
 21
94.0772586207
 31
0.0
  0
LINE
  5
8D
330
1F
100
AcDbEntity
  8
0
  6
Continuous
 62
     7
370
    15
100
AcDbLine
 10
70.414743751
 20
133.3172586207
 30
0.0
 11
67.3847198276
 21
133.3172586207
 31
0.0
  0
LINE
  5
8E
330
1F
100
AcDbEntity
  8
0
  6
Continuous
 62
     7
370
    15
100
AcDbLine
 10
70.414743751
 20
94.0772586207
 30
0.0
 11
71.2854204084
 21
97.3266681432
 31
0.0
  0
LINE
  5
8F
330
1F
100
AcDbEntity
  8
0
  6
Continuous
 62
     7
370
    15
100
AcDbLine
 10
71.2854204084
 20
130.0678490981
 30
0.0
 11
70.414743751
 21
133.3172586207
 31
0.0
  0
ARC
  5
90
330
1F
100
AcDbEntity
  8
0
  6
Continuous
 62
     7
370
    15
100
AcDbCircle
 10
66.5847198276
 20
96.0722586207
 30
0.0
 40
0.7999999999999972
100
AcDbArc
 50
0.0
 51
90.0
  0
ARC
  5
91
330
1F
100
AcDbEntity
  8
0
  6
Continuous
 62
     7
370
    15
100
AcDbCircle
 10
66.5847198276
 20
131.3222586207
 30
0.0
 40
0.8000000000000114
100
AcDbArc
 50
270.0
 51
0.0
  0
ARC
  5
92
330
1F
100
AcDbEntity
  8
0
  6
Continuous
 62
     7
370
    15
100
AcDbCircle
 10
59.7847198276
 20
96.8722586207
 30
0.0
 40
0.2000000000000028
100
AcDbArc
 50
180.0
 51
270.0
  0
ARC
  5
93
330
1F
100
AcDbEntity
  8
0
  6
Continuous
 62
     7
370
    15
100
AcDbCircle
 10
59.7847198276
 20
130.5222586207
 30
0.0
 40
0.2000000000000171
100
AcDbArc
 50
90.0
 51
180.0
  0
LINE
  5
94
330
1F
100
AcDbEntity
  8
0
  6
Continuous
 62
     7
370
    15
100
AcDbLine
 10
59.7847198276
 20
96.6722586207
 30
0.0
 11
65.3847198276
 21
96.6722586207
 31
0.0
  0
LINE
  5
95
330
1F
100
AcDbEntity
  8
0
  6
Continuous
 62
     7
370
    15
100
AcDbLine
 10
65.3847198276
 20
130.7222586207
 30
0.0
 11
59.7847198276
 21
130.7222586207
 31
0.0
  0
ARC
  5
96
330
1F
100
AcDbEntity
  8
0
  6
Continuous
 62
     7
370
    15
100
AcDbCircle
 10
65.9138700898
 20
96.0722586207
 30
0.0
 40
0.7999999999999989
100
AcDbArc
 50
90.0
 51
131.4096221093
  0
ARC
  5
97
330
1F
100
AcDbEntity
  8
0
  6
Continuous
 62
     7
370
    15
100
AcDbCircle
 10
65.9138700898
 20
131.3222586207
 30
0.0
 40
0.8000000000000114
100
AcDbArc
 50
228.5903778907
 51
270.0
  0
LINE
  5
98
330
1F
100
AcDbEntity
  8
0
  6
Continuous
 62
     7
370
    15
100
AcDbLine
 10
65.9138700898
 20
96.8722586207
 30
0.0
 11
66.5847198276
 21
96.8722586207
 31
0.0
  0
LINE
  5
99
330
1F
100
AcDbEntity
  8
0
  6
Continuous
 62
     7
370
    15
100
AcDbLine
 10
66.5847198276
 20
130.5222586207
 30
0.0
 11
65.9138700898
 21
130.5222586207
 31
0.0
  0
ARC
  5
9A
330
1F
100
AcDbEntity
  8
0
  6
Continuous
 62
     7
370
    15
100
AcDbCircle
 10
83.9847198276
 20
97.1972586207
 30
0.0
 40
0.5
100
AcDbArc
 50
0.0
 51
90.0
  0
ARC
  5
9B
330
1F
100
AcDbEntity
  8
0
  6
Continuous
 62
     7
370
    15
100
AcDbCircle
 10
83.9847198276
 20
130.1972586207
 30
0.0
 40
0.5
100
AcDbArc
 50
270.0
 51
0.0
  0
ARC
  5
9C
330
1F
100
AcDbEntity
  8
0
  6
Continuous
 62
     7
370
    15
100
AcDbCircle
 10
71.7683833216
 20
97.1972586207
 30
0.0
 40
0.5000000000000079
100
AcDbArc
 50
90.0
 51
165.0
  0
ARC
  5
9D
330
1F
100
AcDbEntity
  8
0
  6
Continuous
 62
     7
370
    15
100
AcDbCircle
 10
71.7683833216
 20
130.1972586207
 30
0.0
 40
0.5000000000000079
100
AcDbArc
 50
195.0
 51
270.0
  0
LINE
  5
9E
330
1F
100
AcDbEntity
  8
0
  6
Continuous
 62
     7
370
    15
100
AcDbLine
 10
71.7683833216
 20
97.6972586207
 30
0.0
 11
83.9847198276
 21
97.6972586207
 31
0.0
  0
LINE
  5
9F
330
1F
100
AcDbEntity
  8
0
  6
Continuous
 62
     7
370
    15
100
AcDbLine
 10
83.9847198276
 20
129.6972586207
 30
0.0
 11
71.7683833216
 21
129.6972586207
 31
0.0
  0
ARC
  5
A0
330
1F
100
AcDbEntity
  8
0
  6
Continuous
 62
     7
370
    15
100
AcDbCircle
 10
203.4347198276
 20
113.6972586207
 30
0.0
 40
48.65000000000004
100
AcDbArc
 50
254.1956353434
 51
254.6846441354
  0
ARC
  5
A1
330
1F
100
AcDbEntity
  8
0
  6
Continuous
 62
     7
370
    15
100
AcDbCircle
 10
203.4347198276
 20
113.6972586207
 30
0.0
 40
48.65000000000004
100
AcDbArc
 50
105.3153558646
 51
105.8043646566
  0
LINE
  5
A2
330
1F
100
AcDbEntity
  8
0
  6
Continuous
 62
     7
370
    15
100
AcDbLine
 10
200.5847198276
 20
160.6195347803
 30
0.0
 11
190.5847198276
 21
160.6195347803
 31
0.0
  0
ARC
  5
A3
330
1F
100
AcDbEntity
  8
0
  6
Continuous
 62
     7
370
    15
100
AcDbCircle
 10
187.7347198276
 20
113.6972586207
 30
0.0
 40
48.64999999999992
100
AcDbArc
 50
74.1956353434
 51
74.6846441354
  0
ARC
  5
A4
330
1F
100
AcDbEntity
  8
0
  6
Continuous
 62
     7
370
    15
100
AcDbCircle
 10
187.7347198276
 20
113.6972586207
 30
0.0
 40
48.65000000000011
100
AcDbArc
 50
285.3153558646
 51
285.8043646566
  0
LINE
  5
A5
330
1F
100
AcDbEntity
  8
0
  6
Continuous
 62
     7
370
    15
100
AcDbLine
 10
200.5847198276
 20
66.7749824611
 30
0.0
 11
190.5847198276
 21
66.7749824611
 31
0.0
  0
SPLINE
  5
A6
330
1F
100
AcDbEntity
  8
0
  6
Continuous
 62
     7
370
    15
100
AcDbSpline
210
0.0
220
0.0
230
1.0
 70
     8
 71
     3
 72
    12
 73
     8
 74
     0
 42
0.000000001
 43
0.00000001
 40
0.0
 40
0.0
 40
0.0
 40
0.0
 40
0.25
 40
0.25
 40
0.5
 40
0.5
 40
1.0
 40
1.0
 40
1.0
 40
1.0
 10
201.5847198275862
 20
159.7079095615316
 30
0.0
 10
201.5847198275862
 20
159.8137645632939
 30
0.0
 10
201.5595805490051
 20
159.9151676789072
 30
0.0
 10
201.4850574986146
 20
160.0942491830749
 30
0.0
 10
201.4348846626093
 20
160.1736520444369
 30
0.0
 10
201.267455425801
 20
160.3748913159257
 30
0.0
 10
201.1300913485906
 20
160.4670068330501
 30
0.0
 10
200.9847198275862
 20
160.508154788142
 30
0.0
  0
LINE
  5
A7
330
1F
100
AcDbEntity
  8
0
  6
Continuous
 62
     7
370
    15
100
AcDbLine
 10
201.5847198276
 20
67.6866076798
 30
0.0
 11
201.5847198276
 21
159.7079095615
 31
0.0
  0
SPLINE
  5
A8
330
1F
100
AcDbEntity
  8
0
  6
Continuous
 62
     7
370
    15
100
AcDbSpline
210
0.0
220
0.0
230
1.0
 70
     8
 71
     3
 72
    14
 73
    10
 74
     0
 42
0.000000001
 43
0.00000001
 40
0.0
 40
0.0
 40
0.0
 40
0.0
 40
0.25
 40
0.25
 40
0.5
 40
0.5
 40
0.75
 40
0.75
 40
1.0
 40
1.0
 40
1.0
 40
1.0
 10
200.9847198275862
 20
66.88636245323734
 30
0.0
 10
201.0574689120506
 20
66.90695435486866
 30
0.0
 10
201.1268131263287
 20
66.94007494873232
 30
0.0
 10
201.2592642281426
 20
67.02926724555698
 30
0.0
 10
201.3224667180455
 20
67.08590931007978
 30
0.0
 10
201.4342616664861
 20
67.2199551426242
 30
0.0
 10
201.4845324103568
 20
67.29927064079213
 30
0.0
 10
201.5593969397898
 20
67.47864644942037
 30
0.0
 10
201.5847198275862
 20
67.58086946230766
 30
0.0
 10
201.5847198275862
 20
67.68660767984768
 30
0.0
  0
LINE
  5
A9
330
1F
100
AcDbEntity
  8
0
  6
Continuous
 62
     7
370
    15
100
AcDbLine
 10
189.5847198276
 20
67.6866076798
 30
0.0
 11
189.5847198276
 21
159.7079095615
 31
0.0
  0
SPLINE
  5
AA
330
1F
100
AcDbEntity
  8
0
  6
Continuous
 62
     7
370
    15
100
AcDbSpline
210
0.0
220
0.0
230
1.0
 70
     8
 71
     3
 72
    14
 73
    10
 74
     0
 42
0.000000001
 43
0.00000001
 40
0.0
 40
0.0
 40
0.0
 40
0.0
 40
0.25
 40
0.25
 40
0.5
 40
0.5
 40
0.75
 40
0.75
 40
1.0
 40
1.0
 40
1.0
 40
1.0
 10
190.1847198275862
 20
160.508154788142
 30
0.0
 10
190.1119656676992
 20
160.4875614498932
 30
0.0
 10
190.0426146021057
 20
160.454437058569
 30
0.0
 10
189.9101477139221
 20
160.3652285356735
 30
0.0
 10
189.8469416085063
 20
160.3085782697801
 30
0.0
 10
189.7351399474517
 20
160.1745085786243
 30
0.0
 10
189.6848678379533
 20
160.0951785929676
 30
0.0
 10
189.6100106924641
 20
159.9157676282354
 30
0.0
 10
189.5847198275861
 20
159.8125542416534
 30
0.0
 10
189.5847198275861
 20
159.7079095615316
 30
0.0
  0
SPLINE
  5
AB
330
1F
100
AcDbEntity
  8
0
  6
Continuous
 62
     7
370
    15
100
AcDbSpline
210
0.0
220
0.0
230
1.0
 70
     8
 71
     3
 72
    14
 73
    10
 74
     0
 42
0.000000001
 43
0.00000001
 40
0.0
 40
0.0
 40
0.0
 40
0.0
 40
0.25
 40
0.25
 40
0.5
 40
0.5
 40
0.75
 40
0.75
 40
1.0
 40
1.0
 40
1.0
 40
1.0
 10
190.1847198275862
 20
66.88636245323735
 30
0.0
 10
190.1119656676992
 20
66.90695579148607
 30
0.0
 10
190.0426146021057
 20
66.94008018281033
 30
0.0
 10
189.9101477139221
 20
67.02928870570582
 30
0.0
 10
189.8469416085063
 20
67.08593897159923
 30
0.0
 10
189.7351399474517
 20
67.22000866275498
 30
0.0
 10
189.6848678379533
 20
67.29933864841165
 30
0.0
 10
189.6100106924641
 20
67.47874961314392
 30
0.0
 10
189.5847198275861
 20
67.58196299972593
 30
0.0
 10
189.5847198275861
 20
67.6866076798477
 30
0.0
  0
LINE
  5
AC
330
1F
100
AcDbEntity
  8
0
  6
Continuous
 62
     7
370
    15
100
AcDbLine
 10
186.3847198276
 20
78.7722586207
 30
0.0
 11
186.3847198276
 21
148.6222586207
 31
0.0
  0
LINE
  5
AD
330
1F
100
AcDbEntity
  8
0
  6
Continuous
 62
     7
370
    15
100
AcDbLine
 10
238.3847198276
 20
113.6972586207
 30
0.0
 11
238.3847198276
 21
82.7972586207
 31
0.0
  0
LINE
  5
AE
330
1F
100
AcDbEntity
  8
0
  6
Continuous
 62
     7
370
    15
100
AcDbLine
 10
238.3847198276
 20
144.5972586207
 30
0.0
 11
238.3847198276
 21
113.6972586207
 31
0.0
  0
LINE
  5
AF
330
1F
100
AcDbEntity
  8
0
  6
Continuous
 62
     7
370
    15
100
AcDbLine
 10
237.7847198276
 20
113.6972586207
 30
0.0
 11
237.7847198276
 21
82.1972586207
 31
0.0
  0
LINE
  5
B0
330
1F
100
AcDbEntity
  8
0
  6
Continuous
 62
     7
370
    15
100
AcDbLine
 10
237.7847198276
 20
145.1972586207
 30
0.0
 11
237.7847198276
 21
113.6972586207
 31
0.0
  0
SPLINE
  5
B1
330
1F
100
AcDbEntity
  8
0
  6
Continuous
 62
     7
370
    15
100
AcDbSpline
210
0.0
220
0.0
230
1.0
 70
     8
 71
     3
 72
    27
 73
    23
 74
     0
 42
0.000000001
 43
0.00000001
 40
0.0
 40
0.0
 40
0.0
 40
0.0
 40
0.0086178355948117
 40
0.054501918960385
 40
0.0964342711019933
 40
0.139449030982253
 40
0.1841522657349481
 40
0.2298756949069203
 40
0.2804835735117894
 40
0.3322596370344537
 40
0.3890401401126853
 40
0.4472844093799443
 40
0.5074320239671793
 40
0.5692854730561303
 40
0.630061103567548
 40
0.6926450250763162
 40
0.7524627852188562
 40
0.8143095624074476
 40
0.8692122701804208
 40
0.9262868023255942
 40
0.9731496210998094
 40
1.0
 40
1.0
 40
1.0
 40
1.0
 10
230.0674573347638
 20
145.1931893090353
 30
0.0
 10
230.0728512564748
 20
145.1944607076881
 30
0.0
 10
230.1069641239969
 20
145.2025014350347
 30
0.0
 10
229.9504337773162
 20
145.1654536805798
 30
0.0
 10
229.6039007909944
 20
145.0854503642337
 30
0.0
 10
229.061719377181
 20
144.9653812524791
 30
0.0
 10
228.3403946274213
 20
144.8158892393261
 30
0.0
 10
227.4210404254181
 20
144.6423388356143
 30
0.0
 10
226.311705785993
 20
144.4591014323461
 30
0.0
 10
224.9894659269005
 20
144.2794137434299
 30
0.0
 10
223.4944196722506
 20
144.1281913666361
 30
0.0
 10
221.8442327921497
 20
144.0278079195027
 30
0.0
 10
220.1055882004135
 20
143.9980827946966
 30
0.0
 10
218.3482240704648
 20
144.0485406725878
 30
0.0
 10
216.6241061868794
 20
144.1753798361021
 30
0.0
 10
215.0237582001607
 20
144.3607991915838
 30
0.0
 10
213.5706272213914
 20
144.5835619473827
 30
0.0
 10
212.3789598895454
 20
144.8043012792752
 30
0.0
 10
211.4481995681213
 20
144.9991857626727
 30
0.0
 10
210.8757751900726
 20
145.1287501785091
 30
0.0
 10
210.5989800502921
 20
145.1938762723711
 30
0.0
 10
210.6124660153305
 20
145.1907060980156
 30
0.0
 10
210.6173783415155
 20
145.1895513470984
 30
0.0
  0
SPLINE
  5
B2
330
1F
100
AcDbEntity
  8
0
  6
Continuous
 62
     7
370
    15
100
AcDbSpline
210
0.0
220
0.0
230
1.0
 70
    11
 71
     3
 72
    96
 73
    92
 74
     0
 42
0.000000001
 43
0.00000001
 40
0.0
 40
0.0
 40
0.0
 40
0.0
 40
0.0312500000000002
 40
0.0312500000000002
 40
0.0468750000000003
 40
0.0468750000000003
 40
0.0625000000000004
 40
0.0625000000000004
 40
0.0937500000000004
 40
0.0937500000000004
 40
0.1093750000000006
 40
0.1093750000000006
 40
0.1250000000000007
 40
0.1250000000000007
 40
0.1562500000000007
 40
0.1562500000000007
 40
0.1718750000000008
 40
0.1718750000000008
 40
0.1875000000000008
 40
0.1875000000000008
 40
0.2187500000000011
 40
0.2187500000000011
 40
0.2343750000000014
 40
0.2343750000000014
 40
0.2500000000000017
 40
0.2500000000000017
 40
0.2812500000000021
 40
0.2812500000000021
 40
0.2968750000000022
 40
0.2968750000000022
 40
0.3125000000000024
 40
0.3125000000000024
 40
0.3437500000000026
 40
0.3437500000000026
 40
0.3593750000000026
 40
0.3593750000000026
 40
0.3750000000000028
 40
0.3750000000000028
 40
0.3906250000000029
 40
0.3906250000000029
 40
0.406250000000003
 40
0.406250000000003
 40
0.4375000000000033
 40
0.4375000000000033
 40
0.4531250000000033
 40
0.4531250000000033
 40
0.4687500000000034
 40
0.4687500000000034
 40
0.5000000000000034
 40
0.5000000000000034
 40
0.5312500000000036
 40
0.5312500000000036
 40
0.5468750000000036
 40
0.5468750000000036
 40
0.5625000000000037
 40
0.5625000000000037
 40
0.5937500000000034
 40
0.5937500000000034
 40
0.6250000000000031
 40
0.6250000000000031
 40
0.6562500000000029
 40
0.6562500000000029
 40
0.6875000000000027
 40
0.6875000000000027
 40
0.7187500000000022
 40
0.7187500000000022
 40
0.7500000000000019
 40
0.7500000000000019
 40
0.7656250000000018
 40
0.7656250000000018
 40
0.7812500000000017
 40
0.7812500000000017
 40
0.8125000000000013
 40
0.8125000000000013
 40
0.8281250000000012
 40
0.8281250000000012
 40
0.8437500000000011
 40
0.8437500000000011
 40
0.8750000000000009
 40
0.8750000000000009
 40
0.8906250000000008
 40
0.8906250000000008
 40
0.9062500000000007
 40
0.9062500000000007
 40
0.9218750000000006
 40
0.9218750000000006
 40
0.9375000000000004
 40
0.9375000000000004
 40
0.9687500000000002
 40
0.9687500000000002
 40
1.0
 40
1.0
 40
1.0
 40
1.0
 10
213.8345282770559
 20
120.0651996196639
 30
0.0
 10
214.3072960805396
 20
120.4378626248015
 30
0.0
 10
214.8076702575651
 20
120.760494236963
 30
0.0
 10
215.5961998512713
 20
121.1769581420298
 30
0.0
 10
215.8654262896562
 20
121.3044288664091
 30
0.0
 10
216.416653990245
 20
121.5368500979324
 30
0.0
 10
216.699919671714
 20
121.6421891630812
 30
0.0
 10
217.5597877548593
 20
121.9207385866269
 30
0.0
 10
218.1424961936988
 20
122.0561062472357
 30
0.0
 10
219.0302366442273
 20
122.1871842014739
 30
0.0
 10
219.3284440986339
 20
122.2187993621916
 30
0.0
 10
219.9295259484827
 20
122.2575217908972
 30
0.0
 10
220.2336745928317
 20
122.2645353833119
 30
0.0
 10
221.1378461935106
 20
122.2480384042138
 30
0.0
 10
221.7329842259013
 20
122.1879371674349
 30
0.0
 10
222.614456303781
 20
122.0252524173005
 30
0.0
 10
222.9063972096971
 20
121.9588613112179
 30
0.0
 10
223.4864165351494
 20
121.801000709792
 30
0.0
 10
223.7755040861326
 20
121.7090607874693
 30
0.0
 10
224.6207565813322
 20
121.399853693884
 30
0.0
 10
225.1596943576057
 20
121.1486487723435
 30
0.0
 10
225.9310687200692
 20
120.7027225346282
 30
0.0
 10
226.181981383958
 20
120.5424837118456
 30
0.0
 10
226.6707984320686
 20
120.1974859715139
 30
0.0
 10
226.9093708503706
 20
120.011965361058
 30
0.0
 10
227.5890697720667
 20
119.4292215278917
 30
0.0
 10
227.9997229061259
 20
119.0029406472038
 30
0.0
 10
228.5486555408018
 20
118.3028025951698
 30
0.0
 10
228.7203757765043
 20
118.0592297624416
 30
0.0
 10
229.0395075258934
 20
117.5498998643932
 30
0.0
 10
229.1862672831215
 20
117.2846241672358
 30
0.0
 10
229.57588943332
 20
116.4768947156241
 30
0.0
 10
229.7733354237732
 20
115.9156541121316
 30
0.0
 10
229.9695084473814
 20
115.0369555149355
 30
0.0
 10
230.0182556769878
 20
114.7354023241404
 30
0.0
 10
230.0780761043535
 20
114.1333472162847
 30
0.0
 10
230.0895124719463
 20
113.8330221867179
 30
0.0
 10
230.0763199450948
 20
113.2337443005124
 30
0.0
 10
230.0516895729066
 20
112.9347914991179
 30
0.0
 10
229.9660642425864
 20
112.3382679894978
 30
0.0
 10
229.9044322674245
 20
112.0388762848387
 30
0.0
 10
229.6694445900665
 20
111.1644933511306
 30
0.0
 10
229.4468155852169
 20
110.6082583109692
 30
0.0
 10
229.0201590645689
 20
109.8110439487182
 30
0.0
 10
228.8625060942144
 20
109.5522927175475
 30
0.0
 10
228.5240958676134
 20
109.057924702878
 30
0.0
 10
228.342572350894
 20
108.820810871413
 30
0.0
 10
227.762736896643
 20
108.1380622319974
 30
0.0
 10
227.3249263282096
 20
107.7178441170269
 30
0.0
 10
226.3884435630764
 20
106.9752202129968
 30
0.0
 10
225.8885096518797
 20
106.6498367884064
 30
0.0
 10
225.092686867682
 20
106.22703588875
 30
0.0
 10
224.819042519518
 20
106.0969189952188
 30
0.0
 10
224.2660925384785
 20
105.8628088651429
 30
0.0
 10
223.9856785566349
 20
105.7581576593363
 30
0.0
 10
223.1329226828907
 20
105.4801832214815
 30
0.0
 10
222.5491593940277
 20
105.3425333064694
 30
0.0
 10
221.3503645384081
 20
105.1638633091317
 30
0.0
 10
220.748743303467
 20
105.1251287983985
 30
0.0
 10
219.5510333862605
 20
105.1452887188204
 30
0.0
 10
218.9533091396436
 20
105.2039322209176
 30
0.0
 10
217.7602238060604
 20
105.423209193664
 30
0.0
 10
217.1819128408843
 20
105.5807297654444
 30
0.0
 10
216.0616309957705
 20
105.9893174368368
 30
0.0
 10
215.5188268687598
 20
106.2407082304051
 30
0.0
 10
214.4744005711747
 20
106.8443046033216
 30
0.0
 10
213.988068003
 20
107.1875423487539
 30
0.0
 10
213.3125798620167
 20
107.7659789618446
 30
0.0
 10
213.0964836740098
 20
107.9694638685918
 30
0.0
 10
212.6833348141759
 20
108.3990634806245
 30
0.0
 10
212.4854634017643
 20
108.626224071367
 30
0.0
 10
211.9284237288913
 20
109.3377912332686
 30
0.0
 10
211.6124703858507
 20
109.8420913651688
 30
0.0
 10
211.2246564884306
 20
110.6457016786642
 30
0.0
 10
211.109847217243
 20
110.9214896426879
 30
0.0
 10
210.9112097719193
 20
111.4901144746208
 30
0.0
 10
210.8273033448026
 20
111.7844631168155
 30
0.0
 10
210.6319496585536
 20
112.6674006389685
 30
0.0
 10
210.5728568938062
 20
113.263563966487
 30
0.0
 10
210.5935700403764
 20
114.1694251895685
 30
0.0
 10
210.6192996263338
 20
114.4750413112137
 30
0.0
 10
210.7065192708528
 20
115.0733791485981
 30
0.0
 10
210.7678447685523
 20
115.3678425054727
 30
0.0
 10
210.9245897924592
 20
115.9477374150836
 30
0.0
 10
211.0200128248861
 20
116.2331679957843
 30
0.0
 10
211.2447779475907
 20
116.7950808911903
 30
0.0
 10
211.3737958902928
 20
117.0701785869278
 30
0.0
 10
211.8008362853567
 20
117.8636080239933
 30
0.0
 10
212.1408171706277
 20
118.3567067120938
 30
0.0
 10
212.925263292157
 20
119.2761685032603
 30
0.0
 10
213.3617604735722
 20
119.6925366145263
 30
0.0
 10
213.8345282770559
 20
120.0651996196639
 30
0.0
  0
CIRCLE
  5
B3
330
1F
100
AcDbEntity
  8
0
  6
Continuous
 62
     7
370
    15
100
AcDbCircle
 10
220.3347198276
 20
113.6972586207
 30
0.0
 40
7.25
  0
LINE
  5
B4
330
1F
100
AcDbEntity
  8
0
  6
Continuous
 62
     7
370
    15
100
AcDbLine
 10
84.4847198276
 20
95.7945362948
 30
0.0
 11
84.4847198276
 21
131.5999809404
 31
0.0
  0
LINE
  5
B5
330
1F
100
AcDbEntity
  8
0
  6
Continuous
 62
     7
370
    15
100
AcDbLine
 10
70.414743751
 20
94.0772586207
 30
0.0
 11
70.414743751
 21
133.3172586207
 31
0.0
  0
LINE
  5
B6
330
1F
100
AcDbEntity
  8
0
  6
Continuous
 62
     7
370
    15
100
AcDbLine
 10
67.3847198276
 20
94.0772586207
 30
0.0
 11
67.3847198276
 21
133.3172586207
 31
0.0
  0
LINE
  5
B7
330
1F
100
AcDbEntity
  8
0
  6
Continuous
 62
     7
370
    15
100
AcDbLine
 10
59.5847198276
 20
96.8722586207
 30
0.0
 11
59.5847198276
 21
130.5222586207
 31
0.0
  0
LINE
  5
B8
330
1F
100
AcDbEntity
  8
0
  6
Continuous
 62
     7
370
    15
100
AcDbLine
 10
65.3847198276
 20
96.6722586207
 30
0.0
 11
65.3847198276
 21
130.7222586207
 31
0.0
  0
SPLINE
  5
B9
330
1F
100
AcDbEntity
  8
0
  6
Continuous
 62
     7
370
    15
100
AcDbSpline
210
0.0
220
0.0
230
1.0
 70
    24
 71
     3
 72
    11
 73
     7
 74
     0
 42
0.000000001
 43
0.00000001
 40
0.0
 40
0.0
 40
0.0
 40
0.0
 40
0.2164567244933969
 40
0.4403141600939099
 40
0.7519028444798591
 40
1.0
 40
1.0
 40
1.0
 40
1.0
 10
220.160764042271
 20
109.081733437345
 30
0.0
 10
220.4405333603647
 20
109.2294986681112
 30
0.0
 10
221.0096373815255
 20
109.5300812609052
 30
0.0
 10
222.0657394043617
 20
110.0878806657163
 30
0.0
 10
223.1985913923126
 20
110.6862169542134
 30
0.0
 10
223.9235464253372
 20
111.0691150807125
 30
0.0
 10
224.2449039955119
 20
111.2388458997991
 30
0.0
  0
SPLINE
  5
BA
330
1F
100
AcDbEntity
  8
0
  6
Continuous
 62
     7
370
    15
100
AcDbSpline
210
0.0
220
0.0
230
1.0
 70
    24
 71
     3
 72
    18
 73
    14
 74
     0
 42
0.000000001
 43
0.00000001
 40
0.0
 40
0.0
 40
0.0
 40
0.0
 40
0.1621857237011123
 40
0.2719376986809072
 40
0.3834778365035209
 40
0.4398348003592745
 40
0.4972240325426452
 40
0.6329034635580855
 40
0.6924223919694915
 40
0.7521753215677023
 40
0.8446326699634703
 40
0.9377058155123997
 40
1.0
 40
1.0
 40
1.0
 40
1.0
 10
224.2449039955119
 20
111.2388458997991
 30
0.0
 10
224.253808085156
 20
111.4750958751161
 30
0.0
 10
224.2687376214394
 20
111.8712175135381
 30
0.0
 10
224.2909263376432
 20
112.4599451505016
 30
0.0
 10
224.3074346258443
 20
112.8979554172358
 30
0.0
 10
224.3210128378925
 20
113.2582227089497
 30
0.0
 10
224.336116033911
 20
113.6589520175243
 30
0.0
 10
224.3514449371429
 20
114.0656699589388
 30
0.0
 10
224.366613179836
 20
114.4681251346012
 30
0.0
 10
224.3790402359373
 20
114.7978490945524
 30
0.0
 10
224.3931361920647
 20
115.1718535599481
 30
0.0
 10
224.4070079479782
 20
115.5399093773514
 30
0.0
 10
224.4154678157219
 20
115.7643729244994
 30
0.0
 10
224.4188597808271
 20
115.8543710831437
 30
0.0
  0
SPLINE
  5
BB
330
1F
100
AcDbEntity
  8
0
  6
Continuous
 62
     7
370
    15
100
AcDbSpline
210
0.0
220
0.0
230
1.0
 70
    24
 71
     3
 72
    13
 73
     9
 74
     0
 42
0.000000001
 43
0.00000001
 40
0.0
 40
0.0
 40
0.0
 40
0.0
 40
0.1839994827460121
 40
0.3484393094602223
 40
0.517982971718394
 40
0.6899346189466465
 40
0.8679809852867775
 40
1.0
 40
1.0
 40
1.0
 40
1.0
 10
224.4188597808271
 20
115.8543710831437
 30
0.0
 10
224.1914771566061
 20
115.9973311872942
 30
0.0
 10
223.7608833126213
 20
116.2680543394855
 30
0.0
 10
223.0768261044464
 20
116.6981350902054
 30
0.0
 10
222.3863934341145
 20
117.1322242243144
 30
0.0
 10
221.6808253796954
 20
117.5758292838068
 30
0.0
 10
221.0525437469781
 20
117.9708427900357
 30
0.0
 10
220.6710901561024
 20
118.2106704605406
 30
0.0
 10
220.5086756129014
 20
118.3127838040343
 30
0.0
  0
SPLINE
  5
BC
330
1F
100
AcDbEntity
  8
0
  6
Continuous
 62
     7
370
    15
100
AcDbSpline
210
0.0
220
0.0
230
1.0
 70
    24
 71
     3
 72
    11
 73
     7
 74
     0
 42
0.000000001
 43
0.00000001
 40
0.0
 40
0.0
 40
0.0
 40
0.0
 40
0.2164567244934059
 40
0.4403141600939129
 40
0.7519028444798501
 40
1.0
 40
1.0
 40
1.0
 40
1.0
 10
220.5086756129014
 20
118.3127838040343
 30
0.0
 10
220.2289062948076
 20
118.1650185732681
 30
0.0
 10
219.6598022736468
 20
117.8644359804741
 30
0.0
 10
218.6037002508107
 20
117.306636575663
 30
0.0
 10
217.4708482628598
 20
116.708300287166
 30
0.0
 10
216.7458932298352
 20
116.3254021606668
 30
0.0
 10
216.4245356596605
 20
116.1556713415802
 30
0.0
  0
SPLINE
  5
BD
330
1F
100
AcDbEntity
  8
0
  6
Continuous
 62
     7
370
    15
100
AcDbSpline
210
0.0
220
0.0
230
1.0
 70
    24
 71
     3
 72
    18
 73
    14
 74
     0
 42
0.000000001
 43
0.00000001
 40
0.0
 40
0.0
 40
0.0
 40
0.0
 40
0.2165386594557492
 40
0.32728432840643
 40
0.4397251388025953
 40
0.4906042423424158
 40
0.5937528941117005
 40
0.6989995256476023
 40
0.7521304657896256
 40
0.813732308097291
 40
0.8756486252096635
 40
0.9377003559516316
 40
1.0
 40
1.0
 40
1.0
 40
1.0
 10
216.4245356596605
 20
116.1556713415802
 30
0.0
 10
216.4125893133487
 20
115.8387019338012
 30
0.0
 10
216.3945331752928
 20
115.3596229554282
 30
0.0
 10
216.3686908200805
 20
114.6739542318309
 30
0.0
 10
216.3522143877169
 20
114.2367891880349
 30
0.0
 10
216.3360838426313
 20
113.8088014845574
 30
0.0
 10
216.320360516823
 20
113.3916184279409
 30
0.0
 10
216.3047239330438
 20
112.9767368758052
 30
0.0
 10
216.2918291953406
 20
112.6346040373153
 30
0.0
 10
216.2816319179003
 20
112.3640422348324
 30
0.0
 10
216.2711158624594
 20
112.0850223756813
 30
0.0
 10
216.2607410141858
 20
111.8097491308531
 30
0.0
 10
216.2539714196962
 20
111.6301331796457
 30
0.0
 10
216.2505798743453
 20
111.5401461582356
 30
0.0
  0
SPLINE
  5
BE
330
1F
100
AcDbEntity
  8
0
  6
Continuous
 62
     7
370
    15
100
AcDbSpline
210
0.0
220
0.0
230
1.0
 70
    24
 71
     3
 72
    15
 73
    11
 74
     0
 42
0.000000001
 43
0.00000001
 40
0.0
 40
0.0
 40
0.0
 40
0.0
 40
0.0659587834067026
 40
0.1320334017845187
 40
0.3044264588133648
 40
0.4819815812693661
 40
0.646054180995223
 40
0.8159303174583208
 40
0.9077673195787329
 40
1.0
 40
1.0
 40
1.0
 40
1.0
 10
216.2505798743453
 20
111.5401461582356
 30
0.0
 10
216.3312858447652
 20
111.4894046647889
 30
0.0
 10
216.4928395191738
 20
111.3878325671034
 30
0.0
 10
216.8743333573894
 20
111.1479795922733
 30
0.0
 10
217.4147341898529
 20
110.8082185416798
 30
0.0
 10
218.1132266461588
 20
110.3690620553655
 30
0.0
 10
218.8115815108724
 20
109.9299920756979
 30
0.0
 10
219.3730095249223
 20
109.57701080619
 30
0.0
 10
219.8219393434499
 20
109.2947594519676
 30
0.0
 10
220.0476607382309
 20
109.152843796726
 30
0.0
 10
220.160764042271
 20
109.081733437345
 30
0.0
  0
CIRCLE
  5
BF
330
1F
100
AcDbEntity
  8
0
  6
Continuous
 62
     7
370
    15
100
AcDbCircle
 10
220.3347198276
 20
113.6972586207
 30
0.0
 40
4.699999999999998
  0
CIRCLE
  5
C0
330
1F
100
AcDbEntity
  8
0
  6
Continuous
 62
     7
370
    15
100
AcDbCircle
 10
220.3347198276
 20
113.6972586207
 30
0.0
 40
6.999999999999985
  0
ARC
  5
C1
330
1F
100
AcDbEntity
  8
0
  6
Continuous
 62
     7
370
    15
100
AcDbCircle
 10
220.3347198276
 20
113.6972586207
 30
0.0
 40
4.00000000000002
100
AcDbArc
 50
177.8415853749
 51
237.8415853749
  0
ARC
  5
C2
330
1F
100
AcDbEntity
  8
0
  6
Continuous
 62
     7
370
    15
100
AcDbCircle
 10
220.3347198276
 20
113.6972586207
 30
0.0
 40
4.00000000000002
100
AcDbArc
 50
117.8415853749
 51
177.8415853749
  0
ARC
  5
C3
330
1F
100
AcDbEntity
  8
0
  6
Continuous
 62
     7
370
    15
100
AcDbCircle
 10
220.3347198276
 20
113.6972586207
 30
0.0
 40
3.999999999999967
100
AcDbArc
 50
57.8415853749
 51
117.8415853749
  0
ARC
  5
C4
330
1F
100
AcDbEntity
  8
0
  6
Continuous
 62
     7
370
    15
100
AcDbCircle
 10
220.3347198276
 20
113.6972586207
 30
0.0
 40
4.000000000000011
100
AcDbArc
 50
237.8415853749
 51
297.8415853749
  0
ARC
  5
C5
330
1F
100
AcDbEntity
  8
0
  6
Continuous
 62
     7
370
    15
100
AcDbCircle
 10
220.3347198276
 20
113.6972586207
 30
0.0
 40
3.999999999999993
100
AcDbArc
 50
297.8415853749
 51
357.8415853749
  0
ARC
  5
C6
330
1F
100
AcDbEntity
  8
0
  6
Continuous
 62
     7
370
    15
100
AcDbCircle
 10
220.3347198276
 20
113.6972586207
 30
0.0
 40
3.999999999999993
100
AcDbArc
 50
357.8415853749
 51
57.8415853749
  0
LINE
  5
C7
330
1F
100
AcDbEntity
  8
0
  6
Continuous
 62
     7
370
     0
100
AcDbLine
 10
190.1847198276
 20
66.8863624532
 30
0.0
 11
190.1847198276
 21
160.5081547881
 31
0.0
  0
LINE
  5
C8
330
1F
100
AcDbEntity
  8
0
  6
Continuous
 62
     7
370
     0
100
AcDbLine
 10
200.9847198276
 20
66.8863624532
 30
0.0
 11
200.9847198276
 21
160.5081547881
 31
0.0
  0
LINE
  5
C9
330
1F
100
AcDbEntity
  8
0
  6
Continuous
 62
     7
370
     0
100
AcDbLine
 10
188.5847198276
 20
78.7722586207
 30
0.0
 11
188.5847198276
 21
148.6222586207
 31
0.0
  0
LINE
  5
CA
330
1F
100
AcDbEntity
  8
0
  6
Continuous
 62
     7
370
     0
100
AcDbLine
 10
86.6239525949
 20
93.3207038421
 30
0.0
 11
86.6239525949
 21
134.0738133993
 31
0.0
  0
LINE
  5
CB
330
1F
100
AcDbEntity
  8
0
  6
Continuous
 62
     7
370
     0
100
AcDbLine
 10
204.5847198276
 20
145.1972586207
 30
0.0
 11
204.5847198276
 21
82.1972586207
 31
0.0
  0
LINE
  5
CC
330
1F
100
AcDbEntity
  8
0
  6
Continuous
 62
     7
370
     0
100
AcDbLine
 10
71.2854204084
 20
97.3266681432
 30
0.0
 11
71.2854204084
 21
130.0678490981
 31
0.0
  0
LINE
  5
CD
330
1F
100
AcDbEntity
  8
0
  6
Continuous
 62
     7
370
     0
100
AcDbLine
 10
66.5847198276
 20
96.8722586207
 30
0.0
 11
66.5847198276
 21
130.5222586207
 31
0.0
  0
LINE
  5
CE
330
1F
100
AcDbEntity
  8
0
  6
Continuous
 62
     7
370
     0
100
AcDbLine
 10
59.7847198276
 20
96.6722586207
 30
0.0
 11
59.7847198276
 21
130.7222586207
 31
0.0
  0
LINE
  5
CF
330
1F
100
AcDbEntity
  8
0
  6
Continuous
 62
     7
370
     0
100
AcDbLine
 10
65.9138700898
 20
96.8722586207
 30
0.0
 11
65.9138700898
 21
130.5222586207
 31
0.0
  0
LINE
  5
D0
330
1F
100
AcDbEntity
  8
0
  6
Continuous
 62
     7
370
     0
100
AcDbLine
 10
83.9847198276
 20
97.6972586207
 30
0.0
 11
83.9847198276
 21
129.6972586207
 31
0.0
  0
LINE
  5
D1
330
1F
100
AcDbEntity
  8
0
  6
Continuous
 62
     7
370
     0
100
AcDbLine
 10
71.7683833216
 20
97.6972586207
 30
0.0
 11
71.7683833216
 21
129.6972586207
 31
0.0
  0
LINE
  5
D2
330
1F
100
AcDbEntity
  8
0
  6
HIDDEN
 62
     7
370
     0
100
AcDbLine
 10
213.8345282771
 20
144.5468833349
 30
0.0
 11
214.4579390844
 21
144.4557966843
 31
0.0
  0
LINE
  5
D3
330
1F
100
AcDbEntity
  8
0
  6
HIDDEN
 62
     7
370
     0
100
AcDbLine
 10
197.8847198276
 20
113.6972586207
 30
0.0
 11
197.8847198276
 21
96.1972586207
 31
0.0
  0
LINE
  5
D4
330
1F
100
AcDbEntity
  8
0
  6
HIDDEN
 62
     7
370
     0
100
AcDbLine
 10
197.8847198276
 20
131.1972586207
 30
0.0
 11
197.8847198276
 21
113.6972586207
 31
0.0
  0
LINE
  5
D5
330
1F
100
AcDbEntity
  8
0
  6
HIDDEN
 62
     7
370
     0
100
AcDbLine
 10
202.7507452314
 20
113.6972586207
 30
0.0
 11
202.7507452314
 21
95.6972586207
 31
0.0
  0
LINE
  5
D6
330
1F
100
AcDbEntity
  8
0
  6
HIDDEN
 62
     7
370
     0
100
AcDbLine
 10
202.7507452314
 20
131.6972586207
 30
0.0
 11
202.7507452314
 21
113.6972586207
 31
0.0
  0
SPLINE
  5
D7
330
1F
100
AcDbEntity
  8
0
  6
HIDDEN
 62
     7
370
     0
100
AcDbSpline
210
0.0
220
0.0
230
1.0
 70
     8
 71
     3
 72
    40
 73
    36
 74
     0
 42
0.000000001
 43
0.00000001
 40
0.0
 40
0.0
 40
0.0
 40
0.0
 40
0.0235249350752622
 40
0.071415851411512
 40
0.0958356759467947
 40
0.1193587967673034
 40
0.1671534068499878
 40
0.1914652514776316
 40
0.2160172494590946
 40
0.265886147971097
 40
0.2912554917537938
 40
0.316846126062623
 40
0.3426231443539385
 40
0.3690114793479597
 40
0.3956232922967918
 40
0.42000058435225
 40
0.4697051310080942
 40
0.4951119960900056
 40
0.5178311707483557
 40
0.5640240239701029
 40
0.5875397103191747
 40
0.610772832105022
 40
0.6579295759652913
 40
0.6818903127630704
 40
0.7069166984919468
 40
0.7577800846526872
 40
0.7836799536430256
 40
0.8091396177252997
 40
0.8347910053588574
 40
0.8610707290284368
 40
0.8875783274047901
 40
0.9115129895417771
 40
0.9602732886942721
 40
0.9851665879727131
 40
1.0
 40
1.0
 40
1.0
 40
1.0
 10
213.0847198275862
 20
131.6972586206896
 30
0.0
 10
213.0893003989557
 20
131.6954140810624
 30
0.0
 10
213.1032058742849
 20
131.6898145175558
 30
0.0
 10
213.2333347117694
 20
131.6375369780167
 30
0.0
 10
213.4481498927325
 20
131.5537064162475
 30
0.0
 10
213.7217913516299
 20
131.4493510622654
 30
0.0
 10
214.0784384324219
 20
131.3186207336493
 30
0.0
 10
214.5150828953845
 20
131.1692209327562
 30
0.0
 10
215.0110599650244
 20
131.008356232495
 30
0.0
 10
215.5859496520933
 20
130.838709866499
 30
0.0
 10
216.2299283519837
 20
130.6739271049701
 30
0.0
 10
216.7505073450693
 20
130.5552642430271
 30
0.0
 10
217.3058626210653
 20
130.4455771884094
 30
0.0
 10
217.8936472559112
 20
130.3488944470022
 30
0.0
 10
218.492032059356
 20
130.2717751818811
 30
0.0
 10
219.2905268820867
 20
130.1974159387228
 30
0.0
 10
220.1018823846648
 20
130.1653720633178
 30
0.0
 10
220.8985045250772
 20
130.1788050315572
 30
0.0
 10
221.6605383328223
 20
130.218626151834
 30
0.0
 10
222.3924958857527
 20
130.2940562099929
 30
0.0
 10
223.0964033527274
 20
130.3998413690022
 30
0.0
 10
223.7828380712212
 20
130.5238249762925
 30
0.0
 10
224.4303262242498
 20
130.6695701178835
 30
0.0
 10
225.0345151567074
 20
130.8280506488067
 30
0.0
 10
225.6199988946819
 20
130.9957681356513
 30
0.0
 10
226.1462858987859
 20
131.1651787249288
 30
0.0
 10
226.5908702397379
 20
131.3196443725614
 30
0.0
 10
226.8816252667969
 20
131.4251773208508
 30
0.0
 10
227.1269805877072
 20
131.5174239705443
 30
0.0
 10
227.3251462702538
 20
131.5940527136894
 30
0.0
 10
227.4664282888471
 20
131.6498431434957
 30
0.0
 10
227.582890731793
 20
131.696448521302
 30
0.0
 10
227.5973775863595
 20
131.7023946754953
 30
0.0
 10
227.5296543073002
 20
131.6750512063136
 30
0.0
 10
227.4669919657084
 20
131.6502114119608
 30
0.0
 10
227.4435947022331
 20
131.640936571628
 30
0.0
  0
ELLIPSE
  5
D8
330
1F
100
AcDbEntity
  8
0
  6
HIDDEN
 62
     7
370
     0
100
AcDbEllipse
 10
201.4131469523
 20
150.7972586207
 30
0.0
 11
0.0
 21
2.0
 31
0.0
210
0.0
220
0.0
230
1.0
 40
0.4142135624
 41
1.570796326794897
 42
3.141592653589793
  0
LINE
  5
D9
330
1F
100
AcDbEntity
  8
0
  6
HIDDEN
 62
     7
370
     0
100
AcDbLine
 10
201.4131469523
 20
148.7972586207
 30
0.0
 11
201.5847198276
 21
148.7972586207
 31
0.0
  0
LINE
  5
DA
330
1F
100
AcDbEntity
  8
0
  6
HIDDEN
 62
     7
370
     0
100
AcDbLine
 10
201.5847198276
 20
78.5972586207
 30
0.0
 11
201.4131469523
 21
78.5972586207
 31
0.0
  0
ELLIPSE
  5
DB
330
1F
100
AcDbEntity
  8
0
  6
HIDDEN
 62
     7
370
     0
100
AcDbEllipse
 10
201.4131469523
 20
76.5972586207
 30
0.0
 11
0.0
 21
2.0
 31
0.0
210
0.0
220
0.0
230
1.0
 40
0.4142135624
 41
0.0
 42
1.570796326794897
  0
LINE
  5
DC
330
1F
100
AcDbEntity
  8
0
  6
HIDDEN
 62
     7
370
     0
100
AcDbLine
 10
189.5847198276
 20
148.7972586207
 30
0.0
 11
189.7562927028
 21
148.7972586207
 31
0.0
  0
ELLIPSE
  5
DD
330
1F
100
AcDbEntity
  8
0
  6
HIDDEN
 62
     7
370
     0
100
AcDbEllipse
 10
189.7562927028
 20
150.7972586207
 30
0.0
 11
0.0
 21
2.0
 31
0.0
210
0.0
220
0.0
230
1.0
 40
0.4142135624
 41
3.141592653589793
 42
4.712388980384695
  0
ELLIPSE
  5
DE
330
1F
100
AcDbEntity
  8
0
  6
HIDDEN
 62
     7
370
     0
100
AcDbEllipse
 10
189.7562927028
 20
76.5972586207
 30
0.0
 11
0.0
 21
2.0
 31
0.0
210
0.0
220
0.0
230
1.0
 40
0.4142135624
 41
4.712388980384695
 42
6.283185307179586
  0
LINE
  5
DF
330
1F
100
AcDbEntity
  8
0
  6
HIDDEN
 62
     7
370
     0
100
AcDbLine
 10
189.7562927028
 20
78.5972586207
 30
0.0
 11
189.5847198276
 21
78.5972586207
 31
0.0
  0
LINE
  5
E0
330
1F
100
AcDbEntity
  8
0
  6
HIDDEN
 62
     7
370
     0
100
AcDbLine
 10
201.4131469523
 20
78.5972586207
 30
0.0
 11
189.7562927028
 21
78.5972586207
 31
0.0
  0
LINE
  5
E1
330
1F
100
AcDbEntity
  8
0
  6
HIDDEN
 62
     7
370
     0
100
AcDbLine
 10
190.5847198276
 20
160.6195347803
 30
0.0
 11
190.5847198276
 21
150.7972586207
 31
0.0
  0
LINE
  5
E2
330
1F
100
AcDbEntity
  8
0
  6
HIDDEN
 62
     7
370
     0
100
AcDbLine
 10
200.5847198276
 20
160.6195347803
 30
0.0
 11
200.5847198276
 21
150.7972586207
 31
0.0
  0
LINE
  5
E3
330
1F
100
AcDbEntity
  8
0
  6
HIDDEN
 62
     7
370
     0
100
AcDbLine
 10
190.5847198276
 20
66.7749824611
 30
0.0
 11
190.5847198276
 21
76.5972586207
 31
0.0
  0
LINE
  5
E4
330
1F
100
AcDbEntity
  8
0
  6
HIDDEN
 62
     7
370
     0
100
AcDbLine
 10
200.5847198276
 20
76.5972586207
 30
0.0
 11
200.5847198276
 21
66.7749824611
 31
0.0
  0
LINE
  5
E5
330
1F
100
AcDbEntity
  8
0
  6
HIDDEN
 62
     7
370
     0
100
AcDbLine
 10
189.7562927028
 20
148.7972586207
 30
0.0
 11
201.4131469523
 21
148.7972586207
 31
0.0
  0
LINE
  5
E6
330
1F
100
AcDbEntity
  8
0
  6
HIDDEN
 62
     7
370
     0
100
AcDbLine
 10
73.0280955006
 20
103.1972586207
 30
0.0
 11
73.0280955006
 21
124.1972586207
 31
0.0
  0
LINE
  5
E7
330
1F
100
AcDbEntity
  8
0
  6
HIDDEN
 62
     7
370
     0
100
AcDbLine
 10
159.5847198276
 20
103.1972586207
 30
0.0
 11
159.5847198276
 21
124.1972586207
 31
0.0
  0
LINE
  5
E8
330
1F
100
AcDbEntity
  8
0
  6
HIDDEN
 62
     7
370
     0
100
AcDbLine
 10
162.2885926132
 20
107.6972586207
 30
0.0
 11
162.2885926132
 21
119.6972586207
 31
0.0
  0
LINE
  5
E9
330
1F
100
AcDbEntity
  8
0
  6
HIDDEN
 62
     7
370
     0
100
AcDbLine
 10
213.0847198276
 20
142.6972586207
 30
0.0
 11
227.5847198276
 21
142.6972586207
 31
0.0
  0
LINE
  5
EA
330
1F
100
AcDbEntity
  8
0
  6
HIDDEN
 62
     7
370
     0
100
AcDbLine
 10
216.076624089
 20
131.5273856396
 30
0.0
 11
228.3347198276
 21
131.5273856396
 31
0.0
  0
LINE
  5
EB
330
1F
100
AcDbEntity
  8
0
  6
HIDDEN
 62
     7
370
     0
100
AcDbLine
 10
212.3347198276
 20
131.5273856396
 30
0.0
 11
216.076624089
 21
131.5273856396
 31
0.0
  0
LINE
  5
EC
330
1F
100
AcDbEntity
  8
0
  6
HIDDEN
 62
     7
370
     0
100
AcDbLine
 10
216.076624089
 20
141.6972586207
 30
0.0
 11
228.3347198276
 21
141.6972586207
 31
0.0
  0
LINE
  5
ED
330
1F
100
AcDbEntity
  8
0
  6
HIDDEN
 62
     7
370
     0
100
AcDbLine
 10
212.3347198276
 20
141.6972586207
 30
0.0
 11
216.076624089
 21
141.6972586207
 31
0.0
  0
LINE
  5
EE
330
1F
100
AcDbEntity
  8
0
  6
HIDDEN
 62
     7
370
     0
100
AcDbLine
 10
217.6114884934
 20
122.1972586207
 30
0.0
 11
219.2491344319
 21
122.1972586207
 31
0.0
  0
LINE
  5
EF
330
1F
100
AcDbEntity
  8
0
  6
HIDDEN
 62
     7
370
     0
100
AcDbLine
 10
221.3389978248
 20
122.1972586207
 30
0.0
 11
225.4510563336
 21
122.1972586207
 31
0.0
  0
LINE
  5
F0
330
1F
100
AcDbEntity
  8
0
  6
HIDDEN
 62
     7
370
     0
100
AcDbLine
 10
215.2183833216
 20
122.1972586207
 30
0.0
 11
217.6114884934
 21
122.1972586207
 31
0.0
  0
SPLINE
  5
F1
330
1F
100
AcDbEntity
  8
0
  6
HIDDEN
 62
     7
370
     0
100
AcDbSpline
210
0.0
220
0.0
230
1.0
 70
     8
 71
     3
 72
    11
 73
     7
 74
     0
 42
0.000000001
 43
0.00000001
 40
0.0
 40
0.0
 40
0.0
 40
0.0
 40
0.2164567244933973
 40
0.4403141600939104
 40
0.7519028444798599
 40
1.0
 40
1.0
 40
1.0
 40
1.0
 10
220.160764042271
 20
142.6160607742066
 30
0.0
 10
220.4405333603647
 20
142.4711823640005
 30
0.0
 10
221.0096373815255
 20
142.1764721134645
 30
0.0
 10
222.0657394043617
 20
141.9308341507826
 30
0.0
 10
223.1985913923126
 20
142.0789392112626
 30
0.0
 10
223.9235464253372
 20
142.4510927906151
 30
0.0
 10
224.2449039955119
 20
142.6160607742066
 30
0.0
  0
SPLINE
  5
F2
330
1F
100
AcDbEntity
  8
0
  6
HIDDEN
 62
     7
370
     0
100
AcDbSpline
210
0.0
220
0.0
230
1.0
 70
     8
 71
     3
 72
    18
 73
    14
 74
     0
 42
0.000000001
 43
0.00000001
 40
0.0
 40
0.0
 40
0.0
 40
0.0
 40
0.1621857237011124
 40
0.2719376986809073
 40
0.3834778365035209
 40
0.4398348003592744
 40
0.4972240325426452
 40
0.6329034635580854
 40
0.6924223919694914
 40
0.7521753215677022
 40
0.8446326699634704
 40
0.9377058155123997
 40
1.0
 40
1.0
 40
1.0
 40
1.0
 10
224.2449039955119
 20
142.6160607742066
 30
0.0
 10
224.253808085156
 20
142.5052329166999
 30
0.0
 10
224.2687376214394
 20
142.3194072359164
 30
0.0
 10
224.2909263376432
 20
142.1328818177536
 30
0.0
 10
224.3074346258443
 20
142.0427315058365
 30
0.0
 10
224.3210128378925
 20
142.0045746920151
 30
0.0
 10
224.336116033911
 20
141.9892193605034
 30
0.0
 10
224.3514449371429
 20
142.0216717007312
 30
0.0
 10
224.366613179836
 20
142.0991586207635
 30
0.0
 10
224.3790402359373
 20
142.1839682060881
 30
0.0
 10
224.3931361920647
 20
142.3096962723592
 30
0.0
 10
224.4070079479782
 20
142.4627715882288
 30
0.0
 10
224.4154678157219
 20
142.57218979016
 30
0.0
 10
224.4188597808271
 20
142.6160607742066
 30
0.0
  0
SPLINE
  5
F3
330
1F
100
AcDbEntity
  8
0
  6
HIDDEN
 62
     7
370
     0
100
AcDbSpline
210
0.0
220
0.0
230
1.0
 70
     8
 71
     3
 72
    11
 73
     7
 74
     0
 42
0.000000001
 43
0.00000001
 40
0.0
 40
0.0
 40
0.0
 40
0.0
 40
0.2164567244934058
 40
0.4403141600939129
 40
0.7519028444798501
 40
1.0
 40
1.0
 40
1.0
 40
1.0
 10
220.5086756129014
 20
142.6160607742067
 30
0.0
 10
220.2289062948076
 20
142.4711823640006
 30
0.0
 10
219.6598022736468
 20
142.1764721134646
 30
0.0
 10
218.6037002508107
 20
141.9308341507826
 30
0.0
 10
217.4708482628598
 20
142.0789392112627
 30
0.0
 10
216.7458932298352
 20
142.4510927906152
 30
0.0
 10
216.4245356596605
 20
142.6160607742067
 30
0.0
  0
SPLINE
  5
F4
330
1F
100
AcDbEntity
  8
0
  6
HIDDEN
 62
     7
370
     0
100
AcDbSpline
210
0.0
220
0.0
230
1.0
 70
     8
 71
     3
 72
    18
 73
    14
 74
     0
 42
0.000000001
 43
0.00000001
 40
0.0
 40
0.0
 40
0.0
 40
0.0
 40
0.2165386594557492
 40
0.3272843284064298
 40
0.4397251388025953
 40
0.4906042423424157
 40
0.5937528941117004
 40
0.6989995256476023
 40
0.7521304657896257
 40
0.8137323080972911
 40
0.8756486252096634
 40
0.9377003559516316
 40
1.0
 40
1.0
 40
1.0
 40
1.0
 10
216.4245356596605
 20
142.6160607742067
 30
0.0
 10
216.4125893133487
 20
142.4703364073578
 30
0.0
 10
216.3945331752928
 20
142.25008335113
 30
0.0
 10
216.3686908200804
 20
142.0713027330072
 30
0.0
 10
216.3522143877169
 20
142.0093777719377
 30
0.0
 10
216.3360838426313
 20
141.9914805391323
 30
0.0
 10
216.320360516823
 20
142.0129209960937
 30
0.0
 10
216.3047239330438
 20
142.0856538640906
 30
0.0
 10
216.2918291953406
 20
142.1748857324203
 30
0.0
 10
216.2816319179003
 20
142.2612337620409
 30
0.0
 10
216.2711158624594
 20
142.3666876497515
 30
0.0
 10
216.2607410141858
 20
142.4845398244062
 30
0.0
 10
216.2539714196962
 20
142.572162228094
 30
0.0
 10
216.2505798743453
 20
142.6160607742066
 30
0.0
  0
SPLINE
  5
F5
330
1F
100
AcDbEntity
  8
0
  6
HIDDEN
 62
     7
370
     0
100
AcDbSpline
210
0.0
220
0.0
230
1.0
 70
     8
 71
     3
 72
    15
 73
    11
 74
     0
 42
0.000000001
 43
0.00000001
 40
0.0
 40
0.0
 40
0.0
 40
0.0
 40
0.0659587834067024
 40
0.1320334017845187
 40
0.3044264588133647
 40
0.481981581269366
 40
0.6460541809952229
 40
0.8159303174583206
 40
0.9077673195787329
 40
1.0
 40
1.0
 40
1.0
 40
1.0
 10
216.2505798743453
 20
142.6160607742066
 30
0.0
 10
216.3312858447652
 20
142.569662780701
 30
0.0
 10
216.4928395191737
 20
142.4767853108308
 30
0.0
 10
216.8743333573894
 20
142.2859637647683
 30
0.0
 10
217.4147341898529
 20
142.0783240524466
 30
0.0
 10
218.1132266461588
 20
141.9697774201842
 30
0.0
 10
218.8115815108724
 20
142.0350951222173
 30
0.0
 10
219.3730095249223
 20
142.2163493470395
 30
0.0
 10
219.8219393434499
 20
142.4233579514368
 30
0.0
 10
220.0476607382309
 20
142.5517345133733
 30
0.0
 10
220.160764042271
 20
142.6160607742066
 30
0.0
  0
LINE
  5
F6
330
1F
100
AcDbEntity
  8
0
  6
HIDDEN
 62
     7
370
     0
100
AcDbLine
 10
218.2056719583
 20
131.6972586207
 30
0.0
 11
224.3347198276
 21
131.6972586207
 31
0.0
  0
LINE
  5
F7
330
1F
100
AcDbEntity
  8
0
  6
HIDDEN
 62
     7
370
     0
100
AcDbLine
 10
216.3347198276
 20
131.6972586207
 30
0.0
 11
218.2056719583
 21
131.6972586207
 31
0.0
  0
LINE
  5
F8
330
1F
100
AcDbEntity
  8
0
  6
HIDDEN
 62
     7
370
     0
100
AcDbLine
 10
222.2028340189
 20
132.6972586207
 30
0.0
 11
220.1607640423
 21
132.6972586207
 31
0.0
  0
LINE
  5
F9
330
1F
100
AcDbEntity
  8
0
  6
HIDDEN
 62
     7
370
     0
100
AcDbLine
 10
220.1607640423
 20
132.6972586207
 30
0.0
 11
218.2056719583
 21
132.6972586207
 31
0.0
  0
LINE
  5
FA
330
1F
100
AcDbEntity
  8
0
  6
HIDDEN
 62
     7
370
     0
100
AcDbLine
 10
220.1607640423
 20
132.6972586207
 30
0.0
 11
220.1607640423
 21
142.6160607742
 31
0.0
  0
LINE
  5
FB
330
1F
100
AcDbEntity
  8
0
  6
HIDDEN
 62
     7
370
     0
100
AcDbLine
 10
224.2449039955
 20
132.6972586207
 30
0.0
 11
222.2028340189
 21
132.6972586207
 31
0.0
  0
LINE
  5
FC
330
1F
100
AcDbEntity
  8
0
  6
HIDDEN
 62
     7
370
     0
100
AcDbLine
 10
218.2056719583
 20
132.6972586207
 30
0.0
 11
216.2505798743
 21
132.6972586207
 31
0.0
  0
LINE
  5
FD
330
1F
100
AcDbEntity
  8
0
  6
HIDDEN
 62
     7
370
     0
100
AcDbLine
 10
224.3318818882
 20
132.6972586207
 30
0.0
 11
224.2449039955
 21
132.6972586207
 31
0.0
  0
LINE
  5
FE
330
1F
100
AcDbEntity
  8
0
  6
HIDDEN
 62
     7
370
     0
100
AcDbLine
 10
224.2449039955
 20
132.6972586207
 30
0.0
 11
224.2449039955
 21
142.6160607742
 31
0.0
  0
LINE
  5
FF
330
1F
100
AcDbEntity
  8
0
  6
HIDDEN
 62
     7
370
     0
100
AcDbLine
 10
216.4245356597
 20
132.6972586207
 30
0.0
 11
216.4245356597
 21
142.6160607742
 31
0.0
  0
LINE
  5
100
330
1F
100
AcDbEntity
  8
0
  6
HIDDEN
 62
     7
370
     0
100
AcDbLine
 10
216.2505798743
 20
132.6972586207
 30
0.0
 11
216.2505798743
 21
142.6160607742
 31
0.0
  0
LINE
  5
101
330
1F
100
AcDbEntity
  8
0
  6
HIDDEN
 62
     7
370
     0
100
AcDbLine
 10
224.4188597808
 20
132.6972586207
 30
0.0
 11
224.3318818882
 21
132.6972586207
 31
0.0
  0
LINE
  5
102
330
1F
100
AcDbEntity
  8
0
  6
HIDDEN
 62
     7
370
     0
100
AcDbLine
 10
220.5086756129
 20
132.6972586207
 30
0.0
 11
220.5086756129
 21
142.6160607742
 31
0.0
  0
LINE
  5
103
330
1F
100
AcDbEntity
  8
0
  6
HIDDEN
 62
     7
370
     0
100
AcDbLine
 10
224.4188597808
 20
132.6972586207
 30
0.0
 11
224.4188597808
 21
142.6160607742
 31
0.0
  0
CIRCLE
  5
104
330
1F
100
AcDbEntity
  8
0
  6
HIDDEN
 62
     7
370
     0
100
AcDbCircle
 10
220.3347198276
 20
113.6972586207
 30
0.0
 40
7.999999999999986
  0
ARC
  5
105
330
1F
100
AcDbEntity
  8
0
  6
HIDDEN
 62
     7
370
     0
100
AcDbCircle
 10
237.3847198276
 20
132.6972586207
 30
0.0
 40
1.0
100
AcDbArc
 50
270.0
 51
0.0
  0
ARC
  5
106
330
1F
100
AcDbEntity
  8
0
  6
HIDDEN
 62
     7
370
     0
100
AcDbCircle
 10
237.3847198276
 20
94.6972586207
 30
0.0
 40
1.000000000000014
100
AcDbArc
 50
0.0
 51
90.0
  0
ARC
  5
107
330
1F
100
AcDbEntity
  8
0
  6
HIDDEN
 62
     7
370
     0
100
AcDbCircle
 10
200.75306733
 20
131.1972586207
 30
0.0
 40
1.000000000000023
100
AcDbArc
 50
75.0
 51
90.0
  0
ARC
  5
108
330
1F
100
AcDbEntity
  8
0
  6
HIDDEN
 62
     7
370
     0
100
AcDbCircle
 10
200.75306733
 20
96.1972586207
 30
0.0
 40
1.000000000000009
100
AcDbArc
 50
270.0
 51
285.0
  0
LINE
  5
109
330
1F
100
AcDbEntity
  8
0
  6
HIDDEN
 62
     7
370
     0
100
AcDbLine
 10
200.75306733
 20
132.1972586207
 30
0.0
 11
198.8847198276
 21
132.1972586207
 31
0.0
  0
LINE
  5
10A
330
1F
100
AcDbEntity
  8
0
  6
HIDDEN
 62
     7
370
     0
100
AcDbLine
 10
198.8847198276
 20
95.1972586207
 30
0.0
 11
200.75306733
 21
95.1972586207
 31
0.0
  0
ARC
  5
10B
330
1F
100
AcDbEntity
  8
0
  6
HIDDEN
 62
     7
370
     0
100
AcDbCircle
 10
198.8847198276
 20
131.1972586207
 30
0.0
 40
1.000000000000028
100
AcDbArc
 50
90.0
 51
180.0
  0
ARC
  5
10C
330
1F
100
AcDbEntity
  8
0
  6
HIDDEN
 62
     7
370
     0
100
AcDbCircle
 10
198.8847198276
 20
96.1972586207
 30
0.0
 40
1.000000000000028
100
AcDbArc
 50
180.0
 51
270.0
  0
LINE
  5
10D
330
1F
100
AcDbEntity
  8
0
  6
HIDDEN
 62
     7
370
     0
100
AcDbLine
 10
201.0118863751
 20
95.2313327944
 30
0.0
 11
202.7507452314
 21
95.6972586207
 31
0.0
  0
LINE
  5
10E
330
1F
100
AcDbEntity
  8
0
  6
HIDDEN
 62
     7
370
     0
100
AcDbLine
 10
202.7507452314
 20
131.6972586207
 30
0.0
 11
201.0118863751
 21
132.163184447
 31
0.0
  0
LINE
  5
10F
330
1F
100
AcDbEntity
  8
0
  6
HIDDEN
 62
     7
370
     0
100
AcDbLine
 10
213.0847198276
 20
131.6972586207
 30
0.0
 11
202.7507452314
 21
131.6972586207
 31
0.0
  0
LINE
  5
110
330
1F
100
AcDbEntity
  8
0
  6
HIDDEN
 62
     7
370
     0
100
AcDbLine
 10
237.3847198276
 20
131.6972586207
 30
0.0
 11
227.5619276171
 21
131.6972586207
 31
0.0
  0
LINE
  5
111
330
1F
100
AcDbEntity
  8
0
  6
HIDDEN
 62
     7
370
     0
100
AcDbLine
 10
202.7507452314
 20
95.6972586207
 30
0.0
 11
237.3847198276
 21
95.6972586207
 31
0.0
  0
ARC
  5
112
330
1F
100
AcDbEntity
  8
0
  6
HIDDEN
 62
     7
370
     0
100
AcDbCircle
 10
60.5847198276
 20
99.6972586207
 30
0.0
 40
1.000000000000028
100
AcDbArc
 50
90.0
 51
180.0
  0
ARC
  5
113
330
1F
100
AcDbEntity
  8
0
  6
HIDDEN
 62
     7
370
     0
100
AcDbCircle
 10
60.5847198276
 20
127.6972586207
 30
0.0
 40
1.000000000000028
100
AcDbArc
 50
180.0
 51
270.0
  0
LINE
  5
114
330
1F
100
AcDbEntity
  8
0
  6
HIDDEN
 62
     7
370
     0
100
AcDbLine
 10
60.5847198276
 20
100.6972586207
 30
0.0
 11
71.3537797199
 21
100.6972586207
 31
0.0
  0
LINE
  5
115
330
1F
100
AcDbEntity
  8
0
  6
HIDDEN
 62
     7
370
     0
100
AcDbLine
 10
71.3537797199
 20
126.6972586207
 30
0.0
 11
60.5847198276
 21
126.6972586207
 31
0.0
  0
ARC
  5
116
330
1F
100
AcDbEntity
  8
0
  6
HIDDEN
 62
     7
370
     0
100
AcDbCircle
 10
71.3537797199
 20
101.0972586207
 30
0.0
 40
0.3999999999999927
100
AcDbArc
 50
270.0
 51
330.0
  0
ARC
  5
117
330
1F
100
AcDbEntity
  8
0
  6
HIDDEN
 62
     7
370
     0
100
AcDbCircle
 10
71.3537797199
 20
126.2972586207
 30
0.0
 40
0.4000000000000199
100
AcDbArc
 50
30.0
 51
90.0
  0
LINE
  5
118
330
1F
100
AcDbEntity
  8
0
  6
HIDDEN
 62
     7
370
     0
100
AcDbLine
 10
71.7001898814
 20
100.8972586207
 30
0.0
 11
73.0280955006
 21
103.1972586207
 31
0.0
  0
LINE
  5
119
330
1F
100
AcDbEntity
  8
0
  6
HIDDEN
 62
     7
370
     0
100
AcDbLine
 10
73.0280955006
 20
124.1972586207
 30
0.0
 11
71.7001898814
 21
126.4972586207
 31
0.0
  0
LINE
  5
11A
330
1F
100
AcDbEntity
  8
0
  6
HIDDEN
 62
     7
370
     0
100
AcDbLine
 10
73.0280955006
 20
103.1972586207
 30
0.0
 11
159.5847198276
 21
103.1972586207
 31
0.0
  0
LINE
  5
11B
330
1F
100
AcDbEntity
  8
0
  6
HIDDEN
 62
     7
370
     0
100
AcDbLine
 10
159.5847198276
 20
124.1972586207
 30
0.0
 11
73.0280955006
 21
124.1972586207
 31
0.0
  0
LINE
  5
11C
330
1F
100
AcDbEntity
  8
0
  6
HIDDEN
 62
     7
370
     0
100
AcDbLine
 10
159.5847198276
 20
103.1972586207
 30
0.0
 11
162.2885926132
 21
107.6972586207
 31
0.0
  0
LINE
  5
11D
330
1F
100
AcDbEntity
  8
0
  6
HIDDEN
 62
     7
370
     0
100
AcDbLine
 10
162.2885926132
 20
119.6972586207
 30
0.0
 11
159.5847198276
 21
124.1972586207
 31
0.0
  0
LINE
  5
11E
330
1F
100
AcDbEntity
  8
0
  6
HIDDEN
 62
     7
370
     0
100
AcDbLine
 10
210.5847198276
 20
145.1972586207
 30
0.0
 11
213.0847198276
 21
142.6972586207
 31
0.0
  0
LINE
  5
11F
330
1F
100
AcDbEntity
  8
0
  6
HIDDEN
 62
     7
370
     0
100
AcDbLine
 10
227.5847198276
 20
142.6972586207
 30
0.0
 11
230.0847198276
 21
145.1972586207
 31
0.0
  0
LINE
  5
120
330
1F
100
AcDbEntity
  8
0
  6
HIDDEN
 62
     7
370
     0
100
AcDbLine
 10
213.0847198276
 20
142.6972586207
 30
0.0
 11
213.0847198276
 21
131.6972586207
 31
0.0
  0
LINE
  5
121
330
1F
100
AcDbEntity
  8
0
  6
HIDDEN
 62
     7
370
     0
100
AcDbLine
 10
227.5847198276
 20
131.6880977116
 30
0.0
 11
227.5847198276
 21
142.6972586207
 31
0.0
  0
LINE
  5
122
330
1F
100
AcDbEntity
  8
0
  6
HIDDEN
 62
     7
370
     0
100
AcDbLine
 10
197.8847198276
 20
119.6972586207
 30
0.0
 11
162.2885926132
 21
119.6972586207
 31
0.0
  0
LINE
  5
123
330
1F
100
AcDbEntity
  8
0
  6
HIDDEN
 62
     7
370
     0
100
AcDbLine
 10
162.2885926132
 20
107.6972586207
 30
0.0
 11
197.8847198276
 21
107.6972586207
 31
0.0
  0
LINE
  5
124
330
1F
100
AcDbEntity
  8
0
  6
HIDDEN
 62
     7
370
     0
100
AcDbLine
 10
212.3347198276
 20
141.6972586207
 30
0.0
 11
212.3347198276
 21
131.5273856396
 31
0.0
  0
LINE
  5
125
330
1F
100
AcDbEntity
  8
0
  6
HIDDEN
 62
     7
370
     0
100
AcDbLine
 10
228.3347198276
 20
131.5273856396
 30
0.0
 11
228.3347198276
 21
141.6972586207
 31
0.0
  0
LINE
  5
126
330
1F
100
AcDbEntity
  8
0
  6
HIDDEN
 62
     7
370
     0
100
AcDbLine
 10
228.3347198276
 20
141.6972586207
 30
0.0
 11
227.3347198276
 21
142.6972586207
 31
0.0
  0
LINE
  5
127
330
1F
100
AcDbEntity
  8
0
  6
HIDDEN
 62
     7
370
     0
100
AcDbLine
 10
213.3347198276
 20
142.6972586207
 30
0.0
 11
212.3347198276
 21
141.6972586207
 31
0.0
  0
LINE
  5
128
330
1F
100
AcDbEntity
  8
0
  6
HIDDEN
 62
     7
370
     0
100
AcDbLine
 10
212.3347198276
 20
131.5273856396
 30
0.0
 11
214.7354204084
 21
122.5678490981
 31
0.0
  0
LINE
  5
129
330
1F
100
AcDbEntity
  8
0
  6
HIDDEN
 62
     7
370
     0
100
AcDbLine
 10
225.9340192467
 20
122.5678490981
 30
0.0
 11
228.3347198276
 21
131.5273856396
 31
0.0
  0
ARC
  5
12A
330
1F
100
AcDbEntity
  8
0
  6
HIDDEN
 62
     7
370
     0
100
AcDbCircle
 10
215.2183833216
 20
122.6972586207
 30
0.0
 40
0.5
100
AcDbArc
 50
195.0
 51
270.0
  0
ARC
  5
12B
330
1F
100
AcDbEntity
  8
0
  6
HIDDEN
 62
     7
370
     0
100
AcDbCircle
 10
225.4510563336
 20
122.6972586207
 30
0.0
 40
0.500000000000039
100
AcDbArc
 50
270.0
 51
345.0
  0
LINE
  5
12C
330
1F
100
AcDbEntity
  8
0
  6
HIDDEN
 62
     7
370
     0
100
AcDbLine
 10
215.6347198276
 20
142.6972586207
 30
0.0
 11
216.3347198276
 21
141.9972586207
 31
0.0
  0
LINE
  5
12D
330
1F
100
AcDbEntity
  8
0
  6
HIDDEN
 62
     7
370
     0
100
AcDbLine
 10
224.3347198276
 20
141.9972586207
 30
0.0
 11
225.0347198276
 21
142.6972586207
 31
0.0
  0
LINE
  5
12E
330
1F
100
AcDbEntity
  8
0
  6
HIDDEN
 62
     7
370
     0
100
AcDbLine
 10
216.3347198276
 20
132.6972586207
 30
0.0
 11
216.3347198276
 21
131.6972586207
 31
0.0
  0
LINE
  5
12F
330
1F
100
AcDbEntity
  8
0
  6
HIDDEN
 62
     7
370
     0
100
AcDbLine
 10
224.3347198276
 20
131.6972586207
 30
0.0
 11
224.3347198276
 21
132.6972586207
 31
0.0
  0
LINE
  5
130
330
1F
100
AcDbEntity
  8
0
  6
HIDDEN
 62
     7
370
     0
100
AcDbLine
 10
216.3347198276
 20
131.6972586207
 30
0.0
 11
220.3347198276
 21
130.2413776836
 31
0.0
  0
LINE
  5
131
330
1F
100
AcDbEntity
  8
0
  6
HIDDEN
 62
     7
370
     0
100
AcDbLine
 10
220.3347198276
 20
130.2413776836
 30
0.0
 11
224.3347198276
 21
131.6972586207
 31
0.0
  0
LINE
  5
132
330
1F
100
AcDbEntity
  8
0
  6
HIDDEN
 62
     7
370
     0
100
AcDbLine
 10
237.3847198276
 20
131.6972586207
 30
0.0
 11
237.3847198276
 21
95.6972586207
 31
0.0
  0
LINE
  5
133
330
1F
100
AcDbEntity
  8
0
  6
HIDDEN
 62
     7
370
     0
100
AcDbLine
 10
200.75306733
 20
132.1972586207
 30
0.0
 11
200.75306733
 21
95.2042829407
 31
0.0
  0
LINE
  5
134
330
1F
100
AcDbEntity
  8
0
  6
HIDDEN
 62
     7
370
     0
100
AcDbLine
 10
201.0118863751
 20
132.163184447
 30
0.0
 11
201.0118863751
 21
95.2383441767
 31
0.0
  0
LINE
  5
135
330
1F
100
AcDbEntity
  8
0
  6
HIDDEN
 62
     7
370
     0
100
AcDbLine
 10
198.8847198276
 20
132.1972586207
 30
0.0
 11
198.8847198276
 21
95.2042829407
 31
0.0
  0
LINE
  5
136
330
1F
100
AcDbEntity
  8
0
  6
HIDDEN
 62
     7
370
     0
100
AcDbLine
 10
60.5847198276
 20
126.6972586207
 30
0.0
 11
60.5847198276
 21
100.6972586207
 31
0.0
  0
LINE
  5
137
330
1F
100
AcDbEntity
  8
0
  6
HIDDEN
 62
     7
370
     0
100
AcDbLine
 10
201.5847198276
 20
150.7972586207
 30
0.0
 11
200.5847198276
 21
150.7972586207
 31
0.0
  0
LINE
  5
138
330
1F
100
AcDbEntity
  8
0
  6
HIDDEN
 62
     7
370
     0
100
AcDbLine
 10
200.5847198276
 20
76.5972586207
 30
0.0
 11
201.5847198276
 21
76.5972586207
 31
0.0
  0
LINE
  5
139
330
1F
100
AcDbEntity
  8
0
  6
HIDDEN
 62
     7
370
     0
100
AcDbLine
 10
190.5847198276
 20
150.7972586207
 30
0.0
 11
189.5847198276
 21
150.7972586207
 31
0.0
  0
LINE
  5
13A
330
1F
100
AcDbEntity
  8
0
  6
HIDDEN
 62
     7
370
     0
100
AcDbLine
 10
189.5847198276
 20
76.5972586207
 30
0.0
 11
190.5847198276
 21
76.5972586207
 31
0.0
  0
LINE
  5
13B
330
1F
100
AcDbEntity
  8
0
  6
HIDDEN
 62
     7
370
     0
100
AcDbLine
 10
71.3537797199
 20
126.6972586207
 30
0.0
 11
71.3537797199
 21
100.6972586207
 31
0.0
  0
LINE
  5
13C
330
1F
100
AcDbEntity
  8
0
  6
HIDDEN
 62
     7
370
     0
100
AcDbLine
 10
71.7001898814
 20
126.4972586207
 30
0.0
 11
71.7001898814
 21
100.8972586207
 31
0.0
  0
LINE
  5
13D
330
1F
100
AcDbEntity
  8
0
  6
HIDDEN
 62
     7
370
     0
100
AcDbLine
 10
190.5847198276
 20
76.5972586207
 30
0.0
 11
200.5847198276
 21
76.5972586207
 31
0.0
  0
LINE
  5
13E
330
1F
100
AcDbEntity
  8
0
  6
HIDDEN
 62
     7
370
     0
100
AcDbLine
 10
200.5847198276
 20
150.7972586207
 30
0.0
 11
190.5847198276
 21
150.7972586207
 31
0.0
  0
LINE
  5
13F
330
1F
100
AcDbEntity
  8
0
  6
HIDDEN
 62
     7
370
     0
100
AcDbLine
 10
200.9847198276
 20
160.5081547881
 30
0.0
 11
200.9847198276
 21
66.8863624532
 31
0.0
  0
LINE
  5
140
330
1F
100
AcDbEntity
  8
0
  6
HIDDEN
 62
     7
370
     0
100
AcDbLine
 10
190.1847198276
 20
160.5081547881
 30
0.0
 11
190.1847198276
 21
66.8863624532
 31
0.0
  0
LINE
  5
141
330
1F
100
AcDbEntity
  8
0
  6
HIDDEN
 62
     7
370
     0
100
AcDbLine
 10
214.735462792
 20
122.5678490981
 30
0.0
 11
225.9074529515
 21
122.5678490981
 31
0.0
  0
CIRCLE
  5
142
330
1F
100
AcDbEntity
  8
0
  6
HIDDEN
 62
     7
370
     0
100
AcDbCircle
 10
220.3347198276
 20
113.6972586207
 30
0.0
 40
5.599299419155034
  0
CIRCLE
  5
143
330
1F
100
AcDbEntity
  8
0
  6
HIDDEN
 62
     7
370
     0
100
AcDbCircle
 10
220.3347198276
 20
113.6972586207
 30
0.0
 40
5.116336506010499
  0
DIMENSION
  5
144
330
1F
100
AcDbEntity
  8
VERMASSUNG
100
AcDbDimension
  2
_D
 10
49.5847198276
 20
162.3472586207
 30
0.0
 11
49.5847198276
 21
113.6972586207
 31
0.0
 70
   160
  1
SK 50 %%c<>
 71
     2
 42
-1.0
  3
SLDDIMSTYLE0
100
AcDbAlignedDimension
 13
200.9847198276
 23
65.0472586207
 33
0.0
 14
200.9847198276
 24
162.3472586207
 34
0.0
 50
90.0
100
AcDbRotatedDimension
  0
DIMENSION
  5
151
330
1F
100
AcDbEntity
  8
VERMASSUNG
100
AcDbDimension
  2
_D_1
 10
248.3847198276
 20
95.6972586207
 30
0.0
 11
248.3847198276
 21
113.6972586207
 31
0.0
 70
   160
  1
%%c<>
 71
     2
 42
-1.0
  3
SLDDIMSTYLE1
100
AcDbAlignedDimension
 13
237.3847198276
 23
131.6972586207
 33
0.0
 14
237.3847198276
 24
95.6972586207
 34
0.0
 50
90.0
100
AcDbRotatedDimension
  0
DIMENSION
  5
15D
330
1F
100
AcDbEntity
  8
VERMASSUNG
100
AcDbDimension
  2
_D_2
 10
254.2847198276
 20
82.1972586207
 30
0.0
 11
254.2847198276
 21
113.6972586207
 31
0.0
 70
   160
  1
WH %%c<>
 71
     2
 42
-1.0
  3
SLDDIMSTYLE1
100
AcDbAlignedDimension
 13
237.7847198276
 23
145.1972586207
 33
0.0
 14
237.7847198276
 24
82.1972586207
 34
0.0
 50
90.0
100
AcDbRotatedDimension
  0
DIMENSION
  5
169
330
1F
100
AcDbEntity
  8
VERMASSUNG
100
AcDbDimension
  2
_D_3
 10
201.5847198276
 20
167.49296082
 30
0.0
 11
219.9847198276
 21
167.49296082
 31
0.0
 70
   160
  1
<>
 71
     2
 42
-1.0
  3
SLDDIMSTYLE1
100
AcDbAlignedDimension
 13
238.3847198276
 23
144.5972586207
 33
0.0
 14
201.5847198276
 24
159.7079095615
 34
0.0
100
AcDbRotatedDimension
  0
DIMENSION
  5
173
330
1F
100
AcDbEntity
  8
VERMASSUNG
100
AcDbDimension
  2
_D_4
 10
186.3847198276
 20
173.9377245129
 30
0.0
 11
212.3847198276
 21
173.9377245129
 31
0.0
 70
   160
  1
<>
 71
     2
 42
-1.0
  3
SLDDIMSTYLE1
100
AcDbAlignedDimension
 13
238.3847198276
 23
144.5972586207
 33
0.0
 14
186.3847198276
 24
148.6222586207
 34
0.0
100
AcDbRotatedDimension
  0
DIMENSION
  5
17D
330
1F
100
AcDbEntity
  8
VERMASSUNG
100
AcDbDimension
  2
_D_5
 10
59.5847198276
 20
180.4165593407
 30
0.0
 11
148.9847198276
 21
180.4165593407
 31
0.0
 70
   160
  1
<>
 71
     2
 42
-1.0
  3
SLDDIMSTYLE1
100
AcDbAlignedDimension
 13
238.3847198276
 23
144.5972586207
 33
0.0
 14
59.5847198276
 24
130.5222586207
 34
0.0
100
AcDbRotatedDimension
  0
LINE
  5
187
330
1F
100
AcDbEntity
  8
VERMASSUNG
  6
CENTERX2
370
     0
100
AcDbLine
 10
56.8879525862
 20
113.6972586207
 30
0.0
 11
241.7739439655
 21
113.6972586207
 31
0.0
  0
LINE
  5
188
330
1F
100
AcDbEntity
  8
0
  6
Continuous
 62
     7
370
    15
100
AcDbLine
 10
280.7103274624
 20
12.359315632
 30
0.0
 11
280.9224250193
 21
12.4817967521
 31
0.0
  0
LINE
  5
189
330
1F
100
AcDbEntity
  8
0
  6
Continuous
 62
     7
370
    15
100
AcDbLine
 10
291.8454492014
 20
31.4030797683
 30
0.0
 11
291.8454492014
 21
31.6480022018
 31
0.0
  0
LINE
  5
18A
330
1F
100
AcDbEntity
  8
0
  6
Continuous
 62
     7
370
    15
100
AcDbLine
 10
288.5828774173
 20
38.8590579037
 30
0.0
 11
276.8449048496
 21
45.6352452319
 31
0.0
  0
LINE
  5
18B
330
1F
100
AcDbEntity
  8
0
  6
Continuous
 62
     7
370
    15
100
AcDbLine
 10
261.0961848106
 20
18.3547060669
 30
0.0
 11
272.8341573783
 21
11.5785187387
 31
0.0
  0
LINE
  5
18C
330
1F
100
AcDbEntity
  8
0
  6
Continuous
 62
     7
370
    15
100
AcDbLine
 10
284.2907566537
 20
47.7181243591
 30
0.0
 11
284.2455579902
 21
47.8725378311
 31
0.0
  0
LINE
  5
18D
330
1F
100
AcDbEntity
  8
0
  6
Continuous
 62
     7
370
    15
100
AcDbLine
 10
279.8592642096
 20
53.7963815274
 30
0.0
 11
276.0408875912
 21
56.0006834293
 31
0.0
  0
SPLINE
  5
18E
330
1F
100
AcDbEntity
  8
0
  6
Continuous
 62
     7
370
    15
100
AcDbSpline
210
0.0
220
0.0
230
1.0
 70
     8
 71
     3
 72
    12
 73
     8
 74
     0
 42
0.000000001
 43
0.00000001
 40
0.0
 40
0.0
 40
0.0
 40
0.0
 40
0.0805750037377212
 40
0.3188290105712342
 40
0.5571145452812697
 40
0.7954425836981596
 40
1.0
 40
1.0
 40
1.0
 40
1.0
 10
249.8391787935422
 20
38.57984907700069
 30
0.0
 10
249.7456451912723
 20
38.38283046264885
 30
0.0
 10
249.375540016174
 20
37.60324315934097
 30
0.0
 10
248.8209417388061
 20
36.21859241828528
 30
0.0
 10
248.1850111092175
 20
34.44062128177845
 30
0.0
 10
247.6716626901804
 20
32.74599535596613
 30
0.0
 10
247.4166142750514
 20
31.65731166712563
 30
0.0
 10
247.2988139628605
 20
31.15447663340206
 30
0.0
  0
SPLINE
  5
18F
330
1F
100
AcDbEntity
  8
0
  6
Continuous
 62
     7
370
    15
100
AcDbSpline
210
0.0
220
0.0
230
1.0
 70
     8
 71
     3
 72
    19
 73
    15
 74
     0
 42
0.000000001
 43
0.00000001
 40
0.0
 40
0.0
 40
0.0
 40
0.0
 40
0.0356570729712761
 40
0.1293665816285145
 40
0.2231597186085114
 40
0.3169945004185761
 40
0.4108399339108517
 40
0.504675455692922
 40
0.5984932080194061
 40
0.6922902243208826
 40
0.7860666407234015
 40
0.8798244727713607
 40
0.9735668258442369
 40
1.0
 40
1.0
 40
1.0
 40
1.0
 10
268.2300233730812
 20
56.70372780658258
 30
0.0
 10
268.060606750487
 20
56.66282342354238
 30
0.0
 10
267.4459503160199
 20
56.5144192005766
 30
0.0
 10
266.3601137758306
 20
56.11317896899568
 30
0.0
 10
264.9830637167496
 20
55.50508925518405
 30
0.0
 10
263.5975830066594
 20
54.75565382414861
 30
0.0
 10
262.2148426836732
 20
53.88139439524753
 30
0.0
 10
260.8431812364423
 20
52.88504183735776
 30
0.0
 10
259.4913639228503
 20
51.77411616808769
 30
0.0
 10
258.1683259086932
 20
50.55515607694888
 30
0.0
 10
256.8807898483093
 20
49.23788164204223
 30
0.0
 10
255.6429556968671
 20
47.82411548629531
 30
0.0
 10
254.7278062918973
 20
46.70098562110735
 30
0.0
 10
254.2485157415909
 20
46.03013420300314
 30
0.0
 10
254.1430935239428
 20
45.88257726877266
 30
0.0
  0
SPLINE
  5
190
330
1F
100
AcDbEntity
  8
0
  6
Continuous
 62
     7
370
    15
100
AcDbSpline
210
0.0
220
0.0
230
1.0
 70
     8
 71
     3
 72
    26
 73
    22
 74
     0
 42
0.000000001
 43
0.00000001
 40
0.0
 40
0.0
 40
0.0
 40
0.0
 40
0.0289466913847173
 40
0.0871454265111966
 40
0.1445571589246232
 40
0.2006069615891606
 40
0.2556960934107507
 40
0.3103307173609957
 40
0.3648289234994593
 40
0.4193212203381821
 40
0.4738769038018192
 40
0.5285174565071541
 40
0.5832346853004303
 40
0.6380074772491711
 40
0.6928095867545838
 40
0.7476128542414693
 40
0.8023789639702683
 40
0.8570785967307348
 40
0.9116836797316232
 40
0.9661707186666584
 40
1.0
 40
1.0
 40
1.0
 40
1.0
 10
276.1098464279428
 20
17.503520436424
 30
0.0
 10
276.0148027594304
 20
17.55257391840286
 30
0.0
 10
275.7286691588878
 20
17.70025181886108
 30
0.0
 10
275.3366775510985
 20
18.08905099232254
 30
0.0
 10
274.9372710548677
 20
18.65965630938212
 30
0.0
 10
274.6374912711154
 20
19.35284784987798
 30
0.0
 10
274.4375337061244
 20
20.1444365611334
 30
0.0
 10
274.3411641202326
 20
21.02374499232556
 30
0.0
 10
274.3500002496854
 20
21.97678990504423
 30
0.0
 10
274.4650177673616
 20
22.98832344946888
 30
0.0
 10
274.685327988246
 20
24.04107874625543
 30
0.0
 10
275.0080891389662
 20
25.11677418145042
 30
0.0
 10
275.4283902309165
 20
26.19640488307232
 30
0.0
 10
275.9393158910624
 20
27.26074991190646
 30
0.0
 10
276.5320880103343
 20
28.29081978097757
 30
0.0
 10
277.1962117266879
 20
29.26827913256167
 30
0.0
 10
277.919659425345
 20
30.17559647695332
 30
0.0
 10
278.6891689141579
 20
30.99745741901076
 30
0.0
 10
279.4901737737625
 20
31.71722691432186
 30
0.0
 10
280.2055292353244
 20
32.25467055522469
 30
0.0
 10
280.6477026325242
 20
32.52210320218659
 30
0.0
 10
280.8170757246835
 20
32.62454241414991
 30
0.0
  0
SPLINE
  5
191
330
1F
100
AcDbEntity
  8
0
  6
Continuous
 62
     7
370
    15
100
AcDbSpline
210
0.0
220
0.0
230
1.0
 70
     8
 71
     3
 72
    14
 73
    10
 74
     0
 42
0.000000001
 43
0.00000001
 40
0.0
 40
0.0
 40
0.0
 40
0.0
 40
0.0885682387477576
 40
0.2575490485848624
 40
0.4264818276926797
 40
0.595835915207483
 40
0.7666992352218607
 40
0.9406908852291077
 40
1.0
 40
1.0
 40
1.0
 40
1.0
 10
280.8170757246835
 20
32.62454241414991
 30
0.0
 10
280.9589305678201
 20
32.70310501966217
 30
0.0
 10
281.371432615998
 20
32.93155852161848
 30
0.0
 10
282.0441037702294
 20
33.21288705067445
 30
0.0
 10
282.8116891355305
 20
33.42032359362753
 30
0.0
 10
283.5352997058476
 20
33.49567691758242
 30
0.0
 10
284.1992805716454
 20
33.43219250345296
 30
0.0
 10
284.6810189887498
 20
33.30860090995236
 30
0.0
 10
284.9161044190898
 20
33.16306986517472
 30
0.0
 10
284.9758672269068
 20
33.12607334077133
 30
0.0
  0
LINE
  5
192
330
1F
100
AcDbEntity
  8
0
  6
Continuous
 62
     7
370
    15
100
AcDbLine
 10
262.550110989
 20
54.0719545322
 30
0.0
 11
231.8062893681
 21
65.1508092014
 31
0.0
  0
LINE
  5
193
330
1F
100
AcDbEntity
  8
0
  6
Continuous
 62
     7
370
    15
100
AcDbLine
 10
221.6731586093
 20
47.5978099834
 30
0.0
 11
251.1473239746
 21
22.7100684084
 31
0.0
  0
SPLINE
  5
194
330
1F
100
AcDbEntity
  8
0
  6
Continuous
 62
     7
370
    15
100
AcDbSpline
210
0.0
220
0.0
230
1.0
 70
     8
 71
     3
 72
    12
 73
     8
 74
     0
 42
0.000000001
 43
0.00000001
 40
0.0
 40
0.0
 40
0.0
 40
0.0
 40
0.0894680111550903
 40
0.3245967715174411
 40
0.559935365696481
 40
0.7953784519106355
 40
1.0
 40
1.0
 40
1.0
 40
1.0
 10
263.3471052563703
 20
10.96005999536332
 30
0.0
 10
263.51652115125
 20
11.0009739523489
 30
0.0
 10
264.1311749455138
 20
11.14941291031904
 30
0.0
 10
265.2170565024256
 20
11.550060893555
 30
0.0
 10
266.5939132253144
 20
12.16069417413649
 30
0.0
 10
267.919563418632
 20
12.86837378895337
 30
0.0
 10
268.7796100871535
 20
13.42805693722141
 30
0.0
 10
269.1795151625079
 20
13.68829878196631
 30
0.0
  0
LINE
  5
195
330
1F
100
AcDbEntity
  8
0
  6
Continuous
 62
     7
370
    15
100
AcDbLine
 10
251.7178644198
 20
13.8674062745
 30
0.0
 11
255.5362410382
 21
11.6631043726
 31
0.0
  0
LINE
  5
196
330
1F
100
AcDbEntity
  8
0
  6
Continuous
 62
     7
370
    15
100
AcDbLine
 10
247.286237412
 20
19.9461231569
 30
0.0
 11
247.3315706392
 21
19.7912499708
 31
0.0
  0
SPLINE
  5
197
330
1F
100
AcDbEntity
  8
0
  6
Continuous
 62
     7
370
    15
100
AcDbSpline
210
0.0
220
0.0
230
1.0
 70
     8
 71
     3
 72
    25
 73
    21
 74
     0
 42
0.000000001
 43
0.00000001
 40
0.0
 40
0.0
 40
0.0
 40
0.0
 40
0.0481289363851507
 40
0.1007136396828323
 40
0.1545089112700166
 40
0.2097894863306481
 40
0.2663794147823039
 40
0.3238111045835991
 40
0.3815987440205662
 40
0.4393597783264451
 40
0.4969806780137104
 40
0.5544526958871298
 40
0.6118139101981764
 40
0.669122754614746
 40
0.7264461480931085
 40
0.7838363309985499
 40
0.8413611204894228
 40
0.899092152387724
 40
0.9570918779478236
 40
1.0
 40
1.0
 40
1.0
 40
1.0
 10
231.6784614965773
 20
65.18913797710265
 30
0.0
 10
231.436152470332
 20
65.25718650586035
 30
0.0
 10
230.9291014986283
 20
65.3995834820039
 30
0.0
 10
230.1024577992266
 20
65.43890191860511
 30
0.0
 10
229.2230154997124
 20
65.35001401771268
 30
0.0
 10
228.3126715858232
 20
65.11480052362032
 30
0.0
 10
227.3840992293641
 20
64.73777226436964
 30
0.0
 10
226.4520284024093
 20
64.2219256166928
 30
0.0
 10
225.5337471623271
 20
63.57692885075558
 30
0.0
 10
224.6452357297137
 20
62.81544034763436
 30
0.0
 10
223.8003180740434
 20
61.95168941407908
 30
0.0
 10
223.0106737401965
 20
60.99996217426556
 30
0.0
 10
222.2869119611453
 20
59.97491421962732
 30
0.0
 10
221.6388708380453
 20
58.89162624063958
 30
0.0
 10
221.0756476334076
 20
57.76564262588414
 30
0.0
 10
220.6057687998379
 20
56.61287953038427
 30
0.0
 10
220.2360566872707
 20
55.4489021980734
 30
0.0
 10
219.9757242678865
 20
54.29036328501467
 30
0.0
 10
219.8350070713537
 20
53.24940778184578
 30
0.0
 10
219.8196346088812
 20
52.61370590502899
 30
0.0
 10
219.8130979171211
 20
52.34339220431407
 30
0.0
  0
SPLINE
  5
198
330
1F
100
AcDbEntity
  8
0
  6
Continuous
 62
     7
370
    15
100
AcDbSpline
210
0.0
220
0.0
230
1.0
 70
     8
 71
     3
 72
    13
 73
     9
 74
     0
 42
0.000000001
 43
0.00000001
 40
0.0
 40
0.0
 40
0.0
 40
0.0
 40
0.1026186386501565
 40
0.2954232296279795
 40
0.4881307771162829
 40
0.6784449964570313
 40
0.8641836786570007
 40
1.0
 40
1.0
 40
1.0
 40
1.0
 10
219.8130979171211
 20
52.34339220431407
 30
0.0
 10
219.8166089212325
 20
52.15074819466823
 30
0.0
 10
219.8267165604242
 20
51.5961558102177
 30
0.0
 10
219.9400624298933
 20
50.72357790628432
 30
0.0
 10
220.195358963506
 20
49.76230924687167
 30
0.0
 10
220.5836402515389
 20
48.90284497149712
 30
0.0
 10
221.0375231659776
 20
48.20537934824813
 30
0.0
 10
221.4099192631273
 20
47.85775227441417
 30
0.0
 10
221.5672095165523
 20
47.71092380075602
 30
0.0
  0
LINE
  5
199
330
1F
100
AcDbEntity
  8
0
  6
Continuous
 62
     7
370
    15
100
AcDbLine
 10
218.0132038016
 20
52.1746683768
 30
0.0
 11
219.9177214032
 21
51.075213768
 31
0.0
  0
LINE
  5
19A
330
1F
100
AcDbEntity
  8
0
  6
Continuous
 62
     7
370
    15
100
AcDbLine
 10
227.9177988497
 20
64.93157554
 30
0.0
 11
226.0125536627
 21
66.0314501749
 31
0.0
  0
LINE
  5
19B
330
1F
100
AcDbEntity
  8
0
  6
Continuous
 62
     7
370
    15
100
AcDbLine
 10
215.5584182571
 20
51.5018345449
 30
0.0
 11
216.6296934888
 21
50.8834005174
 31
0.0
  0
LINE
  5
19C
330
1F
100
AcDbEntity
  8
0
  6
Continuous
 62
     7
370
    15
100
AcDbLine
 10
226.4388962559
 20
67.8752791973
 30
0.0
 11
225.3676210242
 21
68.4937132248
 31
0.0
  0
LINE
  5
19D
330
1F
100
AcDbEntity
  8
0
  6
Continuous
 62
     7
370
    15
100
AcDbLine
 10
213.5201097664
 20
54.1767083563
 30
0.0
 11
213.7690165006
 21
54.0330175572
 31
0.0
  0
LINE
  5
19E
330
1F
100
AcDbEntity
  8
0
  6
Continuous
 62
     7
370
    15
100
AcDbLine
 10
222.2808247122
 20
68.7774994392
 30
0.0
 11
222.0319179779
 21
68.9211902384
 31
0.0
  0
LINE
  5
19F
330
1F
100
AcDbEntity
  8
0
  6
Continuous
 62
     7
370
    15
100
AcDbLine
 10
278.7843256199
 20
28.0570310793
 30
0.0
 11
282.0178521864
 21
28.7158379018
 31
0.0
  0
LINE
  5
1A0
330
1F
100
AcDbEntity
  8
0
  6
Continuous
 62
     7
370
    15
100
AcDbLine
 10
277.1026893143
 20
41.9976421028
 30
0.0
 11
277.0142866046
 21
42.0486924897
 31
0.0
  0
LINE
  5
1A1
330
1F
100
AcDbEntity
  8
0
  6
Continuous
 62
     7
370
    15
100
AcDbLine
 10
272.0637348592
 20
42.0486924897
 30
0.0
 11
271.9753321495
 21
41.9976421028
 31
0.0
  0
LWPOLYLINE
  5
1A2
330
1F
100
AcDbEntity
  8
0
  6
Continuous
 62
     7
370
    15
100
AcDbPolyline
 90
       60
 70
   128
 43
0.0
 10
280.9206494321
 20
37.7118826481
 10
279.7594143846
 20
36.9700462817
 10
278.6113365942
 20
36.0936759326
 10
277.4894242411
 20
35.0927012269
 10
276.4063890404
 20
33.9784636081
 10
275.3745022137
 20
32.7635878335
 10
274.4054554511
 20
31.4618389312
 10
273.5102284397
 20
30.0879662364
 10
272.6989644592
 20
28.6575362757
 10
271.9808554546
 20
27.186756392
 10
271.364037888
 20
25.6922911093
 10
270.8555005488
 20
24.1910733162
 10
270.4610053683
 20
22.7001124103
 10
270.1850221344
 20
21.2363015743
 10
270.0306778476
 20
19.81622637
 10
269.9997212903
 20
18.4559768168
 10
270.0925032126
 20
17.1709650858
 10
270.3079723583
 20
15.9757508732
 10
270.6436873758
 20
14.8838764337
 10
271.0958444799
 20
13.907713141
 10
271.6593205499
 20
13.0583213153
 10
272.3277311767
 20
12.3453249053
 10
273.093503001
 20
11.7768024452
 10
273.9479595219
 20
11.3591955218
 10
274.8814194056
 20
11.0972357882
 10
275.8833061786
 20
10.993891353
 10
276.9422680636
 20
11.05033315
 10
278.0463065991
 20
11.2659216709
 10
279.1829125875
 20
11.6382142118
 10
280.3392078287
 20
12.1629925493
 10
281.5020910356
 20
12.8343107352
 10
282.6583862767
 20
13.6445624662
 10
283.7949922651
 20
14.5845672665
 10
284.8990308006
 20
15.6436745061
 10
285.9579926856
 20
16.8098840766
 10
286.9598794587
 20
18.0699823578
 10
287.8933393424
 20
19.4096919325
 10
288.7477958633
 20
20.813833356
 10
289.5135676875
 20
22.2664971449
 10
290.1819783144
 20
23.7512240379
 10
290.7454543844
 20
25.2511914862
 10
291.1976114885
 20
26.7494042591
 10
291.533326506
 20
28.2288870073
 10
291.7487956516
 20
29.6728766002
 10
291.8415775739
 20
31.0650120585
 10
291.8106210166
 20
32.3895199314
 10
291.6562767298
 20
33.6313930153
 10
291.380293496
 20
34.776560392
 10
290.9857983154
 20
35.8120468575
 10
290.4772609762
 20
36.7261199365
 10
289.8604434096
 20
37.5084228156
 10
289.142334405
 20
38.1500916907
 10
288.3310704245
 20
38.643856197
 10
287.4358434131
 20
38.9841217854
 10
286.4667966506
 20
39.1670331108
 10
285.4349098239
 20
39.1905177147
 10
284.3518746232
 20
39.0543095073
 10
283.22996227
 20
38.7599517819
 10
282.0818844796
 20
38.3107797292
 10
280.9206494321
 20
37.7118826481
  0
LWPOLYLINE
  5
1A3
330
1F
100
AcDbEntity
  8
0
  6
Continuous
 62
     7
370
    15
100
AcDbPolyline
 90
       31
 70
   128
 43
0.0
 10
280.7085173978
 20
38.0793061084
 10
279.5247340969
 20
37.3230651524
 10
278.3543635339
 20
36.4296779033
 10
277.2106664748
 20
35.4092667956
 10
276.1066014644
 20
34.2733934948
 10
275.0546780003
 20
33.0349278994
 10
274.0668147958
 20
31.7079023194
 10
273.1542047356
 20
30.3073524849
 10
272.3271880564
 20
28.8491471851
 10
271.5951351877
 20
27.3498084688
 10
270.9663405809
 20
25.8263244426
 10
270.4479287303
 20
24.2959567895
 10
270.0457734492
 20
22.7760451864
 10
269.7644313176
 20
21.2838108391
 10
269.6070900544
 20
19.8361613589
 10
269.5755323988
 20
18.4494991931
 10
269.6701159118
 20
17.1395357779
 10
269.8897689244
 20
15.9211135224
 10
270.2320026801
 20
14.8080376375
 10
270.6929395338
 20
13.8129197177
 10
271.2673568867
 20
12.9470348468
 10
271.9487463607
 20
12.2201938463
 10
272.7293875408
 20
11.6406321152
 10
273.6004354504
 20
11.2149163194
 10
274.5520207688
 20
10.9478699891
 10
275.5733616539
 20
10.8425188659
 10
276.6528859056
 20
10.9000566201
 10
277.7783620826
 20
11.1198313259
 10
278.9370380901
 20
11.4993528481
 10
280.1157856661
 20
12.0343210563
 10
280.7103274624
 20
12.359315632
  0
LWPOLYLINE
  5
1A4
330
1F
100
AcDbEntity
  8
0
  6
Continuous
 62
     7
370
    15
100
AcDbPolyline
 90
       16
 70
   128
 43
0.0
 10
291.8454492014
 20
31.6480022018
 10
291.8099447412
 20
32.6535965428
 10
291.6526034779
 20
33.9195836672
 10
291.3712613463
 20
35.0869873037
 10
290.9691060652
 20
36.1425803025
 10
290.4506942146
 20
37.0744023733
 10
289.8218996078
 20
37.8718955996
 10
289.0898467391
 20
38.5260240645
 10
288.2628300599
 20
39.0293762311
 10
287.3502199998
 20
39.3762489183
 10
286.3623567952
 20
39.5627119199
 10
285.3104333311
 20
39.5866525356
 10
284.2063683207
 20
39.4477995086
 10
283.0626712616
 20
39.1477260992
 10
281.8923006986
 20
38.6898322591
 10
280.7085173978
 20
38.0793061084
  0
SPLINE
  5
1A5
330
1F
100
AcDbEntity
  8
0
  6
Continuous
 62
     7
370
    15
100
AcDbSpline
210
0.0
220
0.0
230
1.0
 70
    11
 71
     3
 72
    96
 73
    92
 74
     0
 42
0.000000001
 43
0.00000001
 40
0.0
 40
0.0
 40
0.0
 40
0.0
 40
0.0312500000000002
 40
0.0312500000000002
 40
0.0468750000000003
 40
0.0468750000000003
 40
0.0625000000000004
 40
0.0625000000000004
 40
0.0937500000000004
 40
0.0937500000000004
 40
0.1093750000000006
 40
0.1093750000000006
 40
0.1250000000000007
 40
0.1250000000000007
 40
0.1562500000000007
 40
0.1562500000000007
 40
0.1718750000000008
 40
0.1718750000000008
 40
0.1875000000000008
 40
0.1875000000000008
 40
0.2187500000000011
 40
0.2187500000000011
 40
0.2343750000000014
 40
0.2343750000000014
 40
0.2500000000000017
 40
0.2500000000000017
 40
0.2812500000000021
 40
0.2812500000000021
 40
0.2968750000000022
 40
0.2968750000000022
 40
0.3125000000000024
 40
0.3125000000000024
 40
0.3437500000000026
 40
0.3437500000000026
 40
0.3593750000000026
 40
0.3593750000000026
 40
0.3750000000000028
 40
0.3750000000000028
 40
0.3906250000000029
 40
0.3906250000000029
 40
0.406250000000003
 40
0.406250000000003
 40
0.4375000000000033
 40
0.4375000000000033
 40
0.4531250000000033
 40
0.4531250000000033
 40
0.4687500000000034
 40
0.4687500000000034
 40
0.5000000000000034
 40
0.5000000000000034
 40
0.5312500000000036
 40
0.5312500000000036
 40
0.5468750000000036
 40
0.5468750000000036
 40
0.5625000000000037
 40
0.5625000000000037
 40
0.5937500000000034
 40
0.5937500000000034
 40
0.6250000000000031
 40
0.6250000000000031
 40
0.6562500000000029
 40
0.6562500000000029
 40
0.6875000000000027
 40
0.6875000000000027
 40
0.7187500000000022
 40
0.7187500000000022
 40
0.7500000000000019
 40
0.7500000000000019
 40
0.7656250000000018
 40
0.7656250000000018
 40
0.7812500000000017
 40
0.7812500000000017
 40
0.8125000000000013
 40
0.8125000000000013
 40
0.8281250000000012
 40
0.8281250000000012
 40
0.8437500000000011
 40
0.8437500000000011
 40
0.8750000000000009
 40
0.8750000000000009
 40
0.8906250000000008
 40
0.8906250000000008
 40
0.9062500000000007
 40
0.9062500000000007
 40
0.9218750000000006
 40
0.9218750000000006
 40
0.9375000000000004
 40
0.9375000000000004
 40
0.9687500000000002
 40
0.9687500000000002
 40
1.0
 40
1.0
 40
1.0
 40
1.0
 10
274.4922531009988
 20
44.00176946367526
 30
0.0
 10
274.7911580298988
 20
43.94993182058131
 30
0.0
 10
275.0821345171438
 20
43.88365516663393
 30
0.0
 10
275.5081640542779
 20
43.76696950348158
 30
0.0
 10
275.6484176812119
 20
43.72516051381652
 30
0.0
 10
275.9254794181949
 20
43.63609299514999
 30
0.0
 10
276.0628719439623
 20
43.58861312814548
 30
0.0
 10
276.4653633133636
 20
43.43995276449633
 30
0.0
 10
276.7192415530276
 20
43.33337873639815
 30
0.0
 10
277.0794482544317
 20
43.16404768698877
 30
0.0
 10
277.1960581583032
 20
43.10600474366025
 30
0.0
 10
277.4222631303022
 20
42.98677271525878
 30
0.0
 10
277.5322755941345
 20
42.92531540357312
 30
0.0
 10
277.8461159663381
 20
42.73930734555578
 30
0.0
 10
278.0352800395188
 20
42.61255041229129
 30
0.0
 10
278.2894097363586
 20
42.41777131996555
 30
0.0
 10
278.3691536328374
 20
42.35205737424466
 30
0.0
 10
278.5184092810854
 20
42.21879170554087
 30
0.0
 10
278.5881114936458
 20
42.15098675027193
 30
0.0
 10
278.7776321628984
 20
41.94810325754774
 30
0.0
 10
278.8793610892744
 20
41.81256800262075
 30
0.0
 10
278.9944243772413
 20
41.6065720987036
 30
0.0
 10
279.0264824212026
 20
41.53745091507044
 30
0.0
 10
279.0773302251005
 20
41.39779759401512
 30
0.0
 10
279.0960868716416
 20
41.32702837764661
 30
0.0
 10
279.1303656719266
 20
41.11648671508016
 30
0.0
 10
279.1248404291186
 20
40.9770713030875
 30
0.0
 10
279.0713812411357
 20
40.76657153994788
 30
0.0
 10
279.0459775118343
 20
40.69617634713747
 30
0.0
 10
278.9787323114913
 20
40.55443311892137
 30
0.0
 10
278.9368305990899
 20
40.48326369446434
 30
0.0
 10
278.7890073450434
 20
40.27381341292871
 30
0.0
 10
278.6603865261238
 20
40.13752821918818
 30
0.0
 10
278.4190772954152
 20
39.93676304934866
 30
0.0
 10
278.3296968906748
 20
39.86994611205014
 30
0.0
 10
278.1379879808902
 20
39.74060942456893
 30
0.0
 10
278.0358504149454
 20
39.67808555563249
 30
0.0
 10
277.819309423771
 20
39.55719147192318
 30
0.0
 10
277.704905495612
 20
39.49882147458821
 30
0.0
 10
277.4637294603618
 20
39.38634041939239
 30
0.0
 10
277.3360883142766
 20
39.33192777161759
 30
0.0
 10
276.9438665733097
 20
39.17928617168015
 30
0.0
 10
276.6684965493849
 20
39.09049627576017
 30
0.0
 10
276.2357928490875
 20
38.97720592052965
 30
0.0
 10
276.088571731781
 20
38.94293374227445
 30
0.0
 10
275.7941401609675
 20
38.88268217497846
 30
0.0
 10
275.6461295070879
 20
38.85648484653107
 30
0.0
 10
275.199738619863
 20
38.78970923042047
 30
0.0
 10
274.8963796696192
 20
38.76088416463812
 30
0.0
 10
274.3027258135687
 20
38.73804313191702
 30
0.0
 10
274.0109320711858
 20
38.74351979710697
 30
0.0
 10
273.580083535902
 20
38.77835706152241
 30
0.0
 10
273.4373323799105
 20
38.79452074810096
 30
0.0
 10
273.1590646090249
 20
38.83544368314933
 30
0.0
 10
273.0229235063317
 20
38.86023176639987
 30
0.0
 10
272.6231499708193
 20
38.94761972488894
 30
0.0
 10
272.3680918865705
 20
39.02316128961532
 30
0.0
 10
271.8810845173844
 20
39.21107377239769
 30
0.0
 10
271.6546845723153
 20
39.32144154666249
 30
0.0
 10
271.2383577783591
 20
39.57233596992877
 30
0.0
 10
271.0477639533306
 20
39.71311711377639
 30
0.0
 10
270.7034707055686
 20
40.02610145331003
 30
0.0
 10
270.5546988352545
 20
40.19382648980243
 30
0.0
 10
270.3030769470698
 20
40.54916044556136
 30
0.0
 10
270.2000467749672
 20
40.73705365377864
 30
0.0
 10
270.0441898604257
 20
41.13089363372443
 30
0.0
 10
269.9935982006687
 20
41.3310123436417
 30
0.0
 10
269.95928530392
 20
41.63374693248441
 30
0.0
 10
269.954826542671
 20
41.73508794128536
 30
0.0
 10
269.9606427618887
 20
41.93827231863371
 30
0.0
 10
269.9709980501952
 20
42.04056342690882
 30
0.0
 10
270.0256317678811
 20
42.3446036258258
 30
0.0
 10
270.0922224136898
 20
42.53948448678292
 30
0.0
 10
270.2392286463898
 20
42.81742387206236
 30
0.0
 10
270.2961432090552
 20
42.9076620754699
 30
0.0
 10
270.4269535040677
 20
43.08268141974264
 30
0.0
 10
270.5013560627324
 20
43.16779529088952
 30
0.0
 10
270.7444536592334
 20
43.40642267998928
 30
0.0
 10
270.934336777689
 20
43.54592911605985
 30
0.0
 10
271.2619302877162
 20
43.72459116346894
 30
0.0
 10
271.3790786860976
 20
43.77923040620193
 30
0.0
 10
271.6214598582712
 20
43.87519398204419
 30
0.0
 10
271.7472502141411
 20
43.9169235509801
 30
0.0
 10
272.0076917602827
 20
43.98852532820164
 30
0.0
 10
272.1423438465237
 20
44.01839600320778
 30
0.0
 10
272.4204765271319
 20
44.06661097914075
 30
0.0
 10
272.563352981294
 20
44.08477278612808
 30
0.0
 10
272.9948542285601
 20
44.12189605638333
 30
0.0
 10
273.2893923363596
 20
44.12423146849575
 30
0.0
 10
273.8918147561519
 20
44.08996068986743
 30
0.0
 10
274.1933481720987
 20
44.05360710676922
 30
0.0
 10
274.4922531009988
 20
44.00176946367526
 30
0.0
  0
LINE
  5
1A6
330
1F
100
AcDbEntity
  8
0
  6
Continuous
 62
     7
370
    15
100
AcDbLine
 10
276.8449048496
 20
45.6352452319
 30
0.0
 11
276.749395216
 21
45.6890603897
 31
0.0
  0
SPLINE
  5
1A7
330
1F
100
AcDbEntity
  8
0
  6
Continuous
 62
     7
370
    15
100
AcDbSpline
210
0.0
220
0.0
230
1.0
 70
     8
 71
     3
 72
    10
 73
     6
 74
     0
 42
0.000000001
 43
0.00000001
 40
0.0
 40
0.0
 40
0.0
 40
0.0
 40
0.2757514325675113
 40
0.6245939605209374
 40
1.0
 40
1.0
 40
1.0
 40
1.0
 10
284.1771063018237
 20
47.65269402013433
 30
0.0
 10
284.1982380676566
 20
47.66489272271436
 30
0.0
 10
284.2461028174116
 20
47.69252353458987
 30
0.0
 10
284.2873308371656
 20
47.71631774131997
 30
0.0
 10
284.2893050445005
 20
47.71745089000228
 30
0.0
 10
284.2903283525055
 20
47.71803824478363
 30
0.0
  0
SPLINE
  5
1A8
330
1F
100
AcDbEntity
  8
0
  6
Continuous
 62
     7
370
    15
100
AcDbSpline
210
0.0
220
0.0
230
1.0
 70
     8
 71
     3
 72
     9
 73
     5
 74
     0
 42
0.000000001
 43
0.00000001
 40
0.0
 40
0.0
 40
0.0
 40
0.0
 40
0.8060858008825049
 40
1.0
 40
1.0
 40
1.0
 40
1.0
 10
284.2907174046646
 20
47.71825844651057
 30
0.0
 10
284.2840220261099
 20
47.71438863610569
 30
0.0
 10
284.2757159890263
 20
47.70958789355365
 30
0.0
 10
284.2524209244353
 20
47.69613363812181
 30
0.0
 10
284.2479036806419
 20
47.69352466695503
 30
0.0
  0
LWPOLYLINE
  5
1A9
330
1F
100
AcDbEntity
  8
0
  6
Continuous
 62
     7
370
    15
100
AcDbPolyline
 90
       17
 70
   128
 43
0.0
 10
251.7389677629
 20
29.2836317095
 10
252.1185347756
 20
30.724186214
 10
252.7090401022
 20
32.591082623
 10
253.409892361
 20
34.4580966257
 10
254.2160038809
 20
36.3116750759
 10
255.1215228862
 20
38.1383623596
 10
256.119875976
 20
39.9248980731
 10
257.2038158425
 20
41.6583132832
 10
258.3654738808
 20
43.3260246727
 10
259.5964173095
 20
44.9159258855
 10
260.8877103861
 20
46.4164754103
 10
262.2299792743
 20
47.816780363
 10
263.6134800909
 20
49.1066755613
 10
265.0281696392
 20
50.2767973165
 10
266.4637783154
 20
51.3186514067
 10
267.9098846583
 20
52.2246747388
 10
268.362886099
 20
52.4792111544
  0
SPLINE
  5
1AA
330
1F
100
AcDbEntity
  8
0
  6
Continuous
 62
     7
370
    15
100
AcDbSpline
210
0.0
220
0.0
230
1.0
 70
     8
 71
     3
 72
    14
 73
    10
 74
     0
 42
0.000000001
 43
0.00000001
 40
0.0
 40
0.0
 40
0.0
 40
0.0
 40
0.25
 40
0.25
 40
0.5
 40
0.5
 40
0.75
 40
0.75
 40
1.0
 40
1.0
 40
1.0
 40
1.0
 10
251.147601567217
 20
28.58512699055575
 30
0.0
 10
251.1806025893324
 20
28.60418290201332
 30
0.0
 10
251.2168293696674
 20
28.62510077813995
 30
0.0
 10
251.2951921447587
 20
28.67034743341984
 30
0.0
 10
251.3375635933201
 20
28.69481214350478
 30
0.0
 10
251.4244814349834
 20
28.74499616305637
 30
0.0
 10
251.4702970902304
 20
28.77144831331707
 30
0.0
 10
251.5601846237775
 20
28.82334424916736
 30
0.0
 10
251.6052789094205
 20
28.84937830632875
 30
0.0
 10
251.6426630147471
 20
28.87095969096109
 30
0.0
  0
LWPOLYLINE
  5
1AB
330
1F
100
AcDbEntity
  8
0
  6
Continuous
 62
     7
370
    15
100
AcDbPolyline
 90
       13
 70
   128
 43
0.0
 10
272.1852654987
 20
54.4947881616
 10
273.5200760059
 20
54.7807085591
 10
274.8939152482
 20
54.9244906947
 10
276.2141550626
 20
54.9029589202
 10
277.4709618611
 20
54.7162736115
 10
278.654974526
 20
54.3658252632
 10
279.7573741346
 20
53.8542241319
 10
280.7699496456
 20
53.1852807942
 10
281.6851590579
 20
52.3639777638
 10
282.4961855852
 20
51.3964323807
 10
283.1969884305
 20
50.2898512467
 10
283.7823477798
 20
49.0524765485
 10
284.1643888343
 20
47.9751118742
  0
ELLIPSE
  5
1AC
330
1F
100
AcDbEntity
  8
0
  6
Continuous
 62
     7
370
    15
100
AcDbEllipse
 10
268.5639584309
 20
32.2296929815
 30
0.0
 11
-17.20107132423169
 21
29.79151542623311
 31
0.0
210
0.0
220
0.0
230
1.0
 40
0.5773346305
 41
1.294917495320743
 42
1.303452308812382
  0
ARC
  5
1AD
330
1F
100
AcDbEntity
  8
0
  6
Continuous
 62
     7
370
    15
100
AcDbCircle
 10
271.3924008074
 20
47.4333713886
 30
0.0
 40
9.747167023489453
100
AcDbArc
 50
61.5164487183
 51
108.0832840909
  0
ELLIPSE
  5
1AE
330
1F
100
AcDbEntity
  8
0
  6
Continuous
 62
     7
370
    15
100
AcDbEllipse
 10
263.0131701986
 20
35.4340948204
 30
0.0
 11
24.32499995420591
 21
14.04480615329152
 31
0.0
210
0.0
220
0.0
230
1.0
 40
0.0000703729
 41
5.765049898307906
 42
5.773584711789918
  0
ELLIPSE
  5
1AF
330
1F
100
AcDbEntity
  8
0
  6
Continuous
 62
     7
370
    15
100
AcDbEllipse
 10
263.0131701986
 20
35.4340948204
 30
0.0
 11
24.32499994591274
 21
14.04480614850242
 31
0.0
210
0.0
220
0.0
230
1.0
 40
0.0000703729
 41
2.080315659320617
 42
2.088850472813103
  0
LINE
  5
1B0
330
1F
100
AcDbEntity
  8
0
  6
Continuous
 62
     7
370
    15
100
AcDbLine
 10
250.9668014371
 20
28.4807267571
 30
0.0
 11
247.4312675312
 21
30.5217470366
 31
0.0
  0
LINE
  5
1B1
330
1F
100
AcDbEntity
  8
0
  6
Continuous
 62
     7
370
    15
100
AcDbLine
 10
281.0267154493
 20
45.8340120927
 30
0.0
 11
284.1771063018
 21
47.6526940201
 31
0.0
  0
ELLIPSE
  5
1B2
330
1F
100
AcDbEntity
  8
0
  6
Continuous
 62
     7
370
    15
100
AcDbEllipse
 10
281.0267154493
 20
44.6792490023
 30
0.0
 11
0.3250094736511642
 21
1.213179526238676
 31
0.0
210
0.0
220
0.0
230
1.0
 40
0.5176380889
 41
0.4775816977579234
 42
2.048378024552795
  0
LINE
  5
1B3
330
1F
100
AcDbEntity
  8
0
  6
Continuous
 62
     7
370
    15
100
AcDbLine
 10
280.3196086681
 20
43.6293414143
 30
0.0
 11
280.3196086681
 21
44.2710449464
 31
0.0
  0
LINE
  5
1B4
330
1F
100
AcDbEntity
  8
0
  6
Continuous
 62
     7
370
    15
100
AcDbLine
 10
254.7930538673
 20
19.3805513738
 30
0.0
 11
251.6426630147
 21
17.5618694463
 31
0.0
  0
ELLIPSE
  5
1B5
330
1F
100
AcDbEntity
  8
0
  6
Continuous
 62
     7
370
    15
100
AcDbEllipse
 10
254.7930538673
 20
20.5353144642
 30
0.0
 11
0.3250094736511642
 21
1.21317952623864
 31
0.0
210
0.0
220
0.0
230
1.0
 40
0.5176380889
 41
3.619174351347738
 42
5.189970678142643
  0
LINE
  5
1B6
330
1F
100
AcDbEntity
  8
0
  6
Continuous
 62
     7
370
    15
100
AcDbLine
 10
255.5001606485
 20
29.9430825839
 30
0.0
 11
255.5001606485
 21
20.9435185201
 31
0.0
  0
ELLIPSE
  5
1B7
330
1F
100
AcDbEntity
  8
0
  6
Continuous
 62
     7
370
    15
100
AcDbEllipse
 10
254.7930538673
 20
29.534878528
 30
0.0
 11
0.3250094736511642
 21
1.213179526238644
 31
0.0
210
0.0
220
0.0
230
1.0
 40
0.5176380889
 41
5.189970678142639
 42
6.760767004937509
  0
LINE
  5
1B8
330
1F
100
AcDbEntity
  8
0
  6
Continuous
 62
     7
370
    15
100
AcDbLine
 10
251.6426630147
 20
28.870959691
 30
0.0
 11
254.7930538673
 21
30.6896416184
 31
0.0
  0
ARC
  5
1B9
330
1F
100
AcDbEntity
  8
0
  6
Continuous
 62
     7
370
    15
100
AcDbCircle
 10
287.441221014
 20
21.3307851291
 30
0.0
 40
41.32369877705218
100
AcDbArc
 50
143.7766069931
 51
155.2144421592
  0
SPLINE
  5
1BA
330
1F
100
AcDbEntity
  8
0
  6
Continuous
 62
     7
370
    15
100
AcDbSpline
210
0.0
220
0.0
230
1.0
 70
     8
 71
     3
 72
     9
 73
     5
 74
     0
 42
0.000000001
 43
0.00000001
 40
0.0
 40
0.0
 40
0.0
 40
0.0
 40
0.54537617991762
 40
1.0
 40
1.0
 40
1.0
 40
1.0
 10
247.3292249488096
 20
30.78942889247705
 30
0.0
 10
247.3088538781254
 20
30.8572752108489
 30
0.0
 10
247.2715015487896
 20
30.98167800083156
 30
0.0
 10
247.2880296526048
 20
31.10082264711055
 30
0.0
 10
247.2955437223
 20
31.15498864134427
 30
0.0
  0
LINE
  5
1BB
330
1F
100
AcDbEntity
  8
0
  6
Continuous
 62
     7
370
    15
100
AcDbLine
 10
285.0667303384
 20
33.0948688939
 30
0.0
 11
284.974192075
 21
33.1461369812
 31
0.0
  0
LWPOLYLINE
  5
1BC
330
1F
100
AcDbEntity
  8
0
  6
Continuous
 62
     7
370
    15
100
AcDbPolyline
 90
        8
 70
   128
 43
0.0
 10
271.9757486501
 20
42.0999501841
 10
271.4696355097
 20
41.7335769597
 10
271.1174336595
 20
41.311374891
 10
270.936803971
 20
40.8545149528
 10
270.936803971
 20
40.38590601
 10
271.1174336595
 20
39.9290460718
 10
271.4696355097
 20
39.5068440032
 10
271.9753321495
 20
39.1407112585
  0
LWPOLYLINE
  5
1BD
330
1F
100
AcDbEntity
  8
0
  6
Continuous
 62
     7
370
    15
100
AcDbPolyline
 90
       15
 70
   128
 43
0.0
 10
277.4012480585
 20
39.3360570321
 10
277.6083859541
 20
39.5068440032
 10
277.9605878043
 20
39.9290460718
 10
278.1412174928
 20
40.38590601
 10
278.1412174928
 20
40.8545149528
 10
277.9605878043
 20
41.311374891
 10
277.6083859541
 20
41.7335769597
 10
277.1022728137
 20
42.0999501841
 10
276.4676270093
 20
42.392123081
 10
275.7362723315
 20
42.5954448812
 10
274.9448819578
 20
42.6997201809
 10
274.133139506
 20
42.6997201809
 10
273.3417491323
 20
42.5954448812
 10
272.6103944545
 20
42.392123081
 10
271.9757486501
 20
42.0999501841
  0
LINE
  5
1BE
330
1F
100
AcDbEntity
  8
0
  6
Continuous
 62
     7
370
    15
100
AcDbLine
 10
254.4395004767
 20
30.4854732404
 30
0.0
 11
250.9668014371
 21
28.4807267571
 31
0.0
  0
ARC
  5
1BF
330
1F
100
AcDbEntity
  8
0
  6
Continuous
 62
     7
370
    15
100
AcDbCircle
 10
265.7927948792
 20
27.7117224458
 30
0.0
 40
14.83050260470557
100
AcDbArc
 50
176.9921570066
 51
191.4514724325
  0
LINE
  5
1C0
330
1F
100
AcDbEntity
  8
0
  6
Continuous
 62
     7
370
    15
100
AcDbLine
 10
250.1880209548
 20
28.5813692318
 30
0.0
 11
250.1916310181
 21
28.9282231148
 31
0.0
  0
ARC
  5
1C1
330
1F
100
AcDbEntity
  8
0
  6
Continuous
 62
     7
370
    15
100
AcDbCircle
 10
261.7444192258
 20
28.2601278588
 30
0.0
 40
11.56086229564006
100
AcDbArc
 50
178.40771875
 51
204.8918965601
  0
LINE
  5
1C2
330
1F
100
AcDbEntity
  8
0
  6
Continuous
 62
     7
370
    15
100
AcDbLine
 10
231.704307921
 20
65.1858034187
 30
0.0
 11
231.8062893681
 21
65.1508092014
 31
0.0
  0
LINE
  5
1C3
330
1F
100
AcDbEntity
  8
0
  6
Continuous
 62
     7
370
    15
100
AcDbLine
 10
221.6731586093
 20
47.5978099834
 30
0.0
 11
221.5792225618
 21
47.6800252018
 31
0.0
  0
ELLIPSE
  5
1C4
330
1F
100
AcDbEntity
  8
0
  6
Continuous
 62
     7
370
    15
100
AcDbEllipse
 10
254.7323936955
 20
29.4998487723
 30
0.0
 11
-7.507462979106094E-5
 21
1.066811201853398
 31
0.0
210
0.0
220
0.0
230
1.0
 40
0.7174342186
 41
5.104989972352378
 42
6.675786299147253
  0
LINE
  5
1C5
330
1F
100
AcDbEntity
  8
0
  6
Continuous
 62
     7
370
    15
100
AcDbLine
 10
251.2575199613
 20
24.7673055988
 30
0.0
 11
251.2575199613
 21
23.3927428556
 31
0.0
  0
LINE
  5
1C6
330
1F
100
AcDbEntity
  8
0
  6
Continuous
 62
     7
370
    15
100
AcDbLine
 10
251.2575199613
 20
28.6485549888
 30
0.0
 11
251.2575199613
 21
24.7673055988
 31
0.0
  0
SPLINE
  5
1C7
330
1F
100
AcDbEntity
  8
0
  6
Continuous
 62
     7
370
    15
100
AcDbSpline
210
0.0
220
0.0
230
1.0
 70
     8
 71
     3
 72
    12
 73
     8
 74
     0
 42
0.000000001
 43
0.00000001
 40
0.0
 40
0.0
 40
0.0
 40
0.0
 40
0.25
 40
0.25
 40
0.5
 40
0.5
 40
1.0
 40
1.0
 40
1.0
 40
1.0
 10
251.6426630147471
 20
17.56186944634346
 30
0.0
 10
251.6052376199627
 20
17.54026422581452
 30
0.0
 10
251.5604981274415
 20
17.534962245488
 30
0.0
 10
251.4708353773076
 20
17.54404720906715
 30
0.0
 10
251.4250234501649
 20
17.5585653857378
 30
0.0
 10
251.2946794490515
 20
17.62002109157269
 30
0.0
 10
251.2135461604025
 20
17.68533810201303
 30
0.0
 10
251.147601567217
 20
17.76596123306956
 30
0.0
  0
ELLIPSE
  5
1C8
330
1F
100
AcDbEntity
  8
0
  6
Continuous
 62
     7
370
    15
100
AcDbEllipse
 10
263.0131701986
 20
35.4340948204
 30
0.0
 11
-17.20107132423226
 21
29.79151542623329
 31
0.0
210
0.0
220
0.0
230
1.0
 40
0.5773346305
 41
1.838059080715295
 42
1.846593894206937
  0
LINE
  5
1C9
330
1F
100
AcDbEntity
  8
0
  6
Continuous
 62
     7
370
    15
100
AcDbLine
 10
250.9668014371
 20
17.9881773244
 30
0.0
 11
254.4395004767
 21
19.9929238077
 31
0.0
  0
LWPOLYLINE
  5
1CA
330
1F
100
AcDbEntity
  8
0
  6
Continuous
 62
     7
370
    15
100
AcDbPolyline
 90
       13
 70
   128
 43
0.0
 10
263.2102397491
 20
10.9646977384
 10
261.875429242
 20
10.6787773409
 10
260.5015899997
 20
10.5349952053
 10
259.1813501853
 20
10.5565269798
 10
257.9245433868
 20
10.7432122885
 10
256.7405307219
 20
11.0936606368
 10
255.6381311133
 20
11.6052617681
 10
254.6255556022
 20
12.2742051059
 10
253.71034619
 20
13.0955081362
 10
252.8993196627
 20
14.0630535194
 10
252.1985168173
 20
15.1696346534
 10
251.613157468
 20
16.4070093516
 10
251.2311164136
 20
17.4843740258
  0
ARC
  5
1CB
330
1F
100
AcDbEntity
  8
0
  6
Continuous
 62
     7
370
    15
100
AcDbCircle
 10
256.9394091745
 20
22.2315678763
 30
0.0
 40
9.860209375322972
100
AcDbArc
 50
194.9451548862
 51
238.0244592803
  0
ELLIPSE
  5
1CC
330
1F
100
AcDbEntity
  8
0
  6
Continuous
 62
     7
370
    15
100
AcDbEllipse
 10
268.5639584309
 20
32.2296929815
 30
0.0
 11
24.32500000803628
 21
14.04480618437196
 31
0.0
210
0.0
220
0.0
230
1.0
 40
0.0000703729
 41
2.623457243616651
 42
2.631992057112701
  0
LINE
  5
1CD
330
1F
100
AcDbEntity
  8
0
  6
Continuous
 62
     7
370
    15
100
AcDbLine
 10
247.4312675312
 20
20.0291976039
 30
0.0
 11
250.9668014371
 21
17.9881773244
 31
0.0
  0
LINE
  5
1CE
330
1F
100
AcDbEntity
  8
0
  6
Continuous
 62
     7
370
    15
100
AcDbLine
 10
247.4312675312
 20
20.0291976039
 30
0.0
 11
250.9039665707
 21
22.0339440872
 31
0.0
  0
ELLIPSE
  5
1CF
330
1F
100
AcDbEntity
  8
0
  6
Continuous
 62
     7
370
    15
100
AcDbEllipse
 10
254.7323936955
 20
20.6403809634
 30
0.0
 11
0.7293965376278777
 21
0.7294307619860874
 31
0.0
210
0.0
220
0.0
230
1.0
 40
0.3178881559
 41
4.01189025871537
 42
5.582686585510351
  0
ELLIPSE
  5
1D0
330
1F
100
AcDbEntity
  8
0
  6
Continuous
 62
     7
370
    15
100
AcDbEllipse
 10
250.6110733519
 20
23.0195685553
 30
0.0
 11
-7.507462984790438E-5
 21
1.066811201853405
 31
0.0
210
0.0
220
0.0
230
1.0
 40
0.7174342186
 41
3.53419364555741
 42
5.104989972352346
  0
SPLINE
  5
1D1
330
1F
100
AcDbEntity
  8
0
  6
Continuous
 62
     7
370
    15
100
AcDbSpline
210
0.0
220
0.0
230
1.0
 70
     8
 71
     3
 72
     9
 73
     5
 74
     0
 42
0.000000001
 43
0.00000001
 40
0.0
 40
0.0
 40
0.0
 40
0.0
 40
0.4635467256911063
 40
1.0
 40
1.0
 40
1.0
 40
1.0
 10
247.2890453567572
 20
19.94704578107416
 30
0.0
 10
247.2880429074847
 20
19.94647016264865
 30
0.0
 10
247.2858803438919
 20
19.9452283926315
 30
0.0
 10
247.3140911626929
 20
19.96152224469846
 30
0.0
 10
247.3292249488096
 20
19.97026313499089
 30
0.0
  0
ELLIPSE
  5
1D2
330
1F
100
AcDbEntity
  8
0
  6
Continuous
 62
     7
370
    15
100
AcDbEllipse
 10
250.5504131802
 20
22.9845387996
 30
0.0
 11
0.3250094736511642
 21
1.213179526238665
 31
0.0
210
0.0
220
0.0
230
1.0
 40
0.5176380889
 41
3.619174351347739
 42
5.189970678142585
  0
LINE
  5
1D3
330
1F
100
AcDbEntity
  8
0
  6
Continuous
 62
     7
370
    15
100
AcDbLine
 10
284.1458610983
 20
47.634590198
 30
0.0
 11
281.0191354724
 21
45.8295699152
 31
0.0
  0
ARC
  5
1D4
330
1F
100
AcDbEntity
  8
0
  6
Continuous
 62
     7
370
    15
100
AcDbCircle
 10
224.5016138109
 20
63.204865153
 30
0.0
 40
3.20507755322886
100
AcDbArc
 50
61.8734442251
 51
102.4608226175
  0
ARC
  5
1D5
330
1F
100
AcDbEntity
  8
0
  6
Continuous
 62
     7
370
    15
100
AcDbCircle
 10
220.121115847
 20
55.2560732613
 30
0.0
 40
3.733409869388602
100
AcDbArc
 50
181.6276537348
 51
235.6249446712
  0
LWPOLYLINE
  5
1D6
330
1F
100
AcDbEntity
  8
0
  6
Continuous
 62
     7
370
    15
100
AcDbPolyline
 90
       23
 70
   128
 43
0.0
 10
214.5975773489
 20
55.3748580689
 10
214.6594702932
 20
56.4782519873
 10
214.8440446449
 20
57.6334158874
 10
215.1480066705
 20
58.8197358422
 10
215.5659321603
 20
60.0160419438
 10
216.0903632241
 20
61.2009860817
 10
216.7119413772
 20
62.3534228995
 10
217.4195745426
 20
63.4527871349
 10
218.2006349897
 20
64.4794606072
 10
219.0411846765
 20
65.4151223039
 10
219.9262239737
 20
66.2430753199
 10
220.8399593343
 20
66.9485448139
 10
221.7660851289
 20
67.5189416662
 10
222.688074621
 20
67.9440871313
 10
223.5894748861
 20
68.2163944784
 10
224.4542004151
 20
68.3310043765
 10
225.2668201606
 20
68.2858716091
 10
226.0128329039
 20
68.0818015717
 10
226.6789260299
 20
67.7224358988
 10
227.253213091
 20
67.2141874793
 10
227.7254459211
 20
66.5661260185
 10
228.087197514
 20
65.7898161883
 10
228.2925123784
 20
65.0862530009
  0
LWPOLYLINE
  5
1D7
330
1F
100
AcDbEntity
  8
0
  6
Continuous
 62
     7
370
    15
100
AcDbPolyline
 90
       12
 70
   128
 43
0.0
 10
219.9481190719
 20
50.6656229428
 10
219.9262239737
 20
50.6589652549
 10
219.0411846765
 20
50.4650736489
 10
218.2006349897
 20
50.4302573344
 10
217.4195745426
 20
50.5551376097
 10
216.7119413772
 20
50.837485983
 10
216.0903632241
 20
51.2722639412
 10
215.5659321603
 20
51.8517128611
 10
215.1480066705
 20
52.565492463
 10
214.8440446449
 20
53.4008653332
 10
214.6594702932
 20
54.3429242229
 10
214.5975773489
 20
55.3748580689
  0
LWPOLYLINE
  5
1D8
330
1F
100
AcDbEntity
  8
0
  6
Continuous
 62
     7
370
    15
100
AcDbPolyline
 90
       19
 70
   128
 43
0.0
 10
213.5263021172
 20
55.9932920964
 10
213.5881950615
 20
57.0966860148
 10
213.7727694133
 20
58.2518499149
 10
214.0767314388
 20
59.4381698697
 10
214.4946569286
 20
60.6344759713
 10
215.0190879924
 20
61.8194201092
 10
215.6406661455
 20
62.971856927
 10
216.3482993109
 20
64.0712211625
 10
217.129359758
 20
65.0978946348
 10
217.9699094448
 20
66.0335563315
 10
218.854948742
 20
66.8615093474
 10
219.7686841026
 20
67.5669788414
 10
220.6948098972
 20
68.1373756937
 10
221.6167993893
 20
68.5625211588
 10
222.5181996544
 20
68.8348285059
 10
223.3829251834
 20
68.949438404
 10
224.1955449289
 20
68.9043056367
 10
224.9415576722
 20
68.7002355992
 10
225.3676210242
 20
68.4937132248
  0
LWPOLYLINE
  5
1D9
330
1F
100
AcDbEntity
  8
0
  6
Continuous
 62
     7
370
    15
100
AcDbPolyline
 90
        7
 70
   128
 43
0.0
 10
215.5584182571
 20
51.5018345449
 10
215.0190879924
 20
51.8906979687
 10
214.4946569286
 20
52.4701468886
 10
214.0767314388
 20
53.1839264906
 10
213.7727694133
 20
54.0192993607
 10
213.5881950615
 20
54.9613582504
 10
213.5263021172
 20
55.9932920964
  0
ARC
  5
1DA
330
1F
100
AcDbEntity
  8
0
  6
Continuous
 62
     7
370
    15
100
AcDbCircle
 10
227.7354078084
 20
55.7995135582
 30
0.0
 40
14.13345586693826
100
AcDbArc
 50
135.1121153591
 51
164.8932611737
  0
LWPOLYLINE
  5
1DB
330
1F
100
AcDbEntity
  8
0
  6
Continuous
 62
     7
370
    15
100
AcDbPolyline
 90
       18
 70
   128
 43
0.0
 10
211.7567673973
 20
58.0741122714
 10
211.8180346474
 20
59.0986836009
 10
212.0005891731
 20
60.1731352741
 10
212.3007146907
 20
61.2755945532
 10
212.7123015102
 20
62.3836185466
 10
213.2269709109
 20
63.4746510811
 10
213.8342457078
 20
64.5264818806
 10
214.5217635375
 20
65.5176987031
 10
215.2755285195
 20
66.4281232327
 10
216.0801961725
 20
67.2392218513
 10
216.9193857836
 20
67.9344829301
 10
217.7760138722
 20
68.4997529585
 10
218.6326419608
 20
68.9235246689
 10
219.4718315718
 20
69.1971712912
 10
220.2764992248
 20
69.3151221693
 10
221.0302642068
 20
69.2749761636
 10
221.7177820365
 20
69.0775505309
 10
222.0319179779
 20
68.9211902384
  0
ARC
  5
1DC
330
1F
100
AcDbEntity
  8
0
  6
Continuous
 62
     7
370
    15
100
AcDbCircle
 10
215.9267000666
 20
57.5910089523
 30
0.0
 40
4.17721503314665
100
AcDbArc
 50
176.0835208591
 51
234.821674637
  0
ARC
  5
1DD
330
1F
100
AcDbEntity
  8
0
  6
Continuous
 62
     7
370
    15
100
AcDbCircle
 10
224.6859672565
 20
57.5761039795
 30
0.0
 40
12.94218691261749
100
AcDbArc
 50
124.1394960211
 51
177.4330025712
  0
LWPOLYLINE
  5
1DE
330
1F
100
AcDbEntity
  8
0
  6
Continuous
 62
     7
370
    15
100
AcDbPolyline
 90
        8
 70
   128
 43
0.0
 10
279.3544928327
 20
28.4108183914
 10
279.2718890752
 20
28.3176674156
 10
278.930672533
 20
28.0985838691
 10
278.5105724264
 20
28.036100091
 10
278.0379851901
 20
28.1341421669
 10
277.5426052184
 20
28.3865497526
 10
277.0555590566
 20
28.7774631512
 10
276.9522510612
 20
28.8801238657
  0
ARC
  5
1DF
330
1F
100
AcDbEntity
  8
0
  6
Continuous
 62
     7
370
    15
100
AcDbCircle
 10
279.8756774939
 20
30.8662995308
 30
0.0
 40
3.793954726777153
100
AcDbArc
 50
344.6041502888
 51
15.3958497112
  0
ARC
  5
1E0
330
1F
100
AcDbEntity
  8
0
  6
Continuous
 62
     7
370
    15
100
AcDbCircle
 10
273.3611053529
 20
41.3488928474
 30
0.0
 40
2.525931750079629
100
AcDbArc
 50
207.7920961398
 51
251.6417580309
  0
LWPOLYLINE
  5
1E1
330
1F
100
AcDbEntity
  8
0
  6
Continuous
 62
     7
370
    15
100
AcDbPolyline
 90
       21
 70
   128
 43
0.0
 10
276.9546726372
 20
39.1581129506
 10
277.2748282846
 20
39.3600160899
 10
277.6919893108
 20
39.7430510893
 10
277.9510468254
 20
40.1700705234
 10
278.0390106029
 20
40.6196618546
 10
277.9514697721
 20
41.0692806962
 10
277.6928139958
 20
41.4963812821
 10
277.2760133548
 20
41.8795470055
 10
276.7219679735
 20
42.1995643371
 10
276.0584600009
 20
42.4403862715
 10
275.3187604972
 20
42.5899369914
 10
274.5399610844
 20
42.6407173992
 10
273.761114017
 20
42.5901811533
 10
273.021273939
 20
42.440862352
 10
272.3575395214
 20
42.2002484635
 10
271.8031931792
 20
41.880404873
 10
271.386032153
 20
41.4973698735
 10
271.1269746384
 20
41.0703504394
 10
271.0390108609
 20
40.6207591082
 10
271.1265516917
 20
40.1711402666
 10
271.1265516917
 20
40.1711402666
  0
LWPOLYLINE
  5
1E2
330
1F
100
AcDbEntity
  8
0
  6
Continuous
 62
     7
370
    15
100
AcDbPolyline
 90
       24
 70
   128
 43
0.0
 10
272.2477882335
 20
40.3186919086
 10
272.4736683938
 20
39.9730143045
 10
272.852725547
 20
39.6753362801
 10
273.3568467581
 20
39.4477352528
 10
273.9486436631
 20
39.3070913494
 10
274.5842253929
 20
39.2638354849
 10
275.2164537581
 20
39.3211757489
 10
275.7984392731
 20
39.4748594763
 10
276.2870187348
 20
39.7134886482
 10
276.6459564394
 20
40.0193652304
 10
276.8486316196
 20
40.3698037562
 10
276.8800127844
 20
40.7388138033
 10
276.7377725363
 20
41.0990275846
 10
276.4324601838
 20
41.4237296918
 10
275.9867193474
 20
41.688838455
 10
275.4336085859
 20
41.87469197
 10
274.814149594
 20
41.9675063319
 10
274.1742848114
 20
41.9603979241
 10
273.5614700818
 20
41.8538939446
 10
273.0211550703
 20
41.6558933063
 10
272.5934124695
 20
41.3810808108
 10
272.3099659913
 20
41.0498380438
 10
272.1918375643
 20
40.6867317659
 10
272.2477882335
 20
40.3186919086
  0
LINE
  5
1E3
330
1F
100
AcDbEntity
  8
0
  6
Continuous
 62
     7
370
    15
100
AcDbLine
 10
272.8456734963
 20
39.6805264822
 30
0.0
 11
272.9390382531
 21
39.6308837154
 31
0.0
  0
SPLINE
  5
1E4
330
1F
100
AcDbEntity
  8
0
  6
Continuous
 62
     7
370
    15
100
AcDbSpline
210
0.0
220
0.0
230
1.0
 70
     8
 71
     3
 72
    13
 73
     9
 74
     0
 42
0.000000001
 43
0.00000001
 40
0.0
 40
0.0
 40
0.0
 40
0.0
 40
0.2165314990723432
 40
0.3435585913769388
 40
0.47108509607267
 40
0.6684103578402658
 40
0.867049872466629
 40
1.0
 40
1.0
 40
1.0
 40
1.0
 10
275.9543940601433
 20
39.52275463449337
 30
0.0
 10
276.0142644834417
 20
39.55781674792923
 30
0.0
 10
276.1092575832061
 20
39.61344787021086
 30
0.0
 10
276.2370331194344
 20
39.7106809808224
 30
0.0
 10
276.3580156240101
 20
39.80972366735101
 30
0.0
 10
276.4952242921922
 20
39.93465043589352
 30
0.0
 10
276.6302576380504
 20
40.06939762572538
 30
0.0
 10
276.7126083505167
 20
40.15816036322479
 30
0.0
 10
276.7456266850267
 20
40.19374958487205
 30
0.0
  0
SPLINE
  5
1E5
330
1F
100
AcDbEntity
  8
0
  6
Continuous
 62
     7
370
    15
100
AcDbSpline
210
0.0
220
0.0
230
1.0
 70
     8
 71
     3
 72
    13
 73
     9
 74
     0
 42
0.000000001
 43
0.00000001
 40
0.0
 40
0.0
 40
0.0
 40
0.0
 40
0.1839994827460121
 40
0.3484393094602218
 40
0.5179829717183934
 40
0.6899346189466458
 40
0.8679809852867775
 40
1.0
 40
1.0
 40
1.0
 40
1.0
 10
276.7456266850267
 20
40.19374958487205
 30
0.0
 10
276.7157788168133
 20
40.21844363686254
 30
0.0
 10
276.6592559916733
 20
40.26520669453492
 30
0.0
 10
276.5694617540091
 20
40.40380974976978
 30
0.0
 10
276.4788306276209
 20
40.60516299698357
 30
0.0
 10
276.3862127225545
 20
40.88388063371482
 30
0.0
 10
276.3037399855173
 20
41.18867429921404
 30
0.0
 10
276.2536676611743
 20
41.40253566335097
 30
0.0
 10
276.2323479675609
 20
41.49359312511169
 30
0.0
  0
SPLINE
  5
1E6
330
1F
100
AcDbEntity
  8
0
  6
Continuous
 62
     7
370
    15
100
AcDbSpline
210
0.0
220
0.0
230
1.0
 70
     8
 71
     3
 72
    11
 73
     7
 74
     0
 42
0.000000001
 43
0.00000001
 40
0.0
 40
0.0
 40
0.0
 40
0.0
 40
0.2164567244934063
 40
0.4403141600939134
 40
0.7519028444798501
 40
1.0
 40
1.0
 40
1.0
 40
1.0
 10
276.2323479675609
 20
41.49359312511169
 30
0.0
 10
276.0811916782157
 20
41.46138585968646
 30
0.0
 10
275.7737110270983
 20
41.39587015414383
 30
0.0
 10
275.2031107052704
 20
41.39728801827921
 30
0.0
 10
274.5910432203769
 20
41.56685066967632
 30
0.0
 10
274.1993579795478
 20
41.78860447088975
 30
0.0
 10
274.0257320144435
 20
41.88690334390763
 30
0.0
  0
SPLINE
  5
1E7
330
1F
100
AcDbEntity
  8
0
  6
Continuous
 62
     7
370
    15
100
AcDbSpline
210
0.0
220
0.0
230
1.0
 70
     8
 71
     3
 72
    18
 73
    14
 74
     0
 42
0.000000001
 43
0.00000001
 40
0.0
 40
0.0
 40
0.0
 40
0.0
 40
0.216538659455749
 40
0.3272843284064307
 40
0.4397251388025959
 40
0.4906042423424158
 40
0.5937528941117011
 40
0.698999525647602
 40
0.7521304657896254
 40
0.8137323080972915
 40
0.8756486252096639
 40
0.9377003559516331
 40
0.9999999999999999
 40
0.9999999999999999
 40
0.9999999999999999
 40
0.9999999999999999
 10
274.0257320144435
 20
41.88690334390763
 30
0.0
 10
273.9094427343651
 20
41.76515257207976
 30
0.0
 10
273.7336789283688
 20
41.58113407076087
 30
0.0
 10
273.4821217740109
 20
41.37347133533914
 30
0.0
 10
273.3217352920009
 20
41.2623258076141
 30
0.0
 10
273.1647157793971
 20
41.17095801585556
 30
0.0
 10
273.0116602600813
 20
41.09777277472228
 30
0.0
 10
272.8594491134168
 20
41.04598074457209
 30
0.0
 10
272.7339279100995
 20
41.01521331162725
 30
0.0
 10
272.6346645854529
 20
40.99732572916392
 30
0.0
 10
272.5322981811503
 20
40.98557725985673
 30
0.0
 10
272.4313063293177
 20
40.97962651510527
 30
0.0
 10
272.3654090876789
 20
40.98012185749768
 30
0.0
 10
272.3323947787919
 20
40.98037002246394
 30
0.0
  0
SPLINE
  5
1E8
330
1F
100
AcDbEntity
  8
0
  6
Continuous
 62
     7
370
    15
100
AcDbSpline
210
0.0
220
0.0
230
1.0
 70
     8
 71
     3
 72
    15
 73
    11
 74
     0
 42
0.000000001
 43
0.00000001
 40
0.0
 40
0.0
 40
0.0
 40
0.0
 40
0.0659587834067029
 40
0.1320334017845192
 40
0.304426458813365
 40
0.4819815812693659
 40
0.6460541809952234
 40
0.8159303174583211
 40
0.9077673195787321
 40
1.0
 40
1.0
 40
1.0
 40
1.0
 10
272.3323947787919
 20
40.98037002246394
 30
0.0
 10
272.3429888212231
 20
40.93459840087564
 30
0.0
 10
272.3641955110466
 20
40.84297477485703
 30
0.0
 10
272.4142731185432
 20
40.638249840177
 30
0.0
 10
272.4852099937112
 20
40.3738338652763
 30
0.0
 10
272.5768991052046
 20
40.09732103136842
 30
0.0
 10
272.6685701554421
 20
39.89183759870733
 30
0.0
 10
272.7422672087331
 20
39.7792055454987
 30
0.0
 10
272.801196944927
 20
39.71448547228839
 30
0.0
 10
272.8308267482923
 20
39.69186235588252
 30
0.0
 10
272.8456734962576
 20
39.68052648222432
 30
0.0
  0
LINE
  5
1E9
330
1F
100
AcDbEntity
  8
0
  6
Continuous
 62
     7
370
    15
100
AcDbLine
 10
276.2323479676
 20
39.7081490427
 30
0.0
 11
276.2323479676
 21
41.4935931251
 31
0.0
  0
LINE
  5
1EA
330
1F
100
AcDbEntity
  8
0
  6
Continuous
 62
     7
370
    15
100
AcDbLine
 10
274.0257320144
 20
39.2963392184
 30
0.0
 11
274.0257320144
 21
41.8869033439
 31
0.0
  0
LWPOLYLINE
  5
1EB
330
1F
100
AcDbEntity
  8
0
  6
Continuous
 62
     7
370
     0
100
AcDbPolyline
 90
        9
 70
   128
 43
0.0
 10
257.8336130264
 20
25.5657617688
 10
257.8967059701
 20
24.2351952871
 10
258.085269933
 20
22.9925502175
 10
258.39716841
 20
21.8519062253
 10
258.8288674667
 20
20.8261872626
 10
259.3754757804
 20
19.9270151352
 10
260.0308000604
 20
19.1645778225
 10
260.7874152208
 20
18.5475140439
 10
261.0961848106
 20
18.3547060669
  0
LWPOLYLINE
  5
1EC
330
1F
100
AcDbEntity
  8
0
  6
Continuous
 62
     7
370
     0
100
AcDbPolyline
 90
       24
 70
   128
 43
0.0
 10
276.749395216
 20
45.6890603897
 10
276.740019505
 20
45.694202561
 10
275.8478743538
 20
46.0806337493
 10
274.877806311
 20
46.3074688031
 10
273.8408066353
 20
46.3721375905
 10
272.7486249472
 20
46.2739073882
 10
271.6136361017
 20
46.0138911838
 10
270.448699976
 20
45.5950350647
 10
269.2670157619
 20
45.0220848381
 10
268.0819724136
 20
44.301532259
 10
266.9069969459
 20
43.4415414761
 10
265.7554023003
 20
42.4518565285
 10
264.6402365042
 20
41.3436909423
 10
263.5741348318
 20
40.1296006762
 10
262.5691766409
 20
38.8233418581
 10
261.6367485095
 20
37.4397149224
 10
260.7874152208
 20
35.9943969151
 10
260.0308000604
 20
34.5037638669
 10
259.3754757804
 20
32.9847052456
 10
258.8288674667
 20
31.4544325925
 10
258.39716841
 20
29.9302845083
 10
258.085269933
 20
28.4295301997
 10
257.8967059701
 20
26.9691738127
 10
257.8336130264
 20
25.5657617688
  0
LWPOLYLINE
  5
1ED
330
1F
100
AcDbEntity
  8
0
  6
Continuous
 62
     7
370
     0
100
AcDbPolyline
 90
       47
 70
   128
 43
0.0
 10
280.9206494321
 20
32.8534648174
 10
280.0059480031
 20
32.2531685229
 10
279.1082857311
 20
31.5195538141
 10
278.2443843656
 20
30.6662865449
 10
277.4303367547
 20
29.7092614701
 10
276.681307065
 20
28.6663061561
 10
276.0112483025
 20
27.556848887
 10
275.4326423941
 20
26.4015567525
 10
274.9562676731
 20
25.2219506594
 10
274.5909980992
 20
24.040004437
 10
274.3436379535
 20
22.8777355074
 10
274.2187950874
 20
21.7567947414
 10
274.2187950874
 20
20.6980631448
 10
274.3436379535
 20
19.7212628838
 10
274.5909980992
 20
18.8445898993
 10
274.9562676731
 20
18.0843749502
 10
275.4326423941
 20
17.4547794026
 10
276.0112483025
 20
16.9675314303
 10
276.681307065
 20
16.6317075412
 10
277.4303367547
 20
16.4535634988
 10
278.2443843656
 20
16.4364177897
 10
279.1082857311
 20
16.5805898059
 10
280.0059480031
 20
16.8833938956
 10
280.9206494321
 20
17.3391893916
 10
281.8353508611
 20
17.939485686
 10
282.7330131332
 20
18.6731003948
 10
283.5969144986
 20
19.526367664
 10
284.4109621095
 20
20.4833927388
 10
285.1599917992
 20
21.5263480529
 10
285.8300505617
 20
22.635805322
 10
286.4086564702
 20
23.7910974564
 10
286.8850311912
 20
24.9707035496
 10
287.2503007651
 20
26.1526497719
 10
287.4976609108
 20
27.3149187016
 10
287.6225037768
 20
28.4358594675
 10
287.6225037768
 20
29.4945910642
 10
287.4976609108
 20
30.4713913251
 10
287.2503007651
 20
31.3480643096
 10
286.8850311912
 20
32.1082792587
 10
286.4086564702
 20
32.7378748063
 10
285.8300505617
 20
33.2251227786
 10
285.1599917992
 20
33.5609466678
 10
284.4109621095
 20
33.7390907101
 10
283.5969144986
 20
33.7562364193
 10
282.7330131332
 20
33.612064403
 10
281.8353508611
 20
33.3092603133
 10
280.9206494321
 20
32.8534648174
  0
LINE
  5
1EE
330
1F
100
AcDbEntity
  8
0
  6
Continuous
 62
     7
370
     0
100
AcDbLine
 10
251.6426630147
 20
28.870959691
 30
0.0
 11
251.7389677629
 21
29.2836317095
 31
0.0
  0
LWPOLYLINE
  5
1EF
330
1F
100
AcDbEntity
  8
0
  6
Continuous
 62
     7
370
     0
100
AcDbPolyline
 90
       16
 70
   128
 43
0.0
 10
268.362886099
 20
52.4792111544
 10
269.3559910011
 20
52.9882902509
 10
270.7915996774
 20
53.603954657
 10
272.2062892257
 20
54.0671986872
 10
273.5897900423
 20
54.374659531
 10
274.9320589305
 20
54.5241052492
 10
276.2233520071
 20
54.5144509761
 10
277.4542954358
 20
54.3457667945
 10
278.6159534741
 20
54.0192772274
 10
279.6998933406
 20
53.5373523484
 10
280.6982464304
 20
52.9034905771
 10
281.6037654357
 20
52.122293283
 10
282.4098769556
 20
51.1994313828
 10
283.1107292143
 20
50.1416041741
 10
283.701234541
 20
48.956490703
 10
284.1771063018
 20
47.6526940201
  0
LWPOLYLINE
  5
1F0
330
1F
100
AcDbEntity
  8
0
  6
Continuous
 62
     7
370
     0
100
AcDbPolyline
 90
       20
 70
   128
 43
0.0
 10
251.1476015672
 20
28.5851269906
 10
251.613157468
 20
30.4815982737
 10
252.1985168173
 20
32.3948144909
 10
252.8993196627
 20
34.3105253674
 10
253.71034619
 20
36.2144620473
 10
254.6255556022
 20
38.092443373
 10
255.6381311133
 20
39.9304815109
 10
256.7405307219
 20
41.7148861379
 10
257.9245433868
 20
43.432366411
 10
259.1813501853
 20
45.0701299622
 10
260.5015899997
 20
46.6159781804
 10
261.875429242
 20
48.0583970708
 10
263.2926350976
 20
49.3866430145
 10
264.7426517431
 20
50.5908227912
 10
266.214678969
 20
51.661967267
 10
267.6977526239
 20
52.5920981991
 10
269.1808262788
 20
53.3742876612
 10
270.6528535048
 20
54.0027096442
 10
272.1028701502
 20
54.4726834509
 10
272.1852654987
 20
54.4947881616
  0
LWPOLYLINE
  5
1F1
330
1F
100
AcDbEntity
  8
0
  6
Continuous
 62
     7
370
     0
100
AcDbPolyline
 90
       20
 70
   128
 43
0.0
 10
247.3292249488
 20
30.7894288925
 10
247.7947808496
 20
32.6859001756
 10
248.3801401989
 20
34.5991163928
 10
249.0809430443
 20
36.5148272693
 10
249.8919695716
 20
38.4187639492
 10
250.8071789838
 20
40.2967452749
 10
251.8197544949
 20
42.1347834129
 10
252.9221541035
 20
43.9191880398
 10
254.1061667684
 20
45.6366683129
 10
255.3629735669
 20
47.2744318641
 10
256.6832133813
 20
48.8202800824
 10
258.0570526236
 20
50.2626989727
 10
259.4742584792
 20
51.5909449164
 10
260.9242751247
 20
52.7951246932
 10
262.3963023506
 20
53.8662691689
 10
263.8793760055
 20
54.7964001011
 10
265.3624496604
 20
55.5785895631
 10
266.8344768864
 20
56.2070115461
 10
268.2844935318
 20
56.6769853529
 10
268.3668888803
 20
56.6990900635
  0
LWPOLYLINE
  5
1F2
330
1F
100
AcDbEntity
  8
0
  6
Continuous
 62
     7
370
     0
100
AcDbPolyline
 90
       17
 70
   128
 43
0.0
 10
269.1073439051
 20
13.729962362
 10
267.9098846583
 20
12.9898887277
 10
266.4637783154
 20
12.2262732156
 10
265.0281696392
 20
11.6106088094
 10
263.6134800909
 20
11.1473647793
 10
262.2299792743
 20
10.8399039355
 10
260.8877103861
 20
10.6904582173
 10
259.5964173095
 20
10.7001124904
 10
258.3654738808
 20
10.868796672
 10
257.2038158425
 20
11.1952862391
 10
256.119875976
 20
11.6772111181
 10
255.1215228862
 20
12.3110728894
 10
254.2160038809
 20
13.0922701835
 10
253.409892361
 20
14.0151320837
 10
252.7090401022
 20
15.0729592924
 10
252.1185347756
 20
16.2580727635
 10
251.6426630147
 20
17.5618694463
  0
LWPOLYLINE
  5
1F3
330
1F
100
AcDbEntity
  8
0
  6
Continuous
 62
     7
370
     0
100
AcDbPolyline
 90
       29
 70
   128
 43
0.0
 10
255.7122926828
 20
25.5657617688
 10
255.7748745826
 20
27.0268786306
 10
255.9619781071
 20
28.5452579798
 10
256.2716833209
 20
30.1053191895
 10
256.7008122295
 20
31.6910539205
 10
257.2449613894
 20
33.2861903888
 10
257.8985470941
 20
34.8743603356
 10
258.6548626696
 20
36.4392669881
 10
259.5061472948
 20
37.9648522863
 10
260.4436656374
 20
39.4354616607
 10
261.4577974906
 20
40.8360046691
 10
262.5381364892
 20
42.1521098449
 10
263.6735968931
 20
43.370272168
 10
264.8525273422
 20
44.4779916447
 10
266.0628304145
 20
45.463901574
 10
267.2920867629
 20
46.3178851859
 10
268.5276825537
 20
47.0311794531
 10
269.756938902
 20
47.5964650109
 10
270.9672419744
 20
48.0079412648
 10
272.1461724234
 20
48.2613859114
 10
273.2816328274
 20
48.3541982657
 10
274.361971826
 20
48.2854259475
 10
275.3761036791
 20
48.0557746537
 10
276.3136220218
 20
47.6676009174
 10
277.164906647
 20
47.1248879263
 10
277.9212222225
 20
46.4332046503
 10
278.5748079271
 20
45.5996486957
 10
279.1189570871
 20
44.6327734746
 10
279.3023423577
 20
44.2165967552
  0
LWPOLYLINE
  5
1F4
330
1F
100
AcDbEntity
  8
0
  6
Continuous
 62
     7
370
     0
100
AcDbPolyline
 90
       13
 70
   128
 43
0.0
 10
263.5536223187
 20
16.9360575902
 10
262.5381364892
 20
16.8603652007
 10
261.4577974906
 20
16.929137519
 10
260.4436656374
 20
17.1587888128
 10
259.5061472948
 20
17.5469625491
 10
258.6548626696
 20
18.0896755401
 10
257.8985470941
 20
18.7813588161
 10
257.2449613894
 20
19.6149147708
 10
256.7008122295
 20
20.5817899919
 10
256.2716833209
 20
21.6720630314
 10
255.9619781071
 20
22.8745462124
 10
255.7748745826
 20
24.1769004305
 10
255.7122926828
 20
25.5657617688
  0
LWPOLYLINE
  5
1F5
330
1F
100
AcDbEntity
  8
0
  6
Continuous
 62
     7
370
     0
100
AcDbPolyline
 90
       25
 70
   128
 43
0.0
 10
276.1046355232
 20
17.4848810391
 10
276.1463172423
 20
17.4620351125
 10
276.8264536015
 20
17.1956436758
 10
277.5793973109
 20
17.0870026689
 10
278.3904931777
 20
17.1382266655
 10
279.2439541433
 20
17.3483186488
 10
280.123168561
 20
17.7131894173
 10
281.0110235221
 20
18.2257371764
 10
281.8902379397
 20
18.8759857672
 10
282.7436989054
 20
19.6512788403
 10
283.5547947721
 20
20.5365261981
 10
284.3077384815
 20
21.5144975076
 10
284.9878748408
 20
22.5661576698
 10
285.5819657692
 20
23.6710373158
 10
286.0784479628
 20
24.8076312201
 10
286.4676579603
 20
25.9538168752
 10
286.7420202318
 20
27.0872850811
 10
286.8961946278
 20
28.1859741685
 10
286.9271803191
 20
29.228499404
 10
286.8343742044
 20
30.1945692199
 10
286.6195826492
 20
31.0653801659
 10
286.2869863268
 20
31.8239828975
 10
285.8430588462
 20
32.4556120756
 10
285.296440751
 20
32.9479737566
 10
285.0667303384
 20
33.0948688939
  0
LINE
  5
1F6
330
1F
100
AcDbEntity
  8
0
  6
Continuous
 62
     7
370
     0
100
AcDbLine
 10
254.4395004767
 20
30.4854732404
 30
0.0
 11
254.7930538673
 21
30.6896416184
 31
0.0
  0
LWPOLYLINE
  5
1F7
330
1F
100
AcDbEntity
  8
0
  6
Continuous
 62
     7
370
     0
100
AcDbPolyline
 90
        3
 70
   128
 43
0.0
 10
250.9670856748
 20
27.9304032954
 10
250.9658384141
 20
28.1323447703
 10
250.9695127733
 20
28.4822919782
  0
LWPOLYLINE
  5
1F8
330
1F
100
AcDbEntity
  8
0
  6
Continuous
 62
     7
370
     0
100
AcDbPolyline
 90
       19
 70
   128
 43
0.0
 10
220.0609155874
 20
51.9121113077
 10
220.1225485173
 20
53.0335574677
 10
220.3063927507
 20
54.2069752392
 10
220.6093026616
 20
55.4122871188
 10
221.0260953775
 20
56.6288698861
 10
221.5496394596
 20
57.8359074726
 10
222.1709769233
 20
59.0127471306
 10
222.8794765125
 20
60.1392528073
 10
223.6630156027
 20
61.1961496781
 10
224.5081876228
 20
62.1653539447
 10
225.4005314453
 20
63.0302822532
 10
226.32477882
 20
63.7761354406
 10
227.265115618
 20
64.3901517519
 10
228.2054524159
 20
64.861825198
 10
229.1296997906
 20
65.1830853152
 10
230.0220436131
 20
65.3484352541
 10
230.8672156333
 20
65.3550458312
 10
231.6507547234
 20
65.2028039378
 10
231.704307921
 20
65.1858034187
  0
ARC
  5
1F9
330
1F
100
AcDbEntity
  8
0
  6
Continuous
 62
     7
370
     0
100
AcDbCircle
 10
225.5056153168
 20
51.4770589908
 30
0.0
 40
5.462053245953863
100
AcDbArc
 50
175.4315543439
 51
224.0404479401
  0
LINE
  5
1FA
330
1F
100
AcDbEntity
  8
0
  6
Continuous
 62
     7
370
     0
100
AcDbLine
 10
255.5001606485
 20
29.9430825839
 30
0.0
 11
255.4395004767
 21
29.9080528283
 31
0.0
  0
LINE
  5
1FB
330
1F
100
AcDbEntity
  8
0
  6
Continuous
 62
     7
370
     0
100
AcDbLine
 10
255.4395004767
 20
29.9080528283
 30
0.0
 11
254.4393855426
 21
30.4854068904
 31
0.0
  0
LINE
  5
1FC
330
1F
100
AcDbEntity
  8
0
  6
Continuous
 62
     7
370
     0
100
AcDbLine
 10
255.4395004767
 20
21.0485850193
 30
0.0
 11
255.5001606485
 21
20.9435185201
 31
0.0
  0
LINE
  5
1FD
330
1F
100
AcDbEntity
  8
0
  6
Continuous
 62
     7
370
     0
100
AcDbLine
 10
251.3181801331
 20
23.4277726112
 30
0.0
 11
255.4395004767
 21
21.0485850193
 31
0.0
  0
LINE
  5
1FE
330
1F
100
AcDbEntity
  8
0
  6
Continuous
 62
     7
370
     0
100
AcDbLine
 10
251.2575199613
 20
23.3927428556
 30
0.0
 11
251.3181801331
 21
23.4277726112
 31
0.0
  0
LINE
  5
1FF
330
1F
100
AcDbEntity
  8
0
  6
Continuous
 62
     7
370
     0
100
AcDbLine
 10
254.7930538673
 20
19.3805513738
 30
0.0
 11
254.4395004767
 21
19.9929238077
 31
0.0
  0
LINE
  5
200
330
1F
100
AcDbEntity
  8
0
  6
Continuous
 62
     7
370
     0
100
AcDbLine
 10
251.2311164136
 20
17.4843740258
 30
0.0
 11
251.1476015672
 21
17.7659612331
 31
0.0
  0
LINE
  5
201
330
1F
100
AcDbEntity
  8
0
  6
Continuous
 62
     7
370
     0
100
AcDbLine
 10
247.4127397952
 20
19.6886759277
 30
0.0
 11
247.3292249488
 21
19.970263135
 31
0.0
  0
LINE
  5
202
330
1F
100
AcDbEntity
  8
0
  6
Continuous
 62
     7
370
     0
100
AcDbLine
 10
254.4395004767
 20
19.9929238077
 30
0.0
 11
250.9039665707
 21
22.0339440872
 31
0.0
  0
LWPOLYLINE
  5
203
330
1F
100
AcDbEntity
  8
0
  6
Continuous
 62
     7
370
     0
100
AcDbPolyline
 90
       15
 70
   128
 43
0.0
 10
216.3892123254
 20
55.1500291289
 10
216.3560244827
 20
55.8374268286
 10
216.4192068708
 20
56.8474939891
 10
216.6073426451
 20
57.9079467509
 10
216.9162291631
 20
58.9950963517
 10
217.3389664106
 20
60.0846576658
 10
217.8661111359
 20
61.1522916939
 10
218.485887797
 20
62.174149256
 10
219.1844516074
 20
63.1274037428
 10
219.946197806
 20
63.9907610242
 10
220.7541102413
 20
64.7449351253
 10
221.5901414847
 20
65.3730790428
 10
222.4356159797
 20
65.8611610796
 10
223.271647223
 20
66.1982782896
 10
223.8100478259
 20
66.3344431773
  0
LWPOLYLINE
  5
204
330
1F
100
AcDbEntity
  8
0
  6
Continuous
 62
     7
370
     0
100
AcDbPolyline
 90
       19
 70
   128
 43
0.0
 10
216.0542477874
 20
55.8603622706
 10
216.1159270704
 20
56.8691129489
 10
216.2996503326
 20
57.9275772422
 10
216.6015018317
 20
59.0131958218
 10
217.0150481269
 20
60.1028306123
 10
217.531475197
 20
61.17325794
 10
218.1397762956
 20
62.2016635049
 10
218.8269865409
 20
63.1661286277
 10
219.5784592395
 20
64.0460974089
 10
220.3781780557
 20
64.8228148417
 10
221.2090983711
 20
65.4797265424
 10
222.0535105621
 20
66.0028315787
 10
222.8934174486
 20
66.3809808749
 10
223.7109178736
 20
66.6061148352
 10
224.488588235
 20
66.6734351202
 10
225.209853839
 20
66.5815069149
 10
225.8593421615
 20
66.3322895094
 10
226.4232104866
 20
65.9310945399
 10
226.7077602982
 20
65.6301159269
  0
LWPOLYLINE
  5
205
330
1F
100
AcDbEntity
  8
0
  6
Continuous
 62
     7
370
     0
100
AcDbPolyline
 90
        8
 70
   128
 43
0.0
 10
218.7084104371
 20
51.7733341289
 10
218.1397762956
 20
51.9269609983
 10
217.531475197
 20
52.2530370643
 10
217.0150481269
 20
52.7272103885
 10
216.6015018317
 20
53.3393747898
 10
216.2996503326
 20
54.0764830467
 10
216.1159270704
 20
54.9228249766
 10
216.0542477874
 20
55.8603622706
  0
LINE
  5
206
330
1F
100
AcDbEntity
  8
0
  6
Continuous
 62
     7
370
     0
100
AcDbLine
 10
211.7592401868
 20
57.8763220839
 30
0.0
 11
211.7567673973
 21
58.0741122714
 31
0.0
  0
ARC
  5
207
330
1F
100
AcDbEntity
  8
0
  6
Continuous
 62
     7
370
     0
100
AcDbCircle
 10
276.7702930841
 20
29.6690119891
 30
0.0
 40
2.87421980190609
100
AcDbArc
 50
334.0395038096
 51
35.5717964377
  0
LWPOLYLINE
  5
208
330
1F
100
AcDbEntity
  8
0
  6
Continuous
 62
     7
370
     0
100
AcDbPolyline
 90
       12
 70
   128
 43
0.0
 10
278.8861439795
 20
31.1412693632
 10
279.0755909893
 20
30.7430059091
 10
279.2726035647
 20
30.1336991576
 10
279.3518292853
 20
29.5503935077
 10
279.3078690489
 20
29.0328402756
 10
279.1437186732
 20
28.6163098587
 10
278.8705647349
 20
28.3291881165
 10
278.5070222235
 20
28.1910419214
 10
278.0778659605
 20
28.2112857082
 10
277.6123422358
 20
28.3885398963
 10
277.1421757221
 20
28.7107249057
 10
276.9529501856
 20
28.8824546614
  0
OLE2FRAME
  5
209
330
1F
100
AcDbEntity
  8
0
100
AcDbOle2Frame
 70
     2
  3
Paintbrush-Bild
 10
13.8511154363
 20
38.264191557
 30
0.0
 11
51.6290888628
 21
31.9806341108
 31
0.0
 71
     2
 72
     0
 73
     1
 90
    12928
310
80552BED0767C5B32B40DDAF6807D121434000000000000000006FFBDDFB85D0
310
4940DDAF6807D121434000000000000000006FFBDDFB85D04940416F4BD60AFB
310
3F4000000000000000002BED0767C5B32B40416F4BD60AFB3F40000000000000
310
0000000000000100000000010000010000000100000000000100000000320000
310
D0CF11E0A1B11AE1000000000000000000000000000000003E000300FEFF0900
310
0600000000000000000000000100000001000000000000000010000002000000
310
01000000FEFFFFFF0000000000000000FFFFFFFFFFFFFFFFFFFFFFFFFFFFFFFF
310
FFFFFFFFFFFFFFFFFFFFFFFFFFFFFFFFFFFFFFFFFFFFFFFFFFFFFFFFFFFFFFFF
310
FFFFFFFFFFFFFFFFFFFFFFFFFFFFFFFFFFFFFFFFFFFFFFFFFFFFFFFFFFFFFFFF
310
FFFFFFFFFFFFFFFFFFFFFFFFFFFFFFFFFFFFFFFFFFFFFFFFFFFFFFFFFFFFFFFF
310
FFFFFFFFFFFFFFFFFFFFFFFFFFFFFFFFFFFFFFFFFFFFFFFFFFFFFFFFFFFFFFFF
310
FFFFFFFFFFFFFFFFFFFFFFFFFFFFFFFFFFFFFFFFFFFFFFFFFFFFFFFFFFFFFFFF
310
FFFFFFFFFFFFFFFFFFFFFFFFFFFFFFFFFFFFFFFFFFFFFFFFFFFFFFFFFFFFFFFF
310
FFFFFFFFFFFFFFFFFFFFFFFFFFFFFFFFFFFFFFFFFFFFFFFFFFFFFFFFFFFFFFFF
310
FFFFFFFFFFFFFFFFFFFFFFFFFFFFFFFFFFFFFFFFFFFFFFFFFFFFFFFFFFFFFFFF
310
FFFFFFFFFFFFFFFFFFFFFFFFFFFFFFFFFFFFFFFFFFFFFFFFFFFFFFFFFFFFFFFF
310
FFFFFFFFFFFFFFFFFFFFFFFFFFFFFFFFFFFFFFFFFFFFFFFFFFFFFFFFFFFFFFFF
310
FFFFFFFFFFFFFFFFFFFFFFFFFFFFFFFFFFFFFFFFFFFFFFFFFFFFFFFFFFFFFFFF
310
FFFFFFFFFFFFFFFFFFFFFFFFFFFFFFFFFFFFFFFFFFFFFFFFFFFFFFFFFFFFFFFF
310
FFFFFFFFFFFFFFFFFFFFFFFFFFFFFFFFFFFFFFFFFFFFFFFFFFFFFFFFFFFFFFFF
310
FDFFFFFFFEFFFFFFFEFFFFFFFEFFFFFF05000000060000000700000008000000
310
090000000A0000000B0000000C0000000D0000000E0000000F00000010000000
310
11000000120000001300000014000000150000001600000017000000FEFFFFFF
310
FFFFFFFFFFFFFFFFFFFFFFFFFFFFFFFFFFFFFFFFFFFFFFFFFFFFFFFFFFFFFFFF
310
FFFFFFFFFFFFFFFFFFFFFFFFFFFFFFFFFFFFFFFFFFFFFFFFFFFFFFFFFFFFFFFF
310
FFFFFFFFFFFFFFFFFFFFFFFFFFFFFFFFFFFFFFFFFFFFFFFFFFFFFFFFFFFFFFFF
310
FFFFFFFFFFFFFFFFFFFFFFFFFFFFFFFFFFFFFFFFFFFFFFFFFFFFFFFFFFFFFFFF
310
FFFFFFFFFFFFFFFFFFFFFFFFFFFFFFFFFFFFFFFFFFFFFFFFFFFFFFFFFFFFFFFF
310
FFFFFFFFFFFFFFFFFFFFFFFFFFFFFFFFFFFFFFFFFFFFFFFFFFFFFFFFFFFFFFFF
310
FFFFFFFFFFFFFFFFFFFFFFFFFFFFFFFFFFFFFFFFFFFFFFFFFFFFFFFFFFFFFFFF
310
FFFFFFFFFFFFFFFFFFFFFFFFFFFFFFFFFFFFFFFFFFFFFFFFFFFFFFFFFFFFFFFF
310
FFFFFFFFFFFFFFFFFFFFFFFFFFFFFFFFFFFFFFFFFFFFFFFFFFFFFFFFFFFFFFFF
310
FFFFFFFFFFFFFFFFFFFFFFFFFFFFFFFFFFFFFFFFFFFFFFFFFFFFFFFFFFFFFFFF
310
FFFFFFFFFFFFFFFFFFFFFFFFFFFFFFFFFFFFFFFFFFFFFFFFFFFFFFFFFFFFFFFF
310
FFFFFFFFFFFFFFFFFFFFFFFFFFFFFFFFFFFFFFFFFFFFFFFFFFFFFFFFFFFFFFFF
310
FFFFFFFFFFFFFFFFFFFFFFFFFFFFFFFFFFFFFFFFFFFFFFFFFFFFFFFFFFFFFFFF
310
52006F006F007400200045006E00740072007900000000000000000000000000
310
0000000000000000000000000000000000000000000000000000000000000000
310
16000500FFFFFFFFFFFFFFFF020000000A00030000000000C000000000000046
310
000000000000000000000000D04B9A2D9D23D20103000000C000000000000000
310
01004F006C006500000000000000000000000000000000000000000000000000
310
0000000000000000000000000000000000000000000000000000000000000000
310
0A000200FFFFFFFFFFFFFFFFFFFFFFFF00000000000000000000000000000000
310
0000000000000000000000000000000000000000000000001400000000000000
310
010043006F006D0070004F0062006A0000000000000000000000000000000000
310
0000000000000000000000000000000000000000000000000000000000000000
310
120002010100000003000000FFFFFFFF00000000000000000000000000000000
310
0000000000000000000000000000000000000000010000004D00000000000000
310
01004F006C006500310030004E00610074006900760065000000000000000000
310
0000000000000000000000000000000000000000000000000000000000000000
310
1A000200FFFFFFFFFFFFFFFFFFFFFFFF00000000000000000000000000000000
310
0000000000000000000000000000000000000000040000002426000000000000
310
FEFFFFFF02000000FEFFFFFFFFFFFFFFFFFFFFFFFFFFFFFFFFFFFFFFFFFFFFFF
310
FFFFFFFFFFFFFFFFFFFFFFFFFFFFFFFFFFFFFFFFFFFFFFFFFFFFFFFFFFFFFFFF
310
FFFFFFFFFFFFFFFFFFFFFFFFFFFFFFFFFFFFFFFFFFFFFFFFFFFFFFFFFFFFFFFF
310
FFFFFFFFFFFFFFFFFFFFFFFFFFFFFFFFFFFFFFFFFFFFFFFFFFFFFFFFFFFFFFFF
310
FFFFFFFFFFFFFFFFFFFFFFFFFFFFFFFFFFFFFFFFFFFFFFFFFFFFFFFFFFFFFFFF
310
FFFFFFFFFFFFFFFFFFFFFFFFFFFFFFFFFFFFFFFFFFFFFFFFFFFFFFFFFFFFFFFF
310
FFFFFFFFFFFFFFFFFFFFFFFFFFFFFFFFFFFFFFFFFFFFFFFFFFFFFFFFFFFFFFFF
310
FFFFFFFFFFFFFFFFFFFFFFFFFFFFFFFFFFFFFFFFFFFFFFFFFFFFFFFFFFFFFFFF
310
FFFFFFFFFFFFFFFFFFFFFFFFFFFFFFFFFFFFFFFFFFFFFFFFFFFFFFFFFFFFFFFF
310
FFFFFFFFFFFFFFFFFFFFFFFFFFFFFFFFFFFFFFFFFFFFFFFFFFFFFFFFFFFFFFFF
310
FFFFFFFFFFFFFFFFFFFFFFFFFFFFFFFFFFFFFFFFFFFFFFFFFFFFFFFFFFFFFFFF
310
FFFFFFFFFFFFFFFFFFFFFFFFFFFFFFFFFFFFFFFFFFFFFFFFFFFFFFFFFFFFFFFF
310
FFFFFFFFFFFFFFFFFFFFFFFFFFFFFFFFFFFFFFFFFFFFFFFFFFFFFFFFFFFFFFFF
310
FFFFFFFFFFFFFFFFFFFFFFFFFFFFFFFFFFFFFFFFFFFFFFFFFFFFFFFFFFFFFFFF
310
FFFFFFFFFFFFFFFFFFFFFFFFFFFFFFFFFFFFFFFFFFFFFFFFFFFFFFFFFFFFFFFF
310
FFFFFFFFFFFFFFFFFFFFFFFFFFFFFFFFFFFFFFFFFFFFFFFFFFFFFFFFFFFFFFFF
310
0100000200000000000000000000000000000000000000000000000000000000
310
0000000000000000000000000000000000000000000000000000000000000000
310
0100FEFF030A0000FFFFFFFF0A00030000000000C00000000000004607000000
310
5042727573680007000000504272757368000700000050427275736800F439B2
310
7100000000000000000000000000000000000000000000000000000000000000
310
0000000000000000000000000000000000000000000000000000000000000000
310
0000000000000000000000000000000000000000000000000000000000000000
310
0000000000000000000000000000000000000000000000000000000000000000
310
0000000000000000000000000000000000000000000000000000000000000000
310
0000000000000000000000000000000000000000000000000000000000000000
310
0000000000000000000000000000000000000000000000000000000000000000
310
0000000000000000000000000000000000000000000000000000000000000000
310
0000000000000000000000000000000000000000000000000000000000000000
310
0000000000000000000000000000000000000000000000000000000000000000
310
0000000000000000000000000000000000000000000000000000000000000000
310
0000000000000000000000000000000000000000000000000000000000000000
310
20260000424D0E260000000000003E00000028000000B40200006E0000000100
310
01000000000000000000130B0000130B00000200000002000000000000FFFFFF
310
FFFFFFFFFFFFFFFFFFFFFFFFFFFFFFFFFFFFFFFFFFFFFFFFFFFFFFFFFFFFFFFF
310
FFFFFFFFFFFFFFFFFFFFFFFFFFFFFFFFFFFFFFFFFFFFFFFFFFFFFFFFFFFFFFFF
310
FFFFFFFFFFFFFFFFFFFFFFFFFFFFFFFFFFFFFFFFFFFFFFFFF000FFFFFFFFFFFF
310
FFFFFFFFFFFFFFFFFFFFFFFFFFFFFFFFFFFFFFFFFFFFFFFFFFFFFFFFFFFFFFFF
310
FFFFFFFFFFFFFFFFFFFFFFFFFFFFFFFFFFFFFFFFFFFFFFFFFFFFFFFFFFFFFFFF
310
FFFFFFFFFFFFFFFFFFFFFFFFFFFFFFFFF000FFFFFFFFFFFFFFFFFFFFFFFFFFFF
310
FFFFFFFFFFFFFFFFFFFFFFFFFFFFFFFFFFFFFFFFFFFFFFFFFFFFFFFFFFFFFFFF
310
FFFFFFFFFFFFFFFFFFFFFFFFFFFFFFFFFFFFFFFFFFFFFFFFFFFFFFFFFFFFFFFF
310
FFFFFFFFFFFFFFFFF000FFFFFFFFFFFFFFFFFFFFFFFFFFFFFFFFFFFFFFFFFFFF
310
FFFFFFFFFFFFFFFFFFFFFFFFFFFFFFFFFFFFFFFFFFFFFFFFFFFFFFFFFFFFFFFF
310
FFFFFFFFFFFFFFFFFFFFFFFFFFFFFFFFFFFFFFFFFFFFFFFFFFFFFFFFFFFFFFFF
310
F000FFFFFFFFFFFFFFFFFFFFFFFFFFFFFFFFFFFFFFFFFFFFFFFFFFFFFFFFFFFF
310
FFFFFFFFFFFFFFFFFFFFFFFFFFFFFFFFFFFFFFFFFFFFFFFFFFFFFFFFFFFFFFFF
310
FFFFFFFFFFFFFFFFFFFFFFFFFFFFFFFFFFFFFFFFFFFFFFFFF000FFFFFFFFFFFF
310
FFFFFFFFFFFFFFFFFFFFFFFFFFFFFFFFFFFFFFFFFFFFFFFFFFFFFFFFFFFFFFFF
310
FFFFFFFFFFFFFFFFFFFFFFFFFFFFFFFFFFFFFFFFFFFFFFFFFFFFFFFFFFFFFFFF
310
FFFFFFFFFFFFFFFFFFFFFFFFFFFFFFFFF000FFFFFFFFFFFFFFFFFFFFFFFFFFFF
310
FFFFFFFFFFFFFFFFFFFFFFFFFFFFFFFFFFFFFFFFFFFFFFFFFFFFFFFFFFFFFFFF
310
FFFFFFFFFFFFFFFFFFFFFFFFFFFFFFFFFFFFFFFFFFFFFFFFFFFFFFFFFFFFFFFF
310
FFFFFFFFFFFFFFFFF000FFFFFFFFFFFFFFFFFFFFFFFFFFFFFFFFFFFFFFFFFFFF
310
FFFFFFFFFFFFFFFFFFFFFFFFFFFFFFFFFFFFFFFFFFFFFFFFFFFFFFFFFFFFFFFF
310
FFFFFFFFFFFFFFFFFFFFFFFFFFFFFFFFFFFFFFFFFFFFFFFFFFFFFFFFFFFFFFFF
310
F000FFFFFFFFFFFFFFFFFFFFFFFFFFFFFFFFFFFFFFFFFFFFFFFFFFFFFFFFFFFF
310
FFFFFFFFFFFFFFFFFFFFFFFFFFFFFFFFFFFFFFFFFFFFFFFFFFFFFFFFFFFFFFFF
310
FFFFFFFFFFFFFFFFFFFFFFFFFFFFFFFFFFFFFFFFFFFFFFFFF000FFFFFFFFFFFF
310
FFFFFFFFFFFFFFFFFFFFFFFFFFFFFFFFFFFFFFFFFFFFFFFFFFFFFFFFFFFFFFFF
310
FFFFFFFFFFFFFFFFFFFFFFFFFFFFFFFFFFFFFFFFFFFFFFFFFFFFFFFFFFFFFFFF
310
FFFFFFFFFFFFFFFFFFFFFFFFFFFFFFFFF000FFFFFFFFFFFFFFFFFFFFFFFFFFFF
310
FFFFFFFFFFFFFFFFFFFFFFFFFFFFFFFFFFFFFFFFFFFFFFFFFFFFFFFFFFFFFFFF
310
FFFFFFFFFFFFFFFFFFFFFFFFFFFFFFFFFFFFFFFFFFFFFFFFFFFFFFFFFFFFFFFF
310
FFFFFFFFFFFFFFFFF000FFFFFFFFFFFFFFFFFFFFFFFFFFFFFFFFFFFFFFFFFFFF
310
FFFFFFFFFFFFFFFFFFFFFFFFFFFFFFFFFFFFFFFFFFFFFFFFFFFFFFFFFFFFFFFF
310
FFFFFFFFFFFFFFFFFFFFFFFFFFFFFFFFFFFFFFFFFFFFFFFFFFFFFFFFFFFFFFFF
310
F000FFFFFFFFFFFFFFFFFFFFFFFFFFFFFFFFFFFFFFFFFFFFFFFFFFFFFFFFFFFF
310
FFFFFFFFFFFFFFFFFFFFFFFFFFFFFFFFFFFFFFFFFFFFFFFFFFFFFFFFFFFFFFFF
310
FFFFFFFFFFFFFFFFFFFFFFFFFFFFFFFFFFFFFFFFFFFFFFFFF000FFFFFFFFFFFF
310
FFFFFFFFFFFFFFFFFFFFFFFFFFFFFFFFFFFFFFFFFFFFFFFFFFFFFFFFFFFFFFFF
310
FFFFFFFFFFFFFFFFFFFFFFFFFFFFFFFFFFFFFFFFFFFFFFFFFFFFFFFFFFFFFFFF
310
FFFFFFFFFFFFFFFFFFFFFFFFFFFFFFFFF000FFFFFFFFFFFFFFFFFFFFFFFFFFFF
310
FFFFFFFFFFFFFFFFFFFFFFFFFFFFFFFFFFFFFFFFFFFFFFFFFFFFFFFFFFFFFFFF
310
FFFFFFFFFFFFFFFFFFFFFFFFFFFFFFFFFFFFFFFFFFFFFFFFFFFFFFFFFFFFFFFF
310
FFFFFFFFFFFFFFFFF000FFFFFFFFFFFFFFFFFFFFFFFFFFFFFFFFFFFFFFFFFFFF
310
FFFFFFFFFFFFFFFFFFFFFFFFFFFFFFFFFFFFFFFFFFFFFFFFFFFFFFFFFFFFFFFF
310
FFFFFFFFFFFFFFFFFFFFFFFFFFFFFFFFFFFFFFFFFFFFFFFFFFFFFFFFFFFFFFFF
310
F000FFFFFFFFFFFFFFFFFFFFFFFFFFFFFFFFFFFFFFFFFFFFFFFFFFFFFFFFFFFF
310
FFFFFFFFFFFFFFFFFFFFFFFFFFFFFFFFFFFFFFFFFFFFFFFFFFFFFFFFFFFFFFFF
310
FFFFFFFFFFFFFFFFFFFFFFFFFFFFFFFFFFFFFFFFFFFFFFFFF000FFFFFFFFFFFF
310
FFFFFFFFFFFFFFFFFFFFFFFFFFFFFFFFFFFFFFFFFFFFFFFFFFFFFFFFFFFFFFFF
310
FFFFFFFFFFFFFFFFFFFFFFFFFFFFFFFFFFFFFFFFFFFFFFFFFFFFFFFFFFFFFFFF
310
FFFFFFFFFFFFFFFFFFFFFFFFFFFFFFFFF000FFFFFFFFFFFFFFFFFFFFFFFFFFFF
310
FFFFFFFFFFFFFFFFFFFFFFFFFFFFFFFFFFFFFFFFFFFFFFFFFFFFFFFFFFFFFFFF
310
FFFFFFFFFFFFFFFFFFFFFFFFFFFFFFFFFFFFFFFFFFFFFFFFFFFFFFFFFFFFFFFF
310
FFFFFFFFFFFFFFFFF000FFFFF80003FFFFFFFFFFFFFFFFFFFFFFFFFFFFFFFFFF
310
FFFFF00007FFFFFFFFFF00007FFFFFF800000000000000007FFFFFFFFFFFFFFF
310
FFFFFFFC001FFFFFFFFFFFFFFC001FFFFFFFFFFFFFFFFFFFFFFFFFFE0007FFFF
310
F000FFFF8000007FFFFFFFF8000FFFFFC0007FFFFF80007FFFFF0000007FFFFF
310
FFF8000007FFFFF800000000000000007FFFFFF0001FFFFFFFFFFFC00001FFFF
310
FFFFFFFFC00001FFFFFFFF000000000003FFFFE000007FFFF000FFFE0000000F
310
FFFFFFF0000FFFFF80007FFFFF80007FFFFC0000001FFFFFFFC0000001FFFFF8
310
00000000000000007FFFFFF0001FFFFFFFFFFE0000003FFFFFFFFFFE0000003F
310
FFFFFF000000000003FFFF0000000FFFF000FFF800000003FFFFFFF00007FFFF
310
80007FFFFF80007FFFF000000007FFFFFF000000003FFFF80000000000000000
310
7FFFFFF0001FFFFFFFFFF80000000FFFFFFFFFF80000000FFFFFFF0000000000
310
03FFFC00000003FFF000FFE000000000FFFFFFF00007FFFF80003FFFFF80007F
310
FFC000000001FFFFFC000000001FFFF800000000000000007FFFFFF0001FFFFF
310
FFFFE000000003FFFFFFFFE000000003FFFFFF000000000003FFF000000000FF
310
F000FF80000000007FFFFFF00007FFFF80003FFFFF80007FFF8000000000FFFF
310
F80000000007FFF800000000000000007FFFFFF0001FFFFFFFFFC000000001FF
310
FFFFFFC000000001FFFFFF000000000003FFC0000000007FF000FF0000000000
310
3FFFFFE00007FFFF00003FFFFF80007FFE00000000003FFFF00000000003FFF8
310
00000000000000007FFFFFF0001FFFFFFFFF8000000000FFFFFFFF8000000000
310
FFFFFF000000000003FF80000000003FF000FE00000000001FFFFFE00003FFFF
310
00003FFFFF80007FFC00000000001FFFE00000000001FFF8000001FFFE000000
310
7FFFFFF0001FFFFFFFFE00000000003FFFFFFE00000000003FFFFF0000000000
310
03FF00000000001FF000FC00000000000FFFFFE00003FFFF00001FFFFF80007F
310
F800000000001FFFC00000000000FFF8000001FFFE0000007FFFFFF0001FFFFF
310
FFFC00000000001FFFFFFC00000000001FFFFF000000000003FE00000000000F
310
F000F8000000000007FFFFE00003FFFF00001FFFFF80007FF800000000000FFF
310
800000000000FFF8000001FFFE0000007FFFFFF0001FFFFFFFF800000000000F
310
FFFFF800000000000FFFFF000000000003FC000000000007F000F80000000000
310
03FFFFC00003FFFE00001FFFFF80007FF0000000000007FF0000000000007FF8
310
000001FFFE0000007FFFFFF0001FFFFFFFF0000000000007FFFFF00000000000
310
07FFFF000000000003F8000000000003F000F0000000000003FFFFC00001FFFE
310
00001FFFFF80007FE0000000000007FE0000000000003FF8000001FFFE000000
310
7FFFFFF0001FFFFFFFF0000000000007FFFFF0000000000007FFFF0000000000
310
03F800001F800003F000E00001FFF00001FFFFC00001FFFE00000FFFFF80007F
310
E00001FFE00003FE00001FFF00003FF8000001FFFE0000007FFFFFF0001FFFFF
310
FFE000003E000003FFFFE000003E000003FFFF000000000003F00001FFF80001
310
F000E00007FFFC0001FFFFC00001FFFE00000FFFFF80007FC0000FFFFC0003FC
310
0000FFFFC0001FF8000001FFFE0000007FFFFFF0001FFFFFFFC00003FFE00001
310
FFFFC00003FFE00001FFFF0001FFFFFFFFF00007FFFE0001F000E0000FFFFF00
310
00FFFF800001FFFC00000FFFFF80007FC0001FFFFE0001FC0001FFFFE0001FF8
310
000001FFFE0000007FFFFFF0001FFFFFFF80000FFFF80000FFFF80000FFFF800
310
00FFFF0003FFFFFFFFE0000FFFFF8000F000C0003FFFFF8000FFFF800000FFFC
310
000007FFFF80007F80003FFFFF0001FC0003FFFFF0001FF8000001FFFE000000
310
7FFFFFF0001FFFFFFF80003FFFFE0000FFFF80003FFFFE0000FFFF0003FFFFFF
310
FFE0003FFFFF8000F000C0003FFFFF8000FFFF800000FFFC000007FFFF80007F
310
80007FFFFF8001F80007FFFFF8000FF8000001FFFE0000007FFFFFF0001FFFFF
310
FF00007FFFFF00007FFF00007FFFFF00007FFF0003FFFFFFFFE0003FFFFFC000
310
F000C0007FFFFFC000FFFF000000FFFC000007FFFF80007F8000FFFFFF8000F8
310
000FFFFFF8000FF8000001FFFE0000007FFFFFF0001FFFFFFF0000FFFFFF8000
310
7FFF0000FFFFFF80007FFF0003FFFFFFFFC0007FFFFFC00070008000FFFFFFC0
310
00FFFF000000FFF8000007FFFF80007F8000FFFFFF8000F8000FFFFFF8000FF8
310
000001FFFE0000007FFFFFF0001FFFFFFE0001FFFFFFC0003FFE0001FFFFFFC0
310
003FFF0003FFFFFFFFC0007FFFFFE00070008000FFFFFFC0007FFF0000007FF8
310
000003FFFF80007F0001FFFFFF8000F8000FFFFFF8000FF8000001FFFE000000
310
7FFFFFF0001FFFFFFE0001FFFFFFC0003FFE0001FFFFFFC0003FFF0003FFFFFF
310
FFC000FFFFFFE00070008000FFFFFFC0007FFF0000007FF8000003FFFF80007F
310
0001FFFFFF8000F8001FFFFFF8000FF8000001FFFE0000007FFFFFF0001FFFFF
310
FE0003FFFFFFE0003FFE0003FFFFFFE0003FFF0003FFFFFFFFC000FFFFFFE000
310
70008000FFFFFFC0007FFE0000007FF8000003FFFF80007F0001FFFFFF8000F0
310
001FFFFFF8000FF8000001FFFE0000007FFFFFF0001FFFFFFC0003FFFFFFE000
310
1FFC0003FFFFFFE0001FFF0003FFFFFFFFC000FFFFFFC00070008000FFFFFF80
310
007FFE0000007FF0000003FFFF80007F0001FFFFFF0000F0001FFFFFF8000FF8
310
000001FFFE0000007FFFFFF0001FFFFFFC0007FFFFFFF0001FFC0007FFFFFFF0
310
001FFF0003FFFFFFFFC000FFFFFFC00070008001FFFFFF0000FFFE0000003FF0
310
000001FFFF80007F0001FFFFFF0000F8001FFFFFF0000FF8000001FFFE000000
310
7FFFFFF0001FFFFFFC0007FFFFFFF0001FFC0007FFFFFFF0001FFF0003FFFFFF
310
FFC001FFFFFF80007000FFFFFFFFFE0000FFFE0008003FF0008001FFFF80007F
310
FFFFFFFFFC0000FFFFFFFFFFE0000FF8000001FFFE0000007FFFFFF0001FFFFF
310
F8000FFFFFFFF8000FF8000FFFFFFFF8000FFF0003FFFFFFFFFFFFFFFFFF0000
310
7000FFFFFFFFFC0000FFFC0008003FF0008001FFFF80007FFFFFFFFFF80001FF
310
FFFFFFFF80000FF8000001FFFE0000007FFFFFF0001FFFFFF8000FFFFFFFF800
310
0FF8000FFFFFFFF8000FFF0003FFFFFFFFFFFFFFFFFE0000F000FFFFFFFFE000
310
00FFFC000C003FE000C001FFFF80007FFFFFFFFFC00001FFFFFFFFFE00001FF8
310
000001FFFE0000007FFFFFF0001FFFFFF8000FFFFFFFF8000FF8000FFFFFFFF8
310
000FFF0003FFFFFFFFFFFFFFFFF00000F000FFFFFFFE000001FFFC000C001FE0
310
00C000FFFF80007FFFFFFFFE000001FFFFFFFFE000001FF80FFFFFFFFFFFFFC0
310
7FFFFFF0001FFFFFF8000FFFFFFFF8000FF8000FFFFFFFF8000FFF0003FFFFFF
310
FFFFFFFFFF800000F000FFFFFFC0000001FFFC001C001FE001C000FFFF80007F
310
FFFFFF80000003FFFFFFF80000001FF80FFFFFFFFFFFFFC07FFFFFF0001FFFFF
310
F8001FFFFFFFFC000FF8001FFFFFFFFC000FFF0003FFFFFFFFFFFFFFF0000001
310
F000FFFFF800000001FFF8001C001FE001C000FFFF80007FFFFFF800000003FF
310
FFFF800000003FF80FFFFFFFFFFFFFC07FFFFFF0001FFFFFF8001FFFFFFFFC00
310
0FF8001FFFFFFFFC000FFF0003FFFFFFFFFFFFFE00000001F000FFFFC0000000
310
03FFF8001E001FC001E000FFFF80007FFFFF8000000007FFFFFC000000003FF8
310
0FFFFFFFFFFFFFC07FFFFFF0001FFFFFF8001FFFFFFFFC000FF8001FFFFFFFFC
310
000FFF0003FFFFFFFFFFFFE000000003F000FFFE0000000007FFF8001E000FC0
310
01E0007FFF80007FFFFE0000000007FFFFE0000000007FF80FFFFFFFFFFFFFC0
310
7FFFFFF0001FFFFFF0001FFFFFFFFC0007F0001FFFFFFFFC0007FF0003FFFFFF
310
FFFFFF0000000003F000FFF80000000007FFF8001E000FC003E0007FFF80007F
310
FFF0000000000FFFFF8000000000FFF80FFFFFFFFFFFFFC07FFFFFF0001FFFFF
310
F0001FFFFFFFFC0007F0001FFFFFFFFC0007FF0003FFFFFFFFFFFC0000000007
310
F000FFE0000000000FFFF0003E000FC003E0007FFF80007FFFC0000000001FFF
310
FE0000000001FFF80FFFFFFFFFFFFFC07FFFFFF0001FFFFFF0001FFFFFFFFC00
310
07F0001FFFFFFFFC0007FF0003FFFFFFFFFFF0000000000FF000FFC000000000
310
1FFFF0003F000F8003F0003FFF80007FFF80000000003FFFF80000000003FFF8
310
0FFFFFFFFFFFFFC07FFFFFF0001FFFFFF0001FFFFFFFFC0007F0001FFFFFFFFC
310
0007FF0003FFFFFFFFFFE0000000001FF000FF00000000007FFFF0003F000780
310
03F0003FFF80007FFF00000000007FFFF00000000007FFF80FFFFFFFFFFFFFC0
310
7FFFFFF0001FFFFFF0001FFFFFFFFC0007F0001FFFFFFFFC0007FF0003FFFFFF
310
FFFF80000000007FF000FE0000000000FFFFE0003F00078007F0003FFF80007F
310
FE0000000001FFFFE0000000001FFFF80FFFFFFFFFFFFFC07FFFFFF0001FFFFF
310
F0001FFFFFFFFC0007F0001FFFFFFFFC0007FF0003FFFFFFFFFF0000000000FF
310
F000FC0000000003FFFFE0007F00078007F0003FFF80007FFC0000000007FFFF
310
C0000000007FFFF80FFFFFFFFFFFFFC07FFFFFF0001FFFFFF8001FFFFFFFFC00
310
0FF8001FFFFFFFFC000FFF0003FFFFFFFFFE0000000003FFF000FC000000000F
310
FFFFE0007F80070007F8001FFF80007FF8000000001FFFFF8000000001FFFFF8
310
0FFFFFFFFFFFFFC07FFFFFF0001FFFFFF8001FFFFFFFFC000FF8001FFFFFFFFC
310
000FFF0003FFFFFFFFFC000000000FFFF000F8000000007FFFFFE0007F800700
310
07F8001FFF80007FF000000000FFFFFF800000000FFFFFF80FFFFFFFFFFFFFC0
310
7FFFFFF0001FFFFFF8000FFFFFFFF8000FF8000FFFFFFFF8000FFF0003FFFFFF
310
FFFC000000007FFFF000F800000007FFFFFFC0007F8003000FF8001FFF80007F
310
F000000007FFFFFF000000007FFFFFF80FFFFFFFFFFFFFC07FFFFFF0001FFFFF
310
F8000FFFFFFFF8000FF8000FFFFFFFF8000FFF0003FFFFFFFFF80000000FFFFF
310
F000F0000000FFFFFFFFC000FF8003000FF8001FFF80007FE0000000FFFFFFFF
310
0000000FFFFFFFF8000001FFFE0000007FFFFFF0001FFFFFF8000FFFFFFFF800
310
0FF8000FFFFFFFF8000FFF0003FFFFFFFFF8000000FFFFFFF000F000000FFFFF
310
FFFFC000FFC002000FF8000FFF80007FE000001FFFFFFFFE000001FFFFFFFFF8
310
000001FFFE0000007FFFFFF0001FFFFFF8000FFFFFFFF8000FF8000FFFFFFFF8
310
000FFF0003FFFFFFFFF000001FFFFFFFF000E00000FFFFFFFFFFC000FFC00200
310
0FFC000FFF80007FE00001FFFFFFFFFE00001FFFFFFFFFF8000001FFFE000000
310
7FFFFFF0001FFFFFFC000FFFFFFFF8001FFC000FFFFFFFF8001FFF0003FFFFFF
310
FFF00001FFFFFFFFF000E00007FFFFFFFFFF8000FFC000001FFC000FFF80007F
310
C0000FFFFFFFFFFE0000FFFFFFFFFFF8000001FFFE0000007FFFFFF0001FFFFF
310
FC0007FFFFFFF0001FFC0007FFFFFFF0001FFF0003FFFFFFFFF00007FFFFFFFF
310
F000E0001FFFFFFFFFFF8000FFC000001FFC000FFF80007FC0003FFFFFFFFFFE
310
0001FFFFFFFFFFF8000001FFFE0000007FFFFFF0001FFFFFFC0007FFFFFFF000
310
1FFC0007FFFFFFF0001FFF0003FFFFFFFFF0001FFFFFFFFFF000E0003FFFFF00
310
03FF8001FFE000001FFC0007FF80007FC0007FFFFF0007FC0003FFFFF0003FF8
310
000001FFFE0000007FFFFFF0001FFFFFFC0003FFFFFFE0001FFC0003FFFFFFE0
310
001FFF0003FFFFFFFFF0003FFFFFFFFFF000E0003FFFFF0001FF8001FFE00000
310
1FFE0007FF80007FC0007FFFFE0003FC0007FFFFE0003FF8000001FFFE000000
310
7FFFFFF0001FFFFFFE0003FFFFFFE0003FFE0003FFFFFFE0003FFF0003FFFFFF
310
FFF0003FFFFF8001F000E0003FFFFF0001FF0001FFE000001FFE0007FF80007F
310
C0007FFFFE0003FC0007FFFFE0003FF8000001FFFE0000007FFFFFF0001FFFFF
310
FE0001FFFFFFC0003FFE0001FFFFFFC0003FFF0003FFFFFFFFF0003FFFFF0001
310
F000E0003FFFFF0003FF0001FFE000003FFE0007FF80007FC0007FFFFE0003FC
310
0007FFFFE0003FF8000001FFFE0000007FFFFFF0001FFFFFFF0001FFFFFFC000
310
7FFF0001FFFFFFC0007FFF0003FFFFFFFFF0003FFFFF0001F000E0003FFFFE00
310
03FF0003FFF000003FFE0003FF80007FC0007FFFFC0003FE0007FFFFE0003FF8
310
000001FFFE0000007FFFFFF0001FFFFFFF0000FFFFFF80007FFF0000FFFFFF80
310
007FFF0003FFFFFFFFF0003FFFFF0001F000E0003FFFFE0003FF0003FFF00000
310
3FFF0003FF80007FC0007FFFFC0007FE0007FFFFC0003FF8000001FFFE000000
310
7FFFFFF0001FFFFFFF80007FFFFF0000FFFF80007FFFFF0000FFFF0003FFFFFF
310
FFF0003FFFFF0003F000E0003FFFFC0003FE0003FFF000003FFF0003FF80007F
310
E0003FFFF80007FE0003FFFFC0007FF8000001FFFE0000007FFFFFF0001FFFFF
310
FF80003FFFFE0000FFFF80003FFFFE0000FFFF0003FFFFFFFFF0001FFFFE0003
310
F000F0001FFFF80003FE0003FFF000007FFF0001FF80007FE0003FFFF00007FE
310
0001FFFF80007FF8000001FFFE0000007FFFFFF0001FFFFFFFC0000FFFF80001
310
FFFFC0000FFFF80001FFFF0003FFFFFFFFF0001FFFFC0003F000F0000FFFF000
310
07FE0007FFF800007FFF0001FF80007FE0001FFFE00007FF0000FFFE00007FF8
310
000001FFFE0000007FFFFFF0001FFFFFFFC00003FFE00001FFFFC00003FFE000
310
01FFFF0003FFFFFFFFF8000FFFF80003F000F00003FFC00007FC0007FFF80000
310
7FFF8001FF80007FF00007FF80000FFF00007FF80000FFF8000001FFFE000000
310
7F80000000000001FFE000003E000003FFFFE000003E000003FFFF0003FFFFFF
310
FFF80003FFE00007F000F800000000000FFC0007FFF800007FFF8001FF80007F
310
F000000000000FFF000000000000FFF8000001FFFE0000007F80000000000001
310
FFF0000000000007FFFFF0000000000007FFFF0003FFFFFFFFFC00007E000007
310
F000F800000000000FFC0007FFF80000FFFF8000FF80007FF800000000001FFF
310
800000000001FFF8000001FFFE0000007F80000000000001FFF800000000000F
310
FFFFF800000000000FFFFF0003FFFFFFFFFC00000000000FF000FC0000000000
310
1FFC0007FFFC0000FFFF8000FF80007FF800000000003FFFC00000000001FFF8
310
000001FFFE0000007F80000000000001FFF800000000000FFFFFF80000000000
310
0FFFFF0003FFFFFFFFFE00000000001FF000FE00000000003FF8000FFFFC0000
310
FFFF8000FF80007FFC00000000003FFFC00000000003FFF8000001FFFE000000
310
7F80000000000001FFFC00000000001FFFFFFC00000000001FFFFF0003FFFFFF
310
FFFF00000000001FF000FF00000000003FF8000FFFFC0000FFFFC000FF80007F
310
FE00000000007FFFE00000000007FFF8000001FFFE0000007F80000000000001
310
FFFE00000000003FFFFFFE00000000003FFFFF0003FFFFFFFFFF80000000003F
310
F000FF80000000007FF8000FFFFC0001FFFFC0007F80007FFF0000000000FFFF
310
F0000000000FFFF800000000000000007F80000000000001FFFF8000000000FF
310
FFFFFF8000000000FFFFFF0003FFFFFFFFFFC0000000007FF000FFC000000000
310
FFF8000FFFFE0001FFFFC0007F80007FFF8000000001FFFFF8000000001FFFF8
310
00000000000000007F80000000000001FFFFC000000001FFFFFFFFC000000001
310
FFFFFF0003FFFFFFFFFFE000000000FFF000FFE000000003FFF0001FFFFE0001
310
FFFFC0007F80007FFFC000000007FFFFFE000000003FFFF80000000000000000
310
7F80000000000001FFFFE000000003FFFFFFFFE000000003FFFFFF0003FFFFFF
310
FFFFF000000003FFF000FFF80000000FFFF0001FFFFE0001FFFFE0007F80007F
310
FFF00000000FFFFFFF00000000FFFFF800000000000000007F80000000000001
310
FFFFF80000000FFFFFFFFFF80000000FFFFFFF0003FFFFFFFFFFFC0000000FFF
310
F000FFFE0000003FFFF0001FFFFE0003FFFFE0003F80007FFFFC0000003FFFFF
310
FFC0000003FFFFF800000000000000007F80000000000001FFFFFE0000003FFF
310
FFFFFFFE0000003FFFFFFF0003FFFFFFFFFFFF0000003FFFF000FFFF800000FF
310
FFF0001FFFFF0003FFFFE0003F80007FFFFF000001FFFFFFFFF800001FFFFFF8
310
00000000000000007F80000000000001FFFFFFC00001FFFFFFFFFFFFC00001FF
310
FFFFFF0003FFFFFFFFFFFFC00000FFFFF000FFFFF8000FFFFFFFFFFFFFFFFFFF
310
FFFFFFFFFFFFFFFFFFFFF0001FFFFFFFFFFF0000FFFFFFF80000000000000000
310
7FFFFFFFFFFFFFFFFFFFFFFC001FFFFFFFFFFFFFFC001FFFFFFFFFFFFFFFFFFF
310
FFFFFFFC001FFFFFF000FFFFFFFFFFFFFFFFFFFFFFFFFFFFFFFFFFFFFFFFFFFF
310
FFFFFFFFFFFFFFFFFFFFFFFFFFFFFFFFFFFFFFFFFFFFFFFFFFFFFFFFFFFFFFFF
310
FFFFFFFFFFFFFFFFFFFFFFFFFFFFFFFFFFFFFFFFFFFFFFFFFFFFFFFFFFFFFFFF
310
F000FFFFFFFFFFFFFFFFFFFFFFFFFFFFFFFFFFFFFFFFFFFFFFFFFFFFFFFFFFFF
310
FFFFFFFFFFFFFFFFFFFFFFFFFFFFFFFFFFFFFFFFFFFFFFFFFFFFFFFFFFFFFFFF
310
FFFFFFFFFFFFFFFFFFFFFFFFFFFFFFFFFFFFFFFFFFFFFFFFF000FFFFFFFFFFFF
310
FFFFFFFFFFFFFFFFFFFFFFFFFFFFFFFFFFFFFFFFFFFFFFFFFFFFFFFFFFFFFFFF
310
FFFFFFFFFFFFFFFFFFFFFFFFFFFFFFFFFFFFFFFFFFFFFFFFFFFFFFFFFFFFFFFF
310
FFFFFFFFFFFFFFFFFFFFFFFFFFFFFFFFF000FFFFFFFFFFFFFFFFFFFFFFFFFFFF
310
FFFFFFFFFFFFFFFFFFFFFFFFFFFFFFFFFFFFFFFFFFFFFFFFFFFFFFFFFFFFFFFF
310
FFFFFFFFFFFFFFFFFFFFFFFFFFFFFFFFFFFFFFFFFFFFFFFFFFFFFFFFFFFFFFFF
310
FFFFFFFFFFFFFFFFF000FFFFFFFFFFFFFFFFFFFFFFFFFFFFFFFFFFFFFFFFFFFF
310
FFFFFFFFFFFFFFFFFFFFFFFFFFFFFFFFFFFFFFFFFFFFFFFFFFFFFFFFFFFFFFFF
310
FFFFFFFFFFFFFFFFFFFFFFFFFFFFFFFFFFFFFFFFFFFFFFFFFFFFFFFFFFFFFFFF
310
F000FFFFFFFFFFFFFFFFFFFFFFFFFFFFFFFFFFFFFFFFFFFFFFFFFFFFFFFFFFFF
310
FFFFFFFFFFFFFFFFFFFFFFFFFFFFFFFFFFFFFFFFFFFFFFFFFFFFFFFFFFFFFFFF
310
FFFFFFFFFFFFFFFFFFFFFFFFFFFFFFFFFFFFFFFFFFFFFFFFF000FFFFFFFFFFFF
310
FFFFFFFFFFFFFFFFFFFFFFFFFFFFFFFFFFFFFFFFFFFFFFFFFFFFFFFFFFFFFFFF
310
FFFFFFFFFFFFFFFFFFFFFFFFFFFFFFFFFFFFFFFFFFFFFFFFFFFFFFFFFFFFFFFF
310
FFFFFFFFFFFFFFFFFFFFFFFFFFFFFFFFF000FFFFFFFFFFFFFFFFFFFFFFFFFFFF
310
FFFFFFFFFFFFFFFFFFFFFFFFFFFFFFFFFFFFFFFFFFFFFFFFFFFFFFFFFFFFFFFF
310
FFFFFFFFFFFFFFFFFFFFFFFFFFFFFFFFFFFFFFFFFFFFFFFFFFFFFFFFFFFFFFFF
310
FFFFFFFFFFFFFFFFF000FFFFFFFFFFFFFFFFFFFFFFFFFFFFFFFFFFFFFFFFFFFF
310
FFFFFFFFFFFFFFFFFFFFFFFFFFFFFFFFFFFFFFFFFFFFFFFFFFFFFFFFFFFFFFFF
310
FFFFFFFFFFFFFFFFFFFFFFFFFFFFFFFFFFFFFFFFFFFFFFFFFFFFFFFFFFFFFFFF
310
F000FFFFFFFFFFFFFFFFFFFFFFFFFFFFFFFFFFFFFFFFFFFFFFFFFFFFFFFFFFFF
310
FFFFFFFFFFFFFFFFFFFFFFFFFFFFFFFFFFFFFFFFFFFFFFFFFFFFFFFFFFFFFFFF
310
FFFFFFFFFFFFFFFFFFFFFFFFFFFFFFFFFFFFFFFFFFFFFFFFF000FFFFFFFFFFFF
310
FFFFFFFFFFFFFFFFFFFFFFFFFFFFFFFFFFFFFFFFFFFFFFFFFFFFFFFFFFFFFFFF
310
FFFFFFFFFFFFFFFFFFFFFFFFFFFFFFFFFFFFFFFFFFFFFFFFFFFFFFFFFFFFFFFF
310
FFFFFFFFFFFFFFFFFFFFFFFFFFFFFFFFF000FFFFFFFFFFFFFFFFFFFFFFFFFFFF
310
FFFFFFFFFFFFFFFFFFFFFFFFFFFFFFFFFFFFFFFFFFFFFFFFFFFFFFFFFFFFFFFF
310
FFFFFFFFFFFFFFFFFFFFFFFFFFFFFFFFFFFFFFFFFFFFFFFFFFFFFFFFFFFFFFFF
310
FFFFFFFFFFFFFFFFF000FFFFFFFFFFFFFFFFFFFFFFFFFFFFFFFFFFFFFFFFFFFF
310
FFFFFFFFFFFFFFFFFFFFFFFFFFFFFFFFFFFFFFFFFFFFFFFFFFFFFFFFFFFFFFFF
310
FFFFFFFFFFFFFFFFFFFFFFFFFFFFFFFFFFFFFFFFFFFFFFFFFFFFFFFFFFFFFFFF
310
F000FFFFFFFFFFFFFFFFFFFFFFFFFFFFFFFFFFFFFFFFFFFFFFFFFFFFFFFFFFFF
310
FFFFFFFFFFFFFFFFFFFFFFFFFFFFFFFFFFFFFFFFFFFFFFFFFFFFFFFFFFFFFFFF
310
FFFFFFFFFFFFFFFFFFFFFFFFFFFFFFFFFFFFFFFFFFFFFFFFF000FFFFFFFFFFFF
310
FFFFFFFFFFFFFFFFFFFFFFFFFFFFFFFFFFFFFFFFFFFFFFFFFFFFFFFFFFFFFFFF
310
FFFFFFFFFFFFFFFFFFFFFFFFFFFFFFFFFFFFFFFFFFFFFFFFFFFFFFFFFFFFFFFF
310
FFFFFFFFFFFFFFFFFFFFFFFFFFFFFFFFF000FFFFFFFFFFFFFFFFFFFFFFFFFFFF
310
FFFFFFFFFFFFFFFFFFFFFFFFFFFFFFFFFFFFFFFFFFFFFFFFFFFFFFFFFFFFFFFF
310
FFFFFFFFFFFFFFFFFFFFFFFFFFFFFFFFFFFFFFFFFFFFFFFFFFFFFFFFFFFFFFFF
310
FFFFFFFFFFFFFFFFF000FFFFFFFFFFFFFFFFFFFFFFFFFFFFFFFFFFFFFFFFFFFF
310
FFFFFFFFFFFFFFFFFFFFFFFFFFFFFFFFFFFFFFFFFFFFFFFFFFFFFFFFFFFFFFFF
310
FFFFFFFFFFFFFFFFFFFFFFFFFFFFFFFFFFFFFFFFFFFFFFFFFFFFFFFFFFFFFFFF
310
F000FFFFFFFFFFFFFFFFFFFFFFFFFFFFFFFFFFFFFFFFFFFFFFFFFFFFFFFFFFFF
310
FFFFFFFFFFFFFFFFFFFFFFFFFFFFFFFFFFFFFFFFFFFFFFFFFFFFFFFFFFFFFFFF
310
FFFFFFFFFFFFFFFFFFFFFFFFFFFFFFFFFFFFFFFFFFFFFFFFF000FFFFFFFFFFFF
310
FFFFFFFFFFFFFFFFFFFFFFFFFFFFFFFFFFFFFFFFFFFFFFFFFFFFFFFFFFFFFFFF
310
FFFFFFFFFFFFFFFFFFFFFFFFFFFFFFFFFFFFFFFFFFFFFFFFFFFFFFFFFFFFFFFF
310
FFFFFFFFFFFFFFFFFFFFFFFFFFFFFFFFF000FFFFFFFFFFFFFFFFFFFFFFFFFFFF
310
FFFFFFFFFFFFFFFFFFFFFFFFFFFFFFFFFFFFFFFFFFFFFFFFFFFFFFFFFFFFFFFF
310
FFFFFFFFFFFFFFFFFFFFFFFFFFFFFFFFFFFFFFFFFFFFFFFFFFFFFFFFFFFFFFFF
310
FFFFFFFFFFFFFFFFF000FFFFFFFFFFFFFFFFFFFFFFFFFFFFFFFFFFFFFFFFFFFF
310
FFFFFFFFFFFFFFFFFFFFFFFFFFFFFFFFFFFFFFFFFFFFFFFFFFFFFFFFFFFFFFFF
310
FFFFFFFFFFFFFFFFFFFFFFFFFFFFFFFFFFFFFFFFFFFFFFFFFFFFFFFFFFFFFFFF
310
F000FFFFFFFFFFFFFFFFFFFFFFFFFFFFFFFFFFFFFFFFFFFFFFFFFFFFFFFFFFFF
310
FFFFFFFFFFFFFFFFFFFFFFFFFFFFFFFFFFFFFFFFFFFFFFFFFFFFFFFFFFFFFFFF
310
FFFFFFFFFFFFFFFFFFFFFFFFFFFFFFFFFFFFFFFFFFFFFFFFF000FFFFFFFFFFFF
310
FFFFFFFFFFFFFFFFFFFFFFFFFFFFFFFFFFFFFFFFFFFFFFFFFFFFFFFFFFFFFFFF
310
FFFFFFFFFFFFFFFFFFFFFFFFFFFFFFFFFFFFFFFFFFFFFFFFFFFFFFFFFFFFFFFF
310
FFFFFFFFFFFFFFFFFFFFFFFFFFFFFFFFF0000000000000000000000000000000
310
0000000000000000000000000000000000000000000000000000000000000000
310
0000000000000000000000000000000000000000000000000000000000000000
310
0000000000000000000000000000000000000000000000000000000000000000
310
0000000000000000000000000000000000000000000000000000000000000000
310
0000000000000000000000000000000000000000000000000000000000000000
310
0000000000000000000000000000000000000000000000000000000000000000
310
0000000000000000000000000000000000000000000000000000000000000000
310
0000000000000000000000000000000000000000000000000000000000000000
310
0000000000000000000000000000000000000000000000000000000000000000
310
0000000000000000000000000000000000000000000000000000000000000000
310
0000000000000000000000000000000000000000000000000000000000000000
310
0000000000000000000000000000000000000000000000000000000000000000
310
0000000000000000000000000000000000000000000000000000000000000000
310
0000000000000000000000000000000000000000000000000000000000000000
310
0000000000000000000000000000000000000000000000000000000000000000
  1
OLE
  0
ENDSEC
  0
SECTION
  2
OBJECTS
  0
DICTIONARY
  5
C
330
0
100
AcDbDictionary
281
     1
  3
ACAD_GROUP
350
D
  3
ACAD_LAYOUT
350
1A
  3
ACAD_MLINESTYLE
350
17
  3
ACAD_PLOTSETTINGS
350
19
  3
ACAD_PLOTSTYLENAME
350
E
  3
ACAD_SCALELIST
350
47
  0
DICTIONARY
  5
D
102
{ACAD_REACTORS
330
C
102
}
330
C
100
AcDbDictionary
281
     1
  0
DICTIONARY
  5
1A
102
{ACAD_REACTORS
330
C
102
}
330
C
100
AcDbDictionary
281
     1
  3
Layout1
350
1E
  3
Layout2
350
26
  3
Model
350
22
  0
DICTIONARY
  5
17
102
{ACAD_REACTORS
330
C
102
}
330
C
100
AcDbDictionary
281
     1
  3
Standard
350
18
  0
DICTIONARY
  5
19
102
{ACAD_REACTORS
330
C
102
}
330
C
100
AcDbDictionary
281
     1
  0
ACDBDICTIONARYWDFLT
  5
E
102
{ACAD_REACTORS
330
C
102
}
330
C
100
AcDbDictionary
281
     1
  3
Normal
350
F
100
AcDbDictionaryWithDefault
340
F
  0
DICTIONARY
  5
47
102
{ACAD_REACTORS
330
C
102
}
330
C
100
AcDbDictionary
281
     1
  3
A0
350
48
  3
A1
350
49
  3
A2
350
4A
  3
A3
350
4B
  3
A4
350
4C
  3
A5
350
4D
  3
A6
350
4E
  3
A7
350
4F
  3
A8
350
50
  3
A9
350
51
  3
B0
350
52
  3
B1
350
53
  3
B2
350
54
  3
B3
350
55
  3
B4
350
56
  3
B5
350
57
  3
B6
350
58
  3
B7
350
59
  3
B8
350
5A
  3
B9
350
5B
  3
C0
350
5C
  3
C1
350
5D
  3
C2
350
5E
  3
C3
350
5F
  3
C4
350
60
  3
C5
350
61
  3
C6
350
62
  3
C7
350
63
  3
C8
350
64
  3
C9
350
65
  3
D0
350
66
  3
D1
350
67
  3
D2
350
68
  0
LAYOUT
  5
1E
102
{ACAD_REACTORS
330
1A
102
}
330
1A
100
AcDbPlotSettings
  1

  2
none_device
  4

  6

 40
0.0
 41
0.0
 42
0.0
 43
0.0
 44
0.0
 45
0.0
 46
0.0
 47
0.0
 48
0.0
 49
0.0
140
0.0
141
0.0
142
1.0
143
1.0
 70
   688
 72
     1
 73
     0
 74
     5
  7

 75
    16
147
1.0
148
0.0
149
0.0
100
AcDbLayout
  1
Layout1
 70
     1
 71
     1
 10
0.0
 20
0.0
 11
420.0
 21
297.0
 12
0.0
 22
0.0
 32
0.0
 14
1.0000000000E+20
 24
1.0000000000E+20
 34
1.0000000000E+20
 15
-1.0000000000E+20
 25
-1.0000000000E+20
 35
-1.0000000000E+20
146
0.0
 13
0.0
 23
0.0
 33
0.0
 16
1.0
 26
0.0
 36
0.0
 17
0.0
 27
1.0
 37
0.0
 76
     0
330
1B
  0
LAYOUT
  5
26
102
{ACAD_REACTORS
330
1A
102
}
330
1A
100
AcDbPlotSettings
  1

  2
none_device
  4

  6

 40
0.0
 41
0.0
 42
0.0
 43
0.0
 44
0.0
 45
0.0
 46
0.0
 47
0.0
 48
0.0
 49
0.0
140
0.0
141
0.0
142
1.0
143
1.0
 70
   688
 72
     1
 73
     0
 74
     5
  7

 75
    16
147
1.0
148
0.0
149
0.0
100
AcDbLayout
  1
Layout2
 70
     1
 71
     2
 10
0.0
 20
0.0
 11
0.0
 21
0.0
 12
0.0
 22
0.0
 32
0.0
 14
0.0
 24
0.0
 34
0.0
 15
0.0
 25
0.0
 35
0.0
146
0.0
 13
0.0
 23
0.0
 33
0.0
 16
1.0
 26
0.0
 36
0.0
 17
0.0
 27
1.0
 37
0.0
 76
     0
330
23
  0
LAYOUT
  5
22
102
{ACAD_REACTORS
330
1A
102
}
330
1A
100
AcDbPlotSettings
  1

  2
none_device
  4
Letter_(8.50_x_11.00_Inches)
  6

 40
6.35
 41
6.35
 42
6.35000508
 43
6.35000508
 44
215.9
 45
279.4
 46
0.0
 47
0.0
 48
0.0
 49
0.0
140
0.0
141
0.0
142
1.0
143
1.0
 70
  1712
 72
     1
 73
     0
 74
     0
  7

 75
     0
147
1.0
148
0.0
149
0.0
100
AcDbLayout
  1
Model
 70
     1
 71
     0
 10
0.0
 20
0.0
 11
297.0
 21
210.0
 12
0.0
 22
0.0
 32
0.0
 14
0.0
 24
0.0
 34
0.0
 15
297.0
 25
210.0
 35
0.0
146
0.0
 13
0.0
 23
0.0
 33
0.0
 16
1.0
 26
0.0
 36
0.0
 17
0.0
 27
1.0
 37
0.0
 76
     0
330
1F
331
29
  0
MLINESTYLE
  5
18
102
{ACAD_REACTORS
330
17
102
}
330
17
100
AcDbMlineStyle
  2
Standard
 70
     0
  3

 62
   256
 51
90.0
 52
90.0
 71
     2
 49
0.5
 62
   256
  6
BYLAYER
 49
-0.5
 62
   256
  6
BYLAYER
  0
ACDBPLACEHOLDER
  5
F
102
{ACAD_REACTORS
330
E
102
}
330
E
  0
SCALE
  5
48
102
{ACAD_REACTORS
330
47
102
}
330
47
100
AcDbScale
 70
     0
300
1:1
140
1.0
141
1.0
290
     1
  0
SCALE
  5
49
102
{ACAD_REACTORS
330
47
102
}
330
47
100
AcDbScale
 70
     0
300
1:2
140
1.0
141
2.0
290
     0
  0
SCALE
  5
4A
102
{ACAD_REACTORS
330
47
102
}
330
47
100
AcDbScale
 70
     0
300
1:4
140
1.0
141
4.0
290
     0
  0
SCALE
  5
4B
102
{ACAD_REACTORS
330
47
102
}
330
47
100
AcDbScale
 70
     0
300
1:5
140
1.0
141
5.0
290
     0
  0
SCALE
  5
4C
102
{ACAD_REACTORS
330
47
102
}
330
47
100
AcDbScale
 70
     0
300
1:8
140
1.0
141
8.0
290
     0
  0
SCALE
  5
4D
102
{ACAD_REACTORS
330
47
102
}
330
47
100
AcDbScale
 70
     0
300
1:10
140
1.0
141
10.0
290
     0
  0
SCALE
  5
4E
102
{ACAD_REACTORS
330
47
102
}
330
47
100
AcDbScale
 70
     0
300
1:16
140
1.0
141
16.0
290
     0
  0
SCALE
  5
4F
102
{ACAD_REACTORS
330
47
102
}
330
47
100
AcDbScale
 70
     0
300
1:20
140
1.0
141
20.0
290
     0
  0
SCALE
  5
50
102
{ACAD_REACTORS
330
47
102
}
330
47
100
AcDbScale
 70
     0
300
1:30
140
1.0
141
30.0
290
     0
  0
SCALE
  5
51
102
{ACAD_REACTORS
330
47
102
}
330
47
100
AcDbScale
 70
     0
300
1:40
140
1.0
141
40.0
290
     0
  0
SCALE
  5
52
102
{ACAD_REACTORS
330
47
102
}
330
47
100
AcDbScale
 70
     0
300
1:50
140
1.0
141
50.0
290
     0
  0
SCALE
  5
53
102
{ACAD_REACTORS
330
47
102
}
330
47
100
AcDbScale
 70
     0
300
1:100
140
1.0
141
100.0
290
     0
  0
SCALE
  5
54
102
{ACAD_REACTORS
330
47
102
}
330
47
100
AcDbScale
 70
     0
300
2:1
140
2.0
141
1.0
290
     0
  0
SCALE
  5
55
102
{ACAD_REACTORS
330
47
102
}
330
47
100
AcDbScale
 70
     0
300
4:1
140
4.0
141
1.0
290
     0
  0
SCALE
  5
56
102
{ACAD_REACTORS
330
47
102
}
330
47
100
AcDbScale
 70
     0
300
8:1
140
8.0
141
1.0
290
     0
  0
SCALE
  5
57
102
{ACAD_REACTORS
330
47
102
}
330
47
100
AcDbScale
 70
     0
300
10:1
140
10.0
141
1.0
290
     0
  0
SCALE
  5
58
102
{ACAD_REACTORS
330
47
102
}
330
47
100
AcDbScale
 70
     0
300
100:1
140
100.0
141
1.0
290
     0
  0
SCALE
  5
59
102
{ACAD_REACTORS
330
47
102
}
330
47
100
AcDbScale
 70
     0
300
1/128" = 1'-0"
140
0.0078125
141
12.0
290
     0
  0
SCALE
  5
5A
102
{ACAD_REACTORS
330
47
102
}
330
47
100
AcDbScale
 70
     0
300
1/64" = 1'-0"
140
0.015625
141
12.0
290
     0
  0
SCALE
  5
5B
102
{ACAD_REACTORS
330
47
102
}
330
47
100
AcDbScale
 70
     0
300
1/32" = 1'-0"
140
0.03125
141
12.0
290
     0
  0
SCALE
  5
5C
102
{ACAD_REACTORS
330
47
102
}
330
47
100
AcDbScale
 70
     0
300
1/16" = 1'-0"
140
0.0625
141
12.0
290
     0
  0
SCALE
  5
5D
102
{ACAD_REACTORS
330
47
102
}
330
47
100
AcDbScale
 70
     0
300
3/32" = 1'-0"
140
0.09375
141
12.0
290
     0
  0
SCALE
  5
5E
102
{ACAD_REACTORS
330
47
102
}
330
47
100
AcDbScale
 70
     0
300
1/8" = 1'-0"
140
0.125
141
12.0
290
     0
  0
SCALE
  5
5F
102
{ACAD_REACTORS
330
47
102
}
330
47
100
AcDbScale
 70
     0
300
3/16" = 1'-0"
140
0.1875
141
12.0
290
     0
  0
SCALE
  5
60
102
{ACAD_REACTORS
330
47
102
}
330
47
100
AcDbScale
 70
     0
300
1/4" = 1'-0"
140
0.25
141
12.0
290
     0
  0
SCALE
  5
61
102
{ACAD_REACTORS
330
47
102
}
330
47
100
AcDbScale
 70
     0
300
3/8" = 1'-0"
140
0.375
141
12.0
290
     0
  0
SCALE
  5
62
102
{ACAD_REACTORS
330
47
102
}
330
47
100
AcDbScale
 70
     0
300
1/2" = 1'-0"
140
0.5
141
12.0
290
     0
  0
SCALE
  5
63
102
{ACAD_REACTORS
330
47
102
}
330
47
100
AcDbScale
 70
     0
300
3/4" = 1'-0"
140
0.75
141
12.0
290
     0
  0
SCALE
  5
64
102
{ACAD_REACTORS
330
47
102
}
330
47
100
AcDbScale
 70
     0
300
1" = 1'-0"
140
1.0
141
12.0
290
     0
  0
SCALE
  5
65
102
{ACAD_REACTORS
330
47
102
}
330
47
100
AcDbScale
 70
     0
300
1-1/2" = 1'-0"
140
1.5
141
12.0
290
     0
  0
SCALE
  5
66
102
{ACAD_REACTORS
330
47
102
}
330
47
100
AcDbScale
 70
     0
300
3" = 1'-0"
140
3.0
141
12.0
290
     0
  0
SCALE
  5
67
102
{ACAD_REACTORS
330
47
102
}
330
47
100
AcDbScale
 70
     0
300
6" = 1'-0"
140
6.0
141
12.0
290
     0
  0
SCALE
  5
68
102
{ACAD_REACTORS
330
47
102
}
330
47
100
AcDbScale
 70
     0
300
1'-0" = 1'-0"
140
12.0
141
12.0
290
     0
  0
ENDSEC
  0
EOF
