  0
SECTION
  2
HEADER
  9
$ACADVER
  1
AC1015
  9
$ACADMAINTVER
 70
     6
  9
$DWGCODEPAGE
  3
ANSI_1252
  9
$INSBASE
 10
0.0
 20
0.0
 30
0.0
  9
$EXTMIN
 10
0.0
 20
0.0
 30
0.0
  9
$EXTMAX
 10
297.0
 20
210.0
 30
0.0
  9
$LIMMIN
 10
0.0
 20
0.0
  9
$LIMMAX
 10
297.0
 20
210.0
  9
$ORTHOMODE
 70
     0
  9
$REGENMODE
 70
     1
  9
$FILLMODE
 70
     1
  9
$QTEXTMODE
 70
     0
  9
$MIRRTEXT
 70
     1
  9
$LTSCALE
 40
1.0
  9
$ATTMODE
 70
     1
  9
$TEXTSIZE
 40
2.0
  9
$TRACEWID
 40
1.0
  9
$TEXTSTYLE
  7
Standard
  9
$CLAYER
  8
0
  9
$CELTYPE
  6
ByLayer
  9
$CECOLOR
 62
   256
  9
$CELTSCALE
 40
1.0
  9
$DISPSILH
 70
     0
  9
$DIMSCALE
 40
1.0
  9
$DIMASZ
 40
3.0
  9
$DIMEXO
 40
0.0
  9
$DIMDLI
 40
3.75
  9
$DIMRND
 40
0.0
  9
$DIMDLE
 40
0.0
  9
$DIMEXE
 40
1.0
  9
$DIMTP
 40
0.0
  9
$DIMTM
 40
0.0
  9
$DIMTXT
 40
2.0
  9
$DIMCEN
 40
2.5
  9
$DIMTSZ
 40
0.0
  9
$DIMTOL
 70
     0
  9
$DIMLIM
 70
     0
  9
$DIMTIH
 70
     1
  9
$DIMTOH
 70
     1
  9
$DIMSE1
 70
     0
  9
$DIMSE2
 70
     0
  9
$DIMTAD
 70
     1
  9
$DIMZIN
 70
     0
  9
$DIMBLK
  1

  9
$DIMASO
 70
     1
  9
$DIMSHO
 70
     1
  9
$DIMPOST
  1

  9
$DIMAPOST
  1

  9
$DIMALT
 70
     0
  9
$DIMALTD
 70
     3
  9
$DIMALTF
 40
0.0393700787
  9
$DIMLFAC
 40
2.0
  9
$DIMTOFL
 70
     1
  9
$DIMTVP
 40
0.0
  9
$DIMTIX
 70
     0
  9
$DIMSOXD
 70
     0
  9
$DIMSAH
 70
     0
  9
$DIMBLK1
  1

  9
$DIMBLK2
  1

  9
$DIMSTYLE
  2
ISO-25
  9
$DIMCLRD
 70
     0
  9
$DIMCLRE
 70
     0
  9
$DIMCLRT
 70
     0
  9
$DIMTFAC
 40
1.0
  9
$DIMGAP
 40
1.524
  9
$DIMJUST
 70
     0
  9
$DIMSD1
 70
     0
  9
$DIMSD2
 70
     0
  9
$DIMTOLJ
 70
     0
  9
$DIMTZIN
 70
     0
  9
$DIMALTZ
 70
     0
  9
$DIMALTTZ
 70
     0
  9
$DIMUPT
 70
     0
  9
$DIMDEC
 70
     2
  9
$DIMTDEC
 70
     3
  9
$DIMALTU
 70
     2
  9
$DIMALTTD
 70
     3
  9
$DIMTXSTY
  7
Standard
  9
$DIMAUNIT
 70
     0
  9
$DIMADEC
 70
     2
  9
$DIMALTRND
 40
0.0
  9
$DIMAZIN
 70
     0
  9
$DIMDSEP
 70
    44
  9
$DIMATFIT
 70
     3
  9
$DIMFRAC
 70
     0
  9
$DIMLDRBLK
  1

  9
$DIMLUNIT
 70
     2
  9
$DIMLWD
 70
    -2
  9
$DIMLWE
 70
    -2
  9
$DIMTMOVE
 70
     0
  9
$LUNITS
 70
     2
  9
$LUPREC
 70
     2
  9
$SKETCHINC
 40
1.0
  9
$FILLETRAD
 40
10.0
  9
$AUNITS
 70
     0
  9
$AUPREC
 70
     2
  9
$MENU
  1
.
  9
$ELEVATION
 40
0.0
  9
$PELEVATION
 40
0.0
  9
$THICKNESS
 40
0.0
  9
$LIMCHECK
 70
     0
  9
$CHAMFERA
 40
0.0
  9
$CHAMFERB
 40
0.0
  9
$CHAMFERC
 40
0.0
  9
$CHAMFERD
 40
0.0
  9
$SKPOLY
 70
     0
  9
$TDCREATE
 40
2458191.458489502
  9
$TDUCREATE
 40
2458191.416822836
  9
$TDUPDATE
 40
2458191.458490694
  9
$TDUUPDATE
 40
2458191.416824028
  9
$TDINDWG
 40
0.0000000116
  9
$TDUSRTIMER
 40
0.0000000116
  9
$USRTIMER
 70
     1
  9
$ANGBASE
 50
0.0
  9
$ANGDIR
 70
     0
  9
$PDMODE
 70
     0
  9
$PDSIZE
 40
-1.0
  9
$PLINEWID
 40
0.0
  9
$SPLFRAME
 70
     0
  9
$SPLINETYPE
 70
     6
  9
$SPLINESEGS
 70
     8
  9
$HANDSEED
  5
189
  9
$SURFTAB1
 70
     6
  9
$SURFTAB2
 70
     6
  9
$SURFTYPE
 70
     6
  9
$SURFU
 70
     6
  9
$SURFV
 70
     6
  9
$UCSBASE
  2

  9
$UCSNAME
  2

  9
$UCSORG
 10
0.0
 20
0.0
 30
0.0
  9
$UCSXDIR
 10
1.0
 20
0.0
 30
0.0
  9
$UCSYDIR
 10
0.0
 20
1.0
 30
0.0
  9
$UCSORTHOREF
  2

  9
$UCSORTHOVIEW
 70
     0
  9
$UCSORGTOP
 10
0.0
 20
0.0
 30
0.0
  9
$UCSORGBOTTOM
 10
0.0
 20
0.0
 30
0.0
  9
$UCSORGLEFT
 10
0.0
 20
0.0
 30
0.0
  9
$UCSORGRIGHT
 10
0.0
 20
0.0
 30
0.0
  9
$UCSORGFRONT
 10
0.0
 20
0.0
 30
0.0
  9
$UCSORGBACK
 10
0.0
 20
0.0
 30
0.0
  9
$PUCSBASE
  2

  9
$PUCSNAME
  2

  9
$PUCSORG
 10
0.0
 20
0.0
 30
0.0
  9
$PUCSXDIR
 10
1.0
 20
0.0
 30
0.0
  9
$PUCSYDIR
 10
0.0
 20
1.0
 30
0.0
  9
$PUCSORTHOREF
  2

  9
$PUCSORTHOVIEW
 70
     0
  9
$PUCSORGTOP
 10
0.0
 20
0.0
 30
0.0
  9
$PUCSORGBOTTOM
 10
0.0
 20
0.0
 30
0.0
  9
$PUCSORGLEFT
 10
0.0
 20
0.0
 30
0.0
  9
$PUCSORGRIGHT
 10
0.0
 20
0.0
 30
0.0
  9
$PUCSORGFRONT
 10
0.0
 20
0.0
 30
0.0
  9
$PUCSORGBACK
 10
0.0
 20
0.0
 30
0.0
  9
$USERI1
 70
     0
  9
$USERI2
 70
     0
  9
$USERI3
 70
     0
  9
$USERI4
 70
     0
  9
$USERI5
 70
     0
  9
$USERR1
 40
0.0
  9
$USERR2
 40
0.0
  9
$USERR3
 40
0.0
  9
$USERR4
 40
0.0
  9
$USERR5
 40
0.0
  9
$WORLDVIEW
 70
     1
  9
$SHADEDGE
 70
     3
  9
$SHADEDIF
 70
    70
  9
$TILEMODE
 70
     1
  9
$MAXACTVP
 70
    64
  9
$PINSBASE
 10
0.0
 20
0.0
 30
0.0
  9
$PLIMCHECK
 70
     0
  9
$PEXTMIN
 10
1.0000000000E+20
 20
1.0000000000E+20
 30
1.0000000000E+20
  9
$PEXTMAX
 10
-1.0000000000E+20
 20
-1.0000000000E+20
 30
-1.0000000000E+20
  9
$PLIMMIN
 10
0.0
 20
0.0
  9
$PLIMMAX
 10
420.0
 20
297.0
  9
$UNITMODE
 70
     0
  9
$VISRETAIN
 70
     1
  9
$PLINEGEN
 70
     0
  9
$PSLTSCALE
 70
     1
  9
$TREEDEPTH
 70
  3020
  9
$CMLSTYLE
  2
Standard
  9
$CMLJUST
 70
     0
  9
$CMLSCALE
 40
20.0
  9
$PROXYGRAPHICS
 70
     1
  9
$MEASUREMENT
 70
     1
  9
$CELWEIGHT
370
    -1
  9
$ENDCAPS
280
     0
  9
$JOINSTYLE
280
     0
  9
$LWDISPLAY
290
     1
  9
$INSUNITS
 70
     4
  9
$HYPERLINKBASE
  1

  9
$STYLESHEET
  1

  9
$XEDIT
290
     1
  9
$CEPSNTYPE
380
     0
  9
$PSTYLEMODE
290
     1
  9
$FINGERPRINTGUID
  2
{0B0E2E39-6887-4FAC-B951-C923DAE9E9B0}
  9
$VERSIONGUID
  2
{FAEB1C32-E019-11D5-929B-00C0DF256EC4}
  9
$EXTNAMES
290
     1
  9
$PSVPSCALE
 40
0.0
  9
$OLESTARTUP
290
     0
  0
ENDSEC
  0
SECTION
  2
CLASSES
  0
CLASS
  1
ACDBDICTIONARYWDFLT
  2
AcDbDictionaryWithDefault
  3
ObjectDBX Classes
 90
        0
280
     0
281
     0
  0
CLASS
  1
VISUALSTYLE
  2
AcDbVisualStyle
  3
ObjectDBX Classes
 90
     4095
280
     0
281
     0
  0
CLASS
  1
MATERIAL
  2
AcDbMaterial
  3
ObjectDBX Classes
 90
     1153
280
     0
281
     0
  0
CLASS
  1
SCALE
  2
AcDbScale
  3
ObjectDBX Classes
 90
     1153
280
     0
281
     0
  0
CLASS
  1
TABLESTYLE
  2
AcDbTableStyle
  3
ObjectDBX Classes
 90
     4095
280
     0
281
     0
  0
CLASS
  1
MLEADERSTYLE
  2
AcDbMLeaderStyle
  3
ACDB_MLEADERSTYLE_CLASS
 90
     4095
280
     0
281
     0
  0
CLASS
  1
SUN
  2
AcDbSun
  3
SCENEOE
 90
     1153
280
     0
281
     0
  0
CLASS
  1
ACDBPLACEHOLDER
  2
AcDbPlaceHolder
  3
ObjectDBX Classes
 90
        0
280
     0
281
     0
  0
CLASS
  1
LAYOUT
  2
AcDbLayout
  3
ObjectDBX Classes
 90
        0
280
     0
281
     0
  0
ENDSEC
  0
SECTION
  2
TABLES
  0
TABLE
  2
VPORT
  5
8
330
0
100
AcDbSymbolTable
 70
     1
  0
VPORT
  5
29
330
8
100
AcDbSymbolTableRecord
100
AcDbViewportTableRecord
  2
*Active
 70
     0
 10
0.0
 20
0.0
 11
1.0
 21
1.0
 12
148.5
 22
105.0
 13
0.0
 23
0.0
 14
10.0
 24
10.0
 15
10.0
 25
10.0
 16
0.0
 26
0.0
 36
1.0
 17
0.0
 27
0.0
 37
0.0
 40
210.0
 41
1.4142857143
 42
50.0
 43
0.0
 44
0.0
 50
0.0
 51
0.0
 71
     0
 72
  2000
 73
     1
 74
     3
 75
     0
 76
     0
 77
     0
 78
     0
281
     0
 65
     1
110
0.0
120
0.0
130
0.0
111
1.0
121
0.0
131
0.0
112
0.0
122
1.0
132
0.0
 79
     0
146
0.0
  0
ENDTAB
  0
TABLE
  2
LTYPE
  5
5
330
0
100
AcDbSymbolTable
 70
     6
  0
LTYPE
  5
14
330
5
100
AcDbSymbolTableRecord
100
AcDbLinetypeTableRecord
  2
ByBlock
 70
     0
  3

 72
    65
 73
     0
 40
0.0
  0
LTYPE
  5
15
330
5
100
AcDbSymbolTableRecord
100
AcDbLinetypeTableRecord
  2
ByLayer
 70
     0
  3

 72
    65
 73
     0
 40
0.0
  0
LTYPE
  5
16
330
5
100
AcDbSymbolTableRecord
100
AcDbLinetypeTableRecord
  2
Continuous
 70
     0
  3
Solid line
 72
    65
 73
     0
 40
0.0
  0
LTYPE
  5
6E
330
5
100
AcDbSymbolTableRecord
100
AcDbLinetypeTableRecord
  2
HIDDEN
 70
     0
  3
Hidden __ __ __ __ __ __ __ __ __ __ __ __ __ __
 72
    65
 73
     2
 40
1.905
 49
1.27
 74
     0
 49
-0.635
 74
     0
  0
LTYPE
  5
6F
330
5
100
AcDbSymbolTableRecord
100
AcDbLinetypeTableRecord
  2
PHANTOM
 70
     0
  3
Phantom ______  __  __  ______  __  __  ______
 72
    65
 73
     6
 40
12.7
 49
6.35
 74
     0
 49
-1.27
 74
     0
 49
1.27
 74
     0
 49
-1.27
 74
     0
 49
1.27
 74
     0
 49
-1.27
 74
     0
  0
LTYPE
  5
70
330
5
100
AcDbSymbolTableRecord
100
AcDbLinetypeTableRecord
  2
CENTER
 70
     0
  3
Center ____ _ ____ _ ____ _ ____ _ ____ _ ____
 72
    65
 73
     4
 40
10.16
 49
6.35
 74
     0
 49
-1.27
 74
     0
 49
1.27
 74
     0
 49
-1.27
 74
     0
  0
LTYPE
  5
71
330
5
100
AcDbSymbolTableRecord
100
AcDbLinetypeTableRecord
  2
CENTERX2
 70
     0
  3
Center (2x) ________  __  ________  __  _____
 72
    65
 73
     4
 40
20.32
 49
12.7
 74
     0
 49
-2.54
 74
     0
 49
2.54
 74
     0
 49
-2.54
 74
     0
  0
LTYPE
  5
72
330
5
100
AcDbSymbolTableRecord
100
AcDbLinetypeTableRecord
  2
DOT2
 70
     0
  3
Dot (.5x) ........................................
 72
    65
 73
     2
 40
0.635
 49
0.0
 74
     0
 49
-0.635
 74
     0
  0
ENDTAB
  0
TABLE
  2
LAYER
  5
2
330
0
100
AcDbSymbolTable
 70
     5
  0
LAYER
  5
10
330
2
100
AcDbSymbolTableRecord
100
AcDbLayerTableRecord
  2
0
 70
     0
 62
     7
  6
Continuous
370
    -3
390
F
  0
LAYER
  5
73
330
2
100
AcDbSymbolTableRecord
100
AcDbLayerTableRecord
  2
FORMAT
 70
     0
 62
     7
  6
Continuous
370
    -3
390
F
  0
LAYER
  5
74
330
2
100
AcDbSymbolTableRecord
100
AcDbLayerTableRecord
  2
VERMASSUNG
 70
     0
 62
     7
  6
Continuous
370
    -3
390
F
  0
LAYER
  5
75
330
2
100
AcDbSymbolTableRecord
100
AcDbLayerTableRecord
  2
KOPF_DÜNN
 70
     0
 62
     7
  6
Continuous
370
    -3
390
F
  0
LAYER
  5
76
330
2
100
AcDbSymbolTableRecord
100
AcDbLayerTableRecord
  2
KOPF_DICK
 70
     0
 62
     7
  6
Continuous
370
    25
390
F
  0
ENDTAB
  0
TABLE
  2
STYLE
  5
3
330
0
100
AcDbSymbolTable
 70
     2
  0
STYLE
  5
11
330
3
100
AcDbSymbolTableRecord
100
AcDbTextStyleTableRecord
  2
Standard
 70
     0
 40
0.0
 41
1.0
 50
0.0
 71
     0
 42
2.0
  3
txt
  4

  0
STYLE
  5
77
330
3
100
AcDbSymbolTableRecord
100
AcDbTextStyleTableRecord
  2
SLDTEXTSTYLE0
 70
     0
 40
0.0
 41
0.7
 50
0.0
 71
     0
 42
2.0
  3
TXT
  4

  0
ENDTAB
  0
TABLE
  2
VIEW
  5
6
330
0
100
AcDbSymbolTable
 70
     0
  0
ENDTAB
  0
TABLE
  2
UCS
  5
7
330
0
100
AcDbSymbolTable
 70
     0
  0
ENDTAB
  0
TABLE
  2
APPID
  5
9
330
0
100
AcDbSymbolTable
 70
     1
  0
APPID
  5
12
330
9
100
AcDbSymbolTableRecord
100
AcDbRegAppTableRecord
  2
ACAD
 70
     0
  0
ENDTAB
  0
TABLE
  2
DIMSTYLE
  5
A
330
0
100
AcDbSymbolTable
 70
     2
100
AcDbDimStyleTable
  0
DIMSTYLE
105
27
330
A
100
AcDbSymbolTableRecord
100
AcDbDimStyleTableRecord
  2
ISO-25
 70
     0
 41
2.5
 42
0.625
 43
3.75
 44
1.25
 73
     0
 74
     0
 77
     1
 78
     8
140
2.5
141
2.5
143
0.0393700787
147
0.625
171
     3
172
     1
178
     0
271
     2
272
     2
274
     3
278
    44
283
     0
284
     8
340
11
  0
DIMSTYLE
105
111
102
{ACAD_REACTORS
330
110
330
11D
330
127
330
131
330
13D
102
}
330
A
100
AcDbSymbolTableRecord
100
AcDbDimStyleTableRecord
  2
SLDDIMSTYLE0
 70
     0
 41
3.0
 44
0.0
 45
0.000000001
 73
     0
 74
     0
 77
     1
 78
    12
 79
     3
140
2.0
147
0.5
173
     1
178
     0
271
     2
272
     3
276
     2
284
    12
340
77
  0
ENDTAB
  0
TABLE
  2
BLOCK_RECORD
  5
1
330
0
100
AcDbSymbolTable
 70
     6
  0
BLOCK_RECORD
  5
1F
330
1
100
AcDbSymbolTableRecord
100
AcDbBlockTableRecord
  2
*Model_Space
340
22
  0
BLOCK_RECORD
  5
1B
330
1
100
AcDbSymbolTableRecord
100
AcDbBlockTableRecord
  2
*Paper_Space
340
1E
  0
BLOCK_RECORD
  5
23
330
1
100
AcDbSymbolTableRecord
100
AcDbBlockTableRecord
  2
*Paper_Space0
340
26
  0
BLOCK_RECORD
  5
112
330
1
100
AcDbSymbolTableRecord
100
AcDbBlockTableRecord
  2
_D
340
0
  0
BLOCK_RECORD
  5
11E
330
1
100
AcDbSymbolTableRecord
100
AcDbBlockTableRecord
  2
_D_1
340
0
  0
BLOCK_RECORD
  5
128
330
1
100
AcDbSymbolTableRecord
100
AcDbBlockTableRecord
  2
_D_2
340
0
  0
BLOCK_RECORD
  5
132
330
1
100
AcDbSymbolTableRecord
100
AcDbBlockTableRecord
  2
_D_3
340
0
  0
BLOCK_RECORD
  5
13E
330
1
100
AcDbSymbolTableRecord
100
AcDbBlockTableRecord
  2
_D_4
340
0
  0
ENDTAB
  0
ENDSEC
  0
SECTION
  2
BLOCKS
  0
BLOCK
  5
20
330
1F
100
AcDbEntity
  8
0
100
AcDbBlockBegin
  2
*Model_Space
 70
     0
 10
0.0
 20
0.0
 30
0.0
  3
*Model_Space
  1

  0
ENDBLK
  5
21
330
1F
100
AcDbEntity
  8
0
100
AcDbBlockEnd
  0
BLOCK
  5
1C
330
1B
100
AcDbEntity
 67
     1
  8
0
100
AcDbBlockBegin
  2
*Paper_Space
 70
     0
 10
0.0
 20
0.0
 30
0.0
  3
*Paper_Space
  1

  0
ENDBLK
  5
1D
330
1B
100
AcDbEntity
 67
     1
  8
0
100
AcDbBlockEnd
  0
BLOCK
  5
24
330
23
100
AcDbEntity
  8
0
100
AcDbBlockBegin
  2
*Paper_Space0
 70
     0
 10
0.0
 20
0.0
 30
0.0
  3
*Paper_Space0
  1

  0
ENDBLK
  5
25
330
23
100
AcDbEntity
  8
0
100
AcDbBlockEnd
  0
BLOCK
  5
113
330
112
100
AcDbEntity
  8
0
100
AcDbBlockBegin
  2
_D
 70
     0
 10
0.0
 20
0.0
 30
0.0
  3
_D
  1

  0
SOLID
  5
115
330
112
100
AcDbEntity
  8
VERMASSUNG
100
AcDbTrace
 10
233.0438172746
 20
138.5923952254
 30
0.0
 11
232.5938172746
 21
135.5923952254
 31
0.0
 12
233.4938172746
 22
135.5923952254
 32
0.0
 13
233.4938172746
 23
135.5923952254
 33
0.0
  0
SOLID
  5
116
330
112
100
AcDbEntity
  8
VERMASSUNG
100
AcDbTrace
 10
233.0438172746
 20
88.5923952254
 30
0.0
 11
233.4938172746
 21
91.5923952254
 31
0.0
 12
232.5938172746
 22
91.5923952254
 32
0.0
 13
232.5938172746
 23
91.5923952254
 33
0.0
  0
LINE
  5
117
330
112
100
AcDbEntity
  8
VERMASSUNG
100
AcDbLine
 10
212.8042708941
 20
138.5923952254
 30
0.0
 11
234.0438172746
 21
138.5923952254
 31
0.0
  0
LINE
  5
118
330
112
100
AcDbEntity
  8
VERMASSUNG
100
AcDbLine
 10
212.8042708941
 20
88.5923952254
 30
0.0
 11
234.0438172746
 21
88.5923952254
 31
0.0
  0
LINE
  5
119
330
112
100
AcDbEntity
  8
VERMASSUNG
100
AcDbLine
 10
233.0438172746
 20
138.5923952254
 30
0.0
 11
233.0438172746
 21
88.5923952254
 31
0.0
  0
MTEXT
  5
11A
330
112
100
AcDbEntity
  8
VERMASSUNG
100
AcDbMText
 10
230.2656820184
 20
108.4873952361
 30
0.0
 40
2.0
 41
0.0
 71
     1
 72
     1
  1
WH
  7
SLDTEXTSTYLE0
 11
-7.044195017643634E-15
 21
1.0
 31
0.0
 73
     1
 44
1.0
  0
MTEXT
  5
11B
330
112
100
AcDbEntity
  8
VERMASSUNG
100
AcDbMText
 10
230.4656819697
 20
112.2873953002
 30
0.0
 40
2.0
 41
0.0
 71
     1
 72
     1
  1
%%c
  7
SLDTEXTSTYLE0
 11
-7.044195017643634E-15
 21
1.0
 31
0.0
 73
     1
 44
1.0
  0
MTEXT
  5
11C
330
112
100
AcDbEntity
  8
VERMASSUNG
100
AcDbMText
 10
230.2656820184
 20
115.8973953145
 30
0.0
 40
2.0
 41
0.0
 71
     1
 72
     1
  1
50
  7
SLDTEXTSTYLE0
 11
-7.044195017643634E-15
 21
1.0
 31
0.0
 73
     1
 44
1.0
  0
ENDBLK
  5
114
330
112
100
AcDbEntity
  8
0
100
AcDbBlockEnd
  0
BLOCK
  5
11F
330
11E
100
AcDbEntity
  8
0
100
AcDbBlockBegin
  2
_D_1
 70
     0
 10
0.0
 20
0.0
 30
0.0
  3
_D_1
  1

  0
SOLID
  5
121
330
11E
100
AcDbEntity
  8
VERMASSUNG
100
AcDbTrace
 10
213.3042708941
 20
148.5923952254
 30
0.0
 11
210.3042708941
 21
149.0423952254
 31
0.0
 12
210.3042708941
 22
148.1423952254
 32
0.0
 13
210.3042708941
 23
148.1423952254
 33
0.0
  0
SOLID
  5
122
330
11E
100
AcDbEntity
  8
VERMASSUNG
100
AcDbTrace
 10
113.3042708941
 20
148.5923952254
 30
0.0
 11
116.3042708941
 21
148.1423952254
 31
0.0
 12
116.3042708941
 22
149.0423952254
 32
0.0
 13
116.3042708941
 23
149.0423952254
 33
0.0
  0
LINE
  5
123
330
11E
100
AcDbEntity
  8
VERMASSUNG
100
AcDbLine
 10
213.3042708941
 20
138.0923952254
 30
0.0
 11
213.3042708941
 21
149.5923952254
 31
0.0
  0
LINE
  5
124
330
11E
100
AcDbEntity
  8
VERMASSUNG
100
AcDbLine
 10
113.3042708941
 20
138.0923952254
 30
0.0
 11
113.3042708941
 21
149.5923952254
 31
0.0
  0
LINE
  5
125
330
11E
100
AcDbEntity
  8
VERMASSUNG
100
AcDbLine
 10
213.3042708941
 20
148.5923952254
 30
0.0
 11
113.3042708941
 21
148.5923952254
 31
0.0
  0
MTEXT
  5
126
330
11E
100
AcDbEntity
  8
VERMASSUNG
100
AcDbMText
 10
161.404270862
 20
151.1705308214
 30
0.0
 40
2.0
 41
0.0
 71
     1
 72
     1
  1
100
  7
SLDTEXTSTYLE0
 73
     1
 44
1.0
  0
ENDBLK
  5
120
330
11E
100
AcDbEntity
  8
0
100
AcDbBlockEnd
  0
BLOCK
  5
129
330
128
100
AcDbEntity
  8
0
100
AcDbBlockBegin
  2
_D_2
 70
     0
 10
0.0
 20
0.0
 30
0.0
  3
_D_2
  1

  0
SOLID
  5
12B
330
128
100
AcDbEntity
  8
VERMASSUNG
100
AcDbTrace
 10
213.3042708941
 20
158.262406015
 30
0.0
 11
210.3042708941
 21
158.712406015
 31
0.0
 12
210.3042708941
 22
157.812406015
 32
0.0
 13
210.3042708941
 23
157.812406015
 33
0.0
  0
SOLID
  5
12C
330
128
100
AcDbEntity
  8
VERMASSUNG
100
AcDbTrace
 10
85.3042708941
 20
158.262406015
 30
0.0
 11
88.3042708941
 21
157.812406015
 31
0.0
 12
88.3042708941
 22
158.712406015
 32
0.0
 13
88.3042708941
 23
158.712406015
 33
0.0
  0
LINE
  5
12D
330
128
100
AcDbEntity
  8
VERMASSUNG
100
AcDbLine
 10
213.3042708941
 20
138.0923952254
 30
0.0
 11
213.3042708941
 21
159.262406015
 31
0.0
  0
LINE
  5
12E
330
128
100
AcDbEntity
  8
VERMASSUNG
100
AcDbLine
 10
85.3042708941
 20
126.3823952254
 30
0.0
 11
85.3042708941
 21
159.262406015
 31
0.0
  0
LINE
  5
12F
330
128
100
AcDbEntity
  8
VERMASSUNG
100
AcDbLine
 10
213.3042708941
 20
158.262406015
 30
0.0
 11
85.3042708941
 21
158.262406015
 31
0.0
  0
MTEXT
  5
130
330
128
100
AcDbEntity
  8
VERMASSUNG
100
AcDbMText
 10
147.404270862
 20
160.840541611
 30
0.0
 40
2.0
 41
0.0
 71
     1
 72
     1
  1
128
  7
SLDTEXTSTYLE0
 73
     1
 44
1.0
  0
ENDBLK
  5
12A
330
128
100
AcDbEntity
  8
0
100
AcDbBlockEnd
  0
BLOCK
  5
133
330
132
100
AcDbEntity
  8
0
100
AcDbBlockBegin
  2
_D_3
 70
     0
 10
0.0
 20
0.0
 30
0.0
  3
_D_3
  1

  0
SOLID
  5
135
330
132
100
AcDbEntity
  8
VERMASSUNG
100
AcDbTrace
 10
75.3042708941
 20
138.5923952254
 30
0.0
 11
74.8542708941
 21
135.5923952254
 31
0.0
 12
75.7542708941
 22
135.5923952254
 32
0.0
 13
75.7542708941
 23
135.5923952254
 33
0.0
  0
SOLID
  5
136
330
132
100
AcDbEntity
  8
VERMASSUNG
100
AcDbTrace
 10
75.3042708941
 20
88.5923952254
 30
0.0
 11
75.7542708941
 21
91.5923952254
 31
0.0
 12
74.8542708941
 22
91.5923952254
 32
0.0
 13
74.8542708941
 23
91.5923952254
 33
0.0
  0
LINE
  5
137
330
132
100
AcDbEntity
  8
VERMASSUNG
100
AcDbLine
 10
113.8042708941
 20
138.5923952254
 30
0.0
 11
74.3042708941
 21
138.5923952254
 31
0.0
  0
LINE
  5
138
330
132
100
AcDbEntity
  8
VERMASSUNG
100
AcDbLine
 10
113.8042708941
 20
88.5923952254
 30
0.0
 11
74.3042708941
 21
88.5923952254
 31
0.0
  0
LINE
  5
139
330
132
100
AcDbEntity
  8
VERMASSUNG
100
AcDbLine
 10
75.3042708941
 20
138.5923952254
 30
0.0
 11
75.3042708941
 21
88.5923952254
 31
0.0
  0
MTEXT
  5
13A
330
132
100
AcDbEntity
  8
VERMASSUNG
100
AcDbMText
 10
72.5261356378
 20
108.4873952361
 30
0.0
 40
2.0
 41
0.0
 71
     1
 72
     1
  1
WH
  7
SLDTEXTSTYLE0
 11
-7.044195017643634E-15
 21
1.0
 31
0.0
 73
     1
 44
1.0
  0
MTEXT
  5
13B
330
132
100
AcDbEntity
  8
VERMASSUNG
100
AcDbMText
 10
72.7261355891
 20
112.2873953002
 30
0.0
 40
2.0
 41
0.0
 71
     1
 72
     1
  1
%%c
  7
SLDTEXTSTYLE0
 11
-7.044195017643634E-15
 21
1.0
 31
0.0
 73
     1
 44
1.0
  0
MTEXT
  5
13C
330
132
100
AcDbEntity
  8
VERMASSUNG
100
AcDbMText
 10
72.5261356378
 20
115.8973953145
 30
0.0
 40
2.0
 41
0.0
 71
     1
 72
     1
  1
50
  7
SLDTEXTSTYLE0
 11
-7.044195017643634E-15
 21
1.0
 31
0.0
 73
     1
 44
1.0
  0
ENDBLK
  5
134
330
132
100
AcDbEntity
  8
0
100
AcDbBlockEnd
  0
BLOCK
  5
13F
330
13E
100
AcDbEntity
  8
0
100
AcDbBlockBegin
  2
_D_4
 70
     0
 10
0.0
 20
0.0
 30
0.0
  3
_D_4
  1

  0
SOLID
  5
141
330
13E
100
AcDbEntity
  8
VERMASSUNG
100
AcDbTrace
 10
224.2409980212
 20
127.5923952254
 30
0.0
 11
223.7909980212
 21
124.5923952254
 31
0.0
 12
224.6909980212
 22
124.5923952254
 32
0.0
 13
224.6909980212
 23
124.5923952254
 33
0.0
  0
SOLID
  5
142
330
13E
100
AcDbEntity
  8
VERMASSUNG
100
AcDbTrace
 10
224.2409980212
 20
99.5923952254
 30
0.0
 11
224.6909980212
 21
102.5923952254
 31
0.0
 12
223.7909980212
 22
102.5923952254
 32
0.0
 13
223.7909980212
 23
102.5923952254
 33
0.0
  0
LINE
  5
143
330
13E
100
AcDbEntity
  8
VERMASSUNG
100
AcDbLine
 10
212.3042708941
 20
127.5923952254
 30
0.0
 11
225.2409980212
 21
127.5923952254
 31
0.0
  0
LINE
  5
144
330
13E
100
AcDbEntity
  8
VERMASSUNG
100
AcDbLine
 10
212.3042708941
 20
99.5923952254
 30
0.0
 11
225.2409980212
 21
99.5923952254
 31
0.0
  0
LINE
  5
145
330
13E
100
AcDbEntity
  8
VERMASSUNG
100
AcDbLine
 10
224.2409980212
 20
127.5923952254
 30
0.0
 11
224.2409980212
 21
99.5923952254
 31
0.0
  0
MTEXT
  5
146
330
13E
100
AcDbEntity
  8
VERMASSUNG
100
AcDbMText
 10
221.6628627163
 20
110.3873952682
 30
0.0
 40
2.0
 41
0.0
 71
     1
 72
     1
  1
%%c
  7
SLDTEXTSTYLE0
 11
-7.044195017643634E-15
 21
1.0
 31
0.0
 73
     1
 44
1.0
  0
MTEXT
  5
147
330
13E
100
AcDbEntity
  8
VERMASSUNG
100
AcDbMText
 10
221.462862765
 20
113.9973952825
 30
0.0
 40
2.0
 41
0.0
 71
     1
 72
     1
  1
28
  7
SLDTEXTSTYLE0
 11
-7.044195017643634E-15
 21
1.0
 31
0.0
 73
     1
 44
1.0
  0
ENDBLK
  5
140
330
13E
100
AcDbEntity
  8
0
100
AcDbBlockEnd
  0
ENDSEC
  0
SECTION
  2
ENTITIES
  0
MTEXT
  5
78
330
1F
100
AcDbEntity
  8
KOPF_DÜNN
100
AcDbMText
 10
13.8892156294
 20
23.8442973028
 30
0.0
 40
3.0
 41
0.0
 71
     1
 72
     1
  1
A64.050.050.100
  7
SLDTEXTSTYLE0
 73
     1
 44
1.0
  0
MTEXT
  5
79
330
1F
100
AcDbEntity
  8
VERMASSUNG
100
AcDbMText
 10
13.9329988022
 20
28.8834360957
 30
0.0
 40
3.0
 41
0.0
 71
     1
 72
     1
  1
Verlängerung_Extensions
  7
SLDTEXTSTYLE0
 73
     1
 44
1.0
  0
MTEXT
  5
7A
330
1F
100
AcDbEntity
  8
VERMASSUNG
100
AcDbMText
 10
98.8601118557
 20
13.8365368761
 30
0.0
 40
2.0
 41
0.0
 71
     1
 72
     1
  1
Datum: 05.12.2011
  7
SLDTEXTSTYLE0
 73
     1
 44
1.0
  0
MTEXT
  5
7B
330
1F
100
AcDbEntity
  8
VERMASSUNG
100
AcDbMText
 10
13.933048693
 20
18.0482802738
 30
0.0
 40
2.0
 41
0.0
 71
     1
 72
     1
  1
WH ø50
  7
SLDTEXTSTYLE0
 73
     1
 44
1.0
  0
MTEXT
  5
7C
330
1F
100
AcDbEntity
  8
VERMASSUNG
100
AcDbMText
 10
13.9808475933
 20
13.9090974274
 30
0.0
 40
2.0
 41
0.0
 71
     1
 72
     1
  1
Gewicht: 1484g
  7
SLDTEXTSTYLE0
 73
     1
 44
1.0
  0
LINE
  5
7D
330
1F
100
AcDbEntity
  8
0
  6
Continuous
 62
     7
370
    25
100
AcDbLine
 10
192.5094890677
 20
138.5923952254
 30
0.0
 11
113.8042708941
 21
138.5923952254
 31
0.0
  0
LINE
  5
7E
330
1F
100
AcDbEntity
  8
0
  6
Continuous
 62
     7
370
    25
100
AcDbLine
 10
212.8042708941
 20
138.5923952254
 30
0.0
 11
205.9839701685
 21
138.5923952254
 31
0.0
  0
LINE
  5
7F
330
1F
100
AcDbEntity
  8
0
  6
Continuous
 62
     7
370
    25
100
AcDbLine
 10
113.8042708941
 20
88.5923952254
 30
0.0
 11
212.8042708941
 21
88.5923952254
 31
0.0
  0
LINE
  5
80
330
1F
100
AcDbEntity
  8
0
  6
Continuous
 62
     7
370
    25
100
AcDbLine
 10
212.8042708941
 20
88.5923952254
 30
0.0
 11
213.3042708941
 21
89.0923952254
 31
0.0
  0
LINE
  5
81
330
1F
100
AcDbEntity
  8
0
  6
Continuous
 62
     7
370
    25
100
AcDbLine
 10
213.3042708941
 20
138.0923952254
 30
0.0
 11
212.8042708941
 21
138.5923952254
 31
0.0
  0
LINE
  5
82
330
1F
100
AcDbEntity
  8
0
  6
Continuous
 62
     7
370
    25
100
AcDbLine
 10
113.8042708941
 20
138.5923952254
 30
0.0
 11
113.3042708941
 21
138.0923952254
 31
0.0
  0
LINE
  5
83
330
1F
100
AcDbEntity
  8
0
  6
Continuous
 62
     7
370
    25
100
AcDbLine
 10
113.3042708941
 20
89.0923952254
 30
0.0
 11
113.8042708941
 21
88.5923952254
 31
0.0
  0
ARC
  5
84
330
1F
100
AcDbEntity
  8
0
  6
Continuous
 62
     7
370
    25
100
AcDbCircle
 10
112.9042708941
 20
99.3423952254
 30
0.0
 40
0.6000000000000054
100
AcDbArc
 50
48.1896851042
 51
90.0
  0
ARC
  5
85
330
1F
100
AcDbEntity
  8
0
  6
Continuous
 62
     7
370
    25
100
AcDbCircle
 10
112.9042708941
 20
127.8423952254
 30
0.0
 40
0.6000000000000227
100
AcDbArc
 50
270.0
 51
311.8103148958
  0
LINE
  5
86
330
1F
100
AcDbEntity
  8
0
  6
Continuous
 62
     7
370
    25
100
AcDbLine
 10
92.3042708941
 20
99.5923952254
 30
0.0
 11
110.8042708941
 21
99.5923952254
 31
0.0
  0
LINE
  5
87
330
1F
100
AcDbEntity
  8
0
  6
Continuous
 62
     7
370
    25
100
AcDbLine
 10
92.5571720223
 20
127.5923952254
 30
0.0
 11
92.3042708941
 21
127.5923952254
 31
0.0
  0
LINE
  5
88
330
1F
100
AcDbEntity
  8
0
  6
Continuous
 62
     7
370
    25
100
AcDbLine
 10
110.8042708941
 20
127.5923952254
 30
0.0
 11
106.5523855152
 21
127.5923952254
 31
0.0
  0
LINE
  5
89
330
1F
100
AcDbEntity
  8
0
  6
Continuous
 62
     7
370
    25
100
AcDbLine
 10
92.3042708941
 20
127.5923952254
 30
0.0
 11
87.9798186267
 21
127.0975813436
 31
0.0
  0
LINE
  5
8A
330
1F
100
AcDbEntity
  8
0
  6
Continuous
 62
     7
370
    25
100
AcDbLine
 10
87.9798186267
 20
100.0872091072
 30
0.0
 11
92.3042708941
 21
99.5923952254
 31
0.0
  0
LINE
  5
8B
330
1F
100
AcDbEntity
  8
0
  6
Continuous
 62
     7
370
    25
100
AcDbLine
 10
110.8042708941
 20
99.5923952254
 30
0.0
 11
112.0341887482
 21
99.9219507212
 31
0.0
  0
LINE
  5
8C
330
1F
100
AcDbEntity
  8
0
  6
Continuous
 62
     7
370
    25
100
AcDbLine
 10
112.0341887482
 20
127.2628397296
 30
0.0
 11
110.8042708941
 21
127.5923952254
 31
0.0
  0
ARC
  5
8D
330
1F
100
AcDbEntity
  8
0
  6
Continuous
 62
     7
370
    25
100
AcDbCircle
 10
86.5042708941
 20
100.8023952254
 30
0.0
 40
1.2
100
AcDbArc
 50
180.0
 51
300.0
  0
ARC
  5
8E
330
1F
100
AcDbEntity
  8
0
  6
Continuous
 62
     7
370
    25
100
AcDbCircle
 10
86.5042708941
 20
126.3823952254
 30
0.0
 40
1.2
100
AcDbArc
 50
60.0
 51
180.0
  0
LINE
  5
8F
330
1F
100
AcDbEntity
  8
0
  6
Continuous
 62
     7
370
    25
100
AcDbLine
 10
87.1042708941
 20
99.7631647409
 30
0.0
 11
87.4888741746
 21
99.9852155484
 31
0.0
  0
LINE
  5
90
330
1F
100
AcDbEntity
  8
0
  6
Continuous
 62
     7
370
    25
100
AcDbLine
 10
87.4888741746
 20
127.1995749024
 30
0.0
 11
87.1042708941
 21
127.4216257099
 31
0.0
  0
ARC
  5
91
330
1F
100
AcDbEntity
  8
0
  6
Continuous
 62
     7
370
    25
100
AcDbCircle
 10
112.1894801753
 20
99.3423952254
 30
0.0
 40
0.6000000000000034
100
AcDbArc
 50
90.0
 51
105.0
  0
ARC
  5
92
330
1F
100
AcDbEntity
  8
0
  6
Continuous
 62
     7
370
    25
100
AcDbCircle
 10
112.1894801753
 20
127.8423952254
 30
0.0
 40
0.6000000000000227
100
AcDbArc
 50
255.0
 51
270.0
  0
LINE
  5
93
330
1F
100
AcDbEntity
  8
0
  6
Continuous
 62
     7
370
    25
100
AcDbLine
 10
112.1894801753
 20
99.9423952254
 30
0.0
 11
112.9042708941
 21
99.9423952254
 31
0.0
  0
LINE
  5
94
330
1F
100
AcDbEntity
  8
0
  6
Continuous
 62
     7
370
    25
100
AcDbLine
 10
112.9042708941
 20
127.2423952254
 30
0.0
 11
112.1894801753
 21
127.2423952254
 31
0.0
  0
ARC
  5
95
330
1F
100
AcDbEntity
  8
0
  6
Continuous
 62
     7
370
    25
100
AcDbCircle
 10
87.8888741746
 20
99.2923952254
 30
0.0
 40
0.8000000000000067
100
AcDbArc
 50
83.4724720784
 51
120.0
  0
ARC
  5
96
330
1F
100
AcDbEntity
  8
0
  6
Continuous
 62
     7
370
    25
100
AcDbCircle
 10
87.8888741746
 20
127.8923952254
 30
0.0
 40
0.8000000000000189
100
AcDbArc
 50
240.0
 51
276.5275279216
  0
LINE
  5
97
330
1F
100
AcDbEntity
  8
0
  6
Continuous
 62
     7
370
    25
100
AcDbLine
 10
195.2204705465
 20
138.1200753996
 30
0.0
 11
203.2940357154
 21
138.1200753996
 31
0.0
  0
SPLINE
  5
98
330
1F
100
AcDbEntity
  8
0
  6
Continuous
 62
     7
370
    25
100
AcDbSpline
210
0.0
220
0.0
230
1.0
 70
    24
 71
     3
 72
    15
 73
    11
 74
     0
 42
0.000000001
 43
0.00000001
 40
0.0
 40
0.0
 40
0.0
 40
0.0
 40
0.1077869592233265
 40
0.2161701819135326
 40
0.3273150562947909
 40
0.4399598612360039
 40
0.5934902695338359
 40
0.7521517812193677
 40
0.8755082115460534
 40
1.0
 40
1.0
 40
1.0
 40
1.0
 10
196.2281679604132
 20
115.2784263742853
 30
0.0
 10
196.2299590656643
 20
115.1611639319765
 30
0.0
 10
196.2335511843283
 20
114.9259903667496
 30
0.0
 10
196.2392144748329
 20
114.5552185901231
 30
0.0
 10
196.2451357711015
 20
114.1675553516469
 30
0.0
 10
196.2520344756143
 20
113.7159018603511
 30
0.0
 10
196.2599045631079
 20
113.20065258613
 30
0.0
 10
196.2677917730848
 20
112.6842823145721
 30
0.0
 10
196.2748773215064
 20
112.220396279678
 30
0.0
 10
196.2790018896315
 20
111.9503636104552
 30
0.0
 10
196.2810736207297
 20
111.8147287848433
 30
0.0
  0
SPLINE
  5
99
330
1F
100
AcDbEntity
  8
0
  6
Continuous
 62
     7
370
    25
100
AcDbSpline
210
0.0
220
0.0
230
1.0
 70
    24
 71
     3
 72
    11
 73
     7
 74
     0
 42
0.000000001
 43
0.00000001
 40
0.0
 40
0.0
 40
0.0
 40
0.0
 40
0.2164553779443485
 40
0.4403112895790551
 40
0.751900568803878
 40
1.0
 40
1.0
 40
1.0
 40
1.0
 10
196.2810736207297
 20
111.8147287848433
 30
0.0
 10
196.4883646037061
 20
111.6992340175321
 30
0.0
 10
196.9100337758894
 20
111.464295757197
 30
0.0
 10
197.6925391386127
 20
111.0283130941314
 30
0.0
 10
198.5319165051608
 20
110.5606434818609
 30
0.0
 10
199.0690676154941
 20
110.2613630133709
 30
0.0
 10
199.3071765543716
 20
110.1286976359603
 30
0.0
  0
SPLINE
  5
9A
330
1F
100
AcDbEntity
  8
0
  6
Continuous
 62
     7
370
    25
100
AcDbSpline
210
0.0
220
0.0
230
1.0
 70
    24
 71
     3
 72
    11
 73
     7
 74
     0
 42
0.000000001
 43
0.00000001
 40
0.0
 40
0.0
 40
0.0
 40
0.0
 40
0.1849308168246182
 40
0.5198464202157834
 40
0.8714438233692571
 40
1.0
 40
1.0
 40
1.0
 40
1.0
 10
199.3071765543716
 20
110.1286976359603
 30
0.0
 10
199.4802311630893
 20
110.2321665086992
 30
0.0
 10
199.9666931837974
 20
110.5230208077321
 30
0.0
 10
200.8747674430418
 20
111.065955900091
 30
0.0
 10
201.7134111752567
 20
111.5673786720405
 30
0.0
 10
202.1606344114613
 20
111.8347722101591
 30
0.0
 10
202.2803738276971
 20
111.9063640765194
 30
0.0
  0
SPLINE
  5
9B
330
1F
100
AcDbEntity
  8
0
  6
Continuous
 62
     7
370
    25
100
AcDbSpline
210
0.0
220
0.0
230
1.0
 70
    24
 71
     3
 72
    15
 73
    11
 74
     0
 42
0.000000001
 43
0.00000001
 40
0.0
 40
0.0
 40
0.0
 40
0.0
 40
0.1077869592233276
 40
0.2161701819135337
 40
0.3273150562947944
 40
0.4399598612360057
 40
0.593490269533847
 40
0.7521517812193728
 40
0.8755082115460592
 40
1.0
 40
1.0
 40
1.0
 40
1.0
 10
202.2803738276971
 20
111.9063640765194
 30
0.0
 10
202.278582722446
 20
112.0236265188282
 30
0.0
 10
202.2749906037821
 20
112.2588000840551
 30
0.0
 10
202.2693273132775
 20
112.6295718606815
 30
0.0
 10
202.2634060170089
 20
113.0172350991577
 30
0.0
 10
202.256507312496
 20
113.4688885904536
 30
0.0
 10
202.2486372250025
 20
113.9841378646747
 30
0.0
 10
202.2407500150255
 20
114.5005081362326
 30
0.0
 10
202.233664466604
 20
114.9643941711267
 30
0.0
 10
202.2295398984789
 20
115.2344268403494
 30
0.0
 10
202.2274681673807
 20
115.3700616659614
 30
0.0
  0
SPLINE
  5
9C
330
1F
100
AcDbEntity
  8
0
  6
Continuous
 62
     7
370
    25
100
AcDbSpline
210
0.0
220
0.0
230
1.0
 70
    24
 71
     3
 72
    11
 73
     7
 74
     0
 42
0.000000001
 43
0.00000001
 40
0.0
 40
0.0
 40
0.0
 40
0.0
 40
0.2164553779443459
 40
0.4403112895790501
 40
0.751900568803873
 40
1.0
 40
1.0
 40
1.0
 40
1.0
 10
202.2274681673806
 20
115.3700616659614
 30
0.0
 10
202.0201771844043
 20
115.4855564332726
 30
0.0
 10
201.5985080122209
 20
115.7204946936077
 30
0.0
 10
200.8160026494976
 20
116.1564773566732
 30
0.0
 10
199.9766252829496
 20
116.6241469689438
 30
0.0
 10
199.4394741726162
 20
116.9234274374337
 30
0.0
 10
199.2013652337387
 20
117.0560928148443
 30
0.0
  0
SPLINE
  5
9D
330
1F
100
AcDbEntity
  8
0
  6
Continuous
 62
     7
370
    25
100
AcDbSpline
210
0.0
220
0.0
230
1.0
 70
    24
 71
     3
 72
    11
 73
     7
 74
     0
 42
0.000000001
 43
0.00000001
 40
0.0
 40
0.0
 40
0.0
 40
0.0
 40
0.1285561766307331
 40
0.4801535797842126
 40
0.815069183175388
 40
1.0
 40
1.0
 40
1.0
 40
1.0
 10
199.2013652337387
 20
117.0560928148443
 30
0.0
 10
199.0816258175029
 20
116.9845009484841
 30
0.0
 10
198.6344025812983
 20
116.7171074103655
 30
0.0
 10
197.7957588490834
 20
116.215684638416
 30
0.0
 10
196.887684589839
 20
115.672749546057
 30
0.0
 10
196.4012225691309
 20
115.3818952470242
 30
0.0
 10
196.2281679604132
 20
115.2784263742853
 30
0.0
  0
CIRCLE
  5
9E
330
1F
100
AcDbEntity
  8
0
  6
Continuous
 62
     7
370
    25
100
AcDbCircle
 10
199.2542708941
 20
113.5923952254
 30
0.0
 40
3.600000000000003
  0
CIRCLE
  5
9F
330
1F
100
AcDbEntity
  8
0
  6
Continuous
 62
     7
370
    25
100
AcDbCircle
 10
199.2542708941
 20
113.5923952254
 30
0.0
 40
5.3
  0
ARC
  5
A0
330
1F
100
AcDbEntity
  8
0
  6
Continuous
 62
     7
370
    25
100
AcDbCircle
 10
199.2542708941
 20
113.5923952254
 30
0.0
 40
3.000000000000027
100
AcDbArc
 50
60.8750865993
 51
120.8750865993
  0
ARC
  5
A1
330
1F
100
AcDbEntity
  8
0
  6
Continuous
 62
     7
370
    25
100
AcDbCircle
 10
199.2542708941
 20
113.5923952254
 30
0.0
 40
3.000000000000027
100
AcDbArc
 50
120.8750865993
 51
180.8750865993
  0
ARC
  5
A2
330
1F
100
AcDbEntity
  8
0
  6
Continuous
 62
     7
370
    25
100
AcDbCircle
 10
199.2542708941
 20
113.5923952254
 30
0.0
 40
3.000000000000016
100
AcDbArc
 50
0.8750865993
 51
60.8750865993
  0
ARC
  5
A3
330
1F
100
AcDbEntity
  8
0
  6
Continuous
 62
     7
370
    25
100
AcDbCircle
 10
199.2542708941
 20
113.5923952254
 30
0.0
 40
3.000000000000016
100
AcDbArc
 50
300.8750865993
 51
0.8750865993
  0
ARC
  5
A4
330
1F
100
AcDbEntity
  8
0
  6
Continuous
 62
     7
370
    25
100
AcDbCircle
 10
199.2542708941
 20
113.5923952254
 30
0.0
 40
3.000000000000008
100
AcDbArc
 50
180.8750865993
 51
240.8750865993
  0
ARC
  5
A5
330
1F
100
AcDbEntity
  8
0
  6
Continuous
 62
     7
370
    25
100
AcDbCircle
 10
199.2542708941
 20
113.5923952254
 30
0.0
 40
3.000000000000008
100
AcDbArc
 50
240.8750865993
 51
300.8750865993
  0
SPLINE
  5
A6
330
1F
100
AcDbEntity
  8
0
  6
Continuous
 62
     7
370
    25
100
AcDbSpline
210
0.0
220
0.0
230
1.0
 70
    11
 71
     3
 72
    93
 73
    89
 74
     0
 42
0.000000001
 43
0.00000001
 40
0.0
 40
0.0
 40
0.0
 40
0.0
 40
0.0312499999999986
 40
0.0312499999999986
 40
0.0624999999999973
 40
0.0624999999999973
 40
0.0937499999999959
 40
0.0937499999999959
 40
0.1093749999999952
 40
0.1093749999999952
 40
0.1249999999999945
 40
0.1406249999999938
 40
0.1406249999999938
 40
0.1562499999999931
 40
0.1562499999999931
 40
0.1874999999999917
 40
0.1874999999999917
 40
0.2031249999999908
 40
0.2031249999999908
 40
0.2187499999999899
 40
0.2187499999999899
 40
0.249999999999988
 40
0.249999999999988
 40
0.2812499999999862
 40
0.2812499999999862
 40
0.2968749999999852
 40
0.2968749999999852
 40
0.3124999999999843
 40
0.3124999999999843
 40
0.3437499999999835
 40
0.3437499999999835
 40
0.3749999999999826
 40
0.3749999999999826
 40
0.4062499999999818
 40
0.4062499999999818
 40
0.4374999999999809
 40
0.4374999999999809
 40
0.453124999999981
 40
0.453124999999981
 40
0.468749999999981
 40
0.468749999999981
 40
0.4999999999999811
 40
0.4999999999999811
 40
0.5156249999999816
 40
0.5156249999999816
 40
0.531249999999982
 40
0.531249999999982
 40
0.5624999999999836
 40
0.5624999999999836
 40
0.5781249999999841
 40
0.5781249999999841
 40
0.5937499999999847
 40
0.5937499999999847
 40
0.6249999999999856
 40
0.6249999999999856
 40
0.640624999999986
 40
0.640624999999986
 40
0.6562499999999865
 40
0.6562499999999865
 40
0.6718749999999869
 40
0.6718749999999869
 40
0.6874999999999872
 40
0.6874999999999872
 40
0.7187499999999886
 40
0.7187499999999886
 40
0.7499999999999899
 40
0.7499999999999899
 40
0.7812499999999912
 40
0.7812499999999912
 40
0.8124999999999925
 40
0.8124999999999925
 40
0.8281249999999931
 40
0.8281249999999931
 40
0.8437499999999938
 40
0.8437499999999938
 40
0.8749999999999951
 40
0.8749999999999951
 40
0.8906249999999958
 40
0.8906249999999958
 40
0.9062499999999964
 40
0.9062499999999964
 40
0.9374999999999966
 40
0.9374999999999966
 40
0.9531249999999972
 40
0.9531249999999972
 40
0.9687499999999979
 40
0.9687499999999979
 40
1.0
 40
1.0
 40
1.0
 40
1.0
 10
194.7101114525878
 20
109.1530981063995
 30
0.0
 10
194.3843589312834
 20
109.4181149812811
 30
0.0
 10
194.0883033239034
 20
109.7101948117339
 30
0.0
 10
193.5576329239566
 20
110.3511786872839
 30
0.0
 10
193.3217314410958
 20
110.7040152911994
 30
0.0
 10
192.9379856394817
 20
111.4404927525229
 30
0.0
 10
192.787029339552
 20
111.8266107794397
 30
0.0
 10
192.6272656220396
 20
112.4351526577885
 30
0.0
 10
192.5852951029095
 20
112.6437131764453
 30
0.0
 10
192.5269820417166
 20
113.0587764360226
 30
0.0
 10
192.4933543871355
 20
113.4746315640729
 30
0.0
 10
192.5085771304007
 20
113.8920551065965
 30
0.0
 10
192.5487518743105
 20
114.3102794507426
 30
0.0
 10
192.5816385189887
 20
114.5205017669934
 30
0.0
 10
192.7150748081478
 20
115.1354703670988
 30
0.0
 10
192.850181502001
 20
115.5301462584911
 30
0.0
 10
193.1191496434538
 20
116.1003273141043
 30
0.0
 10
193.2196839224232
 20
116.2858349843409
 30
0.0
 10
193.4378169269412
 20
116.6416502672143
 30
0.0
 10
193.5558816674613
 20
116.8129796190212
 30
0.0
 10
193.9359727971892
 20
117.308153151446
 30
0.0
 10
194.2268114857223
 20
117.6155335959484
 30
0.0
 10
194.8545530136224
 20
118.1625332449527
 30
0.0
 10
195.1923913961135
 20
118.4044962791203
 30
0.0
 10
195.7339102245119
 20
118.7223965226193
 30
0.0
 10
195.9204350502107
 20
118.8207627412349
 30
0.0
 10
196.2981944452023
 20
118.9990835963631
 30
0.0
 10
196.4902622247721
 20
119.0795626086729
 30
0.0
 10
197.075781379558
 20
119.2957928737907
 30
0.0
 10
197.4789237425025
 20
119.4066401900003
 30
0.0
 10
198.3087079639185
 20
119.5600853224533
 30
0.0
 10
198.7245477915641
 20
119.6007601250787
 30
0.0
 10
199.558043030735
 20
119.6133058205811
 30
0.0
 10
199.9777493585827
 20
119.5848447247712
 30
0.0
 10
200.8101675406014
 20
119.4566764172531
 30
0.0
 10
201.2151547616334
 20
119.358529290286
 30
0.0
 10
201.8062065212945
 20
119.1610196995635
 30
0.0
 10
202.0004686200366
 20
119.0867474598617
 30
0.0
 10
202.383334500722
 20
118.9207743162684
 30
0.0
 10
202.5728872550771
 20
118.8285349540542
 30
0.0
 10
203.1247940124456
 20
118.5284165544099
 30
0.0
 10
203.4694778601204
 20
118.298494951396
 30
0.0
 10
203.9512834313185
 20
117.9077324678864
 30
0.0
 10
204.1059744293494
 20
117.7697782088526
 30
0.0
 10
204.4029170296521
 20
117.4775409892192
 30
0.0
 10
204.5459429731499
 20
117.3222317416577
 30
0.0
 10
204.9462593513259
 20
116.8402487643416
 30
0.0
 10
205.176948750459
 20
116.4966441220475
 30
0.0
 10
205.4662590333828
 20
115.9458879870694
 30
0.0
 10
205.5531714903868
 20
115.7563682743803
 30
0.0
 10
205.7065169221515
 20
115.3645096249633
 30
0.0
 10
205.7723397839478
 20
115.163194047631
 30
0.0
 10
205.9325425852309
 20
114.5570437432662
 30
0.0
 10
205.9922103641985
 20
114.1448272161202
 30
0.0
 10
206.0078529256588
 20
113.5137449845905
 30
0.0
 10
206.0004063784226
 20
113.3007117576611
 30
0.0
 10
205.9608750068995
 20
112.8825559194455
 30
0.0
 10
205.9289105578843
 20
112.6759095308908
 30
0.0
 10
205.8412567166391
 20
112.2673378890041
 30
0.0
 10
205.7855661191367
 20
112.0654128923759
 30
0.0
 10
205.650356265728
 20
111.6662909937512
 30
0.0
 10
205.5710102519782
 20
111.4700802410899
 30
0.0
 10
205.3039685524493
 20
110.9021889208265
 30
0.0
 10
205.0861144175571
 20
110.5464840603041
 30
0.0
 10
204.5744192780613
 20
109.8782491483999
 30
0.0
 10
204.2876213375223
 20
109.5750977447628
 30
0.0
 10
203.6605434511405
 20
109.027275122068
 30
0.0
 10
203.3163913150664
 20
108.7805602534892
 30
0.0
 10
202.5969501841576
 20
108.3579614271751
 30
0.0
 10
202.2204672324748
 20
108.1801909512744
 30
0.0
 10
201.6311279579801
 20
107.962108618626
 30
0.0
 10
201.4296086890245
 20
107.8973501924517
 30
0.0
 10
201.0244020558808
 20
107.7861365781522
 30
0.0
 10
200.8204600797475
 20
107.7394866413693
 30
0.0
 10
200.2047258490781
 20
107.6255813546401
 30
0.0
 10
199.7890558467255
 20
107.584154790173
 30
0.0
 10
199.1576310887411
 20
107.5745783043726
 30
0.0
 10
198.9455240521903
 20
107.5803197290637
 30
0.0
 10
198.5267002291477
 20
107.609312491013
 30
0.0
 10
198.3189796628166
 20
107.6325113911756
 30
0.0
 10
197.700807655407
 20
107.7278346752032
 30
0.0
 10
197.2953029319936
 20
107.8254497909615
 30
0.0
 10
196.6973669896351
 20
108.0255174150644
 30
0.0
 10
196.5001290760474
 20
108.1012100534712
 30
0.0
 10
196.1168891931319
 20
108.2679107557841
 30
0.0
 10
195.9299035655961
 20
108.3592249904034
 30
0.0
 10
195.3828323020701
 20
108.6571927375842
 30
0.0
 10
195.0358639738922
 20
108.888081231518
 30
0.0
 10
194.7101114525878
 20
109.1530981063995
 30
0.0
  0
LINE
  5
A7
330
1F
100
AcDbEntity
  8
0
  6
Continuous
 62
     7
370
    25
100
AcDbLine
 10
212.8042708941
 20
138.5923952254
 30
0.0
 11
212.8042708941
 21
88.5923952254
 31
0.0
  0
SPLINE
  5
A8
330
1F
100
AcDbEntity
  8
0
  6
Continuous
 62
     7
370
    25
100
AcDbSpline
210
0.0
220
0.0
230
1.0
 70
     8
 71
     3
 72
    37
 73
    33
 74
     0
 42
0.000000001
 43
0.00000001
 40
0.0
 40
0.0
 40
0.0
 40
0.0
 40
0.0256095286331384
 40
0.0493197917023725
 40
0.0708340981445908
 40
0.1145414984290935
 40
0.1367683247423039
 40
0.1593986281717867
 40
0.205297975402734
 40
0.2285933389783906
 40
0.2538107020099498
 40
0.3049553933379087
 40
0.3309167481388794
 40
0.3589004461366733
 40
0.4157215720929235
 40
0.4446120113885447
 40
0.4742199570135344
 40
0.5344153480820921
 40
0.5650723591402267
 40
0.5950549408969655
 40
0.6252483002908836
 40
0.6561162445844125
 40
0.6872227689884497
 40
0.7167127167683178
 40
0.7768208958877283
 40
0.807554536463858
 40
0.8348684891213468
 40
0.8906731865800486
 40
0.9192962804579508
 40
0.9431297384542837
 40
0.9917720907540447
 40
0.9999999999999999
 40
0.9999999999999999
 40
0.9999999999999999
 40
0.9999999999999999
 10
205.9839701684783
 20
138.5880854844464
 30
0.0
 10
205.9878142930926
 20
138.5888984081056
 30
0.0
 10
205.995217452595
 20
138.5904639670084
 30
0.0
 10
205.9194319176721
 20
138.5744241691194
 30
0.0
 10
205.7883323419872
 20
138.5470304731516
 30
0.0
 10
205.5875930144574
 20
138.5059209604555
 30
0.0
 10
205.322993465526
 20
138.4540363643508
 30
0.0
 10
205.0106394518606
 20
138.39477616296
 30
0.0
 10
204.6350871215563
 20
138.3274997347874
 30
0.0
 10
204.1978232142364
 20
138.255557183216
 30
0.0
 10
203.7014713176224
 20
138.1791726934275
 30
0.0
 10
203.1405271601332
 20
138.102808176425
 30
0.0
 10
202.524652595836
 20
138.032228238982
 30
0.0
 10
201.849634573651
 20
137.9652485812795
 30
0.0
 10
201.1207141177481
 20
137.9112784174261
 30
0.0
 10
200.3614107871394
 20
137.8762599121955
 30
0.0
 10
199.5700878748538
 20
137.8548686943074
 30
0.0
 10
198.758238299449
 20
137.8572166384708
 30
0.0
 10
197.9551710651852
 20
137.8837535529309
 30
0.0
 10
197.3604341157552
 20
137.9151259923903
 30
0.0
 10
196.7776480474998
 20
137.9570223121067
 30
0.0
 10
196.2056392018029
 20
138.0088649847755
 30
0.0
 10
195.6605542552212
 20
138.0681799877497
 30
0.0
 10
194.9767130398651
 20
138.1540277557501
 30
0.0
 10
194.3539290293369
 20
138.2471990294653
 30
0.0
 10
193.8228770812565
 20
138.3367145266229
 30
0.0
 10
193.3660288072621
 20
138.4187685262965
 30
0.0
 10
193.0025405776435
 20
138.4895192258716
 30
0.0
 10
192.7500961774614
 20
138.5408878854617
 30
0.0
 10
192.5794477296342
 20
138.5763632938566
 30
0.0
 10
192.4988726802752
 20
138.5935441645652
 30
0.0
 10
192.5081472377749
 20
138.5915718014101
 30
0.0
 10
192.5094890676756
 20
138.5912864426901
 30
0.0
  0
LINE
  5
A9
330
1F
100
AcDbEntity
  8
0
  6
Continuous
 62
     7
370
    25
100
AcDbLine
 10
113.8042708941
 20
113.5923952254
 30
0.0
 11
113.8042708941
 21
138.5923952254
 31
0.0
  0
LINE
  5
AA
330
1F
100
AcDbEntity
  8
0
  6
Continuous
 62
     7
370
    25
100
AcDbLine
 10
113.8042708941
 20
88.5923952254
 30
0.0
 11
113.8042708941
 21
113.5923952254
 31
0.0
  0
LINE
  5
AB
330
1F
100
AcDbEntity
  8
0
  6
Continuous
 62
     7
370
    25
100
AcDbLine
 10
213.3042708941
 20
138.0923952254
 30
0.0
 11
213.3042708941
 21
89.0923952254
 31
0.0
  0
LINE
  5
AC
330
1F
100
AcDbEntity
  8
0
  6
Continuous
 62
     7
370
    25
100
AcDbLine
 10
113.3042708941
 20
113.5923952254
 30
0.0
 11
113.3042708941
 21
138.0923952254
 31
0.0
  0
LINE
  5
AD
330
1F
100
AcDbEntity
  8
0
  6
Continuous
 62
     7
370
    25
100
AcDbLine
 10
113.3042708941
 20
89.0923952254
 30
0.0
 11
113.3042708941
 21
113.5923952254
 31
0.0
  0
SPLINE
  5
AE
330
1F
100
AcDbEntity
  8
0
  6
Continuous
 62
     7
370
    25
100
AcDbSpline
210
0.0
220
0.0
230
1.0
 70
    11
 71
     3
 72
    76
 73
    72
 74
     0
 42
0.000000001
 43
0.00000001
 40
0.0
 40
0.0
 40
0.0
 40
0.0
 40
0.0312500000000001
 40
0.0312500000000001
 40
0.0625000000000002
 40
0.0625000000000002
 40
0.1250000000000005
 40
0.1250000000000005
 40
0.1875000000000008
 40
0.1875000000000008
 40
0.2187500000000008
 40
0.2187500000000008
 40
0.2500000000000009
 40
0.2500000000000009
 40
0.2812500000000009
 40
0.2812500000000009
 40
0.2968750000000009
 40
0.2968750000000009
 40
0.3125000000000009
 40
0.3125000000000009
 40
0.3437500000000009
 40
0.3437500000000009
 40
0.3750000000000009
 40
0.3750000000000009
 40
0.390625000000001
 40
0.390625000000001
 40
0.406250000000001
 40
0.406250000000001
 40
0.437500000000001
 40
0.437500000000001
 40
0.453125000000001
 40
0.453125000000001
 40
0.468750000000001
 40
0.468750000000001
 40
0.5000000000000009
 40
0.5000000000000009
 40
0.5156250000000009
 40
0.5156250000000009
 40
0.5312500000000008
 40
0.5312500000000008
 40
0.5625000000000007
 40
0.5625000000000007
 40
0.6250000000000006
 40
0.6250000000000006
 40
0.6875000000000004
 40
0.6875000000000004
 40
0.7187500000000003
 40
0.7187500000000003
 40
0.7500000000000002
 40
0.7500000000000002
 40
0.7812500000000002
 40
0.7812500000000002
 40
0.7968750000000001
 40
0.7968750000000001
 40
0.8125000000000001
 40
0.8125000000000001
 40
0.8437500000000001
 40
0.8437500000000001
 40
0.8750000000000001
 40
0.8750000000000001
 40
0.8906250000000001
 40
0.8906250000000001
 40
0.9062500000000002
 40
0.9062500000000002
 40
0.9375000000000002
 40
0.9375000000000002
 40
0.9531250000000001
 40
0.9531250000000001
 40
0.9687500000000001
 40
0.9687500000000001
 40
1.0
 40
1.0
 40
1.0
 40
1.0
 10
94.9286317115285
 20
109.2847188936388
 30
0.0
 10
95.2661908859063
 20
109.0388905482497
 30
0.0
 10
95.6211773959535
 20
108.8269580069649
 30
0.0
 10
96.36309725461615
 20
108.4624751581963
 30
0.0
 10
96.75034602998393
 20
108.309932279311
 30
0.0
 10
97.95996964846944
 20
107.9414444810663
 30
0.0
 10
98.7884233768298
 20
107.8242002078638
 30
0.0
 10
100.4870966498528
 20
107.8411648427305
 30
0.0
 10
101.3115704551712
 20
107.9747292680472
 30
0.0
 10
102.5115558307255
 20
108.3674857542692
 30
0.0
 10
102.8955981751795
 20
108.5281916344194
 30
0.0
 10
103.6281734909393
 20
108.9081362008691
 30
0.0
 10
103.9775166063213
 20
109.1275336520653
 30
0.0
 10
104.6391654630506
 20
109.6336168402564
 30
0.0
 10
104.9444399187825
 20
109.9153949644837
 30
0.0
 10
105.3543852009332
 20
110.3797135815459
 30
0.0
 10
105.4833567817654
 20
110.5417698310101
 30
0.0
 10
105.7245849012894
 20
110.8820040637406
 30
0.0
 10
105.8370063119738
 20
111.0607974218473
 30
0.0
 10
106.1386599634033
 20
111.6100258541609
 30
0.0
 10
106.2959260420612
 20
111.9969342606049
 30
0.0
 10
106.5090418811779
 20
112.8196016194841
 30
0.0
 10
106.5597386287011
 20
113.2371017257247
 30
0.0
 10
106.5508426108401
 20
113.8686397384694
 30
0.0
 10
106.5333267346467
 20
114.082031017968
 30
0.0
 10
106.4700867063453
 20
114.5011280446108
 30
0.0
 10
106.4247214909655
 20
114.7065383501938
 30
0.0
 10
106.2498242122797
 20
115.3111417851048
 30
0.0
 10
106.0789190095041
 20
115.702354298146
 30
0.0
 10
105.7634317038371
 20
116.2428403135986
 30
0.0
 10
105.6482657940616
 20
116.4162287807338
 30
0.0
 10
105.3990815980825
 20
116.7504153929528
 30
0.0
 10
105.2643979615051
 20
116.9118353172934
 30
0.0
 10
104.8402350619613
 20
117.3702739795059
 30
0.0
 10
104.5297977527223
 20
117.6439073377538
 30
0.0
 10
104.0264202467479
 20
118.0124872885485
 30
0.0
 10
103.8517107251093
 20
118.1285633333733
 30
0.0
 10
103.4953195138551
 20
118.3436257676881
 30
0.0
 10
103.3130979902469
 20
118.4430708806983
 30
0.0
 10
102.7547490708807
 20
118.7184600988091
 30
0.0
 10
102.3670370067436
 20
118.8716663556387
 30
0.0
 10
101.1565294956636
 20
119.2419032608622
 30
0.0
 10
100.3268898944504
 20
119.360022719806
 30
0.0
 10
98.62712174401447
 20
119.3443128156529
 30
0.0
 10
97.79995960606963
 20
119.210717872454
 30
0.0
 10
96.5995916098281
 20
118.818317395087
 30
0.0
 10
96.21401898860229
 20
118.6571161926489
 30
0.0
 10
95.48043649717691
 20
118.2767299175517
 30
0.0
 10
95.13083788815707
 20
118.05713626366
 30
0.0
 10
94.4690977094044
 20
117.5509377640718
 30
0.0
 10
94.16275811469465
 20
117.2681176872941
 30
0.0
 10
93.75248584045293
 20
116.803061380972
 30
0.0
 10
93.62347544529095
 20
116.6407942845102
 30
0.0
 10
93.38228973872495
 20
116.3002475209981
 30
0.0
 10
93.26977607834026
 20
116.1210962283532
 30
0.0
 10
92.9679307809044
 20
115.5705907192675
 30
0.0
 10
92.81089896505937
 20
115.1830509696722
 30
0.0
 10
92.59860044983326
 20
114.3598723368083
 30
0.0
 10
92.54824760582432
 20
113.9407793862374
 30
0.0
 10
92.55813956703321
 20
113.3086680292795
 30
0.0
 10
92.57599653249324
 20
113.0952357155785
 30
0.0
 10
92.64005491653285
 20
112.6754942764648
 30
0.0
 10
92.68585781419642
 20
112.4698600327225
 30
0.0
 10
92.86207211075136
 20
111.8648368922406
 30
0.0
 10
93.03389550392129
 20
111.4735417862009
 30
0.0
 10
93.35084078892132
 20
110.9329493636371
 30
0.0
 10
93.46647734637837
 20
110.7595875185852
 30
0.0
 10
93.7165538281804
 20
110.4255549516862
 30
0.0
 10
93.85162898426466
 20
110.2642799573071
 30
0.0
 10
94.27776403782585
 20
109.8055171152862
 30
0.0
 10
94.59107253715068
 20
109.5305472390279
 30
0.0
 10
94.92863171152848
 20
109.2847188936388
 30
0.0
  0
LINE
  5
AF
330
1F
100
AcDbEntity
  8
0
  6
Continuous
 62
     7
370
    25
100
AcDbLine
 10
110.8042708941
 20
113.5923952254
 30
0.0
 11
110.8042708941
 21
127.5923952254
 31
0.0
  0
LINE
  5
B0
330
1F
100
AcDbEntity
  8
0
  6
Continuous
 62
     7
370
    25
100
AcDbLine
 10
110.8042708941
 20
99.5923952254
 30
0.0
 11
110.8042708941
 21
113.5923952254
 31
0.0
  0
LINE
  5
B1
330
1F
100
AcDbEntity
  8
0
  6
Continuous
 62
     7
370
    25
100
AcDbLine
 10
92.3042708941
 20
113.5923952254
 30
0.0
 11
92.3042708941
 21
127.5923952254
 31
0.0
  0
LINE
  5
B2
330
1F
100
AcDbEntity
  8
0
  6
Continuous
 62
     7
370
    25
100
AcDbLine
 10
92.3042708941
 20
99.5923952254
 30
0.0
 11
92.3042708941
 21
113.5923952254
 31
0.0
  0
SPLINE
  5
B3
330
1F
100
AcDbEntity
  8
0
  6
Continuous
 62
     7
370
    25
100
AcDbSpline
210
0.0
220
0.0
230
1.0
 70
     8
 71
     3
 72
    39
 73
    35
 74
     0
 42
0.000000001
 43
0.00000001
 40
0.0
 40
0.0
 40
0.0
 40
0.0
 40
0.0099311806927973
 40
0.0346711020801215
 40
0.0599256575444847
 40
0.085536736403342
 40
0.1106051223549112
 40
0.1360808161796783
 40
0.161821174409114
 40
0.1909182946265145
 40
0.2204477901961647
 40
0.2502560935961622
 40
0.2855248344504026
 40
0.3213547843902521
 40
0.3575673477640883
 40
0.380414784875366
 40
0.4577264126205224
 40
0.4813509894207337
 40
0.5048818099416884
 40
0.5604019526389692
 40
0.5846917003552675
 40
0.6090819695381996
 40
0.6325501271306967
 40
0.7120472397477264
 40
0.7363801450624602
 40
0.7711667698797845
 40
0.8222324983846393
 40
0.842474747059084
 40
0.8703630636647451
 40
0.8987539219415447
 40
0.9275510897768035
 40
0.9554394022660488
 40
0.9967440015877245
 40
1.0
 40
1.0
 40
1.0
 40
1.0
 10
92.55717202227711
 20
127.5914283639236
 30
0.0
 10
92.55693821876643
 20
127.5915062908963
 30
0.0
 10
92.55612197892175
 20
127.5917783445534
 30
0.0
 10
92.5996185861062
 20
127.5772834076816
 30
0.0
 10
92.70145439064973
 20
127.5436347924275
 30
0.0
 10
92.85780436878663
 20
127.4927331052961
 30
0.0
 10
93.06219909114252
 20
127.4276136566983
 30
0.0
 10
93.31073072241537
 20
127.3506106896998
 30
0.0
 10
93.61403318381798
 20
127.2599040808557
 30
0.0
 10
93.97432405492106
 20
127.1569766603527
 30
0.0
 10
94.39255311549
 20
127.0444733865783
 30
0.0
 10
94.87803612060603
 20
126.9231617648417
 30
0.0
 10
95.43451075660384
 20
126.797050326685
 30
0.0
 10
96.06381334827104
 20
126.6723599266723
 30
0.0
 10
96.64833678989349
 20
126.5751198519225
 30
0.0
 10
97.5139090147485
 20
126.4555223183867
 30
0.0
 10
98.33731734963982
 20
126.3822311703098
 30
0.0
 10
99.17472339978114
 20
126.3543805651617
 30
0.0
 10
99.8678086635256
 20
126.3490618804227
 30
0.0
 10
100.5656019580732
 20
126.3741475523161
 30
0.0
 10
101.2560632660919
 20
126.4283582924563
 30
0.0
 10
101.7273909952992
 20
126.4772928907498
 30
0.0
 10
102.5434638697456
 20
126.5816321407875
 30
0.0
 10
103.3227499952198
 20
126.7216040620908
 30
0.0
 10
104.0977035125384
 20
126.8921874442336
 30
0.0
 10
104.6782667838701
 20
127.0329366199011
 30
0.0
 10
105.1787666622765
 20
127.1689654560061
 30
0.0
 10
105.5869822400988
 20
127.2872702083762
 30
0.0
 10
105.8683100046575
 20
127.3721080646904
 30
0.0
 10
106.1308547222852
 20
127.4542612576345
 30
0.0
 10
106.3371191278764
 20
127.5207070354319
 30
0.0
 10
106.4985308409123
 20
127.5737555613651
 30
0.0
 10
106.5605320992469
 20
127.5944824265046
 30
0.0
 10
106.5529402444723
 20
127.591951886937
 30
0.0
 10
106.5523855152194
 20
127.5917669829359
 30
0.0
  0
CIRCLE
  5
B4
330
1F
100
AcDbEntity
  8
0
  6
Continuous
 62
     7
370
    25
100
AcDbCircle
 10
99.5542708941
 20
113.5923952254
 30
0.0
 40
5.478857305403196
  0
LINE
  5
B5
330
1F
100
AcDbEntity
  8
0
  6
Continuous
 62
     7
370
    25
100
AcDbLine
 10
85.3042708941
 20
113.5923952254
 30
0.0
 11
85.3042708941
 21
126.3823952254
 31
0.0
  0
LINE
  5
B6
330
1F
100
AcDbEntity
  8
0
  6
Continuous
 62
     7
370
    25
100
AcDbLine
 10
85.3042708941
 20
100.8023952254
 30
0.0
 11
85.3042708941
 21
113.5923952254
 31
0.0
  0
SPLINE
  5
B7
330
1F
100
AcDbEntity
  8
0
  6
Continuous
 62
     7
370
    25
100
AcDbSpline
210
0.0
220
0.0
230
1.0
 70
    11
 71
     3
 72
    70
 73
    66
 74
     0
 42
0.000000001
 43
0.00000001
 40
0.0
 40
0.0
 40
0.0
 40
0.0
 40
0.0312500000000001
 40
0.0312500000000001
 40
0.0625000000000003
 40
0.0625000000000003
 40
0.0937500000000004
 40
0.0937500000000004
 40
0.1250000000000003
 40
0.1250000000000003
 40
0.1562500000000003
 40
0.1562500000000003
 40
0.1875000000000002
 40
0.1875000000000002
 40
0.2187500000000002
 40
0.2187500000000002
 40
0.2500000000000001
 40
0.2500000000000001
 40
0.28125
 40
0.28125
 40
0.3124999999999999
 40
0.3124999999999999
 40
0.3437499999999998
 40
0.3437499999999998
 40
0.3749999999999998
 40
0.3749999999999998
 40
0.4062499999999998
 40
0.4062499999999998
 40
0.4374999999999998
 40
0.4374999999999998
 40
0.4687499999999997
 40
0.4687499999999997
 40
0.4999999999999997
 40
0.4999999999999997
 40
0.5312499999999997
 40
0.5312499999999997
 40
0.5624999999999997
 40
0.5624999999999997
 40
0.5937499999999998
 40
0.5937499999999998
 40
0.6249999999999998
 40
0.6249999999999998
 40
0.6562499999999998
 40
0.6562499999999998
 40
0.6874999999999998
 40
0.6874999999999998
 40
0.7187499999999999
 40
0.7187499999999999
 40
0.7499999999999999
 40
0.7499999999999999
 40
0.7812499999999999
 40
0.7812499999999999
 40
0.8124999999999999
 40
0.8124999999999999
 40
0.84375
 40
0.84375
 40
0.875
 40
0.875
 40
0.90625
 40
0.90625
 40
0.9375
 40
0.9375
 40
0.9687500000000001
 40
0.9687500000000001
 40
1.0
 40
1.0
 40
1.0
 40
1.0
 10
96.50724245807132
 20
112.5030569641772
 30
0.0
 10
96.58958431587277
 20
112.3128759172182
 30
0.0
 10
96.68987418292274
 20
112.13825113721
 30
0.0
 10
96.92169922006127
 20
111.8143767004212
 30
0.0
 10
97.05479959494356
 20
111.6639745879244
 30
0.0
 10
97.3438932030047
 20
111.3947581380373
 30
0.0
 10
97.49977524434266
 20
111.2753336764633
 30
0.0
 10
97.83527283657324
 20
111.0638894949816
 30
0.0
 10
98.01464440718291
 20
110.9725217002831
 30
0.0
 10
98.3862701157499
 20
110.8226700089822
 30
0.0
 10
98.58002712182439
 20
110.7631425134266
 30
0.0
 10
98.98665347883065
 20
110.676155060848
 30
0.0
 10
99.19707077207077
 20
110.6497185878123
 30
0.0
 10
99.61707568268591
 20
110.6330764131485
 30
0.0
 10
99.83160114116859
 20
110.6428745428766
 30
0.0
 10
100.2472892567368
 20
110.6977751248515
 30
0.0
 10
100.4489977254747
 20
110.742284394046
 30
0.0
 10
100.8415794602944
 20
110.8651381782429
 30
0.0
 10
101.0286096511855
 20
110.9424232199241
 30
0.0
 10
101.3821010981912
 20
111.1263729405297
 30
0.0
 10
101.5507854181712
 20
111.2345030995563
 30
0.0
 10
101.8614351040674
 20
111.4774945929466
 30
0.0
 10
102.0039525907767
 20
111.6122061364199
 30
0.0
 10
102.2633568721057
 20
111.9115867618335
 30
0.0
 10
102.380976878323
 20
112.0781462445297
 30
0.0
 10
102.5774953060285
 20
112.4323605192626
 30
0.0
 10
102.6581910573669
 20
112.6223082839345
 30
0.0
 10
102.7763968872774
 20
113.0245988922699
 30
0.0
 10
102.8121768467677
 20
113.2302276766683
 30
0.0
 10
102.835745744044
 20
113.6508651193686
 30
0.0
 10
102.8224261765226
 20
113.8664406988389
 30
0.0
 10
102.7484142202319
 20
114.2788866131527
 30
0.0
 10
102.6869018834519
 20
114.481779376161
 30
0.0
 10
102.5250133109803
 20
114.8600448402517
 30
0.0
 10
102.4242080713963
 20
115.037862760693
 30
0.0
 10
102.1902739237526
 20
115.3665209323541
 30
0.0
 10
102.0590395886877
 20
115.5152591167061
 30
0.0
 10
101.7694908149375
 20
115.7861251652699
 30
0.0
 10
101.6111469949993
 20
115.9076979715049
 30
0.0
 10
101.2769124137367
 20
116.1188586279474
 30
0.0
 10
101.0998178057694
 20
116.2096718029174
 30
0.0
 10
100.7224046602572
 20
116.3622731197227
 30
0.0
 10
100.5262607670805
 20
116.4222080657435
 30
0.0
 10
100.1215246952196
 20
116.5086347066661
 30
0.0
 10
99.90921705495258
 20
116.5353330574518
 30
0.0
 10
99.48763092137659
 20
116.5516916173271
 30
0.0
 10
99.27797882295742
 20
116.5420330837531
 30
0.0
 10
98.86089922639412
 20
116.4869885694095
 30
0.0
 10
98.65581639024673
 20
116.4414981404356
 30
0.0
 10
98.26566762085307
 20
116.3190864402557
 30
0.0
 10
98.0767429632145
 20
116.2409890754101
 30
0.0
 10
97.72216336667236
 20
116.055904266697
 30
0.0
 10
97.55604934499898
 20
115.9491745326346
 30
0.0
 10
97.24439952787829
 20
115.7049527138093
 30
0.0
 10
97.09927363886807
 20
115.5671555599895
 30
0.0
 10
96.84121951272303
 20
115.2678953921383
 30
0.0
 10
96.7266311867485
 20
115.1053439453076
 30
0.0
 10
96.52944731578687
 20
114.7491598470702
 30
0.0
 10
96.44819786165154
 20
114.55644451718
 30
0.0
 10
96.33156080896265
 20
114.1568839754191
 30
0.0
 10
96.29500584922836
 20
113.9445265368271
 30
0.0
 10
96.27302132068246
 20
113.5230010275021
 30
0.0
 10
96.28679158104522
 20
113.3099973248358
 30
0.0
 10
96.36327508501834
 20
112.8931868726021
 30
0.0
 10
96.42490060026985
 20
112.6932380111362
 30
0.0
 10
96.50724245807132
 20
112.5030569641772
 30
0.0
  0
LINE
  5
B8
330
1F
100
AcDbEntity
  8
0
  6
HIDDEN
 62
     7
370
    18
100
AcDbLine
 10
193.2542708941
 20
137.4200753996
 30
0.0
 11
205.2542708941
 21
137.4200753996
 31
0.0
  0
LINE
  5
B9
330
1F
100
AcDbEntity
  8
0
  6
HIDDEN
 62
     7
370
    18
100
AcDbLine
 10
193.9542708941
 20
138.1200753996
 30
0.0
 11
195.2204705465
 21
138.1200753996
 31
0.0
  0
LINE
  5
BA
330
1F
100
AcDbEntity
  8
0
  6
HIDDEN
 62
     7
370
    18
100
AcDbLine
 10
203.2940357154
 20
138.1200753996
 30
0.0
 11
204.5542708941
 21
138.1200753996
 31
0.0
  0
LINE
  5
BB
330
1F
100
AcDbEntity
  8
0
  6
HIDDEN
 62
     7
370
    18
100
AcDbLine
 10
193.2542708941
 20
130.0171897166
 30
0.0
 11
205.2542708941
 21
130.0171897166
 31
0.0
  0
LINE
  5
BC
330
1F
100
AcDbEntity
  8
0
  6
HIDDEN
 62
     7
370
    18
100
AcDbLine
 10
195.7344689905
 20
121.6200753996
 30
0.0
 11
202.7740727977
 21
121.6200753996
 31
0.0
  0
SPLINE
  5
BD
330
1F
100
AcDbEntity
  8
0
  6
HIDDEN
 62
     7
370
    18
100
AcDbSpline
210
0.0
220
0.0
230
1.0
 70
     8
 71
     3
 72
    15
 73
    11
 74
     0
 42
0.000000001
 43
0.00000001
 40
0.0
 40
0.0
 40
0.0
 40
0.0
 40
0.1077869592233264
 40
0.2161701819135326
 40
0.3273150562947908
 40
0.4399598612360039
 40
0.5934902695338358
 40
0.7521517812193675
 40
0.8755082115460531
 40
1.0
 40
1.0
 40
1.0
 40
1.0
 10
196.2281679604151
 20
137.9841770147435
 30
0.0
 10
196.2299590656663
 20
137.928063726742
 30
0.0
 10
196.2335511843303
 20
137.8155267393137
 30
0.0
 10
196.2392144748348
 20
137.6786563701621
 30
0.0
 10
196.2451357711035
 20
137.5753565411759
 30
0.0
 10
196.2520344756162
 20
137.5118918422894
 30
0.0
 10
196.2599045631098
 20
137.5222750331868
 30
0.0
 10
196.2677917730868
 20
137.6302416999876
 30
0.0
 10
196.2748773215084
 20
137.7913877740725
 30
0.0
 10
196.2790018896334
 20
137.9197179802603
 30
0.0
 10
196.2810736207316
 20
137.9841770147435
 30
0.0
  0
SPLINE
  5
BE
330
1F
100
AcDbEntity
  8
0
  6
HIDDEN
 62
     7
370
    18
100
AcDbSpline
210
0.0
220
0.0
230
1.0
 70
     8
 71
     3
 72
    11
 73
     7
 74
     0
 42
0.000000001
 43
0.00000001
 40
0.0
 40
0.0
 40
0.0
 40
0.0
 40
0.2164553779443487
 40
0.4403112895790551
 40
0.7519005688038781
 40
1.0
 40
1.0
 40
1.0
 40
1.0
 10
196.2810736207316
 20
137.9841770147435
 30
0.0
 10
196.488364603708
 20
137.8755188444785
 30
0.0
 10
196.9100337758914
 20
137.6544875190985
 30
0.0
 10
197.6925391386147
 20
137.470257594681
 30
0.0
 10
198.5319165051628
 20
137.5813334987803
 30
0.0
 10
199.069067615496
 20
137.860449960554
 30
0.0
 10
199.3071765543735
 20
137.9841770147435
 30
0.0
  0
SPLINE
  5
BF
330
1F
100
AcDbEntity
  8
0
  6
HIDDEN
 62
     7
370
    18
100
AcDbSpline
210
0.0
220
0.0
230
1.0
 70
     8
 71
     3
 72
    11
 73
     7
 74
     0
 42
0.000000001
 43
0.00000001
 40
0.0
 40
0.0
 40
0.0
 40
0.0
 40
0.1849308168246175
 40
0.5198464202157816
 40
0.8714438233692544
 40
1.0
 40
1.0
 40
1.0
 40
1.0
 10
199.3071765543735
 20
137.9841770147435
 30
0.0
 10
199.4802311630912
 20
137.8905713321269
 30
0.0
 10
199.9666931837994
 20
137.627442774888
 30
0.0
 10
200.8747674430438
 20
137.4330375776638
 30
0.0
 10
201.7134111752585
 20
137.6710984336302
 30
0.0
 10
202.1606344114633
 20
137.9180565280111
 30
0.0
 10
202.2803738276991
 20
137.9841770147435
 30
0.0
  0
SPLINE
  5
C0
330
1F
100
AcDbEntity
  8
0
  6
HIDDEN
 62
     7
370
    18
100
AcDbSpline
210
0.0
220
0.0
230
1.0
 70
     8
 71
     3
 72
    15
 73
    11
 74
     0
 42
0.000000001
 43
0.00000001
 40
0.0
 40
0.0
 40
0.0
 40
0.0
 40
0.107786959223328
 40
0.2161701819135339
 40
0.3273150562947948
 40
0.439959861236006
 40
0.5934902695338473
 40
0.7521517812193729
 40
0.8755082115460595
 40
1.0
 40
1.0
 40
1.0
 40
1.0
 10
202.2803738276991
 20
137.9841770147435
 30
0.0
 10
202.278582722448
 20
137.928063726742
 30
0.0
 10
202.274990603784
 20
137.8155267393137
 30
0.0
 10
202.2693273132793
 20
137.6786563701621
 30
0.0
 10
202.2634060170108
 20
137.5753565411759
 30
0.0
 10
202.256507312498
 20
137.5118918422894
 30
0.0
 10
202.2486372250044
 20
137.5222750331869
 30
0.0
 10
202.2407500150275
 20
137.6302416999876
 30
0.0
 10
202.2336644666059
 20
137.7913877740725
 30
0.0
 10
202.2295398984808
 20
137.9197179802603
 30
0.0
 10
202.2274681673826
 20
137.9841770147435
 30
0.0
  0
LINE
  5
C1
330
1F
100
AcDbEntity
  8
0
  6
HIDDEN
 62
     7
370
    18
100
AcDbLine
 10
202.2274681674
 20
137.9841770147
 30
0.0
 11
201.7146216395
 21
137.7413524406
 31
0.0
  0
SPLINE
  5
C2
330
1F
100
AcDbEntity
  8
0
  6
HIDDEN
 62
     7
370
    18
100
AcDbSpline
210
0.0
220
0.0
230
1.0
 70
     8
 71
     3
 72
     9
 73
     5
 74
     0
 42
0.000000001
 43
0.00000001
 40
0.0
 40
0.0
 40
0.0
 40
0.0
 40
0.4862810931803084
 40
1.0
 40
1.0
 40
1.0
 40
1.0
 10
200.663949196317
 20
137.5585655025452
 30
0.0
 10
200.4147115162419
 20
137.5719222633086
 30
0.0
 10
199.9021732260011
 20
137.5993894236624
 30
0.0
 10
199.4392022020526
 20
137.8535895854939
 30
0.0
 10
199.2013652337406
 20
137.9841770147435
 30
0.0
  0
SPLINE
  5
C3
330
1F
100
AcDbEntity
  8
0
  6
HIDDEN
 62
     7
370
    18
100
AcDbSpline
210
0.0
220
0.0
230
1.0
 70
     8
 71
     3
 72
     9
 73
     5
 74
     0
 42
0.000000001
 43
0.00000001
 40
0.0
 40
0.0
 40
0.0
 40
0.0
 40
0.3166023413699136
 40
1.0
 40
1.0
 40
1.0
 40
1.0
 10
199.2013652337406
 20
137.9841770147435
 30
0.0
 10
199.0818755319103
 20
137.9158013970482
 30
0.0
 10
198.7044629666295
 20
137.6998345239058
 30
0.0
 10
198.2860947766763
 20
137.6276806522464
 30
0.0
 10
198.000182935217
 20
137.5783708652934
 30
0.0
  0
SPLINE
  5
C4
330
1F
100
AcDbEntity
  8
0
  6
HIDDEN
 62
     7
370
    18
100
AcDbSpline
210
0.0
220
0.0
230
1.0
 70
     8
 71
     3
 72
     9
 73
     5
 74
     0
 42
0.000000001
 43
0.00000001
 40
0.0
 40
0.0
 40
0.0
 40
0.0
 40
0.1962075504852944
 40
1.0
 40
1.0
 40
1.0
 40
1.0
 10
196.892061651542
 20
137.6948840190437
 30
0.0
 10
196.8458441616102
 20
137.7027103166608
 30
0.0
 10
196.6102900770833
 20
137.7425981680597
 30
0.0
 10
196.3984463492913
 20
137.8765264627195
 30
0.0
 10
196.2281679604151
 20
137.9841770147435
 30
0.0
  0
LINE
  5
C5
330
1F
100
AcDbEntity
  8
0
  6
HIDDEN
 62
     7
370
    18
100
AcDbLine
 10
196.2542708941
 20
130.1200753996
 30
0.0
 11
202.2542708941
 21
130.1200753996
 31
0.0
  0
LINE
  5
C6
330
1F
100
AcDbEntity
  8
0
  6
HIDDEN
 62
     7
370
    18
100
AcDbLine
 10
199.3071765544
 20
131.1200753996
 30
0.0
 11
197.7941250876
 21
131.1200753996
 31
0.0
  0
LINE
  5
C7
330
1F
100
AcDbEntity
  8
0
  6
HIDDEN
 62
     7
370
    18
100
AcDbLine
 10
200.793775191
 20
131.1200753996
 30
0.0
 11
199.3071765544
 21
131.1200753996
 31
0.0
  0
LINE
  5
C8
330
1F
100
AcDbEntity
  8
0
  6
HIDDEN
 62
     7
370
    18
100
AcDbLine
 10
199.3071765544
 20
131.1200753996
 30
0.0
 11
199.3071765544
 21
137.9841770147
 31
0.0
  0
LINE
  5
C9
330
1F
100
AcDbEntity
  8
0
  6
HIDDEN
 62
     7
370
    18
100
AcDbLine
 10
197.7941250876
 20
131.1200753996
 30
0.0
 11
196.2810736207
 21
131.1200753996
 31
0.0
  0
LINE
  5
CA
330
1F
100
AcDbEntity
  8
0
  6
HIDDEN
 62
     7
370
    18
100
AcDbLine
 10
202.2803738277
 20
131.1200753996
 30
0.0
 11
200.793775191
 21
131.1200753996
 31
0.0
  0
LINE
  5
CB
330
1F
100
AcDbEntity
  8
0
  6
HIDDEN
 62
     7
370
    18
100
AcDbLine
 10
196.2810736207
 20
131.1200753996
 30
0.0
 11
196.2546207906
 21
131.1200753996
 31
0.0
  0
LINE
  5
CC
330
1F
100
AcDbEntity
  8
0
  6
HIDDEN
 62
     7
370
    18
100
AcDbLine
 10
196.2810736207
 20
131.1200753996
 30
0.0
 11
196.2810736207
 21
137.9841770147
 31
0.0
  0
LINE
  5
CD
330
1F
100
AcDbEntity
  8
0
  6
HIDDEN
 62
     7
370
    18
100
AcDbLine
 10
202.2274681674
 20
131.1200753996
 30
0.0
 11
202.2274681674
 21
137.9841770147
 31
0.0
  0
LINE
  5
CE
330
1F
100
AcDbEntity
  8
0
  6
HIDDEN
 62
     7
370
    18
100
AcDbLine
 10
202.2803738277
 20
131.1200753996
 30
0.0
 11
202.2803738277
 21
137.9841770147
 31
0.0
  0
LINE
  5
CF
330
1F
100
AcDbEntity
  8
0
  6
HIDDEN
 62
     7
370
    18
100
AcDbLine
 10
196.2546207906
 20
131.1200753996
 30
0.0
 11
196.2281679604
 21
131.1200753996
 31
0.0
  0
LINE
  5
D0
330
1F
100
AcDbEntity
  8
0
  6
HIDDEN
 62
     7
370
    18
100
AcDbLine
 10
199.2013652337
 20
131.1200753996
 30
0.0
 11
199.2013652337
 21
137.9841770147
 31
0.0
  0
LINE
  5
D1
330
1F
100
AcDbEntity
  8
0
  6
HIDDEN
 62
     7
370
    18
100
AcDbLine
 10
196.2281679604
 20
131.1200753996
 30
0.0
 11
196.2281679604
 21
137.9841770147
 31
0.0
  0
CIRCLE
  5
D2
330
1F
100
AcDbEntity
  8
0
  6
HIDDEN
 62
     7
370
    18
100
AcDbCircle
 10
199.2542708941
 20
113.5923952254
 30
0.0
 40
5.999999999999994
  0
CIRCLE
  5
D3
330
1F
100
AcDbEntity
  8
0
  6
HIDDEN
 62
     7
370
    18
100
AcDbCircle
 10
199.2542708941
 20
113.5923952254
 30
0.0
 40
5.500000000000014
  0
LINE
  5
D4
330
1F
100
AcDbEntity
  8
0
  6
HIDDEN
 62
     7
370
    18
100
AcDbLine
 10
194.7101114526
 20
138.1950910561
 30
0.0
 11
195.1442269669
 21
138.1344407242
 31
0.0
  0
LINE
  5
D5
330
1F
100
AcDbEntity
  8
0
  6
HIDDEN
 62
     7
370
    18
100
AcDbLine
 10
184.8042708941
 20
127.0923952254
 30
0.0
 11
184.8042708941
 21
100.0923952416
 31
0.0
  0
LINE
  5
D6
330
1F
100
AcDbEntity
  8
0
  6
HIDDEN
 62
     7
370
    18
100
AcDbLine
 10
189.6702962978
 20
127.5923952254
 30
0.0
 11
189.6702962978
 21
99.5923952254
 31
0.0
  0
SPLINE
  5
D7
330
1F
100
AcDbEntity
  8
0
  6
HIDDEN
 62
     7
370
    18
100
AcDbSpline
210
0.0
220
0.0
230
1.0
 70
     8
 71
     3
 72
     9
 73
     5
 74
     0
 42
0.000000001
 43
0.00000001
 40
0.0
 40
0.0
 40
0.0
 40
0.0
 40
0.1146077558540558
 40
1.0
 40
1.0
 40
1.0
 40
1.0
 10
95.39817775706074
 20
126.8081634136535
 30
0.0
 10
95.37946201590128
 20
126.8120059384021
 30
0.0
 10
95.2161594451461
 20
126.8455335537015
 30
0.0
 10
95.06365657232986
 20
126.881425092275
 30
0.0
 10
94.92863171152838
 20
126.9132031821585
 30
0.0
  0
SPLINE
  5
D8
330
1F
100
AcDbEntity
  8
0
  6
HIDDEN
 62
     7
370
    18
100
AcDbSpline
210
0.0
220
0.0
230
1.0
 70
     8
 71
     3
 72
    37
 73
    33
 74
     0
 42
0.000000001
 43
0.00000001
 40
0.0
 40
0.0
 40
0.0
 40
0.0
 40
0.0503694308142212
 40
0.1019191880240485
 40
0.1297928507443188
 40
0.1750037073483716
 40
0.2036861672456965
 40
0.2327286640178271
 40
0.2798216583734686
 40
0.309700973161102
 40
0.3368091588493244
 40
0.3642639703707902
 40
0.3921173596944524
 40
0.4202818257801493
 40
0.4491202467343351
 40
0.4960235140951643
 40
0.5258992376800575
 40
0.5528750766253677
 40
0.5966535106795781
 40
0.6244457021673708
 40
0.6520068463326815
 40
0.6966736606811945
 40
0.7249852532954641
 40
0.7545680657358863
 40
0.8025601850068736
 40
0.8330343451278523
 40
0.8600026848612735
 40
0.8873267443865939
 40
0.9150595770529503
 40
0.9431102258237983
 40
0.971438760810797
 40
1.0
 40
1.0
 40
1.0
 40
1.0
 10
193.7542708940571
 20
127.5923952254028
 30
0.0
 10
193.7678344787794
 20
127.5870387103137
 30
0.0
 10
193.7952794889621
 20
127.5762001588412
 30
0.0
 10
193.9837956660344
 20
127.5032818989112
 30
0.0
 10
194.2406246581311
 20
127.407930802331
 30
0.0
 10
194.5126383821084
 20
127.310960989204
 30
0.0
 10
194.843786985373
 20
127.2003442222342
 30
0.0
 10
195.2233776043143
 20
127.0809389464106
 30
0.0
 10
195.6605003978271
 20
126.9558832596901
 30
0.0
 10
196.1351818895894
 20
126.83729272131
 30
0.0
 10
196.545398431462
 20
126.7466643083099
 30
0.0
 10
196.9668198167525
 20
126.6660948715384
 30
0.0
 10
197.4125062347208
 20
126.595233372551
 30
0.0
 10
197.8818022139019
 20
126.5368129773757
 30
0.0
 10
198.4718041146582
 20
126.4849729968181
 30
0.0
 10
199.0863221697967
 20
126.46192739297
 30
0.0
 10
199.6902780261079
 20
126.4710102284565
 30
0.0
 10
200.270876495413
 20
126.5019919516135
 30
0.0
 10
200.8275670095427
 20
126.5580753381502
 30
0.0
 10
201.3648037947976
 20
126.636212595053
 30
0.0
 10
201.8857469766769
 20
126.7291396462729
 30
0.0
 10
202.3775566985243
 20
126.8371334350177
 30
0.0
 10
202.8387961864848
 20
126.9548412455921
 30
0.0
 10
203.2793400603465
 20
127.0788128805911
 30
0.0
 10
203.6763566067794
 20
127.2034052399642
 30
0.0
 10
204.004512495013
 20
127.3145243591738
 30
0.0
 10
204.2315030620573
 20
127.3949758951737
 30
0.0
 10
204.4153624317568
 20
127.4624674702625
 30
0.0
 10
204.5639091634106
 20
127.5185475799756
 30
0.0
 10
204.6708848226668
 20
127.5597636075366
 30
0.0
 10
204.7448888513443
 20
127.5886985946963
 30
0.0
 10
204.7419241115618
 20
127.5875458836701
 30
0.0
 10
204.7404356781256
 20
127.5869671706095
 30
0.0
  0
LINE
  5
D9
330
1F
100
AcDbEntity
  8
0
  6
HIDDEN
 62
     7
370
    18
100
AcDbLine
 10
199.2542708941
 20
137.3423952254
 30
0.0
 11
204.7542708941
 21
137.3423952254
 31
0.0
  0
LINE
  5
DA
330
1F
100
AcDbEntity
  8
0
  6
HIDDEN
 62
     7
370
    18
100
AcDbLine
 10
193.7542708941
 20
137.3423952254
 30
0.0
 11
199.2542708941
 21
137.3423952254
 31
0.0
  0
LINE
  5
DB
330
1F
100
AcDbEntity
  8
0
  6
HIDDEN
 62
     7
370
    18
100
AcDbLine
 10
99.5542708941
 20
126.0712525308
 30
0.0
 11
105.0331281995
 21
126.0712525308
 31
0.0
  0
LINE
  5
DC
330
1F
100
AcDbEntity
  8
0
  6
HIDDEN
 62
     7
370
    18
100
AcDbLine
 10
94.0754135887
 20
126.0712525308
 30
0.0
 11
99.5542708941
 21
126.0712525308
 31
0.0
  0
LINE
  5
DD
330
1F
100
AcDbEntity
  8
0
  6
HIDDEN
 62
     7
370
    18
100
AcDbLine
 10
96.5072424574
 20
117.7004169089
 30
0.0
 11
96.4691375115
 21
117.7239148955
 31
0.0
  0
SPLINE
  5
DE
330
1F
100
AcDbEntity
  8
0
  6
HIDDEN
 62
     7
370
    18
100
AcDbSpline
210
0.0
220
0.0
230
1.0
 70
     8
 71
     3
 72
    40
 73
    36
 74
     0
 42
0.000000001
 43
0.00000001
 40
0.0
 40
0.0
 40
0.0
 40
0.0
 40
0.0272697205474201
 40
0.0475930557511979
 40
0.0664153540753781
 40
0.1046200321899419
 40
0.1240223695072995
 40
0.1445864916533084
 40
0.1862272669317213
 40
0.2073150123598235
 40
0.2319671261115336
 40
0.2818884644789618
 40
0.3071839211774537
 40
0.3507192793278989
 40
0.3802410798494417
 40
0.4253174498011802
 40
0.4476895258989591
 40
0.4855106868721004
 40
0.5163574573203814
 40
0.5387319676433325
 40
0.5842123292274087
 40
0.6073430584071517
 40
0.6307794224998013
 40
0.6782229269816191
 40
0.7022473514247787
 40
0.7445687188481621
 40
0.773208824687889
 40
0.8168255757843739
 40
0.8392688836392237
 40
0.8771571460767505
 40
0.9080219469614511
 40
0.9379260620520605
 40
0.9686292033813579
 40
0.9999636374301039
 40
1.0
 40
1.0
 40
1.0
 40
1.0
 10
96.28682268322623
 20
117.8382527156016
 30
0.0
 10
96.28667648565855
 20
117.8383422143529
 30
0.0
 10
96.28642133126567
 20
117.8384984139388
 30
0.0
 10
96.3202881723821
 20
117.8169433540648
 30
0.0
 10
96.37421964761442
 20
117.7828495193687
 30
0.0
 10
96.45395841056283
 20
117.7329775068808
 30
0.0
 10
96.55830505142183
 20
117.6691513025334
 30
0.0
 10
96.68301463738118
 20
117.5941788270591
 30
0.0
 10
96.83358778438942
 20
117.5063922286422
 30
0.0
 10
97.01222466266177
 20
117.4070113865371
 30
0.0
 10
97.22328121520354
 20
117.2940473568844
 30
0.0
 10
97.46824015528277
 20
117.1722819043929
 30
0.0
 10
97.78431523557796
 20
117.0318629515962
 30
0.0
 10
98.06455901065559
 20
116.9219860753905
 30
0.0
 10
98.42138538911209
 20
116.8066024736134
 30
0.0
 10
98.73048760250343
 20
116.7305376545964
 30
0.0
 10
99.07686279735466
 20
116.6736701746692
 30
0.0
 10
99.38337481337656
 20
116.6465172397185
 30
0.0
 10
99.6919580776346
 20
116.647324668686
 30
0.0
 10
100.024217262717
 20
116.6714364216821
 30
0.0
 10
100.3253571772642
 20
116.7199091459548
 30
0.0
 10
100.6183372281627
 20
116.7904392130381
 30
0.0
 10
100.9087514279148
 20
116.8750307596233
 30
0.0
 10
101.1871243256848
 20
116.976243673969
 30
0.0
 10
101.4993405755713
 20
117.1077510082135
 30
0.0
 10
101.7430733095733
 20
117.2225650926419
 30
0.0
 10
102.0120255304983
 20
117.3605195500603
 30
0.0
 10
102.2119438725591
 20
117.470690295282
 30
0.0
 10
102.4046144822187
 20
117.5817621723476
 30
0.0
 10
102.5508082159788
 20
117.6692206008184
 30
0.0
 10
102.6757841885769
 20
117.7461698351205
 30
0.0
 10
102.7624413307807
 20
117.8005517418617
 30
0.0
 10
102.8140788388993
 20
117.8333582741461
 30
0.0
 10
102.8320354357754
 20
117.8448348073506
 30
0.0
 10
102.8282036390822
 20
117.8423895517765
 30
0.0
 10
102.8281991975637
 20
117.8423867174277
 30
0.0
  0
LINE
  5
DF
330
1F
100
AcDbEntity
  8
0
  6
HIDDEN
 62
     7
370
    18
100
AcDbLine
 10
86.1702962978
 20
113.5923952254
 30
0.0
 11
86.1702962978
 21
117.8423952254
 31
0.0
  0
LINE
  5
E0
330
1F
100
AcDbEntity
  8
0
  6
HIDDEN
 62
     7
370
    18
100
AcDbLine
 10
86.1702962978
 20
109.3423952254
 30
0.0
 11
86.1702962978
 21
113.5923952254
 31
0.0
  0
LINE
  5
E1
330
1F
100
AcDbEntity
  8
0
  6
HIDDEN
 62
     7
370
    18
100
AcDbLine
 10
205.2542708941
 20
137.4200753996
 30
0.0
 11
204.5542708941
 21
138.1200753996
 31
0.0
  0
LINE
  5
E2
330
1F
100
AcDbEntity
  8
0
  6
HIDDEN
 62
     7
370
    18
100
AcDbLine
 10
193.9542708941
 20
138.1200753996
 30
0.0
 11
193.2542708941
 21
137.4200753996
 31
0.0
  0
LINE
  5
E3
330
1F
100
AcDbEntity
  8
0
  6
HIDDEN
 62
     7
370
    18
100
AcDbLine
 10
193.2542708941
 20
137.4200753996
 30
0.0
 11
193.2542708941
 21
130.0171897166
 31
0.0
  0
LINE
  5
E4
330
1F
100
AcDbEntity
  8
0
  6
HIDDEN
 62
     7
370
    18
100
AcDbLine
 10
205.2542708941
 20
130.0171897166
 30
0.0
 11
205.2542708941
 21
137.4200753996
 31
0.0
  0
LINE
  5
E5
330
1F
100
AcDbEntity
  8
0
  6
HIDDEN
 62
     7
370
    18
100
AcDbLine
 10
193.2542708941
 20
130.0171897166
 30
0.0
 11
195.4446912426
 21
121.8424296861
 31
0.0
  0
LINE
  5
E6
330
1F
100
AcDbEntity
  8
0
  6
HIDDEN
 62
     7
370
    18
100
AcDbLine
 10
203.0638505456
 20
121.8424296861
 30
0.0
 11
205.2542708941
 21
130.0171897166
 31
0.0
  0
ARC
  5
E7
330
1F
100
AcDbEntity
  8
0
  6
HIDDEN
 62
     7
370
    18
100
AcDbCircle
 10
195.7344689905
 20
121.9200753996
 30
0.0
 40
0.299999999999993
100
AcDbArc
 50
195.0
 51
270.0
  0
ARC
  5
E8
330
1F
100
AcDbEntity
  8
0
  6
HIDDEN
 62
     7
370
    18
100
AcDbCircle
 10
202.7740727977
 20
121.9200753996
 30
0.0
 40
0.299999999999993
100
AcDbArc
 50
270.0
 51
345.0
  0
LINE
  5
E9
330
1F
100
AcDbEntity
  8
0
  6
HIDDEN
 62
     7
370
    18
100
AcDbLine
 10
195.6542708941
 20
138.1200753996
 30
0.0
 11
196.2542708941
 21
137.5200753996
 31
0.0
  0
LINE
  5
EA
330
1F
100
AcDbEntity
  8
0
  6
HIDDEN
 62
     7
370
    18
100
AcDbLine
 10
202.2542708941
 20
137.5200753996
 30
0.0
 11
202.8542708941
 21
138.1200753996
 31
0.0
  0
LINE
  5
EB
330
1F
100
AcDbEntity
  8
0
  6
HIDDEN
 62
     7
370
    18
100
AcDbLine
 10
196.2542708941
 20
131.1200753996
 30
0.0
 11
196.2542708941
 21
130.1200753996
 31
0.0
  0
LINE
  5
EC
330
1F
100
AcDbEntity
  8
0
  6
HIDDEN
 62
     7
370
    18
100
AcDbLine
 10
202.2542708941
 20
130.1200753996
 30
0.0
 11
202.2542708941
 21
131.1200753996
 31
0.0
  0
LINE
  5
ED
330
1F
100
AcDbEntity
  8
0
  6
HIDDEN
 62
     7
370
    18
100
AcDbLine
 10
196.2542708941
 20
130.1200753996
 30
0.0
 11
199.2542708941
 21
129.0281646968
 31
0.0
  0
LINE
  5
EE
330
1F
100
AcDbEntity
  8
0
  6
HIDDEN
 62
     7
370
    18
100
AcDbLine
 10
199.2542708941
 20
129.0281646968
 30
0.0
 11
202.2542708941
 21
130.1200753996
 31
0.0
  0
LINE
  5
EF
330
1F
100
AcDbEntity
  8
0
  6
HIDDEN
 62
     7
370
    18
100
AcDbLine
 10
113.3042708941
 20
97.8773651938
 30
0.0
 11
113.4984317353
 21
99.2588913648
 31
0.0
  0
LINE
  5
F0
330
1F
100
AcDbEntity
  8
0
  6
HIDDEN
 62
     7
370
    18
100
AcDbLine
 10
113.4984317353
 20
127.925899086
 30
0.0
 11
113.3042708941
 21
129.307425257
 31
0.0
  0
ARC
  5
F1
330
1F
100
AcDbEntity
  8
0
  6
HIDDEN
 62
     7
370
    18
100
AcDbCircle
 10
212.3042708941
 20
128.5923952254
 30
0.0
 40
1.0
100
AcDbArc
 50
270.0
 51
0.0
  0
ARC
  5
F2
330
1F
100
AcDbEntity
  8
0
  6
HIDDEN
 62
     7
370
    18
100
AcDbCircle
 10
212.3042708941
 20
98.5923952254
 30
0.0
 40
1.0
100
AcDbArc
 50
0.0
 51
90.0
  0
ARC
  5
F3
330
1F
100
AcDbEntity
  8
0
  6
HIDDEN
 62
     7
370
    18
100
AcDbCircle
 10
185.8042708941
 20
127.0923952254
 30
0.0
 40
1.0
100
AcDbArc
 50
90.0
 51
180.0
  0
ARC
  5
F4
330
1F
100
AcDbEntity
  8
0
  6
HIDDEN
 62
     7
370
    18
100
AcDbCircle
 10
185.8042708941
 20
100.0923952254
 30
0.0
 40
1.0
100
AcDbArc
 50
180.0
 51
270.0
  0
LINE
  5
F5
330
1F
100
AcDbEntity
  8
0
  6
HIDDEN
 62
     7
370
    18
100
AcDbLine
 10
187.6726183965
 20
128.0923952254
 30
0.0
 11
185.8042708941
 21
128.0923952254
 31
0.0
  0
LINE
  5
F6
330
1F
100
AcDbEntity
  8
0
  6
HIDDEN
 62
     7
370
    18
100
AcDbLine
 10
185.8042708941
 20
99.0923952254
 30
0.0
 11
187.6726183965
 21
99.0923952254
 31
0.0
  0
ARC
  5
F7
330
1F
100
AcDbEntity
  8
0
  6
HIDDEN
 62
     7
370
    18
100
AcDbCircle
 10
187.6726183965
 20
127.0923952254
 30
0.0
 40
1.0
100
AcDbArc
 50
75.0
 51
90.0
  0
ARC
  5
F8
330
1F
100
AcDbEntity
  8
0
  6
HIDDEN
 62
     7
370
    18
100
AcDbCircle
 10
187.6726183965
 20
100.0923952254
 30
0.0
 40
1.000000000000009
100
AcDbArc
 50
270.0
 51
285.0
  0
LINE
  5
F9
330
1F
100
AcDbEntity
  8
0
  6
HIDDEN
 62
     7
370
    18
100
AcDbLine
 10
187.9314374416
 20
99.1264693991
 30
0.0
 11
189.6702962978
 21
99.5923952254
 31
0.0
  0
LINE
  5
FA
330
1F
100
AcDbEntity
  8
0
  6
HIDDEN
 62
     7
370
    18
100
AcDbLine
 10
189.6702962978
 20
127.5923952254
 30
0.0
 11
187.9314374416
 21
128.0583210517
 31
0.0
  0
ARC
  5
FB
330
1F
100
AcDbEntity
  8
0
  6
HIDDEN
 62
     7
370
    18
100
AcDbCircle
 10
112.9042708941
 20
99.3423952254
 30
0.0
 40
0.6000000000000085
100
AcDbArc
 50
352.0
 51
0.0
  0
ARC
  5
FC
330
1F
100
AcDbEntity
  8
0
  6
HIDDEN
 62
     7
370
    18
100
AcDbCircle
 10
112.9042708941
 20
99.3423952254
 30
0.0
 40
0.6000000000000085
100
AcDbArc
 50
0.0
 51
48.1896851042
  0
ARC
  5
FD
330
1F
100
AcDbEntity
  8
0
  6
HIDDEN
 62
     7
370
    18
100
AcDbCircle
 10
112.9042708941
 20
127.8423952254
 30
0.0
 40
0.6000000000000008
100
AcDbArc
 50
348.75
 51
8.0
  0
ARC
  5
FE
330
1F
100
AcDbEntity
  8
0
  6
HIDDEN
 62
     7
370
    18
100
AcDbCircle
 10
112.9042708941
 20
127.8423952254
 30
0.0
 40
0.6000000000000054
100
AcDbArc
 50
311.8103148958
 51
348.75
  0
LINE
  5
FF
330
1F
100
AcDbEntity
  8
0
  6
HIDDEN
 62
     7
370
    18
100
AcDbLine
 10
113.5042708941
 20
99.3423952254
 30
0.0
 11
113.5042708941
 21
127.8423952254
 31
0.0
  0
LINE
  5
100
330
1F
100
AcDbEntity
  8
0
  6
HIDDEN
 62
     7
370
    18
100
AcDbLine
 10
193.7542708941
 20
127.5923952254
 30
0.0
 11
189.6702962978
 21
127.5923952254
 31
0.0
  0
LINE
  5
101
330
1F
100
AcDbEntity
  8
0
  6
HIDDEN
 62
     7
370
    18
100
AcDbLine
 10
212.3042708941
 20
127.5923952254
 30
0.0
 11
204.7404356781
 21
127.5923952254
 31
0.0
  0
LINE
  5
102
330
1F
100
AcDbEntity
  8
0
  6
HIDDEN
 62
     7
370
    18
100
AcDbLine
 10
189.6702962978
 20
99.5923952254
 30
0.0
 11
212.3042708941
 21
99.5923952254
 31
0.0
  0
LINE
  5
103
330
1F
100
AcDbEntity
  8
0
  6
HIDDEN
 62
     7
370
    18
100
AcDbLine
 10
192.5042708941
 20
138.5923952254
 30
0.0
 11
193.7542708941
 21
137.3423952254
 31
0.0
  0
LINE
  5
104
330
1F
100
AcDbEntity
  8
0
  6
HIDDEN
 62
     7
370
    18
100
AcDbLine
 10
204.7542708941
 20
137.3423952254
 30
0.0
 11
206.0042708941
 21
138.5923952254
 31
0.0
  0
LINE
  5
105
330
1F
100
AcDbEntity
  8
0
  6
HIDDEN
 62
     7
370
    18
100
AcDbLine
 10
92.5542708941
 20
127.5923952254
 30
0.0
 11
94.0754135887
 21
126.0712525308
 31
0.0
  0
LINE
  5
106
330
1F
100
AcDbEntity
  8
0
  6
HIDDEN
 62
     7
370
    18
100
AcDbLine
 10
105.0331281995
 20
126.0712525308
 30
0.0
 11
106.5542708941
 21
127.5923952254
 31
0.0
  0
LINE
  5
107
330
1F
100
AcDbEntity
  8
0
  6
HIDDEN
 62
     7
370
    18
100
AcDbLine
 10
193.7542708941
 20
137.3423952254
 30
0.0
 11
193.7542708941
 21
127.5923952254
 31
0.0
  0
LINE
  5
108
330
1F
100
AcDbEntity
  8
0
  6
HIDDEN
 62
     7
370
    18
100
AcDbLine
 10
204.7542708941
 20
127.5869685934
 30
0.0
 11
204.7542708941
 21
137.3423952254
 31
0.0
  0
LINE
  5
109
330
1F
100
AcDbEntity
  8
0
  6
HIDDEN
 62
     7
370
    18
100
AcDbLine
 10
94.0754135887
 20
126.0712525308
 30
0.0
 11
96.2817998627
 21
117.8369068549
 31
0.0
  0
LINE
  5
10A
330
1F
100
AcDbEntity
  8
0
  6
HIDDEN
 62
     7
370
    18
100
AcDbLine
 10
102.8282095098
 20
117.8423839543
 30
0.0
 11
105.0331281995
 21
126.0712525308
 31
0.0
  0
LINE
  5
10B
330
1F
100
AcDbEntity
  8
0
  6
HIDDEN
 62
     7
370
    18
100
AcDbLine
 10
85.3042708941
 20
108.8423952254
 30
0.0
 11
86.1702962978
 21
109.3423952254
 31
0.0
  0
LINE
  5
10C
330
1F
100
AcDbEntity
  8
0
  6
HIDDEN
 62
     7
370
    18
100
AcDbLine
 10
86.1702962978
 20
117.8423952254
 30
0.0
 11
85.3042708941
 21
118.3423952254
 31
0.0
  0
LINE
  5
10D
330
1F
100
AcDbEntity
  8
0
  6
HIDDEN
 62
     7
370
    18
100
AcDbLine
 10
96.2868238377
 20
117.8423952254
 30
0.0
 11
86.1702962978
 21
117.8423952254
 31
0.0
  0
LINE
  5
10E
330
1F
100
AcDbEntity
  8
0
  6
HIDDEN
 62
     7
370
    18
100
AcDbLine
 10
184.8042708941
 20
117.8423952254
 30
0.0
 11
102.8281991935
 21
117.8423952254
 31
0.0
  0
LINE
  5
10F
330
1F
100
AcDbEntity
  8
0
  6
HIDDEN
 62
     7
370
    18
100
AcDbLine
 10
86.1702962978
 20
109.3423952254
 30
0.0
 11
184.8042708941
 21
109.3423952254
 31
0.0
  0
DIMENSION
  5
110
330
1F
100
AcDbEntity
  8
VERMASSUNG
100
AcDbDimension
  2
_D
 10
233.0438172746
 20
88.5923952254
 30
0.0
 11
233.0438172746
 21
113.5923952254
 31
0.0
 70
   160
  1
WH%%c<>
 71
     2
 42
-1.0
  3
SLDDIMSTYLE0
100
AcDbAlignedDimension
 13
212.8042708941
 23
138.5923952254
 33
0.0
 14
212.8042708941
 24
88.5923952254
 34
0.0
 50
90.0
100
AcDbRotatedDimension
  0
DIMENSION
  5
11D
330
1F
100
AcDbEntity
  8
VERMASSUNG
100
AcDbDimension
  2
_D_1
 10
113.3042708941
 20
148.5923952254
 30
0.0
 11
163.3042708941
 21
148.5923952254
 31
0.0
 70
   160
  1
<>
 71
     2
 42
-1.0
  3
SLDDIMSTYLE0
100
AcDbAlignedDimension
 13
213.3042708941
 23
138.0923952254
 33
0.0
 14
113.3042708941
 24
138.0923952254
 34
0.0
100
AcDbRotatedDimension
  0
DIMENSION
  5
127
330
1F
100
AcDbEntity
  8
VERMASSUNG
100
AcDbDimension
  2
_D_2
 10
85.3042708941
 20
158.262406015
 30
0.0
 11
149.3042708941
 21
158.262406015
 31
0.0
 70
   160
  1
<>
 71
     2
 42
-1.0
  3
SLDDIMSTYLE0
100
AcDbAlignedDimension
 13
213.3042708941
 23
138.0923952254
 33
0.0
 14
85.3042708941
 24
126.3823952254
 34
0.0
100
AcDbRotatedDimension
  0
DIMENSION
  5
131
330
1F
100
AcDbEntity
  8
VERMASSUNG
100
AcDbDimension
  2
_D_3
 10
75.3042708941
 20
88.5923952254
 30
0.0
 11
75.3042708941
 21
113.5923952254
 31
0.0
 70
   160
  1
WH%%c<>
 71
     2
 42
-1.0
  3
SLDDIMSTYLE0
100
AcDbAlignedDimension
 13
113.8042708941
 23
138.5923952254
 33
0.0
 14
113.8042708941
 24
88.5923952254
 34
0.0
 50
90.0
100
AcDbRotatedDimension
  0
DIMENSION
  5
13D
330
1F
100
AcDbEntity
  8
VERMASSUNG
100
AcDbDimension
  2
_D_4
 10
224.2409980212
 20
99.5923952254
 30
0.0
 11
224.2409980212
 21
113.5923952254
 31
0.0
 70
   160
  1
%%c<>
 71
     2
 42
-1.0
  3
SLDDIMSTYLE0
100
AcDbAlignedDimension
 13
212.3042708941
 23
127.5923952254
 33
0.0
 14
212.3042708941
 24
99.5923952254
 34
0.0
 50
90.0
100
AcDbRotatedDimension
  0
LINE
  5
148
330
1F
100
AcDbEntity
  8
VERMASSUNG
  6
CENTERX2
370
    18
100
AcDbLine
 10
215.3042708941
 20
113.5923952254
 30
0.0
 11
84.1702962978
 21
113.5923952254
 31
0.0
  0
LINE
  5
149
330
1F
100
AcDbEntity
  8
0
  6
Continuous
 62
     7
370
    25
100
AcDbLine
 10
267.139319287
 20
49.0872388574
 30
0.0
 11
266.9664601337
 21
49.1870607597
 31
0.0
  0
LINE
  5
14A
330
1F
100
AcDbEntity
  8
0
  6
Continuous
 62
     7
370
    25
100
AcDbLine
 10
263.2181852407
 20
49.1870607597
 30
0.0
 11
263.0453260874
 21
49.0872388574
 31
0.0
  0
LINE
  5
14B
330
1F
100
AcDbEntity
  8
0
  6
Continuous
 62
     7
370
    25
100
AcDbLine
 10
254.5466452281
 20
34.3667078588
 30
0.0
 11
254.5466452281
 21
34.1671613526
 31
0.0
  0
LINE
  5
14C
330
1F
100
AcDbEntity
  8
0
  6
Continuous
 62
     7
370
    25
100
AcDbLine
 10
256.4201736477
 20
30.9217632948
 30
0.0
 11
256.592976628
 21
30.8219738257
 31
0.0
  0
LINE
  5
14D
330
1F
100
AcDbEntity
  8
0
  6
Continuous
 62
     7
370
    25
100
AcDbLine
 10
269.884407689
 20
25.1200566845
 30
0.0
 11
270.0611556531
 21
25.2221242846
 31
0.0
  0
LINE
  5
14E
330
1F
100
AcDbEntity
  8
0
  6
Continuous
 62
     7
370
    25
100
AcDbLine
 10
278.7218058946
 20
40.2244360612
 30
0.0
 11
278.7218058946
 21
40.4285380891
 31
0.0
  0
LINE
  5
14F
330
1F
100
AcDbEntity
  8
0
  6
Continuous
 62
     7
370
    25
100
AcDbLine
 10
276.1324632087
 20
46.15159817
 30
0.0
 11
241.13067754
 21
66.3576989376
 31
0.0
  0
LINE
  5
150
330
1F
100
AcDbEntity
  8
0
  6
Continuous
 62
     7
370
    25
100
AcDbLine
 10
228.631693382
 20
44.7064773781
 30
0.0
 11
263.6334790508
 21
24.5003766105
 31
0.0
  0
SPLINE
  5
151
330
1F
100
AcDbEntity
  8
0
  6
Continuous
 62
     7
370
    25
100
AcDbSpline
210
0.0
220
0.0
230
1.0
 70
     8
 71
     3
 72
    28
 73
    24
 74
     0
 42
0.000000001
 43
0.00000001
 40
0.0
 40
0.0
 40
0.0
 40
0.0
 40
0.0344115101196584
 40
0.0876760744209049
 40
0.139660185585827
 40
0.1901717245925262
 40
0.239721691654637
 40
0.2888039392393831
 40
0.3377264599193924
 40
0.3866315505117234
 40
0.4355906327626333
 40
0.4846375290574541
 40
0.5337738840757333
 40
0.5829855250420617
 40
0.632251041325751
 40
0.6815459656703634
 40
0.730844606580784
 40
0.7801130259722966
 40
0.8293238278466141
 40
0.8784510507736191
 40
0.9274708930424981
 40
0.9763656606695982
 40
1.0
 40
1.0
 40
1.0
 40
1.0
 10
266.1585969893876
 20
29.4068618153232
 30
0.0
 10
266.0780351926152
 20
29.45632736728007
 30
0.0
 10
265.8727741603403
 20
29.5823591920841
 30
0.0
 10
265.5986622043317
 20
29.87817369790065
 30
0.0
 10
265.3345894985494
 20
30.28110305700347
 30
0.0
 10
265.1315903222581
 20
30.75739207814962
 30
0.0
 10
264.9893972926319
 20
31.29494649754945
 30
0.0
 10
264.909876129372
 20
31.88855172416175
 30
0.0
 10
264.8942701453446
 20
32.53115637003241
 30
0.0
 10
264.9436647074835
 20
33.21475599010373
 30
0.0
 10
265.0582686335424
 20
33.93012352890527
 30
0.0
 10
265.2372987641352
 20
34.66733924585343
 30
0.0
 10
265.4789025472486
 20
35.41597800987362
 30
0.0
 10
265.7801509035193
 20
36.1653123765924
 30
0.0
 10
266.1370889751305
 20
36.90455982460122
 30
0.0
 10
266.544811725805
 20
37.62309317144008
 30
0.0
 10
266.9975214854079
 20
38.31057208843436
 30
0.0
 10
267.4886278723016
 20
38.95718698217543
 30
0.0
 10
268.0108235632773
 20
39.55367675049992
 30
0.0
 10
268.5562745438291
 20
40.09207983948786
 30
0.0
 10
269.1164636815688
 20
40.5637703787968
 30
0.0
 10
269.5861059139247
 20
40.89827895307557
 30
0.0
 10
269.8652214964277
 20
41.06480565926291
 30
0.0
 10
269.9561741176028
 20
41.1190700621586
 30
0.0
  0
SPLINE
  5
152
330
1F
100
AcDbEntity
  8
0
  6
Continuous
 62
     7
370
    25
100
AcDbSpline
210
0.0
220
0.0
230
1.0
 70
     8
 71
     3
 72
    15
 73
    11
 74
     0
 42
0.000000001
 43
0.00000001
 40
0.0
 40
0.0
 40
0.0
 40
0.0
 40
0.0749991361748159
 40
0.2181077340143221
 40
0.3611294400286701
 40
0.5044191767647157
 40
0.6487905128284914
 40
0.7955494774547214
 40
0.9462610948447617
 40
1.0
 40
1.0
 40
1.0
 40
1.0
 10
269.9561741176028
 20
41.1190700621586
 30
0.0
 10
270.054005365361
 20
41.17351001409483
 30
0.0
 10
270.3385119990723
 20
41.3318288316474
 30
0.0
 10
270.8023188290546
 20
41.53406174270021
 30
0.0
 10
271.3339145473612
 20
41.69702928705226
 30
0.0
 10
271.8374596169011
 20
41.77727358909502
 30
0.0
 10
272.3084495810489
 20
41.77927232871715
 30
0.0
 10
272.7404622851731
 20
41.69749314941586
 30
0.0
 10
273.056337227691
 20
41.58818900893996
 30
0.0
 10
273.2132127932108
 20
41.47784180304826
 30
0.0
 10
273.2544468337585
 20
41.44883753366447
 30
0.0
  0
LINE
  5
153
330
1F
100
AcDbEntity
  8
0
  6
Continuous
 62
     7
370
    25
100
AcDbLine
 10
234.8797489018
 20
65.7380188636
 30
0.0
 11
234.7030009377
 21
65.6359512635
 31
0.0
  0
LINE
  5
154
330
1F
100
AcDbEntity
  8
0
  6
Continuous
 62
     7
370
    25
100
AcDbLine
 10
226.0423506962
 20
50.6336394869
 30
0.0
 11
226.0423506962
 21
50.4295374589
 31
0.0
  0
LINE
  5
155
330
1F
100
AcDbEntity
  8
0
  6
Continuous
 62
     7
370
    25
100
AcDbLine
 10
223.780071999
 20
53.8579397222
 30
0.0
 11
226.1777924292
 21
52.4737651809
 31
0.0
  0
LINE
  5
156
330
1F
100
AcDbEntity
  8
0
  6
Continuous
 62
     7
370
    25
100
AcDbLine
 10
233.1772235576
 20
64.5984492542
 30
0.0
 11
230.7795031275
 21
65.9826237956
 31
0.0
  0
LINE
  5
157
330
1F
100
AcDbEntity
  8
0
  6
Continuous
 62
     7
370
    25
100
AcDbLine
 10
230.4848006414
 20
66.1262485933
 30
0.0
 11
228.8425983825
 21
66.789535318
 31
0.0
  0
LINE
  5
158
330
1F
100
AcDbEntity
  8
0
  6
Continuous
 62
     7
370
    25
100
AcDbLine
 10
222.1126942114
 20
55.1317362167
 30
0.0
 11
223.5083208231
 21
54.0413216631
 31
0.0
  0
SPLINE
  5
159
330
1F
100
AcDbEntity
  8
0
  6
Continuous
 62
     7
370
    25
100
AcDbSpline
210
0.0
220
0.0
230
1.0
 70
     8
 71
     3
 72
    40
 73
    36
 74
     0
 42
0.000000001
 43
0.00000001
 40
0.0
 40
0.0
 40
0.0
 40
0.0
 40
0.0061302911567394
 40
0.0384301455150295
 40
0.070095957710254
 40
0.1014782338716741
 40
0.1328870506080541
 40
0.1646981207725091
 40
0.1971423904845344
 40
0.2302329401919899
 40
0.2638105295800716
 40
0.2976575599833365
 40
0.3315907737587582
 40
0.3654912808293342
 40
0.3993296518848022
 40
0.4331060900365471
 40
0.4668353323675121
 40
0.5005385802191911
 40
0.5342397828611867
 40
0.5679597111442238
 40
0.6017202438327685
 40
0.6355473131584413
 40
0.6694653487838699
 40
0.7034932523980453
 40
0.7174167644257661
 40
0.7355196135563107
 40
0.7697024988684028
 40
0.803893992916281
 40
0.8378439668618307
 40
0.8712817103612314
 40
0.9039899213928084
 40
0.9359604125344702
 40
0.9674413499342891
 40
0.9987910983858485
 40
1.0
 40
1.0
 40
1.0
 40
1.0
 10
229.4552060915065
 20
66.54210260460592
 30
0.0
 10
229.4347500197896
 20
66.56980263154047
 30
0.0
 10
229.3065130743257
 20
66.74345116448079
 30
0.0
 10
229.0071914588311
 20
66.99027428681859
 30
0.0
 10
228.5658058536712
 20
67.26746212607453
 30
0.0
 10
228.077968558269
 20
67.44889994006031
 30
0.0
 10
227.5584973376628
 20
67.5429554989775
 30
0.0
 10
227.010541088309
 20
67.54813172052262
 30
0.0
 10
226.4387755446714
 20
67.4647314408086
 30
0.0
 10
225.8486618326288
 20
67.29222948027227
 30
0.0
 10
225.2480895072062
 20
67.03178817006166
 30
0.0
 10
224.6463934465569
 20
66.68693377491718
 30
0.0
 10
224.053173151186
 20
66.263456709493
 30
0.0
 10
223.4772334234638
 20
65.76851716855386
 30
0.0
 10
222.9264086840604
 20
65.20994573271713
 30
0.0
 10
222.4077145516291
 20
64.59587985074823
 30
0.0
 10
221.927693781305
 20
63.93487611175733
 30
0.0
 10
221.4924532045845
 20
63.23588138756539
 30
0.0
 10
221.1076575201008
 20
62.50820577883562
 30
0.0
 10
220.7784699686839
 20
61.76142827596733
 30
0.0
 10
220.5094873410366
 20
61.00525480605113
 30
0.0
 10
220.3047164496568
 20
60.2493233077121
 30
0.0
 10
220.1676101133694
 20
59.50321944348781
 30
0.0
 10
220.1142925680754
 20
58.92005220953528
 30
0.0
 10
220.1045634301543
 20
58.46380003730899
 30
0.0
 10
220.1172451204645
 20
58.01676863422064
 30
0.0
 10
220.1822293054079
 20
57.45748112287405
 30
0.0
 10
220.3353491577146
 20
56.84254153050574
 30
0.0
 10
220.5640067180721
 20
56.28650990329826
 30
0.0
 10
220.8644926758743
 20
55.80056433820423
 30
0.0
 10
221.2300904667246
 20
55.39532456337609
 30
0.0
 10
221.6502661217796
 20
55.07360860758934
 30
0.0
 10
222.1185732471866
 20
54.85139120364612
 30
0.0
 10
222.4541820928902
 20
54.73531034036461
 30
0.0
 10
222.6366151616317
 20
54.71775203332174
 30
0.0
 10
222.6433888955191
 20
54.71710009395439
 30
0.0
  0
LWPOLYLINE
  5
15A
330
1F
100
AcDbEntity
  8
0
  6
Continuous
 62
     7
370
    25
100
AcDbPolyline
 90
       32
 70
   128
 43
0.0
 10
265.7390199669
 20
49.5890558903
 10
265.2084690178
 20
49.6338381839
 10
264.6731630242
 20
49.6160499612
 10
264.1550174765
 20
49.5364194741
 10
263.6752453142
 20
49.3982068041
 10
263.2534884661
 20
49.2070703941
 10
262.907013707
 20
48.9708353912
 10
262.6500057544
 20
48.6991732843
 10
262.4929865439
 20
48.4032059518
 10
262.4423844606
 20
48.0950503311
 10
262.5002711596
 20
47.7873223496
 10
262.6642767527
 20
47.492620427
 10
262.9276868316
 20
47.2230096946
 10
263.2797173569
 20
46.9895280475
 10
263.7059561573
 20
46.8017342517
 10
264.1889529663
 20
46.6673166073
 10
264.7089338378
 20
46.5917781885
 10
265.2446106939
 20
46.5782115469
 10
265.7740528611
 20
46.6271721026
 10
266.2755849149
 20
46.7366554046
 10
266.7286740741
 20
46.9021791937
 10
267.1147708152
 20
47.1169669064
 10
267.4180682923
 20
47.3722251086
 10
267.6261494711
 20
47.6575034995
 10
267.7304954836
 20
47.9611227482
 10
267.7268343919
 20
48.2706526471
 10
267.6153160815
 20
48.5734210057
 10
267.400506125
 20
48.8570324518
 10
267.0911988674
 20
49.1098758996
 10
266.7000573841
 20
49.3215999085
 10
266.2430950535
 20
49.4835364727
 10
265.7390199669
 20
49.5890558903
  0
LWPOLYLINE
  5
15B
330
1F
100
AcDbEntity
  8
0
  6
Continuous
 62
     7
370
    25
100
AcDbPolyline
 90
       26
 70
   128
 43
0.0
 10
265.531588764
 20
49.1131969968
 10
265.08368062
 20
49.1446017159
 10
264.6363154889
 20
49.1107155894
 10
264.2176029671
 20
49.0136678073
 10
263.8538523023
 20
48.8595562386
 10
263.5679192866
 20
48.6580642799
 10
263.3777701429
 20
48.4218524121
 10
263.2953526412
 20
48.1657626956
 10
263.3258453764
 20
47.905886189
 10
263.4673323776
 20
47.6585518891
 10
263.7109234963
 20
47.4393007195
 10
264.0413130065
 20
47.2619090376
 10
264.4377413204
 20
47.1375230151
 10
264.8752993889
 20
47.0739582833
 10
265.3264938294
 20
47.0752088481
 10
265.7629744358
 20
47.1411961318
 10
266.1573155263
 20
47.2677739109
 10
266.4847392
 20
47.4469888378
 10
266.7246722233
 20
47.6675801796
 10
266.8620387219
 20
47.9156873711
 10
266.8882074534
 20
48.1757209249
 10
266.8015341402
 20
48.4313419764
 10
266.6074647855
 20
48.666488915
 10
266.3181934804
 20
48.8663865937
 10
265.9518962049
 20
49.0184747061
 10
265.531588764
 20
49.1131969968
  0
SPLINE
  5
15C
330
1F
100
AcDbEntity
  8
0
  6
Continuous
 62
     7
370
    25
100
AcDbSpline
210
0.0
220
0.0
230
1.0
 70
     8
 71
     3
 72
    15
 73
    11
 74
     0
 42
0.000000001
 43
0.00000001
 40
0.0
 40
0.0
 40
0.0
 40
0.0
 40
0.1077869592233283
 40
0.2161701819135343
 40
0.3273150562947891
 40
0.4399598612360019
 40
0.5934902695338394
 40
0.7521517812193693
 40
0.8755082115460545
 40
1.0
 40
1.0
 40
1.0
 40
1.0
 10
264.6185357640617
 20
49.01176864407394
 30
0.0
 10
264.5777104813286
 20
48.96456017871048
 30
0.0
 10
264.4958340756978
 20
48.86988209688118
 30
0.0
 10
264.366748732495
 20
48.73717081511107
 30
0.0
 10
264.2317825744959
 20
48.61466515028361
 30
0.0
 10
264.0745380116461
 20
48.49516295881811
 30
0.0
 10
263.8951523798622
 20
48.39263238579195
 30
0.0
 10
263.715376469381
 20
48.32970996552278
 30
0.0
 10
263.5538731085639
 20
48.2993748833413
 30
0.0
 10
263.4598603978346
 20
48.2958122605949
 30
0.0
 10
263.4126387129111
 20
48.2940227892827
 30
0.0
  0
SPLINE
  5
15D
330
1F
100
AcDbEntity
  8
0
  6
Continuous
 62
     7
370
    25
100
AcDbSpline
210
0.0
220
0.0
230
1.0
 70
     8
 71
     3
 72
    11
 73
     7
 74
     0
 42
0.000000001
 43
0.00000001
 40
0.0
 40
0.0
 40
0.0
 40
0.0
 40
0.2164553779443459
 40
0.4403112895790557
 40
0.7519005688038772
 40
1.0
 40
1.0
 40
1.0
 40
1.0
 10
263.4126387129111
 20
48.2940227892827
 30
0.0
 10
263.4450935762032
 20
48.18377964777072
 30
0.0
 10
263.5111129232157
 20
47.95952419028394
 30
0.0
 10
263.6336271985973
 20
47.63561268715199
 30
0.0
 10
263.7650457354318
 20
47.41419075259886
 30
0.0
 10
263.8491457073782
 20
47.35742836226853
 30
0.0
 10
263.886425636051
 20
47.3322666670403
 30
0.0
  0
SPLINE
  5
15E
330
1F
100
AcDbEntity
  8
0
  6
Continuous
 62
     7
370
    25
100
AcDbSpline
210
0.0
220
0.0
230
1.0
 70
     8
 71
     3
 72
    11
 73
     7
 74
     0
 42
0.000000001
 43
0.00000001
 40
0.0
 40
0.0
 40
0.0
 40
0.0
 40
0.2067731312808296
 40
0.5163710687182478
 40
0.7570778160135788
 40
1.0
 40
1.0
 40
1.0
 40
1.0
 10
266.1532094544655
 20
47.25283308028907
 30
0.0
 10
266.1977878531255
 20
47.27874383922418
 30
0.0
 10
266.3091127395613
 20
47.34345034243251
 30
0.0
 10
266.4692718938291
 20
47.48208312677092
 30
0.0
 10
266.6307715910096
 20
47.64305586925108
 30
0.0
 10
266.7247847509395
 20
47.75152117119644
 30
0.0
 10
266.772006661492
 20
47.80600225438037
 30
0.0
  0
SPLINE
  5
15F
330
1F
100
AcDbEntity
  8
0
  6
Continuous
 62
     7
370
    25
100
AcDbSpline
210
0.0
220
0.0
230
1.0
 70
     8
 71
     3
 72
    11
 73
     7
 74
     0
 42
0.000000001
 43
0.00000001
 40
0.0
 40
0.0
 40
0.0
 40
0.0
 40
0.2164553779443449
 40
0.4403112895790507
 40
0.7519005688038719
 40
1.0
 40
1.0
 40
1.0
 40
1.0
 10
266.772006661492
 20
47.80600225438037
 30
0.0
 10
266.7395517982
 20
47.82752156532617
 30
0.0
 10
266.6735324511874
 20
47.87129592493496
 30
0.0
 10
266.5510181758059
 20
48.04477617600944
 30
0.0
 10
266.4195996389712
 20
48.35689611947676
 30
0.0
 10
266.335499667025
 20
48.64156849211441
 30
0.0
 10
266.2982197383521
 20
48.76775837662277
 30
0.0
  0
SPLINE
  5
160
330
1F
100
AcDbEntity
  8
0
  6
Continuous
 62
     7
370
    25
100
AcDbSpline
210
0.0
220
0.0
230
1.0
 70
     8
 71
     3
 72
    11
 73
     7
 74
     0
 42
0.000000001
 43
0.00000001
 40
0.0
 40
0.0
 40
0.0
 40
0.0
 40
0.1285561766307336
 40
0.480153579784214
 40
0.8150691831753882
 40
1.0
 40
1.0
 40
1.0
 40
1.0
 10
266.2982197383521
 20
48.76775837662277
 30
0.0
 10
266.2305739146637
 20
48.7505903512341
 30
0.0
 10
265.9779187311269
 20
48.68646827585633
 30
0.0
 10
265.5041336749591
 20
48.65810255541118
 30
0.0
 10
264.9911243989172
 20
48.81199808864667
 30
0.0
 10
264.7163015785093
 20
48.95934962420348
 30
0.0
 10
264.6185357640617
 20
49.01176864407394
 30
0.0
  0
LINE
  5
161
330
1F
100
AcDbEntity
  8
0
  6
Continuous
 62
     7
370
    25
100
AcDbLine
 10
266.2982197384
 20
47.3450020559
 30
0.0
 11
266.2982197384
 21
48.7677583766
 31
0.0
  0
LINE
  5
162
330
1F
100
AcDbEntity
  8
0
  6
Continuous
 62
     7
370
    25
100
AcDbLine
 10
264.6185357641
 20
47.1030201235
 30
0.0
 11
264.6185357641
 21
49.0117686441
 31
0.0
  0
LWPOLYLINE
  5
163
330
1F
100
AcDbEntity
  8
0
  6
Continuous
 62
     7
370
    25
100
AcDbPolyline
 90
       32
 70
   128
 43
0.0
 10
255.4588868951
 20
35.497727742
 10
255.154824614
 20
35.4117184063
 10
254.9025783393
 20
35.2304701654
 10
254.7124750632
 20
34.9614033434
 10
254.5922976361
 20
34.6155335676
 10
254.546966136
 20
34.2070207874
 10
254.5783364399
 20
33.7525895638
 10
254.6851242438
 20
33.2708443647
 10
254.8629576425
 20
32.7815078951
 10
255.1045561157
 20
32.3046136474
 10
255.4000285937
 20
31.8596857284
 10
255.7372783983
 20
31.4649395392
 10
256.102498483
 20
31.1365360352
 10
256.4807366946
 20
30.8879200944
 10
256.8565079163
 20
30.7292700827
 10
257.2144280301
 20
30.6670811502
 10
257.5398437445
 20
30.7038993191
 10
257.819432502
 20
30.8382172493
 10
258.0417479058
 20
31.0645359488
 10
258.1976883373
 20
31.3735899036
 10
258.280869577
 20
31.7527264084
 10
258.2878861749
 20
32.1864235702
 10
258.218450871
 20
32.6569257762
 10
258.0754063545
 20
33.1449706108
 10
257.8646088849
 20
33.6305774611
 10
257.5946885352
 20
34.0938655257
 10
257.2766958765
 20
34.5158677367
 10
256.9236495653
 20
34.8793072741
 10
256.5500033593
 20
35.1693048804
 10
256.171054378
 20
35.3739880196
 10
255.8023168372
 20
35.4849769399
 10
255.4588868951
 20
35.497727742
  0
LWPOLYLINE
  5
164
330
1F
100
AcDbEntity
  8
0
  6
Continuous
 62
     7
370
    25
100
AcDbPolyline
 90
       26
 70
   128
 43
0.0
 10
255.7673218414
 20
34.7239688488
 10
255.5161675376
 20
34.6417530696
 10
255.3218343985
 20
34.4617471977
 10
255.1965330899
 20
34.1952616643
 10
255.1481367538
 20
33.8590407353
 10
255.1796863099
 20
33.4742104084
 10
255.2891993837
 20
33.0649509882
 10
255.469794866
 20
32.6569777493
 10
255.7101252784
 20
32.2759251506
 10
255.9950897773
 20
31.9457361285
 10
256.3067829951
 20
31.6871576734
 10
256.6256201007
 20
31.5164372207
 10
256.9315673861
 20
31.4443017644
 10
257.2054010581
 20
31.4752838404
 10
257.4299151401
 20
31.6074367309
 10
257.5910025867
 20
31.8324567839
 10
257.678541681
 20
32.1362051618
 10
257.6870320198
 20
32.4995962369
 10
257.615940124
 20
32.8997968115
 10
257.4697329588
 20
33.3116608117
 10
257.257597258
 20
33.7093093077
 10
256.9928622881
 20
34.0677565819
 10
256.6921623207
 20
34.3644800739
 10
256.3743914407
 20
34.5808355553
 10
256.0595163612
 20
34.7032286157
 10
255.7673218414
 20
34.7239688488
  0
SPLINE
  5
165
330
1F
100
AcDbEntity
  8
0
  6
Continuous
 62
     7
370
    25
100
AcDbSpline
210
0.0
220
0.0
230
1.0
 70
     8
 71
     3
 72
    15
 73
    11
 74
     0
 42
0.000000001
 43
0.00000001
 40
0.0
 40
0.0
 40
0.0
 40
0.0
 40
0.1077869592233284
 40
0.2161701819135343
 40
0.3273150562947892
 40
0.439959861236002
 40
0.5934902695338394
 40
0.7521517812193693
 40
0.8755082115460547
 40
1.0
 40
1.0
 40
1.0
 40
1.0
 10
255.3986365804949
 20
34.41914810751655
 30
0.0
 10
255.4191088750596
 20
34.38236059025562
 30
0.0
 10
255.4601667142651
 20
34.30858205196356
 30
0.0
 10
255.5105599729101
 20
34.1839865390421
 30
0.0
 10
255.5491754720684
 20
34.0455902673073
 30
0.0
 10
255.5740526919139
 20
33.87273874723542
 30
0.0
 10
255.5731641756846
 20
33.65865218575098
 30
0.0
 10
255.5377807443958
 20
33.42418747416833
 30
0.0
 10
255.4833121231909
 20
33.20046011907105
 30
0.0
 10
255.4393987987231
 20
33.06317948353995
 30
0.0
 10
255.4173415560813
 20
32.99422473405077
 30
0.0
  0
SPLINE
  5
166
330
1F
100
AcDbEntity
  8
0
  6
Continuous
 62
     7
370
    25
100
AcDbSpline
210
0.0
220
0.0
230
1.0
 70
     8
 71
     3
 72
    11
 73
     7
 74
     0
 42
0.000000001
 43
0.00000001
 40
0.0
 40
0.0
 40
0.0
 40
0.0
 40
0.2164553779443457
 40
0.4403112895790557
 40
0.7519005688038772
 40
1.0
 40
1.0
 40
1.0
 40
1.0
 10
255.4173415560813
 20
32.99422473405077
 30
0.0
 10
255.5290464504649
 20
32.92694048141897
 30
0.0
 10
255.7562753905144
 20
32.79007155108322
 30
0.0
 10
256.0980679290892
 20
32.48996350201512
 30
0.0
 10
256.355561380512
 20
32.10503839955003
 30
0.0
 10
256.4467904054008
 20
31.81624917436739
 30
0.0
 10
256.4872305085547
 20
31.68823436690504
 30
0.0
  0
SPLINE
  5
167
330
1F
100
AcDbEntity
  8
0
  6
Continuous
 62
     7
370
    25
100
AcDbSpline
210
0.0
220
0.0
230
1.0
 70
     8
 71
     3
 72
    11
 73
     7
 74
     0
 42
0.000000001
 43
0.00000001
 40
0.0
 40
0.0
 40
0.0
 40
0.0
 40
0.1849308168246175
 40
0.519846420215781
 40
0.8714438233692606
 40
1.0
 40
1.0
 40
1.0
 40
1.0
 10
256.4872305085547
 20
31.68823436690504
 30
0.0
 10
256.5815091586925
 20
31.71426195864449
 30
0.0
 10
256.8465294490824
 20
31.78742634857641
 30
0.0
 10
257.2363147989764
 20
31.86342937628686
 30
0.0
 10
257.4486529112062
 20
31.84838786498274
 30
0.0
 10
257.5194573311157
 20
31.81587291599544
 30
0.0
 10
257.5384144854416
 20
31.80716737322509
 30
0.0
  0
SPLINE
  5
168
330
1F
100
AcDbEntity
  8
0
  6
Continuous
 62
     7
370
    25
100
AcDbSpline
210
0.0
220
0.0
230
1.0
 70
     8
 71
     3
 72
    12
 73
     8
 74
     0
 42
0.000000001
 43
0.00000001
 40
0.0
 40
0.0
 40
0.0
 40
0.0
 40
0.2211518080143369
 40
0.4435269991234642
 40
0.6715684068972297
 40
0.90268729600659
 40
1.0
 40
1.0
 40
1.0
 40
1.0
 10
257.5384144854416
 20
31.80716737322509
 30
0.0
 10
257.5575975609447
 20
31.86684736790017
 30
0.0
 10
257.5960698302345
 20
31.98653749923397
 30
0.0
 10
257.6428045952271
 20
32.16720505217326
 30
0.0
 10
257.675878035152
 20
32.3469816689031
 30
0.0
 10
257.6944101028087
 20
32.49226387488105
 30
0.0
 10
257.6905462682542
 20
32.57006686776397
 30
0.0
 10
257.6894014326289
 20
32.59311952096547
 30
0.0
  0
SPLINE
  5
169
330
1F
100
AcDbEntity
  8
0
  6
Continuous
 62
     7
370
    25
100
AcDbSpline
210
0.0
220
0.0
230
1.0
 70
     8
 71
     3
 72
    11
 73
     7
 74
     0
 42
0.000000001
 43
0.00000001
 40
0.0
 40
0.0
 40
0.0
 40
0.0
 40
0.1285561766307334
 40
0.480153579784217
 40
0.815069183175388
 40
0.9999999999999999
 40
0.9999999999999999
 40
0.9999999999999999
 40
0.9999999999999999
 10
256.4498205573818
 20
34.53808111383659
 30
0.0
 10
256.4308634030558
 20
34.54678665660695
 30
0.0
 10
256.3600589831464
 20
34.57930160559422
 30
0.0
 10
256.1477208709165
 20
34.59434311689837
 30
0.0
 10
255.7579355210226
 20
34.51834008918792
 30
0.0
 10
255.4929152306327
 20
34.44517569925598
 30
0.0
 10
255.3986365804949
 20
34.41914810751655
 30
0.0
  0
LINE
  5
16A
330
1F
100
AcDbEntity
  8
0
  6
Continuous
 62
     7
370
    25
100
AcDbLine
 10
257.6768845412
 20
32.3750070216
 30
0.0
 11
256.4872305086
 21
31.6882343669
 31
0.0
  0
LINE
  5
16B
330
1F
100
AcDbEntity
  8
0
  6
Continuous
 62
     7
370
    25
100
AcDbLine
 10
257.0841432242
 20
33.9564488555
 30
0.0
 11
255.4173415561
 21
32.9942247341
 31
0.0
  0
LWPOLYLINE
  5
16C
330
1F
100
AcDbEntity
  8
0
  6
Continuous
 62
     7
370
    25
100
AcDbPolyline
 90
       68
 70
   128
 43
0.0
 10
270.059747825
 20
45.2265613219
 10
269.248619805
 20
44.7143553691
 10
268.4446200071
 20
44.118747273
 10
267.6548140106
 20
43.4449712589
 10
266.8861426589
 20
42.6989484947
 10
266.1453610635
 20
41.8872350552
 10
265.4389792398
 20
41.0169643073
 10
264.7732048965
 20
40.0957842217
 10
264.1538888825
 20
39.131790162
 10
263.5864737693
 20
38.1334537428
 10
263.0759460212
 20
37.1095483803
 10
262.6267921745
 20
36.0690721917
 10
262.2429594093
 20
35.0211689192
 10
261.9278208618
 20
33.9750475744
 10
261.6841459808
 20
32.9399015093
 10
261.51407619
 20
31.9248276247
 10
261.4191060688
 20
30.9387464265
 10
261.400070218
 20
29.9903236316
 10
261.4571359254
 20
29.0878940137
 10
261.5898016955
 20
28.2393881567
 10
261.7969016568
 20
27.4522627606
 10
262.0766158072
 20
26.7334351117
 10
262.4264860089
 20
26.0892222932
 10
262.8434375899
 20
25.5252856704
 10
263.3238063646
 20
25.0465811389
 10
263.8633708352
 20
24.657315571
 10
264.4573892895
 20
24.3609098468
 10
265.1006414721
 20
24.1599687903
 10
265.7874744596
 20
24.0562582787
 10
266.5118523391
 20
24.0506897238
 10
267.2674092516
 20
24.1433120623
 10
268.047505336
 20
24.3333113256
 10
268.8452850797
 20
24.6190177935
 10
269.6537375657
 20
24.9979206672
 10
270.4657580844
 20
25.4666901346
 10
271.2742105704
 20
26.0212066328
 10
272.0719903141
 20
26.6565970509
 10
272.8520863984
 20
27.3672775551
 10
273.607643311
 20
28.1470026595
 10
274.3320211905
 20
28.9889201118
 10
275.018854178
 20
29.8856311112
 10
275.6621063606
 20
30.8292553293
 10
276.2561248149
 20
31.8115001624
 10
276.7956892854
 20
32.8237336077
 10
277.2760580602
 20
33.8570601212
 10
277.6930096412
 20
34.9023987924
 10
278.0428798429
 20
35.9505631474
 10
278.3225939933
 20
36.9923418802
 10
278.5296939545
 20
38.0185798019
 10
278.6623597246
 20
39.0202582966
 10
278.719425432
 20
39.9885745779
 10
278.7003895813
 20
40.9150190473
 10
278.60541946
 20
41.7914500775
 10
278.4353496692
 20
42.6101655612
 10
278.1916747883
 20
43.3639705973
 10
277.8765362407
 20
44.0462407199
 10
277.4927034755
 20
44.6509801147
 10
277.0435496288
 20
45.1728743102
 10
276.5330218808
 20
45.6073368815
 10
275.9656067676
 20
45.9505497557
 10
275.3462907536
 20
46.1994967658
 10
274.6805164103
 20
46.3519901567
 10
273.9741345865
 20
46.4066898107
 10
273.2333529912
 20
46.3631150255
 10
272.4646816395
 20
46.2216487378
 10
271.674875643
 20
45.9835341585
 10
270.8708758451
 20
45.6508638469
 10
270.059747825
 20
45.2265613219
  0
LWPOLYLINE
  5
16D
330
1F
100
AcDbEntity
  8
0
  6
Continuous
 62
     7
370
    25
100
AcDbPolyline
 90
       35
 70
   128
 43
0.0
 10
269.8829711297
 20
45.5327475388
 10
269.0552894766
 20
45.0100884033
 10
268.2348815196
 20
44.40232504
 10
267.4289570334
 20
43.714798495
 10
266.6445985112
 20
42.9535507764
 10
265.8886989241
 20
42.1252717565
 10
265.1679011448
 20
41.2372403811
 10
264.48853957
 20
40.2972607019
 10
263.8565844537
 20
39.3135932941
 10
263.2775894402
 20
38.2948826622
 10
262.7566427585
 20
37.2500812719
 10
262.2983225068
 20
36.1883708754
 10
261.9066564199
 20
35.1190818218
 10
261.5850864734
 20
34.0516110618
 10
261.3364386357
 20
32.9953395668
 10
261.1628980328
 20
31.9595498887
 10
261.0659897458
 20
30.9533445843
 10
261.0465654083
 20
29.9855662222
 10
261.104795722
 20
29.0647196733
 10
261.2401689568
 20
28.1988973703
 10
261.4514954478
 20
27.3957081906
 10
261.7369180503
 20
26.6622105896
 10
262.0939284602
 20
26.0048505707
 10
262.5193892571
 20
25.4294050374
 10
263.0095614763
 20
24.9409310255
 10
263.5601374666
 20
24.5437212625
 10
264.1662787466
 20
24.2412664418
 10
264.8226585247
 20
24.0362245474
 10
265.523508512
 20
23.9303974948
 10
266.2626696135
 20
23.9247152959
 10
267.0336460549
 20
24.0192278862
 10
267.8296624675
 20
24.2131046855
 10
268.6437234304
 20
24.5046418976
 10
269.4686749467
 20
24.891277483
 10
269.884407689
 20
25.1200566845
  0
LWPOLYLINE
  5
16E
330
1F
100
AcDbEntity
  8
0
  6
Continuous
 62
     7
370
    25
100
AcDbPolyline
 90
       18
 70
   128
 43
0.0
 10
278.7218058946
 20
40.4285380891
 10
278.6999525136
 20
41.1332146056
 10
278.6030442267
 20
42.0275319834
 10
278.4295036238
 20
42.8629559463
 10
278.1808557861
 20
43.6321447586
 10
277.8592858396
 20
44.3283387613
 10
277.4676197527
 20
44.9454197764
 10
277.009299501
 20
45.4779648739
 10
276.4883528193
 20
45.9212940282
 10
275.9093578058
 20
46.2715112468
 10
275.2774026895
 20
46.5255388082
 10
274.5980411147
 20
46.681144309
 10
273.8772433354
 20
46.7369602826
 10
273.1213437482
 20
46.692496216
 10
272.3369852261
 20
46.5481428612
 10
271.5310607399
 20
46.3051688007
 10
270.7106527829
 20
45.9657092991
 10
269.8829711297
 20
45.5327475388
  0
SPLINE
  5
16F
330
1F
100
AcDbEntity
  8
0
  6
Continuous
 62
     7
370
    25
100
AcDbSpline
210
0.0
220
0.0
230
1.0
 70
    11
 71
     3
 72
    93
 73
    89
 74
     0
 42
0.000000001
 43
0.00000001
 40
0.0
 40
0.0
 40
0.0
 40
0.0
 40
0.0312499999999986
 40
0.0312499999999986
 40
0.0624999999999973
 40
0.0624999999999973
 40
0.0937499999999959
 40
0.0937499999999959
 40
0.1093749999999952
 40
0.1093749999999952
 40
0.1249999999999945
 40
0.1406249999999938
 40
0.1406249999999938
 40
0.1562499999999931
 40
0.1562499999999931
 40
0.1874999999999917
 40
0.1874999999999917
 40
0.2031249999999908
 40
0.2031249999999908
 40
0.2187499999999899
 40
0.2187499999999899
 40
0.249999999999988
 40
0.249999999999988
 40
0.2812499999999862
 40
0.2812499999999862
 40
0.2968749999999852
 40
0.2968749999999852
 40
0.3124999999999843
 40
0.3124999999999843
 40
0.3437499999999835
 40
0.3437499999999835
 40
0.3749999999999826
 40
0.3749999999999826
 40
0.4062499999999818
 40
0.4062499999999818
 40
0.4374999999999809
 40
0.4374999999999809
 40
0.453124999999981
 40
0.453124999999981
 40
0.468749999999981
 40
0.468749999999981
 40
0.4999999999999811
 40
0.4999999999999811
 40
0.5156249999999816
 40
0.5156249999999816
 40
0.531249999999982
 40
0.531249999999982
 40
0.5624999999999836
 40
0.5624999999999836
 40
0.5781249999999841
 40
0.5781249999999841
 40
0.5937499999999847
 40
0.5937499999999847
 40
0.6249999999999856
 40
0.6249999999999856
 40
0.640624999999986
 40
0.640624999999986
 40
0.6562499999999865
 40
0.6562499999999865
 40
0.6718749999999869
 40
0.6718749999999869
 40
0.6874999999999872
 40
0.6874999999999872
 40
0.7187499999999886
 40
0.7187499999999886
 40
0.7499999999999899
 40
0.7499999999999899
 40
0.7812499999999912
 40
0.7812499999999912
 40
0.8124999999999925
 40
0.8124999999999925
 40
0.8281249999999931
 40
0.8281249999999931
 40
0.8437499999999938
 40
0.8437499999999938
 40
0.8749999999999951
 40
0.8749999999999951
 40
0.8906249999999958
 40
0.8906249999999958
 40
0.9062499999999964
 40
0.9062499999999964
 40
0.9374999999999966
 40
0.9374999999999966
 40
0.9531249999999972
 40
0.9531249999999972
 40
0.9687499999999979
 40
0.9687499999999979
 40
1.0
 40
1.0
 40
1.0
 40
1.0
 10
254.7873531805781
 20
32.18514827727664
 30
0.0
 10
254.6552755252997
 20
32.35007351735273
 30
0.0
 10
254.5335139466881
 20
32.51988070487064
 30
0.0
 10
254.3132744276365
 20
32.87105569349048
 30
0.0
 10
254.2142335867101
 20
33.05422931864051
 30
0.0
 10
254.0521763798622
 20
33.41800422923244
 30
0.0
 10
253.9878777481417
 20
33.60014695672412
 30
0.0
 10
253.9196703390038
 20
33.87443749473834
 30
0.0
 10
253.9017101277101
 20
33.96635090920534
 30
0.0
 10
253.8767409295627
 20
34.14519817150536
 30
0.0
 10
253.8623205824842
 20
34.32038176926619
 30
0.0
 10
253.8688506491806
 20
34.48835919014245
 30
0.0
 10
253.8860643651937
 20
34.65264558622666
 30
0.0
 10
253.9001511675621
 20
34.73318081278754
 30
0.0
 10
253.9571926592838
 20
34.96271441060414
 30
0.0
 10
254.014857788298
 20
35.10198716698277
 30
0.0
 10
254.1287235789487
 20
35.29071465353655
 30
0.0
 10
254.1711587366033
 20
35.34991074001052
 30
0.0
 10
254.2628252375683
 20
35.45905475743455
 30
0.0
 10
254.3122543121956
 20
35.50934375290834
 30
0.0
 10
254.4705662834388
 20
35.64774526690745
 30
0.0
 10
254.5906608970527
 20
35.72384721821521
 30
0.0
 10
254.8463407653842
 20
35.83852519542738
 30
0.0
 10
254.9823446776936
 20
35.87791793100654
 30
0.0
 10
255.1968578815232
 20
35.91049284701555
 30
0.0
 10
255.2701932933792
 20
35.9168483047676
 30
0.0
 10
255.4174753925375
 20
35.92047266153896
 30
0.0
 10
255.4917543007526
 20
35.91780731491396
 30
0.0
 10
255.7162030849014
 20
35.89664796431501
 30
0.0
 10
255.8681260337992
 20
35.86504254702044
 30
0.0
 10
256.1746531135563
 20
35.765922685389
 30
0.0
 10
256.325267528811
 20
35.69972935050353
 30
0.0
 10
256.6210520237285
 20
35.53536800382808
 30
0.0
 10
256.7669185773906
 20
35.4366293244025
 30
0.0
 10
257.0501617517413
 20
35.20801832343349
 30
0.0
 10
257.1849460471235
 20
35.0804396473532
 30
0.0
 10
257.3777605652397
 20
34.86984205304427
 30
0.0
 10
257.4404655699979
 20
34.79641914770772
 30
0.0
 10
257.5628190292584
 20
34.64300296819366
 30
0.0
 10
257.6227631041998
 20
34.56257314107769
 30
0.0
 10
257.7956172442392
 20
34.31453967440908
 30
0.0
 10
257.9013021749528
 20
34.14097875543722
 30
0.0
 10
258.0466809838603
 20
33.86869240932364
 30
0.0
 10
258.0929343710151
 20
33.77592578722395
 30
0.0
 10
258.1810378687133
 20
33.58626187172913
 30
0.0
 10
258.2231121186559
 20
33.48875887943123
 30
0.0
 10
258.3400650801294
 20
33.19608423195631
 30
0.0
 10
258.4063457042838
 20
32.9998952666548
 30
0.0
 10
258.488768818958
 20
32.70452205623867
 30
0.0
 10
258.5133859282768
 20
32.6058799034635
 30
0.0
 10
258.5566614301418
 20
32.40828180185293
 30
0.0
 10
258.5751476409265
 20
32.30989331254498
 30
0.0
 10
258.6200369896439
 20
32.0229387178855
 30
0.0
 10
258.6366156102005
 20
31.83985691356014
 30
0.0
 10
258.6409705779785
 20
31.57833342706197
 30
0.0
 10
258.6388993764886
 20
31.49320229663914
 30
0.0
 10
258.6278848311357
 20
31.33225994732853
 30
0.0
 10
258.6189748357115
 20
31.25579672924653
 30
0.0
 10
258.5944669429353
 20
31.11062156732042
 30
0.0
 10
258.5788688560821
 20
31.04191011088117
 30
0.0
 10
258.5408336408934
 20
30.91219639951462
 30
0.0
 10
258.5184432945468
 20
30.85155304869308
 30
0.0
 10
258.442674681191
 20
30.68496704423085
 30
0.0
 10
258.3803935397981
 20
30.59271808026874
 30
0.0
 10
258.2317201725957
 20
30.44294626485238
 30
0.0
 10
258.1473562738727
 20
30.38754835870591
 30
0.0
 10
257.9593972498143
 20
30.3113578957826
 30
0.0
 10
257.8545959627747
 20
30.29061531881299
 30
0.0
 10
257.6308805896981
 20
30.28261137618743
 30
0.0
 10
257.5116464763589
 20
30.29488243119301
 30
0.0
 10
257.320863931072
 20
30.3362801317958
 30
0.0
 10
257.2549571304556
 20
30.35405497964667
 30
0.0
 10
257.1209887843144
 20
30.39671846328593
 30
0.0
 10
257.0528520200659
 20
30.42158809974462
 30
0.0
 10
256.8449214453062
 20
30.5063933866397
 30
0.0
 10
256.7016170550176
 20
30.57643046362736
 30
0.0
 10
256.4792139129177
 20
30.70188021403072
 30
0.0
 10
256.4037180351104
 20
30.74722437785618
 30
0.0
 10
256.2531083530438
 20
30.84308172904677
 30
0.0
 10
256.1776443418655
 20
30.89378108474818
 30
0.0
 10
255.9508613821374
 20
31.05412006532797
 30
0.0
 10
255.7991336847942
 20
31.17191156579411
 30
0.0
 10
255.5713710892008
 20
31.36618858503977
 30
0.0
 10
255.4955492418711
 20
31.43383394478394
 30
0.0
 10
255.3469953247817
 20
31.57257463186337
 30
0.0
 10
255.2738899683357
 20
31.6439809990931
 30
0.0
 10
255.0583664475874
 20
31.86453004064296
 30
0.0
 10
254.9194308358566
 20
32.02022303720054
 30
0.0
 10
254.7873531805781
 20
32.18514827727664
 30
0.0
  0
SPLINE
  5
170
330
1F
100
AcDbEntity
  8
0
  6
Continuous
 62
     7
370
    25
100
AcDbSpline
210
0.0
220
0.0
230
1.0
 70
    11
 71
     3
 72
    89
 73
    85
 74
     0
 42
0.000000001
 43
0.00000001
 40
0.0
 40
0.0
 40
0.0
 40
0.0
 40
0.0312500000000011
 40
0.0312500000000011
 40
0.0625000000000022
 40
0.0625000000000022
 40
0.0937500000000033
 40
0.0937500000000033
 40
0.1093750000000033
 40
0.1093750000000033
 40
0.1250000000000033
 40
0.1250000000000033
 40
0.1562500000000044
 40
0.1562500000000044
 40
0.171875000000005
 40
0.171875000000005
 40
0.1875000000000055
 40
0.1875000000000055
 40
0.2187500000000056
 40
0.2187500000000056
 40
0.2343750000000052
 40
0.2343750000000052
 40
0.2500000000000048
 40
0.2500000000000048
 40
0.2812500000000041
 40
0.2812500000000041
 40
0.3125000000000033
 40
0.3125000000000033
 40
0.3437500000000026
 40
0.3437500000000026
 40
0.3593750000000023
 40
0.3593750000000023
 40
0.375000000000002
 40
0.3906250000000017
 40
0.3906250000000017
 40
0.4062500000000014
 40
0.4062500000000014
 40
0.4375000000000012
 40
0.4375000000000012
 40
0.453125000000001
 40
0.453125000000001
 40
0.4687500000000008
 40
0.4687500000000008
 40
0.5000000000000004
 40
0.5000000000000004
 40
0.5312500000000002
 40
0.5312500000000002
 40
0.5468750000000006
 40
0.5468750000000006
 40
0.5625000000000009
 40
0.5625000000000009
 40
0.5937500000000004
 40
0.5937500000000004
 40
0.6250000000000001
 40
0.6250000000000001
 40
0.6562499999999998
 40
0.6562499999999998
 40
0.6874999999999994
 40
0.6874999999999994
 40
0.7187499999999991
 40
0.7187499999999991
 40
0.7499999999999987
 40
0.7499999999999987
 40
0.7656249999999989
 40
0.7656249999999989
 40
0.7812499999999991
 40
0.7812499999999991
 40
0.8124999999999989
 40
0.8124999999999989
 40
0.828124999999999
 40
0.828124999999999
 40
0.8437499999999991
 40
0.8437499999999991
 40
0.8749999999999993
 40
0.8749999999999993
 40
0.8906249999999994
 40
0.8906249999999994
 40
0.9062499999999996
 40
0.9062499999999996
 40
0.9374999999999997
 40
0.9374999999999997
 40
0.9687499999999999
 40
0.9687499999999999
 40
1.0
 40
1.0
 40
1.0
 40
1.0
 10
265.0552482575482
 20
49.96966418517965
 30
0.0
 10
265.2641610642231
 20
49.93773786182751
 30
0.0
 10
265.4677490594381
 20
49.89541097030951
 30
0.0
 10
265.86549279889
 20
49.79380737081408
 30
0.0
 10
266.0608594585471
 20
49.73405889269675
 30
0.0
 10
266.4365982750461
 20
49.60087509358902
 30
0.0
 10
266.6144125378711
 20
49.52848737003087
 30
0.0
 10
266.8667447184939
 20
49.4123572234543
 30
0.0
 10
266.9484405472543
 20
49.37237418693427
 30
0.0
 10
267.1069245984589
 20
49.28988377941423
 30
0.0
 10
267.1838897955392
 20
49.24724826533463
 30
0.0
 10
267.4031313419007
 20
49.11790782965591
 30
0.0
 10
267.5352660614405
 20
49.02912500221871
 30
0.0
 10
267.7126604281279
 20
48.89181438621743
 30
0.0
 10
267.7683026798993
 20
48.84534500910634
 30
0.0
 10
267.8723752843611
 20
48.75082993892524
 30
0.0
 10
267.9207694373505
 20
48.70276075241052
 30
0.0
 10
268.0520888187489
 20
48.55876383251184
 30
0.0
 10
268.1223835441017
 20
48.46211999216906
 30
0.0
 10
268.201390253302
 20
48.31476951395747
 30
0.0
 10
268.2232909848828
 20
48.26524985514202
 30
0.0
 10
268.2577238778879
 20
48.16507977388207
 30
0.0
 10
268.2701416895578
 20
48.11457153080614
 30
0.0
 10
268.2921288185086
 20
47.96425241155954
 30
0.0
 10
268.2870109842323
 20
47.86457257448582
 30
0.0
 10
268.2346840195872
 20
47.66396056894564
 30
0.0
 10
268.1863019618139
 20
47.56184810540216
 30
0.0
 10
268.0476011872502
 20
47.36436340751238
 30
0.0
 10
267.9575406244182
 20
47.26804018383422
 30
0.0
 10
267.7888863084264
 20
47.12639267341319
 30
0.0
 10
267.726620819416
 20
47.07943823518194
 30
0.0
 10
267.5940104818208
 20
46.98914931921218
 30
0.0
 10
267.4527017753151
 20
46.90185566071917
 30
0.0
 10
267.2942659803669
 20
46.82041344099839
 30
0.0
 10
267.1271262897026
 20
46.74198578050861
 30
0.0
 10
267.038817872858
 20
46.70417000155418
 30
0.0
 10
266.7678148303394
 20
46.59835351578668
 30
0.0
 10
266.577132148968
 20
46.53684164784369
 30
0.0
 10
266.2767250761202
 20
46.45851759490985
 30
0.0
 10
266.1745565489919
 20
46.43489433181933
 30
0.0
 10
265.9699594431485
 20
46.39342268987031
 30
0.0
 10
265.8670037057296
 20
46.3754327045885
 30
0.0
 10
265.5562002643557
 20
46.32972241222075
 30
0.0
 10
265.3445262696017
 20
46.31022179097847
 30
0.0
 10
264.9298488967339
 20
46.29548248190592
 30
0.0
 10
264.7258260262046
 20
46.29988582191909
 30
0.0
 10
264.4243548664479
 20
46.32494006162176
 30
0.0
 10
264.324413036456
 20
46.33644876003378
 30
0.0
 10
264.1295892300104
 20
46.36539126760925
 30
0.0
 10
264.0342667780983
 20
46.38284579918147
 30
0.0
 10
263.7543458516425
 20
46.44416355907209
 30
0.0
 10
263.5757406801991
 20
46.49692132850461
 30
0.0
 10
263.2347256435434
 20
46.62768534757439
 30
0.0
 10
263.076535595058
 20
46.70413973290412
 30
0.0
 10
262.7854984806903
 20
46.87771356547911
 30
0.0
 10
262.6520813151329
 20
46.97517907088571
 30
0.0
 10
262.4122780620108
 20
47.19075168477011
 30
0.0
 10
262.3088569863447
 20
47.3060911253777
 30
0.0
 10
262.134277763136
 20
47.55047124250242
 30
0.0
 10
262.0628552384399
 20
47.68013814445086
 30
0.0
 10
261.9562481359045
 20
47.95003954667082
 30
0.0
 10
261.9220813885822
 20
48.08721345689571
 30
0.0
 10
261.8999704423771
 20
48.29490728298548
 30
0.0
 10
261.8974910281829
 20
48.36446300814818
 30
0.0
 10
261.9028574726046
 20
48.50400303995609
 30
0.0
 10
261.9108060888771
 20
48.57443865779535
 30
0.0
 10
261.9507055064886
 20
48.78219778187831
 30
0.0
 10
261.9981348757682
 20
48.91570615486029
 30
0.0
 10
262.1018621814913
 20
49.10678105947379
 30
0.0
 10
262.1419086934716
 20
49.16893409337772
 30
0.0
 10
262.2337443663788
 20
49.28975434251308
 30
0.0
 10
262.2855094300512
 20
49.3482097619886
 30
0.0
 10
262.4542868116311
 20
49.51274520517851
 30
0.0
 10
262.5859118192063
 20
49.60988854532983
 30
0.0
 10
262.8130175120731
 20
49.73579720664848
 30
0.0
 10
262.8939638680899
 20
49.7744649337517
 30
0.0
 10
263.0612904184483
 20
49.84297597205064
 30
0.0
 10
263.1481884617658
 20
49.87314495119381
 30
0.0
 10
263.4182991724869
 20
49.95192018396352
 30
0.0
 10
263.6132942504598
 20
49.98895936154202
 30
0.0
 10
264.01219301929
 20
50.03134485376919
 30
0.0
 10
264.2167789473846
 20
50.03734012970045
 30
0.0
 10
264.635948280435
 20
50.02243028073234
 30
0.0
 10
264.8463354508733
 20
50.00159050853177
 30
0.0
 10
265.0552482575482
 20
49.96966418517964
 30
0.0
  0
LWPOLYLINE
  5
171
330
1F
100
AcDbEntity
  8
0
  6
Continuous
 62
     7
370
    25
100
AcDbPolyline
 90
       27
 70
   128
 43
0.0
 10
226.0423506962
 20
50.4295374589
 10
226.081188695
 20
51.4077343821
 10
226.1973613819
 20
52.4221762745
 10
226.389847827
 20
53.4639481844
 10
226.6569564525
 20
54.5238949827
 10
226.9963398983
 20
55.5927018189
 10
227.4050156504
 20
56.66097598
 10
227.8793922516
 20
57.7193294344
 10
228.4153008633
 20
58.7584613338
 10
229.0080319013
 20
59.7692397497
 10
229.652376424
 20
60.7427819251
 10
230.3426719085
 20
61.6705323363
 10
231.0728520133
 20
62.5443378794
 10
231.8364998894
 20
63.3565195197
 10
232.6269045717
 20
64.0999397759
 10
233.4371199556
 20
64.768065444
 10
234.260025839
 20
65.3550250117
 10
235.0883904955
 20
65.8556602571
 10
235.9149342268
 20
66.2655715796
 10
236.7323933367
 20
66.581156664
 10
237.5335839652
 20
66.799642137
 10
238.3114652204
 20
66.9191079405
 10
239.0592010536
 20
66.9385042047
 10
239.7702203356
 20
66.8576604746
 10
240.4382746033
 20
66.6772872077
 10
241.0574929719
 20
66.3989695308
 10
241.13067754
 20
66.3576989376
  0
LWPOLYLINE
  5
172
330
1F
100
AcDbEntity
  8
0
  6
Continuous
 62
     7
370
    25
100
AcDbPolyline
 90
       10
 70
   128
 43
0.0
 10
228.631693382
 20
44.7064773781
 10
228.4153008633
 20
44.8403635298
 10
227.8793922516
 20
45.2607485166
 10
227.4050156504
 20
45.7713984054
 10
226.9963398983
 20
46.3678255867
 10
226.6569564525
 20
47.0447886371
 10
226.389847827
 20
47.7963383807
 10
226.1973613819
 20
48.6158701716
 10
226.081188695
 20
49.4961819348
 10
226.0423506962
 20
50.4295374589
  0
LINE
  5
173
330
1F
100
AcDbEntity
  8
0
  6
Continuous
 62
     7
370
    25
100
AcDbLine
 10
266.1444025313
 20
29.4028265064
 30
0.0
 11
266.2064788702
 21
29.3656963675
 31
0.0
  0
LINE
  5
174
330
1F
100
AcDbEntity
  8
0
  6
Continuous
 62
     7
370
    25
100
AcDbLine
 10
273.2685319945
 20
41.4529122353
 30
0.0
 11
273.2059099987
 21
41.4903804409
 31
0.0
  0
ARC
  5
175
330
1F
100
AcDbEntity
  8
0
  6
Continuous
 62
     7
370
    25
100
AcDbCircle
 10
244.7979617406
 20
49.8072550681
 30
0.0
 40
18.77380773466098
100
AcDbArc
 50
122.5282341044
 51
177.4771424283
  0
SPLINE
  5
176
330
1F
100
AcDbEntity
  8
0
  6
Continuous
 62
     7
370
    25
100
AcDbSpline
210
0.0
220
0.0
230
1.0
 70
     8
 71
     3
 72
    13
 73
     9
 74
     0
 42
0.000000001
 43
0.00000001
 40
0.0
 40
0.0
 40
0.0
 40
0.0
 40
0.1562361467031217
 40
0.3125285830359663
 40
0.626347154409473
 40
0.7871484226946924
 40
0.9479584437589603
 40
1.0
 40
1.0
 40
1.0
 40
1.0
 10
223.4980224098554
 20
54.90714371133207
 30
0.0
 10
223.6471352437084
 20
54.76066269850236
 30
0.0
 10
223.9454146346174
 20
54.46764789784721
 30
0.0
 10
224.5822769444981
 20
53.95686450033276
 30
0.0
 10
225.2250569091398
 20
53.52933703817907
 30
0.0
 10
225.7975028672153
 20
53.23525016250087
 30
0.0
 10
226.1122628940507
 20
53.09957979374012
 30
0.0
 10
226.2620694185494
 20
53.07074088588634
 30
0.0
 10
226.2986966532106
 20
53.06368986158104
 30
0.0
  0
SPLINE
  5
177
330
1F
100
AcDbEntity
  8
0
  6
Continuous
 62
     7
370
    25
100
AcDbSpline
210
0.0
220
0.0
230
1.0
 70
     8
 71
     3
 72
    21
 73
    17
 74
     0
 42
0.000000001
 43
0.00000001
 40
0.0
 40
0.0
 40
0.0
 40
0.0
 40
0.0842540580828874
 40
0.187378688564233
 40
0.2458504919309691
 40
0.3043191770039872
 40
0.3636439471774527
 40
0.4229718904886015
 40
0.482401335796466
 40
0.5418002747839684
 40
0.6352323621964863
 40
0.7114281349608136
 40
0.7879608903376174
 40
0.8570921782311454
 40
0.9295616277055165
 40
1.0
 40
1.0
 40
1.0
 40
1.0
 10
227.0592093861968
 20
55.83093780450889
 30
0.0
 10
226.9488203487109
 20
56.11520451121692
 30
0.0
 10
226.7033181907542
 20
56.74740578338619
 30
0.0
 10
226.2286729094477
 20
57.44142162489428
 30
0.0
 10
225.7316103949367
 20
57.92816588045113
 30
0.0
 10
225.292110402068
 20
58.23003607073676
 30
0.0
 10
224.8190593740613
 20
58.43179531380627
 30
0.0
 10
224.3290784134878
 20
58.53086119245617
 30
0.0
 10
223.8417172985497
 20
58.5204538048949
 30
0.0
 10
223.291986379274
 20
58.381405156277
 30
0.0
 10
222.7790741929423
 20
58.04793876141176
 30
0.0
 10
222.4385252537246
 20
57.4755765645947
 30
0.0
 10
222.3869549684293
 20
56.81858240647016
 30
0.0
 10
222.5950248112962
 20
56.13103625866009
 30
0.0
 10
222.9787052020662
 20
55.48347456662712
 30
0.0
 10
223.3265646579054
 20
55.09742508723521
 30
0.0
 10
223.4980224098554
 20
54.90714371133207
 30
0.0
  0
LWPOLYLINE
  5
178
330
1F
100
AcDbEntity
  8
0
  6
Continuous
 62
     7
370
    25
100
AcDbPolyline
 90
       20
 70
   128
 43
0.0
 10
222.3300400949
 20
57.0628533675
 10
222.3690703322
 20
57.8017629459
 10
222.4855455136
 20
58.5740828315
 10
222.6776287561
 20
59.3676330783
 10
222.9422907922
 20
60.169898925
 10
223.2753577435
 20
60.9682281599
 10
223.6715769452
 20
61.750030654
 10
224.1246997838
 20
62.502976915
 10
224.6275802414
 20
63.2151925306
 10
225.1722875928
 20
63.875445435
 10
225.7502314777
 20
64.4733230455
 10
226.3522973758
 20
64.9993964751
 10
226.9689903482
 20
65.4453692315
 10
227.5905847783
 20
65.8042080579
 10
228.2072777507
 20
66.0702538517
 10
228.8093436488
 20
66.2393109118
 10
229.3872875337
 20
66.3087131073
 10
229.9319948851
 20
66.2773659242
 10
230.4348753427
 20
66.1457637263
 10
230.7795031275
 20
65.9826237956
  0
ARC
  5
179
330
1F
100
AcDbEntity
  8
0
  6
Continuous
 62
     7
370
    25
100
AcDbCircle
 10
225.8749207842
 20
56.7362168279
 30
0.0
 40
3.559897544840474
100
AcDbArc
 50
174.7354510462
 51
233.9523685604
  0
SPLINE
  5
17A
330
1F
100
AcDbEntity
  8
0
  6
Continuous
 62
     7
370
    25
100
AcDbSpline
210
0.0
220
0.0
230
1.0
 70
     8
 71
     3
 72
    40
 73
    36
 74
     0
 42
0.000000001
 43
0.00000001
 40
0.0
 40
0.0
 40
0.0
 40
0.0
 40
0.0284500851563927
 40
0.057139483700311
 40
0.0862182484562981
 40
0.1123821744350191
 40
0.1390147344586213
 40
0.1660267556493404
 40
0.1921906722555479
 40
0.2309491141558465
 40
0.2463836519363346
 40
0.2694100087063187
 40
0.2929153543816582
 40
0.3167525295220126
 40
0.3400846003694262
 40
0.363795767668144
 40
0.3877532678840446
 40
0.4148350302152808
 40
0.4423192202245836
 40
0.4700629069586872
 40
0.5028888241078803
 40
0.5362370792396998
 40
0.5699414467979913
 40
0.5912063986936593
 40
0.6631631804092344
 40
0.6851514448594309
 40
0.707052446884586
 40
0.7587270902132037
 40
0.7813344537537751
 40
0.8040353763286502
 40
0.8258780556564805
 40
0.899868948701162
 40
0.9225164806094234
 40
0.9548936745918465
 40
0.9999999999999999
 40
0.9999999999999999
 40
0.9999999999999999
 40
0.9999999999999999
 10
229.7306328010817
 20
65.70234154103512
 30
0.0
 10
229.6301417893615
 20
65.72583359762632
 30
0.0
 10
229.4283144663621
 20
65.77301531878112
 30
0.0
 10
229.1207553476534
 20
65.82363344802202
 30
0.0
 10
228.8220707860441
 20
65.8546273894307
 30
0.0
 10
228.5339546878325
 20
65.8638604975333
 30
0.0
 10
228.2591339250015
 20
65.85132833508129
 30
0.0
 10
227.9940634006335
 20
65.81466453422475
 30
0.0
 10
227.7049553153476
 20
65.74318183046132
 30
0.0
 10
227.4744434868804
 20
65.64820656351874
 30
0.0
 10
227.2778234464135
 20
65.53249616879982
 30
0.0
 10
227.13481124638
 20
65.4262813309886
 30
0.0
 10
226.9947440042506
 20
65.28930046740136
 30
0.0
 10
226.8778656152071
 20
65.13744529193258
 30
0.0
 10
226.7847505092836
 20
64.9736113623917
 30
0.0
 10
226.7152372749759
 20
64.80060843206688
 30
0.0
 10
226.6666351192788
 20
64.61170445231421
 30
0.0
 10
226.6420566282376
 20
64.40842252044143
 30
0.0
 10
226.6443463146349
 20
64.19308939228799
 30
0.0
 10
226.6753878446897
 20
63.96330531657093
 30
0.0
 10
226.740015503474
 20
63.7219712644758
 30
0.0
 10
226.8429502044397
 20
63.47360294162952
 30
0.0
 10
226.9627786643825
 20
63.26447335256179
 30
0.0
 10
227.1665824677145
 20
62.97996855671008
 30
0.0
 10
227.3996324229539
 20
62.74846421526264
 30
0.0
 10
227.6737894919145
 20
62.5535285763367
 30
0.0
 10
227.9146962948612
 20
62.40750951369868
 30
0.0
 10
228.1809250094382
 20
62.28659921625768
 30
0.0
 10
228.468551595763
 20
62.19292723628313
 30
0.0
 10
228.6753305607981
 20
62.13987545037876
 30
0.0
 10
229.0518505295183
 20
62.06673216176424
 30
0.0
 10
229.4526553256318
 20
62.03694335063498
 30
0.0
 10
229.9019224952518
 20
62.0500113737549
 30
0.0
 10
230.2560046366862
 20
62.07742932386965
 30
0.0
 10
230.5324138933188
 20
62.12564081125746
 30
0.0
 10
230.693323025655
 20
62.15370668972594
 30
0.0
  0
SPLINE
  5
17B
330
1F
100
AcDbEntity
  8
0
  6
Continuous
 62
     7
370
    25
100
AcDbSpline
210
0.0
220
0.0
230
1.0
 70
     8
 71
     3
 72
    18
 73
    14
 74
     0
 42
0.000000001
 43
0.00000001
 40
0.0
 40
0.0
 40
0.0
 40
0.0
 40
0.0298352807773039
 40
0.0879160854519925
 40
0.2844725389800606
 40
0.3445440802216381
 40
0.4041462885050717
 40
0.6060568834770037
 40
0.6678328411835984
 40
0.7289530142840127
 40
0.8732492365584915
 40
0.9364740608844827
 40
1.0
 40
1.0
 40
1.0
 40
1.0
 10
232.7267289938838
 20
64.207156027375
 30
0.0
 10
232.7118774299907
 20
64.22325902107134
 30
0.0
 10
232.6681140959009
 20
64.27070996280737
 30
0.0
 10
232.4911012001095
 20
64.42469347890949
 30
0.0
 10
232.2560181955095
 20
64.59704241652467
 30
0.0
 10
231.9767353300905
 20
64.76967121263338
 30
0.0
 10
231.6752302194874
 20
64.94457648102085
 30
0.0
 10
231.333562692491
 20
65.11857759576226
 30
0.0
 10
230.9636762021391
 20
65.28262164486
 30
0.0
 10
230.6497245498621
 20
65.4126060497384
 30
0.0
 10
230.3189674306337
 20
65.53273686209447
 30
0.0
 10
229.975823274553
 20
65.63858788345999
 30
0.0
 10
229.8124922976997
 20
65.6810566915761
 30
0.0
 10
229.7306328010818
 20
65.7023415410353
 30
0.0
  0
LWPOLYLINE
  5
17C
330
1F
100
AcDbEntity
  8
0
  6
Continuous
 62
     7
370
    25
100
AcDbPolyline
 90
       20
 70
   128
 43
0.0
 10
232.4612271784
 20
64.0005768369
 10
232.2711697152
 20
64.267490912
 10
231.966149727
 20
64.5346676629
 10
231.574209772
 20
64.7609297828
 10
231.111395918
 20
64.937014074
 10
230.5966558186
 20
65.0557116247
 10
230.0510629938
 20
65.1121629435
 10
229.4969540782
 20
65.1040569066
 10
228.9570143557
 20
65.0317253762
 10
228.453349022
 20
64.8981296136
 10
228.0065781952
 20
64.7087390451
 10
227.6349927253
 20
64.4713073427
 10
227.3538053651
 20
64.1955549882
 10
227.1745279582
 20
63.8927713155
 10
227.1045001427
 20
63.5753523237
 10
227.1465888656
 20
63.2562931836
 10
227.2990710096
 20
62.9486562139
 10
227.5557039379
 20
62.6650361082
 10
227.9059810682
 20
62.4170443071
 10
227.9059810682
 20
62.4170443071
  0
ARC
  5
17D
330
1F
100
AcDbEntity
  8
0
  6
Continuous
 62
     7
370
    25
100
AcDbCircle
 10
226.3328803495
 20
55.0695391915
 30
0.0
 40
1.676076899032335
100
AcDbArc
 50
237.450636378
 51
270.1620287331
  0
LWPOLYLINE
  5
17E
330
1F
100
AcDbEntity
  8
0
  6
Continuous
 62
     7
370
    25
100
AcDbPolyline
 90
       18
 70
   128
 43
0.0
 10
225.4314221621
 20
58.1302554938
 10
225.2351373565
 20
58.2320917486
 10
224.8512204354
 20
58.3626150035
 10
224.4910441521
 20
58.3920557561
 10
224.1693541659
 20
58.3192086985
 10
223.8993205026
 20
58.1470561978
 10
223.6919983722
 20
57.8826461976
 10
223.555875567
 20
57.5368036743
 10
223.4965249707
 20
57.1236874615
 10
223.5163764037
 20
56.6602105855
 10
223.6146171459
 20
56.1653478441
 10
223.7872252098
 20
55.659358976
 10
224.0271340011
 20
55.162959225
 10
224.3245216256
 20
54.6964712551
 10
224.6672129989
 20
54.2789931387
 10
225.0411782962
 20
53.9276164789
 10
225.431107334
 20
53.6567266774
 10
225.431107334
 20
53.6567266774
  0
LINE
  5
17F
330
1F
100
AcDbEntity
  8
0
  6
Continuous
 62
     7
370
    25
100
AcDbLine
 10
222.1378022014
 20
55.1123971278
 30
0.0
 11
222.1126942114
 21
55.1317362167
 31
0.0
  0
LWPOLYLINE
  5
180
330
1F
100
AcDbEntity
  8
0
  6
Continuous
 62
     7
370
    18
100
AcDbPolyline
 90
       53
 70
   128
 43
0.0
 10
270.059747825
 20
41.3479924654
 10
269.4205055451
 20
40.9343144882
 10
268.7905848571
 20
40.4373663394
 10
268.179171423
 20
39.8643946422
 10
267.5951810276
 20
39.223754614
 10
267.0471295658
 20
38.5247882292
 10
266.543008862
 20
37.7776879914
 10
266.0901701314
 20
36.9933483046
 10
265.6952167822
 20
36.1832066074
 10
265.3639081237
 20
35.3590765902
 10
265.1010753821
 20
34.5329759244
 10
264.9105512507
 20
33.7169510179
 10
264.7951140004
 20
32.9229013513
 10
264.7564469661
 20
32.1624059569
 10
264.7951140004
 20
31.44655457
 10
264.9105512507
 20
30.7857859157
 10
265.1010753821
 20
30.189735489
 10
265.3639081237
 20
29.6670950472
 10
265.6952167822
 20
29.2254858649
 10
266.0901701314
 20
28.8713475985
 10
266.543008862
 20
28.6098443812
 10
267.0471295658
 20
28.4447895188
 10
267.5951810276
 20
28.3785898829
 10
268.179171423
 20
28.4122108133
 10
268.7905848571
 20
28.545162041
 10
269.4205055451
 20
28.7755048378
 10
270.059747825
 20
29.0998802871
 10
270.698990105
 20
29.5135582643
 10
271.328910793
 20
30.0105064131
 10
271.9403242271
 20
30.5834781103
 10
272.5243146225
 20
31.2241181385
 10
273.0723660843
 20
31.9230845233
 10
273.576486788
 20
32.6701847611
 10
274.0293255187
 20
33.4545244479
 10
274.4242788679
 20
34.2646661451
 10
274.7555875264
 20
35.0887961623
 10
275.018420268
 20
35.9148968281
 10
275.2089443993
 20
36.7309217346
 10
275.3243816497
 20
37.5249714012
 10
275.3630486839
 20
38.2854667956
 10
275.3243816497
 20
39.0013181825
 10
275.2089443993
 20
39.6620868368
 10
275.018420268
 20
40.2581372635
 10
274.7555875264
 20
40.7807777053
 10
274.4242788679
 20
41.2223868876
 10
274.0293255187
 20
41.576525154
 10
273.576486788
 20
41.8380283713
 10
273.0723660843
 20
42.0030832337
 10
272.5243146225
 20
42.0692828696
 10
271.9403242271
 20
42.0356619392
 10
271.328910793
 20
41.9027107115
 10
270.698990105
 20
41.6723679147
 10
270.059747825
 20
41.3479924654
  0
LWPOLYLINE
  5
181
330
1F
100
AcDbEntity
  8
0
  6
Continuous
 62
     7
370
    18
100
AcDbPolyline
 90
       27
 70
   128
 43
0.0
 10
266.2064788702
 20
29.3656963675
 10
266.3178591299
 20
29.3053656244
 10
266.79680587
 20
29.1243163824
 10
267.3216354057
 20
29.0426806023
 10
267.8840708618
 20
29.0617457292
 10
268.4752422951
 20
29.1812110946
 10
269.0858265789
 20
29.3991926584
 10
269.7061944344
 20
29.712252721
 10
270.32656229
 20
30.1154541383
 10
270.9371465738
 20
30.6024381831
 10
271.5283180071
 20
31.165524826
 10
272.0907534632
 20
31.7958338543
 10
272.6155829989
 20
32.4834249182
 10
273.094529739
 20
33.2174542958
 10
273.5200404072
 20
33.9863459053
 10
273.8854044461
 20
34.7779738668
 10
274.1848598466
 20
35.5798537343
 10
274.4136840182
 20
36.3793393834
 10
274.5682682669
 20
37.1638224477
 10
274.6461747068
 20
37.9209311608
 10
274.6461747068
 20
38.6387254659
 10
274.5682682669
 20
39.3058853181
 10
274.4136840182
 20
39.911889208
 10
274.1848598466
 20
40.4471800921
 10
273.8854044461
 20
40.9033161136
 10
273.5200404072
 20
41.2731037348
 10
273.2685319945
 20
41.4529122353
  0
LWPOLYLINE
  5
182
330
1F
100
AcDbEntity
  8
0
  6
Continuous
 62
     7
370
    18
100
AcDbPolyline
 90
       19
 70
   128
 43
0.0
 10
220.976058459
 20
58.0464753618
 10
221.0152595366
 20
58.7741906411
 10
221.132219089
 20
59.5352174565
 10
221.3250166434
 20
60.3170597687
 10
221.5904864694
 20
61.1068797485
 10
221.9242695597
 20
61.8917085738
 10
222.3208852053
 20
62.6586593769
 10
222.7738209881
 20
63.3951388469
 10
223.2756397153
 20
64.0890540112
 10
223.8181015371
 20
64.7290108019
 10
224.3922992454
 20
65.3045011463
 10
224.9888045298
 20
65.8060755089
 10
225.5978227899
 20
66.2254980524
 10
226.2093539628
 20
66.5558818704
 10
226.8133567235
 20
66.7918020695
 10
227.3999133633
 20
66.9293848468
 10
227.9593926386
 20
66.9663710967
 10
228.482607915
 20
66.9021535062
 10
228.8425983825
 20
66.789535318
  0
ARC
  5
183
330
1F
100
AcDbEntity
  8
0
  6
Continuous
 62
     7
370
    18
100
AcDbCircle
 10
224.5197767435
 20
57.7493970927
 30
0.0
 40
3.556148868888334
100
AcDbArc
 50
175.207964515
 51
227.3997632119
  0
LWPOLYLINE
  5
184
330
1F
100
AcDbEntity
  8
0
  6
Continuous
 62
     7
370
    18
100
AcDbPolyline
 90
       21
 70
   128
 43
0.0
 10
220.7664232148
 20
58.1258610279
 10
220.8043583184
 20
58.844037842
 10
220.91756537
 20
59.5946875171
 10
221.1042590267
 20
60.3659718594
 10
221.3614950181
 20
61.145727254
 10
221.6852165788
 20
61.9216564926
 10
222.0703184266
 20
62.6815227076
 10
222.5107272752
 20
63.4133423547
 10
222.9994976139
 20
64.1055742011
 10
223.5289212426
 20
64.747301337
 10
224.0906488344
 20
65.3284033421
 10
224.6758216096
 20
65.8397158907
 10
225.275211044
 20
66.2731752783
 10
225.8793644081
 20
66.6219455916
 10
226.4787538424
 20
66.8805265144
 10
227.0639266176
 20
67.044840071
 10
227.6256542094
 20
67.1122949385
 10
228.1550778382
 20
67.0818273133
 10
228.6438481769
 20
66.9539176881
 10
229.0842570255
 20
66.730583274
 10
229.2135229938
 20
66.6397185891
  0
LWPOLYLINE
  5
185
330
1F
100
AcDbEntity
  8
0
  6
Continuous
 62
     7
370
    18
100
AcDbPolyline
 90
        8
 70
   128
 43
0.0
 10
222.4279247232
 20
54.8854440244
 10
222.0703184266
 20
55.0756447154
 10
221.6852165788
 20
55.3908818012
 10
221.3614950181
 20
55.7930500814
 10
221.1042590267
 20
56.2758071222
 10
220.91756537
 20
56.8315395566
 10
220.8043583184
 20
57.4514831521
 10
220.7664232148
 20
58.1258610279
  0
LWPOLYLINE
  5
186
330
1F
100
AcDbEntity
  8
0
  6
Continuous
 62
     7
370
    18
100
AcDbPolyline
 90
       22
 70
   128
 43
0.0
 10
220.5519386051
 20
58.1590383173
 10
220.5904927584
 20
58.8889348078
 10
220.7055471962
 20
59.6518340725
 10
220.8952874414
 20
60.4357047342
 10
221.156721177
 20
61.2281846845
 10
221.4857254367
 20
62.016776041
 10
221.8771116269
 20
62.7890422471
 10
222.3247073535
 20
63.5328042032
 10
222.8214537645
 20
64.2363323391
 10
223.3595168723
 20
64.8885315957
 10
223.9304111003
 20
65.4791164013
 10
224.5251331054
 20
65.9987728805
 10
225.1343037664
 20
66.4393057404
 10
225.748316098
 20
66.7937675145
 10
226.3574867589
 20
67.0565681289
 10
226.9522087641
 20
67.223563061
 10
227.523102992
 20
67.2921187008
 10
228.0611660998
 20
67.2611538851
 10
228.5579125109
 20
67.1311569475
 10
229.0055082374
 20
66.9041780172
 10
229.3968944276
 20
66.5837966877
 10
229.4259068694
 20
66.5539365824
  0
LWPOLYLINE
  5
187
330
1F
100
AcDbEntity
  8
0
  6
Continuous
 62
     7
370
    18
100
AcDbPolyline
 90
        9
 70
   128
 43
0.0
 10
222.608419292
 20
54.7444221329
 10
222.3247073535
 20
54.832067661
 10
221.8771116269
 20
55.0590465913
 10
221.4857254367
 20
55.3794279208
 10
221.156721177
 20
55.7881590446
 10
220.8952874414
 20
56.2787940288
 10
220.7055471962
 20
56.8435952664
 10
220.5904927584
 20
57.4736555047
 10
220.5519386051
 20
58.1590383173
  0
OLE2FRAME
  5
188
330
1F
100
AcDbEntity
  8
0
100
AcDbOle2Frame
 70
     2
  3
Paintbrush-Bild
 10
13.8511154363
 20
38.264191557
 30
0.0
 11
51.6290888628
 21
31.9806341108
 31
0.0
 71
     2
 72
     0
 73
     1
 90
    12928
310
80552BED0767C5B32B40DDAF6807D121434000000000000000006FFBDDFB85D0
310
4940DDAF6807D121434000000000000000006FFBDDFB85D04940416F4BD60AFB
310
3F4000000000000000002BED0767C5B32B40416F4BD60AFB3F40000000000000
310
0000000000000100000000010000010000000100000000000100000000320000
310
D0CF11E0A1B11AE1000000000000000000000000000000003E000300FEFF0900
310
0600000000000000000000000100000001000000000000000010000002000000
310
01000000FEFFFFFF0000000000000000FFFFFFFFFFFFFFFFFFFFFFFFFFFFFFFF
310
FFFFFFFFFFFFFFFFFFFFFFFFFFFFFFFFFFFFFFFFFFFFFFFFFFFFFFFFFFFFFFFF
310
FFFFFFFFFFFFFFFFFFFFFFFFFFFFFFFFFFFFFFFFFFFFFFFFFFFFFFFFFFFFFFFF
310
FFFFFFFFFFFFFFFFFFFFFFFFFFFFFFFFFFFFFFFFFFFFFFFFFFFFFFFFFFFFFFFF
310
FFFFFFFFFFFFFFFFFFFFFFFFFFFFFFFFFFFFFFFFFFFFFFFFFFFFFFFFFFFFFFFF
310
FFFFFFFFFFFFFFFFFFFFFFFFFFFFFFFFFFFFFFFFFFFFFFFFFFFFFFFFFFFFFFFF
310
FFFFFFFFFFFFFFFFFFFFFFFFFFFFFFFFFFFFFFFFFFFFFFFFFFFFFFFFFFFFFFFF
310
FFFFFFFFFFFFFFFFFFFFFFFFFFFFFFFFFFFFFFFFFFFFFFFFFFFFFFFFFFFFFFFF
310
FFFFFFFFFFFFFFFFFFFFFFFFFFFFFFFFFFFFFFFFFFFFFFFFFFFFFFFFFFFFFFFF
310
FFFFFFFFFFFFFFFFFFFFFFFFFFFFFFFFFFFFFFFFFFFFFFFFFFFFFFFFFFFFFFFF
310
FFFFFFFFFFFFFFFFFFFFFFFFFFFFFFFFFFFFFFFFFFFFFFFFFFFFFFFFFFFFFFFF
310
FFFFFFFFFFFFFFFFFFFFFFFFFFFFFFFFFFFFFFFFFFFFFFFFFFFFFFFFFFFFFFFF
310
FFFFFFFFFFFFFFFFFFFFFFFFFFFFFFFFFFFFFFFFFFFFFFFFFFFFFFFFFFFFFFFF
310
FFFFFFFFFFFFFFFFFFFFFFFFFFFFFFFFFFFFFFFFFFFFFFFFFFFFFFFFFFFFFFFF
310
FDFFFFFFFEFFFFFFFEFFFFFFFEFFFFFF05000000060000000700000008000000
310
090000000A0000000B0000000C0000000D0000000E0000000F00000010000000
310
11000000120000001300000014000000150000001600000017000000FEFFFFFF
310
FFFFFFFFFFFFFFFFFFFFFFFFFFFFFFFFFFFFFFFFFFFFFFFFFFFFFFFFFFFFFFFF
310
FFFFFFFFFFFFFFFFFFFFFFFFFFFFFFFFFFFFFFFFFFFFFFFFFFFFFFFFFFFFFFFF
310
FFFFFFFFFFFFFFFFFFFFFFFFFFFFFFFFFFFFFFFFFFFFFFFFFFFFFFFFFFFFFFFF
310
FFFFFFFFFFFFFFFFFFFFFFFFFFFFFFFFFFFFFFFFFFFFFFFFFFFFFFFFFFFFFFFF
310
FFFFFFFFFFFFFFFFFFFFFFFFFFFFFFFFFFFFFFFFFFFFFFFFFFFFFFFFFFFFFFFF
310
FFFFFFFFFFFFFFFFFFFFFFFFFFFFFFFFFFFFFFFFFFFFFFFFFFFFFFFFFFFFFFFF
310
FFFFFFFFFFFFFFFFFFFFFFFFFFFFFFFFFFFFFFFFFFFFFFFFFFFFFFFFFFFFFFFF
310
FFFFFFFFFFFFFFFFFFFFFFFFFFFFFFFFFFFFFFFFFFFFFFFFFFFFFFFFFFFFFFFF
310
FFFFFFFFFFFFFFFFFFFFFFFFFFFFFFFFFFFFFFFFFFFFFFFFFFFFFFFFFFFFFFFF
310
FFFFFFFFFFFFFFFFFFFFFFFFFFFFFFFFFFFFFFFFFFFFFFFFFFFFFFFFFFFFFFFF
310
FFFFFFFFFFFFFFFFFFFFFFFFFFFFFFFFFFFFFFFFFFFFFFFFFFFFFFFFFFFFFFFF
310
FFFFFFFFFFFFFFFFFFFFFFFFFFFFFFFFFFFFFFFFFFFFFFFFFFFFFFFFFFFFFFFF
310
FFFFFFFFFFFFFFFFFFFFFFFFFFFFFFFFFFFFFFFFFFFFFFFFFFFFFFFFFFFFFFFF
310
52006F006F007400200045006E00740072007900000000000000000000000000
310
0000000000000000000000000000000000000000000000000000000000000000
310
16000500FFFFFFFFFFFFFFFF020000000A00030000000000C000000000000046
310
000000000000000000000000B03E9214B2BAD30103000000C000000000000000
310
01004F006C006500000000000000000000000000000000000000000000000000
310
0000000000000000000000000000000000000000000000000000000000000000
310
0A000200FFFFFFFFFFFFFFFFFFFFFFFF00000000000000000000000000000000
310
0000000000000000000000000000000000000000000000001400000000000000
310
010043006F006D0070004F0062006A0000000000000000000000000000000000
310
0000000000000000000000000000000000000000000000000000000000000000
310
120002010100000003000000FFFFFFFF00000000000000000000000000000000
310
0000000000000000000000000000000000000000010000004D00000000000000
310
01004F006C006500310030004E00610074006900760065000000000000000000
310
0000000000000000000000000000000000000000000000000000000000000000
310
1A000200FFFFFFFFFFFFFFFFFFFFFFFF00000000000000000000000000000000
310
0000000000000000000000000000000000000000040000002426000000000000
310
FEFFFFFF02000000FEFFFFFFFFFFFFFFFFFFFFFFFFFFFFFFFFFFFFFFFFFFFFFF
310
FFFFFFFFFFFFFFFFFFFFFFFFFFFFFFFFFFFFFFFFFFFFFFFFFFFFFFFFFFFFFFFF
310
FFFFFFFFFFFFFFFFFFFFFFFFFFFFFFFFFFFFFFFFFFFFFFFFFFFFFFFFFFFFFFFF
310
FFFFFFFFFFFFFFFFFFFFFFFFFFFFFFFFFFFFFFFFFFFFFFFFFFFFFFFFFFFFFFFF
310
FFFFFFFFFFFFFFFFFFFFFFFFFFFFFFFFFFFFFFFFFFFFFFFFFFFFFFFFFFFFFFFF
310
FFFFFFFFFFFFFFFFFFFFFFFFFFFFFFFFFFFFFFFFFFFFFFFFFFFFFFFFFFFFFFFF
310
FFFFFFFFFFFFFFFFFFFFFFFFFFFFFFFFFFFFFFFFFFFFFFFFFFFFFFFFFFFFFFFF
310
FFFFFFFFFFFFFFFFFFFFFFFFFFFFFFFFFFFFFFFFFFFFFFFFFFFFFFFFFFFFFFFF
310
FFFFFFFFFFFFFFFFFFFFFFFFFFFFFFFFFFFFFFFFFFFFFFFFFFFFFFFFFFFFFFFF
310
FFFFFFFFFFFFFFFFFFFFFFFFFFFFFFFFFFFFFFFFFFFFFFFFFFFFFFFFFFFFFFFF
310
FFFFFFFFFFFFFFFFFFFFFFFFFFFFFFFFFFFFFFFFFFFFFFFFFFFFFFFFFFFFFFFF
310
FFFFFFFFFFFFFFFFFFFFFFFFFFFFFFFFFFFFFFFFFFFFFFFFFFFFFFFFFFFFFFFF
310
FFFFFFFFFFFFFFFFFFFFFFFFFFFFFFFFFFFFFFFFFFFFFFFFFFFFFFFFFFFFFFFF
310
FFFFFFFFFFFFFFFFFFFFFFFFFFFFFFFFFFFFFFFFFFFFFFFFFFFFFFFFFFFFFFFF
310
FFFFFFFFFFFFFFFFFFFFFFFFFFFFFFFFFFFFFFFFFFFFFFFFFFFFFFFFFFFFFFFF
310
FFFFFFFFFFFFFFFFFFFFFFFFFFFFFFFFFFFFFFFFFFFFFFFFFFFFFFFFFFFFFFFF
310
0100000200000000000000000000000000000000000000000000000000000000
310
0000000000000000000000000000000000000000000000000000000000000000
310
0100FEFF030A0000FFFFFFFF0A00030000000000C00000000000004607000000
310
5042727573680007000000504272757368000700000050427275736800F439B2
310
7100000000000000000000000000000000000000000000000000000000000000
310
0000000000000000000000000000000000000000000000000000000000000000
310
0000000000000000000000000000000000000000000000000000000000000000
310
0000000000000000000000000000000000000000000000000000000000000000
310
0000000000000000000000000000000000000000000000000000000000000000
310
0000000000000000000000000000000000000000000000000000000000000000
310
0000000000000000000000000000000000000000000000000000000000000000
310
0000000000000000000000000000000000000000000000000000000000000000
310
0000000000000000000000000000000000000000000000000000000000000000
310
0000000000000000000000000000000000000000000000000000000000000000
310
0000000000000000000000000000000000000000000000000000000000000000
310
0000000000000000000000000000000000000000000000000000000000000000
310
20260000424D0E260000000000003E00000028000000B40200006E0000000100
310
01000000000000000000130B0000130B00000200000002000000000000FFFFFF
310
FFFFFFFFFFFFFFFFFFFFFFFFFFFFFFFFFFFFFFFFFFFFFFFFFFFFFFFFFFFFFFFF
310
FFFFFFFFFFFFFFFFFFFFFFFFFFFFFFFFFFFFFFFFFFFFFFFFFFFFFFFFFFFFFFFF
310
FFFFFFFFFFFFFFFFFFFFFFFFFFFFFFFFFFFFFFFFFFFFFFFFF000FFFFFFFFFFFF
310
FFFFFFFFFFFFFFFFFFFFFFFFFFFFFFFFFFFFFFFFFFFFFFFFFFFFFFFFFFFFFFFF
310
FFFFFFFFFFFFFFFFFFFFFFFFFFFFFFFFFFFFFFFFFFFFFFFFFFFFFFFFFFFFFFFF
310
FFFFFFFFFFFFFFFFFFFFFFFFFFFFFFFFF000FFFFFFFFFFFFFFFFFFFFFFFFFFFF
310
FFFFFFFFFFFFFFFFFFFFFFFFFFFFFFFFFFFFFFFFFFFFFFFFFFFFFFFFFFFFFFFF
310
FFFFFFFFFFFFFFFFFFFFFFFFFFFFFFFFFFFFFFFFFFFFFFFFFFFFFFFFFFFFFFFF
310
FFFFFFFFFFFFFFFFF000FFFFFFFFFFFFFFFFFFFFFFFFFFFFFFFFFFFFFFFFFFFF
310
FFFFFFFFFFFFFFFFFFFFFFFFFFFFFFFFFFFFFFFFFFFFFFFFFFFFFFFFFFFFFFFF
310
FFFFFFFFFFFFFFFFFFFFFFFFFFFFFFFFFFFFFFFFFFFFFFFFFFFFFFFFFFFFFFFF
310
F000FFFFFFFFFFFFFFFFFFFFFFFFFFFFFFFFFFFFFFFFFFFFFFFFFFFFFFFFFFFF
310
FFFFFFFFFFFFFFFFFFFFFFFFFFFFFFFFFFFFFFFFFFFFFFFFFFFFFFFFFFFFFFFF
310
FFFFFFFFFFFFFFFFFFFFFFFFFFFFFFFFFFFFFFFFFFFFFFFFF000FFFFFFFFFFFF
310
FFFFFFFFFFFFFFFFFFFFFFFFFFFFFFFFFFFFFFFFFFFFFFFFFFFFFFFFFFFFFFFF
310
FFFFFFFFFFFFFFFFFFFFFFFFFFFFFFFFFFFFFFFFFFFFFFFFFFFFFFFFFFFFFFFF
310
FFFFFFFFFFFFFFFFFFFFFFFFFFFFFFFFF000FFFFFFFFFFFFFFFFFFFFFFFFFFFF
310
FFFFFFFFFFFFFFFFFFFFFFFFFFFFFFFFFFFFFFFFFFFFFFFFFFFFFFFFFFFFFFFF
310
FFFFFFFFFFFFFFFFFFFFFFFFFFFFFFFFFFFFFFFFFFFFFFFFFFFFFFFFFFFFFFFF
310
FFFFFFFFFFFFFFFFF000FFFFFFFFFFFFFFFFFFFFFFFFFFFFFFFFFFFFFFFFFFFF
310
FFFFFFFFFFFFFFFFFFFFFFFFFFFFFFFFFFFFFFFFFFFFFFFFFFFFFFFFFFFFFFFF
310
FFFFFFFFFFFFFFFFFFFFFFFFFFFFFFFFFFFFFFFFFFFFFFFFFFFFFFFFFFFFFFFF
310
F000FFFFFFFFFFFFFFFFFFFFFFFFFFFFFFFFFFFFFFFFFFFFFFFFFFFFFFFFFFFF
310
FFFFFFFFFFFFFFFFFFFFFFFFFFFFFFFFFFFFFFFFFFFFFFFFFFFFFFFFFFFFFFFF
310
FFFFFFFFFFFFFFFFFFFFFFFFFFFFFFFFFFFFFFFFFFFFFFFFF000FFFFFFFFFFFF
310
FFFFFFFFFFFFFFFFFFFFFFFFFFFFFFFFFFFFFFFFFFFFFFFFFFFFFFFFFFFFFFFF
310
FFFFFFFFFFFFFFFFFFFFFFFFFFFFFFFFFFFFFFFFFFFFFFFFFFFFFFFFFFFFFFFF
310
FFFFFFFFFFFFFFFFFFFFFFFFFFFFFFFFF000FFFFFFFFFFFFFFFFFFFFFFFFFFFF
310
FFFFFFFFFFFFFFFFFFFFFFFFFFFFFFFFFFFFFFFFFFFFFFFFFFFFFFFFFFFFFFFF
310
FFFFFFFFFFFFFFFFFFFFFFFFFFFFFFFFFFFFFFFFFFFFFFFFFFFFFFFFFFFFFFFF
310
FFFFFFFFFFFFFFFFF000FFFFFFFFFFFFFFFFFFFFFFFFFFFFFFFFFFFFFFFFFFFF
310
FFFFFFFFFFFFFFFFFFFFFFFFFFFFFFFFFFFFFFFFFFFFFFFFFFFFFFFFFFFFFFFF
310
FFFFFFFFFFFFFFFFFFFFFFFFFFFFFFFFFFFFFFFFFFFFFFFFFFFFFFFFFFFFFFFF
310
F000FFFFFFFFFFFFFFFFFFFFFFFFFFFFFFFFFFFFFFFFFFFFFFFFFFFFFFFFFFFF
310
FFFFFFFFFFFFFFFFFFFFFFFFFFFFFFFFFFFFFFFFFFFFFFFFFFFFFFFFFFFFFFFF
310
FFFFFFFFFFFFFFFFFFFFFFFFFFFFFFFFFFFFFFFFFFFFFFFFF000FFFFFFFFFFFF
310
FFFFFFFFFFFFFFFFFFFFFFFFFFFFFFFFFFFFFFFFFFFFFFFFFFFFFFFFFFFFFFFF
310
FFFFFFFFFFFFFFFFFFFFFFFFFFFFFFFFFFFFFFFFFFFFFFFFFFFFFFFFFFFFFFFF
310
FFFFFFFFFFFFFFFFFFFFFFFFFFFFFFFFF000FFFFFFFFFFFFFFFFFFFFFFFFFFFF
310
FFFFFFFFFFFFFFFFFFFFFFFFFFFFFFFFFFFFFFFFFFFFFFFFFFFFFFFFFFFFFFFF
310
FFFFFFFFFFFFFFFFFFFFFFFFFFFFFFFFFFFFFFFFFFFFFFFFFFFFFFFFFFFFFFFF
310
FFFFFFFFFFFFFFFFF000FFFFFFFFFFFFFFFFFFFFFFFFFFFFFFFFFFFFFFFFFFFF
310
FFFFFFFFFFFFFFFFFFFFFFFFFFFFFFFFFFFFFFFFFFFFFFFFFFFFFFFFFFFFFFFF
310
FFFFFFFFFFFFFFFFFFFFFFFFFFFFFFFFFFFFFFFFFFFFFFFFFFFFFFFFFFFFFFFF
310
F000FFFFFFFFFFFFFFFFFFFFFFFFFFFFFFFFFFFFFFFFFFFFFFFFFFFFFFFFFFFF
310
FFFFFFFFFFFFFFFFFFFFFFFFFFFFFFFFFFFFFFFFFFFFFFFFFFFFFFFFFFFFFFFF
310
FFFFFFFFFFFFFFFFFFFFFFFFFFFFFFFFFFFFFFFFFFFFFFFFF000FFFFFFFFFFFF
310
FFFFFFFFFFFFFFFFFFFFFFFFFFFFFFFFFFFFFFFFFFFFFFFFFFFFFFFFFFFFFFFF
310
FFFFFFFFFFFFFFFFFFFFFFFFFFFFFFFFFFFFFFFFFFFFFFFFFFFFFFFFFFFFFFFF
310
FFFFFFFFFFFFFFFFFFFFFFFFFFFFFFFFF000FFFFFFFFFFFFFFFFFFFFFFFFFFFF
310
FFFFFFFFFFFFFFFFFFFFFFFFFFFFFFFFFFFFFFFFFFFFFFFFFFFFFFFFFFFFFFFF
310
FFFFFFFFFFFFFFFFFFFFFFFFFFFFFFFFFFFFFFFFFFFFFFFFFFFFFFFFFFFFFFFF
310
FFFFFFFFFFFFFFFFF000FFFFF80003FFFFFFFFFFFFFFFFFFFFFFFFFFFFFFFFFF
310
FFFFF00007FFFFFFFFFF00007FFFFFF800000000000000007FFFFFFFFFFFFFFF
310
FFFFFFFC001FFFFFFFFFFFFFFC001FFFFFFFFFFFFFFFFFFFFFFFFFFE0007FFFF
310
F000FFFF8000007FFFFFFFF8000FFFFFC0007FFFFF80007FFFFF0000007FFFFF
310
FFF8000007FFFFF800000000000000007FFFFFF0001FFFFFFFFFFFC00001FFFF
310
FFFFFFFFC00001FFFFFFFF000000000003FFFFE000007FFFF000FFFE0000000F
310
FFFFFFF0000FFFFF80007FFFFF80007FFFFC0000001FFFFFFFC0000001FFFFF8
310
00000000000000007FFFFFF0001FFFFFFFFFFE0000003FFFFFFFFFFE0000003F
310
FFFFFF000000000003FFFF0000000FFFF000FFF800000003FFFFFFF00007FFFF
310
80007FFFFF80007FFFF000000007FFFFFF000000003FFFF80000000000000000
310
7FFFFFF0001FFFFFFFFFF80000000FFFFFFFFFF80000000FFFFFFF0000000000
310
03FFFC00000003FFF000FFE000000000FFFFFFF00007FFFF80003FFFFF80007F
310
FFC000000001FFFFFC000000001FFFF800000000000000007FFFFFF0001FFFFF
310
FFFFE000000003FFFFFFFFE000000003FFFFFF000000000003FFF000000000FF
310
F000FF80000000007FFFFFF00007FFFF80003FFFFF80007FFF8000000000FFFF
310
F80000000007FFF800000000000000007FFFFFF0001FFFFFFFFFC000000001FF
310
FFFFFFC000000001FFFFFF000000000003FFC0000000007FF000FF0000000000
310
3FFFFFE00007FFFF00003FFFFF80007FFE00000000003FFFF00000000003FFF8
310
00000000000000007FFFFFF0001FFFFFFFFF8000000000FFFFFFFF8000000000
310
FFFFFF000000000003FF80000000003FF000FE00000000001FFFFFE00003FFFF
310
00003FFFFF80007FFC00000000001FFFE00000000001FFF8000001FFFE000000
310
7FFFFFF0001FFFFFFFFE00000000003FFFFFFE00000000003FFFFF0000000000
310
03FF00000000001FF000FC00000000000FFFFFE00003FFFF00001FFFFF80007F
310
F800000000001FFFC00000000000FFF8000001FFFE0000007FFFFFF0001FFFFF
310
FFFC00000000001FFFFFFC00000000001FFFFF000000000003FE00000000000F
310
F000F8000000000007FFFFE00003FFFF00001FFFFF80007FF800000000000FFF
310
800000000000FFF8000001FFFE0000007FFFFFF0001FFFFFFFF800000000000F
310
FFFFF800000000000FFFFF000000000003FC000000000007F000F80000000000
310
03FFFFC00003FFFE00001FFFFF80007FF0000000000007FF0000000000007FF8
310
000001FFFE0000007FFFFFF0001FFFFFFFF0000000000007FFFFF00000000000
310
07FFFF000000000003F8000000000003F000F0000000000003FFFFC00001FFFE
310
00001FFFFF80007FE0000000000007FE0000000000003FF8000001FFFE000000
310
7FFFFFF0001FFFFFFFF0000000000007FFFFF0000000000007FFFF0000000000
310
03F800001F800003F000E00001FFF00001FFFFC00001FFFE00000FFFFF80007F
310
E00001FFE00003FE00001FFF00003FF8000001FFFE0000007FFFFFF0001FFFFF
310
FFE000003E000003FFFFE000003E000003FFFF000000000003F00001FFF80001
310
F000E00007FFFC0001FFFFC00001FFFE00000FFFFF80007FC0000FFFFC0003FC
310
0000FFFFC0001FF8000001FFFE0000007FFFFFF0001FFFFFFFC00003FFE00001
310
FFFFC00003FFE00001FFFF0001FFFFFFFFF00007FFFE0001F000E0000FFFFF00
310
00FFFF800001FFFC00000FFFFF80007FC0001FFFFE0001FC0001FFFFE0001FF8
310
000001FFFE0000007FFFFFF0001FFFFFFF80000FFFF80000FFFF80000FFFF800
310
00FFFF0003FFFFFFFFE0000FFFFF8000F000C0003FFFFF8000FFFF800000FFFC
310
000007FFFF80007F80003FFFFF0001FC0003FFFFF0001FF8000001FFFE000000
310
7FFFFFF0001FFFFFFF80003FFFFE0000FFFF80003FFFFE0000FFFF0003FFFFFF
310
FFE0003FFFFF8000F000C0003FFFFF8000FFFF800000FFFC000007FFFF80007F
310
80007FFFFF8001F80007FFFFF8000FF8000001FFFE0000007FFFFFF0001FFFFF
310
FF00007FFFFF00007FFF00007FFFFF00007FFF0003FFFFFFFFE0003FFFFFC000
310
F000C0007FFFFFC000FFFF000000FFFC000007FFFF80007F8000FFFFFF8000F8
310
000FFFFFF8000FF8000001FFFE0000007FFFFFF0001FFFFFFF0000FFFFFF8000
310
7FFF0000FFFFFF80007FFF0003FFFFFFFFC0007FFFFFC00070008000FFFFFFC0
310
00FFFF000000FFF8000007FFFF80007F8000FFFFFF8000F8000FFFFFF8000FF8
310
000001FFFE0000007FFFFFF0001FFFFFFE0001FFFFFFC0003FFE0001FFFFFFC0
310
003FFF0003FFFFFFFFC0007FFFFFE00070008000FFFFFFC0007FFF0000007FF8
310
000003FFFF80007F0001FFFFFF8000F8000FFFFFF8000FF8000001FFFE000000
310
7FFFFFF0001FFFFFFE0001FFFFFFC0003FFE0001FFFFFFC0003FFF0003FFFFFF
310
FFC000FFFFFFE00070008000FFFFFFC0007FFF0000007FF8000003FFFF80007F
310
0001FFFFFF8000F8001FFFFFF8000FF8000001FFFE0000007FFFFFF0001FFFFF
310
FE0003FFFFFFE0003FFE0003FFFFFFE0003FFF0003FFFFFFFFC000FFFFFFE000
310
70008000FFFFFFC0007FFE0000007FF8000003FFFF80007F0001FFFFFF8000F0
310
001FFFFFF8000FF8000001FFFE0000007FFFFFF0001FFFFFFC0003FFFFFFE000
310
1FFC0003FFFFFFE0001FFF0003FFFFFFFFC000FFFFFFC00070008000FFFFFF80
310
007FFE0000007FF0000003FFFF80007F0001FFFFFF0000F0001FFFFFF8000FF8
310
000001FFFE0000007FFFFFF0001FFFFFFC0007FFFFFFF0001FFC0007FFFFFFF0
310
001FFF0003FFFFFFFFC000FFFFFFC00070008001FFFFFF0000FFFE0000003FF0
310
000001FFFF80007F0001FFFFFF0000F8001FFFFFF0000FF8000001FFFE000000
310
7FFFFFF0001FFFFFFC0007FFFFFFF0001FFC0007FFFFFFF0001FFF0003FFFFFF
310
FFC001FFFFFF80007000FFFFFFFFFE0000FFFE0008003FF0008001FFFF80007F
310
FFFFFFFFFC0000FFFFFFFFFFE0000FF8000001FFFE0000007FFFFFF0001FFFFF
310
F8000FFFFFFFF8000FF8000FFFFFFFF8000FFF0003FFFFFFFFFFFFFFFFFF0000
310
7000FFFFFFFFFC0000FFFC0008003FF0008001FFFF80007FFFFFFFFFF80001FF
310
FFFFFFFF80000FF8000001FFFE0000007FFFFFF0001FFFFFF8000FFFFFFFF800
310
0FF8000FFFFFFFF8000FFF0003FFFFFFFFFFFFFFFFFE0000F000FFFFFFFFE000
310
00FFFC000C003FE000C001FFFF80007FFFFFFFFFC00001FFFFFFFFFE00001FF8
310
000001FFFE0000007FFFFFF0001FFFFFF8000FFFFFFFF8000FF8000FFFFFFFF8
310
000FFF0003FFFFFFFFFFFFFFFFF00000F000FFFFFFFE000001FFFC000C001FE0
310
00C000FFFF80007FFFFFFFFE000001FFFFFFFFE000001FF80FFFFFFFFFFFFFC0
310
7FFFFFF0001FFFFFF8000FFFFFFFF8000FF8000FFFFFFFF8000FFF0003FFFFFF
310
FFFFFFFFFF800000F000FFFFFFC0000001FFFC001C001FE001C000FFFF80007F
310
FFFFFF80000003FFFFFFF80000001FF80FFFFFFFFFFFFFC07FFFFFF0001FFFFF
310
F8001FFFFFFFFC000FF8001FFFFFFFFC000FFF0003FFFFFFFFFFFFFFF0000001
310
F000FFFFF800000001FFF8001C001FE001C000FFFF80007FFFFFF800000003FF
310
FFFF800000003FF80FFFFFFFFFFFFFC07FFFFFF0001FFFFFF8001FFFFFFFFC00
310
0FF8001FFFFFFFFC000FFF0003FFFFFFFFFFFFFE00000001F000FFFFC0000000
310
03FFF8001E001FC001E000FFFF80007FFFFF8000000007FFFFFC000000003FF8
310
0FFFFFFFFFFFFFC07FFFFFF0001FFFFFF8001FFFFFFFFC000FF8001FFFFFFFFC
310
000FFF0003FFFFFFFFFFFFE000000003F000FFFE0000000007FFF8001E000FC0
310
01E0007FFF80007FFFFE0000000007FFFFE0000000007FF80FFFFFFFFFFFFFC0
310
7FFFFFF0001FFFFFF0001FFFFFFFFC0007F0001FFFFFFFFC0007FF0003FFFFFF
310
FFFFFF0000000003F000FFF80000000007FFF8001E000FC003E0007FFF80007F
310
FFF0000000000FFFFF8000000000FFF80FFFFFFFFFFFFFC07FFFFFF0001FFFFF
310
F0001FFFFFFFFC0007F0001FFFFFFFFC0007FF0003FFFFFFFFFFFC0000000007
310
F000FFE0000000000FFFF0003E000FC003E0007FFF80007FFFC0000000001FFF
310
FE0000000001FFF80FFFFFFFFFFFFFC07FFFFFF0001FFFFFF0001FFFFFFFFC00
310
07F0001FFFFFFFFC0007FF0003FFFFFFFFFFF0000000000FF000FFC000000000
310
1FFFF0003F000F8003F0003FFF80007FFF80000000003FFFF80000000003FFF8
310
0FFFFFFFFFFFFFC07FFFFFF0001FFFFFF0001FFFFFFFFC0007F0001FFFFFFFFC
310
0007FF0003FFFFFFFFFFE0000000001FF000FF00000000007FFFF0003F000780
310
03F0003FFF80007FFF00000000007FFFF00000000007FFF80FFFFFFFFFFFFFC0
310
7FFFFFF0001FFFFFF0001FFFFFFFFC0007F0001FFFFFFFFC0007FF0003FFFFFF
310
FFFF80000000007FF000FE0000000000FFFFE0003F00078007F0003FFF80007F
310
FE0000000001FFFFE0000000001FFFF80FFFFFFFFFFFFFC07FFFFFF0001FFFFF
310
F0001FFFFFFFFC0007F0001FFFFFFFFC0007FF0003FFFFFFFFFF0000000000FF
310
F000FC0000000003FFFFE0007F00078007F0003FFF80007FFC0000000007FFFF
310
C0000000007FFFF80FFFFFFFFFFFFFC07FFFFFF0001FFFFFF8001FFFFFFFFC00
310
0FF8001FFFFFFFFC000FFF0003FFFFFFFFFE0000000003FFF000FC000000000F
310
FFFFE0007F80070007F8001FFF80007FF8000000001FFFFF8000000001FFFFF8
310
0FFFFFFFFFFFFFC07FFFFFF0001FFFFFF8001FFFFFFFFC000FF8001FFFFFFFFC
310
000FFF0003FFFFFFFFFC000000000FFFF000F8000000007FFFFFE0007F800700
310
07F8001FFF80007FF000000000FFFFFF800000000FFFFFF80FFFFFFFFFFFFFC0
310
7FFFFFF0001FFFFFF8000FFFFFFFF8000FF8000FFFFFFFF8000FFF0003FFFFFF
310
FFFC000000007FFFF000F800000007FFFFFFC0007F8003000FF8001FFF80007F
310
F000000007FFFFFF000000007FFFFFF80FFFFFFFFFFFFFC07FFFFFF0001FFFFF
310
F8000FFFFFFFF8000FF8000FFFFFFFF8000FFF0003FFFFFFFFF80000000FFFFF
310
F000F0000000FFFFFFFFC000FF8003000FF8001FFF80007FE0000000FFFFFFFF
310
0000000FFFFFFFF8000001FFFE0000007FFFFFF0001FFFFFF8000FFFFFFFF800
310
0FF8000FFFFFFFF8000FFF0003FFFFFFFFF8000000FFFFFFF000F000000FFFFF
310
FFFFC000FFC002000FF8000FFF80007FE000001FFFFFFFFE000001FFFFFFFFF8
310
000001FFFE0000007FFFFFF0001FFFFFF8000FFFFFFFF8000FF8000FFFFFFFF8
310
000FFF0003FFFFFFFFF000001FFFFFFFF000E00000FFFFFFFFFFC000FFC00200
310
0FFC000FFF80007FE00001FFFFFFFFFE00001FFFFFFFFFF8000001FFFE000000
310
7FFFFFF0001FFFFFFC000FFFFFFFF8001FFC000FFFFFFFF8001FFF0003FFFFFF
310
FFF00001FFFFFFFFF000E00007FFFFFFFFFF8000FFC000001FFC000FFF80007F
310
C0000FFFFFFFFFFE0000FFFFFFFFFFF8000001FFFE0000007FFFFFF0001FFFFF
310
FC0007FFFFFFF0001FFC0007FFFFFFF0001FFF0003FFFFFFFFF00007FFFFFFFF
310
F000E0001FFFFFFFFFFF8000FFC000001FFC000FFF80007FC0003FFFFFFFFFFE
310
0001FFFFFFFFFFF8000001FFFE0000007FFFFFF0001FFFFFFC0007FFFFFFF000
310
1FFC0007FFFFFFF0001FFF0003FFFFFFFFF0001FFFFFFFFFF000E0003FFFFF00
310
03FF8001FFE000001FFC0007FF80007FC0007FFFFF0007FC0003FFFFF0003FF8
310
000001FFFE0000007FFFFFF0001FFFFFFC0003FFFFFFE0001FFC0003FFFFFFE0
310
001FFF0003FFFFFFFFF0003FFFFFFFFFF000E0003FFFFF0001FF8001FFE00000
310
1FFE0007FF80007FC0007FFFFE0003FC0007FFFFE0003FF8000001FFFE000000
310
7FFFFFF0001FFFFFFE0003FFFFFFE0003FFE0003FFFFFFE0003FFF0003FFFFFF
310
FFF0003FFFFF8001F000E0003FFFFF0001FF0001FFE000001FFE0007FF80007F
310
C0007FFFFE0003FC0007FFFFE0003FF8000001FFFE0000007FFFFFF0001FFFFF
310
FE0001FFFFFFC0003FFE0001FFFFFFC0003FFF0003FFFFFFFFF0003FFFFF0001
310
F000E0003FFFFF0003FF0001FFE000003FFE0007FF80007FC0007FFFFE0003FC
310
0007FFFFE0003FF8000001FFFE0000007FFFFFF0001FFFFFFF0001FFFFFFC000
310
7FFF0001FFFFFFC0007FFF0003FFFFFFFFF0003FFFFF0001F000E0003FFFFE00
310
03FF0003FFF000003FFE0003FF80007FC0007FFFFC0003FE0007FFFFE0003FF8
310
000001FFFE0000007FFFFFF0001FFFFFFF0000FFFFFF80007FFF0000FFFFFF80
310
007FFF0003FFFFFFFFF0003FFFFF0001F000E0003FFFFE0003FF0003FFF00000
310
3FFF0003FF80007FC0007FFFFC0007FE0007FFFFC0003FF8000001FFFE000000
310
7FFFFFF0001FFFFFFF80007FFFFF0000FFFF80007FFFFF0000FFFF0003FFFFFF
310
FFF0003FFFFF0003F000E0003FFFFC0003FE0003FFF000003FFF0003FF80007F
310
E0003FFFF80007FE0003FFFFC0007FF8000001FFFE0000007FFFFFF0001FFFFF
310
FF80003FFFFE0000FFFF80003FFFFE0000FFFF0003FFFFFFFFF0001FFFFE0003
310
F000F0001FFFF80003FE0003FFF000007FFF0001FF80007FE0003FFFF00007FE
310
0001FFFF80007FF8000001FFFE0000007FFFFFF0001FFFFFFFC0000FFFF80001
310
FFFFC0000FFFF80001FFFF0003FFFFFFFFF0001FFFFC0003F000F0000FFFF000
310
07FE0007FFF800007FFF0001FF80007FE0001FFFE00007FF0000FFFE00007FF8
310
000001FFFE0000007FFFFFF0001FFFFFFFC00003FFE00001FFFFC00003FFE000
310
01FFFF0003FFFFFFFFF8000FFFF80003F000F00003FFC00007FC0007FFF80000
310
7FFF8001FF80007FF00007FF80000FFF00007FF80000FFF8000001FFFE000000
310
7F80000000000001FFE000003E000003FFFFE000003E000003FFFF0003FFFFFF
310
FFF80003FFE00007F000F800000000000FFC0007FFF800007FFF8001FF80007F
310
F000000000000FFF000000000000FFF8000001FFFE0000007F80000000000001
310
FFF0000000000007FFFFF0000000000007FFFF0003FFFFFFFFFC00007E000007
310
F000F800000000000FFC0007FFF80000FFFF8000FF80007FF800000000001FFF
310
800000000001FFF8000001FFFE0000007F80000000000001FFF800000000000F
310
FFFFF800000000000FFFFF0003FFFFFFFFFC00000000000FF000FC0000000000
310
1FFC0007FFFC0000FFFF8000FF80007FF800000000003FFFC00000000001FFF8
310
000001FFFE0000007F80000000000001FFF800000000000FFFFFF80000000000
310
0FFFFF0003FFFFFFFFFE00000000001FF000FE00000000003FF8000FFFFC0000
310
FFFF8000FF80007FFC00000000003FFFC00000000003FFF8000001FFFE000000
310
7F80000000000001FFFC00000000001FFFFFFC00000000001FFFFF0003FFFFFF
310
FFFF00000000001FF000FF00000000003FF8000FFFFC0000FFFFC000FF80007F
310
FE00000000007FFFE00000000007FFF8000001FFFE0000007F80000000000001
310
FFFE00000000003FFFFFFE00000000003FFFFF0003FFFFFFFFFF80000000003F
310
F000FF80000000007FF8000FFFFC0001FFFFC0007F80007FFF0000000000FFFF
310
F0000000000FFFF800000000000000007F80000000000001FFFF8000000000FF
310
FFFFFF8000000000FFFFFF0003FFFFFFFFFFC0000000007FF000FFC000000000
310
FFF8000FFFFE0001FFFFC0007F80007FFF8000000001FFFFF8000000001FFFF8
310
00000000000000007F80000000000001FFFFC000000001FFFFFFFFC000000001
310
FFFFFF0003FFFFFFFFFFE000000000FFF000FFE000000003FFF0001FFFFE0001
310
FFFFC0007F80007FFFC000000007FFFFFE000000003FFFF80000000000000000
310
7F80000000000001FFFFE000000003FFFFFFFFE000000003FFFFFF0003FFFFFF
310
FFFFF000000003FFF000FFF80000000FFFF0001FFFFE0001FFFFE0007F80007F
310
FFF00000000FFFFFFF00000000FFFFF800000000000000007F80000000000001
310
FFFFF80000000FFFFFFFFFF80000000FFFFFFF0003FFFFFFFFFFFC0000000FFF
310
F000FFFE0000003FFFF0001FFFFE0003FFFFE0003F80007FFFFC0000003FFFFF
310
FFC0000003FFFFF800000000000000007F80000000000001FFFFFE0000003FFF
310
FFFFFFFE0000003FFFFFFF0003FFFFFFFFFFFF0000003FFFF000FFFF800000FF
310
FFF0001FFFFF0003FFFFE0003F80007FFFFF000001FFFFFFFFF800001FFFFFF8
310
00000000000000007F80000000000001FFFFFFC00001FFFFFFFFFFFFC00001FF
310
FFFFFF0003FFFFFFFFFFFFC00000FFFFF000FFFFF8000FFFFFFFFFFFFFFFFFFF
310
FFFFFFFFFFFFFFFFFFFFF0001FFFFFFFFFFF0000FFFFFFF80000000000000000
310
7FFFFFFFFFFFFFFFFFFFFFFC001FFFFFFFFFFFFFFC001FFFFFFFFFFFFFFFFFFF
310
FFFFFFFC001FFFFFF000FFFFFFFFFFFFFFFFFFFFFFFFFFFFFFFFFFFFFFFFFFFF
310
FFFFFFFFFFFFFFFFFFFFFFFFFFFFFFFFFFFFFFFFFFFFFFFFFFFFFFFFFFFFFFFF
310
FFFFFFFFFFFFFFFFFFFFFFFFFFFFFFFFFFFFFFFFFFFFFFFFFFFFFFFFFFFFFFFF
310
F000FFFFFFFFFFFFFFFFFFFFFFFFFFFFFFFFFFFFFFFFFFFFFFFFFFFFFFFFFFFF
310
FFFFFFFFFFFFFFFFFFFFFFFFFFFFFFFFFFFFFFFFFFFFFFFFFFFFFFFFFFFFFFFF
310
FFFFFFFFFFFFFFFFFFFFFFFFFFFFFFFFFFFFFFFFFFFFFFFFF000FFFFFFFFFFFF
310
FFFFFFFFFFFFFFFFFFFFFFFFFFFFFFFFFFFFFFFFFFFFFFFFFFFFFFFFFFFFFFFF
310
FFFFFFFFFFFFFFFFFFFFFFFFFFFFFFFFFFFFFFFFFFFFFFFFFFFFFFFFFFFFFFFF
310
FFFFFFFFFFFFFFFFFFFFFFFFFFFFFFFFF000FFFFFFFFFFFFFFFFFFFFFFFFFFFF
310
FFFFFFFFFFFFFFFFFFFFFFFFFFFFFFFFFFFFFFFFFFFFFFFFFFFFFFFFFFFFFFFF
310
FFFFFFFFFFFFFFFFFFFFFFFFFFFFFFFFFFFFFFFFFFFFFFFFFFFFFFFFFFFFFFFF
310
FFFFFFFFFFFFFFFFF000FFFFFFFFFFFFFFFFFFFFFFFFFFFFFFFFFFFFFFFFFFFF
310
FFFFFFFFFFFFFFFFFFFFFFFFFFFFFFFFFFFFFFFFFFFFFFFFFFFFFFFFFFFFFFFF
310
FFFFFFFFFFFFFFFFFFFFFFFFFFFFFFFFFFFFFFFFFFFFFFFFFFFFFFFFFFFFFFFF
310
F000FFFFFFFFFFFFFFFFFFFFFFFFFFFFFFFFFFFFFFFFFFFFFFFFFFFFFFFFFFFF
310
FFFFFFFFFFFFFFFFFFFFFFFFFFFFFFFFFFFFFFFFFFFFFFFFFFFFFFFFFFFFFFFF
310
FFFFFFFFFFFFFFFFFFFFFFFFFFFFFFFFFFFFFFFFFFFFFFFFF000FFFFFFFFFFFF
310
FFFFFFFFFFFFFFFFFFFFFFFFFFFFFFFFFFFFFFFFFFFFFFFFFFFFFFFFFFFFFFFF
310
FFFFFFFFFFFFFFFFFFFFFFFFFFFFFFFFFFFFFFFFFFFFFFFFFFFFFFFFFFFFFFFF
310
FFFFFFFFFFFFFFFFFFFFFFFFFFFFFFFFF000FFFFFFFFFFFFFFFFFFFFFFFFFFFF
310
FFFFFFFFFFFFFFFFFFFFFFFFFFFFFFFFFFFFFFFFFFFFFFFFFFFFFFFFFFFFFFFF
310
FFFFFFFFFFFFFFFFFFFFFFFFFFFFFFFFFFFFFFFFFFFFFFFFFFFFFFFFFFFFFFFF
310
FFFFFFFFFFFFFFFFF000FFFFFFFFFFFFFFFFFFFFFFFFFFFFFFFFFFFFFFFFFFFF
310
FFFFFFFFFFFFFFFFFFFFFFFFFFFFFFFFFFFFFFFFFFFFFFFFFFFFFFFFFFFFFFFF
310
FFFFFFFFFFFFFFFFFFFFFFFFFFFFFFFFFFFFFFFFFFFFFFFFFFFFFFFFFFFFFFFF
310
F000FFFFFFFFFFFFFFFFFFFFFFFFFFFFFFFFFFFFFFFFFFFFFFFFFFFFFFFFFFFF
310
FFFFFFFFFFFFFFFFFFFFFFFFFFFFFFFFFFFFFFFFFFFFFFFFFFFFFFFFFFFFFFFF
310
FFFFFFFFFFFFFFFFFFFFFFFFFFFFFFFFFFFFFFFFFFFFFFFFF000FFFFFFFFFFFF
310
FFFFFFFFFFFFFFFFFFFFFFFFFFFFFFFFFFFFFFFFFFFFFFFFFFFFFFFFFFFFFFFF
310
FFFFFFFFFFFFFFFFFFFFFFFFFFFFFFFFFFFFFFFFFFFFFFFFFFFFFFFFFFFFFFFF
310
FFFFFFFFFFFFFFFFFFFFFFFFFFFFFFFFF000FFFFFFFFFFFFFFFFFFFFFFFFFFFF
310
FFFFFFFFFFFFFFFFFFFFFFFFFFFFFFFFFFFFFFFFFFFFFFFFFFFFFFFFFFFFFFFF
310
FFFFFFFFFFFFFFFFFFFFFFFFFFFFFFFFFFFFFFFFFFFFFFFFFFFFFFFFFFFFFFFF
310
FFFFFFFFFFFFFFFFF000FFFFFFFFFFFFFFFFFFFFFFFFFFFFFFFFFFFFFFFFFFFF
310
FFFFFFFFFFFFFFFFFFFFFFFFFFFFFFFFFFFFFFFFFFFFFFFFFFFFFFFFFFFFFFFF
310
FFFFFFFFFFFFFFFFFFFFFFFFFFFFFFFFFFFFFFFFFFFFFFFFFFFFFFFFFFFFFFFF
310
F000FFFFFFFFFFFFFFFFFFFFFFFFFFFFFFFFFFFFFFFFFFFFFFFFFFFFFFFFFFFF
310
FFFFFFFFFFFFFFFFFFFFFFFFFFFFFFFFFFFFFFFFFFFFFFFFFFFFFFFFFFFFFFFF
310
FFFFFFFFFFFFFFFFFFFFFFFFFFFFFFFFFFFFFFFFFFFFFFFFF000FFFFFFFFFFFF
310
FFFFFFFFFFFFFFFFFFFFFFFFFFFFFFFFFFFFFFFFFFFFFFFFFFFFFFFFFFFFFFFF
310
FFFFFFFFFFFFFFFFFFFFFFFFFFFFFFFFFFFFFFFFFFFFFFFFFFFFFFFFFFFFFFFF
310
FFFFFFFFFFFFFFFFFFFFFFFFFFFFFFFFF000FFFFFFFFFFFFFFFFFFFFFFFFFFFF
310
FFFFFFFFFFFFFFFFFFFFFFFFFFFFFFFFFFFFFFFFFFFFFFFFFFFFFFFFFFFFFFFF
310
FFFFFFFFFFFFFFFFFFFFFFFFFFFFFFFFFFFFFFFFFFFFFFFFFFFFFFFFFFFFFFFF
310
FFFFFFFFFFFFFFFFF000FFFFFFFFFFFFFFFFFFFFFFFFFFFFFFFFFFFFFFFFFFFF
310
FFFFFFFFFFFFFFFFFFFFFFFFFFFFFFFFFFFFFFFFFFFFFFFFFFFFFFFFFFFFFFFF
310
FFFFFFFFFFFFFFFFFFFFFFFFFFFFFFFFFFFFFFFFFFFFFFFFFFFFFFFFFFFFFFFF
310
F000FFFFFFFFFFFFFFFFFFFFFFFFFFFFFFFFFFFFFFFFFFFFFFFFFFFFFFFFFFFF
310
FFFFFFFFFFFFFFFFFFFFFFFFFFFFFFFFFFFFFFFFFFFFFFFFFFFFFFFFFFFFFFFF
310
FFFFFFFFFFFFFFFFFFFFFFFFFFFFFFFFFFFFFFFFFFFFFFFFF000FFFFFFFFFFFF
310
FFFFFFFFFFFFFFFFFFFFFFFFFFFFFFFFFFFFFFFFFFFFFFFFFFFFFFFFFFFFFFFF
310
FFFFFFFFFFFFFFFFFFFFFFFFFFFFFFFFFFFFFFFFFFFFFFFFFFFFFFFFFFFFFFFF
310
FFFFFFFFFFFFFFFFFFFFFFFFFFFFFFFFF000FFFFFFFFFFFFFFFFFFFFFFFFFFFF
310
FFFFFFFFFFFFFFFFFFFFFFFFFFFFFFFFFFFFFFFFFFFFFFFFFFFFFFFFFFFFFFFF
310
FFFFFFFFFFFFFFFFFFFFFFFFFFFFFFFFFFFFFFFFFFFFFFFFFFFFFFFFFFFFFFFF
310
FFFFFFFFFFFFFFFFF000FFFFFFFFFFFFFFFFFFFFFFFFFFFFFFFFFFFFFFFFFFFF
310
FFFFFFFFFFFFFFFFFFFFFFFFFFFFFFFFFFFFFFFFFFFFFFFFFFFFFFFFFFFFFFFF
310
FFFFFFFFFFFFFFFFFFFFFFFFFFFFFFFFFFFFFFFFFFFFFFFFFFFFFFFFFFFFFFFF
310
F000FFFFFFFFFFFFFFFFFFFFFFFFFFFFFFFFFFFFFFFFFFFFFFFFFFFFFFFFFFFF
310
FFFFFFFFFFFFFFFFFFFFFFFFFFFFFFFFFFFFFFFFFFFFFFFFFFFFFFFFFFFFFFFF
310
FFFFFFFFFFFFFFFFFFFFFFFFFFFFFFFFFFFFFFFFFFFFFFFFF000FFFFFFFFFFFF
310
FFFFFFFFFFFFFFFFFFFFFFFFFFFFFFFFFFFFFFFFFFFFFFFFFFFFFFFFFFFFFFFF
310
FFFFFFFFFFFFFFFFFFFFFFFFFFFFFFFFFFFFFFFFFFFFFFFFFFFFFFFFFFFFFFFF
310
FFFFFFFFFFFFFFFFFFFFFFFFFFFFFFFFF0000000000000000000000000000000
310
0000000000000000000000000000000000000000000000000000000000000000
310
0000000000000000000000000000000000000000000000000000000000000000
310
0000000000000000000000000000000000000000000000000000000000000000
310
0000000000000000000000000000000000000000000000000000000000000000
310
0000000000000000000000000000000000000000000000000000000000000000
310
0000000000000000000000000000000000000000000000000000000000000000
310
0000000000000000000000000000000000000000000000000000000000000000
310
0000000000000000000000000000000000000000000000000000000000000000
310
0000000000000000000000000000000000000000000000000000000000000000
310
0000000000000000000000000000000000000000000000000000000000000000
310
0000000000000000000000000000000000000000000000000000000000000000
310
0000000000000000000000000000000000000000000000000000000000000000
310
0000000000000000000000000000000000000000000000000000000000000000
310
0000000000000000000000000000000000000000000000000000000000000000
310
0000000000000000000000000000000000000000000000000000000000000000
  1
OLE
  0
ENDSEC
  0
SECTION
  2
OBJECTS
  0
DICTIONARY
  5
C
330
0
100
AcDbDictionary
281
     1
  3
ACAD_GROUP
350
D
  3
ACAD_LAYOUT
350
1A
  3
ACAD_MLINESTYLE
350
17
  3
ACAD_PLOTSETTINGS
350
19
  3
ACAD_PLOTSTYLENAME
350
E
  3
ACAD_SCALELIST
350
47
  0
DICTIONARY
  5
D
102
{ACAD_REACTORS
330
C
102
}
330
C
100
AcDbDictionary
281
     1
  0
DICTIONARY
  5
1A
102
{ACAD_REACTORS
330
C
102
}
330
C
100
AcDbDictionary
281
     1
  3
Layout1
350
1E
  3
Layout2
350
26
  3
Model
350
22
  0
DICTIONARY
  5
17
102
{ACAD_REACTORS
330
C
102
}
330
C
100
AcDbDictionary
281
     1
  3
Standard
350
18
  0
DICTIONARY
  5
19
102
{ACAD_REACTORS
330
C
102
}
330
C
100
AcDbDictionary
281
     1
  0
ACDBDICTIONARYWDFLT
  5
E
102
{ACAD_REACTORS
330
C
102
}
330
C
100
AcDbDictionary
281
     1
  3
Normal
350
F
100
AcDbDictionaryWithDefault
340
F
  0
DICTIONARY
  5
47
102
{ACAD_REACTORS
330
C
102
}
330
C
100
AcDbDictionary
281
     1
  3
A0
350
48
  3
A1
350
49
  3
A2
350
4A
  3
A3
350
4B
  3
A4
350
4C
  3
A5
350
4D
  3
A6
350
4E
  3
A7
350
4F
  3
A8
350
50
  3
A9
350
51
  3
B0
350
52
  3
B1
350
53
  3
B2
350
54
  3
B3
350
55
  3
B4
350
56
  3
B5
350
57
  3
B6
350
58
  3
B7
350
59
  3
B8
350
5A
  3
B9
350
5B
  3
C0
350
5C
  3
C1
350
5D
  3
C2
350
5E
  3
C3
350
5F
  3
C4
350
60
  3
C5
350
61
  3
C6
350
62
  3
C7
350
63
  3
C8
350
64
  3
C9
350
65
  3
D0
350
66
  3
D1
350
67
  3
D2
350
68
  0
LAYOUT
  5
1E
102
{ACAD_REACTORS
330
1A
102
}
330
1A
100
AcDbPlotSettings
  1

  2
none_device
  4

  6

 40
0.0
 41
0.0
 42
0.0
 43
0.0
 44
0.0
 45
0.0
 46
0.0
 47
0.0
 48
0.0
 49
0.0
140
0.0
141
0.0
142
1.0
143
1.0
 70
   688
 72
     1
 73
     0
 74
     5
  7

 75
    16
147
1.0
148
0.0
149
0.0
100
AcDbLayout
  1
Layout1
 70
     1
 71
     1
 10
0.0
 20
0.0
 11
420.0
 21
297.0
 12
0.0
 22
0.0
 32
0.0
 14
1.0000000000E+20
 24
1.0000000000E+20
 34
1.0000000000E+20
 15
-1.0000000000E+20
 25
-1.0000000000E+20
 35
-1.0000000000E+20
146
0.0
 13
0.0
 23
0.0
 33
0.0
 16
1.0
 26
0.0
 36
0.0
 17
0.0
 27
1.0
 37
0.0
 76
     0
330
1B
  0
LAYOUT
  5
26
102
{ACAD_REACTORS
330
1A
102
}
330
1A
100
AcDbPlotSettings
  1

  2
none_device
  4

  6

 40
0.0
 41
0.0
 42
0.0
 43
0.0
 44
0.0
 45
0.0
 46
0.0
 47
0.0
 48
0.0
 49
0.0
140
0.0
141
0.0
142
1.0
143
1.0
 70
   688
 72
     1
 73
     0
 74
     5
  7

 75
    16
147
1.0
148
0.0
149
0.0
100
AcDbLayout
  1
Layout2
 70
     1
 71
     2
 10
0.0
 20
0.0
 11
0.0
 21
0.0
 12
0.0
 22
0.0
 32
0.0
 14
0.0
 24
0.0
 34
0.0
 15
0.0
 25
0.0
 35
0.0
146
0.0
 13
0.0
 23
0.0
 33
0.0
 16
1.0
 26
0.0
 36
0.0
 17
0.0
 27
1.0
 37
0.0
 76
     0
330
23
  0
LAYOUT
  5
22
102
{ACAD_REACTORS
330
1A
102
}
330
1A
100
AcDbPlotSettings
  1

  2
none_device
  4
Letter_(8.50_x_11.00_Inches)
  6

 40
6.35
 41
6.35
 42
6.35000508
 43
6.35000508
 44
215.9
 45
279.4
 46
0.0
 47
0.0
 48
0.0
 49
0.0
140
0.0
141
0.0
142
1.0
143
1.0
 70
  1712
 72
     1
 73
     0
 74
     0
  7

 75
     0
147
1.0
148
0.0
149
0.0
100
AcDbLayout
  1
Model
 70
     1
 71
     0
 10
0.0
 20
0.0
 11
297.0
 21
210.0
 12
0.0
 22
0.0
 32
0.0
 14
0.0
 24
0.0
 34
0.0
 15
297.0
 25
210.0
 35
0.0
146
0.0
 13
0.0
 23
0.0
 33
0.0
 16
1.0
 26
0.0
 36
0.0
 17
0.0
 27
1.0
 37
0.0
 76
     0
330
1F
331
29
  0
MLINESTYLE
  5
18
102
{ACAD_REACTORS
330
17
102
}
330
17
100
AcDbMlineStyle
  2
Standard
 70
     0
  3

 62
   256
 51
90.0
 52
90.0
 71
     2
 49
0.5
 62
   256
  6
BYLAYER
 49
-0.5
 62
   256
  6
BYLAYER
  0
ACDBPLACEHOLDER
  5
F
102
{ACAD_REACTORS
330
E
102
}
330
E
  0
SCALE
  5
48
102
{ACAD_REACTORS
330
47
102
}
330
47
100
AcDbScale
 70
     0
300
1:1
140
1.0
141
1.0
290
     1
  0
SCALE
  5
49
102
{ACAD_REACTORS
330
47
102
}
330
47
100
AcDbScale
 70
     0
300
1:2
140
1.0
141
2.0
290
     0
  0
SCALE
  5
4A
102
{ACAD_REACTORS
330
47
102
}
330
47
100
AcDbScale
 70
     0
300
1:4
140
1.0
141
4.0
290
     0
  0
SCALE
  5
4B
102
{ACAD_REACTORS
330
47
102
}
330
47
100
AcDbScale
 70
     0
300
1:5
140
1.0
141
5.0
290
     0
  0
SCALE
  5
4C
102
{ACAD_REACTORS
330
47
102
}
330
47
100
AcDbScale
 70
     0
300
1:8
140
1.0
141
8.0
290
     0
  0
SCALE
  5
4D
102
{ACAD_REACTORS
330
47
102
}
330
47
100
AcDbScale
 70
     0
300
1:10
140
1.0
141
10.0
290
     0
  0
SCALE
  5
4E
102
{ACAD_REACTORS
330
47
102
}
330
47
100
AcDbScale
 70
     0
300
1:16
140
1.0
141
16.0
290
     0
  0
SCALE
  5
4F
102
{ACAD_REACTORS
330
47
102
}
330
47
100
AcDbScale
 70
     0
300
1:20
140
1.0
141
20.0
290
     0
  0
SCALE
  5
50
102
{ACAD_REACTORS
330
47
102
}
330
47
100
AcDbScale
 70
     0
300
1:30
140
1.0
141
30.0
290
     0
  0
SCALE
  5
51
102
{ACAD_REACTORS
330
47
102
}
330
47
100
AcDbScale
 70
     0
300
1:40
140
1.0
141
40.0
290
     0
  0
SCALE
  5
52
102
{ACAD_REACTORS
330
47
102
}
330
47
100
AcDbScale
 70
     0
300
1:50
140
1.0
141
50.0
290
     0
  0
SCALE
  5
53
102
{ACAD_REACTORS
330
47
102
}
330
47
100
AcDbScale
 70
     0
300
1:100
140
1.0
141
100.0
290
     0
  0
SCALE
  5
54
102
{ACAD_REACTORS
330
47
102
}
330
47
100
AcDbScale
 70
     0
300
2:1
140
2.0
141
1.0
290
     0
  0
SCALE
  5
55
102
{ACAD_REACTORS
330
47
102
}
330
47
100
AcDbScale
 70
     0
300
4:1
140
4.0
141
1.0
290
     0
  0
SCALE
  5
56
102
{ACAD_REACTORS
330
47
102
}
330
47
100
AcDbScale
 70
     0
300
8:1
140
8.0
141
1.0
290
     0
  0
SCALE
  5
57
102
{ACAD_REACTORS
330
47
102
}
330
47
100
AcDbScale
 70
     0
300
10:1
140
10.0
141
1.0
290
     0
  0
SCALE
  5
58
102
{ACAD_REACTORS
330
47
102
}
330
47
100
AcDbScale
 70
     0
300
100:1
140
100.0
141
1.0
290
     0
  0
SCALE
  5
59
102
{ACAD_REACTORS
330
47
102
}
330
47
100
AcDbScale
 70
     0
300
1/128" = 1'-0"
140
0.0078125
141
12.0
290
     0
  0
SCALE
  5
5A
102
{ACAD_REACTORS
330
47
102
}
330
47
100
AcDbScale
 70
     0
300
1/64" = 1'-0"
140
0.015625
141
12.0
290
     0
  0
SCALE
  5
5B
102
{ACAD_REACTORS
330
47
102
}
330
47
100
AcDbScale
 70
     0
300
1/32" = 1'-0"
140
0.03125
141
12.0
290
     0
  0
SCALE
  5
5C
102
{ACAD_REACTORS
330
47
102
}
330
47
100
AcDbScale
 70
     0
300
1/16" = 1'-0"
140
0.0625
141
12.0
290
     0
  0
SCALE
  5
5D
102
{ACAD_REACTORS
330
47
102
}
330
47
100
AcDbScale
 70
     0
300
3/32" = 1'-0"
140
0.09375
141
12.0
290
     0
  0
SCALE
  5
5E
102
{ACAD_REACTORS
330
47
102
}
330
47
100
AcDbScale
 70
     0
300
1/8" = 1'-0"
140
0.125
141
12.0
290
     0
  0
SCALE
  5
5F
102
{ACAD_REACTORS
330
47
102
}
330
47
100
AcDbScale
 70
     0
300
3/16" = 1'-0"
140
0.1875
141
12.0
290
     0
  0
SCALE
  5
60
102
{ACAD_REACTORS
330
47
102
}
330
47
100
AcDbScale
 70
     0
300
1/4" = 1'-0"
140
0.25
141
12.0
290
     0
  0
SCALE
  5
61
102
{ACAD_REACTORS
330
47
102
}
330
47
100
AcDbScale
 70
     0
300
3/8" = 1'-0"
140
0.375
141
12.0
290
     0
  0
SCALE
  5
62
102
{ACAD_REACTORS
330
47
102
}
330
47
100
AcDbScale
 70
     0
300
1/2" = 1'-0"
140
0.5
141
12.0
290
     0
  0
SCALE
  5
63
102
{ACAD_REACTORS
330
47
102
}
330
47
100
AcDbScale
 70
     0
300
3/4" = 1'-0"
140
0.75
141
12.0
290
     0
  0
SCALE
  5
64
102
{ACAD_REACTORS
330
47
102
}
330
47
100
AcDbScale
 70
     0
300
1" = 1'-0"
140
1.0
141
12.0
290
     0
  0
SCALE
  5
65
102
{ACAD_REACTORS
330
47
102
}
330
47
100
AcDbScale
 70
     0
300
1-1/2" = 1'-0"
140
1.5
141
12.0
290
     0
  0
SCALE
  5
66
102
{ACAD_REACTORS
330
47
102
}
330
47
100
AcDbScale
 70
     0
300
3" = 1'-0"
140
3.0
141
12.0
290
     0
  0
SCALE
  5
67
102
{ACAD_REACTORS
330
47
102
}
330
47
100
AcDbScale
 70
     0
300
6" = 1'-0"
140
6.0
141
12.0
290
     0
  0
SCALE
  5
68
102
{ACAD_REACTORS
330
47
102
}
330
47
100
AcDbScale
 70
     0
300
1'-0" = 1'-0"
140
12.0
141
12.0
290
     0
  0
ENDSEC
  0
EOF
