  0
SECTION
  2
HEADER
  9
$ACADVER
  1
AC1015
  9
$ACADMAINTVER
 70
     6
  9
$DWGCODEPAGE
  3
ANSI_1252
  9
$INSBASE
 10
0.0
 20
0.0
 30
0.0
  9
$EXTMIN
 10
0.0
 20
0.0
 30
0.0
  9
$EXTMAX
 10
297.0
 20
210.0
 30
0.0
  9
$LIMMIN
 10
0.0
 20
0.0
  9
$LIMMAX
 10
297.0
 20
210.0
  9
$ORTHOMODE
 70
     0
  9
$REGENMODE
 70
     1
  9
$FILLMODE
 70
     1
  9
$QTEXTMODE
 70
     0
  9
$MIRRTEXT
 70
     1
  9
$LTSCALE
 40
1.0
  9
$ATTMODE
 70
     1
  9
$TEXTSIZE
 40
2.0
  9
$TRACEWID
 40
1.0
  9
$TEXTSTYLE
  7
Standard
  9
$CLAYER
  8
0
  9
$CELTYPE
  6
ByLayer
  9
$CECOLOR
 62
   256
  9
$CELTSCALE
 40
1.0
  9
$DISPSILH
 70
     0
  9
$DIMSCALE
 40
1.0
  9
$DIMASZ
 40
3.0
  9
$DIMEXO
 40
0.0
  9
$DIMDLI
 40
3.75
  9
$DIMRND
 40
0.0
  9
$DIMDLE
 40
0.0
  9
$DIMEXE
 40
1.0
  9
$DIMTP
 40
0.0
  9
$DIMTM
 40
0.0
  9
$DIMTXT
 40
2.0
  9
$DIMCEN
 40
2.5
  9
$DIMTSZ
 40
0.0
  9
$DIMTOL
 70
     0
  9
$DIMLIM
 70
     0
  9
$DIMTIH
 70
     1
  9
$DIMTOH
 70
     1
  9
$DIMSE1
 70
     0
  9
$DIMSE2
 70
     0
  9
$DIMTAD
 70
     1
  9
$DIMZIN
 70
     0
  9
$DIMBLK
  1

  9
$DIMASO
 70
     1
  9
$DIMSHO
 70
     1
  9
$DIMPOST
  1

  9
$DIMAPOST
  1

  9
$DIMALT
 70
     0
  9
$DIMALTD
 70
     3
  9
$DIMALTF
 40
0.0393700787
  9
$DIMLFAC
 40
0.5
  9
$DIMTOFL
 70
     1
  9
$DIMTVP
 40
0.0
  9
$DIMTIX
 70
     0
  9
$DIMSOXD
 70
     0
  9
$DIMSAH
 70
     0
  9
$DIMBLK1
  1

  9
$DIMBLK2
  1

  9
$DIMSTYLE
  2
ISO-25
  9
$DIMCLRD
 70
     0
  9
$DIMCLRE
 70
     0
  9
$DIMCLRT
 70
     0
  9
$DIMTFAC
 40
1.0
  9
$DIMGAP
 40
1.524
  9
$DIMJUST
 70
     0
  9
$DIMSD1
 70
     0
  9
$DIMSD2
 70
     0
  9
$DIMTOLJ
 70
     0
  9
$DIMTZIN
 70
     0
  9
$DIMALTZ
 70
     0
  9
$DIMALTTZ
 70
     0
  9
$DIMUPT
 70
     0
  9
$DIMDEC
 70
     2
  9
$DIMTDEC
 70
     3
  9
$DIMALTU
 70
     2
  9
$DIMALTTD
 70
     3
  9
$DIMTXSTY
  7
Standard
  9
$DIMAUNIT
 70
     0
  9
$DIMADEC
 70
     2
  9
$DIMALTRND
 40
0.0
  9
$DIMAZIN
 70
     0
  9
$DIMDSEP
 70
    44
  9
$DIMATFIT
 70
     3
  9
$DIMFRAC
 70
     0
  9
$DIMLDRBLK
  1

  9
$DIMLUNIT
 70
     2
  9
$DIMLWD
 70
    -2
  9
$DIMLWE
 70
    -2
  9
$DIMTMOVE
 70
     0
  9
$LUNITS
 70
     2
  9
$LUPREC
 70
     2
  9
$SKETCHINC
 40
1.0
  9
$FILLETRAD
 40
10.0
  9
$AUNITS
 70
     0
  9
$AUPREC
 70
     2
  9
$MENU
  1
.
  9
$ELEVATION
 40
0.0
  9
$PELEVATION
 40
0.0
  9
$THICKNESS
 40
0.0
  9
$LIMCHECK
 70
     0
  9
$CHAMFERA
 40
0.0
  9
$CHAMFERB
 40
0.0
  9
$CHAMFERC
 40
0.0
  9
$CHAMFERD
 40
0.0
  9
$SKPOLY
 70
     0
  9
$TDCREATE
 40
2457618.720528148
  9
$TDUCREATE
 40
2457618.637194815
  9
$TDUPDATE
 40
2457618.720529248
  9
$TDUUPDATE
 40
2457618.637195915
  9
$TDINDWG
 40
0.0000000116
  9
$TDUSRTIMER
 40
0.0000000116
  9
$USRTIMER
 70
     1
  9
$ANGBASE
 50
0.0
  9
$ANGDIR
 70
     0
  9
$PDMODE
 70
     0
  9
$PDSIZE
 40
-1.0
  9
$PLINEWID
 40
0.0
  9
$SPLFRAME
 70
     0
  9
$SPLINETYPE
 70
     6
  9
$SPLINESEGS
 70
     8
  9
$HANDSEED
  5
16B
  9
$SURFTAB1
 70
     6
  9
$SURFTAB2
 70
     6
  9
$SURFTYPE
 70
     6
  9
$SURFU
 70
     6
  9
$SURFV
 70
     6
  9
$UCSBASE
  2

  9
$UCSNAME
  2

  9
$UCSORG
 10
0.0
 20
0.0
 30
0.0
  9
$UCSXDIR
 10
1.0
 20
0.0
 30
0.0
  9
$UCSYDIR
 10
0.0
 20
1.0
 30
0.0
  9
$UCSORTHOREF
  2

  9
$UCSORTHOVIEW
 70
     0
  9
$UCSORGTOP
 10
0.0
 20
0.0
 30
0.0
  9
$UCSORGBOTTOM
 10
0.0
 20
0.0
 30
0.0
  9
$UCSORGLEFT
 10
0.0
 20
0.0
 30
0.0
  9
$UCSORGRIGHT
 10
0.0
 20
0.0
 30
0.0
  9
$UCSORGFRONT
 10
0.0
 20
0.0
 30
0.0
  9
$UCSORGBACK
 10
0.0
 20
0.0
 30
0.0
  9
$PUCSBASE
  2

  9
$PUCSNAME
  2

  9
$PUCSORG
 10
0.0
 20
0.0
 30
0.0
  9
$PUCSXDIR
 10
1.0
 20
0.0
 30
0.0
  9
$PUCSYDIR
 10
0.0
 20
1.0
 30
0.0
  9
$PUCSORTHOREF
  2

  9
$PUCSORTHOVIEW
 70
     0
  9
$PUCSORGTOP
 10
0.0
 20
0.0
 30
0.0
  9
$PUCSORGBOTTOM
 10
0.0
 20
0.0
 30
0.0
  9
$PUCSORGLEFT
 10
0.0
 20
0.0
 30
0.0
  9
$PUCSORGRIGHT
 10
0.0
 20
0.0
 30
0.0
  9
$PUCSORGFRONT
 10
0.0
 20
0.0
 30
0.0
  9
$PUCSORGBACK
 10
0.0
 20
0.0
 30
0.0
  9
$USERI1
 70
     0
  9
$USERI2
 70
     0
  9
$USERI3
 70
     0
  9
$USERI4
 70
     0
  9
$USERI5
 70
     0
  9
$USERR1
 40
0.0
  9
$USERR2
 40
0.0
  9
$USERR3
 40
0.0
  9
$USERR4
 40
0.0
  9
$USERR5
 40
0.0
  9
$WORLDVIEW
 70
     1
  9
$SHADEDGE
 70
     3
  9
$SHADEDIF
 70
    70
  9
$TILEMODE
 70
     1
  9
$MAXACTVP
 70
    64
  9
$PINSBASE
 10
0.0
 20
0.0
 30
0.0
  9
$PLIMCHECK
 70
     0
  9
$PEXTMIN
 10
1.0000000000E+20
 20
1.0000000000E+20
 30
1.0000000000E+20
  9
$PEXTMAX
 10
-1.0000000000E+20
 20
-1.0000000000E+20
 30
-1.0000000000E+20
  9
$PLIMMIN
 10
0.0
 20
0.0
  9
$PLIMMAX
 10
420.0
 20
297.0
  9
$UNITMODE
 70
     0
  9
$VISRETAIN
 70
     1
  9
$PLINEGEN
 70
     0
  9
$PSLTSCALE
 70
     1
  9
$TREEDEPTH
 70
  3020
  9
$CMLSTYLE
  2
Standard
  9
$CMLJUST
 70
     0
  9
$CMLSCALE
 40
20.0
  9
$PROXYGRAPHICS
 70
     1
  9
$MEASUREMENT
 70
     1
  9
$CELWEIGHT
370
    -1
  9
$ENDCAPS
280
     0
  9
$JOINSTYLE
280
     0
  9
$LWDISPLAY
290
     1
  9
$INSUNITS
 70
     4
  9
$HYPERLINKBASE
  1

  9
$STYLESHEET
  1

  9
$XEDIT
290
     1
  9
$CEPSNTYPE
380
     0
  9
$PSTYLEMODE
290
     1
  9
$FINGERPRINTGUID
  2
{57EBC70F-BFD7-4EB5-9A2E-49B72160CDB3}
  9
$VERSIONGUID
  2
{FAEB1C32-E019-11D5-929B-00C0DF256EC4}
  9
$EXTNAMES
290
     1
  9
$PSVPSCALE
 40
0.0
  9
$OLESTARTUP
290
     0
  0
ENDSEC
  0
SECTION
  2
CLASSES
  0
CLASS
  1
ACDBDICTIONARYWDFLT
  2
AcDbDictionaryWithDefault
  3
ObjectDBX Classes
 90
        0
280
     0
281
     0
  0
CLASS
  1
VISUALSTYLE
  2
AcDbVisualStyle
  3
ObjectDBX Classes
 90
     4095
280
     0
281
     0
  0
CLASS
  1
MATERIAL
  2
AcDbMaterial
  3
ObjectDBX Classes
 90
     1153
280
     0
281
     0
  0
CLASS
  1
SCALE
  2
AcDbScale
  3
ObjectDBX Classes
 90
     1153
280
     0
281
     0
  0
CLASS
  1
TABLESTYLE
  2
AcDbTableStyle
  3
ObjectDBX Classes
 90
     4095
280
     0
281
     0
  0
CLASS
  1
MLEADERSTYLE
  2
AcDbMLeaderStyle
  3
ACDB_MLEADERSTYLE_CLASS
 90
     4095
280
     0
281
     0
  0
CLASS
  1
SUN
  2
AcDbSun
  3
SCENEOE
 90
     1153
280
     0
281
     0
  0
CLASS
  1
ACDBPLACEHOLDER
  2
AcDbPlaceHolder
  3
ObjectDBX Classes
 90
        0
280
     0
281
     0
  0
CLASS
  1
LAYOUT
  2
AcDbLayout
  3
ObjectDBX Classes
 90
        0
280
     0
281
     0
  0
ENDSEC
  0
SECTION
  2
TABLES
  0
TABLE
  2
VPORT
  5
8
330
0
100
AcDbSymbolTable
 70
     1
  0
VPORT
  5
29
330
8
100
AcDbSymbolTableRecord
100
AcDbViewportTableRecord
  2
*Active
 70
     0
 10
0.0
 20
0.0
 11
1.0
 21
1.0
 12
148.5
 22
105.0
 13
0.0
 23
0.0
 14
10.0
 24
10.0
 15
10.0
 25
10.0
 16
0.0
 26
0.0
 36
1.0
 17
0.0
 27
0.0
 37
0.0
 40
210.0
 41
1.4142857143
 42
50.0
 43
0.0
 44
0.0
 50
0.0
 51
0.0
 71
     0
 72
  2000
 73
     1
 74
     3
 75
     0
 76
     0
 77
     0
 78
     0
281
     0
 65
     1
110
0.0
120
0.0
130
0.0
111
1.0
121
0.0
131
0.0
112
0.0
122
1.0
132
0.0
 79
     0
146
0.0
  0
ENDTAB
  0
TABLE
  2
LTYPE
  5
5
330
0
100
AcDbSymbolTable
 70
     6
  0
LTYPE
  5
14
330
5
100
AcDbSymbolTableRecord
100
AcDbLinetypeTableRecord
  2
ByBlock
 70
     0
  3

 72
    65
 73
     0
 40
0.0
  0
LTYPE
  5
15
330
5
100
AcDbSymbolTableRecord
100
AcDbLinetypeTableRecord
  2
ByLayer
 70
     0
  3

 72
    65
 73
     0
 40
0.0
  0
LTYPE
  5
16
330
5
100
AcDbSymbolTableRecord
100
AcDbLinetypeTableRecord
  2
Continuous
 70
     0
  3
Solid line
 72
    65
 73
     0
 40
0.0
  0
LTYPE
  5
6E
330
5
100
AcDbSymbolTableRecord
100
AcDbLinetypeTableRecord
  2
HIDDEN
 70
     0
  3
Hidden __ __ __ __ __ __ __ __ __ __ __ __ __ __
 72
    65
 73
     2
 40
1.905
 49
1.27
 74
     0
 49
-0.635
 74
     0
  0
LTYPE
  5
6F
330
5
100
AcDbSymbolTableRecord
100
AcDbLinetypeTableRecord
  2
PHANTOM
 70
     0
  3
Phantom ______  __  __  ______  __  __  ______
 72
    65
 73
     6
 40
12.7
 49
6.35
 74
     0
 49
-1.27
 74
     0
 49
1.27
 74
     0
 49
-1.27
 74
     0
 49
1.27
 74
     0
 49
-1.27
 74
     0
  0
LTYPE
  5
70
330
5
100
AcDbSymbolTableRecord
100
AcDbLinetypeTableRecord
  2
CENTER
 70
     0
  3
Center ____ _ ____ _ ____ _ ____ _ ____ _ ____
 72
    65
 73
     4
 40
10.16
 49
6.35
 74
     0
 49
-1.27
 74
     0
 49
1.27
 74
     0
 49
-1.27
 74
     0
  0
LTYPE
  5
71
330
5
100
AcDbSymbolTableRecord
100
AcDbLinetypeTableRecord
  2
CENTERX2
 70
     0
  3
Center (2x) ________  __  ________  __  _____
 72
    65
 73
     4
 40
20.32
 49
12.7
 74
     0
 49
-2.54
 74
     0
 49
2.54
 74
     0
 49
-2.54
 74
     0
  0
LTYPE
  5
72
330
5
100
AcDbSymbolTableRecord
100
AcDbLinetypeTableRecord
  2
DOT2
 70
     0
  3
Dot (.5x) ........................................
 72
    65
 73
     2
 40
0.635
 49
0.0
 74
     0
 49
-0.635
 74
     0
  0
ENDTAB
  0
TABLE
  2
LAYER
  5
2
330
0
100
AcDbSymbolTable
 70
     5
  0
LAYER
  5
10
330
2
100
AcDbSymbolTableRecord
100
AcDbLayerTableRecord
  2
0
 70
     0
 62
     7
  6
Continuous
370
    -3
390
F
  0
LAYER
  5
73
330
2
100
AcDbSymbolTableRecord
100
AcDbLayerTableRecord
  2
FORMAT
 70
     0
 62
     7
  6
Continuous
370
    -3
390
F
  0
LAYER
  5
74
330
2
100
AcDbSymbolTableRecord
100
AcDbLayerTableRecord
  2
VERMASSUNG
 70
     0
 62
     7
  6
Continuous
370
    -3
390
F
  0
LAYER
  5
75
330
2
100
AcDbSymbolTableRecord
100
AcDbLayerTableRecord
  2
KOPF_DÜNN
 70
     0
 62
     7
  6
Continuous
370
    -3
390
F
  0
LAYER
  5
76
330
2
100
AcDbSymbolTableRecord
100
AcDbLayerTableRecord
  2
KOPF_DICK
 70
     0
 62
     7
  6
Continuous
370
    15
390
F
  0
ENDTAB
  0
TABLE
  2
STYLE
  5
3
330
0
100
AcDbSymbolTable
 70
     2
  0
STYLE
  5
11
330
3
100
AcDbSymbolTableRecord
100
AcDbTextStyleTableRecord
  2
Standard
 70
     0
 40
0.0
 41
1.0
 50
0.0
 71
     0
 42
2.0
  3
txt
  4

  0
STYLE
  5
77
330
3
100
AcDbSymbolTableRecord
100
AcDbTextStyleTableRecord
  2
SLDTEXTSTYLE0
 70
     0
 40
0.0
 41
0.7
 50
0.0
 71
     0
 42
2.0
  3
TXT
  4

  0
ENDTAB
  0
TABLE
  2
VIEW
  5
6
330
0
100
AcDbSymbolTable
 70
     0
  0
ENDTAB
  0
TABLE
  2
UCS
  5
7
330
0
100
AcDbSymbolTable
 70
     0
  0
ENDTAB
  0
TABLE
  2
APPID
  5
9
330
0
100
AcDbSymbolTable
 70
     1
  0
APPID
  5
12
330
9
100
AcDbSymbolTableRecord
100
AcDbRegAppTableRecord
  2
ACAD
 70
     0
  0
ENDTAB
  0
TABLE
  2
DIMSTYLE
  5
A
330
0
100
AcDbSymbolTable
 70
     4
100
AcDbDimStyleTable
  0
DIMSTYLE
105
27
330
A
100
AcDbSymbolTableRecord
100
AcDbDimStyleTableRecord
  2
ISO-25
 70
     0
 41
2.5
 42
0.625
 43
3.75
 44
1.25
 73
     0
 74
     0
 77
     1
 78
     8
140
2.5
141
2.5
143
0.0393700787
147
0.625
171
     3
172
     1
178
     0
271
     2
272
     2
274
     3
278
    44
283
     0
284
     8
340
11
  0
DIMSTYLE
105
126
102
{ACAD_REACTORS
330
125
102
}
330
A
100
AcDbSymbolTableRecord
100
AcDbDimStyleTableRecord
  2
SLDDIMSTYLE0
 70
     0
 41
3.0
 44
0.0
 45
0.000000001
 73
     0
 74
     0
 77
     1
 78
    12
 79
     3
140
2.0
147
0.5
173
     1
178
     0
271
     0
272
     3
276
     2
284
    12
340
77
  0
DIMSTYLE
105
131
102
{ACAD_REACTORS
330
130
102
}
330
A
100
AcDbSymbolTableRecord
100
AcDbDimStyleTableRecord
  2
SLDDIMSTYLE1
 70
     0
 41
3.0
 44
0.0
 45
0.000000001
 73
     0
 74
     0
 77
     1
 78
    12
 79
     3
140
2.0
147
0.5
173
     1
178
     0
271
     2
272
     2
276
     2
284
    12
340
77
  0
DIMSTYLE
105
13D
102
{ACAD_REACTORS
330
13C
330
149
330
153
330
15F
102
}
330
A
100
AcDbSymbolTableRecord
100
AcDbDimStyleTableRecord
  2
SLDDIMSTYLE2
 70
     0
 41
3.0
 44
0.0
 45
0.000000001
 73
     0
 74
     0
 77
     1
 78
    12
 79
     3
140
2.0
147
0.5
173
     1
178
     0
271
     2
272
     3
276
     2
284
    12
340
77
  0
ENDTAB
  0
TABLE
  2
BLOCK_RECORD
  5
1
330
0
100
AcDbSymbolTable
 70
     7
  0
BLOCK_RECORD
  5
1F
330
1
100
AcDbSymbolTableRecord
100
AcDbBlockTableRecord
  2
*Model_Space
340
22
  0
BLOCK_RECORD
  5
1B
330
1
100
AcDbSymbolTableRecord
100
AcDbBlockTableRecord
  2
*Paper_Space
340
1E
  0
BLOCK_RECORD
  5
23
330
1
100
AcDbSymbolTableRecord
100
AcDbBlockTableRecord
  2
*Paper_Space0
340
26
  0
BLOCK_RECORD
  5
127
330
1
100
AcDbSymbolTableRecord
100
AcDbBlockTableRecord
  2
_D
340
0
  0
BLOCK_RECORD
  5
132
330
1
100
AcDbSymbolTableRecord
100
AcDbBlockTableRecord
  2
_D_1
340
0
  0
BLOCK_RECORD
  5
13E
330
1
100
AcDbSymbolTableRecord
100
AcDbBlockTableRecord
  2
_D_2
340
0
  0
BLOCK_RECORD
  5
14A
330
1
100
AcDbSymbolTableRecord
100
AcDbBlockTableRecord
  2
_D_3
340
0
  0
BLOCK_RECORD
  5
154
330
1
100
AcDbSymbolTableRecord
100
AcDbBlockTableRecord
  2
_D_4
340
0
  0
BLOCK_RECORD
  5
160
330
1
100
AcDbSymbolTableRecord
100
AcDbBlockTableRecord
  2
_D_5
340
0
  0
ENDTAB
  0
ENDSEC
  0
SECTION
  2
BLOCKS
  0
BLOCK
  5
20
330
1F
100
AcDbEntity
  8
0
100
AcDbBlockBegin
  2
*Model_Space
 70
     0
 10
0.0
 20
0.0
 30
0.0
  3
*Model_Space
  1

  0
ENDBLK
  5
21
330
1F
100
AcDbEntity
  8
0
100
AcDbBlockEnd
  0
BLOCK
  5
1C
330
1B
100
AcDbEntity
 67
     1
  8
0
100
AcDbBlockBegin
  2
*Paper_Space
 70
     0
 10
0.0
 20
0.0
 30
0.0
  3
*Paper_Space
  1

  0
ENDBLK
  5
1D
330
1B
100
AcDbEntity
 67
     1
  8
0
100
AcDbBlockEnd
  0
BLOCK
  5
24
330
23
100
AcDbEntity
  8
0
100
AcDbBlockBegin
  2
*Paper_Space0
 70
     0
 10
0.0
 20
0.0
 30
0.0
  3
*Paper_Space0
  1

  0
ENDBLK
  5
25
330
23
100
AcDbEntity
  8
0
100
AcDbBlockEnd
  0
BLOCK
  5
128
330
127
100
AcDbEntity
  8
0
100
AcDbBlockBegin
  2
_D
 70
     0
 10
0.0
 20
0.0
 30
0.0
  3
_D
  1

  0
SOLID
  5
12A
330
127
100
AcDbEntity
  8
VERMASSUNG
100
AcDbTrace
 10
236.190962398
 20
158.5065134447
 30
0.0
 11
233.190962398
 21
158.9565134447
 31
0.0
 12
233.190962398
 22
158.0565134447
 32
0.0
 13
233.190962398
 23
158.0565134447
 33
0.0
  0
SOLID
  5
12B
330
127
100
AcDbEntity
  8
VERMASSUNG
100
AcDbTrace
 10
117.1558157458
 20
158.5065134447
 30
0.0
 11
120.1558157458
 21
158.0565134447
 31
0.0
 12
120.1558157458
 22
158.9565134447
 32
0.0
 13
120.1558157458
 23
158.9565134447
 33
0.0
  0
LINE
  5
12C
330
127
100
AcDbEntity
  8
VERMASSUNG
100
AcDbLine
 10
236.190962398
 20
140.6435394379
 30
0.0
 11
236.190962398
 21
159.5065134447
 31
0.0
  0
LINE
  5
12D
330
127
100
AcDbEntity
  8
VERMASSUNG
100
AcDbLine
 10
117.1558157458
 20
144.9332163773
 30
0.0
 11
117.1558157458
 21
159.5065134447
 31
0.0
  0
LINE
  5
12E
330
127
100
AcDbEntity
  8
VERMASSUNG
100
AcDbLine
 10
236.190962398
 20
158.5065134447
 30
0.0
 11
117.1558157458
 21
158.5065134447
 31
0.0
  0
MTEXT
  5
12F
330
127
100
AcDbEntity
  8
VERMASSUNG
100
AcDbMText
 10
174.9733890494
 20
161.0846490407
 30
0.0
 40
2.0
 41
0.0
 71
     1
 72
     1
  1
119
  7
SLDTEXTSTYLE0
 73
     1
 44
1.0
  0
ENDBLK
  5
129
330
127
100
AcDbEntity
  8
0
100
AcDbBlockEnd
  0
BLOCK
  5
133
330
132
100
AcDbEntity
  8
0
100
AcDbBlockBegin
  2
_D_1
 70
     0
 10
0.0
 20
0.0
 30
0.0
  3
_D_1
  1

  0
SOLID
  5
135
330
132
100
AcDbEntity
  8
VERMASSUNG
100
AcDbTrace
 10
248.0903053435
 20
110.0304246838
 30
0.0
 11
248.5403053435
 21
113.0304246838
 31
0.0
 12
247.6403053435
 22
113.0304246838
 32
0.0
 13
247.6403053435
 23
113.0304246838
 33
0.0
  0
SOLID
  5
136
330
132
100
AcDbEntity
  8
VERMASSUNG
100
AcDbTrace
 10
248.0903053435
 20
132.0304246838
 30
0.0
 11
247.6403053435
 21
129.0304246838
 31
0.0
 12
248.5403053435
 22
129.0304246838
 32
0.0
 13
248.5403053435
 23
129.0304246838
 33
0.0
  0
LINE
  5
137
330
132
100
AcDbEntity
  8
VERMASSUNG
100
AcDbLine
 10
235.190962398
 20
110.0304246838
 30
0.0
 11
249.0903053435
 21
110.0304246838
 31
0.0
  0
LINE
  5
138
330
132
100
AcDbEntity
  8
VERMASSUNG
100
AcDbLine
 10
235.190962398
 20
132.0304246838
 30
0.0
 11
249.0903053435
 21
132.0304246838
 31
0.0
  0
LINE
  5
139
330
132
100
AcDbEntity
  8
VERMASSUNG
100
AcDbLine
 10
248.0903053435
 20
110.0304246838
 30
0.0
 11
248.0903053435
 21
132.0304246838
 31
0.0
  0
MTEXT
  5
13A
330
132
100
AcDbEntity
  8
VERMASSUNG
100
AcDbMText
 10
245.5121698057
 20
117.8262485767
 30
0.0
 40
2.0
 41
0.0
 71
     1
 72
     1
  1
%%c
  7
SLDTEXTSTYLE0
 11
6.123233995736766E-17
 21
1.0
 31
0.0
 73
     1
 44
1.0
  0
MTEXT
  5
13B
330
132
100
AcDbEntity
  8
VERMASSUNG
100
AcDbMText
 10
245.5121697475
 20
121.4352207703
 30
0.0
 40
2.0
 41
0.0
 71
     1
 72
     1
  1
22
  7
SLDTEXTSTYLE0
 11
6.123233995736766E-17
 21
1.0
 31
0.0
 73
     1
 44
1.0
  0
ENDBLK
  5
134
330
132
100
AcDbEntity
  8
0
100
AcDbBlockEnd
  0
BLOCK
  5
13F
330
13E
100
AcDbEntity
  8
0
100
AcDbBlockBegin
  2
_D_2
 70
     0
 10
0.0
 20
0.0
 30
0.0
  3
_D_2
  1

  0
SOLID
  5
141
330
13E
100
AcDbEntity
  8
VERMASSUNG
100
AcDbTrace
 10
258.190962398
 20
101.0304246838
 30
0.0
 11
258.640962398
 21
104.0304246838
 31
0.0
 12
257.740962398
 22
104.0304246838
 32
0.0
 13
257.740962398
 23
104.0304246838
 33
0.0
  0
SOLID
  5
142
330
13E
100
AcDbEntity
  8
VERMASSUNG
100
AcDbTrace
 10
258.190962398
 20
141.0304246838
 30
0.0
 11
257.740962398
 21
138.0304246838
 31
0.0
 12
258.640962398
 22
138.0304246838
 32
0.0
 13
258.640962398
 23
138.0304246838
 33
0.0
  0
LINE
  5
143
330
13E
100
AcDbEntity
  8
VERMASSUNG
100
AcDbLine
 10
236.190962398
 20
101.0304246838
 30
0.0
 11
259.190962398
 21
101.0304246838
 31
0.0
  0
LINE
  5
144
330
13E
100
AcDbEntity
  8
VERMASSUNG
100
AcDbLine
 10
236.190962398
 20
141.0304246838
 30
0.0
 11
259.190962398
 21
141.0304246838
 31
0.0
  0
LINE
  5
145
330
13E
100
AcDbEntity
  8
VERMASSUNG
100
AcDbLine
 10
258.190962398
 20
101.0304246838
 30
0.0
 11
258.190962398
 21
141.0304246838
 31
0.0
  0
MTEXT
  5
146
330
13E
100
AcDbEntity
  8
VERMASSUNG
100
AcDbMText
 10
255.4128271418
 20
115.2265091328
 30
0.0
 40
2.0
 41
0.0
 71
     1
 72
     1
  1
WH
  7
SLDTEXTSTYLE0
 11
6.123233995736766E-17
 21
1.0
 31
0.0
 73
     1
 44
1.0
  0
MTEXT
  5
147
330
13E
100
AcDbEntity
  8
VERMASSUNG
100
AcDbMText
 10
255.6128270931
 20
120.2265090211
 30
0.0
 40
2.0
 41
0.0
 71
     1
 72
     1
  1
%%c
  7
SLDTEXTSTYLE0
 11
6.123233995736766E-17
 21
1.0
 31
0.0
 73
     1
 44
1.0
  0
MTEXT
  5
148
330
13E
100
AcDbEntity
  8
VERMASSUNG
100
AcDbMText
 10
255.6128268021
 20
123.8364226241
 30
0.0
 40
2.0
 41
0.0
 71
     1
 72
     1
  1
40
  7
SLDTEXTSTYLE0
 11
6.123233995736766E-17
 21
1.0
 31
0.0
 73
     1
 44
1.0
  0
ENDBLK
  5
140
330
13E
100
AcDbEntity
  8
0
100
AcDbBlockEnd
  0
BLOCK
  5
14B
330
14A
100
AcDbEntity
  8
0
100
AcDbBlockBegin
  2
_D_3
 70
     0
 10
0.0
 20
0.0
 30
0.0
  3
_D_3
  1

  0
SOLID
  5
14D
330
14A
100
AcDbEntity
  8
VERMASSUNG
100
AcDbTrace
 10
236.190962398
 20
174.6274146681
 30
0.0
 11
233.190962398
 21
175.0774146681
 31
0.0
 12
233.190962398
 22
174.1774146681
 32
0.0
 13
233.190962398
 23
174.1774146681
 33
0.0
  0
SOLID
  5
14E
330
14A
100
AcDbEntity
  8
VERMASSUNG
100
AcDbTrace
 10
56.190962398
 20
174.6274146681
 30
0.0
 11
59.190962398
 21
174.1774146681
 31
0.0
 12
59.190962398
 22
175.0774146681
 32
0.0
 13
59.190962398
 23
175.0774146681
 33
0.0
  0
LINE
  5
14F
330
14A
100
AcDbEntity
  8
VERMASSUNG
100
AcDbLine
 10
236.190962398
 20
140.6435394379
 30
0.0
 11
236.190962398
 21
175.6274146681
 31
0.0
  0
LINE
  5
150
330
14A
100
AcDbEntity
  8
VERMASSUNG
100
AcDbLine
 10
56.190962398
 20
137.7204246838
 30
0.0
 11
56.190962398
 21
175.6274146681
 31
0.0
  0
LINE
  5
151
330
14A
100
AcDbEntity
  8
VERMASSUNG
100
AcDbLine
 10
236.190962398
 20
174.6274146681
 30
0.0
 11
56.190962398
 21
174.6274146681
 31
0.0
  0
MTEXT
  5
152
330
14A
100
AcDbEntity
  8
VERMASSUNG
100
AcDbMText
 10
144.290962366
 20
177.205550264
 30
0.0
 40
2.0
 41
0.0
 71
     1
 72
     1
  1
180
  7
SLDTEXTSTYLE0
 73
     1
 44
1.0
  0
ENDBLK
  5
14C
330
14A
100
AcDbEntity
  8
0
100
AcDbBlockEnd
  0
BLOCK
  5
155
330
154
100
AcDbEntity
  8
0
100
AcDbBlockBegin
  2
_D_4
 70
     0
 10
0.0
 20
0.0
 30
0.0
  3
_D_4
  1

  0
SOLID
  5
157
330
154
100
AcDbEntity
  8
VERMASSUNG
100
AcDbTrace
 10
46.290962398
 20
152.5304246838
 30
0.0
 11
45.840962398
 21
149.5304246838
 31
0.0
 12
46.740962398
 22
149.5304246838
 32
0.0
 13
46.740962398
 23
149.5304246838
 33
0.0
  0
SOLID
  5
158
330
154
100
AcDbEntity
  8
VERMASSUNG
100
AcDbTrace
 10
46.290962398
 20
89.5304246838
 30
0.0
 11
46.740962398
 21
92.5304246838
 31
0.0
 12
45.840962398
 22
92.5304246838
 32
0.0
 13
45.840962398
 23
92.5304246838
 33
0.0
  0
LINE
  5
159
330
154
100
AcDbEntity
  8
VERMASSUNG
100
AcDbLine
 10
96.790962398
 20
152.5304246838
 30
0.0
 11
45.290962398
 21
152.5304246838
 31
0.0
  0
LINE
  5
15A
330
154
100
AcDbEntity
  8
VERMASSUNG
100
AcDbLine
 10
96.790962398
 20
89.5304246838
 30
0.0
 11
45.290962398
 21
89.5304246838
 31
0.0
  0
LINE
  5
15B
330
154
100
AcDbEntity
  8
VERMASSUNG
100
AcDbLine
 10
46.290962398
 20
152.5304246838
 30
0.0
 11
46.290962398
 21
89.5304246838
 31
0.0
  0
MTEXT
  5
15C
330
154
100
AcDbEntity
  8
VERMASSUNG
100
AcDbMText
 10
43.5128271418
 20
115.9254246945
 30
0.0
 40
2.0
 41
0.0
 71
     1
 72
     1
  1
WH
  7
SLDTEXTSTYLE0
 11
-7.044195017643634E-15
 21
1.0
 31
0.0
 73
     1
 44
1.0
  0
MTEXT
  5
15D
330
154
100
AcDbEntity
  8
VERMASSUNG
100
AcDbMText
 10
43.7128270931
 20
119.7254247586
 30
0.0
 40
2.0
 41
0.0
 71
     1
 72
     1
  1
%%c
  7
SLDTEXTSTYLE0
 11
-7.044195017643634E-15
 21
1.0
 31
0.0
 73
     1
 44
1.0
  0
MTEXT
  5
15E
330
154
100
AcDbEntity
  8
VERMASSUNG
100
AcDbMText
 10
43.5128271418
 20
123.3354247729
 30
0.0
 40
2.0
 41
0.0
 71
     1
 72
     1
  1
63
  7
SLDTEXTSTYLE0
 11
-7.044195017643634E-15
 21
1.0
 31
0.0
 73
     1
 44
1.0
  0
ENDBLK
  5
156
330
154
100
AcDbEntity
  8
0
100
AcDbBlockEnd
  0
BLOCK
  5
161
330
160
100
AcDbEntity
  8
0
100
AcDbBlockBegin
  2
_D_5
 70
     0
 10
0.0
 20
0.0
 30
0.0
  3
_D_5
  1

  0
SOLID
  5
163
330
160
100
AcDbEntity
  8
VERMASSUNG
100
AcDbTrace
 10
236.190962398
 20
165.5629375468
 30
0.0
 11
233.190962398
 21
166.0129375468
 31
0.0
 12
233.190962398
 22
165.1129375468
 32
0.0
 13
233.190962398
 23
165.1129375468
 33
0.0
  0
SOLID
  5
164
330
160
100
AcDbEntity
  8
VERMASSUNG
100
AcDbTrace
 10
96.190962398
 20
165.5629375468
 30
0.0
 11
99.190962398
 21
165.1129375468
 31
0.0
 12
99.190962398
 22
166.0129375468
 32
0.0
 13
99.190962398
 23
166.0129375468
 33
0.0
  0
LINE
  5
165
330
160
100
AcDbEntity
  8
VERMASSUNG
100
AcDbLine
 10
236.190962398
 20
140.6435394379
 30
0.0
 11
236.190962398
 21
166.5629375468
 31
0.0
  0
LINE
  5
166
330
160
100
AcDbEntity
  8
VERMASSUNG
100
AcDbLine
 10
96.190962398
 20
151.9304246838
 30
0.0
 11
96.190962398
 21
166.5629375468
 31
0.0
  0
LINE
  5
167
330
160
100
AcDbEntity
  8
VERMASSUNG
100
AcDbLine
 10
236.190962398
 20
165.5629375468
 30
0.0
 11
96.190962398
 21
165.5629375468
 31
0.0
  0
MTEXT
  5
168
330
160
100
AcDbEntity
  8
VERMASSUNG
100
AcDbMText
 10
164.1909625359
 20
168.1410731427
 30
0.0
 40
2.0
 41
0.0
 71
     1
 72
     1
  1
140
  7
SLDTEXTSTYLE0
 73
     1
 44
1.0
  0
ENDBLK
  5
162
330
160
100
AcDbEntity
  8
0
100
AcDbBlockEnd
  0
ENDSEC
  0
SECTION
  2
ENTITIES
  0
MTEXT
  5
78
330
1F
100
AcDbEntity
  8
KOPF_DÜNN
100
AcDbMText
 10
13.8892156294
 20
23.8442973028
 30
0.0
 40
3.0
 41
0.0
 71
     1
 72
     1
  1
A84.063.040.140
  7
SLDTEXTSTYLE0
 73
     1
 44
1.0
  0
MTEXT
  5
79
330
1F
100
AcDbEntity
  8
VERMASSUNG
100
AcDbMText
 10
13.9329988022
 20
28.8834360957
 30
0.0
 40
3.0
 41
0.0
 71
     1
 72
     1
  1
Reduktion_Reduction
  7
SLDTEXTSTYLE0
 73
     1
 44
1.0
  0
MTEXT
  5
7A
330
1F
100
AcDbEntity
  8
VERMASSUNG
100
AcDbMText
 10
98.8601118557
 20
13.8365368761
 30
0.0
 40
2.0
 41
0.0
 71
     1
 72
     1
  1
Datum: 02.02.2012
  7
SLDTEXTSTYLE0
 73
     1
 44
1.0
  0
MTEXT
  5
7B
330
1F
100
AcDbEntity
  8
VERMASSUNG
100
AcDbMText
 10
13.933048693
 20
18.0482802738
 30
0.0
 40
2.0
 41
0.0
 71
     1
 72
     1
  1
WH5 / WH4 140 lang
  7
SLDTEXTSTYLE0
 73
     1
 44
1.0
  0
MTEXT
  5
7C
330
1F
100
AcDbEntity
  8
VERMASSUNG
100
AcDbMText
 10
13.9808475933
 20
13.9090974274
 30
0.0
 40
2.0
 41
0.0
 71
     1
 72
     1
  1
Gewicht: 2031g
  7
SLDTEXTSTYLE0
 73
     1
 44
1.0
  0
LINE
  5
7D
330
1F
100
AcDbEntity
  8
0
  6
Continuous
 62
     7
370
    15
100
AcDbLine
 10
96.790962398
 20
89.5304246838
 30
0.0
 11
111.4140164668
 21
89.5304246838
 31
0.0
  0
LINE
  5
7E
330
1F
100
AcDbEntity
  8
0
  6
Continuous
 62
     7
370
    15
100
AcDbLine
 10
111.4140164668
 20
152.5304246838
 30
0.0
 11
96.790962398
 21
152.5304246838
 31
0.0
  0
LINE
  5
7F
330
1F
100
AcDbEntity
  8
0
  6
Continuous
 62
     7
370
    15
100
AcDbLine
 10
96.790962398
 20
152.5304246838
 30
0.0
 11
96.190962398
 21
151.9304246838
 31
0.0
  0
LINE
  5
80
330
1F
100
AcDbEntity
  8
0
  6
Continuous
 62
     7
370
    15
100
AcDbLine
 10
96.190962398
 20
90.1304246838
 30
0.0
 11
96.790962398
 21
89.5304246838
 31
0.0
  0
ARC
  5
81
330
1F
100
AcDbEntity
  8
0
  6
Continuous
 62
     7
370
    15
100
AcDbCircle
 10
111.4140164668
 20
151.5304246838
 30
0.0
 40
1.000000000000009
100
AcDbArc
 50
15.0
 51
90.0
  0
ARC
  5
82
330
1F
100
AcDbEntity
  8
0
  6
Continuous
 62
     7
370
    15
100
AcDbCircle
 10
111.4140164668
 20
90.5304246838
 30
0.0
 40
1.000000000000006
100
AcDbArc
 50
270.0
 51
345.0
  0
LINE
  5
83
330
1F
100
AcDbEntity
  8
0
  6
Continuous
 62
     7
370
    15
100
AcDbLine
 10
112.3799422931
 20
90.2716056387
 30
0.0
 11
113.4231895479
 21
94.1650573986
 31
0.0
  0
LINE
  5
84
330
1F
100
AcDbEntity
  8
0
  6
Continuous
 62
     7
370
    15
100
AcDbLine
 10
113.4231895479
 20
147.8957919691
 30
0.0
 11
112.3799422931
 21
151.7892437289
 31
0.0
  0
ARC
  5
85
330
1F
100
AcDbEntity
  8
0
  6
Continuous
 62
     7
370
    15
100
AcDbCircle
 10
117.2868928531
 20
148.9310681495
 30
0.0
 40
4.000000000000004
100
AcDbArc
 50
195.0
 51
268.1221225527
  0
ARC
  5
86
330
1F
100
AcDbEntity
  8
0
  6
Continuous
 62
     7
370
    15
100
AcDbCircle
 10
117.2868928531
 20
93.1297812182
 30
0.0
 40
4.000000000000004
100
AcDbArc
 50
91.8778774473
 51
165.0
  0
LINE
  5
87
330
1F
100
AcDbEntity
  8
0
  6
Continuous
 62
     7
370
    15
100
AcDbLine
 10
117.1558157458
 20
97.1276329903
 30
0.0
 11
235.790962398
 21
101.0173099297
 31
0.0
  0
LINE
  5
88
330
1F
100
AcDbEntity
  8
0
  6
Continuous
 62
     7
370
    15
100
AcDbLine
 10
217.8074031326
 20
141.6331643319
 30
0.0
 11
117.1558157458
 21
144.9332163773
 31
0.0
  0
LINE
  5
89
330
1F
100
AcDbEntity
  8
0
  6
Continuous
 62
     7
370
    15
100
AcDbLine
 10
235.790962398
 20
141.0435394379
 30
0.0
 11
230.0300470746
 21
141.2324219075
 31
0.0
  0
LINE
  5
8A
330
1F
100
AcDbEntity
  8
0
  6
Continuous
 62
     7
370
    15
100
AcDbLine
 10
235.790962398
 20
101.0173099297
 30
0.0
 11
236.190962398
 21
101.4173099297
 31
0.0
  0
LINE
  5
8B
330
1F
100
AcDbEntity
  8
0
  6
Continuous
 62
     7
370
    15
100
AcDbLine
 10
236.190962398
 20
140.6435394379
 30
0.0
 11
235.790962398
 21
141.0435394379
 31
0.0
  0
ARC
  5
8C
330
1F
100
AcDbEntity
  8
0
  6
Continuous
 62
     7
370
    15
100
AcDbCircle
 10
95.790962398
 20
102.7804246838
 30
0.0
 40
0.6000000000000085
100
AcDbArc
 50
48.1896851042
 51
90.0
  0
ARC
  5
8D
330
1F
100
AcDbEntity
  8
0
  6
Continuous
 62
     7
370
    15
100
AcDbCircle
 10
95.790962398
 20
139.2804246838
 30
0.0
 40
0.5999999999999959
100
AcDbArc
 50
270.0
 51
311.8103148958
  0
LINE
  5
8E
330
1F
100
AcDbEntity
  8
0
  6
Continuous
 62
     7
370
    15
100
AcDbLine
 10
93.690962398
 20
103.0304246838
 30
0.0
 11
94.9208802522
 21
103.3599801796
 31
0.0
  0
LINE
  5
8F
330
1F
100
AcDbEntity
  8
0
  6
Continuous
 62
     7
370
    15
100
AcDbLine
 10
94.9208802522
 20
138.700869188
 30
0.0
 11
93.690962398
 21
139.0304246838
 31
0.0
  0
LINE
  5
90
330
1F
100
AcDbEntity
  8
0
  6
Continuous
 62
     7
370
    15
100
AcDbLine
 10
64.190962398
 20
139.0304246838
 30
0.0
 11
58.7879023698
 21
138.632584595
 31
0.0
  0
LINE
  5
91
330
1F
100
AcDbEntity
  8
0
  6
Continuous
 62
     7
370
    15
100
AcDbLine
 10
58.7879023698
 20
103.4282647726
 30
0.0
 11
64.190962398
 21
103.0304246838
 31
0.0
  0
LINE
  5
92
330
1F
100
AcDbEntity
  8
0
  6
Continuous
 62
     7
370
    15
100
AcDbLine
 10
64.190962398
 20
103.0304246838
 30
0.0
 11
93.690962398
 21
103.0304246838
 31
0.0
  0
LINE
  5
93
330
1F
100
AcDbEntity
  8
0
  6
Continuous
 62
     7
370
    15
100
AcDbLine
 10
69.209827146
 20
139.0304246838
 30
0.0
 11
64.190962398
 21
139.0304246838
 31
0.0
  0
LINE
  5
94
330
1F
100
AcDbEntity
  8
0
  6
Continuous
 62
     7
370
    15
100
AcDbLine
 10
93.690962398
 20
139.0304246838
 30
0.0
 11
87.6656504708
 21
139.0304246838
 31
0.0
  0
ARC
  5
95
330
1F
100
AcDbEntity
  8
0
  6
Continuous
 62
     7
370
    15
100
AcDbCircle
 10
57.490962398
 20
104.3404246838
 30
0.0
 40
1.299999999999997
100
AcDbArc
 50
180.0
 51
300.0
  0
ARC
  5
96
330
1F
100
AcDbEntity
  8
0
  6
Continuous
 62
     7
370
    15
100
AcDbCircle
 10
57.490962398
 20
137.7204246838
 30
0.0
 40
1.299999999999997
100
AcDbArc
 50
60.0
 51
180.0
  0
LINE
  5
97
330
1F
100
AcDbEntity
  8
0
  6
Continuous
 62
     7
370
    15
100
AcDbLine
 10
58.140962398
 20
103.2145916589
 30
0.0
 11
58.3291555171
 21
103.3232450068
 31
0.0
  0
LINE
  5
98
330
1F
100
AcDbEntity
  8
0
  6
Continuous
 62
     7
370
    15
100
AcDbLine
 10
58.3291555171
 20
138.7376043608
 30
0.0
 11
58.140962398
 21
138.8462577087
 31
0.0
  0
ARC
  5
99
330
1F
100
AcDbEntity
  8
0
  6
Continuous
 62
     7
370
    15
100
AcDbCircle
 10
58.7291555171
 20
102.6304246838
 30
0.0
 40
0.8000000000000046
100
AcDbArc
 50
85.7887759701
 51
120.0
  0
ARC
  5
9A
330
1F
100
AcDbEntity
  8
0
  6
Continuous
 62
     7
370
    15
100
AcDbCircle
 10
58.7291555171
 20
139.4304246838
 30
0.0
 40
0.7999999999999904
100
AcDbArc
 50
240.0
 51
274.2112240299
  0
ARC
  5
9B
330
1F
100
AcDbEntity
  8
0
  6
Continuous
 62
     7
370
    15
100
AcDbCircle
 10
95.0761716792
 20
102.7804246838
 30
0.0
 40
0.6000000000000085
100
AcDbArc
 50
90.0
 51
105.0
  0
ARC
  5
9C
330
1F
100
AcDbEntity
  8
0
  6
Continuous
 62
     7
370
    15
100
AcDbCircle
 10
95.0761716792
 20
139.2804246838
 30
0.0
 40
0.5999999999999943
100
AcDbArc
 50
255.0
 51
270.0
  0
LINE
  5
9D
330
1F
100
AcDbEntity
  8
0
  6
Continuous
 62
     7
370
    15
100
AcDbLine
 10
95.0761716792
 20
103.3804246838
 30
0.0
 11
95.790962398
 21
103.3804246838
 31
0.0
  0
LINE
  5
9E
330
1F
100
AcDbEntity
  8
0
  6
Continuous
 62
     7
370
    15
100
AcDbLine
 10
95.790962398
 20
138.6804246838
 30
0.0
 11
95.0761716792
 21
138.6804246838
 31
0.0
  0
LINE
  5
9F
330
1F
100
AcDbEntity
  8
0
  6
Continuous
 62
     7
370
    15
100
AcDbLine
 10
228.6475921
 20
140.9792905726
 30
0.0
 11
228.440962398
 21
141.1859202745
 31
0.0
  0
LINE
  5
A0
330
1F
100
AcDbEntity
  8
0
  6
Continuous
 62
     7
370
    15
100
AcDbLine
 10
96.790962398
 20
121.0304246838
 30
0.0
 11
96.790962398
 21
152.5304246838
 31
0.0
  0
LINE
  5
A1
330
1F
100
AcDbEntity
  8
0
  6
Continuous
 62
     7
370
    15
100
AcDbLine
 10
96.790962398
 20
89.5304246838
 30
0.0
 11
96.790962398
 21
121.0304246838
 31
0.0
  0
LINE
  5
A2
330
1F
100
AcDbEntity
  8
0
  6
Continuous
 62
     7
370
    15
100
AcDbLine
 10
96.190962398
 20
121.0304246838
 30
0.0
 11
96.190962398
 21
151.9304246838
 31
0.0
  0
LINE
  5
A3
330
1F
100
AcDbEntity
  8
0
  6
Continuous
 62
     7
370
    15
100
AcDbLine
 10
96.190962398
 20
90.1304246838
 30
0.0
 11
96.190962398
 21
121.0304246838
 31
0.0
  0
SPLINE
  5
A4
330
1F
100
AcDbEntity
  8
0
  6
Continuous
 62
     7
370
    15
100
AcDbSpline
210
0.0
220
0.0
230
1.0
 70
    11
 71
     3
 72
    81
 73
    77
 74
     0
 42
0.000000001
 43
0.00000001
 40
0.0
 40
0.0
 40
0.0
 40
0.0
 40
0.0312499999999985
 40
0.0312499999999985
 40
0.0624999999999971
 40
0.0624999999999971
 40
0.0937499999999956
 40
0.0937499999999956
 40
0.109374999999995
 40
0.109374999999995
 40
0.1249999999999944
 40
0.1406249999999938
 40
0.1406249999999938
 40
0.1562499999999932
 40
0.1562499999999932
 40
0.187499999999992
 40
0.187499999999992
 40
0.2187499999999908
 40
0.2187499999999908
 40
0.2499999999999896
 40
0.2499999999999896
 40
0.2812499999999885
 40
0.2812499999999885
 40
0.3124999999999872
 40
0.3124999999999872
 40
0.3437499999999861
 40
0.3437499999999861
 40
0.3749999999999848
 40
0.3749999999999848
 40
0.4062499999999837
 40
0.4062499999999837
 40
0.4374999999999825
 40
0.4374999999999825
 40
0.4687499999999813
 40
0.4687499999999813
 40
0.4999999999999801
 40
0.4999999999999801
 40
0.5156249999999803
 40
0.5156249999999803
 40
0.5312499999999807
 40
0.5312499999999807
 40
0.5624999999999812
 40
0.5624999999999812
 40
0.5781249999999815
 40
0.5781249999999815
 40
0.5937499999999817
 40
0.5937499999999817
 40
0.6249999999999827
 40
0.6249999999999827
 40
0.6406249999999833
 40
0.6406249999999833
 40
0.6562499999999839
 40
0.6562499999999839
 40
0.687499999999985
 40
0.687499999999985
 40
0.7187499999999861
 40
0.7187499999999861
 40
0.7499999999999871
 40
0.7499999999999871
 40
0.7812499999999882
 40
0.7812499999999882
 40
0.8124999999999893
 40
0.8124999999999893
 40
0.8281249999999899
 40
0.8281249999999899
 40
0.8437499999999903
 40
0.8437499999999903
 40
0.8749999999999915
 40
0.8749999999999915
 40
0.9062499999999926
 40
0.9062499999999926
 40
0.9374999999999936
 40
0.9374999999999936
 40
0.9687499999999968
 40
0.9687499999999968
 40
1.0
 40
1.0
 40
1.0
 40
1.0
 10
219.6003219266216
 20
117.2081506213985
 30
0.0
 10
219.3154725727904
 20
117.458239445071
 30
0.0
 10
219.0584408044451
 20
117.7318233511331
 30
0.0
 10
218.6025548092958
 20
118.3290861406449
 30
0.0
 10
218.4022284902415
 20
118.6571279339247
 30
0.0
 10
218.0845440497386
 20
119.3392410935795
 30
0.0
 10
217.9646311422985
 20
119.6950716770964
 30
0.0
 10
217.8483718021499
 20
120.2531671101314
 30
0.0
 10
217.8203785542104
 20
120.4443245626031
 30
0.0
 10
217.7882836176894
 20
120.823512495569
 30
0.0
 10
217.7793196305584
 20
121.2020699611847
 30
0.0
 10
217.8158708229476
 20
121.5793864438553
 30
0.0
 10
217.875541819579
 20
121.9560733660418
 30
0.0
 10
217.9171774545084
 20
122.144219514987
 30
0.0
 10
218.072830140996
 20
122.6922192863556
 30
0.0
 10
218.2178879556324
 20
123.0412176551508
 30
0.0
 10
218.5862969473328
 20
123.7085647433774
 30
0.0
 10
218.8040536644036
 20
124.0166357401882
 30
0.0
 10
219.2975628487833
 20
124.5850260636445
 30
0.0
 10
219.5757818934588
 20
124.8466982077054
 30
0.0
 10
220.1683782248418
 20
125.308150619773
 30
0.0
 10
220.484674276473
 20
125.5106385445223
 30
0.0
 10
221.1564443967358
 20
125.861491784825
 30
0.0
 10
221.5060976784254
 20
126.0064835647078
 30
0.0
 10
222.2227505484982
 20
126.2358707057088
 30
0.0
 10
222.5922744320034
 20
126.3211367547773
 30
0.0
 10
223.3478190986323
 20
126.4301304428448
 30
0.0
 10
223.7255304070195
 20
126.4528366051135
 30
0.0
 10
224.4808597352243
 20
126.4368264903403
 30
0.0
 10
224.860084628798
 20
126.3978069816188
 30
0.0
 10
225.6115282368339
 20
126.2555495699614
 30
0.0
 10
225.9760012238027
 20
126.1540629031606
 30
0.0
 10
226.6828101956162
 20
125.8909129872604
 30
0.0
 10
227.0270428399666
 20
125.7281734759298
 30
0.0
 10
227.6831084974276
 20
125.3411663007249
 30
0.0
 10
227.9885490925429
 20
125.1211344740986
 30
0.0
 10
228.4123620573092
 20
124.7501478748022
 30
0.0
 10
228.5478680190515
 20
124.619614358118
 30
0.0
 10
228.8067134122465
 20
124.3439380420551
 30
0.0
 10
228.9307873606379
 20
124.1977623418263
 30
0.0
 10
229.2760871655252
 20
123.7447739404146
 30
0.0
 10
229.47155549993
 20
123.4236501786578
 30
0.0
 10
229.7103069706916
 20
122.9116155555514
 30
0.0
 10
229.7807470112929
 20
122.7358419924598
 30
0.0
 10
229.9019476892614
 20
122.373281357654
 30
0.0
 10
229.9521186265019
 20
122.187704814706
 30
0.0
 10
230.0679977664439
 20
121.6305029309157
 30
0.0
 10
230.1011192763773
 20
121.2536865195861
 30
0.0
 10
230.0818820075739
 20
120.6800926578068
 30
0.0
 10
230.0636962101121
 20
120.4879290392262
 30
0.0
 10
230.005294751346
 20
120.11183804264
 30
0.0
 10
229.9650693960826
 20
119.9265086970955
 30
0.0
 10
229.8122385109388
 20
119.3784232688429
 30
0.0
 10
229.6653114508919
 20
119.0203178101871
 30
0.0
 10
229.3018374119953
 20
118.3548671765469
 30
0.0
 10
229.0842556636828
 20
118.0430457363551
 30
0.0
 10
228.5855526504589
 20
117.4652049480326
 30
0.0
 10
228.3105110955549
 20
117.2057650731527
 30
0.0
 10
227.7134129908269
 20
116.7400252287005
 30
0.0
 10
227.3887444263592
 20
116.5330086799967
 30
0.0
 10
226.7159076194826
 20
116.184199927336
 30
0.0
 10
226.3656523778433
 20
116.0402855080247
 30
0.0
 10
225.8198492280194
 20
115.8689313358146
 30
0.0
 10
225.6339015583347
 20
115.8192200138495
 30
0.0
 10
225.2617351441455
 20
115.7364063479521
 30
0.0
 10
225.0748090907414
 20
115.7030312949581
 30
0.0
 10
224.511577675564
 20
115.6263023833862
 30
0.0
 10
224.1328393299254
 20
115.6061543399209
 30
0.0
 10
223.3687551221411
 20
115.6289053329939
 30
0.0
 10
222.9893063393393
 20
115.6720108860999
 30
0.0
 10
222.249224793734
 20
115.8182300190174
 30
0.0
 10
221.886345142874
 20
115.9213710303069
 30
0.0
 10
221.1754155241844
 20
116.1910304163403
 30
0.0
 10
220.8344409170836
 20
116.355171208317
 30
0.0
 10
220.190452867395
 20
116.7381380531745
 30
0.0
 10
219.8851712804528
 20
116.9580617977259
 30
0.0
 10
219.6003219266215
 20
117.2081506213985
 30
0.0
  0
LINE
  5
A5
330
1F
100
AcDbEntity
  8
0
  6
Continuous
 62
     7
370
    15
100
AcDbLine
 10
235.790962398
 20
141.0435394379
 30
0.0
 11
235.790962398
 21
101.0173099297
 31
0.0
  0
SPLINE
  5
A6
330
1F
100
AcDbEntity
  8
0
  6
Continuous
 62
     7
370
    15
100
AcDbSpline
210
0.0
220
0.0
230
1.0
 70
     8
 71
     3
 72
    20
 73
    16
 74
     0
 42
0.000000001
 43
0.00000001
 40
0.0
 40
0.0
 40
0.0
 40
0.0
 40
0.0251509931453111
 40
0.1117669094894726
 40
0.2004735396068045
 40
0.2986410909439784
 40
0.4086876716117814
 40
0.5273468247872273
 40
0.6498906910440271
 40
0.7110116811283563
 40
0.774079820714388
 40
0.8319837141821004
 40
0.8921411928255186
 40
0.9929564518926798
 40
1.0
 40
1.0
 40
1.0
 40
1.0
 10
230.0295793110213
 20
141.2181551170339
 30
0.0
 10
230.0480817847256
 20
141.2218481286478
 30
0.0
 10
230.1303037587008
 20
141.2382592696476
 30
0.0
 10
229.7086554295401
 20
141.1530001390341
 30
0.0
 10
228.8259171691069
 20
140.9957921854674
 30
0.0
 10
227.4117020167742
 20
140.8021013957874
 30
0.0
 10
225.5539405584485
 20
140.6679703993545
 30
0.0
 10
223.3927764804248
 20
140.69181990946
 30
0.0
 10
221.5844407731643
 20
140.8758402749304
 30
0.0
 10
220.2706301875001
 20
141.0845645613738
 30
0.0
 10
219.40954258539
 20
141.2507054734671
 30
0.0
 10
218.6855307402787
 20
141.4107699284737
 30
0.0
 10
218.0555729799183
 20
141.5629927362965
 30
0.0
 10
217.7019834084473
 20
141.6558448060501
 30
0.0
 10
217.8008049103378
 20
141.6304078037863
 30
0.0
 10
217.807258291576
 20
141.628746680751
 30
0.0
  0
LINE
  5
A7
330
1F
100
AcDbEntity
  8
0
  6
Continuous
 62
     7
370
    15
100
AcDbLine
 10
236.190962398
 20
140.6435394379
 30
0.0
 11
236.190962398
 21
101.4173099297
 31
0.0
  0
SPLINE
  5
A8
330
1F
100
AcDbEntity
  8
0
  6
Continuous
 62
     7
370
    15
100
AcDbSpline
210
0.0
220
0.0
230
1.0
 70
    11
 71
     3
 72
    88
 73
    84
 74
     0
 42
0.000000001
 43
0.00000001
 40
0.0
 40
0.0
 40
0.0
 40
0.0
 40
0.0312500000000002
 40
0.0312500000000002
 40
0.0625000000000003
 40
0.0625000000000003
 40
0.0937500000000005
 40
0.0937500000000005
 40
0.1250000000000007
 40
0.1250000000000007
 40
0.1562500000000008
 40
0.1562500000000008
 40
0.187500000000001
 40
0.187500000000001
 40
0.2187500000000012
 40
0.2187500000000012
 40
0.2500000000000013
 40
0.2500000000000013
 40
0.2656250000000013
 40
0.2656250000000013
 40
0.2812500000000014
 40
0.2812500000000014
 40
0.2968750000000014
 40
0.2968750000000014
 40
0.3125000000000015
 40
0.3125000000000015
 40
0.3437500000000016
 40
0.3437500000000016
 40
0.3750000000000017
 40
0.3750000000000017
 40
0.3906250000000017
 40
0.3906250000000017
 40
0.4062500000000018
 40
0.4062500000000018
 40
0.4375000000000018
 40
0.4375000000000018
 40
0.4531250000000018
 40
0.4531250000000018
 40
0.4687500000000018
 40
0.4687500000000018
 40
0.5000000000000018
 40
0.5000000000000018
 40
0.5312500000000018
 40
0.5312500000000018
 40
0.5625000000000018
 40
0.5625000000000018
 40
0.5781250000000018
 40
0.5781250000000018
 40
0.5937500000000018
 40
0.5937500000000018
 40
0.625000000000002
 40
0.625000000000002
 40
0.640625000000002
 40
0.640625000000002
 40
0.6562500000000019
 40
0.6562500000000019
 40
0.6875000000000018
 40
0.6875000000000018
 40
0.7187500000000016
 40
0.7187500000000016
 40
0.7500000000000014
 40
0.7500000000000014
 40
0.7812500000000012
 40
0.7812500000000012
 40
0.8125000000000011
 40
0.8125000000000011
 40
0.8437500000000009
 40
0.8437500000000009
 40
0.8593750000000008
 40
0.8593750000000008
 40
0.8750000000000007
 40
0.8750000000000007
 40
0.8906250000000007
 40
0.8906250000000007
 40
0.9062500000000006
 40
0.9062500000000006
 40
0.9218750000000006
 40
0.9218750000000006
 40
0.9375000000000006
 40
0.9375000000000006
 40
0.9687500000000002
 40
0.9687500000000002
 40
1.0
 40
1.0
 40
1.0
 40
1.0
 10
72.32431591408303
 20
115.3670987934277
 30
0.0
 10
72.769985538821
 20
115.0435895140194
 30
0.0
 10
73.2385511179733
 20
114.7647193064035
 30
0.0
 10
74.21766205920186
 20
114.2850220601141
 30
0.0
 10
74.72844573534213
 20
114.0842615165266
 30
0.0
 10
75.7927050686589
 20
113.7605197925963
 30
0.0
 10
76.3320475576639
 20
113.6418409746531
 30
0.0
 10
77.4247079533403
 20
113.4858338718008
 30
0.0
 10
77.97803038978776
 20
113.4485373212104
 30
0.0
 10
79.09931785036399
 20
113.4584137385531
 30
0.0
 10
79.65170801261338
 20
113.505459199002
 30
0.0
 10
80.74030020818894
 20
113.680662818038
 30
0.0
 10
81.2765884572276
 20
113.8087885774954
 30
0.0
 10
82.33265734562235
 20
114.15114264147
 30
0.0
 10
82.84051445915073
 20
114.3617202210728
 30
0.0
 10
83.80869967774102
 20
114.8594738094779
 30
0.0
 10
84.2704977136585
 20
115.1469842237687
 30
0.0
 10
84.92673328975013
 20
115.6444953050858
 30
0.0
 10
85.13827378973254
 20
115.8208279605836
 30
0.0
 10
85.54010307913481
 20
116.190116177178
 30
0.0
 10
85.73136113916269
 20
116.3837791254824
 30
0.0
 10
86.09365735576768
 20
116.7903588311446
 30
0.0
 10
86.26470413228482
 20
117.0032665069899
 30
0.0
 10
86.58479650848066
 20
117.4503923477314
 30
0.0
 10
86.73418526950466
 20
117.6856000270095
 30
0.0
 10
87.13536378098013
 20
118.408607918366
 30
0.0
 10
87.34486620266588
 20
118.9182518814051
 30
0.0
 10
87.62945287314707
 20
120.0027996023184
 30
0.0
 10
87.69765651238576
 20
120.5539169217913
 30
0.0
 10
87.68684453912422
 20
121.3875425099879
 30
0.0
 10
87.66386987617572
 20
121.6693101513176
 30
0.0
 10
87.58042284672187
 20
122.2223758248023
 30
0.0
 10
87.52041817874188
 20
122.4934250132941
 30
0.0
 10
87.28882050146878
 20
123.2911732214429
 30
0.0
 10
87.06229457504021
 20
123.807023376656
 30
0.0
 10
86.64448621146431
 20
124.5190241943749
 30
0.0
 10
86.49196437168308
 20
124.7474097255377
 30
0.0
 10
86.1619486120248
 20
125.1875584499536
 30
0.0
 10
85.9836051460928
 20
125.4000594217356
 30
0.0
 10
85.42364811807194
 20
126.0019414574909
 30
0.0
 10
85.0150078991888
 20
126.3601253680663
 30
0.0
 10
84.1343771232481
 20
127.0025130500005
 30
0.0
 10
83.65828776557548
 20
127.2879670561172
 30
0.0
 10
82.67405466596352
 20
127.771864843544
 30
0.0
 10
82.16356550410889
 20
127.9727447273921
 30
0.0
 10
81.37035956014505
 20
128.2151813041551
 30
0.0
 10
81.10014086834191
 20
128.2863433059881
 30
0.0
 10
80.55726018347032
 20
128.4070380201273
 30
0.0
 10
80.2846888260975
 20
128.4566768784838
 30
0.0
 10
79.46364873529338
 20
128.574478125473
 30
0.0
 10
78.91187329203447
 20
128.6117557037834
 30
0.0
 10
78.07747658775092
 20
128.6053358562254
 30
0.0
 10
77.79698415368901
 20
128.5926272419907
 30
0.0
 10
77.24005122164304
 20
128.54610162329
 30
0.0
 10
76.96436791994341
 20
128.5124601003695
 30
0.0
 10
76.14541856500021
 20
128.3810788944512
 30
0.0
 10
75.6101958369492
 20
128.2531452954293
 30
0.0
 10
74.56124958275218
 20
127.9140740837577
 30
0.0
 10
74.04564756645067
 20
127.7011224341369
 30
0.0
 10
73.07425651671645
 20
127.2020899228385
 30
0.0
 10
72.61352991027289
 20
126.9149533521704
 30
0.0
 10
71.74484538566428
 20
126.2573845365607
 30
0.0
 10
71.33442354464815
 20
125.8831517133216
 30
0.0
 10
70.60764192704693
 20
125.0680376600627
 30
0.0
 10
70.28681881736414
 20
124.6250581091116
 30
0.0
 10
69.74617622251927
 20
123.6523815792412
 30
0.0
 10
69.53698412405464
 20
123.1412428617141
 30
0.0
 10
69.32483284082332
 20
122.3343451167202
 30
0.0
 10
69.27109468960076
 20
122.0564017151608
 30
0.0
 10
69.20287916489123
 20
121.5025892340652
 30
0.0
 10
69.18778031131207
 20
121.2254608065951
 30
0.0
 10
69.19525340028709
 20
120.6707631203022
 30
0.0
 10
69.21782350207684
 20
120.393193881382
 30
0.0
 10
69.30161495047466
 20
119.8376038841034
 30
0.0
 10
69.36232046869681
 20
119.5640060331948
 30
0.0
 10
69.51731125596979
 20
119.0313724002597
 30
0.0
 10
69.61177446747413
 20
118.7711882697288
 30
0.0
 10
69.83311733456901
 20
118.2624449902399
 30
0.0
 10
69.9606145841882
 20
118.0132188429791
 30
0.0
 10
70.38027272538845
 20
117.2991279478425
 30
0.0
 10
70.7116782931964
 20
116.8609539927182
 30
0.0
 10
71.4644010641573
 20
116.0527801664076
 30
0.0
 10
71.87864628934508
 20
115.6906080728359
 30
0.0
 10
72.32431591408304
 20
115.3670987934277
 30
0.0
  0
CIRCLE
  5
A9
330
1F
100
AcDbEntity
  8
0
  6
Continuous
 62
     7
370
    15
100
AcDbCircle
 10
78.440962398
 20
121.0304246838
 30
0.0
 40
7.325658596124484
  0
LINE
  5
AA
330
1F
100
AcDbEntity
  8
0
  6
Continuous
 62
     7
370
    15
100
AcDbLine
 10
93.690962398
 20
121.0304246838
 30
0.0
 11
93.690962398
 21
139.0304246838
 31
0.0
  0
LINE
  5
AB
330
1F
100
AcDbEntity
  8
0
  6
Continuous
 62
     7
370
    15
100
AcDbLine
 10
93.690962398
 20
103.0304246838
 30
0.0
 11
93.690962398
 21
121.0304246838
 31
0.0
  0
LINE
  5
AC
330
1F
100
AcDbEntity
  8
0
  6
Continuous
 62
     7
370
    15
100
AcDbLine
 10
64.190962398
 20
121.0304246838
 30
0.0
 11
64.190962398
 21
139.0304246838
 31
0.0
  0
LINE
  5
AD
330
1F
100
AcDbEntity
  8
0
  6
Continuous
 62
     7
370
    15
100
AcDbLine
 10
64.190962398
 20
103.0304246838
 30
0.0
 11
64.190962398
 21
121.0304246838
 31
0.0
  0
SPLINE
  5
AE
330
1F
100
AcDbEntity
  8
0
  6
Continuous
 62
     7
370
    15
100
AcDbSpline
210
0.0
220
0.0
230
1.0
 70
     8
 71
     3
 72
    26
 73
    22
 74
     0
 42
0.000000001
 43
0.00000001
 40
0.0
 40
0.0
 40
0.0
 40
0.0
 40
0.0094445811160161
 40
0.0841666283351328
 40
0.1595657248440028
 40
0.2125646716592095
 40
0.2670935165829839
 40
0.3209898288227968
 40
0.376055588324514
 40
0.4381704255071665
 40
0.5020312564619723
 40
0.5650047523358588
 40
0.6298074638664961
 40
0.6928014993645271
 40
0.7576832271658367
 40
0.8077338457413017
 40
0.8590895537865791
 40
0.8995795881502336
 40
0.9411583113867157
 40
0.9816971405887968
 40
1.0
 40
1.0
 40
1.0
 40
1.0
 10
69.20982714603745
 20
139.0240356926753
 30
0.0
 10
69.2042371702941
 20
139.0259301566301
 30
0.0
 10
69.15442136533522
 20
139.0428129216375
 30
0.0
 10
69.52566049600382
 20
138.9159755675254
 30
0.0
 10
70.38943800148144
 20
138.6390300244173
 30
0.0
 10
71.47231581931298
 20
138.327779270693
 30
0.0
 10
72.58226279083847
 20
138.0471456809714
 30
0.0
 10
73.83242278797711
 20
137.7834949997109
 30
0.0
 10
75.23954728113598
 20
137.5556855510946
 30
0.0
 10
76.80883332753616
 20
137.394222807139
 30
0.0
 10
78.49249921830061
 20
137.3376054433696
 30
0.0
 10
80.19825326402524
 20
137.4025877801458
 30
0.0
 10
81.84706068497182
 20
137.580930807418
 30
0.0
 10
83.41518410079627
 20
137.8507573562924
 30
0.0
 10
84.7330740214922
 20
138.1509813204848
 30
0.0
 10
85.81181451156807
 20
138.4402919971977
 30
0.0
 10
86.5855644277608
 20
138.6707199878349
 30
0.0
 10
87.15614999447824
 20
138.8520304526437
 30
0.0
 10
87.51214087570241
 20
138.9698070024739
 30
0.0
 10
87.69054765976375
 20
139.0302790503581
 30
0.0
 10
87.67155743068031
 20
139.0238438954164
 30
0.0
 10
87.66565047081407
 20
139.0218422238301
 30
0.0
  0
LINE
  5
AF
330
1F
100
AcDbEntity
  8
0
  6
Continuous
 62
     7
370
    15
100
AcDbLine
 10
56.190962398
 20
121.0304246838
 30
0.0
 11
56.190962398
 21
137.7204246838
 31
0.0
  0
LINE
  5
B0
330
1F
100
AcDbEntity
  8
0
  6
Continuous
 62
     7
370
    15
100
AcDbLine
 10
56.190962398
 20
104.3404246838
 30
0.0
 11
56.190962398
 21
121.0304246838
 31
0.0
  0
SPLINE
  5
B1
330
1F
100
AcDbEntity
  8
0
  6
Continuous
 62
     7
370
    15
100
AcDbSpline
210
0.0
220
0.0
230
1.0
 70
    11
 71
     3
 72
    75
 73
    71
 74
     0
 42
0.000000001
 43
0.00000001
 40
0.0
 40
0.0
 40
0.0
 40
0.0
 40
0.0312500000000003
 40
0.0312500000000003
 40
0.0625000000000005
 40
0.0625000000000005
 40
0.0937500000000008
 40
0.0937500000000008
 40
0.1250000000000011
 40
0.1250000000000011
 40
0.1562500000000013
 40
0.1562500000000013
 40
0.1875000000000016
 40
0.1875000000000016
 40
0.2187500000000018
 40
0.2187500000000018
 40
0.2500000000000021
 40
0.2500000000000021
 40
0.2812500000000024
 40
0.2812500000000024
 40
0.3125000000000027
 40
0.3125000000000027
 40
0.3437500000000029
 40
0.3437500000000029
 40
0.3593750000000031
 40
0.3593750000000031
 40
0.3750000000000032
 40
0.3750000000000032
 40
0.4062500000000031
 40
0.4062500000000031
 40
0.437500000000003
 40
0.437500000000003
 40
0.4687500000000029
 40
0.4687500000000029
 40
0.5000000000000029
 40
0.5000000000000029
 40
0.5312500000000028
 40
0.5312500000000028
 40
0.5625000000000028
 40
0.5625000000000028
 40
0.5937500000000027
 40
0.5937500000000027
 40
0.6093750000000027
 40
0.6093750000000027
 40
0.6250000000000027
 40
0.6406250000000028
 40
0.6406250000000028
 40
0.6562500000000028
 40
0.6562500000000028
 40
0.6875000000000027
 40
0.6875000000000027
 40
0.7187500000000027
 40
0.7187500000000027
 40
0.7500000000000026
 40
0.7500000000000026
 40
0.7812500000000024
 40
0.7812500000000024
 40
0.8125000000000024
 40
0.8125000000000024
 40
0.843750000000002
 40
0.843750000000002
 40
0.8750000000000016
 40
0.8750000000000016
 40
0.9062500000000012
 40
0.9062500000000012
 40
0.9375000000000008
 40
0.9375000000000008
 40
0.9687500000000004
 40
0.9687500000000004
 40
1.0
 40
1.0
 40
1.0
 40
1.0
 10
75.22998492939173
 20
118.0111849959868
 30
0.0
 10
75.01779105555366
 20
118.1949891274042
 30
0.0
 10
74.825738958996
 20
118.3966194441534
 30
0.0
 10
74.481796243958
 20
118.8395765847715
 30
0.0
 10
74.32838128843481
 20
119.0842878278294
 30
0.0
 10
74.07773657084388
 20
119.6038957626
 30
0.0
 10
73.97989546149581
 20
119.877851835356
 30
0.0
 10
73.8462608875997
 20
120.4589086037026
 30
0.0
 10
73.81349709676434
 20
120.7541992786138
 30
0.0
 10
73.81675480683008
 20
121.3486690247474
 30
0.0
 10
73.8541456237026
 20
121.6504016158653
 30
0.0
 10
73.99282487309843
 20
122.2226761278943
 30
0.0
 10
74.09553588966672
 20
122.5010950502859
 30
0.0
 10
74.35225371979644
 20
123.017512427279
 30
0.0
 10
74.50650688248197
 20
123.2578898753575
 30
0.0
 10
74.85915751088275
 20
123.7016081325656
 30
0.0
 10
75.05405994669796
 20
123.9010020716674
 30
0.0
 10
75.4795838274239
 20
124.2614334192575
 30
0.0
 10
75.71154288310319
 20
124.4226877776843
 30
0.0
 10
76.19796875371938
 20
124.6992645369208
 30
0.0
 10
76.45403793773804
 20
124.8162393877654
 30
0.0
 10
76.9961730395972
 20
125.0081714054279
 30
0.0
 10
77.28131652284094
 20
125.0820757981307
 30
0.0
 10
77.71560596748364
 20
125.1554219598729
 30
0.0
 10
77.86217739019891
 20
125.173846367089
 30
0.0
 10
78.15918356353733
 20
125.1982791234276
 30
0.0
 10
78.31050237588418
 20
125.2042260766038
 30
0.0
 10
78.75907312678456
 20
125.2025990403446
 30
0.0
 10
79.05366278891945
 20
125.176279741188
 30
0.0
 10
79.63456078630554
 20
125.0742894178996
 30
0.0
 10
79.91925013924083
 20
124.9982733939643
 30
0.0
 10
80.45805295532519
 20
124.8033523752493
 30
0.0
 10
80.71747296920306
 20
124.6827135825924
 30
0.0
 10
81.20400556900219
 20
124.4006929046836
 30
0.0
 10
81.43062437480694
 20
124.2402050904588
 30
0.0
 10
81.85279840006413
 20
123.8767884648639
 30
0.0
 10
82.04930231457698
 20
123.6720211953854
 30
0.0
 10
82.39525861200067
 20
123.2285826371664
 30
0.0
 10
82.5466922892916
 20
122.9887924179318
 30
0.0
 10
82.80101681859335
 20
122.4654240332953
 30
0.0
 10
82.8997079348048
 20
122.1897269887074
 30
0.0
 10
83.00013042106647
 20
121.7580444487425
 30
0.0
 10
83.0258270235458
 20
121.6096518284484
 30
0.0
 10
83.05941639898515
 20
121.3121556032162
 30
0.0
 10
83.07543404868589
 20
121.0148488281141
 30
0.0
 10
83.05701633873629
 20
120.717914268094
 30
0.0
 10
83.02111597910033
 20
120.4211681258899
 30
0.0
 10
82.99424066287636
 20
120.272857237186
 30
0.0
 10
82.89030041748393
 20
119.84154755902
 30
0.0
 10
82.78897376649203
 20
119.5656901425767
 30
0.0
 10
82.53105827189728
 20
119.045402597578
 30
0.0
 10
82.37752736635483
 20
118.8060652054258
 30
0.0
 10
82.02576135211584
 20
118.3625634612949
 30
0.0
 10
81.82860017311832
 20
118.1605788344003
 30
0.0
 10
81.40359638830249
 20
117.8003711365217
 30
0.0
 10
81.17238707251408
 20
117.6393301464873
 30
0.0
 10
80.68266120938506
 20
117.3608201997949
 30
0.0
 10
80.42626430857554
 20
117.2440381016727
 30
0.0
 10
79.8874526438553
 20
117.05327757462
 30
0.0
 10
79.601159479302
 20
116.9787964328722
 30
0.0
 10
79.01861154722314
 20
116.8805519768373
 30
0.0
 10
78.7228754765168
 20
116.8560967522827
 30
0.0
 10
78.12171917781049
 20
116.8582316600417
 30
0.0
 10
77.82279586146745
 20
116.8852561872718
 30
0.0
 10
77.24346222569616
 20
116.9875226019493
 30
0.0
 10
76.95791392062384
 20
117.0639344052591
 30
0.0
 10
76.41749980698039
 20
117.2601735995719
 30
0.0
 10
76.16098468018293
 20
117.379770966175
 30
0.0
 10
75.67209018161984
 20
117.6639170465777
 30
0.0
 10
75.44217880322981
 20
117.8273808645695
 30
0.0
 10
75.22998492939175
 20
118.0111849959868
 30
0.0
  0
SPLINE
  5
B2
330
1F
100
AcDbEntity
  8
0
  6
Continuous
 62
     7
370
    15
100
AcDbSpline
210
0.0
220
0.0
230
1.0
 70
    24
 71
     3
 72
    11
 73
     7
 74
     0
 42
0.000000001
 43
0.00000001
 40
0.0
 40
0.0
 40
0.0
 40
0.0
 40
0.2164543009645049
 40
0.4403089937225362
 40
0.751898748975943
 40
1.0
 40
1.0
 40
1.0
 40
1.0
 10
225.7656967029078
 20
118.6443040305564
 30
0.0
 10
225.8516015478462
 20
118.8224139698428
 30
0.0
 10
226.026348252634
 20
119.1847232785041
 30
0.0
 10
226.3506322120133
 20
119.8570741378537
 30
0.0
 10
226.6984866162438
 20
120.5782945400614
 30
0.0
 10
226.9210930896682
 20
121.0398334147876
 30
0.0
 10
227.0197706526864
 20
121.2444255396056
 30
0.0
  0
SPLINE
  5
B3
330
1F
100
AcDbEntity
  8
0
  6
Continuous
 62
     7
370
    15
100
AcDbSpline
210
0.0
220
0.0
230
1.0
 70
    24
 71
     3
 72
    11
 73
     7
 74
     0
 42
0.000000001
 43
0.00000001
 40
0.0
 40
0.0
 40
0.0
 40
0.0
 40
0.216454300964509
 40
0.4403089937225397
 40
0.7518987489759478
 40
1.0
 40
1.0
 40
1.0
 40
1.0
 10
227.0197706526864
 20
121.2444255396056
 30
0.0
 10
226.908475343067
 20
121.4078762872736
 30
0.0
 10
226.6820796301327
 20
121.740366027178
 30
0.0
 10
226.2619486853693
 20
122.3573796037151
 30
0.0
 10
225.8112806974451
 20
123.019240555701
 30
0.0
 10
225.5228795438103
 20
123.4427928540965
 30
0.0
 10
225.3950363478128
 20
123.6305461928627
 30
0.0
  0
SPLINE
  5
B4
330
1F
100
AcDbEntity
  8
0
  6
Continuous
 62
     7
370
    15
100
AcDbSpline
210
0.0
220
0.0
230
1.0
 70
    24
 71
     3
 72
    11
 73
     7
 74
     0
 42
0.000000001
 43
0.00000001
 40
0.0
 40
0.0
 40
0.0
 40
0.0
 40
0.1849308168246116
 40
0.5198464202157732
 40
0.8714438233692656
 40
1.0
 40
1.0
 40
1.0
 40
1.0
 10
225.3950363478128
 20
123.6305461928627
 30
0.0
 10
225.2274756411783
 20
123.6180902974209
 30
0.0
 10
224.756457154328
 20
123.5830763783393
 30
0.0
 10
223.8772112002155
 20
123.5177162119136
 30
0.0
 10
223.0651915872982
 20
123.4573534240123
 30
0.0
 10
222.6321661854491
 20
123.4251637821958
 30
0.0
 10
222.5162280931606
 20
123.4165453370707
 30
0.0
  0
SPLINE
  5
B5
330
1F
100
AcDbEntity
  8
0
  6
Continuous
 62
     7
370
    15
100
AcDbSpline
210
0.0
220
0.0
230
1.0
 70
    24
 71
     3
 72
    11
 73
     7
 74
     0
 42
0.000000001
 43
0.00000001
 40
0.0
 40
0.0
 40
0.0
 40
0.0
 40
0.2164543009645042
 40
0.4403089937225355
 40
0.7518987489759462
 40
0.9999999999999999
 40
0.9999999999999999
 40
0.9999999999999999
 40
0.9999999999999999
 10
222.5162280931606
 20
123.4165453370707
 30
0.0
 10
222.4303232482222
 20
123.2384353977842
 30
0.0
 10
222.2555765434344
 20
122.876126089123
 30
0.0
 10
221.9312925840551
 20
122.2037752297734
 30
0.0
 10
221.5834381798245
 20
121.4825548275657
 30
0.0
 10
221.3608317064001
 20
121.0210159528394
 30
0.0
 10
221.262154143382
 20
120.8164238280215
 30
0.0
  0
SPLINE
  5
B6
330
1F
100
AcDbEntity
  8
0
  6
Continuous
 62
     7
370
    15
100
AcDbSpline
210
0.0
220
0.0
230
1.0
 70
    24
 71
     3
 72
    11
 73
     7
 74
     0
 42
0.000000001
 43
0.00000001
 40
0.0
 40
0.0
 40
0.0
 40
0.0
 40
0.216454300964503
 40
0.4403089937225375
 40
0.751898748975947
 40
1.0
 40
1.0
 40
1.0
 40
1.0
 10
221.262154143382
 20
120.8164238280215
 30
0.0
 10
221.3734494530014
 20
120.6529730803535
 30
0.0
 10
221.5998451659356
 20
120.320483340449
 30
0.0
 10
222.0199761106991
 20
119.703469763912
 30
0.0
 10
222.4706440986233
 20
119.0416088119261
 30
0.0
 10
222.7590452522581
 20
118.6180565135306
 30
0.0
 10
222.8868884482556
 20
118.4303031747644
 30
0.0
  0
SPLINE
  5
B7
330
1F
100
AcDbEntity
  8
0
  6
Continuous
 62
     7
370
    15
100
AcDbSpline
210
0.0
220
0.0
230
1.0
 70
    24
 71
     3
 72
    11
 73
     7
 74
     0
 42
0.000000001
 43
0.00000001
 40
0.0
 40
0.0
 40
0.0
 40
0.0
 40
0.1285561766307343
 40
0.4801535797842182
 40
0.8150691831753891
 40
1.0
 40
1.0
 40
1.0
 40
1.0
 10
222.8868884482556
 20
118.4303031747644
 30
0.0
 10
223.0028265405442
 20
118.4389216198895
 30
0.0
 10
223.4358519423932
 20
118.471111261706
 30
0.0
 10
224.2478715553104
 20
118.5314740496073
 30
0.0
 10
225.127117509423
 20
118.596834216033
 30
0.0
 10
225.5981359962734
 20
118.6318481351146
 30
0.0
 10
225.7656967029078
 20
118.6443040305564
 30
0.0
  0
CIRCLE
  5
B8
330
1F
100
AcDbEntity
  8
0
  6
Continuous
 62
     7
370
    15
100
AcDbCircle
 10
224.140962398
 20
121.0304246838
 30
0.0
 40
3.000000000000005
  0
CIRCLE
  5
B9
330
1F
100
AcDbEntity
  8
0
  6
Continuous
 62
     7
370
    15
100
AcDbCircle
 10
224.140962398
 20
121.0304246838
 30
0.0
 40
5.000000000000001
  0
CIRCLE
  5
BA
330
1F
100
AcDbEntity
  8
0
  6
Continuous
 62
     7
370
    15
100
AcDbCircle
 10
224.140962398
 20
121.0304246838
 30
0.0
 40
4.300000000000017
  0
ARC
  5
BB
330
1F
100
AcDbEntity
  8
0
  6
Continuous
 62
     7
370
    15
100
AcDbCircle
 10
224.140962398
 20
121.0304246838
 30
0.0
 40
2.499999999999997
100
AcDbArc
 50
34.2513548083
 51
94.2513548083
  0
ARC
  5
BC
330
1F
100
AcDbEntity
  8
0
  6
Continuous
 62
     7
370
    15
100
AcDbCircle
 10
224.140962398
 20
121.0304246838
 30
0.0
 40
2.500000000000036
100
AcDbArc
 50
94.2513548083
 51
154.2513548083
  0
ARC
  5
BD
330
1F
100
AcDbEntity
  8
0
  6
Continuous
 62
     7
370
    15
100
AcDbCircle
 10
224.140962398
 20
121.0304246838
 30
0.0
 40
2.499999999999996
100
AcDbArc
 50
334.2513548083
 51
34.2513548083
  0
ARC
  5
BE
330
1F
100
AcDbEntity
  8
0
  6
Continuous
 62
     7
370
    15
100
AcDbCircle
 10
224.140962398
 20
121.0304246838
 30
0.0
 40
2.500000000000051
100
AcDbArc
 50
154.2513548083
 51
214.2513548083
  0
ARC
  5
BF
330
1F
100
AcDbEntity
  8
0
  6
Continuous
 62
     7
370
    15
100
AcDbCircle
 10
224.140962398
 20
121.0304246838
 30
0.0
 40
2.500000000000022
100
AcDbArc
 50
274.2513548083
 51
334.2513548083
  0
ARC
  5
C0
330
1F
100
AcDbEntity
  8
0
  6
Continuous
 62
     7
370
    15
100
AcDbCircle
 10
224.140962398
 20
121.0304246838
 30
0.0
 40
2.500000000000051
100
AcDbArc
 50
214.2513548083
 51
274.2513548083
  0
LINE
  5
C1
330
1F
100
AcDbEntity
  8
0
  6
Continuous
 62
     7
370
    15
100
AcDbLine
 10
224.4597303034
 20
141.1859202745
 30
0.0
 11
228.440962398
 21
141.1859202745
 31
0.0
  0
LINE
  5
C2
330
1F
100
AcDbEntity
  8
0
  6
Continuous
 62
     7
370
    15
100
AcDbLine
 10
219.840962398
 20
141.1859202745
 30
0.0
 11
224.4597303034
 21
141.1859202745
 31
0.0
  0
SPLINE
  5
C3
330
1F
100
AcDbEntity
  8
0
  6
HIDDEN
 62
     7
370
     0
100
AcDbSpline
210
0.0
220
0.0
230
1.0
 70
     8
 71
     3
 72
    10
 73
     6
 74
     0
 42
0.000000001
 43
0.00000001
 40
0.0
 40
0.0
 40
0.0
 40
0.0
 40
0.3324482793893638
 40
0.6869732211156485
 40
1.0
 40
1.0
 40
1.0
 40
1.0
 10
217.807258291576
 20
141.628746680751
 30
0.0
 10
217.8445245353436
 20
141.6190422961148
 30
0.0
 10
217.9215317364845
 20
141.5989890945019
 30
0.0
 10
218.6034003091196
 20
141.4255779910389
 30
0.0
 10
219.2798635518076
 20
141.2831237214017
 30
0.0
 10
219.5970691006129
 20
141.2163244011602
 30
0.0
  0
CIRCLE
  5
C4
330
1F
100
AcDbEntity
  8
0
  6
HIDDEN
 62
     7
370
     0
100
AcDbCircle
 10
224.140962398
 20
121.0304246838
 30
0.0
 40
4.500000000000014
  0
LINE
  5
C5
330
1F
100
AcDbEntity
  8
0
  6
HIDDEN
 62
     7
370
     0
100
AcDbLine
 10
72.3243159141
 20
138.116288427
 30
0.0
 11
72.1181249746
 21
138.1719212119
 31
0.0
  0
LINE
  5
C6
330
1F
100
AcDbEntity
  8
0
  6
HIDDEN
 62
     7
370
     0
100
AcDbLine
 10
207.690962398
 20
131.5304246838
 30
0.0
 11
207.690962398
 21
110.5304247618
 31
0.0
  0
LINE
  5
C7
330
1F
100
AcDbEntity
  8
0
  6
HIDDEN
 62
     7
370
     0
100
AcDbLine
 10
211.5569878018
 20
132.0304246838
 30
0.0
 11
211.5569878018
 21
110.0304246838
 31
0.0
  0
SPLINE
  5
C8
330
1F
100
AcDbEntity
  8
0
  6
HIDDEN
 62
     7
370
     0
100
AcDbSpline
210
0.0
220
0.0
230
1.0
 70
     8
 71
     3
 72
    17
 73
    13
 74
     0
 42
0.000000001
 43
0.00000001
 40
0.0
 40
0.0
 40
0.0
 40
0.0
 40
0.1015365503235738
 40
0.2029011557072458
 40
0.3087904285479522
 40
0.419582195255815
 40
0.5251003220089896
 40
0.6229327044781304
 40
0.7228755609299538
 40
0.8309230648371603
 40
0.9412065359396415
 40
1.0
 40
1.0
 40
1.0
 40
1.0
 10
219.6409623980342
 20
132.0304246838136
 30
0.0
 10
219.6867296753716
 20
132.011296878477
 30
0.0
 10
219.7781867264112
 20
131.9730736593841
 30
0.0
 10
220.4864643589766
 20
131.7018459536454
 30
0.0
 10
221.5564414359165
 20
131.371709775903
 30
0.0
 10
222.9543914034566
 20
131.0998269206682
 30
0.0
 10
224.4713169182939
 20
131.0370483675137
 30
0.0
 10
225.8864946293764
 20
131.1910538214805
 30
0.0
 10
227.1250409181616
 20
131.4840881457785
 30
0.0
 10
228.0778362360315
 20
131.8037374147098
 30
0.0
 10
228.6114432717994
 20
132.0182105854811
 30
0.0
 10
228.5892063912097
 20
132.0093233844269
 30
0.0
 10
228.581473915822
 20
132.0062330200596
 30
0.0
  0
LINE
  5
C9
330
1F
100
AcDbEntity
  8
0
  6
HIDDEN
 62
     7
370
     0
100
AcDbLine
 10
71.1153038019
 20
137.1060832799
 30
0.0
 11
85.7666209942
 21
137.1060832799
 31
0.0
  0
LINE
  5
CA
330
1F
100
AcDbEntity
  8
0
  6
HIDDEN
 62
     7
370
     0
100
AcDbLine
 10
75.2299849294
 20
126.2154214733
 30
0.0
 11
75.4380427588
 21
126.1298288694
 31
0.0
  0
SPLINE
  5
CB
330
1F
100
AcDbEntity
  8
0
  6
HIDDEN
 62
     7
370
     0
100
AcDbSpline
210
0.0
220
0.0
230
1.0
 70
     8
 71
     3
 72
    19
 73
    15
 74
     0
 42
0.000000001
 43
0.00000001
 40
0.0
 40
0.0
 40
0.0
 40
0.0
 40
0.0448687274408912
 40
0.1213013112212547
 40
0.2042358906069607
 40
0.3035053197419676
 40
0.4211336499696581
 40
0.5123570416261662
 40
0.603604053849103
 40
0.697940981528967
 40
0.8117371970663074
 40
0.9039371945322697
 40
0.9967375248937248
 40
1.0
 40
1.0
 40
1.0
 40
1.0
 10
83.02316359178938
 20
127.0025835787088
 30
0.0
 10
83.02975777672174
 20
127.0067541956765
 30
0.0
 10
83.04758496559809
 20
127.0180293384237
 30
0.0
 10
82.7101312845523
 20
126.8042257639669
 30
0.0
 10
82.06484449138702
 20
126.4226792092022
 30
0.0
 10
81.02632921452097
 20
125.8899267812677
 30
0.0
 10
79.70535710527436
 20
125.4245491815205
 30
0.0
 10
78.26090466072156
 20
125.2889590207599
 30
0.0
 10
76.95114313735044
 20
125.4988506765927
 30
0.0
 10
75.7051686995472
 20
125.9578255014383
 30
0.0
 10
74.67292994330303
 20
126.5022367886452
 30
0.0
 10
74.01816339320571
 20
126.8994555561474
 30
0.0
 10
73.75580131564287
 20
127.067951555266
 30
0.0
 10
73.81944638308816
 20
127.0276523558134
 30
0.0
 10
73.82160789031427
 20
127.0262837185519
 30
0.0
  0
LINE
  5
CC
330
1F
100
AcDbEntity
  8
0
  6
HIDDEN
 62
     7
370
     0
100
AcDbLine
 10
74.8376614631
 20
126.4305375384
 30
0.0
 11
75.2299849294
 21
126.2154214733
 31
0.0
  0
LINE
  5
CD
330
1F
100
AcDbEntity
  8
0
  6
HIDDEN
 62
     7
370
     0
100
AcDbLine
 10
57.0569878018
 20
121.0304246838
 30
0.0
 11
57.0569878018
 21
127.0304246838
 31
0.0
  0
LINE
  5
CE
330
1F
100
AcDbEntity
  8
0
  6
HIDDEN
 62
     7
370
     0
100
AcDbLine
 10
57.0569878018
 20
115.0304246838
 30
0.0
 11
57.0569878018
 21
121.0304246838
 31
0.0
  0
LINE
  5
CF
330
1F
100
AcDbEntity
  8
0
  6
HIDDEN
 62
     7
370
     0
100
AcDbLine
 10
101.190962398
 20
121.0304246838
 30
0.0
 11
101.190962398
 21
127.0304246838
 31
0.0
  0
LINE
  5
D0
330
1F
100
AcDbEntity
  8
0
  6
HIDDEN
 62
     7
370
     0
100
AcDbLine
 10
101.190962398
 20
115.0304246838
 30
0.0
 11
101.190962398
 21
121.0304246838
 31
0.0
  0
LINE
  5
D1
330
1F
100
AcDbEntity
  8
0
  6
HIDDEN
 62
     7
370
     0
100
AcDbLine
 10
102.7532000075
 20
121.0304246838
 30
0.0
 11
102.7532000075
 21
124.4304246838
 31
0.0
  0
LINE
  5
D2
330
1F
100
AcDbEntity
  8
0
  6
HIDDEN
 62
     7
370
     0
100
AcDbLine
 10
102.7532000075
 20
117.6304246838
 30
0.0
 11
102.7532000075
 21
121.0304246838
 31
0.0
  0
LINE
  5
D3
330
1F
100
AcDbEntity
  8
0
  6
HIDDEN
 62
     7
370
     0
100
AcDbLine
 10
224.140962398
 20
139.7804246838
 30
0.0
 11
228.640962398
 21
139.7804246838
 31
0.0
  0
LINE
  5
D4
330
1F
100
AcDbEntity
  8
0
  6
HIDDEN
 62
     7
370
     0
100
AcDbLine
 10
219.640962398
 20
139.7804246838
 30
0.0
 11
224.140962398
 21
139.7804246838
 31
0.0
  0
LINE
  5
D5
330
1F
100
AcDbEntity
  8
0
  6
HIDDEN
 62
     7
370
     0
100
AcDbLine
 10
224.5116227531
 20
133.9634193493
 30
0.0
 11
229.140962398
 21
133.9634193493
 31
0.0
  0
LINE
  5
D6
330
1F
100
AcDbEntity
  8
0
  6
HIDDEN
 62
     7
370
     0
100
AcDbLine
 10
219.140962398
 20
133.9634193493
 30
0.0
 11
224.5116227531
 21
133.9634193493
 31
0.0
  0
LINE
  5
D7
330
1F
100
AcDbEntity
  8
0
  6
HIDDEN
 62
     7
370
     0
100
AcDbLine
 10
224.5116227531
 20
140.4859202745
 30
0.0
 11
229.140962398
 21
140.4859202745
 31
0.0
  0
LINE
  5
D8
330
1F
100
AcDbEntity
  8
0
  6
HIDDEN
 62
     7
370
     0
100
AcDbLine
 10
219.140962398
 20
140.4859202745
 30
0.0
 11
224.5116227531
 21
140.4859202745
 31
0.0
  0
LINE
  5
D9
330
1F
100
AcDbEntity
  8
0
  6
HIDDEN
 62
     7
370
     0
100
AcDbLine
 10
224.350000153
 20
126.6859202745
 30
0.0
 11
226.9607643016
 21
126.6859202745
 31
0.0
  0
LINE
  5
DA
330
1F
100
AcDbEntity
  8
0
  6
HIDDEN
 62
     7
370
     0
100
AcDbLine
 10
221.3211604944
 20
126.6859202745
 30
0.0
 11
224.350000153
 21
126.6859202745
 31
0.0
  0
SPLINE
  5
DB
330
1F
100
AcDbEntity
  8
0
  6
HIDDEN
 62
     7
370
     0
100
AcDbSpline
210
0.0
220
0.0
230
1.0
 70
     8
 71
     3
 72
    11
 73
     7
 74
     0
 42
0.000000001
 43
0.00000001
 40
0.0
 40
0.0
 40
0.0
 40
0.0
 40
0.2164543009645046
 40
0.4403089937225359
 40
0.7518987489759427
 40
1.0
 40
1.0
 40
1.0
 40
1.0
 10
225.7656967029078
 20
141.0726716204799
 30
0.0
 10
225.8516015478461
 20
140.9821235700838
 30
0.0
 10
226.026348252634
 20
140.7979317070634
 30
0.0
 10
226.3506322120132
 20
140.644405801965
 30
0.0
 10
226.6984866162438
 20
140.7369671284756
 30
0.0
 10
226.9210930896682
 20
140.9695650312698
 30
0.0
 10
227.0197706526864
 20
141.0726716204799
 30
0.0
  0
SPLINE
  5
DC
330
1F
100
AcDbEntity
  8
0
  6
HIDDEN
 62
     7
370
     0
100
AcDbSpline
210
0.0
220
0.0
230
1.0
 70
     8
 71
     3
 72
    11
 73
     7
 74
     0
 42
0.000000001
 43
0.00000001
 40
0.0
 40
0.0
 40
0.0
 40
0.0
 40
0.2164543009645092
 40
0.4403089937225399
 40
0.751898748975948
 40
1.0
 40
1.0
 40
1.0
 40
1.0
 10
227.0197706526864
 20
141.0726716204799
 30
0.0
 10
226.908475343067
 20
140.9821235700838
 30
0.0
 10
226.6820796301327
 20
140.7979317070634
 30
0.0
 10
226.2619486853693
 20
140.644405801965
 30
0.0
 10
225.8112806974451
 20
140.7369671284756
 30
0.0
 10
225.5228795438102
 20
140.9695650312698
 30
0.0
 10
225.3950363478128
 20
141.0726716204799
 30
0.0
  0
LINE
  5
DD
330
1F
100
AcDbEntity
  8
0
  6
HIDDEN
 62
     7
370
     0
100
AcDbLine
 10
222.7051686851
 20
140.9871384241
 30
0.0
 11
222.5162280932
 21
141.0726716205
 31
0.0
  0
SPLINE
  5
DE
330
1F
100
AcDbEntity
  8
0
  6
HIDDEN
 62
     7
370
     0
100
AcDbSpline
210
0.0
220
0.0
230
1.0
 70
     8
 71
     3
 72
    11
 73
     7
 74
     0
 42
0.000000001
 43
0.00000001
 40
0.0
 40
0.0
 40
0.0
 40
0.0
 40
0.2164543009645046
 40
0.4403089937225357
 40
0.7518987489759464
 40
1.0
 40
1.0
 40
1.0
 40
1.0
 10
222.5162280931606
 20
141.0726716204799
 30
0.0
 10
222.4303232482222
 20
140.9821235700838
 30
0.0
 10
222.2555765434344
 20
140.7979317070634
 30
0.0
 10
221.9312925840552
 20
140.644405801965
 30
0.0
 10
221.5834381798244
 20
140.7369671284756
 30
0.0
 10
221.3608317064001
 20
140.9695650312698
 30
0.0
 10
221.262154143382
 20
141.0726716204799
 30
0.0
  0
SPLINE
  5
DF
330
1F
100
AcDbEntity
  8
0
  6
HIDDEN
 62
     7
370
     0
100
AcDbSpline
210
0.0
220
0.0
230
1.0
 70
     8
 71
     3
 72
    11
 73
     7
 74
     0
 42
0.000000001
 43
0.00000001
 40
0.0
 40
0.0
 40
0.0
 40
0.0
 40
0.2164543009645027
 40
0.4403089937225373
 40
0.7518987489759467
 40
1.0
 40
1.0
 40
1.0
 40
1.0
 10
221.262154143382
 20
141.0726716204799
 30
0.0
 10
221.3734494530014
 20
140.9821235700838
 30
0.0
 10
221.5998451659356
 20
140.7979317070634
 30
0.0
 10
222.0199761106991
 20
140.644405801965
 30
0.0
 10
222.4706440986233
 20
140.7369671284756
 30
0.0
 10
222.7590452522581
 20
140.9695650312698
 30
0.0
 10
222.8868884482556
 20
141.0726716204799
 30
0.0
  0
SPLINE
  5
E0
330
1F
100
AcDbEntity
  8
0
  6
HIDDEN
 62
     7
370
     0
100
AcDbSpline
210
0.0
220
0.0
230
1.0
 70
     8
 71
     3
 72
     9
 73
     5
 74
     0
 42
0.000000001
 43
0.00000001
 40
0.0
 40
0.0
 40
0.0
 40
0.0
 40
0.294059408936483
 40
1.0
 40
1.0
 40
1.0
 40
1.0
 10
222.8868884482556
 20
141.0726716204799
 30
0.0
 10
223.002679095898
 20
141.0159770541427
 30
0.0
 10
223.3964452673705
 20
140.8231773524013
 30
0.0
 10
223.8329068903039
 20
140.7594092102849
 30
0.0
 10
224.1410228663741
 20
140.7143926903482
 30
0.0
  0
SPLINE
  5
E1
330
1F
100
AcDbEntity
  8
0
  6
HIDDEN
 62
     7
370
     0
100
AcDbSpline
210
0.0
220
0.0
230
1.0
 70
     8
 71
     3
 72
     9
 73
     5
 74
     0
 42
0.000000001
 43
0.00000001
 40
0.0
 40
0.0
 40
0.0
 40
0.0
 40
0.6073292483512074
 40
1.0
 40
1.0
 40
1.0
 40
1.0
 10
224.411216678422
 20
140.7110901294321
 30
0.0
 10
224.6986711186207
 20
140.7390625506154
 30
0.0
 10
225.1719801861143
 20
140.7851206340344
 30
0.0
 10
225.5982952473666
 20
140.9915951263758
 30
0.0
 10
225.7656967029078
 20
141.0726716204799
 30
0.0
  0
LINE
  5
E2
330
1F
100
AcDbEntity
  8
0
  6
HIDDEN
 62
     7
370
     0
100
AcDbLine
 10
224.3262925756
 20
133.1859202745
 30
0.0
 11
226.640962398
 21
133.1859202745
 31
0.0
  0
LINE
  5
E3
330
1F
100
AcDbEntity
  8
0
  6
HIDDEN
 62
     7
370
     0
100
AcDbLine
 10
221.640962398
 20
133.1859202745
 30
0.0
 11
224.3262925756
 21
133.1859202745
 31
0.0
  0
LINE
  5
E4
330
1F
100
AcDbEntity
  8
0
  6
HIDDEN
 62
     7
370
     0
100
AcDbLine
 10
222.8868884483
 20
134.1859202745
 30
0.0
 11
222.0745212958
 21
134.1859202745
 31
0.0
  0
LINE
  5
E5
330
1F
100
AcDbEntity
  8
0
  6
HIDDEN
 62
     7
370
     0
100
AcDbLine
 10
224.3262925756
 20
134.1859202745
 30
0.0
 11
222.8868884483
 21
134.1859202745
 31
0.0
  0
LINE
  5
E6
330
1F
100
AcDbEntity
  8
0
  6
HIDDEN
 62
     7
370
     0
100
AcDbLine
 10
222.8868884483
 20
134.1859202745
 30
0.0
 11
222.8868884483
 21
141.0726716205
 31
0.0
  0
LINE
  5
E7
330
1F
100
AcDbEntity
  8
0
  6
HIDDEN
 62
     7
370
     0
100
AcDbLine
 10
225.7656967029
 20
134.1859202745
 30
0.0
 11
224.3262925756
 21
134.1859202745
 31
0.0
  0
LINE
  5
E8
330
1F
100
AcDbEntity
  8
0
  6
HIDDEN
 62
     7
370
     0
100
AcDbLine
 10
226.3927336778
 20
134.1859202745
 30
0.0
 11
225.7656967029
 21
134.1859202745
 31
0.0
  0
LINE
  5
E9
330
1F
100
AcDbEntity
  8
0
  6
HIDDEN
 62
     7
370
     0
100
AcDbLine
 10
225.7656967029
 20
134.1859202745
 30
0.0
 11
225.7656967029
 21
141.0726716205
 31
0.0
  0
LINE
  5
EA
330
1F
100
AcDbEntity
  8
0
  6
HIDDEN
 62
     7
370
     0
100
AcDbLine
 10
222.0745212958
 20
134.1859202745
 30
0.0
 11
221.2621541434
 21
134.1859202745
 31
0.0
  0
LINE
  5
EB
330
1F
100
AcDbEntity
  8
0
  6
HIDDEN
 62
     7
370
     0
100
AcDbLine
 10
227.0197706527
 20
134.1859202745
 30
0.0
 11
226.3927336778
 21
134.1859202745
 31
0.0
  0
LINE
  5
EC
330
1F
100
AcDbEntity
  8
0
  6
HIDDEN
 62
     7
370
     0
100
AcDbLine
 10
222.5162280932
 20
134.1859202745
 30
0.0
 11
222.5162280932
 21
141.0726716205
 31
0.0
  0
LINE
  5
ED
330
1F
100
AcDbEntity
  8
0
  6
HIDDEN
 62
     7
370
     0
100
AcDbLine
 10
221.2621541434
 20
134.1859202745
 30
0.0
 11
221.2621541434
 21
141.0726716205
 31
0.0
  0
LINE
  5
EE
330
1F
100
AcDbEntity
  8
0
  6
HIDDEN
 62
     7
370
     0
100
AcDbLine
 10
225.3950363478
 20
134.1859202745
 30
0.0
 11
225.3950363478
 21
141.0726716205
 31
0.0
  0
LINE
  5
EF
330
1F
100
AcDbEntity
  8
0
  6
HIDDEN
 62
     7
370
     0
100
AcDbLine
 10
227.0197706527
 20
134.1859202745
 30
0.0
 11
227.0197706527
 21
141.0726716205
 31
0.0
  0
LINE
  5
F0
330
1F
100
AcDbEntity
  8
0
  6
HIDDEN
 62
     7
370
     0
100
AcDbLine
 10
96.190962398
 20
101.3153946522
 30
0.0
 11
96.3851232393
 21
102.6969208232
 31
0.0
  0
LINE
  5
F1
330
1F
100
AcDbEntity
  8
0
  6
HIDDEN
 62
     7
370
     0
100
AcDbLine
 10
96.3851232393
 20
139.3639285444
 30
0.0
 11
96.190962398
 21
140.7454547155
 31
0.0
  0
ARC
  5
F2
330
1F
100
AcDbEntity
  8
0
  6
HIDDEN
 62
     7
370
     0
100
AcDbCircle
 10
95.790962398
 20
102.7804246838
 30
0.0
 40
0.5999999999999992
100
AcDbArc
 50
352.0
 51
0.0
  0
ARC
  5
F3
330
1F
100
AcDbEntity
  8
0
  6
HIDDEN
 62
     7
370
     0
100
AcDbCircle
 10
95.790962398
 20
102.7804246838
 30
0.0
 40
0.5999999999999959
100
AcDbArc
 50
0.0
 51
48.1896851042
  0
ARC
  5
F4
330
1F
100
AcDbEntity
  8
0
  6
HIDDEN
 62
     7
370
     0
100
AcDbCircle
 10
95.790962398
 20
139.2804246838
 30
0.0
 40
0.5999999999999992
100
AcDbArc
 50
348.75
 51
8.0
  0
ARC
  5
F5
330
1F
100
AcDbEntity
  8
0
  6
HIDDEN
 62
     7
370
     0
100
AcDbCircle
 10
95.790962398
 20
139.2804246838
 30
0.0
 40
0.5999999999999959
100
AcDbArc
 50
311.8103148958
 51
348.75
  0
LINE
  5
F6
330
1F
100
AcDbEntity
  8
0
  6
HIDDEN
 62
     7
370
     0
100
AcDbLine
 10
96.390962398
 20
102.7804246838
 30
0.0
 11
96.390962398
 21
139.2804246838
 31
0.0
  0
ARC
  5
F7
330
1F
100
AcDbEntity
  8
0
  6
HIDDEN
 62
     7
370
     0
100
AcDbCircle
 10
235.190962398
 20
133.0304246838
 30
0.0
 40
1.0
100
AcDbArc
 50
270.0
 51
0.0
  0
ARC
  5
F8
330
1F
100
AcDbEntity
  8
0
  6
HIDDEN
 62
     7
370
     0
100
AcDbCircle
 10
235.190962398
 20
109.0304246838
 30
0.0
 40
1.0
100
AcDbArc
 50
0.0
 51
90.0
  0
ARC
  5
F9
330
1F
100
AcDbEntity
  8
0
  6
HIDDEN
 62
     7
370
     0
100
AcDbCircle
 10
209.5593099004
 20
131.5304246838
 30
0.0
 40
1.0
100
AcDbArc
 50
75.0
 51
90.0
  0
ARC
  5
FA
330
1F
100
AcDbEntity
  8
0
  6
HIDDEN
 62
     7
370
     0
100
AcDbCircle
 10
209.5593099004
 20
110.5304246838
 30
0.0
 40
1.0
100
AcDbArc
 50
270.0
 51
285.0
  0
LINE
  5
FB
330
1F
100
AcDbEntity
  8
0
  6
HIDDEN
 62
     7
370
     0
100
AcDbLine
 10
209.5593099004
 20
132.5304246838
 30
0.0
 11
208.690962398
 21
132.5304246838
 31
0.0
  0
LINE
  5
FC
330
1F
100
AcDbEntity
  8
0
  6
HIDDEN
 62
     7
370
     0
100
AcDbLine
 10
208.690962398
 20
109.5304246838
 30
0.0
 11
209.5593099004
 21
109.5304246838
 31
0.0
  0
ARC
  5
FD
330
1F
100
AcDbEntity
  8
0
  6
HIDDEN
 62
     7
370
     0
100
AcDbCircle
 10
208.690962398
 20
131.5304246838
 30
0.0
 40
1.0
100
AcDbArc
 50
90.0
 51
180.0
  0
ARC
  5
FE
330
1F
100
AcDbEntity
  8
0
  6
HIDDEN
 62
     7
370
     0
100
AcDbCircle
 10
208.690962398
 20
110.5304246838
 30
0.0
 40
1.0
100
AcDbArc
 50
180.0
 51
270.0
  0
LINE
  5
FF
330
1F
100
AcDbEntity
  8
0
  6
HIDDEN
 62
     7
370
     0
100
AcDbLine
 10
209.8181289455
 20
109.5644988575
 30
0.0
 11
211.5569878018
 21
110.0304246838
 31
0.0
  0
LINE
  5
100
330
1F
100
AcDbEntity
  8
0
  6
HIDDEN
 62
     7
370
     0
100
AcDbLine
 10
211.5569878018
 20
132.0304246838
 30
0.0
 11
209.8181289455
 21
132.4963505101
 31
0.0
  0
LINE
  5
101
330
1F
100
AcDbEntity
  8
0
  6
HIDDEN
 62
     7
370
     0
100
AcDbLine
 10
219.640962398
 20
132.0304246838
 30
0.0
 11
211.5569878018
 21
132.0304246838
 31
0.0
  0
LINE
  5
102
330
1F
100
AcDbEntity
  8
0
  6
HIDDEN
 62
     7
370
     0
100
AcDbLine
 10
235.190962398
 20
132.0304246838
 30
0.0
 11
228.5814739158
 21
132.0304246838
 31
0.0
  0
LINE
  5
103
330
1F
100
AcDbEntity
  8
0
  6
HIDDEN
 62
     7
370
     0
100
AcDbLine
 10
211.5569878018
 20
110.0304246838
 30
0.0
 11
235.190962398
 21
110.0304246838
 31
0.0
  0
LINE
  5
104
330
1F
100
AcDbEntity
  8
0
  6
HIDDEN
 62
     7
370
     0
100
AcDbLine
 10
69.190962398
 20
139.0304246838
 30
0.0
 11
71.1153038019
 21
137.1060832799
 31
0.0
  0
LINE
  5
105
330
1F
100
AcDbEntity
  8
0
  6
HIDDEN
 62
     7
370
     0
100
AcDbLine
 10
85.7666209942
 20
137.1060832799
 30
0.0
 11
87.690962398
 21
139.0304246838
 31
0.0
  0
LINE
  5
106
330
1F
100
AcDbEntity
  8
0
  6
HIDDEN
 62
     7
370
     0
100
AcDbLine
 10
71.1153038019
 20
137.1060832799
 30
0.0
 11
73.816541691
 21
127.0249262345
 31
0.0
  0
LINE
  5
107
330
1F
100
AcDbEntity
  8
0
  6
HIDDEN
 62
     7
370
     0
100
AcDbLine
 10
83.05696927
 20
126.9935253745
 30
0.0
 11
85.7666209942
 21
137.1060832799
 31
0.0
  0
LINE
  5
108
330
1F
100
AcDbEntity
  8
0
  6
HIDDEN
 62
     7
370
     0
100
AcDbLine
 10
56.190962398
 20
114.5304246838
 30
0.0
 11
57.0569878018
 21
115.0304246838
 31
0.0
  0
LINE
  5
109
330
1F
100
AcDbEntity
  8
0
  6
HIDDEN
 62
     7
370
     0
100
AcDbLine
 10
57.0569878018
 20
127.0304246838
 30
0.0
 11
56.190962398
 21
127.5304246838
 31
0.0
  0
LINE
  5
10A
330
1F
100
AcDbEntity
  8
0
  6
HIDDEN
 62
     7
370
     0
100
AcDbLine
 10
57.0569878018
 20
115.0304246838
 30
0.0
 11
101.190962398
 21
115.0304246838
 31
0.0
  0
LINE
  5
10B
330
1F
100
AcDbEntity
  8
0
  6
HIDDEN
 62
     7
370
     0
100
AcDbLine
 10
73.8216370216
 20
127.0304246838
 30
0.0
 11
57.0569878018
 21
127.0304246838
 31
0.0
  0
LINE
  5
10C
330
1F
100
AcDbEntity
  8
0
  6
HIDDEN
 62
     7
370
     0
100
AcDbLine
 10
101.190962398
 20
127.0304246838
 30
0.0
 11
83.0231610282
 21
127.0304246838
 31
0.0
  0
LINE
  5
10D
330
1F
100
AcDbEntity
  8
0
  6
HIDDEN
 62
     7
370
     0
100
AcDbLine
 10
101.190962398
 20
115.0304246838
 30
0.0
 11
102.7532000075
 21
117.6304246838
 31
0.0
  0
LINE
  5
10E
330
1F
100
AcDbEntity
  8
0
  6
HIDDEN
 62
     7
370
     0
100
AcDbLine
 10
102.7532000075
 20
124.4304246838
 30
0.0
 11
101.190962398
 21
127.0304246838
 31
0.0
  0
LINE
  5
10F
330
1F
100
AcDbEntity
  8
0
  6
HIDDEN
 62
     7
370
     0
100
AcDbLine
 10
217.7998935958
 20
141.621493486
 30
0.0
 11
219.640962398
 21
139.7804246838
 31
0.0
  0
LINE
  5
110
330
1F
100
AcDbEntity
  8
0
  6
HIDDEN
 62
     7
370
     0
100
AcDbLine
 10
228.640962398
 20
139.7804246838
 30
0.0
 11
230.0542093826
 21
141.1936716684
 31
0.0
  0
LINE
  5
111
330
1F
100
AcDbEntity
  8
0
  6
HIDDEN
 62
     7
370
     0
100
AcDbLine
 10
219.640962398
 20
139.7804246838
 30
0.0
 11
219.640962398
 21
132.0304246838
 31
0.0
  0
LINE
  5
112
330
1F
100
AcDbEntity
  8
0
  6
HIDDEN
 62
     7
370
     0
100
AcDbLine
 10
228.640962398
 20
132.0062432357
 30
0.0
 11
228.640962398
 21
139.7804246838
 31
0.0
  0
LINE
  5
113
330
1F
100
AcDbEntity
  8
0
  6
HIDDEN
 62
     7
370
     0
100
AcDbLine
 10
207.690962398
 20
124.4304246838
 30
0.0
 11
102.7532000075
 21
124.4304246838
 31
0.0
  0
LINE
  5
114
330
1F
100
AcDbEntity
  8
0
  6
HIDDEN
 62
     7
370
     0
100
AcDbLine
 10
102.7532000075
 20
117.6304246838
 30
0.0
 11
207.690962398
 21
117.6304246838
 31
0.0
  0
LINE
  5
115
330
1F
100
AcDbEntity
  8
0
  6
HIDDEN
 62
     7
370
     0
100
AcDbLine
 10
219.140962398
 20
140.4859202745
 30
0.0
 11
219.140962398
 21
133.9634193493
 31
0.0
  0
LINE
  5
116
330
1F
100
AcDbEntity
  8
0
  6
HIDDEN
 62
     7
370
     0
100
AcDbLine
 10
229.140962398
 20
133.9634193493
 30
0.0
 11
229.140962398
 21
140.4859202745
 31
0.0
  0
LINE
  5
117
330
1F
100
AcDbEntity
  8
0
  6
HIDDEN
 62
     7
370
     0
100
AcDbLine
 10
229.140962398
 20
140.4859202745
 30
0.0
 11
228.6475921
 21
140.9792905726
 31
0.0
  0
LINE
  5
118
330
1F
100
AcDbEntity
  8
0
  6
HIDDEN
 62
     7
370
     0
100
AcDbLine
 10
219.840962398
 20
141.1859202745
 30
0.0
 11
219.140962398
 21
140.4859202745
 31
0.0
  0
LINE
  5
119
330
1F
100
AcDbEntity
  8
0
  6
HIDDEN
 62
     7
370
     0
100
AcDbLine
 10
219.140962398
 20
133.9634193493
 30
0.0
 11
221.0313827465
 21
126.908274561
 31
0.0
  0
LINE
  5
11A
330
1F
100
AcDbEntity
  8
0
  6
HIDDEN
 62
     7
370
     0
100
AcDbLine
 10
227.2505420495
 20
126.908274561
 30
0.0
 11
229.140962398
 21
133.9634193493
 31
0.0
  0
ARC
  5
11B
330
1F
100
AcDbEntity
  8
0
  6
HIDDEN
 62
     7
370
     0
100
AcDbCircle
 10
221.3211604944
 20
126.9859202745
 30
0.0
 40
0.2999999999999972
100
AcDbArc
 50
195.0
 51
270.0
  0
ARC
  5
11C
330
1F
100
AcDbEntity
  8
0
  6
HIDDEN
 62
     7
370
     0
100
AcDbCircle
 10
226.9607643016
 20
126.9859202745
 30
0.0
 40
0.3000000000000241
100
AcDbArc
 50
270.0
 51
345.0
  0
LINE
  5
11D
330
1F
100
AcDbEntity
  8
0
  6
HIDDEN
 62
     7
370
     0
100
AcDbLine
 10
221.140962398
 20
141.1859202745
 30
0.0
 11
221.3570491789
 21
140.9698334937
 31
0.0
  0
LINE
  5
11E
330
1F
100
AcDbEntity
  8
0
  6
HIDDEN
 62
     7
370
     0
100
AcDbLine
 10
226.9248756172
 20
140.9698334937
 30
0.0
 11
227.140962398
 21
141.1859202745
 31
0.0
  0
LINE
  5
11F
330
1F
100
AcDbEntity
  8
0
  6
HIDDEN
 62
     7
370
     0
100
AcDbLine
 10
221.640962398
 20
134.1859202745
 30
0.0
 11
221.640962398
 21
133.1859202745
 31
0.0
  0
LINE
  5
120
330
1F
100
AcDbEntity
  8
0
  6
HIDDEN
 62
     7
370
     0
100
AcDbLine
 10
226.640962398
 20
133.1859202745
 30
0.0
 11
226.640962398
 21
134.1859202745
 31
0.0
  0
LINE
  5
121
330
1F
100
AcDbEntity
  8
0
  6
HIDDEN
 62
     7
370
     0
100
AcDbLine
 10
221.640962398
 20
133.1859202745
 30
0.0
 11
224.140962398
 21
132.2759946889
 31
0.0
  0
LINE
  5
122
330
1F
100
AcDbEntity
  8
0
  6
HIDDEN
 62
     7
370
     0
100
AcDbLine
 10
224.140962398
 20
132.2759946889
 30
0.0
 11
226.640962398
 21
133.1859202745
 31
0.0
  0
LINE
  5
123
330
1F
100
AcDbEntity
  8
VERMASSUNG
100
AcDbLine
 10
117.1558157458
 20
144.9332163773
 30
0.0
 11
117.1558157458
 21
97.1276329903
 31
0.0
  0
LINE
  5
124
330
1F
100
AcDbEntity
  8
VERMASSUNG
100
AcDbLine
 10
113.4231895479
 20
147.8957919691
 30
0.0
 11
113.4231895479
 21
94.1650573986
 31
0.0
  0
DIMENSION
  5
125
330
1F
100
AcDbEntity
  8
VERMASSUNG
100
AcDbDimension
  2
_D
 10
117.1558157458
 20
158.5065134447
 30
0.0
 11
176.6733890719
 21
158.5065134447
 31
0.0
 70
   160
  1
<>
 71
     2
 42
-1.0
  3
SLDDIMSTYLE0
100
AcDbAlignedDimension
 13
236.190962398
 23
140.6435394379
 33
0.0
 14
117.1558157458
 24
144.9332163773
 34
0.0
100
AcDbRotatedDimension
  0
DIMENSION
  5
130
330
1F
100
AcDbEntity
  8
VERMASSUNG
100
AcDbDimension
  2
_D_1
 10
246.190962398
 20
132.0304246838
 30
0.0
 11
246.190962398
 21
121.0304246838
 31
0.0
 70
   160
  1
%%c<>
 71
     2
 42
-1.0
  3
SLDDIMSTYLE1
100
AcDbAlignedDimension
 13
235.190962398
 23
110.0304246838
 33
0.0
 14
235.190962398
 24
132.0304246838
 34
0.0
 50
90.0
100
AcDbRotatedDimension
  0
DIMENSION
  5
13C
330
1F
100
AcDbEntity
  8
VERMASSUNG
100
AcDbDimension
  2
_D_2
 10
258.190962398
 20
141.0304246838
 30
0.0
 11
258.190962398
 21
121.0304246838
 31
0.0
 70
   160
  1
WH %%c<>
 71
     2
 42
-1.0
  3
SLDDIMSTYLE2
100
AcDbAlignedDimension
 13
236.190962398
 23
101.0304246838
 33
0.0
 14
236.190962398
 24
141.0304246838
 34
0.0
 50
90.0
100
AcDbRotatedDimension
  0
DIMENSION
  5
149
330
1F
100
AcDbEntity
  8
VERMASSUNG
100
AcDbDimension
  2
_D_3
 10
56.190962398
 20
174.6274146681
 30
0.0
 11
146.190962398
 21
174.6274146681
 31
0.0
 70
   160
  1
<>
 71
     2
 42
-1.0
  3
SLDDIMSTYLE2
100
AcDbAlignedDimension
 13
236.190962398
 23
140.6435394379
 33
0.0
 14
56.190962398
 24
137.7204246838
 34
0.0
100
AcDbRotatedDimension
  0
DIMENSION
  5
153
330
1F
100
AcDbEntity
  8
VERMASSUNG
100
AcDbDimension
  2
_D_4
 10
46.290962398
 20
89.5304246838
 30
0.0
 11
46.290962398
 21
121.0304246838
 31
0.0
 70
   160
  1
WH%%c<>
 71
     2
 42
-1.0
  3
SLDDIMSTYLE2
100
AcDbAlignedDimension
 13
96.790962398
 23
152.5304246838
 33
0.0
 14
96.790962398
 24
89.5304246838
 34
0.0
 50
90.0
100
AcDbRotatedDimension
  0
DIMENSION
  5
15F
330
1F
100
AcDbEntity
  8
VERMASSUNG
100
AcDbDimension
  2
_D_5
 10
96.190962398
 20
165.5629375468
 30
0.0
 11
166.190962398
 21
165.5629375468
 31
0.0
 70
   160
  1
<>
 71
     2
 42
-1.0
  3
SLDDIMSTYLE2
100
AcDbAlignedDimension
 13
236.190962398
 23
140.6435394379
 33
0.0
 14
96.190962398
 24
151.9304246838
 34
0.0
100
AcDbRotatedDimension
  0
LINE
  5
169
330
1F
100
AcDbEntity
  8
VERMASSUNG
  6
CENTERX2
370
     0
100
AcDbLine
 10
49.556041769
 20
121.0304246838
 30
0.0
 11
243.6311740323
 21
121.0304246838
 31
0.0
  0
OLE2FRAME
  5
16A
330
1F
100
AcDbEntity
  8
0
100
AcDbOle2Frame
 70
     2
  3
Paintbrush-Bild
 10
13.8511154363
 20
38.264191557
 30
0.0
 11
51.6290888628
 21
31.9806341108
 31
0.0
 71
     2
 72
     0
 73
     1
 90
    12928
310
80552BED0767C5B32B40DDAF6807D121434000000000000000006FFBDDFB85D0
310
4940DDAF6807D121434000000000000000006FFBDDFB85D04940416F4BD60AFB
310
3F4000000000000000002BED0767C5B32B40416F4BD60AFB3F40000000000000
310
0000000000000100000000010000010000000100000000000100000000320000
310
D0CF11E0A1B11AE1000000000000000000000000000000003E000300FEFF0900
310
0600000000000000000000000100000001000000000000000010000002000000
310
01000000FEFFFFFF0000000000000000FFFFFFFFFFFFFFFFFFFFFFFFFFFFFFFF
310
FFFFFFFFFFFFFFFFFFFFFFFFFFFFFFFFFFFFFFFFFFFFFFFFFFFFFFFFFFFFFFFF
310
FFFFFFFFFFFFFFFFFFFFFFFFFFFFFFFFFFFFFFFFFFFFFFFFFFFFFFFFFFFFFFFF
310
FFFFFFFFFFFFFFFFFFFFFFFFFFFFFFFFFFFFFFFFFFFFFFFFFFFFFFFFFFFFFFFF
310
FFFFFFFFFFFFFFFFFFFFFFFFFFFFFFFFFFFFFFFFFFFFFFFFFFFFFFFFFFFFFFFF
310
FFFFFFFFFFFFFFFFFFFFFFFFFFFFFFFFFFFFFFFFFFFFFFFFFFFFFFFFFFFFFFFF
310
FFFFFFFFFFFFFFFFFFFFFFFFFFFFFFFFFFFFFFFFFFFFFFFFFFFFFFFFFFFFFFFF
310
FFFFFFFFFFFFFFFFFFFFFFFFFFFFFFFFFFFFFFFFFFFFFFFFFFFFFFFFFFFFFFFF
310
FFFFFFFFFFFFFFFFFFFFFFFFFFFFFFFFFFFFFFFFFFFFFFFFFFFFFFFFFFFFFFFF
310
FFFFFFFFFFFFFFFFFFFFFFFFFFFFFFFFFFFFFFFFFFFFFFFFFFFFFFFFFFFFFFFF
310
FFFFFFFFFFFFFFFFFFFFFFFFFFFFFFFFFFFFFFFFFFFFFFFFFFFFFFFFFFFFFFFF
310
FFFFFFFFFFFFFFFFFFFFFFFFFFFFFFFFFFFFFFFFFFFFFFFFFFFFFFFFFFFFFFFF
310
FFFFFFFFFFFFFFFFFFFFFFFFFFFFFFFFFFFFFFFFFFFFFFFFFFFFFFFFFFFFFFFF
310
FFFFFFFFFFFFFFFFFFFFFFFFFFFFFFFFFFFFFFFFFFFFFFFFFFFFFFFFFFFFFFFF
310
FDFFFFFFFEFFFFFFFEFFFFFFFEFFFFFF05000000060000000700000008000000
310
090000000A0000000B0000000C0000000D0000000E0000000F00000010000000
310
11000000120000001300000014000000150000001600000017000000FEFFFFFF
310
FFFFFFFFFFFFFFFFFFFFFFFFFFFFFFFFFFFFFFFFFFFFFFFFFFFFFFFFFFFFFFFF
310
FFFFFFFFFFFFFFFFFFFFFFFFFFFFFFFFFFFFFFFFFFFFFFFFFFFFFFFFFFFFFFFF
310
FFFFFFFFFFFFFFFFFFFFFFFFFFFFFFFFFFFFFFFFFFFFFFFFFFFFFFFFFFFFFFFF
310
FFFFFFFFFFFFFFFFFFFFFFFFFFFFFFFFFFFFFFFFFFFFFFFFFFFFFFFFFFFFFFFF
310
FFFFFFFFFFFFFFFFFFFFFFFFFFFFFFFFFFFFFFFFFFFFFFFFFFFFFFFFFFFFFFFF
310
FFFFFFFFFFFFFFFFFFFFFFFFFFFFFFFFFFFFFFFFFFFFFFFFFFFFFFFFFFFFFFFF
310
FFFFFFFFFFFFFFFFFFFFFFFFFFFFFFFFFFFFFFFFFFFFFFFFFFFFFFFFFFFFFFFF
310
FFFFFFFFFFFFFFFFFFFFFFFFFFFFFFFFFFFFFFFFFFFFFFFFFFFFFFFFFFFFFFFF
310
FFFFFFFFFFFFFFFFFFFFFFFFFFFFFFFFFFFFFFFFFFFFFFFFFFFFFFFFFFFFFFFF
310
FFFFFFFFFFFFFFFFFFFFFFFFFFFFFFFFFFFFFFFFFFFFFFFFFFFFFFFFFFFFFFFF
310
FFFFFFFFFFFFFFFFFFFFFFFFFFFFFFFFFFFFFFFFFFFFFFFFFFFFFFFFFFFFFFFF
310
FFFFFFFFFFFFFFFFFFFFFFFFFFFFFFFFFFFFFFFFFFFFFFFFFFFFFFFFFFFFFFFF
310
FFFFFFFFFFFFFFFFFFFFFFFFFFFFFFFFFFFFFFFFFFFFFFFFFFFFFFFFFFFFFFFF
310
52006F006F007400200045006E00740072007900000000000000000000000000
310
0000000000000000000000000000000000000000000000000000000000000000
310
16000500FFFFFFFFFFFFFFFF020000000A00030000000000C000000000000046
310
000000000000000000000000D0C4AC7A9AF8D10103000000C000000000000000
310
01004F006C006500000000000000000000000000000000000000000000000000
310
0000000000000000000000000000000000000000000000000000000000000000
310
0A000200FFFFFFFFFFFFFFFFFFFFFFFF00000000000000000000000000000000
310
0000000000000000000000000000000000000000000000001400000000000000
310
010043006F006D0070004F0062006A0000000000000000000000000000000000
310
0000000000000000000000000000000000000000000000000000000000000000
310
120002010100000003000000FFFFFFFF00000000000000000000000000000000
310
0000000000000000000000000000000000000000010000004D00000000000000
310
01004F006C006500310030004E00610074006900760065000000000000000000
310
0000000000000000000000000000000000000000000000000000000000000000
310
1A000200FFFFFFFFFFFFFFFFFFFFFFFF00000000000000000000000000000000
310
0000000000000000000000000000000000000000040000002426000000000000
310
FEFFFFFF02000000FEFFFFFFFFFFFFFFFFFFFFFFFFFFFFFFFFFFFFFFFFFFFFFF
310
FFFFFFFFFFFFFFFFFFFFFFFFFFFFFFFFFFFFFFFFFFFFFFFFFFFFFFFFFFFFFFFF
310
FFFFFFFFFFFFFFFFFFFFFFFFFFFFFFFFFFFFFFFFFFFFFFFFFFFFFFFFFFFFFFFF
310
FFFFFFFFFFFFFFFFFFFFFFFFFFFFFFFFFFFFFFFFFFFFFFFFFFFFFFFFFFFFFFFF
310
FFFFFFFFFFFFFFFFFFFFFFFFFFFFFFFFFFFFFFFFFFFFFFFFFFFFFFFFFFFFFFFF
310
FFFFFFFFFFFFFFFFFFFFFFFFFFFFFFFFFFFFFFFFFFFFFFFFFFFFFFFFFFFFFFFF
310
FFFFFFFFFFFFFFFFFFFFFFFFFFFFFFFFFFFFFFFFFFFFFFFFFFFFFFFFFFFFFFFF
310
FFFFFFFFFFFFFFFFFFFFFFFFFFFFFFFFFFFFFFFFFFFFFFFFFFFFFFFFFFFFFFFF
310
FFFFFFFFFFFFFFFFFFFFFFFFFFFFFFFFFFFFFFFFFFFFFFFFFFFFFFFFFFFFFFFF
310
FFFFFFFFFFFFFFFFFFFFFFFFFFFFFFFFFFFFFFFFFFFFFFFFFFFFFFFFFFFFFFFF
310
FFFFFFFFFFFFFFFFFFFFFFFFFFFFFFFFFFFFFFFFFFFFFFFFFFFFFFFFFFFFFFFF
310
FFFFFFFFFFFFFFFFFFFFFFFFFFFFFFFFFFFFFFFFFFFFFFFFFFFFFFFFFFFFFFFF
310
FFFFFFFFFFFFFFFFFFFFFFFFFFFFFFFFFFFFFFFFFFFFFFFFFFFFFFFFFFFFFFFF
310
FFFFFFFFFFFFFFFFFFFFFFFFFFFFFFFFFFFFFFFFFFFFFFFFFFFFFFFFFFFFFFFF
310
FFFFFFFFFFFFFFFFFFFFFFFFFFFFFFFFFFFFFFFFFFFFFFFFFFFFFFFFFFFFFFFF
310
FFFFFFFFFFFFFFFFFFFFFFFFFFFFFFFFFFFFFFFFFFFFFFFFFFFFFFFFFFFFFFFF
310
0100000200000000000000000000000000000000000000000000000000000000
310
0000000000000000000000000000000000000000000000000000000000000000
310
0100FEFF030A0000FFFFFFFF0A00030000000000C00000000000004607000000
310
5042727573680007000000504272757368000700000050427275736800F439B2
310
7100000000000000000000000000000000000000000000000000000000000000
310
0000000000000000000000000000000000000000000000000000000000000000
310
0000000000000000000000000000000000000000000000000000000000000000
310
0000000000000000000000000000000000000000000000000000000000000000
310
0000000000000000000000000000000000000000000000000000000000000000
310
0000000000000000000000000000000000000000000000000000000000000000
310
0000000000000000000000000000000000000000000000000000000000000000
310
0000000000000000000000000000000000000000000000000000000000000000
310
0000000000000000000000000000000000000000000000000000000000000000
310
0000000000000000000000000000000000000000000000000000000000000000
310
0000000000000000000000000000000000000000000000000000000000000000
310
0000000000000000000000000000000000000000000000000000000000000000
310
20260000424D0E260000000000003E00000028000000B40200006E0000000100
310
01000000000000000000130B0000130B00000200000002000000000000FFFFFF
310
FFFFFFFFFFFFFFFFFFFFFFFFFFFFFFFFFFFFFFFFFFFFFFFFFFFFFFFFFFFFFFFF
310
FFFFFFFFFFFFFFFFFFFFFFFFFFFFFFFFFFFFFFFFFFFFFFFFFFFFFFFFFFFFFFFF
310
FFFFFFFFFFFFFFFFFFFFFFFFFFFFFFFFFFFFFFFFFFFFFFFFF000FFFFFFFFFFFF
310
FFFFFFFFFFFFFFFFFFFFFFFFFFFFFFFFFFFFFFFFFFFFFFFFFFFFFFFFFFFFFFFF
310
FFFFFFFFFFFFFFFFFFFFFFFFFFFFFFFFFFFFFFFFFFFFFFFFFFFFFFFFFFFFFFFF
310
FFFFFFFFFFFFFFFFFFFFFFFFFFFFFFFFF000FFFFFFFFFFFFFFFFFFFFFFFFFFFF
310
FFFFFFFFFFFFFFFFFFFFFFFFFFFFFFFFFFFFFFFFFFFFFFFFFFFFFFFFFFFFFFFF
310
FFFFFFFFFFFFFFFFFFFFFFFFFFFFFFFFFFFFFFFFFFFFFFFFFFFFFFFFFFFFFFFF
310
FFFFFFFFFFFFFFFFF000FFFFFFFFFFFFFFFFFFFFFFFFFFFFFFFFFFFFFFFFFFFF
310
FFFFFFFFFFFFFFFFFFFFFFFFFFFFFFFFFFFFFFFFFFFFFFFFFFFFFFFFFFFFFFFF
310
FFFFFFFFFFFFFFFFFFFFFFFFFFFFFFFFFFFFFFFFFFFFFFFFFFFFFFFFFFFFFFFF
310
F000FFFFFFFFFFFFFFFFFFFFFFFFFFFFFFFFFFFFFFFFFFFFFFFFFFFFFFFFFFFF
310
FFFFFFFFFFFFFFFFFFFFFFFFFFFFFFFFFFFFFFFFFFFFFFFFFFFFFFFFFFFFFFFF
310
FFFFFFFFFFFFFFFFFFFFFFFFFFFFFFFFFFFFFFFFFFFFFFFFF000FFFFFFFFFFFF
310
FFFFFFFFFFFFFFFFFFFFFFFFFFFFFFFFFFFFFFFFFFFFFFFFFFFFFFFFFFFFFFFF
310
FFFFFFFFFFFFFFFFFFFFFFFFFFFFFFFFFFFFFFFFFFFFFFFFFFFFFFFFFFFFFFFF
310
FFFFFFFFFFFFFFFFFFFFFFFFFFFFFFFFF000FFFFFFFFFFFFFFFFFFFFFFFFFFFF
310
FFFFFFFFFFFFFFFFFFFFFFFFFFFFFFFFFFFFFFFFFFFFFFFFFFFFFFFFFFFFFFFF
310
FFFFFFFFFFFFFFFFFFFFFFFFFFFFFFFFFFFFFFFFFFFFFFFFFFFFFFFFFFFFFFFF
310
FFFFFFFFFFFFFFFFF000FFFFFFFFFFFFFFFFFFFFFFFFFFFFFFFFFFFFFFFFFFFF
310
FFFFFFFFFFFFFFFFFFFFFFFFFFFFFFFFFFFFFFFFFFFFFFFFFFFFFFFFFFFFFFFF
310
FFFFFFFFFFFFFFFFFFFFFFFFFFFFFFFFFFFFFFFFFFFFFFFFFFFFFFFFFFFFFFFF
310
F000FFFFFFFFFFFFFFFFFFFFFFFFFFFFFFFFFFFFFFFFFFFFFFFFFFFFFFFFFFFF
310
FFFFFFFFFFFFFFFFFFFFFFFFFFFFFFFFFFFFFFFFFFFFFFFFFFFFFFFFFFFFFFFF
310
FFFFFFFFFFFFFFFFFFFFFFFFFFFFFFFFFFFFFFFFFFFFFFFFF000FFFFFFFFFFFF
310
FFFFFFFFFFFFFFFFFFFFFFFFFFFFFFFFFFFFFFFFFFFFFFFFFFFFFFFFFFFFFFFF
310
FFFFFFFFFFFFFFFFFFFFFFFFFFFFFFFFFFFFFFFFFFFFFFFFFFFFFFFFFFFFFFFF
310
FFFFFFFFFFFFFFFFFFFFFFFFFFFFFFFFF000FFFFFFFFFFFFFFFFFFFFFFFFFFFF
310
FFFFFFFFFFFFFFFFFFFFFFFFFFFFFFFFFFFFFFFFFFFFFFFFFFFFFFFFFFFFFFFF
310
FFFFFFFFFFFFFFFFFFFFFFFFFFFFFFFFFFFFFFFFFFFFFFFFFFFFFFFFFFFFFFFF
310
FFFFFFFFFFFFFFFFF000FFFFFFFFFFFFFFFFFFFFFFFFFFFFFFFFFFFFFFFFFFFF
310
FFFFFFFFFFFFFFFFFFFFFFFFFFFFFFFFFFFFFFFFFFFFFFFFFFFFFFFFFFFFFFFF
310
FFFFFFFFFFFFFFFFFFFFFFFFFFFFFFFFFFFFFFFFFFFFFFFFFFFFFFFFFFFFFFFF
310
F000FFFFFFFFFFFFFFFFFFFFFFFFFFFFFFFFFFFFFFFFFFFFFFFFFFFFFFFFFFFF
310
FFFFFFFFFFFFFFFFFFFFFFFFFFFFFFFFFFFFFFFFFFFFFFFFFFFFFFFFFFFFFFFF
310
FFFFFFFFFFFFFFFFFFFFFFFFFFFFFFFFFFFFFFFFFFFFFFFFF000FFFFFFFFFFFF
310
FFFFFFFFFFFFFFFFFFFFFFFFFFFFFFFFFFFFFFFFFFFFFFFFFFFFFFFFFFFFFFFF
310
FFFFFFFFFFFFFFFFFFFFFFFFFFFFFFFFFFFFFFFFFFFFFFFFFFFFFFFFFFFFFFFF
310
FFFFFFFFFFFFFFFFFFFFFFFFFFFFFFFFF000FFFFFFFFFFFFFFFFFFFFFFFFFFFF
310
FFFFFFFFFFFFFFFFFFFFFFFFFFFFFFFFFFFFFFFFFFFFFFFFFFFFFFFFFFFFFFFF
310
FFFFFFFFFFFFFFFFFFFFFFFFFFFFFFFFFFFFFFFFFFFFFFFFFFFFFFFFFFFFFFFF
310
FFFFFFFFFFFFFFFFF000FFFFFFFFFFFFFFFFFFFFFFFFFFFFFFFFFFFFFFFFFFFF
310
FFFFFFFFFFFFFFFFFFFFFFFFFFFFFFFFFFFFFFFFFFFFFFFFFFFFFFFFFFFFFFFF
310
FFFFFFFFFFFFFFFFFFFFFFFFFFFFFFFFFFFFFFFFFFFFFFFFFFFFFFFFFFFFFFFF
310
F000FFFFFFFFFFFFFFFFFFFFFFFFFFFFFFFFFFFFFFFFFFFFFFFFFFFFFFFFFFFF
310
FFFFFFFFFFFFFFFFFFFFFFFFFFFFFFFFFFFFFFFFFFFFFFFFFFFFFFFFFFFFFFFF
310
FFFFFFFFFFFFFFFFFFFFFFFFFFFFFFFFFFFFFFFFFFFFFFFFF000FFFFFFFFFFFF
310
FFFFFFFFFFFFFFFFFFFFFFFFFFFFFFFFFFFFFFFFFFFFFFFFFFFFFFFFFFFFFFFF
310
FFFFFFFFFFFFFFFFFFFFFFFFFFFFFFFFFFFFFFFFFFFFFFFFFFFFFFFFFFFFFFFF
310
FFFFFFFFFFFFFFFFFFFFFFFFFFFFFFFFF000FFFFFFFFFFFFFFFFFFFFFFFFFFFF
310
FFFFFFFFFFFFFFFFFFFFFFFFFFFFFFFFFFFFFFFFFFFFFFFFFFFFFFFFFFFFFFFF
310
FFFFFFFFFFFFFFFFFFFFFFFFFFFFFFFFFFFFFFFFFFFFFFFFFFFFFFFFFFFFFFFF
310
FFFFFFFFFFFFFFFFF000FFFFF80003FFFFFFFFFFFFFFFFFFFFFFFFFFFFFFFFFF
310
FFFFF00007FFFFFFFFFF00007FFFFFF800000000000000007FFFFFFFFFFFFFFF
310
FFFFFFFC001FFFFFFFFFFFFFFC001FFFFFFFFFFFFFFFFFFFFFFFFFFE0007FFFF
310
F000FFFF8000007FFFFFFFF8000FFFFFC0007FFFFF80007FFFFF0000007FFFFF
310
FFF8000007FFFFF800000000000000007FFFFFF0001FFFFFFFFFFFC00001FFFF
310
FFFFFFFFC00001FFFFFFFF000000000003FFFFE000007FFFF000FFFE0000000F
310
FFFFFFF0000FFFFF80007FFFFF80007FFFFC0000001FFFFFFFC0000001FFFFF8
310
00000000000000007FFFFFF0001FFFFFFFFFFE0000003FFFFFFFFFFE0000003F
310
FFFFFF000000000003FFFF0000000FFFF000FFF800000003FFFFFFF00007FFFF
310
80007FFFFF80007FFFF000000007FFFFFF000000003FFFF80000000000000000
310
7FFFFFF0001FFFFFFFFFF80000000FFFFFFFFFF80000000FFFFFFF0000000000
310
03FFFC00000003FFF000FFE000000000FFFFFFF00007FFFF80003FFFFF80007F
310
FFC000000001FFFFFC000000001FFFF800000000000000007FFFFFF0001FFFFF
310
FFFFE000000003FFFFFFFFE000000003FFFFFF000000000003FFF000000000FF
310
F000FF80000000007FFFFFF00007FFFF80003FFFFF80007FFF8000000000FFFF
310
F80000000007FFF800000000000000007FFFFFF0001FFFFFFFFFC000000001FF
310
FFFFFFC000000001FFFFFF000000000003FFC0000000007FF000FF0000000000
310
3FFFFFE00007FFFF00003FFFFF80007FFE00000000003FFFF00000000003FFF8
310
00000000000000007FFFFFF0001FFFFFFFFF8000000000FFFFFFFF8000000000
310
FFFFFF000000000003FF80000000003FF000FE00000000001FFFFFE00003FFFF
310
00003FFFFF80007FFC00000000001FFFE00000000001FFF8000001FFFE000000
310
7FFFFFF0001FFFFFFFFE00000000003FFFFFFE00000000003FFFFF0000000000
310
03FF00000000001FF000FC00000000000FFFFFE00003FFFF00001FFFFF80007F
310
F800000000001FFFC00000000000FFF8000001FFFE0000007FFFFFF0001FFFFF
310
FFFC00000000001FFFFFFC00000000001FFFFF000000000003FE00000000000F
310
F000F8000000000007FFFFE00003FFFF00001FFFFF80007FF800000000000FFF
310
800000000000FFF8000001FFFE0000007FFFFFF0001FFFFFFFF800000000000F
310
FFFFF800000000000FFFFF000000000003FC000000000007F000F80000000000
310
03FFFFC00003FFFE00001FFFFF80007FF0000000000007FF0000000000007FF8
310
000001FFFE0000007FFFFFF0001FFFFFFFF0000000000007FFFFF00000000000
310
07FFFF000000000003F8000000000003F000F0000000000003FFFFC00001FFFE
310
00001FFFFF80007FE0000000000007FE0000000000003FF8000001FFFE000000
310
7FFFFFF0001FFFFFFFF0000000000007FFFFF0000000000007FFFF0000000000
310
03F800001F800003F000E00001FFF00001FFFFC00001FFFE00000FFFFF80007F
310
E00001FFE00003FE00001FFF00003FF8000001FFFE0000007FFFFFF0001FFFFF
310
FFE000003E000003FFFFE000003E000003FFFF000000000003F00001FFF80001
310
F000E00007FFFC0001FFFFC00001FFFE00000FFFFF80007FC0000FFFFC0003FC
310
0000FFFFC0001FF8000001FFFE0000007FFFFFF0001FFFFFFFC00003FFE00001
310
FFFFC00003FFE00001FFFF0001FFFFFFFFF00007FFFE0001F000E0000FFFFF00
310
00FFFF800001FFFC00000FFFFF80007FC0001FFFFE0001FC0001FFFFE0001FF8
310
000001FFFE0000007FFFFFF0001FFFFFFF80000FFFF80000FFFF80000FFFF800
310
00FFFF0003FFFFFFFFE0000FFFFF8000F000C0003FFFFF8000FFFF800000FFFC
310
000007FFFF80007F80003FFFFF0001FC0003FFFFF0001FF8000001FFFE000000
310
7FFFFFF0001FFFFFFF80003FFFFE0000FFFF80003FFFFE0000FFFF0003FFFFFF
310
FFE0003FFFFF8000F000C0003FFFFF8000FFFF800000FFFC000007FFFF80007F
310
80007FFFFF8001F80007FFFFF8000FF8000001FFFE0000007FFFFFF0001FFFFF
310
FF00007FFFFF00007FFF00007FFFFF00007FFF0003FFFFFFFFE0003FFFFFC000
310
F000C0007FFFFFC000FFFF000000FFFC000007FFFF80007F8000FFFFFF8000F8
310
000FFFFFF8000FF8000001FFFE0000007FFFFFF0001FFFFFFF0000FFFFFF8000
310
7FFF0000FFFFFF80007FFF0003FFFFFFFFC0007FFFFFC00070008000FFFFFFC0
310
00FFFF000000FFF8000007FFFF80007F8000FFFFFF8000F8000FFFFFF8000FF8
310
000001FFFE0000007FFFFFF0001FFFFFFE0001FFFFFFC0003FFE0001FFFFFFC0
310
003FFF0003FFFFFFFFC0007FFFFFE00070008000FFFFFFC0007FFF0000007FF8
310
000003FFFF80007F0001FFFFFF8000F8000FFFFFF8000FF8000001FFFE000000
310
7FFFFFF0001FFFFFFE0001FFFFFFC0003FFE0001FFFFFFC0003FFF0003FFFFFF
310
FFC000FFFFFFE00070008000FFFFFFC0007FFF0000007FF8000003FFFF80007F
310
0001FFFFFF8000F8001FFFFFF8000FF8000001FFFE0000007FFFFFF0001FFFFF
310
FE0003FFFFFFE0003FFE0003FFFFFFE0003FFF0003FFFFFFFFC000FFFFFFE000
310
70008000FFFFFFC0007FFE0000007FF8000003FFFF80007F0001FFFFFF8000F0
310
001FFFFFF8000FF8000001FFFE0000007FFFFFF0001FFFFFFC0003FFFFFFE000
310
1FFC0003FFFFFFE0001FFF0003FFFFFFFFC000FFFFFFC00070008000FFFFFF80
310
007FFE0000007FF0000003FFFF80007F0001FFFFFF0000F0001FFFFFF8000FF8
310
000001FFFE0000007FFFFFF0001FFFFFFC0007FFFFFFF0001FFC0007FFFFFFF0
310
001FFF0003FFFFFFFFC000FFFFFFC00070008001FFFFFF0000FFFE0000003FF0
310
000001FFFF80007F0001FFFFFF0000F8001FFFFFF0000FF8000001FFFE000000
310
7FFFFFF0001FFFFFFC0007FFFFFFF0001FFC0007FFFFFFF0001FFF0003FFFFFF
310
FFC001FFFFFF80007000FFFFFFFFFE0000FFFE0008003FF0008001FFFF80007F
310
FFFFFFFFFC0000FFFFFFFFFFE0000FF8000001FFFE0000007FFFFFF0001FFFFF
310
F8000FFFFFFFF8000FF8000FFFFFFFF8000FFF0003FFFFFFFFFFFFFFFFFF0000
310
7000FFFFFFFFFC0000FFFC0008003FF0008001FFFF80007FFFFFFFFFF80001FF
310
FFFFFFFF80000FF8000001FFFE0000007FFFFFF0001FFFFFF8000FFFFFFFF800
310
0FF8000FFFFFFFF8000FFF0003FFFFFFFFFFFFFFFFFE0000F000FFFFFFFFE000
310
00FFFC000C003FE000C001FFFF80007FFFFFFFFFC00001FFFFFFFFFE00001FF8
310
000001FFFE0000007FFFFFF0001FFFFFF8000FFFFFFFF8000FF8000FFFFFFFF8
310
000FFF0003FFFFFFFFFFFFFFFFF00000F000FFFFFFFE000001FFFC000C001FE0
310
00C000FFFF80007FFFFFFFFE000001FFFFFFFFE000001FF80FFFFFFFFFFFFFC0
310
7FFFFFF0001FFFFFF8000FFFFFFFF8000FF8000FFFFFFFF8000FFF0003FFFFFF
310
FFFFFFFFFF800000F000FFFFFFC0000001FFFC001C001FE001C000FFFF80007F
310
FFFFFF80000003FFFFFFF80000001FF80FFFFFFFFFFFFFC07FFFFFF0001FFFFF
310
F8001FFFFFFFFC000FF8001FFFFFFFFC000FFF0003FFFFFFFFFFFFFFF0000001
310
F000FFFFF800000001FFF8001C001FE001C000FFFF80007FFFFFF800000003FF
310
FFFF800000003FF80FFFFFFFFFFFFFC07FFFFFF0001FFFFFF8001FFFFFFFFC00
310
0FF8001FFFFFFFFC000FFF0003FFFFFFFFFFFFFE00000001F000FFFFC0000000
310
03FFF8001E001FC001E000FFFF80007FFFFF8000000007FFFFFC000000003FF8
310
0FFFFFFFFFFFFFC07FFFFFF0001FFFFFF8001FFFFFFFFC000FF8001FFFFFFFFC
310
000FFF0003FFFFFFFFFFFFE000000003F000FFFE0000000007FFF8001E000FC0
310
01E0007FFF80007FFFFE0000000007FFFFE0000000007FF80FFFFFFFFFFFFFC0
310
7FFFFFF0001FFFFFF0001FFFFFFFFC0007F0001FFFFFFFFC0007FF0003FFFFFF
310
FFFFFF0000000003F000FFF80000000007FFF8001E000FC003E0007FFF80007F
310
FFF0000000000FFFFF8000000000FFF80FFFFFFFFFFFFFC07FFFFFF0001FFFFF
310
F0001FFFFFFFFC0007F0001FFFFFFFFC0007FF0003FFFFFFFFFFFC0000000007
310
F000FFE0000000000FFFF0003E000FC003E0007FFF80007FFFC0000000001FFF
310
FE0000000001FFF80FFFFFFFFFFFFFC07FFFFFF0001FFFFFF0001FFFFFFFFC00
310
07F0001FFFFFFFFC0007FF0003FFFFFFFFFFF0000000000FF000FFC000000000
310
1FFFF0003F000F8003F0003FFF80007FFF80000000003FFFF80000000003FFF8
310
0FFFFFFFFFFFFFC07FFFFFF0001FFFFFF0001FFFFFFFFC0007F0001FFFFFFFFC
310
0007FF0003FFFFFFFFFFE0000000001FF000FF00000000007FFFF0003F000780
310
03F0003FFF80007FFF00000000007FFFF00000000007FFF80FFFFFFFFFFFFFC0
310
7FFFFFF0001FFFFFF0001FFFFFFFFC0007F0001FFFFFFFFC0007FF0003FFFFFF
310
FFFF80000000007FF000FE0000000000FFFFE0003F00078007F0003FFF80007F
310
FE0000000001FFFFE0000000001FFFF80FFFFFFFFFFFFFC07FFFFFF0001FFFFF
310
F0001FFFFFFFFC0007F0001FFFFFFFFC0007FF0003FFFFFFFFFF0000000000FF
310
F000FC0000000003FFFFE0007F00078007F0003FFF80007FFC0000000007FFFF
310
C0000000007FFFF80FFFFFFFFFFFFFC07FFFFFF0001FFFFFF8001FFFFFFFFC00
310
0FF8001FFFFFFFFC000FFF0003FFFFFFFFFE0000000003FFF000FC000000000F
310
FFFFE0007F80070007F8001FFF80007FF8000000001FFFFF8000000001FFFFF8
310
0FFFFFFFFFFFFFC07FFFFFF0001FFFFFF8001FFFFFFFFC000FF8001FFFFFFFFC
310
000FFF0003FFFFFFFFFC000000000FFFF000F8000000007FFFFFE0007F800700
310
07F8001FFF80007FF000000000FFFFFF800000000FFFFFF80FFFFFFFFFFFFFC0
310
7FFFFFF0001FFFFFF8000FFFFFFFF8000FF8000FFFFFFFF8000FFF0003FFFFFF
310
FFFC000000007FFFF000F800000007FFFFFFC0007F8003000FF8001FFF80007F
310
F000000007FFFFFF000000007FFFFFF80FFFFFFFFFFFFFC07FFFFFF0001FFFFF
310
F8000FFFFFFFF8000FF8000FFFFFFFF8000FFF0003FFFFFFFFF80000000FFFFF
310
F000F0000000FFFFFFFFC000FF8003000FF8001FFF80007FE0000000FFFFFFFF
310
0000000FFFFFFFF8000001FFFE0000007FFFFFF0001FFFFFF8000FFFFFFFF800
310
0FF8000FFFFFFFF8000FFF0003FFFFFFFFF8000000FFFFFFF000F000000FFFFF
310
FFFFC000FFC002000FF8000FFF80007FE000001FFFFFFFFE000001FFFFFFFFF8
310
000001FFFE0000007FFFFFF0001FFFFFF8000FFFFFFFF8000FF8000FFFFFFFF8
310
000FFF0003FFFFFFFFF000001FFFFFFFF000E00000FFFFFFFFFFC000FFC00200
310
0FFC000FFF80007FE00001FFFFFFFFFE00001FFFFFFFFFF8000001FFFE000000
310
7FFFFFF0001FFFFFFC000FFFFFFFF8001FFC000FFFFFFFF8001FFF0003FFFFFF
310
FFF00001FFFFFFFFF000E00007FFFFFFFFFF8000FFC000001FFC000FFF80007F
310
C0000FFFFFFFFFFE0000FFFFFFFFFFF8000001FFFE0000007FFFFFF0001FFFFF
310
FC0007FFFFFFF0001FFC0007FFFFFFF0001FFF0003FFFFFFFFF00007FFFFFFFF
310
F000E0001FFFFFFFFFFF8000FFC000001FFC000FFF80007FC0003FFFFFFFFFFE
310
0001FFFFFFFFFFF8000001FFFE0000007FFFFFF0001FFFFFFC0007FFFFFFF000
310
1FFC0007FFFFFFF0001FFF0003FFFFFFFFF0001FFFFFFFFFF000E0003FFFFF00
310
03FF8001FFE000001FFC0007FF80007FC0007FFFFF0007FC0003FFFFF0003FF8
310
000001FFFE0000007FFFFFF0001FFFFFFC0003FFFFFFE0001FFC0003FFFFFFE0
310
001FFF0003FFFFFFFFF0003FFFFFFFFFF000E0003FFFFF0001FF8001FFE00000
310
1FFE0007FF80007FC0007FFFFE0003FC0007FFFFE0003FF8000001FFFE000000
310
7FFFFFF0001FFFFFFE0003FFFFFFE0003FFE0003FFFFFFE0003FFF0003FFFFFF
310
FFF0003FFFFF8001F000E0003FFFFF0001FF0001FFE000001FFE0007FF80007F
310
C0007FFFFE0003FC0007FFFFE0003FF8000001FFFE0000007FFFFFF0001FFFFF
310
FE0001FFFFFFC0003FFE0001FFFFFFC0003FFF0003FFFFFFFFF0003FFFFF0001
310
F000E0003FFFFF0003FF0001FFE000003FFE0007FF80007FC0007FFFFE0003FC
310
0007FFFFE0003FF8000001FFFE0000007FFFFFF0001FFFFFFF0001FFFFFFC000
310
7FFF0001FFFFFFC0007FFF0003FFFFFFFFF0003FFFFF0001F000E0003FFFFE00
310
03FF0003FFF000003FFE0003FF80007FC0007FFFFC0003FE0007FFFFE0003FF8
310
000001FFFE0000007FFFFFF0001FFFFFFF0000FFFFFF80007FFF0000FFFFFF80
310
007FFF0003FFFFFFFFF0003FFFFF0001F000E0003FFFFE0003FF0003FFF00000
310
3FFF0003FF80007FC0007FFFFC0007FE0007FFFFC0003FF8000001FFFE000000
310
7FFFFFF0001FFFFFFF80007FFFFF0000FFFF80007FFFFF0000FFFF0003FFFFFF
310
FFF0003FFFFF0003F000E0003FFFFC0003FE0003FFF000003FFF0003FF80007F
310
E0003FFFF80007FE0003FFFFC0007FF8000001FFFE0000007FFFFFF0001FFFFF
310
FF80003FFFFE0000FFFF80003FFFFE0000FFFF0003FFFFFFFFF0001FFFFE0003
310
F000F0001FFFF80003FE0003FFF000007FFF0001FF80007FE0003FFFF00007FE
310
0001FFFF80007FF8000001FFFE0000007FFFFFF0001FFFFFFFC0000FFFF80001
310
FFFFC0000FFFF80001FFFF0003FFFFFFFFF0001FFFFC0003F000F0000FFFF000
310
07FE0007FFF800007FFF0001FF80007FE0001FFFE00007FF0000FFFE00007FF8
310
000001FFFE0000007FFFFFF0001FFFFFFFC00003FFE00001FFFFC00003FFE000
310
01FFFF0003FFFFFFFFF8000FFFF80003F000F00003FFC00007FC0007FFF80000
310
7FFF8001FF80007FF00007FF80000FFF00007FF80000FFF8000001FFFE000000
310
7F80000000000001FFE000003E000003FFFFE000003E000003FFFF0003FFFFFF
310
FFF80003FFE00007F000F800000000000FFC0007FFF800007FFF8001FF80007F
310
F000000000000FFF000000000000FFF8000001FFFE0000007F80000000000001
310
FFF0000000000007FFFFF0000000000007FFFF0003FFFFFFFFFC00007E000007
310
F000F800000000000FFC0007FFF80000FFFF8000FF80007FF800000000001FFF
310
800000000001FFF8000001FFFE0000007F80000000000001FFF800000000000F
310
FFFFF800000000000FFFFF0003FFFFFFFFFC00000000000FF000FC0000000000
310
1FFC0007FFFC0000FFFF8000FF80007FF800000000003FFFC00000000001FFF8
310
000001FFFE0000007F80000000000001FFF800000000000FFFFFF80000000000
310
0FFFFF0003FFFFFFFFFE00000000001FF000FE00000000003FF8000FFFFC0000
310
FFFF8000FF80007FFC00000000003FFFC00000000003FFF8000001FFFE000000
310
7F80000000000001FFFC00000000001FFFFFFC00000000001FFFFF0003FFFFFF
310
FFFF00000000001FF000FF00000000003FF8000FFFFC0000FFFFC000FF80007F
310
FE00000000007FFFE00000000007FFF8000001FFFE0000007F80000000000001
310
FFFE00000000003FFFFFFE00000000003FFFFF0003FFFFFFFFFF80000000003F
310
F000FF80000000007FF8000FFFFC0001FFFFC0007F80007FFF0000000000FFFF
310
F0000000000FFFF800000000000000007F80000000000001FFFF8000000000FF
310
FFFFFF8000000000FFFFFF0003FFFFFFFFFFC0000000007FF000FFC000000000
310
FFF8000FFFFE0001FFFFC0007F80007FFF8000000001FFFFF8000000001FFFF8
310
00000000000000007F80000000000001FFFFC000000001FFFFFFFFC000000001
310
FFFFFF0003FFFFFFFFFFE000000000FFF000FFE000000003FFF0001FFFFE0001
310
FFFFC0007F80007FFFC000000007FFFFFE000000003FFFF80000000000000000
310
7F80000000000001FFFFE000000003FFFFFFFFE000000003FFFFFF0003FFFFFF
310
FFFFF000000003FFF000FFF80000000FFFF0001FFFFE0001FFFFE0007F80007F
310
FFF00000000FFFFFFF00000000FFFFF800000000000000007F80000000000001
310
FFFFF80000000FFFFFFFFFF80000000FFFFFFF0003FFFFFFFFFFFC0000000FFF
310
F000FFFE0000003FFFF0001FFFFE0003FFFFE0003F80007FFFFC0000003FFFFF
310
FFC0000003FFFFF800000000000000007F80000000000001FFFFFE0000003FFF
310
FFFFFFFE0000003FFFFFFF0003FFFFFFFFFFFF0000003FFFF000FFFF800000FF
310
FFF0001FFFFF0003FFFFE0003F80007FFFFF000001FFFFFFFFF800001FFFFFF8
310
00000000000000007F80000000000001FFFFFFC00001FFFFFFFFFFFFC00001FF
310
FFFFFF0003FFFFFFFFFFFFC00000FFFFF000FFFFF8000FFFFFFFFFFFFFFFFFFF
310
FFFFFFFFFFFFFFFFFFFFF0001FFFFFFFFFFF0000FFFFFFF80000000000000000
310
7FFFFFFFFFFFFFFFFFFFFFFC001FFFFFFFFFFFFFFC001FFFFFFFFFFFFFFFFFFF
310
FFFFFFFC001FFFFFF000FFFFFFFFFFFFFFFFFFFFFFFFFFFFFFFFFFFFFFFFFFFF
310
FFFFFFFFFFFFFFFFFFFFFFFFFFFFFFFFFFFFFFFFFFFFFFFFFFFFFFFFFFFFFFFF
310
FFFFFFFFFFFFFFFFFFFFFFFFFFFFFFFFFFFFFFFFFFFFFFFFFFFFFFFFFFFFFFFF
310
F000FFFFFFFFFFFFFFFFFFFFFFFFFFFFFFFFFFFFFFFFFFFFFFFFFFFFFFFFFFFF
310
FFFFFFFFFFFFFFFFFFFFFFFFFFFFFFFFFFFFFFFFFFFFFFFFFFFFFFFFFFFFFFFF
310
FFFFFFFFFFFFFFFFFFFFFFFFFFFFFFFFFFFFFFFFFFFFFFFFF000FFFFFFFFFFFF
310
FFFFFFFFFFFFFFFFFFFFFFFFFFFFFFFFFFFFFFFFFFFFFFFFFFFFFFFFFFFFFFFF
310
FFFFFFFFFFFFFFFFFFFFFFFFFFFFFFFFFFFFFFFFFFFFFFFFFFFFFFFFFFFFFFFF
310
FFFFFFFFFFFFFFFFFFFFFFFFFFFFFFFFF000FFFFFFFFFFFFFFFFFFFFFFFFFFFF
310
FFFFFFFFFFFFFFFFFFFFFFFFFFFFFFFFFFFFFFFFFFFFFFFFFFFFFFFFFFFFFFFF
310
FFFFFFFFFFFFFFFFFFFFFFFFFFFFFFFFFFFFFFFFFFFFFFFFFFFFFFFFFFFFFFFF
310
FFFFFFFFFFFFFFFFF000FFFFFFFFFFFFFFFFFFFFFFFFFFFFFFFFFFFFFFFFFFFF
310
FFFFFFFFFFFFFFFFFFFFFFFFFFFFFFFFFFFFFFFFFFFFFFFFFFFFFFFFFFFFFFFF
310
FFFFFFFFFFFFFFFFFFFFFFFFFFFFFFFFFFFFFFFFFFFFFFFFFFFFFFFFFFFFFFFF
310
F000FFFFFFFFFFFFFFFFFFFFFFFFFFFFFFFFFFFFFFFFFFFFFFFFFFFFFFFFFFFF
310
FFFFFFFFFFFFFFFFFFFFFFFFFFFFFFFFFFFFFFFFFFFFFFFFFFFFFFFFFFFFFFFF
310
FFFFFFFFFFFFFFFFFFFFFFFFFFFFFFFFFFFFFFFFFFFFFFFFF000FFFFFFFFFFFF
310
FFFFFFFFFFFFFFFFFFFFFFFFFFFFFFFFFFFFFFFFFFFFFFFFFFFFFFFFFFFFFFFF
310
FFFFFFFFFFFFFFFFFFFFFFFFFFFFFFFFFFFFFFFFFFFFFFFFFFFFFFFFFFFFFFFF
310
FFFFFFFFFFFFFFFFFFFFFFFFFFFFFFFFF000FFFFFFFFFFFFFFFFFFFFFFFFFFFF
310
FFFFFFFFFFFFFFFFFFFFFFFFFFFFFFFFFFFFFFFFFFFFFFFFFFFFFFFFFFFFFFFF
310
FFFFFFFFFFFFFFFFFFFFFFFFFFFFFFFFFFFFFFFFFFFFFFFFFFFFFFFFFFFFFFFF
310
FFFFFFFFFFFFFFFFF000FFFFFFFFFFFFFFFFFFFFFFFFFFFFFFFFFFFFFFFFFFFF
310
FFFFFFFFFFFFFFFFFFFFFFFFFFFFFFFFFFFFFFFFFFFFFFFFFFFFFFFFFFFFFFFF
310
FFFFFFFFFFFFFFFFFFFFFFFFFFFFFFFFFFFFFFFFFFFFFFFFFFFFFFFFFFFFFFFF
310
F000FFFFFFFFFFFFFFFFFFFFFFFFFFFFFFFFFFFFFFFFFFFFFFFFFFFFFFFFFFFF
310
FFFFFFFFFFFFFFFFFFFFFFFFFFFFFFFFFFFFFFFFFFFFFFFFFFFFFFFFFFFFFFFF
310
FFFFFFFFFFFFFFFFFFFFFFFFFFFFFFFFFFFFFFFFFFFFFFFFF000FFFFFFFFFFFF
310
FFFFFFFFFFFFFFFFFFFFFFFFFFFFFFFFFFFFFFFFFFFFFFFFFFFFFFFFFFFFFFFF
310
FFFFFFFFFFFFFFFFFFFFFFFFFFFFFFFFFFFFFFFFFFFFFFFFFFFFFFFFFFFFFFFF
310
FFFFFFFFFFFFFFFFFFFFFFFFFFFFFFFFF000FFFFFFFFFFFFFFFFFFFFFFFFFFFF
310
FFFFFFFFFFFFFFFFFFFFFFFFFFFFFFFFFFFFFFFFFFFFFFFFFFFFFFFFFFFFFFFF
310
FFFFFFFFFFFFFFFFFFFFFFFFFFFFFFFFFFFFFFFFFFFFFFFFFFFFFFFFFFFFFFFF
310
FFFFFFFFFFFFFFFFF000FFFFFFFFFFFFFFFFFFFFFFFFFFFFFFFFFFFFFFFFFFFF
310
FFFFFFFFFFFFFFFFFFFFFFFFFFFFFFFFFFFFFFFFFFFFFFFFFFFFFFFFFFFFFFFF
310
FFFFFFFFFFFFFFFFFFFFFFFFFFFFFFFFFFFFFFFFFFFFFFFFFFFFFFFFFFFFFFFF
310
F000FFFFFFFFFFFFFFFFFFFFFFFFFFFFFFFFFFFFFFFFFFFFFFFFFFFFFFFFFFFF
310
FFFFFFFFFFFFFFFFFFFFFFFFFFFFFFFFFFFFFFFFFFFFFFFFFFFFFFFFFFFFFFFF
310
FFFFFFFFFFFFFFFFFFFFFFFFFFFFFFFFFFFFFFFFFFFFFFFFF000FFFFFFFFFFFF
310
FFFFFFFFFFFFFFFFFFFFFFFFFFFFFFFFFFFFFFFFFFFFFFFFFFFFFFFFFFFFFFFF
310
FFFFFFFFFFFFFFFFFFFFFFFFFFFFFFFFFFFFFFFFFFFFFFFFFFFFFFFFFFFFFFFF
310
FFFFFFFFFFFFFFFFFFFFFFFFFFFFFFFFF000FFFFFFFFFFFFFFFFFFFFFFFFFFFF
310
FFFFFFFFFFFFFFFFFFFFFFFFFFFFFFFFFFFFFFFFFFFFFFFFFFFFFFFFFFFFFFFF
310
FFFFFFFFFFFFFFFFFFFFFFFFFFFFFFFFFFFFFFFFFFFFFFFFFFFFFFFFFFFFFFFF
310
FFFFFFFFFFFFFFFFF000FFFFFFFFFFFFFFFFFFFFFFFFFFFFFFFFFFFFFFFFFFFF
310
FFFFFFFFFFFFFFFFFFFFFFFFFFFFFFFFFFFFFFFFFFFFFFFFFFFFFFFFFFFFFFFF
310
FFFFFFFFFFFFFFFFFFFFFFFFFFFFFFFFFFFFFFFFFFFFFFFFFFFFFFFFFFFFFFFF
310
F000FFFFFFFFFFFFFFFFFFFFFFFFFFFFFFFFFFFFFFFFFFFFFFFFFFFFFFFFFFFF
310
FFFFFFFFFFFFFFFFFFFFFFFFFFFFFFFFFFFFFFFFFFFFFFFFFFFFFFFFFFFFFFFF
310
FFFFFFFFFFFFFFFFFFFFFFFFFFFFFFFFFFFFFFFFFFFFFFFFF000FFFFFFFFFFFF
310
FFFFFFFFFFFFFFFFFFFFFFFFFFFFFFFFFFFFFFFFFFFFFFFFFFFFFFFFFFFFFFFF
310
FFFFFFFFFFFFFFFFFFFFFFFFFFFFFFFFFFFFFFFFFFFFFFFFFFFFFFFFFFFFFFFF
310
FFFFFFFFFFFFFFFFFFFFFFFFFFFFFFFFF000FFFFFFFFFFFFFFFFFFFFFFFFFFFF
310
FFFFFFFFFFFFFFFFFFFFFFFFFFFFFFFFFFFFFFFFFFFFFFFFFFFFFFFFFFFFFFFF
310
FFFFFFFFFFFFFFFFFFFFFFFFFFFFFFFFFFFFFFFFFFFFFFFFFFFFFFFFFFFFFFFF
310
FFFFFFFFFFFFFFFFF000FFFFFFFFFFFFFFFFFFFFFFFFFFFFFFFFFFFFFFFFFFFF
310
FFFFFFFFFFFFFFFFFFFFFFFFFFFFFFFFFFFFFFFFFFFFFFFFFFFFFFFFFFFFFFFF
310
FFFFFFFFFFFFFFFFFFFFFFFFFFFFFFFFFFFFFFFFFFFFFFFFFFFFFFFFFFFFFFFF
310
F000FFFFFFFFFFFFFFFFFFFFFFFFFFFFFFFFFFFFFFFFFFFFFFFFFFFFFFFFFFFF
310
FFFFFFFFFFFFFFFFFFFFFFFFFFFFFFFFFFFFFFFFFFFFFFFFFFFFFFFFFFFFFFFF
310
FFFFFFFFFFFFFFFFFFFFFFFFFFFFFFFFFFFFFFFFFFFFFFFFF000FFFFFFFFFFFF
310
FFFFFFFFFFFFFFFFFFFFFFFFFFFFFFFFFFFFFFFFFFFFFFFFFFFFFFFFFFFFFFFF
310
FFFFFFFFFFFFFFFFFFFFFFFFFFFFFFFFFFFFFFFFFFFFFFFFFFFFFFFFFFFFFFFF
310
FFFFFFFFFFFFFFFFFFFFFFFFFFFFFFFFF0000000000000000000000000000000
310
0000000000000000000000000000000000000000000000000000000000000000
310
0000000000000000000000000000000000000000000000000000000000000000
310
0000000000000000000000000000000000000000000000000000000000000000
310
0000000000000000000000000000000000000000000000000000000000000000
310
0000000000000000000000000000000000000000000000000000000000000000
310
0000000000000000000000000000000000000000000000000000000000000000
310
0000000000000000000000000000000000000000000000000000000000000000
310
0000000000000000000000000000000000000000000000000000000000000000
310
0000000000000000000000000000000000000000000000000000000000000000
310
0000000000000000000000000000000000000000000000000000000000000000
310
0000000000000000000000000000000000000000000000000000000000000000
310
0000000000000000000000000000000000000000000000000000000000000000
310
0000000000000000000000000000000000000000000000000000000000000000
310
0000000000000000000000000000000000000000000000000000000000000000
310
0000000000000000000000000000000000000000000000000000000000000000
  1
OLE
  0
ENDSEC
  0
SECTION
  2
OBJECTS
  0
DICTIONARY
  5
C
330
0
100
AcDbDictionary
281
     1
  3
ACAD_GROUP
350
D
  3
ACAD_LAYOUT
350
1A
  3
ACAD_MLINESTYLE
350
17
  3
ACAD_PLOTSETTINGS
350
19
  3
ACAD_PLOTSTYLENAME
350
E
  3
ACAD_SCALELIST
350
47
  0
DICTIONARY
  5
D
102
{ACAD_REACTORS
330
C
102
}
330
C
100
AcDbDictionary
281
     1
  0
DICTIONARY
  5
1A
102
{ACAD_REACTORS
330
C
102
}
330
C
100
AcDbDictionary
281
     1
  3
Layout1
350
1E
  3
Layout2
350
26
  3
Model
350
22
  0
DICTIONARY
  5
17
102
{ACAD_REACTORS
330
C
102
}
330
C
100
AcDbDictionary
281
     1
  3
Standard
350
18
  0
DICTIONARY
  5
19
102
{ACAD_REACTORS
330
C
102
}
330
C
100
AcDbDictionary
281
     1
  0
ACDBDICTIONARYWDFLT
  5
E
102
{ACAD_REACTORS
330
C
102
}
330
C
100
AcDbDictionary
281
     1
  3
Normal
350
F
100
AcDbDictionaryWithDefault
340
F
  0
DICTIONARY
  5
47
102
{ACAD_REACTORS
330
C
102
}
330
C
100
AcDbDictionary
281
     1
  3
A0
350
48
  3
A1
350
49
  3
A2
350
4A
  3
A3
350
4B
  3
A4
350
4C
  3
A5
350
4D
  3
A6
350
4E
  3
A7
350
4F
  3
A8
350
50
  3
A9
350
51
  3
B0
350
52
  3
B1
350
53
  3
B2
350
54
  3
B3
350
55
  3
B4
350
56
  3
B5
350
57
  3
B6
350
58
  3
B7
350
59
  3
B8
350
5A
  3
B9
350
5B
  3
C0
350
5C
  3
C1
350
5D
  3
C2
350
5E
  3
C3
350
5F
  3
C4
350
60
  3
C5
350
61
  3
C6
350
62
  3
C7
350
63
  3
C8
350
64
  3
C9
350
65
  3
D0
350
66
  3
D1
350
67
  3
D2
350
68
  0
LAYOUT
  5
1E
102
{ACAD_REACTORS
330
1A
102
}
330
1A
100
AcDbPlotSettings
  1

  2
none_device
  4

  6

 40
0.0
 41
0.0
 42
0.0
 43
0.0
 44
0.0
 45
0.0
 46
0.0
 47
0.0
 48
0.0
 49
0.0
140
0.0
141
0.0
142
1.0
143
1.0
 70
   688
 72
     1
 73
     0
 74
     5
  7

 75
    16
147
1.0
148
0.0
149
0.0
100
AcDbLayout
  1
Layout1
 70
     1
 71
     1
 10
0.0
 20
0.0
 11
420.0
 21
297.0
 12
0.0
 22
0.0
 32
0.0
 14
1.0000000000E+20
 24
1.0000000000E+20
 34
1.0000000000E+20
 15
-1.0000000000E+20
 25
-1.0000000000E+20
 35
-1.0000000000E+20
146
0.0
 13
0.0
 23
0.0
 33
0.0
 16
1.0
 26
0.0
 36
0.0
 17
0.0
 27
1.0
 37
0.0
 76
     0
330
1B
  0
LAYOUT
  5
26
102
{ACAD_REACTORS
330
1A
102
}
330
1A
100
AcDbPlotSettings
  1

  2
none_device
  4

  6

 40
0.0
 41
0.0
 42
0.0
 43
0.0
 44
0.0
 45
0.0
 46
0.0
 47
0.0
 48
0.0
 49
0.0
140
0.0
141
0.0
142
1.0
143
1.0
 70
   688
 72
     1
 73
     0
 74
     5
  7

 75
    16
147
1.0
148
0.0
149
0.0
100
AcDbLayout
  1
Layout2
 70
     1
 71
     2
 10
0.0
 20
0.0
 11
0.0
 21
0.0
 12
0.0
 22
0.0
 32
0.0
 14
0.0
 24
0.0
 34
0.0
 15
0.0
 25
0.0
 35
0.0
146
0.0
 13
0.0
 23
0.0
 33
0.0
 16
1.0
 26
0.0
 36
0.0
 17
0.0
 27
1.0
 37
0.0
 76
     0
330
23
  0
LAYOUT
  5
22
102
{ACAD_REACTORS
330
1A
102
}
330
1A
100
AcDbPlotSettings
  1

  2
none_device
  4
Letter_(8.50_x_11.00_Inches)
  6

 40
6.35
 41
6.35
 42
6.35000508
 43
6.35000508
 44
215.9
 45
279.4
 46
0.0
 47
0.0
 48
0.0
 49
0.0
140
0.0
141
0.0
142
1.0
143
1.0
 70
  1712
 72
     1
 73
     0
 74
     0
  7

 75
     0
147
1.0
148
0.0
149
0.0
100
AcDbLayout
  1
Model
 70
     1
 71
     0
 10
0.0
 20
0.0
 11
297.0
 21
210.0
 12
0.0
 22
0.0
 32
0.0
 14
0.0
 24
0.0
 34
0.0
 15
297.0
 25
210.0
 35
0.0
146
0.0
 13
0.0
 23
0.0
 33
0.0
 16
1.0
 26
0.0
 36
0.0
 17
0.0
 27
1.0
 37
0.0
 76
     0
330
1F
331
29
  0
MLINESTYLE
  5
18
102
{ACAD_REACTORS
330
17
102
}
330
17
100
AcDbMlineStyle
  2
Standard
 70
     0
  3

 62
   256
 51
90.0
 52
90.0
 71
     2
 49
0.5
 62
   256
  6
BYLAYER
 49
-0.5
 62
   256
  6
BYLAYER
  0
ACDBPLACEHOLDER
  5
F
102
{ACAD_REACTORS
330
E
102
}
330
E
  0
SCALE
  5
48
102
{ACAD_REACTORS
330
47
102
}
330
47
100
AcDbScale
 70
     0
300
1:1
140
1.0
141
1.0
290
     1
  0
SCALE
  5
49
102
{ACAD_REACTORS
330
47
102
}
330
47
100
AcDbScale
 70
     0
300
1:2
140
1.0
141
2.0
290
     0
  0
SCALE
  5
4A
102
{ACAD_REACTORS
330
47
102
}
330
47
100
AcDbScale
 70
     0
300
1:4
140
1.0
141
4.0
290
     0
  0
SCALE
  5
4B
102
{ACAD_REACTORS
330
47
102
}
330
47
100
AcDbScale
 70
     0
300
1:5
140
1.0
141
5.0
290
     0
  0
SCALE
  5
4C
102
{ACAD_REACTORS
330
47
102
}
330
47
100
AcDbScale
 70
     0
300
1:8
140
1.0
141
8.0
290
     0
  0
SCALE
  5
4D
102
{ACAD_REACTORS
330
47
102
}
330
47
100
AcDbScale
 70
     0
300
1:10
140
1.0
141
10.0
290
     0
  0
SCALE
  5
4E
102
{ACAD_REACTORS
330
47
102
}
330
47
100
AcDbScale
 70
     0
300
1:16
140
1.0
141
16.0
290
     0
  0
SCALE
  5
4F
102
{ACAD_REACTORS
330
47
102
}
330
47
100
AcDbScale
 70
     0
300
1:20
140
1.0
141
20.0
290
     0
  0
SCALE
  5
50
102
{ACAD_REACTORS
330
47
102
}
330
47
100
AcDbScale
 70
     0
300
1:30
140
1.0
141
30.0
290
     0
  0
SCALE
  5
51
102
{ACAD_REACTORS
330
47
102
}
330
47
100
AcDbScale
 70
     0
300
1:40
140
1.0
141
40.0
290
     0
  0
SCALE
  5
52
102
{ACAD_REACTORS
330
47
102
}
330
47
100
AcDbScale
 70
     0
300
1:50
140
1.0
141
50.0
290
     0
  0
SCALE
  5
53
102
{ACAD_REACTORS
330
47
102
}
330
47
100
AcDbScale
 70
     0
300
1:100
140
1.0
141
100.0
290
     0
  0
SCALE
  5
54
102
{ACAD_REACTORS
330
47
102
}
330
47
100
AcDbScale
 70
     0
300
2:1
140
2.0
141
1.0
290
     0
  0
SCALE
  5
55
102
{ACAD_REACTORS
330
47
102
}
330
47
100
AcDbScale
 70
     0
300
4:1
140
4.0
141
1.0
290
     0
  0
SCALE
  5
56
102
{ACAD_REACTORS
330
47
102
}
330
47
100
AcDbScale
 70
     0
300
8:1
140
8.0
141
1.0
290
     0
  0
SCALE
  5
57
102
{ACAD_REACTORS
330
47
102
}
330
47
100
AcDbScale
 70
     0
300
10:1
140
10.0
141
1.0
290
     0
  0
SCALE
  5
58
102
{ACAD_REACTORS
330
47
102
}
330
47
100
AcDbScale
 70
     0
300
100:1
140
100.0
141
1.0
290
     0
  0
SCALE
  5
59
102
{ACAD_REACTORS
330
47
102
}
330
47
100
AcDbScale
 70
     0
300
1/128" = 1'-0"
140
0.0078125
141
12.0
290
     0
  0
SCALE
  5
5A
102
{ACAD_REACTORS
330
47
102
}
330
47
100
AcDbScale
 70
     0
300
1/64" = 1'-0"
140
0.015625
141
12.0
290
     0
  0
SCALE
  5
5B
102
{ACAD_REACTORS
330
47
102
}
330
47
100
AcDbScale
 70
     0
300
1/32" = 1'-0"
140
0.03125
141
12.0
290
     0
  0
SCALE
  5
5C
102
{ACAD_REACTORS
330
47
102
}
330
47
100
AcDbScale
 70
     0
300
1/16" = 1'-0"
140
0.0625
141
12.0
290
     0
  0
SCALE
  5
5D
102
{ACAD_REACTORS
330
47
102
}
330
47
100
AcDbScale
 70
     0
300
3/32" = 1'-0"
140
0.09375
141
12.0
290
     0
  0
SCALE
  5
5E
102
{ACAD_REACTORS
330
47
102
}
330
47
100
AcDbScale
 70
     0
300
1/8" = 1'-0"
140
0.125
141
12.0
290
     0
  0
SCALE
  5
5F
102
{ACAD_REACTORS
330
47
102
}
330
47
100
AcDbScale
 70
     0
300
3/16" = 1'-0"
140
0.1875
141
12.0
290
     0
  0
SCALE
  5
60
102
{ACAD_REACTORS
330
47
102
}
330
47
100
AcDbScale
 70
     0
300
1/4" = 1'-0"
140
0.25
141
12.0
290
     0
  0
SCALE
  5
61
102
{ACAD_REACTORS
330
47
102
}
330
47
100
AcDbScale
 70
     0
300
3/8" = 1'-0"
140
0.375
141
12.0
290
     0
  0
SCALE
  5
62
102
{ACAD_REACTORS
330
47
102
}
330
47
100
AcDbScale
 70
     0
300
1/2" = 1'-0"
140
0.5
141
12.0
290
     0
  0
SCALE
  5
63
102
{ACAD_REACTORS
330
47
102
}
330
47
100
AcDbScale
 70
     0
300
3/4" = 1'-0"
140
0.75
141
12.0
290
     0
  0
SCALE
  5
64
102
{ACAD_REACTORS
330
47
102
}
330
47
100
AcDbScale
 70
     0
300
1" = 1'-0"
140
1.0
141
12.0
290
     0
  0
SCALE
  5
65
102
{ACAD_REACTORS
330
47
102
}
330
47
100
AcDbScale
 70
     0
300
1-1/2" = 1'-0"
140
1.5
141
12.0
290
     0
  0
SCALE
  5
66
102
{ACAD_REACTORS
330
47
102
}
330
47
100
AcDbScale
 70
     0
300
3" = 1'-0"
140
3.0
141
12.0
290
     0
  0
SCALE
  5
67
102
{ACAD_REACTORS
330
47
102
}
330
47
100
AcDbScale
 70
     0
300
6" = 1'-0"
140
6.0
141
12.0
290
     0
  0
SCALE
  5
68
102
{ACAD_REACTORS
330
47
102
}
330
47
100
AcDbScale
 70
     0
300
1'-0" = 1'-0"
140
12.0
141
12.0
290
     0
  0
ENDSEC
  0
EOF
