  0
SECTION
  2
HEADER
  9
$ACADVER
  1
AC1015
  9
$ACADMAINTVER
 70
     6
  9
$DWGCODEPAGE
  3
ANSI_1252
  9
$INSBASE
 10
0.0
 20
0.0
 30
0.0
  9
$EXTMIN
 10
0.0
 20
0.0
 30
0.0
  9
$EXTMAX
 10
297.0
 20
210.0
 30
0.0
  9
$LIMMIN
 10
0.0
 20
0.0
  9
$LIMMAX
 10
297.0
 20
210.0
  9
$ORTHOMODE
 70
     0
  9
$REGENMODE
 70
     1
  9
$FILLMODE
 70
     1
  9
$QTEXTMODE
 70
     0
  9
$MIRRTEXT
 70
     1
  9
$LTSCALE
 40
1.0
  9
$ATTMODE
 70
     1
  9
$TEXTSIZE
 40
2.0
  9
$TRACEWID
 40
1.0
  9
$TEXTSTYLE
  7
Standard
  9
$CLAYER
  8
0
  9
$CELTYPE
  6
ByLayer
  9
$CECOLOR
 62
   256
  9
$CELTSCALE
 40
1.0
  9
$DISPSILH
 70
     0
  9
$DIMSCALE
 40
1.0
  9
$DIMASZ
 40
3.0
  9
$DIMEXO
 40
0.0
  9
$DIMDLI
 40
3.75
  9
$DIMRND
 40
0.0
  9
$DIMDLE
 40
0.0
  9
$DIMEXE
 40
1.0
  9
$DIMTP
 40
0.0
  9
$DIMTM
 40
0.0
  9
$DIMTXT
 40
2.0
  9
$DIMCEN
 40
2.5
  9
$DIMTSZ
 40
0.0
  9
$DIMTOL
 70
     0
  9
$DIMLIM
 70
     0
  9
$DIMTIH
 70
     1
  9
$DIMTOH
 70
     1
  9
$DIMSE1
 70
     0
  9
$DIMSE2
 70
     0
  9
$DIMTAD
 70
     1
  9
$DIMZIN
 70
     0
  9
$DIMBLK
  1

  9
$DIMASO
 70
     1
  9
$DIMSHO
 70
     1
  9
$DIMPOST
  1

  9
$DIMAPOST
  1

  9
$DIMALT
 70
     0
  9
$DIMALTD
 70
     3
  9
$DIMALTF
 40
0.0393700787
  9
$DIMLFAC
 40
1.0
  9
$DIMTOFL
 70
     1
  9
$DIMTVP
 40
0.0
  9
$DIMTIX
 70
     0
  9
$DIMSOXD
 70
     0
  9
$DIMSAH
 70
     0
  9
$DIMBLK1
  1

  9
$DIMBLK2
  1

  9
$DIMSTYLE
  2
ISO-25
  9
$DIMCLRD
 70
     0
  9
$DIMCLRE
 70
     0
  9
$DIMCLRT
 70
     0
  9
$DIMTFAC
 40
1.0
  9
$DIMGAP
 40
1.524
  9
$DIMJUST
 70
     0
  9
$DIMSD1
 70
     0
  9
$DIMSD2
 70
     0
  9
$DIMTOLJ
 70
     0
  9
$DIMTZIN
 70
     0
  9
$DIMALTZ
 70
     0
  9
$DIMALTTZ
 70
     0
  9
$DIMUPT
 70
     0
  9
$DIMDEC
 70
     2
  9
$DIMTDEC
 70
     3
  9
$DIMALTU
 70
     2
  9
$DIMALTTD
 70
     3
  9
$DIMTXSTY
  7
Standard
  9
$DIMAUNIT
 70
     0
  9
$DIMADEC
 70
     2
  9
$DIMALTRND
 40
0.0
  9
$DIMAZIN
 70
     0
  9
$DIMDSEP
 70
    44
  9
$DIMATFIT
 70
     3
  9
$DIMFRAC
 70
     0
  9
$DIMLDRBLK
  1

  9
$DIMLUNIT
 70
     2
  9
$DIMLWD
 70
    -2
  9
$DIMLWE
 70
    -2
  9
$DIMTMOVE
 70
     0
  9
$LUNITS
 70
     2
  9
$LUPREC
 70
     2
  9
$SKETCHINC
 40
1.0
  9
$FILLETRAD
 40
10.0
  9
$AUNITS
 70
     0
  9
$AUPREC
 70
     2
  9
$MENU
  1
.
  9
$ELEVATION
 40
0.0
  9
$PELEVATION
 40
0.0
  9
$THICKNESS
 40
0.0
  9
$LIMCHECK
 70
     0
  9
$CHAMFERA
 40
10.0
  9
$CHAMFERB
 40
10.0
  9
$CHAMFERC
 40
20.0
  9
$CHAMFERD
 40
0.0
  9
$SKPOLY
 70
     0
  9
$TDCREATE
 40
2455680.529367836
  9
$TDUCREATE
 40
2455680.446034502
  9
$TDUPDATE
 40
2455680.529367847
  9
$TDUUPDATE
 40
2455680.446034514
  9
$TDINDWG
 40
0.0000000116
  9
$TDUSRTIMER
 40
0.0000000116
  9
$USRTIMER
 70
     1
  9
$ANGBASE
 50
0.0
  9
$ANGDIR
 70
     0
  9
$PDMODE
 70
     0
  9
$PDSIZE
 40
-1.0
  9
$PLINEWID
 40
0.0
  9
$SPLFRAME
 70
     0
  9
$SPLINETYPE
 70
     6
  9
$SPLINESEGS
 70
     8
  9
$HANDSEED
  5
208
  9
$SURFTAB1
 70
     6
  9
$SURFTAB2
 70
     6
  9
$SURFTYPE
 70
     6
  9
$SURFU
 70
     6
  9
$SURFV
 70
     6
  9
$UCSBASE
  2

  9
$UCSNAME
  2

  9
$UCSORG
 10
0.0
 20
0.0
 30
0.0
  9
$UCSXDIR
 10
1.0
 20
0.0
 30
0.0
  9
$UCSYDIR
 10
0.0
 20
1.0
 30
0.0
  9
$UCSORTHOREF
  2

  9
$UCSORTHOVIEW
 70
     0
  9
$UCSORGTOP
 10
0.0
 20
0.0
 30
0.0
  9
$UCSORGBOTTOM
 10
0.0
 20
0.0
 30
0.0
  9
$UCSORGLEFT
 10
0.0
 20
0.0
 30
0.0
  9
$UCSORGRIGHT
 10
0.0
 20
0.0
 30
0.0
  9
$UCSORGFRONT
 10
0.0
 20
0.0
 30
0.0
  9
$UCSORGBACK
 10
0.0
 20
0.0
 30
0.0
  9
$PUCSBASE
  2

  9
$PUCSNAME
  2

  9
$PUCSORG
 10
0.0
 20
0.0
 30
0.0
  9
$PUCSXDIR
 10
1.0
 20
0.0
 30
0.0
  9
$PUCSYDIR
 10
0.0
 20
1.0
 30
0.0
  9
$PUCSORTHOREF
  2

  9
$PUCSORTHOVIEW
 70
     0
  9
$PUCSORGTOP
 10
0.0
 20
0.0
 30
0.0
  9
$PUCSORGBOTTOM
 10
0.0
 20
0.0
 30
0.0
  9
$PUCSORGLEFT
 10
0.0
 20
0.0
 30
0.0
  9
$PUCSORGRIGHT
 10
0.0
 20
0.0
 30
0.0
  9
$PUCSORGFRONT
 10
0.0
 20
0.0
 30
0.0
  9
$PUCSORGBACK
 10
0.0
 20
0.0
 30
0.0
  9
$USERI1
 70
     0
  9
$USERI2
 70
     0
  9
$USERI3
 70
     0
  9
$USERI4
 70
     0
  9
$USERI5
 70
     0
  9
$USERR1
 40
0.0
  9
$USERR2
 40
0.0
  9
$USERR3
 40
0.0
  9
$USERR4
 40
0.0
  9
$USERR5
 40
0.0
  9
$WORLDVIEW
 70
     1
  9
$SHADEDGE
 70
     3
  9
$SHADEDIF
 70
    70
  9
$TILEMODE
 70
     1
  9
$MAXACTVP
 70
    64
  9
$PINSBASE
 10
0.0
 20
0.0
 30
0.0
  9
$PLIMCHECK
 70
     0
  9
$PEXTMIN
 10
1.0000000000E+20
 20
1.0000000000E+20
 30
1.0000000000E+20
  9
$PEXTMAX
 10
-1.0000000000E+20
 20
-1.0000000000E+20
 30
-1.0000000000E+20
  9
$PLIMMIN
 10
0.0
 20
0.0
  9
$PLIMMAX
 10
420.0
 20
297.0
  9
$UNITMODE
 70
     0
  9
$VISRETAIN
 70
     1
  9
$PLINEGEN
 70
     0
  9
$PSLTSCALE
 70
     1
  9
$TREEDEPTH
 70
  3020
  9
$CMLSTYLE
  2
Standard
  9
$CMLJUST
 70
     0
  9
$CMLSCALE
 40
20.0
  9
$PROXYGRAPHICS
 70
     1
  9
$MEASUREMENT
 70
     1
  9
$CELWEIGHT
370
    -1
  9
$ENDCAPS
280
     0
  9
$JOINSTYLE
280
     0
  9
$LWDISPLAY
290
     1
  9
$INSUNITS
 70
     4
  9
$HYPERLINKBASE
  1

  9
$STYLESHEET
  1

  9
$XEDIT
290
     1
  9
$CEPSNTYPE
380
     0
  9
$PSTYLEMODE
290
     1
  9
$FINGERPRINTGUID
  2
{43AF3059-426F-496C-9D0B-BC88FA72F475}
  9
$VERSIONGUID
  2
{FAEB1C32-E019-11D5-929B-00C0DF256EC4}
  9
$EXTNAMES
290
     1
  9
$PSVPSCALE
 40
0.0
  9
$OLESTARTUP
290
     0
  0
ENDSEC
  0
SECTION
  2
CLASSES
  0
CLASS
  1
ACDBDICTIONARYWDFLT
  2
AcDbDictionaryWithDefault
  3
ObjectDBX Classes
 90
        0
280
     0
281
     0
  0
CLASS
  1
VISUALSTYLE
  2
AcDbVisualStyle
  3
ObjectDBX Classes
 90
     4095
280
     0
281
     0
  0
CLASS
  1
DICTIONARYVAR
  2
AcDbDictionaryVar
  3
ObjectDBX Classes
 90
        0
280
     0
281
     0
  0
CLASS
  1
ACDBPLACEHOLDER
  2
AcDbPlaceHolder
  3
ObjectDBX Classes
 90
        0
280
     0
281
     0
  0
CLASS
  1
LAYOUT
  2
AcDbLayout
  3
ObjectDBX Classes
 90
        0
280
     0
281
     0
  0
ENDSEC
  0
SECTION
  2
TABLES
  0
TABLE
  2
VPORT
  5
8
330
0
100
AcDbSymbolTable
 70
     1
  0
VPORT
  5
29
330
8
100
AcDbSymbolTableRecord
100
AcDbViewportTableRecord
  2
*Active
 70
     0
 10
0.0
 20
0.0
 11
1.0
 21
1.0
 12
148.5
 22
105.0
 13
0.0
 23
0.0
 14
10.0
 24
10.0
 15
10.0
 25
10.0
 16
0.0
 26
0.0
 36
1.0
 17
0.0
 27
0.0
 37
0.0
 40
210.0
 41
1.4142857143
 42
50.0
 43
0.0
 44
0.0
 50
0.0
 51
0.0
 71
     0
 72
  2000
 73
     1
 74
     3
 75
     0
 76
     0
 77
     0
 78
     0
281
     0
 65
     1
110
0.0
120
0.0
130
0.0
111
1.0
121
0.0
131
0.0
112
0.0
122
1.0
132
0.0
 79
     0
146
0.0
  0
ENDTAB
  0
TABLE
  2
LTYPE
  5
5
330
0
100
AcDbSymbolTable
 70
     6
  0
LTYPE
  5
14
330
5
100
AcDbSymbolTableRecord
100
AcDbLinetypeTableRecord
  2
ByBlock
 70
     0
  3

 72
    65
 73
     0
 40
0.0
  0
LTYPE
  5
15
330
5
100
AcDbSymbolTableRecord
100
AcDbLinetypeTableRecord
  2
ByLayer
 70
     0
  3

 72
    65
 73
     0
 40
0.0
  0
LTYPE
  5
16
330
5
100
AcDbSymbolTableRecord
100
AcDbLinetypeTableRecord
  2
Continuous
 70
     0
  3
Solid line
 72
    65
 73
     0
 40
0.0
  0
LTYPE
  5
3B
330
5
100
AcDbSymbolTableRecord
100
AcDbLinetypeTableRecord
  2
HIDDEN
 70
     0
  3
Hidden __ __ __ __ __ __ __ __ __ __ __ __ __ __
 72
    65
 73
     2
 40
1.905
 49
1.27
 74
     0
 49
-0.635
 74
     0
  0
LTYPE
  5
3C
330
5
100
AcDbSymbolTableRecord
100
AcDbLinetypeTableRecord
  2
PHANTOM
 70
     0
  3
Phantom ______  __  __  ______  __  __  ______
 72
    65
 73
     6
 40
12.7
 49
6.35
 74
     0
 49
-1.27
 74
     0
 49
1.27
 74
     0
 49
-1.27
 74
     0
 49
1.27
 74
     0
 49
-1.27
 74
     0
  0
LTYPE
  5
3D
330
5
100
AcDbSymbolTableRecord
100
AcDbLinetypeTableRecord
  2
CENTER
 70
     0
  3
Center ____ _ ____ _ ____ _ ____ _ ____ _ ____
 72
    65
 73
     4
 40
10.16
 49
6.35
 74
     0
 49
-1.27
 74
     0
 49
1.27
 74
     0
 49
-1.27
 74
     0
  0
LTYPE
  5
3E
330
5
100
AcDbSymbolTableRecord
100
AcDbLinetypeTableRecord
  2
CENTERX2
 70
     0
  3
Center (2x) ________  __  ________  __  _____
 72
    65
 73
     4
 40
20.32
 49
12.7
 74
     0
 49
-2.54
 74
     0
 49
2.54
 74
     0
 49
-2.54
 74
     0
  0
LTYPE
  5
3F
330
5
100
AcDbSymbolTableRecord
100
AcDbLinetypeTableRecord
  2
DOT2
 70
     0
  3
Dot (.5x) ........................................
 72
    65
 73
     2
 40
0.635
 49
0.0
 74
     0
 49
-0.635
 74
     0
  0
ENDTAB
  0
TABLE
  2
LAYER
  5
2
330
0
100
AcDbSymbolTable
 70
     5
  0
LAYER
  5
10
330
2
100
AcDbSymbolTableRecord
100
AcDbLayerTableRecord
  2
0
 70
     0
 62
     7
  6
Continuous
370
    -3
390
F
  0
LAYER
  5
40
330
2
100
AcDbSymbolTableRecord
100
AcDbLayerTableRecord
  2
FORMAT
 70
     0
 62
     7
  6
Continuous
370
    -3
390
F
  0
LAYER
  5
41
330
2
100
AcDbSymbolTableRecord
100
AcDbLayerTableRecord
  2
VERMASSUNG
 70
     0
 62
     7
  6
Continuous
370
    -3
390
F
  0
LAYER
  5
42
330
2
100
AcDbSymbolTableRecord
100
AcDbLayerTableRecord
  2
KOPF_DÜNN
 70
     0
 62
     7
  6
Continuous
370
    -3
390
F
  0
LAYER
  5
43
330
2
100
AcDbSymbolTableRecord
100
AcDbLayerTableRecord
  2
KOPF_DICK
 70
     0
 62
     7
  6
Continuous
370
    15
390
F
  0
ENDTAB
  0
TABLE
  2
STYLE
  5
3
330
0
100
AcDbSymbolTable
 70
     3
  0
STYLE
  5
11
330
3
100
AcDbSymbolTableRecord
100
AcDbTextStyleTableRecord
  2
Standard
 70
     0
 40
0.0
 41
1.0
 50
0.0
 71
     0
 42
2.5
  3
txt
  4

  0
STYLE
  5
44
330
3
100
AcDbSymbolTableRecord
100
AcDbTextStyleTableRecord
  2
SLDTEXTSTYLE0
 70
     0
 40
0.0
 41
0.7
 50
0.0
 71
     0
 42
0.2
  3
TXT
  4

  0
STYLE
  5
48
330
3
100
AcDbSymbolTableRecord
100
AcDbTextStyleTableRecord
  2
SLDTEXTSTYLE1
 70
     0
 40
0.0
 41
0.65
 50
0.0
 71
     0
 42
0.2
  3
TXT
  4

  0
ENDTAB
  0
TABLE
  2
VIEW
  5
6
330
0
100
AcDbSymbolTable
 70
     0
  0
ENDTAB
  0
TABLE
  2
UCS
  5
7
330
0
100
AcDbSymbolTable
 70
     0
  0
ENDTAB
  0
TABLE
  2
APPID
  5
9
330
0
100
AcDbSymbolTable
 70
     1
  0
APPID
  5
12
330
9
100
AcDbSymbolTableRecord
100
AcDbRegAppTableRecord
  2
ACAD
 70
     0
  0
ENDTAB
  0
TABLE
  2
DIMSTYLE
  5
A
330
0
100
AcDbSymbolTable
 70
     5
100
AcDbDimStyleTable
  0
DIMSTYLE
105
27
330
A
100
AcDbSymbolTableRecord
100
AcDbDimStyleTableRecord
  2
ISO-25
 70
     0
 41
2.5
 42
0.625
 43
3.75
 44
1.25
 73
     0
 74
     0
 77
     1
 78
     8
140
2.5
141
2.5
143
0.0393700787
147
0.625
171
     3
172
     1
271
     2
272
     2
274
     3
278
    44
283
     0
284
     8
340
11
  0
DIMSTYLE
105
1A8
102
{ACAD_REACTORS
330
1A7
330
1D8
330
1E2
330
1ED
330
1F7
102
}
330
A
100
AcDbSymbolTableRecord
100
AcDbDimStyleTableRecord
  2
SLDDIMSTYLE0
 70
     0
 41
3.0
 44
0.0
 45
0.000000001
 73
     0
 74
     0
 77
     1
 78
    12
140
2.0
147
0.5
173
     1
271
     2
272
     3
284
    12
340
44
  0
DIMSTYLE
105
1B5
102
{ACAD_REACTORS
330
1B4
102
}
330
A
100
AcDbSymbolTableRecord
100
AcDbDimStyleTableRecord
  2
SLDDIMSTYLE1
 70
     0
 41
3.0
 44
0.0
 45
0.000000001
 73
     0
 74
     0
 77
     1
 78
    12
140
2.0
147
0.5
173
     1
271
     2
272
     2
284
    12
340
44
  0
DIMSTYLE
105
1C0
102
{ACAD_REACTORS
330
1BF
102
}
330
A
100
AcDbSymbolTableRecord
100
AcDbDimStyleTableRecord
  2
SLDDIMSTYLE2
 70
     0
 41
3.0
 44
0.0
 45
0.000000001
 73
     0
 74
     0
 77
     1
 78
    12
140
2.0
147
0.5
173
     1
271
     2
272
     2
284
    12
340
44
  0
DIMSTYLE
105
1CD
102
{ACAD_REACTORS
330
1CC
102
}
330
A
100
AcDbSymbolTableRecord
100
AcDbDimStyleTableRecord
  2
SLDDIMSTYLE3
 70
     0
 41
3.0
 44
0.0
 45
0.000000001
 73
     0
 74
     0
 77
     1
 78
    12
140
2.0
147
0.5
173
     1
271
     2
272
     3
284
    12
340
44
  0
ENDTAB
  0
TABLE
  2
BLOCK_RECORD
  5
1
330
0
100
AcDbSymbolTable
 70
     9
  0
BLOCK_RECORD
  5
1F
330
1
100
AcDbSymbolTableRecord
100
AcDbBlockTableRecord
  2
*Model_Space
340
22
  0
BLOCK_RECORD
  5
1B
330
1
100
AcDbSymbolTableRecord
100
AcDbBlockTableRecord
  2
*Paper_Space
340
1E
  0
BLOCK_RECORD
  5
23
330
1
100
AcDbSymbolTableRecord
100
AcDbBlockTableRecord
  2
*Paper_Space0
340
26
  0
BLOCK_RECORD
  5
1A9
330
1
100
AcDbSymbolTableRecord
100
AcDbBlockTableRecord
  2
*D1
340
0
  0
BLOCK_RECORD
  5
1B6
330
1
100
AcDbSymbolTableRecord
100
AcDbBlockTableRecord
  2
*D2
340
0
  0
BLOCK_RECORD
  5
1C1
330
1
100
AcDbSymbolTableRecord
100
AcDbBlockTableRecord
  2
*D3
340
0
  0
BLOCK_RECORD
  5
1CE
330
1
100
AcDbSymbolTableRecord
100
AcDbBlockTableRecord
  2
*D4
340
0
  0
BLOCK_RECORD
  5
1D9
330
1
100
AcDbSymbolTableRecord
100
AcDbBlockTableRecord
  2
*D5
340
0
  0
BLOCK_RECORD
  5
1E3
330
1
100
AcDbSymbolTableRecord
100
AcDbBlockTableRecord
  2
*D6
340
0
  0
BLOCK_RECORD
  5
1EE
330
1
100
AcDbSymbolTableRecord
100
AcDbBlockTableRecord
  2
*D7
340
0
  0
BLOCK_RECORD
  5
1F8
330
1
100
AcDbSymbolTableRecord
100
AcDbBlockTableRecord
  2
*D8
340
0
  0
ENDTAB
  0
ENDSEC
  0
SECTION
  2
BLOCKS
  0
BLOCK
  5
20
330
1F
100
AcDbEntity
  8
0
100
AcDbBlockBegin
  2
*Model_Space
 70
     0
 10
0.0
 20
0.0
 30
0.0
  3
*Model_Space
  1

  0
ENDBLK
  5
21
330
1F
100
AcDbEntity
  8
0
100
AcDbBlockEnd
  0
BLOCK
  5
1C
330
1B
100
AcDbEntity
 67
     1
  8
0
100
AcDbBlockBegin
  2
*Paper_Space
 70
     0
 10
0.0
 20
0.0
 30
0.0
  3
*Paper_Space
  1

  0
ENDBLK
  5
1D
330
1B
100
AcDbEntity
 67
     1
  8
0
100
AcDbBlockEnd
  0
BLOCK
  5
24
330
23
100
AcDbEntity
  8
0
100
AcDbBlockBegin
  2
*Paper_Space0
 70
     0
 10
0.0
 20
0.0
 30
0.0
  3
*Paper_Space0
  1

  0
ENDBLK
  5
25
330
23
100
AcDbEntity
  8
0
100
AcDbBlockEnd
  0
BLOCK
  5
1AA
330
1A9
100
AcDbEntity
  8
0
100
AcDbBlockBegin
  2
*D1
 70
     1
 10
0.0
 20
0.0
 30
0.0
  3
*D1
  1

  0
SOLID
  5
1AC
330
1A9
100
AcDbEntity
  8
VERMASSUNG
100
AcDbTrace
 10
71.452979415
 20
158.3650054171
 30
0.0
 11
71.002979415
 21
155.3650054171
 31
0.0
 12
71.902979415
 22
155.3650054171
 32
0.0
 13
71.902979415
 23
155.3650054171
 33
0.0
  0
SOLID
  5
1AD
330
1A9
100
AcDbEntity
  8
VERMASSUNG
100
AcDbTrace
 10
71.452979415
 20
58.3650054171
 30
0.0
 11
71.902979415
 21
61.3650054171
 31
0.0
 12
71.002979415
 22
61.3650054171
 32
0.0
 13
71.002979415
 23
61.3650054171
 33
0.0
  0
LINE
  5
1AE
330
1A9
100
AcDbEntity
  8
VERMASSUNG
100
AcDbLine
 10
127.3538192837
 20
158.3650054171
 30
0.0
 11
70.452979415
 21
158.3650054171
 31
0.0
  0
LINE
  5
1AF
330
1A9
100
AcDbEntity
  8
VERMASSUNG
100
AcDbLine
 10
127.3538192837
 20
58.3650054171
 30
0.0
 11
70.452979415
 21
58.3650054171
 31
0.0
  0
LINE
  5
1B0
330
1A9
100
AcDbEntity
  8
VERMASSUNG
100
AcDbLine
 10
71.452979415
 20
158.3650054171
 30
0.0
 11
71.452979415
 21
58.3650054171
 31
0.0
  0
MTEXT
  5
1B1
330
1A9
100
AcDbEntity
  8
VERMASSUNG
100
AcDbMText
 10
68.6748439259
 20
100.1613542795
 30
0.0
 40
2.0
 41
0.0
 71
     1
 72
     1
  1
HSK A 
  7
SLDTEXTSTYLE0
 11
-7.044195017643634E-15
 21
1.0
 31
0.0
 73
     1
 44
1.0
  0
MTEXT
  5
1B2
330
1A9
100
AcDbEntity
  8
VERMASSUNG
100
AcDbMText
 10
68.8748439354
 20
109.1613548234
 30
0.0
 40
2.0
 41
0.0
 71
     1
 72
     1
  1
%%c
  7
SLDTEXTSTYLE0
 11
-7.044195017643634E-15
 21
1.0
 31
0.0
 73
     1
 44
1.0
  0
MTEXT
  5
1B3
330
1A9
100
AcDbEntity
  8
VERMASSUNG
100
AcDbMText
 10
68.8748440518
 20
112.7696814735
 30
0.0
 40
2.0
 41
0.0
 71
     1
 72
     1
  1
100
  7
SLDTEXTSTYLE0
 11
-7.044195017643634E-15
 21
1.0
 31
0.0
 73
     1
 44
1.0
  0
ENDBLK
  5
1AB
330
1A9
100
AcDbEntity
  8
0
100
AcDbBlockEnd
  0
BLOCK
  5
1B7
330
1B6
100
AcDbEntity
  8
0
100
AcDbBlockBegin
  2
*D2
 70
     1
 10
0.0
 20
0.0
 30
0.0
  3
*D2
  1

  0
SOLID
  5
1B9
330
1B6
100
AcDbEntity
  8
VERMASSUNG
100
AcDbTrace
 10
175.3538192837
 20
156.3650054171
 30
0.0
 11
178.3538192837
 21
155.9150054171
 31
0.0
 12
178.3538192837
 22
156.8150054171
 32
0.0
 13
178.3538192837
 23
156.8150054171
 33
0.0
  0
SOLID
  5
1BA
330
1B6
100
AcDbEntity
  8
VERMASSUNG
100
AcDbTrace
 10
211.8538192837
 20
156.3650054171
 30
0.0
 11
208.8538192837
 21
156.8150054171
 31
0.0
 12
208.8538192837
 22
155.9150054171
 32
0.0
 13
208.8538192837
 23
155.9150054171
 33
0.0
  0
LINE
  5
1BB
330
1B6
100
AcDbEntity
  8
VERMASSUNG
100
AcDbLine
 10
175.3538192837
 20
112.2650054171
 30
0.0
 11
175.3538192837
 21
157.3650054171
 31
0.0
  0
LINE
  5
1BC
330
1B6
100
AcDbEntity
  8
VERMASSUNG
100
AcDbLine
 10
211.8538192837
 20
117.0162244338
 30
0.0
 11
211.8538192837
 21
157.3650054171
 31
0.0
  0
LINE
  5
1BD
330
1B6
100
AcDbEntity
  8
VERMASSUNG
100
AcDbLine
 10
175.3538192837
 20
156.3650054171
 30
0.0
 11
211.8538192837
 21
156.3650054171
 31
0.0
  0
MTEXT
  5
1BE
330
1B6
100
AcDbEntity
  8
VERMASSUNG
100
AcDbMText
 10
191.2042223173
 20
158.9431407802
 30
0.0
 40
2.0
 41
0.0
 71
     1
 72
     1
  1
36.5
  7
SLDTEXTSTYLE0
 73
     1
 44
1.0
  0
ENDBLK
  5
1B8
330
1B6
100
AcDbEntity
  8
0
100
AcDbBlockEnd
  0
BLOCK
  5
1C2
330
1C1
100
AcDbEntity
  8
0
100
AcDbBlockBegin
  2
*D3
 70
     1
 10
0.0
 20
0.0
 30
0.0
  3
*D3
  1

  0
SOLID
  5
1C4
330
1C1
100
AcDbEntity
  8
VERMASSUNG
100
AcDbTrace
 10
219.281148429
 20
104.3650054171
 30
0.0
 11
219.731148429
 21
107.3650054171
 31
0.0
 12
218.831148429
 22
107.3650054171
 32
0.0
 13
218.831148429
 23
107.3650054171
 33
0.0
  0
SOLID
  5
1C5
330
1C1
100
AcDbEntity
  8
VERMASSUNG
100
AcDbTrace
 10
219.281148429
 20
112.3650054171
 30
0.0
 11
218.831148429
 21
109.3650054171
 31
0.0
 12
219.731148429
 22
109.3650054171
 32
0.0
 13
219.731148429
 23
109.3650054171
 33
0.0
  0
LINE
  5
1C6
330
1C1
100
AcDbEntity
  8
VERMASSUNG
100
AcDbLine
 10
208.3538192837
 20
104.3650054171
 30
0.0
 11
220.281148429
 21
104.3650054171
 31
0.0
  0
LINE
  5
1C7
330
1C1
100
AcDbEntity
  8
VERMASSUNG
100
AcDbLine
 10
208.3538192837
 20
112.3650054171
 30
0.0
 11
220.281148429
 21
112.3650054171
 31
0.0
  0
LINE
  5
1C8
330
1C1
100
AcDbEntity
  8
VERMASSUNG
100
AcDbLine
 10
219.281148429
 20
104.3650054171
 30
0.0
 11
219.281148429
 21
112.3650054171
 31
0.0
  0
MTEXT
  5
1C9
330
1C1
100
AcDbEntity
  8
VERMASSUNG
100
AcDbMText
 10
216.7030129495
 20
105.2610780065
 30
0.0
 40
2.0
 41
0.0
 71
     1
 72
     1
  1
%%c
  7
SLDTEXTSTYLE0
 11
6.123233995736766E-17
 21
1.0
 31
0.0
 73
     1
 44
1.0
  0
MTEXT
  5
1CA
330
1C1
100
AcDbEntity
  8
VERMASSUNG
100
AcDbMText
 10
216.7030130659
 20
108.8697562297
 30
0.0
 40
2.0
 41
0.0
 71
     1
 72
     1
  1
8
  7
SLDTEXTSTYLE0
 11
6.123233995736766E-17
 21
1.0
 31
0.0
 73
     1
 44
1.0
  0
MTEXT
  5
1CB
330
1C1
100
AcDbEntity
  8
VERMASSUNG
100
AcDbMText
 10
216.7030130659
 20
110.2691343445
 30
0.0
 40
2.0
 41
0.0
 71
     1
 72
     1
  1
 
  7
SLDTEXTSTYLE0
 11
6.123233995736766E-17
 21
1.0
 31
0.0
 73
     1
 44
1.0
  0
ENDBLK
  5
1C3
330
1C1
100
AcDbEntity
  8
0
100
AcDbBlockEnd
  0
BLOCK
  5
1CF
330
1CE
100
AcDbEntity
  8
0
100
AcDbBlockBegin
  2
*D4
 70
     1
 10
0.0
 20
0.0
 30
0.0
  3
*D4
  1

  0
SOLID
  5
1D1
330
1CE
100
AcDbEntity
  8
VERMASSUNG
100
AcDbTrace
 10
225.281148429
 20
97.8650054171
 30
0.0
 11
225.731148429
 21
100.8650054171
 31
0.0
 12
224.831148429
 22
100.8650054171
 32
0.0
 13
224.831148429
 23
100.8650054171
 33
0.0
  0
SOLID
  5
1D2
330
1CE
100
AcDbEntity
  8
VERMASSUNG
100
AcDbTrace
 10
225.281148429
 20
118.8650054171
 30
0.0
 11
224.831148429
 21
115.8650054171
 31
0.0
 12
225.731148429
 22
115.8650054171
 32
0.0
 13
225.731148429
 23
115.8650054171
 33
0.0
  0
LINE
  5
1D3
330
1CE
100
AcDbEntity
  8
VERMASSUNG
100
AcDbLine
 10
211.8538192837
 20
97.8650054171
 30
0.0
 11
226.281148429
 21
97.8650054171
 31
0.0
  0
LINE
  5
1D4
330
1CE
100
AcDbEntity
  8
VERMASSUNG
100
AcDbLine
 10
211.8538192837
 20
118.8650054171
 30
0.0
 11
226.281148429
 21
118.8650054171
 31
0.0
  0
LINE
  5
1D5
330
1CE
100
AcDbEntity
  8
VERMASSUNG
100
AcDbLine
 10
225.281148429
 20
97.8650054171
 30
0.0
 11
225.281148429
 21
118.8650054171
 31
0.0
  0
MTEXT
  5
1D6
330
1CE
100
AcDbEntity
  8
VERMASSUNG
100
AcDbMText
 10
222.7030129495
 20
105.3608678223
 30
0.0
 40
2.0
 41
0.0
 71
     1
 72
     1
  1
%%c
  7
SLDTEXTSTYLE0
 11
6.123233995736766E-17
 21
1.0
 31
0.0
 73
     1
 44
1.0
  0
MTEXT
  5
1D7
330
1CE
100
AcDbEntity
  8
VERMASSUNG
100
AcDbMText
 10
222.7030130659
 20
108.9695460455
 30
0.0
 40
2.0
 41
0.0
 71
     1
 72
     1
  1
21
  7
SLDTEXTSTYLE0
 11
6.123233995736766E-17
 21
1.0
 31
0.0
 73
     1
 44
1.0
  0
ENDBLK
  5
1D0
330
1CE
100
AcDbEntity
  8
0
100
AcDbBlockEnd
  0
BLOCK
  5
1DA
330
1D9
100
AcDbEntity
  8
0
100
AcDbBlockBegin
  2
*D5
 70
     1
 10
0.0
 20
0.0
 30
0.0
  3
*D5
  1

  0
SOLID
  5
1DC
330
1D9
100
AcDbEntity
  8
VERMASSUNG
100
AcDbTrace
 10
126.8538192837
 20
168.3650054171
 30
0.0
 11
129.8538192837
 21
167.9150054171
 31
0.0
 12
129.8538192837
 22
168.8150054171
 32
0.0
 13
129.8538192837
 23
168.8150054171
 33
0.0
  0
SOLID
  5
1DD
330
1D9
100
AcDbEntity
  8
VERMASSUNG
100
AcDbTrace
 10
211.8538192837
 20
168.3650054171
 30
0.0
 11
208.8538192837
 21
168.8150054171
 31
0.0
 12
208.8538192837
 22
167.9150054171
 32
0.0
 13
208.8538192837
 23
167.9150054171
 33
0.0
  0
LINE
  5
1DE
330
1D9
100
AcDbEntity
  8
VERMASSUNG
100
AcDbLine
 10
126.8538192837
 20
157.8650054171
 30
0.0
 11
126.8538192837
 21
169.3650054171
 31
0.0
  0
LINE
  5
1DF
330
1D9
100
AcDbEntity
  8
VERMASSUNG
100
AcDbLine
 10
211.8538192837
 20
117.0162244338
 30
0.0
 11
211.8538192837
 21
169.3650054171
 31
0.0
  0
LINE
  5
1E0
330
1D9
100
AcDbEntity
  8
VERMASSUNG
100
AcDbLine
 10
126.8538192837
 20
168.3650054171
 30
0.0
 11
211.8538192837
 21
168.3650054171
 31
0.0
  0
MTEXT
  5
1E1
330
1D9
100
AcDbEntity
  8
VERMASSUNG
100
AcDbMText
 10
167.9544411689
 20
170.9431407802
 30
0.0
 40
2.0
 41
0.0
 71
     1
 72
     1
  1
85
  7
SLDTEXTSTYLE0
 73
     1
 44
1.0
  0
ENDBLK
  5
1DB
330
1D9
100
AcDbEntity
  8
0
100
AcDbBlockEnd
  0
BLOCK
  5
1E4
330
1E3
100
AcDbEntity
  8
0
100
AcDbBlockBegin
  2
*D6
 70
     1
 10
0.0
 20
0.0
 30
0.0
  3
*D6
  1

  0
SOLID
  5
1E6
330
1E3
100
AcDbEntity
  8
VERMASSUNG
100
AcDbTrace
 10
231.281148429
 20
121.3650054171
 30
0.0
 11
230.831148429
 21
118.3650054171
 31
0.0
 12
231.731148429
 22
118.3650054171
 32
0.0
 13
231.731148429
 23
118.3650054171
 33
0.0
  0
SOLID
  5
1E7
330
1E3
100
AcDbEntity
  8
VERMASSUNG
100
AcDbTrace
 10
231.281148429
 20
95.3650054171
 30
0.0
 11
231.731148429
 21
98.3650054171
 31
0.0
 12
230.831148429
 22
98.3650054171
 32
0.0
 13
230.831148429
 23
98.3650054171
 33
0.0
  0
LINE
  5
1E8
330
1E3
100
AcDbEntity
  8
VERMASSUNG
100
AcDbLine
 10
180.0883074433
 20
121.3650054171
 30
0.0
 11
232.281148429
 21
121.3650054171
 31
0.0
  0
LINE
  5
1E9
330
1E3
100
AcDbEntity
  8
VERMASSUNG
100
AcDbLine
 10
180.0883074433
 20
95.3650054171
 30
0.0
 11
232.281148429
 21
95.3650054171
 31
0.0
  0
LINE
  5
1EA
330
1E3
100
AcDbEntity
  8
VERMASSUNG
100
AcDbLine
 10
231.281148429
 20
121.3650054171
 30
0.0
 11
231.281148429
 21
95.3650054171
 31
0.0
  0
MTEXT
  5
1EB
330
1E3
100
AcDbEntity
  8
VERMASSUNG
100
AcDbMText
 10
228.7030129495
 20
105.1612881907
 30
0.0
 40
2.0
 41
0.0
 71
     1
 72
     1
  1
%%c
  7
SLDTEXTSTYLE0
 11
-7.044195017643634E-15
 21
1.0
 31
0.0
 73
     1
 44
1.0
  0
MTEXT
  5
1EC
330
1E3
100
AcDbEntity
  8
VERMASSUNG
100
AcDbMText
 10
228.7030130659
 20
108.7699664139
 30
0.0
 40
2.0
 41
0.0
 71
     1
 72
     1
  1
26
  7
SLDTEXTSTYLE0
 11
-7.044195017643634E-15
 21
1.0
 31
0.0
 73
     1
 44
1.0
  0
ENDBLK
  5
1E5
330
1E3
100
AcDbEntity
  8
0
100
AcDbBlockEnd
  0
BLOCK
  5
1EF
330
1EE
100
AcDbEntity
  8
0
100
AcDbBlockBegin
  2
*D7
 70
     1
 10
0.0
 20
0.0
 30
0.0
  3
*D7
  1

  0
SOLID
  5
1F1
330
1EE
100
AcDbEntity
  8
VERMASSUNG
100
AcDbTrace
 10
155.8038192837
 20
162.3650054171
 30
0.0
 11
158.8038192837
 21
161.9150054171
 31
0.0
 12
158.8038192837
 22
162.8150054171
 32
0.0
 13
158.8038192837
 23
162.8150054171
 33
0.0
  0
SOLID
  5
1F2
330
1EE
100
AcDbEntity
  8
VERMASSUNG
100
AcDbTrace
 10
211.8538192837
 20
162.3650054171
 30
0.0
 11
208.8538192837
 21
162.8150054171
 31
0.0
 12
208.8538192837
 22
161.9150054171
 32
0.0
 13
208.8538192837
 23
161.9150054171
 33
0.0
  0
LINE
  5
1F3
330
1EE
100
AcDbEntity
  8
VERMASSUNG
100
AcDbLine
 10
155.8038192837
 20
156.333745238
 30
0.0
 11
155.8038192837
 21
163.3650054171
 31
0.0
  0
LINE
  5
1F4
330
1EE
100
AcDbEntity
  8
VERMASSUNG
100
AcDbLine
 10
211.8538192837
 20
117.0162244338
 30
0.0
 11
211.8538192837
 21
163.3650054171
 31
0.0
  0
LINE
  5
1F5
330
1EE
100
AcDbEntity
  8
VERMASSUNG
100
AcDbLine
 10
155.8038192837
 20
162.3650054171
 30
0.0
 11
211.8538192837
 21
162.3650054171
 31
0.0
  0
MTEXT
  5
1F6
330
1EE
100
AcDbEntity
  8
VERMASSUNG
100
AcDbMText
 10
180.7295332599
 20
164.9431407802
 30
0.0
 40
2.0
 41
0.0
 71
     1
 72
     1
  1
56.05
  7
SLDTEXTSTYLE0
 73
     1
 44
1.0
  0
ENDBLK
  5
1F0
330
1EE
100
AcDbEntity
  8
0
100
AcDbBlockEnd
  0
BLOCK
  5
1F9
330
1F8
100
AcDbEntity
  8
0
100
AcDbBlockBegin
  2
*D8
 70
     1
 10
0.0
 20
0.0
 30
0.0
  3
*D8
  1

  0
SOLID
  5
1FB
330
1F8
100
AcDbEntity
  8
VERMASSUNG
100
AcDbTrace
 10
76.9538192837
 20
174.3650054171
 30
0.0
 11
79.9538192837
 21
173.9150054171
 31
0.0
 12
79.9538192837
 22
174.8150054171
 32
0.0
 13
79.9538192837
 23
174.8150054171
 33
0.0
  0
SOLID
  5
1FC
330
1F8
100
AcDbEntity
  8
VERMASSUNG
100
AcDbTrace
 10
211.8538192837
 20
174.3650054171
 30
0.0
 11
208.8538192837
 21
174.8150054171
 31
0.0
 12
208.8538192837
 22
173.9150054171
 32
0.0
 13
208.8538192837
 23
173.9150054171
 33
0.0
  0
LINE
  5
1FD
330
1F8
100
AcDbEntity
  8
VERMASSUNG
100
AcDbLine
 10
76.9538192837
 20
138.8676751597
 30
0.0
 11
76.9538192837
 21
175.3650054171
 31
0.0
  0
LINE
  5
1FE
330
1F8
100
AcDbEntity
  8
VERMASSUNG
100
AcDbLine
 10
211.8538192837
 20
117.0162244338
 30
0.0
 11
211.8538192837
 21
175.3650054171
 31
0.0
  0
LINE
  5
1FF
330
1F8
100
AcDbEntity
  8
VERMASSUNG
100
AcDbLine
 10
76.9538192837
 20
174.3650054171
 30
0.0
 11
211.8538192837
 21
174.3650054171
 31
0.0
  0
MTEXT
  5
200
330
1F8
100
AcDbEntity
  8
VERMASSUNG
100
AcDbMText
 10
141.4043230757
 20
176.9431407802
 30
0.0
 40
2.0
 41
0.0
 71
     1
 72
     1
  1
134.9
  7
SLDTEXTSTYLE0
 73
     1
 44
1.0
  0
ENDBLK
  5
1FA
330
1F8
100
AcDbEntity
  8
0
100
AcDbBlockEnd
  0
ENDSEC
  0
SECTION
  2
ENTITIES
  0
MTEXT
  5
45
330
1F
100
AcDbEntity
  8
KOPF_DÜNN
100
AcDbMText
 10
13.8892156294
 20
23.8442973028
 30
0.0
 40
3.0
 41
0.0
 71
     1
 72
     1
  1
HA0.S08.K21.085
  7
SLDTEXTSTYLE0
 73
     1
 44
1.0
  0
MTEXT
  5
46
330
1F
100
AcDbEntity
  8
VERMASSUNG
100
AcDbMText
 10
13.9329988022
 20
28.8834360957
 30
0.0
 40
3.0
 41
0.0
 71
     1
 72
     1
  1
Schrumpffutter_Heat shrink chuck
  7
SLDTEXTSTYLE0
 73
     1
 44
1.0
  0
MTEXT
  5
47
330
1F
100
AcDbEntity
  8
VERMASSUNG
100
AcDbMText
 10
98.8601118557
 20
13.8365368179
 30
0.0
 40
2.0
 41
0.0
 71
     1
 72
     1
  1
Datum: 28.04.2011
  7
SLDTEXTSTYLE0
 73
     1
 44
1.0
  0
MTEXT
  5
49
330
1F
100
AcDbEntity
  8
VERMASSUNG
100
AcDbMText
 10
13.933048693
 20
18.0482802738
 30
0.0
 40
2.0
 41
0.0
 71
     1
 72
     1
  1
DIN 69 893 HSK A 100
  7
SLDTEXTSTYLE1
 73
     1
 44
1.0
  0
MTEXT
  5
4A
330
1F
100
AcDbEntity
  8
VERMASSUNG
100
AcDbMText
 10
13.9808475933
 20
13.9090973692
 30
0.0
 40
2.0
 41
0.0
 71
     1
 72
     1
  1
Gewicht: 2174g
  7
SLDTEXTSTYLE0
 73
     1
 44
1.0
  0
LINE
  5
4B
330
1F
100
AcDbEntity
  8
0
  6
Continuous
 62
     7
370
    15
100
AcDbLine
 10
211.8538192837
 20
100.0006371568
 30
0.0
 11
211.9311414909
 21
100.1476024992
 31
0.0
  0
LINE
  5
4C
330
1F
100
AcDbEntity
  8
0
  6
Continuous
 62
     7
370
    15
100
AcDbLine
 10
211.8722517672
 20
116.5847221186
 30
0.0
 11
211.8538192837
 21
116.6197565071
 31
0.0
  0
ARC
  5
4D
330
1F
100
AcDbEntity
  8
0
  6
Continuous
 62
     7
370
    15
100
AcDbCircle
 10
127.3538192837
 20
58.8650054171
 30
0.0
 40
0.5
100
AcDbArc
 50
180.0
 51
270.0
  0
ARC
  5
4E
330
1F
100
AcDbEntity
  8
0
  6
Continuous
 62
     7
370
    15
100
AcDbCircle
 10
127.3538192837
 20
157.8650054171
 30
0.0
 40
0.5
100
AcDbArc
 50
90.0
 51
180.0
  0
LINE
  5
4F
330
1F
100
AcDbEntity
  8
0
  6
Continuous
 62
     7
370
    15
100
AcDbLine
 10
127.3538192837
 20
58.3650054171
 30
0.0
 11
131.8038192837
 21
58.3650054171
 31
0.0
  0
LINE
  5
50
330
1F
100
AcDbEntity
  8
0
  6
Continuous
 62
     7
370
    15
100
AcDbLine
 10
131.8378921162
 20
158.3650054171
 30
0.0
 11
127.3538192837
 21
158.3650054171
 31
0.0
  0
ARC
  5
51
330
1F
100
AcDbEntity
  8
0
  6
Continuous
 62
     7
370
    15
100
AcDbCircle
 10
125.9568823653
 20
69.7365200927
 30
0.0
 40
0.9962338214386932
100
AcDbArc
 50
25.7988228126
 51
90.0
  0
ARC
  5
52
330
1F
100
AcDbEntity
  8
0
  6
Continuous
 62
     7
370
    15
100
AcDbCircle
 10
125.9568823653
 20
146.9934907416
 30
0.0
 40
0.9962338214387216
100
AcDbArc
 50
270.0
 51
334.2011771874
  0
LINE
  5
53
330
1F
100
AcDbEntity
  8
0
  6
Continuous
 62
     7
370
    15
100
AcDbLine
 10
124.3538192837
 20
70.4827539141
 30
0.0
 11
125.1596654381
 21
70.6986797404
 31
0.0
  0
LINE
  5
54
330
1F
100
AcDbEntity
  8
0
  6
Continuous
 62
     7
370
    15
100
AcDbLine
 10
125.1596654381
 20
146.0313310938
 30
0.0
 11
124.3538192837
 21
146.2472569201
 31
0.0
  0
LINE
  5
55
330
1F
100
AcDbEntity
  8
0
  6
Continuous
 62
     7
370
    15
100
AcDbLine
 10
105.3731238624
 20
145.2963202758
 30
0.0
 11
87.0538192837
 21
144.3785194452
 31
0.0
  0
LINE
  5
56
330
1F
100
AcDbEntity
  8
0
  6
Continuous
 62
     7
370
    15
100
AcDbLine
 10
124.3538192837
 20
146.2472569201
 30
0.0
 11
118.2857801293
 21
145.9432469424
 31
0.0
  0
LINE
  5
57
330
1F
100
AcDbEntity
  8
0
  6
Continuous
 62
     7
370
    15
100
AcDbLine
 10
118.2859034057
 20
70.7867577156
 30
0.0
 11
124.3538192837
 21
70.4827539141
 31
0.0
  0
LINE
  5
58
330
1F
100
AcDbEntity
  8
0
  6
Continuous
 62
     7
370
    15
100
AcDbLine
 10
92.0538192837
 20
72.1009903871
 30
0.0
 11
105.3737704377
 21
71.4336581649
 31
0.0
  0
ARC
  5
59
330
1F
100
AcDbEntity
  8
0
  6
Continuous
 62
     7
370
    15
100
AcDbCircle
 10
125.4184844832
 20
69.7327539141
 30
0.0
 40
1.000000000000013
100
AcDbArc
 50
90.0
 51
105.0
  0
ARC
  5
5A
330
1F
100
AcDbEntity
  8
0
  6
Continuous
 62
     7
370
    15
100
AcDbCircle
 10
125.4184844832
 20
146.9972569201
 30
0.0
 40
1.0
100
AcDbArc
 50
255.0
 51
270.0
  0
LINE
  5
5B
330
1F
100
AcDbEntity
  8
0
  6
Continuous
 62
     7
370
    15
100
AcDbLine
 10
125.4184844832
 20
70.7327539141
 30
0.0
 11
125.9568823653
 21
70.7327539141
 31
0.0
  0
LINE
  5
5C
330
1F
100
AcDbEntity
  8
0
  6
Continuous
 62
     7
370
    15
100
AcDbLine
 10
125.9568823653
 20
145.9972569201
 30
0.0
 11
125.4184844832
 21
145.9972569201
 31
0.0
  0
LINE
  5
5D
330
1F
100
AcDbEntity
  8
0
  6
Continuous
 62
     7
370
    15
100
AcDbLine
 10
78.6038192837
 20
76.1150054171
 30
0.0
 11
90.1538192837
 21
76.1150054171
 31
0.0
  0
ARC
  5
5E
330
1F
100
AcDbEntity
  8
0
  6
Continuous
 62
     7
370
    15
100
AcDbCircle
 10
160.8038192837
 20
90.3650054171
 30
0.0
 40
5.0
100
AcDbArc
 50
90.0
 51
180.0
  0
ARC
  5
5F
330
1F
100
AcDbEntity
  8
0
  6
Continuous
 62
     7
370
    15
100
AcDbCircle
 10
160.8038192837
 20
126.3650054171
 30
0.0
 40
5.0
100
AcDbArc
 50
180.0
 51
270.0
  0
ARC
  5
60
330
1F
100
AcDbEntity
  8
0
  6
Continuous
 62
     7
370
    15
100
AcDbCircle
 10
90.1538192837
 20
74.2150054171
 30
0.0
 40
1.899999999999999
100
AcDbArc
 50
35.6630613694
 51
90.0
  0
ARC
  5
61
330
1F
100
AcDbEntity
  8
0
  6
Continuous
 62
     7
370
    15
100
AcDbCircle
 10
85.1538192837
 20
142.5150054171
 30
0.0
 40
1.899999999999991
100
AcDbArc
 50
270.0
 51
312.7708047792
  0
LINE
  5
62
330
1F
100
AcDbEntity
  8
0
  6
Continuous
 62
     7
370
    15
100
AcDbLine
 10
78.6038192837
 20
140.6150054171
 30
0.0
 11
77.0115328188
 21
139.0227189522
 31
0.0
  0
LINE
  5
63
330
1F
100
AcDbEntity
  8
0
  6
Continuous
 62
     7
370
    15
100
AcDbLine
 10
77.0113421842
 20
77.7074825167
 30
0.0
 11
78.6038192837
 21
76.1150054171
 31
0.0
  0
LINE
  5
64
330
1F
100
AcDbEntity
  8
0
  6
Continuous
 62
     7
370
    15
100
AcDbLine
 10
85.1538192837
 20
140.6150054171
 30
0.0
 11
78.6038192837
 21
140.6150054171
 31
0.0
  0
LINE
  5
65
330
1F
100
AcDbEntity
  8
0
  6
Continuous
 62
     7
370
    15
100
AcDbLine
 10
180.0883074433
 20
95.3650054171
 30
0.0
 11
210.0107374752
 21
97.719951733
 31
0.0
  0
LINE
  5
66
330
1F
100
AcDbEntity
  8
0
  6
Continuous
 62
     7
370
    15
100
AcDbLine
 10
210.0107374752
 20
119.0100591013
 30
0.0
 11
180.0883074433
 21
121.3650054171
 31
0.0
  0
LINE
  5
67
330
1F
100
AcDbEntity
  8
0
  6
Continuous
 62
     7
370
    15
100
AcDbLine
 10
172.3012103103
 20
95.3650054171
 30
0.0
 11
180.0883074433
 21
95.3650054171
 31
0.0
  0
LINE
  5
68
330
1F
100
AcDbEntity
  8
0
  6
Continuous
 62
     7
370
    15
100
AcDbLine
 10
160.8038192837
 20
95.3650054171
 30
0.0
 11
165.3066539095
 21
95.3650054171
 31
0.0
  0
LINE
  5
69
330
1F
100
AcDbEntity
  8
0
  6
Continuous
 62
     7
370
    15
100
AcDbLine
 10
165.3056658217
 20
121.3650054171
 30
0.0
 11
160.8038192837
 21
121.3650054171
 31
0.0
  0
LINE
  5
6A
330
1F
100
AcDbEntity
  8
0
  6
Continuous
 62
     7
370
    15
100
AcDbLine
 10
180.0883074433
 20
121.3650054171
 30
0.0
 11
172.2955724256
 21
121.3650054171
 31
0.0
  0
ARC
  5
6B
330
1F
100
AcDbEntity
  8
0
  6
Continuous
 62
     7
370
    15
100
AcDbCircle
 10
209.8538192837
 20
99.7137864004
 30
0.0
 40
2.000000000000004
100
AcDbArc
 50
274.5
 51
0.0
  0
ARC
  5
6C
330
1F
100
AcDbEntity
  8
0
  6
Continuous
 62
     7
370
    15
100
AcDbCircle
 10
209.8538192837
 20
117.0162244338
 30
0.0
 40
2.000000000000004
100
AcDbArc
 50
0.0
 51
85.5
  0
LINE
  5
6D
330
1F
100
AcDbEntity
  8
0
  6
Continuous
 62
     7
370
    15
100
AcDbLine
 10
211.8832641456
 20
101.3661623089
 30
0.0
 11
211.9311414909
 21
100.1476024992
 31
0.0
  0
LINE
  5
6E
330
1F
100
AcDbEntity
  8
0
  6
Continuous
 62
     7
370
    15
100
AcDbLine
 10
211.8538192837
 20
102.1155840861
 30
0.0
 11
211.8832641456
 21
101.3661623089
 31
0.0
  0
LINE
  5
6F
330
1F
100
AcDbEntity
  8
0
  6
Continuous
 62
     7
370
    15
100
AcDbLine
 10
211.8722517672
 20
116.5847221186
 30
0.0
 11
211.8538192837
 21
116.1155840861
 31
0.0
  0
LINE
  5
70
330
1F
100
AcDbEntity
  8
0
  6
Continuous
 62
     7
370
    15
100
AcDbLine
 10
144.9438192837
 20
61.9936171301
 30
0.0
 11
144.9438192837
 21
139.7150054171
 31
0.0
  0
SPLINE
  5
71
330
1F
100
AcDbEntity
  8
0
  6
Continuous
 62
     7
370
    15
100
AcDbSpline
210
0.0
220
0.0
230
1.0
 70
     8
 71
     3
 72
     8
 73
     4
 74
     0
 42
0.00000001
 43
0.00000001
 40
0.0
 40
0.0
 40
0.0
 40
0.0
 40
1.0
 40
1.0
 40
1.0
 40
1.0
 10
144.9438192837481
 20
61.9936171300947
 30
0.0
 10
144.4935928194703
 20
61.19216176746993
 30
0.0
 10
144.0428949922269
 20
60.39097175590928
 30
0.0
 10
143.5917902628267
 20
59.59001182408936
 30
0.0
  0
LINE
  5
72
330
1F
100
AcDbEntity
  8
0
  6
Continuous
 62
     7
370
    15
100
AcDbLine
 10
143.5917902628
 20
59.5900118241
 30
0.0
 11
143.5917902628
 21
139.7150054171
 31
0.0
  0
SPLINE
  5
73
330
1F
100
AcDbEntity
  8
0
  6
Continuous
 62
     7
370
    15
100
AcDbSpline
210
0.0
220
0.0
230
1.0
 70
    24
 71
     3
 72
     8
 73
     4
 74
     0
 42
0.00000001
 43
0.00000001
 40
0.0
 40
0.0
 40
0.0
 40
0.0
 40
1.0
 40
1.0
 40
1.0
 40
1.0
 10
143.5917902628267
 20
139.7150054171182
 30
0.0
 10
144.048591835155
 20
139.7150054171182
 30
0.0
 10
144.4996064013941
 20
139.7150054171182
 30
0.0
 10
144.9438192837481
 20
139.7150054171182
 30
0.0
  0
LINE
  5
74
330
1F
100
AcDbEntity
  8
0
  6
Continuous
 62
     7
370
    15
100
AcDbLine
 10
126.8538192837
 20
58.8650054171
 30
0.0
 11
126.8538192837
 21
157.8650054169
 31
0.0
  0
LINE
  5
75
330
1F
100
AcDbEntity
  8
0
  6
Continuous
 62
     7
370
    15
100
AcDbLine
 10
155.8038192837
 20
60.6156598719
 30
0.0
 11
155.8038192837
 21
139.7150054171
 31
0.0
  0
SPLINE
  5
76
330
1F
100
AcDbEntity
  8
0
  6
Continuous
 62
     7
370
    15
100
AcDbSpline
210
0.0
220
0.0
230
1.0
 70
     8
 71
     3
 72
    14
 73
    10
 74
     0
 42
0.00000001
 43
0.00000001
 40
0.0
 40
0.0
 40
0.0
 40
0.0
 40
0.25
 40
0.25
 40
0.5
 40
0.5
 40
0.75
 40
0.75
 40
1.0
 40
1.0
 40
1.0
 40
1.0
 10
155.8038192837481
 20
60.61565987186486
 30
0.0
 10
155.8038192837481
 20
60.48223417581033
 30
0.0
 10
155.7785081838372
 20
60.35038636796597
 30
0.0
 10
155.6801734199925
 20
60.10386381927187
 30
0.0
 10
155.6070294157364
 20
59.99005863103133
 30
0.0
 10
155.4235913546407
 20
59.79960145408405
 30
0.0
 10
155.3119050203021
 20
59.72196659023414
 30
0.0
 10
155.0694015899959
 20
59.61767518012167
 30
0.0
 10
154.9360271613016
 20
59.59001182408932
 30
0.0
 10
154.8038192837481
 20
59.59001182408932
 30
0.0
  0
SPLINE
  5
77
330
1F
100
AcDbEntity
  8
0
  6
Continuous
 62
     7
370
    15
100
AcDbSpline
210
0.0
220
0.0
230
1.0
 70
    24
 71
     3
 72
    12
 73
     8
 74
     0
 42
0.00000001
 43
0.00000001
 40
0.0
 40
0.0
 40
0.0
 40
0.0
 40
0.2500000000000032
 40
0.2500000000000032
 40
0.5000000000000064
 40
0.5000000000000064
 40
1.0
 40
1.0
 40
1.0
 40
1.0
 10
154.8038192837481
 20
139.7150054171182
 30
0.0
 10
154.9559095206931
 20
139.7150054171182
 30
0.0
 10
155.1043687817685
 20
139.7150054171182
 30
0.0
 10
155.3617724140342
 20
139.7150054171182
 30
0.0
 10
155.4708771618761
 20
139.7150054171181
 30
0.0
 10
155.7249366382837
 20
139.7150054171182
 30
0.0
 10
155.8038192837481
 20
139.7150054171182
 30
0.0
 10
155.8038192837481
 20
139.7150054171182
 30
0.0
  0
SPLINE
  5
78
330
1F
100
AcDbEntity
  8
0
  6
Continuous
 62
     7
370
    15
100
AcDbSpline
210
0.0
220
0.0
230
1.0
 70
     8
 71
     3
 72
    80
 73
    76
 74
     0
 42
0.00000001
 43
0.00000001
 40
-0.0312500000000001
 40
-0.0312500000000001
 40
0.0
 40
0.0
 40
0.0312499999999995
 40
0.0312499999999995
 40
0.0468749999999993
 40
0.0468749999999993
 40
0.0624999999999991
 40
0.0624999999999991
 40
0.0937499999999988
 40
0.0937499999999988
 40
0.1249999999999986
 40
0.1249999999999986
 40
0.1562499999999983
 40
0.1562499999999983
 40
0.1874999999999981
 40
0.1874999999999981
 40
0.2187499999999978
 40
0.2187499999999978
 40
0.2499999999999976
 40
0.2499999999999976
 40
0.2812499999999973
 40
0.2812499999999973
 40
0.3124999999999971
 40
0.3124999999999971
 40
0.3281249999999971
 40
0.3281249999999971
 40
0.3437499999999971
 40
0.3437499999999971
 40
0.3749999999999973
 40
0.3749999999999973
 40
0.4062499999999975
 40
0.4062499999999975
 40
0.4218749999999975
 40
0.4218749999999975
 40
0.4374999999999974
 40
0.4374999999999974
 40
0.4687499999999973
 40
0.4687499999999973
 40
0.4999999999999972
 40
0.4999999999999972
 40
0.531249999999997
 40
0.531249999999997
 40
0.562499999999997
 40
0.562499999999997
 40
0.5937499999999969
 40
0.5937499999999969
 40
0.6249999999999969
 40
0.6249999999999969
 40
0.6562499999999968
 40
0.6562499999999968
 40
0.6874999999999968
 40
0.6874999999999968
 40
0.7031249999999968
 40
0.7031249999999968
 40
0.7187499999999969
 40
0.7187499999999969
 40
0.7499999999999973
 40
0.7499999999999973
 40
0.7812499999999979
 40
0.7812499999999979
 40
0.7968749999999982
 40
0.7968749999999982
 40
0.8124999999999984
 40
0.8124999999999984
 40
0.8437499999999988
 40
0.8437499999999988
 40
0.874999999999999
 40
0.874999999999999
 40
0.9062499999999993
 40
0.9062499999999993
 40
0.9374999999999996
 40
0.9374999999999996
 40
0.9687499999999999
 40
0.9687499999999999
 40
1.0
 40
1.0
 40
1.03125
 40
1.03125
 10
135.5232739709718
 20
151.7796348807495
 30
0.0
 10
136.1843645965244
 20
151.7796348807495
 30
0.0
 10
136.509344725776
 20
151.7958431121316
 30
0.0
 10
136.9888181370225
 20
151.8432077441512
 30
0.0
 10
137.1472999548633
 20
151.8628619560418
 30
0.0
 10
137.4615194873676
 20
151.9099731122345
 30
0.0
 10
137.6176397710479
 20
151.9375544317292
 30
0.0
 10
138.0716938000045
 20
152.0300902185229
 30
0.0
 10
138.3587971829444
 20
152.1051606521194
 30
0.0
 10
138.9021517389714
 20
152.28039896073
 30
0.0
 10
139.1592553501769
 20
152.3814002585683
 30
0.0
 10
139.6201616051158
 20
152.5987564570292
 30
0.0
 10
139.8270593143307
 20
152.7159207888014
 30
0.0
 10
140.1925846283229
 20
152.9659907130301
 30
0.0
 10
140.3477901504489
 20
153.096936801789
 30
0.0
 10
140.5972205370486
 20
153.3626717455014
 30
0.0
 10
140.6933104928338
 20
153.4994253388124
 30
0.0
 10
140.8218293420273
 20
153.7734909136513
 30
0.0
 10
140.8536402122051
 20
153.9084310041202
 30
0.0
 10
140.8539968619784
 20
154.1739026411889
 30
0.0
 10
140.8214996097813
 20
154.3057271183302
 30
0.0
 10
140.6938741360668
 20
154.5551767179506
 30
0.0
 10
140.599445735015
 20
154.6736094098786
 30
0.0
 10
140.4115849150294
 20
154.8424786069726
 30
0.0
 10
140.3407569162262
 20
154.8975646020929
 30
0.0
 10
140.1860350242609
 20
155.0028174305812
 30
0.0
 10
140.1020585540775
 20
155.0531526593416
 30
0.0
 10
139.8307348844331
 20
155.1977284918797
 30
0.0
 10
139.6241856658307
 20
155.2855900782967
 30
0.0
 10
139.1575755256417
 20
155.4453111712962
 30
0.0
 10
138.9052099560163
 20
155.5145494677633
 30
0.0
 10
138.4993086143375
 20
155.6043368569932
 30
0.0
 10
138.3594079968601
 20
155.6319028190794
 30
0.0
 10
138.0701840616131
 20
155.6823936200057
 30
0.0
 10
137.9203446053239
 20
155.7053570588564
 30
0.0
 10
137.4662280357131
 20
155.7659875752753
 30
0.0
 10
137.1545768169762
 20
155.7960616040711
 30
0.0
 10
136.5135803520639
 20
155.8366511913298
 30
0.0
 10
136.1820527241117
 20
155.8469634215458
 30
0.0
 10
135.5292616790402
 20
155.8470389887115
 30
0.0
 10
135.2047254740084
 20
155.8371373832438
 30
0.0
 10
134.559456024592
 20
155.7966508527186
 30
0.0
 10
134.2437130184292
 20
155.7661895528339
 30
0.0
 10
133.6418237234456
 20
155.6860388813973
 30
0.0
 10
133.3510744926341
 20
155.6357566495901
 30
0.0
 10
132.8041627009496
 20
155.5150864668171
 30
0.0
 10
132.5523853371127
 20
155.4458626076471
 30
0.0
 10
132.0909973444915
 20
155.2884108800065
 30
0.0
 10
131.8797280648934
 20
155.1990624053327
 30
0.0
 10
131.5164237125172
 20
155.0058145346319
 30
0.0
 10
131.3626170640744
 20
154.9016865427526
 30
0.0
 10
131.173997594477
 20
154.7330621565692
 30
0.0
 10
131.1179671082679
 20
154.6744337548942
 30
0.0
 10
131.0223933465318
 20
154.554978840068
 30
0.0
 10
130.9826304295067
 20
154.4940590512298
 30
0.0
 10
130.8868586791946
 20
154.3076543250559
 30
0.0
 10
130.8541358400685
 20
154.1785415072609
 30
0.0
 10
130.8535072537394
 20
153.909884584305
 30
0.0
 10
130.8856933984742
 20
153.7745138435482
 30
0.0
 10
130.9806041003298
 20
153.5709635353122
 30
0.0
 10
131.0200708837287
 20
153.5029916112488
 30
0.0
 10
131.1150008824496
 20
153.3668993881179
 30
0.0
 10
131.170757710213
 20
153.2985492879085
 30
0.0
 10
131.3586978281829
 20
153.0978462748664
 30
0.0
 10
131.512059297899
 20
152.9684580010536
 30
0.0
 10
131.8743235327794
 20
152.7197925690038
 30
0.0
 10
132.0851720062453
 20
152.5999829266356
 30
0.0
 10
132.5458419765642
 20
152.382460639063
 30
0.0
 10
132.7972163561481
 20
152.2833755392271
 30
0.0
 10
133.3431242430462
 20
152.1067030653102
 30
0.0
 10
133.6339468176974
 20
152.0306459771762
 30
0.0
 10
134.2352734324775
 20
151.9078009998232
 30
0.0
 10
134.5497920170899
 20
151.86009487477
 30
0.0
 10
135.1963734732098
 20
151.7958463396504
 30
0.0
 10
135.5232739709718
 20
151.7796348807495
 30
0.0
 10
136.1843645965244
 20
151.7796348807495
 30
0.0
  0
LINE
  5
79
330
1F
100
AcDbEntity
  8
0
  6
Continuous
 62
     7
370
    15
100
AcDbLine
 10
131.8038192837
 20
139.7150054171
 30
0.0
 11
143.5917902628
 21
139.7150054171
 31
0.0
  0
LINE
  5
7A
330
1F
100
AcDbEntity
  8
0
  6
Continuous
 62
     7
370
    15
100
AcDbLine
 10
143.5917902628
 20
59.5900118241
 30
0.0
 11
141.8038192837
 21
59.5900118241
 31
0.0
  0
SPLINE
  5
7B
330
1F
100
AcDbEntity
  8
0
  6
Continuous
 62
     7
370
    15
100
AcDbSpline
210
0.0
220
0.0
230
1.0
 70
     8
 71
     3
 72
    30
 73
    26
 74
     0
 42
0.00000001
 43
0.00000001
 40
0.0
 40
0.0
 40
0.0
 40
0.0
 40
0.1250000000000002
 40
0.1250000000000002
 40
0.1875000000000003
 40
0.1875000000000003
 40
0.2500000000000004
 40
0.2500000000000004
 40
0.3750000000000001
 40
0.3750000000000001
 40
0.4374999999999998
 40
0.4374999999999998
 40
0.4999999999999996
 40
0.4999999999999996
 40
0.6249999999999996
 40
0.6249999999999996
 40
0.6874999999999997
 40
0.6874999999999997
 40
0.7499999999999997
 40
0.7499999999999997
 40
0.8124999999999998
 40
0.8124999999999998
 40
0.8749999999999999
 40
0.8749999999999999
 40
1.0
 40
1.0
 40
1.0
 40
1.0
 10
141.8038192837481
 20
59.59001182408936
 30
0.0
 10
141.1410745899031
 20
59.59001182408937
 30
0.0
 10
140.4898187307874
 20
59.57517174750055
 30
0.0
 10
139.5293681925291
 20
59.53280218327093
 30
0.0
 10
139.2119767492961
 20
59.51532408049176
 30
0.0
 10
138.5828132477413
 20
59.47399579393945
 30
0.0
 10
138.2706650612995
 20
59.45007052048175
 30
0.0
 10
137.3633577594513
 20
59.37126400401485
 30
0.0
 10
136.78993280181
 20
59.30895798403838
 30
0.0
 10
135.9760559322354
 20
59.20582866379902
 30
0.0
 10
135.7112497356655
 20
59.16964474475251
 30
0.0
 10
135.2043423248512
 20
59.095849960552
 30
0.0
 10
134.9629481734977
 20
59.05837610178036
 30
0.0
 10
134.2738067013653
 20
58.94566415844062
 30
0.0
 10
133.8607518865011
 20
58.87012806096684
 30
0.0
 10
133.312597067126
 20
58.76173480394935
 30
0.0
 10
133.1431344597805
 20
58.72666257228609
 30
0.0
 10
132.8351172117651
 20
58.66042711168624
 30
0.0
 10
132.6957371911567
 20
58.62910041493151
 30
0.0
 10
132.44595167853
 20
58.57069164335059
 30
0.0
 10
132.3355455658761
 20
58.54360840816774
 30
0.0
 10
132.1442877122383
 20
58.49434865355415
 30
0.0
 10
132.063168193954
 20
58.4720866737465
 30
0.0
 10
131.8690212738456
 20
58.41451976657823
 30
0.0
 10
131.8038192837481
 20
58.38826016179224
 30
0.0
 10
131.8038192837481
 20
58.37500641731821
 30
0.0
  0
LINE
  5
7C
330
1F
100
AcDbEntity
  8
0
  6
Continuous
 62
     7
370
    15
100
AcDbLine
 10
131.8038192837
 20
58.3750064173
 30
0.0
 11
131.8038192837
 21
58.3650054171
 31
0.0
  0
SPLINE
  5
7D
330
1F
100
AcDbEntity
  8
0
  6
Continuous
 62
     7
370
    15
100
AcDbSpline
210
0.0
220
0.0
230
1.0
 70
     8
 71
     3
 72
    17
 73
    13
 74
     0
 42
0.00000001
 43
0.00000001
 40
0.0
 40
0.0
 40
0.0
 40
0.0
 40
0.104384384054747
 40
0.2118345768143993
 40
0.316208200519045
 40
0.4235375806108392
 40
0.5292276236193852
 40
0.6379275864803491
 40
0.7444714844189683
 40
0.8541836219421859
 40
0.9593080534965217
 40
1.0
 40
1.0
 40
1.0
 40
1.0
 10
141.8038192837481
 20
157.3548002727817
 30
0.0
 10
141.2558808358887
 20
157.3601684765305
 30
0.0
 10
140.143910781424
 20
157.3710625501955
 30
0.0
 10
138.5310548682091
 20
157.4562399244543
 30
0.0
 10
136.9975416512321
 20
157.5826146307469
 30
0.0
 10
135.6065208018955
 20
157.7395174513237
 30
0.0
 10
134.3710042846651
 20
157.9112162808443
 30
0.0
 10
133.3476485175099
 20
158.0765525569454
 30
0.0
 10
132.5473065192447
 20
158.2202660365319
 30
0.0
 10
132.0369744173312
 20
158.3184208437111
 30
0.0
 10
131.7970659885067
 20
158.366349240581
 30
0.0
 10
131.8289847679265
 20
158.3599818413414
 30
0.0
 10
131.8378921162087
 20
158.3582049362181
 30
0.0
  0
LINE
  5
7E
330
1F
100
AcDbEntity
  8
0
  6
Continuous
 62
     7
370
    15
100
AcDbLine
 10
143.5917902628
 20
157.3548002728
 30
0.0
 11
141.8038192837
 21
157.3548002728
 31
0.0
  0
LINE
  5
7F
330
1F
100
AcDbEntity
  8
0
  6
Continuous
 62
     7
370
    15
100
AcDbLine
 10
143.5917902628
 20
147.315968178
 30
0.0
 11
143.5917902628
 21
157.3548002728
 31
0.0
  0
LINE
  5
80
330
1F
100
AcDbEntity
  8
0
  6
Continuous
 62
     7
370
    15
100
AcDbLine
 10
141.5117861319
 20
147.315968178
 30
0.0
 11
143.5917902628
 21
147.315968178
 31
0.0
  0
SPLINE
  5
81
330
1F
100
AcDbEntity
  8
0
  6
Continuous
 62
     7
370
    15
100
AcDbSpline
210
0.0
220
0.0
230
1.0
 70
     8
 71
     3
 72
    22
 73
    18
 74
     0
 42
0.00000001
 43
0.00000001
 40
0.0
 40
0.0
 40
0.0
 40
0.0
 40
0.2500000000000002
 40
0.2500000000000002
 40
0.3750000000000003
 40
0.3750000000000003
 40
0.5000000000000004
 40
0.5000000000000004
 40
0.6250000000000004
 40
0.6250000000000004
 40
0.7500000000000004
 40
0.7500000000000004
 40
0.8750000000000004
 40
0.8750000000000004
 40
0.9375000000000002
 40
0.9375000000000002
 40
1.0
 40
1.0
 40
1.0
 40
1.0
 10
131.8038192837481
 20
139.7150054171182
 30
0.0
 10
132.0065442396672
 20
140.7342517589828
 30
0.0
 10
132.3212879614626
 20
141.6933599089221
 30
0.0
 10
133.0293434311335
 20
143.0358389864313
 30
0.0
 10
133.3078060613512
 20
143.4700475691714
 30
0.0
 10
133.9465734679883
 20
144.2816752846735
 30
0.0
 10
134.3069871477786
 20
144.6609555776103
 30
0.0
 10
135.1245193797679
 20
145.3639141566313
 30
0.0
 10
135.585687363055
 20
145.6889429743319
 30
0.0
 10
136.5836776095388
 20
146.2539582977228
 30
0.0
 10
137.1234368035311
 20
146.4976618919293
 30
0.0
 10
138.2980297675624
 20
146.9018618195743
 30
0.0
 10
138.9097659535543
 20
147.0542990126198
 30
0.0
 10
139.861675178416
 20
147.2096265602285
 30
0.0
 10
140.1849083426766
 20
147.2491313402786
 30
0.0
 10
140.8439715139519
 20
147.3024404609472
 30
0.0
 10
141.1780355245259
 20
147.3159681780051
 30
0.0
 10
141.5117861319274
 20
147.3159681780051
 30
0.0
  0
LINE
  5
82
330
1F
100
AcDbEntity
  8
0
  6
Continuous
 62
     7
370
    15
100
AcDbLine
 10
150.1158483047
 20
59.5900118241
 30
0.0
 11
150.1158483047
 21
139.7150054171
 31
0.0
  0
SPLINE
  5
83
330
1F
100
AcDbEntity
  8
0
  6
Continuous
 62
     7
370
    15
100
AcDbSpline
210
0.0
220
0.0
230
1.0
 70
     8
 71
     3
 72
     8
 73
     4
 74
     0
 42
0.00000001
 43
0.00000001
 40
0.0
 40
0.0
 40
0.0
 40
0.0
 40
1.0
 40
1.0
 40
1.0
 40
1.0
 10
150.1158483046695
 20
59.59001182408936
 30
0.0
 10
149.6647435752693
 20
60.39097175590928
 30
0.0
 10
149.2140457480259
 20
61.19216176746993
 30
0.0
 10
148.7638192837481
 20
61.9936171300947
 30
0.0
  0
LINE
  5
84
330
1F
100
AcDbEntity
  8
0
  6
Continuous
 62
     7
370
    15
100
AcDbLine
 10
148.7638192837
 20
61.9936171301
 30
0.0
 11
148.7638192837
 21
139.7150054171
 31
0.0
  0
SPLINE
  5
85
330
1F
100
AcDbEntity
  8
0
  6
Continuous
 62
     7
370
    15
100
AcDbSpline
210
0.0
220
0.0
230
1.0
 70
    24
 71
     3
 72
     8
 73
     4
 74
     0
 42
0.00000001
 43
0.00000001
 40
0.0
 40
0.0
 40
0.0
 40
0.0
 40
1.0
 40
1.0
 40
1.0
 40
1.0
 10
148.7638192837481
 20
139.7150054171182
 30
0.0
 10
149.208032166102
 20
139.7150054171182
 30
0.0
 10
149.6590467323413
 20
139.7150054171182
 30
0.0
 10
150.1158483046695
 20
139.7150054171182
 30
0.0
  0
LINE
  5
86
330
1F
100
AcDbEntity
  8
0
  6
Continuous
 62
     7
370
    15
100
AcDbLine
 10
154.8038192837
 20
59.5900118241
 30
0.0
 11
150.1158483047
 21
59.5900118241
 31
0.0
  0
LINE
  5
87
330
1F
100
AcDbEntity
  8
0
  6
Continuous
 62
     7
370
    15
100
AcDbLine
 10
150.1158483047
 20
139.7150054171
 30
0.0
 11
154.8038192837
 21
139.7150054171
 31
0.0
  0
SPLINE
  5
88
330
1F
100
AcDbEntity
  8
0
  6
Continuous
 62
     7
370
    15
100
AcDbSpline
210
0.0
220
0.0
230
1.0
 70
     8
 71
     3
 72
    14
 73
    10
 74
     0
 42
0.00000001
 43
0.00000001
 40
0.0
 40
0.0
 40
0.0
 40
0.0
 40
0.25
 40
0.25
 40
0.5
 40
0.5
 40
0.75
 40
0.75
 40
1.0
 40
1.0
 40
1.0
 40
1.0
 10
148.7638192837481
 20
62.90182663472327
 30
0.0
 10
148.7638192837481
 20
63.00887071571766
 30
0.0
 10
148.7437015965899
 20
63.11410585596011
 30
0.0
 10
148.6652104073243
 20
63.31195634280778
 30
0.0
 10
148.6070537825231
 20
63.40300810637271
 30
0.0
 10
148.4605385269051
 20
63.55617420029749
 30
0.0
 10
148.371895978264
 20
63.6184686465069
 30
0.0
 10
148.1761726554636
 20
63.70326243204288
 30
0.0
 10
148.0709414643927
 20
63.72532995906852
 30
0.0
 10
147.9638192837481
 20
63.72532995906852
 30
0.0
  0
SPLINE
  5
89
330
1F
100
AcDbEntity
  8
0
  6
Continuous
 62
     7
370
    15
100
AcDbSpline
210
0.0
220
0.0
230
1.0
 70
    24
 71
     3
 72
    14
 73
    10
 74
     0
 42
0.00000001
 43
0.00000001
 40
0.0
 40
0.0
 40
0.0
 40
0.0
 40
0.25
 40
0.25
 40
0.5
 40
0.5
 40
0.75
 40
0.75
 40
1.0
 40
1.0
 40
1.0
 40
1.0
 10
147.9638192837481
 20
139.7150054171182
 30
0.0
 10
148.0875890485133
 20
139.7150054171182
 30
0.0
 10
148.2119561525201
 20
139.7150054171182
 30
0.0
 10
148.4183126212462
 20
139.7150054171181
 30
0.0
 10
148.5036407646645
 20
139.7150054171182
 30
0.0
 10
148.6358328233798
 20
139.7150054171182
 30
0.0
 10
148.6844780671303
 20
139.7150054171182
 30
0.0
 10
148.7480138588591
 20
139.7150054171182
 30
0.0
 10
148.7638192837481
 20
139.7150054171182
 30
0.0
 10
148.7638192837481
 20
139.7150054171182
 30
0.0
  0
SPLINE
  5
8A
330
1F
100
AcDbEntity
  8
0
  6
Continuous
 62
     7
370
    15
100
AcDbSpline
210
0.0
220
0.0
230
1.0
 70
     8
 71
     3
 72
    12
 73
     8
 74
     0
 42
0.00000001
 43
0.00000001
 40
0.0
 40
0.0
 40
0.0
 40
0.0
 40
0.25
 40
0.25
 40
0.5
 40
0.5
 40
1.0
 40
1.0
 40
1.0
 40
1.0
 10
145.7438192837481
 20
63.72532995906852
 30
0.0
 10
145.6380586303992
 20
63.72532995906852
 30
0.0
 10
145.5300710022162
 20
63.70279045306812
 30
0.0
 10
145.3354763369506
 20
63.6182198210728
 30
0.0
 10
145.2466044241118
 20
63.55573816831403
 30
0.0
 10
145.0274121317859
 20
63.32634921684186
 30
0.0
 10
144.9438192837481
 20
63.11376587931947
 30
0.0
 10
144.9438192837481
 20
62.90182663472327
 30
0.0
  0
SPLINE
  5
8B
330
1F
100
AcDbEntity
  8
0
  6
Continuous
 62
     7
370
    15
100
AcDbSpline
210
0.0
220
0.0
230
1.0
 70
    24
 71
     3
 72
    14
 73
    10
 74
     0
 42
0.00000001
 43
0.00000001
 40
0.0
 40
0.0
 40
0.0
 40
0.0
 40
0.25
 40
0.25
 40
0.5
 40
0.5
 40
0.75
 40
0.75
 40
1.0
 40
1.0
 40
1.0
 40
1.0
 10
144.9438192837481
 20
139.7150054171182
 30
0.0
 10
144.9438192837481
 20
139.7150054171182
 30
0.0
 10
144.959533604214
 20
139.7150054171182
 30
0.0
 10
145.0232175826824
 20
139.7150054171181
 30
0.0
 10
145.0718207770929
 20
139.7150054171182
 30
0.0
 10
145.2045042995184
 20
139.7150054171182
 30
0.0
 10
145.2896064038291
 20
139.7150054171182
 30
0.0
 10
145.4960486387392
 20
139.7150054171182
 30
0.0
 10
145.6201295803622
 20
139.7150054171182
 30
0.0
 10
145.7438192837481
 20
139.7150054171182
 30
0.0
  0
LINE
  5
8C
330
1F
100
AcDbEntity
  8
0
  6
Continuous
 62
     7
370
    15
100
AcDbLine
 10
147.9638192837
 20
63.7253299591
 30
0.0
 11
145.7438192837
 21
63.7253299591
 31
0.0
  0
LINE
  5
8D
330
1F
100
AcDbEntity
  8
0
  6
Continuous
 62
     7
370
    15
100
AcDbLine
 10
145.7438192837
 20
139.7150054171
 30
0.0
 11
147.9638192837
 21
139.7150054171
 31
0.0
  0
LINE
  5
8E
330
1F
100
AcDbEntity
  8
0
  6
Continuous
 62
     7
370
    15
100
AcDbLine
 10
124.3538192837
 20
70.4827539141
 30
0.0
 11
124.3538192837
 21
146.2472569201
 31
0.0
  0
LINE
  5
8F
330
1F
100
AcDbEntity
  8
0
  6
Continuous
 62
     7
370
    15
100
AcDbLine
 10
92.0538192837
 20
72.1009903871
 30
0.0
 11
92.0538192837
 21
74.4956721518
 31
0.0
  0
SPLINE
  5
90
330
1F
100
AcDbEntity
  8
0
  6
Continuous
 62
     7
370
    15
100
AcDbSpline
210
0.0
220
0.0
230
1.0
 70
     8
 71
     3
 72
    14
 73
    10
 74
     0
 42
0.00000001
 43
0.00000001
 40
0.0
 40
0.0
 40
0.0
 40
0.0
 40
0.25
 40
0.25
 40
0.5
 40
0.5
 40
0.75
 40
0.75
 40
1.0
 40
1.0
 40
1.0
 40
1.0
 10
91.04939681241115
 20
76.19852407337463
 30
0.0
 10
91.13816539035646
 20
76.03998994206668
 30
0.0
 10
91.25988322903537
 20
75.88754726517813
 30
0.0
 10
91.49493283889221
 20
75.5904126413492
 30
0.0
 10
91.6105630251091
 20
75.44572999773185
 30
0.0
 10
91.8109679585369
 20
75.16244079522843
 30
0.0
 10
91.89636825052125
 20
75.02388680219157
 30
0.0
 10
92.01807388423846
 20
74.75250277215805
 30
0.0
 10
92.05381928375111
 20
74.62036690352343
 30
0.0
 10
92.0538192837511
 20
74.49567215175267
 30
0.0
  0
SPLINE
  5
91
330
1F
100
AcDbEntity
  8
0
  6
Continuous
 62
     7
370
    15
100
AcDbSpline
210
0.0
220
0.0
230
1.0
 70
     8
 71
     3
 72
    14
 73
    10
 74
     0
 42
0.00000001
 43
0.00000001
 40
0.0
 40
0.0
 40
0.0
 40
0.0
 40
0.124999999999999
 40
0.124999999999999
 40
0.249999999999998
 40
0.249999999999998
 40
0.5000000000000007
 40
0.5000000000000007
 40
1.0
 40
1.0
 40
1.0
 40
1.0
 10
90.1538192837481
 20
76.82735401247474
 30
0.0
 10
90.2214015835326
 20
76.83450989757615
 30
0.0
 10
90.29388916128049
 20
76.83008542753711
 30
0.0
 10
90.42618027054644
 20
76.80037926976676
 30
0.0
 10
90.48345764993661
 20
76.77709498818855
 30
0.0
 10
90.6331080771369
 20
76.69960974833823
 30
0.0
 10
90.7068213726584
 20
76.63775792143686
 30
0.0
 10
90.89462935598463
 20
76.45308046878854
 30
0.0
 10
90.97866966234608
 20
76.32483754549732
 30
0.0
 10
91.04939681241237
 20
76.19852407337474
 30
0.0
  0
SPLINE
  5
92
330
1F
100
AcDbEntity
  8
0
  6
Continuous
 62
     7
370
    15
100
AcDbSpline
210
0.0
220
0.0
230
1.0
 70
     8
 71
     3
 72
     8
 73
     4
 74
     0
 42
0.00000001
 43
0.00000001
 40
0.0
 40
0.0
 40
0.0
 40
0.0
 40
1.0
 40
1.0
 40
1.0
 40
1.0
 10
86.60917889566731
 20
76.40930542768295
 30
0.0
 10
87.77447720637619
 20
76.56449289956957
 30
0.0
 10
88.959092420416
 20
76.7008515378799
 30
0.0
 10
90.15381928374808
 20
76.82735401247476
 30
0.0
  0
SPLINE
  5
93
330
1F
100
AcDbEntity
  8
0
  6
Continuous
 62
     7
370
    15
100
AcDbSpline
210
0.0
220
0.0
230
1.0
 70
     8
 71
     3
 72
    14
 73
    10
 74
     0
 42
0.00000001
 43
0.00000001
 40
0.0
 40
0.0
 40
0.0
 40
0.0
 40
0.4999999999999972
 40
0.4999999999999972
 40
0.7499999999999971
 40
0.7499999999999971
 40
0.8749999999999986
 40
0.8749999999999986
 40
1.0
 40
1.0
 40
1.0
 40
1.0
 10
78.8537443997194
 20
76.11917324855304
 30
0.0
 10
80.16204596225316
 20
76.12618797229418
 30
0.0
 10
81.46710533690995
 20
76.14159654873865
 30
0.0
 10
83.41298138839828
 20
76.19549310420531
 30
0.0
 10
84.05967889213728
 20
76.21852466880802
 30
0.0
 10
85.02352125599162
 20
76.26946719367878
 30
0.0
 10
85.3437599479257
 20
76.28920211591198
 30
0.0
 10
85.98045517426812
 20
76.33868924438353
 30
0.0
 10
86.29717058255105
 20
76.36775402331277
 30
0.0
 10
86.60917889566736
 20
76.40930542768292
 30
0.0
  0
SPLINE
  5
94
330
1F
100
AcDbEntity
  8
0
  6
Continuous
 62
     7
370
    15
100
AcDbSpline
210
0.0
220
0.0
230
1.0
 70
     8
 71
     3
 72
    12
 73
     8
 74
     0
 42
0.00000001
 43
0.00000001
 40
0.0
 40
0.0
 40
0.0
 40
0.0
 40
0.2500000000000009
 40
0.2500000000000009
 40
0.5000000000000018
 40
0.5000000000000018
 40
1.0
 40
1.0
 40
1.0
 40
1.0
 10
85.1538192837481
 20
140.4515283086146
 30
0.0
 10
84.6351204619199
 20
140.4840510834628
 30
0.0
 10
84.11340888871491
 20
140.5073478246333
 30
0.0
 10
83.06711687221934
 20
140.5451933390554
 30
0.0
 10
82.54244524654908
 20
140.5594618135516
 30
0.0
 10
80.96559922400986
 20
140.5936713010099
 30
0.0
 10
79.91064390946292
 20
140.6051708049538
 30
0.0
 10
78.85374439971771
 20
140.6108375856833
 30
0.0
  0
SPLINE
  5
95
330
1F
100
AcDbEntity
  8
0
  6
Continuous
 62
     7
370
    15
100
AcDbSpline
210
0.0
220
0.0
230
1.0
 70
     8
 71
     3
 72
    20
 73
    16
 74
     0
 42
0.00000001
 43
0.00000001
 40
0.0
 40
0.0
 40
0.0
 40
0.0
 40
0.2500000000000011
 40
0.2500000000000011
 40
0.5000000000000021
 40
0.5000000000000021
 40
0.7500000000000031
 40
0.7500000000000031
 40
0.8750000000000008
 40
0.8750000000000008
 40
0.9375000000000006
 40
0.9375000000000006
 40
0.9687500000000003
 40
0.9687500000000003
 40
1.0
 40
1.0
 40
1.0
 40
1.0
 10
87.0538192837481
 20
142.1096141541027
 30
0.0
 10
87.05381928374808
 20
141.9739318343559
 30
0.0
 10
87.00510749453147
 20
141.8328448482159
 30
0.0
 10
86.8359460713063
 20
141.5407731294853
 30
0.0
 10
86.71416565738797
 20
141.3891243873949
 30
0.0
 10
86.41661856263846
 20
141.0867159472418
 30
0.0
 10
86.24270595693567
 20
140.9341273111185
 30
0.0
 10
85.92329112305386
 20
140.7088565472762
 30
0.0
 10
85.8082503476066
 20
140.6341334527655
 30
0.0
 10
85.60116602359018
 20
140.5347230435085
 30
0.0
 10
85.52505818878379
 20
140.5031579511639
 30
0.0
 10
85.39366364923046
 20
140.468714566971
 30
0.0
 10
85.347110430229
 20
140.4596629952033
 30
0.0
 10
85.25077707914826
 20
140.4494873463649
 30
0.0
 10
85.20151765579284
 20
140.4485375876898
 30
0.0
 10
85.1538192837461
 20
140.4515283086044
 30
0.0
  0
LINE
  5
96
330
1F
100
AcDbEntity
  8
0
  6
Continuous
 62
     7
370
    15
100
AcDbLine
 10
87.0538192837
 20
142.1096141541
 30
0.0
 11
87.0538192837
 21
144.3785194452
 31
0.0
  0
SPLINE
  5
97
330
1F
100
AcDbEntity
  8
0
  6
Continuous
 62
     7
370
    15
100
AcDbSpline
210
0.0
220
0.0
230
1.0
 70
     8
 71
     3
 72
    24
 73
    20
 74
     0
 42
0.00000001
 43
0.00000001
 40
0.0
 40
0.0
 40
0.0
 40
0.0
 40
0.0002934293894791
 40
0.062808005175641
 40
0.1260453927228619
 40
0.18907467666103
 40
0.2513200540860133
 40
0.3133304633786588
 40
0.3759158453762907
 40
0.4383740564599686
 40
0.5000631094857209
 40
0.5616593988040849
 40
0.6245050380644152
 40
0.6872231506510951
 40
0.7494953263230465
 40
0.8117583797535242
 40
0.8747365508229858
 40
0.9378980306234599
 40
1.0
 40
1.0
 40
1.0
 40
1.0
 10
105.3737755475875
 20
71.43376015880578
 30
0.0
 10
105.3735806947027
 20
71.4337358514118
 30
0.0
 10
105.3318728036916
 20
71.42853289975758
 30
0.0
 10
105.476991195222
 20
71.44716752308811
 30
0.0
 10
105.8320701367613
 20
71.48968730163683
 30
0.0
 10
106.4366457743044
 20
71.55782358523867
 30
0.0
 10
107.2430810831206
 20
71.63107912225455
 30
0.0
 10
108.2285585070396
 20
71.69559846307241
 30
0.0
 10
109.3602281037192
 20
71.7341626911335
 30
0.0
 10
110.5825205738814
 20
71.7378571971349
 30
0.0
 10
111.8498492553333
 20
71.69543121708591
 30
0.0
 10
113.1163347857598
 20
71.60718407630495
 30
0.0
 10
114.3324721495797
 20
71.47879080603828
 30
0.0
 10
115.4578826454205
 20
71.32614981744574
 30
0.0
 10
116.4352997069744
 20
71.1643752023414
 30
0.0
 10
117.238565185517
 20
71.01184630924051
 30
0.0
 10
117.8270587085182
 20
70.88783256597311
 30
0.0
 10
118.2159648201702
 20
70.80290863969685
 30
0.0
 10
118.2627259509082
 20
70.79218232841805
 30
0.0
 10
118.2859087574507
 20
70.78686453572644
 30
0.0
  0
SPLINE
  5
98
330
1F
100
AcDbEntity
  8
0
  6
Continuous
 62
     7
370
    15
100
AcDbSpline
210
0.0
220
0.0
230
1.0
 70
     8
 71
     3
 72
    41
 73
    37
 74
     0
 42
0.00000001
 43
0.00000001
 40
0.0
 40
0.0
 40
0.0
 40
0.0
 40
0.0619930088506718
 40
0.125434783814564
 40
0.1886508980471406
 40
0.2510246518033811
 40
0.3131658325491701
 40
0.3756581805174193
 40
0.4382227337757709
 40
0.4998045140815297
 40
0.5615164441954765
 40
0.624068336616565
 40
0.6867257531766615
 40
0.7488365631577111
 40
0.8110686297814758
 40
0.8741743265521147
 40
0.9373213196242014
 40
0.9685512131827939
 40
0.9842087301523141
 40
0.9920641614992075
 40
0.9960005295431575
 40
0.9979711229155388
 40
0.9989570525954627
 40
0.999450179507506
 40
0.9996967839589672
 40
0.9998200964931991
 40
0.9998817553448945
 40
0.9999125854178207
 40
0.9999280006161647
 40
0.9999357082558249
 40
0.9999395620857793
 40
0.9999414890032862
 40
0.9999424524626737
 40
0.9999434159224813
 40
0.9999502132908483
 40
1.0
 40
1.0
 40
1.0
 40
1.0
 10
118.2857874269727
 20
145.9431012805584
 30
0.0
 10
118.2622157816291
 20
145.9377918009085
 30
0.0
 10
118.214521625584
 20
145.927048759969
 30
0.0
 10
117.8224796361585
 20
145.8418196235135
 30
0.0
 10
117.2319655868883
 20
145.7172508448728
 30
0.0
 10
116.4279281408432
 20
145.5643038987209
 30
0.0
 10
115.4518527406616
 20
145.4025473447674
 30
0.0
 10
114.3300440053812
 20
145.2503145768351
 30
0.0
 10
113.1165130855939
 20
145.1225346356338
 30
0.0
 10
111.8516823791947
 20
145.0346860839512
 30
0.0
 10
110.583639341752
 20
144.9923006000806
 30
0.0
 10
109.3601319840509
 20
144.9960364080522
 30
0.0
 10
108.2266334436369
 20
145.0346318785003
 30
0.0
 10
107.2405276326626
 20
145.0990712497914
 30
0.0
 10
106.4318998238755
 20
145.1725810570726
 30
0.0
 10
105.8352811287659
 20
145.2398947418844
 30
0.0
 10
105.5198898393092
 20
145.2778592931522
 30
0.0
 10
105.4098232705088
 20
145.2916583524844
 30
0.0
 10
105.3824038826981
 20
145.2951444264046
 30
0.0
 10
105.3754818318636
 20
145.2960236520986
 30
0.0
 10
105.3737135916873
 20
145.296244426704
 30
0.0
 10
105.3732532125038
 20
145.296299629416
 30
0.0
 10
105.3731290538333
 20
145.2963133692013
 30
0.0
 10
105.37309349932
 20
145.2963167650348
 30
0.0
 10
105.3730823552783
 20
145.2963175933516
 30
0.0
 10
105.3730784420421
 20
145.2963177899453
 30
0.0
 10
105.3730768998939
 20
145.2963178338684
 30
0.0
 10
105.3730762328125
 20
145.2963178421851
 30
0.0
 10
105.3730759247475
 20
145.2963178430013
 30
0.0
 10
105.3730757778222
 20
145.2963178424759
 30
0.0
 10
105.3730757050945
 20
145.2963178421181
 30
0.0
 10
105.3730756703849
 20
145.2963178417203
 30
0.0
 10
105.3730756486514
 20
145.2963178417451
 30
0.0
 10
105.3730756167963
 20
145.2963178395005
 30
0.0
 10
105.3730736674557
 20
145.2963180554464
 30
0.0
 10
105.3731006023185
 20
145.2963145743158
 30
0.0
 10
105.3731243015328
 20
145.2963115113687
 30
0.0
  0
SPLINE
  5
99
330
1F
100
AcDbEntity
  8
0
  6
Continuous
 62
     7
370
    15
100
AcDbSpline
210
0.0
220
0.0
230
1.0
 70
     8
 71
     3
 72
    20
 73
    16
 74
     0
 42
0.00000001
 43
0.00000001
 40
0.0
 40
0.0
 40
0.0
 40
0.0
 40
0.249999999999986
 40
0.249999999999986
 40
0.3749999999999789
 40
0.3749999999999789
 40
0.4374999999999789
 40
0.4374999999999789
 40
0.4999999999999789
 40
0.4999999999999789
 40
0.6249999999999835
 40
0.6249999999999835
 40
0.7499999999999879
 40
0.7499999999999879
 40
1.0
 40
1.0
 40
1.0
 40
1.0
 10
77.2446335154641
 20
77.68652226441746
 30
0.0
 10
77.27090573267752
 20
77.70584020549992
 30
0.0
 10
77.30158587493236
 20
77.7202289166017
 30
0.0
 10
77.37305674531427
 20
77.71332455476568
 30
0.0
 10
77.4010837823586
 20
77.70615855141727
 30
0.0
 10
77.45616737185613
 20
77.67645952471368
 30
0.0
 10
77.47705870040855
 20
77.66298588215234
 30
0.0
 10
77.522267347854
 20
77.62778761663633
 30
0.0
 10
77.54667156024958
 20
77.60587938790907
 30
0.0
 10
77.61800387830104
 20
77.53375452791353
 30
0.0
 10
77.65990066312128
 20
77.48141398696347
 30
0.0
 10
77.73147662197717
 20
77.38393059506272
 30
0.0
 10
77.76230461179448
 20
77.3371768251843
 30
0.0
 10
77.84540454463004
 20
77.20388360934518
 30
0.0
 10
77.89025945000034
 20
77.12124621142998
 30
0.0
 10
77.93037152545293
 20
77.0421393166392
 30
0.0
  0
SPLINE
  5
9A
330
1F
100
AcDbEntity
  8
0
  6
Continuous
 62
     7
370
    15
100
AcDbSpline
210
0.0
220
0.0
230
1.0
 70
     8
 71
     3
 72
    14
 73
    10
 74
     0
 42
0.00000001
 43
0.00000001
 40
0.0
 40
0.0
 40
0.0
 40
0.0
 40
0.25
 40
0.25
 40
0.5
 40
0.5
 40
0.75
 40
0.75
 40
1.0
 40
1.0
 40
1.0
 40
1.0
 10
76.95381928374812
 20
77.86233567455024
 30
0.0
 10
76.95381928374812
 20
77.82108874352589
 30
0.0
 10
76.96242900012936
 20
77.78418177124341
 30
0.0
 10
76.9935151796997
 20
77.723281711344
 30
0.0
 10
77.01590473318376
 20
77.69910079180431
 30
0.0
 10
77.07064866435988
 20
77.66513320092105
 30
0.0
 10
77.10309890394507
 20
77.65521311695286
 30
0.0
 10
77.17310041867313
 20
77.65386190804801
 30
0.0
 10
77.21131091879569
 20
77.66202018474418
 30
0.0
 10
77.24463351546876
 20
77.68652226441226
 30
0.0
  0
LINE
  5
9B
330
1F
100
AcDbEntity
  8
0
  6
Continuous
 62
     7
370
    15
100
AcDbLine
 10
76.9538192837
 20
77.8623356746
 30
0.0
 11
76.9538192837
 21
138.8676751597
 31
0.0
  0
SPLINE
  5
9C
330
1F
100
AcDbEntity
  8
0
  6
Continuous
 62
     7
370
    15
100
AcDbSpline
210
0.0
220
0.0
230
1.0
 70
     8
 71
     3
 72
    12
 73
     8
 74
     0
 42
0.00000001
 43
0.00000001
 40
0.0
 40
0.0
 40
0.0
 40
0.0
 40
0.0592077505114064
 40
0.3503612113849183
 40
0.644012000323884
 40
0.9432672693652688
 40
1.0
 40
1.0
 40
1.0
 40
1.0
 10
77.24463351546873
 20
139.043488569824
 30
0.0
 10
77.23979763212027
 20
139.0467612134437
 30
0.0
 10
77.2111813456806
 20
139.0661270460099
 30
0.0
 10
77.15318300764024
 20
139.0800929431743
 30
0.0
 10
77.08118276717995
 20
139.069019915359
 30
0.0
 10
77.0325430781692
 20
139.0477196114493
 30
0.0
 10
77.01575820610677
 20
139.0248182412745
 30
0.0
 10
77.01308325182087
 20
139.0211685191871
 30
0.0
  0
SPLINE
  5
9D
330
1F
100
AcDbEntity
  8
0
  6
Continuous
 62
     7
370
    15
100
AcDbSpline
210
0.0
220
0.0
230
1.0
 70
     8
 71
     3
 72
     8
 73
     4
 74
     0
 42
0.00000001
 43
0.00000001
 40
0.0
 40
0.0
 40
0.0
 40
0.0
 40
1.0
 40
1.0
 40
1.0
 40
1.0
 10
76.9774529526843
 20
138.9752546607558
 30
0.0
 10
76.96210391404826
 20
138.9447446057598
 30
0.0
 10
76.95381928374812
 20
138.9084330502475
 30
0.0
 10
76.95381928374812
 20
138.8676751596861
 30
0.0
  0
SPLINE
  5
9E
330
1F
100
AcDbEntity
  8
0
  6
Continuous
 62
     7
370
    15
100
AcDbSpline
210
0.0
220
0.0
230
1.0
 70
     8
 71
     3
 72
    20
 73
    16
 74
     0
 42
0.00000001
 43
0.00000001
 40
0.0
 40
0.0
 40
0.0
 40
0.0
 40
0.2500000000000037
 40
0.2500000000000037
 40
0.3750000000000055
 40
0.3750000000000055
 40
0.5000000000000073
 40
0.5000000000000073
 40
0.5625000000000057
 40
0.5625000000000057
 40
0.625000000000004
 40
0.625000000000004
 40
0.7500000000000027
 40
0.7500000000000027
 40
1.0
 40
1.0
 40
1.0
 40
1.0
 10
77.93037152545051
 20
139.6878715175963
 30
0.0
 10
77.89037530762668
 20
139.6089931110389
 30
0.0
 10
77.84526167978903
 20
139.5258634643474
 30
0.0
 10
77.7620074654225
 20
139.3923747999964
 30
0.0
 10
77.73178813680201
 20
139.3465097441145
 30
0.0
 10
77.65969990166057
 20
139.2483181917096
 30
0.0
 10
77.61778258424951
 20
139.196008372186
 30
0.0
 10
77.54653197969803
 20
139.1240024694515
 30
0.0
 10
77.52229616731871
 20
139.1022322571499
 30
0.0
 10
77.47669797713408
 20
139.0667575988209
 30
0.0
 10
77.45589548753436
 20
139.0533874146433
 30
0.0
 10
77.40095448911524
 20
139.0238175025081
 30
0.0
 10
77.37288550102842
 20
139.0166909802061
 30
0.0
 10
77.30238267096559
 20
139.0098166087235
 30
0.0
 10
77.27095858317472
 20
139.0241317678106
 30
0.0
 10
77.24463351546612
 20
139.0434885698212
 30
0.0
  0
SPLINE
  5
9F
330
1F
100
AcDbEntity
  8
0
  6
Continuous
 62
     7
370
    15
100
AcDbSpline
210
0.0
220
0.0
230
1.0
 70
     8
 71
     3
 72
    10
 73
     6
 74
     0
 42
0.00000001
 43
0.00000001
 40
0.0
 40
0.0
 40
0.0
 40
0.0
 40
0.4999999999999989
 40
0.4999999999999989
 40
1.0
 40
1.0
 40
1.0
 40
1.0
 10
78.6038192837481
 20
140.6132906189382
 30
0.0
 10
78.4789310129979
 20
140.4822943408667
 30
0.0
 10
78.35748089493747
 20
140.3385815042017
 30
0.0
 10
78.12789691998005
 20
140.0280112115124
 30
0.0
 10
78.01762194458406
 20
139.8599421384494
 30
0.0
 10
77.93037152545052
 20
139.6878715175963
 30
0.0
  0
SPLINE
  5
A0
330
1F
100
AcDbEntity
  8
0
  6
Continuous
 62
     7
370
    15
100
AcDbSpline
210
0.0
220
0.0
230
1.0
 70
     8
 71
     3
 72
     8
 73
     4
 74
     0
 42
0.00000001
 43
0.00000001
 40
0.0
 40
0.0
 40
0.0
 40
0.0
 40
1.0
 40
1.0
 40
1.0
 40
1.0
 10
78.85374439971385
 20
140.6108375856828
 30
0.0
 10
78.76672636986548
 20
140.6113041504699
 30
0.0
 10
78.68377234348554
 20
140.612344170046
 30
0.0
 10
78.60381928374579
 20
140.6132906189382
 30
0.0
  0
SPLINE
  5
A1
330
1F
100
AcDbEntity
  8
0
  6
Continuous
 62
     7
370
    15
100
AcDbSpline
210
0.0
220
0.0
230
1.0
 70
     8
 71
     3
 72
     8
 73
     4
 74
     0
 42
0.00000001
 43
0.00000001
 40
0.0
 40
0.0
 40
0.0
 40
0.0
 40
1.0
 40
1.0
 40
1.0
 40
1.0
 10
78.60381928374579
 20
76.11672021529809
 30
0.0
 10
78.68377234348605
 20
76.11766666419035
 30
0.0
 10
78.76672636986656
 20
76.11870668376648
 30
0.0
 10
78.85374439971554
 20
76.11917324855355
 30
0.0
  0
SPLINE
  5
A2
330
1F
100
AcDbEntity
  8
0
  6
Continuous
 62
     7
370
    15
100
AcDbSpline
210
0.0
220
0.0
230
1.0
 70
     8
 71
     3
 72
    10
 73
     6
 74
     0
 42
0.00000001
 43
0.00000001
 40
0.0
 40
0.0
 40
0.0
 40
0.0
 40
0.4999999999999989
 40
0.4999999999999989
 40
1.0
 40
1.0
 40
1.0
 40
1.0
 10
77.9303715254496
 20
77.04213931664177
 30
0.0
 10
78.01762194458308
 20
76.87006869578839
 30
0.0
 10
78.12789691997924
 20
76.70199962272494
 30
0.0
 10
78.35748089493707
 20
76.39142933003515
 30
0.0
 10
78.47893101299772
 20
76.24771649336986
 30
0.0
 10
78.6038192837481
 20
76.11672021529817
 30
0.0
  0
LINE
  5
A3
330
1F
100
AcDbEntity
  8
0
  6
Continuous
 62
     7
370
    15
100
AcDbLine
 10
154.8038192837
 20
157.3548002728
 30
0.0
 11
150.1158483047
 21
157.3548002728
 31
0.0
  0
LINE
  5
A4
330
1F
100
AcDbEntity
  8
0
  6
Continuous
 62
     7
370
    15
100
AcDbLine
 10
150.1158483047
 20
147.315968178
 30
0.0
 11
154.8038192837
 21
147.315968178
 31
0.0
  0
LINE
  5
A5
330
1F
100
AcDbEntity
  8
0
  6
Continuous
 62
     7
370
    15
100
AcDbLine
 10
150.1158483047
 20
147.315968178
 30
0.0
 11
150.1158483047
 21
157.3548002728
 31
0.0
  0
SPLINE
  5
A6
330
1F
100
AcDbEntity
  8
0
  6
Continuous
 62
     7
370
    15
100
AcDbSpline
210
0.0
220
0.0
230
1.0
 70
     8
 71
     3
 72
    14
 73
    10
 74
     0
 42
0.00000001
 43
0.00000001
 40
0.0
 40
0.0
 40
0.0
 40
0.0
 40
0.25
 40
0.25
 40
0.5
 40
0.5
 40
0.75
 40
0.75
 40
1.0
 40
1.0
 40
1.0
 40
1.0
 10
148.7638192837481
 20
154.0585566579661
 30
0.0
 10
148.7638192837481
 20
153.9521999642138
 30
0.0
 10
148.7434317276069
 20
153.8463594764537
 30
0.0
 10
148.6647973821453
 20
153.6497945629172
 30
0.0
 10
148.6060660225067
 20
153.5586238206301
 30
0.0
 10
148.4594571169041
 20
153.4067127315985
 30
0.0
 10
148.3700517968776
 20
153.3446438947789
 30
0.0
 10
148.1761610642773
 20
153.2613758470202
 30
0.0
 10
148.0696560743874
 20
153.2392811772906
 30
0.0
 10
147.9638192837481
 20
153.2392811772906
 30
0.0
  0
SPLINE
  5
A7
330
1F
100
AcDbEntity
  8
0
  6
Continuous
 62
     7
370
    15
100
AcDbSpline
210
0.0
220
0.0
230
1.0
 70
     8
 71
     3
 72
    12
 73
     8
 74
     0
 42
0.00000001
 43
0.00000001
 40
0.0
 40
0.0
 40
0.0
 40
0.0
 40
0.250000000000002
 40
0.250000000000002
 40
0.500000000000004
 40
0.500000000000004
 40
1.0
 40
1.0
 40
1.0
 40
1.0
 10
147.9638192837481
 20
141.9935368301906
 30
0.0
 10
148.0875202337281
 20
141.9935368301906
 30
0.0
 10
148.2116168459983
 20
142.0355304419232
 30
0.0
 10
148.4182720090853
 20
142.1733257685676
 30
0.0
 10
148.5033127758122
 20
142.2672993670324
 30
0.0
 10
148.7027913442858
 20
142.5820875732533
 30
0.0
 10
148.7638192837481
 20
142.8323265654809
 30
0.0
 10
148.7638192837481
 20
143.0792406096152
 30
0.0
  0
SPLINE
  5
A8
330
1F
100
AcDbEntity
  8
0
  6
Continuous
 62
     7
370
    15
100
AcDbSpline
210
0.0
220
0.0
230
1.0
 70
     8
 71
     3
 72
     8
 73
     4
 74
     0
 42
0.00000001
 43
0.00000001
 40
0.0
 40
0.0
 40
0.0
 40
0.0
 40
1.0
 40
1.0
 40
1.0
 40
1.0
 10
144.9438192837481
 20
154.9622762778231
 30
0.0
 10
144.4935110480635
 20
155.7599914029367
 30
0.0
 10
144.0428172315399
 20
156.5574897025939
 30
0.0
 10
143.5917902628267
 20
157.3548002727817
 30
0.0
  0
LINE
  5
A9
330
1F
100
AcDbEntity
  8
0
  6
Continuous
 62
     7
370
    15
100
AcDbLine
 10
144.9438192837
 20
144.2604529233
 30
0.0
 11
144.9438192837
 21
154.9622762778
 31
0.0
  0
SPLINE
  5
AA
330
1F
100
AcDbEntity
  8
0
  6
Continuous
 62
     7
370
    15
100
AcDbSpline
210
0.0
220
0.0
230
1.0
 70
     8
 71
     3
 72
     8
 73
     4
 74
     0
 42
0.00000001
 43
0.00000001
 40
0.0
 40
0.0
 40
0.0
 40
0.0
 40
1.0
 40
1.0
 40
1.0
 40
1.0
 10
143.5917902628267
 20
147.3159681780051
 30
0.0
 10
144.0487166166263
 20
146.3000502083308
 30
0.0
 10
144.4999222584293
 20
145.2812543792396
 30
0.0
 10
144.9438192837481
 20
144.260452923256
 30
0.0
  0
SPLINE
  5
AB
330
1F
100
AcDbEntity
  8
0
  6
Continuous
 62
     7
370
    15
100
AcDbSpline
210
0.0
220
0.0
230
1.0
 70
     8
 71
     3
 72
     8
 73
     4
 74
     0
 42
0.00000001
 43
0.00000001
 40
0.0
 40
0.0
 40
0.0
 40
0.0
 40
1.0
 40
1.0
 40
1.0
 40
1.0
 10
150.1158483046695
 20
157.3548002727817
 30
0.0
 10
149.6648213359562
 20
156.5574897025939
 30
0.0
 10
149.2141275194327
 20
155.7599914029367
 30
0.0
 10
148.7638192837481
 20
154.9622762778231
 30
0.0
  0
SPLINE
  5
AC
330
1F
100
AcDbEntity
  8
0
  6
Continuous
 62
     7
370
    15
100
AcDbSpline
210
0.0
220
0.0
230
1.0
 70
     8
 71
     3
 72
     8
 73
     4
 74
     0
 42
0.00000001
 43
0.00000001
 40
0.0
 40
0.0
 40
0.0
 40
0.0
 40
1.0
 40
1.0
 40
1.0
 40
1.0
 10
148.7638192837481
 20
144.260452923256
 30
0.0
 10
149.2079692947736
 20
145.2818361542076
 30
0.0
 10
149.6590436050315
 20
146.300320690976
 30
0.0
 10
150.1158483046695
 20
147.3159681780051
 30
0.0
  0
LINE
  5
AD
330
1F
100
AcDbEntity
  8
0
  6
Continuous
 62
     7
370
    15
100
AcDbLine
 10
148.7638192837
 20
144.2604529233
 30
0.0
 11
148.7638192837
 21
154.9622762778
 31
0.0
  0
SPLINE
  5
AE
330
1F
100
AcDbEntity
  8
0
  6
Continuous
 62
     7
370
    15
100
AcDbSpline
210
0.0
220
0.0
230
1.0
 70
     8
 71
     3
 72
    12
 73
     8
 74
     0
 42
0.00000001
 43
0.00000001
 40
0.0
 40
0.0
 40
0.0
 40
0.0
 40
0.4999999999999953
 40
0.4999999999999953
 40
0.7499999999999977
 40
0.7499999999999977
 40
1.0
 40
1.0
 40
1.0
 40
1.0
 10
155.8038192837481
 20
156.333745237964
 30
0.0
 10
155.8038192837481
 20
156.5990146707304
 30
0.0
 10
155.6992125402616
 20
156.8615297763828
 30
0.0
 10
155.4225441885163
 20
157.1470673824201
 30
0.0
 10
155.3121789291644
 20
157.2233889992815
 30
0.0
 10
155.0681068805486
 20
157.3277311641216
 30
0.0
 10
154.9363544192169
 20
157.3548002727817
 30
0.0
 10
154.8038192837481
 20
157.3548002727817
 30
0.0
  0
SPLINE
  5
AF
330
1F
100
AcDbEntity
  8
0
  6
Continuous
 62
     7
370
    15
100
AcDbSpline
210
0.0
220
0.0
230
1.0
 70
     8
 71
     3
 72
    16
 73
    12
 74
     0
 42
0.00000001
 43
0.00000001
 40
0.0
 40
0.0
 40
0.0
 40
0.0
 40
0.1249999999999978
 40
0.1249999999999978
 40
0.2499999999999955
 40
0.2499999999999955
 40
0.499999999999997
 40
0.499999999999997
 40
0.7499999999999984
 40
0.7499999999999984
 40
1.0
 40
1.0
 40
1.0
 40
1.0
 10
154.8038192837481
 20
147.3159681780051
 30
0.0
 10
154.8794569901593
 20
147.3159681780051
 30
0.0
 10
154.9557726545775
 20
147.3046231778702
 30
0.0
 10
155.1001833924695
 20
147.2619706272316
 30
0.0
 10
155.1686298415779
 20
147.2310363025488
 30
0.0
 10
155.363561094191
 20
147.1117799307812
 30
0.0
 10
155.4714022679719
 20
147.0016279171606
 30
0.0
 10
155.640115016184
 20
146.7534918315025
 30
0.0
 10
155.7024794289075
 20
146.6131495074989
 30
0.0
 10
155.7837833534159
 20
146.3248778160102
 30
0.0
 10
155.8038192837481
 20
146.1740728430304
 30
0.0
 10
155.8038192837481
 20
146.0237029516851
 30
0.0
  0
LINE
  5
B0
330
1F
100
AcDbEntity
  8
0
  6
Continuous
 62
     7
370
    15
100
AcDbLine
 10
155.8038192837
 20
146.0237029517
 30
0.0
 11
155.8038192837
 21
156.333745238
 31
0.0
  0
LINE
  5
B1
330
1F
100
AcDbEntity
  8
0
  6
Continuous
 62
     7
370
    15
100
AcDbLine
 10
144.9438192837
 20
144.2604529233
 30
0.0
 11
144.9438192837
 21
143.0792406096
 31
0.0
  0
SPLINE
  5
B2
330
1F
100
AcDbEntity
  8
0
  6
Continuous
 62
     7
370
    15
100
AcDbSpline
210
0.0
220
0.0
230
1.0
 70
     8
 71
     3
 72
    14
 73
    10
 74
     0
 42
0.00000001
 43
0.00000001
 40
0.0
 40
0.0
 40
0.0
 40
0.0
 40
0.25
 40
0.25
 40
0.5
 40
0.5
 40
0.75
 40
0.75
 40
1.0
 40
1.0
 40
1.0
 40
1.0
 10
144.9438192837481
 20
143.0792406096152
 30
0.0
 10
144.9438192837481
 20
142.955373732826
 30
0.0
 10
144.9596784113757
 20
142.8311140559885
 30
0.0
 10
145.0230400568956
 20
142.5935056935826
 30
0.0
 10
145.071629764945
 20
142.4767253088302
 30
0.0
 10
145.2039153697198
 20
142.2679227802212
 30
0.0
 10
145.2892401609804
 20
142.1734120766286
 30
0.0
 10
145.4961314092866
 20
142.0354552758263
 30
0.0
 10
145.6200993551766
 20
141.9935368301906
 30
0.0
 10
145.7438192837481
 20
141.9935368301906
 30
0.0
  0
LINE
  5
B3
330
1F
100
AcDbEntity
  8
0
  6
Continuous
 62
     7
370
    15
100
AcDbLine
 10
145.7438192837
 20
141.9935368302
 30
0.0
 11
147.9638192837
 21
141.9935368302
 31
0.0
  0
LINE
  5
B4
330
1F
100
AcDbEntity
  8
0
  6
Continuous
 62
     7
370
    15
100
AcDbLine
 10
148.7638192837
 20
143.0792406096
 30
0.0
 11
148.7638192837
 21
144.2604529233
 31
0.0
  0
LINE
  5
B5
330
1F
100
AcDbEntity
  8
0
  6
Continuous
 62
     7
370
    15
100
AcDbLine
 10
155.8038192837
 20
146.0237029517
 30
0.0
 11
155.8038192837
 21
139.7150054171
 31
0.0
  0
SPLINE
  5
B6
330
1F
100
AcDbEntity
  8
0
  6
Continuous
 62
     7
370
    15
100
AcDbSpline
210
0.0
220
0.0
230
1.0
 70
     8
 71
     3
 72
    10
 73
     6
 74
     0
 42
0.00000001
 43
0.00000001
 40
0.0
 40
0.0
 40
0.0
 40
0.0
 40
0.5
 40
0.5
 40
1.0
 40
1.0
 40
1.0
 40
1.0
 10
145.7438192837481
 20
153.2392811772906
 30
0.0
 10
145.5312829698917
 20
153.2392811772906
 30
0.0
 10
145.3213467982378
 20
153.3306937639208
 30
0.0
 10
145.0276396572265
 20
153.635438629825
 30
0.0
 10
144.9438192837481
 20
153.8475935997336
 30
0.0
 10
144.9438192837481
 20
154.0585566579661
 30
0.0
  0
LINE
  5
B7
330
1F
100
AcDbEntity
  8
0
  6
Continuous
 62
     7
370
    15
100
AcDbLine
 10
147.9638192837
 20
153.2392811773
 30
0.0
 11
145.7438192837
 21
153.2392811773
 31
0.0
  0
ARC
  5
B8
330
1F
100
AcDbEntity
  8
0
  6
Continuous
 62
     7
370
    15
100
AcDbCircle
 10
135.8537536703
 20
141.0427753741
 30
0.0
 40
11.34027022021091
100
AcDbArc
 50
77.5144279203
 51
102.4644519698
  0
LINE
  5
B9
330
1F
100
AcDbEntity
  8
0
  6
Continuous
 62
     7
370
    15
100
AcDbLine
 10
78.6038192837
 20
76.1150054171
 30
0.0
 11
78.6038192837
 21
76.1167202153
 31
0.0
  0
LINE
  5
BA
330
1F
100
AcDbEntity
  8
0
  6
Continuous
 62
     7
370
    15
100
AcDbLine
 10
78.6038192837
 20
140.6150054171
 30
0.0
 11
78.6038192837
 21
140.6132906189
 31
0.0
  0
LINE
  5
BB
330
1F
100
AcDbEntity
  8
0
  6
Continuous
 62
     7
370
    15
100
AcDbLine
 10
180.0883074433
 20
95.3650054171
 30
0.0
 11
180.0883074433
 21
121.3650054171
 31
0.0
  0
SPLINE
  5
BC
330
1F
100
AcDbEntity
  8
0
  6
Continuous
 62
     7
370
    15
100
AcDbSpline
210
0.0
220
0.0
230
1.0
 70
     8
 71
     3
 72
    39
 73
    35
 74
     0
 42
0.00000001
 43
0.00000001
 40
0.0
 40
0.0
 40
0.0
 40
0.0
 40
0.0130293903122138
 40
0.0347746718709819
 40
0.054140369691875
 40
0.0934829734784617
 40
0.113487072511092
 40
0.1339373981890824
 40
0.1753796528554204
 40
0.196387303129228
 40
0.2200846265136321
 40
0.2680817187477273
 40
0.2924007330209259
 40
0.3203156979416387
 40
0.3769137653259672
 40
0.4056349415890054
 40
0.436902293370928
 40
0.5004180069717808
 40
0.5327321137129203
 40
0.5652709304447718
 40
0.5980365761813786
 40
0.6315294706200698
 40
0.6652804338583381
 40
0.6973584991696817
 40
0.729685695932122
 40
0.7628616757186875
 40
0.7963641994442666
 40
0.8196043487594438
 40
0.8667867446759733
 40
0.8908113614496632
 40
0.9140589330588864
 40
0.9615748247628826
 40
0.9859550871433908
 40
0.9999999999999999
 40
0.9999999999999999
 40
0.9999999999999999
 40
0.9999999999999999
 10
172.295572425584
 20
121.3634938512203
 30
0.0
 10
172.2981597491528
 20
121.3639678340353
 30
0.0
 10
172.3050651626812
 20
121.3652328661257
 30
0.0
 10
172.2808539225616
 20
121.3607928274808
 30
0.0
 10
172.2322621927964
 20
121.3519548011753
 30
0.0
 10
172.1505669218537
 20
121.3372962874467
 30
0.0
 10
172.0400629367368
 20
121.3181075245368
 30
0.0
 10
171.9077730256066
 20
121.295698710419
 30
0.0
 10
171.74691371998
 20
121.2696012075006
 30
0.0
 10
171.5566062826831
 20
121.2406443117126
 30
0.0
 10
171.3355001930281
 20
121.2086628312907
 30
0.0
 10
171.0820385601014
 20
121.1752692139309
 30
0.0
 10
170.7980091700759
 20
121.1423729092227
 30
0.0
 10
170.4759759389425
 20
121.1088794187751
 30
0.0
 10
170.1209622150538
 20
121.0791007277808
 30
0.0
 10
169.7425528631791
 20
121.0560374723827
 30
0.0
 10
169.3340430665047
 20
121.0377999633687
 30
0.0
 10
168.9045677135357
 20
121.0300408636392
 30
0.0
 10
168.4716871664498
 20
121.0341640471029
 30
0.0
 10
168.1446375392549
 20
121.0433009041841
 30
0.0
 10
167.8182561076125
 20
121.0583889529505
 30
0.0
 10
167.494963464371
 20
121.0791656275153
 30
0.0
 10
167.1835815967854
 20
121.1046547520661
 30
0.0
 10
166.8878273637337
 20
121.1336893728622
 30
0.0
 10
166.6079752688051
 20
121.1653635864283
 30
0.0
 10
166.3415746084204
 20
121.1992857299026
 30
0.0
 10
166.1188445989278
 20
121.2305663282313
 30
0.0
 10
165.8839986514736
 20
121.2658343358929
 30
0.0
 10
165.698378891859
 20
121.2958837901841
 30
0.0
 10
165.5483597492419
 20
121.3213923746686
 30
0.0
 10
165.4232476811029
 20
121.3432725824564
 30
0.0
 10
165.3409165488613
 20
121.3582045093209
 30
0.0
 10
165.3060966960196
 20
121.3645868579198
 30
0.0
 10
165.3057811558342
 20
121.3646451881327
 30
0.0
 10
165.3056658216977
 20
121.3646665086017
 30
0.0
  0
LINE
  5
BD
330
1F
100
AcDbEntity
  8
0
  6
Continuous
 62
     7
370
    15
100
AcDbLine
 10
166.3632953188
 20
121.1970652894
 30
0.0
 11
166.488173433
 21
121.1807782268
 31
0.0
  0
SPLINE
  5
BE
330
1F
100
AcDbEntity
  8
0
  6
Continuous
 62
     7
370
    15
100
AcDbSpline
210
0.0
220
0.0
230
1.0
 70
     8
 71
     3
 72
    62
 73
    58
 74
     0
 42
0.00000001
 43
0.00000001
 40
-0.0312499999999999
 40
-0.0312499999999999
 40
0.0
 40
0.0
 40
0.0625000000000005
 40
0.0625000000000005
 40
0.1250000000000009
 40
0.1250000000000009
 40
0.1875000000000014
 40
0.1875000000000014
 40
0.2500000000000019
 40
0.2500000000000019
 40
0.2812500000000017
 40
0.2812500000000017
 40
0.3125000000000014
 40
0.3125000000000014
 40
0.3437500000000013
 40
0.3437500000000013
 40
0.3750000000000011
 40
0.3750000000000011
 40
0.4062500000000009
 40
0.4062500000000009
 40
0.4375000000000007
 40
0.4375000000000007
 40
0.4999999999999999
 40
0.4999999999999999
 40
0.5312499999999999
 40
0.5312499999999999
 40
0.5624999999999999
 40
0.5624999999999999
 40
0.5937499999999999
 40
0.5937499999999999
 40
0.6249999999999999
 40
0.6249999999999999
 40
0.65625
 40
0.65625
 40
0.6875
 40
0.6875
 40
0.71875
 40
0.71875
 40
0.75
 40
0.75
 40
0.78125
 40
0.78125
 40
0.8125
 40
0.8125
 40
0.84375
 40
0.84375
 40
0.859375
 40
0.859375
 40
0.875
 40
0.875
 40
0.9062500000000001
 40
0.9062500000000001
 40
0.9375000000000001
 40
0.9375000000000001
 40
0.9687500000000001
 40
0.9687500000000001
 40
1.0
 40
1.0
 40
1.0625
 40
1.0625
 10
166.3184412972369
 20
110.4197826265992
 30
0.0
 10
166.8276377073114
 20
110.7979050944289
 30
0.0
 10
167.2025926536009
 20
110.9829327571552
 30
0.0
 10
168.0110962349319
 20
111.2334970350946
 30
0.0
 10
168.4271671499527
 20
111.292930643517
 30
0.0
 10
169.2746821957518
 20
111.2831732089008
 30
0.0
 10
169.6871957887263
 20
111.2146197175525
 30
0.0
 10
170.4891470913196
 20
110.9454096311311
 30
0.0
 10
170.8587876515201
 20
110.75152541606
 30
0.0
 10
171.355454922716
 20
110.3623818845583
 30
0.0
 10
171.5091820968565
 20
110.2169643869361
 30
0.0
 10
171.7817730882552
 20
109.9003511540585
 30
0.0
 10
171.9032545979852
 20
109.7259268909229
 30
0.0
 10
172.1020932820897
 20
109.3541204901883
 30
0.0
 10
172.1789323070273
 20
109.158957806038
 30
0.0
 10
172.2822539103195
 20
108.7478635510148
 30
0.0
 10
172.3068801704547
 20
108.5367379289062
 30
0.0
 10
172.3001446309899
 20
108.1167234402304
 30
0.0
 10
172.268048359679
 20
107.9035138649316
 30
0.0
 10
172.1527097475542
 20
107.4989244052295
 30
0.0
 10
172.0686814268408
 20
107.3027820740884
 30
0.0
 10
171.7540679740393
 20
106.7538983216049
 30
0.0
 10
171.4616847442199
 20
106.4394950758539
 30
0.0
 10
170.9576404301927
 20
106.0634446681496
 30
0.0
 10
170.7761600221124
 20
105.9522332223782
 30
0.0
 10
170.4005675926315
 20
105.7636727842268
 30
0.0
 10
170.206066361906
 20
105.685667868236
 30
0.0
 10
169.8041733256986
 20
105.5606106322146
 30
0.0
 10
169.5959206153791
 20
105.5137327457239
 30
0.0
 10
169.1799961087851
 20
105.4535765074027
 30
0.0
 10
168.9707318934463
 20
105.4396740092256
 30
0.0
 10
168.5495980004697
 20
105.4441672542561
 30
0.0
 10
168.3366240125442
 20
105.4630000717305
 30
0.0
 10
167.9223687563381
 20
105.532472239434
 30
0.0
 10
167.7194082146345
 20
105.5829502581833
 30
0.0
 10
167.3219757789296
 20
105.716220148647
 30
0.0
 10
167.1257856956176
 20
105.8000873367183
 30
0.0
 10
166.755877255664
 20
105.9969228223812
 30
0.0
 10
166.5810783524375
 20
106.1098702453909
 30
0.0
 10
166.2530513101473
 20
106.3670159721897
 30
0.0
 10
166.0981718658307
 20
106.5132022032273
 30
0.0
 10
165.8239844393761
 20
106.8320206966702
 30
0.0
 10
165.7044111655395
 20
107.0039692992175
 30
0.0
 10
165.5051538491922
 20
107.3766861938017
 30
0.0
 10
165.4275690264482
 20
107.5750479034037
 30
0.0
 10
165.3512253516425
 20
107.8796006431106
 30
0.0
 10
165.3321841716526
 20
107.982848350483
 30
0.0
 10
165.307684716175
 20
108.1930168880714
 30
0.0
 10
165.3023527208539
 20
108.300395291156
 30
0.0
 10
165.3078140625639
 20
108.6175294307129
 30
0.0
 10
165.3391881908279
 20
108.8256723752388
 30
0.0
 10
165.4563656697003
 20
109.2355358495845
 30
0.0
 10
165.5399627384231
 20
109.4293724696549
 30
0.0
 10
165.7502204671129
 20
109.7954108601658
 30
0.0
 10
165.8771293429456
 20
109.9669937416243
 30
0.0
 10
166.1599286391779
 20
110.2776483541015
 30
0.0
 10
166.3184412972369
 20
110.4197826265992
 30
0.0
 10
166.8276377073114
 20
110.7979050944289
 30
0.0
  0
SPLINE
  5
BF
330
1F
100
AcDbEntity
  8
0
  6
Continuous
 62
     7
370
    15
100
AcDbSpline
210
0.0
220
0.0
230
1.0
 70
     8
 71
     3
 72
     9
 73
     5
 74
     0
 42
0.00000001
 43
0.00000001
 40
0.0
 40
0.0
 40
0.0
 40
0.0
 40
0.7297488063218079
 40
1.0
 40
1.0
 40
1.0
 40
1.0
 10
166.4881734331846
 20
95.54923260745652
 30
0.0
 10
166.4161702477639
 20
95.54008321182575
 30
0.0
 10
166.3175017952815
 20
95.52754547890794
 30
0.0
 10
166.2341865372898
 20
95.515174405848
 30
0.0
 10
166.211670489366
 20
95.51183110858646
 30
0.0
  0
SPLINE
  5
C0
330
1F
100
AcDbEntity
  8
0
  6
Continuous
 62
     7
370
    15
100
AcDbSpline
210
0.0
220
0.0
230
1.0
 70
     8
 71
     3
 72
    40
 73
    36
 74
     0
 42
0.00000001
 43
0.00000001
 40
0.0
 40
0.0
 40
0.0
 40
0.0
 40
0.0033217340841751
 40
0.0254238867176561
 40
0.0448501848735762
 40
0.0843339587544805
 40
0.1044214777143661
 40
0.1246165451775269
 40
0.165548525541239
 40
0.1863016096404052
 40
0.209548050646091
 40
0.2566308740928512
 40
0.280485375883647
 40
0.3079189034135373
 40
0.3635303876300683
 40
0.3917434685463166
 40
0.4227266586274164
 40
0.4856518099951369
 40
0.5176565359979916
 40
0.5501428843045784
 40
0.5828539680658661
 40
0.6162826546019198
 40
0.6499644946014742
 40
0.6821968056250581
 40
0.7146749151097707
 40
0.7479830441475759
 40
0.781607035522703
 40
0.8054749731447717
 40
0.8539309385755206
 40
0.8786038222605151
 40
0.902479602511227
 40
0.9512988094845211
 40
0.9763652990789347
 40
0.9968393605760457
 40
1.0
 40
1.0
 40
1.0
 40
1.0
 10
165.306653909469
 20
95.36552385574677
 30
0.0
 10
165.3056889059284
 20
95.36534739123242
 30
0.0
 10
165.2983029622985
 20
95.3639967672183
 30
0.0
 10
165.3158221726132
 20
95.36720937194454
 30
0.0
 10
165.3528332116533
 20
95.37396860315366
 30
0.0
 10
165.4258851176112
 20
95.3871675389962
 30
0.0
 10
165.5275951048453
 20
95.40500162389533
 30
0.0
 10
165.6505394626755
 20
95.42607596902782
 30
0.0
 10
165.8017472123782
 20
95.4509984368363
 30
0.0
 10
165.9822051039159
 20
95.4790249072755
 30
0.0
 10
166.1922837655139
 20
95.51016243473883
 30
0.0
 10
166.4342878539082
 20
95.54309270940553
 30
0.0
 10
166.7069605448498
 20
95.5760599762768
 30
0.0
 10
167.0173251473199
 20
95.61008496587507
 30
0.0
 10
167.3610635075557
 20
95.64114868173127
 30
0.0
 10
167.7297200621074
 20
95.6662993554759
 30
0.0
 10
168.1304475169815
 20
95.68728572216226
 30
0.0
 10
168.5543613825287
 20
95.69845625271125
 30
0.0
 10
168.984406366091
 20
95.6980322438114
 30
0.0
 10
169.3113880996858
 20
95.69169890565348
 30
0.0
 10
169.6396209043005
 20
95.67929309951784
 30
0.0
 10
169.9658761752875
 20
95.66100344474411
 30
0.0
 10
170.2820543581765
 20
95.6376168964731
 30
0.0
 10
170.5843842423984
 20
95.61018726577794
 30
0.0
 10
170.8725050725033
 20
95.57956422340226
 30
0.0
 10
171.1484261911296
 20
95.54616720682304
 30
0.0
 10
171.3824033896113
 20
95.51462762559437
 30
0.0
 10
171.6337204267913
 20
95.47812609431149
 30
0.0
 10
171.836358279813
 20
95.44611467872639
 30
0.0
 10
172.0035912745633
 20
95.41816529370509
 30
0.0
 10
172.1451773889935
 20
95.39373435730684
 30
0.0
 10
172.2471746708953
 20
95.37536560795283
 30
0.0
 10
172.291184166937
 20
95.36732484838979
 30
0.0
 10
172.3087478450422
 20
95.36410400501988
 30
0.0
 10
172.3020993988294
 20
95.3653200792364
 30
0.0
 10
172.3012103103117
 20
95.36548270334252
 30
0.0
  0
CIRCLE
  5
C1
330
1F
100
AcDbEntity
  8
0
  6
Continuous
 62
     7
370
    15
100
AcDbCircle
 10
168.8038192837
 20
108.3650054171
 30
0.0
 40
2.5
  0
LINE
  5
C2
330
1F
100
AcDbEntity
  8
0
  6
Continuous
 62
     7
370
    15
100
AcDbLine
 10
211.8538192837
 20
99.7137864004
 30
0.0
 11
211.8538192837
 21
117.0162244106
 31
0.0
  0
LINE
  5
C3
330
1F
100
AcDbEntity
  8
0
  6
HIDDEN
 62
     7
370
     0
100
AcDbLine
 10
174.8538192837
 20
105.3650054171
 30
0.0
 11
174.8538192837
 21
111.3650054171
 31
0.0
  0
LINE
  5
C4
330
1F
100
AcDbEntity
  8
0
  6
HIDDEN
 62
     7
370
     0
100
AcDbLine
 10
162.3538192837
 20
105.3650054171
 30
0.0
 11
162.3538192837
 21
111.3650054171
 31
0.0
  0
LINE
  5
C5
330
1F
100
AcDbEntity
  8
0
  6
HIDDEN
 62
     7
370
     0
100
AcDbLine
 10
161.8538192837
 20
105.8650054171
 30
0.0
 11
161.8538192837
 21
110.8650054171
 31
0.0
  0
LINE
  5
C6
330
1F
100
AcDbEntity
  8
0
  6
HIDDEN
 62
     7
370
     0
100
AcDbLine
 10
177.8538192837
 20
107.3650054171
 30
0.0
 11
175.8538192837
 21
107.3650054171
 31
0.0
  0
LINE
  5
C7
330
1F
100
AcDbEntity
  8
0
  6
HIDDEN
 62
     7
370
     0
100
AcDbLine
 10
177.8538192837
 20
105.8650054171
 30
0.0
 11
177.8538192837
 21
107.3650054171
 31
0.0
  0
LINE
  5
C8
330
1F
100
AcDbEntity
  8
0
  6
HIDDEN
 62
     7
370
     0
100
AcDbLine
 10
177.8538192837
 20
109.3650054171
 30
0.0
 11
177.8538192837
 21
110.8650054171
 31
0.0
  0
LINE
  5
C9
330
1F
100
AcDbEntity
  8
0
  6
HIDDEN
 62
     7
370
     0
100
AcDbLine
 10
175.8538192837
 20
109.3650054171
 30
0.0
 11
177.8538192837
 21
109.3650054171
 31
0.0
  0
LINE
  5
CA
330
1F
100
AcDbEntity
  8
0
  6
HIDDEN
 62
     7
370
     0
100
AcDbLine
 10
175.8538192837
 20
107.3650054171
 30
0.0
 11
175.8538192837
 21
109.3650054171
 31
0.0
  0
LINE
  5
CB
330
1F
100
AcDbEntity
  8
0
  6
HIDDEN
 62
     7
370
     0
100
AcDbLine
 10
173.3538192837
 20
108.3650054171
 30
0.0
 11
175.8538192837
 21
108.3650054171
 31
0.0
  0
LINE
  5
CC
330
1F
100
AcDbEntity
  8
0
  6
HIDDEN
 62
     7
370
     0
100
AcDbLine
 10
166.3538192837
 20
108.3650054171
 30
0.0
 11
161.8538192837
 21
108.3650054171
 31
0.0
  0
LINE
  5
CD
330
1F
100
AcDbEntity
  8
0
  6
HIDDEN
 62
     7
370
     0
100
AcDbLine
 10
173.3538192837
 20
109.1150054171
 30
0.0
 11
173.3538192837
 21
108.3650054171
 31
0.0
  0
LINE
  5
CE
330
1F
100
AcDbEntity
  8
0
  6
HIDDEN
 62
     7
370
     0
100
AcDbLine
 10
173.3538192837
 20
108.3650054171
 30
0.0
 11
173.3538192837
 21
107.6150054171
 31
0.0
  0
LINE
  5
CF
330
1F
100
AcDbEntity
  8
0
  6
HIDDEN
 62
     7
370
     0
100
AcDbLine
 10
166.3538192837
 20
107.6150054171
 30
0.0
 11
166.3538192837
 21
108.3650054171
 31
0.0
  0
LINE
  5
D0
330
1F
100
AcDbEntity
  8
0
  6
HIDDEN
 62
     7
370
     0
100
AcDbLine
 10
166.3538192837
 20
108.3650054171
 30
0.0
 11
166.3538192837
 21
109.1150054171
 31
0.0
  0
LINE
  5
D1
330
1F
100
AcDbEntity
  8
0
  6
HIDDEN
 62
     7
370
     0
100
AcDbLine
 10
166.3538192837
 20
106.8650054171
 30
0.0
 11
166.3538192837
 21
107.6150054171
 31
0.0
  0
LINE
  5
D2
330
1F
100
AcDbEntity
  8
0
  6
HIDDEN
 62
     7
370
     0
100
AcDbLine
 10
173.3538192837
 20
109.8650054171
 30
0.0
 11
173.3538192837
 21
109.1150054171
 31
0.0
  0
LINE
  5
D3
330
1F
100
AcDbEntity
  8
0
  6
HIDDEN
 62
     7
370
     0
100
AcDbLine
 10
166.3538192837
 20
109.1150054171
 30
0.0
 11
166.3538192837
 21
109.8650054171
 31
0.0
  0
LINE
  5
D4
330
1F
100
AcDbEntity
  8
0
  6
HIDDEN
 62
     7
370
     0
100
AcDbLine
 10
173.3538192837
 20
107.6150054171
 30
0.0
 11
173.3538192837
 21
106.8650054171
 31
0.0
  0
LINE
  5
D5
330
1F
100
AcDbEntity
  8
0
  6
HIDDEN
 62
     7
370
     0
100
AcDbLine
 10
166.3538192837
 20
106.8650054171
 30
0.0
 11
161.8538192837
 21
106.8650054171
 31
0.0
  0
LINE
  5
D6
330
1F
100
AcDbEntity
  8
0
  6
HIDDEN
 62
     7
370
     0
100
AcDbLine
 10
173.3538192837
 20
109.8650054171
 30
0.0
 11
177.8538192837
 21
109.8650054171
 31
0.0
  0
LINE
  5
D7
330
1F
100
AcDbEntity
  8
0
  6
HIDDEN
 62
     7
370
     0
100
AcDbLine
 10
173.3538192837
 20
106.8650054171
 30
0.0
 11
177.8538192837
 21
106.8650054171
 31
0.0
  0
LINE
  5
D8
330
1F
100
AcDbEntity
  8
0
  6
HIDDEN
 62
     7
370
     0
100
AcDbLine
 10
166.3538192837
 20
109.8650054171
 30
0.0
 11
161.8538192837
 21
109.8650054171
 31
0.0
  0
LINE
  5
D9
330
1F
100
AcDbEntity
  8
0
  6
HIDDEN
 62
     7
370
     0
100
AcDbLine
 10
206.3875044462
 20
101.1502333222
 30
0.0
 11
206.4463941699
 21
99.6513897679
 31
0.0
  0
LINE
  5
DA
330
1F
100
AcDbEntity
  8
0
  6
HIDDEN
 62
     7
370
     0
100
AcDbLine
 10
206.3286147226
 20
102.6490768766
 30
0.0
 11
206.3875044462
 21
101.1502333222
 31
0.0
  0
LINE
  5
DB
330
1F
100
AcDbEntity
  8
0
  6
HIDDEN
 62
     7
370
     0
100
AcDbLine
 10
205.8878899281
 20
101.1306034143
 30
0.0
 11
205.9271497439
 21
100.1313743781
 31
0.0
  0
LINE
  5
DC
330
1F
100
AcDbEntity
  8
0
  6
HIDDEN
 62
     7
370
     0
100
AcDbLine
 10
205.8486301124
 20
102.1298324506
 30
0.0
 11
205.8878899281
 21
101.1306034143
 31
0.0
  0
LINE
  5
DD
330
1F
100
AcDbEntity
  8
0
  6
HIDDEN
 62
     7
370
     0
100
AcDbLine
 10
211.7214422501
 20
101.3598043093
 30
0.0
 11
211.7803319738
 21
99.8609607549
 31
0.0
  0
LINE
  5
DE
330
1F
100
AcDbEntity
  8
0
  6
HIDDEN
 62
     7
370
     0
100
AcDbLine
 10
211.6625525265
 20
102.8586478637
 30
0.0
 11
211.7214422501
 21
101.3598043093
 31
0.0
  0
LINE
  5
DF
330
1F
100
AcDbEntity
  8
0
  6
HIDDEN
 62
     7
370
     0
100
AcDbLine
 10
211.8353868002
 20
102.5847221186
 30
0.0
 11
211.8538192837
 21
102.1155840861
 31
0.0
  0
LINE
  5
E0
330
1F
100
AcDbEntity
  8
0
  6
HIDDEN
 62
     7
370
     0
100
AcDbLine
 10
209.8848060731
 20
101.2876426774
 30
0.0
 11
211.8832641456
 21
101.3661623089
 31
0.0
  0
LINE
  5
E1
330
1F
100
AcDbEntity
  8
0
  6
HIDDEN
 62
     7
370
     0
100
AcDbLine
 10
209.8553612113
 20
102.0370644546
 30
0.0
 11
209.8848060731
 21
101.2876426774
 31
0.0
  0
LINE
  5
E2
330
1F
100
AcDbEntity
  8
0
  6
HIDDEN
 62
     7
370
     0
100
AcDbLine
 10
209.9142509349
 20
100.5382209002
 30
0.0
 11
209.8848060731
 21
101.2876426774
 31
0.0
  0
LINE
  5
E3
330
1F
100
AcDbEntity
  8
0
  6
HIDDEN
 62
     7
370
     0
100
AcDbLine
 10
209.8553612113
 20
102.0370644546
 30
0.0
 11
211.8538192837
 21
102.1155840861
 31
0.0
  0
LINE
  5
E4
330
1F
100
AcDbEntity
  8
0
  6
HIDDEN
 62
     7
370
     0
100
AcDbLine
 10
209.9142509349
 20
100.5382209002
 30
0.0
 11
211.9127090074
 21
100.6167405317
 31
0.0
  0
LINE
  5
E5
330
1F
100
AcDbEntity
  8
0
  6
HIDDEN
 62
     7
370
     0
100
AcDbLine
 10
211.7214422501
 20
116.8713638628
 30
0.0
 11
211.6036628029
 21
113.8736767541
 31
0.0
  0
LINE
  5
E6
330
1F
100
AcDbEntity
  8
0
  6
HIDDEN
 62
     7
370
     0
100
AcDbLine
 10
206.3875044462
 20
117.0809348499
 30
0.0
 11
206.269724999
 21
114.0832477412
 31
0.0
  0
LINE
  5
E7
330
1F
100
AcDbEntity
  8
0
  6
HIDDEN
 62
     7
370
     0
100
AcDbLine
 10
211.8538192837
 20
116.1155840861
 30
0.0
 11
211.7764970766
 21
114.1476024992
 31
0.0
  0
LINE
  5
E8
330
1F
100
AcDbEntity
  8
0
  6
HIDDEN
 62
     7
370
     0
100
AcDbLine
 10
205.8682600202
 20
116.6009502397
 30
0.0
 11
205.7897403887
 21
114.6024921672
 31
0.0
  0
LINE
  5
E9
330
1F
100
AcDbEntity
  8
0
  6
HIDDEN
 62
     7
370
     0
100
AcDbLine
 10
209.8553612113
 20
116.1941037176
 30
0.0
 11
209.8259163494
 21
115.4446819404
 31
0.0
  0
LINE
  5
EA
330
1F
100
AcDbEntity
  8
0
  6
HIDDEN
 62
     7
370
     0
100
AcDbLine
 10
209.7964714876
 20
114.6952601632
 30
0.0
 11
209.8259163494
 21
115.4446819404
 31
0.0
  0
LINE
  5
EB
330
1F
100
AcDbEntity
  8
0
  6
HIDDEN
 62
     7
370
     0
100
AcDbLine
 10
209.8259163494
 20
115.4446819404
 30
0.0
 11
211.8243744219
 21
115.3661623089
 31
0.0
  0
LINE
  5
EC
330
1F
100
AcDbEntity
  8
0
  6
HIDDEN
 62
     7
370
     0
100
AcDbLine
 10
209.8553612113
 20
116.1941037176
 30
0.0
 11
211.8538192837
 21
116.1155840861
 31
0.0
  0
LINE
  5
ED
330
1F
100
AcDbEntity
  8
0
  6
HIDDEN
 62
     7
370
     0
100
AcDbLine
 10
209.7964714876
 20
114.6952601632
 30
0.0
 11
211.7949295601
 21
114.6167405317
 31
0.0
  0
SPLINE
  5
EE
330
1F
100
AcDbEntity
  8
0
  6
HIDDEN
 62
     7
370
     0
100
AcDbSpline
210
0.0
220
0.0
230
1.0
 70
     8
 71
     3
 72
    80
 73
    76
 74
     0
 42
0.00000001
 43
0.00000001
 40
-0.03125
 40
-0.03125
 40
0.0
 40
0.0
 40
0.0312500000000002
 40
0.0312500000000002
 40
0.0468750000000002
 40
0.0468750000000002
 40
0.0625000000000001
 40
0.0625000000000001
 40
0.0937499999999999
 40
0.0937499999999999
 40
0.1249999999999997
 40
0.1249999999999997
 40
0.1562499999999995
 40
0.1562499999999995
 40
0.1874999999999993
 40
0.1874999999999993
 40
0.2187499999999991
 40
0.2187499999999991
 40
0.2499999999999989
 40
0.2499999999999989
 40
0.2812499999999987
 40
0.2812499999999987
 40
0.3124999999999984
 40
0.3124999999999984
 40
0.3281249999999985
 40
0.3281249999999985
 40
0.3437499999999986
 40
0.3437499999999986
 40
0.3749999999999986
 40
0.3749999999999986
 40
0.4062499999999987
 40
0.4062499999999987
 40
0.4218749999999989
 40
0.4218749999999989
 40
0.4374999999999991
 40
0.4374999999999991
 40
0.4687499999999993
 40
0.4687499999999993
 40
0.4999999999999994
 40
0.4999999999999994
 40
0.5312499999999997
 40
0.5312499999999997
 40
0.5624999999999998
 40
0.5624999999999998
 40
0.59375
 40
0.59375
 40
0.6250000000000001
 40
0.6250000000000001
 40
0.6562500000000003
 40
0.6562500000000003
 40
0.6875000000000006
 40
0.6875000000000006
 40
0.7031250000000007
 40
0.7031250000000007
 40
0.7187500000000007
 40
0.7187500000000007
 40
0.7500000000000003
 40
0.7500000000000003
 40
0.78125
 40
0.78125
 40
0.7968749999999998
 40
0.7968749999999998
 40
0.8124999999999997
 40
0.8124999999999997
 40
0.8437499999999998
 40
0.8437499999999998
 40
0.8749999999999998
 40
0.8749999999999998
 40
0.9062499999999999
 40
0.9062499999999999
 40
0.9375
 40
0.9375
 40
0.96875
 40
0.96875
 40
1.0
 40
1.0
 40
1.03125
 40
1.03125
 10
135.5232739709718
 20
157.2245546735961
 30
0.0
 10
136.1843645965244
 20
157.2245546735961
 30
0.0
 10
136.509344725776
 20
157.2176565277693
 30
0.0
 10
136.9888181370225
 20
157.1971300997888
 30
0.0
 10
137.1472999548633
 20
157.1885738727013
 30
0.0
 10
137.4615194873676
 20
157.1678474974836
 30
0.0
 10
137.6176397710479
 20
157.1556201972772
 30
0.0
 10
138.0716938000045
 20
157.114050903448
 30
0.0
 10
138.3587971829444
 20
157.0797066183503
 30
0.0
 10
138.9021517389714
 20
156.996382494028
 30
0.0
 10
139.1592553501769
 20
156.9469442712535
 30
0.0
 10
139.6201616051157
 20
156.8355645414936
 30
0.0
 10
139.8270593143307
 20
156.7732700279814
 30
0.0
 10
140.1925846283229
 20
156.6333403851104
 30
0.0
 10
140.3477901504488
 20
156.5567244873614
 30
0.0
 10
140.5972205370486
 20
156.3927658675056
 30
0.0
 10
140.6933104928338
 20
156.3042090134099
 30
0.0
 10
140.8218293420273
 20
156.1167283313041
 30
0.0
 10
140.8536402122051
 20
156.0194918698497
 30
0.0
 10
140.8539968619783
 20
155.8178592305226
 30
0.0
 10
140.8214996097813
 20
155.7123104386845
 30
0.0
 10
140.6938741360668
 20
155.502195655996
 30
0.0
 10
140.5994457350149
 20
155.397130148027
 30
0.0
 10
140.4115849150294
 20
155.2402524407759
 30
0.0
 10
140.3407569162262
 20
155.1878187070702
 30
0.0
 10
140.1860350242609
 20
155.0853802614405
 30
0.0
 10
140.1020585540775
 20
155.0352325327887
 30
0.0
 10
139.8307348844331
 20
154.8882165763551
 30
0.0
 10
139.6241856658307
 20
154.7947287559207
 30
0.0
 10
139.1575755256417
 20
154.6189418983064
 30
0.0
 10
138.9052099560163
 20
154.5395634232226
 30
0.0
 10
138.4993086143375
 20
154.4340809857286
 30
0.0
 10
138.3594079968601
 20
154.4011954208885
 30
0.0
 10
138.0701840616131
 20
154.3402799416598
 30
0.0
 10
137.9203446053239
 20
154.3121993700174
 30
0.0
 10
137.4662280357131
 20
154.2373973279746
 30
0.0
 10
137.1545768169762
 20
154.1993592697284
 30
0.0
 10
136.5135803520639
 20
154.1477473432043
 30
0.0
 10
136.1820527241117
 20
154.1344334096829
 30
0.0
 10
135.5292616790402
 20
154.1343363233548
 30
0.0
 10
135.2047254740084
 20
154.1471244085158
 30
0.0
 10
134.559456024592
 20
154.1986145981117
 30
0.0
 10
134.2437130184292
 20
154.2371391774318
 30
0.0
 10
133.6418237234456
 20
154.3360417402899
 30
0.0
 10
133.3510744926341
 20
154.3971458382149
 30
0.0
 10
132.8041627009496
 20
154.5389552713256
 30
0.0
 10
132.5523853371127
 20
154.6182897559048
 30
0.0
 10
132.0909973444915
 20
154.7916685005663
 30
0.0
 10
131.8797280648934
 20
154.8868284453202
 30
0.0
 10
131.5164237125173
 20
155.0834009686962
 30
0.0
 10
131.3626170640744
 20
155.1851571971025
 30
0.0
 10
131.173997594477
 20
155.341943159888
 30
0.0
 10
131.1179671082679
 20
155.395197193638
 30
0.0
 10
131.0223933465318
 20
155.5010017551908
 30
0.0
 10
130.9826304295068
 20
155.5536548195464
 30
0.0
 10
130.8868586791946
 20
155.7107285390055
 30
0.0
 10
130.8541358400685
 20
155.8142535743326
 30
0.0
 10
130.8535072537395
 20
156.0184683085597
 30
0.0
 10
130.8856933984742
 20
156.1159721461445
 30
0.0
 10
130.9806041003298
 20
156.2552991964962
 30
0.0
 10
131.0200708837287
 20
156.3006159280006
 30
0.0
 10
131.1150008824497
 20
156.3890557489894
 30
0.0
 10
131.170757710213
 20
156.4323099994494
 30
0.0
 10
131.3586978281829
 20
156.5562014740394
 30
0.0
 10
131.5120592978991
 20
156.6319037648135
 30
0.0
 10
131.8743235327794
 20
156.7711581362717
 30
0.0
 10
132.0851720062453
 20
156.8349199778004
 30
0.0
 10
132.5458419765643
 20
156.9464168172682
 30
0.0
 10
132.7972163561481
 20
156.9949428895848
 30
0.0
 10
133.3431242430462
 20
157.0789968729653
 30
0.0
 10
133.6339468176974
 20
157.1137954266321
 30
0.0
 10
134.2352734324775
 20
157.1689918913958
 30
0.0
 10
134.5497920170899
 20
157.1898097401497
 30
0.0
 10
135.1963734732098
 20
157.2176570730605
 30
0.0
 10
135.5232739709718
 20
157.2245546735961
 30
0.0
 10
136.1843645965244
 20
157.2245546735961
 30
0.0
  0
LINE
  5
EF
330
1F
100
AcDbEntity
  8
0
  6
HIDDEN
 62
     7
370
     0
100
AcDbLine
 10
143.5917902628
 20
147.315968178
 30
0.0
 11
143.5917902628
 21
139.7150054171
 31
0.0
  0
LINE
  5
F0
330
1F
100
AcDbEntity
  8
0
  6
HIDDEN
 62
     7
370
     0
100
AcDbLine
 10
107.2672440332
 20
71.6291990548
 30
0.0
 11
106.9972883324
 21
71.6052729556
 31
0.0
  0
SPLINE
  5
F1
330
1F
100
AcDbEntity
  8
0
  6
HIDDEN
 62
     7
370
     0
100
AcDbSpline
210
0.0
220
0.0
230
1.0
 70
     8
 71
     3
 72
    13
 73
     9
 74
     0
 42
0.00000001
 43
0.00000001
 40
0.0
 40
0.0
 40
0.0
 40
0.0
 40
0.1247122447407212
 40
0.2490589432165421
 40
0.3740779474703908
 40
0.5009711379560823
 40
0.7521757810472769
 40
1.0
 40
1.0
 40
1.0
 40
1.0
 10
105.3731243015328
 20
145.2963115113687
 30
0.0
 10
105.3789108950959
 20
145.2955352646872
 30
0.0
 10
105.3904671210353
 20
145.2939850465944
 30
0.0
 10
105.4874774906256
 20
145.281768767977
 30
0.0
 10
105.6427720564751
 20
145.2628419486676
 30
0.0
 10
105.9329590876717
 20
145.2288687913374
 30
0.0
 10
106.420487015896
 20
145.1723423911029
 30
0.0
 10
106.9862082857314
 20
145.1245366592808
 30
0.0
 10
107.2671528212191
 20
145.1007957115093
 30
0.0
  0
SPLINE
  5
F2
330
1F
100
AcDbEntity
  8
0
  6
HIDDEN
 62
     7
370
     0
100
AcDbSpline
210
0.0
220
0.0
230
1.0
 70
     8
 71
     3
 72
    13
 73
     9
 74
     0
 42
0.00000001
 43
0.00000001
 40
0.0
 40
0.0
 40
0.0
 40
0.0
 40
0.1623731734572439
 40
0.3258826327025791
 40
0.4929611418231343
 40
0.6612682551537247
 40
0.9880984148738358
 40
1.0
 40
1.0
 40
1.0
 40
1.0
 10
117.1070249389391
 20
139.7313276378652
 30
0.0
 10
117.1826154087092
 20
139.7437035720862
 30
0.0
 10
117.3343253295747
 20
139.7685420471877
 30
0.0
 10
117.5172095831562
 20
139.795797926193
 30
0.0
 10
117.66632888473
 20
139.8169273911107
 30
0.0
 10
117.8043321873493
 20
139.8354859336427
 30
0.0
 10
117.8657769299417
 20
139.8432838734423
 30
0.0
 10
117.8528732351511
 20
139.8416235226176
 30
0.0
 10
117.8524198544912
 20
139.8415651849891
 30
0.0
  0
SPLINE
  5
F3
330
1F
100
AcDbEntity
  8
0
  6
HIDDEN
 62
     7
370
     0
100
AcDbSpline
210
0.0
220
0.0
230
1.0
 70
     8
 71
     3
 72
    13
 73
     9
 74
     0
 42
0.00000001
 43
0.00000001
 40
0.0
 40
0.0
 40
0.0
 40
0.0
 40
0.153872792192583
 40
0.3221780776999741
 40
0.4884758209149528
 40
0.6559829755317658
 40
0.8273244045798813
 40
1.0
 40
1.0
 40
1.0
 40
1.0
 10
117.8524064568657
 20
76.88844737407851
 30
0.0
 10
117.8494764916964
 20
76.88882105504896
 30
0.0
 10
117.8433417453742
 20
76.88960346638376
 30
0.0
 10
117.7813172373283
 20
76.89764773812871
 30
0.0
 10
117.6792090362489
 20
76.91131831041038
 30
0.0
 10
117.5332181294013
 20
76.93188969777884
 30
0.0
 10
117.3468592600995
 20
76.95947383459608
 30
0.0
 10
117.1871761402811
 20
76.98557966125189
 30
0.0
 10
117.1070249389391
 20
76.9986831963711
 30
0.0
  0
SPLINE
  5
F4
330
1F
100
AcDbEntity
  8
0
  6
HIDDEN
 62
     7
370
     0
100
AcDbSpline
210
0.0
220
0.0
230
1.0
 70
     8
 71
     3
 72
    33
 73
    29
 74
     0
 42
0.00000001
 43
0.00000001
 40
0.0
 40
0.0
 40
0.0
 40
0.0
 40
0.0315770179393608
 40
0.0633746224220139
 40
0.0958646166390169
 40
0.1285928875532778
 40
0.1921424622188029
 40
0.2244008151544717
 40
0.2571337390781633
 40
0.3204624753608079
 40
0.352621994644561
 40
0.3852678197272868
 40
0.447565772139421
 40
0.4791918606709096
 40
0.5112822417367834
 40
0.5733461802058509
 40
0.6048366629229608
 40
0.636771330454477
 40
0.6997447529605781
 40
0.7316987673527411
 40
0.7641085796737866
 40
0.7957195281272187
 40
0.8275521708837741
 40
0.8600894066798197
 40
0.8928727782868545
 40
0.9558819713606231
 40
0.9878779765861396
 40
1.0
 40
1.0
 40
1.0
 40
1.0
 10
117.1070249389391
 20
76.9986831963711
 30
0.0
 10
117.0231529690047
 20
77.01255700698285
 30
0.0
 10
116.8548231274537
 20
77.04040154603217
 30
0.0
 10
116.5554810751163
 20
77.0868330852523
 30
0.0
 10
116.2214327476302
 20
77.13544997582488
 30
0.0
 10
115.7350860917407
 20
77.20081092299563
 30
0.0
 10
115.1915221947923
 20
77.26440890386688
 30
0.0
 10
114.6028397659341
 20
77.32087129748217
 30
0.0
 10
113.9882620341936
 20
77.37086035909327
 30
0.0
 10
113.3395071153044
 20
77.4091118281311
 30
0.0
 10
112.6729720592239
 20
77.43225714719462
 30
0.0
 10
112.0036549218787
 20
77.44451436684494
 30
0.0
 10
111.3314220104976
 20
77.4403659148969
 30
0.0
 10
110.6731943983737
 20
77.42049971095317
 30
0.0
 10
110.0274882811
 20
77.39071063133457
 30
0.0
 10
109.4050367868773
 20
77.34735359463696
 30
0.0
 10
108.8204848433909
 20
77.29428926015238
 30
0.0
 10
108.260080584455
 20
77.23569303026478
 30
0.0
 10
107.7451660543892
 20
77.17147100352105
 30
0.0
 10
107.2882613448984
 20
77.10706648883686
 30
0.0
 10
106.9761546291811
 20
77.0598403311399
 30
0.0
 10
106.6989227880854
 20
77.01534085690476
 30
0.0
 10
106.4573535984095
 20
76.97462944815256
 30
0.0
 10
106.2518769263722
 20
76.93857713397733
 30
0.0
 10
106.0337819682288
 20
76.89903360104252
 30
0.0
 10
105.903240964373
 20
76.87441048962835
 30
0.0
 10
105.8527557717158
 20
76.86480344911654
 30
0.0
 10
105.8576460011885
 20
76.86573403722386
 30
0.0
 10
105.8589896576934
 20
76.86598972885774
 30
0.0
  0
SPLINE
  5
F5
330
1F
100
AcDbEntity
  8
0
  6
HIDDEN
 62
     7
370
     0
100
AcDbSpline
210
0.0
220
0.0
230
1.0
 70
     8
 71
     3
 72
    32
 73
    28
 74
     0
 42
0.00000001
 43
0.00000001
 40
0.0
 40
0.0
 40
0.0
 40
0.0
 40
0.0203558773480551
 40
0.0824665673073109
 40
0.1139915938994021
 40
0.1459726509600318
 40
0.2082638422654275
 40
0.2398682347668828
 40
0.2719176025855575
 40
0.3351880849019722
 40
0.3672974727842298
 40
0.3998706696920131
 40
0.4314535145799261
 40
0.4634972431992714
 40
0.4957764787294852
 40
0.5285417180221622
 40
0.5912185405583836
 40
0.6230432418733031
 40
0.6553429483326882
 40
0.7173311048219213
 40
0.7487881472435691
 40
0.7806938280773448
 40
0.8432640791478858
 40
0.8750099684855102
 40
0.9072037039811925
 40
0.9533431856950859
 40
1.0
 40
1.0
 40
1.0
 40
1.0
 10
105.8589896576934
 20
139.8640211053786
 30
0.0
 10
105.8588107918245
 20
139.8640555731967
 30
0.0
 10
105.8580861630617
 20
139.8641952106386
 30
0.0
 10
105.9489597371189
 20
139.8468754320626
 30
0.0
 10
106.1178502087048
 20
139.8156694202813
 30
0.0
 10
106.341888551474
 20
139.7753021403771
 30
0.0
 10
106.6424365445364
 20
139.723517011629
 30
0.0
 10
107.0125509557339
 20
139.6645122726235
 30
0.0
 10
107.4303689542205
 20
139.6017822165665
 30
0.0
 10
107.9141718289785
 20
139.5363531125551
 30
0.0
 10
108.4529019413566
 20
139.4738120209017
 30
0.0
 10
108.8830169150565
 20
139.4296363638231
 30
0.0
 10
109.3342517916328
 20
139.389657999953
 30
0.0
 10
109.8022765322181
 20
139.3550464780645
 30
0.0
 10
110.2913583954885
 20
139.3264177880916
 30
0.0
 10
110.9500602619008
 20
139.2984136508459
 30
0.0
 10
111.6232727424057
 20
139.2860006284692
 30
0.0
 10
112.2936845063483
 20
139.2900430273876
 30
0.0
 10
112.9562153073167
 20
139.3048814300582
 30
0.0
 10
113.6044684356809
 20
139.3350839589439
 30
0.0
 10
114.222863524617
 20
139.3777795450974
 30
0.0
 10
114.8218679428652
 20
139.4279728080096
 30
0.0
 10
115.3835599466638
 20
139.4872124141863
 30
0.0
 10
115.8950580263181
 20
139.5505119315513
 30
0.0
 10
116.3064862565561
 20
139.6062901268422
 30
0.0
 10
116.7292174584542
 20
139.6691741004302
 30
0.0
 10
116.9806219249148
 20
139.7105329345576
 30
0.0
 10
117.1070249389391
 20
139.7313276378652
 30
0.0
  0
LINE
  5
F6
330
1F
100
AcDbEntity
  8
0
  6
HIDDEN
 62
     7
370
     0
100
AcDbLine
 10
96.8504436108
 20
81.8650054171
 30
0.0
 11
96.8504436108
 21
134.8650054171
 31
0.0
  0
LINE
  5
F7
330
1F
100
AcDbEntity
  8
0
  6
HIDDEN
 62
     7
370
     0
100
AcDbLine
 10
136.1378969021
 20
81.8650054171
 30
0.0
 11
136.1378969021
 21
134.8650054171
 31
0.0
  0
LINE
  5
F8
330
1F
100
AcDbEntity
  8
0
  6
HIDDEN
 62
     7
370
     0
100
AcDbLine
 10
139.3038192837
 20
83.4900054171
 30
0.0
 11
139.3038192837
 21
133.2400054171
 31
0.0
  0
SPLINE
  5
F9
330
1F
100
AcDbEntity
  8
0
  6
HIDDEN
 62
     7
370
     0
100
AcDbSpline
210
0.0
220
0.0
230
1.0
 70
     8
 71
     3
 72
    20
 73
    16
 74
     0
 42
0.00000001
 43
0.00000001
 40
0.0
 40
0.0
 40
0.0
 40
0.0
 40
0.2499999999999978
 40
0.2499999999999978
 40
0.3749999999999982
 40
0.3749999999999982
 40
0.4999999999999986
 40
0.4999999999999986
 40
0.6249999999999989
 40
0.6249999999999989
 40
0.7499999999999992
 40
0.7499999999999992
 40
0.8749999999999997
 40
0.8749999999999997
 40
1.0
 40
1.0
 40
1.0
 40
1.0
 10
87.0538192837481
 20
133.5935190475325
 30
0.0
 10
87.05381928374811
 20
133.5143160610002
 30
0.0
 10
87.00683678853537
 20
133.4332198425973
 30
0.0
 10
86.86901519775779
 20
133.3130231508463
 30
0.0
 10
86.81273291384781
 20
133.2740964468442
 30
0.0
 10
86.67964806238058
 20
133.1989077144199
 30
0.0
 10
86.60180812014754
 20
133.1622655090779
 30
0.0
 10
86.42917576403318
 20
133.094674976246
 30
0.0
 10
86.3347827669421
 20
133.0637167944704
 30
0.0
 10
86.12934546062695
 20
133.0081923731007
 30
0.0
 10
86.01699922063978
 20
132.9834838592675
 30
0.0
 10
85.78475835674016
 20
132.9436876321593
 30
0.0
 10
85.66404771431743
 20
132.9282677947623
 30
0.0
 10
85.4129768550484
 20
132.9071878199226
 30
0.0
 10
85.28345485863262
 20
132.9017105749017
 30
0.0
 10
85.1538192837481
 20
132.9017105749017
 30
0.0
  0
LINE
  5
FA
330
1F
100
AcDbEntity
  8
0
  6
HIDDEN
 62
     7
370
     0
100
AcDbLine
 10
85.1538192837
 20
132.9017105749
 30
0.0
 11
78.6038192837
 21
132.9017105749
 31
0.0
  0
LINE
  5
FB
330
1F
100
AcDbEntity
  8
0
  6
HIDDEN
 62
     7
370
     0
100
AcDbLine
 10
78.6038192837
 20
83.8283002593
 30
0.0
 11
90.1538192837
 21
83.8283002593
 31
0.0
  0
SPLINE
  5
FC
330
1F
100
AcDbEntity
  8
0
  6
HIDDEN
 62
     7
370
     0
100
AcDbSpline
210
0.0
220
0.0
230
1.0
 70
     8
 71
     3
 72
    18
 73
    14
 74
     0
 42
0.00000001
 43
0.00000001
 40
0.0
 40
0.0
 40
0.0
 40
0.0
 40
0.1249999999999982
 40
0.1249999999999982
 40
0.2499999999999964
 40
0.2499999999999964
 40
0.4999999999999988
 40
0.4999999999999988
 40
0.7500000000000011
 40
0.7500000000000011
 40
0.8750000000000006
 40
0.8750000000000006
 40
1.0
 40
1.0
 40
1.0
 40
1.0
 10
90.1538192837481
 20
83.82830025933465
 30
0.0
 10
90.28328659670531
 20
83.82830025933464
 30
0.0
 10
90.41029734560195
 20
83.82294726074201
 30
0.0
 10
90.6596606667992
 20
83.80220928805322
 30
0.0
 10
90.78328432142764
 20
83.78653738379893
 30
0.0
 10
91.13231665836169
 20
83.72684265539684
 30
0.0
 10
91.34282842316847
 20
83.66907747571587
 30
0.0
 10
91.686745100868
 20
83.53455563443836
 30
0.0
 10
91.8230955023858
 20
83.45688652093295
 30
0.0
 10
91.96013355894833
 20
83.33759538684562
 30
0.0
 10
91.99535257766124
 20
83.29667637771057
 30
0.0
 10
92.04197615459981
 20
83.21602038442055
 30
0.0
 10
92.05381928374811
 20
83.17605186422769
 30
0.0
 10
92.0538192837481
 20
83.13649178670386
 30
0.0
  0
LINE
  5
FD
330
1F
100
AcDbEntity
  8
0
  6
HIDDEN
 62
     7
370
     0
100
AcDbLine
 10
78.6038192837
 20
83.8283002593
 30
0.0
 11
78.6038192837
 21
132.9017105749
 31
0.0
  0
LWPOLYLINE
  5
FE
330
1F
100
AcDbEntity
  8
0
  6
HIDDEN
 62
     7
370
     0
100
AcDbPolyline
 90
       14
 70
   128
 43
0.0
 10
135.8538192837
 20
148.3087359804
 10
136.8603118842
 20
148.3503655953
 10
137.8255985593
 20
148.4735501187
 10
138.7101603592
 20
148.6732463616
 10
139.4777832199
 20
148.9412787365
 10
140.0970405712
 20
149.2666739665
 10
140.5425799445
 20
149.6361103325
 10
140.7961609054
 20
150.0344630663
 10
140.8474018196
 20
150.4454235603
 10
140.6942048781
 20
150.8521670435
 10
140.3428419816
 20
151.23804139
 10
139.8076979684
 20
151.5872488585
 10
139.1106816974
 20
151.8854928544
 10
138.3054493442
 20
152.1148536339
  0
LWPOLYLINE
  5
FF
330
1F
100
AcDbEntity
  8
0
  6
HIDDEN
 62
     7
370
     0
100
AcDbPolyline
 90
       14
 70
   128
 43
0.0
 10
133.406139502
 20
152.1157566146
 10
132.5969568701
 20
151.8854928544
 10
131.8999405991
 20
151.5872488585
 10
131.3647965859
 20
151.23804139
 10
131.0134336894
 20
150.8521670435
 10
130.8602367479
 20
150.4454235603
 10
130.9114776621
 20
150.0344630663
 10
131.165058623
 20
149.6361103325
 10
131.6105979963
 20
149.2666739665
 10
132.2298553476
 20
148.9412787365
 10
132.9974782083
 20
148.6732463616
 10
133.8820400082
 20
148.4735501187
 10
134.8473266833
 20
148.3503655953
 10
135.8538192837
 20
148.3087359804
  0
LINE
  5
100
330
1F
100
AcDbEntity
  8
0
  6
HIDDEN
 62
     7
370
     0
100
AcDbLine
 10
78.6038192837
 20
80.9950054171
 30
0.0
 11
78.6038192837
 21
76.1167202153
 31
0.0
  0
LINE
  5
101
330
1F
100
AcDbEntity
  8
0
  6
HIDDEN
 62
     7
370
     0
100
AcDbLine
 10
92.0538192837
 20
80.9950054171
 30
0.0
 11
92.0538192837
 21
74.4956721518
 31
0.0
  0
LINE
  5
102
330
1F
100
AcDbEntity
  8
0
  6
HIDDEN
 62
     7
370
     0
100
AcDbLine
 10
87.0538192837
 20
135.7350054171
 30
0.0
 11
87.0538192837
 21
142.1096141541
 31
0.0
  0
LINE
  5
103
330
1F
100
AcDbEntity
  8
0
  6
HIDDEN
 62
     7
370
     0
100
AcDbLine
 10
78.6038192837
 20
135.7350054171
 30
0.0
 11
78.6038192837
 21
140.6132906189
 31
0.0
  0
LINE
  5
104
330
1F
100
AcDbEntity
  8
0
  6
HIDDEN
 62
     7
370
     0
100
AcDbLine
 10
155.1538192837
 20
95.3650054171
 30
0.0
 11
155.1538192837
 21
121.3650054171
 31
0.0
  0
LINE
  5
105
330
1F
100
AcDbEntity
  8
0
  6
HIDDEN
 62
     7
370
     0
100
AcDbLine
 10
151.1538192837
 20
95.3650054171
 30
0.0
 11
151.1538192837
 21
121.3650054171
 31
0.0
  0
LINE
  5
106
330
1F
100
AcDbEntity
  8
0
  6
HIDDEN
 62
     7
370
     0
100
AcDbLine
 10
140.0538192837
 20
97.1150054171
 30
0.0
 11
140.0538192837
 21
119.6150054171
 31
0.0
  0
ELLIPSE
  5
107
330
1F
100
AcDbEntity
  8
0
  6
HIDDEN
 62
     7
370
     0
100
AcDbEllipse
 10
70.6691460835
 20
108.3650054171
 30
0.0
 11
31.08108570811662
 21
-1.421085471520200E-14
 31
0.0
210
0.0
220
0.0
230
1.0
 40
0.8164965809
 41
4.915995335118103
 42
4.970536038964787
  0
ELLIPSE
  5
108
330
1F
100
AcDbEntity
  8
0
  6
HIDDEN
 62
     7
370
     0
100
AcDbEllipse
 10
70.6691460835
 20
108.3650054171
 30
0.0
 11
31.08108570811662
 21
1.421085471520200E-14
 31
0.0
210
0.0
220
0.0
230
1.0
 40
0.8164965809
 41
1.312649268214811
 42
1.367189972061495
  0
LINE
  5
109
330
1F
100
AcDbEntity
  8
0
  6
HIDDEN
 62
     7
370
     0
100
AcDbLine
 10
155.8038192837
 20
64.4650054171
 30
0.0
 11
141.8038192837
 21
64.4650054171
 31
0.0
  0
LINE
  5
10A
330
1F
100
AcDbEntity
  8
0
  6
HIDDEN
 62
     7
370
     0
100
AcDbLine
 10
131.8038192837
 20
58.3750064173
 30
0.0
 11
131.8038192837
 21
64.4650054171
 31
0.0
  0
LINE
  5
10B
330
1F
100
AcDbEntity
  8
0
  6
HIDDEN
 62
     7
370
     0
100
AcDbLine
 10
141.8038192837
 20
64.4650054171
 30
0.0
 11
131.8038192837
 21
64.4650054171
 31
0.0
  0
LINE
  5
10C
330
1F
100
AcDbEntity
  8
0
  6
HIDDEN
 62
     7
370
     0
100
AcDbLine
 10
92.0538192837
 20
80.9950054171
 30
0.0
 11
92.0538192837
 21
83.1364917867
 31
0.0
  0
LINE
  5
10D
330
1F
100
AcDbEntity
  8
0
  6
HIDDEN
 62
     7
370
     0
100
AcDbLine
 10
78.6038192837
 20
80.9950054171
 30
0.0
 11
78.6038192837
 21
83.8283002593
 31
0.0
  0
LINE
  5
10E
330
1F
100
AcDbEntity
  8
0
  6
HIDDEN
 62
     7
370
     0
100
AcDbLine
 10
78.6038192837
 20
135.7350054171
 30
0.0
 11
78.6038192837
 21
132.9017105749
 31
0.0
  0
LINE
  5
10F
330
1F
100
AcDbEntity
  8
0
  6
HIDDEN
 62
     7
370
     0
100
AcDbLine
 10
87.0538192837
 20
135.7350054171
 30
0.0
 11
87.0538192837
 21
133.5935190475
 31
0.0
  0
LINE
  5
110
330
1F
100
AcDbEntity
  8
0
  6
HIDDEN
 62
     7
370
     0
100
AcDbLine
 10
141.8038192837
 20
152.2650054171
 30
0.0
 11
131.8038192837
 21
152.2650054171
 31
0.0
  0
LINE
  5
111
330
1F
100
AcDbEntity
  8
0
  6
HIDDEN
 62
     7
370
     0
100
AcDbLine
 10
155.8038192837
 20
152.2650054171
 30
0.0
 11
141.8038192837
 21
152.2650054171
 31
0.0
  0
SPLINE
  5
112
330
1F
100
AcDbEntity
  8
0
  6
HIDDEN
 62
     7
370
     0
100
AcDbSpline
210
0.0
220
0.0
230
1.0
 70
     8
 71
     3
 72
    30
 73
    26
 74
     0
 42
0.00000001
 43
0.00000001
 40
0.0
 40
0.0
 40
0.0
 40
0.0
 40
0.0531143928257204
 40
0.112496918872857
 40
0.1778960761203578
 40
0.2129211563027638
 40
0.2494753232940679
 40
0.2912423579066847
 40
0.3260856983044669
 40
0.3540016320013332
 40
0.3749875116826833
 40
0.4414470669053779
 40
0.5001663369199378
 40
0.5546825907318129
 40
0.6144284926651462
 40
0.6794556801599032
 40
0.7140136634644556
 40
0.7499116593255871
 40
0.7913773455533948
 40
0.8260452700023345
 40
0.8539116487510543
 40
0.8749736296176421
 40
0.94116197945727
 40
0.9999141544141262
 40
1.0
 40
1.0
 40
1.0
 40
1.0
 10
117.8533092187394
 20
71.26509244646606
 30
0.0
 10
117.8371185947054
 20
71.26999092443842
 30
0.0
 10
117.8028266594776
 20
71.28036595933462
 30
0.0
 10
117.5015448232409
 20
71.35601063529221
 30
0.0
 10
117.0593805161812
 20
71.45229585957152
 30
0.0
 10
116.5645471724437
 20
71.55196085047059
 30
0.0
 10
116.0940716353299
 20
71.64423896023281
 30
0.0
 10
115.5631501713418
 20
71.73987100387151
 30
0.0
 10
115.0249996780536
 20
71.82552124449452
 30
0.0
 10
114.5669523421118
 20
71.89281303797051
 30
0.0
 10
113.9113880214094
 20
71.98116120682725
 30
0.0
 10
113.0280815831671
 20
72.07781929114407
 30
0.0
 10
111.899419850527
 20
72.16459446788676
 30
0.0
 10
110.8096581007637
 20
72.20267316560461
 30
0.0
 10
109.7136298223384
 20
72.20452360036671
 30
0.0
 10
108.8082385753932
 20
72.17836214478199
 30
0.0
 10
108.1119358649784
 20
72.14175491965302
 30
0.0
 10
107.5852561367033
 20
72.10273804417596
 30
0.0
 10
107.1186100216706
 20
72.06052891670403
 30
0.0
 10
106.7473947459468
 20
72.02352482713466
 30
0.0
 10
106.4933482687048
 20
71.9948240666903
 30
0.0
 10
106.1922931159954
 20
71.95844411610051
 30
0.0
 10
105.9368093211909
 20
71.9256639491131
 30
0.0
 10
105.8375885962471
 20
71.9093260644067
 30
0.0
 10
105.8538691535287
 20
71.9119196505783
 30
0.0
 10
105.8538929071147
 20
71.91192343466082
 30
0.0
  0
SPLINE
  5
113
330
1F
100
AcDbEntity
  8
0
  6
HIDDEN
 62
     7
370
     0
100
AcDbSpline
210
0.0
220
0.0
230
1.0
 70
     8
 71
     3
 72
    30
 73
    26
 74
     0
 42
0.00000001
 43
0.00000001
 40
0.0
 40
0.0
 40
0.0
 40
0.0
 40
0.0001254845362966
 40
0.0285558969270565
 40
0.05885906255675
 40
0.0910391559951383
 40
0.1250996024035317
 40
0.1546877362457816
 40
0.1963660297673615
 40
0.2501200160862805
 40
0.3205343272275117
 40
0.3856185136763186
 40
0.4454111578262208
 40
0.4999637483993911
 40
0.5283556444556483
 40
0.5586398341728188
 40
0.5908239801845436
 40
0.624914406602419
 40
0.6541890075525572
 40
0.6958670094574703
 40
0.749934019431558
 40
0.8215928759400427
 40
0.8871437758640016
 40
0.9466385769834129
 40
1.0
 40
1.0
 40
1.0
 40
1.0
 10
105.8539257714052
 20
144.8180146929408
 30
0.0
 10
105.8538901650411
 20
144.8180224567678
 30
0.0
 10
105.8457874003989
 20
144.8197892325821
 30
0.0
 10
105.874445250481
 20
144.8143351066918
 30
0.0
 10
105.9478363851426
 20
144.8037913993798
 30
0.0
 10
106.0914916692883
 20
144.7841064442723
 30
0.0
 10
106.292527721345
 20
144.7592671098114
 30
0.0
 10
106.5751581801411
 20
144.7250586628149
 30
0.0
 10
106.9885673397261
 20
144.6813787592349
 30
0.0
 10
107.6648548272884
 20
144.6183356944328
 30
0.0
 10
108.6032857331577
 20
144.5570385230067
 30
0.0
 10
109.7127789453365
 20
144.5257500797704
 30
0.0
 10
110.8102596763374
 20
144.5274052473044
 30
0.0
 10
111.7102909147272
 20
144.5587114494153
 30
0.0
 10
112.4216318405871
 20
144.6055445982159
 30
0.0
 10
112.9870487415759
 20
144.6527114601123
 30
0.0
 10
113.5759721644048
 20
144.7121504666622
 30
0.0
 10
114.1403818168821
 20
144.7785076732702
 30
0.0
 10
114.7345780108184
 20
144.8604270797017
 30
0.0
 10
115.4011861717888
 20
144.9620750624522
 30
0.0
 10
116.2025189174891
 20
145.1042139730525
 30
0.0
 10
116.955028901997
 20
145.2554585438188
 30
0.0
 10
117.5003153969631
 20
145.3733094170782
 30
0.0
 10
117.803036928462
 20
145.4495386488275
 30
0.0
 10
117.837327379075
 20
145.459990958322
 30
0.0
 10
117.8535408157251
 20
145.4649330881222
 30
0.0
  0
LINE
  5
114
330
1F
100
AcDbEntity
  8
0
  6
HIDDEN
 62
     7
370
     0
100
AcDbLine
 10
208.3538192837
 20
104.3650054171
 30
0.0
 11
208.3538192837
 21
112.3650054171
 31
0.0
  0
SPLINE
  5
115
330
1F
100
AcDbEntity
  8
0
  6
HIDDEN
 62
     7
370
     0
100
AcDbSpline
210
0.0
220
0.0
230
1.0
 70
     8
 71
     3
 72
    22
 73
    18
 74
     0
 42
0.00000001
 43
0.00000001
 40
0.0
 40
0.0
 40
0.0
 40
0.0
 40
0.0505062323214728
 40
0.1533178645990338
 40
0.2057385496080954
 40
0.2562410477514872
 40
0.3588605346652399
 40
0.4110693372550036
 40
0.4635437978253508
 40
0.5701739320268495
 40
0.6244506830213175
 40
0.6783211864617933
 40
0.7325832186661263
 40
0.7881146978497617
 40
0.8441013983197562
 40
0.8959032115444788
 40
1.0
 40
1.0
 40
1.0
 40
1.0
 10
177.3538192837481
 20
112.3948937530401
 30
0.0
 10
177.3937829452078
 20
112.3952525280673
 30
0.0
 10
177.5150975425342
 20
112.3963416336788
 30
0.0
 10
177.6764124259552
 20
112.4064978372619
 30
0.0
 10
177.8320474392954
 20
112.4226249333775
 30
0.0
 10
177.9829683113163
 20
112.442556628456
 30
0.0
 10
178.1257642391537
 20
112.4672243011135
 30
0.0
 10
178.2587594526937
 20
112.4948835105892
 30
0.0
 10
178.3860803803791
 20
112.5242274795867
 30
0.0
 10
178.5010500921092
 20
112.5544990734189
 30
0.0
 10
178.6003349914766
 20
112.5830957619702
 30
0.0
 10
178.6666945418491
 20
112.6032241621456
 30
0.0
 10
178.7242107978857
 20
112.6214280750708
 30
0.0
 10
178.7724689124277
 20
112.637244305263
 30
0.0
 10
178.8091775005146
 20
112.6496019236934
 30
0.0
 10
178.84445220231
 20
112.6617159728478
 30
0.0
 10
178.8499027396045
 20
112.6636307704641
 30
0.0
 10
178.8535421784552
 20
112.6649093212673
 30
0.0
  0
LINE
  5
116
330
1F
100
AcDbEntity
  8
0
  6
HIDDEN
 62
     7
370
     0
100
AcDbLine
 10
177.4755154221
 20
112.3967875818
 30
0.0
 11
177.2371859584
 21
112.3967853812
 31
0.0
  0
SPLINE
  5
117
330
1F
100
AcDbEntity
  8
0
  6
HIDDEN
 62
     7
370
     0
100
AcDbSpline
210
0.0
220
0.0
230
1.0
 70
     8
 71
     3
 72
    22
 73
    18
 74
     0
 42
0.00000001
 43
0.00000001
 40
0.0
 40
0.0
 40
0.0
 40
0.0
 40
0.1007446507057608
 40
0.1531624425706873
 40
0.2028120569179014
 40
0.3036961083223571
 40
0.3550221992410673
 40
0.4066344501923885
 40
0.5114772615373954
 40
0.5648129411909945
 40
0.6186021976414668
 40
0.6727684471765698
 40
0.728149730428932
 40
0.7839657841950423
 40
0.8369223191188853
 40
0.944853286992409
 40
1.0
 40
1.0
 40
1.0
 40
1.0
 10
175.8542076210339
 20
112.6648706923012
 30
0.0
 10
175.8575654160379
 20
112.6636914316183
 30
0.0
 10
175.8626702834513
 20
112.661898597504
 30
0.0
 10
175.8957163395118
 20
112.6505391437131
 30
0.0
 10
175.9399138704174
 20
112.6356332871032
 30
0.0
 10
176.0020686886453
 20
112.615303244978
 30
0.0
 10
176.0812493797897
 20
112.590900862257
 30
0.0
 10
176.1728654097684
 20
112.5639309135091
 30
0.0
 10
176.2813843446244
 20
112.5344480178214
 30
0.0
 10
176.4049626630041
 20
112.5047341162344
 30
0.0
 10
176.5057431977354
 20
112.4827427454176
 30
0.0
 10
176.6140417123889
 20
112.461739788132
 30
0.0
 10
176.7294149820422
 20
112.4424178702921
 30
0.0
 10
176.848960912589
 20
112.4257918614839
 30
0.0
 10
177.0120216958611
 20
112.4079914277743
 30
0.0
 10
177.1811418931719
 20
112.3965821953722
 30
0.0
 10
177.3101825924905
 20
112.3953204333166
 30
0.0
 10
177.3538192837481
 20
112.3948937530401
 30
0.0
  0
SPLINE
  5
118
330
1F
100
AcDbEntity
  8
0
  6
HIDDEN
 62
     7
370
     0
100
AcDbSpline
210
0.0
220
0.0
230
1.0
 70
     8
 71
     3
 72
    27
 73
    23
 74
     0
 42
0.00000001
 43
0.00000001
 40
0.0
 40
0.0
 40
0.0
 40
0.0
 40
0.0507816103274936
 40
0.1030881979290503
 40
0.1538561257728967
 40
0.2060070907766576
 40
0.2585050423281203
 40
0.312430557157847
 40
0.3665037503210739
 40
0.4222571586564713
 40
0.4743148081469629
 40
0.5280476338066704
 40
0.5775602478487406
 40
0.6284669923466482
 40
0.6788956278408013
 40
0.7306348167685562
 40
0.7839167771556487
 40
0.8387032221737084
 40
0.8925100780107021
 40
0.9480286554418255
 40
0.9993150357584306
 40
1.0
 40
1.0
 40
1.0
 40
1.0
 10
178.8538192837481
 20
104.0650054171182
 30
0.0
 10
178.8500673540733
 20
104.0663215513694
 30
0.0
 10
178.842450823868
 20
104.0689933435263
 30
0.0
 10
178.7813844202492
 20
104.0899474394082
 30
0.0
 10
178.6854050863211
 20
104.1212600651889
 30
0.0
 10
178.5543128295758
 20
104.1609028443338
 30
0.0
 10
178.3889879564591
 20
104.2055122060569
 30
0.0
 10
178.1929714516194
 20
104.2503961819857
 30
0.0
 10
177.9681741200129
 20
104.2907963630129
 30
0.0
 10
177.7265641472039
 20
104.3204454271373
 30
0.0
 10
177.4737053046843
 20
104.3359529025654
 30
0.0
 10
177.2266930268093
 20
104.3356012101925
 30
0.0
 10
176.9856772244341
 20
104.3205260956188
 30
0.0
 10
176.760049546387
 20
104.2935466191209
 30
0.0
 10
176.5474211705653
 20
104.2568332180289
 30
0.0
 10
176.3530403634234
 20
104.2139947068244
 30
0.0
 10
176.1803339539369
 20
104.1686588587744
 30
0.0
 10
176.0384851497595
 20
104.1264418267258
 30
0.0
 10
175.9308376302303
 20
104.0915004060481
 30
0.0
 10
175.8714772829513
 20
104.0711849169124
 30
0.0
 10
175.8472252996932
 20
104.0627188567691
 30
0.0
 10
175.8539980969777
 20
104.0650674258094
 30
0.0
 10
175.8540873600898
 20
104.0650983791323
 30
0.0
  0
LINE
  5
119
330
1F
100
AcDbEntity
  8
0
  6
HIDDEN
 62
     7
370
     0
100
AcDbLine
 10
175.3538192837
 20
104.4650054171
 30
0.0
 11
175.3538192837
 21
112.2650049474
 31
0.0
  0
LINE
  5
11A
330
1F
100
AcDbEntity
  8
0
  6
HIDDEN
 62
     7
370
     0
100
AcDbLine
 10
185.8538192837
 20
104.3650054171
 30
0.0
 11
185.8538192837
 21
112.3650054171
 31
0.0
  0
LINE
  5
11B
330
1F
100
AcDbEntity
  8
0
  6
HIDDEN
 62
     7
370
     0
100
AcDbLine
 10
158.1538192837
 20
104.9650054171
 30
0.0
 11
158.1538192837
 21
111.7650054171
 31
0.0
  0
LINE
  5
11C
330
1F
100
AcDbEntity
  8
0
  6
HIDDEN
 62
     7
370
     0
100
AcDbLine
 10
158.6945938409
 20
105.8650054171
 30
0.0
 11
158.6945938409
 21
110.8650054171
 31
0.0
  0
LINE
  5
11D
330
1F
100
AcDbEntity
  8
0
  6
HIDDEN
 62
     7
370
     0
100
AcDbLine
 10
171.3038192837
 20
95.9423556863
 30
0.0
 11
166.3038192837
 21
95.9423556863
 31
0.0
  0
LINE
  5
11E
330
1F
100
AcDbEntity
  8
0
  6
HIDDEN
 62
     7
370
     0
100
AcDbLine
 10
168.8038192837
 20
120.7876551479
 30
0.0
 11
171.3038192837
 21
120.7876551479
 31
0.0
  0
LINE
  5
11F
330
1F
100
AcDbEntity
  8
0
  6
HIDDEN
 62
     7
370
     0
100
AcDbLine
 10
166.3038192837
 20
120.7876551479
 30
0.0
 11
168.8038192837
 21
120.7876551479
 31
0.0
  0
LINE
  5
120
330
1F
100
AcDbEntity
  8
0
  6
HIDDEN
 62
     7
370
     0
100
AcDbLine
 10
168.8038192837
 20
113.3650054171
 30
0.0
 11
171.3038192837
 21
113.3650054171
 31
0.0
  0
LINE
  5
121
330
1F
100
AcDbEntity
  8
0
  6
HIDDEN
 62
     7
370
     0
100
AcDbLine
 10
166.3038192837
 20
113.3650054171
 30
0.0
 11
168.8038192837
 21
113.3650054171
 31
0.0
  0
LINE
  5
122
330
1F
100
AcDbEntity
  8
0
  6
HIDDEN
 62
     7
370
     0
100
AcDbLine
 10
171.3038192837
 20
103.3650054171
 30
0.0
 11
166.3038192837
 21
103.3650054171
 31
0.0
  0
SPLINE
  5
123
330
1F
100
AcDbEntity
  8
0
  6
HIDDEN
 62
     7
370
     0
100
AcDbSpline
210
0.0
220
0.0
230
1.0
 70
     8
 71
     3
 72
    43
 73
    39
 74
     0
 42
0.00000001
 43
0.00000001
 40
0.0
 40
0.0
 40
0.0
 40
0.0
 40
0.02053642420559
 40
0.0412453505825061
 40
0.0624844779490065
 40
0.0838977898242692
 40
0.1250617305260194
 40
0.167231819081893
 40
0.1957501763171415
 40
0.2244881424999085
 40
0.2538393121282544
 40
0.2833736694516072
 40
0.3125708085671365
 40
0.3419309067081149
 40
0.3718380757972608
 40
0.401973836251905
 40
0.4346664300212947
 40
0.4680039602154236
 40
0.5007773732743827
 40
0.5348615478536567
 40
0.5630606245045731
 40
0.5918606767792499
 40
0.6165384950629522
 40
0.6414119861749233
 40
0.6667753626963322
 40
0.6922727127537727
 40
0.7449380168311569
 40
0.7717760213148629
 40
0.798771190406578
 40
0.8225102500288413
 40
0.8463843793398407
 40
0.8707264242043431
 40
0.8952523765690248
 40
0.9190003974637082
 40
0.9429588583055833
 40
0.9676373786576008
 40
0.9925873867787987
 40
1.0
 40
1.0
 40
1.0
 40
1.0
 10
178.8538192837481
 20
115.4106145001175
 30
0.0
 10
178.8533414216804
 20
115.4112069418594
 30
0.0
 10
178.8523816835918
 20
115.4123968017445
 30
0.0
 10
178.8445865114897
 20
115.4220743052446
 30
0.0
 10
178.8320762687863
 20
115.4376515455494
 30
0.0
 10
178.8091099291624
 20
115.4663786377736
 30
0.0
 10
178.769757169119
 20
115.5160086588837
 30
0.0
 10
178.7155078964852
 20
115.5857456360166
 30
0.0
 10
178.6604843314248
 20
115.6582373168133
 30
0.0
 10
178.6087940277309
 20
115.7280390012877
 30
0.0
 10
178.5537216458267
 20
115.8048128253013
 30
0.0
 10
178.4966384529599
 20
115.8877637466243
 30
0.0
 10
178.438994522377
 20
115.9761817469947
 30
0.0
 10
178.3818360831902
 20
116.0703422634714
 30
0.0
 10
178.326405852763
 20
116.1710901993705
 30
0.0
 10
178.2735611347626
 20
116.2817347016557
 30
0.0
 10
178.2270131774699
 20
116.4034923535306
 30
0.0
 10
178.1931579908418
 20
116.5360635027439
 30
0.0
 10
178.1790244921396
 20
116.6760358239953
 30
0.0
 10
178.1885597314299
 20
116.8094823714314
 30
0.0
 10
178.2163836590402
 20
116.9328165597004
 30
0.0
 10
178.2531986732922
 20
117.0379867649629
 30
0.0
 10
178.2959279331846
 20
117.1334462976762
 30
0.0
 10
178.3412911861749
 20
117.2200485223423
 30
0.0
 10
178.3900757109571
 20
117.3030153503548
 30
0.0
 10
178.4589233502062
 20
117.4103085130212
 30
0.0
 10
178.5298360786105
 20
117.5100577420958
 30
0.0
 10
178.598674103561
 20
117.6012211796019
 30
0.0
 10
178.6465100914752
 20
117.662468392194
 30
0.0
 10
178.6896130793018
 20
117.7162992556057
 30
0.0
 10
178.7279394632234
 20
117.7632540033838
 30
0.0
 10
178.7627032906002
 20
117.8051789443409
 30
0.0
 10
178.7927301197713
 20
117.8409332493047
 30
0.0
 10
178.8172750880212
 20
117.8698790972635
 30
0.0
 10
178.8363463403652
 20
117.8922059190049
 30
0.0
 10
178.8483124488221
 20
117.906146358605
 30
0.0
 10
178.8549266542785
 20
117.9138310819635
 30
0.0
 10
178.8528521659242
 20
117.9114190948712
 30
0.0
 10
178.8523770072639
 20
117.9108666325963
 30
0.0
  0
SPLINE
  5
124
330
1F
100
AcDbEntity
  8
0
  6
HIDDEN
 62
     7
370
     0
100
AcDbSpline
210
0.0
220
0.0
230
1.0
 70
     8
 71
     3
 72
    10
 73
     6
 74
     0
 42
0.00000001
 43
0.00000001
 40
0.0
 40
0.0
 40
0.0
 40
0.0
 40
0.3845743046455312
 40
0.8689635483473476
 40
1.0
 40
1.0
 40
1.0
 40
1.0
 10
175.8563175803895
 20
117.9109394328777
 30
0.0
 10
175.857450804638
 20
117.9112315444008
 30
0.0
 10
175.8600113775937
 20
117.911891583989
 30
0.0
 10
175.8927830400154
 20
117.9222150680384
 30
0.0
 10
175.9211202716546
 20
117.9355947888584
 30
0.0
 10
175.9271538355953
 20
117.9384435992893
 30
0.0
  0
SPLINE
  5
125
330
1F
100
AcDbEntity
  8
0
  6
HIDDEN
 62
     7
370
     0
100
AcDbSpline
210
0.0
220
0.0
230
1.0
 70
     8
 71
     3
 72
    27
 73
    23
 74
     0
 42
0.00000001
 43
0.00000001
 40
0.0
 40
0.0
 40
0.0
 40
0.0
 40
0.0436974915427625
 40
0.0878335253670716
 40
0.1331056124352519
 40
0.180343521469694
 40
0.2285619252985558
 40
0.2848361166626593
 40
0.3422362494844861
 40
0.4099429175775618
 40
0.4800763979314961
 40
0.5134973703867822
 40
0.5477807228015235
 40
0.581248496283175
 40
0.6157765870447659
 40
0.6611901320797664
 40
0.707834737011325
 40
0.7790431163816907
 40
0.8522596840365356
 40
0.9116646089721242
 40
0.9725942847189478
 40
1.0
 40
1.0
 40
1.0
 40
1.0
 10
175.8548840271559
 20
115.52972314051
 30
0.0
 10
175.8561399843307
 20
115.5311788678794
 30
0.0
 10
175.8586645033014
 20
115.5341049321068
 30
0.0
 10
175.8864021458489
 20
115.5664495792375
 30
0.0
 10
175.9292969213608
 20
115.6170594904955
 30
0.0
 10
175.9883778982659
 20
115.6880745714222
 30
0.0
 10
176.0642411879565
 20
115.7819495485026
 30
0.0
 10
176.1552774855047
 20
115.899792022362
 30
0.0
 10
176.2632448827317
 20
116.0506896454743
 30
0.0
 10
176.3782810276554
 20
116.2344194562093
 30
0.0
 10
176.464733707092
 20
116.4187299068661
 30
0.0
 10
176.5097444000228
 20
116.5808164808396
 30
0.0
 10
176.5264944136331
 20
116.7050267783804
 30
0.0
 10
176.5240515554329
 20
116.8322010486003
 30
0.0
 10
176.5007092902591
 20
116.970310975472
 30
0.0
 10
176.453255034886
 20
117.116614166612
 30
0.0
 10
176.3727749239355
 20
117.29127014489
 30
0.0
 10
176.2637374895161
 20
117.4764105833518
 30
0.0
 10
176.1449399211257
 20
117.6503698965799
 30
0.0
 10
176.0404003973447
 20
117.7924125273553
 30
0.0
 10
175.9704237756608
 20
117.8833683346806
 30
0.0
 10
175.9373994924366
 20
117.9254026230189
 30
0.0
 10
175.9271538355953
 20
117.9384435992894
 30
0.0
  0
LINE
  5
126
330
1F
100
AcDbEntity
  8
0
  6
HIDDEN
 62
     7
370
     0
100
AcDbLine
 10
178.8538192837
 20
119.0650054171
 30
0.0
 11
175.8538192837
 21
119.0650054171
 31
0.0
  0
LWPOLYLINE
  5
127
330
1F
100
AcDbEntity
  8
0
  6
HIDDEN
 62
     7
370
     0
100
AcDbPolyline
 90
       19
 70
   128
 43
0.0
 10
178.8506001012
 20
98.8212242154
 10
178.8214022192
 20
98.8553153145
 10
178.7246977591
 20
98.9708168791
 10
178.6323109416
 20
99.0858176751
 10
178.5242603002
 20
99.2287515675
 10
178.4127458402
 20
99.3919395993
 10
178.3045071727
 20
99.5814018505
 10
178.2074838151
 20
99.8397965532
 10
178.1837819319
 20
100.0787129156
 10
178.225754896
 20
100.3137256311
 10
178.292321722
 20
100.4863537748
 10
178.3764693659
 20
100.6487312808
 10
178.5018025403
 20
100.849169333
 10
178.6276014034
 20
101.0272546124
 10
178.7096123063
 20
101.1362886985
 10
178.7792190549
 20
101.2258196124
 10
178.8467296122
 20
101.3105946962
 10
178.8538192837
 20
101.3193963341
 10
178.8538192837
 20
101.3193963341
  0
LINE
  5
128
330
1F
100
AcDbEntity
  8
0
  6
HIDDEN
 62
     7
370
     0
100
AcDbLine
 10
177.3538192837
 20
97.8650054171
 30
0.0
 11
178.8538192837
 21
97.8650054171
 31
0.0
  0
LINE
  5
129
330
1F
100
AcDbEntity
  8
0
  6
HIDDEN
 62
     7
370
     0
100
AcDbLine
 10
175.8538192837
 20
97.8650054171
 30
0.0
 11
177.3538192837
 21
97.8650054171
 31
0.0
  0
SPLINE
  5
12A
330
1F
100
AcDbEntity
  8
0
  6
HIDDEN
 62
     7
370
     0
100
AcDbSpline
210
0.0
220
0.0
230
1.0
 70
     8
 71
     3
 72
     9
 73
     5
 74
     0
 42
0.00000001
 43
0.00000001
 40
0.0
 40
0.0
 40
0.0
 40
0.0
 40
0.9127674511737165
 40
1.0
 40
1.0
 40
1.0
 40
1.0
 10
175.9271538355953
 20
98.79156723494694
 30
0.0
 10
175.8838428139479
 20
98.80807608629698
 30
0.0
 10
175.8363925881629
 20
98.82616267705875
 30
0.0
 10
175.8575601181964
 20
98.8185002045286
 30
0.0
 10
175.8594066157935
 20
98.8178317875195
 30
0.0
  0
SPLINE
  5
12B
330
1F
100
AcDbEntity
  8
0
  6
HIDDEN
 62
     7
370
     0
100
AcDbSpline
210
0.0
220
0.0
230
1.0
 70
     8
 71
     3
 72
    17
 73
    13
 74
     0
 42
0.00000001
 43
0.00000001
 40
0.0
 40
0.0
 40
0.0
 40
0.0
 40
0.1236628338233933
 40
0.2464323737451684
 40
0.3531987520651113
 40
0.4234332315584992
 40
0.4941244379417753
 40
0.5801597051227688
 40
0.7140608633124378
 40
0.8512841765221671
 40
0.9473213221325325
 40
0.9999999999999999
 40
0.9999999999999999
 40
0.9999999999999999
 40
0.9999999999999999
 10
175.9271538355953
 20
98.79156723494695
 30
0.0
 10
175.9808018750559
 20
98.86028653189156
 30
0.0
 10
176.0877104206738
 20
98.9972287233696
 30
0.0
 10
176.302688240323
 20
99.30634384691852
 30
0.0
 10
176.4652476187268
 20
99.6157869024466
 30
0.0
 10
176.5367223117742
 20
99.91493832218526
 30
0.0
 10
176.5105004714817
 20
100.2001977571841
 30
0.0
 10
176.3729787747299
 20
100.5225017477691
 30
0.0
 10
176.1493137664542
 20
100.8447518412382
 30
0.0
 10
175.9557093099898
 20
101.0826610528021
 30
0.0
 10
175.8582733275922
 20
101.1963689776414
 30
0.0
 10
175.8627574294164
 20
101.1911324981305
 30
0.0
 10
175.8643458048159
 20
101.1892776126794
 30
0.0
  0
LINE
  5
12C
330
1F
100
AcDbEntity
  8
0
  6
HIDDEN
 62
     7
370
     0
100
AcDbLine
 10
175.8324992094
 20
115.5293224891
 30
0.0
 11
175.9271538356
 21
117.9384435993
 31
0.0
  0
LINE
  5
12D
330
1F
100
AcDbEntity
  8
0
  6
HIDDEN
 62
     7
370
     0
100
AcDbLine
 10
175.8324992094
 20
101.2006883451
 30
0.0
 11
175.9271538356
 21
98.7915672349
 31
0.0
  0
LWPOLYLINE
  5
12E
330
1F
100
AcDbEntity
  8
0
  6
HIDDEN
 62
     7
370
     0
100
AcDbPolyline
 90
       32
 70
   128
 43
0.0
 10
135.8538192837
 20
153.6777112689
 10
136.8603118842
 20
153.6460832888
 10
137.8255985593
 20
153.5524942015
 10
138.7101603592
 20
153.4007755555
 10
139.4777832199
 20
153.1971387298
 10
140.0970405712
 20
152.94992064
 10
140.5425799445
 20
152.6692424238
 10
140.7961609054
 20
152.3665950804
 10
140.8474018196
 20
152.0543690274
 10
140.6942048781
 20
151.7453468363
 10
140.3428419816
 20
151.4521799117
 10
139.8076979684
 20
151.1868705422
 10
139.1106816974
 20
150.9602805244
 10
138.2803290964
 20
150.7816864802
 10
137.3506348986
 20
150.6584000709
 10
136.3596608937
 20
150.5954686565
 10
135.3479776738
 20
150.5954686565
 10
134.3570036689
 20
150.6584000709
 10
133.4273094711
 20
150.7816864802
 10
132.5969568701
 20
150.9602805244
 10
131.8999405991
 20
151.1868705422
 10
131.3647965859
 20
151.4521799117
 10
131.0134336894
 20
151.7453468363
 10
130.8602367479
 20
152.0543690274
 10
130.9114776621
 20
152.3665950804
 10
131.165058623
 20
152.6692424238
 10
131.6105979963
 20
152.94992064
 10
132.2298553476
 20
153.1971387298
 10
132.9974782083
 20
153.4007755555
 10
133.8820400082
 20
153.5524942015
 10
134.8473266833
 20
153.6460832888
 10
135.8538192837
 20
153.6777112689
  0
LINE
  5
12F
330
1F
100
AcDbEntity
  8
0
  6
HIDDEN
 62
     7
370
     0
100
AcDbLine
 10
150.1158483047
 20
147.315968178
 30
0.0
 11
150.1158483047
 21
139.7150054171
 31
0.0
  0
LINE
  5
130
330
1F
100
AcDbEntity
  8
0
  6
HIDDEN
 62
     7
370
     0
100
AcDbLine
 10
148.7638192837
 20
143.0792406096
 30
0.0
 11
148.7638192837
 21
139.7150054171
 31
0.0
  0
LINE
  5
131
330
1F
100
AcDbEntity
  8
0
  6
HIDDEN
 62
     7
370
     0
100
AcDbLine
 10
144.9438192837
 20
143.0792406096
 30
0.0
 11
144.9438192837
 21
139.7150054171
 31
0.0
  0
CIRCLE
  5
132
330
1F
100
AcDbEntity
  8
0
  6
HIDDEN
 62
     7
370
     0
100
AcDbCircle
 10
133.8538192837
 20
108.3650054171
 30
0.0
 40
5.0
  0
LINE
  5
133
330
1F
100
AcDbEntity
  8
0
  6
HIDDEN
 62
     7
370
     0
100
AcDbLine
 10
162.3538192837
 20
105.3650054171
 30
0.0
 11
174.8538192837
 21
105.3650054171
 31
0.0
  0
LINE
  5
134
330
1F
100
AcDbEntity
  8
0
  6
HIDDEN
 62
     7
370
     0
100
AcDbLine
 10
174.8538192837
 20
111.3650054171
 30
0.0
 11
162.3538192837
 21
111.3650054171
 31
0.0
  0
LINE
  5
135
330
1F
100
AcDbEntity
  8
0
  6
HIDDEN
 62
     7
370
     0
100
AcDbLine
 10
174.8538192837
 20
105.3650054171
 30
0.0
 11
175.3538192837
 21
105.8650054171
 31
0.0
  0
LINE
  5
136
330
1F
100
AcDbEntity
  8
0
  6
HIDDEN
 62
     7
370
     0
100
AcDbLine
 10
175.3538192837
 20
110.8650054171
 30
0.0
 11
174.8538192837
 21
111.3650054171
 31
0.0
  0
LINE
  5
137
330
1F
100
AcDbEntity
  8
0
  6
HIDDEN
 62
     7
370
     0
100
AcDbLine
 10
162.3538192837
 20
111.3650054171
 30
0.0
 11
161.8538192837
 21
110.8650054171
 31
0.0
  0
LINE
  5
138
330
1F
100
AcDbEntity
  8
0
  6
HIDDEN
 62
     7
370
     0
100
AcDbLine
 10
161.8538192837
 20
105.8650054171
 30
0.0
 11
162.3538192837
 21
105.3650054171
 31
0.0
  0
LINE
  5
139
330
1F
100
AcDbEntity
  8
0
  6
HIDDEN
 62
     7
370
     0
100
AcDbLine
 10
175.3538192837
 20
105.8650054171
 30
0.0
 11
177.8538192837
 21
105.8650054171
 31
0.0
  0
LINE
  5
13A
330
1F
100
AcDbEntity
  8
0
  6
HIDDEN
 62
     7
370
     0
100
AcDbLine
 10
177.8538192837
 20
110.8650054171
 30
0.0
 11
175.3538192837
 21
110.8650054171
 31
0.0
  0
LINE
  5
13B
330
1F
100
AcDbEntity
  8
0
  6
HIDDEN
 62
     7
370
     0
100
AcDbLine
 10
166.3538192837
 20
106.8650054171
 30
0.0
 11
173.3538192837
 21
106.8650054171
 31
0.0
  0
LINE
  5
13C
330
1F
100
AcDbEntity
  8
0
  6
HIDDEN
 62
     7
370
     0
100
AcDbLine
 10
173.3538192837
 20
109.8650054171
 30
0.0
 11
166.3538192837
 21
109.8650054171
 31
0.0
  0
LINE
  5
13D
330
1F
100
AcDbEntity
  8
0
  6
HIDDEN
 62
     7
370
     0
100
AcDbLine
 10
206.3286147226
 20
102.6490768766
 30
0.0
 11
205.8486301124
 21
102.1298324506
 31
0.0
  0
LINE
  5
13E
330
1F
100
AcDbEntity
  8
0
  6
HIDDEN
 62
     7
370
     0
100
AcDbLine
 10
205.9271497439
 20
100.1313743781
 30
0.0
 11
206.4463941699
 21
99.6513897679
 31
0.0
  0
LINE
  5
13F
330
1F
100
AcDbEntity
  8
0
  6
HIDDEN
 62
     7
370
     0
100
AcDbLine
 10
211.6625525265
 20
102.8586478637
 30
0.0
 11
206.3286147226
 21
102.6490768766
 31
0.0
  0
LINE
  5
140
330
1F
100
AcDbEntity
  8
0
  6
HIDDEN
 62
     7
370
     0
100
AcDbLine
 10
206.4463941699
 20
99.6513897679
 30
0.0
 11
211.7803319738
 21
99.8609607549
 31
0.0
  0
LINE
  5
141
330
1F
100
AcDbEntity
  8
0
  6
HIDDEN
 62
     7
370
     0
100
AcDbLine
 10
211.7803319738
 20
99.8609607549
 30
0.0
 11
211.8538192837
 21
100.0006371568
 31
0.0
  0
LINE
  5
142
330
1F
100
AcDbEntity
  8
0
  6
HIDDEN
 62
     7
370
     0
100
AcDbLine
 10
211.8353868002
 20
102.5847221186
 30
0.0
 11
211.6625525265
 21
102.8586478637
 31
0.0
  0
LINE
  5
143
330
1F
100
AcDbEntity
  8
0
  6
HIDDEN
 62
     7
370
     0
100
AcDbLine
 10
211.7214422501
 20
116.8713638628
 30
0.0
 11
206.3875044462
 21
117.0809348499
 31
0.0
  0
LINE
  5
144
330
1F
100
AcDbEntity
  8
0
  6
HIDDEN
 62
     7
370
     0
100
AcDbLine
 10
206.269724999
 20
114.0832477412
 30
0.0
 11
211.6036628029
 21
113.8736767541
 31
0.0
  0
LINE
  5
145
330
1F
100
AcDbEntity
  8
0
  6
HIDDEN
 62
     7
370
     0
100
AcDbLine
 10
211.6036628029
 20
113.8736767541
 30
0.0
 11
211.7764970766
 21
114.1476024992
 31
0.0
  0
LINE
  5
146
330
1F
100
AcDbEntity
  8
0
  6
HIDDEN
 62
     7
370
     0
100
AcDbLine
 10
211.8538192837
 20
116.6197565071
 30
0.0
 11
211.7214422501
 21
116.8713638628
 31
0.0
  0
LINE
  5
147
330
1F
100
AcDbEntity
  8
0
  6
HIDDEN
 62
     7
370
     0
100
AcDbLine
 10
206.3875044462
 20
117.0809348499
 30
0.0
 11
205.8682600202
 21
116.6009502397
 31
0.0
  0
LINE
  5
148
330
1F
100
AcDbEntity
  8
0
  6
HIDDEN
 62
     7
370
     0
100
AcDbLine
 10
205.7897403887
 20
114.6024921672
 30
0.0
 11
206.269724999
 21
114.0832477412
 31
0.0
  0
LINE
  5
149
330
1F
100
AcDbEntity
  8
0
  6
HIDDEN
 62
     7
370
     0
100
AcDbLine
 10
126.8538192837
 20
68.9603224605
 30
0.0
 11
126.9434209077
 21
69.5978711425
 31
0.0
  0
LINE
  5
14A
330
1F
100
AcDbEntity
  8
0
  6
HIDDEN
 62
     7
370
     0
100
AcDbLine
 10
126.9434209077
 20
147.1321396918
 30
0.0
 11
126.8538192837
 21
147.7696883737
 31
0.0
  0
ARC
  5
14B
330
1F
100
AcDbEntity
  8
0
  6
HIDDEN
 62
     7
370
     0
100
AcDbCircle
 10
125.9568823653
 20
69.7365200927
 30
0.0
 40
0.9962338214386822
100
AcDbArc
 50
352.0
 51
0.0
  0
ARC
  5
14C
330
1F
100
AcDbEntity
  8
0
  6
HIDDEN
 62
     7
370
     0
100
AcDbCircle
 10
125.9568823653
 20
69.7365200927
 30
0.0
 40
0.9962338214386854
100
AcDbArc
 50
0.0
 51
25.7988228126
  0
ARC
  5
14D
330
1F
100
AcDbEntity
  8
0
  6
HIDDEN
 62
     7
370
     0
100
AcDbCircle
 10
125.9568823653
 20
146.9934907416
 30
0.0
 40
0.9962338214386854
100
AcDbArc
 50
348.75
 51
8.0
  0
LWPOLYLINE
  5
14E
330
1F
100
AcDbEntity
  8
0
  6
HIDDEN
 62
     7
370
     0
100
AcDbPolyline
 90
        3
 70
   128
 43
0.0
 10
126.9339738332
 20
146.7991351645
 10
126.8772824025
 20
146.6122485633
 10
126.8538192837
 20
146.5599172284
  0
LINE
  5
14F
330
1F
100
AcDbEntity
  8
0
  6
HIDDEN
 62
     7
370
     0
100
AcDbLine
 10
126.9531161867
 20
69.7365200927
 30
0.0
 11
126.9531161867
 21
146.9934907416
 31
0.0
  0
ARC
  5
150
330
1F
100
AcDbEntity
  8
0
  6
HIDDEN
 62
     7
370
     0
100
AcDbCircle
 10
117.1070249389
 20
88.8650054171
 30
0.0
 40
12.0
100
AcDbArc
 50
273.5571483484
 51
324.3146652873
  0
ARC
  5
151
330
1F
100
AcDbEntity
  8
0
  6
HIDDEN
 62
     7
370
     0
100
AcDbCircle
 10
117.1070249389
 20
127.8650054171
 30
0.0
 40
12.00000000000002
100
AcDbArc
 50
35.6853347127
 51
86.4441286612
  0
ARC
  5
152
330
1F
100
AcDbEntity
  8
0
  6
HIDDEN
 62
     7
370
     0
100
AcDbCircle
 10
100.3145452259
 20
77.8650054171
 30
0.0
 40
1.000000000000008
100
AcDbArc
 50
210.0
 51
270.0
  0
ARC
  5
153
330
1F
100
AcDbEntity
  8
0
  6
HIDDEN
 62
     7
370
     0
100
AcDbCircle
 10
100.3145452259
 20
138.8650054171
 30
0.0
 40
1.000000000000008
100
AcDbArc
 50
90.0
 51
150.0
  0
LINE
  5
154
330
1F
100
AcDbEntity
  8
0
  6
HIDDEN
 62
     7
370
     0
100
AcDbLine
 10
100.3145452259
 20
76.8650054171
 30
0.0
 11
105.8589896577
 21
76.8650054171
 31
0.0
  0
LINE
  5
155
330
1F
100
AcDbEntity
  8
0
  6
HIDDEN
 62
     7
370
     0
100
AcDbLine
 10
105.8589896577
 20
139.8650054171
 30
0.0
 11
100.3145452259
 21
139.8650054171
 31
0.0
  0
LINE
  5
156
330
1F
100
AcDbEntity
  8
0
  6
HIDDEN
 62
     7
370
     0
100
AcDbLine
 10
99.4485198221
 20
139.3650054171
 30
0.0
 11
96.8504436108
 21
134.8650054171
 31
0.0
  0
LINE
  5
157
330
1F
100
AcDbEntity
  8
0
  6
HIDDEN
 62
     7
370
     0
100
AcDbLine
 10
96.8504436108
 20
81.8650054171
 30
0.0
 11
99.4485198221
 21
77.3650054171
 31
0.0
  0
ARC
  5
158
330
1F
100
AcDbEntity
  8
0
  6
HIDDEN
 62
     7
370
     0
100
AcDbCircle
 10
137.3038192837
 20
83.4900054171
 30
0.0
 40
2.0
100
AcDbArc
 50
234.3409123039
 51
0.0
  0
ARC
  5
159
330
1F
100
AcDbEntity
  8
0
  6
HIDDEN
 62
     7
370
     0
100
AcDbCircle
 10
137.3038192837
 20
133.2400054171
 30
0.0
 40
2.000000000000003
100
AcDbArc
 50
0.0
 51
125.6590876961
  0
LINE
  5
15A
330
1F
100
AcDbEntity
  8
0
  6
HIDDEN
 62
     7
370
     0
100
AcDbLine
 10
92.0538192837
 20
81.8650054171
 30
0.0
 11
96.8504436108
 21
81.8650054171
 31
0.0
  0
LINE
  5
15B
330
1F
100
AcDbEntity
  8
0
  6
HIDDEN
 62
     7
370
     0
100
AcDbLine
 10
96.8504436108
 20
134.8650054171
 30
0.0
 11
87.0538192837
 21
134.8650054171
 31
0.0
  0
LINE
  5
15C
330
1F
100
AcDbEntity
  8
0
  6
HIDDEN
 62
     7
370
     0
100
AcDbLine
 10
126.8538192837
 20
81.8650054171
 30
0.0
 11
136.1378969021
 21
81.8650054171
 31
0.0
  0
LINE
  5
15D
330
1F
100
AcDbEntity
  8
0
  6
HIDDEN
 62
     7
370
     0
100
AcDbLine
 10
136.1378969021
 20
134.8650054171
 30
0.0
 11
126.8538192837
 21
134.8650054171
 31
0.0
  0
LINE
  5
15E
330
1F
100
AcDbEntity
  8
0
  6
HIDDEN
 62
     7
370
     0
100
AcDbLine
 10
130.8538192837
 20
154.0421682992
 30
0.0
 11
130.8538192837
 21
150.3424191958
 31
0.0
  0
LINE
  5
15F
330
1F
100
AcDbEntity
  8
0
  6
HIDDEN
 62
     7
370
     0
100
AcDbLine
 10
140.8538192837
 20
150.3424191958
 30
0.0
 11
140.8538192837
 21
154.04079635
 31
0.0
  0
LINE
  5
160
330
1F
100
AcDbEntity
  8
0
  6
HIDDEN
 62
     7
370
     0
100
AcDbLine
 10
151.1538192837
 20
95.3650054171
 30
0.0
 11
155.1538192837
 21
95.3650054171
 31
0.0
  0
LINE
  5
161
330
1F
100
AcDbEntity
  8
0
  6
HIDDEN
 62
     7
370
     0
100
AcDbLine
 10
155.1538192837
 20
121.3650054171
 30
0.0
 11
151.1538192837
 21
121.3650054171
 31
0.0
  0
LINE
  5
162
330
1F
100
AcDbEntity
  8
0
  6
HIDDEN
 62
     7
370
     0
100
AcDbLine
 10
139.3038192837
 20
96.3650054171
 30
0.0
 11
140.0538192837
 21
97.1150054171
 31
0.0
  0
LINE
  5
163
330
1F
100
AcDbEntity
  8
0
  6
HIDDEN
 62
     7
370
     0
100
AcDbLine
 10
140.0538192837
 20
119.6150054171
 30
0.0
 11
139.3038192837
 21
120.3650054171
 31
0.0
  0
LINE
  5
164
330
1F
100
AcDbEntity
  8
0
  6
HIDDEN
 62
     7
370
     0
100
AcDbLine
 10
140.0538192837
 20
97.1150054171
 30
0.0
 11
151.1538192837
 21
97.1150054171
 31
0.0
  0
LINE
  5
165
330
1F
100
AcDbEntity
  8
0
  6
HIDDEN
 62
     7
370
     0
100
AcDbLine
 10
151.1538192837
 20
119.6150054171
 30
0.0
 11
140.0538192837
 21
119.6150054171
 31
0.0
  0
LINE
  5
166
330
1F
100
AcDbEntity
  8
0
  6
HIDDEN
 62
     7
370
     0
100
AcDbLine
 10
131.8038192837
 20
158.3650054171
 30
0.0
 11
131.8038192837
 21
152.2650054171
 31
0.0
  0
LINE
  5
167
330
1F
100
AcDbEntity
  8
0
  6
HIDDEN
 62
     7
370
     0
100
AcDbLine
 10
118.2865318998
 20
70.7867258465
 30
0.0
 11
117.8538226133
 21
71.2649505639
 31
0.0
  0
LINE
  5
168
330
1F
100
AcDbEntity
  8
0
  6
HIDDEN
 62
     7
370
     0
100
AcDbLine
 10
105.8538197418
 20
71.9119119206
 30
0.0
 11
105.3731924366
 21
71.4336872098
 31
0.0
  0
LINE
  5
169
330
1F
100
AcDbEntity
  8
0
  6
HIDDEN
 62
     7
370
     0
100
AcDbLine
 10
105.3730740951
 20
145.2963177084
 30
0.0
 11
105.8538195591
 21
144.8180380365
 31
0.0
  0
LINE
  5
16A
330
1F
100
AcDbEntity
  8
0
  6
HIDDEN
 62
     7
370
     0
100
AcDbLine
 10
117.8538192859
 20
145.4650104238
 30
0.0
 11
118.2866409556
 21
145.9432900967
 31
0.0
  0
LINE
  5
16B
330
1F
100
AcDbEntity
  8
0
  6
HIDDEN
 62
     7
370
     0
100
AcDbLine
 10
117.8538192837
 20
139.8415670595
 30
0.0
 11
117.8538192837
 21
145.4648584219
 31
0.0
  0
LINE
  5
16C
330
1F
100
AcDbEntity
  8
0
  6
HIDDEN
 62
     7
370
     0
100
AcDbLine
 10
105.8538192837
 20
144.8180275372
 30
0.0
 11
105.8538192837
 21
139.8640212178
 31
0.0
  0
LINE
  5
16D
330
1F
100
AcDbEntity
  8
0
  6
HIDDEN
 62
     7
370
     0
100
AcDbLine
 10
117.8538192837
 20
71.2650696331
 30
0.0
 11
117.8538192837
 21
76.8884437748
 31
0.0
  0
LINE
  5
16E
330
1F
100
AcDbEntity
  8
0
  6
HIDDEN
 62
     7
370
     0
100
AcDbLine
 10
105.8538192837
 20
76.8659896165
 30
0.0
 11
105.8538192837
 21
71.9119503351
 31
0.0
  0
ARC
  5
16F
330
1F
100
AcDbEntity
  8
0
  6
HIDDEN
 62
     7
370
     0
100
AcDbCircle
 10
211.3538192837
 20
103.328311169
 30
0.0
 40
0.5
100
AcDbArc
 50
360.0
 51
80.0
  0
ARC
  5
170
330
1F
100
AcDbEntity
  8
0
  6
HIDDEN
 62
     7
370
     0
100
AcDbCircle
 10
211.3538192837
 20
113.4016996652
 30
0.0
 40
0.5
100
AcDbArc
 50
280.0
 51
0.0
  0
LINE
  5
171
330
1F
100
AcDbEntity
  8
0
  6
HIDDEN
 62
     7
370
     0
100
AcDbLine
 10
211.4406433726
 20
112.9092957887
 30
0.0
 11
208.3538192837
 21
112.3650054171
 31
0.0
  0
LINE
  5
172
330
1F
100
AcDbEntity
  8
0
  6
HIDDEN
 62
     7
370
     0
100
AcDbLine
 10
208.3538192837
 20
104.3650054171
 30
0.0
 11
211.4406433726
 21
103.8207150456
 31
0.0
  0
LINE
  5
173
330
1F
100
AcDbEntity
  8
0
  6
HIDDEN
 62
     7
370
     0
100
AcDbLine
 10
178.8538192837
 20
104.0650054171
 30
0.0
 11
184.9590452656
 21
104.0650054171
 31
0.0
  0
LINE
  5
174
330
1F
100
AcDbEntity
  8
0
  6
HIDDEN
 62
     7
370
     0
100
AcDbLine
 10
175.7538192837
 20
104.0650054171
 30
0.0
 11
175.8540873601
 21
104.0650054171
 31
0.0
  0
LINE
  5
175
330
1F
100
AcDbEntity
  8
0
  6
HIDDEN
 62
     7
370
     0
100
AcDbLine
 10
175.854207621
 20
112.6650054171
 30
0.0
 11
175.7538192837
 21
112.6650054171
 31
0.0
  0
LINE
  5
176
330
1F
100
AcDbEntity
  8
0
  6
HIDDEN
 62
     7
370
     0
100
AcDbLine
 10
184.9590452656
 20
112.6650054171
 30
0.0
 11
178.8535421785
 21
112.6650054171
 31
0.0
  0
ARC
  5
177
330
1F
100
AcDbEntity
  8
0
  6
HIDDEN
 62
     7
370
     0
100
AcDbCircle
 10
175.7538192837
 20
104.4650054171
 30
0.0
 40
0.4000000000000057
100
AcDbArc
 50
180.0
 51
270.0
  0
ARC
  5
178
330
1F
100
AcDbEntity
  8
0
  6
HIDDEN
 62
     7
370
     0
100
AcDbCircle
 10
175.7538192837
 20
112.2650054171
 30
0.0
 40
0.3999999999999915
100
AcDbArc
 50
90.0
 51
180.0
  0
ARC
  5
179
330
1F
100
AcDbEntity
  8
0
  6
HIDDEN
 62
     7
370
     0
100
AcDbCircle
 10
184.9590452656
 20
104.4650054171
 30
0.0
 40
0.4000000000000057
100
AcDbArc
 50
270.0
 51
290.0
  0
ARC
  5
17A
330
1F
100
AcDbEntity
  8
0
  6
HIDDEN
 62
     7
370
     0
100
AcDbCircle
 10
184.9590452656
 20
112.2650054171
 30
0.0
 40
0.3999999999999977
100
AcDbArc
 50
70.0
 51
90.0
  0
LINE
  5
17B
330
1F
100
AcDbEntity
  8
0
  6
HIDDEN
 62
     7
370
     0
100
AcDbLine
 10
185.095853323
 20
104.0891283688
 30
0.0
 11
185.8538192837
 21
104.3650054171
 31
0.0
  0
LINE
  5
17C
330
1F
100
AcDbEntity
  8
0
  6
HIDDEN
 62
     7
370
     0
100
AcDbLine
 10
185.8538192837
 20
112.3650054171
 30
0.0
 11
185.095853323
 21
112.6408824654
 31
0.0
  0
LINE
  5
17D
330
1F
100
AcDbEntity
  8
0
  6
HIDDEN
 62
     7
370
     0
100
AcDbLine
 10
185.8538192837
 20
104.3650054171
 30
0.0
 11
208.3538192837
 21
104.3650054171
 31
0.0
  0
LINE
  5
17E
330
1F
100
AcDbEntity
  8
0
  6
HIDDEN
 62
     7
370
     0
100
AcDbLine
 10
208.3538192837
 20
112.3650054171
 30
0.0
 11
185.8538192837
 21
112.3650054171
 31
0.0
  0
LINE
  5
17F
330
1F
100
AcDbEntity
  8
0
  6
HIDDEN
 62
     7
370
     0
100
AcDbLine
 10
158.1538192837
 20
104.9650054171
 30
0.0
 11
158.6945938409
 21
105.8650054171
 31
0.0
  0
LINE
  5
180
330
1F
100
AcDbEntity
  8
0
  6
HIDDEN
 62
     7
370
     0
100
AcDbLine
 10
158.6945938409
 20
110.8650054171
 30
0.0
 11
158.1538192837
 21
111.7650054171
 31
0.0
  0
LINE
  5
181
330
1F
100
AcDbEntity
  8
0
  6
HIDDEN
 62
     7
370
     0
100
AcDbLine
 10
155.1538192837
 20
104.9650054171
 30
0.0
 11
158.1538192837
 21
104.9650054171
 31
0.0
  0
LINE
  5
182
330
1F
100
AcDbEntity
  8
0
  6
HIDDEN
 62
     7
370
     0
100
AcDbLine
 10
158.1538192837
 20
111.7650054171
 30
0.0
 11
155.1538192837
 21
111.7650054171
 31
0.0
  0
LINE
  5
183
330
1F
100
AcDbEntity
  8
0
  6
HIDDEN
 62
     7
370
     0
100
AcDbLine
 10
172.3038192837
 20
95.3650054171
 30
0.0
 11
171.3038192837
 21
95.9423556863
 31
0.0
  0
LINE
  5
184
330
1F
100
AcDbEntity
  8
0
  6
HIDDEN
 62
     7
370
     0
100
AcDbLine
 10
166.3038192837
 20
95.9423556863
 30
0.0
 11
165.3038192837
 21
95.3650054171
 31
0.0
  0
LINE
  5
185
330
1F
100
AcDbEntity
  8
0
  6
HIDDEN
 62
     7
370
     0
100
AcDbLine
 10
165.3038192837
 20
121.3650054171
 30
0.0
 11
166.3038192837
 21
120.7876551479
 31
0.0
  0
LINE
  5
186
330
1F
100
AcDbEntity
  8
0
  6
HIDDEN
 62
     7
370
     0
100
AcDbLine
 10
171.3038192837
 20
120.7876551479
 30
0.0
 11
172.3038192837
 21
121.3650054171
 31
0.0
  0
LINE
  5
187
330
1F
100
AcDbEntity
  8
0
  6
HIDDEN
 62
     7
370
     0
100
AcDbLine
 10
175.3538192837
 20
111.3650054171
 30
0.0
 11
174.8538192837
 21
110.8650054171
 31
0.0
  0
LINE
  5
188
330
1F
100
AcDbEntity
  8
0
  6
HIDDEN
 62
     7
370
     0
100
AcDbLine
 10
174.8538192837
 20
105.8650054171
 30
0.0
 11
175.3538192837
 21
105.3650054171
 31
0.0
  0
LINE
  5
189
330
1F
100
AcDbEntity
  8
0
  6
HIDDEN
 62
     7
370
     0
100
AcDbLine
 10
166.3038192837
 20
120.7876551479
 30
0.0
 11
166.3038192837
 21
113.3650054171
 31
0.0
  0
LINE
  5
18A
330
1F
100
AcDbEntity
  8
0
  6
HIDDEN
 62
     7
370
     0
100
AcDbLine
 10
171.3038192837
 20
113.3650054171
 30
0.0
 11
171.3038192837
 21
120.7876551479
 31
0.0
  0
LINE
  5
18B
330
1F
100
AcDbEntity
  8
0
  6
HIDDEN
 62
     7
370
     0
100
AcDbLine
 10
158.6945938409
 20
105.8650054171
 30
0.0
 11
174.8538192837
 21
105.8650054171
 31
0.0
  0
LINE
  5
18C
330
1F
100
AcDbEntity
  8
0
  6
HIDDEN
 62
     7
370
     0
100
AcDbLine
 10
174.8538192837
 20
110.8650054171
 30
0.0
 11
158.6945938409
 21
110.8650054171
 31
0.0
  0
LINE
  5
18D
330
1F
100
AcDbEntity
  8
0
  6
HIDDEN
 62
     7
370
     0
100
AcDbLine
 10
166.3038192837
 20
113.3650054171
 30
0.0
 11
168.8038192837
 21
111.8628538695
 31
0.0
  0
LINE
  5
18E
330
1F
100
AcDbEntity
  8
0
  6
HIDDEN
 62
     7
370
     0
100
AcDbLine
 10
168.8038192837
 20
111.8628538695
 30
0.0
 11
171.3038192837
 21
113.3650054171
 31
0.0
  0
LINE
  5
18F
330
1F
100
AcDbEntity
  8
0
  6
HIDDEN
 62
     7
370
     0
100
AcDbLine
 10
171.3038192837
 20
95.9423556863
 30
0.0
 11
171.3038192837
 21
103.3650054171
 31
0.0
  0
LINE
  5
190
330
1F
100
AcDbEntity
  8
0
  6
HIDDEN
 62
     7
370
     0
100
AcDbLine
 10
166.3038192837
 20
103.3650054171
 30
0.0
 11
166.3038192837
 21
95.9423556863
 31
0.0
  0
LINE
  5
191
330
1F
100
AcDbEntity
  8
0
  6
HIDDEN
 62
     7
370
     0
100
AcDbLine
 10
171.3038192837
 20
103.3650054171
 30
0.0
 11
168.8038192837
 21
104.8671569647
 31
0.0
  0
LINE
  5
192
330
1F
100
AcDbEntity
  8
0
  6
HIDDEN
 62
     7
370
     0
100
AcDbLine
 10
168.8038192837
 20
104.8671569647
 30
0.0
 11
166.3038192837
 21
103.3650054171
 31
0.0
  0
LINE
  5
193
330
1F
100
AcDbEntity
  8
0
  6
HIDDEN
 62
     7
370
     0
100
AcDbLine
 10
175.8538192837
 20
115.5297231405
 30
0.0
 11
175.8538192837
 21
112.6648714146
 31
0.0
  0
LINE
  5
194
330
1F
100
AcDbEntity
  8
0
  6
HIDDEN
 62
     7
370
     0
100
AcDbLine
 10
175.8538192837
 20
119.0650054171
 30
0.0
 11
175.8538192837
 21
117.9109394329
 31
0.0
  0
LINE
  5
195
330
1F
100
AcDbEntity
  8
0
  6
HIDDEN
 62
     7
370
     0
100
AcDbLine
 10
178.8538192837
 20
117.9108666326
 30
0.0
 11
178.8538192837
 21
119.0650054171
 31
0.0
  0
LINE
  5
196
330
1F
100
AcDbEntity
  8
0
  6
HIDDEN
 62
     7
370
     0
100
AcDbLine
 10
178.8538192837
 20
112.6649098789
 30
0.0
 11
178.8538192837
 21
115.4106145001
 31
0.0
  0
LINE
  5
197
330
1F
100
AcDbEntity
  8
0
  6
HIDDEN
 62
     7
370
     0
100
AcDbLine
 10
175.8538192837
 20
98.8178317875
 30
0.0
 11
175.8538192837
 21
97.8650054171
 31
0.0
  0
LINE
  5
198
330
1F
100
AcDbEntity
  8
0
  6
HIDDEN
 62
     7
370
     0
100
AcDbLine
 10
175.8538192837
 20
104.0650978367
 30
0.0
 11
175.8538192837
 21
101.1892776127
 31
0.0
  0
LINE
  5
199
330
1F
100
AcDbEntity
  8
0
  6
HIDDEN
 62
     7
370
     0
100
AcDbLine
 10
178.8538192837
 20
101.3193963341
 30
0.0
 11
178.8538192837
 21
104.0650054171
 31
0.0
  0
LINE
  5
19A
330
1F
100
AcDbEntity
  8
0
  6
HIDDEN
 62
     7
370
     0
100
AcDbLine
 10
178.8538192837
 20
97.8650054171
 30
0.0
 11
178.8538192837
 21
98.8212242154
 31
0.0
  0
LINE
  5
19B
330
1F
100
AcDbEntity
  8
0
  6
HIDDEN
 62
     7
370
     0
100
AcDbLine
 10
175.8538192837
 20
97.8650054171
 30
0.0
 11
177.3538192837
 21
96.9637144886
 31
0.0
  0
LINE
  5
19C
330
1F
100
AcDbEntity
  8
0
  6
HIDDEN
 62
     7
370
     0
100
AcDbLine
 10
177.3538192837
 20
96.9637144886
 30
0.0
 11
178.8538192837
 21
97.8650054171
 31
0.0
  0
LINE
  5
19D
330
1F
100
AcDbEntity
  8
0
  6
HIDDEN
 62
     7
370
     0
100
AcDbLine
 10
178.850764587
 20
98.8173474183
 30
0.0
 11
211.8538192837
 21
100.1140409689
 31
0.0
  0
LINE
  5
19E
330
1F
100
AcDbEntity
  8
0
  6
HIDDEN
 62
     7
370
     0
100
AcDbLine
 10
211.8538192837
 20
102.6159698654
 30
0.0
 11
178.8538192837
 21
101.3193963341
 31
0.0
  0
LINE
  5
19F
330
1F
100
AcDbEntity
  8
0
  6
HIDDEN
 62
     7
370
     0
100
AcDbLine
 10
178.8538192837
 20
115.4106145001
 30
0.0
 11
211.8538192837
 21
114.1140409689
 31
0.0
  0
LINE
  5
1A0
330
1F
100
AcDbEntity
  8
0
  6
HIDDEN
 62
     7
370
     0
100
AcDbLine
 10
211.8538192837
 20
116.6159698654
 30
0.0
 11
178.8524457985
 21
117.912597361
 31
0.0
  0
LINE
  5
1A1
330
1F
100
AcDbEntity
  8
0
  6
HIDDEN
 62
     7
370
     0
100
AcDbLine
 10
175.8549057895
 20
117.9118678676
 30
0.0
 11
175.1310772575
 21
116.8078458809
 31
0.0
  0
LINE
  5
1A2
330
1F
100
AcDbEntity
  8
0
  6
HIDDEN
 62
     7
370
     0
100
AcDbLine
 10
175.1310772575
 20
116.8078458809
 30
0.0
 11
175.8324992094
 21
115.5293224891
 31
0.0
  0
LINE
  5
1A3
330
1F
100
AcDbEntity
  8
0
  6
HIDDEN
 62
     7
370
     0
100
AcDbLine
 10
175.8324992094
 20
101.2006883451
 30
0.0
 11
175.1310772575
 21
99.9221649533
 31
0.0
  0
LINE
  5
1A4
330
1F
100
AcDbEntity
  8
0
  6
HIDDEN
 62
     7
370
     0
100
AcDbLine
 10
175.1310772575
 20
99.9221649533
 30
0.0
 11
175.8564247586
 21
98.8158261538
 31
0.0
  0
LINE
  5
1A5
330
1F
100
AcDbEntity
  8
0
  6
HIDDEN
 62
     7
370
     0
100
AcDbLine
 10
130.8538192837
 20
155.9177167151
 30
0.0
 11
130.8538192837
 21
154.0421682992
 31
0.0
  0
LINE
  5
1A6
330
1F
100
AcDbEntity
  8
0
  6
HIDDEN
 62
     7
370
     0
100
AcDbLine
 10
140.8538192837
 20
154.04079635
 30
0.0
 11
140.8538192837
 21
155.9162884323
 31
0.0
  0
DIMENSION
  5
1A7
330
1F
100
AcDbEntity
  8
VERMASSUNG
100
AcDbDimension
  2
*D1
 10
71.452979415
 20
58.3650054171
 30
0.0
 11
71.452979415
 21
108.3650054171
 31
0.0
 70
   160
  1
HSK A %%c<>
 71
     2
 42
-1.0
  3
SLDDIMSTYLE0
100
AcDbAlignedDimension
 13
127.3538192837
 23
158.3650054171
 33
0.0
 14
127.3538192837
 24
58.3650054171
 34
0.0
 50
90.0
100
AcDbRotatedDimension
  0
DIMENSION
  5
1B4
330
1F
100
AcDbEntity
  8
VERMASSUNG
100
AcDbDimension
  2
*D2
 10
211.8538192837
 20
156.3650054171
 30
0.0
 11
193.6038192837
 21
156.3650054171
 31
0.0
 70
   160
 71
     2
 42
-1.0
  3
SLDDIMSTYLE1
100
AcDbAlignedDimension
 13
175.3538192837
 23
112.2650054171
 33
0.0
 14
211.8538192837
 24
117.0162244338
 34
0.0
100
AcDbRotatedDimension
  0
DIMENSION
  5
1BF
330
1F
100
AcDbEntity
  8
VERMASSUNG
100
AcDbDimension
  2
*D3
 10
219.281148429
 20
112.3650054171
 30
0.0
 11
219.281148429
 21
108.3650054171
 31
0.0
 70
   160
  1
%%c<> 
 71
     2
 42
-1.0
  3
SLDDIMSTYLE2
100
AcDbAlignedDimension
 13
208.3538192837
 23
104.3650054171
 33
0.0
 14
208.3538192837
 24
112.3650054171
 34
0.0
 50
90.0
100
AcDbRotatedDimension
  0
DIMENSION
  5
1CC
330
1F
100
AcDbEntity
  8
VERMASSUNG
100
AcDbDimension
  2
*D4
 10
225.281148429
 20
118.8650054171
 30
0.0
 11
225.281148429
 21
108.3650054171
 31
0.0
 70
   160
  1
%%c<>
 71
     2
 42
-1.0
  3
SLDDIMSTYLE3
100
AcDbAlignedDimension
 13
211.8538192837
 23
97.8650054171
 33
0.0
 14
211.8538192837
 24
118.8650054171
 34
0.0
 50
90.0
100
AcDbRotatedDimension
  0
DIMENSION
  5
1D8
330
1F
100
AcDbEntity
  8
VERMASSUNG
100
AcDbDimension
  2
*D5
 10
211.8538192837
 20
168.3650054171
 30
0.0
 11
169.3538192837
 21
168.3650054171
 31
0.0
 70
   160
 71
     2
 42
-1.0
  3
SLDDIMSTYLE0
100
AcDbAlignedDimension
 13
126.8538192837
 23
157.8650054171
 33
0.0
 14
211.8538192837
 24
117.0162244338
 34
0.0
100
AcDbRotatedDimension
  0
DIMENSION
  5
1E2
330
1F
100
AcDbEntity
  8
VERMASSUNG
100
AcDbDimension
  2
*D6
 10
231.281148429
 20
95.3650054171
 30
0.0
 11
231.281148429
 21
108.3650054171
 31
0.0
 70
   160
  1
%%c<>
 71
     2
 42
-1.0
  3
SLDDIMSTYLE0
100
AcDbAlignedDimension
 13
180.0883074433
 23
121.3650054171
 33
0.0
 14
180.0883074433
 24
95.3650054171
 34
0.0
 50
90.0
100
AcDbRotatedDimension
  0
DIMENSION
  5
1ED
330
1F
100
AcDbEntity
  8
VERMASSUNG
100
AcDbDimension
  2
*D7
 10
211.8538192837
 20
162.3650054171
 30
0.0
 11
183.8288192837
 21
162.3650054171
 31
0.0
 70
   160
 71
     2
 42
-1.0
  3
SLDDIMSTYLE0
100
AcDbAlignedDimension
 13
155.8038192837
 23
156.333745238
 33
0.0
 14
211.8538192837
 24
117.0162244338
 34
0.0
100
AcDbRotatedDimension
  0
DIMENSION
  5
1F7
330
1F
100
AcDbEntity
  8
VERMASSUNG
100
AcDbDimension
  2
*D8
 10
211.8538192837
 20
174.3650054171
 30
0.0
 11
144.4038192837
 21
174.3650054171
 31
0.0
 70
   160
 71
     2
 42
-1.0
  3
SLDDIMSTYLE0
100
AcDbAlignedDimension
 13
76.9538192837
 23
138.8676751597
 33
0.0
 14
211.8538192837
 24
117.0162244338
 34
0.0
100
AcDbRotatedDimension
  0
LINE
  5
201
330
1F
100
AcDbEntity
  8
VERMASSUNG
  6
CENTERX2
370
     0
100
AcDbLine
 10
74.4698808234
 20
108.3650054171
 30
0.0
 11
213.8538192837
 21
108.3650054171
 31
0.0
  0
OLE2FRAME
  5
202
330
1F
100
AcDbEntity
  8
0
100
AcDbOle2Frame
 70
     2
  3
Bitmap Image
 10
13.8511154363
 20
38.264191557
 30
0.0
 11
51.6290888628
 21
31.9806341108
 31
0.0
 71
     2
 72
     0
 73
     1
 90
    12928
310
80552BED0767C5B32B40DDAF6807D121434000000000000000006FFBDDFB85D0
310
4940DDAF6807D121434000000000000000006FFBDDFB85D04940416F4BD60AFB
310
3F4000000000000000002BED0767C5B32B40416F4BD60AFB3F40000000000000
310
0000000000000100000000010000010000000100000000000100000000320000
310
D0CF11E0A1B11AE1000000000000000000000000000000003E000300FEFF0900
310
0600000000000000000000000100000001000000000000000010000002000000
310
01000000FEFFFFFF0000000000000000FFFFFFFFFFFFFFFFFFFFFFFFFFFFFFFF
310
FFFFFFFFFFFFFFFFFFFFFFFFFFFFFFFFFFFFFFFFFFFFFFFFFFFFFFFFFFFFFFFF
310
FFFFFFFFFFFFFFFFFFFFFFFFFFFFFFFFFFFFFFFFFFFFFFFFFFFFFFFFFFFFFFFF
310
FFFFFFFFFFFFFFFFFFFFFFFFFFFFFFFFFFFFFFFFFFFFFFFFFFFFFFFFFFFFFFFF
310
FFFFFFFFFFFFFFFFFFFFFFFFFFFFFFFFFFFFFFFFFFFFFFFFFFFFFFFFFFFFFFFF
310
FFFFFFFFFFFFFFFFFFFFFFFFFFFFFFFFFFFFFFFFFFFFFFFFFFFFFFFFFFFFFFFF
310
FFFFFFFFFFFFFFFFFFFFFFFFFFFFFFFFFFFFFFFFFFFFFFFFFFFFFFFFFFFFFFFF
310
FFFFFFFFFFFFFFFFFFFFFFFFFFFFFFFFFFFFFFFFFFFFFFFFFFFFFFFFFFFFFFFF
310
FFFFFFFFFFFFFFFFFFFFFFFFFFFFFFFFFFFFFFFFFFFFFFFFFFFFFFFFFFFFFFFF
310
FFFFFFFFFFFFFFFFFFFFFFFFFFFFFFFFFFFFFFFFFFFFFFFFFFFFFFFFFFFFFFFF
310
FFFFFFFFFFFFFFFFFFFFFFFFFFFFFFFFFFFFFFFFFFFFFFFFFFFFFFFFFFFFFFFF
310
FFFFFFFFFFFFFFFFFFFFFFFFFFFFFFFFFFFFFFFFFFFFFFFFFFFFFFFFFFFFFFFF
310
FFFFFFFFFFFFFFFFFFFFFFFFFFFFFFFFFFFFFFFFFFFFFFFFFFFFFFFFFFFFFFFF
310
FFFFFFFFFFFFFFFFFFFFFFFFFFFFFFFFFFFFFFFFFFFFFFFFFFFFFFFFFFFFFFFF
310
FDFFFFFFFEFFFFFFFEFFFFFFFEFFFFFF05000000060000000700000008000000
310
090000000A0000000B0000000C0000000D0000000E0000000F00000010000000
310
11000000120000001300000014000000150000001600000017000000FEFFFFFF
310
FFFFFFFFFFFFFFFFFFFFFFFFFFFFFFFFFFFFFFFFFFFFFFFFFFFFFFFFFFFFFFFF
310
FFFFFFFFFFFFFFFFFFFFFFFFFFFFFFFFFFFFFFFFFFFFFFFFFFFFFFFFFFFFFFFF
310
FFFFFFFFFFFFFFFFFFFFFFFFFFFFFFFFFFFFFFFFFFFFFFFFFFFFFFFFFFFFFFFF
310
FFFFFFFFFFFFFFFFFFFFFFFFFFFFFFFFFFFFFFFFFFFFFFFFFFFFFFFFFFFFFFFF
310
FFFFFFFFFFFFFFFFFFFFFFFFFFFFFFFFFFFFFFFFFFFFFFFFFFFFFFFFFFFFFFFF
310
FFFFFFFFFFFFFFFFFFFFFFFFFFFFFFFFFFFFFFFFFFFFFFFFFFFFFFFFFFFFFFFF
310
FFFFFFFFFFFFFFFFFFFFFFFFFFFFFFFFFFFFFFFFFFFFFFFFFFFFFFFFFFFFFFFF
310
FFFFFFFFFFFFFFFFFFFFFFFFFFFFFFFFFFFFFFFFFFFFFFFFFFFFFFFFFFFFFFFF
310
FFFFFFFFFFFFFFFFFFFFFFFFFFFFFFFFFFFFFFFFFFFFFFFFFFFFFFFFFFFFFFFF
310
FFFFFFFFFFFFFFFFFFFFFFFFFFFFFFFFFFFFFFFFFFFFFFFFFFFFFFFFFFFFFFFF
310
FFFFFFFFFFFFFFFFFFFFFFFFFFFFFFFFFFFFFFFFFFFFFFFFFFFFFFFFFFFFFFFF
310
FFFFFFFFFFFFFFFFFFFFFFFFFFFFFFFFFFFFFFFFFFFFFFFFFFFFFFFFFFFFFFFF
310
FFFFFFFFFFFFFFFFFFFFFFFFFFFFFFFFFFFFFFFFFFFFFFFFFFFFFFFFFFFFFFFF
310
52006F006F007400200045006E00740072007900000000000000000000000000
310
0000000000000000000000000000000000000000000000000000000000000000
310
16000500FFFFFFFFFFFFFFFF020000000A00030000000000C000000000000046
310
00000000000000000000000020CFABF19005CC0103000000C000000000000000
310
01004F006C006500000000000000000000000000000000000000000000000000
310
0000000000000000000000000000000000000000000000000000000000000000
310
0A000200FFFFFFFFFFFFFFFFFFFFFFFF00000000000000000000000000000000
310
0000000000000000000000000000000000000000000000001400000000000000
310
010043006F006D0070004F0062006A0000000000000000000000000000000000
310
0000000000000000000000000000000000000000000000000000000000000000
310
120002010100000003000000FFFFFFFF00000000000000000000000000000000
310
0000000000000000000000000000000000000000010000004D00000000000000
310
01004F006C006500310030004E00610074006900760065000000000000000000
310
0000000000000000000000000000000000000000000000000000000000000000
310
1A000200FFFFFFFFFFFFFFFFFFFFFFFF00000000000000000000000000000000
310
0000000000000000000000000000000000000000040000002426000000000000
310
FEFFFFFF02000000FEFFFFFFFFFFFFFFFFFFFFFFFFFFFFFFFFFFFFFFFFFFFFFF
310
FFFFFFFFFFFFFFFFFFFFFFFFFFFFFFFFFFFFFFFFFFFFFFFFFFFFFFFFFFFFFFFF
310
FFFFFFFFFFFFFFFFFFFFFFFFFFFFFFFFFFFFFFFFFFFFFFFFFFFFFFFFFFFFFFFF
310
FFFFFFFFFFFFFFFFFFFFFFFFFFFFFFFFFFFFFFFFFFFFFFFFFFFFFFFFFFFFFFFF
310
FFFFFFFFFFFFFFFFFFFFFFFFFFFFFFFFFFFFFFFFFFFFFFFFFFFFFFFFFFFFFFFF
310
FFFFFFFFFFFFFFFFFFFFFFFFFFFFFFFFFFFFFFFFFFFFFFFFFFFFFFFFFFFFFFFF
310
FFFFFFFFFFFFFFFFFFFFFFFFFFFFFFFFFFFFFFFFFFFFFFFFFFFFFFFFFFFFFFFF
310
FFFFFFFFFFFFFFFFFFFFFFFFFFFFFFFFFFFFFFFFFFFFFFFFFFFFFFFFFFFFFFFF
310
FFFFFFFFFFFFFFFFFFFFFFFFFFFFFFFFFFFFFFFFFFFFFFFFFFFFFFFFFFFFFFFF
310
FFFFFFFFFFFFFFFFFFFFFFFFFFFFFFFFFFFFFFFFFFFFFFFFFFFFFFFFFFFFFFFF
310
FFFFFFFFFFFFFFFFFFFFFFFFFFFFFFFFFFFFFFFFFFFFFFFFFFFFFFFFFFFFFFFF
310
FFFFFFFFFFFFFFFFFFFFFFFFFFFFFFFFFFFFFFFFFFFFFFFFFFFFFFFFFFFFFFFF
310
FFFFFFFFFFFFFFFFFFFFFFFFFFFFFFFFFFFFFFFFFFFFFFFFFFFFFFFFFFFFFFFF
310
FFFFFFFFFFFFFFFFFFFFFFFFFFFFFFFFFFFFFFFFFFFFFFFFFFFFFFFFFFFFFFFF
310
FFFFFFFFFFFFFFFFFFFFFFFFFFFFFFFFFFFFFFFFFFFFFFFFFFFFFFFFFFFFFFFF
310
FFFFFFFFFFFFFFFFFFFFFFFFFFFFFFFFFFFFFFFFFFFFFFFFFFFFFFFFFFFFFFFF
310
01000002000000000000000000000000000000006D007000530074006F007200
310
6100670065000000000000000000000000000000000000000000000000000000
310
0100FEFF030A0000FFFFFFFF0A00030000000000C00000000000004607000000
310
5042727573680007000000504272757368000700000050427275736800F439B2
310
7100000000000000000000000000650076006900650077007300000000000000
310
0000000000000000000000000000000000000000000000000000000000000000
310
1C000100FFFFFFFFFFFFFFFF1400000000000000000000000000000000000000
310
00000000B07B4F859005CC01B098F1C09005CC01000000000000000000000000
310
49006D0061006700650073000000000000000000000000000000000000000000
310
0000000000000000000000000000000000000000000000000000000000000000
310
0E000100FFFFFFFFFFFFFFFF1300000000000000000000000000000000000000
310
00000000B07B4F859005CC01B009F4C09005CC01000000000000000000000000
310
530068006500650074005F003000000000000000000000000000000000000000
310
0000000000000000000000000000000000000000000000000000000000000000
310
10000201FFFFFFFFFFFFFFFFFFFFFFFF00000000000000000000000000000000
310
0000000000000000000000000000000000000000900200002B37000000000000
310
20260000424D0E260000000000003E00000028000000B40200006E0000000100
310
01000000000000000000130B0000130B00000200000002000000000000FFFFFF
310
FFFFFFFFFFFFFFFFFFFFFFFFFFFFFFFFFFFFFFFFFFFFFFFFFFFFFFFFFFFFFFFF
310
FFFFFFFFFFFFFFFFFFFFFFFFFFFFFFFFFFFFFFFFFFFFFFFFFFFFFFFFFFFFFFFF
310
FFFFFFFFFFFFFFFFFFFFFFFFFFFFFFFFFFFFFFFFFFFFFFFFF000FFFFFFFFFFFF
310
FFFFFFFFFFFFFFFFFFFFFFFFFFFFFFFFFFFFFFFFFFFFFFFFFFFFFFFFFFFFFFFF
310
FFFFFFFFFFFFFFFFFFFFFFFFFFFFFFFFFFFFFFFFFFFFFFFFFFFFFFFFFFFFFFFF
310
FFFFFFFFFFFFFFFFFFFFFFFFFFFFFFFFF000FFFFFFFFFFFFFFFFFFFFFFFFFFFF
310
FFFFFFFFFFFFFFFFFFFFFFFFFFFFFFFFFFFFFFFFFFFFFFFFFFFFFFFFFFFFFFFF
310
FFFFFFFFFFFFFFFFFFFFFFFFFFFFFFFFFFFFFFFFFFFFFFFFFFFFFFFFFFFFFFFF
310
FFFFFFFFFFFFFFFFF000FFFFFFFFFFFFFFFFFFFFFFFFFFFFFFFFFFFFFFFFFFFF
310
FFFFFFFFFFFFFFFFFFFFFFFFFFFFFFFFFFFFFFFFFFFFFFFFFFFFFFFFFFFFFFFF
310
FFFFFFFFFFFFFFFFFFFFFFFFFFFFFFFFFFFFFFFFFFFFFFFFFFFFFFFFFFFFFFFF
310
F000FFFFFFFFFFFFFFFFFFFFFFFFFFFFFFFFFFFFFFFFFFFFFFFFFFFFFFFFFFFF
310
FFFFFFFFFFFFFFFFFFFFFFFFFFFFFFFFFFFFFFFFFFFFFFFFFFFFFFFFFFFFFFFF
310
FFFFFFFFFFFFFFFFFFFFFFFFFFFFFFFFFFFFFFFFFFFFFFFFF000FFFFFFFFFFFF
310
FFFFFFFFFFFFFFFFFFFFFFFFFFFFFFFFFFFFFFFFFFFFFFFFFFFFFFFFFFFFFFFF
310
FFFFFFFFFFFFFFFFFFFFFFFFFFFFFFFFFFFFFFFFFFFFFFFFFFFFFFFFFFFFFFFF
310
FFFFFFFFFFFFFFFFFFFFFFFFFFFFFFFFF000FFFFFFFFFFFFFFFFFFFFFFFFFFFF
310
FFFFFFFFFFFFFFFFFFFFFFFFFFFFFFFFFFFFFFFFFFFFFFFFFFFFFFFFFFFFFFFF
310
FFFFFFFFFFFFFFFFFFFFFFFFFFFFFFFFFFFFFFFFFFFFFFFFFFFFFFFFFFFFFFFF
310
FFFFFFFFFFFFFFFFF000FFFFFFFFFFFFFFFFFFFFFFFFFFFFFFFFFFFFFFFFFFFF
310
FFFFFFFFFFFFFFFFFFFFFFFFFFFFFFFFFFFFFFFFFFFFFFFFFFFFFFFFFFFFFFFF
310
FFFFFFFFFFFFFFFFFFFFFFFFFFFFFFFFFFFFFFFFFFFFFFFFFFFFFFFFFFFFFFFF
310
F000FFFFFFFFFFFFFFFFFFFFFFFFFFFFFFFFFFFFFFFFFFFFFFFFFFFFFFFFFFFF
310
FFFFFFFFFFFFFFFFFFFFFFFFFFFFFFFFFFFFFFFFFFFFFFFFFFFFFFFFFFFFFFFF
310
FFFFFFFFFFFFFFFFFFFFFFFFFFFFFFFFFFFFFFFFFFFFFFFFF000FFFFFFFFFFFF
310
FFFFFFFFFFFFFFFFFFFFFFFFFFFFFFFFFFFFFFFFFFFFFFFFFFFFFFFFFFFFFFFF
310
FFFFFFFFFFFFFFFFFFFFFFFFFFFFFFFFFFFFFFFFFFFFFFFFFFFFFFFFFFFFFFFF
310
FFFFFFFFFFFFFFFFFFFFFFFFFFFFFFFFF000FFFFFFFFFFFFFFFFFFFFFFFFFFFF
310
FFFFFFFFFFFFFFFFFFFFFFFFFFFFFFFFFFFFFFFFFFFFFFFFFFFFFFFFFFFFFFFF
310
FFFFFFFFFFFFFFFFFFFFFFFFFFFFFFFFFFFFFFFFFFFFFFFFFFFFFFFFFFFFFFFF
310
FFFFFFFFFFFFFFFFF000FFFFFFFFFFFFFFFFFFFFFFFFFFFFFFFFFFFFFFFFFFFF
310
FFFFFFFFFFFFFFFFFFFFFFFFFFFFFFFFFFFFFFFFFFFFFFFFFFFFFFFFFFFFFFFF
310
FFFFFFFFFFFFFFFFFFFFFFFFFFFFFFFFFFFFFFFFFFFFFFFFFFFFFFFFFFFFFFFF
310
F000FFFFFFFFFFFFFFFFFFFFFFFFFFFFFFFFFFFFFFFFFFFFFFFFFFFFFFFFFFFF
310
FFFFFFFFFFFFFFFFFFFFFFFFFFFFFFFFFFFFFFFFFFFFFFFFFFFFFFFFFFFFFFFF
310
FFFFFFFFFFFFFFFFFFFFFFFFFFFFFFFFFFFFFFFFFFFFFFFFF000FFFFFFFFFFFF
310
FFFFFFFFFFFFFFFFFFFFFFFFFFFFFFFFFFFFFFFFFFFFFFFFFFFFFFFFFFFFFFFF
310
FFFFFFFFFFFFFFFFFFFFFFFFFFFFFFFFFFFFFFFFFFFFFFFFFFFFFFFFFFFFFFFF
310
FFFFFFFFFFFFFFFFFFFFFFFFFFFFFFFFF000FFFFFFFFFFFFFFFFFFFFFFFFFFFF
310
FFFFFFFFFFFFFFFFFFFFFFFFFFFFFFFFFFFFFFFFFFFFFFFFFFFFFFFFFFFFFFFF
310
FFFFFFFFFFFFFFFFFFFFFFFFFFFFFFFFFFFFFFFFFFFFFFFFFFFFFFFFFFFFFFFF
310
FFFFFFFFFFFFFFFFF000FFFFFFFFFFFFFFFFFFFFFFFFFFFFFFFFFFFFFFFFFFFF
310
FFFFFFFFFFFFFFFFFFFFFFFFFFFFFFFFFFFFFFFFFFFFFFFFFFFFFFFFFFFFFFFF
310
FFFFFFFFFFFFFFFFFFFFFFFFFFFFFFFFFFFFFFFFFFFFFFFFFFFFFFFFFFFFFFFF
310
F000FFFFFFFFFFFFFFFFFFFFFFFFFFFFFFFFFFFFFFFFFFFFFFFFFFFFFFFFFFFF
310
FFFFFFFFFFFFFFFFFFFFFFFFFFFFFFFFFFFFFFFFFFFFFFFFFFFFFFFFFFFFFFFF
310
FFFFFFFFFFFFFFFFFFFFFFFFFFFFFFFFFFFFFFFFFFFFFFFFF000FFFFFFFFFFFF
310
FFFFFFFFFFFFFFFFFFFFFFFFFFFFFFFFFFFFFFFFFFFFFFFFFFFFFFFFFFFFFFFF
310
FFFFFFFFFFFFFFFFFFFFFFFFFFFFFFFFFFFFFFFFFFFFFFFFFFFFFFFFFFFFFFFF
310
FFFFFFFFFFFFFFFFFFFFFFFFFFFFFFFFF000FFFFFFFFFFFFFFFFFFFFFFFFFFFF
310
FFFFFFFFFFFFFFFFFFFFFFFFFFFFFFFFFFFFFFFFFFFFFFFFFFFFFFFFFFFFFFFF
310
FFFFFFFFFFFFFFFFFFFFFFFFFFFFFFFFFFFFFFFFFFFFFFFFFFFFFFFFFFFFFFFF
310
FFFFFFFFFFFFFFFFF000FFFFF80003FFFFFFFFFFFFFFFFFFFFFFFFFFFFFFFFFF
310
FFFFF00007FFFFFFFFFF00007FFFFFF800000000000000007FFFFFFFFFFFFFFF
310
FFFFFFFC001FFFFFFFFFFFFFFC001FFFFFFFFFFFFFFFFFFFFFFFFFFE0007FFFF
310
F000FFFF8000007FFFFFFFF8000FFFFFC0007FFFFF80007FFFFF0000007FFFFF
310
FFF8000007FFFFF800000000000000007FFFFFF0001FFFFFFFFFFFC00001FFFF
310
FFFFFFFFC00001FFFFFFFF000000000003FFFFE000007FFFF000FFFE0000000F
310
FFFFFFF0000FFFFF80007FFFFF80007FFFFC0000001FFFFFFFC0000001FFFFF8
310
00000000000000007FFFFFF0001FFFFFFFFFFE0000003FFFFFFFFFFE0000003F
310
FFFFFF000000000003FFFF0000000FFFF000FFF800000003FFFFFFF00007FFFF
310
80007FFFFF80007FFFF000000007FFFFFF000000003FFFF80000000000000000
310
7FFFFFF0001FFFFFFFFFF80000000FFFFFFFFFF80000000FFFFFFF0000000000
310
03FFFC00000003FFF000FFE000000000FFFFFFF00007FFFF80003FFFFF80007F
310
FFC000000001FFFFFC000000001FFFF800000000000000007FFFFFF0001FFFFF
310
FFFFE000000003FFFFFFFFE000000003FFFFFF000000000003FFF000000000FF
310
F000FF80000000007FFFFFF00007FFFF80003FFFFF80007FFF8000000000FFFF
310
F80000000007FFF800000000000000007FFFFFF0001FFFFFFFFFC000000001FF
310
FFFFFFC000000001FFFFFF000000000003FFC0000000007FF000FF0000000000
310
3FFFFFE00007FFFF00003FFFFF80007FFE00000000003FFFF00000000003FFF8
310
00000000000000007FFFFFF0001FFFFFFFFF8000000000FFFFFFFF8000000000
310
FFFFFF000000000003FF80000000003FF000FE00000000001FFFFFE00003FFFF
310
00003FFFFF80007FFC00000000001FFFE00000000001FFF8000001FFFE000000
310
7FFFFFF0001FFFFFFFFE00000000003FFFFFFE00000000003FFFFF0000000000
310
03FF00000000001FF000FC00000000000FFFFFE00003FFFF00001FFFFF80007F
310
F800000000001FFFC00000000000FFF8000001FFFE0000007FFFFFF0001FFFFF
310
FFFC00000000001FFFFFFC00000000001FFFFF000000000003FE00000000000F
310
F000F8000000000007FFFFE00003FFFF00001FFFFF80007FF800000000000FFF
310
800000000000FFF8000001FFFE0000007FFFFFF0001FFFFFFFF800000000000F
310
FFFFF800000000000FFFFF000000000003FC000000000007F000F80000000000
310
03FFFFC00003FFFE00001FFFFF80007FF0000000000007FF0000000000007FF8
310
000001FFFE0000007FFFFFF0001FFFFFFFF0000000000007FFFFF00000000000
310
07FFFF000000000003F8000000000003F000F0000000000003FFFFC00001FFFE
310
00001FFFFF80007FE0000000000007FE0000000000003FF8000001FFFE000000
310
7FFFFFF0001FFFFFFFF0000000000007FFFFF0000000000007FFFF0000000000
310
03F800001F800003F000E00001FFF00001FFFFC00001FFFE00000FFFFF80007F
310
E00001FFE00003FE00001FFF00003FF8000001FFFE0000007FFFFFF0001FFFFF
310
FFE000003E000003FFFFE000003E000003FFFF000000000003F00001FFF80001
310
F000E00007FFFC0001FFFFC00001FFFE00000FFFFF80007FC0000FFFFC0003FC
310
0000FFFFC0001FF8000001FFFE0000007FFFFFF0001FFFFFFFC00003FFE00001
310
FFFFC00003FFE00001FFFF0001FFFFFFFFF00007FFFE0001F000E0000FFFFF00
310
00FFFF800001FFFC00000FFFFF80007FC0001FFFFE0001FC0001FFFFE0001FF8
310
000001FFFE0000007FFFFFF0001FFFFFFF80000FFFF80000FFFF80000FFFF800
310
00FFFF0003FFFFFFFFE0000FFFFF8000F000C0003FFFFF8000FFFF800000FFFC
310
000007FFFF80007F80003FFFFF0001FC0003FFFFF0001FF8000001FFFE000000
310
7FFFFFF0001FFFFFFF80003FFFFE0000FFFF80003FFFFE0000FFFF0003FFFFFF
310
FFE0003FFFFF8000F000C0003FFFFF8000FFFF800000FFFC000007FFFF80007F
310
80007FFFFF8001F80007FFFFF8000FF8000001FFFE0000007FFFFFF0001FFFFF
310
FF00007FFFFF00007FFF00007FFFFF00007FFF0003FFFFFFFFE0003FFFFFC000
310
F000C0007FFFFFC000FFFF000000FFFC000007FFFF80007F8000FFFFFF8000F8
310
000FFFFFF8000FF8000001FFFE0000007FFFFFF0001FFFFFFF0000FFFFFF8000
310
7FFF0000FFFFFF80007FFF0003FFFFFFFFC0007FFFFFC00070008000FFFFFFC0
310
00FFFF000000FFF8000007FFFF80007F8000FFFFFF8000F8000FFFFFF8000FF8
310
000001FFFE0000007FFFFFF0001FFFFFFE0001FFFFFFC0003FFE0001FFFFFFC0
310
003FFF0003FFFFFFFFC0007FFFFFE00070008000FFFFFFC0007FFF0000007FF8
310
000003FFFF80007F0001FFFFFF8000F8000FFFFFF8000FF8000001FFFE000000
310
7FFFFFF0001FFFFFFE0001FFFFFFC0003FFE0001FFFFFFC0003FFF0003FFFFFF
310
FFC000FFFFFFE00070008000FFFFFFC0007FFF0000007FF8000003FFFF80007F
310
0001FFFFFF8000F8001FFFFFF8000FF8000001FFFE0000007FFFFFF0001FFFFF
310
FE0003FFFFFFE0003FFE0003FFFFFFE0003FFF0003FFFFFFFFC000FFFFFFE000
310
70008000FFFFFFC0007FFE0000007FF8000003FFFF80007F0001FFFFFF8000F0
310
001FFFFFF8000FF8000001FFFE0000007FFFFFF0001FFFFFFC0003FFFFFFE000
310
1FFC0003FFFFFFE0001FFF0003FFFFFFFFC000FFFFFFC00070008000FFFFFF80
310
007FFE0000007FF0000003FFFF80007F0001FFFFFF0000F0001FFFFFF8000FF8
310
000001FFFE0000007FFFFFF0001FFFFFFC0007FFFFFFF0001FFC0007FFFFFFF0
310
001FFF0003FFFFFFFFC000FFFFFFC00070008001FFFFFF0000FFFE0000003FF0
310
000001FFFF80007F0001FFFFFF0000F8001FFFFFF0000FF8000001FFFE000000
310
7FFFFFF0001FFFFFFC0007FFFFFFF0001FFC0007FFFFFFF0001FFF0003FFFFFF
310
FFC001FFFFFF80007000FFFFFFFFFE0000FFFE0008003FF0008001FFFF80007F
310
FFFFFFFFFC0000FFFFFFFFFFE0000FF8000001FFFE0000007FFFFFF0001FFFFF
310
F8000FFFFFFFF8000FF8000FFFFFFFF8000FFF0003FFFFFFFFFFFFFFFFFF0000
310
7000FFFFFFFFFC0000FFFC0008003FF0008001FFFF80007FFFFFFFFFF80001FF
310
FFFFFFFF80000FF8000001FFFE0000007FFFFFF0001FFFFFF8000FFFFFFFF800
310
0FF8000FFFFFFFF8000FFF0003FFFFFFFFFFFFFFFFFE0000F000FFFFFFFFE000
310
00FFFC000C003FE000C001FFFF80007FFFFFFFFFC00001FFFFFFFFFE00001FF8
310
000001FFFE0000007FFFFFF0001FFFFFF8000FFFFFFFF8000FF8000FFFFFFFF8
310
000FFF0003FFFFFFFFFFFFFFFFF00000F000FFFFFFFE000001FFFC000C001FE0
310
00C000FFFF80007FFFFFFFFE000001FFFFFFFFE000001FF80FFFFFFFFFFFFFC0
310
7FFFFFF0001FFFFFF8000FFFFFFFF8000FF8000FFFFFFFF8000FFF0003FFFFFF
310
FFFFFFFFFF800000F000FFFFFFC0000001FFFC001C001FE001C000FFFF80007F
310
FFFFFF80000003FFFFFFF80000001FF80FFFFFFFFFFFFFC07FFFFFF0001FFFFF
310
F8001FFFFFFFFC000FF8001FFFFFFFFC000FFF0003FFFFFFFFFFFFFFF0000001
310
F000FFFFF800000001FFF8001C001FE001C000FFFF80007FFFFFF800000003FF
310
FFFF800000003FF80FFFFFFFFFFFFFC07FFFFFF0001FFFFFF8001FFFFFFFFC00
310
0FF8001FFFFFFFFC000FFF0003FFFFFFFFFFFFFE00000001F000FFFFC0000000
310
03FFF8001E001FC001E000FFFF80007FFFFF8000000007FFFFFC000000003FF8
310
0FFFFFFFFFFFFFC07FFFFFF0001FFFFFF8001FFFFFFFFC000FF8001FFFFFFFFC
310
000FFF0003FFFFFFFFFFFFE000000003F000FFFE0000000007FFF8001E000FC0
310
01E0007FFF80007FFFFE0000000007FFFFE0000000007FF80FFFFFFFFFFFFFC0
310
7FFFFFF0001FFFFFF0001FFFFFFFFC0007F0001FFFFFFFFC0007FF0003FFFFFF
310
FFFFFF0000000003F000FFF80000000007FFF8001E000FC003E0007FFF80007F
310
FFF0000000000FFFFF8000000000FFF80FFFFFFFFFFFFFC07FFFFFF0001FFFFF
310
F0001FFFFFFFFC0007F0001FFFFFFFFC0007FF0003FFFFFFFFFFFC0000000007
310
F000FFE0000000000FFFF0003E000FC003E0007FFF80007FFFC0000000001FFF
310
FE0000000001FFF80FFFFFFFFFFFFFC07FFFFFF0001FFFFFF0001FFFFFFFFC00
310
07F0001FFFFFFFFC0007FF0003FFFFFFFFFFF0000000000FF000FFC000000000
310
1FFFF0003F000F8003F0003FFF80007FFF80000000003FFFF80000000003FFF8
310
0FFFFFFFFFFFFFC07FFFFFF0001FFFFFF0001FFFFFFFFC0007F0001FFFFFFFFC
310
0007FF0003FFFFFFFFFFE0000000001FF000FF00000000007FFFF0003F000780
310
03F0003FFF80007FFF00000000007FFFF00000000007FFF80FFFFFFFFFFFFFC0
310
7FFFFFF0001FFFFFF0001FFFFFFFFC0007F0001FFFFFFFFC0007FF0003FFFFFF
310
FFFF80000000007FF000FE0000000000FFFFE0003F00078007F0003FFF80007F
310
FE0000000001FFFFE0000000001FFFF80FFFFFFFFFFFFFC07FFFFFF0001FFFFF
310
F0001FFFFFFFFC0007F0001FFFFFFFFC0007FF0003FFFFFFFFFF0000000000FF
310
F000FC0000000003FFFFE0007F00078007F0003FFF80007FFC0000000007FFFF
310
C0000000007FFFF80FFFFFFFFFFFFFC07FFFFFF0001FFFFFF8001FFFFFFFFC00
310
0FF8001FFFFFFFFC000FFF0003FFFFFFFFFE0000000003FFF000FC000000000F
310
FFFFE0007F80070007F8001FFF80007FF8000000001FFFFF8000000001FFFFF8
310
0FFFFFFFFFFFFFC07FFFFFF0001FFFFFF8001FFFFFFFFC000FF8001FFFFFFFFC
310
000FFF0003FFFFFFFFFC000000000FFFF000F8000000007FFFFFE0007F800700
310
07F8001FFF80007FF000000000FFFFFF800000000FFFFFF80FFFFFFFFFFFFFC0
310
7FFFFFF0001FFFFFF8000FFFFFFFF8000FF8000FFFFFFFF8000FFF0003FFFFFF
310
FFFC000000007FFFF000F800000007FFFFFFC0007F8003000FF8001FFF80007F
310
F000000007FFFFFF000000007FFFFFF80FFFFFFFFFFFFFC07FFFFFF0001FFFFF
310
F8000FFFFFFFF8000FF8000FFFFFFFF8000FFF0003FFFFFFFFF80000000FFFFF
310
F000F0000000FFFFFFFFC000FF8003000FF8001FFF80007FE0000000FFFFFFFF
310
0000000FFFFFFFF8000001FFFE0000007FFFFFF0001FFFFFF8000FFFFFFFF800
310
0FF8000FFFFFFFF8000FFF0003FFFFFFFFF8000000FFFFFFF000F000000FFFFF
310
FFFFC000FFC002000FF8000FFF80007FE000001FFFFFFFFE000001FFFFFFFFF8
310
000001FFFE0000007FFFFFF0001FFFFFF8000FFFFFFFF8000FF8000FFFFFFFF8
310
000FFF0003FFFFFFFFF000001FFFFFFFF000E00000FFFFFFFFFFC000FFC00200
310
0FFC000FFF80007FE00001FFFFFFFFFE00001FFFFFFFFFF8000001FFFE000000
310
7FFFFFF0001FFFFFFC000FFFFFFFF8001FFC000FFFFFFFF8001FFF0003FFFFFF
310
FFF00001FFFFFFFFF000E00007FFFFFFFFFF8000FFC000001FFC000FFF80007F
310
C0000FFFFFFFFFFE0000FFFFFFFFFFF8000001FFFE0000007FFFFFF0001FFFFF
310
FC0007FFFFFFF0001FFC0007FFFFFFF0001FFF0003FFFFFFFFF00007FFFFFFFF
310
F000E0001FFFFFFFFFFF8000FFC000001FFC000FFF80007FC0003FFFFFFFFFFE
310
0001FFFFFFFFFFF8000001FFFE0000007FFFFFF0001FFFFFFC0007FFFFFFF000
310
1FFC0007FFFFFFF0001FFF0003FFFFFFFFF0001FFFFFFFFFF000E0003FFFFF00
310
03FF8001FFE000001FFC0007FF80007FC0007FFFFF0007FC0003FFFFF0003FF8
310
000001FFFE0000007FFFFFF0001FFFFFFC0003FFFFFFE0001FFC0003FFFFFFE0
310
001FFF0003FFFFFFFFF0003FFFFFFFFFF000E0003FFFFF0001FF8001FFE00000
310
1FFE0007FF80007FC0007FFFFE0003FC0007FFFFE0003FF8000001FFFE000000
310
7FFFFFF0001FFFFFFE0003FFFFFFE0003FFE0003FFFFFFE0003FFF0003FFFFFF
310
FFF0003FFFFF8001F000E0003FFFFF0001FF0001FFE000001FFE0007FF80007F
310
C0007FFFFE0003FC0007FFFFE0003FF8000001FFFE0000007FFFFFF0001FFFFF
310
FE0001FFFFFFC0003FFE0001FFFFFFC0003FFF0003FFFFFFFFF0003FFFFF0001
310
F000E0003FFFFF0003FF0001FFE000003FFE0007FF80007FC0007FFFFE0003FC
310
0007FFFFE0003FF8000001FFFE0000007FFFFFF0001FFFFFFF0001FFFFFFC000
310
7FFF0001FFFFFFC0007FFF0003FFFFFFFFF0003FFFFF0001F000E0003FFFFE00
310
03FF0003FFF000003FFE0003FF80007FC0007FFFFC0003FE0007FFFFE0003FF8
310
000001FFFE0000007FFFFFF0001FFFFFFF0000FFFFFF80007FFF0000FFFFFF80
310
007FFF0003FFFFFFFFF0003FFFFF0001F000E0003FFFFE0003FF0003FFF00000
310
3FFF0003FF80007FC0007FFFFC0007FE0007FFFFC0003FF8000001FFFE000000
310
7FFFFFF0001FFFFFFF80007FFFFF0000FFFF80007FFFFF0000FFFF0003FFFFFF
310
FFF0003FFFFF0003F000E0003FFFFC0003FE0003FFF000003FFF0003FF80007F
310
E0003FFFF80007FE0003FFFFC0007FF8000001FFFE0000007FFFFFF0001FFFFF
310
FF80003FFFFE0000FFFF80003FFFFE0000FFFF0003FFFFFFFFF0001FFFFE0003
310
F000F0001FFFF80003FE0003FFF000007FFF0001FF80007FE0003FFFF00007FE
310
0001FFFF80007FF8000001FFFE0000007FFFFFF0001FFFFFFFC0000FFFF80001
310
FFFFC0000FFFF80001FFFF0003FFFFFFFFF0001FFFFC0003F000F0000FFFF000
310
07FE0007FFF800007FFF0001FF80007FE0001FFFE00007FF0000FFFE00007FF8
310
000001FFFE0000007FFFFFF0001FFFFFFFC00003FFE00001FFFFC00003FFE000
310
01FFFF0003FFFFFFFFF8000FFFF80003F000F00003FFC00007FC0007FFF80000
310
7FFF8001FF80007FF00007FF80000FFF00007FF80000FFF8000001FFFE000000
310
7F80000000000001FFE000003E000003FFFFE000003E000003FFFF0003FFFFFF
310
FFF80003FFE00007F000F800000000000FFC0007FFF800007FFF8001FF80007F
310
F000000000000FFF000000000000FFF8000001FFFE0000007F80000000000001
310
FFF0000000000007FFFFF0000000000007FFFF0003FFFFFFFFFC00007E000007
310
F000F800000000000FFC0007FFF80000FFFF8000FF80007FF800000000001FFF
310
800000000001FFF8000001FFFE0000007F80000000000001FFF800000000000F
310
FFFFF800000000000FFFFF0003FFFFFFFFFC00000000000FF000FC0000000000
310
1FFC0007FFFC0000FFFF8000FF80007FF800000000003FFFC00000000001FFF8
310
000001FFFE0000007F80000000000001FFF800000000000FFFFFF80000000000
310
0FFFFF0003FFFFFFFFFE00000000001FF000FE00000000003FF8000FFFFC0000
310
FFFF8000FF80007FFC00000000003FFFC00000000003FFF8000001FFFE000000
310
7F80000000000001FFFC00000000001FFFFFFC00000000001FFFFF0003FFFFFF
310
FFFF00000000001FF000FF00000000003FF8000FFFFC0000FFFFC000FF80007F
310
FE00000000007FFFE00000000007FFF8000001FFFE0000007F80000000000001
310
FFFE00000000003FFFFFFE00000000003FFFFF0003FFFFFFFFFF80000000003F
310
F000FF80000000007FF8000FFFFC0001FFFFC0007F80007FFF0000000000FFFF
310
F0000000000FFFF800000000000000007F80000000000001FFFF8000000000FF
310
FFFFFF8000000000FFFFFF0003FFFFFFFFFFC0000000007FF000FFC000000000
310
FFF8000FFFFE0001FFFFC0007F80007FFF8000000001FFFFF8000000001FFFF8
310
00000000000000007F80000000000001FFFFC000000001FFFFFFFFC000000001
310
FFFFFF0003FFFFFFFFFFE000000000FFF000FFE000000003FFF0001FFFFE0001
310
FFFFC0007F80007FFFC000000007FFFFFE000000003FFFF80000000000000000
310
7F80000000000001FFFFE000000003FFFFFFFFE000000003FFFFFF0003FFFFFF
310
FFFFF000000003FFF000FFF80000000FFFF0001FFFFE0001FFFFE0007F80007F
310
FFF00000000FFFFFFF00000000FFFFF800000000000000007F80000000000001
310
FFFFF80000000FFFFFFFFFF80000000FFFFFFF0003FFFFFFFFFFFC0000000FFF
310
F000FFFE0000003FFFF0001FFFFE0003FFFFE0003F80007FFFFC0000003FFFFF
310
FFC0000003FFFFF800000000000000007F80000000000001FFFFFE0000003FFF
310
FFFFFFFE0000003FFFFFFF0003FFFFFFFFFFFF0000003FFFF000FFFF800000FF
310
FFF0001FFFFF0003FFFFE0003F80007FFFFF000001FFFFFFFFF800001FFFFFF8
310
00000000000000007F80000000000001FFFFFFC00001FFFFFFFFFFFFC00001FF
310
FFFFFF0003FFFFFFFFFFFFC00000FFFFF000FFFFF8000FFFFFFFFFFFFFFFFFFF
310
FFFFFFFFFFFFFFFFFFFFF0001FFFFFFFFFFF0000FFFFFFF80000000000000000
310
7FFFFFFFFFFFFFFFFFFFFFFC001FFFFFFFFFFFFFFC001FFFFFFFFFFFFFFFFFFF
310
FFFFFFFC001FFFFFF000FFFFFFFFFFFFFFFFFFFFFFFFFFFFFFFFFFFFFFFFFFFF
310
FFFFFFFFFFFFFFFFFFFFFFFFFFFFFFFFFFFFFFFFFFFFFFFFFFFFFFFFFFFFFFFF
310
FFFFFFFFFFFFFFFFFFFFFFFFFFFFFFFFFFFFFFFFFFFFFFFFFFFFFFFFFFFFFFFF
310
F000FFFFFFFFFFFFFFFFFFFFFFFFFFFFFFFFFFFFFFFFFFFFFFFFFFFFFFFFFFFF
310
FFFFFFFFFFFFFFFFFFFFFFFFFFFFFFFFFFFFFFFFFFFFFFFFFFFFFFFFFFFFFFFF
310
FFFFFFFFFFFFFFFFFFFFFFFFFFFFFFFFFFFFFFFFFFFFFFFFF000FFFFFFFFFFFF
310
FFFFFFFFFFFFFFFFFFFFFFFFFFFFFFFFFFFFFFFFFFFFFFFFFFFFFFFFFFFFFFFF
310
FFFFFFFFFFFFFFFFFFFFFFFFFFFFFFFFFFFFFFFFFFFFFFFFFFFFFFFFFFFFFFFF
310
FFFFFFFFFFFFFFFFFFFFFFFFFFFFFFFFF000FFFFFFFFFFFFFFFFFFFFFFFFFFFF
310
FFFFFFFFFFFFFFFFFFFFFFFFFFFFFFFFFFFFFFFFFFFFFFFFFFFFFFFFFFFFFFFF
310
FFFFFFFFFFFFFFFFFFFFFFFFFFFFFFFFFFFFFFFFFFFFFFFFFFFFFFFFFFFFFFFF
310
FFFFFFFFFFFFFFFFF000FFFFFFFFFFFFFFFFFFFFFFFFFFFFFFFFFFFFFFFFFFFF
310
FFFFFFFFFFFFFFFFFFFFFFFFFFFFFFFFFFFFFFFFFFFFFFFFFFFFFFFFFFFFFFFF
310
FFFFFFFFFFFFFFFFFFFFFFFFFFFFFFFFFFFFFFFFFFFFFFFFFFFFFFFFFFFFFFFF
310
F000FFFFFFFFFFFFFFFFFFFFFFFFFFFFFFFFFFFFFFFFFFFFFFFFFFFFFFFFFFFF
310
FFFFFFFFFFFFFFFFFFFFFFFFFFFFFFFFFFFFFFFFFFFFFFFFFFFFFFFFFFFFFFFF
310
FFFFFFFFFFFFFFFFFFFFFFFFFFFFFFFFFFFFFFFFFFFFFFFFF000FFFFFFFFFFFF
310
FFFFFFFFFFFFFFFFFFFFFFFFFFFFFFFFFFFFFFFFFFFFFFFFFFFFFFFFFFFFFFFF
310
FFFFFFFFFFFFFFFFFFFFFFFFFFFFFFFFFFFFFFFFFFFFFFFFFFFFFFFFFFFFFFFF
310
FFFFFFFFFFFFFFFFFFFFFFFFFFFFFFFFF000FFFFFFFFFFFFFFFFFFFFFFFFFFFF
310
FFFFFFFFFFFFFFFFFFFFFFFFFFFFFFFFFFFFFFFFFFFFFFFFFFFFFFFFFFFFFFFF
310
FFFFFFFFFFFFFFFFFFFFFFFFFFFFFFFFFFFFFFFFFFFFFFFFFFFFFFFFFFFFFFFF
310
FFFFFFFFFFFFFFFFF000FFFFFFFFFFFFFFFFFFFFFFFFFFFFFFFFFFFFFFFFFFFF
310
FFFFFFFFFFFFFFFFFFFFFFFFFFFFFFFFFFFFFFFFFFFFFFFFFFFFFFFFFFFFFFFF
310
FFFFFFFFFFFFFFFFFFFFFFFFFFFFFFFFFFFFFFFFFFFFFFFFFFFFFFFFFFFFFFFF
310
F000FFFFFFFFFFFFFFFFFFFFFFFFFFFFFFFFFFFFFFFFFFFFFFFFFFFFFFFFFFFF
310
FFFFFFFFFFFFFFFFFFFFFFFFFFFFFFFFFFFFFFFFFFFFFFFFFFFFFFFFFFFFFFFF
310
FFFFFFFFFFFFFFFFFFFFFFFFFFFFFFFFFFFFFFFFFFFFFFFFF000FFFFFFFFFFFF
310
FFFFFFFFFFFFFFFFFFFFFFFFFFFFFFFFFFFFFFFFFFFFFFFFFFFFFFFFFFFFFFFF
310
FFFFFFFFFFFFFFFFFFFFFFFFFFFFFFFFFFFFFFFFFFFFFFFFFFFFFFFFFFFFFFFF
310
FFFFFFFFFFFFFFFFFFFFFFFFFFFFFFFFF000FFFFFFFFFFFFFFFFFFFFFFFFFFFF
310
FFFFFFFFFFFFFFFFFFFFFFFFFFFFFFFFFFFFFFFFFFFFFFFFFFFFFFFFFFFFFFFF
310
FFFFFFFFFFFFFFFFFFFFFFFFFFFFFFFFFFFFFFFFFFFFFFFFFFFFFFFFFFFFFFFF
310
FFFFFFFFFFFFFFFFF000FFFFFFFFFFFFFFFFFFFFFFFFFFFFFFFFFFFFFFFFFFFF
310
FFFFFFFFFFFFFFFFFFFFFFFFFFFFFFFFFFFFFFFFFFFFFFFFFFFFFFFFFFFFFFFF
310
FFFFFFFFFFFFFFFFFFFFFFFFFFFFFFFFFFFFFFFFFFFFFFFFFFFFFFFFFFFFFFFF
310
F000FFFFFFFFFFFFFFFFFFFFFFFFFFFFFFFFFFFFFFFFFFFFFFFFFFFFFFFFFFFF
310
FFFFFFFFFFFFFFFFFFFFFFFFFFFFFFFFFFFFFFFFFFFFFFFFFFFFFFFFFFFFFFFF
310
FFFFFFFFFFFFFFFFFFFFFFFFFFFFFFFFFFFFFFFFFFFFFFFFF000FFFFFFFFFFFF
310
FFFFFFFFFFFFFFFFFFFFFFFFFFFFFFFFFFFFFFFFFFFFFFFFFFFFFFFFFFFFFFFF
310
FFFFFFFFFFFFFFFFFFFFFFFFFFFFFFFFFFFFFFFFFFFFFFFFFFFFFFFFFFFFFFFF
310
FFFFFFFFFFFFFFFFFFFFFFFFFFFFFFFFF000FFFFFFFFFFFFFFFFFFFFFFFFFFFF
310
FFFFFFFFFFFFFFFFFFFFFFFFFFFFFFFFFFFFFFFFFFFFFFFFFFFFFFFFFFFFFFFF
310
FFFFFFFFFFFFFFFFFFFFFFFFFFFFFFFFFFFFFFFFFFFFFFFFFFFFFFFFFFFFFFFF
310
FFFFFFFFFFFFFFFFF000FFFFFFFFFFFFFFFFFFFFFFFFFFFFFFFFFFFFFFFFFFFF
310
FFFFFFFFFFFFFFFFFFFFFFFFFFFFFFFFFFFFFFFFFFFFFFFFFFFFFFFFFFFFFFFF
310
FFFFFFFFFFFFFFFFFFFFFFFFFFFFFFFFFFFFFFFFFFFFFFFFFFFFFFFFFFFFFFFF
310
F000FFFFFFFFFFFFFFFFFFFFFFFFFFFFFFFFFFFFFFFFFFFFFFFFFFFFFFFFFFFF
310
FFFFFFFFFFFFFFFFFFFFFFFFFFFFFFFFFFFFFFFFFFFFFFFFFFFFFFFFFFFFFFFF
310
FFFFFFFFFFFFFFFFFFFFFFFFFFFFFFFFFFFFFFFFFFFFFFFFF000FFFFFFFFFFFF
310
FFFFFFFFFFFFFFFFFFFFFFFFFFFFFFFFFFFFFFFFFFFFFFFFFFFFFFFFFFFFFFFF
310
FFFFFFFFFFFFFFFFFFFFFFFFFFFFFFFFFFFFFFFFFFFFFFFFFFFFFFFFFFFFFFFF
310
FFFFFFFFFFFFFFFFFFFFFFFFFFFFFFFFF000FFFFFFFFFFFFFFFFFFFFFFFFFFFF
310
FFFFFFFFFFFFFFFFFFFFFFFFFFFFFFFFFFFFFFFFFFFFFFFFFFFFFFFFFFFFFFFF
310
FFFFFFFFFFFFFFFFFFFFFFFFFFFFFFFFFFFFFFFFFFFFFFFFFFFFFFFFFFFFFFFF
310
FFFFFFFFFFFFFFFFF000FFFFFFFFFFFFFFFFFFFFFFFFFFFFFFFFFFFFFFFFFFFF
310
FFFFFFFFFFFFFFFFFFFFFFFFFFFFFFFFFFFFFFFFFFFFFFFFFFFFFFFFFFFFFFFF
310
FFFFFFFFFFFFFFFFFFFFFFFFFFFFFFFFFFFFFFFFFFFFFFFFFFFFFFFFFFFFFFFF
310
F000FFFFFFFFFFFFFFFFFFFFFFFFFFFFFFFFFFFFFFFFFFFFFFFFFFFFFFFFFFFF
310
FFFFFFFFFFFFFFFFFFFFFFFFFFFFFFFFFFFFFFFFFFFFFFFFFFFFFFFFFFFFFFFF
310
FFFFFFFFFFFFFFFFFFFFFFFFFFFFFFFFFFFFFFFFFFFFFFFFF000FFFFFFFFFFFF
310
FFFFFFFFFFFFFFFFFFFFFFFFFFFFFFFFFFFFFFFFFFFFFFFFFFFFFFFFFFFFFFFF
310
FFFFFFFFFFFFFFFFFFFFFFFFFFFFFFFFFFFFFFFFFFFFFFFFFFFFFFFFFFFFFFFF
310
FFFFFFFFFFFFFFFFFFFFFFFFFFFFFFFFF0000000000000000000000000000000
310
0000000001000000000000000100000001000000010000000100000001000000
310
0000000001000000010000000100000001000000010000000000000001000000
310
0100000001000000010000000000000001000000010000000100000001000000
310
0000000001000000010000000100000001000000010000000000000001000000
310
0100000001000000010000000100000000000000010000000100000001000000
310
0000000001000000000000000100000000000000010000000000000001000000
310
0000000001000000000000000100000001000000010000000100000001000000
310
0100000001000000010000000100000000000000010000000100000001000000
310
0100000001000000010000000100000001000000010000000000000001000000
310
0100000001000000010000000100000001000000000000000100000001000000
310
0100000001000000010000000100000001000000010000000100000000000000
310
0100000000000000010000000000000001000000000000000100000000000000
310
0100000000000000010000000100000001000000010000000100000001000000
310
0100000001000000010000000100000001000000010000000100000001000000
310
0100000001000000010000000100000001000000010000000100000001000000
  1
OLE
  0
ENDSEC
  0
SECTION
  2
OBJECTS
  0
DICTIONARY
  5
C
330
0
100
AcDbDictionary
281
     1
  3
ACAD_GROUP
350
D
  3
ACAD_LAYOUT
350
1A
  3
ACAD_MLEADERSTYLE
350
204
  3
ACAD_MLINESTYLE
350
17
  3
ACAD_PLOTSETTINGS
350
19
  3
ACAD_PLOTSTYLENAME
350
E
  3
ACAD_TABLESTYLE
350
203
  3
ACAD_VISUALSTYLE
350
2A
  3
AcDbVariableDictionary
350
205
  0
DICTIONARY
  5
D
102
{ACAD_REACTORS
330
C
102
}
330
C
100
AcDbDictionary
281
     1
  0
DICTIONARY
  5
1A
102
{ACAD_REACTORS
330
C
102
}
330
C
100
AcDbDictionary
281
     1
  3
Layout1
350
1E
  3
Layout2
350
26
  3
Model
350
22
  0
DICTIONARY
  5
204
102
{ACAD_REACTORS
330
C
102
}
330
C
100
AcDbDictionary
281
     1
  0
DICTIONARY
  5
17
102
{ACAD_REACTORS
330
C
102
}
330
C
100
AcDbDictionary
281
     1
  3
Standard
350
18
  0
DICTIONARY
  5
19
102
{ACAD_REACTORS
330
C
102
}
330
C
100
AcDbDictionary
281
     1
  0
ACDBDICTIONARYWDFLT
  5
E
102
{ACAD_REACTORS
330
C
102
}
330
C
100
AcDbDictionary
281
     1
  3
Normal
350
F
100
AcDbDictionaryWithDefault
340
F
  0
DICTIONARY
  5
203
102
{ACAD_REACTORS
330
C
102
}
330
C
100
AcDbDictionary
281
     1
  0
DICTIONARY
  5
2A
102
{ACAD_REACTORS
330
C
102
}
330
C
100
AcDbDictionary
281
     1
  3
2dWireframe
350
2F
  3
3D Hidden
350
31
  3
3dWireframe
350
30
  3
Basic
350
32
  3
Brighten
350
36
  3
ColorChange
350
3A
  3
Conceptual
350
34
  3
Dim
350
35
  3
Facepattern
350
39
  3
Flat
350
2B
  3
FlatWithEdges
350
2C
  3
Gouraud
350
2D
  3
GouraudWithEdges
350
2E
  3
Linepattern
350
38
  3
Realistic
350
33
  3
Thicken
350
37
  0
DICTIONARY
  5
205
102
{ACAD_REACTORS
330
C
102
}
330
C
100
AcDbDictionary
281
     1
  3
PSOLHEIGHT
350
207
  3
PSOLWIDTH
350
206
  0
LAYOUT
  5
1E
102
{ACAD_REACTORS
330
1A
102
}
330
1A
100
AcDbPlotSettings
  1

  2
none_device
  4

  6

 40
0.0
 41
0.0
 42
0.0
 43
0.0
 44
0.0
 45
0.0
 46
0.0
 47
0.0
 48
0.0
 49
0.0
140
0.0
141
0.0
142
1.0
143
1.0
 70
   688
 72
     0
 73
     0
 74
     5
  7

 75
    16
147
1.0
148
0.0
149
0.0
100
AcDbLayout
  1
Layout1
 70
     1
 71
     1
 10
0.0
 20
0.0
 11
420.0
 21
297.0
 12
0.0
 22
0.0
 32
0.0
 14
1.0000000000E+20
 24
1.0000000000E+20
 34
1.0000000000E+20
 15
-1.0000000000E+20
 25
-1.0000000000E+20
 35
-1.0000000000E+20
146
0.0
 13
0.0
 23
0.0
 33
0.0
 16
1.0
 26
0.0
 36
0.0
 17
0.0
 27
1.0
 37
0.0
 76
     0
330
1B
  0
LAYOUT
  5
26
102
{ACAD_REACTORS
330
1A
102
}
330
1A
100
AcDbPlotSettings
  1

  2
none_device
  4

  6

 40
0.0
 41
0.0
 42
0.0
 43
0.0
 44
0.0
 45
0.0
 46
0.0
 47
0.0
 48
0.0
 49
0.0
140
0.0
141
0.0
142
1.0
143
1.0
 70
   688
 72
     0
 73
     0
 74
     5
  7

 75
    16
147
1.0
148
0.0
149
0.0
100
AcDbLayout
  1
Layout2
 70
     1
 71
     2
 10
0.0
 20
0.0
 11
0.0
 21
0.0
 12
0.0
 22
0.0
 32
0.0
 14
0.0
 24
0.0
 34
0.0
 15
0.0
 25
0.0
 35
0.0
146
0.0
 13
0.0
 23
0.0
 33
0.0
 16
1.0
 26
0.0
 36
0.0
 17
0.0
 27
1.0
 37
0.0
 76
     0
330
23
  0
LAYOUT
  5
22
102
{ACAD_REACTORS
330
1A
102
}
330
1A
100
AcDbPlotSettings
  1

  2
none_device
  4

  6

 40
0.0
 41
0.0
 42
0.0
 43
0.0
 44
0.0
 45
0.0
 46
0.0
 47
0.0
 48
0.0
 49
0.0
140
0.0
141
0.0
142
1.0
143
1.0
 70
  1712
 72
     0
 73
     0
 74
     0
  7

 75
     0
147
1.0
148
0.0
149
0.0
100
AcDbLayout
  1
Model
 70
     1
 71
     0
 10
0.0
 20
0.0
 11
297.0
 21
210.0
 12
0.0
 22
0.0
 32
0.0
 14
0.0
 24
0.0
 34
0.0
 15
297.0
 25
210.0
 35
0.0
146
0.0
 13
0.0
 23
0.0
 33
0.0
 16
1.0
 26
0.0
 36
0.0
 17
0.0
 27
1.0
 37
0.0
 76
     0
330
1F
331
29
  0
MLINESTYLE
  5
18
102
{ACAD_REACTORS
330
17
102
}
330
17
100
AcDbMlineStyle
  2
Standard
 70
     0
  3

 62
   256
 51
90.0
 52
90.0
 71
     2
 49
0.5
 62
   256
  6
BYLAYER
 49
-0.5
 62
   256
  6
BYLAYER
  0
ACDBPLACEHOLDER
  5
F
102
{ACAD_REACTORS
330
E
102
}
330
E
  0
VISUALSTYLE
  5
2F
102
{ACAD_REACTORS
330
2A
102
}
330
2A
100
AcDbVisualStyle
  2
2dWireframe
 70
     4
 71
     0
 72
     2
 73
     0
 90
        0
 40
-0.6
 41
-30.0
 62
     5
 63
     7
 74
     1
 91
        4
 64
     7
 65
   257
 75
     1
175
     1
 42
1.0
 92
        0
 66
   257
 43
1.0
 76
     1
 77
     6
 78
     2
 67
     7
 79
     5
170
     0
171
     0
290
     0
174
     0
 93
        1
 44
0.0
173
     0
291
     0
 45
0.0
1001
ACAD
1000
AcDbSavedByObjectVersion
1070
     0
  0
VISUALSTYLE
  5
31
102
{ACAD_REACTORS
330
2A
102
}
330
2A
100
AcDbVisualStyle
  2
3D Hidden
 70
     6
 71
     1
 72
     2
 73
     2
 90
        0
 40
-0.6
 41
-30.0
 62
     5
 63
     7
 74
     2
 91
        2
 64
     7
 65
   257
 75
     2
175
     1
 42
40.0
 92
        0
 66
   257
 43
1.0
 76
     1
 77
     6
 78
     2
 67
     7
 79
     3
170
     0
171
     0
290
     0
174
     0
 93
        1
 44
0.0
173
     0
291
     0
 45
0.0
1001
ACAD
1000
AcDbSavedByObjectVersion
1070
     0
  0
VISUALSTYLE
  5
30
102
{ACAD_REACTORS
330
2A
102
}
330
2A
100
AcDbVisualStyle
  2
3dWireframe
 70
     5
 71
     0
 72
     2
 73
     0
 90
        0
 40
-0.6
 41
-30.0
 62
     5
 63
     7
 74
     1
 91
        4
 64
     7
 65
   257
 75
     1
175
     1
 42
1.0
 92
        0
 66
   257
 43
1.0
 76
     1
 77
     6
 78
     2
 67
     7
 79
     5
170
     0
171
     0
290
     0
174
     0
 93
        1
 44
0.0
173
     0
291
     0
 45
0.0
1001
ACAD
1000
AcDbSavedByObjectVersion
1070
     0
  0
VISUALSTYLE
  5
32
102
{ACAD_REACTORS
330
2A
102
}
330
2A
100
AcDbVisualStyle
  2
Basic
 70
     7
 71
     1
 72
     0
 73
     1
 90
        0
 40
-0.6
 41
-30.0
 62
     5
 63
     7
 74
     0
 91
        4
 64
     7
 65
   257
 75
     1
175
     1
 42
1.0
 92
        8
 66
     7
 43
1.0
 76
     1
 77
     6
 78
     2
 67
     7
 79
     5
170
     0
171
     0
290
     0
174
     0
 93
        1
 44
0.0
173
     0
291
     1
 45
0.0
1001
ACAD
1000
AcDbSavedByObjectVersion
1070
     0
  0
VISUALSTYLE
  5
36
102
{ACAD_REACTORS
330
2A
102
}
330
2A
100
AcDbVisualStyle
  2
Brighten
 70
    12
 71
     2
 72
     2
 73
     0
 90
        0
 40
-0.6
 41
-30.0
 62
     5
 63
     7
 74
     1
 91
        4
 64
     7
 65
   257
 75
     1
175
     1
 42
1.0
 92
        8
 66
     7
 43
1.0
 76
     1
 77
     6
 78
     2
 67
     7
 79
     5
170
     0
171
     0
290
     0
174
     0
 93
        1
 44
50.0
173
     0
291
     1
 45
0.0
1001
ACAD
1000
AcDbSavedByObjectVersion
1070
     0
  0
VISUALSTYLE
  5
3A
102
{ACAD_REACTORS
330
2A
102
}
330
2A
100
AcDbVisualStyle
  2
ColorChange
 70
    16
 71
     2
 72
     2
 73
     3
 90
        0
 40
-0.6
 41
-30.0
 62
     5
 63
     8
 74
     1
 91
        4
 64
     7
 65
   257
 75
     1
175
     1
 42
1.0
 92
        8
 66
     8
 43
1.0
 76
     1
 77
     6
 78
     2
 67
     7
 79
     5
170
     0
171
     0
290
     0
174
     0
 93
        1
 44
0.0
173
     0
291
     1
 45
0.0
1001
ACAD
1000
AcDbSavedByObjectVersion
1070
     0
  0
VISUALSTYLE
  5
34
102
{ACAD_REACTORS
330
2A
102
}
330
2A
100
AcDbVisualStyle
  2
Conceptual
 70
     9
 71
     3
 72
     2
 73
     0
 90
        0
 40
-0.6
 41
-30.0
 62
     5
 63
     7
 74
     2
 91
        2
 64
     7
 65
   257
 75
     1
175
     1
 42
40.0
 92
        8
 66
     7
 43
1.0
 76
     1
 77
     6
 78
     2
 67
     7
 79
     3
170
     0
171
     0
290
     0
174
     0
 93
        1
 44
0.0
173
     0
291
     0
 45
0.0
1001
ACAD
1000
AcDbSavedByObjectVersion
1070
     0
  0
VISUALSTYLE
  5
35
102
{ACAD_REACTORS
330
2A
102
}
330
2A
100
AcDbVisualStyle
  2
Dim
 70
    11
 71
     2
 72
     2
 73
     0
 90
        0
 40
-0.6
 41
-30.0
 62
     5
 63
     7
 74
     1
 91
        4
 64
     7
 65
   257
 75
     1
175
     1
 42
1.0
 92
        8
 66
     7
 43
1.0
 76
     1
 77
     6
 78
     2
 67
     7
 79
     5
170
     0
171
     0
290
     0
174
     0
 93
        1
 44
-50.0
173
     0
291
     1
 45
0.0
1001
ACAD
1000
AcDbSavedByObjectVersion
1070
     0
  0
VISUALSTYLE
  5
39
102
{ACAD_REACTORS
330
2A
102
}
330
2A
100
AcDbVisualStyle
  2
Facepattern
 70
    15
 71
     2
 72
     2
 73
     0
 90
        0
 40
-0.6
 41
-30.0
 62
     5
 63
     7
 74
     1
 91
        4
 64
     7
 65
   257
 75
     1
175
     1
 42
1.0
 92
        8
 66
     7
 43
1.0
 76
     1
 77
     6
 78
     2
 67
     7
 79
     5
170
     0
171
     0
290
     0
174
     0
 93
        1
 44
0.0
173
     0
291
     1
 45
0.0
1001
ACAD
1000
AcDbSavedByObjectVersion
1070
     0
  0
VISUALSTYLE
  5
2B
102
{ACAD_REACTORS
330
2A
102
}
330
2A
100
AcDbVisualStyle
  2
Flat
 70
     0
 71
     2
 72
     1
 73
     1
 90
        2
 40
-0.6
 41
30.0
 62
     5
 63
     7
 74
     0
 91
        4
 64
     7
 65
   257
 75
     1
175
     1
 42
1.0
 92
        8
 66
     7
 43
1.0
 76
     1
 77
     6
 78
     2
 67
     7
 79
     5
170
     0
171
     0
290
     0
174
     0
 93
       13
 44
0.0
173
     0
291
     1
 45
0.0
1001
ACAD
1000
AcDbSavedByObjectVersion
1070
     0
  0
VISUALSTYLE
  5
2C
102
{ACAD_REACTORS
330
2A
102
}
330
2A
100
AcDbVisualStyle
  2
FlatWithEdges
 70
     1
 71
     2
 72
     1
 73
     1
 90
        2
 40
-0.6
 41
30.0
 62
     5
 63
     7
 74
     1
 91
        4
 64
     7
 65
   257
 75
     1
175
     1
 42
1.0
 92
        0
 66
   257
 43
1.0
 76
     1
 77
     6
 78
     2
 67
     7
 79
     5
170
     0
171
     0
290
     0
174
     0
 93
       13
 44
0.0
173
     0
291
     1
 45
0.0
1001
ACAD
1000
AcDbSavedByObjectVersion
1070
     0
  0
VISUALSTYLE
  5
2D
102
{ACAD_REACTORS
330
2A
102
}
330
2A
100
AcDbVisualStyle
  2
Gouraud
 70
     2
 71
     2
 72
     2
 73
     1
 90
        2
 40
-0.6
 41
30.0
 62
     5
 63
     7
 74
     0
 91
        4
 64
     7
 65
   257
 75
     1
175
     1
 42
1.0
 92
        0
 66
     7
 43
1.0
 76
     1
 77
     6
 78
     2
 67
     7
 79
     5
170
     0
171
     0
290
     0
174
     0
 93
       13
 44
0.0
173
     0
291
     1
 45
0.0
1001
ACAD
1000
AcDbSavedByObjectVersion
1070
     0
  0
VISUALSTYLE
  5
2E
102
{ACAD_REACTORS
330
2A
102
}
330
2A
100
AcDbVisualStyle
  2
GouraudWithEdges
 70
     3
 71
     2
 72
     2
 73
     1
 90
        2
 40
-0.6
 41
30.0
 62
     5
 63
     7
 74
     1
 91
        4
 64
     7
 65
   257
 75
     1
175
     1
 42
1.0
 92
        0
 66
   257
 43
1.0
 76
     1
 77
     6
 78
     2
 67
     7
 79
     5
170
     0
171
     0
290
     0
174
     0
 93
       13
 44
0.0
173
     0
291
     1
 45
0.0
1001
ACAD
1000
AcDbSavedByObjectVersion
1070
     0
  0
VISUALSTYLE
  5
38
102
{ACAD_REACTORS
330
2A
102
}
330
2A
100
AcDbVisualStyle
  2
Linepattern
 70
    14
 71
     2
 72
     2
 73
     0
 90
        0
 40
-0.6
 41
-30.0
 62
     5
 63
     7
 74
     1
 91
        4
 64
     7
 65
   257
 75
     7
175
     7
 42
1.0
 92
        8
 66
     7
 43
1.0
 76
     1
 77
     6
 78
     2
 67
     7
 79
     5
170
     0
171
     0
290
     0
174
     0
 93
        1
 44
0.0
173
     0
291
     1
 45
0.0
1001
ACAD
1000
AcDbSavedByObjectVersion
1070
     0
  0
VISUALSTYLE
  5
33
102
{ACAD_REACTORS
330
2A
102
}
330
2A
100
AcDbVisualStyle
  2
Realistic
 70
     8
 71
     2
 72
     2
 73
     0
 90
        0
 40
-0.6
 41
-30.0
 62
     5
 63
     7
 74
     1
 91
        0
 64
     7
 65
   257
 75
     1
175
     1
 42
1.0
 92
        8
 66
     8
 43
1.0
 76
     1
 77
     6
 78
     2
 67
     7
 79
     5
170
     0
171
     0
290
     0
174
     0
 93
       13
 44
0.0
173
     0
291
     0
 45
0.0
1001
ACAD
1000
AcDbSavedByObjectVersion
1070
     0
  0
VISUALSTYLE
  5
37
102
{ACAD_REACTORS
330
2A
102
}
330
2A
100
AcDbVisualStyle
  2
Thicken
 70
    13
 71
     2
 72
     2
 73
     0
 90
        0
 40
-0.6
 41
-30.0
 62
     5
 63
     7
 74
     1
 91
        4
 64
     7
 65
   257
 75
     1
175
     1
 42
1.0
 92
       12
 66
     7
 43
1.0
 76
     1
 77
     6
 78
     2
 67
     7
 79
     5
170
     0
171
     0
290
     0
174
     0
 93
        1
 44
0.0
173
     0
291
     1
 45
0.0
1001
ACAD
1000
AcDbSavedByObjectVersion
1070
     0
  0
DICTIONARYVAR
  5
207
102
{ACAD_REACTORS
330
205
102
}
330
205
100
DictionaryVariables
280
     0
  1
80.000000
  0
DICTIONARYVAR
  5
206
102
{ACAD_REACTORS
330
205
102
}
330
205
100
DictionaryVariables
280
     0
  1
5.000000
  0
ENDSEC
  0
EOF
