  0
SECTION
  2
HEADER
  9
$ACADVER
  1
AC1015
  9
$ACADMAINTVER
 70
     6
  9
$DWGCODEPAGE
  3
ANSI_1252
  9
$INSBASE
 10
0.0
 20
0.0
 30
0.0
  9
$EXTMIN
 10
0.0
 20
0.0
 30
0.0
  9
$EXTMAX
 10
297.0
 20
210.0
 30
0.0
  9
$LIMMIN
 10
0.0
 20
0.0
  9
$LIMMAX
 10
297.0
 20
210.0
  9
$ORTHOMODE
 70
     0
  9
$REGENMODE
 70
     1
  9
$FILLMODE
 70
     1
  9
$QTEXTMODE
 70
     0
  9
$MIRRTEXT
 70
     1
  9
$LTSCALE
 40
1.0
  9
$ATTMODE
 70
     1
  9
$TEXTSIZE
 40
2.0
  9
$TRACEWID
 40
1.0
  9
$TEXTSTYLE
  7
Standard
  9
$CLAYER
  8
0
  9
$CELTYPE
  6
ByLayer
  9
$CECOLOR
 62
   256
  9
$CELTSCALE
 40
1.0
  9
$DISPSILH
 70
     0
  9
$DIMSCALE
 40
1.0
  9
$DIMASZ
 40
3.0
  9
$DIMEXO
 40
0.0
  9
$DIMDLI
 40
3.75
  9
$DIMRND
 40
0.0
  9
$DIMDLE
 40
0.0
  9
$DIMEXE
 40
1.0
  9
$DIMTP
 40
0.0
  9
$DIMTM
 40
0.0
  9
$DIMTXT
 40
2.0
  9
$DIMCEN
 40
2.5
  9
$DIMTSZ
 40
0.0
  9
$DIMTOL
 70
     0
  9
$DIMLIM
 70
     0
  9
$DIMTIH
 70
     1
  9
$DIMTOH
 70
     1
  9
$DIMSE1
 70
     0
  9
$DIMSE2
 70
     0
  9
$DIMTAD
 70
     1
  9
$DIMZIN
 70
     0
  9
$DIMBLK
  1

  9
$DIMASO
 70
     1
  9
$DIMSHO
 70
     1
  9
$DIMPOST
  1

  9
$DIMAPOST
  1

  9
$DIMALT
 70
     0
  9
$DIMALTD
 70
     3
  9
$DIMALTF
 40
0.0393700787
  9
$DIMLFAC
 40
1.0
  9
$DIMTOFL
 70
     1
  9
$DIMTVP
 40
0.0
  9
$DIMTIX
 70
     0
  9
$DIMSOXD
 70
     0
  9
$DIMSAH
 70
     0
  9
$DIMBLK1
  1

  9
$DIMBLK2
  1

  9
$DIMSTYLE
  2
ISO-25
  9
$DIMCLRD
 70
     0
  9
$DIMCLRE
 70
     0
  9
$DIMCLRT
 70
     0
  9
$DIMTFAC
 40
1.0
  9
$DIMGAP
 40
1.524
  9
$DIMJUST
 70
     0
  9
$DIMSD1
 70
     0
  9
$DIMSD2
 70
     0
  9
$DIMTOLJ
 70
     0
  9
$DIMTZIN
 70
     0
  9
$DIMALTZ
 70
     0
  9
$DIMALTTZ
 70
     0
  9
$DIMUPT
 70
     0
  9
$DIMDEC
 70
     2
  9
$DIMTDEC
 70
     3
  9
$DIMALTU
 70
     2
  9
$DIMALTTD
 70
     3
  9
$DIMTXSTY
  7
Standard
  9
$DIMAUNIT
 70
     0
  9
$DIMADEC
 70
     2
  9
$DIMALTRND
 40
0.0
  9
$DIMAZIN
 70
     0
  9
$DIMDSEP
 70
    44
  9
$DIMATFIT
 70
     3
  9
$DIMFRAC
 70
     0
  9
$DIMLDRBLK
  1

  9
$DIMLUNIT
 70
     2
  9
$DIMLWD
 70
    -2
  9
$DIMLWE
 70
    -2
  9
$DIMTMOVE
 70
     0
  9
$LUNITS
 70
     2
  9
$LUPREC
 70
     2
  9
$SKETCHINC
 40
1.0
  9
$FILLETRAD
 40
10.0
  9
$AUNITS
 70
     0
  9
$AUPREC
 70
     2
  9
$MENU
  1
.
  9
$ELEVATION
 40
0.0
  9
$PELEVATION
 40
0.0
  9
$THICKNESS
 40
0.0
  9
$LIMCHECK
 70
     0
  9
$CHAMFERA
 40
10.0
  9
$CHAMFERB
 40
10.0
  9
$CHAMFERC
 40
20.0
  9
$CHAMFERD
 40
0.0
  9
$SKPOLY
 70
     0
  9
$TDCREATE
 40
2455684.333191123
  9
$TDUCREATE
 40
2455684.249857789
  9
$TDUPDATE
 40
2455684.333191134
  9
$TDUUPDATE
 40
2455684.249857801
  9
$TDINDWG
 40
0.0000000116
  9
$TDUSRTIMER
 40
0.0000000116
  9
$USRTIMER
 70
     1
  9
$ANGBASE
 50
0.0
  9
$ANGDIR
 70
     0
  9
$PDMODE
 70
     0
  9
$PDSIZE
 40
-1.0
  9
$PLINEWID
 40
0.0
  9
$SPLFRAME
 70
     0
  9
$SPLINETYPE
 70
     6
  9
$SPLINESEGS
 70
     8
  9
$HANDSEED
  5
20C
  9
$SURFTAB1
 70
     6
  9
$SURFTAB2
 70
     6
  9
$SURFTYPE
 70
     6
  9
$SURFU
 70
     6
  9
$SURFV
 70
     6
  9
$UCSBASE
  2

  9
$UCSNAME
  2

  9
$UCSORG
 10
0.0
 20
0.0
 30
0.0
  9
$UCSXDIR
 10
1.0
 20
0.0
 30
0.0
  9
$UCSYDIR
 10
0.0
 20
1.0
 30
0.0
  9
$UCSORTHOREF
  2

  9
$UCSORTHOVIEW
 70
     0
  9
$UCSORGTOP
 10
0.0
 20
0.0
 30
0.0
  9
$UCSORGBOTTOM
 10
0.0
 20
0.0
 30
0.0
  9
$UCSORGLEFT
 10
0.0
 20
0.0
 30
0.0
  9
$UCSORGRIGHT
 10
0.0
 20
0.0
 30
0.0
  9
$UCSORGFRONT
 10
0.0
 20
0.0
 30
0.0
  9
$UCSORGBACK
 10
0.0
 20
0.0
 30
0.0
  9
$PUCSBASE
  2

  9
$PUCSNAME
  2

  9
$PUCSORG
 10
0.0
 20
0.0
 30
0.0
  9
$PUCSXDIR
 10
1.0
 20
0.0
 30
0.0
  9
$PUCSYDIR
 10
0.0
 20
1.0
 30
0.0
  9
$PUCSORTHOREF
  2

  9
$PUCSORTHOVIEW
 70
     0
  9
$PUCSORGTOP
 10
0.0
 20
0.0
 30
0.0
  9
$PUCSORGBOTTOM
 10
0.0
 20
0.0
 30
0.0
  9
$PUCSORGLEFT
 10
0.0
 20
0.0
 30
0.0
  9
$PUCSORGRIGHT
 10
0.0
 20
0.0
 30
0.0
  9
$PUCSORGFRONT
 10
0.0
 20
0.0
 30
0.0
  9
$PUCSORGBACK
 10
0.0
 20
0.0
 30
0.0
  9
$USERI1
 70
     0
  9
$USERI2
 70
     0
  9
$USERI3
 70
     0
  9
$USERI4
 70
     0
  9
$USERI5
 70
     0
  9
$USERR1
 40
0.0
  9
$USERR2
 40
0.0
  9
$USERR3
 40
0.0
  9
$USERR4
 40
0.0
  9
$USERR5
 40
0.0
  9
$WORLDVIEW
 70
     1
  9
$SHADEDGE
 70
     3
  9
$SHADEDIF
 70
    70
  9
$TILEMODE
 70
     1
  9
$MAXACTVP
 70
    64
  9
$PINSBASE
 10
0.0
 20
0.0
 30
0.0
  9
$PLIMCHECK
 70
     0
  9
$PEXTMIN
 10
1.0000000000E+20
 20
1.0000000000E+20
 30
1.0000000000E+20
  9
$PEXTMAX
 10
-1.0000000000E+20
 20
-1.0000000000E+20
 30
-1.0000000000E+20
  9
$PLIMMIN
 10
0.0
 20
0.0
  9
$PLIMMAX
 10
420.0
 20
297.0
  9
$UNITMODE
 70
     0
  9
$VISRETAIN
 70
     1
  9
$PLINEGEN
 70
     0
  9
$PSLTSCALE
 70
     1
  9
$TREEDEPTH
 70
  3020
  9
$CMLSTYLE
  2
Standard
  9
$CMLJUST
 70
     0
  9
$CMLSCALE
 40
20.0
  9
$PROXYGRAPHICS
 70
     1
  9
$MEASUREMENT
 70
     1
  9
$CELWEIGHT
370
    -1
  9
$ENDCAPS
280
     0
  9
$JOINSTYLE
280
     0
  9
$LWDISPLAY
290
     1
  9
$INSUNITS
 70
     4
  9
$HYPERLINKBASE
  1

  9
$STYLESHEET
  1

  9
$XEDIT
290
     1
  9
$CEPSNTYPE
380
     0
  9
$PSTYLEMODE
290
     1
  9
$FINGERPRINTGUID
  2
{92452D4E-E4C5-4A1B-B3BA-3D2FCD9D4D36}
  9
$VERSIONGUID
  2
{FAEB1C32-E019-11D5-929B-00C0DF256EC4}
  9
$EXTNAMES
290
     1
  9
$PSVPSCALE
 40
0.0
  9
$OLESTARTUP
290
     0
  0
ENDSEC
  0
SECTION
  2
CLASSES
  0
CLASS
  1
ACDBDICTIONARYWDFLT
  2
AcDbDictionaryWithDefault
  3
ObjectDBX Classes
 90
        0
280
     0
281
     0
  0
CLASS
  1
VISUALSTYLE
  2
AcDbVisualStyle
  3
ObjectDBX Classes
 90
     4095
280
     0
281
     0
  0
CLASS
  1
DICTIONARYVAR
  2
AcDbDictionaryVar
  3
ObjectDBX Classes
 90
        0
280
     0
281
     0
  0
CLASS
  1
ACDBPLACEHOLDER
  2
AcDbPlaceHolder
  3
ObjectDBX Classes
 90
        0
280
     0
281
     0
  0
CLASS
  1
LAYOUT
  2
AcDbLayout
  3
ObjectDBX Classes
 90
        0
280
     0
281
     0
  0
ENDSEC
  0
SECTION
  2
TABLES
  0
TABLE
  2
VPORT
  5
8
330
0
100
AcDbSymbolTable
 70
     1
  0
VPORT
  5
29
330
8
100
AcDbSymbolTableRecord
100
AcDbViewportTableRecord
  2
*Active
 70
     0
 10
0.0
 20
0.0
 11
1.0
 21
1.0
 12
148.5
 22
105.0
 13
0.0
 23
0.0
 14
10.0
 24
10.0
 15
10.0
 25
10.0
 16
0.0
 26
0.0
 36
1.0
 17
0.0
 27
0.0
 37
0.0
 40
210.0
 41
1.4142857143
 42
50.0
 43
0.0
 44
0.0
 50
0.0
 51
0.0
 71
     0
 72
  2000
 73
     1
 74
     3
 75
     0
 76
     0
 77
     0
 78
     0
281
     0
 65
     1
110
0.0
120
0.0
130
0.0
111
1.0
121
0.0
131
0.0
112
0.0
122
1.0
132
0.0
 79
     0
146
0.0
  0
ENDTAB
  0
TABLE
  2
LTYPE
  5
5
330
0
100
AcDbSymbolTable
 70
     6
  0
LTYPE
  5
14
330
5
100
AcDbSymbolTableRecord
100
AcDbLinetypeTableRecord
  2
ByBlock
 70
     0
  3

 72
    65
 73
     0
 40
0.0
  0
LTYPE
  5
15
330
5
100
AcDbSymbolTableRecord
100
AcDbLinetypeTableRecord
  2
ByLayer
 70
     0
  3

 72
    65
 73
     0
 40
0.0
  0
LTYPE
  5
16
330
5
100
AcDbSymbolTableRecord
100
AcDbLinetypeTableRecord
  2
Continuous
 70
     0
  3
Solid line
 72
    65
 73
     0
 40
0.0
  0
LTYPE
  5
3B
330
5
100
AcDbSymbolTableRecord
100
AcDbLinetypeTableRecord
  2
HIDDEN
 70
     0
  3
Hidden __ __ __ __ __ __ __ __ __ __ __ __ __ __
 72
    65
 73
     2
 40
1.905
 49
1.27
 74
     0
 49
-0.635
 74
     0
  0
LTYPE
  5
3C
330
5
100
AcDbSymbolTableRecord
100
AcDbLinetypeTableRecord
  2
PHANTOM
 70
     0
  3
Phantom ______  __  __  ______  __  __  ______
 72
    65
 73
     6
 40
12.7
 49
6.35
 74
     0
 49
-1.27
 74
     0
 49
1.27
 74
     0
 49
-1.27
 74
     0
 49
1.27
 74
     0
 49
-1.27
 74
     0
  0
LTYPE
  5
3D
330
5
100
AcDbSymbolTableRecord
100
AcDbLinetypeTableRecord
  2
CENTER
 70
     0
  3
Center ____ _ ____ _ ____ _ ____ _ ____ _ ____
 72
    65
 73
     4
 40
10.16
 49
6.35
 74
     0
 49
-1.27
 74
     0
 49
1.27
 74
     0
 49
-1.27
 74
     0
  0
LTYPE
  5
3E
330
5
100
AcDbSymbolTableRecord
100
AcDbLinetypeTableRecord
  2
CENTERX2
 70
     0
  3
Center (2x) ________  __  ________  __  _____
 72
    65
 73
     4
 40
20.32
 49
12.7
 74
     0
 49
-2.54
 74
     0
 49
2.54
 74
     0
 49
-2.54
 74
     0
  0
LTYPE
  5
3F
330
5
100
AcDbSymbolTableRecord
100
AcDbLinetypeTableRecord
  2
DOT2
 70
     0
  3
Dot (.5x) ........................................
 72
    65
 73
     2
 40
0.635
 49
0.0
 74
     0
 49
-0.635
 74
     0
  0
ENDTAB
  0
TABLE
  2
LAYER
  5
2
330
0
100
AcDbSymbolTable
 70
     5
  0
LAYER
  5
10
330
2
100
AcDbSymbolTableRecord
100
AcDbLayerTableRecord
  2
0
 70
     0
 62
     7
  6
Continuous
370
    -3
390
F
  0
LAYER
  5
40
330
2
100
AcDbSymbolTableRecord
100
AcDbLayerTableRecord
  2
FORMAT
 70
     0
 62
     7
  6
Continuous
370
    -3
390
F
  0
LAYER
  5
41
330
2
100
AcDbSymbolTableRecord
100
AcDbLayerTableRecord
  2
VERMASSUNG
 70
     0
 62
     7
  6
Continuous
370
    -3
390
F
  0
LAYER
  5
42
330
2
100
AcDbSymbolTableRecord
100
AcDbLayerTableRecord
  2
KOPF_DÜNN
 70
     0
 62
     7
  6
Continuous
370
    -3
390
F
  0
LAYER
  5
43
330
2
100
AcDbSymbolTableRecord
100
AcDbLayerTableRecord
  2
KOPF_DICK
 70
     0
 62
     7
  6
Continuous
370
    15
390
F
  0
ENDTAB
  0
TABLE
  2
STYLE
  5
3
330
0
100
AcDbSymbolTable
 70
     3
  0
STYLE
  5
11
330
3
100
AcDbSymbolTableRecord
100
AcDbTextStyleTableRecord
  2
Standard
 70
     0
 40
0.0
 41
1.0
 50
0.0
 71
     0
 42
2.5
  3
txt
  4

  0
STYLE
  5
44
330
3
100
AcDbSymbolTableRecord
100
AcDbTextStyleTableRecord
  2
SLDTEXTSTYLE0
 70
     0
 40
0.0
 41
0.7
 50
0.0
 71
     0
 42
0.2
  3
TXT
  4

  0
STYLE
  5
48
330
3
100
AcDbSymbolTableRecord
100
AcDbTextStyleTableRecord
  2
SLDTEXTSTYLE1
 70
     0
 40
0.0
 41
0.65
 50
0.0
 71
     0
 42
0.2
  3
TXT
  4

  0
ENDTAB
  0
TABLE
  2
VIEW
  5
6
330
0
100
AcDbSymbolTable
 70
     0
  0
ENDTAB
  0
TABLE
  2
UCS
  5
7
330
0
100
AcDbSymbolTable
 70
     0
  0
ENDTAB
  0
TABLE
  2
APPID
  5
9
330
0
100
AcDbSymbolTable
 70
     1
  0
APPID
  5
12
330
9
100
AcDbSymbolTableRecord
100
AcDbRegAppTableRecord
  2
ACAD
 70
     0
  0
ENDTAB
  0
TABLE
  2
DIMSTYLE
  5
A
330
0
100
AcDbSymbolTable
 70
     5
100
AcDbDimStyleTable
  0
DIMSTYLE
105
27
330
A
100
AcDbSymbolTableRecord
100
AcDbDimStyleTableRecord
  2
ISO-25
 70
     0
 41
2.5
 42
0.625
 43
3.75
 44
1.25
 73
     0
 74
     0
 77
     1
 78
     8
140
2.5
141
2.5
143
0.0393700787
147
0.625
171
     3
172
     1
271
     2
272
     2
274
     3
278
    44
283
     0
284
     8
340
11
  0
DIMSTYLE
105
1AD
102
{ACAD_REACTORS
330
1AC
330
1DC
330
1E6
330
1F0
330
1FA
102
}
330
A
100
AcDbSymbolTableRecord
100
AcDbDimStyleTableRecord
  2
SLDDIMSTYLE0
 70
     0
 41
3.0
 44
0.0
 45
0.000000001
 73
     0
 74
     0
 77
     1
 78
    12
140
2.0
147
0.5
173
     1
271
     2
272
     3
284
    12
340
44
  0
DIMSTYLE
105
1BA
102
{ACAD_REACTORS
330
1B9
102
}
330
A
100
AcDbSymbolTableRecord
100
AcDbDimStyleTableRecord
  2
SLDDIMSTYLE1
 70
     0
 41
3.0
 44
0.0
 45
0.000000001
 73
     0
 74
     0
 77
     1
 78
    12
140
2.0
147
0.5
173
     1
271
     2
272
     2
284
    12
340
44
  0
DIMSTYLE
105
1C5
102
{ACAD_REACTORS
330
1C4
102
}
330
A
100
AcDbSymbolTableRecord
100
AcDbDimStyleTableRecord
  2
SLDDIMSTYLE2
 70
     0
 41
3.0
 44
0.0
 45
0.000000001
 73
     0
 74
     0
 77
     1
 78
    12
140
2.0
147
0.5
173
     1
271
     2
272
     2
284
    12
340
44
  0
DIMSTYLE
105
1D1
102
{ACAD_REACTORS
330
1D0
102
}
330
A
100
AcDbSymbolTableRecord
100
AcDbDimStyleTableRecord
  2
SLDDIMSTYLE3
 70
     0
 41
3.0
 44
0.0
 45
0.000000001
 73
     0
 74
     0
 77
     1
 78
    12
140
2.0
147
0.5
173
     1
271
     2
272
     3
284
    12
340
44
  0
ENDTAB
  0
TABLE
  2
BLOCK_RECORD
  5
1
330
0
100
AcDbSymbolTable
 70
     9
  0
BLOCK_RECORD
  5
1F
330
1
100
AcDbSymbolTableRecord
100
AcDbBlockTableRecord
  2
*Model_Space
340
22
  0
BLOCK_RECORD
  5
1B
330
1
100
AcDbSymbolTableRecord
100
AcDbBlockTableRecord
  2
*Paper_Space
340
1E
  0
BLOCK_RECORD
  5
23
330
1
100
AcDbSymbolTableRecord
100
AcDbBlockTableRecord
  2
*Paper_Space0
340
26
  0
BLOCK_RECORD
  5
1AE
330
1
100
AcDbSymbolTableRecord
100
AcDbBlockTableRecord
  2
*D1
340
0
  0
BLOCK_RECORD
  5
1BB
330
1
100
AcDbSymbolTableRecord
100
AcDbBlockTableRecord
  2
*D2
340
0
  0
BLOCK_RECORD
  5
1C6
330
1
100
AcDbSymbolTableRecord
100
AcDbBlockTableRecord
  2
*D3
340
0
  0
BLOCK_RECORD
  5
1D2
330
1
100
AcDbSymbolTableRecord
100
AcDbBlockTableRecord
  2
*D4
340
0
  0
BLOCK_RECORD
  5
1DD
330
1
100
AcDbSymbolTableRecord
100
AcDbBlockTableRecord
  2
*D5
340
0
  0
BLOCK_RECORD
  5
1E7
330
1
100
AcDbSymbolTableRecord
100
AcDbBlockTableRecord
  2
*D6
340
0
  0
BLOCK_RECORD
  5
1F1
330
1
100
AcDbSymbolTableRecord
100
AcDbBlockTableRecord
  2
*D7
340
0
  0
BLOCK_RECORD
  5
1FB
330
1
100
AcDbSymbolTableRecord
100
AcDbBlockTableRecord
  2
*D8
340
0
  0
ENDTAB
  0
ENDSEC
  0
SECTION
  2
BLOCKS
  0
BLOCK
  5
20
330
1F
100
AcDbEntity
  8
0
100
AcDbBlockBegin
  2
*Model_Space
 70
     0
 10
0.0
 20
0.0
 30
0.0
  3
*Model_Space
  1

  0
ENDBLK
  5
21
330
1F
100
AcDbEntity
  8
0
100
AcDbBlockEnd
  0
BLOCK
  5
1C
330
1B
100
AcDbEntity
 67
     1
  8
0
100
AcDbBlockBegin
  2
*Paper_Space
 70
     0
 10
0.0
 20
0.0
 30
0.0
  3
*Paper_Space
  1

  0
ENDBLK
  5
1D
330
1B
100
AcDbEntity
 67
     1
  8
0
100
AcDbBlockEnd
  0
BLOCK
  5
24
330
23
100
AcDbEntity
  8
0
100
AcDbBlockBegin
  2
*Paper_Space0
 70
     0
 10
0.0
 20
0.0
 30
0.0
  3
*Paper_Space0
  1

  0
ENDBLK
  5
25
330
23
100
AcDbEntity
  8
0
100
AcDbBlockEnd
  0
BLOCK
  5
1AF
330
1AE
100
AcDbEntity
  8
0
100
AcDbBlockBegin
  2
*D1
 70
     1
 10
0.0
 20
0.0
 30
0.0
  3
*D1
  1

  0
SOLID
  5
1B1
330
1AE
100
AcDbEntity
  8
VERMASSUNG
100
AcDbTrace
 10
51.0308775731
 20
158.8291440953
 30
0.0
 11
50.5808775731
 21
155.8291440953
 31
0.0
 12
51.4808775731
 22
155.8291440953
 32
0.0
 13
51.4808775731
 23
155.8291440953
 33
0.0
  0
SOLID
  5
1B2
330
1AE
100
AcDbEntity
  8
VERMASSUNG
100
AcDbTrace
 10
51.0308775731
 20
58.8291440953
 30
0.0
 11
51.4808775731
 21
61.8291440953
 31
0.0
 12
50.5808775731
 22
61.8291440953
 32
0.0
 13
50.5808775731
 23
61.8291440953
 33
0.0
  0
LINE
  5
1B3
330
1AE
100
AcDbEntity
  8
VERMASSUNG
100
AcDbLine
 10
107.3958044465
 20
158.8291440953
 30
0.0
 11
50.0308775731
 21
158.8291440953
 31
0.0
  0
LINE
  5
1B4
330
1AE
100
AcDbEntity
  8
VERMASSUNG
100
AcDbLine
 10
107.3958044465
 20
58.8291440953
 30
0.0
 11
50.0308775731
 21
58.8291440953
 31
0.0
  0
LINE
  5
1B5
330
1AE
100
AcDbEntity
  8
VERMASSUNG
100
AcDbLine
 10
51.0308775731
 20
158.8291440953
 30
0.0
 11
51.0308775731
 21
58.8291440953
 31
0.0
  0
MTEXT
  5
1B6
330
1AE
100
AcDbEntity
  8
VERMASSUNG
100
AcDbMText
 10
48.2527420841
 20
100.6254929577
 30
0.0
 40
2.0
 41
0.0
 71
     1
 72
     1
  1
HSK A 
  7
SLDTEXTSTYLE0
 11
-7.044195017643634E-15
 21
1.0
 31
0.0
 73
     1
 44
1.0
  0
MTEXT
  5
1B7
330
1AE
100
AcDbEntity
  8
VERMASSUNG
100
AcDbMText
 10
48.4527420936
 20
109.6254935016
 30
0.0
 40
2.0
 41
0.0
 71
     1
 72
     1
  1
%%c
  7
SLDTEXTSTYLE0
 11
-7.044195017643634E-15
 21
1.0
 31
0.0
 73
     1
 44
1.0
  0
MTEXT
  5
1B8
330
1AE
100
AcDbEntity
  8
VERMASSUNG
100
AcDbMText
 10
48.45274221
 20
113.2338201517
 30
0.0
 40
2.0
 41
0.0
 71
     1
 72
     1
  1
100
  7
SLDTEXTSTYLE0
 11
-7.044195017643634E-15
 21
1.0
 31
0.0
 73
     1
 44
1.0
  0
ENDBLK
  5
1B0
330
1AE
100
AcDbEntity
  8
0
100
AcDbBlockEnd
  0
BLOCK
  5
1BC
330
1BB
100
AcDbEntity
  8
0
100
AcDbBlockBegin
  2
*D2
 70
     1
 10
0.0
 20
0.0
 30
0.0
  3
*D2
  1

  0
SOLID
  5
1BE
330
1BB
100
AcDbEntity
  8
VERMASSUNG
100
AcDbTrace
 10
190.3958044465
 20
156.8291440953
 30
0.0
 11
193.3958044465
 21
156.3791440953
 31
0.0
 12
193.3958044465
 22
157.2791440953
 32
0.0
 13
193.3958044465
 23
157.2791440953
 33
0.0
  0
SOLID
  5
1BF
330
1BB
100
AcDbEntity
  8
VERMASSUNG
100
AcDbTrace
 10
236.8958044465
 20
156.8291440953
 30
0.0
 11
233.8958044465
 21
157.2791440953
 31
0.0
 12
233.8958044465
 22
156.3791440953
 32
0.0
 13
233.8958044465
 23
156.3791440953
 33
0.0
  0
LINE
  5
1C0
330
1BB
100
AcDbEntity
  8
VERMASSUNG
100
AcDbLine
 10
190.3958044465
 20
115.7291440953
 30
0.0
 11
190.3958044465
 21
157.8291440953
 31
0.0
  0
LINE
  5
1C1
330
1BB
100
AcDbEntity
  8
VERMASSUNG
100
AcDbLine
 10
236.8958044465
 20
120.480363112
 30
0.0
 11
236.8958044465
 21
157.8291440953
 31
0.0
  0
LINE
  5
1C2
330
1BB
100
AcDbEntity
  8
VERMASSUNG
100
AcDbLine
 10
190.3958044465
 20
156.8291440953
 30
0.0
 11
236.8958044465
 21
156.8291440953
 31
0.0
  0
MTEXT
  5
1C3
330
1BB
100
AcDbEntity
  8
VERMASSUNG
100
AcDbMText
 10
211.1464176643
 20
159.4072794585
 30
0.0
 40
2.0
 41
0.0
 71
     1
 72
     1
  1
46.5
  7
SLDTEXTSTYLE0
 73
     1
 44
1.0
  0
ENDBLK
  5
1BD
330
1BB
100
AcDbEntity
  8
0
100
AcDbBlockEnd
  0
BLOCK
  5
1C7
330
1C6
100
AcDbEntity
  8
0
100
AcDbBlockBegin
  2
*D3
 70
     1
 10
0.0
 20
0.0
 30
0.0
  3
*D3
  1

  0
SOLID
  5
1C9
330
1C6
100
AcDbEntity
  8
VERMASSUNG
100
AcDbTrace
 10
244.112567714
 20
101.8291440953
 30
0.0
 11
244.562567714
 21
104.8291440953
 31
0.0
 12
243.662567714
 22
104.8291440953
 32
0.0
 13
243.662567714
 23
104.8291440953
 33
0.0
  0
SOLID
  5
1CA
330
1C6
100
AcDbEntity
  8
VERMASSUNG
100
AcDbTrace
 10
244.112567714
 20
115.8291440953
 30
0.0
 11
243.662567714
 21
112.8291440953
 31
0.0
 12
244.562567714
 22
112.8291440953
 32
0.0
 13
244.562567714
 23
112.8291440953
 33
0.0
  0
LINE
  5
1CB
330
1C6
100
AcDbEntity
  8
VERMASSUNG
100
AcDbLine
 10
233.3958044465
 20
101.8291440953
 30
0.0
 11
245.112567714
 21
101.8291440953
 31
0.0
  0
LINE
  5
1CC
330
1C6
100
AcDbEntity
  8
VERMASSUNG
100
AcDbLine
 10
233.3958044465
 20
115.8291440953
 30
0.0
 11
245.112567714
 21
115.8291440953
 31
0.0
  0
LINE
  5
1CD
330
1C6
100
AcDbEntity
  8
VERMASSUNG
100
AcDbLine
 10
244.112567714
 20
101.8291440953
 30
0.0
 11
244.112567714
 21
115.8291440953
 31
0.0
  0
MTEXT
  5
1CE
330
1C6
100
AcDbEntity
  8
VERMASSUNG
100
AcDbMText
 10
241.5344322344
 20
105.7252166847
 30
0.0
 40
2.0
 41
0.0
 71
     1
 72
     1
  1
%%c
  7
SLDTEXTSTYLE0
 11
6.123233995736766E-17
 21
1.0
 31
0.0
 73
     1
 44
1.0
  0
MTEXT
  5
1CF
330
1C6
100
AcDbEntity
  8
VERMASSUNG
100
AcDbMText
 10
241.5344323508
 20
109.3338949079
 30
0.0
 40
2.0
 41
0.0
 71
     1
 72
     1
  1
14
  7
SLDTEXTSTYLE0
 11
6.123233995736766E-17
 21
1.0
 31
0.0
 73
     1
 44
1.0
  0
ENDBLK
  5
1C8
330
1C6
100
AcDbEntity
  8
0
100
AcDbBlockEnd
  0
BLOCK
  5
1D3
330
1D2
100
AcDbEntity
  8
0
100
AcDbBlockBegin
  2
*D4
 70
     1
 10
0.0
 20
0.0
 30
0.0
  3
*D4
  1

  0
SOLID
  5
1D5
330
1D2
100
AcDbEntity
  8
VERMASSUNG
100
AcDbTrace
 10
250.112567714
 20
95.3291440953
 30
0.0
 11
250.562567714
 21
98.3291440953
 31
0.0
 12
249.662567714
 22
98.3291440953
 32
0.0
 13
249.662567714
 23
98.3291440953
 33
0.0
  0
SOLID
  5
1D6
330
1D2
100
AcDbEntity
  8
VERMASSUNG
100
AcDbTrace
 10
250.112567714
 20
122.3291440953
 30
0.0
 11
249.662567714
 21
119.3291440953
 31
0.0
 12
250.562567714
 22
119.3291440953
 32
0.0
 13
250.562567714
 23
119.3291440953
 33
0.0
  0
LINE
  5
1D7
330
1D2
100
AcDbEntity
  8
VERMASSUNG
100
AcDbLine
 10
236.8958044465
 20
95.3291440953
 30
0.0
 11
251.112567714
 21
95.3291440953
 31
0.0
  0
LINE
  5
1D8
330
1D2
100
AcDbEntity
  8
VERMASSUNG
100
AcDbLine
 10
236.8958044465
 20
122.3291440953
 30
0.0
 11
251.112567714
 21
122.3291440953
 31
0.0
  0
LINE
  5
1D9
330
1D2
100
AcDbEntity
  8
VERMASSUNG
100
AcDbLine
 10
250.112567714
 20
95.3291440953
 30
0.0
 11
250.112567714
 21
122.3291440953
 31
0.0
  0
MTEXT
  5
1DA
330
1D2
100
AcDbEntity
  8
VERMASSUNG
100
AcDbMText
 10
247.5344322344
 20
105.6254268689
 30
0.0
 40
2.0
 41
0.0
 71
     1
 72
     1
  1
%%c
  7
SLDTEXTSTYLE0
 11
6.123233995736766E-17
 21
1.0
 31
0.0
 73
     1
 44
1.0
  0
MTEXT
  5
1DB
330
1D2
100
AcDbEntity
  8
VERMASSUNG
100
AcDbMText
 10
247.5344323508
 20
109.2341050921
 30
0.0
 40
2.0
 41
0.0
 71
     1
 72
     1
  1
27
  7
SLDTEXTSTYLE0
 11
6.123233995736766E-17
 21
1.0
 31
0.0
 73
     1
 44
1.0
  0
ENDBLK
  5
1D4
330
1D2
100
AcDbEntity
  8
0
100
AcDbBlockEnd
  0
BLOCK
  5
1DE
330
1DD
100
AcDbEntity
  8
0
100
AcDbBlockBegin
  2
*D5
 70
     1
 10
0.0
 20
0.0
 30
0.0
  3
*D5
  1

  0
SOLID
  5
1E0
330
1DD
100
AcDbEntity
  8
VERMASSUNG
100
AcDbTrace
 10
106.8958044465
 20
168.8291440953
 30
0.0
 11
109.8958044465
 21
168.3791440953
 31
0.0
 12
109.8958044465
 22
169.2791440953
 32
0.0
 13
109.8958044465
 23
169.2791440953
 33
0.0
  0
SOLID
  5
1E1
330
1DD
100
AcDbEntity
  8
VERMASSUNG
100
AcDbTrace
 10
236.8958044465
 20
168.8291440953
 30
0.0
 11
233.8958044465
 21
169.2791440953
 31
0.0
 12
233.8958044465
 22
168.3791440953
 32
0.0
 13
233.8958044465
 23
168.3791440953
 33
0.0
  0
LINE
  5
1E2
330
1DD
100
AcDbEntity
  8
VERMASSUNG
100
AcDbLine
 10
106.8958044465
 20
158.3291440953
 30
0.0
 11
106.8958044465
 21
169.8291440953
 31
0.0
  0
LINE
  5
1E3
330
1DD
100
AcDbEntity
  8
VERMASSUNG
100
AcDbLine
 10
236.8958044465
 20
120.480363112
 30
0.0
 11
236.8958044465
 21
169.8291440953
 31
0.0
  0
LINE
  5
1E4
330
1DD
100
AcDbEntity
  8
VERMASSUNG
100
AcDbLine
 10
106.8958044465
 20
168.8291440953
 30
0.0
 11
236.8958044465
 21
168.8291440953
 31
0.0
  0
MTEXT
  5
1E5
330
1DD
100
AcDbEntity
  8
VERMASSUNG
100
AcDbMText
 10
169.9963169059
 20
171.4072794585
 30
0.0
 40
2.0
 41
0.0
 71
     1
 72
     1
  1
130
  7
SLDTEXTSTYLE0
 73
     1
 44
1.0
  0
ENDBLK
  5
1DF
330
1DD
100
AcDbEntity
  8
0
100
AcDbBlockEnd
  0
BLOCK
  5
1E8
330
1E7
100
AcDbEntity
  8
0
100
AcDbBlockBegin
  2
*D6
 70
     1
 10
0.0
 20
0.0
 30
0.0
  3
*D6
  1

  0
SOLID
  5
1EA
330
1E7
100
AcDbEntity
  8
VERMASSUNG
100
AcDbTrace
 10
135.8458044465
 20
162.8291440953
 30
0.0
 11
138.8458044465
 21
162.3791440953
 31
0.0
 12
138.8458044465
 22
163.2791440953
 32
0.0
 13
138.8458044465
 23
163.2791440953
 33
0.0
  0
SOLID
  5
1EB
330
1E7
100
AcDbEntity
  8
VERMASSUNG
100
AcDbTrace
 10
236.8958044465
 20
162.8291440953
 30
0.0
 11
233.8958044465
 21
163.2791440953
 31
0.0
 12
233.8958044465
 22
162.3791440953
 32
0.0
 13
233.8958044465
 23
162.3791440953
 33
0.0
  0
LINE
  5
1EC
330
1E7
100
AcDbEntity
  8
VERMASSUNG
100
AcDbLine
 10
135.8458044465
 20
156.7978839162
 30
0.0
 11
135.8458044465
 21
163.8291440953
 31
0.0
  0
LINE
  5
1ED
330
1E7
100
AcDbEntity
  8
VERMASSUNG
100
AcDbLine
 10
236.8958044465
 20
120.480363112
 30
0.0
 11
236.8958044465
 21
163.8291440953
 31
0.0
  0
LINE
  5
1EE
330
1E7
100
AcDbEntity
  8
VERMASSUNG
100
AcDbLine
 10
135.8458044465
 20
162.8291440953
 30
0.0
 11
236.8958044465
 21
162.8291440953
 31
0.0
  0
MTEXT
  5
1EF
330
1E7
100
AcDbEntity
  8
VERMASSUNG
100
AcDbMText
 10
182.9709886286
 20
165.4072794585
 30
0.0
 40
2.0
 41
0.0
 71
     1
 72
     1
  1
101.05
  7
SLDTEXTSTYLE0
 73
     1
 44
1.0
  0
ENDBLK
  5
1E9
330
1E7
100
AcDbEntity
  8
0
100
AcDbBlockEnd
  0
BLOCK
  5
1F2
330
1F1
100
AcDbEntity
  8
0
100
AcDbBlockBegin
  2
*D7
 70
     1
 10
0.0
 20
0.0
 30
0.0
  3
*D7
  1

  0
SOLID
  5
1F4
330
1F1
100
AcDbEntity
  8
VERMASSUNG
100
AcDbTrace
 10
56.9958044465
 20
174.8291440953
 30
0.0
 11
59.9958044465
 21
174.3791440953
 31
0.0
 12
59.9958044465
 22
175.2791440953
 32
0.0
 13
59.9958044465
 23
175.2791440953
 33
0.0
  0
SOLID
  5
1F5
330
1F1
100
AcDbEntity
  8
VERMASSUNG
100
AcDbTrace
 10
236.8958044465
 20
174.8291440953
 30
0.0
 11
233.8958044465
 21
175.2791440953
 31
0.0
 12
233.8958044465
 22
174.3791440953
 32
0.0
 13
233.8958044465
 23
174.3791440953
 33
0.0
  0
LINE
  5
1F6
330
1F1
100
AcDbEntity
  8
VERMASSUNG
100
AcDbLine
 10
56.9958044465
 20
139.3318138379
 30
0.0
 11
56.9958044465
 21
175.8291440953
 31
0.0
  0
LINE
  5
1F7
330
1F1
100
AcDbEntity
  8
VERMASSUNG
100
AcDbLine
 10
236.8958044465
 20
120.480363112
 30
0.0
 11
236.8958044465
 21
175.8291440953
 31
0.0
  0
LINE
  5
1F8
330
1F1
100
AcDbEntity
  8
VERMASSUNG
100
AcDbLine
 10
56.9958044465
 20
174.8291440953
 30
0.0
 11
236.8958044465
 21
174.8291440953
 31
0.0
  0
MTEXT
  5
1F9
330
1F1
100
AcDbEntity
  8
VERMASSUNG
100
AcDbMText
 10
144.0460980543
 20
177.4072794585
 30
0.0
 40
2.0
 41
0.0
 71
     1
 72
     1
  1
179.9
  7
SLDTEXTSTYLE0
 73
     1
 44
1.0
  0
ENDBLK
  5
1F3
330
1F1
100
AcDbEntity
  8
0
100
AcDbBlockEnd
  0
BLOCK
  5
1FC
330
1FB
100
AcDbEntity
  8
0
100
AcDbBlockBegin
  2
*D8
 70
     1
 10
0.0
 20
0.0
 30
0.0
  3
*D8
  1

  0
SOLID
  5
1FE
330
1FB
100
AcDbEntity
  8
VERMASSUNG
100
AcDbTrace
 10
256.112567714
 20
127.3291440953
 30
0.0
 11
255.662567714
 21
124.3291440953
 31
0.0
 12
256.562567714
 22
124.3291440953
 32
0.0
 13
256.562567714
 23
124.3291440953
 33
0.0
  0
SOLID
  5
1FF
330
1FB
100
AcDbEntity
  8
VERMASSUNG
100
AcDbTrace
 10
256.112567714
 20
90.3291440953
 30
0.0
 11
256.562567714
 21
93.3291440953
 31
0.0
 12
255.662567714
 22
93.3291440953
 32
0.0
 13
255.662567714
 23
93.3291440953
 33
0.0
  0
LINE
  5
200
330
1FB
100
AcDbEntity
  8
VERMASSUNG
100
AcDbLine
 10
157.8458044465
 20
127.3291440953
 30
0.0
 11
257.112567714
 21
127.3291440953
 31
0.0
  0
LINE
  5
201
330
1FB
100
AcDbEntity
  8
VERMASSUNG
100
AcDbLine
 10
157.8458044465
 20
90.3291440953
 30
0.0
 11
257.112567714
 21
90.3291440953
 31
0.0
  0
LINE
  5
202
330
1FB
100
AcDbEntity
  8
VERMASSUNG
100
AcDbLine
 10
256.112567714
 20
127.3291440953
 30
0.0
 11
256.112567714
 21
90.3291440953
 31
0.0
  0
MTEXT
  5
203
330
1FB
100
AcDbEntity
  8
VERMASSUNG
100
AcDbMText
 10
253.5344322344
 20
105.6254268689
 30
0.0
 40
2.0
 41
0.0
 71
     1
 72
     1
  1
%%c
  7
SLDTEXTSTYLE0
 11
-7.044195017643634E-15
 21
1.0
 31
0.0
 73
     1
 44
1.0
  0
MTEXT
  5
204
330
1FB
100
AcDbEntity
  8
VERMASSUNG
100
AcDbMText
 10
253.5344323508
 20
109.2341050921
 30
0.0
 40
2.0
 41
0.0
 71
     1
 72
     1
  1
37
  7
SLDTEXTSTYLE0
 11
-7.044195017643634E-15
 21
1.0
 31
0.0
 73
     1
 44
1.0
  0
ENDBLK
  5
1FD
330
1FB
100
AcDbEntity
  8
0
100
AcDbBlockEnd
  0
ENDSEC
  0
SECTION
  2
ENTITIES
  0
MTEXT
  5
45
330
1F
100
AcDbEntity
  8
KOPF_DÜNN
100
AcDbMText
 10
13.8892156294
 20
23.8442973028
 30
0.0
 40
3.0
 41
0.0
 71
     1
 72
     1
  1
HA0.S14.K21.130
  7
SLDTEXTSTYLE0
 73
     1
 44
1.0
  0
MTEXT
  5
46
330
1F
100
AcDbEntity
  8
VERMASSUNG
100
AcDbMText
 10
13.9329988022
 20
28.8834360957
 30
0.0
 40
3.0
 41
0.0
 71
     1
 72
     1
  1
Schrumpffutter_Heat shrink chuck
  7
SLDTEXTSTYLE0
 73
     1
 44
1.0
  0
MTEXT
  5
47
330
1F
100
AcDbEntity
  8
VERMASSUNG
100
AcDbMText
 10
98.8601118557
 20
13.8365368179
 30
0.0
 40
2.0
 41
0.0
 71
     1
 72
     1
  1
Datum: 02.05.2011
  7
SLDTEXTSTYLE0
 73
     1
 44
1.0
  0
MTEXT
  5
49
330
1F
100
AcDbEntity
  8
VERMASSUNG
100
AcDbMText
 10
13.933048693
 20
18.0482802738
 30
0.0
 40
2.0
 41
0.0
 71
     1
 72
     1
  1
DIN 69 893 HSK A 100
  7
SLDTEXTSTYLE1
 73
     1
 44
1.0
  0
MTEXT
  5
4A
330
1F
100
AcDbEntity
  8
VERMASSUNG
100
AcDbMText
 10
13.9808475933
 20
13.9090973692
 30
0.0
 40
2.0
 41
0.0
 71
     1
 72
     1
  1
Gewicht: 2593g
  7
SLDTEXTSTYLE0
 73
     1
 44
1.0
  0
LINE
  5
4B
330
1F
100
AcDbEntity
  8
0
  6
Continuous
 62
     7
370
    15
100
AcDbLine
 10
107.3958044465
 20
58.8291440953
 30
0.0
 11
111.8458044465
 21
58.8291440953
 31
0.0
  0
LINE
  5
4C
330
1F
100
AcDbEntity
  8
0
  6
Continuous
 62
     7
370
    15
100
AcDbLine
 10
111.861182418
 20
158.8291440953
 30
0.0
 11
107.3958044465
 21
158.8291440953
 31
0.0
  0
ARC
  5
4D
330
1F
100
AcDbEntity
  8
0
  6
Continuous
 62
     7
370
    15
100
AcDbCircle
 10
107.3958044465
 20
59.3291440953
 30
0.0
 40
0.5
100
AcDbArc
 50
180.0
 51
270.0
  0
ARC
  5
4E
330
1F
100
AcDbEntity
  8
0
  6
Continuous
 62
     7
370
    15
100
AcDbCircle
 10
107.3958044465
 20
158.3291440953
 30
0.0
 40
0.5
100
AcDbArc
 50
90.0
 51
180.0
  0
ARC
  5
4F
330
1F
100
AcDbEntity
  8
0
  6
Continuous
 62
     7
370
    15
100
AcDbCircle
 10
105.9988675281
 20
70.2006587709
 30
0.0
 40
0.9962338214386921
100
AcDbArc
 50
25.7988228126
 51
90.0
  0
ARC
  5
50
330
1F
100
AcDbEntity
  8
0
  6
Continuous
 62
     7
370
    15
100
AcDbCircle
 10
105.9988675281
 20
147.4576294198
 30
0.0
 40
0.9962338214386932
100
AcDbArc
 50
270.0
 51
334.2011771874
  0
LINE
  5
51
330
1F
100
AcDbEntity
  8
0
  6
Continuous
 62
     7
370
    15
100
AcDbLine
 10
104.3958044465
 20
70.9468925923
 30
0.0
 11
105.2016506009
 21
71.1628184186
 31
0.0
  0
LINE
  5
52
330
1F
100
AcDbEntity
  8
0
  6
Continuous
 62
     7
370
    15
100
AcDbLine
 10
105.2016506009
 20
146.4954697721
 30
0.0
 11
104.3958044465
 21
146.7113955983
 31
0.0
  0
LINE
  5
53
330
1F
100
AcDbEntity
  8
0
  6
Continuous
 62
     7
370
    15
100
AcDbLine
 10
85.4151255279
 20
145.7604597808
 30
0.0
 11
67.0958044465
 21
144.8426581234
 31
0.0
  0
LINE
  5
54
330
1F
100
AcDbEntity
  8
0
  6
Continuous
 62
     7
370
    15
100
AcDbLine
 10
104.3958044465
 20
146.7113955983
 30
0.0
 11
98.3277652921
 21
146.4073856207
 31
0.0
  0
LINE
  5
55
330
1F
100
AcDbEntity
  8
0
  6
Continuous
 62
     7
370
    15
100
AcDbLine
 10
98.3278885685
 20
71.2508963938
 30
0.0
 11
104.3958044465
 21
70.9468925923
 31
0.0
  0
LINE
  5
56
330
1F
100
AcDbEntity
  8
0
  6
Continuous
 62
     7
370
    15
100
AcDbLine
 10
72.0958044465
 20
72.5651290653
 30
0.0
 11
85.4157556005
 21
71.8977968431
 31
0.0
  0
ARC
  5
57
330
1F
100
AcDbEntity
  8
0
  6
Continuous
 62
     7
370
    15
100
AcDbCircle
 10
105.460469646
 20
70.1968925923
 30
0.0
 40
0.9999999999999858
100
AcDbArc
 50
90.0
 51
105.0
  0
ARC
  5
58
330
1F
100
AcDbEntity
  8
0
  6
Continuous
 62
     7
370
    15
100
AcDbCircle
 10
105.460469646
 20
147.4613955983
 30
0.0
 40
0.9999999999999716
100
AcDbArc
 50
255.0
 51
270.0
  0
LINE
  5
59
330
1F
100
AcDbEntity
  8
0
  6
Continuous
 62
     7
370
    15
100
AcDbLine
 10
105.460469646
 20
71.1968925923
 30
0.0
 11
105.9988675281
 21
71.1968925923
 31
0.0
  0
LINE
  5
5A
330
1F
100
AcDbEntity
  8
0
  6
Continuous
 62
     7
370
    15
100
AcDbLine
 10
105.9988675281
 20
146.4613955983
 30
0.0
 11
105.460469646
 21
146.4613955983
 31
0.0
  0
ARC
  5
5B
330
1F
100
AcDbEntity
  8
0
  6
Continuous
 62
     7
370
    15
100
AcDbCircle
 10
140.8458044465
 20
85.3291440953
 30
0.0
 40
5.0
100
AcDbArc
 50
90.0
 51
180.0
  0
ARC
  5
5C
330
1F
100
AcDbEntity
  8
0
  6
Continuous
 62
     7
370
    15
100
AcDbCircle
 10
140.8458044465
 20
132.3291440953
 30
0.0
 40
5.0
100
AcDbArc
 50
180.0
 51
270.0
  0
LINE
  5
5D
330
1F
100
AcDbEntity
  8
0
  6
Continuous
 62
     7
370
    15
100
AcDbLine
 10
152.3445250368
 20
90.3291440953
 30
0.0
 11
157.8458044465
 21
90.3291440953
 31
0.0
  0
LINE
  5
5E
330
1F
100
AcDbEntity
  8
0
  6
Continuous
 62
     7
370
    15
100
AcDbLine
 10
140.8458044465
 20
90.3291440953
 30
0.0
 11
145.3562606863
 21
90.3291440953
 31
0.0
  0
LINE
  5
5F
330
1F
100
AcDbEntity
  8
0
  6
Continuous
 62
     7
370
    15
100
AcDbLine
 10
145.3523781323
 20
127.3291440953
 30
0.0
 11
140.8458044465
 21
127.3291440953
 31
0.0
  0
LINE
  5
60
330
1F
100
AcDbEntity
  8
0
  6
Continuous
 62
     7
370
    15
100
AcDbLine
 10
157.8458044465
 20
127.3291440953
 30
0.0
 11
152.3391189839
 21
127.3291440953
 31
0.0
  0
ARC
  5
61
330
1F
100
AcDbEntity
  8
0
  6
Continuous
 62
     7
370
    15
100
AcDbCircle
 10
192.0181616962
 20
-298.1708559047
 30
0.0
 40
390.0
100
AcDbArc
 50
90.0
 51
95.026784317
  0
ARC
  5
62
330
1F
100
AcDbEntity
  8
0
  6
Continuous
 62
     7
370
    15
100
AcDbCircle
 10
192.0181616962
 20
515.8291440953
 30
0.0
 40
390.0
100
AcDbArc
 50
264.973215683
 51
270.0
  0
LINE
  5
63
330
1F
100
AcDbEntity
  8
0
  6
Continuous
 62
     7
370
    15
100
AcDbLine
 10
58.6458044465
 20
76.5791440953
 30
0.0
 11
70.1958044465
 21
76.5791440953
 31
0.0
  0
LINE
  5
64
330
1F
100
AcDbEntity
  8
0
  6
Continuous
 62
     7
370
    15
100
AcDbLine
 10
192.0181616962
 20
91.8291440953
 30
0.0
 11
192.4240878699
 21
91.8291440953
 31
0.0
  0
LINE
  5
65
330
1F
100
AcDbEntity
  8
0
  6
Continuous
 62
     7
370
    15
100
AcDbLine
 10
192.4240878699
 20
125.8291440953
 30
0.0
 11
192.0181616962
 21
125.8291440953
 31
0.0
  0
LINE
  5
66
330
1F
100
AcDbEntity
  8
0
  6
Continuous
 62
     7
370
    15
100
AcDbLine
 10
192.4240878699
 20
91.8291440953
 30
0.0
 11
235.052722638
 21
95.1840904112
 31
0.0
  0
LINE
  5
67
330
1F
100
AcDbEntity
  8
0
  6
Continuous
 62
     7
370
    15
100
AcDbLine
 10
235.052722638
 20
122.4741977795
 30
0.0
 11
192.4240878699
 21
125.8291440953
 31
0.0
  0
ARC
  5
68
330
1F
100
AcDbEntity
  8
0
  6
Continuous
 62
     7
370
    15
100
AcDbCircle
 10
70.1958044465
 20
74.6791440953
 30
0.0
 40
1.899999999999996
100
AcDbArc
 50
35.6630613694
 51
90.0
  0
ARC
  5
69
330
1F
100
AcDbEntity
  8
0
  6
Continuous
 62
     7
370
    15
100
AcDbCircle
 10
65.1958044465
 20
142.9791440953
 30
0.0
 40
1.899999999999996
100
AcDbArc
 50
270.0
 51
310.9212832533
  0
LINE
  5
6A
330
1F
100
AcDbEntity
  8
0
  6
Continuous
 62
     7
370
    15
100
AcDbLine
 10
58.6458044465
 20
141.0791440953
 30
0.0
 11
57.0525880846
 21
139.4859277334
 31
0.0
  0
LINE
  5
6B
330
1F
100
AcDbEntity
  8
0
  6
Continuous
 62
     7
370
    15
100
AcDbLine
 10
57.0533713416
 20
78.1715772003
 30
0.0
 11
58.6458044465
 21
76.5791440953
 31
0.0
  0
LINE
  5
6C
330
1F
100
AcDbEntity
  8
0
  6
Continuous
 62
     7
370
    15
100
AcDbLine
 10
65.1958044465
 20
141.0791440953
 30
0.0
 11
58.6458044465
 21
141.0791440953
 31
0.0
  0
ARC
  5
6D
330
1F
100
AcDbEntity
  8
0
  6
Continuous
 62
     7
370
    15
100
AcDbCircle
 10
234.8958044465
 20
97.1779250787
 30
0.0
 40
2.000000000000004
100
AcDbArc
 50
274.5
 51
0.0
  0
ARC
  5
6E
330
1F
100
AcDbEntity
  8
0
  6
Continuous
 62
     7
370
    15
100
AcDbCircle
 10
234.8958044465
 20
120.480363112
 30
0.0
 40
2.000000000000004
100
AcDbArc
 50
0.0
 51
85.5
  0
LINE
  5
6F
330
1F
100
AcDbEntity
  8
0
  6
Continuous
 62
     7
370
    15
100
AcDbLine
 10
236.8958044465
 20
97.464775835
 30
0.0
 11
236.9731266537
 21
97.6117411774
 31
0.0
  0
LINE
  5
70
330
1F
100
AcDbEntity
  8
0
  6
Continuous
 62
     7
370
    15
100
AcDbLine
 10
236.91423693
 20
120.0488607968
 30
0.0
 11
236.8958044465
 21
120.0838951854
 31
0.0
  0
SPLINE
  5
71
330
1F
100
AcDbEntity
  8
0
  6
Continuous
 62
     7
370
    15
100
AcDbSpline
210
0.0
220
0.0
230
1.0
 70
     8
 71
     3
 72
    80
 73
    76
 74
     0
 42
0.00000001
 43
0.00000001
 40
-0.0312500000000001
 40
-0.0312500000000001
 40
0.0
 40
0.0
 40
0.0312499999999995
 40
0.0312499999999995
 40
0.0468749999999993
 40
0.0468749999999993
 40
0.0624999999999991
 40
0.0624999999999991
 40
0.0937499999999988
 40
0.0937499999999988
 40
0.1249999999999986
 40
0.1249999999999986
 40
0.1562499999999983
 40
0.1562499999999983
 40
0.1874999999999981
 40
0.1874999999999981
 40
0.2187499999999978
 40
0.2187499999999978
 40
0.2499999999999976
 40
0.2499999999999976
 40
0.2812499999999973
 40
0.2812499999999973
 40
0.3124999999999971
 40
0.3124999999999971
 40
0.3281249999999971
 40
0.3281249999999971
 40
0.3437499999999971
 40
0.3437499999999971
 40
0.3749999999999973
 40
0.3749999999999973
 40
0.4062499999999975
 40
0.4062499999999975
 40
0.4218749999999975
 40
0.4218749999999975
 40
0.4374999999999974
 40
0.4374999999999974
 40
0.4687499999999973
 40
0.4687499999999973
 40
0.4999999999999972
 40
0.4999999999999972
 40
0.531249999999997
 40
0.531249999999997
 40
0.562499999999997
 40
0.562499999999997
 40
0.5937499999999969
 40
0.5937499999999969
 40
0.6249999999999969
 40
0.6249999999999969
 40
0.6562499999999968
 40
0.6562499999999968
 40
0.6874999999999968
 40
0.6874999999999968
 40
0.7031249999999968
 40
0.7031249999999968
 40
0.7187499999999969
 40
0.7187499999999969
 40
0.7499999999999973
 40
0.7499999999999973
 40
0.7812499999999979
 40
0.7812499999999979
 40
0.7968749999999982
 40
0.7968749999999982
 40
0.8124999999999984
 40
0.8124999999999984
 40
0.8437499999999988
 40
0.8437499999999988
 40
0.874999999999999
 40
0.874999999999999
 40
0.9062499999999993
 40
0.9062499999999993
 40
0.9374999999999996
 40
0.9374999999999996
 40
0.9687499999999999
 40
0.9687499999999999
 40
1.0
 40
1.0
 40
1.03125
 40
1.03125
 10
115.5652591337624
 20
152.2437735589725
 30
0.0
 10
116.226349759315
 20
152.2437735589725
 30
0.0
 10
116.5513298885666
 20
152.2599817903547
 30
0.0
 10
117.0308032998131
 20
152.3073464223743
 30
0.0
 10
117.1892851176539
 20
152.3270006342649
 30
0.0
 10
117.5035046501581
 20
152.3741117904576
 30
0.0
 10
117.6596249338385
 20
152.4016931099523
 30
0.0
 10
118.1136789627951
 20
152.494228896746
 30
0.0
 10
118.4007823457349
 20
152.5692993303425
 30
0.0
 10
118.944136901762
 20
152.7445376389531
 30
0.0
 10
119.2012405129675
 20
152.8455389367914
 30
0.0
 10
119.6621467679063
 20
153.0628951352523
 30
0.0
 10
119.8690444771213
 20
153.1800594670245
 30
0.0
 10
120.2345697911135
 20
153.4301293912532
 30
0.0
 10
120.3897753132395
 20
153.5610754800121
 30
0.0
 10
120.6392056998392
 20
153.8268104237245
 30
0.0
 10
120.7352956556243
 20
153.9635640170355
 30
0.0
 10
120.8638145048179
 20
154.2376295918745
 30
0.0
 10
120.8956253749957
 20
154.3725696823433
 30
0.0
 10
120.895982024769
 20
154.638041319412
 30
0.0
 10
120.8634847725719
 20
154.7698657965533
 30
0.0
 10
120.7358592988574
 20
155.0193153961737
 30
0.0
 10
120.6414308978055
 20
155.1377480881017
 30
0.0
 10
120.45357007782
 20
155.3066172851958
 30
0.0
 10
120.3827420790168
 20
155.361703280316
 30
0.0
 10
120.2280201870515
 20
155.4669561088044
 30
0.0
 10
120.1440437168681
 20
155.5172913375647
 30
0.0
 10
119.8727200472237
 20
155.6618671701028
 30
0.0
 10
119.6661708286213
 20
155.7497287565198
 30
0.0
 10
119.1995606884323
 20
155.9094498495193
 30
0.0
 10
118.9471951188068
 20
155.9786881459865
 30
0.0
 10
118.5412937771281
 20
156.0684755352163
 30
0.0
 10
118.4013931596507
 20
156.0960414973026
 30
0.0
 10
118.1121692244037
 20
156.1465322982288
 30
0.0
 10
117.9623297681144
 20
156.1694957370795
 30
0.0
 10
117.5082131985037
 20
156.2301262534984
 30
0.0
 10
117.1965619797668
 20
156.2602002822942
 30
0.0
 10
116.5555655148544
 20
156.3007898695528
 30
0.0
 10
116.2240378869023
 20
156.3111020997689
 30
0.0
 10
115.5712468418308
 20
156.3111776669346
 30
0.0
 10
115.246710636799
 20
156.3012760614669
 30
0.0
 10
114.6014411873825
 20
156.2607895309417
 30
0.0
 10
114.2856981812198
 20
156.230328231057
 30
0.0
 10
113.6838088862361
 20
156.1501775596204
 30
0.0
 10
113.3930596554247
 20
156.0998953278132
 30
0.0
 10
112.8461478637401
 20
155.9792251450403
 30
0.0
 10
112.5943704999032
 20
155.9100012858702
 30
0.0
 10
112.1329825072821
 20
155.7525495582296
 30
0.0
 10
111.921713227684
 20
155.6632010835558
 30
0.0
 10
111.5584088753078
 20
155.469953212855
 30
0.0
 10
111.404602226865
 20
155.3658252209757
 30
0.0
 10
111.2159827572676
 20
155.1972008347923
 30
0.0
 10
111.1599522710585
 20
155.1385724331173
 30
0.0
 10
111.0643785093223
 20
155.0191175182911
 30
0.0
 10
111.0246155922973
 20
154.9581977294529
 30
0.0
 10
110.9288438419852
 20
154.771793003279
 30
0.0
 10
110.8961210028591
 20
154.642680185484
 30
0.0
 10
110.89549241653
 20
154.3740232625281
 30
0.0
 10
110.9276785612648
 20
154.2386525217713
 30
0.0
 10
111.0225892631204
 20
154.0351022135353
 30
0.0
 10
111.0620560465193
 20
153.9671302894719
 30
0.0
 10
111.1569860452402
 20
153.831038066341
 30
0.0
 10
111.2127428730036
 20
153.7626879661316
 30
0.0
 10
111.4006829909735
 20
153.5619849530894
 30
0.0
 10
111.5540444606896
 20
153.4325966792768
 30
0.0
 10
111.91630869557
 20
153.1839312472269
 30
0.0
 10
112.1271571690359
 20
153.0641216048587
 30
0.0
 10
112.5878271393548
 20
152.8465993172861
 30
0.0
 10
112.8392015189386
 20
152.7475142174501
 30
0.0
 10
113.3851094058368
 20
152.5708417435333
 30
0.0
 10
113.675931980488
 20
152.4947846553993
 30
0.0
 10
114.2772585952681
 20
152.3719396780463
 30
0.0
 10
114.5917771798804
 20
152.3242335529931
 30
0.0
 10
115.2383586360004
 20
152.2599850178736
 30
0.0
 10
115.5652591337624
 20
152.2437735589725
 30
0.0
 10
116.226349759315
 20
152.2437735589725
 30
0.0
  0
LINE
  5
72
330
1F
100
AcDbEntity
  8
0
  6
Continuous
 62
     7
370
    15
100
AcDbLine
 10
111.8458044465
 20
140.1791440953
 30
0.0
 11
123.6337754256
 21
140.1791440953
 31
0.0
  0
LINE
  5
73
330
1F
100
AcDbEntity
  8
0
  6
Continuous
 62
     7
370
    15
100
AcDbLine
 10
123.6337754256
 20
60.0541505023
 30
0.0
 11
123.6337754256
 21
140.1791440953
 31
0.0
  0
LINE
  5
74
330
1F
100
AcDbEntity
  8
0
  6
Continuous
 62
     7
370
    15
100
AcDbLine
 10
123.6337754256
 20
60.0541505023
 30
0.0
 11
121.8458044465
 21
60.0541505023
 31
0.0
  0
SPLINE
  5
75
330
1F
100
AcDbEntity
  8
0
  6
Continuous
 62
     7
370
    15
100
AcDbSpline
210
0.0
220
0.0
230
1.0
 70
     8
 71
     3
 72
    30
 73
    26
 74
     0
 42
0.00000001
 43
0.00000001
 40
0.0
 40
0.0
 40
0.0
 40
0.0
 40
0.1250000000000002
 40
0.1250000000000002
 40
0.1875000000000003
 40
0.1875000000000003
 40
0.2500000000000004
 40
0.2500000000000004
 40
0.3750000000000001
 40
0.3750000000000001
 40
0.4374999999999998
 40
0.4374999999999998
 40
0.4999999999999996
 40
0.4999999999999996
 40
0.6249999999999996
 40
0.6249999999999996
 40
0.6874999999999997
 40
0.6874999999999997
 40
0.7499999999999997
 40
0.7499999999999997
 40
0.8124999999999998
 40
0.8124999999999998
 40
0.8749999999999999
 40
0.8749999999999999
 40
1.0
 40
1.0
 40
1.0
 40
1.0
 10
121.8458044465387
 20
60.05415050231246
 30
0.0
 10
121.1830597526936
 20
60.05415050231247
 30
0.0
 10
120.5318038935779
 20
60.03931042572366
 30
0.0
 10
119.5713533553197
 20
59.99694086149403
 30
0.0
 10
119.2539619120867
 20
59.97946275871487
 30
0.0
 10
118.6247984105318
 20
59.93813447216256
 30
0.0
 10
118.3126502240901
 20
59.91420919870486
 30
0.0
 10
117.4053429222419
 20
59.83540268223795
 30
0.0
 10
116.8319179646006
 20
59.77309666226149
 30
0.0
 10
116.0180410950259
 20
59.66996734202213
 30
0.0
 10
115.7532348984561
 20
59.63378342297562
 30
0.0
 10
115.2463274876417
 20
59.55998863877511
 30
0.0
 10
115.0049333362882
 20
59.52251478000346
 30
0.0
 10
114.3157918641559
 20
59.40980283666373
 30
0.0
 10
113.9027370492917
 20
59.33426673918995
 30
0.0
 10
113.3545822299166
 20
59.22587348217245
 30
0.0
 10
113.185119622571
 20
59.19080125050919
 30
0.0
 10
112.8771023745556
 20
59.12456578990934
 30
0.0
 10
112.7377223539473
 20
59.09323909315462
 30
0.0
 10
112.4879368413205
 20
59.03483032157369
 30
0.0
 10
112.3775307286666
 20
59.00774708639084
 30
0.0
 10
112.1862728750289
 20
58.95848733177726
 30
0.0
 10
112.1051533567446
 20
58.93622535196961
 30
0.0
 10
111.9110064366362
 20
58.87865844480133
 30
0.0
 10
111.8458044465387
 20
58.85239884001534
 30
0.0
 10
111.8458044465387
 20
58.83914509554131
 30
0.0
  0
LINE
  5
76
330
1F
100
AcDbEntity
  8
0
  6
Continuous
 62
     7
370
    15
100
AcDbLine
 10
111.8458044465
 20
58.8391450955
 30
0.0
 11
111.8458044465
 21
58.8291440953
 31
0.0
  0
SPLINE
  5
77
330
1F
100
AcDbEntity
  8
0
  6
Continuous
 62
     7
370
    15
100
AcDbSpline
210
0.0
220
0.0
230
1.0
 70
     8
 71
     3
 72
    23
 73
    19
 74
     0
 42
0.00000001
 43
0.00000001
 40
0.0
 40
0.0
 40
0.0
 40
0.0
 40
0.0520256687590417
 40
0.1044186119084699
 40
0.1579654762732603
 40
0.2119084390155455
 40
0.2639329008030786
 40
0.3697142245600881
 40
0.4235868577364621
 40
0.4762679679182533
 40
0.5833878371337101
 40
0.6379530306539528
 40
0.6910551819358521
 40
0.7445319929992287
 40
0.7992014233075218
 40
0.8542881036302091
 40
0.9066815619543741
 40
1.0
 40
1.0
 40
1.0
 40
1.0
 10
121.8458044465387
 20
157.8189389510048
 30
0.0
 10
121.5727920493437
 20
157.8202605195116
 30
0.0
 10
121.0248399282295
 20
157.8229129861174
 30
0.0
 10
120.2016935707743
 20
157.844387874545
 30
0.0
 10
119.380448470182
 20
157.8786055932131
 30
0.0
 10
118.5790196600739
 20
157.9256575033804
 30
0.0
 10
117.5466364059309
 20
158.0026464542063
 30
0.0
 10
116.5693883913069
 20
158.0985237048667
 30
0.0
 10
115.6683413800509
 20
158.205453152655
 30
0.0
 10
114.8193676009495
 20
158.3172999604954
 30
0.0
 10
114.0617991553413
 20
158.4315285592248
 30
0.0
 10
113.4168108648918
 20
158.5381083055885
 30
0.0
 10
112.992236991694
 20
158.6120382619897
 30
0.0
 10
112.6296803420449
 20
158.6779288200465
 30
0.0
 10
112.3284787849212
 20
158.7346251712607
 30
0.0
 10
112.1012252128865
 20
158.7785614174954
 30
0.0
 10
111.895117915664
 20
158.8192198643234
 30
0.0
 10
111.874430977631
 20
158.8234033037129
 30
0.0
 10
111.8611824180192
 20
158.8260825086317
 30
0.0
  0
LINE
  5
78
330
1F
100
AcDbEntity
  8
0
  6
Continuous
 62
     7
370
    15
100
AcDbLine
 10
123.6337754256
 20
157.818938951
 30
0.0
 11
121.8458044465
 21
157.818938951
 31
0.0
  0
LINE
  5
79
330
1F
100
AcDbEntity
  8
0
  6
Continuous
 62
     7
370
    15
100
AcDbLine
 10
123.6337754256
 20
147.7801068562
 30
0.0
 11
123.6337754256
 21
157.818938951
 31
0.0
  0
LINE
  5
7A
330
1F
100
AcDbEntity
  8
0
  6
Continuous
 62
     7
370
    15
100
AcDbLine
 10
121.5537712947
 20
147.7801068562
 30
0.0
 11
123.6337754256
 21
147.7801068562
 31
0.0
  0
SPLINE
  5
7B
330
1F
100
AcDbEntity
  8
0
  6
Continuous
 62
     7
370
    15
100
AcDbSpline
210
0.0
220
0.0
230
1.0
 70
     8
 71
     3
 72
    22
 73
    18
 74
     0
 42
0.00000001
 43
0.00000001
 40
0.0
 40
0.0
 40
0.0
 40
0.0
 40
0.2500000000000002
 40
0.2500000000000002
 40
0.3750000000000003
 40
0.3750000000000003
 40
0.5000000000000004
 40
0.5000000000000004
 40
0.6250000000000004
 40
0.6250000000000004
 40
0.7500000000000004
 40
0.7500000000000004
 40
0.8750000000000004
 40
0.8750000000000004
 40
0.9375000000000002
 40
0.9375000000000002
 40
1.0
 40
1.0
 40
1.0
 40
1.0
 10
111.8458044465387
 20
140.1791440953413
 30
0.0
 10
112.0485294024578
 20
141.1983904372059
 30
0.0
 10
112.3632731242531
 20
142.1574985871452
 30
0.0
 10
113.0713285939241
 20
143.4999776646545
 30
0.0
 10
113.3497912241418
 20
143.9341862473945
 30
0.0
 10
113.988558630779
 20
144.7458139628966
 30
0.0
 10
114.3489723105692
 20
145.1250942558334
 30
0.0
 10
115.1665045425584
 20
145.8280528348544
 30
0.0
 10
115.6276725258456
 20
146.153081652555
 30
0.0
 10
116.6256627723294
 20
146.7180969759459
 30
0.0
 10
117.1654219663216
 20
146.9618005701524
 30
0.0
 10
118.340014930353
 20
147.3660004977974
 30
0.0
 10
118.9517511163448
 20
147.5184376908429
 30
0.0
 10
119.9036603412065
 20
147.6737652384516
 30
0.0
 10
120.2268935054672
 20
147.7132700185016
 30
0.0
 10
120.8859566767425
 20
147.7665791391703
 30
0.0
 10
121.2200206873164
 20
147.7801068562282
 30
0.0
 10
121.553771294718
 20
147.7801068562282
 30
0.0
  0
LINE
  5
7C
330
1F
100
AcDbEntity
  8
0
  6
Continuous
 62
     7
370
    15
100
AcDbLine
 10
134.8458044465
 20
60.0541505023
 30
0.0
 11
130.1578334675
 21
60.0541505023
 31
0.0
  0
LINE
  5
7D
330
1F
100
AcDbEntity
  8
0
  6
Continuous
 62
     7
370
    15
100
AcDbLine
 10
130.1578334675
 20
60.0541505023
 30
0.0
 11
130.1578334675
 21
140.1791440953
 31
0.0
  0
LINE
  5
7E
330
1F
100
AcDbEntity
  8
0
  6
Continuous
 62
     7
370
    15
100
AcDbLine
 10
130.1578334675
 20
140.1791440953
 30
0.0
 11
134.8458044465
 21
140.1791440953
 31
0.0
  0
SPLINE
  5
7F
330
1F
100
AcDbEntity
  8
0
  6
Continuous
 62
     7
370
    15
100
AcDbSpline
210
0.0
220
0.0
230
1.0
 70
     8
 71
     3
 72
     8
 73
     4
 74
     0
 42
0.00000001
 43
0.00000001
 40
0.0
 40
0.0
 40
0.0
 40
0.0
 40
1.0
 40
1.0
 40
1.0
 40
1.0
 10
130.1578334674601
 20
60.05415050231246
 30
0.0
 10
129.7067287380599
 20
60.85511043413238
 30
0.0
 10
129.2560309108165
 20
61.65630044569304
 30
0.0
 10
128.8058044465387
 20
62.45775580831781
 30
0.0
  0
LINE
  5
80
330
1F
100
AcDbEntity
  8
0
  6
Continuous
 62
     7
370
    15
100
AcDbLine
 10
128.8058044465
 20
62.4577558083
 30
0.0
 11
128.8058044465
 21
140.1791440953
 31
0.0
  0
SPLINE
  5
81
330
1F
100
AcDbEntity
  8
0
  6
Continuous
 62
     7
370
    15
100
AcDbSpline
210
0.0
220
0.0
230
1.0
 70
    24
 71
     3
 72
     8
 73
     4
 74
     0
 42
0.00000001
 43
0.00000001
 40
0.0
 40
0.0
 40
0.0
 40
0.0
 40
1.0
 40
1.0
 40
1.0
 40
1.0
 10
128.8058044465387
 20
140.1791440953413
 30
0.0
 10
129.2500173288926
 20
140.1791440953413
 30
0.0
 10
129.7010318951318
 20
140.1791440953413
 30
0.0
 10
130.1578334674601
 20
140.1791440953413
 30
0.0
  0
LINE
  5
82
330
1F
100
AcDbEntity
  8
0
  6
Continuous
 62
     7
370
    15
100
AcDbLine
 10
106.8958044465
 20
59.3291440953
 30
0.0
 11
106.8958044465
 21
158.3291440909
 31
0.0
  0
LINE
  5
83
330
1F
100
AcDbEntity
  8
0
  6
Continuous
 62
     7
370
    15
100
AcDbLine
 10
135.8458044465
 20
61.0797985501
 30
0.0
 11
135.8458044465
 21
140.1791440953
 31
0.0
  0
SPLINE
  5
84
330
1F
100
AcDbEntity
  8
0
  6
Continuous
 62
     7
370
    15
100
AcDbSpline
210
0.0
220
0.0
230
1.0
 70
     8
 71
     3
 72
    14
 73
    10
 74
     0
 42
0.00000001
 43
0.00000001
 40
0.0
 40
0.0
 40
0.0
 40
0.0
 40
0.25
 40
0.25
 40
0.5
 40
0.5
 40
0.75
 40
0.75
 40
1.0
 40
1.0
 40
1.0
 40
1.0
 10
135.8458044465387
 20
61.07979855008797
 30
0.0
 10
135.8458044465387
 20
60.94637285403343
 30
0.0
 10
135.8204933466278
 20
60.81452504618908
 30
0.0
 10
135.7221585827831
 20
60.56800249749498
 30
0.0
 10
135.649014578527
 20
60.45419730925443
 30
0.0
 10
135.4655765174313
 20
60.26374013230716
 30
0.0
 10
135.3538901830927
 20
60.18610526845725
 30
0.0
 10
135.1113867527864
 20
60.08181385834477
 30
0.0
 10
134.9780123240922
 20
60.05415050231242
 30
0.0
 10
134.8458044465387
 20
60.05415050231243
 30
0.0
  0
SPLINE
  5
85
330
1F
100
AcDbEntity
  8
0
  6
Continuous
 62
     7
370
    15
100
AcDbSpline
210
0.0
220
0.0
230
1.0
 70
    24
 71
     3
 72
    12
 73
     8
 74
     0
 42
0.00000001
 43
0.00000001
 40
0.0
 40
0.0
 40
0.0
 40
0.0
 40
0.2500000000000032
 40
0.2500000000000032
 40
0.5000000000000064
 40
0.5000000000000064
 40
1.0
 40
1.0
 40
1.0
 40
1.0
 10
134.8458044465387
 20
140.1791440953413
 30
0.0
 10
134.9978946834837
 20
140.1791440953413
 30
0.0
 10
135.1463539445591
 20
140.1791440953413
 30
0.0
 10
135.4037575768248
 20
140.1791440953413
 30
0.0
 10
135.5128623246667
 20
140.1791440953413
 30
0.0
 10
135.7669218010743
 20
140.1791440953413
 30
0.0
 10
135.8458044465387
 20
140.1791440953413
 30
0.0
 10
135.8458044465387
 20
140.1791440953413
 30
0.0
  0
LINE
  5
86
330
1F
100
AcDbEntity
  8
0
  6
Continuous
 62
     7
370
    15
100
AcDbLine
 10
124.9858044465
 20
62.4577558083
 30
0.0
 11
124.9858044465
 21
140.1791440953
 31
0.0
  0
SPLINE
  5
87
330
1F
100
AcDbEntity
  8
0
  6
Continuous
 62
     7
370
    15
100
AcDbSpline
210
0.0
220
0.0
230
1.0
 70
     8
 71
     3
 72
     8
 73
     4
 74
     0
 42
0.00000001
 43
0.00000001
 40
0.0
 40
0.0
 40
0.0
 40
0.0
 40
1.0
 40
1.0
 40
1.0
 40
1.0
 10
124.9858044465387
 20
62.45775580831781
 30
0.0
 10
124.5355779822609
 20
61.65630044569304
 30
0.0
 10
124.0848801550175
 20
60.85511043413238
 30
0.0
 10
123.6337754256173
 20
60.05415050231246
 30
0.0
  0
SPLINE
  5
88
330
1F
100
AcDbEntity
  8
0
  6
Continuous
 62
     7
370
    15
100
AcDbSpline
210
0.0
220
0.0
230
1.0
 70
    24
 71
     3
 72
     8
 73
     4
 74
     0
 42
0.00000001
 43
0.00000001
 40
0.0
 40
0.0
 40
0.0
 40
0.0
 40
1.0
 40
1.0
 40
1.0
 40
1.0
 10
123.6337754256173
 20
140.1791440953413
 30
0.0
 10
124.0905769979455
 20
140.1791440953413
 30
0.0
 10
124.5415915641847
 20
140.1791440953413
 30
0.0
 10
124.9858044465387
 20
140.1791440953413
 30
0.0
  0
SPLINE
  5
89
330
1F
100
AcDbEntity
  8
0
  6
Continuous
 62
     7
370
    15
100
AcDbSpline
210
0.0
220
0.0
230
1.0
 70
     8
 71
     3
 72
    12
 73
     8
 74
     0
 42
0.00000001
 43
0.00000001
 40
0.0
 40
0.0
 40
0.0
 40
0.0
 40
0.25
 40
0.25
 40
0.5
 40
0.5
 40
1.0
 40
1.0
 40
1.0
 40
1.0
 10
125.7858044465387
 20
64.18946863729164
 30
0.0
 10
125.6800437931897
 20
64.18946863729161
 30
0.0
 10
125.5720561650068
 20
64.16692913129121
 30
0.0
 10
125.3774614997412
 20
64.08235849929592
 30
0.0
 10
125.2885895869024
 20
64.01987684653712
 30
0.0
 10
125.0693972945765
 20
63.79048789506496
 30
0.0
 10
124.9858044465387
 20
63.57790455754257
 30
0.0
 10
124.9858044465387
 20
63.36596531294639
 30
0.0
  0
SPLINE
  5
8A
330
1F
100
AcDbEntity
  8
0
  6
Continuous
 62
     7
370
    15
100
AcDbSpline
210
0.0
220
0.0
230
1.0
 70
    24
 71
     3
 72
    14
 73
    10
 74
     0
 42
0.00000001
 43
0.00000001
 40
0.0
 40
0.0
 40
0.0
 40
0.0
 40
0.25
 40
0.25
 40
0.5
 40
0.5
 40
0.75
 40
0.75
 40
1.0
 40
1.0
 40
1.0
 40
1.0
 10
124.9858044465387
 20
140.1791440953413
 30
0.0
 10
124.9858044465387
 20
140.1791440953413
 30
0.0
 10
125.0015187670046
 20
140.1791440953413
 30
0.0
 10
125.065202745473
 20
140.1791440953413
 30
0.0
 10
125.1138059398834
 20
140.1791440953413
 30
0.0
 10
125.246489462309
 20
140.1791440953413
 30
0.0
 10
125.3315915666197
 20
140.1791440953413
 30
0.0
 10
125.5380338015297
 20
140.1791440953413
 30
0.0
 10
125.6621147431528
 20
140.1791440953413
 30
0.0
 10
125.7858044465387
 20
140.1791440953413
 30
0.0
  0
SPLINE
  5
8B
330
1F
100
AcDbEntity
  8
0
  6
Continuous
 62
     7
370
    15
100
AcDbSpline
210
0.0
220
0.0
230
1.0
 70
     8
 71
     3
 72
    14
 73
    10
 74
     0
 42
0.00000001
 43
0.00000001
 40
0.0
 40
0.0
 40
0.0
 40
0.0
 40
0.25
 40
0.25
 40
0.5
 40
0.5
 40
0.75
 40
0.75
 40
1.0
 40
1.0
 40
1.0
 40
1.0
 10
128.8058044465387
 20
63.36596531294639
 30
0.0
 10
128.8058044465387
 20
63.47300939394076
 30
0.0
 10
128.7856867593805
 20
63.57824453418321
 30
0.0
 10
128.7071955701149
 20
63.7760950210309
 30
0.0
 10
128.6490389453137
 20
63.86714678459582
 30
0.0
 10
128.5025236896956
 20
64.0203128785206
 30
0.0
 10
128.4138811410545
 20
64.08260732473
 30
0.0
 10
128.2181578182542
 20
64.167401110266
 30
0.0
 10
128.1129266271833
 20
64.18946863729163
 30
0.0
 10
128.0058044465387
 20
64.18946863729164
 30
0.0
  0
SPLINE
  5
8C
330
1F
100
AcDbEntity
  8
0
  6
Continuous
 62
     7
370
    15
100
AcDbSpline
210
0.0
220
0.0
230
1.0
 70
    24
 71
     3
 72
    14
 73
    10
 74
     0
 42
0.00000001
 43
0.00000001
 40
0.0
 40
0.0
 40
0.0
 40
0.0
 40
0.25
 40
0.25
 40
0.5
 40
0.5
 40
0.75
 40
0.75
 40
1.0
 40
1.0
 40
1.0
 40
1.0
 10
128.0058044465387
 20
140.1791440953413
 30
0.0
 10
128.1295742113038
 20
140.1791440953413
 30
0.0
 10
128.2539413153107
 20
140.1791440953413
 30
0.0
 10
128.4602977840368
 20
140.1791440953413
 30
0.0
 10
128.5456259274551
 20
140.1791440953413
 30
0.0
 10
128.6778179861703
 20
140.1791440953413
 30
0.0
 10
128.7264632299209
 20
140.1791440953413
 30
0.0
 10
128.7899990216497
 20
140.1791440953413
 30
0.0
 10
128.8058044465387
 20
140.1791440953413
 30
0.0
 10
128.8058044465387
 20
140.1791440953413
 30
0.0
  0
LINE
  5
8D
330
1F
100
AcDbEntity
  8
0
  6
Continuous
 62
     7
370
    15
100
AcDbLine
 10
128.0058044465
 20
64.1894686373
 30
0.0
 11
125.7858044465
 21
64.1894686373
 31
0.0
  0
LINE
  5
8E
330
1F
100
AcDbEntity
  8
0
  6
Continuous
 62
     7
370
    15
100
AcDbLine
 10
125.7858044465
 20
140.1791440953
 30
0.0
 11
128.0058044465
 21
140.1791440953
 31
0.0
  0
LINE
  5
8F
330
1F
100
AcDbEntity
  8
0
  6
Continuous
 62
     7
370
    15
100
AcDbLine
 10
104.3958044465
 20
70.9468925923
 30
0.0
 11
104.3958044465
 21
146.7113955983
 31
0.0
  0
LINE
  5
90
330
1F
100
AcDbEntity
  8
0
  6
Continuous
 62
     7
370
    15
100
AcDbLine
 10
72.0958044465
 20
72.5651290653
 30
0.0
 11
72.0958044465
 21
74.95981083
 31
0.0
  0
SPLINE
  5
91
330
1F
100
AcDbEntity
  8
0
  6
Continuous
 62
     7
370
    15
100
AcDbSpline
210
0.0
220
0.0
230
1.0
 70
     8
 71
     3
 72
    14
 73
    10
 74
     0
 42
0.00000001
 43
0.00000001
 40
0.0
 40
0.0
 40
0.0
 40
0.0
 40
0.25
 40
0.25
 40
0.5
 40
0.5
 40
0.75
 40
0.75
 40
1.0
 40
1.0
 40
1.0
 40
1.0
 10
71.09138197520171
 20
76.66266275159775
 30
0.0
 10
71.18015055314704
 20
76.50412862028979
 30
0.0
 10
71.30186839182595
 20
76.35168594340124
 30
0.0
 10
71.53691800168278
 20
76.05455131957231
 30
0.0
 10
71.65254818789968
 20
75.90986867595495
 30
0.0
 10
71.8529531213275
 20
75.62657947345154
 30
0.0
 10
71.93835341331182
 20
75.48802548041469
 30
0.0
 10
72.06005904702906
 20
75.21664145038115
 30
0.0
 10
72.09580444654169
 20
75.08450558174654
 30
0.0
 10
72.09580444654168
 20
74.95981082997577
 30
0.0
  0
SPLINE
  5
92
330
1F
100
AcDbEntity
  8
0
  6
Continuous
 62
     7
370
    15
100
AcDbSpline
210
0.0
220
0.0
230
1.0
 70
     8
 71
     3
 72
    14
 73
    10
 74
     0
 42
0.00000001
 43
0.00000001
 40
0.0
 40
0.0
 40
0.0
 40
0.0
 40
0.124999999999999
 40
0.124999999999999
 40
0.249999999999998
 40
0.249999999999998
 40
0.5000000000000007
 40
0.5000000000000007
 40
1.0
 40
1.0
 40
1.0
 40
1.0
 10
70.19580444653867
 20
77.29149269069785
 30
0.0
 10
70.26338674632316
 20
77.29864857579923
 30
0.0
 10
70.33587432407107
 20
77.29422410576022
 30
0.0
 10
70.468165433337
 20
77.26451794798989
 30
0.0
 10
70.52544281272718
 20
77.24123366641166
 30
0.0
 10
70.67509323992746
 20
77.16374842656133
 30
0.0
 10
70.74880653544896
 20
77.10189659965997
 30
0.0
 10
70.9366145187752
 20
76.91721914701165
 30
0.0
 10
71.02065482513666
 20
76.78897622372044
 30
0.0
 10
71.09138197520292
 20
76.66266275159785
 30
0.0
  0
SPLINE
  5
93
330
1F
100
AcDbEntity
  8
0
  6
Continuous
 62
     7
370
    15
100
AcDbSpline
210
0.0
220
0.0
230
1.0
 70
     8
 71
     3
 72
     8
 73
     4
 74
     0
 42
0.00000001
 43
0.00000001
 40
0.0
 40
0.0
 40
0.0
 40
0.0
 40
1.0
 40
1.0
 40
1.0
 40
1.0
 10
66.6511640584579
 20
76.87344410590607
 30
0.0
 10
67.81646236916676
 20
77.0286315777927
 30
0.0
 10
69.00107758320658
 20
77.164990216103
 30
0.0
 10
70.19580444653867
 20
77.29149269069785
 30
0.0
  0
SPLINE
  5
94
330
1F
100
AcDbEntity
  8
0
  6
Continuous
 62
     7
370
    15
100
AcDbSpline
210
0.0
220
0.0
230
1.0
 70
     8
 71
     3
 72
    14
 73
    10
 74
     0
 42
0.00000001
 43
0.00000001
 40
0.0
 40
0.0
 40
0.0
 40
0.0
 40
0.4999999999999972
 40
0.4999999999999972
 40
0.7499999999999971
 40
0.7499999999999971
 40
0.8749999999999986
 40
0.8749999999999986
 40
1.0
 40
1.0
 40
1.0
 40
1.0
 10
58.89572956250998
 20
76.58331192677615
 30
0.0
 10
60.20403112504372
 20
76.59032665051727
 30
0.0
 10
61.50909049970053
 20
76.60573522696177
 30
0.0
 10
63.45496655118886
 20
76.65963178242843
 30
0.0
 10
64.10166405492785
 20
76.68266334703112
 30
0.0
 10
65.06550641878219
 20
76.73360587190189
 30
0.0
 10
65.38574511071627
 20
76.75334079413507
 30
0.0
 10
66.02244033705868
 20
76.80282792260665
 30
0.0
 10
66.3391557453416
 20
76.83189270153586
 30
0.0
 10
66.65116405845792
 20
76.87344410590602
 30
0.0
  0
SPLINE
  5
95
330
1F
100
AcDbEntity
  8
0
  6
Continuous
 62
     7
370
    15
100
AcDbSpline
210
0.0
220
0.0
230
1.0
 70
     8
 71
     3
 72
    12
 73
     8
 74
     0
 42
0.00000001
 43
0.00000001
 40
0.0
 40
0.0
 40
0.0
 40
0.0
 40
0.2500000000000009
 40
0.2500000000000009
 40
0.5000000000000018
 40
0.5000000000000018
 40
1.0
 40
1.0
 40
1.0
 40
1.0
 10
65.19580444653867
 20
140.9156669868377
 30
0.0
 10
64.67710562471049
 20
140.9481897616859
 30
0.0
 10
64.1553940515055
 20
140.9714865028564
 30
0.0
 10
63.10910203500991
 20
141.0093320172785
 30
0.0
 10
62.58443040933965
 20
141.0236004917747
 30
0.0
 10
61.00758438680043
 20
141.057809979233
 30
0.0
 10
59.95262907225352
 20
141.0693094831769
 30
0.0
 10
58.89572956250829
 20
141.0749762639064
 30
0.0
  0
SPLINE
  5
96
330
1F
100
AcDbEntity
  8
0
  6
Continuous
 62
     7
370
    15
100
AcDbSpline
210
0.0
220
0.0
230
1.0
 70
     8
 71
     3
 72
    20
 73
    16
 74
     0
 42
0.00000001
 43
0.00000001
 40
0.0
 40
0.0
 40
0.0
 40
0.0
 40
0.2500000000000011
 40
0.2500000000000011
 40
0.5000000000000021
 40
0.5000000000000021
 40
0.7500000000000031
 40
0.7500000000000031
 40
0.8750000000000008
 40
0.8750000000000008
 40
0.9375000000000006
 40
0.9375000000000006
 40
0.9687500000000003
 40
0.9687500000000003
 40
1.0
 40
1.0
 40
1.0
 40
1.0
 10
67.09580444653868
 20
142.5737528323259
 30
0.0
 10
67.09580444653868
 20
142.4380705125791
 30
0.0
 10
67.04709265732204
 20
142.296983526439
 30
0.0
 10
66.87793123409685
 20
142.0049118077085
 30
0.0
 10
66.75615082017855
 20
141.8532630656181
 30
0.0
 10
66.45860372542903
 20
141.5508546254649
 30
0.0
 10
66.28469111972626
 20
141.3982659893416
 30
0.0
 10
65.96527628584444
 20
141.1729952254993
 30
0.0
 10
65.85023551039717
 20
141.0982721309886
 30
0.0
 10
65.64315118638075
 20
140.9988617217316
 30
0.0
 10
65.56704335157437
 20
140.967296629387
 30
0.0
 10
65.43564881202101
 20
140.9328532451941
 30
0.0
 10
65.38909559301956
 20
140.9238016734264
 30
0.0
 10
65.29276224193885
 20
140.913626024588
 30
0.0
 10
65.24350281858341
 20
140.9126762659129
 30
0.0
 10
65.1958044465367
 20
140.9156669868275
 30
0.0
  0
LINE
  5
97
330
1F
100
AcDbEntity
  8
0
  6
Continuous
 62
     7
370
    15
100
AcDbLine
 10
67.0958044465
 20
142.5737528323
 30
0.0
 11
67.0958044465
 21
144.8426581234
 31
0.0
  0
SPLINE
  5
98
330
1F
100
AcDbEntity
  8
0
  6
Continuous
 62
     7
370
    15
100
AcDbSpline
210
0.0
220
0.0
230
1.0
 70
     8
 71
     3
 72
    24
 73
    20
 74
     0
 42
0.00000001
 43
0.00000001
 40
0.0
 40
0.0
 40
0.0
 40
0.0
 40
0.0002934293894791
 40
0.062808005175641
 40
0.1260453927228619
 40
0.18907467666103
 40
0.2513200540860133
 40
0.3133304633786588
 40
0.3759158453762907
 40
0.4383740564599686
 40
0.5000631094857209
 40
0.5616593988040849
 40
0.6245050380644152
 40
0.6872231506510951
 40
0.7494953263230465
 40
0.8117583797535242
 40
0.8747365508229858
 40
0.9378980306234599
 40
1.0
 40
1.0
 40
1.0
 40
1.0
 10
85.4157607103781
 20
71.8978988370289
 30
0.0
 10
85.41556585749332
 20
71.89787452963492
 30
0.0
 10
85.37385796648216
 20
71.8926715779807
 30
0.0
 10
85.51897635801261
 20
71.9113062013112
 30
0.0
 10
85.87405529955186
 20
71.95382597985994
 30
0.0
 10
86.47863093709502
 20
72.02196226346177
 30
0.0
 10
87.2850662459112
 20
72.09521780047764
 30
0.0
 10
88.27054366983019
 20
72.15973714129554
 30
0.0
 10
89.40221326650972
 20
72.19830136935661
 30
0.0
 10
90.62450573667199
 20
72.201995875358
 30
0.0
 10
91.89183441812385
 20
72.15956989530903
 30
0.0
 10
93.15831994855037
 20
72.07132275452804
 30
0.0
 10
94.3744573123703
 20
71.94292948426137
 30
0.0
 10
95.49986780821106
 20
71.79028849566885
 30
0.0
 10
96.47728486976503
 20
71.62851388056451
 30
0.0
 10
97.28055034830754
 20
71.47598498746363
 30
0.0
 10
97.86904387130876
 20
71.35197124419624
 30
0.0
 10
98.25794998296081
 20
71.26704731791995
 30
0.0
 10
98.30471111369884
 20
71.25632100664114
 30
0.0
 10
98.32789392024124
 20
71.25100321394956
 30
0.0
  0
SPLINE
  5
99
330
1F
100
AcDbEntity
  8
0
  6
Continuous
 62
     7
370
    15
100
AcDbSpline
210
0.0
220
0.0
230
1.0
 70
     8
 71
     3
 72
    41
 73
    37
 74
     0
 42
0.00000001
 43
0.00000001
 40
0.0
 40
0.0
 40
0.0
 40
0.0
 40
0.0619930061482746
 40
0.1254347783466151
 40
0.1886508898234768
 40
0.2510246408607227
 40
0.3131658188976554
 40
0.3756581641417402
 40
0.4382227146727798
 40
0.4998044922940677
 40
0.56151641971787
 40
0.6240683094121985
 40
0.686725723240935
 40
0.7488365305144522
 40
0.8110685944253986
 40
0.8741742884451361
 40
0.9373212787645211
 40
0.9685511709617411
 40
0.9842086872487193
 40
0.9920641182531791
 40
0.996000486125535
 40
0.9979710794120144
 40
0.9989570090489596
 40
0.9994501359395065
 40
0.9996967403802177
 40
0.9998200529090742
 40
0.9998817117580818
 40
0.999912541829664
 40
0.9999279570273361
 40
0.9999356646666602
 40
0.9999395184964466
 40
0.9999414454138695
 40
0.9999424088732151
 40
0.9999433723329806
 40
0.9999501697010513
 40
1.0
 40
1.0
 40
1.0
 40
1.0
 10
98.32777258976324
 20
146.4072399587815
 30
0.0
 10
98.30420094441965
 20
146.4019304791316
 30
0.0
 10
98.25650678837458
 20
146.3911874381921
 30
0.0
 10
97.86446479894903
 20
146.3059583017366
 30
0.0
 10
97.27395074967883
 20
146.1813895230959
 30
0.0
 10
96.46991330363375
 20
146.028442576944
 30
0.0
 10
95.49383790345223
 20
145.8666860229905
 30
0.0
 10
94.37202916817174
 20
145.7144532550582
 30
0.0
 10
93.15849824838449
 20
145.5866733138569
 30
0.0
 10
91.89366754198528
 20
145.4988247621743
 30
0.0
 10
90.62562450454254
 20
145.4564392783036
 30
0.0
 10
89.40211714684143
 20
145.4601750862753
 30
0.0
 10
88.26861860642742
 20
145.4987705567234
 30
0.0
 10
87.28251279545323
 20
145.5632099280145
 30
0.0
 10
86.473884986666
 20
145.6367197352957
 30
0.0
 10
85.8772662915568
 20
145.7040334201075
 30
0.0
 10
85.56187500209873
 20
145.7419979713754
 30
0.0
 10
85.4518084333008
 20
145.7557970307073
 30
0.0
 10
85.4243890454866
 20
145.7592831046279
 30
0.0
 10
85.4174669946571
 20
145.7601623303213
 30
0.0
 10
85.4156987544737
 20
145.7603831049277
 30
0.0
 10
85.41523837530032
 20
145.7604383076384
 30
0.0
 10
85.41511421661552
 20
145.7604520474254
 30
0.0
 10
85.41507866212234
 20
145.7604554432564
 30
0.0
 10
85.41506751805225
 20
145.7604562715767
 30
0.0
 10
85.41506360485614
 20
145.7604564681656
 30
0.0
 10
85.41506206265132
 20
145.7604565120956
 30
0.0
 10
85.4150613956498
 20
145.7604565204023
 30
0.0
 10
85.41506108747205
 20
145.7604565212326
 30
0.0
 10
85.415060940706
 20
145.7604565206874
 30
0.0
 10
85.41506086775355
 20
145.7604565203575
 30
0.0
 10
85.41506083336117
 20
145.7604565199203
 30
0.0
 10
85.415060811116
 20
145.7604565200088
 30
0.0
 10
85.41506078400657
 20
145.7604565171738
 30
0.0
 10
85.41505826444522
 20
145.7604568040289
 30
0.0
 10
85.41509435436326
 20
145.7604521839283
 30
0.0
 10
85.4151261121859
 20
145.7604481184068
 30
0.0
  0
SPLINE
  5
9A
330
1F
100
AcDbEntity
  8
0
  6
Continuous
 62
     7
370
    15
100
AcDbSpline
210
0.0
220
0.0
230
1.0
 70
     8
 71
     3
 72
    20
 73
    16
 74
     0
 42
0.00000001
 43
0.00000001
 40
0.0
 40
0.0
 40
0.0
 40
0.0
 40
0.249999999999986
 40
0.249999999999986
 40
0.3749999999999789
 40
0.3749999999999789
 40
0.4374999999999789
 40
0.4374999999999789
 40
0.4999999999999789
 40
0.4999999999999789
 40
0.6249999999999835
 40
0.6249999999999835
 40
0.7499999999999879
 40
0.7499999999999879
 40
1.0
 40
1.0
 40
1.0
 40
1.0
 10
57.28661867825468
 20
78.15066094264056
 30
0.0
 10
57.31289089546809
 20
78.16997888372303
 30
0.0
 10
57.34357103772293
 20
78.1843675948248
 30
0.0
 10
57.41504190810485
 20
78.1774632329888
 30
0.0
 10
57.44306894514919
 20
78.17029722964038
 30
0.0
 10
57.4981525346467
 20
78.14059820293679
 30
0.0
 10
57.51904386319913
 20
78.12712456037545
 30
0.0
 10
57.56425251064459
 20
78.09192629485943
 30
0.0
 10
57.58865672304016
 20
78.07001806613218
 30
0.0
 10
57.6599890410916
 20
77.99789320613662
 30
0.0
 10
57.70188582591187
 20
77.94555266518657
 30
0.0
 10
57.77346178476775
 20
77.84806927328583
 30
0.0
 10
57.80428977458504
 20
77.80131550340741
 30
0.0
 10
57.88738970742062
 20
77.66802228756829
 30
0.0
 10
57.93224461279092
 20
77.58538488965308
 30
0.0
 10
57.97235668824349
 20
77.5062779948623
 30
0.0
  0
SPLINE
  5
9B
330
1F
100
AcDbEntity
  8
0
  6
Continuous
 62
     7
370
    15
100
AcDbSpline
210
0.0
220
0.0
230
1.0
 70
     8
 71
     3
 72
    14
 73
    10
 74
     0
 42
0.00000001
 43
0.00000001
 40
0.0
 40
0.0
 40
0.0
 40
0.0
 40
0.25
 40
0.25
 40
0.5
 40
0.5
 40
0.75
 40
0.75
 40
1.0
 40
1.0
 40
1.0
 40
1.0
 10
56.99580444653868
 20
78.32647435277335
 30
0.0
 10
56.99580444653869
 20
78.285227421749
 30
0.0
 10
57.00441416291993
 20
78.24832044946652
 30
0.0
 10
57.03550034249027
 20
78.18742038956711
 30
0.0
 10
57.05788989597433
 20
78.16323947002742
 30
0.0
 10
57.11263382715045
 20
78.12927187914416
 30
0.0
 10
57.14508406673564
 20
78.11935179517597
 30
0.0
 10
57.21508558146371
 20
78.11800058627112
 30
0.0
 10
57.25329608158625
 20
78.12615886296729
 30
0.0
 10
57.28661867825934
 20
78.15066094263537
 30
0.0
  0
LINE
  5
9C
330
1F
100
AcDbEntity
  8
0
  6
Continuous
 62
     7
370
    15
100
AcDbLine
 10
56.9958044465
 20
78.3264743528
 30
0.0
 11
56.9958044465
 21
139.3318138379
 31
0.0
  0
SPLINE
  5
9D
330
1F
100
AcDbEntity
  8
0
  6
Continuous
 62
     7
370
    15
100
AcDbSpline
210
0.0
220
0.0
230
1.0
 70
     8
 71
     3
 72
    10
 73
     6
 74
     0
 42
0.00000001
 43
0.00000001
 40
0.0
 40
0.0
 40
0.0
 40
0.0
 40
0.0592402688376383
 40
0.6438088530391344
 40
1.0
 40
1.0
 40
1.0
 40
1.0
 10
57.28661867825932
 20
139.5076272480471
 30
0.0
 10
57.28178642063812
 20
139.5108761546788
 30
0.0
 10
57.22927061850339
 20
139.5461844828345
 30
0.0
 10
57.13032042082461
 20
139.552438779393
 30
0.0
 10
57.08089189593327
 20
139.4972385417041
 30
0.0
 10
57.06217723118896
 20
139.4763385867809
 30
0.0
  0
SPLINE
  5
9E
330
1F
100
AcDbEntity
  8
0
  6
Continuous
 62
     7
370
    15
100
AcDbSpline
210
0.0
220
0.0
230
1.0
 70
     8
 71
     3
 72
     8
 73
     4
 74
     0
 42
0.00000001
 43
0.00000001
 40
0.0
 40
0.0
 40
0.0
 40
0.0
 40
1.0
 40
1.0
 40
1.0
 40
1.0
 10
57.01943811547488
 20
139.4393933389789
 30
0.0
 10
57.00408907683885
 20
139.4088832839829
 30
0.0
 10
56.99580444653868
 20
139.3725717284706
 30
0.0
 10
56.99580444653868
 20
139.3318138379092
 30
0.0
  0
SPLINE
  5
9F
330
1F
100
AcDbEntity
  8
0
  6
Continuous
 62
     7
370
    15
100
AcDbSpline
210
0.0
220
0.0
230
1.0
 70
     8
 71
     3
 72
    20
 73
    16
 74
     0
 42
0.00000001
 43
0.00000001
 40
0.0
 40
0.0
 40
0.0
 40
0.0
 40
0.2500000000000037
 40
0.2500000000000037
 40
0.3750000000000055
 40
0.3750000000000055
 40
0.5000000000000073
 40
0.5000000000000073
 40
0.5625000000000057
 40
0.5625000000000057
 40
0.625000000000004
 40
0.625000000000004
 40
0.7500000000000027
 40
0.7500000000000027
 40
1.0
 40
1.0
 40
1.0
 40
1.0
 10
57.97235668824111
 20
140.1520101958194
 30
0.0
 10
57.93236047041728
 20
140.073131789262
 30
0.0
 10
57.88724684257962
 20
139.9900021425705
 30
0.0
 10
57.80399262821309
 20
139.8565134782195
 30
0.0
 10
57.77377329959258
 20
139.8106484223376
 30
0.0
 10
57.70168506445117
 20
139.7124568699327
 30
0.0
 10
57.65976774704007
 20
139.6601470504091
 30
0.0
 10
57.58851714248861
 20
139.5881411476746
 30
0.0
 10
57.5642813301093
 20
139.566370935373
 30
0.0
 10
57.51868313992464
 20
139.530896277044
 30
0.0
 10
57.49788065032494
 20
139.5175260928664
 30
0.0
 10
57.4429396519058
 20
139.4879561807312
 30
0.0
 10
57.41487066381901
 20
139.4808296584293
 30
0.0
 10
57.34436783375617
 20
139.4739552869466
 30
0.0
 10
57.31294374596529
 20
139.4882704460337
 30
0.0
 10
57.2866186782567
 20
139.5076272480443
 30
0.0
  0
SPLINE
  5
A0
330
1F
100
AcDbEntity
  8
0
  6
Continuous
 62
     7
370
    15
100
AcDbSpline
210
0.0
220
0.0
230
1.0
 70
     8
 71
     3
 72
    10
 73
     6
 74
     0
 42
0.00000001
 43
0.00000001
 40
0.0
 40
0.0
 40
0.0
 40
0.0
 40
0.4999999999999989
 40
0.4999999999999989
 40
1.0
 40
1.0
 40
1.0
 40
1.0
 10
58.64580444653869
 20
141.0774292971613
 30
0.0
 10
58.52091617578849
 20
140.9464330190898
 30
0.0
 10
58.39946605772804
 20
140.8027201824248
 30
0.0
 10
58.1698820827706
 20
140.4921498897356
 30
0.0
 10
58.05960710737462
 20
140.3240808166725
 30
0.0
 10
57.97235668824111
 20
140.1520101958194
 30
0.0
  0
SPLINE
  5
A1
330
1F
100
AcDbEntity
  8
0
  6
Continuous
 62
     7
370
    15
100
AcDbSpline
210
0.0
220
0.0
230
1.0
 70
     8
 71
     3
 72
     8
 73
     4
 74
     0
 42
0.00000001
 43
0.00000001
 40
0.0
 40
0.0
 40
0.0
 40
0.0
 40
1.0
 40
1.0
 40
1.0
 40
1.0
 10
58.89572956250441
 20
141.0749762639059
 30
0.0
 10
58.80871153265605
 20
141.075442828693
 30
0.0
 10
58.72575750627612
 20
141.0764828482691
 30
0.0
 10
58.64580444653637
 20
141.0774292971613
 30
0.0
  0
SPLINE
  5
A2
330
1F
100
AcDbEntity
  8
0
  6
Continuous
 62
     7
370
    15
100
AcDbSpline
210
0.0
220
0.0
230
1.0
 70
     8
 71
     3
 72
     8
 73
     4
 74
     0
 42
0.00000001
 43
0.00000001
 40
0.0
 40
0.0
 40
0.0
 40
0.0
 40
1.0
 40
1.0
 40
1.0
 40
1.0
 10
58.64580444653637
 20
76.5808588935212
 30
0.0
 10
58.72575750627665
 20
76.58180534241346
 30
0.0
 10
58.80871153265713
 20
76.58284536198958
 30
0.0
 10
58.89572956250611
 20
76.58331192677666
 30
0.0
  0
SPLINE
  5
A3
330
1F
100
AcDbEntity
  8
0
  6
Continuous
 62
     7
370
    15
100
AcDbSpline
210
0.0
220
0.0
230
1.0
 70
     8
 71
     3
 72
    10
 73
     6
 74
     0
 42
0.00000001
 43
0.00000001
 40
0.0
 40
0.0
 40
0.0
 40
0.0
 40
0.4999999999999989
 40
0.4999999999999989
 40
1.0
 40
1.0
 40
1.0
 40
1.0
 10
57.97235668824018
 20
77.50627799486487
 30
0.0
 10
58.05960710737365
 20
77.3342073740115
 30
0.0
 10
58.16988208276981
 20
77.16613830094806
 30
0.0
 10
58.39946605772764
 20
76.85556800825825
 30
0.0
 10
58.52091617578828
 20
76.71185517159297
 30
0.0
 10
58.64580444653869
 20
76.58085889352125
 30
0.0
  0
SPLINE
  5
A4
330
1F
100
AcDbEntity
  8
0
  6
Continuous
 62
     7
370
    15
100
AcDbSpline
210
0.0
220
0.0
230
1.0
 70
     8
 71
     3
 72
     8
 73
     4
 74
     0
 42
0.00000001
 43
0.00000001
 40
0.0
 40
0.0
 40
0.0
 40
0.0
 40
1.0
 40
1.0
 40
1.0
 40
1.0
 10
124.9858044465387
 20
155.4264149560461
 30
0.0
 10
124.5354962108541
 20
156.2241300811598
 30
0.0
 10
124.0848023943305
 20
157.021628380817
 30
0.0
 10
123.6337754256173
 20
157.8189389510048
 30
0.0
  0
LINE
  5
A5
330
1F
100
AcDbEntity
  8
0
  6
Continuous
 62
     7
370
    15
100
AcDbLine
 10
124.9858044465
 20
144.7245916015
 30
0.0
 11
124.9858044465
 21
155.426414956
 31
0.0
  0
SPLINE
  5
A6
330
1F
100
AcDbEntity
  8
0
  6
Continuous
 62
     7
370
    15
100
AcDbSpline
210
0.0
220
0.0
230
1.0
 70
     8
 71
     3
 72
     8
 73
     4
 74
     0
 42
0.00000001
 43
0.00000001
 40
0.0
 40
0.0
 40
0.0
 40
0.0
 40
1.0
 40
1.0
 40
1.0
 40
1.0
 10
123.6337754256173
 20
147.7801068562282
 30
0.0
 10
124.0907017794168
 20
146.7641888865539
 30
0.0
 10
124.5419074212198
 20
145.7453930574628
 30
0.0
 10
124.9858044465387
 20
144.7245916014791
 30
0.0
  0
LINE
  5
A7
330
1F
100
AcDbEntity
  8
0
  6
Continuous
 62
     7
370
    15
100
AcDbLine
 10
134.8458044465
 20
157.818938951
 30
0.0
 11
130.1578334675
 21
157.818938951
 31
0.0
  0
LINE
  5
A8
330
1F
100
AcDbEntity
  8
0
  6
Continuous
 62
     7
370
    15
100
AcDbLine
 10
130.1578334675
 20
147.7801068562
 30
0.0
 11
134.8458044465
 21
147.7801068562
 31
0.0
  0
LINE
  5
A9
330
1F
100
AcDbEntity
  8
0
  6
Continuous
 62
     7
370
    15
100
AcDbLine
 10
130.1578334675
 20
147.7801068562
 30
0.0
 11
130.1578334675
 21
157.818938951
 31
0.0
  0
SPLINE
  5
AA
330
1F
100
AcDbEntity
  8
0
  6
Continuous
 62
     7
370
    15
100
AcDbSpline
210
0.0
220
0.0
230
1.0
 70
     8
 71
     3
 72
    14
 73
    10
 74
     0
 42
0.00000001
 43
0.00000001
 40
0.0
 40
0.0
 40
0.0
 40
0.0
 40
0.25
 40
0.25
 40
0.5
 40
0.5
 40
0.75
 40
0.75
 40
1.0
 40
1.0
 40
1.0
 40
1.0
 10
128.8058044465387
 20
154.5226953361893
 30
0.0
 10
128.8058044465387
 20
154.4163386424369
 30
0.0
 10
128.7854168903974
 20
154.3104981546768
 30
0.0
 10
128.7067825449359
 20
154.1139332411403
 30
0.0
 10
128.6480511852973
 20
154.0227624988532
 30
0.0
 10
128.5014422796947
 20
153.8708514098216
 30
0.0
 10
128.4120369596682
 20
153.808782573002
 30
0.0
 10
128.2181462270678
 20
153.7255145252433
 30
0.0
 10
128.111641237178
 20
153.7034198555137
 30
0.0
 10
128.0058044465387
 20
153.7034198555137
 30
0.0
  0
SPLINE
  5
AB
330
1F
100
AcDbEntity
  8
0
  6
Continuous
 62
     7
370
    15
100
AcDbSpline
210
0.0
220
0.0
230
1.0
 70
     8
 71
     3
 72
    12
 73
     8
 74
     0
 42
0.00000001
 43
0.00000001
 40
0.0
 40
0.0
 40
0.0
 40
0.0
 40
0.250000000000002
 40
0.250000000000002
 40
0.500000000000004
 40
0.500000000000004
 40
1.0
 40
1.0
 40
1.0
 40
1.0
 10
128.0058044465387
 20
142.4576755084138
 30
0.0
 10
128.1295053965186
 20
142.4576755084138
 30
0.0
 10
128.2536020087888
 20
142.4996691201463
 30
0.0
 10
128.4602571718759
 20
142.6374644467907
 30
0.0
 10
128.5452979386027
 20
142.7314380452555
 30
0.0
 10
128.7447765070763
 20
143.0462262514765
 30
0.0
 10
128.8058044465387
 20
143.2964652437041
 30
0.0
 10
128.8058044465387
 20
143.5433792878383
 30
0.0
  0
LINE
  5
AC
330
1F
100
AcDbEntity
  8
0
  6
Continuous
 62
     7
370
    15
100
AcDbLine
 10
124.9858044465
 20
144.7245916015
 30
0.0
 11
124.9858044465
 21
143.5433792878
 31
0.0
  0
SPLINE
  5
AD
330
1F
100
AcDbEntity
  8
0
  6
Continuous
 62
     7
370
    15
100
AcDbSpline
210
0.0
220
0.0
230
1.0
 70
     8
 71
     3
 72
    14
 73
    10
 74
     0
 42
0.00000001
 43
0.00000001
 40
0.0
 40
0.0
 40
0.0
 40
0.0
 40
0.25
 40
0.25
 40
0.5
 40
0.5
 40
0.75
 40
0.75
 40
1.0
 40
1.0
 40
1.0
 40
1.0
 10
124.9858044465387
 20
143.5433792878383
 30
0.0
 10
124.9858044465387
 20
143.4195124110491
 30
0.0
 10
125.0016635741663
 20
143.2952527342116
 30
0.0
 10
125.0650252196861
 20
143.0576443718057
 30
0.0
 10
125.1136149277355
 20
142.9408639870533
 30
0.0
 10
125.2459005325104
 20
142.7320614584443
 30
0.0
 10
125.331225323771
 20
142.6375507548516
 30
0.0
 10
125.5381165720771
 20
142.4995939540494
 30
0.0
 10
125.6620845179671
 20
142.4576755084137
 30
0.0
 10
125.7858044465387
 20
142.4576755084137
 30
0.0
  0
LINE
  5
AE
330
1F
100
AcDbEntity
  8
0
  6
Continuous
 62
     7
370
    15
100
AcDbLine
 10
125.7858044465
 20
142.4576755084
 30
0.0
 11
128.0058044465
 21
142.4576755084
 31
0.0
  0
LINE
  5
AF
330
1F
100
AcDbEntity
  8
0
  6
Continuous
 62
     7
370
    15
100
AcDbLine
 10
128.8058044465
 20
143.5433792878
 30
0.0
 11
128.8058044465
 21
144.7245916015
 31
0.0
  0
SPLINE
  5
B0
330
1F
100
AcDbEntity
  8
0
  6
Continuous
 62
     7
370
    15
100
AcDbSpline
210
0.0
220
0.0
230
1.0
 70
     8
 71
     3
 72
     8
 73
     4
 74
     0
 42
0.00000001
 43
0.00000001
 40
0.0
 40
0.0
 40
0.0
 40
0.0
 40
1.0
 40
1.0
 40
1.0
 40
1.0
 10
128.8058044465387
 20
144.7245916014791
 30
0.0
 10
129.2499544575642
 20
145.7459748324307
 30
0.0
 10
129.7010287678221
 20
146.7644593691991
 30
0.0
 10
130.1578334674601
 20
147.7801068562282
 30
0.0
  0
SPLINE
  5
B1
330
1F
100
AcDbEntity
  8
0
  6
Continuous
 62
     7
370
    15
100
AcDbSpline
210
0.0
220
0.0
230
1.0
 70
     8
 71
     3
 72
    16
 73
    12
 74
     0
 42
0.00000001
 43
0.00000001
 40
0.0
 40
0.0
 40
0.0
 40
0.0
 40
0.1249999999999978
 40
0.1249999999999978
 40
0.2499999999999955
 40
0.2499999999999955
 40
0.499999999999997
 40
0.499999999999997
 40
0.7499999999999984
 40
0.7499999999999984
 40
1.0
 40
1.0
 40
1.0
 40
1.0
 10
134.8458044465387
 20
147.7801068562282
 30
0.0
 10
134.9214421529499
 20
147.7801068562282
 30
0.0
 10
134.9977578173681
 20
147.7687618560933
 30
0.0
 10
135.14216855526
 20
147.7261093054547
 30
0.0
 10
135.2106150043685
 20
147.6951749807719
 30
0.0
 10
135.4055462569816
 20
147.5759186090043
 30
0.0
 10
135.5133874307625
 20
147.4657665953837
 30
0.0
 10
135.6821001789745
 20
147.2176305097256
 30
0.0
 10
135.7444645916981
 20
147.077288185722
 30
0.0
 10
135.8257685162065
 20
146.7890164942334
 30
0.0
 10
135.8458044465387
 20
146.6382115212535
 30
0.0
 10
135.8458044465387
 20
146.4878416299082
 30
0.0
  0
LINE
  5
B2
330
1F
100
AcDbEntity
  8
0
  6
Continuous
 62
     7
370
    15
100
AcDbLine
 10
135.8458044465
 20
146.4878416299
 30
0.0
 11
135.8458044465
 21
140.1791440953
 31
0.0
  0
SPLINE
  5
B3
330
1F
100
AcDbEntity
  8
0
  6
Continuous
 62
     7
370
    15
100
AcDbSpline
210
0.0
220
0.0
230
1.0
 70
     8
 71
     3
 72
    12
 73
     8
 74
     0
 42
0.00000001
 43
0.00000001
 40
0.0
 40
0.0
 40
0.0
 40
0.0
 40
0.4999999999999953
 40
0.4999999999999953
 40
0.7499999999999977
 40
0.7499999999999977
 40
1.0
 40
1.0
 40
1.0
 40
1.0
 10
135.8458044465387
 20
156.7978839161871
 30
0.0
 10
135.8458044465387
 20
157.0631533489535
 30
0.0
 10
135.7411977030522
 20
157.3256684546059
 30
0.0
 10
135.4645293513069
 20
157.6112060606432
 30
0.0
 10
135.3541640919549
 20
157.6875276775046
 30
0.0
 10
135.1100920433392
 20
157.7918698423447
 30
0.0
 10
134.9783395820074
 20
157.8189389510048
 30
0.0
 10
134.8458044465387
 20
157.8189389510048
 30
0.0
  0
LINE
  5
B4
330
1F
100
AcDbEntity
  8
0
  6
Continuous
 62
     7
370
    15
100
AcDbLine
 10
135.8458044465
 20
146.4878416299
 30
0.0
 11
135.8458044465
 21
156.7978839162
 31
0.0
  0
SPLINE
  5
B5
330
1F
100
AcDbEntity
  8
0
  6
Continuous
 62
     7
370
    15
100
AcDbSpline
210
0.0
220
0.0
230
1.0
 70
     8
 71
     3
 72
     8
 73
     4
 74
     0
 42
0.00000001
 43
0.00000001
 40
0.0
 40
0.0
 40
0.0
 40
0.0
 40
1.0
 40
1.0
 40
1.0
 40
1.0
 10
130.1578334674601
 20
157.8189389510048
 30
0.0
 10
129.7068064987468
 20
157.021628380817
 30
0.0
 10
129.2561126822232
 20
156.2241300811598
 30
0.0
 10
128.8058044465387
 20
155.4264149560461
 30
0.0
  0
LINE
  5
B6
330
1F
100
AcDbEntity
  8
0
  6
Continuous
 62
     7
370
    15
100
AcDbLine
 10
128.8058044465
 20
144.7245916015
 30
0.0
 11
128.8058044465
 21
155.426414956
 31
0.0
  0
SPLINE
  5
B7
330
1F
100
AcDbEntity
  8
0
  6
Continuous
 62
     7
370
    15
100
AcDbSpline
210
0.0
220
0.0
230
1.0
 70
     8
 71
     3
 72
    10
 73
     6
 74
     0
 42
0.00000001
 43
0.00000001
 40
0.0
 40
0.0
 40
0.0
 40
0.0
 40
0.5
 40
0.5
 40
1.0
 40
1.0
 40
1.0
 40
1.0
 10
125.7858044465387
 20
153.7034198555137
 30
0.0
 10
125.5732681326823
 20
153.7034198555137
 30
0.0
 10
125.3633319610283
 20
153.7948324421439
 30
0.0
 10
125.0696248200171
 20
154.0995773080481
 30
0.0
 10
124.9858044465387
 20
154.3117322779567
 30
0.0
 10
124.9858044465387
 20
154.5226953361893
 30
0.0
  0
LINE
  5
B8
330
1F
100
AcDbEntity
  8
0
  6
Continuous
 62
     7
370
    15
100
AcDbLine
 10
128.0058044465
 20
153.7034198555
 30
0.0
 11
125.7858044465
 21
153.7034198555
 31
0.0
  0
ARC
  5
B9
330
1F
100
AcDbEntity
  8
0
  6
Continuous
 62
     7
370
    15
100
AcDbCircle
 10
115.8960785067
 20
141.3959176109
 30
0.0
 40
11.44864639011294
100
AcDbArc
 50
77.6649884509
 51
102.4018279774
  0
LINE
  5
BA
330
1F
100
AcDbEntity
  8
0
  6
Continuous
 62
     7
370
    15
100
AcDbLine
 10
157.8458044465
 20
90.3291440953
 30
0.0
 11
157.8458044465
 21
127.3291440953
 31
0.0
  0
SPLINE
  5
BB
330
1F
100
AcDbEntity
  8
0
  6
Continuous
 62
     7
370
    15
100
AcDbSpline
210
0.0
220
0.0
230
1.0
 70
     8
 71
     3
 72
    36
 73
    32
 74
     0
 42
0.00000001
 43
0.00000001
 40
0.0
 40
0.0
 40
0.0
 40
0.0
 40
0.0357613722576527
 40
0.0587513450644423
 40
0.0798388081700857
 40
0.1226632230220695
 40
0.1444303390643936
 40
0.1669146488119486
 40
0.2125050862170838
 40
0.2356350186856509
 40
0.2609851458266377
 40
0.3123834852203732
 40
0.3384625442801772
 40
0.366965641632563
 40
0.4248179541335043
 40
0.4542164102240715
 40
0.4848436370423818
 40
0.5470974981364446
 40
0.5787958321522259
 40
0.6099841110857975
 40
0.641396223913505
 40
0.6735357952132693
 40
0.7059378823974439
 40
0.736012428356539
 40
0.7973900325835209
 40
0.828832425783895
 40
0.8556704492915483
 40
0.9105528265500118
 40
0.9387354336579358
 40
0.9616844615909628
 40
0.9999999999999999
 40
0.9999999999999999
 40
0.9999999999999999
 40
0.9999999999999999
 10
152.3391189838568
 20
127.328194058208
 30
0.0
 10
152.3372061038808
 20
127.3279177777694
 30
0.0
 10
152.3340634875761
 20
127.3274638844662
 30
0.0
 10
152.2806724815663
 20
127.3199245603515
 30
0.0
 10
152.2021178468592
 20
127.3089987915219
 30
0.0
 10
152.0896857930628
 20
127.2937293935615
 30
0.0
 10
151.945145338979
 20
127.2749934486765
 30
0.0
 10
151.7757064368035
 20
127.2537953171748
 30
0.0
 10
151.5742386688551
 20
127.2301055621756
 30
0.0
 10
151.3415536100832
 20
127.2050962202194
 30
0.0
 10
151.0774830571613
 20
127.1786577459117
 30
0.0
 10
150.7805926202292
 20
127.1525911114511
 30
0.0
 10
150.4556900262538
 20
127.128835197522
 30
0.0
 10
150.0986681213122
 20
127.1064847914511
 30
0.0
 10
149.7140974107944
 20
127.089054892899
 30
0.0
 10
149.3137587499103
 20
127.0784799755935
 30
0.0
 10
148.8944100248822
 20
127.0728524463612
 30
0.0
 10
148.4642084965739
 20
127.0758921598404
 30
0.0
 10
148.039628524043
 20
127.0875756340968
 30
0.0
 10
147.7252477436638
 20
127.1004336616682
 30
0.0
 10
147.4173882202182
 20
127.1170263464788
 30
0.0
 10
147.1162092399559
 20
127.1370812952988
 30
0.0
 10
146.8324319756721
 20
127.1594595977178
 30
0.0
 10
146.4814205246196
 20
127.1910353715883
 30
0.0
 10
146.1667228312212
 20
127.2243207028853
 30
0.0
 10
145.9062069019004
 20
127.255034867608
 30
0.0
 10
145.6903747501818
 20
127.2819541109371
 30
0.0
 10
145.5256806040918
 20
127.3039997650854
 30
0.0
 10
145.4218054787522
 20
127.3183970183409
 30
0.0
 10
145.359278859501
 20
127.3272147724015
 30
0.0
 10
145.3550333321565
 20
127.3278273065231
 30
0.0
 10
145.3523781323281
 20
127.3282103921476
 30
0.0
  0
SPLINE
  5
BC
330
1F
100
AcDbEntity
  8
0
  6
Continuous
 62
     7
370
    15
100
AcDbSpline
210
0.0
220
0.0
230
1.0
 70
     8
 71
     3
 72
    10
 73
     6
 74
     0
 42
0.00000001
 43
0.00000001
 40
0.0
 40
0.0
 40
0.0
 40
0.0
 40
0.0662302223957645
 40
0.5317874780763931
 40
1.0
 40
1.0
 40
1.0
 40
1.0
 10
146.112043143056
 20
127.231186441467
 30
0.0
 10
146.1197531491028
 20
127.2302959464119
 30
0.0
 10
146.1816597005727
 20
127.2231458251769
 30
0.0
 10
146.3105926276366
 20
127.209195571996
 30
0.0
 10
146.4385902100309
 20
127.1963790892344
 30
0.0
 10
146.5027709880882
 20
127.1899526253887
 30
0.0
  0
SPLINE
  5
BD
330
1F
100
AcDbEntity
  8
0
  6
Continuous
 62
     7
370
    15
100
AcDbSpline
210
0.0
220
0.0
230
1.0
 70
     8
 71
     3
 72
    70
 73
    66
 74
     0
 42
0.00000001
 43
0.00000001
 40
-0.03125
 40
-0.03125
 40
0.0
 40
0.0
 40
0.03125
 40
0.03125
 40
0.0625
 40
0.0625
 40
0.09375
 40
0.09375
 40
0.125
 40
0.125
 40
0.15625
 40
0.15625
 40
0.1875
 40
0.1875
 40
0.21875
 40
0.21875
 40
0.25
 40
0.25
 40
0.28125
 40
0.28125
 40
0.3125
 40
0.3125
 40
0.34375
 40
0.34375
 40
0.375
 40
0.375
 40
0.40625
 40
0.40625
 40
0.4375
 40
0.4375
 40
0.46875
 40
0.46875
 40
0.5
 40
0.5
 40
0.53125
 40
0.53125
 40
0.5625
 40
0.5625
 40
0.59375
 40
0.59375
 40
0.625
 40
0.625
 40
0.65625
 40
0.65625
 40
0.6875
 40
0.6875
 40
0.71875
 40
0.71875
 40
0.75
 40
0.75
 40
0.78125
 40
0.78125
 40
0.8125
 40
0.8125
 40
0.84375
 40
0.84375
 40
0.875
 40
0.875
 40
0.90625
 40
0.90625
 40
0.9375
 40
0.9375
 40
0.96875
 40
0.96875
 40
1.0
 40
1.0
 40
1.03125
 40
1.03125
 10
146.3332846247466
 20
110.9601578601987
 30
0.0
 10
146.6722573538392
 20
111.2283445066304
 30
0.0
 10
146.8516203882323
 20
111.3444605614083
 30
0.0
 10
147.2282110462923
 20
111.5444031955874
 30
0.0
 10
147.4265841172609
 20
111.6285479826354
 30
0.0
 10
147.8364924892101
 20
111.7626332072577
 30
0.0
 10
148.0447577651412
 20
111.8117224154108
 30
0.0
 10
148.4676088219636
 20
111.8757610737671
 30
0.0
 10
148.6839467841585
 20
111.8906355678984
 30
0.0
 10
149.1145425712617
 20
111.8848052081359
 30
0.0
 10
149.3272633597178
 20
111.8644469474477
 30
0.0
 10
149.7476369785874
 20
111.7893721230276
 30
0.0
 10
149.9569790826246
 20
111.7340302513446
 30
0.0
 10
150.361982601294
 20
111.5890687611493
 30
0.0
 10
150.5558214477205
 20
111.5004631963672
 30
0.0
 10
150.9259845384623
 20
111.2904537858804
 30
0.0
 10
151.1037873446697
 20
111.167829180237
 30
0.0
 10
151.4327496830574
 20
110.8910579842072
 30
0.0
 10
151.5817129134026
 20
110.7392468531681
 30
0.0
 10
151.8472020530169
 20
110.407375083519
 30
0.0
 10
151.9650321404589
 20
110.2246249591234
 30
0.0
 10
152.1556230112722
 20
109.8393487950274
 30
0.0
 10
152.2280917728509
 20
109.6390046796625
 30
0.0
 10
152.3250263864344
 20
109.2220563253648
 30
0.0
 10
152.348751943746
 20
109.0034209405758
 30
0.0
 10
152.3422502161364
 20
108.5748826414588
 30
0.0
 10
152.3126842094437
 20
108.3602980360128
 30
0.0
 10
152.2023687635066
 20
107.9417123090305
 30
0.0
 10
152.1233346074332
 20
107.7423503567843
 30
0.0
 10
151.9212274014317
 20
107.3618755220643
 30
0.0
 10
151.7983693354907
 20
107.1823817146007
 30
0.0
 10
151.5216940631494
 20
106.8552565731765
 30
0.0
 10
151.3651337336017
 20
106.7043683828569
 30
0.0
 10
151.0287902140128
 20
106.4366008117997
 30
0.0
 10
150.8495876547665
 20
106.3195649196409
 30
0.0
 10
150.470412134341
 20
106.1169957024325
 30
0.0
 10
150.2701597444142
 20
106.0318366649239
 30
0.0
 10
149.8631915523163
 20
105.897892998113
 30
0.0
 10
149.6547763508664
 20
105.848108920434
 30
0.0
 10
149.2280760141597
 20
105.7828109972019
 30
0.0
 10
149.0117043356584
 20
105.7678904799387
 30
0.0
 10
148.5836811852556
 20
105.7731080216076
 30
0.0
 10
148.3704361898257
 20
105.7929733606928
 30
0.0
 10
147.9455303068509
 20
105.8684218239464
 30
0.0
 10
147.7360814257567
 20
105.9239224286796
 30
0.0
 10
147.3339406035383
 20
106.0674937828726
 30
0.0
 10
147.1395760328696
 20
106.155807180688
 30
0.0
 10
146.7651730402525
 20
106.3679600082816
 30
0.0
 10
146.5868890871974
 20
106.4913086046891
 30
0.0
 10
146.2610008560019
 20
106.7653635103062
 30
0.0
 10
146.1114809925024
 20
106.9170301225907
 30
0.0
 10
145.8424837799103
 20
107.2533469319929
 30
0.0
 10
145.725296045032
 20
107.4361030850029
 30
0.0
 10
145.5364756060941
 20
107.818099126918
 30
0.0
 10
145.4629932819813
 20
108.0200652183586
 30
0.0
 10
145.3652232274032
 20
108.4435785988931
 30
0.0
 10
145.3426867963832
 20
108.6568465780701
 30
0.0
 10
145.3496061195841
 20
109.0863678199799
 30
0.0
 10
145.3801998139929
 20
109.3043579144767
 30
0.0
 10
145.4905093972363
 20
109.7198268813096
 30
0.0
 10
145.5708883767508
 20
109.9220029480097
 30
0.0
 10
145.7746569926584
 20
110.3032780399426
 30
0.0
 10
145.8962541299932
 20
110.4801640498664
 30
0.0
 10
146.1755053025355
 20
110.8089264313798
 30
0.0
 10
146.3332846247466
 20
110.9601578601987
 30
0.0
 10
146.6722573538392
 20
111.2283445066304
 30
0.0
  0
SPLINE
  5
BE
330
1F
100
AcDbEntity
  8
0
  6
Continuous
 62
     7
370
    15
100
AcDbSpline
210
0.0
220
0.0
230
1.0
 70
     8
 71
     3
 72
    37
 73
    33
 74
     0
 42
0.00000001
 43
0.00000001
 40
0.0
 40
0.0
 40
0.0
 40
0.0
 40
0.0247245036645815
 40
0.0480518899208635
 40
0.0691161430317028
 40
0.1119071179046583
 40
0.1336660088391352
 40
0.1558752525102249
 40
0.2009126093896622
 40
0.2237645340798513
 40
0.2487139659497833
 40
0.2992967066616417
 40
0.324959302200794
 40
0.3531019205296197
 40
0.4102127799702248
 40
0.4392275574027583
 40
0.4696742445054798
 40
0.5315502554999177
 40
0.5630484658565243
 40
0.5942487587617667
 40
0.6256707381820334
 40
0.6578096998518151
 40
0.6902057391991512
 40
0.720529511667266
 40
0.7823931135550817
 40
0.8140676204320502
 40
0.8414015545304426
 40
0.8972950313940261
 40
0.9259977916749691
 40
0.9493583217592946
 40
0.9970427586930033
 40
0.9999999999999999
 40
0.9999999999999999
 40
0.9999999999999999
 40
0.9999999999999999
 10
145.3562606862787
 20
90.3306319601888
 30
0.0
 10
145.3541919052244
 20
90.3303386029929
 30
0.0
 10
145.3501712445534
 20
90.3297684654534
 30
0.0
 10
145.3884084776822
 20
90.33519363778245
 30
0.0
 10
145.4547937213421
 20
90.3444940858828
 30
0.0
 10
145.5564377269826
 20
90.3584546837358
 30
0.0
 10
145.6903550507755
 20
90.37607942200468
 30
0.0
 10
145.8485182097064
 20
90.39623201980243
 30
0.0
 10
146.0385530823952
 20
90.41912005295636
 30
0.0
 10
146.2599040213645
 20
90.44365993818641
 30
0.0
 10
146.5119230066405
 20
90.46983980069851
 30
0.0
 10
146.7968369097492
 20
90.49610590248282
 30
0.0
 10
147.1105435840469
 20
90.52060460837203
 30
0.0
 10
147.4569489064219
 20
90.54414778185007
 30
0.0
 10
147.8321385876634
 20
90.56337821680053
 30
0.0
 10
148.225210524536
 20
90.5762624118609
 30
0.0
 10
148.6396599037116
 20
90.58455219844973
 30
0.0
 10
149.0676123719936
 20
90.58444066961245
 30
0.0
 10
149.4928860384686
 20
90.5756223348774
 30
0.0
 10
149.8098026130762
 20
90.56477720711736
 30
0.0
 10
150.12204326401
 20
90.54996966834997
 30
0.0
 10
150.4288272025601
 20
90.53144677610501
 30
0.0
 10
150.7201524485372
 20
90.51018858478584
 30
0.0
 10
151.0838436715682
 20
90.47946322384585
 30
0.0
 10
151.4139824972111
 20
90.44612041579427
 30
0.0
 10
151.6922710500167
 20
90.41440148363753
 30
0.0
 10
151.9273223562224
 20
90.3858660917477
 30
0.0
 10
152.1113116641906
 20
90.36169437585046
 30
0.0
 10
152.2358754589113
 20
90.34461610830432
 30
0.0
 10
152.3164208341777
 20
90.33335178659607
 30
0.0
 10
152.3518315212067
 20
90.32828598443795
 30
0.0
 10
152.3449281612656
 20
90.32926881682954
 30
0.0
 10
152.3445250367666
 20
90.32932620972502
 30
0.0
  0
SPLINE
  5
BF
330
1F
100
AcDbEntity
  8
0
  6
Continuous
 62
     7
370
    15
100
AcDbSpline
210
0.0
220
0.0
230
1.0
 70
     8
 71
     3
 72
     9
 73
     5
 74
     0
 42
0.00000001
 43
0.00000001
 40
0.0
 40
0.0
 40
0.0
 40
0.0
 40
0.3013459654892246
 40
1.0
 40
1.0
 40
1.0
 40
1.0
 10
146.7874099209602
 20
90.49389767567871
 30
0.0
 10
146.7571556745555
 20
90.49148727594324
 30
0.0
 10
146.6567586230951
 20
90.48348849709262
 30
0.0
 10
146.5661058878013
 20
90.4745679450285
 30
0.0
 10
146.5027709885488
 20
90.46833556533882
 30
0.0
  0
CIRCLE
  5
C0
330
1F
100
AcDbEntity
  8
0
  6
Continuous
 62
     7
370
    15
100
AcDbCircle
 10
148.8458044465
 20
108.8291440953
 30
0.0
 40
2.5
  0
LINE
  5
C1
330
1F
100
AcDbEntity
  8
0
  6
Continuous
 62
     7
370
    15
100
AcDbLine
 10
58.6458044465
 20
76.5791440953
 30
0.0
 11
58.6458044465
 21
76.5808588935
 31
0.0
  0
LINE
  5
C2
330
1F
100
AcDbEntity
  8
0
  6
Continuous
 62
     7
370
    15
100
AcDbLine
 10
192.4240878699
 20
91.8291440953
 30
0.0
 11
192.4240878699
 21
125.8291440953
 31
0.0
  0
LINE
  5
C3
330
1F
100
AcDbEntity
  8
0
  6
Continuous
 62
     7
370
    15
100
AcDbLine
 10
58.6458044465
 20
141.0791440953
 30
0.0
 11
58.6458044465
 21
141.0774292972
 31
0.0
  0
LINE
  5
C4
330
1F
100
AcDbEntity
  8
0
  6
Continuous
 62
     7
370
    15
100
AcDbLine
 10
236.8958044465
 20
97.1779250787
 30
0.0
 11
236.8958044465
 21
120.4803629305
 31
0.0
  0
LINE
  5
C5
330
1F
100
AcDbEntity
  8
0
  6
Continuous
 62
     7
370
    15
100
AcDbLine
 10
236.8958044465
 20
99.5797227643
 30
0.0
 11
236.9731266537
 21
97.6117411774
 31
0.0
  0
LINE
  5
C6
330
1F
100
AcDbEntity
  8
0
  6
Continuous
 62
     7
370
    15
100
AcDbLine
 10
236.907822582
 20
119.8856047383
 30
0.0
 11
236.8958044465
 21
119.5797227643
 31
0.0
  0
LINE
  5
C7
330
1F
100
AcDbEntity
  8
0
  6
Continuous
 62
     7
370
    15
100
AcDbLine
 10
236.91423693
 20
120.0488607968
 30
0.0
 11
236.907822582
 21
119.8856047383
 31
0.0
  0
SPLINE
  5
C8
330
1F
100
AcDbEntity
  8
0
  6
HIDDEN
 62
     7
370
     0
100
AcDbSpline
210
0.0
220
0.0
230
1.0
 70
     8
 71
     3
 72
    80
 73
    76
 74
     0
 42
0.00000001
 43
0.00000001
 40
-0.03125
 40
-0.03125
 40
0.0
 40
0.0
 40
0.0312500000000002
 40
0.0312500000000002
 40
0.0468750000000002
 40
0.0468750000000002
 40
0.0625000000000001
 40
0.0625000000000001
 40
0.0937499999999999
 40
0.0937499999999999
 40
0.1249999999999997
 40
0.1249999999999997
 40
0.1562499999999995
 40
0.1562499999999995
 40
0.1874999999999993
 40
0.1874999999999993
 40
0.2187499999999991
 40
0.2187499999999991
 40
0.2499999999999989
 40
0.2499999999999989
 40
0.2812499999999987
 40
0.2812499999999987
 40
0.3124999999999984
 40
0.3124999999999984
 40
0.3281249999999985
 40
0.3281249999999985
 40
0.3437499999999986
 40
0.3437499999999986
 40
0.3749999999999986
 40
0.3749999999999986
 40
0.4062499999999987
 40
0.4062499999999987
 40
0.4218749999999989
 40
0.4218749999999989
 40
0.4374999999999991
 40
0.4374999999999991
 40
0.4687499999999993
 40
0.4687499999999993
 40
0.4999999999999994
 40
0.4999999999999994
 40
0.5312499999999997
 40
0.5312499999999997
 40
0.5624999999999998
 40
0.5624999999999998
 40
0.59375
 40
0.59375
 40
0.6250000000000001
 40
0.6250000000000001
 40
0.6562500000000003
 40
0.6562500000000003
 40
0.6875000000000006
 40
0.6875000000000006
 40
0.7031250000000007
 40
0.7031250000000007
 40
0.7187500000000007
 40
0.7187500000000007
 40
0.7500000000000003
 40
0.7500000000000003
 40
0.78125
 40
0.78125
 40
0.7968749999999998
 40
0.7968749999999998
 40
0.8124999999999997
 40
0.8124999999999997
 40
0.8437499999999998
 40
0.8437499999999998
 40
0.8749999999999998
 40
0.8749999999999998
 40
0.9062499999999999
 40
0.9062499999999999
 40
0.9375
 40
0.9375
 40
0.96875
 40
0.96875
 40
1.0
 40
1.0
 40
1.03125
 40
1.03125
 10
115.5652591337624
 20
157.6886933518192
 30
0.0
 10
116.226349759315
 20
157.6886933518193
 30
0.0
 10
116.5513298885666
 20
157.6817952059924
 30
0.0
 10
117.030803299813
 20
157.6612687780119
 30
0.0
 10
117.1892851176539
 20
157.6527125509243
 30
0.0
 10
117.5035046501581
 20
157.6319861757067
 30
0.0
 10
117.6596249338385
 20
157.6197588755004
 30
0.0
 10
118.1136789627951
 20
157.5781895816711
 30
0.0
 10
118.400782345735
 20
157.5438452965733
 30
0.0
 10
118.944136901762
 20
157.4605211722511
 30
0.0
 10
119.2012405129675
 20
157.4110829494766
 30
0.0
 10
119.6621467679063
 20
157.2997032197166
 30
0.0
 10
119.8690444771213
 20
157.2374087062045
 30
0.0
 10
120.2345697911135
 20
157.0974790633335
 30
0.0
 10
120.3897753132394
 20
157.0208631655845
 30
0.0
 10
120.6392056998391
 20
156.8569045457287
 30
0.0
 10
120.7352956556243
 20
156.768347691633
 30
0.0
 10
120.8638145048179
 20
156.5808670095272
 30
0.0
 10
120.8956253749957
 20
156.4836305480728
 30
0.0
 10
120.8959820247689
 20
156.2819979087457
 30
0.0
 10
120.8634847725719
 20
156.1764491169076
 30
0.0
 10
120.7358592988574
 20
155.9663343342191
 30
0.0
 10
120.6414308978055
 20
155.8612688262501
 30
0.0
 10
120.4535700778199
 20
155.704391118999
 30
0.0
 10
120.3827420790168
 20
155.6519573852933
 30
0.0
 10
120.2280201870515
 20
155.5495189396636
 30
0.0
 10
120.1440437168681
 20
155.4993712110117
 30
0.0
 10
119.8727200472237
 20
155.3523552545782
 30
0.0
 10
119.6661708286213
 20
155.2588674341438
 30
0.0
 10
119.1995606884323
 20
155.0830805765295
 30
0.0
 10
118.9471951188068
 20
155.0037021014458
 30
0.0
 10
118.5412937771281
 20
154.8982196639517
 30
0.0
 10
118.4013931596506
 20
154.8653340991115
 30
0.0
 10
118.1121692244037
 20
154.8044186198829
 30
0.0
 10
117.9623297681144
 20
154.7763380482405
 30
0.0
 10
117.5082131985036
 20
154.7015360061977
 30
0.0
 10
117.1965619797668
 20
154.6634979479515
 30
0.0
 10
116.5555655148544
 20
154.6118860214274
 30
0.0
 10
116.2240378869023
 20
154.5985720879059
 30
0.0
 10
115.5712468418308
 20
154.5984750015779
 30
0.0
 10
115.246710636799
 20
154.6112630867389
 30
0.0
 10
114.6014411873825
 20
154.6627532763349
 30
0.0
 10
114.2856981812198
 20
154.7012778556549
 30
0.0
 10
113.6838088862361
 20
154.800180418513
 30
0.0
 10
113.3930596554247
 20
154.861284516438
 30
0.0
 10
112.8461478637401
 20
155.0030939495487
 30
0.0
 10
112.5943704999032
 20
155.0824284341279
 30
0.0
 10
112.1329825072821
 20
155.2558071787894
 30
0.0
 10
111.921713227684
 20
155.3509671235434
 30
0.0
 10
111.5584088753078
 20
155.5475396469193
 30
0.0
 10
111.404602226865
 20
155.6492958753257
 30
0.0
 10
111.2159827572676
 20
155.8060818381111
 30
0.0
 10
111.1599522710585
 20
155.8593358718611
 30
0.0
 10
111.0643785093224
 20
155.9651404334139
 30
0.0
 10
111.0246155922973
 20
156.0177934977695
 30
0.0
 10
110.9288438419852
 20
156.1748672172286
 30
0.0
 10
110.8961210028591
 20
156.2783922525557
 30
0.0
 10
110.89549241653
 20
156.4826069867829
 30
0.0
 10
110.9276785612648
 20
156.5801108243676
 30
0.0
 10
111.0225892631204
 20
156.7194378747193
 30
0.0
 10
111.0620560465193
 20
156.7647546062237
 30
0.0
 10
111.1569860452402
 20
156.8531944272125
 30
0.0
 10
111.2127428730036
 20
156.8964486776725
 30
0.0
 10
111.4006829909735
 20
157.0203401522625
 30
0.0
 10
111.5540444606896
 20
157.0960424430366
 30
0.0
 10
111.91630869557
 20
157.2352968144948
 30
0.0
 10
112.1271571690359
 20
157.2990586560234
 30
0.0
 10
112.5878271393548
 20
157.4105554954913
 30
0.0
 10
112.8392015189387
 20
157.4590815678079
 30
0.0
 10
113.3851094058368
 20
157.5431355511884
 30
0.0
 10
113.675931980488
 20
157.5779341048552
 30
0.0
 10
114.277258595268
 20
157.6331305696189
 30
0.0
 10
114.5917771798804
 20
157.6539484183728
 30
0.0
 10
115.2383586360004
 20
157.6817957512835
 30
0.0
 10
115.5652591337624
 20
157.6886933518192
 30
0.0
 10
116.226349759315
 20
157.6886933518193
 30
0.0
  0
LINE
  5
C9
330
1F
100
AcDbEntity
  8
0
  6
HIDDEN
 62
     7
370
     0
100
AcDbLine
 10
123.6337754256
 20
147.7801068562
 30
0.0
 11
123.6337754256
 21
140.1791440953
 31
0.0
  0
LINE
  5
CA
330
1F
100
AcDbEntity
  8
0
  6
HIDDEN
 62
     7
370
     0
100
AcDbLine
 10
87.309229196
 20
72.0933377331
 30
0.0
 11
87.0392734951
 21
72.0694116338
 31
0.0
  0
SPLINE
  5
CB
330
1F
100
AcDbEntity
  8
0
  6
HIDDEN
 62
     7
370
     0
100
AcDbSpline
210
0.0
220
0.0
230
1.0
 70
     8
 71
     3
 72
    12
 73
     8
 74
     0
 42
0.00000001
 43
0.00000001
 40
0.0
 40
0.0
 40
0.0
 40
0.0
 40
0.1661348616735903
 40
0.3322013257393936
 40
0.5008932044678248
 40
0.752137078264078
 40
1.0
 40
1.0
 40
1.0
 40
1.0
 10
85.4151261121859
 20
145.7604481184068
 30
0.0
 10
85.42551873629397
 20
145.7590699943454
 30
0.0
 10
85.44629970587391
 20
145.7563143135953
 30
0.0
 10
85.61959919532083
 20
145.7347109386332
 30
0.0
 10
85.94155078456455
 20
145.6968459866914
 30
0.0
 10
86.46271662048389
 20
145.6364622199752
 30
0.0
 10
87.0282745603216
 20
145.5886690828258
 30
0.0
 10
87.30913798400965
 20
145.5649343897324
 30
0.0
  0
SPLINE
  5
CC
330
1F
100
AcDbEntity
  8
0
  6
HIDDEN
 62
     7
370
     0
100
AcDbSpline
210
0.0
220
0.0
230
1.0
 70
     8
 71
     3
 72
    33
 73
    29
 74
     0
 42
0.00000001
 43
0.00000001
 40
0.0
 40
0.0
 40
0.0
 40
0.0
 40
0.0315773698875104
 40
0.0633753287769057
 40
0.0958656851178231
 40
0.1285943208117605
 40
0.1601713694082662
 40
0.2244011681247345
 40
0.2571344568799636
 40
0.2885965627565487
 40
0.3526214070085076
 40
0.3852675959519929
 40
0.4162212184009612
 40
0.4791910353915302
 40
0.5112817741273479
 40
0.5421256322990662
 40
0.6048360558905652
 40
0.6367710793564881
 40
0.6680663384719832
 40
0.7316979547407203
 40
0.7641081282919966
 40
0.7957194290717577
 40
0.8275524266255816
 40
0.8600900250720824
 40
0.8928737620729298
 40
0.9241775068323748
 40
0.9878778414776339
 40
1.0
 40
1.0
 40
1.0
 40
1.0
 10
97.14901010172971
 20
77.46282187459418
 30
0.0
 10
97.06513895472446
 20
77.47669561297593
 30
0.0
 10
96.89681076478053
 20
77.50454000706068
 30
0.0
 10
96.59745616843902
 20
77.55097264729108
 30
0.0
 10
96.26345670118017
 20
77.59958524931191
 30
0.0
 10
95.89768673929288
 20
77.64873318249916
 30
0.0
 10
95.37430682460402
 20
77.71279896809179
 30
0.0
 10
94.79787961600944
 20
77.7725804824969
 30
0.0
 10
94.18274246915789
 20
77.82258008996095
 30
0.0
 10
93.54642674307497
 20
77.8647200826444
 30
0.0
 10
92.88264620563628
 20
77.89335480738241
 30
0.0
 10
92.21058045405316
 20
77.90561425846602
 30
0.0
 10
91.54113187062141
 20
77.9069435495743
 30
0.0
 10
90.87594730350747
 20
77.89208302666484
 30
0.0
 10
90.22965606461698
 20
77.86222506227567
 30
0.0
 10
89.6004661137586
 20
77.82348183421438
 30
0.0
 10
89.00075042157933
 20
77.77290360045451
 30
0.0
 10
88.44245085545752
 20
77.71450358598798
 30
0.0
 10
87.91225598506995
 20
77.65218035461847
 30
0.0
 10
87.43308928275836
 20
77.58677178008291
 30
0.0
 10
87.01817129756351
 20
77.52398287647694
 30
0.0
 10
86.74089891363747
 20
77.47947827765556
 30
0.0
 10
86.49934362807629
 20
77.43876932822059
 30
0.0
 10
86.29385162372787
 20
77.40271219757109
 30
0.0
 10
86.12968719998364
 20
77.37295517261875
 30
0.0
 10
85.97025325341835
 20
77.34336985919433
 30
0.0
 10
85.89201502546975
 20
77.32842058018946
 30
0.0
 10
85.89973981581456
 20
77.32989300279067
 30
0.0
 10
85.90097482048401
 20
77.33012840708085
 30
0.0
  0
SPLINE
  5
CD
330
1F
100
AcDbEntity
  8
0
  6
HIDDEN
 62
     7
370
     0
100
AcDbSpline
210
0.0
220
0.0
230
1.0
 70
     8
 71
     3
 72
    32
 73
    28
 74
     0
 42
0.00000001
 43
0.00000001
 40
0.0
 40
0.0
 40
0.0
 40
0.0
 40
0.020356822172105
 40
0.0512207857583794
 40
0.1139954454389432
 40
0.1459779869097674
 40
0.1769364677636727
 40
0.2398766914470389
 40
0.2719275468465721
 40
0.3033698011481659
 40
0.3673099924152954
 40
0.3998847012176188
 40
0.4314690120325909
 40
0.4957360700021212
 40
0.5285028301030422
 40
0.5596434488300034
 40
0.6230067766607702
 40
0.6553079823205556
 40
0.6861132872619372
 40
0.748756262689177
 40
0.7806634244345373
 40
0.8117607067089887
 40
0.8749825776111492
 40
0.9071778073885584
 40
0.9301738434827028
 40
0.9765719131095674
 40
1.0
 40
1.0
 40
1.0
 40
1.0
 10
85.90097482048401
 20
140.3281597836017
 30
0.0
 10
85.90061776857776
 20
140.3282272625285
 30
0.0
 10
85.89971937299126
 20
140.3283970495232
 30
0.0
 10
85.9623131195439
 20
140.3165028083359
 30
0.0
 10
86.1041243010074
 20
140.2898559314162
 30
0.0
 10
86.32816889288291
 20
140.2494738600036
 30
0.0
 10
86.60271100871714
 20
140.2016046182532
 30
0.0
 10
86.95140229772468
 20
140.1441347329734
 30
0.0
 10
87.3676782601021
 20
140.0816401859189
 30
0.0
 10
87.82927230696488
 20
140.0171145042796
 30
0.0
 10
88.35281025606004
 20
139.9525341272964
 30
0.0
 10
88.92500773051479
 20
139.8937787624115
 30
0.0
 10
89.52721410096676
 20
139.8404059060293
 30
0.0
 10
90.16844060774824
 20
139.7975433441971
 30
0.0
 10
90.82952592574439
 20
139.769479298176
 30
0.0
 10
91.49623688019096
 20
139.7518906406363
 30
0.0
 10
92.17012610079789
 20
139.7504439923956
 30
0.0
 10
92.83447558474568
 20
139.7653695315334
 30
0.0
 10
93.48600985890532
 20
139.7903762567571
 30
0.0
 10
94.11666907156133
 20
139.829480299439
 30
0.0
 10
94.7142080473838
 20
139.8795814572227
 30
0.0
 10
95.28820601533855
 20
139.9357526237058
 30
0.0
 10
95.81915572873184
 20
139.9986666523946
 30
0.0
 10
96.26253660999595
 20
140.0587701544482
 30
0.0
 10
96.61405725756958
 20
140.1096598714335
 30
0.0
 10
96.90372476754644
 20
140.1547823479714
 30
0.0
 10
97.08738753194413
 20
140.1852453598588
 30
0.0
 10
97.14901010172971
 20
140.1954663160883
 30
0.0
  0
SPLINE
  5
CE
330
1F
100
AcDbEntity
  8
0
  6
HIDDEN
 62
     7
370
     0
100
AcDbSpline
210
0.0
220
0.0
230
1.0
 70
     8
 71
     3
 72
    13
 73
     9
 74
     0
 42
0.00000001
 43
0.00000001
 40
0.0
 40
0.0
 40
0.0
 40
0.0
 40
0.1623836687590154
 40
0.3259036967521354
 40
0.4929930053128654
 40
0.6613109974968223
 40
0.8237250587268701
 40
1.0
 40
1.0
 40
1.0
 40
1.0
 10
97.14901010172971
 20
140.1954663160883
 30
0.0
 10
97.22459961222535
 20
140.2078420885452
 30
0.0
 10
97.3763076078291
 20
140.2326802389867
 30
0.0
 10
97.55920648422494
 20
140.2599385838615
 30
0.0
 10
97.70826882500921
 20
140.2810584433865
 30
0.0
 10
97.81221902422935
 20
140.295044826755
 30
0.0
 10
97.88754886253597
 20
140.3048375263475
 30
0.0
 10
97.87932019705003
 20
140.3037663367491
 30
0.0
 10
97.87503748484336
 20
140.3032088226811
 30
0.0
  0
SPLINE
  5
CF
330
1F
100
AcDbEntity
  8
0
  6
HIDDEN
 62
     7
370
     0
100
AcDbSpline
210
0.0
220
0.0
230
1.0
 70
     8
 71
     3
 72
    13
 73
     9
 74
     0
 42
0.00000001
 43
0.00000001
 40
0.0
 40
0.0
 40
0.0
 40
0.0
 40
0.1539979175619511
 40
0.3222783140682305
 40
0.4885514651576366
 40
0.6560338488010076
 40
0.8273499398628251
 40
1.0
 40
1.0
 40
1.0
 40
1.0
 10
97.87503801512857
 20
77.35507929940246
 30
0.0
 10
97.88022232112742
 20
77.35440764681994
 30
0.0
 10
97.89107174963513
 20
77.3530020494887
 30
0.0
 10
97.82173258358776
 20
77.36198864785027
 30
0.0
 10
97.72161561798274
 20
77.37540269936929
 30
0.0
 10
97.57508771548828
 20
77.39604326516225
 30
0.0
 10
97.38887385390312
 20
77.42360872137111
 30
0.0
 10
97.22917113874084
 20
77.44971707239561
 30
0.0
 10
97.14901010172971
 20
77.46282187459418
 30
0.0
  0
LINE
  5
D0
330
1F
100
AcDbEntity
  8
0
  6
HIDDEN
 62
     7
370
     0
100
AcDbLine
 10
76.8924287736
 20
82.3291440953
 30
0.0
 11
76.8924287736
 21
135.3291440953
 31
0.0
  0
LINE
  5
D1
330
1F
100
AcDbEntity
  8
0
  6
HIDDEN
 62
     7
370
     0
100
AcDbLine
 10
116.1798820649
 20
82.3291440953
 30
0.0
 11
116.1798820649
 21
135.3291440953
 31
0.0
  0
LINE
  5
D2
330
1F
100
AcDbEntity
  8
0
  6
HIDDEN
 62
     7
370
     0
100
AcDbLine
 10
119.3458044465
 20
83.9541440953
 30
0.0
 11
119.3458044465
 21
133.7041440775
 31
0.0
  0
SPLINE
  5
D3
330
1F
100
AcDbEntity
  8
0
  6
HIDDEN
 62
     7
370
     0
100
AcDbSpline
210
0.0
220
0.0
230
1.0
 70
     8
 71
     3
 72
    20
 73
    16
 74
     0
 42
0.00000001
 43
0.00000001
 40
0.0
 40
0.0
 40
0.0
 40
0.0
 40
0.2499999999999978
 40
0.2499999999999978
 40
0.3749999999999982
 40
0.3749999999999982
 40
0.4999999999999986
 40
0.4999999999999986
 40
0.6249999999999989
 40
0.6249999999999989
 40
0.7499999999999992
 40
0.7499999999999992
 40
0.8749999999999997
 40
0.8749999999999997
 40
1.0
 40
1.0
 40
1.0
 40
1.0
 10
67.09580444653868
 20
134.0576577257556
 30
0.0
 10
67.09580444653868
 20
133.9784547392233
 30
0.0
 10
67.04882195132595
 20
133.8973585208203
 30
0.0
 10
66.91100036054837
 20
133.7771618290695
 30
0.0
 10
66.85471807663838
 20
133.7382351250673
 30
0.0
 10
66.72163322517116
 20
133.663046392643
 30
0.0
 10
66.64379328293809
 20
133.626404187301
 30
0.0
 10
66.47116092682376
 20
133.5588136544692
 30
0.0
 10
66.37676792973268
 20
133.5278554726935
 30
0.0
 10
66.17133062341755
 20
133.4723310513239
 30
0.0
 10
66.05898438343036
 20
133.4476225374906
 30
0.0
 10
65.82674351953072
 20
133.4078263103824
 30
0.0
 10
65.706032877108
 20
133.3924064729854
 30
0.0
 10
65.45496201783897
 20
133.3713264981457
 30
0.0
 10
65.32544002142318
 20
133.3658492531248
 30
0.0
 10
65.19580444653869
 20
133.3658492531248
 30
0.0
  0
LINE
  5
D4
330
1F
100
AcDbEntity
  8
0
  6
HIDDEN
 62
     7
370
     0
100
AcDbLine
 10
65.1958044465
 20
133.3658492531
 30
0.0
 11
58.6458044465
 21
133.3658492531
 31
0.0
  0
LINE
  5
D5
330
1F
100
AcDbEntity
  8
0
  6
HIDDEN
 62
     7
370
     0
100
AcDbLine
 10
58.6458044465
 20
84.2924389376
 30
0.0
 11
70.1958044465
 21
84.2924389376
 31
0.0
  0
SPLINE
  5
D6
330
1F
100
AcDbEntity
  8
0
  6
HIDDEN
 62
     7
370
     0
100
AcDbSpline
210
0.0
220
0.0
230
1.0
 70
     8
 71
     3
 72
    18
 73
    14
 74
     0
 42
0.00000001
 43
0.00000001
 40
0.0
 40
0.0
 40
0.0
 40
0.0
 40
0.1249999999999982
 40
0.1249999999999982
 40
0.2499999999999964
 40
0.2499999999999964
 40
0.4999999999999988
 40
0.4999999999999988
 40
0.7500000000000011
 40
0.7500000000000011
 40
0.8750000000000006
 40
0.8750000000000006
 40
1.0
 40
1.0
 40
1.0
 40
1.0
 10
70.19580444653867
 20
84.29243893755775
 30
0.0
 10
70.3252717594959
 20
84.29243893755775
 30
0.0
 10
70.45228250839253
 20
84.2870859389651
 30
0.0
 10
70.70164582958978
 20
84.26634796627633
 30
0.0
 10
70.82526948421821
 20
84.25067606202204
 30
0.0
 10
71.17430182115226
 20
84.19098133361994
 30
0.0
 10
71.38481358595905
 20
84.13321615393896
 30
0.0
 10
71.72873026365856
 20
83.99869431266147
 30
0.0
 10
71.86508066517638
 20
83.92102519915606
 30
0.0
 10
72.00211872173891
 20
83.80173406506871
 30
0.0
 10
72.03733774045182
 20
83.76081505593368
 30
0.0
 10
72.08396131739036
 20
83.68015906264364
 30
0.0
 10
72.0958044465387
 20
83.64019054245078
 30
0.0
 10
72.09580444653868
 20
83.60063046492697
 30
0.0
  0
LINE
  5
D7
330
1F
100
AcDbEntity
  8
0
  6
HIDDEN
 62
     7
370
     0
100
AcDbLine
 10
58.6458044465
 20
84.2924389376
 30
0.0
 11
58.6458044465
 21
133.3658492531
 31
0.0
  0
LWPOLYLINE
  5
D8
330
1F
100
AcDbEntity
  8
0
  6
HIDDEN
 62
     7
370
     0
100
AcDbPolyline
 90
       14
 70
   128
 43
0.0
 10
115.8958044465
 20
148.7728746586
 10
116.9706566476
 20
148.8204210421
 10
117.9952499543
 20
148.9608369763
 10
118.9216755225
 20
149.1875567684
 10
119.7066147222
 20
149.4899792528
 10
120.3133646688
 20
149.8539634902
 10
120.7135544091
 20
150.2624899823
 10
120.8884715158
 20
150.6964564843
 10
120.8299370592
 20
151.135571205
 10
120.5406880456
 20
151.5593016279
 10
120.0342494373
 20
151.9478345895
 10
119.3343017408
 20
152.2830027204
 10
118.4735737324
 20
152.5491339312
 10
118.3418229149
 20
152.5802744746
  0
LWPOLYLINE
  5
D9
330
1F
100
AcDbEntity
  8
0
  6
HIDDEN
 62
     7
370
     0
100
AcDbPolyline
 90
       14
 70
   128
 43
0.0
 10
113.4372929402
 20
152.5774147246
 10
113.3180351607
 20
152.5491339312
 10
112.4573071523
 20
152.2830027204
 10
111.7573594558
 20
151.9478345895
 10
111.2509208475
 20
151.5593016279
 10
110.9616718338
 20
151.135571205
 10
110.9031373773
 20
150.6964564843
 10
111.0780544839
 20
150.2624899823
 10
111.4782442243
 20
149.8539634902
 10
112.0849941709
 20
149.4899792528
 10
112.8699333706
 20
149.1875567684
 10
113.7963589387
 20
148.9608369763
 10
114.8209522455
 20
148.8204210421
 10
115.8958044465
 20
148.7728746586
  0
LINE
  5
DA
330
1F
100
AcDbEntity
  8
0
  6
HIDDEN
 62
     7
370
     0
100
AcDbLine
 10
58.6458044465
 20
81.4591440953
 30
0.0
 11
58.6458044465
 21
76.5808588935
 31
0.0
  0
LINE
  5
DB
330
1F
100
AcDbEntity
  8
0
  6
HIDDEN
 62
     7
370
     0
100
AcDbLine
 10
72.0958044465
 20
81.4591440953
 30
0.0
 11
72.0958044465
 21
74.95981083
 31
0.0
  0
LINE
  5
DC
330
1F
100
AcDbEntity
  8
0
  6
HIDDEN
 62
     7
370
     0
100
AcDbLine
 10
67.0958044465
 20
136.1991440953
 30
0.0
 11
67.0958044465
 21
142.5737528323
 31
0.0
  0
LINE
  5
DD
330
1F
100
AcDbEntity
  8
0
  6
HIDDEN
 62
     7
370
     0
100
AcDbLine
 10
58.6458044465
 20
136.1991440953
 30
0.0
 11
58.6458044465
 21
141.0774292972
 31
0.0
  0
LINE
  5
DE
330
1F
100
AcDbEntity
  8
0
  6
HIDDEN
 62
     7
370
     0
100
AcDbLine
 10
131.1958044465
 20
95.8291440953
 30
0.0
 11
131.1958044465
 21
121.8291440953
 31
0.0
  0
LINE
  5
DF
330
1F
100
AcDbEntity
  8
0
  6
HIDDEN
 62
     7
370
     0
100
AcDbLine
 10
135.1958044465
 20
95.8291440953
 30
0.0
 11
135.1958044465
 21
121.8291440953
 31
0.0
  0
LINE
  5
E0
330
1F
100
AcDbEntity
  8
0
  6
HIDDEN
 62
     7
370
     0
100
AcDbLine
 10
120.0958044465
 20
97.5791440953
 30
0.0
 11
120.0958044465
 21
120.0791440953
 31
0.0
  0
ELLIPSE
  5
E1
330
1F
100
AcDbEntity
  8
0
  6
HIDDEN
 62
     7
370
     0
100
AcDbEllipse
 10
50.7111312463
 20
108.8291440953
 30
0.0
 11
31.08108570811662
 21
1.421085471520200E-14
 31
0.0
210
0.0
220
0.0
230
1.0
 40
0.8164965809
 41
1.312649268214811
 42
1.367189972061495
  0
ELLIPSE
  5
E2
330
1F
100
AcDbEntity
  8
0
  6
HIDDEN
 62
     7
370
     0
100
AcDbEllipse
 10
50.7111312463
 20
108.8291440953
 30
0.0
 11
31.08108570811662
 21
-1.421085471520200E-14
 31
0.0
210
0.0
220
0.0
230
1.0
 40
0.8164965809
 41
4.915995335118103
 42
4.970536038964788
  0
LINE
  5
E3
330
1F
100
AcDbEntity
  8
0
  6
HIDDEN
 62
     7
370
     0
100
AcDbLine
 10
135.8458044465
 20
64.9291440953
 30
0.0
 11
121.8458044465
 21
64.9291440953
 31
0.0
  0
LINE
  5
E4
330
1F
100
AcDbEntity
  8
0
  6
HIDDEN
 62
     7
370
     0
100
AcDbLine
 10
111.8458044465
 20
58.8391450955
 30
0.0
 11
111.8458044465
 21
64.9291440953
 31
0.0
  0
LINE
  5
E5
330
1F
100
AcDbEntity
  8
0
  6
HIDDEN
 62
     7
370
     0
100
AcDbLine
 10
121.8458044465
 20
64.9291440953
 30
0.0
 11
111.8458044465
 21
64.9291440953
 31
0.0
  0
LINE
  5
E6
330
1F
100
AcDbEntity
  8
0
  6
HIDDEN
 62
     7
370
     0
100
AcDbLine
 10
72.0958044465
 20
81.4591440953
 30
0.0
 11
72.0958044465
 21
83.6006304649
 31
0.0
  0
LINE
  5
E7
330
1F
100
AcDbEntity
  8
0
  6
HIDDEN
 62
     7
370
     0
100
AcDbLine
 10
58.6458044465
 20
81.4591440953
 30
0.0
 11
58.6458044465
 21
84.2924389376
 31
0.0
  0
LINE
  5
E8
330
1F
100
AcDbEntity
  8
0
  6
HIDDEN
 62
     7
370
     0
100
AcDbLine
 10
67.0958044465
 20
136.1991440953
 30
0.0
 11
67.0958044465
 21
134.0576577258
 31
0.0
  0
LINE
  5
E9
330
1F
100
AcDbEntity
  8
0
  6
HIDDEN
 62
     7
370
     0
100
AcDbLine
 10
58.6458044465
 20
136.1991440953
 30
0.0
 11
58.6458044465
 21
133.3658492531
 31
0.0
  0
LINE
  5
EA
330
1F
100
AcDbEntity
  8
0
  6
HIDDEN
 62
     7
370
     0
100
AcDbLine
 10
121.8458044465
 20
152.7291440953
 30
0.0
 11
111.8458044465
 21
152.7291440953
 31
0.0
  0
LINE
  5
EB
330
1F
100
AcDbEntity
  8
0
  6
HIDDEN
 62
     7
370
     0
100
AcDbLine
 10
135.8458044465
 20
152.7291440953
 30
0.0
 11
121.8458044465
 21
152.7291440953
 31
0.0
  0
LINE
  5
EC
330
1F
100
AcDbEntity
  8
0
  6
HIDDEN
 62
     7
370
     0
100
AcDbLine
 10
233.3958044465
 20
101.8291440953
 30
0.0
 11
233.3958044465
 21
115.8291440953
 31
0.0
  0
SPLINE
  5
ED
330
1F
100
AcDbEntity
  8
0
  6
HIDDEN
 62
     7
370
     0
100
AcDbSpline
210
0.0
220
0.0
230
1.0
 70
     8
 71
     3
 72
    17
 73
    13
 74
     0
 42
0.00000001
 43
0.00000001
 40
0.0
 40
0.0
 40
0.0
 40
0.0
 40
0.1043025956217606
 40
0.2116708500337198
 40
0.3159620851095626
 40
0.4232028482697058
 40
0.5288831268346682
 40
0.6375699075572976
 40
0.7441536164000504
 40
0.8539110597696974
 40
0.9589982147449203
 40
1.0
 40
1.0
 40
1.0
 40
1.0
 10
192.3958044465387
 20
115.973372535138
 30
0.0
 10
192.4779426312763
 20
115.9741997501637
 30
0.0
 10
192.6446332038358
 20
115.9758784936945
 30
0.0
 10
192.8864013675053
 20
115.9890027293011
 30
0.0
 10
193.1162692740434
 20
116.0084712025793
 30
0.0
 10
193.3248381578683
 20
116.0326452336122
 30
0.0
 10
193.5101639187469
 20
116.0591066636014
 30
0.0
 10
193.6637703360391
 20
116.0846031226774
 30
0.0
 10
193.7839684885782
 20
116.1067765606881
 30
0.0
 10
193.8606663729138
 20
116.121931533297
 30
0.0
 10
193.8967637631357
 20
116.1293401764444
 30
0.0
 10
193.8920127178694
 20
116.1283664280292
 30
0.0
 10
193.890679274438
 20
116.128093132711
 30
0.0
  0
LINE
  5
EE
330
1F
100
AcDbEntity
  8
0
  6
HIDDEN
 62
     7
370
     0
100
AcDbLine
 10
192.4906083571
 20
115.9749994058
 30
0.0
 11
192.3618619071
 21
115.9738307018
 31
0.0
  0
SPLINE
  5
EF
330
1F
100
AcDbEntity
  8
0
  6
HIDDEN
 62
     7
370
     0
100
AcDbSpline
210
0.0
220
0.0
230
1.0
 70
     8
 71
     3
 72
    17
 73
    13
 74
     0
 42
0.00000001
 43
0.00000001
 40
0.0
 40
0.0
 40
0.0
 40
0.0
 40
0.0897779929250601
 40
0.1967557210371664
 40
0.3004980630009082
 40
0.4071526566071274
 40
0.5126562397305776
 40
0.6211505272676879
 40
0.7277613119585722
 40
0.8375364165894006
 40
0.9180772694486302
 40
1.0
 40
1.0
 40
1.0
 40
1.0
 10
190.8981668494428
 20
116.1286606851703
 30
0.0
 10
190.9001164633821
 20
116.128256681283
 30
0.0
 10
190.9043891997607
 20
116.1273712741408
 30
0.0
 10
190.9605701708338
 20
116.1159839042881
 30
0.0
 10
191.0551289910932
 20
116.097803829801
 30
0.0
 10
191.186661726845
 20
116.0744745432093
 30
0.0
 10
191.3532746767604
 20
116.0482918075111
 30
0.0
 10
191.5492237854208
 20
116.0223550291726
 30
0.0
 10
191.7721194341405
 20
115.9992689704282
 30
0.0
 10
191.9928433219723
 20
115.9836969486395
 30
0.0
 10
192.2034210237681
 20
115.9748870419318
 30
0.0
 10
192.3313140294991
 20
115.973880225319
 30
0.0
 10
192.3958044465387
 20
115.973372535138
 30
0.0
  0
SPLINE
  5
F0
330
1F
100
AcDbEntity
  8
0
  6
HIDDEN
 62
     7
370
     0
100
AcDbSpline
210
0.0
220
0.0
230
1.0
 70
     8
 71
     3
 72
    26
 73
    22
 74
     0
 42
0.00000001
 43
0.00000001
 40
0.0
 40
0.0
 40
0.0
 40
0.0
 40
0.0521675313773422
 40
0.105867106994018
 40
0.1580293172808932
 40
0.2116685396222539
 40
0.2644949400434193
 40
0.3188230729221807
 40
0.3721231133667955
 40
0.4270098375194372
 40
0.4795637678539509
 40
0.533691736310897
 40
0.5854388236877888
 40
0.6386677931082624
 40
0.690804715725207
 40
0.7443985914560003
 40
0.7975064192743776
 40
0.8521471250745309
 40
0.9053126420558086
 40
0.960073845798049
 40
1.0
 40
1.0
 40
1.0
 40
1.0
 10
193.8958044465387
 20
101.5291440953413
 30
0.0
 10
193.8918899076822
 20
101.5299535824383
 30
0.0
 10
193.8839458686791
 20
101.531596329466
 30
0.0
 10
193.820110314463
 20
101.5444695301854
 30
0.0
 10
193.7193446833506
 20
101.5636568944796
 30
0.0
 10
193.5821272207777
 20
101.5876259342486
 30
0.0
 10
193.4102798414919
 20
101.6140325720038
 30
0.0
 10
193.2101412737591
 20
101.639701797438
 30
0.0
 10
192.9839310821269
 20
101.6620290257743
 30
0.0
 10
192.7428387264351
 20
101.6779236903863
 30
0.0
 10
192.49036483946
 20
101.6857800131891
 30
0.0
 10
192.2399069296572
 20
101.6846705847288
 30
0.0
 10
191.9930849727863
 20
101.6749098137056
 30
0.0
 10
191.7605716867214
 20
101.6579048412757
 30
0.0
 10
191.5432722141374
 20
101.6351976162681
 30
0.0
 10
191.3496758470442
 20
101.6094668219462
 30
0.0
 10
191.1825601561911
 20
101.5831406142656
 30
0.0
 10
191.0496463942646
 20
101.5594752622254
 30
0.0
 10
190.9552288558237
 20
101.5412471085748
 30
0.0
 10
190.9023059833543
 20
101.5304854640709
 30
0.0
 10
190.9003021059371
 20
101.5300683105787
 30
0.0
 10
190.8994571449994
 20
101.529892412391
 30
0.0
  0
LINE
  5
F1
330
1F
100
AcDbEntity
  8
0
  6
HIDDEN
 62
     7
370
     0
100
AcDbLine
 10
190.3958044465
 20
101.9291440953
 30
0.0
 11
190.3958044465
 21
115.7291440953
 31
0.0
  0
LINE
  5
F2
330
1F
100
AcDbEntity
  8
0
  6
HIDDEN
 62
     7
370
     0
100
AcDbLine
 10
200.8958044465
 20
101.8291440953
 30
0.0
 11
200.8958044465
 21
115.8291440953
 31
0.0
  0
SPLINE
  5
F3
330
1F
100
AcDbEntity
  8
0
  6
HIDDEN
 62
     7
370
     0
100
AcDbSpline
210
0.0
220
0.0
230
1.0
 70
     8
 71
     3
 72
    30
 73
    26
 74
     0
 42
0.00000001
 43
0.00000001
 40
0.0
 40
0.0
 40
0.0
 40
0.0
 40
0.0531447579710286
 40
0.1125253797131272
 40
0.1779224397116067
 40
0.2129463966942924
 40
0.2494993914504459
 40
0.291265086659374
 40
0.3261073096855474
 40
0.3540223481619386
 40
0.3750075548588426
 40
0.4414649788272059
 40
0.5001823658063147
 40
0.5546968713669163
 40
0.6144408573423134
 40
0.6794659595165392
 40
0.71402283460044
 40
0.7499196792688061
 40
0.7913840357566979
 40
0.826050848459345
 40
0.8539163335767396
 40
0.8749776390184348
 40
0.9411638663008652
 40
0.9999141571670602
 40
1.0
 40
1.0
 40
1.0
 40
1.0
 10
97.8953447359197
 20
71.72921720990938
 30
0.0
 10
97.87914779205026
 20
71.73411781687635
 30
0.0
 10
97.84485339823452
 20
71.74449405492568
 30
0.0
 10
97.54353403549052
 20
71.82014834254495
 30
0.0
 10
97.10136511499604
 20
71.91643467302347
 30
0.0
 10
96.60653245091625
 20
72.01609950095575
 30
0.0
 10
96.13605676130871
 20
72.10837764728254
 30
0.0
 10
95.6051353427273
 20
72.20400968003375
 30
0.0
 10
95.0669848391737
 20
72.28965992311817
 30
0.0
 10
94.60893750518429
 20
72.35695171612602
 30
0.0
 10
93.95337318396089
 20
72.4452998851077
 30
0.0
 10
93.0700667460368
 20
72.5419579693482
 30
0.0
 10
91.94140501329912
 20
72.62873314611429
 30
0.0
 10
90.85164326355957
 20
72.66681184382645
 30
0.0
 10
89.75561498512732
 20
72.6686622785902
 30
0.0
 10
88.85022373818401
 20
72.64250082300505
 30
0.0
 10
88.15392102776889
 20
72.60589359787615
 30
0.0
 10
87.62724129949386
 20
72.56687672239906
 30
0.0
 10
87.16059518446122
 20
72.52466759492715
 30
0.0
 10
86.7893799087374
 20
72.48766350535776
 30
0.0
 10
86.53533343149536
 20
72.45896274491342
 30
0.0
 10
86.2342782787859
 20
72.42258279432356
 30
0.0
 10
85.97879448398291
 20
72.38980262733679
 30
0.0
 10
85.87957375903508
 20
72.37346474262874
 30
0.0
 10
85.89585431631929
 20
72.3760583288014
 30
0.0
 10
85.89587806990524
 20
72.37606211288391
 30
0.0
  0
SPLINE
  5
F4
330
1F
100
AcDbEntity
  8
0
  6
HIDDEN
 62
     7
370
     0
100
AcDbSpline
210
0.0
220
0.0
230
1.0
 70
     8
 71
     3
 72
    30
 73
    26
 74
     0
 42
0.00000001
 43
0.00000001
 40
0.0
 40
0.0
 40
0.0
 40
0.0
 40
0.0001123288057695
 40
0.0285431152663135
 40
0.0588466796063202
 40
0.091027196450477
 40
0.1250880910051604
 40
0.1546766141497773
 40
0.1963554560485685
 40
0.2501101496291966
 40
0.320525387238388
 40
0.3856104300246703
 40
0.445403860889207
 40
0.4999571692316274
 40
0.5283494388508946
 40
0.558634027028705
 40
0.5908185964995195
 40
0.6249094714581434
 40
0.6541844575853767
 40
0.6958630078636641
 40
0.7499307292180327
 40
0.8215905285694356
 40
0.8871422909715975
 40
0.9466378748868088
 40
1.0
 40
1.0
 40
1.0
 40
1.0
 10
85.89589977863855
 20
145.2821558043696
 30
0.0
 10
85.89586791888041
 20
145.2821627514959
 30
0.0
 10
85.88777225060954
 20
145.283928038888
 30
0.0
 10
85.91643372827895
 20
145.2784731201631
 30
0.0
 10
85.98982057443318
 20
145.2679302728169
 30
0.0
 10
86.13347711798392
 20
145.2482450651635
 30
0.0
 10
86.33451281794142
 20
145.2234058013082
 30
0.0
 10
86.61714336721045
 20
145.1891973361695
 30
0.0
 10
87.0305524927851
 20
145.1455174394094
 30
0.0
 10
87.70683999396734
 20
145.0824743718761
 30
0.0
 10
88.64527089488328
 20
145.0211772014434
 30
0.0
 10
89.75476410837918
 20
144.989888757943
 30
0.0
 10
90.85224483906791
 20
144.9915439255396
 30
0.0
 10
91.75227607752521
 20
145.0228501276369
 30
0.0
 10
92.46361700337614
 20
145.0696832764394
 30
0.0
 10
93.02903390436693
 20
145.1168501383353
 30
0.0
 10
93.61795732719524
 20
145.1762891448853
 30
0.0
 10
94.18236697967275
 20
145.2426463514933
 30
0.0
 10
94.7765631736089
 20
145.3245657579249
 30
0.0
 10
95.44317133457942
 20
145.4262137406753
 30
0.0
 10
96.24450408027965
 20
145.5683526512756
 30
0.0
 10
96.99701406478756
 20
145.719597222042
 30
0.0
 10
97.54230055975374
 20
145.8374480953013
 30
0.0
 10
97.84502209125259
 20
145.9136773270506
 30
0.0
 10
97.87931254186562
 20
145.9241296365451
 30
0.0
 10
97.89552597851564
 20
145.9290717663453
 30
0.0
  0
LINE
  5
F5
330
1F
100
AcDbEntity
  8
0
  6
HIDDEN
 62
     7
370
     0
100
AcDbLine
 10
169.494513518
 20
102.8291440953
 30
0.0
 11
169.494513518
 21
114.8291440953
 31
0.0
  0
LINE
  5
F6
330
1F
100
AcDbEntity
  8
0
  6
HIDDEN
 62
     7
370
     0
100
AcDbLine
 10
170.3958044465
 20
104.3291440953
 30
0.0
 11
170.3958044465
 21
113.3291440953
 31
0.0
  0
LINE
  5
F7
330
1F
100
AcDbEntity
  8
0
  6
HIDDEN
 62
     7
370
     0
100
AcDbLine
 10
148.8458044465
 20
126.7517938262
 30
0.0
 11
151.3458044465
 21
126.7517938262
 31
0.0
  0
LINE
  5
F8
330
1F
100
AcDbEntity
  8
0
  6
HIDDEN
 62
     7
370
     0
100
AcDbLine
 10
146.3458044465
 20
126.7517938262
 30
0.0
 11
148.8458044465
 21
126.7517938262
 31
0.0
  0
LINE
  5
F9
330
1F
100
AcDbEntity
  8
0
  6
HIDDEN
 62
     7
370
     0
100
AcDbLine
 10
151.3458044465
 20
90.9064943645
 30
0.0
 11
146.3458044465
 21
90.9064943645
 31
0.0
  0
LINE
  5
FA
330
1F
100
AcDbEntity
  8
0
  6
HIDDEN
 62
     7
370
     0
100
AcDbLine
 10
148.8458044465
 20
118.3291440953
 30
0.0
 11
151.3458044465
 21
118.3291440953
 31
0.0
  0
LINE
  5
FB
330
1F
100
AcDbEntity
  8
0
  6
HIDDEN
 62
     7
370
     0
100
AcDbLine
 10
146.3458044465
 20
118.3291440953
 30
0.0
 11
148.8458044465
 21
118.3291440953
 31
0.0
  0
LINE
  5
FC
330
1F
100
AcDbEntity
  8
0
  6
HIDDEN
 62
     7
370
     0
100
AcDbLine
 10
151.3458044465
 20
99.3291440953
 30
0.0
 11
146.3458044465
 21
99.3291440953
 31
0.0
  0
SPLINE
  5
FD
330
1F
100
AcDbEntity
  8
0
  6
HIDDEN
 62
     7
370
     0
100
AcDbSpline
210
0.0
220
0.0
230
1.0
 70
     8
 71
     3
 72
    22
 73
    18
 74
     0
 42
0.00000001
 43
0.00000001
 40
0.0
 40
0.0
 40
0.0
 40
0.0
 40
0.0836965930242284
 40
0.1670177960041915
 40
0.2243782043929413
 40
0.2833808346619308
 40
0.342058377304077
 40
0.402206963016279
 40
0.4682450800091928
 40
0.5349527300534814
 40
0.5919667990292492
 40
0.6922718949562395
 40
0.7987371056483338
 40
0.8950805466715849
 40
0.9428649521337109
 40
0.9925617047372696
 40
1.0
 40
1.0
 40
1.0
 40
1.0
 10
193.8958044465387
 20
119.2676542484173
 30
0.0
 10
193.8876026260096
 20
119.277770472166
 30
0.0
 10
193.8712357711773
 20
119.2979575470914
 30
0.0
 10
193.7666640688362
 20
119.4299664948718
 30
0.0
 10
193.6516939437845
 20
119.5827077683009
 30
0.0
 10
193.5388740862978
 20
119.742173936706
 30
0.0
 10
193.4221349365382
 20
119.9256479602385
 30
0.0
 10
193.3100531123862
 20
120.1392125626969
 30
0.0
 10
193.2241836805096
 20
120.3914576991489
 30
0.0
 10
193.2197496999139
 20
120.6639011572024
 30
0.0
 10
193.3106786045979
 20
120.9608581087386
 30
0.0
 10
193.4867070242175
 20
121.2567156220604
 30
0.0
 10
193.6910408992755
 20
121.5260837324908
 30
0.0
 10
193.8244571718304
 20
121.6861093937224
 30
0.0
 10
193.8789196130568
 20
121.7499783377834
 30
0.0
 10
193.9019918992969
 20
121.7768063455463
 30
0.0
 10
193.8936688276923
 20
121.7670911664273
 30
0.0
 10
193.8925852639884
 20
121.7658263670876
 30
0.0
  0
SPLINE
  5
FE
330
1F
100
AcDbEntity
  8
0
  6
HIDDEN
 62
     7
370
     0
100
AcDbSpline
210
0.0
220
0.0
230
1.0
 70
     8
 71
     3
 72
     9
 73
     5
 74
     0
 42
0.00000001
 43
0.00000001
 40
0.0
 40
0.0
 40
0.0
 40
0.0
 40
0.7583660542390434
 40
1.0
 40
1.0
 40
1.0
 40
1.0
 10
190.9045827964709
 20
121.7580317589446
 30
0.0
 10
190.9086319880767
 20
121.75786495566
 30
0.0
 10
190.9139713510178
 20
121.7576450047752
 30
0.0
 10
190.9643259738743
 20
121.7805930363139
 30
0.0
 10
190.9764933600823
 20
121.786138059722
 30
0.0
  0
SPLINE
  5
FF
330
1F
100
AcDbEntity
  8
0
  6
HIDDEN
 62
     7
370
     0
100
AcDbSpline
210
0.0
220
0.0
230
1.0
 70
     8
 71
     3
 72
    18
 73
    14
 74
     0
 42
0.00000001
 43
0.00000001
 40
0.0
 40
0.0
 40
0.0
 40
0.0
 40
0.0497226809531282
 40
0.1396899074691839
 40
0.2366940928656076
 40
0.3526984891168669
 40
0.4655348618063321
 40
0.536430469707501
 40
0.6078112688816599
 40
0.6935784526813294
 40
0.8319885370686471
 40
0.9754282258212856
 40
1.0
 40
1.0
 40
1.0
 40
1.0
 10
190.9062040996662
 20
119.397624518151
 30
0.0
 10
190.9043363520467
 20
119.3954454036077
 30
0.0
 10
190.899089139162
 20
119.3893234427021
 30
0.0
 10
190.9753069453007
 20
119.4782336428781
 30
0.0
 10
191.1170927536882
 20
119.6503617698949
 30
0.0
 10
191.3121280451026
 20
119.9095916047586
 30
0.0
 10
191.4866813902583
 20
120.2049467021377
 30
0.0
 10
191.5742974338217
 20
120.5049382617984
 30
0.0
 10
191.5630699589255
 20
120.7911856403343
 30
0.0
 10
191.4380281099838
 20
121.1265886119527
 30
0.0
 10
191.2186706796325
 20
121.4698953571323
 30
0.0
 10
191.0501648511295
 20
121.692124848898
 30
0.0
 10
190.985893135829
 20
121.7741428756092
 30
0.0
 10
190.9764933600823
 20
121.786138059722
 30
0.0
  0
LINE
  5
100
330
1F
100
AcDbEntity
  8
0
  6
HIDDEN
 62
     7
370
     0
100
AcDbLine
 10
193.8958044465
 20
122.8291440953
 30
0.0
 11
190.8958044465
 21
122.8291440953
 31
0.0
  0
LWPOLYLINE
  5
101
330
1F
100
AcDbEntity
  8
0
  6
HIDDEN
 62
     7
370
     0
100
AcDbPolyline
 90
       14
 70
   128
 43
0.0
 10
193.892585264
 20
95.8924618236
 10
193.863387382
 20
95.9265529227
 10
193.7666829218
 20
96.0420544873
 10
193.566245463
 20
96.2999891756
 10
193.3464923355
 20
96.6526394587
 10
193.2494689779
 20
96.9110341613
 10
193.2257670947
 20
97.1499505237
 10
193.2677400588
 20
97.3849632392
 10
193.4184545287
 20
97.719968889
 10
193.6695865661
 20
98.0984922206
 10
193.8212042177
 20
98.2970572206
 10
193.8887147749
 20
98.3818323044
 10
193.8958044465
 20
98.3906339423
 10
193.8958044465
 20
98.3906339423
  0
LINE
  5
102
330
1F
100
AcDbEntity
  8
0
  6
HIDDEN
 62
     7
370
     0
100
AcDbLine
 10
192.3958044465
 20
94.8291440953
 30
0.0
 11
193.8958044465
 21
94.8291440953
 31
0.0
  0
LINE
  5
103
330
1F
100
AcDbEntity
  8
0
  6
HIDDEN
 62
     7
370
     0
100
AcDbLine
 10
190.8958044465
 20
94.8291440953
 30
0.0
 11
192.3958044465
 21
94.8291440953
 31
0.0
  0
SPLINE
  5
104
330
1F
100
AcDbEntity
  8
0
  6
HIDDEN
 62
     7
370
     0
100
AcDbSpline
210
0.0
220
0.0
230
1.0
 70
     8
 71
     3
 72
     9
 73
     5
 74
     0
 42
0.00000001
 43
0.00000001
 40
0.0
 40
0.0
 40
0.0
 40
0.0
 40
0.8578782661610482
 40
1.0
 40
1.0
 40
1.0
 40
1.0
 10
190.9764933600823
 20
95.87215013096056
 30
0.0
 10
190.9327115763758
 20
95.8887504810947
 30
0.0
 10
190.8816766155504
 20
95.9081009539869
 30
0.0
 10
190.9017324294289
 20
95.9012325773362
 30
0.0
 10
190.9045827964709
 20
95.90025643173794
 30
0.0
  0
SPLINE
  5
105
330
1F
100
AcDbEntity
  8
0
  6
HIDDEN
 62
     7
370
     0
100
AcDbSpline
210
0.0
220
0.0
230
1.0
 70
     8
 71
     3
 72
    17
 73
    13
 74
     0
 42
0.00000001
 43
0.00000001
 40
0.0
 40
0.0
 40
0.0
 40
0.0
 40
0.1263225957885263
 40
0.2517573186472236
 40
0.3532748327458249
 40
0.4234157276009132
 40
0.4939618323526649
 40
0.5823085844742758
 40
0.7187596728989177
 40
0.8578865023617415
 40
0.9536613334114199
 40
1.0
 40
1.0
 40
1.0
 40
1.0
 10
190.9764933600823
 20
95.8721501309605
 30
0.0
 10
191.032505564832
 20
95.94416413977672
 30
0.0
 10
191.1441362860921
 20
96.08768599864477
 30
0.0
 10
191.3587671771563
 20
96.3999767991099
 30
0.0
 10
191.5148557828308
 20
96.70853454880451
 30
0.0
 10
191.5795466544877
 20
97.000869999106
 30
0.0
 10
191.5484613166917
 20
97.28589284610253
 30
0.0
 10
191.4062636397092
 20
97.60853930283898
 30
0.0
 10
191.1794139133781
 20
97.93142712412251
 30
0.0
 10
190.988716740006
 20
98.1645272246293
 30
0.0
 10
190.8976880981164
 20
98.27058606275374
 30
0.0
 10
190.9041100926374
 20
98.26310349769432
 30
0.0
 10
190.9062040996662
 20
98.26066367253149
 30
0.0
  0
LINE
  5
106
330
1F
100
AcDbEntity
  8
0
  6
HIDDEN
 62
     7
370
     0
100
AcDbLine
 10
190.8821940098
 20
98.2722288657
 30
0.0
 11
190.9764933601
 21
95.872150131
 31
0.0
  0
LINE
  5
107
330
1F
100
AcDbEntity
  8
0
  6
HIDDEN
 62
     7
370
     0
100
AcDbLine
 10
190.8821940098
 20
119.386059325
 30
0.0
 11
190.9764933601
 21
121.7861380597
 31
0.0
  0
LWPOLYLINE
  5
108
330
1F
100
AcDbEntity
  8
0
  6
HIDDEN
 62
     7
370
     0
100
AcDbPolyline
 90
       30
 70
   128
 43
0.0
 10
115.8958044465
 20
154.1418499471
 10
116.9706566476
 20
154.1057267191
 10
117.9952499543
 20
153.999046117
 10
118.9216755225
 20
153.8267964073
 10
119.7066147222
 20
153.5970317949
 10
120.3133646688
 20
153.3204958177
 10
120.7135544091
 20
153.0101189907
 10
120.8884715158
 20
152.6804141893
 10
120.8299370592
 20
152.3467980437
 10
120.5406880456
 20
152.0248700739
 10
120.0342494373
 20
151.7296832741
 10
119.3343017408
 20
151.475040251
 10
118.4735737324
 20
151.2728478293
 10
117.4923120972
 20
151.1325603019
 10
116.4363995387
 20
151.0607373577
 10
115.3552093544
 20
151.0607373577
 10
114.2992967959
 20
151.1325603019
 10
113.3180351607
 20
151.2728478293
 10
112.4573071523
 20
151.475040251
 10
111.7573594558
 20
151.7296832741
 10
111.2509208475
 20
152.0248700739
 10
110.9616718338
 20
152.3467980437
 10
110.9031373773
 20
152.6804141893
 10
111.0780544839
 20
153.0101189907
 10
111.4782442243
 20
153.3204958177
 10
112.0849941709
 20
153.5970317949
 10
112.8699333706
 20
153.8267964073
 10
113.7963589387
 20
153.999046117
 10
114.8209522455
 20
154.1057267191
 10
115.8958044465
 20
154.1418499471
  0
LINE
  5
109
330
1F
100
AcDbEntity
  8
0
  6
HIDDEN
 62
     7
370
     0
100
AcDbLine
 10
130.1578334675
 20
147.7801068562
 30
0.0
 11
130.1578334675
 21
140.1791440953
 31
0.0
  0
LINE
  5
10A
330
1F
100
AcDbEntity
  8
0
  6
HIDDEN
 62
     7
370
     0
100
AcDbLine
 10
128.8058044465
 20
143.5433792878
 30
0.0
 11
128.8058044465
 21
140.1791440953
 31
0.0
  0
LINE
  5
10B
330
1F
100
AcDbEntity
  8
0
  6
HIDDEN
 62
     7
370
     0
100
AcDbLine
 10
124.9858044465
 20
143.5433792878
 30
0.0
 11
124.9858044465
 21
140.1791440953
 31
0.0
  0
CIRCLE
  5
10C
330
1F
100
AcDbEntity
  8
0
  6
HIDDEN
 62
     7
370
     0
100
AcDbCircle
 10
113.8958044465
 20
108.8291440953
 30
0.0
 40
5.0
  0
LINE
  5
10D
330
1F
100
AcDbEntity
  8
0
  6
HIDDEN
 62
     7
370
     0
100
AcDbLine
 10
236.877371963
 20
100.0488607968
 30
0.0
 11
236.8958044465
 21
99.5797227643
 31
0.0
  0
LINE
  5
10E
330
1F
100
AcDbEntity
  8
0
  6
HIDDEN
 62
     7
370
     0
100
AcDbLine
 10
236.7045376893
 20
100.3227865419
 30
0.0
 11
236.8223171366
 21
97.3250994332
 31
0.0
  0
LINE
  5
10F
330
1F
100
AcDbEntity
  8
0
  6
HIDDEN
 62
     7
370
     0
100
AcDbLine
 10
231.3705998854
 20
100.1132155548
 30
0.0
 11
231.4883793327
 21
97.1155284461
 31
0.0
  0
LINE
  5
110
330
1F
100
AcDbEntity
  8
0
  6
HIDDEN
 62
     7
370
     0
100
AcDbLine
 10
230.8906152752
 20
99.5939711288
 30
0.0
 11
230.9691349067
 21
97.5955130563
 31
0.0
  0
LINE
  5
111
330
1F
100
AcDbEntity
  8
0
  6
HIDDEN
 62
     7
370
     0
100
AcDbLine
 10
234.9267912359
 20
98.7517813556
 30
0.0
 11
234.8973463741
 21
99.5012031328
 31
0.0
  0
LINE
  5
112
330
1F
100
AcDbEntity
  8
0
  6
HIDDEN
 62
     7
370
     0
100
AcDbLine
 10
234.9267912359
 20
98.7517813556
 30
0.0
 11
236.9252493084
 21
98.8303009871
 31
0.0
  0
LINE
  5
113
330
1F
100
AcDbEntity
  8
0
  6
HIDDEN
 62
     7
370
     0
100
AcDbLine
 10
234.9562360977
 20
98.0023595784
 30
0.0
 11
234.9267912359
 21
98.7517813556
 31
0.0
  0
LINE
  5
114
330
1F
100
AcDbEntity
  8
0
  6
HIDDEN
 62
     7
370
     0
100
AcDbLine
 10
234.8973463741
 20
99.5012031328
 30
0.0
 11
236.8958044465
 21
99.5797227643
 31
0.0
  0
LINE
  5
115
330
1F
100
AcDbEntity
  8
0
  6
HIDDEN
 62
     7
370
     0
100
AcDbLine
 10
234.9562360977
 20
98.0023595784
 30
0.0
 11
236.9546941702
 21
98.0808792099
 31
0.0
  0
LINE
  5
116
330
1F
100
AcDbEntity
  8
0
  6
HIDDEN
 62
     7
370
     0
100
AcDbLine
 10
236.8958044465
 20
119.5797227643
 30
0.0
 11
236.8184822394
 21
117.6117411774
 31
0.0
  0
LINE
  5
117
330
1F
100
AcDbEntity
  8
0
  6
HIDDEN
 62
     7
370
     0
100
AcDbLine
 10
236.755537686
 20
120.1346955811
 30
0.0
 11
236.6456479656
 21
117.3378154323
 31
0.0
  0
LINE
  5
118
330
1F
100
AcDbEntity
  8
0
  6
HIDDEN
 62
     7
370
     0
100
AcDbLine
 10
236.7634274129
 20
120.3355025411
 30
0.0
 11
236.755537686
 21
120.1346955811
 31
0.0
  0
LINE
  5
119
330
1F
100
AcDbEntity
  8
0
  6
HIDDEN
 62
     7
370
     0
100
AcDbLine
 10
231.4215998821
 20
120.3442665682
 30
0.0
 11
231.3117101618
 21
117.5473864194
 31
0.0
  0
LINE
  5
11A
330
1F
100
AcDbEntity
  8
0
  6
HIDDEN
 62
     7
370
     0
100
AcDbLine
 10
231.429489609
 20
120.5450735281
 30
0.0
 11
231.4215998821
 21
120.3442665682
 31
0.0
  0
LINE
  5
11B
330
1F
100
AcDbEntity
  8
0
  6
HIDDEN
 62
     7
370
     0
100
AcDbLine
 10
230.9049853651
 20
119.9312176113
 30
0.0
 11
230.8317255515
 21
118.0666308454
 31
0.0
  0
LINE
  5
11C
330
1F
100
AcDbEntity
  8
0
  6
HIDDEN
 62
     7
370
     0
100
AcDbLine
 10
230.910245183
 20
120.0650889179
 30
0.0
 11
230.9049853651
 21
119.9312176113
 31
0.0
  0
LINE
  5
11D
330
1F
100
AcDbEntity
  8
0
  6
HIDDEN
 62
     7
370
     0
100
AcDbLine
 10
234.8679015122
 20
118.9088206186
 30
0.0
 11
234.8973463741
 21
119.6582423958
 31
0.0
  0
LINE
  5
11E
330
1F
100
AcDbEntity
  8
0
  6
HIDDEN
 62
     7
370
     0
100
AcDbLine
 10
234.8679015122
 20
118.9088206186
 30
0.0
 11
234.8384566504
 21
118.1593988415
 31
0.0
  0
LINE
  5
11F
330
1F
100
AcDbEntity
  8
0
  6
HIDDEN
 62
     7
370
     0
100
AcDbLine
 10
234.8679015122
 20
118.9088206186
 30
0.0
 11
236.8663595847
 21
118.8303009871
 31
0.0
  0
LINE
  5
120
330
1F
100
AcDbEntity
  8
0
  6
HIDDEN
 62
     7
370
     0
100
AcDbLine
 10
234.8384566504
 20
118.1593988415
 30
0.0
 11
236.8369147229
 21
118.0808792099
 31
0.0
  0
LINE
  5
121
330
1F
100
AcDbEntity
  8
0
  6
HIDDEN
 62
     7
370
     0
100
AcDbLine
 10
234.8973463741
 20
119.6582423958
 30
0.0
 11
236.8958044465
 21
119.5797227643
 31
0.0
  0
LINE
  5
122
330
1F
100
AcDbEntity
  8
0
  6
HIDDEN
 62
     7
370
     0
100
AcDbLine
 10
189.8958044465
 20
103.8291440953
 30
0.0
 11
189.8958044465
 21
113.8291440953
 31
0.0
  0
LINE
  5
123
330
1F
100
AcDbEntity
  8
0
  6
HIDDEN
 62
     7
370
     0
100
AcDbLine
 10
174.3958044465
 20
103.8291440953
 30
0.0
 11
174.3958044465
 21
113.8291440953
 31
0.0
  0
LINE
  5
124
330
1F
100
AcDbEntity
  8
0
  6
HIDDEN
 62
     7
370
     0
100
AcDbLine
 10
173.8958044465
 20
104.3291440953
 30
0.0
 11
173.8958044465
 21
113.3291440953
 31
0.0
  0
LINE
  5
125
330
1F
100
AcDbEntity
  8
0
  6
HIDDEN
 62
     7
370
     0
100
AcDbLine
 10
193.8958044465
 20
107.8291440953
 30
0.0
 11
191.8958044465
 21
107.8291440953
 31
0.0
  0
LINE
  5
126
330
1F
100
AcDbEntity
  8
0
  6
HIDDEN
 62
     7
370
     0
100
AcDbLine
 10
193.8958044465
 20
104.3291440953
 30
0.0
 11
193.8958044465
 21
107.8291440953
 31
0.0
  0
LINE
  5
127
330
1F
100
AcDbEntity
  8
0
  6
HIDDEN
 62
     7
370
     0
100
AcDbLine
 10
193.8958044465
 20
109.8291440953
 30
0.0
 11
193.8958044465
 21
113.3291440953
 31
0.0
  0
LINE
  5
128
330
1F
100
AcDbEntity
  8
0
  6
HIDDEN
 62
     7
370
     0
100
AcDbLine
 10
191.8958044465
 20
109.8291440953
 30
0.0
 11
193.8958044465
 21
109.8291440953
 31
0.0
  0
LINE
  5
129
330
1F
100
AcDbEntity
  8
0
  6
HIDDEN
 62
     7
370
     0
100
AcDbLine
 10
191.8958044465
 20
107.8291440953
 30
0.0
 11
191.8958044465
 21
109.8291440953
 31
0.0
  0
LINE
  5
12A
330
1F
100
AcDbEntity
  8
0
  6
HIDDEN
 62
     7
370
     0
100
AcDbLine
 10
187.8958044465
 20
110.0791440953
 30
0.0
 11
187.8958044465
 21
108.8291440953
 31
0.0
  0
LINE
  5
12B
330
1F
100
AcDbEntity
  8
0
  6
HIDDEN
 62
     7
370
     0
100
AcDbLine
 10
187.8958044465
 20
108.8291440953
 30
0.0
 11
187.8958044465
 21
107.5791440953
 31
0.0
  0
LINE
  5
12C
330
1F
100
AcDbEntity
  8
0
  6
HIDDEN
 62
     7
370
     0
100
AcDbLine
 10
187.8958044465
 20
108.8291440953
 30
0.0
 11
191.8958044465
 21
108.8291440953
 31
0.0
  0
LINE
  5
12D
330
1F
100
AcDbEntity
  8
0
  6
HIDDEN
 62
     7
370
     0
100
AcDbLine
 10
179.8958044465
 20
108.8291440953
 30
0.0
 11
173.8958044465
 21
108.8291440953
 31
0.0
  0
LINE
  5
12E
330
1F
100
AcDbEntity
  8
0
  6
HIDDEN
 62
     7
370
     0
100
AcDbLine
 10
179.8958044465
 20
108.8291440953
 30
0.0
 11
179.8958044465
 21
110.0791440953
 31
0.0
  0
LINE
  5
12F
330
1F
100
AcDbEntity
  8
0
  6
HIDDEN
 62
     7
370
     0
100
AcDbLine
 10
179.8958044465
 20
107.5791440953
 30
0.0
 11
179.8958044465
 21
108.8291440953
 31
0.0
  0
LINE
  5
130
330
1F
100
AcDbEntity
  8
0
  6
HIDDEN
 62
     7
370
     0
100
AcDbLine
 10
187.8958044465
 20
107.5791440953
 30
0.0
 11
187.8958044465
 21
106.3291440953
 31
0.0
  0
LINE
  5
131
330
1F
100
AcDbEntity
  8
0
  6
HIDDEN
 62
     7
370
     0
100
AcDbLine
 10
187.8958044465
 20
111.3291440953
 30
0.0
 11
187.8958044465
 21
110.0791440953
 31
0.0
  0
LINE
  5
132
330
1F
100
AcDbEntity
  8
0
  6
HIDDEN
 62
     7
370
     0
100
AcDbLine
 10
179.8958044465
 20
106.3291440953
 30
0.0
 11
179.8958044465
 21
107.5791440953
 31
0.0
  0
LINE
  5
133
330
1F
100
AcDbEntity
  8
0
  6
HIDDEN
 62
     7
370
     0
100
AcDbLine
 10
179.8958044465
 20
110.0791440953
 30
0.0
 11
179.8958044465
 21
111.3291440953
 31
0.0
  0
LINE
  5
134
330
1F
100
AcDbEntity
  8
0
  6
HIDDEN
 62
     7
370
     0
100
AcDbLine
 10
187.8958044465
 20
111.3291440953
 30
0.0
 11
193.8958044465
 21
111.3291440953
 31
0.0
  0
LINE
  5
135
330
1F
100
AcDbEntity
  8
0
  6
HIDDEN
 62
     7
370
     0
100
AcDbLine
 10
179.8958044465
 20
111.3291440953
 30
0.0
 11
173.8958044465
 21
111.3291440953
 31
0.0
  0
LINE
  5
136
330
1F
100
AcDbEntity
  8
0
  6
HIDDEN
 62
     7
370
     0
100
AcDbLine
 10
179.8958044465
 20
106.3291440953
 30
0.0
 11
173.8958044465
 21
106.3291440953
 31
0.0
  0
LINE
  5
137
330
1F
100
AcDbEntity
  8
0
  6
HIDDEN
 62
     7
370
     0
100
AcDbLine
 10
187.8958044465
 20
106.3291440953
 30
0.0
 11
193.8958044465
 21
106.3291440953
 31
0.0
  0
LINE
  5
138
330
1F
100
AcDbEntity
  8
0
  6
HIDDEN
 62
     7
370
     0
100
AcDbLine
 10
106.8958044465
 20
69.4244611388
 30
0.0
 11
106.9854060705
 21
70.0620098207
 31
0.0
  0
LINE
  5
139
330
1F
100
AcDbEntity
  8
0
  6
HIDDEN
 62
     7
370
     0
100
AcDbLine
 10
106.9854060705
 20
147.59627837
 30
0.0
 11
106.8958044465
 21
148.2338270519
 31
0.0
  0
ARC
  5
13A
330
1F
100
AcDbEntity
  8
0
  6
HIDDEN
 62
     7
370
     0
100
AcDbCircle
 10
105.9988675281
 20
70.2006587709
 30
0.0
 40
0.9962338214387074
100
AcDbArc
 50
352.0
 51
0.0
  0
ARC
  5
13B
330
1F
100
AcDbEntity
  8
0
  6
HIDDEN
 62
     7
370
     0
100
AcDbCircle
 10
105.9988675281
 20
70.2006587709
 30
0.0
 40
0.9962338214387074
100
AcDbArc
 50
0.0
 51
25.7988228126
  0
ARC
  5
13C
330
1F
100
AcDbEntity
  8
0
  6
HIDDEN
 62
     7
370
     0
100
AcDbCircle
 10
105.9988675281
 20
147.4576294198
 30
0.0
 40
0.9962338214387002
100
AcDbArc
 50
348.75
 51
8.0
  0
LWPOLYLINE
  5
13D
330
1F
100
AcDbEntity
  8
0
  6
HIDDEN
 62
     7
370
     0
100
AcDbPolyline
 90
        3
 70
   128
 43
0.0
 10
106.975958996
 20
147.2632738428
 10
106.9192675653
 20
147.0763872416
 10
106.8958044465
 20
147.0240559066
  0
LINE
  5
13E
330
1F
100
AcDbEntity
  8
0
  6
HIDDEN
 62
     7
370
     0
100
AcDbLine
 10
106.9951013495
 20
70.2006587709
 30
0.0
 11
106.9951013495
 21
147.4576294198
 31
0.0
  0
LINE
  5
13F
330
1F
100
AcDbEntity
  8
0
  6
HIDDEN
 62
     7
370
     0
100
AcDbLine
 10
80.3565303887
 20
77.3291440953
 30
0.0
 11
85.9009748205
 21
77.3291440953
 31
0.0
  0
LINE
  5
140
330
1F
100
AcDbEntity
  8
0
  6
HIDDEN
 62
     7
370
     0
100
AcDbLine
 10
85.9009748205
 20
140.3291440953
 30
0.0
 11
80.3565303887
 21
140.3291440953
 31
0.0
  0
ARC
  5
141
330
1F
100
AcDbEntity
  8
0
  6
HIDDEN
 62
     7
370
     0
100
AcDbCircle
 10
80.3565303887
 20
78.3291440953
 30
0.0
 40
1.0
100
AcDbArc
 50
210.0
 51
270.0
  0
ARC
  5
142
330
1F
100
AcDbEntity
  8
0
  6
HIDDEN
 62
     7
370
     0
100
AcDbCircle
 10
80.3565303887
 20
139.3291440953
 30
0.0
 40
1.0
100
AcDbArc
 50
90.0
 51
150.0
  0
ARC
  5
143
330
1F
100
AcDbEntity
  8
0
  6
HIDDEN
 62
     7
370
     0
100
AcDbCircle
 10
97.1490101017
 20
89.3291440953
 30
0.0
 40
12.0
100
AcDbArc
 50
273.4750678888
 51
324.3146652873
  0
ARC
  5
144
330
1F
100
AcDbEntity
  8
0
  6
HIDDEN
 62
     7
370
     0
100
AcDbCircle
 10
97.1490101017
 20
128.3291440953
 30
0.0
 40
12.00000000000003
100
AcDbArc
 50
35.6853347127
 51
86.5284337865
  0
LINE
  5
145
330
1F
100
AcDbEntity
  8
0
  6
HIDDEN
 62
     7
370
     0
100
AcDbLine
 10
79.4905049849
 20
139.8291440953
 30
0.0
 11
76.8924287736
 21
135.3291440953
 31
0.0
  0
LINE
  5
146
330
1F
100
AcDbEntity
  8
0
  6
HIDDEN
 62
     7
370
     0
100
AcDbLine
 10
76.8924287736
 20
82.3291440953
 30
0.0
 11
79.4905049849
 21
77.8291440953
 31
0.0
  0
ARC
  5
147
330
1F
100
AcDbEntity
  8
0
  6
HIDDEN
 62
     7
370
     0
100
AcDbCircle
 10
117.3458044465
 20
83.9541440953
 30
0.0
 40
2.000000000000026
100
AcDbArc
 50
234.3409123039
 51
0.0
  0
ARC
  5
148
330
1F
100
AcDbEntity
  8
0
  6
HIDDEN
 62
     7
370
     0
100
AcDbCircle
 10
117.3458044465
 20
133.7041440953
 30
0.0
 40
2.000000000000003
100
AcDbArc
 50
0.0
 51
125.6590876961
  0
LINE
  5
149
330
1F
100
AcDbEntity
  8
0
  6
HIDDEN
 62
     7
370
     0
100
AcDbLine
 10
106.8958044465
 20
82.3291440953
 30
0.0
 11
116.1798820649
 21
82.3291440953
 31
0.0
  0
LINE
  5
14A
330
1F
100
AcDbEntity
  8
0
  6
HIDDEN
 62
     7
370
     0
100
AcDbLine
 10
116.1798820649
 20
135.3291440953
 30
0.0
 11
106.8958044465
 21
135.3291440953
 31
0.0
  0
LINE
  5
14B
330
1F
100
AcDbEntity
  8
0
  6
HIDDEN
 62
     7
370
     0
100
AcDbLine
 10
72.0958044465
 20
82.3291440953
 30
0.0
 11
76.8924287736
 21
82.3291440953
 31
0.0
  0
LINE
  5
14C
330
1F
100
AcDbEntity
  8
0
  6
HIDDEN
 62
     7
370
     0
100
AcDbLine
 10
76.8924287736
 20
135.3291440953
 30
0.0
 11
67.0958044465
 21
135.3291440953
 31
0.0
  0
LINE
  5
14D
330
1F
100
AcDbEntity
  8
0
  6
HIDDEN
 62
     7
370
     0
100
AcDbLine
 10
110.8958044465
 20
154.5063069774
 30
0.0
 11
110.8958044465
 21
150.806557874
 31
0.0
  0
LINE
  5
14E
330
1F
100
AcDbEntity
  8
0
  6
HIDDEN
 62
     7
370
     0
100
AcDbLine
 10
120.8958044465
 20
150.806557874
 30
0.0
 11
120.8958044465
 21
154.5049350282
 31
0.0
  0
LINE
  5
14F
330
1F
100
AcDbEntity
  8
0
  6
HIDDEN
 62
     7
370
     0
100
AcDbLine
 10
131.1958044465
 20
95.8291440953
 30
0.0
 11
135.1958044465
 21
95.8291440953
 31
0.0
  0
LINE
  5
150
330
1F
100
AcDbEntity
  8
0
  6
HIDDEN
 62
     7
370
     0
100
AcDbLine
 10
135.1958044465
 20
121.8291440953
 30
0.0
 11
131.1958044465
 21
121.8291440953
 31
0.0
  0
LINE
  5
151
330
1F
100
AcDbEntity
  8
0
  6
HIDDEN
 62
     7
370
     0
100
AcDbLine
 10
119.3458044465
 20
96.8291440953
 30
0.0
 11
120.0958044465
 21
97.5791440953
 31
0.0
  0
LINE
  5
152
330
1F
100
AcDbEntity
  8
0
  6
HIDDEN
 62
     7
370
     0
100
AcDbLine
 10
120.0958044465
 20
120.0791440953
 30
0.0
 11
119.3458044465
 21
120.8291440953
 31
0.0
  0
LINE
  5
153
330
1F
100
AcDbEntity
  8
0
  6
HIDDEN
 62
     7
370
     0
100
AcDbLine
 10
120.0958044465
 20
97.5791440953
 30
0.0
 11
131.1958044465
 21
97.5791440953
 31
0.0
  0
LINE
  5
154
330
1F
100
AcDbEntity
  8
0
  6
HIDDEN
 62
     7
370
     0
100
AcDbLine
 10
131.1958044465
 20
120.0791440953
 30
0.0
 11
120.0958044465
 21
120.0791440953
 31
0.0
  0
LINE
  5
155
330
1F
100
AcDbEntity
  8
0
  6
HIDDEN
 62
     7
370
     0
100
AcDbLine
 10
111.8458044465
 20
158.8291440953
 30
0.0
 11
111.8458044465
 21
152.7291440953
 31
0.0
  0
ARC
  5
156
330
1F
100
AcDbEntity
  8
0
  6
HIDDEN
 62
     7
370
     0
100
AcDbCircle
 10
236.3958044465
 20
100.7924498473
 30
0.0
 40
0.5
100
AcDbArc
 50
0.0
 51
80.0
  0
ARC
  5
157
330
1F
100
AcDbEntity
  8
0
  6
HIDDEN
 62
     7
370
     0
100
AcDbCircle
 10
236.3958044465
 20
116.8658383434
 30
0.0
 40
0.5
100
AcDbArc
 50
280.0
 51
0.0
  0
LINE
  5
158
330
1F
100
AcDbEntity
  8
0
  6
HIDDEN
 62
     7
370
     0
100
AcDbLine
 10
236.4826285354
 20
116.3734344669
 30
0.0
 11
233.3958044465
 21
115.8291440953
 31
0.0
  0
LINE
  5
159
330
1F
100
AcDbEntity
  8
0
  6
HIDDEN
 62
     7
370
     0
100
AcDbLine
 10
233.3958044465
 20
101.8291440953
 30
0.0
 11
236.4826285354
 21
101.2848537238
 31
0.0
  0
LINE
  5
15A
330
1F
100
AcDbEntity
  8
0
  6
HIDDEN
 62
     7
370
     0
100
AcDbLine
 10
193.8958044465
 20
101.5291440953
 30
0.0
 11
200.0010304284
 21
101.5291440953
 31
0.0
  0
LINE
  5
15B
330
1F
100
AcDbEntity
  8
0
  6
HIDDEN
 62
     7
370
     0
100
AcDbLine
 10
190.7958044465
 20
101.5291440953
 30
0.0
 11
190.899457145
 21
101.5291440953
 31
0.0
  0
LINE
  5
15C
330
1F
100
AcDbEntity
  8
0
  6
HIDDEN
 62
     7
370
     0
100
AcDbLine
 10
190.8981668494
 20
116.1291440953
 30
0.0
 11
190.7958044465
 21
116.1291440953
 31
0.0
  0
LINE
  5
15D
330
1F
100
AcDbEntity
  8
0
  6
HIDDEN
 62
     7
370
     0
100
AcDbLine
 10
200.0010304284
 20
116.1291440953
 30
0.0
 11
193.8906792744
 21
116.1291440953
 31
0.0
  0
ARC
  5
15E
330
1F
100
AcDbEntity
  8
0
  6
HIDDEN
 62
     7
370
     0
100
AcDbCircle
 10
200.0010304284
 20
101.9291440953
 30
0.0
 40
0.3999999999999977
100
AcDbArc
 50
270.0
 51
290.0
  0
ARC
  5
15F
330
1F
100
AcDbEntity
  8
0
  6
HIDDEN
 62
     7
370
     0
100
AcDbCircle
 10
200.0010304284
 20
115.7291440953
 30
0.0
 40
0.3999999999999977
100
AcDbArc
 50
70.0
 51
90.0
  0
ARC
  5
160
330
1F
100
AcDbEntity
  8
0
  6
HIDDEN
 62
     7
370
     0
100
AcDbCircle
 10
190.7958044465
 20
101.9291440953
 30
0.0
 40
0.4000000000000057
100
AcDbArc
 50
180.0
 51
270.0
  0
ARC
  5
161
330
1F
100
AcDbEntity
  8
0
  6
HIDDEN
 62
     7
370
     0
100
AcDbCircle
 10
190.7958044465
 20
115.7291440953
 30
0.0
 40
0.4000000000000057
100
AcDbArc
 50
90.0
 51
180.0
  0
LINE
  5
162
330
1F
100
AcDbEntity
  8
0
  6
HIDDEN
 62
     7
370
     0
100
AcDbLine
 10
200.1378384857
 20
101.553267047
 30
0.0
 11
200.8958044465
 21
101.8291440953
 31
0.0
  0
LINE
  5
163
330
1F
100
AcDbEntity
  8
0
  6
HIDDEN
 62
     7
370
     0
100
AcDbLine
 10
200.8958044465
 20
115.8291440953
 30
0.0
 11
200.1378384857
 21
116.1050211437
 31
0.0
  0
LINE
  5
164
330
1F
100
AcDbEntity
  8
0
  6
HIDDEN
 62
     7
370
     0
100
AcDbLine
 10
200.8958044465
 20
101.8291440953
 30
0.0
 11
233.3958044465
 21
101.8291440953
 31
0.0
  0
LINE
  5
165
330
1F
100
AcDbEntity
  8
0
  6
HIDDEN
 62
     7
370
     0
100
AcDbLine
 10
233.3958044465
 20
115.8291440953
 30
0.0
 11
200.8958044465
 21
115.8291440953
 31
0.0
  0
LINE
  5
166
330
1F
100
AcDbEntity
  8
0
  6
HIDDEN
 62
     7
370
     0
100
AcDbLine
 10
98.3285170626
 20
71.2508645247
 30
0.0
 11
97.8958077761
 21
71.7290892421
 31
0.0
  0
LINE
  5
167
330
1F
100
AcDbEntity
  8
0
  6
HIDDEN
 62
     7
370
     0
100
AcDbLine
 10
85.8958049046
 20
72.3760505988
 30
0.0
 11
85.4151775993
 21
71.897825888
 31
0.0
  0
LINE
  5
168
330
1F
100
AcDbEntity
  8
0
  6
HIDDEN
 62
     7
370
     0
100
AcDbLine
 10
85.4150592578
 20
145.7604563866
 30
0.0
 11
85.8958047219
 21
145.2821767147
 31
0.0
  0
LINE
  5
169
330
1F
100
AcDbEntity
  8
0
  6
HIDDEN
 62
     7
370
     0
100
AcDbLine
 10
97.8958044487
 20
145.9291491021
 30
0.0
 11
98.3286261184
 21
146.4074287749
 31
0.0
  0
LINE
  5
16A
330
1F
100
AcDbEntity
  8
0
  6
HIDDEN
 62
     7
370
     0
100
AcDbLine
 10
97.8958044465
 20
71.6289603996
 30
0.0
 11
97.8958044465
 21
77.3550792014
 31
0.0
  0
LINE
  5
16B
330
1F
100
AcDbEntity
  8
0
  6
HIDDEN
 62
     7
370
     0
100
AcDbLine
 10
85.8958044465
 20
77.3301282947
 30
0.0
 11
85.8958044465
 21
72.3760890133
 31
0.0
  0
LINE
  5
16C
330
1F
100
AcDbEntity
  8
0
  6
HIDDEN
 62
     7
370
     0
100
AcDbLine
 10
97.8958044465
 20
140.3032089893
 30
0.0
 11
97.8958044465
 21
146.0291529281
 31
0.0
  0
LINE
  5
16D
330
1F
100
AcDbEntity
  8
0
  6
HIDDEN
 62
     7
370
     0
100
AcDbLine
 10
85.8958044465
 20
145.2821662154
 30
0.0
 11
85.8958044465
 21
140.328159896
 31
0.0
  0
LINE
  5
16E
330
1F
100
AcDbEntity
  8
0
  6
HIDDEN
 62
     7
370
     0
100
AcDbLine
 10
169.494513518
 20
102.8291440953
 30
0.0
 11
170.3958044465
 21
104.3291440953
 31
0.0
  0
LINE
  5
16F
330
1F
100
AcDbEntity
  8
0
  6
HIDDEN
 62
     7
370
     0
100
AcDbLine
 10
170.3958044465
 20
113.3291440953
 30
0.0
 11
169.494513518
 21
114.8291440953
 31
0.0
  0
LINE
  5
170
330
1F
100
AcDbEntity
  8
0
  6
HIDDEN
 62
     7
370
     0
100
AcDbLine
 10
135.1958044465
 20
102.8291440953
 30
0.0
 11
169.494513518
 21
102.8291440953
 31
0.0
  0
LINE
  5
171
330
1F
100
AcDbEntity
  8
0
  6
HIDDEN
 62
     7
370
     0
100
AcDbLine
 10
169.494513518
 20
114.8291440953
 30
0.0
 11
135.1958044465
 21
114.8291440953
 31
0.0
  0
LINE
  5
172
330
1F
100
AcDbEntity
  8
0
  6
HIDDEN
 62
     7
370
     0
100
AcDbLine
 10
190.3958044465
 20
113.8291440953
 30
0.0
 11
189.8958044465
 21
113.3291440953
 31
0.0
  0
LINE
  5
173
330
1F
100
AcDbEntity
  8
0
  6
HIDDEN
 62
     7
370
     0
100
AcDbLine
 10
189.8958044465
 20
104.3291440953
 30
0.0
 11
190.3958044465
 21
103.8291440953
 31
0.0
  0
LINE
  5
174
330
1F
100
AcDbEntity
  8
0
  6
HIDDEN
 62
     7
370
     0
100
AcDbLine
 10
170.3958044465
 20
104.3291440953
 30
0.0
 11
189.8958044465
 21
104.3291440953
 31
0.0
  0
LINE
  5
175
330
1F
100
AcDbEntity
  8
0
  6
HIDDEN
 62
     7
370
     0
100
AcDbLine
 10
189.8958044465
 20
113.3291440953
 30
0.0
 11
170.3958044465
 21
113.3291440953
 31
0.0
  0
LINE
  5
176
330
1F
100
AcDbEntity
  8
0
  6
HIDDEN
 62
     7
370
     0
100
AcDbLine
 10
145.3458044465
 20
127.3291440953
 30
0.0
 11
146.3458044465
 21
126.7517938262
 31
0.0
  0
LINE
  5
177
330
1F
100
AcDbEntity
  8
0
  6
HIDDEN
 62
     7
370
     0
100
AcDbLine
 10
151.3458044465
 20
126.7517938262
 30
0.0
 11
152.3458044465
 21
127.3291440953
 31
0.0
  0
LINE
  5
178
330
1F
100
AcDbEntity
  8
0
  6
HIDDEN
 62
     7
370
     0
100
AcDbLine
 10
152.3458044465
 20
90.3291440953
 30
0.0
 11
151.3458044465
 21
90.9064943645
 31
0.0
  0
LINE
  5
179
330
1F
100
AcDbEntity
  8
0
  6
HIDDEN
 62
     7
370
     0
100
AcDbLine
 10
146.3458044465
 20
90.9064943645
 30
0.0
 11
145.3458044465
 21
90.3291440953
 31
0.0
  0
LINE
  5
17A
330
1F
100
AcDbEntity
  8
0
  6
HIDDEN
 62
     7
370
     0
100
AcDbLine
 10
146.3458044465
 20
126.7517938262
 30
0.0
 11
146.3458044465
 21
118.3291440953
 31
0.0
  0
LINE
  5
17B
330
1F
100
AcDbEntity
  8
0
  6
HIDDEN
 62
     7
370
     0
100
AcDbLine
 10
151.3458044465
 20
118.3291440953
 30
0.0
 11
151.3458044465
 21
126.7517938262
 31
0.0
  0
LINE
  5
17C
330
1F
100
AcDbEntity
  8
0
  6
HIDDEN
 62
     7
370
     0
100
AcDbLine
 10
146.3458044465
 20
118.3291440953
 30
0.0
 11
148.8458044465
 21
116.8269925478
 31
0.0
  0
LINE
  5
17D
330
1F
100
AcDbEntity
  8
0
  6
HIDDEN
 62
     7
370
     0
100
AcDbLine
 10
148.8458044465
 20
116.8269925478
 30
0.0
 11
151.3458044465
 21
118.3291440953
 31
0.0
  0
LINE
  5
17E
330
1F
100
AcDbEntity
  8
0
  6
HIDDEN
 62
     7
370
     0
100
AcDbLine
 10
151.3458044465
 20
90.9064943645
 30
0.0
 11
151.3458044465
 21
99.3291440953
 31
0.0
  0
LINE
  5
17F
330
1F
100
AcDbEntity
  8
0
  6
HIDDEN
 62
     7
370
     0
100
AcDbLine
 10
146.3458044465
 20
99.3291440953
 30
0.0
 11
146.3458044465
 21
90.9064943645
 31
0.0
  0
LINE
  5
180
330
1F
100
AcDbEntity
  8
0
  6
HIDDEN
 62
     7
370
     0
100
AcDbLine
 10
151.3458044465
 20
99.3291440953
 30
0.0
 11
148.8458044465
 21
100.8312956429
 31
0.0
  0
LINE
  5
181
330
1F
100
AcDbEntity
  8
0
  6
HIDDEN
 62
     7
370
     0
100
AcDbLine
 10
148.8458044465
 20
100.8312956429
 30
0.0
 11
146.3458044465
 21
99.3291440953
 31
0.0
  0
LINE
  5
182
330
1F
100
AcDbEntity
  8
0
  6
HIDDEN
 62
     7
370
     0
100
AcDbLine
 10
190.8958044465
 20
119.3976245182
 30
0.0
 11
190.8958044465
 21
116.1286623272
 31
0.0
  0
LINE
  5
183
330
1F
100
AcDbEntity
  8
0
  6
HIDDEN
 62
     7
370
     0
100
AcDbLine
 10
190.8958044465
 20
122.8291440953
 30
0.0
 11
190.8958044465
 21
121.7580317589
 31
0.0
  0
LINE
  5
184
330
1F
100
AcDbEntity
  8
0
  6
HIDDEN
 62
     7
370
     0
100
AcDbLine
 10
193.8958044465
 20
121.7658263671
 30
0.0
 11
193.8958044465
 21
122.8291440953
 31
0.0
  0
LINE
  5
185
330
1F
100
AcDbEntity
  8
0
  6
HIDDEN
 62
     7
370
     0
100
AcDbLine
 10
193.8958044465
 20
116.1280935633
 30
0.0
 11
193.8958044465
 21
119.2676542484
 31
0.0
  0
LINE
  5
186
330
1F
100
AcDbEntity
  8
0
  6
HIDDEN
 62
     7
370
     0
100
AcDbLine
 10
190.8958044465
 20
95.9002564317
 30
0.0
 11
190.8958044465
 21
94.8291440953
 31
0.0
  0
LINE
  5
187
330
1F
100
AcDbEntity
  8
0
  6
HIDDEN
 62
     7
370
     0
100
AcDbLine
 10
190.8958044465
 20
101.5298910545
 30
0.0
 11
190.8958044465
 21
98.2606636725
 31
0.0
  0
LINE
  5
188
330
1F
100
AcDbEntity
  8
0
  6
HIDDEN
 62
     7
370
     0
100
AcDbLine
 10
193.8958044465
 20
98.3906339423
 30
0.0
 11
193.8958044465
 21
101.5291440953
 31
0.0
  0
LINE
  5
189
330
1F
100
AcDbEntity
  8
0
  6
HIDDEN
 62
     7
370
     0
100
AcDbLine
 10
193.8958044465
 20
94.8291440953
 30
0.0
 11
193.8958044465
 21
95.8924618236
 31
0.0
  0
LINE
  5
18A
330
1F
100
AcDbEntity
  8
0
  6
HIDDEN
 62
     7
370
     0
100
AcDbLine
 10
190.8958044465
 20
94.8291440953
 30
0.0
 11
192.3958044465
 21
93.9278531668
 31
0.0
  0
LINE
  5
18B
330
1F
100
AcDbEntity
  8
0
  6
HIDDEN
 62
     7
370
     0
100
AcDbLine
 10
192.3958044465
 20
93.9278531668
 30
0.0
 11
193.8958044465
 21
94.8291440953
 31
0.0
  0
LINE
  5
18C
330
1F
100
AcDbEntity
  8
0
  6
HIDDEN
 62
     7
370
     0
100
AcDbLine
 10
193.8927497498
 20
95.8885850264
 30
0.0
 11
236.8958044465
 21
97.5781796471
 31
0.0
  0
LINE
  5
18D
330
1F
100
AcDbEntity
  8
0
  6
HIDDEN
 62
     7
370
     0
100
AcDbLine
 10
236.8958044465
 20
100.0801085436
 30
0.0
 11
193.8958044465
 21
98.3906339423
 31
0.0
  0
LINE
  5
18E
330
1F
100
AcDbEntity
  8
0
  6
HIDDEN
 62
     7
370
     0
100
AcDbLine
 10
193.8958044465
 20
119.2676542484
 30
0.0
 11
236.8958044465
 21
117.5781796471
 31
0.0
  0
LINE
  5
18F
330
1F
100
AcDbEntity
  8
0
  6
HIDDEN
 62
     7
370
     0
100
AcDbLine
 10
236.8958044465
 20
120.0801085436
 30
0.0
 11
193.8927497498
 21
121.7697031643
 31
0.0
  0
LINE
  5
190
330
1F
100
AcDbEntity
  8
0
  6
HIDDEN
 62
     7
370
     0
100
AcDbLine
 10
190.8821940098
 20
98.2722288657
 30
0.0
 11
190.1807720579
 21
96.9937054739
 31
0.0
  0
LINE
  5
191
330
1F
100
AcDbEntity
  8
0
  6
HIDDEN
 62
     7
370
     0
100
AcDbLine
 10
190.1807720579
 20
96.9937054739
 30
0.0
 11
190.8997708832
 21
95.8970500143
 31
0.0
  0
LINE
  5
192
330
1F
100
AcDbEntity
  8
0
  6
HIDDEN
 62
     7
370
     0
100
AcDbLine
 10
190.8997708832
 20
121.7612381764
 30
0.0
 11
190.1807720579
 21
120.6645827168
 31
0.0
  0
LINE
  5
193
330
1F
100
AcDbEntity
  8
0
  6
HIDDEN
 62
     7
370
     0
100
AcDbLine
 10
190.1807720579
 20
120.6645827168
 30
0.0
 11
190.8821940098
 21
119.386059325
 31
0.0
  0
LINE
  5
194
330
1F
100
AcDbEntity
  8
0
  6
HIDDEN
 62
     7
370
     0
100
AcDbLine
 10
110.8958044465
 20
156.3818553934
 30
0.0
 11
110.8958044465
 21
154.5063069774
 31
0.0
  0
LINE
  5
195
330
1F
100
AcDbEntity
  8
0
  6
HIDDEN
 62
     7
370
     0
100
AcDbLine
 10
120.8958044465
 20
154.5049350282
 30
0.0
 11
120.8958044465
 21
156.3804271106
 31
0.0
  0
LINE
  5
196
330
1F
100
AcDbEntity
  8
0
  6
HIDDEN
 62
     7
370
     0
100
AcDbLine
 10
236.8223171366
 20
97.3250994332
 30
0.0
 11
236.8958044465
 21
97.464775835
 31
0.0
  0
LINE
  5
197
330
1F
100
AcDbEntity
  8
0
  6
HIDDEN
 62
     7
370
     0
100
AcDbLine
 10
236.877371963
 20
100.0488607968
 30
0.0
 11
236.7045376893
 21
100.3227865419
 31
0.0
  0
LINE
  5
198
330
1F
100
AcDbEntity
  8
0
  6
HIDDEN
 62
     7
370
     0
100
AcDbLine
 10
236.7045376893
 20
100.3227865419
 30
0.0
 11
231.3705998854
 21
100.1132155548
 31
0.0
  0
LINE
  5
199
330
1F
100
AcDbEntity
  8
0
  6
HIDDEN
 62
     7
370
     0
100
AcDbLine
 10
231.4883793327
 20
97.1155284461
 30
0.0
 11
236.8223171366
 21
97.3250994332
 31
0.0
  0
LINE
  5
19A
330
1F
100
AcDbEntity
  8
0
  6
HIDDEN
 62
     7
370
     0
100
AcDbLine
 10
231.3705998854
 20
100.1132155548
 30
0.0
 11
230.8906152752
 21
99.5939711288
 31
0.0
  0
LINE
  5
19B
330
1F
100
AcDbEntity
  8
0
  6
HIDDEN
 62
     7
370
     0
100
AcDbLine
 10
230.9691349067
 20
97.5955130563
 30
0.0
 11
231.4883793327
 21
97.1155284461
 31
0.0
  0
LINE
  5
19C
330
1F
100
AcDbEntity
  8
0
  6
HIDDEN
 62
     7
370
     0
100
AcDbLine
 10
236.6456479656
 20
117.3378154323
 30
0.0
 11
236.8184822394
 21
117.6117411774
 31
0.0
  0
LINE
  5
19D
330
1F
100
AcDbEntity
  8
0
  6
HIDDEN
 62
     7
370
     0
100
AcDbLine
 10
236.8958044465
 20
120.0838951854
 30
0.0
 11
236.7634274129
 21
120.3355025411
 31
0.0
  0
LINE
  5
19E
330
1F
100
AcDbEntity
  8
0
  6
HIDDEN
 62
     7
370
     0
100
AcDbLine
 10
236.7634274129
 20
120.3355025411
 30
0.0
 11
231.429489609
 21
120.5450735281
 31
0.0
  0
LINE
  5
19F
330
1F
100
AcDbEntity
  8
0
  6
HIDDEN
 62
     7
370
     0
100
AcDbLine
 10
231.3117101618
 20
117.5473864194
 30
0.0
 11
236.6456479656
 21
117.3378154323
 31
0.0
  0
LINE
  5
1A0
330
1F
100
AcDbEntity
  8
0
  6
HIDDEN
 62
     7
370
     0
100
AcDbLine
 10
231.429489609
 20
120.5450735281
 30
0.0
 11
230.910245183
 21
120.0650889179
 31
0.0
  0
LINE
  5
1A1
330
1F
100
AcDbEntity
  8
0
  6
HIDDEN
 62
     7
370
     0
100
AcDbLine
 10
230.8317255515
 20
118.0666308454
 30
0.0
 11
231.3117101618
 21
117.5473864194
 31
0.0
  0
LINE
  5
1A2
330
1F
100
AcDbEntity
  8
0
  6
HIDDEN
 62
     7
370
     0
100
AcDbLine
 10
174.3958044465
 20
103.8291440953
 30
0.0
 11
189.8958044465
 21
103.8291440953
 31
0.0
  0
LINE
  5
1A3
330
1F
100
AcDbEntity
  8
0
  6
HIDDEN
 62
     7
370
     0
100
AcDbLine
 10
189.8958044465
 20
113.8291440953
 30
0.0
 11
174.3958044465
 21
113.8291440953
 31
0.0
  0
LINE
  5
1A4
330
1F
100
AcDbEntity
  8
0
  6
HIDDEN
 62
     7
370
     0
100
AcDbLine
 10
189.8958044465
 20
103.8291440953
 30
0.0
 11
190.3958044465
 21
104.3291440953
 31
0.0
  0
LINE
  5
1A5
330
1F
100
AcDbEntity
  8
0
  6
HIDDEN
 62
     7
370
     0
100
AcDbLine
 10
190.3958044465
 20
113.3291440953
 30
0.0
 11
189.8958044465
 21
113.8291440953
 31
0.0
  0
LINE
  5
1A6
330
1F
100
AcDbEntity
  8
0
  6
HIDDEN
 62
     7
370
     0
100
AcDbLine
 10
174.3958044465
 20
113.8291440953
 30
0.0
 11
173.8958044465
 21
113.3291440953
 31
0.0
  0
LINE
  5
1A7
330
1F
100
AcDbEntity
  8
0
  6
HIDDEN
 62
     7
370
     0
100
AcDbLine
 10
173.8958044465
 20
104.3291440953
 30
0.0
 11
174.3958044465
 21
103.8291440953
 31
0.0
  0
LINE
  5
1A8
330
1F
100
AcDbEntity
  8
0
  6
HIDDEN
 62
     7
370
     0
100
AcDbLine
 10
190.3958044465
 20
104.3291440953
 30
0.0
 11
193.8958044465
 21
104.3291440953
 31
0.0
  0
LINE
  5
1A9
330
1F
100
AcDbEntity
  8
0
  6
HIDDEN
 62
     7
370
     0
100
AcDbLine
 10
193.8958044465
 20
113.3291440953
 30
0.0
 11
190.3958044465
 21
113.3291440953
 31
0.0
  0
LINE
  5
1AA
330
1F
100
AcDbEntity
  8
0
  6
HIDDEN
 62
     7
370
     0
100
AcDbLine
 10
179.8958044465
 20
106.3291440953
 30
0.0
 11
187.8958044465
 21
106.3291440953
 31
0.0
  0
LINE
  5
1AB
330
1F
100
AcDbEntity
  8
0
  6
HIDDEN
 62
     7
370
     0
100
AcDbLine
 10
187.8958044465
 20
111.3291440953
 30
0.0
 11
179.8958044465
 21
111.3291440953
 31
0.0
  0
DIMENSION
  5
1AC
330
1F
100
AcDbEntity
  8
VERMASSUNG
100
AcDbDimension
  2
*D1
 10
51.0308775731
 20
58.8291440953
 30
0.0
 11
51.0308775731
 21
108.8291440953
 31
0.0
 70
   160
  1
HSK A %%c<>
 71
     2
 42
-1.0
  3
SLDDIMSTYLE0
100
AcDbAlignedDimension
 13
107.3958044465
 23
158.8291440953
 33
0.0
 14
107.3958044465
 24
58.8291440953
 34
0.0
 50
90.0
100
AcDbRotatedDimension
  0
DIMENSION
  5
1B9
330
1F
100
AcDbEntity
  8
VERMASSUNG
100
AcDbDimension
  2
*D2
 10
236.8958044465
 20
156.8291440953
 30
0.0
 11
213.6458044465
 21
156.8291440953
 31
0.0
 70
   160
 71
     2
 42
-1.0
  3
SLDDIMSTYLE1
100
AcDbAlignedDimension
 13
190.3958044465
 23
115.7291440953
 33
0.0
 14
236.8958044465
 24
120.480363112
 34
0.0
100
AcDbRotatedDimension
  0
DIMENSION
  5
1C4
330
1F
100
AcDbEntity
  8
VERMASSUNG
100
AcDbDimension
  2
*D3
 10
244.112567714
 20
115.8291440953
 30
0.0
 11
244.112567714
 21
108.8291440953
 31
0.0
 70
   160
  1
%%c<>
 71
     2
 42
-1.0
  3
SLDDIMSTYLE2
100
AcDbAlignedDimension
 13
233.3958044465
 23
101.8291440953
 33
0.0
 14
233.3958044465
 24
115.8291440953
 34
0.0
 50
90.0
100
AcDbRotatedDimension
  0
DIMENSION
  5
1D0
330
1F
100
AcDbEntity
  8
VERMASSUNG
100
AcDbDimension
  2
*D4
 10
250.112567714
 20
122.3291440953
 30
0.0
 11
250.112567714
 21
108.8291440953
 31
0.0
 70
   160
  1
%%c<>
 71
     2
 42
-1.0
  3
SLDDIMSTYLE3
100
AcDbAlignedDimension
 13
236.8958044465
 23
95.3291440953
 33
0.0
 14
236.8958044465
 24
122.3291440953
 34
0.0
 50
90.0
100
AcDbRotatedDimension
  0
DIMENSION
  5
1DC
330
1F
100
AcDbEntity
  8
VERMASSUNG
100
AcDbDimension
  2
*D5
 10
236.8958044465
 20
168.8291440953
 30
0.0
 11
171.8958044465
 21
168.8291440953
 31
0.0
 70
   160
 71
     2
 42
-1.0
  3
SLDDIMSTYLE0
100
AcDbAlignedDimension
 13
106.8958044465
 23
158.3291440953
 33
0.0
 14
236.8958044465
 24
120.480363112
 34
0.0
100
AcDbRotatedDimension
  0
DIMENSION
  5
1E6
330
1F
100
AcDbEntity
  8
VERMASSUNG
100
AcDbDimension
  2
*D6
 10
236.8958044465
 20
162.8291440953
 30
0.0
 11
186.3708044465
 21
162.8291440953
 31
0.0
 70
   160
 71
     2
 42
-1.0
  3
SLDDIMSTYLE0
100
AcDbAlignedDimension
 13
135.8458044465
 23
156.7978839162
 33
0.0
 14
236.8958044465
 24
120.480363112
 34
0.0
100
AcDbRotatedDimension
  0
DIMENSION
  5
1F0
330
1F
100
AcDbEntity
  8
VERMASSUNG
100
AcDbDimension
  2
*D7
 10
236.8958044465
 20
174.8291440953
 30
0.0
 11
146.9458044465
 21
174.8291440953
 31
0.0
 70
   160
 71
     2
 42
-1.0
  3
SLDDIMSTYLE0
100
AcDbAlignedDimension
 13
56.9958044465
 23
139.3318138379
 33
0.0
 14
236.8958044465
 24
120.480363112
 34
0.0
100
AcDbRotatedDimension
  0
DIMENSION
  5
1FA
330
1F
100
AcDbEntity
  8
VERMASSUNG
100
AcDbDimension
  2
*D8
 10
256.112567714
 20
90.3291440953
 30
0.0
 11
256.112567714
 21
108.8291440953
 31
0.0
 70
   160
  1
%%c<>
 71
     2
 42
-1.0
  3
SLDDIMSTYLE0
100
AcDbAlignedDimension
 13
157.8458044465
 23
127.3291440953
 33
0.0
 14
157.8458044465
 24
90.3291440953
 34
0.0
 50
90.0
100
AcDbRotatedDimension
  0
LINE
  5
205
330
1F
100
AcDbEntity
  8
VERMASSUNG
  6
CENTERX2
370
     0
100
AcDbLine
 10
53.8157096425
 20
108.8291440953
 30
0.0
 11
238.8958044465
 21
108.8291440953
 31
0.0
  0
OLE2FRAME
  5
206
330
1F
100
AcDbEntity
  8
0
100
AcDbOle2Frame
 70
     2
  3
Bitmap Image
 10
13.8511154363
 20
38.264191557
 30
0.0
 11
51.6290888628
 21
31.9806341108
 31
0.0
 71
     2
 72
     0
 73
     1
 90
    12928
310
80552BED0767C5B32B40DDAF6807D121434000000000000000006FFBDDFB85D0
310
4940DDAF6807D121434000000000000000006FFBDDFB85D04940416F4BD60AFB
310
3F4000000000000000002BED0767C5B32B40416F4BD60AFB3F40000000000000
310
0000000000000100000000010000010000000100000000000100000000320000
310
D0CF11E0A1B11AE1000000000000000000000000000000003E000300FEFF0900
310
0600000000000000000000000100000001000000000000000010000002000000
310
01000000FEFFFFFF0000000000000000FFFFFFFFFFFFFFFFFFFFFFFFFFFFFFFF
310
FFFFFFFFFFFFFFFFFFFFFFFFFFFFFFFFFFFFFFFFFFFFFFFFFFFFFFFFFFFFFFFF
310
FFFFFFFFFFFFFFFFFFFFFFFFFFFFFFFFFFFFFFFFFFFFFFFFFFFFFFFFFFFFFFFF
310
FFFFFFFFFFFFFFFFFFFFFFFFFFFFFFFFFFFFFFFFFFFFFFFFFFFFFFFFFFFFFFFF
310
FFFFFFFFFFFFFFFFFFFFFFFFFFFFFFFFFFFFFFFFFFFFFFFFFFFFFFFFFFFFFFFF
310
FFFFFFFFFFFFFFFFFFFFFFFFFFFFFFFFFFFFFFFFFFFFFFFFFFFFFFFFFFFFFFFF
310
FFFFFFFFFFFFFFFFFFFFFFFFFFFFFFFFFFFFFFFFFFFFFFFFFFFFFFFFFFFFFFFF
310
FFFFFFFFFFFFFFFFFFFFFFFFFFFFFFFFFFFFFFFFFFFFFFFFFFFFFFFFFFFFFFFF
310
FFFFFFFFFFFFFFFFFFFFFFFFFFFFFFFFFFFFFFFFFFFFFFFFFFFFFFFFFFFFFFFF
310
FFFFFFFFFFFFFFFFFFFFFFFFFFFFFFFFFFFFFFFFFFFFFFFFFFFFFFFFFFFFFFFF
310
FFFFFFFFFFFFFFFFFFFFFFFFFFFFFFFFFFFFFFFFFFFFFFFFFFFFFFFFFFFFFFFF
310
FFFFFFFFFFFFFFFFFFFFFFFFFFFFFFFFFFFFFFFFFFFFFFFFFFFFFFFFFFFFFFFF
310
FFFFFFFFFFFFFFFFFFFFFFFFFFFFFFFFFFFFFFFFFFFFFFFFFFFFFFFFFFFFFFFF
310
FFFFFFFFFFFFFFFFFFFFFFFFFFFFFFFFFFFFFFFFFFFFFFFFFFFFFFFFFFFFFFFF
310
FDFFFFFFFEFFFFFFFEFFFFFFFEFFFFFF05000000060000000700000008000000
310
090000000A0000000B0000000C0000000D0000000E0000000F00000010000000
310
11000000120000001300000014000000150000001600000017000000FEFFFFFF
310
FFFFFFFFFFFFFFFFFFFFFFFFFFFFFFFFFFFFFFFFFFFFFFFFFFFFFFFFFFFFFFFF
310
FFFFFFFFFFFFFFFFFFFFFFFFFFFFFFFFFFFFFFFFFFFFFFFFFFFFFFFFFFFFFFFF
310
FFFFFFFFFFFFFFFFFFFFFFFFFFFFFFFFFFFFFFFFFFFFFFFFFFFFFFFFFFFFFFFF
310
FFFFFFFFFFFFFFFFFFFFFFFFFFFFFFFFFFFFFFFFFFFFFFFFFFFFFFFFFFFFFFFF
310
FFFFFFFFFFFFFFFFFFFFFFFFFFFFFFFFFFFFFFFFFFFFFFFFFFFFFFFFFFFFFFFF
310
FFFFFFFFFFFFFFFFFFFFFFFFFFFFFFFFFFFFFFFFFFFFFFFFFFFFFFFFFFFFFFFF
310
FFFFFFFFFFFFFFFFFFFFFFFFFFFFFFFFFFFFFFFFFFFFFFFFFFFFFFFFFFFFFFFF
310
FFFFFFFFFFFFFFFFFFFFFFFFFFFFFFFFFFFFFFFFFFFFFFFFFFFFFFFFFFFFFFFF
310
FFFFFFFFFFFFFFFFFFFFFFFFFFFFFFFFFFFFFFFFFFFFFFFFFFFFFFFFFFFFFFFF
310
FFFFFFFFFFFFFFFFFFFFFFFFFFFFFFFFFFFFFFFFFFFFFFFFFFFFFFFFFFFFFFFF
310
FFFFFFFFFFFFFFFFFFFFFFFFFFFFFFFFFFFFFFFFFFFFFFFFFFFFFFFFFFFFFFFF
310
FFFFFFFFFFFFFFFFFFFFFFFFFFFFFFFFFFFFFFFFFFFFFFFFFFFFFFFFFFFFFFFF
310
FFFFFFFFFFFFFFFFFFFFFFFFFFFFFFFFFFFFFFFFFFFFFFFFFFFFFFFFFFFFFFFF
310
52006F006F007400200045006E00740072007900000000000000000000000000
310
0000000000000000000000000000000000000000000000000000000000000000
310
16000500FFFFFFFFFFFFFFFF020000000A00030000000000C000000000000046
310
000000000000000000000000E09A8D248E08CC0103000000C000000000000000
310
01004F006C006500000000000000000000000000000000000000000000000000
310
0000000000000000000000000000000000000000000000000000000000000000
310
0A000200FFFFFFFFFFFFFFFFFFFFFFFF00000000000000000000000000000000
310
0000000000000000000000000000000000000000000000001400000000000000
310
010043006F006D0070004F0062006A0000000000000000000000000000000000
310
0000000000000000000000000000000000000000000000000000000000000000
310
120002010100000003000000FFFFFFFF00000000000000000000000000000000
310
0000000000000000000000000000000000000000010000004D00000000000000
310
01004F006C006500310030004E00610074006900760065000000000000000000
310
0000000000000000000000000000000000000000000000000000000000000000
310
1A000200FFFFFFFFFFFFFFFFFFFFFFFF00000000000000000000000000000000
310
0000000000000000000000000000000000000000040000002426000000000000
310
FEFFFFFF02000000FEFFFFFFFFFFFFFFFFFFFFFFFFFFFFFFFFFFFFFFFFFFFFFF
310
FFFFFFFFFFFFFFFFFFFFFFFFFFFFFFFFFFFFFFFFFFFFFFFFFFFFFFFFFFFFFFFF
310
FFFFFFFFFFFFFFFFFFFFFFFFFFFFFFFFFFFFFFFFFFFFFFFFFFFFFFFFFFFFFFFF
310
FFFFFFFFFFFFFFFFFFFFFFFFFFFFFFFFFFFFFFFFFFFFFFFFFFFFFFFFFFFFFFFF
310
FFFFFFFFFFFFFFFFFFFFFFFFFFFFFFFFFFFFFFFFFFFFFFFFFFFFFFFFFFFFFFFF
310
FFFFFFFFFFFFFFFFFFFFFFFFFFFFFFFFFFFFFFFFFFFFFFFFFFFFFFFFFFFFFFFF
310
FFFFFFFFFFFFFFFFFFFFFFFFFFFFFFFFFFFFFFFFFFFFFFFFFFFFFFFFFFFFFFFF
310
FFFFFFFFFFFFFFFFFFFFFFFFFFFFFFFFFFFFFFFFFFFFFFFFFFFFFFFFFFFFFFFF
310
FFFFFFFFFFFFFFFFFFFFFFFFFFFFFFFFFFFFFFFFFFFFFFFFFFFFFFFFFFFFFFFF
310
FFFFFFFFFFFFFFFFFFFFFFFFFFFFFFFFFFFFFFFFFFFFFFFFFFFFFFFFFFFFFFFF
310
FFFFFFFFFFFFFFFFFFFFFFFFFFFFFFFFFFFFFFFFFFFFFFFFFFFFFFFFFFFFFFFF
310
FFFFFFFFFFFFFFFFFFFFFFFFFFFFFFFFFFFFFFFFFFFFFFFFFFFFFFFFFFFFFFFF
310
FFFFFFFFFFFFFFFFFFFFFFFFFFFFFFFFFFFFFFFFFFFFFFFFFFFFFFFFFFFFFFFF
310
FFFFFFFFFFFFFFFFFFFFFFFFFFFFFFFFFFFFFFFFFFFFFFFFFFFFFFFFFFFFFFFF
310
FFFFFFFFFFFFFFFFFFFFFFFFFFFFFFFFFFFFFFFFFFFFFFFFFFFFFFFFFFFFFFFF
310
FFFFFFFFFFFFFFFFFFFFFFFFFFFFFFFFFFFFFFFFFFFFFFFFFFFFFFFFFFFFFFFF
310
01000002000000000000000000000000000000008600000088000000FEFFFFFF
310
8A000000910000008B0000008C0000008D000000900000008F000000FEFFFFFF
310
0100FEFF030A0000FFFFFFFF0A00030000000000C00000000000004607000000
310
5042727573680007000000504272757368000700000050427275736800F439B2
310
71000000000000000000000000000000A5000000A6000000A7000000A8000000
310
A9000000AA000000AB000000AC000000AD000000AE000000AF000000B0000000
310
B1000000B2000000B3000000B4000000B5000000B6000000B7000000B8000000
310
B9000000BA000000BB000000BC000000BD000000BE000000BF000000C0000000
310
C1000000C2000000C3000000C4000000C5000000FEFFFFFFFEFFFFFFC8000000
310
C9000000FEFFFFFFFFFFFFFFFFFFFFFFFFFFFFFFFFFFFFFFFFFFFFFFFFFFFFFF
310
FFFFFFFFFFFFFFFFFFFFFFFFFFFFFFFFFFFFFFFFFFFFFFFFFFFFFFFFFFFFFFFF
310
FFFFFFFFFFFFFFFFFFFFFFFFFFFFFFFFFFFFFFFFFFFFFFFFFFFFFFFFFFFFFFFF
310
FFFFFFFFFFFFFFFFFFFFFFFFFFFFFFFFFFFFFFFFFFFFFFFFFFFFFFFFFFFFFFFF
310
FFFFFFFFFFFFFFFFFFFFFFFFFFFFFFFFFFFFFFFFFFFFFFFFFFFFFFFFFFFFFFFF
310
FFFFFFFFFFFFFFFFFFFFFFFFFEFFFFFFFFFFFFFFFFFFFFFFFFFFFFFFFEFFFFFF
310
FFFFFFFFFA000000FB000000FEFFFFFFFFFFFFFFFFFFFFFFFFFFFFFFFFFFFFFF
310
20260000424D0E260000000000003E00000028000000B40200006E0000000100
310
01000000000000000000130B0000130B00000200000002000000000000FFFFFF
310
FFFFFFFFFFFFFFFFFFFFFFFFFFFFFFFFFFFFFFFFFFFFFFFFFFFFFFFFFFFFFFFF
310
FFFFFFFFFFFFFFFFFFFFFFFFFFFFFFFFFFFFFFFFFFFFFFFFFFFFFFFFFFFFFFFF
310
FFFFFFFFFFFFFFFFFFFFFFFFFFFFFFFFFFFFFFFFFFFFFFFFF000FFFFFFFFFFFF
310
FFFFFFFFFFFFFFFFFFFFFFFFFFFFFFFFFFFFFFFFFFFFFFFFFFFFFFFFFFFFFFFF
310
FFFFFFFFFFFFFFFFFFFFFFFFFFFFFFFFFFFFFFFFFFFFFFFFFFFFFFFFFFFFFFFF
310
FFFFFFFFFFFFFFFFFFFFFFFFFFFFFFFFF000FFFFFFFFFFFFFFFFFFFFFFFFFFFF
310
FFFFFFFFFFFFFFFFFFFFFFFFFFFFFFFFFFFFFFFFFFFFFFFFFFFFFFFFFFFFFFFF
310
FFFFFFFFFFFFFFFFFFFFFFFFFFFFFFFFFFFFFFFFFFFFFFFFFFFFFFFFFFFFFFFF
310
FFFFFFFFFFFFFFFFF000FFFFFFFFFFFFFFFFFFFFFFFFFFFFFFFFFFFFFFFFFFFF
310
FFFFFFFFFFFFFFFFFFFFFFFFFFFFFFFFFFFFFFFFFFFFFFFFFFFFFFFFFFFFFFFF
310
FFFFFFFFFFFFFFFFFFFFFFFFFFFFFFFFFFFFFFFFFFFFFFFFFFFFFFFFFFFFFFFF
310
F000FFFFFFFFFFFFFFFFFFFFFFFFFFFFFFFFFFFFFFFFFFFFFFFFFFFFFFFFFFFF
310
FFFFFFFFFFFFFFFFFFFFFFFFFFFFFFFFFFFFFFFFFFFFFFFFFFFFFFFFFFFFFFFF
310
FFFFFFFFFFFFFFFFFFFFFFFFFFFFFFFFFFFFFFFFFFFFFFFFF000FFFFFFFFFFFF
310
FFFFFFFFFFFFFFFFFFFFFFFFFFFFFFFFFFFFFFFFFFFFFFFFFFFFFFFFFFFFFFFF
310
FFFFFFFFFFFFFFFFFFFFFFFFFFFFFFFFFFFFFFFFFFFFFFFFFFFFFFFFFFFFFFFF
310
FFFFFFFFFFFFFFFFFFFFFFFFFFFFFFFFF000FFFFFFFFFFFFFFFFFFFFFFFFFFFF
310
FFFFFFFFFFFFFFFFFFFFFFFFFFFFFFFFFFFFFFFFFFFFFFFFFFFFFFFFFFFFFFFF
310
FFFFFFFFFFFFFFFFFFFFFFFFFFFFFFFFFFFFFFFFFFFFFFFFFFFFFFFFFFFFFFFF
310
FFFFFFFFFFFFFFFFF000FFFFFFFFFFFFFFFFFFFFFFFFFFFFFFFFFFFFFFFFFFFF
310
FFFFFFFFFFFFFFFFFFFFFFFFFFFFFFFFFFFFFFFFFFFFFFFFFFFFFFFFFFFFFFFF
310
FFFFFFFFFFFFFFFFFFFFFFFFFFFFFFFFFFFFFFFFFFFFFFFFFFFFFFFFFFFFFFFF
310
F000FFFFFFFFFFFFFFFFFFFFFFFFFFFFFFFFFFFFFFFFFFFFFFFFFFFFFFFFFFFF
310
FFFFFFFFFFFFFFFFFFFFFFFFFFFFFFFFFFFFFFFFFFFFFFFFFFFFFFFFFFFFFFFF
310
FFFFFFFFFFFFFFFFFFFFFFFFFFFFFFFFFFFFFFFFFFFFFFFFF000FFFFFFFFFFFF
310
FFFFFFFFFFFFFFFFFFFFFFFFFFFFFFFFFFFFFFFFFFFFFFFFFFFFFFFFFFFFFFFF
310
FFFFFFFFFFFFFFFFFFFFFFFFFFFFFFFFFFFFFFFFFFFFFFFFFFFFFFFFFFFFFFFF
310
FFFFFFFFFFFFFFFFFFFFFFFFFFFFFFFFF000FFFFFFFFFFFFFFFFFFFFFFFFFFFF
310
FFFFFFFFFFFFFFFFFFFFFFFFFFFFFFFFFFFFFFFFFFFFFFFFFFFFFFFFFFFFFFFF
310
FFFFFFFFFFFFFFFFFFFFFFFFFFFFFFFFFFFFFFFFFFFFFFFFFFFFFFFFFFFFFFFF
310
FFFFFFFFFFFFFFFFF000FFFFFFFFFFFFFFFFFFFFFFFFFFFFFFFFFFFFFFFFFFFF
310
FFFFFFFFFFFFFFFFFFFFFFFFFFFFFFFFFFFFFFFFFFFFFFFFFFFFFFFFFFFFFFFF
310
FFFFFFFFFFFFFFFFFFFFFFFFFFFFFFFFFFFFFFFFFFFFFFFFFFFFFFFFFFFFFFFF
310
F000FFFFFFFFFFFFFFFFFFFFFFFFFFFFFFFFFFFFFFFFFFFFFFFFFFFFFFFFFFFF
310
FFFFFFFFFFFFFFFFFFFFFFFFFFFFFFFFFFFFFFFFFFFFFFFFFFFFFFFFFFFFFFFF
310
FFFFFFFFFFFFFFFFFFFFFFFFFFFFFFFFFFFFFFFFFFFFFFFFF000FFFFFFFFFFFF
310
FFFFFFFFFFFFFFFFFFFFFFFFFFFFFFFFFFFFFFFFFFFFFFFFFFFFFFFFFFFFFFFF
310
FFFFFFFFFFFFFFFFFFFFFFFFFFFFFFFFFFFFFFFFFFFFFFFFFFFFFFFFFFFFFFFF
310
FFFFFFFFFFFFFFFFFFFFFFFFFFFFFFFFF000FFFFFFFFFFFFFFFFFFFFFFFFFFFF
310
FFFFFFFFFFFFFFFFFFFFFFFFFFFFFFFFFFFFFFFFFFFFFFFFFFFFFFFFFFFFFFFF
310
FFFFFFFFFFFFFFFFFFFFFFFFFFFFFFFFFFFFFFFFFFFFFFFFFFFFFFFFFFFFFFFF
310
FFFFFFFFFFFFFFFFF000FFFFFFFFFFFFFFFFFFFFFFFFFFFFFFFFFFFFFFFFFFFF
310
FFFFFFFFFFFFFFFFFFFFFFFFFFFFFFFFFFFFFFFFFFFFFFFFFFFFFFFFFFFFFFFF
310
FFFFFFFFFFFFFFFFFFFFFFFFFFFFFFFFFFFFFFFFFFFFFFFFFFFFFFFFFFFFFFFF
310
F000FFFFFFFFFFFFFFFFFFFFFFFFFFFFFFFFFFFFFFFFFFFFFFFFFFFFFFFFFFFF
310
FFFFFFFFFFFFFFFFFFFFFFFFFFFFFFFFFFFFFFFFFFFFFFFFFFFFFFFFFFFFFFFF
310
FFFFFFFFFFFFFFFFFFFFFFFFFFFFFFFFFFFFFFFFFFFFFFFFF000FFFFFFFFFFFF
310
FFFFFFFFFFFFFFFFFFFFFFFFFFFFFFFFFFFFFFFFFFFFFFFFFFFFFFFFFFFFFFFF
310
FFFFFFFFFFFFFFFFFFFFFFFFFFFFFFFFFFFFFFFFFFFFFFFFFFFFFFFFFFFFFFFF
310
FFFFFFFFFFFFFFFFFFFFFFFFFFFFFFFFF000FFFFFFFFFFFFFFFFFFFFFFFFFFFF
310
FFFFFFFFFFFFFFFFFFFFFFFFFFFFFFFFFFFFFFFFFFFFFFFFFFFFFFFFFFFFFFFF
310
FFFFFFFFFFFFFFFFFFFFFFFFFFFFFFFFFFFFFFFFFFFFFFFFFFFFFFFFFFFFFFFF
310
FFFFFFFFFFFFFFFFF000FFFFF80003FFFFFFFFFFFFFFFFFFFFFFFFFFFFFFFFFF
310
FFFFF00007FFFFFFFFFF00007FFFFFF800000000000000007FFFFFFFFFFFFFFF
310
FFFFFFFC001FFFFFFFFFFFFFFC001FFFFFFFFFFFFFFFFFFFFFFFFFFE0007FFFF
310
F000FFFF8000007FFFFFFFF8000FFFFFC0007FFFFF80007FFFFF0000007FFFFF
310
FFF8000007FFFFF800000000000000007FFFFFF0001FFFFFFFFFFFC00001FFFF
310
FFFFFFFFC00001FFFFFFFF000000000003FFFFE000007FFFF000FFFE0000000F
310
FFFFFFF0000FFFFF80007FFFFF80007FFFFC0000001FFFFFFFC0000001FFFFF8
310
00000000000000007FFFFFF0001FFFFFFFFFFE0000003FFFFFFFFFFE0000003F
310
FFFFFF000000000003FFFF0000000FFFF000FFF800000003FFFFFFF00007FFFF
310
80007FFFFF80007FFFF000000007FFFFFF000000003FFFF80000000000000000
310
7FFFFFF0001FFFFFFFFFF80000000FFFFFFFFFF80000000FFFFFFF0000000000
310
03FFFC00000003FFF000FFE000000000FFFFFFF00007FFFF80003FFFFF80007F
310
FFC000000001FFFFFC000000001FFFF800000000000000007FFFFFF0001FFFFF
310
FFFFE000000003FFFFFFFFE000000003FFFFFF000000000003FFF000000000FF
310
F000FF80000000007FFFFFF00007FFFF80003FFFFF80007FFF8000000000FFFF
310
F80000000007FFF800000000000000007FFFFFF0001FFFFFFFFFC000000001FF
310
FFFFFFC000000001FFFFFF000000000003FFC0000000007FF000FF0000000000
310
3FFFFFE00007FFFF00003FFFFF80007FFE00000000003FFFF00000000003FFF8
310
00000000000000007FFFFFF0001FFFFFFFFF8000000000FFFFFFFF8000000000
310
FFFFFF000000000003FF80000000003FF000FE00000000001FFFFFE00003FFFF
310
00003FFFFF80007FFC00000000001FFFE00000000001FFF8000001FFFE000000
310
7FFFFFF0001FFFFFFFFE00000000003FFFFFFE00000000003FFFFF0000000000
310
03FF00000000001FF000FC00000000000FFFFFE00003FFFF00001FFFFF80007F
310
F800000000001FFFC00000000000FFF8000001FFFE0000007FFFFFF0001FFFFF
310
FFFC00000000001FFFFFFC00000000001FFFFF000000000003FE00000000000F
310
F000F8000000000007FFFFE00003FFFF00001FFFFF80007FF800000000000FFF
310
800000000000FFF8000001FFFE0000007FFFFFF0001FFFFFFFF800000000000F
310
FFFFF800000000000FFFFF000000000003FC000000000007F000F80000000000
310
03FFFFC00003FFFE00001FFFFF80007FF0000000000007FF0000000000007FF8
310
000001FFFE0000007FFFFFF0001FFFFFFFF0000000000007FFFFF00000000000
310
07FFFF000000000003F8000000000003F000F0000000000003FFFFC00001FFFE
310
00001FFFFF80007FE0000000000007FE0000000000003FF8000001FFFE000000
310
7FFFFFF0001FFFFFFFF0000000000007FFFFF0000000000007FFFF0000000000
310
03F800001F800003F000E00001FFF00001FFFFC00001FFFE00000FFFFF80007F
310
E00001FFE00003FE00001FFF00003FF8000001FFFE0000007FFFFFF0001FFFFF
310
FFE000003E000003FFFFE000003E000003FFFF000000000003F00001FFF80001
310
F000E00007FFFC0001FFFFC00001FFFE00000FFFFF80007FC0000FFFFC0003FC
310
0000FFFFC0001FF8000001FFFE0000007FFFFFF0001FFFFFFFC00003FFE00001
310
FFFFC00003FFE00001FFFF0001FFFFFFFFF00007FFFE0001F000E0000FFFFF00
310
00FFFF800001FFFC00000FFFFF80007FC0001FFFFE0001FC0001FFFFE0001FF8
310
000001FFFE0000007FFFFFF0001FFFFFFF80000FFFF80000FFFF80000FFFF800
310
00FFFF0003FFFFFFFFE0000FFFFF8000F000C0003FFFFF8000FFFF800000FFFC
310
000007FFFF80007F80003FFFFF0001FC0003FFFFF0001FF8000001FFFE000000
310
7FFFFFF0001FFFFFFF80003FFFFE0000FFFF80003FFFFE0000FFFF0003FFFFFF
310
FFE0003FFFFF8000F000C0003FFFFF8000FFFF800000FFFC000007FFFF80007F
310
80007FFFFF8001F80007FFFFF8000FF8000001FFFE0000007FFFFFF0001FFFFF
310
FF00007FFFFF00007FFF00007FFFFF00007FFF0003FFFFFFFFE0003FFFFFC000
310
F000C0007FFFFFC000FFFF000000FFFC000007FFFF80007F8000FFFFFF8000F8
310
000FFFFFF8000FF8000001FFFE0000007FFFFFF0001FFFFFFF0000FFFFFF8000
310
7FFF0000FFFFFF80007FFF0003FFFFFFFFC0007FFFFFC00070008000FFFFFFC0
310
00FFFF000000FFF8000007FFFF80007F8000FFFFFF8000F8000FFFFFF8000FF8
310
000001FFFE0000007FFFFFF0001FFFFFFE0001FFFFFFC0003FFE0001FFFFFFC0
310
003FFF0003FFFFFFFFC0007FFFFFE00070008000FFFFFFC0007FFF0000007FF8
310
000003FFFF80007F0001FFFFFF8000F8000FFFFFF8000FF8000001FFFE000000
310
7FFFFFF0001FFFFFFE0001FFFFFFC0003FFE0001FFFFFFC0003FFF0003FFFFFF
310
FFC000FFFFFFE00070008000FFFFFFC0007FFF0000007FF8000003FFFF80007F
310
0001FFFFFF8000F8001FFFFFF8000FF8000001FFFE0000007FFFFFF0001FFFFF
310
FE0003FFFFFFE0003FFE0003FFFFFFE0003FFF0003FFFFFFFFC000FFFFFFE000
310
70008000FFFFFFC0007FFE0000007FF8000003FFFF80007F0001FFFFFF8000F0
310
001FFFFFF8000FF8000001FFFE0000007FFFFFF0001FFFFFFC0003FFFFFFE000
310
1FFC0003FFFFFFE0001FFF0003FFFFFFFFC000FFFFFFC00070008000FFFFFF80
310
007FFE0000007FF0000003FFFF80007F0001FFFFFF0000F0001FFFFFF8000FF8
310
000001FFFE0000007FFFFFF0001FFFFFFC0007FFFFFFF0001FFC0007FFFFFFF0
310
001FFF0003FFFFFFFFC000FFFFFFC00070008001FFFFFF0000FFFE0000003FF0
310
000001FFFF80007F0001FFFFFF0000F8001FFFFFF0000FF8000001FFFE000000
310
7FFFFFF0001FFFFFFC0007FFFFFFF0001FFC0007FFFFFFF0001FFF0003FFFFFF
310
FFC001FFFFFF80007000FFFFFFFFFE0000FFFE0008003FF0008001FFFF80007F
310
FFFFFFFFFC0000FFFFFFFFFFE0000FF8000001FFFE0000007FFFFFF0001FFFFF
310
F8000FFFFFFFF8000FF8000FFFFFFFF8000FFF0003FFFFFFFFFFFFFFFFFF0000
310
7000FFFFFFFFFC0000FFFC0008003FF0008001FFFF80007FFFFFFFFFF80001FF
310
FFFFFFFF80000FF8000001FFFE0000007FFFFFF0001FFFFFF8000FFFFFFFF800
310
0FF8000FFFFFFFF8000FFF0003FFFFFFFFFFFFFFFFFE0000F000FFFFFFFFE000
310
00FFFC000C003FE000C001FFFF80007FFFFFFFFFC00001FFFFFFFFFE00001FF8
310
000001FFFE0000007FFFFFF0001FFFFFF8000FFFFFFFF8000FF8000FFFFFFFF8
310
000FFF0003FFFFFFFFFFFFFFFFF00000F000FFFFFFFE000001FFFC000C001FE0
310
00C000FFFF80007FFFFFFFFE000001FFFFFFFFE000001FF80FFFFFFFFFFFFFC0
310
7FFFFFF0001FFFFFF8000FFFFFFFF8000FF8000FFFFFFFF8000FFF0003FFFFFF
310
FFFFFFFFFF800000F000FFFFFFC0000001FFFC001C001FE001C000FFFF80007F
310
FFFFFF80000003FFFFFFF80000001FF80FFFFFFFFFFFFFC07FFFFFF0001FFFFF
310
F8001FFFFFFFFC000FF8001FFFFFFFFC000FFF0003FFFFFFFFFFFFFFF0000001
310
F000FFFFF800000001FFF8001C001FE001C000FFFF80007FFFFFF800000003FF
310
FFFF800000003FF80FFFFFFFFFFFFFC07FFFFFF0001FFFFFF8001FFFFFFFFC00
310
0FF8001FFFFFFFFC000FFF0003FFFFFFFFFFFFFE00000001F000FFFFC0000000
310
03FFF8001E001FC001E000FFFF80007FFFFF8000000007FFFFFC000000003FF8
310
0FFFFFFFFFFFFFC07FFFFFF0001FFFFFF8001FFFFFFFFC000FF8001FFFFFFFFC
310
000FFF0003FFFFFFFFFFFFE000000003F000FFFE0000000007FFF8001E000FC0
310
01E0007FFF80007FFFFE0000000007FFFFE0000000007FF80FFFFFFFFFFFFFC0
310
7FFFFFF0001FFFFFF0001FFFFFFFFC0007F0001FFFFFFFFC0007FF0003FFFFFF
310
FFFFFF0000000003F000FFF80000000007FFF8001E000FC003E0007FFF80007F
310
FFF0000000000FFFFF8000000000FFF80FFFFFFFFFFFFFC07FFFFFF0001FFFFF
310
F0001FFFFFFFFC0007F0001FFFFFFFFC0007FF0003FFFFFFFFFFFC0000000007
310
F000FFE0000000000FFFF0003E000FC003E0007FFF80007FFFC0000000001FFF
310
FE0000000001FFF80FFFFFFFFFFFFFC07FFFFFF0001FFFFFF0001FFFFFFFFC00
310
07F0001FFFFFFFFC0007FF0003FFFFFFFFFFF0000000000FF000FFC000000000
310
1FFFF0003F000F8003F0003FFF80007FFF80000000003FFFF80000000003FFF8
310
0FFFFFFFFFFFFFC07FFFFFF0001FFFFFF0001FFFFFFFFC0007F0001FFFFFFFFC
310
0007FF0003FFFFFFFFFFE0000000001FF000FF00000000007FFFF0003F000780
310
03F0003FFF80007FFF00000000007FFFF00000000007FFF80FFFFFFFFFFFFFC0
310
7FFFFFF0001FFFFFF0001FFFFFFFFC0007F0001FFFFFFFFC0007FF0003FFFFFF
310
FFFF80000000007FF000FE0000000000FFFFE0003F00078007F0003FFF80007F
310
FE0000000001FFFFE0000000001FFFF80FFFFFFFFFFFFFC07FFFFFF0001FFFFF
310
F0001FFFFFFFFC0007F0001FFFFFFFFC0007FF0003FFFFFFFFFF0000000000FF
310
F000FC0000000003FFFFE0007F00078007F0003FFF80007FFC0000000007FFFF
310
C0000000007FFFF80FFFFFFFFFFFFFC07FFFFFF0001FFFFFF8001FFFFFFFFC00
310
0FF8001FFFFFFFFC000FFF0003FFFFFFFFFE0000000003FFF000FC000000000F
310
FFFFE0007F80070007F8001FFF80007FF8000000001FFFFF8000000001FFFFF8
310
0FFFFFFFFFFFFFC07FFFFFF0001FFFFFF8001FFFFFFFFC000FF8001FFFFFFFFC
310
000FFF0003FFFFFFFFFC000000000FFFF000F8000000007FFFFFE0007F800700
310
07F8001FFF80007FF000000000FFFFFF800000000FFFFFF80FFFFFFFFFFFFFC0
310
7FFFFFF0001FFFFFF8000FFFFFFFF8000FF8000FFFFFFFF8000FFF0003FFFFFF
310
FFFC000000007FFFF000F800000007FFFFFFC0007F8003000FF8001FFF80007F
310
F000000007FFFFFF000000007FFFFFF80FFFFFFFFFFFFFC07FFFFFF0001FFFFF
310
F8000FFFFFFFF8000FF8000FFFFFFFF8000FFF0003FFFFFFFFF80000000FFFFF
310
F000F0000000FFFFFFFFC000FF8003000FF8001FFF80007FE0000000FFFFFFFF
310
0000000FFFFFFFF8000001FFFE0000007FFFFFF0001FFFFFF8000FFFFFFFF800
310
0FF8000FFFFFFFF8000FFF0003FFFFFFFFF8000000FFFFFFF000F000000FFFFF
310
FFFFC000FFC002000FF8000FFF80007FE000001FFFFFFFFE000001FFFFFFFFF8
310
000001FFFE0000007FFFFFF0001FFFFFF8000FFFFFFFF8000FF8000FFFFFFFF8
310
000FFF0003FFFFFFFFF000001FFFFFFFF000E00000FFFFFFFFFFC000FFC00200
310
0FFC000FFF80007FE00001FFFFFFFFFE00001FFFFFFFFFF8000001FFFE000000
310
7FFFFFF0001FFFFFFC000FFFFFFFF8001FFC000FFFFFFFF8001FFF0003FFFFFF
310
FFF00001FFFFFFFFF000E00007FFFFFFFFFF8000FFC000001FFC000FFF80007F
310
C0000FFFFFFFFFFE0000FFFFFFFFFFF8000001FFFE0000007FFFFFF0001FFFFF
310
FC0007FFFFFFF0001FFC0007FFFFFFF0001FFF0003FFFFFFFFF00007FFFFFFFF
310
F000E0001FFFFFFFFFFF8000FFC000001FFC000FFF80007FC0003FFFFFFFFFFE
310
0001FFFFFFFFFFF8000001FFFE0000007FFFFFF0001FFFFFFC0007FFFFFFF000
310
1FFC0007FFFFFFF0001FFF0003FFFFFFFFF0001FFFFFFFFFF000E0003FFFFF00
310
03FF8001FFE000001FFC0007FF80007FC0007FFFFF0007FC0003FFFFF0003FF8
310
000001FFFE0000007FFFFFF0001FFFFFFC0003FFFFFFE0001FFC0003FFFFFFE0
310
001FFF0003FFFFFFFFF0003FFFFFFFFFF000E0003FFFFF0001FF8001FFE00000
310
1FFE0007FF80007FC0007FFFFE0003FC0007FFFFE0003FF8000001FFFE000000
310
7FFFFFF0001FFFFFFE0003FFFFFFE0003FFE0003FFFFFFE0003FFF0003FFFFFF
310
FFF0003FFFFF8001F000E0003FFFFF0001FF0001FFE000001FFE0007FF80007F
310
C0007FFFFE0003FC0007FFFFE0003FF8000001FFFE0000007FFFFFF0001FFFFF
310
FE0001FFFFFFC0003FFE0001FFFFFFC0003FFF0003FFFFFFFFF0003FFFFF0001
310
F000E0003FFFFF0003FF0001FFE000003FFE0007FF80007FC0007FFFFE0003FC
310
0007FFFFE0003FF8000001FFFE0000007FFFFFF0001FFFFFFF0001FFFFFFC000
310
7FFF0001FFFFFFC0007FFF0003FFFFFFFFF0003FFFFF0001F000E0003FFFFE00
310
03FF0003FFF000003FFE0003FF80007FC0007FFFFC0003FE0007FFFFE0003FF8
310
000001FFFE0000007FFFFFF0001FFFFFFF0000FFFFFF80007FFF0000FFFFFF80
310
007FFF0003FFFFFFFFF0003FFFFF0001F000E0003FFFFE0003FF0003FFF00000
310
3FFF0003FF80007FC0007FFFFC0007FE0007FFFFC0003FF8000001FFFE000000
310
7FFFFFF0001FFFFFFF80007FFFFF0000FFFF80007FFFFF0000FFFF0003FFFFFF
310
FFF0003FFFFF0003F000E0003FFFFC0003FE0003FFF000003FFF0003FF80007F
310
E0003FFFF80007FE0003FFFFC0007FF8000001FFFE0000007FFFFFF0001FFFFF
310
FF80003FFFFE0000FFFF80003FFFFE0000FFFF0003FFFFFFFFF0001FFFFE0003
310
F000F0001FFFF80003FE0003FFF000007FFF0001FF80007FE0003FFFF00007FE
310
0001FFFF80007FF8000001FFFE0000007FFFFFF0001FFFFFFFC0000FFFF80001
310
FFFFC0000FFFF80001FFFF0003FFFFFFFFF0001FFFFC0003F000F0000FFFF000
310
07FE0007FFF800007FFF0001FF80007FE0001FFFE00007FF0000FFFE00007FF8
310
000001FFFE0000007FFFFFF0001FFFFFFFC00003FFE00001FFFFC00003FFE000
310
01FFFF0003FFFFFFFFF8000FFFF80003F000F00003FFC00007FC0007FFF80000
310
7FFF8001FF80007FF00007FF80000FFF00007FF80000FFF8000001FFFE000000
310
7F80000000000001FFE000003E000003FFFFE000003E000003FFFF0003FFFFFF
310
FFF80003FFE00007F000F800000000000FFC0007FFF800007FFF8001FF80007F
310
F000000000000FFF000000000000FFF8000001FFFE0000007F80000000000001
310
FFF0000000000007FFFFF0000000000007FFFF0003FFFFFFFFFC00007E000007
310
F000F800000000000FFC0007FFF80000FFFF8000FF80007FF800000000001FFF
310
800000000001FFF8000001FFFE0000007F80000000000001FFF800000000000F
310
FFFFF800000000000FFFFF0003FFFFFFFFFC00000000000FF000FC0000000000
310
1FFC0007FFFC0000FFFF8000FF80007FF800000000003FFFC00000000001FFF8
310
000001FFFE0000007F80000000000001FFF800000000000FFFFFF80000000000
310
0FFFFF0003FFFFFFFFFE00000000001FF000FE00000000003FF8000FFFFC0000
310
FFFF8000FF80007FFC00000000003FFFC00000000003FFF8000001FFFE000000
310
7F80000000000001FFFC00000000001FFFFFFC00000000001FFFFF0003FFFFFF
310
FFFF00000000001FF000FF00000000003FF8000FFFFC0000FFFFC000FF80007F
310
FE00000000007FFFE00000000007FFF8000001FFFE0000007F80000000000001
310
FFFE00000000003FFFFFFE00000000003FFFFF0003FFFFFFFFFF80000000003F
310
F000FF80000000007FF8000FFFFC0001FFFFC0007F80007FFF0000000000FFFF
310
F0000000000FFFF800000000000000007F80000000000001FFFF8000000000FF
310
FFFFFF8000000000FFFFFF0003FFFFFFFFFFC0000000007FF000FFC000000000
310
FFF8000FFFFE0001FFFFC0007F80007FFF8000000001FFFFF8000000001FFFF8
310
00000000000000007F80000000000001FFFFC000000001FFFFFFFFC000000001
310
FFFFFF0003FFFFFFFFFFE000000000FFF000FFE000000003FFF0001FFFFE0001
310
FFFFC0007F80007FFFC000000007FFFFFE000000003FFFF80000000000000000
310
7F80000000000001FFFFE000000003FFFFFFFFE000000003FFFFFF0003FFFFFF
310
FFFFF000000003FFF000FFF80000000FFFF0001FFFFE0001FFFFE0007F80007F
310
FFF00000000FFFFFFF00000000FFFFF800000000000000007F80000000000001
310
FFFFF80000000FFFFFFFFFF80000000FFFFFFF0003FFFFFFFFFFFC0000000FFF
310
F000FFFE0000003FFFF0001FFFFE0003FFFFE0003F80007FFFFC0000003FFFFF
310
FFC0000003FFFFF800000000000000007F80000000000001FFFFFE0000003FFF
310
FFFFFFFE0000003FFFFFFF0003FFFFFFFFFFFF0000003FFFF000FFFF800000FF
310
FFF0001FFFFF0003FFFFE0003F80007FFFFF000001FFFFFFFFF800001FFFFFF8
310
00000000000000007F80000000000001FFFFFFC00001FFFFFFFFFFFFC00001FF
310
FFFFFF0003FFFFFFFFFFFFC00000FFFFF000FFFFF8000FFFFFFFFFFFFFFFFFFF
310
FFFFFFFFFFFFFFFFFFFFF0001FFFFFFFFFFF0000FFFFFFF80000000000000000
310
7FFFFFFFFFFFFFFFFFFFFFFC001FFFFFFFFFFFFFFC001FFFFFFFFFFFFFFFFFFF
310
FFFFFFFC001FFFFFF000FFFFFFFFFFFFFFFFFFFFFFFFFFFFFFFFFFFFFFFFFFFF
310
FFFFFFFFFFFFFFFFFFFFFFFFFFFFFFFFFFFFFFFFFFFFFFFFFFFFFFFFFFFFFFFF
310
FFFFFFFFFFFFFFFFFFFFFFFFFFFFFFFFFFFFFFFFFFFFFFFFFFFFFFFFFFFFFFFF
310
F000FFFFFFFFFFFFFFFFFFFFFFFFFFFFFFFFFFFFFFFFFFFFFFFFFFFFFFFFFFFF
310
FFFFFFFFFFFFFFFFFFFFFFFFFFFFFFFFFFFFFFFFFFFFFFFFFFFFFFFFFFFFFFFF
310
FFFFFFFFFFFFFFFFFFFFFFFFFFFFFFFFFFFFFFFFFFFFFFFFF000FFFFFFFFFFFF
310
FFFFFFFFFFFFFFFFFFFFFFFFFFFFFFFFFFFFFFFFFFFFFFFFFFFFFFFFFFFFFFFF
310
FFFFFFFFFFFFFFFFFFFFFFFFFFFFFFFFFFFFFFFFFFFFFFFFFFFFFFFFFFFFFFFF
310
FFFFFFFFFFFFFFFFFFFFFFFFFFFFFFFFF000FFFFFFFFFFFFFFFFFFFFFFFFFFFF
310
FFFFFFFFFFFFFFFFFFFFFFFFFFFFFFFFFFFFFFFFFFFFFFFFFFFFFFFFFFFFFFFF
310
FFFFFFFFFFFFFFFFFFFFFFFFFFFFFFFFFFFFFFFFFFFFFFFFFFFFFFFFFFFFFFFF
310
FFFFFFFFFFFFFFFFF000FFFFFFFFFFFFFFFFFFFFFFFFFFFFFFFFFFFFFFFFFFFF
310
FFFFFFFFFFFFFFFFFFFFFFFFFFFFFFFFFFFFFFFFFFFFFFFFFFFFFFFFFFFFFFFF
310
FFFFFFFFFFFFFFFFFFFFFFFFFFFFFFFFFFFFFFFFFFFFFFFFFFFFFFFFFFFFFFFF
310
F000FFFFFFFFFFFFFFFFFFFFFFFFFFFFFFFFFFFFFFFFFFFFFFFFFFFFFFFFFFFF
310
FFFFFFFFFFFFFFFFFFFFFFFFFFFFFFFFFFFFFFFFFFFFFFFFFFFFFFFFFFFFFFFF
310
FFFFFFFFFFFFFFFFFFFFFFFFFFFFFFFFFFFFFFFFFFFFFFFFF000FFFFFFFFFFFF
310
FFFFFFFFFFFFFFFFFFFFFFFFFFFFFFFFFFFFFFFFFFFFFFFFFFFFFFFFFFFFFFFF
310
FFFFFFFFFFFFFFFFFFFFFFFFFFFFFFFFFFFFFFFFFFFFFFFFFFFFFFFFFFFFFFFF
310
FFFFFFFFFFFFFFFFFFFFFFFFFFFFFFFFF000FFFFFFFFFFFFFFFFFFFFFFFFFFFF
310
FFFFFFFFFFFFFFFFFFFFFFFFFFFFFFFFFFFFFFFFFFFFFFFFFFFFFFFFFFFFFFFF
310
FFFFFFFFFFFFFFFFFFFFFFFFFFFFFFFFFFFFFFFFFFFFFFFFFFFFFFFFFFFFFFFF
310
FFFFFFFFFFFFFFFFF000FFFFFFFFFFFFFFFFFFFFFFFFFFFFFFFFFFFFFFFFFFFF
310
FFFFFFFFFFFFFFFFFFFFFFFFFFFFFFFFFFFFFFFFFFFFFFFFFFFFFFFFFFFFFFFF
310
FFFFFFFFFFFFFFFFFFFFFFFFFFFFFFFFFFFFFFFFFFFFFFFFFFFFFFFFFFFFFFFF
310
F000FFFFFFFFFFFFFFFFFFFFFFFFFFFFFFFFFFFFFFFFFFFFFFFFFFFFFFFFFFFF
310
FFFFFFFFFFFFFFFFFFFFFFFFFFFFFFFFFFFFFFFFFFFFFFFFFFFFFFFFFFFFFFFF
310
FFFFFFFFFFFFFFFFFFFFFFFFFFFFFFFFFFFFFFFFFFFFFFFFF000FFFFFFFFFFFF
310
FFFFFFFFFFFFFFFFFFFFFFFFFFFFFFFFFFFFFFFFFFFFFFFFFFFFFFFFFFFFFFFF
310
FFFFFFFFFFFFFFFFFFFFFFFFFFFFFFFFFFFFFFFFFFFFFFFFFFFFFFFFFFFFFFFF
310
FFFFFFFFFFFFFFFFFFFFFFFFFFFFFFFFF000FFFFFFFFFFFFFFFFFFFFFFFFFFFF
310
FFFFFFFFFFFFFFFFFFFFFFFFFFFFFFFFFFFFFFFFFFFFFFFFFFFFFFFFFFFFFFFF
310
FFFFFFFFFFFFFFFFFFFFFFFFFFFFFFFFFFFFFFFFFFFFFFFFFFFFFFFFFFFFFFFF
310
FFFFFFFFFFFFFFFFF000FFFFFFFFFFFFFFFFFFFFFFFFFFFFFFFFFFFFFFFFFFFF
310
FFFFFFFFFFFFFFFFFFFFFFFFFFFFFFFFFFFFFFFFFFFFFFFFFFFFFFFFFFFFFFFF
310
FFFFFFFFFFFFFFFFFFFFFFFFFFFFFFFFFFFFFFFFFFFFFFFFFFFFFFFFFFFFFFFF
310
F000FFFFFFFFFFFFFFFFFFFFFFFFFFFFFFFFFFFFFFFFFFFFFFFFFFFFFFFFFFFF
310
FFFFFFFFFFFFFFFFFFFFFFFFFFFFFFFFFFFFFFFFFFFFFFFFFFFFFFFFFFFFFFFF
310
FFFFFFFFFFFFFFFFFFFFFFFFFFFFFFFFFFFFFFFFFFFFFFFFF000FFFFFFFFFFFF
310
FFFFFFFFFFFFFFFFFFFFFFFFFFFFFFFFFFFFFFFFFFFFFFFFFFFFFFFFFFFFFFFF
310
FFFFFFFFFFFFFFFFFFFFFFFFFFFFFFFFFFFFFFFFFFFFFFFFFFFFFFFFFFFFFFFF
310
FFFFFFFFFFFFFFFFFFFFFFFFFFFFFFFFF000FFFFFFFFFFFFFFFFFFFFFFFFFFFF
310
FFFFFFFFFFFFFFFFFFFFFFFFFFFFFFFFFFFFFFFFFFFFFFFFFFFFFFFFFFFFFFFF
310
FFFFFFFFFFFFFFFFFFFFFFFFFFFFFFFFFFFFFFFFFFFFFFFFFFFFFFFFFFFFFFFF
310
FFFFFFFFFFFFFFFFF000FFFFFFFFFFFFFFFFFFFFFFFFFFFFFFFFFFFFFFFFFFFF
310
FFFFFFFFFFFFFFFFFFFFFFFFFFFFFFFFFFFFFFFFFFFFFFFFFFFFFFFFFFFFFFFF
310
FFFFFFFFFFFFFFFFFFFFFFFFFFFFFFFFFFFFFFFFFFFFFFFFFFFFFFFFFFFFFFFF
310
F000FFFFFFFFFFFFFFFFFFFFFFFFFFFFFFFFFFFFFFFFFFFFFFFFFFFFFFFFFFFF
310
FFFFFFFFFFFFFFFFFFFFFFFFFFFFFFFFFFFFFFFFFFFFFFFFFFFFFFFFFFFFFFFF
310
FFFFFFFFFFFFFFFFFFFFFFFFFFFFFFFFFFFFFFFFFFFFFFFFF000FFFFFFFFFFFF
310
FFFFFFFFFFFFFFFFFFFFFFFFFFFFFFFFFFFFFFFFFFFFFFFFFFFFFFFFFFFFFFFF
310
FFFFFFFFFFFFFFFFFFFFFFFFFFFFFFFFFFFFFFFFFFFFFFFFFFFFFFFFFFFFFFFF
310
FFFFFFFFFFFFFFFFFFFFFFFFFFFFFFFFF000FFFFFFFFFFFFFFFFFFFFFFFFFFFF
310
FFFFFFFFFFFFFFFFFFFFFFFFFFFFFFFFFFFFFFFFFFFFFFFFFFFFFFFFFFFFFFFF
310
FFFFFFFFFFFFFFFFFFFFFFFFFFFFFFFFFFFFFFFFFFFFFFFFFFFFFFFFFFFFFFFF
310
FFFFFFFFFFFFFFFFF000FFFFFFFFFFFFFFFFFFFFFFFFFFFFFFFFFFFFFFFFFFFF
310
FFFFFFFFFFFFFFFFFFFFFFFFFFFFFFFFFFFFFFFFFFFFFFFFFFFFFFFFFFFFFFFF
310
FFFFFFFFFFFFFFFFFFFFFFFFFFFFFFFFFFFFFFFFFFFFFFFFFFFFFFFFFFFFFFFF
310
F000FFFFFFFFFFFFFFFFFFFFFFFFFFFFFFFFFFFFFFFFFFFFFFFFFFFFFFFFFFFF
310
FFFFFFFFFFFFFFFFFFFFFFFFFFFFFFFFFFFFFFFFFFFFFFFFFFFFFFFFFFFFFFFF
310
FFFFFFFFFFFFFFFFFFFFFFFFFFFFFFFFFFFFFFFFFFFFFFFFF000FFFFFFFFFFFF
310
FFFFFFFFFFFFFFFFFFFFFFFFFFFFFFFFFFFFFFFFFFFFFFFFFFFFFFFFFFFFFFFF
310
FFFFFFFFFFFFFFFFFFFFFFFFFFFFFFFFFFFFFFFFFFFFFFFFFFFFFFFFFFFFFFFF
310
FFFFFFFFFFFFFFFFFFFFFFFFFFFFFFFFF0000000000000000000000000000000
310
0000000001000000010000000100000001000000010000000100000001000000
310
0100000001000000010000000100000001000000000000000100000001000000
310
0100000001000000010000000000000001000000000000000100000000000000
310
0100000001000000010000000100000001000000010000000100000001000000
310
0100000001000000010000000100000001000000010000000100000001000000
310
0100000000000000010000000100000001000000010000000100000001000000
310
0100000001000000010000000100000001000000010000000100000001000000
310
0100000001000000010000000100000001000000010000000100000001000000
310
0100000001000000010000000000000001000000010000000100000001000000
310
0100000001000000010000000100000001000000010000000100000001000000
310
0100000000000000010000000100000001000000010000000100000001000000
310
0100000001000000010000000100000001000000010000000100000000000000
310
0100000001000000010000000100000001000000010000000100000001000000
310
0000000001000000010000000100000001000000010000000100000001000000
310
0100000000000000010000000100000001000000010000000100000001000000
  1
OLE
  0
ENDSEC
  0
SECTION
  2
OBJECTS
  0
DICTIONARY
  5
C
330
0
100
AcDbDictionary
281
     1
  3
ACAD_GROUP
350
D
  3
ACAD_LAYOUT
350
1A
  3
ACAD_MLEADERSTYLE
350
208
  3
ACAD_MLINESTYLE
350
17
  3
ACAD_PLOTSETTINGS
350
19
  3
ACAD_PLOTSTYLENAME
350
E
  3
ACAD_TABLESTYLE
350
207
  3
ACAD_VISUALSTYLE
350
2A
  3
AcDbVariableDictionary
350
209
  0
DICTIONARY
  5
D
102
{ACAD_REACTORS
330
C
102
}
330
C
100
AcDbDictionary
281
     1
  0
DICTIONARY
  5
1A
102
{ACAD_REACTORS
330
C
102
}
330
C
100
AcDbDictionary
281
     1
  3
Layout1
350
1E
  3
Layout2
350
26
  3
Model
350
22
  0
DICTIONARY
  5
208
102
{ACAD_REACTORS
330
C
102
}
330
C
100
AcDbDictionary
281
     1
  0
DICTIONARY
  5
17
102
{ACAD_REACTORS
330
C
102
}
330
C
100
AcDbDictionary
281
     1
  3
Standard
350
18
  0
DICTIONARY
  5
19
102
{ACAD_REACTORS
330
C
102
}
330
C
100
AcDbDictionary
281
     1
  0
ACDBDICTIONARYWDFLT
  5
E
102
{ACAD_REACTORS
330
C
102
}
330
C
100
AcDbDictionary
281
     1
  3
Normal
350
F
100
AcDbDictionaryWithDefault
340
F
  0
DICTIONARY
  5
207
102
{ACAD_REACTORS
330
C
102
}
330
C
100
AcDbDictionary
281
     1
  0
DICTIONARY
  5
2A
102
{ACAD_REACTORS
330
C
102
}
330
C
100
AcDbDictionary
281
     1
  3
2dWireframe
350
2F
  3
3D Hidden
350
31
  3
3dWireframe
350
30
  3
Basic
350
32
  3
Brighten
350
36
  3
ColorChange
350
3A
  3
Conceptual
350
34
  3
Dim
350
35
  3
Facepattern
350
39
  3
Flat
350
2B
  3
FlatWithEdges
350
2C
  3
Gouraud
350
2D
  3
GouraudWithEdges
350
2E
  3
Linepattern
350
38
  3
Realistic
350
33
  3
Thicken
350
37
  0
DICTIONARY
  5
209
102
{ACAD_REACTORS
330
C
102
}
330
C
100
AcDbDictionary
281
     1
  3
PSOLHEIGHT
350
20B
  3
PSOLWIDTH
350
20A
  0
LAYOUT
  5
1E
102
{ACAD_REACTORS
330
1A
102
}
330
1A
100
AcDbPlotSettings
  1

  2
none_device
  4

  6

 40
0.0
 41
0.0
 42
0.0
 43
0.0
 44
0.0
 45
0.0
 46
0.0
 47
0.0
 48
0.0
 49
0.0
140
0.0
141
0.0
142
1.0
143
1.0
 70
   688
 72
     0
 73
     0
 74
     5
  7

 75
    16
147
1.0
148
0.0
149
0.0
100
AcDbLayout
  1
Layout1
 70
     1
 71
     1
 10
0.0
 20
0.0
 11
420.0
 21
297.0
 12
0.0
 22
0.0
 32
0.0
 14
1.0000000000E+20
 24
1.0000000000E+20
 34
1.0000000000E+20
 15
-1.0000000000E+20
 25
-1.0000000000E+20
 35
-1.0000000000E+20
146
0.0
 13
0.0
 23
0.0
 33
0.0
 16
1.0
 26
0.0
 36
0.0
 17
0.0
 27
1.0
 37
0.0
 76
     0
330
1B
  0
LAYOUT
  5
26
102
{ACAD_REACTORS
330
1A
102
}
330
1A
100
AcDbPlotSettings
  1

  2
none_device
  4

  6

 40
0.0
 41
0.0
 42
0.0
 43
0.0
 44
0.0
 45
0.0
 46
0.0
 47
0.0
 48
0.0
 49
0.0
140
0.0
141
0.0
142
1.0
143
1.0
 70
   688
 72
     0
 73
     0
 74
     5
  7

 75
    16
147
1.0
148
0.0
149
0.0
100
AcDbLayout
  1
Layout2
 70
     1
 71
     2
 10
0.0
 20
0.0
 11
0.0
 21
0.0
 12
0.0
 22
0.0
 32
0.0
 14
0.0
 24
0.0
 34
0.0
 15
0.0
 25
0.0
 35
0.0
146
0.0
 13
0.0
 23
0.0
 33
0.0
 16
1.0
 26
0.0
 36
0.0
 17
0.0
 27
1.0
 37
0.0
 76
     0
330
23
  0
LAYOUT
  5
22
102
{ACAD_REACTORS
330
1A
102
}
330
1A
100
AcDbPlotSettings
  1

  2
none_device
  4

  6

 40
0.0
 41
0.0
 42
0.0
 43
0.0
 44
0.0
 45
0.0
 46
0.0
 47
0.0
 48
0.0
 49
0.0
140
0.0
141
0.0
142
1.0
143
1.0
 70
  1712
 72
     0
 73
     0
 74
     0
  7

 75
     0
147
1.0
148
0.0
149
0.0
100
AcDbLayout
  1
Model
 70
     1
 71
     0
 10
0.0
 20
0.0
 11
297.0
 21
210.0
 12
0.0
 22
0.0
 32
0.0
 14
0.0
 24
0.0
 34
0.0
 15
297.0
 25
210.0
 35
0.0
146
0.0
 13
0.0
 23
0.0
 33
0.0
 16
1.0
 26
0.0
 36
0.0
 17
0.0
 27
1.0
 37
0.0
 76
     0
330
1F
331
29
  0
MLINESTYLE
  5
18
102
{ACAD_REACTORS
330
17
102
}
330
17
100
AcDbMlineStyle
  2
Standard
 70
     0
  3

 62
   256
 51
90.0
 52
90.0
 71
     2
 49
0.5
 62
   256
  6
BYLAYER
 49
-0.5
 62
   256
  6
BYLAYER
  0
ACDBPLACEHOLDER
  5
F
102
{ACAD_REACTORS
330
E
102
}
330
E
  0
VISUALSTYLE
  5
2F
102
{ACAD_REACTORS
330
2A
102
}
330
2A
100
AcDbVisualStyle
  2
2dWireframe
 70
     4
 71
     0
 72
     2
 73
     0
 90
        0
 40
-0.6
 41
-30.0
 62
     5
 63
     7
 74
     1
 91
        4
 64
     7
 65
   257
 75
     1
175
     1
 42
1.0
 92
        0
 66
   257
 43
1.0
 76
     1
 77
     6
 78
     2
 67
     7
 79
     5
170
     0
171
     0
290
     0
174
     0
 93
        1
 44
0.0
173
     0
291
     0
 45
0.0
1001
ACAD
1000
AcDbSavedByObjectVersion
1070
     0
  0
VISUALSTYLE
  5
31
102
{ACAD_REACTORS
330
2A
102
}
330
2A
100
AcDbVisualStyle
  2
3D Hidden
 70
     6
 71
     1
 72
     2
 73
     2
 90
        0
 40
-0.6
 41
-30.0
 62
     5
 63
     7
 74
     2
 91
        2
 64
     7
 65
   257
 75
     2
175
     1
 42
40.0
 92
        0
 66
   257
 43
1.0
 76
     1
 77
     6
 78
     2
 67
     7
 79
     3
170
     0
171
     0
290
     0
174
     0
 93
        1
 44
0.0
173
     0
291
     0
 45
0.0
1001
ACAD
1000
AcDbSavedByObjectVersion
1070
     0
  0
VISUALSTYLE
  5
30
102
{ACAD_REACTORS
330
2A
102
}
330
2A
100
AcDbVisualStyle
  2
3dWireframe
 70
     5
 71
     0
 72
     2
 73
     0
 90
        0
 40
-0.6
 41
-30.0
 62
     5
 63
     7
 74
     1
 91
        4
 64
     7
 65
   257
 75
     1
175
     1
 42
1.0
 92
        0
 66
   257
 43
1.0
 76
     1
 77
     6
 78
     2
 67
     7
 79
     5
170
     0
171
     0
290
     0
174
     0
 93
        1
 44
0.0
173
     0
291
     0
 45
0.0
1001
ACAD
1000
AcDbSavedByObjectVersion
1070
     0
  0
VISUALSTYLE
  5
32
102
{ACAD_REACTORS
330
2A
102
}
330
2A
100
AcDbVisualStyle
  2
Basic
 70
     7
 71
     1
 72
     0
 73
     1
 90
        0
 40
-0.6
 41
-30.0
 62
     5
 63
     7
 74
     0
 91
        4
 64
     7
 65
   257
 75
     1
175
     1
 42
1.0
 92
        8
 66
     7
 43
1.0
 76
     1
 77
     6
 78
     2
 67
     7
 79
     5
170
     0
171
     0
290
     0
174
     0
 93
        1
 44
0.0
173
     0
291
     1
 45
0.0
1001
ACAD
1000
AcDbSavedByObjectVersion
1070
     0
  0
VISUALSTYLE
  5
36
102
{ACAD_REACTORS
330
2A
102
}
330
2A
100
AcDbVisualStyle
  2
Brighten
 70
    12
 71
     2
 72
     2
 73
     0
 90
        0
 40
-0.6
 41
-30.0
 62
     5
 63
     7
 74
     1
 91
        4
 64
     7
 65
   257
 75
     1
175
     1
 42
1.0
 92
        8
 66
     7
 43
1.0
 76
     1
 77
     6
 78
     2
 67
     7
 79
     5
170
     0
171
     0
290
     0
174
     0
 93
        1
 44
50.0
173
     0
291
     1
 45
0.0
1001
ACAD
1000
AcDbSavedByObjectVersion
1070
     0
  0
VISUALSTYLE
  5
3A
102
{ACAD_REACTORS
330
2A
102
}
330
2A
100
AcDbVisualStyle
  2
ColorChange
 70
    16
 71
     2
 72
     2
 73
     3
 90
        0
 40
-0.6
 41
-30.0
 62
     5
 63
     8
 74
     1
 91
        4
 64
     7
 65
   257
 75
     1
175
     1
 42
1.0
 92
        8
 66
     8
 43
1.0
 76
     1
 77
     6
 78
     2
 67
     7
 79
     5
170
     0
171
     0
290
     0
174
     0
 93
        1
 44
0.0
173
     0
291
     1
 45
0.0
1001
ACAD
1000
AcDbSavedByObjectVersion
1070
     0
  0
VISUALSTYLE
  5
34
102
{ACAD_REACTORS
330
2A
102
}
330
2A
100
AcDbVisualStyle
  2
Conceptual
 70
     9
 71
     3
 72
     2
 73
     0
 90
        0
 40
-0.6
 41
-30.0
 62
     5
 63
     7
 74
     2
 91
        2
 64
     7
 65
   257
 75
     1
175
     1
 42
40.0
 92
        8
 66
     7
 43
1.0
 76
     1
 77
     6
 78
     2
 67
     7
 79
     3
170
     0
171
     0
290
     0
174
     0
 93
        1
 44
0.0
173
     0
291
     0
 45
0.0
1001
ACAD
1000
AcDbSavedByObjectVersion
1070
     0
  0
VISUALSTYLE
  5
35
102
{ACAD_REACTORS
330
2A
102
}
330
2A
100
AcDbVisualStyle
  2
Dim
 70
    11
 71
     2
 72
     2
 73
     0
 90
        0
 40
-0.6
 41
-30.0
 62
     5
 63
     7
 74
     1
 91
        4
 64
     7
 65
   257
 75
     1
175
     1
 42
1.0
 92
        8
 66
     7
 43
1.0
 76
     1
 77
     6
 78
     2
 67
     7
 79
     5
170
     0
171
     0
290
     0
174
     0
 93
        1
 44
-50.0
173
     0
291
     1
 45
0.0
1001
ACAD
1000
AcDbSavedByObjectVersion
1070
     0
  0
VISUALSTYLE
  5
39
102
{ACAD_REACTORS
330
2A
102
}
330
2A
100
AcDbVisualStyle
  2
Facepattern
 70
    15
 71
     2
 72
     2
 73
     0
 90
        0
 40
-0.6
 41
-30.0
 62
     5
 63
     7
 74
     1
 91
        4
 64
     7
 65
   257
 75
     1
175
     1
 42
1.0
 92
        8
 66
     7
 43
1.0
 76
     1
 77
     6
 78
     2
 67
     7
 79
     5
170
     0
171
     0
290
     0
174
     0
 93
        1
 44
0.0
173
     0
291
     1
 45
0.0
1001
ACAD
1000
AcDbSavedByObjectVersion
1070
     0
  0
VISUALSTYLE
  5
2B
102
{ACAD_REACTORS
330
2A
102
}
330
2A
100
AcDbVisualStyle
  2
Flat
 70
     0
 71
     2
 72
     1
 73
     1
 90
        2
 40
-0.6
 41
30.0
 62
     5
 63
     7
 74
     0
 91
        4
 64
     7
 65
   257
 75
     1
175
     1
 42
1.0
 92
        8
 66
     7
 43
1.0
 76
     1
 77
     6
 78
     2
 67
     7
 79
     5
170
     0
171
     0
290
     0
174
     0
 93
       13
 44
0.0
173
     0
291
     1
 45
0.0
1001
ACAD
1000
AcDbSavedByObjectVersion
1070
     0
  0
VISUALSTYLE
  5
2C
102
{ACAD_REACTORS
330
2A
102
}
330
2A
100
AcDbVisualStyle
  2
FlatWithEdges
 70
     1
 71
     2
 72
     1
 73
     1
 90
        2
 40
-0.6
 41
30.0
 62
     5
 63
     7
 74
     1
 91
        4
 64
     7
 65
   257
 75
     1
175
     1
 42
1.0
 92
        0
 66
   257
 43
1.0
 76
     1
 77
     6
 78
     2
 67
     7
 79
     5
170
     0
171
     0
290
     0
174
     0
 93
       13
 44
0.0
173
     0
291
     1
 45
0.0
1001
ACAD
1000
AcDbSavedByObjectVersion
1070
     0
  0
VISUALSTYLE
  5
2D
102
{ACAD_REACTORS
330
2A
102
}
330
2A
100
AcDbVisualStyle
  2
Gouraud
 70
     2
 71
     2
 72
     2
 73
     1
 90
        2
 40
-0.6
 41
30.0
 62
     5
 63
     7
 74
     0
 91
        4
 64
     7
 65
   257
 75
     1
175
     1
 42
1.0
 92
        0
 66
     7
 43
1.0
 76
     1
 77
     6
 78
     2
 67
     7
 79
     5
170
     0
171
     0
290
     0
174
     0
 93
       13
 44
0.0
173
     0
291
     1
 45
0.0
1001
ACAD
1000
AcDbSavedByObjectVersion
1070
     0
  0
VISUALSTYLE
  5
2E
102
{ACAD_REACTORS
330
2A
102
}
330
2A
100
AcDbVisualStyle
  2
GouraudWithEdges
 70
     3
 71
     2
 72
     2
 73
     1
 90
        2
 40
-0.6
 41
30.0
 62
     5
 63
     7
 74
     1
 91
        4
 64
     7
 65
   257
 75
     1
175
     1
 42
1.0
 92
        0
 66
   257
 43
1.0
 76
     1
 77
     6
 78
     2
 67
     7
 79
     5
170
     0
171
     0
290
     0
174
     0
 93
       13
 44
0.0
173
     0
291
     1
 45
0.0
1001
ACAD
1000
AcDbSavedByObjectVersion
1070
     0
  0
VISUALSTYLE
  5
38
102
{ACAD_REACTORS
330
2A
102
}
330
2A
100
AcDbVisualStyle
  2
Linepattern
 70
    14
 71
     2
 72
     2
 73
     0
 90
        0
 40
-0.6
 41
-30.0
 62
     5
 63
     7
 74
     1
 91
        4
 64
     7
 65
   257
 75
     7
175
     7
 42
1.0
 92
        8
 66
     7
 43
1.0
 76
     1
 77
     6
 78
     2
 67
     7
 79
     5
170
     0
171
     0
290
     0
174
     0
 93
        1
 44
0.0
173
     0
291
     1
 45
0.0
1001
ACAD
1000
AcDbSavedByObjectVersion
1070
     0
  0
VISUALSTYLE
  5
33
102
{ACAD_REACTORS
330
2A
102
}
330
2A
100
AcDbVisualStyle
  2
Realistic
 70
     8
 71
     2
 72
     2
 73
     0
 90
        0
 40
-0.6
 41
-30.0
 62
     5
 63
     7
 74
     1
 91
        0
 64
     7
 65
   257
 75
     1
175
     1
 42
1.0
 92
        8
 66
     8
 43
1.0
 76
     1
 77
     6
 78
     2
 67
     7
 79
     5
170
     0
171
     0
290
     0
174
     0
 93
       13
 44
0.0
173
     0
291
     0
 45
0.0
1001
ACAD
1000
AcDbSavedByObjectVersion
1070
     0
  0
VISUALSTYLE
  5
37
102
{ACAD_REACTORS
330
2A
102
}
330
2A
100
AcDbVisualStyle
  2
Thicken
 70
    13
 71
     2
 72
     2
 73
     0
 90
        0
 40
-0.6
 41
-30.0
 62
     5
 63
     7
 74
     1
 91
        4
 64
     7
 65
   257
 75
     1
175
     1
 42
1.0
 92
       12
 66
     7
 43
1.0
 76
     1
 77
     6
 78
     2
 67
     7
 79
     5
170
     0
171
     0
290
     0
174
     0
 93
        1
 44
0.0
173
     0
291
     1
 45
0.0
1001
ACAD
1000
AcDbSavedByObjectVersion
1070
     0
  0
DICTIONARYVAR
  5
20B
102
{ACAD_REACTORS
330
209
102
}
330
209
100
DictionaryVariables
280
     0
  1
80.000000
  0
DICTIONARYVAR
  5
20A
102
{ACAD_REACTORS
330
209
102
}
330
209
100
DictionaryVariables
280
     0
  1
5.000000
  0
ENDSEC
  0
EOF
