  0
SECTION
  2
HEADER
  9
$ACADVER
  1
AC1015
  9
$ACADMAINTVER
 70
     6
  9
$DWGCODEPAGE
  3
ANSI_1252
  9
$INSBASE
 10
0.0
 20
0.0
 30
0.0
  9
$EXTMIN
 10
0.0
 20
0.0
 30
0.0
  9
$EXTMAX
 10
297.0
 20
210.0
 30
0.0
  9
$LIMMIN
 10
0.0
 20
0.0
  9
$LIMMAX
 10
297.0
 20
210.0
  9
$ORTHOMODE
 70
     0
  9
$REGENMODE
 70
     1
  9
$FILLMODE
 70
     1
  9
$QTEXTMODE
 70
     0
  9
$MIRRTEXT
 70
     1
  9
$LTSCALE
 40
1.0
  9
$ATTMODE
 70
     1
  9
$TEXTSIZE
 40
2.0
  9
$TRACEWID
 40
1.0
  9
$TEXTSTYLE
  7
Standard
  9
$CLAYER
  8
0
  9
$CELTYPE
  6
ByLayer
  9
$CECOLOR
 62
   256
  9
$CELTSCALE
 40
1.0
  9
$DISPSILH
 70
     0
  9
$DIMSCALE
 40
1.0
  9
$DIMASZ
 40
3.0
  9
$DIMEXO
 40
0.0
  9
$DIMDLI
 40
3.75
  9
$DIMRND
 40
0.0
  9
$DIMDLE
 40
0.0
  9
$DIMEXE
 40
1.0
  9
$DIMTP
 40
0.0
  9
$DIMTM
 40
0.0
  9
$DIMTXT
 40
2.0
  9
$DIMCEN
 40
2.5
  9
$DIMTSZ
 40
0.0
  9
$DIMTOL
 70
     0
  9
$DIMLIM
 70
     0
  9
$DIMTIH
 70
     1
  9
$DIMTOH
 70
     1
  9
$DIMSE1
 70
     0
  9
$DIMSE2
 70
     0
  9
$DIMTAD
 70
     1
  9
$DIMZIN
 70
     0
  9
$DIMBLK
  1

  9
$DIMASO
 70
     1
  9
$DIMSHO
 70
     1
  9
$DIMPOST
  1

  9
$DIMAPOST
  1

  9
$DIMALT
 70
     0
  9
$DIMALTD
 70
     3
  9
$DIMALTF
 40
0.0393700787
  9
$DIMLFAC
 40
1.0
  9
$DIMTOFL
 70
     1
  9
$DIMTVP
 40
0.0
  9
$DIMTIX
 70
     0
  9
$DIMSOXD
 70
     0
  9
$DIMSAH
 70
     0
  9
$DIMBLK1
  1

  9
$DIMBLK2
  1

  9
$DIMSTYLE
  2
ISO-25
  9
$DIMCLRD
 70
     0
  9
$DIMCLRE
 70
     0
  9
$DIMCLRT
 70
     0
  9
$DIMTFAC
 40
1.0
  9
$DIMGAP
 40
1.524
  9
$DIMJUST
 70
     0
  9
$DIMSD1
 70
     0
  9
$DIMSD2
 70
     0
  9
$DIMTOLJ
 70
     0
  9
$DIMTZIN
 70
     0
  9
$DIMALTZ
 70
     0
  9
$DIMALTTZ
 70
     0
  9
$DIMUPT
 70
     0
  9
$DIMDEC
 70
     2
  9
$DIMTDEC
 70
     3
  9
$DIMALTU
 70
     2
  9
$DIMALTTD
 70
     3
  9
$DIMTXSTY
  7
Standard
  9
$DIMAUNIT
 70
     0
  9
$DIMADEC
 70
     2
  9
$DIMALTRND
 40
0.0
  9
$DIMAZIN
 70
     0
  9
$DIMDSEP
 70
    44
  9
$DIMATFIT
 70
     3
  9
$DIMFRAC
 70
     0
  9
$DIMLDRBLK
  1

  9
$DIMLUNIT
 70
     2
  9
$DIMLWD
 70
    -2
  9
$DIMLWE
 70
    -2
  9
$DIMTMOVE
 70
     0
  9
$LUNITS
 70
     2
  9
$LUPREC
 70
     2
  9
$SKETCHINC
 40
1.0
  9
$FILLETRAD
 40
10.0
  9
$AUNITS
 70
     0
  9
$AUPREC
 70
     2
  9
$MENU
  1
.
  9
$ELEVATION
 40
0.0
  9
$PELEVATION
 40
0.0
  9
$THICKNESS
 40
0.0
  9
$LIMCHECK
 70
     0
  9
$CHAMFERA
 40
10.0
  9
$CHAMFERB
 40
10.0
  9
$CHAMFERC
 40
20.0
  9
$CHAMFERD
 40
0.0
  9
$SKPOLY
 70
     0
  9
$TDCREATE
 40
2455684.345493982
  9
$TDUCREATE
 40
2455684.262160648
  9
$TDUPDATE
 40
2455684.345493993
  9
$TDUUPDATE
 40
2455684.26216066
  9
$TDINDWG
 40
0.0000000116
  9
$TDUSRTIMER
 40
0.0000000116
  9
$USRTIMER
 70
     1
  9
$ANGBASE
 50
0.0
  9
$ANGDIR
 70
     0
  9
$PDMODE
 70
     0
  9
$PDSIZE
 40
-1.0
  9
$PLINEWID
 40
0.0
  9
$SPLFRAME
 70
     0
  9
$SPLINETYPE
 70
     6
  9
$SPLINESEGS
 70
     8
  9
$HANDSEED
  5
214
  9
$SURFTAB1
 70
     6
  9
$SURFTAB2
 70
     6
  9
$SURFTYPE
 70
     6
  9
$SURFU
 70
     6
  9
$SURFV
 70
     6
  9
$UCSBASE
  2

  9
$UCSNAME
  2

  9
$UCSORG
 10
0.0
 20
0.0
 30
0.0
  9
$UCSXDIR
 10
1.0
 20
0.0
 30
0.0
  9
$UCSYDIR
 10
0.0
 20
1.0
 30
0.0
  9
$UCSORTHOREF
  2

  9
$UCSORTHOVIEW
 70
     0
  9
$UCSORGTOP
 10
0.0
 20
0.0
 30
0.0
  9
$UCSORGBOTTOM
 10
0.0
 20
0.0
 30
0.0
  9
$UCSORGLEFT
 10
0.0
 20
0.0
 30
0.0
  9
$UCSORGRIGHT
 10
0.0
 20
0.0
 30
0.0
  9
$UCSORGFRONT
 10
0.0
 20
0.0
 30
0.0
  9
$UCSORGBACK
 10
0.0
 20
0.0
 30
0.0
  9
$PUCSBASE
  2

  9
$PUCSNAME
  2

  9
$PUCSORG
 10
0.0
 20
0.0
 30
0.0
  9
$PUCSXDIR
 10
1.0
 20
0.0
 30
0.0
  9
$PUCSYDIR
 10
0.0
 20
1.0
 30
0.0
  9
$PUCSORTHOREF
  2

  9
$PUCSORTHOVIEW
 70
     0
  9
$PUCSORGTOP
 10
0.0
 20
0.0
 30
0.0
  9
$PUCSORGBOTTOM
 10
0.0
 20
0.0
 30
0.0
  9
$PUCSORGLEFT
 10
0.0
 20
0.0
 30
0.0
  9
$PUCSORGRIGHT
 10
0.0
 20
0.0
 30
0.0
  9
$PUCSORGFRONT
 10
0.0
 20
0.0
 30
0.0
  9
$PUCSORGBACK
 10
0.0
 20
0.0
 30
0.0
  9
$USERI1
 70
     0
  9
$USERI2
 70
     0
  9
$USERI3
 70
     0
  9
$USERI4
 70
     0
  9
$USERI5
 70
     0
  9
$USERR1
 40
0.0
  9
$USERR2
 40
0.0
  9
$USERR3
 40
0.0
  9
$USERR4
 40
0.0
  9
$USERR5
 40
0.0
  9
$WORLDVIEW
 70
     1
  9
$SHADEDGE
 70
     3
  9
$SHADEDIF
 70
    70
  9
$TILEMODE
 70
     1
  9
$MAXACTVP
 70
    64
  9
$PINSBASE
 10
0.0
 20
0.0
 30
0.0
  9
$PLIMCHECK
 70
     0
  9
$PEXTMIN
 10
1.0000000000E+20
 20
1.0000000000E+20
 30
1.0000000000E+20
  9
$PEXTMAX
 10
-1.0000000000E+20
 20
-1.0000000000E+20
 30
-1.0000000000E+20
  9
$PLIMMIN
 10
0.0
 20
0.0
  9
$PLIMMAX
 10
420.0
 20
297.0
  9
$UNITMODE
 70
     0
  9
$VISRETAIN
 70
     1
  9
$PLINEGEN
 70
     0
  9
$PSLTSCALE
 70
     1
  9
$TREEDEPTH
 70
  3020
  9
$CMLSTYLE
  2
Standard
  9
$CMLJUST
 70
     0
  9
$CMLSCALE
 40
20.0
  9
$PROXYGRAPHICS
 70
     1
  9
$MEASUREMENT
 70
     1
  9
$CELWEIGHT
370
    -1
  9
$ENDCAPS
280
     0
  9
$JOINSTYLE
280
     0
  9
$LWDISPLAY
290
     1
  9
$INSUNITS
 70
     4
  9
$HYPERLINKBASE
  1

  9
$STYLESHEET
  1

  9
$XEDIT
290
     1
  9
$CEPSNTYPE
380
     0
  9
$PSTYLEMODE
290
     1
  9
$FINGERPRINTGUID
  2
{788116EF-F377-4DFB-85D8-8545FAF047DC}
  9
$VERSIONGUID
  2
{FAEB1C32-E019-11D5-929B-00C0DF256EC4}
  9
$EXTNAMES
290
     1
  9
$PSVPSCALE
 40
0.0
  9
$OLESTARTUP
290
     0
  0
ENDSEC
  0
SECTION
  2
CLASSES
  0
CLASS
  1
ACDBDICTIONARYWDFLT
  2
AcDbDictionaryWithDefault
  3
ObjectDBX Classes
 90
        0
280
     0
281
     0
  0
CLASS
  1
VISUALSTYLE
  2
AcDbVisualStyle
  3
ObjectDBX Classes
 90
     4095
280
     0
281
     0
  0
CLASS
  1
DICTIONARYVAR
  2
AcDbDictionaryVar
  3
ObjectDBX Classes
 90
        0
280
     0
281
     0
  0
CLASS
  1
ACDBPLACEHOLDER
  2
AcDbPlaceHolder
  3
ObjectDBX Classes
 90
        0
280
     0
281
     0
  0
CLASS
  1
LAYOUT
  2
AcDbLayout
  3
ObjectDBX Classes
 90
        0
280
     0
281
     0
  0
ENDSEC
  0
SECTION
  2
TABLES
  0
TABLE
  2
VPORT
  5
8
330
0
100
AcDbSymbolTable
 70
     1
  0
VPORT
  5
29
330
8
100
AcDbSymbolTableRecord
100
AcDbViewportTableRecord
  2
*Active
 70
     0
 10
0.0
 20
0.0
 11
1.0
 21
1.0
 12
148.5
 22
105.0
 13
0.0
 23
0.0
 14
10.0
 24
10.0
 15
10.0
 25
10.0
 16
0.0
 26
0.0
 36
1.0
 17
0.0
 27
0.0
 37
0.0
 40
210.0
 41
1.4142857143
 42
50.0
 43
0.0
 44
0.0
 50
0.0
 51
0.0
 71
     0
 72
  2000
 73
     1
 74
     3
 75
     0
 76
     0
 77
     0
 78
     0
281
     0
 65
     1
110
0.0
120
0.0
130
0.0
111
1.0
121
0.0
131
0.0
112
0.0
122
1.0
132
0.0
 79
     0
146
0.0
  0
ENDTAB
  0
TABLE
  2
LTYPE
  5
5
330
0
100
AcDbSymbolTable
 70
     6
  0
LTYPE
  5
14
330
5
100
AcDbSymbolTableRecord
100
AcDbLinetypeTableRecord
  2
ByBlock
 70
     0
  3

 72
    65
 73
     0
 40
0.0
  0
LTYPE
  5
15
330
5
100
AcDbSymbolTableRecord
100
AcDbLinetypeTableRecord
  2
ByLayer
 70
     0
  3

 72
    65
 73
     0
 40
0.0
  0
LTYPE
  5
16
330
5
100
AcDbSymbolTableRecord
100
AcDbLinetypeTableRecord
  2
Continuous
 70
     0
  3
Solid line
 72
    65
 73
     0
 40
0.0
  0
LTYPE
  5
3B
330
5
100
AcDbSymbolTableRecord
100
AcDbLinetypeTableRecord
  2
HIDDEN
 70
     0
  3
Hidden __ __ __ __ __ __ __ __ __ __ __ __ __ __
 72
    65
 73
     2
 40
1.905
 49
1.27
 74
     0
 49
-0.635
 74
     0
  0
LTYPE
  5
3C
330
5
100
AcDbSymbolTableRecord
100
AcDbLinetypeTableRecord
  2
PHANTOM
 70
     0
  3
Phantom ______  __  __  ______  __  __  ______
 72
    65
 73
     6
 40
12.7
 49
6.35
 74
     0
 49
-1.27
 74
     0
 49
1.27
 74
     0
 49
-1.27
 74
     0
 49
1.27
 74
     0
 49
-1.27
 74
     0
  0
LTYPE
  5
3D
330
5
100
AcDbSymbolTableRecord
100
AcDbLinetypeTableRecord
  2
CENTER
 70
     0
  3
Center ____ _ ____ _ ____ _ ____ _ ____ _ ____
 72
    65
 73
     4
 40
10.16
 49
6.35
 74
     0
 49
-1.27
 74
     0
 49
1.27
 74
     0
 49
-1.27
 74
     0
  0
LTYPE
  5
3E
330
5
100
AcDbSymbolTableRecord
100
AcDbLinetypeTableRecord
  2
CENTERX2
 70
     0
  3
Center (2x) ________  __  ________  __  _____
 72
    65
 73
     4
 40
20.32
 49
12.7
 74
     0
 49
-2.54
 74
     0
 49
2.54
 74
     0
 49
-2.54
 74
     0
  0
LTYPE
  5
3F
330
5
100
AcDbSymbolTableRecord
100
AcDbLinetypeTableRecord
  2
DOT2
 70
     0
  3
Dot (.5x) ........................................
 72
    65
 73
     2
 40
0.635
 49
0.0
 74
     0
 49
-0.635
 74
     0
  0
ENDTAB
  0
TABLE
  2
LAYER
  5
2
330
0
100
AcDbSymbolTable
 70
     5
  0
LAYER
  5
10
330
2
100
AcDbSymbolTableRecord
100
AcDbLayerTableRecord
  2
0
 70
     0
 62
     7
  6
Continuous
370
    -3
390
F
  0
LAYER
  5
40
330
2
100
AcDbSymbolTableRecord
100
AcDbLayerTableRecord
  2
FORMAT
 70
     0
 62
     7
  6
Continuous
370
    -3
390
F
  0
LAYER
  5
41
330
2
100
AcDbSymbolTableRecord
100
AcDbLayerTableRecord
  2
VERMASSUNG
 70
     0
 62
     7
  6
Continuous
370
    -3
390
F
  0
LAYER
  5
42
330
2
100
AcDbSymbolTableRecord
100
AcDbLayerTableRecord
  2
KOPF_DÜNN
 70
     0
 62
     7
  6
Continuous
370
    -3
390
F
  0
LAYER
  5
43
330
2
100
AcDbSymbolTableRecord
100
AcDbLayerTableRecord
  2
KOPF_DICK
 70
     0
 62
     7
  6
Continuous
370
    15
390
F
  0
ENDTAB
  0
TABLE
  2
STYLE
  5
3
330
0
100
AcDbSymbolTable
 70
     3
  0
STYLE
  5
11
330
3
100
AcDbSymbolTableRecord
100
AcDbTextStyleTableRecord
  2
Standard
 70
     0
 40
0.0
 41
1.0
 50
0.0
 71
     0
 42
2.5
  3
txt
  4

  0
STYLE
  5
44
330
3
100
AcDbSymbolTableRecord
100
AcDbTextStyleTableRecord
  2
SLDTEXTSTYLE0
 70
     0
 40
0.0
 41
0.7
 50
0.0
 71
     0
 42
0.2
  3
TXT
  4

  0
STYLE
  5
48
330
3
100
AcDbSymbolTableRecord
100
AcDbTextStyleTableRecord
  2
SLDTEXTSTYLE1
 70
     0
 40
0.0
 41
0.65
 50
0.0
 71
     0
 42
0.2
  3
TXT
  4

  0
ENDTAB
  0
TABLE
  2
VIEW
  5
6
330
0
100
AcDbSymbolTable
 70
     0
  0
ENDTAB
  0
TABLE
  2
UCS
  5
7
330
0
100
AcDbSymbolTable
 70
     0
  0
ENDTAB
  0
TABLE
  2
APPID
  5
9
330
0
100
AcDbSymbolTable
 70
     1
  0
APPID
  5
12
330
9
100
AcDbSymbolTableRecord
100
AcDbRegAppTableRecord
  2
ACAD
 70
     0
  0
ENDTAB
  0
TABLE
  2
DIMSTYLE
  5
A
330
0
100
AcDbSymbolTable
 70
     5
100
AcDbDimStyleTable
  0
DIMSTYLE
105
27
330
A
100
AcDbSymbolTableRecord
100
AcDbDimStyleTableRecord
  2
ISO-25
 70
     0
 41
2.5
 42
0.625
 43
3.75
 44
1.25
 73
     0
 74
     0
 77
     1
 78
     8
140
2.5
141
2.5
143
0.0393700787
147
0.625
171
     3
172
     1
271
     2
272
     2
274
     3
278
    44
283
     0
284
     8
340
11
  0
DIMSTYLE
105
1B4
102
{ACAD_REACTORS
330
1B3
330
1E4
330
1EE
330
1F8
330
202
102
}
330
A
100
AcDbSymbolTableRecord
100
AcDbDimStyleTableRecord
  2
SLDDIMSTYLE0
 70
     0
 41
3.0
 44
0.0
 45
0.000000001
 73
     0
 74
     0
 77
     1
 78
    12
140
2.0
147
0.5
173
     1
271
     2
272
     3
284
    12
340
44
  0
DIMSTYLE
105
1C1
102
{ACAD_REACTORS
330
1C0
102
}
330
A
100
AcDbSymbolTableRecord
100
AcDbDimStyleTableRecord
  2
SLDDIMSTYLE1
 70
     0
 41
3.0
 44
0.0
 45
0.000000001
 73
     0
 74
     0
 77
     1
 78
    12
140
2.0
147
0.5
173
     1
271
     2
272
     2
284
    12
340
44
  0
DIMSTYLE
105
1CC
102
{ACAD_REACTORS
330
1CB
102
}
330
A
100
AcDbSymbolTableRecord
100
AcDbDimStyleTableRecord
  2
SLDDIMSTYLE2
 70
     0
 41
3.0
 44
0.0
 45
0.000000001
 73
     0
 74
     0
 77
     1
 78
    12
140
2.0
147
0.5
173
     1
271
     2
272
     2
284
    12
340
44
  0
DIMSTYLE
105
1D9
102
{ACAD_REACTORS
330
1D8
102
}
330
A
100
AcDbSymbolTableRecord
100
AcDbDimStyleTableRecord
  2
SLDDIMSTYLE3
 70
     0
 41
3.0
 44
0.0
 45
0.000000001
 73
     0
 74
     0
 77
     1
 78
    12
140
2.0
147
0.5
173
     1
271
     2
272
     3
284
    12
340
44
  0
ENDTAB
  0
TABLE
  2
BLOCK_RECORD
  5
1
330
0
100
AcDbSymbolTable
 70
     9
  0
BLOCK_RECORD
  5
1F
330
1
100
AcDbSymbolTableRecord
100
AcDbBlockTableRecord
  2
*Model_Space
340
22
  0
BLOCK_RECORD
  5
1B
330
1
100
AcDbSymbolTableRecord
100
AcDbBlockTableRecord
  2
*Paper_Space
340
1E
  0
BLOCK_RECORD
  5
23
330
1
100
AcDbSymbolTableRecord
100
AcDbBlockTableRecord
  2
*Paper_Space0
340
26
  0
BLOCK_RECORD
  5
1B5
330
1
100
AcDbSymbolTableRecord
100
AcDbBlockTableRecord
  2
*D1
340
0
  0
BLOCK_RECORD
  5
1C2
330
1
100
AcDbSymbolTableRecord
100
AcDbBlockTableRecord
  2
*D2
340
0
  0
BLOCK_RECORD
  5
1CD
330
1
100
AcDbSymbolTableRecord
100
AcDbBlockTableRecord
  2
*D3
340
0
  0
BLOCK_RECORD
  5
1DA
330
1
100
AcDbSymbolTableRecord
100
AcDbBlockTableRecord
  2
*D4
340
0
  0
BLOCK_RECORD
  5
1E5
330
1
100
AcDbSymbolTableRecord
100
AcDbBlockTableRecord
  2
*D5
340
0
  0
BLOCK_RECORD
  5
1EF
330
1
100
AcDbSymbolTableRecord
100
AcDbBlockTableRecord
  2
*D6
340
0
  0
BLOCK_RECORD
  5
1F9
330
1
100
AcDbSymbolTableRecord
100
AcDbBlockTableRecord
  2
*D7
340
0
  0
BLOCK_RECORD
  5
203
330
1
100
AcDbSymbolTableRecord
100
AcDbBlockTableRecord
  2
*D8
340
0
  0
ENDTAB
  0
ENDSEC
  0
SECTION
  2
BLOCKS
  0
BLOCK
  5
20
330
1F
100
AcDbEntity
  8
0
100
AcDbBlockBegin
  2
*Model_Space
 70
     0
 10
0.0
 20
0.0
 30
0.0
  3
*Model_Space
  1

  0
ENDBLK
  5
21
330
1F
100
AcDbEntity
  8
0
100
AcDbBlockEnd
  0
BLOCK
  5
1C
330
1B
100
AcDbEntity
 67
     1
  8
0
100
AcDbBlockBegin
  2
*Paper_Space
 70
     0
 10
0.0
 20
0.0
 30
0.0
  3
*Paper_Space
  1

  0
ENDBLK
  5
1D
330
1B
100
AcDbEntity
 67
     1
  8
0
100
AcDbBlockEnd
  0
BLOCK
  5
24
330
23
100
AcDbEntity
  8
0
100
AcDbBlockBegin
  2
*Paper_Space0
 70
     0
 10
0.0
 20
0.0
 30
0.0
  3
*Paper_Space0
  1

  0
ENDBLK
  5
25
330
23
100
AcDbEntity
  8
0
100
AcDbBlockEnd
  0
BLOCK
  5
1B6
330
1B5
100
AcDbEntity
  8
0
100
AcDbBlockBegin
  2
*D1
 70
     1
 10
0.0
 20
0.0
 30
0.0
  3
*D1
  1

  0
SOLID
  5
1B8
330
1B5
100
AcDbEntity
  8
VERMASSUNG
100
AcDbTrace
 10
51.7270855905
 20
165.3270855905
 30
0.0
 11
51.2770855905
 21
162.3270855905
 31
0.0
 12
52.1770855905
 22
162.3270855905
 32
0.0
 13
52.1770855905
 23
162.3270855905
 33
0.0
  0
SOLID
  5
1B9
330
1B5
100
AcDbEntity
  8
VERMASSUNG
100
AcDbTrace
 10
51.7270855905
 20
65.3270855905
 30
0.0
 11
52.1770855905
 21
68.3270855905
 31
0.0
 12
51.2770855905
 22
68.3270855905
 32
0.0
 13
51.2770855905
 23
68.3270855905
 33
0.0
  0
LINE
  5
1BA
330
1B5
100
AcDbEntity
  8
VERMASSUNG
100
AcDbLine
 10
108.0920124639
 20
165.3270855905
 30
0.0
 11
50.7270855905
 21
165.3270855905
 31
0.0
  0
LINE
  5
1BB
330
1B5
100
AcDbEntity
  8
VERMASSUNG
100
AcDbLine
 10
108.0920124639
 20
65.3270855905
 30
0.0
 11
50.7270855905
 21
65.3270855905
 31
0.0
  0
LINE
  5
1BC
330
1B5
100
AcDbEntity
  8
VERMASSUNG
100
AcDbLine
 10
51.7270855905
 20
165.3270855905
 30
0.0
 11
51.7270855905
 21
65.3270855905
 31
0.0
  0
MTEXT
  5
1BD
330
1B5
100
AcDbEntity
  8
VERMASSUNG
100
AcDbMText
 10
48.9489501014
 20
107.1234344529
 30
0.0
 40
2.0
 41
0.0
 71
     1
 72
     1
  1
HSK A 
  7
SLDTEXTSTYLE0
 11
-7.044195017643634E-15
 21
1.0
 31
0.0
 73
     1
 44
1.0
  0
MTEXT
  5
1BE
330
1B5
100
AcDbEntity
  8
VERMASSUNG
100
AcDbMText
 10
49.1489501109
 20
116.1234349968
 30
0.0
 40
2.0
 41
0.0
 71
     1
 72
     1
  1
%%c
  7
SLDTEXTSTYLE0
 11
-7.044195017643634E-15
 21
1.0
 31
0.0
 73
     1
 44
1.0
  0
MTEXT
  5
1BF
330
1B5
100
AcDbEntity
  8
VERMASSUNG
100
AcDbMText
 10
49.1489502273
 20
119.7317616468
 30
0.0
 40
2.0
 41
0.0
 71
     1
 72
     1
  1
100
  7
SLDTEXTSTYLE0
 11
-7.044195017643634E-15
 21
1.0
 31
0.0
 73
     1
 44
1.0
  0
ENDBLK
  5
1B7
330
1B5
100
AcDbEntity
  8
0
100
AcDbBlockEnd
  0
BLOCK
  5
1C3
330
1C2
100
AcDbEntity
  8
0
100
AcDbBlockBegin
  2
*D2
 70
     1
 10
0.0
 20
0.0
 30
0.0
  3
*D2
  1

  0
SOLID
  5
1C5
330
1C2
100
AcDbEntity
  8
VERMASSUNG
100
AcDbTrace
 10
188.0920124639
 20
163.3270855905
 30
0.0
 11
191.0920124639
 21
162.8770855905
 31
0.0
 12
191.0920124639
 22
163.7770855905
 32
0.0
 13
191.0920124639
 23
163.7770855905
 33
0.0
  0
SOLID
  5
1C6
330
1C2
100
AcDbEntity
  8
VERMASSUNG
100
AcDbTrace
 10
237.5920124639
 20
163.3270855905
 30
0.0
 11
234.5920124639
 21
163.7770855905
 31
0.0
 12
234.5920124639
 22
162.8770855905
 32
0.0
 13
234.5920124639
 23
162.8770855905
 33
0.0
  0
LINE
  5
1C7
330
1C2
100
AcDbEntity
  8
VERMASSUNG
100
AcDbLine
 10
188.0920124639
 20
123.2270855905
 30
0.0
 11
188.0920124639
 21
164.3270855905
 31
0.0
  0
LINE
  5
1C8
330
1C2
100
AcDbEntity
  8
VERMASSUNG
100
AcDbLine
 10
237.5920124639
 20
126.9783046071
 30
0.0
 11
237.5920124639
 21
164.3270855905
 31
0.0
  0
LINE
  5
1C9
330
1C2
100
AcDbEntity
  8
VERMASSUNG
100
AcDbLine
 10
188.0920124639
 20
163.3270855905
 30
0.0
 11
237.5920124639
 21
163.3270855905
 31
0.0
  0
MTEXT
  5
1CA
330
1C2
100
AcDbEntity
  8
VERMASSUNG
100
AcDbMText
 10
210.3426256816
 20
165.9052209536
 30
0.0
 40
2.0
 41
0.0
 71
     1
 72
     1
  1
49.5
  7
SLDTEXTSTYLE0
 73
     1
 44
1.0
  0
ENDBLK
  5
1C4
330
1C2
100
AcDbEntity
  8
0
100
AcDbBlockEnd
  0
BLOCK
  5
1CE
330
1CD
100
AcDbEntity
  8
0
100
AcDbBlockBegin
  2
*D3
 70
     1
 10
0.0
 20
0.0
 30
0.0
  3
*D3
  1

  0
SOLID
  5
1D0
330
1CD
100
AcDbEntity
  8
VERMASSUNG
100
AcDbTrace
 10
244.5767063922
 20
107.3270855905
 30
0.0
 11
245.0267063922
 21
110.3270855905
 31
0.0
 12
244.1267063922
 22
110.3270855905
 32
0.0
 13
244.1267063922
 23
110.3270855905
 33
0.0
  0
SOLID
  5
1D1
330
1CD
100
AcDbEntity
  8
VERMASSUNG
100
AcDbTrace
 10
244.5767063922
 20
123.3270855905
 30
0.0
 11
244.1267063922
 21
120.3270855905
 31
0.0
 12
245.0267063922
 22
120.3270855905
 32
0.0
 13
245.0267063922
 23
120.3270855905
 33
0.0
  0
LINE
  5
1D2
330
1CD
100
AcDbEntity
  8
VERMASSUNG
100
AcDbLine
 10
234.0920124639
 20
107.3270855905
 30
0.0
 11
245.5767063922
 21
107.3270855905
 31
0.0
  0
LINE
  5
1D3
330
1CD
100
AcDbEntity
  8
VERMASSUNG
100
AcDbLine
 10
234.0920124639
 20
123.3270855905
 30
0.0
 11
245.5767063922
 21
123.3270855905
 31
0.0
  0
LINE
  5
1D4
330
1CD
100
AcDbEntity
  8
VERMASSUNG
100
AcDbLine
 10
244.5767063922
 20
107.3270855905
 30
0.0
 11
244.5767063922
 21
123.3270855905
 31
0.0
  0
MTEXT
  5
1D5
330
1CD
100
AcDbEntity
  8
VERMASSUNG
100
AcDbMText
 10
241.9985709127
 20
111.7230487541
 30
0.0
 40
2.0
 41
0.0
 71
     1
 72
     1
  1
%%c
  7
SLDTEXTSTYLE0
 11
6.123233995736766E-17
 21
1.0
 31
0.0
 73
     1
 44
1.0
  0
MTEXT
  5
1D6
330
1CD
100
AcDbEntity
  8
VERMASSUNG
100
AcDbMText
 10
241.9985710291
 20
115.3317269772
 30
0.0
 40
2.0
 41
0.0
 71
     1
 72
     1
  1
16
  7
SLDTEXTSTYLE0
 11
6.123233995736766E-17
 21
1.0
 31
0.0
 73
     1
 44
1.0
  0
MTEXT
  5
1D7
330
1CD
100
AcDbEntity
  8
VERMASSUNG
100
AcDbMText
 10
241.9985710291
 20
117.7313239437
 30
0.0
 40
2.0
 41
0.0
 71
     1
 72
     1
  1
 
  7
SLDTEXTSTYLE0
 11
6.123233995736766E-17
 21
1.0
 31
0.0
 73
     1
 44
1.0
  0
ENDBLK
  5
1CF
330
1CD
100
AcDbEntity
  8
0
100
AcDbBlockEnd
  0
BLOCK
  5
1DB
330
1DA
100
AcDbEntity
  8
0
100
AcDbBlockBegin
  2
*D4
 70
     1
 10
0.0
 20
0.0
 30
0.0
  3
*D4
  1

  0
SOLID
  5
1DD
330
1DA
100
AcDbEntity
  8
VERMASSUNG
100
AcDbTrace
 10
250.5767063922
 20
101.8270855905
 30
0.0
 11
251.0267063922
 21
104.8270855905
 31
0.0
 12
250.1267063922
 22
104.8270855905
 32
0.0
 13
250.1267063922
 23
104.8270855905
 33
0.0
  0
SOLID
  5
1DE
330
1DA
100
AcDbEntity
  8
VERMASSUNG
100
AcDbTrace
 10
250.5767063922
 20
128.8270855905
 30
0.0
 11
250.1267063922
 21
125.8270855905
 31
0.0
 12
251.0267063922
 22
125.8270855905
 32
0.0
 13
251.0267063922
 23
125.8270855905
 33
0.0
  0
LINE
  5
1DF
330
1DA
100
AcDbEntity
  8
VERMASSUNG
100
AcDbLine
 10
237.5920124639
 20
101.8270855905
 30
0.0
 11
251.5767063922
 21
101.8270855905
 31
0.0
  0
LINE
  5
1E0
330
1DA
100
AcDbEntity
  8
VERMASSUNG
100
AcDbLine
 10
237.5920124639
 20
128.8270855905
 30
0.0
 11
251.5767063922
 21
128.8270855905
 31
0.0
  0
LINE
  5
1E1
330
1DA
100
AcDbEntity
  8
VERMASSUNG
100
AcDbLine
 10
250.5767063922
 20
101.8270855905
 30
0.0
 11
250.5767063922
 21
128.8270855905
 31
0.0
  0
MTEXT
  5
1E2
330
1DA
100
AcDbEntity
  8
VERMASSUNG
100
AcDbMText
 10
247.9985709127
 20
112.123368364
 30
0.0
 40
2.0
 41
0.0
 71
     1
 72
     1
  1
%%c
  7
SLDTEXTSTYLE0
 11
6.123233995736766E-17
 21
1.0
 31
0.0
 73
     1
 44
1.0
  0
MTEXT
  5
1E3
330
1DA
100
AcDbEntity
  8
VERMASSUNG
100
AcDbMText
 10
247.9985710291
 20
115.7320465872
 30
0.0
 40
2.0
 41
0.0
 71
     1
 72
     1
  1
27
  7
SLDTEXTSTYLE0
 11
6.123233995736766E-17
 21
1.0
 31
0.0
 73
     1
 44
1.0
  0
ENDBLK
  5
1DC
330
1DA
100
AcDbEntity
  8
0
100
AcDbBlockEnd
  0
BLOCK
  5
1E6
330
1E5
100
AcDbEntity
  8
0
100
AcDbBlockBegin
  2
*D5
 70
     1
 10
0.0
 20
0.0
 30
0.0
  3
*D5
  1

  0
SOLID
  5
1E8
330
1E5
100
AcDbEntity
  8
VERMASSUNG
100
AcDbTrace
 10
107.5920124639
 20
175.3270855905
 30
0.0
 11
110.5920124639
 21
174.8770855905
 31
0.0
 12
110.5920124639
 22
175.7770855905
 32
0.0
 13
110.5920124639
 23
175.7770855905
 33
0.0
  0
SOLID
  5
1E9
330
1E5
100
AcDbEntity
  8
VERMASSUNG
100
AcDbTrace
 10
237.5920124639
 20
175.3270855905
 30
0.0
 11
234.5920124639
 21
175.7770855905
 31
0.0
 12
234.5920124639
 22
174.8770855905
 32
0.0
 13
234.5920124639
 23
174.8770855905
 33
0.0
  0
LINE
  5
1EA
330
1E5
100
AcDbEntity
  8
VERMASSUNG
100
AcDbLine
 10
107.5920124639
 20
164.8270855905
 30
0.0
 11
107.5920124639
 21
176.3270855905
 31
0.0
  0
LINE
  5
1EB
330
1E5
100
AcDbEntity
  8
VERMASSUNG
100
AcDbLine
 10
237.5920124639
 20
126.9783046071
 30
0.0
 11
237.5920124639
 21
176.3270855905
 31
0.0
  0
LINE
  5
1EC
330
1E5
100
AcDbEntity
  8
VERMASSUNG
100
AcDbLine
 10
107.5920124639
 20
175.3270855905
 30
0.0
 11
237.5920124639
 21
175.3270855905
 31
0.0
  0
MTEXT
  5
1ED
330
1E5
100
AcDbEntity
  8
VERMASSUNG
100
AcDbMText
 10
170.6925249232
 20
177.9052209536
 30
0.0
 40
2.0
 41
0.0
 71
     1
 72
     1
  1
130
  7
SLDTEXTSTYLE0
 73
     1
 44
1.0
  0
ENDBLK
  5
1E7
330
1E5
100
AcDbEntity
  8
0
100
AcDbBlockEnd
  0
BLOCK
  5
1F0
330
1EF
100
AcDbEntity
  8
0
100
AcDbBlockBegin
  2
*D6
 70
     1
 10
0.0
 20
0.0
 30
0.0
  3
*D6
  1

  0
SOLID
  5
1F2
330
1EF
100
AcDbEntity
  8
VERMASSUNG
100
AcDbTrace
 10
136.5420124639
 20
169.3270855905
 30
0.0
 11
139.5420124639
 21
168.8770855905
 31
0.0
 12
139.5420124639
 22
169.7770855905
 32
0.0
 13
139.5420124639
 23
169.7770855905
 33
0.0
  0
SOLID
  5
1F3
330
1EF
100
AcDbEntity
  8
VERMASSUNG
100
AcDbTrace
 10
237.5920124639
 20
169.3270855905
 30
0.0
 11
234.5920124639
 21
169.7770855905
 31
0.0
 12
234.5920124639
 22
168.8770855905
 32
0.0
 13
234.5920124639
 23
168.8770855905
 33
0.0
  0
LINE
  5
1F4
330
1EF
100
AcDbEntity
  8
VERMASSUNG
100
AcDbLine
 10
136.5420124639
 20
163.2958254113
 30
0.0
 11
136.5420124639
 21
170.3270855905
 31
0.0
  0
LINE
  5
1F5
330
1EF
100
AcDbEntity
  8
VERMASSUNG
100
AcDbLine
 10
237.5920124639
 20
126.9265333503
 30
0.0
 11
237.5920124639
 21
170.3270855905
 31
0.0
  0
LINE
  5
1F6
330
1EF
100
AcDbEntity
  8
VERMASSUNG
100
AcDbLine
 10
136.5420124639
 20
169.3270855905
 30
0.0
 11
237.5920124639
 21
169.3270855905
 31
0.0
  0
MTEXT
  5
1F7
330
1EF
100
AcDbEntity
  8
VERMASSUNG
100
AcDbMText
 10
183.6671966459
 20
171.9052209536
 30
0.0
 40
2.0
 41
0.0
 71
     1
 72
     1
  1
101.05
  7
SLDTEXTSTYLE0
 73
     1
 44
1.0
  0
ENDBLK
  5
1F1
330
1EF
100
AcDbEntity
  8
0
100
AcDbBlockEnd
  0
BLOCK
  5
1FA
330
1F9
100
AcDbEntity
  8
0
100
AcDbBlockBegin
  2
*D7
 70
     1
 10
0.0
 20
0.0
 30
0.0
  3
*D7
  1

  0
SOLID
  5
1FC
330
1F9
100
AcDbEntity
  8
VERMASSUNG
100
AcDbTrace
 10
57.6920124639
 20
181.3270855905
 30
0.0
 11
60.6920124639
 21
180.8770855905
 31
0.0
 12
60.6920124639
 22
181.7770855905
 32
0.0
 13
60.6920124639
 23
181.7770855905
 33
0.0
  0
SOLID
  5
1FD
330
1F9
100
AcDbEntity
  8
VERMASSUNG
100
AcDbTrace
 10
237.5920124639
 20
181.3270855905
 30
0.0
 11
234.5920124639
 21
181.7770855905
 31
0.0
 12
234.5920124639
 22
180.8770855905
 32
0.0
 13
234.5920124639
 23
180.8770855905
 33
0.0
  0
LINE
  5
1FE
330
1F9
100
AcDbEntity
  8
VERMASSUNG
100
AcDbLine
 10
57.6920124639
 20
145.829755333
 30
0.0
 11
57.6920124639
 21
182.3270855905
 31
0.0
  0
LINE
  5
1FF
330
1F9
100
AcDbEntity
  8
VERMASSUNG
100
AcDbLine
 10
237.5920124639
 20
126.9265333503
 30
0.0
 11
237.5920124639
 21
182.3270855905
 31
0.0
  0
LINE
  5
200
330
1F9
100
AcDbEntity
  8
VERMASSUNG
100
AcDbLine
 10
57.6920124639
 20
181.3270855905
 30
0.0
 11
237.5920124639
 21
181.3270855905
 31
0.0
  0
MTEXT
  5
201
330
1F9
100
AcDbEntity
  8
VERMASSUNG
100
AcDbMText
 10
144.7423060717
 20
183.9052209536
 30
0.0
 40
2.0
 41
0.0
 71
     1
 72
     1
  1
179.9
  7
SLDTEXTSTYLE0
 73
     1
 44
1.0
  0
ENDBLK
  5
1FB
330
1F9
100
AcDbEntity
  8
0
100
AcDbBlockEnd
  0
BLOCK
  5
204
330
203
100
AcDbEntity
  8
0
100
AcDbBlockBegin
  2
*D8
 70
     1
 10
0.0
 20
0.0
 30
0.0
  3
*D8
  1

  0
SOLID
  5
206
330
203
100
AcDbEntity
  8
VERMASSUNG
100
AcDbTrace
 10
256.5767063922
 20
133.8270855905
 30
0.0
 11
256.1267063922
 21
130.8270855905
 31
0.0
 12
257.0267063922
 22
130.8270855905
 32
0.0
 13
257.0267063922
 23
130.8270855905
 33
0.0
  0
SOLID
  5
207
330
203
100
AcDbEntity
  8
VERMASSUNG
100
AcDbTrace
 10
256.5767063922
 20
96.8270855905
 30
0.0
 11
257.0267063922
 21
99.8270855905
 31
0.0
 12
256.1267063922
 22
99.8270855905
 32
0.0
 13
256.1267063922
 23
99.8270855905
 33
0.0
  0
LINE
  5
208
330
203
100
AcDbEntity
  8
VERMASSUNG
100
AcDbLine
 10
158.5420124639
 20
133.8270855905
 30
0.0
 11
257.5767063922
 21
133.8270855905
 31
0.0
  0
LINE
  5
209
330
203
100
AcDbEntity
  8
VERMASSUNG
100
AcDbLine
 10
158.5420124639
 20
96.8270855905
 30
0.0
 11
257.5767063922
 21
96.8270855905
 31
0.0
  0
LINE
  5
20A
330
203
100
AcDbEntity
  8
VERMASSUNG
100
AcDbLine
 10
256.5767063922
 20
133.8270855905
 30
0.0
 11
256.5767063922
 21
96.8270855905
 31
0.0
  0
MTEXT
  5
20B
330
203
100
AcDbEntity
  8
VERMASSUNG
100
AcDbMText
 10
253.9985709127
 20
112.123368364
 30
0.0
 40
2.0
 41
0.0
 71
     1
 72
     1
  1
%%c
  7
SLDTEXTSTYLE0
 11
-7.044195017643634E-15
 21
1.0
 31
0.0
 73
     1
 44
1.0
  0
MTEXT
  5
20C
330
203
100
AcDbEntity
  8
VERMASSUNG
100
AcDbMText
 10
253.9985710291
 20
115.7320465872
 30
0.0
 40
2.0
 41
0.0
 71
     1
 72
     1
  1
37
  7
SLDTEXTSTYLE0
 11
-7.044195017643634E-15
 21
1.0
 31
0.0
 73
     1
 44
1.0
  0
ENDBLK
  5
205
330
203
100
AcDbEntity
  8
0
100
AcDbBlockEnd
  0
ENDSEC
  0
SECTION
  2
ENTITIES
  0
MTEXT
  5
45
330
1F
100
AcDbEntity
  8
KOPF_DÜNN
100
AcDbMText
 10
13.8892156294
 20
23.8442973028
 30
0.0
 40
3.0
 41
0.0
 71
     1
 72
     1
  1
HA0.S16.K21.130
  7
SLDTEXTSTYLE0
 73
     1
 44
1.0
  0
MTEXT
  5
46
330
1F
100
AcDbEntity
  8
VERMASSUNG
100
AcDbMText
 10
13.9329988022
 20
28.8834360957
 30
0.0
 40
3.0
 41
0.0
 71
     1
 72
     1
  1
Schrumpffutter_Heat shrink chuck
  7
SLDTEXTSTYLE0
 73
     1
 44
1.0
  0
MTEXT
  5
47
330
1F
100
AcDbEntity
  8
VERMASSUNG
100
AcDbMText
 10
98.8601118557
 20
13.8365368179
 30
0.0
 40
2.0
 41
0.0
 71
     1
 72
     1
  1
Datum: 02.05.2011
  7
SLDTEXTSTYLE0
 73
     1
 44
1.0
  0
MTEXT
  5
49
330
1F
100
AcDbEntity
  8
VERMASSUNG
100
AcDbMText
 10
13.933048693
 20
18.0482802738
 30
0.0
 40
2.0
 41
0.0
 71
     1
 72
     1
  1
DIN 69 893 HSK A 100
  7
SLDTEXTSTYLE1
 73
     1
 44
1.0
  0
MTEXT
  5
4A
330
1F
100
AcDbEntity
  8
VERMASSUNG
100
AcDbMText
 10
13.9808475933
 20
13.9090973692
 30
0.0
 40
2.0
 41
0.0
 71
     1
 72
     1
  1
Gewicht: 2572g
  7
SLDTEXTSTYLE0
 73
     1
 44
1.0
  0
LINE
  5
4B
330
1F
100
AcDbEntity
  8
0
  6
Continuous
 62
     7
370
    15
100
AcDbLine
 10
108.0920124639
 20
65.3270855905
 30
0.0
 11
112.5420124639
 21
65.3270855905
 31
0.0
  0
LINE
  5
4C
330
1F
100
AcDbEntity
  8
0
  6
Continuous
 62
     7
370
    15
100
AcDbLine
 10
112.5760852963
 20
165.3270855905
 30
0.0
 11
108.0920124639
 21
165.3270855905
 31
0.0
  0
ARC
  5
4D
330
1F
100
AcDbEntity
  8
0
  6
Continuous
 62
     7
370
    15
100
AcDbCircle
 10
108.0920124639
 20
65.8270855905
 30
0.0
 40
0.5
100
AcDbArc
 50
180.0
 51
270.0
  0
ARC
  5
4E
330
1F
100
AcDbEntity
  8
0
  6
Continuous
 62
     7
370
    15
100
AcDbCircle
 10
108.0920124639
 20
164.8270855905
 30
0.0
 40
0.5
100
AcDbArc
 50
90.0
 51
180.0
  0
ARC
  5
4F
330
1F
100
AcDbEntity
  8
0
  6
Continuous
 62
     7
370
    15
100
AcDbCircle
 10
106.6950755454
 20
76.698600266
 30
0.0
 40
0.9962338214386932
100
AcDbArc
 50
25.7988228126
 51
90.0
  0
ARC
  5
50
330
1F
100
AcDbEntity
  8
0
  6
Continuous
 62
     7
370
    15
100
AcDbCircle
 10
106.6950755454
 20
153.9555709149
 30
0.0
 40
0.9962338214386921
100
AcDbArc
 50
270.0
 51
334.2011771874
  0
LINE
  5
51
330
1F
100
AcDbEntity
  8
0
  6
Continuous
 62
     7
370
    15
100
AcDbLine
 10
105.0920124639
 20
77.4448340875
 30
0.0
 11
105.8978586183
 21
77.6607599137
 31
0.0
  0
LINE
  5
52
330
1F
100
AcDbEntity
  8
0
  6
Continuous
 62
     7
370
    15
100
AcDbLine
 10
105.8978586183
 20
152.9934112672
 30
0.0
 11
105.0920124639
 21
153.2093370935
 31
0.0
  0
LINE
  5
53
330
1F
100
AcDbEntity
  8
0
  6
Continuous
 62
     7
370
    15
100
AcDbLine
 10
86.1113335452
 20
152.2584012759
 30
0.0
 11
67.7920124639
 21
151.3405996185
 31
0.0
  0
LINE
  5
54
330
1F
100
AcDbEntity
  8
0
  6
Continuous
 62
     7
370
    15
100
AcDbLine
 10
105.0920124639
 20
153.2093370935
 30
0.0
 11
99.0239733094
 21
152.9053271158
 31
0.0
  0
LINE
  5
55
330
1F
100
AcDbEntity
  8
0
  6
Continuous
 62
     7
370
    15
100
AcDbLine
 10
99.0240965859
 20
77.748837889
 30
0.0
 11
105.0920124639
 21
77.4448340875
 31
0.0
  0
LINE
  5
56
330
1F
100
AcDbEntity
  8
0
  6
Continuous
 62
     7
370
    15
100
AcDbLine
 10
72.7920124639
 20
79.0630705604
 30
0.0
 11
86.1119636178
 21
78.3957383383
 31
0.0
  0
ARC
  5
57
330
1F
100
AcDbEntity
  8
0
  6
Continuous
 62
     7
370
    15
100
AcDbCircle
 10
106.1566776634
 20
76.6948340875
 30
0.0
 40
1.0
100
AcDbArc
 50
90.0
 51
105.0
  0
ARC
  5
58
330
1F
100
AcDbEntity
  8
0
  6
Continuous
 62
     7
370
    15
100
AcDbCircle
 10
106.1566776634
 20
153.9593370935
 30
0.0
 40
0.9999999999999716
100
AcDbArc
 50
255.0
 51
270.0
  0
LINE
  5
59
330
1F
100
AcDbEntity
  8
0
  6
Continuous
 62
     7
370
    15
100
AcDbLine
 10
106.1566776634
 20
77.6948340875
 30
0.0
 11
106.6950755454
 21
77.6948340875
 31
0.0
  0
LINE
  5
5A
330
1F
100
AcDbEntity
  8
0
  6
Continuous
 62
     7
370
    15
100
AcDbLine
 10
106.6950755454
 20
152.9593370935
 30
0.0
 11
106.1566776634
 21
152.9593370935
 31
0.0
  0
ARC
  5
5B
330
1F
100
AcDbEntity
  8
0
  6
Continuous
 62
     7
370
    15
100
AcDbCircle
 10
141.5420124639
 20
91.8270855905
 30
0.0
 40
5.0
100
AcDbArc
 50
90.0
 51
180.0
  0
ARC
  5
5C
330
1F
100
AcDbEntity
  8
0
  6
Continuous
 62
     7
370
    15
100
AcDbCircle
 10
141.5420124639
 20
138.8270855905
 30
0.0
 40
5.0
100
AcDbArc
 50
180.0
 51
270.0
  0
LINE
  5
5D
330
1F
100
AcDbEntity
  8
0
  6
Continuous
 62
     7
370
    15
100
AcDbLine
 10
153.0407330541
 20
96.8270855905
 30
0.0
 11
158.5420124639
 21
96.8270855905
 31
0.0
  0
LINE
  5
5E
330
1F
100
AcDbEntity
  8
0
  6
Continuous
 62
     7
370
    15
100
AcDbLine
 10
141.5420124639
 20
96.8270855905
 30
0.0
 11
146.0524687036
 21
96.8270855905
 31
0.0
  0
LINE
  5
5F
330
1F
100
AcDbEntity
  8
0
  6
Continuous
 62
     7
370
    15
100
AcDbLine
 10
146.0485861497
 20
133.8270855905
 30
0.0
 11
141.5420124639
 21
133.8270855905
 31
0.0
  0
LINE
  5
60
330
1F
100
AcDbEntity
  8
0
  6
Continuous
 62
     7
370
    15
100
AcDbLine
 10
158.5420124639
 20
133.8270855905
 30
0.0
 11
153.0353270012
 21
133.8270855905
 31
0.0
  0
ARC
  5
61
330
1F
100
AcDbEntity
  8
0
  6
Continuous
 62
     7
370
    15
100
AcDbCircle
 10
192.7143697136
 20
-291.6729144095
 30
0.0
 40
390.0
100
AcDbArc
 50
90.0
 51
95.026784317
  0
ARC
  5
62
330
1F
100
AcDbEntity
  8
0
  6
Continuous
 62
     7
370
    15
100
AcDbCircle
 10
192.7143697136
 20
522.3270855905
 30
0.0
 40
390.0
100
AcDbArc
 50
264.973215683
 51
270.0
  0
LINE
  5
63
330
1F
100
AcDbEntity
  8
0
  6
Continuous
 62
     7
370
    15
100
AcDbLine
 10
59.3420124639
 20
83.0770855905
 30
0.0
 11
70.8920124639
 21
83.0770855905
 31
0.0
  0
LINE
  5
64
330
1F
100
AcDbEntity
  8
0
  6
Continuous
 62
     7
370
    15
100
AcDbLine
 10
192.7143697136
 20
98.3270855905
 30
0.0
 11
193.1202958873
 21
98.3270855905
 31
0.0
  0
LINE
  5
65
330
1F
100
AcDbEntity
  8
0
  6
Continuous
 62
     7
370
    15
100
AcDbLine
 10
193.1202958873
 20
132.3270855905
 30
0.0
 11
192.7143697136
 21
132.3270855905
 31
0.0
  0
LINE
  5
66
330
1F
100
AcDbEntity
  8
0
  6
Continuous
 62
     7
370
    15
100
AcDbLine
 10
193.1202958873
 20
98.3270855905
 30
0.0
 11
235.7489306553
 21
101.6820319063
 31
0.0
  0
LINE
  5
67
330
1F
100
AcDbEntity
  8
0
  6
Continuous
 62
     7
370
    15
100
AcDbLine
 10
235.7489306553
 20
128.9721392746
 30
0.0
 11
193.1202958873
 21
132.3270855905
 31
0.0
  0
ARC
  5
68
330
1F
100
AcDbEntity
  8
0
  6
Continuous
 62
     7
370
    15
100
AcDbCircle
 10
70.8920124639
 20
81.1770855905
 30
0.0
 40
1.899999999999999
100
AcDbArc
 50
35.5995333592
 51
90.0
  0
ARC
  5
69
330
1F
100
AcDbEntity
  8
0
  6
Continuous
 62
     7
370
    15
100
AcDbCircle
 10
65.8920124639
 20
149.4770855905
 30
0.0
 40
1.900000000000006
100
AcDbArc
 50
270.0
 51
312.7708047792
  0
LINE
  5
6A
330
1F
100
AcDbEntity
  8
0
  6
Continuous
 62
     7
370
    15
100
AcDbLine
 10
59.3420124639
 20
147.5770855905
 30
0.0
 11
57.7487961019
 21
145.9838692285
 31
0.0
  0
LINE
  5
6B
330
1F
100
AcDbEntity
  8
0
  6
Continuous
 62
     7
370
    15
100
AcDbLine
 10
57.749579359
 20
84.6695186954
 30
0.0
 11
59.3420124639
 21
83.0770855905
 31
0.0
  0
LINE
  5
6C
330
1F
100
AcDbEntity
  8
0
  6
Continuous
 62
     7
370
    15
100
AcDbLine
 10
65.8920124639
 20
147.5770855905
 30
0.0
 11
59.3420124639
 21
147.5770855905
 31
0.0
  0
ARC
  5
6D
330
1F
100
AcDbEntity
  8
0
  6
Continuous
 62
     7
370
    15
100
AcDbCircle
 10
235.5920124639
 20
103.6758665738
 30
0.0
 40
2.000000000000004
100
AcDbArc
 50
274.5
 51
334.6108581548
  0
ARC
  5
6E
330
1F
100
AcDbEntity
  8
0
  6
Continuous
 62
     7
370
    15
100
AcDbCircle
 10
235.5920124639
 20
126.9783046071
 30
0.0
 40
2.000000000000004
100
AcDbArc
 50
25.3891418452
 51
85.5
  0
LINE
  5
6F
330
1F
100
AcDbEntity
  8
0
  6
Continuous
 62
     7
370
    15
100
AcDbLine
 10
237.3988455926
 20
102.8183387055
 30
0.0
 11
237.5185251539
 21
102.8230409283
 31
0.0
  0
LINE
  5
70
330
1F
100
AcDbEntity
  8
0
  6
Continuous
 62
     7
370
    15
100
AcDbLine
 10
237.5185251539
 20
102.8230409283
 30
0.0
 11
237.669334671
 21
103.1096826725
 31
0.0
  0
LINE
  5
71
330
1F
100
AcDbEntity
  8
0
  6
Continuous
 62
     7
370
    15
100
AcDbLine
 10
237.4596354303
 20
127.8334440362
 30
0.0
 11
237.3988455926
 21
127.8358324754
 31
0.0
  0
LINE
  5
72
330
1F
100
AcDbEntity
  8
0
  6
Continuous
 62
     7
370
    15
100
AcDbLine
 10
237.6104449474
 20
127.5468022919
 30
0.0
 11
237.4596354303
 21
127.8334440362
 31
0.0
  0
SPLINE
  5
73
330
1F
100
AcDbEntity
  8
0
  6
Continuous
 62
     7
370
    15
100
AcDbSpline
210
0.0
220
0.0
230
1.0
 70
     8
 71
     3
 72
    80
 73
    76
 74
     0
 42
0.00000001
 43
0.00000001
 40
-0.0312500000000001
 40
-0.0312500000000001
 40
0.0
 40
0.0
 40
0.0312499999999995
 40
0.0312499999999995
 40
0.0468749999999993
 40
0.0468749999999993
 40
0.0624999999999991
 40
0.0624999999999991
 40
0.0937499999999988
 40
0.0937499999999988
 40
0.1249999999999986
 40
0.1249999999999986
 40
0.1562499999999983
 40
0.1562499999999983
 40
0.1874999999999981
 40
0.1874999999999981
 40
0.2187499999999978
 40
0.2187499999999978
 40
0.2499999999999976
 40
0.2499999999999976
 40
0.2812499999999973
 40
0.2812499999999973
 40
0.3124999999999971
 40
0.3124999999999971
 40
0.3281249999999971
 40
0.3281249999999971
 40
0.3437499999999971
 40
0.3437499999999971
 40
0.3749999999999973
 40
0.3749999999999973
 40
0.4062499999999975
 40
0.4062499999999975
 40
0.4218749999999975
 40
0.4218749999999975
 40
0.4374999999999974
 40
0.4374999999999974
 40
0.4687499999999973
 40
0.4687499999999973
 40
0.4999999999999972
 40
0.4999999999999972
 40
0.531249999999997
 40
0.531249999999997
 40
0.562499999999997
 40
0.562499999999997
 40
0.5937499999999969
 40
0.5937499999999969
 40
0.6249999999999969
 40
0.6249999999999969
 40
0.6562499999999968
 40
0.6562499999999968
 40
0.6874999999999968
 40
0.6874999999999968
 40
0.7031249999999968
 40
0.7031249999999968
 40
0.7187499999999969
 40
0.7187499999999969
 40
0.7499999999999973
 40
0.7499999999999973
 40
0.7812499999999979
 40
0.7812499999999979
 40
0.7968749999999982
 40
0.7968749999999982
 40
0.8124999999999984
 40
0.8124999999999984
 40
0.8437499999999988
 40
0.8437499999999988
 40
0.874999999999999
 40
0.874999999999999
 40
0.9062499999999993
 40
0.9062499999999993
 40
0.9374999999999996
 40
0.9374999999999996
 40
0.9687499999999999
 40
0.9687499999999999
 40
1.0
 40
1.0
 40
1.03125
 40
1.03125
 10
116.2614671510972
 20
158.7417150540973
 30
0.0
 10
116.9225577766499
 20
158.7417150540973
 30
0.0
 10
117.2475379059015
 20
158.7579232854794
 30
0.0
 10
117.7270113171479
 20
158.805287917499
 30
0.0
 10
117.8854931349887
 20
158.8249421293896
 30
0.0
 10
118.199712667493
 20
158.8720532855823
 30
0.0
 10
118.3558329511734
 20
158.899634605077
 30
0.0
 10
118.80988698013
 20
158.9921703918708
 30
0.0
 10
119.0969903630698
 20
159.0672408254673
 30
0.0
 10
119.6403449190968
 20
159.2424791340779
 30
0.0
 10
119.8974485303024
 20
159.3434804319162
 30
0.0
 10
120.3583547852412
 20
159.560836630377
 30
0.0
 10
120.5652524944562
 20
159.6780009621492
 30
0.0
 10
120.9307778084484
 20
159.9280708863779
 30
0.0
 10
121.0859833305743
 20
160.0590169751369
 30
0.0
 10
121.335413717174
 20
160.3247519188492
 30
0.0
 10
121.4315036729592
 20
160.4615055121602
 30
0.0
 10
121.5600225221527
 20
160.7355710869992
 30
0.0
 10
121.5918333923305
 20
160.870511177468
 30
0.0
 10
121.5921900421038
 20
161.1359828145367
 30
0.0
 10
121.5596927899067
 20
161.267807291678
 30
0.0
 10
121.4320673161922
 20
161.5172568912984
 30
0.0
 10
121.3376389151404
 20
161.6356895832264
 30
0.0
 10
121.1497780951548
 20
161.8045587803205
 30
0.0
 10
121.0789500963516
 20
161.8596447754407
 30
0.0
 10
120.9242282043863
 20
161.9648976039291
 30
0.0
 10
120.840251734203
 20
162.0152328326894
 30
0.0
 10
120.5689280645585
 20
162.1598086652275
 30
0.0
 10
120.3623788459562
 20
162.2476702516445
 30
0.0
 10
119.8957687057672
 20
162.407391344644
 30
0.0
 10
119.6434031361417
 20
162.4766296411112
 30
0.0
 10
119.237501794463
 20
162.566417030341
 30
0.0
 10
119.0976011769855
 20
162.5939829924273
 30
0.0
 10
118.8083772417386
 20
162.6444737933536
 30
0.0
 10
118.6585377854493
 20
162.6674372322043
 30
0.0
 10
118.2044212158385
 20
162.7280677486231
 30
0.0
 10
117.8927699971017
 20
162.7581417774189
 30
0.0
 10
117.2517735321893
 20
162.7987313646776
 30
0.0
 10
116.9202459042371
 20
162.8090435948936
 30
0.0
 10
116.2674548591656
 20
162.8091191620594
 30
0.0
 10
115.9429186541338
 20
162.7992175565916
 30
0.0
 10
115.2976492047174
 20
162.7587310260664
 30
0.0
 10
114.9819061985547
 20
162.7282697261817
 30
0.0
 10
114.380016903571
 20
162.6481190547451
 30
0.0
 10
114.0892676727595
 20
162.5978368229379
 30
0.0
 10
113.542355881075
 20
162.477166640165
 30
0.0
 10
113.2905785172381
 20
162.407942780995
 30
0.0
 10
112.829190524617
 20
162.2504910533543
 30
0.0
 10
112.6179212450189
 20
162.1611425786805
 30
0.0
 10
112.2546168926427
 20
161.9678947079797
 30
0.0
 10
112.1008102441999
 20
161.8637667161005
 30
0.0
 10
111.9121907746025
 20
161.695142329917
 30
0.0
 10
111.8561602883934
 20
161.636513928242
 30
0.0
 10
111.7605865266572
 20
161.5170590134158
 30
0.0
 10
111.7208236096322
 20
161.4561392245776
 30
0.0
 10
111.6250518593201
 20
161.2697344984037
 30
0.0
 10
111.5923290201939
 20
161.1406216806087
 30
0.0
 10
111.5917004338649
 20
160.8719647576528
 30
0.0
 10
111.6238865785997
 20
160.736594016896
 30
0.0
 10
111.7187972804552
 20
160.5330437086601
 30
0.0
 10
111.7582640638542
 20
160.4650717845966
 30
0.0
 10
111.8531940625751
 20
160.3289795614658
 30
0.0
 10
111.9089508903384
 20
160.2606294612563
 30
0.0
 10
112.0968910083083
 20
160.0599264482142
 30
0.0
 10
112.2502524780245
 20
159.9305381744015
 30
0.0
 10
112.6125167129048
 20
159.6818727423516
 30
0.0
 10
112.8233651863708
 20
159.5620630999835
 30
0.0
 10
113.2840351566897
 20
159.3445408124108
 30
0.0
 10
113.5354095362735
 20
159.2454557125749
 30
0.0
 10
114.0813174231716
 20
159.068783238658
 30
0.0
 10
114.3721399978229
 20
158.992726150524
 30
0.0
 10
114.9734666126029
 20
158.869881173171
 30
0.0
 10
115.2879851972153
 20
158.8221750481179
 30
0.0
 10
115.9345666533352
 20
158.7579265129983
 30
0.0
 10
116.2614671510972
 20
158.7417150540973
 30
0.0
 10
116.9225577766499
 20
158.7417150540973
 30
0.0
  0
LINE
  5
74
330
1F
100
AcDbEntity
  8
0
  6
Continuous
 62
     7
370
    15
100
AcDbLine
 10
112.5420124639
 20
146.6770855905
 30
0.0
 11
124.329983443
 21
146.6770855905
 31
0.0
  0
LINE
  5
75
330
1F
100
AcDbEntity
  8
0
  6
Continuous
 62
     7
370
    15
100
AcDbLine
 10
124.329983443
 20
66.5520919974
 30
0.0
 11
124.329983443
 21
146.6770855905
 31
0.0
  0
LINE
  5
76
330
1F
100
AcDbEntity
  8
0
  6
Continuous
 62
     7
370
    15
100
AcDbLine
 10
124.329983443
 20
66.5520919974
 30
0.0
 11
122.5420124639
 21
66.5520919974
 31
0.0
  0
SPLINE
  5
77
330
1F
100
AcDbEntity
  8
0
  6
Continuous
 62
     7
370
    15
100
AcDbSpline
210
0.0
220
0.0
230
1.0
 70
     8
 71
     3
 72
    30
 73
    26
 74
     0
 42
0.00000001
 43
0.00000001
 40
0.0
 40
0.0
 40
0.0
 40
0.0
 40
0.1250000000000002
 40
0.1250000000000002
 40
0.1875000000000003
 40
0.1875000000000003
 40
0.2500000000000004
 40
0.2500000000000004
 40
0.3750000000000001
 40
0.3750000000000001
 40
0.4374999999999998
 40
0.4374999999999998
 40
0.4999999999999996
 40
0.4999999999999996
 40
0.6249999999999996
 40
0.6249999999999996
 40
0.6874999999999997
 40
0.6874999999999997
 40
0.7499999999999997
 40
0.7499999999999997
 40
0.8124999999999998
 40
0.8124999999999998
 40
0.8749999999999999
 40
0.8749999999999999
 40
1.0
 40
1.0
 40
1.0
 40
1.0
 10
122.5420124638735
 20
66.5520919974372
 30
0.0
 10
121.8792677700285
 20
66.5520919974372
 30
0.0
 10
121.2280119109128
 20
66.53725192084839
 30
0.0
 10
120.2675613726545
 20
66.49488235661877
 30
0.0
 10
119.9501699294215
 20
66.4774042538396
 30
0.0
 10
119.3210064278667
 20
66.4360759672873
 30
0.0
 10
119.008858241425
 20
66.41215069382957
 30
0.0
 10
118.1015509395767
 20
66.33334417736266
 30
0.0
 10
117.5281259819355
 20
66.27103815738622
 30
0.0
 10
116.7142491123608
 20
66.16790883714685
 30
0.0
 10
116.4494429157909
 20
66.13172491810035
 30
0.0
 10
115.9425355049766
 20
66.05793013389983
 30
0.0
 10
115.7011413536231
 20
66.02045627512818
 30
0.0
 10
115.0119998814908
 20
65.90774433178845
 30
0.0
 10
114.5989450666265
 20
65.83220823431468
 30
0.0
 10
114.0507902472515
 20
65.72381497729718
 30
0.0
 10
113.8813276399059
 20
65.68874274563392
 30
0.0
 10
113.5733103918905
 20
65.62250728503408
 30
0.0
 10
113.4339303712821
 20
65.59118058827934
 30
0.0
 10
113.1841448586554
 20
65.53277181669841
 30
0.0
 10
113.0737387460015
 20
65.50568858151557
 30
0.0
 10
112.8824808923638
 20
65.45642882690197
 30
0.0
 10
112.8013613740795
 20
65.43416684709433
 30
0.0
 10
112.6072144539711
 20
65.37659993992607
 30
0.0
 10
112.5420124638735
 20
65.35034033514006
 30
0.0
 10
112.5420124638735
 20
65.33708659066603
 30
0.0
  0
LINE
  5
78
330
1F
100
AcDbEntity
  8
0
  6
Continuous
 62
     7
370
    15
100
AcDbLine
 10
112.5420124639
 20
65.3370865907
 30
0.0
 11
112.5420124639
 21
65.3270855905
 31
0.0
  0
SPLINE
  5
79
330
1F
100
AcDbEntity
  8
0
  6
Continuous
 62
     7
370
    15
100
AcDbSpline
210
0.0
220
0.0
230
1.0
 70
     8
 71
     3
 72
    17
 73
    13
 74
     0
 42
0.00000001
 43
0.00000001
 40
0.0
 40
0.0
 40
0.0
 40
0.0
 40
0.104384384054747
 40
0.2118345768143993
 40
0.316208200519045
 40
0.4235375806108392
 40
0.5292276236193852
 40
0.6379275864803491
 40
0.7444714844189683
 40
0.8541836219421859
 40
0.9593080534965217
 40
1.0
 40
1.0
 40
1.0
 40
1.0
 10
122.5420124638735
 20
164.3168804461295
 30
0.0
 10
121.9940740160142
 20
164.3222486498783
 30
0.0
 10
120.8821039615494
 20
164.3331427235433
 30
0.0
 10
119.2692480483345
 20
164.4183200978022
 30
0.0
 10
117.7357348313576
 20
164.5446948040948
 30
0.0
 10
116.3447139820209
 20
164.7015976246716
 30
0.0
 10
115.1091974647906
 20
164.8732964541921
 30
0.0
 10
114.0858416976353
 20
165.0386327302932
 30
0.0
 10
113.2854996993702
 20
165.1823462098798
 30
0.0
 10
112.7751675974566
 20
165.2805010170589
 30
0.0
 10
112.5352591686321
 20
165.3284294139288
 30
0.0
 10
112.5671779480519
 20
165.3220620146892
 30
0.0
 10
112.5760852963341
 20
165.320285109566
 30
0.0
  0
LINE
  5
7A
330
1F
100
AcDbEntity
  8
0
  6
Continuous
 62
     7
370
    15
100
AcDbLine
 10
124.329983443
 20
164.3168804461
 30
0.0
 11
122.5420124639
 21
164.3168804461
 31
0.0
  0
LINE
  5
7B
330
1F
100
AcDbEntity
  8
0
  6
Continuous
 62
     7
370
    15
100
AcDbLine
 10
124.329983443
 20
154.2780483514
 30
0.0
 11
124.329983443
 21
164.3168804461
 31
0.0
  0
LINE
  5
7C
330
1F
100
AcDbEntity
  8
0
  6
Continuous
 62
     7
370
    15
100
AcDbLine
 10
122.2499793121
 20
154.2780483514
 30
0.0
 11
124.329983443
 21
154.2780483514
 31
0.0
  0
SPLINE
  5
7D
330
1F
100
AcDbEntity
  8
0
  6
Continuous
 62
     7
370
    15
100
AcDbSpline
210
0.0
220
0.0
230
1.0
 70
     8
 71
     3
 72
    22
 73
    18
 74
     0
 42
0.00000001
 43
0.00000001
 40
0.0
 40
0.0
 40
0.0
 40
0.0
 40
0.2500000000000002
 40
0.2500000000000002
 40
0.3750000000000003
 40
0.3750000000000003
 40
0.5000000000000004
 40
0.5000000000000004
 40
0.6250000000000004
 40
0.6250000000000004
 40
0.7500000000000004
 40
0.7500000000000004
 40
0.8750000000000004
 40
0.8750000000000004
 40
0.9375000000000002
 40
0.9375000000000002
 40
1.0
 40
1.0
 40
1.0
 40
1.0
 10
112.5420124638735
 20
146.677085590466
 30
0.0
 10
112.7447374197926
 20
147.6963319323306
 30
0.0
 10
113.059481141588
 20
148.6554400822699
 30
0.0
 10
113.767536611259
 20
149.9979191597792
 30
0.0
 10
114.0459992414766
 20
150.4321277425192
 30
0.0
 10
114.6847666481138
 20
151.2437554580213
 30
0.0
 10
115.045180327904
 20
151.6230357509581
 30
0.0
 10
115.8627125598933
 20
152.3259943299792
 30
0.0
 10
116.3238805431804
 20
152.6510231476798
 30
0.0
 10
117.3218707896642
 20
153.2160384710706
 30
0.0
 10
117.8616299836565
 20
153.4597420652772
 30
0.0
 10
119.0362229476878
 20
153.8639419929221
 30
0.0
 10
119.6479591336797
 20
154.0163791859676
 30
0.0
 10
120.5998683585414
 20
154.1717067335763
 30
0.0
 10
120.9231015228021
 20
154.2112115136264
 30
0.0
 10
121.5821646940773
 20
154.2645206342951
 30
0.0
 10
121.9162287046513
 20
154.2780483513529
 30
0.0
 10
122.2499793120528
 20
154.2780483513529
 30
0.0
  0
LINE
  5
7E
330
1F
100
AcDbEntity
  8
0
  6
Continuous
 62
     7
370
    15
100
AcDbLine
 10
135.5420124639
 20
66.5520919974
 30
0.0
 11
130.8540414848
 21
66.5520919974
 31
0.0
  0
LINE
  5
7F
330
1F
100
AcDbEntity
  8
0
  6
Continuous
 62
     7
370
    15
100
AcDbLine
 10
130.8540414848
 20
66.5520919974
 30
0.0
 11
130.8540414848
 21
146.6770855905
 31
0.0
  0
LINE
  5
80
330
1F
100
AcDbEntity
  8
0
  6
Continuous
 62
     7
370
    15
100
AcDbLine
 10
130.8540414848
 20
146.6770855905
 30
0.0
 11
135.5420124639
 21
146.6770855905
 31
0.0
  0
SPLINE
  5
81
330
1F
100
AcDbEntity
  8
0
  6
Continuous
 62
     7
370
    15
100
AcDbSpline
210
0.0
220
0.0
230
1.0
 70
     8
 71
     3
 72
     8
 73
     4
 74
     0
 42
0.00000001
 43
0.00000001
 40
0.0
 40
0.0
 40
0.0
 40
0.0
 40
1.0
 40
1.0
 40
1.0
 40
1.0
 10
130.8540414847949
 20
66.5520919974372
 30
0.0
 10
130.4029367553947
 20
67.3530519292571
 30
0.0
 10
129.9522389281513
 20
68.15424194081776
 30
0.0
 10
129.5020124638735
 20
68.95569730344253
 30
0.0
  0
LINE
  5
82
330
1F
100
AcDbEntity
  8
0
  6
Continuous
 62
     7
370
    15
100
AcDbLine
 10
129.5020124639
 20
68.9556973034
 30
0.0
 11
129.5020124639
 21
146.6770855905
 31
0.0
  0
SPLINE
  5
83
330
1F
100
AcDbEntity
  8
0
  6
Continuous
 62
     7
370
    15
100
AcDbSpline
210
0.0
220
0.0
230
1.0
 70
    24
 71
     3
 72
     8
 73
     4
 74
     0
 42
0.00000001
 43
0.00000001
 40
0.0
 40
0.0
 40
0.0
 40
0.0
 40
1.0
 40
1.0
 40
1.0
 40
1.0
 10
129.5020124638735
 20
146.677085590466
 30
0.0
 10
129.9462253462275
 20
146.677085590466
 30
0.0
 10
130.3972399124667
 20
146.677085590466
 30
0.0
 10
130.8540414847949
 20
146.677085590466
 30
0.0
  0
LINE
  5
84
330
1F
100
AcDbEntity
  8
0
  6
Continuous
 62
     7
370
    15
100
AcDbLine
 10
107.5920124639
 20
65.8270855905
 30
0.0
 11
107.5920124639
 21
164.827085586
 31
0.0
  0
LINE
  5
85
330
1F
100
AcDbEntity
  8
0
  6
Continuous
 62
     7
370
    15
100
AcDbLine
 10
136.5420124639
 20
67.5777400452
 30
0.0
 11
136.5420124639
 21
146.6770855905
 31
0.0
  0
SPLINE
  5
86
330
1F
100
AcDbEntity
  8
0
  6
Continuous
 62
     7
370
    15
100
AcDbSpline
210
0.0
220
0.0
230
1.0
 70
     8
 71
     3
 72
    14
 73
    10
 74
     0
 42
0.00000001
 43
0.00000001
 40
0.0
 40
0.0
 40
0.0
 40
0.0
 40
0.25
 40
0.25
 40
0.5
 40
0.5
 40
0.75
 40
0.75
 40
1.0
 40
1.0
 40
1.0
 40
1.0
 10
136.5420124638735
 20
67.57774004521269
 30
0.0
 10
136.5420124638735
 20
67.44431434915815
 30
0.0
 10
136.5167013639627
 20
67.31246654131381
 30
0.0
 10
136.4183666001179
 20
67.0659439926197
 30
0.0
 10
136.3452225958619
 20
66.95213880437917
 30
0.0
 10
136.1617845347662
 20
66.76168162743188
 30
0.0
 10
136.0500982004276
 20
66.68404676358197
 30
0.0
 10
135.8075947701213
 20
66.5797553534695
 30
0.0
 10
135.6742203414271
 20
66.55209199743715
 30
0.0
 10
135.5420124638735
 20
66.55209199743716
 30
0.0
  0
SPLINE
  5
87
330
1F
100
AcDbEntity
  8
0
  6
Continuous
 62
     7
370
    15
100
AcDbSpline
210
0.0
220
0.0
230
1.0
 70
    24
 71
     3
 72
    12
 73
     8
 74
     0
 42
0.00000001
 43
0.00000001
 40
0.0
 40
0.0
 40
0.0
 40
0.0
 40
0.2500000000000032
 40
0.2500000000000032
 40
0.5000000000000064
 40
0.5000000000000064
 40
1.0
 40
1.0
 40
1.0
 40
1.0
 10
135.5420124638735
 20
146.677085590466
 30
0.0
 10
135.6941027008185
 20
146.677085590466
 30
0.0
 10
135.8425619618939
 20
146.677085590466
 30
0.0
 10
136.0999655941596
 20
146.677085590466
 30
0.0
 10
136.2090703420016
 20
146.677085590466
 30
0.0
 10
136.4631298184091
 20
146.677085590466
 30
0.0
 10
136.5420124638735
 20
146.677085590466
 30
0.0
 10
136.5420124638735
 20
146.677085590466
 30
0.0
  0
LINE
  5
88
330
1F
100
AcDbEntity
  8
0
  6
Continuous
 62
     7
370
    15
100
AcDbLine
 10
125.6820124639
 20
68.9556973034
 30
0.0
 11
125.6820124639
 21
146.6770855905
 31
0.0
  0
SPLINE
  5
89
330
1F
100
AcDbEntity
  8
0
  6
Continuous
 62
     7
370
    15
100
AcDbSpline
210
0.0
220
0.0
230
1.0
 70
     8
 71
     3
 72
     8
 73
     4
 74
     0
 42
0.00000001
 43
0.00000001
 40
0.0
 40
0.0
 40
0.0
 40
0.0
 40
1.0
 40
1.0
 40
1.0
 40
1.0
 10
125.6820124638736
 20
68.95569730344253
 30
0.0
 10
125.2317859995958
 20
68.15424194081776
 30
0.0
 10
124.7810881723524
 20
67.3530519292571
 30
0.0
 10
124.3299834429521
 20
66.5520919974372
 30
0.0
  0
SPLINE
  5
8A
330
1F
100
AcDbEntity
  8
0
  6
Continuous
 62
     7
370
    15
100
AcDbSpline
210
0.0
220
0.0
230
1.0
 70
    24
 71
     3
 72
     8
 73
     4
 74
     0
 42
0.00000001
 43
0.00000001
 40
0.0
 40
0.0
 40
0.0
 40
0.0
 40
1.0
 40
1.0
 40
1.0
 40
1.0
 10
124.3299834429521
 20
146.677085590466
 30
0.0
 10
124.7867850152804
 20
146.677085590466
 30
0.0
 10
125.2377995815196
 20
146.677085590466
 30
0.0
 10
125.6820124638735
 20
146.677085590466
 30
0.0
  0
SPLINE
  5
8B
330
1F
100
AcDbEntity
  8
0
  6
Continuous
 62
     7
370
    15
100
AcDbSpline
210
0.0
220
0.0
230
1.0
 70
     8
 71
     3
 72
    12
 73
     8
 74
     0
 42
0.00000001
 43
0.00000001
 40
0.0
 40
0.0
 40
0.0
 40
0.0
 40
0.25
 40
0.25
 40
0.5
 40
0.5
 40
1.0
 40
1.0
 40
1.0
 40
1.0
 10
126.4820124638735
 20
70.68741013241636
 30
0.0
 10
126.3762518105246
 20
70.68741013241633
 30
0.0
 10
126.2682641823417
 20
70.66487062641593
 30
0.0
 10
126.0736695170761
 20
70.58029999442064
 30
0.0
 10
125.9847976042372
 20
70.51781834166185
 30
0.0
 10
125.7656053119113
 20
70.28842939018969
 30
0.0
 10
125.6820124638735
 20
70.0758460526673
 30
0.0
 10
125.6820124638735
 20
69.8639068080711
 30
0.0
  0
SPLINE
  5
8C
330
1F
100
AcDbEntity
  8
0
  6
Continuous
 62
     7
370
    15
100
AcDbSpline
210
0.0
220
0.0
230
1.0
 70
    24
 71
     3
 72
    14
 73
    10
 74
     0
 42
0.00000001
 43
0.00000001
 40
0.0
 40
0.0
 40
0.0
 40
0.0
 40
0.25
 40
0.25
 40
0.5
 40
0.5
 40
0.75
 40
0.75
 40
1.0
 40
1.0
 40
1.0
 40
1.0
 10
125.6820124638735
 20
146.677085590466
 30
0.0
 10
125.6820124638735
 20
146.677085590466
 30
0.0
 10
125.6977267843395
 20
146.677085590466
 30
0.0
 10
125.7614107628079
 20
146.677085590466
 30
0.0
 10
125.8100139572183
 20
146.677085590466
 30
0.0
 10
125.9426974796439
 20
146.677085590466
 30
0.0
 10
126.0277995839545
 20
146.677085590466
 30
0.0
 10
126.2342418188646
 20
146.677085590466
 30
0.0
 10
126.3583227604876
 20
146.677085590466
 30
0.0
 10
126.4820124638735
 20
146.677085590466
 30
0.0
  0
SPLINE
  5
8D
330
1F
100
AcDbEntity
  8
0
  6
Continuous
 62
     7
370
    15
100
AcDbSpline
210
0.0
220
0.0
230
1.0
 70
     8
 71
     3
 72
    14
 73
    10
 74
     0
 42
0.00000001
 43
0.00000001
 40
0.0
 40
0.0
 40
0.0
 40
0.0
 40
0.25
 40
0.25
 40
0.5
 40
0.5
 40
0.75
 40
0.75
 40
1.0
 40
1.0
 40
1.0
 40
1.0
 10
129.5020124638735
 20
69.8639068080711
 30
0.0
 10
129.5020124638735
 20
69.97095088906549
 30
0.0
 10
129.4818947767154
 20
70.07618602930793
 30
0.0
 10
129.4034035874497
 20
70.27403651615563
 30
0.0
 10
129.3452469626485
 20
70.36508827972054
 30
0.0
 10
129.1987317070305
 20
70.51825437364532
 30
0.0
 10
129.1100891583894
 20
70.58054881985473
 30
0.0
 10
128.9143658355891
 20
70.66534260539073
 30
0.0
 10
128.8091346445181
 20
70.68741013241635
 30
0.0
 10
128.7020124638735
 20
70.68741013241636
 30
0.0
  0
SPLINE
  5
8E
330
1F
100
AcDbEntity
  8
0
  6
Continuous
 62
     7
370
    15
100
AcDbSpline
210
0.0
220
0.0
230
1.0
 70
    24
 71
     3
 72
    14
 73
    10
 74
     0
 42
0.00000001
 43
0.00000001
 40
0.0
 40
0.0
 40
0.0
 40
0.0
 40
0.25
 40
0.25
 40
0.5
 40
0.5
 40
0.75
 40
0.75
 40
1.0
 40
1.0
 40
1.0
 40
1.0
 10
128.7020124638735
 20
146.677085590466
 30
0.0
 10
128.8257822286387
 20
146.677085590466
 30
0.0
 10
128.9501493326456
 20
146.677085590466
 30
0.0
 10
129.1565058013716
 20
146.677085590466
 30
0.0
 10
129.24183394479
 20
146.677085590466
 30
0.0
 10
129.3740260035052
 20
146.677085590466
 30
0.0
 10
129.4226712472558
 20
146.677085590466
 30
0.0
 10
129.4862070389845
 20
146.677085590466
 30
0.0
 10
129.5020124638735
 20
146.677085590466
 30
0.0
 10
129.5020124638735
 20
146.677085590466
 30
0.0
  0
LINE
  5
8F
330
1F
100
AcDbEntity
  8
0
  6
Continuous
 62
     7
370
    15
100
AcDbLine
 10
128.7020124639
 20
70.6874101324
 30
0.0
 11
126.4820124639
 21
70.6874101324
 31
0.0
  0
LINE
  5
90
330
1F
100
AcDbEntity
  8
0
  6
Continuous
 62
     7
370
    15
100
AcDbLine
 10
126.4820124639
 20
146.6770855905
 30
0.0
 11
128.7020124639
 21
146.6770855905
 31
0.0
  0
LINE
  5
91
330
1F
100
AcDbEntity
  8
0
  6
Continuous
 62
     7
370
    15
100
AcDbLine
 10
105.0920124639
 20
77.4448340875
 30
0.0
 11
105.0920124639
 21
153.2093370935
 31
0.0
  0
LINE
  5
92
330
1F
100
AcDbEntity
  8
0
  6
Continuous
 62
     7
370
    15
100
AcDbLine
 10
72.7920124639
 20
79.0630705604
 30
0.0
 11
72.7920124639
 21
81.4577523251
 31
0.0
  0
SPLINE
  5
93
330
1F
100
AcDbEntity
  8
0
  6
Continuous
 62
     7
370
    15
100
AcDbSpline
210
0.0
220
0.0
230
1.0
 70
     8
 71
     3
 72
    14
 73
    10
 74
     0
 42
0.00000001
 43
0.00000001
 40
0.0
 40
0.0
 40
0.0
 40
0.0
 40
0.25
 40
0.25
 40
0.5
 40
0.5
 40
0.75
 40
0.75
 40
1.0
 40
1.0
 40
1.0
 40
1.0
 10
71.78758999253657
 20
83.16060424672247
 30
0.0
 10
71.8763585704819
 20
83.00207011541453
 30
0.0
 10
71.99807640916082
 20
82.84962743852596
 30
0.0
 10
72.23312601901765
 20
82.55249281469703
 30
0.0
 10
72.34875620523454
 20
82.40781017107967
 30
0.0
 10
72.54916113866236
 20
82.12452096857626
 30
0.0
 10
72.63456143064667
 20
81.98596697553943
 30
0.0
 10
72.75626706436391
 20
81.71458294550588
 30
0.0
 10
72.79201246387655
 20
81.58244707687126
 30
0.0
 10
72.79201246387653
 20
81.4577523251005
 30
0.0
  0
SPLINE
  5
94
330
1F
100
AcDbEntity
  8
0
  6
Continuous
 62
     7
370
    15
100
AcDbSpline
210
0.0
220
0.0
230
1.0
 70
     8
 71
     3
 72
    14
 73
    10
 74
     0
 42
0.00000001
 43
0.00000001
 40
0.0
 40
0.0
 40
0.0
 40
0.0
 40
0.124999999999999
 40
0.124999999999999
 40
0.2499999999999981
 40
0.2499999999999981
 40
0.4999999999999952
 40
0.4999999999999952
 40
1.0
 40
1.0
 40
1.0
 40
1.0
 10
70.89201246387354
 20
83.78943418582257
 30
0.0
 10
70.95959476365803
 20
83.79659007092397
 30
0.0
 10
71.03208234140592
 20
83.79216560088496
 30
0.0
 10
71.16437345067186
 20
83.76245944311462
 30
0.0
 10
71.22165083006205
 20
83.7391751615364
 30
0.0
 10
71.37130125726232
 20
83.66168992168605
 30
0.0
 10
71.44501455278385
 20
83.59983809478469
 30
0.0
 10
71.63282253611006
 20
83.41516064213634
 30
0.0
 10
71.7168628424715
 20
83.28691771884515
 30
0.0
 10
71.78758999253779
 20
83.16060424672258
 30
0.0
  0
SPLINE
  5
95
330
1F
100
AcDbEntity
  8
0
  6
Continuous
 62
     7
370
    15
100
AcDbSpline
210
0.0
220
0.0
230
1.0
 70
     8
 71
     3
 72
     8
 73
     4
 74
     0
 42
0.00000001
 43
0.00000001
 40
0.0
 40
0.0
 40
0.0
 40
0.0
 40
1.0
 40
1.0
 40
1.0
 40
1.0
 10
67.34737207579263
 20
83.37138560103077
 30
0.0
 10
68.51267038650154
 20
83.5265730729174
 30
0.0
 10
69.69728560054142
 20
83.66293171122771
 30
0.0
 10
70.89201246387354
 20
83.78943418582257
 30
0.0
  0
SPLINE
  5
96
330
1F
100
AcDbEntity
  8
0
  6
Continuous
 62
     7
370
    15
100
AcDbSpline
210
0.0
220
0.0
230
1.0
 70
     8
 71
     3
 72
    14
 73
    10
 74
     0
 42
0.00000001
 43
0.00000001
 40
0.0
 40
0.0
 40
0.0
 40
0.0
 40
0.5000000000000002
 40
0.5000000000000002
 40
0.7500000000000003
 40
0.7500000000000003
 40
0.8750000000000001
 40
0.8750000000000001
 40
1.0
 40
1.0
 40
1.0
 40
1.0
 10
59.59193757984484
 20
83.08125342190087
 30
0.0
 10
60.90023914237856
 20
83.08826814564199
 30
0.0
 10
62.20529851703535
 20
83.10367672208649
 30
0.0
 10
64.15117456852363
 20
83.15757327755313
 30
0.0
 10
64.79787207226262
 20
83.18060484215583
 30
0.0
 10
65.76171443611695
 20
83.2315473670266
 30
0.0
 10
66.08195312805104
 20
83.25128228925979
 30
0.0
 10
66.71864835439342
 20
83.30076941773135
 30
0.0
 10
67.03536376267634
 20
83.32983419666058
 30
0.0
 10
67.34737207579266
 20
83.37138560103074
 30
0.0
  0
SPLINE
  5
97
330
1F
100
AcDbEntity
  8
0
  6
Continuous
 62
     7
370
    15
100
AcDbSpline
210
0.0
220
0.0
230
1.0
 70
     8
 71
     3
 72
    12
 73
     8
 74
     0
 42
0.00000001
 43
0.00000001
 40
0.0
 40
0.0
 40
0.0
 40
0.0
 40
0.2499999999999992
 40
0.2499999999999992
 40
0.4999999999999984
 40
0.4999999999999984
 40
1.0
 40
1.0
 40
1.0
 40
1.0
 10
65.89201246387354
 20
147.4136084819624
 30
0.0
 10
65.37331364204532
 20
147.4461312568107
 30
0.0
 10
64.85160206884034
 20
147.4694279979811
 30
0.0
 10
63.80531005234477
 20
147.5072735124033
 30
0.0
 10
63.2806384266745
 20
147.5215419868994
 30
0.0
 10
61.70379240413527
 20
147.5557514743577
 30
0.0
 10
60.64883708958838
 20
147.5672509783016
 30
0.0
 10
59.59193757984314
 20
147.5729177590311
 30
0.0
  0
SPLINE
  5
98
330
1F
100
AcDbEntity
  8
0
  6
Continuous
 62
     7
370
    15
100
AcDbSpline
210
0.0
220
0.0
230
1.0
 70
     8
 71
     3
 72
    20
 73
    16
 74
     0
 42
0.00000001
 43
0.00000001
 40
0.0
 40
0.0
 40
0.0
 40
0.0
 40
0.2499999999999999
 40
0.2499999999999999
 40
0.4999999999999998
 40
0.4999999999999998
 40
0.7499999999999997
 40
0.7499999999999997
 40
0.8749999999999996
 40
0.8749999999999996
 40
0.9375000000000002
 40
0.9375000000000002
 40
0.9687500000000001
 40
0.9687500000000001
 40
1.0
 40
1.0
 40
1.0
 40
1.0
 10
67.79201246387353
 20
149.0716943274506
 30
0.0
 10
67.79201246387353
 20
148.9360120077038
 30
0.0
 10
67.74330067465691
 20
148.7949250215637
 30
0.0
 10
67.57413925143175
 20
148.5028533028332
 30
0.0
 10
67.45235883751342
 20
148.3512045607428
 30
0.0
 10
67.15481174276391
 20
148.0487961205896
 30
0.0
 10
66.98089913706113
 20
147.8962074844663
 30
0.0
 10
66.66148430317931
 20
147.6709367206241
 30
0.0
 10
66.54644352773207
 20
147.5962136261133
 30
0.0
 10
66.33935920371565
 20
147.4968032168563
 30
0.0
 10
66.26325136890925
 20
147.4652381245117
 30
0.0
 10
66.13185682935588
 20
147.4307947403188
 30
0.0
 10
66.08530361035443
 20
147.4217431685512
 30
0.0
 10
65.98897025927373
 20
147.4115675197127
 30
0.0
 10
65.93971083591826
 20
147.4106177610377
 30
0.0
 10
65.89201246387155
 20
147.4136084819522
 30
0.0
  0
LINE
  5
99
330
1F
100
AcDbEntity
  8
0
  6
Continuous
 62
     7
370
    15
100
AcDbLine
 10
67.7920124639
 20
149.0716943275
 30
0.0
 11
67.7920124639
 21
151.3405996185
 31
0.0
  0
SPLINE
  5
9A
330
1F
100
AcDbEntity
  8
0
  6
Continuous
 62
     7
370
    15
100
AcDbSpline
210
0.0
220
0.0
230
1.0
 70
     8
 71
     3
 72
    24
 73
    20
 74
     0
 42
0.00000001
 43
0.00000001
 40
0.0
 40
0.0
 40
0.0
 40
0.0
 40
0.0002934293894791
 40
0.0628080051759335
 40
0.1260453927228735
 40
0.1890746766613218
 40
0.251320054086014
 40
0.3133304633785417
 40
0.3759158453762868
 40
0.4383740564598514
 40
0.5000631094857222
 40
0.5616593988027264
 40
0.6245050380643616
 40
0.6872231506498157
 40
0.7494953263230503
 40
0.8117583797537838
 40
0.8747365508229915
 40
0.9378980306236063
 40
1.0
 40
1.0
 40
1.0
 40
1.0
 10
86.11196872771296
 20
78.39584033215363
 30
0.0
 10
86.11177387482819
 20
78.39581602475964
 30
0.0
 10
86.07006598381689
 20
78.3906130731061
 30
0.0
 10
86.21518437534574
 20
78.40924769643576
 30
0.0
 10
86.57026331688827
 20
78.45176747498495
 30
0.0
 10
87.17483895443253
 20
78.51990375858642
 30
0.0
 10
87.98127426324658
 20
78.5931592956025
 30
0.0
 10
88.96675168716492
 20
78.65767863642006
 30
0.0
 10
90.0984212838431
 20
78.69624286448135
 30
0.0
 10
91.32071375400582
 20
78.69993737048279
 30
0.0
 10
92.58804243544897
 20
78.65751139043445
 30
0.0
 10
93.85452796587433
 20
78.56926424965216
 30
0.0
 10
95.07066532968872
 20
78.44087097938815
 30
0.0
 10
96.19607582554426
 20
78.28822999079551
 30
0.0
 10
97.17349288709413
 20
78.12645537568989
 30
0.0
 10
97.97675836564396
 20
77.97392648258817
 30
0.0
 10
98.56525188864465
 20
77.84991273932074
 30
0.0
 10
98.95415800029498
 20
77.76498881304467
 30
0.0
 10
99.00091913103351
 20
77.75426250176587
 30
0.0
 10
99.0241019375761
 20
77.74894470907427
 30
0.0
  0
SPLINE
  5
9B
330
1F
100
AcDbEntity
  8
0
  6
Continuous
 62
     7
370
    15
100
AcDbSpline
210
0.0
220
0.0
230
1.0
 70
     8
 71
     3
 72
    41
 73
    37
 74
     0
 42
0.00000001
 43
0.00000001
 40
0.0
 40
0.0
 40
0.0
 40
0.0
 40
0.0619930061484378
 40
0.1254347783466322
 40
0.1886508898237652
 40
0.2510246408607262
 40
0.313165818897716
 40
0.3756581641417481
 40
0.438222714672822
 40
0.4998044922940693
 40
0.5615164197177447
 40
0.6240683094121975
 40
0.6867257232408516
 40
0.7488365305144536
 40
0.8110685944253998
 40
0.8741742884451369
 40
0.9373212787645215
 40
0.9685511709617414
 40
0.9842086872487195
 40
0.9920641182531791
 40
0.996000486125535
 40
0.9979710794120144
 40
0.9989570090489597
 40
0.9994501359395066
 40
0.9996967403802177
 40
0.9998200529090742
 40
0.9998817117580818
 40
0.999912541829664
 40
0.9999279570273361
 40
0.9999356646666603
 40
0.9999395184964466
 40
0.9999414454138695
 40
0.9999424088732151
 40
0.9999433723329807
 40
0.9999501697010514
 40
1.0
 40
1.0
 40
1.0
 40
1.0
 10
99.02398060709812
 20
152.9051814539062
 30
0.0
 10
99.00040896175533
 20
152.8998719742564
 30
0.0
 10
98.95271480571198
 20
152.8891289333168
 30
0.0
 10
98.56067281628268
 20
152.8038997968611
 30
0.0
 10
97.97015876701087
 20
152.6793310182204
 30
0.0
 10
97.16612132096719
 20
152.5263840720685
 30
0.0
 10
96.19004592078707
 20
152.364627518115
 30
0.0
 10
95.06823718550602
 20
152.2123947501829
 30
0.0
 10
93.85470626571893
 20
152.0846148089817
 30
0.0
 10
92.58987555932073
 20
151.996766257299
 30
0.0
 10
91.3218325218783
 20
151.9543807734284
 30
0.0
 10
90.09832516417765
 20
151.9581165814
 30
0.0
 10
88.96482662376245
 20
151.996712051848
 30
0.0
 10
87.97872081278854
 20
152.0611514231393
 30
0.0
 10
87.17009300400085
 20
152.1346612304204
 30
0.0
 10
86.57347430889169
 20
152.2019749152322
 30
0.0
 10
86.25808301943358
 20
152.2399394665002
 30
0.0
 10
86.14801645063568
 20
152.253738525832
 30
0.0
 10
86.12059706282146
 20
152.2572245997526
 30
0.0
 10
86.11367501199194
 20
152.2581038254461
 30
0.0
 10
86.11190677180853
 20
152.2583246000523
 30
0.0
 10
86.11144639263519
 20
152.2583798027631
 30
0.0
 10
86.11132223395036
 20
152.2583935425502
 30
0.0
 10
86.11128667945722
 20
152.2583969383811
 30
0.0
 10
86.1112755353871
 20
152.2583977667015
 30
0.0
 10
86.11127162219101
 20
152.2583979632902
 30
0.0
 10
86.11127007998616
 20
152.2583980072203
 30
0.0
 10
86.11126941298467
 20
152.2583980155271
 30
0.0
 10
86.11126910480694
 20
152.2583980163573
 30
0.0
 10
86.11126895804085
 20
152.2583980158121
 30
0.0
 10
86.1112688850884
 20
152.2583980154823
 30
0.0
 10
86.11126885069604
 20
152.258398015045
 30
0.0
 10
86.11126882845087
 20
152.2583980151335
 30
0.0
 10
86.11126880134144
 20
152.2583980122985
 30
0.0
 10
86.11126628178005
 20
152.2583982991536
 30
0.0
 10
86.11130237169812
 20
152.258393679053
 30
0.0
 10
86.11133412952076
 20
152.2583896135315
 30
0.0
  0
SPLINE
  5
9C
330
1F
100
AcDbEntity
  8
0
  6
Continuous
 62
     7
370
    15
100
AcDbSpline
210
0.0
220
0.0
230
1.0
 70
     8
 71
     3
 72
    20
 73
    16
 74
     0
 42
0.00000001
 43
0.00000001
 40
0.0
 40
0.0
 40
0.0
 40
0.0
 40
0.249999999999986
 40
0.249999999999986
 40
0.3749999999999789
 40
0.3749999999999789
 40
0.4374999999999789
 40
0.4374999999999789
 40
0.4999999999999789
 40
0.4999999999999789
 40
0.6249999999999835
 40
0.6249999999999835
 40
0.7499999999999879
 40
0.7499999999999879
 40
1.0
 40
1.0
 40
1.0
 40
1.0
 10
57.98282669558954
 20
84.64860243776529
 30
0.0
 10
58.00909891280295
 20
84.66792037884775
 30
0.0
 10
58.03977905505779
 20
84.68230908994953
 30
0.0
 10
58.11124992543972
 20
84.67540472811352
 30
0.0
 10
58.13927696248405
 20
84.6682387247651
 30
0.0
 10
58.19436055198156
 20
84.6385396980615
 30
0.0
 10
58.21525188053399
 20
84.62506605550017
 30
0.0
 10
58.26046052797945
 20
84.58986778998415
 30
0.0
 10
58.28486474037501
 20
84.5679595612569
 30
0.0
 10
58.35619705842646
 20
84.49583470126134
 30
0.0
 10
58.39809384324673
 20
84.4434941603113
 30
0.0
 10
58.46966980210261
 20
84.34601076841055
 30
0.0
 10
58.5004977919199
 20
84.29925699853213
 30
0.0
 10
58.58359772475548
 20
84.16596378269301
 30
0.0
 10
58.62845263012579
 20
84.0833263847778
 30
0.0
 10
58.66856470557835
 20
84.00421948998702
 30
0.0
  0
SPLINE
  5
9D
330
1F
100
AcDbEntity
  8
0
  6
Continuous
 62
     7
370
    15
100
AcDbSpline
210
0.0
220
0.0
230
1.0
 70
     8
 71
     3
 72
    14
 73
    10
 74
     0
 42
0.00000001
 43
0.00000001
 40
0.0
 40
0.0
 40
0.0
 40
0.0
 40
0.25
 40
0.25
 40
0.5
 40
0.5
 40
0.75
 40
0.75
 40
1.0
 40
1.0
 40
1.0
 40
1.0
 10
57.69201246387354
 20
84.82441584789807
 30
0.0
 10
57.69201246387355
 20
84.78316891687372
 30
0.0
 10
57.70062218025479
 20
84.74626194459124
 30
0.0
 10
57.73170835982513
 20
84.68536188469183
 30
0.0
 10
57.7540979133092
 20
84.66118096515214
 30
0.0
 10
57.80884184448531
 20
84.62721337426889
 30
0.0
 10
57.8412920840705
 20
84.6172932903007
 30
0.0
 10
57.91129359879857
 20
84.61594208139584
 30
0.0
 10
57.9495040989211
 20
84.62410035809201
 30
0.0
 10
57.98282669559419
 20
84.64860243776009
 30
0.0
  0
LINE
  5
9E
330
1F
100
AcDbEntity
  8
0
  6
Continuous
 62
     7
370
    15
100
AcDbLine
 10
57.6920124639
 20
84.8244158479
 30
0.0
 11
57.6920124639
 21
145.829755333
 31
0.0
  0
SPLINE
  5
9F
330
1F
100
AcDbEntity
  8
0
  6
Continuous
 62
     7
370
    15
100
AcDbSpline
210
0.0
220
0.0
230
1.0
 70
     8
 71
     3
 72
    10
 73
     6
 74
     0
 42
0.00000001
 43
0.00000001
 40
0.0
 40
0.0
 40
0.0
 40
0.0
 40
0.0592402688376383
 40
0.6438088530391344
 40
1.0
 40
1.0
 40
1.0
 40
1.0
 10
57.98282669559418
 20
146.0055687431719
 30
0.0
 10
57.97799443797298
 20
146.0088176498035
 30
0.0
 10
57.92547863583825
 20
146.0441259779592
 30
0.0
 10
57.82652843815947
 20
146.0503802745178
 30
0.0
 10
57.77709991326812
 20
145.9951800368289
 30
0.0
 10
57.75838524852382
 20
145.9742800819056
 30
0.0
  0
SPLINE
  5
A0
330
1F
100
AcDbEntity
  8
0
  6
Continuous
 62
     7
370
    15
100
AcDbSpline
210
0.0
220
0.0
230
1.0
 70
     8
 71
     3
 72
     8
 73
     4
 74
     0
 42
0.00000001
 43
0.00000001
 40
0.0
 40
0.0
 40
0.0
 40
0.0
 40
1.0
 40
1.0
 40
1.0
 40
1.0
 10
57.71564613280974
 20
145.9373348341036
 30
0.0
 10
57.70029709417371
 20
145.9068247791076
 30
0.0
 10
57.69201246387354
 20
145.8705132235953
 30
0.0
 10
57.69201246387354
 20
145.8297553330339
 30
0.0
  0
SPLINE
  5
A1
330
1F
100
AcDbEntity
  8
0
  6
Continuous
 62
     7
370
    15
100
AcDbSpline
210
0.0
220
0.0
230
1.0
 70
     8
 71
     3
 72
    20
 73
    16
 74
     0
 42
0.00000001
 43
0.00000001
 40
0.0
 40
0.0
 40
0.0
 40
0.0
 40
0.2500000000000037
 40
0.2500000000000037
 40
0.3750000000000055
 40
0.3750000000000055
 40
0.5000000000000073
 40
0.5000000000000073
 40
0.5625000000000057
 40
0.5625000000000057
 40
0.625000000000004
 40
0.625000000000004
 40
0.7500000000000027
 40
0.7500000000000027
 40
1.0
 40
1.0
 40
1.0
 40
1.0
 10
58.66856470557597
 20
146.6499516909442
 30
0.0
 10
58.62856848775213
 20
146.5710732843867
 30
0.0
 10
58.58345485991448
 20
146.4879436376952
 30
0.0
 10
58.50020064554795
 20
146.3544549733443
 30
0.0
 10
58.46998131692744
 20
146.3085899174623
 30
0.0
 10
58.39789308178603
 20
146.2103983650574
 30
0.0
 10
58.35597576437493
 20
146.1580885455338
 30
0.0
 10
58.28472515982347
 20
146.0860826427993
 30
0.0
 10
58.26048934744416
 20
146.0643124304977
 30
0.0
 10
58.2148911572595
 20
146.0288377721687
 30
0.0
 10
58.19408866765979
 20
146.0154675879912
 30
0.0
 10
58.13914766924066
 20
145.9858976758559
 30
0.0
 10
58.11107868115386
 20
145.978771153554
 30
0.0
 10
58.04057585109103
 20
145.9718967820713
 30
0.0
 10
58.00915176330015
 20
145.9862119411585
 30
0.0
 10
57.98282669559156
 20
146.005568743169
 30
0.0
  0
SPLINE
  5
A2
330
1F
100
AcDbEntity
  8
0
  6
Continuous
 62
     7
370
    15
100
AcDbSpline
210
0.0
220
0.0
230
1.0
 70
     8
 71
     3
 72
    10
 73
     6
 74
     0
 42
0.00000001
 43
0.00000001
 40
0.0
 40
0.0
 40
0.0
 40
0.0
 40
0.4999999999999989
 40
0.4999999999999989
 40
1.0
 40
1.0
 40
1.0
 40
1.0
 10
59.34201246387355
 20
147.575370792286
 30
0.0
 10
59.21712419312335
 20
147.4443745142145
 30
0.0
 10
59.0956740750629
 20
147.3006616775495
 30
0.0
 10
58.86609010010546
 20
146.9900913848603
 30
0.0
 10
58.75581512470948
 20
146.8220223117972
 30
0.0
 10
58.66856470557597
 20
146.6499516909442
 30
0.0
  0
SPLINE
  5
A3
330
1F
100
AcDbEntity
  8
0
  6
Continuous
 62
     7
370
    15
100
AcDbSpline
210
0.0
220
0.0
230
1.0
 70
     8
 71
     3
 72
     8
 73
     4
 74
     0
 42
0.00000001
 43
0.00000001
 40
0.0
 40
0.0
 40
0.0
 40
0.0
 40
1.0
 40
1.0
 40
1.0
 40
1.0
 10
59.59193757983927
 20
147.5729177590306
 30
0.0
 10
59.50491954999092
 20
147.5733843238177
 30
0.0
 10
59.42196552361098
 20
147.5744243433938
 30
0.0
 10
59.34201246387124
 20
147.5753707922861
 30
0.0
  0
SPLINE
  5
A4
330
1F
100
AcDbEntity
  8
0
  6
Continuous
 62
     7
370
    15
100
AcDbSpline
210
0.0
220
0.0
230
1.0
 70
     8
 71
     3
 72
     8
 73
     4
 74
     0
 42
0.00000001
 43
0.00000001
 40
0.0
 40
0.0
 40
0.0
 40
0.0
 40
1.0
 40
1.0
 40
1.0
 40
1.0
 10
59.34201246387124
 20
83.07880038864592
 30
0.0
 10
59.42196552361151
 20
83.07974683753818
 30
0.0
 10
59.50491954999199
 20
83.08078685711432
 30
0.0
 10
59.59193757984097
 20
83.08125342190138
 30
0.0
  0
SPLINE
  5
A5
330
1F
100
AcDbEntity
  8
0
  6
Continuous
 62
     7
370
    15
100
AcDbSpline
210
0.0
220
0.0
230
1.0
 70
     8
 71
     3
 72
    10
 73
     6
 74
     0
 42
0.00000001
 43
0.00000001
 40
0.0
 40
0.0
 40
0.0
 40
0.0
 40
0.4999999999999989
 40
0.4999999999999989
 40
1.0
 40
1.0
 40
1.0
 40
1.0
 10
58.66856470557504
 20
84.0042194899896
 30
0.0
 10
58.75581512470851
 20
83.83214886913623
 30
0.0
 10
58.86609010010467
 20
83.6640797960728
 30
0.0
 10
59.0956740750625
 20
83.35350950338297
 30
0.0
 10
59.21712419312314
 20
83.2097966667177
 30
0.0
 10
59.34201246387355
 20
83.07880038864599
 30
0.0
  0
SPLINE
  5
A6
330
1F
100
AcDbEntity
  8
0
  6
Continuous
 62
     7
370
    15
100
AcDbSpline
210
0.0
220
0.0
230
1.0
 70
     8
 71
     3
 72
     8
 73
     4
 74
     0
 42
0.00000001
 43
0.00000001
 40
0.0
 40
0.0
 40
0.0
 40
0.0
 40
1.0
 40
1.0
 40
1.0
 40
1.0
 10
125.6820124638735
 20
161.9243564511709
 30
0.0
 10
125.231704228189
 20
162.7220715762845
 30
0.0
 10
124.7810104116654
 20
163.5195698759417
 30
0.0
 10
124.3299834429521
 20
164.3168804461295
 30
0.0
  0
LINE
  5
A7
330
1F
100
AcDbEntity
  8
0
  6
Continuous
 62
     7
370
    15
100
AcDbLine
 10
125.6820124639
 20
151.2225330966
 30
0.0
 11
125.6820124639
 21
161.9243564512
 31
0.0
  0
SPLINE
  5
A8
330
1F
100
AcDbEntity
  8
0
  6
Continuous
 62
     7
370
    15
100
AcDbSpline
210
0.0
220
0.0
230
1.0
 70
     8
 71
     3
 72
     8
 73
     4
 74
     0
 42
0.00000001
 43
0.00000001
 40
0.0
 40
0.0
 40
0.0
 40
0.0
 40
1.0
 40
1.0
 40
1.0
 40
1.0
 10
124.3299834429521
 20
154.2780483513529
 30
0.0
 10
124.7869097967517
 20
153.2621303816786
 30
0.0
 10
125.2381154385547
 20
152.2433345525875
 30
0.0
 10
125.6820124638735
 20
151.2225330966038
 30
0.0
  0
LINE
  5
A9
330
1F
100
AcDbEntity
  8
0
  6
Continuous
 62
     7
370
    15
100
AcDbLine
 10
135.5420124639
 20
164.3168804461
 30
0.0
 11
130.8540414848
 21
164.3168804461
 31
0.0
  0
LINE
  5
AA
330
1F
100
AcDbEntity
  8
0
  6
Continuous
 62
     7
370
    15
100
AcDbLine
 10
130.8540414848
 20
154.2780483514
 30
0.0
 11
135.5420124639
 21
154.2780483514
 31
0.0
  0
LINE
  5
AB
330
1F
100
AcDbEntity
  8
0
  6
Continuous
 62
     7
370
    15
100
AcDbLine
 10
130.8540414848
 20
154.2780483514
 30
0.0
 11
130.8540414848
 21
164.3168804461
 31
0.0
  0
SPLINE
  5
AC
330
1F
100
AcDbEntity
  8
0
  6
Continuous
 62
     7
370
    15
100
AcDbSpline
210
0.0
220
0.0
230
1.0
 70
     8
 71
     3
 72
    14
 73
    10
 74
     0
 42
0.00000001
 43
0.00000001
 40
0.0
 40
0.0
 40
0.0
 40
0.0
 40
0.25
 40
0.25
 40
0.5
 40
0.5
 40
0.75
 40
0.75
 40
1.0
 40
1.0
 40
1.0
 40
1.0
 10
129.5020124638735
 20
161.020636831314
 30
0.0
 10
129.5020124638735
 20
160.9142801375617
 30
0.0
 10
129.4816249077323
 20
160.8084396498015
 30
0.0
 10
129.4029905622708
 20
160.6118747362651
 30
0.0
 10
129.3442592026321
 20
160.5207039939779
 30
0.0
 10
129.1976502970296
 20
160.3687929049463
 30
0.0
 10
129.108244977003
 20
160.3067240681267
 30
0.0
 10
128.9143542444027
 20
160.223456020368
 30
0.0
 10
128.8078492545129
 20
160.2013613506384
 30
0.0
 10
128.7020124638736
 20
160.2013613506384
 30
0.0
  0
SPLINE
  5
AD
330
1F
100
AcDbEntity
  8
0
  6
Continuous
 62
     7
370
    15
100
AcDbSpline
210
0.0
220
0.0
230
1.0
 70
     8
 71
     3
 72
    12
 73
     8
 74
     0
 42
0.00000001
 43
0.00000001
 40
0.0
 40
0.0
 40
0.0
 40
0.0
 40
0.250000000000002
 40
0.250000000000002
 40
0.500000000000004
 40
0.500000000000004
 40
1.0
 40
1.0
 40
1.0
 40
1.0
 10
128.7020124638735
 20
148.9556170035385
 30
0.0
 10
128.8257134138535
 20
148.9556170035385
 30
0.0
 10
128.9498100261237
 20
148.997610615271
 30
0.0
 10
129.1564651892107
 20
149.1354059419154
 30
0.0
 10
129.2415059559376
 20
149.2293795403802
 30
0.0
 10
129.4409845244112
 20
149.5441677466012
 30
0.0
 10
129.5020124638735
 20
149.7944067388288
 30
0.0
 10
129.5020124638735
 20
150.041320782963
 30
0.0
  0
LINE
  5
AE
330
1F
100
AcDbEntity
  8
0
  6
Continuous
 62
     7
370
    15
100
AcDbLine
 10
125.6820124639
 20
151.2225330966
 30
0.0
 11
125.6820124639
 21
150.041320783
 31
0.0
  0
SPLINE
  5
AF
330
1F
100
AcDbEntity
  8
0
  6
Continuous
 62
     7
370
    15
100
AcDbSpline
210
0.0
220
0.0
230
1.0
 70
     8
 71
     3
 72
    14
 73
    10
 74
     0
 42
0.00000001
 43
0.00000001
 40
0.0
 40
0.0
 40
0.0
 40
0.0
 40
0.25
 40
0.25
 40
0.5
 40
0.5
 40
0.75
 40
0.75
 40
1.0
 40
1.0
 40
1.0
 40
1.0
 10
125.6820124638735
 20
150.041320782963
 30
0.0
 10
125.6820124638735
 20
149.9174539061738
 30
0.0
 10
125.6978715915011
 20
149.7931942293363
 30
0.0
 10
125.761233237021
 20
149.5555858669305
 30
0.0
 10
125.8098229450704
 20
149.438805482178
 30
0.0
 10
125.9421085498452
 20
149.230002953569
 30
0.0
 10
126.0274333411058
 20
149.1354922499764
 30
0.0
 10
126.234324589412
 20
148.9975354491741
 30
0.0
 10
126.358292535302
 20
148.9556170035384
 30
0.0
 10
126.4820124638735
 20
148.9556170035384
 30
0.0
  0
LINE
  5
B0
330
1F
100
AcDbEntity
  8
0
  6
Continuous
 62
     7
370
    15
100
AcDbLine
 10
126.4820124639
 20
148.9556170035
 30
0.0
 11
128.7020124639
 21
148.9556170035
 31
0.0
  0
LINE
  5
B1
330
1F
100
AcDbEntity
  8
0
  6
Continuous
 62
     7
370
    15
100
AcDbLine
 10
129.5020124639
 20
150.041320783
 30
0.0
 11
129.5020124639
 21
151.2225330966
 31
0.0
  0
SPLINE
  5
B2
330
1F
100
AcDbEntity
  8
0
  6
Continuous
 62
     7
370
    15
100
AcDbSpline
210
0.0
220
0.0
230
1.0
 70
     8
 71
     3
 72
     8
 73
     4
 74
     0
 42
0.00000001
 43
0.00000001
 40
0.0
 40
0.0
 40
0.0
 40
0.0
 40
1.0
 40
1.0
 40
1.0
 40
1.0
 10
129.5020124638735
 20
151.2225330966038
 30
0.0
 10
129.946162474899
 20
152.2439163275555
 30
0.0
 10
130.397236785157
 20
153.2624008643238
 30
0.0
 10
130.8540414847949
 20
154.2780483513529
 30
0.0
  0
SPLINE
  5
B3
330
1F
100
AcDbEntity
  8
0
  6
Continuous
 62
     7
370
    15
100
AcDbSpline
210
0.0
220
0.0
230
1.0
 70
     8
 71
     3
 72
    16
 73
    12
 74
     0
 42
0.00000001
 43
0.00000001
 40
0.0
 40
0.0
 40
0.0
 40
0.0
 40
0.1249999999999978
 40
0.1249999999999978
 40
0.2499999999999955
 40
0.2499999999999955
 40
0.499999999999997
 40
0.499999999999997
 40
0.7499999999999984
 40
0.7499999999999984
 40
1.0
 40
1.0
 40
1.0
 40
1.0
 10
135.5420124638735
 20
154.2780483513529
 30
0.0
 10
135.6176501702847
 20
154.2780483513529
 30
0.0
 10
135.6939658347029
 20
154.266703351218
 30
0.0
 10
135.8383765725949
 20
154.2240508005795
 30
0.0
 10
135.9068230217033
 20
154.1931164758966
 30
0.0
 10
136.1017542743164
 20
154.073860104129
 30
0.0
 10
136.2095954480974
 20
153.9637080905085
 30
0.0
 10
136.3783081963094
 20
153.7155720048504
 30
0.0
 10
136.4406726090329
 20
153.5752296808467
 30
0.0
 10
136.5219765335413
 20
153.2869579893581
 30
0.0
 10
136.5420124638735
 20
153.1361530163782
 30
0.0
 10
136.5420124638735
 20
152.985783125033
 30
0.0
  0
LINE
  5
B4
330
1F
100
AcDbEntity
  8
0
  6
Continuous
 62
     7
370
    15
100
AcDbLine
 10
136.5420124639
 20
152.985783125
 30
0.0
 11
136.5420124639
 21
146.6770855905
 31
0.0
  0
SPLINE
  5
B5
330
1F
100
AcDbEntity
  8
0
  6
Continuous
 62
     7
370
    15
100
AcDbSpline
210
0.0
220
0.0
230
1.0
 70
     8
 71
     3
 72
    12
 73
     8
 74
     0
 42
0.00000001
 43
0.00000001
 40
0.0
 40
0.0
 40
0.0
 40
0.0
 40
0.4999999999999953
 40
0.4999999999999953
 40
0.7499999999999977
 40
0.7499999999999977
 40
1.0
 40
1.0
 40
1.0
 40
1.0
 10
136.5420124638735
 20
163.2958254113118
 30
0.0
 10
136.5420124638735
 20
163.5610948440782
 30
0.0
 10
136.4374057203871
 20
163.8236099497306
 30
0.0
 10
136.1607373686417
 20
164.1091475557679
 30
0.0
 10
136.0503721092898
 20
164.1854691726293
 30
0.0
 10
135.806300060674
 20
164.2898113374694
 30
0.0
 10
135.6745475993423
 20
164.3168804461296
 30
0.0
 10
135.5420124638735
 20
164.3168804461296
 30
0.0
  0
LINE
  5
B6
330
1F
100
AcDbEntity
  8
0
  6
Continuous
 62
     7
370
    15
100
AcDbLine
 10
136.5420124639
 20
152.985783125
 30
0.0
 11
136.5420124639
 21
163.2958254113
 31
0.0
  0
SPLINE
  5
B7
330
1F
100
AcDbEntity
  8
0
  6
Continuous
 62
     7
370
    15
100
AcDbSpline
210
0.0
220
0.0
230
1.0
 70
     8
 71
     3
 72
     8
 73
     4
 74
     0
 42
0.00000001
 43
0.00000001
 40
0.0
 40
0.0
 40
0.0
 40
0.0
 40
1.0
 40
1.0
 40
1.0
 40
1.0
 10
130.8540414847949
 20
164.3168804461296
 30
0.0
 10
130.4030145160817
 20
163.5195698759417
 30
0.0
 10
129.9523206995581
 20
162.7220715762845
 30
0.0
 10
129.5020124638735
 20
161.9243564511709
 30
0.0
  0
LINE
  5
B8
330
1F
100
AcDbEntity
  8
0
  6
Continuous
 62
     7
370
    15
100
AcDbLine
 10
129.5020124639
 20
151.2225330966
 30
0.0
 11
129.5020124639
 21
161.9243564512
 31
0.0
  0
SPLINE
  5
B9
330
1F
100
AcDbEntity
  8
0
  6
Continuous
 62
     7
370
    15
100
AcDbSpline
210
0.0
220
0.0
230
1.0
 70
     8
 71
     3
 72
    10
 73
     6
 74
     0
 42
0.00000001
 43
0.00000001
 40
0.0
 40
0.0
 40
0.0
 40
0.0
 40
0.5
 40
0.5
 40
1.0
 40
1.0
 40
1.0
 40
1.0
 10
126.4820124638735
 20
160.2013613506384
 30
0.0
 10
126.2694761500172
 20
160.2013613506384
 30
0.0
 10
126.0595399783632
 20
160.2927739372686
 30
0.0
 10
125.7658328373519
 20
160.5975188031728
 30
0.0
 10
125.6820124638735
 20
160.8096737730814
 30
0.0
 10
125.6820124638735
 20
161.020636831314
 30
0.0
  0
LINE
  5
BA
330
1F
100
AcDbEntity
  8
0
  6
Continuous
 62
     7
370
    15
100
AcDbLine
 10
128.7020124639
 20
160.2013613506
 30
0.0
 11
126.4820124639
 21
160.2013613506
 31
0.0
  0
ARC
  5
BB
330
1F
100
AcDbEntity
  8
0
  6
Continuous
 62
     7
370
    15
100
AcDbCircle
 10
116.5933170745
 20
147.8673978724
 30
0.0
 40
11.47493780152799
100
AcDbArc
 50
78.0803572217
 51
102.2587186576
  0
LINE
  5
BC
330
1F
100
AcDbEntity
  8
0
  6
Continuous
 62
     7
370
    15
100
AcDbLine
 10
158.5420124639
 20
96.8270855905
 30
0.0
 11
158.5420124639
 21
133.8270855905
 31
0.0
  0
SPLINE
  5
BD
330
1F
100
AcDbEntity
  8
0
  6
Continuous
 62
     7
370
    15
100
AcDbSpline
210
0.0
220
0.0
230
1.0
 70
     8
 71
     3
 72
    36
 73
    32
 74
     0
 42
0.00000001
 43
0.00000001
 40
0.0
 40
0.0
 40
0.0
 40
0.0
 40
0.0357613722576527
 40
0.0587513450644423
 40
0.0798388081700857
 40
0.1226632230220695
 40
0.1444303390643936
 40
0.1669146488119486
 40
0.2125050862170838
 40
0.2356350186856509
 40
0.2609851458266377
 40
0.3123834852203732
 40
0.3384625442801772
 40
0.366965641632563
 40
0.4248179541335043
 40
0.4542164102240715
 40
0.4848436370423818
 40
0.5470974981364446
 40
0.5787958321522259
 40
0.6099841110857975
 40
0.641396223913505
 40
0.6735357952132693
 40
0.7059378823974439
 40
0.736012428356539
 40
0.7973900325835209
 40
0.828832425783895
 40
0.8556704492915483
 40
0.9105528265500118
 40
0.9387354336579358
 40
0.9616844615909628
 40
0.9999999999999999
 40
0.9999999999999999
 40
0.9999999999999999
 40
0.9999999999999999
 10
153.0353270011916
 20
133.8261355533328
 30
0.0
 10
153.0334141212157
 20
133.8258592728941
 30
0.0
 10
153.030271504911
 20
133.8254053795909
 30
0.0
 10
152.9768804989012
 20
133.8178660554762
 30
0.0
 10
152.898325864194
 20
133.8069402866466
 30
0.0
 10
152.7858938103977
 20
133.7916708886862
 30
0.0
 10
152.6413533563138
 20
133.7729349438012
 30
0.0
 10
152.4719144541384
 20
133.7517368122995
 30
0.0
 10
152.2704466861899
 20
133.7280470573004
 30
0.0
 10
152.0377616274181
 20
133.7030377153442
 30
0.0
 10
151.7736910744962
 20
133.6765992410365
 30
0.0
 10
151.476800637564
 20
133.6505326065759
 30
0.0
 10
151.1518980435886
 20
133.6267766926467
 30
0.0
 10
150.794876138647
 20
133.6044262865758
 30
0.0
 10
150.4103054281293
 20
133.5869963880237
 30
0.0
 10
150.0099667672452
 20
133.5764214707182
 30
0.0
 10
149.590618042217
 20
133.5707939414859
 30
0.0
 10
149.1604165139088
 20
133.5738336549651
 30
0.0
 10
148.7358365413779
 20
133.5855171292215
 30
0.0
 10
148.4214557609986
 20
133.598375156793
 30
0.0
 10
148.1135962375531
 20
133.6149678416035
 30
0.0
 10
147.8124172572907
 20
133.6350227904235
 30
0.0
 10
147.528639993007
 20
133.6574010928425
 30
0.0
 10
147.1776285419544
 20
133.688976866713
 30
0.0
 10
146.8629308485561
 20
133.7222621980101
 30
0.0
 10
146.6024149192353
 20
133.7529763627328
 30
0.0
 10
146.3865827675166
 20
133.7798956060618
 30
0.0
 10
146.2218886214266
 20
133.8019412602101
 30
0.0
 10
146.1180134960871
 20
133.8163385134657
 30
0.0
 10
146.0554868768359
 20
133.8251562675263
 30
0.0
 10
146.0512413494914
 20
133.8257688016478
 30
0.0
 10
146.048586149663
 20
133.8261518872724
 30
0.0
  0
SPLINE
  5
BE
330
1F
100
AcDbEntity
  8
0
  6
Continuous
 62
     7
370
    15
100
AcDbSpline
210
0.0
220
0.0
230
1.0
 70
     8
 71
     3
 72
    10
 73
     6
 74
     0
 42
0.00000001
 43
0.00000001
 40
0.0
 40
0.0
 40
0.0
 40
0.0
 40
0.0662302223957645
 40
0.5317874780763931
 40
1.0
 40
1.0
 40
1.0
 40
1.0
 10
146.8082511603909
 20
133.7291279365917
 30
0.0
 10
146.8159611664377
 20
133.7282374415367
 30
0.0
 10
146.8778677179075
 20
133.7210873203016
 30
0.0
 10
147.0068006449715
 20
133.7071370671207
 30
0.0
 10
147.1347982273658
 20
133.6943205843591
 30
0.0
 10
147.198979005423
 20
133.6878941205134
 30
0.0
  0
SPLINE
  5
BF
330
1F
100
AcDbEntity
  8
0
  6
Continuous
 62
     7
370
    15
100
AcDbSpline
210
0.0
220
0.0
230
1.0
 70
     8
 71
     3
 72
    70
 73
    66
 74
     0
 42
0.00000001
 43
0.00000001
 40
-0.03125
 40
-0.03125
 40
0.0
 40
0.0
 40
0.03125
 40
0.03125
 40
0.0625
 40
0.0625
 40
0.09375
 40
0.09375
 40
0.125
 40
0.125
 40
0.15625
 40
0.15625
 40
0.1875
 40
0.1875
 40
0.21875
 40
0.21875
 40
0.25
 40
0.25
 40
0.28125
 40
0.28125
 40
0.3125
 40
0.3125
 40
0.34375
 40
0.34375
 40
0.375
 40
0.375
 40
0.40625
 40
0.40625
 40
0.4375
 40
0.4375
 40
0.46875
 40
0.46875
 40
0.5
 40
0.5
 40
0.53125
 40
0.53125
 40
0.5625
 40
0.5625
 40
0.59375
 40
0.59375
 40
0.625
 40
0.625
 40
0.65625
 40
0.65625
 40
0.6875
 40
0.6875
 40
0.71875
 40
0.71875
 40
0.75
 40
0.75
 40
0.78125
 40
0.78125
 40
0.8125
 40
0.8125
 40
0.84375
 40
0.84375
 40
0.875
 40
0.875
 40
0.90625
 40
0.90625
 40
0.9375
 40
0.9375
 40
0.96875
 40
0.96875
 40
1.0
 40
1.0
 40
1.03125
 40
1.03125
 10
147.0294926420814
 20
117.4580993553235
 30
0.0
 10
147.3684653711741
 20
117.7262860017551
 30
0.0
 10
147.5478284055671
 20
117.842402056533
 30
0.0
 10
147.9244190636272
 20
118.0423446907121
 30
0.0
 10
148.1227921345958
 20
118.1264894777601
 30
0.0
 10
148.5327005065449
 20
118.2605747023824
 30
0.0
 10
148.7409657824761
 20
118.3096639105355
 30
0.0
 10
149.1638168392985
 20
118.3737025688918
 30
0.0
 10
149.3801548014934
 20
118.3885770630231
 30
0.0
 10
149.8107505885966
 20
118.3827467032607
 30
0.0
 10
150.0234713770527
 20
118.3623884425724
 30
0.0
 10
150.4438449959223
 20
118.2873136181524
 30
0.0
 10
150.6531870999595
 20
118.2319717464693
 30
0.0
 10
151.0581906186289
 20
118.087010256274
 30
0.0
 10
151.2520294650554
 20
117.998404691492
 30
0.0
 10
151.6221925557972
 20
117.7883952810051
 30
0.0
 10
151.7999953620046
 20
117.6657706753617
 30
0.0
 10
152.1289577003922
 20
117.3889994793319
 30
0.0
 10
152.2779209307375
 20
117.2371883482929
 30
0.0
 10
152.5434100703518
 20
116.9053165786437
 30
0.0
 10
152.6612401577938
 20
116.7225664542482
 30
0.0
 10
152.8518310286071
 20
116.3372902901521
 30
0.0
 10
152.9242997901858
 20
116.1369461747872
 30
0.0
 10
153.0212344037692
 20
115.7199978204895
 30
0.0
 10
153.0449599610809
 20
115.5013624357005
 30
0.0
 10
153.0384582334712
 20
115.0728241365835
 30
0.0
 10
153.0088922267786
 20
114.8582395311375
 30
0.0
 10
152.8985767808415
 20
114.4396538041553
 30
0.0
 10
152.819542624768
 20
114.240291851909
 30
0.0
 10
152.6174354187665
 20
113.859817017189
 30
0.0
 10
152.4945773528256
 20
113.6803232097254
 30
0.0
 10
152.2179020804842
 20
113.3531980683012
 30
0.0
 10
152.0613417509365
 20
113.2023098779816
 30
0.0
 10
151.7249982313476
 20
112.9345423069245
 30
0.0
 10
151.5457956721013
 20
112.8175064147656
 30
0.0
 10
151.1666201516758
 20
112.6149371975572
 30
0.0
 10
150.966367761749
 20
112.5297781600486
 30
0.0
 10
150.5593995696512
 20
112.3958344932378
 30
0.0
 10
150.3509843682013
 20
112.3460504155588
 30
0.0
 10
149.9242840314946
 20
112.2807524923267
 30
0.0
 10
149.7079123529932
 20
112.2658319750635
 30
0.0
 10
149.2798892025905
 20
112.2710495167323
 30
0.0
 10
149.0666442071606
 20
112.2909148558175
 30
0.0
 10
148.6417383241858
 20
112.3663633190712
 30
0.0
 10
148.4322894430915
 20
112.4218639238043
 30
0.0
 10
148.0301486208731
 20
112.5654352779973
 30
0.0
 10
147.8357840502044
 20
112.6537486758127
 30
0.0
 10
147.4613810575873
 20
112.8659015034063
 30
0.0
 10
147.2830971045323
 20
112.9892500998138
 30
0.0
 10
146.9572088733367
 20
113.2633050054309
 30
0.0
 10
146.8076890098372
 20
113.4149716177154
 30
0.0
 10
146.5386917972451
 20
113.7512884271177
 30
0.0
 10
146.4215040623668
 20
113.9340445801276
 30
0.0
 10
146.2326836234289
 20
114.3160406220428
 30
0.0
 10
146.1592012993162
 20
114.5180067134834
 30
0.0
 10
146.0614312447381
 20
114.9415200940178
 30
0.0
 10
146.038894813718
 20
115.1547880731949
 30
0.0
 10
146.045814136919
 20
115.5843093151046
 30
0.0
 10
146.0764078313277
 20
115.8022994096014
 30
0.0
 10
146.1867174145712
 20
116.2177683764344
 30
0.0
 10
146.2670963940856
 20
116.4199444431344
 30
0.0
 10
146.4708650099933
 20
116.8012195350673
 30
0.0
 10
146.5924621473281
 20
116.9781055449912
 30
0.0
 10
146.8717133198704
 20
117.3068679265045
 30
0.0
 10
147.0294926420814
 20
117.4580993553235
 30
0.0
 10
147.3684653711741
 20
117.7262860017551
 30
0.0
  0
SPLINE
  5
C0
330
1F
100
AcDbEntity
  8
0
  6
Continuous
 62
     7
370
    15
100
AcDbSpline
210
0.0
220
0.0
230
1.0
 70
     8
 71
     3
 72
    37
 73
    33
 74
     0
 42
0.00000001
 43
0.00000001
 40
0.0
 40
0.0
 40
0.0
 40
0.0
 40
0.0247245036645815
 40
0.0480518899208635
 40
0.0691161430317028
 40
0.1119071179046583
 40
0.1336660088391352
 40
0.1558752525102249
 40
0.2009126093896622
 40
0.2237645340798513
 40
0.2487139659497833
 40
0.2992967066616417
 40
0.324959302200794
 40
0.3531019205296197
 40
0.4102127799702248
 40
0.4392275574027583
 40
0.4696742445054798
 40
0.5315502554999177
 40
0.5630484658565243
 40
0.5942487587617667
 40
0.6256707381820334
 40
0.6578096998518151
 40
0.6902057391991512
 40
0.720529511667266
 40
0.7823931135550817
 40
0.8140676204320502
 40
0.8414015545304426
 40
0.8972950313940261
 40
0.9259977916749691
 40
0.9493583217592946
 40
0.9970427586930033
 40
0.9999999999999999
 40
0.9999999999999999
 40
0.9999999999999999
 40
0.9999999999999999
 10
146.0524687036136
 20
96.82857345531352
 30
0.0
 10
146.0503999225592
 20
96.82828009811763
 30
0.0
 10
146.0463792618883
 20
96.82770996057813
 30
0.0
 10
146.084616495017
 20
96.83313513290717
 30
0.0
 10
146.151001738677
 20
96.84243558100752
 30
0.0
 10
146.2526457443174
 20
96.85639617886052
 30
0.0
 10
146.3865630681103
 20
96.8740209171294
 30
0.0
 10
146.5447262270412
 20
96.89417351492716
 30
0.0
 10
146.73476109973
 20
96.91706154808108
 30
0.0
 10
146.9561120386994
 20
96.94160143331113
 30
0.0
 10
147.2081310239754
 20
96.96778129582323
 30
0.0
 10
147.4930449270841
 20
96.99404739760755
 30
0.0
 10
147.8067516013817
 20
97.01854610349675
 30
0.0
 10
148.1531569237568
 20
97.0420892769748
 30
0.0
 10
148.5283466049982
 20
97.06131971192526
 30
0.0
 10
148.9214185418708
 20
97.07420390698562
 30
0.0
 10
149.3358679210464
 20
97.08249369357445
 30
0.0
 10
149.7638203893285
 20
97.08238216473718
 30
0.0
 10
150.1890940558035
 20
97.07356383000213
 30
0.0
 10
150.5060106304111
 20
97.0627187022421
 30
0.0
 10
150.8182512813449
 20
97.04791116347471
 30
0.0
 10
151.125035219895
 20
97.02938827122973
 30
0.0
 10
151.4163604658721
 20
97.00813007991056
 30
0.0
 10
151.7800516889031
 20
96.97740471897058
 30
0.0
 10
152.110190514546
 20
96.94406191091899
 30
0.0
 10
152.3884790673516
 20
96.91234297876227
 30
0.0
 10
152.6235303735572
 20
96.88380758687242
 30
0.0
 10
152.8075196815255
 20
96.8596358709752
 30
0.0
 10
152.9320834762461
 20
96.84255760342906
 30
0.0
 10
153.0126288515126
 20
96.8312932817208
 30
0.0
 10
153.0480395385415
 20
96.82622747956268
 30
0.0
 10
153.0411361786005
 20
96.82721031195426
 30
0.0
 10
153.0407330541014
 20
96.82726770484976
 30
0.0
  0
SPLINE
  5
C1
330
1F
100
AcDbEntity
  8
0
  6
Continuous
 62
     7
370
    15
100
AcDbSpline
210
0.0
220
0.0
230
1.0
 70
     8
 71
     3
 72
     9
 73
     5
 74
     0
 42
0.00000001
 43
0.00000001
 40
0.0
 40
0.0
 40
0.0
 40
0.0
 40
0.3013459654892246
 40
1.0
 40
1.0
 40
1.0
 40
1.0
 10
147.483617938295
 20
96.99183917080343
 30
0.0
 10
147.4533636918904
 20
96.98942877106796
 30
0.0
 10
147.35296664043
 20
96.98142999221734
 30
0.0
 10
147.2623139051361
 20
96.97250944015322
 30
0.0
 10
147.1989790058836
 20
96.96627706046354
 30
0.0
  0
CIRCLE
  5
C2
330
1F
100
AcDbEntity
  8
0
  6
Continuous
 62
     7
370
    15
100
AcDbCircle
 10
149.5420124639
 20
115.3270855905
 30
0.0
 40
2.500000000000014
  0
LINE
  5
C3
330
1F
100
AcDbEntity
  8
0
  6
Continuous
 62
     7
370
    15
100
AcDbLine
 10
59.3420124639
 20
83.0770855905
 30
0.0
 11
59.3420124639
 21
83.0788003886
 31
0.0
  0
LINE
  5
C4
330
1F
100
AcDbEntity
  8
0
  6
Continuous
 62
     7
370
    15
100
AcDbLine
 10
193.1202958873
 20
98.3270855905
 30
0.0
 11
193.1202958873
 21
132.3270855905
 31
0.0
  0
LINE
  5
C5
330
1F
100
AcDbEntity
  8
0
  6
Continuous
 62
     7
370
    15
100
AcDbLine
 10
59.3420124639
 20
147.5770855905
 30
0.0
 11
59.3420124639
 21
147.5753707923
 31
0.0
  0
SPLINE
  5
C6
330
1F
100
AcDbEntity
  8
0
  6
Continuous
 62
     7
370
    15
100
AcDbSpline
210
0.0
220
0.0
230
1.0
 70
     8
 71
     3
 72
    10
 73
     6
 74
     0
 42
0.00000001
 43
0.00000001
 40
0.0
 40
0.0
 40
0.0
 40
0.0
 40
0.152819387355867
 40
0.8538662091844222
 40
1.0
 40
1.0
 40
1.0
 40
1.0
 10
237.5777089190763
 20
127.1745674198737
 30
0.0
 10
237.579139118495
 20
127.1636874042294
 30
0.0
 10
237.5871302443404
 20
127.1028961795371
 30
0.0
 10
237.5914542425508
 20
127.0154377723216
 30
0.0
 10
237.5919303398273
 20
126.9396127339696
 30
0.0
 10
237.5920124638735
 20
126.926533350273
 30
0.0
  0
LINE
  5
C7
330
1F
100
AcDbEntity
  8
0
  6
Continuous
 62
     7
370
    15
100
AcDbLine
 10
237.5920124639
 20
103.7276378307
 30
0.0
 11
237.5920124639
 21
126.9265333503
 31
0.0
  0
SPLINE
  5
C8
330
1F
100
AcDbEntity
  8
0
  6
Continuous
 62
     7
370
    15
100
AcDbSpline
210
0.0
220
0.0
230
1.0
 70
     8
 71
     3
 72
    11
 73
     7
 74
     0
 42
0.00000001
 43
0.00000001
 40
0.0
 40
0.0
 40
0.0
 40
0.0
 40
0.1334181906054182
 40
0.4898087576215303
 40
0.8770762407056698
 40
1.0
 40
1.0
 40
1.0
 40
1.0
 10
237.5920124638735
 20
103.727637830659
 30
0.0
 10
237.5912734978141
 20
103.6862772431115
 30
0.0
 10
237.5885605840362
 20
103.5344330462357
 30
0.0
 10
237.557584606483
 20
103.3078094213087
 30
0.0
 10
237.5204841966468
 20
103.1515925313956
 30
0.0
 10
237.5100060385487
 20
103.1133383721787
 30
0.0
 10
237.5074814664335
 20
103.104121543921
 30
0.0
  0
LINE
  5
C9
330
1F
100
AcDbEntity
  8
0
  6
Continuous
 62
     7
370
    15
100
AcDbLine
 10
237.5064246987
 20
103.1310180785
 30
0.0
 11
237.5185251539
 21
102.8230409283
 31
0.0
  0
LINE
  5
CA
330
1F
100
AcDbEntity
  8
0
  6
Continuous
 62
     7
370
    15
100
AcDbLine
 10
237.5920124639
 20
105.0776642594
 30
0.0
 11
237.669334671
 21
103.1096826725
 31
0.0
  0
LINE
  5
CB
330
1F
100
AcDbEntity
  8
0
  6
Continuous
 62
     7
370
    15
100
AcDbLine
 10
237.4596354303
 20
127.8334440362
 30
0.0
 11
237.4540711152
 21
127.6918227612
 31
0.0
  0
LINE
  5
CC
330
1F
100
AcDbEntity
  8
0
  6
Continuous
 62
     7
370
    15
100
AcDbLine
 10
237.6040305994
 20
127.3835462335
 30
0.0
 11
237.5899770883
 21
127.025860492
 31
0.0
  0
LINE
  5
CD
330
1F
100
AcDbEntity
  8
0
  6
Continuous
 62
     7
370
    15
100
AcDbLine
 10
237.6104449474
 20
127.5468022919
 30
0.0
 11
237.6040305994
 21
127.3835462335
 31
0.0
  0
SPLINE
  5
CE
330
1F
100
AcDbEntity
  8
0
  6
HIDDEN
 62
     7
370
     0
100
AcDbSpline
210
0.0
220
0.0
230
1.0
 70
     8
 71
     3
 72
    80
 73
    76
 74
     0
 42
0.00000001
 43
0.00000001
 40
-0.03125
 40
-0.03125
 40
0.0
 40
0.0
 40
0.0312500000000002
 40
0.0312500000000002
 40
0.0468750000000002
 40
0.0468750000000002
 40
0.0625000000000001
 40
0.0625000000000001
 40
0.0937499999999999
 40
0.0937499999999999
 40
0.1249999999999997
 40
0.1249999999999997
 40
0.1562499999999995
 40
0.1562499999999995
 40
0.1874999999999993
 40
0.1874999999999993
 40
0.2187499999999991
 40
0.2187499999999991
 40
0.2499999999999989
 40
0.2499999999999989
 40
0.2812499999999987
 40
0.2812499999999987
 40
0.3124999999999984
 40
0.3124999999999984
 40
0.3281249999999985
 40
0.3281249999999985
 40
0.3437499999999986
 40
0.3437499999999986
 40
0.3749999999999986
 40
0.3749999999999986
 40
0.4062499999999987
 40
0.4062499999999987
 40
0.4218749999999989
 40
0.4218749999999989
 40
0.4374999999999991
 40
0.4374999999999991
 40
0.4687499999999993
 40
0.4687499999999993
 40
0.4999999999999994
 40
0.4999999999999994
 40
0.5312499999999997
 40
0.5312499999999997
 40
0.5624999999999998
 40
0.5624999999999998
 40
0.59375
 40
0.59375
 40
0.6250000000000001
 40
0.6250000000000001
 40
0.6562500000000003
 40
0.6562500000000003
 40
0.6875000000000006
 40
0.6875000000000006
 40
0.7031250000000007
 40
0.7031250000000007
 40
0.7187500000000007
 40
0.7187500000000007
 40
0.7500000000000003
 40
0.7500000000000003
 40
0.78125
 40
0.78125
 40
0.7968749999999998
 40
0.7968749999999998
 40
0.8124999999999997
 40
0.8124999999999997
 40
0.8437499999999998
 40
0.8437499999999998
 40
0.8749999999999998
 40
0.8749999999999998
 40
0.9062499999999999
 40
0.9062499999999999
 40
0.9375
 40
0.9375
 40
0.96875
 40
0.96875
 40
1.0
 40
1.0
 40
1.03125
 40
1.03125
 10
116.2614671510972
 20
164.1866348469439
 30
0.0
 10
116.9225577766498
 20
164.186634846944
 30
0.0
 10
117.2475379059015
 20
164.1797367011172
 30
0.0
 10
117.7270113171479
 20
164.1592102731366
 30
0.0
 10
117.8854931349887
 20
164.1506540460491
 30
0.0
 10
118.199712667493
 20
164.1299276708314
 30
0.0
 10
118.3558329511734
 20
164.1177003706251
 30
0.0
 10
118.80988698013
 20
164.0761310767958
 30
0.0
 10
119.0969903630698
 20
164.0417867916981
 30
0.0
 10
119.6403449190968
 20
163.9584626673758
 30
0.0
 10
119.8974485303024
 20
163.9090244446013
 30
0.0
 10
120.3583547852412
 20
163.7976447148414
 30
0.0
 10
120.5652524944561
 20
163.7353502013292
 30
0.0
 10
120.9307778084483
 20
163.5954205584583
 30
0.0
 10
121.0859833305743
 20
163.5188046607092
 30
0.0
 10
121.335413717174
 20
163.3548460408535
 30
0.0
 10
121.4315036729592
 20
163.2662891867577
 30
0.0
 10
121.5600225221527
 20
163.078808504652
 30
0.0
 10
121.5918333923305
 20
162.9815720431975
 30
0.0
 10
121.5921900421038
 20
162.7799394038704
 30
0.0
 10
121.5596927899067
 20
162.6743906120323
 30
0.0
 10
121.4320673161922
 20
162.4642758293438
 30
0.0
 10
121.3376389151403
 20
162.3592103213748
 30
0.0
 10
121.1497780951548
 20
162.2023326141237
 30
0.0
 10
121.0789500963516
 20
162.149898880418
 30
0.0
 10
120.9242282043863
 20
162.0474604347883
 30
0.0
 10
120.8402517342029
 20
161.9973127061365
 30
0.0
 10
120.5689280645585
 20
161.850296749703
 30
0.0
 10
120.3623788459562
 20
161.7568089292685
 30
0.0
 10
119.8957687057672
 20
161.5810220716542
 30
0.0
 10
119.6434031361417
 20
161.5016435965705
 30
0.0
 10
119.237501794463
 20
161.3961611590764
 30
0.0
 10
119.0976011769855
 20
161.3632755942363
 30
0.0
 10
118.8083772417386
 20
161.3023601150076
 30
0.0
 10
118.6585377854493
 20
161.2742795433652
 30
0.0
 10
118.2044212158385
 20
161.1994775013224
 30
0.0
 10
117.8927699971017
 20
161.1614394430763
 30
0.0
 10
117.2517735321893
 20
161.1098275165522
 30
0.0
 10
116.9202459042371
 20
161.0965135830307
 30
0.0
 10
116.2674548591656
 20
161.0964164967026
 30
0.0
 10
115.9429186541338
 20
161.1092045818637
 30
0.0
 10
115.2976492047174
 20
161.1606947714596
 30
0.0
 10
114.9819061985547
 20
161.1992193507797
 30
0.0
 10
114.380016903571
 20
161.2981219136377
 30
0.0
 10
114.0892676727595
 20
161.3592260115627
 30
0.0
 10
113.542355881075
 20
161.5010354446734
 30
0.0
 10
113.2905785172381
 20
161.5803699292526
 30
0.0
 10
112.829190524617
 20
161.7537486739141
 30
0.0
 10
112.6179212450189
 20
161.8489086186681
 30
0.0
 10
112.2546168926427
 20
162.045481142044
 30
0.0
 10
112.1008102441999
 20
162.1472373704504
 30
0.0
 10
111.9121907746025
 20
162.3040233332359
 30
0.0
 10
111.8561602883934
 20
162.3572773669858
 30
0.0
 10
111.7605865266572
 20
162.4630819285386
 30
0.0
 10
111.7208236096322
 20
162.5157349928942
 30
0.0
 10
111.6250518593201
 20
162.6728087123533
 30
0.0
 10
111.592329020194
 20
162.7763337476805
 30
0.0
 10
111.5917004338649
 20
162.9805484819076
 30
0.0
 10
111.6238865785997
 20
163.0780523194923
 30
0.0
 10
111.7187972804552
 20
163.217379369844
 30
0.0
 10
111.7582640638542
 20
163.2626961013485
 30
0.0
 10
111.8531940625751
 20
163.3511359223373
 30
0.0
 10
111.9089508903384
 20
163.3943901727972
 30
0.0
 10
112.0968910083083
 20
163.5182816473872
 30
0.0
 10
112.2502524780245
 20
163.5939839381613
 30
0.0
 10
112.6125167129049
 20
163.7332383096195
 30
0.0
 10
112.8233651863708
 20
163.7970001511482
 30
0.0
 10
113.2840351566897
 20
163.908496990616
 30
0.0
 10
113.5354095362735
 20
163.9570230629327
 30
0.0
 10
114.0813174231717
 20
164.0410770463131
 30
0.0
 10
114.3721399978229
 20
164.0758755999799
 30
0.0
 10
114.9734666126029
 20
164.1310720647436
 30
0.0
 10
115.2879851972153
 20
164.1518899134975
 30
0.0
 10
115.9345666533352
 20
164.1797372464083
 30
0.0
 10
116.2614671510972
 20
164.1866348469439
 30
0.0
 10
116.9225577766498
 20
164.186634846944
 30
0.0
  0
LINE
  5
CF
330
1F
100
AcDbEntity
  8
0
  6
HIDDEN
 62
     7
370
     0
100
AcDbLine
 10
124.329983443
 20
154.2780483514
 30
0.0
 11
124.329983443
 21
146.6770855905
 31
0.0
  0
LINE
  5
D0
330
1F
100
AcDbEntity
  8
0
  6
HIDDEN
 62
     7
370
     0
100
AcDbLine
 10
88.0054372133
 20
78.5912792282
 30
0.0
 11
87.7354815121
 21
78.5673531289
 31
0.0
  0
SPLINE
  5
D1
330
1F
100
AcDbEntity
  8
0
  6
HIDDEN
 62
     7
370
     0
100
AcDbSpline
210
0.0
220
0.0
230
1.0
 70
     8
 71
     3
 72
    12
 73
     8
 74
     0
 42
0.00000001
 43
0.00000001
 40
0.0
 40
0.0
 40
0.0
 40
0.0
 40
0.1661348616746358
 40
0.3322013257404253
 40
0.5008932044678792
 40
0.752137078265245
 40
1.0
 40
1.0
 40
1.0
 40
1.0
 10
86.11133412952077
 20
152.2583896135315
 30
0.0
 10
86.12172675362876
 20
152.2570114894701
 30
0.0
 10
86.14250772320852
 20
152.2542558087199
 30
0.0
 10
86.31580721265483
 20
152.2326524337577
 30
0.0
 10
86.63775880190128
 20
152.194787481816
 30
0.0
 10
87.15892463782122
 20
152.1344037150999
 30
0.0
 10
87.72448257765816
 20
152.0866105779504
 30
0.0
 10
88.0053460013445
 20
152.0628758848571
 30
0.0
  0
SPLINE
  5
D2
330
1F
100
AcDbEntity
  8
0
  6
HIDDEN
 62
     7
370
     0
100
AcDbSpline
210
0.0
220
0.0
230
1.0
 70
     8
 71
     3
 72
    33
 73
    29
 74
     0
 42
0.00000001
 43
0.00000001
 40
0.0
 40
0.0
 40
0.0
 40
0.0
 40
0.0315773698875104
 40
0.0633753287769057
 40
0.0958656851178231
 40
0.1285943208117605
 40
0.1601713694082662
 40
0.2244011681247345
 40
0.2571344568799636
 40
0.2885965627565487
 40
0.3526214070085076
 40
0.3852675959519929
 40
0.4162212184009612
 40
0.4791910353915302
 40
0.5112817741273479
 40
0.5421256322990662
 40
0.6048360558905652
 40
0.6367710793564881
 40
0.6680663384719832
 40
0.7316979547407203
 40
0.7641081282919966
 40
0.7957194290717577
 40
0.8275524266255816
 40
0.8600900250720824
 40
0.8928737620729298
 40
0.9241775068323748
 40
0.9878778414776339
 40
1.0
 40
1.0
 40
1.0
 40
1.0
 10
97.84521811906457
 20
83.96076336971892
 30
0.0
 10
97.76134697205931
 20
83.97463710810065
 30
0.0
 10
97.5930187821154
 20
84.0024815021854
 30
0.0
 10
97.29366418577388
 20
84.04891414241581
 30
0.0
 10
96.95966471851504
 20
84.09752674443665
 30
0.0
 10
96.59389475662775
 20
84.14667467762388
 30
0.0
 10
96.07051484193887
 20
84.21074046321651
 30
0.0
 10
95.4940876333443
 20
84.27052197762164
 30
0.0
 10
94.87895048649276
 20
84.32052158508569
 30
0.0
 10
94.24263476040984
 20
84.36266157776912
 30
0.0
 10
93.57885422297113
 20
84.39129630250713
 30
0.0
 10
92.90678847138801
 20
84.40355575359074
 30
0.0
 10
92.23733988795628
 20
84.40488504469901
 30
0.0
 10
91.57215532084233
 20
84.39002452178957
 30
0.0
 10
90.92586408195183
 20
84.36016655740039
 30
0.0
 10
90.29667413109347
 20
84.3214233293391
 30
0.0
 10
89.6969584389142
 20
84.27084509557923
 30
0.0
 10
89.13865887279238
 20
84.2124450811127
 30
0.0
 10
88.60846400240482
 20
84.15012184974319
 30
0.0
 10
88.12929730009323
 20
84.08471327520763
 30
0.0
 10
87.71437931489837
 20
84.02192437160167
 30
0.0
 10
87.43710693097233
 20
83.97741977278028
 30
0.0
 10
87.19555164541116
 20
83.93671082334531
 30
0.0
 10
86.99005964106274
 20
83.90065369269583
 30
0.0
 10
86.8258952173185
 20
83.87089666774347
 30
0.0
 10
86.66646127075322
 20
83.84131135431905
 30
0.0
 10
86.5882230428046
 20
83.8263620753142
 30
0.0
 10
86.59594783314942
 20
83.82783449791539
 30
0.0
 10
86.59718283781886
 20
83.82806990220558
 30
0.0
  0
SPLINE
  5
D3
330
1F
100
AcDbEntity
  8
0
  6
HIDDEN
 62
     7
370
     0
100
AcDbSpline
210
0.0
220
0.0
230
1.0
 70
     8
 71
     3
 72
    32
 73
    28
 74
     0
 42
0.00000001
 43
0.00000001
 40
0.0
 40
0.0
 40
0.0
 40
0.0
 40
0.020356822172105
 40
0.0512207857583794
 40
0.1139954454389432
 40
0.1459779869097674
 40
0.1769364677636727
 40
0.2398766914470389
 40
0.2719275468465721
 40
0.3033698011481659
 40
0.3673099924152954
 40
0.3998847012176188
 40
0.4314690120325909
 40
0.4957360700021212
 40
0.5285028301030422
 40
0.5596434488300034
 40
0.6230067766607702
 40
0.6553079823205556
 40
0.6861132872619372
 40
0.748756262689177
 40
0.7806634244345373
 40
0.8117607067089887
 40
0.8749825776111492
 40
0.9071778073885584
 40
0.9301738434827028
 40
0.9765719131095674
 40
1.0
 40
1.0
 40
1.0
 40
1.0
 10
86.59718283781886
 20
146.8261012787264
 30
0.0
 10
86.59682578591261
 20
146.8261687576533
 30
0.0
 10
86.59592739032612
 20
146.8263385446479
 30
0.0
 10
86.65852113687875
 20
146.8144443034606
 30
0.0
 10
86.80033231834226
 20
146.787797426541
 30
0.0
 10
87.02437691021778
 20
146.7474153551284
 30
0.0
 10
87.29891902605199
 20
146.6995461133779
 30
0.0
 10
87.64761031505955
 20
146.6420762280981
 30
0.0
 10
88.06388627743695
 20
146.5795816810436
 30
0.0
 10
88.52548032429975
 20
146.5150559994043
 30
0.0
 10
89.04901827339489
 20
146.4504756224211
 30
0.0
 10
89.62121574784965
 20
146.3917202575362
 30
0.0
 10
90.22342211830161
 20
146.3383474011541
 30
0.0
 10
90.8646486250831
 20
146.2954848393218
 30
0.0
 10
91.52573394307925
 20
146.2674207933007
 30
0.0
 10
92.19244489752582
 20
146.2498321357611
 30
0.0
 10
92.86633411813276
 20
146.2483854875204
 30
0.0
 10
93.53068360208054
 20
146.2633110266581
 30
0.0
 10
94.18221787624017
 20
146.2883177518818
 30
0.0
 10
94.81287708889619
 20
146.3274217945637
 30
0.0
 10
95.41041606471866
 20
146.3775229523474
 30
0.0
 10
95.98441403267341
 20
146.4336941188305
 30
0.0
 10
96.5153637460667
 20
146.4966081475194
 30
0.0
 10
96.95874462733082
 20
146.5567116495729
 30
0.0
 10
97.31026527490444
 20
146.6076013665582
 30
0.0
 10
97.5999327848813
 20
146.6527238430961
 30
0.0
 10
97.78359554927899
 20
146.6831868549835
 30
0.0
 10
97.84521811906457
 20
146.693407811213
 30
0.0
  0
SPLINE
  5
D4
330
1F
100
AcDbEntity
  8
0
  6
HIDDEN
 62
     7
370
     0
100
AcDbSpline
210
0.0
220
0.0
230
1.0
 70
     8
 71
     3
 72
    13
 73
     9
 74
     0
 42
0.00000001
 43
0.00000001
 40
0.0
 40
0.0
 40
0.0
 40
0.0
 40
0.1623836687590154
 40
0.3259036967521354
 40
0.4929930053128654
 40
0.6613109974968223
 40
0.8237250587268701
 40
1.0
 40
1.0
 40
1.0
 40
1.0
 10
97.84521811906457
 20
146.693407811213
 30
0.0
 10
97.9208076295602
 20
146.70578358367
 30
0.0
 10
98.07251562516396
 20
146.7306217341114
 30
0.0
 10
98.25541450155981
 20
146.7578800789862
 30
0.0
 10
98.40447684234407
 20
146.7789999385112
 30
0.0
 10
98.5084270415642
 20
146.7929863218798
 30
0.0
 10
98.58375687987082
 20
146.8027790214722
 30
0.0
 10
98.57552821438489
 20
146.8017078318738
 30
0.0
 10
98.57124550217821
 20
146.8011503178058
 30
0.0
  0
SPLINE
  5
D5
330
1F
100
AcDbEntity
  8
0
  6
HIDDEN
 62
     7
370
     0
100
AcDbSpline
210
0.0
220
0.0
230
1.0
 70
     8
 71
     3
 72
    13
 73
     9
 74
     0
 42
0.00000001
 43
0.00000001
 40
0.0
 40
0.0
 40
0.0
 40
0.0
 40
0.1539979175619511
 40
0.3222783140682305
 40
0.4885514651576366
 40
0.6560338488010076
 40
0.8273499398628251
 40
1.0
 40
1.0
 40
1.0
 40
1.0
 10
98.57124603246342
 20
83.8530207945272
 30
0.0
 10
98.57643033846227
 20
83.85234914194466
 30
0.0
 10
98.58727976696998
 20
83.85094354461341
 30
0.0
 10
98.51794060092261
 20
83.85993014297499
 30
0.0
 10
98.41782363531759
 20
83.87334419449402
 30
0.0
 10
98.27129573282315
 20
83.89398476028698
 30
0.0
 10
98.08508187123797
 20
83.92155021649583
 30
0.0
 10
97.9253791560757
 20
83.94765856752035
 30
0.0
 10
97.84521811906457
 20
83.96076336971892
 30
0.0
  0
LINE
  5
D6
330
1F
100
AcDbEntity
  8
0
  6
HIDDEN
 62
     7
370
     0
100
AcDbLine
 10
77.5886367909
 20
88.8270855905
 30
0.0
 11
77.5886367909
 21
141.8270855905
 31
0.0
  0
LINE
  5
D7
330
1F
100
AcDbEntity
  8
0
  6
HIDDEN
 62
     7
370
     0
100
AcDbLine
 10
116.8760900822
 20
88.8270855905
 30
0.0
 11
116.8760900822
 21
141.8270855905
 31
0.0
  0
LINE
  5
D8
330
1F
100
AcDbEntity
  8
0
  6
HIDDEN
 62
     7
370
     0
100
AcDbLine
 10
120.0420124639
 20
90.4520855905
 30
0.0
 11
120.0420124639
 21
140.2020855726
 31
0.0
  0
SPLINE
  5
D9
330
1F
100
AcDbEntity
  8
0
  6
HIDDEN
 62
     7
370
     0
100
AcDbSpline
210
0.0
220
0.0
230
1.0
 70
     8
 71
     3
 72
    20
 73
    16
 74
     0
 42
0.00000001
 43
0.00000001
 40
0.0
 40
0.0
 40
0.0
 40
0.0
 40
0.2499999999999978
 40
0.2499999999999978
 40
0.3749999999999982
 40
0.3749999999999982
 40
0.4999999999999986
 40
0.4999999999999986
 40
0.6249999999999989
 40
0.6249999999999989
 40
0.7499999999999992
 40
0.7499999999999992
 40
0.8749999999999997
 40
0.8749999999999997
 40
1.0
 40
1.0
 40
1.0
 40
1.0
 10
67.79201246387353
 20
140.5555992208803
 30
0.0
 10
67.79201246387353
 20
140.476396234348
 30
0.0
 10
67.7450299686608
 20
140.3953000159451
 30
0.0
 10
67.60720837788323
 20
140.2751033241942
 30
0.0
 10
67.55092609397325
 20
140.2361766201921
 30
0.0
 10
67.41784124250601
 20
140.1609878877677
 30
0.0
 10
67.34000130027296
 20
140.1243456824257
 30
0.0
 10
67.16736894415861
 20
140.0567551495939
 30
0.0
 10
67.07297594706755
 20
140.0257969678183
 30
0.0
 10
66.8675386407524
 20
139.9702725464486
 30
0.0
 10
66.75519240076522
 20
139.9455640326154
 30
0.0
 10
66.52295153686558
 20
139.9057678055071
 30
0.0
 10
66.40224089444285
 20
139.8903479681101
 30
0.0
 10
66.15117003517383
 20
139.8692679932705
 30
0.0
 10
66.02164803875804
 20
139.8637907482495
 30
0.0
 10
65.89201246387356
 20
139.8637907482495
 30
0.0
  0
LINE
  5
DA
330
1F
100
AcDbEntity
  8
0
  6
HIDDEN
 62
     7
370
     0
100
AcDbLine
 10
65.8920124639
 20
139.8637907482
 30
0.0
 11
59.3420124639
 21
139.8637907482
 31
0.0
  0
LINE
  5
DB
330
1F
100
AcDbEntity
  8
0
  6
HIDDEN
 62
     7
370
     0
100
AcDbLine
 10
59.3420124639
 20
90.7903804327
 30
0.0
 11
70.8920124639
 21
90.7903804327
 31
0.0
  0
SPLINE
  5
DC
330
1F
100
AcDbEntity
  8
0
  6
HIDDEN
 62
     7
370
     0
100
AcDbSpline
210
0.0
220
0.0
230
1.0
 70
     8
 71
     3
 72
    18
 73
    14
 74
     0
 42
0.00000001
 43
0.00000001
 40
0.0
 40
0.0
 40
0.0
 40
0.0
 40
0.1249999999999982
 40
0.1249999999999982
 40
0.2499999999999964
 40
0.2499999999999964
 40
0.4999999999999988
 40
0.4999999999999988
 40
0.7500000000000011
 40
0.7500000000000011
 40
0.8750000000000006
 40
0.8750000000000006
 40
1.0
 40
1.0
 40
1.0
 40
1.0
 10
70.89201246387353
 20
90.79038043268248
 30
0.0
 10
71.02147977683076
 20
90.79038043268248
 30
0.0
 10
71.14849052572738
 20
90.78502743408984
 30
0.0
 10
71.39785384692463
 20
90.76428946140105
 30
0.0
 10
71.52147750155308
 20
90.74861755714676
 30
0.0
 10
71.87050983848711
 20
90.68892282874468
 30
0.0
 10
72.0810216032939
 20
90.63115764906368
 30
0.0
 10
72.42493828099342
 20
90.49663580778619
 30
0.0
 10
72.56128868251125
 20
90.41896669428078
 30
0.0
 10
72.69832673907376
 20
90.29967556019345
 30
0.0
 10
72.73354575778667
 20
90.2587565510584
 30
0.0
 10
72.78016933472523
 20
90.17810055776837
 30
0.0
 10
72.79201246387355
 20
90.1381320375755
 30
0.0
 10
72.79201246387353
 20
90.0985719600517
 30
0.0
  0
LINE
  5
DD
330
1F
100
AcDbEntity
  8
0
  6
HIDDEN
 62
     7
370
     0
100
AcDbLine
 10
59.3420124639
 20
90.7903804327
 30
0.0
 11
59.3420124639
 21
139.8637907482
 31
0.0
  0
LWPOLYLINE
  5
DE
330
1F
100
AcDbEntity
  8
0
  6
HIDDEN
 62
     7
370
     0
100
AcDbPolyline
 90
       14
 70
   128
 43
0.0
 10
116.5920124639
 20
155.2708161538
 10
117.6668646649
 20
155.3183625372
 10
118.6914579717
 20
155.4587784715
 10
119.6178835398
 20
155.6854982635
 10
120.4028227395
 20
155.9879207479
 10
121.0095726861
 20
156.3519049854
 10
121.4097624265
 20
156.7604314774
 10
121.5846795331
 20
157.1943979795
 10
121.5261450766
 20
157.6335127001
 10
121.236896063
 20
158.057243123
 10
120.7304574547
 20
158.4457760847
 10
120.0305097581
 20
158.7809442155
 10
119.1697817498
 20
159.0470754263
 10
118.9633465585
 20
159.0949157546
  0
LWPOLYLINE
  5
DF
330
1F
100
AcDbEntity
  8
0
  6
HIDDEN
 62
     7
370
     0
100
AcDbPolyline
 90
       14
 70
   128
 43
0.0
 10
114.1568851363
 20
159.0806934165
 10
114.014243178
 20
159.0470754263
 10
113.1535151696
 20
158.7809442155
 10
112.4535674731
 20
158.4457760847
 10
111.9471288648
 20
158.057243123
 10
111.6578798512
 20
157.6335127001
 10
111.5993453946
 20
157.1943979795
 10
111.7742625013
 20
156.7604314774
 10
112.1744522416
 20
156.3519049854
 10
112.7812021882
 20
155.9879207479
 10
113.5661413879
 20
155.6854982635
 10
114.4925669561
 20
155.4587784715
 10
115.5171602628
 20
155.3183625372
 10
116.5920124639
 20
155.2708161538
  0
LINE
  5
E0
330
1F
100
AcDbEntity
  8
0
  6
HIDDEN
 62
     7
370
     0
100
AcDbLine
 10
59.3420124639
 20
87.9570855905
 30
0.0
 11
59.3420124639
 21
83.0788003886
 31
0.0
  0
LINE
  5
E1
330
1F
100
AcDbEntity
  8
0
  6
HIDDEN
 62
     7
370
     0
100
AcDbLine
 10
72.7920124639
 20
87.9570855905
 30
0.0
 11
72.7920124639
 21
81.4577523251
 31
0.0
  0
LINE
  5
E2
330
1F
100
AcDbEntity
  8
0
  6
HIDDEN
 62
     7
370
     0
100
AcDbLine
 10
67.7920124639
 20
142.6970855905
 30
0.0
 11
67.7920124639
 21
149.0716943275
 31
0.0
  0
LINE
  5
E3
330
1F
100
AcDbEntity
  8
0
  6
HIDDEN
 62
     7
370
     0
100
AcDbLine
 10
59.3420124639
 20
142.6970855905
 30
0.0
 11
59.3420124639
 21
147.5753707923
 31
0.0
  0
SPLINE
  5
E4
330
1F
100
AcDbEntity
  8
0
  6
HIDDEN
 62
     7
370
     0
100
AcDbSpline
210
0.0
220
0.0
230
1.0
 70
     8
 71
     3
 72
    11
 73
     7
 74
     0
 42
0.00000001
 43
0.00000001
 40
0.0
 40
0.0
 40
0.0
 40
0.0
 40
0.0593037185345482
 40
0.4491306992697855
 40
0.842329948930133
 40
1.0
 40
1.0
 40
1.0
 40
1.0
 10
237.5012390286441
 20
127.5728935846777
 30
0.0
 10
237.5004607517363
 20
127.5757389851959
 30
0.0
 10
237.4945665504881
 20
127.5972883375134
 30
0.0
 10
237.5201096726836
 20
127.5058983438751
 30
0.0
 10
237.55688721309
 20
127.3514542093008
 30
0.0
 10
237.5730755004273
 20
127.2139297348273
 30
0.0
 10
237.5777089190763
 20
127.1745674198737
 30
0.0
  0
SPLINE
  5
E5
330
1F
100
AcDbEntity
  8
0
  6
HIDDEN
 62
     7
370
     0
100
AcDbSpline
210
0.0
220
0.0
230
1.0
 70
     8
 71
     3
 72
     9
 73
     5
 74
     0
 42
0.00000001
 43
0.00000001
 40
0.0
 40
0.0
 40
0.0
 40
0.0
 40
0.2919798550522193
 40
0.9999999999999999
 40
0.9999999999999999
 40
0.9999999999999999
 40
0.9999999999999999
 10
237.5074814664335
 20
103.104121543921
 30
0.0
 10
237.5057340133433
 20
103.0975791770057
 30
0.0
 10
237.4997491720605
 20
103.0751722650148
 30
0.0
 10
237.4995787517277
 20
103.0749175879625
 30
0.0
 10
237.499458090699
 20
103.074737271479
 30
0.0
  0
LINE
  5
E6
330
1F
100
AcDbEntity
  8
0
  6
HIDDEN
 62
     7
370
     0
100
AcDbLine
 10
131.8920124639
 20
102.3270855905
 30
0.0
 11
131.8920124639
 21
128.3270855905
 31
0.0
  0
LINE
  5
E7
330
1F
100
AcDbEntity
  8
0
  6
HIDDEN
 62
     7
370
     0
100
AcDbLine
 10
135.8920124639
 20
102.3270855905
 30
0.0
 11
135.8920124639
 21
128.3270855905
 31
0.0
  0
LINE
  5
E8
330
1F
100
AcDbEntity
  8
0
  6
HIDDEN
 62
     7
370
     0
100
AcDbLine
 10
120.7920124639
 20
104.0770855905
 30
0.0
 11
120.7920124639
 21
126.5770855905
 31
0.0
  0
ELLIPSE
  5
E9
330
1F
100
AcDbEntity
  8
0
  6
HIDDEN
 62
     7
370
     0
100
AcDbEllipse
 10
51.4073392636
 20
115.3270855905
 30
0.0
 11
31.08108570811661
 21
0.0
 31
0.0
210
0.0
220
0.0
230
1.0
 40
0.8164965809
 41
1.312649268214811
 42
1.367189972061496
  0
ELLIPSE
  5
EA
330
1F
100
AcDbEntity
  8
0
  6
HIDDEN
 62
     7
370
     0
100
AcDbEllipse
 10
51.4073392636
 20
115.3270855905
 30
0.0
 11
31.08108570811661
 21
-1.421085471520200E-14
 31
0.0
210
0.0
220
0.0
230
1.0
 40
0.8164965809
 41
4.915995335118103
 42
4.970536038964788
  0
LINE
  5
EB
330
1F
100
AcDbEntity
  8
0
  6
HIDDEN
 62
     7
370
     0
100
AcDbLine
 10
136.5420124639
 20
71.4270855905
 30
0.0
 11
122.5420124639
 21
71.4270855905
 31
0.0
  0
LINE
  5
EC
330
1F
100
AcDbEntity
  8
0
  6
HIDDEN
 62
     7
370
     0
100
AcDbLine
 10
112.5420124639
 20
65.3370865907
 30
0.0
 11
112.5420124639
 21
71.4270855905
 31
0.0
  0
LINE
  5
ED
330
1F
100
AcDbEntity
  8
0
  6
HIDDEN
 62
     7
370
     0
100
AcDbLine
 10
122.5420124639
 20
71.4270855905
 30
0.0
 11
112.5420124639
 21
71.4270855905
 31
0.0
  0
LINE
  5
EE
330
1F
100
AcDbEntity
  8
0
  6
HIDDEN
 62
     7
370
     0
100
AcDbLine
 10
72.7920124639
 20
87.9570855905
 30
0.0
 11
72.7920124639
 21
90.0985719601
 31
0.0
  0
LINE
  5
EF
330
1F
100
AcDbEntity
  8
0
  6
HIDDEN
 62
     7
370
     0
100
AcDbLine
 10
59.3420124639
 20
87.9570855905
 30
0.0
 11
59.3420124639
 21
90.7903804327
 31
0.0
  0
LINE
  5
F0
330
1F
100
AcDbEntity
  8
0
  6
HIDDEN
 62
     7
370
     0
100
AcDbLine
 10
67.7920124639
 20
142.6970855905
 30
0.0
 11
67.7920124639
 21
140.5555992209
 31
0.0
  0
LINE
  5
F1
330
1F
100
AcDbEntity
  8
0
  6
HIDDEN
 62
     7
370
     0
100
AcDbLine
 10
59.3420124639
 20
142.6970855905
 30
0.0
 11
59.3420124639
 21
139.8637907482
 31
0.0
  0
LINE
  5
F2
330
1F
100
AcDbEntity
  8
0
  6
HIDDEN
 62
     7
370
     0
100
AcDbLine
 10
122.5420124639
 20
159.2270855905
 30
0.0
 11
112.5420124639
 21
159.2270855905
 31
0.0
  0
LINE
  5
F3
330
1F
100
AcDbEntity
  8
0
  6
HIDDEN
 62
     7
370
     0
100
AcDbLine
 10
136.5420124639
 20
159.2270855905
 30
0.0
 11
122.5420124639
 21
159.2270855905
 31
0.0
  0
LINE
  5
F4
330
1F
100
AcDbEntity
  8
0
  6
HIDDEN
 62
     7
370
     0
100
AcDbLine
 10
234.0920124639
 20
107.3270855905
 30
0.0
 11
234.0920124639
 21
123.3270855905
 31
0.0
  0
LINE
  5
F5
330
1F
100
AcDbEntity
  8
0
  6
HIDDEN
 62
     7
370
     0
100
AcDbLine
 10
188.0920124639
 20
107.4270855905
 30
0.0
 11
188.0920124639
 21
123.2270851887
 31
0.0
  0
SPLINE
  5
F6
330
1F
100
AcDbEntity
  8
0
  6
HIDDEN
 62
     7
370
     0
100
AcDbSpline
210
0.0
220
0.0
230
1.0
 70
     8
 71
     3
 72
    12
 73
     8
 74
     0
 42
0.00000001
 43
0.00000001
 40
0.0
 40
0.0
 40
0.0
 40
0.0
 40
0.2124432048838496
 40
0.4248016713339858
 40
0.6393525635236673
 40
0.8553878036415441
 40
1.0
 40
1.0
 40
1.0
 40
1.0
 10
190.0920124638736
 20
123.4904182432494
 30
0.0
 10
190.259054339134
 20
123.4934857785167
 30
0.0
 10
190.5930714607088
 20
123.4996196254859
 30
0.0
 10
191.0402341114553
 20
123.5425747481853
 30
0.0
 10
191.3777531304501
 20
123.5894114761071
 30
0.0
 10
191.5725953487906
 20
123.6235364234843
 30
0.0
 10
191.5732606850786
 20
123.6237076976869
 30
0.0
 10
191.573527471231
 20
123.6237763751156
 30
0.0
  0
LINE
  5
F7
330
1F
100
AcDbEntity
  8
0
  6
HIDDEN
 62
     7
370
     0
100
AcDbLine
 10
190.1836601697
 20
123.4931769281
 30
0.0
 11
189.8392576937
 21
123.4960578306
 31
0.0
  0
SPLINE
  5
F8
330
1F
100
AcDbEntity
  8
0
  6
HIDDEN
 62
     7
370
     0
100
AcDbSpline
210
0.0
220
0.0
230
1.0
 70
     8
 71
     3
 72
    12
 73
     8
 74
     0
 42
0.00000001
 43
0.00000001
 40
0.0
 40
0.0
 40
0.0
 40
0.0
 40
0.2021235209011175
 40
0.413519536299641
 40
0.6277626237174079
 40
0.843718011536197
 40
1.0
 40
1.0
 40
1.0
 40
1.0
 10
188.5955752904424
 20
123.6264566838761
 30
0.0
 10
188.6089183202857
 20
123.6239801131368
 30
0.0
 10
188.6362164966138
 20
123.6189133580201
 30
0.0
 10
188.8794247591168
 20
123.5780103974712
 30
0.0
 10
189.2484513626949
 20
123.5305636647903
 30
0.0
 10
189.6771647988585
 20
123.4960103538162
 30
0.0
 10
189.9693429415766
 20
123.4920718177774
 30
0.0
 10
190.0920124638736
 20
123.4904182432494
 30
0.0
  0
SPLINE
  5
F9
330
1F
100
AcDbEntity
  8
0
  6
HIDDEN
 62
     7
370
     0
100
AcDbSpline
210
0.0
220
0.0
230
1.0
 70
     8
 71
     3
 72
    17
 73
    13
 74
     0
 42
0.00000001
 43
0.00000001
 40
0.0
 40
0.0
 40
0.0
 40
0.0
 40
0.106190880945441
 40
0.2123412378758162
 40
0.3195490817514806
 40
0.4275259755454075
 40
0.534329967436738
 40
0.6398430340222571
 40
0.7459605046795332
 40
0.8536240385041454
 40
0.9613892449509333
 40
1.0
 40
1.0
 40
1.0
 40
1.0
 10
191.5920124638735
 20
107.027085590466
 30
0.0
 10
191.5757016948955
 20
107.0301132935733
 30
0.0
 10
191.5430863813709
 20
107.0361675443714
 30
0.0
 10
191.2891686770503
 20
107.0784349005974
 30
0.0
 10
190.9131140978666
 20
107.1262841652011
 30
0.0
 10
190.4393983065237
 20
107.1615529257498
 30
0.0
 10
189.9286164787565
 20
107.1673555523132
 30
0.0
 10
189.4404914350567
 20
107.1420916544051
 30
0.0
 10
189.0212816198994
 20
107.0963674293751
 30
0.0
 10
188.7291872657229
 20
107.0518208249474
 30
0.0
 10
188.5867269883205
 20
107.0261447294286
 30
0.0
 10
188.6062327939057
 20
107.0296355584604
 30
0.0
 10
188.6113779958487
 20
107.0305563622816
 30
0.0
  0
LINE
  5
FA
330
1F
100
AcDbEntity
  8
0
  6
HIDDEN
 62
     7
370
     0
100
AcDbLine
 10
198.5920124639
 20
107.3270855905
 30
0.0
 11
198.5920124639
 21
123.3270855905
 31
0.0
  0
SPLINE
  5
FB
330
1F
100
AcDbEntity
  8
0
  6
HIDDEN
 62
     7
370
     0
100
AcDbSpline
210
0.0
220
0.0
230
1.0
 70
     8
 71
     3
 72
    30
 73
    26
 74
     0
 42
0.00000001
 43
0.00000001
 40
0.0
 40
0.0
 40
0.0
 40
0.0
 40
0.0531447579665154
 40
0.1125253797070928
 40
0.1779224397070537
 40
0.2129463966916141
 40
0.2494993914503963
 40
0.2912650866605298
 40
0.3261073096871015
 40
0.354022348163082
 40
0.3750075548587654
 40
0.4414649788271262
 40
0.5001823658062133
 40
0.5546968713809364
 40
0.6144408573610235
 40
0.6794659595305471
 40
0.7140228346085675
 40
0.7499196792687122
 40
0.7913840356801273
 40
0.8260508483572612
 40
0.8539163335001698
 40
0.8749776390184555
 40
0.9411638662920824
 40
0.9999141571670612
 40
1.0
 40
1.0
 40
1.0
 40
1.0
 10
98.59155275325443
 20
78.22715870503419
 30
0.0
 10
98.57535580938773
 20
78.23205931199733
 30
0.0
 10
98.54106141557668
 20
78.24243555003893
 30
0.0
 10
98.23974205285889
 20
78.31808983765687
 30
0.0
 10
97.79757313237394
 20
78.41437616813757
 30
0.0
 10
97.3027404682802
 20
78.51404099607481
 30
0.0
 10
96.8322647786509
 20
78.6063191424061
 30
0.0
 10
96.30134336004849
 20
78.7019511751604
 30
0.0
 10
95.76319285648697
 20
78.78760141824571
 30
0.0
 10
95.30514552250312
 20
78.85489321125274
 30
0.0
 10
94.64958120128837
 20
78.94324138023335
 30
0.0
 10
93.76627476337154
 20
79.03989946447393
 30
0.0
 10
92.63761303054521
 20
79.12667464124323
 30
0.0
 10
91.54785128068623
 20
79.16475333896564
 30
0.0
 10
90.45182300218185
 20
79.16660377373763
 30
0.0
 10
89.54643175529623
 20
79.1404423181484
 30
0.0
 10
88.85012904499598
 20
79.10383509301086
 30
0.0
 10
88.32344931715411
 20
79.06481821754672
 30
0.0
 10
87.85680320252301
 20
79.02260909009941
 30
0.0
 10
87.4855879269214
 20
78.98560500055186
 30
0.0
 10
87.23154144931668
 20
78.95690424008703
 30
0.0
 10
86.93048629627975
 20
78.92052428947629
 30
0.0
 10
86.67500250132409
 20
78.88774412246399
 30
0.0
 10
86.57578177637309
 20
78.87140623775848
 30
0.0
 10
86.59206233365413
 20
78.87399982392613
 30
0.0
 10
86.59208608724008
 20
78.87400360800862
 30
0.0
  0
SPLINE
  5
FC
330
1F
100
AcDbEntity
  8
0
  6
HIDDEN
 62
     7
370
     0
100
AcDbSpline
210
0.0
220
0.0
230
1.0
 70
     8
 71
     3
 72
    30
 73
    26
 74
     0
 42
0.00000001
 43
0.00000001
 40
0.0
 40
0.0
 40
0.0
 40
0.0
 40
0.00011232880577
 40
0.0285431152740163
 40
0.0588466796165893
 40
0.0910271964581777
 40
0.1250880910051609
 40
0.1546766141359749
 40
0.1963554560347645
 40
0.2501101496291564
 40
0.3205253872367429
 40
0.3856104300224916
 40
0.4454038608875526
 40
0.4999571692315344
 40
0.5283494388454997
 40
0.5586340270215411
 40
0.5908185964941228
 40
0.6249094714580506
 40
0.6541844576010744
 40
0.6958630078793602
 40
0.7499307292179759
 40
0.821590528568654
 40
0.8871422909705703
 40
0.94663787488603
 40
1.0
 40
1.0
 40
1.0
 40
1.0
 10
86.59210779597336
 20
151.7800972994943
 30
0.0
 10
86.59207593621525
 20
151.7801042466206
 30
0.0
 10
86.58398026794737
 20
151.7818695340119
 30
0.0
 10
86.61264174561904
 20
151.7764146152851
 30
0.0
 10
86.68602859179914
 20
151.7658717679386
 30
0.0
 10
86.82968513535398
 20
151.7461865602868
 30
0.0
 10
87.03072083526806
 20
151.7213472964349
 30
0.0
 10
87.31335138446575
 20
151.687138831298
 30
0.0
 10
87.72676051001103
 20
151.6434589345385
 30
0.0
 10
88.40304801122761
 20
151.5804158670066
 30
0.0
 10
89.34147891219907
 20
151.5191186965783
 30
0.0
 10
90.45097212568265
 20
151.4878302530811
 30
0.0
 10
91.54845285637913
 20
151.4894854206763
 30
0.0
 10
92.44848409481673
 20
151.5207916227611
 30
0.0
 10
93.15982502063355
 20
151.5676247715533
 30
0.0
 10
93.7252419215928
 20
151.6147916334467
 30
0.0
 10
94.31416534445633
 20
151.6742306400006
 30
0.0
 10
94.87857499707067
 20
151.7405878466262
 30
0.0
 10
95.47277119112054
 20
151.8225072530709
 30
0.0
 10
96.13937935207097
 20
151.9241552358211
 30
0.0
 10
96.94071209767252
 20
152.0662941464129
 30
0.0
 10
97.69322208211561
 20
152.2175387171731
 30
0.0
 10
98.23850857708277
 20
152.3353895904341
 30
0.0
 10
98.54123010858628
 20
152.4116188221819
 30
0.0
 10
98.5755205592
 20
152.4220711316719
 30
0.0
 10
98.59173399585046
 20
152.42701326147
 30
0.0
  0
LINE
  5
FD
330
1F
100
AcDbEntity
  8
0
  6
HIDDEN
 62
     7
370
     0
100
AcDbLine
 10
167.6915821544
 20
109.3270855905
 30
0.0
 11
167.6915821544
 21
121.3270855905
 31
0.0
  0
LINE
  5
FE
330
1F
100
AcDbEntity
  8
0
  6
HIDDEN
 62
     7
370
     0
100
AcDbLine
 10
167.9920124639
 20
109.8270855905
 30
0.0
 11
167.9920124639
 21
120.8270855905
 31
0.0
  0
LINE
  5
FF
330
1F
100
AcDbEntity
  8
0
  6
HIDDEN
 62
     7
370
     0
100
AcDbLine
 10
149.5420124639
 20
133.2497353213
 30
0.0
 11
152.0420124639
 21
133.2497353213
 31
0.0
  0
LINE
  5
100
330
1F
100
AcDbEntity
  8
0
  6
HIDDEN
 62
     7
370
     0
100
AcDbLine
 10
147.0420124639
 20
133.2497353213
 30
0.0
 11
149.5420124639
 21
133.2497353213
 31
0.0
  0
LINE
  5
101
330
1F
100
AcDbEntity
  8
0
  6
HIDDEN
 62
     7
370
     0
100
AcDbLine
 10
152.0420124639
 20
97.4044358597
 30
0.0
 11
147.0420124639
 21
97.4044358597
 31
0.0
  0
LINE
  5
102
330
1F
100
AcDbEntity
  8
0
  6
HIDDEN
 62
     7
370
     0
100
AcDbLine
 10
149.5420124639
 20
124.8270855905
 30
0.0
 11
152.0420124639
 21
124.8270855905
 31
0.0
  0
LINE
  5
103
330
1F
100
AcDbEntity
  8
0
  6
HIDDEN
 62
     7
370
     0
100
AcDbLine
 10
147.0420124639
 20
124.8270855905
 30
0.0
 11
149.5420124639
 21
124.8270855905
 31
0.0
  0
LINE
  5
104
330
1F
100
AcDbEntity
  8
0
  6
HIDDEN
 62
     7
370
     0
100
AcDbLine
 10
152.0420124639
 20
105.8270855905
 30
0.0
 11
147.0420124639
 21
105.8270855905
 31
0.0
  0
SPLINE
  5
105
330
1F
100
AcDbEntity
  8
0
  6
HIDDEN
 62
     7
370
     0
100
AcDbSpline
210
0.0
220
0.0
230
1.0
 70
     8
 71
     3
 72
    20
 73
    16
 74
     0
 42
0.00000001
 43
0.00000001
 40
0.0
 40
0.0
 40
0.0
 40
0.0
 40
0.0837700074900119
 40
0.1671642956623866
 40
0.2832392399699925
 40
0.3419682516181144
 40
0.40216959666171
 40
0.468265638988321
 40
0.535031801647215
 40
0.5920958805130471
 40
0.6924889590539793
 40
0.7990475557046269
 40
0.8954755043762687
 40
0.992555180236629
 40
1.0
 40
1.0
 40
1.0
 40
1.0
 10
191.5920124638736
 20
126.883466064565
 30
0.0
 10
191.5837666859368
 20
126.8936260368851
 30
0.0
 10
191.5673121134438
 20
126.9139004127353
 30
0.0
 10
191.4361649821022
 20
127.0796555577391
 30
0.0
 10
191.2726391752084
 20
127.2991501923391
 30
0.0
 10
191.118312607541
 20
127.5414711256039
 30
0.0
 10
191.0062688884663
 20
127.7550193787862
 30
0.0
 10
190.9203951840499
 20
128.0072775915301
 30
0.0
 10
190.9159367779696
 20
128.2796875263205
 30
0.0
 10
191.0069750417902
 20
128.5767740683221
 30
0.0
 10
191.1822732158509
 20
128.8717743353319
 30
0.0
 10
191.3896599395784
 20
129.144724075464
 30
0.0
 10
191.5388152032139
 20
129.3239028452477
 30
0.0
 10
191.6045591978571
 20
129.4000377838083
 30
0.0
 10
191.5898415542951
 20
129.3828615693882
 30
0.0
 10
191.5887932813233
 20
129.3816381832354
 30
0.0
  0
SPLINE
  5
106
330
1F
100
AcDbEntity
  8
0
  6
HIDDEN
 62
     7
370
     0
100
AcDbSpline
210
0.0
220
0.0
230
1.0
 70
     8
 71
     3
 72
     9
 73
     5
 74
     0
 42
0.00000001
 43
0.00000001
 40
0.0
 40
0.0
 40
0.0
 40
0.0
 40
0.727743454378504
 40
1.0
 40
1.0
 40
1.0
 40
1.0
 10
188.601605054265
 20
129.3704112822296
 30
0.0
 10
188.6048979169123
 20
129.3700355099275
 30
0.0
 10
188.6094226744041
 20
129.3695191572214
 30
0.0
 10
188.6608940817068
 20
129.3928026969052
 30
0.0
 10
188.6749075092573
 20
129.3991417929894
 30
0.0
  0
SPLINE
  5
107
330
1F
100
AcDbEntity
  8
0
  6
HIDDEN
 62
     7
370
     0
100
AcDbSpline
210
0.0
220
0.0
230
1.0
 70
     8
 71
     3
 72
    18
 73
    14
 74
     0
 42
0.00000001
 43
0.00000001
 40
0.0
 40
0.0
 40
0.0
 40
0.0
 40
0.0515453819247541
 40
0.1416915078117902
 40
0.2391516983525425
 40
0.3558391244879002
 40
0.4675642173197973
 40
0.5384545751043147
 40
0.6098185345908395
 40
0.6961678669737138
 40
0.8353916622309796
 40
0.979468850561882
 40
1.0
 40
1.0
 40
1.0
 40
1.0
 10
188.6023090387844
 20
127.0133165387601
 30
0.0
 10
188.6006257055685
 20
127.0113510937288
 30
0.0
 10
188.5959984429
 20
127.0059483426074
 30
0.0
 10
188.6735696055979
 20
127.0964729322419
 30
0.0
 10
188.816707559796
 20
127.2704393520024
 30
0.0
 10
189.0117705301747
 20
127.5303636844597
 30
0.0
 10
189.1849791418079
 20
127.8256792344143
 30
0.0
 10
189.270918150995
 20
128.1242734031418
 30
0.0
 10
189.2585048529749
 20
128.410528592885
 30
0.0
 10
189.1322306974319
 20
128.7462219123467
 30
0.0
 10
188.9118111358369
 20
129.0900263623464
 30
0.0
 10
188.7458332950194
 20
129.3085984144174
 30
0.0
 10
188.682772864879
 20
129.3891009331808
 30
0.0
 10
188.6749075092573
 20
129.3991417929894
 30
0.0
  0
LINE
  5
108
330
1F
100
AcDbEntity
  8
0
  6
HIDDEN
 62
     7
370
     0
100
AcDbLine
 10
191.5920124639
 20
129.8270855905
 30
0.0
 11
188.5920124639
 21
129.8270855905
 31
0.0
  0
LWPOLYLINE
  5
109
330
1F
100
AcDbEntity
  8
0
  6
HIDDEN
 62
     7
370
     0
100
AcDbPolyline
 90
       15
 70
   128
 43
0.0
 10
191.5887932813
 20
101.2725329977
 10
191.5595953994
 20
101.3066240968
 10
191.4628909392
 20
101.4221256614
 10
191.2624534803
 20
101.6800603497
 10
191.0427003528
 20
102.0327106328
 10
190.9456769952
 20
102.2911053354
 10
190.9219751121
 20
102.5300216978
 10
190.9639480761
 20
102.7650344133
 10
191.114662546
 20
103.1000400631
 10
191.2399957204
 20
103.3004781152
 10
191.3657945835
 20
103.4785633947
 10
191.517412235
 20
103.6771283947
 10
191.5849227923
 20
103.7619034785
 10
191.5920124639
 20
103.7707051164
 10
191.5920124639
 20
103.7707051164
  0
LINE
  5
10A
330
1F
100
AcDbEntity
  8
0
  6
HIDDEN
 62
     7
370
     0
100
AcDbLine
 10
190.0920124639
 20
100.8270855905
 30
0.0
 11
191.5920124639
 21
100.8270855905
 31
0.0
  0
LINE
  5
10B
330
1F
100
AcDbEntity
  8
0
  6
HIDDEN
 62
     7
370
     0
100
AcDbLine
 10
188.5920124639
 20
100.8270855905
 30
0.0
 11
190.0920124639
 21
100.8270855905
 31
0.0
  0
SPLINE
  5
10C
330
1F
100
AcDbEntity
  8
0
  6
HIDDEN
 62
     7
370
     0
100
AcDbSpline
210
0.0
220
0.0
230
1.0
 70
     8
 71
     3
 72
     9
 73
     5
 74
     0
 42
0.00000001
 43
0.00000001
 40
0.0
 40
0.0
 40
0.0
 40
0.0
 40
0.8426281597195935
 40
1.0
 40
1.0
 40
1.0
 40
1.0
 10
188.6749075092573
 20
101.2550293879426
 30
0.0
 10
188.6309883366575
 20
101.2716772722196
 30
0.0
 10
188.5788666835971
 20
101.2914343668349
 30
0.0
 10
188.5985132395928
 20
101.2848034225995
 30
0.0
 10
188.601605054265
 20
101.2837598987024
 30
0.0
  0
SPLINE
  5
10D
330
1F
100
AcDbEntity
  8
0
  6
HIDDEN
 62
     7
370
     0
100
AcDbSpline
210
0.0
220
0.0
230
1.0
 70
     8
 71
     3
 72
    17
 73
    13
 74
     0
 42
0.00000001
 43
0.00000001
 40
0.0
 40
0.0
 40
0.0
 40
0.0
 40
0.1271062320541418
 40
0.2533275283183004
 40
0.3533701066891441
 40
0.4234657853460406
 40
0.4939500853902353
 40
0.5830110810835657
 40
0.7201916321427911
 40
0.8598523420662012
 40
0.955560291673834
 40
1.0
 40
1.0
 40
1.0
 40
1.0
 10
188.6749075092573
 20
101.2550293879425
 30
0.0
 10
188.73160512372
 20
101.3280063552443
 30
0.0
 10
188.8446056139499
 20
101.4734522114541
 30
0.0
 10
189.0591237170434
 20
101.7867099223422
 30
0.0
 10
189.213293649042
 20
102.0950799201295
 30
0.0
 10
189.2759512556885
 20
102.3854534828217
 30
0.0
 10
189.2433958419973
 20
102.6703627882059
 30
0.0
 10
189.0998190247104
 20
102.9930580871904
 30
0.0
 10
188.8720756655224
 20
103.3160778661322
 30
0.0
 10
188.6823278703031
 20
103.5476662638295
 30
0.0
 10
188.5931624740248
 20
103.6515084069782
 30
0.0
 10
188.6001069884581
 20
103.6434195533582
 30
0.0
 10
188.6023090387844
 20
103.6408546421719
 30
0.0
  0
LINE
  5
10E
330
1F
100
AcDbEntity
  8
0
  6
HIDDEN
 62
     7
370
     0
100
AcDbLine
 10
188.5807149184
 20
103.6523909136
 30
0.0
 11
188.6749075093
 21
101.2550293879
 31
0.0
  0
LINE
  5
10F
330
1F
100
AcDbEntity
  8
0
  6
HIDDEN
 62
     7
370
     0
100
AcDbLine
 10
188.5807149184
 20
127.0017802674
 30
0.0
 11
188.6749075093
 21
129.399141793
 31
0.0
  0
LWPOLYLINE
  5
110
330
1F
100
AcDbEntity
  8
0
  6
HIDDEN
 62
     7
370
     0
100
AcDbPolyline
 90
       30
 70
   128
 43
0.0
 10
116.5920124639
 20
160.6397914422
 10
117.6668646649
 20
160.6036682142
 10
118.6914579717
 20
160.4969876121
 10
119.6178835398
 20
160.3247379024
 10
120.4028227395
 20
160.09497329
 10
121.0095726861
 20
159.8184373128
 10
121.4097624265
 20
159.5080604858
 10
121.5846795331
 20
159.1783556844
 10
121.5261450766
 20
158.8447395388
 10
121.236896063
 20
158.522811569
 10
120.7304574547
 20
158.2276247693
 10
120.0305097581
 20
157.9729817461
 10
119.1697817498
 20
157.7707893244
 10
118.1885201146
 20
157.630501797
 10
117.132607556
 20
157.5586788528
 10
116.0514173718
 20
157.5586788528
 10
114.9955048132
 20
157.630501797
 10
114.014243178
 20
157.7707893244
 10
113.1535151696
 20
157.9729817461
 10
112.4535674731
 20
158.2276247693
 10
111.9471288648
 20
158.522811569
 10
111.6578798512
 20
158.8447395388
 10
111.5993453946
 20
159.1783556844
 10
111.7742625013
 20
159.5080604858
 10
112.1744522416
 20
159.8184373128
 10
112.7812021882
 20
160.09497329
 10
113.5661413879
 20
160.3247379024
 10
114.4925669561
 20
160.4969876121
 10
115.5171602628
 20
160.6036682142
 10
116.5920124639
 20
160.6397914422
  0
LINE
  5
111
330
1F
100
AcDbEntity
  8
0
  6
HIDDEN
 62
     7
370
     0
100
AcDbLine
 10
130.8540414848
 20
154.2780483514
 30
0.0
 11
130.8540414848
 21
146.6770855905
 31
0.0
  0
LINE
  5
112
330
1F
100
AcDbEntity
  8
0
  6
HIDDEN
 62
     7
370
     0
100
AcDbLine
 10
129.5020124639
 20
150.041320783
 30
0.0
 11
129.5020124639
 21
146.6770855905
 31
0.0
  0
LINE
  5
113
330
1F
100
AcDbEntity
  8
0
  6
HIDDEN
 62
     7
370
     0
100
AcDbLine
 10
125.6820124639
 20
150.041320783
 30
0.0
 11
125.6820124639
 21
146.6770855905
 31
0.0
  0
CIRCLE
  5
114
330
1F
100
AcDbEntity
  8
0
  6
HIDDEN
 62
     7
370
     0
100
AcDbCircle
 10
114.5920124639
 20
115.3270855905
 30
0.0
 40
5.000000000000014
  0
LINE
  5
115
330
1F
100
AcDbEntity
  8
0
  6
HIDDEN
 62
     7
370
     0
100
AcDbLine
 10
237.4007457066
 20
105.820728037
 30
0.0
 11
237.5064246987
 21
103.1310180785
 31
0.0
  0
LINE
  5
116
330
1F
100
AcDbEntity
  8
0
  6
HIDDEN
 62
     7
370
     0
100
AcDbLine
 10
232.0668079027
 20
105.6111570499
 30
0.0
 11
232.18458735
 21
102.6134699412
 31
0.0
  0
LINE
  5
117
330
1F
100
AcDbEntity
  8
0
  6
HIDDEN
 62
     7
370
     0
100
AcDbLine
 10
231.5868232925
 20
105.0919126239
 30
0.0
 11
231.665342924
 21
103.0934545514
 31
0.0
  0
LINE
  5
118
330
1F
100
AcDbEntity
  8
0
  6
HIDDEN
 62
     7
370
     0
100
AcDbLine
 10
237.5735799804
 20
105.5468022919
 30
0.0
 11
237.5920124639
 21
105.0776642594
 31
0.0
  0
LINE
  5
119
330
1F
100
AcDbEntity
  8
0
  6
HIDDEN
 62
     7
370
     0
100
AcDbLine
 10
235.6229992532
 20
104.2497228507
 30
0.0
 11
235.5935543914
 21
104.9991446279
 31
0.0
  0
LINE
  5
11A
330
1F
100
AcDbEntity
  8
0
  6
HIDDEN
 62
     7
370
     0
100
AcDbLine
 10
235.6229992532
 20
104.2497228507
 30
0.0
 11
237.6214573257
 21
104.3282424822
 31
0.0
  0
LINE
  5
11B
330
1F
100
AcDbEntity
  8
0
  6
HIDDEN
 62
     7
370
     0
100
AcDbLine
 10
235.652444115
 20
103.5003010735
 30
0.0
 11
235.6229992532
 21
104.2497228507
 31
0.0
  0
LINE
  5
11C
330
1F
100
AcDbEntity
  8
0
  6
HIDDEN
 62
     7
370
     0
100
AcDbLine
 10
235.5935543914
 20
104.9991446279
 30
0.0
 11
237.5920124639
 21
105.0776642594
 31
0.0
  0
LINE
  5
11D
330
1F
100
AcDbEntity
  8
0
  6
HIDDEN
 62
     7
370
     0
100
AcDbLine
 10
235.652444115
 20
103.5003010735
 30
0.0
 11
237.6509021875
 21
103.5788207051
 31
0.0
  0
LINE
  5
11E
330
1F
100
AcDbEntity
  8
0
  6
HIDDEN
 62
     7
370
     0
100
AcDbLine
 10
237.4540711152
 20
127.6918227612
 30
0.0
 11
237.341855983
 21
124.8357569275
 31
0.0
  0
LINE
  5
11F
330
1F
100
AcDbEntity
  8
0
  6
HIDDEN
 62
     7
370
     0
100
AcDbLine
 10
232.1178078994
 20
127.8422080633
 30
0.0
 11
232.0079181791
 21
125.0453279146
 31
0.0
  0
LINE
  5
120
330
1F
100
AcDbEntity
  8
0
  6
HIDDEN
 62
     7
370
     0
100
AcDbLine
 10
232.1256976264
 20
128.0430150233
 30
0.0
 11
232.1178078994
 21
127.8422080633
 31
0.0
  0
LINE
  5
121
330
1F
100
AcDbEntity
  8
0
  6
HIDDEN
 62
     7
370
     0
100
AcDbLine
 10
237.5899770883
 20
127.025860492
 30
0.0
 11
237.5146902567
 21
125.1096826725
 31
0.0
  0
LINE
  5
122
330
1F
100
AcDbEntity
  8
0
  6
HIDDEN
 62
     7
370
     0
100
AcDbLine
 10
231.6011933824
 20
127.4291591064
 30
0.0
 11
231.5279335689
 21
125.5645723406
 31
0.0
  0
LINE
  5
123
330
1F
100
AcDbEntity
  8
0
  6
HIDDEN
 62
     7
370
     0
100
AcDbLine
 10
231.6064532004
 20
127.563030413
 30
0.0
 11
231.6011933824
 21
127.4291591064
 31
0.0
  0
LINE
  5
124
330
1F
100
AcDbEntity
  8
0
  6
HIDDEN
 62
     7
370
     0
100
AcDbLine
 10
235.5641095296
 20
126.4067621138
 30
0.0
 11
235.5935543914
 21
127.1561838909
 31
0.0
  0
LINE
  5
125
330
1F
100
AcDbEntity
  8
0
  6
HIDDEN
 62
     7
370
     0
100
AcDbLine
 10
235.5641095296
 20
126.4067621138
 30
0.0
 11
235.5346646678
 21
125.6573403366
 31
0.0
  0
LINE
  5
126
330
1F
100
AcDbEntity
  8
0
  6
HIDDEN
 62
     7
370
     0
100
AcDbLine
 10
235.5641095296
 20
126.4067621138
 30
0.0
 11
237.5625676021
 21
126.3282424822
 31
0.0
  0
LINE
  5
127
330
1F
100
AcDbEntity
  8
0
  6
HIDDEN
 62
     7
370
     0
100
AcDbLine
 10
235.5346646678
 20
125.6573403366
 30
0.0
 11
237.5331227402
 21
125.5788207051
 31
0.0
  0
LINE
  5
128
330
1F
100
AcDbEntity
  8
0
  6
HIDDEN
 62
     7
370
     0
100
AcDbLine
 10
235.5935543914
 20
127.1561838909
 30
0.0
 11
237.5920124639
 21
127.0776642594
 31
0.0
  0
LINE
  5
129
330
1F
100
AcDbEntity
  8
0
  6
HIDDEN
 62
     7
370
     0
100
AcDbLine
 10
187.5920124639
 20
109.3270855905
 30
0.0
 11
187.5920124639
 21
121.3270855905
 31
0.0
  0
LINE
  5
12A
330
1F
100
AcDbEntity
  8
0
  6
HIDDEN
 62
     7
370
     0
100
AcDbLine
 10
172.5920124639
 20
109.3270855905
 30
0.0
 11
172.5920124639
 21
121.3270855905
 31
0.0
  0
LINE
  5
12B
330
1F
100
AcDbEntity
  8
0
  6
HIDDEN
 62
     7
370
     0
100
AcDbLine
 10
172.0920124639
 20
109.8270855905
 30
0.0
 11
172.0920124639
 21
120.8270855905
 31
0.0
  0
LINE
  5
12C
330
1F
100
AcDbEntity
  8
0
  6
HIDDEN
 62
     7
370
     0
100
AcDbLine
 10
192.0920124639
 20
113.8270855905
 30
0.0
 11
190.0920124639
 21
113.8270855905
 31
0.0
  0
LINE
  5
12D
330
1F
100
AcDbEntity
  8
0
  6
HIDDEN
 62
     7
370
     0
100
AcDbLine
 10
192.0920124639
 20
109.8270855905
 30
0.0
 11
192.0920124639
 21
113.8270855905
 31
0.0
  0
LINE
  5
12E
330
1F
100
AcDbEntity
  8
0
  6
HIDDEN
 62
     7
370
     0
100
AcDbLine
 10
192.0920124639
 20
116.8270855905
 30
0.0
 11
192.0920124639
 21
120.8270855905
 31
0.0
  0
LINE
  5
12F
330
1F
100
AcDbEntity
  8
0
  6
HIDDEN
 62
     7
370
     0
100
AcDbLine
 10
190.0920124639
 20
116.8270855905
 30
0.0
 11
192.0920124639
 21
116.8270855905
 31
0.0
  0
LINE
  5
130
330
1F
100
AcDbEntity
  8
0
  6
HIDDEN
 62
     7
370
     0
100
AcDbLine
 10
190.0920124639
 20
113.8270855905
 30
0.0
 11
190.0920124639
 21
116.8270855905
 31
0.0
  0
LINE
  5
131
330
1F
100
AcDbEntity
  8
0
  6
HIDDEN
 62
     7
370
     0
100
AcDbLine
 10
185.0920124639
 20
116.8270855905
 30
0.0
 11
185.0920124639
 21
115.3270855905
 31
0.0
  0
LINE
  5
132
330
1F
100
AcDbEntity
  8
0
  6
HIDDEN
 62
     7
370
     0
100
AcDbLine
 10
179.0920124638
 20
113.8270855905
 30
0.0
 11
179.0920124638
 21
115.3270855905
 31
0.0
  0
LINE
  5
133
330
1F
100
AcDbEntity
  8
0
  6
HIDDEN
 62
     7
370
     0
100
AcDbLine
 10
179.0920124638
 20
115.3270855905
 30
0.0
 11
179.0920124638
 21
116.8270855905
 31
0.0
  0
LINE
  5
134
330
1F
100
AcDbEntity
  8
0
  6
HIDDEN
 62
     7
370
     0
100
AcDbLine
 10
179.0920124638
 20
115.3270855905
 30
0.0
 11
172.0920124639
 21
115.3270855905
 31
0.0
  0
LINE
  5
135
330
1F
100
AcDbEntity
  8
0
  6
HIDDEN
 62
     7
370
     0
100
AcDbLine
 10
185.0920124639
 20
115.3270855905
 30
0.0
 11
185.0920124639
 21
113.8270855905
 31
0.0
  0
LINE
  5
136
330
1F
100
AcDbEntity
  8
0
  6
HIDDEN
 62
     7
370
     0
100
AcDbLine
 10
185.0920124639
 20
115.3270855905
 30
0.0
 11
190.0920124639
 21
115.3270855905
 31
0.0
  0
LINE
  5
137
330
1F
100
AcDbEntity
  8
0
  6
HIDDEN
 62
     7
370
     0
100
AcDbLine
 10
185.0920124639
 20
113.8270855905
 30
0.0
 11
185.0920124639
 21
112.3270855905
 31
0.0
  0
LINE
  5
138
330
1F
100
AcDbEntity
  8
0
  6
HIDDEN
 62
     7
370
     0
100
AcDbLine
 10
179.0920124638
 20
112.3270855905
 30
0.0
 11
179.0920124638
 21
113.8270855905
 31
0.0
  0
LINE
  5
139
330
1F
100
AcDbEntity
  8
0
  6
HIDDEN
 62
     7
370
     0
100
AcDbLine
 10
185.0920124639
 20
118.3270855905
 30
0.0
 11
185.0920124639
 21
116.8270855905
 31
0.0
  0
LINE
  5
13A
330
1F
100
AcDbEntity
  8
0
  6
HIDDEN
 62
     7
370
     0
100
AcDbLine
 10
179.0920124638
 20
116.8270855905
 30
0.0
 11
179.0920124638
 21
118.3270855905
 31
0.0
  0
LINE
  5
13B
330
1F
100
AcDbEntity
  8
0
  6
HIDDEN
 62
     7
370
     0
100
AcDbLine
 10
185.0920124639
 20
118.3270855905
 30
0.0
 11
192.0920124639
 21
118.3270855905
 31
0.0
  0
LINE
  5
13C
330
1F
100
AcDbEntity
  8
0
  6
HIDDEN
 62
     7
370
     0
100
AcDbLine
 10
179.0920124638
 20
118.3270855905
 30
0.0
 11
172.0920124638
 21
118.3270855905
 31
0.0
  0
LINE
  5
13D
330
1F
100
AcDbEntity
  8
0
  6
HIDDEN
 62
     7
370
     0
100
AcDbLine
 10
185.0920124639
 20
112.3270855905
 30
0.0
 11
192.0920124639
 21
112.3270855905
 31
0.0
  0
LINE
  5
13E
330
1F
100
AcDbEntity
  8
0
  6
HIDDEN
 62
     7
370
     0
100
AcDbLine
 10
179.0920124638
 20
112.3270855905
 30
0.0
 11
172.0920124638
 21
112.3270855905
 31
0.0
  0
LINE
  5
13F
330
1F
100
AcDbEntity
  8
0
  6
HIDDEN
 62
     7
370
     0
100
AcDbLine
 10
107.5920124639
 20
75.9224026339
 30
0.0
 11
107.6816140878
 21
76.5599513158
 31
0.0
  0
LINE
  5
140
330
1F
100
AcDbEntity
  8
0
  6
HIDDEN
 62
     7
370
     0
100
AcDbLine
 10
107.6816140878
 20
154.0942198651
 30
0.0
 11
107.5920124639
 21
154.7317685471
 31
0.0
  0
ARC
  5
141
330
1F
100
AcDbEntity
  8
0
  6
HIDDEN
 62
     7
370
     0
100
AcDbCircle
 10
106.6950755454
 20
76.698600266
 30
0.0
 40
0.9962338214386932
100
AcDbArc
 50
352.0
 51
0.0
  0
ARC
  5
142
330
1F
100
AcDbEntity
  8
0
  6
HIDDEN
 62
     7
370
     0
100
AcDbCircle
 10
106.6950755454
 20
76.698600266
 30
0.0
 40
0.9962338214386932
100
AcDbArc
 50
0.0
 51
25.7988228126
  0
ARC
  5
143
330
1F
100
AcDbEntity
  8
0
  6
HIDDEN
 62
     7
370
     0
100
AcDbCircle
 10
106.6950755454
 20
153.9555709149
 30
0.0
 40
0.9962338214386901
100
AcDbArc
 50
348.75
 51
8.0
  0
LWPOLYLINE
  5
144
330
1F
100
AcDbEntity
  8
0
  6
HIDDEN
 62
     7
370
     0
100
AcDbPolyline
 90
        3
 70
   128
 43
0.0
 10
107.6721670133
 20
153.7612153379
 10
107.6154755826
 20
153.5743287367
 10
107.5920124639
 20
153.5219974018
  0
LINE
  5
145
330
1F
100
AcDbEntity
  8
0
  6
HIDDEN
 62
     7
370
     0
100
AcDbLine
 10
107.6913093669
 20
76.698600266
 30
0.0
 11
107.6913093669
 21
153.9555709149
 31
0.0
  0
LINE
  5
146
330
1F
100
AcDbEntity
  8
0
  6
HIDDEN
 62
     7
370
     0
100
AcDbLine
 10
81.052738406
 20
83.8270855905
 30
0.0
 11
86.5971828378
 21
83.8270855905
 31
0.0
  0
LINE
  5
147
330
1F
100
AcDbEntity
  8
0
  6
HIDDEN
 62
     7
370
     0
100
AcDbLine
 10
86.5971828378
 20
146.8270855905
 30
0.0
 11
81.052738406
 21
146.8270855905
 31
0.0
  0
ARC
  5
148
330
1F
100
AcDbEntity
  8
0
  6
HIDDEN
 62
     7
370
     0
100
AcDbCircle
 10
81.052738406
 20
84.8270855905
 30
0.0
 40
1.000000000000008
100
AcDbArc
 50
210.0
 51
270.0
  0
ARC
  5
149
330
1F
100
AcDbEntity
  8
0
  6
HIDDEN
 62
     7
370
     0
100
AcDbCircle
 10
81.052738406
 20
145.8270855905
 30
0.0
 40
1.000000000000008
100
AcDbArc
 50
90.0
 51
150.0
  0
ARC
  5
14A
330
1F
100
AcDbEntity
  8
0
  6
HIDDEN
 62
     7
370
     0
100
AcDbCircle
 10
97.8452181191
 20
95.8270855905
 30
0.0
 40
12.0
100
AcDbArc
 50
273.4750678888
 51
324.3146652873
  0
ARC
  5
14B
330
1F
100
AcDbEntity
  8
0
  6
HIDDEN
 62
     7
370
     0
100
AcDbCircle
 10
97.8452181191
 20
134.8270855905
 30
0.0
 40
12.0
100
AcDbArc
 50
35.6853347127
 51
86.5284337865
  0
LINE
  5
14C
330
1F
100
AcDbEntity
  8
0
  6
HIDDEN
 62
     7
370
     0
100
AcDbLine
 10
80.1867130023
 20
146.3270855905
 30
0.0
 11
77.5886367909
 21
141.8270855905
 31
0.0
  0
LINE
  5
14D
330
1F
100
AcDbEntity
  8
0
  6
HIDDEN
 62
     7
370
     0
100
AcDbLine
 10
77.5886367909
 20
88.8270855905
 30
0.0
 11
80.1867130023
 21
84.3270855905
 31
0.0
  0
ARC
  5
14E
330
1F
100
AcDbEntity
  8
0
  6
HIDDEN
 62
     7
370
     0
100
AcDbCircle
 10
118.0420124639
 20
90.4520855905
 30
0.0
 40
2.000000000000015
100
AcDbArc
 50
234.3409123039
 51
0.0
  0
ARC
  5
14F
330
1F
100
AcDbEntity
  8
0
  6
HIDDEN
 62
     7
370
     0
100
AcDbCircle
 10
118.0420124639
 20
140.2020855905
 30
0.0
 40
2.000000000000014
100
AcDbArc
 50
0.0
 51
125.6590876961
  0
LINE
  5
150
330
1F
100
AcDbEntity
  8
0
  6
HIDDEN
 62
     7
370
     0
100
AcDbLine
 10
107.5920124639
 20
88.8270855905
 30
0.0
 11
116.8760900822
 21
88.8270855905
 31
0.0
  0
LINE
  5
151
330
1F
100
AcDbEntity
  8
0
  6
HIDDEN
 62
     7
370
     0
100
AcDbLine
 10
116.8760900822
 20
141.8270855905
 30
0.0
 11
107.5920124639
 21
141.8270855905
 31
0.0
  0
LINE
  5
152
330
1F
100
AcDbEntity
  8
0
  6
HIDDEN
 62
     7
370
     0
100
AcDbLine
 10
72.7920124639
 20
88.8270855905
 30
0.0
 11
77.5886367909
 21
88.8270855905
 31
0.0
  0
LINE
  5
153
330
1F
100
AcDbEntity
  8
0
  6
HIDDEN
 62
     7
370
     0
100
AcDbLine
 10
77.5886367909
 20
141.8270855905
 30
0.0
 11
67.7920124639
 21
141.8270855905
 31
0.0
  0
LINE
  5
154
330
1F
100
AcDbEntity
  8
0
  6
HIDDEN
 62
     7
370
     0
100
AcDbLine
 10
111.5920124639
 20
161.004147228
 30
0.0
 11
111.5920124639
 21
157.3044993691
 31
0.0
  0
LINE
  5
155
330
1F
100
AcDbEntity
  8
0
  6
HIDDEN
 62
     7
370
     0
100
AcDbLine
 10
121.5920124639
 20
157.3044993691
 30
0.0
 11
121.5920124639
 21
160.9986389696
 31
0.0
  0
LINE
  5
156
330
1F
100
AcDbEntity
  8
0
  6
HIDDEN
 62
     7
370
     0
100
AcDbLine
 10
237.3988455926
 20
102.8183387055
 30
0.0
 11
237.4993987391
 21
103.0743039444
 31
0.0
  0
LINE
  5
157
330
1F
100
AcDbEntity
  8
0
  6
HIDDEN
 62
     7
370
     0
100
AcDbLine
 10
237.5012619579
 20
127.5739272811
 30
0.0
 11
237.3988455926
 21
127.8358324754
 31
0.0
  0
LINE
  5
158
330
1F
100
AcDbEntity
  8
0
  6
HIDDEN
 62
     7
370
     0
100
AcDbLine
 10
131.8920124639
 20
102.3270855905
 30
0.0
 11
135.8920124639
 21
102.3270855905
 31
0.0
  0
LINE
  5
159
330
1F
100
AcDbEntity
  8
0
  6
HIDDEN
 62
     7
370
     0
100
AcDbLine
 10
135.8920124639
 20
128.3270855905
 30
0.0
 11
131.8920124639
 21
128.3270855905
 31
0.0
  0
LINE
  5
15A
330
1F
100
AcDbEntity
  8
0
  6
HIDDEN
 62
     7
370
     0
100
AcDbLine
 10
120.0420124639
 20
103.3270855905
 30
0.0
 11
120.7920124639
 21
104.0770855905
 31
0.0
  0
LINE
  5
15B
330
1F
100
AcDbEntity
  8
0
  6
HIDDEN
 62
     7
370
     0
100
AcDbLine
 10
120.7920124639
 20
126.5770855905
 30
0.0
 11
120.0420124639
 21
127.3270855905
 31
0.0
  0
LINE
  5
15C
330
1F
100
AcDbEntity
  8
0
  6
HIDDEN
 62
     7
370
     0
100
AcDbLine
 10
120.7920124639
 20
104.0770855905
 30
0.0
 11
131.8920124639
 21
104.0770855905
 31
0.0
  0
LINE
  5
15D
330
1F
100
AcDbEntity
  8
0
  6
HIDDEN
 62
     7
370
     0
100
AcDbLine
 10
131.8920124639
 20
126.5770855905
 30
0.0
 11
120.7920124639
 21
126.5770855905
 31
0.0
  0
LINE
  5
15E
330
1F
100
AcDbEntity
  8
0
  6
HIDDEN
 62
     7
370
     0
100
AcDbLine
 10
112.5420124639
 20
165.3270855905
 30
0.0
 11
112.5420124639
 21
159.2270855905
 31
0.0
  0
ARC
  5
15F
330
1F
100
AcDbEntity
  8
0
  6
HIDDEN
 62
     7
370
     0
100
AcDbCircle
 10
237.0920124639
 20
106.2903913424
 30
0.0
 40
0.5
100
AcDbArc
 50
0.0
 51
80.0
  0
ARC
  5
160
330
1F
100
AcDbEntity
  8
0
  6
HIDDEN
 62
     7
370
     0
100
AcDbCircle
 10
237.0920124639
 20
124.3637798385
 30
0.0
 40
0.5000000000000105
100
AcDbArc
 50
280.0
 51
0.0
  0
LINE
  5
161
330
1F
100
AcDbEntity
  8
0
  6
HIDDEN
 62
     7
370
     0
100
AcDbLine
 10
237.1788365527
 20
123.871375962
 30
0.0
 11
234.0920124639
 21
123.3270855905
 31
0.0
  0
LINE
  5
162
330
1F
100
AcDbEntity
  8
0
  6
HIDDEN
 62
     7
370
     0
100
AcDbLine
 10
234.0920124639
 20
107.3270855905
 30
0.0
 11
237.1788365527
 21
106.7827952189
 31
0.0
  0
ARC
  5
163
330
1F
100
AcDbEntity
  8
0
  6
HIDDEN
 62
     7
370
     0
100
AcDbCircle
 10
188.4920124639
 20
107.4270855905
 30
0.0
 40
0.4000000000000341
100
AcDbArc
 50
180.0
 51
270.0
  0
ARC
  5
164
330
1F
100
AcDbEntity
  8
0
  6
HIDDEN
 62
     7
370
     0
100
AcDbCircle
 10
188.4920124639
 20
123.2270855905
 30
0.0
 40
0.4000000000000341
100
AcDbArc
 50
90.0
 51
180.0
  0
LINE
  5
165
330
1F
100
AcDbEntity
  8
0
  6
HIDDEN
 62
     7
370
     0
100
AcDbLine
 10
191.5920124639
 20
107.0270855905
 30
0.0
 11
197.6972384458
 21
107.0270855905
 31
0.0
  0
LINE
  5
166
330
1F
100
AcDbEntity
  8
0
  6
HIDDEN
 62
     7
370
     0
100
AcDbLine
 10
188.4920124639
 20
107.0270855905
 30
0.0
 11
188.6113779958
 21
107.0270855905
 31
0.0
  0
LINE
  5
167
330
1F
100
AcDbEntity
  8
0
  6
HIDDEN
 62
     7
370
     0
100
AcDbLine
 10
188.5955752904
 20
123.6270855905
 30
0.0
 11
188.4920124639
 21
123.6270855905
 31
0.0
  0
LINE
  5
168
330
1F
100
AcDbEntity
  8
0
  6
HIDDEN
 62
     7
370
     0
100
AcDbLine
 10
197.6972384458
 20
123.6270855905
 30
0.0
 11
191.5735274712
 21
123.6270855905
 31
0.0
  0
ARC
  5
169
330
1F
100
AcDbEntity
  8
0
  6
HIDDEN
 62
     7
370
     0
100
AcDbCircle
 10
197.6972384458
 20
107.4270855905
 30
0.0
 40
0.4000000000000057
100
AcDbArc
 50
270.0
 51
290.0
  0
ARC
  5
16A
330
1F
100
AcDbEntity
  8
0
  6
HIDDEN
 62
     7
370
     0
100
AcDbCircle
 10
197.6972384458
 20
123.2270855905
 30
0.0
 40
0.4000000000000057
100
AcDbArc
 50
70.0
 51
90.0
  0
LINE
  5
16B
330
1F
100
AcDbEntity
  8
0
  6
HIDDEN
 62
     7
370
     0
100
AcDbLine
 10
197.8340465031
 20
107.0512085422
 30
0.0
 11
198.5920124639
 21
107.3270855905
 31
0.0
  0
LINE
  5
16C
330
1F
100
AcDbEntity
  8
0
  6
HIDDEN
 62
     7
370
     0
100
AcDbLine
 10
198.5920124639
 20
123.3270855905
 30
0.0
 11
197.8340465031
 21
123.6029626388
 31
0.0
  0
LINE
  5
16D
330
1F
100
AcDbEntity
  8
0
  6
HIDDEN
 62
     7
370
     0
100
AcDbLine
 10
198.5920124639
 20
107.3270855905
 30
0.0
 11
234.0920124639
 21
107.3270855905
 31
0.0
  0
LINE
  5
16E
330
1F
100
AcDbEntity
  8
0
  6
HIDDEN
 62
     7
370
     0
100
AcDbLine
 10
234.0920124639
 20
123.3270855905
 30
0.0
 11
198.5920124639
 21
123.3270855905
 31
0.0
  0
LINE
  5
16F
330
1F
100
AcDbEntity
  8
0
  6
HIDDEN
 62
     7
370
     0
100
AcDbLine
 10
99.0247250799
 20
77.7488060199
 30
0.0
 11
98.5920157934
 21
78.2270307372
 31
0.0
  0
LINE
  5
170
330
1F
100
AcDbEntity
  8
0
  6
HIDDEN
 62
     7
370
     0
100
AcDbLine
 10
86.5920129219
 20
78.8739920939
 30
0.0
 11
86.1113856167
 21
78.3957673831
 31
0.0
  0
LINE
  5
171
330
1F
100
AcDbEntity
  8
0
  6
HIDDEN
 62
     7
370
     0
100
AcDbLine
 10
86.1112672752
 20
152.2583978817
 30
0.0
 11
86.5920127392
 21
151.7801182098
 31
0.0
  0
LINE
  5
172
330
1F
100
AcDbEntity
  8
0
  6
HIDDEN
 62
     7
370
     0
100
AcDbLine
 10
98.592012466
 20
152.4270905972
 30
0.0
 11
99.0248341357
 21
152.9053702701
 31
0.0
  0
LINE
  5
173
330
1F
100
AcDbEntity
  8
0
  6
HIDDEN
 62
     7
370
     0
100
AcDbLine
 10
98.5920124639
 20
78.1269018947
 30
0.0
 11
98.5920124639
 21
83.8530206965
 31
0.0
  0
LINE
  5
174
330
1F
100
AcDbEntity
  8
0
  6
HIDDEN
 62
     7
370
     0
100
AcDbLine
 10
86.5920124639
 20
83.8280697898
 30
0.0
 11
86.5920124639
 21
78.8740305084
 31
0.0
  0
LINE
  5
175
330
1F
100
AcDbEntity
  8
0
  6
HIDDEN
 62
     7
370
     0
100
AcDbLine
 10
98.5920124639
 20
146.8011504844
 30
0.0
 11
98.5920124639
 21
152.5270944232
 31
0.0
  0
LINE
  5
176
330
1F
100
AcDbEntity
  8
0
  6
HIDDEN
 62
     7
370
     0
100
AcDbLine
 10
86.5920124639
 20
151.7801077106
 30
0.0
 11
86.5920124639
 21
146.8261013911
 31
0.0
  0
LINE
  5
177
330
1F
100
AcDbEntity
  8
0
  6
HIDDEN
 62
     7
370
     0
100
AcDbLine
 10
188.0920124639
 20
121.3270855905
 30
0.0
 11
187.5920124639
 21
120.8270855905
 31
0.0
  0
LINE
  5
178
330
1F
100
AcDbEntity
  8
0
  6
HIDDEN
 62
     7
370
     0
100
AcDbLine
 10
187.5920124639
 20
109.8270855905
 30
0.0
 11
188.0920124639
 21
109.3270855905
 31
0.0
  0
LINE
  5
179
330
1F
100
AcDbEntity
  8
0
  6
HIDDEN
 62
     7
370
     0
100
AcDbLine
 10
167.6915821544
 20
109.3270855905
 30
0.0
 11
167.9920124639
 21
109.8270855905
 31
0.0
  0
LINE
  5
17A
330
1F
100
AcDbEntity
  8
0
  6
HIDDEN
 62
     7
370
     0
100
AcDbLine
 10
167.9920124639
 20
120.8270855905
 30
0.0
 11
167.6915821544
 21
121.3270855905
 31
0.0
  0
LINE
  5
17B
330
1F
100
AcDbEntity
  8
0
  6
HIDDEN
 62
     7
370
     0
100
AcDbLine
 10
135.8920124639
 20
109.3270855905
 30
0.0
 11
167.6915821544
 21
109.3270855905
 31
0.0
  0
LINE
  5
17C
330
1F
100
AcDbEntity
  8
0
  6
HIDDEN
 62
     7
370
     0
100
AcDbLine
 10
167.6915821544
 20
121.3270855905
 30
0.0
 11
135.8920124639
 21
121.3270855905
 31
0.0
  0
LINE
  5
17D
330
1F
100
AcDbEntity
  8
0
  6
HIDDEN
 62
     7
370
     0
100
AcDbLine
 10
167.9920124639
 20
109.8270855905
 30
0.0
 11
187.5920124639
 21
109.8270855905
 31
0.0
  0
LINE
  5
17E
330
1F
100
AcDbEntity
  8
0
  6
HIDDEN
 62
     7
370
     0
100
AcDbLine
 10
187.5920124639
 20
120.8270855905
 30
0.0
 11
167.9920124639
 21
120.8270855905
 31
0.0
  0
LINE
  5
17F
330
1F
100
AcDbEntity
  8
0
  6
HIDDEN
 62
     7
370
     0
100
AcDbLine
 10
146.0420124639
 20
133.8270855905
 30
0.0
 11
147.0420124639
 21
133.2497353213
 31
0.0
  0
LINE
  5
180
330
1F
100
AcDbEntity
  8
0
  6
HIDDEN
 62
     7
370
     0
100
AcDbLine
 10
152.0420124639
 20
133.2497353213
 30
0.0
 11
153.0420124639
 21
133.8270855905
 31
0.0
  0
LINE
  5
181
330
1F
100
AcDbEntity
  8
0
  6
HIDDEN
 62
     7
370
     0
100
AcDbLine
 10
153.0420124639
 20
96.8270855905
 30
0.0
 11
152.0420124639
 21
97.4044358597
 31
0.0
  0
LINE
  5
182
330
1F
100
AcDbEntity
  8
0
  6
HIDDEN
 62
     7
370
     0
100
AcDbLine
 10
147.0420124639
 20
97.4044358597
 30
0.0
 11
146.0420124639
 21
96.8270855905
 31
0.0
  0
LINE
  5
183
330
1F
100
AcDbEntity
  8
0
  6
HIDDEN
 62
     7
370
     0
100
AcDbLine
 10
147.0420124639
 20
133.2497353213
 30
0.0
 11
147.0420124639
 21
124.8270855905
 31
0.0
  0
LINE
  5
184
330
1F
100
AcDbEntity
  8
0
  6
HIDDEN
 62
     7
370
     0
100
AcDbLine
 10
152.0420124639
 20
124.8270855905
 30
0.0
 11
152.0420124639
 21
133.2497353213
 31
0.0
  0
LINE
  5
185
330
1F
100
AcDbEntity
  8
0
  6
HIDDEN
 62
     7
370
     0
100
AcDbLine
 10
147.0420124639
 20
124.8270855905
 30
0.0
 11
149.5420124639
 21
123.3249340429
 31
0.0
  0
LINE
  5
186
330
1F
100
AcDbEntity
  8
0
  6
HIDDEN
 62
     7
370
     0
100
AcDbLine
 10
149.5420124639
 20
123.3249340429
 30
0.0
 11
152.0420124639
 21
124.8270855905
 31
0.0
  0
LINE
  5
187
330
1F
100
AcDbEntity
  8
0
  6
HIDDEN
 62
     7
370
     0
100
AcDbLine
 10
152.0420124639
 20
97.4044358597
 30
0.0
 11
152.0420124639
 21
105.8270855905
 31
0.0
  0
LINE
  5
188
330
1F
100
AcDbEntity
  8
0
  6
HIDDEN
 62
     7
370
     0
100
AcDbLine
 10
147.0420124639
 20
105.8270855905
 30
0.0
 11
147.0420124639
 21
97.4044358597
 31
0.0
  0
LINE
  5
189
330
1F
100
AcDbEntity
  8
0
  6
HIDDEN
 62
     7
370
     0
100
AcDbLine
 10
152.0420124639
 20
105.8270855905
 30
0.0
 11
149.5420124639
 21
107.329237138
 31
0.0
  0
LINE
  5
18A
330
1F
100
AcDbEntity
  8
0
  6
HIDDEN
 62
     7
370
     0
100
AcDbLine
 10
149.5420124639
 20
107.329237138
 30
0.0
 11
147.0420124639
 21
105.8270855905
 31
0.0
  0
LINE
  5
18B
330
1F
100
AcDbEntity
  8
0
  6
HIDDEN
 62
     7
370
     0
100
AcDbLine
 10
188.5920124639
 20
127.0133165388
 30
0.0
 11
188.5920124639
 21
123.6264705895
 31
0.0
  0
LINE
  5
18C
330
1F
100
AcDbEntity
  8
0
  6
HIDDEN
 62
     7
370
     0
100
AcDbLine
 10
188.5920124639
 20
129.8270855905
 30
0.0
 11
188.5920124639
 21
129.3704112822
 31
0.0
  0
LINE
  5
18D
330
1F
100
AcDbEntity
  8
0
  6
HIDDEN
 62
     7
370
     0
100
AcDbLine
 10
191.5920124639
 20
129.3816381832
 30
0.0
 11
191.5920124639
 21
129.8270855905
 31
0.0
  0
LINE
  5
18E
330
1F
100
AcDbEntity
  8
0
  6
HIDDEN
 62
     7
370
     0
100
AcDbLine
 10
191.5920124639
 20
123.6237877879
 30
0.0
 11
191.5920124639
 21
126.8834660646
 31
0.0
  0
LINE
  5
18F
330
1F
100
AcDbEntity
  8
0
  6
HIDDEN
 62
     7
370
     0
100
AcDbLine
 10
188.5920124639
 20
101.2837598987
 30
0.0
 11
188.5920124639
 21
100.8270855905
 31
0.0
  0
LINE
  5
190
330
1F
100
AcDbEntity
  8
0
  6
HIDDEN
 62
     7
370
     0
100
AcDbLine
 10
188.5920124639
 20
107.0305492649
 30
0.0
 11
188.5920124639
 21
103.6408546422
 31
0.0
  0
LINE
  5
191
330
1F
100
AcDbEntity
  8
0
  6
HIDDEN
 62
     7
370
     0
100
AcDbLine
 10
191.5920124639
 20
103.7707051164
 30
0.0
 11
191.5920124639
 21
107.0270855905
 31
0.0
  0
LINE
  5
192
330
1F
100
AcDbEntity
  8
0
  6
HIDDEN
 62
     7
370
     0
100
AcDbLine
 10
191.5920124639
 20
100.8270855905
 30
0.0
 11
191.5920124639
 21
101.2725329977
 31
0.0
  0
LINE
  5
193
330
1F
100
AcDbEntity
  8
0
  6
HIDDEN
 62
     7
370
     0
100
AcDbLine
 10
188.5920124639
 20
100.8270855905
 30
0.0
 11
190.0920124639
 21
99.9257946619
 31
0.0
  0
LINE
  5
194
330
1F
100
AcDbEntity
  8
0
  6
HIDDEN
 62
     7
370
     0
100
AcDbLine
 10
190.0920124639
 20
99.9257946619
 30
0.0
 11
191.5920124639
 21
100.8270855905
 31
0.0
  0
LINE
  5
195
330
1F
100
AcDbEntity
  8
0
  6
HIDDEN
 62
     7
370
     0
100
AcDbLine
 10
191.5889577672
 20
101.2686562005
 30
0.0
 11
237.4995449713
 21
103.0724880845
 31
0.0
  0
LINE
  5
196
330
1F
100
AcDbEntity
  8
0
  6
HIDDEN
 62
     7
370
     0
100
AcDbLine
 10
237.5920124639
 20
105.5780500387
 30
0.0
 11
191.5920124639
 21
103.7707051164
 31
0.0
  0
LINE
  5
197
330
1F
100
AcDbEntity
  8
0
  6
HIDDEN
 62
     7
370
     0
100
AcDbLine
 10
191.5920124639
 20
126.8834660646
 30
0.0
 11
237.5920124639
 21
125.0761211422
 31
0.0
  0
LINE
  5
198
330
1F
100
AcDbEntity
  8
0
  6
HIDDEN
 62
     7
370
     0
100
AcDbLine
 10
237.5015518238
 20
127.581604247
 30
0.0
 11
191.5889577672
 21
129.3855149804
 31
0.0
  0
LINE
  5
199
330
1F
100
AcDbEntity
  8
0
  6
HIDDEN
 62
     7
370
     0
100
AcDbLine
 10
188.5807149184
 20
103.6523909136
 30
0.0
 11
187.8792929665
 21
102.3738675218
 31
0.0
  0
LINE
  5
19A
330
1F
100
AcDbEntity
  8
0
  6
HIDDEN
 62
     7
370
     0
100
AcDbLine
 10
187.8792929665
 20
102.3738675218
 30
0.0
 11
188.5963078534
 21
101.280238071
 31
0.0
  0
LINE
  5
19B
330
1F
100
AcDbEntity
  8
0
  6
HIDDEN
 62
     7
370
     0
100
AcDbLine
 10
188.5963078534
 20
129.37393311
 30
0.0
 11
187.8792929665
 21
128.2803036592
 31
0.0
  0
LINE
  5
19C
330
1F
100
AcDbEntity
  8
0
  6
HIDDEN
 62
     7
370
     0
100
AcDbLine
 10
187.8792929665
 20
128.2803036592
 30
0.0
 11
188.5807149184
 21
127.0017802674
 31
0.0
  0
LINE
  5
19D
330
1F
100
AcDbEntity
  8
0
  6
HIDDEN
 62
     7
370
     0
100
AcDbLine
 10
111.5920124639
 20
162.8796914867
 30
0.0
 11
111.5920124639
 21
161.004147228
 31
0.0
  0
LINE
  5
19E
330
1F
100
AcDbEntity
  8
0
  6
HIDDEN
 62
     7
370
     0
100
AcDbLine
 10
121.5920124639
 20
160.9986389696
 30
0.0
 11
121.5920124639
 21
162.8739570539
 31
0.0
  0
LINE
  5
19F
330
1F
100
AcDbEntity
  8
0
  6
HIDDEN
 62
     7
370
     0
100
AcDbLine
 10
237.4007457066
 20
105.820728037
 30
0.0
 11
232.0668079027
 21
105.6111570499
 31
0.0
  0
LINE
  5
1A0
330
1F
100
AcDbEntity
  8
0
  6
HIDDEN
 62
     7
370
     0
100
AcDbLine
 10
232.18458735
 20
102.6134699412
 30
0.0
 11
237.3988455926
 21
102.8183387055
 31
0.0
  0
LINE
  5
1A1
330
1F
100
AcDbEntity
  8
0
  6
HIDDEN
 62
     7
370
     0
100
AcDbLine
 10
232.0668079027
 20
105.6111570499
 30
0.0
 11
231.5868232925
 21
105.0919126239
 31
0.0
  0
LINE
  5
1A2
330
1F
100
AcDbEntity
  8
0
  6
HIDDEN
 62
     7
370
     0
100
AcDbLine
 10
231.665342924
 20
103.0934545514
 30
0.0
 11
232.18458735
 21
102.6134699412
 31
0.0
  0
LINE
  5
1A3
330
1F
100
AcDbEntity
  8
0
  6
HIDDEN
 62
     7
370
     0
100
AcDbLine
 10
237.5735799804
 20
105.5468022919
 30
0.0
 11
237.4007457066
 21
105.820728037
 31
0.0
  0
LINE
  5
1A4
330
1F
100
AcDbEntity
  8
0
  6
HIDDEN
 62
     7
370
     0
100
AcDbLine
 10
237.3988455926
 20
127.8358324754
 30
0.0
 11
232.1256976264
 21
128.0430150233
 31
0.0
  0
LINE
  5
1A5
330
1F
100
AcDbEntity
  8
0
  6
HIDDEN
 62
     7
370
     0
100
AcDbLine
 10
232.0079181791
 20
125.0453279146
 30
0.0
 11
237.341855983
 21
124.8357569275
 31
0.0
  0
LINE
  5
1A6
330
1F
100
AcDbEntity
  8
0
  6
HIDDEN
 62
     7
370
     0
100
AcDbLine
 10
237.341855983
 20
124.8357569275
 30
0.0
 11
237.5146902567
 21
125.1096826725
 31
0.0
  0
LINE
  5
1A7
330
1F
100
AcDbEntity
  8
0
  6
HIDDEN
 62
     7
370
     0
100
AcDbLine
 10
232.1256976264
 20
128.0430150233
 30
0.0
 11
231.6064532004
 21
127.563030413
 31
0.0
  0
LINE
  5
1A8
330
1F
100
AcDbEntity
  8
0
  6
HIDDEN
 62
     7
370
     0
100
AcDbLine
 10
231.5279335689
 20
125.5645723406
 30
0.0
 11
232.0079181791
 21
125.0453279146
 31
0.0
  0
LINE
  5
1A9
330
1F
100
AcDbEntity
  8
0
  6
HIDDEN
 62
     7
370
     0
100
AcDbLine
 10
172.5920124639
 20
109.3270855905
 30
0.0
 11
187.5920124639
 21
109.3270855905
 31
0.0
  0
LINE
  5
1AA
330
1F
100
AcDbEntity
  8
0
  6
HIDDEN
 62
     7
370
     0
100
AcDbLine
 10
187.5920124639
 20
121.3270855905
 30
0.0
 11
172.5920124639
 21
121.3270855905
 31
0.0
  0
LINE
  5
1AB
330
1F
100
AcDbEntity
  8
0
  6
HIDDEN
 62
     7
370
     0
100
AcDbLine
 10
187.5920124639
 20
109.3270855905
 30
0.0
 11
188.0920124639
 21
109.8270855905
 31
0.0
  0
LINE
  5
1AC
330
1F
100
AcDbEntity
  8
0
  6
HIDDEN
 62
     7
370
     0
100
AcDbLine
 10
188.0920124639
 20
120.8270855905
 30
0.0
 11
187.5920124639
 21
121.3270855905
 31
0.0
  0
LINE
  5
1AD
330
1F
100
AcDbEntity
  8
0
  6
HIDDEN
 62
     7
370
     0
100
AcDbLine
 10
172.5920124639
 20
121.3270855905
 30
0.0
 11
172.0920124639
 21
120.8270855905
 31
0.0
  0
LINE
  5
1AE
330
1F
100
AcDbEntity
  8
0
  6
HIDDEN
 62
     7
370
     0
100
AcDbLine
 10
172.0920124639
 20
109.8270855905
 30
0.0
 11
172.5920124639
 21
109.3270855905
 31
0.0
  0
LINE
  5
1AF
330
1F
100
AcDbEntity
  8
0
  6
HIDDEN
 62
     7
370
     0
100
AcDbLine
 10
188.0920124639
 20
109.8270855905
 30
0.0
 11
192.0920124639
 21
109.8270855905
 31
0.0
  0
LINE
  5
1B0
330
1F
100
AcDbEntity
  8
0
  6
HIDDEN
 62
     7
370
     0
100
AcDbLine
 10
192.0920124639
 20
120.8270855905
 30
0.0
 11
188.0920124639
 21
120.8270855905
 31
0.0
  0
LINE
  5
1B1
330
1F
100
AcDbEntity
  8
0
  6
HIDDEN
 62
     7
370
     0
100
AcDbLine
 10
179.0920124638
 20
112.3270855905
 30
0.0
 11
185.0920124639
 21
112.3270855905
 31
0.0
  0
LINE
  5
1B2
330
1F
100
AcDbEntity
  8
0
  6
HIDDEN
 62
     7
370
     0
100
AcDbLine
 10
185.0920124639
 20
118.3270855905
 30
0.0
 11
179.0920124638
 21
118.3270855905
 31
0.0
  0
DIMENSION
  5
1B3
330
1F
100
AcDbEntity
  8
VERMASSUNG
100
AcDbDimension
  2
*D1
 10
51.7270855905
 20
65.3270855905
 30
0.0
 11
51.7270855905
 21
115.3270855905
 31
0.0
 70
   160
  1
HSK A %%c<>
 71
     2
 42
-1.0
  3
SLDDIMSTYLE0
100
AcDbAlignedDimension
 13
108.0920124639
 23
165.3270855905
 33
0.0
 14
108.0920124639
 24
65.3270855905
 34
0.0
 50
90.0
100
AcDbRotatedDimension
  0
DIMENSION
  5
1C0
330
1F
100
AcDbEntity
  8
VERMASSUNG
100
AcDbDimension
  2
*D2
 10
237.5920124639
 20
163.3270855905
 30
0.0
 11
212.8420124639
 21
163.3270855905
 31
0.0
 70
   160
 71
     2
 42
-1.0
  3
SLDDIMSTYLE1
100
AcDbAlignedDimension
 13
188.0920124639
 23
123.2270855905
 33
0.0
 14
237.5920124639
 24
126.9783046071
 34
0.0
 50
0.0
100
AcDbRotatedDimension
  0
DIMENSION
  5
1CB
330
1F
100
AcDbEntity
  8
VERMASSUNG
100
AcDbDimension
  2
*D3
 10
244.5767063922
 20
123.3270855905
 30
0.0
 11
244.5767063922
 21
115.3270855905
 31
0.0
 70
   160
  1
%%c<> 
 71
     2
 42
-1.0
  3
SLDDIMSTYLE2
100
AcDbAlignedDimension
 13
234.0920124639
 23
107.3270855905
 33
0.0
 14
234.0920124639
 24
123.3270855905
 34
0.0
 50
90.0
100
AcDbRotatedDimension
  0
DIMENSION
  5
1D8
330
1F
100
AcDbEntity
  8
VERMASSUNG
100
AcDbDimension
  2
*D4
 10
250.5767063922
 20
128.8270855905
 30
0.0
 11
250.5767063922
 21
115.3270855905
 31
0.0
 70
   160
  1
%%c<>
 71
     2
 42
-1.0
  3
SLDDIMSTYLE3
100
AcDbAlignedDimension
 13
237.5920124639
 23
101.8270855905
 33
0.0
 14
237.5920124639
 24
128.8270855905
 34
0.0
 50
90.0
100
AcDbRotatedDimension
  0
DIMENSION
  5
1E4
330
1F
100
AcDbEntity
  8
VERMASSUNG
100
AcDbDimension
  2
*D5
 10
237.5920124639
 20
175.3270855905
 30
0.0
 11
172.5920124639
 21
175.3270855905
 31
0.0
 70
   160
 71
     2
 42
-1.0
  3
SLDDIMSTYLE0
100
AcDbAlignedDimension
 13
107.5920124639
 23
164.8270855905
 33
0.0
 14
237.5920124639
 24
126.9783046071
 34
0.0
100
AcDbRotatedDimension
  0
DIMENSION
  5
1EE
330
1F
100
AcDbEntity
  8
VERMASSUNG
100
AcDbDimension
  2
*D6
 10
237.5920124639
 20
169.3270855905
 30
0.0
 11
187.0670124639
 21
169.3270855905
 31
0.0
 70
   160
 71
     2
 42
-1.0
  3
SLDDIMSTYLE0
100
AcDbAlignedDimension
 13
136.5420124639
 23
163.2958254113
 33
0.0
 14
237.5920124639
 24
126.9265333503
 34
0.0
100
AcDbRotatedDimension
  0
DIMENSION
  5
1F8
330
1F
100
AcDbEntity
  8
VERMASSUNG
100
AcDbDimension
  2
*D7
 10
237.5920124639
 20
181.3270855905
 30
0.0
 11
147.6420124639
 21
181.3270855905
 31
0.0
 70
   160
 71
     2
 42
-1.0
  3
SLDDIMSTYLE0
100
AcDbAlignedDimension
 13
57.6920124639
 23
145.829755333
 33
0.0
 14
237.5920124639
 24
126.9265333503
 34
0.0
100
AcDbRotatedDimension
  0
DIMENSION
  5
202
330
1F
100
AcDbEntity
  8
VERMASSUNG
100
AcDbDimension
  2
*D8
 10
256.5767063922
 20
96.8270855905
 30
0.0
 11
256.5767063922
 21
115.3270855905
 31
0.0
 70
   160
  1
%%c<>
 71
     2
 42
-1.0
  3
SLDDIMSTYLE0
100
AcDbAlignedDimension
 13
158.5420124639
 23
133.8270855905
 33
0.0
 14
158.5420124639
 24
96.8270855905
 34
0.0
 50
90.0
100
AcDbRotatedDimension
  0
LINE
  5
20D
330
1F
100
AcDbEntity
  8
VERMASSUNG
  6
CENTERX2
370
     0
100
AcDbLine
 10
54.5119176598
 20
115.3270855905
 30
0.0
 11
239.6669610932
 21
115.3270855905
 31
0.0
  0
OLE2FRAME
  5
20E
330
1F
100
AcDbEntity
  8
0
100
AcDbOle2Frame
 70
     2
  3
Bitmap Image
 10
13.8511154363
 20
38.264191557
 30
0.0
 11
51.6290888628
 21
31.9806341108
 31
0.0
 71
     2
 72
     0
 73
     1
 90
    12928
310
80552BED0767C5B32B40DDAF6807D121434000000000000000006FFBDDFB85D0
310
4940DDAF6807D121434000000000000000006FFBDDFB85D04940416F4BD60AFB
310
3F4000000000000000002BED0767C5B32B40416F4BD60AFB3F40000000000000
310
0000000000000100000000010000010000000100000000000100000000320000
310
D0CF11E0A1B11AE1000000000000000000000000000000003E000300FEFF0900
310
0600000000000000000000000100000001000000000000000010000002000000
310
01000000FEFFFFFF0000000000000000FFFFFFFFFFFFFFFFFFFFFFFFFFFFFFFF
310
FFFFFFFFFFFFFFFFFFFFFFFFFFFFFFFFFFFFFFFFFFFFFFFFFFFFFFFFFFFFFFFF
310
FFFFFFFFFFFFFFFFFFFFFFFFFFFFFFFFFFFFFFFFFFFFFFFFFFFFFFFFFFFFFFFF
310
FFFFFFFFFFFFFFFFFFFFFFFFFFFFFFFFFFFFFFFFFFFFFFFFFFFFFFFFFFFFFFFF
310
FFFFFFFFFFFFFFFFFFFFFFFFFFFFFFFFFFFFFFFFFFFFFFFFFFFFFFFFFFFFFFFF
310
FFFFFFFFFFFFFFFFFFFFFFFFFFFFFFFFFFFFFFFFFFFFFFFFFFFFFFFFFFFFFFFF
310
FFFFFFFFFFFFFFFFFFFFFFFFFFFFFFFFFFFFFFFFFFFFFFFFFFFFFFFFFFFFFFFF
310
FFFFFFFFFFFFFFFFFFFFFFFFFFFFFFFFFFFFFFFFFFFFFFFFFFFFFFFFFFFFFFFF
310
FFFFFFFFFFFFFFFFFFFFFFFFFFFFFFFFFFFFFFFFFFFFFFFFFFFFFFFFFFFFFFFF
310
FFFFFFFFFFFFFFFFFFFFFFFFFFFFFFFFFFFFFFFFFFFFFFFFFFFFFFFFFFFFFFFF
310
FFFFFFFFFFFFFFFFFFFFFFFFFFFFFFFFFFFFFFFFFFFFFFFFFFFFFFFFFFFFFFFF
310
FFFFFFFFFFFFFFFFFFFFFFFFFFFFFFFFFFFFFFFFFFFFFFFFFFFFFFFFFFFFFFFF
310
FFFFFFFFFFFFFFFFFFFFFFFFFFFFFFFFFFFFFFFFFFFFFFFFFFFFFFFFFFFFFFFF
310
FFFFFFFFFFFFFFFFFFFFFFFFFFFFFFFFFFFFFFFFFFFFFFFFFFFFFFFFFFFFFFFF
310
FDFFFFFFFEFFFFFFFEFFFFFFFEFFFFFF05000000060000000700000008000000
310
090000000A0000000B0000000C0000000D0000000E0000000F00000010000000
310
11000000120000001300000014000000150000001600000017000000FEFFFFFF
310
FFFFFFFFFFFFFFFFFFFFFFFFFFFFFFFFFFFFFFFFFFFFFFFFFFFFFFFFFFFFFFFF
310
FFFFFFFFFFFFFFFFFFFFFFFFFFFFFFFFFFFFFFFFFFFFFFFFFFFFFFFFFFFFFFFF
310
FFFFFFFFFFFFFFFFFFFFFFFFFFFFFFFFFFFFFFFFFFFFFFFFFFFFFFFFFFFFFFFF
310
FFFFFFFFFFFFFFFFFFFFFFFFFFFFFFFFFFFFFFFFFFFFFFFFFFFFFFFFFFFFFFFF
310
FFFFFFFFFFFFFFFFFFFFFFFFFFFFFFFFFFFFFFFFFFFFFFFFFFFFFFFFFFFFFFFF
310
FFFFFFFFFFFFFFFFFFFFFFFFFFFFFFFFFFFFFFFFFFFFFFFFFFFFFFFFFFFFFFFF
310
FFFFFFFFFFFFFFFFFFFFFFFFFFFFFFFFFFFFFFFFFFFFFFFFFFFFFFFFFFFFFFFF
310
FFFFFFFFFFFFFFFFFFFFFFFFFFFFFFFFFFFFFFFFFFFFFFFFFFFFFFFFFFFFFFFF
310
FFFFFFFFFFFFFFFFFFFFFFFFFFFFFFFFFFFFFFFFFFFFFFFFFFFFFFFFFFFFFFFF
310
FFFFFFFFFFFFFFFFFFFFFFFFFFFFFFFFFFFFFFFFFFFFFFFFFFFFFFFFFFFFFFFF
310
FFFFFFFFFFFFFFFFFFFFFFFFFFFFFFFFFFFFFFFFFFFFFFFFFFFFFFFFFFFFFFFF
310
FFFFFFFFFFFFFFFFFFFFFFFFFFFFFFFFFFFFFFFFFFFFFFFFFFFFFFFFFFFFFFFF
310
FFFFFFFFFFFFFFFFFFFFFFFFFFFFFFFFFFFFFFFFFFFFFFFFFFFFFFFFFFFFFFFF
310
52006F006F007400200045006E00740072007900000000000000000000000000
310
0000000000000000000000000000000000000000000000000000000000000000
310
16000500FFFFFFFFFFFFFFFF020000000A00030000000000C000000000000046
310
000000000000000000000000500E1F9E9008CC0103000000C000000000000000
310
01004F006C006500000000000000000000000000000000000000000000000000
310
0000000000000000000000000000000000000000000000000000000000000000
310
0A000200FFFFFFFFFFFFFFFFFFFFFFFF00000000000000000000000000000000
310
0000000000000000000000000000000000000000000000001400000000000000
310
010043006F006D0070004F0062006A0000000000000000000000000000000000
310
0000000000000000000000000000000000000000000000000000000000000000
310
120002010100000003000000FFFFFFFF00000000000000000000000000000000
310
0000000000000000000000000000000000000000010000004D00000000000000
310
01004F006C006500310030004E00610074006900760065000000000000000000
310
0000000000000000000000000000000000000000000000000000000000000000
310
1A000200FFFFFFFFFFFFFFFFFFFFFFFF00000000000000000000000000000000
310
0000000000000000000000000000000000000000040000002426000000000000
310
FEFFFFFF02000000FEFFFFFFFFFFFFFFFFFFFFFFFFFFFFFFFFFFFFFFFFFFFFFF
310
FFFFFFFFFFFFFFFFFFFFFFFFFFFFFFFFFFFFFFFFFFFFFFFFFFFFFFFFFFFFFFFF
310
FFFFFFFFFFFFFFFFFFFFFFFFFFFFFFFFFFFFFFFFFFFFFFFFFFFFFFFFFFFFFFFF
310
FFFFFFFFFFFFFFFFFFFFFFFFFFFFFFFFFFFFFFFFFFFFFFFFFFFFFFFFFFFFFFFF
310
FFFFFFFFFFFFFFFFFFFFFFFFFFFFFFFFFFFFFFFFFFFFFFFFFFFFFFFFFFFFFFFF
310
FFFFFFFFFFFFFFFFFFFFFFFFFFFFFFFFFFFFFFFFFFFFFFFFFFFFFFFFFFFFFFFF
310
FFFFFFFFFFFFFFFFFFFFFFFFFFFFFFFFFFFFFFFFFFFFFFFFFFFFFFFFFFFFFFFF
310
FFFFFFFFFFFFFFFFFFFFFFFFFFFFFFFFFFFFFFFFFFFFFFFFFFFFFFFFFFFFFFFF
310
FFFFFFFFFFFFFFFFFFFFFFFFFFFFFFFFFFFFFFFFFFFFFFFFFFFFFFFFFFFFFFFF
310
FFFFFFFFFFFFFFFFFFFFFFFFFFFFFFFFFFFFFFFFFFFFFFFFFFFFFFFFFFFFFFFF
310
FFFFFFFFFFFFFFFFFFFFFFFFFFFFFFFFFFFFFFFFFFFFFFFFFFFFFFFFFFFFFFFF
310
FFFFFFFFFFFFFFFFFFFFFFFFFFFFFFFFFFFFFFFFFFFFFFFFFFFFFFFFFFFFFFFF
310
FFFFFFFFFFFFFFFFFFFFFFFFFFFFFFFFFFFFFFFFFFFFFFFFFFFFFFFFFFFFFFFF
310
FFFFFFFFFFFFFFFFFFFFFFFFFFFFFFFFFFFFFFFFFFFFFFFFFFFFFFFFFFFFFFFF
310
FFFFFFFFFFFFFFFFFFFFFFFFFFFFFFFFFFFFFFFFFFFFFFFFFFFFFFFFFFFFFFFF
310
FFFFFFFFFFFFFFFFFFFFFFFFFFFFFFFFFFFFFFFFFFFFFFFFFFFFFFFFFFFFFFFF
310
0100000200000000000000000000000000000000000000002300820000100004
310
F804250000000000F80425000000000000000000000000000000000000000000
310
0100FEFF030A0000FFFFFFFF0A00030000000000C00000000000004607000000
310
5042727573680007000000504272757368000700000050427275736800F439B2
310
71000000000000000000000000000000B080B035000000000000000000000000
310
000000000000000038000000400000001808DB01000000000100000000000000
310
02000000000000004C000000420000000000000000000000802BAD3500000000
310
0000000000000000000000000000000038000000400000001808DB0100000000
310
02000000000000004D0000000000000097000000420000000000000000000000
310
206BAF3500000000000000000000000000000000000000003800000040000000
310
1808DB010000000003000000000000009800000000000000E200000042000000
310
0000000000000000906AAF350000000000000000000000000000000000000000
310
38000000400000001808DB01000000000400000000000000E300000000000000
310
2D010000350000000000000000000000A0884E0F000000000000000000000000
310
000000000000000038000000400000001808DB01000000000500000000000000
310
020000004B0000004D000000800000000000000000000000208E4E0F00000000
310
20260000424D0E260000000000003E00000028000000B40200006E0000000100
310
01000000000000000000130B0000130B00000200000002000000000000FFFFFF
310
FFFFFFFFFFFFFFFFFFFFFFFFFFFFFFFFFFFFFFFFFFFFFFFFFFFFFFFFFFFFFFFF
310
FFFFFFFFFFFFFFFFFFFFFFFFFFFFFFFFFFFFFFFFFFFFFFFFFFFFFFFFFFFFFFFF
310
FFFFFFFFFFFFFFFFFFFFFFFFFFFFFFFFFFFFFFFFFFFFFFFFF000FFFFFFFFFFFF
310
FFFFFFFFFFFFFFFFFFFFFFFFFFFFFFFFFFFFFFFFFFFFFFFFFFFFFFFFFFFFFFFF
310
FFFFFFFFFFFFFFFFFFFFFFFFFFFFFFFFFFFFFFFFFFFFFFFFFFFFFFFFFFFFFFFF
310
FFFFFFFFFFFFFFFFFFFFFFFFFFFFFFFFF000FFFFFFFFFFFFFFFFFFFFFFFFFFFF
310
FFFFFFFFFFFFFFFFFFFFFFFFFFFFFFFFFFFFFFFFFFFFFFFFFFFFFFFFFFFFFFFF
310
FFFFFFFFFFFFFFFFFFFFFFFFFFFFFFFFFFFFFFFFFFFFFFFFFFFFFFFFFFFFFFFF
310
FFFFFFFFFFFFFFFFF000FFFFFFFFFFFFFFFFFFFFFFFFFFFFFFFFFFFFFFFFFFFF
310
FFFFFFFFFFFFFFFFFFFFFFFFFFFFFFFFFFFFFFFFFFFFFFFFFFFFFFFFFFFFFFFF
310
FFFFFFFFFFFFFFFFFFFFFFFFFFFFFFFFFFFFFFFFFFFFFFFFFFFFFFFFFFFFFFFF
310
F000FFFFFFFFFFFFFFFFFFFFFFFFFFFFFFFFFFFFFFFFFFFFFFFFFFFFFFFFFFFF
310
FFFFFFFFFFFFFFFFFFFFFFFFFFFFFFFFFFFFFFFFFFFFFFFFFFFFFFFFFFFFFFFF
310
FFFFFFFFFFFFFFFFFFFFFFFFFFFFFFFFFFFFFFFFFFFFFFFFF000FFFFFFFFFFFF
310
FFFFFFFFFFFFFFFFFFFFFFFFFFFFFFFFFFFFFFFFFFFFFFFFFFFFFFFFFFFFFFFF
310
FFFFFFFFFFFFFFFFFFFFFFFFFFFFFFFFFFFFFFFFFFFFFFFFFFFFFFFFFFFFFFFF
310
FFFFFFFFFFFFFFFFFFFFFFFFFFFFFFFFF000FFFFFFFFFFFFFFFFFFFFFFFFFFFF
310
FFFFFFFFFFFFFFFFFFFFFFFFFFFFFFFFFFFFFFFFFFFFFFFFFFFFFFFFFFFFFFFF
310
FFFFFFFFFFFFFFFFFFFFFFFFFFFFFFFFFFFFFFFFFFFFFFFFFFFFFFFFFFFFFFFF
310
FFFFFFFFFFFFFFFFF000FFFFFFFFFFFFFFFFFFFFFFFFFFFFFFFFFFFFFFFFFFFF
310
FFFFFFFFFFFFFFFFFFFFFFFFFFFFFFFFFFFFFFFFFFFFFFFFFFFFFFFFFFFFFFFF
310
FFFFFFFFFFFFFFFFFFFFFFFFFFFFFFFFFFFFFFFFFFFFFFFFFFFFFFFFFFFFFFFF
310
F000FFFFFFFFFFFFFFFFFFFFFFFFFFFFFFFFFFFFFFFFFFFFFFFFFFFFFFFFFFFF
310
FFFFFFFFFFFFFFFFFFFFFFFFFFFFFFFFFFFFFFFFFFFFFFFFFFFFFFFFFFFFFFFF
310
FFFFFFFFFFFFFFFFFFFFFFFFFFFFFFFFFFFFFFFFFFFFFFFFF000FFFFFFFFFFFF
310
FFFFFFFFFFFFFFFFFFFFFFFFFFFFFFFFFFFFFFFFFFFFFFFFFFFFFFFFFFFFFFFF
310
FFFFFFFFFFFFFFFFFFFFFFFFFFFFFFFFFFFFFFFFFFFFFFFFFFFFFFFFFFFFFFFF
310
FFFFFFFFFFFFFFFFFFFFFFFFFFFFFFFFF000FFFFFFFFFFFFFFFFFFFFFFFFFFFF
310
FFFFFFFFFFFFFFFFFFFFFFFFFFFFFFFFFFFFFFFFFFFFFFFFFFFFFFFFFFFFFFFF
310
FFFFFFFFFFFFFFFFFFFFFFFFFFFFFFFFFFFFFFFFFFFFFFFFFFFFFFFFFFFFFFFF
310
FFFFFFFFFFFFFFFFF000FFFFFFFFFFFFFFFFFFFFFFFFFFFFFFFFFFFFFFFFFFFF
310
FFFFFFFFFFFFFFFFFFFFFFFFFFFFFFFFFFFFFFFFFFFFFFFFFFFFFFFFFFFFFFFF
310
FFFFFFFFFFFFFFFFFFFFFFFFFFFFFFFFFFFFFFFFFFFFFFFFFFFFFFFFFFFFFFFF
310
F000FFFFFFFFFFFFFFFFFFFFFFFFFFFFFFFFFFFFFFFFFFFFFFFFFFFFFFFFFFFF
310
FFFFFFFFFFFFFFFFFFFFFFFFFFFFFFFFFFFFFFFFFFFFFFFFFFFFFFFFFFFFFFFF
310
FFFFFFFFFFFFFFFFFFFFFFFFFFFFFFFFFFFFFFFFFFFFFFFFF000FFFFFFFFFFFF
310
FFFFFFFFFFFFFFFFFFFFFFFFFFFFFFFFFFFFFFFFFFFFFFFFFFFFFFFFFFFFFFFF
310
FFFFFFFFFFFFFFFFFFFFFFFFFFFFFFFFFFFFFFFFFFFFFFFFFFFFFFFFFFFFFFFF
310
FFFFFFFFFFFFFFFFFFFFFFFFFFFFFFFFF000FFFFFFFFFFFFFFFFFFFFFFFFFFFF
310
FFFFFFFFFFFFFFFFFFFFFFFFFFFFFFFFFFFFFFFFFFFFFFFFFFFFFFFFFFFFFFFF
310
FFFFFFFFFFFFFFFFFFFFFFFFFFFFFFFFFFFFFFFFFFFFFFFFFFFFFFFFFFFFFFFF
310
FFFFFFFFFFFFFFFFF000FFFFFFFFFFFFFFFFFFFFFFFFFFFFFFFFFFFFFFFFFFFF
310
FFFFFFFFFFFFFFFFFFFFFFFFFFFFFFFFFFFFFFFFFFFFFFFFFFFFFFFFFFFFFFFF
310
FFFFFFFFFFFFFFFFFFFFFFFFFFFFFFFFFFFFFFFFFFFFFFFFFFFFFFFFFFFFFFFF
310
F000FFFFFFFFFFFFFFFFFFFFFFFFFFFFFFFFFFFFFFFFFFFFFFFFFFFFFFFFFFFF
310
FFFFFFFFFFFFFFFFFFFFFFFFFFFFFFFFFFFFFFFFFFFFFFFFFFFFFFFFFFFFFFFF
310
FFFFFFFFFFFFFFFFFFFFFFFFFFFFFFFFFFFFFFFFFFFFFFFFF000FFFFFFFFFFFF
310
FFFFFFFFFFFFFFFFFFFFFFFFFFFFFFFFFFFFFFFFFFFFFFFFFFFFFFFFFFFFFFFF
310
FFFFFFFFFFFFFFFFFFFFFFFFFFFFFFFFFFFFFFFFFFFFFFFFFFFFFFFFFFFFFFFF
310
FFFFFFFFFFFFFFFFFFFFFFFFFFFFFFFFF000FFFFFFFFFFFFFFFFFFFFFFFFFFFF
310
FFFFFFFFFFFFFFFFFFFFFFFFFFFFFFFFFFFFFFFFFFFFFFFFFFFFFFFFFFFFFFFF
310
FFFFFFFFFFFFFFFFFFFFFFFFFFFFFFFFFFFFFFFFFFFFFFFFFFFFFFFFFFFFFFFF
310
FFFFFFFFFFFFFFFFF000FFFFF80003FFFFFFFFFFFFFFFFFFFFFFFFFFFFFFFFFF
310
FFFFF00007FFFFFFFFFF00007FFFFFF800000000000000007FFFFFFFFFFFFFFF
310
FFFFFFFC001FFFFFFFFFFFFFFC001FFFFFFFFFFFFFFFFFFFFFFFFFFE0007FFFF
310
F000FFFF8000007FFFFFFFF8000FFFFFC0007FFFFF80007FFFFF0000007FFFFF
310
FFF8000007FFFFF800000000000000007FFFFFF0001FFFFFFFFFFFC00001FFFF
310
FFFFFFFFC00001FFFFFFFF000000000003FFFFE000007FFFF000FFFE0000000F
310
FFFFFFF0000FFFFF80007FFFFF80007FFFFC0000001FFFFFFFC0000001FFFFF8
310
00000000000000007FFFFFF0001FFFFFFFFFFE0000003FFFFFFFFFFE0000003F
310
FFFFFF000000000003FFFF0000000FFFF000FFF800000003FFFFFFF00007FFFF
310
80007FFFFF80007FFFF000000007FFFFFF000000003FFFF80000000000000000
310
7FFFFFF0001FFFFFFFFFF80000000FFFFFFFFFF80000000FFFFFFF0000000000
310
03FFFC00000003FFF000FFE000000000FFFFFFF00007FFFF80003FFFFF80007F
310
FFC000000001FFFFFC000000001FFFF800000000000000007FFFFFF0001FFFFF
310
FFFFE000000003FFFFFFFFE000000003FFFFFF000000000003FFF000000000FF
310
F000FF80000000007FFFFFF00007FFFF80003FFFFF80007FFF8000000000FFFF
310
F80000000007FFF800000000000000007FFFFFF0001FFFFFFFFFC000000001FF
310
FFFFFFC000000001FFFFFF000000000003FFC0000000007FF000FF0000000000
310
3FFFFFE00007FFFF00003FFFFF80007FFE00000000003FFFF00000000003FFF8
310
00000000000000007FFFFFF0001FFFFFFFFF8000000000FFFFFFFF8000000000
310
FFFFFF000000000003FF80000000003FF000FE00000000001FFFFFE00003FFFF
310
00003FFFFF80007FFC00000000001FFFE00000000001FFF8000001FFFE000000
310
7FFFFFF0001FFFFFFFFE00000000003FFFFFFE00000000003FFFFF0000000000
310
03FF00000000001FF000FC00000000000FFFFFE00003FFFF00001FFFFF80007F
310
F800000000001FFFC00000000000FFF8000001FFFE0000007FFFFFF0001FFFFF
310
FFFC00000000001FFFFFFC00000000001FFFFF000000000003FE00000000000F
310
F000F8000000000007FFFFE00003FFFF00001FFFFF80007FF800000000000FFF
310
800000000000FFF8000001FFFE0000007FFFFFF0001FFFFFFFF800000000000F
310
FFFFF800000000000FFFFF000000000003FC000000000007F000F80000000000
310
03FFFFC00003FFFE00001FFFFF80007FF0000000000007FF0000000000007FF8
310
000001FFFE0000007FFFFFF0001FFFFFFFF0000000000007FFFFF00000000000
310
07FFFF000000000003F8000000000003F000F0000000000003FFFFC00001FFFE
310
00001FFFFF80007FE0000000000007FE0000000000003FF8000001FFFE000000
310
7FFFFFF0001FFFFFFFF0000000000007FFFFF0000000000007FFFF0000000000
310
03F800001F800003F000E00001FFF00001FFFFC00001FFFE00000FFFFF80007F
310
E00001FFE00003FE00001FFF00003FF8000001FFFE0000007FFFFFF0001FFFFF
310
FFE000003E000003FFFFE000003E000003FFFF000000000003F00001FFF80001
310
F000E00007FFFC0001FFFFC00001FFFE00000FFFFF80007FC0000FFFFC0003FC
310
0000FFFFC0001FF8000001FFFE0000007FFFFFF0001FFFFFFFC00003FFE00001
310
FFFFC00003FFE00001FFFF0001FFFFFFFFF00007FFFE0001F000E0000FFFFF00
310
00FFFF800001FFFC00000FFFFF80007FC0001FFFFE0001FC0001FFFFE0001FF8
310
000001FFFE0000007FFFFFF0001FFFFFFF80000FFFF80000FFFF80000FFFF800
310
00FFFF0003FFFFFFFFE0000FFFFF8000F000C0003FFFFF8000FFFF800000FFFC
310
000007FFFF80007F80003FFFFF0001FC0003FFFFF0001FF8000001FFFE000000
310
7FFFFFF0001FFFFFFF80003FFFFE0000FFFF80003FFFFE0000FFFF0003FFFFFF
310
FFE0003FFFFF8000F000C0003FFFFF8000FFFF800000FFFC000007FFFF80007F
310
80007FFFFF8001F80007FFFFF8000FF8000001FFFE0000007FFFFFF0001FFFFF
310
FF00007FFFFF00007FFF00007FFFFF00007FFF0003FFFFFFFFE0003FFFFFC000
310
F000C0007FFFFFC000FFFF000000FFFC000007FFFF80007F8000FFFFFF8000F8
310
000FFFFFF8000FF8000001FFFE0000007FFFFFF0001FFFFFFF0000FFFFFF8000
310
7FFF0000FFFFFF80007FFF0003FFFFFFFFC0007FFFFFC00070008000FFFFFFC0
310
00FFFF000000FFF8000007FFFF80007F8000FFFFFF8000F8000FFFFFF8000FF8
310
000001FFFE0000007FFFFFF0001FFFFFFE0001FFFFFFC0003FFE0001FFFFFFC0
310
003FFF0003FFFFFFFFC0007FFFFFE00070008000FFFFFFC0007FFF0000007FF8
310
000003FFFF80007F0001FFFFFF8000F8000FFFFFF8000FF8000001FFFE000000
310
7FFFFFF0001FFFFFFE0001FFFFFFC0003FFE0001FFFFFFC0003FFF0003FFFFFF
310
FFC000FFFFFFE00070008000FFFFFFC0007FFF0000007FF8000003FFFF80007F
310
0001FFFFFF8000F8001FFFFFF8000FF8000001FFFE0000007FFFFFF0001FFFFF
310
FE0003FFFFFFE0003FFE0003FFFFFFE0003FFF0003FFFFFFFFC000FFFFFFE000
310
70008000FFFFFFC0007FFE0000007FF8000003FFFF80007F0001FFFFFF8000F0
310
001FFFFFF8000FF8000001FFFE0000007FFFFFF0001FFFFFFC0003FFFFFFE000
310
1FFC0003FFFFFFE0001FFF0003FFFFFFFFC000FFFFFFC00070008000FFFFFF80
310
007FFE0000007FF0000003FFFF80007F0001FFFFFF0000F0001FFFFFF8000FF8
310
000001FFFE0000007FFFFFF0001FFFFFFC0007FFFFFFF0001FFC0007FFFFFFF0
310
001FFF0003FFFFFFFFC000FFFFFFC00070008001FFFFFF0000FFFE0000003FF0
310
000001FFFF80007F0001FFFFFF0000F8001FFFFFF0000FF8000001FFFE000000
310
7FFFFFF0001FFFFFFC0007FFFFFFF0001FFC0007FFFFFFF0001FFF0003FFFFFF
310
FFC001FFFFFF80007000FFFFFFFFFE0000FFFE0008003FF0008001FFFF80007F
310
FFFFFFFFFC0000FFFFFFFFFFE0000FF8000001FFFE0000007FFFFFF0001FFFFF
310
F8000FFFFFFFF8000FF8000FFFFFFFF8000FFF0003FFFFFFFFFFFFFFFFFF0000
310
7000FFFFFFFFFC0000FFFC0008003FF0008001FFFF80007FFFFFFFFFF80001FF
310
FFFFFFFF80000FF8000001FFFE0000007FFFFFF0001FFFFFF8000FFFFFFFF800
310
0FF8000FFFFFFFF8000FFF0003FFFFFFFFFFFFFFFFFE0000F000FFFFFFFFE000
310
00FFFC000C003FE000C001FFFF80007FFFFFFFFFC00001FFFFFFFFFE00001FF8
310
000001FFFE0000007FFFFFF0001FFFFFF8000FFFFFFFF8000FF8000FFFFFFFF8
310
000FFF0003FFFFFFFFFFFFFFFFF00000F000FFFFFFFE000001FFFC000C001FE0
310
00C000FFFF80007FFFFFFFFE000001FFFFFFFFE000001FF80FFFFFFFFFFFFFC0
310
7FFFFFF0001FFFFFF8000FFFFFFFF8000FF8000FFFFFFFF8000FFF0003FFFFFF
310
FFFFFFFFFF800000F000FFFFFFC0000001FFFC001C001FE001C000FFFF80007F
310
FFFFFF80000003FFFFFFF80000001FF80FFFFFFFFFFFFFC07FFFFFF0001FFFFF
310
F8001FFFFFFFFC000FF8001FFFFFFFFC000FFF0003FFFFFFFFFFFFFFF0000001
310
F000FFFFF800000001FFF8001C001FE001C000FFFF80007FFFFFF800000003FF
310
FFFF800000003FF80FFFFFFFFFFFFFC07FFFFFF0001FFFFFF8001FFFFFFFFC00
310
0FF8001FFFFFFFFC000FFF0003FFFFFFFFFFFFFE00000001F000FFFFC0000000
310
03FFF8001E001FC001E000FFFF80007FFFFF8000000007FFFFFC000000003FF8
310
0FFFFFFFFFFFFFC07FFFFFF0001FFFFFF8001FFFFFFFFC000FF8001FFFFFFFFC
310
000FFF0003FFFFFFFFFFFFE000000003F000FFFE0000000007FFF8001E000FC0
310
01E0007FFF80007FFFFE0000000007FFFFE0000000007FF80FFFFFFFFFFFFFC0
310
7FFFFFF0001FFFFFF0001FFFFFFFFC0007F0001FFFFFFFFC0007FF0003FFFFFF
310
FFFFFF0000000003F000FFF80000000007FFF8001E000FC003E0007FFF80007F
310
FFF0000000000FFFFF8000000000FFF80FFFFFFFFFFFFFC07FFFFFF0001FFFFF
310
F0001FFFFFFFFC0007F0001FFFFFFFFC0007FF0003FFFFFFFFFFFC0000000007
310
F000FFE0000000000FFFF0003E000FC003E0007FFF80007FFFC0000000001FFF
310
FE0000000001FFF80FFFFFFFFFFFFFC07FFFFFF0001FFFFFF0001FFFFFFFFC00
310
07F0001FFFFFFFFC0007FF0003FFFFFFFFFFF0000000000FF000FFC000000000
310
1FFFF0003F000F8003F0003FFF80007FFF80000000003FFFF80000000003FFF8
310
0FFFFFFFFFFFFFC07FFFFFF0001FFFFFF0001FFFFFFFFC0007F0001FFFFFFFFC
310
0007FF0003FFFFFFFFFFE0000000001FF000FF00000000007FFFF0003F000780
310
03F0003FFF80007FFF00000000007FFFF00000000007FFF80FFFFFFFFFFFFFC0
310
7FFFFFF0001FFFFFF0001FFFFFFFFC0007F0001FFFFFFFFC0007FF0003FFFFFF
310
FFFF80000000007FF000FE0000000000FFFFE0003F00078007F0003FFF80007F
310
FE0000000001FFFFE0000000001FFFF80FFFFFFFFFFFFFC07FFFFFF0001FFFFF
310
F0001FFFFFFFFC0007F0001FFFFFFFFC0007FF0003FFFFFFFFFF0000000000FF
310
F000FC0000000003FFFFE0007F00078007F0003FFF80007FFC0000000007FFFF
310
C0000000007FFFF80FFFFFFFFFFFFFC07FFFFFF0001FFFFFF8001FFFFFFFFC00
310
0FF8001FFFFFFFFC000FFF0003FFFFFFFFFE0000000003FFF000FC000000000F
310
FFFFE0007F80070007F8001FFF80007FF8000000001FFFFF8000000001FFFFF8
310
0FFFFFFFFFFFFFC07FFFFFF0001FFFFFF8001FFFFFFFFC000FF8001FFFFFFFFC
310
000FFF0003FFFFFFFFFC000000000FFFF000F8000000007FFFFFE0007F800700
310
07F8001FFF80007FF000000000FFFFFF800000000FFFFFF80FFFFFFFFFFFFFC0
310
7FFFFFF0001FFFFFF8000FFFFFFFF8000FF8000FFFFFFFF8000FFF0003FFFFFF
310
FFFC000000007FFFF000F800000007FFFFFFC0007F8003000FF8001FFF80007F
310
F000000007FFFFFF000000007FFFFFF80FFFFFFFFFFFFFC07FFFFFF0001FFFFF
310
F8000FFFFFFFF8000FF8000FFFFFFFF8000FFF0003FFFFFFFFF80000000FFFFF
310
F000F0000000FFFFFFFFC000FF8003000FF8001FFF80007FE0000000FFFFFFFF
310
0000000FFFFFFFF8000001FFFE0000007FFFFFF0001FFFFFF8000FFFFFFFF800
310
0FF8000FFFFFFFF8000FFF0003FFFFFFFFF8000000FFFFFFF000F000000FFFFF
310
FFFFC000FFC002000FF8000FFF80007FE000001FFFFFFFFE000001FFFFFFFFF8
310
000001FFFE0000007FFFFFF0001FFFFFF8000FFFFFFFF8000FF8000FFFFFFFF8
310
000FFF0003FFFFFFFFF000001FFFFFFFF000E00000FFFFFFFFFFC000FFC00200
310
0FFC000FFF80007FE00001FFFFFFFFFE00001FFFFFFFFFF8000001FFFE000000
310
7FFFFFF0001FFFFFFC000FFFFFFFF8001FFC000FFFFFFFF8001FFF0003FFFFFF
310
FFF00001FFFFFFFFF000E00007FFFFFFFFFF8000FFC000001FFC000FFF80007F
310
C0000FFFFFFFFFFE0000FFFFFFFFFFF8000001FFFE0000007FFFFFF0001FFFFF
310
FC0007FFFFFFF0001FFC0007FFFFFFF0001FFF0003FFFFFFFFF00007FFFFFFFF
310
F000E0001FFFFFFFFFFF8000FFC000001FFC000FFF80007FC0003FFFFFFFFFFE
310
0001FFFFFFFFFFF8000001FFFE0000007FFFFFF0001FFFFFFC0007FFFFFFF000
310
1FFC0007FFFFFFF0001FFF0003FFFFFFFFF0001FFFFFFFFFF000E0003FFFFF00
310
03FF8001FFE000001FFC0007FF80007FC0007FFFFF0007FC0003FFFFF0003FF8
310
000001FFFE0000007FFFFFF0001FFFFFFC0003FFFFFFE0001FFC0003FFFFFFE0
310
001FFF0003FFFFFFFFF0003FFFFFFFFFF000E0003FFFFF0001FF8001FFE00000
310
1FFE0007FF80007FC0007FFFFE0003FC0007FFFFE0003FF8000001FFFE000000
310
7FFFFFF0001FFFFFFE0003FFFFFFE0003FFE0003FFFFFFE0003FFF0003FFFFFF
310
FFF0003FFFFF8001F000E0003FFFFF0001FF0001FFE000001FFE0007FF80007F
310
C0007FFFFE0003FC0007FFFFE0003FF8000001FFFE0000007FFFFFF0001FFFFF
310
FE0001FFFFFFC0003FFE0001FFFFFFC0003FFF0003FFFFFFFFF0003FFFFF0001
310
F000E0003FFFFF0003FF0001FFE000003FFE0007FF80007FC0007FFFFE0003FC
310
0007FFFFE0003FF8000001FFFE0000007FFFFFF0001FFFFFFF0001FFFFFFC000
310
7FFF0001FFFFFFC0007FFF0003FFFFFFFFF0003FFFFF0001F000E0003FFFFE00
310
03FF0003FFF000003FFE0003FF80007FC0007FFFFC0003FE0007FFFFE0003FF8
310
000001FFFE0000007FFFFFF0001FFFFFFF0000FFFFFF80007FFF0000FFFFFF80
310
007FFF0003FFFFFFFFF0003FFFFF0001F000E0003FFFFE0003FF0003FFF00000
310
3FFF0003FF80007FC0007FFFFC0007FE0007FFFFC0003FF8000001FFFE000000
310
7FFFFFF0001FFFFFFF80007FFFFF0000FFFF80007FFFFF0000FFFF0003FFFFFF
310
FFF0003FFFFF0003F000E0003FFFFC0003FE0003FFF000003FFF0003FF80007F
310
E0003FFFF80007FE0003FFFFC0007FF8000001FFFE0000007FFFFFF0001FFFFF
310
FF80003FFFFE0000FFFF80003FFFFE0000FFFF0003FFFFFFFFF0001FFFFE0003
310
F000F0001FFFF80003FE0003FFF000007FFF0001FF80007FE0003FFFF00007FE
310
0001FFFF80007FF8000001FFFE0000007FFFFFF0001FFFFFFFC0000FFFF80001
310
FFFFC0000FFFF80001FFFF0003FFFFFFFFF0001FFFFC0003F000F0000FFFF000
310
07FE0007FFF800007FFF0001FF80007FE0001FFFE00007FF0000FFFE00007FF8
310
000001FFFE0000007FFFFFF0001FFFFFFFC00003FFE00001FFFFC00003FFE000
310
01FFFF0003FFFFFFFFF8000FFFF80003F000F00003FFC00007FC0007FFF80000
310
7FFF8001FF80007FF00007FF80000FFF00007FF80000FFF8000001FFFE000000
310
7F80000000000001FFE000003E000003FFFFE000003E000003FFFF0003FFFFFF
310
FFF80003FFE00007F000F800000000000FFC0007FFF800007FFF8001FF80007F
310
F000000000000FFF000000000000FFF8000001FFFE0000007F80000000000001
310
FFF0000000000007FFFFF0000000000007FFFF0003FFFFFFFFFC00007E000007
310
F000F800000000000FFC0007FFF80000FFFF8000FF80007FF800000000001FFF
310
800000000001FFF8000001FFFE0000007F80000000000001FFF800000000000F
310
FFFFF800000000000FFFFF0003FFFFFFFFFC00000000000FF000FC0000000000
310
1FFC0007FFFC0000FFFF8000FF80007FF800000000003FFFC00000000001FFF8
310
000001FFFE0000007F80000000000001FFF800000000000FFFFFF80000000000
310
0FFFFF0003FFFFFFFFFE00000000001FF000FE00000000003FF8000FFFFC0000
310
FFFF8000FF80007FFC00000000003FFFC00000000003FFF8000001FFFE000000
310
7F80000000000001FFFC00000000001FFFFFFC00000000001FFFFF0003FFFFFF
310
FFFF00000000001FF000FF00000000003FF8000FFFFC0000FFFFC000FF80007F
310
FE00000000007FFFE00000000007FFF8000001FFFE0000007F80000000000001
310
FFFE00000000003FFFFFFE00000000003FFFFF0003FFFFFFFFFF80000000003F
310
F000FF80000000007FF8000FFFFC0001FFFFC0007F80007FFF0000000000FFFF
310
F0000000000FFFF800000000000000007F80000000000001FFFF8000000000FF
310
FFFFFF8000000000FFFFFF0003FFFFFFFFFFC0000000007FF000FFC000000000
310
FFF8000FFFFE0001FFFFC0007F80007FFF8000000001FFFFF8000000001FFFF8
310
00000000000000007F80000000000001FFFFC000000001FFFFFFFFC000000001
310
FFFFFF0003FFFFFFFFFFE000000000FFF000FFE000000003FFF0001FFFFE0001
310
FFFFC0007F80007FFFC000000007FFFFFE000000003FFFF80000000000000000
310
7F80000000000001FFFFE000000003FFFFFFFFE000000003FFFFFF0003FFFFFF
310
FFFFF000000003FFF000FFF80000000FFFF0001FFFFE0001FFFFE0007F80007F
310
FFF00000000FFFFFFF00000000FFFFF800000000000000007F80000000000001
310
FFFFF80000000FFFFFFFFFF80000000FFFFFFF0003FFFFFFFFFFFC0000000FFF
310
F000FFFE0000003FFFF0001FFFFE0003FFFFE0003F80007FFFFC0000003FFFFF
310
FFC0000003FFFFF800000000000000007F80000000000001FFFFFE0000003FFF
310
FFFFFFFE0000003FFFFFFF0003FFFFFFFFFFFF0000003FFFF000FFFF800000FF
310
FFF0001FFFFF0003FFFFE0003F80007FFFFF000001FFFFFFFFF800001FFFFFF8
310
00000000000000007F80000000000001FFFFFFC00001FFFFFFFFFFFFC00001FF
310
FFFFFF0003FFFFFFFFFFFFC00000FFFFF000FFFFF8000FFFFFFFFFFFFFFFFFFF
310
FFFFFFFFFFFFFFFFFFFFF0001FFFFFFFFFFF0000FFFFFFF80000000000000000
310
7FFFFFFFFFFFFFFFFFFFFFFC001FFFFFFFFFFFFFFC001FFFFFFFFFFFFFFFFFFF
310
FFFFFFFC001FFFFFF000FFFFFFFFFFFFFFFFFFFFFFFFFFFFFFFFFFFFFFFFFFFF
310
FFFFFFFFFFFFFFFFFFFFFFFFFFFFFFFFFFFFFFFFFFFFFFFFFFFFFFFFFFFFFFFF
310
FFFFFFFFFFFFFFFFFFFFFFFFFFFFFFFFFFFFFFFFFFFFFFFFFFFFFFFFFFFFFFFF
310
F000FFFFFFFFFFFFFFFFFFFFFFFFFFFFFFFFFFFFFFFFFFFFFFFFFFFFFFFFFFFF
310
FFFFFFFFFFFFFFFFFFFFFFFFFFFFFFFFFFFFFFFFFFFFFFFFFFFFFFFFFFFFFFFF
310
FFFFFFFFFFFFFFFFFFFFFFFFFFFFFFFFFFFFFFFFFFFFFFFFF000FFFFFFFFFFFF
310
FFFFFFFFFFFFFFFFFFFFFFFFFFFFFFFFFFFFFFFFFFFFFFFFFFFFFFFFFFFFFFFF
310
FFFFFFFFFFFFFFFFFFFFFFFFFFFFFFFFFFFFFFFFFFFFFFFFFFFFFFFFFFFFFFFF
310
FFFFFFFFFFFFFFFFFFFFFFFFFFFFFFFFF000FFFFFFFFFFFFFFFFFFFFFFFFFFFF
310
FFFFFFFFFFFFFFFFFFFFFFFFFFFFFFFFFFFFFFFFFFFFFFFFFFFFFFFFFFFFFFFF
310
FFFFFFFFFFFFFFFFFFFFFFFFFFFFFFFFFFFFFFFFFFFFFFFFFFFFFFFFFFFFFFFF
310
FFFFFFFFFFFFFFFFF000FFFFFFFFFFFFFFFFFFFFFFFFFFFFFFFFFFFFFFFFFFFF
310
FFFFFFFFFFFFFFFFFFFFFFFFFFFFFFFFFFFFFFFFFFFFFFFFFFFFFFFFFFFFFFFF
310
FFFFFFFFFFFFFFFFFFFFFFFFFFFFFFFFFFFFFFFFFFFFFFFFFFFFFFFFFFFFFFFF
310
F000FFFFFFFFFFFFFFFFFFFFFFFFFFFFFFFFFFFFFFFFFFFFFFFFFFFFFFFFFFFF
310
FFFFFFFFFFFFFFFFFFFFFFFFFFFFFFFFFFFFFFFFFFFFFFFFFFFFFFFFFFFFFFFF
310
FFFFFFFFFFFFFFFFFFFFFFFFFFFFFFFFFFFFFFFFFFFFFFFFF000FFFFFFFFFFFF
310
FFFFFFFFFFFFFFFFFFFFFFFFFFFFFFFFFFFFFFFFFFFFFFFFFFFFFFFFFFFFFFFF
310
FFFFFFFFFFFFFFFFFFFFFFFFFFFFFFFFFFFFFFFFFFFFFFFFFFFFFFFFFFFFFFFF
310
FFFFFFFFFFFFFFFFFFFFFFFFFFFFFFFFF000FFFFFFFFFFFFFFFFFFFFFFFFFFFF
310
FFFFFFFFFFFFFFFFFFFFFFFFFFFFFFFFFFFFFFFFFFFFFFFFFFFFFFFFFFFFFFFF
310
FFFFFFFFFFFFFFFFFFFFFFFFFFFFFFFFFFFFFFFFFFFFFFFFFFFFFFFFFFFFFFFF
310
FFFFFFFFFFFFFFFFF000FFFFFFFFFFFFFFFFFFFFFFFFFFFFFFFFFFFFFFFFFFFF
310
FFFFFFFFFFFFFFFFFFFFFFFFFFFFFFFFFFFFFFFFFFFFFFFFFFFFFFFFFFFFFFFF
310
FFFFFFFFFFFFFFFFFFFFFFFFFFFFFFFFFFFFFFFFFFFFFFFFFFFFFFFFFFFFFFFF
310
F000FFFFFFFFFFFFFFFFFFFFFFFFFFFFFFFFFFFFFFFFFFFFFFFFFFFFFFFFFFFF
310
FFFFFFFFFFFFFFFFFFFFFFFFFFFFFFFFFFFFFFFFFFFFFFFFFFFFFFFFFFFFFFFF
310
FFFFFFFFFFFFFFFFFFFFFFFFFFFFFFFFFFFFFFFFFFFFFFFFF000FFFFFFFFFFFF
310
FFFFFFFFFFFFFFFFFFFFFFFFFFFFFFFFFFFFFFFFFFFFFFFFFFFFFFFFFFFFFFFF
310
FFFFFFFFFFFFFFFFFFFFFFFFFFFFFFFFFFFFFFFFFFFFFFFFFFFFFFFFFFFFFFFF
310
FFFFFFFFFFFFFFFFFFFFFFFFFFFFFFFFF000FFFFFFFFFFFFFFFFFFFFFFFFFFFF
310
FFFFFFFFFFFFFFFFFFFFFFFFFFFFFFFFFFFFFFFFFFFFFFFFFFFFFFFFFFFFFFFF
310
FFFFFFFFFFFFFFFFFFFFFFFFFFFFFFFFFFFFFFFFFFFFFFFFFFFFFFFFFFFFFFFF
310
FFFFFFFFFFFFFFFFF000FFFFFFFFFFFFFFFFFFFFFFFFFFFFFFFFFFFFFFFFFFFF
310
FFFFFFFFFFFFFFFFFFFFFFFFFFFFFFFFFFFFFFFFFFFFFFFFFFFFFFFFFFFFFFFF
310
FFFFFFFFFFFFFFFFFFFFFFFFFFFFFFFFFFFFFFFFFFFFFFFFFFFFFFFFFFFFFFFF
310
F000FFFFFFFFFFFFFFFFFFFFFFFFFFFFFFFFFFFFFFFFFFFFFFFFFFFFFFFFFFFF
310
FFFFFFFFFFFFFFFFFFFFFFFFFFFFFFFFFFFFFFFFFFFFFFFFFFFFFFFFFFFFFFFF
310
FFFFFFFFFFFFFFFFFFFFFFFFFFFFFFFFFFFFFFFFFFFFFFFFF000FFFFFFFFFFFF
310
FFFFFFFFFFFFFFFFFFFFFFFFFFFFFFFFFFFFFFFFFFFFFFFFFFFFFFFFFFFFFFFF
310
FFFFFFFFFFFFFFFFFFFFFFFFFFFFFFFFFFFFFFFFFFFFFFFFFFFFFFFFFFFFFFFF
310
FFFFFFFFFFFFFFFFFFFFFFFFFFFFFFFFF000FFFFFFFFFFFFFFFFFFFFFFFFFFFF
310
FFFFFFFFFFFFFFFFFFFFFFFFFFFFFFFFFFFFFFFFFFFFFFFFFFFFFFFFFFFFFFFF
310
FFFFFFFFFFFFFFFFFFFFFFFFFFFFFFFFFFFFFFFFFFFFFFFFFFFFFFFFFFFFFFFF
310
FFFFFFFFFFFFFFFFF000FFFFFFFFFFFFFFFFFFFFFFFFFFFFFFFFFFFFFFFFFFFF
310
FFFFFFFFFFFFFFFFFFFFFFFFFFFFFFFFFFFFFFFFFFFFFFFFFFFFFFFFFFFFFFFF
310
FFFFFFFFFFFFFFFFFFFFFFFFFFFFFFFFFFFFFFFFFFFFFFFFFFFFFFFFFFFFFFFF
310
F000FFFFFFFFFFFFFFFFFFFFFFFFFFFFFFFFFFFFFFFFFFFFFFFFFFFFFFFFFFFF
310
FFFFFFFFFFFFFFFFFFFFFFFFFFFFFFFFFFFFFFFFFFFFFFFFFFFFFFFFFFFFFFFF
310
FFFFFFFFFFFFFFFFFFFFFFFFFFFFFFFFFFFFFFFFFFFFFFFFF000FFFFFFFFFFFF
310
FFFFFFFFFFFFFFFFFFFFFFFFFFFFFFFFFFFFFFFFFFFFFFFFFFFFFFFFFFFFFFFF
310
FFFFFFFFFFFFFFFFFFFFFFFFFFFFFFFFFFFFFFFFFFFFFFFFFFFFFFFFFFFFFFFF
310
FFFFFFFFFFFFFFFFFFFFFFFFFFFFFFFFF000FFFFFFFFFFFFFFFFFFFFFFFFFFFF
310
FFFFFFFFFFFFFFFFFFFFFFFFFFFFFFFFFFFFFFFFFFFFFFFFFFFFFFFFFFFFFFFF
310
FFFFFFFFFFFFFFFFFFFFFFFFFFFFFFFFFFFFFFFFFFFFFFFFFFFFFFFFFFFFFFFF
310
FFFFFFFFFFFFFFFFF000FFFFFFFFFFFFFFFFFFFFFFFFFFFFFFFFFFFFFFFFFFFF
310
FFFFFFFFFFFFFFFFFFFFFFFFFFFFFFFFFFFFFFFFFFFFFFFFFFFFFFFFFFFFFFFF
310
FFFFFFFFFFFFFFFFFFFFFFFFFFFFFFFFFFFFFFFFFFFFFFFFFFFFFFFFFFFFFFFF
310
F000FFFFFFFFFFFFFFFFFFFFFFFFFFFFFFFFFFFFFFFFFFFFFFFFFFFFFFFFFFFF
310
FFFFFFFFFFFFFFFFFFFFFFFFFFFFFFFFFFFFFFFFFFFFFFFFFFFFFFFFFFFFFFFF
310
FFFFFFFFFFFFFFFFFFFFFFFFFFFFFFFFFFFFFFFFFFFFFFFFF000FFFFFFFFFFFF
310
FFFFFFFFFFFFFFFFFFFFFFFFFFFFFFFFFFFFFFFFFFFFFFFFFFFFFFFFFFFFFFFF
310
FFFFFFFFFFFFFFFFFFFFFFFFFFFFFFFFFFFFFFFFFFFFFFFFFFFFFFFFFFFFFFFF
310
FFFFFFFFFFFFFFFFFFFFFFFFFFFFFFFFF0000000000000000000000000000000
310
00000000000000000000000042006C00610063006B0000000000000000000000
310
0000000000000000000000000000000000000000000000000000000000000000
310
0000000000000000000000000000FFFFFFFFFFFFFFFFFFFFFFFFFFFFFFFFFFFF
310
FFFFFFFFFFFFFFFFFFFFFFFFFFFFFFFFFFFFFFFFFFFFFFFFFFFFFFFFFFFFFFFF
310
FFFFFFFFFFFFFFFFFFFFFFFF6476000800000000FFFFFFFF20FF202026000000
310
1E00000008000000060000000000000011000000200000008403000000000000
310
6000000060000000200002FB200020000000002B00FFFFFF40002200E8030000
310
A80400001C020000AF0000804A20004000000000000000000100000000000000
310
616C000800000000E40100007001000002000000270000001100000000000000
310
00000000BC0200000000000003020122420065006C006C00200047006F007400
310
680069006300200053007400640020004C006900670068007400000000000000
310
00000000000000000000000000000000420065006C006C0047006F0074006800
310
690063005300740064002D0042006F006C006400000000000000000000000000
310
0000000000000000000000000000000000000000000000000000000000000000
310
0000000000000000000000000000000000000000000000000000000000000000
  1
OLE
  0
ENDSEC
  0
SECTION
  2
OBJECTS
  0
DICTIONARY
  5
C
330
0
100
AcDbDictionary
281
     1
  3
ACAD_GROUP
350
D
  3
ACAD_LAYOUT
350
1A
  3
ACAD_MLEADERSTYLE
350
210
  3
ACAD_MLINESTYLE
350
17
  3
ACAD_PLOTSETTINGS
350
19
  3
ACAD_PLOTSTYLENAME
350
E
  3
ACAD_TABLESTYLE
350
20F
  3
ACAD_VISUALSTYLE
350
2A
  3
AcDbVariableDictionary
350
211
  0
DICTIONARY
  5
D
102
{ACAD_REACTORS
330
C
102
}
330
C
100
AcDbDictionary
281
     1
  0
DICTIONARY
  5
1A
102
{ACAD_REACTORS
330
C
102
}
330
C
100
AcDbDictionary
281
     1
  3
Layout1
350
1E
  3
Layout2
350
26
  3
Model
350
22
  0
DICTIONARY
  5
210
102
{ACAD_REACTORS
330
C
102
}
330
C
100
AcDbDictionary
281
     1
  0
DICTIONARY
  5
17
102
{ACAD_REACTORS
330
C
102
}
330
C
100
AcDbDictionary
281
     1
  3
Standard
350
18
  0
DICTIONARY
  5
19
102
{ACAD_REACTORS
330
C
102
}
330
C
100
AcDbDictionary
281
     1
  0
ACDBDICTIONARYWDFLT
  5
E
102
{ACAD_REACTORS
330
C
102
}
330
C
100
AcDbDictionary
281
     1
  3
Normal
350
F
100
AcDbDictionaryWithDefault
340
F
  0
DICTIONARY
  5
20F
102
{ACAD_REACTORS
330
C
102
}
330
C
100
AcDbDictionary
281
     1
  0
DICTIONARY
  5
2A
102
{ACAD_REACTORS
330
C
102
}
330
C
100
AcDbDictionary
281
     1
  3
2dWireframe
350
2F
  3
3D Hidden
350
31
  3
3dWireframe
350
30
  3
Basic
350
32
  3
Brighten
350
36
  3
ColorChange
350
3A
  3
Conceptual
350
34
  3
Dim
350
35
  3
Facepattern
350
39
  3
Flat
350
2B
  3
FlatWithEdges
350
2C
  3
Gouraud
350
2D
  3
GouraudWithEdges
350
2E
  3
Linepattern
350
38
  3
Realistic
350
33
  3
Thicken
350
37
  0
DICTIONARY
  5
211
102
{ACAD_REACTORS
330
C
102
}
330
C
100
AcDbDictionary
281
     1
  3
PSOLHEIGHT
350
213
  3
PSOLWIDTH
350
212
  0
LAYOUT
  5
1E
102
{ACAD_REACTORS
330
1A
102
}
330
1A
100
AcDbPlotSettings
  1

  2
none_device
  4

  6

 40
0.0
 41
0.0
 42
0.0
 43
0.0
 44
0.0
 45
0.0
 46
0.0
 47
0.0
 48
0.0
 49
0.0
140
0.0
141
0.0
142
1.0
143
1.0
 70
   688
 72
     0
 73
     0
 74
     5
  7

 75
    16
147
1.0
148
0.0
149
0.0
100
AcDbLayout
  1
Layout1
 70
     1
 71
     1
 10
0.0
 20
0.0
 11
420.0
 21
297.0
 12
0.0
 22
0.0
 32
0.0
 14
1.0000000000E+20
 24
1.0000000000E+20
 34
1.0000000000E+20
 15
-1.0000000000E+20
 25
-1.0000000000E+20
 35
-1.0000000000E+20
146
0.0
 13
0.0
 23
0.0
 33
0.0
 16
1.0
 26
0.0
 36
0.0
 17
0.0
 27
1.0
 37
0.0
 76
     0
330
1B
  0
LAYOUT
  5
26
102
{ACAD_REACTORS
330
1A
102
}
330
1A
100
AcDbPlotSettings
  1

  2
none_device
  4

  6

 40
0.0
 41
0.0
 42
0.0
 43
0.0
 44
0.0
 45
0.0
 46
0.0
 47
0.0
 48
0.0
 49
0.0
140
0.0
141
0.0
142
1.0
143
1.0
 70
   688
 72
     0
 73
     0
 74
     5
  7

 75
    16
147
1.0
148
0.0
149
0.0
100
AcDbLayout
  1
Layout2
 70
     1
 71
     2
 10
0.0
 20
0.0
 11
0.0
 21
0.0
 12
0.0
 22
0.0
 32
0.0
 14
0.0
 24
0.0
 34
0.0
 15
0.0
 25
0.0
 35
0.0
146
0.0
 13
0.0
 23
0.0
 33
0.0
 16
1.0
 26
0.0
 36
0.0
 17
0.0
 27
1.0
 37
0.0
 76
     0
330
23
  0
LAYOUT
  5
22
102
{ACAD_REACTORS
330
1A
102
}
330
1A
100
AcDbPlotSettings
  1

  2
none_device
  4

  6

 40
0.0
 41
0.0
 42
0.0
 43
0.0
 44
0.0
 45
0.0
 46
0.0
 47
0.0
 48
0.0
 49
0.0
140
0.0
141
0.0
142
1.0
143
1.0
 70
  1712
 72
     0
 73
     0
 74
     0
  7

 75
     0
147
1.0
148
0.0
149
0.0
100
AcDbLayout
  1
Model
 70
     1
 71
     0
 10
0.0
 20
0.0
 11
297.0
 21
210.0
 12
0.0
 22
0.0
 32
0.0
 14
0.0
 24
0.0
 34
0.0
 15
297.0
 25
210.0
 35
0.0
146
0.0
 13
0.0
 23
0.0
 33
0.0
 16
1.0
 26
0.0
 36
0.0
 17
0.0
 27
1.0
 37
0.0
 76
     0
330
1F
331
29
  0
MLINESTYLE
  5
18
102
{ACAD_REACTORS
330
17
102
}
330
17
100
AcDbMlineStyle
  2
Standard
 70
     0
  3

 62
   256
 51
90.0
 52
90.0
 71
     2
 49
0.5
 62
   256
  6
BYLAYER
 49
-0.5
 62
   256
  6
BYLAYER
  0
ACDBPLACEHOLDER
  5
F
102
{ACAD_REACTORS
330
E
102
}
330
E
  0
VISUALSTYLE
  5
2F
102
{ACAD_REACTORS
330
2A
102
}
330
2A
100
AcDbVisualStyle
  2
2dWireframe
 70
     4
 71
     0
 72
     2
 73
     0
 90
        0
 40
-0.6
 41
-30.0
 62
     5
 63
     7
 74
     1
 91
        4
 64
     7
 65
   257
 75
     1
175
     1
 42
1.0
 92
        0
 66
   257
 43
1.0
 76
     1
 77
     6
 78
     2
 67
     7
 79
     5
170
     0
171
     0
290
     0
174
     0
 93
        1
 44
0.0
173
     0
291
     0
 45
0.0
1001
ACAD
1000
AcDbSavedByObjectVersion
1070
     0
  0
VISUALSTYLE
  5
31
102
{ACAD_REACTORS
330
2A
102
}
330
2A
100
AcDbVisualStyle
  2
3D Hidden
 70
     6
 71
     1
 72
     2
 73
     2
 90
        0
 40
-0.6
 41
-30.0
 62
     5
 63
     7
 74
     2
 91
        2
 64
     7
 65
   257
 75
     2
175
     1
 42
40.0
 92
        0
 66
   257
 43
1.0
 76
     1
 77
     6
 78
     2
 67
     7
 79
     3
170
     0
171
     0
290
     0
174
     0
 93
        1
 44
0.0
173
     0
291
     0
 45
0.0
1001
ACAD
1000
AcDbSavedByObjectVersion
1070
     0
  0
VISUALSTYLE
  5
30
102
{ACAD_REACTORS
330
2A
102
}
330
2A
100
AcDbVisualStyle
  2
3dWireframe
 70
     5
 71
     0
 72
     2
 73
     0
 90
        0
 40
-0.6
 41
-30.0
 62
     5
 63
     7
 74
     1
 91
        4
 64
     7
 65
   257
 75
     1
175
     1
 42
1.0
 92
        0
 66
   257
 43
1.0
 76
     1
 77
     6
 78
     2
 67
     7
 79
     5
170
     0
171
     0
290
     0
174
     0
 93
        1
 44
0.0
173
     0
291
     0
 45
0.0
1001
ACAD
1000
AcDbSavedByObjectVersion
1070
     0
  0
VISUALSTYLE
  5
32
102
{ACAD_REACTORS
330
2A
102
}
330
2A
100
AcDbVisualStyle
  2
Basic
 70
     7
 71
     1
 72
     0
 73
     1
 90
        0
 40
-0.6
 41
-30.0
 62
     5
 63
     7
 74
     0
 91
        4
 64
     7
 65
   257
 75
     1
175
     1
 42
1.0
 92
        8
 66
     7
 43
1.0
 76
     1
 77
     6
 78
     2
 67
     7
 79
     5
170
     0
171
     0
290
     0
174
     0
 93
        1
 44
0.0
173
     0
291
     1
 45
0.0
1001
ACAD
1000
AcDbSavedByObjectVersion
1070
     0
  0
VISUALSTYLE
  5
36
102
{ACAD_REACTORS
330
2A
102
}
330
2A
100
AcDbVisualStyle
  2
Brighten
 70
    12
 71
     2
 72
     2
 73
     0
 90
        0
 40
-0.6
 41
-30.0
 62
     5
 63
     7
 74
     1
 91
        4
 64
     7
 65
   257
 75
     1
175
     1
 42
1.0
 92
        8
 66
     7
 43
1.0
 76
     1
 77
     6
 78
     2
 67
     7
 79
     5
170
     0
171
     0
290
     0
174
     0
 93
        1
 44
50.0
173
     0
291
     1
 45
0.0
1001
ACAD
1000
AcDbSavedByObjectVersion
1070
     0
  0
VISUALSTYLE
  5
3A
102
{ACAD_REACTORS
330
2A
102
}
330
2A
100
AcDbVisualStyle
  2
ColorChange
 70
    16
 71
     2
 72
     2
 73
     3
 90
        0
 40
-0.6
 41
-30.0
 62
     5
 63
     8
 74
     1
 91
        4
 64
     7
 65
   257
 75
     1
175
     1
 42
1.0
 92
        8
 66
     8
 43
1.0
 76
     1
 77
     6
 78
     2
 67
     7
 79
     5
170
     0
171
     0
290
     0
174
     0
 93
        1
 44
0.0
173
     0
291
     1
 45
0.0
1001
ACAD
1000
AcDbSavedByObjectVersion
1070
     0
  0
VISUALSTYLE
  5
34
102
{ACAD_REACTORS
330
2A
102
}
330
2A
100
AcDbVisualStyle
  2
Conceptual
 70
     9
 71
     3
 72
     2
 73
     0
 90
        0
 40
-0.6
 41
-30.0
 62
     5
 63
     7
 74
     2
 91
        2
 64
     7
 65
   257
 75
     1
175
     1
 42
40.0
 92
        8
 66
     7
 43
1.0
 76
     1
 77
     6
 78
     2
 67
     7
 79
     3
170
     0
171
     0
290
     0
174
     0
 93
        1
 44
0.0
173
     0
291
     0
 45
0.0
1001
ACAD
1000
AcDbSavedByObjectVersion
1070
     0
  0
VISUALSTYLE
  5
35
102
{ACAD_REACTORS
330
2A
102
}
330
2A
100
AcDbVisualStyle
  2
Dim
 70
    11
 71
     2
 72
     2
 73
     0
 90
        0
 40
-0.6
 41
-30.0
 62
     5
 63
     7
 74
     1
 91
        4
 64
     7
 65
   257
 75
     1
175
     1
 42
1.0
 92
        8
 66
     7
 43
1.0
 76
     1
 77
     6
 78
     2
 67
     7
 79
     5
170
     0
171
     0
290
     0
174
     0
 93
        1
 44
-50.0
173
     0
291
     1
 45
0.0
1001
ACAD
1000
AcDbSavedByObjectVersion
1070
     0
  0
VISUALSTYLE
  5
39
102
{ACAD_REACTORS
330
2A
102
}
330
2A
100
AcDbVisualStyle
  2
Facepattern
 70
    15
 71
     2
 72
     2
 73
     0
 90
        0
 40
-0.6
 41
-30.0
 62
     5
 63
     7
 74
     1
 91
        4
 64
     7
 65
   257
 75
     1
175
     1
 42
1.0
 92
        8
 66
     7
 43
1.0
 76
     1
 77
     6
 78
     2
 67
     7
 79
     5
170
     0
171
     0
290
     0
174
     0
 93
        1
 44
0.0
173
     0
291
     1
 45
0.0
1001
ACAD
1000
AcDbSavedByObjectVersion
1070
     0
  0
VISUALSTYLE
  5
2B
102
{ACAD_REACTORS
330
2A
102
}
330
2A
100
AcDbVisualStyle
  2
Flat
 70
     0
 71
     2
 72
     1
 73
     1
 90
        2
 40
-0.6
 41
30.0
 62
     5
 63
     7
 74
     0
 91
        4
 64
     7
 65
   257
 75
     1
175
     1
 42
1.0
 92
        8
 66
     7
 43
1.0
 76
     1
 77
     6
 78
     2
 67
     7
 79
     5
170
     0
171
     0
290
     0
174
     0
 93
       13
 44
0.0
173
     0
291
     1
 45
0.0
1001
ACAD
1000
AcDbSavedByObjectVersion
1070
     0
  0
VISUALSTYLE
  5
2C
102
{ACAD_REACTORS
330
2A
102
}
330
2A
100
AcDbVisualStyle
  2
FlatWithEdges
 70
     1
 71
     2
 72
     1
 73
     1
 90
        2
 40
-0.6
 41
30.0
 62
     5
 63
     7
 74
     1
 91
        4
 64
     7
 65
   257
 75
     1
175
     1
 42
1.0
 92
        0
 66
   257
 43
1.0
 76
     1
 77
     6
 78
     2
 67
     7
 79
     5
170
     0
171
     0
290
     0
174
     0
 93
       13
 44
0.0
173
     0
291
     1
 45
0.0
1001
ACAD
1000
AcDbSavedByObjectVersion
1070
     0
  0
VISUALSTYLE
  5
2D
102
{ACAD_REACTORS
330
2A
102
}
330
2A
100
AcDbVisualStyle
  2
Gouraud
 70
     2
 71
     2
 72
     2
 73
     1
 90
        2
 40
-0.6
 41
30.0
 62
     5
 63
     7
 74
     0
 91
        4
 64
     7
 65
   257
 75
     1
175
     1
 42
1.0
 92
        0
 66
     7
 43
1.0
 76
     1
 77
     6
 78
     2
 67
     7
 79
     5
170
     0
171
     0
290
     0
174
     0
 93
       13
 44
0.0
173
     0
291
     1
 45
0.0
1001
ACAD
1000
AcDbSavedByObjectVersion
1070
     0
  0
VISUALSTYLE
  5
2E
102
{ACAD_REACTORS
330
2A
102
}
330
2A
100
AcDbVisualStyle
  2
GouraudWithEdges
 70
     3
 71
     2
 72
     2
 73
     1
 90
        2
 40
-0.6
 41
30.0
 62
     5
 63
     7
 74
     1
 91
        4
 64
     7
 65
   257
 75
     1
175
     1
 42
1.0
 92
        0
 66
   257
 43
1.0
 76
     1
 77
     6
 78
     2
 67
     7
 79
     5
170
     0
171
     0
290
     0
174
     0
 93
       13
 44
0.0
173
     0
291
     1
 45
0.0
1001
ACAD
1000
AcDbSavedByObjectVersion
1070
     0
  0
VISUALSTYLE
  5
38
102
{ACAD_REACTORS
330
2A
102
}
330
2A
100
AcDbVisualStyle
  2
Linepattern
 70
    14
 71
     2
 72
     2
 73
     0
 90
        0
 40
-0.6
 41
-30.0
 62
     5
 63
     7
 74
     1
 91
        4
 64
     7
 65
   257
 75
     7
175
     7
 42
1.0
 92
        8
 66
     7
 43
1.0
 76
     1
 77
     6
 78
     2
 67
     7
 79
     5
170
     0
171
     0
290
     0
174
     0
 93
        1
 44
0.0
173
     0
291
     1
 45
0.0
1001
ACAD
1000
AcDbSavedByObjectVersion
1070
     0
  0
VISUALSTYLE
  5
33
102
{ACAD_REACTORS
330
2A
102
}
330
2A
100
AcDbVisualStyle
  2
Realistic
 70
     8
 71
     2
 72
     2
 73
     0
 90
        0
 40
-0.6
 41
-30.0
 62
     5
 63
     7
 74
     1
 91
        0
 64
     7
 65
   257
 75
     1
175
     1
 42
1.0
 92
        8
 66
     8
 43
1.0
 76
     1
 77
     6
 78
     2
 67
     7
 79
     5
170
     0
171
     0
290
     0
174
     0
 93
       13
 44
0.0
173
     0
291
     0
 45
0.0
1001
ACAD
1000
AcDbSavedByObjectVersion
1070
     0
  0
VISUALSTYLE
  5
37
102
{ACAD_REACTORS
330
2A
102
}
330
2A
100
AcDbVisualStyle
  2
Thicken
 70
    13
 71
     2
 72
     2
 73
     0
 90
        0
 40
-0.6
 41
-30.0
 62
     5
 63
     7
 74
     1
 91
        4
 64
     7
 65
   257
 75
     1
175
     1
 42
1.0
 92
       12
 66
     7
 43
1.0
 76
     1
 77
     6
 78
     2
 67
     7
 79
     5
170
     0
171
     0
290
     0
174
     0
 93
        1
 44
0.0
173
     0
291
     1
 45
0.0
1001
ACAD
1000
AcDbSavedByObjectVersion
1070
     0
  0
DICTIONARYVAR
  5
213
102
{ACAD_REACTORS
330
211
102
}
330
211
100
DictionaryVariables
280
     0
  1
80.000000
  0
DICTIONARYVAR
  5
212
102
{ACAD_REACTORS
330
211
102
}
330
211
100
DictionaryVariables
280
     0
  1
5.000000
  0
ENDSEC
  0
EOF
