  0
SECTION
  2
HEADER
  9
$ACADVER
  1
AC1015
  9
$ACADMAINTVER
 70
     6
  9
$DWGCODEPAGE
  3
ANSI_1252
  9
$INSBASE
 10
0.0
 20
0.0
 30
0.0
  9
$EXTMIN
 10
0.0
 20
0.0
 30
0.0
  9
$EXTMAX
 10
297.0
 20
210.0
 30
0.0
  9
$LIMMIN
 10
0.0
 20
0.0
  9
$LIMMAX
 10
297.0
 20
210.0
  9
$ORTHOMODE
 70
     0
  9
$REGENMODE
 70
     1
  9
$FILLMODE
 70
     1
  9
$QTEXTMODE
 70
     0
  9
$MIRRTEXT
 70
     1
  9
$LTSCALE
 40
1.0
  9
$ATTMODE
 70
     1
  9
$TEXTSIZE
 40
2.0
  9
$TRACEWID
 40
1.0
  9
$TEXTSTYLE
  7
Standard
  9
$CLAYER
  8
0
  9
$CELTYPE
  6
ByLayer
  9
$CECOLOR
 62
   256
  9
$CELTSCALE
 40
1.0
  9
$DISPSILH
 70
     0
  9
$DIMSCALE
 40
1.0
  9
$DIMASZ
 40
3.0
  9
$DIMEXO
 40
0.0
  9
$DIMDLI
 40
3.75
  9
$DIMRND
 40
0.0
  9
$DIMDLE
 40
0.0
  9
$DIMEXE
 40
1.0
  9
$DIMTP
 40
0.0
  9
$DIMTM
 40
0.0
  9
$DIMTXT
 40
2.0
  9
$DIMCEN
 40
2.5
  9
$DIMTSZ
 40
0.0
  9
$DIMTOL
 70
     0
  9
$DIMLIM
 70
     0
  9
$DIMTIH
 70
     1
  9
$DIMTOH
 70
     1
  9
$DIMSE1
 70
     0
  9
$DIMSE2
 70
     0
  9
$DIMTAD
 70
     1
  9
$DIMZIN
 70
     0
  9
$DIMBLK
  1

  9
$DIMASO
 70
     1
  9
$DIMSHO
 70
     1
  9
$DIMPOST
  1

  9
$DIMAPOST
  1

  9
$DIMALT
 70
     0
  9
$DIMALTD
 70
     3
  9
$DIMALTF
 40
0.0393700787
  9
$DIMLFAC
 40
1.0
  9
$DIMTOFL
 70
     1
  9
$DIMTVP
 40
0.0
  9
$DIMTIX
 70
     0
  9
$DIMSOXD
 70
     0
  9
$DIMSAH
 70
     0
  9
$DIMBLK1
  1

  9
$DIMBLK2
  1

  9
$DIMSTYLE
  2
ISO-25
  9
$DIMCLRD
 70
     0
  9
$DIMCLRE
 70
     0
  9
$DIMCLRT
 70
     0
  9
$DIMTFAC
 40
1.0
  9
$DIMGAP
 40
1.524
  9
$DIMJUST
 70
     0
  9
$DIMSD1
 70
     0
  9
$DIMSD2
 70
     0
  9
$DIMTOLJ
 70
     0
  9
$DIMTZIN
 70
     0
  9
$DIMALTZ
 70
     0
  9
$DIMALTTZ
 70
     0
  9
$DIMUPT
 70
     0
  9
$DIMDEC
 70
     2
  9
$DIMTDEC
 70
     3
  9
$DIMALTU
 70
     2
  9
$DIMALTTD
 70
     3
  9
$DIMTXSTY
  7
Standard
  9
$DIMAUNIT
 70
     0
  9
$DIMADEC
 70
     2
  9
$DIMALTRND
 40
0.0
  9
$DIMAZIN
 70
     0
  9
$DIMDSEP
 70
    44
  9
$DIMATFIT
 70
     3
  9
$DIMFRAC
 70
     0
  9
$DIMLDRBLK
  1

  9
$DIMLUNIT
 70
     2
  9
$DIMLWD
 70
    -2
  9
$DIMLWE
 70
    -2
  9
$DIMTMOVE
 70
     0
  9
$LUNITS
 70
     2
  9
$LUPREC
 70
     2
  9
$SKETCHINC
 40
1.0
  9
$FILLETRAD
 40
10.0
  9
$AUNITS
 70
     0
  9
$AUPREC
 70
     2
  9
$MENU
  1
.
  9
$ELEVATION
 40
0.0
  9
$PELEVATION
 40
0.0
  9
$THICKNESS
 40
0.0
  9
$LIMCHECK
 70
     0
  9
$CHAMFERA
 40
10.0
  9
$CHAMFERB
 40
10.0
  9
$CHAMFERC
 40
20.0
  9
$CHAMFERD
 40
0.0
  9
$SKPOLY
 70
     0
  9
$TDCREATE
 40
2455684.405102408
  9
$TDUCREATE
 40
2455684.321769074
  9
$TDUPDATE
 40
2455684.405102419
  9
$TDUUPDATE
 40
2455684.321769086
  9
$TDINDWG
 40
0.0000000116
  9
$TDUSRTIMER
 40
0.0000000116
  9
$USRTIMER
 70
     1
  9
$ANGBASE
 50
0.0
  9
$ANGDIR
 70
     0
  9
$PDMODE
 70
     0
  9
$PDSIZE
 40
-1.0
  9
$PLINEWID
 40
0.0
  9
$SPLFRAME
 70
     0
  9
$SPLINETYPE
 70
     6
  9
$SPLINESEGS
 70
     8
  9
$HANDSEED
  5
207
  9
$SURFTAB1
 70
     6
  9
$SURFTAB2
 70
     6
  9
$SURFTYPE
 70
     6
  9
$SURFU
 70
     6
  9
$SURFV
 70
     6
  9
$UCSBASE
  2

  9
$UCSNAME
  2

  9
$UCSORG
 10
0.0
 20
0.0
 30
0.0
  9
$UCSXDIR
 10
1.0
 20
0.0
 30
0.0
  9
$UCSYDIR
 10
0.0
 20
1.0
 30
0.0
  9
$UCSORTHOREF
  2

  9
$UCSORTHOVIEW
 70
     0
  9
$UCSORGTOP
 10
0.0
 20
0.0
 30
0.0
  9
$UCSORGBOTTOM
 10
0.0
 20
0.0
 30
0.0
  9
$UCSORGLEFT
 10
0.0
 20
0.0
 30
0.0
  9
$UCSORGRIGHT
 10
0.0
 20
0.0
 30
0.0
  9
$UCSORGFRONT
 10
0.0
 20
0.0
 30
0.0
  9
$UCSORGBACK
 10
0.0
 20
0.0
 30
0.0
  9
$PUCSBASE
  2

  9
$PUCSNAME
  2

  9
$PUCSORG
 10
0.0
 20
0.0
 30
0.0
  9
$PUCSXDIR
 10
1.0
 20
0.0
 30
0.0
  9
$PUCSYDIR
 10
0.0
 20
1.0
 30
0.0
  9
$PUCSORTHOREF
  2

  9
$PUCSORTHOVIEW
 70
     0
  9
$PUCSORGTOP
 10
0.0
 20
0.0
 30
0.0
  9
$PUCSORGBOTTOM
 10
0.0
 20
0.0
 30
0.0
  9
$PUCSORGLEFT
 10
0.0
 20
0.0
 30
0.0
  9
$PUCSORGRIGHT
 10
0.0
 20
0.0
 30
0.0
  9
$PUCSORGFRONT
 10
0.0
 20
0.0
 30
0.0
  9
$PUCSORGBACK
 10
0.0
 20
0.0
 30
0.0
  9
$USERI1
 70
     0
  9
$USERI2
 70
     0
  9
$USERI3
 70
     0
  9
$USERI4
 70
     0
  9
$USERI5
 70
     0
  9
$USERR1
 40
0.0
  9
$USERR2
 40
0.0
  9
$USERR3
 40
0.0
  9
$USERR4
 40
0.0
  9
$USERR5
 40
0.0
  9
$WORLDVIEW
 70
     1
  9
$SHADEDGE
 70
     3
  9
$SHADEDIF
 70
    70
  9
$TILEMODE
 70
     1
  9
$MAXACTVP
 70
    64
  9
$PINSBASE
 10
0.0
 20
0.0
 30
0.0
  9
$PLIMCHECK
 70
     0
  9
$PEXTMIN
 10
1.0000000000E+20
 20
1.0000000000E+20
 30
1.0000000000E+20
  9
$PEXTMAX
 10
-1.0000000000E+20
 20
-1.0000000000E+20
 30
-1.0000000000E+20
  9
$PLIMMIN
 10
0.0
 20
0.0
  9
$PLIMMAX
 10
420.0
 20
297.0
  9
$UNITMODE
 70
     0
  9
$VISRETAIN
 70
     1
  9
$PLINEGEN
 70
     0
  9
$PSLTSCALE
 70
     1
  9
$TREEDEPTH
 70
  3020
  9
$CMLSTYLE
  2
Standard
  9
$CMLJUST
 70
     0
  9
$CMLSCALE
 40
20.0
  9
$PROXYGRAPHICS
 70
     1
  9
$MEASUREMENT
 70
     1
  9
$CELWEIGHT
370
    -1
  9
$ENDCAPS
280
     0
  9
$JOINSTYLE
280
     0
  9
$LWDISPLAY
290
     1
  9
$INSUNITS
 70
     4
  9
$HYPERLINKBASE
  1

  9
$STYLESHEET
  1

  9
$XEDIT
290
     1
  9
$CEPSNTYPE
380
     0
  9
$PSTYLEMODE
290
     1
  9
$FINGERPRINTGUID
  2
{483E7F94-42BA-4CB9-960B-B82646D19B8A}
  9
$VERSIONGUID
  2
{FAEB1C32-E019-11D5-929B-00C0DF256EC4}
  9
$EXTNAMES
290
     1
  9
$PSVPSCALE
 40
0.0
  9
$OLESTARTUP
290
     0
  0
ENDSEC
  0
SECTION
  2
CLASSES
  0
CLASS
  1
ACDBDICTIONARYWDFLT
  2
AcDbDictionaryWithDefault
  3
ObjectDBX Classes
 90
        0
280
     0
281
     0
  0
CLASS
  1
VISUALSTYLE
  2
AcDbVisualStyle
  3
ObjectDBX Classes
 90
     4095
280
     0
281
     0
  0
CLASS
  1
DICTIONARYVAR
  2
AcDbDictionaryVar
  3
ObjectDBX Classes
 90
        0
280
     0
281
     0
  0
CLASS
  1
ACDBPLACEHOLDER
  2
AcDbPlaceHolder
  3
ObjectDBX Classes
 90
        0
280
     0
281
     0
  0
CLASS
  1
LAYOUT
  2
AcDbLayout
  3
ObjectDBX Classes
 90
        0
280
     0
281
     0
  0
ENDSEC
  0
SECTION
  2
TABLES
  0
TABLE
  2
VPORT
  5
8
330
0
100
AcDbSymbolTable
 70
     1
  0
VPORT
  5
29
330
8
100
AcDbSymbolTableRecord
100
AcDbViewportTableRecord
  2
*Active
 70
     0
 10
0.0
 20
0.0
 11
1.0
 21
1.0
 12
148.5
 22
105.0
 13
0.0
 23
0.0
 14
10.0
 24
10.0
 15
10.0
 25
10.0
 16
0.0
 26
0.0
 36
1.0
 17
0.0
 27
0.0
 37
0.0
 40
210.0
 41
1.4142857143
 42
50.0
 43
0.0
 44
0.0
 50
0.0
 51
0.0
 71
     0
 72
  2000
 73
     1
 74
     3
 75
     0
 76
     0
 77
     0
 78
     0
281
     0
 65
     1
110
0.0
120
0.0
130
0.0
111
1.0
121
0.0
131
0.0
112
0.0
122
1.0
132
0.0
 79
     0
146
0.0
  0
ENDTAB
  0
TABLE
  2
LTYPE
  5
5
330
0
100
AcDbSymbolTable
 70
     6
  0
LTYPE
  5
14
330
5
100
AcDbSymbolTableRecord
100
AcDbLinetypeTableRecord
  2
ByBlock
 70
     0
  3

 72
    65
 73
     0
 40
0.0
  0
LTYPE
  5
15
330
5
100
AcDbSymbolTableRecord
100
AcDbLinetypeTableRecord
  2
ByLayer
 70
     0
  3

 72
    65
 73
     0
 40
0.0
  0
LTYPE
  5
16
330
5
100
AcDbSymbolTableRecord
100
AcDbLinetypeTableRecord
  2
Continuous
 70
     0
  3
Solid line
 72
    65
 73
     0
 40
0.0
  0
LTYPE
  5
3B
330
5
100
AcDbSymbolTableRecord
100
AcDbLinetypeTableRecord
  2
HIDDEN
 70
     0
  3
Hidden __ __ __ __ __ __ __ __ __ __ __ __ __ __
 72
    65
 73
     2
 40
1.905
 49
1.27
 74
     0
 49
-0.635
 74
     0
  0
LTYPE
  5
3C
330
5
100
AcDbSymbolTableRecord
100
AcDbLinetypeTableRecord
  2
PHANTOM
 70
     0
  3
Phantom ______  __  __  ______  __  __  ______
 72
    65
 73
     6
 40
12.7
 49
6.35
 74
     0
 49
-1.27
 74
     0
 49
1.27
 74
     0
 49
-1.27
 74
     0
 49
1.27
 74
     0
 49
-1.27
 74
     0
  0
LTYPE
  5
3D
330
5
100
AcDbSymbolTableRecord
100
AcDbLinetypeTableRecord
  2
CENTER
 70
     0
  3
Center ____ _ ____ _ ____ _ ____ _ ____ _ ____
 72
    65
 73
     4
 40
10.16
 49
6.35
 74
     0
 49
-1.27
 74
     0
 49
1.27
 74
     0
 49
-1.27
 74
     0
  0
LTYPE
  5
3E
330
5
100
AcDbSymbolTableRecord
100
AcDbLinetypeTableRecord
  2
CENTERX2
 70
     0
  3
Center (2x) ________  __  ________  __  _____
 72
    65
 73
     4
 40
20.32
 49
12.7
 74
     0
 49
-2.54
 74
     0
 49
2.54
 74
     0
 49
-2.54
 74
     0
  0
LTYPE
  5
3F
330
5
100
AcDbSymbolTableRecord
100
AcDbLinetypeTableRecord
  2
DOT2
 70
     0
  3
Dot (.5x) ........................................
 72
    65
 73
     2
 40
0.635
 49
0.0
 74
     0
 49
-0.635
 74
     0
  0
ENDTAB
  0
TABLE
  2
LAYER
  5
2
330
0
100
AcDbSymbolTable
 70
     5
  0
LAYER
  5
10
330
2
100
AcDbSymbolTableRecord
100
AcDbLayerTableRecord
  2
0
 70
     0
 62
     7
  6
Continuous
370
    -3
390
F
  0
LAYER
  5
40
330
2
100
AcDbSymbolTableRecord
100
AcDbLayerTableRecord
  2
FORMAT
 70
     0
 62
     7
  6
Continuous
370
    -3
390
F
  0
LAYER
  5
41
330
2
100
AcDbSymbolTableRecord
100
AcDbLayerTableRecord
  2
VERMASSUNG
 70
     0
 62
     7
  6
Continuous
370
    -3
390
F
  0
LAYER
  5
42
330
2
100
AcDbSymbolTableRecord
100
AcDbLayerTableRecord
  2
KOPF_DÜNN
 70
     0
 62
     7
  6
Continuous
370
    -3
390
F
  0
LAYER
  5
43
330
2
100
AcDbSymbolTableRecord
100
AcDbLayerTableRecord
  2
KOPF_DICK
 70
     0
 62
     7
  6
Continuous
370
    15
390
F
  0
ENDTAB
  0
TABLE
  2
STYLE
  5
3
330
0
100
AcDbSymbolTable
 70
     3
  0
STYLE
  5
11
330
3
100
AcDbSymbolTableRecord
100
AcDbTextStyleTableRecord
  2
Standard
 70
     0
 40
0.0
 41
1.0
 50
0.0
 71
     0
 42
2.5
  3
txt
  4

  0
STYLE
  5
44
330
3
100
AcDbSymbolTableRecord
100
AcDbTextStyleTableRecord
  2
SLDTEXTSTYLE0
 70
     0
 40
0.0
 41
0.7
 50
0.0
 71
     0
 42
0.2
  3
TXT
  4

  0
STYLE
  5
48
330
3
100
AcDbSymbolTableRecord
100
AcDbTextStyleTableRecord
  2
SLDTEXTSTYLE1
 70
     0
 40
0.0
 41
0.65
 50
0.0
 71
     0
 42
0.2
  3
TXT
  4

  0
ENDTAB
  0
TABLE
  2
VIEW
  5
6
330
0
100
AcDbSymbolTable
 70
     0
  0
ENDTAB
  0
TABLE
  2
UCS
  5
7
330
0
100
AcDbSymbolTable
 70
     0
  0
ENDTAB
  0
TABLE
  2
APPID
  5
9
330
0
100
AcDbSymbolTable
 70
     1
  0
APPID
  5
12
330
9
100
AcDbSymbolTableRecord
100
AcDbRegAppTableRecord
  2
ACAD
 70
     0
  0
ENDTAB
  0
TABLE
  2
DIMSTYLE
  5
A
330
0
100
AcDbSymbolTable
 70
     5
100
AcDbDimStyleTable
  0
DIMSTYLE
105
27
330
A
100
AcDbSymbolTableRecord
100
AcDbDimStyleTableRecord
  2
ISO-25
 70
     0
 41
2.5
 42
0.625
 43
3.75
 44
1.25
 73
     0
 74
     0
 77
     1
 78
     8
140
2.5
141
2.5
143
0.0393700787
147
0.625
171
     3
172
     1
271
     2
272
     2
274
     3
278
    44
283
     0
284
     8
340
11
  0
DIMSTYLE
105
1A7
102
{ACAD_REACTORS
330
1A6
330
1D7
330
1E1
330
1EB
330
1F5
102
}
330
A
100
AcDbSymbolTableRecord
100
AcDbDimStyleTableRecord
  2
SLDDIMSTYLE0
 70
     0
 41
3.0
 44
0.0
 45
0.000000001
 73
     0
 74
     0
 77
     1
 78
    12
140
2.0
147
0.5
173
     1
271
     2
272
     3
284
    12
340
44
  0
DIMSTYLE
105
1B4
102
{ACAD_REACTORS
330
1B3
102
}
330
A
100
AcDbSymbolTableRecord
100
AcDbDimStyleTableRecord
  2
SLDDIMSTYLE1
 70
     0
 41
3.0
 44
0.0
 45
0.000000001
 73
     0
 74
     0
 77
     1
 78
    12
140
2.0
147
0.5
173
     1
271
     2
272
     2
284
    12
340
44
  0
DIMSTYLE
105
1BF
102
{ACAD_REACTORS
330
1BE
102
}
330
A
100
AcDbSymbolTableRecord
100
AcDbDimStyleTableRecord
  2
SLDDIMSTYLE2
 70
     0
 41
3.0
 44
0.0
 45
0.000000001
 73
     0
 74
     0
 77
     1
 78
    12
140
2.0
147
0.5
173
     1
271
     2
272
     2
284
    12
340
44
  0
DIMSTYLE
105
1CC
102
{ACAD_REACTORS
330
1CB
102
}
330
A
100
AcDbSymbolTableRecord
100
AcDbDimStyleTableRecord
  2
SLDDIMSTYLE3
 70
     0
 41
3.0
 44
0.0
 45
0.000000001
 73
     0
 74
     0
 77
     1
 78
    12
140
2.0
147
0.5
173
     1
271
     2
272
     3
284
    12
340
44
  0
ENDTAB
  0
TABLE
  2
BLOCK_RECORD
  5
1
330
0
100
AcDbSymbolTable
 70
     9
  0
BLOCK_RECORD
  5
1F
330
1
100
AcDbSymbolTableRecord
100
AcDbBlockTableRecord
  2
*Model_Space
340
22
  0
BLOCK_RECORD
  5
1B
330
1
100
AcDbSymbolTableRecord
100
AcDbBlockTableRecord
  2
*Paper_Space
340
1E
  0
BLOCK_RECORD
  5
23
330
1
100
AcDbSymbolTableRecord
100
AcDbBlockTableRecord
  2
*Paper_Space0
340
26
  0
BLOCK_RECORD
  5
1A8
330
1
100
AcDbSymbolTableRecord
100
AcDbBlockTableRecord
  2
*D1
340
0
  0
BLOCK_RECORD
  5
1B5
330
1
100
AcDbSymbolTableRecord
100
AcDbBlockTableRecord
  2
*D2
340
0
  0
BLOCK_RECORD
  5
1C0
330
1
100
AcDbSymbolTableRecord
100
AcDbBlockTableRecord
  2
*D3
340
0
  0
BLOCK_RECORD
  5
1CD
330
1
100
AcDbSymbolTableRecord
100
AcDbBlockTableRecord
  2
*D4
340
0
  0
BLOCK_RECORD
  5
1D8
330
1
100
AcDbSymbolTableRecord
100
AcDbBlockTableRecord
  2
*D5
340
0
  0
BLOCK_RECORD
  5
1E2
330
1
100
AcDbSymbolTableRecord
100
AcDbBlockTableRecord
  2
*D6
340
0
  0
BLOCK_RECORD
  5
1EC
330
1
100
AcDbSymbolTableRecord
100
AcDbBlockTableRecord
  2
*D7
340
0
  0
BLOCK_RECORD
  5
1F6
330
1
100
AcDbSymbolTableRecord
100
AcDbBlockTableRecord
  2
*D8
340
0
  0
ENDTAB
  0
ENDSEC
  0
SECTION
  2
BLOCKS
  0
BLOCK
  5
20
330
1F
100
AcDbEntity
  8
0
100
AcDbBlockBegin
  2
*Model_Space
 70
     0
 10
0.0
 20
0.0
 30
0.0
  3
*Model_Space
  1

  0
ENDBLK
  5
21
330
1F
100
AcDbEntity
  8
0
100
AcDbBlockEnd
  0
BLOCK
  5
1C
330
1B
100
AcDbEntity
 67
     1
  8
0
100
AcDbBlockBegin
  2
*Paper_Space
 70
     0
 10
0.0
 20
0.0
 30
0.0
  3
*Paper_Space
  1

  0
ENDBLK
  5
1D
330
1B
100
AcDbEntity
 67
     1
  8
0
100
AcDbBlockEnd
  0
BLOCK
  5
24
330
23
100
AcDbEntity
  8
0
100
AcDbBlockBegin
  2
*Paper_Space0
 70
     0
 10
0.0
 20
0.0
 30
0.0
  3
*Paper_Space0
  1

  0
ENDBLK
  5
25
330
23
100
AcDbEntity
  8
0
100
AcDbBlockEnd
  0
BLOCK
  5
1A9
330
1A8
100
AcDbEntity
  8
0
100
AcDbBlockBegin
  2
*D1
 70
     1
 10
0.0
 20
0.0
 30
0.0
  3
*D1
  1

  0
SOLID
  5
1AB
330
1A8
100
AcDbEntity
  8
VERMASSUNG
100
AcDbTrace
 10
55.9043336945
 20
161.3819068256
 30
0.0
 11
55.4543336945
 21
158.3819068256
 31
0.0
 12
56.3543336945
 22
158.3819068256
 32
0.0
 13
56.3543336945
 23
158.3819068256
 33
0.0
  0
SOLID
  5
1AC
330
1A8
100
AcDbEntity
  8
VERMASSUNG
100
AcDbTrace
 10
55.9043336945
 20
61.3819068256
 30
0.0
 11
56.3543336945
 21
64.3819068256
 31
0.0
 12
55.4543336945
 22
64.3819068256
 32
0.0
 13
55.4543336945
 23
64.3819068256
 33
0.0
  0
LINE
  5
1AD
330
1A8
100
AcDbEntity
  8
VERMASSUNG
100
AcDbLine
 10
112.7124325015
 20
161.3819068256
 30
0.0
 11
54.9043336945
 21
161.3819068256
 31
0.0
  0
LINE
  5
1AE
330
1A8
100
AcDbEntity
  8
VERMASSUNG
100
AcDbLine
 10
112.7124325015
 20
61.3819068256
 30
0.0
 11
54.9043336945
 21
61.3819068256
 31
0.0
  0
LINE
  5
1AF
330
1A8
100
AcDbEntity
  8
VERMASSUNG
100
AcDbLine
 10
55.9043336945
 20
161.3819068256
 30
0.0
 11
55.9043336945
 21
61.3819068256
 31
0.0
  0
MTEXT
  5
1B0
330
1A8
100
AcDbEntity
  8
VERMASSUNG
100
AcDbMText
 10
53.1261982054
 20
103.178255688
 30
0.0
 40
2.0
 41
0.0
 71
     1
 72
     1
  1
HSK A 
  7
SLDTEXTSTYLE0
 11
-7.044195017643634E-15
 21
1.0
 31
0.0
 73
     1
 44
1.0
  0
MTEXT
  5
1B1
330
1A8
100
AcDbEntity
  8
VERMASSUNG
100
AcDbMText
 10
53.3261982149
 20
112.1782562319
 30
0.0
 40
2.0
 41
0.0
 71
     1
 72
     1
  1
%%c
  7
SLDTEXTSTYLE0
 11
-7.044195017643634E-15
 21
1.0
 31
0.0
 73
     1
 44
1.0
  0
MTEXT
  5
1B2
330
1A8
100
AcDbEntity
  8
VERMASSUNG
100
AcDbMText
 10
53.3261983313
 20
115.7865828819
 30
0.0
 40
2.0
 41
0.0
 71
     1
 72
     1
  1
100
  7
SLDTEXTSTYLE0
 11
-7.044195017643634E-15
 21
1.0
 31
0.0
 73
     1
 44
1.0
  0
ENDBLK
  5
1AA
330
1A8
100
AcDbEntity
  8
0
100
AcDbBlockEnd
  0
BLOCK
  5
1B6
330
1B5
100
AcDbEntity
  8
0
100
AcDbBlockBegin
  2
*D2
 70
     1
 10
0.0
 20
0.0
 30
0.0
  3
*D2
  1

  0
SOLID
  5
1B8
330
1B5
100
AcDbEntity
  8
VERMASSUNG
100
AcDbTrace
 10
165.7124325015
 20
159.3819068256
 30
0.0
 11
168.7124325015
 21
158.9319068256
 31
0.0
 12
168.7124325015
 22
159.8319068256
 32
0.0
 13
168.7124325015
 23
159.8319068256
 33
0.0
  0
SOLID
  5
1B9
330
1B5
100
AcDbEntity
  8
VERMASSUNG
100
AcDbTrace
 10
217.2124325015
 20
159.3819068256
 30
0.0
 11
214.2124325015
 21
159.8319068256
 31
0.0
 12
214.2124325015
 22
158.9319068256
 32
0.0
 13
214.2124325015
 23
158.9319068256
 33
0.0
  0
LINE
  5
1BA
330
1B5
100
AcDbEntity
  8
VERMASSUNG
100
AcDbLine
 10
165.7124325015
 20
121.2819068256
 30
0.0
 11
165.7124325015
 21
160.3819068256
 31
0.0
  0
LINE
  5
1BB
330
1B5
100
AcDbEntity
  8
VERMASSUNG
100
AcDbLine
 10
217.2124325015
 20
126.0331258423
 30
0.0
 11
217.2124325015
 21
160.3819068256
 31
0.0
  0
LINE
  5
1BC
330
1B5
100
AcDbEntity
  8
VERMASSUNG
100
AcDbLine
 10
165.7124325015
 20
159.3819068256
 30
0.0
 11
217.2124325015
 21
159.3819068256
 31
0.0
  0
MTEXT
  5
1BD
330
1B5
100
AcDbEntity
  8
VERMASSUNG
100
AcDbMText
 10
189.2635755134
 20
161.9600421887
 30
0.0
 40
2.0
 41
0.0
 71
     1
 72
     1
  1
51.5
  7
SLDTEXTSTYLE0
 73
     1
 44
1.0
  0
ENDBLK
  5
1B7
330
1B5
100
AcDbEntity
  8
0
100
AcDbBlockEnd
  0
BLOCK
  5
1C1
330
1C0
100
AcDbEntity
  8
0
100
AcDbBlockBegin
  2
*D3
 70
     1
 10
0.0
 20
0.0
 30
0.0
  3
*D3
  1

  0
SOLID
  5
1C3
330
1C0
100
AcDbEntity
  8
VERMASSUNG
100
AcDbTrace
 10
224.3866738895
 20
101.3819068256
 30
0.0
 11
224.8366738895
 21
104.3819068256
 31
0.0
 12
223.9366738895
 22
104.3819068256
 32
0.0
 13
223.9366738895
 23
104.3819068256
 33
0.0
  0
SOLID
  5
1C4
330
1C0
100
AcDbEntity
  8
VERMASSUNG
100
AcDbTrace
 10
224.3866738895
 20
121.3819068256
 30
0.0
 11
223.9366738895
 21
118.3819068256
 31
0.0
 12
224.8366738895
 22
118.3819068256
 32
0.0
 13
224.8366738895
 23
118.3819068256
 33
0.0
  0
LINE
  5
1C5
330
1C0
100
AcDbEntity
  8
VERMASSUNG
100
AcDbLine
 10
213.7124325015
 20
101.3819068256
 30
0.0
 11
225.3866738895
 21
101.3819068256
 31
0.0
  0
LINE
  5
1C6
330
1C0
100
AcDbEntity
  8
VERMASSUNG
100
AcDbLine
 10
213.7124325015
 20
121.3819068256
 30
0.0
 11
225.3866738895
 21
121.3819068256
 31
0.0
  0
LINE
  5
1C7
330
1C0
100
AcDbEntity
  8
VERMASSUNG
100
AcDbLine
 10
224.3866738895
 20
101.3819068256
 30
0.0
 11
224.3866738895
 21
121.3819068256
 31
0.0
  0
MTEXT
  5
1C8
330
1C0
100
AcDbEntity
  8
VERMASSUNG
100
AcDbMText
 10
221.8085384099
 20
107.5782903575
 30
0.0
 40
2.0
 41
0.0
 71
     1
 72
     1
  1
%%c
  7
SLDTEXTSTYLE0
 11
6.123233995736766E-17
 21
1.0
 31
0.0
 73
     1
 44
1.0
  0
MTEXT
  5
1C9
330
1C0
100
AcDbEntity
  8
VERMASSUNG
100
AcDbMText
 10
221.8085385264
 20
111.1869685807
 30
0.0
 40
2.0
 41
0.0
 71
     1
 72
     1
  1
20
  7
SLDTEXTSTYLE0
 11
6.123233995736766E-17
 21
1.0
 31
0.0
 73
     1
 44
1.0
  0
MTEXT
  5
1CA
330
1C0
100
AcDbEntity
  8
VERMASSUNG
100
AcDbMText
 10
221.8085385264
 20
113.9857248104
 30
0.0
 40
2.0
 41
0.0
 71
     1
 72
     1
  1
 
  7
SLDTEXTSTYLE0
 11
6.123233995736766E-17
 21
1.0
 31
0.0
 73
     1
 44
1.0
  0
ENDBLK
  5
1C2
330
1C0
100
AcDbEntity
  8
0
100
AcDbBlockEnd
  0
BLOCK
  5
1CE
330
1CD
100
AcDbEntity
  8
0
100
AcDbBlockBegin
  2
*D4
 70
     1
 10
0.0
 20
0.0
 30
0.0
  3
*D4
  1

  0
SOLID
  5
1D0
330
1CD
100
AcDbEntity
  8
VERMASSUNG
100
AcDbTrace
 10
230.3866738895
 20
94.8819068256
 30
0.0
 11
230.8366738895
 21
97.8819068256
 31
0.0
 12
229.9366738895
 22
97.8819068256
 32
0.0
 13
229.9366738895
 23
97.8819068256
 33
0.0
  0
SOLID
  5
1D1
330
1CD
100
AcDbEntity
  8
VERMASSUNG
100
AcDbTrace
 10
230.3866738895
 20
127.8819068256
 30
0.0
 11
229.9366738895
 21
124.8819068256
 31
0.0
 12
230.8366738895
 22
124.8819068256
 32
0.0
 13
230.8366738895
 23
124.8819068256
 33
0.0
  0
LINE
  5
1D2
330
1CD
100
AcDbEntity
  8
VERMASSUNG
100
AcDbLine
 10
217.2124325015
 20
94.8819068256
 30
0.0
 11
231.3866738895
 21
94.8819068256
 31
0.0
  0
LINE
  5
1D3
330
1CD
100
AcDbEntity
  8
VERMASSUNG
100
AcDbLine
 10
217.2124325015
 20
127.8819068256
 30
0.0
 11
231.3866738895
 21
127.8819068256
 31
0.0
  0
LINE
  5
1D4
330
1CD
100
AcDbEntity
  8
VERMASSUNG
100
AcDbLine
 10
230.3866738895
 20
94.8819068256
 30
0.0
 11
230.3866738895
 21
127.8819068256
 31
0.0
  0
MTEXT
  5
1D5
330
1CD
100
AcDbEntity
  8
VERMASSUNG
100
AcDbMText
 10
227.8085384099
 20
108.1781895991
 30
0.0
 40
2.0
 41
0.0
 71
     1
 72
     1
  1
%%c
  7
SLDTEXTSTYLE0
 11
6.123233995736766E-17
 21
1.0
 31
0.0
 73
     1
 44
1.0
  0
MTEXT
  5
1D6
330
1CD
100
AcDbEntity
  8
VERMASSUNG
100
AcDbMText
 10
227.8085385264
 20
111.7868678223
 30
0.0
 40
2.0
 41
0.0
 71
     1
 72
     1
  1
33
  7
SLDTEXTSTYLE0
 11
6.123233995736766E-17
 21
1.0
 31
0.0
 73
     1
 44
1.0
  0
ENDBLK
  5
1CF
330
1CD
100
AcDbEntity
  8
0
100
AcDbBlockEnd
  0
BLOCK
  5
1D9
330
1D8
100
AcDbEntity
  8
0
100
AcDbBlockBegin
  2
*D5
 70
     1
 10
0.0
 20
0.0
 30
0.0
  3
*D5
  1

  0
SOLID
  5
1DB
330
1D8
100
AcDbEntity
  8
VERMASSUNG
100
AcDbTrace
 10
112.2124325015
 20
171.3819068256
 30
0.0
 11
115.2124325015
 21
170.9319068256
 31
0.0
 12
115.2124325015
 22
171.8319068256
 32
0.0
 13
115.2124325015
 23
171.8319068256
 33
0.0
  0
SOLID
  5
1DC
330
1D8
100
AcDbEntity
  8
VERMASSUNG
100
AcDbTrace
 10
217.2124325015
 20
171.3819068256
 30
0.0
 11
214.2124325015
 21
171.8319068256
 31
0.0
 12
214.2124325015
 22
170.9319068256
 32
0.0
 13
214.2124325015
 23
170.9319068256
 33
0.0
  0
LINE
  5
1DD
330
1D8
100
AcDbEntity
  8
VERMASSUNG
100
AcDbLine
 10
112.2124325015
 20
160.8819068256
 30
0.0
 11
112.2124325015
 21
172.3819068256
 31
0.0
  0
LINE
  5
1DE
330
1D8
100
AcDbEntity
  8
VERMASSUNG
100
AcDbLine
 10
217.2124325015
 20
126.0331258423
 30
0.0
 11
217.2124325015
 21
172.3819068256
 31
0.0
  0
LINE
  5
1DF
330
1D8
100
AcDbEntity
  8
VERMASSUNG
100
AcDbLine
 10
112.2124325015
 20
171.3819068256
 30
0.0
 11
217.2124325015
 21
171.3819068256
 31
0.0
  0
MTEXT
  5
1E0
330
1D8
100
AcDbEntity
  8
VERMASSUNG
100
AcDbMText
 10
162.8129449609
 20
173.9600421887
 30
0.0
 40
2.0
 41
0.0
 71
     1
 72
     1
  1
105
  7
SLDTEXTSTYLE0
 73
     1
 44
1.0
  0
ENDBLK
  5
1DA
330
1D8
100
AcDbEntity
  8
0
100
AcDbBlockEnd
  0
BLOCK
  5
1E3
330
1E2
100
AcDbEntity
  8
0
100
AcDbBlockBegin
  2
*D6
 70
     1
 10
0.0
 20
0.0
 30
0.0
  3
*D6
  1

  0
SOLID
  5
1E5
330
1E2
100
AcDbEntity
  8
VERMASSUNG
100
AcDbTrace
 10
141.1624325015
 20
165.3819068256
 30
0.0
 11
144.1624325015
 21
164.9319068256
 31
0.0
 12
144.1624325015
 22
165.8319068256
 32
0.0
 13
144.1624325015
 23
165.8319068256
 33
0.0
  0
SOLID
  5
1E6
330
1E2
100
AcDbEntity
  8
VERMASSUNG
100
AcDbTrace
 10
217.2124325015
 20
165.3819068256
 30
0.0
 11
214.2124325015
 21
165.8319068256
 31
0.0
 12
214.2124325015
 22
164.9319068256
 32
0.0
 13
214.2124325015
 23
164.9319068256
 33
0.0
  0
LINE
  5
1E7
330
1E2
100
AcDbEntity
  8
VERMASSUNG
100
AcDbLine
 10
141.1624325015
 20
159.3506466464
 30
0.0
 11
141.1624325015
 21
166.3819068256
 31
0.0
  0
LINE
  5
1E8
330
1E2
100
AcDbEntity
  8
VERMASSUNG
100
AcDbLine
 10
217.2124325015
 20
126.0331258423
 30
0.0
 11
217.2124325015
 21
166.3819068256
 31
0.0
  0
LINE
  5
1E9
330
1E2
100
AcDbEntity
  8
VERMASSUNG
100
AcDbLine
 10
141.1624325015
 20
165.3819068256
 30
0.0
 11
217.2124325015
 21
165.3819068256
 31
0.0
  0
MTEXT
  5
1EA
330
1E2
100
AcDbEntity
  8
VERMASSUNG
100
AcDbMText
 10
176.0881464777
 20
167.9600421887
 30
0.0
 40
2.0
 41
0.0
 71
     1
 72
     1
  1
76.05
  7
SLDTEXTSTYLE0
 73
     1
 44
1.0
  0
ENDBLK
  5
1E4
330
1E2
100
AcDbEntity
  8
0
100
AcDbBlockEnd
  0
BLOCK
  5
1ED
330
1EC
100
AcDbEntity
  8
0
100
AcDbBlockBegin
  2
*D7
 70
     1
 10
0.0
 20
0.0
 30
0.0
  3
*D7
  1

  0
SOLID
  5
1EF
330
1EC
100
AcDbEntity
  8
VERMASSUNG
100
AcDbTrace
 10
62.3124325015
 20
177.3819068256
 30
0.0
 11
65.3124325015
 21
176.9319068256
 31
0.0
 12
65.3124325015
 22
177.8319068256
 32
0.0
 13
65.3124325015
 23
177.8319068256
 33
0.0
  0
SOLID
  5
1F0
330
1EC
100
AcDbEntity
  8
VERMASSUNG
100
AcDbTrace
 10
217.2124325015
 20
177.3819068256
 30
0.0
 11
214.2124325015
 21
177.8319068256
 31
0.0
 12
214.2124325015
 22
176.9319068256
 32
0.0
 13
214.2124325015
 23
176.9319068256
 33
0.0
  0
LINE
  5
1F1
330
1EC
100
AcDbEntity
  8
VERMASSUNG
100
AcDbLine
 10
62.3124325015
 20
141.8845765681
 30
0.0
 11
62.3124325015
 21
178.3819068256
 31
0.0
  0
LINE
  5
1F2
330
1EC
100
AcDbEntity
  8
VERMASSUNG
100
AcDbLine
 10
217.2124325015
 20
126.0331258423
 30
0.0
 11
217.2124325015
 21
178.3819068256
 31
0.0
  0
LINE
  5
1F3
330
1EC
100
AcDbEntity
  8
VERMASSUNG
100
AcDbLine
 10
62.3124325015
 20
177.3819068256
 30
0.0
 11
217.2124325015
 21
177.3819068256
 31
0.0
  0
MTEXT
  5
1F4
330
1EC
100
AcDbEntity
  8
VERMASSUNG
100
AcDbMText
 10
136.7629362935
 20
179.9600421887
 30
0.0
 40
2.0
 41
0.0
 71
     1
 72
     1
  1
154.9
  7
SLDTEXTSTYLE0
 73
     1
 44
1.0
  0
ENDBLK
  5
1EE
330
1EC
100
AcDbEntity
  8
0
100
AcDbBlockEnd
  0
BLOCK
  5
1F7
330
1F6
100
AcDbEntity
  8
0
100
AcDbBlockBegin
  2
*D8
 70
     1
 10
0.0
 20
0.0
 30
0.0
  3
*D8
  1

  0
SOLID
  5
1F9
330
1F6
100
AcDbEntity
  8
VERMASSUNG
100
AcDbTrace
 10
236.3866738895
 20
131.8819068256
 30
0.0
 11
235.9366738895
 21
128.8819068256
 31
0.0
 12
236.8366738895
 22
128.8819068256
 32
0.0
 13
236.8366738895
 23
128.8819068256
 33
0.0
  0
SOLID
  5
1FA
330
1F6
100
AcDbEntity
  8
VERMASSUNG
100
AcDbTrace
 10
236.3866738895
 20
90.8819068256
 30
0.0
 11
236.8366738895
 21
93.8819068256
 31
0.0
 12
235.9366738895
 22
93.8819068256
 32
0.0
 13
235.9366738895
 23
93.8819068256
 33
0.0
  0
LINE
  5
1FB
330
1F6
100
AcDbEntity
  8
VERMASSUNG
100
AcDbLine
 10
166.2124325015
 20
131.8819068256
 30
0.0
 11
237.3866738895
 21
131.8819068256
 31
0.0
  0
LINE
  5
1FC
330
1F6
100
AcDbEntity
  8
VERMASSUNG
100
AcDbLine
 10
166.3876135568
 20
90.8819068256
 30
0.0
 11
237.3866738895
 21
90.8819068256
 31
0.0
  0
LINE
  5
1FD
330
1F6
100
AcDbEntity
  8
VERMASSUNG
100
AcDbLine
 10
236.3866738895
 20
131.8819068256
 30
0.0
 11
236.3866738895
 21
90.8819068256
 31
0.0
  0
MTEXT
  5
1FE
330
1F6
100
AcDbEntity
  8
VERMASSUNG
100
AcDbMText
 10
233.8085384099
 20
108.277979415
 30
0.0
 40
2.0
 41
0.0
 71
     1
 72
     1
  1
%%c
  7
SLDTEXTSTYLE0
 11
-7.044195017643634E-15
 21
1.0
 31
0.0
 73
     1
 44
1.0
  0
MTEXT
  5
1FF
330
1F6
100
AcDbEntity
  8
VERMASSUNG
100
AcDbMText
 10
233.8085385264
 20
111.8866576381
 30
0.0
 40
2.0
 41
0.0
 71
     1
 72
     1
  1
41
  7
SLDTEXTSTYLE0
 11
-7.044195017643634E-15
 21
1.0
 31
0.0
 73
     1
 44
1.0
  0
ENDBLK
  5
1F8
330
1F6
100
AcDbEntity
  8
0
100
AcDbBlockEnd
  0
ENDSEC
  0
SECTION
  2
ENTITIES
  0
MTEXT
  5
45
330
1F
100
AcDbEntity
  8
KOPF_DÜNN
100
AcDbMText
 10
13.8892156294
 20
23.8442973028
 30
0.0
 40
3.0
 41
0.0
 71
     1
 72
     1
  1
HA0.S20.K21.105
  7
SLDTEXTSTYLE0
 73
     1
 44
1.0
  0
MTEXT
  5
46
330
1F
100
AcDbEntity
  8
VERMASSUNG
100
AcDbMText
 10
13.9329988022
 20
28.8834360957
 30
0.0
 40
3.0
 41
0.0
 71
     1
 72
     1
  1
Schrumpffutter_Heat shrink chuck
  7
SLDTEXTSTYLE0
 73
     1
 44
1.0
  0
MTEXT
  5
47
330
1F
100
AcDbEntity
  8
VERMASSUNG
100
AcDbMText
 10
98.8601118557
 20
13.8365368179
 30
0.0
 40
2.0
 41
0.0
 71
     1
 72
     1
  1
Datum: 02.05.2011
  7
SLDTEXTSTYLE0
 73
     1
 44
1.0
  0
MTEXT
  5
49
330
1F
100
AcDbEntity
  8
VERMASSUNG
100
AcDbMText
 10
13.933048693
 20
18.0482802738
 30
0.0
 40
2.0
 41
0.0
 71
     1
 72
     1
  1
DIN 69 893 HSK A 100
  7
SLDTEXTSTYLE1
 73
     1
 44
1.0
  0
MTEXT
  5
4A
330
1F
100
AcDbEntity
  8
VERMASSUNG
100
AcDbMText
 10
13.9808475933
 20
13.9090973692
 30
0.0
 40
2.0
 41
0.0
 71
     1
 72
     1
  1
Gewicht: 2535g
  7
SLDTEXTSTYLE0
 73
     1
 44
1.0
  0
LINE
  5
4B
330
1F
100
AcDbEntity
  8
0
  6
Continuous
 62
     7
370
    15
100
AcDbLine
 10
112.7124325015
 20
61.3819068256
 30
0.0
 11
117.1624325015
 21
61.3819068256
 31
0.0
  0
LINE
  5
4C
330
1F
100
AcDbEntity
  8
0
  6
Continuous
 62
     7
370
    15
100
AcDbLine
 10
117.177810473
 20
161.3819068256
 30
0.0
 11
112.7124325015
 21
161.3819068256
 31
0.0
  0
ARC
  5
4D
330
1F
100
AcDbEntity
  8
0
  6
Continuous
 62
     7
370
    15
100
AcDbCircle
 10
112.7124325015
 20
61.8819068256
 30
0.0
 40
0.5
100
AcDbArc
 50
180.0
 51
270.0
  0
ARC
  5
4E
330
1F
100
AcDbEntity
  8
0
  6
Continuous
 62
     7
370
    15
100
AcDbCircle
 10
112.7124325015
 20
160.8819068256
 30
0.0
 40
0.5
100
AcDbArc
 50
90.0
 51
180.0
  0
ARC
  5
4F
330
1F
100
AcDbEntity
  8
0
  6
Continuous
 62
     7
370
    15
100
AcDbCircle
 10
111.3154955831
 20
72.7534215011
 30
0.0
 40
0.9962338214386921
100
AcDbArc
 50
25.7988228126
 51
90.0
  0
ARC
  5
50
330
1F
100
AcDbEntity
  8
0
  6
Continuous
 62
     7
370
    15
100
AcDbCircle
 10
111.3154955831
 20
150.01039215
 30
0.0
 40
0.9962338214386932
100
AcDbArc
 50
270.0
 51
334.2011771874
  0
LINE
  5
51
330
1F
100
AcDbEntity
  8
0
  6
Continuous
 62
     7
370
    15
100
AcDbLine
 10
109.7124325015
 20
73.4996553226
 30
0.0
 11
110.5182786559
 21
73.7155811489
 31
0.0
  0
LINE
  5
52
330
1F
100
AcDbEntity
  8
0
  6
Continuous
 62
     7
370
    15
100
AcDbLine
 10
110.5182786559
 20
149.0482325023
 30
0.0
 11
109.7124325015
 21
149.2641583286
 31
0.0
  0
LINE
  5
53
330
1F
100
AcDbEntity
  8
0
  6
Continuous
 62
     7
370
    15
100
AcDbLine
 10
90.7317535829
 20
148.313222511
 30
0.0
 11
72.4124325015
 21
147.3954208536
 31
0.0
  0
LINE
  5
54
330
1F
100
AcDbEntity
  8
0
  6
Continuous
 62
     7
370
    15
100
AcDbLine
 10
109.7124325015
 20
149.2641583286
 30
0.0
 11
103.6443933471
 21
148.9601483509
 31
0.0
  0
LINE
  5
55
330
1F
100
AcDbEntity
  8
0
  6
Continuous
 62
     7
370
    15
100
AcDbLine
 10
103.6445166235
 20
73.8036591241
 30
0.0
 11
109.7124325015
 21
73.4996553226
 31
0.0
  0
LINE
  5
56
330
1F
100
AcDbEntity
  8
0
  6
Continuous
 62
     7
370
    15
100
AcDbLine
 10
77.4124325015
 20
75.1178917955
 30
0.0
 11
90.7323836554
 21
74.4505595734
 31
0.0
  0
ARC
  5
57
330
1F
100
AcDbEntity
  8
0
  6
Continuous
 62
     7
370
    15
100
AcDbCircle
 10
110.777097701
 20
72.7496553226
 30
0.0
 40
0.9999999999999993
100
AcDbArc
 50
90.0
 51
105.0
  0
ARC
  5
58
330
1F
100
AcDbEntity
  8
0
  6
Continuous
 62
     7
370
    15
100
AcDbCircle
 10
110.777097701
 20
150.0141583286
 30
0.0
 40
1.0
100
AcDbArc
 50
255.0
 51
270.0
  0
LINE
  5
59
330
1F
100
AcDbEntity
  8
0
  6
Continuous
 62
     7
370
    15
100
AcDbLine
 10
110.777097701
 20
73.7496553226
 30
0.0
 11
111.3154955831
 21
73.7496553226
 31
0.0
  0
LINE
  5
5A
330
1F
100
AcDbEntity
  8
0
  6
Continuous
 62
     7
370
    15
100
AcDbLine
 10
111.3154955831
 20
149.0141583286
 30
0.0
 11
110.777097701
 21
149.0141583286
 31
0.0
  0
ARC
  5
5B
330
1F
100
AcDbEntity
  8
0
  6
Continuous
 62
     7
370
    15
100
AcDbCircle
 10
146.1624325015
 20
85.8819068256
 30
0.0
 40
5.0
100
AcDbArc
 50
90.0
 51
180.0
  0
ARC
  5
5C
330
1F
100
AcDbEntity
  8
0
  6
Continuous
 62
     7
370
    15
100
AcDbCircle
 10
146.1624325015
 20
136.8819068256
 30
0.0
 40
5.0
100
AcDbArc
 50
180.0
 51
270.0
  0
LINE
  5
5D
330
1F
100
AcDbEntity
  8
0
  6
Continuous
 62
     7
370
    15
100
AcDbLine
 10
157.6611895163
 20
90.8819068256
 30
0.0
 11
166.3876135568
 21
90.8819068256
 31
0.0
  0
LINE
  5
5E
330
1F
100
AcDbEntity
  8
0
  6
Continuous
 62
     7
370
    15
100
AcDbLine
 10
146.1624325015
 20
90.8819068256
 30
0.0
 11
150.6729930829
 21
90.8819068256
 31
0.0
  0
LINE
  5
5F
330
1F
100
AcDbEntity
  8
0
  6
Continuous
 62
     7
370
    15
100
AcDbLine
 10
150.6656606624
 20
131.8819068256
 30
0.0
 11
146.1624325015
 21
131.8819068256
 31
0.0
  0
LINE
  5
60
330
1F
100
AcDbEntity
  8
0
  6
Continuous
 62
     7
370
    15
100
AcDbLine
 10
166.2140914594
 20
131.8819068256
 30
0.0
 11
157.6534313242
 21
131.8819068256
 31
0.0
  0
LINE
  5
61
330
1F
100
AcDbEntity
  8
0
  6
Continuous
 62
     7
370
    15
100
AcDbLine
 10
166.3876135568
 20
90.8819068256
 30
0.0
 11
215.369350693
 21
94.7368531414
 31
0.0
  0
LINE
  5
62
330
1F
100
AcDbEntity
  8
0
  6
Continuous
 62
     7
370
    15
100
AcDbLine
 10
215.369350693
 20
128.0269605097
 30
0.0
 11
166.2124325015
 21
131.8956938736
 31
0.0
  0
LINE
  5
63
330
1F
100
AcDbEntity
  8
0
  6
Continuous
 62
     7
370
    15
100
AcDbLine
 10
63.9624325015
 20
79.1319068256
 30
0.0
 11
75.5124325015
 21
79.1319068256
 31
0.0
  0
ARC
  5
64
330
1F
100
AcDbEntity
  8
0
  6
Continuous
 62
     7
370
    15
100
AcDbCircle
 10
215.2124325015
 20
96.7306878089
 30
0.0
 40
2.0
100
AcDbArc
 50
274.5
 51
0.0
  0
ARC
  5
65
330
1F
100
AcDbEntity
  8
0
  6
Continuous
 62
     7
370
    15
100
AcDbCircle
 10
215.2124325015
 20
126.0331258423
 30
0.0
 40
2.000000000000033
100
AcDbArc
 50
0.0
 51
85.5
  0
ARC
  5
66
330
1F
100
AcDbEntity
  8
0
  6
Continuous
 62
     7
370
    15
100
AcDbCircle
 10
75.5124325015
 20
77.2319068256
 30
0.0
 40
1.900000000000007
100
AcDbArc
 50
35.6630613694
 51
90.0
  0
ARC
  5
67
330
1F
100
AcDbEntity
  8
0
  6
Continuous
 62
     7
370
    15
100
AcDbCircle
 10
70.5124325015
 20
145.5319068256
 30
0.0
 40
1.900000000000006
100
AcDbArc
 50
270.0
 51
310.9212832533
  0
LINE
  5
68
330
1F
100
AcDbEntity
  8
0
  6
Continuous
 62
     7
370
    15
100
AcDbLine
 10
63.9624325015
 20
143.6319068256
 30
0.0
 11
62.3701460366
 21
142.0396203606
 31
0.0
  0
LINE
  5
69
330
1F
100
AcDbEntity
  8
0
  6
Continuous
 62
     7
370
    15
100
AcDbLine
 10
62.3699993966
 20
80.7243399305
 30
0.0
 11
63.9624325015
 21
79.1319068256
 31
0.0
  0
LINE
  5
6A
330
1F
100
AcDbEntity
  8
0
  6
Continuous
 62
     7
370
    15
100
AcDbLine
 10
70.5124325015
 20
143.6319068256
 30
0.0
 11
63.9624325015
 21
143.6319068256
 31
0.0
  0
LINE
  5
6B
330
1F
100
AcDbEntity
  8
0
  6
Continuous
 62
     7
370
    15
100
AcDbLine
 10
217.2124325015
 20
97.0175385652
 30
0.0
 11
217.2897547087
 21
97.1645039076
 31
0.0
  0
LINE
  5
6C
330
1F
100
AcDbEntity
  8
0
  6
Continuous
 62
     7
370
    15
100
AcDbLine
 10
217.230864985
 20
125.601623527
 30
0.0
 11
217.2124325015
 21
125.6366579156
 31
0.0
  0
SPLINE
  5
6D
330
1F
100
AcDbEntity
  8
0
  6
Continuous
 62
     7
370
    15
100
AcDbSpline
210
0.0
220
0.0
230
1.0
 70
     8
 71
     3
 72
    80
 73
    76
 74
     0
 42
0.00000001
 43
0.00000001
 40
-0.0312500000000001
 40
-0.0312500000000001
 40
0.0
 40
0.0
 40
0.0312499999999995
 40
0.0312499999999995
 40
0.0468749999999993
 40
0.0468749999999993
 40
0.0624999999999991
 40
0.0624999999999991
 40
0.0937499999999988
 40
0.0937499999999988
 40
0.1249999999999986
 40
0.1249999999999986
 40
0.1562499999999983
 40
0.1562499999999983
 40
0.1874999999999981
 40
0.1874999999999981
 40
0.2187499999999978
 40
0.2187499999999978
 40
0.2499999999999976
 40
0.2499999999999976
 40
0.2812499999999973
 40
0.2812499999999973
 40
0.3124999999999971
 40
0.3124999999999971
 40
0.3281249999999971
 40
0.3281249999999971
 40
0.3437499999999971
 40
0.3437499999999971
 40
0.3749999999999973
 40
0.3749999999999973
 40
0.4062499999999975
 40
0.4062499999999975
 40
0.4218749999999975
 40
0.4218749999999975
 40
0.4374999999999974
 40
0.4374999999999974
 40
0.4687499999999973
 40
0.4687499999999973
 40
0.4999999999999972
 40
0.4999999999999972
 40
0.531249999999997
 40
0.531249999999997
 40
0.562499999999997
 40
0.562499999999997
 40
0.5937499999999969
 40
0.5937499999999969
 40
0.6249999999999969
 40
0.6249999999999969
 40
0.6562499999999968
 40
0.6562499999999968
 40
0.6874999999999968
 40
0.6874999999999968
 40
0.7031249999999968
 40
0.7031249999999968
 40
0.7187499999999969
 40
0.7187499999999969
 40
0.7499999999999973
 40
0.7499999999999973
 40
0.7812499999999979
 40
0.7812499999999979
 40
0.7968749999999982
 40
0.7968749999999982
 40
0.8124999999999984
 40
0.8124999999999984
 40
0.8437499999999988
 40
0.8437499999999988
 40
0.874999999999999
 40
0.874999999999999
 40
0.9062499999999993
 40
0.9062499999999993
 40
0.9374999999999996
 40
0.9374999999999996
 40
0.9687499999999999
 40
0.9687499999999999
 40
1.0
 40
1.0
 40
1.03125
 40
1.03125
 10
120.8818871887401
 20
154.7965362892001
 30
0.0
 10
121.5429778142927
 20
154.7965362892001
 30
0.0
 10
121.8679579435443
 20
154.8127445205823
 30
0.0
 10
122.3474313547907
 20
154.8601091526019
 30
0.0
 10
122.5059131726315
 20
154.8797633644925
 30
0.0
 10
122.8201327051358
 20
154.9268745206851
 30
0.0
 10
122.9762529888162
 20
154.9544558401798
 30
0.0
 10
123.4303070177728
 20
155.0469916269736
 30
0.0
 10
123.7174104007126
 20
155.1220620605701
 30
0.0
 10
124.2607649567396
 20
155.2973003691807
 30
0.0
 10
124.5178685679452
 20
155.398301667019
 30
0.0
 10
124.978774822884
 20
155.6156578654798
 30
0.0
 10
125.185672532099
 20
155.7328221972521
 30
0.0
 10
125.5511978460912
 20
155.9828921214807
 30
0.0
 10
125.7064033682171
 20
156.1138382102397
 30
0.0
 10
125.9558337548168
 20
156.3795731539521
 30
0.0
 10
126.051923710602
 20
156.516326747263
 30
0.0
 10
126.1804425597956
 20
156.790392322102
 30
0.0
 10
126.2122534299734
 20
156.9253324125708
 30
0.0
 10
126.2126100797466
 20
157.1908040496396
 30
0.0
 10
126.1801128275496
 20
157.3226285267809
 30
0.0
 10
126.0524873538351
 20
157.5720781264012
 30
0.0
 10
125.9580589527832
 20
157.6905108183292
 30
0.0
 10
125.7701981327976
 20
157.8593800154233
 30
0.0
 10
125.6993701339944
 20
157.9144660105435
 30
0.0
 10
125.5446482420292
 20
158.0197188390319
 30
0.0
 10
125.4606717718458
 20
158.0700540677923
 30
0.0
 10
125.1893481022013
 20
158.2146299003303
 30
0.0
 10
124.982798883599
 20
158.3024914867474
 30
0.0
 10
124.51618874341
 20
158.4622125797468
 30
0.0
 10
124.2638231737845
 20
158.531450876214
 30
0.0
 10
123.8579218321058
 20
158.6212382654438
 30
0.0
 10
123.7180212146283
 20
158.6488042275301
 30
0.0
 10
123.4287972793814
 20
158.6992950284564
 30
0.0
 10
123.2789578230921
 20
158.7222584673071
 30
0.0
 10
122.8248412534813
 20
158.7828889837259
 30
0.0
 10
122.5131900347445
 20
158.8129630125217
 30
0.0
 10
121.8721935698321
 20
158.8535525997804
 30
0.0
 10
121.5406659418799
 20
158.8638648299964
 30
0.0
 10
120.8878748968085
 20
158.8639403971622
 30
0.0
 10
120.5633386917766
 20
158.8540387916944
 30
0.0
 10
119.9180692423602
 20
158.8135522611692
 30
0.0
 10
119.6023262361975
 20
158.7830909612845
 30
0.0
 10
119.0004369412138
 20
158.702940289848
 30
0.0
 10
118.7096877104023
 20
158.6526580580408
 30
0.0
 10
118.1627759187178
 20
158.5319878752678
 30
0.0
 10
117.9109985548809
 20
158.4627640160978
 30
0.0
 10
117.4496105622598
 20
158.3053122884571
 30
0.0
 10
117.2383412826617
 20
158.2159638137834
 30
0.0
 10
116.8750369302855
 20
158.0227159430826
 30
0.0
 10
116.7212302818427
 20
157.9185879512033
 30
0.0
 10
116.5326108122453
 20
157.7499635650198
 30
0.0
 10
116.4765803260362
 20
157.6913351633449
 30
0.0
 10
116.3810065643
 20
157.5718802485187
 30
0.0
 10
116.341243647275
 20
157.5109604596804
 30
0.0
 10
116.2454718969629
 20
157.3245557335065
 30
0.0
 10
116.2127490578368
 20
157.1954429157115
 30
0.0
 10
116.2121204715077
 20
156.9267859927557
 30
0.0
 10
116.2443066162425
 20
156.7914152519989
 30
0.0
 10
116.339217318098
 20
156.5878649437629
 30
0.0
 10
116.378684101497
 20
156.5198930196995
 30
0.0
 10
116.4736141002179
 20
156.3838007965686
 30
0.0
 10
116.5293709279812
 20
156.3154506963592
 30
0.0
 10
116.7173110459511
 20
156.114747683317
 30
0.0
 10
116.8706725156673
 20
155.9853594095043
 30
0.0
 10
117.2329367505477
 20
155.7366939774545
 30
0.0
 10
117.4437852240136
 20
155.6168843350863
 30
0.0
 10
117.9044551943325
 20
155.3993620475136
 30
0.0
 10
118.1558295739163
 20
155.3002769476777
 30
0.0
 10
118.7017374608145
 20
155.1236044737608
 30
0.0
 10
118.9925600354657
 20
155.0475473856268
 30
0.0
 10
119.5938866502457
 20
154.9247024082738
 30
0.0
 10
119.9084052348581
 20
154.8769962832207
 30
0.0
 10
120.5549866909781
 20
154.8127477481011
 30
0.0
 10
120.8818871887401
 20
154.7965362892001
 30
0.0
 10
121.5429778142927
 20
154.7965362892001
 30
0.0
  0
LINE
  5
6E
330
1F
100
AcDbEntity
  8
0
  6
Continuous
 62
     7
370
    15
100
AcDbLine
 10
117.1624325015
 20
142.7319068256
 30
0.0
 11
128.9504034806
 21
142.7319068256
 31
0.0
  0
LINE
  5
6F
330
1F
100
AcDbEntity
  8
0
  6
Continuous
 62
     7
370
    15
100
AcDbLine
 10
128.9504034806
 20
62.6069132325
 30
0.0
 11
128.9504034806
 21
142.7319068256
 31
0.0
  0
LINE
  5
70
330
1F
100
AcDbEntity
  8
0
  6
Continuous
 62
     7
370
    15
100
AcDbLine
 10
128.9504034806
 20
62.6069132325
 30
0.0
 11
127.1624325015
 21
62.6069132325
 31
0.0
  0
SPLINE
  5
71
330
1F
100
AcDbEntity
  8
0
  6
Continuous
 62
     7
370
    15
100
AcDbSpline
210
0.0
220
0.0
230
1.0
 70
     8
 71
     3
 72
    30
 73
    26
 74
     0
 42
0.00000001
 43
0.00000001
 40
0.0
 40
0.0
 40
0.0
 40
0.0
 40
0.1250000000000002
 40
0.1250000000000002
 40
0.1875000000000003
 40
0.1875000000000003
 40
0.2500000000000004
 40
0.2500000000000004
 40
0.3750000000000001
 40
0.3750000000000001
 40
0.4374999999999998
 40
0.4374999999999998
 40
0.4999999999999996
 40
0.4999999999999996
 40
0.6249999999999996
 40
0.6249999999999996
 40
0.6874999999999997
 40
0.6874999999999997
 40
0.7499999999999997
 40
0.7499999999999997
 40
0.8124999999999998
 40
0.8124999999999998
 40
0.8749999999999999
 40
0.8749999999999999
 40
1.0
 40
1.0
 40
1.0
 40
1.0
 10
127.1624325015163
 20
62.60691323254003
 30
0.0
 10
126.4996878076713
 20
62.60691323254003
 30
0.0
 10
125.8484319485556
 20
62.59207315595122
 30
0.0
 10
124.8879814102973
 20
62.5497035917216
 30
0.0
 10
124.5705899670644
 20
62.53222548894242
 30
0.0
 10
123.9414264655095
 20
62.49089720239012
 30
0.0
 10
123.6292782790678
 20
62.46697192893242
 30
0.0
 10
122.7219709772195
 20
62.38816541246551
 30
0.0
 10
122.1485460195783
 20
62.32585939248904
 30
0.0
 10
121.3346691500036
 20
62.22273007224968
 30
0.0
 10
121.0698629534338
 20
62.18654615320317
 30
0.0
 10
120.5629555426194
 20
62.11275136900267
 30
0.0
 10
120.3215613912659
 20
62.07527751023103
 30
0.0
 10
119.6324199191336
 20
61.96256556689129
 30
0.0
 10
119.2193651042694
 20
61.88702946941751
 30
0.0
 10
118.6712102848943
 20
61.77863621240001
 30
0.0
 10
118.5017476775487
 20
61.74356398073675
 30
0.0
 10
118.1937304295333
 20
61.6773285201369
 30
0.0
 10
118.054350408925
 20
61.64600182338218
 30
0.0
 10
117.8045648962982
 20
61.58759305180125
 30
0.0
 10
117.6941587836443
 20
61.5605098166184
 30
0.0
 10
117.5029009300066
 20
61.51125006200481
 30
0.0
 10
117.4217814117223
 20
61.48898808219717
 30
0.0
 10
117.2276344916139
 20
61.43142117502889
 30
0.0
 10
117.1624325015163
 20
61.4051615702429
 30
0.0
 10
117.1624325015163
 20
61.39190782576888
 30
0.0
  0
LINE
  5
72
330
1F
100
AcDbEntity
  8
0
  6
Continuous
 62
     7
370
    15
100
AcDbLine
 10
117.1624325015
 20
61.3919078258
 30
0.0
 11
117.1624325015
 21
61.3819068256
 31
0.0
  0
SPLINE
  5
73
330
1F
100
AcDbEntity
  8
0
  6
Continuous
 62
     7
370
    15
100
AcDbSpline
210
0.0
220
0.0
230
1.0
 70
     8
 71
     3
 72
    23
 73
    19
 74
     0
 42
0.00000001
 43
0.00000001
 40
0.0
 40
0.0
 40
0.0
 40
0.0
 40
0.0520256687590417
 40
0.1044186119084699
 40
0.1579654762732603
 40
0.2119084390155455
 40
0.2639329008030786
 40
0.3697142245600881
 40
0.4235868577364621
 40
0.4762679679182533
 40
0.5833878371337101
 40
0.6379530306539528
 40
0.6910551819358521
 40
0.7445319929992287
 40
0.7992014233075218
 40
0.8542881036302091
 40
0.9066815619543741
 40
1.0
 40
1.0
 40
1.0
 40
1.0
 10
127.1624325015163
 20
160.3717016812324
 30
0.0
 10
126.8894201043214
 20
160.3730232497392
 30
0.0
 10
126.3414679832071
 20
160.3756757163449
 30
0.0
 10
125.5183216257519
 20
160.3971506047725
 30
0.0
 10
124.6970765251597
 20
160.4313683234406
 30
0.0
 10
123.8956477150515
 20
160.478420233608
 30
0.0
 10
122.8632644609086
 20
160.5554091844338
 30
0.0
 10
121.8860164462846
 20
160.6512864350943
 30
0.0
 10
120.9849694350286
 20
160.7582158828825
 30
0.0
 10
120.1359956559272
 20
160.870062690723
 30
0.0
 10
119.378427210319
 20
160.9842912894523
 30
0.0
 10
118.7334389198695
 20
161.0908710358161
 30
0.0
 10
118.3088650466717
 20
161.1648009922173
 30
0.0
 10
117.9463083970226
 20
161.2306915502741
 30
0.0
 10
117.6451068398989
 20
161.2873879014882
 30
0.0
 10
117.4178532678641
 20
161.3313241477229
 30
0.0
 10
117.2117459706417
 20
161.371982594551
 30
0.0
 10
117.1910590326086
 20
161.3761660339404
 30
0.0
 10
117.1778104729969
 20
161.3788452388592
 30
0.0
  0
LINE
  5
74
330
1F
100
AcDbEntity
  8
0
  6
Continuous
 62
     7
370
    15
100
AcDbLine
 10
128.9504034806
 20
160.3717016812
 30
0.0
 11
127.1624325015
 21
160.3717016812
 31
0.0
  0
LINE
  5
75
330
1F
100
AcDbEntity
  8
0
  6
Continuous
 62
     7
370
    15
100
AcDbLine
 10
128.9504034806
 20
150.3328695865
 30
0.0
 11
128.9504034806
 21
160.3717016812
 31
0.0
  0
LINE
  5
76
330
1F
100
AcDbEntity
  8
0
  6
Continuous
 62
     7
370
    15
100
AcDbLine
 10
126.8703993497
 20
150.3328695865
 30
0.0
 11
128.9504034806
 21
150.3328695865
 31
0.0
  0
SPLINE
  5
77
330
1F
100
AcDbEntity
  8
0
  6
Continuous
 62
     7
370
    15
100
AcDbSpline
210
0.0
220
0.0
230
1.0
 70
     8
 71
     3
 72
    22
 73
    18
 74
     0
 42
0.00000001
 43
0.00000001
 40
0.0
 40
0.0
 40
0.0
 40
0.0
 40
0.2500000000000002
 40
0.2500000000000002
 40
0.3750000000000003
 40
0.3750000000000003
 40
0.5000000000000004
 40
0.5000000000000004
 40
0.6250000000000004
 40
0.6250000000000004
 40
0.7500000000000004
 40
0.7500000000000004
 40
0.8750000000000004
 40
0.8750000000000004
 40
0.9375000000000002
 40
0.9375000000000002
 40
1.0
 40
1.0
 40
1.0
 40
1.0
 10
117.1624325015163
 20
142.7319068255688
 30
0.0
 10
117.3651574574354
 20
143.7511531674334
 30
0.0
 10
117.6799011792308
 20
144.7102613173728
 30
0.0
 10
118.3879566489018
 20
146.052740394882
 30
0.0
 10
118.6664192791194
 20
146.486948977622
 30
0.0
 10
119.3051866857566
 20
147.2985766931241
 30
0.0
 10
119.6656003655468
 20
147.677856986061
 30
0.0
 10
120.4831325975361
 20
148.380815565082
 30
0.0
 10
120.9443005808232
 20
148.7058443827826
 30
0.0
 10
121.942290827307
 20
149.2708597061735
 30
0.0
 10
122.4820500212993
 20
149.51456330038
 30
0.0
 10
123.6566429853306
 20
149.9187632280249
 30
0.0
 10
124.2683791713225
 20
150.0712004210705
 30
0.0
 10
125.2202883961842
 20
150.2265279686792
 30
0.0
 10
125.5435215604449
 20
150.2660327487292
 30
0.0
 10
126.2025847317201
 20
150.3193418693979
 30
0.0
 10
126.5366487422941
 20
150.3328695864558
 30
0.0
 10
126.8703993496957
 20
150.3328695864558
 30
0.0
  0
LINE
  5
78
330
1F
100
AcDbEntity
  8
0
  6
Continuous
 62
     7
370
    15
100
AcDbLine
 10
135.4744615224
 20
62.6069132325
 30
0.0
 11
135.4744615224
 21
142.7319068256
 31
0.0
  0
SPLINE
  5
79
330
1F
100
AcDbEntity
  8
0
  6
Continuous
 62
     7
370
    15
100
AcDbSpline
210
0.0
220
0.0
230
1.0
 70
     8
 71
     3
 72
     8
 73
     4
 74
     0
 42
0.00000001
 43
0.00000001
 40
0.0
 40
0.0
 40
0.0
 40
0.0
 40
1.0
 40
1.0
 40
1.0
 40
1.0
 10
135.4744615224378
 20
62.60691323254003
 30
0.0
 10
135.0233567930375
 20
63.40787316435995
 30
0.0
 10
134.5726589657941
 20
64.20906317592059
 30
0.0
 10
134.1224325015163
 20
65.01051853854537
 30
0.0
  0
LINE
  5
7A
330
1F
100
AcDbEntity
  8
0
  6
Continuous
 62
     7
370
    15
100
AcDbLine
 10
134.1224325015
 20
65.0105185385
 30
0.0
 11
134.1224325015
 21
142.7319068256
 31
0.0
  0
SPLINE
  5
7B
330
1F
100
AcDbEntity
  8
0
  6
Continuous
 62
     7
370
    15
100
AcDbSpline
210
0.0
220
0.0
230
1.0
 70
    24
 71
     3
 72
     8
 73
     4
 74
     0
 42
0.00000001
 43
0.00000001
 40
0.0
 40
0.0
 40
0.0
 40
0.0
 40
1.0
 40
1.0
 40
1.0
 40
1.0
 10
134.1224325015164
 20
142.7319068255688
 30
0.0
 10
134.5666453838703
 20
142.7319068255688
 30
0.0
 10
135.0176599501095
 20
142.7319068255688
 30
0.0
 10
135.4744615224378
 20
142.7319068255688
 30
0.0
  0
LINE
  5
7C
330
1F
100
AcDbEntity
  8
0
  6
Continuous
 62
     7
370
    15
100
AcDbLine
 10
112.2124325015
 20
61.8819068256
 30
0.0
 11
112.2124325015
 21
160.8819068205
 31
0.0
  0
LINE
  5
7D
330
1F
100
AcDbEntity
  8
0
  6
Continuous
 62
     7
370
    15
100
AcDbLine
 10
141.1624325015
 20
63.6325612803
 30
0.0
 11
141.1624325015
 21
142.7319068256
 31
0.0
  0
SPLINE
  5
7E
330
1F
100
AcDbEntity
  8
0
  6
Continuous
 62
     7
370
    15
100
AcDbSpline
210
0.0
220
0.0
230
1.0
 70
     8
 71
     3
 72
    14
 73
    10
 74
     0
 42
0.00000001
 43
0.00000001
 40
0.0
 40
0.0
 40
0.0
 40
0.0
 40
0.25
 40
0.25
 40
0.5
 40
0.5
 40
0.75
 40
0.75
 40
1.0
 40
1.0
 40
1.0
 40
1.0
 10
141.1624325015163
 20
63.63256128031553
 30
0.0
 10
141.1624325015163
 20
63.49913558426098
 30
0.0
 10
141.1371214016055
 20
63.36728777641665
 30
0.0
 10
141.0387866377608
 20
63.12076522772253
 30
0.0
 10
140.9656426335047
 20
63.006960039482
 30
0.0
 10
140.782204572409
 20
62.81650286253472
 30
0.0
 10
140.6705182380704
 20
62.7388679986848
 30
0.0
 10
140.4280148077641
 20
62.63457658857233
 30
0.0
 10
140.2946403790699
 20
62.60691323253997
 30
0.0
 10
140.1624325015163
 20
62.60691323253999
 30
0.0
  0
SPLINE
  5
7F
330
1F
100
AcDbEntity
  8
0
  6
Continuous
 62
     7
370
    15
100
AcDbSpline
210
0.0
220
0.0
230
1.0
 70
    24
 71
     3
 72
    12
 73
     8
 74
     0
 42
0.00000001
 43
0.00000001
 40
0.0
 40
0.0
 40
0.0
 40
0.0
 40
0.2500000000000032
 40
0.2500000000000032
 40
0.5000000000000064
 40
0.5000000000000064
 40
1.0
 40
1.0
 40
1.0
 40
1.0
 10
140.1624325015163
 20
142.7319068255688
 30
0.0
 10
140.3145227384613
 20
142.7319068255688
 30
0.0
 10
140.4629819995368
 20
142.7319068255688
 30
0.0
 10
140.7203856318025
 20
142.7319068255688
 30
0.0
 10
140.8294903796444
 20
142.7319068255688
 30
0.0
 10
141.0835498560519
 20
142.7319068255688
 30
0.0
 10
141.1624325015163
 20
142.7319068255688
 30
0.0
 10
141.1624325015163
 20
142.7319068255688
 30
0.0
  0
LINE
  5
80
330
1F
100
AcDbEntity
  8
0
  6
Continuous
 62
     7
370
    15
100
AcDbLine
 10
130.3024325015
 20
65.0105185385
 30
0.0
 11
130.3024325015
 21
142.7319068256
 31
0.0
  0
SPLINE
  5
81
330
1F
100
AcDbEntity
  8
0
  6
Continuous
 62
     7
370
    15
100
AcDbSpline
210
0.0
220
0.0
230
1.0
 70
     8
 71
     3
 72
     8
 73
     4
 74
     0
 42
0.00000001
 43
0.00000001
 40
0.0
 40
0.0
 40
0.0
 40
0.0
 40
1.0
 40
1.0
 40
1.0
 40
1.0
 10
130.3024325015164
 20
65.01051853854537
 30
0.0
 10
129.8522060372386
 20
64.20906317592059
 30
0.0
 10
129.4015082099952
 20
63.40787316435995
 30
0.0
 10
128.950403480595
 20
62.60691323254003
 30
0.0
  0
SPLINE
  5
82
330
1F
100
AcDbEntity
  8
0
  6
Continuous
 62
     7
370
    15
100
AcDbSpline
210
0.0
220
0.0
230
1.0
 70
    24
 71
     3
 72
     8
 73
     4
 74
     0
 42
0.00000001
 43
0.00000001
 40
0.0
 40
0.0
 40
0.0
 40
0.0
 40
1.0
 40
1.0
 40
1.0
 40
1.0
 10
128.950403480595
 20
142.7319068255688
 30
0.0
 10
129.4072050529232
 20
142.7319068255688
 30
0.0
 10
129.8582196191624
 20
142.7319068255688
 30
0.0
 10
130.3024325015164
 20
142.7319068255688
 30
0.0
  0
LINE
  5
83
330
1F
100
AcDbEntity
  8
0
  6
Continuous
 62
     7
370
    15
100
AcDbLine
 10
140.1624325015
 20
62.6069132325
 30
0.0
 11
135.4744615224
 21
62.6069132325
 31
0.0
  0
LINE
  5
84
330
1F
100
AcDbEntity
  8
0
  6
Continuous
 62
     7
370
    15
100
AcDbLine
 10
135.4744615224
 20
142.7319068256
 30
0.0
 11
140.1624325015
 21
142.7319068256
 31
0.0
  0
SPLINE
  5
85
330
1F
100
AcDbEntity
  8
0
  6
Continuous
 62
     7
370
    15
100
AcDbSpline
210
0.0
220
0.0
230
1.0
 70
     8
 71
     3
 72
    12
 73
     8
 74
     0
 42
0.00000001
 43
0.00000001
 40
0.0
 40
0.0
 40
0.0
 40
0.0
 40
0.25
 40
0.25
 40
0.5
 40
0.5
 40
1.0
 40
1.0
 40
1.0
 40
1.0
 10
131.1024325015163
 20
66.7422313675192
 30
0.0
 10
130.9966718481674
 20
66.74223136751917
 30
0.0
 10
130.8886842199845
 20
66.71969186151877
 30
0.0
 10
130.6940895547189
 20
66.63512122952348
 30
0.0
 10
130.60521764188
 20
66.57263957676469
 30
0.0
 10
130.3860253495542
 20
66.34325062529251
 30
0.0
 10
130.3024325015163
 20
66.13066728777014
 30
0.0
 10
130.3024325015163
 20
65.91872804317394
 30
0.0
  0
SPLINE
  5
86
330
1F
100
AcDbEntity
  8
0
  6
Continuous
 62
     7
370
    15
100
AcDbSpline
210
0.0
220
0.0
230
1.0
 70
    24
 71
     3
 72
    14
 73
    10
 74
     0
 42
0.00000001
 43
0.00000001
 40
0.0
 40
0.0
 40
0.0
 40
0.0
 40
0.25
 40
0.25
 40
0.5
 40
0.5
 40
0.75
 40
0.75
 40
1.0
 40
1.0
 40
1.0
 40
1.0
 10
130.3024325015164
 20
142.7319068255688
 30
0.0
 10
130.3024325015163
 20
142.7319068255688
 30
0.0
 10
130.3181468219823
 20
142.7319068255688
 30
0.0
 10
130.3818308004507
 20
142.7319068255688
 30
0.0
 10
130.4304339948611
 20
142.7319068255688
 30
0.0
 10
130.5631175172867
 20
142.7319068255688
 30
0.0
 10
130.6482196215974
 20
142.7319068255688
 30
0.0
 10
130.8546618565074
 20
142.7319068255688
 30
0.0
 10
130.9787427981304
 20
142.7319068255688
 30
0.0
 10
131.1024325015163
 20
142.7319068255688
 30
0.0
  0
SPLINE
  5
87
330
1F
100
AcDbEntity
  8
0
  6
Continuous
 62
     7
370
    15
100
AcDbSpline
210
0.0
220
0.0
230
1.0
 70
     8
 71
     3
 72
    14
 73
    10
 74
     0
 42
0.00000001
 43
0.00000001
 40
0.0
 40
0.0
 40
0.0
 40
0.0
 40
0.25
 40
0.25
 40
0.5
 40
0.5
 40
0.75
 40
0.75
 40
1.0
 40
1.0
 40
1.0
 40
1.0
 10
134.1224325015164
 20
65.91872804317394
 30
0.0
 10
134.1224325015164
 20
66.02577212416833
 30
0.0
 10
134.1023148143582
 20
66.13100726441077
 30
0.0
 10
134.0238236250926
 20
66.32885775125847
 30
0.0
 10
133.9656670002913
 20
66.41990951482337
 30
0.0
 10
133.8191517446733
 20
66.57307560874816
 30
0.0
 10
133.7305091960322
 20
66.63537005495756
 30
0.0
 10
133.5347858732319
 20
66.72016384049357
 30
0.0
 10
133.429554682161
 20
66.74223136751918
 30
0.0
 10
133.3224325015164
 20
66.7422313675192
 30
0.0
  0
SPLINE
  5
88
330
1F
100
AcDbEntity
  8
0
  6
Continuous
 62
     7
370
    15
100
AcDbSpline
210
0.0
220
0.0
230
1.0
 70
    24
 71
     3
 72
    14
 73
    10
 74
     0
 42
0.00000001
 43
0.00000001
 40
0.0
 40
0.0
 40
0.0
 40
0.0
 40
0.25
 40
0.25
 40
0.5
 40
0.5
 40
0.75
 40
0.75
 40
1.0
 40
1.0
 40
1.0
 40
1.0
 10
133.3224325015164
 20
142.7319068255688
 30
0.0
 10
133.4462022662815
 20
142.7319068255688
 30
0.0
 10
133.5705693702884
 20
142.7319068255688
 30
0.0
 10
133.7769258390144
 20
142.7319068255688
 30
0.0
 10
133.8622539824328
 20
142.7319068255688
 30
0.0
 10
133.994446041148
 20
142.7319068255688
 30
0.0
 10
134.0430912848986
 20
142.7319068255688
 30
0.0
 10
134.1066270766273
 20
142.7319068255688
 30
0.0
 10
134.1224325015164
 20
142.7319068255688
 30
0.0
 10
134.1224325015164
 20
142.7319068255688
 30
0.0
  0
LINE
  5
89
330
1F
100
AcDbEntity
  8
0
  6
Continuous
 62
     7
370
    15
100
AcDbLine
 10
133.3224325015
 20
66.7422313675
 30
0.0
 11
131.1024325015
 21
66.7422313675
 31
0.0
  0
LINE
  5
8A
330
1F
100
AcDbEntity
  8
0
  6
Continuous
 62
     7
370
    15
100
AcDbLine
 10
131.1024325015
 20
142.7319068256
 30
0.0
 11
133.3224325015
 21
142.7319068256
 31
0.0
  0
LINE
  5
8B
330
1F
100
AcDbEntity
  8
0
  6
Continuous
 62
     7
370
    15
100
AcDbLine
 10
109.7124325015
 20
73.4996553226
 30
0.0
 11
109.7124325015
 21
149.2641583286
 31
0.0
  0
LINE
  5
8C
330
1F
100
AcDbEntity
  8
0
  6
Continuous
 62
     7
370
    15
100
AcDbLine
 10
77.4124325015
 20
75.1178917955
 30
0.0
 11
77.4124325015
 21
77.5125735602
 31
0.0
  0
SPLINE
  5
8D
330
1F
100
AcDbEntity
  8
0
  6
Continuous
 62
     7
370
    15
100
AcDbSpline
210
0.0
220
0.0
230
1.0
 70
     8
 71
     3
 72
    14
 73
    10
 74
     0
 42
0.00000001
 43
0.00000001
 40
0.0
 40
0.0
 40
0.0
 40
0.0
 40
0.25
 40
0.25
 40
0.5
 40
0.5
 40
0.75
 40
0.75
 40
1.0
 40
1.0
 40
1.0
 40
1.0
 10
76.4080100301794
 20
79.2154254818253
 30
0.0
 10
76.49677860812471
 20
79.05689135051736
 30
0.0
 10
76.61849644680363
 20
78.90444867362879
 30
0.0
 10
76.85354605666046
 20
78.60731404979987
 30
0.0
 10
76.96917624287735
 20
78.46263140618251
 30
0.0
 10
77.16958117630519
 20
78.1793422036791
 30
0.0
 10
77.25498146828949
 20
78.04078821064225
 30
0.0
 10
77.37668710200674
 20
77.7694041806087
 30
0.0
 10
77.41243250151938
 20
77.6372683119741
 30
0.0
 10
77.41243250151936
 20
77.51257356020334
 30
0.0
  0
SPLINE
  5
8E
330
1F
100
AcDbEntity
  8
0
  6
Continuous
 62
     7
370
    15
100
AcDbSpline
210
0.0
220
0.0
230
1.0
 70
     8
 71
     3
 72
    14
 73
    10
 74
     0
 42
0.00000001
 43
0.00000001
 40
0.0
 40
0.0
 40
0.0
 40
0.0
 40
0.124999999999999
 40
0.124999999999999
 40
0.249999999999998
 40
0.249999999999998
 40
0.5000000000000007
 40
0.5000000000000007
 40
1.0
 40
1.0
 40
1.0
 40
1.0
 10
75.51243250151634
 20
79.8442554209254
 30
0.0
 10
75.58001480130085
 20
79.8514113060268
 30
0.0
 10
75.65250237904874
 20
79.84698683598779
 30
0.0
 10
75.78479348831468
 20
79.81728067821744
 30
0.0
 10
75.84207086770486
 20
79.79399639663922
 30
0.0
 10
75.99172129490513
 20
79.7165111567889
 30
0.0
 10
76.06543459042663
 20
79.65465932988752
 30
0.0
 10
76.25324257375287
 20
79.4699818772392
 30
0.0
 10
76.33728288011433
 20
79.341738953948
 30
0.0
 10
76.4080100301806
 20
79.2154254818254
 30
0.0
  0
SPLINE
  5
8F
330
1F
100
AcDbEntity
  8
0
  6
Continuous
 62
     7
370
    15
100
AcDbSpline
210
0.0
220
0.0
230
1.0
 70
     8
 71
     3
 72
     8
 73
     4
 74
     0
 42
0.00000001
 43
0.00000001
 40
0.0
 40
0.0
 40
0.0
 40
0.0
 40
1.0
 40
1.0
 40
1.0
 40
1.0
 10
71.96779211343556
 20
79.42620683613363
 30
0.0
 10
73.13309042414444
 20
79.58139430802025
 30
0.0
 10
74.31770563818425
 20
79.71775294633058
 30
0.0
 10
75.51243250151634
 20
79.8442554209254
 30
0.0
  0
SPLINE
  5
90
330
1F
100
AcDbEntity
  8
0
  6
Continuous
 62
     7
370
    15
100
AcDbSpline
210
0.0
220
0.0
230
1.0
 70
     8
 71
     3
 72
    14
 73
    10
 74
     0
 42
0.00000001
 43
0.00000001
 40
0.0
 40
0.0
 40
0.0
 40
0.0
 40
0.4999999999999972
 40
0.4999999999999972
 40
0.7499999999999971
 40
0.7499999999999971
 40
0.8749999999999986
 40
0.8749999999999986
 40
1.0
 40
1.0
 40
1.0
 40
1.0
 10
64.21235761748765
 20
79.1360746570037
 30
0.0
 10
65.5206591800214
 20
79.14308938074483
 30
0.0
 10
66.82571855467822
 20
79.15849795718933
 30
0.0
 10
68.77159460616654
 20
79.21239451265599
 30
0.0
 10
69.41829210990554
 20
79.23542607725868
 30
0.0
 10
70.38213447375988
 20
79.28636860212944
 30
0.0
 10
70.70237316569396
 20
79.30610352436263
 30
0.0
 10
71.33906839203637
 20
79.35559065283421
 30
0.0
 10
71.65578380031928
 20
79.38465543176343
 30
0.0
 10
71.96779211343559
 20
79.42620683613357
 30
0.0
  0
SPLINE
  5
91
330
1F
100
AcDbEntity
  8
0
  6
Continuous
 62
     7
370
    15
100
AcDbSpline
210
0.0
220
0.0
230
1.0
 70
     8
 71
     3
 72
    12
 73
     8
 74
     0
 42
0.00000001
 43
0.00000001
 40
0.0
 40
0.0
 40
0.0
 40
0.0
 40
0.2500000000000009
 40
0.2500000000000009
 40
0.5000000000000018
 40
0.5000000000000018
 40
1.0
 40
1.0
 40
1.0
 40
1.0
 10
70.51243250151636
 20
143.4684297170652
 30
0.0
 10
69.99373367968816
 20
143.5009524919135
 30
0.0
 10
69.47202210648318
 20
143.524249233084
 30
0.0
 10
68.4257300899876
 20
143.5620947475061
 30
0.0
 10
67.90105846431733
 20
143.5763632220022
 30
0.0
 10
66.3242124417781
 20
143.6105727094605
 30
0.0
 10
65.2692571272312
 20
143.6220722134044
 30
0.0
 10
64.21235761748596
 20
143.6277389941339
 30
0.0
  0
SPLINE
  5
92
330
1F
100
AcDbEntity
  8
0
  6
Continuous
 62
     7
370
    15
100
AcDbSpline
210
0.0
220
0.0
230
1.0
 70
     8
 71
     3
 72
    20
 73
    16
 74
     0
 42
0.00000001
 43
0.00000001
 40
0.0
 40
0.0
 40
0.0
 40
0.0
 40
0.2500000000000011
 40
0.2500000000000011
 40
0.5000000000000021
 40
0.5000000000000021
 40
0.7500000000000031
 40
0.7500000000000031
 40
0.8750000000000008
 40
0.8750000000000008
 40
0.9375000000000006
 40
0.9375000000000006
 40
0.9687500000000003
 40
0.9687500000000003
 40
1.0
 40
1.0
 40
1.0
 40
1.0
 10
72.41243250151635
 20
145.1265155625534
 30
0.0
 10
72.41243250151635
 20
144.9908332428066
 30
0.0
 10
72.36372071229972
 20
144.8497462566665
 30
0.0
 10
72.19455928907453
 20
144.557674537936
 30
0.0
 10
72.07277887515623
 20
144.4060257958456
 30
0.0
 10
71.77523178040671
 20
144.1036173556925
 30
0.0
 10
71.60131917470395
 20
143.9510287195692
 30
0.0
 10
71.28190434082211
 20
143.7257579557269
 30
0.0
 10
71.16686356537485
 20
143.6510348612162
 30
0.0
 10
70.95977924135843
 20
143.5516244519592
 30
0.0
 10
70.88367140655205
 20
143.5200593596146
 30
0.0
 10
70.7522768669987
 20
143.4856159754216
 30
0.0
 10
70.70572364799723
 20
143.476564403654
 30
0.0
 10
70.60939029691653
 20
143.4663887548155
 30
0.0
 10
70.56013087356108
 20
143.4654389961405
 30
0.0
 10
70.51243250151437
 20
143.4684297170551
 30
0.0
  0
LINE
  5
93
330
1F
100
AcDbEntity
  8
0
  6
Continuous
 62
     7
370
    15
100
AcDbLine
 10
72.4124325015
 20
145.1265155626
 30
0.0
 11
72.4124325015
 21
147.3954208536
 31
0.0
  0
SPLINE
  5
94
330
1F
100
AcDbEntity
  8
0
  6
Continuous
 62
     7
370
    15
100
AcDbSpline
210
0.0
220
0.0
230
1.0
 70
     8
 71
     3
 72
    24
 73
    20
 74
     0
 42
0.00000001
 43
0.00000001
 40
0.0
 40
0.0
 40
0.0
 40
0.0
 40
0.0002934293894791
 40
0.062808005175641
 40
0.1260453927228619
 40
0.18907467666103
 40
0.2513200540860133
 40
0.3133304633786588
 40
0.3759158453762907
 40
0.4383740564599686
 40
0.5000631094857209
 40
0.5616593988040849
 40
0.6245050380644152
 40
0.6872231506510951
 40
0.7494953263230465
 40
0.8117583797535242
 40
0.8747365508229858
 40
0.9378980306234599
 40
1.0
 40
1.0
 40
1.0
 40
1.0
 10
90.73238876535578
 20
74.45066156725646
 30
0.0
 10
90.732193912471
 20
74.45063725986248
 30
0.0
 10
90.69048602145985
 20
74.44543430820826
 30
0.0
 10
90.83560441299028
 20
74.46406893153878
 30
0.0
 10
91.19068335452954
 20
74.5065887100875
 30
0.0
 10
91.79525899207269
 20
74.57472499368933
 30
0.0
 10
92.60169430088888
 20
74.64798053070521
 30
0.0
 10
93.58717172480786
 20
74.7124998715231
 30
0.0
 10
94.7188413214874
 20
74.75106409958417
 30
0.0
 10
95.94113379164968
 20
74.75475860558556
 30
0.0
 10
97.20846247310152
 20
74.71233262553659
 30
0.0
 10
98.47494800352804
 20
74.6240854847556
 30
0.0
 10
99.69108536734797
 20
74.49569221448893
 30
0.0
 10
100.8164958631887
 20
74.3430512258964
 30
0.0
 10
101.7939129247427
 20
74.18127661079207
 30
0.0
 10
102.5971784032852
 20
74.02874771769119
 30
0.0
 10
103.1856719262864
 20
73.90473397442379
 30
0.0
 10
103.5745780379385
 20
73.8198100481475
 30
0.0
 10
103.6213391686765
 20
73.8090837368687
 30
0.0
 10
103.6445219752189
 20
73.80376594417712
 30
0.0
  0
SPLINE
  5
95
330
1F
100
AcDbEntity
  8
0
  6
Continuous
 62
     7
370
    15
100
AcDbSpline
210
0.0
220
0.0
230
1.0
 70
     8
 71
     3
 72
    41
 73
    37
 74
     0
 42
0.00000001
 43
0.00000001
 40
0.0
 40
0.0
 40
0.0
 40
0.0
 40
0.0619930061482746
 40
0.1254347783466151
 40
0.1886508898234768
 40
0.2510246408607227
 40
0.3131658188976554
 40
0.3756581641417402
 40
0.4382227146727798
 40
0.4998044922940677
 40
0.56151641971787
 40
0.6240683094121985
 40
0.686725723240935
 40
0.7488365305144522
 40
0.8110685944253986
 40
0.8741742884451361
 40
0.9373212787645211
 40
0.9685511709617411
 40
0.9842086872487193
 40
0.9920641182531791
 40
0.996000486125535
 40
0.9979710794120144
 40
0.9989570090489596
 40
0.9994501359395065
 40
0.9996967403802177
 40
0.9998200529090742
 40
0.9998817117580818
 40
0.999912541829664
 40
0.9999279570273361
 40
0.9999356646666602
 40
0.9999395184964466
 40
0.9999414454138695
 40
0.9999424088732151
 40
0.9999433723329806
 40
0.9999501697010513
 40
1.0
 40
1.0
 40
1.0
 40
1.0
 10
103.6444006447409
 20
148.960002689009
 30
0.0
 10
103.6208289993973
 20
148.9546932093592
 30
0.0
 10
103.5731348433523
 20
148.9439501684196
 30
0.0
 10
103.1810928539267
 20
148.8587210319642
 30
0.0
 10
102.5905788046565
 20
148.7341522533234
 30
0.0
 10
101.7865413586114
 20
148.5812053071716
 30
0.0
 10
100.8104659584299
 20
148.419448753218
 30
0.0
 10
99.68865722314942
 20
148.2672159852858
 30
0.0
 10
98.47512630336216
 20
148.1394360440844
 30
0.0
 10
97.21029559696295
 20
148.0515874924018
 30
0.0
 10
95.94225255952023
 20
148.0092020085312
 30
0.0
 10
94.7187452018191
 20
148.0129378165028
 30
0.0
 10
93.58524666140511
 20
148.051533286951
 30
0.0
 10
92.5991408504309
 20
148.115972658242
 30
0.0
 10
91.79051304164368
 20
148.1894824655233
 30
0.0
 10
91.19389434653448
 20
148.256796150335
 30
0.0
 10
90.87850305707641
 20
148.294760701603
 30
0.0
 10
90.76843648827848
 20
148.3085597609349
 30
0.0
 10
90.74101710046428
 20
148.3120458348555
 30
0.0
 10
90.73409504963479
 20
148.3129250605488
 30
0.0
 10
90.73232680945137
 20
148.3131458351552
 30
0.0
 10
90.731866430278
 20
148.313201037866
 30
0.0
 10
90.73174227159319
 20
148.313214777653
 30
0.0
 10
90.73170671710001
 20
148.313218173484
 30
0.0
 10
90.73169557302992
 20
148.3132190018043
 30
0.0
 10
90.73169165983381
 20
148.3132191983931
 30
0.0
 10
90.731690117629
 20
148.3132192423232
 30
0.0
 10
90.73168945062748
 20
148.3132192506299
 30
0.0
 10
90.73168914244974
 20
148.3132192514602
 30
0.0
 10
90.73168899568368
 20
148.313219250915
 30
0.0
 10
90.73168892273122
 20
148.3132192505851
 30
0.0
 10
90.73168888833885
 20
148.3132192501479
 30
0.0
 10
90.73168886609369
 20
148.3132192502364
 30
0.0
 10
90.73168883898425
 20
148.3132192474014
 30
0.0
 10
90.73168631942289
 20
148.3132195342565
 30
0.0
 10
90.73172240934093
 20
148.3132149141558
 30
0.0
 10
90.73175416716359
 20
148.3132108486344
 30
0.0
  0
SPLINE
  5
96
330
1F
100
AcDbEntity
  8
0
  6
Continuous
 62
     7
370
    15
100
AcDbSpline
210
0.0
220
0.0
230
1.0
 70
     8
 71
     3
 72
    20
 73
    16
 74
     0
 42
0.00000001
 43
0.00000001
 40
0.0
 40
0.0
 40
0.0
 40
0.0
 40
0.249999999999986
 40
0.249999999999986
 40
0.3749999999999789
 40
0.3749999999999789
 40
0.4374999999999789
 40
0.4374999999999789
 40
0.4999999999999789
 40
0.4999999999999789
 40
0.6249999999999835
 40
0.6249999999999835
 40
0.7499999999999879
 40
0.7499999999999879
 40
1.0
 40
1.0
 40
1.0
 40
1.0
 10
62.60324673323237
 20
80.70342367286811
 30
0.0
 10
62.62951895044577
 20
80.72274161395059
 30
0.0
 10
62.66019909270061
 20
80.73713032505236
 30
0.0
 10
62.73166996308253
 20
80.73022596321636
 30
0.0
 10
62.75969700012688
 20
80.72305995986794
 30
0.0
 10
62.81478058962438
 20
80.69336093316434
 30
0.0
 10
62.83567191817681
 20
80.679887290603
 30
0.0
 10
62.88088056562227
 20
80.64468902508699
 30
0.0
 10
62.90528477801784
 20
80.62278079635973
 30
0.0
 10
62.97661709606928
 20
80.55065593636418
 30
0.0
 10
63.01851388088956
 20
80.49831539541414
 30
0.0
 10
63.09008983974543
 20
80.40083200351339
 30
0.0
 10
63.12091782956272
 20
80.35407823363497
 30
0.0
 10
63.2040177623983
 20
80.22078501779585
 30
0.0
 10
63.2488726677686
 20
80.13814761988064
 30
0.0
 10
63.28898474322117
 20
80.05904072508986
 30
0.0
  0
SPLINE
  5
97
330
1F
100
AcDbEntity
  8
0
  6
Continuous
 62
     7
370
    15
100
AcDbSpline
210
0.0
220
0.0
230
1.0
 70
     8
 71
     3
 72
    14
 73
    10
 74
     0
 42
0.00000001
 43
0.00000001
 40
0.0
 40
0.0
 40
0.0
 40
0.0
 40
0.25
 40
0.25
 40
0.5
 40
0.5
 40
0.75
 40
0.75
 40
1.0
 40
1.0
 40
1.0
 40
1.0
 10
62.31243250151635
 20
80.8792370830009
 30
0.0
 10
62.31243250151637
 20
80.83799015197656
 30
0.0
 10
62.32104221789761
 20
80.80108317969407
 30
0.0
 10
62.35212839746795
 20
80.74018311979466
 30
0.0
 10
62.37451795095202
 20
80.71600220025498
 30
0.0
 10
62.42926188212813
 20
80.68203460937173
 30
0.0
 10
62.46171212171333
 20
80.67211452540353
 30
0.0
 10
62.53171363644139
 20
80.67076331649868
 30
0.0
 10
62.56992413656393
 20
80.67892159319484
 30
0.0
 10
62.60324673323701
 20
80.70342367286293
 30
0.0
  0
LINE
  5
98
330
1F
100
AcDbEntity
  8
0
  6
Continuous
 62
     7
370
    15
100
AcDbLine
 10
62.3124325015
 20
80.879237083
 30
0.0
 11
62.3124325015
 21
141.8845765681
 31
0.0
  0
SPLINE
  5
99
330
1F
100
AcDbEntity
  8
0
  6
Continuous
 62
     7
370
    15
100
AcDbSpline
210
0.0
220
0.0
230
1.0
 70
     8
 71
     3
 72
    12
 73
     8
 74
     0
 42
0.00000001
 43
0.00000001
 40
0.0
 40
0.0
 40
0.0
 40
0.0
 40
0.0592077505114064
 40
0.3503612113849183
 40
0.644012000323884
 40
0.9432672693652688
 40
1.0
 40
1.0
 40
1.0
 40
1.0
 10
62.603246733237
 20
142.0603899782747
 30
0.0
 10
62.59841084988853
 20
142.0636626218944
 30
0.0
 10
62.56979456344885
 20
142.0830284544605
 30
0.0
 10
62.5117962254085
 20
142.0969943516249
 30
0.0
 10
62.4397959849482
 20
142.0859213238097
 30
0.0
 10
62.39115629593747
 20
142.0646210199
 30
0.0
 10
62.374371423875
 20
142.0417196497252
 30
0.0
 10
62.37169646958914
 20
142.0380699276377
 30
0.0
  0
SPLINE
  5
9A
330
1F
100
AcDbEntity
  8
0
  6
Continuous
 62
     7
370
    15
100
AcDbSpline
210
0.0
220
0.0
230
1.0
 70
     8
 71
     3
 72
     8
 73
     4
 74
     0
 42
0.00000001
 43
0.00000001
 40
0.0
 40
0.0
 40
0.0
 40
0.0
 40
1.0
 40
1.0
 40
1.0
 40
1.0
 10
62.33606617045256
 20
141.9921560692064
 30
0.0
 10
62.32071713181653
 20
141.9616460142105
 30
0.0
 10
62.31243250151635
 20
141.9253344586982
 30
0.0
 10
62.31243250151635
 20
141.8845765681367
 30
0.0
  0
SPLINE
  5
9B
330
1F
100
AcDbEntity
  8
0
  6
Continuous
 62
     7
370
    15
100
AcDbSpline
210
0.0
220
0.0
230
1.0
 70
     8
 71
     3
 72
    20
 73
    16
 74
     0
 42
0.00000001
 43
0.00000001
 40
0.0
 40
0.0
 40
0.0
 40
0.0
 40
0.2500000000000037
 40
0.2500000000000037
 40
0.3750000000000055
 40
0.3750000000000055
 40
0.5000000000000073
 40
0.5000000000000073
 40
0.5625000000000057
 40
0.5625000000000057
 40
0.625000000000004
 40
0.625000000000004
 40
0.7500000000000027
 40
0.7500000000000027
 40
1.0
 40
1.0
 40
1.0
 40
1.0
 10
63.28898474321878
 20
142.704772926047
 30
0.0
 10
63.24898852539496
 20
142.6258945194895
 30
0.0
 10
63.2038748975573
 20
142.542764872798
 30
0.0
 10
63.12062068319077
 20
142.4092762084471
 30
0.0
 10
63.09040135457027
 20
142.3634111525651
 30
0.0
 10
63.01831311942885
 20
142.2652196001602
 30
0.0
 10
62.97639580201775
 20
142.2129097806366
 30
0.0
 10
62.90514519746629
 20
142.1409038779021
 30
0.0
 10
62.88090938508697
 20
142.1191336656005
 30
0.0
 10
62.83531119490232
 20
142.0836590072715
 30
0.0
 10
62.81450870530261
 20
142.070288823094
 30
0.0
 10
62.75956770688349
 20
142.0407189109588
 30
0.0
 10
62.73149871879669
 20
142.0335923886568
 30
0.0
 10
62.66099588873385
 20
142.0267180171741
 30
0.0
 10
62.62957180094298
 20
142.0410331762613
 30
0.0
 10
62.60324673323438
 20
142.0603899782718
 30
0.0
  0
SPLINE
  5
9C
330
1F
100
AcDbEntity
  8
0
  6
Continuous
 62
     7
370
    15
100
AcDbSpline
210
0.0
220
0.0
230
1.0
 70
     8
 71
     3
 72
    10
 73
     6
 74
     0
 42
0.00000001
 43
0.00000001
 40
0.0
 40
0.0
 40
0.0
 40
0.0
 40
0.4999999999999989
 40
0.4999999999999989
 40
1.0
 40
1.0
 40
1.0
 40
1.0
 10
63.96243250151637
 20
143.6301920273888
 30
0.0
 10
63.83754423076616
 20
143.4991957493174
 30
0.0
 10
63.71609411270572
 20
143.3554829126523
 30
0.0
 10
63.48651013774828
 20
143.0449126199631
 30
0.0
 10
63.3762351623523
 20
142.8768435469001
 30
0.0
 10
63.28898474321878
 20
142.704772926047
 30
0.0
  0
SPLINE
  5
9D
330
1F
100
AcDbEntity
  8
0
  6
Continuous
 62
     7
370
    15
100
AcDbSpline
210
0.0
220
0.0
230
1.0
 70
     8
 71
     3
 72
     8
 73
     4
 74
     0
 42
0.00000001
 43
0.00000001
 40
0.0
 40
0.0
 40
0.0
 40
0.0
 40
1.0
 40
1.0
 40
1.0
 40
1.0
 10
64.21235761748208
 20
143.6277389941334
 30
0.0
 10
64.12533958763373
 20
143.6282055589205
 30
0.0
 10
64.0423855612538
 20
143.6292455784966
 30
0.0
 10
63.96243250151405
 20
143.6301920273889
 30
0.0
  0
SPLINE
  5
9E
330
1F
100
AcDbEntity
  8
0
  6
Continuous
 62
     7
370
    15
100
AcDbSpline
210
0.0
220
0.0
230
1.0
 70
     8
 71
     3
 72
     8
 73
     4
 74
     0
 42
0.00000001
 43
0.00000001
 40
0.0
 40
0.0
 40
0.0
 40
0.0
 40
1.0
 40
1.0
 40
1.0
 40
1.0
 10
63.96243250151405
 20
79.13362162374875
 30
0.0
 10
64.04238556125433
 20
79.13456807264102
 30
0.0
 10
64.12533958763481
 20
79.13560809221714
 30
0.0
 10
64.21235761748379
 20
79.13607465700422
 30
0.0
  0
SPLINE
  5
9F
330
1F
100
AcDbEntity
  8
0
  6
Continuous
 62
     7
370
    15
100
AcDbSpline
210
0.0
220
0.0
230
1.0
 70
     8
 71
     3
 72
    10
 73
     6
 74
     0
 42
0.00000001
 43
0.00000001
 40
0.0
 40
0.0
 40
0.0
 40
0.0
 40
0.4999999999999989
 40
0.4999999999999989
 40
1.0
 40
1.0
 40
1.0
 40
1.0
 10
63.28898474321785
 20
80.05904072509243
 30
0.0
 10
63.37623516235133
 20
79.88697010423907
 30
0.0
 10
63.48651013774749
 20
79.71890103117562
 30
0.0
 10
63.71609411270532
 20
79.4083307384858
 30
0.0
 10
63.83754423076596
 20
79.26461790182053
 30
0.0
 10
63.96243250151637
 20
79.13362162374882
 30
0.0
  0
LINE
  5
A0
330
1F
100
AcDbEntity
  8
0
  6
Continuous
 62
     7
370
    15
100
AcDbLine
 10
140.1624325015
 20
160.3717016812
 30
0.0
 11
135.4744615224
 21
160.3717016812
 31
0.0
  0
LINE
  5
A1
330
1F
100
AcDbEntity
  8
0
  6
Continuous
 62
     7
370
    15
100
AcDbLine
 10
135.4744615224
 20
150.3328695865
 30
0.0
 11
140.1624325015
 21
150.3328695865
 31
0.0
  0
LINE
  5
A2
330
1F
100
AcDbEntity
  8
0
  6
Continuous
 62
     7
370
    15
100
AcDbLine
 10
135.4744615224
 20
150.3328695865
 30
0.0
 11
135.4744615224
 21
160.3717016812
 31
0.0
  0
SPLINE
  5
A3
330
1F
100
AcDbEntity
  8
0
  6
Continuous
 62
     7
370
    15
100
AcDbSpline
210
0.0
220
0.0
230
1.0
 70
     8
 71
     3
 72
     8
 73
     4
 74
     0
 42
0.00000001
 43
0.00000001
 40
0.0
 40
0.0
 40
0.0
 40
0.0
 40
1.0
 40
1.0
 40
1.0
 40
1.0
 10
128.950403480595
 20
150.3328695864558
 30
0.0
 10
129.4073298343945
 20
149.3169516167815
 30
0.0
 10
129.8585354761975
 20
148.2981557876903
 30
0.0
 10
130.3024325015164
 20
147.2773543317067
 30
0.0
  0
LINE
  5
A4
330
1F
100
AcDbEntity
  8
0
  6
Continuous
 62
     7
370
    15
100
AcDbLine
 10
130.3024325015
 20
147.2773543317
 30
0.0
 11
130.3024325015
 21
146.0961420181
 31
0.0
  0
SPLINE
  5
A5
330
1F
100
AcDbEntity
  8
0
  6
Continuous
 62
     7
370
    15
100
AcDbSpline
210
0.0
220
0.0
230
1.0
 70
     8
 71
     3
 72
    14
 73
    10
 74
     0
 42
0.00000001
 43
0.00000001
 40
0.0
 40
0.0
 40
0.0
 40
0.0
 40
0.25
 40
0.25
 40
0.5
 40
0.5
 40
0.75
 40
0.75
 40
1.0
 40
1.0
 40
1.0
 40
1.0
 10
130.3024325015164
 20
146.0961420180659
 30
0.0
 10
130.3024325015164
 20
145.9722751412767
 30
0.0
 10
130.3182916291439
 20
145.8480154644392
 30
0.0
 10
130.3816532746638
 20
145.6104071020333
 30
0.0
 10
130.4302429827132
 20
145.4936267172808
 30
0.0
 10
130.562528587488
 20
145.2848241886718
 30
0.0
 10
130.6478533787486
 20
145.1903134850792
 30
0.0
 10
130.8547446270548
 20
145.0523566842769
 30
0.0
 10
130.9787125729448
 20
145.0104382386412
 30
0.0
 10
131.1024325015163
 20
145.0104382386412
 30
0.0
  0
LINE
  5
A6
330
1F
100
AcDbEntity
  8
0
  6
Continuous
 62
     7
370
    15
100
AcDbLine
 10
131.1024325015
 20
145.0104382386
 30
0.0
 11
133.3224325015
 21
145.0104382386
 31
0.0
  0
SPLINE
  5
A7
330
1F
100
AcDbEntity
  8
0
  6
Continuous
 62
     7
370
    15
100
AcDbSpline
210
0.0
220
0.0
230
1.0
 70
     8
 71
     3
 72
    12
 73
     8
 74
     0
 42
0.00000001
 43
0.00000001
 40
0.0
 40
0.0
 40
0.0
 40
0.0
 40
0.250000000000002
 40
0.250000000000002
 40
0.500000000000004
 40
0.500000000000004
 40
1.0
 40
1.0
 40
1.0
 40
1.0
 10
133.3224325015163
 20
145.0104382386413
 30
0.0
 10
133.4461334514963
 20
145.0104382386413
 30
0.0
 10
133.5702300637665
 20
145.0524318503738
 30
0.0
 10
133.7768852268536
 20
145.1902271770182
 30
0.0
 10
133.8619259935804
 20
145.2842007754831
 30
0.0
 10
134.061404562054
 20
145.598988981704
 30
0.0
 10
134.1224325015164
 20
145.8492279739316
 30
0.0
 10
134.1224325015164
 20
146.0961420180659
 30
0.0
  0
LINE
  5
A8
330
1F
100
AcDbEntity
  8
0
  6
Continuous
 62
     7
370
    15
100
AcDbLine
 10
134.1224325015
 20
146.0961420181
 30
0.0
 11
134.1224325015
 21
147.2773543317
 31
0.0
  0
SPLINE
  5
A9
330
1F
100
AcDbEntity
  8
0
  6
Continuous
 62
     7
370
    15
100
AcDbSpline
210
0.0
220
0.0
230
1.0
 70
     8
 71
     3
 72
     8
 73
     4
 74
     0
 42
0.00000001
 43
0.00000001
 40
0.0
 40
0.0
 40
0.0
 40
0.0
 40
1.0
 40
1.0
 40
1.0
 40
1.0
 10
134.1224325015164
 20
147.2773543317067
 30
0.0
 10
134.5665825125419
 20
148.2987375626583
 30
0.0
 10
135.0176568227998
 20
149.3172220994266
 30
0.0
 10
135.4744615224378
 20
150.3328695864558
 30
0.0
  0
SPLINE
  5
AA
330
1F
100
AcDbEntity
  8
0
  6
Continuous
 62
     7
370
    15
100
AcDbSpline
210
0.0
220
0.0
230
1.0
 70
     8
 71
     3
 72
    16
 73
    12
 74
     0
 42
0.00000001
 43
0.00000001
 40
0.0
 40
0.0
 40
0.0
 40
0.0
 40
0.1249999999999978
 40
0.1249999999999978
 40
0.2499999999999955
 40
0.2499999999999955
 40
0.499999999999997
 40
0.499999999999997
 40
0.7499999999999984
 40
0.7499999999999984
 40
1.0
 40
1.0
 40
1.0
 40
1.0
 10
140.1624325015163
 20
150.3328695864558
 30
0.0
 10
140.2380702079276
 20
150.3328695864558
 30
0.0
 10
140.3143858723458
 20
150.3215245863208
 30
0.0
 10
140.4587966102377
 20
150.2788720356823
 30
0.0
 10
140.5272430593461
 20
150.2479377109995
 30
0.0
 10
140.7221743119593
 20
150.1286813392319
 30
0.0
 10
140.8300154857402
 20
150.0185293256113
 30
0.0
 10
140.9987282339522
 20
149.7703932399532
 30
0.0
 10
141.0610926466757
 20
149.6300509159495
 30
0.0
 10
141.1423965711841
 20
149.3417792244609
 30
0.0
 10
141.1624325015163
 20
149.1909742514811
 30
0.0
 10
141.1624325015163
 20
149.0406043601358
 30
0.0
  0
LINE
  5
AB
330
1F
100
AcDbEntity
  8
0
  6
Continuous
 62
     7
370
    15
100
AcDbLine
 10
141.1624325015
 20
149.0406043601
 30
0.0
 11
141.1624325015
 21
142.7319068256
 31
0.0
  0
SPLINE
  5
AC
330
1F
100
AcDbEntity
  8
0
  6
Continuous
 62
     7
370
    15
100
AcDbSpline
210
0.0
220
0.0
230
1.0
 70
     8
 71
     3
 72
    12
 73
     8
 74
     0
 42
0.00000001
 43
0.00000001
 40
0.0
 40
0.0
 40
0.0
 40
0.0
 40
0.4999999999999953
 40
0.4999999999999953
 40
0.7499999999999977
 40
0.7499999999999977
 40
1.0
 40
1.0
 40
1.0
 40
1.0
 10
141.1624325015163
 20
159.3506466464146
 30
0.0
 10
141.1624325015163
 20
159.6159160791811
 30
0.0
 10
141.0578257580299
 20
159.8784311848335
 30
0.0
 10
140.7811574062846
 20
160.1639687908707
 30
0.0
 10
140.6707921469326
 20
160.2402904077321
 30
0.0
 10
140.4267200983168
 20
160.3446325725723
 30
0.0
 10
140.2949676369851
 20
160.3717016812324
 30
0.0
 10
140.1624325015163
 20
160.3717016812324
 30
0.0
  0
LINE
  5
AD
330
1F
100
AcDbEntity
  8
0
  6
Continuous
 62
     7
370
    15
100
AcDbLine
 10
141.1624325015
 20
149.0406043601
 30
0.0
 11
141.1624325015
 21
159.3506466464
 31
0.0
  0
SPLINE
  5
AE
330
1F
100
AcDbEntity
  8
0
  6
Continuous
 62
     7
370
    15
100
AcDbSpline
210
0.0
220
0.0
230
1.0
 70
     8
 71
     3
 72
    14
 73
    10
 74
     0
 42
0.00000001
 43
0.00000001
 40
0.0
 40
0.0
 40
0.0
 40
0.0
 40
0.25
 40
0.25
 40
0.5
 40
0.5
 40
0.75
 40
0.75
 40
1.0
 40
1.0
 40
1.0
 40
1.0
 10
134.1224325015164
 20
157.0754580664168
 30
0.0
 10
134.1224325015164
 20
156.9691013726645
 30
0.0
 10
134.1020449453751
 20
156.8632608849043
 30
0.0
 10
134.0234105999136
 20
156.6666959713679
 30
0.0
 10
133.9646792402749
 20
156.5755252290808
 30
0.0
 10
133.8180703346724
 20
156.4236141400492
 30
0.0
 10
133.7286650146459
 20
156.3615453032296
 30
0.0
 10
133.5347742820455
 20
156.2782772554709
 30
0.0
 10
133.4282692921557
 20
156.2561825857412
 30
0.0
 10
133.3224325015164
 20
156.2561825857412
 30
0.0
  0
SPLINE
  5
AF
330
1F
100
AcDbEntity
  8
0
  6
Continuous
 62
     7
370
    15
100
AcDbSpline
210
0.0
220
0.0
230
1.0
 70
     8
 71
     3
 72
     8
 73
     4
 74
     0
 42
0.00000001
 43
0.00000001
 40
0.0
 40
0.0
 40
0.0
 40
0.0
 40
1.0
 40
1.0
 40
1.0
 40
1.0
 10
130.3024325015164
 20
157.9791776862737
 30
0.0
 10
129.8521242658318
 20
158.7768928113873
 30
0.0
 10
129.4014304493082
 20
159.5743911110445
 30
0.0
 10
128.950403480595
 20
160.3717016812324
 30
0.0
  0
LINE
  5
B0
330
1F
100
AcDbEntity
  8
0
  6
Continuous
 62
     7
370
    15
100
AcDbLine
 10
130.3024325015
 20
147.2773543317
 30
0.0
 11
130.3024325015
 21
157.9791776863
 31
0.0
  0
SPLINE
  5
B1
330
1F
100
AcDbEntity
  8
0
  6
Continuous
 62
     7
370
    15
100
AcDbSpline
210
0.0
220
0.0
230
1.0
 70
     8
 71
     3
 72
     8
 73
     4
 74
     0
 42
0.00000001
 43
0.00000001
 40
0.0
 40
0.0
 40
0.0
 40
0.0
 40
1.0
 40
1.0
 40
1.0
 40
1.0
 10
135.4744615224378
 20
160.3717016812324
 30
0.0
 10
135.0234345537245
 20
159.5743911110445
 30
0.0
 10
134.5727407372009
 20
158.7768928113873
 30
0.0
 10
134.1224325015164
 20
157.9791776862737
 30
0.0
  0
LINE
  5
B2
330
1F
100
AcDbEntity
  8
0
  6
Continuous
 62
     7
370
    15
100
AcDbLine
 10
134.1224325015
 20
147.2773543317
 30
0.0
 11
134.1224325015
 21
157.9791776863
 31
0.0
  0
SPLINE
  5
B3
330
1F
100
AcDbEntity
  8
0
  6
Continuous
 62
     7
370
    15
100
AcDbSpline
210
0.0
220
0.0
230
1.0
 70
     8
 71
     3
 72
    10
 73
     6
 74
     0
 42
0.00000001
 43
0.00000001
 40
0.0
 40
0.0
 40
0.0
 40
0.0
 40
0.5
 40
0.5
 40
1.0
 40
1.0
 40
1.0
 40
1.0
 10
131.1024325015163
 20
156.2561825857412
 30
0.0
 10
130.88989618766
 20
156.2561825857412
 30
0.0
 10
130.679960016006
 20
156.3475951723715
 30
0.0
 10
130.3862528749947
 20
156.6523400382757
 30
0.0
 10
130.3024325015164
 20
156.8644950081843
 30
0.0
 10
130.3024325015164
 20
157.0754580664168
 30
0.0
  0
LINE
  5
B4
330
1F
100
AcDbEntity
  8
0
  6
Continuous
 62
     7
370
    15
100
AcDbLine
 10
133.3224325015
 20
156.2561825857
 30
0.0
 11
131.1024325015
 21
156.2561825857
 31
0.0
  0
ARC
  5
B5
330
1F
100
AcDbEntity
  8
0
  6
Continuous
 62
     7
370
    15
100
AcDbCircle
 10
121.2126445498
 20
144.0550319392
 30
0.0
 40
11.34478601436158
100
AcDbArc
 50
77.5499391354
 51
102.5168772928
  0
SPLINE
  5
B6
330
1F
100
AcDbEntity
  8
0
  6
Continuous
 62
     7
370
    15
100
AcDbSpline
210
0.0
220
0.0
230
1.0
 70
     8
 71
     3
 72
    10
 73
     6
 74
     0
 42
0.00000001
 43
0.00000001
 40
0.0
 40
0.0
 40
0.0
 40
0.0
 40
0.3400460882382644
 40
0.6899397732008741
 40
1.0
 40
1.0
 40
1.0
 40
1.0
 10
166.3876135568177
 20
131.8698336420194
 30
0.0
 10
166.3524204177046
 20
131.8721704651708
 30
0.0
 10
166.2810149604511
 20
131.8769117849239
 30
0.0
 10
166.2227655117377
 20
131.881156249004
 30
0.0
 10
166.2168640773915
 20
131.8815847501564
 30
0.0
 10
166.2140914594265
 20
131.8817860690094
 30
0.0
  0
LINE
  5
B7
330
1F
100
AcDbEntity
  8
0
  6
Continuous
 62
     7
370
    15
100
AcDbLine
 10
166.3876135568
 20
90.8819068256
 30
0.0
 11
166.3876135568
 21
131.869833642
 31
0.0
  0
LINE
  5
B8
330
1F
100
AcDbEntity
  8
0
  6
Continuous
 62
     7
370
    15
100
AcDbLine
 10
151.8112029665
 20
131.7541498491
 30
0.0
 11
151.8964962735
 21
131.7468296791
 31
0.0
  0
SPLINE
  5
B9
330
1F
100
AcDbEntity
  8
0
  6
Continuous
 62
     7
370
    15
100
AcDbSpline
210
0.0
220
0.0
230
1.0
 70
     8
 71
     3
 72
    36
 73
    32
 74
     0
 42
0.00000001
 43
0.00000001
 40
0.0
 40
0.0
 40
0.0
 40
0.0
 40
0.031663662724048
 40
0.0551239763724237
 40
0.0766306792665822
 40
0.1203174111506416
 40
0.1425306175384995
 40
0.1652407202479304
 40
0.2113014363857098
 40
0.2346782741540893
 40
0.2599993935861577
 40
0.3113496050206846
 40
0.3374111038804619
 40
0.3656478992863462
 40
0.422964517969573
 40
0.4520935844167572
 40
0.4823496268686082
 40
0.5438481947528166
 40
0.5751612163398169
 40
0.6059897222026042
 40
0.6370388948046307
 40
0.6688035933926154
 40
0.7008255880925759
 40
0.7306398602360493
 40
0.7914651542174647
 40
0.8226064832595614
 40
0.8495084254323622
 40
0.9044878985738443
 40
0.9326954327645668
 40
0.9560527454254217
 40
1.0
 40
1.0
 40
1.0
 40
1.0
 10
157.6534313242232
 20
131.8807231437694
 30
0.0
 10
157.6535600010224
 20
131.8807376541559
 30
0.0
 10
157.653784017331
 20
131.8807629156114
 30
0.0
 10
157.606272515277
 20
131.8745469318602
 30
0.0
 10
157.531153823168
 20
131.8648612001377
 30
0.0
 10
157.420466596667
 20
131.8509131117645
 30
0.0
 10
157.2766876542657
 20
131.8336230061918
 30
0.0
 10
157.1079517907042
 20
131.8140396635296
 30
0.0
 10
156.9065601876126
 20
131.792067670593
 30
0.0
 10
156.6735829549791
 20
131.7688456205684
 30
0.0
 10
156.4100773832546
 20
131.7443804281058
 30
0.0
 10
156.1138506439875
 20
131.7202415171843
 30
0.0
 10
155.7897614413824
 20
131.6982260965554
 30
0.0
 10
155.4347721368257
 20
131.6775411014292
 30
0.0
 10
155.0526952123904
 20
131.6613126758275
 30
0.0
 10
154.6548564468298
 20
131.6512931742301
 30
0.0
 10
154.2384847744534
 20
131.645746409748
 30
0.0
 10
153.811273948268
 20
131.6480325278068
 30
0.0
 10
153.3891917009883
 20
131.6581792533059
 30
0.0
 10
153.0763778808368
 20
131.6695307204034
 30
0.0
 10
152.7697822235402
 20
131.6843118751116
 30
0.0
 10
152.4696058471732
 20
131.7022857934705
 30
0.0
 10
152.1862079907635
 20
131.7224603277086
 30
0.0
 10
151.8348106062609
 20
131.7510875414078
 30
0.0
 10
151.5187978203842
 20
131.7814766630976
 30
0.0
 10
151.2550920606869
 20
131.8098410989604
 30
0.0
 10
151.0342872749094
 20
131.8350241340692
 30
0.0
 10
150.8636554370084
 20
131.8559781376698
 30
0.0
 10
150.7524577288337
 20
131.870158497401
 30
0.0
 10
150.6801226344158
 20
131.8795621736339
 30
0.0
 10
150.6713735033427
 20
131.8807245082623
 30
0.0
 10
150.6656606623518
 20
131.8814834673926
 30
0.0
  0
SPLINE
  5
BA
330
1F
100
AcDbEntity
  8
0
  6
Continuous
 62
     7
370
    15
100
AcDbSpline
210
0.0
220
0.0
230
1.0
 70
     8
 71
     3
 72
     9
 73
     5
 74
     0
 42
0.00000001
 43
0.00000001
 40
0.0
 40
0.0
 40
0.0
 40
0.0
 40
0.451914793947666
 40
1.0
 40
1.0
 40
1.0
 40
1.0
 10
151.466852934466
 20
131.7875038709919
 30
0.0
 10
151.5158115113161
 20
131.7824866823758
 30
0.0
 10
151.6241473691056
 20
131.7713846147221
 30
0.0
 10
151.7449776674765
 20
131.7602516580046
 30
0.0
 10
151.8112029664564
 20
131.7541498491283
 30
0.0
  0
SPLINE
  5
BB
330
1F
100
AcDbEntity
  8
0
  6
Continuous
 62
     7
370
    15
100
AcDbSpline
210
0.0
220
0.0
230
1.0
 70
     8
 71
     3
 72
    68
 73
    64
 74
     0
 42
0.00000001
 43
0.00000001
 40
-0.0312500000000001
 40
-0.0312500000000001
 40
0.0
 40
0.0
 40
0.0312499999999999
 40
0.0312499999999999
 40
0.0624999999999998
 40
0.0624999999999998
 40
0.0937499999999996
 40
0.0937499999999996
 40
0.1249999999999995
 40
0.1249999999999995
 40
0.1562499999999994
 40
0.1562499999999994
 40
0.1874999999999993
 40
0.1874999999999993
 40
0.2187499999999991
 40
0.2187499999999991
 40
0.249999999999999
 40
0.249999999999999
 40
0.2812499999999989
 40
0.2812499999999989
 40
0.3124999999999988
 40
0.3124999999999988
 40
0.3437499999999986
 40
0.3437499999999986
 40
0.3749999999999985
 40
0.3749999999999985
 40
0.4062499999999984
 40
0.4062499999999984
 40
0.4374999999999982
 40
0.4374999999999982
 40
0.4999999999999984
 40
0.4999999999999984
 40
0.5312499999999986
 40
0.5312499999999986
 40
0.5624999999999987
 40
0.5624999999999987
 40
0.5937499999999988
 40
0.5937499999999988
 40
0.6249999999999988
 40
0.6249999999999988
 40
0.6562499999999989
 40
0.6562499999999989
 40
0.687499999999999
 40
0.687499999999999
 40
0.7187499999999991
 40
0.7187499999999991
 40
0.7499999999999992
 40
0.7499999999999992
 40
0.7812499999999993
 40
0.7812499999999993
 40
0.8124999999999994
 40
0.8124999999999994
 40
0.8437499999999996
 40
0.8437499999999996
 40
0.8749999999999996
 40
0.8749999999999996
 40
0.9062499999999997
 40
0.9062499999999997
 40
0.9374999999999998
 40
0.9374999999999998
 40
0.9687499999999999
 40
0.9687499999999999
 40
1.0
 40
1.0
 40
1.03125
 40
1.03125
 10
151.6418746153116
 20
113.5307658734578
 30
0.0
 10
151.9805313198761
 20
113.8032618586773
 30
0.0
 10
152.1600005641156
 20
113.9213861984778
 30
0.0
 10
152.5373408771807
 20
114.1249399084188
 30
0.0
 10
152.7365065982458
 20
114.2107402904391
 30
0.0
 10
153.1478328445873
 20
114.3473399463803
 30
0.0
 10
153.3569864057902
 20
114.397396047396
 30
0.0
 10
153.7819682978156
 20
114.4627325169598
 30
0.0
 10
153.9997096484857
 20
114.4779181296955
 30
0.0
 10
154.432189026254
 20
114.4719999997466
 30
0.0
 10
154.6459342953327
 20
114.4512839169797
 30
0.0
 10
155.0685012956691
 20
114.3747548128538
 30
0.0
 10
155.2792637505561
 20
114.3181829247909
 30
0.0
 10
155.6851528550836
 20
114.170711418703
 30
0.0
 10
155.8794501185279
 20
114.0805628995394
 30
0.0
 10
156.2504768681732
 20
113.8667526921777
 30
0.0
 10
156.4290211448028
 20
113.7414953081362
 30
0.0
 10
156.7567080163205
 20
113.4610857840633
 30
0.0
 10
156.9051155719552
 20
113.3072471388993
 30
0.0
 10
157.1695191016053
 20
112.9707816593741
 30
0.0
 10
157.2867820411287
 20
112.7852209136125
 30
0.0
 10
157.4748828821319
 20
112.3975031926058
 30
0.0
 10
157.5465144261054
 20
112.1956902220558
 30
0.0
 10
157.6422489001551
 20
111.7751526222272
 30
0.0
 10
157.6654003803497
 20
111.5558698011178
 30
0.0
 10
157.6588361752167
 20
111.1255425035757
 30
0.0
 10
157.6294710779376
 20
110.9090097244026
 30
0.0
 10
157.5205784706177
 20
110.4886602638026
 30
0.0
 10
157.4424763084965
 20
110.2878416928837
 30
0.0
 10
157.1417132944916
 20
109.7115872824627
 30
0.0
 10
156.8565092397338
 20
109.3741280764941
 30
0.0
 10
156.3526464700309
 20
108.9665327050232
 30
0.0
 10
156.1733792844358
 20
108.847585540226
 30
0.0
 10
155.7934366255806
 20
108.641519422883
 30
0.0
 10
155.5926579290836
 20
108.5548704656231
 30
0.0
 10
155.1842801099591
 20
108.4185217586081
 30
0.0
 10
154.9749477167325
 20
108.3677976476166
 30
0.0
 10
154.5459582487824
 20
108.3012654158762
 30
0.0
 10
154.3288503814479
 20
108.2861178498388
 30
0.0
 10
153.8987935654059
 20
108.2914632017038
 30
0.0
 10
153.684415758957
 20
108.3117151335961
 30
0.0
 10
153.2570108848146
 20
108.388765406889
 30
0.0
 10
153.0473256540199
 20
108.4451967945774
 30
0.0
 10
152.6439256232449
 20
108.5913815727783
 30
0.0
 10
152.4489048163614
 20
108.681332677944
 30
0.0
 10
152.073214592987
 20
108.897644747224
 30
0.0
 10
151.895735571445
 20
109.0225314790962
 30
0.0
 10
151.5704582369059
 20
109.3006389691793
 30
0.0
 10
151.4212276832166
 20
109.4545986932059
 30
0.0
 10
151.1529091912438
 20
109.7962198022271
 30
0.0
 10
151.0375838872719
 20
109.97964215832
 30
0.0
 10
150.8505885437046
 20
110.3650397811397
 30
0.0
 10
150.7775132817404
 20
110.5703263910953
 30
0.0
 10
150.6816011278574
 20
110.9946232925298
 30
0.0
 10
150.6593408115952
 20
111.2087353252848
 30
0.0
 10
150.666205730804
 20
111.6408896308387
 30
0.0
 10
150.6963659616935
 20
111.8596846110217
 30
0.0
 10
150.8051563660745
 20
112.2773634102654
 30
0.0
 10
150.8847221196737
 20
112.4814212172265
 30
0.0
 10
151.0863377699961
 20
112.8657263196515
 30
0.0
 10
151.2069366682124
 20
113.0445245344384
 30
0.0
 10
151.4847853168343
 20
113.3775092999443
 30
0.0
 10
151.6418746153116
 20
113.5307658734578
 30
0.0
 10
151.9805313198761
 20
113.8032618586773
 30
0.0
  0
SPLINE
  5
BC
330
1F
100
AcDbEntity
  8
0
  6
Continuous
 62
     7
370
    15
100
AcDbSpline
210
0.0
220
0.0
230
1.0
 70
     8
 71
     3
 72
    37
 73
    33
 74
     0
 42
0.00000001
 43
0.00000001
 40
0.0
 40
0.0
 40
0.0
 40
0.0
 40
0.025326174198132
 40
0.0489570215777734
 40
0.0704550886072594
 40
0.1141316802208922
 40
0.1363445073937928
 40
0.1589123374054029
 40
0.2046871237713421
 40
0.2279203268405064
 40
0.2530328202229035
 40
0.3039583666132483
 40
0.3298030053225435
 40
0.3578513267111444
 40
0.4147803470495504
 40
0.4437088703578039
 40
0.4738681563404762
 40
0.5351642136129398
 40
0.5663699470167699
 40
0.5972052724205459
 40
0.6282601115384727
 40
0.6600249449185067
 40
0.6920442472314694
 40
0.7219902279867507
 40
0.7830733108366414
 40
0.81433859495357
 40
0.8414935015496179
 40
0.8969886549704763
 40
0.9254612725503508
 40
0.9490310386877264
 40
0.9971218824265109
 40
1.0
 40
1.0
 40
1.0
 40
1.0
 10
150.6729930829397
 20
90.8832963293137
 30
0.0
 10
150.6709546851112
 20
90.88302914318025
 30
0.0
 10
150.6670143392185
 20
90.88251265627633
 30
0.0
 10
150.7061390817243
 20
90.88764471954997
 30
0.0
 10
150.7741279755381
 20
90.89644714427531
 30
0.0
 10
150.8785331407944
 20
90.90968870658986
 30
0.0
 10
151.016139998666
 20
90.92638206864193
 30
0.0
 10
151.1783985799464
 20
90.94541335853822
 30
0.0
 10
151.3732751236634
 20
90.96697077158964
 30
0.0
 10
151.5998454568483
 20
90.9899609452662
 30
0.0
 10
151.8566018202206
 20
91.01431065497107
 30
0.0
 10
152.1461777956085
 20
91.03857734993186
 30
0.0
 10
152.4640932391314
 20
91.06100237520053
 30
0.0
 10
152.8132555916273
 20
91.08232543962046
 30
0.0
 10
153.1902269852822
 20
91.09949950518312
 30
0.0
 10
153.5841415407783
 20
91.11071770510947
 30
0.0
 10
153.9978683621026
 20
91.11763629117547
 30
0.0
 10
154.42389669129
 20
91.11685230814815
 30
0.0
 10
154.8464353766125
 20
91.10817252518908
 30
0.0
 10
155.160704488039
 20
91.09785110465238
 30
0.0
 10
155.4697756456996
 20
91.0839837580528
 30
0.0
 10
155.7731126940078
 20
91.06679456546682
 30
0.0
 10
156.060731894894
 20
91.04719637484231
 30
0.0
 10
156.4191781976054
 20
91.01901322624596
 30
0.0
 10
156.7437561359874
 20
90.98860766029546
 30
0.0
 10
157.0172486391102
 20
90.95975248342499
 30
0.0
 10
157.2486440266442
 20
90.93376605055055
 30
0.0
 10
157.4296801900856
 20
90.91177645409924
 30
0.0
 10
157.5528322531914
 20
90.8961692623191
 30
0.0
 10
157.6331510797937
 20
90.88578464155972
 30
0.0
 10
157.6685346946057
 20
90.88110346725826
 30
0.0
 10
157.6615821148815
 20
90.88201874435623
 30
0.0
 10
157.6611895163005
 20
90.8820704282641
 30
0.0
  0
SPLINE
  5
BD
330
1F
100
AcDbEntity
  8
0
  6
Continuous
 62
     7
370
    15
100
AcDbSpline
210
0.0
220
0.0
230
1.0
 70
     8
 71
     3
 72
     9
 73
     5
 74
     0
 42
0.00000001
 43
0.00000001
 40
0.0
 40
0.0
 40
0.0
 40
0.0
 40
0.3691086322288841
 40
1.0
 40
1.0
 40
1.0
 40
1.0
 10
152.1206328761096
 20
91.03516990112989
 30
0.0
 10
152.080432257168
 20
91.03220729789389
 30
0.0
 10
151.971519553884
 20
91.02418092577112
 30
0.0
 10
151.8732195750115
 20
91.01527958261022
 30
0.0
 10
151.8112029668888
 20
91.00966380204845
 30
0.0
  0
CIRCLE
  5
BE
330
1F
100
AcDbEntity
  8
0
  6
Continuous
 62
     7
370
    15
100
AcDbCircle
 10
154.1624325015
 20
111.3819068256
 30
0.0
 40
2.5
  0
SPLINE
  5
BF
330
1F
100
AcDbEntity
  8
0
  6
Continuous
 62
     7
370
    15
100
AcDbSpline
210
0.0
220
0.0
230
1.0
 70
     8
 71
     3
 72
    11
 73
     7
 74
     0
 42
0.00000001
 43
0.00000001
 40
0.0
 40
0.0
 40
0.0
 40
0.0
 40
0.062978819553051
 40
0.4108315047899419
 40
0.7023145861247855
 40
1.0
 40
1.0
 40
1.0
 40
1.0
 10
166.215529953484
 20
131.8952244362513
 30
0.0
 10
166.2145549288577
 20
131.8953721462502
 30
0.0
 10
166.2081945232911
 20
131.89633570704
 30
0.0
 10
166.2362097807414
 20
131.8920895466948
 30
0.0
 10
166.2937580803226
 20
131.8834388300271
 30
0.0
 10
166.3561096010042
 20
131.8744004212616
 30
0.0
 10
166.3876135568177
 20
131.8698336420194
 30
0.0
  0
LINE
  5
C0
330
1F
100
AcDbEntity
  8
0
  6
Continuous
 62
     7
370
    15
100
AcDbLine
 10
63.9624325015
 20
79.1319068256
 30
0.0
 11
63.9624325015
 21
79.1336216237
 31
0.0
  0
LINE
  5
C1
330
1F
100
AcDbEntity
  8
0
  6
Continuous
 62
     7
370
    15
100
AcDbLine
 10
217.2124325015
 20
96.7306878089
 30
0.0
 11
217.2124325015
 21
126.0331257844
 31
0.0
  0
LINE
  5
C2
330
1F
100
AcDbEntity
  8
0
  6
Continuous
 62
     7
370
    15
100
AcDbLine
 10
63.9624325015
 20
143.6319068256
 30
0.0
 11
63.9624325015
 21
143.6301920274
 31
0.0
  0
LINE
  5
C3
330
1F
100
AcDbEntity
  8
0
  6
Continuous
 62
     7
370
    15
100
AcDbLine
 10
217.2418773633
 20
98.3830637173
 30
0.0
 11
217.2897547087
 21
97.1645039076
 31
0.0
  0
LINE
  5
C4
330
1F
100
AcDbEntity
  8
0
  6
Continuous
 62
     7
370
    15
100
AcDbLine
 10
217.2124325015
 20
99.1324854945
 30
0.0
 11
217.2418773633
 21
98.3830637173
 31
0.0
  0
LINE
  5
C5
330
1F
100
AcDbEntity
  8
0
  6
Continuous
 62
     7
370
    15
100
AcDbLine
 10
217.230864985
 20
125.601623527
 30
0.0
 11
217.2124325015
 21
125.1324854945
 31
0.0
  0
SPLINE
  5
C6
330
1F
100
AcDbEntity
  8
0
  6
HIDDEN
 62
     7
370
     0
100
AcDbSpline
210
0.0
220
0.0
230
1.0
 70
     8
 71
     3
 72
    80
 73
    76
 74
     0
 42
0.00000001
 43
0.00000001
 40
-0.03125
 40
-0.03125
 40
0.0
 40
0.0
 40
0.0312500000000002
 40
0.0312500000000002
 40
0.0468750000000002
 40
0.0468750000000002
 40
0.0625000000000001
 40
0.0625000000000001
 40
0.0937499999999999
 40
0.0937499999999999
 40
0.1249999999999997
 40
0.1249999999999997
 40
0.1562499999999995
 40
0.1562499999999995
 40
0.1874999999999993
 40
0.1874999999999993
 40
0.2187499999999991
 40
0.2187499999999991
 40
0.2499999999999989
 40
0.2499999999999989
 40
0.2812499999999987
 40
0.2812499999999987
 40
0.3124999999999984
 40
0.3124999999999984
 40
0.3281249999999985
 40
0.3281249999999985
 40
0.3437499999999986
 40
0.3437499999999986
 40
0.3749999999999986
 40
0.3749999999999986
 40
0.4062499999999987
 40
0.4062499999999987
 40
0.4218749999999989
 40
0.4218749999999989
 40
0.4374999999999991
 40
0.4374999999999991
 40
0.4687499999999993
 40
0.4687499999999993
 40
0.4999999999999994
 40
0.4999999999999994
 40
0.5312499999999997
 40
0.5312499999999997
 40
0.5624999999999998
 40
0.5624999999999998
 40
0.59375
 40
0.59375
 40
0.6250000000000001
 40
0.6250000000000001
 40
0.6562500000000003
 40
0.6562500000000003
 40
0.6875000000000006
 40
0.6875000000000006
 40
0.7031250000000007
 40
0.7031250000000007
 40
0.7187500000000007
 40
0.7187500000000007
 40
0.7500000000000003
 40
0.7500000000000003
 40
0.78125
 40
0.78125
 40
0.7968749999999998
 40
0.7968749999999998
 40
0.8124999999999997
 40
0.8124999999999997
 40
0.8437499999999998
 40
0.8437499999999998
 40
0.8749999999999998
 40
0.8749999999999998
 40
0.9062499999999999
 40
0.9062499999999999
 40
0.9375
 40
0.9375
 40
0.96875
 40
0.96875
 40
1.0
 40
1.0
 40
1.03125
 40
1.03125
 10
120.8818871887401
 20
160.2414560820468
 30
0.0
 10
121.5429778142927
 20
160.2414560820468
 30
0.0
 10
121.8679579435443
 20
160.23455793622
 30
0.0
 10
122.3474313547907
 20
160.2140315082395
 30
0.0
 10
122.5059131726315
 20
160.2054752811519
 30
0.0
 10
122.8201327051358
 20
160.1847489059343
 30
0.0
 10
122.9762529888162
 20
160.1725216057279
 30
0.0
 10
123.4303070177728
 20
160.1309523118987
 30
0.0
 10
123.7174104007126
 20
160.0966080268009
 30
0.0
 10
124.2607649567396
 20
160.0132839024786
 30
0.0
 10
124.5178685679452
 20
159.9638456797041
 30
0.0
 10
124.978774822884
 20
159.8524659499442
 30
0.0
 10
125.1856725320989
 20
159.7901714364321
 30
0.0
 10
125.5511978460912
 20
159.6502417935611
 30
0.0
 10
125.7064033682171
 20
159.573625895812
 30
0.0
 10
125.9558337548168
 20
159.4096672759563
 30
0.0
 10
126.051923710602
 20
159.3211104218606
 30
0.0
 10
126.1804425597956
 20
159.1336297397548
 30
0.0
 10
126.2122534299734
 20
159.0363932783003
 30
0.0
 10
126.2126100797466
 20
158.8347606389733
 30
0.0
 10
126.1801128275495
 20
158.7292118471352
 30
0.0
 10
126.0524873538351
 20
158.5190970644466
 30
0.0
 10
125.9580589527832
 20
158.4140315564777
 30
0.0
 10
125.7701981327976
 20
158.2571538492266
 30
0.0
 10
125.6993701339944
 20
158.2047201155209
 30
0.0
 10
125.5446482420292
 20
158.1022816698911
 30
0.0
 10
125.4606717718458
 20
158.0521339412393
 30
0.0
 10
125.1893481022013
 20
157.9051179848058
 30
0.0
 10
124.982798883599
 20
157.8116301643714
 30
0.0
 10
124.51618874341
 20
157.635843306757
 30
0.0
 10
124.2638231737845
 20
157.5564648316733
 30
0.0
 10
123.8579218321058
 20
157.4509823941792
 30
0.0
 10
123.7180212146283
 20
157.4180968293391
 30
0.0
 10
123.4287972793814
 20
157.3571813501105
 30
0.0
 10
123.2789578230921
 20
157.329100778468
 30
0.0
 10
122.8248412534813
 20
157.2542987364252
 30
0.0
 10
122.5131900347445
 20
157.2162606781791
 30
0.0
 10
121.8721935698321
 20
157.164648751655
 30
0.0
 10
121.5406659418799
 20
157.1513348181335
 30
0.0
 10
120.8878748968084
 20
157.1512377318055
 30
0.0
 10
120.5633386917766
 20
157.1640258169665
 30
0.0
 10
119.9180692423602
 20
157.2155160065624
 30
0.0
 10
119.6023262361975
 20
157.2540405858825
 30
0.0
 10
119.0004369412138
 20
157.3529431487405
 30
0.0
 10
118.7096877104023
 20
157.4140472466655
 30
0.0
 10
118.1627759187178
 20
157.5558566797763
 30
0.0
 10
117.9109985548809
 20
157.6351911643554
 30
0.0
 10
117.4496105622598
 20
157.8085699090169
 30
0.0
 10
117.2383412826617
 20
157.9037298537709
 30
0.0
 10
116.8750369302855
 20
158.1003023771468
 30
0.0
 10
116.7212302818427
 20
158.2020586055532
 30
0.0
 10
116.5326108122453
 20
158.3588445683387
 30
0.0
 10
116.4765803260362
 20
158.4120986020887
 30
0.0
 10
116.3810065643
 20
158.5179031636414
 30
0.0
 10
116.341243647275
 20
158.570556227997
 30
0.0
 10
116.2454718969629
 20
158.7276299474562
 30
0.0
 10
116.2127490578368
 20
158.8311549827833
 30
0.0
 10
116.2121204715077
 20
159.0353697170104
 30
0.0
 10
116.2443066162425
 20
159.1328735545952
 30
0.0
 10
116.3392173180981
 20
159.2722006049468
 30
0.0
 10
116.378684101497
 20
159.3175173364513
 30
0.0
 10
116.4736141002179
 20
159.4059571574401
 30
0.0
 10
116.5293709279813
 20
159.4492114079001
 30
0.0
 10
116.7173110459511
 20
159.57310288249
 30
0.0
 10
116.8706725156673
 20
159.6488051732641
 30
0.0
 10
117.2329367505477
 20
159.7880595447223
 30
0.0
 10
117.4437852240136
 20
159.851821386251
 30
0.0
 10
117.9044551943325
 20
159.9633182257189
 30
0.0
 10
118.1558295739163
 20
160.0118442980355
 30
0.0
 10
118.7017374608145
 20
160.095898281416
 30
0.0
 10
118.9925600354657
 20
160.1306968350827
 30
0.0
 10
119.5938866502457
 20
160.1858932998465
 30
0.0
 10
119.9084052348581
 20
160.2067111486004
 30
0.0
 10
120.5549866909781
 20
160.2345584815111
 30
0.0
 10
120.8818871887401
 20
160.2414560820468
 30
0.0
 10
121.5429778142927
 20
160.2414560820468
 30
0.0
  0
LINE
  5
C7
330
1F
100
AcDbEntity
  8
0
  6
HIDDEN
 62
     7
370
     0
100
AcDbLine
 10
128.9504034806
 20
150.3328695865
 30
0.0
 11
128.9504034806
 21
142.7319068256
 31
0.0
  0
LINE
  5
C8
330
1F
100
AcDbEntity
  8
0
  6
HIDDEN
 62
     7
370
     0
100
AcDbLine
 10
92.6258572509
 20
74.6461004633
 30
0.0
 11
92.3559015501
 21
74.622174364
 31
0.0
  0
SPLINE
  5
C9
330
1F
100
AcDbEntity
  8
0
  6
HIDDEN
 62
     7
370
     0
100
AcDbSpline
210
0.0
220
0.0
230
1.0
 70
     8
 71
     3
 72
    12
 73
     8
 74
     0
 42
0.00000001
 43
0.00000001
 40
0.0
 40
0.0
 40
0.0
 40
0.0
 40
0.1661348616735903
 40
0.3322013257393936
 40
0.5008932044678248
 40
0.752137078264078
 40
1.0
 40
1.0
 40
1.0
 40
1.0
 10
90.73175416716359
 20
148.3132108486344
 30
0.0
 10
90.74214679127164
 20
148.3118327245729
 30
0.0
 10
90.7629277608516
 20
148.3090770438228
 30
0.0
 10
90.93622725029851
 20
148.2874736688608
 30
0.0
 10
91.25817883954224
 20
148.2496087169189
 30
0.0
 10
91.77934467546156
 20
148.1892249502028
 30
0.0
 10
92.34490261529929
 20
148.1414318130533
 30
0.0
 10
92.62576603898732
 20
148.1176971199599
 30
0.0
  0
SPLINE
  5
CA
330
1F
100
AcDbEntity
  8
0
  6
HIDDEN
 62
     7
370
     0
100
AcDbSpline
210
0.0
220
0.0
230
1.0
 70
     8
 71
     3
 72
    13
 73
     9
 74
     0
 42
0.00000001
 43
0.00000001
 40
0.0
 40
0.0
 40
0.0
 40
0.0
 40
0.1623838623890672
 40
0.3259040853672601
 40
0.492993593169156
 40
0.6613117860593895
 40
0.8237260409557298
 40
1.0
 40
1.0
 40
1.0
 40
1.0
 10
102.4656381567074
 20
142.7482290463159
 30
0.0
 10
102.5412276672838
 20
142.7606048187833
 30
0.0
 10
102.6929356630497
 20
142.7854429692458
 30
0.0
 10
102.8758345382141
 20
142.8127013139605
 30
0.0
 10
103.0248968837954
 20
142.8338211741092
 30
0.0
 10
103.1288470650951
 20
142.8478075551477
 30
0.0
 10
103.2041767927659
 20
142.8576002403595
 30
0.0
 10
103.1959481867884
 20
142.856529058503
 30
0.0
 10
103.191665519446
 20
142.8559715502729
 30
0.0
  0
SPLINE
  5
CB
330
1F
100
AcDbEntity
  8
0
  6
HIDDEN
 62
     7
370
     0
100
AcDbSpline
210
0.0
220
0.0
230
1.0
 70
     8
 71
     3
 72
    13
 73
     9
 74
     0
 42
0.00000001
 43
0.00000001
 40
0.0
 40
0.0
 40
0.0
 40
0.0
 40
0.154016328081304
 40
0.3222930625049942
 40
0.4885625951930634
 40
0.6560413341200331
 40
0.8273536970371151
 40
0.9999999999999999
 40
0.9999999999999999
 40
0.9999999999999999
 40
0.9999999999999999
 10
103.1916656982151
 20
79.90784207773874
 30
0.0
 10
103.1968510326722
 20
79.90717029190273
 30
0.0
 10
103.207701812866
 20
79.90576451942957
 30
0.0
 10
103.1383609347497
 20
79.91475133969405
 30
0.0
 10
103.0382435934494
 20
79.92816543990104
 30
0.0
 10
102.8917157922723
 20
79.94880599256382
 30
0.0
 10
102.7055019033279
 20
79.9763714523183
 30
0.0
 10
102.5457991918628
 20
80.00247980286368
 30
0.0
 10
102.4656381567074
 20
80.01558460482175
 30
0.0
  0
SPLINE
  5
CC
330
1F
100
AcDbEntity
  8
0
  6
HIDDEN
 62
     7
370
     0
100
AcDbSpline
210
0.0
220
0.0
230
1.0
 70
     8
 71
     3
 72
    33
 73
    29
 74
     0
 42
0.00000001
 43
0.00000001
 40
0.0
 40
0.0
 40
0.0
 40
0.0
 40
0.0315773698875104
 40
0.0633753287769057
 40
0.0958656851178231
 40
0.1285943208117605
 40
0.1601713694082662
 40
0.2244011681247345
 40
0.2571344568799636
 40
0.2885965627565487
 40
0.3526214070085076
 40
0.3852675959519929
 40
0.4162212184009612
 40
0.4791910353915302
 40
0.5112817741273479
 40
0.5421256322990662
 40
0.6048360558905652
 40
0.6367710793564881
 40
0.6680663384719832
 40
0.7316979547407203
 40
0.7641081282919966
 40
0.7957194290717577
 40
0.8275524266255816
 40
0.8600900250720824
 40
0.8928737620729298
 40
0.9241775068323748
 40
0.9878778414776339
 40
1.0
 40
1.0
 40
1.0
 40
1.0
 10
102.4656381567074
 20
80.01558460482175
 30
0.0
 10
102.3817670097021
 20
80.02945834320349
 30
0.0
 10
102.2134388197582
 20
80.05730273728824
 30
0.0
 10
101.9140842234167
 20
80.10373537751863
 30
0.0
 10
101.5800847561579
 20
80.15234797953947
 30
0.0
 10
101.2143147942706
 20
80.20149591272671
 30
0.0
 10
100.6909348795817
 20
80.26556169831935
 30
0.0
 10
100.1145076709871
 20
80.32534321272448
 30
0.0
 10
99.49937052413557
 20
80.37534282018852
 30
0.0
 10
98.86305479805266
 20
80.41748281287195
 30
0.0
 10
98.19927426061395
 20
80.44611753760996
 30
0.0
 10
97.52720850903084
 20
80.45837698869357
 30
0.0
 10
96.8577599255991
 20
80.45970627980185
 30
0.0
 10
96.19257535848514
 20
80.44484575689239
 30
0.0
 10
95.54628411959465
 20
80.41498779250323
 30
0.0
 10
94.91709416873628
 20
80.37624456444193
 30
0.0
 10
94.31737847655701
 20
80.32566633068207
 30
0.0
 10
93.75907891043519
 20
80.26726631621554
 30
0.0
 10
93.22888404004763
 20
80.20494308484602
 30
0.0
 10
92.74971733773604
 20
80.13953451031047
 30
0.0
 10
92.33479935254118
 20
80.07674560670449
 30
0.0
 10
92.05752696861515
 20
80.03224100788312
 30
0.0
 10
91.81597168305397
 20
79.99153205844814
 30
0.0
 10
91.61047967870556
 20
79.95547492779866
 30
0.0
 10
91.44631525496132
 20
79.9257179028463
 30
0.0
 10
91.28688130839603
 20
79.89613258942188
 30
0.0
 10
91.20864308044742
 20
79.88118331041701
 30
0.0
 10
91.21636787079224
 20
79.88265573301823
 30
0.0
 10
91.21760287546168
 20
79.8828911373084
 30
0.0
  0
SPLINE
  5
CD
330
1F
100
AcDbEntity
  8
0
  6
HIDDEN
 62
     7
370
     0
100
AcDbSpline
210
0.0
220
0.0
230
1.0
 70
     8
 71
     3
 72
    32
 73
    28
 74
     0
 42
0.00000001
 43
0.00000001
 40
0.0
 40
0.0
 40
0.0
 40
0.0
 40
0.020356822172105
 40
0.0512207857583794
 40
0.1139954454389432
 40
0.1459779869097674
 40
0.1769364677636727
 40
0.2398766914470389
 40
0.2719275468465721
 40
0.3033698011481659
 40
0.3673099924152954
 40
0.3998847012176188
 40
0.4314690120325909
 40
0.4957360700021212
 40
0.5285028301030422
 40
0.5596434488300034
 40
0.6230067766607702
 40
0.6553079823205556
 40
0.6861132872619372
 40
0.748756262689177
 40
0.7806634244345373
 40
0.8117607067089887
 40
0.8749825776111492
 40
0.9071778073885584
 40
0.9301738434827028
 40
0.9765719131095674
 40
1.0
 40
1.0
 40
1.0
 40
1.0
 10
91.21760287546168
 20
142.8809225138292
 30
0.0
 10
91.21724582355543
 20
142.8809899927561
 30
0.0
 10
91.21634742796894
 20
142.8811597797508
 30
0.0
 10
91.27894117452156
 20
142.8692655385634
 30
0.0
 10
91.42075235598509
 20
142.8426186616438
 30
0.0
 10
91.6447969478606
 20
142.8022365902312
 30
0.0
 10
91.91933906369482
 20
142.7543673484807
 30
0.0
 10
92.26803035270237
 20
142.696897463201
 30
0.0
 10
92.68430631507978
 20
142.6344029161464
 30
0.0
 10
93.14590036194257
 20
142.5698772345071
 30
0.0
 10
93.66943831103772
 20
142.5052968575239
 30
0.0
 10
94.24163578549246
 20
142.4465414926391
 30
0.0
 10
94.84384215594443
 20
142.3931686362569
 30
0.0
 10
95.48506866272592
 20
142.3503060744247
 30
0.0
 10
96.14615398072208
 20
142.3222420284036
 30
0.0
 10
96.81286493516863
 20
142.3046533708639
 30
0.0
 10
97.48675415577557
 20
142.3032067226232
 30
0.0
 10
98.15110363972336
 20
142.318132261761
 30
0.0
 10
98.80263791388299
 20
142.3431389869846
 30
0.0
 10
99.433297126539
 20
142.3822430296665
 30
0.0
 10
100.0308361023615
 20
142.4323441874502
 30
0.0
 10
100.6048340703162
 20
142.4885153539334
 30
0.0
 10
101.1357837837095
 20
142.5514293826222
 30
0.0
 10
101.5791646649736
 20
142.6115328846758
 30
0.0
 10
101.9306853125473
 20
142.662422601661
 30
0.0
 10
102.2203528225241
 20
142.7075450781989
 30
0.0
 10
102.4040155869218
 20
142.7380080900863
 30
0.0
 10
102.4656381567074
 20
142.7482290463159
 30
0.0
  0
LINE
  5
CE
330
1F
100
AcDbEntity
  8
0
  6
HIDDEN
 62
     7
370
     0
100
AcDbLine
 10
82.2090568285
 20
84.8819068256
 30
0.0
 11
82.2090568285
 21
137.8819068256
 31
0.0
  0
LINE
  5
CF
330
1F
100
AcDbEntity
  8
0
  6
HIDDEN
 62
     7
370
     0
100
AcDbLine
 10
121.4965101199
 20
84.8819068256
 30
0.0
 11
121.4965101199
 21
137.8819068256
 31
0.0
  0
LINE
  5
D0
330
1F
100
AcDbEntity
  8
0
  6
HIDDEN
 62
     7
370
     0
100
AcDbLine
 10
124.6624325015
 20
86.5069068256
 30
0.0
 11
124.6624325015
 21
136.2569068105
 31
0.0
  0
SPLINE
  5
D1
330
1F
100
AcDbEntity
  8
0
  6
HIDDEN
 62
     7
370
     0
100
AcDbSpline
210
0.0
220
0.0
230
1.0
 70
     8
 71
     3
 72
    20
 73
    16
 74
     0
 42
0.00000001
 43
0.00000001
 40
0.0
 40
0.0
 40
0.0
 40
0.0
 40
0.2499999999999978
 40
0.2499999999999978
 40
0.3749999999999982
 40
0.3749999999999982
 40
0.4999999999999986
 40
0.4999999999999986
 40
0.6249999999999989
 40
0.6249999999999989
 40
0.7499999999999992
 40
0.7499999999999992
 40
0.8749999999999997
 40
0.8749999999999997
 40
1.0
 40
1.0
 40
1.0
 40
1.0
 10
72.41243250151635
 20
136.6104204559831
 30
0.0
 10
72.41243250151635
 20
136.5312174694508
 30
0.0
 10
72.36545000630362
 20
136.4501212510479
 30
0.0
 10
72.22762841552604
 20
136.329924559297
 30
0.0
 10
72.17134613161606
 20
136.2909978552949
 30
0.0
 10
72.03826128014884
 20
136.2158091228706
 30
0.0
 10
71.96042133791578
 20
136.1791669175286
 30
0.0
 10
71.78778898180144
 20
136.1115763846967
 30
0.0
 10
71.69339598471036
 20
136.0806182029211
 30
0.0
 10
71.48795867839522
 20
136.0250937815514
 30
0.0
 10
71.37561243840804
 20
136.0003852677182
 30
0.0
 10
71.1433715745084
 20
135.96058904061
 30
0.0
 10
71.02266093208567
 20
135.9451692032129
 30
0.0
 10
70.77159007281665
 20
135.9240892283733
 30
0.0
 10
70.64206807640086
 20
135.9186119833523
 30
0.0
 10
70.51243250151637
 20
135.9186119833523
 30
0.0
  0
LINE
  5
D2
330
1F
100
AcDbEntity
  8
0
  6
HIDDEN
 62
     7
370
     0
100
AcDbLine
 10
70.5124325015
 20
135.9186119834
 30
0.0
 11
63.9624325015
 21
135.9186119834
 31
0.0
  0
LINE
  5
D3
330
1F
100
AcDbEntity
  8
0
  6
HIDDEN
 62
     7
370
     0
100
AcDbLine
 10
63.9624325015
 20
86.8452016678
 30
0.0
 11
75.5124325015
 21
86.8452016678
 31
0.0
  0
SPLINE
  5
D4
330
1F
100
AcDbEntity
  8
0
  6
HIDDEN
 62
     7
370
     0
100
AcDbSpline
210
0.0
220
0.0
230
1.0
 70
     8
 71
     3
 72
    18
 73
    14
 74
     0
 42
0.00000001
 43
0.00000001
 40
0.0
 40
0.0
 40
0.0
 40
0.0
 40
0.1249999999999982
 40
0.1249999999999982
 40
0.2499999999999964
 40
0.2499999999999964
 40
0.4999999999999988
 40
0.4999999999999988
 40
0.7500000000000011
 40
0.7500000000000011
 40
0.8750000000000006
 40
0.8750000000000006
 40
1.0
 40
1.0
 40
1.0
 40
1.0
 10
75.51243250151634
 20
86.8452016677853
 30
0.0
 10
75.64189981447359
 20
86.8452016677853
 30
0.0
 10
75.76891056337021
 20
86.83984866919268
 30
0.0
 10
76.01827388456746
 20
86.81911069650388
 30
0.0
 10
76.1418975391959
 20
86.8034387922496
 30
0.0
 10
76.49092987612993
 20
86.74374406384752
 30
0.0
 10
76.70144164093674
 20
86.68597888416652
 30
0.0
 10
77.04535831863623
 20
86.55145704288903
 30
0.0
 10
77.18170872015406
 20
86.47378792938362
 30
0.0
 10
77.3187467767166
 20
86.35449679529627
 30
0.0
 10
77.3539657954295
 20
86.31357778616123
 30
0.0
 10
77.40058937236805
 20
86.23292179287121
 30
0.0
 10
77.41243250151638
 20
86.19295327267834
 30
0.0
 10
77.41243250151636
 20
86.15339319515452
 30
0.0
  0
LINE
  5
D5
330
1F
100
AcDbEntity
  8
0
  6
HIDDEN
 62
     7
370
     0
100
AcDbLine
 10
63.9624325015
 20
86.8452016678
 30
0.0
 11
63.9624325015
 21
135.9186119834
 31
0.0
  0
LWPOLYLINE
  5
D6
330
1F
100
AcDbEntity
  8
0
  6
HIDDEN
 62
     7
370
     0
100
AcDbPolyline
 90
       14
 70
   128
 43
0.0
 10
121.2124325015
 20
151.3256373889
 10
122.2519909556
 20
151.3700782465
 10
123.2461157169
 20
151.5014585406
 10
124.151358763
 20
151.7140363218
 10
124.9281566289
 20
151.9985209212
 10
125.5425595204
 20
152.3424789966
 10
125.967715083
 20
152.7308779295
 10
126.1850419784
 20
153.146742823
 10
126.1850419784
 20
153.5718983855
 10
125.967715083
 20
153.987763279
 10
125.5425595204
 20
154.3761622119
 10
124.9281566289
 20
154.7201202873
 10
124.151358763
 20
155.0046048867
 10
123.6584509699
 20
155.1330372049
  0
LWPOLYLINE
  5
D7
330
1F
100
AcDbEntity
  8
0
  6
HIDDEN
 62
     7
370
     0
100
AcDbPolyline
 90
       14
 70
   128
 43
0.0
 10
118.7539209952
 20
155.1301774549
 10
118.2735062401
 20
155.0046048867
 10
117.4967083741
 20
154.7201202873
 10
116.8823054826
 20
154.3761622119
 10
116.45714992
 20
153.987763279
 10
116.2398230247
 20
153.5718983855
 10
116.2398230247
 20
153.146742823
 10
116.45714992
 20
152.7308779295
 10
116.8823054826
 20
152.3424789966
 10
117.4967083741
 20
151.9985209212
 10
118.2735062401
 20
151.7140363218
 10
119.1787492861
 20
151.5014585406
 10
120.1728740474
 20
151.3700782465
 10
121.2124325015
 20
151.3256373889
  0
LINE
  5
D8
330
1F
100
AcDbEntity
  8
0
  6
HIDDEN
 62
     7
370
     0
100
AcDbLine
 10
63.9624325015
 20
84.0119068256
 30
0.0
 11
63.9624325015
 21
79.1336216237
 31
0.0
  0
LINE
  5
D9
330
1F
100
AcDbEntity
  8
0
  6
HIDDEN
 62
     7
370
     0
100
AcDbLine
 10
77.4124325015
 20
84.0119068256
 30
0.0
 11
77.4124325015
 21
77.5125735602
 31
0.0
  0
LINE
  5
DA
330
1F
100
AcDbEntity
  8
0
  6
HIDDEN
 62
     7
370
     0
100
AcDbLine
 10
72.4124325015
 20
138.7519068256
 30
0.0
 11
72.4124325015
 21
145.1265155626
 31
0.0
  0
LINE
  5
DB
330
1F
100
AcDbEntity
  8
0
  6
HIDDEN
 62
     7
370
     0
100
AcDbLine
 10
63.9624325015
 20
138.7519068256
 30
0.0
 11
63.9624325015
 21
143.6301920274
 31
0.0
  0
LINE
  5
DC
330
1F
100
AcDbEntity
  8
0
  6
HIDDEN
 62
     7
370
     0
100
AcDbLine
 10
136.5124325015
 20
98.3819068256
 30
0.0
 11
136.5124325015
 21
124.3819068256
 31
0.0
  0
LINE
  5
DD
330
1F
100
AcDbEntity
  8
0
  6
HIDDEN
 62
     7
370
     0
100
AcDbLine
 10
140.5124325015
 20
98.3819068256
 30
0.0
 11
140.5124325015
 21
124.3819068256
 31
0.0
  0
LINE
  5
DE
330
1F
100
AcDbEntity
  8
0
  6
HIDDEN
 62
     7
370
     0
100
AcDbLine
 10
125.4124325015
 20
100.1319068256
 30
0.0
 11
125.4124325015
 21
122.6319068256
 31
0.0
  0
ELLIPSE
  5
DF
330
1F
100
AcDbEntity
  8
0
  6
HIDDEN
 62
     7
370
     0
100
AcDbEllipse
 10
56.0277593012
 20
111.3819068256
 30
0.0
 11
31.08108570811661
 21
-1.421085471520200E-14
 31
0.0
210
0.0
220
0.0
230
1.0
 40
0.8164965809
 41
4.915995335118103
 42
4.970536038964788
  0
ELLIPSE
  5
E0
330
1F
100
AcDbEntity
  8
0
  6
HIDDEN
 62
     7
370
     0
100
AcDbEllipse
 10
56.0277593012
 20
111.3819068256
 30
0.0
 11
31.08108570811661
 21
1.421085471520200E-14
 31
0.0
210
0.0
220
0.0
230
1.0
 40
0.8164965809
 41
1.31264926821481
 42
1.367189972061495
  0
LINE
  5
E1
330
1F
100
AcDbEntity
  8
0
  6
HIDDEN
 62
     7
370
     0
100
AcDbLine
 10
141.1624325015
 20
67.4819068256
 30
0.0
 11
127.1624325015
 21
67.4819068256
 31
0.0
  0
LINE
  5
E2
330
1F
100
AcDbEntity
  8
0
  6
HIDDEN
 62
     7
370
     0
100
AcDbLine
 10
117.1624325015
 20
61.3919078258
 30
0.0
 11
117.1624325015
 21
67.4819068256
 31
0.0
  0
LINE
  5
E3
330
1F
100
AcDbEntity
  8
0
  6
HIDDEN
 62
     7
370
     0
100
AcDbLine
 10
127.1624325015
 20
67.4819068256
 30
0.0
 11
117.1624325015
 21
67.4819068256
 31
0.0
  0
LINE
  5
E4
330
1F
100
AcDbEntity
  8
0
  6
HIDDEN
 62
     7
370
     0
100
AcDbLine
 10
213.7124325015
 20
101.3819068256
 30
0.0
 11
213.7124325015
 21
121.3819068256
 31
0.0
  0
SPLINE
  5
E5
330
1F
100
AcDbEntity
  8
0
  6
HIDDEN
 62
     7
370
     0
100
AcDbSpline
210
0.0
220
0.0
230
1.0
 70
     8
 71
     3
 72
    23
 73
    19
 74
     0
 42
0.00000001
 43
0.00000001
 40
0.0
 40
0.0
 40
0.0
 40
0.0
 40
0.0523711147022147
 40
0.1051090178676
 40
0.1590014099607581
 40
0.2132913397102494
 40
0.265661816348173
 40
0.3721632116965783
 40
0.4264157408029578
 40
0.4791354114000914
 40
0.586349003413536
 40
0.640970322547607
 40
0.6939087030238115
 40
0.7472178304707024
 40
0.8017020366617527
 40
0.8565949775386864
 40
0.9091538294312322
 40
1.0
 40
1.0
 40
1.0
 40
1.0
 10
167.7124325015164
 20
121.5720981878544
 30
0.0
 10
167.7536063818391
 20
121.572242687269
 30
0.0
 10
167.8362425095429
 20
121.5725326981201
 30
0.0
 10
167.9603810880716
 20
121.5748810122799
 30
0.0
 10
168.084236831852
 20
121.5786239190148
 30
0.0
 10
168.2051193728618
 20
121.583773475244
 30
0.0
 10
168.3608684885834
 20
121.5922057592411
 30
0.0
 10
168.5083076596534
 20
121.6027178831685
 30
0.0
 10
168.6439358957798
 20
121.614427973084
 30
0.0
 10
168.7712559984558
 20
121.6266360260332
 30
0.0
 10
168.8845530373081
 20
121.6390741457769
 30
0.0
 10
168.9807069858261
 20
121.6506468044927
 30
0.0
 10
169.0437894868266
 20
121.6586483226303
 30
0.0
 10
169.0974779397045
 20
121.6657562398786
 30
0.0
 10
169.1419776180377
 20
121.6718583715292
 30
0.0
 10
169.1754856316286
 20
121.676577617209
 30
0.0
 10
169.2054643475056
 20
121.6808858226941
 30
0.0
 10
169.2080711141533
 20
121.6812702911233
 30
0.0
 10
169.2097224842618
 20
121.6815138494304
 30
0.0
  0
LINE
  5
E6
330
1F
100
AcDbEntity
  8
0
  6
HIDDEN
 62
     7
370
     0
100
AcDbLine
 10
167.7488680918
 20
121.5723187545
 30
0.0
 11
167.5212060446
 21
121.5740102935
 31
0.0
  0
SPLINE
  5
E7
330
1F
100
AcDbEntity
  8
0
  6
HIDDEN
 62
     7
370
     0
100
AcDbSpline
210
0.0
220
0.0
230
1.0
 70
     8
 71
     3
 72
    22
 73
    18
 74
     0
 42
0.00000001
 43
0.00000001
 40
0.0
 40
0.0
 40
0.0
 40
0.0
 40
0.0485087214454554
 40
0.154809550591631
 40
0.2089755252338154
 40
0.2612186933197972
 40
0.3674532577400174
 40
0.4215652858285643
 40
0.4742713221521623
 40
0.5814562394091434
 40
0.6360621773455255
 40
0.6890048364185337
 40
0.7423180915131289
 40
0.7968059662315914
 40
0.8517024667775706
 40
0.9253362786146828
 40
1.0
 40
1.0
 40
1.0
 40
1.0
 10
166.2127697671427
 20
121.6818577741322
 30
0.0
 10
166.2135191545906
 20
121.6817486980784
 30
0.0
 10
166.2159107314155
 20
121.6814005954205
 30
0.0
 10
166.2435581789268
 20
121.6773836593533
 30
0.0
 10
166.2905360013264
 20
121.6707967288768
 30
0.0
 10
166.3509444399471
 20
121.66256230529
 30
0.0
 10
166.4304591815164
 20
121.6522390985448
 30
0.0
 10
166.5276344839172
 20
121.6406485322641
 30
0.0
 10
166.6362771482107
 20
121.6285001376504
 30
0.0
 10
166.7609513450198
 20
121.6160347612004
 30
0.0
 10
166.898640106188
 20
121.6043577993805
 30
0.0
 10
167.0076150313602
 20
121.5962450390298
 30
0.0
 10
167.1214893830731
 20
121.5889982031122
 30
0.0
 10
167.2410719148922
 20
121.5827434876409
 30
0.0
 10
167.3795182335214
 20
121.5772033488533
 30
0.0
 10
167.5370940023163
 20
121.5729749687502
 30
0.0
 10
167.6537163587703
 20
121.5723917981709
 30
0.0
 10
167.7124325015164
 20
121.5720981878544
 30
0.0
  0
SPLINE
  5
E8
330
1F
100
AcDbEntity
  8
0
  6
HIDDEN
 62
     7
370
     0
100
AcDbSpline
210
0.0
220
0.0
230
1.0
 70
     8
 71
     3
 72
    38
 73
    34
 74
     0
 42
0.00000001
 43
0.00000001
 40
0.0
 40
0.0
 40
0.0
 40
0.0
 40
0.0261873832018916
 40
0.0525581206655296
 40
0.0795060236822411
 40
0.1066526939248032
 40
0.1328397688694962
 40
0.186094446661745
 40
0.2132229029645575
 40
0.2395807549508565
 40
0.2931833788071538
 40
0.3204917880775377
 40
0.3469618275107785
 40
0.3736172230965931
 40
0.4008601416201548
 40
0.4283074506339389
 40
0.4545878252981804
 40
0.5080548436653771
 40
0.5353073373711406
 40
0.5613917094794272
 40
0.6144422795758284
 40
0.6414696333443165
 40
0.6676572000269712
 40
0.720907183046066
 40
0.7480304682975418
 40
0.7744586356036451
 40
0.828210505025382
 40
0.8555995382670945
 40
0.8820327388660602
 40
0.9358113146557787
 40
0.9632244091500787
 40
0.9894212340207249
 40
1.0
 40
1.0
 40
1.0
 40
1.0
 10
169.2124325015164
 20
101.0819068255688
 30
0.0
 10
169.2114524163252
 20
101.0820497928573
 30
0.0
 10
169.209485383753
 20
101.0823367284376
 30
0.0
 10
169.1934506413753
 20
101.0846607987454
 30
0.0
 10
169.1675173788618
 20
101.0883672933546
 30
0.0
 10
169.1310467521891
 20
101.0934712499511
 30
0.0
 10
169.0695047553989
 20
101.1018383247432
 30
0.0
 10
168.9887100222461
 20
101.1122890512898
 30
0.0
 10
168.8903391391663
 20
101.123960858584
 30
0.0
 10
168.7806470976354
 20
101.1361490876454
 30
0.0
 10
168.6550899088727
 20
101.1486000859671
 30
0.0
 10
168.5166462082558
 20
101.1602158946886
 30
0.0
 10
168.4071819443411
 20
101.1682596319363
 30
0.0
 10
168.2928952882984
 20
101.1754197920525
 30
0.0
 10
168.1729773582371
 20
101.1815597335542
 30
0.0
 10
168.0501878984698
 20
101.186368416251
 30
0.0
 10
167.8844581654625
 20
101.1908533888164
 30
0.0
 10
167.7155933834666
 20
101.1923323857926
 30
0.0
 10
167.5479319982499
 20
101.1906427462252
 30
0.0
 10
167.3825112267616
 20
101.1869513910835
 30
0.0
 10
167.2211944389525
 20
101.1804063303524
 30
0.0
 10
167.0675586586531
 20
101.17153839639
 30
0.0
 10
166.9196993363793
 20
101.1613756781296
 30
0.0
 10
166.7820330602716
 20
101.1496769484929
 30
0.0
 10
166.657899078063
 20
101.1374255528878
 30
0.0
 10
166.5430950766125
 20
101.1251021527882
 30
0.0
 10
166.4439469572021
 20
101.1132208149408
 30
0.0
 10
166.3633868870579
 20
101.1028544583773
 30
0.0
 10
166.2957105009031
 20
101.0937865602775
 30
0.0
 10
166.2470208281759
 20
101.0869053601268
 30
0.0
 10
166.2218775017327
 20
101.0832816589764
 30
0.0
 10
166.2107469818958
 20
101.081662599038
 30
0.0
 10
166.2146600209011
 20
101.0822301327311
 30
0.0
 10
166.2157856350094
 20
101.0823933879226
 30
0.0
  0
LINE
  5
E9
330
1F
100
AcDbEntity
  8
0
  6
HIDDEN
 62
     7
370
     0
100
AcDbLine
 10
165.7124325015
 20
101.4819068256
 30
0.0
 11
165.7124325015
 21
121.2819066304
 31
0.0
  0
LINE
  5
EA
330
1F
100
AcDbEntity
  8
0
  6
HIDDEN
 62
     7
370
     0
100
AcDbLine
 10
176.2124325015
 20
101.3819068256
 30
0.0
 11
176.2124325015
 21
121.3819068256
 31
0.0
  0
LINE
  5
EB
330
1F
100
AcDbEntity
  8
0
  6
HIDDEN
 62
     7
370
     0
100
AcDbLine
 10
77.4124325015
 20
84.0119068256
 30
0.0
 11
77.4124325015
 21
86.1533931952
 31
0.0
  0
LINE
  5
EC
330
1F
100
AcDbEntity
  8
0
  6
HIDDEN
 62
     7
370
     0
100
AcDbLine
 10
63.9624325015
 20
84.0119068256
 30
0.0
 11
63.9624325015
 21
86.8452016678
 31
0.0
  0
LINE
  5
ED
330
1F
100
AcDbEntity
  8
0
  6
HIDDEN
 62
     7
370
     0
100
AcDbLine
 10
72.4124325015
 20
138.7519068256
 30
0.0
 11
72.4124325015
 21
136.610420456
 31
0.0
  0
LINE
  5
EE
330
1F
100
AcDbEntity
  8
0
  6
HIDDEN
 62
     7
370
     0
100
AcDbLine
 10
63.9624325015
 20
138.7519068256
 30
0.0
 11
63.9624325015
 21
135.9186119834
 31
0.0
  0
LINE
  5
EF
330
1F
100
AcDbEntity
  8
0
  6
HIDDEN
 62
     7
370
     0
100
AcDbLine
 10
127.1624325015
 20
155.2819068256
 30
0.0
 11
117.1624325015
 21
155.2819068256
 31
0.0
  0
LINE
  5
F0
330
1F
100
AcDbEntity
  8
0
  6
HIDDEN
 62
     7
370
     0
100
AcDbLine
 10
141.1624325015
 20
155.2819068256
 30
0.0
 11
127.1624325015
 21
155.2819068256
 31
0.0
  0
SPLINE
  5
F1
330
1F
100
AcDbEntity
  8
0
  6
HIDDEN
 62
     7
370
     0
100
AcDbSpline
210
0.0
220
0.0
230
1.0
 70
     8
 71
     3
 72
    30
 73
    26
 74
     0
 42
0.00000001
 43
0.00000001
 40
0.0
 40
0.0
 40
0.0
 40
0.0
 40
0.0531273976999647
 40
0.1125091081657073
 40
0.1779073671971941
 40
0.2129319663323018
 40
0.2494856312752685
 40
0.2912520922441119
 40
0.3260949540906766
 40
0.35401050437987
 40
0.3749960958334511
 40
0.4414547382762369
 40
0.5001732018188043
 40
0.5546887068844532
 40
0.6144337882456546
 40
0.6794600826331667
 40
0.7140175913057006
 40
0.7499150941305898
 40
0.7913802108534532
 40
0.8260476591604025
 40
0.8539136551820552
 40
0.8749753467756723
 40
0.9411627875602258
 40
0.999914155593161
 40
1.0
 40
1.0
 40
1.0
 40
1.0
 10
103.2119440020392
 20
74.28198789556295
 30
0.0
 10
103.1957506711254
 20
74.28688728539105
 30
0.0
 10
103.1614576829834
 20
74.29726283555871
 30
0.0
 10
102.8601597755952
 20
74.37291162782763
 30
0.0
 10
102.4179934923704
 20
74.46919732594748
 30
0.0
 10
101.9231604397643
 20
74.5688622470397
 30
0.0
 10
101.4526848373298
 20
74.66114037246435
 30
0.0
 10
100.9217633927917
 20
74.75677241143941
 30
0.0
 10
100.3836128951063
 20
74.84242265311676
 30
0.0
 10
99.92556556000079
 20
74.90971444639223
 30
0.0
 10
99.27000123907526
 20
74.99806261530247
 30
0.0
 10
98.38669480096924
 20
75.09472069958662
 30
0.0
 10
97.25803306828732
 20
75.18149587633933
 30
0.0
 10
96.16827131853422
 20
75.21957457405475
 30
0.0
 10
95.07224304010595
 20
75.22142500881753
 30
0.0
 10
94.16685179316158
 20
75.19526355323264
 30
0.0
 10
93.4705490827466
 20
75.15865632810369
 30
0.0
 10
92.94386935447153
 20
75.11963945262664
 30
0.0
 10
92.47722323943889
 20
75.07743032515468
 30
0.0
 10
92.1060079637151
 20
75.04042623558533
 30
0.0
 10
91.85196148647302
 20
75.01172547514095
 30
0.0
 10
91.55090633376369
 20
74.97534552455129
 30
0.0
 10
91.2954225389591
 20
74.94256535756247
 30
0.0
 10
91.1962018140155
 20
74.92622747285975
 30
0.0
 10
91.21248237129696
 20
74.92882105902896
 30
0.0
 10
91.21250612488292
 20
74.92882484311147
 30
0.0
  0
SPLINE
  5
F2
330
1F
100
AcDbEntity
  8
0
  6
HIDDEN
 62
     7
370
     0
100
AcDbSpline
210
0.0
220
0.0
230
1.0
 70
     8
 71
     3
 72
    30
 73
    26
 74
     0
 42
0.00000001
 43
0.00000001
 40
0.0
 40
0.0
 40
0.0
 40
0.0
 40
0.0001182168532508
 40
0.0285488358931681
 40
0.0588522217843041
 40
0.0910325491267632
 40
0.1250932431067519
 40
0.1546815920131677
 40
0.1963601884773894
 40
0.2501145655122722
 40
0.3205293884666234
 40
0.3856140479860317
 40
0.4454071267444567
 40
0.4999601138383218
 40
0.5283522162637767
 40
0.5586366261044615
 40
0.5908210060497138
 40
0.6249116802570969
 40
0.6541864939924573
 40
0.6958647988378927
 40
0.7499322018031864
 40
0.8215915791708873
 40
0.8871429555577991
 40
0.9466381891208328
 40
1.0
 40
1.0
 40
1.0
 40
1.0
 10
91.21253282641942
 20
147.8349174455868
 30
0.0
 10
91.21249929020439
 20
147.8349247581608
 30
0.0
 10
91.20440044581083
 20
147.8366907117248
 30
0.0
 10
91.23306029915156
 20
147.8312361479956
 30
0.0
 10
91.30644906523983
 20
147.8206929156485
 30
0.0
 10
91.45010504496396
 20
147.8010078210582
 30
0.0
 10
91.65114090255373
 20
147.7761685255932
 30
0.0
 10
91.93377141131869
 20
147.7419600685766
 30
0.0
 10
92.34718055211957
 20
147.6982801687633
 30
0.0
 10
93.0234680472042
 20
147.6352371024528
 30
0.0
 10
93.96189895033777
 20
147.5739399315754
 30
0.0
 10
95.071392163244
 20
147.5426514881931
 30
0.0
 10
96.16887289407246
 20
147.5443066557618
 30
0.0
 10
97.06890413249957
 20
147.5756128578651
 30
0.0
 10
97.78024505835452
 20
147.6224460066668
 30
0.0
 10
98.3456619593444
 20
147.6696128685629
 30
0.0
 10
98.93458538217298
 20
147.7290518751129
 30
0.0
 10
99.4989950346504
 20
147.7954090817209
 30
0.0
 10
100.0931912285866
 20
147.8773284881524
 30
0.0
 10
100.7597993895571
 20
147.9789764709028
 30
0.0
 10
101.5611321352573
 20
148.1211153815031
 30
0.0
 10
102.3136421197652
 20
148.2723599522695
 30
0.0
 10
102.8589286147314
 20
148.3902108255289
 30
0.0
 10
103.1616501462303
 20
148.4664400572782
 30
0.0
 10
103.1959405968433
 20
148.4768923667727
 30
0.0
 10
103.2121540334933
 20
148.4818344965728
 30
0.0
  0
LINE
  5
F3
330
1F
100
AcDbEntity
  8
0
  6
HIDDEN
 62
     7
370
     0
100
AcDbLine
 10
165.2124325015
 20
105.8819068256
 30
0.0
 11
165.2124325015
 21
116.8819068256
 31
0.0
  0
LINE
  5
F4
330
1F
100
AcDbEntity
  8
0
  6
HIDDEN
 62
     7
370
     0
100
AcDbLine
 10
154.1624325015
 20
131.3045565564
 30
0.0
 11
156.6624325015
 21
131.3045565564
 31
0.0
  0
LINE
  5
F5
330
1F
100
AcDbEntity
  8
0
  6
HIDDEN
 62
     7
370
     0
100
AcDbLine
 10
151.6624325015
 20
131.3045565564
 30
0.0
 11
154.1624325015
 21
131.3045565564
 31
0.0
  0
LINE
  5
F6
330
1F
100
AcDbEntity
  8
0
  6
HIDDEN
 62
     7
370
     0
100
AcDbLine
 10
156.6624325015
 20
91.4592570948
 30
0.0
 11
151.6624325015
 21
91.4592570948
 31
0.0
  0
LINE
  5
F7
330
1F
100
AcDbEntity
  8
0
  6
HIDDEN
 62
     7
370
     0
100
AcDbLine
 10
154.1624325015
 20
119.8819068256
 30
0.0
 11
156.6624325015
 21
119.8819068256
 31
0.0
  0
LINE
  5
F8
330
1F
100
AcDbEntity
  8
0
  6
HIDDEN
 62
     7
370
     0
100
AcDbLine
 10
151.6624325015
 20
119.8819068256
 30
0.0
 11
154.1624325015
 21
119.8819068256
 31
0.0
  0
LINE
  5
F9
330
1F
100
AcDbEntity
  8
0
  6
HIDDEN
 62
     7
370
     0
100
AcDbLine
 10
156.6624325015
 20
102.8819068256
 30
0.0
 11
151.6624325015
 21
102.8819068256
 31
0.0
  0
SPLINE
  5
FA
330
1F
100
AcDbEntity
  8
0
  6
HIDDEN
 62
     7
370
     0
100
AcDbSpline
210
0.0
220
0.0
230
1.0
 70
     8
 71
     3
 72
    32
 73
    28
 74
     0
 42
0.00000001
 43
0.00000001
 40
0.0
 40
0.0
 40
0.0
 40
0.0
 40
0.0412232890857644
 40
0.0838543097541977
 40
0.1250390915098225
 40
0.1672305305261361
 40
0.2244623650334326
 40
0.2833327403655629
 40
0.3125446618157982
 40
0.3419196247966524
 40
0.3718419357043802
 40
0.4019929537120307
 40
0.4347020995436484
 40
0.4680565083274115
 40
0.5008465143669152
 40
0.5349479455573539
 40
0.563161299229996
 40
0.5919759327967163
 40
0.6415058646019715
 40
0.692359652685875
 40
0.7450516208877555
 40
0.7988721552746353
 40
0.8464750663570342
 40
0.8953209806617354
 40
0.9429982769407904
 40
0.9925836338176232
 40
0.9999999999999999
 40
0.9999999999999999
 40
0.9999999999999999
 40
0.9999999999999999
 10
169.2124325015164
 20
125.0168675136832
 30
0.0
 10
169.210490839195
 20
125.0192722440556
 30
0.0
 10
169.2065412088442
 20
125.0241638237909
 30
0.0
 10
169.1754485728327
 20
125.0628850086057
 30
0.0
 10
169.1284302770026
 20
125.1221865739492
 30
0.0
 10
169.0602034738626
 20
125.2098917683406
 30
0.0
 10
168.9681677107222
 20
125.3321203966485
 30
0.0
 10
168.8744198172481
 20
125.4646260626318
 30
0.0
 10
168.7976093960274
 20
125.582430212566
 30
0.0
 10
168.7404488473137
 20
125.6765965228649
 30
0.0
 10
168.6850191932719
 20
125.7773428763897
 30
0.0
 10
168.6321743182238
 20
125.8879878072198
 30
0.0
 10
168.585626397509
 20
126.0097453700418
 30
0.0
 10
168.5517712360982
 20
126.1423164061352
 30
0.0
 10
168.5376375982783
 20
126.2822892731729
 30
0.0
 10
168.5471733553115
 20
126.4157338032052
 30
0.0
 10
168.5749956393634
 20
126.5390743925176
 30
0.0
 10
168.6230086241346
 20
126.6761838248988
 30
0.0
 10
168.6990550367668
 20
126.8295504017365
 30
0.0
 10
168.8004780433972
 20
126.9925391422846
 30
0.0
 10
168.9066020552703
 20
127.1418517565333
 30
0.0
 10
169.0048574040683
 20
127.2690819594796
 30
0.0
 10
169.0888248212725
 20
127.3726173128402
 30
0.0
 10
169.1541838224676
 20
127.4506946725714
 30
0.0
 10
169.1969931007943
 20
127.5008805295062
 30
0.0
 10
169.2148782572995
 20
127.5216397267051
 30
0.0
 10
169.2114378488496
 20
127.5176400368298
 30
0.0
 10
169.2109902250322
 20
127.517119646162
 30
0.0
  0
SPLINE
  5
FB
330
1F
100
AcDbEntity
  8
0
  6
HIDDEN
 62
     7
370
     0
100
AcDbSpline
210
0.0
220
0.0
230
1.0
 70
     8
 71
     3
 72
    10
 73
     6
 74
     0
 42
0.00000001
 43
0.00000001
 40
0.0
 40
0.0
 40
0.0
 40
0.0
 40
0.2650996170501985
 40
0.7083867387286354
 40
1.0
 40
1.0
 40
1.0
 40
1.0
 10
166.2162381499955
 20
127.499379023376
 30
0.0
 10
166.2159463180608
 20
127.4993178855342
 30
0.0
 10
166.215166498479
 20
127.4991545158664
 30
0.0
 10
166.2451804412198
 20
127.5068085777512
 30
0.0
 10
166.2821346032931
 20
127.5238914324053
 30
0.0
 10
166.2967982556326
 20
127.5306700204604
 30
0.0
  0
SPLINE
  5
FC
330
1F
100
AcDbEntity
  8
0
  6
HIDDEN
 62
     7
370
     0
100
AcDbSpline
210
0.0
220
0.0
230
1.0
 70
     8
 71
     3
 72
    28
 73
    24
 74
     0
 42
0.00000001
 43
0.00000001
 40
0.0
 40
0.0
 40
0.0
 40
0.0
 40
0.0040516751403596
 40
0.0528289067142852
 40
0.0973939936153866
 40
0.1430755154408735
 40
0.1914237618347223
 40
0.240763354579288
 40
0.2987015690795556
 40
0.3578141542404921
 40
0.4126723929339687
 40
0.4687521231130021
 40
0.5037742528219096
 40
0.5396296059489248
 40
0.5747195206117534
 40
0.6110583697213929
 40
0.6538306178872252
 40
0.697788575612623
 40
0.7667217770266738
 40
0.8375461066102546
 40
0.9086506602833572
 40
0.9822146771883551
 40
0.9999999999999999
 40
0.9999999999999999
 40
0.9999999999999999
 40
0.9999999999999999
 10
166.2132171683144
 20
125.135650397006
 30
0.0
 10
166.2129600603429
 20
125.1353513748461
 30
0.0
 10
166.2096076856893
 20
125.1314524902513
 30
0.0
 10
166.2223853734085
 20
125.146288419874
 30
0.0
 10
166.2513739132538
 20
125.1801655922125
 30
0.0
 10
166.2980767925176
 20
125.2354141631033
 30
0.0
 10
166.3598446446698
 20
125.3100053994784
 30
0.0
 10
166.4389884502145
 20
125.4086256573151
 30
0.0
 10
166.5330365330628
 20
125.5317663647193
 30
0.0
 10
166.6347949975256
 20
125.6767763009362
 30
0.0
 10
166.7328260697265
 20
125.8368905035507
 30
0.0
 10
166.8072219277169
 20
125.989600590656
 30
0.0
 10
166.8557307616588
 20
126.1337096427244
 30
0.0
 10
166.8807824766392
 20
126.2606117603456
 30
0.0
 10
166.8861073434134
 20
126.3926223589239
 30
0.0
 10
166.8694690432828
 20
126.5318458428887
 30
0.0
 10
166.8293944515569
 20
126.6753169107924
 30
0.0
 10
166.7585615134422
 20
126.8445622239004
 30
0.0
 10
166.6575392263092
 20
127.0264291099924
 30
0.0
 10
166.5354502040965
 20
127.2117727021355
 30
0.0
 10
166.4166337776891
 20
127.3756661880047
 30
0.0
 10
166.3387522279951
 20
127.4771016331963
 30
0.0
 10
166.3036353587528
 20
127.5219401537258
 30
0.0
 10
166.2967982556326
 20
127.5306700204604
 30
0.0
  0
LINE
  5
FD
330
1F
100
AcDbEntity
  8
0
  6
HIDDEN
 62
     7
370
     0
100
AcDbLine
 10
169.2124325015
 20
127.8819068256
 30
0.0
 11
166.2124325015
 21
127.8819068256
 31
0.0
  0
LWPOLYLINE
  5
FE
330
1F
100
AcDbEntity
  8
0
  6
HIDDEN
 62
     7
370
     0
100
AcDbPolyline
 90
       27
 70
   128
 43
0.0
 10
169.210990225
 20
95.246694005
 10
169.2059741801
 20
95.2525268505
 10
169.180015437
 20
95.2828651179
 10
169.1390625734
 20
95.3312668303
 10
169.0833109768
 20
95.3983666825
 10
168.9909241594
 20
95.5133674784
 10
168.882873518
 20
95.6563013708
 10
168.7713590579
 20
95.8194894026
 10
168.6631203905
 20
96.0089516539
 10
168.6083894997
 20
96.132518237
 10
168.5660970329
 20
96.2673463565
 10
168.5460197144
 20
96.3838970666
 10
168.5423951497
 20
96.5062627189
 10
168.5557621899
 20
96.6242639973
 10
168.5843681137
 20
96.7412754344
 10
168.6509349398
 20
96.9139035782
 10
168.7350825837
 20
97.0762810842
 10
168.7970545399
 20
97.1794183273
 10
168.860415758
 20
97.2767191363
 10
168.9243208575
 20
97.3691838231
 10
168.9862146211
 20
97.4548044157
 10
169.068225524
 20
97.5638385019
 10
169.1378322727
 20
97.6533694158
 10
169.1793849629
 20
97.7057613679
 10
169.2053428299
 20
97.7381444996
 10
169.2124325015
 20
97.7469461375
 10
169.2124325015
 20
97.7469461375
  0
LINE
  5
FF
330
1F
100
AcDbEntity
  8
0
  6
HIDDEN
 62
     7
370
     0
100
AcDbLine
 10
167.7124325015
 20
94.8819068256
 30
0.0
 11
169.2124325015
 21
94.8819068256
 31
0.0
  0
LINE
  5
100
330
1F
100
AcDbEntity
  8
0
  6
HIDDEN
 62
     7
370
     0
100
AcDbLine
 10
166.2124325015
 20
94.8819068256
 30
0.0
 11
167.7124325015
 21
94.8819068256
 31
0.0
  0
SPLINE
  5
101
330
1F
100
AcDbEntity
  8
0
  6
HIDDEN
 62
     7
370
     0
100
AcDbSpline
210
0.0
220
0.0
230
1.0
 70
     8
 71
     3
 72
    10
 73
     6
 74
     0
 42
0.00000001
 43
0.00000001
 40
0.0
 40
0.0
 40
0.0
 40
0.0
 40
0.4107552831583903
 40
0.8323754367546857
 40
1.0
 40
1.0
 40
1.0
 40
1.0
 10
166.2967982556326
 20
95.23314363067726
 30
0.0
 10
166.2769632276153
 20
95.24200388164203
 30
0.0
 10
166.2367685161024
 20
95.2599587456911
 30
0.0
 10
166.211945458298
 20
95.26550373738138
 30
0.0
 10
166.2152874434602
 20
95.2646714044915
 30
0.0
 10
166.2162381499955
 20
95.26443462776163
 30
0.0
  0
SPLINE
  5
102
330
1F
100
AcDbEntity
  8
0
  6
HIDDEN
 62
     7
370
     0
100
AcDbSpline
210
0.0
220
0.0
230
1.0
 70
     8
 71
     3
 72
    26
 73
    22
 74
     0
 42
0.00000001
 43
0.00000001
 40
0.0
 40
0.0
 40
0.0
 40
0.0
 40
0.0627854322058579
 40
0.1276813655174016
 40
0.1903431293029567
 40
0.2543040421310214
 40
0.3033366128921969
 40
0.3532972594214738
 40
0.3878878685856871
 40
0.4233444393630096
 40
0.4579950236790683
 40
0.4938278954902379
 40
0.5379763449028555
 40
0.5833378465362667
 40
0.6512048717996871
 40
0.7209804355026195
 40
0.7898055116762003
 40
0.8611604406777844
 40
0.9083466339170017
 40
0.9568254377037596
 40
1.0
 40
1.0
 40
1.0
 40
1.0
 10
166.2967982556326
 20
95.23314363067729
 30
0.0
 10
166.3225678275641
 20
95.26618498642327
 30
0.0
 10
166.374973202783
 20
95.33337836667044
 30
0.0
 10
166.4760499031686
 20
95.46900582962884
 30
0.0
 10
166.5846206178543
 20
95.62472733822854
 30
0.0
 10
166.6856416527395
 20
95.78592797362559
 30
0.0
 10
166.7723532719389
 20
95.95009725316275
 30
0.0
 10
166.8321910269374
 20
96.09645629525076
 30
0.0
 10
166.8695577665389
 20
96.23671500711494
 30
0.0
 10
166.8856536707929
 20
96.36415818110099
 30
0.0
 10
166.881742228464
 20
96.4945527253937
 30
0.0
 10
166.8560361267775
 20
96.63221236886591
 30
0.0
 10
166.8068345889196
 20
96.77418624646754
 30
0.0
 10
166.7269268501463
 20
96.93825869168094
 30
0.0
 10
166.6203974176496
 20
97.10987919680048
 30
0.0
 10
166.4983979884136
 20
97.27904488261706
 30
0.0
 10
166.3840433663972
 20
97.42461377237376
 30
0.0
 10
166.2997641780439
 20
97.52646820911158
 30
0.0
 10
166.2463538330922
 20
97.58955575208617
 30
0.0
 10
166.2173175981168
 20
97.62340829650255
 30
0.0
 10
166.2145302068226
 20
97.62664062290206
 30
0.0
 10
166.2132171683144
 20
97.62816325413168
 30
0.0
  0
LINE
  5
103
330
1F
100
AcDbEntity
  8
0
  6
HIDDEN
 62
     7
370
     0
100
AcDbLine
 10
166.2026768835
 20
97.6286925172
 30
0.0
 11
166.2967982556
 21
95.2331436307
 31
0.0
  0
LINE
  5
104
330
1F
100
AcDbEntity
  8
0
  6
HIDDEN
 62
     7
370
     0
100
AcDbLine
 10
166.2026768835
 20
125.135121134
 30
0.0
 11
166.2967982556
 21
127.5306700205
 31
0.0
  0
LWPOLYLINE
  5
105
330
1F
100
AcDbEntity
  8
0
  6
HIDDEN
 62
     7
370
     0
100
AcDbPolyline
 90
       31
 70
   128
 43
0.0
 10
121.2124325015
 20
156.6946126773
 10
122.2519909556
 20
156.6608488636
 10
123.2461157169
 20
156.5610330632
 10
124.151358763
 20
156.3995277055
 10
124.9281566289
 20
156.1833913496
 10
125.5425595204
 20
155.9220701914
 10
125.967715083
 20
155.6269852195
 10
126.1850419784
 20
155.3110330632
 10
126.1850419784
 20
154.9880223477
 10
125.967715083
 20
154.6720701914
 10
125.5425595204
 20
154.3769852195
 10
124.9281566289
 20
154.1156640614
 10
124.151358763
 20
153.8995277055
 10
123.2461157169
 20
153.7380223477
 10
122.2519909556
 20
153.6382065473
 10
121.2124325015
 20
153.6044427336
 10
120.1728740474
 20
153.6382065473
 10
119.1787492861
 20
153.7380223477
 10
118.2735062401
 20
153.8995277055
 10
117.4967083741
 20
154.1156640614
 10
116.8823054826
 20
154.3769852195
 10
116.45714992
 20
154.6720701914
 10
116.2398230247
 20
154.9880223477
 10
116.2398230247
 20
155.3110330632
 10
116.45714992
 20
155.6269852195
 10
116.8823054826
 20
155.9220701914
 10
117.4967083741
 20
156.1833913496
 10
118.2735062401
 20
156.3995277055
 10
119.1787492861
 20
156.5610330632
 10
120.1728740474
 20
156.6608488636
 10
121.2124325015
 20
156.6946126773
  0
LINE
  5
106
330
1F
100
AcDbEntity
  8
0
  6
HIDDEN
 62
     7
370
     0
100
AcDbLine
 10
135.4744615224
 20
150.3328695865
 30
0.0
 11
135.4744615224
 21
142.7319068256
 31
0.0
  0
LINE
  5
107
330
1F
100
AcDbEntity
  8
0
  6
HIDDEN
 62
     7
370
     0
100
AcDbLine
 10
134.1224325015
 20
146.0961420181
 30
0.0
 11
134.1224325015
 21
142.7319068256
 31
0.0
  0
LINE
  5
108
330
1F
100
AcDbEntity
  8
0
  6
HIDDEN
 62
     7
370
     0
100
AcDbLine
 10
130.3024325015
 20
146.0961420181
 30
0.0
 11
130.3024325015
 21
142.7319068256
 31
0.0
  0
CIRCLE
  5
109
330
1F
100
AcDbEntity
  8
0
  6
HIDDEN
 62
     7
370
     0
100
AcDbCircle
 10
119.2124325015
 20
111.3819068256
 30
0.0
 40
5.0
  0
LINE
  5
10A
330
1F
100
AcDbEntity
  8
0
  6
HIDDEN
 62
     7
370
     0
100
AcDbLine
 10
211.746117664
 20
98.1671347307
 30
0.0
 11
211.8050073877
 21
96.6682911763
 31
0.0
  0
LINE
  5
10B
330
1F
100
AcDbEntity
  8
0
  6
HIDDEN
 62
     7
370
     0
100
AcDbLine
 10
211.6872279404
 20
99.665978285
 30
0.0
 11
211.746117664
 21
98.1671347307
 31
0.0
  0
LINE
  5
10C
330
1F
100
AcDbEntity
  8
0
  6
HIDDEN
 62
     7
370
     0
100
AcDbLine
 10
211.2465031459
 20
98.1475048228
 30
0.0
 11
211.2857629617
 21
97.1482757865
 31
0.0
  0
LINE
  5
10D
330
1F
100
AcDbEntity
  8
0
  6
HIDDEN
 62
     7
370
     0
100
AcDbLine
 10
211.2072433301
 20
99.146733859
 30
0.0
 11
211.2465031459
 21
98.1475048228
 31
0.0
  0
LINE
  5
10E
330
1F
100
AcDbEntity
  8
0
  6
HIDDEN
 62
     7
370
     0
100
AcDbLine
 10
217.0800554679
 20
98.3767057178
 30
0.0
 11
217.1389451915
 21
96.8778621634
 31
0.0
  0
LINE
  5
10F
330
1F
100
AcDbEntity
  8
0
  6
HIDDEN
 62
     7
370
     0
100
AcDbLine
 10
217.0211657443
 20
99.8755492721
 30
0.0
 11
217.0800554679
 21
98.3767057178
 31
0.0
  0
LINE
  5
110
330
1F
100
AcDbEntity
  8
0
  6
HIDDEN
 62
     7
370
     0
100
AcDbLine
 10
217.194000018
 20
99.601623527
 30
0.0
 11
217.2124325015
 21
99.1324854945
 31
0.0
  0
LINE
  5
111
330
1F
100
AcDbEntity
  8
0
  6
HIDDEN
 62
     7
370
     0
100
AcDbLine
 10
215.2434192909
 20
98.3045440858
 30
0.0
 11
217.2418773633
 21
98.3830637173
 31
0.0
  0
LINE
  5
112
330
1F
100
AcDbEntity
  8
0
  6
HIDDEN
 62
     7
370
     0
100
AcDbLine
 10
215.2728641527
 20
97.5551223086
 30
0.0
 11
215.2434192909
 21
98.3045440858
 31
0.0
  0
LINE
  5
113
330
1F
100
AcDbEntity
  8
0
  6
HIDDEN
 62
     7
370
     0
100
AcDbLine
 10
215.213974429
 20
99.053965863
 30
0.0
 11
215.2434192909
 21
98.3045440858
 31
0.0
  0
LINE
  5
114
330
1F
100
AcDbEntity
  8
0
  6
HIDDEN
 62
     7
370
     0
100
AcDbLine
 10
215.213974429
 20
99.053965863
 30
0.0
 11
217.2124325015
 21
99.1324854945
 31
0.0
  0
LINE
  5
115
330
1F
100
AcDbEntity
  8
0
  6
HIDDEN
 62
     7
370
     0
100
AcDbLine
 10
215.2728641527
 20
97.5551223086
 30
0.0
 11
217.2713222252
 21
97.6336419402
 31
0.0
  0
LINE
  5
116
330
1F
100
AcDbEntity
  8
0
  6
HIDDEN
 62
     7
370
     0
100
AcDbLine
 10
217.0800554679
 20
125.8882652713
 30
0.0
 11
216.9622760206
 21
122.8905781626
 31
0.0
  0
LINE
  5
117
330
1F
100
AcDbEntity
  8
0
  6
HIDDEN
 62
     7
370
     0
100
AcDbLine
 10
211.746117664
 20
126.0978362584
 30
0.0
 11
211.6283382167
 21
123.1001491497
 31
0.0
  0
LINE
  5
118
330
1F
100
AcDbEntity
  8
0
  6
HIDDEN
 62
     7
370
     0
100
AcDbLine
 10
217.2124325015
 20
125.1324854945
 30
0.0
 11
217.1351102944
 21
123.1645039076
 31
0.0
  0
LINE
  5
119
330
1F
100
AcDbEntity
  8
0
  6
HIDDEN
 62
     7
370
     0
100
AcDbLine
 10
211.226873238
 20
125.6178516481
 30
0.0
 11
211.1483536065
 21
123.6193935757
 31
0.0
  0
LINE
  5
11A
330
1F
100
AcDbEntity
  8
0
  6
HIDDEN
 62
     7
370
     0
100
AcDbLine
 10
215.213974429
 20
125.211005126
 30
0.0
 11
215.1845295672
 21
124.4615833489
 31
0.0
  0
LINE
  5
11B
330
1F
100
AcDbEntity
  8
0
  6
HIDDEN
 62
     7
370
     0
100
AcDbLine
 10
215.1550847054
 20
123.7121615717
 30
0.0
 11
215.1845295672
 21
124.4615833489
 31
0.0
  0
LINE
  5
11C
330
1F
100
AcDbEntity
  8
0
  6
HIDDEN
 62
     7
370
     0
100
AcDbLine
 10
215.1845295672
 20
124.4615833489
 30
0.0
 11
217.1829876397
 21
124.3830637173
 31
0.0
  0
LINE
  5
11D
330
1F
100
AcDbEntity
  8
0
  6
HIDDEN
 62
     7
370
     0
100
AcDbLine
 10
215.213974429
 20
125.211005126
 30
0.0
 11
217.2124325015
 21
125.1324854945
 31
0.0
  0
LINE
  5
11E
330
1F
100
AcDbEntity
  8
0
  6
HIDDEN
 62
     7
370
     0
100
AcDbLine
 10
215.1550847054
 20
123.7121615717
 30
0.0
 11
217.1535427779
 21
123.6336419402
 31
0.0
  0
LINE
  5
11F
330
1F
100
AcDbEntity
  8
0
  6
HIDDEN
 62
     7
370
     0
100
AcDbLine
 10
171.2124325015
 20
105.3819068256
 30
0.0
 11
171.2124325015
 21
117.3819068256
 31
0.0
  0
LINE
  5
120
330
1F
100
AcDbEntity
  8
0
  6
HIDDEN
 62
     7
370
     0
100
AcDbLine
 10
156.2124325015
 20
105.3819068256
 30
0.0
 11
156.2124325015
 21
117.3819068256
 31
0.0
  0
LINE
  5
121
330
1F
100
AcDbEntity
  8
0
  6
HIDDEN
 62
     7
370
     0
100
AcDbLine
 10
171.7124325015
 20
105.8819068256
 30
0.0
 11
171.7124325015
 21
116.8819068256
 31
0.0
  0
LINE
  5
122
330
1F
100
AcDbEntity
  8
0
  6
HIDDEN
 62
     7
370
     0
100
AcDbLine
 10
155.7124325015
 20
105.8819068256
 30
0.0
 11
155.7124325015
 21
116.8819068256
 31
0.0
  0
LINE
  5
123
330
1F
100
AcDbEntity
  8
0
  6
HIDDEN
 62
     7
370
     0
100
AcDbLine
 10
175.7124325015
 20
109.8819068256
 30
0.0
 11
173.7124325015
 21
109.8819068256
 31
0.0
  0
LINE
  5
124
330
1F
100
AcDbEntity
  8
0
  6
HIDDEN
 62
     7
370
     0
100
AcDbLine
 10
175.7124325015
 20
105.8819068256
 30
0.0
 11
175.7124325015
 21
109.8819068256
 31
0.0
  0
LINE
  5
125
330
1F
100
AcDbEntity
  8
0
  6
HIDDEN
 62
     7
370
     0
100
AcDbLine
 10
175.7124325015
 20
112.8819068256
 30
0.0
 11
175.7124325015
 21
116.8819068256
 31
0.0
  0
LINE
  5
126
330
1F
100
AcDbEntity
  8
0
  6
HIDDEN
 62
     7
370
     0
100
AcDbLine
 10
173.7124325015
 20
112.8819068256
 30
0.0
 11
175.7124325015
 21
112.8819068256
 31
0.0
  0
LINE
  5
127
330
1F
100
AcDbEntity
  8
0
  6
HIDDEN
 62
     7
370
     0
100
AcDbLine
 10
173.7124325015
 20
109.8819068256
 30
0.0
 11
173.7124325015
 21
112.8819068256
 31
0.0
  0
LINE
  5
128
330
1F
100
AcDbEntity
  8
0
  6
HIDDEN
 62
     7
370
     0
100
AcDbLine
 10
162.7124325014
 20
111.3819068256
 30
0.0
 11
155.7124325015
 21
111.3819068256
 31
0.0
  0
LINE
  5
129
330
1F
100
AcDbEntity
  8
0
  6
HIDDEN
 62
     7
370
     0
100
AcDbLine
 10
168.7124325015
 20
111.3819068256
 30
0.0
 11
173.7124325015
 21
111.3819068256
 31
0.0
  0
LINE
  5
12A
330
1F
100
AcDbEntity
  8
0
  6
HIDDEN
 62
     7
370
     0
100
AcDbLine
 10
162.7124325014
 20
109.8819068256
 30
0.0
 11
162.7124325014
 21
111.3819068256
 31
0.0
  0
LINE
  5
12B
330
1F
100
AcDbEntity
  8
0
  6
HIDDEN
 62
     7
370
     0
100
AcDbLine
 10
162.7124325014
 20
111.3819068256
 30
0.0
 11
162.7124325014
 21
112.8819068256
 31
0.0
  0
LINE
  5
12C
330
1F
100
AcDbEntity
  8
0
  6
HIDDEN
 62
     7
370
     0
100
AcDbLine
 10
168.7124325015
 20
111.3819068256
 30
0.0
 11
168.7124325015
 21
109.8819068256
 31
0.0
  0
LINE
  5
12D
330
1F
100
AcDbEntity
  8
0
  6
HIDDEN
 62
     7
370
     0
100
AcDbLine
 10
168.7124325015
 20
112.8819068256
 30
0.0
 11
168.7124325015
 21
111.3819068256
 31
0.0
  0
LINE
  5
12E
330
1F
100
AcDbEntity
  8
0
  6
HIDDEN
 62
     7
370
     0
100
AcDbLine
 10
162.7124325014
 20
112.8819068256
 30
0.0
 11
162.7124325014
 21
114.3819068256
 31
0.0
  0
LINE
  5
12F
330
1F
100
AcDbEntity
  8
0
  6
HIDDEN
 62
     7
370
     0
100
AcDbLine
 10
162.7124325014
 20
108.3819068256
 30
0.0
 11
162.7124325014
 21
109.8819068256
 31
0.0
  0
LINE
  5
130
330
1F
100
AcDbEntity
  8
0
  6
HIDDEN
 62
     7
370
     0
100
AcDbLine
 10
168.7124325015
 20
114.3819068256
 30
0.0
 11
168.7124325015
 21
112.8819068256
 31
0.0
  0
LINE
  5
131
330
1F
100
AcDbEntity
  8
0
  6
HIDDEN
 62
     7
370
     0
100
AcDbLine
 10
168.7124325015
 20
109.8819068256
 30
0.0
 11
168.7124325015
 21
108.3819068256
 31
0.0
  0
LINE
  5
132
330
1F
100
AcDbEntity
  8
0
  6
HIDDEN
 62
     7
370
     0
100
AcDbLine
 10
162.7124325014
 20
114.3819068256
 30
0.0
 11
155.7124325014
 21
114.3819068256
 31
0.0
  0
LINE
  5
133
330
1F
100
AcDbEntity
  8
0
  6
HIDDEN
 62
     7
370
     0
100
AcDbLine
 10
162.7124325014
 20
108.3819068256
 30
0.0
 11
155.7124325014
 21
108.3819068256
 31
0.0
  0
LINE
  5
134
330
1F
100
AcDbEntity
  8
0
  6
HIDDEN
 62
     7
370
     0
100
AcDbLine
 10
168.7124325015
 20
108.3819068256
 30
0.0
 11
175.7124325015
 21
108.3819068256
 31
0.0
  0
LINE
  5
135
330
1F
100
AcDbEntity
  8
0
  6
HIDDEN
 62
     7
370
     0
100
AcDbLine
 10
168.7124325015
 20
114.3819068256
 30
0.0
 11
175.7124325015
 21
114.3819068256
 31
0.0
  0
LINE
  5
136
330
1F
100
AcDbEntity
  8
0
  6
HIDDEN
 62
     7
370
     0
100
AcDbLine
 10
112.2124325015
 20
71.977223869
 30
0.0
 11
112.3020341254
 21
72.6147725509
 31
0.0
  0
LINE
  5
137
330
1F
100
AcDbEntity
  8
0
  6
HIDDEN
 62
     7
370
     0
100
AcDbLine
 10
112.3020341254
 20
150.1490411002
 30
0.0
 11
112.2124325015
 21
150.7865897822
 31
0.0
  0
ARC
  5
138
330
1F
100
AcDbEntity
  8
0
  6
HIDDEN
 62
     7
370
     0
100
AcDbCircle
 10
111.3154955831
 20
72.7534215011
 30
0.0
 40
0.9962338214386983
100
AcDbArc
 50
352.0
 51
0.0
  0
ARC
  5
139
330
1F
100
AcDbEntity
  8
0
  6
HIDDEN
 62
     7
370
     0
100
AcDbCircle
 10
111.3154955831
 20
72.7534215011
 30
0.0
 40
0.9962338214386932
100
AcDbArc
 50
0.0
 51
25.7988228126
  0
ARC
  5
13A
330
1F
100
AcDbEntity
  8
0
  6
HIDDEN
 62
     7
370
     0
100
AcDbCircle
 10
111.3154955831
 20
150.01039215
 30
0.0
 40
0.9962338214386963
100
AcDbArc
 50
348.75
 51
8.0
  0
LWPOLYLINE
  5
13B
330
1F
100
AcDbEntity
  8
0
  6
HIDDEN
 62
     7
370
     0
100
AcDbPolyline
 90
        3
 70
   128
 43
0.0
 10
112.292587051
 20
149.816036573
 10
112.2358956203
 20
149.6291499718
 10
112.2124325015
 20
149.5768186369
  0
LINE
  5
13C
330
1F
100
AcDbEntity
  8
0
  6
HIDDEN
 62
     7
370
     0
100
AcDbLine
 10
112.3117294045
 20
72.7534215011
 30
0.0
 11
112.3117294045
 21
150.01039215
 31
0.0
  0
ARC
  5
13D
330
1F
100
AcDbEntity
  8
0
  6
HIDDEN
 62
     7
370
     0
100
AcDbCircle
 10
102.4656381567
 20
91.8819068256
 30
0.0
 40
12.00000000000001
100
AcDbArc
 50
273.4633399022
 51
324.3146652873
  0
ARC
  5
13E
330
1F
100
AcDbEntity
  8
0
  6
HIDDEN
 62
     7
370
     0
100
AcDbCircle
 10
102.4656381567
 20
130.8819068256
 30
0.0
 40
12.00000000000001
100
AcDbArc
 50
35.6853347127
 51
86.5367437801
  0
ARC
  5
13F
330
1F
100
AcDbEntity
  8
0
  6
HIDDEN
 62
     7
370
     0
100
AcDbCircle
 10
85.6731584437
 20
80.8819068256
 30
0.0
 40
1.000000000000008
100
AcDbArc
 50
210.0
 51
270.0
  0
ARC
  5
140
330
1F
100
AcDbEntity
  8
0
  6
HIDDEN
 62
     7
370
     0
100
AcDbCircle
 10
85.6731584437
 20
141.8819068256
 30
0.0
 40
1.0
100
AcDbArc
 50
90.0
 51
150.0
  0
LINE
  5
141
330
1F
100
AcDbEntity
  8
0
  6
HIDDEN
 62
     7
370
     0
100
AcDbLine
 10
85.6731584437
 20
79.8819068256
 30
0.0
 11
91.2176028755
 21
79.8819068256
 31
0.0
  0
LINE
  5
142
330
1F
100
AcDbEntity
  8
0
  6
HIDDEN
 62
     7
370
     0
100
AcDbLine
 10
91.2176028755
 20
142.8819068256
 30
0.0
 11
85.6731584437
 21
142.8819068256
 31
0.0
  0
LINE
  5
143
330
1F
100
AcDbEntity
  8
0
  6
HIDDEN
 62
     7
370
     0
100
AcDbLine
 10
84.8071330399
 20
142.3819068256
 30
0.0
 11
82.2090568285
 21
137.8819068256
 31
0.0
  0
LINE
  5
144
330
1F
100
AcDbEntity
  8
0
  6
HIDDEN
 62
     7
370
     0
100
AcDbLine
 10
82.2090568285
 20
84.8819068256
 30
0.0
 11
84.8071330399
 21
80.3819068256
 31
0.0
  0
ARC
  5
145
330
1F
100
AcDbEntity
  8
0
  6
HIDDEN
 62
     7
370
     0
100
AcDbCircle
 10
122.6624325015
 20
86.5069068256
 30
0.0
 40
2.000000000000023
100
AcDbArc
 50
234.3409123039
 51
0.0
  0
ARC
  5
146
330
1F
100
AcDbEntity
  8
0
  6
HIDDEN
 62
     7
370
     0
100
AcDbCircle
 10
122.6624325015
 20
136.2569068256
 30
0.0
 40
2.000000000000035
100
AcDbArc
 50
0.0
 51
125.6590876961
  0
LINE
  5
147
330
1F
100
AcDbEntity
  8
0
  6
HIDDEN
 62
     7
370
     0
100
AcDbLine
 10
112.2124325015
 20
84.8819068256
 30
0.0
 11
121.4965101199
 21
84.8819068256
 31
0.0
  0
LINE
  5
148
330
1F
100
AcDbEntity
  8
0
  6
HIDDEN
 62
     7
370
     0
100
AcDbLine
 10
121.4965101199
 20
137.8819068256
 30
0.0
 11
112.2124325015
 21
137.8819068256
 31
0.0
  0
LINE
  5
149
330
1F
100
AcDbEntity
  8
0
  6
HIDDEN
 62
     7
370
     0
100
AcDbLine
 10
77.4124325015
 20
84.8819068256
 30
0.0
 11
82.2090568285
 21
84.8819068256
 31
0.0
  0
LINE
  5
14A
330
1F
100
AcDbEntity
  8
0
  6
HIDDEN
 62
     7
370
     0
100
AcDbLine
 10
82.2090568285
 20
137.8819068256
 30
0.0
 11
72.4124325015
 21
137.8819068256
 31
0.0
  0
LINE
  5
14B
330
1F
100
AcDbEntity
  8
0
  6
HIDDEN
 62
     7
370
     0
100
AcDbLine
 10
116.2124325015
 20
157.0590697077
 30
0.0
 11
116.2124325015
 21
153.3593206042
 31
0.0
  0
LINE
  5
14C
330
1F
100
AcDbEntity
  8
0
  6
HIDDEN
 62
     7
370
     0
100
AcDbLine
 10
126.2124325015
 20
153.3593206042
 30
0.0
 11
126.2124325015
 21
157.0576977584
 31
0.0
  0
LINE
  5
14D
330
1F
100
AcDbEntity
  8
0
  6
HIDDEN
 62
     7
370
     0
100
AcDbLine
 10
136.5124325015
 20
98.3819068256
 30
0.0
 11
140.5124325015
 21
98.3819068256
 31
0.0
  0
LINE
  5
14E
330
1F
100
AcDbEntity
  8
0
  6
HIDDEN
 62
     7
370
     0
100
AcDbLine
 10
140.5124325015
 20
124.3819068256
 30
0.0
 11
136.5124325015
 21
124.3819068256
 31
0.0
  0
LINE
  5
14F
330
1F
100
AcDbEntity
  8
0
  6
HIDDEN
 62
     7
370
     0
100
AcDbLine
 10
124.6624325015
 20
99.3819068256
 30
0.0
 11
125.4124325015
 21
100.1319068256
 31
0.0
  0
LINE
  5
150
330
1F
100
AcDbEntity
  8
0
  6
HIDDEN
 62
     7
370
     0
100
AcDbLine
 10
125.4124325015
 20
122.6319068256
 30
0.0
 11
124.6624325015
 21
123.3819068256
 31
0.0
  0
LINE
  5
151
330
1F
100
AcDbEntity
  8
0
  6
HIDDEN
 62
     7
370
     0
100
AcDbLine
 10
125.4124325015
 20
100.1319068256
 30
0.0
 11
136.5124325015
 21
100.1319068256
 31
0.0
  0
LINE
  5
152
330
1F
100
AcDbEntity
  8
0
  6
HIDDEN
 62
     7
370
     0
100
AcDbLine
 10
136.5124325015
 20
122.6319068256
 30
0.0
 11
125.4124325015
 21
122.6319068256
 31
0.0
  0
ARC
  5
153
330
1F
100
AcDbEntity
  8
0
  6
HIDDEN
 62
     7
370
     0
100
AcDbCircle
 10
216.7124325015
 20
100.3452125775
 30
0.0
 40
0.4999999999999826
100
AcDbArc
 50
0.0
 51
80.0
  0
ARC
  5
154
330
1F
100
AcDbEntity
  8
0
  6
HIDDEN
 62
     7
370
     0
100
AcDbCircle
 10
216.7124325015
 20
122.4186010736
 30
0.0
 40
0.4999999999999966
100
AcDbArc
 50
280.0
 51
0.0
  0
LINE
  5
155
330
1F
100
AcDbEntity
  8
0
  6
HIDDEN
 62
     7
370
     0
100
AcDbLine
 10
216.7992565903
 20
121.9261971971
 30
0.0
 11
213.7124325015
 21
121.3819068256
 31
0.0
  0
LINE
  5
156
330
1F
100
AcDbEntity
  8
0
  6
HIDDEN
 62
     7
370
     0
100
AcDbLine
 10
213.7124325015
 20
101.3819068256
 30
0.0
 11
216.7992565903
 21
100.837616454
 31
0.0
  0
LINE
  5
157
330
1F
100
AcDbEntity
  8
0
  6
HIDDEN
 62
     7
370
     0
100
AcDbLine
 10
169.2124325015
 20
101.0819068256
 30
0.0
 11
175.3176584834
 21
101.0819068256
 31
0.0
  0
LINE
  5
158
330
1F
100
AcDbEntity
  8
0
  6
HIDDEN
 62
     7
370
     0
100
AcDbLine
 10
166.1124325015
 20
101.0819068256
 30
0.0
 11
166.215785635
 21
101.0819068256
 31
0.0
  0
LINE
  5
159
330
1F
100
AcDbEntity
  8
0
  6
HIDDEN
 62
     7
370
     0
100
AcDbLine
 10
166.2127697671
 20
121.6819068256
 30
0.0
 11
166.1124325015
 21
121.6819068256
 31
0.0
  0
LINE
  5
15A
330
1F
100
AcDbEntity
  8
0
  6
HIDDEN
 62
     7
370
     0
100
AcDbLine
 10
175.3176584834
 20
121.6819068256
 30
0.0
 11
169.2097224843
 21
121.6819068256
 31
0.0
  0
ARC
  5
15B
330
1F
100
AcDbEntity
  8
0
  6
HIDDEN
 62
     7
370
     0
100
AcDbCircle
 10
175.3176584834
 20
101.4819068256
 30
0.0
 40
0.4000000000000074
100
AcDbArc
 50
270.0
 51
290.0
  0
ARC
  5
15C
330
1F
100
AcDbEntity
  8
0
  6
HIDDEN
 62
     7
370
     0
100
AcDbCircle
 10
175.3176584834
 20
121.2819068256
 30
0.0
 40
0.4000000000000199
100
AcDbArc
 50
70.0
 51
90.0
  0
ARC
  5
15D
330
1F
100
AcDbEntity
  8
0
  6
HIDDEN
 62
     7
370
     0
100
AcDbCircle
 10
166.1124325015
 20
101.4819068256
 30
0.0
 40
0.4000000000000057
100
AcDbArc
 50
180.0
 51
270.0
  0
ARC
  5
15E
330
1F
100
AcDbEntity
  8
0
  6
HIDDEN
 62
     7
370
     0
100
AcDbCircle
 10
166.1124325015
 20
121.2819068256
 30
0.0
 40
0.4000000000000199
100
AcDbArc
 50
90.0
 51
180.0
  0
LINE
  5
15F
330
1F
100
AcDbEntity
  8
0
  6
HIDDEN
 62
     7
370
     0
100
AcDbLine
 10
175.4544665407
 20
101.1060297773
 30
0.0
 11
176.2124325015
 21
101.3819068256
 31
0.0
  0
LINE
  5
160
330
1F
100
AcDbEntity
  8
0
  6
HIDDEN
 62
     7
370
     0
100
AcDbLine
 10
176.2124325015
 20
121.3819068256
 30
0.0
 11
175.4544665407
 21
121.6577838739
 31
0.0
  0
LINE
  5
161
330
1F
100
AcDbEntity
  8
0
  6
HIDDEN
 62
     7
370
     0
100
AcDbLine
 10
117.1624325015
 20
161.3819068256
 30
0.0
 11
117.1624325015
 21
155.2819068256
 31
0.0
  0
LINE
  5
162
330
1F
100
AcDbEntity
  8
0
  6
HIDDEN
 62
     7
370
     0
100
AcDbLine
 10
176.2124325015
 20
101.3819068256
 30
0.0
 11
213.7124325015
 21
101.3819068256
 31
0.0
  0
LINE
  5
163
330
1F
100
AcDbEntity
  8
0
  6
HIDDEN
 62
     7
370
     0
100
AcDbLine
 10
213.7124325015
 20
121.3819068256
 30
0.0
 11
176.2124325015
 21
121.3819068256
 31
0.0
  0
LINE
  5
164
330
1F
100
AcDbEntity
  8
0
  6
HIDDEN
 62
     7
370
     0
100
AcDbLine
 10
103.6451451176
 20
73.803627255
 30
0.0
 11
103.2124358311
 21
74.2818519723
 31
0.0
  0
LINE
  5
165
330
1F
100
AcDbEntity
  8
0
  6
HIDDEN
 62
     7
370
     0
100
AcDbLine
 10
91.2124329595
 20
74.928813329
 30
0.0
 11
90.7318056543
 21
74.4505886182
 31
0.0
  0
LINE
  5
166
330
1F
100
AcDbEntity
  8
0
  6
HIDDEN
 62
     7
370
     0
100
AcDbLine
 10
90.7316873128
 20
148.3132191168
 30
0.0
 11
91.2124327769
 21
147.834939445
 31
0.0
  0
LINE
  5
167
330
1F
100
AcDbEntity
  8
0
  6
HIDDEN
 62
     7
370
     0
100
AcDbLine
 10
103.2124325036
 20
148.4819118323
 30
0.0
 11
103.6452541734
 21
148.9601915052
 31
0.0
  0
LINE
  5
168
330
1F
100
AcDbEntity
  8
0
  6
HIDDEN
 62
     7
370
     0
100
AcDbLine
 10
103.2124325015
 20
142.8559717195
 30
0.0
 11
103.2124325015
 21
148.5819156583
 31
0.0
  0
LINE
  5
169
330
1F
100
AcDbEntity
  8
0
  6
HIDDEN
 62
     7
370
     0
100
AcDbLine
 10
91.2124325015
 20
147.8349289457
 30
0.0
 11
91.2124325015
 21
142.8809226262
 31
0.0
  0
LINE
  5
16A
330
1F
100
AcDbEntity
  8
0
  6
HIDDEN
 62
     7
370
     0
100
AcDbLine
 10
103.2124325015
 20
74.1817231298
 30
0.0
 11
103.2124325015
 21
79.9078419316
 31
0.0
  0
LINE
  5
16B
330
1F
100
AcDbEntity
  8
0
  6
HIDDEN
 62
     7
370
     0
100
AcDbLine
 10
91.2124325015
 20
79.8828910249
 30
0.0
 11
91.2124325015
 21
74.9288517435
 31
0.0
  0
LINE
  5
16C
330
1F
100
AcDbEntity
  8
0
  6
HIDDEN
 62
     7
370
     0
100
AcDbLine
 10
165.7124325015
 20
117.3819068256
 30
0.0
 11
165.2124325015
 21
116.8819068256
 31
0.0
  0
LINE
  5
16D
330
1F
100
AcDbEntity
  8
0
  6
HIDDEN
 62
     7
370
     0
100
AcDbLine
 10
165.2124325015
 20
105.8819068256
 30
0.0
 11
165.7124325015
 21
105.3819068256
 31
0.0
  0
LINE
  5
16E
330
1F
100
AcDbEntity
  8
0
  6
HIDDEN
 62
     7
370
     0
100
AcDbLine
 10
140.5124325015
 20
105.8819068256
 30
0.0
 11
165.2124325015
 21
105.8819068256
 31
0.0
  0
LINE
  5
16F
330
1F
100
AcDbEntity
  8
0
  6
HIDDEN
 62
     7
370
     0
100
AcDbLine
 10
165.2124325015
 20
116.8819068256
 30
0.0
 11
140.5124325015
 21
116.8819068256
 31
0.0
  0
LINE
  5
170
330
1F
100
AcDbEntity
  8
0
  6
HIDDEN
 62
     7
370
     0
100
AcDbLine
 10
150.6624325015
 20
131.8819068256
 30
0.0
 11
151.6624325015
 21
131.3045565564
 31
0.0
  0
LINE
  5
171
330
1F
100
AcDbEntity
  8
0
  6
HIDDEN
 62
     7
370
     0
100
AcDbLine
 10
156.6624325015
 20
131.3045565564
 30
0.0
 11
157.6624325015
 21
131.8819068256
 31
0.0
  0
LINE
  5
172
330
1F
100
AcDbEntity
  8
0
  6
HIDDEN
 62
     7
370
     0
100
AcDbLine
 10
157.6624325015
 20
90.8819068256
 30
0.0
 11
156.6624325015
 21
91.4592570948
 31
0.0
  0
LINE
  5
173
330
1F
100
AcDbEntity
  8
0
  6
HIDDEN
 62
     7
370
     0
100
AcDbLine
 10
151.6624325015
 20
91.4592570948
 30
0.0
 11
150.6624325015
 21
90.8819068256
 31
0.0
  0
LINE
  5
174
330
1F
100
AcDbEntity
  8
0
  6
HIDDEN
 62
     7
370
     0
100
AcDbLine
 10
151.6624325015
 20
131.3045565564
 30
0.0
 11
151.6624325015
 21
119.8819068256
 31
0.0
  0
LINE
  5
175
330
1F
100
AcDbEntity
  8
0
  6
HIDDEN
 62
     7
370
     0
100
AcDbLine
 10
156.6624325015
 20
119.8819068256
 30
0.0
 11
156.6624325015
 21
131.3045565564
 31
0.0
  0
LINE
  5
176
330
1F
100
AcDbEntity
  8
0
  6
HIDDEN
 62
     7
370
     0
100
AcDbLine
 10
151.6624325015
 20
119.8819068256
 30
0.0
 11
154.1624325015
 21
118.379755278
 31
0.0
  0
LINE
  5
177
330
1F
100
AcDbEntity
  8
0
  6
HIDDEN
 62
     7
370
     0
100
AcDbLine
 10
154.1624325015
 20
118.379755278
 30
0.0
 11
156.6624325015
 21
119.8819068256
 31
0.0
  0
LINE
  5
178
330
1F
100
AcDbEntity
  8
0
  6
HIDDEN
 62
     7
370
     0
100
AcDbLine
 10
156.6624325015
 20
91.4592570948
 30
0.0
 11
156.6624325015
 21
102.8819068256
 31
0.0
  0
LINE
  5
179
330
1F
100
AcDbEntity
  8
0
  6
HIDDEN
 62
     7
370
     0
100
AcDbLine
 10
151.6624325015
 20
102.8819068256
 30
0.0
 11
151.6624325015
 21
91.4592570948
 31
0.0
  0
LINE
  5
17A
330
1F
100
AcDbEntity
  8
0
  6
HIDDEN
 62
     7
370
     0
100
AcDbLine
 10
156.6624325015
 20
102.8819068256
 30
0.0
 11
154.1624325015
 21
104.3840583731
 31
0.0
  0
LINE
  5
17B
330
1F
100
AcDbEntity
  8
0
  6
HIDDEN
 62
     7
370
     0
100
AcDbLine
 10
154.1624325015
 20
104.3840583731
 30
0.0
 11
151.6624325015
 21
102.8819068256
 31
0.0
  0
LINE
  5
17C
330
1F
100
AcDbEntity
  8
0
  6
HIDDEN
 62
     7
370
     0
100
AcDbLine
 10
166.2124325015
 20
125.135650397
 30
0.0
 11
166.2124325015
 21
121.6818578336
 31
0.0
  0
LINE
  5
17D
330
1F
100
AcDbEntity
  8
0
  6
HIDDEN
 62
     7
370
     0
100
AcDbLine
 10
166.2124325015
 20
127.8819068256
 30
0.0
 11
166.2124325015
 21
127.4993790234
 31
0.0
  0
LINE
  5
17E
330
1F
100
AcDbEntity
  8
0
  6
HIDDEN
 62
     7
370
     0
100
AcDbLine
 10
169.2124325015
 20
127.5171196462
 30
0.0
 11
169.2124325015
 21
127.8819068256
 31
0.0
  0
LINE
  5
17F
330
1F
100
AcDbEntity
  8
0
  6
HIDDEN
 62
     7
370
     0
100
AcDbLine
 10
169.2124325015
 20
121.6815151813
 30
0.0
 11
169.2124325015
 21
125.0168675137
 31
0.0
  0
LINE
  5
180
330
1F
100
AcDbEntity
  8
0
  6
HIDDEN
 62
     7
370
     0
100
AcDbLine
 10
166.2124325015
 20
95.2644346278
 30
0.0
 11
166.2124325015
 21
94.8819068256
 31
0.0
  0
LINE
  5
181
330
1F
100
AcDbEntity
  8
0
  6
HIDDEN
 62
     7
370
     0
100
AcDbLine
 10
166.2124325015
 20
101.0823921686
 30
0.0
 11
166.2124325015
 21
97.6281632541
 31
0.0
  0
LINE
  5
182
330
1F
100
AcDbEntity
  8
0
  6
HIDDEN
 62
     7
370
     0
100
AcDbLine
 10
169.2124325015
 20
97.7469461375
 30
0.0
 11
169.2124325015
 21
101.0819068256
 31
0.0
  0
LINE
  5
183
330
1F
100
AcDbEntity
  8
0
  6
HIDDEN
 62
     7
370
     0
100
AcDbLine
 10
169.2124325015
 20
94.8819068256
 30
0.0
 11
169.2124325015
 21
95.246694005
 31
0.0
  0
LINE
  5
184
330
1F
100
AcDbEntity
  8
0
  6
HIDDEN
 62
     7
370
     0
100
AcDbLine
 10
166.2124325015
 20
94.8819068256
 30
0.0
 11
167.7124325015
 21
93.980615897
 31
0.0
  0
LINE
  5
185
330
1F
100
AcDbEntity
  8
0
  6
HIDDEN
 62
     7
370
     0
100
AcDbLine
 10
167.7124325015
 20
93.980615897
 30
0.0
 11
169.2124325015
 21
94.8819068256
 31
0.0
  0
LINE
  5
186
330
1F
100
AcDbEntity
  8
0
  6
HIDDEN
 62
     7
370
     0
100
AcDbLine
 10
169.2110590162
 20
95.2449632766
 30
0.0
 11
217.2124325015
 21
97.1309423773
 31
0.0
  0
LINE
  5
187
330
1F
100
AcDbEntity
  8
0
  6
HIDDEN
 62
     7
370
     0
100
AcDbLine
 10
217.2124325015
 20
99.6328712738
 30
0.0
 11
169.2124325015
 21
97.7469461375
 31
0.0
  0
LINE
  5
188
330
1F
100
AcDbEntity
  8
0
  6
HIDDEN
 62
     7
370
     0
100
AcDbLine
 10
169.2124325015
 20
125.0168675137
 30
0.0
 11
217.2124325015
 21
123.1309423773
 31
0.0
  0
LINE
  5
189
330
1F
100
AcDbEntity
  8
0
  6
HIDDEN
 62
     7
370
     0
100
AcDbLine
 10
217.2124325015
 20
125.6328712738
 30
0.0
 11
169.2110590162
 21
127.5188503746
 31
0.0
  0
LINE
  5
18A
330
1F
100
AcDbEntity
  8
0
  6
HIDDEN
 62
     7
370
     0
100
AcDbLine
 10
166.2026768835
 20
97.6286925172
 30
0.0
 11
165.5012549317
 21
96.3501691254
 31
0.0
  0
LINE
  5
18B
330
1F
100
AcDbEntity
  8
0
  6
HIDDEN
 62
     7
370
     0
100
AcDbLine
 10
165.5012549317
 20
96.3501691254
 30
0.0
 11
166.2140392041
 21
95.262992434
 31
0.0
  0
LINE
  5
18C
330
1F
100
AcDbEntity
  8
0
  6
HIDDEN
 62
     7
370
     0
100
AcDbLine
 10
166.2140392041
 20
127.5008212171
 30
0.0
 11
165.5012549317
 21
126.4136445258
 31
0.0
  0
LINE
  5
18D
330
1F
100
AcDbEntity
  8
0
  6
HIDDEN
 62
     7
370
     0
100
AcDbLine
 10
165.5012549317
 20
126.4136445258
 30
0.0
 11
166.2026768835
 21
125.135121134
 31
0.0
  0
LINE
  5
18E
330
1F
100
AcDbEntity
  8
0
  6
HIDDEN
 62
     7
370
     0
100
AcDbLine
 10
116.2124325015
 20
158.9346181236
 30
0.0
 11
116.2124325015
 21
157.0590697077
 31
0.0
  0
LINE
  5
18F
330
1F
100
AcDbEntity
  8
0
  6
HIDDEN
 62
     7
370
     0
100
AcDbLine
 10
126.2124325015
 20
157.0576977584
 30
0.0
 11
126.2124325015
 21
158.9331898408
 31
0.0
  0
LINE
  5
190
330
1F
100
AcDbEntity
  8
0
  6
HIDDEN
 62
     7
370
     0
100
AcDbLine
 10
211.6872279404
 20
99.665978285
 30
0.0
 11
211.2072433301
 21
99.146733859
 31
0.0
  0
LINE
  5
191
330
1F
100
AcDbEntity
  8
0
  6
HIDDEN
 62
     7
370
     0
100
AcDbLine
 10
211.2857629617
 20
97.1482757865
 30
0.0
 11
211.8050073877
 21
96.6682911763
 31
0.0
  0
LINE
  5
192
330
1F
100
AcDbEntity
  8
0
  6
HIDDEN
 62
     7
370
     0
100
AcDbLine
 10
217.0211657443
 20
99.8755492721
 30
0.0
 11
211.6872279404
 21
99.665978285
 31
0.0
  0
LINE
  5
193
330
1F
100
AcDbEntity
  8
0
  6
HIDDEN
 62
     7
370
     0
100
AcDbLine
 10
211.8050073877
 20
96.6682911763
 30
0.0
 11
217.1389451915
 21
96.8778621634
 31
0.0
  0
LINE
  5
194
330
1F
100
AcDbEntity
  8
0
  6
HIDDEN
 62
     7
370
     0
100
AcDbLine
 10
217.1389451915
 20
96.8778621634
 30
0.0
 11
217.2124325015
 21
97.0175385652
 31
0.0
  0
LINE
  5
195
330
1F
100
AcDbEntity
  8
0
  6
HIDDEN
 62
     7
370
     0
100
AcDbLine
 10
217.194000018
 20
99.601623527
 30
0.0
 11
217.0211657443
 21
99.8755492721
 31
0.0
  0
LINE
  5
196
330
1F
100
AcDbEntity
  8
0
  6
HIDDEN
 62
     7
370
     0
100
AcDbLine
 10
217.0800554679
 20
125.8882652713
 30
0.0
 11
211.746117664
 21
126.0978362584
 31
0.0
  0
LINE
  5
197
330
1F
100
AcDbEntity
  8
0
  6
HIDDEN
 62
     7
370
     0
100
AcDbLine
 10
211.6283382167
 20
123.1001491497
 30
0.0
 11
216.9622760206
 21
122.8905781626
 31
0.0
  0
LINE
  5
198
330
1F
100
AcDbEntity
  8
0
  6
HIDDEN
 62
     7
370
     0
100
AcDbLine
 10
216.9622760206
 20
122.8905781626
 30
0.0
 11
217.1351102944
 21
123.1645039076
 31
0.0
  0
LINE
  5
199
330
1F
100
AcDbEntity
  8
0
  6
HIDDEN
 62
     7
370
     0
100
AcDbLine
 10
217.2124325015
 20
125.6366579156
 30
0.0
 11
217.0800554679
 21
125.8882652713
 31
0.0
  0
LINE
  5
19A
330
1F
100
AcDbEntity
  8
0
  6
HIDDEN
 62
     7
370
     0
100
AcDbLine
 10
211.746117664
 20
126.0978362584
 30
0.0
 11
211.226873238
 21
125.6178516481
 31
0.0
  0
LINE
  5
19B
330
1F
100
AcDbEntity
  8
0
  6
HIDDEN
 62
     7
370
     0
100
AcDbLine
 10
211.1483536065
 20
123.6193935757
 30
0.0
 11
211.6283382167
 21
123.1001491497
 31
0.0
  0
LINE
  5
19C
330
1F
100
AcDbEntity
  8
0
  6
HIDDEN
 62
     7
370
     0
100
AcDbLine
 10
156.2124325015
 20
105.3819068256
 30
0.0
 11
171.2124325015
 21
105.3819068256
 31
0.0
  0
LINE
  5
19D
330
1F
100
AcDbEntity
  8
0
  6
HIDDEN
 62
     7
370
     0
100
AcDbLine
 10
171.2124325015
 20
117.3819068256
 30
0.0
 11
156.2124325015
 21
117.3819068256
 31
0.0
  0
LINE
  5
19E
330
1F
100
AcDbEntity
  8
0
  6
HIDDEN
 62
     7
370
     0
100
AcDbLine
 10
171.2124325015
 20
105.3819068256
 30
0.0
 11
171.7124325015
 21
105.8819068256
 31
0.0
  0
LINE
  5
19F
330
1F
100
AcDbEntity
  8
0
  6
HIDDEN
 62
     7
370
     0
100
AcDbLine
 10
171.7124325015
 20
116.8819068256
 30
0.0
 11
171.2124325015
 21
117.3819068256
 31
0.0
  0
LINE
  5
1A0
330
1F
100
AcDbEntity
  8
0
  6
HIDDEN
 62
     7
370
     0
100
AcDbLine
 10
156.2124325015
 20
117.3819068256
 30
0.0
 11
155.7124325015
 21
116.8819068256
 31
0.0
  0
LINE
  5
1A1
330
1F
100
AcDbEntity
  8
0
  6
HIDDEN
 62
     7
370
     0
100
AcDbLine
 10
155.7124325015
 20
105.8819068256
 30
0.0
 11
156.2124325015
 21
105.3819068256
 31
0.0
  0
LINE
  5
1A2
330
1F
100
AcDbEntity
  8
0
  6
HIDDEN
 62
     7
370
     0
100
AcDbLine
 10
171.7124325015
 20
105.8819068256
 30
0.0
 11
175.7124325015
 21
105.8819068256
 31
0.0
  0
LINE
  5
1A3
330
1F
100
AcDbEntity
  8
0
  6
HIDDEN
 62
     7
370
     0
100
AcDbLine
 10
175.7124325015
 20
116.8819068256
 30
0.0
 11
171.7124325015
 21
116.8819068256
 31
0.0
  0
LINE
  5
1A4
330
1F
100
AcDbEntity
  8
0
  6
HIDDEN
 62
     7
370
     0
100
AcDbLine
 10
162.7124325014
 20
108.3819068256
 30
0.0
 11
168.7124325015
 21
108.3819068256
 31
0.0
  0
LINE
  5
1A5
330
1F
100
AcDbEntity
  8
0
  6
HIDDEN
 62
     7
370
     0
100
AcDbLine
 10
168.7124325015
 20
114.3819068256
 30
0.0
 11
162.7124325014
 21
114.3819068256
 31
0.0
  0
DIMENSION
  5
1A6
330
1F
100
AcDbEntity
  8
VERMASSUNG
100
AcDbDimension
  2
*D1
 10
55.9043336945
 20
61.3819068256
 30
0.0
 11
55.9043336945
 21
111.3819068256
 31
0.0
 70
   160
  1
HSK A %%c<>
 71
     2
 42
-1.0
  3
SLDDIMSTYLE0
100
AcDbAlignedDimension
 13
112.7124325015
 23
161.3819068256
 33
0.0
 14
112.7124325015
 24
61.3819068256
 34
0.0
 50
90.0
100
AcDbRotatedDimension
  0
DIMENSION
  5
1B3
330
1F
100
AcDbEntity
  8
VERMASSUNG
100
AcDbDimension
  2
*D2
 10
217.2124325015
 20
159.3819068256
 30
0.0
 11
191.4624325015
 21
159.3819068256
 31
0.0
 70
   160
 71
     2
 42
-1.0
  3
SLDDIMSTYLE1
100
AcDbAlignedDimension
 13
165.7124325015
 23
121.2819068256
 33
0.0
 14
217.2124325015
 24
126.0331258423
 34
0.0
100
AcDbRotatedDimension
  0
DIMENSION
  5
1BE
330
1F
100
AcDbEntity
  8
VERMASSUNG
100
AcDbDimension
  2
*D3
 10
224.3866738895
 20
121.3819068256
 30
0.0
 11
224.3866738895
 21
111.3819068256
 31
0.0
 70
   160
  1
%%c<> 
 71
     2
 42
-1.0
  3
SLDDIMSTYLE2
100
AcDbAlignedDimension
 13
213.7124325015
 23
101.3819068256
 33
0.0
 14
213.7124325015
 24
121.3819068256
 34
0.0
 50
90.0
100
AcDbRotatedDimension
  0
DIMENSION
  5
1CB
330
1F
100
AcDbEntity
  8
VERMASSUNG
100
AcDbDimension
  2
*D4
 10
230.3866738895
 20
127.8819068256
 30
0.0
 11
230.3866738895
 21
111.3819068256
 31
0.0
 70
   160
  1
%%c<>
 71
     2
 42
-1.0
  3
SLDDIMSTYLE3
100
AcDbAlignedDimension
 13
217.2124325015
 23
94.8819068256
 33
0.0
 14
217.2124325015
 24
127.8819068256
 34
0.0
 50
90.0
100
AcDbRotatedDimension
  0
DIMENSION
  5
1D7
330
1F
100
AcDbEntity
  8
VERMASSUNG
100
AcDbDimension
  2
*D5
 10
217.2124325015
 20
171.3819068256
 30
0.0
 11
164.7124325015
 21
171.3819068256
 31
0.0
 70
   160
 71
     2
 42
-1.0
  3
SLDDIMSTYLE0
100
AcDbAlignedDimension
 13
112.2124325015
 23
160.8819068256
 33
0.0
 14
217.2124325015
 24
126.0331258423
 34
0.0
100
AcDbRotatedDimension
  0
DIMENSION
  5
1E1
330
1F
100
AcDbEntity
  8
VERMASSUNG
100
AcDbDimension
  2
*D6
 10
217.2124325015
 20
165.3819068256
 30
0.0
 11
179.1874325015
 21
165.3819068256
 31
0.0
 70
   160
 71
     2
 42
-1.0
  3
SLDDIMSTYLE0
100
AcDbAlignedDimension
 13
141.1624325015
 23
159.3506466464
 33
0.0
 14
217.2124325015
 24
126.0331258423
 34
0.0
100
AcDbRotatedDimension
  0
DIMENSION
  5
1EB
330
1F
100
AcDbEntity
  8
VERMASSUNG
100
AcDbDimension
  2
*D7
 10
217.2124325015
 20
177.3819068256
 30
0.0
 11
139.7624325015
 21
177.3819068256
 31
0.0
 70
   160
 71
     2
 42
-1.0
  3
SLDDIMSTYLE0
100
AcDbAlignedDimension
 13
62.3124325015
 23
141.8845765681
 33
0.0
 14
217.2124325015
 24
126.0331258423
 34
0.0
100
AcDbRotatedDimension
  0
DIMENSION
  5
1F5
330
1F
100
AcDbEntity
  8
VERMASSUNG
100
AcDbDimension
  2
*D8
 10
236.3866738895
 20
90.8819068256
 30
0.0
 11
236.3866738895
 21
111.3819068256
 31
0.0
 70
   160
  1
%%c<>
 71
     2
 42
-1.0
  3
SLDDIMSTYLE0
100
AcDbAlignedDimension
 13
166.2124325015
 23
131.8819068256
 33
0.0
 14
166.3876135568
 24
90.8819068256
 34
0.0
 50
90.0
100
AcDbRotatedDimension
  0
LINE
  5
200
330
1F
100
AcDbEntity
  8
VERMASSUNG
  6
CENTERX2
370
     0
100
AcDbLine
 10
57.9929577465
 20
111.3819068256
 30
0.0
 11
219.2124325015
 21
111.3819068256
 31
0.0
  0
OLE2FRAME
  5
201
330
1F
100
AcDbEntity
  8
0
100
AcDbOle2Frame
 70
     2
  3
Bitmap Image
 10
13.8511154363
 20
38.264191557
 30
0.0
 11
51.6290888628
 21
31.9806341108
 31
0.0
 71
     2
 72
     0
 73
     1
 90
    12928
310
80552BED0767C5B32B40DDAF6807D121434000000000000000006FFBDDFB85D0
310
4940DDAF6807D121434000000000000000006FFBDDFB85D04940416F4BD60AFB
310
3F4000000000000000002BED0767C5B32B40416F4BD60AFB3F40000000000000
310
0000000000000100000000010000010000000100000000000100000000320000
310
D0CF11E0A1B11AE1000000000000000000000000000000003E000300FEFF0900
310
0600000000000000000000000100000001000000000000000010000002000000
310
01000000FEFFFFFF0000000000000000FFFFFFFFFFFFFFFFFFFFFFFFFFFFFFFF
310
FFFFFFFFFFFFFFFFFFFFFFFFFFFFFFFFFFFFFFFFFFFFFFFFFFFFFFFFFFFFFFFF
310
FFFFFFFFFFFFFFFFFFFFFFFFFFFFFFFFFFFFFFFFFFFFFFFFFFFFFFFFFFFFFFFF
310
FFFFFFFFFFFFFFFFFFFFFFFFFFFFFFFFFFFFFFFFFFFFFFFFFFFFFFFFFFFFFFFF
310
FFFFFFFFFFFFFFFFFFFFFFFFFFFFFFFFFFFFFFFFFFFFFFFFFFFFFFFFFFFFFFFF
310
FFFFFFFFFFFFFFFFFFFFFFFFFFFFFFFFFFFFFFFFFFFFFFFFFFFFFFFFFFFFFFFF
310
FFFFFFFFFFFFFFFFFFFFFFFFFFFFFFFFFFFFFFFFFFFFFFFFFFFFFFFFFFFFFFFF
310
FFFFFFFFFFFFFFFFFFFFFFFFFFFFFFFFFFFFFFFFFFFFFFFFFFFFFFFFFFFFFFFF
310
FFFFFFFFFFFFFFFFFFFFFFFFFFFFFFFFFFFFFFFFFFFFFFFFFFFFFFFFFFFFFFFF
310
FFFFFFFFFFFFFFFFFFFFFFFFFFFFFFFFFFFFFFFFFFFFFFFFFFFFFFFFFFFFFFFF
310
FFFFFFFFFFFFFFFFFFFFFFFFFFFFFFFFFFFFFFFFFFFFFFFFFFFFFFFFFFFFFFFF
310
FFFFFFFFFFFFFFFFFFFFFFFFFFFFFFFFFFFFFFFFFFFFFFFFFFFFFFFFFFFFFFFF
310
FFFFFFFFFFFFFFFFFFFFFFFFFFFFFFFFFFFFFFFFFFFFFFFFFFFFFFFFFFFFFFFF
310
FFFFFFFFFFFFFFFFFFFFFFFFFFFFFFFFFFFFFFFFFFFFFFFFFFFFFFFFFFFFFFFF
310
FDFFFFFFFEFFFFFFFEFFFFFFFEFFFFFF05000000060000000700000008000000
310
090000000A0000000B0000000C0000000D0000000E0000000F00000010000000
310
11000000120000001300000014000000150000001600000017000000FEFFFFFF
310
FFFFFFFFFFFFFFFFFFFFFFFFFFFFFFFFFFFFFFFFFFFFFFFFFFFFFFFFFFFFFFFF
310
FFFFFFFFFFFFFFFFFFFFFFFFFFFFFFFFFFFFFFFFFFFFFFFFFFFFFFFFFFFFFFFF
310
FFFFFFFFFFFFFFFFFFFFFFFFFFFFFFFFFFFFFFFFFFFFFFFFFFFFFFFFFFFFFFFF
310
FFFFFFFFFFFFFFFFFFFFFFFFFFFFFFFFFFFFFFFFFFFFFFFFFFFFFFFFFFFFFFFF
310
FFFFFFFFFFFFFFFFFFFFFFFFFFFFFFFFFFFFFFFFFFFFFFFFFFFFFFFFFFFFFFFF
310
FFFFFFFFFFFFFFFFFFFFFFFFFFFFFFFFFFFFFFFFFFFFFFFFFFFFFFFFFFFFFFFF
310
FFFFFFFFFFFFFFFFFFFFFFFFFFFFFFFFFFFFFFFFFFFFFFFFFFFFFFFFFFFFFFFF
310
FFFFFFFFFFFFFFFFFFFFFFFFFFFFFFFFFFFFFFFFFFFFFFFFFFFFFFFFFFFFFFFF
310
FFFFFFFFFFFFFFFFFFFFFFFFFFFFFFFFFFFFFFFFFFFFFFFFFFFFFFFFFFFFFFFF
310
FFFFFFFFFFFFFFFFFFFFFFFFFFFFFFFFFFFFFFFFFFFFFFFFFFFFFFFFFFFFFFFF
310
FFFFFFFFFFFFFFFFFFFFFFFFFFFFFFFFFFFFFFFFFFFFFFFFFFFFFFFFFFFFFFFF
310
FFFFFFFFFFFFFFFFFFFFFFFFFFFFFFFFFFFFFFFFFFFFFFFFFFFFFFFFFFFFFFFF
310
FFFFFFFFFFFFFFFFFFFFFFFFFFFFFFFFFFFFFFFFFFFFFFFFFFFFFFFFFFFFFFFF
310
52006F006F007400200045006E00740072007900000000000000000000000000
310
0000000000000000000000000000000000000000000000000000000000000000
310
16000500FFFFFFFFFFFFFFFF020000000A00030000000000C000000000000046
310
000000000000000000000000D035E19B9C08CC0103000000C000000000000000
310
01004F006C006500000000000000000000000000000000000000000000000000
310
0000000000000000000000000000000000000000000000000000000000000000
310
0A000200FFFFFFFFFFFFFFFFFFFFFFFF00000000000000000000000000000000
310
0000000000000000000000000000000000000000000000001400000000000000
310
010043006F006D0070004F0062006A0000000000000000000000000000000000
310
0000000000000000000000000000000000000000000000000000000000000000
310
120002010100000003000000FFFFFFFF00000000000000000000000000000000
310
0000000000000000000000000000000000000000010000004D00000000000000
310
01004F006C006500310030004E00610074006900760065000000000000000000
310
0000000000000000000000000000000000000000000000000000000000000000
310
1A000200FFFFFFFFFFFFFFFFFFFFFFFF00000000000000000000000000000000
310
0000000000000000000000000000000000000000040000002426000000000000
310
FEFFFFFF02000000FEFFFFFFFFFFFFFFFFFFFFFFFFFFFFFFFFFFFFFFFFFFFFFF
310
FFFFFFFFFFFFFFFFFFFFFFFFFFFFFFFFFFFFFFFFFFFFFFFFFFFFFFFFFFFFFFFF
310
FFFFFFFFFFFFFFFFFFFFFFFFFFFFFFFFFFFFFFFFFFFFFFFFFFFFFFFFFFFFFFFF
310
FFFFFFFFFFFFFFFFFFFFFFFFFFFFFFFFFFFFFFFFFFFFFFFFFFFFFFFFFFFFFFFF
310
FFFFFFFFFFFFFFFFFFFFFFFFFFFFFFFFFFFFFFFFFFFFFFFFFFFFFFFFFFFFFFFF
310
FFFFFFFFFFFFFFFFFFFFFFFFFFFFFFFFFFFFFFFFFFFFFFFFFFFFFFFFFFFFFFFF
310
FFFFFFFFFFFFFFFFFFFFFFFFFFFFFFFFFFFFFFFFFFFFFFFFFFFFFFFFFFFFFFFF
310
FFFFFFFFFFFFFFFFFFFFFFFFFFFFFFFFFFFFFFFFFFFFFFFFFFFFFFFFFFFFFFFF
310
FFFFFFFFFFFFFFFFFFFFFFFFFFFFFFFFFFFFFFFFFFFFFFFFFFFFFFFFFFFFFFFF
310
FFFFFFFFFFFFFFFFFFFFFFFFFFFFFFFFFFFFFFFFFFFFFFFFFFFFFFFFFFFFFFFF
310
FFFFFFFFFFFFFFFFFFFFFFFFFFFFFFFFFFFFFFFFFFFFFFFFFFFFFFFFFFFFFFFF
310
FFFFFFFFFFFFFFFFFFFFFFFFFFFFFFFFFFFFFFFFFFFFFFFFFFFFFFFFFFFFFFFF
310
FFFFFFFFFFFFFFFFFFFFFFFFFFFFFFFFFFFFFFFFFFFFFFFFFFFFFFFFFFFFFFFF
310
FFFFFFFFFFFFFFFFFFFFFFFFFFFFFFFFFFFFFFFFFFFFFFFFFFFFFFFFFFFFFFFF
310
FFFFFFFFFFFFFFFFFFFFFFFFFFFFFFFFFFFFFFFFFFFFFFFFFFFFFFFFFFFFFFFF
310
FFFFFFFFFFFFFFFFFFFFFFFFFFFFFFFFFFFFFFFFFFFFFFFFFFFFFFFFFFFFFFFF
310
0100000200000000000000000000000000000000000000000000000000000000
310
0000000000000000000000000000000000000000000000000000000000000000
310
0100FEFF030A0000FFFFFFFF0A00030000000000C00000000000004607000000
310
5042727573680007000000504272757368000700000050427275736800F439B2
310
7100000000000000000000000000000000000000000000000000000000000000
310
0000000000000000000000000000000000000000000000000000000000000000
310
0A000201FFFFFFFFFFFFFFFFFFFFFFFF00000000000000000000000000000000
310
000000000000000000000000000000000000000008070000F91D000000000000
310
43004D0067007200480064007200320000000000000000000000000000000000
310
0000000000000000000000000000000000000000000000000000000000000000
310
120002001500000017000000FFFFFFFF00000000000000000000000000000000
310
0000000000000000000000000000000000000000A60000007D00000000000000
310
43006F006E006600690067002D00300000000000000000000000000000000000
310
0000000000000000000000000000000000000000000000000000000000000000
310
1200020128000000FFFFFFFFFFFFFFFF00000000000000000000000000000000
310
0000000000000000000000000000000000000000A8060000628E000000000000
310
20260000424D0E260000000000003E00000028000000B40200006E0000000100
310
01000000000000000000130B0000130B00000200000002000000000000FFFFFF
310
FFFFFFFFFFFFFFFFFFFFFFFFFFFFFFFFFFFFFFFFFFFFFFFFFFFFFFFFFFFFFFFF
310
FFFFFFFFFFFFFFFFFFFFFFFFFFFFFFFFFFFFFFFFFFFFFFFFFFFFFFFFFFFFFFFF
310
FFFFFFFFFFFFFFFFFFFFFFFFFFFFFFFFFFFFFFFFFFFFFFFFF000FFFFFFFFFFFF
310
FFFFFFFFFFFFFFFFFFFFFFFFFFFFFFFFFFFFFFFFFFFFFFFFFFFFFFFFFFFFFFFF
310
FFFFFFFFFFFFFFFFFFFFFFFFFFFFFFFFFFFFFFFFFFFFFFFFFFFFFFFFFFFFFFFF
310
FFFFFFFFFFFFFFFFFFFFFFFFFFFFFFFFF000FFFFFFFFFFFFFFFFFFFFFFFFFFFF
310
FFFFFFFFFFFFFFFFFFFFFFFFFFFFFFFFFFFFFFFFFFFFFFFFFFFFFFFFFFFFFFFF
310
FFFFFFFFFFFFFFFFFFFFFFFFFFFFFFFFFFFFFFFFFFFFFFFFFFFFFFFFFFFFFFFF
310
FFFFFFFFFFFFFFFFF000FFFFFFFFFFFFFFFFFFFFFFFFFFFFFFFFFFFFFFFFFFFF
310
FFFFFFFFFFFFFFFFFFFFFFFFFFFFFFFFFFFFFFFFFFFFFFFFFFFFFFFFFFFFFFFF
310
FFFFFFFFFFFFFFFFFFFFFFFFFFFFFFFFFFFFFFFFFFFFFFFFFFFFFFFFFFFFFFFF
310
F000FFFFFFFFFFFFFFFFFFFFFFFFFFFFFFFFFFFFFFFFFFFFFFFFFFFFFFFFFFFF
310
FFFFFFFFFFFFFFFFFFFFFFFFFFFFFFFFFFFFFFFFFFFFFFFFFFFFFFFFFFFFFFFF
310
FFFFFFFFFFFFFFFFFFFFFFFFFFFFFFFFFFFFFFFFFFFFFFFFF000FFFFFFFFFFFF
310
FFFFFFFFFFFFFFFFFFFFFFFFFFFFFFFFFFFFFFFFFFFFFFFFFFFFFFFFFFFFFFFF
310
FFFFFFFFFFFFFFFFFFFFFFFFFFFFFFFFFFFFFFFFFFFFFFFFFFFFFFFFFFFFFFFF
310
FFFFFFFFFFFFFFFFFFFFFFFFFFFFFFFFF000FFFFFFFFFFFFFFFFFFFFFFFFFFFF
310
FFFFFFFFFFFFFFFFFFFFFFFFFFFFFFFFFFFFFFFFFFFFFFFFFFFFFFFFFFFFFFFF
310
FFFFFFFFFFFFFFFFFFFFFFFFFFFFFFFFFFFFFFFFFFFFFFFFFFFFFFFFFFFFFFFF
310
FFFFFFFFFFFFFFFFF000FFFFFFFFFFFFFFFFFFFFFFFFFFFFFFFFFFFFFFFFFFFF
310
FFFFFFFFFFFFFFFFFFFFFFFFFFFFFFFFFFFFFFFFFFFFFFFFFFFFFFFFFFFFFFFF
310
FFFFFFFFFFFFFFFFFFFFFFFFFFFFFFFFFFFFFFFFFFFFFFFFFFFFFFFFFFFFFFFF
310
F000FFFFFFFFFFFFFFFFFFFFFFFFFFFFFFFFFFFFFFFFFFFFFFFFFFFFFFFFFFFF
310
FFFFFFFFFFFFFFFFFFFFFFFFFFFFFFFFFFFFFFFFFFFFFFFFFFFFFFFFFFFFFFFF
310
FFFFFFFFFFFFFFFFFFFFFFFFFFFFFFFFFFFFFFFFFFFFFFFFF000FFFFFFFFFFFF
310
FFFFFFFFFFFFFFFFFFFFFFFFFFFFFFFFFFFFFFFFFFFFFFFFFFFFFFFFFFFFFFFF
310
FFFFFFFFFFFFFFFFFFFFFFFFFFFFFFFFFFFFFFFFFFFFFFFFFFFFFFFFFFFFFFFF
310
FFFFFFFFFFFFFFFFFFFFFFFFFFFFFFFFF000FFFFFFFFFFFFFFFFFFFFFFFFFFFF
310
FFFFFFFFFFFFFFFFFFFFFFFFFFFFFFFFFFFFFFFFFFFFFFFFFFFFFFFFFFFFFFFF
310
FFFFFFFFFFFFFFFFFFFFFFFFFFFFFFFFFFFFFFFFFFFFFFFFFFFFFFFFFFFFFFFF
310
FFFFFFFFFFFFFFFFF000FFFFFFFFFFFFFFFFFFFFFFFFFFFFFFFFFFFFFFFFFFFF
310
FFFFFFFFFFFFFFFFFFFFFFFFFFFFFFFFFFFFFFFFFFFFFFFFFFFFFFFFFFFFFFFF
310
FFFFFFFFFFFFFFFFFFFFFFFFFFFFFFFFFFFFFFFFFFFFFFFFFFFFFFFFFFFFFFFF
310
F000FFFFFFFFFFFFFFFFFFFFFFFFFFFFFFFFFFFFFFFFFFFFFFFFFFFFFFFFFFFF
310
FFFFFFFFFFFFFFFFFFFFFFFFFFFFFFFFFFFFFFFFFFFFFFFFFFFFFFFFFFFFFFFF
310
FFFFFFFFFFFFFFFFFFFFFFFFFFFFFFFFFFFFFFFFFFFFFFFFF000FFFFFFFFFFFF
310
FFFFFFFFFFFFFFFFFFFFFFFFFFFFFFFFFFFFFFFFFFFFFFFFFFFFFFFFFFFFFFFF
310
FFFFFFFFFFFFFFFFFFFFFFFFFFFFFFFFFFFFFFFFFFFFFFFFFFFFFFFFFFFFFFFF
310
FFFFFFFFFFFFFFFFFFFFFFFFFFFFFFFFF000FFFFFFFFFFFFFFFFFFFFFFFFFFFF
310
FFFFFFFFFFFFFFFFFFFFFFFFFFFFFFFFFFFFFFFFFFFFFFFFFFFFFFFFFFFFFFFF
310
FFFFFFFFFFFFFFFFFFFFFFFFFFFFFFFFFFFFFFFFFFFFFFFFFFFFFFFFFFFFFFFF
310
FFFFFFFFFFFFFFFFF000FFFFFFFFFFFFFFFFFFFFFFFFFFFFFFFFFFFFFFFFFFFF
310
FFFFFFFFFFFFFFFFFFFFFFFFFFFFFFFFFFFFFFFFFFFFFFFFFFFFFFFFFFFFFFFF
310
FFFFFFFFFFFFFFFFFFFFFFFFFFFFFFFFFFFFFFFFFFFFFFFFFFFFFFFFFFFFFFFF
310
F000FFFFFFFFFFFFFFFFFFFFFFFFFFFFFFFFFFFFFFFFFFFFFFFFFFFFFFFFFFFF
310
FFFFFFFFFFFFFFFFFFFFFFFFFFFFFFFFFFFFFFFFFFFFFFFFFFFFFFFFFFFFFFFF
310
FFFFFFFFFFFFFFFFFFFFFFFFFFFFFFFFFFFFFFFFFFFFFFFFF000FFFFFFFFFFFF
310
FFFFFFFFFFFFFFFFFFFFFFFFFFFFFFFFFFFFFFFFFFFFFFFFFFFFFFFFFFFFFFFF
310
FFFFFFFFFFFFFFFFFFFFFFFFFFFFFFFFFFFFFFFFFFFFFFFFFFFFFFFFFFFFFFFF
310
FFFFFFFFFFFFFFFFFFFFFFFFFFFFFFFFF000FFFFFFFFFFFFFFFFFFFFFFFFFFFF
310
FFFFFFFFFFFFFFFFFFFFFFFFFFFFFFFFFFFFFFFFFFFFFFFFFFFFFFFFFFFFFFFF
310
FFFFFFFFFFFFFFFFFFFFFFFFFFFFFFFFFFFFFFFFFFFFFFFFFFFFFFFFFFFFFFFF
310
FFFFFFFFFFFFFFFFF000FFFFF80003FFFFFFFFFFFFFFFFFFFFFFFFFFFFFFFFFF
310
FFFFF00007FFFFFFFFFF00007FFFFFF800000000000000007FFFFFFFFFFFFFFF
310
FFFFFFFC001FFFFFFFFFFFFFFC001FFFFFFFFFFFFFFFFFFFFFFFFFFE0007FFFF
310
F000FFFF8000007FFFFFFFF8000FFFFFC0007FFFFF80007FFFFF0000007FFFFF
310
FFF8000007FFFFF800000000000000007FFFFFF0001FFFFFFFFFFFC00001FFFF
310
FFFFFFFFC00001FFFFFFFF000000000003FFFFE000007FFFF000FFFE0000000F
310
FFFFFFF0000FFFFF80007FFFFF80007FFFFC0000001FFFFFFFC0000001FFFFF8
310
00000000000000007FFFFFF0001FFFFFFFFFFE0000003FFFFFFFFFFE0000003F
310
FFFFFF000000000003FFFF0000000FFFF000FFF800000003FFFFFFF00007FFFF
310
80007FFFFF80007FFFF000000007FFFFFF000000003FFFF80000000000000000
310
7FFFFFF0001FFFFFFFFFF80000000FFFFFFFFFF80000000FFFFFFF0000000000
310
03FFFC00000003FFF000FFE000000000FFFFFFF00007FFFF80003FFFFF80007F
310
FFC000000001FFFFFC000000001FFFF800000000000000007FFFFFF0001FFFFF
310
FFFFE000000003FFFFFFFFE000000003FFFFFF000000000003FFF000000000FF
310
F000FF80000000007FFFFFF00007FFFF80003FFFFF80007FFF8000000000FFFF
310
F80000000007FFF800000000000000007FFFFFF0001FFFFFFFFFC000000001FF
310
FFFFFFC000000001FFFFFF000000000003FFC0000000007FF000FF0000000000
310
3FFFFFE00007FFFF00003FFFFF80007FFE00000000003FFFF00000000003FFF8
310
00000000000000007FFFFFF0001FFFFFFFFF8000000000FFFFFFFF8000000000
310
FFFFFF000000000003FF80000000003FF000FE00000000001FFFFFE00003FFFF
310
00003FFFFF80007FFC00000000001FFFE00000000001FFF8000001FFFE000000
310
7FFFFFF0001FFFFFFFFE00000000003FFFFFFE00000000003FFFFF0000000000
310
03FF00000000001FF000FC00000000000FFFFFE00003FFFF00001FFFFF80007F
310
F800000000001FFFC00000000000FFF8000001FFFE0000007FFFFFF0001FFFFF
310
FFFC00000000001FFFFFFC00000000001FFFFF000000000003FE00000000000F
310
F000F8000000000007FFFFE00003FFFF00001FFFFF80007FF800000000000FFF
310
800000000000FFF8000001FFFE0000007FFFFFF0001FFFFFFFF800000000000F
310
FFFFF800000000000FFFFF000000000003FC000000000007F000F80000000000
310
03FFFFC00003FFFE00001FFFFF80007FF0000000000007FF0000000000007FF8
310
000001FFFE0000007FFFFFF0001FFFFFFFF0000000000007FFFFF00000000000
310
07FFFF000000000003F8000000000003F000F0000000000003FFFFC00001FFFE
310
00001FFFFF80007FE0000000000007FE0000000000003FF8000001FFFE000000
310
7FFFFFF0001FFFFFFFF0000000000007FFFFF0000000000007FFFF0000000000
310
03F800001F800003F000E00001FFF00001FFFFC00001FFFE00000FFFFF80007F
310
E00001FFE00003FE00001FFF00003FF8000001FFFE0000007FFFFFF0001FFFFF
310
FFE000003E000003FFFFE000003E000003FFFF000000000003F00001FFF80001
310
F000E00007FFFC0001FFFFC00001FFFE00000FFFFF80007FC0000FFFFC0003FC
310
0000FFFFC0001FF8000001FFFE0000007FFFFFF0001FFFFFFFC00003FFE00001
310
FFFFC00003FFE00001FFFF0001FFFFFFFFF00007FFFE0001F000E0000FFFFF00
310
00FFFF800001FFFC00000FFFFF80007FC0001FFFFE0001FC0001FFFFE0001FF8
310
000001FFFE0000007FFFFFF0001FFFFFFF80000FFFF80000FFFF80000FFFF800
310
00FFFF0003FFFFFFFFE0000FFFFF8000F000C0003FFFFF8000FFFF800000FFFC
310
000007FFFF80007F80003FFFFF0001FC0003FFFFF0001FF8000001FFFE000000
310
7FFFFFF0001FFFFFFF80003FFFFE0000FFFF80003FFFFE0000FFFF0003FFFFFF
310
FFE0003FFFFF8000F000C0003FFFFF8000FFFF800000FFFC000007FFFF80007F
310
80007FFFFF8001F80007FFFFF8000FF8000001FFFE0000007FFFFFF0001FFFFF
310
FF00007FFFFF00007FFF00007FFFFF00007FFF0003FFFFFFFFE0003FFFFFC000
310
F000C0007FFFFFC000FFFF000000FFFC000007FFFF80007F8000FFFFFF8000F8
310
000FFFFFF8000FF8000001FFFE0000007FFFFFF0001FFFFFFF0000FFFFFF8000
310
7FFF0000FFFFFF80007FFF0003FFFFFFFFC0007FFFFFC00070008000FFFFFFC0
310
00FFFF000000FFF8000007FFFF80007F8000FFFFFF8000F8000FFFFFF8000FF8
310
000001FFFE0000007FFFFFF0001FFFFFFE0001FFFFFFC0003FFE0001FFFFFFC0
310
003FFF0003FFFFFFFFC0007FFFFFE00070008000FFFFFFC0007FFF0000007FF8
310
000003FFFF80007F0001FFFFFF8000F8000FFFFFF8000FF8000001FFFE000000
310
7FFFFFF0001FFFFFFE0001FFFFFFC0003FFE0001FFFFFFC0003FFF0003FFFFFF
310
FFC000FFFFFFE00070008000FFFFFFC0007FFF0000007FF8000003FFFF80007F
310
0001FFFFFF8000F8001FFFFFF8000FF8000001FFFE0000007FFFFFF0001FFFFF
310
FE0003FFFFFFE0003FFE0003FFFFFFE0003FFF0003FFFFFFFFC000FFFFFFE000
310
70008000FFFFFFC0007FFE0000007FF8000003FFFF80007F0001FFFFFF8000F0
310
001FFFFFF8000FF8000001FFFE0000007FFFFFF0001FFFFFFC0003FFFFFFE000
310
1FFC0003FFFFFFE0001FFF0003FFFFFFFFC000FFFFFFC00070008000FFFFFF80
310
007FFE0000007FF0000003FFFF80007F0001FFFFFF0000F0001FFFFFF8000FF8
310
000001FFFE0000007FFFFFF0001FFFFFFC0007FFFFFFF0001FFC0007FFFFFFF0
310
001FFF0003FFFFFFFFC000FFFFFFC00070008001FFFFFF0000FFFE0000003FF0
310
000001FFFF80007F0001FFFFFF0000F8001FFFFFF0000FF8000001FFFE000000
310
7FFFFFF0001FFFFFFC0007FFFFFFF0001FFC0007FFFFFFF0001FFF0003FFFFFF
310
FFC001FFFFFF80007000FFFFFFFFFE0000FFFE0008003FF0008001FFFF80007F
310
FFFFFFFFFC0000FFFFFFFFFFE0000FF8000001FFFE0000007FFFFFF0001FFFFF
310
F8000FFFFFFFF8000FF8000FFFFFFFF8000FFF0003FFFFFFFFFFFFFFFFFF0000
310
7000FFFFFFFFFC0000FFFC0008003FF0008001FFFF80007FFFFFFFFFF80001FF
310
FFFFFFFF80000FF8000001FFFE0000007FFFFFF0001FFFFFF8000FFFFFFFF800
310
0FF8000FFFFFFFF8000FFF0003FFFFFFFFFFFFFFFFFE0000F000FFFFFFFFE000
310
00FFFC000C003FE000C001FFFF80007FFFFFFFFFC00001FFFFFFFFFE00001FF8
310
000001FFFE0000007FFFFFF0001FFFFFF8000FFFFFFFF8000FF8000FFFFFFFF8
310
000FFF0003FFFFFFFFFFFFFFFFF00000F000FFFFFFFE000001FFFC000C001FE0
310
00C000FFFF80007FFFFFFFFE000001FFFFFFFFE000001FF80FFFFFFFFFFFFFC0
310
7FFFFFF0001FFFFFF8000FFFFFFFF8000FF8000FFFFFFFF8000FFF0003FFFFFF
310
FFFFFFFFFF800000F000FFFFFFC0000001FFFC001C001FE001C000FFFF80007F
310
FFFFFF80000003FFFFFFF80000001FF80FFFFFFFFFFFFFC07FFFFFF0001FFFFF
310
F8001FFFFFFFFC000FF8001FFFFFFFFC000FFF0003FFFFFFFFFFFFFFF0000001
310
F000FFFFF800000001FFF8001C001FE001C000FFFF80007FFFFFF800000003FF
310
FFFF800000003FF80FFFFFFFFFFFFFC07FFFFFF0001FFFFFF8001FFFFFFFFC00
310
0FF8001FFFFFFFFC000FFF0003FFFFFFFFFFFFFE00000001F000FFFFC0000000
310
03FFF8001E001FC001E000FFFF80007FFFFF8000000007FFFFFC000000003FF8
310
0FFFFFFFFFFFFFC07FFFFFF0001FFFFFF8001FFFFFFFFC000FF8001FFFFFFFFC
310
000FFF0003FFFFFFFFFFFFE000000003F000FFFE0000000007FFF8001E000FC0
310
01E0007FFF80007FFFFE0000000007FFFFE0000000007FF80FFFFFFFFFFFFFC0
310
7FFFFFF0001FFFFFF0001FFFFFFFFC0007F0001FFFFFFFFC0007FF0003FFFFFF
310
FFFFFF0000000003F000FFF80000000007FFF8001E000FC003E0007FFF80007F
310
FFF0000000000FFFFF8000000000FFF80FFFFFFFFFFFFFC07FFFFFF0001FFFFF
310
F0001FFFFFFFFC0007F0001FFFFFFFFC0007FF0003FFFFFFFFFFFC0000000007
310
F000FFE0000000000FFFF0003E000FC003E0007FFF80007FFFC0000000001FFF
310
FE0000000001FFF80FFFFFFFFFFFFFC07FFFFFF0001FFFFFF0001FFFFFFFFC00
310
07F0001FFFFFFFFC0007FF0003FFFFFFFFFFF0000000000FF000FFC000000000
310
1FFFF0003F000F8003F0003FFF80007FFF80000000003FFFF80000000003FFF8
310
0FFFFFFFFFFFFFC07FFFFFF0001FFFFFF0001FFFFFFFFC0007F0001FFFFFFFFC
310
0007FF0003FFFFFFFFFFE0000000001FF000FF00000000007FFFF0003F000780
310
03F0003FFF80007FFF00000000007FFFF00000000007FFF80FFFFFFFFFFFFFC0
310
7FFFFFF0001FFFFFF0001FFFFFFFFC0007F0001FFFFFFFFC0007FF0003FFFFFF
310
FFFF80000000007FF000FE0000000000FFFFE0003F00078007F0003FFF80007F
310
FE0000000001FFFFE0000000001FFFF80FFFFFFFFFFFFFC07FFFFFF0001FFFFF
310
F0001FFFFFFFFC0007F0001FFFFFFFFC0007FF0003FFFFFFFFFF0000000000FF
310
F000FC0000000003FFFFE0007F00078007F0003FFF80007FFC0000000007FFFF
310
C0000000007FFFF80FFFFFFFFFFFFFC07FFFFFF0001FFFFFF8001FFFFFFFFC00
310
0FF8001FFFFFFFFC000FFF0003FFFFFFFFFE0000000003FFF000FC000000000F
310
FFFFE0007F80070007F8001FFF80007FF8000000001FFFFF8000000001FFFFF8
310
0FFFFFFFFFFFFFC07FFFFFF0001FFFFFF8001FFFFFFFFC000FF8001FFFFFFFFC
310
000FFF0003FFFFFFFFFC000000000FFFF000F8000000007FFFFFE0007F800700
310
07F8001FFF80007FF000000000FFFFFF800000000FFFFFF80FFFFFFFFFFFFFC0
310
7FFFFFF0001FFFFFF8000FFFFFFFF8000FF8000FFFFFFFF8000FFF0003FFFFFF
310
FFFC000000007FFFF000F800000007FFFFFFC0007F8003000FF8001FFF80007F
310
F000000007FFFFFF000000007FFFFFF80FFFFFFFFFFFFFC07FFFFFF0001FFFFF
310
F8000FFFFFFFF8000FF8000FFFFFFFF8000FFF0003FFFFFFFFF80000000FFFFF
310
F000F0000000FFFFFFFFC000FF8003000FF8001FFF80007FE0000000FFFFFFFF
310
0000000FFFFFFFF8000001FFFE0000007FFFFFF0001FFFFFF8000FFFFFFFF800
310
0FF8000FFFFFFFF8000FFF0003FFFFFFFFF8000000FFFFFFF000F000000FFFFF
310
FFFFC000FFC002000FF8000FFF80007FE000001FFFFFFFFE000001FFFFFFFFF8
310
000001FFFE0000007FFFFFF0001FFFFFF8000FFFFFFFF8000FF8000FFFFFFFF8
310
000FFF0003FFFFFFFFF000001FFFFFFFF000E00000FFFFFFFFFFC000FFC00200
310
0FFC000FFF80007FE00001FFFFFFFFFE00001FFFFFFFFFF8000001FFFE000000
310
7FFFFFF0001FFFFFFC000FFFFFFFF8001FFC000FFFFFFFF8001FFF0003FFFFFF
310
FFF00001FFFFFFFFF000E00007FFFFFFFFFF8000FFC000001FFC000FFF80007F
310
C0000FFFFFFFFFFE0000FFFFFFFFFFF8000001FFFE0000007FFFFFF0001FFFFF
310
FC0007FFFFFFF0001FFC0007FFFFFFF0001FFF0003FFFFFFFFF00007FFFFFFFF
310
F000E0001FFFFFFFFFFF8000FFC000001FFC000FFF80007FC0003FFFFFFFFFFE
310
0001FFFFFFFFFFF8000001FFFE0000007FFFFFF0001FFFFFFC0007FFFFFFF000
310
1FFC0007FFFFFFF0001FFF0003FFFFFFFFF0001FFFFFFFFFF000E0003FFFFF00
310
03FF8001FFE000001FFC0007FF80007FC0007FFFFF0007FC0003FFFFF0003FF8
310
000001FFFE0000007FFFFFF0001FFFFFFC0003FFFFFFE0001FFC0003FFFFFFE0
310
001FFF0003FFFFFFFFF0003FFFFFFFFFF000E0003FFFFF0001FF8001FFE00000
310
1FFE0007FF80007FC0007FFFFE0003FC0007FFFFE0003FF8000001FFFE000000
310
7FFFFFF0001FFFFFFE0003FFFFFFE0003FFE0003FFFFFFE0003FFF0003FFFFFF
310
FFF0003FFFFF8001F000E0003FFFFF0001FF0001FFE000001FFE0007FF80007F
310
C0007FFFFE0003FC0007FFFFE0003FF8000001FFFE0000007FFFFFF0001FFFFF
310
FE0001FFFFFFC0003FFE0001FFFFFFC0003FFF0003FFFFFFFFF0003FFFFF0001
310
F000E0003FFFFF0003FF0001FFE000003FFE0007FF80007FC0007FFFFE0003FC
310
0007FFFFE0003FF8000001FFFE0000007FFFFFF0001FFFFFFF0001FFFFFFC000
310
7FFF0001FFFFFFC0007FFF0003FFFFFFFFF0003FFFFF0001F000E0003FFFFE00
310
03FF0003FFF000003FFE0003FF80007FC0007FFFFC0003FE0007FFFFE0003FF8
310
000001FFFE0000007FFFFFF0001FFFFFFF0000FFFFFF80007FFF0000FFFFFF80
310
007FFF0003FFFFFFFFF0003FFFFF0001F000E0003FFFFE0003FF0003FFF00000
310
3FFF0003FF80007FC0007FFFFC0007FE0007FFFFC0003FF8000001FFFE000000
310
7FFFFFF0001FFFFFFF80007FFFFF0000FFFF80007FFFFF0000FFFF0003FFFFFF
310
FFF0003FFFFF0003F000E0003FFFFC0003FE0003FFF000003FFF0003FF80007F
310
E0003FFFF80007FE0003FFFFC0007FF8000001FFFE0000007FFFFFF0001FFFFF
310
FF80003FFFFE0000FFFF80003FFFFE0000FFFF0003FFFFFFFFF0001FFFFE0003
310
F000F0001FFFF80003FE0003FFF000007FFF0001FF80007FE0003FFFF00007FE
310
0001FFFF80007FF8000001FFFE0000007FFFFFF0001FFFFFFFC0000FFFF80001
310
FFFFC0000FFFF80001FFFF0003FFFFFFFFF0001FFFFC0003F000F0000FFFF000
310
07FE0007FFF800007FFF0001FF80007FE0001FFFE00007FF0000FFFE00007FF8
310
000001FFFE0000007FFFFFF0001FFFFFFFC00003FFE00001FFFFC00003FFE000
310
01FFFF0003FFFFFFFFF8000FFFF80003F000F00003FFC00007FC0007FFF80000
310
7FFF8001FF80007FF00007FF80000FFF00007FF80000FFF8000001FFFE000000
310
7F80000000000001FFE000003E000003FFFFE000003E000003FFFF0003FFFFFF
310
FFF80003FFE00007F000F800000000000FFC0007FFF800007FFF8001FF80007F
310
F000000000000FFF000000000000FFF8000001FFFE0000007F80000000000001
310
FFF0000000000007FFFFF0000000000007FFFF0003FFFFFFFFFC00007E000007
310
F000F800000000000FFC0007FFF80000FFFF8000FF80007FF800000000001FFF
310
800000000001FFF8000001FFFE0000007F80000000000001FFF800000000000F
310
FFFFF800000000000FFFFF0003FFFFFFFFFC00000000000FF000FC0000000000
310
1FFC0007FFFC0000FFFF8000FF80007FF800000000003FFFC00000000001FFF8
310
000001FFFE0000007F80000000000001FFF800000000000FFFFFF80000000000
310
0FFFFF0003FFFFFFFFFE00000000001FF000FE00000000003FF8000FFFFC0000
310
FFFF8000FF80007FFC00000000003FFFC00000000003FFF8000001FFFE000000
310
7F80000000000001FFFC00000000001FFFFFFC00000000001FFFFF0003FFFFFF
310
FFFF00000000001FF000FF00000000003FF8000FFFFC0000FFFFC000FF80007F
310
FE00000000007FFFE00000000007FFF8000001FFFE0000007F80000000000001
310
FFFE00000000003FFFFFFE00000000003FFFFF0003FFFFFFFFFF80000000003F
310
F000FF80000000007FF8000FFFFC0001FFFFC0007F80007FFF0000000000FFFF
310
F0000000000FFFF800000000000000007F80000000000001FFFF8000000000FF
310
FFFFFF8000000000FFFFFF0003FFFFFFFFFFC0000000007FF000FFC000000000
310
FFF8000FFFFE0001FFFFC0007F80007FFF8000000001FFFFF8000000001FFFF8
310
00000000000000007F80000000000001FFFFC000000001FFFFFFFFC000000001
310
FFFFFF0003FFFFFFFFFFE000000000FFF000FFE000000003FFF0001FFFFE0001
310
FFFFC0007F80007FFFC000000007FFFFFE000000003FFFF80000000000000000
310
7F80000000000001FFFFE000000003FFFFFFFFE000000003FFFFFF0003FFFFFF
310
FFFFF000000003FFF000FFF80000000FFFF0001FFFFE0001FFFFE0007F80007F
310
FFF00000000FFFFFFF00000000FFFFF800000000000000007F80000000000001
310
FFFFF80000000FFFFFFFFFF80000000FFFFFFF0003FFFFFFFFFFFC0000000FFF
310
F000FFFE0000003FFFF0001FFFFE0003FFFFE0003F80007FFFFC0000003FFFFF
310
FFC0000003FFFFF800000000000000007F80000000000001FFFFFE0000003FFF
310
FFFFFFFE0000003FFFFFFF0003FFFFFFFFFFFF0000003FFFF000FFFF800000FF
310
FFF0001FFFFF0003FFFFE0003F80007FFFFF000001FFFFFFFFF800001FFFFFF8
310
00000000000000007F80000000000001FFFFFFC00001FFFFFFFFFFFFC00001FF
310
FFFFFF0003FFFFFFFFFFFFC00000FFFFF000FFFFF8000FFFFFFFFFFFFFFFFFFF
310
FFFFFFFFFFFFFFFFFFFFF0001FFFFFFFFFFF0000FFFFFFF80000000000000000
310
7FFFFFFFFFFFFFFFFFFFFFFC001FFFFFFFFFFFFFFC001FFFFFFFFFFFFFFFFFFF
310
FFFFFFFC001FFFFFF000FFFFFFFFFFFFFFFFFFFFFFFFFFFFFFFFFFFFFFFFFFFF
310
FFFFFFFFFFFFFFFFFFFFFFFFFFFFFFFFFFFFFFFFFFFFFFFFFFFFFFFFFFFFFFFF
310
FFFFFFFFFFFFFFFFFFFFFFFFFFFFFFFFFFFFFFFFFFFFFFFFFFFFFFFFFFFFFFFF
310
F000FFFFFFFFFFFFFFFFFFFFFFFFFFFFFFFFFFFFFFFFFFFFFFFFFFFFFFFFFFFF
310
FFFFFFFFFFFFFFFFFFFFFFFFFFFFFFFFFFFFFFFFFFFFFFFFFFFFFFFFFFFFFFFF
310
FFFFFFFFFFFFFFFFFFFFFFFFFFFFFFFFFFFFFFFFFFFFFFFFF000FFFFFFFFFFFF
310
FFFFFFFFFFFFFFFFFFFFFFFFFFFFFFFFFFFFFFFFFFFFFFFFFFFFFFFFFFFFFFFF
310
FFFFFFFFFFFFFFFFFFFFFFFFFFFFFFFFFFFFFFFFFFFFFFFFFFFFFFFFFFFFFFFF
310
FFFFFFFFFFFFFFFFFFFFFFFFFFFFFFFFF000FFFFFFFFFFFFFFFFFFFFFFFFFFFF
310
FFFFFFFFFFFFFFFFFFFFFFFFFFFFFFFFFFFFFFFFFFFFFFFFFFFFFFFFFFFFFFFF
310
FFFFFFFFFFFFFFFFFFFFFFFFFFFFFFFFFFFFFFFFFFFFFFFFFFFFFFFFFFFFFFFF
310
FFFFFFFFFFFFFFFFF000FFFFFFFFFFFFFFFFFFFFFFFFFFFFFFFFFFFFFFFFFFFF
310
FFFFFFFFFFFFFFFFFFFFFFFFFFFFFFFFFFFFFFFFFFFFFFFFFFFFFFFFFFFFFFFF
310
FFFFFFFFFFFFFFFFFFFFFFFFFFFFFFFFFFFFFFFFFFFFFFFFFFFFFFFFFFFFFFFF
310
F000FFFFFFFFFFFFFFFFFFFFFFFFFFFFFFFFFFFFFFFFFFFFFFFFFFFFFFFFFFFF
310
FFFFFFFFFFFFFFFFFFFFFFFFFFFFFFFFFFFFFFFFFFFFFFFFFFFFFFFFFFFFFFFF
310
FFFFFFFFFFFFFFFFFFFFFFFFFFFFFFFFFFFFFFFFFFFFFFFFF000FFFFFFFFFFFF
310
FFFFFFFFFFFFFFFFFFFFFFFFFFFFFFFFFFFFFFFFFFFFFFFFFFFFFFFFFFFFFFFF
310
FFFFFFFFFFFFFFFFFFFFFFFFFFFFFFFFFFFFFFFFFFFFFFFFFFFFFFFFFFFFFFFF
310
FFFFFFFFFFFFFFFFFFFFFFFFFFFFFFFFF000FFFFFFFFFFFFFFFFFFFFFFFFFFFF
310
FFFFFFFFFFFFFFFFFFFFFFFFFFFFFFFFFFFFFFFFFFFFFFFFFFFFFFFFFFFFFFFF
310
FFFFFFFFFFFFFFFFFFFFFFFFFFFFFFFFFFFFFFFFFFFFFFFFFFFFFFFFFFFFFFFF
310
FFFFFFFFFFFFFFFFF000FFFFFFFFFFFFFFFFFFFFFFFFFFFFFFFFFFFFFFFFFFFF
310
FFFFFFFFFFFFFFFFFFFFFFFFFFFFFFFFFFFFFFFFFFFFFFFFFFFFFFFFFFFFFFFF
310
FFFFFFFFFFFFFFFFFFFFFFFFFFFFFFFFFFFFFFFFFFFFFFFFFFFFFFFFFFFFFFFF
310
F000FFFFFFFFFFFFFFFFFFFFFFFFFFFFFFFFFFFFFFFFFFFFFFFFFFFFFFFFFFFF
310
FFFFFFFFFFFFFFFFFFFFFFFFFFFFFFFFFFFFFFFFFFFFFFFFFFFFFFFFFFFFFFFF
310
FFFFFFFFFFFFFFFFFFFFFFFFFFFFFFFFFFFFFFFFFFFFFFFFF000FFFFFFFFFFFF
310
FFFFFFFFFFFFFFFFFFFFFFFFFFFFFFFFFFFFFFFFFFFFFFFFFFFFFFFFFFFFFFFF
310
FFFFFFFFFFFFFFFFFFFFFFFFFFFFFFFFFFFFFFFFFFFFFFFFFFFFFFFFFFFFFFFF
310
FFFFFFFFFFFFFFFFFFFFFFFFFFFFFFFFF000FFFFFFFFFFFFFFFFFFFFFFFFFFFF
310
FFFFFFFFFFFFFFFFFFFFFFFFFFFFFFFFFFFFFFFFFFFFFFFFFFFFFFFFFFFFFFFF
310
FFFFFFFFFFFFFFFFFFFFFFFFFFFFFFFFFFFFFFFFFFFFFFFFFFFFFFFFFFFFFFFF
310
FFFFFFFFFFFFFFFFF000FFFFFFFFFFFFFFFFFFFFFFFFFFFFFFFFFFFFFFFFFFFF
310
FFFFFFFFFFFFFFFFFFFFFFFFFFFFFFFFFFFFFFFFFFFFFFFFFFFFFFFFFFFFFFFF
310
FFFFFFFFFFFFFFFFFFFFFFFFFFFFFFFFFFFFFFFFFFFFFFFFFFFFFFFFFFFFFFFF
310
F000FFFFFFFFFFFFFFFFFFFFFFFFFFFFFFFFFFFFFFFFFFFFFFFFFFFFFFFFFFFF
310
FFFFFFFFFFFFFFFFFFFFFFFFFFFFFFFFFFFFFFFFFFFFFFFFFFFFFFFFFFFFFFFF
310
FFFFFFFFFFFFFFFFFFFFFFFFFFFFFFFFFFFFFFFFFFFFFFFFF000FFFFFFFFFFFF
310
FFFFFFFFFFFFFFFFFFFFFFFFFFFFFFFFFFFFFFFFFFFFFFFFFFFFFFFFFFFFFFFF
310
FFFFFFFFFFFFFFFFFFFFFFFFFFFFFFFFFFFFFFFFFFFFFFFFFFFFFFFFFFFFFFFF
310
FFFFFFFFFFFFFFFFFFFFFFFFFFFFFFFFF000FFFFFFFFFFFFFFFFFFFFFFFFFFFF
310
FFFFFFFFFFFFFFFFFFFFFFFFFFFFFFFFFFFFFFFFFFFFFFFFFFFFFFFFFFFFFFFF
310
FFFFFFFFFFFFFFFFFFFFFFFFFFFFFFFFFFFFFFFFFFFFFFFFFFFFFFFFFFFFFFFF
310
FFFFFFFFFFFFFFFFF000FFFFFFFFFFFFFFFFFFFFFFFFFFFFFFFFFFFFFFFFFFFF
310
FFFFFFFFFFFFFFFFFFFFFFFFFFFFFFFFFFFFFFFFFFFFFFFFFFFFFFFFFFFFFFFF
310
FFFFFFFFFFFFFFFFFFFFFFFFFFFFFFFFFFFFFFFFFFFFFFFFFFFFFFFFFFFFFFFF
310
F000FFFFFFFFFFFFFFFFFFFFFFFFFFFFFFFFFFFFFFFFFFFFFFFFFFFFFFFFFFFF
310
FFFFFFFFFFFFFFFFFFFFFFFFFFFFFFFFFFFFFFFFFFFFFFFFFFFFFFFFFFFFFFFF
310
FFFFFFFFFFFFFFFFFFFFFFFFFFFFFFFFFFFFFFFFFFFFFFFFF000FFFFFFFFFFFF
310
FFFFFFFFFFFFFFFFFFFFFFFFFFFFFFFFFFFFFFFFFFFFFFFFFFFFFFFFFFFFFFFF
310
FFFFFFFFFFFFFFFFFFFFFFFFFFFFFFFFFFFFFFFFFFFFFFFFFFFFFFFFFFFFFFFF
310
FFFFFFFFFFFFFFFFFFFFFFFFFFFFFFFFF000FFFFFFFFFFFFFFFFFFFFFFFFFFFF
310
FFFFFFFFFFFFFFFFFFFFFFFFFFFFFFFFFFFFFFFFFFFFFFFFFFFFFFFFFFFFFFFF
310
FFFFFFFFFFFFFFFFFFFFFFFFFFFFFFFFFFFFFFFFFFFFFFFFFFFFFFFFFFFFFFFF
310
FFFFFFFFFFFFFFFFF000FFFFFFFFFFFFFFFFFFFFFFFFFFFFFFFFFFFFFFFFFFFF
310
FFFFFFFFFFFFFFFFFFFFFFFFFFFFFFFFFFFFFFFFFFFFFFFFFFFFFFFFFFFFFFFF
310
FFFFFFFFFFFFFFFFFFFFFFFFFFFFFFFFFFFFFFFFFFFFFFFFFFFFFFFFFFFFFFFF
310
F000FFFFFFFFFFFFFFFFFFFFFFFFFFFFFFFFFFFFFFFFFFFFFFFFFFFFFFFFFFFF
310
FFFFFFFFFFFFFFFFFFFFFFFFFFFFFFFFFFFFFFFFFFFFFFFFFFFFFFFFFFFFFFFF
310
FFFFFFFFFFFFFFFFFFFFFFFFFFFFFFFFFFFFFFFFFFFFFFFFF000FFFFFFFFFFFF
310
FFFFFFFFFFFFFFFFFFFFFFFFFFFFFFFFFFFFFFFFFFFFFFFFFFFFFFFFFFFFFFFF
310
FFFFFFFFFFFFFFFFFFFFFFFFFFFFFFFFFFFFFFFFFFFFFFFFFFFFFFFFFFFFFFFF
310
FFFFFFFFFFFFFFFFFFFFFFFFFFFFFFFFF0000000000000000000000000000000
310
0000000001000000010000000100000001000000010000000100000001000000
310
0100000001000000010000000100000001000000010000000100000001000000
310
0100000001000000000000000100000001000000000000000100000001000000
310
0100000001000000010000000100000001000000010000000100000001000000
310
0100000001000000010000000100000001000000010000000100000001000000
310
0100000001000000010000000000000001000000010000000100000001000000
310
0000000001000000000000000100000001000000010000000100000001000000
310
0100000001000000010000000100000001000000010000000100000001000000
310
0100000001000000010000000100000001000000010000000100000001000000
310
0100000001000000010000000100000001000000000000000100000000000000
310
0100000001000000010000000100000000000000010000000100000000000000
310
0100000001000000010000000000000000000000000000000000000000000000
310
00000000000000000000000000000000000000000000000099001C0300000005
310
2012827200000000C80225000000000000000000000000000000000000000000
310
0000000000000000000000000000000000000000000000000000000000000000
  1
OLE
  0
ENDSEC
  0
SECTION
  2
OBJECTS
  0
DICTIONARY
  5
C
330
0
100
AcDbDictionary
281
     1
  3
ACAD_GROUP
350
D
  3
ACAD_LAYOUT
350
1A
  3
ACAD_MLEADERSTYLE
350
203
  3
ACAD_MLINESTYLE
350
17
  3
ACAD_PLOTSETTINGS
350
19
  3
ACAD_PLOTSTYLENAME
350
E
  3
ACAD_TABLESTYLE
350
202
  3
ACAD_VISUALSTYLE
350
2A
  3
AcDbVariableDictionary
350
204
  0
DICTIONARY
  5
D
102
{ACAD_REACTORS
330
C
102
}
330
C
100
AcDbDictionary
281
     1
  0
DICTIONARY
  5
1A
102
{ACAD_REACTORS
330
C
102
}
330
C
100
AcDbDictionary
281
     1
  3
Layout1
350
1E
  3
Layout2
350
26
  3
Model
350
22
  0
DICTIONARY
  5
203
102
{ACAD_REACTORS
330
C
102
}
330
C
100
AcDbDictionary
281
     1
  0
DICTIONARY
  5
17
102
{ACAD_REACTORS
330
C
102
}
330
C
100
AcDbDictionary
281
     1
  3
Standard
350
18
  0
DICTIONARY
  5
19
102
{ACAD_REACTORS
330
C
102
}
330
C
100
AcDbDictionary
281
     1
  0
ACDBDICTIONARYWDFLT
  5
E
102
{ACAD_REACTORS
330
C
102
}
330
C
100
AcDbDictionary
281
     1
  3
Normal
350
F
100
AcDbDictionaryWithDefault
340
F
  0
DICTIONARY
  5
202
102
{ACAD_REACTORS
330
C
102
}
330
C
100
AcDbDictionary
281
     1
  0
DICTIONARY
  5
2A
102
{ACAD_REACTORS
330
C
102
}
330
C
100
AcDbDictionary
281
     1
  3
2dWireframe
350
2F
  3
3D Hidden
350
31
  3
3dWireframe
350
30
  3
Basic
350
32
  3
Brighten
350
36
  3
ColorChange
350
3A
  3
Conceptual
350
34
  3
Dim
350
35
  3
Facepattern
350
39
  3
Flat
350
2B
  3
FlatWithEdges
350
2C
  3
Gouraud
350
2D
  3
GouraudWithEdges
350
2E
  3
Linepattern
350
38
  3
Realistic
350
33
  3
Thicken
350
37
  0
DICTIONARY
  5
204
102
{ACAD_REACTORS
330
C
102
}
330
C
100
AcDbDictionary
281
     1
  3
PSOLHEIGHT
350
206
  3
PSOLWIDTH
350
205
  0
LAYOUT
  5
1E
102
{ACAD_REACTORS
330
1A
102
}
330
1A
100
AcDbPlotSettings
  1

  2
none_device
  4

  6

 40
0.0
 41
0.0
 42
0.0
 43
0.0
 44
0.0
 45
0.0
 46
0.0
 47
0.0
 48
0.0
 49
0.0
140
0.0
141
0.0
142
1.0
143
1.0
 70
   688
 72
     0
 73
     0
 74
     5
  7

 75
    16
147
1.0
148
0.0
149
0.0
100
AcDbLayout
  1
Layout1
 70
     1
 71
     1
 10
0.0
 20
0.0
 11
420.0
 21
297.0
 12
0.0
 22
0.0
 32
0.0
 14
1.0000000000E+20
 24
1.0000000000E+20
 34
1.0000000000E+20
 15
-1.0000000000E+20
 25
-1.0000000000E+20
 35
-1.0000000000E+20
146
0.0
 13
0.0
 23
0.0
 33
0.0
 16
1.0
 26
0.0
 36
0.0
 17
0.0
 27
1.0
 37
0.0
 76
     0
330
1B
  0
LAYOUT
  5
26
102
{ACAD_REACTORS
330
1A
102
}
330
1A
100
AcDbPlotSettings
  1

  2
none_device
  4

  6

 40
0.0
 41
0.0
 42
0.0
 43
0.0
 44
0.0
 45
0.0
 46
0.0
 47
0.0
 48
0.0
 49
0.0
140
0.0
141
0.0
142
1.0
143
1.0
 70
   688
 72
     0
 73
     0
 74
     5
  7

 75
    16
147
1.0
148
0.0
149
0.0
100
AcDbLayout
  1
Layout2
 70
     1
 71
     2
 10
0.0
 20
0.0
 11
0.0
 21
0.0
 12
0.0
 22
0.0
 32
0.0
 14
0.0
 24
0.0
 34
0.0
 15
0.0
 25
0.0
 35
0.0
146
0.0
 13
0.0
 23
0.0
 33
0.0
 16
1.0
 26
0.0
 36
0.0
 17
0.0
 27
1.0
 37
0.0
 76
     0
330
23
  0
LAYOUT
  5
22
102
{ACAD_REACTORS
330
1A
102
}
330
1A
100
AcDbPlotSettings
  1

  2
none_device
  4

  6

 40
0.0
 41
0.0
 42
0.0
 43
0.0
 44
0.0
 45
0.0
 46
0.0
 47
0.0
 48
0.0
 49
0.0
140
0.0
141
0.0
142
1.0
143
1.0
 70
  1712
 72
     0
 73
     0
 74
     0
  7

 75
     0
147
1.0
148
0.0
149
0.0
100
AcDbLayout
  1
Model
 70
     1
 71
     0
 10
0.0
 20
0.0
 11
297.0
 21
210.0
 12
0.0
 22
0.0
 32
0.0
 14
0.0
 24
0.0
 34
0.0
 15
297.0
 25
210.0
 35
0.0
146
0.0
 13
0.0
 23
0.0
 33
0.0
 16
1.0
 26
0.0
 36
0.0
 17
0.0
 27
1.0
 37
0.0
 76
     0
330
1F
331
29
  0
MLINESTYLE
  5
18
102
{ACAD_REACTORS
330
17
102
}
330
17
100
AcDbMlineStyle
  2
Standard
 70
     0
  3

 62
   256
 51
90.0
 52
90.0
 71
     2
 49
0.5
 62
   256
  6
BYLAYER
 49
-0.5
 62
   256
  6
BYLAYER
  0
ACDBPLACEHOLDER
  5
F
102
{ACAD_REACTORS
330
E
102
}
330
E
  0
VISUALSTYLE
  5
2F
102
{ACAD_REACTORS
330
2A
102
}
330
2A
100
AcDbVisualStyle
  2
2dWireframe
 70
     4
 71
     0
 72
     2
 73
     0
 90
        0
 40
-0.6
 41
-30.0
 62
     5
 63
     7
 74
     1
 91
        4
 64
     7
 65
   257
 75
     1
175
     1
 42
1.0
 92
        0
 66
   257
 43
1.0
 76
     1
 77
     6
 78
     2
 67
     7
 79
     5
170
     0
171
     0
290
     0
174
     0
 93
        1
 44
0.0
173
     0
291
     0
 45
0.0
1001
ACAD
1000
AcDbSavedByObjectVersion
1070
     0
  0
VISUALSTYLE
  5
31
102
{ACAD_REACTORS
330
2A
102
}
330
2A
100
AcDbVisualStyle
  2
3D Hidden
 70
     6
 71
     1
 72
     2
 73
     2
 90
        0
 40
-0.6
 41
-30.0
 62
     5
 63
     7
 74
     2
 91
        2
 64
     7
 65
   257
 75
     2
175
     1
 42
40.0
 92
        0
 66
   257
 43
1.0
 76
     1
 77
     6
 78
     2
 67
     7
 79
     3
170
     0
171
     0
290
     0
174
     0
 93
        1
 44
0.0
173
     0
291
     0
 45
0.0
1001
ACAD
1000
AcDbSavedByObjectVersion
1070
     0
  0
VISUALSTYLE
  5
30
102
{ACAD_REACTORS
330
2A
102
}
330
2A
100
AcDbVisualStyle
  2
3dWireframe
 70
     5
 71
     0
 72
     2
 73
     0
 90
        0
 40
-0.6
 41
-30.0
 62
     5
 63
     7
 74
     1
 91
        4
 64
     7
 65
   257
 75
     1
175
     1
 42
1.0
 92
        0
 66
   257
 43
1.0
 76
     1
 77
     6
 78
     2
 67
     7
 79
     5
170
     0
171
     0
290
     0
174
     0
 93
        1
 44
0.0
173
     0
291
     0
 45
0.0
1001
ACAD
1000
AcDbSavedByObjectVersion
1070
     0
  0
VISUALSTYLE
  5
32
102
{ACAD_REACTORS
330
2A
102
}
330
2A
100
AcDbVisualStyle
  2
Basic
 70
     7
 71
     1
 72
     0
 73
     1
 90
        0
 40
-0.6
 41
-30.0
 62
     5
 63
     7
 74
     0
 91
        4
 64
     7
 65
   257
 75
     1
175
     1
 42
1.0
 92
        8
 66
     7
 43
1.0
 76
     1
 77
     6
 78
     2
 67
     7
 79
     5
170
     0
171
     0
290
     0
174
     0
 93
        1
 44
0.0
173
     0
291
     1
 45
0.0
1001
ACAD
1000
AcDbSavedByObjectVersion
1070
     0
  0
VISUALSTYLE
  5
36
102
{ACAD_REACTORS
330
2A
102
}
330
2A
100
AcDbVisualStyle
  2
Brighten
 70
    12
 71
     2
 72
     2
 73
     0
 90
        0
 40
-0.6
 41
-30.0
 62
     5
 63
     7
 74
     1
 91
        4
 64
     7
 65
   257
 75
     1
175
     1
 42
1.0
 92
        8
 66
     7
 43
1.0
 76
     1
 77
     6
 78
     2
 67
     7
 79
     5
170
     0
171
     0
290
     0
174
     0
 93
        1
 44
50.0
173
     0
291
     1
 45
0.0
1001
ACAD
1000
AcDbSavedByObjectVersion
1070
     0
  0
VISUALSTYLE
  5
3A
102
{ACAD_REACTORS
330
2A
102
}
330
2A
100
AcDbVisualStyle
  2
ColorChange
 70
    16
 71
     2
 72
     2
 73
     3
 90
        0
 40
-0.6
 41
-30.0
 62
     5
 63
     8
 74
     1
 91
        4
 64
     7
 65
   257
 75
     1
175
     1
 42
1.0
 92
        8
 66
     8
 43
1.0
 76
     1
 77
     6
 78
     2
 67
     7
 79
     5
170
     0
171
     0
290
     0
174
     0
 93
        1
 44
0.0
173
     0
291
     1
 45
0.0
1001
ACAD
1000
AcDbSavedByObjectVersion
1070
     0
  0
VISUALSTYLE
  5
34
102
{ACAD_REACTORS
330
2A
102
}
330
2A
100
AcDbVisualStyle
  2
Conceptual
 70
     9
 71
     3
 72
     2
 73
     0
 90
        0
 40
-0.6
 41
-30.0
 62
     5
 63
     7
 74
     2
 91
        2
 64
     7
 65
   257
 75
     1
175
     1
 42
40.0
 92
        8
 66
     7
 43
1.0
 76
     1
 77
     6
 78
     2
 67
     7
 79
     3
170
     0
171
     0
290
     0
174
     0
 93
        1
 44
0.0
173
     0
291
     0
 45
0.0
1001
ACAD
1000
AcDbSavedByObjectVersion
1070
     0
  0
VISUALSTYLE
  5
35
102
{ACAD_REACTORS
330
2A
102
}
330
2A
100
AcDbVisualStyle
  2
Dim
 70
    11
 71
     2
 72
     2
 73
     0
 90
        0
 40
-0.6
 41
-30.0
 62
     5
 63
     7
 74
     1
 91
        4
 64
     7
 65
   257
 75
     1
175
     1
 42
1.0
 92
        8
 66
     7
 43
1.0
 76
     1
 77
     6
 78
     2
 67
     7
 79
     5
170
     0
171
     0
290
     0
174
     0
 93
        1
 44
-50.0
173
     0
291
     1
 45
0.0
1001
ACAD
1000
AcDbSavedByObjectVersion
1070
     0
  0
VISUALSTYLE
  5
39
102
{ACAD_REACTORS
330
2A
102
}
330
2A
100
AcDbVisualStyle
  2
Facepattern
 70
    15
 71
     2
 72
     2
 73
     0
 90
        0
 40
-0.6
 41
-30.0
 62
     5
 63
     7
 74
     1
 91
        4
 64
     7
 65
   257
 75
     1
175
     1
 42
1.0
 92
        8
 66
     7
 43
1.0
 76
     1
 77
     6
 78
     2
 67
     7
 79
     5
170
     0
171
     0
290
     0
174
     0
 93
        1
 44
0.0
173
     0
291
     1
 45
0.0
1001
ACAD
1000
AcDbSavedByObjectVersion
1070
     0
  0
VISUALSTYLE
  5
2B
102
{ACAD_REACTORS
330
2A
102
}
330
2A
100
AcDbVisualStyle
  2
Flat
 70
     0
 71
     2
 72
     1
 73
     1
 90
        2
 40
-0.6
 41
30.0
 62
     5
 63
     7
 74
     0
 91
        4
 64
     7
 65
   257
 75
     1
175
     1
 42
1.0
 92
        8
 66
     7
 43
1.0
 76
     1
 77
     6
 78
     2
 67
     7
 79
     5
170
     0
171
     0
290
     0
174
     0
 93
       13
 44
0.0
173
     0
291
     1
 45
0.0
1001
ACAD
1000
AcDbSavedByObjectVersion
1070
     0
  0
VISUALSTYLE
  5
2C
102
{ACAD_REACTORS
330
2A
102
}
330
2A
100
AcDbVisualStyle
  2
FlatWithEdges
 70
     1
 71
     2
 72
     1
 73
     1
 90
        2
 40
-0.6
 41
30.0
 62
     5
 63
     7
 74
     1
 91
        4
 64
     7
 65
   257
 75
     1
175
     1
 42
1.0
 92
        0
 66
   257
 43
1.0
 76
     1
 77
     6
 78
     2
 67
     7
 79
     5
170
     0
171
     0
290
     0
174
     0
 93
       13
 44
0.0
173
     0
291
     1
 45
0.0
1001
ACAD
1000
AcDbSavedByObjectVersion
1070
     0
  0
VISUALSTYLE
  5
2D
102
{ACAD_REACTORS
330
2A
102
}
330
2A
100
AcDbVisualStyle
  2
Gouraud
 70
     2
 71
     2
 72
     2
 73
     1
 90
        2
 40
-0.6
 41
30.0
 62
     5
 63
     7
 74
     0
 91
        4
 64
     7
 65
   257
 75
     1
175
     1
 42
1.0
 92
        0
 66
     7
 43
1.0
 76
     1
 77
     6
 78
     2
 67
     7
 79
     5
170
     0
171
     0
290
     0
174
     0
 93
       13
 44
0.0
173
     0
291
     1
 45
0.0
1001
ACAD
1000
AcDbSavedByObjectVersion
1070
     0
  0
VISUALSTYLE
  5
2E
102
{ACAD_REACTORS
330
2A
102
}
330
2A
100
AcDbVisualStyle
  2
GouraudWithEdges
 70
     3
 71
     2
 72
     2
 73
     1
 90
        2
 40
-0.6
 41
30.0
 62
     5
 63
     7
 74
     1
 91
        4
 64
     7
 65
   257
 75
     1
175
     1
 42
1.0
 92
        0
 66
   257
 43
1.0
 76
     1
 77
     6
 78
     2
 67
     7
 79
     5
170
     0
171
     0
290
     0
174
     0
 93
       13
 44
0.0
173
     0
291
     1
 45
0.0
1001
ACAD
1000
AcDbSavedByObjectVersion
1070
     0
  0
VISUALSTYLE
  5
38
102
{ACAD_REACTORS
330
2A
102
}
330
2A
100
AcDbVisualStyle
  2
Linepattern
 70
    14
 71
     2
 72
     2
 73
     0
 90
        0
 40
-0.6
 41
-30.0
 62
     5
 63
     7
 74
     1
 91
        4
 64
     7
 65
   257
 75
     7
175
     7
 42
1.0
 92
        8
 66
     7
 43
1.0
 76
     1
 77
     6
 78
     2
 67
     7
 79
     5
170
     0
171
     0
290
     0
174
     0
 93
        1
 44
0.0
173
     0
291
     1
 45
0.0
1001
ACAD
1000
AcDbSavedByObjectVersion
1070
     0
  0
VISUALSTYLE
  5
33
102
{ACAD_REACTORS
330
2A
102
}
330
2A
100
AcDbVisualStyle
  2
Realistic
 70
     8
 71
     2
 72
     2
 73
     0
 90
        0
 40
-0.6
 41
-30.0
 62
     5
 63
     7
 74
     1
 91
        0
 64
     7
 65
   257
 75
     1
175
     1
 42
1.0
 92
        8
 66
     8
 43
1.0
 76
     1
 77
     6
 78
     2
 67
     7
 79
     5
170
     0
171
     0
290
     0
174
     0
 93
       13
 44
0.0
173
     0
291
     0
 45
0.0
1001
ACAD
1000
AcDbSavedByObjectVersion
1070
     0
  0
VISUALSTYLE
  5
37
102
{ACAD_REACTORS
330
2A
102
}
330
2A
100
AcDbVisualStyle
  2
Thicken
 70
    13
 71
     2
 72
     2
 73
     0
 90
        0
 40
-0.6
 41
-30.0
 62
     5
 63
     7
 74
     1
 91
        4
 64
     7
 65
   257
 75
     1
175
     1
 42
1.0
 92
       12
 66
     7
 43
1.0
 76
     1
 77
     6
 78
     2
 67
     7
 79
     5
170
     0
171
     0
290
     0
174
     0
 93
        1
 44
0.0
173
     0
291
     1
 45
0.0
1001
ACAD
1000
AcDbSavedByObjectVersion
1070
     0
  0
DICTIONARYVAR
  5
206
102
{ACAD_REACTORS
330
204
102
}
330
204
100
DictionaryVariables
280
     0
  1
80.000000
  0
DICTIONARYVAR
  5
205
102
{ACAD_REACTORS
330
204
102
}
330
204
100
DictionaryVariables
280
     0
  1
5.000000
  0
ENDSEC
  0
EOF
