  0
SECTION
  2
HEADER
  9
$ACADVER
  1
AC1015
  9
$ACADMAINTVER
 70
     6
  9
$DWGCODEPAGE
  3
ANSI_1252
  9
$INSBASE
 10
0.0
 20
0.0
 30
0.0
  9
$EXTMIN
 10
0.0
 20
0.0
 30
0.0
  9
$EXTMAX
 10
297.0
 20
210.0
 30
0.0
  9
$LIMMIN
 10
0.0
 20
0.0
  9
$LIMMAX
 10
297.0
 20
210.0
  9
$ORTHOMODE
 70
     0
  9
$REGENMODE
 70
     1
  9
$FILLMODE
 70
     1
  9
$QTEXTMODE
 70
     0
  9
$MIRRTEXT
 70
     1
  9
$LTSCALE
 40
1.0
  9
$ATTMODE
 70
     1
  9
$TEXTSIZE
 40
2.0
  9
$TRACEWID
 40
1.0
  9
$TEXTSTYLE
  7
Standard
  9
$CLAYER
  8
0
  9
$CELTYPE
  6
ByLayer
  9
$CECOLOR
 62
   256
  9
$CELTSCALE
 40
1.0
  9
$DISPSILH
 70
     0
  9
$DIMSCALE
 40
1.0
  9
$DIMASZ
 40
3.0
  9
$DIMEXO
 40
0.0
  9
$DIMDLI
 40
3.75
  9
$DIMRND
 40
0.0
  9
$DIMDLE
 40
0.0
  9
$DIMEXE
 40
1.0
  9
$DIMTP
 40
0.0
  9
$DIMTM
 40
0.0
  9
$DIMTXT
 40
2.0
  9
$DIMCEN
 40
2.5
  9
$DIMTSZ
 40
0.0
  9
$DIMTOL
 70
     0
  9
$DIMLIM
 70
     0
  9
$DIMTIH
 70
     1
  9
$DIMTOH
 70
     1
  9
$DIMSE1
 70
     0
  9
$DIMSE2
 70
     0
  9
$DIMTAD
 70
     1
  9
$DIMZIN
 70
     0
  9
$DIMBLK
  1

  9
$DIMASO
 70
     1
  9
$DIMSHO
 70
     1
  9
$DIMPOST
  1

  9
$DIMAPOST
  1

  9
$DIMALT
 70
     0
  9
$DIMALTD
 70
     3
  9
$DIMALTF
 40
0.0393700787
  9
$DIMLFAC
 40
1.0
  9
$DIMTOFL
 70
     1
  9
$DIMTVP
 40
0.0
  9
$DIMTIX
 70
     0
  9
$DIMSOXD
 70
     0
  9
$DIMSAH
 70
     0
  9
$DIMBLK1
  1

  9
$DIMBLK2
  1

  9
$DIMSTYLE
  2
ISO-25
  9
$DIMCLRD
 70
     0
  9
$DIMCLRE
 70
     0
  9
$DIMCLRT
 70
     0
  9
$DIMTFAC
 40
1.0
  9
$DIMGAP
 40
1.524
  9
$DIMJUST
 70
     0
  9
$DIMSD1
 70
     0
  9
$DIMSD2
 70
     0
  9
$DIMTOLJ
 70
     0
  9
$DIMTZIN
 70
     0
  9
$DIMALTZ
 70
     0
  9
$DIMALTTZ
 70
     0
  9
$DIMUPT
 70
     0
  9
$DIMDEC
 70
     2
  9
$DIMTDEC
 70
     3
  9
$DIMALTU
 70
     2
  9
$DIMALTTD
 70
     3
  9
$DIMTXSTY
  7
Standard
  9
$DIMAUNIT
 70
     0
  9
$DIMADEC
 70
     2
  9
$DIMALTRND
 40
0.0
  9
$DIMAZIN
 70
     0
  9
$DIMDSEP
 70
    44
  9
$DIMATFIT
 70
     3
  9
$DIMFRAC
 70
     0
  9
$DIMLDRBLK
  1

  9
$DIMLUNIT
 70
     2
  9
$DIMLWD
 70
    -2
  9
$DIMLWE
 70
    -2
  9
$DIMTMOVE
 70
     0
  9
$LUNITS
 70
     2
  9
$LUPREC
 70
     2
  9
$SKETCHINC
 40
1.0
  9
$FILLETRAD
 40
10.0
  9
$AUNITS
 70
     0
  9
$AUPREC
 70
     2
  9
$MENU
  1
.
  9
$ELEVATION
 40
0.0
  9
$PELEVATION
 40
0.0
  9
$THICKNESS
 40
0.0
  9
$LIMCHECK
 70
     0
  9
$CHAMFERA
 40
10.0
  9
$CHAMFERB
 40
10.0
  9
$CHAMFERC
 40
20.0
  9
$CHAMFERD
 40
0.0
  9
$SKPOLY
 70
     0
  9
$TDCREATE
 40
2455684.40675213
  9
$TDUCREATE
 40
2455684.323418797
  9
$TDUPDATE
 40
2455684.406752141
  9
$TDUUPDATE
 40
2455684.323418808
  9
$TDINDWG
 40
0.0000000116
  9
$TDUSRTIMER
 40
0.0000000116
  9
$USRTIMER
 70
     1
  9
$ANGBASE
 50
0.0
  9
$ANGDIR
 70
     0
  9
$PDMODE
 70
     0
  9
$PDSIZE
 40
-1.0
  9
$PLINEWID
 40
0.0
  9
$SPLFRAME
 70
     0
  9
$SPLINETYPE
 70
     6
  9
$SPLINESEGS
 70
     8
  9
$HANDSEED
  5
20B
  9
$SURFTAB1
 70
     6
  9
$SURFTAB2
 70
     6
  9
$SURFTYPE
 70
     6
  9
$SURFU
 70
     6
  9
$SURFV
 70
     6
  9
$UCSBASE
  2

  9
$UCSNAME
  2

  9
$UCSORG
 10
0.0
 20
0.0
 30
0.0
  9
$UCSXDIR
 10
1.0
 20
0.0
 30
0.0
  9
$UCSYDIR
 10
0.0
 20
1.0
 30
0.0
  9
$UCSORTHOREF
  2

  9
$UCSORTHOVIEW
 70
     0
  9
$UCSORGTOP
 10
0.0
 20
0.0
 30
0.0
  9
$UCSORGBOTTOM
 10
0.0
 20
0.0
 30
0.0
  9
$UCSORGLEFT
 10
0.0
 20
0.0
 30
0.0
  9
$UCSORGRIGHT
 10
0.0
 20
0.0
 30
0.0
  9
$UCSORGFRONT
 10
0.0
 20
0.0
 30
0.0
  9
$UCSORGBACK
 10
0.0
 20
0.0
 30
0.0
  9
$PUCSBASE
  2

  9
$PUCSNAME
  2

  9
$PUCSORG
 10
0.0
 20
0.0
 30
0.0
  9
$PUCSXDIR
 10
1.0
 20
0.0
 30
0.0
  9
$PUCSYDIR
 10
0.0
 20
1.0
 30
0.0
  9
$PUCSORTHOREF
  2

  9
$PUCSORTHOVIEW
 70
     0
  9
$PUCSORGTOP
 10
0.0
 20
0.0
 30
0.0
  9
$PUCSORGBOTTOM
 10
0.0
 20
0.0
 30
0.0
  9
$PUCSORGLEFT
 10
0.0
 20
0.0
 30
0.0
  9
$PUCSORGRIGHT
 10
0.0
 20
0.0
 30
0.0
  9
$PUCSORGFRONT
 10
0.0
 20
0.0
 30
0.0
  9
$PUCSORGBACK
 10
0.0
 20
0.0
 30
0.0
  9
$USERI1
 70
     0
  9
$USERI2
 70
     0
  9
$USERI3
 70
     0
  9
$USERI4
 70
     0
  9
$USERI5
 70
     0
  9
$USERR1
 40
0.0
  9
$USERR2
 40
0.0
  9
$USERR3
 40
0.0
  9
$USERR4
 40
0.0
  9
$USERR5
 40
0.0
  9
$WORLDVIEW
 70
     1
  9
$SHADEDGE
 70
     3
  9
$SHADEDIF
 70
    70
  9
$TILEMODE
 70
     1
  9
$MAXACTVP
 70
    64
  9
$PINSBASE
 10
0.0
 20
0.0
 30
0.0
  9
$PLIMCHECK
 70
     0
  9
$PEXTMIN
 10
1.0000000000E+20
 20
1.0000000000E+20
 30
1.0000000000E+20
  9
$PEXTMAX
 10
-1.0000000000E+20
 20
-1.0000000000E+20
 30
-1.0000000000E+20
  9
$PLIMMIN
 10
0.0
 20
0.0
  9
$PLIMMAX
 10
420.0
 20
297.0
  9
$UNITMODE
 70
     0
  9
$VISRETAIN
 70
     1
  9
$PLINEGEN
 70
     0
  9
$PSLTSCALE
 70
     1
  9
$TREEDEPTH
 70
  3020
  9
$CMLSTYLE
  2
Standard
  9
$CMLJUST
 70
     0
  9
$CMLSCALE
 40
20.0
  9
$PROXYGRAPHICS
 70
     1
  9
$MEASUREMENT
 70
     1
  9
$CELWEIGHT
370
    -1
  9
$ENDCAPS
280
     0
  9
$JOINSTYLE
280
     0
  9
$LWDISPLAY
290
     1
  9
$INSUNITS
 70
     4
  9
$HYPERLINKBASE
  1

  9
$STYLESHEET
  1

  9
$XEDIT
290
     1
  9
$CEPSNTYPE
380
     0
  9
$PSTYLEMODE
290
     1
  9
$FINGERPRINTGUID
  2
{164215DA-F190-4060-B9E7-177ED3D9C1EE}
  9
$VERSIONGUID
  2
{FAEB1C32-E019-11D5-929B-00C0DF256EC4}
  9
$EXTNAMES
290
     1
  9
$PSVPSCALE
 40
0.0
  9
$OLESTARTUP
290
     0
  0
ENDSEC
  0
SECTION
  2
CLASSES
  0
CLASS
  1
ACDBDICTIONARYWDFLT
  2
AcDbDictionaryWithDefault
  3
ObjectDBX Classes
 90
        0
280
     0
281
     0
  0
CLASS
  1
VISUALSTYLE
  2
AcDbVisualStyle
  3
ObjectDBX Classes
 90
     4095
280
     0
281
     0
  0
CLASS
  1
DICTIONARYVAR
  2
AcDbDictionaryVar
  3
ObjectDBX Classes
 90
        0
280
     0
281
     0
  0
CLASS
  1
ACDBPLACEHOLDER
  2
AcDbPlaceHolder
  3
ObjectDBX Classes
 90
        0
280
     0
281
     0
  0
CLASS
  1
LAYOUT
  2
AcDbLayout
  3
ObjectDBX Classes
 90
        0
280
     0
281
     0
  0
ENDSEC
  0
SECTION
  2
TABLES
  0
TABLE
  2
VPORT
  5
8
330
0
100
AcDbSymbolTable
 70
     1
  0
VPORT
  5
29
330
8
100
AcDbSymbolTableRecord
100
AcDbViewportTableRecord
  2
*Active
 70
     0
 10
0.0
 20
0.0
 11
1.0
 21
1.0
 12
148.5
 22
105.0
 13
0.0
 23
0.0
 14
10.0
 24
10.0
 15
10.0
 25
10.0
 16
0.0
 26
0.0
 36
1.0
 17
0.0
 27
0.0
 37
0.0
 40
210.0
 41
1.4142857143
 42
50.0
 43
0.0
 44
0.0
 50
0.0
 51
0.0
 71
     0
 72
  2000
 73
     1
 74
     3
 75
     0
 76
     0
 77
     0
 78
     0
281
     0
 65
     1
110
0.0
120
0.0
130
0.0
111
1.0
121
0.0
131
0.0
112
0.0
122
1.0
132
0.0
 79
     0
146
0.0
  0
ENDTAB
  0
TABLE
  2
LTYPE
  5
5
330
0
100
AcDbSymbolTable
 70
     6
  0
LTYPE
  5
14
330
5
100
AcDbSymbolTableRecord
100
AcDbLinetypeTableRecord
  2
ByBlock
 70
     0
  3

 72
    65
 73
     0
 40
0.0
  0
LTYPE
  5
15
330
5
100
AcDbSymbolTableRecord
100
AcDbLinetypeTableRecord
  2
ByLayer
 70
     0
  3

 72
    65
 73
     0
 40
0.0
  0
LTYPE
  5
16
330
5
100
AcDbSymbolTableRecord
100
AcDbLinetypeTableRecord
  2
Continuous
 70
     0
  3
Solid line
 72
    65
 73
     0
 40
0.0
  0
LTYPE
  5
3B
330
5
100
AcDbSymbolTableRecord
100
AcDbLinetypeTableRecord
  2
HIDDEN
 70
     0
  3
Hidden __ __ __ __ __ __ __ __ __ __ __ __ __ __
 72
    65
 73
     2
 40
1.905
 49
1.27
 74
     0
 49
-0.635
 74
     0
  0
LTYPE
  5
3C
330
5
100
AcDbSymbolTableRecord
100
AcDbLinetypeTableRecord
  2
PHANTOM
 70
     0
  3
Phantom ______  __  __  ______  __  __  ______
 72
    65
 73
     6
 40
12.7
 49
6.35
 74
     0
 49
-1.27
 74
     0
 49
1.27
 74
     0
 49
-1.27
 74
     0
 49
1.27
 74
     0
 49
-1.27
 74
     0
  0
LTYPE
  5
3D
330
5
100
AcDbSymbolTableRecord
100
AcDbLinetypeTableRecord
  2
CENTER
 70
     0
  3
Center ____ _ ____ _ ____ _ ____ _ ____ _ ____
 72
    65
 73
     4
 40
10.16
 49
6.35
 74
     0
 49
-1.27
 74
     0
 49
1.27
 74
     0
 49
-1.27
 74
     0
  0
LTYPE
  5
3E
330
5
100
AcDbSymbolTableRecord
100
AcDbLinetypeTableRecord
  2
CENTERX2
 70
     0
  3
Center (2x) ________  __  ________  __  _____
 72
    65
 73
     4
 40
20.32
 49
12.7
 74
     0
 49
-2.54
 74
     0
 49
2.54
 74
     0
 49
-2.54
 74
     0
  0
LTYPE
  5
3F
330
5
100
AcDbSymbolTableRecord
100
AcDbLinetypeTableRecord
  2
DOT2
 70
     0
  3
Dot (.5x) ........................................
 72
    65
 73
     2
 40
0.635
 49
0.0
 74
     0
 49
-0.635
 74
     0
  0
ENDTAB
  0
TABLE
  2
LAYER
  5
2
330
0
100
AcDbSymbolTable
 70
     5
  0
LAYER
  5
10
330
2
100
AcDbSymbolTableRecord
100
AcDbLayerTableRecord
  2
0
 70
     0
 62
     7
  6
Continuous
370
    -3
390
F
  0
LAYER
  5
40
330
2
100
AcDbSymbolTableRecord
100
AcDbLayerTableRecord
  2
FORMAT
 70
     0
 62
     7
  6
Continuous
370
    -3
390
F
  0
LAYER
  5
41
330
2
100
AcDbSymbolTableRecord
100
AcDbLayerTableRecord
  2
VERMASSUNG
 70
     0
 62
     7
  6
Continuous
370
    -3
390
F
  0
LAYER
  5
42
330
2
100
AcDbSymbolTableRecord
100
AcDbLayerTableRecord
  2
KOPF_DÜNN
 70
     0
 62
     7
  6
Continuous
370
    -3
390
F
  0
LAYER
  5
43
330
2
100
AcDbSymbolTableRecord
100
AcDbLayerTableRecord
  2
KOPF_DICK
 70
     0
 62
     7
  6
Continuous
370
    15
390
F
  0
ENDTAB
  0
TABLE
  2
STYLE
  5
3
330
0
100
AcDbSymbolTable
 70
     3
  0
STYLE
  5
11
330
3
100
AcDbSymbolTableRecord
100
AcDbTextStyleTableRecord
  2
Standard
 70
     0
 40
0.0
 41
1.0
 50
0.0
 71
     0
 42
2.5
  3
txt
  4

  0
STYLE
  5
44
330
3
100
AcDbSymbolTableRecord
100
AcDbTextStyleTableRecord
  2
SLDTEXTSTYLE0
 70
     0
 40
0.0
 41
0.7
 50
0.0
 71
     0
 42
0.2
  3
TXT
  4

  0
STYLE
  5
48
330
3
100
AcDbSymbolTableRecord
100
AcDbTextStyleTableRecord
  2
SLDTEXTSTYLE1
 70
     0
 40
0.0
 41
0.65
 50
0.0
 71
     0
 42
0.2
  3
TXT
  4

  0
ENDTAB
  0
TABLE
  2
VIEW
  5
6
330
0
100
AcDbSymbolTable
 70
     0
  0
ENDTAB
  0
TABLE
  2
UCS
  5
7
330
0
100
AcDbSymbolTable
 70
     0
  0
ENDTAB
  0
TABLE
  2
APPID
  5
9
330
0
100
AcDbSymbolTable
 70
     1
  0
APPID
  5
12
330
9
100
AcDbSymbolTableRecord
100
AcDbRegAppTableRecord
  2
ACAD
 70
     0
  0
ENDTAB
  0
TABLE
  2
DIMSTYLE
  5
A
330
0
100
AcDbSymbolTable
 70
     5
100
AcDbDimStyleTable
  0
DIMSTYLE
105
27
330
A
100
AcDbSymbolTableRecord
100
AcDbDimStyleTableRecord
  2
ISO-25
 70
     0
 41
2.5
 42
0.625
 43
3.75
 44
1.25
 73
     0
 74
     0
 77
     1
 78
     8
140
2.5
141
2.5
143
0.0393700787
147
0.625
171
     3
172
     1
271
     2
272
     2
274
     3
278
    44
283
     0
284
     8
340
11
  0
DIMSTYLE
105
1AC
102
{ACAD_REACTORS
330
1AB
330
1DB
330
1E5
330
1EF
330
1F9
102
}
330
A
100
AcDbSymbolTableRecord
100
AcDbDimStyleTableRecord
  2
SLDDIMSTYLE0
 70
     0
 41
3.0
 44
0.0
 45
0.000000001
 73
     0
 74
     0
 77
     1
 78
    12
140
2.0
147
0.5
173
     1
271
     2
272
     3
284
    12
340
44
  0
DIMSTYLE
105
1B9
102
{ACAD_REACTORS
330
1B8
102
}
330
A
100
AcDbSymbolTableRecord
100
AcDbDimStyleTableRecord
  2
SLDDIMSTYLE1
 70
     0
 41
3.0
 44
0.0
 45
0.000000001
 73
     0
 74
     0
 77
     1
 78
    12
140
2.0
147
0.5
173
     1
271
     2
272
     2
284
    12
340
44
  0
DIMSTYLE
105
1C4
102
{ACAD_REACTORS
330
1C3
102
}
330
A
100
AcDbSymbolTableRecord
100
AcDbDimStyleTableRecord
  2
SLDDIMSTYLE2
 70
     0
 41
3.0
 44
0.0
 45
0.000000001
 73
     0
 74
     0
 77
     1
 78
    12
140
2.0
147
0.5
173
     1
271
     2
272
     2
284
    12
340
44
  0
DIMSTYLE
105
1D0
102
{ACAD_REACTORS
330
1CF
102
}
330
A
100
AcDbSymbolTableRecord
100
AcDbDimStyleTableRecord
  2
SLDDIMSTYLE3
 70
     0
 41
3.0
 44
0.0
 45
0.000000001
 73
     0
 74
     0
 77
     1
 78
    12
140
2.0
147
0.5
173
     1
271
     2
272
     3
284
    12
340
44
  0
ENDTAB
  0
TABLE
  2
BLOCK_RECORD
  5
1
330
0
100
AcDbSymbolTable
 70
     9
  0
BLOCK_RECORD
  5
1F
330
1
100
AcDbSymbolTableRecord
100
AcDbBlockTableRecord
  2
*Model_Space
340
22
  0
BLOCK_RECORD
  5
1B
330
1
100
AcDbSymbolTableRecord
100
AcDbBlockTableRecord
  2
*Paper_Space
340
1E
  0
BLOCK_RECORD
  5
23
330
1
100
AcDbSymbolTableRecord
100
AcDbBlockTableRecord
  2
*Paper_Space0
340
26
  0
BLOCK_RECORD
  5
1AD
330
1
100
AcDbSymbolTableRecord
100
AcDbBlockTableRecord
  2
*D1
340
0
  0
BLOCK_RECORD
  5
1BA
330
1
100
AcDbSymbolTableRecord
100
AcDbBlockTableRecord
  2
*D2
340
0
  0
BLOCK_RECORD
  5
1C5
330
1
100
AcDbSymbolTableRecord
100
AcDbBlockTableRecord
  2
*D3
340
0
  0
BLOCK_RECORD
  5
1D1
330
1
100
AcDbSymbolTableRecord
100
AcDbBlockTableRecord
  2
*D4
340
0
  0
BLOCK_RECORD
  5
1DC
330
1
100
AcDbSymbolTableRecord
100
AcDbBlockTableRecord
  2
*D5
340
0
  0
BLOCK_RECORD
  5
1E6
330
1
100
AcDbSymbolTableRecord
100
AcDbBlockTableRecord
  2
*D6
340
0
  0
BLOCK_RECORD
  5
1F0
330
1
100
AcDbSymbolTableRecord
100
AcDbBlockTableRecord
  2
*D7
340
0
  0
BLOCK_RECORD
  5
1FA
330
1
100
AcDbSymbolTableRecord
100
AcDbBlockTableRecord
  2
*D8
340
0
  0
ENDTAB
  0
ENDSEC
  0
SECTION
  2
BLOCKS
  0
BLOCK
  5
20
330
1F
100
AcDbEntity
  8
0
100
AcDbBlockBegin
  2
*Model_Space
 70
     0
 10
0.0
 20
0.0
 30
0.0
  3
*Model_Space
  1

  0
ENDBLK
  5
21
330
1F
100
AcDbEntity
  8
0
100
AcDbBlockEnd
  0
BLOCK
  5
1C
330
1B
100
AcDbEntity
 67
     1
  8
0
100
AcDbBlockBegin
  2
*Paper_Space
 70
     0
 10
0.0
 20
0.0
 30
0.0
  3
*Paper_Space
  1

  0
ENDBLK
  5
1D
330
1B
100
AcDbEntity
 67
     1
  8
0
100
AcDbBlockEnd
  0
BLOCK
  5
24
330
23
100
AcDbEntity
  8
0
100
AcDbBlockBegin
  2
*Paper_Space0
 70
     0
 10
0.0
 20
0.0
 30
0.0
  3
*Paper_Space0
  1

  0
ENDBLK
  5
25
330
23
100
AcDbEntity
  8
0
100
AcDbBlockEnd
  0
BLOCK
  5
1AE
330
1AD
100
AcDbEntity
  8
0
100
AcDbBlockBegin
  2
*D1
 70
     1
 10
0.0
 20
0.0
 30
0.0
  3
*D1
  1

  0
SOLID
  5
1B0
330
1AD
100
AcDbEntity
  8
VERMASSUNG
100
AcDbTrace
 10
49.1678152369
 20
160.9153873095
 30
0.0
 11
48.7178152369
 21
157.9153873095
 31
0.0
 12
49.6178152369
 22
157.9153873095
 32
0.0
 13
49.6178152369
 23
157.9153873095
 33
0.0
  0
SOLID
  5
1B1
330
1AD
100
AcDbEntity
  8
VERMASSUNG
100
AcDbTrace
 10
49.1678152369
 20
60.9153873095
 30
0.0
 11
49.6178152369
 21
63.9153873095
 31
0.0
 12
48.7178152369
 22
63.9153873095
 32
0.0
 13
48.7178152369
 23
63.9153873095
 33
0.0
  0
LINE
  5
1B2
330
1AD
100
AcDbEntity
  8
VERMASSUNG
100
AcDbLine
 10
107.157227484
 20
160.9153873095
 30
0.0
 11
48.1678152369
 21
160.9153873095
 31
0.0
  0
LINE
  5
1B3
330
1AD
100
AcDbEntity
  8
VERMASSUNG
100
AcDbLine
 10
107.157227484
 20
60.9153873095
 30
0.0
 11
48.1678152369
 21
60.9153873095
 31
0.0
  0
LINE
  5
1B4
330
1AD
100
AcDbEntity
  8
VERMASSUNG
100
AcDbLine
 10
49.1678152369
 20
160.9153873095
 30
0.0
 11
49.1678152369
 21
60.9153873095
 31
0.0
  0
MTEXT
  5
1B5
330
1AD
100
AcDbEntity
  8
VERMASSUNG
100
AcDbMText
 10
46.3896797478
 20
102.7117361719
 30
0.0
 40
2.0
 41
0.0
 71
     1
 72
     1
  1
HSK A 
  7
SLDTEXTSTYLE0
 11
-7.044195017643634E-15
 21
1.0
 31
0.0
 73
     1
 44
1.0
  0
MTEXT
  5
1B6
330
1AD
100
AcDbEntity
  8
VERMASSUNG
100
AcDbMText
 10
46.5896797573
 20
111.7117367158
 30
0.0
 40
2.0
 41
0.0
 71
     1
 72
     1
  1
%%c
  7
SLDTEXTSTYLE0
 11
-7.044195017643634E-15
 21
1.0
 31
0.0
 73
     1
 44
1.0
  0
MTEXT
  5
1B7
330
1AD
100
AcDbEntity
  8
VERMASSUNG
100
AcDbMText
 10
46.5896798737
 20
115.3200633659
 30
0.0
 40
2.0
 41
0.0
 71
     1
 72
     1
  1
100
  7
SLDTEXTSTYLE0
 11
-7.044195017643634E-15
 21
1.0
 31
0.0
 73
     1
 44
1.0
  0
ENDBLK
  5
1AF
330
1AD
100
AcDbEntity
  8
0
100
AcDbBlockEnd
  0
BLOCK
  5
1BB
330
1BA
100
AcDbEntity
  8
0
100
AcDbBlockBegin
  2
*D2
 70
     1
 10
0.0
 20
0.0
 30
0.0
  3
*D2
  1

  0
SOLID
  5
1BD
330
1BA
100
AcDbEntity
  8
VERMASSUNG
100
AcDbTrace
 10
185.157227484
 20
158.9153873095
 30
0.0
 11
188.157227484
 21
158.4653873095
 31
0.0
 12
188.157227484
 22
159.3653873095
 32
0.0
 13
188.157227484
 23
159.3653873095
 33
0.0
  0
SOLID
  5
1BE
330
1BA
100
AcDbEntity
  8
VERMASSUNG
100
AcDbTrace
 10
236.657227484
 20
158.9153873095
 30
0.0
 11
233.657227484
 21
159.3653873095
 31
0.0
 12
233.657227484
 22
158.4653873095
 32
0.0
 13
233.657227484
 23
158.4653873095
 33
0.0
  0
LINE
  5
1BF
330
1BA
100
AcDbEntity
  8
VERMASSUNG
100
AcDbLine
 10
185.157227484
 20
120.8153873095
 30
0.0
 11
185.157227484
 21
159.9153873095
 31
0.0
  0
LINE
  5
1C0
330
1BA
100
AcDbEntity
  8
VERMASSUNG
100
AcDbLine
 10
236.657227484
 20
125.5666063262
 30
0.0
 11
236.657227484
 21
159.9153873095
 31
0.0
  0
LINE
  5
1C1
330
1BA
100
AcDbEntity
  8
VERMASSUNG
100
AcDbLine
 10
185.157227484
 20
158.9153873095
 30
0.0
 11
236.657227484
 21
158.9153873095
 31
0.0
  0
MTEXT
  5
1C2
330
1BA
100
AcDbEntity
  8
VERMASSUNG
100
AcDbMText
 10
208.708370496
 20
161.4935226727
 30
0.0
 40
2.0
 41
0.0
 71
     1
 72
     1
  1
51.5
  7
SLDTEXTSTYLE0
 73
     1
 44
1.0
  0
ENDBLK
  5
1BC
330
1BA
100
AcDbEntity
  8
0
100
AcDbBlockEnd
  0
BLOCK
  5
1C6
330
1C5
100
AcDbEntity
  8
0
100
AcDbBlockBegin
  2
*D3
 70
     1
 10
0.0
 20
0.0
 30
0.0
  3
*D3
  1

  0
SOLID
  5
1C8
330
1C5
100
AcDbEntity
  8
VERMASSUNG
100
AcDbTrace
 10
243.8626368621
 20
100.9153873095
 30
0.0
 11
244.3126368621
 21
103.9153873095
 31
0.0
 12
243.4126368621
 22
103.9153873095
 32
0.0
 13
243.4126368621
 23
103.9153873095
 33
0.0
  0
SOLID
  5
1C9
330
1C5
100
AcDbEntity
  8
VERMASSUNG
100
AcDbTrace
 10
243.8626368621
 20
120.9153873095
 30
0.0
 11
243.4126368621
 21
117.9153873095
 31
0.0
 12
244.3126368621
 22
117.9153873095
 32
0.0
 13
244.3126368621
 23
117.9153873095
 33
0.0
  0
LINE
  5
1CA
330
1C5
100
AcDbEntity
  8
VERMASSUNG
100
AcDbLine
 10
233.157227484
 20
100.9153873095
 30
0.0
 11
244.8626368621
 21
100.9153873095
 31
0.0
  0
LINE
  5
1CB
330
1C5
100
AcDbEntity
  8
VERMASSUNG
100
AcDbLine
 10
233.157227484
 20
120.9153873095
 30
0.0
 11
244.8626368621
 21
120.9153873095
 31
0.0
  0
LINE
  5
1CC
330
1C5
100
AcDbEntity
  8
VERMASSUNG
100
AcDbLine
 10
243.8626368621
 20
100.9153873095
 30
0.0
 11
243.8626368621
 21
120.9153873095
 31
0.0
  0
MTEXT
  5
1CD
330
1C5
100
AcDbEntity
  8
VERMASSUNG
100
AcDbMText
 10
241.2845013826
 20
107.7116700831
 30
0.0
 40
2.0
 41
0.0
 71
     1
 72
     1
  1
%%c
  7
SLDTEXTSTYLE0
 11
6.123233995736766E-17
 21
1.0
 31
0.0
 73
     1
 44
1.0
  0
MTEXT
  5
1CE
330
1C5
100
AcDbEntity
  8
VERMASSUNG
100
AcDbMText
 10
241.284501499
 20
111.3203483063
 30
0.0
 40
2.0
 41
0.0
 71
     1
 72
     1
  1
20
  7
SLDTEXTSTYLE0
 11
6.123233995736766E-17
 21
1.0
 31
0.0
 73
     1
 44
1.0
  0
ENDBLK
  5
1C7
330
1C5
100
AcDbEntity
  8
0
100
AcDbBlockEnd
  0
BLOCK
  5
1D2
330
1D1
100
AcDbEntity
  8
0
100
AcDbBlockBegin
  2
*D4
 70
     1
 10
0.0
 20
0.0
 30
0.0
  3
*D4
  1

  0
SOLID
  5
1D4
330
1D1
100
AcDbEntity
  8
VERMASSUNG
100
AcDbTrace
 10
249.8626368621
 20
94.4153873095
 30
0.0
 11
250.3126368621
 21
97.4153873095
 31
0.0
 12
249.4126368621
 22
97.4153873095
 32
0.0
 13
249.4126368621
 23
97.4153873095
 33
0.0
  0
SOLID
  5
1D5
330
1D1
100
AcDbEntity
  8
VERMASSUNG
100
AcDbTrace
 10
249.8626368621
 20
127.4153873095
 30
0.0
 11
249.4126368621
 21
124.4153873095
 31
0.0
 12
250.3126368621
 22
124.4153873095
 32
0.0
 13
250.3126368621
 23
124.4153873095
 33
0.0
  0
LINE
  5
1D6
330
1D1
100
AcDbEntity
  8
VERMASSUNG
100
AcDbLine
 10
236.657227484
 20
94.4153873095
 30
0.0
 11
250.8626368621
 21
94.4153873095
 31
0.0
  0
LINE
  5
1D7
330
1D1
100
AcDbEntity
  8
VERMASSUNG
100
AcDbLine
 10
236.657227484
 20
127.4153873095
 30
0.0
 11
250.8626368621
 21
127.4153873095
 31
0.0
  0
LINE
  5
1D8
330
1D1
100
AcDbEntity
  8
VERMASSUNG
100
AcDbLine
 10
249.8626368621
 20
94.4153873095
 30
0.0
 11
249.8626368621
 21
127.4153873095
 31
0.0
  0
MTEXT
  5
1D9
330
1D1
100
AcDbEntity
  8
VERMASSUNG
100
AcDbMText
 10
247.2845013826
 20
107.7116700831
 30
0.0
 40
2.0
 41
0.0
 71
     1
 72
     1
  1
%%c
  7
SLDTEXTSTYLE0
 11
6.123233995736766E-17
 21
1.0
 31
0.0
 73
     1
 44
1.0
  0
MTEXT
  5
1DA
330
1D1
100
AcDbEntity
  8
VERMASSUNG
100
AcDbMText
 10
247.284501499
 20
111.3203483063
 30
0.0
 40
2.0
 41
0.0
 71
     1
 72
     1
  1
33
  7
SLDTEXTSTYLE0
 11
6.123233995736766E-17
 21
1.0
 31
0.0
 73
     1
 44
1.0
  0
ENDBLK
  5
1D3
330
1D1
100
AcDbEntity
  8
0
100
AcDbBlockEnd
  0
BLOCK
  5
1DD
330
1DC
100
AcDbEntity
  8
0
100
AcDbBlockBegin
  2
*D5
 70
     1
 10
0.0
 20
0.0
 30
0.0
  3
*D5
  1

  0
SOLID
  5
1DF
330
1DC
100
AcDbEntity
  8
VERMASSUNG
100
AcDbTrace
 10
106.657227484
 20
170.9153873095
 30
0.0
 11
109.657227484
 21
170.4653873095
 31
0.0
 12
109.657227484
 22
171.3653873095
 32
0.0
 13
109.657227484
 23
171.3653873095
 33
0.0
  0
SOLID
  5
1E0
330
1DC
100
AcDbEntity
  8
VERMASSUNG
100
AcDbTrace
 10
236.657227484
 20
170.9153873095
 30
0.0
 11
233.657227484
 21
171.3653873095
 31
0.0
 12
233.657227484
 22
170.4653873095
 32
0.0
 13
233.657227484
 23
170.4653873095
 33
0.0
  0
LINE
  5
1E1
330
1DC
100
AcDbEntity
  8
VERMASSUNG
100
AcDbLine
 10
106.657227484
 20
160.4153873095
 30
0.0
 11
106.657227484
 21
171.9153873095
 31
0.0
  0
LINE
  5
1E2
330
1DC
100
AcDbEntity
  8
VERMASSUNG
100
AcDbLine
 10
236.657227484
 20
125.5666063262
 30
0.0
 11
236.657227484
 21
171.9153873095
 31
0.0
  0
LINE
  5
1E3
330
1DC
100
AcDbEntity
  8
VERMASSUNG
100
AcDbLine
 10
106.657227484
 20
170.9153873095
 30
0.0
 11
236.657227484
 21
170.9153873095
 31
0.0
  0
MTEXT
  5
1E4
330
1DC
100
AcDbEntity
  8
VERMASSUNG
100
AcDbMText
 10
169.7577399434
 20
173.4935226727
 30
0.0
 40
2.0
 41
0.0
 71
     1
 72
     1
  1
130
  7
SLDTEXTSTYLE0
 73
     1
 44
1.0
  0
ENDBLK
  5
1DE
330
1DC
100
AcDbEntity
  8
0
100
AcDbBlockEnd
  0
BLOCK
  5
1E7
330
1E6
100
AcDbEntity
  8
0
100
AcDbBlockBegin
  2
*D6
 70
     1
 10
0.0
 20
0.0
 30
0.0
  3
*D6
  1

  0
SOLID
  5
1E9
330
1E6
100
AcDbEntity
  8
VERMASSUNG
100
AcDbTrace
 10
135.607227484
 20
164.9153873095
 30
0.0
 11
138.607227484
 21
164.4653873095
 31
0.0
 12
138.607227484
 22
165.3653873095
 32
0.0
 13
138.607227484
 23
165.3653873095
 33
0.0
  0
SOLID
  5
1EA
330
1E6
100
AcDbEntity
  8
VERMASSUNG
100
AcDbTrace
 10
236.657227484
 20
164.9153873095
 30
0.0
 11
233.657227484
 21
165.3653873095
 31
0.0
 12
233.657227484
 22
164.4653873095
 32
0.0
 13
233.657227484
 23
164.4653873095
 33
0.0
  0
LINE
  5
1EB
330
1E6
100
AcDbEntity
  8
VERMASSUNG
100
AcDbLine
 10
135.607227484
 20
158.8841271304
 30
0.0
 11
135.607227484
 21
165.9153873095
 31
0.0
  0
LINE
  5
1EC
330
1E6
100
AcDbEntity
  8
VERMASSUNG
100
AcDbLine
 10
236.657227484
 20
125.5666063262
 30
0.0
 11
236.657227484
 21
165.9153873095
 31
0.0
  0
LINE
  5
1ED
330
1E6
100
AcDbEntity
  8
VERMASSUNG
100
AcDbLine
 10
135.607227484
 20
164.9153873095
 30
0.0
 11
236.657227484
 21
164.9153873095
 31
0.0
  0
MTEXT
  5
1EE
330
1E6
100
AcDbEntity
  8
VERMASSUNG
100
AcDbMText
 10
182.7324116661
 20
167.4935226727
 30
0.0
 40
2.0
 41
0.0
 71
     1
 72
     1
  1
101.05
  7
SLDTEXTSTYLE0
 73
     1
 44
1.0
  0
ENDBLK
  5
1E8
330
1E6
100
AcDbEntity
  8
0
100
AcDbBlockEnd
  0
BLOCK
  5
1F1
330
1F0
100
AcDbEntity
  8
0
100
AcDbBlockBegin
  2
*D7
 70
     1
 10
0.0
 20
0.0
 30
0.0
  3
*D7
  1

  0
SOLID
  5
1F3
330
1F0
100
AcDbEntity
  8
VERMASSUNG
100
AcDbTrace
 10
56.757227484
 20
176.9153873095
 30
0.0
 11
59.757227484
 21
176.4653873095
 31
0.0
 12
59.757227484
 22
177.3653873095
 32
0.0
 13
59.757227484
 23
177.3653873095
 33
0.0
  0
SOLID
  5
1F4
330
1F0
100
AcDbEntity
  8
VERMASSUNG
100
AcDbTrace
 10
236.657227484
 20
176.9153873095
 30
0.0
 11
233.657227484
 21
177.3653873095
 31
0.0
 12
233.657227484
 22
176.4653873095
 32
0.0
 13
233.657227484
 23
176.4653873095
 33
0.0
  0
LINE
  5
1F5
330
1F0
100
AcDbEntity
  8
VERMASSUNG
100
AcDbLine
 10
56.757227484
 20
141.4180570521
 30
0.0
 11
56.757227484
 21
177.9153873095
 31
0.0
  0
LINE
  5
1F6
330
1F0
100
AcDbEntity
  8
VERMASSUNG
100
AcDbLine
 10
236.657227484
 20
125.5666063262
 30
0.0
 11
236.657227484
 21
177.9153873095
 31
0.0
  0
LINE
  5
1F7
330
1F0
100
AcDbEntity
  8
VERMASSUNG
100
AcDbLine
 10
56.757227484
 20
176.9153873095
 30
0.0
 11
236.657227484
 21
176.9153873095
 31
0.0
  0
MTEXT
  5
1F8
330
1F0
100
AcDbEntity
  8
VERMASSUNG
100
AcDbMText
 10
143.8075210918
 20
179.4935226727
 30
0.0
 40
2.0
 41
0.0
 71
     1
 72
     1
  1
179.9
  7
SLDTEXTSTYLE0
 73
     1
 44
1.0
  0
ENDBLK
  5
1F2
330
1F0
100
AcDbEntity
  8
0
100
AcDbBlockEnd
  0
BLOCK
  5
1FB
330
1FA
100
AcDbEntity
  8
0
100
AcDbBlockBegin
  2
*D8
 70
     1
 10
0.0
 20
0.0
 30
0.0
  3
*D8
  1

  0
SOLID
  5
1FD
330
1FA
100
AcDbEntity
  8
VERMASSUNG
100
AcDbTrace
 10
255.8626368621
 20
132.9153873095
 30
0.0
 11
255.4126368621
 21
129.9153873095
 31
0.0
 12
256.3126368621
 22
129.9153873095
 32
0.0
 13
256.3126368621
 23
129.9153873095
 33
0.0
  0
SOLID
  5
1FE
330
1FA
100
AcDbEntity
  8
VERMASSUNG
100
AcDbTrace
 10
255.8626368621
 20
88.9153873095
 30
0.0
 11
256.3126368621
 21
91.9153873095
 31
0.0
 12
255.4126368621
 22
91.9153873095
 32
0.0
 13
255.4126368621
 23
91.9153873095
 33
0.0
  0
LINE
  5
1FF
330
1FA
100
AcDbEntity
  8
VERMASSUNG
100
AcDbLine
 10
157.607227484
 20
132.9153873095
 30
0.0
 11
256.8626368621
 21
132.9153873095
 31
0.0
  0
LINE
  5
200
330
1FA
100
AcDbEntity
  8
VERMASSUNG
100
AcDbLine
 10
157.607227484
 20
88.9153873095
 30
0.0
 11
256.8626368621
 21
88.9153873095
 31
0.0
  0
LINE
  5
201
330
1FA
100
AcDbEntity
  8
VERMASSUNG
100
AcDbLine
 10
255.8626368621
 20
132.9153873095
 30
0.0
 11
255.8626368621
 21
88.9153873095
 31
0.0
  0
MTEXT
  5
202
330
1FA
100
AcDbEntity
  8
VERMASSUNG
100
AcDbMText
 10
253.2845013826
 20
107.5120904515
 30
0.0
 40
2.0
 41
0.0
 71
     1
 72
     1
  1
%%c
  7
SLDTEXTSTYLE0
 11
-7.044195017643634E-15
 21
1.0
 31
0.0
 73
     1
 44
1.0
  0
MTEXT
  5
203
330
1FA
100
AcDbEntity
  8
VERMASSUNG
100
AcDbMText
 10
253.284501499
 20
111.1207686746
 30
0.0
 40
2.0
 41
0.0
 71
     1
 72
     1
  1
44
  7
SLDTEXTSTYLE0
 11
-7.044195017643634E-15
 21
1.0
 31
0.0
 73
     1
 44
1.0
  0
ENDBLK
  5
1FC
330
1FA
100
AcDbEntity
  8
0
100
AcDbBlockEnd
  0
ENDSEC
  0
SECTION
  2
ENTITIES
  0
MTEXT
  5
45
330
1F
100
AcDbEntity
  8
KOPF_DÜNN
100
AcDbMText
 10
13.8892156294
 20
23.8442973028
 30
0.0
 40
3.0
 41
0.0
 71
     1
 72
     1
  1
HA0.S20.K21.130
  7
SLDTEXTSTYLE0
 73
     1
 44
1.0
  0
MTEXT
  5
46
330
1F
100
AcDbEntity
  8
VERMASSUNG
100
AcDbMText
 10
13.9329988022
 20
28.8834360957
 30
0.0
 40
3.0
 41
0.0
 71
     1
 72
     1
  1
Schrumpffutter_Heat shrink chuck
  7
SLDTEXTSTYLE0
 73
     1
 44
1.0
  0
MTEXT
  5
47
330
1F
100
AcDbEntity
  8
VERMASSUNG
100
AcDbMText
 10
98.8601118557
 20
13.8365368179
 30
0.0
 40
2.0
 41
0.0
 71
     1
 72
     1
  1
Datum: 02.05.2011
  7
SLDTEXTSTYLE0
 73
     1
 44
1.0
  0
MTEXT
  5
49
330
1F
100
AcDbEntity
  8
VERMASSUNG
100
AcDbMText
 10
13.933048693
 20
18.0482802738
 30
0.0
 40
2.0
 41
0.0
 71
     1
 72
     1
  1
DIN 69 893 HSK A 100
  7
SLDTEXTSTYLE1
 73
     1
 44
1.0
  0
MTEXT
  5
4A
330
1F
100
AcDbEntity
  8
VERMASSUNG
100
AcDbMText
 10
13.9808475933
 20
13.9090973692
 30
0.0
 40
2.0
 41
0.0
 71
     1
 72
     1
  1
Gewicht: 2821g
  7
SLDTEXTSTYLE0
 73
     1
 44
1.0
  0
LINE
  5
4B
330
1F
100
AcDbEntity
  8
0
  6
Continuous
 62
     7
370
    15
100
AcDbLine
 10
107.157227484
 20
60.9153873095
 30
0.0
 11
111.607227484
 21
60.9153873095
 31
0.0
  0
LINE
  5
4C
330
1F
100
AcDbEntity
  8
0
  6
Continuous
 62
     7
370
    15
100
AcDbLine
 10
111.6413003165
 20
160.9153873095
 30
0.0
 11
107.157227484
 21
160.9153873095
 31
0.0
  0
ARC
  5
4D
330
1F
100
AcDbEntity
  8
0
  6
Continuous
 62
     7
370
    15
100
AcDbCircle
 10
107.157227484
 20
61.4153873095
 30
0.0
 40
0.5
100
AcDbArc
 50
180.0
 51
270.0
  0
ARC
  5
4E
330
1F
100
AcDbEntity
  8
0
  6
Continuous
 62
     7
370
    15
100
AcDbCircle
 10
107.157227484
 20
160.4153873095
 30
0.0
 40
0.5
100
AcDbArc
 50
90.0
 51
180.0
  0
ARC
  5
4F
330
1F
100
AcDbEntity
  8
0
  6
Continuous
 62
     7
370
    15
100
AcDbCircle
 10
105.7602905656
 20
72.2869019851
 30
0.0
 40
0.9962338214386932
100
AcDbArc
 50
25.7988228126
 51
90.0
  0
ARC
  5
50
330
1F
100
AcDbEntity
  8
0
  6
Continuous
 62
     7
370
    15
100
AcDbCircle
 10
105.7602905656
 20
149.543872634
 30
0.0
 40
0.9962338214386932
100
AcDbArc
 50
270.0
 51
334.2011771874
  0
LINE
  5
51
330
1F
100
AcDbEntity
  8
0
  6
Continuous
 62
     7
370
    15
100
AcDbLine
 10
104.157227484
 20
73.0331358065
 30
0.0
 11
104.9630736384
 21
73.2490616328
 31
0.0
  0
LINE
  5
52
330
1F
100
AcDbEntity
  8
0
  6
Continuous
 62
     7
370
    15
100
AcDbLine
 10
104.9630736384
 20
148.5817129862
 30
0.0
 11
104.157227484
 21
148.7976388125
 31
0.0
  0
LINE
  5
53
330
1F
100
AcDbEntity
  8
0
  6
Continuous
 62
     7
370
    15
100
AcDbLine
 10
85.1765485654
 20
147.846702995
 30
0.0
 11
66.857227484
 21
146.9289013376
 31
0.0
  0
LINE
  5
54
330
1F
100
AcDbEntity
  8
0
  6
Continuous
 62
     7
370
    15
100
AcDbLine
 10
104.157227484
 20
148.7976388125
 30
0.0
 11
98.0891883296
 21
148.4936288349
 31
0.0
  0
LINE
  5
55
330
1F
100
AcDbEntity
  8
0
  6
Continuous
 62
     7
370
    15
100
AcDbLine
 10
98.089311606
 20
73.337139608
 30
0.0
 11
104.157227484
 21
73.0331358065
 31
0.0
  0
LINE
  5
56
330
1F
100
AcDbEntity
  8
0
  6
Continuous
 62
     7
370
    15
100
AcDbLine
 10
71.857227484
 20
74.6513722795
 30
0.0
 11
85.177178638
 21
73.9840400573
 31
0.0
  0
ARC
  5
57
330
1F
100
AcDbEntity
  8
0
  6
Continuous
 62
     7
370
    15
100
AcDbCircle
 10
105.2218926835
 20
72.2831358065
 30
0.0
 40
1.0
100
AcDbArc
 50
90.0
 51
105.0
  0
ARC
  5
58
330
1F
100
AcDbEntity
  8
0
  6
Continuous
 62
     7
370
    15
100
AcDbCircle
 10
105.2218926835
 20
149.5476388125
 30
0.0
 40
1.000000000000023
100
AcDbArc
 50
255.0
 51
270.0
  0
LINE
  5
59
330
1F
100
AcDbEntity
  8
0
  6
Continuous
 62
     7
370
    15
100
AcDbLine
 10
105.2218926835
 20
73.2831358065
 30
0.0
 11
105.7602905656
 21
73.2831358065
 31
0.0
  0
LINE
  5
5A
330
1F
100
AcDbEntity
  8
0
  6
Continuous
 62
     7
370
    15
100
AcDbLine
 10
105.7602905656
 20
148.5476388125
 30
0.0
 11
105.2218926835
 21
148.5476388125
 31
0.0
  0
ARC
  5
5B
330
1F
100
AcDbEntity
  8
0
  6
Continuous
 62
     7
370
    15
100
AcDbCircle
 10
140.607227484
 20
83.9153873095
 30
0.0
 40
5.000000000000014
100
AcDbArc
 50
90.0
 51
180.0
  0
ARC
  5
5C
330
1F
100
AcDbEntity
  8
0
  6
Continuous
 62
     7
370
    15
100
AcDbCircle
 10
140.607227484
 20
137.9153873095
 30
0.0
 40
5.0
100
AcDbArc
 50
180.0
 51
270.0
  0
LINE
  5
5D
330
1F
100
AcDbEntity
  8
0
  6
Continuous
 62
     7
370
    15
100
AcDbLine
 10
152.106043755
 20
88.9153873095
 30
0.0
 11
157.607227484
 21
88.9153873095
 31
0.0
  0
LINE
  5
5E
330
1F
100
AcDbEntity
  8
0
  6
Continuous
 62
     7
370
    15
100
AcDbLine
 10
140.607227484
 20
88.9153873095
 30
0.0
 11
145.1178472728
 21
88.9153873095
 31
0.0
  0
LINE
  5
5F
330
1F
100
AcDbEntity
  8
0
  6
Continuous
 62
     7
370
    15
100
AcDbLine
 10
145.1076922753
 20
132.9153873095
 30
0.0
 11
140.607227484
 21
132.9153873095
 31
0.0
  0
LINE
  5
60
330
1F
100
AcDbEntity
  8
0
  6
Continuous
 62
     7
370
    15
100
AcDbLine
 10
157.607227484
 20
132.9153873095
 30
0.0
 11
152.0971813351
 21
132.9153873095
 31
0.0
  0
ARC
  5
61
330
1F
100
AcDbEntity
  8
0
  6
Continuous
 62
     7
370
    15
100
AcDbCircle
 10
185.4953970188
 20
-169.5846126905
 30
0.0
 40
260.0
100
AcDbArc
 50
90.0
 51
96.1575167571
  0
ARC
  5
62
330
1F
100
AcDbEntity
  8
0
  6
Continuous
 62
     7
370
    15
100
AcDbCircle
 10
185.4953970188
 20
391.4153873095
 30
0.0
 40
260.0000000000001
100
AcDbArc
 50
263.8424832429
 51
270.0
  0
LINE
  5
63
330
1F
100
AcDbEntity
  8
0
  6
Continuous
 62
     7
370
    15
100
AcDbLine
 10
185.4953970188
 20
90.4153873095
 30
0.0
 11
185.8324085394
 21
90.4153873095
 31
0.0
  0
LINE
  5
64
330
1F
100
AcDbEntity
  8
0
  6
Continuous
 62
     7
370
    15
100
AcDbLine
 10
185.8324085394
 20
131.4153873095
 30
0.0
 11
185.4953970188
 21
131.4153873095
 31
0.0
  0
LINE
  5
65
330
1F
100
AcDbEntity
  8
0
  6
Continuous
 62
     7
370
    15
100
AcDbLine
 10
185.8324085394
 20
90.4153873095
 30
0.0
 11
234.8141456755
 21
94.2703336254
 31
0.0
  0
LINE
  5
66
330
1F
100
AcDbEntity
  8
0
  6
Continuous
 62
     7
370
    15
100
AcDbLine
 10
234.8141456755
 20
127.5604409937
 30
0.0
 11
185.8324085394
 21
131.4153873095
 31
0.0
  0
LINE
  5
67
330
1F
100
AcDbEntity
  8
0
  6
Continuous
 62
     7
370
    15
100
AcDbLine
 10
58.407227484
 20
78.6653873095
 30
0.0
 11
69.957227484
 21
78.6653873095
 31
0.0
  0
ARC
  5
68
330
1F
100
AcDbEntity
  8
0
  6
Continuous
 62
     7
370
    15
100
AcDbCircle
 10
234.657227484
 20
96.2641682928
 30
0.0
 40
2.000000000000004
100
AcDbArc
 50
274.5
 51
0.0
  0
ARC
  5
69
330
1F
100
AcDbEntity
  8
0
  6
Continuous
 62
     7
370
    15
100
AcDbCircle
 10
234.657227484
 20
125.5666063262
 30
0.0
 40
2.0
100
AcDbArc
 50
0.0
 51
85.5
  0
ARC
  5
6A
330
1F
100
AcDbEntity
  8
0
  6
Continuous
 62
     7
370
    15
100
AcDbCircle
 10
69.957227484
 20
76.7653873095
 30
0.0
 40
1.900000000000006
100
AcDbArc
 50
35.6630613694
 51
90.0
  0
ARC
  5
6B
330
1F
100
AcDbEntity
  8
0
  6
Continuous
 62
     7
370
    15
100
AcDbCircle
 10
64.957227484
 20
145.0653873095
 30
0.0
 40
1.9
100
AcDbArc
 50
270.0
 51
312.7708047792
  0
LINE
  5
6C
330
1F
100
AcDbEntity
  8
0
  6
Continuous
 62
     7
370
    15
100
AcDbLine
 10
58.407227484
 20
143.1653873095
 30
0.0
 11
56.8149410191
 21
141.5731008446
 31
0.0
  0
LINE
  5
6D
330
1F
100
AcDbEntity
  8
0
  6
Continuous
 62
     7
370
    15
100
AcDbLine
 10
56.8147943791
 20
80.2578204144
 30
0.0
 11
58.407227484
 21
78.6653873095
 31
0.0
  0
LINE
  5
6E
330
1F
100
AcDbEntity
  8
0
  6
Continuous
 62
     7
370
    15
100
AcDbLine
 10
64.957227484
 20
143.1653873095
 30
0.0
 11
58.407227484
 21
143.1653873095
 31
0.0
  0
LINE
  5
6F
330
1F
100
AcDbEntity
  8
0
  6
Continuous
 62
     7
370
    15
100
AcDbLine
 10
236.657227484
 20
96.5510190492
 30
0.0
 11
236.7345496912
 21
96.6979843916
 31
0.0
  0
LINE
  5
70
330
1F
100
AcDbEntity
  8
0
  6
Continuous
 62
     7
370
    15
100
AcDbLine
 10
236.6756599675
 20
125.135104011
 30
0.0
 11
236.657227484
 21
125.1701383996
 31
0.0
  0
SPLINE
  5
71
330
1F
100
AcDbEntity
  8
0
  6
Continuous
 62
     7
370
    15
100
AcDbSpline
210
0.0
220
0.0
230
1.0
 70
     8
 71
     3
 72
    80
 73
    76
 74
     0
 42
0.00000001
 43
0.00000001
 40
-0.0312500000000001
 40
-0.0312500000000001
 40
0.0
 40
0.0
 40
0.0312499999999995
 40
0.0312499999999995
 40
0.0468749999999993
 40
0.0468749999999993
 40
0.0624999999999991
 40
0.0624999999999991
 40
0.0937499999999988
 40
0.0937499999999988
 40
0.1249999999999986
 40
0.1249999999999986
 40
0.1562499999999983
 40
0.1562499999999983
 40
0.1874999999999981
 40
0.1874999999999981
 40
0.2187499999999978
 40
0.2187499999999978
 40
0.2499999999999976
 40
0.2499999999999976
 40
0.2812499999999973
 40
0.2812499999999973
 40
0.3124999999999971
 40
0.3124999999999971
 40
0.3281249999999971
 40
0.3281249999999971
 40
0.3437499999999971
 40
0.3437499999999971
 40
0.3749999999999973
 40
0.3749999999999973
 40
0.4062499999999975
 40
0.4062499999999975
 40
0.4218749999999975
 40
0.4218749999999975
 40
0.4374999999999974
 40
0.4374999999999974
 40
0.4687499999999973
 40
0.4687499999999973
 40
0.4999999999999972
 40
0.4999999999999972
 40
0.531249999999997
 40
0.531249999999997
 40
0.562499999999997
 40
0.562499999999997
 40
0.5937499999999969
 40
0.5937499999999969
 40
0.6249999999999969
 40
0.6249999999999969
 40
0.6562499999999968
 40
0.6562499999999968
 40
0.6874999999999968
 40
0.6874999999999968
 40
0.7031249999999968
 40
0.7031249999999968
 40
0.7187499999999969
 40
0.7187499999999969
 40
0.7499999999999973
 40
0.7499999999999973
 40
0.7812499999999979
 40
0.7812499999999979
 40
0.7968749999999982
 40
0.7968749999999982
 40
0.8124999999999984
 40
0.8124999999999984
 40
0.8437499999999988
 40
0.8437499999999988
 40
0.874999999999999
 40
0.874999999999999
 40
0.9062499999999993
 40
0.9062499999999993
 40
0.9374999999999996
 40
0.9374999999999996
 40
0.9687499999999999
 40
0.9687499999999999
 40
1.0
 40
1.0
 40
1.03125
 40
1.03125
 10
115.326682171272
 20
154.3300167731553
 30
0.0
 10
115.9877727968246
 20
154.3300167731553
 30
0.0
 10
116.3127529260762
 20
154.3462250045374
 30
0.0
 10
116.7922263373226
 20
154.3935896365571
 30
0.0
 10
116.9507081551635
 20
154.4132438484477
 30
0.0
 10
117.2649276876677
 20
154.4603550046403
 30
0.0
 10
117.4210479713481
 20
154.487936324135
 30
0.0
 10
117.8751020003047
 20
154.5804721109288
 30
0.0
 10
118.1622053832445
 20
154.6555425445253
 30
0.0
 10
118.7055599392715
 20
154.8307808531359
 30
0.0
 10
118.9626635504771
 20
154.9317821509742
 30
0.0
 10
119.4235698054159
 20
155.149138349435
 30
0.0
 10
119.6304675146309
 20
155.2663026812073
 30
0.0
 10
119.9959928286231
 20
155.5163726054359
 30
0.0
 10
120.151198350749
 20
155.6473186941949
 30
0.0
 10
120.4006287373488
 20
155.9130536379072
 30
0.0
 10
120.4967186931339
 20
156.0498072312182
 30
0.0
 10
120.6252375423275
 20
156.3238728060572
 30
0.0
 10
120.6570484125053
 20
156.458812896526
 30
0.0
 10
120.6574050622785
 20
156.7242845335948
 30
0.0
 10
120.6249078100815
 20
156.856109010736
 30
0.0
 10
120.497282336367
 20
157.1055586103564
 30
0.0
 10
120.4028539353151
 20
157.2239913022844
 30
0.0
 10
120.2149931153295
 20
157.3928604993785
 30
0.0
 10
120.1441651165264
 20
157.4479464944987
 30
0.0
 10
119.9894432245611
 20
157.5531993229871
 30
0.0
 10
119.9054667543777
 20
157.6035345517475
 30
0.0
 10
119.6341430847333
 20
157.7481103842856
 30
0.0
 10
119.4275938661309
 20
157.8359719707025
 30
0.0
 10
118.9609837259419
 20
157.995693063702
 30
0.0
 10
118.7086181563164
 20
158.0649313601692
 30
0.0
 10
118.3027168146377
 20
158.1547187493991
 30
0.0
 10
118.1628161971602
 20
158.1822847114853
 30
0.0
 10
117.8735922619133
 20
158.2327755124116
 30
0.0
 10
117.723752805624
 20
158.2557389512623
 30
0.0
 10
117.2696362360132
 20
158.3163694676811
 30
0.0
 10
116.9579850172764
 20
158.3464434964769
 30
0.0
 10
116.316988552364
 20
158.3870330837356
 30
0.0
 10
115.9854609244118
 20
158.3973453139516
 30
0.0
 10
115.3326698793404
 20
158.3974208811174
 30
0.0
 10
115.0081336743085
 20
158.3875192756497
 30
0.0
 10
114.3628642248921
 20
158.3470327451244
 30
0.0
 10
114.0471212187294
 20
158.3165714452398
 30
0.0
 10
113.4452319237457
 20
158.2364207738032
 30
0.0
 10
113.1544826929342
 20
158.186138541996
 30
0.0
 10
112.6075709012497
 20
158.065468359223
 30
0.0
 10
112.3557935374128
 20
157.996244500053
 30
0.0
 10
111.8944055447917
 20
157.8387927724124
 30
0.0
 10
111.6831362651936
 20
157.7494442977386
 30
0.0
 10
111.3198319128174
 20
157.5561964270378
 30
0.0
 10
111.1660252643746
 20
157.4520684351585
 30
0.0
 10
110.9774057947772
 20
157.283444048975
 30
0.0
 10
110.9213753085681
 20
157.2248156473001
 30
0.0
 10
110.8258015468319
 20
157.1053607324739
 30
0.0
 10
110.7860386298069
 20
157.0444409436356
 30
0.0
 10
110.6902668794948
 20
156.8580362174617
 30
0.0
 10
110.6575440403687
 20
156.7289233996667
 30
0.0
 10
110.6569154540396
 20
156.4602664767108
 30
0.0
 10
110.6891015987744
 20
156.3248957359541
 30
0.0
 10
110.78401230063
 20
156.1213454277181
 30
0.0
 10
110.8234790840289
 20
156.0533735036547
 30
0.0
 10
110.9184090827498
 20
155.9172812805238
 30
0.0
 10
110.9741659105132
 20
155.8489311803143
 30
0.0
 10
111.1621060284831
 20
155.6482281672722
 30
0.0
 10
111.3154674981992
 20
155.5188398934595
 30
0.0
 10
111.6777317330796
 20
155.2701744614097
 30
0.0
 10
111.8885802065455
 20
155.1503648190415
 30
0.0
 10
112.3492501768644
 20
154.9328425314688
 30
0.0
 10
112.6006245564482
 20
154.8337574316329
 30
0.0
 10
113.1465324433464
 20
154.6570849577161
 30
0.0
 10
113.4373550179976
 20
154.581027869582
 30
0.0
 10
114.0386816327776
 20
154.458182892229
 30
0.0
 10
114.35320021739
 20
154.4104767671759
 30
0.0
 10
114.99978167351
 20
154.3462282320563
 30
0.0
 10
115.326682171272
 20
154.3300167731553
 30
0.0
 10
115.9877727968246
 20
154.3300167731553
 30
0.0
  0
LINE
  5
72
330
1F
100
AcDbEntity
  8
0
  6
Continuous
 62
     7
370
    15
100
AcDbLine
 10
111.607227484
 20
142.2653873095
 30
0.0
 11
123.3951984631
 21
142.2653873095
 31
0.0
  0
LINE
  5
73
330
1F
100
AcDbEntity
  8
0
  6
Continuous
 62
     7
370
    15
100
AcDbLine
 10
123.3951984631
 20
62.1403937165
 30
0.0
 11
123.3951984631
 21
142.2653873095
 31
0.0
  0
LINE
  5
74
330
1F
100
AcDbEntity
  8
0
  6
Continuous
 62
     7
370
    15
100
AcDbLine
 10
123.3951984631
 20
62.1403937165
 30
0.0
 11
121.607227484
 21
62.1403937165
 31
0.0
  0
SPLINE
  5
75
330
1F
100
AcDbEntity
  8
0
  6
Continuous
 62
     7
370
    15
100
AcDbSpline
210
0.0
220
0.0
230
1.0
 70
     8
 71
     3
 72
    30
 73
    26
 74
     0
 42
0.00000001
 43
0.00000001
 40
0.0
 40
0.0
 40
0.0
 40
0.0
 40
0.1250000000000002
 40
0.1250000000000002
 40
0.1875000000000003
 40
0.1875000000000003
 40
0.2500000000000004
 40
0.2500000000000004
 40
0.3750000000000001
 40
0.3750000000000001
 40
0.4374999999999998
 40
0.4374999999999998
 40
0.4999999999999996
 40
0.4999999999999996
 40
0.6249999999999996
 40
0.6249999999999996
 40
0.6874999999999997
 40
0.6874999999999997
 40
0.7499999999999997
 40
0.7499999999999997
 40
0.8124999999999998
 40
0.8124999999999998
 40
0.8749999999999999
 40
0.8749999999999999
 40
1.0
 40
1.0
 40
1.0
 40
1.0
 10
121.6072274840483
 20
62.14039371649522
 30
0.0
 10
120.9444827902032
 20
62.14039371649523
 30
0.0
 10
120.2932269310875
 20
62.12555363990641
 30
0.0
 10
119.3327763928292
 20
62.08318407567679
 30
0.0
 10
119.0153849495963
 20
62.06570597289763
 30
0.0
 10
118.3862214480414
 20
62.02437768634531
 30
0.0
 10
118.0740732615997
 20
62.00045241288762
 30
0.0
 10
117.1667659597514
 20
61.92164589642071
 30
0.0
 10
116.5933410021102
 20
61.85933987644425
 30
0.0
 10
115.7794641325355
 20
61.75621055620488
 30
0.0
 10
115.5146579359657
 20
61.72002663715837
 30
0.0
 10
115.0077505251513
 20
61.64623185295787
 30
0.0
 10
114.7663563737978
 20
61.60875799418622
 30
0.0
 10
114.0772149016655
 20
61.49604605084649
 30
0.0
 10
113.6641600868013
 20
61.42050995337271
 30
0.0
 10
113.1160052674262
 20
61.31211669635521
 30
0.0
 10
112.9465426600806
 20
61.27704446469195
 30
0.0
 10
112.6385254120652
 20
61.2108090040921
 30
0.0
 10
112.4991453914569
 20
61.17948230733738
 30
0.0
 10
112.2493598788301
 20
61.12107353575644
 30
0.0
 10
112.1389537661762
 20
61.09399030057359
 30
0.0
 10
111.9476959125385
 20
61.04473054596001
 30
0.0
 10
111.8665763942542
 20
61.02246856615236
 30
0.0
 10
111.6724294741458
 20
60.96490165898409
 30
0.0
 10
111.6072274840483
 20
60.9386420541981
 30
0.0
 10
111.6072274840483
 20
60.92538830972407
 30
0.0
  0
LINE
  5
76
330
1F
100
AcDbEntity
  8
0
  6
Continuous
 62
     7
370
    15
100
AcDbLine
 10
111.607227484
 20
60.9253883097
 30
0.0
 11
111.607227484
 21
60.9153873095
 31
0.0
  0
SPLINE
  5
77
330
1F
100
AcDbEntity
  8
0
  6
Continuous
 62
     7
370
    15
100
AcDbSpline
210
0.0
220
0.0
230
1.0
 70
     8
 71
     3
 72
    17
 73
    13
 74
     0
 42
0.00000001
 43
0.00000001
 40
0.0
 40
0.0
 40
0.0
 40
0.0
 40
0.104384384054747
 40
0.2118345768143993
 40
0.316208200519045
 40
0.4235375806108392
 40
0.5292276236193852
 40
0.6379275864803491
 40
0.7444714844189683
 40
0.8541836219421859
 40
0.9593080534965217
 40
1.0
 40
1.0
 40
1.0
 40
1.0
 10
121.6072274840483
 20
159.9051821651876
 30
0.0
 10
121.0592890361889
 20
159.9105503689363
 30
0.0
 10
119.9473189817242
 20
159.9214444426013
 30
0.0
 10
118.3344630685092
 20
160.0066218168602
 30
0.0
 10
116.8009498515323
 20
160.1329965231528
 30
0.0
 10
115.4099290021957
 20
160.2898993437296
 30
0.0
 10
114.1744124849653
 20
160.4615981732502
 30
0.0
 10
113.15105671781
 20
160.6269344493512
 30
0.0
 10
112.3507147195449
 20
160.7706479289378
 30
0.0
 10
111.8403826176313
 20
160.868802736117
 30
0.0
 10
111.6004741888068
 20
160.9167311329869
 30
0.0
 10
111.6323929682266
 20
160.9103637337472
 30
0.0
 10
111.6413003165088
 20
160.908586828624
 30
0.0
  0
LINE
  5
78
330
1F
100
AcDbEntity
  8
0
  6
Continuous
 62
     7
370
    15
100
AcDbLine
 10
123.3951984631
 20
159.9051821652
 30
0.0
 11
121.607227484
 21
159.9051821652
 31
0.0
  0
LINE
  5
79
330
1F
100
AcDbEntity
  8
0
  6
Continuous
 62
     7
370
    15
100
AcDbLine
 10
123.3951984631
 20
149.8663500704
 30
0.0
 11
123.3951984631
 21
159.9051821652
 31
0.0
  0
LINE
  5
7A
330
1F
100
AcDbEntity
  8
0
  6
Continuous
 62
     7
370
    15
100
AcDbLine
 10
121.3151943322
 20
149.8663500704
 30
0.0
 11
123.3951984631
 21
149.8663500704
 31
0.0
  0
SPLINE
  5
7B
330
1F
100
AcDbEntity
  8
0
  6
Continuous
 62
     7
370
    15
100
AcDbSpline
210
0.0
220
0.0
230
1.0
 70
     8
 71
     3
 72
    22
 73
    18
 74
     0
 42
0.00000001
 43
0.00000001
 40
0.0
 40
0.0
 40
0.0
 40
0.0
 40
0.2500000000000002
 40
0.2500000000000002
 40
0.3750000000000003
 40
0.3750000000000003
 40
0.5000000000000004
 40
0.5000000000000004
 40
0.6250000000000004
 40
0.6250000000000004
 40
0.7500000000000004
 40
0.7500000000000004
 40
0.8750000000000004
 40
0.8750000000000004
 40
0.9375000000000002
 40
0.9375000000000002
 40
1.0
 40
1.0
 40
1.0
 40
1.0
 10
111.6072274840483
 20
142.265387309524
 30
0.0
 10
111.8099524399673
 20
143.2846336513887
 30
0.0
 10
112.1246961617627
 20
144.243741801328
 30
0.0
 10
112.8327516314337
 20
145.5862208788372
 30
0.0
 10
113.1112142616513
 20
146.0204294615773
 30
0.0
 10
113.7499816682885
 20
146.8320571770793
 30
0.0
 10
114.1103953480787
 20
147.2113374700162
 30
0.0
 10
114.927927580068
 20
147.9142960490372
 30
0.0
 10
115.3890955633552
 20
148.2393248667378
 30
0.0
 10
116.387085809839
 20
148.8043401901287
 30
0.0
 10
116.9268450038312
 20
149.0480437843352
 30
0.0
 10
118.1014379678625
 20
149.4522437119801
 30
0.0
 10
118.7131741538544
 20
149.6046809050256
 30
0.0
 10
119.6650833787161
 20
149.7600084526344
 30
0.0
 10
119.9883165429768
 20
149.7995132326844
 30
0.0
 10
120.647379714252
 20
149.8528223533531
 30
0.0
 10
120.981443724826
 20
149.866350070411
 30
0.0
 10
121.3151943322276
 20
149.8663500704109
 30
0.0
  0
LINE
  5
7C
330
1F
100
AcDbEntity
  8
0
  6
Continuous
 62
     7
370
    15
100
AcDbLine
 10
129.919256505
 20
62.1403937165
 30
0.0
 11
129.919256505
 21
142.2653873095
 31
0.0
  0
SPLINE
  5
7D
330
1F
100
AcDbEntity
  8
0
  6
Continuous
 62
     7
370
    15
100
AcDbSpline
210
0.0
220
0.0
230
1.0
 70
     8
 71
     3
 72
     8
 73
     4
 74
     0
 42
0.00000001
 43
0.00000001
 40
0.0
 40
0.0
 40
0.0
 40
0.0
 40
1.0
 40
1.0
 40
1.0
 40
1.0
 10
129.9192565049697
 20
62.14039371649522
 30
0.0
 10
129.4681517755695
 20
62.94135364831513
 30
0.0
 10
129.0174539483261
 20
63.74254365987581
 30
0.0
 10
128.5672274840483
 20
64.54399902250056
 30
0.0
  0
LINE
  5
7E
330
1F
100
AcDbEntity
  8
0
  6
Continuous
 62
     7
370
    15
100
AcDbLine
 10
128.567227484
 20
64.5439990225
 30
0.0
 11
128.567227484
 21
142.2653873095
 31
0.0
  0
SPLINE
  5
7F
330
1F
100
AcDbEntity
  8
0
  6
Continuous
 62
     7
370
    15
100
AcDbSpline
210
0.0
220
0.0
230
1.0
 70
    24
 71
     3
 72
     8
 73
     4
 74
     0
 42
0.00000001
 43
0.00000001
 40
0.0
 40
0.0
 40
0.0
 40
0.0
 40
1.0
 40
1.0
 40
1.0
 40
1.0
 10
128.5672274840483
 20
142.265387309524
 30
0.0
 10
129.0114403664022
 20
142.265387309524
 30
0.0
 10
129.4624549326414
 20
142.265387309524
 30
0.0
 10
129.9192565049697
 20
142.265387309524
 30
0.0
  0
LINE
  5
80
330
1F
100
AcDbEntity
  8
0
  6
Continuous
 62
     7
370
    15
100
AcDbLine
 10
135.607227484
 20
63.1660417643
 30
0.0
 11
135.607227484
 21
142.2653873095
 31
0.0
  0
SPLINE
  5
81
330
1F
100
AcDbEntity
  8
0
  6
Continuous
 62
     7
370
    15
100
AcDbSpline
210
0.0
220
0.0
230
1.0
 70
     8
 71
     3
 72
    14
 73
    10
 74
     0
 42
0.00000001
 43
0.00000001
 40
0.0
 40
0.0
 40
0.0
 40
0.0
 40
0.25
 40
0.25
 40
0.5
 40
0.5
 40
0.75
 40
0.75
 40
1.0
 40
1.0
 40
1.0
 40
1.0
 10
135.6072274840483
 20
63.16604176427074
 30
0.0
 10
135.6072274840483
 20
63.0326160682162
 30
0.0
 10
135.5819163841374
 20
62.90076826037183
 30
0.0
 10
135.4835816202927
 20
62.65424571167774
 30
0.0
 10
135.4104376160366
 20
62.54044052343718
 30
0.0
 10
135.2269995549409
 20
62.34998334648992
 30
0.0
 10
135.1153132206023
 20
62.27234848264001
 30
0.0
 10
134.872809790296
 20
62.16805707252753
 30
0.0
 10
134.7394353616018
 20
62.14039371649518
 30
0.0
 10
134.6072274840483
 20
62.14039371649518
 30
0.0
  0
SPLINE
  5
82
330
1F
100
AcDbEntity
  8
0
  6
Continuous
 62
     7
370
    15
100
AcDbSpline
210
0.0
220
0.0
230
1.0
 70
    24
 71
     3
 72
    12
 73
     8
 74
     0
 42
0.00000001
 43
0.00000001
 40
0.0
 40
0.0
 40
0.0
 40
0.0
 40
0.2500000000000032
 40
0.2500000000000032
 40
0.5000000000000064
 40
0.5000000000000064
 40
1.0
 40
1.0
 40
1.0
 40
1.0
 10
134.6072274840483
 20
142.265387309524
 30
0.0
 10
134.7593177209933
 20
142.265387309524
 30
0.0
 10
134.9077769820687
 20
142.265387309524
 30
0.0
 10
135.1651806143344
 20
142.265387309524
 30
0.0
 10
135.2742853621763
 20
142.265387309524
 30
0.0
 10
135.5283448385838
 20
142.265387309524
 30
0.0
 10
135.6072274840483
 20
142.265387309524
 30
0.0
 10
135.6072274840483
 20
142.265387309524
 30
0.0
  0
LINE
  5
83
330
1F
100
AcDbEntity
  8
0
  6
Continuous
 62
     7
370
    15
100
AcDbLine
 10
134.607227484
 20
62.1403937165
 30
0.0
 11
129.919256505
 21
62.1403937165
 31
0.0
  0
LINE
  5
84
330
1F
100
AcDbEntity
  8
0
  6
Continuous
 62
     7
370
    15
100
AcDbLine
 10
129.919256505
 20
142.2653873095
 30
0.0
 11
134.607227484
 21
142.2653873095
 31
0.0
  0
LINE
  5
85
330
1F
100
AcDbEntity
  8
0
  6
Continuous
 62
     7
370
    15
100
AcDbLine
 10
124.747227484
 20
64.5439990225
 30
0.0
 11
124.747227484
 21
142.2653873095
 31
0.0
  0
SPLINE
  5
86
330
1F
100
AcDbEntity
  8
0
  6
Continuous
 62
     7
370
    15
100
AcDbSpline
210
0.0
220
0.0
230
1.0
 70
     8
 71
     3
 72
     8
 73
     4
 74
     0
 42
0.00000001
 43
0.00000001
 40
0.0
 40
0.0
 40
0.0
 40
0.0
 40
1.0
 40
1.0
 40
1.0
 40
1.0
 10
124.7472274840483
 20
64.54399902250056
 30
0.0
 10
124.2970010197705
 20
63.74254365987581
 30
0.0
 10
123.8463031925271
 20
62.94135364831513
 30
0.0
 10
123.3951984631269
 20
62.14039371649522
 30
0.0
  0
SPLINE
  5
87
330
1F
100
AcDbEntity
  8
0
  6
Continuous
 62
     7
370
    15
100
AcDbSpline
210
0.0
220
0.0
230
1.0
 70
    24
 71
     3
 72
     8
 73
     4
 74
     0
 42
0.00000001
 43
0.00000001
 40
0.0
 40
0.0
 40
0.0
 40
0.0
 40
1.0
 40
1.0
 40
1.0
 40
1.0
 10
123.3951984631269
 20
142.265387309524
 30
0.0
 10
123.8520000354551
 20
142.265387309524
 30
0.0
 10
124.3030146016943
 20
142.265387309524
 30
0.0
 10
124.7472274840483
 20
142.265387309524
 30
0.0
  0
LINE
  5
88
330
1F
100
AcDbEntity
  8
0
  6
Continuous
 62
     7
370
    15
100
AcDbLine
 10
106.657227484
 20
61.4153873095
 30
0.0
 11
106.657227484
 21
160.415387305
 31
0.0
  0
SPLINE
  5
89
330
1F
100
AcDbEntity
  8
0
  6
Continuous
 62
     7
370
    15
100
AcDbSpline
210
0.0
220
0.0
230
1.0
 70
     8
 71
     3
 72
    12
 73
     8
 74
     0
 42
0.00000001
 43
0.00000001
 40
0.0
 40
0.0
 40
0.0
 40
0.0
 40
0.25
 40
0.25
 40
0.5
 40
0.5
 40
1.0
 40
1.0
 40
1.0
 40
1.0
 10
125.5472274840483
 20
66.27571185147438
 30
0.0
 10
125.4414668306993
 20
66.27571185147438
 30
0.0
 10
125.3334792025164
 20
66.25317234547398
 30
0.0
 10
125.1388845372508
 20
66.16860171347867
 30
0.0
 10
125.0500126244119
 20
66.10612006071989
 30
0.0
 10
124.830820332086
 20
65.87673110924771
 30
0.0
 10
124.7472274840482
 20
65.66414777172533
 30
0.0
 10
124.7472274840482
 20
65.45220852712913
 30
0.0
  0
SPLINE
  5
8A
330
1F
100
AcDbEntity
  8
0
  6
Continuous
 62
     7
370
    15
100
AcDbSpline
210
0.0
220
0.0
230
1.0
 70
    24
 71
     3
 72
    14
 73
    10
 74
     0
 42
0.00000001
 43
0.00000001
 40
0.0
 40
0.0
 40
0.0
 40
0.0
 40
0.25
 40
0.25
 40
0.5
 40
0.5
 40
0.75
 40
0.75
 40
1.0
 40
1.0
 40
1.0
 40
1.0
 10
124.7472274840483
 20
142.265387309524
 30
0.0
 10
124.7472274840483
 20
142.265387309524
 30
0.0
 10
124.7629418045142
 20
142.265387309524
 30
0.0
 10
124.8266257829826
 20
142.265387309524
 30
0.0
 10
124.875228977393
 20
142.265387309524
 30
0.0
 10
125.0079124998186
 20
142.265387309524
 30
0.0
 10
125.0930146041293
 20
142.265387309524
 30
0.0
 10
125.2994568390393
 20
142.265387309524
 30
0.0
 10
125.4235377806623
 20
142.265387309524
 30
0.0
 10
125.5472274840483
 20
142.265387309524
 30
0.0
  0
SPLINE
  5
8B
330
1F
100
AcDbEntity
  8
0
  6
Continuous
 62
     7
370
    15
100
AcDbSpline
210
0.0
220
0.0
230
1.0
 70
     8
 71
     3
 72
    14
 73
    10
 74
     0
 42
0.00000001
 43
0.00000001
 40
0.0
 40
0.0
 40
0.0
 40
0.0
 40
0.25
 40
0.25
 40
0.5
 40
0.5
 40
0.75
 40
0.75
 40
1.0
 40
1.0
 40
1.0
 40
1.0
 10
128.5672274840483
 20
65.45220852712913
 30
0.0
 10
128.5672274840483
 20
65.55925260812353
 30
0.0
 10
128.5471097968901
 20
65.66448774836597
 30
0.0
 10
128.4686186076245
 20
65.86233823521364
 30
0.0
 10
128.4104619828233
 20
65.95338999877858
 30
0.0
 10
128.2639467272052
 20
66.10655609270336
 30
0.0
 10
128.1753041785641
 20
66.16885053891276
 30
0.0
 10
127.9795808557638
 20
66.25364432444874
 30
0.0
 10
127.8743496646929
 20
66.27571185147438
 30
0.0
 10
127.7672274840483
 20
66.27571185147438
 30
0.0
  0
SPLINE
  5
8C
330
1F
100
AcDbEntity
  8
0
  6
Continuous
 62
     7
370
    15
100
AcDbSpline
210
0.0
220
0.0
230
1.0
 70
    24
 71
     3
 72
    14
 73
    10
 74
     0
 42
0.00000001
 43
0.00000001
 40
0.0
 40
0.0
 40
0.0
 40
0.0
 40
0.25
 40
0.25
 40
0.5
 40
0.5
 40
0.75
 40
0.75
 40
1.0
 40
1.0
 40
1.0
 40
1.0
 10
127.7672274840483
 20
142.265387309524
 30
0.0
 10
127.8909972488134
 20
142.265387309524
 30
0.0
 10
128.0153643528203
 20
142.265387309524
 30
0.0
 10
128.2217208215463
 20
142.265387309524
 30
0.0
 10
128.3070489649647
 20
142.265387309524
 30
0.0
 10
128.4392410236799
 20
142.265387309524
 30
0.0
 10
128.4878862674305
 20
142.265387309524
 30
0.0
 10
128.5514220591593
 20
142.265387309524
 30
0.0
 10
128.5672274840483
 20
142.265387309524
 30
0.0
 10
128.5672274840483
 20
142.265387309524
 30
0.0
  0
LINE
  5
8D
330
1F
100
AcDbEntity
  8
0
  6
Continuous
 62
     7
370
    15
100
AcDbLine
 10
127.767227484
 20
66.2757118515
 30
0.0
 11
125.547227484
 21
66.2757118515
 31
0.0
  0
LINE
  5
8E
330
1F
100
AcDbEntity
  8
0
  6
Continuous
 62
     7
370
    15
100
AcDbLine
 10
125.547227484
 20
142.2653873095
 30
0.0
 11
127.767227484
 21
142.2653873095
 31
0.0
  0
LINE
  5
8F
330
1F
100
AcDbEntity
  8
0
  6
Continuous
 62
     7
370
    15
100
AcDbLine
 10
104.157227484
 20
73.0331358065
 30
0.0
 11
104.157227484
 21
148.7976388125
 31
0.0
  0
LINE
  5
90
330
1F
100
AcDbEntity
  8
0
  6
Continuous
 62
     7
370
    15
100
AcDbLine
 10
71.857227484
 20
74.6513722795
 30
0.0
 11
71.857227484
 21
77.0460540442
 31
0.0
  0
SPLINE
  5
91
330
1F
100
AcDbEntity
  8
0
  6
Continuous
 62
     7
370
    15
100
AcDbSpline
210
0.0
220
0.0
230
1.0
 70
     8
 71
     3
 72
    14
 73
    10
 74
     0
 42
0.00000001
 43
0.00000001
 40
0.0
 40
0.0
 40
0.0
 40
0.0
 40
0.25
 40
0.25
 40
0.5
 40
0.5
 40
0.75
 40
0.75
 40
1.0
 40
1.0
 40
1.0
 40
1.0
 10
70.85280501271131
 20
78.7489059657805
 30
0.0
 10
70.94157359065663
 20
78.59037183447253
 30
0.0
 10
71.06329142933554
 20
78.437929157584
 30
0.0
 10
71.29834103919238
 20
78.14079453375507
 30
0.0
 10
71.41397122540927
 20
77.99611189013771
 30
0.0
 10
71.61437615883709
 20
77.7128226876343
 30
0.0
 10
71.6997764508214
 20
77.57426869459744
 30
0.0
 10
71.82148208453864
 20
77.30288466456392
 30
0.0
 10
71.85722748405128
 20
77.1707487959293
 30
0.0
 10
71.85722748405126
 20
77.04605404415852
 30
0.0
  0
SPLINE
  5
92
330
1F
100
AcDbEntity
  8
0
  6
Continuous
 62
     7
370
    15
100
AcDbSpline
210
0.0
220
0.0
230
1.0
 70
     8
 71
     3
 72
    14
 73
    10
 74
     0
 42
0.00000001
 43
0.00000001
 40
0.0
 40
0.0
 40
0.0
 40
0.0
 40
0.124999999999999
 40
0.124999999999999
 40
0.249999999999998
 40
0.249999999999998
 40
0.5000000000000007
 40
0.5000000000000007
 40
1.0
 40
1.0
 40
1.0
 40
1.0
 10
69.95722748404826
 20
79.37773590488061
 30
0.0
 10
70.02480978383275
 20
79.384891789982
 30
0.0
 10
70.09729736158066
 20
79.38046731994297
 30
0.0
 10
70.2295884708466
 20
79.35076116217263
 30
0.0
 10
70.28686585023678
 20
79.32747688059442
 30
0.0
 10
70.43651627743705
 20
79.24999164074408
 30
0.0
 10
70.51022957295855
 20
79.18813981384272
 30
0.0
 10
70.69803755628479
 20
79.00346236119441
 30
0.0
 10
70.78207786264625
 20
78.87521943790318
 30
0.0
 10
70.85280501271252
 20
78.74890596578061
 30
0.0
  0
SPLINE
  5
93
330
1F
100
AcDbEntity
  8
0
  6
Continuous
 62
     7
370
    15
100
AcDbSpline
210
0.0
220
0.0
230
1.0
 70
     8
 71
     3
 72
     8
 73
     4
 74
     0
 42
0.00000001
 43
0.00000001
 40
0.0
 40
0.0
 40
0.0
 40
0.0
 40
1.0
 40
1.0
 40
1.0
 40
1.0
 10
66.41258709596748
 20
78.95968732008882
 30
0.0
 10
67.57788540667634
 20
79.11487479197544
 30
0.0
 10
68.76250062071617
 20
79.25123343028575
 30
0.0
 10
69.95722748404826
 20
79.37773590488062
 30
0.0
  0
SPLINE
  5
94
330
1F
100
AcDbEntity
  8
0
  6
Continuous
 62
     7
370
    15
100
AcDbSpline
210
0.0
220
0.0
230
1.0
 70
     8
 71
     3
 72
    14
 73
    10
 74
     0
 42
0.00000001
 43
0.00000001
 40
0.0
 40
0.0
 40
0.0
 40
0.0
 40
0.4999999999999972
 40
0.4999999999999972
 40
0.7499999999999971
 40
0.7499999999999971
 40
0.8749999999999986
 40
0.8749999999999986
 40
1.0
 40
1.0
 40
1.0
 40
1.0
 10
58.65715260001956
 20
78.6695551409589
 30
0.0
 10
59.96545416255331
 20
78.67656986470004
 30
0.0
 10
61.27051353721012
 20
78.6919784411445
 30
0.0
 10
63.21638958869845
 20
78.74587499661118
 30
0.0
 10
63.86308709243745
 20
78.76890656121388
 30
0.0
 10
64.8269294562918
 20
78.81984908608463
 30
0.0
 10
65.14716814822587
 20
78.83958400831784
 30
0.0
 10
65.78386337456828
 20
78.8890711367894
 30
0.0
 10
66.10057878285119
 20
78.91813591571862
 30
0.0
 10
66.41258709596751
 20
78.95968732008879
 30
0.0
  0
SPLINE
  5
95
330
1F
100
AcDbEntity
  8
0
  6
Continuous
 62
     7
370
    15
100
AcDbSpline
210
0.0
220
0.0
230
1.0
 70
     8
 71
     3
 72
    12
 73
     8
 74
     0
 42
0.00000001
 43
0.00000001
 40
0.0
 40
0.0
 40
0.0
 40
0.0
 40
0.2500000000000009
 40
0.2500000000000009
 40
0.5000000000000018
 40
0.5000000000000018
 40
1.0
 40
1.0
 40
1.0
 40
1.0
 10
64.95722748404826
 20
143.0019102010205
 30
0.0
 10
64.43852866222008
 20
143.0344329758687
 30
0.0
 10
63.91681708901509
 20
143.0577297170392
 30
0.0
 10
62.8705250725195
 20
143.0955752314613
 30
0.0
 10
62.34585344684925
 20
143.1098437059574
 30
0.0
 10
60.76900742431002
 20
143.1440531934157
 30
0.0
 10
59.7140521097631
 20
143.1555526973596
 30
0.0
 10
58.65715260001787
 20
143.1612194780891
 30
0.0
  0
SPLINE
  5
96
330
1F
100
AcDbEntity
  8
0
  6
Continuous
 62
     7
370
    15
100
AcDbSpline
210
0.0
220
0.0
230
1.0
 70
     8
 71
     3
 72
    20
 73
    16
 74
     0
 42
0.00000001
 43
0.00000001
 40
0.0
 40
0.0
 40
0.0
 40
0.0
 40
0.2500000000000011
 40
0.2500000000000011
 40
0.5000000000000021
 40
0.5000000000000021
 40
0.7500000000000031
 40
0.7500000000000031
 40
0.8750000000000008
 40
0.8750000000000008
 40
0.9375000000000006
 40
0.9375000000000006
 40
0.9687500000000003
 40
0.9687500000000003
 40
1.0
 40
1.0
 40
1.0
 40
1.0
 10
66.85722748404827
 20
144.6599960465086
 30
0.0
 10
66.85722748404827
 20
144.5243137267618
 30
0.0
 10
66.80851569483164
 20
144.3832267406218
 30
0.0
 10
66.63935427160645
 20
144.0911550218912
 30
0.0
 10
66.51757385768813
 20
143.9395062798008
 30
0.0
 10
66.22002676293862
 20
143.6370978396477
 30
0.0
 10
66.04611415723585
 20
143.4845092035244
 30
0.0
 10
65.72669932335403
 20
143.2592384396821
 30
0.0
 10
65.61165854790677
 20
143.1845153451713
 30
0.0
 10
65.40457422389035
 20
143.0851049359144
 30
0.0
 10
65.32846638908396
 20
143.0535398435698
 30
0.0
 10
65.1970718495306
 20
143.0190964593768
 30
0.0
 10
65.15051863052915
 20
143.0100448876092
 30
0.0
 10
65.05418527944843
 20
142.9998692387707
 30
0.0
 10
65.004925856093
 20
142.9989194800957
 30
0.0
 10
64.95722748404629
 20
143.0019102010103
 30
0.0
  0
LINE
  5
97
330
1F
100
AcDbEntity
  8
0
  6
Continuous
 62
     7
370
    15
100
AcDbLine
 10
66.857227484
 20
144.6599960465
 30
0.0
 11
66.857227484
 21
146.9289013376
 31
0.0
  0
SPLINE
  5
98
330
1F
100
AcDbEntity
  8
0
  6
Continuous
 62
     7
370
    15
100
AcDbSpline
210
0.0
220
0.0
230
1.0
 70
     8
 71
     3
 72
    24
 73
    20
 74
     0
 42
0.00000001
 43
0.00000001
 40
0.0
 40
0.0
 40
0.0
 40
0.0
 40
0.0002934293894791
 40
0.062808005175641
 40
0.1260453927228619
 40
0.18907467666103
 40
0.2513200540860133
 40
0.3133304633786588
 40
0.3759158453762907
 40
0.4383740564599686
 40
0.5000631094857209
 40
0.5616593988040849
 40
0.6245050380644152
 40
0.6872231506510951
 40
0.7494953263230465
 40
0.8117583797535242
 40
0.8747365508229858
 40
0.9378980306234599
 40
1.0
 40
1.0
 40
1.0
 40
1.0
 10
85.17718374788768
 20
73.98414205121165
 30
0.0
 10
85.17698889500292
 20
73.98411774381766
 30
0.0
 10
85.13528100399176
 20
73.97891479216345
 30
0.0
 10
85.2803993955222
 20
73.99754941549396
 30
0.0
 10
85.63547833706144
 20
74.0400691940427
 30
0.0
 10
86.2400539746046
 20
74.10820547764453
 30
0.0
 10
87.0464892834208
 20
74.18146101466041
 30
0.0
 10
88.03196670733978
 20
74.24598035547828
 30
0.0
 10
89.16363630401932
 20
74.28454458353936
 30
0.0
 10
90.38592877418158
 20
74.28823908954075
 30
0.0
 10
91.65325745563344
 20
74.24581310949178
 30
0.0
 10
92.91974298605996
 20
74.15756596871081
 30
0.0
 10
94.13588034987988
 20
74.02917269844414
 30
0.0
 10
95.26129084572065
 20
73.8765317098516
 30
0.0
 10
96.23870790727463
 20
73.71475709474727
 30
0.0
 10
97.04197338581713
 20
73.56222820164638
 30
0.0
 10
97.63046690881835
 20
73.43821445837898
 30
0.0
 10
98.0193730204704
 20
73.3532905321027
 30
0.0
 10
98.06613415120843
 20
73.34256422082392
 30
0.0
 10
98.08931695775084
 20
73.3372464281323
 30
0.0
  0
SPLINE
  5
99
330
1F
100
AcDbEntity
  8
0
  6
Continuous
 62
     7
370
    15
100
AcDbSpline
210
0.0
220
0.0
230
1.0
 70
     8
 71
     3
 72
    41
 73
    37
 74
     0
 42
0.00000001
 43
0.00000001
 40
0.0
 40
0.0
 40
0.0
 40
0.0
 40
0.0619930061482746
 40
0.1254347783466151
 40
0.1886508898234768
 40
0.2510246408607227
 40
0.3131658188976554
 40
0.3756581641417402
 40
0.4382227146727798
 40
0.4998044922940677
 40
0.56151641971787
 40
0.6240683094121985
 40
0.686725723240935
 40
0.7488365305144522
 40
0.8110685944253986
 40
0.8741742884451361
 40
0.9373212787645211
 40
0.9685511709617411
 40
0.9842086872487193
 40
0.9920641182531791
 40
0.996000486125535
 40
0.9979710794120144
 40
0.9989570090489596
 40
0.9994501359395065
 40
0.9996967403802177
 40
0.9998200529090742
 40
0.9998817117580818
 40
0.999912541829664
 40
0.9999279570273361
 40
0.9999356646666602
 40
0.9999395184964466
 40
0.9999414454138695
 40
0.9999424088732151
 40
0.9999433723329806
 40
0.9999501697010513
 40
1.0
 40
1.0
 40
1.0
 40
1.0
 10
98.08919562727283
 20
148.4934831729642
 30
0.0
 10
98.06562398192924
 20
148.4881736933144
 30
0.0
 10
98.01792982588417
 20
148.4774306523748
 30
0.0
 10
97.62588783645862
 20
148.3922015159194
 30
0.0
 10
97.03537378718842
 20
148.2676327372786
 30
0.0
 10
96.23133634114333
 20
148.1146857911268
 30
0.0
 10
95.25526094096182
 20
147.9529292371732
 30
0.0
 10
94.13345220568132
 20
147.800696469241
 30
0.0
 10
92.91992128589408
 20
147.6729165280397
 30
0.0
 10
91.65509057949487
 20
147.585067976357
 30
0.0
 10
90.38704754205214
 20
147.5426824924864
 30
0.0
 10
89.16354018435102
 20
147.5464183004581
 30
0.0
 10
88.03004164393701
 20
147.5850137709062
 30
0.0
 10
87.04393583296282
 20
147.6494531421973
 30
0.0
 10
86.2353080241756
 20
147.7229629494784
 30
0.0
 10
85.6386893290664
 20
147.7902766342902
 30
0.0
 10
85.32329803960832
 20
147.8282411855582
 30
0.0
 10
85.21323147081038
 20
147.8420402448901
 30
0.0
 10
85.1858120829962
 20
147.8455263188107
 30
0.0
 10
85.17889003216669
 20
147.8464055445041
 30
0.0
 10
85.17712179198328
 20
147.8466263191104
 30
0.0
 10
85.1766614128099
 20
147.8466815218211
 30
0.0
 10
85.17653725412511
 20
147.8466952616082
 30
0.0
 10
85.17650169963193
 20
147.8466986574392
 30
0.0
 10
85.17649055556184
 20
147.8466994857595
 30
0.0
 10
85.17648664236573
 20
147.8466996823483
 30
0.0
 10
85.1764851001609
 20
147.8466997262783
 30
0.0
 10
85.17648443315939
 20
147.8466997345851
 30
0.0
 10
85.17648412498164
 20
147.8466997354154
 30
0.0
 10
85.17648397821559
 20
147.8466997348702
 30
0.0
 10
85.17648390526314
 20
147.8466997345403
 30
0.0
 10
85.17648387087077
 20
147.846699734103
 30
0.0
 10
85.1764838486256
 20
147.8466997341915
 30
0.0
 10
85.17648382151616
 20
147.8466997313566
 30
0.0
 10
85.17648130195481
 20
147.8467000182117
 30
0.0
 10
85.17651739187285
 20
147.846695398111
 30
0.0
 10
85.17654914969549
 20
147.8466913325895
 30
0.0
  0
SPLINE
  5
9A
330
1F
100
AcDbEntity
  8
0
  6
Continuous
 62
     7
370
    15
100
AcDbSpline
210
0.0
220
0.0
230
1.0
 70
     8
 71
     3
 72
    20
 73
    16
 74
     0
 42
0.00000001
 43
0.00000001
 40
0.0
 40
0.0
 40
0.0
 40
0.0
 40
0.249999999999986
 40
0.249999999999986
 40
0.3749999999999789
 40
0.3749999999999789
 40
0.4374999999999789
 40
0.4374999999999789
 40
0.4999999999999789
 40
0.4999999999999789
 40
0.6249999999999835
 40
0.6249999999999835
 40
0.7499999999999879
 40
0.7499999999999879
 40
1.0
 40
1.0
 40
1.0
 40
1.0
 10
57.04804171576428
 20
80.23690415682333
 30
0.0
 10
57.07431393297768
 20
80.25622209790578
 30
0.0
 10
57.10499407523252
 20
80.27061080900756
 30
0.0
 10
57.17646494561444
 20
80.26370644717154
 30
0.0
 10
57.20449198265879
 20
80.25654044382313
 30
0.0
 10
57.25957557215629
 20
80.22684141711954
 30
0.0
 10
57.28046690070872
 20
80.21336777455821
 30
0.0
 10
57.32567554815418
 20
80.17816950904219
 30
0.0
 10
57.35007976054975
 20
80.15626128031494
 30
0.0
 10
57.42141207860119
 20
80.0841364203194
 30
0.0
 10
57.46330886342147
 20
80.03179587936933
 30
0.0
 10
57.53488482227734
 20
79.93431248746859
 30
0.0
 10
57.56571281209463
 20
79.88755871759017
 30
0.0
 10
57.64881274493021
 20
79.75426550175105
 30
0.0
 10
57.69366765030051
 20
79.67162810383584
 30
0.0
 10
57.73377972575308
 20
79.59252120904506
 30
0.0
  0
SPLINE
  5
9B
330
1F
100
AcDbEntity
  8
0
  6
Continuous
 62
     7
370
    15
100
AcDbSpline
210
0.0
220
0.0
230
1.0
 70
     8
 71
     3
 72
    14
 73
    10
 74
     0
 42
0.00000001
 43
0.00000001
 40
0.0
 40
0.0
 40
0.0
 40
0.0
 40
0.25
 40
0.25
 40
0.5
 40
0.5
 40
0.75
 40
0.75
 40
1.0
 40
1.0
 40
1.0
 40
1.0
 10
56.75722748404826
 20
80.4127175669561
 30
0.0
 10
56.75722748404828
 20
80.37147063593176
 30
0.0
 10
56.76583720042952
 20
80.33456366364928
 30
0.0
 10
56.79692337999987
 20
80.27366360374987
 30
0.0
 10
56.81931293348393
 20
80.24948268421016
 30
0.0
 10
56.87405686466004
 20
80.21551509332691
 30
0.0
 10
56.90650710424524
 20
80.20559500935873
 30
0.0
 10
56.9765086189733
 20
80.20424380045388
 30
0.0
 10
57.01471911909584
 20
80.21240207715005
 30
0.0
 10
57.04804171576892
 20
80.23690415681813
 30
0.0
  0
LINE
  5
9C
330
1F
100
AcDbEntity
  8
0
  6
Continuous
 62
     7
370
    15
100
AcDbLine
 10
56.757227484
 20
80.412717567
 30
0.0
 11
56.757227484
 21
141.4180570521
 31
0.0
  0
SPLINE
  5
9D
330
1F
100
AcDbEntity
  8
0
  6
Continuous
 62
     7
370
    15
100
AcDbSpline
210
0.0
220
0.0
230
1.0
 70
     8
 71
     3
 72
    12
 73
     8
 74
     0
 42
0.00000001
 43
0.00000001
 40
0.0
 40
0.0
 40
0.0
 40
0.0
 40
0.0592077505114064
 40
0.3503612113849183
 40
0.644012000323884
 40
0.9432672693652688
 40
1.0
 40
1.0
 40
1.0
 40
1.0
 10
57.04804171576891
 20
141.5938704622299
 30
0.0
 10
57.04320583242044
 20
141.5971431058496
 30
0.0
 10
57.01458954598076
 20
141.6165089384157
 30
0.0
 10
56.95659120794041
 20
141.6304748355801
 30
0.0
 10
56.88459096748011
 20
141.6194018077648
 30
0.0
 10
56.83595127846938
 20
141.5981015038552
 30
0.0
 10
56.81916640640691
 20
141.5752001336804
 30
0.0
 10
56.81649145212105
 20
141.5715504115929
 30
0.0
  0
SPLINE
  5
9E
330
1F
100
AcDbEntity
  8
0
  6
Continuous
 62
     7
370
    15
100
AcDbSpline
210
0.0
220
0.0
230
1.0
 70
     8
 71
     3
 72
     8
 73
     4
 74
     0
 42
0.00000001
 43
0.00000001
 40
0.0
 40
0.0
 40
0.0
 40
0.0
 40
1.0
 40
1.0
 40
1.0
 40
1.0
 10
56.78086115298447
 20
141.5256365531616
 30
0.0
 10
56.76551211434844
 20
141.4951264981657
 30
0.0
 10
56.75722748404826
 20
141.4588149426533
 30
0.0
 10
56.75722748404826
 20
141.4180570520919
 30
0.0
  0
SPLINE
  5
9F
330
1F
100
AcDbEntity
  8
0
  6
Continuous
 62
     7
370
    15
100
AcDbSpline
210
0.0
220
0.0
230
1.0
 70
     8
 71
     3
 72
    20
 73
    16
 74
     0
 42
0.00000001
 43
0.00000001
 40
0.0
 40
0.0
 40
0.0
 40
0.0
 40
0.2500000000000037
 40
0.2500000000000037
 40
0.3750000000000055
 40
0.3750000000000055
 40
0.5000000000000073
 40
0.5000000000000073
 40
0.5625000000000057
 40
0.5625000000000057
 40
0.625000000000004
 40
0.625000000000004
 40
0.7500000000000027
 40
0.7500000000000027
 40
1.0
 40
1.0
 40
1.0
 40
1.0
 10
57.73377972575069
 20
142.2382534100022
 30
0.0
 10
57.69378350792687
 20
142.1593750034448
 30
0.0
 10
57.64866988008921
 20
142.0762453567532
 30
0.0
 10
57.56541566572268
 20
141.9427566924023
 30
0.0
 10
57.53519633710218
 20
141.8968916365203
 30
0.0
 10
57.46310810196076
 20
141.7987000841154
 30
0.0
 10
57.42119078454966
 20
141.7463902645918
 30
0.0
 10
57.3499401799982
 20
141.6743843618573
 30
0.0
 10
57.32570436761888
 20
141.6526141495558
 30
0.0
 10
57.28010617743423
 20
141.6171394912268
 30
0.0
 10
57.25930368783452
 20
141.6037693070492
 30
0.0
 10
57.2043626894154
 20
141.574199394914
 30
0.0
 10
57.1762937013286
 20
141.567072872612
 30
0.0
 10
57.10579087126576
 20
141.5601985011293
 30
0.0
 10
57.07436678347489
 20
141.5745136602165
 30
0.0
 10
57.04804171576629
 20
141.593870462227
 30
0.0
  0
SPLINE
  5
A0
330
1F
100
AcDbEntity
  8
0
  6
Continuous
 62
     7
370
    15
100
AcDbSpline
210
0.0
220
0.0
230
1.0
 70
     8
 71
     3
 72
    10
 73
     6
 74
     0
 42
0.00000001
 43
0.00000001
 40
0.0
 40
0.0
 40
0.0
 40
0.0
 40
0.4999999999999989
 40
0.4999999999999989
 40
1.0
 40
1.0
 40
1.0
 40
1.0
 10
58.40722748404828
 20
143.163672511344
 30
0.0
 10
58.28233921329807
 20
143.0326762332725
 30
0.0
 10
58.16088909523763
 20
142.8889633966076
 30
0.0
 10
57.93130512028019
 20
142.5783931039183
 30
0.0
 10
57.82103014488421
 20
142.4103240308552
 30
0.0
 10
57.73377972575069
 20
142.2382534100022
 30
0.0
  0
SPLINE
  5
A1
330
1F
100
AcDbEntity
  8
0
  6
Continuous
 62
     7
370
    15
100
AcDbSpline
210
0.0
220
0.0
230
1.0
 70
     8
 71
     3
 72
     8
 73
     4
 74
     0
 42
0.00000001
 43
0.00000001
 40
0.0
 40
0.0
 40
0.0
 40
0.0
 40
1.0
 40
1.0
 40
1.0
 40
1.0
 10
58.657152600014
 20
143.1612194780886
 30
0.0
 10
58.57013457016565
 20
143.1616860428757
 30
0.0
 10
58.48718054378571
 20
143.1627260624518
 30
0.0
 10
58.40722748404596
 20
143.1636725113441
 30
0.0
  0
SPLINE
  5
A2
330
1F
100
AcDbEntity
  8
0
  6
Continuous
 62
     7
370
    15
100
AcDbSpline
210
0.0
220
0.0
230
1.0
 70
     8
 71
     3
 72
     8
 73
     4
 74
     0
 42
0.00000001
 43
0.00000001
 40
0.0
 40
0.0
 40
0.0
 40
0.0
 40
1.0
 40
1.0
 40
1.0
 40
1.0
 10
58.40722748404596
 20
78.66710210770394
 30
0.0
 10
58.48718054378624
 20
78.66804855659622
 30
0.0
 10
58.57013457016672
 20
78.66908857617234
 30
0.0
 10
58.65715260001569
 20
78.66955514095942
 30
0.0
  0
SPLINE
  5
A3
330
1F
100
AcDbEntity
  8
0
  6
Continuous
 62
     7
370
    15
100
AcDbSpline
210
0.0
220
0.0
230
1.0
 70
     8
 71
     3
 72
    10
 73
     6
 74
     0
 42
0.00000001
 43
0.00000001
 40
0.0
 40
0.0
 40
0.0
 40
0.0
 40
0.4999999999999989
 40
0.4999999999999989
 40
1.0
 40
1.0
 40
1.0
 40
1.0
 10
57.73377972574976
 20
79.59252120904763
 30
0.0
 10
57.82103014488324
 20
79.42045058819424
 30
0.0
 10
57.9313051202794
 20
79.2523815151308
 30
0.0
 10
58.16088909523723
 20
78.941811222441
 30
0.0
 10
58.28233921329787
 20
78.79809838577573
 30
0.0
 10
58.40722748404828
 20
78.66710210770403
 30
0.0
  0
SPLINE
  5
A4
330
1F
100
AcDbEntity
  8
0
  6
Continuous
 62
     7
370
    15
100
AcDbSpline
210
0.0
220
0.0
230
1.0
 70
     8
 71
     3
 72
     8
 73
     4
 74
     0
 42
0.00000001
 43
0.00000001
 40
0.0
 40
0.0
 40
0.0
 40
0.0
 40
1.0
 40
1.0
 40
1.0
 40
1.0
 10
129.9192565049697
 20
159.9051821651876
 30
0.0
 10
129.4682295362564
 20
159.1078715949997
 30
0.0
 10
129.0175357197328
 20
158.3103732953425
 30
0.0
 10
128.5672274840483
 20
157.5126581702289
 30
0.0
  0
LINE
  5
A5
330
1F
100
AcDbEntity
  8
0
  6
Continuous
 62
     7
370
    15
100
AcDbLine
 10
129.919256505
 20
149.8663500704
 30
0.0
 11
129.919256505
 21
159.9051821652
 31
0.0
  0
SPLINE
  5
A6
330
1F
100
AcDbEntity
  8
0
  6
Continuous
 62
     7
370
    15
100
AcDbSpline
210
0.0
220
0.0
230
1.0
 70
     8
 71
     3
 72
     8
 73
     4
 74
     0
 42
0.00000001
 43
0.00000001
 40
0.0
 40
0.0
 40
0.0
 40
0.0
 40
1.0
 40
1.0
 40
1.0
 40
1.0
 10
128.5672274840483
 20
146.8108348156618
 30
0.0
 10
129.0113774950738
 20
147.8322180466135
 30
0.0
 10
129.4624518053317
 20
148.8507025833818
 30
0.0
 10
129.9192565049697
 20
149.8663500704109
 30
0.0
  0
LINE
  5
A7
330
1F
100
AcDbEntity
  8
0
  6
Continuous
 62
     7
370
    15
100
AcDbLine
 10
128.567227484
 20
146.8108348157
 30
0.0
 11
128.567227484
 21
157.5126581702
 31
0.0
  0
SPLINE
  5
A8
330
1F
100
AcDbEntity
  8
0
  6
Continuous
 62
     7
370
    15
100
AcDbSpline
210
0.0
220
0.0
230
1.0
 70
     8
 71
     3
 72
     8
 73
     4
 74
     0
 42
0.00000001
 43
0.00000001
 40
0.0
 40
0.0
 40
0.0
 40
0.0
 40
1.0
 40
1.0
 40
1.0
 40
1.0
 10
124.7472274840483
 20
157.5126581702289
 30
0.0
 10
124.2969192483637
 20
158.3103732953425
 30
0.0
 10
123.8462254318401
 20
159.1078715949997
 30
0.0
 10
123.3951984631269
 20
159.9051821651876
 30
0.0
  0
LINE
  5
A9
330
1F
100
AcDbEntity
  8
0
  6
Continuous
 62
     7
370
    15
100
AcDbLine
 10
124.747227484
 20
146.8108348157
 30
0.0
 11
124.747227484
 21
157.5126581702
 31
0.0
  0
SPLINE
  5
AA
330
1F
100
AcDbEntity
  8
0
  6
Continuous
 62
     7
370
    15
100
AcDbSpline
210
0.0
220
0.0
230
1.0
 70
     8
 71
     3
 72
     8
 73
     4
 74
     0
 42
0.00000001
 43
0.00000001
 40
0.0
 40
0.0
 40
0.0
 40
0.0
 40
1.0
 40
1.0
 40
1.0
 40
1.0
 10
123.3951984631269
 20
149.866350070411
 30
0.0
 10
123.8521248169264
 20
148.8504321007367
 30
0.0
 10
124.3033304587294
 20
147.8316362716455
 30
0.0
 10
124.7472274840483
 20
146.8108348156619
 30
0.0
  0
LINE
  5
AB
330
1F
100
AcDbEntity
  8
0
  6
Continuous
 62
     7
370
    15
100
AcDbLine
 10
124.747227484
 20
146.8108348157
 30
0.0
 11
124.747227484
 21
145.629622502
 31
0.0
  0
SPLINE
  5
AC
330
1F
100
AcDbEntity
  8
0
  6
Continuous
 62
     7
370
    15
100
AcDbSpline
210
0.0
220
0.0
230
1.0
 70
     8
 71
     3
 72
    14
 73
    10
 74
     0
 42
0.00000001
 43
0.00000001
 40
0.0
 40
0.0
 40
0.0
 40
0.0
 40
0.25
 40
0.25
 40
0.5
 40
0.5
 40
0.75
 40
0.75
 40
1.0
 40
1.0
 40
1.0
 40
1.0
 10
124.7472274840483
 20
145.6296225020211
 30
0.0
 10
124.7472274840483
 20
145.5057556252319
 30
0.0
 10
124.7630866116759
 20
145.3814959483944
 30
0.0
 10
124.8264482571958
 20
145.1438875859885
 30
0.0
 10
124.8750379652451
 20
145.027107201236
 30
0.0
 10
125.0073235700199
 20
144.818304672627
 30
0.0
 10
125.0926483612805
 20
144.7237939690344
 30
0.0
 10
125.2995396095867
 20
144.5858371682321
 30
0.0
 10
125.4235075554767
 20
144.5439187225965
 30
0.0
 10
125.5472274840483
 20
144.5439187225965
 30
0.0
  0
LINE
  5
AD
330
1F
100
AcDbEntity
  8
0
  6
Continuous
 62
     7
370
    15
100
AcDbLine
 10
125.547227484
 20
144.5439187226
 30
0.0
 11
127.767227484
 21
144.5439187226
 31
0.0
  0
SPLINE
  5
AE
330
1F
100
AcDbEntity
  8
0
  6
Continuous
 62
     7
370
    15
100
AcDbSpline
210
0.0
220
0.0
230
1.0
 70
     8
 71
     3
 72
    12
 73
     8
 74
     0
 42
0.00000001
 43
0.00000001
 40
0.0
 40
0.0
 40
0.0
 40
0.0
 40
0.250000000000002
 40
0.250000000000002
 40
0.500000000000004
 40
0.500000000000004
 40
1.0
 40
1.0
 40
1.0
 40
1.0
 10
127.7672274840483
 20
144.5439187225965
 30
0.0
 10
127.8909284340282
 20
144.5439187225965
 30
0.0
 10
128.0150250462984
 20
144.585912334329
 30
0.0
 10
128.2216802093855
 20
144.7237076609734
 30
0.0
 10
128.3067209761123
 20
144.8176812594383
 30
0.0
 10
128.5061995445859
 20
145.1324694656592
 30
0.0
 10
128.5672274840483
 20
145.3827084578868
 30
0.0
 10
128.5672274840483
 20
145.6296225020211
 30
0.0
  0
LINE
  5
AF
330
1F
100
AcDbEntity
  8
0
  6
Continuous
 62
     7
370
    15
100
AcDbLine
 10
128.567227484
 20
145.629622502
 30
0.0
 11
128.567227484
 21
146.8108348157
 31
0.0
  0
LINE
  5
B0
330
1F
100
AcDbEntity
  8
0
  6
Continuous
 62
     7
370
    15
100
AcDbLine
 10
129.919256505
 20
149.8663500704
 30
0.0
 11
134.607227484
 21
149.8663500704
 31
0.0
  0
SPLINE
  5
B1
330
1F
100
AcDbEntity
  8
0
  6
Continuous
 62
     7
370
    15
100
AcDbSpline
210
0.0
220
0.0
230
1.0
 70
     8
 71
     3
 72
    16
 73
    12
 74
     0
 42
0.00000001
 43
0.00000001
 40
0.0
 40
0.0
 40
0.0
 40
0.0
 40
0.1249999999999978
 40
0.1249999999999978
 40
0.2499999999999955
 40
0.2499999999999955
 40
0.499999999999997
 40
0.499999999999997
 40
0.7499999999999984
 40
0.7499999999999984
 40
1.0
 40
1.0
 40
1.0
 40
1.0
 10
134.6072274840483
 20
149.866350070411
 30
0.0
 10
134.6828651904595
 20
149.866350070411
 30
0.0
 10
134.7591808548777
 20
149.855005070276
 30
0.0
 10
134.9035915927696
 20
149.8123525196375
 30
0.0
 10
134.9720380418781
 20
149.7814181949547
 30
0.0
 10
135.1669692944912
 20
149.6621618231871
 30
0.0
 10
135.2748104682721
 20
149.5520098095665
 30
0.0
 10
135.4435232164841
 20
149.3038737239084
 30
0.0
 10
135.5058876292076
 20
149.1635313999047
 30
0.0
 10
135.5871915537161
 20
148.8752597084161
 30
0.0
 10
135.6072274840483
 20
148.7244547354363
 30
0.0
 10
135.6072274840483
 20
148.574084844091
 30
0.0
  0
LINE
  5
B2
330
1F
100
AcDbEntity
  8
0
  6
Continuous
 62
     7
370
    15
100
AcDbLine
 10
135.607227484
 20
148.5740848441
 30
0.0
 11
135.607227484
 21
142.2653873095
 31
0.0
  0
SPLINE
  5
B3
330
1F
100
AcDbEntity
  8
0
  6
Continuous
 62
     7
370
    15
100
AcDbSpline
210
0.0
220
0.0
230
1.0
 70
     8
 71
     3
 72
    12
 73
     8
 74
     0
 42
0.00000001
 43
0.00000001
 40
0.0
 40
0.0
 40
0.0
 40
0.0
 40
0.4999999999999953
 40
0.4999999999999953
 40
0.7499999999999977
 40
0.7499999999999977
 40
1.0
 40
1.0
 40
1.0
 40
1.0
 10
135.6072274840483
 20
158.8841271303699
 30
0.0
 10
135.6072274840483
 20
159.1493965631363
 30
0.0
 10
135.5026207405618
 20
159.4119116687887
 30
0.0
 10
135.2259523888165
 20
159.6974492748259
 30
0.0
 10
135.1155871294645
 20
159.7737708916873
 30
0.0
 10
134.8715150808488
 20
159.8781130565275
 30
0.0
 10
134.739762619517
 20
159.9051821651876
 30
0.0
 10
134.6072274840483
 20
159.9051821651876
 30
0.0
  0
LINE
  5
B4
330
1F
100
AcDbEntity
  8
0
  6
Continuous
 62
     7
370
    15
100
AcDbLine
 10
135.607227484
 20
148.5740848441
 30
0.0
 11
135.607227484
 21
158.8841271304
 31
0.0
  0
SPLINE
  5
B5
330
1F
100
AcDbEntity
  8
0
  6
Continuous
 62
     7
370
    15
100
AcDbSpline
210
0.0
220
0.0
230
1.0
 70
     8
 71
     3
 72
    14
 73
    10
 74
     0
 42
0.00000001
 43
0.00000001
 40
0.0
 40
0.0
 40
0.0
 40
0.0
 40
0.25
 40
0.25
 40
0.5
 40
0.5
 40
0.75
 40
0.75
 40
1.0
 40
1.0
 40
1.0
 40
1.0
 10
128.5672274840483
 20
156.608938550372
 30
0.0
 10
128.5672274840483
 20
156.5025818566197
 30
0.0
 10
128.546839927907
 20
156.3967413688596
 30
0.0
 10
128.4682055824455
 20
156.2001764553231
 30
0.0
 10
128.4094742228069
 20
156.109005713036
 30
0.0
 10
128.2628653172043
 20
155.9570946240044
 30
0.0
 10
128.1734599971778
 20
155.8950257871848
 30
0.0
 10
127.9795692645774
 20
155.8117577394261
 30
0.0
 10
127.8730642746876
 20
155.7896630696964
 30
0.0
 10
127.7672274840483
 20
155.7896630696964
 30
0.0
  0
LINE
  5
B6
330
1F
100
AcDbEntity
  8
0
  6
Continuous
 62
     7
370
    15
100
AcDbLine
 10
134.607227484
 20
159.9051821652
 30
0.0
 11
129.919256505
 21
159.9051821652
 31
0.0
  0
SPLINE
  5
B7
330
1F
100
AcDbEntity
  8
0
  6
Continuous
 62
     7
370
    15
100
AcDbSpline
210
0.0
220
0.0
230
1.0
 70
     8
 71
     3
 72
    10
 73
     6
 74
     0
 42
0.00000001
 43
0.00000001
 40
0.0
 40
0.0
 40
0.0
 40
0.0
 40
0.5
 40
0.5
 40
1.0
 40
1.0
 40
1.0
 40
1.0
 10
125.5472274840483
 20
155.7896630696965
 30
0.0
 10
125.3346911701919
 20
155.7896630696965
 30
0.0
 10
125.1247549985379
 20
155.8810756563266
 30
0.0
 10
124.8310478575266
 20
156.1858205222308
 30
0.0
 10
124.7472274840483
 20
156.3979754921395
 30
0.0
 10
124.7472274840483
 20
156.608938550372
 30
0.0
  0
LINE
  5
B8
330
1F
100
AcDbEntity
  8
0
  6
Continuous
 62
     7
370
    15
100
AcDbLine
 10
127.767227484
 20
155.7896630697
 30
0.0
 11
125.547227484
 21
155.7896630697
 31
0.0
  0
ARC
  5
B9
330
1F
100
AcDbEntity
  8
0
  6
Continuous
 62
     7
370
    15
100
AcDbCircle
 10
115.6585320947
 20
143.4556995915
 30
0.0
 40
11.47493780152793
100
AcDbArc
 50
78.0803572217
 51
102.2587186576
  0
LINE
  5
BA
330
1F
100
AcDbEntity
  8
0
  6
Continuous
 62
     7
370
    15
100
AcDbLine
 10
157.607227484
 20
88.9153873095
 30
0.0
 11
157.607227484
 21
132.9153873095
 31
0.0
  0
LINE
  5
BB
330
1F
100
AcDbEntity
  8
0
  6
Continuous
 62
     7
370
    15
100
AcDbLine
 10
146.250410727
 20
132.7950593346
 30
0.0
 11
146.3632538876
 21
132.7858874495
 31
0.0
  0
SPLINE
  5
BC
330
1F
100
AcDbEntity
  8
0
  6
Continuous
 62
     7
370
    15
100
AcDbSpline
210
0.0
220
0.0
230
1.0
 70
     8
 71
     3
 72
    36
 73
    32
 74
     0
 42
0.00000001
 43
0.00000001
 40
0.0
 40
0.0
 40
0.0
 40
0.0
 40
0.0289137284751554
 40
0.0526699238863734
 40
0.0744530527947863
 40
0.1187081143260495
 40
0.1412152299067694
 40
0.1640806903627424
 40
0.2104647274183367
 40
0.2340111865346909
 40
0.2593224913604513
 40
0.3106599740269828
 40
0.3367196506674509
 40
0.3647910180471305
 40
0.4217753538040721
 40
0.4507376620440371
 40
0.4807536775406167
 40
0.5417641359401686
 40
0.5728283269033251
 40
0.6034196977578887
 40
0.6342296417302069
 40
0.6657472591478865
 40
0.6975187685051438
 40
0.7271608847170845
 40
0.7876220121800099
 40
0.8185658977406435
 40
0.8454977048403116
 40
0.9005175710482235
 40
0.9287305010300753
 40
0.9523406030672531
 40
1.0
 40
1.0
 40
1.0
 40
1.0
 10
152.0971813351032
 20
132.9141364341388
 30
0.0
 10
152.0983614042902
 20
132.9142818034099
 30
0.0
 10
152.1005110459152
 20
132.9145466114735
 30
0.0
 10
152.0566729055265
 20
132.9091112662792
 30
0.0
 10
151.9839781554887
 20
132.9002244744878
 30
0.0
 10
151.8745571404214
 20
132.8871430803902
 30
0.0
 10
151.7313843798878
 20
132.8708095762566
 30
0.0
 10
151.5631695125546
 20
132.8522886859506
 30
0.0
 10
151.3618501140703
 20
132.8314484760643
 30
0.0
 10
151.1286698836389
 20
132.8094021148792
 30
0.0
 10
150.8654949711384
 20
132.7862249246859
 30
0.0
 10
150.5696386742284
 20
132.763343934621
 30
0.0
 10
150.2460005808167
 20
132.7424654463486
 30
0.0
 10
149.8922555932009
 20
132.7228672371068
 30
0.0
 10
149.5117164367219
 20
132.7074335629026
 30
0.0
 10
149.1154349517035
 20
132.6978028005918
 30
0.0
 10
148.7009774406989
 20
132.6923472628459
 30
0.0
 10
148.275715816805
 20
132.6941978810274
 30
0.0
 10
147.8552821286636
 20
132.7034086473764
 30
0.0
 10
147.5435270176795
 20
132.7138290495897
 30
0.0
 10
147.2378101179442
 20
132.7274790803533
 30
0.0
 10
146.9383435343686
 20
132.7441438288718
 30
0.0
 10
146.6552461478117
 20
132.7629209092885
 30
0.0
 10
146.3036610755249
 20
132.7896632096242
 30
0.0
 10
145.9868534302709
 20
132.8181799503011
 30
0.0
 10
145.7211656565462
 20
132.8449888820135
 30
0.0
 10
145.4972387710456
 20
132.8689829814172
 30
0.0
 10
145.3228453197314
 20
132.8891455228496
 30
0.0
 10
145.2069830756447
 20
132.9030822210767
 30
0.0
 10
145.1278710934692
 20
132.9127955163866
 30
0.0
 10
145.1157787062601
 20
132.9143141446166
 30
0.0
 10
145.1076922753156
 20
132.9153296829136
 30
0.0
  0
SPLINE
  5
BD
330
1F
100
AcDbEntity
  8
0
  6
Continuous
 62
     7
370
    15
100
AcDbSpline
210
0.0
220
0.0
230
1.0
 70
     8
 71
     3
 72
     9
 73
     5
 74
     0
 42
0.00000001
 43
0.00000001
 40
0.0
 40
0.0
 40
0.0
 40
0.0
 40
0.3768304639707433
 40
0.9999999999999999
 40
0.9999999999999999
 40
0.9999999999999999
 40
0.9999999999999999
 10
145.941835037335
 20
132.8232342533928
 30
0.0
 10
145.9782503600407
 20
132.819704648523
 30
0.0
 10
146.0748861848674
 20
132.8103380892681
 30
0.0
 10
146.1830230973811
 20
132.8009251756248
 30
0.0
 10
146.2504107269799
 20
132.7950593345971
 30
0.0
  0
SPLINE
  5
BE
330
1F
100
AcDbEntity
  8
0
  6
Continuous
 62
     7
370
    15
100
AcDbSpline
210
0.0
220
0.0
230
1.0
 70
     8
 71
     3
 72
    70
 73
    66
 74
     0
 42
0.00000001
 43
0.00000001
 40
-0.0312499999999999
 40
-0.0312499999999999
 40
0.0
 40
0.0
 40
0.03125
 40
0.03125
 40
0.0625
 40
0.0625
 40
0.0937500000000001
 40
0.0937500000000001
 40
0.1250000000000001
 40
0.1250000000000001
 40
0.1562500000000001
 40
0.1562500000000001
 40
0.1875000000000001
 40
0.1875000000000001
 40
0.2187500000000001
 40
0.2187500000000001
 40
0.2500000000000002
 40
0.2500000000000002
 40
0.2812500000000002
 40
0.2812500000000002
 40
0.3125000000000002
 40
0.3125000000000002
 40
0.3437500000000002
 40
0.3437500000000002
 40
0.3750000000000002
 40
0.3750000000000002
 40
0.4062500000000003
 40
0.4062500000000003
 40
0.4375000000000003
 40
0.4375000000000003
 40
0.4687500000000003
 40
0.4687500000000003
 40
0.5000000000000003
 40
0.5000000000000003
 40
0.5312500000000003
 40
0.5312500000000003
 40
0.5625000000000003
 40
0.5625000000000003
 40
0.5937500000000004
 40
0.5937500000000004
 40
0.6250000000000004
 40
0.6250000000000004
 40
0.6562500000000004
 40
0.6562500000000004
 40
0.6875000000000004
 40
0.6875000000000004
 40
0.7187500000000004
 40
0.7187500000000004
 40
0.7500000000000004
 40
0.7500000000000004
 40
0.7812500000000006
 40
0.7812500000000006
 40
0.8125000000000006
 40
0.8125000000000006
 40
0.8437500000000004
 40
0.8437500000000004
 40
0.8750000000000003
 40
0.8750000000000003
 40
0.9062500000000002
 40
0.9062500000000002
 40
0.9375000000000002
 40
0.9375000000000002
 40
0.9687500000000001
 40
0.9687500000000001
 40
1.0
 40
1.0
 40
1.03125
 40
1.03125
 10
146.0812138277653
 20
113.0755329449418
 30
0.0
 10
146.4196076283359
 20
113.3508709336532
 30
0.0
 10
146.5991195117851
 20
113.4703273740111
 30
0.0
 10
146.9769030121755
 20
113.6762887895548
 30
0.0
 10
147.1765606988308
 20
113.763197908267
 30
0.0
 10
147.5887865707298
 20
113.9014991600578
 30
0.0
 10
147.7985111732065
 20
113.9522165668486
 30
0.0
 10
148.2248757396143
 20
114.0184567112189
 30
0.0
 10
148.443508311887
 20
114.0338706833864
 30
0.0
 10
148.8772307136828
 20
114.0279418562552
 30
0.0
 10
149.0916531637577
 20
114.0070115995537
 30
0.0
 10
149.5156729919063
 20
113.9295629007963
 30
0.0
 10
149.7272991271277
 20
113.8722196017887
 30
0.0
 10
150.133800449861
 20
113.723135293017
 30
0.0
 10
150.3284144549866
 20
113.6319890395991
 30
0.0
 10
150.7000426691005
 20
113.4157088789764
 30
0.0
 10
150.8789446962076
 20
113.2888408025383
 30
0.0
 10
151.2058858604063
 20
113.0060702591313
 30
0.0
 10
151.3539712705119
 20
112.8509122871336
 30
0.0
 10
151.6177448639063
 20
112.5114500962961
 30
0.0
 10
151.7345311184613
 20
112.3243113578366
 30
0.0
 10
151.9211748737977
 20
111.9349341895008
 30
0.0
 10
151.9923224145083
 20
111.7321317646725
 30
0.0
 10
152.0873721246813
 20
111.3091945887839
 30
0.0
 10
152.1101775805354
 20
111.0896845938117
 30
0.0
 10
152.1036497538706
 20
110.6580937746168
 30
0.0
 10
152.0744557020332
 20
110.4403547517661
 30
0.0
 10
151.9665297989807
 20
110.0188070178174
 30
0.0
 10
151.8890488430969
 20
109.817024695129
 30
0.0
 10
151.6896138100757
 20
109.4304153557624
 30
0.0
 10
151.5684270019078
 20
109.248110865625
 30
0.0
 10
151.2940048748142
 20
108.9143752029297
 30
0.0
 10
151.1380669648455
 20
108.7598382765276
 30
0.0
 10
150.8024970923841
 20
108.485482404831
 30
0.0
 10
150.6232136725566
 20
108.3652618498608
 30
0.0
 10
150.2428138797267
 20
108.1568526451073
 30
0.0
 10
150.04171115171
 20
108.0691987409652
 30
0.0
 10
149.6324345308691
 20
107.9312127315655
 30
0.0
 10
149.4225099849114
 20
107.8798414049426
 30
0.0
 10
148.9920286986766
 20
107.8124406862312
 30
0.0
 10
148.7744497408928
 20
107.7971175806351
 30
0.0
 10
148.3430457058713
 20
107.8024972472534
 30
0.0
 10
148.1279167669456
 20
107.82298132598
 30
0.0
 10
147.698852255195
 20
107.901048142216
 30
0.0
 10
147.4890539582663
 20
107.9580566232701
 30
0.0
 10
147.0847905952774
 20
108.105927610232
 30
0.0
 10
146.8893208638822
 20
108.196942163551
 30
0.0
 10
146.5127477306174
 20
108.4159690842982
 30
0.0
 10
146.3358776360611
 20
108.541767756176
 30
0.0
 10
146.010927063022
 20
108.8225145657298
 30
0.0
 10
145.8618509380316
 20
108.977971152009
 30
0.0
 10
145.5939079353408
 20
109.3230630836039
 30
0.0
 10
145.4798492454667
 20
109.5067295983497
 30
0.0
 10
145.2939201133857
 20
109.894394857084
 30
0.0
 10
145.2211636431617
 20
110.1015435173235
 30
0.0
 10
145.1263007837311
 20
110.5264967514556
 30
0.0
 10
145.1041758062896
 20
110.741215975027
 30
0.0
 10
145.1109471200342
 20
111.1751794678513
 30
0.0
 10
145.1407884364261
 20
111.3943897710562
 30
0.0
 10
145.2485651098847
 20
111.8135677912757
 30
0.0
 10
145.3275792760756
 20
112.0188385025438
 30
0.0
 10
145.5277664715414
 20
112.4051315355269
 30
0.0
 10
145.6476991607973
 20
112.5851829133202
 30
0.0
 10
145.9245974317305
 20
112.9209460587951
 30
0.0
 10
146.0812138277653
 20
113.0755329449418
 30
0.0
 10
146.4196076283359
 20
113.3508709336532
 30
0.0
  0
SPLINE
  5
BF
330
1F
100
AcDbEntity
  8
0
  6
Continuous
 62
     7
370
    15
100
AcDbSpline
210
0.0
220
0.0
230
1.0
 70
     8
 71
     3
 72
    38
 73
    34
 74
     0
 42
0.00000001
 43
0.00000001
 40
0.0
 40
0.0
 40
0.0
 40
0.0
 40
0.0258008254549813
 40
0.0496281096181524
 40
0.0714072079754202
 40
0.1156575565807785
 40
0.1381645295546226
 40
0.1609638311610626
 40
0.2072149327081101
 40
0.2306946308047551
 40
0.2559088415902529
 40
0.3070486928403386
 40
0.3330074506050127
 40
0.3609905886081482
 40
0.4177935323279782
 40
0.4466620191916501
 40
0.476631343320269
 40
0.5068000742068353
 40
0.5375958932437167
 40
0.5686084026905615
 40
0.5992016349238857
 40
0.6300128904966799
 40
0.6615292241960563
 40
0.6932981411054607
 40
0.7229999339321654
 40
0.78357801403232
 40
0.8145782759022294
 40
0.8416235463823166
 40
0.896874692196364
 40
0.9252064631743594
 40
0.9489124467938457
 40
0.9972684220379714
 40
0.9999999999999999
 40
0.9999999999999999
 40
0.9999999999999999
 40
0.9999999999999999
 10
145.117847272821
 20
88.91670987125838
 30
0.0
 10
145.1158473662381
 20
88.91646182747198
 30
0.0
 10
145.1120005287291
 20
88.91598471311602
 30
0.0
 10
145.151815786992
 20
88.92092736363163
 30
0.0
 10
145.2209565038328
 20
88.92939653535788
 30
0.0
 10
145.3272600121041
 20
88.94214548195193
 30
0.0
 10
145.4673731237416
 20
88.95819899534985
 30
0.0
 10
145.6324004211527
 20
88.97646368024292
 30
0.0
 10
145.8305305012158
 20
88.99711412797961
 30
0.0
 10
146.0605910181313
 20
89.0190576905921
 30
0.0
 10
146.3205001357689
 20
89.04218759793872
 30
0.0
 10
146.6131565267631
 20
89.06513458578607
 30
0.0
 10
146.9338391965695
 20
89.08620826964373
 30
0.0
 10
147.2848016076879
 20
89.10610506235037
 30
0.0
 10
147.6629305122409
 20
89.12197533396073
 30
0.0
 10
148.0573328727294
 20
89.13215764651426
 30
0.0
 10
148.3645493989695
 20
89.13667336049211
 30
0.0
 10
148.6800078963753
 20
89.13767809669562
 30
0.0
 10
148.9986172695057
 20
89.13496800476447
 30
0.0
 10
149.3159781132273
 20
89.12852876450317
 30
0.0
 10
149.6284252206236
 20
89.11857510352338
 30
0.0
 10
149.9353535324198
 20
89.10534056761271
 30
0.0
 10
150.2363543922865
 20
89.08903234203626
 30
0.0
 10
150.5214923076645
 20
89.07051793876002
 30
0.0
 10
150.8764687760708
 20
89.04398001760795
 30
0.0
 10
151.1973959343255
 20
89.01545918930097
 30
0.0
 10
151.4677575245986
 20
88.98843518886466
 30
0.0
 10
151.696784835691
 20
88.96407913173834
 30
0.0
 10
151.8759033618983
 20
88.94348460815462
 30
0.0
 10
151.9980869439898
 20
88.92883018121226
 30
0.0
 10
152.0781573398909
 20
88.91903177790186
 30
0.0
 10
152.1134378519518
 20
88.91461345169586
 30
0.0
 10
152.1064190407738
 20
88.91548801789307
 30
0.0
 10
152.1060437550392
 20
88.91553477968925
 30
0.0
  0
CIRCLE
  5
C0
330
1F
100
AcDbEntity
  8
0
  6
Continuous
 62
     7
370
    15
100
AcDbCircle
 10
148.607227484
 20
110.9153873095
 30
0.0
 40
2.5
  0
LINE
  5
C1
330
1F
100
AcDbEntity
  8
0
  6
Continuous
 62
     7
370
    15
100
AcDbLine
 10
185.8324085394
 20
90.4153873095
 30
0.0
 11
185.8324085394
 21
131.4153873095
 31
0.0
  0
LINE
  5
C2
330
1F
100
AcDbEntity
  8
0
  6
Continuous
 62
     7
370
    15
100
AcDbLine
 10
58.407227484
 20
78.6653873095
 30
0.0
 11
58.407227484
 21
78.6671021077
 31
0.0
  0
LINE
  5
C3
330
1F
100
AcDbEntity
  8
0
  6
Continuous
 62
     7
370
    15
100
AcDbLine
 10
236.657227484
 20
96.2641682928
 30
0.0
 11
236.657227484
 21
125.5666063262
 31
0.0
  0
LINE
  5
C4
330
1F
100
AcDbEntity
  8
0
  6
Continuous
 62
     7
370
    15
100
AcDbLine
 10
58.407227484
 20
143.1653873095
 30
0.0
 11
58.407227484
 21
143.1636725113
 31
0.0
  0
LINE
  5
C5
330
1F
100
AcDbEntity
  8
0
  6
Continuous
 62
     7
370
    15
100
AcDbLine
 10
236.657227484
 20
98.6659659785
 30
0.0
 11
236.7345496912
 21
96.6979843916
 31
0.0
  0
LINE
  5
C6
330
1F
100
AcDbEntity
  8
0
  6
Continuous
 62
     7
370
    15
100
AcDbLine
 10
236.6692456195
 20
124.9718479525
 30
0.0
 11
236.657227484
 21
124.6659659785
 31
0.0
  0
LINE
  5
C7
330
1F
100
AcDbEntity
  8
0
  6
Continuous
 62
     7
370
    15
100
AcDbLine
 10
236.6756599675
 20
125.135104011
 30
0.0
 11
236.6692456195
 21
124.9718479525
 31
0.0
  0
SPLINE
  5
C8
330
1F
100
AcDbEntity
  8
0
  6
HIDDEN
 62
     7
370
     0
100
AcDbSpline
210
0.0
220
0.0
230
1.0
 70
     8
 71
     3
 72
    80
 73
    76
 74
     0
 42
0.00000001
 43
0.00000001
 40
-0.03125
 40
-0.03125
 40
0.0
 40
0.0
 40
0.0312500000000002
 40
0.0312500000000002
 40
0.0468750000000002
 40
0.0468750000000002
 40
0.0625000000000001
 40
0.0625000000000001
 40
0.0937499999999999
 40
0.0937499999999999
 40
0.1249999999999997
 40
0.1249999999999997
 40
0.1562499999999995
 40
0.1562499999999995
 40
0.1874999999999993
 40
0.1874999999999993
 40
0.2187499999999991
 40
0.2187499999999991
 40
0.2499999999999989
 40
0.2499999999999989
 40
0.2812499999999987
 40
0.2812499999999987
 40
0.3124999999999984
 40
0.3124999999999984
 40
0.3281249999999985
 40
0.3281249999999985
 40
0.3437499999999986
 40
0.3437499999999986
 40
0.3749999999999986
 40
0.3749999999999986
 40
0.4062499999999987
 40
0.4062499999999987
 40
0.4218749999999989
 40
0.4218749999999989
 40
0.4374999999999991
 40
0.4374999999999991
 40
0.4687499999999993
 40
0.4687499999999993
 40
0.4999999999999994
 40
0.4999999999999994
 40
0.5312499999999997
 40
0.5312499999999997
 40
0.5624999999999998
 40
0.5624999999999998
 40
0.59375
 40
0.59375
 40
0.6250000000000001
 40
0.6250000000000001
 40
0.6562500000000003
 40
0.6562500000000003
 40
0.6875000000000006
 40
0.6875000000000006
 40
0.7031250000000007
 40
0.7031250000000007
 40
0.7187500000000007
 40
0.7187500000000007
 40
0.7500000000000003
 40
0.7500000000000003
 40
0.78125
 40
0.78125
 40
0.7968749999999998
 40
0.7968749999999998
 40
0.8124999999999997
 40
0.8124999999999997
 40
0.8437499999999998
 40
0.8437499999999998
 40
0.8749999999999998
 40
0.8749999999999998
 40
0.9062499999999999
 40
0.9062499999999999
 40
0.9375
 40
0.9375
 40
0.96875
 40
0.96875
 40
1.0
 40
1.0
 40
1.03125
 40
1.03125
 10
115.326682171272
 20
159.774936566002
 30
0.0
 10
115.9877727968246
 20
159.774936566002
 30
0.0
 10
116.3127529260762
 20
159.7680384201752
 30
0.0
 10
116.7922263373226
 20
159.7475119921947
 30
0.0
 10
116.9507081551634
 20
159.7389557651071
 30
0.0
 10
117.2649276876677
 20
159.7182293898895
 30
0.0
 10
117.4210479713481
 20
159.7060020896831
 30
0.0
 10
117.8751020003047
 20
159.6644327958539
 30
0.0
 10
118.1622053832445
 20
159.6300885107561
 30
0.0
 10
118.7055599392715
 20
159.5467643864338
 30
0.0
 10
118.9626635504771
 20
159.4973261636593
 30
0.0
 10
119.4235698054159
 20
159.3859464338994
 30
0.0
 10
119.6304675146309
 20
159.3236519203873
 30
0.0
 10
119.9959928286231
 20
159.1837222775163
 30
0.0
 10
120.151198350749
 20
159.1071063797672
 30
0.0
 10
120.4006287373487
 20
158.9431477599115
 30
0.0
 10
120.4967186931339
 20
158.8545909058158
 30
0.0
 10
120.6252375423275
 20
158.66711022371
 30
0.0
 10
120.6570484125053
 20
158.5698737622555
 30
0.0
 10
120.6574050622785
 20
158.3682411229285
 30
0.0
 10
120.6249078100815
 20
158.2626923310904
 30
0.0
 10
120.497282336367
 20
158.0525775484018
 30
0.0
 10
120.4028539353151
 20
157.9475120404329
 30
0.0
 10
120.2149931153295
 20
157.7906343331818
 30
0.0
 10
120.1441651165263
 20
157.7382005994761
 30
0.0
 10
119.9894432245611
 20
157.6357621538464
 30
0.0
 10
119.9054667543777
 20
157.5856144251945
 30
0.0
 10
119.6341430847333
 20
157.438598468761
 30
0.0
 10
119.4275938661309
 20
157.3451106483265
 30
0.0
 10
118.9609837259419
 20
157.1693237907122
 30
0.0
 10
118.7086181563164
 20
157.0899453156285
 30
0.0
 10
118.3027168146377
 20
156.9844628781345
 30
0.0
 10
118.1628161971602
 20
156.9515773132943
 30
0.0
 10
117.8735922619133
 20
156.8906618340656
 30
0.0
 10
117.723752805624
 20
156.8625812624232
 30
0.0
 10
117.2696362360132
 20
156.7877792203805
 30
0.0
 10
116.9579850172764
 20
156.7497411621343
 30
0.0
 10
116.316988552364
 20
156.6981292356102
 30
0.0
 10
115.9854609244118
 20
156.6848153020887
 30
0.0
 10
115.3326698793403
 20
156.6847182157606
 30
0.0
 10
115.0081336743085
 20
156.6975063009217
 30
0.0
 10
114.3628642248921
 20
156.7489964905176
 30
0.0
 10
114.0471212187294
 20
156.7875210698377
 30
0.0
 10
113.4452319237457
 20
156.8864236326957
 30
0.0
 10
113.1544826929342
 20
156.9475277306207
 30
0.0
 10
112.6075709012497
 20
157.0893371637314
 30
0.0
 10
112.3557935374128
 20
157.1686716483106
 30
0.0
 10
111.8944055447917
 20
157.3420503929721
 30
0.0
 10
111.6831362651936
 20
157.4372103377261
 30
0.0
 10
111.3198319128174
 20
157.633782861102
 30
0.0
 10
111.1660252643746
 20
157.7355390895084
 30
0.0
 10
110.9774057947772
 20
157.8923250522939
 30
0.0
 10
110.9213753085681
 20
157.9455790860439
 30
0.0
 10
110.8258015468319
 20
158.0513836475966
 30
0.0
 10
110.7860386298069
 20
158.1040367119522
 30
0.0
 10
110.6902668794948
 20
158.2611104314114
 30
0.0
 10
110.6575440403687
 20
158.3646354667385
 30
0.0
 10
110.6569154540396
 20
158.5688502009656
 30
0.0
 10
110.6891015987744
 20
158.6663540385504
 30
0.0
 10
110.78401230063
 20
158.805681088902
 30
0.0
 10
110.8234790840289
 20
158.8509978204065
 30
0.0
 10
110.9184090827498
 20
158.9394376413953
 30
0.0
 10
110.9741659105132
 20
158.9826918918553
 30
0.0
 10
111.1621060284831
 20
159.1065833664452
 30
0.0
 10
111.3154674981992
 20
159.1822856572194
 30
0.0
 10
111.6777317330796
 20
159.3215400286775
 30
0.0
 10
111.8885802065455
 20
159.3853018702062
 30
0.0
 10
112.3492501768644
 20
159.4967987096741
 30
0.0
 10
112.6006245564483
 20
159.5453247819907
 30
0.0
 10
113.1465324433464
 20
159.6293787653712
 30
0.0
 10
113.4373550179976
 20
159.6641773190379
 30
0.0
 10
114.0386816327776
 20
159.7193737838017
 30
0.0
 10
114.35320021739
 20
159.7401916325556
 30
0.0
 10
114.99978167351
 20
159.7680389654663
 30
0.0
 10
115.326682171272
 20
159.774936566002
 30
0.0
 10
115.9877727968246
 20
159.774936566002
 30
0.0
  0
LINE
  5
C9
330
1F
100
AcDbEntity
  8
0
  6
HIDDEN
 62
     7
370
     0
100
AcDbLine
 10
123.3951984631
 20
149.8663500704
 30
0.0
 11
123.3951984631
 21
142.2653873095
 31
0.0
  0
LINE
  5
CA
330
1F
100
AcDbEntity
  8
0
  6
HIDDEN
 62
     7
370
     0
100
AcDbLine
 10
87.0706522335
 20
74.1795809472
 30
0.0
 11
86.8006965327
 21
74.155654848
 31
0.0
  0
SPLINE
  5
CB
330
1F
100
AcDbEntity
  8
0
  6
HIDDEN
 62
     7
370
     0
100
AcDbSpline
210
0.0
220
0.0
230
1.0
 70
     8
 71
     3
 72
    12
 73
     8
 74
     0
 42
0.00000001
 43
0.00000001
 40
0.0
 40
0.0
 40
0.0
 40
0.0
 40
0.1661348616735903
 40
0.3322013257393936
 40
0.5008932044678248
 40
0.752137078264078
 40
1.0
 40
1.0
 40
1.0
 40
1.0
 10
85.17654914969549
 20
147.8466913325895
 30
0.0
 10
85.18694177380355
 20
147.8453132085281
 30
0.0
 10
85.20772274338351
 20
147.842557527778
 30
0.0
 10
85.38102223283042
 20
147.820954152816
 30
0.0
 10
85.70297382207414
 20
147.7830892008741
 30
0.0
 10
86.22413965799348
 20
147.7227054341579
 30
0.0
 10
86.7896975978312
 20
147.6749122970085
 30
0.0
 10
87.07056102151924
 20
147.6511776039151
 30
0.0
  0
SPLINE
  5
CC
330
1F
100
AcDbEntity
  8
0
  6
HIDDEN
 62
     7
370
     0
100
AcDbSpline
210
0.0
220
0.0
230
1.0
 70
     8
 71
     3
 72
    13
 73
     9
 74
     0
 42
0.00000001
 43
0.00000001
 40
0.0
 40
0.0
 40
0.0
 40
0.0
 40
0.1623836687590154
 40
0.3259036967521354
 40
0.4929930053128654
 40
0.6613109974968223
 40
0.8237250587268701
 40
1.0
 40
1.0
 40
1.0
 40
1.0
 10
96.9104331392393
 20
142.2817095302711
 30
0.0
 10
96.98602264973493
 20
142.294085302728
 30
0.0
 10
97.13773064533869
 20
142.3189234531694
 30
0.0
 10
97.32062952173453
 20
142.3461817980442
 30
0.0
 10
97.4696918625188
 20
142.3673016575692
 30
0.0
 10
97.57364206173894
 20
142.3812880409378
 30
0.0
 10
97.64897190004555
 20
142.3910807405302
 30
0.0
 10
97.64074323455962
 20
142.3900095509318
 30
0.0
 10
97.63646052235295
 20
142.3894520368639
 30
0.0
  0
SPLINE
  5
CD
330
1F
100
AcDbEntity
  8
0
  6
HIDDEN
 62
     7
370
     0
100
AcDbSpline
210
0.0
220
0.0
230
1.0
 70
     8
 71
     3
 72
    13
 73
     9
 74
     0
 42
0.00000001
 43
0.00000001
 40
0.0
 40
0.0
 40
0.0
 40
0.0
 40
0.1539979175619511
 40
0.3222783140682305
 40
0.4885514651576366
 40
0.6560338488010076
 40
0.8273499398628251
 40
1.0
 40
1.0
 40
1.0
 40
1.0
 10
97.63646105263815
 20
79.4413225135852
 30
0.0
 10
97.641645358637
 20
79.44065086100268
 30
0.0
 10
97.65249478714472
 20
79.43924526367147
 30
0.0
 10
97.58315562109735
 20
79.44823186203304
 30
0.0
 10
97.48303865549232
 20
79.46164591355206
 30
0.0
 10
97.33651075299787
 20
79.48228647934499
 30
0.0
 10
97.15029689141271
 20
79.50985193555387
 30
0.0
 10
96.99059417625043
 20
79.53596028657839
 30
0.0
 10
96.9104331392393
 20
79.54906508877696
 30
0.0
  0
SPLINE
  5
CE
330
1F
100
AcDbEntity
  8
0
  6
HIDDEN
 62
     7
370
     0
100
AcDbSpline
210
0.0
220
0.0
230
1.0
 70
     8
 71
     3
 72
    33
 73
    29
 74
     0
 42
0.00000001
 43
0.00000001
 40
0.0
 40
0.0
 40
0.0
 40
0.0
 40
0.0315773698875104
 40
0.0633753287769057
 40
0.0958656851178231
 40
0.1285943208117605
 40
0.1601713694082662
 40
0.2244011681247345
 40
0.2571344568799636
 40
0.2885965627565487
 40
0.3526214070085076
 40
0.3852675959519929
 40
0.4162212184009612
 40
0.4791910353915302
 40
0.5112817741273479
 40
0.5421256322990662
 40
0.6048360558905652
 40
0.6367710793564881
 40
0.6680663384719832
 40
0.7316979547407203
 40
0.7641081282919966
 40
0.7957194290717577
 40
0.8275524266255816
 40
0.8600900250720824
 40
0.8928737620729298
 40
0.9241775068323748
 40
0.9878778414776339
 40
1.0
 40
1.0
 40
1.0
 40
1.0
 10
96.9104331392393
 20
79.54906508877696
 30
0.0
 10
96.82656199223405
 20
79.56293882715869
 30
0.0
 10
96.65823380229011
 20
79.59078322124344
 30
0.0
 10
96.35887920594861
 20
79.63721586147385
 30
0.0
 10
96.02487973868978
 20
79.68582846349467
 30
0.0
 10
95.65910977680248
 20
79.73497639668192
 30
0.0
 10
95.1357298621136
 20
79.79904218227455
 30
0.0
 10
94.55930265351903
 20
79.85882369667966
 30
0.0
 10
93.94416550666749
 20
79.90882330414372
 30
0.0
 10
93.30784978058456
 20
79.95096329682713
 30
0.0
 10
92.64406924314586
 20
79.97959802156517
 30
0.0
 10
91.97200349156275
 20
79.99185747264876
 30
0.0
 10
91.30255490813101
 20
79.99318676375705
 30
0.0
 10
90.63737034101706
 20
79.9783262408476
 30
0.0
 10
89.99107910212656
 20
79.94846827645841
 30
0.0
 10
89.36188915126819
 20
79.90972504839714
 30
0.0
 10
88.76217345908891
 20
79.85914681463727
 30
0.0
 10
88.20387389296711
 20
79.80074680017074
 30
0.0
 10
87.67367902257953
 20
79.73842356880122
 30
0.0
 10
87.19451232026795
 20
79.67301499426566
 30
0.0
 10
86.7795943350731
 20
79.6102260906597
 30
0.0
 10
86.50232195114705
 20
79.5657214918383
 30
0.0
 10
86.26076666558588
 20
79.52501254240333
 30
0.0
 10
86.05527466123746
 20
79.48895541175385
 30
0.0
 10
85.89111023749322
 20
79.45919838680149
 30
0.0
 10
85.73167629092794
 20
79.42961307337708
 30
0.0
 10
85.65343806297933
 20
79.41466379437223
 30
0.0
 10
85.66116285332414
 20
79.41613621697344
 30
0.0
 10
85.6623978579936
 20
79.41637162126361
 30
0.0
  0
SPLINE
  5
CF
330
1F
100
AcDbEntity
  8
0
  6
HIDDEN
 62
     7
370
     0
100
AcDbSpline
210
0.0
220
0.0
230
1.0
 70
     8
 71
     3
 72
    32
 73
    28
 74
     0
 42
0.00000001
 43
0.00000001
 40
0.0
 40
0.0
 40
0.0
 40
0.0
 40
0.020356822172105
 40
0.0512207857583794
 40
0.1139954454389432
 40
0.1459779869097674
 40
0.1769364677636727
 40
0.2398766914470389
 40
0.2719275468465721
 40
0.3033698011481659
 40
0.3673099924152954
 40
0.3998847012176188
 40
0.4314690120325909
 40
0.4957360700021212
 40
0.5285028301030422
 40
0.5596434488300034
 40
0.6230067766607702
 40
0.6553079823205556
 40
0.6861132872619372
 40
0.748756262689177
 40
0.7806634244345373
 40
0.8117607067089887
 40
0.8749825776111492
 40
0.9071778073885584
 40
0.9301738434827028
 40
0.9765719131095674
 40
1.0
 40
1.0
 40
1.0
 40
1.0
 10
85.6623978579936
 20
142.4144029977844
 30
0.0
 10
85.66204080608735
 20
142.4144704767113
 30
0.0
 10
85.66114241050086
 20
142.414640263706
 30
0.0
 10
85.72373615705348
 20
142.4027460225186
 30
0.0
 10
85.86554733851699
 20
142.376099145599
 30
0.0
 10
86.0895919303925
 20
142.3357170741864
 30
0.0
 10
86.36413404622672
 20
142.2878478324359
 30
0.0
 10
86.71282533523427
 20
142.2303779471561
 30
0.0
 10
87.12910129761168
 20
142.1678834001016
 30
0.0
 10
87.59069534447447
 20
142.1033577184623
 30
0.0
 10
88.11423329356963
 20
142.0387773414791
 30
0.0
 10
88.68643076802438
 20
141.9800219765943
 30
0.0
 10
89.28863713847635
 20
141.9266491202121
 30
0.0
 10
89.92986364525783
 20
141.8837865583799
 30
0.0
 10
90.59094896325398
 20
141.8557225123588
 30
0.0
 10
91.25765991770055
 20
141.8381338548191
 30
0.0
 10
91.93154913830747
 20
141.8366872065783
 30
0.0
 10
92.59589862225528
 20
141.8516127457162
 30
0.0
 10
93.2474328964149
 20
141.8766194709399
 30
0.0
 10
93.87809210907092
 20
141.9157235136217
 30
0.0
 10
94.4756310848934
 20
141.9658246714054
 30
0.0
 10
95.04962905284813
 20
142.0219958378886
 30
0.0
 10
95.58057876624143
 20
142.0849098665774
 30
0.0
 10
96.02395964750554
 20
142.145013368631
 30
0.0
 10
96.37548029507917
 20
142.1959030856162
 30
0.0
 10
96.66514780505602
 20
142.2410255621541
 30
0.0
 10
96.84881056945372
 20
142.2714885740415
 30
0.0
 10
96.9104331392393
 20
142.2817095302711
 30
0.0
  0
LINE
  5
D0
330
1F
100
AcDbEntity
  8
0
  6
HIDDEN
 62
     7
370
     0
100
AcDbLine
 10
76.6538518111
 20
84.4153873095
 30
0.0
 11
76.6538518111
 21
137.4153873095
 31
0.0
  0
LINE
  5
D1
330
1F
100
AcDbEntity
  8
0
  6
HIDDEN
 62
     7
370
     0
100
AcDbLine
 10
115.9413051024
 20
84.4153873095
 30
0.0
 11
115.9413051024
 21
137.4153873095
 31
0.0
  0
LINE
  5
D2
330
1F
100
AcDbEntity
  8
0
  6
HIDDEN
 62
     7
370
     0
100
AcDbLine
 10
119.107227484
 20
86.0403873095
 30
0.0
 11
119.107227484
 21
135.7903872917
 31
0.0
  0
SPLINE
  5
D3
330
1F
100
AcDbEntity
  8
0
  6
HIDDEN
 62
     7
370
     0
100
AcDbSpline
210
0.0
220
0.0
230
1.0
 70
     8
 71
     3
 72
    20
 73
    16
 74
     0
 42
0.00000001
 43
0.00000001
 40
0.0
 40
0.0
 40
0.0
 40
0.0
 40
0.2499999999999978
 40
0.2499999999999978
 40
0.3749999999999982
 40
0.3749999999999982
 40
0.4999999999999986
 40
0.4999999999999986
 40
0.6249999999999989
 40
0.6249999999999989
 40
0.7499999999999992
 40
0.7499999999999992
 40
0.8749999999999997
 40
0.8749999999999997
 40
1.0
 40
1.0
 40
1.0
 40
1.0
 10
66.85722748404827
 20
136.1439009399383
 30
0.0
 10
66.85722748404827
 20
136.0646979534061
 30
0.0
 10
66.81024498883554
 20
135.9836017350031
 30
0.0
 10
66.67242339805796
 20
135.8634050432522
 30
0.0
 10
66.61614111414798
 20
135.8244783392501
 30
0.0
 10
66.48305626268075
 20
135.7492896068258
 30
0.0
 10
66.40521632044768
 20
135.7126474014838
 30
0.0
 10
66.23258396433334
 20
135.6450568686519
 30
0.0
 10
66.13819096724227
 20
135.6140986868763
 30
0.0
 10
65.93275366092713
 20
135.5585742655066
 30
0.0
 10
65.82040742093994
 20
135.5338657516734
 30
0.0
 10
65.58816655704031
 20
135.4940695245652
 30
0.0
 10
65.46745591461759
 20
135.4786496871681
 30
0.0
 10
65.21638505534857
 20
135.4575697123285
 30
0.0
 10
65.08686305893276
 20
135.4520924673075
 30
0.0
 10
64.95722748404827
 20
135.4520924673075
 30
0.0
  0
LINE
  5
D4
330
1F
100
AcDbEntity
  8
0
  6
HIDDEN
 62
     7
370
     0
100
AcDbLine
 10
64.957227484
 20
135.4520924673
 30
0.0
 11
58.407227484
 21
135.4520924673
 31
0.0
  0
LINE
  5
D5
330
1F
100
AcDbEntity
  8
0
  6
HIDDEN
 62
     7
370
     0
100
AcDbLine
 10
58.407227484
 20
86.3786821517
 30
0.0
 11
69.957227484
 21
86.3786821517
 31
0.0
  0
SPLINE
  5
D6
330
1F
100
AcDbEntity
  8
0
  6
HIDDEN
 62
     7
370
     0
100
AcDbSpline
210
0.0
220
0.0
230
1.0
 70
     8
 71
     3
 72
    18
 73
    14
 74
     0
 42
0.00000001
 43
0.00000001
 40
0.0
 40
0.0
 40
0.0
 40
0.0
 40
0.1249999999999982
 40
0.1249999999999982
 40
0.2499999999999964
 40
0.2499999999999964
 40
0.4999999999999988
 40
0.4999999999999988
 40
0.7500000000000011
 40
0.7500000000000011
 40
0.8750000000000006
 40
0.8750000000000006
 40
1.0
 40
1.0
 40
1.0
 40
1.0
 10
69.95722748404826
 20
86.37868215174052
 30
0.0
 10
70.08669479700549
 20
86.3786821517405
 30
0.0
 10
70.21370554590212
 20
86.37332915314786
 30
0.0
 10
70.46306886709937
 20
86.35259118045909
 30
0.0
 10
70.58669252172781
 20
86.3369192762048
 30
0.0
 10
70.93572485866184
 20
86.2772245478027
 30
0.0
 10
71.14623662346864
 20
86.21945936812173
 30
0.0
 10
71.49015330116815
 20
86.08493752684421
 30
0.0
 10
71.62650370268597
 20
86.00726841333882
 30
0.0
 10
71.7635417592485
 20
85.88797727925149
 30
0.0
 10
71.7987607779614
 20
85.84705827011643
 30
0.0
 10
71.84538435489995
 20
85.7664022768264
 30
0.0
 10
71.85722748404828
 20
85.72643375663355
 30
0.0
 10
71.85722748404827
 20
85.68687367910972
 30
0.0
  0
LINE
  5
D7
330
1F
100
AcDbEntity
  8
0
  6
HIDDEN
 62
     7
370
     0
100
AcDbLine
 10
58.407227484
 20
86.3786821517
 30
0.0
 11
58.407227484
 21
135.4520924673
 31
0.0
  0
LWPOLYLINE
  5
D8
330
1F
100
AcDbEntity
  8
0
  6
HIDDEN
 62
     7
370
     0
100
AcDbPolyline
 90
       14
 70
   128
 43
0.0
 10
115.657227484
 20
150.8591178728
 10
116.7320796851
 20
150.9066642563
 10
117.7566729918
 20
151.0470801905
 10
118.68309856
 20
151.2737999826
 10
119.4680377597
 20
151.576222467
 10
120.0747877063
 20
151.9402067044
 10
120.4749774466
 20
152.3487331965
 10
120.6498945533
 20
152.7826996985
 10
120.5913600968
 20
153.2218144191
 10
120.3021110831
 20
153.6455448421
 10
119.7956724748
 20
154.0340778037
 10
119.0957247783
 20
154.3692459346
 10
118.2349967699
 20
154.6353771454
 10
118.0285615787
 20
154.6832174736
  0
LWPOLYLINE
  5
D9
330
1F
100
AcDbEntity
  8
0
  6
HIDDEN
 62
     7
370
     0
100
AcDbPolyline
 90
       14
 70
   128
 43
0.0
 10
113.2221001565
 20
154.6689951356
 10
113.0794581982
 20
154.6353771454
 10
112.2187301898
 20
154.3692459346
 10
111.5187824933
 20
154.0340778037
 10
111.012343885
 20
153.6455448421
 10
110.7230948713
 20
153.2218144191
 10
110.6645604148
 20
152.7826996985
 10
110.8394775215
 20
152.3487331965
 10
111.2396672618
 20
151.9402067044
 10
111.8464172084
 20
151.576222467
 10
112.6313564081
 20
151.2737999826
 10
113.5577819762
 20
151.0470801905
 10
114.582375283
 20
150.9066642563
 10
115.657227484
 20
150.8591178728
  0
LINE
  5
DA
330
1F
100
AcDbEntity
  8
0
  6
HIDDEN
 62
     7
370
     0
100
AcDbLine
 10
58.407227484
 20
83.5453873095
 30
0.0
 11
58.407227484
 21
78.6671021077
 31
0.0
  0
LINE
  5
DB
330
1F
100
AcDbEntity
  8
0
  6
HIDDEN
 62
     7
370
     0
100
AcDbLine
 10
71.857227484
 20
83.5453873095
 30
0.0
 11
71.857227484
 21
77.0460540442
 31
0.0
  0
LINE
  5
DC
330
1F
100
AcDbEntity
  8
0
  6
HIDDEN
 62
     7
370
     0
100
AcDbLine
 10
66.857227484
 20
138.2853873095
 30
0.0
 11
66.857227484
 21
144.6599960465
 31
0.0
  0
LINE
  5
DD
330
1F
100
AcDbEntity
  8
0
  6
HIDDEN
 62
     7
370
     0
100
AcDbLine
 10
58.407227484
 20
138.2853873095
 30
0.0
 11
58.407227484
 21
143.1636725113
 31
0.0
  0
LINE
  5
DE
330
1F
100
AcDbEntity
  8
0
  6
HIDDEN
 62
     7
370
     0
100
AcDbLine
 10
130.957227484
 20
97.9153873095
 30
0.0
 11
130.957227484
 21
123.9153873095
 31
0.0
  0
LINE
  5
DF
330
1F
100
AcDbEntity
  8
0
  6
HIDDEN
 62
     7
370
     0
100
AcDbLine
 10
134.957227484
 20
97.9153873095
 30
0.0
 11
134.957227484
 21
123.9153873095
 31
0.0
  0
LINE
  5
E0
330
1F
100
AcDbEntity
  8
0
  6
HIDDEN
 62
     7
370
     0
100
AcDbLine
 10
119.857227484
 20
99.6653873095
 30
0.0
 11
119.857227484
 21
122.1653873095
 31
0.0
  0
ELLIPSE
  5
E1
330
1F
100
AcDbEntity
  8
0
  6
HIDDEN
 62
     7
370
     0
100
AcDbEllipse
 10
50.4725542838
 20
110.9153873095
 30
0.0
 11
31.08108570811662
 21
1.421085471520200E-14
 31
0.0
210
0.0
220
0.0
230
1.0
 40
0.8164965809
 41
1.312649268214811
 42
1.367189972061496
  0
ELLIPSE
  5
E2
330
1F
100
AcDbEntity
  8
0
  6
HIDDEN
 62
     7
370
     0
100
AcDbEllipse
 10
50.4725542838
 20
110.9153873095
 30
0.0
 11
31.08108570811662
 21
-1.421085471520200E-14
 31
0.0
210
0.0
220
0.0
230
1.0
 40
0.8164965809
 41
4.915995335118102
 42
4.970536038964788
  0
LINE
  5
E3
330
1F
100
AcDbEntity
  8
0
  6
HIDDEN
 62
     7
370
     0
100
AcDbLine
 10
135.607227484
 20
67.0153873095
 30
0.0
 11
121.607227484
 21
67.0153873095
 31
0.0
  0
LINE
  5
E4
330
1F
100
AcDbEntity
  8
0
  6
HIDDEN
 62
     7
370
     0
100
AcDbLine
 10
111.607227484
 20
60.9253883097
 30
0.0
 11
111.607227484
 21
67.0153873095
 31
0.0
  0
LINE
  5
E5
330
1F
100
AcDbEntity
  8
0
  6
HIDDEN
 62
     7
370
     0
100
AcDbLine
 10
121.607227484
 20
67.0153873095
 30
0.0
 11
111.607227484
 21
67.0153873095
 31
0.0
  0
LINE
  5
E6
330
1F
100
AcDbEntity
  8
0
  6
HIDDEN
 62
     7
370
     0
100
AcDbLine
 10
233.157227484
 20
100.9153873095
 30
0.0
 11
233.157227484
 21
120.9153873095
 31
0.0
  0
SPLINE
  5
E7
330
1F
100
AcDbEntity
  8
0
  6
HIDDEN
 62
     7
370
     0
100
AcDbSpline
210
0.0
220
0.0
230
1.0
 70
     8
 71
     3
 72
    17
 73
    13
 74
     0
 42
0.00000001
 43
0.00000001
 40
0.0
 40
0.0
 40
0.0
 40
0.0
 40
0.1050741377840422
 40
0.2132156150751862
 40
0.3182840573060145
 40
0.4263613331268762
 40
0.532129860374769
 40
0.6409367872909469
 40
0.7471489453140548
 40
0.8564829370771743
 40
0.9619349001843813
 40
1.0
 40
1.0
 40
1.0
 40
1.0
 10
187.1572274840483
 20
121.1055786718096
 30
0.0
 10
187.2398616439631
 20
121.1061654904774
 30
0.0
 10
187.4075422322032
 20
121.1073562583089
 30
0.0
 10
187.6508211829469
 20
121.1166744204736
 30
0.0
 10
187.8821884621313
 20
121.1305202430148
 30
0.0
 10
188.0915465633729
 20
121.1476950241738
 30
0.0
 10
188.2768786980974
 20
121.166442352606
 30
0.0
 10
188.4295075927462
 20
121.1844018331005
 30
0.0
 10
188.5483227350841
 20
121.1999449468015
 30
0.0
 10
188.6236282157716
 20
121.2104967802025
 30
0.0
 10
188.6586928655796
 20
121.2155998525314
 30
0.0
 10
188.6536021147359
 20
121.2148604577406
 30
0.0
 10
188.6522518924345
 20
121.2146643477036
 30
0.0
  0
LINE
  5
E8
330
1F
100
AcDbEntity
  8
0
  6
HIDDEN
 62
     7
370
     0
100
AcDbLine
 10
187.2441919655
 20
121.1066314531
 30
0.0
 11
187.1282150267
 21
121.1060719909
 31
0.0
  0
SPLINE
  5
E9
330
1F
100
AcDbEntity
  8
0
  6
HIDDEN
 62
     7
370
     0
100
AcDbSpline
210
0.0
220
0.0
230
1.0
 70
     8
 71
     3
 72
    16
 73
    12
 74
     0
 42
0.00000001
 43
0.00000001
 40
0.0
 40
0.0
 40
0.0
 40
0.0
 40
0.1011088093895654
 40
0.2090275157269333
 40
0.3138606750502936
 40
0.4216822275279439
 40
0.5274448153049984
 40
0.6362437013869504
 40
0.7424859207372987
 40
0.851849415982394
 40
1.0
 40
1.0
 40
1.0
 40
1.0
 10
185.6579315486423
 20
121.2152853865009
 30
0.0
 10
185.6613108270145
 20
121.2147898135162
 30
0.0
 10
185.6682969854646
 20
121.2137652896349
 30
0.0
 10
185.7306489757639
 20
121.2048458337107
 30
0.0
 10
185.8308593005951
 20
121.1913179858846
 30
0.0
 10
185.9680022180196
 20
121.1743503877345
 30
0.0
 10
186.1399920167734
 20
121.1556731357247
 30
0.0
 10
186.3399391317646
 20
121.137536455912
 30
0.0
 10
186.5655484851981
 20
121.1219384682118
 30
0.0
 10
186.8378081013913
 20
121.1087434594298
 30
0.0
 10
187.0405740696135
 20
121.1067344666734
 30
0.0
 10
187.1572274840483
 20
121.1055786718096
 30
0.0
  0
SPLINE
  5
EA
330
1F
100
AcDbEntity
  8
0
  6
HIDDEN
 62
     7
370
     0
100
AcDbSpline
210
0.0
220
0.0
230
1.0
 70
     8
 71
     3
 72
    26
 73
    22
 74
     0
 42
0.00000001
 43
0.00000001
 40
0.0
 40
0.0
 40
0.0
 40
0.0
 40
0.052543449762733
 40
0.1066204398707518
 40
0.1591611335114189
 40
0.2132068895386797
 40
0.2660899371602105
 40
0.3204918511833422
 40
0.3736024034979782
 40
0.4282739164987373
 40
0.48100462245659
 40
0.5352887493769446
 40
0.5876240339851792
 40
0.6414670088958803
 40
0.6940077648795514
 40
0.7480443195367901
 40
0.8010691975714336
 40
0.8556291054873538
 40
0.9086663223060547
 40
0.9632688169391663
 40
1.0
 40
1.0
 40
1.0
 40
1.0
 10
188.6572274840483
 20
100.615387309524
 30
0.0
 10
188.6532677945927
 20
100.6159677672501
 30
0.0
 10
188.6452328476409
 20
100.6171456240213
 30
0.0
 10
188.5806260488025
 20
100.6263737230975
 30
0.0
 10
188.4785209656392
 20
100.6401181475775
 30
0.0
 10
188.3396178470946
 20
100.657221197357
 30
0.0
 10
188.1660523317856
 20
100.6759482192802
 30
0.0
 10
187.9649107833403
 20
100.6939844394892
 30
0.0
 10
187.7384038720448
 20
100.7095359498246
 30
0.0
 10
187.497391798831
 20
100.720524847111
 30
0.0
 10
187.2448609046726
 20
100.7258680505321
 30
0.0
 10
186.9933397777786
 20
100.7249095119801
 30
0.0
 10
186.7449240477402
 20
100.7178139234098
 30
0.0
 10
186.5107164008096
 20
100.7055459328307
 30
0.0
 10
186.2924040174043
 20
100.6892536712741
 30
0.0
 10
186.0992957349412
 20
100.6709447258932
 30
0.0
 10
185.9338696399489
 20
100.6523791472163
 30
0.0
 10
185.803510210026
 20
100.6358624639045
 30
0.0
 10
185.7121071841629
 20
100.6233195806594
 30
0.0
 10
185.6623571000422
 20
100.6161370830442
 30
0.0
 10
185.6617737305599
 20
100.6160490661257
 30
0.0
 10
185.6615391199344
 20
100.6160136688261
 30
0.0
  0
LINE
  5
EB
330
1F
100
AcDbEntity
  8
0
  6
HIDDEN
 62
     7
370
     0
100
AcDbLine
 10
185.157227484
 20
101.0153873095
 30
0.0
 11
185.157227484
 21
120.8153871345
 31
0.0
  0
LINE
  5
EC
330
1F
100
AcDbEntity
  8
0
  6
HIDDEN
 62
     7
370
     0
100
AcDbLine
 10
195.657227484
 20
100.9153873095
 30
0.0
 11
195.657227484
 21
120.9153873095
 31
0.0
  0
LINE
  5
ED
330
1F
100
AcDbEntity
  8
0
  6
HIDDEN
 62
     7
370
     0
100
AcDbLine
 10
71.857227484
 20
83.5453873095
 30
0.0
 11
71.857227484
 21
85.6868736791
 31
0.0
  0
LINE
  5
EE
330
1F
100
AcDbEntity
  8
0
  6
HIDDEN
 62
     7
370
     0
100
AcDbLine
 10
58.407227484
 20
83.5453873095
 30
0.0
 11
58.407227484
 21
86.3786821517
 31
0.0
  0
LINE
  5
EF
330
1F
100
AcDbEntity
  8
0
  6
HIDDEN
 62
     7
370
     0
100
AcDbLine
 10
58.407227484
 20
138.2853873095
 30
0.0
 11
58.407227484
 21
135.4520924673
 31
0.0
  0
LINE
  5
F0
330
1F
100
AcDbEntity
  8
0
  6
HIDDEN
 62
     7
370
     0
100
AcDbLine
 10
66.857227484
 20
138.2853873095
 30
0.0
 11
66.857227484
 21
136.1439009399
 31
0.0
  0
LINE
  5
F1
330
1F
100
AcDbEntity
  8
0
  6
HIDDEN
 62
     7
370
     0
100
AcDbLine
 10
121.607227484
 20
154.8153873095
 30
0.0
 11
111.607227484
 21
154.8153873095
 31
0.0
  0
LINE
  5
F2
330
1F
100
AcDbEntity
  8
0
  6
HIDDEN
 62
     7
370
     0
100
AcDbLine
 10
135.607227484
 20
154.8153873095
 30
0.0
 11
121.607227484
 21
154.8153873095
 31
0.0
  0
SPLINE
  5
F3
330
1F
100
AcDbEntity
  8
0
  6
HIDDEN
 62
     7
370
     0
100
AcDbSpline
210
0.0
220
0.0
230
1.0
 70
     8
 71
     3
 72
    30
 73
    26
 74
     0
 42
0.00000001
 43
0.00000001
 40
0.0
 40
0.0
 40
0.0
 40
0.0
 40
0.0531447579710286
 40
0.1125253797131272
 40
0.1779224397116067
 40
0.2129463966942924
 40
0.2494993914504459
 40
0.291265086659374
 40
0.3261073096855474
 40
0.3540223481619386
 40
0.3750075548588426
 40
0.4414649788272059
 40
0.5001823658063147
 40
0.5546968713669163
 40
0.6144408573423134
 40
0.6794659595165392
 40
0.71402283460044
 40
0.7499196792688061
 40
0.7913840357566979
 40
0.826050848459345
 40
0.8539163335767396
 40
0.8749776390184348
 40
0.9411638663008652
 40
0.9999141571670602
 40
1.0
 40
1.0
 40
1.0
 40
1.0
 10
97.6567677734293
 20
73.81546042409215
 30
0.0
 10
97.64057082955985
 20
73.82036103105911
 30
0.0
 10
97.6062764357441
 20
73.83073726910844
 30
0.0
 10
97.30495707300011
 20
73.90639155672771
 30
0.0
 10
96.86278815250564
 20
74.00267788720623
 30
0.0
 10
96.36795548842584
 20
74.10234271513852
 30
0.0
 10
95.8974797988183
 20
74.19462086146531
 30
0.0
 10
95.36655838023688
 20
74.29025289421651
 30
0.0
 10
94.82840787668329
 20
74.37590313730094
 30
0.0
 10
94.37036054269387
 20
74.44319493030878
 30
0.0
 10
93.71479622147048
 20
74.53154309929045
 30
0.0
 10
92.83148978354639
 20
74.62820118353095
 30
0.0
 10
91.7028280508087
 20
74.71497636029706
 30
0.0
 10
90.61306630106917
 20
74.75305505800922
 30
0.0
 10
89.51703802263691
 20
74.75490549277296
 30
0.0
 10
88.61164677569361
 20
74.7287440371878
 30
0.0
 10
87.91534406527849
 20
74.6921368120589
 30
0.0
 10
87.38866433700345
 20
74.65311993658183
 30
0.0
 10
86.9220182219708
 20
74.61091080910992
 30
0.0
 10
86.55080294624699
 20
74.5739067195405
 30
0.0
 10
86.29675646900495
 20
74.5452059590962
 30
0.0
 10
85.99570131629548
 20
74.50882600850632
 30
0.0
 10
85.7402175214925
 20
74.47604584151955
 30
0.0
 10
85.64099679654467
 20
74.4597079568115
 30
0.0
 10
85.65727735382887
 20
74.46230154298416
 30
0.0
 10
85.65730110741484
 20
74.46230532706669
 30
0.0
  0
SPLINE
  5
F4
330
1F
100
AcDbEntity
  8
0
  6
HIDDEN
 62
     7
370
     0
100
AcDbSpline
210
0.0
220
0.0
230
1.0
 70
     8
 71
     3
 72
    30
 73
    26
 74
     0
 42
0.00000001
 43
0.00000001
 40
0.0
 40
0.0
 40
0.0
 40
0.0
 40
0.0001123288057695
 40
0.0285431152663135
 40
0.0588466796063202
 40
0.091027196450477
 40
0.1250880910051604
 40
0.1546766141497773
 40
0.1963554560485685
 40
0.2501101496291966
 40
0.320525387238388
 40
0.3856104300246703
 40
0.445403860889207
 40
0.4999571692316274
 40
0.5283494388508946
 40
0.558634027028705
 40
0.5908185964995195
 40
0.6249094714581434
 40
0.6541844575853767
 40
0.6958630078636641
 40
0.7499307292180327
 40
0.8215905285694356
 40
0.8871422909715975
 40
0.9466378748868088
 40
1.0
 40
1.0
 40
1.0
 40
1.0
 10
85.65732281614814
 20
147.3683990185524
 30
0.0
 10
85.65729095639
 20
147.3684059656786
 30
0.0
 10
85.64919528811913
 20
147.3701712530708
 30
0.0
 10
85.67785676578853
 20
147.3647163343458
 30
0.0
 10
85.75124361194277
 20
147.3541734869997
 30
0.0
 10
85.8949001554935
 20
147.3344882793462
 30
0.0
 10
86.095935855451
 20
147.309649015491
 30
0.0
 10
86.37856640472003
 20
147.2754405503522
 30
0.0
 10
86.79197553029469
 20
147.2317606535922
 30
0.0
 10
87.46826303147692
 20
147.1687175860589
 30
0.0
 10
88.40669393239287
 20
147.1074204156262
 30
0.0
 10
89.51618714588876
 20
147.0761319721257
 30
0.0
 10
90.6136678765775
 20
147.0777871397223
 30
0.0
 10
91.51369911503481
 20
147.1090933418197
 30
0.0
 10
92.22504004088573
 20
147.1559264906221
 30
0.0
 10
92.79045694187651
 20
147.2030933525181
 30
0.0
 10
93.37938036470483
 20
147.2625323590681
 30
0.0
 10
93.94379001718234
 20
147.3288895656761
 30
0.0
 10
94.53798621111851
 20
147.4108089721076
 30
0.0
 10
95.204594372089
 20
147.512456954858
 30
0.0
 10
96.00592711778924
 20
147.6545958654583
 30
0.0
 10
96.75843710229717
 20
147.8058404362247
 30
0.0
 10
97.30372359726333
 20
147.9236913094841
 30
0.0
 10
97.60644512876218
 20
147.9999205412333
 30
0.0
 10
97.6407355793752
 20
148.0103728507279
 30
0.0
 10
97.65694901602522
 20
148.015314980528
 30
0.0
  0
LINE
  5
F5
330
1F
100
AcDbEntity
  8
0
  6
HIDDEN
 62
     7
370
     0
100
AcDbLine
 10
164.7567971745
 20
104.9153873095
 30
0.0
 11
164.7567971745
 21
116.9153873095
 31
0.0
  0
LINE
  5
F6
330
1F
100
AcDbEntity
  8
0
  6
HIDDEN
 62
     7
370
     0
100
AcDbLine
 10
165.057227484
 20
105.4153873095
 30
0.0
 11
165.057227484
 21
116.4153873095
 31
0.0
  0
LINE
  5
F7
330
1F
100
AcDbEntity
  8
0
  6
HIDDEN
 62
     7
370
     0
100
AcDbLine
 10
148.607227484
 20
132.3380370403
 30
0.0
 11
151.107227484
 21
132.3380370403
 31
0.0
  0
LINE
  5
F8
330
1F
100
AcDbEntity
  8
0
  6
HIDDEN
 62
     7
370
     0
100
AcDbLine
 10
146.107227484
 20
132.3380370403
 30
0.0
 11
148.607227484
 21
132.3380370403
 31
0.0
  0
LINE
  5
F9
330
1F
100
AcDbEntity
  8
0
  6
HIDDEN
 62
     7
370
     0
100
AcDbLine
 10
151.107227484
 20
89.4927375787
 30
0.0
 11
146.107227484
 21
89.4927375787
 31
0.0
  0
LINE
  5
FA
330
1F
100
AcDbEntity
  8
0
  6
HIDDEN
 62
     7
370
     0
100
AcDbLine
 10
148.607227484
 20
120.9153873095
 30
0.0
 11
151.107227484
 21
120.9153873095
 31
0.0
  0
LINE
  5
FB
330
1F
100
AcDbEntity
  8
0
  6
HIDDEN
 62
     7
370
     0
100
AcDbLine
 10
146.107227484
 20
120.9153873095
 30
0.0
 11
148.607227484
 21
120.9153873095
 31
0.0
  0
LINE
  5
FC
330
1F
100
AcDbEntity
  8
0
  6
HIDDEN
 62
     7
370
     0
100
AcDbLine
 10
151.107227484
 20
100.9153873095
 30
0.0
 11
146.107227484
 21
100.9153873095
 31
0.0
  0
SPLINE
  5
FD
330
1F
100
AcDbEntity
  8
0
  6
HIDDEN
 62
     7
370
     0
100
AcDbSpline
210
0.0
220
0.0
230
1.0
 70
    11
 71
     3
 72
    42
 73
    38
 74
     0
 42
0.00000001
 43
0.00000001
 40
0.0
 40
0.0
 40
0.0
 40
0.0
 40
0.0624999999999992
 40
0.0624999999999992
 40
0.1249999999999984
 40
0.1249999999999984
 40
0.1874999999999977
 40
0.1874999999999977
 40
0.2499999999999969
 40
0.2499999999999969
 40
0.3124999999999961
 40
0.3124999999999961
 40
0.3749999999999953
 40
0.3749999999999953
 40
0.4374999999999946
 40
0.4374999999999946
 40
0.4999999999999938
 40
0.4999999999999938
 40
0.562499999999993
 40
0.562499999999993
 40
0.6249999999999922
 40
0.6249999999999922
 40
0.6874999999999915
 40
0.6874999999999915
 40
0.7499999999999908
 40
0.7499999999999908
 40
0.7812499999999911
 40
0.7812499999999911
 40
0.8124999999999916
 40
0.8124999999999916
 40
0.8437499999999919
 40
0.8437499999999919
 40
0.8749999999999923
 40
0.8749999999999923
 40
0.9374999999999962
 40
0.9374999999999962
 40
1.0
 40
1.0
 40
1.0
 40
1.0
 10
185.8557023751306
 20
126.915387309524
 30
0.0
 10
185.9134083199544
 20
126.8381982441284
 30
0.0
 10
185.9793316811164
 20
126.7469611802163
 30
0.0
 10
186.1096652202426
 20
126.5462549445734
 30
0.0
 10
186.1760584807685
 20
126.4346346551702
 30
0.0
 10
186.2834809432249
 20
126.1904722773542
 30
0.0
 10
186.3244323436248
 20
126.0541029028411
 30
0.0
 10
186.3312286025794
 20
125.7715674209803
 30
0.0
 10
186.2954811789677
 20
125.6332696552706
 30
0.0
 10
186.1901759261854
 20
125.3874450053984
 30
0.0
 10
186.1222851479227
 20
125.2764048726395
 30
0.0
 10
185.9890577273139
 20
125.0791170384602
 30
0.0
 10
185.9210986346878
 20
124.9899911808974
 30
0.0
 10
185.8029885597676
 20
124.8407682942379
 30
0.0
 10
185.7510822753996
 20
124.7786601310376
 30
0.0
 10
185.6780565353866
 20
124.6922234571692
 30
0.0
 10
185.6574729886792
 20
124.6685035058172
 30
0.0
 10
185.6569865416719
 20
124.6679384311856
 30
0.0
 10
185.6771132829096
 20
124.6911273774441
 30
0.0
 10
185.7493682933267
 20
124.7766117210428
 30
0.0
 10
185.8011990829648
 20
124.838551442271
 30
0.0
 10
185.9207946112263
 20
124.9895638224944
 30
0.0
 10
185.9879924443441
 20
125.0775818723566
 30
0.0
 10
186.1226542507409
 20
125.2769093291896
 30
0.0
 10
186.1899264953095
 20
125.3867535142341
 30
0.0
 10
186.269536656468
 20
125.572759619837
 30
0.0
 10
186.2920594313696
 20
125.6382084319899
 30
0.0
 10
186.3221884837244
 20
125.7736933327974
 30
0.0
 10
186.3296301466167
 20
125.8450648175166
 30
0.0
 10
186.3259269249963
 20
125.9847134237852
 30
0.0
 10
186.3148873541187
 20
126.0550470541415
 30
0.0
 10
186.2798371095433
 20
126.1888600433155
 30
0.0
 10
186.256254145157
 20
126.2525077397741
 30
0.0
 10
186.1750259178175
 20
126.4366741649139
 30
0.0
 10
186.1093537603728
 20
126.5467735803704
 30
0.0
 10
185.9789299429348
 20
126.7475406148898
 30
0.0
 10
185.9131855991183
 20
126.8384961616694
 30
0.0
 10
185.8557023751306
 20
126.915387309524
 30
0.0
  0
SPLINE
  5
FE
330
1F
100
AcDbEntity
  8
0
  6
HIDDEN
 62
     7
370
     0
100
AcDbSpline
210
0.0
220
0.0
230
1.0
 70
     8
 71
     3
 72
    24
 73
    20
 74
     0
 42
0.00000001
 43
0.00000001
 40
0.0
 40
0.0
 40
0.0
 40
0.0
 40
0.125000000000003
 40
0.125000000000003
 40
0.250000000000006
 40
0.250000000000006
 40
0.3750000000000089
 40
0.3750000000000089
 40
0.5000000000000119
 40
0.5000000000000119
 40
0.5625000000000117
 40
0.5625000000000117
 40
0.6250000000000112
 40
0.6250000000000112
 40
0.7500000000000074
 40
0.7500000000000074
 40
0.8750000000000038
 40
0.8750000000000038
 40
1.0
 40
1.0
 40
1.0
 40
1.0
 10
188.6572274840483
 20
124.5503479976384
 30
0.0
 10
188.6572274840483
 20
124.5503479976384
 30
0.0
 10
188.6339565878367
 20
124.5789716564731
 30
0.0
 10
188.5530583100593
 20
124.6813015471661
 30
0.0
 10
188.4957255724134
 20
124.7546838386486
 30
0.0
 10
188.368464860309
 20
124.9273488272098
 30
0.0
 10
188.2968716364098
 20
125.0284874752699
 30
0.0
 10
188.1591646063882
 20
125.2516917881584
 30
0.0
 10
188.0909938641853
 20
125.3755091815442
 30
0.0
 10
188.0194512343618
 20
125.5813658571263
 30
0.0
 10
188.0010576443964
 20
125.6540770463307
 30
0.0
 10
187.9835574837333
 20
125.8020618008662
 30
0.0
 10
187.984503226886
 20
125.8762244374605
 30
0.0
 10
188.017433999539
 20
126.0992435266457
 30
0.0
 10
188.076835562962
 20
126.2352782055389
 30
0.0
 10
188.2093785121671
 20
126.475262406464
 30
0.0
 10
188.2844791464085
 20
126.5831439407223
 30
0.0
 10
188.423689055136
 20
126.7708618905096
 30
0.0
 10
188.4897909588729
 20
126.8525980713556
 30
0.0
 10
188.5416656966532
 20
126.915387309524
 30
0.0
  0
LINE
  5
FF
330
1F
100
AcDbEntity
  8
0
  6
HIDDEN
 62
     7
370
     0
100
AcDbLine
 10
188.5416656967
 20
126.9153873095
 30
0.0
 11
185.8557023751
 21
126.9153873095
 31
0.0
  0
SPLINE
  5
100
330
1F
100
AcDbEntity
  8
0
  6
HIDDEN
 62
     7
370
     0
100
AcDbSpline
210
0.0
220
0.0
230
1.0
 70
    11
 71
     3
 72
    24
 73
    20
 74
     0
 42
0.00000001
 43
0.00000001
 40
0.0
 40
0.0
 40
0.0
 40
0.0
 40
0.1249999999999995
 40
0.1249999999999995
 40
0.2499999999999989
 40
0.2499999999999989
 40
0.3749999999999984
 40
0.3749999999999984
 40
0.4999999999999979
 40
0.4999999999999979
 40
0.6249999999999973
 40
0.6249999999999973
 40
0.7499999999999969
 40
0.7499999999999969
 40
0.8749999999999963
 40
0.8749999999999963
 40
0.9374999999999981
 40
0.9374999999999981
 40
1.0
 40
1.0
 40
1.0
 40
1.0
 10
186.3277651759788
 20
95.91538730952402
 30
0.0
 10
186.3325773047096
 20
96.09285504643273
 30
0.0
 10
186.2757784858145
 20
96.26210014055376
 30
0.0
 10
186.127199143171
 20
96.55524058419635
 30
0.0
 10
186.0389623895362
 20
96.68158816877488
 30
0.0
 10
185.8751402259569
 20
96.90191728292375
 30
0.0
 10
185.8005840072405
 20
96.99256587242239
 30
0.0
 10
185.6905032410739
 20
97.12436022335837
 30
0.0
 10
185.6577149031181
 20
97.16199009598914
 30
0.0
 10
185.6567514804032
 20
97.16310924420704
 30
0.0
 10
185.6882268238361
 20
97.12701538187848
 30
0.0
 10
185.7973903918128
 20
96.9964562773884
 30
0.0
 10
185.8733432093609
 20
96.90415756271749
 30
0.0
 10
186.0366842866666
 20
96.68482427564759
 30
0.0
 10
186.1261890018632
 20
96.55673260383806
 30
0.0
 10
186.2375596988908
 20
96.33774928077987
 30
0.0
 10
186.2711660478391
 20
96.25859856735549
 30
0.0
 10
186.3175677268298
 20
96.0926326279107
 30
0.0
 10
186.3301749147469
 20
96.00425668796909
 30
0.0
 10
186.3277651759583
 20
95.91538730952107
 30
0.0
  0
LINE
  5
101
330
1F
100
AcDbEntity
  8
0
  6
HIDDEN
 62
     7
370
     0
100
AcDbLine
 10
186.327765176
 20
95.9153873095
 30
0.0
 11
187.9910226818
 21
95.9153873095
 31
0.0
  0
SPLINE
  5
102
330
1F
100
AcDbEntity
  8
0
  6
HIDDEN
 62
     7
370
     0
100
AcDbSpline
210
0.0
220
0.0
230
1.0
 70
    11
 71
     3
 72
    28
 73
    24
 74
     0
 42
0.00000001
 43
0.00000001
 40
0.0
 40
0.0
 40
0.0
 40
0.0
 40
0.0625000000000019
 40
0.0625000000000019
 40
0.1250000000000038
 40
0.1250000000000038
 40
0.2500000000000039
 40
0.2500000000000039
 40
0.375000000000004
 40
0.375000000000004
 40
0.5000000000000041
 40
0.5000000000000041
 40
0.5625000000000041
 40
0.5625000000000041
 40
0.6250000000000041
 40
0.6250000000000041
 40
0.7500000000000011
 40
0.7500000000000011
 40
0.8749999999999982
 40
0.8749999999999982
 40
0.9374999999999991
 40
0.9374999999999991
 40
1.0
 40
1.0
 40
1.0
 40
1.0
 10
187.9910226817898
 20
95.91538730952402
 30
0.0
 10
187.9812714485633
 20
96.0076449011977
 30
0.0
 10
187.9875203947294
 20
96.0999252394388
 30
0.0
 10
188.0261228889417
 20
96.27863634067349
 30
0.0
 10
188.0568807405644
 20
96.3620838417639
 30
0.0
 10
188.1658894817306
 20
96.60150525288354
 30
0.0
 10
188.2554065636656
 20
96.73909695281118
 30
0.0
 10
188.4247936369344
 20
96.98344086368077
 30
0.0
 10
188.5034317107189
 20
97.08566139988572
 30
0.0
 10
188.6212093561354
 20
97.23628782299876
 30
0.0
 10
188.6568306304011
 20
97.27993443669274
 30
0.0
 10
188.6574207053225
 20
97.28066625775936
 30
0.0
 10
188.6489265847619
 20
97.27016738851032
 30
0.0
 10
188.6168437291544
 20
97.23009262621379
 30
0.0
 10
188.5929440324769
 20
97.20011869707875
 30
0.0
 10
188.5054399321343
 20
97.08826915162027
 30
0.0
 10
188.4253325032759
 20
96.9841029974522
 30
0.0
 10
188.2572500120361
 20
96.74186972826045
 30
0.0
 10
188.1664476130755
 20
96.60205528084641
 30
0.0
 10
188.0582756919018
 20
96.36547775089565
 30
0.0
 10
188.0265487253749
 20
96.27985389095352
 30
0.0
 10
187.9878165664446
 20
96.10203625760055
 30
0.0
 10
187.9812428080506
 20
96.00791587272803
 30
0.0
 10
187.9910226818104
 20
95.91538730952182
 30
0.0
  0
LINE
  5
103
330
1F
100
AcDbEntity
  8
0
  6
HIDDEN
 62
     7
370
     0
100
AcDbLine
 10
185.6474718661
 20
97.1621730011
 30
0.0
 11
185.7456214055
 21
94.6641004105
 31
0.0
  0
SPLINE
  5
104
330
1F
100
AcDbEntity
  8
0
  6
HIDDEN
 62
     7
370
     0
100
AcDbSpline
210
0.0
220
0.0
230
1.0
 70
     8
 71
     3
 72
    10
 73
     6
 74
     0
 42
0.00000001
 43
0.00000001
 40
0.0
 40
0.0
 40
0.0
 40
0.0
 40
0.5
 40
0.5
 40
1.0
 40
1.0
 40
1.0
 40
1.0
 10
186.3277651759565
 20
95.91538730952466
 30
0.0
 10
186.5984636290997
 20
95.82452944415955
 30
0.0
 10
186.8751927020442
 20
95.7544078672895
 30
0.0
 10
187.4485183413221
 20
95.75319343616586
 30
0.0
 10
187.7218887851159
 20
95.82260752280963
 30
0.0
 10
187.991022681812
 20
95.91538730952465
 30
0.0
  0
SPLINE
  5
105
330
1F
100
AcDbEntity
  8
0
  6
HIDDEN
 62
     7
370
     0
100
AcDbSpline
210
0.0
220
0.0
230
1.0
 70
     8
 71
     3
 72
    10
 73
     6
 74
     0
 42
0.00000001
 43
0.00000001
 40
0.0
 40
0.0
 40
0.0
 40
0.0
 40
0.2841156044385606
 40
0.9492192365741233
 40
0.9999999999999999
 40
0.9999999999999999
 40
0.9999999999999999
 40
0.9999999999999999
 10
188.5416656966532
 20
126.915387309524
 30
0.0
 10
188.5601004889353
 20
126.9375333881492
 30
0.0
 10
188.621690416356
 20
127.0115225795816
 30
0.0
 10
188.6697787561091
 20
127.066919579315
 30
0.0
 10
188.6550647783365
 20
127.0497527232859
 30
0.0
 10
188.6540210525213
 20
127.0485350042516
 30
0.0
  0
SPLINE
  5
106
330
1F
100
AcDbEntity
  8
0
  6
HIDDEN
 62
     7
370
     0
100
AcDbSpline
210
0.0
220
0.0
230
1.0
 70
     8
 71
     3
 72
     9
 73
     5
 74
     0
 42
0.00000001
 43
0.00000001
 40
0.0
 40
0.0
 40
0.0
 40
0.0
 40
0.7075880875954931
 40
1.0
 40
1.0
 40
1.0
 40
1.0
 10
185.6673744576657
 20
127.0350031835482
 30
0.0
 10
185.6701891812392
 20
127.0345051995954
 30
0.0
 10
185.6741670938452
 20
127.0338014229753
 30
0.0
 10
185.7263378790818
 20
127.05728393745
 30
0.0
 10
185.7415932381644
 20
127.0641505044156
 30
0.0
  0
LINE
  5
107
330
1F
100
AcDbEntity
  8
0
  6
HIDDEN
 62
     7
370
     0
100
AcDbLine
 10
185.7415932382
 20
127.0641505044
 30
0.0
 11
185.648552826
 21
124.6961138841
 31
0.0
  0
LINE
  5
108
330
1F
100
AcDbEntity
  8
0
  6
HIDDEN
 62
     7
370
     0
100
AcDbLine
 10
185.8557023751
 20
126.9153873095
 30
0.0
 11
185.657227484
 21
126.9153873095
 31
0.0
  0
LINE
  5
109
330
1F
100
AcDbEntity
  8
0
  6
HIDDEN
 62
     7
370
     0
100
AcDbLine
 10
188.657227484
 20
126.9153873095
 30
0.0
 11
188.5416656967
 21
126.9153873095
 31
0.0
  0
LWPOLYLINE
  5
10A
330
1F
100
AcDbEntity
  8
0
  6
HIDDEN
 62
     7
370
     0
100
AcDbPolyline
 90
       30
 70
   128
 43
0.0
 10
115.657227484
 20
156.2280931613
 10
116.7320796851
 20
156.1919699333
 10
117.7566729918
 20
156.0852893312
 10
118.68309856
 20
155.9130396215
 10
119.4680377597
 20
155.683275009
 10
120.0747877063
 20
155.4067390319
 10
120.4749774466
 20
155.0963622048
 10
120.6498945533
 20
154.7666574035
 10
120.5913600968
 20
154.4330412578
 10
120.3021110831
 20
154.1111132881
 10
119.7956724748
 20
153.8159264883
 10
119.0957247783
 20
153.5612834652
 10
118.2349967699
 20
153.3590910435
 10
117.2537351347
 20
153.2188035161
 10
116.1978225762
 20
153.1469805719
 10
115.1166323919
 20
153.1469805719
 10
114.0607198334
 20
153.2188035161
 10
113.0794581982
 20
153.3590910435
 10
112.2187301898
 20
153.5612834652
 10
111.5187824933
 20
153.8159264883
 10
111.012343885
 20
154.1111132881
 10
110.7230948713
 20
154.4330412578
 10
110.6645604148
 20
154.7666574035
 10
110.8394775215
 20
155.0963622048
 10
111.2396672618
 20
155.4067390319
 10
111.8464172084
 20
155.683275009
 10
112.6313564081
 20
155.9130396215
 10
113.5577819762
 20
156.0852893312
 10
114.582375283
 20
156.1919699333
 10
115.657227484
 20
156.2280931613
  0
LINE
  5
10B
330
1F
100
AcDbEntity
  8
0
  6
HIDDEN
 62
     7
370
     0
100
AcDbLine
 10
129.919256505
 20
149.8663500704
 30
0.0
 11
129.919256505
 21
142.2653873095
 31
0.0
  0
LINE
  5
10C
330
1F
100
AcDbEntity
  8
0
  6
HIDDEN
 62
     7
370
     0
100
AcDbLine
 10
128.567227484
 20
145.629622502
 30
0.0
 11
128.567227484
 21
142.2653873095
 31
0.0
  0
LINE
  5
10D
330
1F
100
AcDbEntity
  8
0
  6
HIDDEN
 62
     7
370
     0
100
AcDbLine
 10
124.747227484
 20
145.629622502
 30
0.0
 11
124.747227484
 21
142.2653873095
 31
0.0
  0
CIRCLE
  5
10E
330
1F
100
AcDbEntity
  8
0
  6
HIDDEN
 62
     7
370
     0
100
AcDbCircle
 10
113.657227484
 20
110.9153873095
 30
0.0
 40
5.0
  0
LINE
  5
10F
330
1F
100
AcDbEntity
  8
0
  6
HIDDEN
 62
     7
370
     0
100
AcDbLine
 10
236.4659607268
 20
99.4090297561
 30
0.0
 11
236.5837401741
 21
96.4113426473
 31
0.0
  0
LINE
  5
110
330
1F
100
AcDbEntity
  8
0
  6
HIDDEN
 62
     7
370
     0
100
AcDbLine
 10
231.1320229229
 20
99.199458769
 30
0.0
 11
231.2498023702
 21
96.2017716603
 31
0.0
  0
LINE
  5
111
330
1F
100
AcDbEntity
  8
0
  6
HIDDEN
 62
     7
370
     0
100
AcDbLine
 10
230.6520383127
 20
98.680214343
 30
0.0
 11
230.7305579442
 21
96.6817562705
 31
0.0
  0
LINE
  5
112
330
1F
100
AcDbEntity
  8
0
  6
HIDDEN
 62
     7
370
     0
100
AcDbLine
 10
236.6387950005
 20
99.135104011
 30
0.0
 11
236.657227484
 21
98.6659659785
 31
0.0
  0
LINE
  5
113
330
1F
100
AcDbEntity
  8
0
  6
HIDDEN
 62
     7
370
     0
100
AcDbLine
 10
234.6882142734
 20
97.8380245698
 30
0.0
 11
234.6587694116
 21
98.587446347
 31
0.0
  0
LINE
  5
114
330
1F
100
AcDbEntity
  8
0
  6
HIDDEN
 62
     7
370
     0
100
AcDbLine
 10
234.6882142734
 20
97.8380245698
 30
0.0
 11
236.6866723459
 21
97.9165442013
 31
0.0
  0
LINE
  5
115
330
1F
100
AcDbEntity
  8
0
  6
HIDDEN
 62
     7
370
     0
100
AcDbLine
 10
234.7176591352
 20
97.0886027926
 30
0.0
 11
234.6882142734
 21
97.8380245698
 31
0.0
  0
LINE
  5
116
330
1F
100
AcDbEntity
  8
0
  6
HIDDEN
 62
     7
370
     0
100
AcDbLine
 10
234.6587694116
 20
98.587446347
 30
0.0
 11
236.657227484
 21
98.6659659785
 31
0.0
  0
LINE
  5
117
330
1F
100
AcDbEntity
  8
0
  6
HIDDEN
 62
     7
370
     0
100
AcDbLine
 10
234.7176591352
 20
97.0886027926
 30
0.0
 11
236.7161172077
 21
97.1671224241
 31
0.0
  0
LINE
  5
118
330
1F
100
AcDbEntity
  8
0
  6
HIDDEN
 62
     7
370
     0
100
AcDbLine
 10
236.5169607235
 20
125.2209387953
 30
0.0
 11
236.4070710032
 21
122.4240586465
 31
0.0
  0
LINE
  5
119
330
1F
100
AcDbEntity
  8
0
  6
HIDDEN
 62
     7
370
     0
100
AcDbLine
 10
236.5248504504
 20
125.4217457552
 30
0.0
 11
236.5169607235
 21
125.2209387953
 31
0.0
  0
LINE
  5
11A
330
1F
100
AcDbEntity
  8
0
  6
HIDDEN
 62
     7
370
     0
100
AcDbLine
 10
231.1830229196
 20
125.4305097823
 30
0.0
 11
231.0731331993
 21
122.6336296336
 31
0.0
  0
LINE
  5
11B
330
1F
100
AcDbEntity
  8
0
  6
HIDDEN
 62
     7
370
     0
100
AcDbLine
 10
231.1909126465
 20
125.6313167423
 30
0.0
 11
231.1830229196
 21
125.4305097823
 31
0.0
  0
LINE
  5
11C
330
1F
100
AcDbEntity
  8
0
  6
HIDDEN
 62
     7
370
     0
100
AcDbLine
 10
236.657227484
 20
124.6659659785
 30
0.0
 11
236.5799052769
 21
122.6979843916
 31
0.0
  0
LINE
  5
11D
330
1F
100
AcDbEntity
  8
0
  6
HIDDEN
 62
     7
370
     0
100
AcDbLine
 10
230.6664084026
 20
125.0174608254
 30
0.0
 11
230.593148589
 21
123.1528740596
 31
0.0
  0
LINE
  5
11E
330
1F
100
AcDbEntity
  8
0
  6
HIDDEN
 62
     7
370
     0
100
AcDbLine
 10
230.6716682205
 20
125.1513321321
 30
0.0
 11
230.6664084026
 21
125.0174608254
 31
0.0
  0
LINE
  5
11F
330
1F
100
AcDbEntity
  8
0
  6
HIDDEN
 62
     7
370
     0
100
AcDbLine
 10
234.6293245497
 20
123.9950638328
 30
0.0
 11
234.6587694116
 21
124.74448561
 31
0.0
  0
LINE
  5
120
330
1F
100
AcDbEntity
  8
0
  6
HIDDEN
 62
     7
370
     0
100
AcDbLine
 10
234.6293245497
 20
123.9950638328
 30
0.0
 11
234.5998796879
 21
123.2456420556
 31
0.0
  0
LINE
  5
121
330
1F
100
AcDbEntity
  8
0
  6
HIDDEN
 62
     7
370
     0
100
AcDbLine
 10
234.6293245497
 20
123.9950638328
 30
0.0
 11
236.6277826222
 21
123.9165442013
 31
0.0
  0
LINE
  5
122
330
1F
100
AcDbEntity
  8
0
  6
HIDDEN
 62
     7
370
     0
100
AcDbLine
 10
234.6587694116
 20
124.74448561
 30
0.0
 11
236.657227484
 21
124.6659659785
 31
0.0
  0
LINE
  5
123
330
1F
100
AcDbEntity
  8
0
  6
HIDDEN
 62
     7
370
     0
100
AcDbLine
 10
234.5998796879
 20
123.2456420556
 30
0.0
 11
236.5983377604
 21
123.1671224241
 31
0.0
  0
LINE
  5
124
330
1F
100
AcDbEntity
  8
0
  6
HIDDEN
 62
     7
370
     0
100
AcDbLine
 10
184.657227484
 20
104.9153873095
 30
0.0
 11
184.657227484
 21
116.9153873095
 31
0.0
  0
LINE
  5
125
330
1F
100
AcDbEntity
  8
0
  6
HIDDEN
 62
     7
370
     0
100
AcDbLine
 10
169.657227484
 20
104.9153873095
 30
0.0
 11
169.657227484
 21
116.9153873095
 31
0.0
  0
LINE
  5
126
330
1F
100
AcDbEntity
  8
0
  6
HIDDEN
 62
     7
370
     0
100
AcDbLine
 10
169.157227484
 20
105.4153873095
 30
0.0
 11
169.157227484
 21
116.4153873095
 31
0.0
  0
LINE
  5
127
330
1F
100
AcDbEntity
  8
0
  6
HIDDEN
 62
     7
370
     0
100
AcDbLine
 10
189.157227484
 20
109.4153873095
 30
0.0
 11
187.157227484
 21
109.4153873095
 31
0.0
  0
LINE
  5
128
330
1F
100
AcDbEntity
  8
0
  6
HIDDEN
 62
     7
370
     0
100
AcDbLine
 10
189.157227484
 20
105.4153873095
 30
0.0
 11
189.157227484
 21
109.4153873095
 31
0.0
  0
LINE
  5
129
330
1F
100
AcDbEntity
  8
0
  6
HIDDEN
 62
     7
370
     0
100
AcDbLine
 10
189.157227484
 20
112.4153873095
 30
0.0
 11
189.157227484
 21
116.4153873095
 31
0.0
  0
LINE
  5
12A
330
1F
100
AcDbEntity
  8
0
  6
HIDDEN
 62
     7
370
     0
100
AcDbLine
 10
187.157227484
 20
112.4153873095
 30
0.0
 11
189.157227484
 21
112.4153873095
 31
0.0
  0
LINE
  5
12B
330
1F
100
AcDbEntity
  8
0
  6
HIDDEN
 62
     7
370
     0
100
AcDbLine
 10
187.157227484
 20
109.4153873095
 30
0.0
 11
187.157227484
 21
112.4153873095
 31
0.0
  0
LINE
  5
12C
330
1F
100
AcDbEntity
  8
0
  6
HIDDEN
 62
     7
370
     0
100
AcDbLine
 10
176.157227484
 20
109.4153873095
 30
0.0
 11
176.157227484
 21
110.9153873095
 31
0.0
  0
LINE
  5
12D
330
1F
100
AcDbEntity
  8
0
  6
HIDDEN
 62
     7
370
     0
100
AcDbLine
 10
176.157227484
 20
110.9153873095
 30
0.0
 11
176.157227484
 21
112.4153873095
 31
0.0
  0
LINE
  5
12E
330
1F
100
AcDbEntity
  8
0
  6
HIDDEN
 62
     7
370
     0
100
AcDbLine
 10
176.157227484
 20
110.9153873095
 30
0.0
 11
169.157227484
 21
110.9153873095
 31
0.0
  0
LINE
  5
12F
330
1F
100
AcDbEntity
  8
0
  6
HIDDEN
 62
     7
370
     0
100
AcDbLine
 10
182.157227484
 20
112.4153873095
 30
0.0
 11
182.157227484
 21
110.9153873095
 31
0.0
  0
LINE
  5
130
330
1F
100
AcDbEntity
  8
0
  6
HIDDEN
 62
     7
370
     0
100
AcDbLine
 10
182.157227484
 20
110.9153873095
 30
0.0
 11
182.157227484
 21
109.4153873095
 31
0.0
  0
LINE
  5
131
330
1F
100
AcDbEntity
  8
0
  6
HIDDEN
 62
     7
370
     0
100
AcDbLine
 10
182.157227484
 20
110.9153873095
 30
0.0
 11
187.157227484
 21
110.9153873095
 31
0.0
  0
LINE
  5
132
330
1F
100
AcDbEntity
  8
0
  6
HIDDEN
 62
     7
370
     0
100
AcDbLine
 10
176.157227484
 20
107.9153873095
 30
0.0
 11
176.157227484
 21
109.4153873095
 31
0.0
  0
LINE
  5
133
330
1F
100
AcDbEntity
  8
0
  6
HIDDEN
 62
     7
370
     0
100
AcDbLine
 10
182.157227484
 20
113.9153873095
 30
0.0
 11
182.157227484
 21
112.4153873095
 31
0.0
  0
LINE
  5
134
330
1F
100
AcDbEntity
  8
0
  6
HIDDEN
 62
     7
370
     0
100
AcDbLine
 10
182.157227484
 20
109.4153873095
 30
0.0
 11
182.157227484
 21
107.9153873095
 31
0.0
  0
LINE
  5
135
330
1F
100
AcDbEntity
  8
0
  6
HIDDEN
 62
     7
370
     0
100
AcDbLine
 10
176.157227484
 20
112.4153873095
 30
0.0
 11
176.157227484
 21
113.9153873095
 31
0.0
  0
LINE
  5
136
330
1F
100
AcDbEntity
  8
0
  6
HIDDEN
 62
     7
370
     0
100
AcDbLine
 10
182.157227484
 20
107.9153873095
 30
0.0
 11
189.157227484
 21
107.9153873095
 31
0.0
  0
LINE
  5
137
330
1F
100
AcDbEntity
  8
0
  6
HIDDEN
 62
     7
370
     0
100
AcDbLine
 10
176.157227484
 20
113.9153873095
 30
0.0
 11
169.157227484
 21
113.9153873095
 31
0.0
  0
LINE
  5
138
330
1F
100
AcDbEntity
  8
0
  6
HIDDEN
 62
     7
370
     0
100
AcDbLine
 10
182.157227484
 20
113.9153873095
 30
0.0
 11
189.157227484
 21
113.9153873095
 31
0.0
  0
LINE
  5
139
330
1F
100
AcDbEntity
  8
0
  6
HIDDEN
 62
     7
370
     0
100
AcDbLine
 10
176.157227484
 20
107.9153873095
 30
0.0
 11
169.157227484
 21
107.9153873095
 31
0.0
  0
LINE
  5
13A
330
1F
100
AcDbEntity
  8
0
  6
HIDDEN
 62
     7
370
     0
100
AcDbLine
 10
106.657227484
 20
71.5107043529
 30
0.0
 11
106.746829108
 21
72.1482530349
 31
0.0
  0
LINE
  5
13B
330
1F
100
AcDbEntity
  8
0
  6
HIDDEN
 62
     7
370
     0
100
AcDbLine
 10
106.746829108
 20
149.6825215842
 30
0.0
 11
106.657227484
 21
150.3200702661
 31
0.0
  0
ARC
  5
13C
330
1F
100
AcDbEntity
  8
0
  6
HIDDEN
 62
     7
370
     0
100
AcDbCircle
 10
105.7602905656
 20
72.2869019851
 30
0.0
 40
0.9962338214386932
100
AcDbArc
 50
352.0
 51
0.0
  0
ARC
  5
13D
330
1F
100
AcDbEntity
  8
0
  6
HIDDEN
 62
     7
370
     0
100
AcDbCircle
 10
105.7602905656
 20
72.2869019851
 30
0.0
 40
0.9962338214386932
100
AcDbArc
 50
0.0
 51
25.7988228126
  0
ARC
  5
13E
330
1F
100
AcDbEntity
  8
0
  6
HIDDEN
 62
     7
370
     0
100
AcDbCircle
 10
105.7602905656
 20
149.543872634
 30
0.0
 40
0.9962338214386822
100
AcDbArc
 50
348.75
 51
8.0
  0
LWPOLYLINE
  5
13F
330
1F
100
AcDbEntity
  8
0
  6
HIDDEN
 62
     7
370
     0
100
AcDbPolyline
 90
        3
 70
   128
 43
0.0
 10
106.7373820335
 20
149.3495170569
 10
106.6806906028
 20
149.1626304557
 10
106.657227484
 20
149.1102991208
  0
LINE
  5
140
330
1F
100
AcDbEntity
  8
0
  6
HIDDEN
 62
     7
370
     0
100
AcDbLine
 10
106.756524387
 20
72.2869019851
 30
0.0
 11
106.756524387
 21
149.543872634
 31
0.0
  0
ARC
  5
141
330
1F
100
AcDbEntity
  8
0
  6
HIDDEN
 62
     7
370
     0
100
AcDbCircle
 10
96.9104331392
 20
91.4153873095
 30
0.0
 40
12.00000000000001
100
AcDbArc
 50
273.4750678888
 51
324.3146652873
  0
ARC
  5
142
330
1F
100
AcDbEntity
  8
0
  6
HIDDEN
 62
     7
370
     0
100
AcDbCircle
 10
96.9104331392
 20
130.4153873095
 30
0.0
 40
12.0
100
AcDbArc
 50
35.6853347127
 51
86.5284337865
  0
LINE
  5
143
330
1F
100
AcDbEntity
  8
0
  6
HIDDEN
 62
     7
370
     0
100
AcDbLine
 10
80.1179534262
 20
79.4153873095
 30
0.0
 11
85.662397858
 21
79.4153873095
 31
0.0
  0
LINE
  5
144
330
1F
100
AcDbEntity
  8
0
  6
HIDDEN
 62
     7
370
     0
100
AcDbLine
 10
85.662397858
 20
142.4153873095
 30
0.0
 11
80.1179534262
 21
142.4153873095
 31
0.0
  0
ARC
  5
145
330
1F
100
AcDbEntity
  8
0
  6
HIDDEN
 62
     7
370
     0
100
AcDbCircle
 10
80.1179534262
 20
80.4153873095
 30
0.0
 40
1.0
100
AcDbArc
 50
210.0
 51
270.0
  0
ARC
  5
146
330
1F
100
AcDbEntity
  8
0
  6
HIDDEN
 62
     7
370
     0
100
AcDbCircle
 10
80.1179534262
 20
141.4153873095
 30
0.0
 40
1.0
100
AcDbArc
 50
90.0
 51
150.0
  0
LINE
  5
147
330
1F
100
AcDbEntity
  8
0
  6
HIDDEN
 62
     7
370
     0
100
AcDbLine
 10
79.2519280224
 20
141.9153873095
 30
0.0
 11
76.6538518111
 21
137.4153873095
 31
0.0
  0
LINE
  5
148
330
1F
100
AcDbEntity
  8
0
  6
HIDDEN
 62
     7
370
     0
100
AcDbLine
 10
76.6538518111
 20
84.4153873095
 30
0.0
 11
79.2519280224
 21
79.9153873095
 31
0.0
  0
ARC
  5
149
330
1F
100
AcDbEntity
  8
0
  6
HIDDEN
 62
     7
370
     0
100
AcDbCircle
 10
117.107227484
 20
86.0403873095
 30
0.0
 40
2.0
100
AcDbArc
 50
234.3409123039
 51
0.0
  0
ARC
  5
14A
330
1F
100
AcDbEntity
  8
0
  6
HIDDEN
 62
     7
370
     0
100
AcDbCircle
 10
117.107227484
 20
135.7903873095
 30
0.0
 40
2.000000000000003
100
AcDbArc
 50
0.0
 51
125.6590876961
  0
LINE
  5
14B
330
1F
100
AcDbEntity
  8
0
  6
HIDDEN
 62
     7
370
     0
100
AcDbLine
 10
106.657227484
 20
84.4153873095
 30
0.0
 11
115.9413051024
 21
84.4153873095
 31
0.0
  0
LINE
  5
14C
330
1F
100
AcDbEntity
  8
0
  6
HIDDEN
 62
     7
370
     0
100
AcDbLine
 10
115.9413051024
 20
137.4153873095
 30
0.0
 11
106.657227484
 21
137.4153873095
 31
0.0
  0
LINE
  5
14D
330
1F
100
AcDbEntity
  8
0
  6
HIDDEN
 62
     7
370
     0
100
AcDbLine
 10
71.857227484
 20
84.4153873095
 30
0.0
 11
76.6538518111
 21
84.4153873095
 31
0.0
  0
LINE
  5
14E
330
1F
100
AcDbEntity
  8
0
  6
HIDDEN
 62
     7
370
     0
100
AcDbLine
 10
76.6538518111
 20
137.4153873095
 30
0.0
 11
66.857227484
 21
137.4153873095
 31
0.0
  0
LINE
  5
14F
330
1F
100
AcDbEntity
  8
0
  6
HIDDEN
 62
     7
370
     0
100
AcDbLine
 10
110.657227484
 20
156.592448947
 30
0.0
 11
110.657227484
 21
152.8928010882
 31
0.0
  0
LINE
  5
150
330
1F
100
AcDbEntity
  8
0
  6
HIDDEN
 62
     7
370
     0
100
AcDbLine
 10
120.657227484
 20
152.8928010882
 30
0.0
 11
120.657227484
 21
156.5869406887
 31
0.0
  0
LINE
  5
151
330
1F
100
AcDbEntity
  8
0
  6
HIDDEN
 62
     7
370
     0
100
AcDbLine
 10
130.957227484
 20
97.9153873095
 30
0.0
 11
134.957227484
 21
97.9153873095
 31
0.0
  0
LINE
  5
152
330
1F
100
AcDbEntity
  8
0
  6
HIDDEN
 62
     7
370
     0
100
AcDbLine
 10
134.957227484
 20
123.9153873095
 30
0.0
 11
130.957227484
 21
123.9153873095
 31
0.0
  0
LINE
  5
153
330
1F
100
AcDbEntity
  8
0
  6
HIDDEN
 62
     7
370
     0
100
AcDbLine
 10
119.107227484
 20
98.9153873095
 30
0.0
 11
119.857227484
 21
99.6653873095
 31
0.0
  0
LINE
  5
154
330
1F
100
AcDbEntity
  8
0
  6
HIDDEN
 62
     7
370
     0
100
AcDbLine
 10
119.857227484
 20
122.1653873095
 30
0.0
 11
119.107227484
 21
122.9153873095
 31
0.0
  0
LINE
  5
155
330
1F
100
AcDbEntity
  8
0
  6
HIDDEN
 62
     7
370
     0
100
AcDbLine
 10
119.857227484
 20
99.6653873095
 30
0.0
 11
130.957227484
 21
99.6653873095
 31
0.0
  0
LINE
  5
156
330
1F
100
AcDbEntity
  8
0
  6
HIDDEN
 62
     7
370
     0
100
AcDbLine
 10
130.957227484
 20
122.1653873095
 30
0.0
 11
119.857227484
 21
122.1653873095
 31
0.0
  0
ARC
  5
157
330
1F
100
AcDbEntity
  8
0
  6
HIDDEN
 62
     7
370
     0
100
AcDbCircle
 10
236.157227484
 20
99.8786930615
 30
0.0
 40
0.5
100
AcDbArc
 50
0.0
 51
80.0
  0
ARC
  5
158
330
1F
100
AcDbEntity
  8
0
  6
HIDDEN
 62
     7
370
     0
100
AcDbCircle
 10
236.157227484
 20
121.9520815576
 30
0.0
 40
0.5
100
AcDbArc
 50
280.0
 51
0.0
  0
LINE
  5
159
330
1F
100
AcDbEntity
  8
0
  6
HIDDEN
 62
     7
370
     0
100
AcDbLine
 10
236.2440515729
 20
121.4596776811
 30
0.0
 11
233.157227484
 21
120.9153873095
 31
0.0
  0
LINE
  5
15A
330
1F
100
AcDbEntity
  8
0
  6
HIDDEN
 62
     7
370
     0
100
AcDbLine
 10
233.157227484
 20
100.9153873095
 30
0.0
 11
236.2440515729
 21
100.371096938
 31
0.0
  0
LINE
  5
15B
330
1F
100
AcDbEntity
  8
0
  6
HIDDEN
 62
     7
370
     0
100
AcDbLine
 10
188.657227484
 20
100.6153873095
 30
0.0
 11
194.7624534659
 21
100.6153873095
 31
0.0
  0
LINE
  5
15C
330
1F
100
AcDbEntity
  8
0
  6
HIDDEN
 62
     7
370
     0
100
AcDbLine
 10
185.557227484
 20
100.6153873095
 30
0.0
 11
185.6615391199
 21
100.6153873095
 31
0.0
  0
LINE
  5
15D
330
1F
100
AcDbEntity
  8
0
  6
HIDDEN
 62
     7
370
     0
100
AcDbLine
 10
185.6579315486
 20
121.2153873095
 30
0.0
 11
185.557227484
 21
121.2153873095
 31
0.0
  0
LINE
  5
15E
330
1F
100
AcDbEntity
  8
0
  6
HIDDEN
 62
     7
370
     0
100
AcDbLine
 10
194.7624534659
 20
121.2153873095
 30
0.0
 11
188.6522518924
 21
121.2153873095
 31
0.0
  0
ARC
  5
15F
330
1F
100
AcDbEntity
  8
0
  6
HIDDEN
 62
     7
370
     0
100
AcDbCircle
 10
194.7624534659
 20
101.0153873095
 30
0.0
 40
0.4000000000000074
100
AcDbArc
 50
270.0
 51
290.0
  0
ARC
  5
160
330
1F
100
AcDbEntity
  8
0
  6
HIDDEN
 62
     7
370
     0
100
AcDbCircle
 10
194.7624534659
 20
120.8153873095
 30
0.0
 40
0.4000000000000074
100
AcDbArc
 50
70.0
 51
90.0
  0
ARC
  5
161
330
1F
100
AcDbEntity
  8
0
  6
HIDDEN
 62
     7
370
     0
100
AcDbCircle
 10
185.557227484
 20
101.0153873095
 30
0.0
 40
0.4000000000000057
100
AcDbArc
 50
180.0
 51
270.0
  0
ARC
  5
162
330
1F
100
AcDbEntity
  8
0
  6
HIDDEN
 62
     7
370
     0
100
AcDbCircle
 10
185.557227484
 20
120.8153873095
 30
0.0
 40
0.4000000000000057
100
AcDbArc
 50
90.0
 51
180.0
  0
LINE
  5
163
330
1F
100
AcDbEntity
  8
0
  6
HIDDEN
 62
     7
370
     0
100
AcDbLine
 10
194.8992615233
 20
100.6395102612
 30
0.0
 11
195.657227484
 21
100.9153873095
 31
0.0
  0
LINE
  5
164
330
1F
100
AcDbEntity
  8
0
  6
HIDDEN
 62
     7
370
     0
100
AcDbLine
 10
195.657227484
 20
120.9153873095
 30
0.0
 11
194.8992615233
 21
121.1912643578
 31
0.0
  0
LINE
  5
165
330
1F
100
AcDbEntity
  8
0
  6
HIDDEN
 62
     7
370
     0
100
AcDbLine
 10
111.607227484
 20
160.9153873095
 30
0.0
 11
111.607227484
 21
154.8153873095
 31
0.0
  0
LINE
  5
166
330
1F
100
AcDbEntity
  8
0
  6
HIDDEN
 62
     7
370
     0
100
AcDbLine
 10
195.657227484
 20
100.9153873095
 30
0.0
 11
233.157227484
 21
100.9153873095
 31
0.0
  0
LINE
  5
167
330
1F
100
AcDbEntity
  8
0
  6
HIDDEN
 62
     7
370
     0
100
AcDbLine
 10
233.157227484
 20
120.9153873095
 30
0.0
 11
195.657227484
 21
120.9153873095
 31
0.0
  0
LINE
  5
168
330
1F
100
AcDbEntity
  8
0
  6
HIDDEN
 62
     7
370
     0
100
AcDbLine
 10
98.0899401001
 20
73.3371077389
 30
0.0
 11
97.6572308136
 21
73.8153324563
 31
0.0
  0
LINE
  5
169
330
1F
100
AcDbEntity
  8
0
  6
HIDDEN
 62
     7
370
     0
100
AcDbLine
 10
85.6572279421
 20
74.462293813
 30
0.0
 11
85.1766006369
 21
73.9840691022
 31
0.0
  0
LINE
  5
16A
330
1F
100
AcDbEntity
  8
0
  6
HIDDEN
 62
     7
370
     0
100
AcDbLine
 10
85.1764822954
 20
147.8466996008
 30
0.0
 11
85.6572277594
 21
147.3684199289
 31
0.0
  0
LINE
  5
16B
330
1F
100
AcDbEntity
  8
0
  6
HIDDEN
 62
     7
370
     0
100
AcDbLine
 10
97.6572274862
 20
148.0153923162
 30
0.0
 11
98.0900491559
 21
148.4936719891
 31
0.0
  0
LINE
  5
16C
330
1F
100
AcDbEntity
  8
0
  6
HIDDEN
 62
     7
370
     0
100
AcDbLine
 10
97.657227484
 20
73.7152036137
 30
0.0
 11
97.657227484
 21
79.4413224156
 31
0.0
  0
LINE
  5
16D
330
1F
100
AcDbEntity
  8
0
  6
HIDDEN
 62
     7
370
     0
100
AcDbLine
 10
85.657227484
 20
79.4163715089
 30
0.0
 11
85.657227484
 21
74.4623322275
 31
0.0
  0
LINE
  5
16E
330
1F
100
AcDbEntity
  8
0
  6
HIDDEN
 62
     7
370
     0
100
AcDbLine
 10
97.657227484
 20
142.3894522035
 30
0.0
 11
97.657227484
 21
148.1153961423
 31
0.0
  0
LINE
  5
16F
330
1F
100
AcDbEntity
  8
0
  6
HIDDEN
 62
     7
370
     0
100
AcDbLine
 10
85.657227484
 20
147.3684094296
 30
0.0
 11
85.657227484
 21
142.4144031102
 31
0.0
  0
LINE
  5
170
330
1F
100
AcDbEntity
  8
0
  6
HIDDEN
 62
     7
370
     0
100
AcDbLine
 10
134.957227484
 20
104.9153873095
 30
0.0
 11
164.7567971745
 21
104.9153873095
 31
0.0
  0
LINE
  5
171
330
1F
100
AcDbEntity
  8
0
  6
HIDDEN
 62
     7
370
     0
100
AcDbLine
 10
164.7567971745
 20
116.9153873095
 30
0.0
 11
134.957227484
 21
116.9153873095
 31
0.0
  0
LINE
  5
172
330
1F
100
AcDbEntity
  8
0
  6
HIDDEN
 62
     7
370
     0
100
AcDbLine
 10
185.157227484
 20
116.9153873095
 30
0.0
 11
184.657227484
 21
116.4153873095
 31
0.0
  0
LINE
  5
173
330
1F
100
AcDbEntity
  8
0
  6
HIDDEN
 62
     7
370
     0
100
AcDbLine
 10
184.657227484
 20
105.4153873095
 30
0.0
 11
185.157227484
 21
104.9153873095
 31
0.0
  0
LINE
  5
174
330
1F
100
AcDbEntity
  8
0
  6
HIDDEN
 62
     7
370
     0
100
AcDbLine
 10
164.7567971745
 20
104.9153873095
 30
0.0
 11
165.057227484
 21
105.4153873095
 31
0.0
  0
LINE
  5
175
330
1F
100
AcDbEntity
  8
0
  6
HIDDEN
 62
     7
370
     0
100
AcDbLine
 10
165.057227484
 20
116.4153873095
 30
0.0
 11
164.7567971745
 21
116.9153873095
 31
0.0
  0
LINE
  5
176
330
1F
100
AcDbEntity
  8
0
  6
HIDDEN
 62
     7
370
     0
100
AcDbLine
 10
165.057227484
 20
105.4153873095
 30
0.0
 11
184.657227484
 21
105.4153873095
 31
0.0
  0
LINE
  5
177
330
1F
100
AcDbEntity
  8
0
  6
HIDDEN
 62
     7
370
     0
100
AcDbLine
 10
184.657227484
 20
116.4153873095
 30
0.0
 11
165.057227484
 21
116.4153873095
 31
0.0
  0
LINE
  5
178
330
1F
100
AcDbEntity
  8
0
  6
HIDDEN
 62
     7
370
     0
100
AcDbLine
 10
145.107227484
 20
132.9153873095
 30
0.0
 11
146.107227484
 21
132.3380370403
 31
0.0
  0
LINE
  5
179
330
1F
100
AcDbEntity
  8
0
  6
HIDDEN
 62
     7
370
     0
100
AcDbLine
 10
151.107227484
 20
132.3380370403
 30
0.0
 11
152.107227484
 21
132.9153873095
 31
0.0
  0
LINE
  5
17A
330
1F
100
AcDbEntity
  8
0
  6
HIDDEN
 62
     7
370
     0
100
AcDbLine
 10
152.107227484
 20
88.9153873095
 30
0.0
 11
151.107227484
 21
89.4927375787
 31
0.0
  0
LINE
  5
17B
330
1F
100
AcDbEntity
  8
0
  6
HIDDEN
 62
     7
370
     0
100
AcDbLine
 10
146.107227484
 20
89.4927375787
 30
0.0
 11
145.107227484
 21
88.9153873095
 31
0.0
  0
LINE
  5
17C
330
1F
100
AcDbEntity
  8
0
  6
HIDDEN
 62
     7
370
     0
100
AcDbLine
 10
146.107227484
 20
132.3380370403
 30
0.0
 11
146.107227484
 21
120.9153873095
 31
0.0
  0
LINE
  5
17D
330
1F
100
AcDbEntity
  8
0
  6
HIDDEN
 62
     7
370
     0
100
AcDbLine
 10
151.107227484
 20
120.9153873095
 30
0.0
 11
151.107227484
 21
132.3380370403
 31
0.0
  0
LINE
  5
17E
330
1F
100
AcDbEntity
  8
0
  6
HIDDEN
 62
     7
370
     0
100
AcDbLine
 10
146.107227484
 20
120.9153873095
 30
0.0
 11
148.607227484
 21
119.413235762
 31
0.0
  0
LINE
  5
17F
330
1F
100
AcDbEntity
  8
0
  6
HIDDEN
 62
     7
370
     0
100
AcDbLine
 10
148.607227484
 20
119.413235762
 30
0.0
 11
151.107227484
 21
120.9153873095
 31
0.0
  0
LINE
  5
180
330
1F
100
AcDbEntity
  8
0
  6
HIDDEN
 62
     7
370
     0
100
AcDbLine
 10
151.107227484
 20
100.9153873095
 30
0.0
 11
148.607227484
 21
102.4175388571
 31
0.0
  0
LINE
  5
181
330
1F
100
AcDbEntity
  8
0
  6
HIDDEN
 62
     7
370
     0
100
AcDbLine
 10
148.607227484
 20
102.4175388571
 30
0.0
 11
146.107227484
 21
100.9153873095
 31
0.0
  0
LINE
  5
182
330
1F
100
AcDbEntity
  8
0
  6
HIDDEN
 62
     7
370
     0
100
AcDbLine
 10
151.107227484
 20
89.4927375787
 30
0.0
 11
151.107227484
 21
100.9153873095
 31
0.0
  0
LINE
  5
183
330
1F
100
AcDbEntity
  8
0
  6
HIDDEN
 62
     7
370
     0
100
AcDbLine
 10
146.107227484
 20
100.9153873095
 30
0.0
 11
146.107227484
 21
89.4927375787
 31
0.0
  0
LINE
  5
184
330
1F
100
AcDbEntity
  8
0
  6
HIDDEN
 62
     7
370
     0
100
AcDbLine
 10
185.657227484
 20
124.6800994288
 30
0.0
 11
185.657227484
 21
121.2152859701
 31
0.0
  0
LINE
  5
185
330
1F
100
AcDbEntity
  8
0
  6
HIDDEN
 62
     7
370
     0
100
AcDbLine
 10
188.657227484
 20
121.2146648092
 30
0.0
 11
188.657227484
 21
124.5503479976
 31
0.0
  0
LINE
  5
186
330
1F
100
AcDbEntity
  8
0
  6
HIDDEN
 62
     7
370
     0
100
AcDbLine
 10
185.657227484
 20
100.616013005
 30
0.0
 11
185.657227484
 21
97.1513902884
 31
0.0
  0
LINE
  5
187
330
1F
100
AcDbEntity
  8
0
  6
HIDDEN
 62
     7
370
     0
100
AcDbLine
 10
188.657227484
 20
97.2693400417
 30
0.0
 11
188.657227484
 21
100.6153873095
 31
0.0
  0
LINE
  5
188
330
1F
100
AcDbEntity
  8
0
  6
HIDDEN
 62
     7
370
     0
100
AcDbLine
 10
185.7456214055
 20
94.6641004105
 30
0.0
 11
236.657227484
 21
96.6644228613
 31
0.0
  0
LINE
  5
189
330
1F
100
AcDbEntity
  8
0
  6
HIDDEN
 62
     7
370
     0
100
AcDbLine
 10
236.657227484
 20
99.1663517578
 30
0.0
 11
188.6478946026
 21
97.2800599315
 31
0.0
  0
LINE
  5
18A
330
1F
100
AcDbEntity
  8
0
  6
HIDDEN
 62
     7
370
     0
100
AcDbLine
 10
188.657227484
 20
124.5503479976
 30
0.0
 11
236.657227484
 21
122.6644228613
 31
0.0
  0
LINE
  5
18B
330
1F
100
AcDbEntity
  8
0
  6
HIDDEN
 62
     7
370
     0
100
AcDbLine
 10
236.657227484
 20
125.1663517578
 30
0.0
 11
188.6541727873
 21
127.0523969135
 31
0.0
  0
LINE
  5
18C
330
1F
100
AcDbEntity
  8
0
  6
HIDDEN
 62
     7
370
     0
100
AcDbLine
 10
185.6617232604
 20
127.0387082708
 30
0.0
 11
184.9460499142
 21
125.9471250097
 31
0.0
  0
LINE
  5
18D
330
1F
100
AcDbEntity
  8
0
  6
HIDDEN
 62
     7
370
     0
100
AcDbLine
 10
184.9460499142
 20
125.9471250097
 30
0.0
 11
185.6474718661
 21
124.6686016179
 31
0.0
  0
LINE
  5
18E
330
1F
100
AcDbEntity
  8
0
  6
HIDDEN
 62
     7
370
     0
100
AcDbLine
 10
185.6474718661
 20
97.1621730011
 30
0.0
 11
184.9460499142
 21
95.8836496093
 31
0.0
  0
LINE
  5
18F
330
1F
100
AcDbEntity
  8
0
  6
HIDDEN
 62
     7
370
     0
100
AcDbLine
 10
184.9460499142
 20
95.8836496093
 30
0.0
 11
185.7456214055
 21
94.6641004105
 31
0.0
  0
LINE
  5
190
330
1F
100
AcDbEntity
  8
0
  6
HIDDEN
 62
     7
370
     0
100
AcDbLine
 10
185.657227484
 20
127.0349877385
 30
0.0
 11
185.657227484
 21
126.9153873095
 31
0.0
  0
LINE
  5
191
330
1F
100
AcDbEntity
  8
0
  6
HIDDEN
 62
     7
370
     0
100
AcDbLine
 10
188.657227484
 20
126.9153873095
 30
0.0
 11
188.657227484
 21
127.1339121842
 31
0.0
  0
LINE
  5
192
330
1F
100
AcDbEntity
  8
0
  6
HIDDEN
 62
     7
370
     0
100
AcDbLine
 10
110.657227484
 20
158.4679932058
 30
0.0
 11
110.657227484
 21
156.592448947
 31
0.0
  0
LINE
  5
193
330
1F
100
AcDbEntity
  8
0
  6
HIDDEN
 62
     7
370
     0
100
AcDbLine
 10
120.657227484
 20
156.5869406887
 30
0.0
 11
120.657227484
 21
158.462258773
 31
0.0
  0
LINE
  5
194
330
1F
100
AcDbEntity
  8
0
  6
HIDDEN
 62
     7
370
     0
100
AcDbLine
 10
56.8149410191
 20
141.5731008446
 30
0.0
 11
56.8140111221
 21
141.5721709476
 31
0.0
  0
LINE
  5
195
330
1F
100
AcDbEntity
  8
0
  6
HIDDEN
 62
     7
370
     0
100
AcDbLine
 10
236.4659607268
 20
99.4090297561
 30
0.0
 11
231.1320229229
 21
99.199458769
 31
0.0
  0
LINE
  5
196
330
1F
100
AcDbEntity
  8
0
  6
HIDDEN
 62
     7
370
     0
100
AcDbLine
 10
231.2498023702
 20
96.2017716603
 30
0.0
 11
236.5837401741
 21
96.4113426473
 31
0.0
  0
LINE
  5
197
330
1F
100
AcDbEntity
  8
0
  6
HIDDEN
 62
     7
370
     0
100
AcDbLine
 10
231.1320229229
 20
99.199458769
 30
0.0
 11
230.6520383127
 21
98.680214343
 31
0.0
  0
LINE
  5
198
330
1F
100
AcDbEntity
  8
0
  6
HIDDEN
 62
     7
370
     0
100
AcDbLine
 10
230.7305579442
 20
96.6817562705
 30
0.0
 11
231.2498023702
 21
96.2017716603
 31
0.0
  0
LINE
  5
199
330
1F
100
AcDbEntity
  8
0
  6
HIDDEN
 62
     7
370
     0
100
AcDbLine
 10
236.5837401741
 20
96.4113426473
 30
0.0
 11
236.657227484
 21
96.5510190492
 31
0.0
  0
LINE
  5
19A
330
1F
100
AcDbEntity
  8
0
  6
HIDDEN
 62
     7
370
     0
100
AcDbLine
 10
236.6387950005
 20
99.135104011
 30
0.0
 11
236.4659607268
 21
99.4090297561
 31
0.0
  0
LINE
  5
19B
330
1F
100
AcDbEntity
  8
0
  6
HIDDEN
 62
     7
370
     0
100
AcDbLine
 10
236.5248504504
 20
125.4217457552
 30
0.0
 11
231.1909126465
 21
125.6313167423
 31
0.0
  0
LINE
  5
19C
330
1F
100
AcDbEntity
  8
0
  6
HIDDEN
 62
     7
370
     0
100
AcDbLine
 10
231.0731331993
 20
122.6336296336
 30
0.0
 11
236.4070710032
 21
122.4240586465
 31
0.0
  0
LINE
  5
19D
330
1F
100
AcDbEntity
  8
0
  6
HIDDEN
 62
     7
370
     0
100
AcDbLine
 10
236.4070710032
 20
122.4240586465
 30
0.0
 11
236.5799052769
 21
122.6979843916
 31
0.0
  0
LINE
  5
19E
330
1F
100
AcDbEntity
  8
0
  6
HIDDEN
 62
     7
370
     0
100
AcDbLine
 10
236.657227484
 20
125.1701383996
 30
0.0
 11
236.5248504504
 21
125.4217457552
 31
0.0
  0
LINE
  5
19F
330
1F
100
AcDbEntity
  8
0
  6
HIDDEN
 62
     7
370
     0
100
AcDbLine
 10
231.1909126465
 20
125.6313167423
 30
0.0
 11
230.6716682205
 21
125.1513321321
 31
0.0
  0
LINE
  5
1A0
330
1F
100
AcDbEntity
  8
0
  6
HIDDEN
 62
     7
370
     0
100
AcDbLine
 10
230.593148589
 20
123.1528740596
 30
0.0
 11
231.0731331993
 21
122.6336296336
 31
0.0
  0
LINE
  5
1A1
330
1F
100
AcDbEntity
  8
0
  6
HIDDEN
 62
     7
370
     0
100
AcDbLine
 10
169.657227484
 20
104.9153873095
 30
0.0
 11
184.657227484
 21
104.9153873095
 31
0.0
  0
LINE
  5
1A2
330
1F
100
AcDbEntity
  8
0
  6
HIDDEN
 62
     7
370
     0
100
AcDbLine
 10
184.657227484
 20
116.9153873095
 30
0.0
 11
169.657227484
 21
116.9153873095
 31
0.0
  0
LINE
  5
1A3
330
1F
100
AcDbEntity
  8
0
  6
HIDDEN
 62
     7
370
     0
100
AcDbLine
 10
184.657227484
 20
104.9153873095
 30
0.0
 11
185.157227484
 21
105.4153873095
 31
0.0
  0
LINE
  5
1A4
330
1F
100
AcDbEntity
  8
0
  6
HIDDEN
 62
     7
370
     0
100
AcDbLine
 10
185.157227484
 20
116.4153873095
 30
0.0
 11
184.657227484
 21
116.9153873095
 31
0.0
  0
LINE
  5
1A5
330
1F
100
AcDbEntity
  8
0
  6
HIDDEN
 62
     7
370
     0
100
AcDbLine
 10
169.657227484
 20
116.9153873095
 30
0.0
 11
169.157227484
 21
116.4153873095
 31
0.0
  0
LINE
  5
1A6
330
1F
100
AcDbEntity
  8
0
  6
HIDDEN
 62
     7
370
     0
100
AcDbLine
 10
169.157227484
 20
105.4153873095
 30
0.0
 11
169.657227484
 21
104.9153873095
 31
0.0
  0
LINE
  5
1A7
330
1F
100
AcDbEntity
  8
0
  6
HIDDEN
 62
     7
370
     0
100
AcDbLine
 10
185.157227484
 20
105.4153873095
 30
0.0
 11
189.157227484
 21
105.4153873095
 31
0.0
  0
LINE
  5
1A8
330
1F
100
AcDbEntity
  8
0
  6
HIDDEN
 62
     7
370
     0
100
AcDbLine
 10
189.157227484
 20
116.4153873095
 30
0.0
 11
185.157227484
 21
116.4153873095
 31
0.0
  0
LINE
  5
1A9
330
1F
100
AcDbEntity
  8
0
  6
HIDDEN
 62
     7
370
     0
100
AcDbLine
 10
176.157227484
 20
107.9153873095
 30
0.0
 11
182.157227484
 21
107.9153873095
 31
0.0
  0
LINE
  5
1AA
330
1F
100
AcDbEntity
  8
0
  6
HIDDEN
 62
     7
370
     0
100
AcDbLine
 10
182.157227484
 20
113.9153873095
 30
0.0
 11
176.157227484
 21
113.9153873095
 31
0.0
  0
DIMENSION
  5
1AB
330
1F
100
AcDbEntity
  8
VERMASSUNG
100
AcDbDimension
  2
*D1
 10
49.1678152369
 20
60.9153873095
 30
0.0
 11
49.1678152369
 21
110.9153873095
 31
0.0
 70
   160
  1
HSK A %%c<>
 71
     2
 42
-1.0
  3
SLDDIMSTYLE0
100
AcDbAlignedDimension
 13
107.157227484
 23
160.9153873095
 33
0.0
 14
107.157227484
 24
60.9153873095
 34
0.0
 50
90.0
100
AcDbRotatedDimension
  0
DIMENSION
  5
1B8
330
1F
100
AcDbEntity
  8
VERMASSUNG
100
AcDbDimension
  2
*D2
 10
236.657227484
 20
158.9153873095
 30
0.0
 11
210.907227484
 21
158.9153873095
 31
0.0
 70
   160
 71
     2
 42
-1.0
  3
SLDDIMSTYLE1
100
AcDbAlignedDimension
 13
185.157227484
 23
120.8153873095
 33
0.0
 14
236.657227484
 24
125.5666063262
 34
0.0
100
AcDbRotatedDimension
  0
DIMENSION
  5
1C3
330
1F
100
AcDbEntity
  8
VERMASSUNG
100
AcDbDimension
  2
*D3
 10
243.8626368621
 20
120.9153873095
 30
0.0
 11
243.8626368621
 21
110.9153873095
 31
0.0
 70
   160
  1
%%c<>
 71
     2
 42
-1.0
  3
SLDDIMSTYLE2
100
AcDbAlignedDimension
 13
233.157227484
 23
100.9153873095
 33
0.0
 14
233.157227484
 24
120.9153873095
 34
0.0
 50
90.0
100
AcDbRotatedDimension
  0
DIMENSION
  5
1CF
330
1F
100
AcDbEntity
  8
VERMASSUNG
100
AcDbDimension
  2
*D4
 10
249.8626368621
 20
127.4153873095
 30
0.0
 11
249.8626368621
 21
110.9153873095
 31
0.0
 70
   160
  1
%%c<>
 71
     2
 42
-1.0
  3
SLDDIMSTYLE3
100
AcDbAlignedDimension
 13
236.657227484
 23
94.4153873095
 33
0.0
 14
236.657227484
 24
127.4153873095
 34
0.0
 50
90.0
100
AcDbRotatedDimension
  0
DIMENSION
  5
1DB
330
1F
100
AcDbEntity
  8
VERMASSUNG
100
AcDbDimension
  2
*D5
 10
236.657227484
 20
170.9153873095
 30
0.0
 11
171.657227484
 21
170.9153873095
 31
0.0
 70
   160
 71
     2
 42
-1.0
  3
SLDDIMSTYLE0
100
AcDbAlignedDimension
 13
106.657227484
 23
160.4153873095
 33
0.0
 14
236.657227484
 24
125.5666063262
 34
0.0
100
AcDbRotatedDimension
  0
DIMENSION
  5
1E5
330
1F
100
AcDbEntity
  8
VERMASSUNG
100
AcDbDimension
  2
*D6
 10
236.657227484
 20
164.9153873095
 30
0.0
 11
186.132227484
 21
164.9153873095
 31
0.0
 70
   160
 71
     2
 42
-1.0
  3
SLDDIMSTYLE0
100
AcDbAlignedDimension
 13
135.607227484
 23
158.8841271304
 33
0.0
 14
236.657227484
 24
125.5666063262
 34
0.0
100
AcDbRotatedDimension
  0
DIMENSION
  5
1EF
330
1F
100
AcDbEntity
  8
VERMASSUNG
100
AcDbDimension
  2
*D7
 10
236.657227484
 20
176.9153873095
 30
0.0
 11
146.707227484
 21
176.9153873095
 31
0.0
 70
   160
 71
     2
 42
-1.0
  3
SLDDIMSTYLE0
100
AcDbAlignedDimension
 13
56.757227484
 23
141.4180570521
 33
0.0
 14
236.657227484
 24
125.5666063262
 34
0.0
100
AcDbRotatedDimension
  0
DIMENSION
  5
1F9
330
1F
100
AcDbEntity
  8
VERMASSUNG
100
AcDbDimension
  2
*D8
 10
255.8626368621
 20
88.9153873095
 30
0.0
 11
255.8626368621
 21
110.9153873095
 31
0.0
 70
   160
  1
%%c<>
 71
     2
 42
-1.0
  3
SLDDIMSTYLE0
100
AcDbAlignedDimension
 13
157.607227484
 23
132.9153873095
 33
0.0
 14
157.607227484
 24
88.9153873095
 34
0.0
 50
90.0
100
AcDbRotatedDimension
  0
LINE
  5
204
330
1F
100
AcDbEntity
  8
VERMASSUNG
  6
CENTERX2
370
     0
100
AcDbLine
 10
52.6488553235
 20
110.9153873095
 30
0.0
 11
238.657227484
 21
110.9153873095
 31
0.0
  0
OLE2FRAME
  5
205
330
1F
100
AcDbEntity
  8
0
100
AcDbOle2Frame
 70
     2
  3
Bitmap Image
 10
13.8511154363
 20
38.264191557
 30
0.0
 11
51.6290888628
 21
31.9806341108
 31
0.0
 71
     2
 72
     0
 73
     1
 90
    12928
310
80552BED0767C5B32B40DDAF6807D121434000000000000000006FFBDDFB85D0
310
4940DDAF6807D121434000000000000000006FFBDDFB85D04940416F4BD60AFB
310
3F4000000000000000002BED0767C5B32B40416F4BD60AFB3F40000000000000
310
0000000000000100000000010000010000000100000000000100000000320000
310
D0CF11E0A1B11AE1000000000000000000000000000000003E000300FEFF0900
310
0600000000000000000000000100000001000000000000000010000002000000
310
01000000FEFFFFFF0000000000000000FFFFFFFFFFFFFFFFFFFFFFFFFFFFFFFF
310
FFFFFFFFFFFFFFFFFFFFFFFFFFFFFFFFFFFFFFFFFFFFFFFFFFFFFFFFFFFFFFFF
310
FFFFFFFFFFFFFFFFFFFFFFFFFFFFFFFFFFFFFFFFFFFFFFFFFFFFFFFFFFFFFFFF
310
FFFFFFFFFFFFFFFFFFFFFFFFFFFFFFFFFFFFFFFFFFFFFFFFFFFFFFFFFFFFFFFF
310
FFFFFFFFFFFFFFFFFFFFFFFFFFFFFFFFFFFFFFFFFFFFFFFFFFFFFFFFFFFFFFFF
310
FFFFFFFFFFFFFFFFFFFFFFFFFFFFFFFFFFFFFFFFFFFFFFFFFFFFFFFFFFFFFFFF
310
FFFFFFFFFFFFFFFFFFFFFFFFFFFFFFFFFFFFFFFFFFFFFFFFFFFFFFFFFFFFFFFF
310
FFFFFFFFFFFFFFFFFFFFFFFFFFFFFFFFFFFFFFFFFFFFFFFFFFFFFFFFFFFFFFFF
310
FFFFFFFFFFFFFFFFFFFFFFFFFFFFFFFFFFFFFFFFFFFFFFFFFFFFFFFFFFFFFFFF
310
FFFFFFFFFFFFFFFFFFFFFFFFFFFFFFFFFFFFFFFFFFFFFFFFFFFFFFFFFFFFFFFF
310
FFFFFFFFFFFFFFFFFFFFFFFFFFFFFFFFFFFFFFFFFFFFFFFFFFFFFFFFFFFFFFFF
310
FFFFFFFFFFFFFFFFFFFFFFFFFFFFFFFFFFFFFFFFFFFFFFFFFFFFFFFFFFFFFFFF
310
FFFFFFFFFFFFFFFFFFFFFFFFFFFFFFFFFFFFFFFFFFFFFFFFFFFFFFFFFFFFFFFF
310
FFFFFFFFFFFFFFFFFFFFFFFFFFFFFFFFFFFFFFFFFFFFFFFFFFFFFFFFFFFFFFFF
310
FDFFFFFFFEFFFFFFFEFFFFFFFEFFFFFF05000000060000000700000008000000
310
090000000A0000000B0000000C0000000D0000000E0000000F00000010000000
310
11000000120000001300000014000000150000001600000017000000FEFFFFFF
310
FFFFFFFFFFFFFFFFFFFFFFFFFFFFFFFFFFFFFFFFFFFFFFFFFFFFFFFFFFFFFFFF
310
FFFFFFFFFFFFFFFFFFFFFFFFFFFFFFFFFFFFFFFFFFFFFFFFFFFFFFFFFFFFFFFF
310
FFFFFFFFFFFFFFFFFFFFFFFFFFFFFFFFFFFFFFFFFFFFFFFFFFFFFFFFFFFFFFFF
310
FFFFFFFFFFFFFFFFFFFFFFFFFFFFFFFFFFFFFFFFFFFFFFFFFFFFFFFFFFFFFFFF
310
FFFFFFFFFFFFFFFFFFFFFFFFFFFFFFFFFFFFFFFFFFFFFFFFFFFFFFFFFFFFFFFF
310
FFFFFFFFFFFFFFFFFFFFFFFFFFFFFFFFFFFFFFFFFFFFFFFFFFFFFFFFFFFFFFFF
310
FFFFFFFFFFFFFFFFFFFFFFFFFFFFFFFFFFFFFFFFFFFFFFFFFFFFFFFFFFFFFFFF
310
FFFFFFFFFFFFFFFFFFFFFFFFFFFFFFFFFFFFFFFFFFFFFFFFFFFFFFFFFFFFFFFF
310
FFFFFFFFFFFFFFFFFFFFFFFFFFFFFFFFFFFFFFFFFFFFFFFFFFFFFFFFFFFFFFFF
310
FFFFFFFFFFFFFFFFFFFFFFFFFFFFFFFFFFFFFFFFFFFFFFFFFFFFFFFFFFFFFFFF
310
FFFFFFFFFFFFFFFFFFFFFFFFFFFFFFFFFFFFFFFFFFFFFFFFFFFFFFFFFFFFFFFF
310
FFFFFFFFFFFFFFFFFFFFFFFFFFFFFFFFFFFFFFFFFFFFFFFFFFFFFFFFFFFFFFFF
310
FFFFFFFFFFFFFFFFFFFFFFFFFFFFFFFFFFFFFFFFFFFFFFFFFFFFFFFFFFFFFFFF
310
52006F006F007400200045006E00740072007900000000000000000000000000
310
0000000000000000000000000000000000000000000000000000000000000000
310
16000500FFFFFFFFFFFFFFFF020000000A00030000000000C000000000000046
310
000000000000000000000000604ECFF09C08CC0103000000C000000000000000
310
01004F006C006500000000000000000000000000000000000000000000000000
310
0000000000000000000000000000000000000000000000000000000000000000
310
0A000200FFFFFFFFFFFFFFFFFFFFFFFF00000000000000000000000000000000
310
0000000000000000000000000000000000000000000000001400000000000000
310
010043006F006D0070004F0062006A0000000000000000000000000000000000
310
0000000000000000000000000000000000000000000000000000000000000000
310
120002010100000003000000FFFFFFFF00000000000000000000000000000000
310
0000000000000000000000000000000000000000010000004D00000000000000
310
01004F006C006500310030004E00610074006900760065000000000000000000
310
0000000000000000000000000000000000000000000000000000000000000000
310
1A000200FFFFFFFFFFFFFFFFFFFFFFFF00000000000000000000000000000000
310
0000000000000000000000000000000000000000040000002426000000000000
310
FEFFFFFF02000000FEFFFFFFFFFFFFFFFFFFFFFFFFFFFFFFFFFFFFFFFFFFFFFF
310
FFFFFFFFFFFFFFFFFFFFFFFFFFFFFFFFFFFFFFFFFFFFFFFFFFFFFFFFFFFFFFFF
310
FFFFFFFFFFFFFFFFFFFFFFFFFFFFFFFFFFFFFFFFFFFFFFFFFFFFFFFFFFFFFFFF
310
FFFFFFFFFFFFFFFFFFFFFFFFFFFFFFFFFFFFFFFFFFFFFFFFFFFFFFFFFFFFFFFF
310
FFFFFFFFFFFFFFFFFFFFFFFFFFFFFFFFFFFFFFFFFFFFFFFFFFFFFFFFFFFFFFFF
310
FFFFFFFFFFFFFFFFFFFFFFFFFFFFFFFFFFFFFFFFFFFFFFFFFFFFFFFFFFFFFFFF
310
FFFFFFFFFFFFFFFFFFFFFFFFFFFFFFFFFFFFFFFFFFFFFFFFFFFFFFFFFFFFFFFF
310
FFFFFFFFFFFFFFFFFFFFFFFFFFFFFFFFFFFFFFFFFFFFFFFFFFFFFFFFFFFFFFFF
310
FFFFFFFFFFFFFFFFFFFFFFFFFFFFFFFFFFFFFFFFFFFFFFFFFFFFFFFFFFFFFFFF
310
FFFFFFFFFFFFFFFFFFFFFFFFFFFFFFFFFFFFFFFFFFFFFFFFFFFFFFFFFFFFFFFF
310
FFFFFFFFFFFFFFFFFFFFFFFFFFFFFFFFFFFFFFFFFFFFFFFFFFFFFFFFFFFFFFFF
310
FFFFFFFFFFFFFFFFFFFFFFFFFFFFFFFFFFFFFFFFFFFFFFFFFFFFFFFFFFFFFFFF
310
FFFFFFFFFFFFFFFFFFFFFFFFFFFFFFFFFFFFFFFFFFFFFFFFFFFFFFFFFFFFFFFF
310
FFFFFFFFFFFFFFFFFFFFFFFFFFFFFFFFFFFFFFFFFFFFFFFFFFFFFFFFFFFFFFFF
310
FFFFFFFFFFFFFFFFFFFFFFFFFFFFFFFFFFFFFFFFFFFFFFFFFFFFFFFFFFFFFFFF
310
FFFFFFFFFFFFFFFFFFFFFFFFFFFFFFFFFFFFFFFFFFFFFFFFFFFFFFFFFFFFFFFF
310
010000020000000000000000000000000000000061006D007000000000000000
310
0000000000000000000000000000000000000000000000000000000000000000
310
0100FEFF030A0000FFFFFFFF0A00030000000000C00000000000004607000000
310
5042727573680007000000504272757368000700000050427275736800F439B2
310
71000000000000000000000000004C0069007300740073005F005F005A004C00
310
4200000000000000000000000000000000000000000000000000000000000000
310
24000200FFFFFFFFFFFFFFFFFFFFFFFF00000000000000000000000000000000
310
000000000000000000000000000000000000000070000000A2AB030000000000
310
4F006C0065004900740065006D00730000000000000000000000000000000000
310
0000000000000000000000000000000000000000000000000000000000000000
310
12000201180000001B000000FFFFFFFF00000000000000000000000000000000
310
00000000000000000000000000000000000000007E0000000400000000000000
310
43004D0067007200000000000000000000000000000000000000000000000000
310
0000000000000000000000000000000000000000000000000000000000000000
310
0A000201FFFFFFFFFFFFFFFFFFFFFFFF00000000000000000000000000000000
310
00000000000000000000000000000000000000007A010000DF1A000000000000
310
20260000424D0E260000000000003E00000028000000B40200006E0000000100
310
01000000000000000000130B0000130B00000200000002000000000000FFFFFF
310
FFFFFFFFFFFFFFFFFFFFFFFFFFFFFFFFFFFFFFFFFFFFFFFFFFFFFFFFFFFFFFFF
310
FFFFFFFFFFFFFFFFFFFFFFFFFFFFFFFFFFFFFFFFFFFFFFFFFFFFFFFFFFFFFFFF
310
FFFFFFFFFFFFFFFFFFFFFFFFFFFFFFFFFFFFFFFFFFFFFFFFF000FFFFFFFFFFFF
310
FFFFFFFFFFFFFFFFFFFFFFFFFFFFFFFFFFFFFFFFFFFFFFFFFFFFFFFFFFFFFFFF
310
FFFFFFFFFFFFFFFFFFFFFFFFFFFFFFFFFFFFFFFFFFFFFFFFFFFFFFFFFFFFFFFF
310
FFFFFFFFFFFFFFFFFFFFFFFFFFFFFFFFF000FFFFFFFFFFFFFFFFFFFFFFFFFFFF
310
FFFFFFFFFFFFFFFFFFFFFFFFFFFFFFFFFFFFFFFFFFFFFFFFFFFFFFFFFFFFFFFF
310
FFFFFFFFFFFFFFFFFFFFFFFFFFFFFFFFFFFFFFFFFFFFFFFFFFFFFFFFFFFFFFFF
310
FFFFFFFFFFFFFFFFF000FFFFFFFFFFFFFFFFFFFFFFFFFFFFFFFFFFFFFFFFFFFF
310
FFFFFFFFFFFFFFFFFFFFFFFFFFFFFFFFFFFFFFFFFFFFFFFFFFFFFFFFFFFFFFFF
310
FFFFFFFFFFFFFFFFFFFFFFFFFFFFFFFFFFFFFFFFFFFFFFFFFFFFFFFFFFFFFFFF
310
F000FFFFFFFFFFFFFFFFFFFFFFFFFFFFFFFFFFFFFFFFFFFFFFFFFFFFFFFFFFFF
310
FFFFFFFFFFFFFFFFFFFFFFFFFFFFFFFFFFFFFFFFFFFFFFFFFFFFFFFFFFFFFFFF
310
FFFFFFFFFFFFFFFFFFFFFFFFFFFFFFFFFFFFFFFFFFFFFFFFF000FFFFFFFFFFFF
310
FFFFFFFFFFFFFFFFFFFFFFFFFFFFFFFFFFFFFFFFFFFFFFFFFFFFFFFFFFFFFFFF
310
FFFFFFFFFFFFFFFFFFFFFFFFFFFFFFFFFFFFFFFFFFFFFFFFFFFFFFFFFFFFFFFF
310
FFFFFFFFFFFFFFFFFFFFFFFFFFFFFFFFF000FFFFFFFFFFFFFFFFFFFFFFFFFFFF
310
FFFFFFFFFFFFFFFFFFFFFFFFFFFFFFFFFFFFFFFFFFFFFFFFFFFFFFFFFFFFFFFF
310
FFFFFFFFFFFFFFFFFFFFFFFFFFFFFFFFFFFFFFFFFFFFFFFFFFFFFFFFFFFFFFFF
310
FFFFFFFFFFFFFFFFF000FFFFFFFFFFFFFFFFFFFFFFFFFFFFFFFFFFFFFFFFFFFF
310
FFFFFFFFFFFFFFFFFFFFFFFFFFFFFFFFFFFFFFFFFFFFFFFFFFFFFFFFFFFFFFFF
310
FFFFFFFFFFFFFFFFFFFFFFFFFFFFFFFFFFFFFFFFFFFFFFFFFFFFFFFFFFFFFFFF
310
F000FFFFFFFFFFFFFFFFFFFFFFFFFFFFFFFFFFFFFFFFFFFFFFFFFFFFFFFFFFFF
310
FFFFFFFFFFFFFFFFFFFFFFFFFFFFFFFFFFFFFFFFFFFFFFFFFFFFFFFFFFFFFFFF
310
FFFFFFFFFFFFFFFFFFFFFFFFFFFFFFFFFFFFFFFFFFFFFFFFF000FFFFFFFFFFFF
310
FFFFFFFFFFFFFFFFFFFFFFFFFFFFFFFFFFFFFFFFFFFFFFFFFFFFFFFFFFFFFFFF
310
FFFFFFFFFFFFFFFFFFFFFFFFFFFFFFFFFFFFFFFFFFFFFFFFFFFFFFFFFFFFFFFF
310
FFFFFFFFFFFFFFFFFFFFFFFFFFFFFFFFF000FFFFFFFFFFFFFFFFFFFFFFFFFFFF
310
FFFFFFFFFFFFFFFFFFFFFFFFFFFFFFFFFFFFFFFFFFFFFFFFFFFFFFFFFFFFFFFF
310
FFFFFFFFFFFFFFFFFFFFFFFFFFFFFFFFFFFFFFFFFFFFFFFFFFFFFFFFFFFFFFFF
310
FFFFFFFFFFFFFFFFF000FFFFFFFFFFFFFFFFFFFFFFFFFFFFFFFFFFFFFFFFFFFF
310
FFFFFFFFFFFFFFFFFFFFFFFFFFFFFFFFFFFFFFFFFFFFFFFFFFFFFFFFFFFFFFFF
310
FFFFFFFFFFFFFFFFFFFFFFFFFFFFFFFFFFFFFFFFFFFFFFFFFFFFFFFFFFFFFFFF
310
F000FFFFFFFFFFFFFFFFFFFFFFFFFFFFFFFFFFFFFFFFFFFFFFFFFFFFFFFFFFFF
310
FFFFFFFFFFFFFFFFFFFFFFFFFFFFFFFFFFFFFFFFFFFFFFFFFFFFFFFFFFFFFFFF
310
FFFFFFFFFFFFFFFFFFFFFFFFFFFFFFFFFFFFFFFFFFFFFFFFF000FFFFFFFFFFFF
310
FFFFFFFFFFFFFFFFFFFFFFFFFFFFFFFFFFFFFFFFFFFFFFFFFFFFFFFFFFFFFFFF
310
FFFFFFFFFFFFFFFFFFFFFFFFFFFFFFFFFFFFFFFFFFFFFFFFFFFFFFFFFFFFFFFF
310
FFFFFFFFFFFFFFFFFFFFFFFFFFFFFFFFF000FFFFFFFFFFFFFFFFFFFFFFFFFFFF
310
FFFFFFFFFFFFFFFFFFFFFFFFFFFFFFFFFFFFFFFFFFFFFFFFFFFFFFFFFFFFFFFF
310
FFFFFFFFFFFFFFFFFFFFFFFFFFFFFFFFFFFFFFFFFFFFFFFFFFFFFFFFFFFFFFFF
310
FFFFFFFFFFFFFFFFF000FFFFFFFFFFFFFFFFFFFFFFFFFFFFFFFFFFFFFFFFFFFF
310
FFFFFFFFFFFFFFFFFFFFFFFFFFFFFFFFFFFFFFFFFFFFFFFFFFFFFFFFFFFFFFFF
310
FFFFFFFFFFFFFFFFFFFFFFFFFFFFFFFFFFFFFFFFFFFFFFFFFFFFFFFFFFFFFFFF
310
F000FFFFFFFFFFFFFFFFFFFFFFFFFFFFFFFFFFFFFFFFFFFFFFFFFFFFFFFFFFFF
310
FFFFFFFFFFFFFFFFFFFFFFFFFFFFFFFFFFFFFFFFFFFFFFFFFFFFFFFFFFFFFFFF
310
FFFFFFFFFFFFFFFFFFFFFFFFFFFFFFFFFFFFFFFFFFFFFFFFF000FFFFFFFFFFFF
310
FFFFFFFFFFFFFFFFFFFFFFFFFFFFFFFFFFFFFFFFFFFFFFFFFFFFFFFFFFFFFFFF
310
FFFFFFFFFFFFFFFFFFFFFFFFFFFFFFFFFFFFFFFFFFFFFFFFFFFFFFFFFFFFFFFF
310
FFFFFFFFFFFFFFFFFFFFFFFFFFFFFFFFF000FFFFFFFFFFFFFFFFFFFFFFFFFFFF
310
FFFFFFFFFFFFFFFFFFFFFFFFFFFFFFFFFFFFFFFFFFFFFFFFFFFFFFFFFFFFFFFF
310
FFFFFFFFFFFFFFFFFFFFFFFFFFFFFFFFFFFFFFFFFFFFFFFFFFFFFFFFFFFFFFFF
310
FFFFFFFFFFFFFFFFF000FFFFF80003FFFFFFFFFFFFFFFFFFFFFFFFFFFFFFFFFF
310
FFFFF00007FFFFFFFFFF00007FFFFFF800000000000000007FFFFFFFFFFFFFFF
310
FFFFFFFC001FFFFFFFFFFFFFFC001FFFFFFFFFFFFFFFFFFFFFFFFFFE0007FFFF
310
F000FFFF8000007FFFFFFFF8000FFFFFC0007FFFFF80007FFFFF0000007FFFFF
310
FFF8000007FFFFF800000000000000007FFFFFF0001FFFFFFFFFFFC00001FFFF
310
FFFFFFFFC00001FFFFFFFF000000000003FFFFE000007FFFF000FFFE0000000F
310
FFFFFFF0000FFFFF80007FFFFF80007FFFFC0000001FFFFFFFC0000001FFFFF8
310
00000000000000007FFFFFF0001FFFFFFFFFFE0000003FFFFFFFFFFE0000003F
310
FFFFFF000000000003FFFF0000000FFFF000FFF800000003FFFFFFF00007FFFF
310
80007FFFFF80007FFFF000000007FFFFFF000000003FFFF80000000000000000
310
7FFFFFF0001FFFFFFFFFF80000000FFFFFFFFFF80000000FFFFFFF0000000000
310
03FFFC00000003FFF000FFE000000000FFFFFFF00007FFFF80003FFFFF80007F
310
FFC000000001FFFFFC000000001FFFF800000000000000007FFFFFF0001FFFFF
310
FFFFE000000003FFFFFFFFE000000003FFFFFF000000000003FFF000000000FF
310
F000FF80000000007FFFFFF00007FFFF80003FFFFF80007FFF8000000000FFFF
310
F80000000007FFF800000000000000007FFFFFF0001FFFFFFFFFC000000001FF
310
FFFFFFC000000001FFFFFF000000000003FFC0000000007FF000FF0000000000
310
3FFFFFE00007FFFF00003FFFFF80007FFE00000000003FFFF00000000003FFF8
310
00000000000000007FFFFFF0001FFFFFFFFF8000000000FFFFFFFF8000000000
310
FFFFFF000000000003FF80000000003FF000FE00000000001FFFFFE00003FFFF
310
00003FFFFF80007FFC00000000001FFFE00000000001FFF8000001FFFE000000
310
7FFFFFF0001FFFFFFFFE00000000003FFFFFFE00000000003FFFFF0000000000
310
03FF00000000001FF000FC00000000000FFFFFE00003FFFF00001FFFFF80007F
310
F800000000001FFFC00000000000FFF8000001FFFE0000007FFFFFF0001FFFFF
310
FFFC00000000001FFFFFFC00000000001FFFFF000000000003FE00000000000F
310
F000F8000000000007FFFFE00003FFFF00001FFFFF80007FF800000000000FFF
310
800000000000FFF8000001FFFE0000007FFFFFF0001FFFFFFFF800000000000F
310
FFFFF800000000000FFFFF000000000003FC000000000007F000F80000000000
310
03FFFFC00003FFFE00001FFFFF80007FF0000000000007FF0000000000007FF8
310
000001FFFE0000007FFFFFF0001FFFFFFFF0000000000007FFFFF00000000000
310
07FFFF000000000003F8000000000003F000F0000000000003FFFFC00001FFFE
310
00001FFFFF80007FE0000000000007FE0000000000003FF8000001FFFE000000
310
7FFFFFF0001FFFFFFFF0000000000007FFFFF0000000000007FFFF0000000000
310
03F800001F800003F000E00001FFF00001FFFFC00001FFFE00000FFFFF80007F
310
E00001FFE00003FE00001FFF00003FF8000001FFFE0000007FFFFFF0001FFFFF
310
FFE000003E000003FFFFE000003E000003FFFF000000000003F00001FFF80001
310
F000E00007FFFC0001FFFFC00001FFFE00000FFFFF80007FC0000FFFFC0003FC
310
0000FFFFC0001FF8000001FFFE0000007FFFFFF0001FFFFFFFC00003FFE00001
310
FFFFC00003FFE00001FFFF0001FFFFFFFFF00007FFFE0001F000E0000FFFFF00
310
00FFFF800001FFFC00000FFFFF80007FC0001FFFFE0001FC0001FFFFE0001FF8
310
000001FFFE0000007FFFFFF0001FFFFFFF80000FFFF80000FFFF80000FFFF800
310
00FFFF0003FFFFFFFFE0000FFFFF8000F000C0003FFFFF8000FFFF800000FFFC
310
000007FFFF80007F80003FFFFF0001FC0003FFFFF0001FF8000001FFFE000000
310
7FFFFFF0001FFFFFFF80003FFFFE0000FFFF80003FFFFE0000FFFF0003FFFFFF
310
FFE0003FFFFF8000F000C0003FFFFF8000FFFF800000FFFC000007FFFF80007F
310
80007FFFFF8001F80007FFFFF8000FF8000001FFFE0000007FFFFFF0001FFFFF
310
FF00007FFFFF00007FFF00007FFFFF00007FFF0003FFFFFFFFE0003FFFFFC000
310
F000C0007FFFFFC000FFFF000000FFFC000007FFFF80007F8000FFFFFF8000F8
310
000FFFFFF8000FF8000001FFFE0000007FFFFFF0001FFFFFFF0000FFFFFF8000
310
7FFF0000FFFFFF80007FFF0003FFFFFFFFC0007FFFFFC00070008000FFFFFFC0
310
00FFFF000000FFF8000007FFFF80007F8000FFFFFF8000F8000FFFFFF8000FF8
310
000001FFFE0000007FFFFFF0001FFFFFFE0001FFFFFFC0003FFE0001FFFFFFC0
310
003FFF0003FFFFFFFFC0007FFFFFE00070008000FFFFFFC0007FFF0000007FF8
310
000003FFFF80007F0001FFFFFF8000F8000FFFFFF8000FF8000001FFFE000000
310
7FFFFFF0001FFFFFFE0001FFFFFFC0003FFE0001FFFFFFC0003FFF0003FFFFFF
310
FFC000FFFFFFE00070008000FFFFFFC0007FFF0000007FF8000003FFFF80007F
310
0001FFFFFF8000F8001FFFFFF8000FF8000001FFFE0000007FFFFFF0001FFFFF
310
FE0003FFFFFFE0003FFE0003FFFFFFE0003FFF0003FFFFFFFFC000FFFFFFE000
310
70008000FFFFFFC0007FFE0000007FF8000003FFFF80007F0001FFFFFF8000F0
310
001FFFFFF8000FF8000001FFFE0000007FFFFFF0001FFFFFFC0003FFFFFFE000
310
1FFC0003FFFFFFE0001FFF0003FFFFFFFFC000FFFFFFC00070008000FFFFFF80
310
007FFE0000007FF0000003FFFF80007F0001FFFFFF0000F0001FFFFFF8000FF8
310
000001FFFE0000007FFFFFF0001FFFFFFC0007FFFFFFF0001FFC0007FFFFFFF0
310
001FFF0003FFFFFFFFC000FFFFFFC00070008001FFFFFF0000FFFE0000003FF0
310
000001FFFF80007F0001FFFFFF0000F8001FFFFFF0000FF8000001FFFE000000
310
7FFFFFF0001FFFFFFC0007FFFFFFF0001FFC0007FFFFFFF0001FFF0003FFFFFF
310
FFC001FFFFFF80007000FFFFFFFFFE0000FFFE0008003FF0008001FFFF80007F
310
FFFFFFFFFC0000FFFFFFFFFFE0000FF8000001FFFE0000007FFFFFF0001FFFFF
310
F8000FFFFFFFF8000FF8000FFFFFFFF8000FFF0003FFFFFFFFFFFFFFFFFF0000
310
7000FFFFFFFFFC0000FFFC0008003FF0008001FFFF80007FFFFFFFFFF80001FF
310
FFFFFFFF80000FF8000001FFFE0000007FFFFFF0001FFFFFF8000FFFFFFFF800
310
0FF8000FFFFFFFF8000FFF0003FFFFFFFFFFFFFFFFFE0000F000FFFFFFFFE000
310
00FFFC000C003FE000C001FFFF80007FFFFFFFFFC00001FFFFFFFFFE00001FF8
310
000001FFFE0000007FFFFFF0001FFFFFF8000FFFFFFFF8000FF8000FFFFFFFF8
310
000FFF0003FFFFFFFFFFFFFFFFF00000F000FFFFFFFE000001FFFC000C001FE0
310
00C000FFFF80007FFFFFFFFE000001FFFFFFFFE000001FF80FFFFFFFFFFFFFC0
310
7FFFFFF0001FFFFFF8000FFFFFFFF8000FF8000FFFFFFFF8000FFF0003FFFFFF
310
FFFFFFFFFF800000F000FFFFFFC0000001FFFC001C001FE001C000FFFF80007F
310
FFFFFF80000003FFFFFFF80000001FF80FFFFFFFFFFFFFC07FFFFFF0001FFFFF
310
F8001FFFFFFFFC000FF8001FFFFFFFFC000FFF0003FFFFFFFFFFFFFFF0000001
310
F000FFFFF800000001FFF8001C001FE001C000FFFF80007FFFFFF800000003FF
310
FFFF800000003FF80FFFFFFFFFFFFFC07FFFFFF0001FFFFFF8001FFFFFFFFC00
310
0FF8001FFFFFFFFC000FFF0003FFFFFFFFFFFFFE00000001F000FFFFC0000000
310
03FFF8001E001FC001E000FFFF80007FFFFF8000000007FFFFFC000000003FF8
310
0FFFFFFFFFFFFFC07FFFFFF0001FFFFFF8001FFFFFFFFC000FF8001FFFFFFFFC
310
000FFF0003FFFFFFFFFFFFE000000003F000FFFE0000000007FFF8001E000FC0
310
01E0007FFF80007FFFFE0000000007FFFFE0000000007FF80FFFFFFFFFFFFFC0
310
7FFFFFF0001FFFFFF0001FFFFFFFFC0007F0001FFFFFFFFC0007FF0003FFFFFF
310
FFFFFF0000000003F000FFF80000000007FFF8001E000FC003E0007FFF80007F
310
FFF0000000000FFFFF8000000000FFF80FFFFFFFFFFFFFC07FFFFFF0001FFFFF
310
F0001FFFFFFFFC0007F0001FFFFFFFFC0007FF0003FFFFFFFFFFFC0000000007
310
F000FFE0000000000FFFF0003E000FC003E0007FFF80007FFFC0000000001FFF
310
FE0000000001FFF80FFFFFFFFFFFFFC07FFFFFF0001FFFFFF0001FFFFFFFFC00
310
07F0001FFFFFFFFC0007FF0003FFFFFFFFFFF0000000000FF000FFC000000000
310
1FFFF0003F000F8003F0003FFF80007FFF80000000003FFFF80000000003FFF8
310
0FFFFFFFFFFFFFC07FFFFFF0001FFFFFF0001FFFFFFFFC0007F0001FFFFFFFFC
310
0007FF0003FFFFFFFFFFE0000000001FF000FF00000000007FFFF0003F000780
310
03F0003FFF80007FFF00000000007FFFF00000000007FFF80FFFFFFFFFFFFFC0
310
7FFFFFF0001FFFFFF0001FFFFFFFFC0007F0001FFFFFFFFC0007FF0003FFFFFF
310
FFFF80000000007FF000FE0000000000FFFFE0003F00078007F0003FFF80007F
310
FE0000000001FFFFE0000000001FFFF80FFFFFFFFFFFFFC07FFFFFF0001FFFFF
310
F0001FFFFFFFFC0007F0001FFFFFFFFC0007FF0003FFFFFFFFFF0000000000FF
310
F000FC0000000003FFFFE0007F00078007F0003FFF80007FFC0000000007FFFF
310
C0000000007FFFF80FFFFFFFFFFFFFC07FFFFFF0001FFFFFF8001FFFFFFFFC00
310
0FF8001FFFFFFFFC000FFF0003FFFFFFFFFE0000000003FFF000FC000000000F
310
FFFFE0007F80070007F8001FFF80007FF8000000001FFFFF8000000001FFFFF8
310
0FFFFFFFFFFFFFC07FFFFFF0001FFFFFF8001FFFFFFFFC000FF8001FFFFFFFFC
310
000FFF0003FFFFFFFFFC000000000FFFF000F8000000007FFFFFE0007F800700
310
07F8001FFF80007FF000000000FFFFFF800000000FFFFFF80FFFFFFFFFFFFFC0
310
7FFFFFF0001FFFFFF8000FFFFFFFF8000FF8000FFFFFFFF8000FFF0003FFFFFF
310
FFFC000000007FFFF000F800000007FFFFFFC0007F8003000FF8001FFF80007F
310
F000000007FFFFFF000000007FFFFFF80FFFFFFFFFFFFFC07FFFFFF0001FFFFF
310
F8000FFFFFFFF8000FF8000FFFFFFFF8000FFF0003FFFFFFFFF80000000FFFFF
310
F000F0000000FFFFFFFFC000FF8003000FF8001FFF80007FE0000000FFFFFFFF
310
0000000FFFFFFFF8000001FFFE0000007FFFFFF0001FFFFFF8000FFFFFFFF800
310
0FF8000FFFFFFFF8000FFF0003FFFFFFFFF8000000FFFFFFF000F000000FFFFF
310
FFFFC000FFC002000FF8000FFF80007FE000001FFFFFFFFE000001FFFFFFFFF8
310
000001FFFE0000007FFFFFF0001FFFFFF8000FFFFFFFF8000FF8000FFFFFFFF8
310
000FFF0003FFFFFFFFF000001FFFFFFFF000E00000FFFFFFFFFFC000FFC00200
310
0FFC000FFF80007FE00001FFFFFFFFFE00001FFFFFFFFFF8000001FFFE000000
310
7FFFFFF0001FFFFFFC000FFFFFFFF8001FFC000FFFFFFFF8001FFF0003FFFFFF
310
FFF00001FFFFFFFFF000E00007FFFFFFFFFF8000FFC000001FFC000FFF80007F
310
C0000FFFFFFFFFFE0000FFFFFFFFFFF8000001FFFE0000007FFFFFF0001FFFFF
310
FC0007FFFFFFF0001FFC0007FFFFFFF0001FFF0003FFFFFFFFF00007FFFFFFFF
310
F000E0001FFFFFFFFFFF8000FFC000001FFC000FFF80007FC0003FFFFFFFFFFE
310
0001FFFFFFFFFFF8000001FFFE0000007FFFFFF0001FFFFFFC0007FFFFFFF000
310
1FFC0007FFFFFFF0001FFF0003FFFFFFFFF0001FFFFFFFFFF000E0003FFFFF00
310
03FF8001FFE000001FFC0007FF80007FC0007FFFFF0007FC0003FFFFF0003FF8
310
000001FFFE0000007FFFFFF0001FFFFFFC0003FFFFFFE0001FFC0003FFFFFFE0
310
001FFF0003FFFFFFFFF0003FFFFFFFFFF000E0003FFFFF0001FF8001FFE00000
310
1FFE0007FF80007FC0007FFFFE0003FC0007FFFFE0003FF8000001FFFE000000
310
7FFFFFF0001FFFFFFE0003FFFFFFE0003FFE0003FFFFFFE0003FFF0003FFFFFF
310
FFF0003FFFFF8001F000E0003FFFFF0001FF0001FFE000001FFE0007FF80007F
310
C0007FFFFE0003FC0007FFFFE0003FF8000001FFFE0000007FFFFFF0001FFFFF
310
FE0001FFFFFFC0003FFE0001FFFFFFC0003FFF0003FFFFFFFFF0003FFFFF0001
310
F000E0003FFFFF0003FF0001FFE000003FFE0007FF80007FC0007FFFFE0003FC
310
0007FFFFE0003FF8000001FFFE0000007FFFFFF0001FFFFFFF0001FFFFFFC000
310
7FFF0001FFFFFFC0007FFF0003FFFFFFFFF0003FFFFF0001F000E0003FFFFE00
310
03FF0003FFF000003FFE0003FF80007FC0007FFFFC0003FE0007FFFFE0003FF8
310
000001FFFE0000007FFFFFF0001FFFFFFF0000FFFFFF80007FFF0000FFFFFF80
310
007FFF0003FFFFFFFFF0003FFFFF0001F000E0003FFFFE0003FF0003FFF00000
310
3FFF0003FF80007FC0007FFFFC0007FE0007FFFFC0003FF8000001FFFE000000
310
7FFFFFF0001FFFFFFF80007FFFFF0000FFFF80007FFFFF0000FFFF0003FFFFFF
310
FFF0003FFFFF0003F000E0003FFFFC0003FE0003FFF000003FFF0003FF80007F
310
E0003FFFF80007FE0003FFFFC0007FF8000001FFFE0000007FFFFFF0001FFFFF
310
FF80003FFFFE0000FFFF80003FFFFE0000FFFF0003FFFFFFFFF0001FFFFE0003
310
F000F0001FFFF80003FE0003FFF000007FFF0001FF80007FE0003FFFF00007FE
310
0001FFFF80007FF8000001FFFE0000007FFFFFF0001FFFFFFFC0000FFFF80001
310
FFFFC0000FFFF80001FFFF0003FFFFFFFFF0001FFFFC0003F000F0000FFFF000
310
07FE0007FFF800007FFF0001FF80007FE0001FFFE00007FF0000FFFE00007FF8
310
000001FFFE0000007FFFFFF0001FFFFFFFC00003FFE00001FFFFC00003FFE000
310
01FFFF0003FFFFFFFFF8000FFFF80003F000F00003FFC00007FC0007FFF80000
310
7FFF8001FF80007FF00007FF80000FFF00007FF80000FFF8000001FFFE000000
310
7F80000000000001FFE000003E000003FFFFE000003E000003FFFF0003FFFFFF
310
FFF80003FFE00007F000F800000000000FFC0007FFF800007FFF8001FF80007F
310
F000000000000FFF000000000000FFF8000001FFFE0000007F80000000000001
310
FFF0000000000007FFFFF0000000000007FFFF0003FFFFFFFFFC00007E000007
310
F000F800000000000FFC0007FFF80000FFFF8000FF80007FF800000000001FFF
310
800000000001FFF8000001FFFE0000007F80000000000001FFF800000000000F
310
FFFFF800000000000FFFFF0003FFFFFFFFFC00000000000FF000FC0000000000
310
1FFC0007FFFC0000FFFF8000FF80007FF800000000003FFFC00000000001FFF8
310
000001FFFE0000007F80000000000001FFF800000000000FFFFFF80000000000
310
0FFFFF0003FFFFFFFFFE00000000001FF000FE00000000003FF8000FFFFC0000
310
FFFF8000FF80007FFC00000000003FFFC00000000003FFF8000001FFFE000000
310
7F80000000000001FFFC00000000001FFFFFFC00000000001FFFFF0003FFFFFF
310
FFFF00000000001FF000FF00000000003FF8000FFFFC0000FFFFC000FF80007F
310
FE00000000007FFFE00000000007FFF8000001FFFE0000007F80000000000001
310
FFFE00000000003FFFFFFE00000000003FFFFF0003FFFFFFFFFF80000000003F
310
F000FF80000000007FF8000FFFFC0001FFFFC0007F80007FFF0000000000FFFF
310
F0000000000FFFF800000000000000007F80000000000001FFFF8000000000FF
310
FFFFFF8000000000FFFFFF0003FFFFFFFFFFC0000000007FF000FFC000000000
310
FFF8000FFFFE0001FFFFC0007F80007FFF8000000001FFFFF8000000001FFFF8
310
00000000000000007F80000000000001FFFFC000000001FFFFFFFFC000000001
310
FFFFFF0003FFFFFFFFFFE000000000FFF000FFE000000003FFF0001FFFFE0001
310
FFFFC0007F80007FFFC000000007FFFFFE000000003FFFF80000000000000000
310
7F80000000000001FFFFE000000003FFFFFFFFE000000003FFFFFF0003FFFFFF
310
FFFFF000000003FFF000FFF80000000FFFF0001FFFFE0001FFFFE0007F80007F
310
FFF00000000FFFFFFF00000000FFFFF800000000000000007F80000000000001
310
FFFFF80000000FFFFFFFFFF80000000FFFFFFF0003FFFFFFFFFFFC0000000FFF
310
F000FFFE0000003FFFF0001FFFFE0003FFFFE0003F80007FFFFC0000003FFFFF
310
FFC0000003FFFFF800000000000000007F80000000000001FFFFFE0000003FFF
310
FFFFFFFE0000003FFFFFFF0003FFFFFFFFFFFF0000003FFFF000FFFF800000FF
310
FFF0001FFFFF0003FFFFE0003F80007FFFFF000001FFFFFFFFF800001FFFFFF8
310
00000000000000007F80000000000001FFFFFFC00001FFFFFFFFFFFFC00001FF
310
FFFFFF0003FFFFFFFFFFFFC00000FFFFF000FFFFF8000FFFFFFFFFFFFFFFFFFF
310
FFFFFFFFFFFFFFFFFFFFF0001FFFFFFFFFFF0000FFFFFFF80000000000000000
310
7FFFFFFFFFFFFFFFFFFFFFFC001FFFFFFFFFFFFFFC001FFFFFFFFFFFFFFFFFFF
310
FFFFFFFC001FFFFFF000FFFFFFFFFFFFFFFFFFFFFFFFFFFFFFFFFFFFFFFFFFFF
310
FFFFFFFFFFFFFFFFFFFFFFFFFFFFFFFFFFFFFFFFFFFFFFFFFFFFFFFFFFFFFFFF
310
FFFFFFFFFFFFFFFFFFFFFFFFFFFFFFFFFFFFFFFFFFFFFFFFFFFFFFFFFFFFFFFF
310
F000FFFFFFFFFFFFFFFFFFFFFFFFFFFFFFFFFFFFFFFFFFFFFFFFFFFFFFFFFFFF
310
FFFFFFFFFFFFFFFFFFFFFFFFFFFFFFFFFFFFFFFFFFFFFFFFFFFFFFFFFFFFFFFF
310
FFFFFFFFFFFFFFFFFFFFFFFFFFFFFFFFFFFFFFFFFFFFFFFFF000FFFFFFFFFFFF
310
FFFFFFFFFFFFFFFFFFFFFFFFFFFFFFFFFFFFFFFFFFFFFFFFFFFFFFFFFFFFFFFF
310
FFFFFFFFFFFFFFFFFFFFFFFFFFFFFFFFFFFFFFFFFFFFFFFFFFFFFFFFFFFFFFFF
310
FFFFFFFFFFFFFFFFFFFFFFFFFFFFFFFFF000FFFFFFFFFFFFFFFFFFFFFFFFFFFF
310
FFFFFFFFFFFFFFFFFFFFFFFFFFFFFFFFFFFFFFFFFFFFFFFFFFFFFFFFFFFFFFFF
310
FFFFFFFFFFFFFFFFFFFFFFFFFFFFFFFFFFFFFFFFFFFFFFFFFFFFFFFFFFFFFFFF
310
FFFFFFFFFFFFFFFFF000FFFFFFFFFFFFFFFFFFFFFFFFFFFFFFFFFFFFFFFFFFFF
310
FFFFFFFFFFFFFFFFFFFFFFFFFFFFFFFFFFFFFFFFFFFFFFFFFFFFFFFFFFFFFFFF
310
FFFFFFFFFFFFFFFFFFFFFFFFFFFFFFFFFFFFFFFFFFFFFFFFFFFFFFFFFFFFFFFF
310
F000FFFFFFFFFFFFFFFFFFFFFFFFFFFFFFFFFFFFFFFFFFFFFFFFFFFFFFFFFFFF
310
FFFFFFFFFFFFFFFFFFFFFFFFFFFFFFFFFFFFFFFFFFFFFFFFFFFFFFFFFFFFFFFF
310
FFFFFFFFFFFFFFFFFFFFFFFFFFFFFFFFFFFFFFFFFFFFFFFFF000FFFFFFFFFFFF
310
FFFFFFFFFFFFFFFFFFFFFFFFFFFFFFFFFFFFFFFFFFFFFFFFFFFFFFFFFFFFFFFF
310
FFFFFFFFFFFFFFFFFFFFFFFFFFFFFFFFFFFFFFFFFFFFFFFFFFFFFFFFFFFFFFFF
310
FFFFFFFFFFFFFFFFFFFFFFFFFFFFFFFFF000FFFFFFFFFFFFFFFFFFFFFFFFFFFF
310
FFFFFFFFFFFFFFFFFFFFFFFFFFFFFFFFFFFFFFFFFFFFFFFFFFFFFFFFFFFFFFFF
310
FFFFFFFFFFFFFFFFFFFFFFFFFFFFFFFFFFFFFFFFFFFFFFFFFFFFFFFFFFFFFFFF
310
FFFFFFFFFFFFFFFFF000FFFFFFFFFFFFFFFFFFFFFFFFFFFFFFFFFFFFFFFFFFFF
310
FFFFFFFFFFFFFFFFFFFFFFFFFFFFFFFFFFFFFFFFFFFFFFFFFFFFFFFFFFFFFFFF
310
FFFFFFFFFFFFFFFFFFFFFFFFFFFFFFFFFFFFFFFFFFFFFFFFFFFFFFFFFFFFFFFF
310
F000FFFFFFFFFFFFFFFFFFFFFFFFFFFFFFFFFFFFFFFFFFFFFFFFFFFFFFFFFFFF
310
FFFFFFFFFFFFFFFFFFFFFFFFFFFFFFFFFFFFFFFFFFFFFFFFFFFFFFFFFFFFFFFF
310
FFFFFFFFFFFFFFFFFFFFFFFFFFFFFFFFFFFFFFFFFFFFFFFFF000FFFFFFFFFFFF
310
FFFFFFFFFFFFFFFFFFFFFFFFFFFFFFFFFFFFFFFFFFFFFFFFFFFFFFFFFFFFFFFF
310
FFFFFFFFFFFFFFFFFFFFFFFFFFFFFFFFFFFFFFFFFFFFFFFFFFFFFFFFFFFFFFFF
310
FFFFFFFFFFFFFFFFFFFFFFFFFFFFFFFFF000FFFFFFFFFFFFFFFFFFFFFFFFFFFF
310
FFFFFFFFFFFFFFFFFFFFFFFFFFFFFFFFFFFFFFFFFFFFFFFFFFFFFFFFFFFFFFFF
310
FFFFFFFFFFFFFFFFFFFFFFFFFFFFFFFFFFFFFFFFFFFFFFFFFFFFFFFFFFFFFFFF
310
FFFFFFFFFFFFFFFFF000FFFFFFFFFFFFFFFFFFFFFFFFFFFFFFFFFFFFFFFFFFFF
310
FFFFFFFFFFFFFFFFFFFFFFFFFFFFFFFFFFFFFFFFFFFFFFFFFFFFFFFFFFFFFFFF
310
FFFFFFFFFFFFFFFFFFFFFFFFFFFFFFFFFFFFFFFFFFFFFFFFFFFFFFFFFFFFFFFF
310
F000FFFFFFFFFFFFFFFFFFFFFFFFFFFFFFFFFFFFFFFFFFFFFFFFFFFFFFFFFFFF
310
FFFFFFFFFFFFFFFFFFFFFFFFFFFFFFFFFFFFFFFFFFFFFFFFFFFFFFFFFFFFFFFF
310
FFFFFFFFFFFFFFFFFFFFFFFFFFFFFFFFFFFFFFFFFFFFFFFFF000FFFFFFFFFFFF
310
FFFFFFFFFFFFFFFFFFFFFFFFFFFFFFFFFFFFFFFFFFFFFFFFFFFFFFFFFFFFFFFF
310
FFFFFFFFFFFFFFFFFFFFFFFFFFFFFFFFFFFFFFFFFFFFFFFFFFFFFFFFFFFFFFFF
310
FFFFFFFFFFFFFFFFFFFFFFFFFFFFFFFFF000FFFFFFFFFFFFFFFFFFFFFFFFFFFF
310
FFFFFFFFFFFFFFFFFFFFFFFFFFFFFFFFFFFFFFFFFFFFFFFFFFFFFFFFFFFFFFFF
310
FFFFFFFFFFFFFFFFFFFFFFFFFFFFFFFFFFFFFFFFFFFFFFFFFFFFFFFFFFFFFFFF
310
FFFFFFFFFFFFFFFFF000FFFFFFFFFFFFFFFFFFFFFFFFFFFFFFFFFFFFFFFFFFFF
310
FFFFFFFFFFFFFFFFFFFFFFFFFFFFFFFFFFFFFFFFFFFFFFFFFFFFFFFFFFFFFFFF
310
FFFFFFFFFFFFFFFFFFFFFFFFFFFFFFFFFFFFFFFFFFFFFFFFFFFFFFFFFFFFFFFF
310
F000FFFFFFFFFFFFFFFFFFFFFFFFFFFFFFFFFFFFFFFFFFFFFFFFFFFFFFFFFFFF
310
FFFFFFFFFFFFFFFFFFFFFFFFFFFFFFFFFFFFFFFFFFFFFFFFFFFFFFFFFFFFFFFF
310
FFFFFFFFFFFFFFFFFFFFFFFFFFFFFFFFFFFFFFFFFFFFFFFFF000FFFFFFFFFFFF
310
FFFFFFFFFFFFFFFFFFFFFFFFFFFFFFFFFFFFFFFFFFFFFFFFFFFFFFFFFFFFFFFF
310
FFFFFFFFFFFFFFFFFFFFFFFFFFFFFFFFFFFFFFFFFFFFFFFFFFFFFFFFFFFFFFFF
310
FFFFFFFFFFFFFFFFFFFFFFFFFFFFFFFFF000FFFFFFFFFFFFFFFFFFFFFFFFFFFF
310
FFFFFFFFFFFFFFFFFFFFFFFFFFFFFFFFFFFFFFFFFFFFFFFFFFFFFFFFFFFFFFFF
310
FFFFFFFFFFFFFFFFFFFFFFFFFFFFFFFFFFFFFFFFFFFFFFFFFFFFFFFFFFFFFFFF
310
FFFFFFFFFFFFFFFFF000FFFFFFFFFFFFFFFFFFFFFFFFFFFFFFFFFFFFFFFFFFFF
310
FFFFFFFFFFFFFFFFFFFFFFFFFFFFFFFFFFFFFFFFFFFFFFFFFFFFFFFFFFFFFFFF
310
FFFFFFFFFFFFFFFFFFFFFFFFFFFFFFFFFFFFFFFFFFFFFFFFFFFFFFFFFFFFFFFF
310
F000FFFFFFFFFFFFFFFFFFFFFFFFFFFFFFFFFFFFFFFFFFFFFFFFFFFFFFFFFFFF
310
FFFFFFFFFFFFFFFFFFFFFFFFFFFFFFFFFFFFFFFFFFFFFFFFFFFFFFFFFFFFFFFF
310
FFFFFFFFFFFFFFFFFFFFFFFFFFFFFFFFFFFFFFFFFFFFFFFFF000FFFFFFFFFFFF
310
FFFFFFFFFFFFFFFFFFFFFFFFFFFFFFFFFFFFFFFFFFFFFFFFFFFFFFFFFFFFFFFF
310
FFFFFFFFFFFFFFFFFFFFFFFFFFFFFFFFFFFFFFFFFFFFFFFFFFFFFFFFFFFFFFFF
310
FFFFFFFFFFFFFFFFFFFFFFFFFFFFFFFFF0000000000000000000000000000000
310
0000000001000000010000000100000001000000010000000100000001000000
310
0100000001000000000000000100000001000000010000000100000001000000
310
0100000001000000010000000100000001000000010000000100000001000000
310
0100000001000000010000000100000001000000010000000100000001000000
310
0100000001000000010000000100000001000000010000000100000001000000
310
0100000000000000010000000000000001000000010000000100000001000000
310
0100000001000000010000000100000001000000010000000100000001000000
310
0100000001000000010000000100000001000000010000000100000001000000
310
0100000001000000010000000100000001000000010000000000000001000000
310
0000000001000000010000000100000001000000010000000100000001000000
310
0000000001000000000000000100000001000000000000000000000000000000
310
0000000000000000E0040000C002000000000000000000000000000000000000
310
00000000000000009A001B030000000540CD7D7200000000101E2E7200000000
310
0000000000000000000000000000000000000000000000000000000000000000
310
0000000000000000000000000000000000000000000000000000000000000000
  1
OLE
  0
ENDSEC
  0
SECTION
  2
OBJECTS
  0
DICTIONARY
  5
C
330
0
100
AcDbDictionary
281
     1
  3
ACAD_GROUP
350
D
  3
ACAD_LAYOUT
350
1A
  3
ACAD_MLEADERSTYLE
350
207
  3
ACAD_MLINESTYLE
350
17
  3
ACAD_PLOTSETTINGS
350
19
  3
ACAD_PLOTSTYLENAME
350
E
  3
ACAD_TABLESTYLE
350
206
  3
ACAD_VISUALSTYLE
350
2A
  3
AcDbVariableDictionary
350
208
  0
DICTIONARY
  5
D
102
{ACAD_REACTORS
330
C
102
}
330
C
100
AcDbDictionary
281
     1
  0
DICTIONARY
  5
1A
102
{ACAD_REACTORS
330
C
102
}
330
C
100
AcDbDictionary
281
     1
  3
Layout1
350
1E
  3
Layout2
350
26
  3
Model
350
22
  0
DICTIONARY
  5
207
102
{ACAD_REACTORS
330
C
102
}
330
C
100
AcDbDictionary
281
     1
  0
DICTIONARY
  5
17
102
{ACAD_REACTORS
330
C
102
}
330
C
100
AcDbDictionary
281
     1
  3
Standard
350
18
  0
DICTIONARY
  5
19
102
{ACAD_REACTORS
330
C
102
}
330
C
100
AcDbDictionary
281
     1
  0
ACDBDICTIONARYWDFLT
  5
E
102
{ACAD_REACTORS
330
C
102
}
330
C
100
AcDbDictionary
281
     1
  3
Normal
350
F
100
AcDbDictionaryWithDefault
340
F
  0
DICTIONARY
  5
206
102
{ACAD_REACTORS
330
C
102
}
330
C
100
AcDbDictionary
281
     1
  0
DICTIONARY
  5
2A
102
{ACAD_REACTORS
330
C
102
}
330
C
100
AcDbDictionary
281
     1
  3
2dWireframe
350
2F
  3
3D Hidden
350
31
  3
3dWireframe
350
30
  3
Basic
350
32
  3
Brighten
350
36
  3
ColorChange
350
3A
  3
Conceptual
350
34
  3
Dim
350
35
  3
Facepattern
350
39
  3
Flat
350
2B
  3
FlatWithEdges
350
2C
  3
Gouraud
350
2D
  3
GouraudWithEdges
350
2E
  3
Linepattern
350
38
  3
Realistic
350
33
  3
Thicken
350
37
  0
DICTIONARY
  5
208
102
{ACAD_REACTORS
330
C
102
}
330
C
100
AcDbDictionary
281
     1
  3
PSOLHEIGHT
350
20A
  3
PSOLWIDTH
350
209
  0
LAYOUT
  5
1E
102
{ACAD_REACTORS
330
1A
102
}
330
1A
100
AcDbPlotSettings
  1

  2
none_device
  4

  6

 40
0.0
 41
0.0
 42
0.0
 43
0.0
 44
0.0
 45
0.0
 46
0.0
 47
0.0
 48
0.0
 49
0.0
140
0.0
141
0.0
142
1.0
143
1.0
 70
   688
 72
     0
 73
     0
 74
     5
  7

 75
    16
147
1.0
148
0.0
149
0.0
100
AcDbLayout
  1
Layout1
 70
     1
 71
     1
 10
0.0
 20
0.0
 11
420.0
 21
297.0
 12
0.0
 22
0.0
 32
0.0
 14
1.0000000000E+20
 24
1.0000000000E+20
 34
1.0000000000E+20
 15
-1.0000000000E+20
 25
-1.0000000000E+20
 35
-1.0000000000E+20
146
0.0
 13
0.0
 23
0.0
 33
0.0
 16
1.0
 26
0.0
 36
0.0
 17
0.0
 27
1.0
 37
0.0
 76
     0
330
1B
  0
LAYOUT
  5
26
102
{ACAD_REACTORS
330
1A
102
}
330
1A
100
AcDbPlotSettings
  1

  2
none_device
  4

  6

 40
0.0
 41
0.0
 42
0.0
 43
0.0
 44
0.0
 45
0.0
 46
0.0
 47
0.0
 48
0.0
 49
0.0
140
0.0
141
0.0
142
1.0
143
1.0
 70
   688
 72
     0
 73
     0
 74
     5
  7

 75
    16
147
1.0
148
0.0
149
0.0
100
AcDbLayout
  1
Layout2
 70
     1
 71
     2
 10
0.0
 20
0.0
 11
0.0
 21
0.0
 12
0.0
 22
0.0
 32
0.0
 14
0.0
 24
0.0
 34
0.0
 15
0.0
 25
0.0
 35
0.0
146
0.0
 13
0.0
 23
0.0
 33
0.0
 16
1.0
 26
0.0
 36
0.0
 17
0.0
 27
1.0
 37
0.0
 76
     0
330
23
  0
LAYOUT
  5
22
102
{ACAD_REACTORS
330
1A
102
}
330
1A
100
AcDbPlotSettings
  1

  2
none_device
  4

  6

 40
0.0
 41
0.0
 42
0.0
 43
0.0
 44
0.0
 45
0.0
 46
0.0
 47
0.0
 48
0.0
 49
0.0
140
0.0
141
0.0
142
1.0
143
1.0
 70
  1712
 72
     0
 73
     0
 74
     0
  7

 75
     0
147
1.0
148
0.0
149
0.0
100
AcDbLayout
  1
Model
 70
     1
 71
     0
 10
0.0
 20
0.0
 11
297.0
 21
210.0
 12
0.0
 22
0.0
 32
0.0
 14
0.0
 24
0.0
 34
0.0
 15
297.0
 25
210.0
 35
0.0
146
0.0
 13
0.0
 23
0.0
 33
0.0
 16
1.0
 26
0.0
 36
0.0
 17
0.0
 27
1.0
 37
0.0
 76
     0
330
1F
331
29
  0
MLINESTYLE
  5
18
102
{ACAD_REACTORS
330
17
102
}
330
17
100
AcDbMlineStyle
  2
Standard
 70
     0
  3

 62
   256
 51
90.0
 52
90.0
 71
     2
 49
0.5
 62
   256
  6
BYLAYER
 49
-0.5
 62
   256
  6
BYLAYER
  0
ACDBPLACEHOLDER
  5
F
102
{ACAD_REACTORS
330
E
102
}
330
E
  0
VISUALSTYLE
  5
2F
102
{ACAD_REACTORS
330
2A
102
}
330
2A
100
AcDbVisualStyle
  2
2dWireframe
 70
     4
 71
     0
 72
     2
 73
     0
 90
        0
 40
-0.6
 41
-30.0
 62
     5
 63
     7
 74
     1
 91
        4
 64
     7
 65
   257
 75
     1
175
     1
 42
1.0
 92
        0
 66
   257
 43
1.0
 76
     1
 77
     6
 78
     2
 67
     7
 79
     5
170
     0
171
     0
290
     0
174
     0
 93
        1
 44
0.0
173
     0
291
     0
 45
0.0
1001
ACAD
1000
AcDbSavedByObjectVersion
1070
     0
  0
VISUALSTYLE
  5
31
102
{ACAD_REACTORS
330
2A
102
}
330
2A
100
AcDbVisualStyle
  2
3D Hidden
 70
     6
 71
     1
 72
     2
 73
     2
 90
        0
 40
-0.6
 41
-30.0
 62
     5
 63
     7
 74
     2
 91
        2
 64
     7
 65
   257
 75
     2
175
     1
 42
40.0
 92
        0
 66
   257
 43
1.0
 76
     1
 77
     6
 78
     2
 67
     7
 79
     3
170
     0
171
     0
290
     0
174
     0
 93
        1
 44
0.0
173
     0
291
     0
 45
0.0
1001
ACAD
1000
AcDbSavedByObjectVersion
1070
     0
  0
VISUALSTYLE
  5
30
102
{ACAD_REACTORS
330
2A
102
}
330
2A
100
AcDbVisualStyle
  2
3dWireframe
 70
     5
 71
     0
 72
     2
 73
     0
 90
        0
 40
-0.6
 41
-30.0
 62
     5
 63
     7
 74
     1
 91
        4
 64
     7
 65
   257
 75
     1
175
     1
 42
1.0
 92
        0
 66
   257
 43
1.0
 76
     1
 77
     6
 78
     2
 67
     7
 79
     5
170
     0
171
     0
290
     0
174
     0
 93
        1
 44
0.0
173
     0
291
     0
 45
0.0
1001
ACAD
1000
AcDbSavedByObjectVersion
1070
     0
  0
VISUALSTYLE
  5
32
102
{ACAD_REACTORS
330
2A
102
}
330
2A
100
AcDbVisualStyle
  2
Basic
 70
     7
 71
     1
 72
     0
 73
     1
 90
        0
 40
-0.6
 41
-30.0
 62
     5
 63
     7
 74
     0
 91
        4
 64
     7
 65
   257
 75
     1
175
     1
 42
1.0
 92
        8
 66
     7
 43
1.0
 76
     1
 77
     6
 78
     2
 67
     7
 79
     5
170
     0
171
     0
290
     0
174
     0
 93
        1
 44
0.0
173
     0
291
     1
 45
0.0
1001
ACAD
1000
AcDbSavedByObjectVersion
1070
     0
  0
VISUALSTYLE
  5
36
102
{ACAD_REACTORS
330
2A
102
}
330
2A
100
AcDbVisualStyle
  2
Brighten
 70
    12
 71
     2
 72
     2
 73
     0
 90
        0
 40
-0.6
 41
-30.0
 62
     5
 63
     7
 74
     1
 91
        4
 64
     7
 65
   257
 75
     1
175
     1
 42
1.0
 92
        8
 66
     7
 43
1.0
 76
     1
 77
     6
 78
     2
 67
     7
 79
     5
170
     0
171
     0
290
     0
174
     0
 93
        1
 44
50.0
173
     0
291
     1
 45
0.0
1001
ACAD
1000
AcDbSavedByObjectVersion
1070
     0
  0
VISUALSTYLE
  5
3A
102
{ACAD_REACTORS
330
2A
102
}
330
2A
100
AcDbVisualStyle
  2
ColorChange
 70
    16
 71
     2
 72
     2
 73
     3
 90
        0
 40
-0.6
 41
-30.0
 62
     5
 63
     8
 74
     1
 91
        4
 64
     7
 65
   257
 75
     1
175
     1
 42
1.0
 92
        8
 66
     8
 43
1.0
 76
     1
 77
     6
 78
     2
 67
     7
 79
     5
170
     0
171
     0
290
     0
174
     0
 93
        1
 44
0.0
173
     0
291
     1
 45
0.0
1001
ACAD
1000
AcDbSavedByObjectVersion
1070
     0
  0
VISUALSTYLE
  5
34
102
{ACAD_REACTORS
330
2A
102
}
330
2A
100
AcDbVisualStyle
  2
Conceptual
 70
     9
 71
     3
 72
     2
 73
     0
 90
        0
 40
-0.6
 41
-30.0
 62
     5
 63
     7
 74
     2
 91
        2
 64
     7
 65
   257
 75
     1
175
     1
 42
40.0
 92
        8
 66
     7
 43
1.0
 76
     1
 77
     6
 78
     2
 67
     7
 79
     3
170
     0
171
     0
290
     0
174
     0
 93
        1
 44
0.0
173
     0
291
     0
 45
0.0
1001
ACAD
1000
AcDbSavedByObjectVersion
1070
     0
  0
VISUALSTYLE
  5
35
102
{ACAD_REACTORS
330
2A
102
}
330
2A
100
AcDbVisualStyle
  2
Dim
 70
    11
 71
     2
 72
     2
 73
     0
 90
        0
 40
-0.6
 41
-30.0
 62
     5
 63
     7
 74
     1
 91
        4
 64
     7
 65
   257
 75
     1
175
     1
 42
1.0
 92
        8
 66
     7
 43
1.0
 76
     1
 77
     6
 78
     2
 67
     7
 79
     5
170
     0
171
     0
290
     0
174
     0
 93
        1
 44
-50.0
173
     0
291
     1
 45
0.0
1001
ACAD
1000
AcDbSavedByObjectVersion
1070
     0
  0
VISUALSTYLE
  5
39
102
{ACAD_REACTORS
330
2A
102
}
330
2A
100
AcDbVisualStyle
  2
Facepattern
 70
    15
 71
     2
 72
     2
 73
     0
 90
        0
 40
-0.6
 41
-30.0
 62
     5
 63
     7
 74
     1
 91
        4
 64
     7
 65
   257
 75
     1
175
     1
 42
1.0
 92
        8
 66
     7
 43
1.0
 76
     1
 77
     6
 78
     2
 67
     7
 79
     5
170
     0
171
     0
290
     0
174
     0
 93
        1
 44
0.0
173
     0
291
     1
 45
0.0
1001
ACAD
1000
AcDbSavedByObjectVersion
1070
     0
  0
VISUALSTYLE
  5
2B
102
{ACAD_REACTORS
330
2A
102
}
330
2A
100
AcDbVisualStyle
  2
Flat
 70
     0
 71
     2
 72
     1
 73
     1
 90
        2
 40
-0.6
 41
30.0
 62
     5
 63
     7
 74
     0
 91
        4
 64
     7
 65
   257
 75
     1
175
     1
 42
1.0
 92
        8
 66
     7
 43
1.0
 76
     1
 77
     6
 78
     2
 67
     7
 79
     5
170
     0
171
     0
290
     0
174
     0
 93
       13
 44
0.0
173
     0
291
     1
 45
0.0
1001
ACAD
1000
AcDbSavedByObjectVersion
1070
     0
  0
VISUALSTYLE
  5
2C
102
{ACAD_REACTORS
330
2A
102
}
330
2A
100
AcDbVisualStyle
  2
FlatWithEdges
 70
     1
 71
     2
 72
     1
 73
     1
 90
        2
 40
-0.6
 41
30.0
 62
     5
 63
     7
 74
     1
 91
        4
 64
     7
 65
   257
 75
     1
175
     1
 42
1.0
 92
        0
 66
   257
 43
1.0
 76
     1
 77
     6
 78
     2
 67
     7
 79
     5
170
     0
171
     0
290
     0
174
     0
 93
       13
 44
0.0
173
     0
291
     1
 45
0.0
1001
ACAD
1000
AcDbSavedByObjectVersion
1070
     0
  0
VISUALSTYLE
  5
2D
102
{ACAD_REACTORS
330
2A
102
}
330
2A
100
AcDbVisualStyle
  2
Gouraud
 70
     2
 71
     2
 72
     2
 73
     1
 90
        2
 40
-0.6
 41
30.0
 62
     5
 63
     7
 74
     0
 91
        4
 64
     7
 65
   257
 75
     1
175
     1
 42
1.0
 92
        0
 66
     7
 43
1.0
 76
     1
 77
     6
 78
     2
 67
     7
 79
     5
170
     0
171
     0
290
     0
174
     0
 93
       13
 44
0.0
173
     0
291
     1
 45
0.0
1001
ACAD
1000
AcDbSavedByObjectVersion
1070
     0
  0
VISUALSTYLE
  5
2E
102
{ACAD_REACTORS
330
2A
102
}
330
2A
100
AcDbVisualStyle
  2
GouraudWithEdges
 70
     3
 71
     2
 72
     2
 73
     1
 90
        2
 40
-0.6
 41
30.0
 62
     5
 63
     7
 74
     1
 91
        4
 64
     7
 65
   257
 75
     1
175
     1
 42
1.0
 92
        0
 66
   257
 43
1.0
 76
     1
 77
     6
 78
     2
 67
     7
 79
     5
170
     0
171
     0
290
     0
174
     0
 93
       13
 44
0.0
173
     0
291
     1
 45
0.0
1001
ACAD
1000
AcDbSavedByObjectVersion
1070
     0
  0
VISUALSTYLE
  5
38
102
{ACAD_REACTORS
330
2A
102
}
330
2A
100
AcDbVisualStyle
  2
Linepattern
 70
    14
 71
     2
 72
     2
 73
     0
 90
        0
 40
-0.6
 41
-30.0
 62
     5
 63
     7
 74
     1
 91
        4
 64
     7
 65
   257
 75
     7
175
     7
 42
1.0
 92
        8
 66
     7
 43
1.0
 76
     1
 77
     6
 78
     2
 67
     7
 79
     5
170
     0
171
     0
290
     0
174
     0
 93
        1
 44
0.0
173
     0
291
     1
 45
0.0
1001
ACAD
1000
AcDbSavedByObjectVersion
1070
     0
  0
VISUALSTYLE
  5
33
102
{ACAD_REACTORS
330
2A
102
}
330
2A
100
AcDbVisualStyle
  2
Realistic
 70
     8
 71
     2
 72
     2
 73
     0
 90
        0
 40
-0.6
 41
-30.0
 62
     5
 63
     7
 74
     1
 91
        0
 64
     7
 65
   257
 75
     1
175
     1
 42
1.0
 92
        8
 66
     8
 43
1.0
 76
     1
 77
     6
 78
     2
 67
     7
 79
     5
170
     0
171
     0
290
     0
174
     0
 93
       13
 44
0.0
173
     0
291
     0
 45
0.0
1001
ACAD
1000
AcDbSavedByObjectVersion
1070
     0
  0
VISUALSTYLE
  5
37
102
{ACAD_REACTORS
330
2A
102
}
330
2A
100
AcDbVisualStyle
  2
Thicken
 70
    13
 71
     2
 72
     2
 73
     0
 90
        0
 40
-0.6
 41
-30.0
 62
     5
 63
     7
 74
     1
 91
        4
 64
     7
 65
   257
 75
     1
175
     1
 42
1.0
 92
       12
 66
     7
 43
1.0
 76
     1
 77
     6
 78
     2
 67
     7
 79
     5
170
     0
171
     0
290
     0
174
     0
 93
        1
 44
0.0
173
     0
291
     1
 45
0.0
1001
ACAD
1000
AcDbSavedByObjectVersion
1070
     0
  0
DICTIONARYVAR
  5
20A
102
{ACAD_REACTORS
330
208
102
}
330
208
100
DictionaryVariables
280
     0
  1
80.000000
  0
DICTIONARYVAR
  5
209
102
{ACAD_REACTORS
330
208
102
}
330
208
100
DictionaryVariables
280
     0
  1
5.000000
  0
ENDSEC
  0
EOF
