  0
SECTION
  2
HEADER
  9
$ACADVER
  1
AC1015
  9
$ACADMAINTVER
 70
     6
  9
$DWGCODEPAGE
  3
ANSI_1252
  9
$INSBASE
 10
0.0
 20
0.0
 30
0.0
  9
$EXTMIN
 10
0.0
 20
0.0
 30
0.0
  9
$EXTMAX
 10
297.0
 20
210.0
 30
0.0
  9
$LIMMIN
 10
0.0
 20
0.0
  9
$LIMMAX
 10
297.0
 20
210.0
  9
$ORTHOMODE
 70
     0
  9
$REGENMODE
 70
     1
  9
$FILLMODE
 70
     1
  9
$QTEXTMODE
 70
     0
  9
$MIRRTEXT
 70
     1
  9
$LTSCALE
 40
1.0
  9
$ATTMODE
 70
     1
  9
$TEXTSIZE
 40
2.0
  9
$TRACEWID
 40
1.0
  9
$TEXTSTYLE
  7
Standard
  9
$CLAYER
  8
0
  9
$CELTYPE
  6
ByLayer
  9
$CECOLOR
 62
   256
  9
$CELTSCALE
 40
1.0
  9
$DISPSILH
 70
     0
  9
$DIMSCALE
 40
1.0
  9
$DIMASZ
 40
3.0
  9
$DIMEXO
 40
0.0
  9
$DIMDLI
 40
3.75
  9
$DIMRND
 40
0.0
  9
$DIMDLE
 40
0.0
  9
$DIMEXE
 40
1.0
  9
$DIMTP
 40
0.0
  9
$DIMTM
 40
0.0
  9
$DIMTXT
 40
2.0
  9
$DIMCEN
 40
2.5
  9
$DIMTSZ
 40
0.0
  9
$DIMTOL
 70
     0
  9
$DIMLIM
 70
     0
  9
$DIMTIH
 70
     1
  9
$DIMTOH
 70
     1
  9
$DIMSE1
 70
     0
  9
$DIMSE2
 70
     0
  9
$DIMTAD
 70
     1
  9
$DIMZIN
 70
     0
  9
$DIMBLK
  1

  9
$DIMASO
 70
     1
  9
$DIMSHO
 70
     1
  9
$DIMPOST
  1

  9
$DIMAPOST
  1

  9
$DIMALT
 70
     0
  9
$DIMALTD
 70
     3
  9
$DIMALTF
 40
0.0393700787
  9
$DIMLFAC
 40
1.0
  9
$DIMTOFL
 70
     1
  9
$DIMTVP
 40
0.0
  9
$DIMTIX
 70
     0
  9
$DIMSOXD
 70
     0
  9
$DIMSAH
 70
     0
  9
$DIMBLK1
  1

  9
$DIMBLK2
  1

  9
$DIMSTYLE
  2
ISO-25
  9
$DIMCLRD
 70
     0
  9
$DIMCLRE
 70
     0
  9
$DIMCLRT
 70
     0
  9
$DIMTFAC
 40
1.0
  9
$DIMGAP
 40
1.524
  9
$DIMJUST
 70
     0
  9
$DIMSD1
 70
     0
  9
$DIMSD2
 70
     0
  9
$DIMTOLJ
 70
     0
  9
$DIMTZIN
 70
     0
  9
$DIMALTZ
 70
     0
  9
$DIMALTTZ
 70
     0
  9
$DIMUPT
 70
     0
  9
$DIMDEC
 70
     2
  9
$DIMTDEC
 70
     3
  9
$DIMALTU
 70
     2
  9
$DIMALTTD
 70
     3
  9
$DIMTXSTY
  7
Standard
  9
$DIMAUNIT
 70
     0
  9
$DIMADEC
 70
     2
  9
$DIMALTRND
 40
0.0
  9
$DIMAZIN
 70
     0
  9
$DIMDSEP
 70
    44
  9
$DIMATFIT
 70
     3
  9
$DIMFRAC
 70
     0
  9
$DIMLDRBLK
  1

  9
$DIMLUNIT
 70
     2
  9
$DIMLWD
 70
    -2
  9
$DIMLWE
 70
    -2
  9
$DIMTMOVE
 70
     0
  9
$LUNITS
 70
     2
  9
$LUPREC
 70
     2
  9
$SKETCHINC
 40
1.0
  9
$FILLETRAD
 40
10.0
  9
$AUNITS
 70
     0
  9
$AUPREC
 70
     2
  9
$MENU
  1
.
  9
$ELEVATION
 40
0.0
  9
$PELEVATION
 40
0.0
  9
$THICKNESS
 40
0.0
  9
$LIMCHECK
 70
     0
  9
$CHAMFERA
 40
10.0
  9
$CHAMFERB
 40
10.0
  9
$CHAMFERC
 40
20.0
  9
$CHAMFERD
 40
0.0
  9
$SKPOLY
 70
     0
  9
$TDCREATE
 40
2455684.426799225
  9
$TDUCREATE
 40
2455684.343465891
  9
$TDUPDATE
 40
2455684.426799236
  9
$TDUUPDATE
 40
2455684.343465903
  9
$TDINDWG
 40
0.0000000116
  9
$TDUSRTIMER
 40
0.0000000116
  9
$USRTIMER
 70
     1
  9
$ANGBASE
 50
0.0
  9
$ANGDIR
 70
     0
  9
$PDMODE
 70
     0
  9
$PDSIZE
 40
-1.0
  9
$PLINEWID
 40
0.0
  9
$SPLFRAME
 70
     0
  9
$SPLINETYPE
 70
     6
  9
$SPLINESEGS
 70
     8
  9
$HANDSEED
  5
20A
  9
$SURFTAB1
 70
     6
  9
$SURFTAB2
 70
     6
  9
$SURFTYPE
 70
     6
  9
$SURFU
 70
     6
  9
$SURFV
 70
     6
  9
$UCSBASE
  2

  9
$UCSNAME
  2

  9
$UCSORG
 10
0.0
 20
0.0
 30
0.0
  9
$UCSXDIR
 10
1.0
 20
0.0
 30
0.0
  9
$UCSYDIR
 10
0.0
 20
1.0
 30
0.0
  9
$UCSORTHOREF
  2

  9
$UCSORTHOVIEW
 70
     0
  9
$UCSORGTOP
 10
0.0
 20
0.0
 30
0.0
  9
$UCSORGBOTTOM
 10
0.0
 20
0.0
 30
0.0
  9
$UCSORGLEFT
 10
0.0
 20
0.0
 30
0.0
  9
$UCSORGRIGHT
 10
0.0
 20
0.0
 30
0.0
  9
$UCSORGFRONT
 10
0.0
 20
0.0
 30
0.0
  9
$UCSORGBACK
 10
0.0
 20
0.0
 30
0.0
  9
$PUCSBASE
  2

  9
$PUCSNAME
  2

  9
$PUCSORG
 10
0.0
 20
0.0
 30
0.0
  9
$PUCSXDIR
 10
1.0
 20
0.0
 30
0.0
  9
$PUCSYDIR
 10
0.0
 20
1.0
 30
0.0
  9
$PUCSORTHOREF
  2

  9
$PUCSORTHOVIEW
 70
     0
  9
$PUCSORGTOP
 10
0.0
 20
0.0
 30
0.0
  9
$PUCSORGBOTTOM
 10
0.0
 20
0.0
 30
0.0
  9
$PUCSORGLEFT
 10
0.0
 20
0.0
 30
0.0
  9
$PUCSORGRIGHT
 10
0.0
 20
0.0
 30
0.0
  9
$PUCSORGFRONT
 10
0.0
 20
0.0
 30
0.0
  9
$PUCSORGBACK
 10
0.0
 20
0.0
 30
0.0
  9
$USERI1
 70
     0
  9
$USERI2
 70
     0
  9
$USERI3
 70
     0
  9
$USERI4
 70
     0
  9
$USERI5
 70
     0
  9
$USERR1
 40
0.0
  9
$USERR2
 40
0.0
  9
$USERR3
 40
0.0
  9
$USERR4
 40
0.0
  9
$USERR5
 40
0.0
  9
$WORLDVIEW
 70
     1
  9
$SHADEDGE
 70
     3
  9
$SHADEDIF
 70
    70
  9
$TILEMODE
 70
     1
  9
$MAXACTVP
 70
    64
  9
$PINSBASE
 10
0.0
 20
0.0
 30
0.0
  9
$PLIMCHECK
 70
     0
  9
$PEXTMIN
 10
1.0000000000E+20
 20
1.0000000000E+20
 30
1.0000000000E+20
  9
$PEXTMAX
 10
-1.0000000000E+20
 20
-1.0000000000E+20
 30
-1.0000000000E+20
  9
$PLIMMIN
 10
0.0
 20
0.0
  9
$PLIMMAX
 10
420.0
 20
297.0
  9
$UNITMODE
 70
     0
  9
$VISRETAIN
 70
     1
  9
$PLINEGEN
 70
     0
  9
$PSLTSCALE
 70
     1
  9
$TREEDEPTH
 70
  3020
  9
$CMLSTYLE
  2
Standard
  9
$CMLJUST
 70
     0
  9
$CMLSCALE
 40
20.0
  9
$PROXYGRAPHICS
 70
     1
  9
$MEASUREMENT
 70
     1
  9
$CELWEIGHT
370
    -1
  9
$ENDCAPS
280
     0
  9
$JOINSTYLE
280
     0
  9
$LWDISPLAY
290
     1
  9
$INSUNITS
 70
     4
  9
$HYPERLINKBASE
  1

  9
$STYLESHEET
  1

  9
$XEDIT
290
     1
  9
$CEPSNTYPE
380
     0
  9
$PSTYLEMODE
290
     1
  9
$FINGERPRINTGUID
  2
{9EAA6820-B476-4709-AF2F-30EE0C1E2121}
  9
$VERSIONGUID
  2
{FAEB1C32-E019-11D5-929B-00C0DF256EC4}
  9
$EXTNAMES
290
     1
  9
$PSVPSCALE
 40
0.0
  9
$OLESTARTUP
290
     0
  0
ENDSEC
  0
SECTION
  2
CLASSES
  0
CLASS
  1
ACDBDICTIONARYWDFLT
  2
AcDbDictionaryWithDefault
  3
ObjectDBX Classes
 90
        0
280
     0
281
     0
  0
CLASS
  1
VISUALSTYLE
  2
AcDbVisualStyle
  3
ObjectDBX Classes
 90
     4095
280
     0
281
     0
  0
CLASS
  1
DICTIONARYVAR
  2
AcDbDictionaryVar
  3
ObjectDBX Classes
 90
        0
280
     0
281
     0
  0
CLASS
  1
ACDBPLACEHOLDER
  2
AcDbPlaceHolder
  3
ObjectDBX Classes
 90
        0
280
     0
281
     0
  0
CLASS
  1
LAYOUT
  2
AcDbLayout
  3
ObjectDBX Classes
 90
        0
280
     0
281
     0
  0
ENDSEC
  0
SECTION
  2
TABLES
  0
TABLE
  2
VPORT
  5
8
330
0
100
AcDbSymbolTable
 70
     1
  0
VPORT
  5
29
330
8
100
AcDbSymbolTableRecord
100
AcDbViewportTableRecord
  2
*Active
 70
     0
 10
0.0
 20
0.0
 11
1.0
 21
1.0
 12
148.5
 22
105.0
 13
0.0
 23
0.0
 14
10.0
 24
10.0
 15
10.0
 25
10.0
 16
0.0
 26
0.0
 36
1.0
 17
0.0
 27
0.0
 37
0.0
 40
210.0
 41
1.4142857143
 42
50.0
 43
0.0
 44
0.0
 50
0.0
 51
0.0
 71
     0
 72
  2000
 73
     1
 74
     3
 75
     0
 76
     0
 77
     0
 78
     0
281
     0
 65
     1
110
0.0
120
0.0
130
0.0
111
1.0
121
0.0
131
0.0
112
0.0
122
1.0
132
0.0
 79
     0
146
0.0
  0
ENDTAB
  0
TABLE
  2
LTYPE
  5
5
330
0
100
AcDbSymbolTable
 70
     6
  0
LTYPE
  5
14
330
5
100
AcDbSymbolTableRecord
100
AcDbLinetypeTableRecord
  2
ByBlock
 70
     0
  3

 72
    65
 73
     0
 40
0.0
  0
LTYPE
  5
15
330
5
100
AcDbSymbolTableRecord
100
AcDbLinetypeTableRecord
  2
ByLayer
 70
     0
  3

 72
    65
 73
     0
 40
0.0
  0
LTYPE
  5
16
330
5
100
AcDbSymbolTableRecord
100
AcDbLinetypeTableRecord
  2
Continuous
 70
     0
  3
Solid line
 72
    65
 73
     0
 40
0.0
  0
LTYPE
  5
3B
330
5
100
AcDbSymbolTableRecord
100
AcDbLinetypeTableRecord
  2
HIDDEN
 70
     0
  3
Hidden __ __ __ __ __ __ __ __ __ __ __ __ __ __
 72
    65
 73
     2
 40
1.905
 49
1.27
 74
     0
 49
-0.635
 74
     0
  0
LTYPE
  5
3C
330
5
100
AcDbSymbolTableRecord
100
AcDbLinetypeTableRecord
  2
PHANTOM
 70
     0
  3
Phantom ______  __  __  ______  __  __  ______
 72
    65
 73
     6
 40
12.7
 49
6.35
 74
     0
 49
-1.27
 74
     0
 49
1.27
 74
     0
 49
-1.27
 74
     0
 49
1.27
 74
     0
 49
-1.27
 74
     0
  0
LTYPE
  5
3D
330
5
100
AcDbSymbolTableRecord
100
AcDbLinetypeTableRecord
  2
CENTER
 70
     0
  3
Center ____ _ ____ _ ____ _ ____ _ ____ _ ____
 72
    65
 73
     4
 40
10.16
 49
6.35
 74
     0
 49
-1.27
 74
     0
 49
1.27
 74
     0
 49
-1.27
 74
     0
  0
LTYPE
  5
3E
330
5
100
AcDbSymbolTableRecord
100
AcDbLinetypeTableRecord
  2
CENTERX2
 70
     0
  3
Center (2x) ________  __  ________  __  _____
 72
    65
 73
     4
 40
20.32
 49
12.7
 74
     0
 49
-2.54
 74
     0
 49
2.54
 74
     0
 49
-2.54
 74
     0
  0
LTYPE
  5
3F
330
5
100
AcDbSymbolTableRecord
100
AcDbLinetypeTableRecord
  2
DOT2
 70
     0
  3
Dot (.5x) ........................................
 72
    65
 73
     2
 40
0.635
 49
0.0
 74
     0
 49
-0.635
 74
     0
  0
ENDTAB
  0
TABLE
  2
LAYER
  5
2
330
0
100
AcDbSymbolTable
 70
     5
  0
LAYER
  5
10
330
2
100
AcDbSymbolTableRecord
100
AcDbLayerTableRecord
  2
0
 70
     0
 62
     7
  6
Continuous
370
    -3
390
F
  0
LAYER
  5
40
330
2
100
AcDbSymbolTableRecord
100
AcDbLayerTableRecord
  2
FORMAT
 70
     0
 62
     7
  6
Continuous
370
    -3
390
F
  0
LAYER
  5
41
330
2
100
AcDbSymbolTableRecord
100
AcDbLayerTableRecord
  2
VERMASSUNG
 70
     0
 62
     7
  6
Continuous
370
    -3
390
F
  0
LAYER
  5
42
330
2
100
AcDbSymbolTableRecord
100
AcDbLayerTableRecord
  2
KOPF_DÜNN
 70
     0
 62
     7
  6
Continuous
370
    -3
390
F
  0
LAYER
  5
43
330
2
100
AcDbSymbolTableRecord
100
AcDbLayerTableRecord
  2
KOPF_DICK
 70
     0
 62
     7
  6
Continuous
370
    15
390
F
  0
ENDTAB
  0
TABLE
  2
STYLE
  5
3
330
0
100
AcDbSymbolTable
 70
     3
  0
STYLE
  5
11
330
3
100
AcDbSymbolTableRecord
100
AcDbTextStyleTableRecord
  2
Standard
 70
     0
 40
0.0
 41
1.0
 50
0.0
 71
     0
 42
2.5
  3
txt
  4

  0
STYLE
  5
44
330
3
100
AcDbSymbolTableRecord
100
AcDbTextStyleTableRecord
  2
SLDTEXTSTYLE0
 70
     0
 40
0.0
 41
0.7
 50
0.0
 71
     0
 42
0.2
  3
TXT
  4

  0
STYLE
  5
48
330
3
100
AcDbSymbolTableRecord
100
AcDbTextStyleTableRecord
  2
SLDTEXTSTYLE1
 70
     0
 40
0.0
 41
0.65
 50
0.0
 71
     0
 42
0.2
  3
TXT
  4

  0
ENDTAB
  0
TABLE
  2
VIEW
  5
6
330
0
100
AcDbSymbolTable
 70
     0
  0
ENDTAB
  0
TABLE
  2
UCS
  5
7
330
0
100
AcDbSymbolTable
 70
     0
  0
ENDTAB
  0
TABLE
  2
APPID
  5
9
330
0
100
AcDbSymbolTable
 70
     1
  0
APPID
  5
12
330
9
100
AcDbSymbolTableRecord
100
AcDbRegAppTableRecord
  2
ACAD
 70
     0
  0
ENDTAB
  0
TABLE
  2
DIMSTYLE
  5
A
330
0
100
AcDbSymbolTable
 70
     5
100
AcDbDimStyleTable
  0
DIMSTYLE
105
27
330
A
100
AcDbSymbolTableRecord
100
AcDbDimStyleTableRecord
  2
ISO-25
 70
     0
 41
2.5
 42
0.625
 43
3.75
 44
1.25
 73
     0
 74
     0
 77
     1
 78
     8
140
2.5
141
2.5
143
0.0393700787
147
0.625
171
     3
172
     1
271
     2
272
     2
274
     3
278
    44
283
     0
284
     8
340
11
  0
DIMSTYLE
105
1AB
102
{ACAD_REACTORS
330
1AA
330
1E5
330
1EF
330
1F9
102
}
330
A
100
AcDbSymbolTableRecord
100
AcDbDimStyleTableRecord
  2
SLDDIMSTYLE0
 70
     0
 41
3.0
 44
0.0
 45
0.000000001
 73
     0
 74
     0
 77
     1
 78
    12
140
2.0
147
0.5
173
     1
271
     2
272
     3
284
    12
340
44
  0
DIMSTYLE
105
1B8
102
{ACAD_REACTORS
330
1B7
102
}
330
A
100
AcDbSymbolTableRecord
100
AcDbDimStyleTableRecord
  2
SLDDIMSTYLE1
 70
     0
 41
3.0
 44
0.0
 45
0.000000001
 73
     0
 74
     0
 77
     1
 78
    12
140
2.0
147
0.5
173
     1
271
     1
272
     1
284
    12
340
44
  0
DIMSTYLE
105
1C3
102
{ACAD_REACTORS
330
1C2
102
}
330
A
100
AcDbSymbolTableRecord
100
AcDbDimStyleTableRecord
  2
SLDDIMSTYLE2
 70
     0
 41
3.0
 44
0.0
 45
0.000000001
 73
     0
 74
     0
 77
     1
 78
    12
140
2.0
147
0.5
173
     1
271
     2
272
     2
284
    12
340
44
  0
DIMSTYLE
105
1CF
102
{ACAD_REACTORS
330
1CE
330
1DA
102
}
330
A
100
AcDbSymbolTableRecord
100
AcDbDimStyleTableRecord
  2
SLDDIMSTYLE3
 70
     0
 41
3.0
 44
0.0
 45
0.000000001
 73
     0
 74
     0
 77
     1
 78
    12
140
2.0
147
0.5
173
     1
271
     2
272
     3
284
    12
340
44
  0
ENDTAB
  0
TABLE
  2
BLOCK_RECORD
  5
1
330
0
100
AcDbSymbolTable
 70
     9
  0
BLOCK_RECORD
  5
1F
330
1
100
AcDbSymbolTableRecord
100
AcDbBlockTableRecord
  2
*Model_Space
340
22
  0
BLOCK_RECORD
  5
1B
330
1
100
AcDbSymbolTableRecord
100
AcDbBlockTableRecord
  2
*Paper_Space
340
1E
  0
BLOCK_RECORD
  5
23
330
1
100
AcDbSymbolTableRecord
100
AcDbBlockTableRecord
  2
*Paper_Space0
340
26
  0
BLOCK_RECORD
  5
1AC
330
1
100
AcDbSymbolTableRecord
100
AcDbBlockTableRecord
  2
*D1
340
0
  0
BLOCK_RECORD
  5
1B9
330
1
100
AcDbSymbolTableRecord
100
AcDbBlockTableRecord
  2
*D2
340
0
  0
BLOCK_RECORD
  5
1C4
330
1
100
AcDbSymbolTableRecord
100
AcDbBlockTableRecord
  2
*D3
340
0
  0
BLOCK_RECORD
  5
1D0
330
1
100
AcDbSymbolTableRecord
100
AcDbBlockTableRecord
  2
*D4
340
0
  0
BLOCK_RECORD
  5
1DB
330
1
100
AcDbSymbolTableRecord
100
AcDbBlockTableRecord
  2
*D5
340
0
  0
BLOCK_RECORD
  5
1E6
330
1
100
AcDbSymbolTableRecord
100
AcDbBlockTableRecord
  2
*D6
340
0
  0
BLOCK_RECORD
  5
1F0
330
1
100
AcDbSymbolTableRecord
100
AcDbBlockTableRecord
  2
*D7
340
0
  0
BLOCK_RECORD
  5
1FA
330
1
100
AcDbSymbolTableRecord
100
AcDbBlockTableRecord
  2
*D8
340
0
  0
ENDTAB
  0
ENDSEC
  0
SECTION
  2
BLOCKS
  0
BLOCK
  5
20
330
1F
100
AcDbEntity
  8
0
100
AcDbBlockBegin
  2
*Model_Space
 70
     0
 10
0.0
 20
0.0
 30
0.0
  3
*Model_Space
  1

  0
ENDBLK
  5
21
330
1F
100
AcDbEntity
  8
0
100
AcDbBlockEnd
  0
BLOCK
  5
1C
330
1B
100
AcDbEntity
 67
     1
  8
0
100
AcDbBlockBegin
  2
*Paper_Space
 70
     0
 10
0.0
 20
0.0
 30
0.0
  3
*Paper_Space
  1

  0
ENDBLK
  5
1D
330
1B
100
AcDbEntity
 67
     1
  8
0
100
AcDbBlockEnd
  0
BLOCK
  5
24
330
23
100
AcDbEntity
  8
0
100
AcDbBlockBegin
  2
*Paper_Space0
 70
     0
 10
0.0
 20
0.0
 30
0.0
  3
*Paper_Space0
  1

  0
ENDBLK
  5
25
330
23
100
AcDbEntity
  8
0
100
AcDbBlockEnd
  0
BLOCK
  5
1AD
330
1AC
100
AcDbEntity
  8
0
100
AcDbBlockBegin
  2
*D1
 70
     1
 10
0.0
 20
0.0
 30
0.0
  3
*D1
  1

  0
SOLID
  5
1AF
330
1AC
100
AcDbEntity
  8
VERMASSUNG
100
AcDbTrace
 10
50.5667388949
 20
158.132936078
 30
0.0
 11
50.1167388949
 21
155.132936078
 31
0.0
 12
51.0167388949
 22
155.132936078
 32
0.0
 13
51.0167388949
 23
155.132936078
 33
0.0
  0
SOLID
  5
1B0
330
1AC
100
AcDbEntity
  8
VERMASSUNG
100
AcDbTrace
 10
50.5667388949
 20
58.132936078
 30
0.0
 11
51.0167388949
 21
61.132936078
 31
0.0
 12
50.1167388949
 22
61.132936078
 32
0.0
 13
50.1167388949
 23
61.132936078
 33
0.0
  0
LINE
  5
1B1
330
1AC
100
AcDbEntity
  8
VERMASSUNG
100
AcDbLine
 10
105.7673742093
 20
158.132936078
 30
0.0
 11
49.5667388949
 21
158.132936078
 31
0.0
  0
LINE
  5
1B2
330
1AC
100
AcDbEntity
  8
VERMASSUNG
100
AcDbLine
 10
105.7673742093
 20
58.132936078
 30
0.0
 11
49.5667388949
 21
58.132936078
 31
0.0
  0
LINE
  5
1B3
330
1AC
100
AcDbEntity
  8
VERMASSUNG
100
AcDbLine
 10
50.5667388949
 20
158.132936078
 30
0.0
 11
50.5667388949
 21
58.132936078
 31
0.0
  0
MTEXT
  5
1B4
330
1AC
100
AcDbEntity
  8
VERMASSUNG
100
AcDbMText
 10
47.7886034059
 20
99.9292849404
 30
0.0
 40
2.0
 41
0.0
 71
     1
 72
     1
  1
HSK A 
  7
SLDTEXTSTYLE0
 11
-7.044195017643634E-15
 21
1.0
 31
0.0
 73
     1
 44
1.0
  0
MTEXT
  5
1B5
330
1AC
100
AcDbEntity
  8
VERMASSUNG
100
AcDbMText
 10
47.9886034154
 20
108.9292854843
 30
0.0
 40
2.0
 41
0.0
 71
     1
 72
     1
  1
%%c
  7
SLDTEXTSTYLE0
 11
-7.044195017643634E-15
 21
1.0
 31
0.0
 73
     1
 44
1.0
  0
MTEXT
  5
1B6
330
1AC
100
AcDbEntity
  8
VERMASSUNG
100
AcDbMText
 10
47.9886035318
 20
112.5376121343
 30
0.0
 40
2.0
 41
0.0
 71
     1
 72
     1
  1
100
  7
SLDTEXTSTYLE0
 11
-7.044195017643634E-15
 21
1.0
 31
0.0
 73
     1
 44
1.0
  0
ENDBLK
  5
1AE
330
1AC
100
AcDbEntity
  8
0
100
AcDbBlockEnd
  0
BLOCK
  5
1BA
330
1B9
100
AcDbEntity
  8
0
100
AcDbBlockBegin
  2
*D2
 70
     1
 10
0.0
 20
0.0
 30
0.0
  3
*D2
  1

  0
SOLID
  5
1BC
330
1B9
100
AcDbEntity
  8
VERMASSUNG
100
AcDbTrace
 10
153.2673742093
 20
161.7409534128
 30
0.0
 11
156.2673742093
 21
161.2909534128
 31
0.0
 12
156.2673742093
 22
162.1909534128
 32
0.0
 13
156.2673742093
 23
162.1909534128
 33
0.0
  0
SOLID
  5
1BD
330
1B9
100
AcDbEntity
  8
VERMASSUNG
100
AcDbTrace
 10
235.2673742093
 20
161.7409534128
 30
0.0
 11
232.2673742093
 21
162.1909534128
 31
0.0
 12
232.2673742093
 22
161.2909534128
 32
0.0
 13
232.2673742093
 23
161.2909534128
 33
0.0
  0
LINE
  5
1BE
330
1B9
100
AcDbEntity
  8
VERMASSUNG
100
AcDbLine
 10
153.2673742093
 20
102.132936078
 30
0.0
 11
153.2673742093
 21
162.7409534128
 31
0.0
  0
LINE
  5
1BF
330
1B9
100
AcDbEntity
  8
VERMASSUNG
100
AcDbLine
 10
235.2673742093
 20
82.0962418299
 30
0.0
 11
235.2673742093
 21
162.7409534128
 31
0.0
  0
LINE
  5
1C0
330
1B9
100
AcDbEntity
  8
VERMASSUNG
100
AcDbLine
 10
153.2673742093
 20
161.7409534128
 30
0.0
 11
235.2673742093
 21
161.7409534128
 31
0.0
  0
MTEXT
  5
1C1
330
1B9
100
AcDbEntity
  8
VERMASSUNG
100
AcDbMText
 10
192.8679960944
 20
164.3190887759
 30
0.0
 40
2.0
 41
0.0
 71
     1
 72
     1
  1
82
  7
SLDTEXTSTYLE0
 73
     1
 44
1.0
  0
ENDBLK
  5
1BB
330
1B9
100
AcDbEntity
  8
0
100
AcDbBlockEnd
  0
BLOCK
  5
1C5
330
1C4
100
AcDbEntity
  8
0
100
AcDbBlockBegin
  2
*D3
 70
     1
 10
0.0
 20
0.0
 30
0.0
  3
*D3
  1

  0
SOLID
  5
1C7
330
1C4
100
AcDbEntity
  8
VERMASSUNG
100
AcDbTrace
 10
242.555687974
 20
133.132936078
 30
0.0
 11
242.105687974
 21
130.132936078
 31
0.0
 12
243.005687974
 22
130.132936078
 32
0.0
 13
243.005687974
 23
130.132936078
 33
0.0
  0
SOLID
  5
1C8
330
1C4
100
AcDbEntity
  8
VERMASSUNG
100
AcDbTrace
 10
242.555687974
 20
83.132936078
 30
0.0
 11
243.005687974
 21
86.132936078
 31
0.0
 12
242.105687974
 22
86.132936078
 32
0.0
 13
242.105687974
 23
86.132936078
 33
0.0
  0
LINE
  5
1C9
330
1C4
100
AcDbEntity
  8
VERMASSUNG
100
AcDbLine
 10
231.7673742093
 20
133.132936078
 30
0.0
 11
243.555687974
 21
133.132936078
 31
0.0
  0
LINE
  5
1CA
330
1C4
100
AcDbEntity
  8
VERMASSUNG
100
AcDbLine
 10
231.7673742093
 20
83.132936078
 30
0.0
 11
243.555687974
 21
83.132936078
 31
0.0
  0
LINE
  5
1CB
330
1C4
100
AcDbEntity
  8
VERMASSUNG
100
AcDbLine
 10
242.555687974
 20
133.132936078
 30
0.0
 11
242.555687974
 21
83.132936078
 31
0.0
  0
MTEXT
  5
1CC
330
1C4
100
AcDbEntity
  8
VERMASSUNG
100
AcDbMText
 10
239.9775524945
 20
104.9292188516
 30
0.0
 40
2.0
 41
0.0
 71
     1
 72
     1
  1
%%c
  7
SLDTEXTSTYLE0
 11
-7.044195017643634E-15
 21
1.0
 31
0.0
 73
     1
 44
1.0
  0
MTEXT
  5
1CD
330
1C4
100
AcDbEntity
  8
VERMASSUNG
100
AcDbMText
 10
239.9775526109
 20
108.5378970748
 30
0.0
 40
2.0
 41
0.0
 71
     1
 72
     1
  1
50
  7
SLDTEXTSTYLE0
 11
-7.044195017643634E-15
 21
1.0
 31
0.0
 73
     1
 44
1.0
  0
ENDBLK
  5
1C6
330
1C4
100
AcDbEntity
  8
0
100
AcDbBlockEnd
  0
BLOCK
  5
1D1
330
1D0
100
AcDbEntity
  8
0
100
AcDbBlockBegin
  2
*D4
 70
     1
 10
0.0
 20
0.0
 30
0.0
  3
*D4
  1

  0
SOLID
  5
1D3
330
1D0
100
AcDbEntity
  8
VERMASSUNG
100
AcDbTrace
 10
248.555687974
 20
142.632936078
 30
0.0
 11
248.105687974
 21
139.632936078
 31
0.0
 12
249.005687974
 22
139.632936078
 32
0.0
 13
249.005687974
 23
139.632936078
 33
0.0
  0
SOLID
  5
1D4
330
1D0
100
AcDbEntity
  8
VERMASSUNG
100
AcDbTrace
 10
248.555687974
 20
73.632936078
 30
0.0
 11
249.005687974
 21
76.632936078
 31
0.0
 12
248.105687974
 22
76.632936078
 32
0.0
 13
248.105687974
 23
76.632936078
 33
0.0
  0
LINE
  5
1D5
330
1D0
100
AcDbEntity
  8
VERMASSUNG
100
AcDbLine
 10
235.2673742093
 20
142.632936078
 30
0.0
 11
249.555687974
 21
142.632936078
 31
0.0
  0
LINE
  5
1D6
330
1D0
100
AcDbEntity
  8
VERMASSUNG
100
AcDbLine
 10
235.2673742093
 20
73.632936078
 30
0.0
 11
249.555687974
 21
73.632936078
 31
0.0
  0
LINE
  5
1D7
330
1D0
100
AcDbEntity
  8
VERMASSUNG
100
AcDbLine
 10
248.555687974
 20
142.632936078
 30
0.0
 11
248.555687974
 21
73.632936078
 31
0.0
  0
MTEXT
  5
1D8
330
1D0
100
AcDbEntity
  8
VERMASSUNG
100
AcDbMText
 10
245.9775524945
 20
104.9292188516
 30
0.0
 40
2.0
 41
0.0
 71
     1
 72
     1
  1
%%c
  7
SLDTEXTSTYLE0
 11
-7.044195017643634E-15
 21
1.0
 31
0.0
 73
     1
 44
1.0
  0
MTEXT
  5
1D9
330
1D0
100
AcDbEntity
  8
VERMASSUNG
100
AcDbMText
 10
245.9775526109
 20
108.5378970748
 30
0.0
 40
2.0
 41
0.0
 71
     1
 72
     1
  1
69
  7
SLDTEXTSTYLE0
 11
-7.044195017643634E-15
 21
1.0
 31
0.0
 73
     1
 44
1.0
  0
ENDBLK
  5
1D2
330
1D0
100
AcDbEntity
  8
0
100
AcDbBlockEnd
  0
BLOCK
  5
1DC
330
1DB
100
AcDbEntity
  8
0
100
AcDbBlockBegin
  2
*D5
 70
     1
 10
0.0
 20
0.0
 30
0.0
  3
*D5
  1

  0
SOLID
  5
1DE
330
1DB
100
AcDbEntity
  8
VERMASSUNG
100
AcDbTrace
 10
254.555687974
 20
147.632936078
 30
0.0
 11
254.105687974
 21
144.632936078
 31
0.0
 12
255.005687974
 22
144.632936078
 32
0.0
 13
255.005687974
 23
144.632936078
 33
0.0
  0
SOLID
  5
1DF
330
1DB
100
AcDbEntity
  8
VERMASSUNG
100
AcDbTrace
 10
254.555687974
 20
68.632936078
 30
0.0
 11
255.005687974
 21
71.632936078
 31
0.0
 12
254.105687974
 22
71.632936078
 32
0.0
 13
254.105687974
 23
71.632936078
 33
0.0
  0
LINE
  5
1E0
330
1DB
100
AcDbEntity
  8
VERMASSUNG
100
AcDbLine
 10
153.7673742093
 20
147.632936078
 30
0.0
 11
255.555687974
 21
147.632936078
 31
0.0
  0
LINE
  5
1E1
330
1DB
100
AcDbEntity
  8
VERMASSUNG
100
AcDbLine
 10
153.7673742093
 20
68.632936078
 30
0.0
 11
255.555687974
 21
68.632936078
 31
0.0
  0
LINE
  5
1E2
330
1DB
100
AcDbEntity
  8
VERMASSUNG
100
AcDbLine
 10
254.555687974
 20
147.632936078
 30
0.0
 11
254.555687974
 21
68.632936078
 31
0.0
  0
MTEXT
  5
1E3
330
1DB
100
AcDbEntity
  8
VERMASSUNG
100
AcDbMText
 10
251.9775524945
 20
104.9292188516
 30
0.0
 40
2.0
 41
0.0
 71
     1
 72
     1
  1
%%c
  7
SLDTEXTSTYLE0
 11
-7.044195017643634E-15
 21
1.0
 31
0.0
 73
     1
 44
1.0
  0
MTEXT
  5
1E4
330
1DB
100
AcDbEntity
  8
VERMASSUNG
100
AcDbMText
 10
251.9775526109
 20
108.5378970748
 30
0.0
 40
2.0
 41
0.0
 71
     1
 72
     1
  1
79
  7
SLDTEXTSTYLE0
 11
-7.044195017643634E-15
 21
1.0
 31
0.0
 73
     1
 44
1.0
  0
ENDBLK
  5
1DD
330
1DB
100
AcDbEntity
  8
0
100
AcDbBlockEnd
  0
BLOCK
  5
1E7
330
1E6
100
AcDbEntity
  8
0
100
AcDbBlockBegin
  2
*D6
 70
     1
 10
0.0
 20
0.0
 30
0.0
  3
*D6
  1

  0
SOLID
  5
1E9
330
1E6
100
AcDbEntity
  8
VERMASSUNG
100
AcDbTrace
 10
105.2673742093
 20
173.7409534128
 30
0.0
 11
108.2673742093
 21
173.2909534128
 31
0.0
 12
108.2673742093
 22
174.1909534128
 32
0.0
 13
108.2673742093
 23
174.1909534128
 33
0.0
  0
SOLID
  5
1EA
330
1E6
100
AcDbEntity
  8
VERMASSUNG
100
AcDbTrace
 10
235.2673742093
 20
173.7409534128
 30
0.0
 11
232.2673742093
 21
174.1909534128
 31
0.0
 12
232.2673742093
 22
173.2909534128
 32
0.0
 13
232.2673742093
 23
173.2909534128
 33
0.0
  0
LINE
  5
1EB
330
1E6
100
AcDbEntity
  8
VERMASSUNG
100
AcDbLine
 10
105.2673742093
 20
108.132936078
 30
0.0
 11
105.2673742093
 21
174.7409534128
 31
0.0
  0
LINE
  5
1EC
330
1E6
100
AcDbEntity
  8
VERMASSUNG
100
AcDbLine
 10
235.2673742093
 20
82.0962418299
 30
0.0
 11
235.2673742093
 21
174.7409534128
 31
0.0
  0
LINE
  5
1ED
330
1E6
100
AcDbEntity
  8
VERMASSUNG
100
AcDbLine
 10
105.2673742093
 20
173.7409534128
 30
0.0
 11
235.2673742093
 21
173.7409534128
 31
0.0
  0
MTEXT
  5
1EE
330
1E6
100
AcDbEntity
  8
VERMASSUNG
100
AcDbMText
 10
168.3678866687
 20
176.3190887759
 30
0.0
 40
2.0
 41
0.0
 71
     1
 72
     1
  1
130
  7
SLDTEXTSTYLE0
 73
     1
 44
1.0
  0
ENDBLK
  5
1E8
330
1E6
100
AcDbEntity
  8
0
100
AcDbBlockEnd
  0
BLOCK
  5
1F1
330
1F0
100
AcDbEntity
  8
0
100
AcDbBlockBegin
  2
*D7
 70
     1
 10
0.0
 20
0.0
 30
0.0
  3
*D7
  1

  0
SOLID
  5
1F3
330
1F0
100
AcDbEntity
  8
VERMASSUNG
100
AcDbTrace
 10
134.2173742093
 20
167.7409534128
 30
0.0
 11
137.2173742093
 21
167.2909534128
 31
0.0
 12
137.2173742093
 22
168.1909534128
 32
0.0
 13
137.2173742093
 23
168.1909534128
 33
0.0
  0
SOLID
  5
1F4
330
1F0
100
AcDbEntity
  8
VERMASSUNG
100
AcDbTrace
 10
235.2673742093
 20
167.7409534128
 30
0.0
 11
232.2673742093
 21
168.1909534128
 31
0.0
 12
232.2673742093
 22
167.2909534128
 32
0.0
 13
232.2673742093
 23
167.2909534128
 33
0.0
  0
LINE
  5
1F5
330
1F0
100
AcDbEntity
  8
VERMASSUNG
100
AcDbLine
 10
134.2173742093
 20
139.482936078
 30
0.0
 11
134.2173742093
 21
168.7409534128
 31
0.0
  0
LINE
  5
1F6
330
1F0
100
AcDbEntity
  8
VERMASSUNG
100
AcDbLine
 10
235.2673742093
 20
140.3219598489
 30
0.0
 11
235.2673742093
 21
168.7409534128
 31
0.0
  0
LINE
  5
1F7
330
1F0
100
AcDbEntity
  8
VERMASSUNG
100
AcDbLine
 10
134.2173742093
 20
167.7409534128
 30
0.0
 11
235.2673742093
 21
167.7409534128
 31
0.0
  0
MTEXT
  5
1F8
330
1F0
100
AcDbEntity
  8
VERMASSUNG
100
AcDbMText
 10
181.3425583913
 20
170.3190887759
 30
0.0
 40
2.0
 41
0.0
 71
     1
 72
     1
  1
101.05
  7
SLDTEXTSTYLE0
 73
     1
 44
1.0
  0
ENDBLK
  5
1F2
330
1F0
100
AcDbEntity
  8
0
100
AcDbBlockEnd
  0
BLOCK
  5
1FB
330
1FA
100
AcDbEntity
  8
0
100
AcDbBlockBegin
  2
*D8
 70
     1
 10
0.0
 20
0.0
 30
0.0
  3
*D8
  1

  0
SOLID
  5
1FD
330
1FA
100
AcDbEntity
  8
VERMASSUNG
100
AcDbTrace
 10
55.3673742093
 20
179.7409534128
 30
0.0
 11
58.3673742093
 21
179.2909534128
 31
0.0
 12
58.3673742093
 22
180.1909534128
 32
0.0
 13
58.3673742093
 23
180.1909534128
 33
0.0
  0
SOLID
  5
1FE
330
1FA
100
AcDbEntity
  8
VERMASSUNG
100
AcDbTrace
 10
235.2673742093
 20
179.7409534128
 30
0.0
 11
232.2673742093
 21
180.1909534128
 31
0.0
 12
232.2673742093
 22
179.2909534128
 32
0.0
 13
232.2673742093
 23
179.2909534128
 33
0.0
  0
LINE
  5
1FF
330
1FA
100
AcDbEntity
  8
VERMASSUNG
100
AcDbLine
 10
55.3673742093
 20
138.6356058206
 30
0.0
 11
55.3673742093
 21
180.7409534128
 31
0.0
  0
LINE
  5
200
330
1FA
100
AcDbEntity
  8
VERMASSUNG
100
AcDbLine
 10
235.2673742093
 20
140.3219598489
 30
0.0
 11
235.2673742093
 21
180.7409534128
 31
0.0
  0
LINE
  5
201
330
1FA
100
AcDbEntity
  8
VERMASSUNG
100
AcDbLine
 10
55.3673742093
 20
179.7409534128
 30
0.0
 11
235.2673742093
 21
179.7409534128
 31
0.0
  0
MTEXT
  5
202
330
1FA
100
AcDbEntity
  8
VERMASSUNG
100
AcDbMText
 10
142.4176678171
 20
182.3190887759
 30
0.0
 40
2.0
 41
0.0
 71
     1
 72
     1
  1
179.9
  7
SLDTEXTSTYLE0
 73
     1
 44
1.0
  0
ENDBLK
  5
1FC
330
1FA
100
AcDbEntity
  8
0
100
AcDbBlockEnd
  0
ENDSEC
  0
SECTION
  2
ENTITIES
  0
MTEXT
  5
45
330
1F
100
AcDbEntity
  8
KOPF_DÜNN
100
AcDbMText
 10
13.8892156294
 20
23.8442973028
 30
0.0
 40
3.0
 41
0.0
 71
     1
 72
     1
  1
HA0.S50.K21.130
  7
SLDTEXTSTYLE0
 73
     1
 44
1.0
  0
MTEXT
  5
46
330
1F
100
AcDbEntity
  8
VERMASSUNG
100
AcDbMText
 10
13.9329988022
 20
28.8834360957
 30
0.0
 40
3.0
 41
0.0
 71
     1
 72
     1
  1
Schrumpffutter_Heat shrink chuck
  7
SLDTEXTSTYLE0
 73
     1
 44
1.0
  0
MTEXT
  5
47
330
1F
100
AcDbEntity
  8
VERMASSUNG
100
AcDbMText
 10
98.8601118557
 20
13.8365368179
 30
0.0
 40
2.0
 41
0.0
 71
     1
 72
     1
  1
Datum: 02.05.2011
  7
SLDTEXTSTYLE0
 73
     1
 44
1.0
  0
MTEXT
  5
49
330
1F
100
AcDbEntity
  8
VERMASSUNG
100
AcDbMText
 10
13.933048693
 20
18.0482802738
 30
0.0
 40
2.0
 41
0.0
 71
     1
 72
     1
  1
DIN 69 893 HSK A 100
  7
SLDTEXTSTYLE1
 73
     1
 44
1.0
  0
MTEXT
  5
4A
330
1F
100
AcDbEntity
  8
VERMASSUNG
100
AcDbMText
 10
13.9808475933
 20
13.9090973692
 30
0.0
 40
2.0
 41
0.0
 71
     1
 72
     1
  1
Gewicht: 4294g
  7
SLDTEXTSTYLE0
 73
     1
 44
1.0
  0
LINE
  5
4B
330
1F
100
AcDbEntity
  8
0
  6
Continuous
 62
     7
370
    15
100
AcDbLine
 10
235.2673742093
 20
77.3309599923
 30
0.0
 11
235.3698423284
 21
77.525719852
 31
0.0
  0
LINE
  5
4C
330
1F
100
AcDbEntity
  8
0
  6
Continuous
 62
     7
370
    15
100
AcDbLine
 10
235.2913226969
 20
138.7432373487
 30
0.0
 11
235.2673742093
 21
138.7887559366
 31
0.0
  0
ARC
  5
4D
330
1F
100
AcDbEntity
  8
0
  6
Continuous
 62
     7
370
    15
100
AcDbCircle
 10
105.7673742093
 20
58.632936078
 30
0.0
 40
0.5
100
AcDbArc
 50
180.0
 51
270.0
  0
ARC
  5
4E
330
1F
100
AcDbEntity
  8
0
  6
Continuous
 62
     7
370
    15
100
AcDbCircle
 10
105.7673742093
 20
157.632936078
 30
0.0
 40
0.5
100
AcDbArc
 50
90.0
 51
180.0
  0
LINE
  5
4F
330
1F
100
AcDbEntity
  8
0
  6
Continuous
 62
     7
370
    15
100
AcDbLine
 10
105.7673742093
 20
58.132936078
 30
0.0
 11
110.2173742093
 21
58.132936078
 31
0.0
  0
LINE
  5
50
330
1F
100
AcDbEntity
  8
0
  6
Continuous
 62
     7
370
    15
100
AcDbLine
 10
110.2327521808
 20
158.132936078
 30
0.0
 11
105.7673742093
 21
158.132936078
 31
0.0
  0
ARC
  5
51
330
1F
100
AcDbEntity
  8
0
  6
Continuous
 62
     7
370
    15
100
AcDbCircle
 10
139.2173742093
 20
63.632936078
 30
0.0
 40
5.000000000000031
100
AcDbArc
 50
90.0
 51
173.1337849004
  0
ARC
  5
52
330
1F
100
AcDbEntity
  8
0
  6
Continuous
 62
     7
370
    15
100
AcDbCircle
 10
139.2173742093
 20
152.632936078
 30
0.0
 40
5.000000000000009
100
AcDbArc
 50
186.880083767
 51
270.0
  0
LINE
  5
53
330
1F
100
AcDbEntity
  8
0
  6
Continuous
 62
     7
370
    15
100
AcDbLine
 10
150.6814899246
 20
68.632936078
 30
0.0
 11
171.7363505284
 21
68.632936078
 31
0.0
  0
LINE
  5
54
330
1F
100
AcDbEntity
  8
0
  6
Continuous
 62
     7
370
    15
100
AcDbLine
 10
139.2173742093
 20
68.632936078
 30
0.0
 11
143.7618050441
 21
68.632936078
 31
0.0
  0
LINE
  5
55
330
1F
100
AcDbEntity
  8
0
  6
Continuous
 62
     7
370
    15
100
AcDbLine
 10
143.7210409929
 20
147.632936078
 30
0.0
 11
139.2173742093
 21
147.632936078
 31
0.0
  0
LINE
  5
56
330
1F
100
AcDbEntity
  8
0
  6
Continuous
 62
     7
370
    15
100
AcDbLine
 10
171.7363505284
 20
147.632936078
 30
0.0
 11
150.7069315406
 21
147.632936078
 31
0.0
  0
LINE
  5
57
330
1F
100
AcDbEntity
  8
0
  6
Continuous
 62
     7
370
    15
100
AcDbLine
 10
171.7363505284
 20
68.632936078
 30
0.0
 11
232.9635219486
 21
73.4516189728
 31
0.0
  0
LINE
  5
58
330
1F
100
AcDbEntity
  8
0
  6
Continuous
 62
     7
370
    15
100
AcDbLine
 10
232.9635219486
 20
142.8142531832
 30
0.0
 11
171.7363505284
 21
147.632936078
 31
0.0
  0
ARC
  5
59
330
1F
100
AcDbEntity
  8
0
  6
Continuous
 62
     7
370
    15
100
AcDbCircle
 10
104.3704372908
 20
69.5044507536
 30
0.0
 40
0.9962338214386921
100
AcDbArc
 50
25.7988228126
 51
90.0
  0
ARC
  5
5A
330
1F
100
AcDbEntity
  8
0
  6
Continuous
 62
     7
370
    15
100
AcDbCircle
 10
104.3704372908
 20
146.7614214025
 30
0.0
 40
0.9962338214386932
100
AcDbArc
 50
270.0
 51
334.2011771874
  0
LINE
  5
5B
330
1F
100
AcDbEntity
  8
0
  6
Continuous
 62
     7
370
    15
100
AcDbLine
 10
83.7866952906
 20
145.0642517634
 30
0.0
 11
65.4673742093
 21
144.1464501061
 31
0.0
  0
LINE
  5
5C
330
1F
100
AcDbEntity
  8
0
  6
Continuous
 62
     7
370
    15
100
AcDbLine
 10
102.7673742093
 20
146.015187581
 30
0.0
 11
96.6993350548
 21
145.7111776033
 31
0.0
  0
LINE
  5
5D
330
1F
100
AcDbEntity
  8
0
  6
Continuous
 62
     7
370
    15
100
AcDbLine
 10
96.6994583313
 20
70.5546883765
 30
0.0
 11
102.7673742093
 21
70.250684575
 31
0.0
  0
LINE
  5
5E
330
1F
100
AcDbEntity
  8
0
  6
Continuous
 62
     7
370
    15
100
AcDbLine
 10
70.4673742093
 20
71.8689210479
 30
0.0
 11
83.7873253632
 21
71.2015888258
 31
0.0
  0
LINE
  5
5F
330
1F
100
AcDbEntity
  8
0
  6
Continuous
 62
     7
370
    15
100
AcDbLine
 10
102.7673742093
 20
70.250684575
 30
0.0
 11
103.5732203637
 21
70.4666104013
 31
0.0
  0
LINE
  5
60
330
1F
100
AcDbEntity
  8
0
  6
Continuous
 62
     7
370
    15
100
AcDbLine
 10
103.5732203637
 20
145.7992617547
 30
0.0
 11
102.7673742093
 21
146.015187581
 31
0.0
  0
ARC
  5
61
330
1F
100
AcDbEntity
  8
0
  6
Continuous
 62
     7
370
    15
100
AcDbCircle
 10
103.8320394088
 20
69.500684575
 30
0.0
 40
0.9999999999999957
100
AcDbArc
 50
90.0
 51
105.0
  0
ARC
  5
62
330
1F
100
AcDbEntity
  8
0
  6
Continuous
 62
     7
370
    15
100
AcDbCircle
 10
103.8320394088
 20
146.765187581
 30
0.0
 40
1.0
100
AcDbArc
 50
255.0
 51
270.0
  0
LINE
  5
63
330
1F
100
AcDbEntity
  8
0
  6
Continuous
 62
     7
370
    15
100
AcDbLine
 10
103.8320394088
 20
70.500684575
 30
0.0
 11
104.3704372908
 21
70.500684575
 31
0.0
  0
LINE
  5
64
330
1F
100
AcDbEntity
  8
0
  6
Continuous
 62
     7
370
    15
100
AcDbLine
 10
104.3704372908
 20
145.765187581
 30
0.0
 11
103.8320394088
 21
145.765187581
 31
0.0
  0
ARC
  5
65
330
1F
100
AcDbEntity
  8
0
  6
Continuous
 62
     7
370
    15
100
AcDbCircle
 10
232.7673742093
 20
75.9439123072
 30
0.0
 40
2.500000000000005
100
AcDbArc
 50
274.5
 51
0.0
  0
ARC
  5
66
330
1F
100
AcDbEntity
  8
0
  6
Continuous
 62
     7
370
    15
100
AcDbCircle
 10
232.7673742093
 20
140.3219598489
 30
0.0
 40
2.5
100
AcDbArc
 50
0.0
 51
85.5
  0
LINE
  5
67
330
1F
100
AcDbEntity
  8
0
  6
Continuous
 62
     7
370
    15
100
AcDbLine
 10
57.0173742093
 20
75.882936078
 30
0.0
 11
68.5673742093
 21
75.882936078
 31
0.0
  0
ARC
  5
68
330
1F
100
AcDbEntity
  8
0
  6
Continuous
 62
     7
370
    15
100
AcDbCircle
 10
68.5673742093
 20
73.982936078
 30
0.0
 40
1.900000000000007
100
AcDbArc
 50
35.6630613694
 51
90.0
  0
ARC
  5
69
330
1F
100
AcDbEntity
  8
0
  6
Continuous
 62
     7
370
    15
100
AcDbCircle
 10
63.5673742093
 20
142.282936078
 30
0.0
 40
1.900000000000006
100
AcDbArc
 50
270.0
 51
312.7708047792
  0
LINE
  5
6A
330
1F
100
AcDbEntity
  8
0
  6
Continuous
 62
     7
370
    15
100
AcDbLine
 10
57.0173742093
 20
140.382936078
 30
0.0
 11
55.4241578473
 21
138.7897197161
 31
0.0
  0
LINE
  5
6B
330
1F
100
AcDbEntity
  8
0
  6
Continuous
 62
     7
370
    15
100
AcDbLine
 10
55.4249411044
 20
77.4753691829
 30
0.0
 11
57.0173742093
 21
75.882936078
 31
0.0
  0
LINE
  5
6C
330
1F
100
AcDbEntity
  8
0
  6
Continuous
 62
     7
370
    15
100
AcDbLine
 10
63.5673742093
 20
140.382936078
 30
0.0
 11
57.0173742093
 21
140.382936078
 31
0.0
  0
LINE
  5
6D
330
1F
100
AcDbEntity
  8
0
  6
Continuous
 62
     7
370
    15
100
AcDbLine
 10
235.2673742093
 20
80.1337076366
 30
0.0
 11
235.3698423284
 21
77.525719852
 31
0.0
  0
LINE
  5
6E
330
1F
100
AcDbEntity
  8
0
  6
Continuous
 62
     7
370
    15
100
AcDbLine
 10
235.2913226969
 20
138.7432373487
 30
0.0
 11
235.2673742093
 21
138.1337076366
 31
0.0
  0
LINE
  5
6F
330
1F
100
AcDbEntity
  8
0
  6
Continuous
 62
     7
370
    15
100
AcDbLine
 10
123.3573742093
 20
61.761547791
 30
0.0
 11
123.3573742093
 21
139.482936078
 31
0.0
  0
SPLINE
  5
70
330
1F
100
AcDbEntity
  8
0
  6
Continuous
 62
     7
370
    15
100
AcDbSpline
210
0.0
220
0.0
230
1.0
 70
     8
 71
     3
 72
     8
 73
     4
 74
     0
 42
0.00000001
 43
0.00000001
 40
0.0
 40
0.0
 40
0.0
 40
0.0
 40
1.0
 40
1.0
 40
1.0
 40
1.0
 10
123.3573742092849
 20
61.76154779098317
 30
0.0
 10
122.9071477450071
 20
60.96009242835841
 30
0.0
 10
122.4564499177637
 20
60.15890241679774
 30
0.0
 10
122.0053451883635
 20
59.35794248497783
 30
0.0
  0
LINE
  5
71
330
1F
100
AcDbEntity
  8
0
  6
Continuous
 62
     7
370
    15
100
AcDbLine
 10
122.0053451884
 20
59.357942485
 30
0.0
 11
122.0053451884
 21
139.482936078
 31
0.0
  0
SPLINE
  5
72
330
1F
100
AcDbEntity
  8
0
  6
Continuous
 62
     7
370
    15
100
AcDbSpline
210
0.0
220
0.0
230
1.0
 70
    24
 71
     3
 72
     8
 73
     4
 74
     0
 42
0.00000001
 43
0.00000001
 40
0.0
 40
0.0
 40
0.0
 40
0.0
 40
1.0
 40
1.0
 40
1.0
 40
1.0
 10
122.0053451883635
 20
139.4829360780066
 30
0.0
 10
122.4621467606917
 20
139.4829360780066
 30
0.0
 10
122.9131613269309
 20
139.4829360780066
 30
0.0
 10
123.3573742092849
 20
139.4829360780066
 30
0.0
  0
LINE
  5
73
330
1F
100
AcDbEntity
  8
0
  6
Continuous
 62
     7
370
    15
100
AcDbLine
 10
133.2173742093
 20
59.357942485
 30
0.0
 11
128.5294032302
 21
59.357942485
 31
0.0
  0
LINE
  5
74
330
1F
100
AcDbEntity
  8
0
  6
Continuous
 62
     7
370
    15
100
AcDbLine
 10
128.5294032302
 20
59.357942485
 30
0.0
 11
128.5294032302
 21
139.482936078
 31
0.0
  0
LINE
  5
75
330
1F
100
AcDbEntity
  8
0
  6
Continuous
 62
     7
370
    15
100
AcDbLine
 10
128.5294032302
 20
139.482936078
 30
0.0
 11
133.2173742093
 21
139.482936078
 31
0.0
  0
SPLINE
  5
76
330
1F
100
AcDbEntity
  8
0
  6
Continuous
 62
     7
370
    15
100
AcDbSpline
210
0.0
220
0.0
230
1.0
 70
     8
 71
     3
 72
     8
 73
     4
 74
     0
 42
0.00000001
 43
0.00000001
 40
0.0
 40
0.0
 40
0.0
 40
0.0
 40
1.0
 40
1.0
 40
1.0
 40
1.0
 10
128.5294032302063
 20
59.35794248497783
 30
0.0
 10
128.0782985008061
 20
60.15890241679774
 30
0.0
 10
127.6276006735627
 20
60.96009242835841
 30
0.0
 10
127.1773742092849
 20
61.76154779098317
 30
0.0
  0
LINE
  5
77
330
1F
100
AcDbEntity
  8
0
  6
Continuous
 62
     7
370
    15
100
AcDbLine
 10
127.1773742093
 20
61.761547791
 30
0.0
 11
127.1773742093
 21
139.482936078
 31
0.0
  0
SPLINE
  5
78
330
1F
100
AcDbEntity
  8
0
  6
Continuous
 62
     7
370
    15
100
AcDbSpline
210
0.0
220
0.0
230
1.0
 70
    24
 71
     3
 72
     8
 73
     4
 74
     0
 42
0.00000001
 43
0.00000001
 40
0.0
 40
0.0
 40
0.0
 40
0.0
 40
1.0
 40
1.0
 40
1.0
 40
1.0
 10
127.1773742092849
 20
139.4829360780066
 30
0.0
 10
127.6215870916388
 20
139.4829360780066
 30
0.0
 10
128.072601657878
 20
139.4829360780066
 30
0.0
 10
128.5294032302063
 20
139.4829360780066
 30
0.0
  0
LINE
  5
79
330
1F
100
AcDbEntity
  8
0
  6
Continuous
 62
     7
370
    15
100
AcDbLine
 10
105.2673742093
 20
58.632936078
 30
0.0
 11
105.2673742093
 21
157.6329360735
 31
0.0
  0
LINE
  5
7A
330
1F
100
AcDbEntity
  8
0
  6
Continuous
 62
     7
370
    15
100
AcDbLine
 10
134.2173742093
 20
60.3835905328
 30
0.0
 11
134.2173742093
 21
139.482936078
 31
0.0
  0
SPLINE
  5
7B
330
1F
100
AcDbEntity
  8
0
  6
Continuous
 62
     7
370
    15
100
AcDbSpline
210
0.0
220
0.0
230
1.0
 70
     8
 71
     3
 72
    14
 73
    10
 74
     0
 42
0.00000001
 43
0.00000001
 40
0.0
 40
0.0
 40
0.0
 40
0.0
 40
0.25
 40
0.25
 40
0.5
 40
0.5
 40
0.75
 40
0.75
 40
1.0
 40
1.0
 40
1.0
 40
1.0
 10
134.2173742092849
 20
60.38359053275334
 30
0.0
 10
134.2173742092849
 20
60.25016483669879
 30
0.0
 10
134.192063109374
 20
60.11831702885444
 30
0.0
 10
134.0937283455293
 20
59.87179448016034
 30
0.0
 10
134.0205843412732
 20
59.7579892919198
 30
0.0
 10
133.8371462801775
 20
59.56753211497252
 30
0.0
 10
133.7254599458389
 20
59.48989725112261
 30
0.0
 10
133.4829565155326
 20
59.38560584101014
 30
0.0
 10
133.3495820868384
 20
59.35794248497778
 30
0.0
 10
133.2173742092849
 20
59.35794248497779
 30
0.0
  0
SPLINE
  5
7C
330
1F
100
AcDbEntity
  8
0
  6
Continuous
 62
     7
370
    15
100
AcDbSpline
210
0.0
220
0.0
230
1.0
 70
    24
 71
     3
 72
    12
 73
     8
 74
     0
 42
0.00000001
 43
0.00000001
 40
0.0
 40
0.0
 40
0.0
 40
0.0
 40
0.2500000000000032
 40
0.2500000000000032
 40
0.5000000000000064
 40
0.5000000000000064
 40
1.0
 40
1.0
 40
1.0
 40
1.0
 10
133.2173742092849
 20
139.4829360780066
 30
0.0
 10
133.3694644462298
 20
139.4829360780066
 30
0.0
 10
133.5179237073053
 20
139.4829360780066
 30
0.0
 10
133.775327339571
 20
139.4829360780066
 30
0.0
 10
133.8844320874129
 20
139.4829360780066
 30
0.0
 10
134.1384915638204
 20
139.4829360780066
 30
0.0
 10
134.2173742092849
 20
139.4829360780066
 30
0.0
 10
134.2173742092849
 20
139.4829360780066
 30
0.0
  0
SPLINE
  5
7D
330
1F
100
AcDbEntity
  8
0
  6
Continuous
 62
     7
370
    15
100
AcDbSpline
210
0.0
220
0.0
230
1.0
 70
     8
 71
     3
 72
    80
 73
    76
 74
     0
 42
0.00000001
 43
0.00000001
 40
-0.0312500000000001
 40
-0.0312500000000001
 40
0.0
 40
0.0
 40
0.0312499999999995
 40
0.0312499999999995
 40
0.0468749999999993
 40
0.0468749999999993
 40
0.0624999999999991
 40
0.0624999999999991
 40
0.0937499999999988
 40
0.0937499999999988
 40
0.1249999999999986
 40
0.1249999999999986
 40
0.1562499999999983
 40
0.1562499999999983
 40
0.1874999999999981
 40
0.1874999999999981
 40
0.2187499999999978
 40
0.2187499999999978
 40
0.2499999999999976
 40
0.2499999999999976
 40
0.2812499999999973
 40
0.2812499999999973
 40
0.3124999999999971
 40
0.3124999999999971
 40
0.3281249999999971
 40
0.3281249999999971
 40
0.3437499999999971
 40
0.3437499999999971
 40
0.3749999999999973
 40
0.3749999999999973
 40
0.4062499999999975
 40
0.4062499999999975
 40
0.4218749999999975
 40
0.4218749999999975
 40
0.4374999999999974
 40
0.4374999999999974
 40
0.4687499999999973
 40
0.4687499999999973
 40
0.4999999999999972
 40
0.4999999999999972
 40
0.531249999999997
 40
0.531249999999997
 40
0.562499999999997
 40
0.562499999999997
 40
0.5937499999999969
 40
0.5937499999999969
 40
0.6249999999999969
 40
0.6249999999999969
 40
0.6562499999999968
 40
0.6562499999999968
 40
0.6874999999999968
 40
0.6874999999999968
 40
0.7031249999999968
 40
0.7031249999999968
 40
0.7187499999999969
 40
0.7187499999999969
 40
0.7499999999999973
 40
0.7499999999999973
 40
0.7812499999999979
 40
0.7812499999999979
 40
0.7968749999999982
 40
0.7968749999999982
 40
0.8124999999999984
 40
0.8124999999999984
 40
0.8437499999999988
 40
0.8437499999999988
 40
0.874999999999999
 40
0.874999999999999
 40
0.9062499999999993
 40
0.9062499999999993
 40
0.9374999999999996
 40
0.9374999999999996
 40
0.9687499999999999
 40
0.9687499999999999
 40
1.0
 40
1.0
 40
1.03125
 40
1.03125
 10
113.9368288965086
 20
151.5475655416379
 30
0.0
 10
114.5979195220612
 20
151.5475655416379
 30
0.0
 10
114.9228996513128
 20
151.5637737730201
 30
0.0
 10
115.4023730625592
 20
151.6111384050397
 30
0.0
 10
115.5608548804
 20
151.6307926169303
 30
0.0
 10
115.8750744129043
 20
151.6779037731229
 30
0.0
 10
116.0311946965847
 20
151.7054850926176
 30
0.0
 10
116.4852487255413
 20
151.7980208794114
 30
0.0
 10
116.7723521084811
 20
151.8730913130079
 30
0.0
 10
117.3157066645081
 20
152.0483296216185
 30
0.0
 10
117.5728102757137
 20
152.1493309194568
 30
0.0
 10
118.0337165306525
 20
152.3666871179176
 30
0.0
 10
118.2406142398675
 20
152.4838514496899
 30
0.0
 10
118.6061395538597
 20
152.7339213739185
 30
0.0
 10
118.7613450759856
 20
152.8648674626775
 30
0.0
 10
119.0107754625853
 20
153.1306024063899
 30
0.0
 10
119.1068654183705
 20
153.2673559997008
 30
0.0
 10
119.2353842675641
 20
153.5414215745398
 30
0.0
 10
119.2671951377419
 20
153.6763616650086
 30
0.0
 10
119.2675517875151
 20
153.9418333020774
 30
0.0
 10
119.2350545353181
 20
154.0736577792187
 30
0.0
 10
119.1074290616036
 20
154.323107378839
 30
0.0
 10
119.0130006605517
 20
154.441540070767
 30
0.0
 10
118.8251398405661
 20
154.6104092678611
 30
0.0
 10
118.754311841763
 20
154.6654952629813
 30
0.0
 10
118.5995899497977
 20
154.7707480914697
 30
0.0
 10
118.5156134796143
 20
154.8210833202301
 30
0.0
 10
118.2442898099698
 20
154.9656591527681
 30
0.0
 10
118.0377405913675
 20
155.0535207391852
 30
0.0
 10
117.5711304511785
 20
155.2132418321847
 30
0.0
 10
117.318764881553
 20
155.2824801286518
 30
0.0
 10
116.9128635398743
 20
155.3722675178816
 30
0.0
 10
116.7729629223968
 20
155.3998334799679
 30
0.0
 10
116.4837389871499
 20
155.4503242808942
 30
0.0
 10
116.3338995308606
 20
155.4732877197449
 30
0.0
 10
115.8797829612498
 20
155.5339182361637
 30
0.0
 10
115.568131742513
 20
155.5639922649596
 30
0.0
 10
114.9271352776006
 20
155.6045818522182
 30
0.0
 10
114.5956076496484
 20
155.6148940824342
 30
0.0
 10
113.942816604577
 20
155.6149696496
 30
0.0
 10
113.6182803995451
 20
155.6050680441323
 30
0.0
 10
112.9730109501287
 20
155.564581513607
 30
0.0
 10
112.657267943966
 20
155.5341202137223
 30
0.0
 10
112.0553786489823
 20
155.4539695422858
 30
0.0
 10
111.7646294181708
 20
155.4036873104786
 30
0.0
 10
111.2177176264863
 20
155.2830171277056
 30
0.0
 10
110.9659402626494
 20
155.2137932685356
 30
0.0
 10
110.5045522700283
 20
155.0563415408949
 30
0.0
 10
110.2932829904302
 20
154.9669930662212
 30
0.0
 10
109.929978638054
 20
154.7737451955204
 30
0.0
 10
109.7761719896112
 20
154.6696172036411
 30
0.0
 10
109.5875525200138
 20
154.5009928174576
 30
0.0
 10
109.5315220338047
 20
154.4423644157827
 30
0.0
 10
109.4359482720685
 20
154.3229095009565
 30
0.0
 10
109.3961853550435
 20
154.2619897121182
 30
0.0
 10
109.3004136047314
 20
154.0755849859443
 30
0.0
 10
109.2676907656053
 20
153.9464721681493
 30
0.0
 10
109.2670621792762
 20
153.6778152451935
 30
0.0
 10
109.299248324011
 20
153.5424445044367
 30
0.0
 10
109.3941590258665
 20
153.3388941962007
 30
0.0
 10
109.4336258092655
 20
153.2709222721373
 30
0.0
 10
109.5285558079864
 20
153.1348300490064
 30
0.0
 10
109.5843126357498
 20
153.066479948797
 30
0.0
 10
109.7722527537197
 20
152.8657769357548
 30
0.0
 10
109.9256142234358
 20
152.7363886619421
 30
0.0
 10
110.2878784583162
 20
152.4877232298923
 30
0.0
 10
110.4987269317821
 20
152.3679135875241
 30
0.0
 10
110.959396902101
 20
152.1503912999515
 30
0.0
 10
111.2107712816848
 20
152.0513062001155
 30
0.0
 10
111.756679168583
 20
151.8746337261987
 30
0.0
 10
112.0475017432342
 20
151.7985766380646
 30
0.0
 10
112.6488283580142
 20
151.6757316607116
 30
0.0
 10
112.9633469426266
 20
151.6280255356585
 30
0.0
 10
113.6099283987466
 20
151.5637770005389
 30
0.0
 10
113.9368288965086
 20
151.5475655416379
 30
0.0
 10
114.5979195220612
 20
151.5475655416379
 30
0.0
  0
LINE
  5
7E
330
1F
100
AcDbEntity
  8
0
  6
Continuous
 62
     7
370
    15
100
AcDbLine
 10
110.2173742093
 20
139.482936078
 30
0.0
 11
122.0053451884
 21
139.482936078
 31
0.0
  0
LINE
  5
7F
330
1F
100
AcDbEntity
  8
0
  6
Continuous
 62
     7
370
    15
100
AcDbLine
 10
122.0053451884
 20
59.357942485
 30
0.0
 11
120.2173742093
 21
59.357942485
 31
0.0
  0
SPLINE
  5
80
330
1F
100
AcDbEntity
  8
0
  6
Continuous
 62
     7
370
    15
100
AcDbSpline
210
0.0
220
0.0
230
1.0
 70
     8
 71
     3
 72
    30
 73
    26
 74
     0
 42
0.00000001
 43
0.00000001
 40
0.0
 40
0.0
 40
0.0
 40
0.0
 40
0.1250000000000002
 40
0.1250000000000002
 40
0.1875000000000003
 40
0.1875000000000003
 40
0.2500000000000004
 40
0.2500000000000004
 40
0.3750000000000001
 40
0.3750000000000001
 40
0.4374999999999998
 40
0.4374999999999998
 40
0.4999999999999996
 40
0.4999999999999996
 40
0.6249999999999996
 40
0.6249999999999996
 40
0.6874999999999997
 40
0.6874999999999997
 40
0.7499999999999997
 40
0.7499999999999997
 40
0.8124999999999998
 40
0.8124999999999998
 40
0.8749999999999999
 40
0.8749999999999999
 40
1.0
 40
1.0
 40
1.0
 40
1.0
 10
120.2173742092849
 20
59.35794248497783
 30
0.0
 10
119.5546295154398
 20
59.35794248497783
 30
0.0
 10
118.9033736563241
 20
59.34310240838902
 30
0.0
 10
117.9429231180658
 20
59.3007328441594
 30
0.0
 10
117.6255316748329
 20
59.28325474138023
 30
0.0
 10
116.996368173278
 20
59.24192645482792
 30
0.0
 10
116.6842199868363
 20
59.21800118137023
 30
0.0
 10
115.776912684988
 20
59.13919466490331
 30
0.0
 10
115.2034877273468
 20
59.07688864492685
 30
0.0
 10
114.3896108577721
 20
58.97375932468749
 30
0.0
 10
114.1248046612023
 20
58.93757540564098
 30
0.0
 10
113.6178972503879
 20
58.86378062144048
 30
0.0
 10
113.3765030990344
 20
58.82630676266883
 30
0.0
 10
112.6873616269021
 20
58.71359481932909
 30
0.0
 10
112.2743068120379
 20
58.63805872185531
 30
0.0
 10
111.7261519926628
 20
58.52966546483781
 30
0.0
 10
111.5566893853172
 20
58.49459323317456
 30
0.0
 10
111.2486721373018
 20
58.42835777257471
 30
0.0
 10
111.1092921166935
 20
58.39703107581998
 30
0.0
 10
110.8595066040667
 20
58.33862230423905
 30
0.0
 10
110.7491004914128
 20
58.3115390690562
 30
0.0
 10
110.5578426377751
 20
58.26227931444262
 30
0.0
 10
110.4767231194908
 20
58.24001733463497
 30
0.0
 10
110.2825761993824
 20
58.1824504274667
 30
0.0
 10
110.2173742092848
 20
58.15619082268071
 30
0.0
 10
110.2173742092849
 20
58.14293707820668
 30
0.0
  0
LINE
  5
81
330
1F
100
AcDbEntity
  8
0
  6
Continuous
 62
     7
370
    15
100
AcDbLine
 10
110.2173742093
 20
58.1429370782
 30
0.0
 11
110.2173742093
 21
58.132936078
 31
0.0
  0
SPLINE
  5
82
330
1F
100
AcDbEntity
  8
0
  6
Continuous
 62
     7
370
    15
100
AcDbSpline
210
0.0
220
0.0
230
1.0
 70
     8
 71
     3
 72
    23
 73
    19
 74
     0
 42
0.00000001
 43
0.00000001
 40
0.0
 40
0.0
 40
0.0
 40
0.0
 40
0.0520256687590417
 40
0.1044186119084699
 40
0.1579654762732603
 40
0.2119084390155455
 40
0.2639329008030786
 40
0.3697142245600881
 40
0.4235868577364621
 40
0.4762679679182533
 40
0.5833878371337101
 40
0.6379530306539528
 40
0.6910551819358521
 40
0.7445319929992287
 40
0.7992014233075218
 40
0.8542881036302091
 40
0.9066815619543741
 40
1.0
 40
1.0
 40
1.0
 40
1.0
 10
120.2173742092849
 20
157.1227309336702
 30
0.0
 10
119.9443618120899
 20
157.124052502177
 30
0.0
 10
119.3964096909757
 20
157.1267049687827
 30
0.0
 10
118.5732633335204
 20
157.1481798572104
 30
0.0
 10
117.7520182329282
 20
157.1823975758784
 30
0.0
 10
116.95058942282
 20
157.2294494860458
 30
0.0
 10
115.9182061686771
 20
157.3064384368716
 30
0.0
 10
114.9409581540531
 20
157.4023156875321
 30
0.0
 10
114.0399111427971
 20
157.5092451353203
 30
0.0
 10
113.1909373636957
 20
157.6210919431608
 30
0.0
 10
112.4333689180875
 20
157.7353205418901
 30
0.0
 10
111.788380627638
 20
157.8419002882539
 30
0.0
 10
111.3638067544402
 20
157.9158302446551
 30
0.0
 10
111.0012501047911
 20
157.9817208027119
 30
0.0
 10
110.7000485476674
 20
158.038417153926
 30
0.0
 10
110.4727949756327
 20
158.0823534001607
 30
0.0
 10
110.2666876784102
 20
158.1230118469888
 30
0.0
 10
110.2460007403771
 20
158.1271952863782
 30
0.0
 10
110.2327521807654
 20
158.129874491297
 30
0.0
  0
LINE
  5
83
330
1F
100
AcDbEntity
  8
0
  6
Continuous
 62
     7
370
    15
100
AcDbLine
 10
122.0053451884
 20
157.1227309337
 30
0.0
 11
120.2173742093
 21
157.1227309337
 31
0.0
  0
LINE
  5
84
330
1F
100
AcDbEntity
  8
0
  6
Continuous
 62
     7
370
    15
100
AcDbLine
 10
122.0053451884
 20
147.0838988389
 30
0.0
 11
122.0053451884
 21
157.1227309337
 31
0.0
  0
LINE
  5
85
330
1F
100
AcDbEntity
  8
0
  6
Continuous
 62
     7
370
    15
100
AcDbLine
 10
119.9253410575
 20
147.0838988389
 30
0.0
 11
122.0053451884
 21
147.0838988389
 31
0.0
  0
SPLINE
  5
86
330
1F
100
AcDbEntity
  8
0
  6
Continuous
 62
     7
370
    15
100
AcDbSpline
210
0.0
220
0.0
230
1.0
 70
     8
 71
     3
 72
    22
 73
    18
 74
     0
 42
0.00000001
 43
0.00000001
 40
0.0
 40
0.0
 40
0.0
 40
0.0
 40
0.2500000000000002
 40
0.2500000000000002
 40
0.3750000000000003
 40
0.3750000000000003
 40
0.5000000000000004
 40
0.5000000000000004
 40
0.6250000000000004
 40
0.6250000000000004
 40
0.7500000000000004
 40
0.7500000000000004
 40
0.8750000000000004
 40
0.8750000000000004
 40
0.9375000000000002
 40
0.9375000000000002
 40
1.0
 40
1.0
 40
1.0
 40
1.0
 10
110.2173742092848
 20
139.4829360780066
 30
0.0
 10
110.4200991652039
 20
140.5021824198712
 30
0.0
 10
110.7348428869993
 20
141.4612905698106
 30
0.0
 10
111.4428983566703
 20
142.8037696473198
 30
0.0
 10
111.7213609868879
 20
143.2379782300598
 30
0.0
 10
112.3601283935251
 20
144.049605945562
 30
0.0
 10
112.7205420733153
 20
144.4288862384988
 30
0.0
 10
113.5380743053046
 20
145.1318448175198
 30
0.0
 10
113.9992422885917
 20
145.4568736352204
 30
0.0
 10
114.9972325350755
 20
146.0218889586113
 30
0.0
 10
115.5369917290678
 20
146.2655925528178
 30
0.0
 10
116.7115846930991
 20
146.6697924804627
 30
0.0
 10
117.323320879091
 20
146.8222296735083
 30
0.0
 10
118.2752301039527
 20
146.977557221117
 30
0.0
 10
118.5984632682134
 20
147.017062001167
 30
0.0
 10
119.2575264394886
 20
147.0703711218357
 30
0.0
 10
119.5915904500626
 20
147.0838988388936
 30
0.0
 10
119.9253410574642
 20
147.0838988388936
 30
0.0
  0
SPLINE
  5
87
330
1F
100
AcDbEntity
  8
0
  6
Continuous
 62
     7
370
    15
100
AcDbSpline
210
0.0
220
0.0
230
1.0
 70
     8
 71
     3
 72
    12
 73
     8
 74
     0
 42
0.00000001
 43
0.00000001
 40
0.0
 40
0.0
 40
0.0
 40
0.0
 40
0.25
 40
0.25
 40
0.5
 40
0.5
 40
1.0
 40
1.0
 40
1.0
 40
1.0
 10
124.1573742092849
 20
63.493260619957
 30
0.0
 10
124.0516135559359
 20
63.49326061995697
 30
0.0
 10
123.943625927753
 20
63.47072111395657
 30
0.0
 10
123.7490312624874
 20
63.38615048196128
 30
0.0
 10
123.6601593496486
 20
63.32366882920248
 30
0.0
 10
123.4409670573227
 20
63.09427987773032
 30
0.0
 10
123.3573742092848
 20
62.88169654020793
 30
0.0
 10
123.3573742092848
 20
62.66975729561175
 30
0.0
  0
SPLINE
  5
88
330
1F
100
AcDbEntity
  8
0
  6
Continuous
 62
     7
370
    15
100
AcDbSpline
210
0.0
220
0.0
230
1.0
 70
    24
 71
     3
 72
    14
 73
    10
 74
     0
 42
0.00000001
 43
0.00000001
 40
0.0
 40
0.0
 40
0.0
 40
0.0
 40
0.25
 40
0.25
 40
0.5
 40
0.5
 40
0.75
 40
0.75
 40
1.0
 40
1.0
 40
1.0
 40
1.0
 10
123.3573742092848
 20
139.4829360780066
 30
0.0
 10
123.3573742092848
 20
139.4829360780066
 30
0.0
 10
123.3730885297508
 20
139.4829360780066
 30
0.0
 10
123.4367725082192
 20
139.4829360780066
 30
0.0
 10
123.4853757026296
 20
139.4829360780066
 30
0.0
 10
123.6180592250552
 20
139.4829360780066
 30
0.0
 10
123.7031613293659
 20
139.4829360780066
 30
0.0
 10
123.9096035642759
 20
139.4829360780066
 30
0.0
 10
124.0336845058989
 20
139.4829360780066
 30
0.0
 10
124.1573742092849
 20
139.4829360780066
 30
0.0
  0
SPLINE
  5
89
330
1F
100
AcDbEntity
  8
0
  6
Continuous
 62
     7
370
    15
100
AcDbSpline
210
0.0
220
0.0
230
1.0
 70
     8
 71
     3
 72
    14
 73
    10
 74
     0
 42
0.00000001
 43
0.00000001
 40
0.0
 40
0.0
 40
0.0
 40
0.0
 40
0.25
 40
0.25
 40
0.5
 40
0.5
 40
0.75
 40
0.75
 40
1.0
 40
1.0
 40
1.0
 40
1.0
 10
127.1773742092849
 20
62.66975729561175
 30
0.0
 10
127.1773742092849
 20
62.77680137660613
 30
0.0
 10
127.1572565221267
 20
62.88203651684857
 30
0.0
 10
127.0787653328611
 20
63.07988700369626
 30
0.0
 10
127.0206087080599
 20
63.17093876726118
 30
0.0
 10
126.8740934524418
 20
63.32410486118597
 30
0.0
 10
126.7854509038007
 20
63.38639930739537
 30
0.0
 10
126.5897275810004
 20
63.47119309293137
 30
0.0
 10
126.4844963899294
 20
63.49326061995698
 30
0.0
 10
126.3773742092849
 20
63.493260619957
 30
0.0
  0
SPLINE
  5
8A
330
1F
100
AcDbEntity
  8
0
  6
Continuous
 62
     7
370
    15
100
AcDbSpline
210
0.0
220
0.0
230
1.0
 70
    24
 71
     3
 72
    14
 73
    10
 74
     0
 42
0.00000001
 43
0.00000001
 40
0.0
 40
0.0
 40
0.0
 40
0.0
 40
0.25
 40
0.25
 40
0.5
 40
0.5
 40
0.75
 40
0.75
 40
1.0
 40
1.0
 40
1.0
 40
1.0
 10
126.3773742092849
 20
139.4829360780066
 30
0.0
 10
126.50114397405
 20
139.4829360780066
 30
0.0
 10
126.6255110780569
 20
139.4829360780066
 30
0.0
 10
126.8318675467829
 20
139.4829360780066
 30
0.0
 10
126.9171956902013
 20
139.4829360780066
 30
0.0
 10
127.0493877489165
 20
139.4829360780066
 30
0.0
 10
127.0980329926671
 20
139.4829360780066
 30
0.0
 10
127.1615687843959
 20
139.4829360780066
 30
0.0
 10
127.1773742092849
 20
139.4829360780066
 30
0.0
 10
127.1773742092849
 20
139.4829360780066
 30
0.0
  0
LINE
  5
8B
330
1F
100
AcDbEntity
  8
0
  6
Continuous
 62
     7
370
    15
100
AcDbLine
 10
126.3773742093
 20
63.49326062
 30
0.0
 11
124.1573742093
 21
63.49326062
 31
0.0
  0
LINE
  5
8C
330
1F
100
AcDbEntity
  8
0
  6
Continuous
 62
     7
370
    15
100
AcDbLine
 10
124.1573742093
 20
139.482936078
 30
0.0
 11
126.3773742093
 21
139.482936078
 31
0.0
  0
SPLINE
  5
8D
330
1F
100
AcDbEntity
  8
0
  6
Continuous
 62
     7
370
    15
100
AcDbSpline
210
0.0
220
0.0
230
1.0
 70
     8
 71
     3
 72
     9
 73
     5
 74
     0
 42
0.00000001
 43
0.00000001
 40
0.0
 40
0.0
 40
0.0
 40
0.0
 40
0.5
 40
1.0
 40
1.0
 40
1.0
 40
1.0
 10
134.2173742092849
 20
139.7150116906069
 30
0.0
 10
134.2173742092848
 20
139.6763538586961
 30
0.0
 10
134.2178258158005
 20
139.5990167103368
 30
0.0
 10
134.2191775438699
 20
139.5216367399743
 30
0.0
 10
134.2200778347148
 20
139.4829360780066
 30
0.0
  0
SPLINE
  5
8E
330
1F
100
AcDbEntity
  8
0
  6
Continuous
 62
     7
370
    15
100
AcDbSpline
210
0.0
220
0.0
230
1.0
 70
     8
 71
     3
 72
    68
 73
    64
 74
     0
 42
0.00000001
 43
0.00000001
 40
-0.03125
 40
-0.03125
 40
0.0
 40
0.0
 40
0.03125
 40
0.03125
 40
0.0625
 40
0.0625
 40
0.09375
 40
0.09375
 40
0.125
 40
0.125
 40
0.15625
 40
0.15625
 40
0.1875
 40
0.1875
 40
0.21875
 40
0.21875
 40
0.25
 40
0.25
 40
0.28125
 40
0.28125
 40
0.3125
 40
0.3125
 40
0.34375
 40
0.34375
 40
0.375
 40
0.375
 40
0.40625
 40
0.40625
 40
0.4375
 40
0.4375
 40
0.46875
 40
0.46875
 40
0.5
 40
0.5
 40
0.53125
 40
0.53125
 40
0.5625
 40
0.5625
 40
0.625
 40
0.625
 40
0.65625
 40
0.65625
 40
0.6875
 40
0.6875
 40
0.71875
 40
0.71875
 40
0.75
 40
0.75
 40
0.78125
 40
0.78125
 40
0.8125
 40
0.8125
 40
0.84375
 40
0.84375
 40
0.875
 40
0.875
 40
0.90625
 40
0.90625
 40
0.9375
 40
0.9375
 40
0.96875
 40
0.96875
 40
1.0
 40
1.0
 40
1.03125
 40
1.03125
 10
144.6510996489625
 20
110.3614372055174
 30
0.0
 10
144.9865771362453
 20
110.6563617842789
 30
0.0
 10
145.1658171096381
 20
110.7851643549093
 30
0.0
 10
145.545586978131
 20
111.0082913830797
 30
0.0
 10
145.74800786353
 20
111.1032195093239
 30
0.0
 10
146.1656957620285
 20
111.2541962252167
 30
0.0
 10
146.3790493009901
 20
111.309986548569
 30
0.0
 10
146.8144829209637
 20
111.3834874784804
 30
0.0
 10
147.03866397323
 20
111.4009757026033
 30
0.0
 10
147.4809871790544
 20
111.3959480188613
 30
0.0
 10
147.7001177289635
 20
111.3739829043248
 30
0.0
 10
148.134300085357
 20
111.2909748667231
 30
0.0
 10
148.3505880726472
 20
111.2290822059369
 30
0.0
 10
148.7619011632062
 20
111.0696558231553
 30
0.0
 10
148.9589951089787
 20
110.97198405759
 30
0.0
 10
149.3354131008442
 20
110.7393126555208
 30
0.0
 10
149.5145566692768
 20
110.6036845515498
 30
0.0
 10
149.8381209097132
 20
110.3052928462509
 30
0.0
 10
149.9848070746619
 20
110.1413402345838
 30
0.0
 10
150.2458334010605
 20
109.7817589084109
 30
0.0
 10
150.3579181343057
 20
109.58837923768
 30
0.0
 10
150.5376072718773
 20
109.1867829132783
 30
0.0
 10
150.6068656170023
 20
108.975334091233
 30
0.0
 10
150.6983149374341
 20
108.5388508335221
 30
0.0
 10
150.7196908020208
 20
108.3192833022256
 30
0.0
 10
150.7146648519264
 20
107.8775457160928
 30
0.0
 10
150.6873344762014
 20
107.6533250795518
 30
0.0
 10
150.5864770549586
 20
107.2228539148538
 30
0.0
 10
150.5133475602016
 20
107.014360441578
 30
0.0
 10
150.3215892270384
 20
106.6108727952081
 30
0.0
 10
150.2057014695242
 20
106.4218760521294
 30
0.0
 10
149.938362945381
 20
106.0702417398721
 30
0.0
 10
149.7848068741482
 20
105.9057783640107
 30
0.0
 10
149.452643327539
 20
105.6131219923883
 30
0.0
 10
149.2738039405565
 20
105.4838674316689
 30
0.0
 10
148.8912874698208
 20
105.2585384603111
 30
0.0
 10
148.6884293600527
 20
105.1634789554634
 30
0.0
 10
148.0662458414649
 20
104.9379428539994
 30
0.0
 10
147.6193070866596
 20
104.8627858534592
 30
0.0
 10
146.9581307278146
 20
104.8696637397245
 30
0.0
 10
146.7363504366608
 20
104.8915712524003
 30
0.0
 10
146.2990753620494
 20
104.9751489996705
 30
0.0
 10
146.0870948177537
 20
105.0358745143759
 30
0.0
 10
145.6762508066605
 20
105.1946785276246
 30
0.0
 10
145.4754713163695
 20
105.2939980556682
 30
0.0
 10
145.0981285110441
 20
105.5273700542645
 30
0.0
 10
144.9226673218871
 20
105.6601697017538
 30
0.0
 10
144.5985593188675
 20
105.9585362956856
 30
0.0
 10
144.4484505898646
 20
106.1264297640334
 30
0.0
 10
144.1888105161366
 20
106.4844139363959
 30
0.0
 10
144.0782854359662
 20
106.6745942132221
 30
0.0
 10
143.8973579201183
 20
107.0782545318798
 30
0.0
 10
143.8274162857603
 20
107.2928027741235
 30
0.0
 10
143.7369444267994
 20
107.7245445702377
 30
0.0
 10
143.7149842381325
 20
107.9442812649242
 30
0.0
 10
143.7201716357864
 20
108.3919133626882
 30
0.0
 10
143.7472722668568
 20
108.6116073499365
 30
0.0
 10
143.8479301640161
 20
109.0418953985445
 30
0.0
 10
143.9228331818718
 20
109.2547794168023
 30
0.0
 10
144.1130677962009
 20
109.654551371036
 30
0.0
 10
144.228279180251
 20
109.8430788789804
 30
0.0
 10
144.4981560009914
 20
110.1978662399003
 30
0.0
 10
144.6510996489625
 20
110.3614372055174
 30
0.0
 10
144.9865771362453
 20
110.6563617842789
 30
0.0
  0
CIRCLE
  5
8F
330
1F
100
AcDbEntity
  8
0
  6
Continuous
 62
     7
370
    15
100
AcDbCircle
 10
147.2173742093
 20
108.132936078
 30
0.0
 40
2.500000000000014
  0
LINE
  5
90
330
1F
100
AcDbEntity
  8
0
  6
Continuous
 62
     7
370
    15
100
AcDbLine
 10
171.7363505284
 20
68.632936078
 30
0.0
 11
171.7363505284
 21
147.632936078
 31
0.0
  0
SPLINE
  5
91
330
1F
100
AcDbEntity
  8
0
  6
Continuous
 62
     7
370
    15
100
AcDbSpline
210
0.0
220
0.0
230
1.0
 70
     8
 71
     3
 72
    28
 73
    24
 74
     0
 42
0.00000001
 43
0.00000001
 40
0.0
 40
0.0
 40
0.0
 40
0.0
 40
0.0344898972401712
 40
0.0819458766567513
 40
0.1307392553618881
 40
0.1790141147695807
 40
0.2285478858034631
 40
0.2795832487672748
 40
0.3319224747727878
 40
0.3863708887729483
 40
0.4422539452311721
 40
0.4993758921653399
 40
0.5580938687289726
 40
0.6162173821739501
 40
0.6760806194041945
 40
0.7045382130003645
 40
0.7332076693572408
 40
0.7625687096303829
 40
0.7921795594908311
 40
0.8462214787846143
 40
0.9020728363279087
 40
0.9522967151896393
 40
1.0
 40
1.0
 40
1.0
 40
1.0
 10
150.7069315405687
 20
147.6321357540871
 30
0.0
 10
150.7068247863785
 20
147.6321260045883
 30
0.0
 10
150.7065711449821
 20
147.6321028403779
 30
0.0
 10
150.6035654526331
 20
147.6242567204036
 30
0.0
 10
150.4206460207172
 20
147.6109099498486
 30
0.0
 10
150.1554007798607
 20
147.5928398006579
 30
0.0
 10
149.8182252011168
 20
147.5720744157954
 30
0.0
 10
149.409958148692
 20
147.5502563141796
 30
0.0
 10
148.9357848117552
 20
147.5295183869227
 30
0.0
 10
148.4043472644439
 20
147.5121908302581
 30
0.0
 10
147.8267925896699
 20
147.5005159425376
 30
0.0
 10
147.2182993490976
 20
147.4962840779109
 30
0.0
 10
146.6015958634605
 20
147.5005117752836
 30
0.0
 10
145.9926725116272
 20
147.5130377765217
 30
0.0
 10
145.5168271431837
 20
147.529137613231
 30
0.0
 10
145.1639373529197
 20
147.5442029088301
 30
0.0
 10
144.9177846677087
 20
147.5560689046566
 30
0.0
 10
144.6857704053389
 20
147.5684731735571
 30
0.0
 10
144.4125028866323
 20
147.5844203175536
 30
0.0
 10
144.1244454174037
 20
147.6031368566206
 30
0.0
 10
143.8857809021638
 20
147.6201766229809
 30
0.0
 10
143.7414827868776
 20
147.6310723827584
 30
0.0
 10
143.7277369876716
 20
147.6321372197167
 30
0.0
 10
143.7210409929151
 20
147.6326559340222
 30
0.0
  0
LINE
  5
92
330
1F
100
AcDbEntity
  8
0
  6
Continuous
 62
     7
370
    15
100
AcDbLine
 10
144.7487122063
 20
147.5652935572
 30
0.0
 11
144.8188383922
 21
147.5614130691
 31
0.0
  0
SPLINE
  5
93
330
1F
100
AcDbEntity
  8
0
  6
Continuous
 62
     7
370
    15
100
AcDbSpline
210
0.0
220
0.0
230
1.0
 70
     8
 71
     3
 72
    18
 73
    14
 74
     0
 42
0.00000001
 43
0.00000001
 40
0.0
 40
0.0
 40
0.0
 40
0.0
 40
0.0558404283208488
 40
0.1520002049498974
 40
0.2508040161625099
 40
0.355735386677747
 40
0.4675190449910341
 40
0.584159785648129
 40
0.7020402895182054
 40
0.7587920566598382
 40
0.8173937805901333
 40
0.9254889291846451
 40
1.0
 40
1.0
 40
1.0
 40
1.0
 10
143.7618050440549
 20
68.63632649754005
 30
0.0
 10
143.7557292657872
 20
68.63587268593551
 30
0.0
 10
143.7391907189013
 20
68.6346373899506
 30
0.0
 10
144.1005927162813
 20
68.66182021938842
 30
0.0
 10
144.7685907879961
 20
68.70410883297448
 30
0.0
 10
145.7254540778358
 20
68.74772041856683
 30
0.0
 10
146.8829930456465
 20
68.77251388701117
 30
0.0
 10
148.1241167764647
 20
68.76468654697224
 30
0.0
 10
149.0860684608776
 20
68.73170163230031
 30
0.0
 10
149.733299148661
 20
68.69878451270392
 30
0.0
 10
150.2496437033172
 20
68.66761426667522
 30
0.0
 10
150.6608512796782
 20
68.63736001578577
 30
0.0
 10
150.6755089672894
 20
68.63615398840683
 30
0.0
 10
150.6814899245816
 20
68.63566187816149
 30
0.0
  0
SPLINE
  5
94
330
1F
100
AcDbEntity
  8
0
  6
Continuous
 62
     7
370
    15
100
AcDbSpline
210
0.0
220
0.0
230
1.0
 70
     8
 71
     3
 72
     9
 73
     5
 74
     0
 42
0.00000001
 43
0.00000001
 40
0.0
 40
0.0
 40
0.0
 40
0.0
 40
0.0962486152453371
 40
1.0
 40
1.0
 40
1.0
 40
1.0
 10
145.6093173785329
 20
68.73843340592678
 30
0.0
 10
145.5802743633255
 20
68.7377502348372
 30
0.0
 10
145.2785244094865
 20
68.73065225126788
 30
0.0
 10
145.0370611486663
 20
68.71689354065201
 30
0.0
 10
144.8188383923325
 20
68.70445908688048
 30
0.0
  0
LINE
  5
95
330
1F
100
AcDbEntity
  8
0
  6
Continuous
 62
     7
370
    15
100
AcDbLine
 10
70.4673742093
 20
71.8689210479
 30
0.0
 11
70.4673742093
 21
74.2636028126
 31
0.0
  0
SPLINE
  5
96
330
1F
100
AcDbEntity
  8
0
  6
Continuous
 62
     7
370
    15
100
AcDbSpline
210
0.0
220
0.0
230
1.0
 70
     8
 71
     3
 72
    14
 73
    10
 74
     0
 42
0.00000001
 43
0.00000001
 40
0.0
 40
0.0
 40
0.0
 40
0.0
 40
0.25
 40
0.25
 40
0.5
 40
0.5
 40
0.75
 40
0.75
 40
1.0
 40
1.0
 40
1.0
 40
1.0
 10
69.46295173794789
 20
75.96645473426311
 30
0.0
 10
69.55172031589322
 20
75.80792060295516
 30
0.0
 10
69.67343815457214
 20
75.6554779260666
 30
0.0
 10
69.90848776442897
 20
75.35834330223767
 30
0.0
 10
70.02411795064586
 20
75.21366065862031
 30
0.0
 10
70.22452288407369
 20
74.9303714561169
 30
0.0
 10
70.30992317605799
 20
74.79181746308005
 30
0.0
 10
70.43162880977525
 20
74.5204334330465
 30
0.0
 10
70.46737420928788
 20
74.3882975644119
 30
0.0
 10
70.46737420928787
 20
74.26360281264114
 30
0.0
  0
SPLINE
  5
97
330
1F
100
AcDbEntity
  8
0
  6
Continuous
 62
     7
370
    15
100
AcDbSpline
210
0.0
220
0.0
230
1.0
 70
     8
 71
     3
 72
    14
 73
    10
 74
     0
 42
0.00000001
 43
0.00000001
 40
0.0
 40
0.0
 40
0.0
 40
0.0
 40
0.124999999999999
 40
0.124999999999999
 40
0.2499999999999981
 40
0.2499999999999981
 40
0.4999999999999952
 40
0.4999999999999952
 40
1.0
 40
1.0
 40
1.0
 40
1.0
 10
68.56737420928486
 20
76.59528467336321
 30
0.0
 10
68.63495650906935
 20
76.60244055846461
 30
0.0
 10
68.70744408681725
 20
76.5980160884256
 30
0.0
 10
68.8397351960832
 20
76.56830993065526
 30
0.0
 10
68.89701257547337
 20
76.54502564907703
 30
0.0
 10
69.04666300267365
 20
76.46754040922669
 30
0.0
 10
69.12037629819517
 20
76.40568858232533
 30
0.0
 10
69.30818428152138
 20
76.22101112967698
 30
0.0
 10
69.39222458788282
 20
76.09276820638578
 30
0.0
 10
69.46295173794911
 20
75.96645473426322
 30
0.0
  0
SPLINE
  5
98
330
1F
100
AcDbEntity
  8
0
  6
Continuous
 62
     7
370
    15
100
AcDbSpline
210
0.0
220
0.0
230
1.0
 70
     8
 71
     3
 72
     8
 73
     4
 74
     0
 42
0.00000001
 43
0.00000001
 40
0.0
 40
0.0
 40
0.0
 40
0.0
 40
1.0
 40
1.0
 40
1.0
 40
1.0
 10
65.02273382120397
 20
76.1772360885714
 30
0.0
 10
66.18803213191286
 20
76.33242356045804
 30
0.0
 10
67.37264734595274
 20
76.46878219876835
 30
0.0
 10
68.56737420928486
 20
76.59528467336321
 30
0.0
  0
SPLINE
  5
99
330
1F
100
AcDbEntity
  8
0
  6
Continuous
 62
     7
370
    15
100
AcDbSpline
210
0.0
220
0.0
230
1.0
 70
     8
 71
     3
 72
    14
 73
    10
 74
     0
 42
0.00000001
 43
0.00000001
 40
0.0
 40
0.0
 40
0.0
 40
0.0
 40
0.5000000000000002
 40
0.5000000000000002
 40
0.7500000000000003
 40
0.7500000000000003
 40
0.8750000000000001
 40
0.8750000000000001
 40
1.0
 40
1.0
 40
1.0
 40
1.0
 10
57.26729932525616
 20
75.8871039094415
 30
0.0
 10
58.57560088778989
 20
75.89411863318263
 30
0.0
 10
59.88066026244667
 20
75.90952720962713
 30
0.0
 10
61.82653631393495
 20
75.96342376509376
 30
0.0
 10
62.47323381767394
 20
75.98645532969647
 30
0.0
 10
63.43707618152828
 20
76.03739785456723
 30
0.0
 10
63.75731487346237
 20
76.05713277680043
 30
0.0
 10
64.39401009980475
 20
76.10661990527198
 30
0.0
 10
64.71072550808766
 20
76.13568468420122
 30
0.0
 10
65.022733821204
 20
76.17723608857138
 30
0.0
  0
SPLINE
  5
9A
330
1F
100
AcDbEntity
  8
0
  6
Continuous
 62
     7
370
    15
100
AcDbSpline
210
0.0
220
0.0
230
1.0
 70
     8
 71
     3
 72
    12
 73
     8
 74
     0
 42
0.00000001
 43
0.00000001
 40
0.0
 40
0.0
 40
0.0
 40
0.0
 40
0.2499999999999992
 40
0.2499999999999992
 40
0.4999999999999984
 40
0.4999999999999984
 40
1.0
 40
1.0
 40
1.0
 40
1.0
 10
63.56737420928486
 20
140.2194589695031
 30
0.0
 10
63.04867538745665
 20
140.2519817443513
 30
0.0
 10
62.52696381425166
 20
140.2752784855218
 30
0.0
 10
61.4806717977561
 20
140.3131239999439
 30
0.0
 10
60.95600017208583
 20
140.32739247444
 30
0.0
 10
59.3791541495466
 20
140.3616019618983
 30
0.0
 10
58.3241988349997
 20
140.3731014658422
 30
0.0
 10
57.26729932525447
 20
140.3787682465718
 30
0.0
  0
SPLINE
  5
9B
330
1F
100
AcDbEntity
  8
0
  6
Continuous
 62
     7
370
    15
100
AcDbSpline
210
0.0
220
0.0
230
1.0
 70
     8
 71
     3
 72
    20
 73
    16
 74
     0
 42
0.00000001
 43
0.00000001
 40
0.0
 40
0.0
 40
0.0
 40
0.0
 40
0.2499999999999999
 40
0.2499999999999999
 40
0.4999999999999998
 40
0.4999999999999998
 40
0.7499999999999997
 40
0.7499999999999997
 40
0.8749999999999996
 40
0.8749999999999996
 40
0.9375000000000002
 40
0.9375000000000002
 40
0.9687500000000001
 40
0.9687500000000001
 40
1.0
 40
1.0
 40
1.0
 40
1.0
 10
65.46737420928486
 20
141.8775448149912
 30
0.0
 10
65.46737420928486
 20
141.7418624952444
 30
0.0
 10
65.41866242006823
 20
141.6007755091044
 30
0.0
 10
65.24950099684307
 20
141.3087037903738
 30
0.0
 10
65.12772058292474
 20
141.1570550482834
 30
0.0
 10
64.83017348817525
 20
140.8546466081303
 30
0.0
 10
64.65626088247245
 20
140.702057972007
 30
0.0
 10
64.33684604859063
 20
140.4767872081647
 30
0.0
 10
64.22180527314339
 20
140.402064113654
 30
0.0
 10
64.01472094912697
 20
140.302653704397
 30
0.0
 10
63.93861311432057
 20
140.2710886120524
 30
0.0
 10
63.80721857476721
 20
140.2366452278594
 30
0.0
 10
63.76066535576576
 20
140.2275936560918
 30
0.0
 10
63.66433200468505
 20
140.2174180072533
 30
0.0
 10
63.61507258132959
 20
140.2164682485783
 30
0.0
 10
63.56737420928288
 20
140.2194589694929
 30
0.0
  0
LINE
  5
9C
330
1F
100
AcDbEntity
  8
0
  6
Continuous
 62
     7
370
    15
100
AcDbLine
 10
65.4673742093
 20
141.877544815
 30
0.0
 11
65.4673742093
 21
144.1464501061
 31
0.0
  0
LINE
  5
9D
330
1F
100
AcDbEntity
  8
0
  6
Continuous
 62
     7
370
    15
100
AcDbLine
 10
102.7673742093
 20
70.250684575
 30
0.0
 11
102.7673742093
 21
146.015187581
 31
0.0
  0
SPLINE
  5
9E
330
1F
100
AcDbEntity
  8
0
  6
Continuous
 62
     7
370
    15
100
AcDbSpline
210
0.0
220
0.0
230
1.0
 70
     8
 71
     3
 72
    24
 73
    20
 74
     0
 42
0.00000001
 43
0.00000001
 40
0.0
 40
0.0
 40
0.0
 40
0.0
 40
0.0002934293894791
 40
0.0628080051759335
 40
0.1260453927228735
 40
0.1890746766613218
 40
0.251320054086014
 40
0.3133304633785417
 40
0.3759158453762868
 40
0.4383740564598514
 40
0.5000631094857222
 40
0.5616593988027264
 40
0.6245050380643616
 40
0.6872231506498157
 40
0.7494953263230503
 40
0.8117583797537838
 40
0.8747365508229915
 40
0.9378980306236063
 40
1.0
 40
1.0
 40
1.0
 40
1.0
 10
83.78733047312429
 20
71.20169081969426
 30
0.0
 10
83.78713562023951
 20
71.20166651230028
 30
0.0
 10
83.74542772922821
 20
71.19646356064672
 30
0.0
 10
83.89054612075707
 20
71.2150981839764
 30
0.0
 10
84.2456250622996
 20
71.25761796252559
 30
0.0
 10
84.85020069984387
 20
71.32575424612705
 30
0.0
 10
85.6566360086579
 20
71.39900978314314
 30
0.0
 10
86.64211343257625
 20
71.4635291239607
 30
0.0
 10
87.77378302925443
 20
71.50209335202199
 30
0.0
 10
88.99607549941716
 20
71.50578785802341
 30
0.0
 10
90.26340418086029
 20
71.46336187797509
 30
0.0
 10
91.52988971128566
 20
71.3751147371928
 30
0.0
 10
92.74602707510005
 20
71.24672146692879
 30
0.0
 10
93.87143757095558
 20
71.09408047833615
 30
0.0
 10
94.84885463250545
 20
70.93230586323051
 30
0.0
 10
95.65212011105528
 20
70.7797769701288
 30
0.0
 10
96.24061363405598
 20
70.65576322686137
 30
0.0
 10
96.62951974570632
 20
70.5708393005853
 30
0.0
 10
96.67628087644484
 20
70.5601129893065
 30
0.0
 10
96.69946368298743
 20
70.5547951966149
 30
0.0
  0
SPLINE
  5
9F
330
1F
100
AcDbEntity
  8
0
  6
Continuous
 62
     7
370
    15
100
AcDbSpline
210
0.0
220
0.0
230
1.0
 70
     8
 71
     3
 72
    41
 73
    37
 74
     0
 42
0.00000001
 43
0.00000001
 40
0.0
 40
0.0
 40
0.0
 40
0.0
 40
0.0619930061484378
 40
0.1254347783466322
 40
0.1886508898237652
 40
0.2510246408607262
 40
0.313165818897716
 40
0.3756581641417481
 40
0.438222714672822
 40
0.4998044922940693
 40
0.5615164197177447
 40
0.6240683094121975
 40
0.6867257232408516
 40
0.7488365305144536
 40
0.8110685944253998
 40
0.8741742884451369
 40
0.9373212787645215
 40
0.9685511709617414
 40
0.9842086872487195
 40
0.9920641182531791
 40
0.996000486125535
 40
0.9979710794120144
 40
0.9989570090489597
 40
0.9994501359395066
 40
0.9996967403802177
 40
0.9998200529090742
 40
0.9998817117580818
 40
0.999912541829664
 40
0.9999279570273361
 40
0.9999356646666603
 40
0.9999395184964466
 40
0.9999414454138695
 40
0.9999424088732151
 40
0.9999433723329807
 40
0.9999501697010514
 40
1.0
 40
1.0
 40
1.0
 40
1.0
 10
96.69934235250945
 20
145.7110319414468
 30
0.0
 10
96.67577070716665
 20
145.705722461797
 30
0.0
 10
96.6280765511233
 20
145.6949794208575
 30
0.0
 10
96.236034561694
 20
145.6097502844017
 30
0.0
 10
95.6455205124222
 20
145.4851815057611
 30
0.0
 10
94.84148306637852
 20
145.3322345596091
 30
0.0
 10
93.8654076661984
 20
145.1704780056557
 30
0.0
 10
92.74359893091736
 20
145.0182452377235
 30
0.0
 10
91.53006801113025
 20
144.8904652965223
 30
0.0
 10
90.26523730473205
 20
144.8026167448396
 30
0.0
 10
88.99719426728964
 20
144.7602312609691
 30
0.0
 10
87.77368690958897
 20
144.7639670689406
 30
0.0
 10
86.64018836917377
 20
144.8025625393887
 30
0.0
 10
85.65408255819987
 20
144.8670019106798
 30
0.0
 10
84.84545474941217
 20
144.9405117179611
 30
0.0
 10
84.24883605430301
 20
145.0078254027728
 30
0.0
 10
83.93344476484491
 20
145.0457899540408
 30
0.0
 10
83.823378196047
 20
145.0595890133727
 30
0.0
 10
83.7959588082328
 20
145.0630750872933
 30
0.0
 10
83.78903675740328
 20
145.0639543129867
 30
0.0
 10
83.78726851721986
 20
145.064175087593
 30
0.0
 10
83.78680813804651
 20
145.0642302903038
 30
0.0
 10
83.78668397936168
 20
145.0642440300908
 30
0.0
 10
83.78664842486855
 20
145.0642474259218
 30
0.0
 10
83.78663728079842
 20
145.0642482542421
 30
0.0
 10
83.78663336760233
 20
145.0642484508309
 30
0.0
 10
83.78663182539749
 20
145.064248494761
 30
0.0
 10
83.78663115839599
 20
145.0642485030677
 30
0.0
 10
83.78663085021826
 20
145.064248503898
 30
0.0
 10
83.78663070345219
 20
145.0642485033528
 30
0.0
 10
83.78663063049973
 20
145.0642485030229
 30
0.0
 10
83.78663059610736
 20
145.0642485025857
 30
0.0
 10
83.7866305738622
 20
145.0642485026742
 30
0.0
 10
83.78663054675278
 20
145.0642484998392
 30
0.0
 10
83.78662802719137
 20
145.0642487866943
 30
0.0
 10
83.78666411710944
 20
145.0642441665936
 30
0.0
 10
83.78669587493208
 20
145.0642401010722
 30
0.0
  0
SPLINE
  5
A0
330
1F
100
AcDbEntity
  8
0
  6
Continuous
 62
     7
370
    15
100
AcDbSpline
210
0.0
220
0.0
230
1.0
 70
     8
 71
     3
 72
    20
 73
    16
 74
     0
 42
0.00000001
 43
0.00000001
 40
0.0
 40
0.0
 40
0.0
 40
0.0
 40
0.249999999999986
 40
0.249999999999986
 40
0.3749999999999789
 40
0.3749999999999789
 40
0.4374999999999789
 40
0.4374999999999789
 40
0.4999999999999789
 40
0.4999999999999789
 40
0.6249999999999835
 40
0.6249999999999835
 40
0.7499999999999879
 40
0.7499999999999879
 40
1.0
 40
1.0
 40
1.0
 40
1.0
 10
55.65818844100087
 20
77.45445292530592
 30
0.0
 10
55.68446065821428
 20
77.47377086638839
 30
0.0
 10
55.71514080046911
 20
77.48815957749017
 30
0.0
 10
55.78661167085104
 20
77.48125521565416
 30
0.0
 10
55.81463870789538
 20
77.47408921230574
 30
0.0
 10
55.86972229739288
 20
77.44439018560215
 30
0.0
 10
55.89061362594531
 20
77.43091654304081
 30
0.0
 10
55.93582227339078
 20
77.3957182775248
 30
0.0
 10
55.96022648578634
 20
77.37381004879754
 30
0.0
 10
56.03155880383778
 20
77.30168518880198
 30
0.0
 10
56.07345558865806
 20
77.24934464785194
 30
0.0
 10
56.14503154751394
 20
77.15186125595119
 30
0.0
 10
56.17585953733123
 20
77.10510748607277
 30
0.0
 10
56.25895947016681
 20
76.97181427023365
 30
0.0
 10
56.30381437553711
 20
76.88917687231844
 30
0.0
 10
56.34392645098968
 20
76.81006997752766
 30
0.0
  0
SPLINE
  5
A1
330
1F
100
AcDbEntity
  8
0
  6
Continuous
 62
     7
370
    15
100
AcDbSpline
210
0.0
220
0.0
230
1.0
 70
     8
 71
     3
 72
    14
 73
    10
 74
     0
 42
0.00000001
 43
0.00000001
 40
0.0
 40
0.0
 40
0.0
 40
0.0
 40
0.25
 40
0.25
 40
0.5
 40
0.5
 40
0.75
 40
0.75
 40
1.0
 40
1.0
 40
1.0
 40
1.0
 10
55.36737420928486
 20
77.6302663354387
 30
0.0
 10
55.36737420928488
 20
77.58901940441436
 30
0.0
 10
55.37598392566612
 20
77.55211243213188
 30
0.0
 10
55.40707010523646
 20
77.49121237223247
 30
0.0
 10
55.42945965872052
 20
77.46703145269278
 30
0.0
 10
55.48420358989664
 20
77.43306386180953
 30
0.0
 10
55.51665382948183
 20
77.42314377784133
 30
0.0
 10
55.58665534420989
 20
77.42179256893648
 30
0.0
 10
55.62486584433243
 20
77.42995084563265
 30
0.0
 10
55.65818844100552
 20
77.45445292530073
 30
0.0
  0
LINE
  5
A2
330
1F
100
AcDbEntity
  8
0
  6
Continuous
 62
     7
370
    15
100
AcDbLine
 10
55.3673742093
 20
77.6302663354
 30
0.0
 11
55.3673742093
 21
138.6356058206
 31
0.0
  0
SPLINE
  5
A3
330
1F
100
AcDbEntity
  8
0
  6
Continuous
 62
     7
370
    15
100
AcDbSpline
210
0.0
220
0.0
230
1.0
 70
     8
 71
     3
 72
    10
 73
     6
 74
     0
 42
0.00000001
 43
0.00000001
 40
0.0
 40
0.0
 40
0.0
 40
0.0
 40
0.0592402688376383
 40
0.6438088530391344
 40
1.0
 40
1.0
 40
1.0
 40
1.0
 10
55.65818844100551
 20
138.8114192307125
 30
0.0
 10
55.65335618338431
 20
138.8146681373442
 30
0.0
 10
55.60084038124957
 20
138.8499764654998
 30
0.0
 10
55.50189018357079
 20
138.8562307620584
 30
0.0
 10
55.45246165867945
 20
138.8010305243695
 30
0.0
 10
55.43374699393515
 20
138.7801305694462
 30
0.0
  0
SPLINE
  5
A4
330
1F
100
AcDbEntity
  8
0
  6
Continuous
 62
     7
370
    15
100
AcDbSpline
210
0.0
220
0.0
230
1.0
 70
     8
 71
     3
 72
     8
 73
     4
 74
     0
 42
0.00000001
 43
0.00000001
 40
0.0
 40
0.0
 40
0.0
 40
0.0
 40
1.0
 40
1.0
 40
1.0
 40
1.0
 10
55.39100787822107
 20
138.7431853216442
 30
0.0
 10
55.37565883958504
 20
138.7126752666483
 30
0.0
 10
55.36737420928486
 20
138.676363711136
 30
0.0
 10
55.36737420928486
 20
138.6356058205745
 30
0.0
  0
SPLINE
  5
A5
330
1F
100
AcDbEntity
  8
0
  6
Continuous
 62
     7
370
    15
100
AcDbSpline
210
0.0
220
0.0
230
1.0
 70
     8
 71
     3
 72
    20
 73
    16
 74
     0
 42
0.00000001
 43
0.00000001
 40
0.0
 40
0.0
 40
0.0
 40
0.0
 40
0.2500000000000037
 40
0.2500000000000037
 40
0.3750000000000055
 40
0.3750000000000055
 40
0.5000000000000073
 40
0.5000000000000073
 40
0.5625000000000057
 40
0.5625000000000057
 40
0.625000000000004
 40
0.625000000000004
 40
0.7500000000000027
 40
0.7500000000000027
 40
1.0
 40
1.0
 40
1.0
 40
1.0
 10
56.34392645098729
 20
139.4558021784848
 30
0.0
 10
56.30393023316346
 20
139.3769237719274
 30
0.0
 10
56.2588166053258
 20
139.2937941252358
 30
0.0
 10
56.17556239095928
 20
139.1603054608849
 30
0.0
 10
56.14534306233877
 20
139.1144404050029
 30
0.0
 10
56.07325482719735
 20
139.016248852598
 30
0.0
 10
56.03133750978625
 20
138.9639390330744
 30
0.0
 10
55.9600869052348
 20
138.8919331303399
 30
0.0
 10
55.93585109285548
 20
138.8701629180383
 30
0.0
 10
55.89025290267083
 20
138.8346882597093
 30
0.0
 10
55.86945041307112
 20
138.8213180755318
 30
0.0
 10
55.81450941465199
 20
138.7917481633966
 30
0.0
 10
55.78644042656519
 20
138.7846216410946
 30
0.0
 10
55.71593759650236
 20
138.7777472696119
 30
0.0
 10
55.68451350871148
 20
138.7920624286991
 30
0.0
 10
55.65818844100288
 20
138.8114192307096
 30
0.0
  0
SPLINE
  5
A6
330
1F
100
AcDbEntity
  8
0
  6
Continuous
 62
     7
370
    15
100
AcDbSpline
210
0.0
220
0.0
230
1.0
 70
     8
 71
     3
 72
    10
 73
     6
 74
     0
 42
0.00000001
 43
0.00000001
 40
0.0
 40
0.0
 40
0.0
 40
0.0
 40
0.4999999999999989
 40
0.4999999999999989
 40
1.0
 40
1.0
 40
1.0
 40
1.0
 10
57.01737420928487
 20
140.3812212798266
 30
0.0
 10
56.89248593853468
 20
140.2502250017552
 30
0.0
 10
56.77103582047422
 20
140.1065121650902
 30
0.0
 10
56.54145184551679
 20
139.7959418724009
 30
0.0
 10
56.43117687012081
 20
139.6278727993379
 30
0.0
 10
56.34392645098729
 20
139.4558021784848
 30
0.0
  0
SPLINE
  5
A7
330
1F
100
AcDbEntity
  8
0
  6
Continuous
 62
     7
370
    15
100
AcDbSpline
210
0.0
220
0.0
230
1.0
 70
     8
 71
     3
 72
     8
 73
     4
 74
     0
 42
0.00000001
 43
0.00000001
 40
0.0
 40
0.0
 40
0.0
 40
0.0
 40
1.0
 40
1.0
 40
1.0
 40
1.0
 10
57.2672993252506
 20
140.3787682465712
 30
0.0
 10
57.18028129540225
 20
140.3792348113583
 30
0.0
 10
57.09732726902231
 20
140.3802748309344
 30
0.0
 10
57.01737420928256
 20
140.3812212798267
 30
0.0
  0
SPLINE
  5
A8
330
1F
100
AcDbEntity
  8
0
  6
Continuous
 62
     7
370
    15
100
AcDbSpline
210
0.0
220
0.0
230
1.0
 70
     8
 71
     3
 72
     8
 73
     4
 74
     0
 42
0.00000001
 43
0.00000001
 40
0.0
 40
0.0
 40
0.0
 40
0.0
 40
1.0
 40
1.0
 40
1.0
 40
1.0
 10
57.01737420928256
 20
75.88465087618656
 30
0.0
 10
57.09732726902283
 20
75.88559732507882
 30
0.0
 10
57.18028129540331
 20
75.88663734465496
 30
0.0
 10
57.26729932525229
 20
75.88710390944202
 30
0.0
  0
SPLINE
  5
A9
330
1F
100
AcDbEntity
  8
0
  6
Continuous
 62
     7
370
    15
100
AcDbSpline
210
0.0
220
0.0
230
1.0
 70
     8
 71
     3
 72
    10
 73
     6
 74
     0
 42
0.00000001
 43
0.00000001
 40
0.0
 40
0.0
 40
0.0
 40
0.0
 40
0.4999999999999989
 40
0.4999999999999989
 40
1.0
 40
1.0
 40
1.0
 40
1.0
 10
56.34392645098636
 20
76.81006997753023
 30
0.0
 10
56.43117687011983
 20
76.63799935667687
 30
0.0
 10
56.54145184551599
 20
76.46993028361344
 30
0.0
 10
56.77103582047383
 20
76.1593599909236
 30
0.0
 10
56.89248593853446
 20
76.01564715425833
 30
0.0
 10
57.01737420928487
 20
75.88465087618663
 30
0.0
  0
LINE
  5
AA
330
1F
100
AcDbEntity
  8
0
  6
Continuous
 62
     7
370
    15
100
AcDbLine
 10
235.2673742093
 20
75.9439123072
 30
0.0
 11
235.2673742093
 21
140.3219598489
 31
0.0
  0
SPLINE
  5
AB
330
1F
100
AcDbEntity
  8
0
  6
Continuous
 62
     7
370
    15
100
AcDbSpline
210
0.0
220
0.0
230
1.0
 70
     8
 71
     3
 72
     8
 73
     4
 74
     0
 42
0.00000001
 43
0.00000001
 40
0.0
 40
0.0
 40
0.0
 40
0.0
 40
1.0
 40
1.0
 40
1.0
 40
1.0
 10
122.0053451883634
 20
147.0838988388936
 30
0.0
 10
122.462271542163
 20
146.0679808692193
 30
0.0
 10
122.913477183966
 20
145.0491850401281
 30
0.0
 10
123.3573742092849
 20
144.0283835841445
 30
0.0
  0
LINE
  5
AC
330
1F
100
AcDbEntity
  8
0
  6
Continuous
 62
     7
370
    15
100
AcDbLine
 10
123.3573742093
 20
144.0283835841
 30
0.0
 11
123.3573742093
 21
142.8471712705
 31
0.0
  0
SPLINE
  5
AD
330
1F
100
AcDbEntity
  8
0
  6
Continuous
 62
     7
370
    15
100
AcDbSpline
210
0.0
220
0.0
230
1.0
 70
     8
 71
     3
 72
    14
 73
    10
 74
     0
 42
0.00000001
 43
0.00000001
 40
0.0
 40
0.0
 40
0.0
 40
0.0
 40
0.25
 40
0.25
 40
0.5
 40
0.5
 40
0.75
 40
0.75
 40
1.0
 40
1.0
 40
1.0
 40
1.0
 10
123.3573742092848
 20
142.8471712705037
 30
0.0
 10
123.3573742092848
 20
142.7233043937145
 30
0.0
 10
123.3732333369124
 20
142.599044716877
 30
0.0
 10
123.4365949824323
 20
142.3614363544711
 30
0.0
 10
123.4851846904817
 20
142.2446559697187
 30
0.0
 10
123.6174702952566
 20
142.0358534411097
 30
0.0
 10
123.7027950865171
 20
141.941342737517
 30
0.0
 10
123.9096863348233
 20
141.8033859367147
 30
0.0
 10
124.0336542807133
 20
141.761467491079
 30
0.0
 10
124.1573742092849
 20
141.761467491079
 30
0.0
  0
LINE
  5
AE
330
1F
100
AcDbEntity
  8
0
  6
Continuous
 62
     7
370
    15
100
AcDbLine
 10
124.1573742093
 20
141.7614674911
 30
0.0
 11
126.3773742093
 21
141.7614674911
 31
0.0
  0
SPLINE
  5
AF
330
1F
100
AcDbEntity
  8
0
  6
Continuous
 62
     7
370
    15
100
AcDbSpline
210
0.0
220
0.0
230
1.0
 70
     8
 71
     3
 72
    12
 73
     8
 74
     0
 42
0.00000001
 43
0.00000001
 40
0.0
 40
0.0
 40
0.0
 40
0.0
 40
0.250000000000002
 40
0.250000000000002
 40
0.500000000000004
 40
0.500000000000004
 40
1.0
 40
1.0
 40
1.0
 40
1.0
 10
126.3773742092849
 20
141.7614674910791
 30
0.0
 10
126.5010751592648
 20
141.7614674910791
 30
0.0
 10
126.625171771535
 20
141.8034611028116
 30
0.0
 10
126.8318269346221
 20
141.941256429456
 30
0.0
 10
126.9168677013489
 20
142.0352300279209
 30
0.0
 10
127.1163462698225
 20
142.3500182341418
 30
0.0
 10
127.1773742092849
 20
142.6002572263694
 30
0.0
 10
127.1773742092849
 20
142.8471712705037
 30
0.0
  0
LINE
  5
B0
330
1F
100
AcDbEntity
  8
0
  6
Continuous
 62
     7
370
    15
100
AcDbLine
 10
127.1773742093
 20
142.8471712705
 30
0.0
 11
127.1773742093
 21
144.0283835841
 31
0.0
  0
SPLINE
  5
B1
330
1F
100
AcDbEntity
  8
0
  6
Continuous
 62
     7
370
    15
100
AcDbSpline
210
0.0
220
0.0
230
1.0
 70
     8
 71
     3
 72
     8
 73
     4
 74
     0
 42
0.00000001
 43
0.00000001
 40
0.0
 40
0.0
 40
0.0
 40
0.0
 40
1.0
 40
1.0
 40
1.0
 40
1.0
 10
127.1773742092849
 20
144.0283835841445
 30
0.0
 10
127.6215242203104
 20
145.0497668150961
 30
0.0
 10
128.0725985305683
 20
146.0682513518644
 30
0.0
 10
128.5294032302062
 20
147.0838988388936
 30
0.0
  0
LINE
  5
B2
330
1F
100
AcDbEntity
  8
0
  6
Continuous
 62
     7
370
    15
100
AcDbLine
 10
128.5294032302
 20
147.0838988389
 30
0.0
 11
133.2173742093
 21
147.0838988389
 31
0.0
  0
SPLINE
  5
B3
330
1F
100
AcDbEntity
  8
0
  6
Continuous
 62
     7
370
    15
100
AcDbSpline
210
0.0
220
0.0
230
1.0
 70
     8
 71
     3
 72
    16
 73
    12
 74
     0
 42
0.00000001
 43
0.00000001
 40
0.0
 40
0.0
 40
0.0
 40
0.0
 40
0.1249999999999978
 40
0.1249999999999978
 40
0.2499999999999955
 40
0.2499999999999955
 40
0.499999999999997
 40
0.499999999999997
 40
0.7499999999999984
 40
0.7499999999999984
 40
1.0
 40
1.0
 40
1.0
 40
1.0
 10
133.2173742092849
 20
147.0838988388936
 30
0.0
 10
133.293011915696
 20
147.0838988388936
 30
0.0
 10
133.3693275801143
 20
147.0725538387586
 30
0.0
 10
133.5137383180062
 20
147.0299012881201
 30
0.0
 10
133.5821847671147
 20
146.9989669634373
 30
0.0
 10
133.7771160197278
 20
146.8797105916697
 30
0.0
 10
133.8849571935087
 20
146.7695585780491
 30
0.0
 10
134.0536699417207
 20
146.521422492391
 30
0.0
 10
134.1160343544443
 20
146.3810801683873
 30
0.0
 10
134.1973382789526
 20
146.0928084768987
 30
0.0
 10
134.2173742092849
 20
145.9420035039189
 30
0.0
 10
134.2173742092849
 20
145.7916336125736
 30
0.0
  0
LINE
  5
B4
330
1F
100
AcDbEntity
  8
0
  6
Continuous
 62
     7
370
    15
100
AcDbLine
 10
134.2173742093
 20
145.7916336126
 30
0.0
 11
134.2173742093
 21
139.7150116906
 31
0.0
  0
SPLINE
  5
B5
330
1F
100
AcDbEntity
  8
0
  6
Continuous
 62
     7
370
    15
100
AcDbSpline
210
0.0
220
0.0
230
1.0
 70
     8
 71
     3
 72
    12
 73
     8
 74
     0
 42
0.00000001
 43
0.00000001
 40
0.0
 40
0.0
 40
0.0
 40
0.0
 40
0.4999999999999953
 40
0.4999999999999953
 40
0.7499999999999977
 40
0.7499999999999977
 40
1.0
 40
1.0
 40
1.0
 40
1.0
 10
134.2173742092849
 20
156.1016758988524
 30
0.0
 10
134.2173742092849
 20
156.3669453316189
 30
0.0
 10
134.1127674657984
 20
156.6294604372713
 30
0.0
 10
133.8360991140531
 20
156.9149980433085
 30
0.0
 10
133.7257338547011
 20
156.9913196601699
 30
0.0
 10
133.4816618060854
 20
157.0956618250101
 30
0.0
 10
133.3499093447536
 20
157.1227309336702
 30
0.0
 10
133.2173742092849
 20
157.1227309336702
 30
0.0
  0
LINE
  5
B6
330
1F
100
AcDbEntity
  8
0
  6
Continuous
 62
     7
370
    15
100
AcDbLine
 10
134.2173742093
 20
145.7916336126
 30
0.0
 11
134.2173742093
 21
156.1016758989
 31
0.0
  0
SPLINE
  5
B7
330
1F
100
AcDbEntity
  8
0
  6
Continuous
 62
     7
370
    15
100
AcDbSpline
210
0.0
220
0.0
230
1.0
 70
     8
 71
     3
 72
    10
 73
     6
 74
     0
 42
0.00000001
 43
0.00000001
 40
0.0
 40
0.0
 40
0.0
 40
0.0
 40
0.5
 40
0.5
 40
1.0
 40
1.0
 40
1.0
 40
1.0
 10
124.1573742092849
 20
153.007211838179
 30
0.0
 10
123.9448378954285
 20
153.007211838179
 30
0.0
 10
123.7349017237745
 20
153.0986244248093
 30
0.0
 10
123.4411945827632
 20
153.4033692907135
 30
0.0
 10
123.3573742092848
 20
153.6155242606221
 30
0.0
 10
123.3573742092848
 20
153.8264873188546
 30
0.0
  0
LINE
  5
B8
330
1F
100
AcDbEntity
  8
0
  6
Continuous
 62
     7
370
    15
100
AcDbLine
 10
133.2173742093
 20
157.1227309337
 30
0.0
 11
128.5294032302
 21
157.1227309337
 31
0.0
  0
LINE
  5
B9
330
1F
100
AcDbEntity
  8
0
  6
Continuous
 62
     7
370
    15
100
AcDbLine
 10
128.5294032302
 20
147.0838988389
 30
0.0
 11
128.5294032302
 21
157.1227309337
 31
0.0
  0
SPLINE
  5
BA
330
1F
100
AcDbEntity
  8
0
  6
Continuous
 62
     7
370
    15
100
AcDbSpline
210
0.0
220
0.0
230
1.0
 70
     8
 71
     3
 72
    14
 73
    10
 74
     0
 42
0.00000001
 43
0.00000001
 40
0.0
 40
0.0
 40
0.0
 40
0.0
 40
0.25
 40
0.25
 40
0.5
 40
0.5
 40
0.75
 40
0.75
 40
1.0
 40
1.0
 40
1.0
 40
1.0
 10
127.1773742092849
 20
153.8264873188546
 30
0.0
 10
127.1773742092849
 20
153.7201306251023
 30
0.0
 10
127.1569866531436
 20
153.6142901373422
 30
0.0
 10
127.0783523076821
 20
153.4177252238057
 30
0.0
 10
127.0196209480435
 20
153.3265544815186
 30
0.0
 10
126.8730120424409
 20
153.174643392487
 30
0.0
 10
126.7836067224143
 20
153.1125745556674
 30
0.0
 10
126.589715989814
 20
153.0293065079087
 30
0.0
 10
126.4832109999242
 20
153.007211838179
 30
0.0
 10
126.3773742092849
 20
153.007211838179
 30
0.0
  0
SPLINE
  5
BB
330
1F
100
AcDbEntity
  8
0
  6
Continuous
 62
     7
370
    15
100
AcDbSpline
210
0.0
220
0.0
230
1.0
 70
     8
 71
     3
 72
     8
 73
     4
 74
     0
 42
0.00000001
 43
0.00000001
 40
0.0
 40
0.0
 40
0.0
 40
0.0
 40
1.0
 40
1.0
 40
1.0
 40
1.0
 10
123.3573742092849
 20
154.7302069387115
 30
0.0
 10
122.9070659736003
 20
155.5279220638251
 30
0.0
 10
122.4563721570767
 20
156.3254203634823
 30
0.0
 10
122.0053451883635
 20
157.1227309336702
 30
0.0
  0
LINE
  5
BC
330
1F
100
AcDbEntity
  8
0
  6
Continuous
 62
     7
370
    15
100
AcDbLine
 10
123.3573742093
 20
144.0283835841
 30
0.0
 11
123.3573742093
 21
154.7302069387
 31
0.0
  0
SPLINE
  5
BD
330
1F
100
AcDbEntity
  8
0
  6
Continuous
 62
     7
370
    15
100
AcDbSpline
210
0.0
220
0.0
230
1.0
 70
     8
 71
     3
 72
     8
 73
     4
 74
     0
 42
0.00000001
 43
0.00000001
 40
0.0
 40
0.0
 40
0.0
 40
0.0
 40
1.0
 40
1.0
 40
1.0
 40
1.0
 10
128.5294032302063
 20
157.1227309336702
 30
0.0
 10
128.078376261493
 20
156.3254203634824
 30
0.0
 10
127.6276824449694
 20
155.5279220638251
 30
0.0
 10
127.1773742092849
 20
154.7302069387115
 30
0.0
  0
LINE
  5
BE
330
1F
100
AcDbEntity
  8
0
  6
Continuous
 62
     7
370
    15
100
AcDbLine
 10
127.1773742093
 20
144.0283835841
 30
0.0
 11
127.1773742093
 21
154.7302069387
 31
0.0
  0
LINE
  5
BF
330
1F
100
AcDbEntity
  8
0
  6
Continuous
 62
     7
370
    15
100
AcDbLine
 10
126.3773742093
 20
153.0072118382
 30
0.0
 11
124.1573742093
 21
153.0072118382
 31
0.0
  0
ARC
  5
C0
330
1F
100
AcDbEntity
  8
0
  6
Continuous
 62
     7
370
    15
100
AcDbCircle
 10
114.2676482694
 20
140.6997095936
 30
0.0
 40
11.44864639011329
100
AcDbArc
 50
77.6649884509
 51
102.4018279774
  0
LINE
  5
C1
330
1F
100
AcDbEntity
  8
0
  6
Continuous
 62
     7
370
    15
100
AcDbLine
 10
57.0173742093
 20
75.882936078
 30
0.0
 11
57.0173742093
 21
75.8846508762
 31
0.0
  0
LINE
  5
C2
330
1F
100
AcDbEntity
  8
0
  6
Continuous
 62
     7
370
    15
100
AcDbLine
 10
57.0173742093
 20
140.382936078
 30
0.0
 11
57.0173742093
 21
140.3812212798
 31
0.0
  0
LINE
  5
C3
330
1F
100
AcDbEntity
  8
0
  6
HIDDEN
 62
     7
370
     0
100
AcDbLine
 10
235.0031213838
 20
81.1240966734
 30
0.0
 11
235.1601606469
 21
77.1271805285
 31
0.0
  0
LINE
  5
C4
330
1F
100
AcDbEntity
  8
0
  6
HIDDEN
 62
     7
370
     0
100
AcDbLine
 10
227.9837038808
 20
80.8483030086
 30
0.0
 11
228.1407431438
 21
76.8513868636
 31
0.0
  0
LINE
  5
C5
330
1F
100
AcDbEntity
  8
0
  6
HIDDEN
 62
     7
370
     0
100
AcDbLine
 10
227.2637269654
 20
80.0694363696
 30
0.0
 11
227.3618765048
 21
77.571363779
 31
0.0
  0
LINE
  5
C6
330
1F
100
AcDbEntity
  8
0
  6
HIDDEN
 62
     7
370
     0
100
AcDbLine
 10
235.2434257217
 20
80.7432373487
 30
0.0
 11
235.2673742093
 21
80.1337076366
 31
0.0
  0
LINE
  5
C7
330
1F
100
AcDbEntity
  8
0
  6
HIDDEN
 62
     7
370
     0
100
AcDbLine
 10
232.7693016187
 20
80.0355580972
 30
0.0
 11
232.8085614344
 21
79.036329061
 31
0.0
  0
LINE
  5
C8
330
1F
100
AcDbEntity
  8
0
  6
HIDDEN
 62
     7
370
     0
100
AcDbLine
 10
232.8085614344
 20
79.036329061
 30
0.0
 11
235.306634025
 21
79.1344786004
 31
0.0
  0
LINE
  5
C9
330
1F
100
AcDbEntity
  8
0
  6
HIDDEN
 62
     7
370
     0
100
AcDbLine
 10
232.8478212502
 20
78.0371000247
 30
0.0
 11
232.8085614344
 21
79.036329061
 31
0.0
  0
LINE
  5
CA
330
1F
100
AcDbEntity
  8
0
  6
HIDDEN
 62
     7
370
     0
100
AcDbLine
 10
232.7693016187
 20
80.0355580972
 30
0.0
 11
235.2673742093
 21
80.1337076366
 31
0.0
  0
LINE
  5
CB
330
1F
100
AcDbEntity
  8
0
  6
HIDDEN
 62
     7
370
     0
100
AcDbLine
 10
232.8478212502
 20
78.0371000247
 30
0.0
 11
235.3458938408
 21
78.1352495641
 31
0.0
  0
LINE
  5
CC
330
1F
100
AcDbEntity
  8
0
  6
HIDDEN
 62
     7
370
     0
100
AcDbLine
 10
235.2673742093
 20
138.1337076366
 30
0.0
 11
235.1649060902
 21
135.525719852
 31
0.0
  0
LINE
  5
CD
330
1F
100
AcDbEntity
  8
0
  6
HIDDEN
 62
     7
370
     0
100
AcDbLine
 10
235.0816410154
 20
139.1417766723
 30
0.0
 11
234.9246017523
 21
135.1448605273
 31
0.0
  0
LINE
  5
CE
330
1F
100
AcDbEntity
  8
0
  6
HIDDEN
 62
     7
370
     0
100
AcDbLine
 10
228.0622235123
 20
139.4175703371
 30
0.0
 11
227.9051842493
 21
135.4206541921
 31
0.0
  0
LINE
  5
CF
330
1F
100
AcDbEntity
  8
0
  6
HIDDEN
 62
     7
370
     0
100
AcDbLine
 10
227.2833568733
 20
138.6975934217
 30
0.0
 11
227.1852073339
 21
136.1995208311
 31
0.0
  0
LINE
  5
D0
330
1F
100
AcDbEntity
  8
0
  6
HIDDEN
 62
     7
370
     0
100
AcDbLine
 10
232.7693016187
 20
138.231857176
 30
0.0
 11
232.7300418029
 21
137.2326281398
 31
0.0
  0
LINE
  5
D1
330
1F
100
AcDbEntity
  8
0
  6
HIDDEN
 62
     7
370
     0
100
AcDbLine
 10
232.7300418029
 20
137.2326281398
 30
0.0
 11
235.2281143935
 21
137.1344786004
 31
0.0
  0
LINE
  5
D2
330
1F
100
AcDbEntity
  8
0
  6
HIDDEN
 62
     7
370
     0
100
AcDbLine
 10
232.6907819872
 20
136.2333991035
 30
0.0
 11
232.7300418029
 21
137.2326281398
 31
0.0
  0
LINE
  5
D3
330
1F
100
AcDbEntity
  8
0
  6
HIDDEN
 62
     7
370
     0
100
AcDbLine
 10
232.7693016187
 20
138.231857176
 30
0.0
 11
235.2673742093
 21
138.1337076366
 31
0.0
  0
LINE
  5
D4
330
1F
100
AcDbEntity
  8
0
  6
HIDDEN
 62
     7
370
     0
100
AcDbLine
 10
232.6907819872
 20
136.2333991035
 30
0.0
 11
235.1888545778
 21
136.1352495641
 31
0.0
  0
LINE
  5
D5
330
1F
100
AcDbEntity
  8
0
  6
HIDDEN
 62
     7
370
     0
100
AcDbLine
 10
148.7673742093
 20
102.132936078
 30
0.0
 11
148.7673742093
 21
114.132936078
 31
0.0
  0
LINE
  5
D6
330
1F
100
AcDbEntity
  8
0
  6
HIDDEN
 62
     7
370
     0
100
AcDbLine
 10
164.2673742093
 20
102.632936078
 30
0.0
 11
164.2673742093
 21
113.632936078
 31
0.0
  0
LINE
  5
D7
330
1F
100
AcDbEntity
  8
0
  6
HIDDEN
 62
     7
370
     0
100
AcDbLine
 10
148.2673742093
 20
102.632936078
 30
0.0
 11
148.2673742093
 21
113.632936078
 31
0.0
  0
LINE
  5
D8
330
1F
100
AcDbEntity
  8
0
  6
HIDDEN
 62
     7
370
     0
100
AcDbLine
 10
168.2673742093
 20
106.632936078
 30
0.0
 11
166.2673742093
 21
106.632936078
 31
0.0
  0
LINE
  5
D9
330
1F
100
AcDbEntity
  8
0
  6
HIDDEN
 62
     7
370
     0
100
AcDbLine
 10
168.2673742093
 20
102.632936078
 30
0.0
 11
168.2673742093
 21
106.632936078
 31
0.0
  0
LINE
  5
DA
330
1F
100
AcDbEntity
  8
0
  6
HIDDEN
 62
     7
370
     0
100
AcDbLine
 10
168.2673742093
 20
109.632936078
 30
0.0
 11
168.2673742093
 21
113.632936078
 31
0.0
  0
LINE
  5
DB
330
1F
100
AcDbEntity
  8
0
  6
HIDDEN
 62
     7
370
     0
100
AcDbLine
 10
166.2673742093
 20
109.632936078
 30
0.0
 11
168.2673742093
 21
109.632936078
 31
0.0
  0
LINE
  5
DC
330
1F
100
AcDbEntity
  8
0
  6
HIDDEN
 62
     7
370
     0
100
AcDbLine
 10
166.2673742093
 20
106.632936078
 30
0.0
 11
166.2673742093
 21
109.632936078
 31
0.0
  0
LINE
  5
DD
330
1F
100
AcDbEntity
  8
0
  6
HIDDEN
 62
     7
370
     0
100
AcDbLine
 10
161.2673742093
 20
108.132936078
 30
0.0
 11
166.2673742093
 21
108.132936078
 31
0.0
  0
LINE
  5
DE
330
1F
100
AcDbEntity
  8
0
  6
HIDDEN
 62
     7
370
     0
100
AcDbLine
 10
161.2673742093
 20
109.632936078
 30
0.0
 11
161.2673742093
 21
108.132936078
 31
0.0
  0
LINE
  5
DF
330
1F
100
AcDbEntity
  8
0
  6
HIDDEN
 62
     7
370
     0
100
AcDbLine
 10
161.2673742093
 20
108.132936078
 30
0.0
 11
161.2673742093
 21
106.632936078
 31
0.0
  0
LINE
  5
E0
330
1F
100
AcDbEntity
  8
0
  6
HIDDEN
 62
     7
370
     0
100
AcDbLine
 10
155.2673742092
 20
108.132936078
 30
0.0
 11
148.2673742093
 21
108.132936078
 31
0.0
  0
LINE
  5
E1
330
1F
100
AcDbEntity
  8
0
  6
HIDDEN
 62
     7
370
     0
100
AcDbLine
 10
155.2673742092
 20
108.132936078
 30
0.0
 11
155.2673742092
 21
109.632936078
 31
0.0
  0
LINE
  5
E2
330
1F
100
AcDbEntity
  8
0
  6
HIDDEN
 62
     7
370
     0
100
AcDbLine
 10
155.2673742092
 20
106.632936078
 30
0.0
 11
155.2673742092
 21
108.132936078
 31
0.0
  0
LINE
  5
E3
330
1F
100
AcDbEntity
  8
0
  6
HIDDEN
 62
     7
370
     0
100
AcDbLine
 10
161.2673742093
 20
111.132936078
 30
0.0
 11
161.2673742093
 21
109.632936078
 31
0.0
  0
LINE
  5
E4
330
1F
100
AcDbEntity
  8
0
  6
HIDDEN
 62
     7
370
     0
100
AcDbLine
 10
155.2673742092
 20
105.132936078
 30
0.0
 11
155.2673742092
 21
106.632936078
 31
0.0
  0
LINE
  5
E5
330
1F
100
AcDbEntity
  8
0
  6
HIDDEN
 62
     7
370
     0
100
AcDbLine
 10
155.2673742092
 20
109.632936078
 30
0.0
 11
155.2673742092
 21
111.132936078
 31
0.0
  0
LINE
  5
E6
330
1F
100
AcDbEntity
  8
0
  6
HIDDEN
 62
     7
370
     0
100
AcDbLine
 10
161.2673742093
 20
106.632936078
 30
0.0
 11
161.2673742093
 21
105.132936078
 31
0.0
  0
LINE
  5
E7
330
1F
100
AcDbEntity
  8
0
  6
HIDDEN
 62
     7
370
     0
100
AcDbLine
 10
161.2673742093
 20
111.132936078
 30
0.0
 11
168.2673742093
 21
111.132936078
 31
0.0
  0
LINE
  5
E8
330
1F
100
AcDbEntity
  8
0
  6
HIDDEN
 62
     7
370
     0
100
AcDbLine
 10
161.2673742093
 20
105.132936078
 30
0.0
 11
168.2673742093
 21
105.132936078
 31
0.0
  0
LINE
  5
E9
330
1F
100
AcDbEntity
  8
0
  6
HIDDEN
 62
     7
370
     0
100
AcDbLine
 10
155.2673742092
 20
111.132936078
 30
0.0
 11
148.2673742092
 21
111.132936078
 31
0.0
  0
LINE
  5
EA
330
1F
100
AcDbEntity
  8
0
  6
HIDDEN
 62
     7
370
     0
100
AcDbLine
 10
155.2673742092
 20
105.132936078
 30
0.0
 11
148.2673742092
 21
105.132936078
 31
0.0
  0
SPLINE
  5
EB
330
1F
100
AcDbEntity
  8
0
  6
HIDDEN
 62
     7
370
     0
100
AcDbSpline
210
0.0
220
0.0
230
1.0
 70
     8
 71
     3
 72
    80
 73
    76
 74
     0
 42
0.00000001
 43
0.00000001
 40
-0.03125
 40
-0.03125
 40
0.0
 40
0.0
 40
0.0312500000000002
 40
0.0312500000000002
 40
0.0468750000000002
 40
0.0468750000000002
 40
0.0625000000000001
 40
0.0625000000000001
 40
0.0937499999999999
 40
0.0937499999999999
 40
0.1249999999999997
 40
0.1249999999999997
 40
0.1562499999999995
 40
0.1562499999999995
 40
0.1874999999999993
 40
0.1874999999999993
 40
0.2187499999999991
 40
0.2187499999999991
 40
0.2499999999999989
 40
0.2499999999999989
 40
0.2812499999999987
 40
0.2812499999999987
 40
0.3124999999999984
 40
0.3124999999999984
 40
0.3281249999999985
 40
0.3281249999999985
 40
0.3437499999999986
 40
0.3437499999999986
 40
0.3749999999999986
 40
0.3749999999999986
 40
0.4062499999999987
 40
0.4062499999999987
 40
0.4218749999999989
 40
0.4218749999999989
 40
0.4374999999999991
 40
0.4374999999999991
 40
0.4687499999999993
 40
0.4687499999999993
 40
0.4999999999999994
 40
0.4999999999999994
 40
0.5312499999999997
 40
0.5312499999999997
 40
0.5624999999999998
 40
0.5624999999999998
 40
0.59375
 40
0.59375
 40
0.6250000000000001
 40
0.6250000000000001
 40
0.6562500000000003
 40
0.6562500000000003
 40
0.6875000000000006
 40
0.6875000000000006
 40
0.7031250000000007
 40
0.7031250000000007
 40
0.7187500000000007
 40
0.7187500000000007
 40
0.7500000000000003
 40
0.7500000000000003
 40
0.78125
 40
0.78125
 40
0.7968749999999998
 40
0.7968749999999998
 40
0.8124999999999997
 40
0.8124999999999997
 40
0.8437499999999998
 40
0.8437499999999998
 40
0.8749999999999998
 40
0.8749999999999998
 40
0.9062499999999999
 40
0.9062499999999999
 40
0.9375
 40
0.9375
 40
0.96875
 40
0.96875
 40
1.0
 40
1.0
 40
1.03125
 40
1.03125
 10
113.9368288965086
 20
156.9924853344846
 30
0.0
 10
114.5979195220612
 20
156.9924853344846
 30
0.0
 10
114.9228996513128
 20
156.9855871886578
 30
0.0
 10
115.4023730625592
 20
156.9650607606773
 30
0.0
 10
115.5608548804
 20
156.9565045335897
 30
0.0
 10
115.8750744129043
 20
156.9357781583721
 30
0.0
 10
116.0311946965847
 20
156.9235508581657
 30
0.0
 10
116.4852487255413
 20
156.8819815643365
 30
0.0
 10
116.7723521084811
 20
156.8476372792387
 30
0.0
 10
117.3157066645081
 20
156.7643131549164
 30
0.0
 10
117.5728102757137
 20
156.7148749321419
 30
0.0
 10
118.0337165306525
 20
156.603495202382
 30
0.0
 10
118.2406142398675
 20
156.5412006888699
 30
0.0
 10
118.6061395538597
 20
156.4012710459989
 30
0.0
 10
118.7613450759856
 20
156.3246551482498
 30
0.0
 10
119.0107754625853
 20
156.1606965283941
 30
0.0
 10
119.1068654183705
 20
156.0721396742984
 30
0.0
 10
119.2353842675641
 20
155.8846589921926
 30
0.0
 10
119.2671951377419
 20
155.7874225307381
 30
0.0
 10
119.2675517875151
 20
155.5857898914111
 30
0.0
 10
119.2350545353181
 20
155.480241099573
 30
0.0
 10
119.1074290616036
 20
155.2701263168844
 30
0.0
 10
119.0130006605517
 20
155.1650608089155
 30
0.0
 10
118.8251398405661
 20
155.0081831016644
 30
0.0
 10
118.7543118417629
 20
154.9557493679587
 30
0.0
 10
118.5995899497977
 20
154.8533109223289
 30
0.0
 10
118.5156134796143
 20
154.8031631936771
 30
0.0
 10
118.2442898099698
 20
154.6561472372436
 30
0.0
 10
118.0377405913675
 20
154.5626594168092
 30
0.0
 10
117.5711304511785
 20
154.3868725591948
 30
0.0
 10
117.318764881553
 20
154.3074940841111
 30
0.0
 10
116.9128635398743
 20
154.2020116466171
 30
0.0
 10
116.7729629223968
 20
154.1691260817769
 30
0.0
 10
116.4837389871499
 20
154.1082106025483
 30
0.0
 10
116.3338995308606
 20
154.0801300309058
 30
0.0
 10
115.8797829612498
 20
154.0053279888631
 30
0.0
 10
115.568131742513
 20
153.9672899306169
 30
0.0
 10
114.9271352776006
 20
153.9156780040928
 30
0.0
 10
114.5956076496484
 20
153.9023640705713
 30
0.0
 10
113.9428166045769
 20
153.9022669842433
 30
0.0
 10
113.6182803995451
 20
153.9150550694043
 30
0.0
 10
112.9730109501287
 20
153.9665452590002
 30
0.0
 10
112.657267943966
 20
154.0050698383203
 30
0.0
 10
112.0553786489823
 20
154.1039724011783
 30
0.0
 10
111.7646294181708
 20
154.1650764991033
 30
0.0
 10
111.2177176264863
 20
154.3068859322141
 30
0.0
 10
110.9659402626494
 20
154.3862204167932
 30
0.0
 10
110.5045522700283
 20
154.5595991614547
 30
0.0
 10
110.2932829904302
 20
154.6547591062087
 30
0.0
 10
109.929978638054
 20
154.8513316295846
 30
0.0
 10
109.7761719896112
 20
154.953087857991
 30
0.0
 10
109.5875525200138
 20
155.1098738207765
 30
0.0
 10
109.5315220338047
 20
155.1631278545265
 30
0.0
 10
109.4359482720685
 20
155.2689324160793
 30
0.0
 10
109.3961853550435
 20
155.3215854804348
 30
0.0
 10
109.3004136047314
 20
155.478659199894
 30
0.0
 10
109.2676907656053
 20
155.5821842352211
 30
0.0
 10
109.2670621792762
 20
155.7863989694482
 30
0.0
 10
109.299248324011
 20
155.883902807033
 30
0.0
 10
109.3941590258666
 20
156.0232298573846
 30
0.0
 10
109.4336258092655
 20
156.0685465888891
 30
0.0
 10
109.5285558079864
 20
156.1569864098779
 30
0.0
 10
109.5843126357498
 20
156.2002406603379
 30
0.0
 10
109.7722527537197
 20
156.3241321349279
 30
0.0
 10
109.9256142234358
 20
156.3998344257019
 30
0.0
 10
110.2878784583162
 20
156.5390887971601
 30
0.0
 10
110.4987269317821
 20
156.6028506386888
 30
0.0
 10
110.959396902101
 20
156.7143474781567
 30
0.0
 10
111.2107712816849
 20
156.7628735504733
 30
0.0
 10
111.756679168583
 20
156.8469275338538
 30
0.0
 10
112.0475017432342
 20
156.8817260875205
 30
0.0
 10
112.6488283580142
 20
156.9369225522843
 30
0.0
 10
112.9633469426266
 20
156.9577404010382
 30
0.0
 10
113.6099283987466
 20
156.9855877339489
 30
0.0
 10
113.9368288965086
 20
156.9924853344846
 30
0.0
 10
114.5979195220612
 20
156.9924853344846
 30
0.0
  0
LINE
  5
EC
330
1F
100
AcDbEntity
  8
0
  6
HIDDEN
 62
     7
370
     0
100
AcDbLine
 10
122.0053451884
 20
147.0838988389
 30
0.0
 11
122.0053451884
 21
139.482936078
 31
0.0
  0
LINE
  5
ED
330
1F
100
AcDbEntity
  8
0
  6
HIDDEN
 62
     7
370
     0
100
AcDbLine
 10
134.2173742093
 20
139.7150116906
 30
0.0
 11
134.2173742093
 21
139.482936078
 31
0.0
  0
LINE
  5
EE
330
1F
100
AcDbEntity
  8
0
  6
HIDDEN
 62
     7
370
     0
100
AcDbLine
 10
85.6807989587
 20
71.3971297157
 30
0.0
 11
85.4108432575
 21
71.3732036164
 31
0.0
  0
SPLINE
  5
EF
330
1F
100
AcDbEntity
  8
0
  6
HIDDEN
 62
     7
370
     0
100
AcDbSpline
210
0.0
220
0.0
230
1.0
 70
     8
 71
     3
 72
    12
 73
     8
 74
     0
 42
0.00000001
 43
0.00000001
 40
0.0
 40
0.0
 40
0.0
 40
0.0
 40
0.1661348616746358
 40
0.3322013257404253
 40
0.5008932044678792
 40
0.752137078265245
 40
1.0
 40
1.0
 40
1.0
 40
1.0
 10
83.7866958749321
 20
145.0642401010722
 30
0.0
 10
83.79708849904009
 20
145.0628619770107
 30
0.0
 10
83.81786946861986
 20
145.0601062962605
 30
0.0
 10
83.99116895806615
 20
145.0385029212983
 30
0.0
 10
84.31312054731262
 20
145.0006379693566
 30
0.0
 10
84.83428638323254
 20
144.9402542026406
 30
0.0
 10
85.39984432306949
 20
144.8924610654911
 30
0.0
 10
85.68070774675583
 20
144.8687263723977
 30
0.0
  0
SPLINE
  5
F0
330
1F
100
AcDbEntity
  8
0
  6
HIDDEN
 62
     7
370
     0
100
AcDbSpline
210
0.0
220
0.0
230
1.0
 70
     8
 71
     3
 72
    11
 73
     7
 74
     0
 42
0.00000001
 43
0.00000001
 40
0.0
 40
0.0
 40
0.0
 40
0.0
 40
0.3256461289332606
 40
0.6607735376656554
 40
0.9864699632593061
 40
1.0
 40
1.0
 40
1.0
 40
1.0
 10
95.5205798644759
 20
139.4992582987537
 30
0.0
 10
95.66646058214404
 20
139.5225237404593
 30
0.0
 10
95.9624693761271
 20
139.5697320038325
 30
0.0
 10
96.19163156014234
 20
139.599827324087
 30
0.0
 10
96.29289473982323
 20
139.6130025076344
 30
0.0
 10
96.26515858394055
 20
139.6093874266945
 30
0.0
 10
96.2640523282388
 20
139.6092432393053
 30
0.0
  0
SPLINE
  5
F1
330
1F
100
AcDbEntity
  8
0
  6
HIDDEN
 62
     7
370
     0
100
AcDbSpline
210
0.0
220
0.0
230
1.0
 70
     8
 71
     3
 72
    13
 73
     9
 74
     0
 42
0.00000001
 43
0.00000001
 40
0.0
 40
0.0
 40
0.0
 40
0.0
 40
0.1539979226104572
 40
0.3222783181125256
 40
0.4885514682096989
 40
0.6560338508536209
 40
0.8273499408931121
 40
1.0
 40
1.0
 40
1.0
 40
1.0
 10
96.24660777777278
 20
76.65887128208101
 30
0.0
 10
96.25179208405365
 20
76.65819962946193
 30
0.0
 10
96.262641512932
 20
76.6567940320827
 30
0.0
 10
96.19330234641515
 20
76.66578063050511
 30
0.0
 10
96.09318538070711
 20
76.6791946820375
 30
0.0
 10
95.94665747824045
 20
76.69983524782684
 30
0.0
 10
95.76044361664779
 20
76.72740070403667
 30
0.0
 10
95.60074090148652
 20
76.75350905506106
 30
0.0
 10
95.5205798644759
 20
76.76661385725956
 30
0.0
  0
SPLINE
  5
F2
330
1F
100
AcDbEntity
  8
0
  6
HIDDEN
 62
     7
370
     0
100
AcDbSpline
210
0.0
220
0.0
230
1.0
 70
     8
 71
     3
 72
    33
 73
    29
 74
     0
 42
0.00000001
 43
0.00000001
 40
0.0
 40
0.0
 40
0.0
 40
0.0
 40
0.0315773698875104
 40
0.0633753287769057
 40
0.0958656851178231
 40
0.1285943208117605
 40
0.1601713694082662
 40
0.2244011681247345
 40
0.2571344568799636
 40
0.2885965627565487
 40
0.3526214070085076
 40
0.3852675959519929
 40
0.4162212184009612
 40
0.4791910353915302
 40
0.5112817741273479
 40
0.5421256322990662
 40
0.6048360558905652
 40
0.6367710793564881
 40
0.6680663384719832
 40
0.7316979547407203
 40
0.7641081282919966
 40
0.7957194290717577
 40
0.8275524266255816
 40
0.8600900250720824
 40
0.8928737620729298
 40
0.9241775068323748
 40
0.9878778414776339
 40
1.0
 40
1.0
 40
1.0
 40
1.0
 10
95.5205798644759
 20
76.76661385725956
 30
0.0
 10
95.43670871747065
 20
76.78048759564129
 30
0.0
 10
95.26838052752672
 20
76.80833198972604
 30
0.0
 10
94.96902593118521
 20
76.85476462995643
 30
0.0
 10
94.63502646392637
 20
76.90337723197727
 30
0.0
 10
94.26925650203907
 20
76.95252516516452
 30
0.0
 10
93.7458765873502
 20
77.01659095075715
 30
0.0
 10
93.16944937875563
 20
77.07637246516228
 30
0.0
 10
92.55431223190408
 20
77.12637207262632
 30
0.0
 10
91.91799650582116
 20
77.16851206530976
 30
0.0
 10
91.25421596838245
 20
77.19714679004777
 30
0.0
 10
90.58215021679935
 20
77.20940624113138
 30
0.0
 10
89.9127016333676
 20
77.21073553223965
 30
0.0
 10
89.24751706625365
 20
77.1958750093302
 30
0.0
 10
88.60122582736315
 20
77.16601704494103
 30
0.0
 10
87.97203587650479
 20
77.12727381687974
 30
0.0
 10
87.37232018432552
 20
77.07669558311987
 30
0.0
 10
86.8140206182037
 20
77.01829556865334
 30
0.0
 10
86.28382574781614
 20
76.95597233728382
 30
0.0
 10
85.80465904550455
 20
76.89056376274827
 30
0.0
 10
85.38974106030969
 20
76.8277748591423
 30
0.0
 10
85.11246867638366
 20
76.78327026032092
 30
0.0
 10
84.87091339082248
 20
76.74256131088595
 30
0.0
 10
84.66542138647407
 20
76.70650418023646
 30
0.0
 10
84.50125696272983
 20
76.6767471552841
 30
0.0
 10
84.34182301616454
 20
76.64716184185968
 30
0.0
 10
84.26358478821592
 20
76.63221256285482
 30
0.0
 10
84.27130957856075
 20
76.63368498545603
 30
0.0
 10
84.27254458323019
 20
76.63392038974622
 30
0.0
  0
SPLINE
  5
F3
330
1F
100
AcDbEntity
  8
0
  6
HIDDEN
 62
     7
370
     0
100
AcDbSpline
210
0.0
220
0.0
230
1.0
 70
     8
 71
     3
 72
    32
 73
    28
 74
     0
 42
0.00000001
 43
0.00000001
 40
0.0
 40
0.0
 40
0.0
 40
0.0
 40
0.020356822172105
 40
0.0512207857583794
 40
0.1139954454389432
 40
0.1459779869097674
 40
0.1769364677636727
 40
0.2398766914470389
 40
0.2719275468465721
 40
0.3033698011481659
 40
0.3673099924152954
 40
0.3998847012176188
 40
0.4314690120325909
 40
0.4957360700021212
 40
0.5285028301030422
 40
0.5596434488300034
 40
0.6230067766607702
 40
0.6553079823205556
 40
0.6861132872619372
 40
0.748756262689177
 40
0.7806634244345373
 40
0.8117607067089887
 40
0.8749825776111492
 40
0.9071778073885584
 40
0.9301738434827028
 40
0.9765719131095674
 40
1.0
 40
1.0
 40
1.0
 40
1.0
 10
84.27254458323019
 20
139.631951766267
 30
0.0
 10
84.27218753132394
 20
139.6320192451939
 30
0.0
 10
84.27128913573745
 20
139.6321890321886
 30
0.0
 10
84.33388288229007
 20
139.6202947910012
 30
0.0
 10
84.4756940637536
 20
139.5936479140816
 30
0.0
 10
84.6997386556291
 20
139.553265842669
 30
0.0
 10
84.97428077146333
 20
139.5053966009185
 30
0.0
 10
85.32297206047087
 20
139.4479267156388
 30
0.0
 10
85.73924802284829
 20
139.3854321685842
 30
0.0
 10
86.20084206971107
 20
139.3209064869449
 30
0.0
 10
86.72438001880623
 20
139.2563261099617
 30
0.0
 10
87.29657749326097
 20
139.1975707450769
 30
0.0
 10
87.89878386371294
 20
139.1441978886947
 30
0.0
 10
88.54001037049443
 20
139.1013353268625
 30
0.0
 10
89.20109568849058
 20
139.0732712808414
 30
0.0
 10
89.86780664293714
 20
139.0556826233017
 30
0.0
 10
90.54169586354408
 20
139.054235975061
 30
0.0
 10
91.20604534749187
 20
139.0691615141988
 30
0.0
 10
91.8575796216515
 20
139.0941682394225
 30
0.0
 10
92.48823883430751
 20
139.1332722821043
 30
0.0
 10
93.08577781012998
 20
139.183373439888
 30
0.0
 10
93.65977577808474
 20
139.2395446063712
 30
0.0
 10
94.19072549147803
 20
139.30245863506
 30
0.0
 10
94.63410637274214
 20
139.3625621371136
 30
0.0
 10
94.98562702031576
 20
139.4134518540988
 30
0.0
 10
95.27529453029263
 20
139.4585743306367
 30
0.0
 10
95.45895729469031
 20
139.4890373425241
 30
0.0
 10
95.5205798644759
 20
139.4992582987537
 30
0.0
  0
LINE
  5
F4
330
1F
100
AcDbEntity
  8
0
  6
HIDDEN
 62
     7
370
     0
100
AcDbLine
 10
75.2639985363
 20
81.632936078
 30
0.0
 11
75.2639985363
 21
134.632936078
 31
0.0
  0
LINE
  5
F5
330
1F
100
AcDbEntity
  8
0
  6
HIDDEN
 62
     7
370
     0
100
AcDbLine
 10
114.5514518276
 20
81.632936078
 30
0.0
 11
114.5514518276
 21
134.632936078
 31
0.0
  0
LINE
  5
F6
330
1F
100
AcDbEntity
  8
0
  6
HIDDEN
 62
     7
370
     0
100
AcDbLine
 10
117.7173742093
 20
83.257936078
 30
0.0
 11
117.7173742093
 21
133.0079360601
 31
0.0
  0
SPLINE
  5
F7
330
1F
100
AcDbEntity
  8
0
  6
HIDDEN
 62
     7
370
     0
100
AcDbSpline
210
0.0
220
0.0
230
1.0
 70
     8
 71
     3
 72
    20
 73
    16
 74
     0
 42
0.00000001
 43
0.00000001
 40
0.0
 40
0.0
 40
0.0
 40
0.0
 40
0.2499999999999978
 40
0.2499999999999978
 40
0.3749999999999982
 40
0.3749999999999982
 40
0.4999999999999986
 40
0.4999999999999986
 40
0.6249999999999989
 40
0.6249999999999989
 40
0.7499999999999992
 40
0.7499999999999992
 40
0.8749999999999997
 40
0.8749999999999997
 40
1.0
 40
1.0
 40
1.0
 40
1.0
 10
65.46737420928486
 20
133.3614497084209
 30
0.0
 10
65.46737420928486
 20
133.2822467218886
 30
0.0
 10
65.42039171407212
 20
133.2011505034857
 30
0.0
 10
65.28257012329455
 20
133.0809538117348
 30
0.0
 10
65.22628783938457
 20
133.0420271077327
 30
0.0
 10
65.09320298791735
 20
132.9668383753084
 30
0.0
 10
65.01536304568428
 20
132.9301961699664
 30
0.0
 10
64.84273068956995
 20
132.8626056371345
 30
0.0
 10
64.74833769247887
 20
132.8316474553589
 30
0.0
 10
64.54290038616372
 20
132.7761230339892
 30
0.0
 10
64.43055414617655
 20
132.751414520156
 30
0.0
 10
64.1983132822769
 20
132.7116182930478
 30
0.0
 10
64.07760263985418
 20
132.6961984556507
 30
0.0
 10
63.82653178058516
 20
132.6751184808111
 30
0.0
 10
63.69700978416937
 20
132.6696412357902
 30
0.0
 10
63.56737420928488
 20
132.6696412357902
 30
0.0
  0
LINE
  5
F8
330
1F
100
AcDbEntity
  8
0
  6
HIDDEN
 62
     7
370
     0
100
AcDbLine
 10
63.5673742093
 20
132.6696412358
 30
0.0
 11
57.0173742093
 21
132.6696412358
 31
0.0
  0
LINE
  5
F9
330
1F
100
AcDbEntity
  8
0
  6
HIDDEN
 62
     7
370
     0
100
AcDbLine
 10
57.0173742093
 20
83.5962309202
 30
0.0
 11
68.5673742093
 21
83.5962309202
 31
0.0
  0
SPLINE
  5
FA
330
1F
100
AcDbEntity
  8
0
  6
HIDDEN
 62
     7
370
     0
100
AcDbSpline
210
0.0
220
0.0
230
1.0
 70
     8
 71
     3
 72
    18
 73
    14
 74
     0
 42
0.00000001
 43
0.00000001
 40
0.0
 40
0.0
 40
0.0
 40
0.0
 40
0.1249999999999982
 40
0.1249999999999982
 40
0.2499999999999964
 40
0.2499999999999964
 40
0.4999999999999988
 40
0.4999999999999988
 40
0.7500000000000011
 40
0.7500000000000011
 40
0.8750000000000006
 40
0.8750000000000006
 40
1.0
 40
1.0
 40
1.0
 40
1.0
 10
68.56737420928485
 20
83.5962309202231
 30
0.0
 10
68.6968415222421
 20
83.5962309202231
 30
0.0
 10
68.82385227113872
 20
83.59087792163048
 30
0.0
 10
69.07321559233597
 20
83.57013994894169
 30
0.0
 10
69.1968392469644
 20
83.5544680446874
 30
0.0
 10
69.54587158389843
 20
83.49477331628532
 30
0.0
 10
69.75638334870524
 20
83.43700813660432
 30
0.0
 10
70.10030002640474
 20
83.30248629532683
 30
0.0
 10
70.23665042792257
 20
83.22481718182142
 30
0.0
 10
70.3736884844851
 20
83.10552604773407
 30
0.0
 10
70.40890750319801
 20
83.06460703859904
 30
0.0
 10
70.45553108013655
 20
82.98395104530901
 30
0.0
 10
70.46737420928488
 20
82.94398252511614
 30
0.0
 10
70.46737420928487
 20
82.90442244759232
 30
0.0
  0
LINE
  5
FB
330
1F
100
AcDbEntity
  8
0
  6
HIDDEN
 62
     7
370
     0
100
AcDbLine
 10
57.0173742093
 20
83.5962309202
 30
0.0
 11
57.0173742093
 21
132.6696412358
 31
0.0
  0
LINE
  5
FC
330
1F
100
AcDbEntity
  8
0
  6
HIDDEN
 62
     7
370
     0
100
AcDbLine
 10
231.7673742093
 20
83.132936078
 30
0.0
 11
231.7673742093
 21
133.132936078
 31
0.0
  0
SPLINE
  5
FD
330
1F
100
AcDbEntity
  8
0
  6
HIDDEN
 62
     7
370
     0
100
AcDbSpline
210
0.0
220
0.0
230
1.0
 70
     8
 71
     3
 72
    12
 73
     8
 74
     0
 42
0.00000001
 43
0.00000001
 40
0.0
 40
0.0
 40
0.0
 40
0.0
 40
0.2143811262648317
 40
0.4287460030054602
 40
0.6435323626577251
 40
0.8585950433492249
 40
1.0
 40
1.0
 40
1.0
 40
1.0
 10
156.2673742092849
 20
133.3537608067898
 30
0.0
 10
156.4917549977093
 20
133.355549346828
 30
0.0
 10
156.9404995670859
 20
133.3591262913378
 30
0.0
 10
157.5401843548555
 20
133.3842497881671
 30
0.0
 10
157.9885326883895
 20
133.4114714295897
 30
0.0
 10
158.2434711456822
 20
133.4310250212744
 30
0.0
 10
158.2423526801148
 20
133.4309652596082
 30
0.0
 10
158.2419090028815
 20
133.4309415531201
 30
0.0
  0
LINE
  5
FE
330
1F
100
AcDbEntity
  8
0
  6
HIDDEN
 62
     7
370
     0
100
AcDbLine
 10
156.376492143
 20
133.355190121
 30
0.0
 11
155.8249478629
 21
133.3577789671
 31
0.0
  0
SPLINE
  5
FF
330
1F
100
AcDbEntity
  8
0
  6
HIDDEN
 62
     7
370
     0
100
AcDbSpline
210
0.0
220
0.0
230
1.0
 70
     8
 71
     3
 72
    13
 73
     9
 74
     0
 42
0.00000001
 43
0.00000001
 40
0.0
 40
0.0
 40
0.0
 40
0.0
 40
0.0037865045309518
 40
0.217849413195229
 40
0.4319054100241342
 40
0.6465390392363694
 40
0.861439239634833
 40
0.9999999999999999
 40
0.9999999999999999
 40
0.9999999999999999
 40
0.9999999999999999
 10
154.2693295681009
 20
133.4327856172398
 30
0.0
 10
154.2686786399666
 20
133.4328356973704
 30
0.0
 10
154.2312287146022
 20
133.4357169634463
 30
0.0
 10
154.3644244068341
 20
133.4251414562283
 30
0.0
 10
154.6767771909078
 20
133.402706563269
 30
0.0
 10
155.1946295472769
 20
133.3744472667309
 30
0.0
 10
155.7532085237893
 20
133.3564299395075
 30
0.0
 10
156.1225773735425
 20
133.3545124749438
 30
0.0
 10
156.2673742092849
 20
133.3537608067898
 30
0.0
  0
SPLINE
  5
100
330
1F
100
AcDbEntity
  8
0
  6
HIDDEN
 62
     7
370
     0
100
AcDbSpline
210
0.0
220
0.0
230
1.0
 70
     8
 71
     3
 72
    26
 73
    22
 74
     0
 42
0.00000001
 43
0.00000001
 40
0.0
 40
0.0
 40
0.0
 40
0.0
 40
0.0528136917502302
 40
0.1071618948293056
 40
0.1599747564288979
 40
0.2143135577368628
 40
0.267229140631947
 40
0.3216750332969406
 40
0.3746554201449984
 40
0.4291783839632193
 40
0.4820458628512517
 40
0.5364534648585215
 40
0.5892064852743236
 40
0.6434862613866213
 40
0.6963018562096902
 40
0.7506408429231005
 40
0.8035982548996626
 40
0.8580908418406966
 40
0.9110483927650052
 40
0.9655497528674022
 40
1.0
 40
1.0
 40
1.0
 40
1.0
 10
158.2673742092849
 20
82.83293607800663
 30
0.0
 10
158.2620509907363
 20
82.83335972864542
 30
0.0
 10
158.2512498865651
 20
82.83421933916863
 30
0.0
 10
158.1643613119973
 20
82.84095301436207
 30
0.0
 10
158.0269229925831
 20
82.85097693702856
 30
0.0
 10
157.8400950999344
 20
82.86341470352266
 30
0.0
 10
157.6070470035525
 20
82.87697210551099
 30
0.0
 10
157.3379366487758
 20
82.88994317648904
 30
0.0
 10
157.035667811386
 20
82.9010589913092
 30
0.0
 10
156.7143702328555
 20
82.90887303765858
 30
0.0
 10
156.3775545696671
 20
82.91262656386193
 30
0.0
 10
156.0411373131129
 20
82.91184322845348
 30
0.0
 10
155.7083880405332
 20
82.90661379869462
 30
0.0
 10
155.3945489019079
 20
82.89762222762849
 30
0.0
 10
155.1025843846386
 20
82.88572918597916
 30
0.0
 10
154.84566255836
 20
82.87244435739433
 30
0.0
 10
154.6267770845731
 20
82.85906008733113
 30
0.0
 10
154.4554053254732
 20
82.8472397676149
 30
0.0
 10
154.3363903823375
 20
82.83835610266809
 30
0.0
 10
154.2729497119028
 20
82.83337833982124
 30
0.0
 10
154.2734317294856
 20
82.83341457669758
 30
0.0
 10
154.2736184110461
 20
82.8334286109504
 30
0.0
  0
LINE
  5
101
330
1F
100
AcDbEntity
  8
0
  6
HIDDEN
 62
     7
370
     0
100
AcDbLine
 10
153.2673742093
 20
83.232936078
 30
0.0
 11
153.2673742093
 21
133.0329360619
 31
0.0
  0
LINE
  5
102
330
1F
100
AcDbEntity
  8
0
  6
HIDDEN
 62
     7
370
     0
100
AcDbLine
 10
163.7673742093
 20
83.132936078
 30
0.0
 11
163.7673742093
 21
133.132936078
 31
0.0
  0
LWPOLYLINE
  5
103
330
1F
100
AcDbEntity
  8
0
  6
HIDDEN
 62
     7
370
     0
100
AcDbPolyline
 90
       14
 70
   128
 43
0.0
 10
114.2673742093
 20
148.0766666413
 10
115.3422264103
 20
148.1242130247
 10
116.3668197171
 20
148.264628959
 10
117.2932452853
 20
148.4913487511
 10
118.0781844849
 20
148.7937712355
 10
118.6849344315
 20
149.1577554729
 10
119.0851241719
 20
149.566281965
 10
119.2600412785
 20
150.000248467
 10
119.201506822
 20
150.4393631876
 10
118.9122578084
 20
150.8630936106
 10
118.4058192001
 20
151.2516265722
 10
117.7058715036
 20
151.586794703
 10
116.8451434952
 20
151.8529259138
 10
116.7133926777
 20
151.8840664573
  0
LWPOLYLINE
  5
104
330
1F
100
AcDbEntity
  8
0
  6
HIDDEN
 62
     7
370
     0
100
AcDbPolyline
 90
       14
 70
   128
 43
0.0
 10
111.808862703
 20
151.8812067073
 10
111.6896049234
 20
151.8529259138
 10
110.828876915
 20
151.586794703
 10
110.1289292185
 20
151.2516265722
 10
109.6224906102
 20
150.8630936106
 10
109.3332415966
 20
150.4393631876
 10
109.27470714
 20
150.000248467
 10
109.4496242467
 20
149.566281965
 10
109.8498139871
 20
149.1577554729
 10
110.4565639336
 20
148.7937712355
 10
111.2415031333
 20
148.4913487511
 10
112.1679287015
 20
148.264628959
 10
113.1925220082
 20
148.1242130247
 10
114.2673742093
 20
148.0766666413
  0
LINE
  5
105
330
1F
100
AcDbEntity
  8
0
  6
HIDDEN
 62
     7
370
     0
100
AcDbLine
 10
57.0173742093
 20
80.762936078
 30
0.0
 11
57.0173742093
 21
75.8846508762
 31
0.0
  0
LINE
  5
106
330
1F
100
AcDbEntity
  8
0
  6
HIDDEN
 62
     7
370
     0
100
AcDbLine
 10
70.4673742093
 20
80.762936078
 30
0.0
 11
70.4673742093
 21
74.2636028126
 31
0.0
  0
LINE
  5
107
330
1F
100
AcDbEntity
  8
0
  6
HIDDEN
 62
     7
370
     0
100
AcDbLine
 10
65.4673742093
 20
135.502936078
 30
0.0
 11
65.4673742093
 21
141.877544815
 31
0.0
  0
LINE
  5
108
330
1F
100
AcDbEntity
  8
0
  6
HIDDEN
 62
     7
370
     0
100
AcDbLine
 10
57.0173742093
 20
135.502936078
 30
0.0
 11
57.0173742093
 21
140.3812212798
 31
0.0
  0
LINE
  5
109
330
1F
100
AcDbEntity
  8
0
  6
HIDDEN
 62
     7
370
     0
100
AcDbLine
 10
129.5673742093
 20
95.132936078
 30
0.0
 11
129.5673742093
 21
121.132936078
 31
0.0
  0
LINE
  5
10A
330
1F
100
AcDbEntity
  8
0
  6
HIDDEN
 62
     7
370
     0
100
AcDbLine
 10
133.5673742093
 20
95.132936078
 30
0.0
 11
133.5673742093
 21
121.132936078
 31
0.0
  0
LINE
  5
10B
330
1F
100
AcDbEntity
  8
0
  6
HIDDEN
 62
     7
370
     0
100
AcDbLine
 10
118.4673742093
 20
96.882936078
 30
0.0
 11
118.4673742093
 21
119.382936078
 31
0.0
  0
ELLIPSE
  5
10C
330
1F
100
AcDbEntity
  8
0
  6
HIDDEN
 62
     7
370
     0
100
AcDbEllipse
 10
49.082701009
 20
108.132936078
 30
0.0
 11
31.08108570811661
 21
1.421085471520200E-14
 31
0.0
210
0.0
220
0.0
230
1.0
 40
0.8164965809
 41
1.31264926821481
 42
1.367189972061495
  0
ELLIPSE
  5
10D
330
1F
100
AcDbEntity
  8
0
  6
HIDDEN
 62
     7
370
     0
100
AcDbEllipse
 10
49.082701009
 20
108.132936078
 30
0.0
 11
31.08108570811661
 21
-1.421085471520200E-14
 31
0.0
210
0.0
220
0.0
230
1.0
 40
0.8164965809
 41
4.915995335118103
 42
4.970536038964788
  0
LINE
  5
10E
330
1F
100
AcDbEntity
  8
0
  6
HIDDEN
 62
     7
370
     0
100
AcDbLine
 10
134.2173742093
 20
64.232936078
 30
0.0
 11
120.2173742093
 21
64.232936078
 31
0.0
  0
LINE
  5
10F
330
1F
100
AcDbEntity
  8
0
  6
HIDDEN
 62
     7
370
     0
100
AcDbLine
 10
110.2173742093
 20
58.1429370782
 30
0.0
 11
110.2173742093
 21
64.232936078
 31
0.0
  0
LINE
  5
110
330
1F
100
AcDbEntity
  8
0
  6
HIDDEN
 62
     7
370
     0
100
AcDbLine
 10
120.2173742093
 20
64.232936078
 30
0.0
 11
110.2173742093
 21
64.232936078
 31
0.0
  0
LINE
  5
111
330
1F
100
AcDbEntity
  8
0
  6
HIDDEN
 62
     7
370
     0
100
AcDbLine
 10
70.4673742093
 20
80.762936078
 30
0.0
 11
70.4673742093
 21
82.9044224476
 31
0.0
  0
LINE
  5
112
330
1F
100
AcDbEntity
  8
0
  6
HIDDEN
 62
     7
370
     0
100
AcDbLine
 10
57.0173742093
 20
80.762936078
 30
0.0
 11
57.0173742093
 21
83.5962309202
 31
0.0
  0
LINE
  5
113
330
1F
100
AcDbEntity
  8
0
  6
HIDDEN
 62
     7
370
     0
100
AcDbLine
 10
57.0173742093
 20
135.502936078
 30
0.0
 11
57.0173742093
 21
132.6696412358
 31
0.0
  0
LINE
  5
114
330
1F
100
AcDbEntity
  8
0
  6
HIDDEN
 62
     7
370
     0
100
AcDbLine
 10
65.4673742093
 20
135.502936078
 30
0.0
 11
65.4673742093
 21
133.3614497084
 31
0.0
  0
LINE
  5
115
330
1F
100
AcDbEntity
  8
0
  6
HIDDEN
 62
     7
370
     0
100
AcDbLine
 10
120.2173742093
 20
152.032936078
 30
0.0
 11
110.2173742093
 21
152.032936078
 31
0.0
  0
LINE
  5
116
330
1F
100
AcDbEntity
  8
0
  6
HIDDEN
 62
     7
370
     0
100
AcDbLine
 10
134.2173742093
 20
152.032936078
 30
0.0
 11
120.2173742093
 21
152.032936078
 31
0.0
  0
SPLINE
  5
117
330
1F
100
AcDbEntity
  8
0
  6
HIDDEN
 62
     7
370
     0
100
AcDbSpline
210
0.0
220
0.0
230
1.0
 70
     8
 71
     3
 72
    30
 73
    26
 74
     0
 42
0.00000001
 43
0.00000001
 40
0.0
 40
0.0
 40
0.0
 40
0.0
 40
0.0531447636032902
 40
0.1125253849903657
 40
0.1779224446010078
 40
0.2129464013770652
 40
0.2494993959182419
 40
0.2912650908797377
 40
0.3261073136988883
 40
0.3540223520086863
 40
0.3750075585794415
 40
0.4414649821521711
 40
0.5001823687817046
 40
0.5546968740318944
 40
0.6144408596563163
 40
0.6794659614387356
 40
0.7140228363110336
 40
0.7499196807574787
 40
0.7913840369220502
 40
0.8260508493928073
 40
0.8539163343698284
 40
0.8749776397627329
 40
0.941163866642343
 40
0.9999141571675723
 40
1.0
 40
1.0
 40
1.0
 40
1.0
 10
96.2669145080135
 20
71.0330091899917
 30
0.0
 10
96.25071756297376
 20
71.03790979735003
 30
0.0
 10
96.2164231687063
 20
71.04828603561498
 30
0.0
 10
95.91510379902172
 20
71.12394032501732
 30
0.0
 10
95.4729348776806
 20
71.22022665570331
 30
0.0
 10
94.978102213713
 20
71.31989148361032
 30
0.0
 10
94.5076265240554
 20
71.4121696299484
 30
0.0
 10
93.9767051054614
 20
71.50780166270066
 30
0.0
 10
93.43855460189796
 20
71.59345190578644
 30
0.0
 10
92.98050726791449
 20
71.66074369879335
 30
0.0
 10
92.32494294669965
 20
71.74909186777401
 30
0.0
 10
91.44163650878289
 20
71.84574995201456
 30
0.0
 10
90.31297477595653
 20
71.93252512878387
 30
0.0
 10
89.22321302609757
 20
71.97060382650628
 30
0.0
 10
88.12718474759318
 20
71.97245426127829
 30
0.0
 10
87.22179350070755
 20
71.94629280568903
 30
0.0
 10
86.5254907904073
 20
71.9096855805515
 30
0.0
 10
85.99881106256545
 20
71.87066870508734
 30
0.0
 10
85.53216494793433
 20
71.82845957764003
 30
0.0
 10
85.16094967233275
 20
71.7914554880925
 30
0.0
 10
84.90690319472799
 20
71.76275472762765
 30
0.0
 10
84.60584804169108
 20
71.72637477701704
 30
0.0
 10
84.35036424673542
 20
71.69359461000333
 30
0.0
 10
84.25114352178444
 20
71.6772567253015
 30
0.0
 10
84.26742407906545
 20
71.67985031146677
 30
0.0
 10
84.2674478326514
 20
71.67985409554926
 30
0.0
  0
SPLINE
  5
118
330
1F
100
AcDbEntity
  8
0
  6
HIDDEN
 62
     7
370
     0
100
AcDbSpline
210
0.0
220
0.0
230
1.0
 70
     8
 71
     3
 72
    30
 73
    26
 74
     0
 42
0.00000001
 43
0.00000001
 40
0.0
 40
0.0
 40
0.0
 40
0.0
 40
0.00011232880577
 40
0.0285431152740163
 40
0.0588466796165893
 40
0.0910271964581777
 40
0.1250880910051609
 40
0.1546766141359749
 40
0.1963554560347645
 40
0.2501101496291564
 40
0.3205253872367429
 40
0.3856104300224916
 40
0.4454038608875526
 40
0.4999571692315344
 40
0.5283494388454997
 40
0.5586340270215411
 40
0.5908185964941228
 40
0.6249094714580506
 40
0.6541844576010744
 40
0.6958630078793602
 40
0.7499307292179759
 40
0.821590528568654
 40
0.8871422909705703
 40
0.94663787488603
 40
1.0
 40
1.0
 40
1.0
 40
1.0
 10
84.26746954138468
 20
144.585947787035
 30
0.0
 10
84.26743768162657
 20
144.5859547341612
 30
0.0
 10
84.25934201335869
 20
144.5877200215526
 30
0.0
 10
84.28800349103037
 20
144.5822651028258
 30
0.0
 10
84.36139033721048
 20
144.5717222554793
 30
0.0
 10
84.5050468807653
 20
144.5520370478274
 30
0.0
 10
84.70608258067938
 20
144.5271977839755
 30
0.0
 10
84.98871312987707
 20
144.4929893188387
 30
0.0
 10
85.40212225542236
 20
144.4493094220792
 30
0.0
 10
86.07840975663893
 20
144.3862663545473
 30
0.0
 10
87.0168406576104
 20
144.324969184119
 30
0.0
 10
88.12633387109398
 20
144.2936807406217
 30
0.0
 10
89.22381460179045
 20
144.2953359082169
 30
0.0
 10
90.12384584022806
 20
144.3266421103018
 30
0.0
 10
90.83518676604488
 20
144.373475259094
 30
0.0
 10
91.40060366700413
 20
144.4206421209873
 30
0.0
 10
91.98952708986765
 20
144.4800811275412
 30
0.0
 10
92.553936742482
 20
144.5464383341668
 30
0.0
 10
93.14813293653188
 20
144.6283577406115
 30
0.0
 10
93.81474109748231
 20
144.7300057233618
 30
0.0
 10
94.61607384308385
 20
144.8721446339536
 30
0.0
 10
95.36858382752695
 20
145.0233892047137
 30
0.0
 10
95.9138703224941
 20
145.1412400779747
 30
0.0
 10
96.2165918539976
 20
145.2174693097225
 30
0.0
 10
96.25088230461134
 20
145.2279216192126
 30
0.0
 10
96.26709574126178
 20
145.2328637490106
 30
0.0
  0
LINE
  5
119
330
1F
100
AcDbEntity
  8
0
  6
HIDDEN
 62
     7
370
     0
100
AcDbLine
 10
152.7673742093
 20
102.632936078
 30
0.0
 11
152.7673742093
 21
113.632936078
 31
0.0
  0
LINE
  5
11A
330
1F
100
AcDbEntity
  8
0
  6
HIDDEN
 62
     7
370
     0
100
AcDbLine
 10
142.3673742093
 20
102.132936078
 30
0.0
 11
142.3673742093
 21
114.132936078
 31
0.0
  0
LINE
  5
11B
330
1F
100
AcDbEntity
  8
0
  6
HIDDEN
 62
     7
370
     0
100
AcDbLine
 10
142.6678045188
 20
102.632936078
 30
0.0
 11
142.6678045188
 21
113.632936078
 31
0.0
  0
LINE
  5
11C
330
1F
100
AcDbEntity
  8
0
  6
HIDDEN
 62
     7
370
     0
100
AcDbLine
 10
149.7173742093
 20
69.2102863472
 30
0.0
 11
144.7173742093
 21
69.2102863472
 31
0.0
  0
LINE
  5
11D
330
1F
100
AcDbEntity
  8
0
  6
HIDDEN
 62
     7
370
     0
100
AcDbLine
 10
147.2173742093
 20
147.0555858088
 30
0.0
 11
149.7173742093
 21
147.0555858088
 31
0.0
  0
LINE
  5
11E
330
1F
100
AcDbEntity
  8
0
  6
HIDDEN
 62
     7
370
     0
100
AcDbLine
 10
144.7173742093
 20
147.0555858088
 30
0.0
 11
147.2173742093
 21
147.0555858088
 31
0.0
  0
LINE
  5
11F
330
1F
100
AcDbEntity
  8
0
  6
HIDDEN
 62
     7
370
     0
100
AcDbLine
 10
147.2173742093
 20
135.632936078
 30
0.0
 11
149.7173742093
 21
135.632936078
 31
0.0
  0
LINE
  5
120
330
1F
100
AcDbEntity
  8
0
  6
HIDDEN
 62
     7
370
     0
100
AcDbLine
 10
144.7173742093
 20
135.632936078
 30
0.0
 11
147.2173742093
 21
135.632936078
 31
0.0
  0
LINE
  5
121
330
1F
100
AcDbEntity
  8
0
  6
HIDDEN
 62
     7
370
     0
100
AcDbLine
 10
149.7173742093
 20
80.632936078
 30
0.0
 11
144.7173742093
 21
80.632936078
 31
0.0
  0
LINE
  5
122
330
1F
100
AcDbEntity
  8
0
  6
HIDDEN
 62
     7
370
     0
100
AcDbLine
 10
156.2673742093
 20
73.632936078
 30
0.0
 11
158.2673742093
 21
73.632936078
 31
0.0
  0
LINE
  5
123
330
1F
100
AcDbEntity
  8
0
  6
HIDDEN
 62
     7
370
     0
100
AcDbLine
 10
154.2673742093
 20
73.632936078
 30
0.0
 11
156.2673742093
 21
73.632936078
 31
0.0
  0
SPLINE
  5
124
330
1F
100
AcDbEntity
  8
0
  6
HIDDEN
 62
     7
370
     0
100
AcDbSpline
210
0.0
220
0.0
230
1.0
 70
     8
 71
     3
 72
    30
 73
    26
 74
     0
 42
0.00000001
 43
0.00000001
 40
0.0
 40
0.0
 40
0.0
 40
0.0
 40
0.0414412690291362
 40
0.0842947113695365
 40
0.125697558726899
 40
0.1681123829571924
 40
0.2254717067013174
 40
0.2844745914669572
 40
0.3430907850696377
 40
0.4032116585644203
 40
0.4363179896277891
 40
0.4701017962545477
 40
0.5032870542272116
 40
0.5377782986878988
 40
0.5665969891573998
 40
0.5960158593659434
 40
0.6465849815535103
 40
0.6985171762080142
 40
0.7519870819336093
 40
0.8066631369679794
 40
0.8536696350292831
 40
0.9019091676884199
 40
0.9489857498294546
 40
0.9979076744658061
 40
1.0
 40
1.0
 40
1.0
 40
1.0
 10
158.2673742092849
 20
77.75887091011045
 30
0.0
 10
158.2648215441191
 20
77.75567877305195
 30
0.0
 10
158.2596292278987
 20
77.74918572208367
 30
0.0
 10
158.2187577439833
 20
77.69777751869121
 30
0.0
 10
158.1569653890296
 20
77.6190118816339
 30
0.0
 10
158.0674526823027
 20
77.50260112345528
 30
0.0
 10
157.9469505802986
 20
77.34044777259932
 30
0.0
 10
157.7999882816707
 20
77.12930661397205
 30
0.0
 10
157.6482797710574
 20
76.88583578516823
 30
0.0
 10
157.5290882249845
 20
76.65236224023484
 30
0.0
 10
157.4509712505521
 20
76.43943981343396
 30
0.0
 10
157.4084731472866
 20
76.26182164246495
 30
0.0
 10
157.3923743108782
 20
76.07490399567124
 30
0.0
 10
157.4070965255408
 20
75.89687121144222
 30
0.0
 10
157.4454792850154
 20
75.7321180573141
 30
0.0
 10
157.5106241797536
 20
75.54852095179996
 30
0.0
 10
157.6126318046157
 20
75.34337669847258
 30
0.0
 10
157.7474585588693
 20
75.12632923342713
 30
0.0
 10
157.8873498788209
 20
74.92870772682647
 30
0.0
 10
158.0143798761931
 20
74.76335022390451
 30
0.0
 10
158.1205140695277
 20
74.6315875091572
 30
0.0
 10
158.2011702640156
 20
74.53446312630618
 30
0.0
 10
158.2516340813258
 20
74.47477172951034
 30
0.0
 10
158.2718755284425
 20
74.45103433647698
 30
0.0
 10
158.266963928457
 20
74.45680696675586
 30
0.0
 10
158.2667624814881
 20
74.45704372847817
 30
0.0
  0
LWPOLYLINE
  5
125
330
1F
100
AcDbEntity
  8
0
  6
HIDDEN
 62
     7
370
     0
100
AcDbPolyline
 90
       25
 70
   128
 43
0.0
 10
154.270971998
 20
74.3036719411
 10
154.2717847783
 20
74.3046906768
 10
154.296348663
 20
74.3355724645
 10
154.3422052442
 20
74.393722159
 10
154.4071754175
 20
74.4773466962
 10
154.4885471844
 20
74.5844862229
 10
154.626300562
 20
74.7738222217
 10
154.7798451704
 20
75.0027468517
 10
154.9296248686
 20
75.2603122178
 10
155.0607896385
 20
75.5589742511
 10
155.1071379821
 20
75.7212218345
 10
155.1335320555
 20
75.8944103592
 10
155.134115415
 20
76.0668686689
 10
155.1078557709
 20
76.2424704677
 10
155.0487210264
 20
76.4371366971
 10
154.9662880742
 20
76.622852285
 10
154.8221737746
 20
76.8735437097
 10
154.6676200811
 20
77.0991643789
 10
154.5226995579
 20
77.2905505354
 10
154.3962328666
 20
77.4478483071
 10
154.3300733657
 20
77.5275297841
 10
154.2852973202
 20
77.5806266143
 10
154.2719352593
 20
77.5963539049
 10
154.2673742093
 20
77.6017104821
 10
154.2673742093
 20
77.6017104821
  0
LINE
  5
126
330
1F
100
AcDbEntity
  8
0
  6
HIDDEN
 62
     7
370
     0
100
AcDbLine
 10
156.2673742093
 20
142.832936078
 30
0.0
 11
154.2673742093
 21
142.832936078
 31
0.0
  0
LINE
  5
127
330
1F
100
AcDbEntity
  8
0
  6
HIDDEN
 62
     7
370
     0
100
AcDbLine
 10
158.2673742093
 20
142.832936078
 30
0.0
 11
156.2673742093
 21
142.832936078
 31
0.0
  0
SPLINE
  5
128
330
1F
100
AcDbEntity
  8
0
  6
HIDDEN
 62
     7
370
     0
100
AcDbSpline
210
0.0
220
0.0
230
1.0
 70
     8
 71
     3
 72
    18
 73
    14
 74
     0
 42
0.00000001
 43
0.00000001
 40
0.0
 40
0.0
 40
0.0
 40
0.0
 40
0.0863419843860902
 40
0.1723426652547242
 40
0.2876549270754561
 40
0.4046783142424406
 40
0.4684440055337141
 40
0.5326575290673772
 40
0.6082078169985634
 40
0.7283561969990567
 40
0.8530509687023128
 40
0.9383696256473189
 40
1.0
 40
1.0
 40
1.0
 40
1.0
 10
154.2673742092849
 20
138.6641616739335
 30
0.0
 10
154.2787131475988
 20
138.6773843585395
 30
0.0
 10
154.3013462022371
 20
138.7037774594512
 30
0.0
 10
154.4809577688027
 20
138.91906022559
 30
0.0
 10
154.7504874604778
 20
139.2680489723873
 30
0.0
 10
155.0165566254994
 20
139.696493390355
 30
0.0
 10
155.1452894482376
 20
140.1254478297763
 30
0.0
 10
155.1355300330444
 20
140.5084319710921
 30
0.0
 10
154.977656803821
 20
140.9526099778
 30
0.0
 10
154.6941989605642
 20
141.4072304462709
 30
0.0
 10
154.4312459354433
 20
141.7597821073191
 30
0.0
 10
154.2829521055148
 20
141.9472752901778
 30
0.0
 10
154.2798869621917
 20
141.9510350371799
 30
0.0
 10
154.2786014421118
 20
141.9526118738093
 30
0.0
  0
LWPOLYLINE
  5
129
330
1F
100
AcDbEntity
  8
0
  6
HIDDEN
 62
     7
370
     0
100
AcDbPolyline
 90
       13
 70
   128
 43
0.0
 10
158.2661161652
 20
141.808062063
 10
158.2193824579
 20
141.7528765204
 10
158.0873307304
 20
141.5928925685
 10
157.8189769372
 20
141.2397130146
 10
157.5334150773
 20
140.7579546594
 10
157.4199725289
 20
140.417536936
 10
157.4071076772
 20
140.0453583797
 10
157.5084771522
 20
139.6750200668
 10
157.7760956111
 20
139.1774356982
 10
158.0610224018
 20
138.7725855981
 10
158.2143478657
 20
138.5738250034
 10
158.2673742093
 20
138.5070012459
 10
158.2673742093
 20
138.5070012459
  0
LINE
  5
12A
330
1F
100
AcDbEntity
  8
0
  6
HIDDEN
 62
     7
370
     0
100
AcDbLine
 10
153.2658145415
 20
77.5623590956
 30
0.0
 11
153.3953719335
 21
74.264903276
 31
0.0
  0
LINE
  5
12B
330
1F
100
AcDbEntity
  8
0
  6
HIDDEN
 62
     7
370
     0
100
AcDbLine
 10
153.2658145415
 20
138.7035130605
 30
0.0
 11
153.3953719335
 21
142.00096888
 31
0.0
  0
LWPOLYLINE
  5
12C
330
1F
100
AcDbEntity
  8
0
  6
HIDDEN
 62
     7
370
     0
100
AcDbPolyline
 90
       30
 70
   128
 43
0.0
 10
114.2673742093
 20
153.4456419298
 10
115.3422264103
 20
153.4095187018
 10
116.3668197171
 20
153.3028380997
 10
117.2932452853
 20
153.1305883899
 10
118.0781844849
 20
152.9008237775
 10
118.6849344315
 20
152.6242878003
 10
119.0851241719
 20
152.3139109733
 10
119.2600412785
 20
151.984206172
 10
119.201506822
 20
151.6505900263
 10
118.9122578084
 20
151.3286620566
 10
118.4058192001
 20
151.0334752568
 10
117.7058715036
 20
150.7788322337
 10
116.8451434952
 20
150.576639812
 10
115.86388186
 20
150.4363522846
 10
114.8079693014
 20
150.3645293403
 10
113.7267791172
 20
150.3645293403
 10
112.6708665586
 20
150.4363522846
 10
111.6896049234
 20
150.576639812
 10
110.828876915
 20
150.7788322337
 10
110.1289292185
 20
151.0334752568
 10
109.6224906102
 20
151.3286620566
 10
109.3332415966
 20
151.6505900263
 10
109.27470714
 20
151.984206172
 10
109.4496242467
 20
152.3139109733
 10
109.8498139871
 20
152.6242878003
 10
110.4565639336
 20
152.9008237775
 10
111.2415031333
 20
153.1305883899
 10
112.1679287015
 20
153.3028380997
 10
113.1925220082
 20
153.4095187018
 10
114.2673742093
 20
153.4456419298
  0
LINE
  5
12D
330
1F
100
AcDbEntity
  8
0
  6
HIDDEN
 62
     7
370
     0
100
AcDbLine
 10
128.5294032302
 20
147.0838988389
 30
0.0
 11
128.5294032302
 21
139.482936078
 31
0.0
  0
LINE
  5
12E
330
1F
100
AcDbEntity
  8
0
  6
HIDDEN
 62
     7
370
     0
100
AcDbLine
 10
127.1773742093
 20
142.8471712705
 30
0.0
 11
127.1773742093
 21
139.482936078
 31
0.0
  0
LINE
  5
12F
330
1F
100
AcDbEntity
  8
0
  6
HIDDEN
 62
     7
370
     0
100
AcDbLine
 10
123.3573742093
 20
142.8471712705
 30
0.0
 11
123.3573742093
 21
139.482936078
 31
0.0
  0
CIRCLE
  5
130
330
1F
100
AcDbEntity
  8
0
  6
HIDDEN
 62
     7
370
     0
100
AcDbCircle
 10
112.2673742093
 20
108.132936078
 30
0.0
 40
5.0
  0
LINE
  5
131
330
1F
100
AcDbEntity
  8
0
  6
HIDDEN
 62
     7
370
     0
100
AcDbLine
 10
235.0031213838
 20
81.1240966734
 30
0.0
 11
227.9837038808
 21
80.8483030086
 31
0.0
  0
LINE
  5
132
330
1F
100
AcDbEntity
  8
0
  6
HIDDEN
 62
     7
370
     0
100
AcDbLine
 10
228.1407431438
 20
76.8513868636
 30
0.0
 11
235.1601606469
 21
77.1271805285
 31
0.0
  0
LINE
  5
133
330
1F
100
AcDbEntity
  8
0
  6
HIDDEN
 62
     7
370
     0
100
AcDbLine
 10
227.9837038808
 20
80.8483030086
 30
0.0
 11
227.2637269654
 21
80.0694363696
 31
0.0
  0
LINE
  5
134
330
1F
100
AcDbEntity
  8
0
  6
HIDDEN
 62
     7
370
     0
100
AcDbLine
 10
227.3618765048
 20
77.571363779
 30
0.0
 11
228.1407431438
 21
76.8513868636
 31
0.0
  0
LINE
  5
135
330
1F
100
AcDbEntity
  8
0
  6
HIDDEN
 62
     7
370
     0
100
AcDbLine
 10
235.1601606469
 20
77.1271805285
 30
0.0
 11
235.2673742093
 21
77.3309599923
 31
0.0
  0
LINE
  5
136
330
1F
100
AcDbEntity
  8
0
  6
HIDDEN
 62
     7
370
     0
100
AcDbLine
 10
235.2434257217
 20
80.7432373487
 30
0.0
 11
235.0031213838
 21
81.1240966734
 31
0.0
  0
LINE
  5
137
330
1F
100
AcDbEntity
  8
0
  6
HIDDEN
 62
     7
370
     0
100
AcDbLine
 10
234.9246017523
 20
135.1448605273
 30
0.0
 11
235.1649060902
 21
135.525719852
 31
0.0
  0
LINE
  5
138
330
1F
100
AcDbEntity
  8
0
  6
HIDDEN
 62
     7
370
     0
100
AcDbLine
 10
235.2673742093
 20
138.7887559366
 30
0.0
 11
235.0816410154
 21
139.1417766723
 31
0.0
  0
LINE
  5
139
330
1F
100
AcDbEntity
  8
0
  6
HIDDEN
 62
     7
370
     0
100
AcDbLine
 10
235.0816410154
 20
139.1417766723
 30
0.0
 11
228.0622235123
 21
139.4175703371
 31
0.0
  0
LINE
  5
13A
330
1F
100
AcDbEntity
  8
0
  6
HIDDEN
 62
     7
370
     0
100
AcDbLine
 10
227.9051842493
 20
135.4206541921
 30
0.0
 11
234.9246017523
 21
135.1448605273
 31
0.0
  0
LINE
  5
13B
330
1F
100
AcDbEntity
  8
0
  6
HIDDEN
 62
     7
370
     0
100
AcDbLine
 10
228.0622235123
 20
139.4175703371
 30
0.0
 11
227.2833568733
 21
138.6975934217
 31
0.0
  0
LINE
  5
13C
330
1F
100
AcDbEntity
  8
0
  6
HIDDEN
 62
     7
370
     0
100
AcDbLine
 10
227.1852073339
 20
136.1995208311
 30
0.0
 11
227.9051842493
 21
135.4206541921
 31
0.0
  0
LINE
  5
13D
330
1F
100
AcDbEntity
  8
0
  6
HIDDEN
 62
     7
370
     0
100
AcDbLine
 10
148.7673742093
 20
102.132936078
 30
0.0
 11
163.7673742093
 21
102.132936078
 31
0.0
  0
LINE
  5
13E
330
1F
100
AcDbEntity
  8
0
  6
HIDDEN
 62
     7
370
     0
100
AcDbLine
 10
163.7673742093
 20
114.132936078
 30
0.0
 11
148.7673742093
 21
114.132936078
 31
0.0
  0
LINE
  5
13F
330
1F
100
AcDbEntity
  8
0
  6
HIDDEN
 62
     7
370
     0
100
AcDbLine
 10
163.7673742093
 20
102.132936078
 30
0.0
 11
164.2673742093
 21
102.632936078
 31
0.0
  0
LINE
  5
140
330
1F
100
AcDbEntity
  8
0
  6
HIDDEN
 62
     7
370
     0
100
AcDbLine
 10
164.2673742093
 20
113.632936078
 30
0.0
 11
163.7673742093
 21
114.132936078
 31
0.0
  0
LINE
  5
141
330
1F
100
AcDbEntity
  8
0
  6
HIDDEN
 62
     7
370
     0
100
AcDbLine
 10
148.7673742093
 20
114.132936078
 30
0.0
 11
148.2673742093
 21
113.632936078
 31
0.0
  0
LINE
  5
142
330
1F
100
AcDbEntity
  8
0
  6
HIDDEN
 62
     7
370
     0
100
AcDbLine
 10
148.2673742093
 20
102.632936078
 30
0.0
 11
148.7673742093
 21
102.132936078
 31
0.0
  0
LINE
  5
143
330
1F
100
AcDbEntity
  8
0
  6
HIDDEN
 62
     7
370
     0
100
AcDbLine
 10
164.2673742093
 20
102.632936078
 30
0.0
 11
168.2673742093
 21
102.632936078
 31
0.0
  0
LINE
  5
144
330
1F
100
AcDbEntity
  8
0
  6
HIDDEN
 62
     7
370
     0
100
AcDbLine
 10
168.2673742093
 20
113.632936078
 30
0.0
 11
164.2673742093
 21
113.632936078
 31
0.0
  0
LINE
  5
145
330
1F
100
AcDbEntity
  8
0
  6
HIDDEN
 62
     7
370
     0
100
AcDbLine
 10
155.2673742092
 20
105.132936078
 30
0.0
 11
161.2673742093
 21
105.132936078
 31
0.0
  0
LINE
  5
146
330
1F
100
AcDbEntity
  8
0
  6
HIDDEN
 62
     7
370
     0
100
AcDbLine
 10
161.2673742093
 20
111.132936078
 30
0.0
 11
155.2673742092
 21
111.132936078
 31
0.0
  0
LINE
  5
147
330
1F
100
AcDbEntity
  8
0
  6
HIDDEN
 62
     7
370
     0
100
AcDbLine
 10
105.2673742093
 20
68.7282531214
 30
0.0
 11
105.3569758332
 21
69.3658018034
 31
0.0
  0
LINE
  5
148
330
1F
100
AcDbEntity
  8
0
  6
HIDDEN
 62
     7
370
     0
100
AcDbLine
 10
105.3569758332
 20
146.9000703527
 30
0.0
 11
105.2673742093
 21
147.5376190346
 31
0.0
  0
ARC
  5
149
330
1F
100
AcDbEntity
  8
0
  6
HIDDEN
 62
     7
370
     0
100
AcDbCircle
 10
104.3704372908
 20
69.5044507536
 30
0.0
 40
0.9962338214386983
100
AcDbArc
 50
352.0
 51
0.0
  0
ARC
  5
14A
330
1F
100
AcDbEntity
  8
0
  6
HIDDEN
 62
     7
370
     0
100
AcDbCircle
 10
104.3704372908
 20
69.5044507536
 30
0.0
 40
0.9962338214386932
100
AcDbArc
 50
0.0
 51
25.7988228126
  0
ARC
  5
14B
330
1F
100
AcDbEntity
  8
0
  6
HIDDEN
 62
     7
370
     0
100
AcDbCircle
 10
104.3704372908
 20
146.7614214025
 30
0.0
 40
0.9962338214386963
100
AcDbArc
 50
348.75
 51
8.0
  0
LWPOLYLINE
  5
14C
330
1F
100
AcDbEntity
  8
0
  6
HIDDEN
 62
     7
370
     0
100
AcDbPolyline
 90
        3
 70
   128
 43
0.0
 10
105.3475287587
 20
146.5670658254
 10
105.2908373281
 20
146.3801792242
 10
105.2673742093
 20
146.3278478893
  0
LINE
  5
14D
330
1F
100
AcDbEntity
  8
0
  6
HIDDEN
 62
     7
370
     0
100
AcDbLine
 10
105.3666711123
 20
69.5044507536
 30
0.0
 11
105.3666711123
 21
146.7614214025
 31
0.0
  0
ARC
  5
14E
330
1F
100
AcDbEntity
  8
0
  6
HIDDEN
 62
     7
370
     0
100
AcDbCircle
 10
95.5205798645
 20
88.632936078
 30
0.0
 40
12.0
100
AcDbArc
 50
273.4750722396
 51
324.3146652873
  0
ARC
  5
14F
330
1F
100
AcDbEntity
  8
0
  6
HIDDEN
 62
     7
370
     0
100
AcDbCircle
 10
95.5205798645
 20
127.632936078
 30
0.0
 40
12.00000000000001
100
AcDbArc
 50
35.6853347127
 51
86.4455057335
  0
ARC
  5
150
330
1F
100
AcDbEntity
  8
0
  6
HIDDEN
 62
     7
370
     0
100
AcDbCircle
 10
78.7281001514
 20
77.632936078
 30
0.0
 40
1.000000000000008
100
AcDbArc
 50
210.0
 51
270.0
  0
ARC
  5
151
330
1F
100
AcDbEntity
  8
0
  6
HIDDEN
 62
     7
370
     0
100
AcDbCircle
 10
78.7281001514
 20
138.632936078
 30
0.0
 40
1.0
100
AcDbArc
 50
90.0
 51
150.0
  0
LINE
  5
152
330
1F
100
AcDbEntity
  8
0
  6
HIDDEN
 62
     7
370
     0
100
AcDbLine
 10
78.7281001514
 20
76.632936078
 30
0.0
 11
84.2725445832
 21
76.632936078
 31
0.0
  0
LINE
  5
153
330
1F
100
AcDbEntity
  8
0
  6
HIDDEN
 62
     7
370
     0
100
AcDbLine
 10
84.2725445832
 20
139.632936078
 30
0.0
 11
78.7281001514
 21
139.632936078
 31
0.0
  0
LINE
  5
154
330
1F
100
AcDbEntity
  8
0
  6
HIDDEN
 62
     7
370
     0
100
AcDbLine
 10
77.8620747477
 20
139.132936078
 30
0.0
 11
75.2639985363
 21
134.632936078
 31
0.0
  0
LINE
  5
155
330
1F
100
AcDbEntity
  8
0
  6
HIDDEN
 62
     7
370
     0
100
AcDbLine
 10
75.2639985363
 20
81.632936078
 30
0.0
 11
77.8620747477
 21
77.132936078
 31
0.0
  0
ARC
  5
156
330
1F
100
AcDbEntity
  8
0
  6
HIDDEN
 62
     7
370
     0
100
AcDbCircle
 10
115.7173742093
 20
83.257936078
 30
0.0
 40
2.000000000000023
100
AcDbArc
 50
234.3409123039
 51
0.0
  0
ARC
  5
157
330
1F
100
AcDbEntity
  8
0
  6
HIDDEN
 62
     7
370
     0
100
AcDbCircle
 10
115.7173742093
 20
133.007936078
 30
0.0
 40
2.000000000000035
100
AcDbArc
 50
0.0
 51
125.6590876961
  0
LINE
  5
158
330
1F
100
AcDbEntity
  8
0
  6
HIDDEN
 62
     7
370
     0
100
AcDbLine
 10
70.4673742093
 20
81.632936078
 30
0.0
 11
75.2639985363
 21
81.632936078
 31
0.0
  0
LINE
  5
159
330
1F
100
AcDbEntity
  8
0
  6
HIDDEN
 62
     7
370
     0
100
AcDbLine
 10
75.2639985363
 20
134.632936078
 30
0.0
 11
65.4673742093
 21
134.632936078
 31
0.0
  0
LINE
  5
15A
330
1F
100
AcDbEntity
  8
0
  6
HIDDEN
 62
     7
370
     0
100
AcDbLine
 10
105.2673742093
 20
81.632936078
 30
0.0
 11
114.5514518276
 21
81.632936078
 31
0.0
  0
LINE
  5
15B
330
1F
100
AcDbEntity
  8
0
  6
HIDDEN
 62
     7
370
     0
100
AcDbLine
 10
114.5514518276
 20
134.632936078
 30
0.0
 11
105.2673742093
 21
134.632936078
 31
0.0
  0
ARC
  5
15C
330
1F
100
AcDbEntity
  8
0
  6
HIDDEN
 62
     7
370
     0
100
AcDbCircle
 10
234.7673742093
 20
82.0962418299
 30
0.0
 40
0.5000000000000014
100
AcDbArc
 50
0.0
 51
80.0
  0
ARC
  5
15D
330
1F
100
AcDbEntity
  8
0
  6
HIDDEN
 62
     7
370
     0
100
AcDbCircle
 10
234.7673742093
 20
134.1696303261
 30
0.0
 40
0.5
100
AcDbArc
 50
280.0
 51
0.0
  0
LINE
  5
15E
330
1F
100
AcDbEntity
  8
0
  6
HIDDEN
 62
     7
370
     0
100
AcDbLine
 10
234.8541982981
 20
133.6772264496
 30
0.0
 11
231.7673742093
 21
133.132936078
 31
0.0
  0
LINE
  5
15F
330
1F
100
AcDbEntity
  8
0
  6
HIDDEN
 62
     7
370
     0
100
AcDbLine
 10
231.7673742093
 20
83.132936078
 30
0.0
 11
234.8541982981
 21
82.5886457064
 31
0.0
  0
ARC
  5
160
330
1F
100
AcDbEntity
  8
0
  6
HIDDEN
 62
     7
370
     0
100
AcDbCircle
 10
162.8726001912
 20
83.232936078
 30
0.0
 40
0.3999999999999915
100
AcDbArc
 50
270.0
 51
290.0
  0
ARC
  5
161
330
1F
100
AcDbEntity
  8
0
  6
HIDDEN
 62
     7
370
     0
100
AcDbCircle
 10
162.8726001912
 20
133.032936078
 30
0.0
 40
0.4000000000000208
100
AcDbArc
 50
70.0
 51
90.0
  0
LINE
  5
162
330
1F
100
AcDbEntity
  8
0
  6
HIDDEN
 62
     7
370
     0
100
AcDbLine
 10
158.2673742093
 20
82.832936078
 30
0.0
 11
162.8726001912
 21
82.832936078
 31
0.0
  0
LINE
  5
163
330
1F
100
AcDbEntity
  8
0
  6
HIDDEN
 62
     7
370
     0
100
AcDbLine
 10
153.6673742093
 20
82.832936078
 30
0.0
 11
154.273618411
 21
82.832936078
 31
0.0
  0
LINE
  5
164
330
1F
100
AcDbEntity
  8
0
  6
HIDDEN
 62
     7
370
     0
100
AcDbLine
 10
154.2693295681
 20
133.432936078
 30
0.0
 11
153.6673742093
 21
133.432936078
 31
0.0
  0
LINE
  5
165
330
1F
100
AcDbEntity
  8
0
  6
HIDDEN
 62
     7
370
     0
100
AcDbLine
 10
162.8726001912
 20
133.432936078
 30
0.0
 11
158.2419090029
 21
133.432936078
 31
0.0
  0
ARC
  5
166
330
1F
100
AcDbEntity
  8
0
  6
HIDDEN
 62
     7
370
     0
100
AcDbCircle
 10
153.6673742093
 20
83.232936078
 30
0.0
 40
0.4000000000000341
100
AcDbArc
 50
180.0
 51
270.0
  0
ARC
  5
167
330
1F
100
AcDbEntity
  8
0
  6
HIDDEN
 62
     7
370
     0
100
AcDbCircle
 10
153.6673742093
 20
133.032936078
 30
0.0
 40
0.4000000000000341
100
AcDbArc
 50
90.0
 51
180.0
  0
LINE
  5
168
330
1F
100
AcDbEntity
  8
0
  6
HIDDEN
 62
     7
370
     0
100
AcDbLine
 10
163.0094082485
 20
82.8570590297
 30
0.0
 11
163.7673742093
 21
83.132936078
 31
0.0
  0
LINE
  5
169
330
1F
100
AcDbEntity
  8
0
  6
HIDDEN
 62
     7
370
     0
100
AcDbLine
 10
163.7673742093
 20
133.132936078
 30
0.0
 11
163.0094082485
 21
133.4088131263
 31
0.0
  0
LINE
  5
16A
330
1F
100
AcDbEntity
  8
0
  6
HIDDEN
 62
     7
370
     0
100
AcDbLine
 10
109.2673742093
 20
153.8100989601
 30
0.0
 11
109.2673742093
 21
150.1103498567
 31
0.0
  0
LINE
  5
16B
330
1F
100
AcDbEntity
  8
0
  6
HIDDEN
 62
     7
370
     0
100
AcDbLine
 10
119.2673742093
 20
150.1103498567
 30
0.0
 11
119.2673742093
 21
153.8087270109
 31
0.0
  0
LINE
  5
16C
330
1F
100
AcDbEntity
  8
0
  6
HIDDEN
 62
     7
370
     0
100
AcDbLine
 10
163.7673742093
 20
83.132936078
 30
0.0
 11
231.7673742093
 21
83.132936078
 31
0.0
  0
LINE
  5
16D
330
1F
100
AcDbEntity
  8
0
  6
HIDDEN
 62
     7
370
     0
100
AcDbLine
 10
231.7673742093
 20
133.132936078
 30
0.0
 11
163.7673742093
 21
133.132936078
 31
0.0
  0
LINE
  5
16E
330
1F
100
AcDbEntity
  8
0
  6
HIDDEN
 62
     7
370
     0
100
AcDbLine
 10
129.5673742093
 20
95.132936078
 30
0.0
 11
133.5673742093
 21
95.132936078
 31
0.0
  0
LINE
  5
16F
330
1F
100
AcDbEntity
  8
0
  6
HIDDEN
 62
     7
370
     0
100
AcDbLine
 10
133.5673742093
 20
121.132936078
 30
0.0
 11
129.5673742093
 21
121.132936078
 31
0.0
  0
LINE
  5
170
330
1F
100
AcDbEntity
  8
0
  6
HIDDEN
 62
     7
370
     0
100
AcDbLine
 10
117.7173742093
 20
96.132936078
 30
0.0
 11
118.4673742093
 21
96.882936078
 31
0.0
  0
LINE
  5
171
330
1F
100
AcDbEntity
  8
0
  6
HIDDEN
 62
     7
370
     0
100
AcDbLine
 10
118.4673742093
 20
119.382936078
 30
0.0
 11
117.7173742093
 21
120.132936078
 31
0.0
  0
LINE
  5
172
330
1F
100
AcDbEntity
  8
0
  6
HIDDEN
 62
     7
370
     0
100
AcDbLine
 10
118.4673742093
 20
96.882936078
 30
0.0
 11
129.5673742093
 21
96.882936078
 31
0.0
  0
LINE
  5
173
330
1F
100
AcDbEntity
  8
0
  6
HIDDEN
 62
     7
370
     0
100
AcDbLine
 10
129.5673742093
 20
119.382936078
 30
0.0
 11
118.4673742093
 21
119.382936078
 31
0.0
  0
LINE
  5
174
330
1F
100
AcDbEntity
  8
0
  6
HIDDEN
 62
     7
370
     0
100
AcDbLine
 10
110.2173742093
 20
158.132936078
 30
0.0
 11
110.2173742093
 21
152.032936078
 31
0.0
  0
LINE
  5
175
330
1F
100
AcDbEntity
  8
0
  6
HIDDEN
 62
     7
370
     0
100
AcDbLine
 10
96.7000868253
 20
70.5546565074
 30
0.0
 11
96.2673775388
 21
71.0328812248
 31
0.0
  0
LINE
  5
176
330
1F
100
AcDbEntity
  8
0
  6
HIDDEN
 62
     7
370
     0
100
AcDbLine
 10
84.2673746673
 20
71.6798425815
 30
0.0
 11
83.7867473621
 21
71.2016178706
 31
0.0
  0
LINE
  5
177
330
1F
100
AcDbEntity
  8
0
  6
HIDDEN
 62
     7
370
     0
100
AcDbLine
 10
83.7866290206
 20
145.0642483692
 30
0.0
 11
84.2673744847
 21
144.5859686974
 31
0.0
  0
LINE
  5
178
330
1F
100
AcDbEntity
  8
0
  6
HIDDEN
 62
     7
370
     0
100
AcDbLine
 10
96.2673742114
 20
145.2329410847
 30
0.0
 11
96.7001958811
 21
145.7112207576
 31
0.0
  0
LINE
  5
179
330
1F
100
AcDbEntity
  8
0
  6
HIDDEN
 62
     7
370
     0
100
AcDbLine
 10
96.2673742093
 20
139.6092619807
 30
0.0
 11
96.2673742093
 21
145.3329449108
 31
0.0
  0
LINE
  5
17A
330
1F
100
AcDbEntity
  8
0
  6
HIDDEN
 62
     7
370
     0
100
AcDbLine
 10
84.2673742093
 20
144.5859581981
 30
0.0
 11
84.2673742093
 21
139.6319518786
 31
0.0
  0
LINE
  5
17B
330
1F
100
AcDbEntity
  8
0
  6
HIDDEN
 62
     7
370
     0
100
AcDbLine
 10
96.2673742093
 20
70.9327523822
 30
0.0
 11
96.2673742093
 21
76.658871184
 31
0.0
  0
LINE
  5
17C
330
1F
100
AcDbEntity
  8
0
  6
HIDDEN
 62
     7
370
     0
100
AcDbLine
 10
84.2673742093
 20
76.6339202774
 30
0.0
 11
84.2673742093
 21
71.679880996
 31
0.0
  0
LINE
  5
17D
330
1F
100
AcDbEntity
  8
0
  6
HIDDEN
 62
     7
370
     0
100
AcDbLine
 10
153.2673742093
 20
114.132936078
 30
0.0
 11
152.7673742093
 21
113.632936078
 31
0.0
  0
LINE
  5
17E
330
1F
100
AcDbEntity
  8
0
  6
HIDDEN
 62
     7
370
     0
100
AcDbLine
 10
152.7673742093
 20
102.632936078
 30
0.0
 11
153.2673742093
 21
102.132936078
 31
0.0
  0
LINE
  5
17F
330
1F
100
AcDbEntity
  8
0
  6
HIDDEN
 62
     7
370
     0
100
AcDbLine
 10
133.5673742093
 20
102.132936078
 30
0.0
 11
142.3673742093
 21
102.132936078
 31
0.0
  0
LINE
  5
180
330
1F
100
AcDbEntity
  8
0
  6
HIDDEN
 62
     7
370
     0
100
AcDbLine
 10
142.3673742093
 20
114.132936078
 30
0.0
 11
133.5673742093
 21
114.132936078
 31
0.0
  0
LINE
  5
181
330
1F
100
AcDbEntity
  8
0
  6
HIDDEN
 62
     7
370
     0
100
AcDbLine
 10
142.3673742093
 20
102.132936078
 30
0.0
 11
142.6678045188
 21
102.632936078
 31
0.0
  0
LINE
  5
182
330
1F
100
AcDbEntity
  8
0
  6
HIDDEN
 62
     7
370
     0
100
AcDbLine
 10
142.6678045188
 20
113.632936078
 30
0.0
 11
142.3673742093
 21
114.132936078
 31
0.0
  0
LINE
  5
183
330
1F
100
AcDbEntity
  8
0
  6
HIDDEN
 62
     7
370
     0
100
AcDbLine
 10
142.6678045188
 20
102.632936078
 30
0.0
 11
152.7673742093
 21
102.632936078
 31
0.0
  0
LINE
  5
184
330
1F
100
AcDbEntity
  8
0
  6
HIDDEN
 62
     7
370
     0
100
AcDbLine
 10
152.7673742093
 20
113.632936078
 30
0.0
 11
142.6678045188
 21
113.632936078
 31
0.0
  0
LINE
  5
185
330
1F
100
AcDbEntity
  8
0
  6
HIDDEN
 62
     7
370
     0
100
AcDbLine
 10
150.7173742093
 20
68.632936078
 30
0.0
 11
149.7173742093
 21
69.2102863472
 31
0.0
  0
LINE
  5
186
330
1F
100
AcDbEntity
  8
0
  6
HIDDEN
 62
     7
370
     0
100
AcDbLine
 10
144.7173742093
 20
69.2102863472
 30
0.0
 11
143.7173742093
 21
68.632936078
 31
0.0
  0
LINE
  5
187
330
1F
100
AcDbEntity
  8
0
  6
HIDDEN
 62
     7
370
     0
100
AcDbLine
 10
143.7173742093
 20
147.632936078
 30
0.0
 11
144.7173742093
 21
147.0555858088
 31
0.0
  0
LINE
  5
188
330
1F
100
AcDbEntity
  8
0
  6
HIDDEN
 62
     7
370
     0
100
AcDbLine
 10
149.7173742093
 20
147.0555858088
 30
0.0
 11
150.7173742093
 21
147.632936078
 31
0.0
  0
LINE
  5
189
330
1F
100
AcDbEntity
  8
0
  6
HIDDEN
 62
     7
370
     0
100
AcDbLine
 10
144.7173742093
 20
147.0555858088
 30
0.0
 11
144.7173742093
 21
135.632936078
 31
0.0
  0
LINE
  5
18A
330
1F
100
AcDbEntity
  8
0
  6
HIDDEN
 62
     7
370
     0
100
AcDbLine
 10
149.7173742093
 20
135.632936078
 30
0.0
 11
149.7173742093
 21
147.0555858088
 31
0.0
  0
LINE
  5
18B
330
1F
100
AcDbEntity
  8
0
  6
HIDDEN
 62
     7
370
     0
100
AcDbLine
 10
144.7173742093
 20
135.632936078
 30
0.0
 11
147.2173742093
 21
134.1307845304
 31
0.0
  0
LINE
  5
18C
330
1F
100
AcDbEntity
  8
0
  6
HIDDEN
 62
     7
370
     0
100
AcDbLine
 10
147.2173742093
 20
134.1307845304
 30
0.0
 11
149.7173742093
 21
135.632936078
 31
0.0
  0
LINE
  5
18D
330
1F
100
AcDbEntity
  8
0
  6
HIDDEN
 62
     7
370
     0
100
AcDbLine
 10
149.7173742093
 20
69.2102863472
 30
0.0
 11
149.7173742093
 21
80.632936078
 31
0.0
  0
LINE
  5
18E
330
1F
100
AcDbEntity
  8
0
  6
HIDDEN
 62
     7
370
     0
100
AcDbLine
 10
144.7173742093
 20
80.632936078
 30
0.0
 11
144.7173742093
 21
69.2102863472
 31
0.0
  0
LINE
  5
18F
330
1F
100
AcDbEntity
  8
0
  6
HIDDEN
 62
     7
370
     0
100
AcDbLine
 10
149.7173742093
 20
80.632936078
 30
0.0
 11
147.2173742093
 21
82.1350876256
 31
0.0
  0
LINE
  5
190
330
1F
100
AcDbEntity
  8
0
  6
HIDDEN
 62
     7
370
     0
100
AcDbLine
 10
147.2173742093
 20
82.1350876256
 30
0.0
 11
144.7173742093
 21
80.632936078
 31
0.0
  0
LINE
  5
191
330
1F
100
AcDbEntity
  8
0
  6
HIDDEN
 62
     7
370
     0
100
AcDbLine
 10
154.2673742093
 20
74.3036719411
 30
0.0
 11
154.2673742093
 21
73.632936078
 31
0.0
  0
LINE
  5
192
330
1F
100
AcDbEntity
  8
0
  6
HIDDEN
 62
     7
370
     0
100
AcDbLine
 10
154.2673742093
 20
82.8334282976
 30
0.0
 11
154.2673742093
 21
77.6017104821
 31
0.0
  0
LINE
  5
193
330
1F
100
AcDbEntity
  8
0
  6
HIDDEN
 62
     7
370
     0
100
AcDbLine
 10
158.2673742093
 20
77.7588709101
 30
0.0
 11
158.2673742093
 21
82.832936078
 31
0.0
  0
LINE
  5
194
330
1F
100
AcDbEntity
  8
0
  6
HIDDEN
 62
     7
370
     0
100
AcDbLine
 10
158.2673742093
 20
73.632936078
 30
0.0
 11
158.2673742093
 21
74.4570437285
 31
0.0
  0
LINE
  5
195
330
1F
100
AcDbEntity
  8
0
  6
HIDDEN
 62
     7
370
     0
100
AcDbLine
 10
154.2673742093
 20
138.6641616739
 30
0.0
 11
154.2673742093
 21
133.4327895477
 31
0.0
  0
LINE
  5
196
330
1F
100
AcDbEntity
  8
0
  6
HIDDEN
 62
     7
370
     0
100
AcDbLine
 10
154.2673742093
 20
142.832936078
 30
0.0
 11
154.2673742093
 21
141.9526118738
 31
0.0
  0
LINE
  5
197
330
1F
100
AcDbEntity
  8
0
  6
HIDDEN
 62
     7
370
     0
100
AcDbLine
 10
158.2673742093
 20
141.808062063
 30
0.0
 11
158.2673742093
 21
142.832936078
 31
0.0
  0
LINE
  5
198
330
1F
100
AcDbEntity
  8
0
  6
HIDDEN
 62
     7
370
     0
100
AcDbLine
 10
158.2673742093
 20
133.4309472973
 30
0.0
 11
158.2673742093
 21
138.5070012459
 31
0.0
  0
LINE
  5
199
330
1F
100
AcDbEntity
  8
0
  6
HIDDEN
 62
     7
370
     0
100
AcDbLine
 10
154.2673742093
 20
73.632936078
 30
0.0
 11
156.2673742093
 21
72.43121484
 31
0.0
  0
LINE
  5
19A
330
1F
100
AcDbEntity
  8
0
  6
HIDDEN
 62
     7
370
     0
100
AcDbLine
 10
156.2673742093
 20
72.43121484
 30
0.0
 11
158.2673742093
 21
73.632936078
 31
0.0
  0
LINE
  5
19B
330
1F
100
AcDbEntity
  8
0
  6
HIDDEN
 62
     7
370
     0
100
AcDbLine
 10
154.2673742093
 20
77.6017104821
 30
0.0
 11
153.2658145415
 21
77.5623590956
 31
0.0
  0
LINE
  5
19C
330
1F
100
AcDbEntity
  8
0
  6
HIDDEN
 62
     7
370
     0
100
AcDbLine
 10
153.3953719335
 20
74.264903276
 30
0.0
 11
154.2711432172
 21
74.2993124234
 31
0.0
  0
LINE
  5
19D
330
1F
100
AcDbEntity
  8
0
  6
HIDDEN
 62
     7
370
     0
100
AcDbLine
 10
154.2791221883
 20
141.966246238
 30
0.0
 11
153.3953719335
 21
142.00096888
 31
0.0
  0
LINE
  5
19E
330
1F
100
AcDbEntity
  8
0
  6
HIDDEN
 62
     7
370
     0
100
AcDbLine
 10
153.2658145415
 20
138.7035130605
 30
0.0
 11
154.2673742093
 21
138.6641616739
 31
0.0
  0
LINE
  5
19F
330
1F
100
AcDbEntity
  8
0
  6
HIDDEN
 62
     7
370
     0
100
AcDbLine
 10
235.2673742093
 20
138.7842091497
 30
0.0
 11
158.2661829627
 21
141.8095941935
 31
0.0
  0
LINE
  5
1A0
330
1F
100
AcDbEntity
  8
0
  6
HIDDEN
 62
     7
370
     0
100
AcDbLine
 10
158.2673742093
 20
138.5070012459
 30
0.0
 11
235.2673742093
 21
135.4816630063
 31
0.0
  0
LINE
  5
1A1
330
1F
100
AcDbEntity
  8
0
  6
HIDDEN
 62
     7
370
     0
100
AcDbLine
 10
235.2673742093
 20
80.7842091497
 30
0.0
 11
158.2673742093
 21
77.7588709101
 31
0.0
  0
LINE
  5
1A2
330
1F
100
AcDbEntity
  8
0
  6
HIDDEN
 62
     7
370
     0
100
AcDbLine
 10
158.2667923209
 20
74.4563019043
 30
0.0
 11
235.2673742093
 21
77.4816630063
 31
0.0
  0
LINE
  5
1A3
330
1F
100
AcDbEntity
  8
0
  6
HIDDEN
 62
     7
370
     0
100
AcDbLine
 10
153.2658145415
 20
77.5623590956
 30
0.0
 11
152.3399375651
 21
75.8747082184
 31
0.0
  0
LINE
  5
1A4
330
1F
100
AcDbEntity
  8
0
  6
HIDDEN
 62
     7
370
     0
100
AcDbLine
 10
152.3399375651
 20
75.8747082184
 30
0.0
 11
153.3953719335
 21
74.264903276
 31
0.0
  0
LINE
  5
1A5
330
1F
100
AcDbEntity
  8
0
  6
HIDDEN
 62
     7
370
     0
100
AcDbLine
 10
153.3953719335
 20
142.00096888
 30
0.0
 11
152.3399375651
 21
140.3911639376
 31
0.0
  0
LINE
  5
1A6
330
1F
100
AcDbEntity
  8
0
  6
HIDDEN
 62
     7
370
     0
100
AcDbLine
 10
152.3399375651
 20
140.3911639376
 30
0.0
 11
153.2658145415
 21
138.7035130605
 31
0.0
  0
LINE
  5
1A7
330
1F
100
AcDbEntity
  8
0
  6
HIDDEN
 62
     7
370
     0
100
AcDbLine
 10
109.2673742093
 20
155.685647376
 30
0.0
 11
109.2673742093
 21
153.8100989601
 31
0.0
  0
LINE
  5
1A8
330
1F
100
AcDbEntity
  8
0
  6
HIDDEN
 62
     7
370
     0
100
AcDbLine
 10
119.2673742093
 20
153.8087270109
 30
0.0
 11
119.2673742093
 21
155.6842190932
 31
0.0
  0
LINE
  5
1A9
330
1F
100
AcDbEntity
  8
0
  6
HIDDEN
 62
     7
370
     0
100
AcDbLine
 10
55.4248971097
 20
77.4754131776
 30
0.0
 11
55.4249411044
 21
77.4753691829
 31
0.0
  0
DIMENSION
  5
1AA
330
1F
100
AcDbEntity
  8
VERMASSUNG
100
AcDbDimension
  2
*D1
 10
50.5667388949
 20
58.132936078
 30
0.0
 11
50.5667388949
 21
108.132936078
 31
0.0
 70
   160
  1
HSK A %%c<>
 71
     2
 42
-1.0
  3
SLDDIMSTYLE0
100
AcDbAlignedDimension
 13
105.7673742093
 23
158.132936078
 33
0.0
 14
105.7673742093
 24
58.132936078
 34
0.0
 50
90.0
100
AcDbRotatedDimension
  0
DIMENSION
  5
1B7
330
1F
100
AcDbEntity
  8
VERMASSUNG
100
AcDbDimension
  2
*D2
 10
235.2673742093
 20
161.7409534128
 30
0.0
 11
194.2673742093
 21
161.7409534128
 31
0.0
 70
   160
 71
     2
 42
-1.0
  3
SLDDIMSTYLE1
100
AcDbAlignedDimension
 13
153.2673742093
 23
102.132936078
 33
0.0
 14
235.2673742093
 24
82.0962418299
 34
0.0
 50
0.0
100
AcDbRotatedDimension
  0
DIMENSION
  5
1C2
330
1F
100
AcDbEntity
  8
VERMASSUNG
100
AcDbDimension
  2
*D3
 10
242.555687974
 20
83.132936078
 30
0.0
 11
242.555687974
 21
108.132936078
 31
0.0
 70
   160
  1
%%c<>
 71
     2
 42
-1.0
  3
SLDDIMSTYLE2
100
AcDbAlignedDimension
 13
231.7673742093
 23
133.132936078
 33
0.0
 14
231.7673742093
 24
83.132936078
 34
0.0
 50
90.0
100
AcDbRotatedDimension
  0
DIMENSION
  5
1CE
330
1F
100
AcDbEntity
  8
VERMASSUNG
100
AcDbDimension
  2
*D4
 10
248.555687974
 20
73.632936078
 30
0.0
 11
248.555687974
 21
108.132936078
 31
0.0
 70
   160
  1
%%c<>
 71
     2
 42
-1.0
  3
SLDDIMSTYLE3
100
AcDbAlignedDimension
 13
235.2673742093
 23
142.632936078
 33
0.0
 14
235.2673742093
 24
73.632936078
 34
0.0
 50
90.0
100
AcDbRotatedDimension
  0
DIMENSION
  5
1DA
330
1F
100
AcDbEntity
  8
VERMASSUNG
100
AcDbDimension
  2
*D5
 10
254.555687974
 20
68.632936078
 30
0.0
 11
254.555687974
 21
108.132936078
 31
0.0
 70
   160
  1
%%c<>
 71
     2
 42
-1.0
  3
SLDDIMSTYLE3
100
AcDbAlignedDimension
 13
153.7673742093
 23
147.632936078
 33
0.0
 14
153.7673742093
 24
68.632936078
 34
0.0
 50
90.0
100
AcDbRotatedDimension
  0
DIMENSION
  5
1E5
330
1F
100
AcDbEntity
  8
VERMASSUNG
100
AcDbDimension
  2
*D6
 10
235.2673742093
 20
173.7409534128
 30
0.0
 11
170.2673742093
 21
173.7409534128
 31
0.0
 70
   160
 71
     2
 42
-1.0
  3
SLDDIMSTYLE0
100
AcDbAlignedDimension
 13
105.2673742093
 23
108.132936078
 33
0.0
 14
235.2673742093
 24
82.0962418299
 34
0.0
100
AcDbRotatedDimension
  0
DIMENSION
  5
1EF
330
1F
100
AcDbEntity
  8
VERMASSUNG
100
AcDbDimension
  2
*D7
 10
235.2673742093
 20
167.7409534128
 30
0.0
 11
184.7423742093
 21
167.7409534128
 31
0.0
 70
   160
 71
     2
 42
-1.0
  3
SLDDIMSTYLE0
100
AcDbAlignedDimension
 13
134.2173742093
 23
139.482936078
 33
0.0
 14
235.2673742093
 24
140.3219598489
 34
0.0
100
AcDbRotatedDimension
  0
DIMENSION
  5
1F9
330
1F
100
AcDbEntity
  8
VERMASSUNG
100
AcDbDimension
  2
*D8
 10
235.2673742093
 20
179.7409534128
 30
0.0
 11
145.3173742093
 21
179.7409534128
 31
0.0
 70
   160
 71
     2
 42
-1.0
  3
SLDDIMSTYLE0
100
AcDbAlignedDimension
 13
55.3673742093
 23
138.6356058206
 33
0.0
 14
235.2673742093
 24
140.3219598489
 34
0.0
100
AcDbRotatedDimension
  0
LINE
  5
203
330
1F
100
AcDbEntity
  8
VERMASSUNG
  6
CENTERX2
370
     0
100
AcDbLine
 10
53.1169048483
 20
108.132936078
 30
0.0
 11
237.3825568797
 21
108.132936078
 31
0.0
  0
OLE2FRAME
  5
204
330
1F
100
AcDbEntity
  8
0
100
AcDbOle2Frame
 70
     2
  3
Bitmap Image
 10
13.8511154363
 20
38.264191557
 30
0.0
 11
51.6290888628
 21
31.9806341108
 31
0.0
 71
     2
 72
     0
 73
     1
 90
    12928
310
80552BED0767C5B32B40DDAF6807D121434000000000000000006FFBDDFB85D0
310
4940DDAF6807D121434000000000000000006FFBDDFB85D04940416F4BD60AFB
310
3F4000000000000000002BED0767C5B32B40416F4BD60AFB3F40000000000000
310
0000000000000100000000010000010000000100000000000100000000320000
310
D0CF11E0A1B11AE1000000000000000000000000000000003E000300FEFF0900
310
0600000000000000000000000100000001000000000000000010000002000000
310
01000000FEFFFFFF0000000000000000FFFFFFFFFFFFFFFFFFFFFFFFFFFFFFFF
310
FFFFFFFFFFFFFFFFFFFFFFFFFFFFFFFFFFFFFFFFFFFFFFFFFFFFFFFFFFFFFFFF
310
FFFFFFFFFFFFFFFFFFFFFFFFFFFFFFFFFFFFFFFFFFFFFFFFFFFFFFFFFFFFFFFF
310
FFFFFFFFFFFFFFFFFFFFFFFFFFFFFFFFFFFFFFFFFFFFFFFFFFFFFFFFFFFFFFFF
310
FFFFFFFFFFFFFFFFFFFFFFFFFFFFFFFFFFFFFFFFFFFFFFFFFFFFFFFFFFFFFFFF
310
FFFFFFFFFFFFFFFFFFFFFFFFFFFFFFFFFFFFFFFFFFFFFFFFFFFFFFFFFFFFFFFF
310
FFFFFFFFFFFFFFFFFFFFFFFFFFFFFFFFFFFFFFFFFFFFFFFFFFFFFFFFFFFFFFFF
310
FFFFFFFFFFFFFFFFFFFFFFFFFFFFFFFFFFFFFFFFFFFFFFFFFFFFFFFFFFFFFFFF
310
FFFFFFFFFFFFFFFFFFFFFFFFFFFFFFFFFFFFFFFFFFFFFFFFFFFFFFFFFFFFFFFF
310
FFFFFFFFFFFFFFFFFFFFFFFFFFFFFFFFFFFFFFFFFFFFFFFFFFFFFFFFFFFFFFFF
310
FFFFFFFFFFFFFFFFFFFFFFFFFFFFFFFFFFFFFFFFFFFFFFFFFFFFFFFFFFFFFFFF
310
FFFFFFFFFFFFFFFFFFFFFFFFFFFFFFFFFFFFFFFFFFFFFFFFFFFFFFFFFFFFFFFF
310
FFFFFFFFFFFFFFFFFFFFFFFFFFFFFFFFFFFFFFFFFFFFFFFFFFFFFFFFFFFFFFFF
310
FFFFFFFFFFFFFFFFFFFFFFFFFFFFFFFFFFFFFFFFFFFFFFFFFFFFFFFFFFFFFFFF
310
FDFFFFFFFEFFFFFFFEFFFFFFFEFFFFFF05000000060000000700000008000000
310
090000000A0000000B0000000C0000000D0000000E0000000F00000010000000
310
11000000120000001300000014000000150000001600000017000000FEFFFFFF
310
FFFFFFFFFFFFFFFFFFFFFFFFFFFFFFFFFFFFFFFFFFFFFFFFFFFFFFFFFFFFFFFF
310
FFFFFFFFFFFFFFFFFFFFFFFFFFFFFFFFFFFFFFFFFFFFFFFFFFFFFFFFFFFFFFFF
310
FFFFFFFFFFFFFFFFFFFFFFFFFFFFFFFFFFFFFFFFFFFFFFFFFFFFFFFFFFFFFFFF
310
FFFFFFFFFFFFFFFFFFFFFFFFFFFFFFFFFFFFFFFFFFFFFFFFFFFFFFFFFFFFFFFF
310
FFFFFFFFFFFFFFFFFFFFFFFFFFFFFFFFFFFFFFFFFFFFFFFFFFFFFFFFFFFFFFFF
310
FFFFFFFFFFFFFFFFFFFFFFFFFFFFFFFFFFFFFFFFFFFFFFFFFFFFFFFFFFFFFFFF
310
FFFFFFFFFFFFFFFFFFFFFFFFFFFFFFFFFFFFFFFFFFFFFFFFFFFFFFFFFFFFFFFF
310
FFFFFFFFFFFFFFFFFFFFFFFFFFFFFFFFFFFFFFFFFFFFFFFFFFFFFFFFFFFFFFFF
310
FFFFFFFFFFFFFFFFFFFFFFFFFFFFFFFFFFFFFFFFFFFFFFFFFFFFFFFFFFFFFFFF
310
FFFFFFFFFFFFFFFFFFFFFFFFFFFFFFFFFFFFFFFFFFFFFFFFFFFFFFFFFFFFFFFF
310
FFFFFFFFFFFFFFFFFFFFFFFFFFFFFFFFFFFFFFFFFFFFFFFFFFFFFFFFFFFFFFFF
310
FFFFFFFFFFFFFFFFFFFFFFFFFFFFFFFFFFFFFFFFFFFFFFFFFFFFFFFFFFFFFFFF
310
FFFFFFFFFFFFFFFFFFFFFFFFFFFFFFFFFFFFFFFFFFFFFFFFFFFFFFFFFFFFFFFF
310
52006F006F007400200045006E00740072007900000000000000000000000000
310
0000000000000000000000000000000000000000000000000000000000000000
310
16000500FFFFFFFFFFFFFFFF020000000A00030000000000C000000000000046
310
000000000000000000000000A03B3BF9A008CC0103000000C000000000000000
310
01004F006C006500000000000000000000000000000000000000000000000000
310
0000000000000000000000000000000000000000000000000000000000000000
310
0A000200FFFFFFFFFFFFFFFFFFFFFFFF00000000000000000000000000000000
310
0000000000000000000000000000000000000000000000001400000000000000
310
010043006F006D0070004F0062006A0000000000000000000000000000000000
310
0000000000000000000000000000000000000000000000000000000000000000
310
120002010100000003000000FFFFFFFF00000000000000000000000000000000
310
0000000000000000000000000000000000000000010000004D00000000000000
310
01004F006C006500310030004E00610074006900760065000000000000000000
310
0000000000000000000000000000000000000000000000000000000000000000
310
1A000200FFFFFFFFFFFFFFFFFFFFFFFF00000000000000000000000000000000
310
0000000000000000000000000000000000000000040000002426000000000000
310
FEFFFFFF02000000FEFFFFFFFFFFFFFFFFFFFFFFFFFFFFFFFFFFFFFFFFFFFFFF
310
FFFFFFFFFFFFFFFFFFFFFFFFFFFFFFFFFFFFFFFFFFFFFFFFFFFFFFFFFFFFFFFF
310
FFFFFFFFFFFFFFFFFFFFFFFFFFFFFFFFFFFFFFFFFFFFFFFFFFFFFFFFFFFFFFFF
310
FFFFFFFFFFFFFFFFFFFFFFFFFFFFFFFFFFFFFFFFFFFFFFFFFFFFFFFFFFFFFFFF
310
FFFFFFFFFFFFFFFFFFFFFFFFFFFFFFFFFFFFFFFFFFFFFFFFFFFFFFFFFFFFFFFF
310
FFFFFFFFFFFFFFFFFFFFFFFFFFFFFFFFFFFFFFFFFFFFFFFFFFFFFFFFFFFFFFFF
310
FFFFFFFFFFFFFFFFFFFFFFFFFFFFFFFFFFFFFFFFFFFFFFFFFFFFFFFFFFFFFFFF
310
FFFFFFFFFFFFFFFFFFFFFFFFFFFFFFFFFFFFFFFFFFFFFFFFFFFFFFFFFFFFFFFF
310
FFFFFFFFFFFFFFFFFFFFFFFFFFFFFFFFFFFFFFFFFFFFFFFFFFFFFFFFFFFFFFFF
310
FFFFFFFFFFFFFFFFFFFFFFFFFFFFFFFFFFFFFFFFFFFFFFFFFFFFFFFFFFFFFFFF
310
FFFFFFFFFFFFFFFFFFFFFFFFFFFFFFFFFFFFFFFFFFFFFFFFFFFFFFFFFFFFFFFF
310
FFFFFFFFFFFFFFFFFFFFFFFFFFFFFFFFFFFFFFFFFFFFFFFFFFFFFFFFFFFFFFFF
310
FFFFFFFFFFFFFFFFFFFFFFFFFFFFFFFFFFFFFFFFFFFFFFFFFFFFFFFFFFFFFFFF
310
FFFFFFFFFFFFFFFFFFFFFFFFFFFFFFFFFFFFFFFFFFFFFFFFFFFFFFFFFFFFFFFF
310
FFFFFFFFFFFFFFFFFFFFFFFFFFFFFFFFFFFFFFFFFFFFFFFFFFFFFFFFFFFFFFFF
310
FFFFFFFFFFFFFFFFFFFFFFFFFFFFFFFFFFFFFFFFFFFFFFFFFFFFFFFFFFFFFFFF
310
0100000200000000000000000000000000000000000000003A00820000000005
310
680625000000000000E781720000000000000000000000000000000000000000
310
0100FEFF030A0000FFFFFFFF0A00030000000000C00000000000004607000000
310
5042727573680007000000504272757368000700000050427275736800F439B2
310
7100000000000000000000000000000000000000000000000000000000000000
310
0000000000000000000000000000000000000000000000000000000000000000
310
00000000FFFFFF00FFFFFF00FFFFFF00FFFFFF00FFFFFF002E008E00F4001005
310
A80525000000000020A22800000000008E0FE202000000000000000000000000
310
00000000000000000000C70600000000C6320000000000000000000000000000
310
00000000000000003800000041000000E40FF1020000000080100F0300000000
310
000000000000000000000000000000000000C70600000000C632000000000000
310
000000000000000000000000000000003800000041000000E40FF10200000000
310
660F2D0300000000000000000000000000000000000000000000C70600000000
310
C732000000000000000000000000000000000000000000003800000041000000
310
E40FF10200000000E00FE5020000000000000000000000000000000000000000
310
0000C70600000000FB3400000000000000000000000000000000000000000000
310
20260000424D0E260000000000003E00000028000000B40200006E0000000100
310
01000000000000000000130B0000130B00000200000002000000000000FFFFFF
310
FFFFFFFFFFFFFFFFFFFFFFFFFFFFFFFFFFFFFFFFFFFFFFFFFFFFFFFFFFFFFFFF
310
FFFFFFFFFFFFFFFFFFFFFFFFFFFFFFFFFFFFFFFFFFFFFFFFFFFFFFFFFFFFFFFF
310
FFFFFFFFFFFFFFFFFFFFFFFFFFFFFFFFFFFFFFFFFFFFFFFFF000FFFFFFFFFFFF
310
FFFFFFFFFFFFFFFFFFFFFFFFFFFFFFFFFFFFFFFFFFFFFFFFFFFFFFFFFFFFFFFF
310
FFFFFFFFFFFFFFFFFFFFFFFFFFFFFFFFFFFFFFFFFFFFFFFFFFFFFFFFFFFFFFFF
310
FFFFFFFFFFFFFFFFFFFFFFFFFFFFFFFFF000FFFFFFFFFFFFFFFFFFFFFFFFFFFF
310
FFFFFFFFFFFFFFFFFFFFFFFFFFFFFFFFFFFFFFFFFFFFFFFFFFFFFFFFFFFFFFFF
310
FFFFFFFFFFFFFFFFFFFFFFFFFFFFFFFFFFFFFFFFFFFFFFFFFFFFFFFFFFFFFFFF
310
FFFFFFFFFFFFFFFFF000FFFFFFFFFFFFFFFFFFFFFFFFFFFFFFFFFFFFFFFFFFFF
310
FFFFFFFFFFFFFFFFFFFFFFFFFFFFFFFFFFFFFFFFFFFFFFFFFFFFFFFFFFFFFFFF
310
FFFFFFFFFFFFFFFFFFFFFFFFFFFFFFFFFFFFFFFFFFFFFFFFFFFFFFFFFFFFFFFF
310
F000FFFFFFFFFFFFFFFFFFFFFFFFFFFFFFFFFFFFFFFFFFFFFFFFFFFFFFFFFFFF
310
FFFFFFFFFFFFFFFFFFFFFFFFFFFFFFFFFFFFFFFFFFFFFFFFFFFFFFFFFFFFFFFF
310
FFFFFFFFFFFFFFFFFFFFFFFFFFFFFFFFFFFFFFFFFFFFFFFFF000FFFFFFFFFFFF
310
FFFFFFFFFFFFFFFFFFFFFFFFFFFFFFFFFFFFFFFFFFFFFFFFFFFFFFFFFFFFFFFF
310
FFFFFFFFFFFFFFFFFFFFFFFFFFFFFFFFFFFFFFFFFFFFFFFFFFFFFFFFFFFFFFFF
310
FFFFFFFFFFFFFFFFFFFFFFFFFFFFFFFFF000FFFFFFFFFFFFFFFFFFFFFFFFFFFF
310
FFFFFFFFFFFFFFFFFFFFFFFFFFFFFFFFFFFFFFFFFFFFFFFFFFFFFFFFFFFFFFFF
310
FFFFFFFFFFFFFFFFFFFFFFFFFFFFFFFFFFFFFFFFFFFFFFFFFFFFFFFFFFFFFFFF
310
FFFFFFFFFFFFFFFFF000FFFFFFFFFFFFFFFFFFFFFFFFFFFFFFFFFFFFFFFFFFFF
310
FFFFFFFFFFFFFFFFFFFFFFFFFFFFFFFFFFFFFFFFFFFFFFFFFFFFFFFFFFFFFFFF
310
FFFFFFFFFFFFFFFFFFFFFFFFFFFFFFFFFFFFFFFFFFFFFFFFFFFFFFFFFFFFFFFF
310
F000FFFFFFFFFFFFFFFFFFFFFFFFFFFFFFFFFFFFFFFFFFFFFFFFFFFFFFFFFFFF
310
FFFFFFFFFFFFFFFFFFFFFFFFFFFFFFFFFFFFFFFFFFFFFFFFFFFFFFFFFFFFFFFF
310
FFFFFFFFFFFFFFFFFFFFFFFFFFFFFFFFFFFFFFFFFFFFFFFFF000FFFFFFFFFFFF
310
FFFFFFFFFFFFFFFFFFFFFFFFFFFFFFFFFFFFFFFFFFFFFFFFFFFFFFFFFFFFFFFF
310
FFFFFFFFFFFFFFFFFFFFFFFFFFFFFFFFFFFFFFFFFFFFFFFFFFFFFFFFFFFFFFFF
310
FFFFFFFFFFFFFFFFFFFFFFFFFFFFFFFFF000FFFFFFFFFFFFFFFFFFFFFFFFFFFF
310
FFFFFFFFFFFFFFFFFFFFFFFFFFFFFFFFFFFFFFFFFFFFFFFFFFFFFFFFFFFFFFFF
310
FFFFFFFFFFFFFFFFFFFFFFFFFFFFFFFFFFFFFFFFFFFFFFFFFFFFFFFFFFFFFFFF
310
FFFFFFFFFFFFFFFFF000FFFFFFFFFFFFFFFFFFFFFFFFFFFFFFFFFFFFFFFFFFFF
310
FFFFFFFFFFFFFFFFFFFFFFFFFFFFFFFFFFFFFFFFFFFFFFFFFFFFFFFFFFFFFFFF
310
FFFFFFFFFFFFFFFFFFFFFFFFFFFFFFFFFFFFFFFFFFFFFFFFFFFFFFFFFFFFFFFF
310
F000FFFFFFFFFFFFFFFFFFFFFFFFFFFFFFFFFFFFFFFFFFFFFFFFFFFFFFFFFFFF
310
FFFFFFFFFFFFFFFFFFFFFFFFFFFFFFFFFFFFFFFFFFFFFFFFFFFFFFFFFFFFFFFF
310
FFFFFFFFFFFFFFFFFFFFFFFFFFFFFFFFFFFFFFFFFFFFFFFFF000FFFFFFFFFFFF
310
FFFFFFFFFFFFFFFFFFFFFFFFFFFFFFFFFFFFFFFFFFFFFFFFFFFFFFFFFFFFFFFF
310
FFFFFFFFFFFFFFFFFFFFFFFFFFFFFFFFFFFFFFFFFFFFFFFFFFFFFFFFFFFFFFFF
310
FFFFFFFFFFFFFFFFFFFFFFFFFFFFFFFFF000FFFFFFFFFFFFFFFFFFFFFFFFFFFF
310
FFFFFFFFFFFFFFFFFFFFFFFFFFFFFFFFFFFFFFFFFFFFFFFFFFFFFFFFFFFFFFFF
310
FFFFFFFFFFFFFFFFFFFFFFFFFFFFFFFFFFFFFFFFFFFFFFFFFFFFFFFFFFFFFFFF
310
FFFFFFFFFFFFFFFFF000FFFFFFFFFFFFFFFFFFFFFFFFFFFFFFFFFFFFFFFFFFFF
310
FFFFFFFFFFFFFFFFFFFFFFFFFFFFFFFFFFFFFFFFFFFFFFFFFFFFFFFFFFFFFFFF
310
FFFFFFFFFFFFFFFFFFFFFFFFFFFFFFFFFFFFFFFFFFFFFFFFFFFFFFFFFFFFFFFF
310
F000FFFFFFFFFFFFFFFFFFFFFFFFFFFFFFFFFFFFFFFFFFFFFFFFFFFFFFFFFFFF
310
FFFFFFFFFFFFFFFFFFFFFFFFFFFFFFFFFFFFFFFFFFFFFFFFFFFFFFFFFFFFFFFF
310
FFFFFFFFFFFFFFFFFFFFFFFFFFFFFFFFFFFFFFFFFFFFFFFFF000FFFFFFFFFFFF
310
FFFFFFFFFFFFFFFFFFFFFFFFFFFFFFFFFFFFFFFFFFFFFFFFFFFFFFFFFFFFFFFF
310
FFFFFFFFFFFFFFFFFFFFFFFFFFFFFFFFFFFFFFFFFFFFFFFFFFFFFFFFFFFFFFFF
310
FFFFFFFFFFFFFFFFFFFFFFFFFFFFFFFFF000FFFFFFFFFFFFFFFFFFFFFFFFFFFF
310
FFFFFFFFFFFFFFFFFFFFFFFFFFFFFFFFFFFFFFFFFFFFFFFFFFFFFFFFFFFFFFFF
310
FFFFFFFFFFFFFFFFFFFFFFFFFFFFFFFFFFFFFFFFFFFFFFFFFFFFFFFFFFFFFFFF
310
FFFFFFFFFFFFFFFFF000FFFFF80003FFFFFFFFFFFFFFFFFFFFFFFFFFFFFFFFFF
310
FFFFF00007FFFFFFFFFF00007FFFFFF800000000000000007FFFFFFFFFFFFFFF
310
FFFFFFFC001FFFFFFFFFFFFFFC001FFFFFFFFFFFFFFFFFFFFFFFFFFE0007FFFF
310
F000FFFF8000007FFFFFFFF8000FFFFFC0007FFFFF80007FFFFF0000007FFFFF
310
FFF8000007FFFFF800000000000000007FFFFFF0001FFFFFFFFFFFC00001FFFF
310
FFFFFFFFC00001FFFFFFFF000000000003FFFFE000007FFFF000FFFE0000000F
310
FFFFFFF0000FFFFF80007FFFFF80007FFFFC0000001FFFFFFFC0000001FFFFF8
310
00000000000000007FFFFFF0001FFFFFFFFFFE0000003FFFFFFFFFFE0000003F
310
FFFFFF000000000003FFFF0000000FFFF000FFF800000003FFFFFFF00007FFFF
310
80007FFFFF80007FFFF000000007FFFFFF000000003FFFF80000000000000000
310
7FFFFFF0001FFFFFFFFFF80000000FFFFFFFFFF80000000FFFFFFF0000000000
310
03FFFC00000003FFF000FFE000000000FFFFFFF00007FFFF80003FFFFF80007F
310
FFC000000001FFFFFC000000001FFFF800000000000000007FFFFFF0001FFFFF
310
FFFFE000000003FFFFFFFFE000000003FFFFFF000000000003FFF000000000FF
310
F000FF80000000007FFFFFF00007FFFF80003FFFFF80007FFF8000000000FFFF
310
F80000000007FFF800000000000000007FFFFFF0001FFFFFFFFFC000000001FF
310
FFFFFFC000000001FFFFFF000000000003FFC0000000007FF000FF0000000000
310
3FFFFFE00007FFFF00003FFFFF80007FFE00000000003FFFF00000000003FFF8
310
00000000000000007FFFFFF0001FFFFFFFFF8000000000FFFFFFFF8000000000
310
FFFFFF000000000003FF80000000003FF000FE00000000001FFFFFE00003FFFF
310
00003FFFFF80007FFC00000000001FFFE00000000001FFF8000001FFFE000000
310
7FFFFFF0001FFFFFFFFE00000000003FFFFFFE00000000003FFFFF0000000000
310
03FF00000000001FF000FC00000000000FFFFFE00003FFFF00001FFFFF80007F
310
F800000000001FFFC00000000000FFF8000001FFFE0000007FFFFFF0001FFFFF
310
FFFC00000000001FFFFFFC00000000001FFFFF000000000003FE00000000000F
310
F000F8000000000007FFFFE00003FFFF00001FFFFF80007FF800000000000FFF
310
800000000000FFF8000001FFFE0000007FFFFFF0001FFFFFFFF800000000000F
310
FFFFF800000000000FFFFF000000000003FC000000000007F000F80000000000
310
03FFFFC00003FFFE00001FFFFF80007FF0000000000007FF0000000000007FF8
310
000001FFFE0000007FFFFFF0001FFFFFFFF0000000000007FFFFF00000000000
310
07FFFF000000000003F8000000000003F000F0000000000003FFFFC00001FFFE
310
00001FFFFF80007FE0000000000007FE0000000000003FF8000001FFFE000000
310
7FFFFFF0001FFFFFFFF0000000000007FFFFF0000000000007FFFF0000000000
310
03F800001F800003F000E00001FFF00001FFFFC00001FFFE00000FFFFF80007F
310
E00001FFE00003FE00001FFF00003FF8000001FFFE0000007FFFFFF0001FFFFF
310
FFE000003E000003FFFFE000003E000003FFFF000000000003F00001FFF80001
310
F000E00007FFFC0001FFFFC00001FFFE00000FFFFF80007FC0000FFFFC0003FC
310
0000FFFFC0001FF8000001FFFE0000007FFFFFF0001FFFFFFFC00003FFE00001
310
FFFFC00003FFE00001FFFF0001FFFFFFFFF00007FFFE0001F000E0000FFFFF00
310
00FFFF800001FFFC00000FFFFF80007FC0001FFFFE0001FC0001FFFFE0001FF8
310
000001FFFE0000007FFFFFF0001FFFFFFF80000FFFF80000FFFF80000FFFF800
310
00FFFF0003FFFFFFFFE0000FFFFF8000F000C0003FFFFF8000FFFF800000FFFC
310
000007FFFF80007F80003FFFFF0001FC0003FFFFF0001FF8000001FFFE000000
310
7FFFFFF0001FFFFFFF80003FFFFE0000FFFF80003FFFFE0000FFFF0003FFFFFF
310
FFE0003FFFFF8000F000C0003FFFFF8000FFFF800000FFFC000007FFFF80007F
310
80007FFFFF8001F80007FFFFF8000FF8000001FFFE0000007FFFFFF0001FFFFF
310
FF00007FFFFF00007FFF00007FFFFF00007FFF0003FFFFFFFFE0003FFFFFC000
310
F000C0007FFFFFC000FFFF000000FFFC000007FFFF80007F8000FFFFFF8000F8
310
000FFFFFF8000FF8000001FFFE0000007FFFFFF0001FFFFFFF0000FFFFFF8000
310
7FFF0000FFFFFF80007FFF0003FFFFFFFFC0007FFFFFC00070008000FFFFFFC0
310
00FFFF000000FFF8000007FFFF80007F8000FFFFFF8000F8000FFFFFF8000FF8
310
000001FFFE0000007FFFFFF0001FFFFFFE0001FFFFFFC0003FFE0001FFFFFFC0
310
003FFF0003FFFFFFFFC0007FFFFFE00070008000FFFFFFC0007FFF0000007FF8
310
000003FFFF80007F0001FFFFFF8000F8000FFFFFF8000FF8000001FFFE000000
310
7FFFFFF0001FFFFFFE0001FFFFFFC0003FFE0001FFFFFFC0003FFF0003FFFFFF
310
FFC000FFFFFFE00070008000FFFFFFC0007FFF0000007FF8000003FFFF80007F
310
0001FFFFFF8000F8001FFFFFF8000FF8000001FFFE0000007FFFFFF0001FFFFF
310
FE0003FFFFFFE0003FFE0003FFFFFFE0003FFF0003FFFFFFFFC000FFFFFFE000
310
70008000FFFFFFC0007FFE0000007FF8000003FFFF80007F0001FFFFFF8000F0
310
001FFFFFF8000FF8000001FFFE0000007FFFFFF0001FFFFFFC0003FFFFFFE000
310
1FFC0003FFFFFFE0001FFF0003FFFFFFFFC000FFFFFFC00070008000FFFFFF80
310
007FFE0000007FF0000003FFFF80007F0001FFFFFF0000F0001FFFFFF8000FF8
310
000001FFFE0000007FFFFFF0001FFFFFFC0007FFFFFFF0001FFC0007FFFFFFF0
310
001FFF0003FFFFFFFFC000FFFFFFC00070008001FFFFFF0000FFFE0000003FF0
310
000001FFFF80007F0001FFFFFF0000F8001FFFFFF0000FF8000001FFFE000000
310
7FFFFFF0001FFFFFFC0007FFFFFFF0001FFC0007FFFFFFF0001FFF0003FFFFFF
310
FFC001FFFFFF80007000FFFFFFFFFE0000FFFE0008003FF0008001FFFF80007F
310
FFFFFFFFFC0000FFFFFFFFFFE0000FF8000001FFFE0000007FFFFFF0001FFFFF
310
F8000FFFFFFFF8000FF8000FFFFFFFF8000FFF0003FFFFFFFFFFFFFFFFFF0000
310
7000FFFFFFFFFC0000FFFC0008003FF0008001FFFF80007FFFFFFFFFF80001FF
310
FFFFFFFF80000FF8000001FFFE0000007FFFFFF0001FFFFFF8000FFFFFFFF800
310
0FF8000FFFFFFFF8000FFF0003FFFFFFFFFFFFFFFFFE0000F000FFFFFFFFE000
310
00FFFC000C003FE000C001FFFF80007FFFFFFFFFC00001FFFFFFFFFE00001FF8
310
000001FFFE0000007FFFFFF0001FFFFFF8000FFFFFFFF8000FF8000FFFFFFFF8
310
000FFF0003FFFFFFFFFFFFFFFFF00000F000FFFFFFFE000001FFFC000C001FE0
310
00C000FFFF80007FFFFFFFFE000001FFFFFFFFE000001FF80FFFFFFFFFFFFFC0
310
7FFFFFF0001FFFFFF8000FFFFFFFF8000FF8000FFFFFFFF8000FFF0003FFFFFF
310
FFFFFFFFFF800000F000FFFFFFC0000001FFFC001C001FE001C000FFFF80007F
310
FFFFFF80000003FFFFFFF80000001FF80FFFFFFFFFFFFFC07FFFFFF0001FFFFF
310
F8001FFFFFFFFC000FF8001FFFFFFFFC000FFF0003FFFFFFFFFFFFFFF0000001
310
F000FFFFF800000001FFF8001C001FE001C000FFFF80007FFFFFF800000003FF
310
FFFF800000003FF80FFFFFFFFFFFFFC07FFFFFF0001FFFFFF8001FFFFFFFFC00
310
0FF8001FFFFFFFFC000FFF0003FFFFFFFFFFFFFE00000001F000FFFFC0000000
310
03FFF8001E001FC001E000FFFF80007FFFFF8000000007FFFFFC000000003FF8
310
0FFFFFFFFFFFFFC07FFFFFF0001FFFFFF8001FFFFFFFFC000FF8001FFFFFFFFC
310
000FFF0003FFFFFFFFFFFFE000000003F000FFFE0000000007FFF8001E000FC0
310
01E0007FFF80007FFFFE0000000007FFFFE0000000007FF80FFFFFFFFFFFFFC0
310
7FFFFFF0001FFFFFF0001FFFFFFFFC0007F0001FFFFFFFFC0007FF0003FFFFFF
310
FFFFFF0000000003F000FFF80000000007FFF8001E000FC003E0007FFF80007F
310
FFF0000000000FFFFF8000000000FFF80FFFFFFFFFFFFFC07FFFFFF0001FFFFF
310
F0001FFFFFFFFC0007F0001FFFFFFFFC0007FF0003FFFFFFFFFFFC0000000007
310
F000FFE0000000000FFFF0003E000FC003E0007FFF80007FFFC0000000001FFF
310
FE0000000001FFF80FFFFFFFFFFFFFC07FFFFFF0001FFFFFF0001FFFFFFFFC00
310
07F0001FFFFFFFFC0007FF0003FFFFFFFFFFF0000000000FF000FFC000000000
310
1FFFF0003F000F8003F0003FFF80007FFF80000000003FFFF80000000003FFF8
310
0FFFFFFFFFFFFFC07FFFFFF0001FFFFFF0001FFFFFFFFC0007F0001FFFFFFFFC
310
0007FF0003FFFFFFFFFFE0000000001FF000FF00000000007FFFF0003F000780
310
03F0003FFF80007FFF00000000007FFFF00000000007FFF80FFFFFFFFFFFFFC0
310
7FFFFFF0001FFFFFF0001FFFFFFFFC0007F0001FFFFFFFFC0007FF0003FFFFFF
310
FFFF80000000007FF000FE0000000000FFFFE0003F00078007F0003FFF80007F
310
FE0000000001FFFFE0000000001FFFF80FFFFFFFFFFFFFC07FFFFFF0001FFFFF
310
F0001FFFFFFFFC0007F0001FFFFFFFFC0007FF0003FFFFFFFFFF0000000000FF
310
F000FC0000000003FFFFE0007F00078007F0003FFF80007FFC0000000007FFFF
310
C0000000007FFFF80FFFFFFFFFFFFFC07FFFFFF0001FFFFFF8001FFFFFFFFC00
310
0FF8001FFFFFFFFC000FFF0003FFFFFFFFFE0000000003FFF000FC000000000F
310
FFFFE0007F80070007F8001FFF80007FF8000000001FFFFF8000000001FFFFF8
310
0FFFFFFFFFFFFFC07FFFFFF0001FFFFFF8001FFFFFFFFC000FF8001FFFFFFFFC
310
000FFF0003FFFFFFFFFC000000000FFFF000F8000000007FFFFFE0007F800700
310
07F8001FFF80007FF000000000FFFFFF800000000FFFFFF80FFFFFFFFFFFFFC0
310
7FFFFFF0001FFFFFF8000FFFFFFFF8000FF8000FFFFFFFF8000FFF0003FFFFFF
310
FFFC000000007FFFF000F800000007FFFFFFC0007F8003000FF8001FFF80007F
310
F000000007FFFFFF000000007FFFFFF80FFFFFFFFFFFFFC07FFFFFF0001FFFFF
310
F8000FFFFFFFF8000FF8000FFFFFFFF8000FFF0003FFFFFFFFF80000000FFFFF
310
F000F0000000FFFFFFFFC000FF8003000FF8001FFF80007FE0000000FFFFFFFF
310
0000000FFFFFFFF8000001FFFE0000007FFFFFF0001FFFFFF8000FFFFFFFF800
310
0FF8000FFFFFFFF8000FFF0003FFFFFFFFF8000000FFFFFFF000F000000FFFFF
310
FFFFC000FFC002000FF8000FFF80007FE000001FFFFFFFFE000001FFFFFFFFF8
310
000001FFFE0000007FFFFFF0001FFFFFF8000FFFFFFFF8000FF8000FFFFFFFF8
310
000FFF0003FFFFFFFFF000001FFFFFFFF000E00000FFFFFFFFFFC000FFC00200
310
0FFC000FFF80007FE00001FFFFFFFFFE00001FFFFFFFFFF8000001FFFE000000
310
7FFFFFF0001FFFFFFC000FFFFFFFF8001FFC000FFFFFFFF8001FFF0003FFFFFF
310
FFF00001FFFFFFFFF000E00007FFFFFFFFFF8000FFC000001FFC000FFF80007F
310
C0000FFFFFFFFFFE0000FFFFFFFFFFF8000001FFFE0000007FFFFFF0001FFFFF
310
FC0007FFFFFFF0001FFC0007FFFFFFF0001FFF0003FFFFFFFFF00007FFFFFFFF
310
F000E0001FFFFFFFFFFF8000FFC000001FFC000FFF80007FC0003FFFFFFFFFFE
310
0001FFFFFFFFFFF8000001FFFE0000007FFFFFF0001FFFFFFC0007FFFFFFF000
310
1FFC0007FFFFFFF0001FFF0003FFFFFFFFF0001FFFFFFFFFF000E0003FFFFF00
310
03FF8001FFE000001FFC0007FF80007FC0007FFFFF0007FC0003FFFFF0003FF8
310
000001FFFE0000007FFFFFF0001FFFFFFC0003FFFFFFE0001FFC0003FFFFFFE0
310
001FFF0003FFFFFFFFF0003FFFFFFFFFF000E0003FFFFF0001FF8001FFE00000
310
1FFE0007FF80007FC0007FFFFE0003FC0007FFFFE0003FF8000001FFFE000000
310
7FFFFFF0001FFFFFFE0003FFFFFFE0003FFE0003FFFFFFE0003FFF0003FFFFFF
310
FFF0003FFFFF8001F000E0003FFFFF0001FF0001FFE000001FFE0007FF80007F
310
C0007FFFFE0003FC0007FFFFE0003FF8000001FFFE0000007FFFFFF0001FFFFF
310
FE0001FFFFFFC0003FFE0001FFFFFFC0003FFF0003FFFFFFFFF0003FFFFF0001
310
F000E0003FFFFF0003FF0001FFE000003FFE0007FF80007FC0007FFFFE0003FC
310
0007FFFFE0003FF8000001FFFE0000007FFFFFF0001FFFFFFF0001FFFFFFC000
310
7FFF0001FFFFFFC0007FFF0003FFFFFFFFF0003FFFFF0001F000E0003FFFFE00
310
03FF0003FFF000003FFE0003FF80007FC0007FFFFC0003FE0007FFFFE0003FF8
310
000001FFFE0000007FFFFFF0001FFFFFFF0000FFFFFF80007FFF0000FFFFFF80
310
007FFF0003FFFFFFFFF0003FFFFF0001F000E0003FFFFE0003FF0003FFF00000
310
3FFF0003FF80007FC0007FFFFC0007FE0007FFFFC0003FF8000001FFFE000000
310
7FFFFFF0001FFFFFFF80007FFFFF0000FFFF80007FFFFF0000FFFF0003FFFFFF
310
FFF0003FFFFF0003F000E0003FFFFC0003FE0003FFF000003FFF0003FF80007F
310
E0003FFFF80007FE0003FFFFC0007FF8000001FFFE0000007FFFFFF0001FFFFF
310
FF80003FFFFE0000FFFF80003FFFFE0000FFFF0003FFFFFFFFF0001FFFFE0003
310
F000F0001FFFF80003FE0003FFF000007FFF0001FF80007FE0003FFFF00007FE
310
0001FFFF80007FF8000001FFFE0000007FFFFFF0001FFFFFFFC0000FFFF80001
310
FFFFC0000FFFF80001FFFF0003FFFFFFFFF0001FFFFC0003F000F0000FFFF000
310
07FE0007FFF800007FFF0001FF80007FE0001FFFE00007FF0000FFFE00007FF8
310
000001FFFE0000007FFFFFF0001FFFFFFFC00003FFE00001FFFFC00003FFE000
310
01FFFF0003FFFFFFFFF8000FFFF80003F000F00003FFC00007FC0007FFF80000
310
7FFF8001FF80007FF00007FF80000FFF00007FF80000FFF8000001FFFE000000
310
7F80000000000001FFE000003E000003FFFFE000003E000003FFFF0003FFFFFF
310
FFF80003FFE00007F000F800000000000FFC0007FFF800007FFF8001FF80007F
310
F000000000000FFF000000000000FFF8000001FFFE0000007F80000000000001
310
FFF0000000000007FFFFF0000000000007FFFF0003FFFFFFFFFC00007E000007
310
F000F800000000000FFC0007FFF80000FFFF8000FF80007FF800000000001FFF
310
800000000001FFF8000001FFFE0000007F80000000000001FFF800000000000F
310
FFFFF800000000000FFFFF0003FFFFFFFFFC00000000000FF000FC0000000000
310
1FFC0007FFFC0000FFFF8000FF80007FF800000000003FFFC00000000001FFF8
310
000001FFFE0000007F80000000000001FFF800000000000FFFFFF80000000000
310
0FFFFF0003FFFFFFFFFE00000000001FF000FE00000000003FF8000FFFFC0000
310
FFFF8000FF80007FFC00000000003FFFC00000000003FFF8000001FFFE000000
310
7F80000000000001FFFC00000000001FFFFFFC00000000001FFFFF0003FFFFFF
310
FFFF00000000001FF000FF00000000003FF8000FFFFC0000FFFFC000FF80007F
310
FE00000000007FFFE00000000007FFF8000001FFFE0000007F80000000000001
310
FFFE00000000003FFFFFFE00000000003FFFFF0003FFFFFFFFFF80000000003F
310
F000FF80000000007FF8000FFFFC0001FFFFC0007F80007FFF0000000000FFFF
310
F0000000000FFFF800000000000000007F80000000000001FFFF8000000000FF
310
FFFFFF8000000000FFFFFF0003FFFFFFFFFFC0000000007FF000FFC000000000
310
FFF8000FFFFE0001FFFFC0007F80007FFF8000000001FFFFF8000000001FFFF8
310
00000000000000007F80000000000001FFFFC000000001FFFFFFFFC000000001
310
FFFFFF0003FFFFFFFFFFE000000000FFF000FFE000000003FFF0001FFFFE0001
310
FFFFC0007F80007FFFC000000007FFFFFE000000003FFFF80000000000000000
310
7F80000000000001FFFFE000000003FFFFFFFFE000000003FFFFFF0003FFFFFF
310
FFFFF000000003FFF000FFF80000000FFFF0001FFFFE0001FFFFE0007F80007F
310
FFF00000000FFFFFFF00000000FFFFF800000000000000007F80000000000001
310
FFFFF80000000FFFFFFFFFF80000000FFFFFFF0003FFFFFFFFFFFC0000000FFF
310
F000FFFE0000003FFFF0001FFFFE0003FFFFE0003F80007FFFFC0000003FFFFF
310
FFC0000003FFFFF800000000000000007F80000000000001FFFFFE0000003FFF
310
FFFFFFFE0000003FFFFFFF0003FFFFFFFFFFFF0000003FFFF000FFFF800000FF
310
FFF0001FFFFF0003FFFFE0003F80007FFFFF000001FFFFFFFFF800001FFFFFF8
310
00000000000000007F80000000000001FFFFFFC00001FFFFFFFFFFFFC00001FF
310
FFFFFF0003FFFFFFFFFFFFC00000FFFFF000FFFFF8000FFFFFFFFFFFFFFFFFFF
310
FFFFFFFFFFFFFFFFFFFFF0001FFFFFFFFFFF0000FFFFFFF80000000000000000
310
7FFFFFFFFFFFFFFFFFFFFFFC001FFFFFFFFFFFFFFC001FFFFFFFFFFFFFFFFFFF
310
FFFFFFFC001FFFFFF000FFFFFFFFFFFFFFFFFFFFFFFFFFFFFFFFFFFFFFFFFFFF
310
FFFFFFFFFFFFFFFFFFFFFFFFFFFFFFFFFFFFFFFFFFFFFFFFFFFFFFFFFFFFFFFF
310
FFFFFFFFFFFFFFFFFFFFFFFFFFFFFFFFFFFFFFFFFFFFFFFFFFFFFFFFFFFFFFFF
310
F000FFFFFFFFFFFFFFFFFFFFFFFFFFFFFFFFFFFFFFFFFFFFFFFFFFFFFFFFFFFF
310
FFFFFFFFFFFFFFFFFFFFFFFFFFFFFFFFFFFFFFFFFFFFFFFFFFFFFFFFFFFFFFFF
310
FFFFFFFFFFFFFFFFFFFFFFFFFFFFFFFFFFFFFFFFFFFFFFFFF000FFFFFFFFFFFF
310
FFFFFFFFFFFFFFFFFFFFFFFFFFFFFFFFFFFFFFFFFFFFFFFFFFFFFFFFFFFFFFFF
310
FFFFFFFFFFFFFFFFFFFFFFFFFFFFFFFFFFFFFFFFFFFFFFFFFFFFFFFFFFFFFFFF
310
FFFFFFFFFFFFFFFFFFFFFFFFFFFFFFFFF000FFFFFFFFFFFFFFFFFFFFFFFFFFFF
310
FFFFFFFFFFFFFFFFFFFFFFFFFFFFFFFFFFFFFFFFFFFFFFFFFFFFFFFFFFFFFFFF
310
FFFFFFFFFFFFFFFFFFFFFFFFFFFFFFFFFFFFFFFFFFFFFFFFFFFFFFFFFFFFFFFF
310
FFFFFFFFFFFFFFFFF000FFFFFFFFFFFFFFFFFFFFFFFFFFFFFFFFFFFFFFFFFFFF
310
FFFFFFFFFFFFFFFFFFFFFFFFFFFFFFFFFFFFFFFFFFFFFFFFFFFFFFFFFFFFFFFF
310
FFFFFFFFFFFFFFFFFFFFFFFFFFFFFFFFFFFFFFFFFFFFFFFFFFFFFFFFFFFFFFFF
310
F000FFFFFFFFFFFFFFFFFFFFFFFFFFFFFFFFFFFFFFFFFFFFFFFFFFFFFFFFFFFF
310
FFFFFFFFFFFFFFFFFFFFFFFFFFFFFFFFFFFFFFFFFFFFFFFFFFFFFFFFFFFFFFFF
310
FFFFFFFFFFFFFFFFFFFFFFFFFFFFFFFFFFFFFFFFFFFFFFFFF000FFFFFFFFFFFF
310
FFFFFFFFFFFFFFFFFFFFFFFFFFFFFFFFFFFFFFFFFFFFFFFFFFFFFFFFFFFFFFFF
310
FFFFFFFFFFFFFFFFFFFFFFFFFFFFFFFFFFFFFFFFFFFFFFFFFFFFFFFFFFFFFFFF
310
FFFFFFFFFFFFFFFFFFFFFFFFFFFFFFFFF000FFFFFFFFFFFFFFFFFFFFFFFFFFFF
310
FFFFFFFFFFFFFFFFFFFFFFFFFFFFFFFFFFFFFFFFFFFFFFFFFFFFFFFFFFFFFFFF
310
FFFFFFFFFFFFFFFFFFFFFFFFFFFFFFFFFFFFFFFFFFFFFFFFFFFFFFFFFFFFFFFF
310
FFFFFFFFFFFFFFFFF000FFFFFFFFFFFFFFFFFFFFFFFFFFFFFFFFFFFFFFFFFFFF
310
FFFFFFFFFFFFFFFFFFFFFFFFFFFFFFFFFFFFFFFFFFFFFFFFFFFFFFFFFFFFFFFF
310
FFFFFFFFFFFFFFFFFFFFFFFFFFFFFFFFFFFFFFFFFFFFFFFFFFFFFFFFFFFFFFFF
310
F000FFFFFFFFFFFFFFFFFFFFFFFFFFFFFFFFFFFFFFFFFFFFFFFFFFFFFFFFFFFF
310
FFFFFFFFFFFFFFFFFFFFFFFFFFFFFFFFFFFFFFFFFFFFFFFFFFFFFFFFFFFFFFFF
310
FFFFFFFFFFFFFFFFFFFFFFFFFFFFFFFFFFFFFFFFFFFFFFFFF000FFFFFFFFFFFF
310
FFFFFFFFFFFFFFFFFFFFFFFFFFFFFFFFFFFFFFFFFFFFFFFFFFFFFFFFFFFFFFFF
310
FFFFFFFFFFFFFFFFFFFFFFFFFFFFFFFFFFFFFFFFFFFFFFFFFFFFFFFFFFFFFFFF
310
FFFFFFFFFFFFFFFFFFFFFFFFFFFFFFFFF000FFFFFFFFFFFFFFFFFFFFFFFFFFFF
310
FFFFFFFFFFFFFFFFFFFFFFFFFFFFFFFFFFFFFFFFFFFFFFFFFFFFFFFFFFFFFFFF
310
FFFFFFFFFFFFFFFFFFFFFFFFFFFFFFFFFFFFFFFFFFFFFFFFFFFFFFFFFFFFFFFF
310
FFFFFFFFFFFFFFFFF000FFFFFFFFFFFFFFFFFFFFFFFFFFFFFFFFFFFFFFFFFFFF
310
FFFFFFFFFFFFFFFFFFFFFFFFFFFFFFFFFFFFFFFFFFFFFFFFFFFFFFFFFFFFFFFF
310
FFFFFFFFFFFFFFFFFFFFFFFFFFFFFFFFFFFFFFFFFFFFFFFFFFFFFFFFFFFFFFFF
310
F000FFFFFFFFFFFFFFFFFFFFFFFFFFFFFFFFFFFFFFFFFFFFFFFFFFFFFFFFFFFF
310
FFFFFFFFFFFFFFFFFFFFFFFFFFFFFFFFFFFFFFFFFFFFFFFFFFFFFFFFFFFFFFFF
310
FFFFFFFFFFFFFFFFFFFFFFFFFFFFFFFFFFFFFFFFFFFFFFFFF000FFFFFFFFFFFF
310
FFFFFFFFFFFFFFFFFFFFFFFFFFFFFFFFFFFFFFFFFFFFFFFFFFFFFFFFFFFFFFFF
310
FFFFFFFFFFFFFFFFFFFFFFFFFFFFFFFFFFFFFFFFFFFFFFFFFFFFFFFFFFFFFFFF
310
FFFFFFFFFFFFFFFFFFFFFFFFFFFFFFFFF000FFFFFFFFFFFFFFFFFFFFFFFFFFFF
310
FFFFFFFFFFFFFFFFFFFFFFFFFFFFFFFFFFFFFFFFFFFFFFFFFFFFFFFFFFFFFFFF
310
FFFFFFFFFFFFFFFFFFFFFFFFFFFFFFFFFFFFFFFFFFFFFFFFFFFFFFFFFFFFFFFF
310
FFFFFFFFFFFFFFFFF000FFFFFFFFFFFFFFFFFFFFFFFFFFFFFFFFFFFFFFFFFFFF
310
FFFFFFFFFFFFFFFFFFFFFFFFFFFFFFFFFFFFFFFFFFFFFFFFFFFFFFFFFFFFFFFF
310
FFFFFFFFFFFFFFFFFFFFFFFFFFFFFFFFFFFFFFFFFFFFFFFFFFFFFFFFFFFFFFFF
310
F000FFFFFFFFFFFFFFFFFFFFFFFFFFFFFFFFFFFFFFFFFFFFFFFFFFFFFFFFFFFF
310
FFFFFFFFFFFFFFFFFFFFFFFFFFFFFFFFFFFFFFFFFFFFFFFFFFFFFFFFFFFFFFFF
310
FFFFFFFFFFFFFFFFFFFFFFFFFFFFFFFFFFFFFFFFFFFFFFFFF000FFFFFFFFFFFF
310
FFFFFFFFFFFFFFFFFFFFFFFFFFFFFFFFFFFFFFFFFFFFFFFFFFFFFFFFFFFFFFFF
310
FFFFFFFFFFFFFFFFFFFFFFFFFFFFFFFFFFFFFFFFFFFFFFFFFFFFFFFFFFFFFFFF
310
FFFFFFFFFFFFFFFFFFFFFFFFFFFFFFFFF000FFFFFFFFFFFFFFFFFFFFFFFFFFFF
310
FFFFFFFFFFFFFFFFFFFFFFFFFFFFFFFFFFFFFFFFFFFFFFFFFFFFFFFFFFFFFFFF
310
FFFFFFFFFFFFFFFFFFFFFFFFFFFFFFFFFFFFFFFFFFFFFFFFFFFFFFFFFFFFFFFF
310
FFFFFFFFFFFFFFFFF000FFFFFFFFFFFFFFFFFFFFFFFFFFFFFFFFFFFFFFFFFFFF
310
FFFFFFFFFFFFFFFFFFFFFFFFFFFFFFFFFFFFFFFFFFFFFFFFFFFFFFFFFFFFFFFF
310
FFFFFFFFFFFFFFFFFFFFFFFFFFFFFFFFFFFFFFFFFFFFFFFFFFFFFFFFFFFFFFFF
310
F000FFFFFFFFFFFFFFFFFFFFFFFFFFFFFFFFFFFFFFFFFFFFFFFFFFFFFFFFFFFF
310
FFFFFFFFFFFFFFFFFFFFFFFFFFFFFFFFFFFFFFFFFFFFFFFFFFFFFFFFFFFFFFFF
310
FFFFFFFFFFFFFFFFFFFFFFFFFFFFFFFFFFFFFFFFFFFFFFFFF000FFFFFFFFFFFF
310
FFFFFFFFFFFFFFFFFFFFFFFFFFFFFFFFFFFFFFFFFFFFFFFFFFFFFFFFFFFFFFFF
310
FFFFFFFFFFFFFFFFFFFFFFFFFFFFFFFFFFFFFFFFFFFFFFFFFFFFFFFFFFFFFFFF
310
FFFFFFFFFFFFFFFFFFFFFFFFFFFFFFFFF0000000000000000000000000000000
310
0000000001000000010000000000000001000000010000000100000000000000
310
0100000000000000010000000000000001000000000000000100000000000000
310
0100000000000000010000000100000001000000010000000100000001000000
310
0000000001000000010000000100000001000000010000000100000001000000
310
0100000001000000010000000000000001000000010000000100000001000000
310
0100000001000000010000000100000001000000010000000000000001000000
310
0100000001000000010000000100000001000000010000000100000000000000
310
0100000000000000010000000000000001000000000000000100000000000000
310
0100000000000000010000000100000001000000010000000100000001000000
310
0100000001000000010000000100000001000000010000000100000001000000
310
0100000001000000000000000100000001000000010000000100000001000000
310
0100000001000000010000000100000001000000010000000100000001000000
310
0100000001000000010000000000000001000000010000000100000001000000
310
0100000001000000010000000100000001000000010000000100000001000000
310
0100000001000000010000000100000000000000010000000000000001000000
  1
OLE
  0
ENDSEC
  0
SECTION
  2
OBJECTS
  0
DICTIONARY
  5
C
330
0
100
AcDbDictionary
281
     1
  3
ACAD_GROUP
350
D
  3
ACAD_LAYOUT
350
1A
  3
ACAD_MLEADERSTYLE
350
206
  3
ACAD_MLINESTYLE
350
17
  3
ACAD_PLOTSETTINGS
350
19
  3
ACAD_PLOTSTYLENAME
350
E
  3
ACAD_TABLESTYLE
350
205
  3
ACAD_VISUALSTYLE
350
2A
  3
AcDbVariableDictionary
350
207
  0
DICTIONARY
  5
D
102
{ACAD_REACTORS
330
C
102
}
330
C
100
AcDbDictionary
281
     1
  0
DICTIONARY
  5
1A
102
{ACAD_REACTORS
330
C
102
}
330
C
100
AcDbDictionary
281
     1
  3
Layout1
350
1E
  3
Layout2
350
26
  3
Model
350
22
  0
DICTIONARY
  5
206
102
{ACAD_REACTORS
330
C
102
}
330
C
100
AcDbDictionary
281
     1
  0
DICTIONARY
  5
17
102
{ACAD_REACTORS
330
C
102
}
330
C
100
AcDbDictionary
281
     1
  3
Standard
350
18
  0
DICTIONARY
  5
19
102
{ACAD_REACTORS
330
C
102
}
330
C
100
AcDbDictionary
281
     1
  0
ACDBDICTIONARYWDFLT
  5
E
102
{ACAD_REACTORS
330
C
102
}
330
C
100
AcDbDictionary
281
     1
  3
Normal
350
F
100
AcDbDictionaryWithDefault
340
F
  0
DICTIONARY
  5
205
102
{ACAD_REACTORS
330
C
102
}
330
C
100
AcDbDictionary
281
     1
  0
DICTIONARY
  5
2A
102
{ACAD_REACTORS
330
C
102
}
330
C
100
AcDbDictionary
281
     1
  3
2dWireframe
350
2F
  3
3D Hidden
350
31
  3
3dWireframe
350
30
  3
Basic
350
32
  3
Brighten
350
36
  3
ColorChange
350
3A
  3
Conceptual
350
34
  3
Dim
350
35
  3
Facepattern
350
39
  3
Flat
350
2B
  3
FlatWithEdges
350
2C
  3
Gouraud
350
2D
  3
GouraudWithEdges
350
2E
  3
Linepattern
350
38
  3
Realistic
350
33
  3
Thicken
350
37
  0
DICTIONARY
  5
207
102
{ACAD_REACTORS
330
C
102
}
330
C
100
AcDbDictionary
281
     1
  3
PSOLHEIGHT
350
209
  3
PSOLWIDTH
350
208
  0
LAYOUT
  5
1E
102
{ACAD_REACTORS
330
1A
102
}
330
1A
100
AcDbPlotSettings
  1

  2
none_device
  4

  6

 40
0.0
 41
0.0
 42
0.0
 43
0.0
 44
0.0
 45
0.0
 46
0.0
 47
0.0
 48
0.0
 49
0.0
140
0.0
141
0.0
142
1.0
143
1.0
 70
   688
 72
     0
 73
     0
 74
     5
  7

 75
    16
147
1.0
148
0.0
149
0.0
100
AcDbLayout
  1
Layout1
 70
     1
 71
     1
 10
0.0
 20
0.0
 11
420.0
 21
297.0
 12
0.0
 22
0.0
 32
0.0
 14
1.0000000000E+20
 24
1.0000000000E+20
 34
1.0000000000E+20
 15
-1.0000000000E+20
 25
-1.0000000000E+20
 35
-1.0000000000E+20
146
0.0
 13
0.0
 23
0.0
 33
0.0
 16
1.0
 26
0.0
 36
0.0
 17
0.0
 27
1.0
 37
0.0
 76
     0
330
1B
  0
LAYOUT
  5
26
102
{ACAD_REACTORS
330
1A
102
}
330
1A
100
AcDbPlotSettings
  1

  2
none_device
  4

  6

 40
0.0
 41
0.0
 42
0.0
 43
0.0
 44
0.0
 45
0.0
 46
0.0
 47
0.0
 48
0.0
 49
0.0
140
0.0
141
0.0
142
1.0
143
1.0
 70
   688
 72
     0
 73
     0
 74
     5
  7

 75
    16
147
1.0
148
0.0
149
0.0
100
AcDbLayout
  1
Layout2
 70
     1
 71
     2
 10
0.0
 20
0.0
 11
0.0
 21
0.0
 12
0.0
 22
0.0
 32
0.0
 14
0.0
 24
0.0
 34
0.0
 15
0.0
 25
0.0
 35
0.0
146
0.0
 13
0.0
 23
0.0
 33
0.0
 16
1.0
 26
0.0
 36
0.0
 17
0.0
 27
1.0
 37
0.0
 76
     0
330
23
  0
LAYOUT
  5
22
102
{ACAD_REACTORS
330
1A
102
}
330
1A
100
AcDbPlotSettings
  1

  2
none_device
  4

  6

 40
0.0
 41
0.0
 42
0.0
 43
0.0
 44
0.0
 45
0.0
 46
0.0
 47
0.0
 48
0.0
 49
0.0
140
0.0
141
0.0
142
1.0
143
1.0
 70
  1712
 72
     0
 73
     0
 74
     0
  7

 75
     0
147
1.0
148
0.0
149
0.0
100
AcDbLayout
  1
Model
 70
     1
 71
     0
 10
0.0
 20
0.0
 11
297.0
 21
210.0
 12
0.0
 22
0.0
 32
0.0
 14
0.0
 24
0.0
 34
0.0
 15
297.0
 25
210.0
 35
0.0
146
0.0
 13
0.0
 23
0.0
 33
0.0
 16
1.0
 26
0.0
 36
0.0
 17
0.0
 27
1.0
 37
0.0
 76
     0
330
1F
331
29
  0
MLINESTYLE
  5
18
102
{ACAD_REACTORS
330
17
102
}
330
17
100
AcDbMlineStyle
  2
Standard
 70
     0
  3

 62
   256
 51
90.0
 52
90.0
 71
     2
 49
0.5
 62
   256
  6
BYLAYER
 49
-0.5
 62
   256
  6
BYLAYER
  0
ACDBPLACEHOLDER
  5
F
102
{ACAD_REACTORS
330
E
102
}
330
E
  0
VISUALSTYLE
  5
2F
102
{ACAD_REACTORS
330
2A
102
}
330
2A
100
AcDbVisualStyle
  2
2dWireframe
 70
     4
 71
     0
 72
     2
 73
     0
 90
        0
 40
-0.6
 41
-30.0
 62
     5
 63
     7
 74
     1
 91
        4
 64
     7
 65
   257
 75
     1
175
     1
 42
1.0
 92
        0
 66
   257
 43
1.0
 76
     1
 77
     6
 78
     2
 67
     7
 79
     5
170
     0
171
     0
290
     0
174
     0
 93
        1
 44
0.0
173
     0
291
     0
 45
0.0
1001
ACAD
1000
AcDbSavedByObjectVersion
1070
     0
  0
VISUALSTYLE
  5
31
102
{ACAD_REACTORS
330
2A
102
}
330
2A
100
AcDbVisualStyle
  2
3D Hidden
 70
     6
 71
     1
 72
     2
 73
     2
 90
        0
 40
-0.6
 41
-30.0
 62
     5
 63
     7
 74
     2
 91
        2
 64
     7
 65
   257
 75
     2
175
     1
 42
40.0
 92
        0
 66
   257
 43
1.0
 76
     1
 77
     6
 78
     2
 67
     7
 79
     3
170
     0
171
     0
290
     0
174
     0
 93
        1
 44
0.0
173
     0
291
     0
 45
0.0
1001
ACAD
1000
AcDbSavedByObjectVersion
1070
     0
  0
VISUALSTYLE
  5
30
102
{ACAD_REACTORS
330
2A
102
}
330
2A
100
AcDbVisualStyle
  2
3dWireframe
 70
     5
 71
     0
 72
     2
 73
     0
 90
        0
 40
-0.6
 41
-30.0
 62
     5
 63
     7
 74
     1
 91
        4
 64
     7
 65
   257
 75
     1
175
     1
 42
1.0
 92
        0
 66
   257
 43
1.0
 76
     1
 77
     6
 78
     2
 67
     7
 79
     5
170
     0
171
     0
290
     0
174
     0
 93
        1
 44
0.0
173
     0
291
     0
 45
0.0
1001
ACAD
1000
AcDbSavedByObjectVersion
1070
     0
  0
VISUALSTYLE
  5
32
102
{ACAD_REACTORS
330
2A
102
}
330
2A
100
AcDbVisualStyle
  2
Basic
 70
     7
 71
     1
 72
     0
 73
     1
 90
        0
 40
-0.6
 41
-30.0
 62
     5
 63
     7
 74
     0
 91
        4
 64
     7
 65
   257
 75
     1
175
     1
 42
1.0
 92
        8
 66
     7
 43
1.0
 76
     1
 77
     6
 78
     2
 67
     7
 79
     5
170
     0
171
     0
290
     0
174
     0
 93
        1
 44
0.0
173
     0
291
     1
 45
0.0
1001
ACAD
1000
AcDbSavedByObjectVersion
1070
     0
  0
VISUALSTYLE
  5
36
102
{ACAD_REACTORS
330
2A
102
}
330
2A
100
AcDbVisualStyle
  2
Brighten
 70
    12
 71
     2
 72
     2
 73
     0
 90
        0
 40
-0.6
 41
-30.0
 62
     5
 63
     7
 74
     1
 91
        4
 64
     7
 65
   257
 75
     1
175
     1
 42
1.0
 92
        8
 66
     7
 43
1.0
 76
     1
 77
     6
 78
     2
 67
     7
 79
     5
170
     0
171
     0
290
     0
174
     0
 93
        1
 44
50.0
173
     0
291
     1
 45
0.0
1001
ACAD
1000
AcDbSavedByObjectVersion
1070
     0
  0
VISUALSTYLE
  5
3A
102
{ACAD_REACTORS
330
2A
102
}
330
2A
100
AcDbVisualStyle
  2
ColorChange
 70
    16
 71
     2
 72
     2
 73
     3
 90
        0
 40
-0.6
 41
-30.0
 62
     5
 63
     8
 74
     1
 91
        4
 64
     7
 65
   257
 75
     1
175
     1
 42
1.0
 92
        8
 66
     8
 43
1.0
 76
     1
 77
     6
 78
     2
 67
     7
 79
     5
170
     0
171
     0
290
     0
174
     0
 93
        1
 44
0.0
173
     0
291
     1
 45
0.0
1001
ACAD
1000
AcDbSavedByObjectVersion
1070
     0
  0
VISUALSTYLE
  5
34
102
{ACAD_REACTORS
330
2A
102
}
330
2A
100
AcDbVisualStyle
  2
Conceptual
 70
     9
 71
     3
 72
     2
 73
     0
 90
        0
 40
-0.6
 41
-30.0
 62
     5
 63
     7
 74
     2
 91
        2
 64
     7
 65
   257
 75
     1
175
     1
 42
40.0
 92
        8
 66
     7
 43
1.0
 76
     1
 77
     6
 78
     2
 67
     7
 79
     3
170
     0
171
     0
290
     0
174
     0
 93
        1
 44
0.0
173
     0
291
     0
 45
0.0
1001
ACAD
1000
AcDbSavedByObjectVersion
1070
     0
  0
VISUALSTYLE
  5
35
102
{ACAD_REACTORS
330
2A
102
}
330
2A
100
AcDbVisualStyle
  2
Dim
 70
    11
 71
     2
 72
     2
 73
     0
 90
        0
 40
-0.6
 41
-30.0
 62
     5
 63
     7
 74
     1
 91
        4
 64
     7
 65
   257
 75
     1
175
     1
 42
1.0
 92
        8
 66
     7
 43
1.0
 76
     1
 77
     6
 78
     2
 67
     7
 79
     5
170
     0
171
     0
290
     0
174
     0
 93
        1
 44
-50.0
173
     0
291
     1
 45
0.0
1001
ACAD
1000
AcDbSavedByObjectVersion
1070
     0
  0
VISUALSTYLE
  5
39
102
{ACAD_REACTORS
330
2A
102
}
330
2A
100
AcDbVisualStyle
  2
Facepattern
 70
    15
 71
     2
 72
     2
 73
     0
 90
        0
 40
-0.6
 41
-30.0
 62
     5
 63
     7
 74
     1
 91
        4
 64
     7
 65
   257
 75
     1
175
     1
 42
1.0
 92
        8
 66
     7
 43
1.0
 76
     1
 77
     6
 78
     2
 67
     7
 79
     5
170
     0
171
     0
290
     0
174
     0
 93
        1
 44
0.0
173
     0
291
     1
 45
0.0
1001
ACAD
1000
AcDbSavedByObjectVersion
1070
     0
  0
VISUALSTYLE
  5
2B
102
{ACAD_REACTORS
330
2A
102
}
330
2A
100
AcDbVisualStyle
  2
Flat
 70
     0
 71
     2
 72
     1
 73
     1
 90
        2
 40
-0.6
 41
30.0
 62
     5
 63
     7
 74
     0
 91
        4
 64
     7
 65
   257
 75
     1
175
     1
 42
1.0
 92
        8
 66
     7
 43
1.0
 76
     1
 77
     6
 78
     2
 67
     7
 79
     5
170
     0
171
     0
290
     0
174
     0
 93
       13
 44
0.0
173
     0
291
     1
 45
0.0
1001
ACAD
1000
AcDbSavedByObjectVersion
1070
     0
  0
VISUALSTYLE
  5
2C
102
{ACAD_REACTORS
330
2A
102
}
330
2A
100
AcDbVisualStyle
  2
FlatWithEdges
 70
     1
 71
     2
 72
     1
 73
     1
 90
        2
 40
-0.6
 41
30.0
 62
     5
 63
     7
 74
     1
 91
        4
 64
     7
 65
   257
 75
     1
175
     1
 42
1.0
 92
        0
 66
   257
 43
1.0
 76
     1
 77
     6
 78
     2
 67
     7
 79
     5
170
     0
171
     0
290
     0
174
     0
 93
       13
 44
0.0
173
     0
291
     1
 45
0.0
1001
ACAD
1000
AcDbSavedByObjectVersion
1070
     0
  0
VISUALSTYLE
  5
2D
102
{ACAD_REACTORS
330
2A
102
}
330
2A
100
AcDbVisualStyle
  2
Gouraud
 70
     2
 71
     2
 72
     2
 73
     1
 90
        2
 40
-0.6
 41
30.0
 62
     5
 63
     7
 74
     0
 91
        4
 64
     7
 65
   257
 75
     1
175
     1
 42
1.0
 92
        0
 66
     7
 43
1.0
 76
     1
 77
     6
 78
     2
 67
     7
 79
     5
170
     0
171
     0
290
     0
174
     0
 93
       13
 44
0.0
173
     0
291
     1
 45
0.0
1001
ACAD
1000
AcDbSavedByObjectVersion
1070
     0
  0
VISUALSTYLE
  5
2E
102
{ACAD_REACTORS
330
2A
102
}
330
2A
100
AcDbVisualStyle
  2
GouraudWithEdges
 70
     3
 71
     2
 72
     2
 73
     1
 90
        2
 40
-0.6
 41
30.0
 62
     5
 63
     7
 74
     1
 91
        4
 64
     7
 65
   257
 75
     1
175
     1
 42
1.0
 92
        0
 66
   257
 43
1.0
 76
     1
 77
     6
 78
     2
 67
     7
 79
     5
170
     0
171
     0
290
     0
174
     0
 93
       13
 44
0.0
173
     0
291
     1
 45
0.0
1001
ACAD
1000
AcDbSavedByObjectVersion
1070
     0
  0
VISUALSTYLE
  5
38
102
{ACAD_REACTORS
330
2A
102
}
330
2A
100
AcDbVisualStyle
  2
Linepattern
 70
    14
 71
     2
 72
     2
 73
     0
 90
        0
 40
-0.6
 41
-30.0
 62
     5
 63
     7
 74
     1
 91
        4
 64
     7
 65
   257
 75
     7
175
     7
 42
1.0
 92
        8
 66
     7
 43
1.0
 76
     1
 77
     6
 78
     2
 67
     7
 79
     5
170
     0
171
     0
290
     0
174
     0
 93
        1
 44
0.0
173
     0
291
     1
 45
0.0
1001
ACAD
1000
AcDbSavedByObjectVersion
1070
     0
  0
VISUALSTYLE
  5
33
102
{ACAD_REACTORS
330
2A
102
}
330
2A
100
AcDbVisualStyle
  2
Realistic
 70
     8
 71
     2
 72
     2
 73
     0
 90
        0
 40
-0.6
 41
-30.0
 62
     5
 63
     7
 74
     1
 91
        0
 64
     7
 65
   257
 75
     1
175
     1
 42
1.0
 92
        8
 66
     8
 43
1.0
 76
     1
 77
     6
 78
     2
 67
     7
 79
     5
170
     0
171
     0
290
     0
174
     0
 93
       13
 44
0.0
173
     0
291
     0
 45
0.0
1001
ACAD
1000
AcDbSavedByObjectVersion
1070
     0
  0
VISUALSTYLE
  5
37
102
{ACAD_REACTORS
330
2A
102
}
330
2A
100
AcDbVisualStyle
  2
Thicken
 70
    13
 71
     2
 72
     2
 73
     0
 90
        0
 40
-0.6
 41
-30.0
 62
     5
 63
     7
 74
     1
 91
        4
 64
     7
 65
   257
 75
     1
175
     1
 42
1.0
 92
       12
 66
     7
 43
1.0
 76
     1
 77
     6
 78
     2
 67
     7
 79
     5
170
     0
171
     0
290
     0
174
     0
 93
        1
 44
0.0
173
     0
291
     1
 45
0.0
1001
ACAD
1000
AcDbSavedByObjectVersion
1070
     0
  0
DICTIONARYVAR
  5
209
102
{ACAD_REACTORS
330
207
102
}
330
207
100
DictionaryVariables
280
     0
  1
80.000000
  0
DICTIONARYVAR
  5
208
102
{ACAD_REACTORS
330
207
102
}
330
207
100
DictionaryVariables
280
     0
  1
5.000000
  0
ENDSEC
  0
EOF
