  0
SECTION
  2
HEADER
  9
$ACADVER
  1
AC1015
  9
$ACADMAINTVER
 70
     6
  9
$DWGCODEPAGE
  3
ANSI_1252
  9
$INSBASE
 10
0.0
 20
0.0
 30
0.0
  9
$EXTMIN
 10
0.0
 20
0.0
 30
0.0
  9
$EXTMAX
 10
297.0
 20
210.0
 30
0.0
  9
$LIMMIN
 10
0.0
 20
0.0
  9
$LIMMAX
 10
297.0
 20
210.0
  9
$ORTHOMODE
 70
     0
  9
$REGENMODE
 70
     1
  9
$FILLMODE
 70
     1
  9
$QTEXTMODE
 70
     0
  9
$MIRRTEXT
 70
     1
  9
$LTSCALE
 40
1.0
  9
$ATTMODE
 70
     1
  9
$TEXTSIZE
 40
2.0
  9
$TRACEWID
 40
1.0
  9
$TEXTSTYLE
  7
Standard
  9
$CLAYER
  8
0
  9
$CELTYPE
  6
ByLayer
  9
$CECOLOR
 62
   256
  9
$CELTSCALE
 40
1.0
  9
$DISPSILH
 70
     0
  9
$DIMSCALE
 40
1.0
  9
$DIMASZ
 40
3.0
  9
$DIMEXO
 40
0.0
  9
$DIMDLI
 40
3.75
  9
$DIMRND
 40
0.0
  9
$DIMDLE
 40
0.0
  9
$DIMEXE
 40
1.0
  9
$DIMTP
 40
0.0
  9
$DIMTM
 40
0.0
  9
$DIMTXT
 40
2.0
  9
$DIMCEN
 40
2.5
  9
$DIMTSZ
 40
0.0
  9
$DIMTOL
 70
     0
  9
$DIMLIM
 70
     0
  9
$DIMTIH
 70
     1
  9
$DIMTOH
 70
     1
  9
$DIMSE1
 70
     0
  9
$DIMSE2
 70
     0
  9
$DIMTAD
 70
     1
  9
$DIMZIN
 70
     0
  9
$DIMBLK
  1

  9
$DIMASO
 70
     1
  9
$DIMSHO
 70
     1
  9
$DIMPOST
  1

  9
$DIMAPOST
  1

  9
$DIMALT
 70
     0
  9
$DIMALTD
 70
     3
  9
$DIMALTF
 40
0.0393700787
  9
$DIMLFAC
 40
1.0
  9
$DIMTOFL
 70
     1
  9
$DIMTVP
 40
0.0
  9
$DIMTIX
 70
     0
  9
$DIMSOXD
 70
     0
  9
$DIMSAH
 70
     0
  9
$DIMBLK1
  1

  9
$DIMBLK2
  1

  9
$DIMSTYLE
  2
ISO-25
  9
$DIMCLRD
 70
     0
  9
$DIMCLRE
 70
     0
  9
$DIMCLRT
 70
     0
  9
$DIMTFAC
 40
1.0
  9
$DIMGAP
 40
1.524
  9
$DIMJUST
 70
     0
  9
$DIMSD1
 70
     0
  9
$DIMSD2
 70
     0
  9
$DIMTOLJ
 70
     0
  9
$DIMTZIN
 70
     0
  9
$DIMALTZ
 70
     0
  9
$DIMALTTZ
 70
     0
  9
$DIMUPT
 70
     0
  9
$DIMDEC
 70
     2
  9
$DIMTDEC
 70
     3
  9
$DIMALTU
 70
     2
  9
$DIMALTTD
 70
     3
  9
$DIMTXSTY
  7
Standard
  9
$DIMAUNIT
 70
     0
  9
$DIMADEC
 70
     2
  9
$DIMALTRND
 40
0.0
  9
$DIMAZIN
 70
     0
  9
$DIMDSEP
 70
    44
  9
$DIMATFIT
 70
     3
  9
$DIMFRAC
 70
     0
  9
$DIMLDRBLK
  1

  9
$DIMLUNIT
 70
     2
  9
$DIMLWD
 70
    -2
  9
$DIMLWE
 70
    -2
  9
$DIMTMOVE
 70
     0
  9
$LUNITS
 70
     2
  9
$LUPREC
 70
     2
  9
$SKETCHINC
 40
1.0
  9
$FILLETRAD
 40
10.0
  9
$AUNITS
 70
     0
  9
$AUPREC
 70
     2
  9
$MENU
  1
.
  9
$ELEVATION
 40
0.0
  9
$PELEVATION
 40
0.0
  9
$THICKNESS
 40
0.0
  9
$LIMCHECK
 70
     0
  9
$CHAMFERA
 40
10.0
  9
$CHAMFERB
 40
10.0
  9
$CHAMFERC
 40
20.0
  9
$CHAMFERD
 40
0.0
  9
$SKPOLY
 70
     0
  9
$TDCREATE
 40
2455673.474849051
  9
$TDUCREATE
 40
2455673.391515717
  9
$TDUPDATE
 40
2455673.474849063
  9
$TDUUPDATE
 40
2455673.391515729
  9
$TDINDWG
 40
0.0000000116
  9
$TDUSRTIMER
 40
0.0000000116
  9
$USRTIMER
 70
     1
  9
$ANGBASE
 50
0.0
  9
$ANGDIR
 70
     0
  9
$PDMODE
 70
     0
  9
$PDSIZE
 40
-1.0
  9
$PLINEWID
 40
0.0
  9
$SPLFRAME
 70
     0
  9
$SPLINETYPE
 70
     6
  9
$SPLINESEGS
 70
     8
  9
$HANDSEED
  5
1FD
  9
$SURFTAB1
 70
     6
  9
$SURFTAB2
 70
     6
  9
$SURFTYPE
 70
     6
  9
$SURFU
 70
     6
  9
$SURFV
 70
     6
  9
$UCSBASE
  2

  9
$UCSNAME
  2

  9
$UCSORG
 10
0.0
 20
0.0
 30
0.0
  9
$UCSXDIR
 10
1.0
 20
0.0
 30
0.0
  9
$UCSYDIR
 10
0.0
 20
1.0
 30
0.0
  9
$UCSORTHOREF
  2

  9
$UCSORTHOVIEW
 70
     0
  9
$UCSORGTOP
 10
0.0
 20
0.0
 30
0.0
  9
$UCSORGBOTTOM
 10
0.0
 20
0.0
 30
0.0
  9
$UCSORGLEFT
 10
0.0
 20
0.0
 30
0.0
  9
$UCSORGRIGHT
 10
0.0
 20
0.0
 30
0.0
  9
$UCSORGFRONT
 10
0.0
 20
0.0
 30
0.0
  9
$UCSORGBACK
 10
0.0
 20
0.0
 30
0.0
  9
$PUCSBASE
  2

  9
$PUCSNAME
  2

  9
$PUCSORG
 10
0.0
 20
0.0
 30
0.0
  9
$PUCSXDIR
 10
1.0
 20
0.0
 30
0.0
  9
$PUCSYDIR
 10
0.0
 20
1.0
 30
0.0
  9
$PUCSORTHOREF
  2

  9
$PUCSORTHOVIEW
 70
     0
  9
$PUCSORGTOP
 10
0.0
 20
0.0
 30
0.0
  9
$PUCSORGBOTTOM
 10
0.0
 20
0.0
 30
0.0
  9
$PUCSORGLEFT
 10
0.0
 20
0.0
 30
0.0
  9
$PUCSORGRIGHT
 10
0.0
 20
0.0
 30
0.0
  9
$PUCSORGFRONT
 10
0.0
 20
0.0
 30
0.0
  9
$PUCSORGBACK
 10
0.0
 20
0.0
 30
0.0
  9
$USERI1
 70
     0
  9
$USERI2
 70
     0
  9
$USERI3
 70
     0
  9
$USERI4
 70
     0
  9
$USERI5
 70
     0
  9
$USERR1
 40
0.0
  9
$USERR2
 40
0.0
  9
$USERR3
 40
0.0
  9
$USERR4
 40
0.0
  9
$USERR5
 40
0.0
  9
$WORLDVIEW
 70
     1
  9
$SHADEDGE
 70
     3
  9
$SHADEDIF
 70
    70
  9
$TILEMODE
 70
     1
  9
$MAXACTVP
 70
    64
  9
$PINSBASE
 10
0.0
 20
0.0
 30
0.0
  9
$PLIMCHECK
 70
     0
  9
$PEXTMIN
 10
1.0000000000E+20
 20
1.0000000000E+20
 30
1.0000000000E+20
  9
$PEXTMAX
 10
-1.0000000000E+20
 20
-1.0000000000E+20
 30
-1.0000000000E+20
  9
$PLIMMIN
 10
0.0
 20
0.0
  9
$PLIMMAX
 10
420.0
 20
297.0
  9
$UNITMODE
 70
     0
  9
$VISRETAIN
 70
     1
  9
$PLINEGEN
 70
     0
  9
$PSLTSCALE
 70
     1
  9
$TREEDEPTH
 70
  3020
  9
$CMLSTYLE
  2
Standard
  9
$CMLJUST
 70
     0
  9
$CMLSCALE
 40
20.0
  9
$PROXYGRAPHICS
 70
     1
  9
$MEASUREMENT
 70
     1
  9
$CELWEIGHT
370
    -1
  9
$ENDCAPS
280
     0
  9
$JOINSTYLE
280
     0
  9
$LWDISPLAY
290
     1
  9
$INSUNITS
 70
     4
  9
$HYPERLINKBASE
  1

  9
$STYLESHEET
  1

  9
$XEDIT
290
     1
  9
$CEPSNTYPE
380
     0
  9
$PSTYLEMODE
290
     1
  9
$FINGERPRINTGUID
  2
{44825034-6C12-41C8-8A7D-579D81DCC2D0}
  9
$VERSIONGUID
  2
{FAEB1C32-E019-11D5-929B-00C0DF256EC4}
  9
$EXTNAMES
290
     1
  9
$PSVPSCALE
 40
0.0
  9
$OLESTARTUP
290
     0
  0
ENDSEC
  0
SECTION
  2
CLASSES
  0
CLASS
  1
ACDBDICTIONARYWDFLT
  2
AcDbDictionaryWithDefault
  3
ObjectDBX Classes
 90
        0
280
     0
281
     0
  0
CLASS
  1
VISUALSTYLE
  2
AcDbVisualStyle
  3
ObjectDBX Classes
 90
     4095
280
     0
281
     0
  0
CLASS
  1
DICTIONARYVAR
  2
AcDbDictionaryVar
  3
ObjectDBX Classes
 90
        0
280
     0
281
     0
  0
CLASS
  1
ACDBPLACEHOLDER
  2
AcDbPlaceHolder
  3
ObjectDBX Classes
 90
        0
280
     0
281
     0
  0
CLASS
  1
LAYOUT
  2
AcDbLayout
  3
ObjectDBX Classes
 90
        0
280
     0
281
     0
  0
ENDSEC
  0
SECTION
  2
TABLES
  0
TABLE
  2
VPORT
  5
8
330
0
100
AcDbSymbolTable
 70
     1
  0
VPORT
  5
29
330
8
100
AcDbSymbolTableRecord
100
AcDbViewportTableRecord
  2
*Active
 70
     0
 10
0.0
 20
0.0
 11
1.0
 21
1.0
 12
148.5
 22
105.0
 13
0.0
 23
0.0
 14
10.0
 24
10.0
 15
10.0
 25
10.0
 16
0.0
 26
0.0
 36
1.0
 17
0.0
 27
0.0
 37
0.0
 40
210.0
 41
1.4142857143
 42
50.0
 43
0.0
 44
0.0
 50
0.0
 51
0.0
 71
     0
 72
  2000
 73
     1
 74
     3
 75
     0
 76
     0
 77
     0
 78
     0
281
     0
 65
     1
110
0.0
120
0.0
130
0.0
111
1.0
121
0.0
131
0.0
112
0.0
122
1.0
132
0.0
 79
     0
146
0.0
  0
ENDTAB
  0
TABLE
  2
LTYPE
  5
5
330
0
100
AcDbSymbolTable
 70
     6
  0
LTYPE
  5
14
330
5
100
AcDbSymbolTableRecord
100
AcDbLinetypeTableRecord
  2
ByBlock
 70
     0
  3

 72
    65
 73
     0
 40
0.0
  0
LTYPE
  5
15
330
5
100
AcDbSymbolTableRecord
100
AcDbLinetypeTableRecord
  2
ByLayer
 70
     0
  3

 72
    65
 73
     0
 40
0.0
  0
LTYPE
  5
16
330
5
100
AcDbSymbolTableRecord
100
AcDbLinetypeTableRecord
  2
Continuous
 70
     0
  3
Solid line
 72
    65
 73
     0
 40
0.0
  0
LTYPE
  5
3B
330
5
100
AcDbSymbolTableRecord
100
AcDbLinetypeTableRecord
  2
HIDDEN
 70
     0
  3
Hidden __ __ __ __ __ __ __ __ __ __ __ __ __ __
 72
    65
 73
     2
 40
1.905
 49
1.27
 74
     0
 49
-0.635
 74
     0
  0
LTYPE
  5
3C
330
5
100
AcDbSymbolTableRecord
100
AcDbLinetypeTableRecord
  2
PHANTOM
 70
     0
  3
Phantom ______  __  __  ______  __  __  ______
 72
    65
 73
     6
 40
12.7
 49
6.35
 74
     0
 49
-1.27
 74
     0
 49
1.27
 74
     0
 49
-1.27
 74
     0
 49
1.27
 74
     0
 49
-1.27
 74
     0
  0
LTYPE
  5
3D
330
5
100
AcDbSymbolTableRecord
100
AcDbLinetypeTableRecord
  2
CENTER
 70
     0
  3
Center ____ _ ____ _ ____ _ ____ _ ____ _ ____
 72
    65
 73
     4
 40
10.16
 49
6.35
 74
     0
 49
-1.27
 74
     0
 49
1.27
 74
     0
 49
-1.27
 74
     0
  0
LTYPE
  5
3E
330
5
100
AcDbSymbolTableRecord
100
AcDbLinetypeTableRecord
  2
CENTERX2
 70
     0
  3
Center (2x) ________  __  ________  __  _____
 72
    65
 73
     4
 40
20.32
 49
12.7
 74
     0
 49
-2.54
 74
     0
 49
2.54
 74
     0
 49
-2.54
 74
     0
  0
LTYPE
  5
3F
330
5
100
AcDbSymbolTableRecord
100
AcDbLinetypeTableRecord
  2
DOT2
 70
     0
  3
Dot (.5x) ........................................
 72
    65
 73
     2
 40
0.635
 49
0.0
 74
     0
 49
-0.635
 74
     0
  0
ENDTAB
  0
TABLE
  2
LAYER
  5
2
330
0
100
AcDbSymbolTable
 70
     5
  0
LAYER
  5
10
330
2
100
AcDbSymbolTableRecord
100
AcDbLayerTableRecord
  2
0
 70
     0
 62
     7
  6
Continuous
370
    -3
390
F
  0
LAYER
  5
40
330
2
100
AcDbSymbolTableRecord
100
AcDbLayerTableRecord
  2
FORMAT
 70
     0
 62
     7
  6
Continuous
370
    -3
390
F
  0
LAYER
  5
41
330
2
100
AcDbSymbolTableRecord
100
AcDbLayerTableRecord
  2
VERMASSUNG
 70
     0
 62
     7
  6
Continuous
370
    -3
390
F
  0
LAYER
  5
42
330
2
100
AcDbSymbolTableRecord
100
AcDbLayerTableRecord
  2
KOPF_DÜNN
 70
     0
 62
     7
  6
Continuous
370
    -3
390
F
  0
LAYER
  5
43
330
2
100
AcDbSymbolTableRecord
100
AcDbLayerTableRecord
  2
KOPF_DICK
 70
     0
 62
     7
  6
Continuous
370
    15
390
F
  0
ENDTAB
  0
TABLE
  2
STYLE
  5
3
330
0
100
AcDbSymbolTable
 70
     3
  0
STYLE
  5
11
330
3
100
AcDbSymbolTableRecord
100
AcDbTextStyleTableRecord
  2
Standard
 70
     0
 40
0.0
 41
1.0
 50
0.0
 71
     0
 42
2.5
  3
txt
  4

  0
STYLE
  5
44
330
3
100
AcDbSymbolTableRecord
100
AcDbTextStyleTableRecord
  2
SLDTEXTSTYLE0
 70
     0
 40
0.0
 41
0.7
 50
0.0
 71
     0
 42
0.2
  3
TXT
  4

  0
STYLE
  5
48
330
3
100
AcDbSymbolTableRecord
100
AcDbTextStyleTableRecord
  2
SLDTEXTSTYLE1
 70
     0
 40
0.0
 41
0.65
 50
0.0
 71
     0
 42
0.2
  3
TXT
  4

  0
ENDTAB
  0
TABLE
  2
VIEW
  5
6
330
0
100
AcDbSymbolTable
 70
     0
  0
ENDTAB
  0
TABLE
  2
UCS
  5
7
330
0
100
AcDbSymbolTable
 70
     0
  0
ENDTAB
  0
TABLE
  2
APPID
  5
9
330
0
100
AcDbSymbolTable
 70
     1
  0
APPID
  5
12
330
9
100
AcDbSymbolTableRecord
100
AcDbRegAppTableRecord
  2
ACAD
 70
     0
  0
ENDTAB
  0
TABLE
  2
DIMSTYLE
  5
A
330
0
100
AcDbSymbolTable
 70
     2
100
AcDbDimStyleTable
  0
DIMSTYLE
105
27
330
A
100
AcDbSymbolTableRecord
100
AcDbDimStyleTableRecord
  2
ISO-25
 70
     0
 41
2.5
 42
0.625
 43
3.75
 44
1.25
 73
     0
 74
     0
 77
     1
 78
     8
140
2.5
141
2.5
143
0.0393700787
147
0.625
171
     3
172
     1
271
     2
272
     2
274
     3
278
    44
283
     0
284
     8
340
11
  0
DIMSTYLE
105
1B6
102
{ACAD_REACTORS
330
1B5
330
1C2
330
1CC
330
1D6
330
1E0
330
1EB
102
}
330
A
100
AcDbSymbolTableRecord
100
AcDbDimStyleTableRecord
  2
SLDDIMSTYLE0
 70
     0
 41
3.0
 44
0.0
 45
0.000000001
 73
     0
 74
     0
 77
     1
 78
    12
140
2.0
147
0.5
173
     1
271
     2
272
     3
284
    12
340
44
  0
ENDTAB
  0
TABLE
  2
BLOCK_RECORD
  5
1
330
0
100
AcDbSymbolTable
 70
     7
  0
BLOCK_RECORD
  5
1F
330
1
100
AcDbSymbolTableRecord
100
AcDbBlockTableRecord
  2
*Model_Space
340
22
  0
BLOCK_RECORD
  5
1B
330
1
100
AcDbSymbolTableRecord
100
AcDbBlockTableRecord
  2
*Paper_Space
340
1E
  0
BLOCK_RECORD
  5
23
330
1
100
AcDbSymbolTableRecord
100
AcDbBlockTableRecord
  2
*Paper_Space0
340
26
  0
BLOCK_RECORD
  5
1B7
330
1
100
AcDbSymbolTableRecord
100
AcDbBlockTableRecord
  2
*D1
340
0
  0
BLOCK_RECORD
  5
1C3
330
1
100
AcDbSymbolTableRecord
100
AcDbBlockTableRecord
  2
*D2
340
0
  0
BLOCK_RECORD
  5
1CD
330
1
100
AcDbSymbolTableRecord
100
AcDbBlockTableRecord
  2
*D3
340
0
  0
BLOCK_RECORD
  5
1D7
330
1
100
AcDbSymbolTableRecord
100
AcDbBlockTableRecord
  2
*D4
340
0
  0
BLOCK_RECORD
  5
1E1
330
1
100
AcDbSymbolTableRecord
100
AcDbBlockTableRecord
  2
*D5
340
0
  0
BLOCK_RECORD
  5
1EC
330
1
100
AcDbSymbolTableRecord
100
AcDbBlockTableRecord
  2
*D6
340
0
  0
ENDTAB
  0
ENDSEC
  0
SECTION
  2
BLOCKS
  0
BLOCK
  5
20
330
1F
100
AcDbEntity
  8
0
100
AcDbBlockBegin
  2
*Model_Space
 70
     0
 10
0.0
 20
0.0
 30
0.0
  3
*Model_Space
  1

  0
ENDBLK
  5
21
330
1F
100
AcDbEntity
  8
0
100
AcDbBlockEnd
  0
BLOCK
  5
1C
330
1B
100
AcDbEntity
 67
     1
  8
0
100
AcDbBlockBegin
  2
*Paper_Space
 70
     0
 10
0.0
 20
0.0
 30
0.0
  3
*Paper_Space
  1

  0
ENDBLK
  5
1D
330
1B
100
AcDbEntity
 67
     1
  8
0
100
AcDbBlockEnd
  0
BLOCK
  5
24
330
23
100
AcDbEntity
  8
0
100
AcDbBlockBegin
  2
*Paper_Space0
 70
     0
 10
0.0
 20
0.0
 30
0.0
  3
*Paper_Space0
  1

  0
ENDBLK
  5
25
330
23
100
AcDbEntity
  8
0
100
AcDbBlockEnd
  0
BLOCK
  5
1B8
330
1B7
100
AcDbEntity
  8
0
100
AcDbBlockBegin
  2
*D1
 70
     1
 10
0.0
 20
0.0
 30
0.0
  3
*D1
  1

  0
SOLID
  5
1BA
330
1B7
100
AcDbEntity
  8
VERMASSUNG
100
AcDbTrace
 10
39.053727545
 20
161.9045646226
 30
0.0
 11
38.603727545
 21
158.9045646226
 31
0.0
 12
39.503727545
 22
158.9045646226
 32
0.0
 13
39.503727545
 23
158.9045646226
 33
0.0
  0
SOLID
  5
1BB
330
1B7
100
AcDbEntity
  8
VERMASSUNG
100
AcDbTrace
 10
39.053727545
 20
61.9045646226
 30
0.0
 11
39.503727545
 21
64.9045646226
 31
0.0
 12
38.603727545
 22
64.9045646226
 32
0.0
 13
38.603727545
 23
64.9045646226
 33
0.0
  0
LINE
  5
1BC
330
1B7
100
AcDbEntity
  8
VERMASSUNG
100
AcDbLine
 10
95.1439126164
 20
161.9045646226
 30
0.0
 11
38.053727545
 21
161.9045646226
 31
0.0
  0
LINE
  5
1BD
330
1B7
100
AcDbEntity
  8
VERMASSUNG
100
AcDbLine
 10
95.1439126164
 20
61.9045646226
 30
0.0
 11
38.053727545
 21
61.9045646226
 31
0.0
  0
LINE
  5
1BE
330
1B7
100
AcDbEntity
  8
VERMASSUNG
100
AcDbLine
 10
39.053727545
 20
161.9045646226
 30
0.0
 11
39.053727545
 21
61.9045646226
 31
0.0
  0
MTEXT
  5
1BF
330
1B7
100
AcDbEntity
  8
VERMASSUNG
100
AcDbMText
 10
36.275592056
 20
103.700913485
 30
0.0
 40
2.0
 41
0.0
 71
     1
 72
     1
  1
HSK A 
  7
SLDTEXTSTYLE0
 11
-7.044195017643634E-15
 21
1.0
 31
0.0
 73
     1
 44
1.0
  0
MTEXT
  5
1C0
330
1B7
100
AcDbEntity
  8
VERMASSUNG
100
AcDbMText
 10
36.4755920655
 20
112.7009140289
 30
0.0
 40
2.0
 41
0.0
 71
     1
 72
     1
  1
%%c
  7
SLDTEXTSTYLE0
 11
-7.044195017643634E-15
 21
1.0
 31
0.0
 73
     1
 44
1.0
  0
MTEXT
  5
1C1
330
1B7
100
AcDbEntity
  8
VERMASSUNG
100
AcDbMText
 10
36.4755921819
 20
116.309240679
 30
0.0
 40
2.0
 41
0.0
 71
     1
 72
     1
  1
100
  7
SLDTEXTSTYLE0
 11
-7.044195017643634E-15
 21
1.0
 31
0.0
 73
     1
 44
1.0
  0
ENDBLK
  5
1B9
330
1B7
100
AcDbEntity
  8
0
100
AcDbBlockEnd
  0
BLOCK
  5
1C4
330
1C3
100
AcDbEntity
  8
0
100
AcDbBlockBegin
  2
*D2
 70
     1
 10
0.0
 20
0.0
 30
0.0
  3
*D2
  1

  0
SOLID
  5
1C6
330
1C3
100
AcDbEntity
  8
VERMASSUNG
100
AcDbTrace
 10
123.5939126164
 20
165.9182015168
 30
0.0
 11
126.5939126164
 21
165.4682015168
 31
0.0
 12
126.5939126164
 22
166.3682015168
 32
0.0
 13
126.5939126164
 23
166.3682015168
 33
0.0
  0
SOLID
  5
1C7
330
1C3
100
AcDbEntity
  8
VERMASSUNG
100
AcDbTrace
 10
254.6439126164
 20
165.9182015168
 30
0.0
 11
251.6439126164
 21
166.3682015168
 31
0.0
 12
251.6439126164
 22
165.4682015168
 32
0.0
 13
251.6439126164
 23
165.4682015168
 33
0.0
  0
LINE
  5
1C8
330
1C3
100
AcDbEntity
  8
VERMASSUNG
100
AcDbLine
 10
123.5939126164
 20
159.8733044435
 30
0.0
 11
123.5939126164
 21
166.9182015168
 31
0.0
  0
LINE
  5
1C9
330
1C3
100
AcDbEntity
  8
VERMASSUNG
100
AcDbLine
 10
254.6439126164
 20
123.130424101
 30
0.0
 11
254.6439126164
 21
166.9182015168
 31
0.0
  0
LINE
  5
1CA
330
1C3
100
AcDbEntity
  8
VERMASSUNG
100
AcDbLine
 10
123.5939126164
 20
165.9182015168
 30
0.0
 11
254.6439126164
 21
165.9182015168
 31
0.0
  0
MTEXT
  5
1CB
330
1C3
100
AcDbEntity
  8
VERMASSUNG
100
AcDbMText
 10
185.7190967984
 20
168.4963368799
 30
0.0
 40
2.0
 41
0.0
 71
     1
 72
     1
  1
131.05
  7
SLDTEXTSTYLE0
 73
     1
 44
1.0
  0
ENDBLK
  5
1C5
330
1C3
100
AcDbEntity
  8
0
100
AcDbBlockEnd
  0
BLOCK
  5
1CE
330
1CD
100
AcDbEntity
  8
0
100
AcDbBlockBegin
  2
*D3
 70
     1
 10
0.0
 20
0.0
 30
0.0
  3
*D3
  1

  0
SOLID
  5
1D0
330
1CD
100
AcDbEntity
  8
VERMASSUNG
100
AcDbTrace
 10
94.6439126164
 20
171.9182015168
 30
0.0
 11
97.6439126164
 21
171.4682015168
 31
0.0
 12
97.6439126164
 22
172.3682015168
 32
0.0
 13
97.6439126164
 23
172.3682015168
 33
0.0
  0
SOLID
  5
1D1
330
1CD
100
AcDbEntity
  8
VERMASSUNG
100
AcDbTrace
 10
254.6439126164
 20
171.9182015168
 30
0.0
 11
251.6439126164
 21
172.3682015168
 31
0.0
 12
251.6439126164
 22
171.4682015168
 32
0.0
 13
251.6439126164
 23
171.4682015168
 33
0.0
  0
LINE
  5
1D2
330
1CD
100
AcDbEntity
  8
VERMASSUNG
100
AcDbLine
 10
94.6439126164
 20
161.4045646226
 30
0.0
 11
94.6439126164
 21
172.9182015168
 31
0.0
  0
LINE
  5
1D3
330
1CD
100
AcDbEntity
  8
VERMASSUNG
100
AcDbLine
 10
254.6439126164
 20
123.130424101
 30
0.0
 11
254.6439126164
 21
172.9182015168
 31
0.0
  0
LINE
  5
1D4
330
1CD
100
AcDbEntity
  8
VERMASSUNG
100
AcDbLine
 10
94.6439126164
 20
171.9182015168
 30
0.0
 11
254.6439126164
 21
171.9182015168
 31
0.0
  0
MTEXT
  5
1D5
330
1CD
100
AcDbEntity
  8
VERMASSUNG
100
AcDbMText
 10
172.7444250758
 20
174.4963368799
 30
0.0
 40
2.0
 41
0.0
 71
     1
 72
     1
  1
160
  7
SLDTEXTSTYLE0
 73
     1
 44
1.0
  0
ENDBLK
  5
1CF
330
1CD
100
AcDbEntity
  8
0
100
AcDbBlockEnd
  0
BLOCK
  5
1D8
330
1D7
100
AcDbEntity
  8
0
100
AcDbBlockBegin
  2
*D4
 70
     1
 10
0.0
 20
0.0
 30
0.0
  3
*D4
  1

  0
SOLID
  5
1DA
330
1D7
100
AcDbEntity
  8
VERMASSUNG
100
AcDbTrace
 10
44.7439126164
 20
177.9182015168
 30
0.0
 11
47.7439126164
 21
177.4682015168
 31
0.0
 12
47.7439126164
 22
178.3682015168
 32
0.0
 13
47.7439126164
 23
178.3682015168
 33
0.0
  0
SOLID
  5
1DB
330
1D7
100
AcDbEntity
  8
VERMASSUNG
100
AcDbTrace
 10
254.6439126164
 20
177.9182015168
 30
0.0
 11
251.6439126164
 21
178.3682015168
 31
0.0
 12
251.6439126164
 22
177.4682015168
 32
0.0
 13
251.6439126164
 23
177.4682015168
 33
0.0
  0
LINE
  5
1DC
330
1D7
100
AcDbEntity
  8
VERMASSUNG
100
AcDbLine
 10
44.7439126164
 20
142.4072343652
 30
0.0
 11
44.7439126164
 21
178.9182015168
 31
0.0
  0
LINE
  5
1DD
330
1D7
100
AcDbEntity
  8
VERMASSUNG
100
AcDbLine
 10
254.6439126164
 20
123.130424101
 30
0.0
 11
254.6439126164
 21
178.9182015168
 31
0.0
  0
LINE
  5
1DE
330
1D7
100
AcDbEntity
  8
VERMASSUNG
100
AcDbLine
 10
44.7439126164
 20
177.9182015168
 30
0.0
 11
254.6439126164
 21
177.9182015168
 31
0.0
  0
MTEXT
  5
1DF
330
1D7
100
AcDbEntity
  8
VERMASSUNG
100
AcDbMText
 10
146.5946265925
 20
180.4963368799
 30
0.0
 40
2.0
 41
0.0
 71
     1
 72
     1
  1
209.9
  7
SLDTEXTSTYLE0
 73
     1
 44
1.0
  0
ENDBLK
  5
1D9
330
1D7
100
AcDbEntity
  8
0
100
AcDbBlockEnd
  0
BLOCK
  5
1E2
330
1E1
100
AcDbEntity
  8
0
100
AcDbBlockBegin
  2
*D5
 70
     1
 10
0.0
 20
0.0
 30
0.0
  3
*D5
  1

  0
SOLID
  5
1E4
330
1E1
100
AcDbEntity
  8
VERMASSUNG
100
AcDbTrace
 10
262.8858383266
 20
116.9045646226
 30
0.0
 11
262.4358383266
 21
113.9045646226
 31
0.0
 12
263.3358383266
 22
113.9045646226
 32
0.0
 13
263.3358383266
 23
113.9045646226
 33
0.0
  0
SOLID
  5
1E5
330
1E1
100
AcDbEntity
  8
VERMASSUNG
100
AcDbTrace
 10
262.8858383266
 20
106.9045646226
 30
0.0
 11
263.3358383266
 21
109.9045646226
 31
0.0
 12
262.4358383266
 22
109.9045646226
 32
0.0
 13
262.4358383266
 23
109.9045646226
 33
0.0
  0
LINE
  5
1E6
330
1E1
100
AcDbEntity
  8
VERMASSUNG
100
AcDbLine
 10
254.3439126164
 20
116.9045646226
 30
0.0
 11
263.8858383266
 21
116.9045646226
 31
0.0
  0
LINE
  5
1E7
330
1E1
100
AcDbEntity
  8
VERMASSUNG
100
AcDbLine
 10
254.3439126164
 20
106.9045646226
 30
0.0
 11
263.8858383266
 21
106.9045646226
 31
0.0
  0
LINE
  5
1E8
330
1E1
100
AcDbEntity
  8
VERMASSUNG
100
AcDbLine
 10
262.8858383266
 20
116.9045646226
 30
0.0
 11
262.8858383266
 21
106.9045646226
 31
0.0
  0
MTEXT
  5
1E9
330
1E1
100
AcDbEntity
  8
VERMASSUNG
100
AcDbMText
 10
260.3077028471
 20
108.9004270278
 30
0.0
 40
2.0
 41
0.0
 71
     1
 72
     1
  1
%%c
  7
SLDTEXTSTYLE0
 11
-7.044195017643634E-15
 21
1.0
 31
0.0
 73
     1
 44
1.0
  0
MTEXT
  5
1EA
330
1E1
100
AcDbEntity
  8
VERMASSUNG
100
AcDbMText
 10
260.3077029635
 20
112.509105251
 30
0.0
 40
2.0
 41
0.0
 71
     1
 72
     1
  1
10
  7
SLDTEXTSTYLE0
 11
-7.044195017643634E-15
 21
1.0
 31
0.0
 73
     1
 44
1.0
  0
ENDBLK
  5
1E3
330
1E1
100
AcDbEntity
  8
0
100
AcDbBlockEnd
  0
BLOCK
  5
1ED
330
1EC
100
AcDbEntity
  8
0
100
AcDbBlockBegin
  2
*D6
 70
     1
 10
0.0
 20
0.0
 30
0.0
  3
*D6
  1

  0
SOLID
  5
1EF
330
1EC
100
AcDbEntity
  8
VERMASSUNG
100
AcDbTrace
 10
268.8858383266
 20
129.4045646226
 30
0.0
 11
268.4358383266
 21
126.4045646226
 31
0.0
 12
269.3358383266
 22
126.4045646226
 32
0.0
 13
269.3358383266
 23
126.4045646226
 33
0.0
  0
SOLID
  5
1F0
330
1EC
100
AcDbEntity
  8
VERMASSUNG
100
AcDbTrace
 10
268.8858383266
 20
94.4045646226
 30
0.0
 11
269.3358383266
 21
97.4045646226
 31
0.0
 12
268.4358383266
 22
97.4045646226
 32
0.0
 13
268.4358383266
 23
97.4045646226
 33
0.0
  0
LINE
  5
1F1
330
1EC
100
AcDbEntity
  8
VERMASSUNG
100
AcDbLine
 10
243.9213780138
 20
129.4045646226
 30
0.0
 11
269.8858383266
 21
129.4045646226
 31
0.0
  0
LINE
  5
1F2
330
1EC
100
AcDbEntity
  8
VERMASSUNG
100
AcDbLine
 10
243.9213780138
 20
94.4045646226
 30
0.0
 11
269.8858383266
 21
94.4045646226
 31
0.0
  0
LINE
  5
1F3
330
1EC
100
AcDbEntity
  8
VERMASSUNG
100
AcDbLine
 10
268.8858383266
 20
129.4045646226
 30
0.0
 11
268.8858383266
 21
94.4045646226
 31
0.0
  0
MTEXT
  5
1F4
330
1EC
100
AcDbEntity
  8
VERMASSUNG
100
AcDbMText
 10
266.3077028471
 20
108.7008473962
 30
0.0
 40
2.0
 41
0.0
 71
     1
 72
     1
  1
%%c
  7
SLDTEXTSTYLE0
 11
-7.044195017643634E-15
 21
1.0
 31
0.0
 73
     1
 44
1.0
  0
MTEXT
  5
1F5
330
1EC
100
AcDbEntity
  8
VERMASSUNG
100
AcDbMText
 10
266.3077029635
 20
112.3095256194
 30
0.0
 40
2.0
 41
0.0
 71
     1
 72
     1
  1
35
  7
SLDTEXTSTYLE0
 11
-7.044195017643634E-15
 21
1.0
 31
0.0
 73
     1
 44
1.0
  0
ENDBLK
  5
1EE
330
1EC
100
AcDbEntity
  8
0
100
AcDbBlockEnd
  0
ENDSEC
  0
SECTION
  2
ENTITIES
  0
MTEXT
  5
45
330
1F
100
AcDbEntity
  8
KOPF_DÜNN
100
AcDbMText
 10
13.8892156294
 20
23.8442973028
 30
0.0
 40
3.0
 41
0.0
 71
     1
 72
     1
  1
HA0.W10.K21.160
  7
SLDTEXTSTYLE0
 73
     1
 44
1.0
  0
MTEXT
  5
46
330
1F
100
AcDbEntity
  8
VERMASSUNG
100
AcDbMText
 10
13.9329988022
 20
28.8834360957
 30
0.0
 40
3.0
 41
0.0
 71
     1
 72
     1
  1
Flächenspannfutter_End mill adapter Weldon ø10
  7
SLDTEXTSTYLE0
 73
     1
 44
1.0
  0
MTEXT
  5
47
330
1F
100
AcDbEntity
  8
VERMASSUNG
100
AcDbMText
 10
98.8601118557
 20
13.8365368179
 30
0.0
 40
2.0
 41
0.0
 71
     1
 72
     1
  1
Datum: 09.10.2006
  7
SLDTEXTSTYLE0
 73
     1
 44
1.0
  0
MTEXT
  5
49
330
1F
100
AcDbEntity
  8
VERMASSUNG
100
AcDbMText
 10
13.933048693
 20
18.0482802738
 30
0.0
 40
2.0
 41
0.0
 71
     1
 72
     1
  1
DIN 69 893 HSK A 100
  7
SLDTEXTSTYLE1
 73
     1
 44
1.0
  0
MTEXT
  5
4A
330
1F
100
AcDbEntity
  8
VERMASSUNG
100
AcDbMText
 10
13.9808475933
 20
13.9090973692
 30
0.0
 40
2.0
 41
0.0
 71
     1
 72
     1
  1
Gewicht: 2929g
  7
SLDTEXTSTYLE0
 73
     1
 44
1.0
  0
LINE
  5
4B
330
1F
100
AcDbEntity
  8
0
  6
Continuous
 62
     7
370
    15
100
AcDbLine
 10
254.6499238284
 20
119.4869170058
 30
0.0
 11
254.6439126164
 21
119.4980482897
 31
0.0
  0
LINE
  5
4C
330
1F
100
AcDbEntity
  8
0
  6
Continuous
 62
     7
370
    15
100
AcDbLine
 10
254.6439126164
 20
104.2036677855
 30
0.0
 11
254.708813552
 21
104.3238483315
 31
0.0
  0
ARC
  5
4D
330
1F
100
AcDbEntity
  8
0
  6
Continuous
 62
     7
370
    15
100
AcDbCircle
 10
95.1439126164
 20
62.4045646226
 30
0.0
 40
0.5
100
AcDbArc
 50
180.0
 51
270.0
  0
ARC
  5
4E
330
1F
100
AcDbEntity
  8
0
  6
Continuous
 62
     7
370
    15
100
AcDbCircle
 10
95.1439126164
 20
161.4045646226
 30
0.0
 40
0.5
100
AcDbArc
 50
90.0
 51
180.0
  0
LINE
  5
4F
330
1F
100
AcDbEntity
  8
0
  6
Continuous
 62
     7
370
    15
100
AcDbLine
 10
95.1439126164
 20
61.9045646226
 30
0.0
 11
99.5939126164
 21
61.9045646226
 31
0.0
  0
LINE
  5
50
330
1F
100
AcDbEntity
  8
0
  6
Continuous
 62
     7
370
    15
100
AcDbLine
 10
99.6092905879
 20
161.9045646226
 30
0.0
 11
95.1439126164
 21
161.9045646226
 31
0.0
  0
ARC
  5
51
330
1F
100
AcDbEntity
  8
0
  6
Continuous
 62
     7
370
    15
100
AcDbCircle
 10
93.7469756979
 20
73.2760792982
 30
0.0
 40
0.9962338214386793
100
AcDbArc
 50
25.7988228126
 51
90.0
  0
ARC
  5
52
330
1F
100
AcDbEntity
  8
0
  6
Continuous
 62
     7
370
    15
100
AcDbCircle
 10
93.7469756979
 20
150.5330499471
 30
0.0
 40
0.9962338214386793
100
AcDbArc
 50
270.0
 51
334.2011771874
  0
LINE
  5
53
330
1F
100
AcDbEntity
  8
0
  6
Continuous
 62
     7
370
    15
100
AcDbLine
 10
92.1439126164
 20
74.0223131196
 30
0.0
 11
92.9497587708
 21
74.2382389459
 31
0.0
  0
LINE
  5
54
330
1F
100
AcDbEntity
  8
0
  6
Continuous
 62
     7
370
    15
100
AcDbLine
 10
92.9497587708
 20
149.5708902993
 30
0.0
 11
92.1439126164
 21
149.7868161256
 31
0.0
  0
LINE
  5
55
330
1F
100
AcDbEntity
  8
0
  6
Continuous
 62
     7
370
    15
100
AcDbLine
 10
73.1632336977
 20
148.8358803081
 30
0.0
 11
54.8439126164
 21
147.9180786507
 31
0.0
  0
LINE
  5
56
330
1F
100
AcDbEntity
  8
0
  6
Continuous
 62
     7
370
    15
100
AcDbLine
 10
92.1439126164
 20
149.7868161256
 30
0.0
 11
86.0758734619
 21
149.482806148
 31
0.0
  0
LINE
  5
57
330
1F
100
AcDbEntity
  8
0
  6
Continuous
 62
     7
370
    15
100
AcDbLine
 10
86.0759967384
 20
74.3263169211
 30
0.0
 11
92.1439126164
 21
74.0223131196
 31
0.0
  0
LINE
  5
58
330
1F
100
AcDbEntity
  8
0
  6
Continuous
 62
     7
370
    15
100
AcDbLine
 10
59.8439126164
 20
75.6405495926
 30
0.0
 11
73.1638637703
 21
74.9732173704
 31
0.0
  0
ARC
  5
59
330
1F
100
AcDbEntity
  8
0
  6
Continuous
 62
     7
370
    15
100
AcDbCircle
 10
93.2085778159
 20
73.2723131196
 30
0.0
 40
0.9999999999999993
100
AcDbArc
 50
90.0
 51
105.0
  0
ARC
  5
5A
330
1F
100
AcDbEntity
  8
0
  6
Continuous
 62
     7
370
    15
100
AcDbCircle
 10
93.2085778159
 20
150.5368161256
 30
0.0
 40
1.000000000000027
100
AcDbArc
 50
255.0
 51
270.0
  0
LINE
  5
5B
330
1F
100
AcDbEntity
  8
0
  6
Continuous
 62
     7
370
    15
100
AcDbLine
 10
93.2085778159
 20
74.2723131196
 30
0.0
 11
93.7469756979
 21
74.2723131196
 31
0.0
  0
LINE
  5
5C
330
1F
100
AcDbEntity
  8
0
  6
Continuous
 62
     7
370
    15
100
AcDbLine
 10
93.7469756979
 20
149.5368161256
 30
0.0
 11
93.2085778159
 21
149.5368161256
 31
0.0
  0
ARC
  5
5D
330
1F
100
AcDbEntity
  8
0
  6
Continuous
 62
     7
370
    15
100
AcDbCircle
 10
128.5939126164
 20
85.4869449165
 30
0.0
 40
5.000000000000003
100
AcDbArc
 50
106.5116637356
 51
180.0
  0
ARC
  5
5E
330
1F
100
AcDbEntity
  8
0
  6
Continuous
 62
     7
370
    15
100
AcDbCircle
 10
128.5939126164
 20
138.3221843287
 30
0.0
 40
5.000000000000003
100
AcDbArc
 50
180.0
 51
253.4883362644
  0
ARC
  5
5F
330
1F
100
AcDbEntity
  8
0
  6
Continuous
 62
     7
370
    15
100
AcDbCircle
 10
155.5939126164
 20
-5.5954353774
 30
0.0
 40
100.0
100
AcDbArc
 50
90.0
 51
106.5116637356
  0
ARC
  5
60
330
1F
100
AcDbEntity
  8
0
  6
Continuous
 62
     7
370
    15
100
AcDbCircle
 10
155.5939126164
 20
229.4045646226
 30
0.0
 40
100.0
100
AcDbArc
 50
253.4883362644
 51
270.0
  0
LINE
  5
61
330
1F
100
AcDbEntity
  8
0
  6
Continuous
 62
     7
370
    15
100
AcDbLine
 10
46.3939126164
 20
79.6545646226
 30
0.0
 11
57.9439126164
 21
79.6545646226
 31
0.0
  0
LINE
  5
62
330
1F
100
AcDbEntity
  8
0
  6
Continuous
 62
     7
370
    15
100
AcDbLine
 10
167.0908511804
 20
94.4045646226
 30
0.0
 11
243.9213780138
 21
94.4045646226
 31
0.0
  0
LINE
  5
63
330
1F
100
AcDbEntity
  8
0
  6
Continuous
 62
     7
370
    15
100
AcDbLine
 10
155.5939126164
 20
94.4045646226
 30
0.0
 11
160.0952466166
 21
94.4045646226
 31
0.0
  0
LINE
  5
64
330
1F
100
AcDbEntity
  8
0
  6
Continuous
 62
     7
370
    15
100
AcDbLine
 10
160.104426098
 20
129.4045646226
 30
0.0
 11
155.5939126164
 21
129.4045646226
 31
0.0
  0
LINE
  5
65
330
1F
100
AcDbEntity
  8
0
  6
Continuous
 62
     7
370
    15
100
AcDbLine
 10
243.9213780138
 20
129.4045646226
 30
0.0
 11
167.084970614
 21
129.4045646226
 31
0.0
  0
LINE
  5
66
330
1F
100
AcDbEntity
  8
0
  6
Continuous
 62
     7
370
    15
100
AcDbLine
 10
243.9213780138
 20
94.4045646226
 30
0.0
 11
253.4891491399
 21
98.8660895702
 31
0.0
  0
LINE
  5
67
330
1F
100
AcDbEntity
  8
0
  6
Continuous
 62
     7
370
    15
100
AcDbLine
 10
253.4891491399
 20
124.9430396751
 30
0.0
 11
243.9213780138
 21
129.4045646226
 31
0.0
  0
ARC
  5
68
330
1F
100
AcDbEntity
  8
0
  6
Continuous
 62
     7
370
    15
100
AcDbCircle
 10
57.9439126164
 20
77.7545646226
 30
0.0
 40
1.900000000000007
100
AcDbArc
 50
35.6630613694
 51
90.0
  0
ARC
  5
69
330
1F
100
AcDbEntity
  8
0
  6
Continuous
 62
     7
370
    15
100
AcDbCircle
 10
52.9439126164
 20
146.0545646226
 30
0.0
 40
1.900000000000006
100
AcDbArc
 50
270.0
 51
310.9212832533
  0
LINE
  5
6A
330
1F
100
AcDbEntity
  8
0
  6
Continuous
 62
     7
370
    15
100
AcDbLine
 10
46.3939126164
 20
144.1545646226
 30
0.0
 11
44.8006962544
 21
142.5613482607
 31
0.0
  0
LINE
  5
6B
330
1F
100
AcDbEntity
  8
0
  6
Continuous
 62
     7
370
    15
100
AcDbLine
 10
44.8014355168
 20
81.2470417222
 30
0.0
 11
46.3939126164
 21
79.6545646226
 31
0.0
  0
LINE
  5
6C
330
1F
100
AcDbEntity
  8
0
  6
Continuous
 62
     7
370
    15
100
AcDbLine
 10
52.9439126164
 20
144.1545646226
 30
0.0
 11
46.3939126164
 21
144.1545646226
 31
0.0
  0
ARC
  5
6D
330
1F
100
AcDbEntity
  8
0
  6
Continuous
 62
     7
370
    15
100
AcDbCircle
 10
252.6439126164
 20
100.6787051442
 30
0.0
 40
2.000000000000001
100
AcDbArc
 50
295.0
 51
0.0
  0
ARC
  5
6E
330
1F
100
AcDbEntity
  8
0
  6
Continuous
 62
     7
370
    15
100
AcDbCircle
 10
252.6439126164
 20
123.130424101
 30
0.0
 40
2.000000000000001
100
AcDbArc
 50
0.0
 51
65.0
  0
CIRCLE
  5
6F
330
1F
100
AcDbEntity
  8
0
  6
Continuous
 62
     7
370
    15
100
AcDbCircle
 10
235.1439126164
 20
111.9045646226
 30
0.0
 40
4.200000000000014
  0
LINE
  5
70
330
1F
100
AcDbEntity
  8
0
  6
Continuous
 62
     7
370
    15
100
AcDbLine
 10
237.7574184454
 20
110.678627995
 30
0.0
 11
237.5123577939
 21
113.5549587497
 31
0.0
  0
LINE
  5
71
330
1F
100
AcDbEntity
  8
0
  6
Continuous
 62
     7
370
    15
100
AcDbLine
 10
235.3889732679
 20
109.0282338679
 30
0.0
 11
237.7574184454
 21
110.678627995
 31
0.0
  0
LINE
  5
72
330
1F
100
AcDbEntity
  8
0
  6
Continuous
 62
     7
370
    15
100
AcDbLine
 10
234.8988519648
 20
114.7808953773
 30
0.0
 11
237.5123577939
 21
113.5549587497
 31
0.0
  0
LINE
  5
73
330
1F
100
AcDbEntity
  8
0
  6
Continuous
 62
     7
370
    15
100
AcDbLine
 10
232.5304067874
 20
113.1305012503
 30
0.0
 11
232.7754674389
 21
110.2541704956
 31
0.0
  0
LINE
  5
74
330
1F
100
AcDbEntity
  8
0
  6
Continuous
 62
     7
370
    15
100
AcDbLine
 10
235.3889732679
 20
109.0282338679
 30
0.0
 11
232.7754674389
 21
110.2541704956
 31
0.0
  0
LINE
  5
75
330
1F
100
AcDbEntity
  8
0
  6
Continuous
 62
     7
370
    15
100
AcDbLine
 10
232.5304067874
 20
113.1305012503
 30
0.0
 11
234.8988519648
 21
114.7808953773
 31
0.0
  0
LWPOLYLINE
  5
76
330
1F
100
AcDbEntity
  8
0
  6
Continuous
 62
     7
370
    15
100
AcDbPolyline
 90
        7
 70
   128
 43
0.0
 10
254.6439126164
 20
118.1193089471
 10
254.6483221501
 20
118.2688736042
 10
254.658700654
 20
118.7354119362
 10
254.6623450999
 20
119.130995604
 10
254.658700654
 20
119.3954005803
 10
254.6483221501
 20
119.4883736042
 10
254.6439126164
 20
119.4792208928
  0
ARC
  5
77
330
1F
100
AcDbEntity
  8
0
  6
Continuous
 62
     7
370
    15
100
AcDbCircle
 10
235.1652895634
 20
105.015920544
 30
0.0
 40
19.55577392585932
100
AcDbArc
 50
357.9718982864
 51
5.0911211554
  0
LINE
  5
78
330
1F
100
AcDbEntity
  8
0
  6
Continuous
 62
     7
370
    15
100
AcDbLine
 10
122.5939126164
 20
63.1295710296
 30
0.0
 11
117.9059416373
 21
63.1295710296
 31
0.0
  0
LINE
  5
79
330
1F
100
AcDbEntity
  8
0
  6
Continuous
 62
     7
370
    15
100
AcDbLine
 10
117.9059416373
 20
63.1295710296
 30
0.0
 11
117.9059416373
 21
143.2545646226
 31
0.0
  0
LINE
  5
7A
330
1F
100
AcDbEntity
  8
0
  6
Continuous
 62
     7
370
    15
100
AcDbLine
 10
117.9059416373
 20
143.2545646226
 30
0.0
 11
122.5939126164
 21
143.2545646226
 31
0.0
  0
LINE
  5
7B
330
1F
100
AcDbEntity
  8
0
  6
Continuous
 62
     7
370
    15
100
AcDbLine
 10
123.5939126164
 20
64.1552190774
 30
0.0
 11
123.5939126164
 21
143.2545646226
 31
0.0
  0
SPLINE
  5
7C
330
1F
100
AcDbEntity
  8
0
  6
Continuous
 62
     7
370
    15
100
AcDbSpline
210
0.0
220
0.0
230
1.0
 70
     8
 71
     3
 72
    14
 73
    10
 74
     0
 42
0.00000001
 43
0.00000001
 40
0.0
 40
0.0
 40
0.0
 40
0.0
 40
0.25
 40
0.25
 40
0.5
 40
0.5
 40
0.75
 40
0.75
 40
1.0
 40
1.0
 40
1.0
 40
1.0
 10
123.5939126163802
 20
64.15521907737343
 30
0.0
 10
123.5939126163802
 20
64.02179338131889
 30
0.0
 10
123.5686015164693
 20
63.88994557347455
 30
0.0
 10
123.4702667526246
 20
63.64342302478043
 30
0.0
 10
123.3971227483685
 20
63.52961783653991
 30
0.0
 10
123.2136846872728
 20
63.33916065959262
 30
0.0
 10
123.1019983529342
 20
63.26152579574271
 30
0.0
 10
122.8594949226279
 20
63.15723438563023
 30
0.0
 10
122.7261204939337
 20
63.12957102959788
 30
0.0
 10
122.5939126163802
 20
63.12957102959789
 30
0.0
  0
SPLINE
  5
7D
330
1F
100
AcDbEntity
  8
0
  6
Continuous
 62
     7
370
    15
100
AcDbSpline
210
0.0
220
0.0
230
1.0
 70
    24
 71
     3
 72
    12
 73
     8
 74
     0
 42
0.00000001
 43
0.00000001
 40
0.0
 40
0.0
 40
0.0
 40
0.0
 40
0.2500000000000032
 40
0.2500000000000032
 40
0.5000000000000064
 40
0.5000000000000064
 40
1.0
 40
1.0
 40
1.0
 40
1.0
 10
122.5939126163802
 20
143.2545646226267
 30
0.0
 10
122.7460028533252
 20
143.2545646226268
 30
0.0
 10
122.8944621144006
 20
143.2545646226267
 30
0.0
 10
123.1518657466663
 20
143.2545646226267
 30
0.0
 10
123.2609704945082
 20
143.2545646226267
 30
0.0
 10
123.5150299709158
 20
143.2545646226268
 30
0.0
 10
123.5939126163802
 20
143.2545646226267
 30
0.0
 10
123.5939126163802
 20
143.2545646226267
 30
0.0
  0
LINE
  5
7E
330
1F
100
AcDbEntity
  8
0
  6
Continuous
 62
     7
370
    15
100
AcDbLine
 10
112.7339126164
 20
65.5331763356
 30
0.0
 11
112.7339126164
 21
143.2545646226
 31
0.0
  0
SPLINE
  5
7F
330
1F
100
AcDbEntity
  8
0
  6
Continuous
 62
     7
370
    15
100
AcDbSpline
210
0.0
220
0.0
230
1.0
 70
     8
 71
     3
 72
     8
 73
     4
 74
     0
 42
0.00000001
 43
0.00000001
 40
0.0
 40
0.0
 40
0.0
 40
0.0
 40
1.0
 40
1.0
 40
1.0
 40
1.0
 10
112.7339126163802
 20
65.53317633560327
 30
0.0
 10
112.2836861521024
 20
64.7317209729785
 30
0.0
 10
111.832988324859
 20
63.93053096141784
 30
0.0
 10
111.3818835954588
 20
63.12957102959793
 30
0.0
  0
LINE
  5
80
330
1F
100
AcDbEntity
  8
0
  6
Continuous
 62
     7
370
    15
100
AcDbLine
 10
111.3818835955
 20
63.1295710296
 30
0.0
 11
111.3818835955
 21
143.2545646226
 31
0.0
  0
SPLINE
  5
81
330
1F
100
AcDbEntity
  8
0
  6
Continuous
 62
     7
370
    15
100
AcDbSpline
210
0.0
220
0.0
230
1.0
 70
    24
 71
     3
 72
     8
 73
     4
 74
     0
 42
0.00000001
 43
0.00000001
 40
0.0
 40
0.0
 40
0.0
 40
0.0
 40
1.0
 40
1.0
 40
1.0
 40
1.0
 10
111.3818835954588
 20
143.2545646226267
 30
0.0
 10
111.838685167787
 20
143.2545646226267
 30
0.0
 10
112.2896997340262
 20
143.2545646226267
 30
0.0
 10
112.7339126163802
 20
143.2545646226267
 30
0.0
  0
LINE
  5
82
330
1F
100
AcDbEntity
  8
0
  6
Continuous
 62
     7
370
    15
100
AcDbLine
 10
94.6439126164
 20
62.4045646226
 30
0.0
 11
94.6439126164
 21
161.40456462
 31
0.0
  0
LINE
  5
83
330
1F
100
AcDbEntity
  8
0
  6
Continuous
 62
     7
370
    15
100
AcDbLine
 10
99.5939126164
 20
143.2545646226
 30
0.0
 11
111.3818835955
 21
143.2545646226
 31
0.0
  0
LINE
  5
84
330
1F
100
AcDbEntity
  8
0
  6
Continuous
 62
     7
370
    15
100
AcDbLine
 10
111.3818835955
 20
63.1295710296
 30
0.0
 11
109.5939126164
 21
63.1295710296
 31
0.0
  0
SPLINE
  5
85
330
1F
100
AcDbEntity
  8
0
  6
Continuous
 62
     7
370
    15
100
AcDbSpline
210
0.0
220
0.0
230
1.0
 70
     8
 71
     3
 72
    30
 73
    26
 74
     0
 42
0.00000001
 43
0.00000001
 40
0.0
 40
0.0
 40
0.0
 40
0.0
 40
0.1250000000000002
 40
0.1250000000000002
 40
0.1875000000000003
 40
0.1875000000000003
 40
0.2500000000000004
 40
0.2500000000000004
 40
0.3750000000000001
 40
0.3750000000000001
 40
0.4374999999999998
 40
0.4374999999999998
 40
0.4999999999999996
 40
0.4999999999999996
 40
0.6249999999999996
 40
0.6249999999999996
 40
0.6874999999999997
 40
0.6874999999999997
 40
0.7499999999999997
 40
0.7499999999999997
 40
0.8124999999999998
 40
0.8124999999999998
 40
0.8749999999999999
 40
0.8749999999999999
 40
1.0
 40
1.0
 40
1.0
 40
1.0
 10
109.5939126163802
 20
63.12957102959793
 30
0.0
 10
108.9311679225352
 20
63.12957102959793
 30
0.0
 10
108.2799120634194
 20
63.11473095300912
 30
0.0
 10
107.3194615251612
 20
63.07236138877951
 30
0.0
 10
107.0020700819282
 20
63.05488328600033
 30
0.0
 10
106.3729065803733
 20
63.01355499944803
 30
0.0
 10
106.0607583939316
 20
62.98962972599031
 30
0.0
 10
105.1534510920834
 20
62.9108232095234
 30
0.0
 10
104.5800261344421
 20
62.84851718954695
 30
0.0
 10
103.7661492648674
 20
62.74538786930759
 30
0.0
 10
103.5013430682976
 20
62.70920395026108
 30
0.0
 10
102.9944356574832
 20
62.63540916606057
 30
0.0
 10
102.7530415061297
 20
62.59793530728892
 30
0.0
 10
102.0639000339974
 20
62.48522336394919
 30
0.0
 10
101.6508452191332
 20
62.40968726647541
 30
0.0
 10
101.1026903997581
 20
62.30129400945791
 30
0.0
 10
100.9332277924125
 20
62.26622177779466
 30
0.0
 10
100.6252105443972
 20
62.19998631719481
 30
0.0
 10
100.4858305237888
 20
62.16865962044008
 30
0.0
 10
100.236045011162
 20
62.11025084885915
 30
0.0
 10
100.1256388985081
 20
62.0831676136763
 30
0.0
 10
99.9343810448704
 20
62.03390785906272
 30
0.0
 10
99.85326152658611
 20
62.01164587925507
 30
0.0
 10
99.65911460647773
 20
61.9540789720868
 30
0.0
 10
99.59391261638018
 20
61.92781936730081
 30
0.0
 10
99.59391261638018
 20
61.91456562282677
 30
0.0
  0
LINE
  5
86
330
1F
100
AcDbEntity
  8
0
  6
Continuous
 62
     7
370
    15
100
AcDbLine
 10
99.5939126164
 20
61.9145656228
 30
0.0
 11
99.5939126164
 21
61.9045646226
 31
0.0
  0
SPLINE
  5
87
330
1F
100
AcDbEntity
  8
0
  6
Continuous
 62
     7
370
    15
100
AcDbSpline
210
0.0
220
0.0
230
1.0
 70
     8
 71
     3
 72
    23
 73
    19
 74
     0
 42
0.00000001
 43
0.00000001
 40
0.0
 40
0.0
 40
0.0
 40
0.0
 40
0.0520256687590417
 40
0.1044186119084699
 40
0.1579654762732603
 40
0.2119084390155455
 40
0.2639329008030786
 40
0.3697142245600881
 40
0.4235868577364621
 40
0.4762679679182533
 40
0.5833878371337101
 40
0.6379530306539528
 40
0.6910551819358521
 40
0.7445319929992287
 40
0.7992014233075218
 40
0.8542881036302091
 40
0.9066815619543741
 40
1.0
 40
1.0
 40
1.0
 40
1.0
 10
109.5939126163802
 20
160.8943594782903
 30
0.0
 10
109.3209002191852
 20
160.8956810467971
 30
0.0
 10
108.772948098071
 20
160.8983335134028
 30
0.0
 10
107.9498017406158
 20
160.9198084018305
 30
0.0
 10
107.1285566400235
 20
160.9540261204985
 30
0.0
 10
106.3271278299154
 20
161.0010780306659
 30
0.0
 10
105.2947445757724
 20
161.0780669814917
 30
0.0
 10
104.3174965611484
 20
161.1739442321522
 30
0.0
 10
103.4164495498924
 20
161.2808736799404
 30
0.0
 10
102.567475770791
 20
161.3927204877808
 30
0.0
 10
101.8099073251828
 20
161.5069490865102
 30
0.0
 10
101.1649190347333
 20
161.613528832874
 30
0.0
 10
100.7403451615355
 20
161.6874587892752
 30
0.0
 10
100.3777885118864
 20
161.753349347332
 30
0.0
 10
100.0765869547627
 20
161.8100456985462
 30
0.0
 10
99.84933338272798
 20
161.8539819447808
 30
0.0
 10
99.64322608550547
 20
161.8946403916089
 30
0.0
 10
99.62253914747244
 20
161.8988238309983
 30
0.0
 10
99.60929058786073
 20
161.9015030359171
 30
0.0
  0
LINE
  5
88
330
1F
100
AcDbEntity
  8
0
  6
Continuous
 62
     7
370
    15
100
AcDbLine
 10
111.3818835955
 20
160.8943594783
 30
0.0
 11
109.5939126164
 21
160.8943594783
 31
0.0
  0
LINE
  5
89
330
1F
100
AcDbEntity
  8
0
  6
Continuous
 62
     7
370
    15
100
AcDbLine
 10
111.3818835955
 20
150.8555273835
 30
0.0
 11
111.3818835955
 21
160.8943594783
 31
0.0
  0
LINE
  5
8A
330
1F
100
AcDbEntity
  8
0
  6
Continuous
 62
     7
370
    15
100
AcDbLine
 10
109.3018794646
 20
150.8555273835
 30
0.0
 11
111.3818835955
 21
150.8555273835
 31
0.0
  0
SPLINE
  5
8B
330
1F
100
AcDbEntity
  8
0
  6
Continuous
 62
     7
370
    15
100
AcDbSpline
210
0.0
220
0.0
230
1.0
 70
     8
 71
     3
 72
    22
 73
    18
 74
     0
 42
0.00000001
 43
0.00000001
 40
0.0
 40
0.0
 40
0.0
 40
0.0
 40
0.2500000000000002
 40
0.2500000000000002
 40
0.3750000000000003
 40
0.3750000000000003
 40
0.5000000000000004
 40
0.5000000000000004
 40
0.6250000000000004
 40
0.6250000000000004
 40
0.7500000000000004
 40
0.7500000000000004
 40
0.8750000000000004
 40
0.8750000000000004
 40
0.9375000000000002
 40
0.9375000000000002
 40
1.0
 40
1.0
 40
1.0
 40
1.0
 10
99.59391261638017
 20
143.2545646226267
 30
0.0
 10
99.79663757229926
 20
144.2738109644914
 30
0.0
 10
100.1113812940946
 20
145.2329191144306
 30
0.0
 10
100.8194367637656
 20
146.5753981919399
 30
0.0
 10
101.0978993939833
 20
147.00960677468
 30
0.0
 10
101.7366668006205
 20
147.8212344901821
 30
0.0
 10
102.0970804804107
 20
148.2005147831189
 30
0.0
 10
102.9146127123999
 20
148.9034733621399
 30
0.0
 10
103.3757806956871
 20
149.2285021798405
 30
0.0
 10
104.3737709421709
 20
149.7935175032314
 30
0.0
 10
104.9135301361631
 20
150.0372210974379
 30
0.0
 10
106.0881231001945
 20
150.4414210250828
 30
0.0
 10
106.6998592861863
 20
150.5938582181284
 30
0.0
 10
107.651768511048
 20
150.7491857657371
 30
0.0
 10
107.9750016753087
 20
150.7886905457871
 30
0.0
 10
108.6340648465839
 20
150.8419996664558
 30
0.0
 10
108.968128857158
 20
150.8555273835136
 30
0.0
 10
109.3018794645595
 20
150.8555273835136
 30
0.0
  0
SPLINE
  5
8C
330
1F
100
AcDbEntity
  8
0
  6
Continuous
 62
     7
370
    15
100
AcDbSpline
210
0.0
220
0.0
230
1.0
 70
     8
 71
     3
 72
    80
 73
    76
 74
     0
 42
0.00000001
 43
0.00000001
 40
-0.0312499999999993
 40
-0.0312499999999993
 40
0.0
 40
0.0
 40
0.03125
 40
0.03125
 40
0.046875
 40
0.046875
 40
0.0625
 40
0.0625
 40
0.09375
 40
0.09375
 40
0.1250000000000001
 40
0.1250000000000001
 40
0.1562500000000001
 40
0.1562500000000001
 40
0.1875000000000001
 40
0.1875000000000001
 40
0.2187500000000002
 40
0.2187500000000002
 40
0.2500000000000002
 40
0.2500000000000002
 40
0.2812500000000003
 40
0.2812500000000003
 40
0.3125000000000003
 40
0.3125000000000003
 40
0.3281250000000004
 40
0.3281250000000004
 40
0.3437500000000006
 40
0.3437500000000006
 40
0.3750000000000011
 40
0.3750000000000011
 40
0.4062500000000016
 40
0.4062500000000016
 40
0.4218750000000018
 40
0.4218750000000018
 40
0.437500000000002
 40
0.437500000000002
 40
0.4687500000000023
 40
0.4687500000000023
 40
0.5000000000000027
 40
0.5000000000000027
 40
0.531250000000003
 40
0.531250000000003
 40
0.5625000000000033
 40
0.5625000000000033
 40
0.5937500000000037
 40
0.5937500000000037
 40
0.6250000000000039
 40
0.6250000000000039
 40
0.6562500000000042
 40
0.6562500000000042
 40
0.6875000000000046
 40
0.6875000000000046
 40
0.7031250000000047
 40
0.7031250000000047
 40
0.7187500000000048
 40
0.7187500000000048
 40
0.7500000000000048
 40
0.7500000000000048
 40
0.7812500000000048
 40
0.7812500000000048
 40
0.7968750000000044
 40
0.7968750000000044
 40
0.8125000000000041
 40
0.8125000000000041
 40
0.8437500000000034
 40
0.8437500000000034
 40
0.8750000000000027
 40
0.8750000000000027
 40
0.906250000000002
 40
0.906250000000002
 40
0.9375000000000013
 40
0.9375000000000013
 40
0.9687500000000007
 40
0.9687500000000007
 40
1.0
 40
1.0
 40
1.03125
 40
1.03125
 10
103.9744579291565
 20
155.319194086258
 30
0.0
 10
103.3133673036039
 20
155.319194086258
 30
0.0
 10
102.9883871743522
 20
155.3354023176402
 30
0.0
 10
102.5089137631058
 20
155.3827669496598
 30
0.0
 10
102.350431945265
 20
155.4024211615504
 30
0.0
 10
102.0362124127607
 20
155.449532317743
 30
0.0
 10
101.8800921290803
 20
155.4771136372377
 30
0.0
 10
101.4260381001237
 20
155.5696494240315
 30
0.0
 10
101.1389347171839
 20
155.644719857628
 30
0.0
 10
100.5955801611569
 20
155.8199581662386
 30
0.0
 10
100.3384765499513
 20
155.9209594640768
 30
0.0
 10
99.87757029501255
 20
156.1383156625377
 30
0.0
 10
99.67067258579756
 20
156.25547999431
 30
0.0
 10
99.30514727180537
 20
156.5055499185386
 30
0.0
 10
99.14994174967941
 20
156.6364960072976
 30
0.0
 10
98.9005113630797
 20
156.90223095101
 30
0.0
 10
98.80442140729454
 20
157.0389845443209
 30
0.0
 10
98.67590255810096
 20
157.3130501191599
 30
0.0
 10
98.64409168792318
 20
157.4479902096287
 30
0.0
 10
98.6437350381499
 20
157.7134618466975
 30
0.0
 10
98.67623229034697
 20
157.8452863238387
 30
0.0
 10
98.80385776406146
 20
158.0947359234591
 30
0.0
 10
98.89828616511335
 20
158.2131686153871
 30
0.0
 10
99.0861469850989
 20
158.3820378124812
 30
0.0
 10
99.15697498390209
 20
158.4371238076014
 30
0.0
 10
99.31169687586737
 20
158.5423766360898
 30
0.0
 10
99.39567334605076
 20
158.5927118648502
 30
0.0
 10
99.66699701569519
 20
158.7372876973882
 30
0.0
 10
99.87354623429754
 20
158.8251492838052
 30
0.0
 10
100.3401563744866
 20
158.9848703768048
 30
0.0
 10
100.592521944112
 20
159.054108673272
 30
0.0
 10
100.9984232857907
 20
159.1438960625017
 30
0.0
 10
101.1383239032682
 20
159.171462024588
 30
0.0
 10
101.4275478385151
 20
159.2219528255143
 30
0.0
 10
101.5773872948044
 20
159.244916264365
 30
0.0
 10
102.0315038644152
 20
159.3055467807838
 30
0.0
 10
102.3431550831521
 20
159.3356208095796
 30
0.0
 10
102.9841515480644
 20
159.3762103968383
 30
0.0
 10
103.3156791760166
 20
159.3865226270544
 30
0.0
 10
103.9684702210881
 20
159.3865981942201
 30
0.0
 10
104.2930064261199
 20
159.3766965887524
 30
0.0
 10
104.9382758755363
 20
159.3362100582271
 30
0.0
 10
105.254018881699
 20
159.3057487583424
 30
0.0
 10
105.8559081766827
 20
159.2255980869058
 30
0.0
 10
106.1466574074942
 20
159.1753158550987
 30
0.0
 10
106.6935691991787
 20
159.0546456723257
 30
0.0
 10
106.9453465630156
 20
158.9854218131557
 30
0.0
 10
107.4067345556368
 20
158.827970085515
 30
0.0
 10
107.6180038352349
 20
158.7386216108413
 30
0.0
 10
107.981308187611
 20
158.5453737401404
 30
0.0
 10
108.1351148360538
 20
158.4412457482612
 30
0.0
 10
108.3237343056512
 20
158.2726213620777
 30
0.0
 10
108.3797647918603
 20
158.2139929604027
 30
0.0
 10
108.4753385535965
 20
158.0945380455765
 30
0.0
 10
108.5151014706215
 20
158.0336182567384
 30
0.0
 10
108.6108732209337
 20
157.8472135305645
 30
0.0
 10
108.6435960600598
 20
157.7181007127694
 30
0.0
 10
108.6442246463888
 20
157.4494437898136
 30
0.0
 10
108.6120385016541
 20
157.3140730490568
 30
0.0
 10
108.5171277997985
 20
157.1105227408208
 30
0.0
 10
108.4776610163995
 20
157.0425508167574
 30
0.0
 10
108.3827310176787
 20
156.9064585936265
 30
0.0
 10
108.3269741899153
 20
156.838108493417
 30
0.0
 10
108.1390340719454
 20
156.637405480375
 30
0.0
 10
107.9856726022292
 20
156.5080172065622
 30
0.0
 10
107.6234083673488
 20
156.2593517745124
 30
0.0
 10
107.4125598938829
 20
156.1395421321442
 30
0.0
 10
106.951889923564
 20
155.9220198445715
 30
0.0
 10
106.7005155439802
 20
155.8229347447356
 30
0.0
 10
106.1546076570821
 20
155.6462622708188
 30
0.0
 10
105.8637850824308
 20
155.5702051826848
 30
0.0
 10
105.2624584676508
 20
155.4473602053318
 30
0.0
 10
104.9479398830384
 20
155.3996540802787
 30
0.0
 10
104.3013584269185
 20
155.335405545159
 30
0.0
 10
103.9744579291565
 20
155.319194086258
 30
0.0
 10
103.3133673036039
 20
155.319194086258
 30
0.0
  0
SPLINE
  5
8D
330
1F
100
AcDbEntity
  8
0
  6
Continuous
 62
     7
370
    15
100
AcDbSpline
210
0.0
220
0.0
230
1.0
 70
     8
 71
     3
 72
     8
 73
     4
 74
     0
 42
0.00000001
 43
0.00000001
 40
0.0
 40
0.0
 40
0.0
 40
0.0
 40
1.0
 40
1.0
 40
1.0
 40
1.0
 10
117.9059416373016
 20
63.12957102959793
 30
0.0
 10
117.4548369079013
 20
63.93053096141784
 30
0.0
 10
117.004139080658
 20
64.7317209729785
 30
0.0
 10
116.5539126163802
 20
65.53317633560327
 30
0.0
  0
LINE
  5
8E
330
1F
100
AcDbEntity
  8
0
  6
Continuous
 62
     7
370
    15
100
AcDbLine
 10
116.5539126164
 20
65.5331763356
 30
0.0
 11
116.5539126164
 21
143.2545646226
 31
0.0
  0
SPLINE
  5
8F
330
1F
100
AcDbEntity
  8
0
  6
Continuous
 62
     7
370
    15
100
AcDbSpline
210
0.0
220
0.0
230
1.0
 70
    24
 71
     3
 72
     8
 73
     4
 74
     0
 42
0.00000001
 43
0.00000001
 40
0.0
 40
0.0
 40
0.0
 40
0.0
 40
1.0
 40
1.0
 40
1.0
 40
1.0
 10
116.5539126163802
 20
143.2545646226267
 30
0.0
 10
116.9981254987341
 20
143.2545646226267
 30
0.0
 10
117.4491400649733
 20
143.2545646226267
 30
0.0
 10
117.9059416373016
 20
143.2545646226267
 30
0.0
  0
SPLINE
  5
90
330
1F
100
AcDbEntity
  8
0
  6
Continuous
 62
     7
370
    15
100
AcDbSpline
210
0.0
220
0.0
230
1.0
 70
     8
 71
     3
 72
    12
 73
     8
 74
     0
 42
0.00000001
 43
0.00000001
 40
0.0
 40
0.0
 40
0.0
 40
0.0
 40
0.250000000000003
 40
0.250000000000003
 40
0.500000000000006
 40
0.500000000000006
 40
1.0
 40
1.0
 40
1.0
 40
1.0
 10
113.5339126163802
 20
67.2648891645771
 30
0.0
 10
113.4281519630312
 20
67.26488916457708
 30
0.0
 10
113.3201643348483
 20
67.24234965857669
 30
0.0
 10
113.1255696695827
 20
67.15777902658135
 30
0.0
 10
113.0366977567438
 20
67.09529737382253
 30
0.0
 10
112.8175054644179
 20
66.86590842235033
 30
0.0
 10
112.7339126163801
 20
66.65332508482791
 30
0.0
 10
112.7339126163802
 20
66.44138584023167
 30
0.0
  0
SPLINE
  5
91
330
1F
100
AcDbEntity
  8
0
  6
Continuous
 62
     7
370
    15
100
AcDbSpline
210
0.0
220
0.0
230
1.0
 70
    24
 71
     3
 72
    14
 73
    10
 74
     0
 42
0.00000001
 43
0.00000001
 40
0.0
 40
0.0
 40
0.0
 40
0.0
 40
0.25
 40
0.25
 40
0.5
 40
0.5
 40
0.75
 40
0.75
 40
1.0
 40
1.0
 40
1.0
 40
1.0
 10
112.7339126163802
 20
143.2545646226267
 30
0.0
 10
112.7339126163802
 20
143.2545646226267
 30
0.0
 10
112.7496269368461
 20
143.2545646226267
 30
0.0
 10
112.8133109153145
 20
143.2545646226267
 30
0.0
 10
112.861914109725
 20
143.2545646226267
 30
0.0
 10
112.9945976321505
 20
143.2545646226268
 30
0.0
 10
113.0796997364612
 20
143.2545646226267
 30
0.0
 10
113.2861419713712
 20
143.2545646226267
 30
0.0
 10
113.4102229129943
 20
143.2545646226267
 30
0.0
 10
113.5339126163802
 20
143.2545646226267
 30
0.0
  0
SPLINE
  5
92
330
1F
100
AcDbEntity
  8
0
  6
Continuous
 62
     7
370
    15
100
AcDbSpline
210
0.0
220
0.0
230
1.0
 70
     8
 71
     3
 72
    14
 73
    10
 74
     0
 42
0.00000001
 43
0.00000001
 40
0.0
 40
0.0
 40
0.0
 40
0.0
 40
0.25
 40
0.25
 40
0.5
 40
0.5
 40
0.75
 40
0.75
 40
1.0
 40
1.0
 40
1.0
 40
1.0
 10
116.5539126163802
 20
66.44138584023185
 30
0.0
 10
116.5539126163802
 20
66.54842992122623
 30
0.0
 10
116.533794929222
 20
66.65366506146866
 30
0.0
 10
116.4553037399564
 20
66.85151554831637
 30
0.0
 10
116.3971471151552
 20
66.94256731188128
 30
0.0
 10
116.2506318595371
 20
67.09573340580606
 30
0.0
 10
116.161989310896
 20
67.15802785201546
 30
0.0
 10
115.9662659880957
 20
67.24282163755146
 30
0.0
 10
115.8610347970248
 20
67.26488916457708
 30
0.0
 10
115.7539126163802
 20
67.2648891645771
 30
0.0
  0
SPLINE
  5
93
330
1F
100
AcDbEntity
  8
0
  6
Continuous
 62
     7
370
    15
100
AcDbSpline
210
0.0
220
0.0
230
1.0
 70
    24
 71
     3
 72
    14
 73
    10
 74
     0
 42
0.00000001
 43
0.00000001
 40
0.0
 40
0.0
 40
0.0
 40
0.0
 40
0.25
 40
0.25
 40
0.5
 40
0.5
 40
0.75
 40
0.75
 40
1.0
 40
1.0
 40
1.0
 40
1.0
 10
115.7539126163802
 20
143.2545646226267
 30
0.0
 10
115.8776823811453
 20
143.2545646226267
 30
0.0
 10
116.0020494851522
 20
143.2545646226267
 30
0.0
 10
116.2084059538783
 20
143.2545646226267
 30
0.0
 10
116.2937340972966
 20
143.2545646226267
 30
0.0
 10
116.4259261560118
 20
143.2545646226268
 30
0.0
 10
116.4745713997624
 20
143.2545646226267
 30
0.0
 10
116.5381071914912
 20
143.2545646226267
 30
0.0
 10
116.5539126163802
 20
143.2545646226267
 30
0.0
 10
116.5539126163802
 20
143.2545646226267
 30
0.0
  0
LINE
  5
94
330
1F
100
AcDbEntity
  8
0
  6
Continuous
 62
     7
370
    15
100
AcDbLine
 10
115.7539126164
 20
67.2648891646
 30
0.0
 11
113.5339126164
 21
67.2648891646
 31
0.0
  0
LINE
  5
95
330
1F
100
AcDbEntity
  8
0
  6
Continuous
 62
     7
370
    15
100
AcDbLine
 10
113.5339126164
 20
143.2545646226
 30
0.0
 11
115.7539126164
 21
143.2545646226
 31
0.0
  0
LINE
  5
96
330
1F
100
AcDbEntity
  8
0
  6
Continuous
 62
     7
370
    15
100
AcDbLine
 10
92.1439126164
 20
74.0223131196
 30
0.0
 11
92.1439126164
 21
149.7868161256
 31
0.0
  0
LINE
  5
97
330
1F
100
AcDbEntity
  8
0
  6
Continuous
 62
     7
370
    15
100
AcDbLine
 10
59.8439126164
 20
75.6405495926
 30
0.0
 11
59.8439126164
 21
78.0352313573
 31
0.0
  0
SPLINE
  5
98
330
1F
100
AcDbEntity
  8
0
  6
Continuous
 62
     7
370
    15
100
AcDbSpline
210
0.0
220
0.0
230
1.0
 70
     8
 71
     3
 72
    14
 73
    10
 74
     0
 42
0.00000001
 43
0.00000001
 40
0.0
 40
0.0
 40
0.0
 40
0.0
 40
0.25
 40
0.25
 40
0.5
 40
0.5
 40
0.75
 40
0.75
 40
1.0
 40
1.0
 40
1.0
 40
1.0
 10
58.83949014504322
 20
79.73808327888321
 30
0.0
 10
58.92825872298854
 20
79.57954914757525
 30
0.0
 10
59.04997656166745
 20
79.4271064706867
 30
0.0
 10
59.28502617152429
 20
79.12997184685777
 30
0.0
 10
59.40065635774118
 20
78.98528920324041
 30
0.0
 10
59.60106129116899
 20
78.702000000737
 30
0.0
 10
59.68646158315332
 20
78.56344600770015
 30
0.0
 10
59.80816721687054
 20
78.2920619776666
 30
0.0
 10
59.84391261638319
 20
78.159926109032
 30
0.0
 10
59.84391261638318
 20
78.03523135726122
 30
0.0
  0
SPLINE
  5
99
330
1F
100
AcDbEntity
  8
0
  6
Continuous
 62
     7
370
    15
100
AcDbSpline
210
0.0
220
0.0
230
1.0
 70
     8
 71
     3
 72
    14
 73
    10
 74
     0
 42
0.00000001
 43
0.00000001
 40
0.0
 40
0.0
 40
0.0
 40
0.0
 40
0.124999999999999
 40
0.124999999999999
 40
0.249999999999998
 40
0.249999999999998
 40
0.5000000000000007
 40
0.5000000000000007
 40
1.0
 40
1.0
 40
1.0
 40
1.0
 10
57.94391261638018
 20
80.36691321798331
 30
0.0
 10
58.01149491616467
 20
80.3740691030847
 30
0.0
 10
58.08398249391257
 20
80.3696446330457
 30
0.0
 10
58.21627360317852
 20
80.33993847527535
 30
0.0
 10
58.27355098256869
 20
80.31665419369712
 30
0.0
 10
58.42320140976898
 20
80.23916895384679
 30
0.0
 10
58.49691470529048
 20
80.17731712694543
 30
0.0
 10
58.68472268861672
 20
79.99263967429711
 30
0.0
 10
58.76876299497816
 20
79.8643967510059
 30
0.0
 10
58.83949014504444
 20
79.73808327888331
 30
0.0
  0
SPLINE
  5
9A
330
1F
100
AcDbEntity
  8
0
  6
Continuous
 62
     7
370
    15
100
AcDbSpline
210
0.0
220
0.0
230
1.0
 70
     8
 71
     3
 72
     8
 73
     4
 74
     0
 42
0.00000001
 43
0.00000001
 40
0.0
 40
0.0
 40
0.0
 40
0.0
 40
1.0
 40
1.0
 40
1.0
 40
1.0
 10
54.3992722282994
 20
79.94886463319153
 30
0.0
 10
55.56457053900827
 20
80.10405210507815
 30
0.0
 10
56.74918575304807
 20
80.24041074338848
 30
0.0
 10
57.94391261638015
 20
80.36691321798331
 30
0.0
  0
SPLINE
  5
9B
330
1F
100
AcDbEntity
  8
0
  6
Continuous
 62
     7
370
    15
100
AcDbSpline
210
0.0
220
0.0
230
1.0
 70
     8
 71
     3
 72
    14
 73
    10
 74
     0
 42
0.00000001
 43
0.00000001
 40
0.0
 40
0.0
 40
0.0
 40
0.0
 40
0.5000000000000012
 40
0.5000000000000012
 40
0.7500000000000018
 40
0.7500000000000018
 40
0.8750000000000009
 40
0.8750000000000009
 40
1.0
 40
1.0
 40
1.0
 40
1.0
 10
46.64383773234984
 20
79.6587324540616
 30
0.0
 10
47.95213929488384
 20
79.66574717780271
 30
0.0
 10
49.25719866954095
 20
79.6811557542472
 30
0.0
 10
51.20307472102964
 20
79.73505230971385
 30
0.0
 10
51.84977222476881
 20
79.75808387431655
 30
0.0
 10
52.81361458862335
 20
79.80902639918732
 30
0.0
 10
53.1338532805575
 20
79.82876132142052
 30
0.0
 10
53.77054850690005
 20
79.8782484498921
 30
0.0
 10
54.08726391518304
 20
79.90731322882134
 30
0.0
 10
54.39927222829943
 20
79.94886463319148
 30
0.0
  0
SPLINE
  5
9C
330
1F
100
AcDbEntity
  8
0
  6
Continuous
 62
     7
370
    15
100
AcDbSpline
210
0.0
220
0.0
230
1.0
 70
     8
 71
     3
 72
    12
 73
     8
 74
     0
 42
0.00000001
 43
0.00000001
 40
0.0
 40
0.0
 40
0.0
 40
0.0
 40
0.2500000000000001
 40
0.2500000000000001
 40
0.5000000000000001
 40
0.5000000000000001
 40
1.0
 40
1.0
 40
1.0
 40
1.0
 10
52.94391261638018
 20
143.9910875141231
 30
0.0
 10
52.42521379455199
 20
144.0236102889714
 30
0.0
 10
51.903502221347
 20
144.0469070301419
 30
0.0
 10
50.85721020485143
 20
144.084752544564
 30
0.0
 10
50.33253857918115
 20
144.0990210190601
 30
0.0
 10
48.75569255664195
 20
144.1332305065184
 30
0.0
 10
47.70073724209506
 20
144.1447300104623
 30
0.0
 10
46.64383773234983
 20
144.1503967911918
 30
0.0
  0
SPLINE
  5
9D
330
1F
100
AcDbEntity
  8
0
  6
Continuous
 62
     7
370
    15
100
AcDbSpline
210
0.0
220
0.0
230
1.0
 70
     8
 71
     3
 72
    20
 73
    16
 74
     0
 42
0.00000001
 43
0.00000001
 40
0.0
 40
0.0
 40
0.0
 40
0.0
 40
0.2500000000000011
 40
0.2500000000000011
 40
0.5000000000000021
 40
0.5000000000000021
 40
0.7500000000000031
 40
0.7500000000000031
 40
0.8750000000000008
 40
0.8750000000000008
 40
0.9375000000000006
 40
0.9375000000000006
 40
0.9687500000000003
 40
0.9687500000000003
 40
1.0
 40
1.0
 40
1.0
 40
1.0
 10
54.84391261638018
 20
145.6491733596113
 30
0.0
 10
54.84391261638017
 20
145.5134910398645
 30
0.0
 10
54.79520082716355
 20
145.3724040537245
 30
0.0
 10
54.62603940393837
 20
145.0803323349939
 30
0.0
 10
54.50425899002004
 20
144.9286835929035
 30
0.0
 10
54.20671189527054
 20
144.6262751527504
 30
0.0
 10
54.03279928956775
 20
144.4736865166271
 30
0.0
 10
53.71338445568593
 20
144.2484157527848
 30
0.0
 10
53.59834368023868
 20
144.1736926582741
 30
0.0
 10
53.39125935622226
 20
144.074282249017
 30
0.0
 10
53.31515152141586
 20
144.0427171566725
 30
0.0
 10
53.18375698186254
 20
144.0082737724796
 30
0.0
 10
53.13720376286108
 20
143.9992222007119
 30
0.0
 10
53.04087041178035
 20
143.9890465518735
 30
0.0
 10
52.99161098842492
 20
143.9880967931984
 30
0.0
 10
52.94391261637818
 20
143.991087514113
 30
0.0
  0
LINE
  5
9E
330
1F
100
AcDbEntity
  8
0
  6
Continuous
 62
     7
370
    15
100
AcDbLine
 10
54.8439126164
 20
145.6491733596
 30
0.0
 11
54.8439126164
 21
147.9180786507
 31
0.0
  0
SPLINE
  5
9F
330
1F
100
AcDbEntity
  8
0
  6
Continuous
 62
     7
370
    15
100
AcDbSpline
210
0.0
220
0.0
230
1.0
 70
     8
 71
     3
 72
    22
 73
    18
 74
     0
 42
0.00000001
 43
0.00000001
 40
0.0
 40
0.0
 40
0.0
 40
0.0
 40
0.0002937850458186
 40
0.0628841327416245
 40
0.1261981682954119
 40
0.2510182590426545
 40
0.3131038291609287
 40
0.3757650688901397
 40
0.4382989835656159
 40
0.5000628079113862
 40
0.5617337561138577
 40
0.6246555685552369
 40
0.7491916976530832
 40
0.8115302181310354
 40
0.8745847230190956
 40
0.937822758820794
 40
1.0
 40
1.0
 40
1.0
 40
1.0
 10
73.1638688802196
 20
74.97331936431436
 30
0.0
 10
73.16367402680937
 20
74.9732950569945
 30
0.0
 10
73.12196602332872
 20
74.96809212120768
 30
0.0
 10
73.26722912651267
 20
74.98670632909554
 30
0.0
 10
73.73737530368301
 20
75.04323227969154
 30
0.0
 10
74.70583138626708
 20
75.14945390911699
 30
0.0
 10
76.01829119582847
 20
75.23508671654841
 30
0.0
 10
77.15041490446102
 20
75.27374278264729
 30
0.0
 10
78.37260168108301
 20
75.27740409042578
 30
0.0
 10
79.63990006861236
 20
75.23501867565594
 30
0.0
 10
80.90661172284547
 20
75.14664169798057
 30
0.0
 10
82.52226971871002
 20
74.97659256935674
 30
0.0
 10
83.96223232873363
 20
74.75441083480328
 30
0.0
 10
85.02810148489753
 20
74.55141472666874
 30
0.0
 10
85.61730186833547
 20
74.42738929371939
 30
0.0
 10
86.00602138362606
 20
74.34246845327448
 30
0.0
 10
86.05280709645548
 20
74.33174173547015
 30
0.0
 10
86.07600209008274
 20
74.32642374123502
 30
0.0
  0
SPLINE
  5
A0
330
1F
100
AcDbEntity
  8
0
  6
Continuous
 62
     7
370
    15
100
AcDbSpline
210
0.0
220
0.0
230
1.0
 70
     8
 71
     3
 72
    41
 73
    37
 74
     0
 42
0.00000001
 43
0.00000001
 40
0.0
 40
0.0
 40
0.0
 40
0.0
 40
0.0619930061482746
 40
0.1254347783466151
 40
0.1886508898234768
 40
0.2510246408607227
 40
0.3131658188976554
 40
0.3756581641417402
 40
0.4382227146727798
 40
0.4998044922940677
 40
0.56151641971787
 40
0.6240683094121985
 40
0.686725723240935
 40
0.7488365305144522
 40
0.8110685944253986
 40
0.8741742884451361
 40
0.9373212787645211
 40
0.9685511709617411
 40
0.9842086872487193
 40
0.9920641182531791
 40
0.996000486125535
 40
0.9979710794120144
 40
0.9989570090489596
 40
0.9994501359395065
 40
0.9996967403802177
 40
0.9998200529090742
 40
0.9998817117580818
 40
0.999912541829664
 40
0.9999279570273361
 40
0.9999356646666602
 40
0.9999395184964466
 40
0.9999414454138695
 40
0.9999424088732151
 40
0.9999433723329806
 40
0.9999501697010513
 40
1.0
 40
1.0
 40
1.0
 40
1.0
 10
86.07588075960474
 20
149.4826604860669
 30
0.0
 10
86.05230911426115
 20
149.4773510064171
 30
0.0
 10
86.00461495821608
 20
149.4666079654775
 30
0.0
 10
85.61257296879054
 20
149.3813788290221
 30
0.0
 10
85.02205891952033
 20
149.2568100503813
 30
0.0
 10
84.21802147347525
 20
149.1038631042295
 30
0.0
 10
83.24194607329373
 20
148.9421065502759
 30
0.0
 10
82.12013733801324
 20
148.7898737823437
 30
0.0
 10
80.90660641822599
 20
148.6620938411423
 30
0.0
 10
79.64177571182678
 20
148.5742452894597
 30
0.0
 10
78.37373267438404
 20
148.5318598055891
 30
0.0
 10
77.15022531668293
 20
148.5355956135608
 30
0.0
 10
76.01672677626891
 20
148.5741910840089
 30
0.0
 10
75.03062096529473
 20
148.6386304553
 30
0.0
 10
74.2219931565075
 20
148.7121402625812
 30
0.0
 10
73.62537446139831
 20
148.7794539473929
 30
0.0
 10
73.30998317194023
 20
148.8174184986609
 30
0.0
 10
73.1999166031423
 20
148.8312175579927
 30
0.0
 10
73.17249721532811
 20
148.8347036319134
 30
0.0
 10
73.1655751644986
 20
148.8355828576068
 30
0.0
 10
73.16380692431518
 20
148.8358036322131
 30
0.0
 10
73.16334654514182
 20
148.8358588349238
 30
0.0
 10
73.16322238645701
 20
148.8358725747109
 30
0.0
 10
73.16318683196386
 20
148.8358759705419
 30
0.0
 10
73.16317568789376
 20
148.8358767988622
 30
0.0
 10
73.16317177469764
 20
148.835876995451
 30
0.0
 10
73.16317023249282
 20
148.835877039381
 30
0.0
 10
73.1631695654913
 20
148.8358770476878
 30
0.0
 10
73.16316925731356
 20
148.8358770485181
 30
0.0
 10
73.16316911054749
 20
148.8358770479729
 30
0.0
 10
73.16316903759505
 20
148.835877047643
 30
0.0
 10
73.16316900320265
 20
148.8358770472057
 30
0.0
 10
73.16316898095751
 20
148.8358770472942
 30
0.0
 10
73.16316895384807
 20
148.8358770444593
 30
0.0
 10
73.16316643428672
 20
148.8358773313144
 30
0.0
 10
73.16320252420478
 20
148.8358727112137
 30
0.0
 10
73.1632342820274
 20
148.8358686456923
 30
0.0
  0
SPLINE
  5
A1
330
1F
100
AcDbEntity
  8
0
  6
Continuous
 62
     7
370
    15
100
AcDbSpline
210
0.0
220
0.0
230
1.0
 70
     8
 71
     3
 72
    20
 73
    16
 74
     0
 42
0.00000001
 43
0.00000001
 40
0.0
 40
0.0
 40
0.0
 40
0.0
 40
0.249999999999986
 40
0.249999999999986
 40
0.3749999999999789
 40
0.3749999999999789
 40
0.4374999999999789
 40
0.4374999999999789
 40
0.4999999999999789
 40
0.4999999999999789
 40
0.6249999999999835
 40
0.6249999999999835
 40
0.7499999999999879
 40
0.7499999999999879
 40
1.0
 40
1.0
 40
1.0
 40
1.0
 10
45.03472684809618
 20
81.22608146992602
 30
0.0
 10
45.06099906530959
 20
81.24539941100849
 30
0.0
 10
45.09167920756443
 20
81.25978812211027
 30
0.0
 10
45.16315007794636
 20
81.25288376027426
 30
0.0
 10
45.19117711499068
 20
81.24571775692584
 30
0.0
 10
45.2462607044882
 20
81.21601873022225
 30
0.0
 10
45.26715203304063
 20
81.20254508766091
 30
0.0
 10
45.31236068048608
 20
81.16734682214489
 30
0.0
 10
45.33676489288166
 20
81.14543859341764
 30
0.0
 10
45.40809721093311
 20
81.07331373342208
 30
0.0
 10
45.44999399575336
 20
81.02097319247204
 30
0.0
 10
45.52156995460925
 20
80.92348980057129
 30
0.0
 10
45.55239794442656
 20
80.87673603069287
 30
0.0
 10
45.63549787726212
 20
80.74344281485375
 30
0.0
 10
45.68035278263243
 20
80.66080541693854
 30
0.0
 10
45.72046485808501
 20
80.58169852214776
 30
0.0
  0
SPLINE
  5
A2
330
1F
100
AcDbEntity
  8
0
  6
Continuous
 62
     7
370
    15
100
AcDbSpline
210
0.0
220
0.0
230
1.0
 70
     8
 71
     3
 72
    14
 73
    10
 74
     0
 42
0.00000001
 43
0.00000001
 40
0.0
 40
0.0
 40
0.0
 40
0.0
 40
0.2499999999999994
 40
0.2499999999999994
 40
0.4999999999999988
 40
0.4999999999999988
 40
0.7499999999999982
 40
0.7499999999999982
 40
1.0
 40
1.0
 40
1.0
 40
1.0
 10
44.74391261638019
 20
81.4018948800588
 30
0.0
 10
44.74391261638018
 20
81.36064794903447
 30
0.0
 10
44.75252233276143
 20
81.32374097675199
 30
0.0
 10
44.78360851233179
 20
81.26284091685257
 30
0.0
 10
44.80599806581584
 20
81.23865999731288
 30
0.0
 10
44.86074199699194
 20
81.2046924064296
 30
0.0
 10
44.89319223657714
 20
81.19477232246143
 30
0.0
 10
44.96319375130523
 20
81.19342111355658
 30
0.0
 10
45.00140425142774
 20
81.20157939025273
 30
0.0
 10
45.03472684810084
 20
81.22608146992083
 30
0.0
  0
LINE
  5
A3
330
1F
100
AcDbEntity
  8
0
  6
Continuous
 62
     7
370
    15
100
AcDbLine
 10
44.7439126164
 20
81.4018948801
 30
0.0
 11
44.7439126164
 21
142.4072343652
 31
0.0
  0
SPLINE
  5
A4
330
1F
100
AcDbEntity
  8
0
  6
Continuous
 62
     7
370
    15
100
AcDbSpline
210
0.0
220
0.0
230
1.0
 70
     8
 71
     3
 72
    10
 73
     6
 74
     0
 42
0.00000001
 43
0.00000001
 40
0.0
 40
0.0
 40
0.0
 40
0.0
 40
0.0592402688376383
 40
0.6438088530391344
 40
1.0
 40
1.0
 40
1.0
 40
1.0
 10
45.03472684810082
 20
142.5830477753326
 30
0.0
 10
45.02989459047962
 20
142.5862966819643
 30
0.0
 10
44.97737878834489
 20
142.6216050101199
 30
0.0
 10
44.87842859066611
 20
142.6278593066785
 30
0.0
 10
44.82900006577476
 20
142.5726590689896
 30
0.0
 10
44.81028540103046
 20
142.5517591140663
 30
0.0
  0
SPLINE
  5
A5
330
1F
100
AcDbEntity
  8
0
  6
Continuous
 62
     7
370
    15
100
AcDbSpline
210
0.0
220
0.0
230
1.0
 70
     8
 71
     3
 72
     8
 73
     4
 74
     0
 42
0.00000001
 43
0.00000001
 40
0.0
 40
0.0
 40
0.0
 40
0.0
 40
1.0
 40
1.0
 40
1.0
 40
1.0
 10
44.76754628531639
 20
142.5148138662643
 30
0.0
 10
44.75219724668035
 20
142.4843038112684
 30
0.0
 10
44.74391261638019
 20
142.447992255756
 30
0.0
 10
44.74391261638019
 20
142.4072343651947
 30
0.0
  0
SPLINE
  5
A6
330
1F
100
AcDbEntity
  8
0
  6
Continuous
 62
     7
370
    15
100
AcDbSpline
210
0.0
220
0.0
230
1.0
 70
     8
 71
     3
 72
    20
 73
    16
 74
     0
 42
0.00000001
 43
0.00000001
 40
0.0
 40
0.0
 40
0.0
 40
0.0
 40
0.2500000000000037
 40
0.2500000000000037
 40
0.3750000000000055
 40
0.3750000000000055
 40
0.5000000000000073
 40
0.5000000000000073
 40
0.5625000000000057
 40
0.5625000000000057
 40
0.625000000000004
 40
0.625000000000004
 40
0.7500000000000027
 40
0.7500000000000027
 40
1.0
 40
1.0
 40
1.0
 40
1.0
 10
45.72046485808259
 20
143.2274307231049
 30
0.0
 10
45.68046864025877
 20
143.1485523165474
 30
0.0
 10
45.63535501242111
 20
143.0654226698559
 30
0.0
 10
45.55210079805458
 20
142.931934005505
 30
0.0
 10
45.52188146943409
 20
142.886068949623
 30
0.0
 10
45.44979323429266
 20
142.7878773972181
 30
0.0
 10
45.40787591688159
 20
142.7355675776945
 30
0.0
 10
45.33662531233011
 20
142.66356167496
 30
0.0
 10
45.3123894999508
 20
142.6417914626585
 30
0.0
 10
45.26679130976616
 20
142.6063168043295
 30
0.0
 10
45.24598882016644
 20
142.5929466201519
 30
0.0
 10
45.19104782174732
 20
142.5633767080167
 30
0.0
 10
45.1629788336605
 20
142.5562501857147
 30
0.0
 10
45.09247600359767
 20
142.549375814232
 30
0.0
 10
45.06105191580679
 20
142.5636909733192
 30
0.0
 10
45.0347268480982
 20
142.5830477753297
 30
0.0
  0
SPLINE
  5
A7
330
1F
100
AcDbEntity
  8
0
  6
Continuous
 62
     7
370
    15
100
AcDbSpline
210
0.0
220
0.0
230
1.0
 70
     8
 71
     3
 72
    10
 73
     6
 74
     0
 42
0.00000001
 43
0.00000001
 40
0.0
 40
0.0
 40
0.0
 40
0.0
 40
0.4999999999999989
 40
0.4999999999999989
 40
1.0
 40
1.0
 40
1.0
 40
1.0
 10
46.39391261638018
 20
144.1528498244467
 30
0.0
 10
46.26902434562999
 20
144.0218535463753
 30
0.0
 10
46.14757422756954
 20
143.8781407097102
 30
0.0
 10
45.91799025261211
 20
143.567570417021
 30
0.0
 10
45.80771527721614
 20
143.399501343958
 30
0.0
 10
45.72046485808261
 20
143.2274307231049
 30
0.0
  0
SPLINE
  5
A8
330
1F
100
AcDbEntity
  8
0
  6
Continuous
 62
     7
370
    15
100
AcDbSpline
210
0.0
220
0.0
230
1.0
 70
     8
 71
     3
 72
     8
 73
     4
 74
     0
 42
0.00000001
 43
0.00000001
 40
0.0
 40
0.0
 40
0.0
 40
0.0
 40
1.0
 40
1.0
 40
1.0
 40
1.0
 10
46.64383773234596
 20
144.1503967911914
 30
0.0
 10
46.55681970249758
 20
144.1508633559784
 30
0.0
 10
46.47386567611764
 20
144.1519033755545
 30
0.0
 10
46.39391261637788
 20
144.1528498244468
 30
0.0
  0
SPLINE
  5
A9
330
1F
100
AcDbEntity
  8
0
  6
Continuous
 62
     7
370
    15
100
AcDbSpline
210
0.0
220
0.0
230
1.0
 70
     8
 71
     3
 72
     8
 73
     4
 74
     0
 42
0.00000001
 43
0.00000001
 40
0.0
 40
0.0
 40
0.0
 40
0.0
 40
1.0
 40
1.0
 40
1.0
 40
1.0
 10
46.39391261637788
 20
79.65627942080665
 30
0.0
 10
46.47386567611764
 20
79.65722586969892
 30
0.0
 10
46.55681970249758
 20
79.65826588927504
 30
0.0
 10
46.64383773234597
 20
79.6587324540621
 30
0.0
  0
SPLINE
  5
AA
330
1F
100
AcDbEntity
  8
0
  6
Continuous
 62
     7
370
    15
100
AcDbSpline
210
0.0
220
0.0
230
1.0
 70
     8
 71
     3
 72
    10
 73
     6
 74
     0
 42
0.00000001
 43
0.00000001
 40
0.0
 40
0.0
 40
0.0
 40
0.0
 40
0.4999999999999989
 40
0.4999999999999989
 40
1.0
 40
1.0
 40
1.0
 40
1.0
 10
45.72046485808168
 20
80.58169852215033
 30
0.0
 10
45.80771527721517
 20
80.40962790129697
 30
0.0
 10
45.91799025261131
 20
80.24155882823352
 30
0.0
 10
46.14757422756915
 20
79.9309885355437
 30
0.0
 10
46.26902434562979
 20
79.78727569887843
 30
0.0
 10
46.39391261638018
 20
79.65627942080673
 30
0.0
  0
SPLINE
  5
AB
330
1F
100
AcDbEntity
  8
0
  6
Continuous
 62
     7
370
    15
100
AcDbSpline
210
0.0
220
0.0
230
1.0
 70
     8
 71
     3
 72
     8
 73
     4
 74
     0
 42
0.00000001
 43
0.00000001
 40
0.0
 40
0.0
 40
0.0
 40
0.0
 40
1.0
 40
1.0
 40
1.0
 40
1.0
 10
117.9059416373016
 20
160.8943594782903
 30
0.0
 10
117.4549146685883
 20
160.0970489081024
 30
0.0
 10
117.0042208520647
 20
159.2995506084453
 30
0.0
 10
116.5539126163802
 20
158.5018354833316
 30
0.0
  0
LINE
  5
AC
330
1F
100
AcDbEntity
  8
0
  6
Continuous
 62
     7
370
    15
100
AcDbLine
 10
117.9059416373
 20
150.8555273835
 30
0.0
 11
117.9059416373
 21
160.8943594783
 31
0.0
  0
SPLINE
  5
AD
330
1F
100
AcDbEntity
  8
0
  6
Continuous
 62
     7
370
    15
100
AcDbSpline
210
0.0
220
0.0
230
1.0
 70
     8
 71
     3
 72
     8
 73
     4
 74
     0
 42
0.00000001
 43
0.00000001
 40
0.0
 40
0.0
 40
0.0
 40
0.0
 40
1.0
 40
1.0
 40
1.0
 40
1.0
 10
116.5539126163802
 20
147.8000121287646
 30
0.0
 10
116.9980626274057
 20
148.8213953597162
 30
0.0
 10
117.4491369376636
 20
149.8398798964846
 30
0.0
 10
117.9059416373016
 20
150.8555273835137
 30
0.0
  0
LINE
  5
AE
330
1F
100
AcDbEntity
  8
0
  6
Continuous
 62
     7
370
    15
100
AcDbLine
 10
116.5539126164
 20
147.8000121288
 30
0.0
 11
116.5539126164
 21
158.5018354833
 31
0.0
  0
SPLINE
  5
AF
330
1F
100
AcDbEntity
  8
0
  6
Continuous
 62
     7
370
    15
100
AcDbSpline
210
0.0
220
0.0
230
1.0
 70
     8
 71
     3
 72
    12
 73
     8
 74
     0
 42
0.00000001
 43
0.00000001
 40
0.0
 40
0.0
 40
0.0
 40
0.0
 40
0.5
 40
0.5
 40
0.75
 40
0.75
 40
1.0
 40
1.0
 40
1.0
 40
1.0
 10
123.5939126163802
 20
159.8733044434726
 30
0.0
 10
123.5939126163802
 20
160.138573876239
 30
0.0
 10
123.4893058728937
 20
160.4010889818914
 30
0.0
 10
123.2126375211484
 20
160.6866265879286
 30
0.0
 10
123.1022722617964
 20
160.76294820479
 30
0.0
 10
122.8582002131807
 20
160.8672903696302
 30
0.0
 10
122.726447751849
 20
160.8943594782903
 30
0.0
 10
122.5939126163802
 20
160.8943594782903
 30
0.0
  0
SPLINE
  5
B0
330
1F
100
AcDbEntity
  8
0
  6
Continuous
 62
     7
370
    15
100
AcDbSpline
210
0.0
220
0.0
230
1.0
 70
     8
 71
     3
 72
    16
 73
    12
 74
     0
 42
0.00000001
 43
0.00000001
 40
0.0
 40
0.0
 40
0.0
 40
0.0
 40
0.125
 40
0.125
 40
0.25
 40
0.25
 40
0.5
 40
0.5
 40
0.75
 40
0.75
 40
1.0
 40
1.0
 40
1.0
 40
1.0
 10
122.5939126163792
 20
150.8555273835136
 30
0.0
 10
122.6695503227904
 20
150.8555273835138
 30
0.0
 10
122.7458659872087
 20
150.8441823833789
 30
0.0
 10
122.8902767251008
 20
150.8015298327405
 30
0.0
 10
122.9587231742092
 20
150.7705955080577
 30
0.0
 10
123.1536544268226
 20
150.6513391362902
 30
0.0
 10
123.2614956006036
 20
150.5411871226696
 30
0.0
 10
123.4302083488159
 20
150.2930510370115
 30
0.0
 10
123.4925727615394
 20
150.1527087130078
 30
0.0
 10
123.5738766860479
 20
149.864437021519
 30
0.0
 10
123.5939126163802
 20
149.713632048539
 30
0.0
 10
123.5939126163802
 20
149.5632621571937
 30
0.0
  0
LINE
  5
B1
330
1F
100
AcDbEntity
  8
0
  6
Continuous
 62
     7
370
    15
100
AcDbLine
 10
123.5939126164
 20
149.5632621572
 30
0.0
 11
123.5939126164
 21
159.8733044435
 31
0.0
  0
SPLINE
  5
B2
330
1F
100
AcDbEntity
  8
0
  6
Continuous
 62
     7
370
    15
100
AcDbSpline
210
0.0
220
0.0
230
1.0
 70
     8
 71
     3
 72
     8
 73
     4
 74
     0
 42
0.00000001
 43
0.00000001
 40
0.0
 40
0.0
 40
0.0
 40
0.0
 40
1.0
 40
1.0
 40
1.0
 40
1.0
 10
112.7339126163802
 20
158.5018354833316
 30
0.0
 10
112.2836043806956
 20
159.2995506084453
 30
0.0
 10
111.832910564172
 20
160.0970489081024
 30
0.0
 10
111.3818835954588
 20
160.8943594782903
 30
0.0
  0
LINE
  5
B3
330
1F
100
AcDbEntity
  8
0
  6
Continuous
 62
     7
370
    15
100
AcDbLine
 10
112.7339126164
 20
147.8000121288
 30
0.0
 11
112.7339126164
 21
158.5018354833
 31
0.0
  0
SPLINE
  5
B4
330
1F
100
AcDbEntity
  8
0
  6
Continuous
 62
     7
370
    15
100
AcDbSpline
210
0.0
220
0.0
230
1.0
 70
     8
 71
     3
 72
     8
 73
     4
 74
     0
 42
0.00000001
 43
0.00000001
 40
0.0
 40
0.0
 40
0.0
 40
0.0
 40
1.0
 40
1.0
 40
1.0
 40
1.0
 10
111.3818835954588
 20
150.8555273835136
 30
0.0
 10
111.8388099492583
 20
149.8396094138393
 30
0.0
 10
112.2900155910614
 20
148.8208135847482
 30
0.0
 10
112.7339126163802
 20
147.8000121287646
 30
0.0
  0
LINE
  5
B5
330
1F
100
AcDbEntity
  8
0
  6
Continuous
 62
     7
370
    15
100
AcDbLine
 10
112.7339126164
 20
147.8000121288
 30
0.0
 11
112.7339126164
 21
146.6187998151
 31
0.0
  0
SPLINE
  5
B6
330
1F
100
AcDbEntity
  8
0
  6
Continuous
 62
     7
370
    15
100
AcDbSpline
210
0.0
220
0.0
230
1.0
 70
     8
 71
     3
 72
    14
 73
    10
 74
     0
 42
0.00000001
 43
0.00000001
 40
0.0
 40
0.0
 40
0.0
 40
0.0
 40
0.25
 40
0.25
 40
0.5
 40
0.5
 40
0.75
 40
0.75
 40
1.0
 40
1.0
 40
1.0
 40
1.0
 10
112.7339126163802
 20
146.6187998151238
 30
0.0
 10
112.7339126163802
 20
146.4949329383346
 30
0.0
 10
112.7497717440078
 20
146.370673261497
 30
0.0
 10
112.8131333895277
 20
146.1330648990912
 30
0.0
 10
112.861723097577
 20
146.0162845143387
 30
0.0
 10
112.9940087023519
 20
145.8074819857297
 30
0.0
 10
113.0793334936125
 20
145.7129712821371
 30
0.0
 10
113.2862247419186
 20
145.5750144813348
 30
0.0
 10
113.4101926878086
 20
145.5330960356991
 30
0.0
 10
113.5339126163802
 20
145.5330960356991
 30
0.0
  0
LINE
  5
B7
330
1F
100
AcDbEntity
  8
0
  6
Continuous
 62
     7
370
    15
100
AcDbLine
 10
113.5339126164
 20
145.5330960357
 30
0.0
 11
115.7539126164
 21
145.5330960357
 31
0.0
  0
SPLINE
  5
B8
330
1F
100
AcDbEntity
  8
0
  6
Continuous
 62
     7
370
    15
100
AcDbSpline
210
0.0
220
0.0
230
1.0
 70
     8
 71
     3
 72
    12
 73
     8
 74
     0
 42
0.00000001
 43
0.00000001
 40
0.0
 40
0.0
 40
0.0
 40
0.0
 40
0.250000000000002
 40
0.250000000000002
 40
0.500000000000004
 40
0.500000000000004
 40
1.0
 40
1.0
 40
1.0
 40
1.0
 10
115.7539126163822
 20
145.5330960356992
 30
0.0
 10
115.8776135663621
 20
145.5330960356997
 30
0.0
 10
116.0017101786319
 20
145.5750896474325
 30
0.0
 10
116.2083653417184
 20
145.7128849740771
 30
0.0
 10
116.293406108445
 20
145.8068585725419
 30
0.0
 10
116.492884676918
 20
146.1216467787627
 30
0.0
 10
116.5539126163802
 20
146.3718857709898
 30
0.0
 10
116.5539126163802
 20
146.6187998151238
 30
0.0
  0
LINE
  5
B9
330
1F
100
AcDbEntity
  8
0
  6
Continuous
 62
     7
370
    15
100
AcDbLine
 10
116.5539126164
 20
146.6187998151
 30
0.0
 11
116.5539126164
 21
147.8000121288
 31
0.0
  0
LINE
  5
BA
330
1F
100
AcDbEntity
  8
0
  6
Continuous
 62
     7
370
    15
100
AcDbLine
 10
117.9059416373
 20
150.8555273835
 30
0.0
 11
122.5939126164
 21
150.8555273835
 31
0.0
  0
LINE
  5
BB
330
1F
100
AcDbEntity
  8
0
  6
Continuous
 62
     7
370
    15
100
AcDbLine
 10
123.5939126164
 20
149.5632621572
 30
0.0
 11
123.5939126164
 21
143.2545646226
 31
0.0
  0
LINE
  5
BC
330
1F
100
AcDbEntity
  8
0
  6
Continuous
 62
     7
370
    15
100
AcDbLine
 10
122.5939126164
 20
160.8943594783
 30
0.0
 11
117.9059416373
 21
160.8943594783
 31
0.0
  0
SPLINE
  5
BD
330
1F
100
AcDbEntity
  8
0
  6
Continuous
 62
     7
370
    15
100
AcDbSpline
210
0.0
220
0.0
230
1.0
 70
     8
 71
     3
 72
    14
 73
    10
 74
     0
 42
0.00000001
 43
0.00000001
 40
0.0
 40
0.0
 40
0.0
 40
0.0
 40
0.25
 40
0.25
 40
0.5
 40
0.5
 40
0.75
 40
0.75
 40
1.0
 40
1.0
 40
1.0
 40
1.0
 10
116.5539126163802
 20
157.5981158634747
 30
0.0
 10
116.5539126163802
 20
157.4917591697223
 30
0.0
 10
116.5335250602389
 20
157.3859186819622
 30
0.0
 10
116.4548907147774
 20
157.1893537684257
 30
0.0
 10
116.3961593551387
 20
157.0981830261386
 30
0.0
 10
116.2495504495361
 20
156.946271937107
 30
0.0
 10
116.1601451295095
 20
156.8842031002874
 30
0.0
 10
115.9662543969091
 20
156.8009350525287
 30
0.0
 10
115.8597494070193
 20
156.7788403827991
 30
0.0
 10
115.7539126163799
 20
156.7788403827991
 30
0.0
  0
SPLINE
  5
BE
330
1F
100
AcDbEntity
  8
0
  6
Continuous
 62
     7
370
    15
100
AcDbSpline
210
0.0
220
0.0
230
1.0
 70
     8
 71
     3
 72
    10
 73
     6
 74
     0
 42
0.00000001
 43
0.00000001
 40
0.0
 40
0.0
 40
0.0
 40
0.0
 40
0.5
 40
0.5
 40
1.0
 40
1.0
 40
1.0
 40
1.0
 10
113.5339126163802
 20
156.7788403827992
 30
0.0
 10
113.3213763025238
 20
156.7788403827992
 30
0.0
 10
113.1114401308698
 20
156.8702529694293
 30
0.0
 10
112.8177329898586
 20
157.1749978353336
 30
0.0
 10
112.7339126163802
 20
157.3871528052422
 30
0.0
 10
112.7339126163802
 20
157.5981158634747
 30
0.0
  0
LINE
  5
BF
330
1F
100
AcDbEntity
  8
0
  6
Continuous
 62
     7
370
    15
100
AcDbLine
 10
115.7539126164
 20
156.7788403828
 30
0.0
 11
113.5339126164
 21
156.7788403828
 31
0.0
  0
ARC
  5
C0
330
1F
100
AcDbEntity
  8
0
  6
Continuous
 62
     7
370
    15
100
AcDbCircle
 10
103.6447310893
 20
144.4993327849
 30
0.0
 40
11.42132322542671
100
AcDbArc
 50
77.7222110027
 51
102.4914263664
  0
LINE
  5
C1
330
1F
100
AcDbEntity
  8
0
  6
Continuous
 62
     7
370
    15
100
AcDbLine
 10
46.3939126164
 20
79.6545646226
 30
0.0
 11
46.3939126164
 21
79.6562794208
 31
0.0
  0
SPLINE
  5
C2
330
1F
100
AcDbEntity
  8
0
  6
Continuous
 62
     7
370
    15
100
AcDbSpline
210
0.0
220
0.0
230
1.0
 70
     8
 71
     3
 72
    49
 73
    45
 74
     0
 42
0.00000001
 43
0.00000001
 40
-0.0453289120044615
 40
-0.0288496406620621
 40
-0.0137448999159979
 40
0.0
 40
0.0161749300521734
 40
0.0341951114544271
 40
0.054082174621618
 40
0.0758519784581731
 40
0.0995163878708657
 40
0.125084419907809
 40
0.1502122363033236
 40
0.1736095456488748
 40
0.1952861273047417
 40
0.2152544869622061
 40
0.2335308377906355
 40
0.250136553063227
 40
0.2850050262073168
 40
0.3265790049396087
 40
0.374961556188236
 40
0.3970363947910897
 40
0.4177011086886224
 40
0.4369611297403646
 40
0.4548232786308015
 40
0.4712962209806321
 40
0.4863911249004248
 40
0.5001226324881672
 40
0.5342115554725941
 40
0.5757710868831004
 40
0.6248974126761581
 40
0.6465640803633095
 40
0.6669596739984597
 40
0.6860901303074384
 40
0.7039627233128394
 40
0.7205864555666855
 40
0.7359725999386071
 40
0.7501354635862516
 40
0.7849405197649152
 40
0.8264670213194897
 40
0.8748182531463284
 40
0.8968858172448235
 40
0.9175466011002807
 40
0.9368060714714862
 40
0.9546710879955385
 40
0.9711503593379379
 40
0.9862551000840021
 40
1.0
 40
1.016174930052173
 40
1.034195111454427
 40
1.054082174621618
 10
234.7626899245525
 20
107.6657883518593
 30
0.0
 10
235.1656497673195
 20
107.6482702333818
 30
0.0
 10
235.594786241279
 20
107.6702284162631
 30
0.0
 10
236.0726953224621
 20
107.7469214829754
 30
0.0
 10
236.5851527217344
 20
107.8934765807848
 30
0.0
 10
237.1190651619094
 20
108.1251709886881
 30
0.0
 10
237.6566094959046
 20
108.4561035866439
 30
0.0
 10
238.158366345633
 20
108.8835595010982
 30
0.0
 10
238.5851063373687
 20
109.3827344028741
 30
0.0
 10
238.9144288974996
 20
109.9129924598008
 30
0.0
 10
239.1478464309849
 20
110.4435812945215
 30
0.0
 10
239.2976259103121
 20
110.9575054822839
 30
0.0
 10
239.3773138042788
 20
111.4420462286689
 30
0.0
 10
239.4104335685271
 20
112.0662000979234
 30
0.0
 10
239.3182747357055
 20
112.9008462636197
 30
0.0
 10
238.9316406601689
 20
113.9551071022865
 30
0.0
 10
238.334492211784
 20
114.7661982752048
 30
0.0
 10
237.7266744878446
 20
115.2955810969887
 30
0.0
 10
237.2672707124994
 20
115.5989268803613
 30
0.0
 10
236.80635695197
 20
115.8263812569989
 30
0.0
 10
236.3562544062093
 20
115.9866121147707
 30
0.0
 10
235.9267654356986
 20
116.0889895982387
 30
0.0
 10
235.525049528544
 20
116.1433287747824
 30
0.0
 10
234.9621130385366
 20
116.1678729683567
 30
0.0
 10
234.160484864557
 20
116.0810895551602
 30
0.0
 10
233.1052398636774
 20
115.6997596201732
 30
0.0
 10
232.2899885008277
 20
115.1026696806465
 30
0.0
 10
231.75939865944
 20
114.4951890490325
 30
0.0
 10
231.4583733680215
 20
114.0427687954789
 30
0.0
 10
231.2302333648429
 20
113.5859299274947
 30
0.0
 10
231.0675793344999
 20
113.1362634259053
 30
0.0
 10
230.9622693125691
 20
112.7032102253188
 30
0.0
 10
230.9055902812573
 20
112.2938468827483
 30
0.0
 10
230.8799917806564
 20
111.7180265606938
 30
0.0
 10
230.9701462621185
 20
110.9062906387717
 30
0.0
 10
231.3566341472451
 20
109.8534164387457
 30
0.0
 10
231.9533249608126
 20
109.0430028650229
 30
0.0
 10
232.5607952611378
 20
108.5138280433315
 30
0.0
 10
233.0200664954836
 20
108.2104858488632
 30
0.0
 10
233.480933110179
 20
107.9829741443019
 30
0.0
 10
233.9310847582802
 20
107.8226554899498
 30
0.0
 10
234.3607395529377
 20
107.7201959668481
 30
0.0
 10
234.7626899245525
 20
107.6657883518593
 30
0.0
 10
235.1656497673195
 20
107.6482702333818
 30
0.0
 10
235.594786241279
 20
107.6702284162631
 30
0.0
  0
SPLINE
  5
C3
330
1F
100
AcDbEntity
  8
0
  6
Continuous
 62
     7
370
    15
100
AcDbSpline
210
0.0
220
0.0
230
1.0
 70
     8
 71
     3
 72
    39
 73
    35
 74
     0
 42
0.00000001
 43
0.00000001
 40
-0.0928043551750408
 40
-0.0617048467358693
 40
-0.0305245298597148
 40
0.0
 40
0.0305379537717707
 40
0.0617396733444513
 40
0.09285115628687
 40
0.1239581635814553
 40
0.1551451718001443
 40
0.186731450016587
 40
0.2185162744071169
 40
0.2499298363872137
 40
0.2813650559790402
 40
0.3132232878484134
 40
0.3448819419199328
 40
0.3761241187089811
 40
0.4072203283789534
 40
0.4382883502616825
 40
0.4694286048552411
 40
0.5000111438430843
 40
0.5305819932533731
 40
0.5617670451414649
 40
0.592846845094129
 40
0.6239637556317477
 40
0.6551794805633643
 40
0.6868189513443826
 40
0.718622985622392
 40
0.750061496863888
 40
0.781467178030319
 40
0.8132975981519408
 40
0.8449019848412255
 40
0.8761138750536711
 40
0.9071956448249592
 40
0.9382951532641307
 40
0.9694754701402852
 40
1.0
 40
1.030537953771771
 40
1.061739673344451
 40
1.09285115628687
 10
236.1029230329225
 20
106.9653584219025
 30
0.0
 10
235.1437726611657
 20
106.867272608167
 30
0.0
 10
234.1844019910017
 20
106.9654231195188
 30
0.0
 10
233.2639697316125
 20
107.2599973395184
 30
0.0
 10
232.4136887845831
 20
107.7223959526674
 30
0.0
 10
231.6765229220977
 20
108.3453272559646
 30
0.0
 10
231.070904068035
 20
109.1031289888556
 30
0.0
 10
230.6222404080112
 20
109.9741901552438
 30
0.0
 10
230.3371432232274
 20
110.9186842317608
 30
0.0
 10
230.2427223399789
 20
111.9025288187742
 30
0.0
 10
230.3377211441325
 20
112.8870687788503
 30
0.0
 10
230.6231789886248
 20
113.8332384600587
 30
0.0
 10
231.0720943173348
 20
114.7065038692561
 30
0.0
 10
231.6781460337683
 20
115.4655184320427
 30
0.0
 10
232.4150727331811
 20
116.0886955795776
 30
0.0
 10
233.2642325094649
 20
116.5507306708651
 30
0.0
 10
234.1844005737499
 20
116.8442671846764
 30
0.0
 10
235.1440985487965
 20
116.9416997596268
 30
0.0
 10
236.1042400420805
 20
116.8440021523025
 30
0.0
 10
237.0247275470059
 20
116.5499493719766
 30
0.0
 10
237.8745407033301
 20
116.0874566172665
 30
0.0
 10
238.611255137493
 20
115.4638906607313
 30
0.0
 10
239.2168032980401
 20
114.7048330386279
 30
0.0
 10
239.665144641083
 20
113.8324165042878
 30
0.0
 10
239.9500564996554
 20
112.886860481642
 30
0.0
 10
240.0450914914744
 20
111.9029590691494
 30
0.0
 10
239.9507800980811
 20
110.9186614734186
 30
0.0
 10
239.6652950400305
 20
109.9736630958192
 30
0.0
 10
239.2161898538742
 20
109.1018076370547
 30
0.0
 10
238.6101193381333
 20
108.3440981908155
 30
0.0
 10
237.8727640463017
 20
107.7216077834243
 30
0.0
 10
237.0229099754466
 20
107.2597066182483
 30
0.0
 10
236.1029230329225
 20
106.9653584219025
 30
0.0
 10
235.1437726611657
 20
106.867272608167
 30
0.0
 10
234.1844019910017
 20
106.9654231195188
 30
0.0
  0
LINE
  5
C4
330
1F
100
AcDbEntity
  8
0
  6
Continuous
 62
     7
370
    15
100
AcDbLine
 10
243.9213780138
 20
94.4045646226
 30
0.0
 11
243.9213780138
 21
129.4045646226
 31
0.0
  0
SPLINE
  5
C5
330
1F
100
AcDbEntity
  8
0
  6
Continuous
 62
     7
370
    15
100
AcDbSpline
210
0.0
220
0.0
230
1.0
 70
     8
 71
     3
 72
    68
 73
    64
 74
     0
 42
0.00000001
 43
0.00000001
 40
-0.0625000000000002
 40
-0.0625000000000002
 40
0.0
 40
0.0
 40
0.03125
 40
0.03125
 40
0.0625
 40
0.0625
 40
0.09375
 40
0.09375
 40
0.1249999999999999
 40
0.1249999999999999
 40
0.1562499999999999
 40
0.1562499999999999
 40
0.1874999999999999
 40
0.1874999999999999
 40
0.2187499999999999
 40
0.2187499999999999
 40
0.2499999999999999
 40
0.2499999999999999
 40
0.2812499999999999
 40
0.2812499999999999
 40
0.3124999999999999
 40
0.3124999999999999
 40
0.3437499999999998
 40
0.3437499999999998
 40
0.3749999999999998
 40
0.3749999999999998
 40
0.4062499999999998
 40
0.4062499999999998
 40
0.4374999999999998
 40
0.4374999999999998
 40
0.4687499999999998
 40
0.4687499999999998
 40
0.4999999999999998
 40
0.4999999999999998
 40
0.5312499999999998
 40
0.5312499999999998
 40
0.5624999999999998
 40
0.5624999999999998
 40
0.5937499999999998
 40
0.5937499999999998
 40
0.6249999999999998
 40
0.6249999999999998
 40
0.6562499999999997
 40
0.6562499999999997
 40
0.6874999999999997
 40
0.6874999999999997
 40
0.7187499999999997
 40
0.7187499999999997
 40
0.7499999999999997
 40
0.7499999999999997
 40
0.7812499999999997
 40
0.7812499999999997
 40
0.8124999999999997
 40
0.8124999999999997
 40
0.8437499999999997
 40
0.8437499999999997
 40
0.8749999999999996
 40
0.8749999999999996
 40
0.9062499999999997
 40
0.9062499999999997
 40
0.9374999999999998
 40
0.9374999999999998
 40
1.0
 40
1.0
 40
1.03125
 40
1.03125
 10
160.9162554785699
 20
113.8923102492483
 30
0.0
 10
161.4248552214023
 20
114.2909170265498
 30
0.0
 10
161.6041146522307
 20
114.4059009904201
 30
0.0
 10
161.9801957662829
 20
114.6038227877844
 30
0.0
 10
162.1780712458807
 20
114.6870472115621
 30
0.0
 10
162.5871051619677
 20
114.8197572228121
 30
0.0
 10
162.7948342781252
 20
114.8683269886392
 30
0.0
 10
163.2164183408302
 20
114.931691859863
 30
0.0
 10
163.4319095482223
 20
114.9464226012819
 30
0.0
 10
163.8614042985629
 20
114.9407126095828
 30
0.0
 10
164.073529596281
 20
114.9205927838932
 30
0.0
 10
164.4926350322313
 20
114.846414566634
 30
0.0
 10
164.7010926579254
 20
114.7918259631575
 30
0.0
 10
165.1055995416607
 20
114.6483700293676
 30
0.0
 10
165.299183341337
 20
114.5606809340307
 30
0.0
 10
165.6688736812172
 20
114.3529125000059
 30
0.0
 10
165.8461335073239
 20
114.2319206506456
 30
0.0
 10
166.1759126974434
 20
113.9573054855521
 30
0.0
 10
166.3252385328243
 20
113.8066909510413
 30
0.0
 10
166.5914470171122
 20
113.4775220357457
 30
0.0
 10
166.7095175688115
 20
113.2966566310881
 30
0.0
 10
166.9017552039927
 20
112.9127848773675
 30
0.0
 10
166.9748011190828
 20
112.7132873073202
 30
0.0
 10
167.0726151861822
 20
112.298411755691
 30
0.0
 10
167.096760423018
 20
112.080345757083
 30
0.0
 10
167.0905092132202
 20
111.6527776463304
 30
0.0
 10
167.0609471037566
 20
111.4393851585487
 30
0.0
 10
166.9500171066244
 20
111.0217450104039
 30
0.0
 10
166.870545077098
 20
110.8231908991661
 30
0.0
 10
166.667724655173
 20
110.4447694122616
 30
0.0
 10
166.5444067036326
 20
110.2662293688398
 30
0.0
 10
166.2671627016428
 20
109.9412875181054
 30
0.0
 10
166.1105027841632
 20
109.7916042089222
 30
0.0
 10
165.7740764364717
 20
109.5259553688576
 30
0.0
 10
165.5949911175176
 20
109.4099344586219
 30
0.0
 10
165.2164093835785
 20
109.209197240143
 30
0.0
 10
165.0165161697266
 20
109.1247938351151
 30
0.0
 10
164.6104501682336
 20
108.9920317031401
 30
0.0
 10
164.4026037383197
 20
108.942687908552
 30
0.0
 10
163.9772934633177
 20
108.8778970901295
 30
0.0
 10
163.7613604057327
 20
108.8630042389803
 30
0.0
 10
163.3345142625478
 20
108.8679506081838
 30
0.0
 10
163.1219219810525
 20
108.8874978050501
 30
0.0
 10
162.6984492137806
 20
108.9618346137098
 30
0.0
 10
162.4891519765228
 20
109.0166945328789
 30
0.0
 10
162.087667695686
 20
109.1585847995042
 30
0.0
 10
161.8936450330835
 20
109.2458693599429
 30
0.0
 10
161.5199026912641
 20
109.4554530321793
 30
0.0
 10
161.3411777523952
 20
109.5777614268108
 30
0.0
 10
161.0147696499394
 20
109.8493206295461
 30
0.0
 10
160.8649959600464
 20
109.9995854816256
 30
0.0
 10
160.5954138111823
 20
110.3326741216099
 30
0.0
 10
160.4769553507246
 20
110.5148895738278
 30
0.0
 10
160.2859027291389
 20
110.8969641250795
 30
0.0
 10
160.2109738706787
 20
111.1017798193797
 30
0.0
 10
160.1136175716496
 20
111.5203345619073
 30
0.0
 10
160.0906751591247
 20
111.7326210947339
 30
0.0
 10
160.0978763669297
 20
112.1634083430704
 30
0.0
 10
160.128732604528
 20
112.3790250744574
 30
0.0
 10
160.2398327341153
 20
112.7926254571974
 30
0.0
 10
160.321535377946
 20
112.9954319757235
 30
0.0
 10
160.6273505730697
 20
113.561245487548
 30
0.0
 10
160.9162554785699
 20
113.8923102492483
 30
0.0
 10
161.4248552214023
 20
114.2909170265498
 30
0.0
  0
SPLINE
  5
C6
330
1F
100
AcDbEntity
  8
0
  6
Continuous
 62
     7
370
    15
100
AcDbSpline
210
0.0
220
0.0
230
1.0
 70
     8
 71
     3
 72
     9
 73
     5
 74
     0
 42
0.00000001
 43
0.00000001
 40
0.0
 40
0.0
 40
0.0
 40
0.0
 40
0.8188350292843365
 40
0.9999999999999999
 40
0.9999999999999999
 40
0.9999999999999999
 40
0.9999999999999999
 10
161.2553219731447
 20
94.55026221056742
 30
0.0
 10
161.1850419544081
 20
94.54302253158986
 30
0.0
 10
161.0992126771749
 20
94.5341810937927
 30
0.0
 10
161.0224387600105
 20
94.52535250886478
 30
0.0
 10
161.0085300155557
 20
94.52375307853487
 30
0.0
  0
SPLINE
  5
C7
330
1F
100
AcDbEntity
  8
0
  6
Continuous
 62
     7
370
    15
100
AcDbSpline
210
0.0
220
0.0
230
1.0
 70
     8
 71
     3
 72
    33
 73
    29
 74
     0
 42
0.00000001
 43
0.00000001
 40
0.0
 40
0.0
 40
0.0
 40
0.0
 40
0.0015263165937721
 40
0.0475969651512854
 40
0.089339172542342
 40
0.1321779073755075
 40
0.1762896766503193
 40
0.221413853901644
 40
0.271235047801912
 40
0.3221837444103218
 40
0.3787070069359281
 40
0.4366193144460018
 40
0.4672316207130525
 40
0.4980459364117774
 40
0.5294942843929852
 40
0.5611612246041555
 40
0.59256948670685
 40
0.6242006433818342
 40
0.6565525681440036
 40
0.6891629404597773
 40
0.7197066764307677
 40
0.7504913261514703
 40
0.7820927875352531
 40
0.8140049463682136
 40
0.8605897878663539
 40
0.908459666574931
 40
0.9550877708299963
 40
1.0
 40
1.0
 40
1.0
 40
1.0
 10
160.0952466165697
 20
94.40476184002281
 30
0.0
 10
160.0948039854956
 20
94.40469640466831
 30
0.0
 10
160.0810008886208
 20
94.40265585534769
 30
0.0
 10
160.1298708169824
 20
94.40992583817004
 30
0.0
 10
160.2424265057062
 20
94.42632978999373
 30
0.0
 10
160.4277927824085
 20
94.45229686752444
 30
0.0
 10
160.6766678444862
 20
94.48498735493892
 30
0.0
 10
160.9952532553855
 20
94.5232331941554
 30
0.0
 10
161.3807733008861
 20
94.5639497818921
 30
0.0
 10
161.8426431291548
 20
94.60450128241357
 30
0.0
 10
162.3672903359312
 20
94.63947280063687
 30
0.0
 10
162.8518796029501
 20
94.65984129704965
 30
0.0
 10
163.2580502596476
 20
94.66874614614785
 30
0.0
 10
163.5764417521909
 20
94.67127402613768
 30
0.0
 10
163.898566612356
 20
94.66923357713466
 30
0.0
 10
164.2206411670356
 20
94.66255429735196
 30
0.0
 10
164.5389785548138
 20
94.65143174882921
 30
0.0
 10
164.8529538224343
 20
94.63610656940101
 30
0.0
 10
165.1616267136217
 20
94.61683454435548
 30
0.0
 10
165.454971282804
 20
94.59463892471258
 30
0.0
 10
165.7295514746345
 20
94.57053427349832
 30
0.0
 10
165.9853207547477
 20
94.54525766893555
 30
0.0
 10
166.2257664891822
 20
94.51900006699205
 30
0.0
 10
166.4800129541958
 20
94.48881156542973
 30
0.0
 10
166.7296529918339
 20
94.45647717350775
 30
0.0
 10
166.937110813424
 20
94.42756981037923
 30
0.0
 10
167.0704741159075
 20
94.4080660004383
 30
0.0
 10
167.0841442386736
 20
94.40602063095183
 30
0.0
 10
167.0908511804498
 20
94.40501711589265
 30
0.0
  0
LINE
  5
C8
330
1F
100
AcDbEntity
  8
0
  6
Continuous
 62
     7
370
    15
100
AcDbLine
 10
161.3428470678
 20
94.5587011258
 30
0.0
 11
161.2553219731
 21
94.5502622106
 31
0.0
  0
SPLINE
  5
C9
330
1F
100
AcDbEntity
  8
0
  6
Continuous
 62
     7
370
    15
100
AcDbSpline
210
0.0
220
0.0
230
1.0
 70
     8
 71
     3
 72
    33
 73
    29
 74
     0
 42
0.00000001
 43
0.00000001
 40
0.0
 40
0.0
 40
0.0
 40
0.0
 40
0.0155464664597162
 40
0.0607506164965801
 40
0.1025582771010645
 40
0.145432685058182
 40
0.1902582075945385
 40
0.2361025172122163
 40
0.2869626459629733
 40
0.3389825648900017
 40
0.3964391497715228
 40
0.4553323600213068
 40
0.4861728564024817
 40
0.5172192647867555
 40
0.5489144790881633
 40
0.5808344642546259
 40
0.6122259420985191
 40
0.6438430316205606
 40
0.6761943051043076
 40
0.7088110627198956
 40
0.7390325747232677
 40
0.7694974066219682
 40
0.8007928787895243
 40
0.8324066568067484
 40
0.8779170554603113
 40
0.9246889604846686
 40
0.9702375774836388
 40
1.0
 40
1.0
 40
1.0
 40
1.0
 10
167.0849706140026
 20
129.4032384669121
 30
0.0
 10
167.0873638366413
 20
129.4035933355005
 30
0.0
 10
167.0967157849504
 20
129.4049800483962
 30
0.0
 10
167.0311905410716
 20
129.3952486360841
 30
0.0
 10
166.8949208216683
 20
129.375598980387
 30
0.0
 10
166.6900352052432
 20
129.3473873450938
 30
0.0
 10
166.4207405033063
 20
129.3128711731017
 30
0.0
 10
166.080405599015
 20
129.2734177252884
 30
0.0
 10
165.672942002748
 20
129.2324672248245
 30
0.0
 10
165.1894046585125
 20
129.1930065151207
 30
0.0
 10
164.645289548404
 20
129.1606694994332
 30
0.0
 10
164.1481340691168
 20
129.1438173362998
 30
0.0
 10
163.7349587818399
 20
129.1383024012572
 30
0.0
 10
163.4138023366039
 20
129.13855932064
 30
0.0
 10
163.0901755123334
 20
129.143467278281
 30
0.0
 10
162.768883028291
 20
129.1529711903746
 30
0.0
 10
162.4536698215508
 20
129.1667287812701
 30
0.0
 10
162.1451340314862
 20
129.1843903766194
 30
0.0
 10
161.8434275662948
 20
129.2056665131835
 30
0.0
 10
161.5595046888097
 20
129.2293235805525
 30
0.0
 10
161.29661904869
 20
129.2542702217694
 30
0.0
 10
161.0546178992326
 20
129.2797524925147
 30
0.0
 10
160.8294210494393
 20
129.3056491984809
 30
0.0
 10
160.5960469281526
 20
129.3345394017694
 30
0.0
 10
160.3728154777425
 20
129.3643559825165
 30
0.0
 10
160.1981697519781
 20
129.3891624366499
 30
0.0
 10
160.1020954896703
 20
129.4033451170435
 30
0.0
 10
160.1037659450843
 20
129.4031018389927
 30
0.0
 10
160.104426097967
 20
129.4030056971231
 30
0.0
  0
LINE
  5
CA
330
1F
100
AcDbEntity
  8
0
  6
Continuous
 62
     7
370
    15
100
AcDbLine
 10
161.1736460769
 20
129.267616307
 30
0.0
 11
161.2553219725
 21
129.2588670347
 31
0.0
  0
CIRCLE
  5
CB
330
1F
100
AcDbEntity
  8
0
  6
Continuous
 62
     7
370
    15
100
AcDbCircle
 10
163.5939126164
 20
111.9045646226
 30
0.0
 40
2.5
  0
LINE
  5
CC
330
1F
100
AcDbEntity
  8
0
  6
Continuous
 62
     7
370
    15
100
AcDbLine
 10
46.3939126164
 20
144.1545646226
 30
0.0
 11
46.3939126164
 21
144.1528498244
 31
0.0
  0
LINE
  5
CD
330
1F
100
AcDbEntity
  8
0
  6
Continuous
 62
     7
370
    15
100
AcDbLine
 10
254.6439126164
 20
100.6787051442
 30
0.0
 11
254.6439126164
 21
123.1304240801
 31
0.0
  0
LINE
  5
CE
330
1F
100
AcDbEntity
  8
0
  6
HIDDEN
 62
     7
370
     0
100
AcDbLine
 10
231.041645234
 20
109.0459981421
 30
0.0
 11
231.5445163723
 21
108.4340680187
 31
0.0
  0
ARC
  5
CF
330
1F
100
AcDbEntity
  8
0
  6
HIDDEN
 62
     7
370
     0
100
AcDbCircle
 10
235.1439126164
 20
111.9045646226
 30
0.0
 40
4.999999999999997
100
AcDbArc
 50
261.8128207003
 51
282.6749074141
  0
ARC
  5
D0
330
1F
100
AcDbEntity
  8
0
  6
HIDDEN
 62
     7
370
     0
100
AcDbCircle
 10
235.1439126164
 20
111.9045646226
 30
0.0
 40
5.000000000000036
100
AcDbArc
 50
117.4874238071
 51
214.8697857198
  0
CIRCLE
  5
D1
330
1F
100
AcDbEntity
  8
0
  6
HIDDEN
 62
     7
370
     0
100
AcDbCircle
 10
235.1439126164
 20
111.9045646226
 30
0.0
 40
2.500000000000029
  0
CIRCLE
  5
D2
330
1F
100
AcDbEntity
  8
0
  6
HIDDEN
 62
     7
370
     0
100
AcDbCircle
 10
235.1439126164
 20
111.9045646226
 30
0.0
 40
3.500000000000009
  0
LWPOLYLINE
  5
D3
330
1F
100
AcDbEntity
  8
0
  6
HIDDEN
 62
     7
370
     0
100
AcDbPolyline
 90
        3
 70
   128
 43
0.0
 10
254.6144677546
 20
117.4070269797
 10
254.6327896214
 20
117.8024068399
 10
254.6439126164
 20
118.1193089471
  0
LWPOLYLINE
  5
D4
330
1F
100
AcDbEntity
  8
0
  6
HIDDEN
 62
     7
370
     0
100
AcDbPolyline
 90
       12
 70
   128
 43
0.0
 10
254.6439126164
 20
119.4792208928
 10
254.6327896214
 20
119.3957603756
 10
254.6144677546
 20
119.131660419
 10
254.5961458877
 20
118.7362805588
 10
254.580613359
 20
118.2698137945
 10
254.5702348552
 20
117.8032754625
 10
254.5665904092
 20
117.4076917946
 10
254.5702348552
 20
117.1432868184
 10
254.580613359
 20
117.0503137945
 10
254.5961458877
 20
117.1429270231
 10
254.6144677546
 20
117.4070269797
 10
254.6144677546
 20
117.4070269797
  0
LWPOLYLINE
  5
D5
330
1F
100
AcDbEntity
  8
0
  6
HIDDEN
 62
     7
370
     0
100
AcDbPolyline
 90
       17
 70
   128
 43
0.0
 10
254.4526458591
 20
117.2131793122
 10
254.4751819807
 20
117.6995014035
 10
254.4942871821
 20
118.2732612611
 10
254.5070528695
 20
118.847109148
 10
254.5115355828
 20
119.3336819252
 10
254.5070528695
 20
119.6589032982
 10
254.4942871821
 20
119.7732612611
 10
254.4751819807
 20
119.6593458508
 10
254.4526458591
 20
119.3344996557
 10
254.4301097376
 20
118.8481775644
 10
254.4110045362
 20
118.2744177068
 10
254.3982388488
 20
117.7005698199
 10
254.3937561355
 20
117.2139970427
 10
254.3982388488
 20
116.8887756697
 10
254.4110045362
 20
116.7744177068
 10
254.4301097376
 20
116.8883331171
 10
254.4526458591
 20
117.2131793122
  0
LWPOLYLINE
  5
D6
330
1F
100
AcDbEntity
  8
0
  6
HIDDEN
 62
     7
370
     0
100
AcDbPolyline
 90
       17
 70
   128
 43
0.0
 10
249.1187080552
 20
117.3613683783
 10
249.1412441768
 20
117.8476904696
 10
249.1603493782
 20
118.4214503272
 10
249.1731150656
 20
118.9952982141
 10
249.1775977789
 20
119.4818709913
 10
249.1731150656
 20
119.8070923643
 10
249.1603493782
 20
119.9214503272
 10
249.1412441768
 20
119.8075349169
 10
249.1187080552
 20
119.4826887218
 10
249.0961719337
 20
118.9963666305
 10
249.0770667323
 20
118.4226067729
 10
249.0643010449
 20
117.848758886
 10
249.0598183316
 20
117.3621861088
 10
249.0643010449
 20
117.0369647358
 10
249.0770667323
 20
116.9226067729
 10
249.0961719337
 20
117.0365221832
 10
249.1187080552
 20
117.3613683783
  0
LWPOLYLINE
  5
D7
330
1F
100
AcDbEntity
  8
0
  6
HIDDEN
 62
     7
370
     0
100
AcDbPolyline
 90
       17
 70
   128
 43
0.0
 10
248.6190935371
 20
117.7288022099
 10
248.6341176182
 20
118.0530169374
 10
248.6468544191
 20
118.4355235092
 10
248.6553648773
 20
118.8180887671
 10
248.6583533529
 20
119.1424706185
 10
248.6553648773
 20
119.3592848672
 10
248.6468544191
 20
119.4355235092
 10
248.6341176182
 20
119.3595799023
 10
248.6190935371
 20
119.1430157722
 10
248.6040694561
 20
118.8188010447
 10
248.5913326552
 20
118.4362944729
 10
248.5828221969
 20
118.053729215
 10
248.5798337214
 20
117.7293473636
 10
248.5828221969
 20
117.5125331149
 10
248.5913326552
 20
117.4362944729
 10
248.6040694561
 20
117.5122380798
 10
248.6190935371
 20
117.7288022099
  0
LINE
  5
D8
330
1F
100
AcDbEntity
  8
0
  6
HIDDEN
 62
     7
370
     0
100
AcDbLine
 10
254.6439126164
 20
119.1054511378
 30
0.0
 11
254.6144677546
 21
118.881716135
 31
0.0
  0
LINE
  5
D9
330
1F
100
AcDbEntity
  8
0
  6
HIDDEN
 62
     7
370
     0
100
AcDbLine
 10
254.5850228927
 20
118.0456086966
 30
0.0
 11
254.6144677546
 21
118.881716135
 31
0.0
  0
LINE
  5
DA
330
1F
100
AcDbEntity
  8
0
  6
HIDDEN
 62
     7
370
     0
100
AcDbLine
 10
254.5850228927
 20
117.4332362609
 30
0.0
 11
254.5850228927
 21
118.0456086966
 31
0.0
  0
LINE
  5
DB
330
1F
100
AcDbEntity
  8
0
  6
HIDDEN
 62
     7
370
     0
100
AcDbLine
 10
254.5850228927
 20
117.4332362609
 30
0.0
 11
254.6144677546
 21
117.6569712636
 31
0.0
  0
LINE
  5
DC
330
1F
100
AcDbEntity
  8
0
  6
HIDDEN
 62
     7
370
     0
100
AcDbLine
 10
254.6439126164
 20
118.4930787021
 30
0.0
 11
254.6144677546
 21
117.6569712636
 31
0.0
  0
LINE
  5
DD
330
1F
100
AcDbEntity
  8
0
  6
HIDDEN
 62
     7
370
     0
100
AcDbLine
 10
252.5865648203
 20
117.4887580248
 30
0.0
 11
252.6160096821
 21
117.7124930275
 31
0.0
  0
LINE
  5
DE
330
1F
100
AcDbEntity
  8
0
  6
HIDDEN
 62
     7
370
     0
100
AcDbLine
 10
252.5865648203
 20
117.4887580248
 30
0.0
 11
252.5865648203
 21
118.1011304605
 31
0.0
  0
LINE
  5
DF
330
1F
100
AcDbEntity
  8
0
  6
HIDDEN
 62
     7
370
     0
100
AcDbLine
 10
252.6454545439
 20
119.1609729017
 30
0.0
 11
252.6160096821
 21
118.9372378989
 31
0.0
  0
LINE
  5
E0
330
1F
100
AcDbEntity
  8
0
  6
HIDDEN
 62
     7
370
     0
100
AcDbLine
 10
252.6454545439
 20
118.548600466
 30
0.0
 11
252.6454545439
 21
119.1609729017
 31
0.0
  0
LINE
  5
E1
330
1F
100
AcDbEntity
  8
0
  6
HIDDEN
 62
     7
370
     0
100
AcDbLine
 10
252.6454545439
 20
118.548600466
 30
0.0
 11
252.6160096821
 21
117.7124930275
 31
0.0
  0
LINE
  5
E2
330
1F
100
AcDbEntity
  8
0
  6
HIDDEN
 62
     7
370
     0
100
AcDbLine
 10
252.5865648203
 20
118.1011304605
 30
0.0
 11
252.6160096821
 21
118.9372378989
 31
0.0
  0
LINE
  5
E3
330
1F
100
AcDbEntity
  8
0
  6
HIDDEN
 62
     7
370
     0
100
AcDbLine
 10
252.5865648203
 20
118.1011304605
 30
0.0
 11
254.5850228927
 21
118.0456086966
 31
0.0
  0
LINE
  5
E4
330
1F
100
AcDbEntity
  8
0
  6
HIDDEN
 62
     7
370
     0
100
AcDbLine
 10
252.6160096821
 20
118.9372378989
 30
0.0
 11
254.6144677546
 21
118.881716135
 31
0.0
  0
LINE
  5
E5
330
1F
100
AcDbEntity
  8
0
  6
HIDDEN
 62
     7
370
     0
100
AcDbLine
 10
252.6160096821
 20
117.7124930275
 30
0.0
 11
254.6144677546
 21
117.6569712636
 31
0.0
  0
LINE
  5
E6
330
1F
100
AcDbEntity
  8
0
  6
HIDDEN
 62
     7
370
     0
100
AcDbLine
 10
252.5865648203
 20
117.4887580248
 30
0.0
 11
254.5850228927
 21
117.4332362609
 31
0.0
  0
LINE
  5
E7
330
1F
100
AcDbEntity
  8
0
  6
HIDDEN
 62
     7
370
     0
100
AcDbLine
 10
252.6454545439
 20
118.548600466
 30
0.0
 11
254.6439126164
 21
118.4930787021
 31
0.0
  0
LINE
  5
E8
330
1F
100
AcDbEntity
  8
0
  6
HIDDEN
 62
     7
370
     0
100
AcDbLine
 10
252.6454545439
 20
119.1609729017
 30
0.0
 11
254.6439126164
 21
119.1054511378
 31
0.0
  0
LWPOLYLINE
  5
E9
330
1F
100
AcDbEntity
  8
0
  6
HIDDEN
 62
     7
370
     0
100
AcDbPolyline
 90
       17
 70
   128
 43
0.0
 10
249.1775977789
 20
104.3280766155
 10
249.1550616573
 20
104.8143987068
 10
249.1359564559
 20
105.3881585644
 10
249.1231907685
 20
105.9620064513
 10
249.1187080552
 20
106.4485792285
 10
249.1231907685
 20
106.7738006015
 10
249.1359564559
 20
106.8881585644
 10
249.1550616573
 20
106.7742431541
 10
249.1775977789
 20
106.449396959
 10
249.2001339004
 20
105.9630748677
 10
249.2192391018
 20
105.3893150101
 10
249.2320047892
 20
104.8154671232
 10
249.2364875025
 20
104.328894346
 10
249.2320047892
 20
104.003672973
 10
249.2192391018
 20
103.8893150101
 10
249.2001339004
 20
104.0032304204
 10
249.1775977789
 20
104.3280766155
  0
LWPOLYLINE
  5
EA
330
1F
100
AcDbEntity
  8
0
  6
HIDDEN
 62
     7
370
     0
100
AcDbPolyline
 90
       17
 70
   128
 43
0.0
 10
248.6779832608
 20
104.6677495651
 10
248.6629591797
 20
104.9919642926
 10
248.6502223788
 20
105.3744708644
 10
248.6417119205
 20
105.7570361223
 10
248.638723445
 20
106.0814179737
 10
248.6417119205
 20
106.2982322224
 10
248.6502223788
 20
106.3744708644
 10
248.6629591797
 20
106.2985272575
 10
248.6779832608
 20
106.0819631275
 10
248.6930073418
 20
105.7577483999
 10
248.7057441427
 20
105.3752418281
 10
248.714254601
 20
104.9926765702
 10
248.7172430765
 20
104.6682947188
 10
248.714254601
 20
104.4514804701
 10
248.7057441427
 20
104.3752418281
 10
248.6930073418
 20
104.451185435
 10
248.6779832608
 20
104.6677495651
  0
LWPOLYLINE
  5
EB
330
1F
100
AcDbEntity
  8
0
  6
HIDDEN
 62
     7
370
     0
100
AcDbPolyline
 90
       17
 70
   128
 43
0.0
 10
254.5115355828
 20
104.4762656816
 10
254.4889994612
 20
104.9625877729
 10
254.4698942598
 20
105.5363476305
 10
254.4571285724
 20
106.1101955174
 10
254.4526458591
 20
106.5967682946
 10
254.4571285724
 20
106.9219896676
 10
254.4698942598
 20
107.0363476305
 10
254.4889994612
 20
106.9224322202
 10
254.5115355828
 20
106.5975860251
 10
254.5340717043
 20
106.1112639338
 10
254.5531769057
 20
105.5375040762
 10
254.5659425931
 20
104.9636561893
 10
254.5704253064
 20
104.4770834121
 10
254.5659425931
 20
104.1518620391
 10
254.5531769057
 20
104.0375040762
 10
254.5340717043
 20
104.1514194865
 10
254.5115355828
 20
104.4762656816
  0
LWPOLYLINE
  5
EC
330
1F
100
AcDbEntity
  8
0
  6
HIDDEN
 62
     7
370
     0
100
AcDbPolyline
 90
        8
 70
   128
 43
0.0
 10
254.6733574782
 20
104.6791049183
 10
254.6550356114
 20
105.0744847785
 10
254.6395030827
 20
105.5409515428
 10
254.6291245788
 20
106.0074898748
 10
254.6254801329
 20
106.4030735427
 10
254.6291245788
 20
106.667478519
 10
254.6395030827
 20
106.7604515428
 10
254.6439126164
 20
106.7512988314
  0
LWPOLYLINE
  5
ED
330
1F
100
AcDbEntity
  8
0
  6
HIDDEN
 62
     7
370
     0
100
AcDbPolyline
 90
        4
 70
   128
 43
0.0
 10
254.708813552
 20
104.3238483315
 10
254.7072118737
 20
104.3223917331
 10
254.691679345
 20
104.4150049617
 10
254.6733574782
 20
104.6791049183
  0
LINE
  5
EE
330
1F
100
AcDbEntity
  8
0
  6
HIDDEN
 62
     7
370
     0
100
AcDbLine
 10
254.70280234
 20
105.3176866352
 30
0.0
 11
254.6733574782
 21
106.1537940737
 31
0.0
  0
LINE
  5
EF
330
1F
100
AcDbEntity
  8
0
  6
HIDDEN
 62
     7
370
     0
100
AcDbLine
 10
252.7043442675
 20
105.2621648713
 30
0.0
 11
252.6748994057
 21
106.0982723098
 31
0.0
  0
LINE
  5
F0
330
1F
100
AcDbEntity
  8
0
  6
HIDDEN
 62
     7
370
     0
100
AcDbLine
 10
252.7043442675
 20
104.6497924356
 30
0.0
 11
252.7043442675
 21
105.2621648713
 31
0.0
  0
LINE
  5
F1
330
1F
100
AcDbEntity
  8
0
  6
HIDDEN
 62
     7
370
     0
100
AcDbLine
 10
252.7043442675
 20
105.2621648713
 30
0.0
 11
254.70280234
 21
105.3176866352
 31
0.0
  0
LINE
  5
F2
330
1F
100
AcDbEntity
  8
0
  6
HIDDEN
 62
     7
370
     0
100
AcDbLine
 10
254.70280234
 20
104.7053141995
 30
0.0
 11
254.70280234
 21
105.3176866352
 31
0.0
  0
LINE
  5
F3
330
1F
100
AcDbEntity
  8
0
  6
HIDDEN
 62
     7
370
     0
100
AcDbLine
 10
252.6454545439
 20
106.3220073125
 30
0.0
 11
252.6748994057
 21
106.0982723098
 31
0.0
  0
LINE
  5
F4
330
1F
100
AcDbEntity
  8
0
  6
HIDDEN
 62
     7
370
     0
100
AcDbLine
 10
252.6748994057
 20
106.0982723098
 30
0.0
 11
254.6733574782
 21
106.1537940737
 31
0.0
  0
LINE
  5
F5
330
1F
100
AcDbEntity
  8
0
  6
HIDDEN
 62
     7
370
     0
100
AcDbLine
 10
254.6439126164
 20
106.3775290764
 30
0.0
 11
254.6733574782
 21
106.1537940737
 31
0.0
  0
LINE
  5
F6
330
1F
100
AcDbEntity
  8
0
  6
HIDDEN
 62
     7
370
     0
100
AcDbLine
 10
252.6748994057
 20
104.8735274384
 30
0.0
 11
254.6733574782
 21
104.9290492023
 31
0.0
  0
LINE
  5
F7
330
1F
100
AcDbEntity
  8
0
  6
HIDDEN
 62
     7
370
     0
100
AcDbLine
 10
252.7043442675
 20
104.6497924356
 30
0.0
 11
254.70280234
 21
104.7053141995
 31
0.0
  0
LINE
  5
F8
330
1F
100
AcDbEntity
  8
0
  6
HIDDEN
 62
     7
370
     0
100
AcDbLine
 10
252.7043442675
 20
104.6497924356
 30
0.0
 11
252.6748994057
 21
104.8735274384
 31
0.0
  0
LINE
  5
F9
330
1F
100
AcDbEntity
  8
0
  6
HIDDEN
 62
     7
370
     0
100
AcDbLine
 10
254.70280234
 20
104.7053141995
 30
0.0
 11
254.6733574782
 21
104.9290492023
 31
0.0
  0
LINE
  5
FA
330
1F
100
AcDbEntity
  8
0
  6
HIDDEN
 62
     7
370
     0
100
AcDbLine
 10
252.6454545439
 20
105.7096348768
 30
0.0
 11
254.6439126164
 21
105.7651566407
 31
0.0
  0
LINE
  5
FB
330
1F
100
AcDbEntity
  8
0
  6
HIDDEN
 62
     7
370
     0
100
AcDbLine
 10
252.6454545439
 20
106.3220073125
 30
0.0
 11
254.6439126164
 21
106.3775290764
 31
0.0
  0
LINE
  5
FC
330
1F
100
AcDbEntity
  8
0
  6
HIDDEN
 62
     7
370
     0
100
AcDbLine
 10
252.6454545439
 20
105.7096348768
 30
0.0
 11
252.6454545439
 21
106.3220073125
 31
0.0
  0
LINE
  5
FD
330
1F
100
AcDbEntity
  8
0
  6
HIDDEN
 62
     7
370
     0
100
AcDbLine
 10
252.6454545439
 20
105.7096348768
 30
0.0
 11
252.6748994057
 21
104.8735274384
 31
0.0
  0
LINE
  5
FE
330
1F
100
AcDbEntity
  8
0
  6
HIDDEN
 62
     7
370
     0
100
AcDbLine
 10
254.6439126164
 20
105.7651566407
 30
0.0
 11
254.6733574782
 21
104.9290492023
 31
0.0
  0
LINE
  5
FF
330
1F
100
AcDbEntity
  8
0
  6
HIDDEN
 62
     7
370
     0
100
AcDbLine
 10
111.3818835955
 20
150.8555273835
 30
0.0
 11
111.3818835955
 21
143.2545646226
 31
0.0
  0
SPLINE
  5
100
330
1F
100
AcDbEntity
  8
0
  6
HIDDEN
 62
     7
370
     0
100
AcDbSpline
210
0.0
220
0.0
230
1.0
 70
     8
 71
     3
 72
    80
 73
    76
 74
     0
 42
0.00000001
 43
0.00000001
 40
-0.0312500000000003
 40
-0.0312500000000003
 40
0.0
 40
0.0
 40
0.03125
 40
0.03125
 40
0.046875
 40
0.046875
 40
0.0624999999999999
 40
0.0624999999999999
 40
0.0937499999999998
 40
0.0937499999999998
 40
0.1249999999999996
 40
0.1249999999999996
 40
0.1562499999999995
 40
0.1562499999999995
 40
0.1874999999999994
 40
0.1874999999999994
 40
0.2187499999999993
 40
0.2187499999999993
 40
0.2499999999999992
 40
0.2499999999999992
 40
0.2812499999999991
 40
0.2812499999999991
 40
0.3124999999999989
 40
0.3124999999999989
 40
0.3281249999999988
 40
0.3281249999999988
 40
0.3437499999999986
 40
0.3437499999999986
 40
0.3749999999999983
 40
0.3749999999999983
 40
0.4062499999999981
 40
0.4062499999999981
 40
0.4218749999999979
 40
0.4218749999999979
 40
0.4374999999999978
 40
0.4374999999999978
 40
0.4687499999999977
 40
0.4687499999999977
 40
0.4999999999999975
 40
0.4999999999999975
 40
0.5312499999999972
 40
0.5312499999999972
 40
0.562499999999997
 40
0.562499999999997
 40
0.5937499999999968
 40
0.5937499999999968
 40
0.6249999999999966
 40
0.6249999999999966
 40
0.6562499999999964
 40
0.6562499999999964
 40
0.6874999999999962
 40
0.6874999999999962
 40
0.7031249999999962
 40
0.7031249999999962
 40
0.7187499999999963
 40
0.7187499999999963
 40
0.7499999999999968
 40
0.7499999999999968
 40
0.7812499999999972
 40
0.7812499999999972
 40
0.7968749999999976
 40
0.7968749999999976
 40
0.8124999999999978
 40
0.8124999999999978
 40
0.8437499999999981
 40
0.8437499999999981
 40
0.8749999999999984
 40
0.8749999999999984
 40
0.9062499999999989
 40
0.9062499999999989
 40
0.9374999999999992
 40
0.9374999999999992
 40
0.9687499999999997
 40
0.9687499999999997
 40
1.0
 40
1.0
 40
1.03125
 40
1.03125
 10
103.9744579291565
 20
160.7641138791047
 30
0.0
 10
103.3133673036039
 20
160.7641138791047
 30
0.0
 10
102.9883871743523
 20
160.7572157332779
 30
0.0
 10
102.5089137631058
 20
160.7366893052973
 30
0.0
 10
102.350431945265
 20
160.7281330782099
 30
0.0
 10
102.0362124127607
 20
160.7074067029922
 30
0.0
 10
101.8800921290803
 20
160.6951794027858
 30
0.0
 10
101.4260381001238
 20
160.6536101089566
 30
0.0
 10
101.1389347171839
 20
160.6192658238588
 30
0.0
 10
100.5955801611569
 20
160.5359416995365
 30
0.0
 10
100.3384765499513
 20
160.486503476762
 30
0.0
 10
99.87757029501255
 20
160.3751237470021
 30
0.0
 10
99.67067258579758
 20
160.31282923349
 30
0.0
 10
99.30514727180538
 20
160.172899590619
 30
0.0
 10
99.14994174967943
 20
160.0962836928699
 30
0.0
 10
98.9005113630797
 20
159.9323250730142
 30
0.0
 10
98.80442140729454
 20
159.8437682189185
 30
0.0
 10
98.67590255810096
 20
159.6562875368127
 30
0.0
 10
98.64409168792318
 20
159.5590510753583
 30
0.0
 10
98.64373503814991
 20
159.3574184360312
 30
0.0
 10
98.67623229034699
 20
159.251869644193
 30
0.0
 10
98.80385776406148
 20
159.0417548615045
 30
0.0
 10
98.89828616511338
 20
158.9366893535356
 30
0.0
 10
99.08614698509892
 20
158.7798116462845
 30
0.0
 10
99.1569749839021
 20
158.7273779125788
 30
0.0
 10
99.31169687586738
 20
158.6249394669491
 30
0.0
 10
99.39567334605078
 20
158.5747917382972
 30
0.0
 10
99.66699701569522
 20
158.4277757818637
 30
0.0
 10
99.87354623429755
 20
158.3342879614292
 30
0.0
 10
100.3401563744866
 20
158.1585011038149
 30
0.0
 10
100.592521944112
 20
158.0791226287313
 30
0.0
 10
100.9984232857908
 20
157.9736401912372
 30
0.0
 10
101.1383239032682
 20
157.940754626397
 30
0.0
 10
101.4275478385152
 20
157.8798391471684
 30
0.0
 10
101.5773872948044
 20
157.8517585755259
 30
0.0
 10
102.0315038644152
 20
157.7769565334831
 30
0.0
 10
102.3431550831521
 20
157.738918475237
 30
0.0
 10
102.9841515480644
 20
157.6873065487129
 30
0.0
 10
103.3156791760166
 20
157.6739926151914
 30
0.0
 10
103.9684702210881
 20
157.6738955288633
 30
0.0
 10
104.2930064261199
 20
157.6866836140244
 30
0.0
 10
104.9382758755363
 20
157.7381738036203
 30
0.0
 10
105.2540188816991
 20
157.7766983829404
 30
0.0
 10
105.8559081766827
 20
157.8756009457985
 30
0.0
 10
106.1466574074942
 20
157.9367050437235
 30
0.0
 10
106.6935691991787
 20
158.0785144768341
 30
0.0
 10
106.9453465630156
 20
158.1578489614133
 30
0.0
 10
107.4067345556368
 20
158.3312277060748
 30
0.0
 10
107.6180038352348
 20
158.4263876508288
 30
0.0
 10
107.981308187611
 20
158.6229601742047
 30
0.0
 10
108.1351148360538
 20
158.7247164026111
 30
0.0
 10
108.3237343056512
 20
158.8815023653966
 30
0.0
 10
108.3797647918603
 20
158.9347563991466
 30
0.0
 10
108.4753385535965
 20
159.0405609606994
 30
0.0
 10
108.5151014706215
 20
159.0932140250549
 30
0.0
 10
108.6108732209336
 20
159.2502877445141
 30
0.0
 10
108.6435960600597
 20
159.3538127798412
 30
0.0
 10
108.6442246463888
 20
159.5580275140683
 30
0.0
 10
108.612038501654
 20
159.6555313516531
 30
0.0
 10
108.5171277997985
 20
159.7948584020047
 30
0.0
 10
108.4776610163995
 20
159.8401751335092
 30
0.0
 10
108.3827310176787
 20
159.928614954498
 30
0.0
 10
108.3269741899153
 20
159.971869204958
 30
0.0
 10
108.1390340719454
 20
160.0957606795479
 30
0.0
 10
107.9856726022292
 20
160.171462970322
 30
0.0
 10
107.6234083673488
 20
160.3107173417802
 30
0.0
 10
107.4125598938829
 20
160.3744791833089
 30
0.0
 10
106.951889923564
 20
160.4859760227768
 30
0.0
 10
106.7005155439802
 20
160.5345020950934
 30
0.0
 10
106.1546076570821
 20
160.6185560784739
 30
0.0
 10
105.8637850824308
 20
160.6533546321405
 30
0.0
 10
105.2624584676508
 20
160.7085510969044
 30
0.0
 10
104.9479398830384
 20
160.7293689456583
 30
0.0
 10
104.3013584269185
 20
160.757216278569
 30
0.0
 10
103.9744579291565
 20
160.7641138791047
 30
0.0
 10
103.3133673036039
 20
160.7641138791047
 30
0.0
  0
SPLINE
  5
101
330
1F
100
AcDbEntity
  8
0
  6
HIDDEN
 62
     7
370
     0
100
AcDbSpline
210
0.0
220
0.0
230
1.0
 70
     8
 71
     3
 72
     9
 73
     5
 74
     0
 42
0.00000001
 43
0.00000001
 40
0.0
 40
0.0
 40
0.0
 40
0.0
 40
0.5038163044167481
 40
1.0
 40
1.0
 40
1.0
 40
1.0
 10
75.05733736580753
 20
75.1687582603526
 30
0.0
 10
74.77365818106902
 20
75.14460508625388
 30
0.0
 10
74.2105974340237
 20
75.09666464866382
 30
0.0
 10
73.85423639221449
 20
75.05535230037799
 30
0.0
 10
73.67741585352769
 20
75.0348537867323
 30
0.0
  0
SPLINE
  5
102
330
1F
100
AcDbEntity
  8
0
  6
HIDDEN
 62
     7
370
     0
100
AcDbSpline
210
0.0
220
0.0
230
1.0
 70
     8
 71
     3
 72
    12
 73
     8
 74
     0
 42
0.00000001
 43
0.00000001
 40
0.0
 40
0.0
 40
0.0
 40
0.0
 40
0.1661348616735903
 40
0.3322013257393936
 40
0.5008932044678248
 40
0.752137078264078
 40
1.0
 40
1.0
 40
1.0
 40
1.0
 10
73.1632342820274
 20
148.8358686456923
 30
0.0
 10
73.17362690613547
 20
148.8344905216308
 30
0.0
 10
73.19440787571541
 20
148.8317348408807
 30
0.0
 10
73.36770736516233
 20
148.8101314659187
 30
0.0
 10
73.68965895440606
 20
148.7722665139768
 30
0.0
 10
74.21082479032539
 20
148.7118827472607
 30
0.0
 10
74.7763827301631
 20
148.6640896101112
 30
0.0
 10
75.05724615385115
 20
148.6403549170178
 30
0.0
  0
SPLINE
  5
103
330
1F
100
AcDbEntity
  8
0
  6
HIDDEN
 62
     7
370
     0
100
AcDbSpline
210
0.0
220
0.0
230
1.0
 70
     8
 71
     3
 72
    11
 73
     7
 74
     0
 42
0.00000001
 43
0.00000001
 40
0.0
 40
0.0
 40
0.0
 40
0.0
 40
0.3257523722395619
 40
0.6609891175823827
 40
0.9867918028918143
 40
1.0
 40
1.0
 40
1.0
 40
1.0
 10
84.89711827157122
 20
143.2708868433738
 30
0.0
 10
85.04300076762058
 20
143.2941525166057
 30
0.0
 10
85.33901317014418
 20
143.3413612497726
 30
0.0
 10
85.56814794762792
 20
143.3714530019879
 30
0.0
 10
85.66943179287962
 20
143.3846308799419
 30
0.0
 10
85.64174636996385
 20
143.3810224078643
 30
0.0
 10
85.64066771868197
 20
143.3808818182463
 30
0.0
  0
SPLINE
  5
104
330
1F
100
AcDbEntity
  8
0
  6
HIDDEN
 62
     7
370
     0
100
AcDbSpline
210
0.0
220
0.0
230
1.0
 70
     8
 71
     3
 72
    10
 73
     6
 74
     0
 42
0.00000001
 43
0.00000001
 40
0.0
 40
0.0
 40
0.0
 40
0.0
 40
0.3219814998559333
 40
0.6558940611856261
 40
1.0
 40
1.0
 40
1.0
 40
1.0
 10
85.64059853635682
 20
80.42825644451119
 30
0.0
 10
85.62605840549375
 20
80.43015159613319
 30
0.0
 10
85.59643935754777
 20
80.4340121244383
 30
0.0
 10
85.34700178923848
 20
80.46652590263926
 30
0.0
 10
85.04857496735451
 20
80.51409849888802
 30
0.0
 10
84.89711827157122
 20
80.53824240187966
 30
0.0
  0
SPLINE
  5
105
330
1F
100
AcDbEntity
  8
0
  6
HIDDEN
 62
     7
370
     0
100
AcDbSpline
210
0.0
220
0.0
230
1.0
 70
     8
 71
     3
 72
    23
 73
    19
 74
     0
 42
0.00000001
 43
0.00000001
 40
0.0
 40
0.0
 40
0.0
 40
0.0
 40
0.0633571260677583
 40
0.1285545266630668
 40
0.1919098540958634
 40
0.2571115402721682
 40
0.3202403144568474
 40
0.3852600750475551
 40
0.4473665375787847
 40
0.5112910021130348
 40
0.5731724132338449
 40
0.6367989951504451
 40
0.6995859083620213
 40
0.7641543874110672
 40
0.827580116550687
 40
0.8928778468939028
 40
0.9556888039615774
 40
1.0
 40
1.0
 40
1.0
 40
1.0
 10
84.89711827157122
 20
80.53824240187966
 30
0.0
 10
84.72171286197617
 20
80.56692806930516
 30
0.0
 10
84.3658072077248
 20
80.62513260961146
 30
0.0
 10
83.66112696732701
 20
80.72444562704389
 30
0.0
 10
82.84536017665339
 20
80.81993351066241
 30
0.0
 10
81.94299496948796
 20
80.90069228941348
 30
0.0
 10
80.96649415219758
 20
80.95832271359308
 30
0.0
 10
79.9662148481253
 20
80.98511486943988
 30
0.0
 10
78.95306916115923
 20
80.97891924287539
 30
0.0
 10
77.97581167524824
 20
80.94127251807714
 30
0.0
 10
77.03865198965715
 20
80.87603607029642
 30
0.0
 10
76.17933012654579
 20
80.79134648538961
 30
0.0
 10
75.40505451162102
 20
80.69479816229267
 30
0.0
 10
74.75032654221057
 20
80.59827610851234
 30
0.0
 10
74.22434220122234
 20
80.51095754931653
 30
0.0
 10
73.86316481441607
 20
80.44600505385456
 30
0.0
 10
73.66430339445645
 20
80.40846466129231
 30
0.0
 10
73.66326094223568
 20
80.4082483851303
 30
0.0
 10
73.66282973073201
 20
80.40815892225883
 30
0.0
  0
SPLINE
  5
106
330
1F
100
AcDbEntity
  8
0
  6
HIDDEN
 62
     7
370
     0
100
AcDbSpline
210
0.0
220
0.0
230
1.0
 70
     8
 71
     3
 72
    24
 73
    20
 74
     0
 42
0.00000001
 43
0.00000001
 40
0.0
 40
0.0
 40
0.0
 40
0.0
 40
0.0203729619474678
 40
0.0822870750602629
 40
0.1459896397253447
 40
0.2080895879354084
 40
0.2719360348739573
 40
0.3350079792507124
 40
0.3998886074506655
 40
0.4632504589199175
 40
0.5284999352472107
 40
0.5909722114153436
 40
0.6552989095534106
 40
0.7170937383192271
 40
0.7806505850197497
 40
0.8430286835696731
 40
0.9071616706581624
 40
0.9532355028060499
 40
1.0
 40
1.0
 40
1.0
 40
1.0
 10
73.66282973073201
 20
143.4009703229946
 30
0.0
 10
73.65745128683618
 20
143.4019918977656
 30
0.0
 10
73.63572757195831
 20
143.4061180724513
 30
0.0
 10
73.76800104166678
 20
143.380927460714
 30
0.0
 10
74.0539240241479
 20
143.3283599937454
 30
0.0
 10
74.50869386712586
 20
143.2499380551365
 30
0.0
 10
75.09929892027537
 20
143.1577536983249
 30
0.0
 10
75.82642801057662
 20
143.0593689315683
 30
0.0
 10
76.65993235532004
 20
142.9673307285317
 30
0.0
 10
77.58938251951008
 20
142.8910887160097
 30
0.0
 10
78.56776282386826
 20
142.8411755337167
 30
0.0
 10
79.58217475325011
 20
142.8224115356225
 30
0.0
 10
80.5806203143819
 20
142.8367413929661
 30
0.0
 10
81.55723054104314
 20
142.8821961206035
 30
0.0
 10
82.47042755764996
 20
142.9526207887501
 30
0.0
 10
83.31583428877579
 20
143.0417551855288
 30
0.0
 10
83.98883173422213
 20
143.1298127848094
 30
0.0
 10
84.51892622788529
 20
143.2086766274887
 30
0.0
 10
84.7704305733018
 20
143.2500475126927
 30
0.0
 10
84.89711827157122
 20
143.2708868433738
 30
0.0
  0
LINE
  5
107
330
1F
100
AcDbEntity
  8
0
  6
HIDDEN
 62
     7
370
     0
100
AcDbLine
 10
64.6405369434
 20
85.4045646226
 30
0.0
 11
64.6405369434
 21
138.4045646226
 31
0.0
  0
LINE
  5
108
330
1F
100
AcDbEntity
  8
0
  6
HIDDEN
 62
     7
370
     0
100
AcDbLine
 10
103.9279902347
 20
85.4045646226
 30
0.0
 11
103.9279902347
 21
138.4045646226
 31
0.0
  0
LINE
  5
109
330
1F
100
AcDbEntity
  8
0
  6
HIDDEN
 62
     7
370
     0
100
AcDbLine
 10
107.0939126164
 20
87.0295646226
 30
0.0
 11
107.0939126164
 21
136.7795646226
 31
0.0
  0
SPLINE
  5
10A
330
1F
100
AcDbEntity
  8
0
  6
HIDDEN
 62
     7
370
     0
100
AcDbSpline
210
0.0
220
0.0
230
1.0
 70
     8
 71
     3
 72
    20
 73
    16
 74
     0
 42
0.00000001
 43
0.00000001
 40
0.0
 40
0.0
 40
0.0
 40
0.0
 40
0.2499999999999978
 40
0.2499999999999978
 40
0.3749999999999982
 40
0.3749999999999982
 40
0.4999999999999986
 40
0.4999999999999986
 40
0.6249999999999989
 40
0.6249999999999989
 40
0.7499999999999992
 40
0.7499999999999992
 40
0.8749999999999997
 40
0.8749999999999997
 40
1.0
 40
1.0
 40
1.0
 40
1.0
 10
54.84391261638018
 20
137.133078253041
 30
0.0
 10
54.84391261638019
 20
137.0538752665088
 30
0.0
 10
54.79693012116744
 20
136.9727790481058
 30
0.0
 10
54.65910853038987
 20
136.8525823563549
 30
0.0
 10
54.60282624647989
 20
136.8136556523528
 30
0.0
 10
54.46974139501266
 20
136.7384669199285
 30
0.0
 10
54.39190145277961
 20
136.7018247145865
 30
0.0
 10
54.21926909666526
 20
136.6342341817546
 30
0.0
 10
54.12487609957417
 20
136.603275999979
 30
0.0
 10
53.91943879325903
 20
136.5477515786093
 30
0.0
 10
53.80709255327186
 20
136.5230430647761
 30
0.0
 10
53.57485168937223
 20
136.4832468376679
 30
0.0
 10
53.45414104694951
 20
136.4678270002708
 30
0.0
 10
53.20307018768047
 20
136.4467470254312
 30
0.0
 10
53.0735481912647
 20
136.4412697804102
 30
0.0
 10
52.94391261638018
 20
136.4412697804102
 30
0.0
  0
LINE
  5
10B
330
1F
100
AcDbEntity
  8
0
  6
HIDDEN
 62
     7
370
     0
100
AcDbLine
 10
52.9439126164
 20
136.4412697804
 30
0.0
 11
46.3939126164
 21
136.4412697804
 31
0.0
  0
LINE
  5
10C
330
1F
100
AcDbEntity
  8
0
  6
HIDDEN
 62
     7
370
     0
100
AcDbLine
 10
46.3939126164
 20
87.3678594648
 30
0.0
 11
57.9439126164
 21
87.3678594648
 31
0.0
  0
SPLINE
  5
10D
330
1F
100
AcDbEntity
  8
0
  6
HIDDEN
 62
     7
370
     0
100
AcDbSpline
210
0.0
220
0.0
230
1.0
 70
     8
 71
     3
 72
    18
 73
    14
 74
     0
 42
0.00000001
 43
0.00000001
 40
0.0
 40
0.0
 40
0.0
 40
0.0
 40
0.1249999999999982
 40
0.1249999999999982
 40
0.2499999999999964
 40
0.2499999999999964
 40
0.4999999999999988
 40
0.4999999999999988
 40
0.7500000000000011
 40
0.7500000000000011
 40
0.8750000000000006
 40
0.8750000000000006
 40
1.0
 40
1.0
 40
1.0
 40
1.0
 10
57.94391261638018
 20
87.3678594648432
 30
0.0
 10
58.07337992933739
 20
87.3678594648432
 30
0.0
 10
58.20039067823403
 20
87.36250646625058
 30
0.0
 10
58.44975399943128
 20
87.34176849356179
 30
0.0
 10
58.57337765405972
 20
87.3260965893075
 30
0.0
 10
58.92240999099377
 20
87.2664018609054
 30
0.0
 10
59.13292175580055
 20
87.20863668122442
 30
0.0
 10
59.47683843350007
 20
87.07411483994693
 30
0.0
 10
59.61318883501787
 20
86.99644572644152
 30
0.0
 10
59.75022689158041
 20
86.87715459235417
 30
0.0
 10
59.78544591029332
 20
86.83623558321914
 30
0.0
 10
59.83206948723188
 20
86.7555795899291
 30
0.0
 10
59.84391261638019
 20
86.71561106973624
 30
0.0
 10
59.84391261638018
 20
86.67605099221242
 30
0.0
  0
LINE
  5
10E
330
1F
100
AcDbEntity
  8
0
  6
HIDDEN
 62
     7
370
     0
100
AcDbLine
 10
46.3939126164
 20
87.3678594648
 30
0.0
 11
46.3939126164
 21
136.4412697804
 31
0.0
  0
LWPOLYLINE
  5
10F
330
1F
100
AcDbEntity
  8
0
  6
HIDDEN
 62
     7
370
     0
100
AcDbPolyline
 90
       13
 70
   128
 43
0.0
 10
103.6439126164
 20
151.8482951859
 10
104.7969919701
 20
151.9031133802
 10
105.8879085174
 20
152.0646127
 10
106.8578506648
 20
152.3240866751
 10
107.6545285802
 20
152.6675469964
 10
108.2349931508
 20
153.0764776292
 10
108.5679513814
 20
153.528833017
 10
108.6354534077
 20
154.0002265639
 10
108.433860178
 20
154.4652453218
 10
107.9740396353
 20
154.898820009
 10
107.2807808242
 20
155.2775765019
 10
106.3914575067
 20
155.58109594
 10
106.0734939021
 20
155.6594284574
  0
LWPOLYLINE
  5
110
330
1F
100
AcDbEntity
  8
0
  6
HIDDEN
 62
     7
370
     0
100
AcDbPolyline
 90
       13
 70
   128
 43
0.0
 10
101.1743728812
 20
155.6502948305
 10
100.896367726
 20
155.58109594
 10
100.0070444085
 20
155.2775765019
 10
99.3137855975
 20
154.898820009
 10
98.8539650548
 20
154.4652453218
 10
98.652371825
 20
154.0002265639
 10
98.7198738513
 20
153.528833017
 10
99.052832082
 20
153.0764776292
 10
99.6332966526
 20
152.6675469964
 10
100.4299745679
 20
152.3240866751
 10
101.3999167154
 20
152.0646127
 10
102.4908332627
 20
151.9031133802
 10
103.6439126164
 20
151.8482951859
  0
LINE
  5
111
330
1F
100
AcDbEntity
  8
0
  6
HIDDEN
 62
     7
370
     0
100
AcDbLine
 10
46.3939126164
 20
84.5345646226
 30
0.0
 11
46.3939126164
 21
79.6562794208
 31
0.0
  0
SPLINE
  5
112
330
1F
100
AcDbEntity
  8
0
  6
HIDDEN
 62
     7
370
     0
100
AcDbSpline
210
0.0
220
0.0
230
1.0
 70
     8
 71
     3
 72
    83
 73
    79
 74
     0
 42
0.00000001
 43
0.00000001
 40
-0.0312499999999989
 40
-0.0312499999999989
 40
0.0
 40
0.0
 40
0.0312499999999996
 40
0.0312499999999996
 40
0.0468749999999994
 40
0.0468749999999994
 40
0.0624999999999992
 40
0.0624999999999992
 40
0.0937499999999988
 40
0.0937499999999988
 40
0.1249999999999984
 40
0.1249999999999984
 40
0.156249999999998
 40
0.156249999999998
 40
0.1874999999999976
 40
0.1874999999999976
 40
0.2187499999999972
 40
0.2187499999999972
 40
0.2343749999999971
 40
0.2343749999999971
 40
0.2499999999999969
 40
0.2656249999999967
 40
0.2656249999999967
 40
0.2812499999999965
 40
0.2812499999999965
 40
0.3124999999999961
 40
0.3124999999999961
 40
0.3281249999999964
 40
0.3281249999999964
 40
0.3437499999999967
 40
0.3437499999999967
 40
0.359374999999997
 40
0.359374999999997
 40
0.3749999999999973
 40
0.3749999999999973
 40
0.4062499999999996
 40
0.4062499999999996
 40
0.4375000000000018
 40
0.4375000000000018
 40
0.4687500000000041
 40
0.4687500000000041
 40
0.5000000000000063
 40
0.5000000000000063
 40
0.5312500000000085
 40
0.5312500000000085
 40
0.5625000000000109
 40
0.5625000000000109
 40
0.5781250000000109
 40
0.5781250000000109
 40
0.5937500000000109
 40
0.5937500000000109
 40
0.6250000000000108
 40
0.6250000000000108
 40
0.6562500000000108
 40
0.6562500000000108
 40
0.6875000000000107
 40
0.6875000000000107
 40
0.7031250000000101
 40
0.7031250000000101
 40
0.7187500000000097
 40
0.7187500000000097
 40
0.7500000000000085
 40
0.7500000000000085
 40
0.7812500000000074
 40
0.7812500000000074
 40
0.8125000000000064
 40
0.8125000000000064
 40
0.8437500000000053
 40
0.8437500000000053
 40
0.8750000000000042
 40
0.8750000000000042
 40
0.9062500000000032
 40
0.9062500000000032
 40
0.9375000000000021
 40
0.9375000000000021
 40
0.9687500000000011
 40
0.9687500000000011
 40
1.0
 40
1.0
 40
1.03125
 40
1.03125
 10
235.0088326778375
 20
106.5952432233395
 30
0.0
 10
234.2789925549229
 20
106.5952432233395
 30
0.0
 10
233.9197345973961
 20
106.6271439035853
 30
0.0
 10
233.389018597428
 20
106.7212744332053
 30
0.0
 10
233.2134844898545
 20
106.7604223900204
 30
0.0
 10
232.8652171909223
 20
106.8546930783284
 30
0.0
 10
232.6915883785693
 20
106.9101818954702
 30
0.0
 10
232.1836528638468
 20
107.0986331730996
 30
0.0
 10
231.8614793902915
 20
107.2531201327749
 30
0.0
 10
231.2497602161907
 20
107.6205906304948
 30
0.0
 10
230.9572645966493
 20
107.8365770695753
 30
0.0
 10
230.4272890445592
 20
108.3163951418377
 30
0.0
 10
230.1886919029949
 20
108.5797609960778
 30
0.0
 10
229.7653801696807
 20
109.1555846878824
 30
0.0
 10
229.580335278642
 20
109.4707713206204
 30
0.0
 10
229.2847365095805
 20
110.1229108186213
 30
0.0
 10
229.1712433305912
 20
110.4629500678325
 30
0.0
 10
229.055048908655
 20
110.9953164671572
 30
0.0
 10
229.0256942530505
 20
111.1758422458916
 30
0.0
 10
228.9867433870262
 20
111.5351299637151
 30
0.0
 10
228.9670283040578
 20
111.8948556203548
 30
0.0
 10
228.9854004495525
 20
112.2554494585617
 30
0.0
 10
229.0232672566731
 20
112.6164871668306
 30
0.0
 10
229.0521622524658
 20
112.7975837476056
 30
0.0
 10
229.1660729840507
 20
113.3280869454812
 30
0.0
 10
229.2782794061694
 20
113.669345796416
 30
0.0
 10
229.500331526064
 20
114.1630892401742
 30
0.0
 10
229.5837451324298
 20
114.3250444669306
 30
0.0
 10
229.7649005379507
 20
114.6357642200816
 30
0.0
 10
229.8629855614867
 20
114.7854361587492
 30
0.0
 10
230.0737590890908
 20
115.0738371487019
 30
0.0
 10
230.1864489467658
 20
115.2125649710067
 30
0.0
 10
230.4264751336067
 20
115.479176117587
 30
0.0
 10
230.5544627423722
 20
115.6075696362794
 30
0.0
 10
230.9531731133466
 20
115.9694360813599
 30
0.0
 10
231.2398607462548
 20
116.1818165301229
 30
0.0
 10
231.8536825486576
 20
116.5520786901758
 30
0.0
 10
232.1826677438318
 20
116.7099109677598
 30
0.0
 10
232.8555552912698
 20
116.9599989540613
 30
0.0
 10
233.202329558977
 20
117.0543499263029
 30
0.0
 10
233.9167888294705
 20
117.1818486840801
 30
0.0
 10
234.2799510071408
 20
117.2136556277656
 30
0.0
 10
234.9999830663229
 20
117.2141139046133
 30
0.0
 10
235.3600183087284
 20
117.1832228487474
 30
0.0
 10
236.0774835825491
 20
117.0563562902416
 30
0.0
 10
236.4245480302937
 20
116.9622825365904
 30
0.0
 10
236.9281846116999
 20
116.7759676973338
 30
0.0
 10
237.0932174468187
 20
116.7062740352085
 30
0.0
 10
237.4174461246206
 20
116.5511619884452
 30
0.0
 10
237.5774821206437
 20
116.4651977194634
 30
0.0
 10
238.0401887472009
 20
116.187305081846
 30
0.0
 10
238.3265190101582
 20
115.9756344304203
 30
0.0
 10
238.8550305568716
 20
115.4982852094254
 30
0.0
 10
239.0996271945518
 20
115.2288465905745
 30
0.0
 10
239.523493751898
 20
114.6519673594697
 30
0.0
 10
239.7041851816985
 20
114.3446521538882
 30
0.0
 10
239.9272228252416
 20
113.854077350591
 30
0.0
 10
239.9938472804752
 20
113.6844953408618
 30
0.0
 10
240.1081832787759
 20
113.3403595269538
 30
0.0
 10
240.1558192405035
 20
113.1664811187123
 30
0.0
 10
240.270787127389
 20
112.6395086740772
 30
0.0
 10
240.3105032095756
 20
112.2810162362802
 30
0.0
 10
240.3120425139754
 20
111.5495525035829
 30
0.0
 10
240.2738582845365
 20
111.1906475635341
 30
0.0
 10
240.1230386156092
 20
110.4858257680167
 30
0.0
 10
240.0083130567755
 20
110.1367448668826
 30
0.0
 10
239.7132747258636
 20
109.481309483121
 30
0.0
 10
239.5330017242952
 20
109.1717805683937
 30
0.0
 10
239.1068061180627
 20
108.5884390462817
 30
0.0
 10
238.8661177239396
 20
108.3222154277717
 30
0.0
 10
238.3375854393573
 20
107.8421881093085
 30
0.0
 10
238.0456273650608
 20
107.6256557071271
 30
0.0
 10
237.4307456297586
 20
107.2552509798775
 30
0.0
 10
237.1080812431148
 20
107.1004253866303
 30
0.0
 10
236.4328112489988
 20
106.8492116367522
 30
0.0
 10
236.0793992155254
 20
106.7534507961978
 30
0.0
 10
235.3691755811679
 20
106.6271917790729
 30
0.0
 10
235.0088326778375
 20
106.5952432233395
 30
0.0
 10
234.2789925549229
 20
106.5952432233395
 30
0.0
  0
LINE
  5
113
330
1F
100
AcDbEntity
  8
0
  6
HIDDEN
 62
     7
370
     0
100
AcDbLine
 10
59.8439126164
 20
84.5345646226
 30
0.0
 11
59.8439126164
 21
78.0352313573
 31
0.0
  0
LINE
  5
114
330
1F
100
AcDbEntity
  8
0
  6
HIDDEN
 62
     7
370
     0
100
AcDbLine
 10
54.8439126164
 20
139.2745646226
 30
0.0
 11
54.8439126164
 21
145.6491733596
 31
0.0
  0
LINE
  5
115
330
1F
100
AcDbEntity
  8
0
  6
HIDDEN
 62
     7
370
     0
100
AcDbLine
 10
46.3939126164
 20
139.2745646226
 30
0.0
 11
46.3939126164
 21
144.1528498244
 31
0.0
  0
LINE
  5
116
330
1F
100
AcDbEntity
  8
0
  6
HIDDEN
 62
     7
370
     0
100
AcDbLine
 10
122.9439126164
 20
98.9045646226
 30
0.0
 11
122.9439126164
 21
124.9045646226
 31
0.0
  0
LINE
  5
117
330
1F
100
AcDbEntity
  8
0
  6
HIDDEN
 62
     7
370
     0
100
AcDbLine
 10
118.9439126164
 20
98.9045646226
 30
0.0
 11
118.9439126164
 21
124.9045646226
 31
0.0
  0
LINE
  5
118
330
1F
100
AcDbEntity
  8
0
  6
HIDDEN
 62
     7
370
     0
100
AcDbLine
 10
107.8439126164
 20
100.6545646226
 30
0.0
 11
107.8439126164
 21
123.1545646226
 31
0.0
  0
ELLIPSE
  5
119
330
1F
100
AcDbEntity
  8
0
  6
HIDDEN
 62
     7
370
     0
100
AcDbEllipse
 10
38.4592394161
 20
111.9045646226
 30
0.0
 11
31.08108570811662
 21
-1.421085471520200E-14
 31
0.0
210
0.0
220
0.0
230
1.0
 40
0.8164965809
 41
4.915995335118103
 42
4.970536038964787
  0
ELLIPSE
  5
11A
330
1F
100
AcDbEntity
  8
0
  6
HIDDEN
 62
     7
370
     0
100
AcDbEllipse
 10
38.4592394161
 20
111.9045646226
 30
0.0
 11
31.08108570811662
 21
1.421085471520200E-14
 31
0.0
210
0.0
220
0.0
230
1.0
 40
0.8164965809
 41
1.312649268214811
 42
1.367189972061496
  0
LINE
  5
11B
330
1F
100
AcDbEntity
  8
0
  6
HIDDEN
 62
     7
370
     0
100
AcDbLine
 10
123.5939126164
 20
68.0045646226
 30
0.0
 11
109.5939126164
 21
68.0045646226
 31
0.0
  0
LINE
  5
11C
330
1F
100
AcDbEntity
  8
0
  6
HIDDEN
 62
     7
370
     0
100
AcDbLine
 10
99.5939126164
 20
61.9145656228
 30
0.0
 11
99.5939126164
 21
68.0045646226
 31
0.0
  0
LINE
  5
11D
330
1F
100
AcDbEntity
  8
0
  6
HIDDEN
 62
     7
370
     0
100
AcDbLine
 10
109.5939126164
 20
68.0045646226
 30
0.0
 11
99.5939126164
 21
68.0045646226
 31
0.0
  0
LWPOLYLINE
  5
11E
330
1F
100
AcDbEntity
  8
0
  6
HIDDEN
 62
     7
370
     0
100
AcDbPolyline
 90
       17
 70
   128
 43
0.0
 10
215.6439126164
 20
101.6515162954
 10
215.0698874678
 20
101.7322542435
 10
214.5832524446
 20
101.9621764672
 10
214.2580933176
 20
102.3062793921
 10
214.1439126164
 20
102.7121764672
 10
214.2580933176
 20
103.1180735423
 10
214.5832524446
 20
103.4621764672
 10
215.0698874678
 20
103.6920986909
 10
215.6439126164
 20
103.772836639
 10
216.2179377649
 20
103.6920986909
 10
216.7045727882
 20
103.4621764672
 10
217.0297319151
 20
103.1180735423
 10
217.1439126164
 20
102.7121764672
 10
217.0297319151
 20
102.3062793921
 10
216.7045727882
 20
101.9621764672
 10
216.2179377649
 20
101.7322542435
 10
215.6439126164
 20
101.6515162954
  0
SPLINE
  5
11F
330
1F
100
AcDbEntity
  8
0
  6
HIDDEN
 62
     7
370
     0
100
AcDbSpline
210
0.0
220
0.0
230
1.0
 70
     8
 71
     3
 72
    14
 73
    10
 74
     0
 42
0.00000001
 43
0.00000001
 40
0.0
 40
0.0
 40
0.0
 40
0.0
 40
0.25
 40
0.25
 40
0.5
 40
0.5
 40
0.75
 40
0.75
 40
1.0
 40
1.0
 40
1.0
 40
1.0
 10
214.653483745581
 20
104.0163485880609
 30
0.0
 10
214.6199350290879
 20
103.9799356407866
 30
0.0
 10
214.5876493001637
 20
103.9447028244547
 30
0.0
 10
214.5347045204767
 20
103.8648480257916
 30
0.0
 10
214.5136997814928
 20
103.8182945536177
 30
0.0
 10
214.5243446422697
 20
103.6789706502305
 30
0.0
 10
214.5533809075257
 20
103.5956875330717
 30
0.0
 10
214.6177356013642
 20
103.4368669311222
 30
0.0
 10
214.6546716605794
 20
103.3582222585951
 30
0.0
 10
214.6930263746138
 20
103.280958629177
 30
0.0
  0
SPLINE
  5
120
330
1F
100
AcDbEntity
  8
0
  6
HIDDEN
 62
     7
370
     0
100
AcDbSpline
210
0.0
220
0.0
230
1.0
 70
     8
 71
     3
 72
    14
 73
    10
 74
     0
 42
0.00000001
 43
0.00000001
 40
0.0
 40
0.0
 40
0.0
 40
0.0
 40
0.25
 40
0.25
 40
0.5
 40
0.5
 40
0.75
 40
0.75
 40
1.0
 40
1.0
 40
1.0
 40
1.0
 10
214.6930263746161
 20
103.2809586291753
 30
0.0
 10
214.7300523917873
 20
103.3140505142126
 30
0.0
 10
214.7624197937706
 20
103.3545225490801
 30
0.0
 10
214.8072476664144
 20
103.4548728356057
 30
0.0
 10
214.8181382376725
 20
103.5129140939673
 30
0.0
 10
214.8094607984966
 20
103.6446753052586
 30
0.0
 10
214.7899115072456
 20
103.7162540534152
 30
0.0
 10
214.7317140227746
 20
103.8642779106337
 30
0.0
 10
214.6942279423308
 20
103.9394345932951
 30
0.0
 10
214.6534837455812
 20
104.0163485880609
 30
0.0
  0
SPLINE
  5
121
330
1F
100
AcDbEntity
  8
0
  6
HIDDEN
 62
     7
370
     0
100
AcDbSpline
210
0.0
220
0.0
230
1.0
 70
     8
 71
     3
 72
    10
 73
     6
 74
     0
 42
0.00000001
 43
0.00000001
 40
0.0
 40
0.0
 40
0.0
 40
0.0
 40
0.5
 40
0.5
 40
1.0
 40
1.0
 40
1.0
 40
1.0
 10
214.1439126163797
 20
104.6924320126539
 30
0.0
 10
214.1439126163797
 20
104.716726169811
 30
0.0
 10
214.1450909304782
 20
104.738777726824
 30
0.0
 10
214.1496253525084
 20
104.7786247375351
 30
0.0
 10
214.1529824414096
 20
104.7964224400591
 30
0.0
 10
214.157356360642
 20
104.8120419521156
 30
0.0
  0
SPLINE
  5
122
330
1F
100
AcDbEntity
  8
0
  6
HIDDEN
 62
     7
370
     0
100
AcDbSpline
210
0.0
220
0.0
230
1.0
 70
     8
 71
     3
 72
    18
 73
    14
 74
     0
 42
0.00000001
 43
0.00000001
 40
0.0
 40
0.0
 40
0.0
 40
0.0
 40
0.0757600260705023
 40
0.1641802044744437
 40
0.2246502474317327
 40
0.2713909958758003
 40
0.3182331105062741
 40
0.3816605563069174
 40
0.4894613630155447
 40
0.6369005483259205
 40
0.7838540878389214
 40
0.9175662669722631
 40
1.0
 40
1.0
 40
1.0
 40
1.0
 10
214.1745181897955
 20
104.8423627109854
 30
0.0
 10
214.1803322878883
 20
104.8552494474356
 30
0.0
 10
214.1929320699004
 20
104.8831764048978
 30
0.0
 10
214.2172007178613
 20
104.8834004295829
 30
0.0
 10
214.2339218952048
 20
104.8627834323032
 30
0.0
 10
214.2401408935531
 20
104.8236450482156
 30
0.0
 10
214.2367129681654
 20
104.7645775196289
 30
0.0
 10
214.2202985867163
 20
104.6673226585943
 30
0.0
 10
214.1883281344227
 20
104.5192529154252
 30
0.0
 10
214.1537651033169
 20
104.3365566515498
 30
0.0
 10
214.139755089976
 20
104.1697604533178
 30
0.0
 10
214.149537494044
 20
104.0631524847267
 30
0.0
 10
214.1672854714203
 20
104.0368343022548
 30
0.0
 10
214.1740541954466
 20
104.026797073209
 30
0.0
  0
LWPOLYLINE
  5
123
330
1F
100
AcDbEntity
  8
0
  6
HIDDEN
 62
     7
370
     0
100
AcDbPolyline
 90
        9
 70
   128
 43
0.0
 10
214.1853635605
 20
104.0051704575
 10
214.2185428872
 20
104.002411966
 10
214.2329113441
 20
104.0253780291
 10
214.2386412038
 20
104.0626120641
 10
214.2356472542
 20
104.1179381382
 10
214.2231105166
 20
104.1945082978
 10
214.1952859548
 20
104.3261480209
 10
214.1589044476
 20
104.5181715101
 10
214.1439126164
 20
104.6924320127
  0
SPLINE
  5
124
330
1F
100
AcDbEntity
  8
0
  6
HIDDEN
 62
     7
370
     0
100
AcDbSpline
210
0.0
220
0.0
230
1.0
 70
     8
 71
     3
 72
     8
 73
     4
 74
     0
 42
0.00000001
 43
0.00000001
 40
0.0
 40
0.0
 40
0.0
 40
0.0
 40
1.0
 40
1.0
 40
1.0
 40
1.0
 10
216.8859466555907
 20
108.8163695218171
 30
0.0
 10
216.8444776109371
 20
108.8558548268156
 30
0.0
 10
216.7988318327232
 20
108.8974899454885
 30
0.0
 10
216.7491385982604
 20
108.9432499139043
 30
0.0
  0
SPLINE
  5
125
330
1F
100
AcDbEntity
  8
0
  6
HIDDEN
 62
     7
370
     0
100
AcDbSpline
210
0.0
220
0.0
230
1.0
 70
     8
 71
     3
 72
    38
 73
    34
 74
     0
 42
0.00000001
 43
0.00000001
 40
0.0
 40
0.0
 40
0.0
 40
0.0
 40
0.0625000000000001
 40
0.0625000000000001
 40
0.1250000000000002
 40
0.1250000000000002
 40
0.1875000000000003
 40
0.1875000000000003
 40
0.2500000000000004
 40
0.2500000000000004
 40
0.3125000000000006
 40
0.3125000000000006
 40
0.3750000000000007
 40
0.3750000000000007
 40
0.4375000000000008
 40
0.4375000000000008
 40
0.5000000000000009
 40
0.5000000000000009
 40
0.5625000000000008
 40
0.5625000000000008
 40
0.6250000000000007
 40
0.6250000000000007
 40
0.6875000000000006
 40
0.6875000000000006
 40
0.7500000000000004
 40
0.7500000000000004
 40
0.8125000000000003
 40
0.8125000000000003
 40
0.8750000000000002
 40
0.8750000000000002
 40
0.9375000000000001
 40
0.9375000000000001
 40
1.0
 40
1.0
 40
1.0
 40
1.0
 10
216.7491385982604
 20
108.9432499139043
 30
0.0
 10
216.6473489156671
 20
109.0369828477912
 30
0.0
 10
216.5318126642634
 20
109.118263296311
 30
0.0
 10
216.2729277338598
 20
109.2525652103298
 30
0.0
 10
216.132784407581
 20
109.3033716746522
 30
0.0
 10
215.8402982997804
 20
109.3658045191709
 30
0.0
 10
215.6876141682988
 20
109.3770651958758
 30
0.0
 10
215.388046127895
 20
109.3576272627701
 30
0.0
 10
215.2383047745649
 20
109.3266292715114
 30
0.0
 10
214.9598330910094
 20
109.228877846457
 30
0.0
 10
214.8275726327541
 20
109.1609824167771
 30
0.0
 10
214.5947811702655
 20
109.0005759338887
 30
0.0
 10
214.4909482318654
 20
108.9058584755087
 30
0.0
 10
214.3227640316991
 20
108.7043231985668
 30
0.0
 10
214.256062494315
 20
108.5948059975199
 30
0.0
 10
214.1671018170787
 20
108.3754794062323
 30
0.0
 10
214.1439986004849
 20
108.2642105029437
 30
0.0
 10
214.1438271166539
 20
108.0507924191879
 30
0.0
 10
214.1664337387159
 20
107.9495508481385
 30
0.0
 10
214.255784331809
 20
107.7627737690582
 30
0.0
 10
214.3209001776519
 20
107.6797996137124
 30
0.0
 10
214.4909861214538
 20
107.5324762160304
 30
0.0
 10
214.5921482718479
 20
107.4712565562923
 30
0.0
 10
214.8268802386376
 20
107.3690922706316
 30
0.0
 10
214.9567797409255
 20
107.3299903657105
 30
0.0
 10
215.2360092410765
 20
107.2737237130769
 30
0.0
 10
215.3847842830268
 20
107.2569194008384
 30
0.0
 10
215.6843057581285
 20
107.2459916448897
 30
0.0
 10
215.8376447126217
 20
107.2518901526608
 30
0.0
 10
216.1295102272288
 20
107.2861102624555
 30
0.0
 10
216.2717638796492
 20
107.314911123093
 30
0.0
 10
216.5290088800107
 20
107.3943702691679
 30
0.0
 10
216.6473320432309
 20
107.4458830055708
 30
0.0
 10
216.7491385982604
 20
107.5090424470594
 30
0.0
  0
SPLINE
  5
126
330
1F
100
AcDbEntity
  8
0
  6
HIDDEN
 62
     7
370
     0
100
AcDbSpline
210
0.0
220
0.0
230
1.0
 70
     8
 71
     3
 72
     8
 73
     4
 74
     0
 42
0.00000001
 43
0.00000001
 40
0.0
 40
0.0
 40
0.0
 40
0.0
 40
1.0
 40
1.0
 40
1.0
 40
1.0
 10
216.7491385982604
 20
107.5090424470594
 30
0.0
 10
216.7988318327232
 20
107.5398714730835
 30
0.0
 10
216.8444776109371
 20
107.5798346116957
 30
0.0
 10
216.8859466555907
 20
107.6269566873122
 30
0.0
  0
SPLINE
  5
127
330
1F
100
AcDbEntity
  8
0
  6
HIDDEN
 62
     7
370
     0
100
AcDbSpline
210
0.0
220
0.0
230
1.0
 70
     8
 71
     3
 72
    12
 73
     8
 74
     0
 42
0.00000001
 43
0.00000001
 40
0.0
 40
0.0
 40
0.0
 40
0.0
 40
0.25
 40
0.25
 40
0.5
 40
0.5
 40
1.0
 40
1.0
 40
1.0
 40
1.0
 10
216.8859466555907
 20
107.6269566873122
 30
0.0
 10
216.9699307688787
 20
107.7223894557787
 30
0.0
 10
217.0337800236902
 20
107.8211180727941
 30
0.0
 10
217.1215289630268
 20
108.0284086901407
 30
0.0
 10
217.1437771196956
 20
108.1342340511367
 30
0.0
 10
217.144181758472
 20
108.4496889158236
 30
0.0
 10
217.0539097779192
 20
108.6564411904783
 30
0.0
 10
216.8859466555907
 20
108.8163695218171
 30
0.0
  0
SPLINE
  5
128
330
1F
100
AcDbEntity
  8
0
  6
HIDDEN
 62
     7
370
     0
100
AcDbSpline
210
0.0
220
0.0
230
1.0
 70
     8
 71
     3
 72
    14
 73
    10
 74
     0
 42
0.00000001
 43
0.00000001
 40
0.0
 40
0.0
 40
0.0
 40
0.0
 40
0.25
 40
0.25
 40
0.5
 40
0.5
 40
0.75
 40
0.75
 40
1.0
 40
1.0
 40
1.0
 40
1.0
 10
214.693026374616
 20
104.921577631396
 30
0.0
 10
214.6545228641019
 20
104.9545085103719
 30
0.0
 10
214.6174099404618
 20
104.9856862736882
 30
0.0
 10
214.5528281622449
 20
105.0543080050158
 30
0.0
 10
214.5240825679672
 20
105.0916169226729
 30
0.0
 10
214.5138452637918
 20
105.2136065397803
 30
0.0
 10
214.5351779140705
 20
105.2955342531116
 30
0.0
 10
214.5880521943185
 20
105.4528608710944
 30
0.0
 10
214.6200957780633
 20
105.5317386266898
 30
0.0
 10
214.6534837455811
 20
105.6094905477667
 30
0.0
  0
SPLINE
  5
129
330
1F
100
AcDbEntity
  8
0
  6
HIDDEN
 62
     7
370
     0
100
AcDbSpline
210
0.0
220
0.0
230
1.0
 70
     8
 71
     3
 72
    12
 73
     8
 74
     0
 42
0.00000001
 43
0.00000001
 40
0.0
 40
0.0
 40
0.0
 40
0.0
 40
0.5000000000000009
 40
0.5000000000000009
 40
0.7500000000000004
 40
0.7500000000000004
 40
1.0
 40
1.0
 40
1.0
 40
1.0
 10
214.6534837455811
 20
105.6094905477667
 30
0.0
 10
214.7348579087905
 20
105.5570560207786
 30
0.0
 10
214.8047073822756
 20
105.4708757334797
 30
0.0
 10
214.8182482847415
 20
105.2844195603362
 30
0.0
 10
214.8072967550755
 20
105.2161688399501
 30
0.0
 10
214.7624471211843
 20
105.0713845753064
 30
0.0
 10
214.7300595062732
 20
104.9976039348606
 30
0.0
 10
214.6930263746161
 20
104.921577631396
 30
0.0
  0
SPLINE
  5
12A
330
1F
100
AcDbEntity
  8
0
  6
HIDDEN
 62
     7
370
     0
100
AcDbSpline
210
0.0
220
0.0
230
1.0
 70
     8
 71
     3
 72
    48
 73
    44
 74
     0
 42
0.00000001
 43
0.00000001
 40
-0.0624999999999991
 40
-0.0624999999999991
 40
0.0
 40
0.0
 40
0.0312500000000015
 40
0.0312500000000015
 40
0.062500000000003
 40
0.062500000000003
 40
0.1250000000000046
 40
0.1250000000000046
 40
0.1875000000000061
 40
0.1875000000000061
 40
0.2500000000000076
 40
0.2500000000000076
 40
0.3125000000000091
 40
0.3125000000000091
 40
0.3437500000000089
 40
0.3437500000000089
 40
0.3750000000000086
 40
0.3750000000000086
 40
0.4062500000000083
 40
0.4062500000000083
 40
0.437500000000008
 40
0.437500000000008
 40
0.5000000000000071
 40
0.5000000000000071
 40
0.5625000000000062
 40
0.5625000000000062
 40
0.6250000000000052
 40
0.6250000000000052
 40
0.6875000000000043
 40
0.6875000000000043
 40
0.7500000000000033
 40
0.7500000000000033
 40
0.8125000000000023
 40
0.8125000000000023
 40
0.843750000000002
 40
0.843750000000002
 40
0.8750000000000016
 40
0.8750000000000016
 40
0.9062500000000012
 40
0.9062500000000012
 40
0.9375000000000009
 40
0.9375000000000009
 40
1.0
 40
1.0
 40
1.031250000000002
 40
1.031250000000002
 10
216.7747025937317
 20
103.2380274796227
 30
0.0
 10
216.8967704242487
 20
103.2414188048446
 30
0.0
 10
216.9352327541664
 20
103.2498656207909
 30
0.0
 10
217.0053822299329
 20
103.2821404848451
 30
0.0
 10
217.037399362708
 20
103.306413242311
 30
0.0
 10
217.1161349496257
 20
103.4032359038322
 30
0.0
 10
217.1458633504465
 20
103.5023855415672
 30
0.0
 10
217.1417515964164
 20
103.7513073433369
 30
0.0
 10
217.107705503751
 20
103.9019087904315
 30
0.0
 10
216.9963393452262
 20
104.21082396096
 30
0.0
 10
216.9199404216357
 20
104.3695838405858
 30
0.0
 10
216.7567672413712
 20
104.6773550874241
 30
0.0
 10
216.6681277753557
 20
104.8280926203343
 30
0.0
 10
216.5589136746268
 20
105.0460178338568
 30
0.0
 10
216.5259921269149
 20
105.1191734935492
 30
0.0
 10
216.4815414139151
 20
105.258710137195
 30
0.0
 10
216.470308595491
 20
105.3267107725636
 30
0.0
 10
216.4770963939149
 20
105.4466442840747
 30
0.0
 10
216.4948433572006
 20
105.5000630187296
 30
0.0
 10
216.5469938836733
 20
105.5882100970591
 30
0.0
 10
216.5813670481404
 20
105.6243322831435
 30
0.0
 10
216.6933137088384
 20
105.7104316334942
 30
0.0
 10
216.7787976859919
 20
105.7395286508886
 30
0.0
 10
216.9369491638924
 20
105.7430672463233
 30
0.0
 10
217.0091940393273
 20
105.7171023928431
 30
0.0
 10
217.1148840957123
 20
105.5954053288958
 30
0.0
 10
217.1453831414706
 20
105.4985565696681
 30
0.0
 10
217.1423267655526
 20
105.2494074992008
 30
0.0
 10
217.1084041151582
 20
105.0964721763341
 30
0.0
 10
216.99843868756
 20
104.7835912801678
 30
0.0
 10
216.9232834221672
 20
104.6226353581086
 30
0.0
 10
216.7645234924208
 20
104.3131328959045
 30
0.0
 10
216.677878771779
 20
104.1602544293737
 30
0.0
 10
216.5694086373333
 20
103.9416308138818
 30
0.0
 10
216.5364590706826
 20
103.8694838280966
 30
0.0
 10
216.4876695309223
 20
103.7271358182348
 30
0.0
 10
216.4730779367986
 20
103.6588471663138
 30
0.0
 10
216.4730596999671
 20
103.5337664043245
 30
0.0
 10
216.4877419269263
 20
103.4789048488439
 30
0.0
 10
216.5377543029508
 20
103.3869588253965
 30
0.0
 10
216.5717406089817
 20
103.3506402603241
 30
0.0
 10
216.6860381775742
 20
103.2641671713851
 30
0.0
 10
216.7747025937317
 20
103.2380274796227
 30
0.0
 10
216.8967704242487
 20
103.2414188048446
 30
0.0
  0
LINE
  5
12B
330
1F
100
AcDbEntity
  8
0
  6
HIDDEN
 62
     7
370
     0
100
AcDbLine
 10
59.8439126164
 20
84.5345646226
 30
0.0
 11
59.8439126164
 21
86.6760509922
 31
0.0
  0
LINE
  5
12C
330
1F
100
AcDbEntity
  8
0
  6
HIDDEN
 62
     7
370
     0
100
AcDbLine
 10
46.3939126164
 20
84.5345646226
 30
0.0
 11
46.3939126164
 21
87.3678594648
 31
0.0
  0
LINE
  5
12D
330
1F
100
AcDbEntity
  8
0
  6
HIDDEN
 62
     7
370
     0
100
AcDbLine
 10
46.3939126164
 20
139.2745646226
 30
0.0
 11
46.3939126164
 21
136.4412697804
 31
0.0
  0
LINE
  5
12E
330
1F
100
AcDbEntity
  8
0
  6
HIDDEN
 62
     7
370
     0
100
AcDbLine
 10
54.8439126164
 20
139.2745646226
 30
0.0
 11
54.8439126164
 21
137.133078253
 31
0.0
  0
LINE
  5
12F
330
1F
100
AcDbEntity
  8
0
  6
HIDDEN
 62
     7
370
     0
100
AcDbLine
 10
123.5939126164
 20
155.8045646226
 30
0.0
 11
109.5939126164
 21
155.8045646226
 31
0.0
  0
LINE
  5
130
330
1F
100
AcDbEntity
  8
0
  6
HIDDEN
 62
     7
370
     0
100
AcDbLine
 10
109.5939126164
 20
155.8045646226
 30
0.0
 11
99.5939126164
 21
155.8045646226
 31
0.0
  0
ARC
  5
131
330
1F
100
AcDbEntity
  8
0
  6
HIDDEN
 62
     7
370
     0
100
AcDbCircle
 10
201.5944781836
 20
104.5137394802
 30
0.0
 40
13.10489590459556
100
AcDbArc
 50
1.7833929067
 51
4.7963217298
  0
ARC
  5
132
330
1F
100
AcDbEntity
  8
0
  6
HIDDEN
 62
     7
370
     0
100
AcDbCircle
 10
230.8096788652
 20
104.5163247167
 30
0.0
 40
16.16392949977485
100
AcDbArc
 50
181.7725326002
 51
184.3832381173
  0
SPLINE
  5
133
330
1F
100
AcDbEntity
  8
0
  6
HIDDEN
 62
     7
370
     0
100
AcDbSpline
210
0.0
220
0.0
230
1.0
 70
     8
 71
     3
 72
    30
 73
    26
 74
     0
 42
0.00000001
 43
0.00000001
 40
0.0
 40
0.0
 40
0.0
 40
0.0
 40
0.0531667895944306
 40
0.1125460296559538
 40
0.1779415679821296
 40
0.2129647100201478
 40
0.2495168542536672
 40
0.2912815776497699
 40
0.3261229899598991
 40
0.3540373789034075
 40
0.3750220973121863
 40
0.4414779749354779
 40
0.5001939956662949
 40
0.5547072327721178
 40
0.6144498286121054
 40
0.679473417768819
 40
0.7140294887762105
 40
0.7499254981893783
 40
0.7913888898760563
 40
0.8260548959441428
 40
0.8539197326816724
 40
0.8749805480645612
 40
0.9411652353121804
 40
0.9999141591644691
 40
1.0
 40
1.0
 40
1.0
 40
1.0
 10
85.64348944272929
 20
74.8046276406796
 30
0.0
 10
85.62728791449564
 20
74.80952979212914
 30
0.0
 10
85.59299173654388
 20
74.81990690322854
 30
0.0
 10
85.29164514205361
 20
74.89556816566977
 30
0.0
 10
84.84947287583486
 20
74.99185529837871
 30
0.0
 10
84.35464070465183
 20
75.09152000812527
 30
0.0
 10
83.88416490445385
 20
75.1837981809692
 30
0.0
 10
83.35324351880192
 20
75.27943020582465
 30
0.0
 10
82.81509300780374
 20
75.3650804506941
 30
0.0
 10
82.35704567523025
 20
75.43237224336248
 30
0.0
 10
81.70148135362899
 20
75.52072041243471
 30
0.0
 10
80.81817491593567
 20
75.6173784966199
 30
0.0
 10
79.68951318312723
 20
75.70415367340294
 30
0.0
 10
78.5997514334049
 20
75.742232371111
 30
0.0
 10
77.50372315496763
 20
75.74408280587595
 30
0.0
 10
76.5983319080257
 20
75.71792135029045
 30
0.0
 10
75.90202919761037
 20
75.6813141251616
 30
0.0
 10
75.37534946933538
 20
75.64229724968452
 30
0.0
 10
74.90870335430272
 20
75.60008812221261
 30
0.0
 10
74.5374880785789
 20
75.56308403264322
 30
0.0
 10
74.28344160133685
 20
75.53438327219885
 30
0.0
 10
73.98238644862745
 20
75.49800332160918
 30
0.0
 10
73.72690265382383
 20
75.4652231546203
 30
0.0
 10
73.62768192887766
 20
75.4488852699178
 30
0.0
 10
73.64396248616079
 20
75.45147885608685
 30
0.0
 10
73.64398623974674
 20
75.45148264016937
 30
0.0
  0
SPLINE
  5
134
330
1F
100
AcDbEntity
  8
0
  6
HIDDEN
 62
     7
370
     0
100
AcDbSpline
210
0.0
220
0.0
230
1.0
 70
     8
 71
     3
 72
    30
 73
    26
 74
     0
 42
0.00000001
 43
0.00000001
 40
0.0
 40
0.0
 40
0.0
 40
0.0
 40
0.0001123288057695
 40
0.0285431152663135
 40
0.0588466796063202
 40
0.091027196450477
 40
0.1250880910051604
 40
0.1546766141497773
 40
0.1963554560485685
 40
0.2501101496291966
 40
0.320525387238388
 40
0.3856104300246703
 40
0.445403860889207
 40
0.4999571692316274
 40
0.5283494388508946
 40
0.558634027028705
 40
0.5908185964995195
 40
0.6249094714581434
 40
0.6541844575853767
 40
0.6958630078636641
 40
0.7499307292180327
 40
0.8215905285694356
 40
0.8871422909715975
 40
0.9466378748868088
 40
1.0
 40
1.0
 40
1.0
 40
1.0
 10
73.64400794848005
 20
148.3575763316551
 30
0.0
 10
73.64397608872191
 20
148.3575832787813
 30
0.0
 10
73.63588042045104
 20
148.3593485661735
 30
0.0
 10
73.66454189812045
 20
148.3538936474486
 30
0.0
 10
73.73792874427468
 20
148.3433508001024
 30
0.0
 10
73.88158528782542
 20
148.3236655924489
 30
0.0
 10
74.08262098778292
 20
148.2988263285937
 30
0.0
 10
74.36525153705195
 20
148.2646178634549
 30
0.0
 10
74.77866066262662
 20
148.2209379666949
 30
0.0
 10
75.45494816380884
 20
148.1578948991616
 30
0.0
 10
76.39337906472478
 20
148.0965977287289
 30
0.0
 10
77.50287227822066
 20
148.0653092852284
 30
0.0
 10
78.60035300890941
 20
148.0669644528251
 30
0.0
 10
79.50038424736672
 20
148.0982706549224
 30
0.0
 10
80.21172517321764
 20
148.1451038037249
 30
0.0
 10
80.77714207420841
 20
148.1922706656208
 30
0.0
 10
81.36606549703674
 20
148.2517096721708
 30
0.0
 10
81.93047514951424
 20
148.3180668787788
 30
0.0
 10
82.52467134345042
 20
148.3999862852103
 30
0.0
 10
83.19127950442092
 20
148.5016342679607
 30
0.0
 10
83.99261225012116
 20
148.643773178561
 30
0.0
 10
84.74512223462908
 20
148.7950177493274
 30
0.0
 10
85.29040872959524
 20
148.9128686225868
 30
0.0
 10
85.59313026109409
 20
148.9890978543361
 30
0.0
 10
85.62742071170712
 20
148.9995501638306
 30
0.0
 10
85.64363414835715
 20
149.0044922936307
 30
0.0
  0
LINE
  5
135
330
1F
100
AcDbEntity
  8
0
  6
HIDDEN
 62
     7
370
     0
100
AcDbLine
 10
152.7439126164
 20
105.9045646226
 30
0.0
 11
152.7439126164
 21
117.9045646226
 31
0.0
  0
LINE
  5
136
330
1F
100
AcDbEntity
  8
0
  6
HIDDEN
 62
     7
370
     0
100
AcDbLine
 10
154.3061502259
 20
108.5045646226
 30
0.0
 11
154.3061502259
 21
115.3045646226
 31
0.0
  0
LINE
  5
137
330
1F
100
AcDbEntity
  8
0
  6
HIDDEN
 62
     7
370
     0
100
AcDbLine
 10
213.6439126164
 20
107.0045646226
 30
0.0
 11
213.6439126164
 21
116.8045640324
 31
0.0
  0
SPLINE
  5
138
330
1F
100
AcDbEntity
  8
0
  6
HIDDEN
 62
     7
370
     0
100
AcDbSpline
210
0.0
220
0.0
230
1.0
 70
     8
 71
     3
 72
    38
 73
    34
 74
     0
 42
0.00000001
 43
0.00000001
 40
0.0
 40
0.0
 40
0.0
 40
0.0
 40
0.0625
 40
0.0625
 40
0.125
 40
0.125
 40
0.1875
 40
0.1875
 40
0.25
 40
0.25
 40
0.3125
 40
0.3125
 40
0.375
 40
0.375
 40
0.4375
 40
0.4375
 40
0.5
 40
0.5
 40
0.5625
 40
0.5625
 40
0.625
 40
0.625
 40
0.6875
 40
0.6875
 40
0.75
 40
0.75
 40
0.8125
 40
0.8125
 40
0.875
 40
0.875
 40
0.9375
 40
0.9375
 40
1.0
 40
1.0
 40
1.0
 40
1.0
 10
216.7491385982604
 20
114.8658793313491
 30
0.0
 10
216.647348915667
 20
114.7721463974623
 30
0.0
 10
216.5318126642635
 20
114.6908659489425
 30
0.0
 10
216.2729277338598
 20
114.5565640349236
 30
0.0
 10
216.1327844075811
 20
114.5057575706012
 30
0.0
 10
215.8402982997804
 20
114.4433247260825
 30
0.0
 10
215.6876141682988
 20
114.4320640493776
 30
0.0
 10
215.3880461278951
 20
114.4515019824833
 30
0.0
 10
215.2383047745649
 20
114.4824999737421
 30
0.0
 10
214.9598330910094
 20
114.5802513987965
 30
0.0
 10
214.8275726327541
 20
114.6481468284764
 30
0.0
 10
214.5947811702655
 20
114.8085533113647
 30
0.0
 10
214.4909482318654
 20
114.9032707697448
 30
0.0
 10
214.3227640316991
 20
115.1048060466867
 30
0.0
 10
214.256062494315
 20
115.2143232477336
 30
0.0
 10
214.1671018170786
 20
115.4336498390212
 30
0.0
 10
214.1439986004849
 20
115.5449187423097
 30
0.0
 10
214.1438271166539
 20
115.7583368260655
 30
0.0
 10
214.1664337387159
 20
115.8595783971149
 30
0.0
 10
214.255784331809
 20
116.0463554761952
 30
0.0
 10
214.3209001776519
 20
116.129329631541
 30
0.0
 10
214.4909861214538
 20
116.276653029223
 30
0.0
 10
214.592148271848
 20
116.3378726889612
 30
0.0
 10
214.8268802386376
 20
116.4400369746219
 30
0.0
 10
214.9567797409255
 20
116.4791388795429
 30
0.0
 10
215.2360092410765
 20
116.5354055321765
 30
0.0
 10
215.3847842830269
 20
116.5522098444151
 30
0.0
 10
215.6843057581285
 20
116.5631376003637
 30
0.0
 10
215.8376447126217
 20
116.5572390925926
 30
0.0
 10
216.1295102272288
 20
116.523018982798
 30
0.0
 10
216.2717638796493
 20
116.4942181221604
 30
0.0
 10
216.5290088800107
 20
116.4147589760855
 30
0.0
 10
216.6473320432309
 20
116.3632462396827
 30
0.0
 10
216.7491385982604
 20
116.3000867981941
 30
0.0
  0
SPLINE
  5
139
330
1F
100
AcDbEntity
  8
0
  6
HIDDEN
 62
     7
370
     0
100
AcDbSpline
210
0.0
220
0.0
230
1.0
 70
     8
 71
     3
 72
     8
 73
     4
 74
     0
 42
0.00000001
 43
0.00000001
 40
0.0
 40
0.0
 40
0.0
 40
0.0
 40
1.0
 40
1.0
 40
1.0
 40
1.0
 10
216.7491385982604
 20
116.3000867981941
 30
0.0
 10
216.7988318327232
 20
116.2692577721699
 30
0.0
 10
216.8444776109371
 20
116.2292946335578
 30
0.0
 10
216.8859466555907
 20
116.1821725579412
 30
0.0
  0
SPLINE
  5
13A
330
1F
100
AcDbEntity
  8
0
  6
HIDDEN
 62
     7
370
     0
100
AcDbSpline
210
0.0
220
0.0
230
1.0
 70
     8
 71
     3
 72
    12
 73
     8
 74
     0
 42
0.00000001
 43
0.00000001
 40
0.0
 40
0.0
 40
0.0
 40
0.0
 40
0.2499999999999998
 40
0.2499999999999998
 40
0.4999999999999996
 40
0.4999999999999996
 40
1.0
 40
1.0
 40
1.0
 40
1.0
 10
216.8859466555907
 20
116.1821725579412
 30
0.0
 10
216.9699307688787
 20
116.0867397894748
 30
0.0
 10
217.0337800236902
 20
115.9880111724593
 30
0.0
 10
217.1215289630268
 20
115.7807205551128
 30
0.0
 10
217.1437771196956
 20
115.6748951941168
 30
0.0
 10
217.144181758472
 20
115.3594403294299
 30
0.0
 10
217.0539097779192
 20
115.1526880547751
 30
0.0
 10
216.8859466555907
 20
114.9927597234364
 30
0.0
  0
LINE
  5
13B
330
1F
100
AcDbEntity
  8
0
  6
HIDDEN
 62
     7
370
     0
100
AcDbLine
 10
217.6439126164
 20
106.9045646226
 30
0.0
 11
217.6439126164
 21
116.9045646226
 31
0.0
  0
LINE
  5
13C
330
1F
100
AcDbEntity
  8
0
  6
HIDDEN
 62
     7
370
     0
100
AcDbLine
 10
163.5939126164
 20
128.8272143534
 30
0.0
 11
166.0939126164
 21
128.8272143534
 31
0.0
  0
LINE
  5
13D
330
1F
100
AcDbEntity
  8
0
  6
HIDDEN
 62
     7
370
     0
100
AcDbLine
 10
161.0939126164
 20
128.8272143534
 30
0.0
 11
163.5939126164
 21
128.8272143534
 31
0.0
  0
LINE
  5
13E
330
1F
100
AcDbEntity
  8
0
  6
HIDDEN
 62
     7
370
     0
100
AcDbLine
 10
166.0939126164
 20
94.9819148918
 30
0.0
 11
161.0939126164
 21
94.9819148918
 31
0.0
  0
SPLINE
  5
13F
330
1F
100
AcDbEntity
  8
0
  6
HIDDEN
 62
     7
370
     0
100
AcDbSpline
210
0.0
220
0.0
230
1.0
 70
     8
 71
     3
 72
     8
 73
     4
 74
     0
 42
0.00000001
 43
0.00000001
 40
0.0
 40
0.0
 40
0.0
 40
0.0
 40
1.0
 40
1.0
 40
1.0
 40
1.0
 10
216.8859466555907
 20
114.9927597234364
 30
0.0
 10
216.8444776109371
 20
114.9532744184378
 30
0.0
 10
216.7988318327232
 20
114.9116392997649
 30
0.0
 10
216.7491385982604
 20
114.8658793313491
 30
0.0
  0
LINE
  5
140
330
1F
100
AcDbEntity
  8
0
  6
HIDDEN
 62
     7
370
     0
100
AcDbLine
 10
163.5939126164
 20
120.4045646226
 30
0.0
 11
166.0939126164
 21
120.4045646226
 31
0.0
  0
LINE
  5
141
330
1F
100
AcDbEntity
  8
0
  6
HIDDEN
 62
     7
370
     0
100
AcDbLine
 10
161.0939126164
 20
120.4045646226
 30
0.0
 11
163.5939126164
 21
120.4045646226
 31
0.0
  0
LINE
  5
142
330
1F
100
AcDbEntity
  8
0
  6
HIDDEN
 62
     7
370
     0
100
AcDbLine
 10
166.0939126164
 20
103.4045646226
 30
0.0
 11
161.0939126164
 21
103.4045646226
 31
0.0
  0
SPLINE
  5
143
330
1F
100
AcDbEntity
  8
0
  6
HIDDEN
 62
     7
370
     0
100
AcDbSpline
210
0.0
220
0.0
230
1.0
 70
     8
 71
     3
 72
    48
 73
    44
 74
     0
 42
0.00000001
 43
0.00000001
 40
-0.0624999999999996
 40
-0.0624999999999996
 40
0.0
 40
0.0
 40
0.0625000000000009
 40
0.0625000000000009
 40
0.1250000000000019
 40
0.1250000000000019
 40
0.1875000000000028
 40
0.1875000000000028
 40
0.2500000000000037
 40
0.2500000000000037
 40
0.3125000000000047
 40
0.3125000000000047
 40
0.3437500000000042
 40
0.3437500000000042
 40
0.3750000000000037
 40
0.3750000000000037
 40
0.4062500000000032
 40
0.4062500000000032
 40
0.4375000000000027
 40
0.4375000000000027
 40
0.500000000000003
 40
0.500000000000003
 40
0.5625000000000032
 40
0.5625000000000032
 40
0.6250000000000033
 40
0.6250000000000033
 40
0.6562500000000031
 40
0.6562500000000031
 40
0.6875000000000029
 40
0.6875000000000029
 40
0.7500000000000022
 40
0.7500000000000022
 40
0.8125000000000017
 40
0.8125000000000017
 40
0.8437500000000013
 40
0.8437500000000013
 40
0.875000000000001
 40
0.875000000000001
 40
0.9062500000000007
 40
0.9062500000000007
 40
0.9375000000000004
 40
0.9375000000000004
 40
1.0
 40
1.0
 40
1.062500000000001
 40
1.062500000000001
 10
216.937658825405
 20
119.4753350769505
 30
0.0
 10
216.7745034694146
 20
119.1633109494983
 30
0.0
 10
216.6867995601633
 20
119.0139796961985
 30
0.0
 10
216.5348077307125
 20
118.7184956596139
 30
0.0
 10
216.4739201130207
 20
118.5735323326517
 30
0.0
 10
216.4722362765756
 20
118.3222902457918
 30
0.0
 10
216.5306829770793
 20
118.229994654207
 30
0.0
 10
216.6757060464384
 20
118.1071987623864
 30
0.0
 10
216.761225154699
 20
118.0744388347644
 30
0.0
 10
216.9205174969768
 20
118.0628469473937
 30
0.0
 10
216.9952315387618
 20
118.0845941186198
 30
0.0
 10
217.0788859458124
 20
118.1691506806128
 30
0.0
 10
217.1014493036435
 20
118.2055429088294
 30
0.0
 10
217.1332862769748
 20
118.295472363709
 30
0.0
 10
217.1424372755918
 20
118.3497208419989
 30
0.0
 10
217.1450490497813
 20
118.4702841949023
 30
0.0
 10
217.1385940623881
 20
118.5383799826068
 30
0.0
 10
217.1114067119117
 20
118.6822691180063
 30
0.0
 10
217.0908869274417
 20
118.7579683533494
 30
0.0
 10
217.0124713579212
 20
118.9923176611941
 30
0.0
 10
216.9392853635443
 20
119.1530246459419
 30
0.0
 10
216.7823061078216
 20
119.4631708438158
 30
0.0
 10
216.695930806772
 20
119.6161318302903
 30
0.0
 10
216.5468293525169
 20
119.9100923252031
 30
0.0
 10
216.482077003249
 20
120.0573374600663
 30
0.0
 10
216.4699044659838
 20
120.2491269758013
 30
0.0
 10
216.480285693849
 20
120.3062494343678
 30
0.0
 10
216.5239266252015
 20
120.4032447300812
 30
0.0
 10
216.5557254994797
 20
120.4420490711488
 30
0.0
 10
216.6657790585417
 20
120.5358495780373
 30
0.0
 10
216.7534455654712
 20
120.5661718880787
 30
0.0
 10
216.9181822330898
 20
120.5714186293184
 30
0.0
 10
216.9934954247442
 20
120.5455631577849
 30
0.0
 10
217.0782093706783
 20
120.456238285696
 30
0.0
 10
217.1009064386022
 20
120.4187148709405
 30
0.0
 10
217.1331597066134
 20
120.3265876630949
 30
0.0
 10
217.1423184482612
 20
120.2721474218327
 30
0.0
 10
217.1451177470942
 20
120.1515497075046
 30
0.0
 10
217.1387238053917
 20
120.0836069023352
 30
0.0
 10
217.1116307413093
 20
119.9411498880985
 30
0.0
 10
217.091008969519
 20
119.86602144514
 30
0.0
 10
217.0119141531787
 20
119.6341524412816
 30
0.0
 10
216.937658825405
 20
119.4753350769505
 30
0.0
 10
216.7745034694146
 20
119.1633109494983
 30
0.0
  0
SPLINE
  5
144
330
1F
100
AcDbEntity
  8
0
  6
HIDDEN
 62
     7
370
     0
100
AcDbSpline
210
0.0
220
0.0
230
1.0
 70
     8
 71
     3
 72
    14
 73
    10
 74
     0
 42
0.00000001
 43
0.00000001
 40
0.0
 40
0.0
 40
0.0
 40
0.0
 40
0.25
 40
0.25
 40
0.5
 40
0.5
 40
0.75
 40
0.75
 40
1.0
 40
1.0
 40
1.0
 40
1.0
 10
214.693026374616
 20
118.8875516138575
 30
0.0
 10
214.6545228641019
 20
118.8546207348816
 30
0.0
 10
214.6174099404618
 20
118.8234429715654
 30
0.0
 10
214.5528281622448
 20
118.7548212402377
 30
0.0
 10
214.524082567967
 20
118.7175123225807
 30
0.0
 10
214.5138452637916
 20
118.5955227054732
 30
0.0
 10
214.5351779140703
 20
118.5135949921418
 30
0.0
 10
214.5880521943185
 20
118.356268374159
 30
0.0
 10
214.6200957780633
 20
118.2773906185635
 30
0.0
 10
214.6534837455811
 20
118.1996386974867
 30
0.0
  0
SPLINE
  5
145
330
1F
100
AcDbEntity
  8
0
  6
HIDDEN
 62
     7
370
     0
100
AcDbSpline
210
0.0
220
0.0
230
1.0
 70
     8
 71
     3
 72
    12
 73
     8
 74
     0
 42
0.00000001
 43
0.00000001
 40
0.0
 40
0.0
 40
0.0
 40
0.0
 40
0.5
 40
0.5
 40
0.75
 40
0.75
 40
1.0
 40
1.0
 40
1.0
 40
1.0
 10
214.6534837455811
 20
118.1996386974867
 30
0.0
 10
214.7348579087905
 20
118.2520732244748
 30
0.0
 10
214.8047073822757
 20
118.3382535117738
 30
0.0
 10
214.8182482847417
 20
118.5247096849173
 30
0.0
 10
214.8072967550755
 20
118.5929604053034
 30
0.0
 10
214.7624471211844
 20
118.7377446699471
 30
0.0
 10
214.7300595062733
 20
118.8115253103929
 30
0.0
 10
214.6930263746161
 20
118.8875516138574
 30
0.0
  0
LWPOLYLINE
  5
146
330
1F
100
AcDbEntity
  8
0
  6
HIDDEN
 62
     7
370
     0
100
AcDbPolyline
 90
       17
 70
   128
 43
0.0
 10
215.6439126164
 20
119.6827392157
 10
216.2179377649
 20
119.7634771638
 10
216.7045727882
 20
119.9933993875
 10
217.0297319151
 20
120.3375023123
 10
217.1439126164
 20
120.7433993875
 10
217.0297319151
 20
121.1492964626
 10
216.7045727882
 20
121.4933993875
 10
216.2179377649
 20
121.7233216111
 10
215.6439126164
 20
121.8040595592
 10
215.0698874678
 20
121.7233216111
 10
214.5832524446
 20
121.4933993875
 10
214.2580933176
 20
121.1492964626
 10
214.1439126164
 20
120.7433993875
 10
214.2580933176
 20
120.3375023123
 10
214.5832524446
 20
119.9933993875
 10
215.0698874678
 20
119.7634771638
 10
215.6439126164
 20
119.6827392157
  0
SPLINE
  5
147
330
1F
100
AcDbEntity
  8
0
  6
HIDDEN
 62
     7
370
     0
100
AcDbSpline
210
0.0
220
0.0
230
1.0
 70
     8
 71
     3
 72
    18
 73
    14
 74
     0
 42
0.00000001
 43
0.00000001
 40
0.0
 40
0.0
 40
0.0
 40
0.0
 40
0.1419735476844526
 40
0.2230339879506768
 40
0.2802927630953854
 40
0.3249366566091961
 40
0.3696379614129747
 40
0.4323523035297728
 40
0.5385280270242518
 40
0.6827697978162596
 40
0.827042512309723
 40
0.9668376238362449
 40
1.0
 40
1.0
 40
1.0
 40
1.0
 10
214.1634108923364
 20
119.7707564500574
 30
0.0
 10
214.17552684823
 20
119.7896758368123
 30
0.0
 10
214.1945604640329
 20
119.8193973331498
 30
0.0
 10
214.2233359781773
 20
119.8075043711174
 30
0.0
 10
214.2369901829099
 20
119.7772515450161
 30
0.0
 10
214.2400758499802
 20
119.7318567768381
 30
0.0
 10
214.2336174349486
 20
119.6680090406958
 30
0.0
 10
214.213989583822
 20
119.5666836567937
 30
0.0
 10
214.1800746268961
 20
119.4168142843252
 30
0.0
 10
214.1476666691651
 20
119.2367934186229
 30
0.0
 10
214.1405182861189
 20
119.078813484449
 30
0.0
 10
214.1539054364275
 20
118.984676375639
 30
0.0
 10
214.1706039427608
 20
118.9679586554037
 30
0.0
 10
214.1738056668133
 20
118.9647532473323
 30
0.0
  0
LWPOLYLINE
  5
148
330
1F
100
AcDbEntity
  8
0
  6
HIDDEN
 62
     7
370
     0
100
AcDbPolyline
 90
       11
 70
   128
 43
0.0
 10
214.2043220925
 20
118.9288686321
 10
214.2242883633
 20
118.9356426069
 10
214.2360392028
 20
118.9626084063
 10
214.2387007556
 20
119.0024614024
 10
214.234071479
 20
119.0555501495
 10
214.2176639037
 20
119.1503918108
 10
214.1835094608
 20
119.3181188343
 10
214.1549506298
 20
119.487894187
 10
214.1440733369
 20
119.6519498861
 10
214.1578994091
 20
119.7552939843
 10
214.1634108923
 20
119.7707564501
  0
SPLINE
  5
149
330
1F
100
AcDbEntity
  8
0
  6
HIDDEN
 62
     7
370
     0
100
AcDbSpline
210
0.0
220
0.0
230
1.0
 70
     8
 71
     3
 72
    14
 73
    10
 74
     0
 42
0.00000001
 43
0.00000001
 40
0.0
 40
0.0
 40
0.0
 40
0.0
 40
0.25
 40
0.25
 40
0.5
 40
0.5
 40
0.75
 40
0.75
 40
1.0
 40
1.0
 40
1.0
 40
1.0
 10
214.653483745581
 20
119.7927806571927
 30
0.0
 10
214.6199350290879
 20
119.829193604467
 30
0.0
 10
214.5876493001638
 20
119.8644264207988
 30
0.0
 10
214.5347045204769
 20
119.944281219462
 30
0.0
 10
214.5136997814929
 20
119.9908346916359
 30
0.0
 10
214.5243446422697
 20
120.1301585950231
 30
0.0
 10
214.5533809075258
 20
120.2134417121818
 30
0.0
 10
214.6177356013642
 20
120.3722623141312
 30
0.0
 10
214.6546716605794
 20
120.4509069866582
 30
0.0
 10
214.6930263746138
 20
120.5281706160763
 30
0.0
  0
SPLINE
  5
14A
330
1F
100
AcDbEntity
  8
0
  6
HIDDEN
 62
     7
370
     0
100
AcDbSpline
210
0.0
220
0.0
230
1.0
 70
     8
 71
     3
 72
    14
 73
    10
 74
     0
 42
0.00000001
 43
0.00000001
 40
0.0
 40
0.0
 40
0.0
 40
0.0
 40
0.25
 40
0.25
 40
0.5
 40
0.5
 40
0.75
 40
0.75
 40
1.0
 40
1.0
 40
1.0
 40
1.0
 10
214.6930263746161
 20
120.5281706160782
 30
0.0
 10
214.7300523917872
 20
120.495078731041
 30
0.0
 10
214.7624197937705
 20
120.4546066961732
 30
0.0
 10
214.8072476664143
 20
120.3542564096476
 30
0.0
 10
214.8181382376724
 20
120.2962151512861
 30
0.0
 10
214.8094607984964
 20
120.1644539399948
 30
0.0
 10
214.7899115072455
 20
120.0928751918382
 30
0.0
 10
214.7317140227746
 20
119.9448513346198
 30
0.0
 10
214.6942279423305
 20
119.869694651958
 30
0.0
 10
214.653483745581
 20
119.7927806571923
 30
0.0
  0
ARC
  5
14B
330
1F
100
AcDbEntity
  8
0
  6
HIDDEN
 62
     7
370
     0
100
AcDbCircle
 10
230.8096788649
 20
119.2928045286
 30
0.0
 40
16.16392949939641
100
AcDbArc
 50
175.6167618827
 51
178.2274673998
  0
ARC
  5
14C
330
1F
100
AcDbEntity
  8
0
  6
HIDDEN
 62
     7
370
     0
100
AcDbCircle
 10
201.5944781834
 20
119.2953897651
 30
0.0
 40
13.10489590475398
100
AcDbArc
 50
355.2036782702
 51
358.2166070933
  0
LWPOLYLINE
  5
14D
330
1F
100
AcDbEntity
  8
0
  6
HIDDEN
 62
     7
370
     0
100
AcDbPolyline
 90
       28
 70
   128
 43
0.0
 10
103.6439126164
 20
157.2172704744
 10
104.7969919701
 20
157.175622509
 10
105.8879085174
 20
157.0529238655
 10
106.8578506648
 20
156.8557892594
 10
107.6545285802
 20
156.5948462684
 10
108.2349931508
 20
156.2841623967
 10
108.5679513814
 20
155.9404866922
 10
108.6354534077
 20
155.5823468012
 10
108.433860178
 20
155.2290501378
 10
107.9740396353
 20
154.8996430166
 10
107.2807808242
 20
154.6118838608
 10
106.3914575067
 20
154.3812858409
 10
105.354013333
 20
154.220280556
 10
104.224377187
 20
154.1375478425
 10
103.0634480458
 20
154.1375478425
 10
101.9338118998
 20
154.220280556
 10
100.896367726
 20
154.3812858409
 10
100.0070444085
 20
154.6118838608
 10
99.3137855975
 20
154.8996430166
 10
98.8539650548
 20
155.2290501378
 10
98.652371825
 20
155.5823468012
 10
98.7198738513
 20
155.9404866922
 10
99.052832082
 20
156.2841623967
 10
99.6332966526
 20
156.5948462684
 10
100.4299745679
 20
156.8557892594
 10
101.3999167154
 20
157.0529238655
 10
102.4908332627
 20
157.175622509
 10
103.6439126164
 20
157.2172704744
  0
LINE
  5
14E
330
1F
100
AcDbEntity
  8
0
  6
HIDDEN
 62
     7
370
     0
100
AcDbLine
 10
117.9059416373
 20
150.8555273835
 30
0.0
 11
117.9059416373
 21
143.2545646226
 31
0.0
  0
LINE
  5
14F
330
1F
100
AcDbEntity
  8
0
  6
HIDDEN
 62
     7
370
     0
100
AcDbLine
 10
112.7339126164
 20
146.6187998151
 30
0.0
 11
112.7339126164
 21
143.2545646226
 31
0.0
  0
LINE
  5
150
330
1F
100
AcDbEntity
  8
0
  6
HIDDEN
 62
     7
370
     0
100
AcDbLine
 10
116.5539126164
 20
146.6187998151
 30
0.0
 11
116.5539126164
 21
143.2545646226
 31
0.0
  0
CIRCLE
  5
151
330
1F
100
AcDbEntity
  8
0
  6
HIDDEN
 62
     7
370
     0
100
AcDbCircle
 10
101.6439126164
 20
111.9045646226
 30
0.0
 40
5.0
  0
LINE
  5
152
330
1F
100
AcDbEntity
  8
0
  6
HIDDEN
 62
     7
370
     0
100
AcDbLine
 10
254.413038952
 20
116.7760980865
 30
0.0
 11
254.5822673391
 21
117.0516799432
 31
0.0
  0
LINE
  5
153
330
1F
100
AcDbEntity
  8
0
  6
HIDDEN
 62
     7
370
     0
100
AcDbLine
 10
254.6439126164
 20
119.4980482897
 30
0.0
 11
254.496257266
 21
119.7714696272
 31
0.0
  0
LINE
  5
154
330
1F
100
AcDbEntity
  8
0
  6
HIDDEN
 62
     7
370
     0
100
AcDbLine
 10
254.4943032371
 20
119.7732609267
 30
0.0
 11
249.1603654332
 21
119.9214499928
 31
0.0
  0
LINE
  5
155
330
1F
100
AcDbEntity
  8
0
  6
HIDDEN
 62
     7
370
     0
100
AcDbLine
 10
249.0770506772
 20
116.9226071074
 30
0.0
 11
254.4109884811
 21
116.7744180412
 31
0.0
  0
LINE
  5
156
330
1F
100
AcDbEntity
  8
0
  6
HIDDEN
 62
     7
370
     0
100
AcDbLine
 10
249.1591933663
 20
119.920903775
 30
0.0
 11
248.6460837445
 21
119.435159141
 31
0.0
  0
LINE
  5
157
330
1F
100
AcDbEntity
  8
0
  6
HIDDEN
 62
     7
370
     0
100
AcDbLine
 10
248.5905619971
 20
117.4367016629
 30
0.0
 11
249.0759107452
 21
116.9232175578
 31
0.0
  0
LINE
  5
158
330
1F
100
AcDbEntity
  8
0
  6
HIDDEN
 62
     7
370
     0
100
AcDbLine
 10
249.1348004688
 20
106.8875477795
 30
0.0
 11
248.6494517207
 21
106.3740636744
 31
0.0
  0
LINE
  5
159
330
1F
100
AcDbEntity
  8
0
  6
HIDDEN
 62
     7
370
     0
100
AcDbLine
 10
248.7049734681
 20
104.3756061963
 30
0.0
 11
249.2180830899
 21
103.8898615623
 31
0.0
  0
LINE
  5
15A
330
1F
100
AcDbEntity
  8
0
  6
HIDDEN
 62
     7
370
     0
100
AcDbLine
 10
254.4698782048
 20
107.0363472961
 30
0.0
 11
249.1359404009
 21
106.88815823
 31
0.0
  0
LINE
  5
15B
330
1F
100
AcDbEntity
  8
0
  6
HIDDEN
 62
     7
370
     0
100
AcDbLine
 10
249.2192551569
 20
103.8893153445
 30
0.0
 11
254.5531929608
 21
104.0375044106
 31
0.0
  0
LINE
  5
15C
330
1F
100
AcDbEntity
  8
0
  6
HIDDEN
 62
     7
370
     0
100
AcDbLine
 10
254.5551469897
 20
104.0392957101
 30
0.0
 11
254.6439126164
 21
104.2036677855
 31
0.0
  0
LINE
  5
15D
330
1F
100
AcDbEntity
  8
0
  6
HIDDEN
 62
     7
370
     0
100
AcDbLine
 10
254.6411570627
 20
106.7590853941
 30
0.0
 11
254.4719286756
 21
107.0346672508
 31
0.0
  0
LINE
  5
15E
330
1F
100
AcDbEntity
  8
0
  6
HIDDEN
 62
     7
370
     0
100
AcDbLine
 10
94.6439126164
 20
72.499881666
 30
0.0
 11
94.7335142403
 21
73.137430348
 31
0.0
  0
LINE
  5
15F
330
1F
100
AcDbEntity
  8
0
  6
HIDDEN
 62
     7
370
     0
100
AcDbLine
 10
94.7335142403
 20
150.6716988973
 30
0.0
 11
94.6439126164
 21
151.3092475792
 31
0.0
  0
ARC
  5
160
330
1F
100
AcDbEntity
  8
0
  6
HIDDEN
 62
     7
370
     0
100
AcDbCircle
 10
93.7469756979
 20
73.2760792982
 30
0.0
 40
0.9962338214386932
100
AcDbArc
 50
352.0
 51
0.0
  0
ARC
  5
161
330
1F
100
AcDbEntity
  8
0
  6
HIDDEN
 62
     7
370
     0
100
AcDbCircle
 10
93.7469756979
 20
73.2760792982
 30
0.0
 40
0.9962338214386932
100
AcDbArc
 50
0.0
 51
25.7988228126
  0
ARC
  5
162
330
1F
100
AcDbEntity
  8
0
  6
HIDDEN
 62
     7
370
     0
100
AcDbCircle
 10
93.7469756979
 20
150.5330499471
 30
0.0
 40
0.9962338214386882
100
AcDbArc
 50
348.75
 51
8.0
  0
LWPOLYLINE
  5
163
330
1F
100
AcDbEntity
  8
0
  6
HIDDEN
 62
     7
370
     0
100
AcDbPolyline
 90
        3
 70
   128
 43
0.0
 10
94.7240671658
 20
150.33869437
 10
94.6673757352
 20
150.1518077688
 10
94.6439126164
 20
150.0994764339
  0
LINE
  5
164
330
1F
100
AcDbEntity
  8
0
  6
HIDDEN
 62
     7
370
     0
100
AcDbLine
 10
94.7432095194
 20
73.2760792982
 30
0.0
 11
94.7432095194
 21
150.5330499471
 31
0.0
  0
ARC
  5
165
330
1F
100
AcDbEntity
  8
0
  6
HIDDEN
 62
     7
370
     0
100
AcDbCircle
 10
84.8971182716
 20
92.4045646226
 30
0.0
 40
12.0
100
AcDbArc
 50
273.5585547028
 51
324.3146652873
  0
ARC
  5
166
330
1F
100
AcDbEntity
  8
0
  6
HIDDEN
 62
     7
370
     0
100
AcDbCircle
 10
84.8971182716
 20
131.4045646226
 30
0.0
 40
12.00000000000001
100
AcDbArc
 50
35.6853347127
 51
86.4364169238
  0
LINE
  5
167
330
1F
100
AcDbEntity
  8
0
  6
HIDDEN
 62
     7
370
     0
100
AcDbLine
 10
68.1046385585
 20
80.4045646226
 30
0.0
 11
73.6628297307
 21
80.4045646226
 31
0.0
  0
LINE
  5
168
330
1F
100
AcDbEntity
  8
0
  6
HIDDEN
 62
     7
370
     0
100
AcDbLine
 10
73.6628297307
 20
143.4045646226
 30
0.0
 11
68.1046385585
 21
143.4045646226
 31
0.0
  0
ARC
  5
169
330
1F
100
AcDbEntity
  8
0
  6
HIDDEN
 62
     7
370
     0
100
AcDbCircle
 10
68.1046385585
 20
81.4045646226
 30
0.0
 40
1.0
100
AcDbArc
 50
210.0
 51
270.0
  0
ARC
  5
16A
330
1F
100
AcDbEntity
  8
0
  6
HIDDEN
 62
     7
370
     0
100
AcDbCircle
 10
68.1046385585
 20
142.4045646226
 30
0.0
 40
1.0
100
AcDbArc
 50
90.0
 51
150.0
  0
LINE
  5
16B
330
1F
100
AcDbEntity
  8
0
  6
HIDDEN
 62
     7
370
     0
100
AcDbLine
 10
67.2386131548
 20
142.9045646226
 30
0.0
 11
64.6405369434
 21
138.4045646226
 31
0.0
  0
LINE
  5
16C
330
1F
100
AcDbEntity
  8
0
  6
HIDDEN
 62
     7
370
     0
100
AcDbLine
 10
64.6405369434
 20
85.4045646226
 30
0.0
 11
67.2386131548
 21
80.9045646226
 31
0.0
  0
ARC
  5
16D
330
1F
100
AcDbEntity
  8
0
  6
HIDDEN
 62
     7
370
     0
100
AcDbCircle
 10
105.0939126164
 20
87.0295646226
 30
0.0
 40
2.000000000000007
100
AcDbArc
 50
234.3409123039
 51
0.0
  0
ARC
  5
16E
330
1F
100
AcDbEntity
  8
0
  6
HIDDEN
 62
     7
370
     0
100
AcDbCircle
 10
105.0939126164
 20
136.7795646226
 30
0.0
 40
2.000000000000018
100
AcDbArc
 50
0.0
 51
125.6590876961
  0
LINE
  5
16F
330
1F
100
AcDbEntity
  8
0
  6
HIDDEN
 62
     7
370
     0
100
AcDbLine
 10
59.8439126164
 20
85.4045646226
 30
0.0
 11
64.6405369434
 21
85.4045646226
 31
0.0
  0
LINE
  5
170
330
1F
100
AcDbEntity
  8
0
  6
HIDDEN
 62
     7
370
     0
100
AcDbLine
 10
64.6405369434
 20
138.4045646226
 30
0.0
 11
54.8439126164
 21
138.4045646226
 31
0.0
  0
LINE
  5
171
330
1F
100
AcDbEntity
  8
0
  6
HIDDEN
 62
     7
370
     0
100
AcDbLine
 10
94.6439126164
 20
85.4045646226
 30
0.0
 11
103.9279902347
 21
85.4045646226
 31
0.0
  0
LINE
  5
172
330
1F
100
AcDbEntity
  8
0
  6
HIDDEN
 62
     7
370
     0
100
AcDbLine
 10
103.9279902347
 20
138.4045646226
 30
0.0
 11
94.6439126164
 21
138.4045646226
 31
0.0
  0
LINE
  5
173
330
1F
100
AcDbEntity
  8
0
  6
HIDDEN
 62
     7
370
     0
100
AcDbLine
 10
98.6439126164
 20
157.5803555555
 30
0.0
 11
98.6439126164
 21
153.8819784013
 31
0.0
  0
LINE
  5
174
330
1F
100
AcDbEntity
  8
0
  6
HIDDEN
 62
     7
370
     0
100
AcDbLine
 10
108.6439126164
 20
153.8819784013
 30
0.0
 11
108.6439126164
 21
157.5817275047
 31
0.0
  0
LINE
  5
175
330
1F
100
AcDbEntity
  8
0
  6
HIDDEN
 62
     7
370
     0
100
AcDbLine
 10
118.9439126164
 20
98.9045646226
 30
0.0
 11
122.9439126164
 21
98.9045646226
 31
0.0
  0
LINE
  5
176
330
1F
100
AcDbEntity
  8
0
  6
HIDDEN
 62
     7
370
     0
100
AcDbLine
 10
122.9439126164
 20
124.9045646226
 30
0.0
 11
118.9439126164
 21
124.9045646226
 31
0.0
  0
LINE
  5
177
330
1F
100
AcDbEntity
  8
0
  6
HIDDEN
 62
     7
370
     0
100
AcDbLine
 10
107.0939126164
 20
99.9045646226
 30
0.0
 11
107.8439126164
 21
100.6545646226
 31
0.0
  0
LINE
  5
178
330
1F
100
AcDbEntity
  8
0
  6
HIDDEN
 62
     7
370
     0
100
AcDbLine
 10
107.8439126164
 20
123.1545646226
 30
0.0
 11
107.0939126164
 21
123.9045646226
 31
0.0
  0
LINE
  5
179
330
1F
100
AcDbEntity
  8
0
  6
HIDDEN
 62
     7
370
     0
100
AcDbLine
 10
107.8439126164
 20
100.6545646226
 30
0.0
 11
118.9439126164
 21
100.6545646226
 31
0.0
  0
LINE
  5
17A
330
1F
100
AcDbEntity
  8
0
  6
HIDDEN
 62
     7
370
     0
100
AcDbLine
 10
118.9439126164
 20
123.1545646226
 30
0.0
 11
107.8439126164
 21
123.1545646226
 31
0.0
  0
LINE
  5
17B
330
1F
100
AcDbEntity
  8
0
  6
HIDDEN
 62
     7
370
     0
100
AcDbLine
 10
217.1439126164
 20
105.3749128167
 30
0.0
 11
217.1439126164
 21
108.2395446163
 31
0.0
  0
LINE
  5
17C
330
1F
100
AcDbEntity
  8
0
  6
HIDDEN
 62
     7
370
     0
100
AcDbLine
 10
217.1439126164
 20
102.7121764672
 30
0.0
 11
217.1439126164
 21
103.6227166674
 31
0.0
  0
LINE
  5
17D
330
1F
100
AcDbEntity
  8
0
  6
HIDDEN
 62
     7
370
     0
100
AcDbLine
 10
214.1439126164
 20
104.1724877636
 30
0.0
 11
214.1439126164
 21
102.7121764672
 31
0.0
  0
LINE
  5
17E
330
1F
100
AcDbEntity
  8
0
  6
HIDDEN
 62
     7
370
     0
100
AcDbLine
 10
214.1439126164
 20
108.1592615067
 30
0.0
 11
214.1439126164
 21
104.6924320127
 31
0.0
  0
LINE
  5
17F
330
1F
100
AcDbEntity
  8
0
  6
HIDDEN
 62
     7
370
     0
100
AcDbLine
 10
99.5939126164
 20
161.9045646226
 30
0.0
 11
99.5939126164
 21
155.8045646226
 31
0.0
  0
LINE
  5
180
330
1F
100
AcDbEntity
  8
0
  6
HIDDEN
 62
     7
370
     0
100
AcDbLine
 10
216.8560811474
 20
103.2402883631
 30
0.0
 11
254.6439126164
 21
104.2901212748
 31
0.0
  0
LINE
  5
181
330
1F
100
AcDbEntity
  8
0
  6
HIDDEN
 62
     7
370
     0
100
AcDbLine
 10
254.6439126164
 20
106.7910859091
 30
0.0
 11
216.8546688348
 21
105.74121376
 31
0.0
  0
LINE
  5
182
330
1F
100
AcDbEntity
  8
0
  6
HIDDEN
 62
     7
370
     0
100
AcDbLine
 10
214.1695546306
 20
104.8451566321
 30
0.0
 11
213.9242544452
 21
104.409317788
 31
0.0
  0
LINE
  5
183
330
1F
100
AcDbEntity
  8
0
  6
HIDDEN
 62
     7
370
     0
100
AcDbLine
 10
213.9242544452
 20
104.409317788
 30
0.0
 11
214.1700842165
 21
104.0242528115
 31
0.0
  0
LINE
  5
184
330
1F
100
AcDbEntity
  8
0
  6
HIDDEN
 62
     7
370
     0
100
AcDbLine
 10
86.0766252324
 20
74.326285052
 30
0.0
 11
85.6439159459
 21
74.8045097694
 31
0.0
  0
LINE
  5
185
330
1F
100
AcDbEntity
  8
0
  6
HIDDEN
 62
     7
370
     0
100
AcDbLine
 10
73.6439130744
 20
75.4514711261
 30
0.0
 11
73.1632857692
 21
74.9732464153
 31
0.0
  0
LINE
  5
186
330
1F
100
AcDbEntity
  8
0
  6
HIDDEN
 62
     7
370
     0
100
AcDbLine
 10
73.1631674277
 20
148.8358769139
 30
0.0
 11
73.6439128918
 21
148.357597242
 31
0.0
  0
LINE
  5
187
330
1F
100
AcDbEntity
  8
0
  6
HIDDEN
 62
     7
370
     0
100
AcDbLine
 10
85.6439126185
 20
149.0045696293
 30
0.0
 11
86.0767342882
 21
149.4828493022
 31
0.0
  0
LINE
  5
188
330
1F
100
AcDbEntity
  8
0
  6
HIDDEN
 62
     7
370
     0
100
AcDbLine
 10
85.6439126164
 20
143.3808905253
 30
0.0
 11
85.6439126164
 21
149.1045734554
 31
0.0
  0
LINE
  5
189
330
1F
100
AcDbEntity
  8
0
  6
HIDDEN
 62
     7
370
     0
100
AcDbLine
 10
73.6439126164
 20
148.3575867427
 30
0.0
 11
73.6439126164
 21
143.4009737994
 31
0.0
  0
LINE
  5
18A
330
1F
100
AcDbEntity
  8
0
  6
HIDDEN
 62
     7
370
     0
100
AcDbLine
 10
85.6439126164
 20
74.7043809269
 30
0.0
 11
85.6439126164
 21
80.4282387199
 31
0.0
  0
LINE
  5
18B
330
1F
100
AcDbEntity
  8
0
  6
HIDDEN
 62
     7
370
     0
100
AcDbLine
 10
73.6439126164
 20
80.4081554459
 30
0.0
 11
73.6439126164
 21
75.4515095406
 31
0.0
  0
LINE
  5
18C
330
1F
100
AcDbEntity
  8
0
  6
HIDDEN
 62
     7
370
     0
100
AcDbLine
 10
122.9439126164
 20
105.9045646226
 30
0.0
 11
152.7439126164
 21
105.9045646226
 31
0.0
  0
LINE
  5
18D
330
1F
100
AcDbEntity
  8
0
  6
HIDDEN
 62
     7
370
     0
100
AcDbLine
 10
152.7439126164
 20
117.9045646226
 30
0.0
 11
122.9439126164
 21
117.9045646226
 31
0.0
  0
LINE
  5
18E
330
1F
100
AcDbEntity
  8
0
  6
HIDDEN
 62
     7
370
     0
100
AcDbLine
 10
152.7439126164
 20
105.9045646226
 30
0.0
 11
154.3061502259
 21
108.5045646226
 31
0.0
  0
LINE
  5
18F
330
1F
100
AcDbEntity
  8
0
  6
HIDDEN
 62
     7
370
     0
100
AcDbLine
 10
154.3061502259
 20
115.3045646226
 30
0.0
 11
152.7439126164
 21
117.9045646226
 31
0.0
  0
ARC
  5
190
330
1F
100
AcDbEntity
  8
0
  6
HIDDEN
 62
     7
370
     0
100
AcDbCircle
 10
214.0439126164
 20
107.0045646226
 30
0.0
 40
0.4000000000000057
100
AcDbArc
 50
180.0
 51
270.0
  0
ARC
  5
191
330
1F
100
AcDbEntity
  8
0
  6
HIDDEN
 62
     7
370
     0
100
AcDbCircle
 10
214.0439126164
 20
116.8045646226
 30
0.0
 40
0.4000000000000057
100
AcDbArc
 50
90.0
 51
180.0
  0
LINE
  5
192
330
1F
100
AcDbEntity
  8
0
  6
HIDDEN
 62
     7
370
     0
100
AcDbLine
 10
214.0439126164
 20
106.6045646226
 30
0.0
 11
216.7491385983
 21
106.6045646226
 31
0.0
  0
LINE
  5
193
330
1F
100
AcDbEntity
  8
0
  6
HIDDEN
 62
     7
370
     0
100
AcDbLine
 10
216.7491385983
 20
117.2045646226
 30
0.0
 11
214.0439126164
 21
117.2045646226
 31
0.0
  0
ARC
  5
194
330
1F
100
AcDbEntity
  8
0
  6
HIDDEN
 62
     7
370
     0
100
AcDbCircle
 10
254.3439126164
 20
106.6045646226
 30
0.0
 40
0.3000000000000114
100
AcDbArc
 50
0.0
 51
90.0
  0
ARC
  5
195
330
1F
100
AcDbEntity
  8
0
  6
HIDDEN
 62
     7
370
     0
100
AcDbCircle
 10
254.3439126164
 20
117.2045646226
 30
0.0
 40
0.3000000000000114
100
AcDbArc
 50
270.0
 51
0.0
  0
ARC
  5
196
330
1F
100
AcDbEntity
  8
0
  6
HIDDEN
 62
     7
370
     0
100
AcDbCircle
 10
216.7491385983
 20
116.8045646226
 30
0.0
 40
0.4000000000000074
100
AcDbArc
 50
70.0
 51
90.0
  0
LINE
  5
197
330
1F
100
AcDbEntity
  8
0
  6
HIDDEN
 62
     7
370
     0
100
AcDbLine
 10
216.8859466556
 20
106.6286875743
 30
0.0
 11
217.6439126164
 21
106.9045646226
 31
0.0
  0
LINE
  5
198
330
1F
100
AcDbEntity
  8
0
  6
HIDDEN
 62
     7
370
     0
100
AcDbLine
 10
217.6439126164
 20
116.9045646226
 30
0.0
 11
216.8859466556
 21
117.1804416709
 31
0.0
  0
LINE
  5
199
330
1F
100
AcDbEntity
  8
0
  6
HIDDEN
 62
     7
370
     0
100
AcDbLine
 10
217.6439126164
 20
106.9045646226
 30
0.0
 11
254.3439126164
 21
106.9045646226
 31
0.0
  0
LINE
  5
19A
330
1F
100
AcDbEntity
  8
0
  6
HIDDEN
 62
     7
370
     0
100
AcDbLine
 10
254.3439126164
 20
116.9045646226
 30
0.0
 11
235.1914066504
 21
116.9045646226
 31
0.0
  0
LINE
  5
19B
330
1F
100
AcDbEntity
  8
0
  6
HIDDEN
 62
     7
370
     0
100
AcDbLine
 10
235.0969149928
 20
116.9045646226
 30
0.0
 11
217.6439126164
 21
116.9045646226
 31
0.0
  0
LINE
  5
19C
330
1F
100
AcDbEntity
  8
0
  6
HIDDEN
 62
     7
370
     0
100
AcDbLine
 10
154.3061502259
 20
108.5045646226
 30
0.0
 11
213.6439126164
 21
108.5045646226
 31
0.0
  0
LINE
  5
19D
330
1F
100
AcDbEntity
  8
0
  6
HIDDEN
 62
     7
370
     0
100
AcDbLine
 10
213.6439126164
 20
115.3045646226
 30
0.0
 11
154.3061502259
 21
115.3045646226
 31
0.0
  0
LINE
  5
19E
330
1F
100
AcDbEntity
  8
0
  6
HIDDEN
 62
     7
370
     0
100
AcDbLine
 10
160.0939126164
 20
129.4045646226
 30
0.0
 11
161.0939126164
 21
128.8272143534
 31
0.0
  0
LINE
  5
19F
330
1F
100
AcDbEntity
  8
0
  6
HIDDEN
 62
     7
370
     0
100
AcDbLine
 10
166.0939126164
 20
128.8272143534
 30
0.0
 11
167.0939126164
 21
129.4045646226
 31
0.0
  0
LINE
  5
1A0
330
1F
100
AcDbEntity
  8
0
  6
HIDDEN
 62
     7
370
     0
100
AcDbLine
 10
167.0939126164
 20
94.4045646226
 30
0.0
 11
166.0939126164
 21
94.9819148918
 31
0.0
  0
LINE
  5
1A1
330
1F
100
AcDbEntity
  8
0
  6
HIDDEN
 62
     7
370
     0
100
AcDbLine
 10
161.0939126164
 20
94.9819148918
 30
0.0
 11
160.0939126164
 21
94.4045646226
 31
0.0
  0
ARC
  5
1A2
330
1F
100
AcDbEntity
  8
0
  6
HIDDEN
 62
     7
370
     0
100
AcDbCircle
 10
216.7491385983
 20
107.0045646226
 30
0.0
 40
0.4000000000000074
100
AcDbArc
 50
270.0
 51
290.0
  0
LINE
  5
1A3
330
1F
100
AcDbEntity
  8
0
  6
HIDDEN
 62
     7
370
     0
100
AcDbLine
 10
161.0939126164
 20
128.8272143534
 30
0.0
 11
161.0939126164
 21
120.4045646226
 31
0.0
  0
LINE
  5
1A4
330
1F
100
AcDbEntity
  8
0
  6
HIDDEN
 62
     7
370
     0
100
AcDbLine
 10
166.0939126164
 20
120.4045646226
 30
0.0
 11
166.0939126164
 21
128.8272143534
 31
0.0
  0
LINE
  5
1A5
330
1F
100
AcDbEntity
  8
0
  6
HIDDEN
 62
     7
370
     0
100
AcDbLine
 10
161.0939126164
 20
120.4045646226
 30
0.0
 11
163.5939126164
 21
118.9024130751
 31
0.0
  0
LINE
  5
1A6
330
1F
100
AcDbEntity
  8
0
  6
HIDDEN
 62
     7
370
     0
100
AcDbLine
 10
163.5939126164
 20
118.9024130751
 30
0.0
 11
166.0939126164
 21
120.4045646226
 31
0.0
  0
LINE
  5
1A7
330
1F
100
AcDbEntity
  8
0
  6
HIDDEN
 62
     7
370
     0
100
AcDbLine
 10
166.0939126164
 20
103.4045646226
 30
0.0
 11
163.5939126164
 21
104.9067161702
 31
0.0
  0
LINE
  5
1A8
330
1F
100
AcDbEntity
  8
0
  6
HIDDEN
 62
     7
370
     0
100
AcDbLine
 10
163.5939126164
 20
104.9067161702
 30
0.0
 11
161.0939126164
 21
103.4045646226
 31
0.0
  0
LINE
  5
1A9
330
1F
100
AcDbEntity
  8
0
  6
HIDDEN
 62
     7
370
     0
100
AcDbLine
 10
166.0939126164
 20
94.9819148918
 30
0.0
 11
166.0939126164
 21
103.4045646226
 31
0.0
  0
LINE
  5
1AA
330
1F
100
AcDbEntity
  8
0
  6
HIDDEN
 62
     7
370
     0
100
AcDbLine
 10
161.0939126164
 20
103.4045646226
 30
0.0
 11
161.0939126164
 21
94.9819148918
 31
0.0
  0
LINE
  5
1AB
330
1F
100
AcDbEntity
  8
0
  6
HIDDEN
 62
     7
370
     0
100
AcDbLine
 10
217.1439126164
 20
120.1864715987
 30
0.0
 11
217.1439126164
 21
120.7433993875
 31
0.0
  0
LINE
  5
1AC
330
1F
100
AcDbEntity
  8
0
  6
HIDDEN
 62
     7
370
     0
100
AcDbLine
 10
217.1439126164
 20
115.569584629
 30
0.0
 11
217.1439126164
 21
118.4345517889
 31
0.0
  0
LINE
  5
1AD
330
1F
100
AcDbEntity
  8
0
  6
HIDDEN
 62
     7
370
     0
100
AcDbLine
 10
214.1439126164
 20
119.1210496841
 30
0.0
 11
214.1439126164
 21
115.6498677386
 31
0.0
  0
LINE
  5
1AE
330
1F
100
AcDbEntity
  8
0
  6
HIDDEN
 62
     7
370
     0
100
AcDbLine
 10
214.1439126164
 20
120.7433993875
 30
0.0
 11
214.1439126164
 21
119.6342636092
 31
0.0
  0
LINE
  5
1AF
330
1F
100
AcDbEntity
  8
0
  6
HIDDEN
 62
     7
370
     0
100
AcDbLine
 10
216.8548789191
 20
118.0679096486
 30
0.0
 11
254.6439126164
 21
117.0180433362
 31
0.0
  0
LINE
  5
1B0
330
1F
100
AcDbEntity
  8
0
  6
HIDDEN
 62
     7
370
     0
100
AcDbLine
 10
254.6439126164
 20
119.5190079704
 30
0.0
 11
216.8549577875
 21
120.5688720917
 31
0.0
  0
LINE
  5
1B1
330
1F
100
AcDbEntity
  8
0
  6
HIDDEN
 62
     7
370
     0
100
AcDbLine
 10
214.1560211779
 20
119.762848249
 30
0.0
 11
213.9242544452
 21
119.3998114573
 31
0.0
  0
LINE
  5
1B2
330
1F
100
AcDbEntity
  8
0
  6
HIDDEN
 62
     7
370
     0
100
AcDbLine
 10
213.9242544452
 20
119.3998114573
 30
0.0
 11
214.1702499069
 21
118.962737276
 31
0.0
  0
LINE
  5
1B3
330
1F
100
AcDbEntity
  8
0
  6
HIDDEN
 62
     7
370
     0
100
AcDbLine
 10
98.6439126164
 20
159.4558476379
 30
0.0
 11
98.6439126164
 21
157.5803555555
 31
0.0
  0
LINE
  5
1B4
330
1F
100
AcDbEntity
  8
0
  6
HIDDEN
 62
     7
370
     0
100
AcDbLine
 10
108.6439126164
 20
157.5817275047
 30
0.0
 11
108.6439126164
 21
159.4572759206
 31
0.0
  0
DIMENSION
  5
1B5
330
1F
100
AcDbEntity
  8
VERMASSUNG
100
AcDbDimension
  2
*D1
 10
39.053727545
 20
61.9045646226
 30
0.0
 11
39.053727545
 21
111.9045646226
 31
0.0
 70
   160
  1
HSK A %%c<>
 71
     2
 42
-1.0
  3
SLDDIMSTYLE0
100
AcDbAlignedDimension
 13
95.1439126164
 23
161.9045646226
 33
0.0
 14
95.1439126164
 24
61.9045646226
 34
0.0
 50
90.0
100
AcDbRotatedDimension
  0
DIMENSION
  5
1C2
330
1F
100
AcDbEntity
  8
VERMASSUNG
100
AcDbDimension
  2
*D2
 10
254.6439126164
 20
165.9182015168
 30
0.0
 11
189.1189126164
 21
165.9182015168
 31
0.0
 70
   160
 71
     2
 42
-1.0
  3
SLDDIMSTYLE0
100
AcDbAlignedDimension
 13
123.5939126164
 23
159.8733044435
 33
0.0
 14
254.6439126164
 24
123.130424101
 34
0.0
100
AcDbRotatedDimension
  0
DIMENSION
  5
1CC
330
1F
100
AcDbEntity
  8
VERMASSUNG
100
AcDbDimension
  2
*D3
 10
254.6439126164
 20
171.9182015168
 30
0.0
 11
174.6439126164
 21
171.9182015168
 31
0.0
 70
   160
 71
     2
 42
-1.0
  3
SLDDIMSTYLE0
100
AcDbAlignedDimension
 13
94.6439126164
 23
161.4045646226
 33
0.0
 14
254.6439126164
 24
123.130424101
 34
0.0
100
AcDbRotatedDimension
  0
DIMENSION
  5
1D6
330
1F
100
AcDbEntity
  8
VERMASSUNG
100
AcDbDimension
  2
*D4
 10
254.6439126164
 20
177.9182015168
 30
0.0
 11
149.6939126164
 21
177.9182015168
 31
0.0
 70
   160
 71
     2
 42
-1.0
  3
SLDDIMSTYLE0
100
AcDbAlignedDimension
 13
44.7439126164
 23
142.4072343652
 33
0.0
 14
254.6439126164
 24
123.130424101
 34
0.0
100
AcDbRotatedDimension
  0
DIMENSION
  5
1E0
330
1F
100
AcDbEntity
  8
VERMASSUNG
100
AcDbDimension
  2
*D5
 10
262.8858383266
 20
106.9045646226
 30
0.0
 11
262.8858383266
 21
111.9045646226
 31
0.0
 70
   160
  1
%%c<>
 71
     2
 42
-1.0
  3
SLDDIMSTYLE0
100
AcDbAlignedDimension
 13
254.3439126164
 23
116.9045646226
 33
0.0
 14
254.3439126164
 24
106.9045646226
 34
0.0
 50
90.0
100
AcDbRotatedDimension
  0
DIMENSION
  5
1EB
330
1F
100
AcDbEntity
  8
VERMASSUNG
100
AcDbDimension
  2
*D6
 10
268.8858383266
 20
94.4045646226
 30
0.0
 11
268.8858383266
 21
111.9045646226
 31
0.0
 70
   160
  1
%%c<>
 71
     2
 42
-1.0
  3
SLDDIMSTYLE0
100
AcDbAlignedDimension
 13
243.9213780138
 23
129.4045646226
 33
0.0
 14
243.9213780138
 24
94.4045646226
 34
0.0
 50
90.0
100
AcDbRotatedDimension
  0
LINE
  5
1F6
330
1F
100
AcDbEntity
  8
VERMASSUNG
  6
CENTERX2
 62
     7
370
     0
100
AcDbLine
 10
42.4934432554
 20
111.9045646226
 30
0.0
 11
257.7661801878
 21
111.9045646226
 31
0.0
  0
OLE2FRAME
  5
1F7
330
1F
100
AcDbEntity
  8
0
100
AcDbOle2Frame
 70
     2
  3
Bitmap Image
 10
13.8511154363
 20
38.264191557
 30
0.0
 11
51.6290888628
 21
31.9806341108
 31
0.0
 71
     2
 72
     0
 73
     1
 90
    12928
310
80552BED0767C5B32B40DDAF6807D121434000000000000000006FFBDDFB85D0
310
4940DDAF6807D121434000000000000000006FFBDDFB85D04940416F4BD60AFB
310
3F4000000000000000002BED0767C5B32B40416F4BD60AFB3F40000000000000
310
0000000000000100000000010000010000000100000000000100000000320000
310
D0CF11E0A1B11AE1000000000000000000000000000000003E000300FEFF0900
310
0600000000000000000000000100000001000000000000000010000002000000
310
01000000FEFFFFFF0000000000000000FFFFFFFFFFFFFFFFFFFFFFFFFFFFFFFF
310
FFFFFFFFFFFFFFFFFFFFFFFFFFFFFFFFFFFFFFFFFFFFFFFFFFFFFFFFFFFFFFFF
310
FFFFFFFFFFFFFFFFFFFFFFFFFFFFFFFFFFFFFFFFFFFFFFFFFFFFFFFFFFFFFFFF
310
FFFFFFFFFFFFFFFFFFFFFFFFFFFFFFFFFFFFFFFFFFFFFFFFFFFFFFFFFFFFFFFF
310
FFFFFFFFFFFFFFFFFFFFFFFFFFFFFFFFFFFFFFFFFFFFFFFFFFFFFFFFFFFFFFFF
310
FFFFFFFFFFFFFFFFFFFFFFFFFFFFFFFFFFFFFFFFFFFFFFFFFFFFFFFFFFFFFFFF
310
FFFFFFFFFFFFFFFFFFFFFFFFFFFFFFFFFFFFFFFFFFFFFFFFFFFFFFFFFFFFFFFF
310
FFFFFFFFFFFFFFFFFFFFFFFFFFFFFFFFFFFFFFFFFFFFFFFFFFFFFFFFFFFFFFFF
310
FFFFFFFFFFFFFFFFFFFFFFFFFFFFFFFFFFFFFFFFFFFFFFFFFFFFFFFFFFFFFFFF
310
FFFFFFFFFFFFFFFFFFFFFFFFFFFFFFFFFFFFFFFFFFFFFFFFFFFFFFFFFFFFFFFF
310
FFFFFFFFFFFFFFFFFFFFFFFFFFFFFFFFFFFFFFFFFFFFFFFFFFFFFFFFFFFFFFFF
310
FFFFFFFFFFFFFFFFFFFFFFFFFFFFFFFFFFFFFFFFFFFFFFFFFFFFFFFFFFFFFFFF
310
FFFFFFFFFFFFFFFFFFFFFFFFFFFFFFFFFFFFFFFFFFFFFFFFFFFFFFFFFFFFFFFF
310
FFFFFFFFFFFFFFFFFFFFFFFFFFFFFFFFFFFFFFFFFFFFFFFFFFFFFFFFFFFFFFFF
310
FDFFFFFFFEFFFFFFFEFFFFFFFEFFFFFF05000000060000000700000008000000
310
090000000A0000000B0000000C0000000D0000000E0000000F00000010000000
310
11000000120000001300000014000000150000001600000017000000FEFFFFFF
310
FFFFFFFFFFFFFFFFFFFFFFFFFFFFFFFFFFFFFFFFFFFFFFFFFFFFFFFFFFFFFFFF
310
FFFFFFFFFFFFFFFFFFFFFFFFFFFFFFFFFFFFFFFFFFFFFFFFFFFFFFFFFFFFFFFF
310
FFFFFFFFFFFFFFFFFFFFFFFFFFFFFFFFFFFFFFFFFFFFFFFFFFFFFFFFFFFFFFFF
310
FFFFFFFFFFFFFFFFFFFFFFFFFFFFFFFFFFFFFFFFFFFFFFFFFFFFFFFFFFFFFFFF
310
FFFFFFFFFFFFFFFFFFFFFFFFFFFFFFFFFFFFFFFFFFFFFFFFFFFFFFFFFFFFFFFF
310
FFFFFFFFFFFFFFFFFFFFFFFFFFFFFFFFFFFFFFFFFFFFFFFFFFFFFFFFFFFFFFFF
310
FFFFFFFFFFFFFFFFFFFFFFFFFFFFFFFFFFFFFFFFFFFFFFFFFFFFFFFFFFFFFFFF
310
FFFFFFFFFFFFFFFFFFFFFFFFFFFFFFFFFFFFFFFFFFFFFFFFFFFFFFFFFFFFFFFF
310
FFFFFFFFFFFFFFFFFFFFFFFFFFFFFFFFFFFFFFFFFFFFFFFFFFFFFFFFFFFFFFFF
310
FFFFFFFFFFFFFFFFFFFFFFFFFFFFFFFFFFFFFFFFFFFFFFFFFFFFFFFFFFFFFFFF
310
FFFFFFFFFFFFFFFFFFFFFFFFFFFFFFFFFFFFFFFFFFFFFFFFFFFFFFFFFFFFFFFF
310
FFFFFFFFFFFFFFFFFFFFFFFFFFFFFFFFFFFFFFFFFFFFFFFFFFFFFFFFFFFFFFFF
310
FFFFFFFFFFFFFFFFFFFFFFFFFFFFFFFFFFFFFFFFFFFFFFFFFFFFFFFFFFFFFFFF
310
52006F006F007400200045006E00740072007900000000000000000000000000
310
0000000000000000000000000000000000000000000000000000000000000000
310
16000500FFFFFFFFFFFFFFFF020000000A00030000000000C000000000000046
310
000000000000000000000000B07D28D10500CC0103000000C000000000000000
310
01004F006C006500000000000000000000000000000000000000000000000000
310
0000000000000000000000000000000000000000000000000000000000000000
310
0A000200FFFFFFFFFFFFFFFFFFFFFFFF00000000000000000000000000000000
310
0000000000000000000000000000000000000000000000001400000000000000
310
010043006F006D0070004F0062006A0000000000000000000000000000000000
310
0000000000000000000000000000000000000000000000000000000000000000
310
120002010100000003000000FFFFFFFF00000000000000000000000000000000
310
0000000000000000000000000000000000000000010000004D00000000000000
310
01004F006C006500310030004E00610074006900760065000000000000000000
310
0000000000000000000000000000000000000000000000000000000000000000
310
1A000200FFFFFFFFFFFFFFFFFFFFFFFF00000000000000000000000000000000
310
0000000000000000000000000000000000000000040000002426000000000000
310
FEFFFFFF02000000FEFFFFFFFFFFFFFFFFFFFFFFFFFFFFFFFFFFFFFFFFFFFFFF
310
FFFFFFFFFFFFFFFFFFFFFFFFFFFFFFFFFFFFFFFFFFFFFFFFFFFFFFFFFFFFFFFF
310
FFFFFFFFFFFFFFFFFFFFFFFFFFFFFFFFFFFFFFFFFFFFFFFFFFFFFFFFFFFFFFFF
310
FFFFFFFFFFFFFFFFFFFFFFFFFFFFFFFFFFFFFFFFFFFFFFFFFFFFFFFFFFFFFFFF
310
FFFFFFFFFFFFFFFFFFFFFFFFFFFFFFFFFFFFFFFFFFFFFFFFFFFFFFFFFFFFFFFF
310
FFFFFFFFFFFFFFFFFFFFFFFFFFFFFFFFFFFFFFFFFFFFFFFFFFFFFFFFFFFFFFFF
310
FFFFFFFFFFFFFFFFFFFFFFFFFFFFFFFFFFFFFFFFFFFFFFFFFFFFFFFFFFFFFFFF
310
FFFFFFFFFFFFFFFFFFFFFFFFFFFFFFFFFFFFFFFFFFFFFFFFFFFFFFFFFFFFFFFF
310
FFFFFFFFFFFFFFFFFFFFFFFFFFFFFFFFFFFFFFFFFFFFFFFFFFFFFFFFFFFFFFFF
310
FFFFFFFFFFFFFFFFFFFFFFFFFFFFFFFFFFFFFFFFFFFFFFFFFFFFFFFFFFFFFFFF
310
FFFFFFFFFFFFFFFFFFFFFFFFFFFFFFFFFFFFFFFFFFFFFFFFFFFFFFFFFFFFFFFF
310
FFFFFFFFFFFFFFFFFFFFFFFFFFFFFFFFFFFFFFFFFFFFFFFFFFFFFFFFFFFFFFFF
310
FFFFFFFFFFFFFFFFFFFFFFFFFFFFFFFFFFFFFFFFFFFFFFFFFFFFFFFFFFFFFFFF
310
FFFFFFFFFFFFFFFFFFFFFFFFFFFFFFFFFFFFFFFFFFFFFFFFFFFFFFFFFFFFFFFF
310
FFFFFFFFFFFFFFFFFFFFFFFFFFFFFFFFFFFFFFFFFFFFFFFFFFFFFFFFFFFFFFFF
310
FFFFFFFFFFFFFFFFFFFFFFFFFFFFFFFFFFFFFFFFFFFFFFFFFFFFFFFFFFFFFFFF
310
010000020000000000000000000000000000000061007200510082005C003107
310
D807250000000000D807250000000000680061007200650064005C003B004300
310
0100FEFF030A0000FFFFFFFF0A00030000000000C00000000000004607000000
310
5042727573680007000000504272757368000700000050427275736800F439B2
310
71000000000000000000000000004100540049002E004100430045005C004300
310
6F00720065002D005300740061007400690063003B0043003A005C0050007200
310
6F006700720061006D002000460069006C006500730020002800780038003600
310
29005C0043006F006D006D006F006E002000460069006C00650073005C004100
310
750074006F006400650073006B0020005300680061007200650064005C003B00
310
43003A005C00500072006F006700720061006D002000460069006C0065007300
310
5C004E006F0072006D0061006E005C004E0070006D005C00420069006E000000
310
43003A005C00500072006F006700720061006D002000460069006C0065007300
310
5C0053006F006C006900640057006F0072006B007300200043006F0072007000
310
5C0053006F006C006900640057006F0072006B00730020002800320029005C00
310
730065007400750070005C0069003300380036005C0073007700610063007400
310
770069007A002E006500780065000000220043003A005C00500072006F006700
310
20260000424D0E260000000000003E00000028000000B40200006E0000000100
310
01000000000000000000130B0000130B00000200000002000000000000FFFFFF
310
FFFFFFFFFFFFFFFFFFFFFFFFFFFFFFFFFFFFFFFFFFFFFFFFFFFFFFFFFFFFFFFF
310
FFFFFFFFFFFFFFFFFFFFFFFFFFFFFFFFFFFFFFFFFFFFFFFFFFFFFFFFFFFFFFFF
310
FFFFFFFFFFFFFFFFFFFFFFFFFFFFFFFFFFFFFFFFFFFFFFFFF000FFFFFFFFFFFF
310
FFFFFFFFFFFFFFFFFFFFFFFFFFFFFFFFFFFFFFFFFFFFFFFFFFFFFFFFFFFFFFFF
310
FFFFFFFFFFFFFFFFFFFFFFFFFFFFFFFFFFFFFFFFFFFFFFFFFFFFFFFFFFFFFFFF
310
FFFFFFFFFFFFFFFFFFFFFFFFFFFFFFFFF000FFFFFFFFFFFFFFFFFFFFFFFFFFFF
310
FFFFFFFFFFFFFFFFFFFFFFFFFFFFFFFFFFFFFFFFFFFFFFFFFFFFFFFFFFFFFFFF
310
FFFFFFFFFFFFFFFFFFFFFFFFFFFFFFFFFFFFFFFFFFFFFFFFFFFFFFFFFFFFFFFF
310
FFFFFFFFFFFFFFFFF000FFFFFFFFFFFFFFFFFFFFFFFFFFFFFFFFFFFFFFFFFFFF
310
FFFFFFFFFFFFFFFFFFFFFFFFFFFFFFFFFFFFFFFFFFFFFFFFFFFFFFFFFFFFFFFF
310
FFFFFFFFFFFFFFFFFFFFFFFFFFFFFFFFFFFFFFFFFFFFFFFFFFFFFFFFFFFFFFFF
310
F000FFFFFFFFFFFFFFFFFFFFFFFFFFFFFFFFFFFFFFFFFFFFFFFFFFFFFFFFFFFF
310
FFFFFFFFFFFFFFFFFFFFFFFFFFFFFFFFFFFFFFFFFFFFFFFFFFFFFFFFFFFFFFFF
310
FFFFFFFFFFFFFFFFFFFFFFFFFFFFFFFFFFFFFFFFFFFFFFFFF000FFFFFFFFFFFF
310
FFFFFFFFFFFFFFFFFFFFFFFFFFFFFFFFFFFFFFFFFFFFFFFFFFFFFFFFFFFFFFFF
310
FFFFFFFFFFFFFFFFFFFFFFFFFFFFFFFFFFFFFFFFFFFFFFFFFFFFFFFFFFFFFFFF
310
FFFFFFFFFFFFFFFFFFFFFFFFFFFFFFFFF000FFFFFFFFFFFFFFFFFFFFFFFFFFFF
310
FFFFFFFFFFFFFFFFFFFFFFFFFFFFFFFFFFFFFFFFFFFFFFFFFFFFFFFFFFFFFFFF
310
FFFFFFFFFFFFFFFFFFFFFFFFFFFFFFFFFFFFFFFFFFFFFFFFFFFFFFFFFFFFFFFF
310
FFFFFFFFFFFFFFFFF000FFFFFFFFFFFFFFFFFFFFFFFFFFFFFFFFFFFFFFFFFFFF
310
FFFFFFFFFFFFFFFFFFFFFFFFFFFFFFFFFFFFFFFFFFFFFFFFFFFFFFFFFFFFFFFF
310
FFFFFFFFFFFFFFFFFFFFFFFFFFFFFFFFFFFFFFFFFFFFFFFFFFFFFFFFFFFFFFFF
310
F000FFFFFFFFFFFFFFFFFFFFFFFFFFFFFFFFFFFFFFFFFFFFFFFFFFFFFFFFFFFF
310
FFFFFFFFFFFFFFFFFFFFFFFFFFFFFFFFFFFFFFFFFFFFFFFFFFFFFFFFFFFFFFFF
310
FFFFFFFFFFFFFFFFFFFFFFFFFFFFFFFFFFFFFFFFFFFFFFFFF000FFFFFFFFFFFF
310
FFFFFFFFFFFFFFFFFFFFFFFFFFFFFFFFFFFFFFFFFFFFFFFFFFFFFFFFFFFFFFFF
310
FFFFFFFFFFFFFFFFFFFFFFFFFFFFFFFFFFFFFFFFFFFFFFFFFFFFFFFFFFFFFFFF
310
FFFFFFFFFFFFFFFFFFFFFFFFFFFFFFFFF000FFFFFFFFFFFFFFFFFFFFFFFFFFFF
310
FFFFFFFFFFFFFFFFFFFFFFFFFFFFFFFFFFFFFFFFFFFFFFFFFFFFFFFFFFFFFFFF
310
FFFFFFFFFFFFFFFFFFFFFFFFFFFFFFFFFFFFFFFFFFFFFFFFFFFFFFFFFFFFFFFF
310
FFFFFFFFFFFFFFFFF000FFFFFFFFFFFFFFFFFFFFFFFFFFFFFFFFFFFFFFFFFFFF
310
FFFFFFFFFFFFFFFFFFFFFFFFFFFFFFFFFFFFFFFFFFFFFFFFFFFFFFFFFFFFFFFF
310
FFFFFFFFFFFFFFFFFFFFFFFFFFFFFFFFFFFFFFFFFFFFFFFFFFFFFFFFFFFFFFFF
310
F000FFFFFFFFFFFFFFFFFFFFFFFFFFFFFFFFFFFFFFFFFFFFFFFFFFFFFFFFFFFF
310
FFFFFFFFFFFFFFFFFFFFFFFFFFFFFFFFFFFFFFFFFFFFFFFFFFFFFFFFFFFFFFFF
310
FFFFFFFFFFFFFFFFFFFFFFFFFFFFFFFFFFFFFFFFFFFFFFFFF000FFFFFFFFFFFF
310
FFFFFFFFFFFFFFFFFFFFFFFFFFFFFFFFFFFFFFFFFFFFFFFFFFFFFFFFFFFFFFFF
310
FFFFFFFFFFFFFFFFFFFFFFFFFFFFFFFFFFFFFFFFFFFFFFFFFFFFFFFFFFFFFFFF
310
FFFFFFFFFFFFFFFFFFFFFFFFFFFFFFFFF000FFFFFFFFFFFFFFFFFFFFFFFFFFFF
310
FFFFFFFFFFFFFFFFFFFFFFFFFFFFFFFFFFFFFFFFFFFFFFFFFFFFFFFFFFFFFFFF
310
FFFFFFFFFFFFFFFFFFFFFFFFFFFFFFFFFFFFFFFFFFFFFFFFFFFFFFFFFFFFFFFF
310
FFFFFFFFFFFFFFFFF000FFFFFFFFFFFFFFFFFFFFFFFFFFFFFFFFFFFFFFFFFFFF
310
FFFFFFFFFFFFFFFFFFFFFFFFFFFFFFFFFFFFFFFFFFFFFFFFFFFFFFFFFFFFFFFF
310
FFFFFFFFFFFFFFFFFFFFFFFFFFFFFFFFFFFFFFFFFFFFFFFFFFFFFFFFFFFFFFFF
310
F000FFFFFFFFFFFFFFFFFFFFFFFFFFFFFFFFFFFFFFFFFFFFFFFFFFFFFFFFFFFF
310
FFFFFFFFFFFFFFFFFFFFFFFFFFFFFFFFFFFFFFFFFFFFFFFFFFFFFFFFFFFFFFFF
310
FFFFFFFFFFFFFFFFFFFFFFFFFFFFFFFFFFFFFFFFFFFFFFFFF000FFFFFFFFFFFF
310
FFFFFFFFFFFFFFFFFFFFFFFFFFFFFFFFFFFFFFFFFFFFFFFFFFFFFFFFFFFFFFFF
310
FFFFFFFFFFFFFFFFFFFFFFFFFFFFFFFFFFFFFFFFFFFFFFFFFFFFFFFFFFFFFFFF
310
FFFFFFFFFFFFFFFFFFFFFFFFFFFFFFFFF000FFFFFFFFFFFFFFFFFFFFFFFFFFFF
310
FFFFFFFFFFFFFFFFFFFFFFFFFFFFFFFFFFFFFFFFFFFFFFFFFFFFFFFFFFFFFFFF
310
FFFFFFFFFFFFFFFFFFFFFFFFFFFFFFFFFFFFFFFFFFFFFFFFFFFFFFFFFFFFFFFF
310
FFFFFFFFFFFFFFFFF000FFFFF80003FFFFFFFFFFFFFFFFFFFFFFFFFFFFFFFFFF
310
FFFFF00007FFFFFFFFFF00007FFFFFF800000000000000007FFFFFFFFFFFFFFF
310
FFFFFFFC001FFFFFFFFFFFFFFC001FFFFFFFFFFFFFFFFFFFFFFFFFFE0007FFFF
310
F000FFFF8000007FFFFFFFF8000FFFFFC0007FFFFF80007FFFFF0000007FFFFF
310
FFF8000007FFFFF800000000000000007FFFFFF0001FFFFFFFFFFFC00001FFFF
310
FFFFFFFFC00001FFFFFFFF000000000003FFFFE000007FFFF000FFFE0000000F
310
FFFFFFF0000FFFFF80007FFFFF80007FFFFC0000001FFFFFFFC0000001FFFFF8
310
00000000000000007FFFFFF0001FFFFFFFFFFE0000003FFFFFFFFFFE0000003F
310
FFFFFF000000000003FFFF0000000FFFF000FFF800000003FFFFFFF00007FFFF
310
80007FFFFF80007FFFF000000007FFFFFF000000003FFFF80000000000000000
310
7FFFFFF0001FFFFFFFFFF80000000FFFFFFFFFF80000000FFFFFFF0000000000
310
03FFFC00000003FFF000FFE000000000FFFFFFF00007FFFF80003FFFFF80007F
310
FFC000000001FFFFFC000000001FFFF800000000000000007FFFFFF0001FFFFF
310
FFFFE000000003FFFFFFFFE000000003FFFFFF000000000003FFF000000000FF
310
F000FF80000000007FFFFFF00007FFFF80003FFFFF80007FFF8000000000FFFF
310
F80000000007FFF800000000000000007FFFFFF0001FFFFFFFFFC000000001FF
310
FFFFFFC000000001FFFFFF000000000003FFC0000000007FF000FF0000000000
310
3FFFFFE00007FFFF00003FFFFF80007FFE00000000003FFFF00000000003FFF8
310
00000000000000007FFFFFF0001FFFFFFFFF8000000000FFFFFFFF8000000000
310
FFFFFF000000000003FF80000000003FF000FE00000000001FFFFFE00003FFFF
310
00003FFFFF80007FFC00000000001FFFE00000000001FFF8000001FFFE000000
310
7FFFFFF0001FFFFFFFFE00000000003FFFFFFE00000000003FFFFF0000000000
310
03FF00000000001FF000FC00000000000FFFFFE00003FFFF00001FFFFF80007F
310
F800000000001FFFC00000000000FFF8000001FFFE0000007FFFFFF0001FFFFF
310
FFFC00000000001FFFFFFC00000000001FFFFF000000000003FE00000000000F
310
F000F8000000000007FFFFE00003FFFF00001FFFFF80007FF800000000000FFF
310
800000000000FFF8000001FFFE0000007FFFFFF0001FFFFFFFF800000000000F
310
FFFFF800000000000FFFFF000000000003FC000000000007F000F80000000000
310
03FFFFC00003FFFE00001FFFFF80007FF0000000000007FF0000000000007FF8
310
000001FFFE0000007FFFFFF0001FFFFFFFF0000000000007FFFFF00000000000
310
07FFFF000000000003F8000000000003F000F0000000000003FFFFC00001FFFE
310
00001FFFFF80007FE0000000000007FE0000000000003FF8000001FFFE000000
310
7FFFFFF0001FFFFFFFF0000000000007FFFFF0000000000007FFFF0000000000
310
03F800001F800003F000E00001FFF00001FFFFC00001FFFE00000FFFFF80007F
310
E00001FFE00003FE00001FFF00003FF8000001FFFE0000007FFFFFF0001FFFFF
310
FFE000003E000003FFFFE000003E000003FFFF000000000003F00001FFF80001
310
F000E00007FFFC0001FFFFC00001FFFE00000FFFFF80007FC0000FFFFC0003FC
310
0000FFFFC0001FF8000001FFFE0000007FFFFFF0001FFFFFFFC00003FFE00001
310
FFFFC00003FFE00001FFFF0001FFFFFFFFF00007FFFE0001F000E0000FFFFF00
310
00FFFF800001FFFC00000FFFFF80007FC0001FFFFE0001FC0001FFFFE0001FF8
310
000001FFFE0000007FFFFFF0001FFFFFFF80000FFFF80000FFFF80000FFFF800
310
00FFFF0003FFFFFFFFE0000FFFFF8000F000C0003FFFFF8000FFFF800000FFFC
310
000007FFFF80007F80003FFFFF0001FC0003FFFFF0001FF8000001FFFE000000
310
7FFFFFF0001FFFFFFF80003FFFFE0000FFFF80003FFFFE0000FFFF0003FFFFFF
310
FFE0003FFFFF8000F000C0003FFFFF8000FFFF800000FFFC000007FFFF80007F
310
80007FFFFF8001F80007FFFFF8000FF8000001FFFE0000007FFFFFF0001FFFFF
310
FF00007FFFFF00007FFF00007FFFFF00007FFF0003FFFFFFFFE0003FFFFFC000
310
F000C0007FFFFFC000FFFF000000FFFC000007FFFF80007F8000FFFFFF8000F8
310
000FFFFFF8000FF8000001FFFE0000007FFFFFF0001FFFFFFF0000FFFFFF8000
310
7FFF0000FFFFFF80007FFF0003FFFFFFFFC0007FFFFFC00070008000FFFFFFC0
310
00FFFF000000FFF8000007FFFF80007F8000FFFFFF8000F8000FFFFFF8000FF8
310
000001FFFE0000007FFFFFF0001FFFFFFE0001FFFFFFC0003FFE0001FFFFFFC0
310
003FFF0003FFFFFFFFC0007FFFFFE00070008000FFFFFFC0007FFF0000007FF8
310
000003FFFF80007F0001FFFFFF8000F8000FFFFFF8000FF8000001FFFE000000
310
7FFFFFF0001FFFFFFE0001FFFFFFC0003FFE0001FFFFFFC0003FFF0003FFFFFF
310
FFC000FFFFFFE00070008000FFFFFFC0007FFF0000007FF8000003FFFF80007F
310
0001FFFFFF8000F8001FFFFFF8000FF8000001FFFE0000007FFFFFF0001FFFFF
310
FE0003FFFFFFE0003FFE0003FFFFFFE0003FFF0003FFFFFFFFC000FFFFFFE000
310
70008000FFFFFFC0007FFE0000007FF8000003FFFF80007F0001FFFFFF8000F0
310
001FFFFFF8000FF8000001FFFE0000007FFFFFF0001FFFFFFC0003FFFFFFE000
310
1FFC0003FFFFFFE0001FFF0003FFFFFFFFC000FFFFFFC00070008000FFFFFF80
310
007FFE0000007FF0000003FFFF80007F0001FFFFFF0000F0001FFFFFF8000FF8
310
000001FFFE0000007FFFFFF0001FFFFFFC0007FFFFFFF0001FFC0007FFFFFFF0
310
001FFF0003FFFFFFFFC000FFFFFFC00070008001FFFFFF0000FFFE0000003FF0
310
000001FFFF80007F0001FFFFFF0000F8001FFFFFF0000FF8000001FFFE000000
310
7FFFFFF0001FFFFFFC0007FFFFFFF0001FFC0007FFFFFFF0001FFF0003FFFFFF
310
FFC001FFFFFF80007000FFFFFFFFFE0000FFFE0008003FF0008001FFFF80007F
310
FFFFFFFFFC0000FFFFFFFFFFE0000FF8000001FFFE0000007FFFFFF0001FFFFF
310
F8000FFFFFFFF8000FF8000FFFFFFFF8000FFF0003FFFFFFFFFFFFFFFFFF0000
310
7000FFFFFFFFFC0000FFFC0008003FF0008001FFFF80007FFFFFFFFFF80001FF
310
FFFFFFFF80000FF8000001FFFE0000007FFFFFF0001FFFFFF8000FFFFFFFF800
310
0FF8000FFFFFFFF8000FFF0003FFFFFFFFFFFFFFFFFE0000F000FFFFFFFFE000
310
00FFFC000C003FE000C001FFFF80007FFFFFFFFFC00001FFFFFFFFFE00001FF8
310
000001FFFE0000007FFFFFF0001FFFFFF8000FFFFFFFF8000FF8000FFFFFFFF8
310
000FFF0003FFFFFFFFFFFFFFFFF00000F000FFFFFFFE000001FFFC000C001FE0
310
00C000FFFF80007FFFFFFFFE000001FFFFFFFFE000001FF80FFFFFFFFFFFFFC0
310
7FFFFFF0001FFFFFF8000FFFFFFFF8000FF8000FFFFFFFF8000FFF0003FFFFFF
310
FFFFFFFFFF800000F000FFFFFFC0000001FFFC001C001FE001C000FFFF80007F
310
FFFFFF80000003FFFFFFF80000001FF80FFFFFFFFFFFFFC07FFFFFF0001FFFFF
310
F8001FFFFFFFFC000FF8001FFFFFFFFC000FFF0003FFFFFFFFFFFFFFF0000001
310
F000FFFFF800000001FFF8001C001FE001C000FFFF80007FFFFFF800000003FF
310
FFFF800000003FF80FFFFFFFFFFFFFC07FFFFFF0001FFFFFF8001FFFFFFFFC00
310
0FF8001FFFFFFFFC000FFF0003FFFFFFFFFFFFFE00000001F000FFFFC0000000
310
03FFF8001E001FC001E000FFFF80007FFFFF8000000007FFFFFC000000003FF8
310
0FFFFFFFFFFFFFC07FFFFFF0001FFFFFF8001FFFFFFFFC000FF8001FFFFFFFFC
310
000FFF0003FFFFFFFFFFFFE000000003F000FFFE0000000007FFF8001E000FC0
310
01E0007FFF80007FFFFE0000000007FFFFE0000000007FF80FFFFFFFFFFFFFC0
310
7FFFFFF0001FFFFFF0001FFFFFFFFC0007F0001FFFFFFFFC0007FF0003FFFFFF
310
FFFFFF0000000003F000FFF80000000007FFF8001E000FC003E0007FFF80007F
310
FFF0000000000FFFFF8000000000FFF80FFFFFFFFFFFFFC07FFFFFF0001FFFFF
310
F0001FFFFFFFFC0007F0001FFFFFFFFC0007FF0003FFFFFFFFFFFC0000000007
310
F000FFE0000000000FFFF0003E000FC003E0007FFF80007FFFC0000000001FFF
310
FE0000000001FFF80FFFFFFFFFFFFFC07FFFFFF0001FFFFFF0001FFFFFFFFC00
310
07F0001FFFFFFFFC0007FF0003FFFFFFFFFFF0000000000FF000FFC000000000
310
1FFFF0003F000F8003F0003FFF80007FFF80000000003FFFF80000000003FFF8
310
0FFFFFFFFFFFFFC07FFFFFF0001FFFFFF0001FFFFFFFFC0007F0001FFFFFFFFC
310
0007FF0003FFFFFFFFFFE0000000001FF000FF00000000007FFFF0003F000780
310
03F0003FFF80007FFF00000000007FFFF00000000007FFF80FFFFFFFFFFFFFC0
310
7FFFFFF0001FFFFFF0001FFFFFFFFC0007F0001FFFFFFFFC0007FF0003FFFFFF
310
FFFF80000000007FF000FE0000000000FFFFE0003F00078007F0003FFF80007F
310
FE0000000001FFFFE0000000001FFFF80FFFFFFFFFFFFFC07FFFFFF0001FFFFF
310
F0001FFFFFFFFC0007F0001FFFFFFFFC0007FF0003FFFFFFFFFF0000000000FF
310
F000FC0000000003FFFFE0007F00078007F0003FFF80007FFC0000000007FFFF
310
C0000000007FFFF80FFFFFFFFFFFFFC07FFFFFF0001FFFFFF8001FFFFFFFFC00
310
0FF8001FFFFFFFFC000FFF0003FFFFFFFFFE0000000003FFF000FC000000000F
310
FFFFE0007F80070007F8001FFF80007FF8000000001FFFFF8000000001FFFFF8
310
0FFFFFFFFFFFFFC07FFFFFF0001FFFFFF8001FFFFFFFFC000FF8001FFFFFFFFC
310
000FFF0003FFFFFFFFFC000000000FFFF000F8000000007FFFFFE0007F800700
310
07F8001FFF80007FF000000000FFFFFF800000000FFFFFF80FFFFFFFFFFFFFC0
310
7FFFFFF0001FFFFFF8000FFFFFFFF8000FF8000FFFFFFFF8000FFF0003FFFFFF
310
FFFC000000007FFFF000F800000007FFFFFFC0007F8003000FF8001FFF80007F
310
F000000007FFFFFF000000007FFFFFF80FFFFFFFFFFFFFC07FFFFFF0001FFFFF
310
F8000FFFFFFFF8000FF8000FFFFFFFF8000FFF0003FFFFFFFFF80000000FFFFF
310
F000F0000000FFFFFFFFC000FF8003000FF8001FFF80007FE0000000FFFFFFFF
310
0000000FFFFFFFF8000001FFFE0000007FFFFFF0001FFFFFF8000FFFFFFFF800
310
0FF8000FFFFFFFF8000FFF0003FFFFFFFFF8000000FFFFFFF000F000000FFFFF
310
FFFFC000FFC002000FF8000FFF80007FE000001FFFFFFFFE000001FFFFFFFFF8
310
000001FFFE0000007FFFFFF0001FFFFFF8000FFFFFFFF8000FF8000FFFFFFFF8
310
000FFF0003FFFFFFFFF000001FFFFFFFF000E00000FFFFFFFFFFC000FFC00200
310
0FFC000FFF80007FE00001FFFFFFFFFE00001FFFFFFFFFF8000001FFFE000000
310
7FFFFFF0001FFFFFFC000FFFFFFFF8001FFC000FFFFFFFF8001FFF0003FFFFFF
310
FFF00001FFFFFFFFF000E00007FFFFFFFFFF8000FFC000001FFC000FFF80007F
310
C0000FFFFFFFFFFE0000FFFFFFFFFFF8000001FFFE0000007FFFFFF0001FFFFF
310
FC0007FFFFFFF0001FFC0007FFFFFFF0001FFF0003FFFFFFFFF00007FFFFFFFF
310
F000E0001FFFFFFFFFFF8000FFC000001FFC000FFF80007FC0003FFFFFFFFFFE
310
0001FFFFFFFFFFF8000001FFFE0000007FFFFFF0001FFFFFFC0007FFFFFFF000
310
1FFC0007FFFFFFF0001FFF0003FFFFFFFFF0001FFFFFFFFFF000E0003FFFFF00
310
03FF8001FFE000001FFC0007FF80007FC0007FFFFF0007FC0003FFFFF0003FF8
310
000001FFFE0000007FFFFFF0001FFFFFFC0003FFFFFFE0001FFC0003FFFFFFE0
310
001FFF0003FFFFFFFFF0003FFFFFFFFFF000E0003FFFFF0001FF8001FFE00000
310
1FFE0007FF80007FC0007FFFFE0003FC0007FFFFE0003FF8000001FFFE000000
310
7FFFFFF0001FFFFFFE0003FFFFFFE0003FFE0003FFFFFFE0003FFF0003FFFFFF
310
FFF0003FFFFF8001F000E0003FFFFF0001FF0001FFE000001FFE0007FF80007F
310
C0007FFFFE0003FC0007FFFFE0003FF8000001FFFE0000007FFFFFF0001FFFFF
310
FE0001FFFFFFC0003FFE0001FFFFFFC0003FFF0003FFFFFFFFF0003FFFFF0001
310
F000E0003FFFFF0003FF0001FFE000003FFE0007FF80007FC0007FFFFE0003FC
310
0007FFFFE0003FF8000001FFFE0000007FFFFFF0001FFFFFFF0001FFFFFFC000
310
7FFF0001FFFFFFC0007FFF0003FFFFFFFFF0003FFFFF0001F000E0003FFFFE00
310
03FF0003FFF000003FFE0003FF80007FC0007FFFFC0003FE0007FFFFE0003FF8
310
000001FFFE0000007FFFFFF0001FFFFFFF0000FFFFFF80007FFF0000FFFFFF80
310
007FFF0003FFFFFFFFF0003FFFFF0001F000E0003FFFFE0003FF0003FFF00000
310
3FFF0003FF80007FC0007FFFFC0007FE0007FFFFC0003FF8000001FFFE000000
310
7FFFFFF0001FFFFFFF80007FFFFF0000FFFF80007FFFFF0000FFFF0003FFFFFF
310
FFF0003FFFFF0003F000E0003FFFFC0003FE0003FFF000003FFF0003FF80007F
310
E0003FFFF80007FE0003FFFFC0007FF8000001FFFE0000007FFFFFF0001FFFFF
310
FF80003FFFFE0000FFFF80003FFFFE0000FFFF0003FFFFFFFFF0001FFFFE0003
310
F000F0001FFFF80003FE0003FFF000007FFF0001FF80007FE0003FFFF00007FE
310
0001FFFF80007FF8000001FFFE0000007FFFFFF0001FFFFFFFC0000FFFF80001
310
FFFFC0000FFFF80001FFFF0003FFFFFFFFF0001FFFFC0003F000F0000FFFF000
310
07FE0007FFF800007FFF0001FF80007FE0001FFFE00007FF0000FFFE00007FF8
310
000001FFFE0000007FFFFFF0001FFFFFFFC00003FFE00001FFFFC00003FFE000
310
01FFFF0003FFFFFFFFF8000FFFF80003F000F00003FFC00007FC0007FFF80000
310
7FFF8001FF80007FF00007FF80000FFF00007FF80000FFF8000001FFFE000000
310
7F80000000000001FFE000003E000003FFFFE000003E000003FFFF0003FFFFFF
310
FFF80003FFE00007F000F800000000000FFC0007FFF800007FFF8001FF80007F
310
F000000000000FFF000000000000FFF8000001FFFE0000007F80000000000001
310
FFF0000000000007FFFFF0000000000007FFFF0003FFFFFFFFFC00007E000007
310
F000F800000000000FFC0007FFF80000FFFF8000FF80007FF800000000001FFF
310
800000000001FFF8000001FFFE0000007F80000000000001FFF800000000000F
310
FFFFF800000000000FFFFF0003FFFFFFFFFC00000000000FF000FC0000000000
310
1FFC0007FFFC0000FFFF8000FF80007FF800000000003FFFC00000000001FFF8
310
000001FFFE0000007F80000000000001FFF800000000000FFFFFF80000000000
310
0FFFFF0003FFFFFFFFFE00000000001FF000FE00000000003FF8000FFFFC0000
310
FFFF8000FF80007FFC00000000003FFFC00000000003FFF8000001FFFE000000
310
7F80000000000001FFFC00000000001FFFFFFC00000000001FFFFF0003FFFFFF
310
FFFF00000000001FF000FF00000000003FF8000FFFFC0000FFFFC000FF80007F
310
FE00000000007FFFE00000000007FFF8000001FFFE0000007F80000000000001
310
FFFE00000000003FFFFFFE00000000003FFFFF0003FFFFFFFFFF80000000003F
310
F000FF80000000007FF8000FFFFC0001FFFFC0007F80007FFF0000000000FFFF
310
F0000000000FFFF800000000000000007F80000000000001FFFF8000000000FF
310
FFFFFF8000000000FFFFFF0003FFFFFFFFFFC0000000007FF000FFC000000000
310
FFF8000FFFFE0001FFFFC0007F80007FFF8000000001FFFFF8000000001FFFF8
310
00000000000000007F80000000000001FFFFC000000001FFFFFFFFC000000001
310
FFFFFF0003FFFFFFFFFFE000000000FFF000FFE000000003FFF0001FFFFE0001
310
FFFFC0007F80007FFFC000000007FFFFFE000000003FFFF80000000000000000
310
7F80000000000001FFFFE000000003FFFFFFFFE000000003FFFFFF0003FFFFFF
310
FFFFF000000003FFF000FFF80000000FFFF0001FFFFE0001FFFFE0007F80007F
310
FFF00000000FFFFFFF00000000FFFFF800000000000000007F80000000000001
310
FFFFF80000000FFFFFFFFFF80000000FFFFFFF0003FFFFFFFFFFFC0000000FFF
310
F000FFFE0000003FFFF0001FFFFE0003FFFFE0003F80007FFFFC0000003FFFFF
310
FFC0000003FFFFF800000000000000007F80000000000001FFFFFE0000003FFF
310
FFFFFFFE0000003FFFFFFF0003FFFFFFFFFFFF0000003FFFF000FFFF800000FF
310
FFF0001FFFFF0003FFFFE0003F80007FFFFF000001FFFFFFFFF800001FFFFFF8
310
00000000000000007F80000000000001FFFFFFC00001FFFFFFFFFFFFC00001FF
310
FFFFFF0003FFFFFFFFFFFFC00000FFFFF000FFFFF8000FFFFFFFFFFFFFFFFFFF
310
FFFFFFFFFFFFFFFFFFFFF0001FFFFFFFFFFF0000FFFFFFF80000000000000000
310
7FFFFFFFFFFFFFFFFFFFFFFC001FFFFFFFFFFFFFFC001FFFFFFFFFFFFFFFFFFF
310
FFFFFFFC001FFFFFF000FFFFFFFFFFFFFFFFFFFFFFFFFFFFFFFFFFFFFFFFFFFF
310
FFFFFFFFFFFFFFFFFFFFFFFFFFFFFFFFFFFFFFFFFFFFFFFFFFFFFFFFFFFFFFFF
310
FFFFFFFFFFFFFFFFFFFFFFFFFFFFFFFFFFFFFFFFFFFFFFFFFFFFFFFFFFFFFFFF
310
F000FFFFFFFFFFFFFFFFFFFFFFFFFFFFFFFFFFFFFFFFFFFFFFFFFFFFFFFFFFFF
310
FFFFFFFFFFFFFFFFFFFFFFFFFFFFFFFFFFFFFFFFFFFFFFFFFFFFFFFFFFFFFFFF
310
FFFFFFFFFFFFFFFFFFFFFFFFFFFFFFFFFFFFFFFFFFFFFFFFF000FFFFFFFFFFFF
310
FFFFFFFFFFFFFFFFFFFFFFFFFFFFFFFFFFFFFFFFFFFFFFFFFFFFFFFFFFFFFFFF
310
FFFFFFFFFFFFFFFFFFFFFFFFFFFFFFFFFFFFFFFFFFFFFFFFFFFFFFFFFFFFFFFF
310
FFFFFFFFFFFFFFFFFFFFFFFFFFFFFFFFF000FFFFFFFFFFFFFFFFFFFFFFFFFFFF
310
FFFFFFFFFFFFFFFFFFFFFFFFFFFFFFFFFFFFFFFFFFFFFFFFFFFFFFFFFFFFFFFF
310
FFFFFFFFFFFFFFFFFFFFFFFFFFFFFFFFFFFFFFFFFFFFFFFFFFFFFFFFFFFFFFFF
310
FFFFFFFFFFFFFFFFF000FFFFFFFFFFFFFFFFFFFFFFFFFFFFFFFFFFFFFFFFFFFF
310
FFFFFFFFFFFFFFFFFFFFFFFFFFFFFFFFFFFFFFFFFFFFFFFFFFFFFFFFFFFFFFFF
310
FFFFFFFFFFFFFFFFFFFFFFFFFFFFFFFFFFFFFFFFFFFFFFFFFFFFFFFFFFFFFFFF
310
F000FFFFFFFFFFFFFFFFFFFFFFFFFFFFFFFFFFFFFFFFFFFFFFFFFFFFFFFFFFFF
310
FFFFFFFFFFFFFFFFFFFFFFFFFFFFFFFFFFFFFFFFFFFFFFFFFFFFFFFFFFFFFFFF
310
FFFFFFFFFFFFFFFFFFFFFFFFFFFFFFFFFFFFFFFFFFFFFFFFF000FFFFFFFFFFFF
310
FFFFFFFFFFFFFFFFFFFFFFFFFFFFFFFFFFFFFFFFFFFFFFFFFFFFFFFFFFFFFFFF
310
FFFFFFFFFFFFFFFFFFFFFFFFFFFFFFFFFFFFFFFFFFFFFFFFFFFFFFFFFFFFFFFF
310
FFFFFFFFFFFFFFFFFFFFFFFFFFFFFFFFF000FFFFFFFFFFFFFFFFFFFFFFFFFFFF
310
FFFFFFFFFFFFFFFFFFFFFFFFFFFFFFFFFFFFFFFFFFFFFFFFFFFFFFFFFFFFFFFF
310
FFFFFFFFFFFFFFFFFFFFFFFFFFFFFFFFFFFFFFFFFFFFFFFFFFFFFFFFFFFFFFFF
310
FFFFFFFFFFFFFFFFF000FFFFFFFFFFFFFFFFFFFFFFFFFFFFFFFFFFFFFFFFFFFF
310
FFFFFFFFFFFFFFFFFFFFFFFFFFFFFFFFFFFFFFFFFFFFFFFFFFFFFFFFFFFFFFFF
310
FFFFFFFFFFFFFFFFFFFFFFFFFFFFFFFFFFFFFFFFFFFFFFFFFFFFFFFFFFFFFFFF
310
F000FFFFFFFFFFFFFFFFFFFFFFFFFFFFFFFFFFFFFFFFFFFFFFFFFFFFFFFFFFFF
310
FFFFFFFFFFFFFFFFFFFFFFFFFFFFFFFFFFFFFFFFFFFFFFFFFFFFFFFFFFFFFFFF
310
FFFFFFFFFFFFFFFFFFFFFFFFFFFFFFFFFFFFFFFFFFFFFFFFF000FFFFFFFFFFFF
310
FFFFFFFFFFFFFFFFFFFFFFFFFFFFFFFFFFFFFFFFFFFFFFFFFFFFFFFFFFFFFFFF
310
FFFFFFFFFFFFFFFFFFFFFFFFFFFFFFFFFFFFFFFFFFFFFFFFFFFFFFFFFFFFFFFF
310
FFFFFFFFFFFFFFFFFFFFFFFFFFFFFFFFF000FFFFFFFFFFFFFFFFFFFFFFFFFFFF
310
FFFFFFFFFFFFFFFFFFFFFFFFFFFFFFFFFFFFFFFFFFFFFFFFFFFFFFFFFFFFFFFF
310
FFFFFFFFFFFFFFFFFFFFFFFFFFFFFFFFFFFFFFFFFFFFFFFFFFFFFFFFFFFFFFFF
310
FFFFFFFFFFFFFFFFF000FFFFFFFFFFFFFFFFFFFFFFFFFFFFFFFFFFFFFFFFFFFF
310
FFFFFFFFFFFFFFFFFFFFFFFFFFFFFFFFFFFFFFFFFFFFFFFFFFFFFFFFFFFFFFFF
310
FFFFFFFFFFFFFFFFFFFFFFFFFFFFFFFFFFFFFFFFFFFFFFFFFFFFFFFFFFFFFFFF
310
F000FFFFFFFFFFFFFFFFFFFFFFFFFFFFFFFFFFFFFFFFFFFFFFFFFFFFFFFFFFFF
310
FFFFFFFFFFFFFFFFFFFFFFFFFFFFFFFFFFFFFFFFFFFFFFFFFFFFFFFFFFFFFFFF
310
FFFFFFFFFFFFFFFFFFFFFFFFFFFFFFFFFFFFFFFFFFFFFFFFF000FFFFFFFFFFFF
310
FFFFFFFFFFFFFFFFFFFFFFFFFFFFFFFFFFFFFFFFFFFFFFFFFFFFFFFFFFFFFFFF
310
FFFFFFFFFFFFFFFFFFFFFFFFFFFFFFFFFFFFFFFFFFFFFFFFFFFFFFFFFFFFFFFF
310
FFFFFFFFFFFFFFFFFFFFFFFFFFFFFFFFF000FFFFFFFFFFFFFFFFFFFFFFFFFFFF
310
FFFFFFFFFFFFFFFFFFFFFFFFFFFFFFFFFFFFFFFFFFFFFFFFFFFFFFFFFFFFFFFF
310
FFFFFFFFFFFFFFFFFFFFFFFFFFFFFFFFFFFFFFFFFFFFFFFFFFFFFFFFFFFFFFFF
310
FFFFFFFFFFFFFFFFF000FFFFFFFFFFFFFFFFFFFFFFFFFFFFFFFFFFFFFFFFFFFF
310
FFFFFFFFFFFFFFFFFFFFFFFFFFFFFFFFFFFFFFFFFFFFFFFFFFFFFFFFFFFFFFFF
310
FFFFFFFFFFFFFFFFFFFFFFFFFFFFFFFFFFFFFFFFFFFFFFFFFFFFFFFFFFFFFFFF
310
F000FFFFFFFFFFFFFFFFFFFFFFFFFFFFFFFFFFFFFFFFFFFFFFFFFFFFFFFFFFFF
310
FFFFFFFFFFFFFFFFFFFFFFFFFFFFFFFFFFFFFFFFFFFFFFFFFFFFFFFFFFFFFFFF
310
FFFFFFFFFFFFFFFFFFFFFFFFFFFFFFFFFFFFFFFFFFFFFFFFF000FFFFFFFFFFFF
310
FFFFFFFFFFFFFFFFFFFFFFFFFFFFFFFFFFFFFFFFFFFFFFFFFFFFFFFFFFFFFFFF
310
FFFFFFFFFFFFFFFFFFFFFFFFFFFFFFFFFFFFFFFFFFFFFFFFFFFFFFFFFFFFFFFF
310
FFFFFFFFFFFFFFFFFFFFFFFFFFFFFFFFF000FFFFFFFFFFFFFFFFFFFFFFFFFFFF
310
FFFFFFFFFFFFFFFFFFFFFFFFFFFFFFFFFFFFFFFFFFFFFFFFFFFFFFFFFFFFFFFF
310
FFFFFFFFFFFFFFFFFFFFFFFFFFFFFFFFFFFFFFFFFFFFFFFFFFFFFFFFFFFFFFFF
310
FFFFFFFFFFFFFFFFF000FFFFFFFFFFFFFFFFFFFFFFFFFFFFFFFFFFFFFFFFFFFF
310
FFFFFFFFFFFFFFFFFFFFFFFFFFFFFFFFFFFFFFFFFFFFFFFFFFFFFFFFFFFFFFFF
310
FFFFFFFFFFFFFFFFFFFFFFFFFFFFFFFFFFFFFFFFFFFFFFFFFFFFFFFFFFFFFFFF
310
F000FFFFFFFFFFFFFFFFFFFFFFFFFFFFFFFFFFFFFFFFFFFFFFFFFFFFFFFFFFFF
310
FFFFFFFFFFFFFFFFFFFFFFFFFFFFFFFFFFFFFFFFFFFFFFFFFFFFFFFFFFFFFFFF
310
FFFFFFFFFFFFFFFFFFFFFFFFFFFFFFFFFFFFFFFFFFFFFFFFF000FFFFFFFFFFFF
310
FFFFFFFFFFFFFFFFFFFFFFFFFFFFFFFFFFFFFFFFFFFFFFFFFFFFFFFFFFFFFFFF
310
FFFFFFFFFFFFFFFFFFFFFFFFFFFFFFFFFFFFFFFFFFFFFFFFFFFFFFFFFFFFFFFF
310
FFFFFFFFFFFFFFFFFFFFFFFFFFFFFFFFF0000000000000000000000000000000
310
0000000001000000010000000100000001000000010000000100000001000000
310
0100000001000000010000000100000001000000010000000100000001000000
310
0100000001000000010000000000000001000000010000000100000001000000
310
0100000001000000010000000100000001000000010000000100000001000000
310
0100000001000000010000000100000001000000010000000100000001000000
310
0100000001000000010000000100000001000000010000000100000000000000
310
0100000001000000010000000100000001000000010000000100000001000000
310
0100000001000000010000000100000001000000010000000100000001000000
310
0100000001000000010000000000000001000000010000000000000001000000
310
0100000001000000010000000100000001000000010000000100000001000000
310
0100000001000000010000000100000001000000010000000100000001000000
310
0100000001000000010000000100000001000000010000000100000001000000
310
0100000000000000010000000000000001000000010000000100000001000000
310
0100000001000000010000000100000001000000010000000100000001000000
310
0100000001000000010000000100000001000000010000000100000001000000
  1
OLE
  0
ENDSEC
  0
SECTION
  2
OBJECTS
  0
DICTIONARY
  5
C
330
0
100
AcDbDictionary
281
     1
  3
ACAD_GROUP
350
D
  3
ACAD_LAYOUT
350
1A
  3
ACAD_MLEADERSTYLE
350
1F9
  3
ACAD_MLINESTYLE
350
17
  3
ACAD_PLOTSETTINGS
350
19
  3
ACAD_PLOTSTYLENAME
350
E
  3
ACAD_TABLESTYLE
350
1F8
  3
ACAD_VISUALSTYLE
350
2A
  3
AcDbVariableDictionary
350
1FA
  0
DICTIONARY
  5
D
102
{ACAD_REACTORS
330
C
102
}
330
C
100
AcDbDictionary
281
     1
  0
DICTIONARY
  5
1A
102
{ACAD_REACTORS
330
C
102
}
330
C
100
AcDbDictionary
281
     1
  3
Layout1
350
1E
  3
Layout2
350
26
  3
Model
350
22
  0
DICTIONARY
  5
1F9
102
{ACAD_REACTORS
330
C
102
}
330
C
100
AcDbDictionary
281
     1
  0
DICTIONARY
  5
17
102
{ACAD_REACTORS
330
C
102
}
330
C
100
AcDbDictionary
281
     1
  3
Standard
350
18
  0
DICTIONARY
  5
19
102
{ACAD_REACTORS
330
C
102
}
330
C
100
AcDbDictionary
281
     1
  0
ACDBDICTIONARYWDFLT
  5
E
102
{ACAD_REACTORS
330
C
102
}
330
C
100
AcDbDictionary
281
     1
  3
Normal
350
F
100
AcDbDictionaryWithDefault
340
F
  0
DICTIONARY
  5
1F8
102
{ACAD_REACTORS
330
C
102
}
330
C
100
AcDbDictionary
281
     1
  0
DICTIONARY
  5
2A
102
{ACAD_REACTORS
330
C
102
}
330
C
100
AcDbDictionary
281
     1
  3
2dWireframe
350
2F
  3
3D Hidden
350
31
  3
3dWireframe
350
30
  3
Basic
350
32
  3
Brighten
350
36
  3
ColorChange
350
3A
  3
Conceptual
350
34
  3
Dim
350
35
  3
Facepattern
350
39
  3
Flat
350
2B
  3
FlatWithEdges
350
2C
  3
Gouraud
350
2D
  3
GouraudWithEdges
350
2E
  3
Linepattern
350
38
  3
Realistic
350
33
  3
Thicken
350
37
  0
DICTIONARY
  5
1FA
102
{ACAD_REACTORS
330
C
102
}
330
C
100
AcDbDictionary
281
     1
  3
PSOLHEIGHT
350
1FC
  3
PSOLWIDTH
350
1FB
  0
LAYOUT
  5
1E
102
{ACAD_REACTORS
330
1A
102
}
330
1A
100
AcDbPlotSettings
  1

  2
none_device
  4

  6

 40
0.0
 41
0.0
 42
0.0
 43
0.0
 44
0.0
 45
0.0
 46
0.0
 47
0.0
 48
0.0
 49
0.0
140
0.0
141
0.0
142
1.0
143
1.0
 70
   688
 72
     0
 73
     0
 74
     5
  7

 75
    16
147
1.0
148
0.0
149
0.0
100
AcDbLayout
  1
Layout1
 70
     1
 71
     1
 10
0.0
 20
0.0
 11
420.0
 21
297.0
 12
0.0
 22
0.0
 32
0.0
 14
1.0000000000E+20
 24
1.0000000000E+20
 34
1.0000000000E+20
 15
-1.0000000000E+20
 25
-1.0000000000E+20
 35
-1.0000000000E+20
146
0.0
 13
0.0
 23
0.0
 33
0.0
 16
1.0
 26
0.0
 36
0.0
 17
0.0
 27
1.0
 37
0.0
 76
     0
330
1B
  0
LAYOUT
  5
26
102
{ACAD_REACTORS
330
1A
102
}
330
1A
100
AcDbPlotSettings
  1

  2
none_device
  4

  6

 40
0.0
 41
0.0
 42
0.0
 43
0.0
 44
0.0
 45
0.0
 46
0.0
 47
0.0
 48
0.0
 49
0.0
140
0.0
141
0.0
142
1.0
143
1.0
 70
   688
 72
     0
 73
     0
 74
     5
  7

 75
    16
147
1.0
148
0.0
149
0.0
100
AcDbLayout
  1
Layout2
 70
     1
 71
     2
 10
0.0
 20
0.0
 11
0.0
 21
0.0
 12
0.0
 22
0.0
 32
0.0
 14
0.0
 24
0.0
 34
0.0
 15
0.0
 25
0.0
 35
0.0
146
0.0
 13
0.0
 23
0.0
 33
0.0
 16
1.0
 26
0.0
 36
0.0
 17
0.0
 27
1.0
 37
0.0
 76
     0
330
23
  0
LAYOUT
  5
22
102
{ACAD_REACTORS
330
1A
102
}
330
1A
100
AcDbPlotSettings
  1

  2
none_device
  4

  6

 40
0.0
 41
0.0
 42
0.0
 43
0.0
 44
0.0
 45
0.0
 46
0.0
 47
0.0
 48
0.0
 49
0.0
140
0.0
141
0.0
142
1.0
143
1.0
 70
  1712
 72
     0
 73
     0
 74
     0
  7

 75
     0
147
1.0
148
0.0
149
0.0
100
AcDbLayout
  1
Model
 70
     1
 71
     0
 10
0.0
 20
0.0
 11
297.0
 21
210.0
 12
0.0
 22
0.0
 32
0.0
 14
0.0
 24
0.0
 34
0.0
 15
297.0
 25
210.0
 35
0.0
146
0.0
 13
0.0
 23
0.0
 33
0.0
 16
1.0
 26
0.0
 36
0.0
 17
0.0
 27
1.0
 37
0.0
 76
     0
330
1F
331
29
  0
MLINESTYLE
  5
18
102
{ACAD_REACTORS
330
17
102
}
330
17
100
AcDbMlineStyle
  2
Standard
 70
     0
  3

 62
   256
 51
90.0
 52
90.0
 71
     2
 49
0.5
 62
   256
  6
BYLAYER
 49
-0.5
 62
   256
  6
BYLAYER
  0
ACDBPLACEHOLDER
  5
F
102
{ACAD_REACTORS
330
E
102
}
330
E
  0
VISUALSTYLE
  5
2F
102
{ACAD_REACTORS
330
2A
102
}
330
2A
100
AcDbVisualStyle
  2
2dWireframe
 70
     4
 71
     0
 72
     2
 73
     0
 90
        0
 40
-0.6
 41
-30.0
 62
     5
 63
     7
 74
     1
 91
        4
 64
     7
 65
   257
 75
     1
175
     1
 42
1.0
 92
        0
 66
   257
 43
1.0
 76
     1
 77
     6
 78
     2
 67
     7
 79
     5
170
     0
171
     0
290
     0
174
     0
 93
        1
 44
0.0
173
     0
291
     0
 45
0.0
1001
ACAD
1000
AcDbSavedByObjectVersion
1070
     0
  0
VISUALSTYLE
  5
31
102
{ACAD_REACTORS
330
2A
102
}
330
2A
100
AcDbVisualStyle
  2
3D Hidden
 70
     6
 71
     1
 72
     2
 73
     2
 90
        0
 40
-0.6
 41
-30.0
 62
     5
 63
     7
 74
     2
 91
        2
 64
     7
 65
   257
 75
     2
175
     1
 42
40.0
 92
        0
 66
   257
 43
1.0
 76
     1
 77
     6
 78
     2
 67
     7
 79
     3
170
     0
171
     0
290
     0
174
     0
 93
        1
 44
0.0
173
     0
291
     0
 45
0.0
1001
ACAD
1000
AcDbSavedByObjectVersion
1070
     0
  0
VISUALSTYLE
  5
30
102
{ACAD_REACTORS
330
2A
102
}
330
2A
100
AcDbVisualStyle
  2
3dWireframe
 70
     5
 71
     0
 72
     2
 73
     0
 90
        0
 40
-0.6
 41
-30.0
 62
     5
 63
     7
 74
     1
 91
        4
 64
     7
 65
   257
 75
     1
175
     1
 42
1.0
 92
        0
 66
   257
 43
1.0
 76
     1
 77
     6
 78
     2
 67
     7
 79
     5
170
     0
171
     0
290
     0
174
     0
 93
        1
 44
0.0
173
     0
291
     0
 45
0.0
1001
ACAD
1000
AcDbSavedByObjectVersion
1070
     0
  0
VISUALSTYLE
  5
32
102
{ACAD_REACTORS
330
2A
102
}
330
2A
100
AcDbVisualStyle
  2
Basic
 70
     7
 71
     1
 72
     0
 73
     1
 90
        0
 40
-0.6
 41
-30.0
 62
     5
 63
     7
 74
     0
 91
        4
 64
     7
 65
   257
 75
     1
175
     1
 42
1.0
 92
        8
 66
     7
 43
1.0
 76
     1
 77
     6
 78
     2
 67
     7
 79
     5
170
     0
171
     0
290
     0
174
     0
 93
        1
 44
0.0
173
     0
291
     1
 45
0.0
1001
ACAD
1000
AcDbSavedByObjectVersion
1070
     0
  0
VISUALSTYLE
  5
36
102
{ACAD_REACTORS
330
2A
102
}
330
2A
100
AcDbVisualStyle
  2
Brighten
 70
    12
 71
     2
 72
     2
 73
     0
 90
        0
 40
-0.6
 41
-30.0
 62
     5
 63
     7
 74
     1
 91
        4
 64
     7
 65
   257
 75
     1
175
     1
 42
1.0
 92
        8
 66
     7
 43
1.0
 76
     1
 77
     6
 78
     2
 67
     7
 79
     5
170
     0
171
     0
290
     0
174
     0
 93
        1
 44
50.0
173
     0
291
     1
 45
0.0
1001
ACAD
1000
AcDbSavedByObjectVersion
1070
     0
  0
VISUALSTYLE
  5
3A
102
{ACAD_REACTORS
330
2A
102
}
330
2A
100
AcDbVisualStyle
  2
ColorChange
 70
    16
 71
     2
 72
     2
 73
     3
 90
        0
 40
-0.6
 41
-30.0
 62
     5
 63
     8
 74
     1
 91
        4
 64
     7
 65
   257
 75
     1
175
     1
 42
1.0
 92
        8
 66
     8
 43
1.0
 76
     1
 77
     6
 78
     2
 67
     7
 79
     5
170
     0
171
     0
290
     0
174
     0
 93
        1
 44
0.0
173
     0
291
     1
 45
0.0
1001
ACAD
1000
AcDbSavedByObjectVersion
1070
     0
  0
VISUALSTYLE
  5
34
102
{ACAD_REACTORS
330
2A
102
}
330
2A
100
AcDbVisualStyle
  2
Conceptual
 70
     9
 71
     3
 72
     2
 73
     0
 90
        0
 40
-0.6
 41
-30.0
 62
     5
 63
     7
 74
     2
 91
        2
 64
     7
 65
   257
 75
     1
175
     1
 42
40.0
 92
        8
 66
     7
 43
1.0
 76
     1
 77
     6
 78
     2
 67
     7
 79
     3
170
     0
171
     0
290
     0
174
     0
 93
        1
 44
0.0
173
     0
291
     0
 45
0.0
1001
ACAD
1000
AcDbSavedByObjectVersion
1070
     0
  0
VISUALSTYLE
  5
35
102
{ACAD_REACTORS
330
2A
102
}
330
2A
100
AcDbVisualStyle
  2
Dim
 70
    11
 71
     2
 72
     2
 73
     0
 90
        0
 40
-0.6
 41
-30.0
 62
     5
 63
     7
 74
     1
 91
        4
 64
     7
 65
   257
 75
     1
175
     1
 42
1.0
 92
        8
 66
     7
 43
1.0
 76
     1
 77
     6
 78
     2
 67
     7
 79
     5
170
     0
171
     0
290
     0
174
     0
 93
        1
 44
-50.0
173
     0
291
     1
 45
0.0
1001
ACAD
1000
AcDbSavedByObjectVersion
1070
     0
  0
VISUALSTYLE
  5
39
102
{ACAD_REACTORS
330
2A
102
}
330
2A
100
AcDbVisualStyle
  2
Facepattern
 70
    15
 71
     2
 72
     2
 73
     0
 90
        0
 40
-0.6
 41
-30.0
 62
     5
 63
     7
 74
     1
 91
        4
 64
     7
 65
   257
 75
     1
175
     1
 42
1.0
 92
        8
 66
     7
 43
1.0
 76
     1
 77
     6
 78
     2
 67
     7
 79
     5
170
     0
171
     0
290
     0
174
     0
 93
        1
 44
0.0
173
     0
291
     1
 45
0.0
1001
ACAD
1000
AcDbSavedByObjectVersion
1070
     0
  0
VISUALSTYLE
  5
2B
102
{ACAD_REACTORS
330
2A
102
}
330
2A
100
AcDbVisualStyle
  2
Flat
 70
     0
 71
     2
 72
     1
 73
     1
 90
        2
 40
-0.6
 41
30.0
 62
     5
 63
     7
 74
     0
 91
        4
 64
     7
 65
   257
 75
     1
175
     1
 42
1.0
 92
        8
 66
     7
 43
1.0
 76
     1
 77
     6
 78
     2
 67
     7
 79
     5
170
     0
171
     0
290
     0
174
     0
 93
       13
 44
0.0
173
     0
291
     1
 45
0.0
1001
ACAD
1000
AcDbSavedByObjectVersion
1070
     0
  0
VISUALSTYLE
  5
2C
102
{ACAD_REACTORS
330
2A
102
}
330
2A
100
AcDbVisualStyle
  2
FlatWithEdges
 70
     1
 71
     2
 72
     1
 73
     1
 90
        2
 40
-0.6
 41
30.0
 62
     5
 63
     7
 74
     1
 91
        4
 64
     7
 65
   257
 75
     1
175
     1
 42
1.0
 92
        0
 66
   257
 43
1.0
 76
     1
 77
     6
 78
     2
 67
     7
 79
     5
170
     0
171
     0
290
     0
174
     0
 93
       13
 44
0.0
173
     0
291
     1
 45
0.0
1001
ACAD
1000
AcDbSavedByObjectVersion
1070
     0
  0
VISUALSTYLE
  5
2D
102
{ACAD_REACTORS
330
2A
102
}
330
2A
100
AcDbVisualStyle
  2
Gouraud
 70
     2
 71
     2
 72
     2
 73
     1
 90
        2
 40
-0.6
 41
30.0
 62
     5
 63
     7
 74
     0
 91
        4
 64
     7
 65
   257
 75
     1
175
     1
 42
1.0
 92
        0
 66
     7
 43
1.0
 76
     1
 77
     6
 78
     2
 67
     7
 79
     5
170
     0
171
     0
290
     0
174
     0
 93
       13
 44
0.0
173
     0
291
     1
 45
0.0
1001
ACAD
1000
AcDbSavedByObjectVersion
1070
     0
  0
VISUALSTYLE
  5
2E
102
{ACAD_REACTORS
330
2A
102
}
330
2A
100
AcDbVisualStyle
  2
GouraudWithEdges
 70
     3
 71
     2
 72
     2
 73
     1
 90
        2
 40
-0.6
 41
30.0
 62
     5
 63
     7
 74
     1
 91
        4
 64
     7
 65
   257
 75
     1
175
     1
 42
1.0
 92
        0
 66
   257
 43
1.0
 76
     1
 77
     6
 78
     2
 67
     7
 79
     5
170
     0
171
     0
290
     0
174
     0
 93
       13
 44
0.0
173
     0
291
     1
 45
0.0
1001
ACAD
1000
AcDbSavedByObjectVersion
1070
     0
  0
VISUALSTYLE
  5
38
102
{ACAD_REACTORS
330
2A
102
}
330
2A
100
AcDbVisualStyle
  2
Linepattern
 70
    14
 71
     2
 72
     2
 73
     0
 90
        0
 40
-0.6
 41
-30.0
 62
     5
 63
     7
 74
     1
 91
        4
 64
     7
 65
   257
 75
     7
175
     7
 42
1.0
 92
        8
 66
     7
 43
1.0
 76
     1
 77
     6
 78
     2
 67
     7
 79
     5
170
     0
171
     0
290
     0
174
     0
 93
        1
 44
0.0
173
     0
291
     1
 45
0.0
1001
ACAD
1000
AcDbSavedByObjectVersion
1070
     0
  0
VISUALSTYLE
  5
33
102
{ACAD_REACTORS
330
2A
102
}
330
2A
100
AcDbVisualStyle
  2
Realistic
 70
     8
 71
     2
 72
     2
 73
     0
 90
        0
 40
-0.6
 41
-30.0
 62
     5
 63
     7
 74
     1
 91
        0
 64
     7
 65
   257
 75
     1
175
     1
 42
1.0
 92
        8
 66
     8
 43
1.0
 76
     1
 77
     6
 78
     2
 67
     7
 79
     5
170
     0
171
     0
290
     0
174
     0
 93
       13
 44
0.0
173
     0
291
     0
 45
0.0
1001
ACAD
1000
AcDbSavedByObjectVersion
1070
     0
  0
VISUALSTYLE
  5
37
102
{ACAD_REACTORS
330
2A
102
}
330
2A
100
AcDbVisualStyle
  2
Thicken
 70
    13
 71
     2
 72
     2
 73
     0
 90
        0
 40
-0.6
 41
-30.0
 62
     5
 63
     7
 74
     1
 91
        4
 64
     7
 65
   257
 75
     1
175
     1
 42
1.0
 92
       12
 66
     7
 43
1.0
 76
     1
 77
     6
 78
     2
 67
     7
 79
     5
170
     0
171
     0
290
     0
174
     0
 93
        1
 44
0.0
173
     0
291
     1
 45
0.0
1001
ACAD
1000
AcDbSavedByObjectVersion
1070
     0
  0
DICTIONARYVAR
  5
1FC
102
{ACAD_REACTORS
330
1FA
102
}
330
1FA
100
DictionaryVariables
280
     0
  1
80.000000
  0
DICTIONARYVAR
  5
1FB
102
{ACAD_REACTORS
330
1FA
102
}
330
1FA
100
DictionaryVariables
280
     0
  1
5.000000
  0
ENDSEC
  0
EOF
