  0
SECTION
  2
HEADER
  9
$ACADVER
  1
AC1015
  9
$ACADMAINTVER
 70
     6
  9
$DWGCODEPAGE
  3
ANSI_1252
  9
$INSBASE
 10
0.0
 20
0.0
 30
0.0
  9
$EXTMIN
 10
0.0
 20
0.0
 30
0.0
  9
$EXTMAX
 10
297.0
 20
210.0
 30
0.0
  9
$LIMMIN
 10
0.0
 20
0.0
  9
$LIMMAX
 10
297.0
 20
210.0
  9
$ORTHOMODE
 70
     0
  9
$REGENMODE
 70
     1
  9
$FILLMODE
 70
     1
  9
$QTEXTMODE
 70
     0
  9
$MIRRTEXT
 70
     1
  9
$LTSCALE
 40
1.0
  9
$ATTMODE
 70
     1
  9
$TEXTSIZE
 40
2.0
  9
$TRACEWID
 40
1.0
  9
$TEXTSTYLE
  7
Standard
  9
$CLAYER
  8
0
  9
$CELTYPE
  6
ByLayer
  9
$CECOLOR
 62
   256
  9
$CELTSCALE
 40
1.0
  9
$DISPSILH
 70
     0
  9
$DIMSCALE
 40
1.0
  9
$DIMASZ
 40
3.0
  9
$DIMEXO
 40
0.0
  9
$DIMDLI
 40
3.75
  9
$DIMRND
 40
0.0
  9
$DIMDLE
 40
0.0
  9
$DIMEXE
 40
1.0
  9
$DIMTP
 40
0.0
  9
$DIMTM
 40
0.0
  9
$DIMTXT
 40
2.0
  9
$DIMCEN
 40
2.5
  9
$DIMTSZ
 40
0.0
  9
$DIMTOL
 70
     0
  9
$DIMLIM
 70
     0
  9
$DIMTIH
 70
     1
  9
$DIMTOH
 70
     1
  9
$DIMSE1
 70
     0
  9
$DIMSE2
 70
     0
  9
$DIMTAD
 70
     1
  9
$DIMZIN
 70
     0
  9
$DIMBLK
  1

  9
$DIMASO
 70
     1
  9
$DIMSHO
 70
     1
  9
$DIMPOST
  1

  9
$DIMAPOST
  1

  9
$DIMALT
 70
     0
  9
$DIMALTD
 70
     3
  9
$DIMALTF
 40
0.0393700787
  9
$DIMLFAC
 40
1.0
  9
$DIMTOFL
 70
     1
  9
$DIMTVP
 40
0.0
  9
$DIMTIX
 70
     0
  9
$DIMSOXD
 70
     0
  9
$DIMSAH
 70
     0
  9
$DIMBLK1
  1

  9
$DIMBLK2
  1

  9
$DIMSTYLE
  2
ISO-25
  9
$DIMCLRD
 70
     0
  9
$DIMCLRE
 70
     0
  9
$DIMCLRT
 70
     0
  9
$DIMTFAC
 40
1.0
  9
$DIMGAP
 40
1.524
  9
$DIMJUST
 70
     0
  9
$DIMSD1
 70
     0
  9
$DIMSD2
 70
     0
  9
$DIMTOLJ
 70
     0
  9
$DIMTZIN
 70
     0
  9
$DIMALTZ
 70
     0
  9
$DIMALTTZ
 70
     0
  9
$DIMUPT
 70
     0
  9
$DIMDEC
 70
     2
  9
$DIMTDEC
 70
     3
  9
$DIMALTU
 70
     2
  9
$DIMALTTD
 70
     3
  9
$DIMTXSTY
  7
Standard
  9
$DIMAUNIT
 70
     0
  9
$DIMADEC
 70
     2
  9
$DIMALTRND
 40
0.0
  9
$DIMAZIN
 70
     0
  9
$DIMDSEP
 70
    44
  9
$DIMATFIT
 70
     3
  9
$DIMFRAC
 70
     0
  9
$DIMLDRBLK
  1

  9
$DIMLUNIT
 70
     2
  9
$DIMLWD
 70
    -2
  9
$DIMLWE
 70
    -2
  9
$DIMTMOVE
 70
     0
  9
$LUNITS
 70
     2
  9
$LUPREC
 70
     2
  9
$SKETCHINC
 40
1.0
  9
$FILLETRAD
 40
10.0
  9
$AUNITS
 70
     0
  9
$AUPREC
 70
     2
  9
$MENU
  1
.
  9
$ELEVATION
 40
0.0
  9
$PELEVATION
 40
0.0
  9
$THICKNESS
 40
0.0
  9
$LIMCHECK
 70
     0
  9
$CHAMFERA
 40
10.0
  9
$CHAMFERB
 40
10.0
  9
$CHAMFERC
 40
20.0
  9
$CHAMFERD
 40
0.0
  9
$SKPOLY
 70
     0
  9
$TDCREATE
 40
2455673.482383588
  9
$TDUCREATE
 40
2455673.399050255
  9
$TDUPDATE
 40
2455673.4823836
  9
$TDUUPDATE
 40
2455673.399050266
  9
$TDINDWG
 40
0.0000000116
  9
$TDUSRTIMER
 40
0.0000000116
  9
$USRTIMER
 70
     1
  9
$ANGBASE
 50
0.0
  9
$ANGDIR
 70
     0
  9
$PDMODE
 70
     0
  9
$PDSIZE
 40
-1.0
  9
$PLINEWID
 40
0.0
  9
$SPLFRAME
 70
     0
  9
$SPLINETYPE
 70
     6
  9
$SPLINESEGS
 70
     8
  9
$HANDSEED
  5
1F4
  9
$SURFTAB1
 70
     6
  9
$SURFTAB2
 70
     6
  9
$SURFTYPE
 70
     6
  9
$SURFU
 70
     6
  9
$SURFV
 70
     6
  9
$UCSBASE
  2

  9
$UCSNAME
  2

  9
$UCSORG
 10
0.0
 20
0.0
 30
0.0
  9
$UCSXDIR
 10
1.0
 20
0.0
 30
0.0
  9
$UCSYDIR
 10
0.0
 20
1.0
 30
0.0
  9
$UCSORTHOREF
  2

  9
$UCSORTHOVIEW
 70
     0
  9
$UCSORGTOP
 10
0.0
 20
0.0
 30
0.0
  9
$UCSORGBOTTOM
 10
0.0
 20
0.0
 30
0.0
  9
$UCSORGLEFT
 10
0.0
 20
0.0
 30
0.0
  9
$UCSORGRIGHT
 10
0.0
 20
0.0
 30
0.0
  9
$UCSORGFRONT
 10
0.0
 20
0.0
 30
0.0
  9
$UCSORGBACK
 10
0.0
 20
0.0
 30
0.0
  9
$PUCSBASE
  2

  9
$PUCSNAME
  2

  9
$PUCSORG
 10
0.0
 20
0.0
 30
0.0
  9
$PUCSXDIR
 10
1.0
 20
0.0
 30
0.0
  9
$PUCSYDIR
 10
0.0
 20
1.0
 30
0.0
  9
$PUCSORTHOREF
  2

  9
$PUCSORTHOVIEW
 70
     0
  9
$PUCSORGTOP
 10
0.0
 20
0.0
 30
0.0
  9
$PUCSORGBOTTOM
 10
0.0
 20
0.0
 30
0.0
  9
$PUCSORGLEFT
 10
0.0
 20
0.0
 30
0.0
  9
$PUCSORGRIGHT
 10
0.0
 20
0.0
 30
0.0
  9
$PUCSORGFRONT
 10
0.0
 20
0.0
 30
0.0
  9
$PUCSORGBACK
 10
0.0
 20
0.0
 30
0.0
  9
$USERI1
 70
     0
  9
$USERI2
 70
     0
  9
$USERI3
 70
     0
  9
$USERI4
 70
     0
  9
$USERI5
 70
     0
  9
$USERR1
 40
0.0
  9
$USERR2
 40
0.0
  9
$USERR3
 40
0.0
  9
$USERR4
 40
0.0
  9
$USERR5
 40
0.0
  9
$WORLDVIEW
 70
     1
  9
$SHADEDGE
 70
     3
  9
$SHADEDIF
 70
    70
  9
$TILEMODE
 70
     1
  9
$MAXACTVP
 70
    64
  9
$PINSBASE
 10
0.0
 20
0.0
 30
0.0
  9
$PLIMCHECK
 70
     0
  9
$PEXTMIN
 10
1.0000000000E+20
 20
1.0000000000E+20
 30
1.0000000000E+20
  9
$PEXTMAX
 10
-1.0000000000E+20
 20
-1.0000000000E+20
 30
-1.0000000000E+20
  9
$PLIMMIN
 10
0.0
 20
0.0
  9
$PLIMMAX
 10
420.0
 20
297.0
  9
$UNITMODE
 70
     0
  9
$VISRETAIN
 70
     1
  9
$PLINEGEN
 70
     0
  9
$PSLTSCALE
 70
     1
  9
$TREEDEPTH
 70
  3020
  9
$CMLSTYLE
  2
Standard
  9
$CMLJUST
 70
     0
  9
$CMLSCALE
 40
20.0
  9
$PROXYGRAPHICS
 70
     1
  9
$MEASUREMENT
 70
     1
  9
$CELWEIGHT
370
    -1
  9
$ENDCAPS
280
     0
  9
$JOINSTYLE
280
     0
  9
$LWDISPLAY
290
     1
  9
$INSUNITS
 70
     4
  9
$HYPERLINKBASE
  1

  9
$STYLESHEET
  1

  9
$XEDIT
290
     1
  9
$CEPSNTYPE
380
     0
  9
$PSTYLEMODE
290
     1
  9
$FINGERPRINTGUID
  2
{0C4FC976-A1B4-41DF-A946-B4C68E11B110}
  9
$VERSIONGUID
  2
{FAEB1C32-E019-11D5-929B-00C0DF256EC4}
  9
$EXTNAMES
290
     1
  9
$PSVPSCALE
 40
0.0
  9
$OLESTARTUP
290
     0
  0
ENDSEC
  0
SECTION
  2
CLASSES
  0
CLASS
  1
ACDBDICTIONARYWDFLT
  2
AcDbDictionaryWithDefault
  3
ObjectDBX Classes
 90
        0
280
     0
281
     0
  0
CLASS
  1
VISUALSTYLE
  2
AcDbVisualStyle
  3
ObjectDBX Classes
 90
     4095
280
     0
281
     0
  0
CLASS
  1
DICTIONARYVAR
  2
AcDbDictionaryVar
  3
ObjectDBX Classes
 90
        0
280
     0
281
     0
  0
CLASS
  1
ACDBPLACEHOLDER
  2
AcDbPlaceHolder
  3
ObjectDBX Classes
 90
        0
280
     0
281
     0
  0
CLASS
  1
LAYOUT
  2
AcDbLayout
  3
ObjectDBX Classes
 90
        0
280
     0
281
     0
  0
ENDSEC
  0
SECTION
  2
TABLES
  0
TABLE
  2
VPORT
  5
8
330
0
100
AcDbSymbolTable
 70
     1
  0
VPORT
  5
29
330
8
100
AcDbSymbolTableRecord
100
AcDbViewportTableRecord
  2
*Active
 70
     0
 10
0.0
 20
0.0
 11
1.0
 21
1.0
 12
148.5
 22
105.0
 13
0.0
 23
0.0
 14
10.0
 24
10.0
 15
10.0
 25
10.0
 16
0.0
 26
0.0
 36
1.0
 17
0.0
 27
0.0
 37
0.0
 40
210.0
 41
1.4142857143
 42
50.0
 43
0.0
 44
0.0
 50
0.0
 51
0.0
 71
     0
 72
  2000
 73
     1
 74
     3
 75
     0
 76
     0
 77
     0
 78
     0
281
     0
 65
     1
110
0.0
120
0.0
130
0.0
111
1.0
121
0.0
131
0.0
112
0.0
122
1.0
132
0.0
 79
     0
146
0.0
  0
ENDTAB
  0
TABLE
  2
LTYPE
  5
5
330
0
100
AcDbSymbolTable
 70
     6
  0
LTYPE
  5
14
330
5
100
AcDbSymbolTableRecord
100
AcDbLinetypeTableRecord
  2
ByBlock
 70
     0
  3

 72
    65
 73
     0
 40
0.0
  0
LTYPE
  5
15
330
5
100
AcDbSymbolTableRecord
100
AcDbLinetypeTableRecord
  2
ByLayer
 70
     0
  3

 72
    65
 73
     0
 40
0.0
  0
LTYPE
  5
16
330
5
100
AcDbSymbolTableRecord
100
AcDbLinetypeTableRecord
  2
Continuous
 70
     0
  3
Solid line
 72
    65
 73
     0
 40
0.0
  0
LTYPE
  5
3B
330
5
100
AcDbSymbolTableRecord
100
AcDbLinetypeTableRecord
  2
HIDDEN
 70
     0
  3
Hidden __ __ __ __ __ __ __ __ __ __ __ __ __ __
 72
    65
 73
     2
 40
1.905
 49
1.27
 74
     0
 49
-0.635
 74
     0
  0
LTYPE
  5
3C
330
5
100
AcDbSymbolTableRecord
100
AcDbLinetypeTableRecord
  2
PHANTOM
 70
     0
  3
Phantom ______  __  __  ______  __  __  ______
 72
    65
 73
     6
 40
12.7
 49
6.35
 74
     0
 49
-1.27
 74
     0
 49
1.27
 74
     0
 49
-1.27
 74
     0
 49
1.27
 74
     0
 49
-1.27
 74
     0
  0
LTYPE
  5
3D
330
5
100
AcDbSymbolTableRecord
100
AcDbLinetypeTableRecord
  2
CENTER
 70
     0
  3
Center ____ _ ____ _ ____ _ ____ _ ____ _ ____
 72
    65
 73
     4
 40
10.16
 49
6.35
 74
     0
 49
-1.27
 74
     0
 49
1.27
 74
     0
 49
-1.27
 74
     0
  0
LTYPE
  5
3E
330
5
100
AcDbSymbolTableRecord
100
AcDbLinetypeTableRecord
  2
CENTERX2
 70
     0
  3
Center (2x) ________  __  ________  __  _____
 72
    65
 73
     4
 40
20.32
 49
12.7
 74
     0
 49
-2.54
 74
     0
 49
2.54
 74
     0
 49
-2.54
 74
     0
  0
LTYPE
  5
3F
330
5
100
AcDbSymbolTableRecord
100
AcDbLinetypeTableRecord
  2
DOT2
 70
     0
  3
Dot (.5x) ........................................
 72
    65
 73
     2
 40
0.635
 49
0.0
 74
     0
 49
-0.635
 74
     0
  0
ENDTAB
  0
TABLE
  2
LAYER
  5
2
330
0
100
AcDbSymbolTable
 70
     5
  0
LAYER
  5
10
330
2
100
AcDbSymbolTableRecord
100
AcDbLayerTableRecord
  2
0
 70
     0
 62
     7
  6
Continuous
370
    -3
390
F
  0
LAYER
  5
40
330
2
100
AcDbSymbolTableRecord
100
AcDbLayerTableRecord
  2
FORMAT
 70
     0
 62
     7
  6
Continuous
370
    -3
390
F
  0
LAYER
  5
41
330
2
100
AcDbSymbolTableRecord
100
AcDbLayerTableRecord
  2
VERMASSUNG
 70
     0
 62
     7
  6
Continuous
370
    -3
390
F
  0
LAYER
  5
42
330
2
100
AcDbSymbolTableRecord
100
AcDbLayerTableRecord
  2
KOPF_DÜNN
 70
     0
 62
     7
  6
Continuous
370
    -3
390
F
  0
LAYER
  5
43
330
2
100
AcDbSymbolTableRecord
100
AcDbLayerTableRecord
  2
KOPF_DICK
 70
     0
 62
     7
  6
Continuous
370
    15
390
F
  0
ENDTAB
  0
TABLE
  2
STYLE
  5
3
330
0
100
AcDbSymbolTable
 70
     3
  0
STYLE
  5
11
330
3
100
AcDbSymbolTableRecord
100
AcDbTextStyleTableRecord
  2
Standard
 70
     0
 40
0.0
 41
1.0
 50
0.0
 71
     0
 42
2.5
  3
txt
  4

  0
STYLE
  5
44
330
3
100
AcDbSymbolTableRecord
100
AcDbTextStyleTableRecord
  2
SLDTEXTSTYLE0
 70
     0
 40
0.0
 41
0.7
 50
0.0
 71
     0
 42
0.2
  3
TXT
  4

  0
STYLE
  5
48
330
3
100
AcDbSymbolTableRecord
100
AcDbTextStyleTableRecord
  2
SLDTEXTSTYLE1
 70
     0
 40
0.0
 41
0.65
 50
0.0
 71
     0
 42
0.2
  3
TXT
  4

  0
ENDTAB
  0
TABLE
  2
VIEW
  5
6
330
0
100
AcDbSymbolTable
 70
     0
  0
ENDTAB
  0
TABLE
  2
UCS
  5
7
330
0
100
AcDbSymbolTable
 70
     0
  0
ENDTAB
  0
TABLE
  2
APPID
  5
9
330
0
100
AcDbSymbolTable
 70
     1
  0
APPID
  5
12
330
9
100
AcDbSymbolTableRecord
100
AcDbRegAppTableRecord
  2
ACAD
 70
     0
  0
ENDTAB
  0
TABLE
  2
DIMSTYLE
  5
A
330
0
100
AcDbSymbolTable
 70
     2
100
AcDbDimStyleTable
  0
DIMSTYLE
105
27
330
A
100
AcDbSymbolTableRecord
100
AcDbDimStyleTableRecord
  2
ISO-25
 70
     0
 41
2.5
 42
0.625
 43
3.75
 44
1.25
 73
     0
 74
     0
 77
     1
 78
     8
140
2.5
141
2.5
143
0.0393700787
147
0.625
171
     3
172
     1
271
     2
272
     2
274
     3
278
    44
283
     0
284
     8
340
11
  0
DIMSTYLE
105
1AD
102
{ACAD_REACTORS
330
1AC
330
1B9
330
1C4
330
1CE
330
1D8
330
1E2
102
}
330
A
100
AcDbSymbolTableRecord
100
AcDbDimStyleTableRecord
  2
SLDDIMSTYLE0
 70
     0
 41
3.0
 44
0.0
 45
0.000000001
 73
     0
 74
     0
 77
     1
 78
    12
140
2.0
147
0.5
173
     1
271
     2
272
     3
284
    12
340
44
  0
ENDTAB
  0
TABLE
  2
BLOCK_RECORD
  5
1
330
0
100
AcDbSymbolTable
 70
     7
  0
BLOCK_RECORD
  5
1F
330
1
100
AcDbSymbolTableRecord
100
AcDbBlockTableRecord
  2
*Model_Space
340
22
  0
BLOCK_RECORD
  5
1B
330
1
100
AcDbSymbolTableRecord
100
AcDbBlockTableRecord
  2
*Paper_Space
340
1E
  0
BLOCK_RECORD
  5
23
330
1
100
AcDbSymbolTableRecord
100
AcDbBlockTableRecord
  2
*Paper_Space0
340
26
  0
BLOCK_RECORD
  5
1AE
330
1
100
AcDbSymbolTableRecord
100
AcDbBlockTableRecord
  2
*D1
340
0
  0
BLOCK_RECORD
  5
1BA
330
1
100
AcDbSymbolTableRecord
100
AcDbBlockTableRecord
  2
*D2
340
0
  0
BLOCK_RECORD
  5
1C5
330
1
100
AcDbSymbolTableRecord
100
AcDbBlockTableRecord
  2
*D3
340
0
  0
BLOCK_RECORD
  5
1CF
330
1
100
AcDbSymbolTableRecord
100
AcDbBlockTableRecord
  2
*D4
340
0
  0
BLOCK_RECORD
  5
1D9
330
1
100
AcDbSymbolTableRecord
100
AcDbBlockTableRecord
  2
*D5
340
0
  0
BLOCK_RECORD
  5
1E3
330
1
100
AcDbSymbolTableRecord
100
AcDbBlockTableRecord
  2
*D6
340
0
  0
ENDTAB
  0
ENDSEC
  0
SECTION
  2
BLOCKS
  0
BLOCK
  5
20
330
1F
100
AcDbEntity
  8
0
100
AcDbBlockBegin
  2
*Model_Space
 70
     0
 10
0.0
 20
0.0
 30
0.0
  3
*Model_Space
  1

  0
ENDBLK
  5
21
330
1F
100
AcDbEntity
  8
0
100
AcDbBlockEnd
  0
BLOCK
  5
1C
330
1B
100
AcDbEntity
 67
     1
  8
0
100
AcDbBlockBegin
  2
*Paper_Space
 70
     0
 10
0.0
 20
0.0
 30
0.0
  3
*Paper_Space
  1

  0
ENDBLK
  5
1D
330
1B
100
AcDbEntity
 67
     1
  8
0
100
AcDbBlockEnd
  0
BLOCK
  5
24
330
23
100
AcDbEntity
  8
0
100
AcDbBlockBegin
  2
*Paper_Space0
 70
     0
 10
0.0
 20
0.0
 30
0.0
  3
*Paper_Space0
  1

  0
ENDBLK
  5
25
330
23
100
AcDbEntity
  8
0
100
AcDbBlockEnd
  0
BLOCK
  5
1AF
330
1AE
100
AcDbEntity
  8
0
100
AcDbBlockBegin
  2
*D1
 70
     1
 10
0.0
 20
0.0
 30
0.0
  3
*D1
  1

  0
SOLID
  5
1B1
330
1AE
100
AcDbEntity
  8
VERMASSUNG
100
AcDbTrace
 10
80.5171148148
 20
161.7092226347
 30
0.0
 11
80.0671148148
 21
158.7092226347
 31
0.0
 12
80.9671148148
 22
158.7092226347
 32
0.0
 13
80.9671148148
 23
158.7092226347
 33
0.0
  0
SOLID
  5
1B2
330
1AE
100
AcDbEntity
  8
VERMASSUNG
100
AcDbTrace
 10
80.5171148148
 20
61.7092226347
 30
0.0
 11
80.9671148148
 21
64.7092226347
 31
0.0
 12
80.0671148148
 22
64.7092226347
 32
0.0
 13
80.0671148148
 23
64.7092226347
 33
0.0
  0
LINE
  5
1B3
330
1AE
100
AcDbEntity
  8
VERMASSUNG
100
AcDbLine
 10
135.2828393446
 20
161.7092226347
 30
0.0
 11
79.5171148148
 21
161.7092226347
 31
0.0
  0
LINE
  5
1B4
330
1AE
100
AcDbEntity
  8
VERMASSUNG
100
AcDbLine
 10
135.2828393446
 20
61.7092226347
 30
0.0
 11
79.5171148148
 21
61.7092226347
 31
0.0
  0
LINE
  5
1B5
330
1AE
100
AcDbEntity
  8
VERMASSUNG
100
AcDbLine
 10
80.5171148148
 20
161.7092226347
 30
0.0
 11
80.5171148148
 21
61.7092226347
 31
0.0
  0
MTEXT
  5
1B6
330
1AE
100
AcDbEntity
  8
VERMASSUNG
100
AcDbMText
 10
77.7389793258
 20
103.5055714971
 30
0.0
 40
2.0
 41
0.0
 71
     1
 72
     1
  1
HSK A 
  7
SLDTEXTSTYLE0
 11
-7.044195017643634E-15
 21
1.0
 31
0.0
 73
     1
 44
1.0
  0
MTEXT
  5
1B7
330
1AE
100
AcDbEntity
  8
VERMASSUNG
100
AcDbMText
 10
77.9389793353
 20
112.505572041
 30
0.0
 40
2.0
 41
0.0
 71
     1
 72
     1
  1
%%c
  7
SLDTEXTSTYLE0
 11
-7.044195017643634E-15
 21
1.0
 31
0.0
 73
     1
 44
1.0
  0
MTEXT
  5
1B8
330
1AE
100
AcDbEntity
  8
VERMASSUNG
100
AcDbMText
 10
77.9389794517
 20
116.1138986911
 30
0.0
 40
2.0
 41
0.0
 71
     1
 72
     1
  1
100
  7
SLDTEXTSTYLE0
 11
-7.044195017643634E-15
 21
1.0
 31
0.0
 73
     1
 44
1.0
  0
ENDBLK
  5
1B0
330
1AE
100
AcDbEntity
  8
0
100
AcDbBlockEnd
  0
BLOCK
  5
1BB
330
1BA
100
AcDbEntity
  8
0
100
AcDbBlockBegin
  2
*D2
 70
     1
 10
0.0
 20
0.0
 30
0.0
  3
*D2
  1

  0
SOLID
  5
1BD
330
1BA
100
AcDbEntity
  8
VERMASSUNG
100
AcDbTrace
 10
224.8711739301
 20
118.7092226347
 30
0.0
 11
224.4211739301
 21
115.7092226347
 31
0.0
 12
225.3211739301
 22
115.7092226347
 32
0.0
 13
225.3211739301
 23
115.7092226347
 33
0.0
  0
SOLID
  5
1BE
330
1BA
100
AcDbEntity
  8
VERMASSUNG
100
AcDbTrace
 10
224.8711739301
 20
104.7092226347
 30
0.0
 11
225.3211739301
 21
107.7092226347
 31
0.0
 12
224.4211739301
 22
107.7092226347
 32
0.0
 13
224.4211739301
 23
107.7092226347
 33
0.0
  0
LINE
  5
1BF
330
1BA
100
AcDbEntity
  8
VERMASSUNG
100
AcDbLine
 10
214.4828393446
 20
118.7092226347
 30
0.0
 11
225.8711739301
 21
118.7092226347
 31
0.0
  0
LINE
  5
1C0
330
1BA
100
AcDbEntity
  8
VERMASSUNG
100
AcDbLine
 10
214.4828393446
 20
104.7092226347
 30
0.0
 11
225.8711739301
 21
104.7092226347
 31
0.0
  0
LINE
  5
1C1
330
1BA
100
AcDbEntity
  8
VERMASSUNG
100
AcDbLine
 10
224.8711739301
 20
118.7092226347
 30
0.0
 11
224.8711739301
 21
104.7092226347
 31
0.0
  0
MTEXT
  5
1C2
330
1BA
100
AcDbEntity
  8
VERMASSUNG
100
AcDbMText
 10
222.2930384505
 20
108.6052952241
 30
0.0
 40
2.0
 41
0.0
 71
     1
 72
     1
  1
%%c
  7
SLDTEXTSTYLE0
 11
-7.044195017643634E-15
 21
1.0
 31
0.0
 73
     1
 44
1.0
  0
MTEXT
  5
1C3
330
1BA
100
AcDbEntity
  8
VERMASSUNG
100
AcDbMText
 10
222.2930385669
 20
112.2139734473
 30
0.0
 40
2.0
 41
0.0
 71
     1
 72
     1
  1
14
  7
SLDTEXTSTYLE0
 11
-7.044195017643634E-15
 21
1.0
 31
0.0
 73
     1
 44
1.0
  0
ENDBLK
  5
1BC
330
1BA
100
AcDbEntity
  8
0
100
AcDbBlockEnd
  0
BLOCK
  5
1C6
330
1C5
100
AcDbEntity
  8
0
100
AcDbBlockBegin
  2
*D3
 70
     1
 10
0.0
 20
0.0
 30
0.0
  3
*D3
  1

  0
SOLID
  5
1C8
330
1C5
100
AcDbEntity
  8
VERMASSUNG
100
AcDbTrace
 10
134.7828393446
 20
170.293716143
 30
0.0
 11
137.7828393446
 21
169.843716143
 31
0.0
 12
137.7828393446
 22
170.743716143
 32
0.0
 13
137.7828393446
 23
170.743716143
 33
0.0
  0
SOLID
  5
1C9
330
1C5
100
AcDbEntity
  8
VERMASSUNG
100
AcDbTrace
 10
214.7828393446
 20
170.293716143
 30
0.0
 11
211.7828393446
 21
170.743716143
 31
0.0
 12
211.7828393446
 22
169.843716143
 32
0.0
 13
211.7828393446
 23
169.843716143
 33
0.0
  0
LINE
  5
1CA
330
1C5
100
AcDbEntity
  8
VERMASSUNG
100
AcDbLine
 10
134.7828393446
 20
161.2092226347
 30
0.0
 11
134.7828393446
 21
171.293716143
 31
0.0
  0
LINE
  5
1CB
330
1C5
100
AcDbEntity
  8
VERMASSUNG
100
AcDbLine
 10
214.7828393446
 20
126.4350821131
 30
0.0
 11
214.7828393446
 21
171.293716143
 31
0.0
  0
LINE
  5
1CC
330
1C5
100
AcDbEntity
  8
VERMASSUNG
100
AcDbLine
 10
134.7828393446
 20
170.293716143
 30
0.0
 11
214.7828393446
 21
170.293716143
 31
0.0
  0
MTEXT
  5
1CD
330
1C5
100
AcDbEntity
  8
VERMASSUNG
100
AcDbMText
 10
173.3834612298
 20
172.8718515061
 30
0.0
 40
2.0
 41
0.0
 71
     1
 72
     1
  1
80
  7
SLDTEXTSTYLE0
 73
     1
 44
1.0
  0
ENDBLK
  5
1C7
330
1C5
100
AcDbEntity
  8
0
100
AcDbBlockEnd
  0
BLOCK
  5
1D0
330
1CF
100
AcDbEntity
  8
0
100
AcDbBlockBegin
  2
*D4
 70
     1
 10
0.0
 20
0.0
 30
0.0
  3
*D4
  1

  0
SOLID
  5
1D2
330
1CF
100
AcDbEntity
  8
VERMASSUNG
100
AcDbTrace
 10
163.7328393446
 20
164.293716143
 30
0.0
 11
166.7328393446
 21
163.843716143
 31
0.0
 12
166.7328393446
 22
164.743716143
 32
0.0
 13
166.7328393446
 23
164.743716143
 33
0.0
  0
SOLID
  5
1D3
330
1CF
100
AcDbEntity
  8
VERMASSUNG
100
AcDbTrace
 10
214.7828393446
 20
164.293716143
 30
0.0
 11
211.7828393446
 21
164.743716143
 31
0.0
 12
211.7828393446
 22
163.843716143
 32
0.0
 13
211.7828393446
 23
163.843716143
 33
0.0
  0
LINE
  5
1D4
330
1CF
100
AcDbEntity
  8
VERMASSUNG
100
AcDbLine
 10
163.7328393446
 20
159.6779624556
 30
0.0
 11
163.7328393446
 21
165.293716143
 31
0.0
  0
LINE
  5
1D5
330
1CF
100
AcDbEntity
  8
VERMASSUNG
100
AcDbLine
 10
214.7828393446
 20
126.4350821131
 30
0.0
 11
214.7828393446
 21
165.293716143
 31
0.0
  0
LINE
  5
1D6
330
1CF
100
AcDbEntity
  8
VERMASSUNG
100
AcDbLine
 10
163.7328393446
 20
164.293716143
 30
0.0
 11
214.7828393446
 21
164.293716143
 31
0.0
  0
MTEXT
  5
1D7
330
1CF
100
AcDbEntity
  8
VERMASSUNG
100
AcDbMText
 10
186.3581329524
 20
166.8718515061
 30
0.0
 40
2.0
 41
0.0
 71
     1
 72
     1
  1
51.05
  7
SLDTEXTSTYLE0
 73
     1
 44
1.0
  0
ENDBLK
  5
1D1
330
1CF
100
AcDbEntity
  8
0
100
AcDbBlockEnd
  0
BLOCK
  5
1DA
330
1D9
100
AcDbEntity
  8
0
100
AcDbBlockBegin
  2
*D5
 70
     1
 10
0.0
 20
0.0
 30
0.0
  3
*D5
  1

  0
SOLID
  5
1DC
330
1D9
100
AcDbEntity
  8
VERMASSUNG
100
AcDbTrace
 10
84.8828393446
 20
176.293716143
 30
0.0
 11
87.8828393446
 21
175.843716143
 31
0.0
 12
87.8828393446
 22
176.743716143
 32
0.0
 13
87.8828393446
 23
176.743716143
 33
0.0
  0
SOLID
  5
1DD
330
1D9
100
AcDbEntity
  8
VERMASSUNG
100
AcDbTrace
 10
214.7828393446
 20
176.293716143
 30
0.0
 11
211.7828393446
 21
176.743716143
 31
0.0
 12
211.7828393446
 22
175.843716143
 32
0.0
 13
211.7828393446
 23
175.843716143
 33
0.0
  0
LINE
  5
1DE
330
1D9
100
AcDbEntity
  8
VERMASSUNG
100
AcDbLine
 10
84.8828393446
 20
142.2118923773
 30
0.0
 11
84.8828393446
 21
177.293716143
 31
0.0
  0
LINE
  5
1DF
330
1D9
100
AcDbEntity
  8
VERMASSUNG
100
AcDbLine
 10
214.7828393446
 20
126.4350821131
 30
0.0
 11
214.7828393446
 21
177.293716143
 31
0.0
  0
LINE
  5
1E0
330
1D9
100
AcDbEntity
  8
VERMASSUNG
100
AcDbLine
 10
84.8828393446
 20
176.293716143
 30
0.0
 11
214.7828393446
 21
176.293716143
 31
0.0
  0
MTEXT
  5
1E1
330
1D9
100
AcDbEntity
  8
VERMASSUNG
100
AcDbMText
 10
146.9331329524
 20
178.8718515061
 30
0.0
 40
2.0
 41
0.0
 71
     1
 72
     1
  1
129.9
  7
SLDTEXTSTYLE0
 73
     1
 44
1.0
  0
ENDBLK
  5
1DB
330
1D9
100
AcDbEntity
  8
0
100
AcDbBlockEnd
  0
BLOCK
  5
1E4
330
1E3
100
AcDbEntity
  8
0
100
AcDbBlockBegin
  2
*D6
 70
     1
 10
0.0
 20
0.0
 30
0.0
  3
*D6
  1

  0
SOLID
  5
1E6
330
1E3
100
AcDbEntity
  8
VERMASSUNG
100
AcDbTrace
 10
230.8711739301
 20
134.2092226347
 30
0.0
 11
230.4211739301
 21
131.2092226347
 31
0.0
 12
231.3211739301
 22
131.2092226347
 32
0.0
 13
231.3211739301
 23
131.2092226347
 33
0.0
  0
SOLID
  5
1E7
330
1E3
100
AcDbEntity
  8
VERMASSUNG
100
AcDbTrace
 10
230.8711739301
 20
89.2092226347
 30
0.0
 11
231.3211739301
 21
92.2092226347
 31
0.0
 12
230.4211739301
 22
92.2092226347
 32
0.0
 13
230.4211739301
 23
92.2092226347
 33
0.0
  0
LINE
  5
1E8
330
1E3
100
AcDbEntity
  8
VERMASSUNG
100
AcDbLine
 10
200.8435443613
 20
134.2092226347
 30
0.0
 11
231.8711739301
 21
134.2092226347
 31
0.0
  0
LINE
  5
1E9
330
1E3
100
AcDbEntity
  8
VERMASSUNG
100
AcDbLine
 10
200.8435443613
 20
89.2092226347
 30
0.0
 11
231.8711739301
 21
89.2092226347
 31
0.0
  0
LINE
  5
1EA
330
1E3
100
AcDbEntity
  8
VERMASSUNG
100
AcDbLine
 10
230.8711739301
 20
134.2092226347
 30
0.0
 11
230.8711739301
 21
89.2092226347
 31
0.0
  0
MTEXT
  5
1EB
330
1E3
100
AcDbEntity
  8
VERMASSUNG
100
AcDbMText
 10
228.2930384505
 20
108.4057155925
 30
0.0
 40
2.0
 41
0.0
 71
     1
 72
     1
  1
%%c
  7
SLDTEXTSTYLE0
 11
-7.044195017643634E-15
 21
1.0
 31
0.0
 73
     1
 44
1.0
  0
MTEXT
  5
1EC
330
1E3
100
AcDbEntity
  8
VERMASSUNG
100
AcDbMText
 10
228.2930385669
 20
112.0143938157
 30
0.0
 40
2.0
 41
0.0
 71
     1
 72
     1
  1
45
  7
SLDTEXTSTYLE0
 11
-7.044195017643634E-15
 21
1.0
 31
0.0
 73
     1
 44
1.0
  0
ENDBLK
  5
1E5
330
1E3
100
AcDbEntity
  8
0
100
AcDbBlockEnd
  0
ENDSEC
  0
SECTION
  2
ENTITIES
  0
MTEXT
  5
45
330
1F
100
AcDbEntity
  8
KOPF_DÜNN
100
AcDbMText
 10
13.8892156294
 20
23.8442973028
 30
0.0
 40
3.0
 41
0.0
 71
     1
 72
     1
  1
HA0.W14.K21.080
  7
SLDTEXTSTYLE0
 73
     1
 44
1.0
  0
MTEXT
  5
46
330
1F
100
AcDbEntity
  8
VERMASSUNG
100
AcDbMText
 10
13.9329988022
 20
28.8834360957
 30
0.0
 40
3.0
 41
0.0
 71
     1
 72
     1
  1
Flächenspannfutter_End mill adapter Weldon ø14
  7
SLDTEXTSTYLE0
 73
     1
 44
1.0
  0
MTEXT
  5
47
330
1F
100
AcDbEntity
  8
VERMASSUNG
100
AcDbMText
 10
98.8601118557
 20
13.8365368179
 30
0.0
 40
2.0
 41
0.0
 71
     1
 72
     1
  1
Datum: 09.10.2006
  7
SLDTEXTSTYLE0
 73
     1
 44
1.0
  0
MTEXT
  5
49
330
1F
100
AcDbEntity
  8
VERMASSUNG
100
AcDbMText
 10
13.933048693
 20
18.0482802738
 30
0.0
 40
2.0
 41
0.0
 71
     1
 72
     1
  1
DIN 69 893 HSK A 100
  7
SLDTEXTSTYLE1
 73
     1
 44
1.0
  0
MTEXT
  5
4A
330
1F
100
AcDbEntity
  8
VERMASSUNG
100
AcDbMText
 10
13.9808475933
 20
13.9090973692
 30
0.0
 40
2.0
 41
0.0
 71
     1
 72
     1
  1
Gewicht: 2511g
  7
SLDTEXTSTYLE0
 73
     1
 44
1.0
  0
LINE
  5
4B
330
1F
100
AcDbEntity
  8
0
  6
Continuous
 62
     7
370
    15
100
AcDbLine
 10
214.7888505566
 20
121.0593419708
 30
0.0
 11
214.7828393446
 21
121.0704732547
 31
0.0
  0
LINE
  5
4C
330
1F
100
AcDbEntity
  8
0
  6
Continuous
 62
     7
370
    15
100
AcDbLine
 10
214.7828393446
 20
102.2405588447
 30
0.0
 11
214.8477402802
 21
102.3607393907
 31
0.0
  0
LINE
  5
4D
330
1F
100
AcDbEntity
  8
0
  6
Continuous
 62
     7
370
    15
100
AcDbLine
 10
135.2828393446
 20
61.7092226347
 30
0.0
 11
139.7328393446
 21
61.7092226347
 31
0.0
  0
LINE
  5
4E
330
1F
100
AcDbEntity
  8
0
  6
Continuous
 62
     7
370
    15
100
AcDbLine
 10
139.7669121771
 20
161.7092226347
 30
0.0
 11
135.2828393446
 21
161.7092226347
 31
0.0
  0
ARC
  5
4F
330
1F
100
AcDbEntity
  8
0
  6
Continuous
 62
     7
370
    15
100
AcDbCircle
 10
135.2828393446
 20
62.2092226347
 30
0.0
 40
0.5
100
AcDbArc
 50
180.0
 51
270.0
  0
ARC
  5
50
330
1F
100
AcDbEntity
  8
0
  6
Continuous
 62
     7
370
    15
100
AcDbCircle
 10
135.2828393446
 20
161.2092226347
 30
0.0
 40
0.5
100
AcDbArc
 50
90.0
 51
180.0
  0
ARC
  5
51
330
1F
100
AcDbEntity
  8
0
  6
Continuous
 62
     7
370
    15
100
AcDbCircle
 10
133.8859024261
 20
73.0807373103
 30
0.0
 40
0.9962338214386983
100
AcDbArc
 50
25.7988228126
 51
90.0
  0
ARC
  5
52
330
1F
100
AcDbEntity
  8
0
  6
Continuous
 62
     7
370
    15
100
AcDbCircle
 10
133.8859024261
 20
150.3377079592
 30
0.0
 40
0.9962338214387216
100
AcDbArc
 50
270.0
 51
334.2011771874
  0
LINE
  5
53
330
1F
100
AcDbEntity
  8
0
  6
Continuous
 62
     7
370
    15
100
AcDbLine
 10
113.3021439233
 20
148.6405374934
 30
0.0
 11
94.9828393446
 21
147.7227366628
 31
0.0
  0
LINE
  5
54
330
1F
100
AcDbEntity
  8
0
  6
Continuous
 62
     7
370
    15
100
AcDbLine
 10
132.2828393446
 20
149.5914741377
 30
0.0
 11
126.2148001901
 21
149.2874641601
 31
0.0
  0
LINE
  5
55
330
1F
100
AcDbEntity
  8
0
  6
Continuous
 62
     7
370
    15
100
AcDbLine
 10
126.2149234666
 20
74.1309749332
 30
0.0
 11
132.2828393446
 21
73.8269711317
 31
0.0
  0
LINE
  5
56
330
1F
100
AcDbEntity
  8
0
  6
Continuous
 62
     7
370
    15
100
AcDbLine
 10
99.9828393446
 20
75.4452076047
 30
0.0
 11
113.3027904985
 21
74.7778753825
 31
0.0
  0
LINE
  5
57
330
1F
100
AcDbEntity
  8
0
  6
Continuous
 62
     7
370
    15
100
AcDbLine
 10
132.2828393446
 20
73.8269711317
 30
0.0
 11
133.088685499
 21
74.042896958
 31
0.0
  0
LINE
  5
58
330
1F
100
AcDbEntity
  8
0
  6
Continuous
 62
     7
370
    15
100
AcDbLine
 10
133.088685499
 20
149.3755483115
 30
0.0
 11
132.2828393446
 21
149.5914741377
 31
0.0
  0
ARC
  5
59
330
1F
100
AcDbEntity
  8
0
  6
Continuous
 62
     7
370
    15
100
AcDbCircle
 10
133.3475045441
 20
73.0769711317
 30
0.0
 40
1.0
100
AcDbArc
 50
90.0
 51
105.0
  0
ARC
  5
5A
330
1F
100
AcDbEntity
  8
0
  6
Continuous
 62
     7
370
    15
100
AcDbCircle
 10
133.3475045441
 20
150.3414741377
 30
0.0
 40
1.0
100
AcDbArc
 50
255.0
 51
270.0
  0
LINE
  5
5B
330
1F
100
AcDbEntity
  8
0
  6
Continuous
 62
     7
370
    15
100
AcDbLine
 10
133.3475045441
 20
74.0769711317
 30
0.0
 11
133.8859024261
 21
74.0769711317
 31
0.0
  0
LINE
  5
5C
330
1F
100
AcDbEntity
  8
0
  6
Continuous
 62
     7
370
    15
100
AcDbLine
 10
133.8859024261
 20
149.3414741377
 30
0.0
 11
133.3475045441
 21
149.3414741377
 31
0.0
  0
ARC
  5
5D
330
1F
100
AcDbEntity
  8
0
  6
Continuous
 62
     7
370
    15
100
AcDbCircle
 10
168.7328393446
 20
84.2092226347
 30
0.0
 40
5.0
100
AcDbArc
 50
90.0
 51
180.0
  0
ARC
  5
5E
330
1F
100
AcDbEntity
  8
0
  6
Continuous
 62
     7
370
    15
100
AcDbCircle
 10
168.7328393446
 20
139.2092226347
 30
0.0
 40
5.0
100
AcDbArc
 50
180.0
 51
270.0
  0
LINE
  5
5F
330
1F
100
AcDbEntity
  8
0
  6
Continuous
 62
     7
370
    15
100
AcDbLine
 10
180.2003794745
 20
89.2092226347
 30
0.0
 11
200.8435443613
 21
89.2092226347
 31
0.0
  0
LINE
  5
60
330
1F
100
AcDbEntity
  8
0
  6
Continuous
 62
     7
370
    15
100
AcDbLine
 10
168.7328393446
 20
89.2092226347
 30
0.0
 11
173.2755930816
 21
89.2092226347
 31
0.0
  0
LINE
  5
61
330
1F
100
AcDbEntity
  8
0
  6
Continuous
 62
     7
370
    15
100
AcDbLine
 10
173.2672438898
 20
134.2092226347
 30
0.0
 11
168.7328393446
 21
134.2092226347
 31
0.0
  0
LINE
  5
62
330
1F
100
AcDbEntity
  8
0
  6
Continuous
 62
     7
370
    15
100
AcDbLine
 10
200.8435443613
 20
134.2092226347
 30
0.0
 11
180.1905779153
 21
134.2092226347
 31
0.0
  0
LINE
  5
63
330
1F
100
AcDbEntity
  8
0
  6
Continuous
 62
     7
370
    15
100
AcDbLine
 10
200.8435443613
 20
89.2092226347
 30
0.0
 11
213.6280758681
 21
95.1707475823
 31
0.0
  0
LINE
  5
64
330
1F
100
AcDbEntity
  8
0
  6
Continuous
 62
     7
370
    15
100
AcDbLine
 10
213.6280758681
 20
128.2476976872
 30
0.0
 11
200.8435443613
 21
134.2092226347
 31
0.0
  0
LINE
  5
65
330
1F
100
AcDbEntity
  8
0
  6
Continuous
 62
     7
370
    15
100
AcDbLine
 10
86.5328393446
 20
79.4592226347
 30
0.0
 11
98.0828393446
 21
79.4592226347
 31
0.0
  0
ARC
  5
66
330
1F
100
AcDbEntity
  8
0
  6
Continuous
 62
     7
370
    15
100
AcDbCircle
 10
98.0828393446
 20
77.5592226347
 30
0.0
 40
1.900000000000006
100
AcDbArc
 50
35.6630613694
 51
90.0
  0
ARC
  5
67
330
1F
100
AcDbEntity
  8
0
  6
Continuous
 62
     7
370
    15
100
AcDbCircle
 10
212.7828393446
 20
96.9833631564
 30
0.0
 40
2.0
100
AcDbArc
 50
295.0
 51
0.0
  0
ARC
  5
68
330
1F
100
AcDbEntity
  8
0
  6
Continuous
 62
     7
370
    15
100
AcDbCircle
 10
212.7828393446
 20
126.4350821131
 30
0.0
 40
2.0
100
AcDbArc
 50
0.0
 51
65.0
  0
ARC
  5
69
330
1F
100
AcDbEntity
  8
0
  6
Continuous
 62
     7
370
    15
100
AcDbCircle
 10
93.0828393446
 20
145.8592226347
 30
0.0
 40
1.899999999999986
100
AcDbArc
 50
270.0
 51
310.9212832533
  0
LINE
  5
6A
330
1F
100
AcDbEntity
  8
0
  6
Continuous
 62
     7
370
    15
100
AcDbLine
 10
86.5328393446
 20
143.9592226347
 30
0.0
 11
84.9335232257
 21
142.3599065159
 31
0.0
  0
LINE
  5
6B
330
1F
100
AcDbEntity
  8
0
  6
Continuous
 62
     7
370
    15
100
AcDbLine
 10
84.9343605956
 20
81.0577013837
 30
0.0
 11
86.5328393446
 21
79.4592226347
 31
0.0
  0
LINE
  5
6C
330
1F
100
AcDbEntity
  8
0
  6
Continuous
 62
     7
370
    15
100
AcDbLine
 10
93.0828393446
 20
143.9592226347
 30
0.0
 11
86.5328393446
 21
143.9592226347
 31
0.0
  0
LINE
  5
6D
330
1F
100
AcDbEntity
  8
0
  6
Continuous
 62
     7
370
    15
100
AcDbLine
 10
191.6601249113
 20
114.9863421476
 30
0.0
 11
189.3834133786
 21
112.3754831708
 31
0.0
  0
LINE
  5
6E
330
1F
100
AcDbEntity
  8
0
  6
Continuous
 62
     7
370
    15
100
AcDbLine
 10
190.5061278119
 20
109.0983636579
 30
0.0
 11
189.3834133786
 21
112.3754831708
 31
0.0
  0
LINE
  5
6F
330
1F
100
AcDbEntity
  8
0
  6
Continuous
 62
     7
370
    15
100
AcDbLine
 10
193.9055537779
 20
108.4321031219
 30
0.0
 11
190.5061278119
 21
109.0983636579
 31
0.0
  0
LINE
  5
70
330
1F
100
AcDbEntity
  8
0
  6
Continuous
 62
     7
370
    15
100
AcDbLine
 10
193.9055537779
 20
108.4321031219
 30
0.0
 11
196.1822653106
 21
111.0429620987
 31
0.0
  0
LINE
  5
71
330
1F
100
AcDbEntity
  8
0
  6
Continuous
 62
     7
370
    15
100
AcDbLine
 10
195.0595508773
 20
114.3200816115
 30
0.0
 11
191.6601249113
 21
114.9863421476
 31
0.0
  0
CIRCLE
  5
72
330
1F
100
AcDbEntity
  8
0
  6
Continuous
 62
     7
370
    15
100
AcDbCircle
 10
192.7828393446
 20
111.7092226347
 30
0.0
 40
5.100000000000026
  0
LINE
  5
73
330
1F
100
AcDbEntity
  8
0
  6
Continuous
 62
     7
370
    15
100
AcDbLine
 10
195.0595508773
 20
114.3200816115
 30
0.0
 11
196.1822653106
 21
111.0429620987
 31
0.0
  0
ARC
  5
74
330
1F
100
AcDbEntity
  8
0
  6
Continuous
 62
     7
370
    15
100
AcDbCircle
 10
205.3468933136
 20
120.371689885
 30
0.0
 40
9.460413184662155
100
AcDbArc
 50
355.8783800129
 51
4.1216199871
  0
ARC
  5
75
330
1F
100
AcDbEntity
  8
0
  6
Continuous
 62
     7
370
    15
100
AcDbCircle
 10
195.3042162916
 20
103.0528116031
 30
0.0
 40
19.55577392588516
100
AcDbArc
 50
357.9718982864
 51
5.0911211554
  0
LINE
  5
76
330
1F
100
AcDbEntity
  8
0
  6
Continuous
 62
     7
370
    15
100
AcDbLine
 10
139.7328393446
 20
143.0592226347
 30
0.0
 11
151.5208103237
 21
143.0592226347
 31
0.0
  0
LINE
  5
77
330
1F
100
AcDbEntity
  8
0
  6
Continuous
 62
     7
370
    15
100
AcDbLine
 10
151.5208103237
 20
62.9342290417
 30
0.0
 11
151.5208103237
 21
143.0592226347
 31
0.0
  0
LINE
  5
78
330
1F
100
AcDbEntity
  8
0
  6
Continuous
 62
     7
370
    15
100
AcDbLine
 10
151.5208103237
 20
62.9342290417
 30
0.0
 11
149.7328393446
 21
62.9342290417
 31
0.0
  0
SPLINE
  5
79
330
1F
100
AcDbEntity
  8
0
  6
Continuous
 62
     7
370
    15
100
AcDbSpline
210
0.0
220
0.0
230
1.0
 70
     8
 71
     3
 72
    30
 73
    26
 74
     0
 42
0.00000001
 43
0.00000001
 40
0.0
 40
0.0
 40
0.0
 40
0.0
 40
0.1250000000000002
 40
0.1250000000000002
 40
0.1875000000000003
 40
0.1875000000000003
 40
0.2500000000000004
 40
0.2500000000000004
 40
0.3750000000000001
 40
0.3750000000000001
 40
0.4374999999999998
 40
0.4374999999999998
 40
0.4999999999999996
 40
0.4999999999999996
 40
0.6249999999999996
 40
0.6249999999999996
 40
0.6874999999999997
 40
0.6874999999999997
 40
0.7499999999999997
 40
0.7499999999999997
 40
0.8124999999999998
 40
0.8124999999999998
 40
0.8749999999999999
 40
0.8749999999999999
 40
1.0
 40
1.0
 40
1.0
 40
1.0
 10
149.7328393445983
 20
62.9342290417092
 30
0.0
 10
149.0700946507533
 20
62.93422904170922
 30
0.0
 10
148.4188387916376
 20
62.91938896512039
 30
0.0
 10
147.4583882533794
 20
62.87701940089077
 30
0.0
 10
147.1409968101464
 20
62.85954129811161
 30
0.0
 10
146.5118333085915
 20
62.81821301155929
 30
0.0
 10
146.1996851221498
 20
62.79428773810161
 30
0.0
 10
145.2923778203015
 20
62.7154812216347
 30
0.0
 10
144.7189528626603
 20
62.65317520165822
 30
0.0
 10
143.9050759930856
 20
62.55004588141887
 30
0.0
 10
143.6402697965158
 20
62.51386196237235
 30
0.0
 10
143.1333623857014
 20
62.44006717817185
 30
0.0
 10
142.8919682343479
 20
62.4025933194002
 30
0.0
 10
142.2028267622156
 20
62.28988137606047
 30
0.0
 10
141.7897719473513
 20
62.21434527858669
 30
0.0
 10
141.2416171279763
 20
62.10595202156919
 30
0.0
 10
141.0721545206307
 20
62.07087978990594
 30
0.0
 10
140.7641372726153
 20
62.00464432930609
 30
0.0
 10
140.624757252007
 20
61.97331763255136
 30
0.0
 10
140.3749717393802
 20
61.91490886097044
 30
0.0
 10
140.2645656267263
 20
61.88782562578758
 30
0.0
 10
140.0733077730886
 20
61.838565871174
 30
0.0
 10
139.9921882548043
 20
61.81630389136635
 30
0.0
 10
139.7980413346959
 20
61.75873698419808
 30
0.0
 10
139.7328393445983
 20
61.73247737941209
 30
0.0
 10
139.7328393445983
 20
61.71922363493805
 30
0.0
  0
LINE
  5
7A
330
1F
100
AcDbEntity
  8
0
  6
Continuous
 62
     7
370
    15
100
AcDbLine
 10
139.7328393446
 20
61.7192236349
 30
0.0
 11
139.7328393446
 21
61.7092226347
 31
0.0
  0
SPLINE
  5
7B
330
1F
100
AcDbEntity
  8
0
  6
Continuous
 62
     7
370
    15
100
AcDbSpline
210
0.0
220
0.0
230
1.0
 70
     8
 71
     3
 72
    17
 73
    13
 74
     0
 42
0.00000001
 43
0.00000001
 40
0.0
 40
0.0
 40
0.0
 40
0.0
 40
0.104384384054747
 40
0.2118345768143993
 40
0.316208200519045
 40
0.4235375806108392
 40
0.5292276236193852
 40
0.6379275864803491
 40
0.7444714844189683
 40
0.8541836219421859
 40
0.9593080534965217
 40
1.0
 40
1.0
 40
1.0
 40
1.0
 10
149.7328393445983
 20
160.6990174904016
 30
0.0
 10
149.184900896739
 20
160.7043856941503
 30
0.0
 10
148.0729308422743
 20
160.7152797678153
 30
0.0
 10
146.4600749290593
 20
160.8004571420742
 30
0.0
 10
144.9265617120824
 20
160.9268318483668
 30
0.0
 10
143.5355408627458
 20
161.0837346689436
 30
0.0
 10
142.3000243455154
 20
161.2554334984642
 30
0.0
 10
141.2766685783601
 20
161.4207697745652
 30
0.0
 10
140.476326580095
 20
161.5644832541518
 30
0.0
 10
139.9659944781814
 20
161.662638061331
 30
0.0
 10
139.7260860493569
 20
161.7105664582008
 30
0.0
 10
139.7580048287767
 20
161.7041990589612
 30
0.0
 10
139.7669121770589
 20
161.7024221538379
 30
0.0
  0
LINE
  5
7C
330
1F
100
AcDbEntity
  8
0
  6
Continuous
 62
     7
370
    15
100
AcDbLine
 10
151.5208103237
 20
160.6990174904
 30
0.0
 11
149.7328393446
 21
160.6990174904
 31
0.0
  0
LINE
  5
7D
330
1F
100
AcDbEntity
  8
0
  6
Continuous
 62
     7
370
    15
100
AcDbLine
 10
151.5208103237
 20
150.6601853956
 30
0.0
 11
151.5208103237
 21
160.6990174904
 31
0.0
  0
LINE
  5
7E
330
1F
100
AcDbEntity
  8
0
  6
Continuous
 62
     7
370
    15
100
AcDbLine
 10
149.4408061928
 20
150.6601853956
 30
0.0
 11
151.5208103237
 21
150.6601853956
 31
0.0
  0
SPLINE
  5
7F
330
1F
100
AcDbEntity
  8
0
  6
Continuous
 62
     7
370
    15
100
AcDbSpline
210
0.0
220
0.0
230
1.0
 70
     8
 71
     3
 72
    22
 73
    18
 74
     0
 42
0.00000001
 43
0.00000001
 40
0.0
 40
0.0
 40
0.0
 40
0.0
 40
0.2500000000000002
 40
0.2500000000000002
 40
0.3750000000000003
 40
0.3750000000000003
 40
0.5000000000000004
 40
0.5000000000000004
 40
0.6250000000000004
 40
0.6250000000000004
 40
0.7500000000000004
 40
0.7500000000000004
 40
0.8750000000000004
 40
0.8750000000000004
 40
0.9375000000000002
 40
0.9375000000000002
 40
1.0
 40
1.0
 40
1.0
 40
1.0
 10
139.7328393445983
 20
143.059222634738
 30
0.0
 10
139.9355643005175
 20
144.0784689766026
 30
0.0
 10
140.2503080223128
 20
145.0375771265419
 30
0.0
 10
140.9583634919838
 20
146.3800562040512
 30
0.0
 10
141.2368261222014
 20
146.8142647867913
 30
0.0
 10
141.8755935288386
 20
147.6258925022933
 30
0.0
 10
142.2360072086288
 20
148.0051727952302
 30
0.0
 10
143.0535394406181
 20
148.7081313742512
 30
0.0
 10
143.5147074239052
 20
149.0331601919518
 30
0.0
 10
144.5126976703891
 20
149.5981755153427
 30
0.0
 10
145.0524568643813
 20
149.8418791095492
 30
0.0
 10
146.2270498284126
 20
150.2460790371941
 30
0.0
 10
146.8387860144045
 20
150.3985162302396
 30
0.0
 10
147.7906952392662
 20
150.5538437778484
 30
0.0
 10
148.1139284035269
 20
150.5933485578984
 30
0.0
 10
148.7729915748021
 20
150.6466576785671
 30
0.0
 10
149.1070555853761
 20
150.6601853956249
 30
0.0
 10
149.4408061927777
 20
150.6601853956249
 30
0.0
  0
SPLINE
  5
80
330
1F
100
AcDbEntity
  8
0
  6
Continuous
 62
     7
370
    15
100
AcDbSpline
210
0.0
220
0.0
230
1.0
 70
     8
 71
     3
 72
    80
 73
    76
 74
     0
 42
0.00000001
 43
0.00000001
 40
-0.0312499999999993
 40
-0.0312499999999993
 40
0.0
 40
0.0
 40
0.03125
 40
0.03125
 40
0.046875
 40
0.046875
 40
0.0625
 40
0.0625
 40
0.09375
 40
0.09375
 40
0.1250000000000001
 40
0.1250000000000001
 40
0.1562500000000001
 40
0.1562500000000001
 40
0.1875000000000001
 40
0.1875000000000001
 40
0.2187500000000002
 40
0.2187500000000002
 40
0.2500000000000002
 40
0.2500000000000002
 40
0.2812500000000003
 40
0.2812500000000003
 40
0.3125000000000003
 40
0.3125000000000003
 40
0.3281250000000004
 40
0.3281250000000004
 40
0.3437500000000006
 40
0.3437500000000006
 40
0.3750000000000011
 40
0.3750000000000011
 40
0.4062500000000016
 40
0.4062500000000016
 40
0.4218750000000018
 40
0.4218750000000018
 40
0.437500000000002
 40
0.437500000000002
 40
0.4687500000000023
 40
0.4687500000000023
 40
0.5000000000000027
 40
0.5000000000000027
 40
0.531250000000003
 40
0.531250000000003
 40
0.5625000000000033
 40
0.5625000000000033
 40
0.5937500000000037
 40
0.5937500000000037
 40
0.6250000000000039
 40
0.6250000000000039
 40
0.6562500000000042
 40
0.6562500000000042
 40
0.6875000000000046
 40
0.6875000000000046
 40
0.7031250000000047
 40
0.7031250000000047
 40
0.7187500000000048
 40
0.7187500000000048
 40
0.7500000000000048
 40
0.7500000000000048
 40
0.7812500000000048
 40
0.7812500000000048
 40
0.7968750000000044
 40
0.7968750000000044
 40
0.8125000000000041
 40
0.8125000000000041
 40
0.8437500000000034
 40
0.8437500000000034
 40
0.8750000000000027
 40
0.8750000000000027
 40
0.906250000000002
 40
0.906250000000002
 40
0.9375000000000013
 40
0.9375000000000013
 40
0.9687500000000007
 40
0.9687500000000007
 40
1.0
 40
1.0
 40
1.03125
 40
1.03125
 10
144.1133846573747
 20
155.1238520983693
 30
0.0
 10
143.452294031822
 20
155.1238520983693
 30
0.0
 10
143.1273139025704
 20
155.1400603297515
 30
0.0
 10
142.647840491324
 20
155.187424961771
 30
0.0
 10
142.4893586734832
 20
155.2070791736617
 30
0.0
 10
142.1751391409789
 20
155.2541903298543
 30
0.0
 10
142.0190188572985
 20
155.281771649349
 30
0.0
 10
141.5649648283419
 20
155.3743074361428
 30
0.0
 10
141.2778614454021
 20
155.4493778697393
 30
0.0
 10
140.7345068893751
 20
155.6246161783499
 30
0.0
 10
140.4774032781695
 20
155.7256174761881
 30
0.0
 10
140.0164970232307
 20
155.942973674649
 30
0.0
 10
139.8095993140158
 20
156.0601380064213
 30
0.0
 10
139.4440740000236
 20
156.3102079306499
 30
0.0
 10
139.2888684778976
 20
156.4411540194089
 30
0.0
 10
139.0394380912979
 20
156.7068889631212
 30
0.0
 10
138.9433481355127
 20
156.8436425564322
 30
0.0
 10
138.8148292863191
 20
157.1177081312712
 30
0.0
 10
138.7830184161413
 20
157.25264822174
 30
0.0
 10
138.7826617663681
 20
157.5181198588087
 30
0.0
 10
138.8151590185652
 20
157.64994433595
 30
0.0
 10
138.9427844922797
 20
157.8993939355704
 30
0.0
 10
139.0372128933315
 20
158.0178266274984
 30
0.0
 10
139.2250737133171
 20
158.1866958245925
 30
0.0
 10
139.2959017121203
 20
158.2417818197127
 30
0.0
 10
139.4506236040856
 20
158.3470346482011
 30
0.0
 10
139.534600074269
 20
158.3973698769614
 30
0.0
 10
139.8059237439134
 20
158.5419457094995
 30
0.0
 10
140.0124729625157
 20
158.6298072959165
 30
0.0
 10
140.4790831027047
 20
158.789528388916
 30
0.0
 10
140.7314486723302
 20
158.8587666853832
 30
0.0
 10
141.1373500140089
 20
158.948554074613
 30
0.0
 10
141.2772506314864
 20
158.9761200366993
 30
0.0
 10
141.5664745667333
 20
159.0266108376256
 30
0.0
 10
141.7163140230226
 20
159.0495742764762
 30
0.0
 10
142.1704305926334
 20
159.1102047928951
 30
0.0
 10
142.4820818113702
 20
159.1402788216909
 30
0.0
 10
143.1230782762826
 20
159.1808684089496
 30
0.0
 10
143.4546059042348
 20
159.1911806391657
 30
0.0
 10
144.1073969493063
 20
159.1912562063314
 30
0.0
 10
144.4319331543381
 20
159.1813546008637
 30
0.0
 10
145.0772026037545
 20
159.1408680703384
 30
0.0
 10
145.3929456099172
 20
159.1104067704537
 30
0.0
 10
145.9948349049009
 20
159.0302560990171
 30
0.0
 10
146.2855841357124
 20
158.97997386721
 30
0.0
 10
146.8324959273969
 20
158.859303684437
 30
0.0
 10
147.0842732912338
 20
158.790079825267
 30
0.0
 10
147.5456612838549
 20
158.6326280976263
 30
0.0
 10
147.756930563453
 20
158.5432796229526
 30
0.0
 10
148.1202349158292
 20
158.3500317522517
 30
0.0
 10
148.274041564272
 20
158.2459037603724
 30
0.0
 10
148.4626610338694
 20
158.077279374189
 30
0.0
 10
148.5186915200785
 20
158.0186509725141
 30
0.0
 10
148.6142652818147
 20
157.8991960576878
 30
0.0
 10
148.6540281988397
 20
157.8382762688496
 30
0.0
 10
148.7497999491518
 20
157.6518715426757
 30
0.0
 10
148.7825227882779
 20
157.5227587248807
 30
0.0
 10
148.783151374607
 20
157.2541018019248
 30
0.0
 10
148.7509652298723
 20
157.118731061168
 30
0.0
 10
148.6560545280167
 20
156.9151807529321
 30
0.0
 10
148.6165877446177
 20
156.8472088288686
 30
0.0
 10
148.5216577458968
 20
156.7111166057378
 30
0.0
 10
148.4659009181335
 20
156.6427665055283
 30
0.0
 10
148.2779608001636
 20
156.4420634924862
 30
0.0
 10
148.1245993304474
 20
156.3126752186735
 30
0.0
 10
147.762335095567
 20
156.0640097866237
 30
0.0
 10
147.5514866221011
 20
155.9442001442555
 30
0.0
 10
147.0908166517822
 20
155.7266778566828
 30
0.0
 10
146.8394422721984
 20
155.6275927568469
 30
0.0
 10
146.2935343853003
 20
155.4509202829301
 30
0.0
 10
146.002711810649
 20
155.374863194796
 30
0.0
 10
145.401385195869
 20
155.2520182174431
 30
0.0
 10
145.0868666112566
 20
155.2043120923899
 30
0.0
 10
144.4402851551367
 20
155.1400635572703
 30
0.0
 10
144.1133846573747
 20
155.1238520983693
 30
0.0
 10
143.452294031822
 20
155.1238520983693
 30
0.0
  0
LINE
  5
81
330
1F
100
AcDbEntity
  8
0
  6
Continuous
 62
     7
370
    15
100
AcDbLine
 10
134.7828393446
 20
62.2092226347
 30
0.0
 11
134.7828393446
 21
161.2092226288
 31
0.0
  0
LINE
  5
82
330
1F
100
AcDbEntity
  8
0
  6
Continuous
 62
     7
370
    15
100
AcDbLine
 10
163.7328393446
 20
63.9598770895
 30
0.0
 11
163.7328393446
 21
143.0592226347
 31
0.0
  0
SPLINE
  5
83
330
1F
100
AcDbEntity
  8
0
  6
Continuous
 62
     7
370
    15
100
AcDbSpline
210
0.0
220
0.0
230
1.0
 70
     8
 71
     3
 72
    14
 73
    10
 74
     0
 42
0.00000001
 43
0.00000001
 40
0.0
 40
0.0
 40
0.0
 40
0.0
 40
0.25
 40
0.25
 40
0.5
 40
0.5
 40
0.75
 40
0.75
 40
1.0
 40
1.0
 40
1.0
 40
1.0
 10
163.7328393445984
 20
63.95987708948472
 30
0.0
 10
163.7328393445984
 20
63.82645139343018
 30
0.0
 10
163.7075282446875
 20
63.69460358558582
 30
0.0
 10
163.6091934808428
 20
63.44808103689173
 30
0.0
 10
163.5360494765867
 20
63.33427584865117
 30
0.0
 10
163.352611415491
 20
63.1438186717039
 30
0.0
 10
163.2409250811524
 20
63.06618380785399
 30
0.0
 10
162.9984216508461
 20
62.96189239774152
 30
0.0
 10
162.8650472221519
 20
62.93422904170917
 30
0.0
 10
162.7328393445984
 20
62.93422904170917
 30
0.0
  0
SPLINE
  5
84
330
1F
100
AcDbEntity
  8
0
  6
Continuous
 62
     7
370
    15
100
AcDbSpline
210
0.0
220
0.0
230
1.0
 70
    24
 71
     3
 72
    12
 73
     8
 74
     0
 42
0.00000001
 43
0.00000001
 40
0.0
 40
0.0
 40
0.0
 40
0.0
 40
0.2500000000000032
 40
0.2500000000000032
 40
0.5000000000000064
 40
0.5000000000000064
 40
1.0
 40
1.0
 40
1.0
 40
1.0
 10
162.7328393445984
 20
143.059222634738
 30
0.0
 10
162.8849295815434
 20
143.059222634738
 30
0.0
 10
163.0333888426188
 20
143.059222634738
 30
0.0
 10
163.2907924748845
 20
143.059222634738
 30
0.0
 10
163.3998972227264
 20
143.059222634738
 30
0.0
 10
163.6539566991339
 20
143.059222634738
 30
0.0
 10
163.7328393445984
 20
143.059222634738
 30
0.0
 10
163.7328393445984
 20
143.059222634738
 30
0.0
  0
LINE
  5
85
330
1F
100
AcDbEntity
  8
0
  6
Continuous
 62
     7
370
    15
100
AcDbLine
 10
162.7328393446
 20
62.9342290417
 30
0.0
 11
158.0448683655
 21
62.9342290417
 31
0.0
  0
LINE
  5
86
330
1F
100
AcDbEntity
  8
0
  6
Continuous
 62
     7
370
    15
100
AcDbLine
 10
158.0448683655
 20
62.9342290417
 30
0.0
 11
158.0448683655
 21
143.0592226347
 31
0.0
  0
LINE
  5
87
330
1F
100
AcDbEntity
  8
0
  6
Continuous
 62
     7
370
    15
100
AcDbLine
 10
158.0448683655
 20
143.0592226347
 30
0.0
 11
162.7328393446
 21
143.0592226347
 31
0.0
  0
SPLINE
  5
88
330
1F
100
AcDbEntity
  8
0
  6
Continuous
 62
     7
370
    15
100
AcDbSpline
210
0.0
220
0.0
230
1.0
 70
     8
 71
     3
 72
     8
 73
     4
 74
     0
 42
0.00000001
 43
0.00000001
 40
0.0
 40
0.0
 40
0.0
 40
0.0
 40
1.0
 40
1.0
 40
1.0
 40
1.0
 10
158.0448683655198
 20
62.9342290417092
 30
0.0
 10
157.5937636361195
 20
63.73518897352912
 30
0.0
 10
157.1430658088761
 20
64.5363789850898
 30
0.0
 10
156.6928393445984
 20
65.33783434771455
 30
0.0
  0
LINE
  5
89
330
1F
100
AcDbEntity
  8
0
  6
Continuous
 62
     7
370
    15
100
AcDbLine
 10
156.6928393446
 20
65.3378343477
 30
0.0
 11
156.6928393446
 21
143.0592226347
 31
0.0
  0
SPLINE
  5
8A
330
1F
100
AcDbEntity
  8
0
  6
Continuous
 62
     7
370
    15
100
AcDbSpline
210
0.0
220
0.0
230
1.0
 70
    24
 71
     3
 72
     8
 73
     4
 74
     0
 42
0.00000001
 43
0.00000001
 40
0.0
 40
0.0
 40
0.0
 40
0.0
 40
1.0
 40
1.0
 40
1.0
 40
1.0
 10
156.6928393445984
 20
143.059222634738
 30
0.0
 10
157.1370522269523
 20
143.059222634738
 30
0.0
 10
157.5880667931915
 20
143.059222634738
 30
0.0
 10
158.0448683655198
 20
143.059222634738
 30
0.0
  0
LINE
  5
8B
330
1F
100
AcDbEntity
  8
0
  6
Continuous
 62
     7
370
    15
100
AcDbLine
 10
152.8728393446
 20
65.3378343477
 30
0.0
 11
152.8728393446
 21
143.0592226347
 31
0.0
  0
SPLINE
  5
8C
330
1F
100
AcDbEntity
  8
0
  6
Continuous
 62
     7
370
    15
100
AcDbSpline
210
0.0
220
0.0
230
1.0
 70
     8
 71
     3
 72
     8
 73
     4
 74
     0
 42
0.00000001
 43
0.00000001
 40
0.0
 40
0.0
 40
0.0
 40
0.0
 40
1.0
 40
1.0
 40
1.0
 40
1.0
 10
152.8728393445984
 20
65.33783434771455
 30
0.0
 10
152.4226128803206
 20
64.5363789850898
 30
0.0
 10
151.9719150530772
 20
63.73518897352912
 30
0.0
 10
151.520810323677
 20
62.9342290417092
 30
0.0
  0
SPLINE
  5
8D
330
1F
100
AcDbEntity
  8
0
  6
Continuous
 62
     7
370
    15
100
AcDbSpline
210
0.0
220
0.0
230
1.0
 70
    24
 71
     3
 72
     8
 73
     4
 74
     0
 42
0.00000001
 43
0.00000001
 40
0.0
 40
0.0
 40
0.0
 40
0.0
 40
1.0
 40
1.0
 40
1.0
 40
1.0
 10
151.520810323677
 20
143.059222634738
 30
0.0
 10
151.9776118960052
 20
143.059222634738
 30
0.0
 10
152.4286264622444
 20
143.059222634738
 30
0.0
 10
152.8728393445984
 20
143.059222634738
 30
0.0
  0
SPLINE
  5
8E
330
1F
100
AcDbEntity
  8
0
  6
Continuous
 62
     7
370
    15
100
AcDbSpline
210
0.0
220
0.0
230
1.0
 70
     8
 71
     3
 72
    14
 73
    10
 74
     0
 42
0.00000001
 43
0.00000001
 40
0.0
 40
0.0
 40
0.0
 40
0.0
 40
0.25
 40
0.25
 40
0.5
 40
0.5
 40
0.75
 40
0.75
 40
1.0
 40
1.0
 40
1.0
 40
1.0
 10
156.6928393445984
 20
66.24604385234312
 30
0.0
 10
156.6928393445984
 20
66.3530879333375
 30
0.0
 10
156.6727216574402
 20
66.45832307357996
 30
0.0
 10
156.5942304681745
 20
66.65617356042763
 30
0.0
 10
156.5360738433734
 20
66.74722532399257
 30
0.0
 10
156.3895585877553
 20
66.90039141791735
 30
0.0
 10
156.3009160391142
 20
66.96268586412675
 30
0.0
 10
156.1051927163139
 20
67.04747964966273
 30
0.0
 10
155.999961525243
 20
67.06954717668836
 30
0.0
 10
155.8928393445983
 20
67.06954717668836
 30
0.0
  0
SPLINE
  5
8F
330
1F
100
AcDbEntity
  8
0
  6
Continuous
 62
     7
370
    15
100
AcDbSpline
210
0.0
220
0.0
230
1.0
 70
    24
 71
     3
 72
    14
 73
    10
 74
     0
 42
0.00000001
 43
0.00000001
 40
0.0
 40
0.0
 40
0.0
 40
0.0
 40
0.25
 40
0.25
 40
0.5
 40
0.5
 40
0.75
 40
0.75
 40
1.0
 40
1.0
 40
1.0
 40
1.0
 10
155.8928393445983
 20
143.059222634738
 30
0.0
 10
156.0166091093635
 20
143.059222634738
 30
0.0
 10
156.1409762133704
 20
143.059222634738
 30
0.0
 10
156.3473326820964
 20
143.059222634738
 30
0.0
 10
156.4326608255148
 20
143.059222634738
 30
0.0
 10
156.56485288423
 20
143.059222634738
 30
0.0
 10
156.6134981279806
 20
143.059222634738
 30
0.0
 10
156.6770339197093
 20
143.059222634738
 30
0.0
 10
156.6928393445984
 20
143.059222634738
 30
0.0
 10
156.6928393445984
 20
143.059222634738
 30
0.0
  0
SPLINE
  5
90
330
1F
100
AcDbEntity
  8
0
  6
Continuous
 62
     7
370
    15
100
AcDbSpline
210
0.0
220
0.0
230
1.0
 70
     8
 71
     3
 72
    12
 73
     8
 74
     0
 42
0.00000001
 43
0.00000001
 40
0.0
 40
0.0
 40
0.0
 40
0.0
 40
0.25
 40
0.25
 40
0.5
 40
0.5
 40
1.0
 40
1.0
 40
1.0
 40
1.0
 10
153.6728393445983
 20
67.06954717668836
 30
0.0
 10
153.5670786912494
 20
67.06954717668836
 30
0.0
 10
153.4590910630665
 20
67.04700767068798
 30
0.0
 10
153.2644963978009
 20
66.96243703869264
 30
0.0
 10
153.175624484962
 20
66.89995538593388
 30
0.0
 10
152.9564321926362
 20
66.6705664344617
 30
0.0
 10
152.8728393445983
 20
66.45798309693932
 30
0.0
 10
152.8728393445983
 20
66.24604385234312
 30
0.0
  0
SPLINE
  5
91
330
1F
100
AcDbEntity
  8
0
  6
Continuous
 62
     7
370
    15
100
AcDbSpline
210
0.0
220
0.0
230
1.0
 70
    24
 71
     3
 72
    14
 73
    10
 74
     0
 42
0.00000001
 43
0.00000001
 40
0.0
 40
0.0
 40
0.0
 40
0.0
 40
0.25
 40
0.25
 40
0.5
 40
0.5
 40
0.75
 40
0.75
 40
1.0
 40
1.0
 40
1.0
 40
1.0
 10
152.8728393445984
 20
143.059222634738
 30
0.0
 10
152.8728393445983
 20
143.059222634738
 30
0.0
 10
152.8885536650643
 20
143.059222634738
 30
0.0
 10
152.9522376435327
 20
143.059222634738
 30
0.0
 10
153.0008408379431
 20
143.059222634738
 30
0.0
 10
153.1335243603687
 20
143.059222634738
 30
0.0
 10
153.2186264646794
 20
143.059222634738
 30
0.0
 10
153.4250686995894
 20
143.059222634738
 30
0.0
 10
153.5491496412124
 20
143.059222634738
 30
0.0
 10
153.6728393445983
 20
143.059222634738
 30
0.0
  0
LINE
  5
92
330
1F
100
AcDbEntity
  8
0
  6
Continuous
 62
     7
370
    15
100
AcDbLine
 10
155.8928393446
 20
67.0695471767
 30
0.0
 11
153.6728393446
 21
67.0695471767
 31
0.0
  0
LINE
  5
93
330
1F
100
AcDbEntity
  8
0
  6
Continuous
 62
     7
370
    15
100
AcDbLine
 10
153.6728393446
 20
143.0592226347
 30
0.0
 11
155.8928393446
 21
143.0592226347
 31
0.0
  0
LINE
  5
94
330
1F
100
AcDbEntity
  8
0
  6
Continuous
 62
     7
370
    15
100
AcDbLine
 10
99.9828393446
 20
75.4452076047
 30
0.0
 11
99.9828393446
 21
77.8398893694
 31
0.0
  0
SPLINE
  5
95
330
1F
100
AcDbEntity
  8
0
  6
Continuous
 62
     7
370
    15
100
AcDbSpline
210
0.0
220
0.0
230
1.0
 70
     8
 71
     3
 72
    14
 73
    10
 74
     0
 42
0.00000001
 43
0.00000001
 40
0.0
 40
0.0
 40
0.0
 40
0.0
 40
0.25
 40
0.25
 40
0.5
 40
0.5
 40
0.75
 40
0.75
 40
1.0
 40
1.0
 40
1.0
 40
1.0
 10
98.97841687326141
 20
79.54274129099448
 30
0.0
 10
99.06718545120673
 20
79.38420715968653
 30
0.0
 10
99.18890328988564
 20
79.23176448279798
 30
0.0
 10
99.42395289974247
 20
78.93462985896906
 30
0.0
 10
99.53958308595936
 20
78.78994721535169
 30
0.0
 10
99.73998801938718
 20
78.50665801284829
 30
0.0
 10
99.8253883113715
 20
78.36810401981143
 30
0.0
 10
99.94709394508874
 20
78.09671998977791
 30
0.0
 10
99.98283934460137
 20
77.96458412114328
 30
0.0
 10
99.98283934460136
 20
77.83988936937251
 30
0.0
  0
SPLINE
  5
96
330
1F
100
AcDbEntity
  8
0
  6
Continuous
 62
     7
370
    15
100
AcDbSpline
210
0.0
220
0.0
230
1.0
 70
     8
 71
     3
 72
    14
 73
    10
 74
     0
 42
0.00000001
 43
0.00000001
 40
0.0
 40
0.0
 40
0.0
 40
0.0
 40
0.124999999999999
 40
0.124999999999999
 40
0.249999999999998
 40
0.249999999999998
 40
0.5000000000000007
 40
0.5000000000000007
 40
1.0
 40
1.0
 40
1.0
 40
1.0
 10
98.08283934459836
 20
80.1715712300946
 30
0.0
 10
98.15042164438286
 20
80.178727115196
 30
0.0
 10
98.22290922213075
 20
80.17430264515696
 30
0.0
 10
98.35520033139669
 20
80.14459648738662
 30
0.0
 10
98.41247771078687
 20
80.1213122058084
 30
0.0
 10
98.56212813798714
 20
80.04382696595808
 30
0.0
 10
98.63584143350865
 20
79.9819751390567
 30
0.0
 10
98.82364941683488
 20
79.79729768640838
 30
0.0
 10
98.90768972319634
 20
79.66905476311717
 30
0.0
 10
98.97841687326262
 20
79.54274129099458
 30
0.0
  0
SPLINE
  5
97
330
1F
100
AcDbEntity
  8
0
  6
Continuous
 62
     7
370
    15
100
AcDbSpline
210
0.0
220
0.0
230
1.0
 70
     8
 71
     3
 72
     8
 73
     4
 74
     0
 42
0.00000001
 43
0.00000001
 40
0.0
 40
0.0
 40
0.0
 40
0.0
 40
1.0
 40
1.0
 40
1.0
 40
1.0
 10
94.53819895651758
 20
79.75352264530281
 30
0.0
 10
95.70349726722645
 20
79.90871011718941
 30
0.0
 10
96.88811248126626
 20
80.04506875549974
 30
0.0
 10
98.08283934459836
 20
80.17157123009461
 30
0.0
  0
SPLINE
  5
98
330
1F
100
AcDbEntity
  8
0
  6
Continuous
 62
     7
370
    15
100
AcDbSpline
210
0.0
220
0.0
230
1.0
 70
     8
 71
     3
 72
    14
 73
    10
 74
     0
 42
0.00000001
 43
0.00000001
 40
0.0
 40
0.0
 40
0.0
 40
0.0
 40
0.4999999999999972
 40
0.4999999999999972
 40
0.7499999999999971
 40
0.7499999999999971
 40
0.8749999999999986
 40
0.8749999999999986
 40
1.0
 40
1.0
 40
1.0
 40
1.0
 10
86.78276446056967
 20
79.46339046617288
 30
0.0
 10
88.09106602310341
 20
79.47040518991402
 30
0.0
 10
89.39612539776022
 20
79.48581376635849
 30
0.0
 10
91.34200144924854
 20
79.53971032182517
 30
0.0
 10
91.98869895298755
 20
79.56274188642787
 30
0.0
 10
92.95254131684189
 20
79.61368441129862
 30
0.0
 10
93.27278000877597
 20
79.63341933353182
 30
0.0
 10
93.90947523511838
 20
79.68290646200337
 30
0.0
 10
94.2261906434013
 20
79.71197124093261
 30
0.0
 10
94.5381989565176
 20
79.75352264530278
 30
0.0
  0
SPLINE
  5
99
330
1F
100
AcDbEntity
  8
0
  6
Continuous
 62
     7
370
    15
100
AcDbSpline
210
0.0
220
0.0
230
1.0
 70
     8
 71
     3
 72
    12
 73
     8
 74
     0
 42
0.00000001
 43
0.00000001
 40
0.0
 40
0.0
 40
0.0
 40
0.0
 40
0.2500000000000009
 40
0.2500000000000009
 40
0.5000000000000018
 40
0.5000000000000018
 40
1.0
 40
1.0
 40
1.0
 40
1.0
 10
93.08283934459837
 20
143.7957455262344
 30
0.0
 10
92.56414052277017
 20
143.8282683010827
 30
0.0
 10
92.04242894956519
 20
143.8515650422532
 30
0.0
 10
90.9961369330696
 20
143.8894105566752
 30
0.0
 10
90.47146530739934
 20
143.9036790311714
 30
0.0
 10
88.89461928486011
 20
143.9378885186297
 30
0.0
 10
87.8396639703132
 20
143.9493880225736
 30
0.0
 10
86.78276446056798
 20
143.9550548033031
 30
0.0
  0
SPLINE
  5
9A
330
1F
100
AcDbEntity
  8
0
  6
Continuous
 62
     7
370
    15
100
AcDbSpline
210
0.0
220
0.0
230
1.0
 70
     8
 71
     3
 72
    20
 73
    16
 74
     0
 42
0.00000001
 43
0.00000001
 40
0.0
 40
0.0
 40
0.0
 40
0.0
 40
0.2500000000000011
 40
0.2500000000000011
 40
0.5000000000000021
 40
0.5000000000000021
 40
0.7500000000000031
 40
0.7500000000000031
 40
0.8750000000000008
 40
0.8750000000000008
 40
0.9375000000000006
 40
0.9375000000000006
 40
0.9687500000000003
 40
0.9687500000000003
 40
1.0
 40
1.0
 40
1.0
 40
1.0
 10
94.98283934459836
 20
145.4538313717226
 30
0.0
 10
94.98283934459836
 20
145.3181490519758
 30
0.0
 10
94.93412755538174
 20
145.1770620658357
 30
0.0
 10
94.76496613215654
 20
144.8849903471052
 30
0.0
 10
94.64318571823824
 20
144.7333416050148
 30
0.0
 10
94.34563862348871
 20
144.4309331648617
 30
0.0
 10
94.17172601778596
 20
144.2783445287384
 30
0.0
 10
93.85231118390412
 20
144.0530737648961
 30
0.0
 10
93.73727040845687
 20
143.9783506703853
 30
0.0
 10
93.53018608444044
 20
143.8789402611283
 30
0.0
 10
93.45407824963407
 20
143.8473751687838
 30
0.0
 10
93.32268371008071
 20
143.8129317845908
 30
0.0
 10
93.27613049107924
 20
143.8038802128231
 30
0.0
 10
93.17979713999854
 20
143.7937045639847
 30
0.0
 10
93.13053771664309
 20
143.7927548053097
 30
0.0
 10
93.08283934459638
 20
143.7957455262243
 30
0.0
  0
LINE
  5
9B
330
1F
100
AcDbEntity
  8
0
  6
Continuous
 62
     7
370
    15
100
AcDbLine
 10
94.9828393446
 20
145.4538313717
 30
0.0
 11
94.9828393446
 21
147.7227366628
 31
0.0
  0
LINE
  5
9C
330
1F
100
AcDbEntity
  8
0
  6
Continuous
 62
     7
370
    15
100
AcDbLine
 10
132.2828393446
 20
73.8269711317
 30
0.0
 11
132.2828393446
 21
149.5914741377
 31
0.0
  0
SPLINE
  5
9D
330
1F
100
AcDbEntity
  8
0
  6
Continuous
 62
     7
370
    15
100
AcDbSpline
210
0.0
220
0.0
230
1.0
 70
     8
 71
     3
 72
    24
 73
    20
 74
     0
 42
0.00000001
 43
0.00000001
 40
0.0
 40
0.0
 40
0.0
 40
0.0
 40
0.0002934293894791
 40
0.062808005175641
 40
0.1260453927228619
 40
0.18907467666103
 40
0.2513200540860133
 40
0.3133304633786588
 40
0.3759158453762907
 40
0.4383740564599686
 40
0.5000631094857209
 40
0.5616593988040849
 40
0.6245050380644152
 40
0.6872231506510951
 40
0.7494953263230465
 40
0.8117583797535242
 40
0.8747365508229858
 40
0.9378980306234599
 40
1.0
 40
1.0
 40
1.0
 40
1.0
 10
113.3027956084378
 20
74.77797737642564
 30
0.0
 10
113.302600755553
 20
74.77795306903165
 30
0.0
 10
113.2608928645419
 20
74.77275011737744
 30
0.0
 10
113.4060112560723
 20
74.79138474070795
 30
0.0
 10
113.7610901976116
 20
74.83390451925669
 30
0.0
 10
114.3656658351547
 20
74.90204080285852
 30
0.0
 10
115.1721011439709
 20
74.9752963398744
 30
0.0
 10
116.1575785678899
 20
75.03981568069226
 30
0.0
 10
117.2892481645694
 20
75.07837990875335
 30
0.0
 10
118.5115406347317
 20
75.08207441475474
 30
0.0
 10
119.7788693161835
 20
75.03964843470575
 30
0.0
 10
121.0453548466101
 20
74.9514012939248
 30
0.0
 10
122.26149221043
 20
74.82300802365813
 30
0.0
 10
123.3869027062708
 20
74.6703670350656
 30
0.0
 10
124.3643197678247
 20
74.50859241996126
 30
0.0
 10
125.1675852463672
 20
74.35606352686037
 30
0.0
 10
125.7560787693685
 20
74.23204978359296
 30
0.0
 10
126.1449848810205
 20
74.1471258573167
 30
0.0
 10
126.1917460117585
 20
74.13639954603791
 30
0.0
 10
126.2149288183009
 20
74.1310817533463
 30
0.0
  0
SPLINE
  5
9E
330
1F
100
AcDbEntity
  8
0
  6
Continuous
 62
     7
370
    15
100
AcDbSpline
210
0.0
220
0.0
230
1.0
 70
     8
 71
     3
 72
    41
 73
    37
 74
     0
 42
0.00000001
 43
0.00000001
 40
0.0
 40
0.0
 40
0.0
 40
0.0
 40
0.0619930088506718
 40
0.125434783814564
 40
0.1886508980471406
 40
0.2510246518033811
 40
0.3131658325491701
 40
0.3756581805174193
 40
0.4382227337757709
 40
0.4998045140815297
 40
0.5615164441954765
 40
0.624068336616565
 40
0.6867257531766615
 40
0.7488365631577111
 40
0.8110686297814758
 40
0.8741743265521147
 40
0.9373213196242014
 40
0.9685512131827939
 40
0.9842087301523141
 40
0.9920641614992075
 40
0.9960005295431575
 40
0.9979711229155388
 40
0.9989570525954627
 40
0.999450179507506
 40
0.9996967839589672
 40
0.9998200964931991
 40
0.9998817553448945
 40
0.9999125854178207
 40
0.9999280006161647
 40
0.9999357082558249
 40
0.9999395620857793
 40
0.9999414890032862
 40
0.9999424524626737
 40
0.9999434159224813
 40
0.9999502132908483
 40
1.0
 40
1.0
 40
1.0
 40
1.0
 10
126.2148074878229
 20
149.2873184981782
 30
0.0
 10
126.1912358424793
 20
149.2820090185283
 30
0.0
 10
126.1435416864343
 20
149.2712659775888
 30
0.0
 10
125.7514996970087
 20
149.1860368411334
 30
0.0
 10
125.1609856477385
 20
149.0614680624926
 30
0.0
 10
124.3569482016934
 20
148.9085211163408
 30
0.0
 10
123.3808728015119
 20
148.7467645623872
 30
0.0
 10
122.2590640662314
 20
148.594531794455
 30
0.0
 10
121.0455331464442
 20
148.4667518532536
 30
0.0
 10
119.780702440045
 20
148.378903301571
 30
0.0
 10
118.5126594026022
 20
148.3365178177004
 30
0.0
 10
117.2891520449011
 20
148.340253625672
 30
0.0
 10
116.1556535044871
 20
148.3788490961201
 30
0.0
 10
115.1695476935129
 20
148.4432884674113
 30
0.0
 10
114.3609198847258
 20
148.5167982746924
 30
0.0
 10
113.7643011896161
 20
148.5841119595042
 30
0.0
 10
113.4489099001595
 20
148.622076510772
 30
0.0
 10
113.338843331359
 20
148.6358755701042
 30
0.0
 10
113.3114239435484
 20
148.6393616440244
 30
0.0
 10
113.3045018927138
 20
148.6402408697184
 30
0.0
 10
113.3027336525376
 20
148.6404616443238
 30
0.0
 10
113.3022732733541
 20
148.6405168470359
 30
0.0
 10
113.3021491146835
 20
148.6405305868211
 30
0.0
 10
113.3021135601703
 20
148.6405339826546
 30
0.0
 10
113.3021024161286
 20
148.6405348109714
 30
0.0
 10
113.3020985028924
 20
148.6405350075652
 30
0.0
 10
113.3020969607441
 20
148.6405350514882
 30
0.0
 10
113.3020962936627
 20
148.6405350598049
 30
0.0
 10
113.3020959855978
 20
148.6405350606211
 30
0.0
 10
113.3020958386725
 20
148.6405350600957
 30
0.0
 10
113.3020957659448
 20
148.6405350597379
 30
0.0
 10
113.3020957312352
 20
148.6405350593401
 30
0.0
 10
113.3020957095017
 20
148.640535059365
 30
0.0
 10
113.3020956776466
 20
148.6405350571203
 30
0.0
 10
113.3020937283059
 20
148.6405352730663
 30
0.0
 10
113.3021206631687
 20
148.6405317919357
 30
0.0
 10
113.3021443623831
 20
148.6405287289885
 30
0.0
  0
SPLINE
  5
9F
330
1F
100
AcDbEntity
  8
0
  6
Continuous
 62
     7
370
    15
100
AcDbSpline
210
0.0
220
0.0
230
1.0
 70
     8
 71
     3
 72
    20
 73
    16
 74
     0
 42
0.00000001
 43
0.00000001
 40
0.0
 40
0.0
 40
0.0
 40
0.0
 40
0.249999999999986
 40
0.249999999999986
 40
0.3749999999999789
 40
0.3749999999999789
 40
0.4374999999999789
 40
0.4374999999999789
 40
0.4999999999999789
 40
0.4999999999999789
 40
0.6249999999999835
 40
0.6249999999999835
 40
0.7499999999999879
 40
0.7499999999999879
 40
1.0
 40
1.0
 40
1.0
 40
1.0
 10
85.17365357631438
 20
81.03073948203732
 30
0.0
 10
85.19992579352778
 20
81.05005742311977
 30
0.0
 10
85.23060593578262
 20
81.06444613422155
 30
0.0
 10
85.30207680616454
 20
81.05754177238553
 30
0.0
 10
85.33010384320889
 20
81.05037576903712
 30
0.0
 10
85.38518743270639
 20
81.02067674233352
 30
0.0
 10
85.40607876125881
 20
81.00720309977218
 30
0.0
 10
85.45128740870427
 20
80.97200483425618
 30
0.0
 10
85.47569162109984
 20
80.95009660552891
 30
0.0
 10
85.54702393915129
 20
80.87797174553337
 30
0.0
 10
85.58892072397157
 20
80.82563120458332
 30
0.0
 10
85.66049668282744
 20
80.72814781268258
 30
0.0
 10
85.69132467264473
 20
80.68139404280416
 30
0.0
 10
85.7744246054803
 20
80.54810082696504
 30
0.0
 10
85.8192795108506
 20
80.46546342904982
 30
0.0
 10
85.85939158630318
 20
80.38635653425905
 30
0.0
  0
SPLINE
  5
A0
330
1F
100
AcDbEntity
  8
0
  6
Continuous
 62
     7
370
    15
100
AcDbSpline
210
0.0
220
0.0
230
1.0
 70
     8
 71
     3
 72
    14
 73
    10
 74
     0
 42
0.00000001
 43
0.00000001
 40
0.0
 40
0.0
 40
0.0
 40
0.0
 40
0.25
 40
0.25
 40
0.5
 40
0.5
 40
0.75
 40
0.75
 40
1.0
 40
1.0
 40
1.0
 40
1.0
 10
84.88283934459837
 20
81.2065528921701
 30
0.0
 10
84.88283934459838
 20
81.16530596114573
 30
0.0
 10
84.89144906097962
 20
81.12839898886325
 30
0.0
 10
84.92253524054996
 20
81.06749892896386
 30
0.0
 10
84.94492479403402
 20
81.04331800942415
 30
0.0
 10
84.99966872521014
 20
81.0093504185409
 30
0.0
 10
85.03211896479533
 20
80.99943033457271
 30
0.0
 10
85.10212047952339
 20
80.99807912566787
 30
0.0
 10
85.14033097964594
 20
81.00623740236402
 30
0.0
 10
85.17365357631903
 20
81.03073948203212
 30
0.0
  0
LINE
  5
A1
330
1F
100
AcDbEntity
  8
0
  6
Continuous
 62
     7
370
    15
100
AcDbLine
 10
84.8828393446
 20
81.2065528922
 30
0.0
 11
84.8828393446
 21
142.2118923773
 31
0.0
  0
SPLINE
  5
A2
330
1F
100
AcDbEntity
  8
0
  6
Continuous
 62
     7
370
    15
100
AcDbSpline
210
0.0
220
0.0
230
1.0
 70
     8
 71
     3
 72
     9
 73
     5
 74
     0
 42
0.00000001
 43
0.00000001
 40
0.0
 40
0.0
 40
0.0
 40
0.0
 40
0.0592950272321202
 40
1.0
 40
1.0
 40
1.0
 40
1.0
 10
85.17365357631901
 20
142.3877057874439
 30
0.0
 10
85.16877073485682
 20
142.3909986328374
 30
0.0
 10
85.08642248931048
 20
142.446531879843
 30
0.0
 10
85.02029043882894
 20
142.3892424773305
 30
0.0
 10
84.95807969008163
 20
142.3353500515001
 30
0.0
  0
SPLINE
  5
A3
330
1F
100
AcDbEntity
  8
0
  6
Continuous
 62
     7
370
    15
100
AcDbSpline
210
0.0
220
0.0
230
1.0
 70
     8
 71
     3
 72
     8
 73
     4
 74
     0
 42
0.00000001
 43
0.00000001
 40
0.0
 40
0.0
 40
0.0
 40
0.0
 40
1.0
 40
1.0
 40
1.0
 40
1.0
 10
84.90647301353457
 20
142.3194718783756
 30
0.0
 10
84.89112397489853
 20
142.2889618233797
 30
0.0
 10
84.88283934459837
 20
142.2526502678673
 30
0.0
 10
84.88283934459837
 20
142.2118923773059
 30
0.0
  0
SPLINE
  5
A4
330
1F
100
AcDbEntity
  8
0
  6
Continuous
 62
     7
370
    15
100
AcDbSpline
210
0.0
220
0.0
230
1.0
 70
     8
 71
     3
 72
    20
 73
    16
 74
     0
 42
0.00000001
 43
0.00000001
 40
0.0
 40
0.0
 40
0.0
 40
0.0
 40
0.2500000000000037
 40
0.2500000000000037
 40
0.3750000000000055
 40
0.3750000000000055
 40
0.5000000000000073
 40
0.5000000000000073
 40
0.5625000000000057
 40
0.5625000000000057
 40
0.625000000000004
 40
0.625000000000004
 40
0.7500000000000027
 40
0.7500000000000027
 40
1.0
 40
1.0
 40
1.0
 40
1.0
 10
85.85939158630079
 20
143.0320887352162
 30
0.0
 10
85.81939536847696
 20
142.9532103286587
 30
0.0
 10
85.77428174063931
 20
142.8700806819672
 30
0.0
 10
85.69102752627278
 20
142.7365920176163
 30
0.0
 10
85.66080819765227
 20
142.6907269617343
 30
0.0
 10
85.58871996251085
 20
142.5925354093294
 30
0.0
 10
85.54680264509976
 20
142.5402255898058
 30
0.0
 10
85.4755520405483
 20
142.4682196870713
 30
0.0
 10
85.45131622816898
 20
142.4464494747698
 30
0.0
 10
85.40571803798433
 20
142.4109748164408
 30
0.0
 10
85.38491554838463
 20
142.3976046322632
 30
0.0
 10
85.3299745499655
 20
142.368034720128
 30
0.0
 10
85.3019055618787
 20
142.360908197826
 30
0.0
 10
85.23140273181586
 20
142.3540338263433
 30
0.0
 10
85.19997864402498
 20
142.3683489854305
 30
0.0
 10
85.17365357631638
 20
142.387705787441
 30
0.0
  0
SPLINE
  5
A5
330
1F
100
AcDbEntity
  8
0
  6
Continuous
 62
     7
370
    15
100
AcDbSpline
210
0.0
220
0.0
230
1.0
 70
     8
 71
     3
 72
    10
 73
     6
 74
     0
 42
0.00000001
 43
0.00000001
 40
0.0
 40
0.0
 40
0.0
 40
0.0
 40
0.4999999999999989
 40
0.4999999999999989
 40
1.0
 40
1.0
 40
1.0
 40
1.0
 10
86.53283934459837
 20
143.957507836558
 30
0.0
 10
86.40795107384817
 20
143.8265115584865
 30
0.0
 10
86.28650095578773
 20
143.6827987218215
 30
0.0
 10
86.0569169808303
 20
143.3722284291323
 30
0.0
 10
85.94664200543431
 20
143.2041593560692
 30
0.0
 10
85.85939158630079
 20
143.0320887352162
 30
0.0
  0
SPLINE
  5
A6
330
1F
100
AcDbEntity
  8
0
  6
Continuous
 62
     7
370
    15
100
AcDbSpline
210
0.0
220
0.0
230
1.0
 70
     8
 71
     3
 72
     8
 73
     4
 74
     0
 42
0.00000001
 43
0.00000001
 40
0.0
 40
0.0
 40
0.0
 40
0.0
 40
1.0
 40
1.0
 40
1.0
 40
1.0
 10
86.7827644605641
 20
143.9550548033026
 30
0.0
 10
86.69574643071574
 20
143.9555213680897
 30
0.0
 10
86.6127924043358
 20
143.9565613876658
 30
0.0
 10
86.53283934459606
 20
143.9575078365581
 30
0.0
  0
SPLINE
  5
A7
330
1F
100
AcDbEntity
  8
0
  6
Continuous
 62
     7
370
    15
100
AcDbSpline
210
0.0
220
0.0
230
1.0
 70
     8
 71
     3
 72
     8
 73
     4
 74
     0
 42
0.00000001
 43
0.00000001
 40
0.0
 40
0.0
 40
0.0
 40
0.0
 40
1.0
 40
1.0
 40
1.0
 40
1.0
 10
86.53283934459606
 20
79.46093743291793
 30
0.0
 10
86.61279240433633
 20
79.46188388181021
 30
0.0
 10
86.69574643071681
 20
79.46292390138633
 30
0.0
 10
86.78276446056579
 20
79.4633904661734
 30
0.0
  0
SPLINE
  5
A8
330
1F
100
AcDbEntity
  8
0
  6
Continuous
 62
     7
370
    15
100
AcDbSpline
210
0.0
220
0.0
230
1.0
 70
     8
 71
     3
 72
    10
 73
     6
 74
     0
 42
0.00000001
 43
0.00000001
 40
0.0
 40
0.0
 40
0.0
 40
0.0
 40
0.4999999999999989
 40
0.4999999999999989
 40
1.0
 40
1.0
 40
1.0
 40
1.0
 10
85.85939158629986
 20
80.38635653426161
 30
0.0
 10
85.94664200543333
 20
80.21428591340823
 30
0.0
 10
86.0569169808295
 20
80.0462168403448
 30
0.0
 10
86.28650095578733
 20
79.735646547655
 30
0.0
 10
86.40795107384797
 20
79.59193371098972
 30
0.0
 10
86.53283934459837
 20
79.46093743291802
 30
0.0
  0
SPLINE
  5
A9
330
1F
100
AcDbEntity
  8
0
  6
Continuous
 62
     7
370
    15
100
AcDbSpline
210
0.0
220
0.0
230
1.0
 70
     8
 71
     3
 72
     8
 73
     4
 74
     0
 42
0.00000001
 43
0.00000001
 40
0.0
 40
0.0
 40
0.0
 40
0.0
 40
1.0
 40
1.0
 40
1.0
 40
1.0
 10
151.520810323677
 20
150.6601853956249
 30
0.0
 10
151.9777366774765
 20
149.6442674259507
 30
0.0
 10
152.4289423192795
 20
148.6254715968595
 30
0.0
 10
152.8728393445984
 20
147.6046701408759
 30
0.0
  0
LINE
  5
AA
330
1F
100
AcDbEntity
  8
0
  6
Continuous
 62
     7
370
    15
100
AcDbLine
 10
152.8728393446
 20
147.6046701409
 30
0.0
 11
152.8728393446
 21
146.4234578272
 31
0.0
  0
SPLINE
  5
AB
330
1F
100
AcDbEntity
  8
0
  6
Continuous
 62
     7
370
    15
100
AcDbSpline
210
0.0
220
0.0
230
1.0
 70
     8
 71
     3
 72
    14
 73
    10
 74
     0
 42
0.00000001
 43
0.00000001
 40
0.0
 40
0.0
 40
0.0
 40
0.0
 40
0.25
 40
0.25
 40
0.5
 40
0.5
 40
0.75
 40
0.75
 40
1.0
 40
1.0
 40
1.0
 40
1.0
 10
152.8728393445983
 20
146.4234578272351
 30
0.0
 10
152.8728393445984
 20
146.2995909504459
 30
0.0
 10
152.8886984722259
 20
146.1753312736084
 30
0.0
 10
152.9520601177458
 20
145.9377229112025
 30
0.0
 10
153.0006498257952
 20
145.82094252645
 30
0.0
 10
153.1329354305701
 20
145.612139997841
 30
0.0
 10
153.2182602218306
 20
145.5176292942484
 30
0.0
 10
153.4251514701368
 20
145.3796724934461
 30
0.0
 10
153.5491194160268
 20
145.3377540478104
 30
0.0
 10
153.6728393445983
 20
145.3377540478104
 30
0.0
  0
LINE
  5
AC
330
1F
100
AcDbEntity
  8
0
  6
Continuous
 62
     7
370
    15
100
AcDbLine
 10
153.6728393446
 20
145.3377540478
 30
0.0
 11
155.8928393446
 21
145.3377540478
 31
0.0
  0
SPLINE
  5
AD
330
1F
100
AcDbEntity
  8
0
  6
Continuous
 62
     7
370
    15
100
AcDbSpline
210
0.0
220
0.0
230
1.0
 70
     8
 71
     3
 72
    12
 73
     8
 74
     0
 42
0.00000001
 43
0.00000001
 40
0.0
 40
0.0
 40
0.0
 40
0.0
 40
0.250000000000002
 40
0.250000000000002
 40
0.500000000000004
 40
0.500000000000004
 40
1.0
 40
1.0
 40
1.0
 40
1.0
 10
155.8928393445983
 20
145.3377540478105
 30
0.0
 10
156.0165402945783
 20
145.3377540478105
 30
0.0
 10
156.1406369068485
 20
145.379747659543
 30
0.0
 10
156.3472920699355
 20
145.5175429861874
 30
0.0
 10
156.4323328366624
 20
145.6115165846523
 30
0.0
 10
156.631811405136
 20
145.9263047908732
 30
0.0
 10
156.6928393445984
 20
146.1765437831008
 30
0.0
 10
156.6928393445984
 20
146.4234578272351
 30
0.0
  0
LINE
  5
AE
330
1F
100
AcDbEntity
  8
0
  6
Continuous
 62
     7
370
    15
100
AcDbLine
 10
156.6928393446
 20
146.4234578272
 30
0.0
 11
156.6928393446
 21
147.6046701409
 31
0.0
  0
SPLINE
  5
AF
330
1F
100
AcDbEntity
  8
0
  6
Continuous
 62
     7
370
    15
100
AcDbSpline
210
0.0
220
0.0
230
1.0
 70
     8
 71
     3
 72
     8
 73
     4
 74
     0
 42
0.00000001
 43
0.00000001
 40
0.0
 40
0.0
 40
0.0
 40
0.0
 40
1.0
 40
1.0
 40
1.0
 40
1.0
 10
156.6928393445984
 20
147.6046701408758
 30
0.0
 10
157.1369893556239
 20
148.6260533718275
 30
0.0
 10
157.5880636658818
 20
149.6445379085958
 30
0.0
 10
158.0448683655197
 20
150.6601853956249
 30
0.0
  0
LINE
  5
B0
330
1F
100
AcDbEntity
  8
0
  6
Continuous
 62
     7
370
    15
100
AcDbLine
 10
158.0448683655
 20
150.6601853956
 30
0.0
 11
162.7328393446
 21
150.6601853956
 31
0.0
  0
SPLINE
  5
B1
330
1F
100
AcDbEntity
  8
0
  6
Continuous
 62
     7
370
    15
100
AcDbSpline
210
0.0
220
0.0
230
1.0
 70
     8
 71
     3
 72
    16
 73
    12
 74
     0
 42
0.00000001
 43
0.00000001
 40
0.0
 40
0.0
 40
0.0
 40
0.0
 40
0.1249999999999978
 40
0.1249999999999978
 40
0.2499999999999955
 40
0.2499999999999955
 40
0.499999999999997
 40
0.499999999999997
 40
0.7499999999999984
 40
0.7499999999999984
 40
1.0
 40
1.0
 40
1.0
 40
1.0
 10
162.7328393445984
 20
150.6601853956249
 30
0.0
 10
162.8084770510095
 20
150.6601853956249
 30
0.0
 10
162.8847927154278
 20
150.64884039549
 30
0.0
 10
163.0292034533197
 20
150.6061878448515
 30
0.0
 10
163.0976499024281
 20
150.5752535201686
 30
0.0
 10
163.2925811550413
 20
150.4559971484011
 30
0.0
 10
163.4004223288222
 20
150.3458451347805
 30
0.0
 10
163.5691350770342
 20
150.0977090491224
 30
0.0
 10
163.6314994897577
 20
149.9573667251187
 30
0.0
 10
163.7128034142661
 20
149.6690950336301
 30
0.0
 10
163.7328393445984
 20
149.5182900606503
 30
0.0
 10
163.7328393445984
 20
149.367920169305
 30
0.0
  0
LINE
  5
B2
330
1F
100
AcDbEntity
  8
0
  6
Continuous
 62
     7
370
    15
100
AcDbLine
 10
163.7328393446
 20
149.3679201693
 30
0.0
 11
163.7328393446
 21
143.0592226347
 31
0.0
  0
SPLINE
  5
B3
330
1F
100
AcDbEntity
  8
0
  6
Continuous
 62
     7
370
    15
100
AcDbSpline
210
0.0
220
0.0
230
1.0
 70
     8
 71
     3
 72
     8
 73
     4
 74
     0
 42
0.00000001
 43
0.00000001
 40
0.0
 40
0.0
 40
0.0
 40
0.0
 40
1.0
 40
1.0
 40
1.0
 40
1.0
 10
152.8728393445984
 20
158.3064934954429
 30
0.0
 10
152.4225311089138
 20
159.1042086205565
 30
0.0
 10
151.9718372923902
 20
159.9017069202137
 30
0.0
 10
151.520810323677
 20
160.6990174904016
 30
0.0
  0
LINE
  5
B4
330
1F
100
AcDbEntity
  8
0
  6
Continuous
 62
     7
370
    15
100
AcDbLine
 10
152.8728393446
 20
147.6046701409
 30
0.0
 11
152.8728393446
 21
158.3064934954
 31
0.0
  0
SPLINE
  5
B5
330
1F
100
AcDbEntity
  8
0
  6
Continuous
 62
     7
370
    15
100
AcDbSpline
210
0.0
220
0.0
230
1.0
 70
     8
 71
     3
 72
    12
 73
     8
 74
     0
 42
0.00000001
 43
0.00000001
 40
0.0
 40
0.0
 40
0.0
 40
0.0
 40
0.4999999999999953
 40
0.4999999999999953
 40
0.7499999999999977
 40
0.7499999999999977
 40
1.0
 40
1.0
 40
1.0
 40
1.0
 10
163.7328393445984
 20
159.6779624555839
 30
0.0
 10
163.7328393445984
 20
159.9432318883503
 30
0.0
 10
163.6282326011119
 20
160.2057469940027
 30
0.0
 10
163.3515642493666
 20
160.4912846000399
 30
0.0
 10
163.2411989900146
 20
160.5676062169013
 30
0.0
 10
162.9971269413989
 20
160.6719483817415
 30
0.0
 10
162.8653744800671
 20
160.6990174904016
 30
0.0
 10
162.7328393445984
 20
160.6990174904016
 30
0.0
  0
LINE
  5
B6
330
1F
100
AcDbEntity
  8
0
  6
Continuous
 62
     7
370
    15
100
AcDbLine
 10
163.7328393446
 20
149.3679201693
 30
0.0
 11
163.7328393446
 21
159.6779624556
 31
0.0
  0
SPLINE
  5
B7
330
1F
100
AcDbEntity
  8
0
  6
Continuous
 62
     7
370
    15
100
AcDbSpline
210
0.0
220
0.0
230
1.0
 70
     8
 71
     3
 72
     8
 73
     4
 74
     0
 42
0.00000001
 43
0.00000001
 40
0.0
 40
0.0
 40
0.0
 40
0.0
 40
1.0
 40
1.0
 40
1.0
 40
1.0
 10
158.0448683655198
 20
160.6990174904016
 30
0.0
 10
157.5938413968065
 20
159.9017069202137
 30
0.0
 10
157.1431475802829
 20
159.1042086205565
 30
0.0
 10
156.6928393445984
 20
158.3064934954429
 30
0.0
  0
LINE
  5
B8
330
1F
100
AcDbEntity
  8
0
  6
Continuous
 62
     7
370
    15
100
AcDbLine
 10
158.0448683655
 20
150.6601853956
 30
0.0
 11
158.0448683655
 21
160.6990174904
 31
0.0
  0
LINE
  5
B9
330
1F
100
AcDbEntity
  8
0
  6
Continuous
 62
     7
370
    15
100
AcDbLine
 10
156.6928393446
 20
147.6046701409
 30
0.0
 11
156.6928393446
 21
158.3064934954
 31
0.0
  0
SPLINE
  5
BA
330
1F
100
AcDbEntity
  8
0
  6
Continuous
 62
     7
370
    15
100
AcDbSpline
210
0.0
220
0.0
230
1.0
 70
     8
 71
     3
 72
    10
 73
     6
 74
     0
 42
0.00000001
 43
0.00000001
 40
0.0
 40
0.0
 40
0.0
 40
0.0
 40
0.5
 40
0.5
 40
1.0
 40
1.0
 40
1.0
 40
1.0
 10
153.6728393445983
 20
156.5834983949105
 30
0.0
 10
153.460303030742
 20
156.5834983949105
 30
0.0
 10
153.250366859088
 20
156.6749109815406
 30
0.0
 10
152.9566597180768
 20
156.9796558474448
 30
0.0
 10
152.8728393445983
 20
157.1918108173535
 30
0.0
 10
152.8728393445984
 20
157.402773875586
 30
0.0
  0
SPLINE
  5
BB
330
1F
100
AcDbEntity
  8
0
  6
Continuous
 62
     7
370
    15
100
AcDbSpline
210
0.0
220
0.0
230
1.0
 70
     8
 71
     3
 72
    14
 73
    10
 74
     0
 42
0.00000001
 43
0.00000001
 40
0.0
 40
0.0
 40
0.0
 40
0.0
 40
0.25
 40
0.25
 40
0.5
 40
0.5
 40
0.75
 40
0.75
 40
1.0
 40
1.0
 40
1.0
 40
1.0
 10
156.6928393445984
 20
157.402773875586
 30
0.0
 10
156.6928393445984
 20
157.2964171818336
 30
0.0
 10
156.6724517884571
 20
157.1905766940735
 30
0.0
 10
156.5938174429956
 20
156.9940117805371
 30
0.0
 10
156.535086083357
 20
156.90284103825
 30
0.0
 10
156.3884771777544
 20
156.7509299492183
 30
0.0
 10
156.2990718577279
 20
156.6888611123988
 30
0.0
 10
156.1051811251275
 20
156.6055930646401
 30
0.0
 10
155.9986761352377
 20
156.5834983949104
 30
0.0
 10
155.8928393445984
 20
156.5834983949104
 30
0.0
  0
LINE
  5
BC
330
1F
100
AcDbEntity
  8
0
  6
Continuous
 62
     7
370
    15
100
AcDbLine
 10
162.7328393446
 20
160.6990174904
 30
0.0
 11
158.0448683655
 21
160.6990174904
 31
0.0
  0
LINE
  5
BD
330
1F
100
AcDbEntity
  8
0
  6
Continuous
 62
     7
370
    15
100
AcDbLine
 10
155.8928393446
 20
156.5834983949
 30
0.0
 11
153.6728393446
 21
156.5834983949
 31
0.0
  0
ARC
  5
BE
330
1F
100
AcDbEntity
  8
0
  6
Continuous
 62
     7
370
    15
100
AcDbCircle
 10
143.7822277088
 20
144.2205777023
 30
0.0
 40
11.50331509192584
100
AcDbArc
 50
77.8952585624
 51
101.953373475
  0
SPLINE
  5
BF
330
1F
100
AcDbEntity
  8
0
  6
Continuous
 62
     7
370
    15
100
AcDbSpline
210
0.0
220
0.0
230
1.0
 70
     8
 71
     3
 72
    39
 73
    35
 74
     0
 42
0.00000001
 43
0.00000001
 40
-0.0928098421166902
 40
-0.0617034306059489
 40
-0.0305299624238553
 40
0.0
 40
0.0305538645811395
 40
0.0617342229577176
 40
0.0928524521279978
 40
0.1239442732030762
 40
0.1551263163324501
 40
0.1867203328768996
 40
0.2185055218166871
 40
0.2499267493270275
 40
0.2813715591307644
 40
0.3132224564732229
 40
0.3448874983151726
 40
0.3761203570732813
 40
0.4072073710858624
 40
0.4382796783015734
 40
0.4694125787354123
 40
0.5000112827606751
 40
0.5306014508049114
 40
0.5617732316877302
 40
0.5928577352009974
 40
0.623962405247169
 40
0.6551724327592113
 40
0.6868187306053114
 40
0.718621203325204
 40
0.7500671669597426
 40
0.7814821074181861
 40
0.813306095893537
 40
0.84491723763931
 40
0.8761199144779173
 40
0.9071901578833097
 40
0.938296569394051
 40
0.9694700375761446
 40
0.9999999999999999
 40
1.030553864581139
 40
1.061734222957718
 40
1.092852452127998
 10
193.9457901556594
 20
105.7155410344845
 30
0.0
 10
192.7825327758731
 20
105.5967282281127
 30
0.0
 10
191.6192199019202
 20
105.7157608216088
 30
0.0
 10
190.5025812151153
 20
106.072975627702
 30
0.0
 10
189.4709150024059
 20
106.6340385217102
 30
0.0
 10
188.5760493218807
 20
107.3902529889662
 30
0.0
 10
187.8410149346681
 20
108.3102589778456
 30
0.0
 10
187.2967668361914
 20
109.3675549600161
 30
0.0
 10
186.9510530221495
 20
110.5134567954817
 30
0.0
 10
186.8366254852994
 20
111.7066842458919
 30
0.0
 10
186.9517039499653
 20
112.900659478932
 30
0.0
 10
187.2977216140807
 20
114.0485348191557
 30
0.0
 10
187.8421434309055
 20
115.1083923326535
 30
0.0
 10
188.5776686350138
 20
116.0299020219568
 30
0.0
 10
189.4721682692164
 20
116.7864938067865
 30
0.0
 10
190.5026050992783
 20
117.3473191784205
 30
0.0
 10
191.6190356738494
 20
117.7034433282166
 30
0.0
 10
192.7831183973568
 20
117.8215326735996
 30
0.0
 10
193.9476593069051
 20
117.7030908532089
 30
0.0
 10
195.0644543870777
 20
117.3463707526839
 30
0.0
 10
196.0955849336866
 20
116.785029277134
 30
0.0
 10
196.9898601050896
 20
116.0279917267202
 30
0.0
 10
197.7248133254009
 20
115.1064398765885
 30
0.0
 10
198.2685849392998
 20
114.0475004420145
 30
0.0
 10
198.6139650437506
 20
112.9003191996717
 30
0.0
 10
198.7290375902504
 20
111.7070453467804
 30
0.0
 10
198.6147042266886
 20
110.5133681292613
 30
0.0
 10
198.2685693194913
 20
109.3669258646461
 30
0.0
 10
197.7238580420104
 20
108.3087942738511
 30
0.0
 10
196.9883204798013
 20
107.3888955049985
 30
0.0
 10
196.0932580306089
 20
106.6331750648215
 30
0.0
 10
195.0619056504959
 20
106.0726308455854
 30
0.0
 10
193.9457901556594
 20
105.7155410344845
 30
0.0
 10
192.7825327758731
 20
105.5967282281127
 30
0.0
 10
191.6192199019202
 20
105.7157608216088
 30
0.0
  0
LINE
  5
C0
330
1F
100
AcDbEntity
  8
0
  6
Continuous
 62
     7
370
    15
100
AcDbLine
 10
200.8435443613
 20
89.2092226347
 30
0.0
 11
200.8435443613
 21
134.2092226347
 31
0.0
  0
LINE
  5
C1
330
1F
100
AcDbEntity
  8
0
  6
Continuous
 62
     7
370
    15
100
AcDbLine
 10
174.3742588276
 20
134.0911849043
 30
0.0
 11
174.5592659742
 21
134.0790145201
 31
0.0
  0
SPLINE
  5
C2
330
1F
100
AcDbEntity
  8
0
  6
Continuous
 62
     7
370
    15
100
AcDbSpline
210
0.0
220
0.0
230
1.0
 70
     8
 71
     3
 72
    17
 73
    13
 74
     0
 42
0.00000001
 43
0.00000001
 40
0.0
 40
0.0
 40
0.0
 40
0.0
 40
0.0518565134141311
 40
0.1408207661175016
 40
0.2339265456465248
 40
0.3367506410109582
 40
0.4506705262330876
 40
0.5725258599780573
 40
0.6968694018970106
 40
0.8176295799555835
 40
0.9277143619962377
 40
1.0
 40
1.0
 40
1.0
 40
1.0
 10
180.1905779152716
 20
134.2040747914946
 30
0.0
 10
180.1968289406248
 20
134.2048231900849
 30
0.0
 10
180.2138041308427
 20
134.2068555300151
 30
0.0
 10
179.8840539900677
 20
134.1671983620567
 30
0.0
 10
179.272956224123
 20
134.1038777649221
 30
0.0
 10
178.3690839716175
 20
134.0333314913732
 30
0.0
 10
177.2305359680483
 20
133.9867872637672
 30
0.0
 10
175.9651328017087
 20
133.9921531854735
 30
0.0
 10
174.7537040596335
 20
134.054732918498
 30
0.0
 10
173.8215100059346
 20
134.1396040288932
 30
0.0
 10
173.2913572988816
 20
134.2019323030636
 30
0.0
 10
173.274088624515
 20
134.2041663624181
 30
0.0
 10
173.2672438898055
 20
134.2050518700884
 30
0.0
  0
SPLINE
  5
C3
330
1F
100
AcDbEntity
  8
0
  6
Continuous
 62
     7
370
    15
100
AcDbSpline
210
0.0
220
0.0
230
1.0
 70
     8
 71
     3
 72
     9
 73
     5
 74
     0
 42
0.00000001
 43
0.00000001
 40
0.0
 40
0.0
 40
0.0
 40
0.0
 40
0.2556174946020374
 40
1.0
 40
1.0
 40
1.0
 40
1.0
 10
173.894064323765
 20
134.1361610744412
 30
0.0
 10
173.9256234226374
 20
134.1327387731855
 30
0.0
 10
174.0490856251036
 20
134.1193504045176
 30
0.0
 10
174.2354972638605
 20
134.1032040003197
 30
0.0
 10
174.3742588265536
 20
134.0911848995098
 30
0.0
  0
SPLINE
  5
C4
330
1F
100
AcDbEntity
  8
0
  6
Continuous
 62
     7
370
    15
100
AcDbSpline
210
0.0
220
0.0
230
1.0
 70
     8
 71
     3
 72
    70
 73
    66
 74
     0
 42
0.00000001
 43
0.00000001
 40
-0.03125
 40
-0.03125
 40
0.0
 40
0.0
 40
0.03125
 40
0.03125
 40
0.0625
 40
0.0625
 40
0.09375
 40
0.09375
 40
0.125
 40
0.125
 40
0.15625
 40
0.15625
 40
0.1875
 40
0.1875
 40
0.21875
 40
0.21875
 40
0.25
 40
0.25
 40
0.28125
 40
0.28125
 40
0.3125
 40
0.3125
 40
0.34375
 40
0.34375
 40
0.375
 40
0.375
 40
0.40625
 40
0.40625
 40
0.4375
 40
0.4375
 40
0.46875
 40
0.46875
 40
0.5
 40
0.5
 40
0.53125
 40
0.53125
 40
0.5625
 40
0.5625
 40
0.59375
 40
0.59375
 40
0.625
 40
0.625
 40
0.65625
 40
0.65625
 40
0.6875
 40
0.6875
 40
0.71875
 40
0.71875
 40
0.75
 40
0.75
 40
0.78125
 40
0.78125
 40
0.8125
 40
0.8125
 40
0.84375
 40
0.84375
 40
0.875
 40
0.875
 40
0.90625
 40
0.90625
 40
0.9375
 40
0.9375
 40
0.96875
 40
0.96875
 40
1.0
 40
1.0
 40
1.03125
 40
1.03125
 10
174.2051070950832
 20
113.8727995618757
 30
0.0
 10
174.5434105601182
 20
114.149020632991
 30
0.0
 10
174.7229313218552
 20
114.2688922293521
 30
0.0
 10
175.1008443435171
 20
114.4756060355811
 30
0.0
 10
175.3006500119737
 20
114.5628624284198
 30
0.0
 10
175.7131497564264
 20
114.7016994426349
 30
0.0
 10
175.9230494387024
 20
114.7526261656452
 30
0.0
 10
176.3498400545344
 20
114.8191548265119
 30
0.0
 10
176.5687443622224
 20
114.8346435022386
 30
0.0
 10
177.0028531699413
 20
114.8287188724068
 30
0.0
 10
177.2174863044906
 20
114.8077255218396
 30
0.0
 10
177.641958615984
 20
114.7299972935653
 30
0.0
 10
177.8538419787171
 20
114.6724205347067
 30
0.0
 10
178.2605380674574
 20
114.5228416257769
 30
0.0
 10
178.4552527985554
 20
114.4313883769004
 30
0.0
 10
178.8270729739547
 20
114.2143462882106
 30
0.0
 10
179.0060665076338
 20
114.0869971573837
 30
0.0
 10
179.332790658849
 20
113.8034987792545
 30
0.0
 10
179.4807828040684
 20
113.6479335345864
 30
0.0
 10
179.7443739290839
 20
113.3075450789849
 30
0.0
 10
179.8609977675232
 20
113.1199570552281
 30
0.0
 10
180.0472162703182
 20
112.7300570845883
 30
0.0
 10
180.1182235966211
 20
112.5269441863841
 30
0.0
 10
180.2130765046774
 20
112.1032566546413
 30
0.0
 10
180.2357793450273
 20
111.883706434101
 30
0.0
 10
180.2292742395804
 20
111.4517104365578
 30
0.0
 10
180.2001392127069
 20
111.233609717375
 30
0.0
 10
180.0925177315345
 20
110.8116842544714
 30
0.0
 10
180.0152306754081
 20
110.6096019784254
 30
0.0
 10
179.8161320254379
 20
110.2222340894237
 30
0.0
 10
179.6951617952666
 20
110.0395948633776
 30
0.0
 10
179.4210315975504
 20
109.7050455301511
 30
0.0
 10
179.2651802457847
 20
109.5500586371164
 30
0.0
 10
178.9297238734375
 20
109.2748850917731
 30
0.0
 10
178.7504396476678
 20
109.1542668266
 30
0.0
 10
178.3699056568343
 20
108.945123664129
 30
0.0
 10
178.1687059176964
 20
108.8571538912057
 30
0.0
 10
177.7591550460714
 20
108.7186509064297
 30
0.0
 10
177.5490485750033
 20
108.667074080393
 30
0.0
 10
177.1181066219949
 20
108.5993947307561
 30
0.0
 10
176.9003833510625
 20
108.5840129476266
 30
0.0
 10
176.4685598287519
 20
108.5893953187433
 30
0.0
 10
176.253196873556
 20
108.609947910676
 30
0.0
 10
175.8236148366348
 20
108.6883243145291
 30
0.0
 10
175.6137876815949
 20
108.7455064428728
 30
0.0
 10
175.2092509433084
 20
108.8938956143244
 30
0.0
 10
175.0136392023233
 20
108.9852380628292
 30
0.0
 10
174.636786410974
 20
109.2051042989491
 30
0.0
 10
174.4601171162668
 20
109.3311705153396
 30
0.0
 10
174.135256350837
 20
109.6127323789176
 30
0.0
 10
173.9862225919918
 20
109.7686517532642
 30
0.0
 10
173.7183851010206
 20
110.1148181063864
 30
0.0
 10
173.6047250613485
 20
110.2985311438625
 30
0.0
 10
173.41910665441
 20
110.6869044524384
 30
0.0
 10
173.3464560090016
 20
110.8945830335613
 30
0.0
 10
173.2518933276374
 20
111.3197607519153
 30
0.0
 10
173.2298034864208
 20
111.5346761225216
 30
0.0
 10
173.2365372017665
 20
111.9692125296976
 30
0.0
 10
173.2662744902749
 20
112.188533364267
 30
0.0
 10
173.3737345841357
 20
112.6081836520963
 30
0.0
 10
173.4525749481506
 20
112.8138263885893
 30
0.0
 10
173.6523170775789
 20
113.2007353893984
 30
0.0
 10
173.7720415743152
 20
113.3811748797033
 30
0.0
 10
174.0486406000012
 20
113.7178003265027
 30
0.0
 10
174.2051070950832
 20
113.8727995618757
 30
0.0
 10
174.5434105601182
 20
114.149020632991
 30
0.0
  0
LINE
  5
C5
330
1F
100
AcDbEntity
  8
0
  6
Continuous
 62
     7
370
    15
100
AcDbLine
 10
174.3742588276
 20
89.3272603652
 30
0.0
 11
174.2695557373
 21
89.3171722691
 31
0.0
  0
SPLINE
  5
C6
330
1F
100
AcDbEntity
  8
0
  6
Continuous
 62
     7
370
    15
100
AcDbSpline
210
0.0
220
0.0
230
1.0
 70
     8
 71
     3
 72
    17
 73
    13
 74
     0
 42
0.00000001
 43
0.00000001
 40
0.0
 40
0.0
 40
0.0
 40
0.0
 40
0.0498253160967428
 40
0.1387859158909019
 40
0.2317191745991055
 40
0.3342859166087015
 40
0.4479703915026829
 40
0.5697006600926443
 40
0.6940491888771386
 40
0.8149686309519604
 40
0.9253602706180113
 40
1.0
 40
1.0
 40
1.0
 40
1.0
 10
173.2755930816262
 20
89.21443105870402
 30
0.0
 10
173.2684014366211
 20
89.21356588295063
 30
0.0
 10
173.2483694706052
 20
89.21115597933644
 30
0.0
 10
173.5709936971959
 20
89.2500311405096
 30
0.0
 10
174.1752105763431
 20
89.312922396686
 30
0.0
 10
175.0730925908749
 20
89.38365019802238
 30
0.0
 10
176.2070380703004
 20
89.43108849711548
 30
0.0
 10
177.4714656972836
 20
89.42710327920031
 30
0.0
 10
178.6864119483596
 20
89.36560044440046
 30
0.0
 10
179.6271672372977
 20
89.28067563842525
 30
0.0
 10
180.1692540123055
 20
89.21715005370073
 30
0.0
 10
180.1914327873966
 20
89.21430264084412
 30
0.0
 10
180.2003794745413
 20
89.21315402411956
 30
0.0
  0
LINE
  5
C7
330
1F
100
AcDbEntity
  8
0
  6
Continuous
 62
     7
370
    15
100
AcDbLine
 10
174.822158953
 20
89.3587185606
 30
0.0
 11
174.3742588269
 21
89.32726037
 31
0.0
  0
CIRCLE
  5
C8
330
1F
100
AcDbEntity
  8
0
  6
Continuous
 62
     7
370
    15
100
AcDbCircle
 10
176.7328393446
 20
111.7092226347
 30
0.0
 40
2.5
  0
LINE
  5
C9
330
1F
100
AcDbEntity
  8
0
  6
Continuous
 62
     7
370
    15
100
AcDbLine
 10
86.5328393446
 20
79.4592226347
 30
0.0
 11
86.5328393446
 21
79.4609374329
 31
0.0
  0
LINE
  5
CA
330
1F
100
AcDbEntity
  8
0
  6
Continuous
 62
     7
370
    15
100
AcDbLine
 10
214.7828393446
 20
96.9833631564
 30
0.0
 11
214.7828393446
 21
126.4350821131
 31
0.0
  0
LINE
  5
CB
330
1F
100
AcDbEntity
  8
0
  6
Continuous
 62
     7
370
    15
100
AcDbLine
 10
86.5328393446
 20
143.9592226347
 30
0.0
 11
86.5328393446
 21
143.9575078366
 31
0.0
  0
CIRCLE
  5
CC
330
1F
100
AcDbEntity
  8
0
  6
HIDDEN
 62
     7
370
     0
100
AcDbCircle
 10
192.7828393446
 20
111.7092226347
 30
0.0
 40
5.999999999999992
  0
CIRCLE
  5
CD
330
1F
100
AcDbEntity
  8
0
  6
HIDDEN
 62
     7
370
     0
100
AcDbCircle
 10
192.7828393446
 20
111.7092226347
 30
0.0
 40
2.750000000000015
  0
CIRCLE
  5
CE
330
1F
100
AcDbEntity
  8
0
  6
HIDDEN
 62
     7
370
     0
100
AcDbCircle
 10
192.7828393446
 20
111.7092226347
 30
0.0
 40
4.00000000000003
  0
LWPOLYLINE
  5
CF
330
1F
100
AcDbEntity
  8
0
  6
HIDDEN
 62
     7
370
     0
100
AcDbPolyline
 90
        6
 70
   128
 43
0.0
 10
214.7119314855
 20
118.6643978658
 10
214.7242486016
 20
118.6331063696
 10
214.741002914
 20
118.7858227512
 10
214.7596437304
 20
119.0992973259
 10
214.7773331554
 20
119.5258064314
 10
214.7828393446
 20
119.6917339122
  0
ARC
  5
D0
330
1F
100
AcDbEntity
  8
0
  6
HIDDEN
 62
     7
370
     0
100
AcDbCircle
 10
235.5981472976
 20
119.2386966425
 30
0.0
 40
20.89410993644346
100
AcDbArc
 50
175.0222754999
 51
181.5750391284
  0
LWPOLYLINE
  5
D1
330
1F
100
AcDbEntity
  8
0
  6
HIDDEN
 62
     7
370
     0
100
AcDbPolyline
 90
       18
 70
   128
 43
0.0
 10
214.5405725907
 20
118.398083885
 10
214.5546532177
 20
118.3554842561
 10
214.5737200101
 20
118.5142227529
 10
214.5951978921
 20
118.8528608619
 10
214.6161861565
 20
119.32566363
 10
214.6338502221
 20
119.8687764234
 10
214.6458044588
 20
120.40884885
 10
214.6504343808
 20
120.8729411358
 10
214.6471146913
 20
121.198375046
 10
214.636293733
 20
121.3411989278
 10
214.6194329362
 20
121.2821236245
 10
214.5988094448
 20
121.0291275832
 10
214.5772085758
 20
120.6163793212
 10
214.5575476461
 20
120.0996227783
 10
214.5424819733
 20
119.5486487891
 10
214.5340462599
 20
119.037869444
 10
214.5333797958
 20
118.6362683237
 10
214.5405725907
 20
118.398083885
  0
LWPOLYLINE
  5
D2
330
1F
100
AcDbEntity
  8
0
  6
HIDDEN
 62
     7
370
     0
100
AcDbPolyline
 90
       18
 70
   128
 43
0.0
 10
209.2066347868
 20
118.5462729511
 10
209.2207154138
 20
118.5036733222
 10
209.2397822063
 20
118.662411819
 10
209.2612600882
 20
119.001049928
 10
209.2822483527
 20
119.4738526961
 10
209.2999124182
 20
120.0169654895
 10
209.3118666549
 20
120.5570379161
 10
209.3164965769
 20
121.0211302019
 10
209.3131768874
 20
121.3465641121
 10
209.3023559291
 20
121.4893879939
 10
209.2854951323
 20
121.4303126906
 10
209.2648716409
 20
121.1773166494
 10
209.2432707719
 20
120.7645683873
 10
209.2236098422
 20
120.2478118444
 10
209.2085441694
 20
119.6968378553
 10
209.200108456
 20
119.1860585101
 10
209.1994419919
 20
118.7844573898
 10
209.2066347868
 20
118.5462729511
  0
LWPOLYLINE
  5
D3
330
1F
100
AcDbEntity
  8
0
  6
HIDDEN
 62
     7
370
     0
100
AcDbPolyline
 90
       17
 70
   128
 43
0.0
 10
208.7240202675
 20
119.0428802468
 10
208.7341204038
 20
119.0172209633
 10
208.7478590773
 20
119.1424496485
 10
208.7631446996
 20
119.3995013702
 10
208.7776501732
 20
119.7492423341
 10
208.7891671713
 20
120.1384276488
 10
208.7959423353
 20
120.507807378
 10
208.7969442079
 20
120.8011468065
 10
208.7920202631
 20
120.9737876654
 10
208.7819201269
 20
120.9994469489
 10
208.7681814534
 20
120.8742182637
 10
208.7528958311
 20
120.6171665419
 10
208.7383903575
 20
120.267425578
 10
208.7268733594
 20
119.8782402634
 10
208.7200981954
 20
119.5088605341
 10
208.7190963227
 20
119.2155211056
 10
208.7240202675
 20
119.0428802468
  0
LINE
  5
D4
330
1F
100
AcDbEntity
  8
0
  6
HIDDEN
 62
     7
370
     0
100
AcDbLine
 10
214.7533944828
 20
120.4541411001
 30
0.0
 11
214.7828393446
 21
120.6778761028
 31
0.0
  0
LINE
  5
D5
330
1F
100
AcDbEntity
  8
0
  6
HIDDEN
 62
     7
370
     0
100
AcDbLine
 10
214.723949621
 20
119.6180336616
 30
0.0
 11
214.7533944828
 21
120.4541411001
 31
0.0
  0
LINE
  5
D6
330
1F
100
AcDbEntity
  8
0
  6
HIDDEN
 62
     7
370
     0
100
AcDbLine
 10
214.723949621
 20
119.6180336616
 30
0.0
 11
214.723949621
 21
119.0056612259
 31
0.0
  0
LINE
  5
D7
330
1F
100
AcDbEntity
  8
0
  6
HIDDEN
 62
     7
370
     0
100
AcDbLine
 10
214.7533944828
 20
119.2293962287
 30
0.0
 11
214.723949621
 21
119.0056612259
 31
0.0
  0
LINE
  5
D8
330
1F
100
AcDbEntity
  8
0
  6
HIDDEN
 62
     7
370
     0
100
AcDbLine
 10
214.7533944828
 20
119.2293962287
 30
0.0
 11
214.7828393446
 21
120.0655036671
 31
0.0
  0
LINE
  5
D9
330
1F
100
AcDbEntity
  8
0
  6
HIDDEN
 62
     7
370
     0
100
AcDbLine
 10
212.7254915485
 20
119.6735554255
 30
0.0
 11
212.7549364103
 21
120.509662864
 31
0.0
  0
LINE
  5
DA
330
1F
100
AcDbEntity
  8
0
  6
HIDDEN
 62
     7
370
     0
100
AcDbLine
 10
212.7549364103
 20
120.509662864
 30
0.0
 11
212.7843812721
 21
120.7333978667
 31
0.0
  0
LINE
  5
DB
330
1F
100
AcDbEntity
  8
0
  6
HIDDEN
 62
     7
370
     0
100
AcDbLine
 10
212.7843812721
 20
120.121025431
 30
0.0
 11
212.7843812721
 21
120.7333978667
 31
0.0
  0
LINE
  5
DC
330
1F
100
AcDbEntity
  8
0
  6
HIDDEN
 62
     7
370
     0
100
AcDbLine
 10
212.7549364103
 20
119.2849179926
 30
0.0
 11
212.7843812721
 21
120.121025431
 31
0.0
  0
LINE
  5
DD
330
1F
100
AcDbEntity
  8
0
  6
HIDDEN
 62
     7
370
     0
100
AcDbLine
 10
212.7549364103
 20
119.2849179926
 30
0.0
 11
212.7254915485
 21
119.0611829898
 31
0.0
  0
LINE
  5
DE
330
1F
100
AcDbEntity
  8
0
  6
HIDDEN
 62
     7
370
     0
100
AcDbLine
 10
212.7254915485
 20
119.6735554255
 30
0.0
 11
212.7254915485
 21
119.0611829898
 31
0.0
  0
LINE
  5
DF
330
1F
100
AcDbEntity
  8
0
  6
HIDDEN
 62
     7
370
     0
100
AcDbLine
 10
212.7254915485
 20
119.6735554255
 30
0.0
 11
214.723949621
 21
119.6180336616
 31
0.0
  0
LINE
  5
E0
330
1F
100
AcDbEntity
  8
0
  6
HIDDEN
 62
     7
370
     0
100
AcDbLine
 10
212.7549364103
 20
120.509662864
 30
0.0
 11
214.7533944828
 21
120.4541411001
 31
0.0
  0
LINE
  5
E1
330
1F
100
AcDbEntity
  8
0
  6
HIDDEN
 62
     7
370
     0
100
AcDbLine
 10
212.7549364103
 20
119.2849179926
 30
0.0
 11
214.7533944828
 21
119.2293962287
 31
0.0
  0
LINE
  5
E2
330
1F
100
AcDbEntity
  8
0
  6
HIDDEN
 62
     7
370
     0
100
AcDbLine
 10
212.7254915485
 20
119.0611829898
 30
0.0
 11
214.723949621
 21
119.0056612259
 31
0.0
  0
LINE
  5
E3
330
1F
100
AcDbEntity
  8
0
  6
HIDDEN
 62
     7
370
     0
100
AcDbLine
 10
212.7843812721
 20
120.121025431
 30
0.0
 11
214.7828393446
 21
120.0655036671
 31
0.0
  0
LINE
  5
E4
330
1F
100
AcDbEntity
  8
0
  6
HIDDEN
 62
     7
370
     0
100
AcDbLine
 10
212.7843812721
 20
120.7333978667
 30
0.0
 11
214.7828393446
 21
120.6778761028
 31
0.0
  0
LWPOLYLINE
  5
E5
330
1F
100
AcDbEntity
  8
0
  6
HIDDEN
 62
     7
370
     0
100
AcDbPolyline
 90
       18
 70
   128
 43
0.0
 10
209.3165245071
 20
102.3649676746
 10
209.2952510852
 20
102.8194509407
 10
209.2768507568
 20
103.3558017569
 10
209.2638085883
 20
103.9015829734
 10
209.2578859966
 20
104.3830838126
 10
209.2598828608
 20
104.7352749181
 10
209.2695294931
 20
104.9105909296
 10
209.2855230625
 20
104.8853544483
 10
209.3057035488
 20
104.6629738007
 10
209.3273454654
 20
104.2734827256
 10
209.3475259517
 20
103.769484151
 10
209.3635195211
 20
103.219045877
 10
209.3731661534
 20
102.6965076427
 10
209.3751630176
 20
102.2724411322
 10
209.3692404259
 20
102.0041188774
 10
209.3561982574
 20
101.9277792857
 10
209.337797929
 20
102.053732442
 10
209.3165245071
 20
102.3649676746
  0
LWPOLYLINE
  5
E6
330
1F
100
AcDbEntity
  8
0
  6
HIDDEN
 62
     7
370
     0
100
AcDbPolyline
 90
       17
 70
   128
 43
0.0
 10
208.816909989
 20
102.7046406242
 10
208.8018859079
 20
103.0288553518
 10
208.789149107
 20
103.4113619235
 10
208.7806386487
 20
103.7939271814
 10
208.7776501732
 20
104.1183090329
 10
208.7806386487
 20
104.3351232816
 10
208.789149107
 20
104.4113619235
 10
208.8018859079
 20
104.3354183166
 10
208.816909989
 20
104.1188541866
 10
208.83193407
 20
103.7946394591
 10
208.8446708709
 20
103.4121328873
 10
208.8531813292
 20
103.0295676294
 10
208.8561698047
 20
102.7051857779
 10
208.8531813292
 20
102.4883715292
 10
208.8446708709
 20
102.4121328873
 10
208.83193407
 20
102.4880764942
 10
208.816909989
 20
102.7046406242
  0
LWPOLYLINE
  5
E7
330
1F
100
AcDbEntity
  8
0
  6
HIDDEN
 62
     7
370
     0
100
AcDbPolyline
 90
       18
 70
   128
 43
0.0
 10
214.650462311
 20
102.5131567407
 10
214.6291888891
 20
102.9676400068
 10
214.6107885607
 20
103.503990823
 10
214.5977463921
 20
104.0497720395
 10
214.5918238005
 20
104.5312728787
 10
214.5938206647
 20
104.8834639842
 10
214.603467297
 20
105.0587799957
 10
214.6194608664
 20
105.0335435144
 10
214.6396413527
 20
104.8111628668
 10
214.6612832693
 20
104.4216717917
 10
214.6814637556
 20
103.9176732171
 10
214.697457325
 20
103.3672349431
 10
214.7071039573
 20
102.8446967089
 10
214.7091008214
 20
102.4206301983
 10
214.7031782298
 20
102.1523079435
 10
214.6901360613
 20
102.0759683518
 10
214.6717357329
 20
102.2019215081
 10
214.650462311
 20
102.5131567407
  0
LWPOLYLINE
  5
E8
330
1F
100
AcDbEntity
  8
0
  6
HIDDEN
 62
     7
370
     0
100
AcDbPolyline
 90
        8
 70
   128
 43
0.0
 10
214.8122842064
 20
102.7159959775
 10
214.7939623396
 20
103.1113758377
 10
214.7784298109
 20
103.577842602
 10
214.768051307
 20
104.044380934
 10
214.7644068611
 20
104.4399646018
 10
214.768051307
 20
104.7043695781
 10
214.7784298109
 20
104.797342602
 10
214.7828393446
 20
104.7881898906
  0
LWPOLYLINE
  5
E9
330
1F
100
AcDbEntity
  8
0
  6
HIDDEN
 62
     7
370
     0
100
AcDbPolyline
 90
        4
 70
   128
 43
0.0
 10
214.8477402802
 20
102.3607393907
 10
214.846138602
 20
102.3592827923
 10
214.8306060733
 20
102.4518960209
 10
214.8122842064
 20
102.7159959775
  0
LINE
  5
EA
330
1F
100
AcDbEntity
  8
0
  6
HIDDEN
 62
     7
370
     0
100
AcDbLine
 10
212.8432709958
 20
103.2990559304
 30
0.0
 11
212.8138261339
 21
104.1351633689
 31
0.0
  0
LINE
  5
EB
330
1F
100
AcDbEntity
  8
0
  6
HIDDEN
 62
     7
370
     0
100
AcDbLine
 10
214.8417290682
 20
103.3545776944
 30
0.0
 11
214.8122842064
 21
104.1906851328
 31
0.0
  0
LINE
  5
EC
330
1F
100
AcDbEntity
  8
0
  6
HIDDEN
 62
     7
370
     0
100
AcDbLine
 10
212.8432709958
 20
103.2990559304
 30
0.0
 11
214.8417290682
 21
103.3545776944
 31
0.0
  0
LINE
  5
ED
330
1F
100
AcDbEntity
  8
0
  6
HIDDEN
 62
     7
370
     0
100
AcDbLine
 10
212.8432709958
 20
102.6866834948
 30
0.0
 11
212.8432709958
 21
103.2990559304
 31
0.0
  0
LINE
  5
EE
330
1F
100
AcDbEntity
  8
0
  6
HIDDEN
 62
     7
370
     0
100
AcDbLine
 10
214.8417290682
 20
102.7422052587
 30
0.0
 11
214.8417290682
 21
103.3545776944
 31
0.0
  0
LINE
  5
EF
330
1F
100
AcDbEntity
  8
0
  6
HIDDEN
 62
     7
370
     0
100
AcDbLine
 10
212.8138261339
 20
104.1351633689
 30
0.0
 11
214.8122842064
 21
104.1906851328
 31
0.0
  0
LINE
  5
F0
330
1F
100
AcDbEntity
  8
0
  6
HIDDEN
 62
     7
370
     0
100
AcDbLine
 10
212.7843812721
 20
104.3588983717
 30
0.0
 11
212.8138261339
 21
104.1351633689
 31
0.0
  0
LINE
  5
F1
330
1F
100
AcDbEntity
  8
0
  6
HIDDEN
 62
     7
370
     0
100
AcDbLine
 10
214.7828393446
 20
104.4144201356
 30
0.0
 11
214.8122842064
 21
104.1906851328
 31
0.0
  0
LINE
  5
F2
330
1F
100
AcDbEntity
  8
0
  6
HIDDEN
 62
     7
370
     0
100
AcDbLine
 10
212.8138261339
 20
102.9104184975
 30
0.0
 11
214.8122842064
 21
102.9659402614
 31
0.0
  0
LINE
  5
F3
330
1F
100
AcDbEntity
  8
0
  6
HIDDEN
 62
     7
370
     0
100
AcDbLine
 10
212.8432709958
 20
102.6866834948
 30
0.0
 11
214.8417290682
 21
102.7422052587
 31
0.0
  0
LINE
  5
F4
330
1F
100
AcDbEntity
  8
0
  6
HIDDEN
 62
     7
370
     0
100
AcDbLine
 10
212.8432709958
 20
102.6866834948
 30
0.0
 11
212.8138261339
 21
102.9104184975
 31
0.0
  0
LINE
  5
F5
330
1F
100
AcDbEntity
  8
0
  6
HIDDEN
 62
     7
370
     0
100
AcDbLine
 10
214.8417290682
 20
102.7422052587
 30
0.0
 11
214.8122842064
 21
102.9659402614
 31
0.0
  0
LINE
  5
F6
330
1F
100
AcDbEntity
  8
0
  6
HIDDEN
 62
     7
370
     0
100
AcDbLine
 10
212.7843812721
 20
103.746525936
 30
0.0
 11
214.7828393446
 21
103.8020476999
 31
0.0
  0
LINE
  5
F7
330
1F
100
AcDbEntity
  8
0
  6
HIDDEN
 62
     7
370
     0
100
AcDbLine
 10
212.7843812721
 20
104.3588983717
 30
0.0
 11
214.7828393446
 21
104.4144201356
 31
0.0
  0
LINE
  5
F8
330
1F
100
AcDbEntity
  8
0
  6
HIDDEN
 62
     7
370
     0
100
AcDbLine
 10
212.7843812721
 20
103.746525936
 30
0.0
 11
212.7843812721
 21
104.3588983717
 31
0.0
  0
LINE
  5
F9
330
1F
100
AcDbEntity
  8
0
  6
HIDDEN
 62
     7
370
     0
100
AcDbLine
 10
212.7843812721
 20
103.746525936
 30
0.0
 11
212.8138261339
 21
102.9104184975
 31
0.0
  0
LINE
  5
FA
330
1F
100
AcDbEntity
  8
0
  6
HIDDEN
 62
     7
370
     0
100
AcDbLine
 10
214.7828393446
 20
103.8020476999
 30
0.0
 11
214.8122842064
 21
102.9659402614
 31
0.0
  0
LINE
  5
FB
330
1F
100
AcDbEntity
  8
0
  6
HIDDEN
 62
     7
370
     0
100
AcDbLine
 10
151.5208103237
 20
150.6601853956
 30
0.0
 11
151.5208103237
 21
143.0592226347
 31
0.0
  0
SPLINE
  5
FC
330
1F
100
AcDbEntity
  8
0
  6
HIDDEN
 62
     7
370
     0
100
AcDbSpline
210
0.0
220
0.0
230
1.0
 70
     8
 71
     3
 72
    80
 73
    76
 74
     0
 42
0.00000001
 43
0.00000001
 40
-0.0312500000000003
 40
-0.0312500000000003
 40
0.0
 40
0.0
 40
0.03125
 40
0.03125
 40
0.046875
 40
0.046875
 40
0.0624999999999999
 40
0.0624999999999999
 40
0.0937499999999998
 40
0.0937499999999998
 40
0.1249999999999996
 40
0.1249999999999996
 40
0.1562499999999995
 40
0.1562499999999995
 40
0.1874999999999994
 40
0.1874999999999994
 40
0.2187499999999993
 40
0.2187499999999993
 40
0.2499999999999992
 40
0.2499999999999992
 40
0.2812499999999991
 40
0.2812499999999991
 40
0.3124999999999989
 40
0.3124999999999989
 40
0.3281249999999988
 40
0.3281249999999988
 40
0.3437499999999986
 40
0.3437499999999986
 40
0.3749999999999983
 40
0.3749999999999983
 40
0.4062499999999981
 40
0.4062499999999981
 40
0.4218749999999979
 40
0.4218749999999979
 40
0.4374999999999978
 40
0.4374999999999978
 40
0.4687499999999977
 40
0.4687499999999977
 40
0.4999999999999975
 40
0.4999999999999975
 40
0.5312499999999972
 40
0.5312499999999972
 40
0.562499999999997
 40
0.562499999999997
 40
0.5937499999999968
 40
0.5937499999999968
 40
0.6249999999999966
 40
0.6249999999999966
 40
0.6562499999999964
 40
0.6562499999999964
 40
0.6874999999999962
 40
0.6874999999999962
 40
0.7031249999999962
 40
0.7031249999999962
 40
0.7187499999999963
 40
0.7187499999999963
 40
0.7499999999999968
 40
0.7499999999999968
 40
0.7812499999999972
 40
0.7812499999999972
 40
0.7968749999999976
 40
0.7968749999999976
 40
0.8124999999999978
 40
0.8124999999999978
 40
0.8437499999999981
 40
0.8437499999999981
 40
0.8749999999999984
 40
0.8749999999999984
 40
0.9062499999999989
 40
0.9062499999999989
 40
0.9374999999999992
 40
0.9374999999999992
 40
0.9687499999999997
 40
0.9687499999999997
 40
1.0
 40
1.0
 40
1.03125
 40
1.03125
 10
144.1133846573747
 20
160.568771891216
 30
0.0
 10
143.452294031822
 20
160.568771891216
 30
0.0
 10
143.1273139025704
 20
160.5618737453892
 30
0.0
 10
142.647840491324
 20
160.5413473174087
 30
0.0
 10
142.4893586734832
 20
160.5327910903211
 30
0.0
 10
142.1751391409789
 20
160.5120647151035
 30
0.0
 10
142.0190188572985
 20
160.4998374148971
 30
0.0
 10
141.5649648283419
 20
160.4582681210679
 30
0.0
 10
141.2778614454021
 20
160.4239238359701
 30
0.0
 10
140.7345068893751
 20
160.3405997116478
 30
0.0
 10
140.4774032781695
 20
160.2911614888733
 30
0.0
 10
140.0164970232307
 20
160.1797817591134
 30
0.0
 10
139.8095993140158
 20
160.1174872456012
 30
0.0
 10
139.4440740000236
 20
159.9775576027303
 30
0.0
 10
139.2888684778976
 20
159.9009417049812
 30
0.0
 10
139.0394380912979
 20
159.7369830851255
 30
0.0
 10
138.9433481355127
 20
159.6484262310297
 30
0.0
 10
138.8148292863192
 20
159.460945548924
 30
0.0
 10
138.7830184161414
 20
159.3637090874695
 30
0.0
 10
138.7826617663681
 20
159.1620764481424
 30
0.0
 10
138.8151590185652
 20
159.0565276563043
 30
0.0
 10
138.9427844922797
 20
158.8464128736158
 30
0.0
 10
139.0372128933315
 20
158.7413473656469
 30
0.0
 10
139.2250737133171
 20
158.5844696583958
 30
0.0
 10
139.2959017121203
 20
158.5320359246901
 30
0.0
 10
139.4506236040856
 20
158.4295974790603
 30
0.0
 10
139.534600074269
 20
158.3794497504085
 30
0.0
 10
139.8059237439134
 20
158.232433793975
 30
0.0
 10
140.0124729625157
 20
158.1389459735405
 30
0.0
 10
140.4790831027048
 20
157.9631591159262
 30
0.0
 10
140.7314486723302
 20
157.8837806408425
 30
0.0
 10
141.1373500140089
 20
157.7782982033484
 30
0.0
 10
141.2772506314864
 20
157.7454126385083
 30
0.0
 10
141.5664745667333
 20
157.6844971592796
 30
0.0
 10
141.7163140230226
 20
157.6564165876372
 30
0.0
 10
142.1704305926334
 20
157.5816145455944
 30
0.0
 10
142.4820818113703
 20
157.5435764873483
 30
0.0
 10
143.1230782762826
 20
157.4919645608242
 30
0.0
 10
143.4546059042348
 20
157.4786506273027
 30
0.0
 10
144.1073969493063
 20
157.4785535409746
 30
0.0
 10
144.4319331543381
 20
157.4913416261356
 30
0.0
 10
145.0772026037545
 20
157.5428318157316
 30
0.0
 10
145.3929456099172
 20
157.5813563950517
 30
0.0
 10
145.9948349049009
 20
157.6802589579097
 30
0.0
 10
146.2855841357124
 20
157.7413630558347
 30
0.0
 10
146.8324959273969
 20
157.8831724889454
 30
0.0
 10
147.0842732912338
 20
157.9625069735246
 30
0.0
 10
147.5456612838549
 20
158.1358857181861
 30
0.0
 10
147.756930563453
 20
158.2310456629401
 30
0.0
 10
148.1202349158292
 20
158.427618186316
 30
0.0
 10
148.274041564272
 20
158.5293744147224
 30
0.0
 10
148.4626610338694
 20
158.6861603775079
 30
0.0
 10
148.5186915200785
 20
158.7394144112579
 30
0.0
 10
148.6142652818147
 20
158.8452189728107
 30
0.0
 10
148.6540281988397
 20
158.8978720371662
 30
0.0
 10
148.7497999491518
 20
159.0549457566254
 30
0.0
 10
148.7825227882779
 20
159.1584707919525
 30
0.0
 10
148.783151374607
 20
159.3626855261796
 30
0.0
 10
148.7509652298722
 20
159.4601893637643
 30
0.0
 10
148.6560545280167
 20
159.599516414116
 30
0.0
 10
148.6165877446177
 20
159.6448331456205
 30
0.0
 10
148.5216577458968
 20
159.7332729666093
 30
0.0
 10
148.4659009181334
 20
159.7765272170693
 30
0.0
 10
148.2779608001636
 20
159.9004186916592
 30
0.0
 10
148.1245993304474
 20
159.9761209824333
 30
0.0
 10
147.762335095567
 20
160.1153753538915
 30
0.0
 10
147.5514866221011
 20
160.1791371954202
 30
0.0
 10
147.0908166517822
 20
160.2906340348881
 30
0.0
 10
146.8394422721984
 20
160.3391601072047
 30
0.0
 10
146.2935343853002
 20
160.4232140905852
 30
0.0
 10
146.002711810649
 20
160.4580126442519
 30
0.0
 10
145.401385195869
 20
160.5132091090157
 30
0.0
 10
145.0868666112566
 20
160.5340269577696
 30
0.0
 10
144.4402851551367
 20
160.5618742906803
 30
0.0
 10
144.1133846573747
 20
160.568771891216
 30
0.0
 10
143.452294031822
 20
160.568771891216
 30
0.0
  0
LINE
  5
FD
330
1F
100
AcDbEntity
  8
0
  6
HIDDEN
 62
     7
370
     0
100
AcDbLine
 10
115.196264094
 20
74.9734162725
 30
0.0
 11
114.9263083932
 21
74.9494901732
 31
0.0
  0
SPLINE
  5
FE
330
1F
100
AcDbEntity
  8
0
  6
HIDDEN
 62
     7
370
     0
100
AcDbSpline
210
0.0
220
0.0
230
1.0
 70
     8
 71
     3
 72
    13
 73
     9
 74
     0
 42
0.00000001
 43
0.00000001
 40
0.0
 40
0.0
 40
0.0
 40
0.0
 40
0.1247122447407212
 40
0.2490589432165421
 40
0.3740779474703908
 40
0.5009711379560823
 40
0.7521757810472769
 40
1.0
 40
1.0
 40
1.0
 40
1.0
 10
113.3021443623831
 20
148.6405287289885
 30
0.0
 10
113.3079309559461
 20
148.639752482307
 30
0.0
 10
113.3194871818856
 20
148.6382022642143
 30
0.0
 10
113.4164975514759
 20
148.6259859855969
 30
0.0
 10
113.5717921173254
 20
148.6070591662874
 30
0.0
 10
113.861979148522
 20
148.5730860089572
 30
0.0
 10
114.3495070767463
 20
148.5165596087228
 30
0.0
 10
114.9152283465816
 20
148.4687538769007
 30
0.0
 10
115.1961728820693
 20
148.4450129291291
 30
0.0
  0
SPLINE
  5
FF
330
1F
100
AcDbEntity
  8
0
  6
HIDDEN
 62
     7
370
     0
100
AcDbSpline
210
0.0
220
0.0
230
1.0
 70
     8
 71
     3
 72
     9
 73
     5
 74
     0
 42
0.00000001
 43
0.00000001
 40
0.0
 40
0.0
 40
0.0
 40
0.0
 40
0.6612086184455103
 40
1.0
 40
1.0
 40
1.0
 40
1.0
 10
125.0360449997894
 20
143.0755448554851
 30
0.0
 10
125.3275461353535
 20
143.1193302049056
 30
0.0
 10
125.7684072001252
 20
143.1855503783866
 30
0.0
 10
125.71699274919
 20
143.1777448296553
 30
0.0
 10
125.6995739763259
 20
143.1751003770169
 30
0.0
  0
SPLINE
  5
100
330
1F
100
AcDbEntity
  8
0
  6
HIDDEN
 62
     7
370
     0
100
AcDbSpline
210
0.0
220
0.0
230
1.0
 70
     8
 71
     3
 72
     9
 73
     5
 74
     0
 42
0.00000001
 43
0.00000001
 40
0.0
 40
0.0
 40
0.0
 40
0.0
 40
0.3224748277241913
 40
0.9999999999999999
 40
0.9999999999999999
 40
0.9999999999999999
 40
0.9999999999999999
 10
125.6995736487848
 20
80.24334493590268
 30
0.0
 10
125.7182154037443
 20
80.24057696939735
 30
0.0
 10
125.7760238072437
 20
80.23199345754661
 30
0.0
 10
125.3349104220714
 20
80.29810689553088
 30
0.0
 10
125.0360449997894
 20
80.34290041399095
 30
0.0
  0
SPLINE
  5
101
330
1F
100
AcDbEntity
  8
0
  6
HIDDEN
 62
     7
370
     0
100
AcDbSpline
210
0.0
220
0.0
230
1.0
 70
     8
 71
     3
 72
    15
 73
    11
 74
     0
 42
0.00000001
 43
0.00000001
 40
0.0
 40
0.0
 40
0.0
 40
0.0
 40
0.1285821516379736
 40
0.2571635483376876
 40
0.385323567199189
 40
0.5113778119466696
 40
0.6369260966772228
 40
0.7643185820319293
 40
0.8930603485208921
 40
1.0
 40
1.0
 40
1.0
 40
1.0
 10
125.0360449997894
 20
80.34290041399095
 30
0.0
 10
124.6505228785493
 20
80.40470620457488
 30
0.0
 10
123.8794808995666
 20
80.52831742286534
 30
0.0
 10
122.10092305281
 20
80.71906600687109
 30
0.0
 10
120.1071117573703
 20
80.80671344397642
 30
0.0
 10
118.0830738501356
 20
80.75980828127399
 30
0.0
 10
116.2549652831766
 20
80.59955807353248
 30
0.0
 10
114.8235340618976
 20
80.3983787156534
 30
0.0
 10
113.919650584422
 20
80.23583698100667
 30
0.0
 10
113.8570666466659
 20
80.22343669430634
 30
0.0
 10
113.8286693952002
 20
80.21781010588283
 30
0.0
  0
SPLINE
  5
102
330
1F
100
AcDbEntity
  8
0
  6
HIDDEN
 62
     7
370
     0
100
AcDbSpline
210
0.0
220
0.0
230
1.0
 70
     8
 71
     3
 72
    16
 73
    12
 74
     0
 42
0.00000001
 43
0.00000001
 40
0.0
 40
0.0
 40
0.0
 40
0.0
 40
0.0205567982654305
 40
0.1461296737692548
 40
0.2720439921275847
 40
0.3999539720187822
 40
0.528504097482051
 40
0.655245546444081
 40
0.7805594897978894
 40
0.9070378665747952
 40
1.0
 40
1.0
 40
1.0
 40
1.0
 10
113.8286693952002
 20
143.2006351635932
 30
0.0
 10
113.8140021829172
 20
143.2033815401979
 30
0.0
 10
113.7097391105095
 20
143.2229043818442
 30
0.0
 10
114.1605191213561
 20
143.1365298240873
 30
0.0
 10
115.173758251931
 20
142.9653972221533
 30
0.0
 10
116.7680865699123
 20
142.761856437216
 30
0.0
 10
118.6945859320468
 20
142.6294654712412
 30
0.0
 10
120.7410777325984
 20
142.6256692925504
 30
0.0
 10
122.6542371483213
 20
142.7484458651801
 30
0.0
 10
124.1389455337205
 20
142.9302607253016
 30
0.0
 10
124.7690937368549
 20
143.0323124342166
 30
0.0
 10
125.0360449997894
 20
143.0755448554851
 30
0.0
  0
LINE
  5
103
330
1F
100
AcDbEntity
  8
0
  6
HIDDEN
 62
     7
370
     0
100
AcDbLine
 10
104.7794636716
 20
85.2092226347
 30
0.0
 11
104.7794636716
 21
138.2092226347
 31
0.0
  0
LINE
  5
104
330
1F
100
AcDbEntity
  8
0
  6
HIDDEN
 62
     7
370
     0
100
AcDbLine
 10
144.066916963
 20
85.2092226347
 30
0.0
 11
144.066916963
 21
138.2092226347
 31
0.0
  0
LINE
  5
105
330
1F
100
AcDbEntity
  8
0
  6
HIDDEN
 62
     7
370
     0
100
AcDbLine
 10
147.2328393446
 20
86.8342226347
 30
0.0
 11
147.2328393446
 21
136.5842226157
 31
0.0
  0
SPLINE
  5
106
330
1F
100
AcDbEntity
  8
0
  6
HIDDEN
 62
     7
370
     0
100
AcDbSpline
210
0.0
220
0.0
230
1.0
 70
     8
 71
     3
 72
    20
 73
    16
 74
     0
 42
0.00000001
 43
0.00000001
 40
0.0
 40
0.0
 40
0.0
 40
0.0
 40
0.2499999999999978
 40
0.2499999999999978
 40
0.3749999999999982
 40
0.3749999999999982
 40
0.4999999999999986
 40
0.4999999999999986
 40
0.6249999999999989
 40
0.6249999999999989
 40
0.7499999999999992
 40
0.7499999999999992
 40
0.8749999999999997
 40
0.8749999999999997
 40
1.0
 40
1.0
 40
1.0
 40
1.0
 10
94.98283934459836
 20
136.9377362651523
 30
0.0
 10
94.98283934459836
 20
136.8585332786201
 30
0.0
 10
94.93585684938563
 20
136.7774370602171
 30
0.0
 10
94.79803525860805
 20
136.6572403684662
 30
0.0
 10
94.74175297469807
 20
136.6183136644641
 30
0.0
 10
94.60866812323084
 20
136.5431249320397
 30
0.0
 10
94.53082818099779
 20
136.5064827266978
 30
0.0
 10
94.35819582488344
 20
136.4388921938659
 30
0.0
 10
94.26380282779238
 20
136.4079340120903
 30
0.0
 10
94.05836552147723
 20
136.3524095907206
 30
0.0
 10
93.94601928149004
 20
136.3277010768874
 30
0.0
 10
93.7137784175904
 20
136.2879048497792
 30
0.0
 10
93.59306777516768
 20
136.2724850123821
 30
0.0
 10
93.34199691589866
 20
136.2514050375425
 30
0.0
 10
93.21247491948287
 20
136.2459277925215
 30
0.0
 10
93.08283934459838
 20
136.2459277925215
 30
0.0
  0
LINE
  5
107
330
1F
100
AcDbEntity
  8
0
  6
HIDDEN
 62
     7
370
     0
100
AcDbLine
 10
93.0828393446
 20
136.2459277925
 30
0.0
 11
86.5328393446
 21
136.2459277925
 31
0.0
  0
LINE
  5
108
330
1F
100
AcDbEntity
  8
0
  6
HIDDEN
 62
     7
370
     0
100
AcDbLine
 10
86.5328393446
 20
87.172517477
 30
0.0
 11
98.0828393446
 21
87.172517477
 31
0.0
  0
SPLINE
  5
109
330
1F
100
AcDbEntity
  8
0
  6
HIDDEN
 62
     7
370
     0
100
AcDbSpline
210
0.0
220
0.0
230
1.0
 70
     8
 71
     3
 72
    18
 73
    14
 74
     0
 42
0.00000001
 43
0.00000001
 40
0.0
 40
0.0
 40
0.0
 40
0.0
 40
0.1249999999999982
 40
0.1249999999999982
 40
0.2499999999999964
 40
0.2499999999999964
 40
0.4999999999999988
 40
0.4999999999999988
 40
0.7500000000000011
 40
0.7500000000000011
 40
0.8750000000000006
 40
0.8750000000000006
 40
1.0
 40
1.0
 40
1.0
 40
1.0
 10
98.08283934459836
 20
87.17251747695451
 30
0.0
 10
98.21230665755559
 20
87.1725174769545
 30
0.0
 10
98.33931740645221
 20
87.16716447836185
 30
0.0
 10
98.58868072764946
 20
87.14642650567308
 30
0.0
 10
98.7123043822779
 20
87.13075460141879
 30
0.0
 10
99.06133671921194
 20
87.0710598730167
 30
0.0
 10
99.27184848401873
 20
87.01329469333571
 30
0.0
 10
99.61576516171824
 20
86.8787728520582
 30
0.0
 10
99.75211556323607
 20
86.80110373855281
 30
0.0
 10
99.88915361979859
 20
86.68181260446548
 30
0.0
 10
99.9243726385115
 20
86.64089359533043
 30
0.0
 10
99.97099621545006
 20
86.56023760204039
 30
0.0
 10
99.98283934459837
 20
86.52026908184754
 30
0.0
 10
99.98283934459836
 20
86.48070900432371
 30
0.0
  0
LINE
  5
10A
330
1F
100
AcDbEntity
  8
0
  6
HIDDEN
 62
     7
370
     0
100
AcDbLine
 10
86.5328393446
 20
87.172517477
 30
0.0
 11
86.5328393446
 21
136.2459277925
 31
0.0
  0
LWPOLYLINE
  5
10B
330
1F
100
AcDbEntity
  8
0
  6
HIDDEN
 62
     7
370
     0
100
AcDbPolyline
 90
       15
 70
   128
 43
0.0
 10
143.7828393446
 20
151.652953198
 10
144.789331945
 20
151.6945828129
 10
145.7546186202
 20
151.8177673363
 10
146.6391804201
 20
152.0174635792
 10
147.4068032807
 20
152.2854959541
 10
148.0260606321
 20
152.6108911841
 10
148.4716000053
 20
152.9803275501
 10
148.7251809662
 20
153.378680284
 10
148.7764218805
 20
153.789640778
 10
148.6232249389
 20
154.1963842612
 10
148.2718620425
 20
154.5822586076
 10
147.7367180293
 20
154.9314660762
 10
147.0397017582
 20
155.2297100721
 10
146.2093491573
 20
155.4647804511
 10
146.1944668715
 20
155.4681267832
  0
LWPOLYLINE
  5
10C
330
1F
100
AcDbEntity
  8
0
  6
HIDDEN
 62
     7
370
     0
100
AcDbPolyline
 90
       15
 70
   128
 43
0.0
 10
141.3997114845
 20
155.4744603454
 10
141.3563295319
 20
155.4647804511
 10
140.525976931
 20
155.2297100721
 10
139.8289606599
 20
154.9314660762
 10
139.2938166467
 20
154.5822586076
 10
138.9424537503
 20
154.1963842612
 10
138.7892568087
 20
153.789640778
 10
138.840497723
 20
153.378680284
 10
139.0940786839
 20
152.9803275501
 10
139.5396180571
 20
152.6108911841
 10
140.1588754085
 20
152.2854959541
 10
140.9264982691
 20
152.0174635792
 10
141.811060069
 20
151.8177673363
 10
142.7763467442
 20
151.6945828129
 10
143.7828393446
 20
151.652953198
  0
SPLINE
  5
10D
330
1F
100
AcDbEntity
  8
0
  6
HIDDEN
 62
     7
370
     0
100
AcDbSpline
210
0.0
220
0.0
230
1.0
 70
     8
 71
     3
 72
    47
 73
    43
 74
     0
 42
0.00000001
 43
0.00000001
 40
-0.0754949989712137
 40
-0.0624612121563024
 40
-0.0297328214072689
 40
0.0
 40
0.0297242095428678
 40
0.0624299019453925
 40
0.0902097647781887
 40
0.1249852930172201
 40
0.1466391321271981
 40
0.1670192907604685
 40
0.1861310717630266
 40
0.2039809867675048
 40
0.2205771118261103
 40
0.2359295815782674
 40
0.2500512891535235
 40
0.2849026059682505
 40
0.326478980214686
 40
0.3748710591760587
 40
0.3932245645774129
 40
0.409780628225253
 40
0.4245404603336175
 40
0.4375060314395757
 40
0.4702107541786599
 40
0.4999892667314598
 40
0.5297467782430659
 40
0.5624402498405269
 40
0.5901193917535512
 40
0.6249672064517586
 40
0.6466372316119747
 40
0.667035747681561
 40
0.6861680533993503
 40
0.7040406516324468
 40
0.7206616024895349
 40
0.7360410134934253
 40
0.7501917330339894
 40
0.7849807220982465
 40
0.8265111602619774
 40
0.8748738597239423
 40
0.8931741800628382
 40
0.9097174713202507
 40
0.9245050010287862
 40
0.9375387878436975
 40
0.970267178592731
 40
0.9999999999999999
 40
1.029724209542868
 40
1.062429901945392
 40
1.090209764778189
 10
191.7874749860369
 20
106.647768663716
 30
0.0
 10
192.782721658488
 20
106.5539741761469
 30
0.0
 10
193.7778764488096
 20
106.6477520226366
 30
0.0
 10
194.7130655774949
 20
106.9282167685001
 30
0.0
 10
195.6199867148059
 20
107.4016714028864
 30
0.0
 10
196.3252780257735
 20
107.9683167803969
 30
0.0
 10
196.8648850544455
 20
108.5861249886768
 30
0.0
 10
197.227545420787
 20
109.131507137805
 30
0.0
 10
197.5023737935122
 20
109.6819780317749
 30
0.0
 10
197.6982370774659
 20
110.2234614592302
 30
0.0
 10
197.825070231099
 20
110.7445932320253
 30
0.0
 10
197.893439571071
 20
111.2368526473864
 30
0.0
 10
197.9247734757577
 20
111.9304339995252
 30
0.0
 10
197.8168522140018
 20
112.9093743687069
 30
0.0
 10
197.3512360385973
 20
114.180537901498
 30
0.0
 10
196.6544846763649
 20
115.127337563856
 30
0.0
 10
195.9915719126043
 20
115.718390858494
 30
0.0
 10
195.5594441060431
 20
116.0266704842067
 30
0.0
 10
195.1487237954992
 20
116.2627039536124
 30
0.0
 10
194.5617468296424
 20
116.5354517156989
 30
0.0
 10
193.7792660447245
 20
116.770490910503
 30
0.0
 10
192.7834242866155
 20
116.8645519541896
 30
0.0
 10
191.7875343859716
 20
116.7706642066381
 30
0.0
 10
190.8531961881119
 20
116.4903391538161
 30
0.0
 10
189.9466104302775
 20
116.0173490427325
 30
0.0
 10
189.2411911660018
 20
115.4510002204706
 30
0.0
 10
188.7007808550071
 20
114.8323444369997
 30
0.0
 10
188.3378128866842
 20
114.2864381755968
 30
0.0
 10
188.0627807989626
 20
113.7353157910229
 30
0.0
 10
187.8668357132107
 20
113.1930743531421
 30
0.0
 10
187.74005391511
 20
112.6710991652577
 30
0.0
 10
187.6718738271377
 20
112.1779313519129
 30
0.0
 10
187.6411006299575
 20
111.4843912599763
 30
0.0
 10
187.7496078218516
 20
110.5064117114601
 30
0.0
 10
188.2151433376858
 20
109.2368626471368
 30
0.0
 10
188.9111398899925
 20
108.2913059906212
 30
0.0
 10
189.5731822255897
 20
107.7008442412019
 30
0.0
 10
190.0048666178453
 20
107.3926457576207
 30
0.0
 10
190.416293355788
 20
107.1560350098015
 30
0.0
 10
191.0044458623694
 20
106.8827329775867
 30
0.0
 10
191.7874749860369
 20
106.647768663716
 30
0.0
 10
192.782721658488
 20
106.5539741761469
 30
0.0
 10
193.7778764488096
 20
106.6477520226366
 30
0.0
  0
SPLINE
  5
10E
330
1F
100
AcDbEntity
  8
0
  6
HIDDEN
 62
     7
370
     0
100
AcDbSpline
210
0.0
220
0.0
230
1.0
 70
     8
 71
     3
 72
    90
 73
    86
 74
     0
 42
0.00000001
 43
0.00000001
 40
-0.0312499999999997
 40
-0.0312499999999997
 40
0.0
 40
0.0
 40
0.0312499999999992
 40
0.0312499999999992
 40
0.0468749999999989
 40
0.0468749999999989
 40
0.0624999999999985
 40
0.0624999999999985
 40
0.0937499999999982
 40
0.0937499999999982
 40
0.124999999999998
 40
0.124999999999998
 40
0.1562499999999977
 40
0.1562499999999977
 40
0.1718749999999977
 40
0.1718749999999977
 40
0.1874999999999977
 40
0.1874999999999977
 40
0.2187499999999979
 40
0.2187499999999979
 40
0.2499999999999982
 40
0.2499999999999982
 40
0.2656249999999983
 40
0.2656249999999983
 40
0.2812499999999984
 40
0.2812499999999984
 40
0.3124999999999987
 40
0.3124999999999987
 40
0.3281249999999988
 40
0.3281249999999988
 40
0.3437499999999989
 40
0.3437499999999989
 40
0.359374999999999
 40
0.359374999999999
 40
0.3749999999999991
 40
0.3749999999999991
 40
0.4062499999999998
 40
0.4062499999999998
 40
0.4375000000000004
 40
0.4375000000000004
 40
0.4687500000000011
 40
0.4687500000000011
 40
0.4843750000000014
 40
0.4843750000000014
 40
0.5000000000000017
 40
0.5000000000000017
 40
0.5312500000000017
 40
0.5312500000000017
 40
0.5625000000000017
 40
0.5625000000000017
 40
0.5781250000000018
 40
0.5781250000000018
 40
0.5937500000000019
 40
0.5937500000000019
 40
0.625000000000002
 40
0.625000000000002
 40
0.656250000000002
 40
0.656250000000002
 40
0.687500000000002
 40
0.687500000000002
 40
0.7031250000000019
 40
0.7031250000000019
 40
0.7187500000000017
 40
0.7187500000000017
 40
0.7500000000000014
 40
0.7500000000000014
 40
0.7812500000000013
 40
0.7812500000000013
 40
0.8125000000000011
 40
0.8125000000000011
 40
0.8437500000000009
 40
0.8437500000000009
 40
0.8593750000000009
 40
0.8593750000000009
 40
0.8750000000000008
 40
0.8750000000000008
 40
0.8906250000000008
 40
0.8906250000000008
 40
0.9062500000000007
 40
0.9062500000000007
 40
0.9375000000000006
 40
0.9375000000000006
 40
0.9687500000000003
 40
0.9687500000000003
 40
1.0
 40
1.0
 40
1.031249999999999
 40
1.031249999999999
 10
193.1621608114681
 20
106.1036289862287
 30
0.0
 10
192.4035178777286
 20
106.1036289862287
 30
0.0
 10
192.0302798234088
 20
106.1383392957855
 30
0.0
 10
191.4791882457286
 20
106.2405965955469
 30
0.0
 10
191.2969623665259
 20
106.2831105503614
 30
0.0
 10
190.9355171734849
 20
106.3854350380672
 30
0.0
 10
190.7554648662082
 20
106.4456287203749
 30
0.0
 10
190.2302687697759
 20
106.6492961340373
 30
0.0
 10
189.89757275506
 20
106.8159496423268
 30
0.0
 10
189.2667300169461
 20
107.2113587775159
 30
0.0
 10
188.9660588269232
 20
107.4431072199568
 30
0.0
 10
188.4243811348615
 20
107.9538653502845
 30
0.0
 10
188.1808249097978
 20
108.233599202884
 30
0.0
 10
187.8573183313196
 20
108.6911812455034
 30
0.0
 10
187.7559878620776
 20
108.8510938949688
 30
0.0
 10
187.571665359551
 20
109.1779500335943
 30
0.0
 10
187.4884083005791
 20
109.3450359644007
 30
0.0
 10
187.2648321198404
 20
109.8571255060082
 30
0.0
 10
187.1504219430407
 20
110.2128457789157
 30
0.0
 10
186.9947055803314
 20
110.9548083728002
 30
0.0
 10
186.9562040910859
 20
111.3281280151513
 30
0.0
 10
186.9555124854886
 20
111.8896477012995
 30
0.0
 10
186.9648467192411
 20
112.0771842753556
 30
0.0
 10
187.0031738082379
 20
112.4530036151394
 30
0.0
 10
187.0322820350042
 20
112.6409721793266
 30
0.0
 10
187.1470013987719
 20
113.1925888657972
 30
0.0
 10
187.2600775099079
 20
113.5485951832064
 30
0.0
 10
187.4844434823888
 20
114.0652070305477
 30
0.0
 10
187.5688705072532
 20
114.2350961718788
 30
0.0
 10
187.7526036433007
 20
114.5617785536457
 30
0.0
 10
187.8521959959646
 20
114.7194150536953
 30
0.0
 10
188.0664520872102
 20
115.0236438470079
 30
0.0
 10
188.1811168647951
 20
115.170235233548
 30
0.0
 10
188.4255956310504
 20
115.4524080694452
 30
0.0
 10
188.5561595130419
 20
115.5886628932686
 30
0.0
 10
188.9651317732003
 20
115.9748054443184
 30
0.0
 10
189.2595931847744
 20
116.2019796032676
 30
0.0
 10
189.8907118804283
 20
116.5988149308121
 30
0.0
 10
190.2307021464336
 20
116.7692366526328
 30
0.0
 10
190.9278644572962
 20
117.0397522039088
 30
0.0
 10
191.2870805721454
 20
117.1418238642534
 30
0.0
 10
191.8419563656124
 20
117.245346525178
 30
0.0
 10
192.0304531712989
 20
117.2715465513149
 30
0.0
 10
192.4056429131107
 20
117.3061398722682
 30
0.0
 10
192.5929865011197
 20
117.3147319283192
 30
0.0
 10
193.1542797499607
 20
117.3149831342033
 30
0.0
 10
193.5274988200957
 20
117.2813728074315
 30
0.0
 10
194.2719058842913
 20
117.1436414851891
 30
0.0
 10
194.6328387282025
 20
117.0412457066436
 30
0.0
 10
195.1541183048818
 20
116.8396268569951
 30
0.0
 10
195.3247208207202
 20
116.7643169698777
 30
0.0
 10
195.6594763400893
 20
116.5970283809262
 30
0.0
 10
195.8245025604904
 20
116.5044601110224
 30
0.0
 10
196.3011185931129
 20
116.2057401413912
 30
0.0
 10
196.5951698497081
 20
115.9789499721514
 30
0.0
 10
197.1364210329512
 20
115.4697521775986
 30
0.0
 10
197.3858199350031
 20
115.1835845708524
 30
0.0
 10
197.8162722870085
 20
114.5745232763382
 30
0.0
 10
197.9992954221404
 20
114.2510282367593
 30
0.0
 10
198.2246202555102
 20
113.7363903823845
 30
0.0
 10
198.2917857491112
 20
113.5587733197259
 30
0.0
 10
198.4065692228132
 20
113.2000836091325
 30
0.0
 10
198.4543761968976
 20
113.0189541279086
 30
0.0
 10
198.5696761981177
 20
112.4703088787368
 30
0.0
 10
198.6093566441146
 20
112.0971341898733
 30
0.0
 10
198.6105103510938
 20
111.3379635212448
 30
0.0
 10
198.5720545571594
 20
110.9650397063594
 30
0.0
 10
198.4202852552004
 20
110.2319265024379
 30
0.0
 10
198.3048636517524
 20
109.8680225866687
 30
0.0
 10
198.0065809335719
 20
109.1814732890787
 30
0.0
 10
197.8241384406116
 20
108.8565676204246
 30
0.0
 10
197.5004900981318
 20
108.396391430276
 30
0.0
 10
197.3839817942105
 20
108.2474856223619
 30
0.0
 10
197.1392489652696
 20
107.9651297775964
 30
0.0
 10
197.0104587438581
 20
107.8308067329846
 30
0.0
 10
196.7403048323165
 20
107.5754611202136
 30
0.0
 10
196.5989405299607
 20
107.4544393967099
 30
0.0
 10
196.3035434082195
 20
107.2256803236713
 30
0.0
 10
196.1486410805137
 20
107.1174350963055
 30
0.0
 10
195.6721282206528
 20
106.8179107850687
 30
0.0
 10
195.338935782012
 20
106.6510546726284
 30
0.0
 10
194.6424046248516
 20
106.380168248898
 30
0.0
 10
194.2757888446364
 20
106.2759423459707
 30
0.0
 10
193.5366937181178
 20
106.1383609534361
 30
0.0
 10
193.1621608114681
 20
106.1036289862287
 30
0.0
 10
192.4035178777286
 20
106.1036289862287
 30
0.0
  0
LINE
  5
10F
330
1F
100
AcDbEntity
  8
0
  6
HIDDEN
 62
     7
370
     0
100
AcDbLine
 10
86.5328393446
 20
84.3392226347
 30
0.0
 11
86.5328393446
 21
79.4609374329
 31
0.0
  0
LINE
  5
110
330
1F
100
AcDbEntity
  8
0
  6
HIDDEN
 62
     7
370
     0
100
AcDbLine
 10
99.9828393446
 20
84.3392226347
 30
0.0
 11
99.9828393446
 21
77.8398893694
 31
0.0
  0
LINE
  5
111
330
1F
100
AcDbEntity
  8
0
  6
HIDDEN
 62
     7
370
     0
100
AcDbLine
 10
94.9828393446
 20
139.0792226347
 30
0.0
 11
94.9828393446
 21
145.4538313717
 31
0.0
  0
LINE
  5
112
330
1F
100
AcDbEntity
  8
0
  6
HIDDEN
 62
     7
370
     0
100
AcDbLine
 10
86.5328393446
 20
139.0792226347
 30
0.0
 11
86.5328393446
 21
143.9575078366
 31
0.0
  0
LINE
  5
113
330
1F
100
AcDbEntity
  8
0
  6
HIDDEN
 62
     7
370
     0
100
AcDbLine
 10
159.0828393446
 20
98.7092226347
 30
0.0
 11
159.0828393446
 21
124.7092226347
 31
0.0
  0
LINE
  5
114
330
1F
100
AcDbEntity
  8
0
  6
HIDDEN
 62
     7
370
     0
100
AcDbLine
 10
163.0828393446
 20
98.7092226347
 30
0.0
 11
163.0828393446
 21
124.7092226347
 31
0.0
  0
LINE
  5
115
330
1F
100
AcDbEntity
  8
0
  6
HIDDEN
 62
     7
370
     0
100
AcDbLine
 10
147.9828393446
 20
100.4592226347
 30
0.0
 11
147.9828393446
 21
122.9592226347
 31
0.0
  0
SPLINE
  5
116
330
1F
100
AcDbEntity
  8
0
  6
HIDDEN
 62
     7
370
     0
100
AcDbSpline
210
0.0
220
0.0
230
1.0
 70
     8
 71
     3
 72
    14
 73
    10
 74
     0
 42
0.00000001
 43
0.00000001
 40
0.0
 40
0.0
 40
0.0
 40
0.0
 40
0.25
 40
0.25
 40
0.5
 40
0.5
 40
0.75
 40
0.75
 40
1.0
 40
1.0
 40
1.0
 40
1.0
 10
169.8355201245874
 20
101.1821638386977
 30
0.0
 10
169.8716398694941
 20
101.2152129504705
 30
0.0
 10
169.9030915875861
 20
101.2554258405403
 30
0.0
 10
169.946496556158
 20
101.3546037964802
 30
0.0
 10
169.956970482018
 20
101.4118817950582
 30
0.0
 10
169.9485091285029
 20
101.5412535200431
 30
0.0
 10
169.9295434189661
 20
101.6116833099615
 30
0.0
 10
169.8730329654132
 20
101.7568895501651
 30
0.0
 10
169.836412596345
 20
101.8309126407206
 30
0.0
 10
169.7965649911029
 20
101.9064683240912
 30
0.0
  0
SPLINE
  5
117
330
1F
100
AcDbEntity
  8
0
  6
HIDDEN
 62
     7
370
     0
100
AcDbSpline
210
0.0
220
0.0
230
1.0
 70
     8
 71
     3
 72
    14
 73
    10
 74
     0
 42
0.00000001
 43
0.00000001
 40
0.0
 40
0.0
 40
0.0
 40
0.0
 40
0.25
 40
0.25
 40
0.5
 40
0.5
 40
0.75
 40
0.75
 40
1.0
 40
1.0
 40
1.0
 40
1.0
 10
169.7965649911027
 20
101.906468324091
 30
0.0
 10
169.7642120977373
 20
101.8700772872928
 30
0.0
 10
169.7332379134993
 20
101.8345066561156
 30
0.0
 10
169.6833916728057
 20
101.7532359083405
 30
0.0
 10
169.6646918301301
 20
101.7051953156171
 30
0.0
 10
169.6747329864201
 20
101.5699584592693
 30
0.0
 10
169.7013235909675
 20
101.4897614402229
 30
0.0
 10
169.7627406892405
 20
101.3346486330367
 30
0.0
 10
169.7983809422099
 20
101.2577555438258
 30
0.0
 10
169.8355201245873
 20
101.1821638386972
 30
0.0
  0
SPLINE
  5
118
330
1F
100
AcDbEntity
  8
0
  6
HIDDEN
 62
     7
370
     0
100
AcDbSpline
210
0.0
220
0.0
230
1.0
 70
     8
 71
     3
 72
    48
 73
    44
 74
     0
 42
0.00000001
 43
0.00000001
 40
-0.0625000000000011
 40
-0.0625000000000011
 40
0.0
 40
0.0
 40
0.0312499999999991
 40
0.0312499999999991
 40
0.0624999999999983
 40
0.0624999999999983
 40
0.124999999999997
 40
0.124999999999997
 40
0.1874999999999958
 40
0.1874999999999958
 40
0.2499999999999945
 40
0.2499999999999945
 40
0.3124999999999932
 40
0.3124999999999932
 40
0.3437499999999932
 40
0.3437499999999932
 40
0.3749999999999931
 40
0.3749999999999931
 40
0.406249999999993
 40
0.406249999999993
 40
0.4374999999999928
 40
0.4374999999999928
 40
0.4999999999999936
 40
0.4999999999999936
 40
0.5624999999999942
 40
0.5624999999999942
 40
0.6249999999999949
 40
0.6249999999999949
 40
0.6874999999999957
 40
0.6874999999999957
 40
0.7499999999999963
 40
0.7499999999999963
 40
0.812499999999997
 40
0.812499999999997
 40
0.8437499999999974
 40
0.8437499999999974
 40
0.8749999999999979
 40
0.8749999999999979
 40
0.9062499999999984
 40
0.9062499999999984
 40
0.9374999999999989
 40
0.9374999999999989
 40
1.0
 40
1.0
 40
1.031249999999999
 40
1.031249999999999
 10
171.9136293219499
 20
101.1360070332743
 30
0.0
 10
172.035697152467
 20
101.1393983584962
 30
0.0
 10
172.0741594823845
 20
101.1478451744425
 30
0.0
 10
172.144308958151
 20
101.1801200384967
 30
0.0
 10
172.1763260909262
 20
101.2043927959625
 30
0.0
 10
172.2550616778439
 20
101.3012154574838
 30
0.0
 10
172.2847900786647
 20
101.4003650952188
 30
0.0
 10
172.2806783246346
 20
101.6492868969885
 30
0.0
 10
172.2466322319691
 20
101.799888344083
 30
0.0
 10
172.1352660734444
 20
102.1088035146116
 30
0.0
 10
172.0588671498538
 20
102.2675633942374
 30
0.0
 10
171.8956939695895
 20
102.5753346410757
 30
0.0
 10
171.8070545035739
 20
102.7260721739858
 30
0.0
 10
171.697840402845
 20
102.9439973875084
 30
0.0
 10
171.6649188551331
 20
103.0171530472008
 30
0.0
 10
171.6204681421333
 20
103.1566896908466
 30
0.0
 10
171.6092353237092
 20
103.2246903262152
 30
0.0
 10
171.6160231221332
 20
103.3446238377263
 30
0.0
 10
171.6337700854187
 20
103.3980425723812
 30
0.0
 10
171.6859206118915
 20
103.4861896507107
 30
0.0
 10
171.7202937763587
 20
103.5223118367951
 30
0.0
 10
171.8322404370567
 20
103.6084111871458
 30
0.0
 10
171.9177244142102
 20
103.6375082045401
 30
0.0
 10
172.0758758921106
 20
103.6410467999748
 30
0.0
 10
172.1481207675455
 20
103.6150819464946
 30
0.0
 10
172.2538108239305
 20
103.4933848825473
 30
0.0
 10
172.2843098696887
 20
103.3965361233196
 30
0.0
 10
172.2812534937707
 20
103.1473870528524
 30
0.0
 10
172.2473308433763
 20
102.9944517299856
 30
0.0
 10
172.1373654157782
 20
102.6815708338194
 30
0.0
 10
172.0622101503853
 20
102.5206149117601
 30
0.0
 10
171.903450220639
 20
102.2111124495561
 30
0.0
 10
171.8168054999972
 20
102.0582339830253
 30
0.0
 10
171.7083353655515
 20
101.8396103675334
 30
0.0
 10
171.6753857989007
 20
101.7674633817482
 30
0.0
 10
171.6265962591404
 20
101.6251153718864
 30
0.0
 10
171.6120046650167
 20
101.5568267199654
 30
0.0
 10
171.6119864281852
 20
101.4317459579761
 30
0.0
 10
171.6266686551444
 20
101.3768844024955
 30
0.0
 10
171.676681031169
 20
101.2849383790481
 30
0.0
 10
171.7106673371998
 20
101.2486198139757
 30
0.0
 10
171.8249649057923
 20
101.1621467250366
 30
0.0
 10
171.9136293219499
 20
101.1360070332743
 30
0.0
 10
172.035697152467
 20
101.1393983584962
 30
0.0
  0
SPLINE
  5
119
330
1F
100
AcDbEntity
  8
0
  6
HIDDEN
 62
     7
370
     0
100
AcDbSpline
210
0.0
220
0.0
230
1.0
 70
     8
 71
     3
 72
     8
 73
     4
 74
     0
 42
0.00000001
 43
0.00000001
 40
0.0
 40
0.0
 40
0.0
 40
0.0
 40
1.0
 40
1.0
 40
1.0
 40
1.0
 10
172.0248733838089
 20
107.193594651154
 30
0.0
 10
171.9835651354661
 20
107.2310472060423
 30
0.0
 10
171.9379770661951
 20
107.2706420630339
 30
0.0
 10
171.8880653264786
 20
107.3145006438706
 30
0.0
  0
SPLINE
  5
11A
330
1F
100
AcDbEntity
  8
0
  6
HIDDEN
 62
     7
370
     0
100
AcDbSpline
210
0.0
220
0.0
230
1.0
 70
     8
 71
     3
 72
    34
 73
    30
 74
     0
 42
0.00000001
 43
0.00000001
 40
0.0
 40
0.0
 40
0.0
 40
0.0
 40
0.0625000000000007
 40
0.0625000000000007
 40
0.1250000000000014
 40
0.1250000000000014
 40
0.2500000000000001
 40
0.2500000000000001
 40
0.3125000000000008
 40
0.3125000000000008
 40
0.3750000000000015
 40
0.3750000000000015
 40
0.5000000000000013
 40
0.5000000000000013
 40
0.5625000000000011
 40
0.5625000000000011
 40
0.625000000000001
 40
0.625000000000001
 40
0.6875000000000008
 40
0.6875000000000008
 40
0.7500000000000007
 40
0.7500000000000007
 40
0.8125000000000004
 40
0.8125000000000004
 40
0.8750000000000003
 40
0.8750000000000003
 40
0.9375000000000001
 40
0.9375000000000001
 40
1.0
 40
1.0
 40
1.0
 40
1.0
 10
171.8880653264786
 20
107.3145006438706
 30
0.0
 10
171.7860157308795
 20
107.4041739444477
 30
0.0
 10
171.6701303966198
 20
107.4812651145431
 30
0.0
 10
171.4107437431713
 20
107.6079382943139
 30
0.0
 10
171.2705054786258
 20
107.6554237013047
 30
0.0
 10
170.8321701578717
 20
107.7427055169851
 30
0.0
 10
170.51682189913
 20
107.7228010083774
 30
0.0
 10
170.0993207921188
 20
107.5853991951834
 30
0.0
 10
169.9667412519974
 20
107.5214417202979
 30
0.0
 10
169.733497251843
 20
107.3691416049557
 30
0.0
 10
169.6294333848683
 20
107.278659285865
 30
0.0
 10
169.3768140080037
 20
106.9873263703497
 30
0.0
 10
169.2829407653732
 20
106.760823435614
 30
0.0
 10
169.2827887613991
 20
106.4411379504314
 30
0.0
 10
169.3051811278264
 20
106.3392814389143
 30
0.0
 10
169.3944973539838
 20
106.1475430139649
 30
0.0
 10
169.4594016514625
 20
106.0613802630375
 30
0.0
 10
169.6295025122255
 20
105.9059401138958
 30
0.0
 10
169.7313920880713
 20
105.839884435465
 30
0.0
 10
169.9659884643498
 20
105.7293540588082
 30
0.0
 10
170.0969820053199
 20
105.6860054830815
 30
0.0
 10
170.3757549195788
 20
105.6239257576049
 30
0.0
 10
170.5248509298135
 20
105.6050982755491
 30
0.0
 10
170.8234189831261
 20
105.5929701546716
 30
0.0
 10
170.9765518439587
 20
105.5996031640945
 30
0.0
 10
171.2677915915717
 20
105.6376600896414
 30
0.0
 10
171.4101452916682
 20
105.6696559252937
 30
0.0
 10
171.6677101765649
 20
105.756781418145
 30
0.0
 10
171.786011220173
 20
105.8126809940194
 30
0.0
 10
171.8880653264786
 20
105.8802931770257
 30
0.0
  0
SPLINE
  5
11B
330
1F
100
AcDbEntity
  8
0
  6
HIDDEN
 62
     7
370
     0
100
AcDbSpline
210
0.0
220
0.0
230
1.0
 70
     8
 71
     3
 72
     8
 73
     4
 74
     0
 42
0.00000001
 43
0.00000001
 40
0.0
 40
0.0
 40
0.0
 40
0.0
 40
1.0
 40
1.0
 40
1.0
 40
1.0
 10
171.8880653264786
 20
105.8802931770257
 30
0.0
 10
171.9379770661951
 20
105.9133603587594
 30
0.0
 10
171.9835651354661
 20
105.955362811229
 30
0.0
 10
172.0248733838089
 20
106.0041818166491
 30
0.0
  0
SPLINE
  5
11C
330
1F
100
AcDbEntity
  8
0
  6
HIDDEN
 62
     7
370
     0
100
AcDbSpline
210
0.0
220
0.0
230
1.0
 70
     8
 71
     3
 72
    12
 73
     8
 74
     0
 42
0.00000001
 43
0.00000001
 40
0.0
 40
0.0
 40
0.0
 40
0.0
 40
0.2499999999999998
 40
0.2499999999999998
 40
0.4999999999999996
 40
0.4999999999999996
 40
1.0
 40
1.0
 40
1.0
 40
1.0
 10
172.0248733838089
 20
106.0041818166491
 30
0.0
 10
172.1086711976428
 20
106.1032159343345
 30
0.0
 10
172.1725447542269
 20
106.2052053007699
 30
0.0
 10
172.2604108930908
 20
106.4173536196358
 30
0.0
 10
172.2827026969182
 20
106.5245075144155
 30
0.0
 10
172.2831107627795
 20
106.8404551086791
 30
0.0
 10
172.1924714849784
 20
107.0416400819077
 30
0.0
 10
172.0248733838089
 20
107.193594651154
 30
0.0
  0
SPLINE
  5
11D
330
1F
100
AcDbEntity
  8
0
  6
HIDDEN
 62
     7
370
     0
100
AcDbSpline
210
0.0
220
0.0
230
1.0
 70
     8
 71
     3
 72
    10
 73
     6
 74
     0
 42
0.00000001
 43
0.00000001
 40
0.0
 40
0.0
 40
0.0
 40
0.0
 40
0.5
 40
0.5
 40
1.0
 40
1.0
 40
1.0
 40
1.0
 10
169.7965649911028
 20
103.5047567208688
 30
0.0
 10
169.8761350542717
 20
103.4520850909822
 30
0.0
 10
169.94383043743
 20
103.3665335285829
 30
0.0
 10
169.9615046605994
 20
103.1223986228732
 30
0.0
 10
169.907782941192
 20
102.9762665311675
 30
0.0
 10
169.8355201245873
 20
102.8269047273472
 30
0.0
  0
SPLINE
  5
11E
330
1F
100
AcDbEntity
  8
0
  6
HIDDEN
 62
     7
370
     0
100
AcDbSpline
210
0.0
220
0.0
230
1.0
 70
     8
 71
     3
 72
    14
 73
    10
 74
     0
 42
0.00000001
 43
0.00000001
 40
0.0
 40
0.0
 40
0.0
 40
0.0
 40
0.25
 40
0.25
 40
0.5
 40
0.5
 40
0.75
 40
0.75
 40
1.0
 40
1.0
 40
1.0
 40
1.0
 10
169.8355201245875
 20
102.8269047273476
 30
0.0
 10
169.7983080376175
 20
102.8597788273776
 30
0.0
 10
169.7625694815621
 20
102.8912329223931
 30
0.0
 10
169.7010737523793
 20
102.9612682177176
 30
0.0
 10
169.6745668864433
 20
103.0003696264764
 30
0.0
 10
169.6647835460081
 20
103.1195481673377
 30
0.0
 10
169.6835667418174
 20
103.1978332507469
 30
0.0
 10
169.7334853504026
 20
103.3514768700286
 30
0.0
 10
169.764294084818
 20
103.4286303397536
 30
0.0
 10
169.7965649911029
 20
103.5047567208689
 30
0.0
  0
SPLINE
  5
11F
330
1F
100
AcDbEntity
  8
0
  6
HIDDEN
 62
     7
370
     0
100
AcDbSpline
210
0.0
220
0.0
230
1.0
 70
     8
 71
     3
 72
    10
 73
     6
 74
     0
 42
0.00000001
 43
0.00000001
 40
0.0
 40
0.0
 40
0.0
 40
0.0
 40
0.5
 40
0.5
 40
1.0
 40
1.0
 40
1.0
 40
1.0
 10
169.2828393445979
 20
102.585550242116
 30
0.0
 10
169.2828393445979
 20
102.6091911060457
 30
0.0
 10
169.2839552214243
 20
102.6306422690731
 30
0.0
 10
169.288248404761
 20
102.6693803167311
 30
0.0
 10
169.291426677991
 20
102.6866696162309
 30
0.0
 10
169.2955656878663
 20
102.7018141560523
 30
0.0
  0
SPLINE
  5
120
330
1F
100
AcDbEntity
  8
0
  6
HIDDEN
 62
     7
370
     0
100
AcDbSpline
210
0.0
220
0.0
230
1.0
 70
     8
 71
     3
 72
    18
 73
    14
 74
     0
 42
0.00000001
 43
0.00000001
 40
0.0
 40
0.0
 40
0.0
 40
0.0
 40
0.0737501331173194
 40
0.1624121644508084
 40
0.2240281320612194
 40
0.2729194914005916
 40
0.3218740121895732
 40
0.3894563753153439
 40
0.5009270566267847
 40
0.6197456719439209
 40
0.7649252634868746
 40
0.8997851949351907
 40
0.9999999999999999
 40
0.9999999999999999
 40
0.9999999999999999
 40
0.9999999999999999
 10
169.3121437909446
 20
102.7316192132494
 30
0.0
 10
169.3175068665707
 20
102.7437252904371
 30
0.0
 10
169.3293174041758
 20
102.7703852314563
 30
0.0
 10
169.3520184015207
 20
102.769233598257
 30
0.0
 10
169.3675852229545
 20
102.7469868006029
 30
0.0
 10
169.3730104825339
 20
102.705927668074
 30
0.0
 10
169.369033878123
 20
102.6443741473735
 30
0.0
 10
169.3524302599241
 20
102.5447037280491
 30
0.0
 10
169.3242895451348
 20
102.4093891946702
 30
0.0
 10
169.2942825147697
 20
102.244124517688
 30
0.0
 10
169.2790821568178
 20
102.0884691882345
 30
0.0
 10
169.2864636666189
 20
101.9750906779592
 30
0.0
 10
169.3040296909406
 20
101.9442023811783
 30
0.0
 10
169.3115182698039
 20
101.9310343790076
 30
0.0
  0
LWPOLYLINE
  5
121
330
1F
100
AcDbEntity
  8
0
  6
HIDDEN
 62
     7
370
     0
100
AcDbPolyline
 90
       10
 70
   128
 43
0.0
 10
169.3178125187
 20
101.9164346397
 10
169.355346144
 20
101.9133846756
 10
169.3673964155
 20
101.9386631385
 10
169.3715242661
 20
101.9875825608
 10
169.3661564793
 20
102.0464175378
 10
169.3504459284
 20
102.1356792778
 10
169.3199102273
 20
102.2850102536
 10
169.2900104079
 20
102.4698954157
 10
169.2828393446
 20
102.5855502421
 10
169.2828393446
 20
102.5855502421
  0
LWPOLYLINE
  5
122
330
1F
100
AcDbEntity
  8
0
  6
HIDDEN
 62
     7
370
     0
100
AcDbPolyline
 90
       18
 70
   128
 43
0.0
 10
170.7828393446
 20
100.0419607452
 10
170.2409768453
 20
100.1135847619
 10
169.7722958791
 20
100.3187835919
 10
169.4400944076
 20
100.6298439959
 10
169.2892380802
 20
101.0047555429
 10
169.3401008798
 20
101.392884351
 10
169.5858135037
 20
101.7418114739
 10
169.9931911003
 20
102.0044123702
 10
170.5072150679
 20
102.1452213337
 10
171.0584636213
 20
102.1452213337
 10
171.5724875889
 20
102.0044123702
 10
171.9798651855
 20
101.7418114739
 10
172.2255778094
 20
101.392884351
 10
172.276440609
 20
101.0047555429
 10
172.1255842816
 20
100.6298439959
 10
171.7933828101
 20
100.3187835919
 10
171.3247018439
 20
100.1135847619
 10
170.7828393446
 20
100.0419607452
  0
ELLIPSE
  5
123
330
1F
100
AcDbEntity
  8
0
  6
HIDDEN
 62
     7
370
     0
100
AcDbEllipse
 10
78.5981661443
 20
111.7092226347
 30
0.0
 11
31.08108570811662
 21
-1.421085471520200E-14
 31
0.0
210
0.0
220
0.0
230
1.0
 40
0.8164965809
 41
4.915995335118102
 42
4.970536038964788
  0
ELLIPSE
  5
124
330
1F
100
AcDbEntity
  8
0
  6
HIDDEN
 62
     7
370
     0
100
AcDbEllipse
 10
78.5981661443
 20
111.7092226347
 30
0.0
 11
31.08108570811662
 21
1.421085471520200E-14
 31
0.0
210
0.0
220
0.0
230
1.0
 40
0.8164965809
 41
1.312649268214811
 42
1.367189972061496
  0
LINE
  5
125
330
1F
100
AcDbEntity
  8
0
  6
HIDDEN
 62
     7
370
     0
100
AcDbLine
 10
163.7328393446
 20
67.8092226347
 30
0.0
 11
149.7328393446
 21
67.8092226347
 31
0.0
  0
LINE
  5
126
330
1F
100
AcDbEntity
  8
0
  6
HIDDEN
 62
     7
370
     0
100
AcDbLine
 10
139.7328393446
 20
61.7192236349
 30
0.0
 11
139.7328393446
 21
67.8092226347
 31
0.0
  0
LINE
  5
127
330
1F
100
AcDbEntity
  8
0
  6
HIDDEN
 62
     7
370
     0
100
AcDbLine
 10
149.7328393446
 20
67.8092226347
 30
0.0
 11
139.7328393446
 21
67.8092226347
 31
0.0
  0
ARC
  5
128
330
1F
100
AcDbEntity
  8
0
  6
HIDDEN
 62
     7
370
     0
100
AcDbCircle
 10
156.6874252253
 20
102.4113488526
 30
0.0
 40
13.15466024513225
100
AcDbArc
 50
1.810275534
 51
4.7678934514
  0
LINE
  5
129
330
1F
100
AcDbEntity
  8
0
  6
HIDDEN
 62
     7
370
     0
100
AcDbLine
 10
99.9828393446
 20
84.3392226347
 30
0.0
 11
99.9828393446
 21
86.4807090043
 31
0.0
  0
LINE
  5
12A
330
1F
100
AcDbEntity
  8
0
  6
HIDDEN
 62
     7
370
     0
100
AcDbLine
 10
86.5328393446
 20
84.3392226347
 30
0.0
 11
86.5328393446
 21
87.172517477
 31
0.0
  0
LINE
  5
12B
330
1F
100
AcDbEntity
  8
0
  6
HIDDEN
 62
     7
370
     0
100
AcDbLine
 10
94.9828393446
 20
139.0792226347
 30
0.0
 11
94.9828393446
 21
136.9377362652
 31
0.0
  0
LINE
  5
12C
330
1F
100
AcDbEntity
  8
0
  6
HIDDEN
 62
     7
370
     0
100
AcDbLine
 10
86.5328393446
 20
139.0792226347
 30
0.0
 11
86.5328393446
 21
136.2459277925
 31
0.0
  0
LINE
  5
12D
330
1F
100
AcDbEntity
  8
0
  6
HIDDEN
 62
     7
370
     0
100
AcDbLine
 10
149.7328393446
 20
155.6092226347
 30
0.0
 11
139.7328393446
 21
155.6092226347
 31
0.0
  0
LINE
  5
12E
330
1F
100
AcDbEntity
  8
0
  6
HIDDEN
 62
     7
370
     0
100
AcDbLine
 10
163.7328393446
 20
155.6092226347
 30
0.0
 11
149.7328393446
 21
155.6092226347
 31
0.0
  0
ARC
  5
12F
330
1F
100
AcDbEntity
  8
0
  6
HIDDEN
 62
     7
370
     0
100
AcDbCircle
 10
185.9851897004
 20
102.4139383162
 30
0.0
 40
16.1965766683051
100
AcDbArc
 50
181.7954811518
 51
184.3616432553
  0
SPLINE
  5
130
330
1F
100
AcDbEntity
  8
0
  6
HIDDEN
 62
     7
370
     0
100
AcDbSpline
210
0.0
220
0.0
230
1.0
 70
     8
 71
     3
 72
     8
 73
     4
 74
     0
 42
0.00000001
 43
0.00000001
 40
0.0
 40
0.0
 40
0.0
 40
0.0
 40
1.0
 40
1.0
 40
1.0
 40
1.0
 10
171.8880653264786
 20
117.5381520924503
 30
0.0
 10
171.9379770661951
 20
117.5050849107166
 30
0.0
 10
171.9835651354661
 20
117.463082458247
 30
0.0
 10
172.0248733838089
 20
117.4142634528269
 30
0.0
  0
SPLINE
  5
131
330
1F
100
AcDbEntity
  8
0
  6
HIDDEN
 62
     7
370
     0
100
AcDbSpline
210
0.0
220
0.0
230
1.0
 70
     8
 71
     3
 72
    34
 73
    30
 74
     0
 42
0.00000001
 43
0.00000001
 40
0.0
 40
0.0
 40
0.0
 40
0.0
 40
0.0625000000000007
 40
0.0625000000000007
 40
0.1250000000000014
 40
0.1250000000000014
 40
0.2499999999999999
 40
0.2499999999999999
 40
0.3125000000000005
 40
0.3125000000000005
 40
0.3750000000000011
 40
0.3750000000000011
 40
0.5000000000000007
 40
0.5000000000000007
 40
0.5625000000000006
 40
0.5625000000000006
 40
0.6250000000000004
 40
0.6250000000000004
 40
0.6875000000000004
 40
0.6875000000000004
 40
0.7500000000000003
 40
0.7500000000000003
 40
0.8125000000000002
 40
0.8125000000000002
 40
0.8750000000000001
 40
0.8750000000000001
 40
0.9375000000000001
 40
0.9375000000000001
 40
1.0
 40
1.0
 40
1.0
 40
1.0
 10
171.8880653264786
 20
116.1039446256054
 30
0.0
 10
171.7860157308796
 20
116.0142713250283
 30
0.0
 10
171.6701303966198
 20
115.9371801549329
 30
0.0
 10
171.4107437431713
 20
115.8105069751621
 30
0.0
 10
171.2705054786258
 20
115.7630215681714
 30
0.0
 10
170.8321701578717
 20
115.6757397524909
 30
0.0
 10
170.51682189913
 20
115.6956442610986
 30
0.0
 10
170.0993207921188
 20
115.8330460742926
 30
0.0
 10
169.9667412519974
 20
115.8970035491781
 30
0.0
 10
169.733497251843
 20
116.0493036645204
 30
0.0
 10
169.6294333848682
 20
116.139785983611
 30
0.0
 10
169.3768140080037
 20
116.4311188991263
 30
0.0
 10
169.2829407653732
 20
116.657621833862
 30
0.0
 10
169.2827887613991
 20
116.9773073190446
 30
0.0
 10
169.3051811278264
 20
117.0791638305617
 30
0.0
 10
169.3944973539838
 20
117.2709022555111
 30
0.0
 10
169.4594016514625
 20
117.3570650064385
 30
0.0
 10
169.6295025122255
 20
117.5125051555803
 30
0.0
 10
169.7313920880713
 20
117.578560834011
 30
0.0
 10
169.9659884643498
 20
117.6890912106678
 30
0.0
 10
170.0969820053199
 20
117.7324397863945
 30
0.0
 10
170.3757549195788
 20
117.7945195118711
 30
0.0
 10
170.5248509298135
 20
117.8133469939269
 30
0.0
 10
170.8234189831261
 20
117.8254751148044
 30
0.0
 10
170.9765518439587
 20
117.8188421053815
 30
0.0
 10
171.2677915915717
 20
117.7807851798346
 30
0.0
 10
171.4101452916682
 20
117.7487893441824
 30
0.0
 10
171.667710176565
 20
117.661663851331
 30
0.0
 10
171.786011220173
 20
117.6057642754567
 30
0.0
 10
171.8880653264786
 20
117.5381520924503
 30
0.0
  0
LINE
  5
132
330
1F
100
AcDbEntity
  8
0
  6
HIDDEN
 62
     7
370
     0
100
AcDbLine
 10
168.7828393446
 20
104.8092226347
 30
0.0
 11
168.7828393446
 21
118.6092225564
 31
0.0
  0
SPLINE
  5
133
330
1F
100
AcDbEntity
  8
0
  6
HIDDEN
 62
     7
370
     0
100
AcDbSpline
210
0.0
220
0.0
230
1.0
 70
     8
 71
     3
 72
    12
 73
     8
 74
     0
 42
0.00000001
 43
0.00000001
 40
0.0
 40
0.0
 40
0.0
 40
0.0
 40
0.2500000000000003
 40
0.2500000000000003
 40
0.5000000000000006
 40
0.5000000000000006
 40
1.0
 40
1.0
 40
1.0
 40
1.0
 10
172.0248733838089
 20
117.4142634528269
 30
0.0
 10
172.1086711976428
 20
117.3152293351415
 30
0.0
 10
172.1725447542269
 20
117.2132399687061
 30
0.0
 10
172.2604108930908
 20
117.0010916498402
 30
0.0
 10
172.2827026969182
 20
116.8939377550605
 30
0.0
 10
172.2831107627795
 20
116.5779901607969
 30
0.0
 10
172.1924714849784
 20
116.3768051875683
 30
0.0
 10
172.0248733838089
 20
116.2248506183221
 30
0.0
  0
LINE
  5
134
330
1F
100
AcDbEntity
  8
0
  6
HIDDEN
 62
     7
370
     0
100
AcDbLine
 10
172.7828393446
 20
104.7092226347
 30
0.0
 11
172.7828393446
 21
118.7092226347
 31
0.0
  0
SPLINE
  5
135
330
1F
100
AcDbEntity
  8
0
  6
HIDDEN
 62
     7
370
     0
100
AcDbSpline
210
0.0
220
0.0
230
1.0
 70
     8
 71
     3
 72
    30
 73
    26
 74
     0
 42
0.00000001
 43
0.00000001
 40
0.0
 40
0.0
 40
0.0
 40
0.0
 40
0.0531112854686219
 40
0.1124940063890488
 40
0.1778933782543809
 40
0.2129185733772092
 40
0.2494728603268793
 40
0.291240032004724
 40
0.3260834867465202
 40
0.3539995120540035
 40
0.3749854606038862
 40
0.4414452339242781
 40
0.5001646966355473
 40
0.5546811293512593
 40
0.6144272273503592
 40
0.6794546282422691
 40
0.7140127249543904
 40
0.7499108386205571
 40
0.7913766609246694
 40
0.8260446991419677
 40
0.8539111693386819
 40
0.8749732193235406
 40
0.9411617863708618
 40
0.99991415413241
 40
1.0
 40
1.0
 40
1.0
 40
1.0
 10
125.7823241268549
 20
74.60931108797705
 30
0.0
 10
125.7661341496419
 20
74.61420934806287
 30
0.0
 10
125.7318424659824
 20
74.62458425984528
 30
0.0
 10
125.4305644695726
 20
74.70022795230442
 30
0.0
 10
124.9884006347622
 20
74.79651306334883
 30
0.0
 10
124.4935672214523
 20
74.89617807092982
 30
0.0
 10
124.0230916999483
 20
74.98845617694913
 30
0.0
 10
123.4921702313123
 20
75.08408822170233
 30
0.0
 10
122.9540197390749
 20
75.16973846207337
 30
0.0
 10
122.4959724029332
 20
75.2370302555973
 30
0.0
 10
121.8404080822841
 20
75.32537842444123
 30
0.0
 10
120.9571016440093
 20
75.42203650876586
 30
0.0
 10
119.8284399113791
 20
75.50881168550616
 30
0.0
 10
118.7386781616134
 20
75.54689038322459
 30
0.0
 10
117.6426498831888
 20
75.54874081798651
 30
0.0
 10
116.7372586362435
 20
75.52257936240184
 30
0.0
 10
116.0409559258286
 20
75.48597213727287
 30
0.0
 10
115.5142761975535
 20
75.44695526179584
 30
0.0
 10
115.0476300825209
 20
75.40474613432389
 30
0.0
 10
114.6764148067971
 20
75.36774204475451
 30
0.0
 10
114.422368329555
 20
75.33904128431016
 30
0.0
 10
114.1213131768456
 20
75.3026613337204
 30
0.0
 10
113.8658293820417
 20
75.26988116673239
 30
0.0
 10
113.7666086570964
 20
75.25354328202762
 30
0.0
 10
113.782889214379
 20
75.25613686819815
 30
0.0
 10
113.7829129679649
 20
75.25614065228068
 30
0.0
  0
SPLINE
  5
136
330
1F
100
AcDbEntity
  8
0
  6
HIDDEN
 62
     7
370
     0
100
AcDbSpline
210
0.0
220
0.0
230
1.0
 70
     8
 71
     3
 72
    30
 73
    26
 74
     0
 42
0.00000001
 43
0.00000001
 40
0.0
 40
0.0
 40
0.0
 40
0.0
 40
0.0001272210143991
 40
0.0285575840301746
 40
0.0588606970324807
 40
0.0910407345838284
 40
0.1251011218395797
 40
0.154689204296235
 40
0.1963674254352879
 40
0.2501213183998723
 40
0.3205355072528489
 40
0.3856195806702074
 40
0.4454121209784618
 40
0.4999646168103646
 40
0.5283564635585286
 40
0.5586406006812671
 40
0.5908246907989132
 40
0.6249150580120804
 40
0.6541896081211352
 40
0.6958675376440279
 40
0.749934453720154
 40
0.8215931857789869
 40
0.8871439718609582
 40
0.9466386696559844
 40
1.0
 40
1.0
 40
1.0
 40
1.0
 10
113.7829473047446
 20
148.1622315893872
 30
0.0
 10
113.7829112036129
 20
148.1622394610616
 30
0.0
 10
113.7748075023129
 20
148.1640064333343
 30
0.0
 10
113.8034648740253
 20
148.158552412004
 30
0.0
 10
113.8768565744141
 20
148.1480085912475
 30
0.0
 10
114.0205116924228
 20
148.1283236694553
 30
0.0
 10
114.2215477909274
 20
148.1034843256802
 30
0.0
 10
114.5041782377886
 20
148.069275881077
 30
0.0
 10
114.9175874018602
 20
148.0255959765973
 30
0.0
 10
115.5938748876257
 20
147.9625529121555
 30
0.0
 10
116.5323057941485
 20
147.9012557405984
 30
0.0
 10
117.6417990061535
 20
147.8699672973969
 30
0.0
 10
118.7392797371956
 20
147.8716224649227
 30
0.0
 10
119.6393109755765
 20
147.9029286670353
 30
0.0
 10
120.3506519014376
 20
147.9497618158358
 30
0.0
 10
120.9160688024261
 20
147.9969286777322
 30
0.0
 10
121.5049922252551
 20
148.056367684282
 30
0.0
 10
122.0694018777324
 20
148.1227248908901
 30
0.0
 10
122.6635980716686
 20
148.2046442973216
 30
0.0
 10
123.3302062326391
 20
148.306292280072
 30
0.0
 10
124.1315389783393
 20
148.4484311906723
 30
0.0
 10
124.8840489628473
 20
148.5996757614387
 30
0.0
 10
125.4293354578134
 20
148.7175266346981
 30
0.0
 10
125.7320569893123
 20
148.7937558664473
 30
0.0
 10
125.7663474399253
 20
148.8042081759418
 30
0.0
 10
125.7825608765753
 20
148.809150305742
 30
0.0
  0
SPLINE
  5
137
330
1F
100
AcDbEntity
  8
0
  6
HIDDEN
 62
     7
370
     0
100
AcDbSpline
210
0.0
220
0.0
230
1.0
 70
     8
 71
     3
 72
     8
 73
     4
 74
     0
 42
0.00000001
 43
0.00000001
 40
0.0
 40
0.0
 40
0.0
 40
0.0
 40
1.0
 40
1.0
 40
1.0
 40
1.0
 10
172.0248733838089
 20
116.2248506183221
 30
0.0
 10
171.9835651354661
 20
116.1873980634337
 30
0.0
 10
171.9379770661951
 20
116.1478032064421
 30
0.0
 10
171.8880653264786
 20
116.1039446256054
 30
0.0
  0
LINE
  5
138
330
1F
100
AcDbEntity
  8
0
  6
HIDDEN
 62
     7
370
     0
100
AcDbLine
 10
176.7328393446
 20
133.6318723655
 30
0.0
 11
179.2328393446
 21
133.6318723655
 31
0.0
  0
LINE
  5
139
330
1F
100
AcDbEntity
  8
0
  6
HIDDEN
 62
     7
370
     0
100
AcDbLine
 10
174.2328393446
 20
133.6318723655
 30
0.0
 11
176.7328393446
 21
133.6318723655
 31
0.0
  0
LINE
  5
13A
330
1F
100
AcDbEntity
  8
0
  6
HIDDEN
 62
     7
370
     0
100
AcDbLine
 10
179.2328393446
 20
89.7865729039
 30
0.0
 11
174.2328393446
 21
89.7865729039
 31
0.0
  0
LINE
  5
13B
330
1F
100
AcDbEntity
  8
0
  6
HIDDEN
 62
     7
370
     0
100
AcDbLine
 10
176.7328393446
 20
122.2092226347
 30
0.0
 11
179.2328393446
 21
122.2092226347
 31
0.0
  0
LINE
  5
13C
330
1F
100
AcDbEntity
  8
0
  6
HIDDEN
 62
     7
370
     0
100
AcDbLine
 10
174.2328393446
 20
122.2092226347
 30
0.0
 11
176.7328393446
 21
122.2092226347
 31
0.0
  0
LINE
  5
13D
330
1F
100
AcDbEntity
  8
0
  6
HIDDEN
 62
     7
370
     0
100
AcDbLine
 10
179.2328393446
 20
101.2092226347
 30
0.0
 11
174.2328393446
 21
101.2092226347
 31
0.0
  0
SPLINE
  5
13E
330
1F
100
AcDbEntity
  8
0
  6
HIDDEN
 62
     7
370
     0
100
AcDbSpline
210
0.0
220
0.0
230
1.0
 70
     8
 71
     3
 72
    10
 73
     6
 74
     0
 42
0.00000001
 43
0.00000001
 40
0.0
 40
0.0
 40
0.0
 40
0.0
 40
0.5
 40
0.5
 40
1.0
 40
1.0
 40
1.0
 40
1.0
 10
169.3022727894181
 20
121.1361260863566
 30
0.0
 10
169.2928867140443
 20
121.1956479159319
 30
0.0
 10
169.2864698261594
 20
121.2504845018808
 30
0.0
 10
169.2814895861673
 20
121.3501087676015
 30
0.0
 10
169.2831012295711
 20
121.3918340822696
 30
0.0
 10
169.2885558265483
 20
121.4255016824138
 30
0.0
  0
SPLINE
  5
13F
330
1F
100
AcDbEntity
  8
0
  6
HIDDEN
 62
     7
370
     0
100
AcDbSpline
210
0.0
220
0.0
230
1.0
 70
     8
 71
     3
 72
    18
 73
    14
 74
     0
 42
0.00000001
 43
0.00000001
 40
0.0
 40
0.0
 40
0.0
 40
0.0
 40
0.007671818881015
 40
0.1498533731987159
 40
0.2161912553356841
 40
0.2711456016041695
 40
0.3265075728915936
 40
0.3858179275283536
 40
0.4791596105432645
 40
0.6205994107433778
 40
0.7642808016212639
 40
0.9113576187215796
 40
1.0
 40
1.0
 40
1.0
 40
1.0
 10
169.3108684083621
 20
121.490976436261
 30
0.0
 10
169.3113230738316
 20
121.4923532102558
 30
0.0
 10
169.3202040387418
 20
121.5192456891402
 30
0.0
 10
169.343577107857
 20
121.5187046287661
 30
0.0
 10
169.364496890173
 20
121.4957039641835
 30
0.0
 10
169.3729289934765
 20
121.4565656101277
 30
0.0
 10
169.3705076856511
 20
121.3961891767019
 30
0.0
 10
169.3559106067858
 20
121.3061909150167
 30
0.0
 10
169.3275312754224
 20
121.1736186295356
 30
0.0
 10
169.2950107841162
 20
121.0081856974734
 30
0.0
 10
169.2789215879725
 20
120.8446278375119
 30
0.0
 10
169.2862028582798
 20
120.7292239837709
 30
0.0
 10
169.3050836706211
 20
120.6979854721609
 30
0.0
 10
169.3121838142578
 20
120.6862382064492
 30
0.0
  0
LWPOLYLINE
  5
140
330
1F
100
AcDbEntity
  8
0
  6
HIDDEN
 62
     7
370
     0
100
AcDbPolyline
 90
        8
 70
   128
 43
0.0
 10
169.3245903773
 20
120.6598649128
 10
169.3514477754
 20
120.653596388
 10
169.3659196406
 20
120.6741579136
 10
169.3714449918
 20
120.7098605544
 10
169.3691171246
 20
120.7625431033
 10
169.3568937023
 20
120.8449350234
 10
169.3290697625
 20
120.9880995974
 10
169.3022727894
 20
121.1361260864
  0
SPLINE
  5
141
330
1F
100
AcDbEntity
  8
0
  6
HIDDEN
 62
     7
370
     0
100
AcDbSpline
210
0.0
220
0.0
230
1.0
 70
     8
 71
     3
 72
    14
 73
    10
 74
     0
 42
0.00000001
 43
0.00000001
 40
0.0
 40
0.0
 40
0.0
 40
0.0
 40
0.25
 40
0.25
 40
0.5
 40
0.5
 40
0.75
 40
0.75
 40
1.0
 40
1.0
 40
1.0
 40
1.0
 10
169.8355201245875
 20
122.2362814307783
 30
0.0
 10
169.8716398694941
 20
122.2032323190055
 30
0.0
 10
169.9030915875859
 20
122.1630194289357
 30
0.0
 10
169.9464965561579
 20
122.0638414729958
 30
0.0
 10
169.9569704820179
 20
122.0065634744178
 30
0.0
 10
169.9485091285028
 20
121.8771917494329
 30
0.0
 10
169.929543418966
 20
121.8067619595145
 30
0.0
 10
169.8730329654131
 20
121.6615557193109
 30
0.0
 10
169.8364125963448
 20
121.5875326287553
 30
0.0
 10
169.7965649911028
 20
121.5119769453847
 30
0.0
  0
SPLINE
  5
142
330
1F
100
AcDbEntity
  8
0
  6
HIDDEN
 62
     7
370
     0
100
AcDbSpline
210
0.0
220
0.0
230
1.0
 70
     8
 71
     3
 72
    14
 73
    10
 74
     0
 42
0.00000001
 43
0.00000001
 40
0.0
 40
0.0
 40
0.0
 40
0.0
 40
0.25
 40
0.25
 40
0.5
 40
0.5
 40
0.75
 40
0.75
 40
1.0
 40
1.0
 40
1.0
 40
1.0
 10
169.7965649911028
 20
121.5119769453852
 30
0.0
 10
169.7642120977374
 20
121.5483679821833
 30
0.0
 10
169.7332379134994
 20
121.5839386133605
 30
0.0
 10
169.6833916728058
 20
121.6652093611357
 30
0.0
 10
169.6646918301302
 20
121.7132499538591
 30
0.0
 10
169.6747329864202
 20
121.8484868102069
 30
0.0
 10
169.7013235909677
 20
121.9286838292532
 30
0.0
 10
169.7627406892406
 20
122.0837966364394
 30
0.0
 10
169.79838094221
 20
122.1606897256503
 30
0.0
 10
169.8355201245874
 20
122.2362814307789
 30
0.0
  0
LWPOLYLINE
  5
143
330
1F
100
AcDbEntity
  8
0
  6
HIDDEN
 62
     7
370
     0
100
AcDbPolyline
 90
       18
 70
   128
 43
0.0
 10
170.7828393446
 20
120.9016107902
 10
171.3247018439
 20
120.9732348069
 10
171.7933828101
 20
121.1784336369
 10
172.1255842816
 20
121.4894940409
 10
172.276440609
 20
121.8644055879
 10
172.2255778094
 20
122.252534396
 10
171.9798651855
 20
122.6014615189
 10
171.5724875889
 20
122.8640624152
 10
171.0584636213
 20
123.0048713787
 10
170.5072150679
 20
123.0048713787
 10
169.9931911003
 20
122.8640624152
 10
169.5858135037
 20
122.6014615189
 10
169.3401008798
 20
122.252534396
 10
169.2892380802
 20
121.8644055879
 10
169.4400944076
 20
121.4894940409
 10
169.7722958791
 20
121.1784336369
 10
170.2409768453
 20
120.9732348069
 10
170.7828393446
 20
120.9016107902
  0
SPLINE
  5
144
330
1F
100
AcDbEntity
  8
0
  6
HIDDEN
 62
     7
370
     0
100
AcDbSpline
210
0.0
220
0.0
230
1.0
 70
     8
 71
     3
 72
    48
 73
    44
 74
     0
 42
0.00000001
 43
0.00000001
 40
-0.0625000000000002
 40
-0.0625000000000002
 40
0.0
 40
0.0
 40
0.0624999999999997
 40
0.0624999999999997
 40
0.1249999999999994
 40
0.1249999999999994
 40
0.1874999999999991
 40
0.1874999999999991
 40
0.2499999999999988
 40
0.2499999999999988
 40
0.3124999999999986
 40
0.3124999999999986
 40
0.3437499999999984
 40
0.3437499999999984
 40
0.3749999999999982
 40
0.3749999999999982
 40
0.4062499999999981
 40
0.4062499999999981
 40
0.4374999999999979
 40
0.4374999999999979
 40
0.4999999999999984
 40
0.4999999999999984
 40
0.5624999999999989
 40
0.5624999999999989
 40
0.6249999999999994
 40
0.6249999999999994
 40
0.6562499999999994
 40
0.6562499999999994
 40
0.6874999999999996
 40
0.6874999999999996
 40
0.7499999999999999
 40
0.7499999999999999
 40
0.8125000000000003
 40
0.8125000000000003
 40
0.8437500000000002
 40
0.8437500000000002
 40
0.875
 40
0.875
 40
0.9062499999999999
 40
0.9062499999999999
 40
0.9374999999999998
 40
0.9374999999999998
 40
1.0
 40
1.0
 40
1.0625
 40
1.0625
 10
172.0765855536232
 20
121.1866715475215
 30
0.0
 10
171.9134301976328
 20
120.8746474200692
 30
0.0
 10
171.8257262883816
 20
120.7253161667695
 30
0.0
 10
171.6737344589307
 20
120.4298321301849
 30
0.0
 10
171.612846841239
 20
120.2848688032227
 30
0.0
 10
171.6111630047938
 20
120.0336267163628
 30
0.0
 10
171.6696097052975
 20
119.941331124778
 30
0.0
 10
171.8146327746566
 20
119.8185352329574
 30
0.0
 10
171.9001518829172
 20
119.7857753053354
 30
0.0
 10
172.0594442251949
 20
119.7741834179647
 30
0.0
 10
172.13415826698
 20
119.7959305891908
 30
0.0
 10
172.2178126740306
 20
119.8804871511838
 30
0.0
 10
172.2403760318617
 20
119.9168793794003
 30
0.0
 10
172.272213005193
 20
120.00680883428
 30
0.0
 10
172.28136400381
 20
120.0610573125699
 30
0.0
 10
172.2839757779994
 20
120.1816206654733
 30
0.0
 10
172.2775207906063
 20
120.2497164531778
 30
0.0
 10
172.2503334401299
 20
120.3936055885773
 30
0.0
 10
172.2298136556599
 20
120.4693048239204
 30
0.0
 10
172.1513980861393
 20
120.7036541317651
 30
0.0
 10
172.0782120917625
 20
120.8643611165129
 30
0.0
 10
171.9212328360398
 20
121.1745073143867
 30
0.0
 10
171.8348575349902
 20
121.3274683008612
 30
0.0
 10
171.6857560807352
 20
121.621428795774
 30
0.0
 10
171.6210037314672
 20
121.7686739306373
 30
0.0
 10
171.608831194202
 20
121.9604634463723
 30
0.0
 10
171.6192124220671
 20
122.0175859049388
 30
0.0
 10
171.6628533534197
 20
122.1145812006521
 30
0.0
 10
171.6946522276979
 20
122.1533855417198
 30
0.0
 10
171.8047057867599
 20
122.2471860486083
 30
0.0
 10
171.8923722936893
 20
122.2775083586496
 30
0.0
 10
172.057108961308
 20
122.2827550998894
 30
0.0
 10
172.1324221529622
 20
122.2568996283559
 30
0.0
 10
172.2171360988964
 20
122.167574756267
 30
0.0
 10
172.2398331668203
 20
122.1300513415115
 30
0.0
 10
172.2720864348316
 20
122.0379241336659
 30
0.0
 10
172.2812451764793
 20
121.9834838924037
 30
0.0
 10
172.2840444753124
 20
121.8628861780755
 30
0.0
 10
172.2776505336099
 20
121.7949433729062
 30
0.0
 10
172.2505574695276
 20
121.6524863586695
 30
0.0
 10
172.2299356977372
 20
121.577357915711
 30
0.0
 10
172.1508408813968
 20
121.3454889118526
 30
0.0
 10
172.0765855536232
 20
121.1866715475215
 30
0.0
 10
171.9134301976328
 20
120.8746474200692
 30
0.0
  0
SPLINE
  5
145
330
1F
100
AcDbEntity
  8
0
  6
HIDDEN
 62
     7
370
     0
100
AcDbSpline
210
0.0
220
0.0
230
1.0
 70
     8
 71
     3
 72
    10
 73
     6
 74
     0
 42
0.00000001
 43
0.00000001
 40
0.0
 40
0.0
 40
0.0
 40
0.0
 40
0.5
 40
0.5
 40
1.0
 40
1.0
 40
1.0
 40
1.0
 10
169.7965649911028
 20
119.9136885486072
 30
0.0
 10
169.8761350542717
 20
119.9663601784938
 30
0.0
 10
169.9438304374302
 20
120.0519117408931
 30
0.0
 10
169.9615046605996
 20
120.2960466466029
 30
0.0
 10
169.9077829411922
 20
120.4421787383083
 30
0.0
 10
169.8355201245875
 20
120.5915405421286
 30
0.0
  0
SPLINE
  5
146
330
1F
100
AcDbEntity
  8
0
  6
HIDDEN
 62
     7
370
     0
100
AcDbSpline
210
0.0
220
0.0
230
1.0
 70
     8
 71
     3
 72
    14
 73
    10
 74
     0
 42
0.00000001
 43
0.00000001
 40
0.0
 40
0.0
 40
0.0
 40
0.0
 40
0.25
 40
0.25
 40
0.5
 40
0.5
 40
0.75
 40
0.75
 40
1.0
 40
1.0
 40
1.0
 40
1.0
 10
169.8355201245875
 20
120.5915405421286
 30
0.0
 10
169.7983080376175
 20
120.5586664420986
 30
0.0
 10
169.7625694815621
 20
120.5272123470831
 30
0.0
 10
169.7010737523792
 20
120.4571770517586
 30
0.0
 10
169.6745668864431
 20
120.4180756429999
 30
0.0
 10
169.664783546008
 20
120.2988971021386
 30
0.0
 10
169.6835667418172
 20
120.2206120187292
 30
0.0
 10
169.7334853504025
 20
120.0669683994475
 30
0.0
 10
169.7642940848179
 20
119.9898149297225
 30
0.0
 10
169.7965649911027
 20
119.9136885486072
 30
0.0
  0
ARC
  5
147
330
1F
100
AcDbEntity
  8
0
  6
HIDDEN
 62
     7
370
     0
100
AcDbCircle
 10
185.9851897004
 20
121.0045069533
 30
0.0
 40
16.19657666828791
100
AcDbArc
 50
175.6383567447
 51
178.2045188482
  0
LWPOLYLINE
  5
148
330
1F
100
AcDbEntity
  8
0
  6
HIDDEN
 62
     7
370
     0
100
AcDbPolyline
 90
       32
 70
   128
 43
0.0
 10
143.7828393446
 20
157.0219284865
 10
144.789331945
 20
156.9903005064
 10
145.7546186202
 20
156.8967114192
 10
146.6391804201
 20
156.7449927731
 10
147.4068032807
 20
156.5413559474
 10
148.0260606321
 20
156.2941378577
 10
148.4716000053
 20
156.0134596415
 10
148.7251809662
 20
155.710812298
 10
148.7764218805
 20
155.398586245
 10
148.6232249389
 20
155.0895640539
 10
148.2718620425
 20
154.7963971294
 10
147.7367180293
 20
154.5310877598
 10
147.0397017582
 20
154.304497742
 10
146.2093491573
 20
154.1259036978
 10
145.2796549595
 20
154.0026172885
 10
144.2886809545
 20
153.9396858741
 10
143.2769977347
 20
153.9396858741
 10
142.2860237297
 20
154.0026172885
 10
141.3563295319
 20
154.1259036978
 10
140.525976931
 20
154.304497742
 10
139.8289606599
 20
154.5310877598
 10
139.2938166467
 20
154.7963971294
 10
138.9424537503
 20
155.0895640539
 10
138.7892568087
 20
155.398586245
 10
138.840497723
 20
155.710812298
 10
139.0940786839
 20
156.0134596415
 10
139.5396180571
 20
156.2941378577
 10
140.1588754085
 20
156.5413559474
 10
140.9264982691
 20
156.7449927731
 10
141.811060069
 20
156.8967114192
 10
142.7763467442
 20
156.9903005064
 10
143.7828393446
 20
157.0219284865
  0
ARC
  5
149
330
1F
100
AcDbEntity
  8
0
  6
HIDDEN
 62
     7
370
     0
100
AcDbCircle
 10
156.6874252253
 20
121.0070964168
 30
0.0
 40
13.15466024518816
100
AcDbArc
 50
355.2321065486
 51
358.189724466
  0
LINE
  5
14A
330
1F
100
AcDbEntity
  8
0
  6
HIDDEN
 62
     7
370
     0
100
AcDbLine
 10
158.0448683655
 20
150.6601853956
 30
0.0
 11
158.0448683655
 21
143.0592226347
 31
0.0
  0
LINE
  5
14B
330
1F
100
AcDbEntity
  8
0
  6
HIDDEN
 62
     7
370
     0
100
AcDbLine
 10
152.8728393446
 20
146.4234578272
 30
0.0
 11
152.8728393446
 21
143.0592226347
 31
0.0
  0
LINE
  5
14C
330
1F
100
AcDbEntity
  8
0
  6
HIDDEN
 62
     7
370
     0
100
AcDbLine
 10
156.6928393446
 20
146.4234578272
 30
0.0
 11
156.6928393446
 21
143.0592226347
 31
0.0
  0
CIRCLE
  5
14D
330
1F
100
AcDbEntity
  8
0
  6
HIDDEN
 62
     7
370
     0
100
AcDbCircle
 10
141.7828393446
 20
111.7092226347
 30
0.0
 40
5.000000000000014
  0
LINE
  5
14E
330
1F
100
AcDbEntity
  8
0
  6
HIDDEN
 62
     7
370
     0
100
AcDbLine
 10
214.5519656802
 20
118.3485230516
 30
0.0
 11
214.7211940673
 21
118.6241049083
 31
0.0
  0
LINE
  5
14F
330
1F
100
AcDbEntity
  8
0
  6
HIDDEN
 62
     7
370
     0
100
AcDbLine
 10
214.7828393446
 20
121.0704732547
 30
0.0
 11
214.6351839942
 21
121.3438945922
 31
0.0
  0
LINE
  5
150
330
1F
100
AcDbEntity
  8
0
  6
HIDDEN
 62
     7
370
     0
100
AcDbLine
 10
214.6332299653
 20
121.3456858917
 30
0.0
 11
209.2992921615
 21
121.4938749578
 31
0.0
  0
LINE
  5
151
330
1F
100
AcDbEntity
  8
0
  6
HIDDEN
 62
     7
370
     0
100
AcDbLine
 10
209.2159774055
 20
118.4950320724
 30
0.0
 11
214.5499152094
 21
118.3468430063
 31
0.0
  0
LINE
  5
152
330
1F
100
AcDbEntity
  8
0
  6
HIDDEN
 62
     7
370
     0
100
AcDbLine
 10
209.2981200945
 20
121.49332874
 30
0.0
 11
208.7850104727
 21
121.007584106
 31
0.0
  0
LINE
  5
153
330
1F
100
AcDbEntity
  8
0
  6
HIDDEN
 62
     7
370
     0
100
AcDbLine
 10
208.7294887253
 20
119.0091266279
 30
0.0
 11
209.2148374734
 21
118.4956425229
 31
0.0
  0
LINE
  5
154
330
1F
100
AcDbEntity
  8
0
  6
HIDDEN
 62
     7
370
     0
100
AcDbLine
 10
209.273727197
 20
104.9244388386
 30
0.0
 11
208.7883784489
 21
104.4109547336
 31
0.0
  0
LINE
  5
155
330
1F
100
AcDbEntity
  8
0
  6
HIDDEN
 62
     7
370
     0
100
AcDbLine
 10
208.8439001963
 20
102.4124972555
 30
0.0
 11
209.3570098181
 21
101.9267526215
 31
0.0
  0
LINE
  5
156
330
1F
100
AcDbEntity
  8
0
  6
HIDDEN
 62
     7
370
     0
100
AcDbLine
 10
214.608804933
 20
105.0732383552
 30
0.0
 11
209.2748671291
 21
104.9250492891
 31
0.0
  0
LINE
  5
157
330
1F
100
AcDbEntity
  8
0
  6
HIDDEN
 62
     7
370
     0
100
AcDbLine
 10
209.3581818851
 20
101.9262064037
 30
0.0
 11
214.692119689
 21
102.0743954698
 31
0.0
  0
LINE
  5
158
330
1F
100
AcDbEntity
  8
0
  6
HIDDEN
 62
     7
370
     0
100
AcDbLine
 10
214.6940737179
 20
102.0761867693
 30
0.0
 11
214.7828393446
 21
102.2405588447
 31
0.0
  0
LINE
  5
159
330
1F
100
AcDbEntity
  8
0
  6
HIDDEN
 62
     7
370
     0
100
AcDbLine
 10
214.7800837909
 20
104.7959764532
 30
0.0
 11
214.6108554038
 21
105.0715583099
 31
0.0
  0
LINE
  5
15A
330
1F
100
AcDbEntity
  8
0
  6
HIDDEN
 62
     7
370
     0
100
AcDbLine
 10
134.7828393446
 20
72.3045396782
 30
0.0
 11
134.8724409685
 21
72.9420883601
 31
0.0
  0
LINE
  5
15B
330
1F
100
AcDbEntity
  8
0
  6
HIDDEN
 62
     7
370
     0
100
AcDbLine
 10
134.8724409685
 20
150.4763569094
 30
0.0
 11
134.7828393446
 21
151.1139055913
 31
0.0
  0
ARC
  5
15C
330
1F
100
AcDbEntity
  8
0
  6
HIDDEN
 62
     7
370
     0
100
AcDbCircle
 10
133.8859024261
 20
73.0807373103
 30
0.0
 40
0.9962338214386983
100
AcDbArc
 50
352.0
 51
0.0
  0
ARC
  5
15D
330
1F
100
AcDbEntity
  8
0
  6
HIDDEN
 62
     7
370
     0
100
AcDbCircle
 10
133.8859024261
 20
73.0807373103
 30
0.0
 40
0.9962338214386983
100
AcDbArc
 50
0.0
 51
25.7988228126
  0
ARC
  5
15E
330
1F
100
AcDbEntity
  8
0
  6
HIDDEN
 62
     7
370
     0
100
AcDbCircle
 10
133.8859024261
 20
150.3377079592
 30
0.0
 40
0.9962338214387133
100
AcDbArc
 50
348.75
 51
8.0
  0
LWPOLYLINE
  5
15F
330
1F
100
AcDbEntity
  8
0
  6
HIDDEN
 62
     7
370
     0
100
AcDbPolyline
 90
        3
 70
   128
 43
0.0
 10
134.8629938941
 20
150.1433523822
 10
134.8063024634
 20
149.956465781
 10
134.7828393446
 20
149.904134446
  0
LINE
  5
160
330
1F
100
AcDbEntity
  8
0
  6
HIDDEN
 62
     7
370
     0
100
AcDbLine
 10
134.8821362476
 20
73.0807373103
 30
0.0
 11
134.8821362476
 21
150.3377079592
 31
0.0
  0
ARC
  5
161
330
1F
100
AcDbEntity
  8
0
  6
HIDDEN
 62
     7
370
     0
100
AcDbCircle
 10
125.0360449998
 20
92.2092226347
 30
0.0
 40
12.00000000000001
100
AcDbArc
 50
273.1723879203
 51
324.3146652873
  0
ARC
  5
162
330
1F
100
AcDbEntity
  8
0
  6
HIDDEN
 62
     7
370
     0
100
AcDbCircle
 10
125.0360449998
 20
131.2092226347
 30
0.0
 40
12.0
100
AcDbArc
 50
35.6853347127
 51
86.8182302042
  0
ARC
  5
163
330
1F
100
AcDbEntity
  8
0
  6
HIDDEN
 62
     7
370
     0
100
AcDbCircle
 10
108.2435652868
 20
81.2092226347
 30
0.0
 40
1.000000000000008
100
AcDbArc
 50
210.0
 51
270.0
  0
ARC
  5
164
330
1F
100
AcDbEntity
  8
0
  6
HIDDEN
 62
     7
370
     0
100
AcDbCircle
 10
108.2435652868
 20
142.2092226347
 30
0.0
 40
1.000000000000008
100
AcDbArc
 50
90.0
 51
150.0
  0
LINE
  5
165
330
1F
100
AcDbEntity
  8
0
  6
HIDDEN
 62
     7
370
     0
100
AcDbLine
 10
108.2435652868
 20
80.2092226347
 30
0.0
 11
113.8286693952
 21
80.2092226347
 31
0.0
  0
LINE
  5
166
330
1F
100
AcDbEntity
  8
0
  6
HIDDEN
 62
     7
370
     0
100
AcDbLine
 10
113.8286693952
 20
143.2092226347
 30
0.0
 11
108.2435652868
 21
143.2092226347
 31
0.0
  0
LINE
  5
167
330
1F
100
AcDbEntity
  8
0
  6
HIDDEN
 62
     7
370
     0
100
AcDbLine
 10
107.377539883
 20
142.7092226347
 30
0.0
 11
104.7794636716
 21
138.2092226347
 31
0.0
  0
LINE
  5
168
330
1F
100
AcDbEntity
  8
0
  6
HIDDEN
 62
     7
370
     0
100
AcDbLine
 10
104.7794636716
 20
85.2092226347
 30
0.0
 11
107.377539883
 21
80.7092226347
 31
0.0
  0
ARC
  5
169
330
1F
100
AcDbEntity
  8
0
  6
HIDDEN
 62
     7
370
     0
100
AcDbCircle
 10
145.2328393446
 20
86.8342226347
 30
0.0
 40
2.0
100
AcDbArc
 50
234.3409123039
 51
0.0
  0
ARC
  5
16A
330
1F
100
AcDbEntity
  8
0
  6
HIDDEN
 62
     7
370
     0
100
AcDbCircle
 10
145.2328393446
 20
136.5842226347
 30
0.0
 40
2.0
100
AcDbArc
 50
0.0
 51
125.6590876961
  0
LINE
  5
16B
330
1F
100
AcDbEntity
  8
0
  6
HIDDEN
 62
     7
370
     0
100
AcDbLine
 10
99.9828393446
 20
85.2092226347
 30
0.0
 11
104.7794636716
 21
85.2092226347
 31
0.0
  0
LINE
  5
16C
330
1F
100
AcDbEntity
  8
0
  6
HIDDEN
 62
     7
370
     0
100
AcDbLine
 10
104.7794636716
 20
138.2092226347
 30
0.0
 11
94.9828393446
 21
138.2092226347
 31
0.0
  0
LINE
  5
16D
330
1F
100
AcDbEntity
  8
0
  6
HIDDEN
 62
     7
370
     0
100
AcDbLine
 10
134.7828393446
 20
85.2092226347
 30
0.0
 11
144.066916963
 21
85.2092226347
 31
0.0
  0
LINE
  5
16E
330
1F
100
AcDbEntity
  8
0
  6
HIDDEN
 62
     7
370
     0
100
AcDbLine
 10
144.066916963
 20
138.2092226347
 30
0.0
 11
134.7828393446
 21
138.2092226347
 31
0.0
  0
LINE
  5
16F
330
1F
100
AcDbEntity
  8
0
  6
HIDDEN
 62
     7
370
     0
100
AcDbLine
 10
138.7828393446
 20
157.3807760139
 30
0.0
 11
138.7828393446
 21
153.6866364134
 31
0.0
  0
LINE
  5
170
330
1F
100
AcDbEntity
  8
0
  6
HIDDEN
 62
     7
370
     0
100
AcDbLine
 10
148.7828393446
 20
153.6866364134
 30
0.0
 11
148.7828393446
 21
157.3862842723
 31
0.0
  0
LINE
  5
171
330
1F
100
AcDbEntity
  8
0
  6
HIDDEN
 62
     7
370
     0
100
AcDbLine
 10
159.0828393446
 20
98.7092226347
 30
0.0
 11
163.0828393446
 21
98.7092226347
 31
0.0
  0
LINE
  5
172
330
1F
100
AcDbEntity
  8
0
  6
HIDDEN
 62
     7
370
     0
100
AcDbLine
 10
163.0828393446
 20
124.7092226347
 30
0.0
 11
159.0828393446
 21
124.7092226347
 31
0.0
  0
LINE
  5
173
330
1F
100
AcDbEntity
  8
0
  6
HIDDEN
 62
     7
370
     0
100
AcDbLine
 10
147.2328393446
 20
99.7092226347
 30
0.0
 11
147.9828393446
 21
100.4592226347
 31
0.0
  0
LINE
  5
174
330
1F
100
AcDbEntity
  8
0
  6
HIDDEN
 62
     7
370
     0
100
AcDbLine
 10
147.9828393446
 20
122.9592226347
 30
0.0
 11
147.2328393446
 21
123.7092226347
 31
0.0
  0
LINE
  5
175
330
1F
100
AcDbEntity
  8
0
  6
HIDDEN
 62
     7
370
     0
100
AcDbLine
 10
172.2828393446
 20
103.2728923704
 30
0.0
 11
172.2828393446
 21
106.629267907
 31
0.0
  0
LINE
  5
176
330
1F
100
AcDbEntity
  8
0
  6
HIDDEN
 62
     7
370
     0
100
AcDbLine
 10
172.2828393446
 20
101.1026209169
 30
0.0
 11
172.2828393446
 21
101.5206962211
 31
0.0
  0
LINE
  5
177
330
1F
100
AcDbEntity
  8
0
  6
HIDDEN
 62
     7
370
     0
100
AcDbLine
 10
169.2828393446
 20
102.0770002117
 30
0.0
 11
169.2828393446
 21
101.1026209169
 31
0.0
  0
LINE
  5
178
330
1F
100
AcDbEntity
  8
0
  6
HIDDEN
 62
     7
370
     0
100
AcDbLine
 10
169.2828393446
 20
106.5488275677
 30
0.0
 11
169.2828393446
 21
102.5855502421
 31
0.0
  0
LINE
  5
179
330
1F
100
AcDbEntity
  8
0
  6
HIDDEN
 62
     7
370
     0
100
AcDbLine
 10
147.9828393446
 20
100.4592226347
 30
0.0
 11
159.0828393446
 21
100.4592226347
 31
0.0
  0
LINE
  5
17A
330
1F
100
AcDbEntity
  8
0
  6
HIDDEN
 62
     7
370
     0
100
AcDbLine
 10
159.0828393446
 20
122.9592226347
 30
0.0
 11
147.9828393446
 21
122.9592226347
 31
0.0
  0
LINE
  5
17B
330
1F
100
AcDbEntity
  8
0
  6
HIDDEN
 62
     7
370
     0
100
AcDbLine
 10
171.9950078756
 20
101.1382679168
 30
0.0
 11
214.7828393446
 21
102.327012334
 31
0.0
  0
LINE
  5
17C
330
1F
100
AcDbEntity
  8
0
  6
HIDDEN
 62
     7
370
     0
100
AcDbLine
 10
214.7828393446
 20
104.8279769682
 30
0.0
 11
171.9906276324
 21
103.6391108577
 31
0.0
  0
LINE
  5
17D
330
1F
100
AcDbEntity
  8
0
  6
HIDDEN
 62
     7
370
     0
100
AcDbLine
 10
139.7328393446
 20
161.7092226347
 30
0.0
 11
139.7328393446
 21
155.6092226347
 31
0.0
  0
LINE
  5
17E
330
1F
100
AcDbEntity
  8
0
  6
HIDDEN
 62
     7
370
     0
100
AcDbLine
 10
169.307321187
 20
102.7343328612
 30
0.0
 11
169.0670359922
 21
102.3074044374
 31
0.0
  0
LINE
  5
17F
330
1F
100
AcDbEntity
  8
0
  6
HIDDEN
 62
     7
370
     0
100
AcDbLine
 10
169.0670359922
 20
102.3074044374
 30
0.0
 11
169.308538667
 21
101.929117376
 31
0.0
  0
ARC
  5
180
330
1F
100
AcDbEntity
  8
0
  6
HIDDEN
 62
     7
370
     0
100
AcDbCircle
 10
214.4828393446
 20
104.4092226347
 30
0.0
 40
0.3000000000000114
100
AcDbArc
 50
0.0
 51
90.0
  0
ARC
  5
181
330
1F
100
AcDbEntity
  8
0
  6
HIDDEN
 62
     7
370
     0
100
AcDbCircle
 10
214.4828393446
 20
119.0092226347
 30
0.0
 40
0.3000000000000114
100
AcDbArc
 50
270.0
 51
0.0
  0
ARC
  5
182
330
1F
100
AcDbEntity
  8
0
  6
HIDDEN
 62
     7
370
     0
100
AcDbCircle
 10
171.8880653265
 20
118.6092226347
 30
0.0
 40
0.3999999999999941
100
AcDbArc
 50
70.0
 51
90.0
  0
LINE
  5
183
330
1F
100
AcDbEntity
  8
0
  6
HIDDEN
 62
     7
370
     0
100
AcDbLine
 10
169.1828393446
 20
104.4092226347
 30
0.0
 11
171.8880653265
 21
104.4092226347
 31
0.0
  0
LINE
  5
184
330
1F
100
AcDbEntity
  8
0
  6
HIDDEN
 62
     7
370
     0
100
AcDbLine
 10
171.8880653265
 20
119.0092226347
 30
0.0
 11
169.1828393446
 21
119.0092226347
 31
0.0
  0
ARC
  5
185
330
1F
100
AcDbEntity
  8
0
  6
HIDDEN
 62
     7
370
     0
100
AcDbCircle
 10
169.1828393446
 20
104.8092226347
 30
0.0
 40
0.4000000000000057
100
AcDbArc
 50
180.0
 51
270.0
  0
ARC
  5
186
330
1F
100
AcDbEntity
  8
0
  6
HIDDEN
 62
     7
370
     0
100
AcDbCircle
 10
169.1828393446
 20
118.6092226347
 30
0.0
 40
0.4000000000000057
100
AcDbArc
 50
90.0
 51
180.0
  0
LINE
  5
187
330
1F
100
AcDbEntity
  8
0
  6
HIDDEN
 62
     7
370
     0
100
AcDbLine
 10
172.0248733838
 20
104.4333455864
 30
0.0
 11
172.7828393446
 21
104.7092226347
 31
0.0
  0
LINE
  5
188
330
1F
100
AcDbEntity
  8
0
  6
HIDDEN
 62
     7
370
     0
100
AcDbLine
 10
172.7828393446
 20
118.7092226347
 30
0.0
 11
172.0248733838
 21
118.9850996831
 31
0.0
  0
LINE
  5
189
330
1F
100
AcDbEntity
  8
0
  6
HIDDEN
 62
     7
370
     0
100
AcDbLine
 10
172.7828393446
 20
104.7092226347
 30
0.0
 11
214.4828393446
 21
104.7092226347
 31
0.0
  0
LINE
  5
18A
330
1F
100
AcDbEntity
  8
0
  6
HIDDEN
 62
     7
370
     0
100
AcDbLine
 10
214.4828393446
 20
118.7092226347
 30
0.0
 11
172.7828393446
 21
118.7092226347
 31
0.0
  0
LINE
  5
18B
330
1F
100
AcDbEntity
  8
0
  6
HIDDEN
 62
     7
370
     0
100
AcDbLine
 10
126.2155519606
 20
74.1309430641
 30
0.0
 11
125.7828426741
 21
74.6091677815
 31
0.0
  0
LINE
  5
18C
330
1F
100
AcDbEntity
  8
0
  6
HIDDEN
 62
     7
370
     0
100
AcDbLine
 10
113.7828398026
 20
75.2561291382
 30
0.0
 11
113.3022124974
 21
74.7779044274
 31
0.0
  0
LINE
  5
18D
330
1F
100
AcDbEntity
  8
0
  6
HIDDEN
 62
     7
370
     0
100
AcDbLine
 10
113.3020941559
 20
148.640534926
 30
0.0
 11
113.78283962
 21
148.1622552541
 31
0.0
  0
LINE
  5
18E
330
1F
100
AcDbEntity
  8
0
  6
HIDDEN
 62
     7
370
     0
100
AcDbLine
 10
125.7828393467
 20
148.8092276415
 30
0.0
 11
126.2156610164
 21
149.2875073143
 31
0.0
  0
LINE
  5
18F
330
1F
100
AcDbEntity
  8
0
  6
HIDDEN
 62
     7
370
     0
100
AcDbLine
 10
125.7828393446
 20
74.6092868507
 30
0.0
 11
125.7828393446
 21
80.2433447077
 31
0.0
  0
LINE
  5
190
330
1F
100
AcDbEntity
  8
0
  6
HIDDEN
 62
     7
370
     0
100
AcDbLine
 10
113.7828393446
 20
80.2177020027
 30
0.0
 11
113.7828393446
 21
75.2561675527
 31
0.0
  0
LINE
  5
191
330
1F
100
AcDbEntity
  8
0
  6
HIDDEN
 62
     7
370
     0
100
AcDbLine
 10
125.7828393446
 20
143.1751005618
 30
0.0
 11
125.7828393446
 21
148.8090756395
 31
0.0
  0
LINE
  5
192
330
1F
100
AcDbEntity
  8
0
  6
HIDDEN
 62
     7
370
     0
100
AcDbLine
 10
113.7828393446
 20
148.1622447548
 30
0.0
 11
113.7828393446
 21
143.2007432668
 31
0.0
  0
LINE
  5
193
330
1F
100
AcDbEntity
  8
0
  6
HIDDEN
 62
     7
370
     0
100
AcDbLine
 10
163.0828393446
 20
106.5842226347
 30
0.0
 11
168.7828393446
 21
106.5842226347
 31
0.0
  0
LINE
  5
194
330
1F
100
AcDbEntity
  8
0
  6
HIDDEN
 62
     7
370
     0
100
AcDbLine
 10
168.7828393446
 20
116.8342226347
 30
0.0
 11
163.0828393446
 21
116.8342226347
 31
0.0
  0
ARC
  5
195
330
1F
100
AcDbEntity
  8
0
  6
HIDDEN
 62
     7
370
     0
100
AcDbCircle
 10
171.8880653265
 20
104.8092226347
 30
0.0
 40
0.4000000000000074
100
AcDbArc
 50
270.0
 51
290.0
  0
LINE
  5
196
330
1F
100
AcDbEntity
  8
0
  6
HIDDEN
 62
     7
370
     0
100
AcDbLine
 10
173.2328393446
 20
134.2092226347
 30
0.0
 11
174.2328393446
 21
133.6318723655
 31
0.0
  0
LINE
  5
197
330
1F
100
AcDbEntity
  8
0
  6
HIDDEN
 62
     7
370
     0
100
AcDbLine
 10
179.2328393446
 20
133.6318723655
 30
0.0
 11
180.2328393446
 21
134.2092226347
 31
0.0
  0
LINE
  5
198
330
1F
100
AcDbEntity
  8
0
  6
HIDDEN
 62
     7
370
     0
100
AcDbLine
 10
180.2328393446
 20
89.2092226347
 30
0.0
 11
179.2328393446
 21
89.7865729039
 31
0.0
  0
LINE
  5
199
330
1F
100
AcDbEntity
  8
0
  6
HIDDEN
 62
     7
370
     0
100
AcDbLine
 10
174.2328393446
 20
89.7865729039
 30
0.0
 11
173.2328393446
 21
89.2092226347
 31
0.0
  0
LINE
  5
19A
330
1F
100
AcDbEntity
  8
0
  6
HIDDEN
 62
     7
370
     0
100
AcDbLine
 10
174.2328393446
 20
133.6318723655
 30
0.0
 11
174.2328393446
 21
122.2092226347
 31
0.0
  0
LINE
  5
19B
330
1F
100
AcDbEntity
  8
0
  6
HIDDEN
 62
     7
370
     0
100
AcDbLine
 10
179.2328393446
 20
122.2092226347
 30
0.0
 11
179.2328393446
 21
133.6318723655
 31
0.0
  0
LINE
  5
19C
330
1F
100
AcDbEntity
  8
0
  6
HIDDEN
 62
     7
370
     0
100
AcDbLine
 10
174.2328393446
 20
122.2092226347
 30
0.0
 11
176.7328393446
 21
120.7070710872
 31
0.0
  0
LINE
  5
19D
330
1F
100
AcDbEntity
  8
0
  6
HIDDEN
 62
     7
370
     0
100
AcDbLine
 10
176.7328393446
 20
120.7070710872
 30
0.0
 11
179.2328393446
 21
122.2092226347
 31
0.0
  0
LINE
  5
19E
330
1F
100
AcDbEntity
  8
0
  6
HIDDEN
 62
     7
370
     0
100
AcDbLine
 10
179.2328393446
 20
101.2092226347
 30
0.0
 11
176.7328393446
 21
102.7113741823
 31
0.0
  0
LINE
  5
19F
330
1F
100
AcDbEntity
  8
0
  6
HIDDEN
 62
     7
370
     0
100
AcDbLine
 10
176.7328393446
 20
102.7113741823
 30
0.0
 11
174.2328393446
 21
101.2092226347
 31
0.0
  0
LINE
  5
1A0
330
1F
100
AcDbEntity
  8
0
  6
HIDDEN
 62
     7
370
     0
100
AcDbLine
 10
179.2328393446
 20
89.7865729039
 30
0.0
 11
179.2328393446
 21
101.2092226347
 31
0.0
  0
LINE
  5
1A1
330
1F
100
AcDbEntity
  8
0
  6
HIDDEN
 62
     7
370
     0
100
AcDbLine
 10
174.2328393446
 20
101.2092226347
 30
0.0
 11
174.2328393446
 21
89.7865729039
 31
0.0
  0
LINE
  5
1A2
330
1F
100
AcDbEntity
  8
0
  6
HIDDEN
 62
     7
370
     0
100
AcDbLine
 10
172.2828393446
 20
121.8978080693
 30
0.0
 11
172.2828393446
 21
121.9622709619
 31
0.0
  0
LINE
  5
1A3
330
1F
100
AcDbEntity
  8
0
  6
HIDDEN
 62
     7
370
     0
100
AcDbLine
 10
172.2828393446
 20
116.7891773625
 30
0.0
 11
172.2828393446
 21
120.1458882595
 31
0.0
  0
LINE
  5
1A4
330
1F
100
AcDbEntity
  8
0
  6
HIDDEN
 62
     7
370
     0
100
AcDbLine
 10
169.2828393446
 20
120.8353715382
 30
0.0
 11
169.2828393446
 21
116.8696177018
 31
0.0
  0
LINE
  5
1A5
330
1F
100
AcDbEntity
  8
0
  6
HIDDEN
 62
     7
370
     0
100
AcDbLine
 10
169.2828393446
 20
121.9622709619
 30
0.0
 11
169.2828393446
 21
121.3391558039
 31
0.0
  0
LINE
  5
1A6
330
1F
100
AcDbEntity
  8
0
  6
HIDDEN
 62
     7
370
     0
100
AcDbLine
 10
171.9938306424
 20
119.7792454248
 30
0.0
 11
214.7828393446
 21
118.5904683013
 31
0.0
  0
LINE
  5
1A7
330
1F
100
AcDbEntity
  8
0
  6
HIDDEN
 62
     7
370
     0
100
AcDbLine
 10
214.7828393446
 20
121.0914329355
 30
0.0
 11
171.9914289292
 21
122.2802767841
 31
0.0
  0
LINE
  5
1A8
330
1F
100
AcDbEntity
  8
0
  6
HIDDEN
 62
     7
370
     0
100
AcDbLine
 10
169.3099643794
 20
121.4915611134
 30
0.0
 11
169.0670359922
 21
121.1110408321
 31
0.0
  0
LINE
  5
1A9
330
1F
100
AcDbEntity
  8
0
  6
HIDDEN
 62
     7
370
     0
100
AcDbLine
 10
169.0670359922
 20
121.1110408321
 30
0.0
 11
169.3075783184
 21
120.6836555481
 31
0.0
  0
LINE
  5
1AA
330
1F
100
AcDbEntity
  8
0
  6
HIDDEN
 62
     7
370
     0
100
AcDbLine
 10
138.7828393446
 20
159.2560940982
 30
0.0
 11
138.7828393446
 21
157.3807760139
 31
0.0
  0
LINE
  5
1AB
330
1F
100
AcDbEntity
  8
0
  6
HIDDEN
 62
     7
370
     0
100
AcDbLine
 10
148.7828393446
 20
157.3862842723
 30
0.0
 11
148.7828393446
 21
159.261828531
 31
0.0
  0
DIMENSION
  5
1AC
330
1F
100
AcDbEntity
  8
VERMASSUNG
100
AcDbDimension
  2
*D1
 10
80.5171148148
 20
61.7092226347
 30
0.0
 11
80.5171148148
 21
111.7092226347
 31
0.0
 70
   160
  1
HSK A %%c<>
 71
     2
 42
-1.0
  3
SLDDIMSTYLE0
100
AcDbAlignedDimension
 13
135.2828393446
 23
161.7092226347
 33
0.0
 14
135.2828393446
 24
61.7092226347
 34
0.0
 50
90.0
100
AcDbRotatedDimension
  0
DIMENSION
  5
1B9
330
1F
100
AcDbEntity
  8
VERMASSUNG
100
AcDbDimension
  2
*D2
 10
224.8711739301
 20
104.7092226347
 30
0.0
 11
224.8711739301
 21
111.7092226347
 31
0.0
 70
   160
  1
%%c<>
 71
     2
 42
-1.0
  3
SLDDIMSTYLE0
100
AcDbAlignedDimension
 13
214.4828393446
 23
118.7092226347
 33
0.0
 14
214.4828393446
 24
104.7092226347
 34
0.0
 50
90.0
100
AcDbRotatedDimension
  0
DIMENSION
  5
1C4
330
1F
100
AcDbEntity
  8
VERMASSUNG
100
AcDbDimension
  2
*D3
 10
214.7828393446
 20
170.293716143
 30
0.0
 11
174.7828393446
 21
170.293716143
 31
0.0
 70
   160
 71
     2
 42
-1.0
  3
SLDDIMSTYLE0
100
AcDbAlignedDimension
 13
134.7828393446
 23
161.2092226347
 33
0.0
 14
214.7828393446
 24
126.4350821131
 34
0.0
100
AcDbRotatedDimension
  0
DIMENSION
  5
1CE
330
1F
100
AcDbEntity
  8
VERMASSUNG
100
AcDbDimension
  2
*D4
 10
214.7828393446
 20
164.293716143
 30
0.0
 11
189.2578393446
 21
164.293716143
 31
0.0
 70
   160
 71
     2
 42
-1.0
  3
SLDDIMSTYLE0
100
AcDbAlignedDimension
 13
163.7328393446
 23
159.6779624556
 33
0.0
 14
214.7828393446
 24
126.4350821131
 34
0.0
100
AcDbRotatedDimension
  0
DIMENSION
  5
1D8
330
1F
100
AcDbEntity
  8
VERMASSUNG
100
AcDbDimension
  2
*D5
 10
214.7828393446
 20
176.293716143
 30
0.0
 11
149.8328393446
 21
176.293716143
 31
0.0
 70
   160
 71
     2
 42
-1.0
  3
SLDDIMSTYLE0
100
AcDbAlignedDimension
 13
84.8828393446
 23
142.2118923773
 33
0.0
 14
214.7828393446
 24
126.4350821131
 34
0.0
100
AcDbRotatedDimension
  0
DIMENSION
  5
1E2
330
1F
100
AcDbEntity
  8
VERMASSUNG
100
AcDbDimension
  2
*D6
 10
230.8711739301
 20
89.2092226347
 30
0.0
 11
230.8711739301
 21
111.7092226347
 31
0.0
 70
   160
  1
%%c<>
 71
     2
 42
-1.0
  3
SLDDIMSTYLE0
100
AcDbAlignedDimension
 13
200.8435443613
 23
134.2092226347
 33
0.0
 14
200.8435443613
 24
89.2092226347
 34
0.0
 50
90.0
100
AcDbRotatedDimension
  0
LINE
  5
1ED
330
1F
100
AcDbEntity
  8
VERMASSUNG
  6
CENTERX2
 62
     7
370
     0
100
AcDbLine
 10
82.6323699836
 20
111.7092226347
 30
0.0
 11
219.0080135731
 21
111.7092226347
 31
0.0
  0
OLE2FRAME
  5
1EE
330
1F
100
AcDbEntity
  8
0
100
AcDbOle2Frame
 70
     2
  3
Bitmap Image
 10
13.8511154363
 20
38.264191557
 30
0.0
 11
51.6290888628
 21
31.9806341108
 31
0.0
 71
     2
 72
     0
 73
     1
 90
    12928
310
80552BED0767C5B32B40DDAF6807D121434000000000000000006FFBDDFB85D0
310
4940DDAF6807D121434000000000000000006FFBDDFB85D04940416F4BD60AFB
310
3F4000000000000000002BED0767C5B32B40416F4BD60AFB3F40000000000000
310
0000000000000100000000010000010000000100000000000100000000320000
310
D0CF11E0A1B11AE1000000000000000000000000000000003E000300FEFF0900
310
0600000000000000000000000100000001000000000000000010000002000000
310
01000000FEFFFFFF0000000000000000FFFFFFFFFFFFFFFFFFFFFFFFFFFFFFFF
310
FFFFFFFFFFFFFFFFFFFFFFFFFFFFFFFFFFFFFFFFFFFFFFFFFFFFFFFFFFFFFFFF
310
FFFFFFFFFFFFFFFFFFFFFFFFFFFFFFFFFFFFFFFFFFFFFFFFFFFFFFFFFFFFFFFF
310
FFFFFFFFFFFFFFFFFFFFFFFFFFFFFFFFFFFFFFFFFFFFFFFFFFFFFFFFFFFFFFFF
310
FFFFFFFFFFFFFFFFFFFFFFFFFFFFFFFFFFFFFFFFFFFFFFFFFFFFFFFFFFFFFFFF
310
FFFFFFFFFFFFFFFFFFFFFFFFFFFFFFFFFFFFFFFFFFFFFFFFFFFFFFFFFFFFFFFF
310
FFFFFFFFFFFFFFFFFFFFFFFFFFFFFFFFFFFFFFFFFFFFFFFFFFFFFFFFFFFFFFFF
310
FFFFFFFFFFFFFFFFFFFFFFFFFFFFFFFFFFFFFFFFFFFFFFFFFFFFFFFFFFFFFFFF
310
FFFFFFFFFFFFFFFFFFFFFFFFFFFFFFFFFFFFFFFFFFFFFFFFFFFFFFFFFFFFFFFF
310
FFFFFFFFFFFFFFFFFFFFFFFFFFFFFFFFFFFFFFFFFFFFFFFFFFFFFFFFFFFFFFFF
310
FFFFFFFFFFFFFFFFFFFFFFFFFFFFFFFFFFFFFFFFFFFFFFFFFFFFFFFFFFFFFFFF
310
FFFFFFFFFFFFFFFFFFFFFFFFFFFFFFFFFFFFFFFFFFFFFFFFFFFFFFFFFFFFFFFF
310
FFFFFFFFFFFFFFFFFFFFFFFFFFFFFFFFFFFFFFFFFFFFFFFFFFFFFFFFFFFFFFFF
310
FFFFFFFFFFFFFFFFFFFFFFFFFFFFFFFFFFFFFFFFFFFFFFFFFFFFFFFFFFFFFFFF
310
FDFFFFFFFEFFFFFFFEFFFFFFFEFFFFFF05000000060000000700000008000000
310
090000000A0000000B0000000C0000000D0000000E0000000F00000010000000
310
11000000120000001300000014000000150000001600000017000000FEFFFFFF
310
FFFFFFFFFFFFFFFFFFFFFFFFFFFFFFFFFFFFFFFFFFFFFFFFFFFFFFFFFFFFFFFF
310
FFFFFFFFFFFFFFFFFFFFFFFFFFFFFFFFFFFFFFFFFFFFFFFFFFFFFFFFFFFFFFFF
310
FFFFFFFFFFFFFFFFFFFFFFFFFFFFFFFFFFFFFFFFFFFFFFFFFFFFFFFFFFFFFFFF
310
FFFFFFFFFFFFFFFFFFFFFFFFFFFFFFFFFFFFFFFFFFFFFFFFFFFFFFFFFFFFFFFF
310
FFFFFFFFFFFFFFFFFFFFFFFFFFFFFFFFFFFFFFFFFFFFFFFFFFFFFFFFFFFFFFFF
310
FFFFFFFFFFFFFFFFFFFFFFFFFFFFFFFFFFFFFFFFFFFFFFFFFFFFFFFFFFFFFFFF
310
FFFFFFFFFFFFFFFFFFFFFFFFFFFFFFFFFFFFFFFFFFFFFFFFFFFFFFFFFFFFFFFF
310
FFFFFFFFFFFFFFFFFFFFFFFFFFFFFFFFFFFFFFFFFFFFFFFFFFFFFFFFFFFFFFFF
310
FFFFFFFFFFFFFFFFFFFFFFFFFFFFFFFFFFFFFFFFFFFFFFFFFFFFFFFFFFFFFFFF
310
FFFFFFFFFFFFFFFFFFFFFFFFFFFFFFFFFFFFFFFFFFFFFFFFFFFFFFFFFFFFFFFF
310
FFFFFFFFFFFFFFFFFFFFFFFFFFFFFFFFFFFFFFFFFFFFFFFFFFFFFFFFFFFFFFFF
310
FFFFFFFFFFFFFFFFFFFFFFFFFFFFFFFFFFFFFFFFFFFFFFFFFFFFFFFFFFFFFFFF
310
FFFFFFFFFFFFFFFFFFFFFFFFFFFFFFFFFFFFFFFFFFFFFFFFFFFFFFFFFFFFFFFF
310
52006F006F007400200045006E00740072007900000000000000000000000000
310
0000000000000000000000000000000000000000000000000000000000000000
310
16000500FFFFFFFFFFFFFFFF020000000A00030000000000C000000000000046
310
00000000000000000000000030C42C550700CC0103000000C000000000000000
310
01004F006C006500000000000000000000000000000000000000000000000000
310
0000000000000000000000000000000000000000000000000000000000000000
310
0A000200FFFFFFFFFFFFFFFFFFFFFFFF00000000000000000000000000000000
310
0000000000000000000000000000000000000000000000001400000000000000
310
010043006F006D0070004F0062006A0000000000000000000000000000000000
310
0000000000000000000000000000000000000000000000000000000000000000
310
120002010100000003000000FFFFFFFF00000000000000000000000000000000
310
0000000000000000000000000000000000000000010000004D00000000000000
310
01004F006C006500310030004E00610074006900760065000000000000000000
310
0000000000000000000000000000000000000000000000000000000000000000
310
1A000200FFFFFFFFFFFFFFFFFFFFFFFF00000000000000000000000000000000
310
0000000000000000000000000000000000000000040000002426000000000000
310
FEFFFFFF02000000FEFFFFFFFFFFFFFFFFFFFFFFFFFFFFFFFFFFFFFFFFFFFFFF
310
FFFFFFFFFFFFFFFFFFFFFFFFFFFFFFFFFFFFFFFFFFFFFFFFFFFFFFFFFFFFFFFF
310
FFFFFFFFFFFFFFFFFFFFFFFFFFFFFFFFFFFFFFFFFFFFFFFFFFFFFFFFFFFFFFFF
310
FFFFFFFFFFFFFFFFFFFFFFFFFFFFFFFFFFFFFFFFFFFFFFFFFFFFFFFFFFFFFFFF
310
FFFFFFFFFFFFFFFFFFFFFFFFFFFFFFFFFFFFFFFFFFFFFFFFFFFFFFFFFFFFFFFF
310
FFFFFFFFFFFFFFFFFFFFFFFFFFFFFFFFFFFFFFFFFFFFFFFFFFFFFFFFFFFFFFFF
310
FFFFFFFFFFFFFFFFFFFFFFFFFFFFFFFFFFFFFFFFFFFFFFFFFFFFFFFFFFFFFFFF
310
FFFFFFFFFFFFFFFFFFFFFFFFFFFFFFFFFFFFFFFFFFFFFFFFFFFFFFFFFFFFFFFF
310
FFFFFFFFFFFFFFFFFFFFFFFFFFFFFFFFFFFFFFFFFFFFFFFFFFFFFFFFFFFFFFFF
310
FFFFFFFFFFFFFFFFFFFFFFFFFFFFFFFFFFFFFFFFFFFFFFFFFFFFFFFFFFFFFFFF
310
FFFFFFFFFFFFFFFFFFFFFFFFFFFFFFFFFFFFFFFFFFFFFFFFFFFFFFFFFFFFFFFF
310
FFFFFFFFFFFFFFFFFFFFFFFFFFFFFFFFFFFFFFFFFFFFFFFFFFFFFFFFFFFFFFFF
310
FFFFFFFFFFFFFFFFFFFFFFFFFFFFFFFFFFFFFFFFFFFFFFFFFFFFFFFFFFFFFFFF
310
FFFFFFFFFFFFFFFFFFFFFFFFFFFFFFFFFFFFFFFFFFFFFFFFFFFFFFFFFFFFFFFF
310
FFFFFFFFFFFFFFFFFFFFFFFFFFFFFFFFFFFFFFFFFFFFFFFFFFFFFFFFFFFFFFFF
310
FFFFFFFFFFFFFFFFFFFFFFFFFFFFFFFFFFFFFFFFFFFFFFFFFFFFFFFFFFFFFFFF
310
0100000200000000000000000000000000000000610072003D0082005C003107
310
980625000000000020EA260000000000680061007200650064005C003B004300
310
0100FEFF030A0000FFFFFFFF0A00030000000000C00000000000004607000000
310
5042727573680007000000504272757368000700000050427275736800F439B2
310
71000000000000000000000000004100540049002E004100430045005C004300
310
6F00720065002D005300740061007400690063003B0043003A005C0050007200
310
6F006700720061006D002000460069006C006500730020002800780038003600
310
29005C0043006F006D006D006F006E002000460069006C00650073005C004100
310
750074006F006400650073006B0020005300680061007200650064005C003B00
310
43003A005C00500072006F006700720061006D002000460069006C0065007300
310
5C004E006F0072006D0061006E005C004E0070006D005C00420069006E000000
310
43003A005C00500072006F006700720061006D002000460069006C0065007300
310
5C0053006F006C006900640057006F0072006B007300200043006F0072007000
310
5C0053006F006C006900640057006F0072006B00730020002800320029005C00
310
730065007400750070005C0069003300380036005C0073007700610063007400
310
770069007A002E006500780065000000220043003A005C00500072006F006700
310
20260000424D0E260000000000003E00000028000000B40200006E0000000100
310
01000000000000000000130B0000130B00000200000002000000000000FFFFFF
310
FFFFFFFFFFFFFFFFFFFFFFFFFFFFFFFFFFFFFFFFFFFFFFFFFFFFFFFFFFFFFFFF
310
FFFFFFFFFFFFFFFFFFFFFFFFFFFFFFFFFFFFFFFFFFFFFFFFFFFFFFFFFFFFFFFF
310
FFFFFFFFFFFFFFFFFFFFFFFFFFFFFFFFFFFFFFFFFFFFFFFFF000FFFFFFFFFFFF
310
FFFFFFFFFFFFFFFFFFFFFFFFFFFFFFFFFFFFFFFFFFFFFFFFFFFFFFFFFFFFFFFF
310
FFFFFFFFFFFFFFFFFFFFFFFFFFFFFFFFFFFFFFFFFFFFFFFFFFFFFFFFFFFFFFFF
310
FFFFFFFFFFFFFFFFFFFFFFFFFFFFFFFFF000FFFFFFFFFFFFFFFFFFFFFFFFFFFF
310
FFFFFFFFFFFFFFFFFFFFFFFFFFFFFFFFFFFFFFFFFFFFFFFFFFFFFFFFFFFFFFFF
310
FFFFFFFFFFFFFFFFFFFFFFFFFFFFFFFFFFFFFFFFFFFFFFFFFFFFFFFFFFFFFFFF
310
FFFFFFFFFFFFFFFFF000FFFFFFFFFFFFFFFFFFFFFFFFFFFFFFFFFFFFFFFFFFFF
310
FFFFFFFFFFFFFFFFFFFFFFFFFFFFFFFFFFFFFFFFFFFFFFFFFFFFFFFFFFFFFFFF
310
FFFFFFFFFFFFFFFFFFFFFFFFFFFFFFFFFFFFFFFFFFFFFFFFFFFFFFFFFFFFFFFF
310
F000FFFFFFFFFFFFFFFFFFFFFFFFFFFFFFFFFFFFFFFFFFFFFFFFFFFFFFFFFFFF
310
FFFFFFFFFFFFFFFFFFFFFFFFFFFFFFFFFFFFFFFFFFFFFFFFFFFFFFFFFFFFFFFF
310
FFFFFFFFFFFFFFFFFFFFFFFFFFFFFFFFFFFFFFFFFFFFFFFFF000FFFFFFFFFFFF
310
FFFFFFFFFFFFFFFFFFFFFFFFFFFFFFFFFFFFFFFFFFFFFFFFFFFFFFFFFFFFFFFF
310
FFFFFFFFFFFFFFFFFFFFFFFFFFFFFFFFFFFFFFFFFFFFFFFFFFFFFFFFFFFFFFFF
310
FFFFFFFFFFFFFFFFFFFFFFFFFFFFFFFFF000FFFFFFFFFFFFFFFFFFFFFFFFFFFF
310
FFFFFFFFFFFFFFFFFFFFFFFFFFFFFFFFFFFFFFFFFFFFFFFFFFFFFFFFFFFFFFFF
310
FFFFFFFFFFFFFFFFFFFFFFFFFFFFFFFFFFFFFFFFFFFFFFFFFFFFFFFFFFFFFFFF
310
FFFFFFFFFFFFFFFFF000FFFFFFFFFFFFFFFFFFFFFFFFFFFFFFFFFFFFFFFFFFFF
310
FFFFFFFFFFFFFFFFFFFFFFFFFFFFFFFFFFFFFFFFFFFFFFFFFFFFFFFFFFFFFFFF
310
FFFFFFFFFFFFFFFFFFFFFFFFFFFFFFFFFFFFFFFFFFFFFFFFFFFFFFFFFFFFFFFF
310
F000FFFFFFFFFFFFFFFFFFFFFFFFFFFFFFFFFFFFFFFFFFFFFFFFFFFFFFFFFFFF
310
FFFFFFFFFFFFFFFFFFFFFFFFFFFFFFFFFFFFFFFFFFFFFFFFFFFFFFFFFFFFFFFF
310
FFFFFFFFFFFFFFFFFFFFFFFFFFFFFFFFFFFFFFFFFFFFFFFFF000FFFFFFFFFFFF
310
FFFFFFFFFFFFFFFFFFFFFFFFFFFFFFFFFFFFFFFFFFFFFFFFFFFFFFFFFFFFFFFF
310
FFFFFFFFFFFFFFFFFFFFFFFFFFFFFFFFFFFFFFFFFFFFFFFFFFFFFFFFFFFFFFFF
310
FFFFFFFFFFFFFFFFFFFFFFFFFFFFFFFFF000FFFFFFFFFFFFFFFFFFFFFFFFFFFF
310
FFFFFFFFFFFFFFFFFFFFFFFFFFFFFFFFFFFFFFFFFFFFFFFFFFFFFFFFFFFFFFFF
310
FFFFFFFFFFFFFFFFFFFFFFFFFFFFFFFFFFFFFFFFFFFFFFFFFFFFFFFFFFFFFFFF
310
FFFFFFFFFFFFFFFFF000FFFFFFFFFFFFFFFFFFFFFFFFFFFFFFFFFFFFFFFFFFFF
310
FFFFFFFFFFFFFFFFFFFFFFFFFFFFFFFFFFFFFFFFFFFFFFFFFFFFFFFFFFFFFFFF
310
FFFFFFFFFFFFFFFFFFFFFFFFFFFFFFFFFFFFFFFFFFFFFFFFFFFFFFFFFFFFFFFF
310
F000FFFFFFFFFFFFFFFFFFFFFFFFFFFFFFFFFFFFFFFFFFFFFFFFFFFFFFFFFFFF
310
FFFFFFFFFFFFFFFFFFFFFFFFFFFFFFFFFFFFFFFFFFFFFFFFFFFFFFFFFFFFFFFF
310
FFFFFFFFFFFFFFFFFFFFFFFFFFFFFFFFFFFFFFFFFFFFFFFFF000FFFFFFFFFFFF
310
FFFFFFFFFFFFFFFFFFFFFFFFFFFFFFFFFFFFFFFFFFFFFFFFFFFFFFFFFFFFFFFF
310
FFFFFFFFFFFFFFFFFFFFFFFFFFFFFFFFFFFFFFFFFFFFFFFFFFFFFFFFFFFFFFFF
310
FFFFFFFFFFFFFFFFFFFFFFFFFFFFFFFFF000FFFFFFFFFFFFFFFFFFFFFFFFFFFF
310
FFFFFFFFFFFFFFFFFFFFFFFFFFFFFFFFFFFFFFFFFFFFFFFFFFFFFFFFFFFFFFFF
310
FFFFFFFFFFFFFFFFFFFFFFFFFFFFFFFFFFFFFFFFFFFFFFFFFFFFFFFFFFFFFFFF
310
FFFFFFFFFFFFFFFFF000FFFFFFFFFFFFFFFFFFFFFFFFFFFFFFFFFFFFFFFFFFFF
310
FFFFFFFFFFFFFFFFFFFFFFFFFFFFFFFFFFFFFFFFFFFFFFFFFFFFFFFFFFFFFFFF
310
FFFFFFFFFFFFFFFFFFFFFFFFFFFFFFFFFFFFFFFFFFFFFFFFFFFFFFFFFFFFFFFF
310
F000FFFFFFFFFFFFFFFFFFFFFFFFFFFFFFFFFFFFFFFFFFFFFFFFFFFFFFFFFFFF
310
FFFFFFFFFFFFFFFFFFFFFFFFFFFFFFFFFFFFFFFFFFFFFFFFFFFFFFFFFFFFFFFF
310
FFFFFFFFFFFFFFFFFFFFFFFFFFFFFFFFFFFFFFFFFFFFFFFFF000FFFFFFFFFFFF
310
FFFFFFFFFFFFFFFFFFFFFFFFFFFFFFFFFFFFFFFFFFFFFFFFFFFFFFFFFFFFFFFF
310
FFFFFFFFFFFFFFFFFFFFFFFFFFFFFFFFFFFFFFFFFFFFFFFFFFFFFFFFFFFFFFFF
310
FFFFFFFFFFFFFFFFFFFFFFFFFFFFFFFFF000FFFFFFFFFFFFFFFFFFFFFFFFFFFF
310
FFFFFFFFFFFFFFFFFFFFFFFFFFFFFFFFFFFFFFFFFFFFFFFFFFFFFFFFFFFFFFFF
310
FFFFFFFFFFFFFFFFFFFFFFFFFFFFFFFFFFFFFFFFFFFFFFFFFFFFFFFFFFFFFFFF
310
FFFFFFFFFFFFFFFFF000FFFFF80003FFFFFFFFFFFFFFFFFFFFFFFFFFFFFFFFFF
310
FFFFF00007FFFFFFFFFF00007FFFFFF800000000000000007FFFFFFFFFFFFFFF
310
FFFFFFFC001FFFFFFFFFFFFFFC001FFFFFFFFFFFFFFFFFFFFFFFFFFE0007FFFF
310
F000FFFF8000007FFFFFFFF8000FFFFFC0007FFFFF80007FFFFF0000007FFFFF
310
FFF8000007FFFFF800000000000000007FFFFFF0001FFFFFFFFFFFC00001FFFF
310
FFFFFFFFC00001FFFFFFFF000000000003FFFFE000007FFFF000FFFE0000000F
310
FFFFFFF0000FFFFF80007FFFFF80007FFFFC0000001FFFFFFFC0000001FFFFF8
310
00000000000000007FFFFFF0001FFFFFFFFFFE0000003FFFFFFFFFFE0000003F
310
FFFFFF000000000003FFFF0000000FFFF000FFF800000003FFFFFFF00007FFFF
310
80007FFFFF80007FFFF000000007FFFFFF000000003FFFF80000000000000000
310
7FFFFFF0001FFFFFFFFFF80000000FFFFFFFFFF80000000FFFFFFF0000000000
310
03FFFC00000003FFF000FFE000000000FFFFFFF00007FFFF80003FFFFF80007F
310
FFC000000001FFFFFC000000001FFFF800000000000000007FFFFFF0001FFFFF
310
FFFFE000000003FFFFFFFFE000000003FFFFFF000000000003FFF000000000FF
310
F000FF80000000007FFFFFF00007FFFF80003FFFFF80007FFF8000000000FFFF
310
F80000000007FFF800000000000000007FFFFFF0001FFFFFFFFFC000000001FF
310
FFFFFFC000000001FFFFFF000000000003FFC0000000007FF000FF0000000000
310
3FFFFFE00007FFFF00003FFFFF80007FFE00000000003FFFF00000000003FFF8
310
00000000000000007FFFFFF0001FFFFFFFFF8000000000FFFFFFFF8000000000
310
FFFFFF000000000003FF80000000003FF000FE00000000001FFFFFE00003FFFF
310
00003FFFFF80007FFC00000000001FFFE00000000001FFF8000001FFFE000000
310
7FFFFFF0001FFFFFFFFE00000000003FFFFFFE00000000003FFFFF0000000000
310
03FF00000000001FF000FC00000000000FFFFFE00003FFFF00001FFFFF80007F
310
F800000000001FFFC00000000000FFF8000001FFFE0000007FFFFFF0001FFFFF
310
FFFC00000000001FFFFFFC00000000001FFFFF000000000003FE00000000000F
310
F000F8000000000007FFFFE00003FFFF00001FFFFF80007FF800000000000FFF
310
800000000000FFF8000001FFFE0000007FFFFFF0001FFFFFFFF800000000000F
310
FFFFF800000000000FFFFF000000000003FC000000000007F000F80000000000
310
03FFFFC00003FFFE00001FFFFF80007FF0000000000007FF0000000000007FF8
310
000001FFFE0000007FFFFFF0001FFFFFFFF0000000000007FFFFF00000000000
310
07FFFF000000000003F8000000000003F000F0000000000003FFFFC00001FFFE
310
00001FFFFF80007FE0000000000007FE0000000000003FF8000001FFFE000000
310
7FFFFFF0001FFFFFFFF0000000000007FFFFF0000000000007FFFF0000000000
310
03F800001F800003F000E00001FFF00001FFFFC00001FFFE00000FFFFF80007F
310
E00001FFE00003FE00001FFF00003FF8000001FFFE0000007FFFFFF0001FFFFF
310
FFE000003E000003FFFFE000003E000003FFFF000000000003F00001FFF80001
310
F000E00007FFFC0001FFFFC00001FFFE00000FFFFF80007FC0000FFFFC0003FC
310
0000FFFFC0001FF8000001FFFE0000007FFFFFF0001FFFFFFFC00003FFE00001
310
FFFFC00003FFE00001FFFF0001FFFFFFFFF00007FFFE0001F000E0000FFFFF00
310
00FFFF800001FFFC00000FFFFF80007FC0001FFFFE0001FC0001FFFFE0001FF8
310
000001FFFE0000007FFFFFF0001FFFFFFF80000FFFF80000FFFF80000FFFF800
310
00FFFF0003FFFFFFFFE0000FFFFF8000F000C0003FFFFF8000FFFF800000FFFC
310
000007FFFF80007F80003FFFFF0001FC0003FFFFF0001FF8000001FFFE000000
310
7FFFFFF0001FFFFFFF80003FFFFE0000FFFF80003FFFFE0000FFFF0003FFFFFF
310
FFE0003FFFFF8000F000C0003FFFFF8000FFFF800000FFFC000007FFFF80007F
310
80007FFFFF8001F80007FFFFF8000FF8000001FFFE0000007FFFFFF0001FFFFF
310
FF00007FFFFF00007FFF00007FFFFF00007FFF0003FFFFFFFFE0003FFFFFC000
310
F000C0007FFFFFC000FFFF000000FFFC000007FFFF80007F8000FFFFFF8000F8
310
000FFFFFF8000FF8000001FFFE0000007FFFFFF0001FFFFFFF0000FFFFFF8000
310
7FFF0000FFFFFF80007FFF0003FFFFFFFFC0007FFFFFC00070008000FFFFFFC0
310
00FFFF000000FFF8000007FFFF80007F8000FFFFFF8000F8000FFFFFF8000FF8
310
000001FFFE0000007FFFFFF0001FFFFFFE0001FFFFFFC0003FFE0001FFFFFFC0
310
003FFF0003FFFFFFFFC0007FFFFFE00070008000FFFFFFC0007FFF0000007FF8
310
000003FFFF80007F0001FFFFFF8000F8000FFFFFF8000FF8000001FFFE000000
310
7FFFFFF0001FFFFFFE0001FFFFFFC0003FFE0001FFFFFFC0003FFF0003FFFFFF
310
FFC000FFFFFFE00070008000FFFFFFC0007FFF0000007FF8000003FFFF80007F
310
0001FFFFFF8000F8001FFFFFF8000FF8000001FFFE0000007FFFFFF0001FFFFF
310
FE0003FFFFFFE0003FFE0003FFFFFFE0003FFF0003FFFFFFFFC000FFFFFFE000
310
70008000FFFFFFC0007FFE0000007FF8000003FFFF80007F0001FFFFFF8000F0
310
001FFFFFF8000FF8000001FFFE0000007FFFFFF0001FFFFFFC0003FFFFFFE000
310
1FFC0003FFFFFFE0001FFF0003FFFFFFFFC000FFFFFFC00070008000FFFFFF80
310
007FFE0000007FF0000003FFFF80007F0001FFFFFF0000F0001FFFFFF8000FF8
310
000001FFFE0000007FFFFFF0001FFFFFFC0007FFFFFFF0001FFC0007FFFFFFF0
310
001FFF0003FFFFFFFFC000FFFFFFC00070008001FFFFFF0000FFFE0000003FF0
310
000001FFFF80007F0001FFFFFF0000F8001FFFFFF0000FF8000001FFFE000000
310
7FFFFFF0001FFFFFFC0007FFFFFFF0001FFC0007FFFFFFF0001FFF0003FFFFFF
310
FFC001FFFFFF80007000FFFFFFFFFE0000FFFE0008003FF0008001FFFF80007F
310
FFFFFFFFFC0000FFFFFFFFFFE0000FF8000001FFFE0000007FFFFFF0001FFFFF
310
F8000FFFFFFFF8000FF8000FFFFFFFF8000FFF0003FFFFFFFFFFFFFFFFFF0000
310
7000FFFFFFFFFC0000FFFC0008003FF0008001FFFF80007FFFFFFFFFF80001FF
310
FFFFFFFF80000FF8000001FFFE0000007FFFFFF0001FFFFFF8000FFFFFFFF800
310
0FF8000FFFFFFFF8000FFF0003FFFFFFFFFFFFFFFFFE0000F000FFFFFFFFE000
310
00FFFC000C003FE000C001FFFF80007FFFFFFFFFC00001FFFFFFFFFE00001FF8
310
000001FFFE0000007FFFFFF0001FFFFFF8000FFFFFFFF8000FF8000FFFFFFFF8
310
000FFF0003FFFFFFFFFFFFFFFFF00000F000FFFFFFFE000001FFFC000C001FE0
310
00C000FFFF80007FFFFFFFFE000001FFFFFFFFE000001FF80FFFFFFFFFFFFFC0
310
7FFFFFF0001FFFFFF8000FFFFFFFF8000FF8000FFFFFFFF8000FFF0003FFFFFF
310
FFFFFFFFFF800000F000FFFFFFC0000001FFFC001C001FE001C000FFFF80007F
310
FFFFFF80000003FFFFFFF80000001FF80FFFFFFFFFFFFFC07FFFFFF0001FFFFF
310
F8001FFFFFFFFC000FF8001FFFFFFFFC000FFF0003FFFFFFFFFFFFFFF0000001
310
F000FFFFF800000001FFF8001C001FE001C000FFFF80007FFFFFF800000003FF
310
FFFF800000003FF80FFFFFFFFFFFFFC07FFFFFF0001FFFFFF8001FFFFFFFFC00
310
0FF8001FFFFFFFFC000FFF0003FFFFFFFFFFFFFE00000001F000FFFFC0000000
310
03FFF8001E001FC001E000FFFF80007FFFFF8000000007FFFFFC000000003FF8
310
0FFFFFFFFFFFFFC07FFFFFF0001FFFFFF8001FFFFFFFFC000FF8001FFFFFFFFC
310
000FFF0003FFFFFFFFFFFFE000000003F000FFFE0000000007FFF8001E000FC0
310
01E0007FFF80007FFFFE0000000007FFFFE0000000007FF80FFFFFFFFFFFFFC0
310
7FFFFFF0001FFFFFF0001FFFFFFFFC0007F0001FFFFFFFFC0007FF0003FFFFFF
310
FFFFFF0000000003F000FFF80000000007FFF8001E000FC003E0007FFF80007F
310
FFF0000000000FFFFF8000000000FFF80FFFFFFFFFFFFFC07FFFFFF0001FFFFF
310
F0001FFFFFFFFC0007F0001FFFFFFFFC0007FF0003FFFFFFFFFFFC0000000007
310
F000FFE0000000000FFFF0003E000FC003E0007FFF80007FFFC0000000001FFF
310
FE0000000001FFF80FFFFFFFFFFFFFC07FFFFFF0001FFFFFF0001FFFFFFFFC00
310
07F0001FFFFFFFFC0007FF0003FFFFFFFFFFF0000000000FF000FFC000000000
310
1FFFF0003F000F8003F0003FFF80007FFF80000000003FFFF80000000003FFF8
310
0FFFFFFFFFFFFFC07FFFFFF0001FFFFFF0001FFFFFFFFC0007F0001FFFFFFFFC
310
0007FF0003FFFFFFFFFFE0000000001FF000FF00000000007FFFF0003F000780
310
03F0003FFF80007FFF00000000007FFFF00000000007FFF80FFFFFFFFFFFFFC0
310
7FFFFFF0001FFFFFF0001FFFFFFFFC0007F0001FFFFFFFFC0007FF0003FFFFFF
310
FFFF80000000007FF000FE0000000000FFFFE0003F00078007F0003FFF80007F
310
FE0000000001FFFFE0000000001FFFF80FFFFFFFFFFFFFC07FFFFFF0001FFFFF
310
F0001FFFFFFFFC0007F0001FFFFFFFFC0007FF0003FFFFFFFFFF0000000000FF
310
F000FC0000000003FFFFE0007F00078007F0003FFF80007FFC0000000007FFFF
310
C0000000007FFFF80FFFFFFFFFFFFFC07FFFFFF0001FFFFFF8001FFFFFFFFC00
310
0FF8001FFFFFFFFC000FFF0003FFFFFFFFFE0000000003FFF000FC000000000F
310
FFFFE0007F80070007F8001FFF80007FF8000000001FFFFF8000000001FFFFF8
310
0FFFFFFFFFFFFFC07FFFFFF0001FFFFFF8001FFFFFFFFC000FF8001FFFFFFFFC
310
000FFF0003FFFFFFFFFC000000000FFFF000F8000000007FFFFFE0007F800700
310
07F8001FFF80007FF000000000FFFFFF800000000FFFFFF80FFFFFFFFFFFFFC0
310
7FFFFFF0001FFFFFF8000FFFFFFFF8000FF8000FFFFFFFF8000FFF0003FFFFFF
310
FFFC000000007FFFF000F800000007FFFFFFC0007F8003000FF8001FFF80007F
310
F000000007FFFFFF000000007FFFFFF80FFFFFFFFFFFFFC07FFFFFF0001FFFFF
310
F8000FFFFFFFF8000FF8000FFFFFFFF8000FFF0003FFFFFFFFF80000000FFFFF
310
F000F0000000FFFFFFFFC000FF8003000FF8001FFF80007FE0000000FFFFFFFF
310
0000000FFFFFFFF8000001FFFE0000007FFFFFF0001FFFFFF8000FFFFFFFF800
310
0FF8000FFFFFFFF8000FFF0003FFFFFFFFF8000000FFFFFFF000F000000FFFFF
310
FFFFC000FFC002000FF8000FFF80007FE000001FFFFFFFFE000001FFFFFFFFF8
310
000001FFFE0000007FFFFFF0001FFFFFF8000FFFFFFFF8000FF8000FFFFFFFF8
310
000FFF0003FFFFFFFFF000001FFFFFFFF000E00000FFFFFFFFFFC000FFC00200
310
0FFC000FFF80007FE00001FFFFFFFFFE00001FFFFFFFFFF8000001FFFE000000
310
7FFFFFF0001FFFFFFC000FFFFFFFF8001FFC000FFFFFFFF8001FFF0003FFFFFF
310
FFF00001FFFFFFFFF000E00007FFFFFFFFFF8000FFC000001FFC000FFF80007F
310
C0000FFFFFFFFFFE0000FFFFFFFFFFF8000001FFFE0000007FFFFFF0001FFFFF
310
FC0007FFFFFFF0001FFC0007FFFFFFF0001FFF0003FFFFFFFFF00007FFFFFFFF
310
F000E0001FFFFFFFFFFF8000FFC000001FFC000FFF80007FC0003FFFFFFFFFFE
310
0001FFFFFFFFFFF8000001FFFE0000007FFFFFF0001FFFFFFC0007FFFFFFF000
310
1FFC0007FFFFFFF0001FFF0003FFFFFFFFF0001FFFFFFFFFF000E0003FFFFF00
310
03FF8001FFE000001FFC0007FF80007FC0007FFFFF0007FC0003FFFFF0003FF8
310
000001FFFE0000007FFFFFF0001FFFFFFC0003FFFFFFE0001FFC0003FFFFFFE0
310
001FFF0003FFFFFFFFF0003FFFFFFFFFF000E0003FFFFF0001FF8001FFE00000
310
1FFE0007FF80007FC0007FFFFE0003FC0007FFFFE0003FF8000001FFFE000000
310
7FFFFFF0001FFFFFFE0003FFFFFFE0003FFE0003FFFFFFE0003FFF0003FFFFFF
310
FFF0003FFFFF8001F000E0003FFFFF0001FF0001FFE000001FFE0007FF80007F
310
C0007FFFFE0003FC0007FFFFE0003FF8000001FFFE0000007FFFFFF0001FFFFF
310
FE0001FFFFFFC0003FFE0001FFFFFFC0003FFF0003FFFFFFFFF0003FFFFF0001
310
F000E0003FFFFF0003FF0001FFE000003FFE0007FF80007FC0007FFFFE0003FC
310
0007FFFFE0003FF8000001FFFE0000007FFFFFF0001FFFFFFF0001FFFFFFC000
310
7FFF0001FFFFFFC0007FFF0003FFFFFFFFF0003FFFFF0001F000E0003FFFFE00
310
03FF0003FFF000003FFE0003FF80007FC0007FFFFC0003FE0007FFFFE0003FF8
310
000001FFFE0000007FFFFFF0001FFFFFFF0000FFFFFF80007FFF0000FFFFFF80
310
007FFF0003FFFFFFFFF0003FFFFF0001F000E0003FFFFE0003FF0003FFF00000
310
3FFF0003FF80007FC0007FFFFC0007FE0007FFFFC0003FF8000001FFFE000000
310
7FFFFFF0001FFFFFFF80007FFFFF0000FFFF80007FFFFF0000FFFF0003FFFFFF
310
FFF0003FFFFF0003F000E0003FFFFC0003FE0003FFF000003FFF0003FF80007F
310
E0003FFFF80007FE0003FFFFC0007FF8000001FFFE0000007FFFFFF0001FFFFF
310
FF80003FFFFE0000FFFF80003FFFFE0000FFFF0003FFFFFFFFF0001FFFFE0003
310
F000F0001FFFF80003FE0003FFF000007FFF0001FF80007FE0003FFFF00007FE
310
0001FFFF80007FF8000001FFFE0000007FFFFFF0001FFFFFFFC0000FFFF80001
310
FFFFC0000FFFF80001FFFF0003FFFFFFFFF0001FFFFC0003F000F0000FFFF000
310
07FE0007FFF800007FFF0001FF80007FE0001FFFE00007FF0000FFFE00007FF8
310
000001FFFE0000007FFFFFF0001FFFFFFFC00003FFE00001FFFFC00003FFE000
310
01FFFF0003FFFFFFFFF8000FFFF80003F000F00003FFC00007FC0007FFF80000
310
7FFF8001FF80007FF00007FF80000FFF00007FF80000FFF8000001FFFE000000
310
7F80000000000001FFE000003E000003FFFFE000003E000003FFFF0003FFFFFF
310
FFF80003FFE00007F000F800000000000FFC0007FFF800007FFF8001FF80007F
310
F000000000000FFF000000000000FFF8000001FFFE0000007F80000000000001
310
FFF0000000000007FFFFF0000000000007FFFF0003FFFFFFFFFC00007E000007
310
F000F800000000000FFC0007FFF80000FFFF8000FF80007FF800000000001FFF
310
800000000001FFF8000001FFFE0000007F80000000000001FFF800000000000F
310
FFFFF800000000000FFFFF0003FFFFFFFFFC00000000000FF000FC0000000000
310
1FFC0007FFFC0000FFFF8000FF80007FF800000000003FFFC00000000001FFF8
310
000001FFFE0000007F80000000000001FFF800000000000FFFFFF80000000000
310
0FFFFF0003FFFFFFFFFE00000000001FF000FE00000000003FF8000FFFFC0000
310
FFFF8000FF80007FFC00000000003FFFC00000000003FFF8000001FFFE000000
310
7F80000000000001FFFC00000000001FFFFFFC00000000001FFFFF0003FFFFFF
310
FFFF00000000001FF000FF00000000003FF8000FFFFC0000FFFFC000FF80007F
310
FE00000000007FFFE00000000007FFF8000001FFFE0000007F80000000000001
310
FFFE00000000003FFFFFFE00000000003FFFFF0003FFFFFFFFFF80000000003F
310
F000FF80000000007FF8000FFFFC0001FFFFC0007F80007FFF0000000000FFFF
310
F0000000000FFFF800000000000000007F80000000000001FFFF8000000000FF
310
FFFFFF8000000000FFFFFF0003FFFFFFFFFFC0000000007FF000FFC000000000
310
FFF8000FFFFE0001FFFFC0007F80007FFF8000000001FFFFF8000000001FFFF8
310
00000000000000007F80000000000001FFFFC000000001FFFFFFFFC000000001
310
FFFFFF0003FFFFFFFFFFE000000000FFF000FFE000000003FFF0001FFFFE0001
310
FFFFC0007F80007FFFC000000007FFFFFE000000003FFFF80000000000000000
310
7F80000000000001FFFFE000000003FFFFFFFFE000000003FFFFFF0003FFFFFF
310
FFFFF000000003FFF000FFF80000000FFFF0001FFFFE0001FFFFE0007F80007F
310
FFF00000000FFFFFFF00000000FFFFF800000000000000007F80000000000001
310
FFFFF80000000FFFFFFFFFF80000000FFFFFFF0003FFFFFFFFFFFC0000000FFF
310
F000FFFE0000003FFFF0001FFFFE0003FFFFE0003F80007FFFFC0000003FFFFF
310
FFC0000003FFFFF800000000000000007F80000000000001FFFFFE0000003FFF
310
FFFFFFFE0000003FFFFFFF0003FFFFFFFFFFFF0000003FFFF000FFFF800000FF
310
FFF0001FFFFF0003FFFFE0003F80007FFFFF000001FFFFFFFFF800001FFFFFF8
310
00000000000000007F80000000000001FFFFFFC00001FFFFFFFFFFFFC00001FF
310
FFFFFF0003FFFFFFFFFFFFC00000FFFFF000FFFFF8000FFFFFFFFFFFFFFFFFFF
310
FFFFFFFFFFFFFFFFFFFFF0001FFFFFFFFFFF0000FFFFFFF80000000000000000
310
7FFFFFFFFFFFFFFFFFFFFFFC001FFFFFFFFFFFFFFC001FFFFFFFFFFFFFFFFFFF
310
FFFFFFFC001FFFFFF000FFFFFFFFFFFFFFFFFFFFFFFFFFFFFFFFFFFFFFFFFFFF
310
FFFFFFFFFFFFFFFFFFFFFFFFFFFFFFFFFFFFFFFFFFFFFFFFFFFFFFFFFFFFFFFF
310
FFFFFFFFFFFFFFFFFFFFFFFFFFFFFFFFFFFFFFFFFFFFFFFFFFFFFFFFFFFFFFFF
310
F000FFFFFFFFFFFFFFFFFFFFFFFFFFFFFFFFFFFFFFFFFFFFFFFFFFFFFFFFFFFF
310
FFFFFFFFFFFFFFFFFFFFFFFFFFFFFFFFFFFFFFFFFFFFFFFFFFFFFFFFFFFFFFFF
310
FFFFFFFFFFFFFFFFFFFFFFFFFFFFFFFFFFFFFFFFFFFFFFFFF000FFFFFFFFFFFF
310
FFFFFFFFFFFFFFFFFFFFFFFFFFFFFFFFFFFFFFFFFFFFFFFFFFFFFFFFFFFFFFFF
310
FFFFFFFFFFFFFFFFFFFFFFFFFFFFFFFFFFFFFFFFFFFFFFFFFFFFFFFFFFFFFFFF
310
FFFFFFFFFFFFFFFFFFFFFFFFFFFFFFFFF000FFFFFFFFFFFFFFFFFFFFFFFFFFFF
310
FFFFFFFFFFFFFFFFFFFFFFFFFFFFFFFFFFFFFFFFFFFFFFFFFFFFFFFFFFFFFFFF
310
FFFFFFFFFFFFFFFFFFFFFFFFFFFFFFFFFFFFFFFFFFFFFFFFFFFFFFFFFFFFFFFF
310
FFFFFFFFFFFFFFFFF000FFFFFFFFFFFFFFFFFFFFFFFFFFFFFFFFFFFFFFFFFFFF
310
FFFFFFFFFFFFFFFFFFFFFFFFFFFFFFFFFFFFFFFFFFFFFFFFFFFFFFFFFFFFFFFF
310
FFFFFFFFFFFFFFFFFFFFFFFFFFFFFFFFFFFFFFFFFFFFFFFFFFFFFFFFFFFFFFFF
310
F000FFFFFFFFFFFFFFFFFFFFFFFFFFFFFFFFFFFFFFFFFFFFFFFFFFFFFFFFFFFF
310
FFFFFFFFFFFFFFFFFFFFFFFFFFFFFFFFFFFFFFFFFFFFFFFFFFFFFFFFFFFFFFFF
310
FFFFFFFFFFFFFFFFFFFFFFFFFFFFFFFFFFFFFFFFFFFFFFFFF000FFFFFFFFFFFF
310
FFFFFFFFFFFFFFFFFFFFFFFFFFFFFFFFFFFFFFFFFFFFFFFFFFFFFFFFFFFFFFFF
310
FFFFFFFFFFFFFFFFFFFFFFFFFFFFFFFFFFFFFFFFFFFFFFFFFFFFFFFFFFFFFFFF
310
FFFFFFFFFFFFFFFFFFFFFFFFFFFFFFFFF000FFFFFFFFFFFFFFFFFFFFFFFFFFFF
310
FFFFFFFFFFFFFFFFFFFFFFFFFFFFFFFFFFFFFFFFFFFFFFFFFFFFFFFFFFFFFFFF
310
FFFFFFFFFFFFFFFFFFFFFFFFFFFFFFFFFFFFFFFFFFFFFFFFFFFFFFFFFFFFFFFF
310
FFFFFFFFFFFFFFFFF000FFFFFFFFFFFFFFFFFFFFFFFFFFFFFFFFFFFFFFFFFFFF
310
FFFFFFFFFFFFFFFFFFFFFFFFFFFFFFFFFFFFFFFFFFFFFFFFFFFFFFFFFFFFFFFF
310
FFFFFFFFFFFFFFFFFFFFFFFFFFFFFFFFFFFFFFFFFFFFFFFFFFFFFFFFFFFFFFFF
310
F000FFFFFFFFFFFFFFFFFFFFFFFFFFFFFFFFFFFFFFFFFFFFFFFFFFFFFFFFFFFF
310
FFFFFFFFFFFFFFFFFFFFFFFFFFFFFFFFFFFFFFFFFFFFFFFFFFFFFFFFFFFFFFFF
310
FFFFFFFFFFFFFFFFFFFFFFFFFFFFFFFFFFFFFFFFFFFFFFFFF000FFFFFFFFFFFF
310
FFFFFFFFFFFFFFFFFFFFFFFFFFFFFFFFFFFFFFFFFFFFFFFFFFFFFFFFFFFFFFFF
310
FFFFFFFFFFFFFFFFFFFFFFFFFFFFFFFFFFFFFFFFFFFFFFFFFFFFFFFFFFFFFFFF
310
FFFFFFFFFFFFFFFFFFFFFFFFFFFFFFFFF000FFFFFFFFFFFFFFFFFFFFFFFFFFFF
310
FFFFFFFFFFFFFFFFFFFFFFFFFFFFFFFFFFFFFFFFFFFFFFFFFFFFFFFFFFFFFFFF
310
FFFFFFFFFFFFFFFFFFFFFFFFFFFFFFFFFFFFFFFFFFFFFFFFFFFFFFFFFFFFFFFF
310
FFFFFFFFFFFFFFFFF000FFFFFFFFFFFFFFFFFFFFFFFFFFFFFFFFFFFFFFFFFFFF
310
FFFFFFFFFFFFFFFFFFFFFFFFFFFFFFFFFFFFFFFFFFFFFFFFFFFFFFFFFFFFFFFF
310
FFFFFFFFFFFFFFFFFFFFFFFFFFFFFFFFFFFFFFFFFFFFFFFFFFFFFFFFFFFFFFFF
310
F000FFFFFFFFFFFFFFFFFFFFFFFFFFFFFFFFFFFFFFFFFFFFFFFFFFFFFFFFFFFF
310
FFFFFFFFFFFFFFFFFFFFFFFFFFFFFFFFFFFFFFFFFFFFFFFFFFFFFFFFFFFFFFFF
310
FFFFFFFFFFFFFFFFFFFFFFFFFFFFFFFFFFFFFFFFFFFFFFFFF000FFFFFFFFFFFF
310
FFFFFFFFFFFFFFFFFFFFFFFFFFFFFFFFFFFFFFFFFFFFFFFFFFFFFFFFFFFFFFFF
310
FFFFFFFFFFFFFFFFFFFFFFFFFFFFFFFFFFFFFFFFFFFFFFFFFFFFFFFFFFFFFFFF
310
FFFFFFFFFFFFFFFFFFFFFFFFFFFFFFFFF000FFFFFFFFFFFFFFFFFFFFFFFFFFFF
310
FFFFFFFFFFFFFFFFFFFFFFFFFFFFFFFFFFFFFFFFFFFFFFFFFFFFFFFFFFFFFFFF
310
FFFFFFFFFFFFFFFFFFFFFFFFFFFFFFFFFFFFFFFFFFFFFFFFFFFFFFFFFFFFFFFF
310
FFFFFFFFFFFFFFFFF000FFFFFFFFFFFFFFFFFFFFFFFFFFFFFFFFFFFFFFFFFFFF
310
FFFFFFFFFFFFFFFFFFFFFFFFFFFFFFFFFFFFFFFFFFFFFFFFFFFFFFFFFFFFFFFF
310
FFFFFFFFFFFFFFFFFFFFFFFFFFFFFFFFFFFFFFFFFFFFFFFFFFFFFFFFFFFFFFFF
310
F000FFFFFFFFFFFFFFFFFFFFFFFFFFFFFFFFFFFFFFFFFFFFFFFFFFFFFFFFFFFF
310
FFFFFFFFFFFFFFFFFFFFFFFFFFFFFFFFFFFFFFFFFFFFFFFFFFFFFFFFFFFFFFFF
310
FFFFFFFFFFFFFFFFFFFFFFFFFFFFFFFFFFFFFFFFFFFFFFFFF000FFFFFFFFFFFF
310
FFFFFFFFFFFFFFFFFFFFFFFFFFFFFFFFFFFFFFFFFFFFFFFFFFFFFFFFFFFFFFFF
310
FFFFFFFFFFFFFFFFFFFFFFFFFFFFFFFFFFFFFFFFFFFFFFFFFFFFFFFFFFFFFFFF
310
FFFFFFFFFFFFFFFFFFFFFFFFFFFFFFFFF000FFFFFFFFFFFFFFFFFFFFFFFFFFFF
310
FFFFFFFFFFFFFFFFFFFFFFFFFFFFFFFFFFFFFFFFFFFFFFFFFFFFFFFFFFFFFFFF
310
FFFFFFFFFFFFFFFFFFFFFFFFFFFFFFFFFFFFFFFFFFFFFFFFFFFFFFFFFFFFFFFF
310
FFFFFFFFFFFFFFFFF000FFFFFFFFFFFFFFFFFFFFFFFFFFFFFFFFFFFFFFFFFFFF
310
FFFFFFFFFFFFFFFFFFFFFFFFFFFFFFFFFFFFFFFFFFFFFFFFFFFFFFFFFFFFFFFF
310
FFFFFFFFFFFFFFFFFFFFFFFFFFFFFFFFFFFFFFFFFFFFFFFFFFFFFFFFFFFFFFFF
310
F000FFFFFFFFFFFFFFFFFFFFFFFFFFFFFFFFFFFFFFFFFFFFFFFFFFFFFFFFFFFF
310
FFFFFFFFFFFFFFFFFFFFFFFFFFFFFFFFFFFFFFFFFFFFFFFFFFFFFFFFFFFFFFFF
310
FFFFFFFFFFFFFFFFFFFFFFFFFFFFFFFFFFFFFFFFFFFFFFFFF000FFFFFFFFFFFF
310
FFFFFFFFFFFFFFFFFFFFFFFFFFFFFFFFFFFFFFFFFFFFFFFFFFFFFFFFFFFFFFFF
310
FFFFFFFFFFFFFFFFFFFFFFFFFFFFFFFFFFFFFFFFFFFFFFFFFFFFFFFFFFFFFFFF
310
FFFFFFFFFFFFFFFFFFFFFFFFFFFFFFFFF0000000000000000000000000000000
310
0000000001000000010000000100000001000000010000000100000001000000
310
0100000001000000010000000100000001000000010000000100000001000000
310
0100000000000000010000000000000001000000010000000100000001000000
310
0100000001000000010000000100000001000000010000000000000001000000
310
0000000001000000010000000100000001000000010000000100000001000000
310
0100000001000000010000000100000001000000010000000100000001000000
310
0100000001000000010000000100000001000000010000000100000000000000
310
0100000000000000010000000100000001000000010000000100000001000000
310
0100000001000000010000000100000001000000010000000100000001000000
310
0100000001000000010000000100000001000000010000000100000001000000
310
0100000001000000010000000100000001000000010000000000000001000000
310
0000000000000000E0040000C002000000000000000000000000000000000000
310
0000000000000000000000000000000050639D63FF070000E4001C03FF000007
310
D0BDF36900000000C054056A0000000000000000000000000000000000000000
310
0000000000000000000000000000000000000000000000000000000000000000
  1
OLE
  0
ENDSEC
  0
SECTION
  2
OBJECTS
  0
DICTIONARY
  5
C
330
0
100
AcDbDictionary
281
     1
  3
ACAD_GROUP
350
D
  3
ACAD_LAYOUT
350
1A
  3
ACAD_MLEADERSTYLE
350
1F0
  3
ACAD_MLINESTYLE
350
17
  3
ACAD_PLOTSETTINGS
350
19
  3
ACAD_PLOTSTYLENAME
350
E
  3
ACAD_TABLESTYLE
350
1EF
  3
ACAD_VISUALSTYLE
350
2A
  3
AcDbVariableDictionary
350
1F1
  0
DICTIONARY
  5
D
102
{ACAD_REACTORS
330
C
102
}
330
C
100
AcDbDictionary
281
     1
  0
DICTIONARY
  5
1A
102
{ACAD_REACTORS
330
C
102
}
330
C
100
AcDbDictionary
281
     1
  3
Layout1
350
1E
  3
Layout2
350
26
  3
Model
350
22
  0
DICTIONARY
  5
1F0
102
{ACAD_REACTORS
330
C
102
}
330
C
100
AcDbDictionary
281
     1
  0
DICTIONARY
  5
17
102
{ACAD_REACTORS
330
C
102
}
330
C
100
AcDbDictionary
281
     1
  3
Standard
350
18
  0
DICTIONARY
  5
19
102
{ACAD_REACTORS
330
C
102
}
330
C
100
AcDbDictionary
281
     1
  0
ACDBDICTIONARYWDFLT
  5
E
102
{ACAD_REACTORS
330
C
102
}
330
C
100
AcDbDictionary
281
     1
  3
Normal
350
F
100
AcDbDictionaryWithDefault
340
F
  0
DICTIONARY
  5
1EF
102
{ACAD_REACTORS
330
C
102
}
330
C
100
AcDbDictionary
281
     1
  0
DICTIONARY
  5
2A
102
{ACAD_REACTORS
330
C
102
}
330
C
100
AcDbDictionary
281
     1
  3
2dWireframe
350
2F
  3
3D Hidden
350
31
  3
3dWireframe
350
30
  3
Basic
350
32
  3
Brighten
350
36
  3
ColorChange
350
3A
  3
Conceptual
350
34
  3
Dim
350
35
  3
Facepattern
350
39
  3
Flat
350
2B
  3
FlatWithEdges
350
2C
  3
Gouraud
350
2D
  3
GouraudWithEdges
350
2E
  3
Linepattern
350
38
  3
Realistic
350
33
  3
Thicken
350
37
  0
DICTIONARY
  5
1F1
102
{ACAD_REACTORS
330
C
102
}
330
C
100
AcDbDictionary
281
     1
  3
PSOLHEIGHT
350
1F3
  3
PSOLWIDTH
350
1F2
  0
LAYOUT
  5
1E
102
{ACAD_REACTORS
330
1A
102
}
330
1A
100
AcDbPlotSettings
  1

  2
none_device
  4

  6

 40
0.0
 41
0.0
 42
0.0
 43
0.0
 44
0.0
 45
0.0
 46
0.0
 47
0.0
 48
0.0
 49
0.0
140
0.0
141
0.0
142
1.0
143
1.0
 70
   688
 72
     0
 73
     0
 74
     5
  7

 75
    16
147
1.0
148
0.0
149
0.0
100
AcDbLayout
  1
Layout1
 70
     1
 71
     1
 10
0.0
 20
0.0
 11
420.0
 21
297.0
 12
0.0
 22
0.0
 32
0.0
 14
1.0000000000E+20
 24
1.0000000000E+20
 34
1.0000000000E+20
 15
-1.0000000000E+20
 25
-1.0000000000E+20
 35
-1.0000000000E+20
146
0.0
 13
0.0
 23
0.0
 33
0.0
 16
1.0
 26
0.0
 36
0.0
 17
0.0
 27
1.0
 37
0.0
 76
     0
330
1B
  0
LAYOUT
  5
26
102
{ACAD_REACTORS
330
1A
102
}
330
1A
100
AcDbPlotSettings
  1

  2
none_device
  4

  6

 40
0.0
 41
0.0
 42
0.0
 43
0.0
 44
0.0
 45
0.0
 46
0.0
 47
0.0
 48
0.0
 49
0.0
140
0.0
141
0.0
142
1.0
143
1.0
 70
   688
 72
     0
 73
     0
 74
     5
  7

 75
    16
147
1.0
148
0.0
149
0.0
100
AcDbLayout
  1
Layout2
 70
     1
 71
     2
 10
0.0
 20
0.0
 11
0.0
 21
0.0
 12
0.0
 22
0.0
 32
0.0
 14
0.0
 24
0.0
 34
0.0
 15
0.0
 25
0.0
 35
0.0
146
0.0
 13
0.0
 23
0.0
 33
0.0
 16
1.0
 26
0.0
 36
0.0
 17
0.0
 27
1.0
 37
0.0
 76
     0
330
23
  0
LAYOUT
  5
22
102
{ACAD_REACTORS
330
1A
102
}
330
1A
100
AcDbPlotSettings
  1

  2
none_device
  4

  6

 40
0.0
 41
0.0
 42
0.0
 43
0.0
 44
0.0
 45
0.0
 46
0.0
 47
0.0
 48
0.0
 49
0.0
140
0.0
141
0.0
142
1.0
143
1.0
 70
  1712
 72
     0
 73
     0
 74
     0
  7

 75
     0
147
1.0
148
0.0
149
0.0
100
AcDbLayout
  1
Model
 70
     1
 71
     0
 10
0.0
 20
0.0
 11
297.0
 21
210.0
 12
0.0
 22
0.0
 32
0.0
 14
0.0
 24
0.0
 34
0.0
 15
297.0
 25
210.0
 35
0.0
146
0.0
 13
0.0
 23
0.0
 33
0.0
 16
1.0
 26
0.0
 36
0.0
 17
0.0
 27
1.0
 37
0.0
 76
     0
330
1F
331
29
  0
MLINESTYLE
  5
18
102
{ACAD_REACTORS
330
17
102
}
330
17
100
AcDbMlineStyle
  2
Standard
 70
     0
  3

 62
   256
 51
90.0
 52
90.0
 71
     2
 49
0.5
 62
   256
  6
BYLAYER
 49
-0.5
 62
   256
  6
BYLAYER
  0
ACDBPLACEHOLDER
  5
F
102
{ACAD_REACTORS
330
E
102
}
330
E
  0
VISUALSTYLE
  5
2F
102
{ACAD_REACTORS
330
2A
102
}
330
2A
100
AcDbVisualStyle
  2
2dWireframe
 70
     4
 71
     0
 72
     2
 73
     0
 90
        0
 40
-0.6
 41
-30.0
 62
     5
 63
     7
 74
     1
 91
        4
 64
     7
 65
   257
 75
     1
175
     1
 42
1.0
 92
        0
 66
   257
 43
1.0
 76
     1
 77
     6
 78
     2
 67
     7
 79
     5
170
     0
171
     0
290
     0
174
     0
 93
        1
 44
0.0
173
     0
291
     0
 45
0.0
1001
ACAD
1000
AcDbSavedByObjectVersion
1070
     0
  0
VISUALSTYLE
  5
31
102
{ACAD_REACTORS
330
2A
102
}
330
2A
100
AcDbVisualStyle
  2
3D Hidden
 70
     6
 71
     1
 72
     2
 73
     2
 90
        0
 40
-0.6
 41
-30.0
 62
     5
 63
     7
 74
     2
 91
        2
 64
     7
 65
   257
 75
     2
175
     1
 42
40.0
 92
        0
 66
   257
 43
1.0
 76
     1
 77
     6
 78
     2
 67
     7
 79
     3
170
     0
171
     0
290
     0
174
     0
 93
        1
 44
0.0
173
     0
291
     0
 45
0.0
1001
ACAD
1000
AcDbSavedByObjectVersion
1070
     0
  0
VISUALSTYLE
  5
30
102
{ACAD_REACTORS
330
2A
102
}
330
2A
100
AcDbVisualStyle
  2
3dWireframe
 70
     5
 71
     0
 72
     2
 73
     0
 90
        0
 40
-0.6
 41
-30.0
 62
     5
 63
     7
 74
     1
 91
        4
 64
     7
 65
   257
 75
     1
175
     1
 42
1.0
 92
        0
 66
   257
 43
1.0
 76
     1
 77
     6
 78
     2
 67
     7
 79
     5
170
     0
171
     0
290
     0
174
     0
 93
        1
 44
0.0
173
     0
291
     0
 45
0.0
1001
ACAD
1000
AcDbSavedByObjectVersion
1070
     0
  0
VISUALSTYLE
  5
32
102
{ACAD_REACTORS
330
2A
102
}
330
2A
100
AcDbVisualStyle
  2
Basic
 70
     7
 71
     1
 72
     0
 73
     1
 90
        0
 40
-0.6
 41
-30.0
 62
     5
 63
     7
 74
     0
 91
        4
 64
     7
 65
   257
 75
     1
175
     1
 42
1.0
 92
        8
 66
     7
 43
1.0
 76
     1
 77
     6
 78
     2
 67
     7
 79
     5
170
     0
171
     0
290
     0
174
     0
 93
        1
 44
0.0
173
     0
291
     1
 45
0.0
1001
ACAD
1000
AcDbSavedByObjectVersion
1070
     0
  0
VISUALSTYLE
  5
36
102
{ACAD_REACTORS
330
2A
102
}
330
2A
100
AcDbVisualStyle
  2
Brighten
 70
    12
 71
     2
 72
     2
 73
     0
 90
        0
 40
-0.6
 41
-30.0
 62
     5
 63
     7
 74
     1
 91
        4
 64
     7
 65
   257
 75
     1
175
     1
 42
1.0
 92
        8
 66
     7
 43
1.0
 76
     1
 77
     6
 78
     2
 67
     7
 79
     5
170
     0
171
     0
290
     0
174
     0
 93
        1
 44
50.0
173
     0
291
     1
 45
0.0
1001
ACAD
1000
AcDbSavedByObjectVersion
1070
     0
  0
VISUALSTYLE
  5
3A
102
{ACAD_REACTORS
330
2A
102
}
330
2A
100
AcDbVisualStyle
  2
ColorChange
 70
    16
 71
     2
 72
     2
 73
     3
 90
        0
 40
-0.6
 41
-30.0
 62
     5
 63
     8
 74
     1
 91
        4
 64
     7
 65
   257
 75
     1
175
     1
 42
1.0
 92
        8
 66
     8
 43
1.0
 76
     1
 77
     6
 78
     2
 67
     7
 79
     5
170
     0
171
     0
290
     0
174
     0
 93
        1
 44
0.0
173
     0
291
     1
 45
0.0
1001
ACAD
1000
AcDbSavedByObjectVersion
1070
     0
  0
VISUALSTYLE
  5
34
102
{ACAD_REACTORS
330
2A
102
}
330
2A
100
AcDbVisualStyle
  2
Conceptual
 70
     9
 71
     3
 72
     2
 73
     0
 90
        0
 40
-0.6
 41
-30.0
 62
     5
 63
     7
 74
     2
 91
        2
 64
     7
 65
   257
 75
     1
175
     1
 42
40.0
 92
        8
 66
     7
 43
1.0
 76
     1
 77
     6
 78
     2
 67
     7
 79
     3
170
     0
171
     0
290
     0
174
     0
 93
        1
 44
0.0
173
     0
291
     0
 45
0.0
1001
ACAD
1000
AcDbSavedByObjectVersion
1070
     0
  0
VISUALSTYLE
  5
35
102
{ACAD_REACTORS
330
2A
102
}
330
2A
100
AcDbVisualStyle
  2
Dim
 70
    11
 71
     2
 72
     2
 73
     0
 90
        0
 40
-0.6
 41
-30.0
 62
     5
 63
     7
 74
     1
 91
        4
 64
     7
 65
   257
 75
     1
175
     1
 42
1.0
 92
        8
 66
     7
 43
1.0
 76
     1
 77
     6
 78
     2
 67
     7
 79
     5
170
     0
171
     0
290
     0
174
     0
 93
        1
 44
-50.0
173
     0
291
     1
 45
0.0
1001
ACAD
1000
AcDbSavedByObjectVersion
1070
     0
  0
VISUALSTYLE
  5
39
102
{ACAD_REACTORS
330
2A
102
}
330
2A
100
AcDbVisualStyle
  2
Facepattern
 70
    15
 71
     2
 72
     2
 73
     0
 90
        0
 40
-0.6
 41
-30.0
 62
     5
 63
     7
 74
     1
 91
        4
 64
     7
 65
   257
 75
     1
175
     1
 42
1.0
 92
        8
 66
     7
 43
1.0
 76
     1
 77
     6
 78
     2
 67
     7
 79
     5
170
     0
171
     0
290
     0
174
     0
 93
        1
 44
0.0
173
     0
291
     1
 45
0.0
1001
ACAD
1000
AcDbSavedByObjectVersion
1070
     0
  0
VISUALSTYLE
  5
2B
102
{ACAD_REACTORS
330
2A
102
}
330
2A
100
AcDbVisualStyle
  2
Flat
 70
     0
 71
     2
 72
     1
 73
     1
 90
        2
 40
-0.6
 41
30.0
 62
     5
 63
     7
 74
     0
 91
        4
 64
     7
 65
   257
 75
     1
175
     1
 42
1.0
 92
        8
 66
     7
 43
1.0
 76
     1
 77
     6
 78
     2
 67
     7
 79
     5
170
     0
171
     0
290
     0
174
     0
 93
       13
 44
0.0
173
     0
291
     1
 45
0.0
1001
ACAD
1000
AcDbSavedByObjectVersion
1070
     0
  0
VISUALSTYLE
  5
2C
102
{ACAD_REACTORS
330
2A
102
}
330
2A
100
AcDbVisualStyle
  2
FlatWithEdges
 70
     1
 71
     2
 72
     1
 73
     1
 90
        2
 40
-0.6
 41
30.0
 62
     5
 63
     7
 74
     1
 91
        4
 64
     7
 65
   257
 75
     1
175
     1
 42
1.0
 92
        0
 66
   257
 43
1.0
 76
     1
 77
     6
 78
     2
 67
     7
 79
     5
170
     0
171
     0
290
     0
174
     0
 93
       13
 44
0.0
173
     0
291
     1
 45
0.0
1001
ACAD
1000
AcDbSavedByObjectVersion
1070
     0
  0
VISUALSTYLE
  5
2D
102
{ACAD_REACTORS
330
2A
102
}
330
2A
100
AcDbVisualStyle
  2
Gouraud
 70
     2
 71
     2
 72
     2
 73
     1
 90
        2
 40
-0.6
 41
30.0
 62
     5
 63
     7
 74
     0
 91
        4
 64
     7
 65
   257
 75
     1
175
     1
 42
1.0
 92
        0
 66
     7
 43
1.0
 76
     1
 77
     6
 78
     2
 67
     7
 79
     5
170
     0
171
     0
290
     0
174
     0
 93
       13
 44
0.0
173
     0
291
     1
 45
0.0
1001
ACAD
1000
AcDbSavedByObjectVersion
1070
     0
  0
VISUALSTYLE
  5
2E
102
{ACAD_REACTORS
330
2A
102
}
330
2A
100
AcDbVisualStyle
  2
GouraudWithEdges
 70
     3
 71
     2
 72
     2
 73
     1
 90
        2
 40
-0.6
 41
30.0
 62
     5
 63
     7
 74
     1
 91
        4
 64
     7
 65
   257
 75
     1
175
     1
 42
1.0
 92
        0
 66
   257
 43
1.0
 76
     1
 77
     6
 78
     2
 67
     7
 79
     5
170
     0
171
     0
290
     0
174
     0
 93
       13
 44
0.0
173
     0
291
     1
 45
0.0
1001
ACAD
1000
AcDbSavedByObjectVersion
1070
     0
  0
VISUALSTYLE
  5
38
102
{ACAD_REACTORS
330
2A
102
}
330
2A
100
AcDbVisualStyle
  2
Linepattern
 70
    14
 71
     2
 72
     2
 73
     0
 90
        0
 40
-0.6
 41
-30.0
 62
     5
 63
     7
 74
     1
 91
        4
 64
     7
 65
   257
 75
     7
175
     7
 42
1.0
 92
        8
 66
     7
 43
1.0
 76
     1
 77
     6
 78
     2
 67
     7
 79
     5
170
     0
171
     0
290
     0
174
     0
 93
        1
 44
0.0
173
     0
291
     1
 45
0.0
1001
ACAD
1000
AcDbSavedByObjectVersion
1070
     0
  0
VISUALSTYLE
  5
33
102
{ACAD_REACTORS
330
2A
102
}
330
2A
100
AcDbVisualStyle
  2
Realistic
 70
     8
 71
     2
 72
     2
 73
     0
 90
        0
 40
-0.6
 41
-30.0
 62
     5
 63
     7
 74
     1
 91
        0
 64
     7
 65
   257
 75
     1
175
     1
 42
1.0
 92
        8
 66
     8
 43
1.0
 76
     1
 77
     6
 78
     2
 67
     7
 79
     5
170
     0
171
     0
290
     0
174
     0
 93
       13
 44
0.0
173
     0
291
     0
 45
0.0
1001
ACAD
1000
AcDbSavedByObjectVersion
1070
     0
  0
VISUALSTYLE
  5
37
102
{ACAD_REACTORS
330
2A
102
}
330
2A
100
AcDbVisualStyle
  2
Thicken
 70
    13
 71
     2
 72
     2
 73
     0
 90
        0
 40
-0.6
 41
-30.0
 62
     5
 63
     7
 74
     1
 91
        4
 64
     7
 65
   257
 75
     1
175
     1
 42
1.0
 92
       12
 66
     7
 43
1.0
 76
     1
 77
     6
 78
     2
 67
     7
 79
     5
170
     0
171
     0
290
     0
174
     0
 93
        1
 44
0.0
173
     0
291
     1
 45
0.0
1001
ACAD
1000
AcDbSavedByObjectVersion
1070
     0
  0
DICTIONARYVAR
  5
1F3
102
{ACAD_REACTORS
330
1F1
102
}
330
1F1
100
DictionaryVariables
280
     0
  1
80.000000
  0
DICTIONARYVAR
  5
1F2
102
{ACAD_REACTORS
330
1F1
102
}
330
1F1
100
DictionaryVariables
280
     0
  1
5.000000
  0
ENDSEC
  0
EOF
