  0
SECTION
  2
HEADER
  9
$ACADVER
  1
AC1015
  9
$ACADMAINTVER
 70
     6
  9
$DWGCODEPAGE
  3
ANSI_1252
  9
$INSBASE
 10
0.0
 20
0.0
 30
0.0
  9
$EXTMIN
 10
0.0
 20
0.0
 30
0.0
  9
$EXTMAX
 10
297.0
 20
210.0
 30
0.0
  9
$LIMMIN
 10
0.0
 20
0.0
  9
$LIMMAX
 10
297.0
 20
210.0
  9
$ORTHOMODE
 70
     0
  9
$REGENMODE
 70
     1
  9
$FILLMODE
 70
     1
  9
$QTEXTMODE
 70
     0
  9
$MIRRTEXT
 70
     1
  9
$LTSCALE
 40
1.0
  9
$ATTMODE
 70
     1
  9
$TEXTSIZE
 40
2.0
  9
$TRACEWID
 40
1.0
  9
$TEXTSTYLE
  7
Standard
  9
$CLAYER
  8
0
  9
$CELTYPE
  6
ByLayer
  9
$CECOLOR
 62
   256
  9
$CELTSCALE
 40
1.0
  9
$DISPSILH
 70
     0
  9
$DIMSCALE
 40
1.0
  9
$DIMASZ
 40
3.0
  9
$DIMEXO
 40
0.0
  9
$DIMDLI
 40
3.75
  9
$DIMRND
 40
0.0
  9
$DIMDLE
 40
0.0
  9
$DIMEXE
 40
1.0
  9
$DIMTP
 40
0.0
  9
$DIMTM
 40
0.0
  9
$DIMTXT
 40
2.0
  9
$DIMCEN
 40
2.5
  9
$DIMTSZ
 40
0.0
  9
$DIMTOL
 70
     0
  9
$DIMLIM
 70
     0
  9
$DIMTIH
 70
     1
  9
$DIMTOH
 70
     1
  9
$DIMSE1
 70
     0
  9
$DIMSE2
 70
     0
  9
$DIMTAD
 70
     1
  9
$DIMZIN
 70
     0
  9
$DIMBLK
  1

  9
$DIMASO
 70
     1
  9
$DIMSHO
 70
     1
  9
$DIMPOST
  1

  9
$DIMAPOST
  1

  9
$DIMALT
 70
     0
  9
$DIMALTD
 70
     3
  9
$DIMALTF
 40
0.0393700787
  9
$DIMLFAC
 40
1.0
  9
$DIMTOFL
 70
     1
  9
$DIMTVP
 40
0.0
  9
$DIMTIX
 70
     0
  9
$DIMSOXD
 70
     0
  9
$DIMSAH
 70
     0
  9
$DIMBLK1
  1

  9
$DIMBLK2
  1

  9
$DIMSTYLE
  2
ISO-25
  9
$DIMCLRD
 70
     0
  9
$DIMCLRE
 70
     0
  9
$DIMCLRT
 70
     0
  9
$DIMTFAC
 40
1.0
  9
$DIMGAP
 40
1.524
  9
$DIMJUST
 70
     0
  9
$DIMSD1
 70
     0
  9
$DIMSD2
 70
     0
  9
$DIMTOLJ
 70
     0
  9
$DIMTZIN
 70
     0
  9
$DIMALTZ
 70
     0
  9
$DIMALTTZ
 70
     0
  9
$DIMUPT
 70
     0
  9
$DIMDEC
 70
     2
  9
$DIMTDEC
 70
     3
  9
$DIMALTU
 70
     2
  9
$DIMALTTD
 70
     3
  9
$DIMTXSTY
  7
Standard
  9
$DIMAUNIT
 70
     0
  9
$DIMADEC
 70
     2
  9
$DIMALTRND
 40
0.0
  9
$DIMAZIN
 70
     0
  9
$DIMDSEP
 70
    44
  9
$DIMATFIT
 70
     3
  9
$DIMFRAC
 70
     0
  9
$DIMLDRBLK
  1

  9
$DIMLUNIT
 70
     2
  9
$DIMLWD
 70
    -2
  9
$DIMLWE
 70
    -2
  9
$DIMTMOVE
 70
     0
  9
$LUNITS
 70
     2
  9
$LUPREC
 70
     2
  9
$SKETCHINC
 40
1.0
  9
$FILLETRAD
 40
10.0
  9
$AUNITS
 70
     0
  9
$AUPREC
 70
     2
  9
$MENU
  1
.
  9
$ELEVATION
 40
0.0
  9
$PELEVATION
 40
0.0
  9
$THICKNESS
 40
0.0
  9
$LIMCHECK
 70
     0
  9
$CHAMFERA
 40
10.0
  9
$CHAMFERB
 40
10.0
  9
$CHAMFERC
 40
20.0
  9
$CHAMFERD
 40
0.0
  9
$SKPOLY
 70
     0
  9
$TDCREATE
 40
2455673.484494051
  9
$TDUCREATE
 40
2455673.401160717
  9
$TDUPDATE
 40
2455673.484494063
  9
$TDUUPDATE
 40
2455673.401160729
  9
$TDINDWG
 40
0.0000000116
  9
$TDUSRTIMER
 40
0.0000000116
  9
$USRTIMER
 70
     1
  9
$ANGBASE
 50
0.0
  9
$ANGDIR
 70
     0
  9
$PDMODE
 70
     0
  9
$PDSIZE
 40
-1.0
  9
$PLINEWID
 40
0.0
  9
$SPLFRAME
 70
     0
  9
$SPLINETYPE
 70
     6
  9
$SPLINESEGS
 70
     8
  9
$HANDSEED
  5
1FB
  9
$SURFTAB1
 70
     6
  9
$SURFTAB2
 70
     6
  9
$SURFTYPE
 70
     6
  9
$SURFU
 70
     6
  9
$SURFV
 70
     6
  9
$UCSBASE
  2

  9
$UCSNAME
  2

  9
$UCSORG
 10
0.0
 20
0.0
 30
0.0
  9
$UCSXDIR
 10
1.0
 20
0.0
 30
0.0
  9
$UCSYDIR
 10
0.0
 20
1.0
 30
0.0
  9
$UCSORTHOREF
  2

  9
$UCSORTHOVIEW
 70
     0
  9
$UCSORGTOP
 10
0.0
 20
0.0
 30
0.0
  9
$UCSORGBOTTOM
 10
0.0
 20
0.0
 30
0.0
  9
$UCSORGLEFT
 10
0.0
 20
0.0
 30
0.0
  9
$UCSORGRIGHT
 10
0.0
 20
0.0
 30
0.0
  9
$UCSORGFRONT
 10
0.0
 20
0.0
 30
0.0
  9
$UCSORGBACK
 10
0.0
 20
0.0
 30
0.0
  9
$PUCSBASE
  2

  9
$PUCSNAME
  2

  9
$PUCSORG
 10
0.0
 20
0.0
 30
0.0
  9
$PUCSXDIR
 10
1.0
 20
0.0
 30
0.0
  9
$PUCSYDIR
 10
0.0
 20
1.0
 30
0.0
  9
$PUCSORTHOREF
  2

  9
$PUCSORTHOVIEW
 70
     0
  9
$PUCSORGTOP
 10
0.0
 20
0.0
 30
0.0
  9
$PUCSORGBOTTOM
 10
0.0
 20
0.0
 30
0.0
  9
$PUCSORGLEFT
 10
0.0
 20
0.0
 30
0.0
  9
$PUCSORGRIGHT
 10
0.0
 20
0.0
 30
0.0
  9
$PUCSORGFRONT
 10
0.0
 20
0.0
 30
0.0
  9
$PUCSORGBACK
 10
0.0
 20
0.0
 30
0.0
  9
$USERI1
 70
     0
  9
$USERI2
 70
     0
  9
$USERI3
 70
     0
  9
$USERI4
 70
     0
  9
$USERI5
 70
     0
  9
$USERR1
 40
0.0
  9
$USERR2
 40
0.0
  9
$USERR3
 40
0.0
  9
$USERR4
 40
0.0
  9
$USERR5
 40
0.0
  9
$WORLDVIEW
 70
     1
  9
$SHADEDGE
 70
     3
  9
$SHADEDIF
 70
    70
  9
$TILEMODE
 70
     1
  9
$MAXACTVP
 70
    64
  9
$PINSBASE
 10
0.0
 20
0.0
 30
0.0
  9
$PLIMCHECK
 70
     0
  9
$PEXTMIN
 10
1.0000000000E+20
 20
1.0000000000E+20
 30
1.0000000000E+20
  9
$PEXTMAX
 10
-1.0000000000E+20
 20
-1.0000000000E+20
 30
-1.0000000000E+20
  9
$PLIMMIN
 10
0.0
 20
0.0
  9
$PLIMMAX
 10
420.0
 20
297.0
  9
$UNITMODE
 70
     0
  9
$VISRETAIN
 70
     1
  9
$PLINEGEN
 70
     0
  9
$PSLTSCALE
 70
     1
  9
$TREEDEPTH
 70
  3020
  9
$CMLSTYLE
  2
Standard
  9
$CMLJUST
 70
     0
  9
$CMLSCALE
 40
20.0
  9
$PROXYGRAPHICS
 70
     1
  9
$MEASUREMENT
 70
     1
  9
$CELWEIGHT
370
    -1
  9
$ENDCAPS
280
     0
  9
$JOINSTYLE
280
     0
  9
$LWDISPLAY
290
     1
  9
$INSUNITS
 70
     4
  9
$HYPERLINKBASE
  1

  9
$STYLESHEET
  1

  9
$XEDIT
290
     1
  9
$CEPSNTYPE
380
     0
  9
$PSTYLEMODE
290
     1
  9
$FINGERPRINTGUID
  2
{B720745D-B5D7-44D4-B8EF-51B99188D128}
  9
$VERSIONGUID
  2
{FAEB1C32-E019-11D5-929B-00C0DF256EC4}
  9
$EXTNAMES
290
     1
  9
$PSVPSCALE
 40
0.0
  9
$OLESTARTUP
290
     0
  0
ENDSEC
  0
SECTION
  2
CLASSES
  0
CLASS
  1
ACDBDICTIONARYWDFLT
  2
AcDbDictionaryWithDefault
  3
ObjectDBX Classes
 90
        0
280
     0
281
     0
  0
CLASS
  1
VISUALSTYLE
  2
AcDbVisualStyle
  3
ObjectDBX Classes
 90
     4095
280
     0
281
     0
  0
CLASS
  1
DICTIONARYVAR
  2
AcDbDictionaryVar
  3
ObjectDBX Classes
 90
        0
280
     0
281
     0
  0
CLASS
  1
ACDBPLACEHOLDER
  2
AcDbPlaceHolder
  3
ObjectDBX Classes
 90
        0
280
     0
281
     0
  0
CLASS
  1
LAYOUT
  2
AcDbLayout
  3
ObjectDBX Classes
 90
        0
280
     0
281
     0
  0
ENDSEC
  0
SECTION
  2
TABLES
  0
TABLE
  2
VPORT
  5
8
330
0
100
AcDbSymbolTable
 70
     1
  0
VPORT
  5
29
330
8
100
AcDbSymbolTableRecord
100
AcDbViewportTableRecord
  2
*Active
 70
     0
 10
0.0
 20
0.0
 11
1.0
 21
1.0
 12
148.5
 22
105.0
 13
0.0
 23
0.0
 14
10.0
 24
10.0
 15
10.0
 25
10.0
 16
0.0
 26
0.0
 36
1.0
 17
0.0
 27
0.0
 37
0.0
 40
210.0
 41
1.4142857143
 42
50.0
 43
0.0
 44
0.0
 50
0.0
 51
0.0
 71
     0
 72
  2000
 73
     1
 74
     3
 75
     0
 76
     0
 77
     0
 78
     0
281
     0
 65
     1
110
0.0
120
0.0
130
0.0
111
1.0
121
0.0
131
0.0
112
0.0
122
1.0
132
0.0
 79
     0
146
0.0
  0
ENDTAB
  0
TABLE
  2
LTYPE
  5
5
330
0
100
AcDbSymbolTable
 70
     6
  0
LTYPE
  5
14
330
5
100
AcDbSymbolTableRecord
100
AcDbLinetypeTableRecord
  2
ByBlock
 70
     0
  3

 72
    65
 73
     0
 40
0.0
  0
LTYPE
  5
15
330
5
100
AcDbSymbolTableRecord
100
AcDbLinetypeTableRecord
  2
ByLayer
 70
     0
  3

 72
    65
 73
     0
 40
0.0
  0
LTYPE
  5
16
330
5
100
AcDbSymbolTableRecord
100
AcDbLinetypeTableRecord
  2
Continuous
 70
     0
  3
Solid line
 72
    65
 73
     0
 40
0.0
  0
LTYPE
  5
3B
330
5
100
AcDbSymbolTableRecord
100
AcDbLinetypeTableRecord
  2
HIDDEN
 70
     0
  3
Hidden __ __ __ __ __ __ __ __ __ __ __ __ __ __
 72
    65
 73
     2
 40
1.905
 49
1.27
 74
     0
 49
-0.635
 74
     0
  0
LTYPE
  5
3C
330
5
100
AcDbSymbolTableRecord
100
AcDbLinetypeTableRecord
  2
PHANTOM
 70
     0
  3
Phantom ______  __  __  ______  __  __  ______
 72
    65
 73
     6
 40
12.7
 49
6.35
 74
     0
 49
-1.27
 74
     0
 49
1.27
 74
     0
 49
-1.27
 74
     0
 49
1.27
 74
     0
 49
-1.27
 74
     0
  0
LTYPE
  5
3D
330
5
100
AcDbSymbolTableRecord
100
AcDbLinetypeTableRecord
  2
CENTER
 70
     0
  3
Center ____ _ ____ _ ____ _ ____ _ ____ _ ____
 72
    65
 73
     4
 40
10.16
 49
6.35
 74
     0
 49
-1.27
 74
     0
 49
1.27
 74
     0
 49
-1.27
 74
     0
  0
LTYPE
  5
3E
330
5
100
AcDbSymbolTableRecord
100
AcDbLinetypeTableRecord
  2
CENTERX2
 70
     0
  3
Center (2x) ________  __  ________  __  _____
 72
    65
 73
     4
 40
20.32
 49
12.7
 74
     0
 49
-2.54
 74
     0
 49
2.54
 74
     0
 49
-2.54
 74
     0
  0
LTYPE
  5
3F
330
5
100
AcDbSymbolTableRecord
100
AcDbLinetypeTableRecord
  2
DOT2
 70
     0
  3
Dot (.5x) ........................................
 72
    65
 73
     2
 40
0.635
 49
0.0
 74
     0
 49
-0.635
 74
     0
  0
ENDTAB
  0
TABLE
  2
LAYER
  5
2
330
0
100
AcDbSymbolTable
 70
     5
  0
LAYER
  5
10
330
2
100
AcDbSymbolTableRecord
100
AcDbLayerTableRecord
  2
0
 70
     0
 62
     7
  6
Continuous
370
    -3
390
F
  0
LAYER
  5
40
330
2
100
AcDbSymbolTableRecord
100
AcDbLayerTableRecord
  2
FORMAT
 70
     0
 62
     7
  6
Continuous
370
    -3
390
F
  0
LAYER
  5
41
330
2
100
AcDbSymbolTableRecord
100
AcDbLayerTableRecord
  2
VERMASSUNG
 70
     0
 62
     7
  6
Continuous
370
    -3
390
F
  0
LAYER
  5
42
330
2
100
AcDbSymbolTableRecord
100
AcDbLayerTableRecord
  2
KOPF_DÜNN
 70
     0
 62
     7
  6
Continuous
370
    -3
390
F
  0
LAYER
  5
43
330
2
100
AcDbSymbolTableRecord
100
AcDbLayerTableRecord
  2
KOPF_DICK
 70
     0
 62
     7
  6
Continuous
370
    15
390
F
  0
ENDTAB
  0
TABLE
  2
STYLE
  5
3
330
0
100
AcDbSymbolTable
 70
     3
  0
STYLE
  5
11
330
3
100
AcDbSymbolTableRecord
100
AcDbTextStyleTableRecord
  2
Standard
 70
     0
 40
0.0
 41
1.0
 50
0.0
 71
     0
 42
2.5
  3
txt
  4

  0
STYLE
  5
44
330
3
100
AcDbSymbolTableRecord
100
AcDbTextStyleTableRecord
  2
SLDTEXTSTYLE0
 70
     0
 40
0.0
 41
0.7
 50
0.0
 71
     0
 42
0.2
  3
TXT
  4

  0
STYLE
  5
48
330
3
100
AcDbSymbolTableRecord
100
AcDbTextStyleTableRecord
  2
SLDTEXTSTYLE1
 70
     0
 40
0.0
 41
0.65
 50
0.0
 71
     0
 42
0.2
  3
TXT
  4

  0
ENDTAB
  0
TABLE
  2
VIEW
  5
6
330
0
100
AcDbSymbolTable
 70
     0
  0
ENDTAB
  0
TABLE
  2
UCS
  5
7
330
0
100
AcDbSymbolTable
 70
     0
  0
ENDTAB
  0
TABLE
  2
APPID
  5
9
330
0
100
AcDbSymbolTable
 70
     1
  0
APPID
  5
12
330
9
100
AcDbSymbolTableRecord
100
AcDbRegAppTableRecord
  2
ACAD
 70
     0
  0
ENDTAB
  0
TABLE
  2
DIMSTYLE
  5
A
330
0
100
AcDbSymbolTable
 70
     2
100
AcDbDimStyleTable
  0
DIMSTYLE
105
27
330
A
100
AcDbSymbolTableRecord
100
AcDbDimStyleTableRecord
  2
ISO-25
 70
     0
 41
2.5
 42
0.625
 43
3.75
 44
1.25
 73
     0
 74
     0
 77
     1
 78
     8
140
2.5
141
2.5
143
0.0393700787
147
0.625
171
     3
172
     1
271
     2
272
     2
274
     3
278
    44
283
     0
284
     8
340
11
  0
DIMSTYLE
105
1B4
102
{ACAD_REACTORS
330
1B3
330
1C0
330
1CA
330
1D4
330
1DE
330
1E9
102
}
330
A
100
AcDbSymbolTableRecord
100
AcDbDimStyleTableRecord
  2
SLDDIMSTYLE0
 70
     0
 41
3.0
 44
0.0
 45
0.000000001
 73
     0
 74
     0
 77
     1
 78
    12
140
2.0
147
0.5
173
     1
271
     2
272
     3
284
    12
340
44
  0
ENDTAB
  0
TABLE
  2
BLOCK_RECORD
  5
1
330
0
100
AcDbSymbolTable
 70
     7
  0
BLOCK_RECORD
  5
1F
330
1
100
AcDbSymbolTableRecord
100
AcDbBlockTableRecord
  2
*Model_Space
340
22
  0
BLOCK_RECORD
  5
1B
330
1
100
AcDbSymbolTableRecord
100
AcDbBlockTableRecord
  2
*Paper_Space
340
1E
  0
BLOCK_RECORD
  5
23
330
1
100
AcDbSymbolTableRecord
100
AcDbBlockTableRecord
  2
*Paper_Space0
340
26
  0
BLOCK_RECORD
  5
1B5
330
1
100
AcDbSymbolTableRecord
100
AcDbBlockTableRecord
  2
*D1
340
0
  0
BLOCK_RECORD
  5
1C1
330
1
100
AcDbSymbolTableRecord
100
AcDbBlockTableRecord
  2
*D2
340
0
  0
BLOCK_RECORD
  5
1CB
330
1
100
AcDbSymbolTableRecord
100
AcDbBlockTableRecord
  2
*D3
340
0
  0
BLOCK_RECORD
  5
1D5
330
1
100
AcDbSymbolTableRecord
100
AcDbBlockTableRecord
  2
*D4
340
0
  0
BLOCK_RECORD
  5
1DF
330
1
100
AcDbSymbolTableRecord
100
AcDbBlockTableRecord
  2
*D5
340
0
  0
BLOCK_RECORD
  5
1EA
330
1
100
AcDbSymbolTableRecord
100
AcDbBlockTableRecord
  2
*D6
340
0
  0
ENDTAB
  0
ENDSEC
  0
SECTION
  2
BLOCKS
  0
BLOCK
  5
20
330
1F
100
AcDbEntity
  8
0
100
AcDbBlockBegin
  2
*Model_Space
 70
     0
 10
0.0
 20
0.0
 30
0.0
  3
*Model_Space
  1

  0
ENDBLK
  5
21
330
1F
100
AcDbEntity
  8
0
100
AcDbBlockEnd
  0
BLOCK
  5
1C
330
1B
100
AcDbEntity
 67
     1
  8
0
100
AcDbBlockBegin
  2
*Paper_Space
 70
     0
 10
0.0
 20
0.0
 30
0.0
  3
*Paper_Space
  1

  0
ENDBLK
  5
1D
330
1B
100
AcDbEntity
 67
     1
  8
0
100
AcDbBlockEnd
  0
BLOCK
  5
24
330
23
100
AcDbEntity
  8
0
100
AcDbBlockBegin
  2
*Paper_Space0
 70
     0
 10
0.0
 20
0.0
 30
0.0
  3
*Paper_Space0
  1

  0
ENDBLK
  5
25
330
23
100
AcDbEntity
  8
0
100
AcDbBlockEnd
  0
BLOCK
  5
1B6
330
1B5
100
AcDbEntity
  8
0
100
AcDbBlockBegin
  2
*D1
 70
     1
 10
0.0
 20
0.0
 30
0.0
  3
*D1
  1

  0
SOLID
  5
1B8
330
1B5
100
AcDbEntity
  8
VERMASSUNG
100
AcDbTrace
 10
69.3427551436
 20
158.9757471257
 30
0.0
 11
68.8927551436
 21
155.9757471257
 31
0.0
 12
69.7927551436
 22
155.9757471257
 32
0.0
 13
69.7927551436
 23
155.9757471257
 33
0.0
  0
SOLID
  5
1B9
330
1B5
100
AcDbEntity
  8
VERMASSUNG
100
AcDbTrace
 10
69.3427551436
 20
58.9757471257
 30
0.0
 11
69.7927551436
 21
61.9757471257
 31
0.0
 12
68.8927551436
 22
61.9757471257
 32
0.0
 13
68.8927551436
 23
61.9757471257
 33
0.0
  0
LINE
  5
1BA
330
1B5
100
AcDbEntity
  8
VERMASSUNG
100
AcDbLine
 10
124.5726183516
 20
158.9757471257
 30
0.0
 11
68.3427551436
 21
158.9757471257
 31
0.0
  0
LINE
  5
1BB
330
1B5
100
AcDbEntity
  8
VERMASSUNG
100
AcDbLine
 10
124.5726183516
 20
58.9757471257
 30
0.0
 11
68.3427551436
 21
58.9757471257
 31
0.0
  0
LINE
  5
1BC
330
1B5
100
AcDbEntity
  8
VERMASSUNG
100
AcDbLine
 10
69.3427551436
 20
158.9757471257
 30
0.0
 11
69.3427551436
 21
58.9757471257
 31
0.0
  0
MTEXT
  5
1BD
330
1B5
100
AcDbEntity
  8
VERMASSUNG
100
AcDbMText
 10
66.5646196545
 20
100.7720959881
 30
0.0
 40
2.0
 41
0.0
 71
     1
 72
     1
  1
HSK A 
  7
SLDTEXTSTYLE0
 11
-7.044195017643634E-15
 21
1.0
 31
0.0
 73
     1
 44
1.0
  0
MTEXT
  5
1BE
330
1B5
100
AcDbEntity
  8
VERMASSUNG
100
AcDbMText
 10
66.764619664
 20
109.772096532
 30
0.0
 40
2.0
 41
0.0
 71
     1
 72
     1
  1
%%c
  7
SLDTEXTSTYLE0
 11
-7.044195017643634E-15
 21
1.0
 31
0.0
 73
     1
 44
1.0
  0
MTEXT
  5
1BF
330
1B5
100
AcDbEntity
  8
VERMASSUNG
100
AcDbMText
 10
66.7646197804
 20
113.380423182
 30
0.0
 40
2.0
 41
0.0
 71
     1
 72
     1
  1
100
  7
SLDTEXTSTYLE0
 11
-7.044195017643634E-15
 21
1.0
 31
0.0
 73
     1
 44
1.0
  0
ENDBLK
  5
1B7
330
1B5
100
AcDbEntity
  8
0
100
AcDbBlockEnd
  0
BLOCK
  5
1C2
330
1C1
100
AcDbEntity
  8
0
100
AcDbBlockBegin
  2
*D2
 70
     1
 10
0.0
 20
0.0
 30
0.0
  3
*D2
  1

  0
SOLID
  5
1C4
330
1C1
100
AcDbEntity
  8
VERMASSUNG
100
AcDbTrace
 10
74.1726183516
 20
173.9730227519
 30
0.0
 11
77.1726183516
 21
173.5230227519
 31
0.0
 12
77.1726183516
 22
174.4230227519
 32
0.0
 13
77.1726183516
 23
174.4230227519
 33
0.0
  0
SOLID
  5
1C5
330
1C1
100
AcDbEntity
  8
VERMASSUNG
100
AcDbTrace
 10
224.0726183516
 20
173.9730227519
 30
0.0
 11
221.0726183516
 21
174.4230227519
 31
0.0
 12
221.0726183516
 22
173.5230227519
 32
0.0
 13
221.0726183516
 23
173.5230227519
 33
0.0
  0
LINE
  5
1C6
330
1C1
100
AcDbEntity
  8
VERMASSUNG
100
AcDbLine
 10
74.1726183516
 20
139.4784168682
 30
0.0
 11
74.1726183516
 21
174.9730227519
 31
0.0
  0
LINE
  5
1C7
330
1C1
100
AcDbEntity
  8
VERMASSUNG
100
AcDbLine
 10
224.0726183516
 20
125.7016066041
 30
0.0
 11
224.0726183516
 21
174.9730227519
 31
0.0
  0
LINE
  5
1C8
330
1C1
100
AcDbEntity
  8
VERMASSUNG
100
AcDbLine
 10
74.1726183516
 20
173.9730227519
 30
0.0
 11
224.0726183516
 21
173.9730227519
 31
0.0
  0
MTEXT
  5
1C9
330
1C1
100
AcDbEntity
  8
VERMASSUNG
100
AcDbMText
 10
146.1231221435
 20
176.551158115
 30
0.0
 40
2.0
 41
0.0
 71
     1
 72
     1
  1
149.9
  7
SLDTEXTSTYLE0
 73
     1
 44
1.0
  0
ENDBLK
  5
1C3
330
1C1
100
AcDbEntity
  8
0
100
AcDbBlockEnd
  0
BLOCK
  5
1CC
330
1CB
100
AcDbEntity
  8
0
100
AcDbBlockBegin
  2
*D3
 70
     1
 10
0.0
 20
0.0
 30
0.0
  3
*D3
  1

  0
SOLID
  5
1CE
330
1CB
100
AcDbEntity
  8
VERMASSUNG
100
AcDbTrace
 10
124.0726183516
 20
167.9730227519
 30
0.0
 11
127.0726183516
 21
167.5230227519
 31
0.0
 12
127.0726183516
 22
168.4230227519
 32
0.0
 13
127.0726183516
 23
168.4230227519
 33
0.0
  0
SOLID
  5
1CF
330
1CB
100
AcDbEntity
  8
VERMASSUNG
100
AcDbTrace
 10
224.0726183516
 20
167.9730227519
 30
0.0
 11
221.0726183516
 21
168.4230227519
 31
0.0
 12
221.0726183516
 22
167.5230227519
 32
0.0
 13
221.0726183516
 23
167.5230227519
 33
0.0
  0
LINE
  5
1D0
330
1CB
100
AcDbEntity
  8
VERMASSUNG
100
AcDbLine
 10
124.0726183516
 20
158.4757471257
 30
0.0
 11
124.0726183516
 21
168.9730227519
 31
0.0
  0
LINE
  5
1D1
330
1CB
100
AcDbEntity
  8
VERMASSUNG
100
AcDbLine
 10
224.0726183516
 20
125.7016066041
 30
0.0
 11
224.0726183516
 21
168.9730227519
 31
0.0
  0
LINE
  5
1D2
330
1CB
100
AcDbEntity
  8
VERMASSUNG
100
AcDbLine
 10
124.0726183516
 20
167.9730227519
 30
0.0
 11
224.0726183516
 21
167.9730227519
 31
0.0
  0
MTEXT
  5
1D3
330
1CB
100
AcDbEntity
  8
VERMASSUNG
100
AcDbMText
 10
172.1731308109
 20
170.551158115
 30
0.0
 40
2.0
 41
0.0
 71
     1
 72
     1
  1
100
  7
SLDTEXTSTYLE0
 73
     1
 44
1.0
  0
ENDBLK
  5
1CD
330
1CB
100
AcDbEntity
  8
0
100
AcDbBlockEnd
  0
BLOCK
  5
1D6
330
1D5
100
AcDbEntity
  8
0
100
AcDbBlockBegin
  2
*D4
 70
     1
 10
0.0
 20
0.0
 30
0.0
  3
*D4
  1

  0
SOLID
  5
1D8
330
1D5
100
AcDbEntity
  8
VERMASSUNG
100
AcDbTrace
 10
153.0226183516
 20
161.9730227519
 30
0.0
 11
156.0226183516
 21
161.5230227519
 31
0.0
 12
156.0226183516
 22
162.4230227519
 32
0.0
 13
156.0226183516
 23
162.4230227519
 33
0.0
  0
SOLID
  5
1D9
330
1D5
100
AcDbEntity
  8
VERMASSUNG
100
AcDbTrace
 10
224.0726183516
 20
161.9730227519
 30
0.0
 11
221.0726183516
 21
162.4230227519
 31
0.0
 12
221.0726183516
 22
161.5230227519
 32
0.0
 13
221.0726183516
 23
161.5230227519
 33
0.0
  0
LINE
  5
1DA
330
1D5
100
AcDbEntity
  8
VERMASSUNG
100
AcDbLine
 10
153.0226183516
 20
156.9444869465
 30
0.0
 11
153.0226183516
 21
162.9730227519
 31
0.0
  0
LINE
  5
1DB
330
1D5
100
AcDbEntity
  8
VERMASSUNG
100
AcDbLine
 10
224.0726183516
 20
125.7016066041
 30
0.0
 11
224.0726183516
 21
162.9730227519
 31
0.0
  0
LINE
  5
1DC
330
1D5
100
AcDbEntity
  8
VERMASSUNG
100
AcDbLine
 10
153.0226183516
 20
161.9730227519
 30
0.0
 11
224.0726183516
 21
161.9730227519
 31
0.0
  0
MTEXT
  5
1DD
330
1D5
100
AcDbEntity
  8
VERMASSUNG
100
AcDbMText
 10
185.6479119594
 20
164.551158115
 30
0.0
 40
2.0
 41
0.0
 71
     1
 72
     1
  1
71.05
  7
SLDTEXTSTYLE0
 73
     1
 44
1.0
  0
ENDBLK
  5
1D7
330
1D5
100
AcDbEntity
  8
0
100
AcDbBlockEnd
  0
BLOCK
  5
1E0
330
1DF
100
AcDbEntity
  8
0
100
AcDbBlockBegin
  2
*D5
 70
     1
 10
0.0
 20
0.0
 30
0.0
  3
*D5
  1

  0
SOLID
  5
1E2
330
1DF
100
AcDbEntity
  8
VERMASSUNG
100
AcDbTrace
 10
233.233103618
 20
116.9757471257
 30
0.0
 11
232.783103618
 21
113.9757471257
 31
0.0
 12
233.683103618
 22
113.9757471257
 32
0.0
 13
233.683103618
 23
113.9757471257
 33
0.0
  0
SOLID
  5
1E3
330
1DF
100
AcDbEntity
  8
VERMASSUNG
100
AcDbTrace
 10
233.233103618
 20
100.9757471257
 30
0.0
 11
233.683103618
 21
103.9757471257
 31
0.0
 12
232.783103618
 22
103.9757471257
 32
0.0
 13
232.783103618
 23
103.9757471257
 33
0.0
  0
LINE
  5
1E4
330
1DF
100
AcDbEntity
  8
VERMASSUNG
100
AcDbLine
 10
223.7726183516
 20
116.9757471257
 30
0.0
 11
234.233103618
 21
116.9757471257
 31
0.0
  0
LINE
  5
1E5
330
1DF
100
AcDbEntity
  8
VERMASSUNG
100
AcDbLine
 10
223.7726183516
 20
100.9757471257
 30
0.0
 11
234.233103618
 21
100.9757471257
 31
0.0
  0
LINE
  5
1E6
330
1DF
100
AcDbEntity
  8
VERMASSUNG
100
AcDbLine
 10
233.233103618
 20
116.9757471257
 30
0.0
 11
233.233103618
 21
100.9757471257
 31
0.0
  0
MTEXT
  5
1E7
330
1DF
100
AcDbEntity
  8
VERMASSUNG
100
AcDbMText
 10
230.6549681384
 20
105.9716095309
 30
0.0
 40
2.0
 41
0.0
 71
     1
 72
     1
  1
%%c
  7
SLDTEXTSTYLE0
 11
-7.044195017643634E-15
 21
1.0
 31
0.0
 73
     1
 44
1.0
  0
MTEXT
  5
1E8
330
1DF
100
AcDbEntity
  8
VERMASSUNG
100
AcDbMText
 10
230.6549682548
 20
109.5802877541
 30
0.0
 40
2.0
 41
0.0
 71
     1
 72
     1
  1
16
  7
SLDTEXTSTYLE0
 11
-7.044195017643634E-15
 21
1.0
 31
0.0
 73
     1
 44
1.0
  0
ENDBLK
  5
1E1
330
1DF
100
AcDbEntity
  8
0
100
AcDbBlockEnd
  0
BLOCK
  5
1EB
330
1EA
100
AcDbEntity
  8
0
100
AcDbBlockBegin
  2
*D6
 70
     1
 10
0.0
 20
0.0
 30
0.0
  3
*D6
  1

  0
SOLID
  5
1ED
330
1EA
100
AcDbEntity
  8
VERMASSUNG
100
AcDbTrace
 10
239.233103618
 20
132.9757471257
 30
0.0
 11
238.783103618
 21
129.9757471257
 31
0.0
 12
239.683103618
 22
129.9757471257
 32
0.0
 13
239.683103618
 23
129.9757471257
 33
0.0
  0
SOLID
  5
1EE
330
1EA
100
AcDbEntity
  8
VERMASSUNG
100
AcDbTrace
 10
239.233103618
 20
84.9757471257
 30
0.0
 11
239.683103618
 21
87.9757471257
 31
0.0
 12
238.783103618
 22
87.9757471257
 32
0.0
 13
238.783103618
 23
87.9757471257
 33
0.0
  0
LINE
  5
1EF
330
1EA
100
AcDbEntity
  8
VERMASSUNG
100
AcDbLine
 10
211.2055768285
 20
132.9757471257
 30
0.0
 11
240.233103618
 21
132.9757471257
 31
0.0
  0
LINE
  5
1F0
330
1EA
100
AcDbEntity
  8
VERMASSUNG
100
AcDbLine
 10
211.2055768285
 20
84.9757471257
 30
0.0
 11
240.233103618
 21
84.9757471257
 31
0.0
  0
LINE
  5
1F1
330
1EA
100
AcDbEntity
  8
VERMASSUNG
100
AcDbLine
 10
239.233103618
 20
132.9757471257
 30
0.0
 11
239.233103618
 21
84.9757471257
 31
0.0
  0
MTEXT
  5
1F2
330
1EA
100
AcDbEntity
  8
VERMASSUNG
100
AcDbMText
 10
236.6549681384
 20
105.6722400834
 30
0.0
 40
2.0
 41
0.0
 71
     1
 72
     1
  1
%%c
  7
SLDTEXTSTYLE0
 11
-7.044195017643634E-15
 21
1.0
 31
0.0
 73
     1
 44
1.0
  0
MTEXT
  5
1F3
330
1EA
100
AcDbEntity
  8
VERMASSUNG
100
AcDbMText
 10
236.6549682548
 20
109.2809183066
 30
0.0
 40
2.0
 41
0.0
 71
     1
 72
     1
  1
48
  7
SLDTEXTSTYLE0
 11
-7.044195017643634E-15
 21
1.0
 31
0.0
 73
     1
 44
1.0
  0
ENDBLK
  5
1EC
330
1EA
100
AcDbEntity
  8
0
100
AcDbBlockEnd
  0
ENDSEC
  0
SECTION
  2
ENTITIES
  0
MTEXT
  5
45
330
1F
100
AcDbEntity
  8
KOPF_DÜNN
100
AcDbMText
 10
13.8892156294
 20
23.8442973028
 30
0.0
 40
3.0
 41
0.0
 71
     1
 72
     1
  1
HA0.W16.K21.100
  7
SLDTEXTSTYLE0
 73
     1
 44
1.0
  0
MTEXT
  5
46
330
1F
100
AcDbEntity
  8
VERMASSUNG
100
AcDbMText
 10
13.9329988022
 20
28.8834360957
 30
0.0
 40
3.0
 41
0.0
 71
     1
 72
     1
  1
Flächenspannfutter_End mill adapter Weldon ø16
  7
SLDTEXTSTYLE0
 73
     1
 44
1.0
  0
MTEXT
  5
47
330
1F
100
AcDbEntity
  8
VERMASSUNG
100
AcDbMText
 10
98.8601118557
 20
13.8365368179
 30
0.0
 40
2.0
 41
0.0
 71
     1
 72
     1
  1
Datum: 10.10.2006
  7
SLDTEXTSTYLE0
 73
     1
 44
1.0
  0
MTEXT
  5
49
330
1F
100
AcDbEntity
  8
VERMASSUNG
100
AcDbMText
 10
13.933048693
 20
18.0482802738
 30
0.0
 40
2.0
 41
0.0
 71
     1
 72
     1
  1
DIN 69 893 HSK A 100
  7
SLDTEXTSTYLE1
 73
     1
 44
1.0
  0
MTEXT
  5
4A
330
1F
100
AcDbEntity
  8
VERMASSUNG
100
AcDbMText
 10
13.9808475933
 20
13.9090973692
 30
0.0
 40
2.0
 41
0.0
 71
     1
 72
     1
  1
Gewicht: 2848g
  7
SLDTEXTSTYLE0
 73
     1
 44
1.0
  0
LINE
  5
4B
330
1F
100
AcDbEntity
  8
0
  6
Continuous
 62
     7
370
    15
100
AcDbLine
 10
124.5726183516
 20
58.9757471257
 30
0.0
 11
129.0226183516
 21
58.9757471257
 31
0.0
  0
LINE
  5
4C
330
1F
100
AcDbEntity
  8
0
  6
Continuous
 62
     7
370
    15
100
AcDbLine
 10
129.056691184
 20
158.9757471257
 30
0.0
 11
124.5726183516
 21
158.9757471257
 31
0.0
  0
ARC
  5
4D
330
1F
100
AcDbEntity
  8
0
  6
Continuous
 62
     7
370
    15
100
AcDbCircle
 10
124.5726183516
 20
59.4757471257
 30
0.0
 40
0.5
100
AcDbArc
 50
180.0
 51
270.0
  0
ARC
  5
4E
330
1F
100
AcDbEntity
  8
0
  6
Continuous
 62
     7
370
    15
100
AcDbCircle
 10
124.5726183516
 20
158.4757471257
 30
0.0
 40
0.5
100
AcDbArc
 50
90.0
 51
180.0
  0
ARC
  5
4F
330
1F
100
AcDbEntity
  8
0
  6
Continuous
 62
     7
370
    15
100
AcDbCircle
 10
123.1756814331
 20
70.3472618012
 30
0.0
 40
0.9962338214386983
100
AcDbArc
 50
25.7988228126
 51
90.0
  0
ARC
  5
50
330
1F
100
AcDbEntity
  8
0
  6
Continuous
 62
     7
370
    15
100
AcDbCircle
 10
123.1756814331
 20
147.6042324501
 30
0.0
 40
0.9962338214386932
100
AcDbArc
 50
270.0
 51
334.2011771874
  0
LINE
  5
51
330
1F
100
AcDbEntity
  8
0
  6
Continuous
 62
     7
370
    15
100
AcDbLine
 10
121.5726183516
 20
71.0934956227
 30
0.0
 11
122.3784645059
 21
71.309421449
 31
0.0
  0
LINE
  5
52
330
1F
100
AcDbEntity
  8
0
  6
Continuous
 62
     7
370
    15
100
AcDbLine
 10
122.3784645059
 20
146.6420728024
 30
0.0
 11
121.5726183516
 21
146.8579986287
 31
0.0
  0
LINE
  5
53
330
1F
100
AcDbEntity
  8
0
  6
Continuous
 62
     7
370
    15
100
AcDbLine
 10
102.5919394329
 20
145.9070628111
 30
0.0
 11
84.2726183516
 21
144.9892611537
 31
0.0
  0
LINE
  5
54
330
1F
100
AcDbEntity
  8
0
  6
Continuous
 62
     7
370
    15
100
AcDbLine
 10
121.5726183516
 20
146.8579986287
 30
0.0
 11
115.5045791971
 21
146.553988651
 31
0.0
  0
LINE
  5
55
330
1F
100
AcDbEntity
  8
0
  6
Continuous
 62
     7
370
    15
100
AcDbLine
 10
115.5047024736
 20
71.3974994242
 30
0.0
 11
121.5726183516
 21
71.0934956227
 31
0.0
  0
LINE
  5
56
330
1F
100
AcDbEntity
  8
0
  6
Continuous
 62
     7
370
    15
100
AcDbLine
 10
89.2726183516
 20
72.7117320956
 30
0.0
 11
102.5925695055
 21
72.0443998735
 31
0.0
  0
ARC
  5
57
330
1F
100
AcDbEntity
  8
0
  6
Continuous
 62
     7
370
    15
100
AcDbCircle
 10
122.637283551
 20
70.3434956227
 30
0.0
 40
1.0
100
AcDbArc
 50
90.0
 51
105.0
  0
ARC
  5
58
330
1F
100
AcDbEntity
  8
0
  6
Continuous
 62
     7
370
    15
100
AcDbCircle
 10
122.637283551
 20
147.6079986287
 30
0.0
 40
0.9999999999999719
100
AcDbArc
 50
255.0
 51
270.0
  0
LINE
  5
59
330
1F
100
AcDbEntity
  8
0
  6
Continuous
 62
     7
370
    15
100
AcDbLine
 10
122.637283551
 20
71.3434956227
 30
0.0
 11
123.1756814331
 21
71.3434956227
 31
0.0
  0
LINE
  5
5A
330
1F
100
AcDbEntity
  8
0
  6
Continuous
 62
     7
370
    15
100
AcDbLine
 10
123.1756814331
 20
146.6079986287
 30
0.0
 11
122.637283551
 21
146.6079986287
 31
0.0
  0
ARC
  5
5B
330
1F
100
AcDbEntity
  8
0
  6
Continuous
 62
     7
370
    15
100
AcDbCircle
 10
158.0226183516
 20
79.9757471257
 30
0.0
 40
5.0
100
AcDbArc
 50
90.0
 51
180.0
  0
ARC
  5
5C
330
1F
100
AcDbEntity
  8
0
  6
Continuous
 62
     7
370
    15
100
AcDbCircle
 10
158.0226183516
 20
137.9757471257
 30
0.0
 40
5.0
100
AcDbArc
 50
180.0
 51
270.0
  0
LINE
  5
5D
330
1F
100
AcDbEntity
  8
0
  6
Continuous
 62
     7
370
    15
100
AcDbLine
 10
169.4898736869
 20
84.9757471257
 30
0.0
 11
211.2055768285
 21
84.9757471257
 31
0.0
  0
LINE
  5
5E
330
1F
100
AcDbEntity
  8
0
  6
Continuous
 62
     7
370
    15
100
AcDbLine
 10
158.0226183516
 20
84.9757471257
 30
0.0
 11
162.565631989
 21
84.9757471257
 31
0.0
  0
LINE
  5
5F
330
1F
100
AcDbEntity
  8
0
  6
Continuous
 62
     7
370
    15
100
AcDbLine
 10
162.5545582626
 20
132.9757471257
 30
0.0
 11
158.0226183516
 21
132.9757471257
 31
0.0
  0
LINE
  5
60
330
1F
100
AcDbEntity
  8
0
  6
Continuous
 62
     7
370
    15
100
AcDbLine
 10
211.2055768285
 20
132.9757471257
 30
0.0
 11
169.4793988856
 21
132.9757471257
 31
0.0
  0
LINE
  5
61
330
1F
100
AcDbEntity
  8
0
  6
Continuous
 62
     7
370
    15
100
AcDbLine
 10
211.2055768285
 20
84.9757471257
 30
0.0
 11
222.917854875
 21
90.4372720732
 31
0.0
  0
LINE
  5
62
330
1F
100
AcDbEntity
  8
0
  6
Continuous
 62
     7
370
    15
100
AcDbLine
 10
222.917854875
 20
127.5142221781
 30
0.0
 11
211.2055768285
 21
132.9757471257
 31
0.0
  0
ARC
  5
63
330
1F
100
AcDbEntity
  8
0
  6
Continuous
 62
     7
370
    15
100
AcDbCircle
 10
222.0726183516
 20
92.2498876473
 30
0.0
 40
1.999999999999987
100
AcDbArc
 50
295.0
 51
0.0
  0
ARC
  5
64
330
1F
100
AcDbEntity
  8
0
  6
Continuous
 62
     7
370
    15
100
AcDbCircle
 10
222.0726183516
 20
125.7016066041
 30
0.0
 40
1.999999999999987
100
AcDbArc
 50
0.0
 51
65.0
  0
LINE
  5
65
330
1F
100
AcDbEntity
  8
0
  6
Continuous
 62
     7
370
    15
100
AcDbLine
 10
75.8226183516
 20
76.7257471257
 30
0.0
 11
87.3726183516
 21
76.7257471257
 31
0.0
  0
ARC
  5
66
330
1F
100
AcDbEntity
  8
0
  6
Continuous
 62
     7
370
    15
100
AcDbCircle
 10
87.3726183516
 20
74.8257471257
 30
0.0
 40
1.900000000000007
100
AcDbArc
 50
35.6630613694
 51
90.0
  0
ARC
  5
67
330
1F
100
AcDbEntity
  8
0
  6
Continuous
 62
     7
370
    15
100
AcDbCircle
 10
82.3726183516
 20
143.1257471257
 30
0.0
 40
1.899999999999986
100
AcDbArc
 50
270.0
 51
310.9212832533
  0
LINE
  5
68
330
1F
100
AcDbEntity
  8
0
  6
Continuous
 62
     7
370
    15
100
AcDbLine
 10
75.8226183516
 20
141.2257471257
 30
0.0
 11
74.2233022327
 21
139.6264310068
 31
0.0
  0
LINE
  5
69
330
1F
100
AcDbEntity
  8
0
  6
Continuous
 62
     7
370
    15
100
AcDbLine
 10
74.2241396026
 20
78.3242258746
 30
0.0
 11
75.8226183516
 21
76.7257471257
 31
0.0
  0
LINE
  5
6A
330
1F
100
AcDbEntity
  8
0
  6
Continuous
 62
     7
370
    15
100
AcDbLine
 10
82.3726183516
 20
141.2257471257
 30
0.0
 11
75.8226183516
 21
141.2257471257
 31
0.0
  0
LINE
  5
6B
330
1F
100
AcDbEntity
  8
0
  6
Continuous
 62
     7
370
    15
100
AcDbLine
 10
224.0726183516
 20
98.4464231638
 30
0.0
 11
224.1375192872
 21
98.5666037098
 31
0.0
  0
LINE
  5
6C
330
1F
100
AcDbEntity
  8
0
  6
Continuous
 62
     7
370
    15
100
AcDbLine
 10
224.0786295636
 20
119.3865266336
 30
0.0
 11
224.0726183516
 21
119.3976579174
 31
0.0
  0
LINE
  5
6D
330
1F
100
AcDbEntity
  8
0
  6
Continuous
 62
     7
370
    15
100
AcDbLine
 10
199.4365968588
 20
112.2482775179
 30
0.0
 11
197.1705131509
 21
109.6281888498
 31
0.0
  0
LINE
  5
6E
330
1F
100
AcDbEntity
  8
0
  6
Continuous
 62
     7
370
    15
100
AcDbLine
 10
201.7086398443
 20
105.7032167335
 30
0.0
 11
198.3065346436
 21
106.3556584576
 31
0.0
  0
LINE
  5
6F
330
1F
100
AcDbEntity
  8
0
  6
Continuous
 62
     7
370
    15
100
AcDbLine
 10
201.7086398443
 20
105.7032167335
 30
0.0
 11
203.9747235523
 21
108.3233054015
 31
0.0
  0
LINE
  5
70
330
1F
100
AcDbEntity
  8
0
  6
Continuous
 62
     7
370
    15
100
AcDbLine
 10
202.8387020595
 20
111.5958357938
 30
0.0
 11
203.9747235523
 21
108.3233054015
 31
0.0
  0
ARC
  5
71
330
1F
100
AcDbEntity
  8
0
  6
Continuous
 62
     7
370
    15
100
AcDbCircle
 10
200.5726183516
 20
108.9757471257
 30
0.0
 40
6.000000000002247
100
AcDbArc
 50
349.1438596702
 51
111.9262314796
  0
ARC
  5
72
330
1F
100
AcDbEntity
  8
0
  6
Continuous
 62
     7
370
    15
100
AcDbCircle
 10
200.5726183516
 20
108.9757471257
 30
0.0
 40
6.000000000000003
100
AcDbArc
 50
248.1667758049
 51
349.1438596702
  0
LINE
  5
73
330
1F
100
AcDbEntity
  8
0
  6
Continuous
 62
     7
370
    15
100
AcDbLine
 10
202.8387020595
 20
111.5958357938
 30
0.0
 11
199.4365968588
 21
112.2482775179
 31
0.0
  0
LINE
  5
74
330
1F
100
AcDbEntity
  8
0
  6
Continuous
 62
     7
370
    15
100
AcDbLine
 10
198.3065346436
 20
106.3556584576
 30
0.0
 11
197.1705131509
 21
109.6281888498
 31
0.0
  0
LINE
  5
75
330
1F
100
AcDbEntity
  8
0
  6
Continuous
 62
     7
370
    15
100
AcDbLine
 10
142.1626183516
 20
62.6043588386
 30
0.0
 11
142.1626183516
 21
140.3257471257
 31
0.0
  0
SPLINE
  5
76
330
1F
100
AcDbEntity
  8
0
  6
Continuous
 62
     7
370
    15
100
AcDbSpline
210
0.0
220
0.0
230
1.0
 70
     8
 71
     3
 72
     8
 73
     4
 74
     0
 42
0.00000001
 43
0.00000001
 40
0.0
 40
0.0
 40
0.0
 40
0.0
 40
1.0
 40
1.0
 40
1.0
 40
1.0
 10
142.1626183515664
 20
62.60435883864929
 30
0.0
 10
141.7123918872885
 20
61.80290347602453
 30
0.0
 10
141.2616940600452
 20
61.00171346446386
 30
0.0
 10
140.8105893306449
 20
60.20075353264394
 30
0.0
  0
LINE
  5
77
330
1F
100
AcDbEntity
  8
0
  6
Continuous
 62
     7
370
    15
100
AcDbLine
 10
140.8105893306
 20
60.2007535326
 30
0.0
 11
140.8105893306
 21
140.3257471257
 31
0.0
  0
SPLINE
  5
78
330
1F
100
AcDbEntity
  8
0
  6
Continuous
 62
     7
370
    15
100
AcDbSpline
210
0.0
220
0.0
230
1.0
 70
    24
 71
     3
 72
     8
 73
     4
 74
     0
 42
0.00000001
 43
0.00000001
 40
0.0
 40
0.0
 40
0.0
 40
0.0
 40
1.0
 40
1.0
 40
1.0
 40
1.0
 10
140.8105893306449
 20
140.3257471256728
 30
0.0
 10
141.2673909029731
 20
140.3257471256728
 30
0.0
 10
141.7184054692124
 20
140.3257471256728
 30
0.0
 10
142.1626183515663
 20
140.3257471256728
 30
0.0
  0
LINE
  5
79
330
1F
100
AcDbEntity
  8
0
  6
Continuous
 62
     7
370
    15
100
AcDbLine
 10
129.0226183516
 20
140.3257471257
 30
0.0
 11
140.8105893306
 21
140.3257471257
 31
0.0
  0
LINE
  5
7A
330
1F
100
AcDbEntity
  8
0
  6
Continuous
 62
     7
370
    15
100
AcDbLine
 10
140.8105893306
 20
60.2007535326
 30
0.0
 11
139.0226183516
 21
60.2007535326
 31
0.0
  0
SPLINE
  5
7B
330
1F
100
AcDbEntity
  8
0
  6
Continuous
 62
     7
370
    15
100
AcDbSpline
210
0.0
220
0.0
230
1.0
 70
     8
 71
     3
 72
    30
 73
    26
 74
     0
 42
0.00000001
 43
0.00000001
 40
0.0
 40
0.0
 40
0.0
 40
0.0
 40
0.1250000000000002
 40
0.1250000000000002
 40
0.1875000000000003
 40
0.1875000000000003
 40
0.2500000000000004
 40
0.2500000000000004
 40
0.3750000000000001
 40
0.3750000000000001
 40
0.4374999999999998
 40
0.4374999999999998
 40
0.4999999999999996
 40
0.4999999999999996
 40
0.6249999999999996
 40
0.6249999999999996
 40
0.6874999999999997
 40
0.6874999999999997
 40
0.7499999999999997
 40
0.7499999999999997
 40
0.8124999999999998
 40
0.8124999999999998
 40
0.8749999999999999
 40
0.8749999999999999
 40
1.0
 40
1.0
 40
1.0
 40
1.0
 10
139.0226183515663
 20
60.20075353264394
 30
0.0
 10
138.3598736577213
 20
60.20075353264395
 30
0.0
 10
137.7086177986056
 20
60.18591345605514
 30
0.0
 10
136.7481672603473
 20
60.14354389182552
 30
0.0
 10
136.4307758171143
 20
60.12606578904635
 30
0.0
 10
135.8016123155595
 20
60.08473750249404
 30
0.0
 10
135.4894641291177
 20
60.06081222903634
 30
0.0
 10
134.5821568272695
 20
59.98200571256943
 30
0.0
 10
134.0087318696283
 20
59.91969969259297
 30
0.0
 10
133.1948550000536
 20
59.8165703723536
 30
0.0
 10
132.9300488034837
 20
59.78038645330709
 30
0.0
 10
132.4231413926694
 20
59.70659166910659
 30
0.0
 10
132.1817472413159
 20
59.66911781033495
 30
0.0
 10
131.4926057691836
 20
59.55640586699521
 30
0.0
 10
131.0795509543193
 20
59.48086976952143
 30
0.0
 10
130.5313961349443
 20
59.37247651250394
 30
0.0
 10
130.3619335275987
 20
59.33740428084067
 30
0.0
 10
130.0539162795833
 20
59.27116882024082
 30
0.0
 10
129.9145362589749
 20
59.23984212348611
 30
0.0
 10
129.6647507463482
 20
59.18143335190517
 30
0.0
 10
129.5543446336943
 20
59.15435011672232
 30
0.0
 10
129.3630867800566
 20
59.10509036210874
 30
0.0
 10
129.2819672617723
 20
59.08282838230109
 30
0.0
 10
129.0878203416638
 20
59.02526147513282
 30
0.0
 10
129.0226183515663
 20
58.99900187034682
 30
0.0
 10
129.0226183515663
 20
58.9857481258728
 30
0.0
  0
LINE
  5
7C
330
1F
100
AcDbEntity
  8
0
  6
Continuous
 62
     7
370
    15
100
AcDbLine
 10
129.0226183516
 20
58.9857481259
 30
0.0
 11
129.0226183516
 21
58.9757471257
 31
0.0
  0
SPLINE
  5
7D
330
1F
100
AcDbEntity
  8
0
  6
Continuous
 62
     7
370
    15
100
AcDbSpline
210
0.0
220
0.0
230
1.0
 70
     8
 71
     3
 72
    17
 73
    13
 74
     0
 42
0.00000001
 43
0.00000001
 40
0.0
 40
0.0
 40
0.0
 40
0.0
 40
0.104384384054747
 40
0.2118345768143993
 40
0.316208200519045
 40
0.4235375806108392
 40
0.5292276236193852
 40
0.6379275864803491
 40
0.7444714844189683
 40
0.8541836219421859
 40
0.9593080534965217
 40
1.0
 40
1.0
 40
1.0
 40
1.0
 10
139.0226183515663
 20
157.9655419813363
 30
0.0
 10
138.474679903707
 20
157.9709101850851
 30
0.0
 10
137.3627098492422
 20
157.9818042587501
 30
0.0
 10
135.7498539360273
 20
158.0669816330089
 30
0.0
 10
134.2163407190504
 20
158.1933563393015
 30
0.0
 10
132.8253198697137
 20
158.3502591598783
 30
0.0
 10
131.5898033524834
 20
158.5219579893989
 30
0.0
 10
130.5664475853281
 20
158.6872942655
 30
0.0
 10
129.766105587063
 20
158.8310077450865
 30
0.0
 10
129.2557734851494
 20
158.9291625522657
 30
0.0
 10
129.0158650563249
 20
158.9770909491356
 30
0.0
 10
129.0477838357447
 20
158.970723549896
 30
0.0
 10
129.0566911840269
 20
158.9689466447727
 30
0.0
  0
LINE
  5
7E
330
1F
100
AcDbEntity
  8
0
  6
Continuous
 62
     7
370
    15
100
AcDbLine
 10
140.8105893306
 20
157.9655419813
 30
0.0
 11
139.0226183516
 21
157.9655419813
 31
0.0
  0
LINE
  5
7F
330
1F
100
AcDbEntity
  8
0
  6
Continuous
 62
     7
370
    15
100
AcDbLine
 10
140.8105893306
 20
147.9267098866
 30
0.0
 11
140.8105893306
 21
157.9655419813
 31
0.0
  0
LINE
  5
80
330
1F
100
AcDbEntity
  8
0
  6
Continuous
 62
     7
370
    15
100
AcDbLine
 10
138.7305851997
 20
147.9267098866
 30
0.0
 11
140.8105893306
 21
147.9267098866
 31
0.0
  0
SPLINE
  5
81
330
1F
100
AcDbEntity
  8
0
  6
Continuous
 62
     7
370
    15
100
AcDbSpline
210
0.0
220
0.0
230
1.0
 70
     8
 71
     3
 72
    22
 73
    18
 74
     0
 42
0.00000001
 43
0.00000001
 40
0.0
 40
0.0
 40
0.0
 40
0.0
 40
0.2500000000000002
 40
0.2500000000000002
 40
0.3750000000000003
 40
0.3750000000000003
 40
0.5000000000000004
 40
0.5000000000000004
 40
0.6250000000000004
 40
0.6250000000000004
 40
0.7500000000000004
 40
0.7500000000000004
 40
0.8750000000000004
 40
0.8750000000000004
 40
0.9375000000000002
 40
0.9375000000000002
 40
1.0
 40
1.0
 40
1.0
 40
1.0
 10
129.0226183515663
 20
140.3257471256728
 30
0.0
 10
129.2253433074854
 20
141.3449934675374
 30
0.0
 10
129.5400870292808
 20
142.3041016174767
 30
0.0
 10
130.2481424989518
 20
143.6465806949859
 30
0.0
 10
130.5266051291694
 20
144.080789277726
 30
0.0
 10
131.1653725358066
 20
144.8924169932281
 30
0.0
 10
131.5257862155968
 20
145.2716972861649
 30
0.0
 10
132.3433184475861
 20
145.9746558651859
 30
0.0
 10
132.8044864308732
 20
146.2996846828865
 30
0.0
 10
133.802476677357
 20
146.8647000062774
 30
0.0
 10
134.3422358713493
 20
147.1084036004839
 30
0.0
 10
135.5168288353806
 20
147.5126035281289
 30
0.0
 10
136.1285650213725
 20
147.6650407211744
 30
0.0
 10
137.0804742462342
 20
147.8203682687831
 30
0.0
 10
137.4037074104949
 20
147.8598730488331
 30
0.0
 10
138.0627705817701
 20
147.9131821695018
 30
0.0
 10
138.3968345923441
 20
147.9267098865597
 30
0.0
 10
138.7305851997456
 20
147.9267098865597
 30
0.0
  0
SPLINE
  5
82
330
1F
100
AcDbEntity
  8
0
  6
Continuous
 62
     7
370
    15
100
AcDbSpline
210
0.0
220
0.0
230
1.0
 70
     8
 71
     3
 72
    80
 73
    76
 74
     0
 42
0.00000001
 43
0.00000001
 40
-0.0312499999999993
 40
-0.0312499999999993
 40
0.0
 40
0.0
 40
0.03125
 40
0.03125
 40
0.046875
 40
0.046875
 40
0.0625
 40
0.0625
 40
0.09375
 40
0.09375
 40
0.1250000000000001
 40
0.1250000000000001
 40
0.1562500000000001
 40
0.1562500000000001
 40
0.1875000000000001
 40
0.1875000000000001
 40
0.2187500000000002
 40
0.2187500000000002
 40
0.2500000000000002
 40
0.2500000000000002
 40
0.2812500000000003
 40
0.2812500000000003
 40
0.3125000000000003
 40
0.3125000000000003
 40
0.3281250000000004
 40
0.3281250000000004
 40
0.3437500000000006
 40
0.3437500000000006
 40
0.3750000000000011
 40
0.3750000000000011
 40
0.4062500000000016
 40
0.4062500000000016
 40
0.4218750000000018
 40
0.4218750000000018
 40
0.437500000000002
 40
0.437500000000002
 40
0.4687500000000023
 40
0.4687500000000023
 40
0.5000000000000027
 40
0.5000000000000027
 40
0.531250000000003
 40
0.531250000000003
 40
0.5625000000000033
 40
0.5625000000000033
 40
0.5937500000000037
 40
0.5937500000000037
 40
0.6250000000000039
 40
0.6250000000000039
 40
0.6562500000000042
 40
0.6562500000000042
 40
0.6875000000000046
 40
0.6875000000000046
 40
0.7031250000000047
 40
0.7031250000000047
 40
0.7187500000000048
 40
0.7187500000000048
 40
0.7500000000000048
 40
0.7500000000000048
 40
0.7812500000000048
 40
0.7812500000000048
 40
0.7968750000000044
 40
0.7968750000000044
 40
0.8125000000000041
 40
0.8125000000000041
 40
0.8437500000000034
 40
0.8437500000000034
 40
0.8750000000000027
 40
0.8750000000000027
 40
0.906250000000002
 40
0.906250000000002
 40
0.9375000000000013
 40
0.9375000000000013
 40
0.9687500000000007
 40
0.9687500000000007
 40
1.0
 40
1.0
 40
1.03125
 40
1.03125
 10
133.4031636643426
 20
152.3903765893041
 30
0.0
 10
132.74207303879
 20
152.390376589304
 30
0.0
 10
132.4170929095384
 20
152.4065848206862
 30
0.0
 10
131.937619498292
 20
152.4539494527058
 30
0.0
 10
131.7791376804512
 20
152.4736036645964
 30
0.0
 10
131.4649181479469
 20
152.520714820789
 30
0.0
 10
131.3087978642665
 20
152.5482961402838
 30
0.0
 10
130.8547438353099
 20
152.6408319270775
 30
0.0
 10
130.5676404523701
 20
152.7159023606741
 30
0.0
 10
130.024285896343
 20
152.8911406692846
 30
0.0
 10
129.7671822851375
 20
152.9921419671229
 30
0.0
 10
129.3062760301987
 20
153.2094981655838
 30
0.0
 10
129.0993783209837
 20
153.326662497356
 30
0.0
 10
128.7338530069915
 20
153.5767324215846
 30
0.0
 10
128.5786474848655
 20
153.7076785103436
 30
0.0
 10
128.3292170982658
 20
153.973413454056
 30
0.0
 10
128.2331271424807
 20
154.1101670473669
 30
0.0
 10
128.1046082932871
 20
154.3842326222059
 30
0.0
 10
128.0727974231093
 20
154.5191727126748
 30
0.0
 10
128.072440773336
 20
154.7846443497435
 30
0.0
 10
128.1049380255331
 20
154.9164688268848
 30
0.0
 10
128.2325634992476
 20
155.1659184265052
 30
0.0
 10
128.3269919002995
 20
155.2843511184332
 30
0.0
 10
128.514852720285
 20
155.4532203155273
 30
0.0
 10
128.5856807190882
 20
155.5083063106474
 30
0.0
 10
128.7404026110535
 20
155.6135591391358
 30
0.0
 10
128.8243790812369
 20
155.6638943678962
 30
0.0
 10
129.0957027508813
 20
155.8084702004342
 30
0.0
 10
129.3022519694837
 20
155.8963317868512
 30
0.0
 10
129.7688621096727
 20
156.0560528798508
 30
0.0
 10
130.0212276792981
 20
156.125291176318
 30
0.0
 10
130.4271290209769
 20
156.2150785655477
 30
0.0
 10
130.5670296384544
 20
156.242644527634
 30
0.0
 10
130.8562535737013
 20
156.2931353285603
 30
0.0
 10
131.0060930299906
 20
156.316098767411
 30
0.0
 10
131.4602095996013
 20
156.3767292838298
 30
0.0
 10
131.7718608183382
 20
156.4068033126257
 30
0.0
 10
132.4128572832506
 20
156.4473928998843
 30
0.0
 10
132.7443849112028
 20
156.4577051301004
 30
0.0
 10
133.3971759562742
 20
156.4577806972661
 30
0.0
 10
133.7217121613061
 20
156.4478790917984
 30
0.0
 10
134.3669816107225
 20
156.4073925612732
 30
0.0
 10
134.6827246168852
 20
156.3769312613884
 30
0.0
 10
135.2846139118689
 20
156.2967805899519
 30
0.0
 10
135.5753631426804
 20
156.2464983581447
 30
0.0
 10
136.1222749343649
 20
156.1258281753717
 30
0.0
 10
136.3740522982018
 20
156.0566043162017
 30
0.0
 10
136.8354402908229
 20
155.899152588561
 30
0.0
 10
137.046709570421
 20
155.8098041138873
 30
0.0
 10
137.4100139227972
 20
155.6165562431865
 30
0.0
 10
137.56382057124
 20
155.5124282513072
 30
0.0
 10
137.7524400408374
 20
155.3438038651238
 30
0.0
 10
137.8084705270465
 20
155.2851754634488
 30
0.0
 10
137.9040442887827
 20
155.1657205486226
 30
0.0
 10
137.9438072058077
 20
155.1048007597844
 30
0.0
 10
138.0395789561198
 20
154.9183960336105
 30
0.0
 10
138.0723017952459
 20
154.7892832158155
 30
0.0
 10
138.072930381575
 20
154.5206262928596
 30
0.0
 10
138.0407442368402
 20
154.3852555521028
 30
0.0
 10
137.9458335349846
 20
154.1817052438668
 30
0.0
 10
137.9063667515857
 20
154.1137333198034
 30
0.0
 10
137.8114367528648
 20
153.9776410966725
 30
0.0
 10
137.7556799251014
 20
153.9092909964631
 30
0.0
 10
137.5677398071315
 20
153.708587983421
 30
0.0
 10
137.4143783374154
 20
153.5791997096082
 30
0.0
 10
137.052114102535
 20
153.3305342775584
 30
0.0
 10
136.8412656290691
 20
153.2107246351902
 30
0.0
 10
136.3805956587502
 20
152.9932023476175
 30
0.0
 10
136.1292212791664
 20
152.8941172477816
 30
0.0
 10
135.5833133922682
 20
152.7174447738648
 30
0.0
 10
135.292490817617
 20
152.6413876857308
 30
0.0
 10
134.691164202837
 20
152.5185427083778
 30
0.0
 10
134.3766456182246
 20
152.4708365833247
 30
0.0
 10
133.7300641621046
 20
152.406588048205
 30
0.0
 10
133.4031636643426
 20
152.3903765893041
 30
0.0
 10
132.74207303879
 20
152.390376589304
 30
0.0
  0
LINE
  5
83
330
1F
100
AcDbEntity
  8
0
  6
Continuous
 62
     7
370
    15
100
AcDbLine
 10
124.0726183516
 20
59.4757471257
 30
0.0
 11
124.0726183516
 21
158.475747121
 31
0.0
  0
LINE
  5
84
330
1F
100
AcDbEntity
  8
0
  6
Continuous
 62
     7
370
    15
100
AcDbLine
 10
147.3346473725
 20
60.2007535326
 30
0.0
 11
147.3346473725
 21
140.3257471257
 31
0.0
  0
SPLINE
  5
85
330
1F
100
AcDbEntity
  8
0
  6
Continuous
 62
     7
370
    15
100
AcDbSpline
210
0.0
220
0.0
230
1.0
 70
     8
 71
     3
 72
     8
 73
     4
 74
     0
 42
0.00000001
 43
0.00000001
 40
0.0
 40
0.0
 40
0.0
 40
0.0
 40
1.0
 40
1.0
 40
1.0
 40
1.0
 10
147.3346473724877
 20
60.20075353264394
 30
0.0
 10
146.8835426430875
 20
61.00171346446386
 30
0.0
 10
146.4328448158441
 20
61.80290347602453
 30
0.0
 10
145.9826183515663
 20
62.60435883864929
 30
0.0
  0
LINE
  5
86
330
1F
100
AcDbEntity
  8
0
  6
Continuous
 62
     7
370
    15
100
AcDbLine
 10
145.9826183516
 20
62.6043588386
 30
0.0
 11
145.9826183516
 21
140.3257471257
 31
0.0
  0
SPLINE
  5
87
330
1F
100
AcDbEntity
  8
0
  6
Continuous
 62
     7
370
    15
100
AcDbSpline
210
0.0
220
0.0
230
1.0
 70
    24
 71
     3
 72
     8
 73
     4
 74
     0
 42
0.00000001
 43
0.00000001
 40
0.0
 40
0.0
 40
0.0
 40
0.0
 40
1.0
 40
1.0
 40
1.0
 40
1.0
 10
145.9826183515663
 20
140.3257471256728
 30
0.0
 10
146.4268312339203
 20
140.3257471256728
 30
0.0
 10
146.8778458001595
 20
140.3257471256728
 30
0.0
 10
147.3346473724877
 20
140.3257471256728
 30
0.0
  0
LINE
  5
88
330
1F
100
AcDbEntity
  8
0
  6
Continuous
 62
     7
370
    15
100
AcDbLine
 10
153.0226183516
 20
61.2264015804
 30
0.0
 11
153.0226183516
 21
140.3257471257
 31
0.0
  0
SPLINE
  5
89
330
1F
100
AcDbEntity
  8
0
  6
Continuous
 62
     7
370
    15
100
AcDbSpline
210
0.0
220
0.0
230
1.0
 70
     8
 71
     3
 72
    14
 73
    10
 74
     0
 42
0.00000001
 43
0.00000001
 40
0.0
 40
0.0
 40
0.0
 40
0.0
 40
0.25
 40
0.25
 40
0.5
 40
0.5
 40
0.75
 40
0.75
 40
1.0
 40
1.0
 40
1.0
 40
1.0
 10
153.0226183515663
 20
61.22640158041946
 30
0.0
 10
153.0226183515663
 20
61.09297588436492
 30
0.0
 10
152.9973072516555
 20
60.96112807652057
 30
0.0
 10
152.8989724878107
 20
60.71460552782646
 30
0.0
 10
152.8258284835546
 20
60.60080033958592
 30
0.0
 10
152.642390422459
 20
60.41034316263865
 30
0.0
 10
152.5307040881204
 20
60.33270829878873
 30
0.0
 10
152.2882006578141
 20
60.22841688867626
 30
0.0
 10
152.1548262291199
 20
60.2007535326439
 30
0.0
 10
152.0226183515663
 20
60.20075353264391
 30
0.0
  0
SPLINE
  5
8A
330
1F
100
AcDbEntity
  8
0
  6
Continuous
 62
     7
370
    15
100
AcDbSpline
210
0.0
220
0.0
230
1.0
 70
    24
 71
     3
 72
    12
 73
     8
 74
     0
 42
0.00000001
 43
0.00000001
 40
0.0
 40
0.0
 40
0.0
 40
0.0
 40
0.2500000000000032
 40
0.2500000000000032
 40
0.5000000000000064
 40
0.5000000000000064
 40
1.0
 40
1.0
 40
1.0
 40
1.0
 10
152.0226183515663
 20
140.3257471256728
 30
0.0
 10
152.1747085885113
 20
140.3257471256728
 30
0.0
 10
152.3231678495868
 20
140.3257471256728
 30
0.0
 10
152.5805714818524
 20
140.3257471256728
 30
0.0
 10
152.6896762296944
 20
140.3257471256728
 30
0.0
 10
152.9437357061019
 20
140.3257471256728
 30
0.0
 10
153.0226183515663
 20
140.3257471256728
 30
0.0
 10
153.0226183515663
 20
140.3257471256728
 30
0.0
  0
LINE
  5
8B
330
1F
100
AcDbEntity
  8
0
  6
Continuous
 62
     7
370
    15
100
AcDbLine
 10
152.0226183516
 20
60.2007535326
 30
0.0
 11
147.3346473725
 21
60.2007535326
 31
0.0
  0
LINE
  5
8C
330
1F
100
AcDbEntity
  8
0
  6
Continuous
 62
     7
370
    15
100
AcDbLine
 10
147.3346473725
 20
140.3257471257
 30
0.0
 11
152.0226183516
 21
140.3257471257
 31
0.0
  0
SPLINE
  5
8D
330
1F
100
AcDbEntity
  8
0
  6
Continuous
 62
     7
370
    15
100
AcDbSpline
210
0.0
220
0.0
230
1.0
 70
     8
 71
     3
 72
    14
 73
    10
 74
     0
 42
0.00000001
 43
0.00000001
 40
0.0
 40
0.0
 40
0.0
 40
0.0
 40
0.25
 40
0.25
 40
0.5
 40
0.5
 40
0.75
 40
0.75
 40
1.0
 40
1.0
 40
1.0
 40
1.0
 10
145.9826183515663
 20
63.51256834327787
 30
0.0
 10
145.9826183515663
 20
63.61961242427225
 30
0.0
 10
145.9625006644082
 20
63.72484756451469
 30
0.0
 10
145.8840094751425
 20
63.92269805136239
 30
0.0
 10
145.8258528503413
 20
64.0137498149273
 30
0.0
 10
145.6793375947233
 20
64.16691590885208
 30
0.0
 10
145.5906950460822
 20
64.22921035506148
 30
0.0
 10
145.3949717232819
 20
64.31400414059749
 30
0.0
 10
145.2897405322109
 20
64.3360716676231
 30
0.0
 10
145.1826183515663
 20
64.33607166762312
 30
0.0
  0
SPLINE
  5
8E
330
1F
100
AcDbEntity
  8
0
  6
Continuous
 62
     7
370
    15
100
AcDbSpline
210
0.0
220
0.0
230
1.0
 70
    24
 71
     3
 72
    14
 73
    10
 74
     0
 42
0.00000001
 43
0.00000001
 40
0.0
 40
0.0
 40
0.0
 40
0.0
 40
0.25
 40
0.25
 40
0.5
 40
0.5
 40
0.75
 40
0.75
 40
1.0
 40
1.0
 40
1.0
 40
1.0
 10
145.1826183515663
 20
140.3257471256728
 30
0.0
 10
145.3063881163314
 20
140.3257471256728
 30
0.0
 10
145.4307552203383
 20
140.3257471256728
 30
0.0
 10
145.6371116890644
 20
140.3257471256728
 30
0.0
 10
145.7224398324828
 20
140.3257471256728
 30
0.0
 10
145.854631891198
 20
140.3257471256728
 30
0.0
 10
145.9032771349486
 20
140.3257471256728
 30
0.0
 10
145.9668129266773
 20
140.3257471256728
 30
0.0
 10
145.9826183515663
 20
140.3257471256728
 30
0.0
 10
145.9826183515663
 20
140.3257471256728
 30
0.0
  0
SPLINE
  5
8F
330
1F
100
AcDbEntity
  8
0
  6
Continuous
 62
     7
370
    15
100
AcDbSpline
210
0.0
220
0.0
230
1.0
 70
     8
 71
     3
 72
    12
 73
     8
 74
     0
 42
0.00000001
 43
0.00000001
 40
0.0
 40
0.0
 40
0.0
 40
0.0
 40
0.25
 40
0.25
 40
0.5
 40
0.5
 40
1.0
 40
1.0
 40
1.0
 40
1.0
 10
142.9626183515663
 20
64.33607166762312
 30
0.0
 10
142.8568576982174
 20
64.33607166762309
 30
0.0
 10
142.7488700700345
 20
64.31353216162269
 30
0.0
 10
142.5542754047689
 20
64.2289615296274
 30
0.0
 10
142.46540349193
 20
64.1664798768686
 30
0.0
 10
142.2462111996041
 20
63.93709092539644
 30
0.0
 10
142.1626183515663
 20
63.72450758787406
 30
0.0
 10
142.1626183515663
 20
63.51256834327787
 30
0.0
  0
SPLINE
  5
90
330
1F
100
AcDbEntity
  8
0
  6
Continuous
 62
     7
370
    15
100
AcDbSpline
210
0.0
220
0.0
230
1.0
 70
    24
 71
     3
 72
    14
 73
    10
 74
     0
 42
0.00000001
 43
0.00000001
 40
0.0
 40
0.0
 40
0.0
 40
0.0
 40
0.25
 40
0.25
 40
0.5
 40
0.5
 40
0.75
 40
0.75
 40
1.0
 40
1.0
 40
1.0
 40
1.0
 10
142.1626183515663
 20
140.3257471256728
 30
0.0
 10
142.1626183515663
 20
140.3257471256728
 30
0.0
 10
142.1783326720322
 20
140.3257471256728
 30
0.0
 10
142.2420166505007
 20
140.3257471256728
 30
0.0
 10
142.2906198449111
 20
140.3257471256728
 30
0.0
 10
142.4233033673367
 20
140.3257471256728
 30
0.0
 10
142.5084054716473
 20
140.3257471256728
 30
0.0
 10
142.7148477065574
 20
140.3257471256728
 30
0.0
 10
142.8389286481804
 20
140.3257471256728
 30
0.0
 10
142.9626183515663
 20
140.3257471256728
 30
0.0
  0
LINE
  5
91
330
1F
100
AcDbEntity
  8
0
  6
Continuous
 62
     7
370
    15
100
AcDbLine
 10
145.1826183516
 20
64.3360716676
 30
0.0
 11
142.9626183516
 21
64.3360716676
 31
0.0
  0
LINE
  5
92
330
1F
100
AcDbEntity
  8
0
  6
Continuous
 62
     7
370
    15
100
AcDbLine
 10
142.9626183516
 20
140.3257471257
 30
0.0
 11
145.1826183516
 21
140.3257471257
 31
0.0
  0
LINE
  5
93
330
1F
100
AcDbEntity
  8
0
  6
Continuous
 62
     7
370
    15
100
AcDbLine
 10
121.5726183516
 20
71.0934956227
 30
0.0
 11
121.5726183516
 21
146.8579986287
 31
0.0
  0
LINE
  5
94
330
1F
100
AcDbEntity
  8
0
  6
Continuous
 62
     7
370
    15
100
AcDbLine
 10
89.2726183516
 20
72.7117320956
 30
0.0
 11
89.2726183516
 21
75.1064138603
 31
0.0
  0
SPLINE
  5
95
330
1F
100
AcDbEntity
  8
0
  6
Continuous
 62
     7
370
    15
100
AcDbSpline
210
0.0
220
0.0
230
1.0
 70
     8
 71
     3
 72
    14
 73
    10
 74
     0
 42
0.00000001
 43
0.00000001
 40
0.0
 40
0.0
 40
0.0
 40
0.0
 40
0.25
 40
0.25
 40
0.5
 40
0.5
 40
0.75
 40
0.75
 40
1.0
 40
1.0
 40
1.0
 40
1.0
 10
88.26819588022937
 20
76.80926578192923
 30
0.0
 10
88.35696445817469
 20
76.65073165062128
 30
0.0
 10
88.4786822968536
 20
76.49828897373271
 30
0.0
 10
88.71373190671044
 20
76.20115434990379
 30
0.0
 10
88.82936209292733
 20
76.05647170628643
 30
0.0
 10
89.02976702635515
 20
75.77318250378302
 30
0.0
 10
89.11516731833946
 20
75.63462851074618
 30
0.0
 10
89.2368729520567
 20
75.36324448071264
 30
0.0
 10
89.27261835156934
 20
75.23110861207802
 30
0.0
 10
89.27261835156932
 20
75.10641386030726
 30
0.0
  0
SPLINE
  5
96
330
1F
100
AcDbEntity
  8
0
  6
Continuous
 62
     7
370
    15
100
AcDbSpline
210
0.0
220
0.0
230
1.0
 70
     8
 71
     3
 72
    14
 73
    10
 74
     0
 42
0.00000001
 43
0.00000001
 40
0.0
 40
0.0
 40
0.0
 40
0.0
 40
0.124999999999999
 40
0.124999999999999
 40
0.249999999999998
 40
0.249999999999998
 40
0.5000000000000007
 40
0.5000000000000007
 40
1.0
 40
1.0
 40
1.0
 40
1.0
 10
87.37261835156632
 20
77.43809572102933
 30
0.0
 10
87.44020065135082
 20
77.44525160613073
 30
0.0
 10
87.51268822909871
 20
77.44082713609171
 30
0.0
 10
87.64497933836465
 20
77.41112097832136
 30
0.0
 10
87.70225671775484
 20
77.38783669674314
 30
0.0
 10
87.8519071449551
 20
77.31035145689282
 30
0.0
 10
87.9256204404766
 20
77.24849962999144
 30
0.0
 10
88.11342842380284
 20
77.06382217734313
 30
0.0
 10
88.1974687301643
 20
76.93557925405192
 30
0.0
 10
88.26819588023058
 20
76.80926578192933
 30
0.0
  0
SPLINE
  5
97
330
1F
100
AcDbEntity
  8
0
  6
Continuous
 62
     7
370
    15
100
AcDbSpline
210
0.0
220
0.0
230
1.0
 70
     8
 71
     3
 72
     8
 73
     4
 74
     0
 42
0.00000001
 43
0.00000001
 40
0.0
 40
0.0
 40
0.0
 40
0.0
 40
1.0
 40
1.0
 40
1.0
 40
1.0
 10
83.82797796348554
 20
77.02004713623755
 30
0.0
 10
84.99327627419441
 20
77.17523460812417
 30
0.0
 10
86.17789148823422
 20
77.3115932464345
 30
0.0
 10
87.37261835156632
 20
77.43809572102933
 30
0.0
  0
SPLINE
  5
98
330
1F
100
AcDbEntity
  8
0
  6
Continuous
 62
     7
370
    15
100
AcDbSpline
210
0.0
220
0.0
230
1.0
 70
     8
 71
     3
 72
    14
 73
    10
 74
     0
 42
0.00000001
 43
0.00000001
 40
0.0
 40
0.0
 40
0.0
 40
0.0
 40
0.4999999999999972
 40
0.4999999999999972
 40
0.7499999999999971
 40
0.7499999999999971
 40
0.8749999999999986
 40
0.8749999999999986
 40
1.0
 40
1.0
 40
1.0
 40
1.0
 10
76.07254346753763
 20
76.72991495710762
 30
0.0
 10
77.38084503007137
 20
76.73692968084875
 30
0.0
 10
78.68590440472818
 20
76.75233825729325
 30
0.0
 10
80.6317804562165
 20
76.80623481275991
 30
0.0
 10
81.27847795995551
 20
76.8292663773626
 30
0.0
 10
82.24232032380985
 20
76.88020890223336
 30
0.0
 10
82.56255901574393
 20
76.89994382446655
 30
0.0
 10
83.19925424208634
 20
76.94943095293813
 30
0.0
 10
83.51596965036926
 20
76.97849573186735
 30
0.0
 10
83.82797796348557
 20
77.02004713623751
 30
0.0
  0
SPLINE
  5
99
330
1F
100
AcDbEntity
  8
0
  6
Continuous
 62
     7
370
    15
100
AcDbSpline
210
0.0
220
0.0
230
1.0
 70
     8
 71
     3
 72
    12
 73
     8
 74
     0
 42
0.00000001
 43
0.00000001
 40
0.0
 40
0.0
 40
0.0
 40
0.0
 40
0.2500000000000009
 40
0.2500000000000009
 40
0.5000000000000018
 40
0.5000000000000018
 40
1.0
 40
1.0
 40
1.0
 40
1.0
 10
82.37261835156633
 20
141.0622700171692
 30
0.0
 10
81.85391952973814
 20
141.0947927920174
 30
0.0
 10
81.33220795653315
 20
141.1180895331879
 30
0.0
 10
80.28591594003755
 20
141.15593504761
 30
0.0
 10
79.7612443143673
 20
141.1702035221061
 30
0.0
 10
78.18439829182807
 20
141.2044130095644
 30
0.0
 10
77.12944297728116
 20
141.2159125135084
 30
0.0
 10
76.07254346753594
 20
141.2215792942379
 30
0.0
  0
SPLINE
  5
9A
330
1F
100
AcDbEntity
  8
0
  6
Continuous
 62
     7
370
    15
100
AcDbSpline
210
0.0
220
0.0
230
1.0
 70
     8
 71
     3
 72
    20
 73
    16
 74
     0
 42
0.00000001
 43
0.00000001
 40
0.0
 40
0.0
 40
0.0
 40
0.0
 40
0.2500000000000011
 40
0.2500000000000011
 40
0.5000000000000021
 40
0.5000000000000021
 40
0.7500000000000031
 40
0.7500000000000031
 40
0.8750000000000008
 40
0.8750000000000008
 40
0.9375000000000006
 40
0.9375000000000006
 40
0.9687500000000003
 40
0.9687500000000003
 40
1.0
 40
1.0
 40
1.0
 40
1.0
 10
84.27261835156632
 20
142.7203558626573
 30
0.0
 10
84.27261835156632
 20
142.5846735429105
 30
0.0
 10
84.2239065623497
 20
142.4435865567705
 30
0.0
 10
84.0547451391245
 20
142.1515148380399
 30
0.0
 10
83.9329647252062
 20
141.9998660959495
 30
0.0
 10
83.63541763045667
 20
141.6974576557964
 30
0.0
 10
83.46150502475392
 20
141.5448690196731
 30
0.0
 10
83.14209019087208
 20
141.3195982558308
 30
0.0
 10
83.02704941542483
 20
141.2448751613201
 30
0.0
 10
82.8199650914084
 20
141.1454647520631
 30
0.0
 10
82.74385725660203
 20
141.1138996597185
 30
0.0
 10
82.61246271704867
 20
141.0794562755255
 30
0.0
 10
82.5659094980472
 20
141.0704047037579
 30
0.0
 10
82.4695761469665
 20
141.0602290549194
 30
0.0
 10
82.42031672361105
 20
141.0592792962444
 30
0.0
 10
82.37261835156434
 20
141.062270017159
 30
0.0
  0
LINE
  5
9B
330
1F
100
AcDbEntity
  8
0
  6
Continuous
 62
     7
370
    15
100
AcDbLine
 10
84.2726183516
 20
142.7203558627
 30
0.0
 11
84.2726183516
 21
144.9892611537
 31
0.0
  0
SPLINE
  5
9C
330
1F
100
AcDbEntity
  8
0
  6
Continuous
 62
     7
370
    15
100
AcDbSpline
210
0.0
220
0.0
230
1.0
 70
     8
 71
     3
 72
    24
 73
    20
 74
     0
 42
0.00000001
 43
0.00000001
 40
0.0
 40
0.0
 40
0.0
 40
0.0
 40
0.0002934293894791
 40
0.062808005175641
 40
0.1260453927228619
 40
0.18907467666103
 40
0.2513200540860133
 40
0.3133304633786588
 40
0.3759158453762907
 40
0.4383740564599686
 40
0.5000631094857209
 40
0.5616593988040849
 40
0.6245050380644152
 40
0.6872231506510951
 40
0.7494953263230465
 40
0.8117583797535242
 40
0.8747365508229858
 40
0.9378980306234599
 40
1.0
 40
1.0
 40
1.0
 40
1.0
 10
102.5925746154058
 20
72.0445018673604
 30
0.0
 10
102.592379762521
 20
72.0444775599664
 30
0.0
 10
102.5506718715098
 20
72.0392746083122
 30
0.0
 10
102.6957902630403
 20
72.0579092316427
 30
0.0
 10
103.0508692045795
 20
72.10042901019142
 30
0.0
 10
103.6554448421227
 20
72.16856529379326
 30
0.0
 10
104.4618801509389
 20
72.24182083080913
 30
0.0
 10
105.4473575748578
 20
72.30634017162701
 30
0.0
 10
106.5790271715374
 20
72.34490439968809
 30
0.0
 10
107.8013196416996
 20
72.34859890568949
 30
0.0
 10
109.0686483231515
 20
72.30617292564051
 30
0.0
 10
110.335133853578
 20
72.21792578485953
 30
0.0
 10
111.5512712173979
 20
72.08953251459285
 30
0.0
 10
112.6766817132387
 20
71.93689152600032
 30
0.0
 10
113.6540987747927
 20
71.775116910896
 30
0.0
 10
114.4573642533352
 20
71.62258801779511
 30
0.0
 10
115.0458577763364
 20
71.49857427452771
 30
0.0
 10
115.4347638879885
 20
71.41365034825142
 30
0.0
 10
115.4815250187265
 20
71.40292403697262
 30
0.0
 10
115.5047078252689
 20
71.39760624428104
 30
0.0
  0
SPLINE
  5
9D
330
1F
100
AcDbEntity
  8
0
  6
Continuous
 62
     7
370
    15
100
AcDbSpline
210
0.0
220
0.0
230
1.0
 70
     8
 71
     3
 72
    41
 73
    37
 74
     0
 42
0.00000001
 43
0.00000001
 40
0.0
 40
0.0
 40
0.0
 40
0.0
 40
0.0619930061482746
 40
0.1254347783466151
 40
0.1886508898234768
 40
0.2510246408607227
 40
0.3131658188976554
 40
0.3756581641417402
 40
0.4382227146727798
 40
0.4998044922940677
 40
0.56151641971787
 40
0.6240683094121985
 40
0.686725723240935
 40
0.7488365305144522
 40
0.8110685944253986
 40
0.8741742884451361
 40
0.9373212787645211
 40
0.9685511709617411
 40
0.9842086872487193
 40
0.9920641182531791
 40
0.996000486125535
 40
0.9979710794120144
 40
0.9989570090489596
 40
0.9994501359395065
 40
0.9996967403802177
 40
0.9998200529090742
 40
0.9998817117580818
 40
0.999912541829664
 40
0.9999279570273361
 40
0.9999356646666602
 40
0.9999395184964466
 40
0.9999414454138695
 40
0.9999424088732151
 40
0.9999433723329806
 40
0.9999501697010513
 40
1.0
 40
1.0
 40
1.0
 40
1.0
 10
115.5045864947909
 20
146.553842989113
 30
0.0
 10
115.4810148494473
 20
146.5485335094631
 30
0.0
 10
115.4333206934022
 20
146.5377904685236
 30
0.0
 10
115.0412787039767
 20
146.4525613320681
 30
0.0
 10
114.4507646547065
 20
146.3279925534274
 30
0.0
 10
113.6467272086614
 20
146.1750456072755
 30
0.0
 10
112.6706518084799
 20
146.0132890533219
 30
0.0
 10
111.5488430731994
 20
145.8610562853897
 30
0.0
 10
110.3353121534121
 20
145.7332763441884
 30
0.0
 10
109.0704814470129
 20
145.6454277925058
 30
0.0
 10
107.8024384095702
 20
145.6030423086351
 30
0.0
 10
106.5789310518691
 20
145.6067781166068
 30
0.0
 10
105.4454325114551
 20
145.6453735870549
 30
0.0
 10
104.4593267004809
 20
145.709812958346
 30
0.0
 10
103.6506988916937
 20
145.7833227656272
 30
0.0
 10
103.0540801965845
 20
145.850636450439
 30
0.0
 10
102.7386889071264
 20
145.8886010017069
 30
0.0
 10
102.6286223383285
 20
145.9024000610388
 30
0.0
 10
102.6012029505142
 20
145.9058861349594
 30
0.0
 10
102.5942808996847
 20
145.9067653606528
 30
0.0
 10
102.5925126595013
 20
145.9069861352591
 30
0.0
 10
102.592052280328
 20
145.9070413379699
 30
0.0
 10
102.5919281216432
 20
145.9070550777569
 30
0.0
 10
102.59189256715
 20
145.9070584735879
 30
0.0
 10
102.5918814230799
 20
145.9070593019082
 30
0.0
 10
102.5918775098838
 20
145.907059498497
 30
0.0
 10
102.591875967679
 20
145.9070595424271
 30
0.0
 10
102.5918753006775
 20
145.9070595507338
 30
0.0
 10
102.5918749924997
 20
145.9070595515641
 30
0.0
 10
102.5918748457337
 20
145.9070595510189
 30
0.0
 10
102.5918747727812
 20
145.907059550689
 30
0.0
 10
102.5918747383888
 20
145.9070595502518
 30
0.0
 10
102.5918747161437
 20
145.9070595503403
 30
0.0
 10
102.5918746890342
 20
145.9070595475053
 30
0.0
 10
102.5918721694729
 20
145.9070598343604
 30
0.0
 10
102.5919082593909
 20
145.9070552142598
 30
0.0
 10
102.5919400172136
 20
145.9070511487383
 30
0.0
  0
SPLINE
  5
9E
330
1F
100
AcDbEntity
  8
0
  6
Continuous
 62
     7
370
    15
100
AcDbSpline
210
0.0
220
0.0
230
1.0
 70
     8
 71
     3
 72
    20
 73
    16
 74
     0
 42
0.00000001
 43
0.00000001
 40
0.0
 40
0.0
 40
0.0
 40
0.0
 40
0.249999999999986
 40
0.249999999999986
 40
0.3749999999999789
 40
0.3749999999999789
 40
0.4374999999999789
 40
0.4374999999999789
 40
0.4999999999999789
 40
0.4999999999999789
 40
0.6249999999999835
 40
0.6249999999999835
 40
0.7499999999999879
 40
0.7499999999999879
 40
1.0
 40
1.0
 40
1.0
 40
1.0
 10
74.46343258328234
 20
78.29726397297205
 30
0.0
 10
74.48970480049574
 20
78.31658191405451
 30
0.0
 10
74.52038494275058
 20
78.33097062515628
 30
0.0
 10
74.59185581313251
 20
78.32406626332028
 30
0.0
 10
74.61988285017685
 20
78.31690025997186
 30
0.0
 10
74.67496643967435
 20
78.28720123326826
 30
0.0
 10
74.69585776822677
 20
78.27372759070693
 30
0.0
 10
74.74106641567224
 20
78.23852932519091
 30
0.0
 10
74.7654706280678
 20
78.21662109646365
 30
0.0
 10
74.83680294611925
 20
78.1444962364681
 30
0.0
 10
74.87869973093953
 20
78.09215569551806
 30
0.0
 10
74.9502756897954
 20
77.9946723036173
 30
0.0
 10
74.98110367961269
 20
77.94791853373889
 30
0.0
 10
75.06420361244827
 20
77.81462531789977
 30
0.0
 10
75.10905851781857
 20
77.73198791998456
 30
0.0
 10
75.14917059327114
 20
77.65288102519378
 30
0.0
  0
SPLINE
  5
9F
330
1F
100
AcDbEntity
  8
0
  6
Continuous
 62
     7
370
    15
100
AcDbSpline
210
0.0
220
0.0
230
1.0
 70
     8
 71
     3
 72
    14
 73
    10
 74
     0
 42
0.00000001
 43
0.00000001
 40
0.0
 40
0.0
 40
0.0
 40
0.0
 40
0.25
 40
0.25
 40
0.5
 40
0.5
 40
0.75
 40
0.75
 40
1.0
 40
1.0
 40
1.0
 40
1.0
 10
74.17261835156633
 20
78.47307738310482
 30
0.0
 10
74.17261835156634
 20
78.43183045208048
 30
0.0
 10
74.18122806794759
 20
78.394923479798
 30
0.0
 10
74.21231424751792
 20
78.33402341989859
 30
0.0
 10
74.23470380100198
 20
78.3098425003589
 30
0.0
 10
74.2894477321781
 20
78.27587490947565
 30
0.0
 10
74.32189797176329
 20
78.26595482550745
 30
0.0
 10
74.39189948649135
 20
78.2646036166026
 30
0.0
 10
74.4301099866139
 20
78.27276189329876
 30
0.0
 10
74.46343258328699
 20
78.29726397296685
 30
0.0
  0
LINE
  5
A0
330
1F
100
AcDbEntity
  8
0
  6
Continuous
 62
     7
370
    15
100
AcDbLine
 10
74.1726183516
 20
78.4730773831
 30
0.0
 11
74.1726183516
 21
139.4784168682
 31
0.0
  0
SPLINE
  5
A1
330
1F
100
AcDbEntity
  8
0
  6
Continuous
 62
     7
370
    15
100
AcDbSpline
210
0.0
220
0.0
230
1.0
 70
     8
 71
     3
 72
     9
 73
     5
 74
     0
 42
0.00000001
 43
0.00000001
 40
0.0
 40
0.0
 40
0.0
 40
0.0
 40
0.0592950272321202
 40
1.0
 40
1.0
 40
1.0
 40
1.0
 10
74.46343258328697
 20
139.6542302783786
 30
0.0
 10
74.45854974182478
 20
139.6575231237721
 30
0.0
 10
74.37620149627844
 20
139.7130563707778
 30
0.0
 10
74.31006944579691
 20
139.6557669682653
 30
0.0
 10
74.2478586970496
 20
139.6018745424348
 30
0.0
  0
SPLINE
  5
A2
330
1F
100
AcDbEntity
  8
0
  6
Continuous
 62
     7
370
    15
100
AcDbSpline
210
0.0
220
0.0
230
1.0
 70
     8
 71
     3
 72
     8
 73
     4
 74
     0
 42
0.00000001
 43
0.00000001
 40
0.0
 40
0.0
 40
0.0
 40
0.0
 40
1.0
 40
1.0
 40
1.0
 40
1.0
 10
74.19625202050254
 20
139.5859963693104
 30
0.0
 10
74.1809029818665
 20
139.5554863143144
 30
0.0
 10
74.17261835156633
 20
139.5191747588021
 30
0.0
 10
74.17261835156633
 20
139.4784168682407
 30
0.0
  0
SPLINE
  5
A3
330
1F
100
AcDbEntity
  8
0
  6
Continuous
 62
     7
370
    15
100
AcDbSpline
210
0.0
220
0.0
230
1.0
 70
     8
 71
     3
 72
    20
 73
    16
 74
     0
 42
0.00000001
 43
0.00000001
 40
0.0
 40
0.0
 40
0.0
 40
0.0
 40
0.2500000000000037
 40
0.2500000000000037
 40
0.3750000000000055
 40
0.3750000000000055
 40
0.5000000000000073
 40
0.5000000000000073
 40
0.5625000000000057
 40
0.5625000000000057
 40
0.625000000000004
 40
0.625000000000004
 40
0.7500000000000027
 40
0.7500000000000027
 40
1.0
 40
1.0
 40
1.0
 40
1.0
 10
75.14917059326875
 20
140.2986132261509
 30
0.0
 10
75.10917437544492
 20
140.2197348195935
 30
0.0
 10
75.06406074760727
 20
140.136605172902
 30
0.0
 10
74.98080653324074
 20
140.003116508551
 30
0.0
 10
74.95058720462023
 20
139.9572514526691
 30
0.0
 10
74.87849896947881
 20
139.8590599002642
 30
0.0
 10
74.83658165206772
 20
139.8067500807406
 30
0.0
 10
74.76533104751626
 20
139.7347441780061
 30
0.0
 10
74.74109523513694
 20
139.7129739657045
 30
0.0
 10
74.69549704495229
 20
139.6774993073755
 30
0.0
 10
74.67469455535259
 20
139.6641291231979
 30
0.0
 10
74.61975355693346
 20
139.6345592110627
 30
0.0
 10
74.59168456884666
 20
139.6274326887607
 30
0.0
 10
74.52118173878382
 20
139.620558317278
 30
0.0
 10
74.48975765099294
 20
139.6348734763652
 30
0.0
 10
74.46343258328434
 20
139.6542302783758
 30
0.0
  0
SPLINE
  5
A4
330
1F
100
AcDbEntity
  8
0
  6
Continuous
 62
     7
370
    15
100
AcDbSpline
210
0.0
220
0.0
230
1.0
 70
     8
 71
     3
 72
    10
 73
     6
 74
     0
 42
0.00000001
 43
0.00000001
 40
0.0
 40
0.0
 40
0.0
 40
0.0
 40
0.4999999999999989
 40
0.4999999999999989
 40
1.0
 40
1.0
 40
1.0
 40
1.0
 10
75.82261835156633
 20
141.2240323274928
 30
0.0
 10
75.69773008081614
 20
141.0930360494213
 30
0.0
 10
75.57627996275569
 20
140.9493232127563
 30
0.0
 10
75.34669598779826
 20
140.638752920067
 30
0.0
 10
75.23642101240227
 20
140.470683847004
 30
0.0
 10
75.14917059326875
 20
140.2986132261509
 30
0.0
  0
SPLINE
  5
A5
330
1F
100
AcDbEntity
  8
0
  6
Continuous
 62
     7
370
    15
100
AcDbSpline
210
0.0
220
0.0
230
1.0
 70
     8
 71
     3
 72
     8
 73
     4
 74
     0
 42
0.00000001
 43
0.00000001
 40
0.0
 40
0.0
 40
0.0
 40
0.0
 40
1.0
 40
1.0
 40
1.0
 40
1.0
 10
76.07254346753206
 20
141.2215792942373
 30
0.0
 10
75.9855254376837
 20
141.2220458590244
 30
0.0
 10
75.90257141130377
 20
141.2230858786006
 30
0.0
 10
75.82261835156402
 20
141.2240323274928
 30
0.0
  0
SPLINE
  5
A6
330
1F
100
AcDbEntity
  8
0
  6
Continuous
 62
     7
370
    15
100
AcDbSpline
210
0.0
220
0.0
230
1.0
 70
     8
 71
     3
 72
     8
 73
     4
 74
     0
 42
0.00000001
 43
0.00000001
 40
0.0
 40
0.0
 40
0.0
 40
0.0
 40
1.0
 40
1.0
 40
1.0
 40
1.0
 10
75.82261835156402
 20
76.72746192385267
 30
0.0
 10
75.9025714113043
 20
76.72840837274494
 30
0.0
 10
75.98552543768477
 20
76.72944839232107
 30
0.0
 10
76.07254346753375
 20
76.72991495710814
 30
0.0
  0
SPLINE
  5
A7
330
1F
100
AcDbEntity
  8
0
  6
Continuous
 62
     7
370
    15
100
AcDbSpline
210
0.0
220
0.0
230
1.0
 70
     8
 71
     3
 72
    10
 73
     6
 74
     0
 42
0.00000001
 43
0.00000001
 40
0.0
 40
0.0
 40
0.0
 40
0.0
 40
0.4999999999999989
 40
0.4999999999999989
 40
1.0
 40
1.0
 40
1.0
 40
1.0
 10
75.14917059326783
 20
77.65288102519635
 30
0.0
 10
75.2364210124013
 20
77.48081040434299
 30
0.0
 10
75.34669598779746
 20
77.31274133127955
 30
0.0
 10
75.5762799627553
 20
77.00217103858972
 30
0.0
 10
75.69773008081593
 20
76.85845820192445
 30
0.0
 10
75.82261835156633
 20
76.72746192385274
 30
0.0
  0
SPLINE
  5
A8
330
1F
100
AcDbEntity
  8
0
  6
Continuous
 62
     7
370
    15
100
AcDbSpline
210
0.0
220
0.0
230
1.0
 70
     8
 71
     3
 72
     8
 73
     4
 74
     0
 42
0.00000001
 43
0.00000001
 40
0.0
 40
0.0
 40
0.0
 40
0.0
 40
1.0
 40
1.0
 40
1.0
 40
1.0
 10
140.8105893306449
 20
147.9267098865597
 30
0.0
 10
141.2675156844444
 20
146.9107919168854
 30
0.0
 10
141.7187213262475
 20
145.8919960877942
 30
0.0
 10
142.1626183515663
 20
144.8711946318106
 30
0.0
  0
LINE
  5
A9
330
1F
100
AcDbEntity
  8
0
  6
Continuous
 62
     7
370
    15
100
AcDbLine
 10
142.1626183516
 20
144.8711946318
 30
0.0
 11
142.1626183516
 21
143.6899823182
 31
0.0
  0
SPLINE
  5
AA
330
1F
100
AcDbEntity
  8
0
  6
Continuous
 62
     7
370
    15
100
AcDbSpline
210
0.0
220
0.0
230
1.0
 70
     8
 71
     3
 72
    14
 73
    10
 74
     0
 42
0.00000001
 43
0.00000001
 40
0.0
 40
0.0
 40
0.0
 40
0.0
 40
0.25
 40
0.25
 40
0.5
 40
0.5
 40
0.75
 40
0.75
 40
1.0
 40
1.0
 40
1.0
 40
1.0
 10
142.1626183515663
 20
143.6899823181698
 30
0.0
 10
142.1626183515663
 20
143.5661154413806
 30
0.0
 10
142.1784774791939
 20
143.4418557645431
 30
0.0
 10
142.2418391247138
 20
143.2042474021372
 30
0.0
 10
142.2904288327632
 20
143.0874670173848
 30
0.0
 10
142.422714437538
 20
142.8786644887758
 30
0.0
 10
142.5080392287986
 20
142.7841537851832
 30
0.0
 10
142.7149304771048
 20
142.6461969843809
 30
0.0
 10
142.8388984229948
 20
142.6042785387452
 30
0.0
 10
142.9626183515663
 20
142.6042785387451
 30
0.0
  0
LINE
  5
AB
330
1F
100
AcDbEntity
  8
0
  6
Continuous
 62
     7
370
    15
100
AcDbLine
 10
142.9626183516
 20
142.6042785387
 30
0.0
 11
145.1826183516
 21
142.6042785387
 31
0.0
  0
SPLINE
  5
AC
330
1F
100
AcDbEntity
  8
0
  6
Continuous
 62
     7
370
    15
100
AcDbSpline
210
0.0
220
0.0
230
1.0
 70
     8
 71
     3
 72
    12
 73
     8
 74
     0
 42
0.00000001
 43
0.00000001
 40
0.0
 40
0.0
 40
0.0
 40
0.0
 40
0.250000000000002
 40
0.250000000000002
 40
0.500000000000004
 40
0.500000000000004
 40
1.0
 40
1.0
 40
1.0
 40
1.0
 10
145.1826183515663
 20
142.6042785387452
 30
0.0
 10
145.3063193015463
 20
142.6042785387452
 30
0.0
 10
145.4304159138165
 20
142.6462721504778
 30
0.0
 10
145.6370710769035
 20
142.7840674771222
 30
0.0
 10
145.7221118436304
 20
142.878041075587
 30
0.0
 10
145.921590412104
 20
143.1928292818079
 30
0.0
 10
145.9826183515663
 20
143.4430682740355
 30
0.0
 10
145.9826183515663
 20
143.6899823181698
 30
0.0
  0
LINE
  5
AD
330
1F
100
AcDbEntity
  8
0
  6
Continuous
 62
     7
370
    15
100
AcDbLine
 10
145.9826183516
 20
143.6899823182
 30
0.0
 11
145.9826183516
 21
144.8711946318
 31
0.0
  0
SPLINE
  5
AE
330
1F
100
AcDbEntity
  8
0
  6
Continuous
 62
     7
370
    15
100
AcDbSpline
210
0.0
220
0.0
230
1.0
 70
     8
 71
     3
 72
     8
 73
     4
 74
     0
 42
0.00000001
 43
0.00000001
 40
0.0
 40
0.0
 40
0.0
 40
0.0
 40
1.0
 40
1.0
 40
1.0
 40
1.0
 10
145.9826183515663
 20
144.8711946318106
 30
0.0
 10
146.4267683625918
 20
145.8925778627622
 30
0.0
 10
146.8778426728498
 20
146.9110623995306
 30
0.0
 10
147.3346473724877
 20
147.9267098865597
 30
0.0
  0
LINE
  5
AF
330
1F
100
AcDbEntity
  8
0
  6
Continuous
 62
     7
370
    15
100
AcDbLine
 10
147.3346473725
 20
147.9267098866
 30
0.0
 11
152.0226183516
 21
147.9267098866
 31
0.0
  0
SPLINE
  5
B0
330
1F
100
AcDbEntity
  8
0
  6
Continuous
 62
     7
370
    15
100
AcDbSpline
210
0.0
220
0.0
230
1.0
 70
     8
 71
     3
 72
    16
 73
    12
 74
     0
 42
0.00000001
 43
0.00000001
 40
0.0
 40
0.0
 40
0.0
 40
0.0
 40
0.1249999999999978
 40
0.1249999999999978
 40
0.2499999999999955
 40
0.2499999999999955
 40
0.499999999999997
 40
0.499999999999997
 40
0.7499999999999984
 40
0.7499999999999984
 40
1.0
 40
1.0
 40
1.0
 40
1.0
 10
152.0226183515663
 20
147.9267098865597
 30
0.0
 10
152.0982560579775
 20
147.9267098865597
 30
0.0
 10
152.1745717223957
 20
147.9153648864248
 30
0.0
 10
152.3189824602877
 20
147.8727123357862
 30
0.0
 10
152.3874289093961
 20
147.8417780111034
 30
0.0
 10
152.5823601620093
 20
147.7225216393358
 30
0.0
 10
152.6902013357901
 20
147.6123696257152
 30
0.0
 10
152.8589140840022
 20
147.3642335400571
 30
0.0
 10
152.9212784967257
 20
147.2238912160535
 30
0.0
 10
153.0025824212341
 20
146.9356195245648
 30
0.0
 10
153.0226183515663
 20
146.784814551585
 30
0.0
 10
153.0226183515663
 20
146.6344446602397
 30
0.0
  0
LINE
  5
B1
330
1F
100
AcDbEntity
  8
0
  6
Continuous
 62
     7
370
    15
100
AcDbLine
 10
153.0226183516
 20
146.6344446602
 30
0.0
 11
153.0226183516
 21
140.3257471257
 31
0.0
  0
SPLINE
  5
B2
330
1F
100
AcDbEntity
  8
0
  6
Continuous
 62
     7
370
    15
100
AcDbSpline
210
0.0
220
0.0
230
1.0
 70
     8
 71
     3
 72
    12
 73
     8
 74
     0
 42
0.00000001
 43
0.00000001
 40
0.0
 40
0.0
 40
0.0
 40
0.0
 40
0.4999999999999953
 40
0.4999999999999953
 40
0.7499999999999977
 40
0.7499999999999977
 40
1.0
 40
1.0
 40
1.0
 40
1.0
 10
153.0226183515663
 20
156.9444869465186
 30
0.0
 10
153.0226183515663
 20
157.209756379285
 30
0.0
 10
152.9180116080799
 20
157.4722714849374
 30
0.0
 10
152.6413432563346
 20
157.7578090909746
 30
0.0
 10
152.5309779969826
 20
157.8341307078361
 30
0.0
 10
152.2869059483668
 20
157.9384728726762
 30
0.0
 10
152.1551534870351
 20
157.9655419813363
 30
0.0
 10
152.0226183515663
 20
157.9655419813363
 30
0.0
  0
LINE
  5
B3
330
1F
100
AcDbEntity
  8
0
  6
Continuous
 62
     7
370
    15
100
AcDbLine
 10
153.0226183516
 20
146.6344446602
 30
0.0
 11
153.0226183516
 21
156.9444869465
 31
0.0
  0
SPLINE
  5
B4
330
1F
100
AcDbEntity
  8
0
  6
Continuous
 62
     7
370
    15
100
AcDbSpline
210
0.0
220
0.0
230
1.0
 70
     8
 71
     3
 72
     8
 73
     4
 74
     0
 42
0.00000001
 43
0.00000001
 40
0.0
 40
0.0
 40
0.0
 40
0.0
 40
1.0
 40
1.0
 40
1.0
 40
1.0
 10
147.3346473724877
 20
157.9655419813363
 30
0.0
 10
146.8836204037745
 20
157.1682314111484
 30
0.0
 10
146.4329265872509
 20
156.3707331114913
 30
0.0
 10
145.9826183515663
 20
155.5730179863776
 30
0.0
  0
LINE
  5
B5
330
1F
100
AcDbEntity
  8
0
  6
Continuous
 62
     7
370
    15
100
AcDbLine
 10
147.3346473725
 20
147.9267098866
 30
0.0
 11
147.3346473725
 21
157.9655419813
 31
0.0
  0
LINE
  5
B6
330
1F
100
AcDbEntity
  8
0
  6
Continuous
 62
     7
370
    15
100
AcDbLine
 10
145.9826183516
 20
144.8711946318
 30
0.0
 11
145.9826183516
 21
155.5730179864
 31
0.0
  0
SPLINE
  5
B7
330
1F
100
AcDbEntity
  8
0
  6
Continuous
 62
     7
370
    15
100
AcDbSpline
210
0.0
220
0.0
230
1.0
 70
     8
 71
     3
 72
     8
 73
     4
 74
     0
 42
0.00000001
 43
0.00000001
 40
0.0
 40
0.0
 40
0.0
 40
0.0
 40
1.0
 40
1.0
 40
1.0
 40
1.0
 10
142.1626183515663
 20
155.5730179863776
 30
0.0
 10
141.7123101158818
 20
156.3707331114913
 30
0.0
 10
141.2616162993582
 20
157.1682314111484
 30
0.0
 10
140.8105893306449
 20
157.9655419813363
 30
0.0
  0
LINE
  5
B8
330
1F
100
AcDbEntity
  8
0
  6
Continuous
 62
     7
370
    15
100
AcDbLine
 10
142.1626183516
 20
144.8711946318
 30
0.0
 11
142.1626183516
 21
155.5730179864
 31
0.0
  0
SPLINE
  5
B9
330
1F
100
AcDbEntity
  8
0
  6
Continuous
 62
     7
370
    15
100
AcDbSpline
210
0.0
220
0.0
230
1.0
 70
     8
 71
     3
 72
    10
 73
     6
 74
     0
 42
0.00000001
 43
0.00000001
 40
0.0
 40
0.0
 40
0.0
 40
0.0
 40
0.5
 40
0.5
 40
1.0
 40
1.0
 40
1.0
 40
1.0
 10
142.9626183515663
 20
153.8500228858452
 30
0.0
 10
142.75008203771
 20
153.8500228858452
 30
0.0
 10
142.540145866056
 20
153.9414354724753
 30
0.0
 10
142.2464387250447
 20
154.2461803383796
 30
0.0
 10
142.1626183515663
 20
154.4583353082882
 30
0.0
 10
142.1626183515663
 20
154.6692983665207
 30
0.0
  0
LINE
  5
BA
330
1F
100
AcDbEntity
  8
0
  6
Continuous
 62
     7
370
    15
100
AcDbLine
 10
152.0226183516
 20
157.9655419813
 30
0.0
 11
147.3346473725
 21
157.9655419813
 31
0.0
  0
SPLINE
  5
BB
330
1F
100
AcDbEntity
  8
0
  6
Continuous
 62
     7
370
    15
100
AcDbSpline
210
0.0
220
0.0
230
1.0
 70
     8
 71
     3
 72
    14
 73
    10
 74
     0
 42
0.00000001
 43
0.00000001
 40
0.0
 40
0.0
 40
0.0
 40
0.0
 40
0.25
 40
0.25
 40
0.5
 40
0.5
 40
0.75
 40
0.75
 40
1.0
 40
1.0
 40
1.0
 40
1.0
 10
145.9826183515663
 20
154.6692983665207
 30
0.0
 10
145.9826183515663
 20
154.5629416727684
 30
0.0
 10
145.9622307954251
 20
154.4571011850083
 30
0.0
 10
145.8835964499636
 20
154.2605362714718
 30
0.0
 10
145.8248650903249
 20
154.1693655291847
 30
0.0
 10
145.6782561847224
 20
154.0174544401531
 30
0.0
 10
145.5888508646958
 20
153.9553856033335
 30
0.0
 10
145.3949601320955
 20
153.8721175555748
 30
0.0
 10
145.2884551422057
 20
153.8500228858452
 30
0.0
 10
145.1826183515663
 20
153.8500228858452
 30
0.0
  0
LINE
  5
BC
330
1F
100
AcDbEntity
  8
0
  6
Continuous
 62
     7
370
    15
100
AcDbLine
 10
145.1826183516
 20
153.8500228858
 30
0.0
 11
142.9626183516
 21
153.8500228858
 31
0.0
  0
ARC
  5
BD
330
1F
100
AcDbEntity
  8
0
  6
Continuous
 62
     7
370
    15
100
AcDbCircle
 10
133.0726724067
 20
141.6190940587
 30
0.0
 40
11.37423968197771
100
AcDbArc
 50
77.8281974113
 51
102.1903534332
  0
SPLINE
  5
BE
330
1F
100
AcDbEntity
  8
0
  6
Continuous
 62
     7
370
    15
100
AcDbSpline
210
0.0
220
0.0
230
1.0
 70
     8
 71
     3
 72
    24
 73
    20
 74
     0
 42
0.00000001
 43
0.00000001
 40
0.0
 40
0.0
 40
0.0
 40
0.0
 40
0.0032795251616233
 40
0.0766809737781052
 40
0.1688953781256815
 40
0.2312672181780734
 40
0.2865067143791561
 40
0.3346267172789011
 40
0.4209210321742744
 40
0.4998576978769028
 40
0.5788062465945569
 40
0.6210879483938321
 40
0.6652520227511914
 40
0.7401298191173823
 40
0.8309522313907524
 40
0.894783389487173
 40
0.9500416993701006
 40
0.9967357710332687
 40
1.0
 40
1.0
 40
1.0
 40
1.0
 10
202.8317531717812
 20
103.4188871387854
 30
0.0
 10
202.846328726884
 20
103.4243146361682
 30
0.0
 10
203.1871304294337
 20
103.5512189177289
 30
0.0
 10
203.8917759663872
 20
103.938758958167
 30
0.0
 10
204.7383513675684
 20
104.6093831374979
 30
0.0
 10
205.3851280967972
 20
105.3606532622387
 30
0.0
 10
205.8109347307653
 20
106.0193623248393
 30
0.0
 10
206.2031208462253
 20
106.8283471449078
 30
0.0
 10
206.4974850087539
 20
107.8069431847346
 30
0.0
 10
206.6083565607185
 20
108.9732692058199
 30
0.0
 10
206.5180059629717
 20
109.9303155181273
 30
0.0
 10
206.3317601093111
 20
110.6959353323209
 30
0.0
 10
206.0750660691535
 20
111.4186672520063
 30
0.0
 10
205.6123837028605
 20
112.3028418844299
 30
0.0
 10
204.9279733017421
 20
113.1491929446335
 30
0.0
 10
204.1784678533061
 20
113.8005755287885
 30
0.0
 10
203.5127798681052
 20
114.2098487952286
 30
0.0
 10
203.0754395331753
 20
114.4573768671456
 30
0.0
 10
202.847675953971
 20
114.5244158331435
 30
0.0
 10
202.8327940932305
 20
114.5287960969225
 30
0.0
  0
SPLINE
  5
BF
330
1F
100
AcDbEntity
  8
0
  6
Continuous
 62
     7
370
    15
100
AcDbSpline
210
0.0
220
0.0
230
1.0
 70
     8
 71
     3
 72
    24
 73
    20
 74
     0
 42
0.00000001
 43
0.00000001
 40
0.0
 40
0.0
 40
0.0
 40
0.0
 40
0.0031741939630118
 40
0.07632939948948
 40
0.1687238995843041
 40
0.2311374657554194
 40
0.2864601806964746
 40
0.3347049797815526
 40
0.4211089012931261
 40
0.5001190840930028
 40
0.5790108755228753
 40
0.6212536511881293
 40
0.6653720833701657
 40
0.7400838661801334
 40
0.8308420807181668
 40
0.8945265463162111
 40
0.9498147440632
 40
0.9967157067462089
 40
1.0
 40
1.0
 40
1.0
 40
1.0
 10
198.3121264114106
 20
114.5321016231258
 30
0.0
 10
198.2980200345093
 20
114.5268474529114
 30
0.0
 10
197.9588059567324
 20
114.4005011546219
 30
0.0
 10
197.2548574232852
 20
114.0135829940564
 30
0.0
 10
196.4080726284157
 20
113.3433910078882
 30
0.0
 10
195.7602577617609
 20
112.5911049876895
 30
0.0
 10
195.3338153894127
 20
111.9313924095655
 30
0.0
 10
194.9411821847279
 20
111.1209447425114
 30
0.0
 10
194.6469245736652
 20
110.1407880392626
 30
0.0
 10
194.5368747225146
 20
108.9738100566216
 30
0.0
 10
194.6279430111298
 20
108.0169735408176
 30
0.0
 10
194.8145156919813
 20
107.2521588147651
 30
0.0
 10
195.0711883092882
 20
106.5307251582913
 30
0.0
 10
195.5334672952293
 20
105.6479271701294
 30
0.0
 10
196.2166928756553
 20
104.803024963474
 30
0.0
 10
196.9653348680449
 20
104.1520599960245
 30
0.0
 10
197.631190761217
 20
103.7422933881578
 30
0.0
 10
198.0695685690034
 20
103.4940574209249
 30
0.0
 10
198.2983746841466
 20
103.4267670526617
 30
0.0
 10
198.3133485318706
 20
103.4223633428787
 30
0.0
  0
SPLINE
  5
C0
330
1F
100
AcDbEntity
  8
0
  6
Continuous
 62
     7
370
    15
100
AcDbSpline
210
0.0
220
0.0
230
1.0
 70
     8
 71
     3
 72
    39
 73
    35
 74
     0
 42
0.00000001
 43
0.00000001
 40
-0.0929035514958684
 40
-0.0617844675330091
 40
-0.0305606518844097
 40
0.0
 40
0.0305833544991337
 40
0.0618207632592212
 40
0.092957407327399
 40
0.1240731578172038
 40
0.1552546267380327
 40
0.1868126884168838
 40
0.2185638838475925
 40
0.2499315075259423
 40
0.2813251124599952
 40
0.3131464055674968
 40
0.3447816985844708
 40
0.3760142222481838
 40
0.4071224531654553
 40
0.4382110606589222
 40
0.4693931316499394
 40
0.5000117158875025
 40
0.5306249294237197
 40
0.5618454474694672
 40
0.5929501996317587
 40
0.6240749381356989
 40
0.6552854313495922
 40
0.6868966152746568
 40
0.7186677897632002
 40
0.7500607090513594
 40
0.7814251173831794
 40
0.8132188904409183
 40
0.8447997037959765
 40
0.8760022562479011
 40
0.9070964485041315
 40
0.9382155324669907
 40
0.9694393481155902
 40
0.9999999999999999
 40
1.030583354499134
 40
1.061820763259221
 40
1.092957407327399
 10
201.9068575151352
 20
102.1228567336696
 30
0.0
 10
200.5722869413856
 20
101.9868323244933
 30
0.0
 10
199.2375404887792
 20
102.1230693233052
 30
0.0
 10
197.9569021292112
 20
102.5317403429179
 30
0.0
 10
196.7739699188552
 20
103.173195743614
 30
0.0
 10
195.7483531814511
 20
104.0373591835182
 30
0.0
 10
194.905732884012
 20
105.088620095842
 30
0.0
 10
194.2813681883227
 20
106.2971779231195
 30
0.0
 10
193.8846139189019
 20
107.6077147473114
 30
0.0
 10
193.7531964809289
 20
108.973058296471
 30
0.0
 10
193.8854635264852
 20
110.3393192619714
 30
0.0
 10
194.2828064207048
 20
111.6522425304636
 30
0.0
 10
194.9075542195617
 20
112.8638068346571
 30
0.0
 10
195.750850247482
 20
113.9167617374868
 30
0.0
 10
196.7761151374605
 20
114.7811788796348
 30
0.0
 10
197.9575832955772
 20
115.4220908106588
 30
0.0
 10
199.2377511064383
 20
115.8292901078255
 30
0.0
 10
200.5730063346159
 20
115.9644424468498
 30
0.0
 10
201.9087817507144
 20
115.8288769246517
 30
0.0
 10
203.1894499012169
 20
115.4209485114499
 30
0.0
 10
204.3717327400096
 20
114.7794026582682
 30
0.0
 10
205.3967149986561
 20
113.9143635739656
 30
0.0
 10
206.2392308481321
 20
112.8613665118351
 30
0.0
 10
206.8631822885321
 20
111.650927532981
 30
0.0
 10
207.2597192895033
 20
110.3389109242368
 30
0.0
 10
207.3920265223434
 20
108.9734707491062
 30
0.0
 10
207.2607378011048
 20
107.6075288223183
 30
0.0
 10
206.8633667596674
 20
106.2962233193086
 30
0.0
 10
206.238358013885
 20
105.086611305402
 30
0.0
 10
205.3950415110702
 20
104.0354587291688
 30
0.0
 10
204.3692096972628
 20
103.1719717095117
 30
0.0
 10
203.1867813825254
 20
102.5312088403254
 30
0.0
 10
201.9068575151352
 20
102.1228567336696
 30
0.0
 10
200.5722869413856
 20
101.9868323244933
 30
0.0
 10
199.2375404887792
 20
102.1230693233052
 30
0.0
  0
LINE
  5
C1
330
1F
100
AcDbEntity
  8
0
  6
Continuous
 62
     7
370
    15
100
AcDbLine
 10
211.2055768285
 20
84.9757471257
 30
0.0
 11
211.2055768285
 21
132.9757471257
 31
0.0
  0
LINE
  5
C2
330
1F
100
AcDbEntity
  8
0
  6
Continuous
 62
     7
370
    15
100
AcDbLine
 10
163.6590214679
 20
132.8640905736
 30
0.0
 11
163.8564334119
 21
132.8517293802
 31
0.0
  0
SPLINE
  5
C3
330
1F
100
AcDbEntity
  8
0
  6
Continuous
 62
     7
370
    15
100
AcDbSpline
210
0.0
220
0.0
230
1.0
 70
     8
 71
     3
 72
    17
 73
    13
 74
     0
 42
0.00000001
 43
0.00000001
 40
0.0
 40
0.0
 40
0.0
 40
0.0
 40
0.0496841624914001
 40
0.1396350247597814
 40
0.2333243528575751
 40
0.3361557949939684
 40
0.4495289415375077
 40
0.5705490818533515
 40
0.6940459237109682
 40
0.8141726629891178
 40
0.9242958943086421
 40
1.0
 40
1.0
 40
1.0
 40
1.0
 10
169.4793988856489
 20
132.9707450130331
 30
0.0
 10
169.486883438293
 20
132.9716011956017
 30
0.0
 10
169.5079184249239
 20
132.9740074568364
 30
0.0
 10
169.1834085538993
 20
132.9368437029157
 30
0.0
 10
168.5737701707721
 20
132.8766719948807
 30
0.0
 10
167.6703765631578
 20
132.8094919717741
 30
0.0
 10
166.5347446519815
 20
132.7650519922898
 30
0.0
 10
165.2734121916582
 20
132.7694031040076
 30
0.0
 10
164.0646191164757
 20
132.8276970659545
 30
0.0
 10
163.1290017566104
 20
132.9078403462235
 30
0.0
 10
162.587590949446
 20
132.9680483734296
 30
0.0
 10
162.564120057518
 20
132.9709081208963
 30
0.0
 10
162.5545582626187
 20
132.9720731519834
 30
0.0
  0
SPLINE
  5
C4
330
1F
100
AcDbEntity
  8
0
  6
Continuous
 62
     7
370
    15
100
AcDbSpline
210
0.0
220
0.0
230
1.0
 70
     8
 71
     3
 72
     9
 73
     5
 74
     0
 42
0.00000001
 43
0.00000001
 40
0.0
 40
0.0
 40
0.0
 40
0.0
 40
0.2142799898969133
 40
1.0
 40
1.0
 40
1.0
 40
1.0
 10
163.1947349590377
 20
132.9052228945203
 30
0.0
 10
163.2200376427967
 20
132.9026209634341
 30
0.0
 10
163.3381199881018
 20
132.8904782939882
 30
0.0
 10
163.5178242401914
 20
132.8757012154664
 30
0.0
 10
163.6590214669588
 20
132.8640905691809
 30
0.0
  0
SPLINE
  5
C5
330
1F
100
AcDbEntity
  8
0
  6
Continuous
 62
     7
370
    15
100
AcDbSpline
210
0.0
220
0.0
230
1.0
 70
     8
 71
     3
 72
    68
 73
    64
 74
     0
 42
0.00000001
 43
0.00000001
 40
-0.0312500000000007
 40
-0.0312500000000007
 40
0.0
 40
0.0
 40
0.0312499999999997
 40
0.0312499999999997
 40
0.0624999999999993
 40
0.0624999999999993
 40
0.093749999999999
 40
0.093749999999999
 40
0.1249999999999986
 40
0.1249999999999986
 40
0.1562499999999983
 40
0.1562499999999983
 40
0.1874999999999979
 40
0.1874999999999979
 40
0.2187499999999976
 40
0.2187499999999976
 40
0.2499999999999973
 40
0.2499999999999973
 40
0.2812499999999969
 40
0.2812499999999969
 40
0.3124999999999966
 40
0.3124999999999966
 40
0.3437499999999963
 40
0.3437499999999963
 40
0.3749999999999959
 40
0.3749999999999959
 40
0.4062499999999956
 40
0.4062499999999956
 40
0.4374999999999952
 40
0.4374999999999952
 40
0.4687499999999949
 40
0.4687499999999949
 40
0.4999999999999946
 40
0.4999999999999946
 40
0.5312499999999942
 40
0.5312499999999942
 40
0.5624999999999939
 40
0.5624999999999939
 40
0.5937499999999936
 40
0.5937499999999936
 40
0.6249999999999932
 40
0.6249999999999932
 40
0.6874999999999934
 40
0.6874999999999934
 40
0.7187499999999941
 40
0.7187499999999941
 40
0.7499999999999947
 40
0.7499999999999947
 40
0.7812499999999953
 40
0.7812499999999953
 40
0.812499999999996
 40
0.812499999999996
 40
0.8437499999999967
 40
0.8437499999999967
 40
0.8749999999999973
 40
0.8749999999999973
 40
0.906249999999998
 40
0.906249999999998
 40
0.9374999999999987
 40
0.9374999999999987
 40
0.9687499999999993
 40
0.9687499999999993
 40
1.0
 40
1.0
 40
1.03125
 40
1.03125
 10
163.4900072680738
 20
111.1487658851871
 30
0.0
 10
163.8280356677934
 20
111.4274651252403
 30
0.0
 10
164.0075703982306
 20
111.548504901272
 30
0.0
 10
164.385826339674
 20
111.7573409216717
 30
0.0
 10
164.5860350952841
 20
111.8455789106026
 30
0.0
 10
164.9992891940604
 20
111.9859372751497
 30
0.0
 10
165.2096742914529
 20
112.0374611137588
 30
0.0
 10
165.6376515831681
 20
112.1048189743625
 30
0.0
 10
165.8573059871559
 20
112.1205267685641
 30
0.0
 10
166.2924996520691
 20
112.1146327504503
 30
0.0
 10
166.5077247365336
 20
112.0934709519981
 30
0.0
 10
166.9334695692808
 20
112.0149736740934
 30
0.0
 10
167.1460478710019
 20
111.9567571509379
 30
0.0
 10
167.5533019424851
 20
111.8058061544352
 30
0.0
 10
167.7483051177533
 20
111.7134987020382
 30
0.0
 10
168.1206766407408
 20
111.4943317566421
 30
0.0
 10
168.2998800355118
 20
111.3656801594638
 30
0.0
 10
168.6260310249495
 20
111.0801531336591
 30
0.0
 10
168.7737781217943
 20
110.923451351381
 30
0.0
 10
169.0368895791776
 20
110.5804751236772
 30
0.0
 10
169.1530252789093
 20
110.3917239771869
 30
0.0
 10
169.3381157548723
 20
110.0003400759234
 30
0.0
 10
169.4087538767842
 20
109.7963488043446
 30
0.0
 10
169.5030926487867
 20
109.37054438967
 30
0.0
 10
169.525519239867
 20
109.1509545455612
 30
0.0
 10
169.519104805934
 20
108.7177914044054
 30
0.0
 10
169.49014962851
 20
108.4987095478143
 30
0.0
 10
169.3833917059783
 20
108.0757108694742
 30
0.0
 10
169.3066506671127
 20
107.8727855995698
 30
0.0
 10
169.1085023621066
 20
107.4832878608535
 30
0.0
 10
168.9881515906981
 20
107.2997246603632
 30
0.0
 10
168.7148557940438
 20
106.962895243929
 30
0.0
 10
168.5592583444406
 20
106.8066465238687
 30
0.0
 10
168.2241412383127
 20
106.5291740192887
 30
0.0
 10
168.0448654192799
 20
106.4074346137405
 30
0.0
 10
167.6639745998151
 20
106.1962169453615
 30
0.0
 10
167.462511822516
 20
106.1073516447787
 30
0.0
 10
167.0522041311019
 20
105.9673771590778
 30
0.0
 10
166.8415923946837
 20
105.9152125509188
 30
0.0
 10
166.4093649532755
 20
105.8467291484692
 30
0.0
 10
166.1912414492012
 20
105.8311723099792
 30
0.0
 10
165.5417373111586
 20
105.8392273758346
 30
0.0
 10
165.1039433646222
 20
105.9192487554864
 30
0.0
 10
164.4959686322766
 20
106.1439926758778
 30
0.0
 10
164.2999521721616
 20
106.2362491207675
 30
0.0
 10
163.9223014678458
 20
106.4584605002805
 30
0.0
 10
163.7462231450062
 20
106.5852389015167
 30
0.0
 10
163.4215857962061
 20
106.8690759197874
 30
0.0
 10
163.2722100684577
 20
107.0268781560502
 30
0.0
 10
163.0056021650879
 20
107.3747838302158
 30
0.0
 10
162.8925582072319
 20
107.5592335853574
 30
0.0
 10
162.7077626079278
 20
107.9496017975412
 30
0.0
 10
162.635423801188
 20
108.15865200486
 30
0.0
 10
162.5416425512038
 20
108.5845081584966
 30
0.0
 10
162.5196349378762
 20
108.799991681043
 30
0.0
 10
162.5262430397878
 20
109.2361613177496
 30
0.0
 10
162.5556766854967
 20
109.4557458919229
 30
0.0
 10
162.6622449317634
 20
109.8767371541548
 30
0.0
 10
162.7405915535248
 20
110.0834109879795
 30
0.0
 10
162.9390819927694
 20
110.4720441435418
 30
0.0
 10
163.0582194231433
 20
110.6535695861364
 30
0.0
 10
163.3339690568002
 20
110.9926123606553
 30
0.0
 10
163.4900072680738
 20
111.1487658851871
 30
0.0
 10
163.8280356677934
 20
111.4274651252403
 30
0.0
  0
LINE
  5
C6
330
1F
100
AcDbEntity
  8
0
  6
Continuous
 62
     7
370
    15
100
AcDbLine
 10
163.6590214679
 20
85.0874036778
 30
0.0
 11
163.5652315787
 21
85.0788162884
 31
0.0
  0
SPLINE
  5
C7
330
1F
100
AcDbEntity
  8
0
  6
Continuous
 62
     7
370
    15
100
AcDbSpline
210
0.0
220
0.0
230
1.0
 70
     8
 71
     3
 72
    17
 73
    13
 74
     0
 42
0.00000001
 43
0.00000001
 40
0.0
 40
0.0
 40
0.0
 40
0.0
 40
0.0504777872221951
 40
0.1404288124296355
 40
0.2341810880071603
 40
0.3371068668951428
 40
0.4505665643951687
 40
0.5716332380872926
 40
0.6951281449784167
 40
0.8151960611037793
 40
0.9252081603293747
 40
1.0
 40
1.0
 40
1.0
 40
1.0
 10
162.5656319889763
 20
84.98072529262215
 30
0.0
 10
162.5585124378893
 20
84.97991208919048
 30
0.0
 10
162.5387059020009
 20
84.97764976355262
 30
0.0
 10
162.8659415212259
 20
85.01509772391428
 30
0.0
 10
163.4782718508231
 20
85.07542864579996
 30
0.0
 10
164.3839555418419
 20
85.14253710999161
 30
0.0
 10
165.5213306223568
 20
85.18664785466632
 30
0.0
 10
166.7830137955656
 20
85.18179477466997
 30
0.0
 10
167.9904483967637
 20
85.12311025918817
 30
0.0
 10
168.9227975706655
 20
85.04298349980421
 30
0.0
 10
169.4596135320635
 20
84.98321057206616
 30
0.0
 10
169.4811554687009
 20
84.98057979072952
 30
0.0
 10
169.4898736869424
 20
84.97951508952718
 30
0.0
  0
LINE
  5
C8
330
1F
100
AcDbEntity
  8
0
  6
Continuous
 62
     7
370
    15
100
AcDbLine
 10
164.1837936246
 20
85.1225335194
 30
0.0
 11
163.6590214673
 21
85.0874036822
 31
0.0
  0
CIRCLE
  5
C9
330
1F
100
AcDbEntity
  8
0
  6
Continuous
 62
     7
370
    15
100
AcDbCircle
 10
166.0226183516
 20
108.9757471257
 30
0.0
 40
2.499999999999986
  0
LINE
  5
CA
330
1F
100
AcDbEntity
  8
0
  6
Continuous
 62
     7
370
    15
100
AcDbLine
 10
224.0726183516
 20
92.2498876473
 30
0.0
 11
224.0726183516
 21
125.7016065531
 31
0.0
  0
LINE
  5
CB
330
1F
100
AcDbEntity
  8
0
  6
Continuous
 62
     7
370
    15
100
AcDbLine
 10
75.8226183516
 20
76.7257471257
 30
0.0
 11
75.8226183516
 21
76.7274619239
 31
0.0
  0
LINE
  5
CC
330
1F
100
AcDbEntity
  8
0
  6
Continuous
 62
     7
370
    15
100
AcDbLine
 10
75.8226183516
 20
141.2257471257
 30
0.0
 11
75.8226183516
 21
141.2240323275
 31
0.0
  0
LINE
  5
CD
330
1F
100
AcDbEntity
  8
0
  6
Continuous
 62
     7
370
    15
100
AcDbLine
 10
224.1435262107
 20
98.6068062177
 30
0.0
 11
224.1375192872
 21
98.5666037098
 31
0.0
  0
ARC
  5
CE
330
1F
100
AcDbEntity
  8
0
  6
Continuous
 62
     7
370
    15
100
AcDbCircle
 10
203.2573103986
 20
99.1811049943
 30
0.0
 40
20.89410993640944
100
AcDbArc
 50
358.4249608716
 51
4.9777245001
  0
LWPOLYLINE
  5
CF
330
1F
100
AcDbEntity
  8
0
  6
Continuous
 62
     7
370
    15
100
AcDbPolyline
 90
        7
 70
   128
 43
0.0
 10
224.0726183516
 20
118.0189185749
 10
224.0770278853
 20
118.168483232
 10
224.0874063892
 20
118.635021564
 10
224.0910508351
 20
119.0306052318
 10
224.0874063892
 20
119.2950102081
 10
224.0770278853
 20
119.387983232
 10
224.0726183516
 20
119.3788305206
  0
ARC
  5
D0
330
1F
100
AcDbEntity
  8
0
  6
HIDDEN
 62
     7
370
     0
100
AcDbCircle
 10
200.5726183516
 20
108.9757471257
 30
0.0
 40
6.000000000002247
100
AcDbArc
 50
111.9262314796
 51
248.1667758049
  0
ARC
  5
D1
330
1F
100
AcDbEntity
  8
0
  6
HIDDEN
 62
     7
370
     0
100
AcDbCircle
 10
200.5726183516
 20
108.9757471257
 30
0.0
 40
6.999999999999991
100
AcDbArc
 50
349.1438596702
 51
75.6947244208
  0
ARC
  5
D2
330
1F
100
AcDbEntity
  8
0
  6
HIDDEN
 62
     7
370
     0
100
AcDbCircle
 10
200.5726183516
 20
108.9757471257
 30
0.0
 40
7.000000000000016
100
AcDbArc
 50
269.0124940751
 51
280.2736656628
  0
ARC
  5
D3
330
1F
100
AcDbEntity
  8
0
  6
HIDDEN
 62
     7
370
     0
100
AcDbCircle
 10
200.5726183516
 20
108.9757471257
 30
0.0
 40
7.000000000000007
100
AcDbArc
 50
293.1860637126
 51
349.1438596702
  0
CIRCLE
  5
D4
330
1F
100
AcDbEntity
  8
0
  6
HIDDEN
 62
     7
370
     0
100
AcDbCircle
 10
200.5726183516
 20
108.9757471257
 30
0.0
 40
4.999999999999989
  0
CIRCLE
  5
D5
330
1F
100
AcDbEntity
  8
0
  6
HIDDEN
 62
     7
370
     0
100
AcDbCircle
 10
200.5726183516
 20
108.9757471257
 30
0.0
 40
3.750000000000013
  0
LINE
  5
D6
330
1F
100
AcDbEntity
  8
0
  6
HIDDEN
 62
     7
370
     0
100
AcDbLine
 10
140.8105893306
 20
147.9267098866
 30
0.0
 11
140.8105893306
 21
140.3257471257
 31
0.0
  0
SPLINE
  5
D7
330
1F
100
AcDbEntity
  8
0
  6
HIDDEN
 62
     7
370
     0
100
AcDbSpline
210
0.0
220
0.0
230
1.0
 70
     8
 71
     3
 72
    80
 73
    76
 74
     0
 42
0.00000001
 43
0.00000001
 40
-0.0312500000000003
 40
-0.0312500000000003
 40
0.0
 40
0.0
 40
0.03125
 40
0.03125
 40
0.046875
 40
0.046875
 40
0.0624999999999999
 40
0.0624999999999999
 40
0.0937499999999998
 40
0.0937499999999998
 40
0.1249999999999996
 40
0.1249999999999996
 40
0.1562499999999995
 40
0.1562499999999995
 40
0.1874999999999994
 40
0.1874999999999994
 40
0.2187499999999993
 40
0.2187499999999993
 40
0.2499999999999992
 40
0.2499999999999992
 40
0.2812499999999991
 40
0.2812499999999991
 40
0.3124999999999989
 40
0.3124999999999989
 40
0.3281249999999988
 40
0.3281249999999988
 40
0.3437499999999986
 40
0.3437499999999986
 40
0.3749999999999983
 40
0.3749999999999983
 40
0.4062499999999981
 40
0.4062499999999981
 40
0.4218749999999979
 40
0.4218749999999979
 40
0.4374999999999978
 40
0.4374999999999978
 40
0.4687499999999977
 40
0.4687499999999977
 40
0.4999999999999975
 40
0.4999999999999975
 40
0.5312499999999972
 40
0.5312499999999972
 40
0.562499999999997
 40
0.562499999999997
 40
0.5937499999999968
 40
0.5937499999999968
 40
0.6249999999999966
 40
0.6249999999999966
 40
0.6562499999999964
 40
0.6562499999999964
 40
0.6874999999999962
 40
0.6874999999999962
 40
0.7031249999999962
 40
0.7031249999999962
 40
0.7187499999999963
 40
0.7187499999999963
 40
0.7499999999999968
 40
0.7499999999999968
 40
0.7812499999999972
 40
0.7812499999999972
 40
0.7968749999999976
 40
0.7968749999999976
 40
0.8124999999999978
 40
0.8124999999999978
 40
0.8437499999999981
 40
0.8437499999999981
 40
0.8749999999999984
 40
0.8749999999999984
 40
0.9062499999999989
 40
0.9062499999999989
 40
0.9374999999999992
 40
0.9374999999999992
 40
0.9687499999999997
 40
0.9687499999999997
 40
1.0
 40
1.0
 40
1.03125
 40
1.03125
 10
133.4031636643426
 20
157.8352963821507
 30
0.0
 10
132.74207303879
 20
157.8352963821507
 30
0.0
 10
132.4170929095384
 20
157.8283982363239
 30
0.0
 10
131.937619498292
 20
157.8078718083434
 30
0.0
 10
131.7791376804512
 20
157.7993155812559
 30
0.0
 10
131.4649181479469
 20
157.7785892060382
 30
0.0
 10
131.3087978642665
 20
157.7663619058318
 30
0.0
 10
130.8547438353099
 20
157.7247926120026
 30
0.0
 10
130.5676404523701
 20
157.6904483269048
 30
0.0
 10
130.024285896343
 20
157.6071242025826
 30
0.0
 10
129.7671822851375
 20
157.557685979808
 30
0.0
 10
129.3062760301987
 20
157.4463062500481
 30
0.0
 10
129.0993783209837
 20
157.384011736536
 30
0.0
 10
128.7338530069915
 20
157.244082093665
 30
0.0
 10
128.5786474848656
 20
157.1674661959159
 30
0.0
 10
128.3292170982659
 20
157.0035075760602
 30
0.0
 10
128.2331271424807
 20
156.9149507219645
 30
0.0
 10
128.1046082932871
 20
156.7274700398587
 30
0.0
 10
128.0727974231093
 20
156.6302335784043
 30
0.0
 10
128.0724407733361
 20
156.4286009390772
 30
0.0
 10
128.1049380255331
 20
156.3230521472391
 30
0.0
 10
128.2325634992476
 20
156.1129373645506
 30
0.0
 10
128.3269919002995
 20
156.0078718565816
 30
0.0
 10
128.5148527202851
 20
155.8509941493305
 30
0.0
 10
128.5856807190883
 20
155.7985604156248
 30
0.0
 10
128.7404026110536
 20
155.6961219699951
 30
0.0
 10
128.8243790812369
 20
155.6459742413433
 30
0.0
 10
129.0957027508814
 20
155.4989582849097
 30
0.0
 10
129.3022519694837
 20
155.4054704644753
 30
0.0
 10
129.7688621096727
 20
155.229683606861
 30
0.0
 10
130.0212276792982
 20
155.1503051317773
 30
0.0
 10
130.4271290209769
 20
155.0448226942832
 30
0.0
 10
130.5670296384544
 20
155.011937129443
 30
0.0
 10
130.8562535737013
 20
154.9510216502144
 30
0.0
 10
131.0060930299906
 20
154.922941078572
 30
0.0
 10
131.4602095996014
 20
154.8481390365291
 30
0.0
 10
131.7718608183382
 20
154.810100978283
 30
0.0
 10
132.4128572832506
 20
154.7584890517589
 30
0.0
 10
132.7443849112028
 20
154.7451751182374
 30
0.0
 10
133.3971759562742
 20
154.7450780319094
 30
0.0
 10
133.7217121613061
 20
154.7578661170704
 30
0.0
 10
134.3669816107225
 20
154.8093563066663
 30
0.0
 10
134.6827246168852
 20
154.8478808859864
 30
0.0
 10
135.2846139118689
 20
154.9467834488445
 30
0.0
 10
135.5753631426804
 20
155.0078875467695
 30
0.0
 10
136.1222749343648
 20
155.1496969798802
 30
0.0
 10
136.3740522982018
 20
155.2290314644594
 30
0.0
 10
136.8354402908229
 20
155.4024102091209
 30
0.0
 10
137.046709570421
 20
155.4975701538748
 30
0.0
 10
137.4100139227972
 20
155.6941426772508
 30
0.0
 10
137.56382057124
 20
155.7958989056571
 30
0.0
 10
137.7524400408374
 20
155.9526848684426
 30
0.0
 10
137.8084705270465
 20
156.0059389021926
 30
0.0
 10
137.9040442887826
 20
156.1117434637454
 30
0.0
 10
137.9438072058076
 20
156.1643965281009
 30
0.0
 10
138.0395789561198
 20
156.3214702475601
 30
0.0
 10
138.0723017952459
 20
156.4249952828872
 30
0.0
 10
138.072930381575
 20
156.6292100171143
 30
0.0
 10
138.0407442368402
 20
156.7267138546991
 30
0.0
 10
137.9458335349846
 20
156.8660409050507
 30
0.0
 10
137.9063667515857
 20
156.9113576365552
 30
0.0
 10
137.8114367528648
 20
156.999797457544
 30
0.0
 10
137.7556799251014
 20
157.043051708004
 30
0.0
 10
137.5677398071315
 20
157.166943182594
 30
0.0
 10
137.4143783374153
 20
157.242645473368
 30
0.0
 10
137.052114102535
 20
157.3818998448263
 30
0.0
 10
136.8412656290691
 20
157.445661686355
 30
0.0
 10
136.3805956587502
 20
157.5571585258228
 30
0.0
 10
136.1292212791664
 20
157.6056845981394
 30
0.0
 10
135.5833133922682
 20
157.6897385815199
 30
0.0
 10
135.292490817617
 20
157.7245371351866
 30
0.0
 10
134.6911642028369
 20
157.7797335999504
 30
0.0
 10
134.3766456182246
 20
157.8005514487043
 30
0.0
 10
133.7300641621046
 20
157.828398781615
 30
0.0
 10
133.4031636643426
 20
157.8352963821507
 30
0.0
 10
132.74207303879
 20
157.8352963821507
 30
0.0
  0
LINE
  5
D8
330
1F
100
AcDbEntity
  8
0
  6
HIDDEN
 62
     7
370
     0
100
AcDbLine
 10
104.486043101
 20
72.2399407634
 30
0.0
 11
104.2160874002
 21
72.2160146641
 31
0.0
  0
SPLINE
  5
D9
330
1F
100
AcDbEntity
  8
0
  6
HIDDEN
 62
     7
370
     0
100
AcDbSpline
210
0.0
220
0.0
230
1.0
 70
     8
 71
     3
 72
    12
 73
     8
 74
     0
 42
0.00000001
 43
0.00000001
 40
0.0
 40
0.0
 40
0.0
 40
0.0
 40
0.1661348616735903
 40
0.3322013257393936
 40
0.5008932044678248
 40
0.752137078264078
 40
1.0
 40
1.0
 40
1.0
 40
1.0
 10
102.5919400172136
 20
145.9070511487383
 30
0.0
 10
102.6023326413216
 20
145.9056730246768
 30
0.0
 10
102.6231136109016
 20
145.9029173439267
 30
0.0
 10
102.7964131003485
 20
145.8813139689647
 30
0.0
 10
103.1183646895922
 20
145.8434490170228
 30
0.0
 10
103.6395305255115
 20
145.7830652503067
 30
0.0
 10
104.2050884653493
 20
145.7352721131573
 30
0.0
 10
104.4859518890373
 20
145.7115374200639
 30
0.0
  0
SPLINE
  5
DA
330
1F
100
AcDbEntity
  8
0
  6
HIDDEN
 62
     7
370
     0
100
AcDbSpline
210
0.0
220
0.0
230
1.0
 70
     8
 71
     3
 72
    15
 73
    11
 74
     0
 42
0.00000001
 43
0.00000001
 40
0.0
 40
0.0
 40
0.0
 40
0.0
 40
0.1285821516379736
 40
0.2571635483376876
 40
0.385323567199189
 40
0.5113778119466696
 40
0.6369260966772228
 40
0.7643185820319293
 40
0.8930603485208921
 40
1.0
 40
1.0
 40
1.0
 40
1.0
 10
114.3258240067574
 20
77.60942490492567
 30
0.0
 10
113.9403018855172
 20
77.6712306955096
 30
0.0
 10
113.1692599065346
 20
77.79484191380008
 30
0.0
 10
111.390702059778
 20
77.98559049780583
 30
0.0
 10
109.3968907643383
 20
78.07323793491116
 30
0.0
 10
107.3728528571036
 20
78.02633277220872
 30
0.0
 10
105.5447442901446
 20
77.8660825644672
 30
0.0
 10
104.1133130688655
 20
77.66490320658814
 30
0.0
 10
103.20942959139
 20
77.5023614719414
 30
0.0
 10
103.1468456536338
 20
77.48996118524107
 30
0.0
 10
103.1184484021681
 20
77.48433459681758
 30
0.0
  0
SPLINE
  5
DB
330
1F
100
AcDbEntity
  8
0
  6
HIDDEN
 62
     7
370
     0
100
AcDbSpline
210
0.0
220
0.0
230
1.0
 70
     8
 71
     3
 72
    16
 73
    12
 74
     0
 42
0.00000001
 43
0.00000001
 40
0.0
 40
0.0
 40
0.0
 40
0.0
 40
0.0205567982654305
 40
0.1461296737692548
 40
0.2720439921275847
 40
0.3999539720187822
 40
0.528504097482051
 40
0.655245546444081
 40
0.7805594897978894
 40
0.9070378665747952
 40
1.0
 40
1.0
 40
1.0
 40
1.0
 10
103.1184484021681
 20
140.4671596545279
 30
0.0
 10
103.1037811898851
 20
140.4699060311326
 30
0.0
 10
102.9995181174774
 20
140.489428872779
 30
0.0
 10
103.4502981283241
 20
140.403054315022
 30
0.0
 10
104.4635372588989
 20
140.231921713088
 30
0.0
 10
106.0578655768802
 20
140.0283809281507
 30
0.0
 10
107.9843649390147
 20
139.8959899621759
 30
0.0
 10
110.0308567395663
 20
139.8921937834851
 30
0.0
 10
111.9440161552893
 20
140.0149703561149
 30
0.0
 10
113.4287245406885
 20
140.1967852162363
 30
0.0
 10
114.0588727438229
 20
140.2988369251513
 30
0.0
 10
114.3258240067574
 20
140.3420693464198
 30
0.0
  0
SPLINE
  5
DC
330
1F
100
AcDbEntity
  8
0
  6
HIDDEN
 62
     7
370
     0
100
AcDbSpline
210
0.0
220
0.0
230
1.0
 70
     8
 71
     3
 72
     9
 73
     5
 74
     0
 42
0.00000001
 43
0.00000001
 40
0.0
 40
0.0
 40
0.0
 40
0.0
 40
0.6612244306033583
 40
1.0
 40
1.0
 40
1.0
 40
1.0
 10
114.3258240067574
 20
140.3420693464198
 30
0.0
 10
114.6173268579238
 20
140.3858549538233
 30
0.0
 10
115.0581799747702
 20
140.4520739339109
 30
0.0
 10
115.0067693479159
 20
140.4442689619967
 30
0.0
 10
114.9893526835304
 20
140.4416248281924
 30
0.0
  0
SPLINE
  5
DD
330
1F
100
AcDbEntity
  8
0
  6
HIDDEN
 62
     7
370
     0
100
AcDbSpline
210
0.0
220
0.0
230
1.0
 70
     8
 71
     3
 72
     9
 73
     5
 74
     0
 42
0.00000001
 43
0.00000001
 40
0.0
 40
0.0
 40
0.0
 40
0.0
 40
0.3224719622234747
 40
1.0
 40
1.0
 40
1.0
 40
1.0
 10
114.9893527087697
 20
77.50986941980551
 30
0.0
 10
115.0079940655629
 20
77.50710151261046
 30
0.0
 10
115.065801748019
 20
77.49851810841011
 30
0.0
 10
114.6246897519164
 20
77.56463133812552
 30
0.0
 10
114.3258240067574
 20
77.60942490492567
 30
0.0
  0
LINE
  5
DE
330
1F
100
AcDbEntity
  8
0
  6
HIDDEN
 62
     7
370
     0
100
AcDbLine
 10
94.0692426786
 20
82.4757471257
 30
0.0
 11
94.0692426786
 21
135.4757471257
 31
0.0
  0
LINE
  5
DF
330
1F
100
AcDbEntity
  8
0
  6
HIDDEN
 62
     7
370
     0
100
AcDbLine
 10
133.3566959699
 20
82.4757471257
 30
0.0
 11
133.3566959699
 21
135.4757471257
 31
0.0
  0
LINE
  5
E0
330
1F
100
AcDbEntity
  8
0
  6
HIDDEN
 62
     7
370
     0
100
AcDbLine
 10
136.5226183516
 20
84.1007471257
 30
0.0
 11
136.5226183516
 21
133.8507470972
 31
0.0
  0
SPLINE
  5
E1
330
1F
100
AcDbEntity
  8
0
  6
HIDDEN
 62
     7
370
     0
100
AcDbSpline
210
0.0
220
0.0
230
1.0
 70
     8
 71
     3
 72
    20
 73
    16
 74
     0
 42
0.00000001
 43
0.00000001
 40
0.0
 40
0.0
 40
0.0
 40
0.0
 40
0.2499999999999978
 40
0.2499999999999978
 40
0.3749999999999982
 40
0.3749999999999982
 40
0.4999999999999986
 40
0.4999999999999986
 40
0.6249999999999989
 40
0.6249999999999989
 40
0.7499999999999992
 40
0.7499999999999992
 40
0.8749999999999997
 40
0.8749999999999997
 40
1.0
 40
1.0
 40
1.0
 40
1.0
 10
84.27261835156632
 20
134.2042607560871
 30
0.0
 10
84.27261835156632
 20
134.1250577695548
 30
0.0
 10
84.22563585635359
 20
134.0439615511518
 30
0.0
 10
84.08781426557601
 20
133.9237648594009
 30
0.0
 10
84.03153198166603
 20
133.8848381553988
 30
0.0
 10
83.89844713019882
 20
133.8096494229745
 30
0.0
 10
83.82060718796575
 20
133.7730072176325
 30
0.0
 10
83.64797483185141
 20
133.7054166848007
 30
0.0
 10
83.55358183476034
 20
133.674458503025
 30
0.0
 10
83.34814452844519
 20
133.6189340816553
 30
0.0
 10
83.23579828845801
 20
133.5942255678221
 30
0.0
 10
83.00355742455837
 20
133.5544293407139
 30
0.0
 10
82.88284678213564
 20
133.5390095033168
 30
0.0
 10
82.63177592286662
 20
133.5179295284773
 30
0.0
 10
82.50225392645083
 20
133.5124522834563
 30
0.0
 10
82.37261835156635
 20
133.5124522834563
 30
0.0
  0
LINE
  5
E2
330
1F
100
AcDbEntity
  8
0
  6
HIDDEN
 62
     7
370
     0
100
AcDbLine
 10
82.3726183516
 20
133.5124522835
 30
0.0
 11
75.8226183516
 21
133.5124522835
 31
0.0
  0
LINE
  5
E3
330
1F
100
AcDbEntity
  8
0
  6
HIDDEN
 62
     7
370
     0
100
AcDbLine
 10
75.8226183516
 20
84.4390419679
 30
0.0
 11
87.3726183516
 21
84.4390419679
 31
0.0
  0
SPLINE
  5
E4
330
1F
100
AcDbEntity
  8
0
  6
HIDDEN
 62
     7
370
     0
100
AcDbSpline
210
0.0
220
0.0
230
1.0
 70
     8
 71
     3
 72
    18
 73
    14
 74
     0
 42
0.00000001
 43
0.00000001
 40
0.0
 40
0.0
 40
0.0
 40
0.0
 40
0.1249999999999982
 40
0.1249999999999982
 40
0.2499999999999964
 40
0.2499999999999964
 40
0.4999999999999988
 40
0.4999999999999988
 40
0.7500000000000011
 40
0.7500000000000011
 40
0.8750000000000006
 40
0.8750000000000006
 40
1.0
 40
1.0
 40
1.0
 40
1.0
 10
87.37261835156632
 20
84.43904196788924
 30
0.0
 10
87.50208566452355
 20
84.43904196788924
 30
0.0
 10
87.62909641342017
 20
84.4336889692966
 30
0.0
 10
87.87845973461742
 20
84.4129509966078
 30
0.0
 10
88.00208338924587
 20
84.39727909235351
 30
0.0
 10
88.3511157261799
 20
84.33758436395144
 30
0.0
 10
88.5616274909867
 20
84.27981918427044
 30
0.0
 10
88.9055441686862
 20
84.14529734299295
 30
0.0
 10
89.04189457020404
 20
84.06762822948754
 30
0.0
 10
89.17893262676655
 20
83.9483370954002
 30
0.0
 10
89.21415164547946
 20
83.90741808626515
 30
0.0
 10
89.26077522241802
 20
83.82676209297513
 30
0.0
 10
89.27261835156634
 20
83.78679357278226
 30
0.0
 10
89.27261835156634
 20
83.74723349525846
 30
0.0
  0
LINE
  5
E5
330
1F
100
AcDbEntity
  8
0
  6
HIDDEN
 62
     7
370
     0
100
AcDbLine
 10
75.8226183516
 20
84.4390419679
 30
0.0
 11
75.8226183516
 21
133.5124522835
 31
0.0
  0
LWPOLYLINE
  5
E6
330
1F
100
AcDbEntity
  8
0
  6
HIDDEN
 62
     7
370
     0
100
AcDbPolyline
 90
       14
 70
   128
 43
0.0
 10
133.0726183516
 20
148.919477689
 10
134.1121768057
 20
148.9639185466
 10
135.1063015669
 20
149.0952988407
 10
136.011544613
 20
149.3078766219
 10
136.788342479
 20
149.5923612213
 10
137.4027453705
 20
149.9363192967
 10
137.827900933
 20
150.3247182296
 10
138.0452278284
 20
150.7405831231
 10
138.0452278284
 20
151.1657386856
 10
137.827900933
 20
151.5816035791
 10
137.4027453705
 20
151.970002512
 10
136.788342479
 20
152.3139605874
 10
136.011544613
 20
152.5984451868
 10
135.4708597286
 20
152.737638294
  0
LWPOLYLINE
  5
E7
330
1F
100
AcDbEntity
  8
0
  6
HIDDEN
 62
     7
370
     0
100
AcDbPolyline
 90
       14
 70
   128
 43
0.0
 10
130.6708853227
 20
152.7368612421
 10
130.1336920901
 20
152.5984451868
 10
129.3568942242
 20
152.3139605874
 10
128.7424913326
 20
151.970002512
 10
128.3173357701
 20
151.5816035791
 10
128.1000088747
 20
151.1657386856
 10
128.1000088747
 20
150.7405831231
 10
128.3173357701
 20
150.3247182296
 10
128.7424913326
 20
149.9363192967
 10
129.3568942242
 20
149.5923612213
 10
130.1336920901
 20
149.3078766219
 10
131.0389351362
 20
149.0952988407
 10
132.0330598975
 20
148.9639185466
 10
133.0726183516
 20
148.919477689
  0
SPLINE
  5
E8
330
1F
100
AcDbEntity
  8
0
  6
HIDDEN
 62
     7
370
     0
100
AcDbSpline
210
0.0
220
0.0
230
1.0
 70
     8
 71
     3
 72
    11
 73
     7
 74
     0
 42
0.00000001
 43
0.00000001
 40
0.0
 40
0.0
 40
0.0
 40
0.0
 40
0.4851688718537747
 40
0.6579720722764663
 40
0.8363056653100565
 40
1.0
 40
1.0
 40
1.0
 40
1.0
 10
200.5726183515663
 20
102.9757471256727
 30
0.0
 10
200.9487678461364
 20
102.9948091569918
 30
0.0
 10
201.4588909739504
 20
103.0206605357104
 30
0.0
 10
202.088344531089
 20
103.1665239082097
 30
0.0
 10
202.4695999809084
 20
103.2771593911943
 30
0.0
 10
202.7145298853218
 20
103.3730120981291
 30
0.0
 10
202.8317531717812
 20
103.4188871387854
 30
0.0
  0
SPLINE
  5
E9
330
1F
100
AcDbEntity
  8
0
  6
HIDDEN
 62
     7
370
     0
100
AcDbSpline
210
0.0
220
0.0
230
1.0
 70
     8
 71
     3
 72
    13
 73
     9
 74
     0
 42
0.00000001
 43
0.00000001
 40
0.0
 40
0.0
 40
0.0
 40
0.0
 40
0.2569182589740422
 40
0.4997811136845514
 40
0.7424861379831125
 40
0.8288498517959119
 40
0.9179398046843141
 40
1.0
 40
1.0
 40
1.0
 40
1.0
 10
202.8327940932305
 20
114.5287960969225
 30
0.0
 10
202.4578446515104
 20
114.6591202514576
 30
0.0
 10
201.728458385596
 20
114.9126388271851
 30
0.0
 10
200.5723353760278
 20
115.0085001274745
 30
0.0
 10
199.6861886319486
 20
114.9280316715277
 30
0.0
 10
199.0564144690873
 20
114.7852882481518
 30
0.0
 10
198.6749051737405
 20
114.6739876513921
 30
0.0
 10
198.4296954478069
 20
114.5780839279174
 30
0.0
 10
198.3121264114106
 20
114.5321016231258
 30
0.0
  0
SPLINE
  5
EA
330
1F
100
AcDbEntity
  8
0
  6
HIDDEN
 62
     7
370
     0
100
AcDbSpline
210
0.0
220
0.0
230
1.0
 70
     8
 71
     3
 72
     9
 73
     5
 74
     0
 42
0.00000001
 43
0.00000001
 40
0.0
 40
0.0
 40
0.0
 40
0.0
 40
0.5145353833927587
 40
1.0
 40
1.0
 40
1.0
 40
1.0
 10
198.3133485318706
 20
103.4223633428787
 30
0.0
 10
198.6886621723844
 20
103.2890392834525
 30
0.0
 10
199.418084584579
 20
103.0299238489667
 30
0.0
 10
200.1953052292714
 20
102.9934526178863
 30
0.0
 10
200.5726183515663
 20
102.9757471256727
 30
0.0
  0
LINE
  5
EB
330
1F
100
AcDbEntity
  8
0
  6
HIDDEN
 62
     7
370
     0
100
AcDbLine
 10
75.8226183516
 20
81.6057471257
 30
0.0
 11
75.8226183516
 21
76.7274619239
 31
0.0
  0
LINE
  5
EC
330
1F
100
AcDbEntity
  8
0
  6
HIDDEN
 62
     7
370
     0
100
AcDbLine
 10
89.2726183516
 20
81.6057471257
 30
0.0
 11
89.2726183516
 21
75.1064138603
 31
0.0
  0
LINE
  5
ED
330
1F
100
AcDbEntity
  8
0
  6
HIDDEN
 62
     7
370
     0
100
AcDbLine
 10
84.2726183516
 20
136.3457471257
 30
0.0
 11
84.2726183516
 21
142.7203558627
 31
0.0
  0
LINE
  5
EE
330
1F
100
AcDbEntity
  8
0
  6
HIDDEN
 62
     7
370
     0
100
AcDbLine
 10
75.8226183516
 20
136.3457471257
 30
0.0
 11
75.8226183516
 21
141.2240323275
 31
0.0
  0
SPLINE
  5
EF
330
1F
100
AcDbEntity
  8
0
  6
HIDDEN
 62
     7
370
     0
100
AcDbSpline
210
0.0
220
0.0
230
1.0
 70
     8
 71
     3
 72
    14
 73
    10
 74
     0
 42
0.00000001
 43
0.00000001
 40
0.0
 40
0.0
 40
0.0
 40
0.0
 40
0.25
 40
0.25
 40
0.5
 40
0.5
 40
0.75
 40
0.75
 40
1.0
 40
1.0
 40
1.0
 40
1.0
 10
176.0888382830417
 20
98.02424968711345
 30
0.0
 10
176.0571915537593
 20
97.9878816340869
 30
0.0
 10
176.0269942251829
 20
97.9521282805505
 30
0.0
 10
175.978920620358
 20
97.87016117361918
 30
0.0
 10
175.9614351520266
 20
97.82148220879685
 30
0.0
 10
175.9711449883859
 20
97.68852133123578
 30
0.0
 10
175.9964697626237
 20
97.6099137126429
 30
0.0
 10
176.0561647793231
 20
97.4570665319654
 30
0.0
 10
176.0910277077385
 20
97.38123291846232
 30
0.0
 10
176.1274377700177
 20
97.306652072738
 30
0.0
  0
SPLINE
  5
F0
330
1F
100
AcDbEntity
  8
0
  6
HIDDEN
 62
     7
370
     0
100
AcDbSpline
210
0.0
220
0.0
230
1.0
 70
     8
 71
     3
 72
    14
 73
    10
 74
     0
 42
0.00000001
 43
0.00000001
 40
0.0
 40
0.0
 40
0.0
 40
0.0
 40
0.25
 40
0.25
 40
0.5
 40
0.5
 40
0.75
 40
0.75
 40
1.0
 40
1.0
 40
1.0
 40
1.0
 10
176.1274377700181
 20
97.3066520727376
 30
0.0
 10
176.1630110239692
 20
97.33966843416555
 30
0.0
 10
176.1939128549882
 20
97.37971920869235
 30
0.0
 10
176.2364669755684
 20
97.478181850799
 30
0.0
 10
176.2466936257281
 20
97.53499750142365
 30
0.0
 10
176.2383595192315
 20
97.66293486623128
 30
0.0
 10
176.2197418823968
 20
97.73266796297119
 30
0.0
 10
176.1642364998439
 20
97.87618672961672
 30
0.0
 10
176.1281438504844
 20
97.94951230833414
 30
0.0
 10
176.0888382830421
 20
98.0242496871147
 30
0.0
  0
SPLINE
  5
F1
330
1F
100
AcDbEntity
  8
0
  6
HIDDEN
 62
     7
370
     0
100
AcDbSpline
210
0.0
220
0.0
230
1.0
 70
     8
 71
     3
 72
    10
 73
     6
 74
     0
 42
0.00000001
 43
0.00000001
 40
0.0
 40
0.0
 40
0.0
 40
0.0
 40
0.5
 40
0.5
 40
1.0
 40
1.0
 40
1.0
 40
1.0
 10
175.5726183515659
 20
98.70515086346137
 30
0.0
 10
175.5726183515659
 20
98.72840428004568
 30
0.0
 10
175.5736979983827
 20
98.7494996759225
 30
0.0
 10
175.57785125538
 20
98.7875816984504
 30
0.0
 10
175.5809258210159
 20
98.80457081724408
 30
0.0
 10
175.5849287022687
 20
98.81943634342075
 30
0.0
  0
SPLINE
  5
F2
330
1F
100
AcDbEntity
  8
0
  6
HIDDEN
 62
     7
370
     0
100
AcDbSpline
210
0.0
220
0.0
230
1.0
 70
     8
 71
     3
 72
    18
 73
    14
 74
     0
 42
0.00000001
 43
0.00000001
 40
0.0
 40
0.0
 40
0.0
 40
0.0
 40
0.0725468170436794
 40
0.1614465570821802
 40
0.2237901744065856
 40
0.2739496779913452
 40
0.3241523600612617
 40
0.3940486994924084
 40
0.5073064483300218
 40
0.6272500531558547
 40
0.771099884788173
 40
0.9051909783953986
 40
0.9999999999999999
 40
0.9999999999999999
 40
0.9999999999999999
 40
0.9999999999999999
 10
175.6011622937181
 20
98.84894419710295
 30
0.0
 10
175.6062680111503
 20
98.86059861238085
 30
0.0
 10
175.6176303359833
 20
98.88653448797261
 30
0.0
 10
175.6394542328669
 20
98.88464004094293
 30
0.0
 10
175.6543873844002
 20
98.86152948902416
 30
0.0
 10
175.6593908302847
 20
98.81945636910434
 30
0.0
 10
175.655140759839
 20
98.75661975163294
 30
0.0
 10
175.638517364272
 20
98.65588311358663
 30
0.0
 10
175.6109232761297
 20
98.52022348506357
 30
0.0
 10
175.5823648688121
 20
98.35723829716211
 30
0.0
 10
175.5689035172951
 20
98.20629252916198
 30
0.0
 10
175.5768454908839
 20
98.09868636510852
 30
0.0
 10
175.5936799305637
 20
98.0705427965226
 30
0.0
 10
175.6006526520664
 20
98.05888590329815
 30
0.0
  0
LWPOLYLINE
  5
F3
330
1F
100
AcDbEntity
  8
0
  6
HIDDEN
 62
     7
370
     0
100
AcDbPolyline
 90
        9
 70
   128
 43
0.0
 10
175.6080449684
 20
98.0426338344
 10
175.6384027019
 20
98.0382202881
 10
175.6524854055
 20
98.062016058
 10
175.6578920285
 20
98.1007915883
 10
175.654841744
 20
98.1579890049
 10
175.6426007086
 20
98.236911221
 10
175.6168419308
 20
98.3667298611
 10
175.5851169607
 20
98.5468563906
 10
175.5726183516
 20
98.7051508635
  0
SPLINE
  5
F4
330
1F
100
AcDbEntity
  8
0
  6
HIDDEN
 62
     7
370
     0
100
AcDbSpline
210
0.0
220
0.0
230
1.0
 70
     8
 71
     3
 72
     8
 73
     4
 74
     0
 42
0.00000001
 43
0.00000001
 40
0.0
 40
0.0
 40
0.0
 40
0.0
 40
1.0
 40
1.0
 40
1.0
 40
1.0
 10
178.3146523907767
 20
103.7488219214049
 30
0.0
 10
178.2733933720422
 20
103.7856336373053
 30
0.0
 10
178.2278239620964
 20
103.8245823645732
 30
0.0
 10
178.1778443334464
 20
103.867839079235
 30
0.0
  0
SPLINE
  5
F5
330
1F
100
AcDbEntity
  8
0
  6
HIDDEN
 62
     7
370
     0
100
AcDbSpline
210
0.0
220
0.0
230
1.0
 70
     8
 71
     3
 72
    34
 73
    30
 74
     0
 42
0.00000001
 43
0.00000001
 40
0.0
 40
0.0
 40
0.0
 40
0.0
 40
0.0625000000000006
 40
0.0625000000000006
 40
0.1250000000000011
 40
0.1250000000000011
 40
0.2500000000000023
 40
0.2500000000000023
 40
0.3125000000000028
 40
0.3125000000000028
 40
0.3750000000000034
 40
0.3750000000000034
 40
0.5000000000000027
 40
0.5000000000000027
 40
0.5625000000000023
 40
0.5625000000000023
 40
0.625000000000002
 40
0.625000000000002
 40
0.6875000000000017
 40
0.6875000000000017
 40
0.7500000000000013
 40
0.7500000000000013
 40
0.8125000000000011
 40
0.8125000000000011
 40
0.8750000000000008
 40
0.8750000000000008
 40
0.9375000000000004
 40
0.9375000000000004
 40
1.0
 40
1.0
 40
1.0
 40
1.0
 10
178.1778443334464
 20
103.867839079235
 30
0.0
 10
178.0757295776476
 20
103.9562180643067
 30
0.0
 10
177.9597578915307
 20
104.0319852250748
 30
0.0
 10
177.7002506859818
 20
104.1562786827794
 30
0.0
 10
177.5599906632864
 20
104.2027469848686
 30
0.0
 10
177.1217583838937
 20
104.2880965105821
 30
0.0
 10
176.8066940318693
 20
104.2686820195857
 30
0.0
 10
176.3892455169135
 20
104.1341196864435
 30
0.0
 10
176.2565906947879
 20
104.0713950642202
 30
0.0
 10
176.0232291177599
 20
103.9216510988554
 30
0.0
 10
175.9191130645663
 20
103.8325262339113
 30
0.0
 10
175.6663956205089
 20
103.5447065631414
 30
0.0
 10
175.5727026170329
 20
103.3201144179535
 30
0.0
 10
175.5725763067089
 20
103.0005287228341
 30
0.0
 10
175.5949116228255
 20
102.8984455053746
 30
0.0
 10
175.6842255312485
 20
102.7051303676798
 30
0.0
 10
175.7491338363016
 20
102.6178949131636
 30
0.0
 10
175.9191434158584
 20
102.4599967079524
 30
0.0
 10
176.0212662056138
 20
102.3923933634063
 30
0.0
 10
176.2558460310836
 20
102.2792414755098
 30
0.0
 10
176.387089250326
 20
102.234591346788
 30
0.0
 10
176.6657726374459
 20
102.1707035725837
 30
0.0
 10
176.8149195945883
 20
102.1512579415639
 30
0.0
 10
177.1132747911647
 20
102.1387590912232
 30
0.0
 10
177.2663362284993
 20
102.1456181211724
 30
0.0
 10
177.5574464615357
 20
102.1848677447354
 30
0.0
 10
177.6997891215111
 20
102.2178447418303
 30
0.0
 10
177.9574695093828
 20
102.3073685691737
 30
0.0
 10
178.0757269178481
 20
102.3646258776879
 30
0.0
 10
178.1778443334464
 20
102.4336316123899
 30
0.0
  0
SPLINE
  5
F6
330
1F
100
AcDbEntity
  8
0
  6
HIDDEN
 62
     7
370
     0
100
AcDbSpline
210
0.0
220
0.0
230
1.0
 70
     8
 71
     3
 72
     8
 73
     4
 74
     0
 42
0.00000001
 43
0.00000001
 40
0.0
 40
0.0
 40
0.0
 40
0.0
 40
1.0
 40
1.0
 40
1.0
 40
1.0
 10
178.1778443334464
 20
102.4336316123899
 30
0.0
 10
178.2278239620964
 20
102.4674052931564
 30
0.0
 10
178.2733933720422
 20
102.5100520576749
 30
0.0
 10
178.3146523907767
 20
102.5594090868998
 30
0.0
  0
SPLINE
  5
F7
330
1F
100
AcDbEntity
  8
0
  6
HIDDEN
 62
     7
370
     0
100
AcDbSpline
210
0.0
220
0.0
230
1.0
 70
     8
 71
     3
 72
    12
 73
     8
 74
     0
 42
0.00000001
 43
0.00000001
 40
0.0
 40
0.0
 40
0.0
 40
0.0
 40
0.25
 40
0.25
 40
0.5
 40
0.5
 40
1.0
 40
1.0
 40
1.0
 40
1.0
 10
178.3146523907767
 20
102.5594090868997
 30
0.0
 10
178.3983779564313
 20
102.6595676781033
 30
0.0
 10
178.4622586435124
 20
102.7625798054124
 30
0.0
 10
178.550171052824
 20
102.9762766928684
 30
0.0
 10
178.5724812234561
 20
103.083855231441
 30
0.0
 10
178.5728907197437
 20
103.4000043704821
 30
0.0
 10
178.4821089583213
 20
103.5994154696958
 30
0.0
 10
178.3146523907767
 20
103.7488219214049
 30
0.0
  0
SPLINE
  5
F8
330
1F
100
AcDbEntity
  8
0
  6
HIDDEN
 62
     7
370
     0
100
AcDbSpline
210
0.0
220
0.0
230
1.0
 70
     8
 71
     3
 72
    14
 73
    10
 74
     0
 42
0.00000001
 43
0.00000001
 40
0.0
 40
0.0
 40
0.0
 40
0.0
 40
0.25
 40
0.25
 40
0.5
 40
0.5
 40
0.75
 40
0.75
 40
1.0
 40
1.0
 40
1.0
 40
1.0
 10
176.1274377700179
 20
98.95385191991186
 30
0.0
 10
176.090968774384
 20
98.98670089640767
 30
0.0
 10
176.056025842224
 20
99.01831674076102
 30
0.0
 10
175.9962885008792
 20
99.08911388373087
 30
0.0
 10
175.9709993015562
 20
99.12905568569997
 30
0.0
 10
175.9615122023251
 20
99.24680404351743
 30
0.0
 10
175.9790072050779
 20
99.32310059649392
 30
0.0
 10
176.0272017743355
 20
99.4744370994288
 30
0.0
 10
176.057254324313
 20
99.55050707385865
 30
0.0
 10
176.0888382830404
 20
99.62560959467531
 30
0.0
  0
SPLINE
  5
F9
330
1F
100
AcDbEntity
  8
0
  6
HIDDEN
 62
     7
370
     0
100
AcDbSpline
210
0.0
220
0.0
230
1.0
 70
     8
 71
     3
 72
    10
 73
     6
 74
     0
 42
0.00000001
 43
0.00000001
 40
0.0
 40
0.0
 40
0.0
 40
0.0
 40
0.5
 40
0.5
 40
1.0
 40
1.0
 40
1.0
 40
1.0
 10
176.0888382830421
 20
99.62560959467706
 30
0.0
 10
176.1673186010945
 20
99.57281083638141
 30
0.0
 10
176.2337286611901
 20
99.4876524832078
 30
0.0
 10
176.2511725233191
 20
99.24620287860104
 30
0.0
 10
176.1986121545939
 20
99.10159173533431
 30
0.0
 10
176.1274377700181
 20
98.95385191991141
 30
0.0
  0
SPLINE
  5
FA
330
1F
100
AcDbEntity
  8
0
  6
HIDDEN
 62
     7
370
     0
100
AcDbSpline
210
0.0
220
0.0
230
1.0
 70
     8
 71
     3
 72
    48
 73
    44
 74
     0
 42
0.00000001
 43
0.00000001
 40
-0.0625000000000026
 40
-0.0625000000000026
 40
0.0
 40
0.0
 40
0.0312499999999984
 40
0.0312499999999984
 40
0.0624999999999968
 40
0.0624999999999968
 40
0.1249999999999947
 40
0.1249999999999947
 40
0.1874999999999926
 40
0.1874999999999926
 40
0.2499999999999905
 40
0.2499999999999905
 40
0.3124999999999883
 40
0.3124999999999883
 40
0.3437499999999882
 40
0.3437499999999882
 40
0.374999999999988
 40
0.374999999999988
 40
0.4062499999999879
 40
0.4062499999999879
 40
0.4374999999999877
 40
0.4374999999999877
 40
0.499999999999989
 40
0.499999999999989
 40
0.5624999999999902
 40
0.5624999999999902
 40
0.6249999999999916
 40
0.6249999999999916
 40
0.6874999999999928
 40
0.6874999999999928
 40
0.749999999999994
 40
0.749999999999994
 40
0.8124999999999953
 40
0.8124999999999953
 40
0.8437499999999959
 40
0.8437499999999959
 40
0.8749999999999963
 40
0.8749999999999963
 40
0.9062499999999969
 40
0.9062499999999969
 40
0.9374999999999974
 40
0.9374999999999974
 40
1.0
 40
1.0
 40
1.031249999999998
 40
1.031249999999998
 10
178.2034083289178
 20
97.25852444913322
 30
0.0
 10
178.3254761594349
 20
97.2619157743551
 30
0.0
 10
178.3639384893524
 20
97.27036259030139
 30
0.0
 10
178.434087965119
 20
97.3026374543556
 30
0.0
 10
178.4661050978941
 20
97.32691021182143
 30
0.0
 10
178.5448406848118
 20
97.4237328733427
 30
0.0
 10
178.5745690856326
 20
97.52288251107767
 30
0.0
 10
178.5704573316025
 20
97.77180431284741
 30
0.0
 10
178.5364112389371
 20
97.92240575994194
 30
0.0
 10
178.4250450804124
 20
98.23132093047046
 30
0.0
 10
178.3486461568218
 20
98.3900808100963
 30
0.0
 10
178.1854729765574
 20
98.69785205693456
 30
0.0
 10
178.0968335105419
 20
98.84858958984475
 30
0.0
 10
177.9876194098129
 20
99.06651480336726
 30
0.0
 10
177.9546978621011
 20
99.1396704630597
 30
0.0
 10
177.9102471491012
 20
99.27920710670547
 30
0.0
 10
177.8990143306771
 20
99.34720774207406
 30
0.0
 10
177.9058021291011
 20
99.4671412535852
 30
0.0
 10
177.9235490923867
 20
99.52055998824007
 30
0.0
 10
177.9756996188594
 20
99.60870706656962
 30
0.0
 10
178.0100727833266
 20
99.64482925265396
 30
0.0
 10
178.1220194440247
 20
99.73092860300468
 30
0.0
 10
178.2075034211781
 20
99.76002562039902
 30
0.0
 10
178.3656548990785
 20
99.76356421583374
 30
0.0
 10
178.4378997745134
 20
99.73759936235356
 30
0.0
 10
178.5435898308984
 20
99.61590229840625
 30
0.0
 10
178.5740888766566
 20
99.5190535391785
 30
0.0
 10
178.5710325007387
 20
99.26990446871126
 30
0.0
 10
178.5371098503443
 20
99.11696914584454
 30
0.0
 10
178.4271444227461
 20
98.80408824967826
 30
0.0
 10
178.3519891573533
 20
98.64313232761903
 30
0.0
 10
178.1932292276069
 20
98.333629865415
 30
0.0
 10
178.1065845069651
 20
98.18075139888417
 30
0.0
 10
177.9981143725194
 20
97.96212778339226
 30
0.0
 10
177.9651648058687
 20
97.88998079760708
 30
0.0
 10
177.9163752661083
 20
97.74763278774526
 30
0.0
 10
177.9017836719847
 20
97.6793441358243
 30
0.0
 10
177.9017654351532
 20
97.55426337383498
 30
0.0
 10
177.9164476621123
 20
97.4994018183544
 30
0.0
 10
177.966460038137
 20
97.40745579490695
 30
0.0
 10
178.0004463441677
 20
97.37113722983456
 30
0.0
 10
178.1147439127603
 20
97.28466414089553
 30
0.0
 10
178.2034083289178
 20
97.25852444913322
 30
0.0
 10
178.3254761594349
 20
97.2619157743551
 30
0.0
  0
LWPOLYLINE
  5
FB
330
1F
100
AcDbEntity
  8
0
  6
HIDDEN
 62
     7
370
     0
100
AcDbPolyline
 90
       17
 70
   128
 43
0.0
 10
177.0726183516
 20
95.8942716737
 10
176.498593203
 20
95.9750096218
 10
176.0119581798
 20
96.2049318455
 10
175.6867990528
 20
96.5490347704
 10
175.5726183516
 20
96.9549318455
 10
175.6867990528
 20
97.3608289206
 10
176.0119581798
 20
97.7049318455
 10
176.498593203
 20
97.9348540692
 10
177.0726183516
 20
98.0155920173
 10
177.6466435001
 20
97.9348540692
 10
178.1332785233
 20
97.7049318455
 10
178.4584376503
 20
97.3608289206
 10
178.5726183516
 20
96.9549318455
 10
178.4584376503
 20
96.5490347704
 10
178.1332785233
 20
96.2049318455
 10
177.6466435001
 20
95.9750096218
 10
177.0726183516
 20
95.8942716737
  0
LINE
  5
FC
330
1F
100
AcDbEntity
  8
0
  6
HIDDEN
 62
     7
370
     0
100
AcDbLine
 10
148.3726183516
 20
95.9757471257
 30
0.0
 11
148.3726183516
 21
121.9757471257
 31
0.0
  0
LINE
  5
FD
330
1F
100
AcDbEntity
  8
0
  6
HIDDEN
 62
     7
370
     0
100
AcDbLine
 10
152.3726183516
 20
95.9757471257
 30
0.0
 11
152.3726183516
 21
121.9757471257
 31
0.0
  0
LINE
  5
FE
330
1F
100
AcDbEntity
  8
0
  6
HIDDEN
 62
     7
370
     0
100
AcDbLine
 10
137.2726183516
 20
97.7257471257
 30
0.0
 11
137.2726183516
 21
120.2257471257
 31
0.0
  0
ARC
  5
FF
330
1F
100
AcDbEntity
  8
0
  6
HIDDEN
 62
     7
370
     0
100
AcDbCircle
 10
162.9497748057
 20
98.5336455068
 30
0.0
 40
13.18436098680672
100
AcDbArc
 50
1.8264163085
 51
4.7508319696
  0
ELLIPSE
  5
100
330
1F
100
AcDbEntity
  8
0
  6
HIDDEN
 62
     7
370
     0
100
AcDbEllipse
 10
67.8879451513
 20
108.9757471257
 30
0.0
 11
31.08108570811662
 21
-1.421085471520200E-14
 31
0.0
210
0.0
220
0.0
230
1.0
 40
0.8164965809
 41
4.915995335118103
 42
4.970536038964788
  0
ELLIPSE
  5
101
330
1F
100
AcDbEntity
  8
0
  6
HIDDEN
 62
     7
370
     0
100
AcDbEllipse
 10
67.8879451513
 20
108.9757471257
 30
0.0
 11
31.08108570811662
 21
1.421085471520200E-14
 31
0.0
210
0.0
220
0.0
230
1.0
 40
0.8164965809
 41
1.312649268214811
 42
1.367189972061495
  0
LINE
  5
102
330
1F
100
AcDbEntity
  8
0
  6
HIDDEN
 62
     7
370
     0
100
AcDbLine
 10
153.0226183516
 20
65.0757471257
 30
0.0
 11
139.0226183516
 21
65.0757471257
 31
0.0
  0
LINE
  5
103
330
1F
100
AcDbEntity
  8
0
  6
HIDDEN
 62
     7
370
     0
100
AcDbLine
 10
129.0226183516
 20
58.9857481259
 30
0.0
 11
129.0226183516
 21
65.0757471257
 31
0.0
  0
LINE
  5
104
330
1F
100
AcDbEntity
  8
0
  6
HIDDEN
 62
     7
370
     0
100
AcDbLine
 10
139.0226183516
 20
65.0757471257
 30
0.0
 11
129.0226183516
 21
65.0757471257
 31
0.0
  0
ARC
  5
105
330
1F
100
AcDbEntity
  8
0
  6
HIDDEN
 62
     7
370
     0
100
AcDbCircle
 10
192.2968090355
 20
98.5362374924
 30
0.0
 40
16.21605523623312
100
AcDbArc
 50
181.8092943
 51
184.3486370525
  0
LINE
  5
106
330
1F
100
AcDbEntity
  8
0
  6
HIDDEN
 62
     7
370
     0
100
AcDbLine
 10
89.2726183516
 20
81.6057471257
 30
0.0
 11
89.2726183516
 21
83.7472334953
 31
0.0
  0
LINE
  5
107
330
1F
100
AcDbEntity
  8
0
  6
HIDDEN
 62
     7
370
     0
100
AcDbLine
 10
75.8226183516
 20
81.6057471257
 30
0.0
 11
75.8226183516
 21
84.4390419679
 31
0.0
  0
LINE
  5
108
330
1F
100
AcDbEntity
  8
0
  6
HIDDEN
 62
     7
370
     0
100
AcDbLine
 10
84.2726183516
 20
136.3457471257
 30
0.0
 11
84.2726183516
 21
134.2042607561
 31
0.0
  0
LINE
  5
109
330
1F
100
AcDbEntity
  8
0
  6
HIDDEN
 62
     7
370
     0
100
AcDbLine
 10
75.8226183516
 20
136.3457471257
 30
0.0
 11
75.8226183516
 21
133.5124522835
 31
0.0
  0
LINE
  5
10A
330
1F
100
AcDbEntity
  8
0
  6
HIDDEN
 62
     7
370
     0
100
AcDbLine
 10
139.0226183516
 20
152.8757471257
 30
0.0
 11
129.0226183516
 21
152.8757471257
 31
0.0
  0
LINE
  5
10B
330
1F
100
AcDbEntity
  8
0
  6
HIDDEN
 62
     7
370
     0
100
AcDbLine
 10
153.0226183516
 20
152.8757471257
 30
0.0
 11
139.0226183516
 21
152.8757471257
 31
0.0
  0
SPLINE
  5
10C
330
1F
100
AcDbEntity
  8
0
  6
HIDDEN
 62
     7
370
     0
100
AcDbSpline
210
0.0
220
0.0
230
1.0
 70
     8
 71
     3
 72
    34
 73
    30
 74
     0
 42
0.00000001
 43
0.00000001
 40
0.0
 40
0.0
 40
0.0
 40
0.0
 40
0.0624999999999996
 40
0.0624999999999996
 40
0.1249999999999992
 40
0.1249999999999992
 40
0.2499999999999983
 40
0.2499999999999983
 40
0.3124999999999979
 40
0.3124999999999979
 40
0.3749999999999974
 40
0.3749999999999974
 40
0.4999999999999979
 40
0.4999999999999979
 40
0.5624999999999981
 40
0.5624999999999981
 40
0.6249999999999983
 40
0.6249999999999983
 40
0.6874999999999987
 40
0.6874999999999987
 40
0.7499999999999989
 40
0.7499999999999989
 40
0.8124999999999991
 40
0.8124999999999991
 40
0.8749999999999993
 40
0.8749999999999993
 40
0.9374999999999997
 40
0.9374999999999997
 40
1.0
 40
1.0
 40
1.0
 40
1.0
 10
178.1778443334464
 20
114.0836551721105
 30
0.0
 10
178.0757295776476
 20
113.9952761870388
 30
0.0
 10
177.9597578915307
 20
113.9195090262706
 30
0.0
 10
177.7002506859818
 20
113.7952155685661
 30
0.0
 10
177.5599906632864
 20
113.7487472664769
 30
0.0
 10
177.1217583838937
 20
113.6633977407634
 30
0.0
 10
176.8066940318693
 20
113.6828122317598
 30
0.0
 10
176.3892455169135
 20
113.817374564902
 30
0.0
 10
176.2565906947879
 20
113.8800991871253
 30
0.0
 10
176.0232291177599
 20
114.0298431524901
 30
0.0
 10
175.9191130645663
 20
114.1189680174342
 30
0.0
 10
175.6663956205089
 20
114.4067876882041
 30
0.0
 10
175.5727026170329
 20
114.6313798333919
 30
0.0
 10
175.5725763067089
 20
114.9509655285114
 30
0.0
 10
175.5949116228255
 20
115.0530487459709
 30
0.0
 10
175.6842255312485
 20
115.2463638836657
 30
0.0
 10
175.7491338363016
 20
115.3335993381819
 30
0.0
 10
175.9191434158584
 20
115.4914975433931
 30
0.0
 10
176.0212662056138
 20
115.5591008879391
 30
0.0
 10
176.2558460310836
 20
115.6722527758357
 30
0.0
 10
176.3870892503259
 20
115.7169029045575
 30
0.0
 10
176.6657726374459
 20
115.7807906787618
 30
0.0
 10
176.8149195945883
 20
115.8002363097816
 30
0.0
 10
177.1132747911647
 20
115.8127351601223
 30
0.0
 10
177.2663362284993
 20
115.8058761301731
 30
0.0
 10
177.5574464615357
 20
115.7666265066101
 30
0.0
 10
177.6997891215111
 20
115.7336495095152
 30
0.0
 10
177.9574695093828
 20
115.6441256821718
 30
0.0
 10
178.0757269178481
 20
115.5868683736576
 30
0.0
 10
178.1778443334464
 20
115.5178626389556
 30
0.0
  0
LINE
  5
10D
330
1F
100
AcDbEntity
  8
0
  6
HIDDEN
 62
     7
370
     0
100
AcDbLine
 10
175.0726183516
 20
101.0757471257
 30
0.0
 11
175.0726183516
 21
116.8757471257
 31
0.0
  0
SPLINE
  5
10E
330
1F
100
AcDbEntity
  8
0
  6
HIDDEN
 62
     7
370
     0
100
AcDbSpline
210
0.0
220
0.0
230
1.0
 70
     8
 71
     3
 72
     8
 73
     4
 74
     0
 42
0.00000001
 43
0.00000001
 40
0.0
 40
0.0
 40
0.0
 40
0.0
 40
1.0
 40
1.0
 40
1.0
 40
1.0
 10
178.1778443334464
 20
115.5178626389556
 30
0.0
 10
178.2278239620964
 20
115.484088958189
 30
0.0
 10
178.2733933720422
 20
115.4414421936706
 30
0.0
 10
178.3146523907767
 20
115.3920851644457
 30
0.0
  0
SPLINE
  5
10F
330
1F
100
AcDbEntity
  8
0
  6
HIDDEN
 62
     7
370
     0
100
AcDbSpline
210
0.0
220
0.0
230
1.0
 70
     8
 71
     3
 72
    12
 73
     8
 74
     0
 42
0.00000001
 43
0.00000001
 40
0.0
 40
0.0
 40
0.0
 40
0.0
 40
0.25
 40
0.25
 40
0.5
 40
0.5
 40
1.0
 40
1.0
 40
1.0
 40
1.0
 10
178.3146523907767
 20
115.3920851644457
 30
0.0
 10
178.3983779564313
 20
115.2919265732422
 30
0.0
 10
178.4622586435124
 20
115.1889144459331
 30
0.0
 10
178.550171052824
 20
114.9752175584771
 30
0.0
 10
178.5724812234561
 20
114.8676390199045
 30
0.0
 10
178.5728907197437
 20
114.5514898808634
 30
0.0
 10
178.4821089583213
 20
114.3520787816497
 30
0.0
 10
178.3146523907767
 20
114.2026723299406
 30
0.0
  0
LINE
  5
110
330
1F
100
AcDbEntity
  8
0
  6
HIDDEN
 62
     7
370
     0
100
AcDbLine
 10
179.0726183516
 20
100.9757471257
 30
0.0
 11
179.0726183516
 21
116.9757471257
 31
0.0
  0
SPLINE
  5
111
330
1F
100
AcDbEntity
  8
0
  6
HIDDEN
 62
     7
370
     0
100
AcDbSpline
210
0.0
220
0.0
230
1.0
 70
     8
 71
     3
 72
    30
 73
    26
 74
     0
 42
0.00000001
 43
0.00000001
 40
0.0
 40
0.0
 40
0.0
 40
0.0
 40
0.0531240803608312
 40
0.1125059988685758
 40
0.1779044870208582
 40
0.2129292088635752
 40
0.2494830018711864
 40
0.2912496091675454
 40
0.3260925930850084
 40
0.3540082411754764
 40
0.3749939061514337
 40
0.4414527814300359
 40
0.5001714506909403
 40
0.5546871467499898
 40
0.6144324374262521
 40
0.6794589596313931
 40
0.7140165893750993
 40
0.7499142179657889
 40
0.7913794799604176
 40
0.8260470497237092
 40
0.8539131433730247
 40
0.8749749087556327
 40
0.9411625814258556
 40
0.9999141552924076
 40
0.9999999999999999
 40
0.9999999999999999
 40
0.9999999999999999
 40
0.9999999999999999
 10
115.0721243510045
 20
71.87582971581996
 30
0.0
 10
115.0559317105445
 20
71.8807288730542
 30
0.0
 10
115.0216389909925
 20
71.89110429178156
 30
0.0
 10
114.7203451832182
 20
71.96675203401571
 30
0.0
 10
114.278179404038
 20
72.06303761127685
 30
0.0
 10
113.7833462771754
 20
72.16270255017415
 30
0.0
 10
113.3128706914017
 20
72.25498067160392
 30
0.0
 10
112.7819492419026
 20
72.35061271176849
 30
0.0
 10
112.2437987453388
 20
72.43626295317692
 30
0.0
 10
111.78575141002
 20
72.50355474650355
 30
0.0
 10
111.1301870891513
 20
72.59190291540013
 30
0.0
 10
110.2468806510106
 20
72.68856099969261
 30
0.0
 10
109.1182189183393
 20
72.77533617644278
 30
0.0
 10
108.0284571685836
 20
72.8134148741588
 30
0.0
 10
106.9324288901561
 20
72.81526530892144
 30
0.0
 10
106.0270376432115
 20
72.78910385333653
 30
0.0
 10
105.3307349327966
 20
72.75249662820762
 30
0.0
 10
104.8040552045215
 20
72.71347975273055
 30
0.0
 10
104.3374090894889
 20
72.67127062525863
 30
0.0
 10
103.9661938137651
 20
72.63426653568925
 30
0.0
 10
103.712147336523
 20
72.60556577524491
 30
0.0
 10
103.4110921838136
 20
72.56918582465502
 30
0.0
 10
103.1556083890097
 20
72.53640565766858
 30
0.0
 10
103.0563876640643
 20
72.52006777295966
 30
0.0
 10
103.0726682213469
 20
72.5226613591329
 30
0.0
 10
103.0726919749329
 20
72.52266514321539
 30
0.0
  0
SPLINE
  5
112
330
1F
100
AcDbEntity
  8
0
  6
HIDDEN
 62
     7
370
     0
100
AcDbSpline
210
0.0
220
0.0
230
1.0
 70
     8
 71
     3
 72
    30
 73
    26
 74
     0
 42
0.00000001
 43
0.00000001
 40
0.0
 40
0.0
 40
0.0
 40
0.0
 40
0.0001200707549341
 40
0.0285506370810472
 40
0.0588539667860429
 40
0.0910342344622855
 40
0.1250948652896306
 40
0.1546831593356711
 40
0.1963616785227372
 40
0.2501159558905076
 40
0.3205306482872659
 40
0.3856151871318485
 40
0.4454081550266782
 40
0.4999610409727114
 40
0.5283530907557765
 40
0.558637444445505
 40
0.5908217647170266
 40
0.6249123757161792
 40
0.6541871351724965
 40
0.6958653627413168
 40
0.7499326654591103
 40
0.821591909961664
 40
0.8871431648084007
 40
0.9466382880600801
 40
1.0
 40
1.0
 40
1.0
 40
1.0
 10
103.072720248508
 20
145.4287574028039
 30
0.0
 10
103.0726861843142
 20
145.4287648304688
 30
0.0
 10
103.0645863399027
 20
145.4305309937812
 30
0.0
 10
103.0932456820604
 20
145.4250765417742
 30
0.0
 10
103.1666350524726
 20
145.4145331882435
 30
0.0
 10
103.310290854725
 20
145.3948481292411
 30
0.0
 10
103.5113267619316
 20
145.3700088238266
 30
0.0
 10
103.7939572579474
 20
145.3358003693666
 30
0.0
 10
104.2073664035409
 20
145.2921204685923
 30
0.0
 10
104.8836538967062
 20
145.2290774026666
 30
0.0
 10
105.8220848005378
 20
145.1677802316492
 30
0.0
 10
106.9315780132584
 20
145.1364917883042
 30
0.0
 10
108.0290587441309
 20
145.138146955864
 30
0.0
 10
108.9290899825485
 20
145.1694531579693
 30
0.0
 10
109.6404309084047
 20
145.2162863067707
 30
0.0
 10
110.2058478093943
 20
145.2634531686668
 30
0.0
 10
110.794771232223
 20
145.3228921752168
 30
0.0
 10
111.3591808847004
 20
145.3892493818248
 30
0.0
 10
111.9533770786366
 20
145.4711687882563
 30
0.0
 10
112.6199852396071
 20
145.5728167710068
 30
0.0
 10
113.4213179853073
 20
145.714955681607
 30
0.0
 10
114.1738279698152
 20
145.8662002523734
 30
0.0
 10
114.7191144647814
 20
145.9840511256328
 30
0.0
 10
115.0218359962802
 20
146.0602803573821
 30
0.0
 10
115.0561264468933
 20
146.0707326668766
 30
0.0
 10
115.0723398835433
 20
146.0756747966768
 30
0.0
  0
SPLINE
  5
113
330
1F
100
AcDbEntity
  8
0
  6
HIDDEN
 62
     7
370
     0
100
AcDbSpline
210
0.0
220
0.0
230
1.0
 70
     8
 71
     3
 72
     8
 73
     4
 74
     0
 42
0.00000001
 43
0.00000001
 40
0.0
 40
0.0
 40
0.0
 40
0.0
 40
1.0
 40
1.0
 40
1.0
 40
1.0
 10
178.3146523907767
 20
114.2026723299406
 30
0.0
 10
178.2733933720422
 20
114.1658606140402
 30
0.0
 10
178.2278239620964
 20
114.1269118867723
 30
0.0
 10
178.1778443334464
 20
114.0836551721105
 30
0.0
  0
LINE
  5
114
330
1F
100
AcDbEntity
  8
0
  6
HIDDEN
 62
     7
370
     0
100
AcDbLine
 10
168.5226183516
 20
85.5530973949
 30
0.0
 11
163.5226183516
 21
85.5530973949
 31
0.0
  0
LINE
  5
115
330
1F
100
AcDbEntity
  8
0
  6
HIDDEN
 62
     7
370
     0
100
AcDbLine
 10
166.0226183516
 20
132.3983968565
 30
0.0
 11
168.5226183516
 21
132.3983968565
 31
0.0
  0
LINE
  5
116
330
1F
100
AcDbEntity
  8
0
  6
HIDDEN
 62
     7
370
     0
100
AcDbLine
 10
163.5226183516
 20
132.3983968565
 30
0.0
 11
166.0226183516
 21
132.3983968565
 31
0.0
  0
LINE
  5
117
330
1F
100
AcDbEntity
  8
0
  6
HIDDEN
 62
     7
370
     0
100
AcDbLine
 10
166.0226183516
 20
120.9757471257
 30
0.0
 11
168.5226183516
 21
120.9757471257
 31
0.0
  0
LINE
  5
118
330
1F
100
AcDbEntity
  8
0
  6
HIDDEN
 62
     7
370
     0
100
AcDbLine
 10
163.5226183516
 20
120.9757471257
 30
0.0
 11
166.0226183516
 21
120.9757471257
 31
0.0
  0
LINE
  5
119
330
1F
100
AcDbEntity
  8
0
  6
HIDDEN
 62
     7
370
     0
100
AcDbLine
 10
168.5226183516
 20
96.9757471257
 30
0.0
 11
163.5226183516
 21
96.9757471257
 31
0.0
  0
LWPOLYLINE
  5
11A
330
1F
100
AcDbEntity
  8
0
  6
HIDDEN
 62
     7
370
     0
100
AcDbPolyline
 90
       16
 70
   128
 43
0.0
 10
178.5395057033
 20
120.5110876364
 10
178.3095033447
 20
120.8895037535
 10
177.8929794985
 20
121.177432986
 10
177.3527457017
 20
121.3314557849
 10
176.7702688748
 20
121.3283456077
 10
176.2333861608
 20
121.1685714674
 10
175.8230591392
 20
120.8762272049
 10
175.6011648695
 20
120.4953981531
 10
175.6011648695
 20
120.0835130962
 10
175.8230591392
 20
119.7026840444
 10
176.2333861608
 20
119.4103397819
 10
176.7702688748
 20
119.2505656416
 10
177.3527457017
 20
119.2474554645
 10
177.8929794985
 20
119.4014782633
 10
178.3095033447
 20
119.6894074958
 10
178.5395057033
 20
120.0678236129
  0
SPLINE
  5
11B
330
1F
100
AcDbEntity
  8
0
  6
HIDDEN
 62
     7
370
     0
100
AcDbSpline
210
0.0
220
0.0
230
1.0
 70
     8
 71
     3
 72
    46
 73
    42
 74
     0
 42
0.00000001
 43
0.00000001
 40
0.0
 40
0.0
 40
0.0
 40
0.0
 40
0.0624999999999993
 40
0.0624999999999993
 40
0.1249999999999987
 40
0.1249999999999987
 40
0.1562499999999986
 40
0.1562499999999986
 40
0.1874999999999986
 40
0.1874999999999986
 40
0.2187499999999986
 40
0.2187499999999986
 40
0.2499999999999986
 40
0.2499999999999986
 40
0.3124999999999985
 40
0.3124999999999985
 40
0.3749999999999984
 40
0.3749999999999984
 40
0.4374999999999984
 40
0.4374999999999984
 40
0.4687499999999979
 40
0.4687499999999979
 40
0.4999999999999976
 40
0.4999999999999976
 40
0.5624999999999967
 40
0.5624999999999967
 40
0.6249999999999958
 40
0.6249999999999958
 40
0.6874999999999949
 40
0.6874999999999949
 40
0.749999999999994
 40
0.749999999999994
 40
0.7812499999999941
 40
0.7812499999999941
 40
0.8124999999999942
 40
0.8124999999999942
 40
0.8749999999999961
 40
0.8749999999999961
 40
0.937499999999998
 40
0.937499999999998
 40
1.0
 40
1.0
 40
1.0
 40
1.0
 10
178.5395057033112
 20
120.0678236128781
 30
0.0
 10
178.5063738227843
 20
119.9306792761939
 30
0.0
 10
178.4512605310796
 20
119.7867652593765
 30
0.0
 10
178.3170025690865
 20
119.4968359281856
 30
0.0
 10
178.238434448098
 20
119.3528908214644
 30
0.0
 10
178.1230014394676
 20
119.1439262498461
 30
0.0
 10
178.0850493112654
 20
119.0755456664176
 30
0.0
 10
178.0141419866976
 20
118.9396037714024
 30
0.0
 10
177.9809681997141
 20
118.8715166811922
 30
0.0
 10
177.9294348366498
 20
118.7400016888462
 30
0.0
 10
177.9108453750548
 20
118.6748097955831
 30
0.0
 10
177.898024403149
 20
118.5555924889132
 30
0.0
 10
177.9037786275056
 20
118.5001098831114
 30
0.0
 10
177.9516377143656
 20
118.3565764414861
 30
0.0
 10
178.020148202066
 20
118.2900897481606
 30
0.0
 10
178.1646671680749
 20
118.2051437121023
 30
0.0
 10
178.2436848873293
 20
118.1855765533407
 30
0.0
 10
178.3859088739239
 20
118.1950311800513
 30
0.0
 10
178.4513603388334
 20
118.2247099153517
 30
0.0
 10
178.5213785127595
 20
118.312940004046
 30
0.0
 10
178.540367855195
 20
118.3503250796557
 30
0.0
 10
178.5657253484457
 20
118.4378670284522
 30
0.0
 10
178.5724589305241
 20
118.4881842180772
 30
0.0
 10
178.5729288674233
 20
118.6605113656716
 30
0.0
 10
178.5456614399974
 20
118.7977489450728
 30
0.0
 10
178.4527061070087
 20
119.0834333053295
 30
0.0
 10
178.3874827826393
 20
119.2321580730852
 30
0.0
 10
178.2451850783187
 20
119.5204485741552
 30
0.0
 10
178.1661605699332
 20
119.6633329604805
 30
0.0
 10
178.0213210821169
 20
119.9381476350554
 30
0.0
 10
177.9524555439546
 20
120.0740287083612
 30
0.0
 10
177.9038334957378
 20
120.2655352673961
 30
0.0
 10
177.8979399375778
 20
120.3253148143823
 30
0.0
 10
177.9107692438866
 20
120.4342657628189
 30
0.0
 10
177.9289846706699
 20
120.480957485301
 30
0.0
 10
178.0068390376438
 20
120.5999080239874
 30
0.0
 10
178.0844475048219
 20
120.6481253090184
 30
0.0
 10
178.2383941527607
 20
120.6970570977367
 30
0.0
 10
178.3164983390951
 20
120.6973966126234
 30
0.0
 10
178.4506686890365
 20
120.6456250097804
 30
0.0
 10
178.5063929620582
 20
120.593181574628
 30
0.0
 10
178.5395057033112
 20
120.5110876364369
 30
0.0
  0
SPLINE
  5
11C
330
1F
100
AcDbEntity
  8
0
  6
HIDDEN
 62
     7
370
     0
100
AcDbSpline
210
0.0
220
0.0
230
1.0
 70
     8
 71
     3
 72
    14
 73
    10
 74
     0
 42
0.00000001
 43
0.00000001
 40
0.0
 40
0.0
 40
0.0
 40
0.0
 40
0.25
 40
0.25
 40
0.5
 40
0.5
 40
0.75
 40
0.75
 40
1.0
 40
1.0
 40
1.0
 40
1.0
 10
176.1274377700179
 20
118.9976423314338
 30
0.0
 10
176.090968774384
 20
118.964793354938
 30
0.0
 10
176.0560258422239
 20
118.9331775105846
 30
0.0
 10
175.9962885008791
 20
118.8623803676148
 30
0.0
 10
175.970999301556
 20
118.8224385656457
 30
0.0
 10
175.9615122023249
 20
118.7046902078282
 30
0.0
 10
175.9790072050778
 20
118.6283936548516
 30
0.0
 10
176.0272017743354
 20
118.4770571519166
 30
0.0
 10
176.057254324313
 20
118.4009871774867
 30
0.0
 10
176.0888382830404
 20
118.32588465667
 30
0.0
  0
SPLINE
  5
11D
330
1F
100
AcDbEntity
  8
0
  6
HIDDEN
 62
     7
370
     0
100
AcDbSpline
210
0.0
220
0.0
230
1.0
 70
     8
 71
     3
 72
    10
 73
     6
 74
     0
 42
0.00000001
 43
0.00000001
 40
0.0
 40
0.0
 40
0.0
 40
0.0
 40
0.5
 40
0.5
 40
1.0
 40
1.0
 40
1.0
 40
1.0
 10
176.0888382830421
 20
118.3258846566682
 30
0.0
 10
176.1673186010946
 20
118.3786834149639
 30
0.0
 10
176.2337286611902
 20
118.4638417681376
 30
0.0
 10
176.2511725233193
 20
118.7052913727445
 30
0.0
 10
176.1986121545939
 20
118.8499025160113
 30
0.0
 10
176.127437770018
 20
118.9976423314343
 30
0.0
  0
SPLINE
  5
11E
330
1F
100
AcDbEntity
  8
0
  6
HIDDEN
 62
     7
370
     0
100
AcDbSpline
210
0.0
220
0.0
230
1.0
 70
     8
 71
     3
 72
    10
 73
     6
 74
     0
 42
0.00000001
 43
0.00000001
 40
0.0
 40
0.0
 40
0.0
 40
0.0
 40
0.5041480232557936
 40
0.9976150031748585
 40
1.0
 40
1.0
 40
1.0
 40
1.0
 10
175.5920087763023
 20
119.5436361028871
 30
0.0
 10
175.5847582215181
 20
119.5994561988499
 30
0.0
 10
175.5704107245521
 20
119.7099137681396
 30
0.0
 10
175.5699514747969
 20
119.8058493961172
 30
0.0
 10
175.5778818461651
 20
119.8301650876019
 30
0.0
 10
175.5779199904328
 20
119.830282043568
 30
0.0
  0
SPLINE
  5
11F
330
1F
100
AcDbEntity
  8
0
  6
HIDDEN
 62
     7
370
     0
100
AcDbSpline
210
0.0
220
0.0
230
1.0
 70
     8
 71
     3
 72
    18
 73
    14
 74
     0
 42
0.00000001
 43
0.00000001
 40
0.0
 40
0.0
 40
0.0
 40
0.0
 40
0.0034843705631991
 40
0.1447456796354171
 40
0.2135437618056187
 40
0.2697776213437014
 40
0.326410437196551
 40
0.3870862909225831
 40
0.4810758529987456
 40
0.6213704360341207
 40
0.7638466556597246
 40
0.9105219170619859
 40
0.9999999999999999
 40
0.9999999999999999
 40
0.9999999999999999
 40
0.9999999999999999
 10
175.599790189267
 20
119.8975530796789
 30
0.0
 10
175.5999884188178
 20
119.8981719956845
 30
0.0
 10
175.6082231546287
 20
119.923882641623
 30
0.0
 10
175.6305872489251
 20
119.9231416258266
 30
0.0
 10
175.6509746795431
 20
119.9007164323502
 30
0.0
 10
175.6592913079793
 20
119.8609367634895
 30
0.0
 10
175.6569053892744
 20
119.8001756202241
 30
0.0
 10
175.6426566312623
 20
119.7101764126925
 30
0.0
 10
175.6152690421289
 20
119.5791387839723
 30
0.0
 10
175.584159492697
 20
119.4169869703206
 30
0.0
 10
175.5688426310057
 20
119.2572238578633
 30
0.0
 10
175.5759611187254
 20
119.143975129488
 30
0.0
 10
175.5942611067421
 20
119.1134775022301
 30
0.0
 10
175.6011949397145
 20
119.1019220054032
 30
0.0
  0
LWPOLYLINE
  5
120
330
1F
100
AcDbEntity
  8
0
  6
HIDDEN
 62
     7
370
     0
100
AcDbPolyline
 90
        8
 70
   128
 43
0.0
 10
175.6129824619
 20
119.0765891811
 10
175.6387295457
 20
119.0711836028
 10
175.6526954233
 20
119.092487068
 10
175.6578833034
 20
119.1291716977
 10
175.6553334563
 20
119.1827100845
 10
175.6429406077
 20
119.2668755131
 10
175.6156080022
 20
119.4104618033
 10
175.5920087763
 20
119.5436361029
  0
SPLINE
  5
121
330
1F
100
AcDbEntity
  8
0
  6
HIDDEN
 62
     7
370
     0
100
AcDbSpline
210
0.0
220
0.0
230
1.0
 70
     8
 71
     3
 72
    14
 73
    10
 74
     0
 42
0.00000001
 43
0.00000001
 40
0.0
 40
0.0
 40
0.0
 40
0.0
 40
0.25
 40
0.25
 40
0.5
 40
0.5
 40
0.75
 40
0.75
 40
1.0
 40
1.0
 40
1.0
 40
1.0
 10
176.0888382830417
 20
119.9272445642322
 30
0.0
 10
176.0571915537594
 20
119.9636126172587
 30
0.0
 10
176.026994225183
 20
119.9993659707952
 30
0.0
 10
175.9789206203581
 20
120.0813330777265
 30
0.0
 10
175.9614351520268
 20
120.1300120425488
 30
0.0
 10
175.9711449883861
 20
120.2629729201098
 30
0.0
 10
175.9964697626238
 20
120.3415805387026
 30
0.0
 10
176.0561647793231
 20
120.49442771938
 30
0.0
 10
176.0910277077385
 20
120.570261332883
 30
0.0
 10
176.1274377700177
 20
120.6448421786073
 30
0.0
  0
SPLINE
  5
122
330
1F
100
AcDbEntity
  8
0
  6
HIDDEN
 62
     7
370
     0
100
AcDbSpline
210
0.0
220
0.0
230
1.0
 70
     8
 71
     3
 72
    14
 73
    10
 74
     0
 42
0.00000001
 43
0.00000001
 40
0.0
 40
0.0
 40
0.0
 40
0.0
 40
0.25
 40
0.25
 40
0.5
 40
0.5
 40
0.75
 40
0.75
 40
1.0
 40
1.0
 40
1.0
 40
1.0
 10
176.1274377700181
 20
120.6448421786077
 30
0.0
 10
176.1630110239692
 20
120.6118258171798
 30
0.0
 10
176.1939128549882
 20
120.571775042653
 30
0.0
 10
176.2364669755683
 20
120.4733124005464
 30
0.0
 10
176.2466936257279
 20
120.4164967499217
 30
0.0
 10
176.2383595192313
 20
120.2885593851142
 30
0.0
 10
176.2197418823966
 20
120.2188262883743
 30
0.0
 10
176.1642364998438
 20
120.0753075217289
 30
0.0
 10
176.1281438504843
 20
120.0019819430113
 30
0.0
 10
176.088838283042
 20
119.9272445642308
 30
0.0
  0
SPLINE
  5
123
330
1F
100
AcDbEntity
  8
0
  6
HIDDEN
 62
     7
370
     0
100
AcDbSpline
210
0.0
220
0.0
230
1.0
 70
     8
 71
     3
 72
    10
 73
     6
 74
     0
 42
0.00000001
 43
0.00000001
 40
0.0
 40
0.0
 40
0.0
 40
0.0
 40
0.5
 40
0.5
 40
1.0
 40
1.0
 40
1.0
 40
1.0
 10
178.5395057033112
 20
120.5110876364369
 30
0.0
 10
178.5151911008259
 20
120.4595197194617
 30
0.0
 10
178.5037783703351
 20
120.3938502791876
 30
0.0
 10
178.5037576795732
 20
120.2437695015542
 30
0.0
 10
178.5151186518514
 20
120.1575726892728
 30
0.0
 10
178.5395057033112
 20
120.0678236128781
 30
0.0
  0
ARC
  5
124
330
1F
100
AcDbEntity
  8
0
  6
HIDDEN
 62
     7
370
     0
100
AcDbCircle
 10
192.2968090333
 20
119.415256759
 30
0.0
 40
16.21605523408321
100
AcDbArc
 50
175.6513629474
 51
178.1907057002
  0
LWPOLYLINE
  5
125
330
1F
100
AcDbEntity
  8
0
  6
HIDDEN
 62
     7
370
     0
100
AcDbPolyline
 90
       31
 70
   128
 43
0.0
 10
133.0726183516
 20
154.2884529775
 10
134.1121768057
 20
154.2546891637
 10
135.1063015669
 20
154.1548733633
 10
136.011544613
 20
153.9933680056
 10
136.788342479
 20
153.7772316497
 10
137.4027453705
 20
153.5159104915
 10
137.827900933
 20
153.2208255196
 10
138.0452278284
 20
152.9048733633
 10
138.0452278284
 20
152.5818626478
 10
137.827900933
 20
152.2659104915
 10
137.4027453705
 20
151.9708255196
 10
136.788342479
 20
151.7095043615
 10
136.011544613
 20
151.4933680056
 10
135.1063015669
 20
151.3318626478
 10
134.1121768057
 20
151.2320468474
 10
133.0726183516
 20
151.1982830337
 10
132.0330598975
 20
151.2320468474
 10
131.0389351362
 20
151.3318626478
 10
130.1336920901
 20
151.4933680056
 10
129.3568942242
 20
151.7095043615
 10
128.7424913326
 20
151.9708255196
 10
128.3173357701
 20
152.2659104915
 10
128.1000088747
 20
152.5818626478
 10
128.1000088747
 20
152.9048733633
 10
128.3173357701
 20
153.2208255196
 10
128.7424913326
 20
153.5159104915
 10
129.3568942242
 20
153.7772316497
 10
130.1336920901
 20
153.9933680056
 10
131.0389351362
 20
154.1548733633
 10
132.0330598975
 20
154.2546891637
 10
133.0726183516
 20
154.2884529775
  0
LINE
  5
126
330
1F
100
AcDbEntity
  8
0
  6
HIDDEN
 62
     7
370
     0
100
AcDbLine
 10
147.3346473725
 20
147.9267098866
 30
0.0
 11
147.3346473725
 21
140.3257471257
 31
0.0
  0
LINE
  5
127
330
1F
100
AcDbEntity
  8
0
  6
HIDDEN
 62
     7
370
     0
100
AcDbLine
 10
142.1626183516
 20
143.6899823182
 30
0.0
 11
142.1626183516
 21
140.3257471257
 31
0.0
  0
LINE
  5
128
330
1F
100
AcDbEntity
  8
0
  6
HIDDEN
 62
     7
370
     0
100
AcDbLine
 10
145.9826183516
 20
143.6899823182
 30
0.0
 11
145.9826183516
 21
140.3257471257
 31
0.0
  0
ARC
  5
129
330
1F
100
AcDbEntity
  8
0
  6
HIDDEN
 62
     7
370
     0
100
AcDbCircle
 10
162.9497748051
 20
119.4178487445
 30
0.0
 40
13.18436098742253
100
AcDbArc
 50
355.2491680305
 51
358.1735836914
  0
CIRCLE
  5
12A
330
1F
100
AcDbEntity
  8
0
  6
HIDDEN
 62
     7
370
     0
100
AcDbCircle
 10
131.0726183516
 20
108.9757471257
 30
0.0
 40
5.000000000000014
  0
LWPOLYLINE
  5
12B
330
1F
100
AcDbEntity
  8
0
  6
HIDDEN
 62
     7
370
     0
100
AcDbPolyline
 90
       17
 70
   128
 43
0.0
 10
218.6573035108
 20
98.1833116015
 10
218.6421533064
 20
98.1448226763
 10
218.6215452961
 20
98.3326657041
 10
218.5986168627
 20
98.7182432867
 10
218.5768586522
 20
99.2428547326
 10
218.5595831551
 20
99.8266327046
 10
218.5494204091
 20
100.3807022985
 10
218.5479176002
 20
100.8207114412
 10
218.5553035174
 20
101.0796727295
 10
218.5704537217
 20
101.1181616548
 10
218.591061732
 20
100.9303186269
 10
218.6139901654
 20
100.5447410443
 10
218.6357483759
 20
100.0201295984
 10
218.653023873
 20
99.4363516264
 10
218.663186619
 20
98.8822820326
 10
218.664689428
 20
98.4422728898
 10
218.6573035108
 20
98.1833116015
  0
LWPOLYLINE
  5
12C
330
1F
100
AcDbEntity
  8
0
  6
HIDDEN
 62
     7
370
     0
100
AcDbPolyline
 90
       17
 70
   128
 43
0.0
 10
218.1406889937
 20
98.6521580152
 10
218.1305888575
 20
98.6264987317
 10
218.116850184
 20
98.7517274169
 10
218.1015645617
 20
99.0087791387
 10
218.0870590881
 20
99.3585201026
 10
218.07554209
 20
99.7477054172
 10
218.068766926
 20
100.1170851465
 10
218.0677650533
 20
100.410424575
 10
218.0726889981
 20
100.5830654339
 10
218.0827891344
 20
100.6087247174
 10
218.0965278079
 20
100.4834960322
 10
218.1118134302
 20
100.2264443104
 10
218.1263189038
 20
99.8767033465
 10
218.1378359019
 20
99.4875180318
 10
218.1446110659
 20
99.1181383026
 10
218.1456129385
 20
98.8247988741
 10
218.1406889937
 20
98.6521580152
  0
LWPOLYLINE
  5
12D
330
1F
100
AcDbEntity
  8
0
  6
HIDDEN
 62
     7
370
     0
100
AcDbPolyline
 90
       17
 70
   128
 43
0.0
 10
223.9912413146
 20
98.3315006676
 10
223.9760911103
 20
98.2930117424
 10
223.9554831
 20
98.4808547702
 10
223.9325546666
 20
98.8664323529
 10
223.9107964561
 20
99.3910437987
 10
223.893520959
 20
99.9748217707
 10
223.883358213
 20
100.5288913646
 10
223.8818554041
 20
100.9689005073
 10
223.8892413213
 20
101.2278617956
 10
223.9043915256
 20
101.2663507209
 10
223.9249995359
 20
101.0785076931
 10
223.9479279693
 20
100.6929301104
 10
223.9696861798
 20
100.1683186646
 10
223.9869616769
 20
99.5845406926
 10
223.9971244229
 20
99.0304710987
 10
223.9986272318
 20
98.5904619559
 10
223.9912413146
 20
98.3315006676
  0
ARC
  5
12E
330
1F
100
AcDbEntity
  8
0
  6
HIDDEN
 62
     7
370
     0
100
AcDbCircle
 10
237.545565495
 20
100.1396775066
 30
0.0
 40
13.50000978820828
100
AcDbArc
 50
176.3714903393
 51
186.6915291025
  0
LINE
  5
12F
330
1F
100
AcDbEntity
  8
0
  6
HIDDEN
 62
     7
370
     0
100
AcDbLine
 10
222.1330500027
 20
99.5049202496
 30
0.0
 11
222.1330500027
 21
98.8925478139
 31
0.0
  0
LINE
  5
130
330
1F
100
AcDbEntity
  8
0
  6
HIDDEN
 62
     7
370
     0
100
AcDbLine
 10
224.1315080752
 20
99.5604420135
 30
0.0
 11
224.1315080752
 21
98.9480695778
 31
0.0
  0
LINE
  5
131
330
1F
100
AcDbEntity
  8
0
  6
HIDDEN
 62
     7
370
     0
100
AcDbLine
 10
222.1330500027
 20
99.5049202496
 30
0.0
 11
224.1315080752
 21
99.5604420135
 31
0.0
  0
LINE
  5
132
330
1F
100
AcDbEntity
  8
0
  6
HIDDEN
 62
     7
370
     0
100
AcDbLine
 10
222.1330500027
 20
99.5049202496
 30
0.0
 11
222.1036051409
 21
100.341027688
 31
0.0
  0
LINE
  5
133
330
1F
100
AcDbEntity
  8
0
  6
HIDDEN
 62
     7
370
     0
100
AcDbLine
 10
224.1315080752
 20
99.5604420135
 30
0.0
 11
224.1020632134
 21
100.3965494519
 31
0.0
  0
LINE
  5
134
330
1F
100
AcDbEntity
  8
0
  6
HIDDEN
 62
     7
370
     0
100
AcDbLine
 10
222.1036051409
 20
100.341027688
 30
0.0
 11
224.1020632134
 21
100.3965494519
 31
0.0
  0
LINE
  5
135
330
1F
100
AcDbEntity
  8
0
  6
HIDDEN
 62
     7
370
     0
100
AcDbLine
 10
222.1036051409
 20
100.341027688
 30
0.0
 11
222.0741602791
 21
100.5647626908
 31
0.0
  0
LINE
  5
136
330
1F
100
AcDbEntity
  8
0
  6
HIDDEN
 62
     7
370
     0
100
AcDbLine
 10
224.1020632134
 20
100.3965494519
 30
0.0
 11
224.0726183516
 21
100.6202844547
 31
0.0
  0
LINE
  5
137
330
1F
100
AcDbEntity
  8
0
  6
HIDDEN
 62
     7
370
     0
100
AcDbLine
 10
222.1036051409
 20
99.1162828166
 30
0.0
 11
224.1020632134
 21
99.1718045805
 31
0.0
  0
LINE
  5
138
330
1F
100
AcDbEntity
  8
0
  6
HIDDEN
 62
     7
370
     0
100
AcDbLine
 10
222.1330500027
 20
98.8925478139
 30
0.0
 11
224.1315080752
 21
98.9480695778
 31
0.0
  0
LINE
  5
139
330
1F
100
AcDbEntity
  8
0
  6
HIDDEN
 62
     7
370
     0
100
AcDbLine
 10
222.1036051409
 20
99.1162828166
 30
0.0
 11
222.1330500027
 21
98.8925478139
 31
0.0
  0
LINE
  5
13A
330
1F
100
AcDbEntity
  8
0
  6
HIDDEN
 62
     7
370
     0
100
AcDbLine
 10
224.1020632134
 20
99.1718045805
 30
0.0
 11
224.1315080752
 21
98.9480695778
 31
0.0
  0
LINE
  5
13B
330
1F
100
AcDbEntity
  8
0
  6
HIDDEN
 62
     7
370
     0
100
AcDbLine
 10
222.0741602791
 20
99.9523902551
 30
0.0
 11
224.0726183516
 21
100.007912019
 31
0.0
  0
LINE
  5
13C
330
1F
100
AcDbEntity
  8
0
  6
HIDDEN
 62
     7
370
     0
100
AcDbLine
 10
222.0741602791
 20
100.5647626908
 30
0.0
 11
224.0726183516
 21
100.6202844547
 31
0.0
  0
LINE
  5
13D
330
1F
100
AcDbEntity
  8
0
  6
HIDDEN
 62
     7
370
     0
100
AcDbLine
 10
222.0741602791
 20
99.9523902551
 30
0.0
 11
222.0741602791
 21
100.5647626908
 31
0.0
  0
LINE
  5
13E
330
1F
100
AcDbEntity
  8
0
  6
HIDDEN
 62
     7
370
     0
100
AcDbLine
 10
222.1036051409
 20
99.1162828166
 30
0.0
 11
222.0741602791
 21
99.9523902551
 31
0.0
  0
LINE
  5
13F
330
1F
100
AcDbEntity
  8
0
  6
HIDDEN
 62
     7
370
     0
100
AcDbLine
 10
224.1020632134
 20
99.1718045805
 30
0.0
 11
224.0726183516
 21
100.007912019
 31
0.0
  0
LWPOLYLINE
  5
140
330
1F
100
AcDbEntity
  8
0
  6
HIDDEN
 62
     7
370
     0
100
AcDbPolyline
 90
        3
 70
   128
 43
0.0
 10
224.0431734897
 20
117.3066366075
 10
224.0614953566
 20
117.7020164677
 10
224.0726183516
 20
118.0189185749
  0
LWPOLYLINE
  5
141
330
1F
100
AcDbEntity
  8
0
  6
HIDDEN
 62
     7
370
     0
100
AcDbPolyline
 90
       12
 70
   128
 43
0.0
 10
224.0726183516
 20
119.3788305206
 10
224.0614953566
 20
119.2953700034
 10
224.0431734897
 20
119.0312700468
 10
224.0248516229
 20
118.6358901866
 10
224.0093190942
 20
118.1694234223
 10
223.9989405903
 20
117.7028850903
 10
223.9952961444
 20
117.3073014224
 10
223.9989405903
 20
117.0428964461
 10
224.0093190942
 20
116.9499234223
 10
224.0248516229
 20
117.0425366509
 10
224.0431734897
 20
117.3066366075
 10
224.0431734897
 20
117.3066366075
  0
LWPOLYLINE
  5
142
330
1F
100
AcDbEntity
  8
0
  6
HIDDEN
 62
     7
370
     0
100
AcDbPolyline
 90
       17
 70
   128
 43
0.0
 10
223.8813515943
 20
117.11278894
 10
223.9038877159
 20
117.5991110313
 10
223.9229929172
 20
118.1728708889
 10
223.9357586047
 20
118.7467187758
 10
223.940241318
 20
119.233291553
 10
223.9357586047
 20
119.558512926
 10
223.9229929172
 20
119.6728708889
 10
223.9038877159
 20
119.5589554786
 10
223.8813515943
 20
119.2341092835
 10
223.8588154727
 20
118.7477871922
 10
223.8397102714
 20
118.1740273346
 10
223.826944584
 20
117.6001794477
 10
223.8224618707
 20
117.1136066705
 10
223.826944584
 20
116.7883852975
 10
223.8397102714
 20
116.6740273346
 10
223.8588154727
 20
116.7879427449
 10
223.8813515943
 20
117.11278894
  0
LWPOLYLINE
  5
143
330
1F
100
AcDbEntity
  8
0
  6
HIDDEN
 62
     7
370
     0
100
AcDbPolyline
 90
       17
 70
   128
 43
0.0
 10
218.5474137904
 20
117.2609780061
 10
218.569949912
 20
117.7473000974
 10
218.5890551134
 20
118.321059955
 10
218.6018208008
 20
118.8949078419
 10
218.6063035141
 20
119.3814806191
 10
218.6018208008
 20
119.7067019921
 10
218.5890551134
 20
119.821059955
 10
218.569949912
 20
119.7071445447
 10
218.5474137904
 20
119.3822983496
 10
218.5248776688
 20
118.8959762583
 10
218.5057724675
 20
118.3222164007
 10
218.4930067801
 20
117.7483685138
 10
218.4885240668
 20
117.2617957366
 10
218.4930067801
 20
116.9365743636
 10
218.5057724675
 20
116.8222164007
 10
218.5248776688
 20
116.936131811
 10
218.5474137904
 20
117.2609780061
  0
LWPOLYLINE
  5
144
330
1F
100
AcDbEntity
  8
0
  6
HIDDEN
 62
     7
370
     0
100
AcDbPolyline
 90
       17
 70
   128
 43
0.0
 10
218.0477992723
 20
117.6284118376
 10
218.0628233534
 20
117.9526265652
 10
218.0755601543
 20
118.3351331369
 10
218.0840706125
 20
118.7176983948
 10
218.0870590881
 20
119.0420802463
 10
218.0840706125
 20
119.258894495
 10
218.0755601543
 20
119.3351331369
 10
218.0628233534
 20
119.2591895301
 10
218.0477992723
 20
119.0426254
 10
218.0327751913
 20
118.7184106725
 10
218.0200383904
 20
118.3359041007
 10
218.0115279321
 20
117.9533388428
 10
218.0085394565
 20
117.6289569913
 10
218.0115279321
 20
117.4121427427
 10
218.0200383904
 20
117.3359041007
 10
218.0327751913
 20
117.4118477076
 10
218.0477992723
 20
117.6284118376
  0
LINE
  5
145
330
1F
100
AcDbEntity
  8
0
  6
HIDDEN
 62
     7
370
     0
100
AcDbLine
 10
224.0726183516
 20
119.0050607656
 30
0.0
 11
224.0431734897
 21
118.7813257628
 31
0.0
  0
LINE
  5
146
330
1F
100
AcDbEntity
  8
0
  6
HIDDEN
 62
     7
370
     0
100
AcDbLine
 10
224.0137286279
 20
117.9452183244
 30
0.0
 11
224.0431734897
 21
118.7813257628
 31
0.0
  0
LINE
  5
147
330
1F
100
AcDbEntity
  8
0
  6
HIDDEN
 62
     7
370
     0
100
AcDbLine
 10
224.0137286279
 20
117.3328458887
 30
0.0
 11
224.0137286279
 21
117.9452183244
 31
0.0
  0
LINE
  5
148
330
1F
100
AcDbEntity
  8
0
  6
HIDDEN
 62
     7
370
     0
100
AcDbLine
 10
224.0137286279
 20
117.3328458887
 30
0.0
 11
224.0431734897
 21
117.5565808914
 31
0.0
  0
LINE
  5
149
330
1F
100
AcDbEntity
  8
0
  6
HIDDEN
 62
     7
370
     0
100
AcDbLine
 10
224.0726183516
 20
118.3926883299
 30
0.0
 11
224.0431734897
 21
117.5565808914
 31
0.0
  0
LINE
  5
14A
330
1F
100
AcDbEntity
  8
0
  6
HIDDEN
 62
     7
370
     0
100
AcDbLine
 10
222.0152705554
 20
117.3883676526
 30
0.0
 11
222.0447154173
 21
117.6121026553
 31
0.0
  0
LINE
  5
14B
330
1F
100
AcDbEntity
  8
0
  6
HIDDEN
 62
     7
370
     0
100
AcDbLine
 10
222.0152705554
 20
117.3883676526
 30
0.0
 11
222.0152705554
 21
118.0007400883
 31
0.0
  0
LINE
  5
14C
330
1F
100
AcDbEntity
  8
0
  6
HIDDEN
 62
     7
370
     0
100
AcDbLine
 10
222.0741602791
 20
119.0605825295
 30
0.0
 11
222.0447154173
 21
118.8368475267
 31
0.0
  0
LINE
  5
14D
330
1F
100
AcDbEntity
  8
0
  6
HIDDEN
 62
     7
370
     0
100
AcDbLine
 10
222.0741602791
 20
118.4482100938
 30
0.0
 11
222.0741602791
 21
119.0605825295
 31
0.0
  0
LINE
  5
14E
330
1F
100
AcDbEntity
  8
0
  6
HIDDEN
 62
     7
370
     0
100
AcDbLine
 10
222.0741602791
 20
118.4482100938
 30
0.0
 11
222.0447154173
 21
117.6121026553
 31
0.0
  0
LINE
  5
14F
330
1F
100
AcDbEntity
  8
0
  6
HIDDEN
 62
     7
370
     0
100
AcDbLine
 10
222.0152705554
 20
118.0007400883
 30
0.0
 11
222.0447154173
 21
118.8368475267
 31
0.0
  0
LINE
  5
150
330
1F
100
AcDbEntity
  8
0
  6
HIDDEN
 62
     7
370
     0
100
AcDbLine
 10
222.0152705554
 20
118.0007400883
 30
0.0
 11
224.0137286279
 21
117.9452183244
 31
0.0
  0
LINE
  5
151
330
1F
100
AcDbEntity
  8
0
  6
HIDDEN
 62
     7
370
     0
100
AcDbLine
 10
222.0447154173
 20
118.8368475267
 30
0.0
 11
224.0431734897
 21
118.7813257628
 31
0.0
  0
LINE
  5
152
330
1F
100
AcDbEntity
  8
0
  6
HIDDEN
 62
     7
370
     0
100
AcDbLine
 10
222.0447154173
 20
117.6121026553
 30
0.0
 11
224.0431734897
 21
117.5565808914
 31
0.0
  0
LINE
  5
153
330
1F
100
AcDbEntity
  8
0
  6
HIDDEN
 62
     7
370
     0
100
AcDbLine
 10
222.0152705554
 20
117.3883676526
 30
0.0
 11
224.0137286279
 21
117.3328458887
 31
0.0
  0
LINE
  5
154
330
1F
100
AcDbEntity
  8
0
  6
HIDDEN
 62
     7
370
     0
100
AcDbLine
 10
222.0741602791
 20
118.4482100938
 30
0.0
 11
224.0726183516
 21
118.3926883299
 31
0.0
  0
LINE
  5
155
330
1F
100
AcDbEntity
  8
0
  6
HIDDEN
 62
     7
370
     0
100
AcDbLine
 10
222.0741602791
 20
119.0605825295
 30
0.0
 11
224.0726183516
 21
119.0050607656
 31
0.0
  0
LINE
  5
156
330
1F
100
AcDbEntity
  8
0
  6
HIDDEN
 62
     7
370
     0
100
AcDbLine
 10
124.0726183516
 20
69.5710641691
 30
0.0
 11
124.1622199755
 21
70.208612851
 31
0.0
  0
LINE
  5
157
330
1F
100
AcDbEntity
  8
0
  6
HIDDEN
 62
     7
370
     0
100
AcDbLine
 10
124.1622199755
 20
147.7428814003
 30
0.0
 11
124.0726183516
 21
148.3804300823
 31
0.0
  0
ARC
  5
158
330
1F
100
AcDbEntity
  8
0
  6
HIDDEN
 62
     7
370
     0
100
AcDbCircle
 10
123.1756814331
 20
70.3472618012
 30
0.0
 40
0.9962338214386932
100
AcDbArc
 50
352.0
 51
0.0
  0
ARC
  5
159
330
1F
100
AcDbEntity
  8
0
  6
HIDDEN
 62
     7
370
     0
100
AcDbCircle
 10
123.1756814331
 20
70.3472618012
 30
0.0
 40
0.9962338214386983
100
AcDbArc
 50
0.0
 51
25.7988228126
  0
ARC
  5
15A
330
1F
100
AcDbEntity
  8
0
  6
HIDDEN
 62
     7
370
     0
100
AcDbCircle
 10
123.1756814331
 20
147.6042324501
 30
0.0
 40
0.9962338214386939
100
AcDbArc
 50
348.75
 51
8.0
  0
LWPOLYLINE
  5
15B
330
1F
100
AcDbEntity
  8
0
  6
HIDDEN
 62
     7
370
     0
100
AcDbPolyline
 90
        3
 70
   128
 43
0.0
 10
124.152772901
 20
147.4098768731
 10
124.0960814703
 20
147.2229902719
 10
124.0726183516
 20
147.170658937
  0
LINE
  5
15C
330
1F
100
AcDbEntity
  8
0
  6
HIDDEN
 62
     7
370
     0
100
AcDbLine
 10
124.1719152546
 20
70.3472618012
 30
0.0
 11
124.1719152546
 21
147.6042324501
 31
0.0
  0
LINE
  5
15D
330
1F
100
AcDbEntity
  8
0
  6
HIDDEN
 62
     7
370
     0
100
AcDbLine
 10
97.5333442937
 20
77.4757471257
 30
0.0
 11
103.1184484022
 21
77.4757471257
 31
0.0
  0
LINE
  5
15E
330
1F
100
AcDbEntity
  8
0
  6
HIDDEN
 62
     7
370
     0
100
AcDbLine
 10
103.1184484022
 20
140.4757471257
 30
0.0
 11
97.5333442937
 21
140.4757471257
 31
0.0
  0
ARC
  5
15F
330
1F
100
AcDbEntity
  8
0
  6
HIDDEN
 62
     7
370
     0
100
AcDbCircle
 10
114.3258240068
 20
89.4757471257
 30
0.0
 40
12.0
100
AcDbArc
 50
273.1716185283
 51
324.3146652873
  0
ARC
  5
160
330
1F
100
AcDbEntity
  8
0
  6
HIDDEN
 62
     7
370
     0
100
AcDbCircle
 10
114.3258240068
 20
128.4757471257
 30
0.0
 40
12.00000000000001
100
AcDbArc
 50
35.6853347127
 51
86.8289728944
  0
ARC
  5
161
330
1F
100
AcDbEntity
  8
0
  6
HIDDEN
 62
     7
370
     0
100
AcDbCircle
 10
97.5333442937
 20
78.4757471257
 30
0.0
 40
1.000000000000008
100
AcDbArc
 50
210.0
 51
270.0
  0
ARC
  5
162
330
1F
100
AcDbEntity
  8
0
  6
HIDDEN
 62
     7
370
     0
100
AcDbCircle
 10
97.5333442937
 20
139.4757471257
 30
0.0
 40
1.000000000000008
100
AcDbArc
 50
90.0
 51
150.0
  0
LINE
  5
163
330
1F
100
AcDbEntity
  8
0
  6
HIDDEN
 62
     7
370
     0
100
AcDbLine
 10
96.6673188899
 20
139.9757471257
 30
0.0
 11
94.0692426786
 21
135.4757471257
 31
0.0
  0
LINE
  5
164
330
1F
100
AcDbEntity
  8
0
  6
HIDDEN
 62
     7
370
     0
100
AcDbLine
 10
94.0692426786
 20
82.4757471257
 30
0.0
 11
96.6673188899
 21
77.9757471257
 31
0.0
  0
ARC
  5
165
330
1F
100
AcDbEntity
  8
0
  6
HIDDEN
 62
     7
370
     0
100
AcDbCircle
 10
134.5226183516
 20
84.1007471257
 30
0.0
 40
2.0
100
AcDbArc
 50
234.3409123039
 51
0.0
  0
ARC
  5
166
330
1F
100
AcDbEntity
  8
0
  6
HIDDEN
 62
     7
370
     0
100
AcDbCircle
 10
134.5226183516
 20
133.8507471257
 30
0.0
 40
2.00000000000001
100
AcDbArc
 50
0.0
 51
125.6590876961
  0
LINE
  5
167
330
1F
100
AcDbEntity
  8
0
  6
HIDDEN
 62
     7
370
     0
100
AcDbLine
 10
89.2726183516
 20
82.4757471257
 30
0.0
 11
94.0692426786
 21
82.4757471257
 31
0.0
  0
LINE
  5
168
330
1F
100
AcDbEntity
  8
0
  6
HIDDEN
 62
     7
370
     0
100
AcDbLine
 10
94.0692426786
 20
135.4757471257
 30
0.0
 11
84.2726183516
 21
135.4757471257
 31
0.0
  0
LINE
  5
169
330
1F
100
AcDbEntity
  8
0
  6
HIDDEN
 62
     7
370
     0
100
AcDbLine
 10
124.0726183516
 20
82.4757471257
 30
0.0
 11
133.3566959699
 21
82.4757471257
 31
0.0
  0
LINE
  5
16A
330
1F
100
AcDbEntity
  8
0
  6
HIDDEN
 62
     7
370
     0
100
AcDbLine
 10
133.3566959699
 20
135.4757471257
 30
0.0
 11
124.0726183516
 21
135.4757471257
 31
0.0
  0
LINE
  5
16B
330
1F
100
AcDbEntity
  8
0
  6
HIDDEN
 62
     7
370
     0
100
AcDbLine
 10
128.0726183516
 20
154.6473005048
 30
0.0
 11
128.0726183516
 21
150.9531609044
 31
0.0
  0
LINE
  5
16C
330
1F
100
AcDbEntity
  8
0
  6
HIDDEN
 62
     7
370
     0
100
AcDbLine
 10
138.0726183516
 20
150.9531609044
 30
0.0
 11
138.0726183516
 21
154.6528087632
 31
0.0
  0
LINE
  5
16D
330
1F
100
AcDbEntity
  8
0
  6
HIDDEN
 62
     7
370
     0
100
AcDbLine
 10
178.5726183516
 20
99.3954097862
 30
0.0
 11
178.5726183516
 21
103.1884830302
 31
0.0
  0
LINE
  5
16E
330
1F
100
AcDbEntity
  8
0
  6
HIDDEN
 62
     7
370
     0
100
AcDbLine
 10
178.5726183516
 20
96.9549318455
 30
0.0
 11
178.5726183516
 21
97.643213637
 31
0.0
  0
LINE
  5
16F
330
1F
100
AcDbEntity
  8
0
  6
HIDDEN
 62
     7
370
     0
100
AcDbLine
 10
175.5726183516
 20
98.2011642957
 30
0.0
 11
175.5726183516
 21
96.9549318455
 31
0.0
  0
LINE
  5
170
330
1F
100
AcDbEntity
  8
0
  6
HIDDEN
 62
     7
370
     0
100
AcDbLine
 10
175.5726183516
 20
103.1080106188
 30
0.0
 11
175.5726183516
 21
98.7051508635
 31
0.0
  0
LINE
  5
171
330
1F
100
AcDbEntity
  8
0
  6
HIDDEN
 62
     7
370
     0
100
AcDbLine
 10
148.3726183516
 20
95.9757471257
 30
0.0
 11
152.3726183516
 21
95.9757471257
 31
0.0
  0
LINE
  5
172
330
1F
100
AcDbEntity
  8
0
  6
HIDDEN
 62
     7
370
     0
100
AcDbLine
 10
152.3726183516
 20
121.9757471257
 30
0.0
 11
148.3726183516
 21
121.9757471257
 31
0.0
  0
LINE
  5
173
330
1F
100
AcDbEntity
  8
0
  6
HIDDEN
 62
     7
370
     0
100
AcDbLine
 10
136.5226183516
 20
96.9757471257
 30
0.0
 11
137.2726183516
 21
97.7257471257
 31
0.0
  0
LINE
  5
174
330
1F
100
AcDbEntity
  8
0
  6
HIDDEN
 62
     7
370
     0
100
AcDbLine
 10
137.2726183516
 20
120.2257471257
 30
0.0
 11
136.5226183516
 21
120.9757471257
 31
0.0
  0
LINE
  5
175
330
1F
100
AcDbEntity
  8
0
  6
HIDDEN
 62
     7
370
     0
100
AcDbLine
 10
178.2847868826
 20
97.2607853326
 30
0.0
 11
224.0726183516
 21
98.5328766531
 31
0.0
  0
LINE
  5
176
330
1F
100
AcDbEntity
  8
0
  6
HIDDEN
 62
     7
370
     0
100
AcDbLine
 10
224.0726183516
 20
101.0338412874
 30
0.0
 11
178.2804066394
 21
99.7616282736
 31
0.0
  0
LINE
  5
177
330
1F
100
AcDbEntity
  8
0
  6
HIDDEN
 62
     7
370
     0
100
AcDbLine
 10
137.2726183516
 20
97.7257471257
 30
0.0
 11
148.3726183516
 21
97.7257471257
 31
0.0
  0
LINE
  5
178
330
1F
100
AcDbEntity
  8
0
  6
HIDDEN
 62
     7
370
     0
100
AcDbLine
 10
148.3726183516
 20
120.2257471257
 30
0.0
 11
137.2726183516
 21
120.2257471257
 31
0.0
  0
LINE
  5
179
330
1F
100
AcDbEntity
  8
0
  6
HIDDEN
 62
     7
370
     0
100
AcDbLine
 10
175.5964266476
 20
98.8516083604
 30
0.0
 11
175.3591278904
 21
98.4299861107
 31
0.0
  0
LINE
  5
17A
330
1F
100
AcDbEntity
  8
0
  6
HIDDEN
 62
     7
370
     0
100
AcDbLine
 10
175.3591278904
 20
98.4299861107
 30
0.0
 11
175.5973835048
 21
98.0567852081
 31
0.0
  0
LINE
  5
17B
330
1F
100
AcDbEntity
  8
0
  6
HIDDEN
 62
     7
370
     0
100
AcDbLine
 10
129.0226183516
 20
158.9757471257
 30
0.0
 11
129.0226183516
 21
152.8757471257
 31
0.0
  0
LINE
  5
17C
330
1F
100
AcDbEntity
  8
0
  6
HIDDEN
 62
     7
370
     0
100
AcDbLine
 10
175.4726183516
 20
100.6757471257
 30
0.0
 11
178.1778443334
 21
100.6757471257
 31
0.0
  0
LINE
  5
17D
330
1F
100
AcDbEntity
  8
0
  6
HIDDEN
 62
     7
370
     0
100
AcDbLine
 10
178.1778443334
 20
117.2757471257
 30
0.0
 11
175.4726183516
 21
117.2757471257
 31
0.0
  0
ARC
  5
17E
330
1F
100
AcDbEntity
  8
0
  6
HIDDEN
 62
     7
370
     0
100
AcDbCircle
 10
175.4726183516
 20
101.0757471257
 30
0.0
 40
0.4000000000000057
100
AcDbArc
 50
180.0
 51
270.0
  0
ARC
  5
17F
330
1F
100
AcDbEntity
  8
0
  6
HIDDEN
 62
     7
370
     0
100
AcDbCircle
 10
175.4726183516
 20
116.8757471257
 30
0.0
 40
0.4000000000000057
100
AcDbArc
 50
90.0
 51
180.0
  0
ARC
  5
180
330
1F
100
AcDbEntity
  8
0
  6
HIDDEN
 62
     7
370
     0
100
AcDbCircle
 10
223.7726183516
 20
100.6757471257
 30
0.0
 40
0.2999999999999972
100
AcDbArc
 50
0.0
 51
90.0
  0
ARC
  5
181
330
1F
100
AcDbEntity
  8
0
  6
HIDDEN
 62
     7
370
     0
100
AcDbCircle
 10
223.7726183516
 20
117.2757471257
 30
0.0
 40
0.2999999999999972
100
AcDbArc
 50
270.0
 51
0.0
  0
ARC
  5
182
330
1F
100
AcDbEntity
  8
0
  6
HIDDEN
 62
     7
370
     0
100
AcDbCircle
 10
178.1778443334
 20
116.8757471257
 30
0.0
 40
0.4000000000000057
100
AcDbArc
 50
70.0
 51
90.0
  0
LINE
  5
183
330
1F
100
AcDbEntity
  8
0
  6
HIDDEN
 62
     7
370
     0
100
AcDbLine
 10
178.3146523908
 20
100.6998700774
 30
0.0
 11
179.0726183516
 21
100.9757471257
 31
0.0
  0
LINE
  5
184
330
1F
100
AcDbEntity
  8
0
  6
HIDDEN
 62
     7
370
     0
100
AcDbLine
 10
179.0726183516
 20
116.9757471257
 30
0.0
 11
178.3146523908
 21
117.251624174
 31
0.0
  0
LINE
  5
185
330
1F
100
AcDbEntity
  8
0
  6
HIDDEN
 62
     7
370
     0
100
AcDbLine
 10
179.0726183516
 20
100.9757471257
 30
0.0
 11
223.7726183516
 21
100.9757471257
 31
0.0
  0
LINE
  5
186
330
1F
100
AcDbEntity
  8
0
  6
HIDDEN
 62
     7
370
     0
100
AcDbLine
 10
223.7726183516
 20
116.9757471257
 30
0.0
 11
179.0726183516
 21
116.9757471257
 31
0.0
  0
LINE
  5
187
330
1F
100
AcDbEntity
  8
0
  6
HIDDEN
 62
     7
370
     0
100
AcDbLine
 10
115.5053309676
 20
71.3974675551
 30
0.0
 11
115.0726216811
 21
71.8756922725
 31
0.0
  0
LINE
  5
188
330
1F
100
AcDbEntity
  8
0
  6
HIDDEN
 62
     7
370
     0
100
AcDbLine
 10
103.0726188096
 20
72.5226536291
 30
0.0
 11
102.5919915044
 21
72.0444289183
 31
0.0
  0
LINE
  5
189
330
1F
100
AcDbEntity
  8
0
  6
HIDDEN
 62
     7
370
     0
100
AcDbLine
 10
102.5918731629
 20
145.9070594169
 30
0.0
 11
103.0726186269
 21
145.4287797451
 31
0.0
  0
LINE
  5
18A
330
1F
100
AcDbEntity
  8
0
  6
HIDDEN
 62
     7
370
     0
100
AcDbLine
 10
115.0726183537
 20
146.0757521324
 30
0.0
 11
115.5054400234
 21
146.5540318053
 31
0.0
  0
LINE
  5
18B
330
1F
100
AcDbEntity
  8
0
  6
HIDDEN
 62
     7
370
     0
100
AcDbLine
 10
115.0726183516
 20
71.7755634299
 30
0.0
 11
115.0726183516
 21
77.5098691986
 31
0.0
  0
LINE
  5
18C
330
1F
100
AcDbEntity
  8
0
  6
HIDDEN
 62
     7
370
     0
100
AcDbLine
 10
103.0726183516
 20
77.4842264936
 30
0.0
 11
103.0726183516
 21
72.5226920436
 31
0.0
  0
LINE
  5
18D
330
1F
100
AcDbEntity
  8
0
  6
HIDDEN
 62
     7
370
     0
100
AcDbLine
 10
115.0726183516
 20
140.4416250527
 30
0.0
 11
115.0726183516
 21
146.1757559584
 31
0.0
  0
LINE
  5
18E
330
1F
100
AcDbEntity
  8
0
  6
HIDDEN
 62
     7
370
     0
100
AcDbLine
 10
103.0726183516
 20
145.4287692458
 30
0.0
 11
103.0726183516
 21
140.4672677577
 31
0.0
  0
LINE
  5
18F
330
1F
100
AcDbEntity
  8
0
  6
HIDDEN
 62
     7
370
     0
100
AcDbLine
 10
152.3726183516
 20
102.9757471257
 30
0.0
 11
175.0726183516
 21
102.9757471257
 31
0.0
  0
LINE
  5
190
330
1F
100
AcDbEntity
  8
0
  6
HIDDEN
 62
     7
370
     0
100
AcDbLine
 10
175.0726183516
 20
114.9757471257
 30
0.0
 11
152.3726183516
 21
114.9757471257
 31
0.0
  0
ARC
  5
191
330
1F
100
AcDbEntity
  8
0
  6
HIDDEN
 62
     7
370
     0
100
AcDbCircle
 10
178.1778443334
 20
101.0757471257
 30
0.0
 40
0.4000000000000057
100
AcDbArc
 50
270.0
 51
290.0
  0
LINE
  5
192
330
1F
100
AcDbEntity
  8
0
  6
HIDDEN
 62
     7
370
     0
100
AcDbLine
 10
169.5226183516
 20
84.9757471257
 30
0.0
 11
168.5226183516
 21
85.5530973949
 31
0.0
  0
LINE
  5
193
330
1F
100
AcDbEntity
  8
0
  6
HIDDEN
 62
     7
370
     0
100
AcDbLine
 10
163.5226183516
 20
85.5530973949
 30
0.0
 11
162.5226183516
 21
84.9757471257
 31
0.0
  0
LINE
  5
194
330
1F
100
AcDbEntity
  8
0
  6
HIDDEN
 62
     7
370
     0
100
AcDbLine
 10
162.5226183516
 20
132.9757471257
 30
0.0
 11
163.5226183516
 21
132.3983968565
 31
0.0
  0
LINE
  5
195
330
1F
100
AcDbEntity
  8
0
  6
HIDDEN
 62
     7
370
     0
100
AcDbLine
 10
168.5226183516
 20
132.3983968565
 30
0.0
 11
169.5226183516
 21
132.9757471257
 31
0.0
  0
LINE
  5
196
330
1F
100
AcDbEntity
  8
0
  6
HIDDEN
 62
     7
370
     0
100
AcDbLine
 10
163.5226183516
 20
132.3983968565
 30
0.0
 11
163.5226183516
 21
120.9757471257
 31
0.0
  0
LINE
  5
197
330
1F
100
AcDbEntity
  8
0
  6
HIDDEN
 62
     7
370
     0
100
AcDbLine
 10
168.5226183516
 20
120.9757471257
 30
0.0
 11
168.5226183516
 21
132.3983968565
 31
0.0
  0
LINE
  5
198
330
1F
100
AcDbEntity
  8
0
  6
HIDDEN
 62
     7
370
     0
100
AcDbLine
 10
163.5226183516
 20
120.9757471257
 30
0.0
 11
166.0226183516
 21
119.4735955781
 31
0.0
  0
LINE
  5
199
330
1F
100
AcDbEntity
  8
0
  6
HIDDEN
 62
     7
370
     0
100
AcDbLine
 10
166.0226183516
 20
119.4735955781
 30
0.0
 11
168.5226183516
 21
120.9757471257
 31
0.0
  0
LINE
  5
19A
330
1F
100
AcDbEntity
  8
0
  6
HIDDEN
 62
     7
370
     0
100
AcDbLine
 10
168.5226183516
 20
85.5530973949
 30
0.0
 11
168.5226183516
 21
96.9757471257
 31
0.0
  0
LINE
  5
19B
330
1F
100
AcDbEntity
  8
0
  6
HIDDEN
 62
     7
370
     0
100
AcDbLine
 10
163.5226183516
 20
96.9757471257
 30
0.0
 11
163.5226183516
 21
85.5530973949
 31
0.0
  0
LINE
  5
19C
330
1F
100
AcDbEntity
  8
0
  6
HIDDEN
 62
     7
370
     0
100
AcDbLine
 10
168.5226183516
 20
96.9757471257
 30
0.0
 11
166.0226183516
 21
98.4778986732
 31
0.0
  0
LINE
  5
19D
330
1F
100
AcDbEntity
  8
0
  6
HIDDEN
 62
     7
370
     0
100
AcDbLine
 10
166.0226183516
 20
98.4778986732
 30
0.0
 11
163.5226183516
 21
96.9757471257
 31
0.0
  0
LINE
  5
19E
330
1F
100
AcDbEntity
  8
0
  6
HIDDEN
 62
     7
370
     0
100
AcDbLine
 10
178.5726183516
 20
114.7630112212
 30
0.0
 11
178.5726183516
 21
118.5492564006
 31
0.0
  0
LINE
  5
19F
330
1F
100
AcDbEntity
  8
0
  6
HIDDEN
 62
     7
370
     0
100
AcDbLine
 10
175.5726183516
 20
119.2487322421
 30
0.0
 11
175.5726183516
 21
114.8434836326
 31
0.0
  0
LINE
  5
1A0
330
1F
100
AcDbEntity
  8
0
  6
HIDDEN
 62
     7
370
     0
100
AcDbLine
 10
175.5726183516
 20
120.2894556247
 30
0.0
 11
175.5726183516
 21
119.747006889
 31
0.0
  0
LINE
  5
1A1
330
1F
100
AcDbEntity
  8
0
  6
HIDDEN
 62
     7
370
     0
100
AcDbLine
 10
178.2784772332
 20
118.1899195811
 30
0.0
 11
224.0726183516
 21
116.917652964
 31
0.0
  0
LINE
  5
1A2
330
1F
100
AcDbEntity
  8
0
  6
HIDDEN
 62
     7
370
     0
100
AcDbLine
 10
224.0726183516
 20
119.4186175982
 30
0.0
 11
178.2825611508
 21
120.6907707547
 31
0.0
  0
LINE
  5
1A3
330
1F
100
AcDbEntity
  8
0
  6
HIDDEN
 62
     7
370
     0
100
AcDbLine
 10
128.0726183516
 20
156.5226185891
 30
0.0
 11
128.0726183516
 21
154.6473005048
 31
0.0
  0
LINE
  5
1A4
330
1F
100
AcDbEntity
  8
0
  6
HIDDEN
 62
     7
370
     0
100
AcDbLine
 10
138.0726183516
 20
154.6528087632
 30
0.0
 11
138.0726183516
 21
156.5283530219
 31
0.0
  0
LINE
  5
1A5
330
1F
100
AcDbEntity
  8
0
  6
HIDDEN
 62
     7
370
     0
100
AcDbLine
 10
175.5993719955
 20
119.8978237927
 30
0.0
 11
175.3591278904
 21
119.5215081407
 31
0.0
  0
LINE
  5
1A6
330
1F
100
AcDbEntity
  8
0
  6
HIDDEN
 62
     7
370
     0
100
AcDbLine
 10
175.3591278904
 20
119.5215081407
 30
0.0
 11
175.5966993297
 21
119.0994014011
 31
0.0
  0
LINE
  5
1A7
330
1F
100
AcDbEntity
  8
0
  6
HIDDEN
 62
     7
370
     0
100
AcDbLine
 10
218.563506204
 20
101.1303031578
 30
0.0
 11
218.0781574559
 21
100.6168190527
 31
0.0
  0
LINE
  5
1A8
330
1F
100
AcDbEntity
  8
0
  6
HIDDEN
 62
     7
370
     0
100
AcDbLine
 10
218.1336792033
 20
98.6183615746
 30
0.0
 11
218.6467888251
 21
98.1326169406
 31
0.0
  0
LINE
  5
1A9
330
1F
100
AcDbEntity
  8
0
  6
HIDDEN
 62
     7
370
     0
100
AcDbLine
 10
223.89858394
 20
101.2791026743
 30
0.0
 11
218.5646461361
 21
101.1309136082
 31
0.0
  0
LINE
  5
1AA
330
1F
100
AcDbEntity
  8
0
  6
HIDDEN
 62
     7
370
     0
100
AcDbLine
 10
218.6479608921
 20
98.1320707228
 30
0.0
 11
223.9818986959
 21
98.2802597889
 31
0.0
  0
LINE
  5
1AB
330
1F
100
AcDbEntity
  8
0
  6
HIDDEN
 62
     7
370
     0
100
AcDbLine
 10
223.9838527249
 20
98.2820510884
 30
0.0
 11
224.0726183516
 21
98.4464231638
 31
0.0
  0
LINE
  5
1AC
330
1F
100
AcDbEntity
  8
0
  6
HIDDEN
 62
     7
370
     0
100
AcDbLine
 10
224.0698627979
 20
101.0018407724
 30
0.0
 11
223.9006344108
 21
101.2774226291
 31
0.0
  0
LINE
  5
1AD
330
1F
100
AcDbEntity
  8
0
  6
HIDDEN
 62
     7
370
     0
100
AcDbLine
 10
223.8417446872
 20
116.6757077143
 30
0.0
 11
224.0109730742
 21
116.951289571
 31
0.0
  0
LINE
  5
1AE
330
1F
100
AcDbEntity
  8
0
  6
HIDDEN
 62
     7
370
     0
100
AcDbLine
 10
224.0726183516
 20
119.3976579174
 30
0.0
 11
223.9249630012
 21
119.671079255
 31
0.0
  0
LINE
  5
1AF
330
1F
100
AcDbEntity
  8
0
  6
HIDDEN
 62
     7
370
     0
100
AcDbLine
 10
223.9230089723
 20
119.6728705545
 30
0.0
 11
218.5890711684
 21
119.8210596206
 31
0.0
  0
LINE
  5
1B0
330
1F
100
AcDbEntity
  8
0
  6
HIDDEN
 62
     7
370
     0
100
AcDbLine
 10
218.5057564124
 20
116.8222167351
 30
0.0
 11
223.8396942163
 21
116.674027669
 31
0.0
  0
LINE
  5
1B1
330
1F
100
AcDbEntity
  8
0
  6
HIDDEN
 62
     7
370
     0
100
AcDbLine
 10
218.5878991015
 20
119.8205134028
 30
0.0
 11
218.0747894797
 21
119.3347687688
 31
0.0
  0
LINE
  5
1B2
330
1F
100
AcDbEntity
  8
0
  6
HIDDEN
 62
     7
370
     0
100
AcDbLine
 10
218.0192677323
 20
117.3363112907
 30
0.0
 11
218.5046164804
 21
116.8228271856
 31
0.0
  0
DIMENSION
  5
1B3
330
1F
100
AcDbEntity
  8
VERMASSUNG
100
AcDbDimension
  2
*D1
 10
69.3427551436
 20
58.9757471257
 30
0.0
 11
69.3427551436
 21
108.9757471257
 31
0.0
 70
   160
  1
HSK A %%c<>
 71
     2
 42
-1.0
  3
SLDDIMSTYLE0
100
AcDbAlignedDimension
 13
124.5726183516
 23
158.9757471257
 33
0.0
 14
124.5726183516
 24
58.9757471257
 34
0.0
 50
90.0
100
AcDbRotatedDimension
  0
DIMENSION
  5
1C0
330
1F
100
AcDbEntity
  8
VERMASSUNG
100
AcDbDimension
  2
*D2
 10
224.0726183516
 20
173.9730227519
 30
0.0
 11
149.1226183516
 21
173.9730227519
 31
0.0
 70
   160
 71
     2
 42
-1.0
  3
SLDDIMSTYLE0
100
AcDbAlignedDimension
 13
74.1726183516
 23
139.4784168682
 33
0.0
 14
224.0726183516
 24
125.7016066041
 34
0.0
100
AcDbRotatedDimension
  0
DIMENSION
  5
1CA
330
1F
100
AcDbEntity
  8
VERMASSUNG
100
AcDbDimension
  2
*D3
 10
224.0726183516
 20
167.9730227519
 30
0.0
 11
174.0726183516
 21
167.9730227519
 31
0.0
 70
   160
 71
     2
 42
-1.0
  3
SLDDIMSTYLE0
100
AcDbAlignedDimension
 13
124.0726183516
 23
158.4757471257
 33
0.0
 14
224.0726183516
 24
125.7016066041
 34
0.0
100
AcDbRotatedDimension
  0
DIMENSION
  5
1D4
330
1F
100
AcDbEntity
  8
VERMASSUNG
100
AcDbDimension
  2
*D4
 10
224.0726183516
 20
161.9730227519
 30
0.0
 11
188.5476183516
 21
161.9730227519
 31
0.0
 70
   160
 71
     2
 42
-1.0
  3
SLDDIMSTYLE0
100
AcDbAlignedDimension
 13
153.0226183516
 23
156.9444869465
 33
0.0
 14
224.0726183516
 24
125.7016066041
 34
0.0
100
AcDbRotatedDimension
  0
DIMENSION
  5
1DE
330
1F
100
AcDbEntity
  8
VERMASSUNG
100
AcDbDimension
  2
*D5
 10
233.233103618
 20
100.9757471257
 30
0.0
 11
233.233103618
 21
108.9757471257
 31
0.0
 70
   160
  1
%%c<>
 71
     2
 42
-1.0
  3
SLDDIMSTYLE0
100
AcDbAlignedDimension
 13
223.7726183516
 23
116.9757471257
 33
0.0
 14
223.7726183516
 24
100.9757471257
 34
0.0
 50
90.0
100
AcDbRotatedDimension
  0
DIMENSION
  5
1E9
330
1F
100
AcDbEntity
  8
VERMASSUNG
100
AcDbDimension
  2
*D6
 10
239.233103618
 20
84.9757471257
 30
0.0
 11
239.233103618
 21
108.9757471257
 31
0.0
 70
   160
  1
%%c<>
 71
     2
 42
-1.0
  3
SLDDIMSTYLE0
100
AcDbAlignedDimension
 13
211.2055768285
 23
132.9757471257
 33
0.0
 14
211.2055768285
 24
84.9757471257
 34
0.0
 50
90.0
100
AcDbRotatedDimension
  0
LINE
  5
1F4
330
1F
100
AcDbEntity
  8
VERMASSUNG
  6
CENTERX2
 62
     7
370
     0
100
AcDbLine
 10
71.9221489906
 20
108.9757471257
 30
0.0
 11
226.7959843245
 21
108.9757471257
 31
0.0
  0
OLE2FRAME
  5
1F5
330
1F
100
AcDbEntity
  8
0
100
AcDbOle2Frame
 70
     2
  3
Bitmap Image
 10
13.8511154363
 20
38.264191557
 30
0.0
 11
51.6290888628
 21
31.9806341108
 31
0.0
 71
     2
 72
     0
 73
     1
 90
    12928
310
80552BED0767C5B32B40DDAF6807D121434000000000000000006FFBDDFB85D0
310
4940DDAF6807D121434000000000000000006FFBDDFB85D04940416F4BD60AFB
310
3F4000000000000000002BED0767C5B32B40416F4BD60AFB3F40000000000000
310
0000000000000100000000010000010000000100000000000100000000320000
310
D0CF11E0A1B11AE1000000000000000000000000000000003E000300FEFF0900
310
0600000000000000000000000100000001000000000000000010000002000000
310
01000000FEFFFFFF0000000000000000FFFFFFFFFFFFFFFFFFFFFFFFFFFFFFFF
310
FFFFFFFFFFFFFFFFFFFFFFFFFFFFFFFFFFFFFFFFFFFFFFFFFFFFFFFFFFFFFFFF
310
FFFFFFFFFFFFFFFFFFFFFFFFFFFFFFFFFFFFFFFFFFFFFFFFFFFFFFFFFFFFFFFF
310
FFFFFFFFFFFFFFFFFFFFFFFFFFFFFFFFFFFFFFFFFFFFFFFFFFFFFFFFFFFFFFFF
310
FFFFFFFFFFFFFFFFFFFFFFFFFFFFFFFFFFFFFFFFFFFFFFFFFFFFFFFFFFFFFFFF
310
FFFFFFFFFFFFFFFFFFFFFFFFFFFFFFFFFFFFFFFFFFFFFFFFFFFFFFFFFFFFFFFF
310
FFFFFFFFFFFFFFFFFFFFFFFFFFFFFFFFFFFFFFFFFFFFFFFFFFFFFFFFFFFFFFFF
310
FFFFFFFFFFFFFFFFFFFFFFFFFFFFFFFFFFFFFFFFFFFFFFFFFFFFFFFFFFFFFFFF
310
FFFFFFFFFFFFFFFFFFFFFFFFFFFFFFFFFFFFFFFFFFFFFFFFFFFFFFFFFFFFFFFF
310
FFFFFFFFFFFFFFFFFFFFFFFFFFFFFFFFFFFFFFFFFFFFFFFFFFFFFFFFFFFFFFFF
310
FFFFFFFFFFFFFFFFFFFFFFFFFFFFFFFFFFFFFFFFFFFFFFFFFFFFFFFFFFFFFFFF
310
FFFFFFFFFFFFFFFFFFFFFFFFFFFFFFFFFFFFFFFFFFFFFFFFFFFFFFFFFFFFFFFF
310
FFFFFFFFFFFFFFFFFFFFFFFFFFFFFFFFFFFFFFFFFFFFFFFFFFFFFFFFFFFFFFFF
310
FFFFFFFFFFFFFFFFFFFFFFFFFFFFFFFFFFFFFFFFFFFFFFFFFFFFFFFFFFFFFFFF
310
FDFFFFFFFEFFFFFFFEFFFFFFFEFFFFFF05000000060000000700000008000000
310
090000000A0000000B0000000C0000000D0000000E0000000F00000010000000
310
11000000120000001300000014000000150000001600000017000000FEFFFFFF
310
FFFFFFFFFFFFFFFFFFFFFFFFFFFFFFFFFFFFFFFFFFFFFFFFFFFFFFFFFFFFFFFF
310
FFFFFFFFFFFFFFFFFFFFFFFFFFFFFFFFFFFFFFFFFFFFFFFFFFFFFFFFFFFFFFFF
310
FFFFFFFFFFFFFFFFFFFFFFFFFFFFFFFFFFFFFFFFFFFFFFFFFFFFFFFFFFFFFFFF
310
FFFFFFFFFFFFFFFFFFFFFFFFFFFFFFFFFFFFFFFFFFFFFFFFFFFFFFFFFFFFFFFF
310
FFFFFFFFFFFFFFFFFFFFFFFFFFFFFFFFFFFFFFFFFFFFFFFFFFFFFFFFFFFFFFFF
310
FFFFFFFFFFFFFFFFFFFFFFFFFFFFFFFFFFFFFFFFFFFFFFFFFFFFFFFFFFFFFFFF
310
FFFFFFFFFFFFFFFFFFFFFFFFFFFFFFFFFFFFFFFFFFFFFFFFFFFFFFFFFFFFFFFF
310
FFFFFFFFFFFFFFFFFFFFFFFFFFFFFFFFFFFFFFFFFFFFFFFFFFFFFFFFFFFFFFFF
310
FFFFFFFFFFFFFFFFFFFFFFFFFFFFFFFFFFFFFFFFFFFFFFFFFFFFFFFFFFFFFFFF
310
FFFFFFFFFFFFFFFFFFFFFFFFFFFFFFFFFFFFFFFFFFFFFFFFFFFFFFFFFFFFFFFF
310
FFFFFFFFFFFFFFFFFFFFFFFFFFFFFFFFFFFFFFFFFFFFFFFFFFFFFFFFFFFFFFFF
310
FFFFFFFFFFFFFFFFFFFFFFFFFFFFFFFFFFFFFFFFFFFFFFFFFFFFFFFFFFFFFFFF
310
FFFFFFFFFFFFFFFFFFFFFFFFFFFFFFFFFFFFFFFFFFFFFFFFFFFFFFFFFFFFFFFF
310
52006F006F007400200045006E00740072007900000000000000000000000000
310
0000000000000000000000000000000000000000000000000000000000000000
310
16000500FFFFFFFFFFFFFFFF020000000A00030000000000C000000000000046
310
000000000000000000000000B040DCC10700CC0103000000C000000000000000
310
01004F006C006500000000000000000000000000000000000000000000000000
310
0000000000000000000000000000000000000000000000000000000000000000
310
0A000200FFFFFFFFFFFFFFFFFFFFFFFF00000000000000000000000000000000
310
0000000000000000000000000000000000000000000000001400000000000000
310
010043006F006D0070004F0062006A0000000000000000000000000000000000
310
0000000000000000000000000000000000000000000000000000000000000000
310
120002010100000003000000FFFFFFFF00000000000000000000000000000000
310
0000000000000000000000000000000000000000010000004D00000000000000
310
01004F006C006500310030004E00610074006900760065000000000000000000
310
0000000000000000000000000000000000000000000000000000000000000000
310
1A000200FFFFFFFFFFFFFFFFFFFFFFFF00000000000000000000000000000000
310
0000000000000000000000000000000000000000040000002426000000000000
310
FEFFFFFF02000000FEFFFFFFFFFFFFFFFFFFFFFFFFFFFFFFFFFFFFFFFFFFFFFF
310
FFFFFFFFFFFFFFFFFFFFFFFFFFFFFFFFFFFFFFFFFFFFFFFFFFFFFFFFFFFFFFFF
310
FFFFFFFFFFFFFFFFFFFFFFFFFFFFFFFFFFFFFFFFFFFFFFFFFFFFFFFFFFFFFFFF
310
FFFFFFFFFFFFFFFFFFFFFFFFFFFFFFFFFFFFFFFFFFFFFFFFFFFFFFFFFFFFFFFF
310
FFFFFFFFFFFFFFFFFFFFFFFFFFFFFFFFFFFFFFFFFFFFFFFFFFFFFFFFFFFFFFFF
310
FFFFFFFFFFFFFFFFFFFFFFFFFFFFFFFFFFFFFFFFFFFFFFFFFFFFFFFFFFFFFFFF
310
FFFFFFFFFFFFFFFFFFFFFFFFFFFFFFFFFFFFFFFFFFFFFFFFFFFFFFFFFFFFFFFF
310
FFFFFFFFFFFFFFFFFFFFFFFFFFFFFFFFFFFFFFFFFFFFFFFFFFFFFFFFFFFFFFFF
310
FFFFFFFFFFFFFFFFFFFFFFFFFFFFFFFFFFFFFFFFFFFFFFFFFFFFFFFFFFFFFFFF
310
FFFFFFFFFFFFFFFFFFFFFFFFFFFFFFFFFFFFFFFFFFFFFFFFFFFFFFFFFFFFFFFF
310
FFFFFFFFFFFFFFFFFFFFFFFFFFFFFFFFFFFFFFFFFFFFFFFFFFFFFFFFFFFFFFFF
310
FFFFFFFFFFFFFFFFFFFFFFFFFFFFFFFFFFFFFFFFFFFFFFFFFFFFFFFFFFFFFFFF
310
FFFFFFFFFFFFFFFFFFFFFFFFFFFFFFFFFFFFFFFFFFFFFFFFFFFFFFFFFFFFFFFF
310
FFFFFFFFFFFFFFFFFFFFFFFFFFFFFFFFFFFFFFFFFFFFFFFFFFFFFFFFFFFFFFFF
310
FFFFFFFFFFFFFFFFFFFFFFFFFFFFFFFFFFFFFFFFFFFFFFFFFFFFFFFFFFFFFFFF
310
FFFFFFFFFFFFFFFFFFFFFFFFFFFFFFFFFFFFFFFFFFFFFFFFFFFFFFFFFFFFFFFF
310
0100000200000000000000000000000000000000610072003D0082005C003107
310
980625000000000020EA260000000000680061007200650064005C003B004300
310
0100FEFF030A0000FFFFFFFF0A00030000000000C00000000000004607000000
310
5042727573680007000000504272757368000700000050427275736800F439B2
310
71000000000000000000000000004100540049002E004100430045005C004300
310
6F00720065002D005300740061007400690063003B0043003A005C0050007200
310
6F006700720061006D002000460069006C006500730020002800780038003600
310
29005C0043006F006D006D006F006E002000460069006C00650073005C004100
310
750074006F006400650073006B0020005300680061007200650064005C003B00
310
43003A005C00500072006F006700720061006D002000460069006C0065007300
310
5C004E006F0072006D0061006E005C004E0070006D005C00420069006E000000
310
43003A005C00500072006F006700720061006D002000460069006C0065007300
310
5C0053006F006C006900640057006F0072006B007300200043006F0072007000
310
5C0053006F006C006900640057006F0072006B00730020002800320029005C00
310
730065007400750070005C0069003300380036005C0073007700610063007400
310
770069007A002E006500780065000000220043003A005C00500072006F006700
310
20260000424D0E260000000000003E00000028000000B40200006E0000000100
310
01000000000000000000130B0000130B00000200000002000000000000FFFFFF
310
FFFFFFFFFFFFFFFFFFFFFFFFFFFFFFFFFFFFFFFFFFFFFFFFFFFFFFFFFFFFFFFF
310
FFFFFFFFFFFFFFFFFFFFFFFFFFFFFFFFFFFFFFFFFFFFFFFFFFFFFFFFFFFFFFFF
310
FFFFFFFFFFFFFFFFFFFFFFFFFFFFFFFFFFFFFFFFFFFFFFFFF000FFFFFFFFFFFF
310
FFFFFFFFFFFFFFFFFFFFFFFFFFFFFFFFFFFFFFFFFFFFFFFFFFFFFFFFFFFFFFFF
310
FFFFFFFFFFFFFFFFFFFFFFFFFFFFFFFFFFFFFFFFFFFFFFFFFFFFFFFFFFFFFFFF
310
FFFFFFFFFFFFFFFFFFFFFFFFFFFFFFFFF000FFFFFFFFFFFFFFFFFFFFFFFFFFFF
310
FFFFFFFFFFFFFFFFFFFFFFFFFFFFFFFFFFFFFFFFFFFFFFFFFFFFFFFFFFFFFFFF
310
FFFFFFFFFFFFFFFFFFFFFFFFFFFFFFFFFFFFFFFFFFFFFFFFFFFFFFFFFFFFFFFF
310
FFFFFFFFFFFFFFFFF000FFFFFFFFFFFFFFFFFFFFFFFFFFFFFFFFFFFFFFFFFFFF
310
FFFFFFFFFFFFFFFFFFFFFFFFFFFFFFFFFFFFFFFFFFFFFFFFFFFFFFFFFFFFFFFF
310
FFFFFFFFFFFFFFFFFFFFFFFFFFFFFFFFFFFFFFFFFFFFFFFFFFFFFFFFFFFFFFFF
310
F000FFFFFFFFFFFFFFFFFFFFFFFFFFFFFFFFFFFFFFFFFFFFFFFFFFFFFFFFFFFF
310
FFFFFFFFFFFFFFFFFFFFFFFFFFFFFFFFFFFFFFFFFFFFFFFFFFFFFFFFFFFFFFFF
310
FFFFFFFFFFFFFFFFFFFFFFFFFFFFFFFFFFFFFFFFFFFFFFFFF000FFFFFFFFFFFF
310
FFFFFFFFFFFFFFFFFFFFFFFFFFFFFFFFFFFFFFFFFFFFFFFFFFFFFFFFFFFFFFFF
310
FFFFFFFFFFFFFFFFFFFFFFFFFFFFFFFFFFFFFFFFFFFFFFFFFFFFFFFFFFFFFFFF
310
FFFFFFFFFFFFFFFFFFFFFFFFFFFFFFFFF000FFFFFFFFFFFFFFFFFFFFFFFFFFFF
310
FFFFFFFFFFFFFFFFFFFFFFFFFFFFFFFFFFFFFFFFFFFFFFFFFFFFFFFFFFFFFFFF
310
FFFFFFFFFFFFFFFFFFFFFFFFFFFFFFFFFFFFFFFFFFFFFFFFFFFFFFFFFFFFFFFF
310
FFFFFFFFFFFFFFFFF000FFFFFFFFFFFFFFFFFFFFFFFFFFFFFFFFFFFFFFFFFFFF
310
FFFFFFFFFFFFFFFFFFFFFFFFFFFFFFFFFFFFFFFFFFFFFFFFFFFFFFFFFFFFFFFF
310
FFFFFFFFFFFFFFFFFFFFFFFFFFFFFFFFFFFFFFFFFFFFFFFFFFFFFFFFFFFFFFFF
310
F000FFFFFFFFFFFFFFFFFFFFFFFFFFFFFFFFFFFFFFFFFFFFFFFFFFFFFFFFFFFF
310
FFFFFFFFFFFFFFFFFFFFFFFFFFFFFFFFFFFFFFFFFFFFFFFFFFFFFFFFFFFFFFFF
310
FFFFFFFFFFFFFFFFFFFFFFFFFFFFFFFFFFFFFFFFFFFFFFFFF000FFFFFFFFFFFF
310
FFFFFFFFFFFFFFFFFFFFFFFFFFFFFFFFFFFFFFFFFFFFFFFFFFFFFFFFFFFFFFFF
310
FFFFFFFFFFFFFFFFFFFFFFFFFFFFFFFFFFFFFFFFFFFFFFFFFFFFFFFFFFFFFFFF
310
FFFFFFFFFFFFFFFFFFFFFFFFFFFFFFFFF000FFFFFFFFFFFFFFFFFFFFFFFFFFFF
310
FFFFFFFFFFFFFFFFFFFFFFFFFFFFFFFFFFFFFFFFFFFFFFFFFFFFFFFFFFFFFFFF
310
FFFFFFFFFFFFFFFFFFFFFFFFFFFFFFFFFFFFFFFFFFFFFFFFFFFFFFFFFFFFFFFF
310
FFFFFFFFFFFFFFFFF000FFFFFFFFFFFFFFFFFFFFFFFFFFFFFFFFFFFFFFFFFFFF
310
FFFFFFFFFFFFFFFFFFFFFFFFFFFFFFFFFFFFFFFFFFFFFFFFFFFFFFFFFFFFFFFF
310
FFFFFFFFFFFFFFFFFFFFFFFFFFFFFFFFFFFFFFFFFFFFFFFFFFFFFFFFFFFFFFFF
310
F000FFFFFFFFFFFFFFFFFFFFFFFFFFFFFFFFFFFFFFFFFFFFFFFFFFFFFFFFFFFF
310
FFFFFFFFFFFFFFFFFFFFFFFFFFFFFFFFFFFFFFFFFFFFFFFFFFFFFFFFFFFFFFFF
310
FFFFFFFFFFFFFFFFFFFFFFFFFFFFFFFFFFFFFFFFFFFFFFFFF000FFFFFFFFFFFF
310
FFFFFFFFFFFFFFFFFFFFFFFFFFFFFFFFFFFFFFFFFFFFFFFFFFFFFFFFFFFFFFFF
310
FFFFFFFFFFFFFFFFFFFFFFFFFFFFFFFFFFFFFFFFFFFFFFFFFFFFFFFFFFFFFFFF
310
FFFFFFFFFFFFFFFFFFFFFFFFFFFFFFFFF000FFFFFFFFFFFFFFFFFFFFFFFFFFFF
310
FFFFFFFFFFFFFFFFFFFFFFFFFFFFFFFFFFFFFFFFFFFFFFFFFFFFFFFFFFFFFFFF
310
FFFFFFFFFFFFFFFFFFFFFFFFFFFFFFFFFFFFFFFFFFFFFFFFFFFFFFFFFFFFFFFF
310
FFFFFFFFFFFFFFFFF000FFFFFFFFFFFFFFFFFFFFFFFFFFFFFFFFFFFFFFFFFFFF
310
FFFFFFFFFFFFFFFFFFFFFFFFFFFFFFFFFFFFFFFFFFFFFFFFFFFFFFFFFFFFFFFF
310
FFFFFFFFFFFFFFFFFFFFFFFFFFFFFFFFFFFFFFFFFFFFFFFFFFFFFFFFFFFFFFFF
310
F000FFFFFFFFFFFFFFFFFFFFFFFFFFFFFFFFFFFFFFFFFFFFFFFFFFFFFFFFFFFF
310
FFFFFFFFFFFFFFFFFFFFFFFFFFFFFFFFFFFFFFFFFFFFFFFFFFFFFFFFFFFFFFFF
310
FFFFFFFFFFFFFFFFFFFFFFFFFFFFFFFFFFFFFFFFFFFFFFFFF000FFFFFFFFFFFF
310
FFFFFFFFFFFFFFFFFFFFFFFFFFFFFFFFFFFFFFFFFFFFFFFFFFFFFFFFFFFFFFFF
310
FFFFFFFFFFFFFFFFFFFFFFFFFFFFFFFFFFFFFFFFFFFFFFFFFFFFFFFFFFFFFFFF
310
FFFFFFFFFFFFFFFFFFFFFFFFFFFFFFFFF000FFFFFFFFFFFFFFFFFFFFFFFFFFFF
310
FFFFFFFFFFFFFFFFFFFFFFFFFFFFFFFFFFFFFFFFFFFFFFFFFFFFFFFFFFFFFFFF
310
FFFFFFFFFFFFFFFFFFFFFFFFFFFFFFFFFFFFFFFFFFFFFFFFFFFFFFFFFFFFFFFF
310
FFFFFFFFFFFFFFFFF000FFFFF80003FFFFFFFFFFFFFFFFFFFFFFFFFFFFFFFFFF
310
FFFFF00007FFFFFFFFFF00007FFFFFF800000000000000007FFFFFFFFFFFFFFF
310
FFFFFFFC001FFFFFFFFFFFFFFC001FFFFFFFFFFFFFFFFFFFFFFFFFFE0007FFFF
310
F000FFFF8000007FFFFFFFF8000FFFFFC0007FFFFF80007FFFFF0000007FFFFF
310
FFF8000007FFFFF800000000000000007FFFFFF0001FFFFFFFFFFFC00001FFFF
310
FFFFFFFFC00001FFFFFFFF000000000003FFFFE000007FFFF000FFFE0000000F
310
FFFFFFF0000FFFFF80007FFFFF80007FFFFC0000001FFFFFFFC0000001FFFFF8
310
00000000000000007FFFFFF0001FFFFFFFFFFE0000003FFFFFFFFFFE0000003F
310
FFFFFF000000000003FFFF0000000FFFF000FFF800000003FFFFFFF00007FFFF
310
80007FFFFF80007FFFF000000007FFFFFF000000003FFFF80000000000000000
310
7FFFFFF0001FFFFFFFFFF80000000FFFFFFFFFF80000000FFFFFFF0000000000
310
03FFFC00000003FFF000FFE000000000FFFFFFF00007FFFF80003FFFFF80007F
310
FFC000000001FFFFFC000000001FFFF800000000000000007FFFFFF0001FFFFF
310
FFFFE000000003FFFFFFFFE000000003FFFFFF000000000003FFF000000000FF
310
F000FF80000000007FFFFFF00007FFFF80003FFFFF80007FFF8000000000FFFF
310
F80000000007FFF800000000000000007FFFFFF0001FFFFFFFFFC000000001FF
310
FFFFFFC000000001FFFFFF000000000003FFC0000000007FF000FF0000000000
310
3FFFFFE00007FFFF00003FFFFF80007FFE00000000003FFFF00000000003FFF8
310
00000000000000007FFFFFF0001FFFFFFFFF8000000000FFFFFFFF8000000000
310
FFFFFF000000000003FF80000000003FF000FE00000000001FFFFFE00003FFFF
310
00003FFFFF80007FFC00000000001FFFE00000000001FFF8000001FFFE000000
310
7FFFFFF0001FFFFFFFFE00000000003FFFFFFE00000000003FFFFF0000000000
310
03FF00000000001FF000FC00000000000FFFFFE00003FFFF00001FFFFF80007F
310
F800000000001FFFC00000000000FFF8000001FFFE0000007FFFFFF0001FFFFF
310
FFFC00000000001FFFFFFC00000000001FFFFF000000000003FE00000000000F
310
F000F8000000000007FFFFE00003FFFF00001FFFFF80007FF800000000000FFF
310
800000000000FFF8000001FFFE0000007FFFFFF0001FFFFFFFF800000000000F
310
FFFFF800000000000FFFFF000000000003FC000000000007F000F80000000000
310
03FFFFC00003FFFE00001FFFFF80007FF0000000000007FF0000000000007FF8
310
000001FFFE0000007FFFFFF0001FFFFFFFF0000000000007FFFFF00000000000
310
07FFFF000000000003F8000000000003F000F0000000000003FFFFC00001FFFE
310
00001FFFFF80007FE0000000000007FE0000000000003FF8000001FFFE000000
310
7FFFFFF0001FFFFFFFF0000000000007FFFFF0000000000007FFFF0000000000
310
03F800001F800003F000E00001FFF00001FFFFC00001FFFE00000FFFFF80007F
310
E00001FFE00003FE00001FFF00003FF8000001FFFE0000007FFFFFF0001FFFFF
310
FFE000003E000003FFFFE000003E000003FFFF000000000003F00001FFF80001
310
F000E00007FFFC0001FFFFC00001FFFE00000FFFFF80007FC0000FFFFC0003FC
310
0000FFFFC0001FF8000001FFFE0000007FFFFFF0001FFFFFFFC00003FFE00001
310
FFFFC00003FFE00001FFFF0001FFFFFFFFF00007FFFE0001F000E0000FFFFF00
310
00FFFF800001FFFC00000FFFFF80007FC0001FFFFE0001FC0001FFFFE0001FF8
310
000001FFFE0000007FFFFFF0001FFFFFFF80000FFFF80000FFFF80000FFFF800
310
00FFFF0003FFFFFFFFE0000FFFFF8000F000C0003FFFFF8000FFFF800000FFFC
310
000007FFFF80007F80003FFFFF0001FC0003FFFFF0001FF8000001FFFE000000
310
7FFFFFF0001FFFFFFF80003FFFFE0000FFFF80003FFFFE0000FFFF0003FFFFFF
310
FFE0003FFFFF8000F000C0003FFFFF8000FFFF800000FFFC000007FFFF80007F
310
80007FFFFF8001F80007FFFFF8000FF8000001FFFE0000007FFFFFF0001FFFFF
310
FF00007FFFFF00007FFF00007FFFFF00007FFF0003FFFFFFFFE0003FFFFFC000
310
F000C0007FFFFFC000FFFF000000FFFC000007FFFF80007F8000FFFFFF8000F8
310
000FFFFFF8000FF8000001FFFE0000007FFFFFF0001FFFFFFF0000FFFFFF8000
310
7FFF0000FFFFFF80007FFF0003FFFFFFFFC0007FFFFFC00070008000FFFFFFC0
310
00FFFF000000FFF8000007FFFF80007F8000FFFFFF8000F8000FFFFFF8000FF8
310
000001FFFE0000007FFFFFF0001FFFFFFE0001FFFFFFC0003FFE0001FFFFFFC0
310
003FFF0003FFFFFFFFC0007FFFFFE00070008000FFFFFFC0007FFF0000007FF8
310
000003FFFF80007F0001FFFFFF8000F8000FFFFFF8000FF8000001FFFE000000
310
7FFFFFF0001FFFFFFE0001FFFFFFC0003FFE0001FFFFFFC0003FFF0003FFFFFF
310
FFC000FFFFFFE00070008000FFFFFFC0007FFF0000007FF8000003FFFF80007F
310
0001FFFFFF8000F8001FFFFFF8000FF8000001FFFE0000007FFFFFF0001FFFFF
310
FE0003FFFFFFE0003FFE0003FFFFFFE0003FFF0003FFFFFFFFC000FFFFFFE000
310
70008000FFFFFFC0007FFE0000007FF8000003FFFF80007F0001FFFFFF8000F0
310
001FFFFFF8000FF8000001FFFE0000007FFFFFF0001FFFFFFC0003FFFFFFE000
310
1FFC0003FFFFFFE0001FFF0003FFFFFFFFC000FFFFFFC00070008000FFFFFF80
310
007FFE0000007FF0000003FFFF80007F0001FFFFFF0000F0001FFFFFF8000FF8
310
000001FFFE0000007FFFFFF0001FFFFFFC0007FFFFFFF0001FFC0007FFFFFFF0
310
001FFF0003FFFFFFFFC000FFFFFFC00070008001FFFFFF0000FFFE0000003FF0
310
000001FFFF80007F0001FFFFFF0000F8001FFFFFF0000FF8000001FFFE000000
310
7FFFFFF0001FFFFFFC0007FFFFFFF0001FFC0007FFFFFFF0001FFF0003FFFFFF
310
FFC001FFFFFF80007000FFFFFFFFFE0000FFFE0008003FF0008001FFFF80007F
310
FFFFFFFFFC0000FFFFFFFFFFE0000FF8000001FFFE0000007FFFFFF0001FFFFF
310
F8000FFFFFFFF8000FF8000FFFFFFFF8000FFF0003FFFFFFFFFFFFFFFFFF0000
310
7000FFFFFFFFFC0000FFFC0008003FF0008001FFFF80007FFFFFFFFFF80001FF
310
FFFFFFFF80000FF8000001FFFE0000007FFFFFF0001FFFFFF8000FFFFFFFF800
310
0FF8000FFFFFFFF8000FFF0003FFFFFFFFFFFFFFFFFE0000F000FFFFFFFFE000
310
00FFFC000C003FE000C001FFFF80007FFFFFFFFFC00001FFFFFFFFFE00001FF8
310
000001FFFE0000007FFFFFF0001FFFFFF8000FFFFFFFF8000FF8000FFFFFFFF8
310
000FFF0003FFFFFFFFFFFFFFFFF00000F000FFFFFFFE000001FFFC000C001FE0
310
00C000FFFF80007FFFFFFFFE000001FFFFFFFFE000001FF80FFFFFFFFFFFFFC0
310
7FFFFFF0001FFFFFF8000FFFFFFFF8000FF8000FFFFFFFF8000FFF0003FFFFFF
310
FFFFFFFFFF800000F000FFFFFFC0000001FFFC001C001FE001C000FFFF80007F
310
FFFFFF80000003FFFFFFF80000001FF80FFFFFFFFFFFFFC07FFFFFF0001FFFFF
310
F8001FFFFFFFFC000FF8001FFFFFFFFC000FFF0003FFFFFFFFFFFFFFF0000001
310
F000FFFFF800000001FFF8001C001FE001C000FFFF80007FFFFFF800000003FF
310
FFFF800000003FF80FFFFFFFFFFFFFC07FFFFFF0001FFFFFF8001FFFFFFFFC00
310
0FF8001FFFFFFFFC000FFF0003FFFFFFFFFFFFFE00000001F000FFFFC0000000
310
03FFF8001E001FC001E000FFFF80007FFFFF8000000007FFFFFC000000003FF8
310
0FFFFFFFFFFFFFC07FFFFFF0001FFFFFF8001FFFFFFFFC000FF8001FFFFFFFFC
310
000FFF0003FFFFFFFFFFFFE000000003F000FFFE0000000007FFF8001E000FC0
310
01E0007FFF80007FFFFE0000000007FFFFE0000000007FF80FFFFFFFFFFFFFC0
310
7FFFFFF0001FFFFFF0001FFFFFFFFC0007F0001FFFFFFFFC0007FF0003FFFFFF
310
FFFFFF0000000003F000FFF80000000007FFF8001E000FC003E0007FFF80007F
310
FFF0000000000FFFFF8000000000FFF80FFFFFFFFFFFFFC07FFFFFF0001FFFFF
310
F0001FFFFFFFFC0007F0001FFFFFFFFC0007FF0003FFFFFFFFFFFC0000000007
310
F000FFE0000000000FFFF0003E000FC003E0007FFF80007FFFC0000000001FFF
310
FE0000000001FFF80FFFFFFFFFFFFFC07FFFFFF0001FFFFFF0001FFFFFFFFC00
310
07F0001FFFFFFFFC0007FF0003FFFFFFFFFFF0000000000FF000FFC000000000
310
1FFFF0003F000F8003F0003FFF80007FFF80000000003FFFF80000000003FFF8
310
0FFFFFFFFFFFFFC07FFFFFF0001FFFFFF0001FFFFFFFFC0007F0001FFFFFFFFC
310
0007FF0003FFFFFFFFFFE0000000001FF000FF00000000007FFFF0003F000780
310
03F0003FFF80007FFF00000000007FFFF00000000007FFF80FFFFFFFFFFFFFC0
310
7FFFFFF0001FFFFFF0001FFFFFFFFC0007F0001FFFFFFFFC0007FF0003FFFFFF
310
FFFF80000000007FF000FE0000000000FFFFE0003F00078007F0003FFF80007F
310
FE0000000001FFFFE0000000001FFFF80FFFFFFFFFFFFFC07FFFFFF0001FFFFF
310
F0001FFFFFFFFC0007F0001FFFFFFFFC0007FF0003FFFFFFFFFF0000000000FF
310
F000FC0000000003FFFFE0007F00078007F0003FFF80007FFC0000000007FFFF
310
C0000000007FFFF80FFFFFFFFFFFFFC07FFFFFF0001FFFFFF8001FFFFFFFFC00
310
0FF8001FFFFFFFFC000FFF0003FFFFFFFFFE0000000003FFF000FC000000000F
310
FFFFE0007F80070007F8001FFF80007FF8000000001FFFFF8000000001FFFFF8
310
0FFFFFFFFFFFFFC07FFFFFF0001FFFFFF8001FFFFFFFFC000FF8001FFFFFFFFC
310
000FFF0003FFFFFFFFFC000000000FFFF000F8000000007FFFFFE0007F800700
310
07F8001FFF80007FF000000000FFFFFF800000000FFFFFF80FFFFFFFFFFFFFC0
310
7FFFFFF0001FFFFFF8000FFFFFFFF8000FF8000FFFFFFFF8000FFF0003FFFFFF
310
FFFC000000007FFFF000F800000007FFFFFFC0007F8003000FF8001FFF80007F
310
F000000007FFFFFF000000007FFFFFF80FFFFFFFFFFFFFC07FFFFFF0001FFFFF
310
F8000FFFFFFFF8000FF8000FFFFFFFF8000FFF0003FFFFFFFFF80000000FFFFF
310
F000F0000000FFFFFFFFC000FF8003000FF8001FFF80007FE0000000FFFFFFFF
310
0000000FFFFFFFF8000001FFFE0000007FFFFFF0001FFFFFF8000FFFFFFFF800
310
0FF8000FFFFFFFF8000FFF0003FFFFFFFFF8000000FFFFFFF000F000000FFFFF
310
FFFFC000FFC002000FF8000FFF80007FE000001FFFFFFFFE000001FFFFFFFFF8
310
000001FFFE0000007FFFFFF0001FFFFFF8000FFFFFFFF8000FF8000FFFFFFFF8
310
000FFF0003FFFFFFFFF000001FFFFFFFF000E00000FFFFFFFFFFC000FFC00200
310
0FFC000FFF80007FE00001FFFFFFFFFE00001FFFFFFFFFF8000001FFFE000000
310
7FFFFFF0001FFFFFFC000FFFFFFFF8001FFC000FFFFFFFF8001FFF0003FFFFFF
310
FFF00001FFFFFFFFF000E00007FFFFFFFFFF8000FFC000001FFC000FFF80007F
310
C0000FFFFFFFFFFE0000FFFFFFFFFFF8000001FFFE0000007FFFFFF0001FFFFF
310
FC0007FFFFFFF0001FFC0007FFFFFFF0001FFF0003FFFFFFFFF00007FFFFFFFF
310
F000E0001FFFFFFFFFFF8000FFC000001FFC000FFF80007FC0003FFFFFFFFFFE
310
0001FFFFFFFFFFF8000001FFFE0000007FFFFFF0001FFFFFFC0007FFFFFFF000
310
1FFC0007FFFFFFF0001FFF0003FFFFFFFFF0001FFFFFFFFFF000E0003FFFFF00
310
03FF8001FFE000001FFC0007FF80007FC0007FFFFF0007FC0003FFFFF0003FF8
310
000001FFFE0000007FFFFFF0001FFFFFFC0003FFFFFFE0001FFC0003FFFFFFE0
310
001FFF0003FFFFFFFFF0003FFFFFFFFFF000E0003FFFFF0001FF8001FFE00000
310
1FFE0007FF80007FC0007FFFFE0003FC0007FFFFE0003FF8000001FFFE000000
310
7FFFFFF0001FFFFFFE0003FFFFFFE0003FFE0003FFFFFFE0003FFF0003FFFFFF
310
FFF0003FFFFF8001F000E0003FFFFF0001FF0001FFE000001FFE0007FF80007F
310
C0007FFFFE0003FC0007FFFFE0003FF8000001FFFE0000007FFFFFF0001FFFFF
310
FE0001FFFFFFC0003FFE0001FFFFFFC0003FFF0003FFFFFFFFF0003FFFFF0001
310
F000E0003FFFFF0003FF0001FFE000003FFE0007FF80007FC0007FFFFE0003FC
310
0007FFFFE0003FF8000001FFFE0000007FFFFFF0001FFFFFFF0001FFFFFFC000
310
7FFF0001FFFFFFC0007FFF0003FFFFFFFFF0003FFFFF0001F000E0003FFFFE00
310
03FF0003FFF000003FFE0003FF80007FC0007FFFFC0003FE0007FFFFE0003FF8
310
000001FFFE0000007FFFFFF0001FFFFFFF0000FFFFFF80007FFF0000FFFFFF80
310
007FFF0003FFFFFFFFF0003FFFFF0001F000E0003FFFFE0003FF0003FFF00000
310
3FFF0003FF80007FC0007FFFFC0007FE0007FFFFC0003FF8000001FFFE000000
310
7FFFFFF0001FFFFFFF80007FFFFF0000FFFF80007FFFFF0000FFFF0003FFFFFF
310
FFF0003FFFFF0003F000E0003FFFFC0003FE0003FFF000003FFF0003FF80007F
310
E0003FFFF80007FE0003FFFFC0007FF8000001FFFE0000007FFFFFF0001FFFFF
310
FF80003FFFFE0000FFFF80003FFFFE0000FFFF0003FFFFFFFFF0001FFFFE0003
310
F000F0001FFFF80003FE0003FFF000007FFF0001FF80007FE0003FFFF00007FE
310
0001FFFF80007FF8000001FFFE0000007FFFFFF0001FFFFFFFC0000FFFF80001
310
FFFFC0000FFFF80001FFFF0003FFFFFFFFF0001FFFFC0003F000F0000FFFF000
310
07FE0007FFF800007FFF0001FF80007FE0001FFFE00007FF0000FFFE00007FF8
310
000001FFFE0000007FFFFFF0001FFFFFFFC00003FFE00001FFFFC00003FFE000
310
01FFFF0003FFFFFFFFF8000FFFF80003F000F00003FFC00007FC0007FFF80000
310
7FFF8001FF80007FF00007FF80000FFF00007FF80000FFF8000001FFFE000000
310
7F80000000000001FFE000003E000003FFFFE000003E000003FFFF0003FFFFFF
310
FFF80003FFE00007F000F800000000000FFC0007FFF800007FFF8001FF80007F
310
F000000000000FFF000000000000FFF8000001FFFE0000007F80000000000001
310
FFF0000000000007FFFFF0000000000007FFFF0003FFFFFFFFFC00007E000007
310
F000F800000000000FFC0007FFF80000FFFF8000FF80007FF800000000001FFF
310
800000000001FFF8000001FFFE0000007F80000000000001FFF800000000000F
310
FFFFF800000000000FFFFF0003FFFFFFFFFC00000000000FF000FC0000000000
310
1FFC0007FFFC0000FFFF8000FF80007FF800000000003FFFC00000000001FFF8
310
000001FFFE0000007F80000000000001FFF800000000000FFFFFF80000000000
310
0FFFFF0003FFFFFFFFFE00000000001FF000FE00000000003FF8000FFFFC0000
310
FFFF8000FF80007FFC00000000003FFFC00000000003FFF8000001FFFE000000
310
7F80000000000001FFFC00000000001FFFFFFC00000000001FFFFF0003FFFFFF
310
FFFF00000000001FF000FF00000000003FF8000FFFFC0000FFFFC000FF80007F
310
FE00000000007FFFE00000000007FFF8000001FFFE0000007F80000000000001
310
FFFE00000000003FFFFFFE00000000003FFFFF0003FFFFFFFFFF80000000003F
310
F000FF80000000007FF8000FFFFC0001FFFFC0007F80007FFF0000000000FFFF
310
F0000000000FFFF800000000000000007F80000000000001FFFF8000000000FF
310
FFFFFF8000000000FFFFFF0003FFFFFFFFFFC0000000007FF000FFC000000000
310
FFF8000FFFFE0001FFFFC0007F80007FFF8000000001FFFFF8000000001FFFF8
310
00000000000000007F80000000000001FFFFC000000001FFFFFFFFC000000001
310
FFFFFF0003FFFFFFFFFFE000000000FFF000FFE000000003FFF0001FFFFE0001
310
FFFFC0007F80007FFFC000000007FFFFFE000000003FFFF80000000000000000
310
7F80000000000001FFFFE000000003FFFFFFFFE000000003FFFFFF0003FFFFFF
310
FFFFF000000003FFF000FFF80000000FFFF0001FFFFE0001FFFFE0007F80007F
310
FFF00000000FFFFFFF00000000FFFFF800000000000000007F80000000000001
310
FFFFF80000000FFFFFFFFFF80000000FFFFFFF0003FFFFFFFFFFFC0000000FFF
310
F000FFFE0000003FFFF0001FFFFE0003FFFFE0003F80007FFFFC0000003FFFFF
310
FFC0000003FFFFF800000000000000007F80000000000001FFFFFE0000003FFF
310
FFFFFFFE0000003FFFFFFF0003FFFFFFFFFFFF0000003FFFF000FFFF800000FF
310
FFF0001FFFFF0003FFFFE0003F80007FFFFF000001FFFFFFFFF800001FFFFFF8
310
00000000000000007F80000000000001FFFFFFC00001FFFFFFFFFFFFC00001FF
310
FFFFFF0003FFFFFFFFFFFFC00000FFFFF000FFFFF8000FFFFFFFFFFFFFFFFFFF
310
FFFFFFFFFFFFFFFFFFFFF0001FFFFFFFFFFF0000FFFFFFF80000000000000000
310
7FFFFFFFFFFFFFFFFFFFFFFC001FFFFFFFFFFFFFFC001FFFFFFFFFFFFFFFFFFF
310
FFFFFFFC001FFFFFF000FFFFFFFFFFFFFFFFFFFFFFFFFFFFFFFFFFFFFFFFFFFF
310
FFFFFFFFFFFFFFFFFFFFFFFFFFFFFFFFFFFFFFFFFFFFFFFFFFFFFFFFFFFFFFFF
310
FFFFFFFFFFFFFFFFFFFFFFFFFFFFFFFFFFFFFFFFFFFFFFFFFFFFFFFFFFFFFFFF
310
F000FFFFFFFFFFFFFFFFFFFFFFFFFFFFFFFFFFFFFFFFFFFFFFFFFFFFFFFFFFFF
310
FFFFFFFFFFFFFFFFFFFFFFFFFFFFFFFFFFFFFFFFFFFFFFFFFFFFFFFFFFFFFFFF
310
FFFFFFFFFFFFFFFFFFFFFFFFFFFFFFFFFFFFFFFFFFFFFFFFF000FFFFFFFFFFFF
310
FFFFFFFFFFFFFFFFFFFFFFFFFFFFFFFFFFFFFFFFFFFFFFFFFFFFFFFFFFFFFFFF
310
FFFFFFFFFFFFFFFFFFFFFFFFFFFFFFFFFFFFFFFFFFFFFFFFFFFFFFFFFFFFFFFF
310
FFFFFFFFFFFFFFFFFFFFFFFFFFFFFFFFF000FFFFFFFFFFFFFFFFFFFFFFFFFFFF
310
FFFFFFFFFFFFFFFFFFFFFFFFFFFFFFFFFFFFFFFFFFFFFFFFFFFFFFFFFFFFFFFF
310
FFFFFFFFFFFFFFFFFFFFFFFFFFFFFFFFFFFFFFFFFFFFFFFFFFFFFFFFFFFFFFFF
310
FFFFFFFFFFFFFFFFF000FFFFFFFFFFFFFFFFFFFFFFFFFFFFFFFFFFFFFFFFFFFF
310
FFFFFFFFFFFFFFFFFFFFFFFFFFFFFFFFFFFFFFFFFFFFFFFFFFFFFFFFFFFFFFFF
310
FFFFFFFFFFFFFFFFFFFFFFFFFFFFFFFFFFFFFFFFFFFFFFFFFFFFFFFFFFFFFFFF
310
F000FFFFFFFFFFFFFFFFFFFFFFFFFFFFFFFFFFFFFFFFFFFFFFFFFFFFFFFFFFFF
310
FFFFFFFFFFFFFFFFFFFFFFFFFFFFFFFFFFFFFFFFFFFFFFFFFFFFFFFFFFFFFFFF
310
FFFFFFFFFFFFFFFFFFFFFFFFFFFFFFFFFFFFFFFFFFFFFFFFF000FFFFFFFFFFFF
310
FFFFFFFFFFFFFFFFFFFFFFFFFFFFFFFFFFFFFFFFFFFFFFFFFFFFFFFFFFFFFFFF
310
FFFFFFFFFFFFFFFFFFFFFFFFFFFFFFFFFFFFFFFFFFFFFFFFFFFFFFFFFFFFFFFF
310
FFFFFFFFFFFFFFFFFFFFFFFFFFFFFFFFF000FFFFFFFFFFFFFFFFFFFFFFFFFFFF
310
FFFFFFFFFFFFFFFFFFFFFFFFFFFFFFFFFFFFFFFFFFFFFFFFFFFFFFFFFFFFFFFF
310
FFFFFFFFFFFFFFFFFFFFFFFFFFFFFFFFFFFFFFFFFFFFFFFFFFFFFFFFFFFFFFFF
310
FFFFFFFFFFFFFFFFF000FFFFFFFFFFFFFFFFFFFFFFFFFFFFFFFFFFFFFFFFFFFF
310
FFFFFFFFFFFFFFFFFFFFFFFFFFFFFFFFFFFFFFFFFFFFFFFFFFFFFFFFFFFFFFFF
310
FFFFFFFFFFFFFFFFFFFFFFFFFFFFFFFFFFFFFFFFFFFFFFFFFFFFFFFFFFFFFFFF
310
F000FFFFFFFFFFFFFFFFFFFFFFFFFFFFFFFFFFFFFFFFFFFFFFFFFFFFFFFFFFFF
310
FFFFFFFFFFFFFFFFFFFFFFFFFFFFFFFFFFFFFFFFFFFFFFFFFFFFFFFFFFFFFFFF
310
FFFFFFFFFFFFFFFFFFFFFFFFFFFFFFFFFFFFFFFFFFFFFFFFF000FFFFFFFFFFFF
310
FFFFFFFFFFFFFFFFFFFFFFFFFFFFFFFFFFFFFFFFFFFFFFFFFFFFFFFFFFFFFFFF
310
FFFFFFFFFFFFFFFFFFFFFFFFFFFFFFFFFFFFFFFFFFFFFFFFFFFFFFFFFFFFFFFF
310
FFFFFFFFFFFFFFFFFFFFFFFFFFFFFFFFF000FFFFFFFFFFFFFFFFFFFFFFFFFFFF
310
FFFFFFFFFFFFFFFFFFFFFFFFFFFFFFFFFFFFFFFFFFFFFFFFFFFFFFFFFFFFFFFF
310
FFFFFFFFFFFFFFFFFFFFFFFFFFFFFFFFFFFFFFFFFFFFFFFFFFFFFFFFFFFFFFFF
310
FFFFFFFFFFFFFFFFF000FFFFFFFFFFFFFFFFFFFFFFFFFFFFFFFFFFFFFFFFFFFF
310
FFFFFFFFFFFFFFFFFFFFFFFFFFFFFFFFFFFFFFFFFFFFFFFFFFFFFFFFFFFFFFFF
310
FFFFFFFFFFFFFFFFFFFFFFFFFFFFFFFFFFFFFFFFFFFFFFFFFFFFFFFFFFFFFFFF
310
F000FFFFFFFFFFFFFFFFFFFFFFFFFFFFFFFFFFFFFFFFFFFFFFFFFFFFFFFFFFFF
310
FFFFFFFFFFFFFFFFFFFFFFFFFFFFFFFFFFFFFFFFFFFFFFFFFFFFFFFFFFFFFFFF
310
FFFFFFFFFFFFFFFFFFFFFFFFFFFFFFFFFFFFFFFFFFFFFFFFF000FFFFFFFFFFFF
310
FFFFFFFFFFFFFFFFFFFFFFFFFFFFFFFFFFFFFFFFFFFFFFFFFFFFFFFFFFFFFFFF
310
FFFFFFFFFFFFFFFFFFFFFFFFFFFFFFFFFFFFFFFFFFFFFFFFFFFFFFFFFFFFFFFF
310
FFFFFFFFFFFFFFFFFFFFFFFFFFFFFFFFF000FFFFFFFFFFFFFFFFFFFFFFFFFFFF
310
FFFFFFFFFFFFFFFFFFFFFFFFFFFFFFFFFFFFFFFFFFFFFFFFFFFFFFFFFFFFFFFF
310
FFFFFFFFFFFFFFFFFFFFFFFFFFFFFFFFFFFFFFFFFFFFFFFFFFFFFFFFFFFFFFFF
310
FFFFFFFFFFFFFFFFF000FFFFFFFFFFFFFFFFFFFFFFFFFFFFFFFFFFFFFFFFFFFF
310
FFFFFFFFFFFFFFFFFFFFFFFFFFFFFFFFFFFFFFFFFFFFFFFFFFFFFFFFFFFFFFFF
310
FFFFFFFFFFFFFFFFFFFFFFFFFFFFFFFFFFFFFFFFFFFFFFFFFFFFFFFFFFFFFFFF
310
F000FFFFFFFFFFFFFFFFFFFFFFFFFFFFFFFFFFFFFFFFFFFFFFFFFFFFFFFFFFFF
310
FFFFFFFFFFFFFFFFFFFFFFFFFFFFFFFFFFFFFFFFFFFFFFFFFFFFFFFFFFFFFFFF
310
FFFFFFFFFFFFFFFFFFFFFFFFFFFFFFFFFFFFFFFFFFFFFFFFF000FFFFFFFFFFFF
310
FFFFFFFFFFFFFFFFFFFFFFFFFFFFFFFFFFFFFFFFFFFFFFFFFFFFFFFFFFFFFFFF
310
FFFFFFFFFFFFFFFFFFFFFFFFFFFFFFFFFFFFFFFFFFFFFFFFFFFFFFFFFFFFFFFF
310
FFFFFFFFFFFFFFFFFFFFFFFFFFFFFFFFF000FFFFFFFFFFFFFFFFFFFFFFFFFFFF
310
FFFFFFFFFFFFFFFFFFFFFFFFFFFFFFFFFFFFFFFFFFFFFFFFFFFFFFFFFFFFFFFF
310
FFFFFFFFFFFFFFFFFFFFFFFFFFFFFFFFFFFFFFFFFFFFFFFFFFFFFFFFFFFFFFFF
310
FFFFFFFFFFFFFFFFF000FFFFFFFFFFFFFFFFFFFFFFFFFFFFFFFFFFFFFFFFFFFF
310
FFFFFFFFFFFFFFFFFFFFFFFFFFFFFFFFFFFFFFFFFFFFFFFFFFFFFFFFFFFFFFFF
310
FFFFFFFFFFFFFFFFFFFFFFFFFFFFFFFFFFFFFFFFFFFFFFFFFFFFFFFFFFFFFFFF
310
F000FFFFFFFFFFFFFFFFFFFFFFFFFFFFFFFFFFFFFFFFFFFFFFFFFFFFFFFFFFFF
310
FFFFFFFFFFFFFFFFFFFFFFFFFFFFFFFFFFFFFFFFFFFFFFFFFFFFFFFFFFFFFFFF
310
FFFFFFFFFFFFFFFFFFFFFFFFFFFFFFFFFFFFFFFFFFFFFFFFF000FFFFFFFFFFFF
310
FFFFFFFFFFFFFFFFFFFFFFFFFFFFFFFFFFFFFFFFFFFFFFFFFFFFFFFFFFFFFFFF
310
FFFFFFFFFFFFFFFFFFFFFFFFFFFFFFFFFFFFFFFFFFFFFFFFFFFFFFFFFFFFFFFF
310
FFFFFFFFFFFFFFFFFFFFFFFFFFFFFFFFF0000000000000000000000000000000
310
0000000001000000010000000100000001000000010000000100000001000000
310
0100000001000000010000000100000001000000010000000100000001000000
310
0100000001000000010000000100000001000000010000000100000001000000
310
0100000001000000010000000100000001000000010000000000000001000000
310
0000000001000000010000000100000001000000010000000100000001000000
310
0100000001000000010000000000000001000000010000000000000001000000
310
0100000001000000010000000100000001000000010000000100000001000000
310
0100000001000000010000000100000001000000010000000100000001000000
310
0100000001000000000000000100000000000000010000000100000001000000
310
0100000001000000010000000100000001000000010000000100000000000000
310
0100000000000000010000000100000001000000010000000100000001000000
310
0100000001000000010000000100000001000000010000000100000001000000
310
0100000001000000010000000100000001000000010000000100000000000000
310
0100000001000000010000000100000001000000010000000100000001000000
310
0100000001000000010000000100000001000000010000000100000001000000
  1
OLE
  0
ENDSEC
  0
SECTION
  2
OBJECTS
  0
DICTIONARY
  5
C
330
0
100
AcDbDictionary
281
     1
  3
ACAD_GROUP
350
D
  3
ACAD_LAYOUT
350
1A
  3
ACAD_MLEADERSTYLE
350
1F7
  3
ACAD_MLINESTYLE
350
17
  3
ACAD_PLOTSETTINGS
350
19
  3
ACAD_PLOTSTYLENAME
350
E
  3
ACAD_TABLESTYLE
350
1F6
  3
ACAD_VISUALSTYLE
350
2A
  3
AcDbVariableDictionary
350
1F8
  0
DICTIONARY
  5
D
102
{ACAD_REACTORS
330
C
102
}
330
C
100
AcDbDictionary
281
     1
  0
DICTIONARY
  5
1A
102
{ACAD_REACTORS
330
C
102
}
330
C
100
AcDbDictionary
281
     1
  3
Layout1
350
1E
  3
Layout2
350
26
  3
Model
350
22
  0
DICTIONARY
  5
1F7
102
{ACAD_REACTORS
330
C
102
}
330
C
100
AcDbDictionary
281
     1
  0
DICTIONARY
  5
17
102
{ACAD_REACTORS
330
C
102
}
330
C
100
AcDbDictionary
281
     1
  3
Standard
350
18
  0
DICTIONARY
  5
19
102
{ACAD_REACTORS
330
C
102
}
330
C
100
AcDbDictionary
281
     1
  0
ACDBDICTIONARYWDFLT
  5
E
102
{ACAD_REACTORS
330
C
102
}
330
C
100
AcDbDictionary
281
     1
  3
Normal
350
F
100
AcDbDictionaryWithDefault
340
F
  0
DICTIONARY
  5
1F6
102
{ACAD_REACTORS
330
C
102
}
330
C
100
AcDbDictionary
281
     1
  0
DICTIONARY
  5
2A
102
{ACAD_REACTORS
330
C
102
}
330
C
100
AcDbDictionary
281
     1
  3
2dWireframe
350
2F
  3
3D Hidden
350
31
  3
3dWireframe
350
30
  3
Basic
350
32
  3
Brighten
350
36
  3
ColorChange
350
3A
  3
Conceptual
350
34
  3
Dim
350
35
  3
Facepattern
350
39
  3
Flat
350
2B
  3
FlatWithEdges
350
2C
  3
Gouraud
350
2D
  3
GouraudWithEdges
350
2E
  3
Linepattern
350
38
  3
Realistic
350
33
  3
Thicken
350
37
  0
DICTIONARY
  5
1F8
102
{ACAD_REACTORS
330
C
102
}
330
C
100
AcDbDictionary
281
     1
  3
PSOLHEIGHT
350
1FA
  3
PSOLWIDTH
350
1F9
  0
LAYOUT
  5
1E
102
{ACAD_REACTORS
330
1A
102
}
330
1A
100
AcDbPlotSettings
  1

  2
none_device
  4

  6

 40
0.0
 41
0.0
 42
0.0
 43
0.0
 44
0.0
 45
0.0
 46
0.0
 47
0.0
 48
0.0
 49
0.0
140
0.0
141
0.0
142
1.0
143
1.0
 70
   688
 72
     0
 73
     0
 74
     5
  7

 75
    16
147
1.0
148
0.0
149
0.0
100
AcDbLayout
  1
Layout1
 70
     1
 71
     1
 10
0.0
 20
0.0
 11
420.0
 21
297.0
 12
0.0
 22
0.0
 32
0.0
 14
1.0000000000E+20
 24
1.0000000000E+20
 34
1.0000000000E+20
 15
-1.0000000000E+20
 25
-1.0000000000E+20
 35
-1.0000000000E+20
146
0.0
 13
0.0
 23
0.0
 33
0.0
 16
1.0
 26
0.0
 36
0.0
 17
0.0
 27
1.0
 37
0.0
 76
     0
330
1B
  0
LAYOUT
  5
26
102
{ACAD_REACTORS
330
1A
102
}
330
1A
100
AcDbPlotSettings
  1

  2
none_device
  4

  6

 40
0.0
 41
0.0
 42
0.0
 43
0.0
 44
0.0
 45
0.0
 46
0.0
 47
0.0
 48
0.0
 49
0.0
140
0.0
141
0.0
142
1.0
143
1.0
 70
   688
 72
     0
 73
     0
 74
     5
  7

 75
    16
147
1.0
148
0.0
149
0.0
100
AcDbLayout
  1
Layout2
 70
     1
 71
     2
 10
0.0
 20
0.0
 11
0.0
 21
0.0
 12
0.0
 22
0.0
 32
0.0
 14
0.0
 24
0.0
 34
0.0
 15
0.0
 25
0.0
 35
0.0
146
0.0
 13
0.0
 23
0.0
 33
0.0
 16
1.0
 26
0.0
 36
0.0
 17
0.0
 27
1.0
 37
0.0
 76
     0
330
23
  0
LAYOUT
  5
22
102
{ACAD_REACTORS
330
1A
102
}
330
1A
100
AcDbPlotSettings
  1

  2
none_device
  4

  6

 40
0.0
 41
0.0
 42
0.0
 43
0.0
 44
0.0
 45
0.0
 46
0.0
 47
0.0
 48
0.0
 49
0.0
140
0.0
141
0.0
142
1.0
143
1.0
 70
  1712
 72
     0
 73
     0
 74
     0
  7

 75
     0
147
1.0
148
0.0
149
0.0
100
AcDbLayout
  1
Model
 70
     1
 71
     0
 10
0.0
 20
0.0
 11
297.0
 21
210.0
 12
0.0
 22
0.0
 32
0.0
 14
0.0
 24
0.0
 34
0.0
 15
297.0
 25
210.0
 35
0.0
146
0.0
 13
0.0
 23
0.0
 33
0.0
 16
1.0
 26
0.0
 36
0.0
 17
0.0
 27
1.0
 37
0.0
 76
     0
330
1F
331
29
  0
MLINESTYLE
  5
18
102
{ACAD_REACTORS
330
17
102
}
330
17
100
AcDbMlineStyle
  2
Standard
 70
     0
  3

 62
   256
 51
90.0
 52
90.0
 71
     2
 49
0.5
 62
   256
  6
BYLAYER
 49
-0.5
 62
   256
  6
BYLAYER
  0
ACDBPLACEHOLDER
  5
F
102
{ACAD_REACTORS
330
E
102
}
330
E
  0
VISUALSTYLE
  5
2F
102
{ACAD_REACTORS
330
2A
102
}
330
2A
100
AcDbVisualStyle
  2
2dWireframe
 70
     4
 71
     0
 72
     2
 73
     0
 90
        0
 40
-0.6
 41
-30.0
 62
     5
 63
     7
 74
     1
 91
        4
 64
     7
 65
   257
 75
     1
175
     1
 42
1.0
 92
        0
 66
   257
 43
1.0
 76
     1
 77
     6
 78
     2
 67
     7
 79
     5
170
     0
171
     0
290
     0
174
     0
 93
        1
 44
0.0
173
     0
291
     0
 45
0.0
1001
ACAD
1000
AcDbSavedByObjectVersion
1070
     0
  0
VISUALSTYLE
  5
31
102
{ACAD_REACTORS
330
2A
102
}
330
2A
100
AcDbVisualStyle
  2
3D Hidden
 70
     6
 71
     1
 72
     2
 73
     2
 90
        0
 40
-0.6
 41
-30.0
 62
     5
 63
     7
 74
     2
 91
        2
 64
     7
 65
   257
 75
     2
175
     1
 42
40.0
 92
        0
 66
   257
 43
1.0
 76
     1
 77
     6
 78
     2
 67
     7
 79
     3
170
     0
171
     0
290
     0
174
     0
 93
        1
 44
0.0
173
     0
291
     0
 45
0.0
1001
ACAD
1000
AcDbSavedByObjectVersion
1070
     0
  0
VISUALSTYLE
  5
30
102
{ACAD_REACTORS
330
2A
102
}
330
2A
100
AcDbVisualStyle
  2
3dWireframe
 70
     5
 71
     0
 72
     2
 73
     0
 90
        0
 40
-0.6
 41
-30.0
 62
     5
 63
     7
 74
     1
 91
        4
 64
     7
 65
   257
 75
     1
175
     1
 42
1.0
 92
        0
 66
   257
 43
1.0
 76
     1
 77
     6
 78
     2
 67
     7
 79
     5
170
     0
171
     0
290
     0
174
     0
 93
        1
 44
0.0
173
     0
291
     0
 45
0.0
1001
ACAD
1000
AcDbSavedByObjectVersion
1070
     0
  0
VISUALSTYLE
  5
32
102
{ACAD_REACTORS
330
2A
102
}
330
2A
100
AcDbVisualStyle
  2
Basic
 70
     7
 71
     1
 72
     0
 73
     1
 90
        0
 40
-0.6
 41
-30.0
 62
     5
 63
     7
 74
     0
 91
        4
 64
     7
 65
   257
 75
     1
175
     1
 42
1.0
 92
        8
 66
     7
 43
1.0
 76
     1
 77
     6
 78
     2
 67
     7
 79
     5
170
     0
171
     0
290
     0
174
     0
 93
        1
 44
0.0
173
     0
291
     1
 45
0.0
1001
ACAD
1000
AcDbSavedByObjectVersion
1070
     0
  0
VISUALSTYLE
  5
36
102
{ACAD_REACTORS
330
2A
102
}
330
2A
100
AcDbVisualStyle
  2
Brighten
 70
    12
 71
     2
 72
     2
 73
     0
 90
        0
 40
-0.6
 41
-30.0
 62
     5
 63
     7
 74
     1
 91
        4
 64
     7
 65
   257
 75
     1
175
     1
 42
1.0
 92
        8
 66
     7
 43
1.0
 76
     1
 77
     6
 78
     2
 67
     7
 79
     5
170
     0
171
     0
290
     0
174
     0
 93
        1
 44
50.0
173
     0
291
     1
 45
0.0
1001
ACAD
1000
AcDbSavedByObjectVersion
1070
     0
  0
VISUALSTYLE
  5
3A
102
{ACAD_REACTORS
330
2A
102
}
330
2A
100
AcDbVisualStyle
  2
ColorChange
 70
    16
 71
     2
 72
     2
 73
     3
 90
        0
 40
-0.6
 41
-30.0
 62
     5
 63
     8
 74
     1
 91
        4
 64
     7
 65
   257
 75
     1
175
     1
 42
1.0
 92
        8
 66
     8
 43
1.0
 76
     1
 77
     6
 78
     2
 67
     7
 79
     5
170
     0
171
     0
290
     0
174
     0
 93
        1
 44
0.0
173
     0
291
     1
 45
0.0
1001
ACAD
1000
AcDbSavedByObjectVersion
1070
     0
  0
VISUALSTYLE
  5
34
102
{ACAD_REACTORS
330
2A
102
}
330
2A
100
AcDbVisualStyle
  2
Conceptual
 70
     9
 71
     3
 72
     2
 73
     0
 90
        0
 40
-0.6
 41
-30.0
 62
     5
 63
     7
 74
     2
 91
        2
 64
     7
 65
   257
 75
     1
175
     1
 42
40.0
 92
        8
 66
     7
 43
1.0
 76
     1
 77
     6
 78
     2
 67
     7
 79
     3
170
     0
171
     0
290
     0
174
     0
 93
        1
 44
0.0
173
     0
291
     0
 45
0.0
1001
ACAD
1000
AcDbSavedByObjectVersion
1070
     0
  0
VISUALSTYLE
  5
35
102
{ACAD_REACTORS
330
2A
102
}
330
2A
100
AcDbVisualStyle
  2
Dim
 70
    11
 71
     2
 72
     2
 73
     0
 90
        0
 40
-0.6
 41
-30.0
 62
     5
 63
     7
 74
     1
 91
        4
 64
     7
 65
   257
 75
     1
175
     1
 42
1.0
 92
        8
 66
     7
 43
1.0
 76
     1
 77
     6
 78
     2
 67
     7
 79
     5
170
     0
171
     0
290
     0
174
     0
 93
        1
 44
-50.0
173
     0
291
     1
 45
0.0
1001
ACAD
1000
AcDbSavedByObjectVersion
1070
     0
  0
VISUALSTYLE
  5
39
102
{ACAD_REACTORS
330
2A
102
}
330
2A
100
AcDbVisualStyle
  2
Facepattern
 70
    15
 71
     2
 72
     2
 73
     0
 90
        0
 40
-0.6
 41
-30.0
 62
     5
 63
     7
 74
     1
 91
        4
 64
     7
 65
   257
 75
     1
175
     1
 42
1.0
 92
        8
 66
     7
 43
1.0
 76
     1
 77
     6
 78
     2
 67
     7
 79
     5
170
     0
171
     0
290
     0
174
     0
 93
        1
 44
0.0
173
     0
291
     1
 45
0.0
1001
ACAD
1000
AcDbSavedByObjectVersion
1070
     0
  0
VISUALSTYLE
  5
2B
102
{ACAD_REACTORS
330
2A
102
}
330
2A
100
AcDbVisualStyle
  2
Flat
 70
     0
 71
     2
 72
     1
 73
     1
 90
        2
 40
-0.6
 41
30.0
 62
     5
 63
     7
 74
     0
 91
        4
 64
     7
 65
   257
 75
     1
175
     1
 42
1.0
 92
        8
 66
     7
 43
1.0
 76
     1
 77
     6
 78
     2
 67
     7
 79
     5
170
     0
171
     0
290
     0
174
     0
 93
       13
 44
0.0
173
     0
291
     1
 45
0.0
1001
ACAD
1000
AcDbSavedByObjectVersion
1070
     0
  0
VISUALSTYLE
  5
2C
102
{ACAD_REACTORS
330
2A
102
}
330
2A
100
AcDbVisualStyle
  2
FlatWithEdges
 70
     1
 71
     2
 72
     1
 73
     1
 90
        2
 40
-0.6
 41
30.0
 62
     5
 63
     7
 74
     1
 91
        4
 64
     7
 65
   257
 75
     1
175
     1
 42
1.0
 92
        0
 66
   257
 43
1.0
 76
     1
 77
     6
 78
     2
 67
     7
 79
     5
170
     0
171
     0
290
     0
174
     0
 93
       13
 44
0.0
173
     0
291
     1
 45
0.0
1001
ACAD
1000
AcDbSavedByObjectVersion
1070
     0
  0
VISUALSTYLE
  5
2D
102
{ACAD_REACTORS
330
2A
102
}
330
2A
100
AcDbVisualStyle
  2
Gouraud
 70
     2
 71
     2
 72
     2
 73
     1
 90
        2
 40
-0.6
 41
30.0
 62
     5
 63
     7
 74
     0
 91
        4
 64
     7
 65
   257
 75
     1
175
     1
 42
1.0
 92
        0
 66
     7
 43
1.0
 76
     1
 77
     6
 78
     2
 67
     7
 79
     5
170
     0
171
     0
290
     0
174
     0
 93
       13
 44
0.0
173
     0
291
     1
 45
0.0
1001
ACAD
1000
AcDbSavedByObjectVersion
1070
     0
  0
VISUALSTYLE
  5
2E
102
{ACAD_REACTORS
330
2A
102
}
330
2A
100
AcDbVisualStyle
  2
GouraudWithEdges
 70
     3
 71
     2
 72
     2
 73
     1
 90
        2
 40
-0.6
 41
30.0
 62
     5
 63
     7
 74
     1
 91
        4
 64
     7
 65
   257
 75
     1
175
     1
 42
1.0
 92
        0
 66
   257
 43
1.0
 76
     1
 77
     6
 78
     2
 67
     7
 79
     5
170
     0
171
     0
290
     0
174
     0
 93
       13
 44
0.0
173
     0
291
     1
 45
0.0
1001
ACAD
1000
AcDbSavedByObjectVersion
1070
     0
  0
VISUALSTYLE
  5
38
102
{ACAD_REACTORS
330
2A
102
}
330
2A
100
AcDbVisualStyle
  2
Linepattern
 70
    14
 71
     2
 72
     2
 73
     0
 90
        0
 40
-0.6
 41
-30.0
 62
     5
 63
     7
 74
     1
 91
        4
 64
     7
 65
   257
 75
     7
175
     7
 42
1.0
 92
        8
 66
     7
 43
1.0
 76
     1
 77
     6
 78
     2
 67
     7
 79
     5
170
     0
171
     0
290
     0
174
     0
 93
        1
 44
0.0
173
     0
291
     1
 45
0.0
1001
ACAD
1000
AcDbSavedByObjectVersion
1070
     0
  0
VISUALSTYLE
  5
33
102
{ACAD_REACTORS
330
2A
102
}
330
2A
100
AcDbVisualStyle
  2
Realistic
 70
     8
 71
     2
 72
     2
 73
     0
 90
        0
 40
-0.6
 41
-30.0
 62
     5
 63
     7
 74
     1
 91
        0
 64
     7
 65
   257
 75
     1
175
     1
 42
1.0
 92
        8
 66
     8
 43
1.0
 76
     1
 77
     6
 78
     2
 67
     7
 79
     5
170
     0
171
     0
290
     0
174
     0
 93
       13
 44
0.0
173
     0
291
     0
 45
0.0
1001
ACAD
1000
AcDbSavedByObjectVersion
1070
     0
  0
VISUALSTYLE
  5
37
102
{ACAD_REACTORS
330
2A
102
}
330
2A
100
AcDbVisualStyle
  2
Thicken
 70
    13
 71
     2
 72
     2
 73
     0
 90
        0
 40
-0.6
 41
-30.0
 62
     5
 63
     7
 74
     1
 91
        4
 64
     7
 65
   257
 75
     1
175
     1
 42
1.0
 92
       12
 66
     7
 43
1.0
 76
     1
 77
     6
 78
     2
 67
     7
 79
     5
170
     0
171
     0
290
     0
174
     0
 93
        1
 44
0.0
173
     0
291
     1
 45
0.0
1001
ACAD
1000
AcDbSavedByObjectVersion
1070
     0
  0
DICTIONARYVAR
  5
1FA
102
{ACAD_REACTORS
330
1F8
102
}
330
1F8
100
DictionaryVariables
280
     0
  1
80.000000
  0
DICTIONARYVAR
  5
1F9
102
{ACAD_REACTORS
330
1F8
102
}
330
1F8
100
DictionaryVariables
280
     0
  1
5.000000
  0
ENDSEC
  0
EOF
