  0
SECTION
  2
HEADER
  9
$ACADVER
  1
AC1015
  9
$ACADMAINTVER
 70
     6
  9
$DWGCODEPAGE
  3
ANSI_1252
  9
$INSBASE
 10
0.0
 20
0.0
 30
0.0
  9
$EXTMIN
 10
0.0
 20
0.0
 30
0.0
  9
$EXTMAX
 10
297.0
 20
210.0
 30
0.0
  9
$LIMMIN
 10
0.0
 20
0.0
  9
$LIMMAX
 10
297.0
 20
210.0
  9
$ORTHOMODE
 70
     0
  9
$REGENMODE
 70
     1
  9
$FILLMODE
 70
     1
  9
$QTEXTMODE
 70
     0
  9
$MIRRTEXT
 70
     1
  9
$LTSCALE
 40
1.0
  9
$ATTMODE
 70
     1
  9
$TEXTSIZE
 40
2.0
  9
$TRACEWID
 40
1.0
  9
$TEXTSTYLE
  7
Standard
  9
$CLAYER
  8
0
  9
$CELTYPE
  6
ByLayer
  9
$CECOLOR
 62
   256
  9
$CELTSCALE
 40
1.0
  9
$DISPSILH
 70
     0
  9
$DIMSCALE
 40
1.0
  9
$DIMASZ
 40
3.0
  9
$DIMEXO
 40
0.0
  9
$DIMDLI
 40
3.75
  9
$DIMRND
 40
0.0
  9
$DIMDLE
 40
0.0
  9
$DIMEXE
 40
1.0
  9
$DIMTP
 40
0.0
  9
$DIMTM
 40
0.0
  9
$DIMTXT
 40
2.0
  9
$DIMCEN
 40
2.5
  9
$DIMTSZ
 40
0.0
  9
$DIMTOL
 70
     0
  9
$DIMLIM
 70
     0
  9
$DIMTIH
 70
     1
  9
$DIMTOH
 70
     1
  9
$DIMSE1
 70
     0
  9
$DIMSE2
 70
     0
  9
$DIMTAD
 70
     1
  9
$DIMZIN
 70
     0
  9
$DIMBLK
  1

  9
$DIMASO
 70
     1
  9
$DIMSHO
 70
     1
  9
$DIMPOST
  1

  9
$DIMAPOST
  1

  9
$DIMALT
 70
     0
  9
$DIMALTD
 70
     3
  9
$DIMALTF
 40
0.0393700787
  9
$DIMLFAC
 40
1.0
  9
$DIMTOFL
 70
     1
  9
$DIMTVP
 40
0.0
  9
$DIMTIX
 70
     0
  9
$DIMSOXD
 70
     0
  9
$DIMSAH
 70
     0
  9
$DIMBLK1
  1

  9
$DIMBLK2
  1

  9
$DIMSTYLE
  2
ISO-25
  9
$DIMCLRD
 70
     0
  9
$DIMCLRE
 70
     0
  9
$DIMCLRT
 70
     0
  9
$DIMTFAC
 40
1.0
  9
$DIMGAP
 40
1.524
  9
$DIMJUST
 70
     0
  9
$DIMSD1
 70
     0
  9
$DIMSD2
 70
     0
  9
$DIMTOLJ
 70
     0
  9
$DIMTZIN
 70
     0
  9
$DIMALTZ
 70
     0
  9
$DIMALTTZ
 70
     0
  9
$DIMUPT
 70
     0
  9
$DIMDEC
 70
     2
  9
$DIMTDEC
 70
     3
  9
$DIMALTU
 70
     2
  9
$DIMALTTD
 70
     3
  9
$DIMTXSTY
  7
Standard
  9
$DIMAUNIT
 70
     0
  9
$DIMADEC
 70
     2
  9
$DIMALTRND
 40
0.0
  9
$DIMAZIN
 70
     0
  9
$DIMDSEP
 70
    44
  9
$DIMATFIT
 70
     3
  9
$DIMFRAC
 70
     0
  9
$DIMLDRBLK
  1

  9
$DIMLUNIT
 70
     2
  9
$DIMLWD
 70
    -2
  9
$DIMLWE
 70
    -2
  9
$DIMTMOVE
 70
     0
  9
$LUNITS
 70
     2
  9
$LUPREC
 70
     2
  9
$SKETCHINC
 40
1.0
  9
$FILLETRAD
 40
10.0
  9
$AUNITS
 70
     0
  9
$AUPREC
 70
     2
  9
$MENU
  1
.
  9
$ELEVATION
 40
0.0
  9
$PELEVATION
 40
0.0
  9
$THICKNESS
 40
0.0
  9
$LIMCHECK
 70
     0
  9
$CHAMFERA
 40
10.0
  9
$CHAMFERB
 40
10.0
  9
$CHAMFERC
 40
20.0
  9
$CHAMFERD
 40
0.0
  9
$SKPOLY
 70
     0
  9
$TDCREATE
 40
2455673.488479143
  9
$TDUCREATE
 40
2455673.40514581
  9
$TDUPDATE
 40
2455673.488479155
  9
$TDUUPDATE
 40
2455673.405145822
  9
$TDINDWG
 40
0.0000000116
  9
$TDUSRTIMER
 40
0.0000000116
  9
$USRTIMER
 70
     1
  9
$ANGBASE
 50
0.0
  9
$ANGDIR
 70
     0
  9
$PDMODE
 70
     0
  9
$PDSIZE
 40
-1.0
  9
$PLINEWID
 40
0.0
  9
$SPLFRAME
 70
     0
  9
$SPLINETYPE
 70
     6
  9
$SPLINESEGS
 70
     8
  9
$HANDSEED
  5
1FD
  9
$SURFTAB1
 70
     6
  9
$SURFTAB2
 70
     6
  9
$SURFTYPE
 70
     6
  9
$SURFU
 70
     6
  9
$SURFV
 70
     6
  9
$UCSBASE
  2

  9
$UCSNAME
  2

  9
$UCSORG
 10
0.0
 20
0.0
 30
0.0
  9
$UCSXDIR
 10
1.0
 20
0.0
 30
0.0
  9
$UCSYDIR
 10
0.0
 20
1.0
 30
0.0
  9
$UCSORTHOREF
  2

  9
$UCSORTHOVIEW
 70
     0
  9
$UCSORGTOP
 10
0.0
 20
0.0
 30
0.0
  9
$UCSORGBOTTOM
 10
0.0
 20
0.0
 30
0.0
  9
$UCSORGLEFT
 10
0.0
 20
0.0
 30
0.0
  9
$UCSORGRIGHT
 10
0.0
 20
0.0
 30
0.0
  9
$UCSORGFRONT
 10
0.0
 20
0.0
 30
0.0
  9
$UCSORGBACK
 10
0.0
 20
0.0
 30
0.0
  9
$PUCSBASE
  2

  9
$PUCSNAME
  2

  9
$PUCSORG
 10
0.0
 20
0.0
 30
0.0
  9
$PUCSXDIR
 10
1.0
 20
0.0
 30
0.0
  9
$PUCSYDIR
 10
0.0
 20
1.0
 30
0.0
  9
$PUCSORTHOREF
  2

  9
$PUCSORTHOVIEW
 70
     0
  9
$PUCSORGTOP
 10
0.0
 20
0.0
 30
0.0
  9
$PUCSORGBOTTOM
 10
0.0
 20
0.0
 30
0.0
  9
$PUCSORGLEFT
 10
0.0
 20
0.0
 30
0.0
  9
$PUCSORGRIGHT
 10
0.0
 20
0.0
 30
0.0
  9
$PUCSORGFRONT
 10
0.0
 20
0.0
 30
0.0
  9
$PUCSORGBACK
 10
0.0
 20
0.0
 30
0.0
  9
$USERI1
 70
     0
  9
$USERI2
 70
     0
  9
$USERI3
 70
     0
  9
$USERI4
 70
     0
  9
$USERI5
 70
     0
  9
$USERR1
 40
0.0
  9
$USERR2
 40
0.0
  9
$USERR3
 40
0.0
  9
$USERR4
 40
0.0
  9
$USERR5
 40
0.0
  9
$WORLDVIEW
 70
     1
  9
$SHADEDGE
 70
     3
  9
$SHADEDIF
 70
    70
  9
$TILEMODE
 70
     1
  9
$MAXACTVP
 70
    64
  9
$PINSBASE
 10
0.0
 20
0.0
 30
0.0
  9
$PLIMCHECK
 70
     0
  9
$PEXTMIN
 10
1.0000000000E+20
 20
1.0000000000E+20
 30
1.0000000000E+20
  9
$PEXTMAX
 10
-1.0000000000E+20
 20
-1.0000000000E+20
 30
-1.0000000000E+20
  9
$PLIMMIN
 10
0.0
 20
0.0
  9
$PLIMMAX
 10
420.0
 20
297.0
  9
$UNITMODE
 70
     0
  9
$VISRETAIN
 70
     1
  9
$PLINEGEN
 70
     0
  9
$PSLTSCALE
 70
     1
  9
$TREEDEPTH
 70
  3020
  9
$CMLSTYLE
  2
Standard
  9
$CMLJUST
 70
     0
  9
$CMLSCALE
 40
20.0
  9
$PROXYGRAPHICS
 70
     1
  9
$MEASUREMENT
 70
     1
  9
$CELWEIGHT
370
    -1
  9
$ENDCAPS
280
     0
  9
$JOINSTYLE
280
     0
  9
$LWDISPLAY
290
     1
  9
$INSUNITS
 70
     4
  9
$HYPERLINKBASE
  1

  9
$STYLESHEET
  1

  9
$XEDIT
290
     1
  9
$CEPSNTYPE
380
     0
  9
$PSTYLEMODE
290
     1
  9
$FINGERPRINTGUID
  2
{F649D5C7-F786-4E02-9206-85FCDDBA0330}
  9
$VERSIONGUID
  2
{FAEB1C32-E019-11D5-929B-00C0DF256EC4}
  9
$EXTNAMES
290
     1
  9
$PSVPSCALE
 40
0.0
  9
$OLESTARTUP
290
     0
  0
ENDSEC
  0
SECTION
  2
CLASSES
  0
CLASS
  1
ACDBDICTIONARYWDFLT
  2
AcDbDictionaryWithDefault
  3
ObjectDBX Classes
 90
        0
280
     0
281
     0
  0
CLASS
  1
VISUALSTYLE
  2
AcDbVisualStyle
  3
ObjectDBX Classes
 90
     4095
280
     0
281
     0
  0
CLASS
  1
DICTIONARYVAR
  2
AcDbDictionaryVar
  3
ObjectDBX Classes
 90
        0
280
     0
281
     0
  0
CLASS
  1
ACDBPLACEHOLDER
  2
AcDbPlaceHolder
  3
ObjectDBX Classes
 90
        0
280
     0
281
     0
  0
CLASS
  1
LAYOUT
  2
AcDbLayout
  3
ObjectDBX Classes
 90
        0
280
     0
281
     0
  0
ENDSEC
  0
SECTION
  2
TABLES
  0
TABLE
  2
VPORT
  5
8
330
0
100
AcDbSymbolTable
 70
     1
  0
VPORT
  5
29
330
8
100
AcDbSymbolTableRecord
100
AcDbViewportTableRecord
  2
*Active
 70
     0
 10
0.0
 20
0.0
 11
1.0
 21
1.0
 12
148.5
 22
105.0
 13
0.0
 23
0.0
 14
10.0
 24
10.0
 15
10.0
 25
10.0
 16
0.0
 26
0.0
 36
1.0
 17
0.0
 27
0.0
 37
0.0
 40
210.0
 41
1.4142857143
 42
50.0
 43
0.0
 44
0.0
 50
0.0
 51
0.0
 71
     0
 72
  2000
 73
     1
 74
     3
 75
     0
 76
     0
 77
     0
 78
     0
281
     0
 65
     1
110
0.0
120
0.0
130
0.0
111
1.0
121
0.0
131
0.0
112
0.0
122
1.0
132
0.0
 79
     0
146
0.0
  0
ENDTAB
  0
TABLE
  2
LTYPE
  5
5
330
0
100
AcDbSymbolTable
 70
     6
  0
LTYPE
  5
14
330
5
100
AcDbSymbolTableRecord
100
AcDbLinetypeTableRecord
  2
ByBlock
 70
     0
  3

 72
    65
 73
     0
 40
0.0
  0
LTYPE
  5
15
330
5
100
AcDbSymbolTableRecord
100
AcDbLinetypeTableRecord
  2
ByLayer
 70
     0
  3

 72
    65
 73
     0
 40
0.0
  0
LTYPE
  5
16
330
5
100
AcDbSymbolTableRecord
100
AcDbLinetypeTableRecord
  2
Continuous
 70
     0
  3
Solid line
 72
    65
 73
     0
 40
0.0
  0
LTYPE
  5
3B
330
5
100
AcDbSymbolTableRecord
100
AcDbLinetypeTableRecord
  2
HIDDEN
 70
     0
  3
Hidden __ __ __ __ __ __ __ __ __ __ __ __ __ __
 72
    65
 73
     2
 40
1.905
 49
1.27
 74
     0
 49
-0.635
 74
     0
  0
LTYPE
  5
3C
330
5
100
AcDbSymbolTableRecord
100
AcDbLinetypeTableRecord
  2
PHANTOM
 70
     0
  3
Phantom ______  __  __  ______  __  __  ______
 72
    65
 73
     6
 40
12.7
 49
6.35
 74
     0
 49
-1.27
 74
     0
 49
1.27
 74
     0
 49
-1.27
 74
     0
 49
1.27
 74
     0
 49
-1.27
 74
     0
  0
LTYPE
  5
3D
330
5
100
AcDbSymbolTableRecord
100
AcDbLinetypeTableRecord
  2
CENTER
 70
     0
  3
Center ____ _ ____ _ ____ _ ____ _ ____ _ ____
 72
    65
 73
     4
 40
10.16
 49
6.35
 74
     0
 49
-1.27
 74
     0
 49
1.27
 74
     0
 49
-1.27
 74
     0
  0
LTYPE
  5
3E
330
5
100
AcDbSymbolTableRecord
100
AcDbLinetypeTableRecord
  2
CENTERX2
 70
     0
  3
Center (2x) ________  __  ________  __  _____
 72
    65
 73
     4
 40
20.32
 49
12.7
 74
     0
 49
-2.54
 74
     0
 49
2.54
 74
     0
 49
-2.54
 74
     0
  0
LTYPE
  5
3F
330
5
100
AcDbSymbolTableRecord
100
AcDbLinetypeTableRecord
  2
DOT2
 70
     0
  3
Dot (.5x) ........................................
 72
    65
 73
     2
 40
0.635
 49
0.0
 74
     0
 49
-0.635
 74
     0
  0
ENDTAB
  0
TABLE
  2
LAYER
  5
2
330
0
100
AcDbSymbolTable
 70
     5
  0
LAYER
  5
10
330
2
100
AcDbSymbolTableRecord
100
AcDbLayerTableRecord
  2
0
 70
     0
 62
     7
  6
Continuous
370
    -3
390
F
  0
LAYER
  5
40
330
2
100
AcDbSymbolTableRecord
100
AcDbLayerTableRecord
  2
FORMAT
 70
     0
 62
     7
  6
Continuous
370
    -3
390
F
  0
LAYER
  5
41
330
2
100
AcDbSymbolTableRecord
100
AcDbLayerTableRecord
  2
VERMASSUNG
 70
     0
 62
     7
  6
Continuous
370
    -3
390
F
  0
LAYER
  5
42
330
2
100
AcDbSymbolTableRecord
100
AcDbLayerTableRecord
  2
KOPF_DÜNN
 70
     0
 62
     7
  6
Continuous
370
    -3
390
F
  0
LAYER
  5
43
330
2
100
AcDbSymbolTableRecord
100
AcDbLayerTableRecord
  2
KOPF_DICK
 70
     0
 62
     7
  6
Continuous
370
    15
390
F
  0
ENDTAB
  0
TABLE
  2
STYLE
  5
3
330
0
100
AcDbSymbolTable
 70
     3
  0
STYLE
  5
11
330
3
100
AcDbSymbolTableRecord
100
AcDbTextStyleTableRecord
  2
Standard
 70
     0
 40
0.0
 41
1.0
 50
0.0
 71
     0
 42
2.5
  3
txt
  4

  0
STYLE
  5
44
330
3
100
AcDbSymbolTableRecord
100
AcDbTextStyleTableRecord
  2
SLDTEXTSTYLE0
 70
     0
 40
0.0
 41
0.7
 50
0.0
 71
     0
 42
0.2
  3
TXT
  4

  0
STYLE
  5
48
330
3
100
AcDbSymbolTableRecord
100
AcDbTextStyleTableRecord
  2
SLDTEXTSTYLE1
 70
     0
 40
0.0
 41
0.65
 50
0.0
 71
     0
 42
0.2
  3
TXT
  4

  0
ENDTAB
  0
TABLE
  2
VIEW
  5
6
330
0
100
AcDbSymbolTable
 70
     0
  0
ENDTAB
  0
TABLE
  2
UCS
  5
7
330
0
100
AcDbSymbolTable
 70
     0
  0
ENDTAB
  0
TABLE
  2
APPID
  5
9
330
0
100
AcDbSymbolTable
 70
     1
  0
APPID
  5
12
330
9
100
AcDbSymbolTableRecord
100
AcDbRegAppTableRecord
  2
ACAD
 70
     0
  0
ENDTAB
  0
TABLE
  2
DIMSTYLE
  5
A
330
0
100
AcDbSymbolTable
 70
     2
100
AcDbDimStyleTable
  0
DIMSTYLE
105
27
330
A
100
AcDbSymbolTableRecord
100
AcDbDimStyleTableRecord
  2
ISO-25
 70
     0
 41
2.5
 42
0.625
 43
3.75
 44
1.25
 73
     0
 74
     0
 77
     1
 78
     8
140
2.5
141
2.5
143
0.0393700787
147
0.625
171
     3
172
     1
271
     2
272
     2
274
     3
278
    44
283
     0
284
     8
340
11
  0
DIMSTYLE
105
1B6
102
{ACAD_REACTORS
330
1B5
330
1C2
330
1CC
330
1D6
330
1E0
330
1EB
102
}
330
A
100
AcDbSymbolTableRecord
100
AcDbDimStyleTableRecord
  2
SLDDIMSTYLE0
 70
     0
 41
3.0
 44
0.0
 45
0.000000001
 73
     0
 74
     0
 77
     1
 78
    12
140
2.0
147
0.5
173
     1
271
     2
272
     3
284
    12
340
44
  0
ENDTAB
  0
TABLE
  2
BLOCK_RECORD
  5
1
330
0
100
AcDbSymbolTable
 70
     7
  0
BLOCK_RECORD
  5
1F
330
1
100
AcDbSymbolTableRecord
100
AcDbBlockTableRecord
  2
*Model_Space
340
22
  0
BLOCK_RECORD
  5
1B
330
1
100
AcDbSymbolTableRecord
100
AcDbBlockTableRecord
  2
*Paper_Space
340
1E
  0
BLOCK_RECORD
  5
23
330
1
100
AcDbSymbolTableRecord
100
AcDbBlockTableRecord
  2
*Paper_Space0
340
26
  0
BLOCK_RECORD
  5
1B7
330
1
100
AcDbSymbolTableRecord
100
AcDbBlockTableRecord
  2
*D1
340
0
  0
BLOCK_RECORD
  5
1C3
330
1
100
AcDbSymbolTableRecord
100
AcDbBlockTableRecord
  2
*D2
340
0
  0
BLOCK_RECORD
  5
1CD
330
1
100
AcDbSymbolTableRecord
100
AcDbBlockTableRecord
  2
*D3
340
0
  0
BLOCK_RECORD
  5
1D7
330
1
100
AcDbSymbolTableRecord
100
AcDbBlockTableRecord
  2
*D4
340
0
  0
BLOCK_RECORD
  5
1E1
330
1
100
AcDbSymbolTableRecord
100
AcDbBlockTableRecord
  2
*D5
340
0
  0
BLOCK_RECORD
  5
1EC
330
1
100
AcDbSymbolTableRecord
100
AcDbBlockTableRecord
  2
*D6
340
0
  0
ENDTAB
  0
ENDSEC
  0
SECTION
  2
BLOCKS
  0
BLOCK
  5
20
330
1F
100
AcDbEntity
  8
0
100
AcDbBlockBegin
  2
*Model_Space
 70
     0
 10
0.0
 20
0.0
 30
0.0
  3
*Model_Space
  1

  0
ENDBLK
  5
21
330
1F
100
AcDbEntity
  8
0
100
AcDbBlockEnd
  0
BLOCK
  5
1C
330
1B
100
AcDbEntity
 67
     1
  8
0
100
AcDbBlockBegin
  2
*Paper_Space
 70
     0
 10
0.0
 20
0.0
 30
0.0
  3
*Paper_Space
  1

  0
ENDBLK
  5
1D
330
1B
100
AcDbEntity
 67
     1
  8
0
100
AcDbBlockEnd
  0
BLOCK
  5
24
330
23
100
AcDbEntity
  8
0
100
AcDbBlockBegin
  2
*Paper_Space0
 70
     0
 10
0.0
 20
0.0
 30
0.0
  3
*Paper_Space0
  1

  0
ENDBLK
  5
25
330
23
100
AcDbEntity
  8
0
100
AcDbBlockEnd
  0
BLOCK
  5
1B8
330
1B7
100
AcDbEntity
  8
0
100
AcDbBlockBegin
  2
*D1
 70
     1
 10
0.0
 20
0.0
 30
0.0
  3
*D1
  1

  0
SOLID
  5
1BA
330
1B7
100
AcDbEntity
  8
VERMASSUNG
100
AcDbTrace
 10
40.2279293467
 20
168.0138517151
 30
0.0
 11
39.7779293467
 21
165.0138517151
 31
0.0
 12
40.6779293467
 22
165.0138517151
 32
0.0
 13
40.6779293467
 23
165.0138517151
 33
0.0
  0
SOLID
  5
1BB
330
1B7
100
AcDbEntity
  8
VERMASSUNG
100
AcDbTrace
 10
40.2279293467
 20
68.0138517151
 30
0.0
 11
40.6779293467
 21
71.0138517151
 31
0.0
 12
39.7779293467
 22
71.0138517151
 32
0.0
 13
39.7779293467
 23
71.0138517151
 33
0.0
  0
LINE
  5
1BC
330
1B7
100
AcDbEntity
  8
VERMASSUNG
100
AcDbLine
 10
95.6219064008
 20
168.0138517151
 30
0.0
 11
39.2279293467
 21
168.0138517151
 31
0.0
  0
LINE
  5
1BD
330
1B7
100
AcDbEntity
  8
VERMASSUNG
100
AcDbLine
 10
95.6219064008
 20
68.0138517151
 30
0.0
 11
39.2279293467
 21
68.0138517151
 31
0.0
  0
LINE
  5
1BE
330
1B7
100
AcDbEntity
  8
VERMASSUNG
100
AcDbLine
 10
40.2279293467
 20
168.0138517151
 30
0.0
 11
40.2279293467
 21
68.0138517151
 31
0.0
  0
MTEXT
  5
1BF
330
1B7
100
AcDbEntity
  8
VERMASSUNG
100
AcDbMText
 10
37.4497938577
 20
110.0422699166
 30
0.0
 40
2.0
 41
0.0
 71
     1
 72
     1
  1
HSK A 
  7
SLDTEXTSTYLE0
 11
-7.044195017643634E-15
 21
1.0
 31
0.0
 73
     1
 44
1.0
  0
MTEXT
  5
1C0
330
1B7
100
AcDbEntity
  8
VERMASSUNG
100
AcDbMText
 10
37.6497938672
 20
119.0422704605
 30
0.0
 40
2.0
 41
0.0
 71
     1
 72
     1
  1
%%c
  7
SLDTEXTSTYLE0
 11
-7.044195017643634E-15
 21
1.0
 31
0.0
 73
     1
 44
1.0
  0
MTEXT
  5
1C1
330
1B7
100
AcDbEntity
  8
VERMASSUNG
100
AcDbMText
 10
37.6497939836
 20
122.6505971105
 30
0.0
 40
2.0
 41
0.0
 71
     1
 72
     1
  1
100
  7
SLDTEXTSTYLE0
 11
-7.044195017643634E-15
 21
1.0
 31
0.0
 73
     1
 44
1.0
  0
ENDBLK
  5
1B9
330
1B7
100
AcDbEntity
  8
0
100
AcDbBlockEnd
  0
BLOCK
  5
1C4
330
1C3
100
AcDbEntity
  8
0
100
AcDbBlockBegin
  2
*D2
 70
     1
 10
0.0
 20
0.0
 30
0.0
  3
*D2
  1

  0
SOLID
  5
1C6
330
1C3
100
AcDbEntity
  8
VERMASSUNG
100
AcDbTrace
 10
124.0719064008
 20
172.648212351
 30
0.0
 11
127.0719064008
 21
172.198212351
 31
0.0
 12
127.0719064008
 22
173.098212351
 32
0.0
 13
127.0719064008
 23
173.098212351
 33
0.0
  0
SOLID
  5
1C7
330
1C3
100
AcDbEntity
  8
VERMASSUNG
100
AcDbTrace
 10
255.1219064008
 20
172.648212351
 30
0.0
 11
252.1219064008
 21
173.098212351
 31
0.0
 12
252.1219064008
 22
172.198212351
 32
0.0
 13
252.1219064008
 23
172.198212351
 33
0.0
  0
LINE
  5
1C8
330
1C3
100
AcDbEntity
  8
VERMASSUNG
100
AcDbLine
 10
124.0719064008
 20
165.9825915359
 30
0.0
 11
124.0719064008
 21
173.648212351
 31
0.0
  0
LINE
  5
1C9
330
1C3
100
AcDbEntity
  8
VERMASSUNG
100
AcDbLine
 10
255.1219064008
 20
134.7397111935
 30
0.0
 11
255.1219064008
 21
173.648212351
 31
0.0
  0
LINE
  5
1CA
330
1C3
100
AcDbEntity
  8
VERMASSUNG
100
AcDbLine
 10
124.0719064008
 20
172.648212351
 30
0.0
 11
255.1219064008
 21
172.648212351
 31
0.0
  0
MTEXT
  5
1CB
330
1C3
100
AcDbEntity
  8
VERMASSUNG
100
AcDbMText
 10
186.1970905828
 20
175.2263477142
 30
0.0
 40
2.0
 41
0.0
 71
     1
 72
     1
  1
131.05
  7
SLDTEXTSTYLE0
 73
     1
 44
1.0
  0
ENDBLK
  5
1C5
330
1C3
100
AcDbEntity
  8
0
100
AcDbBlockEnd
  0
BLOCK
  5
1CE
330
1CD
100
AcDbEntity
  8
0
100
AcDbBlockBegin
  2
*D3
 70
     1
 10
0.0
 20
0.0
 30
0.0
  3
*D3
  1

  0
SOLID
  5
1D0
330
1CD
100
AcDbEntity
  8
VERMASSUNG
100
AcDbTrace
 10
95.1219064008
 20
178.648212351
 30
0.0
 11
98.1219064008
 21
178.198212351
 31
0.0
 12
98.1219064008
 22
179.098212351
 32
0.0
 13
98.1219064008
 23
179.098212351
 33
0.0
  0
SOLID
  5
1D1
330
1CD
100
AcDbEntity
  8
VERMASSUNG
100
AcDbTrace
 10
255.1219064008
 20
178.648212351
 30
0.0
 11
252.1219064008
 21
179.098212351
 31
0.0
 12
252.1219064008
 22
178.198212351
 32
0.0
 13
252.1219064008
 23
178.198212351
 33
0.0
  0
LINE
  5
1D2
330
1CD
100
AcDbEntity
  8
VERMASSUNG
100
AcDbLine
 10
95.1219064008
 20
167.5138517151
 30
0.0
 11
95.1219064008
 21
179.648212351
 31
0.0
  0
LINE
  5
1D3
330
1CD
100
AcDbEntity
  8
VERMASSUNG
100
AcDbLine
 10
255.1219064008
 20
134.7397111935
 30
0.0
 11
255.1219064008
 21
179.648212351
 31
0.0
  0
LINE
  5
1D4
330
1CD
100
AcDbEntity
  8
VERMASSUNG
100
AcDbLine
 10
95.1219064008
 20
178.648212351
 30
0.0
 11
255.1219064008
 21
178.648212351
 31
0.0
  0
MTEXT
  5
1D5
330
1CD
100
AcDbEntity
  8
VERMASSUNG
100
AcDbMText
 10
173.2224188601
 20
181.2263477142
 30
0.0
 40
2.0
 41
0.0
 71
     1
 72
     1
  1
160
  7
SLDTEXTSTYLE0
 73
     1
 44
1.0
  0
ENDBLK
  5
1CF
330
1CD
100
AcDbEntity
  8
0
100
AcDbBlockEnd
  0
BLOCK
  5
1D8
330
1D7
100
AcDbEntity
  8
0
100
AcDbBlockBegin
  2
*D4
 70
     1
 10
0.0
 20
0.0
 30
0.0
  3
*D4
  1

  0
SOLID
  5
1DA
330
1D7
100
AcDbEntity
  8
VERMASSUNG
100
AcDbTrace
 10
255.1219064008
 20
184.648212351
 30
0.0
 11
252.1219064008
 21
185.098212351
 31
0.0
 12
252.1219064008
 22
184.198212351
 32
0.0
 13
252.1219064008
 23
184.198212351
 33
0.0
  0
SOLID
  5
1DB
330
1D7
100
AcDbEntity
  8
VERMASSUNG
100
AcDbTrace
 10
45.2219064008
 20
184.648212351
 30
0.0
 11
48.2219064008
 21
184.198212351
 31
0.0
 12
48.2219064008
 22
185.098212351
 32
0.0
 13
48.2219064008
 23
185.098212351
 33
0.0
  0
LINE
  5
1DC
330
1D7
100
AcDbEntity
  8
VERMASSUNG
100
AcDbLine
 10
255.1219064008
 20
134.7397111935
 30
0.0
 11
255.1219064008
 21
185.648212351
 31
0.0
  0
LINE
  5
1DD
330
1D7
100
AcDbEntity
  8
VERMASSUNG
100
AcDbLine
 10
45.2219064008
 20
148.5165214577
 30
0.0
 11
45.2219064008
 21
185.648212351
 31
0.0
  0
LINE
  5
1DE
330
1D7
100
AcDbEntity
  8
VERMASSUNG
100
AcDbLine
 10
255.1219064008
 20
184.648212351
 30
0.0
 11
45.2219064008
 21
184.648212351
 31
0.0
  0
MTEXT
  5
1DF
330
1D7
100
AcDbEntity
  8
VERMASSUNG
100
AcDbMText
 10
147.0726203769
 20
187.2263477142
 30
0.0
 40
2.0
 41
0.0
 71
     1
 72
     1
  1
209.9
  7
SLDTEXTSTYLE0
 73
     1
 44
1.0
  0
ENDBLK
  5
1D9
330
1D7
100
AcDbEntity
  8
0
100
AcDbBlockEnd
  0
BLOCK
  5
1E2
330
1E1
100
AcDbEntity
  8
0
100
AcDbBlockBegin
  2
*D5
 70
     1
 10
0.0
 20
0.0
 30
0.0
  3
*D5
  1

  0
SOLID
  5
1E4
330
1E1
100
AcDbEntity
  8
VERMASSUNG
100
AcDbTrace
 10
262.6614580817
 20
126.0138517151
 30
0.0
 11
262.2114580817
 21
123.0138517151
 31
0.0
 12
263.1114580817
 22
123.0138517151
 32
0.0
 13
263.1114580817
 23
123.0138517151
 33
0.0
  0
SOLID
  5
1E5
330
1E1
100
AcDbEntity
  8
VERMASSUNG
100
AcDbTrace
 10
262.6614580817
 20
110.0138517151
 30
0.0
 11
263.1114580817
 21
113.0138517151
 31
0.0
 12
262.2114580817
 22
113.0138517151
 32
0.0
 13
262.2114580817
 23
113.0138517151
 33
0.0
  0
LINE
  5
1E6
330
1E1
100
AcDbEntity
  8
VERMASSUNG
100
AcDbLine
 10
254.8219064008
 20
126.0138517151
 30
0.0
 11
263.6614580817
 21
126.0138517151
 31
0.0
  0
LINE
  5
1E7
330
1E1
100
AcDbEntity
  8
VERMASSUNG
100
AcDbLine
 10
254.8219064008
 20
110.0138517151
 30
0.0
 11
263.6614580817
 21
110.0138517151
 31
0.0
  0
LINE
  5
1E8
330
1E1
100
AcDbEntity
  8
VERMASSUNG
100
AcDbLine
 10
262.6614580817
 20
126.0138517151
 30
0.0
 11
262.6614580817
 21
110.0138517151
 31
0.0
  0
MTEXT
  5
1E9
330
1E1
100
AcDbEntity
  8
VERMASSUNG
100
AcDbMText
 10
260.0833226021
 20
115.0097141203
 30
0.0
 40
2.0
 41
0.0
 71
     1
 72
     1
  1
%%c
  7
SLDTEXTSTYLE0
 11
-7.044195017643634E-15
 21
1.0
 31
0.0
 73
     1
 44
1.0
  0
MTEXT
  5
1EA
330
1E1
100
AcDbEntity
  8
VERMASSUNG
100
AcDbMText
 10
260.0833227185
 20
118.6183923435
 30
0.0
 40
2.0
 41
0.0
 71
     1
 72
     1
  1
16
  7
SLDTEXTSTYLE0
 11
-7.044195017643634E-15
 21
1.0
 31
0.0
 73
     1
 44
1.0
  0
ENDBLK
  5
1E3
330
1E1
100
AcDbEntity
  8
0
100
AcDbBlockEnd
  0
BLOCK
  5
1ED
330
1EC
100
AcDbEntity
  8
0
100
AcDbBlockBegin
  2
*D6
 70
     1
 10
0.0
 20
0.0
 30
0.0
  3
*D6
  1

  0
SOLID
  5
1EF
330
1EC
100
AcDbEntity
  8
VERMASSUNG
100
AcDbTrace
 10
268.6614580817
 20
142.0138517151
 30
0.0
 11
268.2114580817
 21
139.0138517151
 31
0.0
 12
269.1114580817
 22
139.0138517151
 32
0.0
 13
269.1114580817
 23
139.0138517151
 33
0.0
  0
SOLID
  5
1F0
330
1EC
100
AcDbEntity
  8
VERMASSUNG
100
AcDbTrace
 10
268.6614580817
 20
94.0138517151
 30
0.0
 11
269.1114580817
 21
97.0138517151
 31
0.0
 12
268.2114580817
 22
97.0138517151
 32
0.0
 13
268.2114580817
 23
97.0138517151
 33
0.0
  0
LINE
  5
1F1
330
1EC
100
AcDbEntity
  8
VERMASSUNG
100
AcDbLine
 10
242.2548648777
 20
142.0138517151
 30
0.0
 11
269.6614580817
 21
142.0138517151
 31
0.0
  0
LINE
  5
1F2
330
1EC
100
AcDbEntity
  8
VERMASSUNG
100
AcDbLine
 10
242.2548648777
 20
94.0138517151
 30
0.0
 11
269.6614580817
 21
94.0138517151
 31
0.0
  0
LINE
  5
1F3
330
1EC
100
AcDbEntity
  8
VERMASSUNG
100
AcDbLine
 10
268.6614580817
 20
142.0138517151
 30
0.0
 11
268.6614580817
 21
94.0138517151
 31
0.0
  0
MTEXT
  5
1F4
330
1EC
100
AcDbEntity
  8
VERMASSUNG
100
AcDbMText
 10
266.0833226021
 20
114.7103446728
 30
0.0
 40
2.0
 41
0.0
 71
     1
 72
     1
  1
%%c
  7
SLDTEXTSTYLE0
 11
-7.044195017643634E-15
 21
1.0
 31
0.0
 73
     1
 44
1.0
  0
MTEXT
  5
1F5
330
1EC
100
AcDbEntity
  8
VERMASSUNG
100
AcDbMText
 10
266.0833227185
 20
118.319022896
 30
0.0
 40
2.0
 41
0.0
 71
     1
 72
     1
  1
48
  7
SLDTEXTSTYLE0
 11
-7.044195017643634E-15
 21
1.0
 31
0.0
 73
     1
 44
1.0
  0
ENDBLK
  5
1EE
330
1EC
100
AcDbEntity
  8
0
100
AcDbBlockEnd
  0
ENDSEC
  0
SECTION
  2
ENTITIES
  0
MTEXT
  5
45
330
1F
100
AcDbEntity
  8
KOPF_DÜNN
100
AcDbMText
 10
13.8892156294
 20
23.8442973028
 30
0.0
 40
3.0
 41
0.0
 71
     1
 72
     1
  1
HA0.W16.K21.160
  7
SLDTEXTSTYLE0
 73
     1
 44
1.0
  0
MTEXT
  5
46
330
1F
100
AcDbEntity
  8
VERMASSUNG
100
AcDbMText
 10
13.9329988022
 20
28.8834360957
 30
0.0
 40
3.0
 41
0.0
 71
     1
 72
     1
  1
Flächenspannfutter_End mill adapter Weldon ø16
  7
SLDTEXTSTYLE0
 73
     1
 44
1.0
  0
MTEXT
  5
47
330
1F
100
AcDbEntity
  8
VERMASSUNG
100
AcDbMText
 10
98.8601118557
 20
13.8365368179
 30
0.0
 40
2.0
 41
0.0
 71
     1
 72
     1
  1
Datum: 09.10.2006
  7
SLDTEXTSTYLE0
 73
     1
 44
1.0
  0
MTEXT
  5
49
330
1F
100
AcDbEntity
  8
VERMASSUNG
100
AcDbMText
 10
13.933048693
 20
18.0482802738
 30
0.0
 40
2.0
 41
0.0
 71
     1
 72
     1
  1
DIN 69 893 HSK A 100
  7
SLDTEXTSTYLE1
 73
     1
 44
1.0
  0
MTEXT
  5
4A
330
1F
100
AcDbEntity
  8
VERMASSUNG
100
AcDbMText
 10
13.9808475933
 20
13.9090973692
 30
0.0
 40
2.0
 41
0.0
 71
     1
 72
     1
  1
Gewicht: 3714g
  7
SLDTEXTSTYLE0
 73
     1
 44
1.0
  0
LINE
  5
4B
330
1F
100
AcDbEntity
  8
0
  6
Continuous
 62
     7
370
    15
100
AcDbLine
 10
95.6219064008
 20
68.0138517151
 30
0.0
 11
100.0719064008
 21
68.0138517151
 31
0.0
  0
LINE
  5
4C
330
1F
100
AcDbEntity
  8
0
  6
Continuous
 62
     7
370
    15
100
AcDbLine
 10
100.1059792332
 20
168.0138517151
 30
0.0
 11
95.6219064008
 21
168.0138517151
 31
0.0
  0
ARC
  5
4D
330
1F
100
AcDbEntity
  8
0
  6
Continuous
 62
     7
370
    15
100
AcDbCircle
 10
95.6219064008
 20
68.5138517151
 30
0.0
 40
0.5000000000000142
100
AcDbArc
 50
180.0
 51
270.0
  0
ARC
  5
4E
330
1F
100
AcDbEntity
  8
0
  6
Continuous
 62
     7
370
    15
100
AcDbCircle
 10
95.6219064008
 20
167.5138517151
 30
0.0
 40
0.5
100
AcDbArc
 50
90.0
 51
180.0
  0
ARC
  5
4F
330
1F
100
AcDbEntity
  8
0
  6
Continuous
 62
     7
370
    15
100
AcDbCircle
 10
94.2249694823
 20
79.3853663906
 30
0.0
 40
0.9962338214386932
100
AcDbArc
 50
25.7988228126
 51
90.0
  0
ARC
  5
50
330
1F
100
AcDbEntity
  8
0
  6
Continuous
 62
     7
370
    15
100
AcDbCircle
 10
94.2249694823
 20
156.6423370395
 30
0.0
 40
0.9962338214387216
100
AcDbArc
 50
270.0
 51
334.2011771874
  0
LINE
  5
51
330
1F
100
AcDbEntity
  8
0
  6
Continuous
 62
     7
370
    15
100
AcDbLine
 10
73.6412274821
 20
154.9451674005
 30
0.0
 11
55.3219064008
 21
154.0273657431
 31
0.0
  0
LINE
  5
52
330
1F
100
AcDbEntity
  8
0
  6
Continuous
 62
     7
370
    15
100
AcDbLine
 10
92.6219064008
 20
155.8961032181
 30
0.0
 11
86.5538672463
 21
155.5920932404
 31
0.0
  0
LINE
  5
53
330
1F
100
AcDbEntity
  8
0
  6
Continuous
 62
     7
370
    15
100
AcDbLine
 10
86.5539905228
 20
80.4356040136
 30
0.0
 11
92.6219064008
 21
80.1316002121
 31
0.0
  0
LINE
  5
54
330
1F
100
AcDbEntity
  8
0
  6
Continuous
 62
     7
370
    15
100
AcDbLine
 10
60.3219064008
 20
81.749836685
 30
0.0
 11
73.6418575547
 21
81.0825044629
 31
0.0
  0
LINE
  5
55
330
1F
100
AcDbEntity
  8
0
  6
Continuous
 62
     7
370
    15
100
AcDbLine
 10
92.6219064008
 20
80.1316002121
 30
0.0
 11
93.4277525551
 21
80.3475260384
 31
0.0
  0
LINE
  5
56
330
1F
100
AcDbEntity
  8
0
  6
Continuous
 62
     7
370
    15
100
AcDbLine
 10
93.4277525551
 20
155.6801773918
 30
0.0
 11
92.6219064008
 21
155.8961032181
 31
0.0
  0
ARC
  5
57
330
1F
100
AcDbEntity
  8
0
  6
Continuous
 62
     7
370
    15
100
AcDbCircle
 10
93.6865716002
 20
79.3816002121
 30
0.0
 40
1.0
100
AcDbArc
 50
90.0
 51
105.0
  0
ARC
  5
58
330
1F
100
AcDbEntity
  8
0
  6
Continuous
 62
     7
370
    15
100
AcDbCircle
 10
93.6865716002
 20
156.6461032181
 30
0.0
 40
1.0
100
AcDbArc
 50
255.0
 51
270.0
  0
LINE
  5
59
330
1F
100
AcDbEntity
  8
0
  6
Continuous
 62
     7
370
    15
100
AcDbLine
 10
93.6865716002
 20
80.3816002121
 30
0.0
 11
94.2249694823
 21
80.3816002121
 31
0.0
  0
LINE
  5
5A
330
1F
100
AcDbEntity
  8
0
  6
Continuous
 62
     7
370
    15
100
AcDbLine
 10
94.2249694823
 20
155.6461032181
 30
0.0
 11
93.6865716002
 21
155.6461032181
 31
0.0
  0
ARC
  5
5B
330
1F
100
AcDbEntity
  8
0
  6
Continuous
 62
     7
370
    15
100
AcDbCircle
 10
129.0719064008
 20
87.50679475
 30
0.0
 40
4.999999999999694
100
AcDbArc
 50
91.8177002372
 51
180.0
  0
ARC
  5
5C
330
1F
100
AcDbEntity
  8
0
  6
Continuous
 62
     7
370
    15
100
AcDbCircle
 10
129.0719064008
 20
148.5209086801
 30
0.0
 40
4.99999999999968
100
AcDbArc
 50
180.0
 51
268.1822997628
  0
ARC
  5
5D
330
1F
100
AcDbEntity
  8
0
  6
Continuous
 62
     7
370
    15
100
AcDbCircle
 10
224.0719064008
 20
-2905.9861482849
 30
0.0
 40
3000.0
100
AcDbArc
 50
90.0
 51
91.0809157204
  0
ARC
  5
5E
330
1F
100
AcDbEntity
  8
0
  6
Continuous
 62
     7
370
    15
100
AcDbCircle
 10
224.0719064008
 20
-2905.9861482849
 30
0.0
 40
3000.0
100
AcDbArc
 50
91.2158389611
 51
91.8177002372
  0
ARC
  5
5F
330
1F
100
AcDbEntity
  8
0
  6
Continuous
 62
     7
370
    15
100
AcDbCircle
 10
224.0719064008
 20
3142.0138517151
 30
0.0
 40
3000.0
100
AcDbArc
 50
268.1822997628
 51
268.7836855319
  0
ARC
  5
60
330
1F
100
AcDbEntity
  8
0
  6
Continuous
 62
     7
370
    15
100
AcDbCircle
 10
224.0719064008
 20
3142.0138517151
 30
0.0
 40
3000.0
100
AcDbArc
 50
268.9192888846
 51
270.0
  0
LINE
  5
61
330
1F
100
AcDbEntity
  8
0
  6
Continuous
 62
     7
370
    15
100
AcDbLine
 10
224.0719064008
 20
94.0138517151
 30
0.0
 11
242.2548648777
 21
94.0138517151
 31
0.0
  0
LINE
  5
62
330
1F
100
AcDbEntity
  8
0
  6
Continuous
 62
     7
370
    15
100
AcDbLine
 10
242.2548648777
 20
142.0138517151
 30
0.0
 11
224.0719064008
 21
142.0138517151
 31
0.0
  0
LINE
  5
63
330
1F
100
AcDbEntity
  8
0
  6
Continuous
 62
     7
370
    15
100
AcDbLine
 10
242.2548648777
 20
94.0138517151
 30
0.0
 11
253.9671429242
 21
99.4753766626
 31
0.0
  0
LINE
  5
64
330
1F
100
AcDbEntity
  8
0
  6
Continuous
 62
     7
370
    15
100
AcDbLine
 10
253.9671429242
 20
136.5523267675
 30
0.0
 11
242.2548648777
 21
142.0138517151
 31
0.0
  0
ARC
  5
65
330
1F
100
AcDbEntity
  8
0
  6
Continuous
 62
     7
370
    15
100
AcDbCircle
 10
253.1219064008
 20
101.2879922367
 30
0.0
 40
2.0
100
AcDbArc
 50
295.0
 51
0.0
  0
ARC
  5
66
330
1F
100
AcDbEntity
  8
0
  6
Continuous
 62
     7
370
    15
100
AcDbCircle
 10
253.1219064008
 20
134.7397111935
 30
0.0
 40
2.000000000000001
100
AcDbArc
 50
0.0
 51
65.0
  0
ARC
  5
67
330
1F
100
AcDbEntity
  8
0
  6
Continuous
 62
     7
370
    15
100
AcDbCircle
 10
58.4219064008
 20
83.8638517151
 30
0.0
 40
1.900000000000006
100
AcDbArc
 50
35.6630613694
 51
90.0
  0
LINE
  5
68
330
1F
100
AcDbEntity
  8
0
  6
Continuous
 62
     7
370
    15
100
AcDbLine
 10
46.8719064008
 20
85.7638517151
 30
0.0
 11
58.4219064008
 21
85.7638517151
 31
0.0
  0
ARC
  5
69
330
1F
100
AcDbEntity
  8
0
  6
Continuous
 62
     7
370
    15
100
AcDbCircle
 10
53.4219064008
 20
152.1638517151
 30
0.0
 40
1.899999999999991
100
AcDbArc
 50
270.0
 51
310.9212832533
  0
LINE
  5
6A
330
1F
100
AcDbEntity
  8
0
  6
Continuous
 62
     7
370
    15
100
AcDbLine
 10
46.8719064008
 20
150.2638517151
 30
0.0
 11
45.2219064008
 21
148.6138517151
 31
0.0
  0
LINE
  5
6B
330
1F
100
AcDbEntity
  8
0
  6
Continuous
 62
     7
370
    15
100
AcDbLine
 10
45.2219064008
 20
87.4138517151
 30
0.0
 11
46.8719064008
 21
85.7638517151
 31
0.0
  0
LINE
  5
6C
330
1F
100
AcDbEntity
  8
0
  6
Continuous
 62
     7
370
    15
100
AcDbLine
 10
53.4219064008
 20
150.2638517151
 30
0.0
 11
46.8719064008
 21
150.2638517151
 31
0.0
  0
LINE
  5
6D
330
1F
100
AcDbEntity
  8
0
  6
Continuous
 62
     7
370
    15
100
AcDbLine
 10
255.1279176127
 20
128.424631223
 30
0.0
 11
255.1219064008
 21
128.4357625069
 31
0.0
  0
LINE
  5
6E
330
1F
100
AcDbEntity
  8
0
  6
Continuous
 62
     7
370
    15
100
AcDbLine
 10
255.1219064008
 20
107.4845277533
 30
0.0
 11
255.1868073364
 21
107.6047082993
 31
0.0
  0
LINE
  5
6F
330
1F
100
AcDbEntity
  8
0
  6
Continuous
 62
     7
370
    15
100
AcDbLine
 10
100.0719064008
 20
149.3638517151
 30
0.0
 11
111.8598773798
 21
149.3638517151
 31
0.0
  0
LINE
  5
70
330
1F
100
AcDbEntity
  8
0
  6
Continuous
 62
     7
370
    15
100
AcDbLine
 10
111.8598773798
 20
69.2388581221
 30
0.0
 11
111.8598773798
 21
149.3638517151
 31
0.0
  0
LINE
  5
71
330
1F
100
AcDbEntity
  8
0
  6
Continuous
 62
     7
370
    15
100
AcDbLine
 10
111.8598773798
 20
69.2388581221
 30
0.0
 11
110.0719064008
 21
69.2388581221
 31
0.0
  0
SPLINE
  5
72
330
1F
100
AcDbEntity
  8
0
  6
Continuous
 62
     7
370
    15
100
AcDbSpline
210
0.0
220
0.0
230
1.0
 70
     8
 71
     3
 72
    30
 73
    26
 74
     0
 42
0.00000001
 43
0.00000001
 40
0.0
 40
0.0
 40
0.0
 40
0.0
 40
0.1250000000000006
 40
0.1250000000000006
 40
0.187500000000001
 40
0.187500000000001
 40
0.2500000000000013
 40
0.2500000000000013
 40
0.3750000000000014
 40
0.3750000000000014
 40
0.4375000000000014
 40
0.4375000000000014
 40
0.5000000000000013
 40
0.5000000000000013
 40
0.625000000000001
 40
0.625000000000001
 40
0.6875000000000009
 40
0.6875000000000009
 40
0.7500000000000007
 40
0.7500000000000007
 40
0.8125000000000006
 40
0.8125000000000006
 40
0.8750000000000004
 40
0.8750000000000004
 40
1.0
 40
1.0
 40
1.0
 40
1.0
 10
110.0719064007583
 20
69.23885812205866
 30
0.0
 10
109.4091617069133
 20
69.23885812205867
 30
0.0
 10
108.7579058477976
 20
69.22401804546985
 30
0.0
 10
107.7974553095393
 20
69.18164848124026
 30
0.0
 10
107.4800638663063
 20
69.16417037846105
 30
0.0
 10
106.8509003647515
 20
69.12284209190877
 30
0.0
 10
106.5387521783097
 20
69.09891681845107
 30
0.0
 10
105.6314448764615
 20
69.02011030198416
 30
0.0
 10
105.0580199188202
 20
68.95780428200769
 30
0.0
 10
104.2441430492456
 20
68.85467496176832
 30
0.0
 10
103.9793368526757
 20
68.81849104272179
 30
0.0
 10
103.4724294418614
 20
68.74469625852129
 30
0.0
 10
103.2310352905079
 20
68.70722239974967
 30
0.0
 10
102.5418938183755
 20
68.59451045640992
 30
0.0
 10
102.1288390035113
 20
68.51897435893615
 30
0.0
 10
101.5806841841362
 20
68.41058110191867
 30
0.0
 10
101.4112215767907
 20
68.3755088702554
 30
0.0
 10
101.1032043287753
 20
68.30927340965553
 30
0.0
 10
100.9638243081669
 20
68.27794671290083
 30
0.0
 10
100.7140387955402
 20
68.21953794131989
 30
0.0
 10
100.6036326828862
 20
68.19245470613706
 30
0.0
 10
100.4123748292485
 20
68.14319495152344
 30
0.0
 10
100.3312553109642
 20
68.12093297171582
 30
0.0
 10
100.1371083908558
 20
68.0633660645475
 30
0.0
 10
100.0719064007583
 20
68.03710645976152
 30
0.0
 10
100.0719064007583
 20
68.02385271528752
 30
0.0
  0
LINE
  5
73
330
1F
100
AcDbEntity
  8
0
  6
Continuous
 62
     7
370
    15
100
AcDbLine
 10
100.0719064008
 20
68.0238527153
 30
0.0
 11
100.0719064008
 21
68.0138517151
 31
0.0
  0
SPLINE
  5
74
330
1F
100
AcDbEntity
  8
0
  6
Continuous
 62
     7
370
    15
100
AcDbSpline
210
0.0
220
0.0
230
1.0
 70
     8
 71
     3
 72
    17
 73
    13
 74
     0
 42
0.00000001
 43
0.00000001
 40
0.0
 40
0.0
 40
0.0
 40
0.0
 40
0.1043843840547469
 40
0.2118345768143993
 40
0.3162082005190449
 40
0.4235375806108391
 40
0.5292276236193851
 40
0.637927586480349
 40
0.7444714844189682
 40
0.8541836219421858
 40
0.9593080534965216
 40
1.0
 40
1.0
 40
1.0
 40
1.0
 10
110.0719064007583
 20
167.003646570751
 30
0.0
 10
109.5239679528989
 20
167.0090147744997
 30
0.0
 10
108.4119978984342
 20
167.0199088481648
 30
0.0
 10
106.7991419852193
 20
167.1050862224237
 30
0.0
 10
105.2656287682423
 20
167.2314609287162
 30
0.0
 10
103.8746079189057
 20
167.388363749293
 30
0.0
 10
102.6390914016753
 20
167.5600625788136
 30
0.0
 10
101.6157356345201
 20
167.7253988549147
 30
0.0
 10
100.815393636255
 20
167.8691123345012
 30
0.0
 10
100.3050615343414
 20
167.9672671416804
 30
0.0
 10
100.0651531055169
 20
168.0151955385503
 30
0.0
 10
100.0970718849367
 20
168.0088281393107
 30
0.0
 10
100.1059792332189
 20
168.0070512341874
 30
0.0
  0
LINE
  5
75
330
1F
100
AcDbEntity
  8
0
  6
Continuous
 62
     7
370
    15
100
AcDbLine
 10
111.8598773798
 20
167.0036465708
 30
0.0
 11
110.0719064008
 21
167.0036465708
 31
0.0
  0
LINE
  5
76
330
1F
100
AcDbEntity
  8
0
  6
Continuous
 62
     7
370
    15
100
AcDbLine
 10
111.8598773798
 20
156.964814476
 30
0.0
 11
111.8598773798
 21
167.0036465708
 31
0.0
  0
LINE
  5
77
330
1F
100
AcDbEntity
  8
0
  6
Continuous
 62
     7
370
    15
100
AcDbLine
 10
109.7798732489
 20
156.964814476
 30
0.0
 11
111.8598773798
 21
156.964814476
 31
0.0
  0
SPLINE
  5
78
330
1F
100
AcDbEntity
  8
0
  6
Continuous
 62
     7
370
    15
100
AcDbSpline
210
0.0
220
0.0
230
1.0
 70
     8
 71
     3
 72
    22
 73
    18
 74
     0
 42
0.00000001
 43
0.00000001
 40
0.0
 40
0.0
 40
0.0
 40
0.0
 40
0.2500000000000001
 40
0.2500000000000001
 40
0.3750000000000002
 40
0.3750000000000002
 40
0.5000000000000002
 40
0.5000000000000002
 40
0.6250000000000001
 40
0.6250000000000001
 40
0.7500000000000001
 40
0.7500000000000001
 40
0.875
 40
0.875
 40
0.9375
 40
0.9375
 40
1.0
 40
1.0
 40
1.0
 40
1.0
 10
100.0719064007583
 20
149.3638517150875
 30
0.0
 10
100.2746313566774
 20
150.3830980569521
 30
0.0
 10
100.5893750784728
 20
151.3422062068914
 30
0.0
 10
101.2974305481438
 20
152.6846852844006
 30
0.0
 10
101.5758931783614
 20
153.1188938671407
 30
0.0
 10
102.2146605849986
 20
153.9305215826428
 30
0.0
 10
102.5750742647888
 20
154.3098018755796
 30
0.0
 10
103.3926064967781
 20
155.0127604546006
 30
0.0
 10
103.8537744800652
 20
155.3377892723013
 30
0.0
 10
104.851764726549
 20
155.9028045956921
 30
0.0
 10
105.3915239205413
 20
156.1465081898986
 30
0.0
 10
106.5661168845726
 20
156.5507081175436
 30
0.0
 10
107.1778530705645
 20
156.7031453105891
 30
0.0
 10
108.1297622954262
 20
156.8584728581978
 30
0.0
 10
108.4529954596868
 20
156.8979776382478
 30
0.0
 10
109.1120586309621
 20
156.9512867589166
 30
0.0
 10
109.4461226415361
 20
156.9648144759744
 30
0.0
 10
109.7798732489376
 20
156.9648144759744
 30
0.0
  0
SPLINE
  5
79
330
1F
100
AcDbEntity
  8
0
  6
Continuous
 62
     7
370
    15
100
AcDbSpline
210
0.0
220
0.0
230
1.0
 70
     8
 71
     3
 72
    80
 73
    76
 74
     0
 42
0.00000001
 43
0.00000001
 40
-0.0312499999999999
 40
-0.0312499999999999
 40
0.0
 40
0.0
 40
0.0312499999999996
 40
0.0312499999999996
 40
0.0468749999999995
 40
0.0468749999999995
 40
0.0624999999999994
 40
0.0624999999999994
 40
0.093749999999999
 40
0.093749999999999
 40
0.1249999999999987
 40
0.1249999999999987
 40
0.1562499999999983
 40
0.1562499999999983
 40
0.187499999999998
 40
0.187499999999998
 40
0.2187499999999976
 40
0.2187499999999976
 40
0.2499999999999973
 40
0.2499999999999973
 40
0.2812499999999969
 40
0.2812499999999969
 40
0.3124999999999966
 40
0.3124999999999966
 40
0.3281249999999966
 40
0.3281249999999966
 40
0.3437499999999965
 40
0.3437499999999965
 40
0.3749999999999965
 40
0.3749999999999965
 40
0.4062499999999966
 40
0.4062499999999966
 40
0.4218749999999967
 40
0.4218749999999967
 40
0.4374999999999968
 40
0.4374999999999968
 40
0.4687499999999973
 40
0.4687499999999973
 40
0.4999999999999977
 40
0.4999999999999977
 40
0.5312499999999981
 40
0.5312499999999981
 40
0.5624999999999984
 40
0.5624999999999984
 40
0.5937499999999989
 40
0.5937499999999989
 40
0.6249999999999992
 40
0.6249999999999992
 40
0.6562499999999997
 40
0.6562499999999997
 40
0.6875000000000001
 40
0.6875000000000001
 40
0.7031250000000004
 40
0.7031250000000004
 40
0.7187500000000008
 40
0.7187500000000008
 40
0.7500000000000012
 40
0.7500000000000012
 40
0.7812500000000017
 40
0.7812500000000017
 40
0.7968750000000016
 40
0.7968750000000016
 40
0.8125000000000014
 40
0.8125000000000014
 40
0.8437500000000012
 40
0.8437500000000012
 40
0.8750000000000009
 40
0.8750000000000009
 40
0.9062500000000007
 40
0.9062500000000007
 40
0.9375000000000004
 40
0.9375000000000004
 40
0.9687500000000001
 40
0.9687500000000001
 40
1.0
 40
1.0
 40
1.03125
 40
1.03125
 10
104.4524517135346
 20
161.4284811787188
 30
0.0
 10
103.791361087982
 20
161.4284811787188
 30
0.0
 10
103.4663809587304
 20
161.4446894101009
 30
0.0
 10
102.9869075474839
 20
161.4920540421205
 30
0.0
 10
102.8284257296431
 20
161.5117082540111
 30
0.0
 10
102.5142061971389
 20
161.5588194102038
 30
0.0
 10
102.3580859134585
 20
161.5864007296985
 30
0.0
 10
101.9040318845019
 20
161.6789365164922
 30
0.0
 10
101.616928501562
 20
161.7540069500887
 30
0.0
 10
101.073573945535
 20
161.9292452586994
 30
0.0
 10
100.8164703343294
 20
162.0302465565376
 30
0.0
 10
100.3555640793907
 20
162.2476027549985
 30
0.0
 10
100.1486663701757
 20
162.3647670867707
 30
0.0
 10
99.7831410561835
 20
162.6148370109994
 30
0.0
 10
99.62793553405754
 20
162.7457830997583
 30
0.0
 10
99.37850514745783
 20
163.0115180434707
 30
0.0
 10
99.28241519167265
 20
163.1482716367817
 30
0.0
 10
99.15389634247909
 20
163.4223372116206
 30
0.0
 10
99.12208547230131
 20
163.5572773020895
 30
0.0
 10
99.12172882252804
 20
163.8227489391582
 30
0.0
 10
99.1542260747251
 20
163.9545734162995
 30
0.0
 10
99.28185154843959
 20
164.2040230159199
 30
0.0
 10
99.37627994949148
 20
164.3224557078479
 30
0.0
 10
99.56414076947704
 20
164.491324904942
 30
0.0
 10
99.63496876828022
 20
164.5464109000622
 30
0.0
 10
99.78969066024551
 20
164.6516637285506
 30
0.0
 10
99.8736671304289
 20
164.7019989573109
 30
0.0
 10
100.1449908000733
 20
164.846574789849
 30
0.0
 10
100.3515400186757
 20
164.9344363762659
 30
0.0
 10
100.8181501588647
 20
165.0941574692655
 30
0.0
 10
101.0705157284901
 20
165.1633957657327
 30
0.0
 10
101.4764170701689
 20
165.2531831549625
 30
0.0
 10
101.6163176876464
 20
165.2807491170488
 30
0.0
 10
101.9055416228933
 20
165.331239917975
 30
0.0
 10
102.0553810791826
 20
165.3542033568257
 30
0.0
 10
102.5094976487933
 20
165.4148338732446
 30
0.0
 10
102.8211488675302
 20
165.4449079020404
 30
0.0
 10
103.4621453324426
 20
165.485497489299
 30
0.0
 10
103.7936729603947
 20
165.4958097195151
 30
0.0
 10
104.4464640054662
 20
165.4958852866808
 30
0.0
 10
104.7710002104981
 20
165.4859836812131
 30
0.0
 10
105.4162696599145
 20
165.4454971506879
 30
0.0
 10
105.7320126660772
 20
165.4150358508032
 30
0.0
 10
106.3339019610609
 20
165.3348851793666
 30
0.0
 10
106.6246511918723
 20
165.2846029475594
 30
0.0
 10
107.1715629835568
 20
165.1639327647865
 30
0.0
 10
107.4233403473938
 20
165.0947089056164
 30
0.0
 10
107.8847283400149
 20
164.9372571779757
 30
0.0
 10
108.095997619613
 20
164.847908703302
 30
0.0
 10
108.4593019719892
 20
164.6546608326012
 30
0.0
 10
108.613108620432
 20
164.5505328407219
 30
0.0
 10
108.8017280900294
 20
164.3819084545384
 30
0.0
 10
108.8577585762385
 20
164.3232800528635
 30
0.0
 10
108.9533323379746
 20
164.2038251380373
 30
0.0
 10
108.9930952549996
 20
164.1429053491991
 30
0.0
 10
109.0888670053118
 20
163.9565006230252
 30
0.0
 10
109.1215898444379
 20
163.8273878052302
 30
0.0
 10
109.122218430767
 20
163.5587308822743
 30
0.0
 10
109.0900322860322
 20
163.4233601415175
 30
0.0
 10
108.9951215841766
 20
163.2198098332815
 30
0.0
 10
108.9556548007777
 20
163.1518379092181
 30
0.0
 10
108.8607248020568
 20
163.0157456860872
 30
0.0
 10
108.8049679742934
 20
162.9473955858778
 30
0.0
 10
108.6170278563235
 20
162.7466925728357
 30
0.0
 10
108.4636663866073
 20
162.617304299023
 30
0.0
 10
108.101402151727
 20
162.3686388669731
 30
0.0
 10
107.8905536782611
 20
162.2488292246049
 30
0.0
 10
107.4298837079422
 20
162.0313069370323
 30
0.0
 10
107.1785093283583
 20
161.9322218371963
 30
0.0
 10
106.6326014414602
 20
161.7555493632795
 30
0.0
 10
106.341778866809
 20
161.6794922751455
 30
0.0
 10
105.740452252029
 20
161.5566472977925
 30
0.0
 10
105.4259336674166
 20
161.5089411727394
 30
0.0
 10
104.7793522112966
 20
161.4446926376197
 30
0.0
 10
104.4524517135346
 20
161.4284811787188
 30
0.0
 10
103.791361087982
 20
161.4284811787188
 30
0.0
  0
LINE
  5
7A
330
1F
100
AcDbEntity
  8
0
  6
Continuous
 62
     7
370
    15
100
AcDbLine
 10
113.2119064008
 20
71.6424634281
 30
0.0
 11
113.2119064008
 21
149.3638517151
 31
0.0
  0
SPLINE
  5
7B
330
1F
100
AcDbEntity
  8
0
  6
Continuous
 62
     7
370
    15
100
AcDbSpline
210
0.0
220
0.0
230
1.0
 70
     8
 71
     3
 72
     8
 73
     4
 74
     0
 42
0.00000001
 43
0.00000001
 40
0.0
 40
0.0
 40
0.0
 40
0.0
 40
1.0
 40
1.0
 40
1.0
 40
1.0
 10
113.2119064007583
 20
71.64246342806399
 30
0.0
 10
112.7616799364805
 20
70.84100806543924
 30
0.0
 10
112.3109821092371
 20
70.03981805387858
 30
0.0
 10
111.8598773798369
 20
69.23885812205866
 30
0.0
  0
SPLINE
  5
7C
330
1F
100
AcDbEntity
  8
0
  6
Continuous
 62
     7
370
    15
100
AcDbSpline
210
0.0
220
0.0
230
1.0
 70
    24
 71
     3
 72
     8
 73
     4
 74
     0
 42
0.00000001
 43
0.00000001
 40
0.0
 40
0.0
 40
0.0
 40
0.0
 40
1.0
 40
1.0
 40
1.0
 40
1.0
 10
111.8598773798369
 20
149.3638517150875
 30
0.0
 10
112.3166789521652
 20
149.3638517150875
 30
0.0
 10
112.7676935184044
 20
149.3638517150875
 30
0.0
 10
113.2119064007583
 20
149.3638517150875
 30
0.0
  0
LINE
  5
7D
330
1F
100
AcDbEntity
  8
0
  6
Continuous
 62
     7
370
    15
100
AcDbLine
 10
123.0719064008
 20
69.2388581221
 30
0.0
 11
118.3839354217
 21
69.2388581221
 31
0.0
  0
LINE
  5
7E
330
1F
100
AcDbEntity
  8
0
  6
Continuous
 62
     7
370
    15
100
AcDbLine
 10
118.3839354217
 20
69.2388581221
 30
0.0
 11
118.3839354217
 21
149.3638517151
 31
0.0
  0
LINE
  5
7F
330
1F
100
AcDbEntity
  8
0
  6
Continuous
 62
     7
370
    15
100
AcDbLine
 10
118.3839354217
 20
149.3638517151
 30
0.0
 11
123.0719064008
 21
149.3638517151
 31
0.0
  0
LINE
  5
80
330
1F
100
AcDbEntity
  8
0
  6
Continuous
 62
     7
370
    15
100
AcDbLine
 10
124.0719064008
 20
70.2645061698
 30
0.0
 11
124.0719064008
 21
149.3638517151
 31
0.0
  0
SPLINE
  5
81
330
1F
100
AcDbEntity
  8
0
  6
Continuous
 62
     7
370
    15
100
AcDbSpline
210
0.0
220
0.0
230
1.0
 70
     8
 71
     3
 72
    14
 73
    10
 74
     0
 42
0.00000001
 43
0.00000001
 40
0.0
 40
0.0
 40
0.0
 40
0.0
 40
0.25
 40
0.25
 40
0.5
 40
0.5
 40
0.75
 40
0.75
 40
1.0
 40
1.0
 40
1.0
 40
1.0
 10
124.0719064007583
 20
70.26450616983418
 30
0.0
 10
124.0719064007583
 20
70.13108047377963
 30
0.0
 10
124.0465953008474
 20
69.99923266593527
 30
0.0
 10
123.9482605370027
 20
69.75271011724118
 30
0.0
 10
123.8751165327466
 20
69.63890492900063
 30
0.0
 10
123.6916784716509
 20
69.44844775205335
 30
0.0
 10
123.5799921373123
 20
69.37081288820345
 30
0.0
 10
123.3374887070061
 20
69.26652147809098
 30
0.0
 10
123.2041142783118
 20
69.23885812205863
 30
0.0
 10
123.0719064007583
 20
69.23885812205863
 30
0.0
  0
SPLINE
  5
82
330
1F
100
AcDbEntity
  8
0
  6
Continuous
 62
     7
370
    15
100
AcDbSpline
210
0.0
220
0.0
230
1.0
 70
    24
 71
     3
 72
    12
 73
     8
 74
     0
 42
0.00000001
 43
0.00000001
 40
0.0
 40
0.0
 40
0.0
 40
0.0
 40
0.2500000000000032
 40
0.2500000000000032
 40
0.5000000000000064
 40
0.5000000000000064
 40
1.0
 40
1.0
 40
1.0
 40
1.0
 10
123.0719064007583
 20
149.3638517150875
 30
0.0
 10
123.2239966377033
 20
149.3638517150875
 30
0.0
 10
123.3724558987787
 20
149.3638517150875
 30
0.0
 10
123.6298595310444
 20
149.3638517150875
 30
0.0
 10
123.7389642788863
 20
149.3638517150875
 30
0.0
 10
123.9930237552939
 20
149.3638517150875
 30
0.0
 10
124.0719064007583
 20
149.3638517150875
 30
0.0
 10
124.0719064007583
 20
149.3638517150875
 30
0.0
  0
LINE
  5
83
330
1F
100
AcDbEntity
  8
0
  6
Continuous
 62
     7
370
    15
100
AcDbLine
 10
95.1219064008
 20
68.5138517151
 30
0.0
 11
95.1219064008
 21
167.5138517132
 31
0.0
  0
SPLINE
  5
84
330
1F
100
AcDbEntity
  8
0
  6
Continuous
 62
     7
370
    15
100
AcDbSpline
210
0.0
220
0.0
230
1.0
 70
     8
 71
     3
 72
     8
 73
     4
 74
     0
 42
0.00000001
 43
0.00000001
 40
0.0
 40
0.0
 40
0.0
 40
0.0
 40
1.0
 40
1.0
 40
1.0
 40
1.0
 10
118.3839354216797
 20
69.23885812205866
 30
0.0
 10
117.9328306922795
 20
70.03981805387858
 30
0.0
 10
117.4821328650361
 20
70.84100806543925
 30
0.0
 10
117.0319064007583
 20
71.642463428064
 30
0.0
  0
LINE
  5
85
330
1F
100
AcDbEntity
  8
0
  6
Continuous
 62
     7
370
    15
100
AcDbLine
 10
117.0319064008
 20
71.6424634281
 30
0.0
 11
117.0319064008
 21
149.3638517151
 31
0.0
  0
SPLINE
  5
86
330
1F
100
AcDbEntity
  8
0
  6
Continuous
 62
     7
370
    15
100
AcDbSpline
210
0.0
220
0.0
230
1.0
 70
    24
 71
     3
 72
     8
 73
     4
 74
     0
 42
0.00000001
 43
0.00000001
 40
0.0
 40
0.0
 40
0.0
 40
0.0
 40
1.0
 40
1.0
 40
1.0
 40
1.0
 10
117.0319064007583
 20
149.3638517150875
 30
0.0
 10
117.4761192831122
 20
149.3638517150875
 30
0.0
 10
117.9271338493514
 20
149.3638517150875
 30
0.0
 10
118.3839354216797
 20
149.3638517150875
 30
0.0
  0
SPLINE
  5
87
330
1F
100
AcDbEntity
  8
0
  6
Continuous
 62
     7
370
    15
100
AcDbSpline
210
0.0
220
0.0
230
1.0
 70
     8
 71
     3
 72
    14
 73
    10
 74
     0
 42
0.00000001
 43
0.00000001
 40
0.0
 40
0.0
 40
0.0
 40
0.0
 40
0.25
 40
0.25
 40
0.5
 40
0.5
 40
0.75
 40
0.75
 40
1.0
 40
1.0
 40
1.0
 40
1.0
 10
117.0319064007583
 20
72.55067293269258
 30
0.0
 10
117.0319064007583
 20
72.65771701368696
 30
0.0
 10
117.0117887136001
 20
72.76295215392942
 30
0.0
 10
116.9332975243345
 20
72.96080264077709
 30
0.0
 10
116.8751408995333
 20
73.05185440434202
 30
0.0
 10
116.7286256439153
 20
73.2050204982668
 30
0.0
 10
116.6399830952742
 20
73.26731494447621
 30
0.0
 10
116.4442597724738
 20
73.35210873001219
 30
0.0
 10
116.3390285814029
 20
73.37417625703782
 30
0.0
 10
116.2319064007583
 20
73.37417625703782
 30
0.0
  0
SPLINE
  5
88
330
1F
100
AcDbEntity
  8
0
  6
Continuous
 62
     7
370
    15
100
AcDbSpline
210
0.0
220
0.0
230
1.0
 70
    24
 71
     3
 72
    14
 73
    10
 74
     0
 42
0.00000001
 43
0.00000001
 40
0.0
 40
0.0
 40
0.0
 40
0.0
 40
0.25
 40
0.25
 40
0.5
 40
0.5
 40
0.75
 40
0.75
 40
1.0
 40
1.0
 40
1.0
 40
1.0
 10
116.2319064007583
 20
149.3638517150875
 30
0.0
 10
116.3556761655234
 20
149.3638517150875
 30
0.0
 10
116.4800432695303
 20
149.3638517150875
 30
0.0
 10
116.6863997382564
 20
149.3638517150875
 30
0.0
 10
116.7717278816747
 20
149.3638517150875
 30
0.0
 10
116.90391994039
 20
149.3638517150875
 30
0.0
 10
116.9525651841406
 20
149.3638517150875
 30
0.0
 10
117.0161009758693
 20
149.3638517150875
 30
0.0
 10
117.0319064007583
 20
149.3638517150875
 30
0.0
 10
117.0319064007583
 20
149.3638517150875
 30
0.0
  0
SPLINE
  5
89
330
1F
100
AcDbEntity
  8
0
  6
Continuous
 62
     7
370
    15
100
AcDbSpline
210
0.0
220
0.0
230
1.0
 70
     8
 71
     3
 72
    12
 73
     8
 74
     0
 42
0.00000001
 43
0.00000001
 40
0.0
 40
0.0
 40
0.0
 40
0.0
 40
0.250000000000003
 40
0.250000000000003
 40
0.500000000000006
 40
0.500000000000006
 40
1.0
 40
1.0
 40
1.0
 40
1.0
 10
114.0119064007583
 20
73.37417625703782
 30
0.0
 10
113.9061457474094
 20
73.37417625703782
 30
0.0
 10
113.7981581192264
 20
73.35163675103742
 30
0.0
 10
113.6035634539608
 20
73.2670661190421
 30
0.0
 10
113.5146915411219
 20
73.20458446628328
 30
0.0
 10
113.295499248796
 20
72.97519551481105
 30
0.0
 10
113.2119064007582
 20
72.76261217728863
 30
0.0
 10
113.2119064007583
 20
72.55067293269244
 30
0.0
  0
SPLINE
  5
8A
330
1F
100
AcDbEntity
  8
0
  6
Continuous
 62
     7
370
    15
100
AcDbSpline
210
0.0
220
0.0
230
1.0
 70
    24
 71
     3
 72
    14
 73
    10
 74
     0
 42
0.00000001
 43
0.00000001
 40
0.0
 40
0.0
 40
0.0
 40
0.0
 40
0.25
 40
0.25
 40
0.5
 40
0.5
 40
0.75
 40
0.75
 40
1.0
 40
1.0
 40
1.0
 40
1.0
 10
113.2119064007583
 20
149.3638517150875
 30
0.0
 10
113.2119064007583
 20
149.3638517150875
 30
0.0
 10
113.2276207212242
 20
149.3638517150875
 30
0.0
 10
113.2913046996926
 20
149.3638517150875
 30
0.0
 10
113.3399078941031
 20
149.3638517150875
 30
0.0
 10
113.4725914165287
 20
149.3638517150875
 30
0.0
 10
113.5576935208393
 20
149.3638517150875
 30
0.0
 10
113.7641357557494
 20
149.3638517150875
 30
0.0
 10
113.8882166973724
 20
149.3638517150875
 30
0.0
 10
114.0119064007583
 20
149.3638517150875
 30
0.0
  0
LINE
  5
8B
330
1F
100
AcDbEntity
  8
0
  6
Continuous
 62
     7
370
    15
100
AcDbLine
 10
116.2319064008
 20
73.374176257
 30
0.0
 11
114.0119064008
 21
73.374176257
 31
0.0
  0
LINE
  5
8C
330
1F
100
AcDbEntity
  8
0
  6
Continuous
 62
     7
370
    15
100
AcDbLine
 10
114.0119064008
 20
149.3638517151
 30
0.0
 11
116.2319064008
 21
149.3638517151
 31
0.0
  0
LINE
  5
8D
330
1F
100
AcDbEntity
  8
0
  6
Continuous
 62
     7
370
    15
100
AcDbLine
 10
60.3219064008
 20
81.749836685
 30
0.0
 11
60.3219064008
 21
84.1445184497
 31
0.0
  0
SPLINE
  5
8E
330
1F
100
AcDbEntity
  8
0
  6
Continuous
 62
     7
370
    15
100
AcDbSpline
210
0.0
220
0.0
230
1.0
 70
     8
 71
     3
 72
    14
 73
    10
 74
     0
 42
0.00000001
 43
0.00000001
 40
0.0
 40
0.0
 40
0.0
 40
0.0
 40
0.25
 40
0.25
 40
0.5
 40
0.5
 40
0.75
 40
0.75
 40
1.0
 40
1.0
 40
1.0
 40
1.0
 10
59.31748392942135
 20
85.84737037134393
 30
0.0
 10
59.40625250736667
 20
85.68883624003598
 30
0.0
 10
59.52797034604558
 20
85.53639356314743
 30
0.0
 10
59.76301995590241
 20
85.2392589393185
 30
0.0
 10
59.87865014211931
 20
85.09457629570115
 30
0.0
 10
60.07905507554712
 20
84.81128709319773
 30
0.0
 10
60.16445536753145
 20
84.67273310016088
 30
0.0
 10
60.28616100124867
 20
84.40134907012737
 30
0.0
 10
60.32190640076132
 20
84.26921320149273
 30
0.0
 10
60.32190640076131
 20
84.14451844972197
 30
0.0
  0
SPLINE
  5
8F
330
1F
100
AcDbEntity
  8
0
  6
Continuous
 62
     7
370
    15
100
AcDbSpline
210
0.0
220
0.0
230
1.0
 70
     8
 71
     3
 72
    14
 73
    10
 74
     0
 42
0.00000001
 43
0.00000001
 40
0.0
 40
0.0
 40
0.0
 40
0.0
 40
0.1249999999999983
 40
0.1249999999999983
 40
0.2499999999999966
 40
0.2499999999999966
 40
0.4999999999999978
 40
0.4999999999999978
 40
1.0
 40
1.0
 40
1.0
 40
1.0
 10
58.42190640075831
 20
86.47620031044404
 30
0.0
 10
58.48948870054279
 20
86.48335619554544
 30
0.0
 10
58.56197627829071
 20
86.47893172550644
 30
0.0
 10
58.69426738755664
 20
86.4492255677361
 30
0.0
 10
58.75154476694683
 20
86.42594128615785
 30
0.0
 10
58.90119519414711
 20
86.34845604630753
 30
0.0
 10
58.97490848966861
 20
86.28660421940617
 30
0.0
 10
59.16271647299484
 20
86.10192676675784
 30
0.0
 10
59.24675677935628
 20
85.97368384346663
 30
0.0
 10
59.31748392942256
 20
85.84737037134404
 30
0.0
  0
SPLINE
  5
90
330
1F
100
AcDbEntity
  8
0
  6
Continuous
 62
     7
370
    15
100
AcDbSpline
210
0.0
220
0.0
230
1.0
 70
     8
 71
     3
 72
     8
 73
     4
 74
     0
 42
0.00000001
 43
0.00000001
 40
0.0
 40
0.0
 40
0.0
 40
0.0
 40
1.0
 40
1.0
 40
1.0
 40
1.0
 10
54.87726601267752
 20
86.05815172565227
 30
0.0
 10
56.04256432338639
 20
86.21333919753887
 30
0.0
 10
57.2271795374262
 20
86.3496978358492
 30
0.0
 10
58.42190640075831
 20
86.47620031044404
 30
0.0
  0
SPLINE
  5
91
330
1F
100
AcDbEntity
  8
0
  6
Continuous
 62
     7
370
    15
100
AcDbSpline
210
0.0
220
0.0
230
1.0
 70
     8
 71
     3
 72
    14
 73
    10
 74
     0
 42
0.00000001
 43
0.00000001
 40
0.0
 40
0.0
 40
0.0
 40
0.0
 40
0.5000000000000012
 40
0.5000000000000012
 40
0.7500000000000018
 40
0.7500000000000018
 40
0.8750000000000009
 40
0.8750000000000009
 40
1.0
 40
1.0
 40
1.0
 40
1.0
 10
47.12183151672797
 20
85.76801954652232
 30
0.0
 10
48.43013307926197
 20
85.77503427026345
 30
0.0
 10
49.73519245391908
 20
85.79044284670793
 30
0.0
 10
51.68106850540777
 20
85.8443394021746
 30
0.0
 10
52.32776600914693
 20
85.8673709667773
 30
0.0
 10
53.29160837300148
 20
85.91831349164805
 30
0.0
 10
53.61184706493563
 20
85.93804841388125
 30
0.0
 10
54.24854229127818
 20
85.98753554235283
 30
0.0
 10
54.56525769956117
 20
86.01660032128207
 30
0.0
 10
54.87726601267756
 20
86.05815172565224
 30
0.0
  0
SPLINE
  5
92
330
1F
100
AcDbEntity
  8
0
  6
Continuous
 62
     7
370
    15
100
AcDbSpline
210
0.0
220
0.0
230
1.0
 70
     8
 71
     3
 72
    12
 73
     8
 74
     0
 42
0.00000001
 43
0.00000001
 40
0.0
 40
0.0
 40
0.0
 40
0.0
 40
0.25
 40
0.25
 40
0.5
 40
0.5
 40
1.0
 40
1.0
 40
1.0
 40
1.0
 10
53.42190640075831
 20
150.1003746065839
 30
0.0
 10
52.90320757893012
 20
150.1328973814321
 30
0.0
 10
52.38149600572511
 20
150.1561941226026
 30
0.0
 10
51.33520398922956
 20
150.1940396370247
 30
0.0
 10
50.81053236355928
 20
150.2083081115209
 30
0.0
 10
49.23368634102006
 20
150.2425175989791
 30
0.0
 10
48.1787310264732
 20
150.2540171029231
 30
0.0
 10
47.12183151672796
 20
150.2596838836526
 30
0.0
  0
SPLINE
  5
93
330
1F
100
AcDbEntity
  8
0
  6
Continuous
 62
     7
370
    15
100
AcDbSpline
210
0.0
220
0.0
230
1.0
 70
     8
 71
     3
 72
    20
 73
    16
 74
     0
 42
0.00000001
 43
0.00000001
 40
0.0
 40
0.0
 40
0.0
 40
0.0
 40
0.2500000000000003
 40
0.2500000000000003
 40
0.5000000000000007
 40
0.5000000000000007
 40
0.750000000000001
 40
0.750000000000001
 40
0.8750000000000007
 40
0.8750000000000007
 40
0.9375000000000012
 40
0.9375000000000012
 40
0.9687500000000007
 40
0.9687500000000007
 40
1.0
 40
1.0
 40
1.0
 40
1.0
 10
55.32190640075831
 20
151.758460452072
 30
0.0
 10
55.32190640075832
 20
151.6227781323252
 30
0.0
 10
55.27319461154168
 20
151.4816911461852
 30
0.0
 10
55.10403318831647
 20
151.1896194274547
 30
0.0
 10
54.98225277439816
 20
151.0379706853643
 30
0.0
 10
54.68470567964867
 20
150.7355622452111
 30
0.0
 10
54.51079307394588
 20
150.5829736090878
 30
0.0
 10
54.19137824006406
 20
150.3577028452455
 30
0.0
 10
54.07633746461682
 20
150.2829797507348
 30
0.0
 10
53.8692531406004
 20
150.1835693414778
 30
0.0
 10
53.79314530579401
 20
150.1520042491332
 30
0.0
 10
53.66175076624065
 20
150.1175608649403
 30
0.0
 10
53.61519754723921
 20
150.1085092931726
 30
0.0
 10
53.5188641961585
 20
150.0983336443342
 30
0.0
 10
53.46960477280305
 20
150.0973838856591
 30
0.0
 10
53.42190640075631
 20
150.1003746065737
 30
0.0
  0
LINE
  5
94
330
1F
100
AcDbEntity
  8
0
  6
Continuous
 62
     7
370
    15
100
AcDbLine
 10
55.3219064008
 20
151.7584604521
 30
0.0
 11
55.3219064008
 21
154.0273657431
 31
0.0
  0
LINE
  5
95
330
1F
100
AcDbEntity
  8
0
  6
Continuous
 62
     7
370
    15
100
AcDbLine
 10
92.6219064008
 20
80.1316002121
 30
0.0
 11
92.6219064008
 21
155.8961032181
 31
0.0
  0
SPLINE
  5
96
330
1F
100
AcDbEntity
  8
0
  6
Continuous
 62
     7
370
    15
100
AcDbSpline
210
0.0
220
0.0
230
1.0
 70
     8
 71
     3
 72
    22
 73
    18
 74
     0
 42
0.00000001
 43
0.00000001
 40
0.0
 40
0.0
 40
0.0
 40
0.0
 40
0.0002937850458186
 40
0.0628841327410385
 40
0.126198168295417
 40
0.2510182590426641
 40
0.3131038291606471
 40
0.3757650688901756
 40
0.4382989835657638
 40
0.5000628079114217
 40
0.5617337561127201
 40
0.6246555685552291
 40
0.7491916976530801
 40
0.811530218131182
 40
0.8745847230191033
 40
0.937822758820791
 40
1.0
 40
1.0
 40
1.0
 40
1.0
 10
73.64186266459774
 20
81.0826064567751
 30
0.0
 10
73.64166781118753
 20
81.08258214945523
 30
0.0
 10
73.59995980770663
 20
81.07737921366869
 30
0.0
 10
73.74522291089043
 20
81.09599342155607
 30
0.0
 10
74.21536908805847
 20
81.15251937215214
 30
0.0
 10
75.18382517064543
 20
81.25874100157728
 30
0.0
 10
76.49628498020273
 20
81.34437380900958
 30
0.0
 10
77.62840868883823
 20
81.38302987510795
 30
0.0
 10
78.85059546546185
 20
81.3866911828863
 30
0.0
 10
80.11789385298364
 20
81.34430576811724
 30
0.0
 10
81.3846055072139
 20
81.25592879044072
 30
0.0
 10
83.00026350308309
 20
81.08587966181919
 30
0.0
 10
84.440226113112
 20
80.86369792726376
 30
0.0
 10
85.50609526927697
 20
80.66070181912937
 30
0.0
 10
86.09529565271411
 20
80.53667638618006
 30
0.0
 10
86.48401516800239
 20
80.45175554573531
 30
0.0
 10
86.530800880833
 20
80.44102882793091
 30
0.0
 10
86.55399587446087
 20
80.43571083369575
 30
0.0
  0
SPLINE
  5
97
330
1F
100
AcDbEntity
  8
0
  6
Continuous
 62
     7
370
    15
100
AcDbSpline
210
0.0
220
0.0
230
1.0
 70
     8
 71
     3
 72
    41
 73
    37
 74
     0
 42
0.00000001
 43
0.00000001
 40
0.0
 40
0.0
 40
0.0
 40
0.0
 40
0.0619930061484043
 40
0.1254347783466126
 40
0.1886508898233938
 40
0.2510246408607225
 40
0.3131658188974908
 40
0.3756581641417423
 40
0.4382227146725542
 40
0.4998044922940728
 40
0.5615164197180704
 40
0.6240683094122258
 40
0.6867257232413351
 40
0.7488365305144735
 40
0.8110685944257924
 40
0.8741742884451709
 40
0.9373212787642344
 40
0.9685511709615329
 40
0.9842086872485987
 40
0.9920641182531135
 40
0.9960004861255006
 40
0.9979710794119978
 40
0.9989570090489496
 40
0.9994501359395015
 40
0.9996967403802126
 40
0.9998200529090723
 40
0.9998817117580799
 40
0.9999125418296606
 40
0.9999279570273344
 40
0.9999356646666585
 40
0.9999395184964449
 40
0.9999414454138679
 40
0.9999424088732134
 40
0.9999433723329789
 40
0.999950169700263
 40
1.0
 40
1.0
 40
1.0
 40
1.0
 10
86.55387454398287
 20
155.5919475785277
 30
0.0
 10
86.53030289863882
 20
155.5866380988778
 30
0.0
 10
86.48260874259292
 20
155.5758950579382
 30
0.0
 10
86.09056675316876
 20
155.4906659214828
 30
0.0
 10
85.50005270389843
 20
155.3660971428422
 30
0.0
 10
84.69601525785463
 20
155.2131501966904
 30
0.0
 10
83.71993985767263
 20
155.0513936427368
 30
0.0
 10
82.59813112239388
 20
154.8991608748047
 30
0.0
 10
81.38460020260561
 20
154.7713809336032
 30
0.0
 10
80.11976949620527
 20
154.6835323819206
 30
0.0
 10
78.85172645876034
 20
154.6411468980493
 30
0.0
 10
77.6282191010576
 20
154.6448827060216
 30
0.0
 10
76.49472056064573
 20
154.68347817647
 30
0.0
 10
75.50861474966926
 20
154.747917547761
 30
0.0
 10
74.69998694088322
 20
154.8214273550419
 30
0.0
 10
74.10336824577578
 20
154.8887410398536
 30
0.0
 10
73.7879769563234
 20
154.9267055911217
 30
0.0
 10
73.67791038752458
 20
154.9405046504537
 30
0.0
 10
73.6504909997087
 20
154.9439907243742
 30
0.0
 10
73.64356894887804
 20
154.9448699500676
 30
0.0
 10
73.64180070869399
 20
154.9450907246739
 30
0.0
 10
73.6413403295203
 20
154.9451459273846
 30
0.0
 10
73.64121617083529
 20
154.9451596671717
 30
0.0
 10
73.64118061634206
 20
154.9451630630027
 30
0.0
 10
73.64116947227191
 20
154.9451638913229
 30
0.0
 10
73.64116555907579
 20
154.9451640879117
 30
0.0
 10
73.64116401687093
 20
154.9451641318418
 30
0.0
 10
73.64116334986944
 20
154.9451641401485
 30
0.0
 10
73.64116304169168
 20
154.9451641409788
 30
0.0
 10
73.64116289492561
 20
154.9451641404336
 30
0.0
 10
73.64116282197318
 20
154.9451641401037
 30
0.0
 10
73.64116278758078
 20
154.9451641396665
 30
0.0
 10
73.64116276533564
 20
154.945164139755
 30
0.0
 10
73.6411627382262
 20
154.94516413692
 30
0.0
 10
73.6411602186651
 20
154.9451644237751
 30
0.0
 10
73.6411963085833
 20
154.9451598036745
 30
0.0
 10
73.64122806640657
 20
154.9451557381529
 30
0.0
  0
SPLINE
  5
98
330
1F
100
AcDbEntity
  8
0
  6
Continuous
 62
     7
370
    15
100
AcDbSpline
210
0.0
220
0.0
230
1.0
 70
     8
 71
     3
 72
    20
 73
    16
 74
     0
 42
0.00000001
 43
0.00000001
 40
0.0
 40
0.0
 40
0.0
 40
0.0
 40
0.2500000000000023
 40
0.2500000000000023
 40
0.3750000000000036
 40
0.3750000000000036
 40
0.4375000000000042
 40
0.4375000000000042
 40
0.5000000000000048
 40
0.5000000000000048
 40
0.6250000000000022
 40
0.6250000000000022
 40
0.7499999999999997
 40
0.7499999999999997
 40
1.0
 40
1.0
 40
1.0
 40
1.0
 10
45.51272063247431
 20
87.33536856238678
 30
0.0
 10
45.53899284968772
 20
87.35468650346922
 30
0.0
 10
45.56967299194253
 20
87.36907521457098
 30
0.0
 10
45.64114386232448
 20
87.36217085273499
 30
0.0
 10
45.66917089936879
 20
87.35500484938657
 30
0.0
 10
45.7242544888663
 20
87.32530582268296
 30
0.0
 10
45.74514581741872
 20
87.31183218012167
 30
0.0
 10
45.79035446486415
 20
87.27663391460568
 30
0.0
 10
45.81475867725973
 20
87.25472568587841
 30
0.0
 10
45.88609099531117
 20
87.18260082588291
 30
0.0
 10
45.92798778013145
 20
87.13026028493285
 30
0.0
 10
45.99956373898731
 20
87.03277689303209
 30
0.0
 10
46.03039172880463
 20
86.98602312315367
 30
0.0
 10
46.11349166164022
 20
86.85272990731457
 30
0.0
 10
46.15834656701048
 20
86.77009250939936
 30
0.0
 10
46.19845864246308
 20
86.69098561460859
 30
0.0
  0
SPLINE
  5
99
330
1F
100
AcDbEntity
  8
0
  6
Continuous
 62
     7
370
    15
100
AcDbSpline
210
0.0
220
0.0
230
1.0
 70
     8
 71
     3
 72
     8
 73
     4
 74
     0
 42
0.00000001
 43
0.00000001
 40
0.0
 40
0.0
 40
0.0
 40
0.0
 40
1.0
 40
1.0
 40
1.0
 40
1.0
 10
45.22190640075832
 20
87.51118197251954
 30
0.0
 10
45.22190640075832
 20
87.48590191529217
 30
0.0
 10
45.22509320519255
 20
87.46230234605413
 30
0.0
 10
45.23119620213997
 20
87.44072490436211
 30
0.0
  0
SPLINE
  5
9A
330
1F
100
AcDbEntity
  8
0
  6
Continuous
 62
     7
370
    15
100
AcDbSpline
210
0.0
220
0.0
230
1.0
 70
     8
 71
     3
 72
     9
 73
     5
 74
     0
 42
0.00000001
 43
0.00000001
 40
0.0
 40
0.0
 40
0.0
 40
0.0
 40
0.7766521846938882
 40
1.0
 40
1.0
 40
1.0
 40
1.0
 10
45.30723702725204
 20
87.39613983949707
 30
0.0
 10
45.35042415354561
 20
87.34394171811135
 30
0.0
 10
45.4060309324161
 20
87.27673258329607
 30
0.0
 10
45.49324218887807
 20
87.32466333393937
 30
0.0
 10
45.51272063247897
 20
87.33536856238156
 30
0.0
  0
LINE
  5
9B
330
1F
100
AcDbEntity
  8
0
  6
Continuous
 62
     7
370
    15
100
AcDbLine
 10
45.2219064008
 20
87.5111819725
 30
0.0
 11
45.2219064008
 21
148.5165214577
 31
0.0
  0
SPLINE
  5
9C
330
1F
100
AcDbEntity
  8
0
  6
Continuous
 62
     7
370
    15
100
AcDbSpline
210
0.0
220
0.0
230
1.0
 70
     8
 71
     3
 72
     9
 73
     5
 74
     0
 42
0.00000001
 43
0.00000001
 40
0.0
 40
0.0
 40
0.0
 40
0.0
 40
0.0592950272321202
 40
1.0
 40
1.0
 40
1.0
 40
1.0
 10
45.51272063247895
 20
148.6923348677933
 30
0.0
 10
45.50783779101676
 20
148.6956277131868
 30
0.0
 10
45.42548954547042
 20
148.7511609601925
 30
0.0
 10
45.35935749498887
 20
148.69387155768
 30
0.0
 10
45.29714674624158
 20
148.6399791318495
 30
0.0
  0
SPLINE
  5
9D
330
1F
100
AcDbEntity
  8
0
  6
Continuous
 62
     7
370
    15
100
AcDbSpline
210
0.0
220
0.0
230
1.0
 70
     8
 71
     3
 72
     8
 73
     4
 74
     0
 42
0.00000001
 43
0.00000001
 40
0.0
 40
0.0
 40
0.0
 40
0.0
 40
1.0
 40
1.0
 40
1.0
 40
1.0
 10
45.24554006969451
 20
148.6241009587251
 30
0.0
 10
45.23019103105848
 20
148.5935909037291
 30
0.0
 10
45.22190640075832
 20
148.5572793482168
 30
0.0
 10
45.22190640075832
 20
148.5165214576554
 30
0.0
  0
SPLINE
  5
9E
330
1F
100
AcDbEntity
  8
0
  6
Continuous
 62
     7
370
    15
100
AcDbSpline
210
0.0
220
0.0
230
1.0
 70
     8
 71
     3
 72
    20
 73
    16
 74
     0
 42
0.00000001
 43
0.00000001
 40
0.0
 40
0.0
 40
0.0
 40
0.0
 40
0.2500000000000047
 40
0.2500000000000047
 40
0.3750000000000051
 40
0.3750000000000051
 40
0.5000000000000054
 40
0.5000000000000054
 40
0.562500000000006
 40
0.562500000000006
 40
0.6250000000000064
 40
0.6250000000000064
 40
0.7500000000000042
 40
0.7500000000000042
 40
1.0
 40
1.0
 40
1.0
 40
1.0
 10
46.19845864246072
 20
149.3367178155656
 30
0.0
 10
46.15846242463688
 20
149.2578394090082
 30
0.0
 10
46.11334879679924
 20
149.1747097623167
 30
0.0
 10
46.03009458243271
 20
149.0412210979657
 30
0.0
 10
45.99987525381219
 20
148.9953560420837
 30
0.0
 10
45.92778701867074
 20
148.8971644896788
 30
0.0
 10
45.88586970125969
 20
148.8448546701553
 30
0.0
 10
45.81461909670823
 20
148.7728487674208
 30
0.0
 10
45.79038328432891
 20
148.7510785551192
 30
0.0
 10
45.74478509414426
 20
148.7156038967902
 30
0.0
 10
45.72398260454455
 20
148.7022337126126
 30
0.0
 10
45.66904160612548
 20
148.6726638004774
 30
0.0
 10
45.64097261803865
 20
148.6655372781754
 30
0.0
 10
45.57046978797578
 20
148.6586629066928
 30
0.0
 10
45.53904570018494
 20
148.6729780657799
 30
0.0
 10
45.51272063247633
 20
148.6923348677905
 30
0.0
  0
SPLINE
  5
9F
330
1F
100
AcDbEntity
  8
0
  6
Continuous
 62
     7
370
    15
100
AcDbSpline
210
0.0
220
0.0
230
1.0
 70
     8
 71
     3
 72
    10
 73
     6
 74
     0
 42
0.00000001
 43
0.00000001
 40
0.0
 40
0.0
 40
0.0
 40
0.0
 40
0.5
 40
0.5
 40
1.0
 40
1.0
 40
1.0
 40
1.0
 10
46.87190640075831
 20
150.2621369169075
 30
0.0
 10
46.74701813000813
 20
150.131140638836
 30
0.0
 10
46.62556801194767
 20
149.987427802171
 30
0.0
 10
46.39598403699024
 20
149.6768575094818
 30
0.0
 10
46.28570906159423
 20
149.5087884364187
 30
0.0
 10
46.19845864246072
 20
149.3367178155657
 30
0.0
  0
SPLINE
  5
A0
330
1F
100
AcDbEntity
  8
0
  6
Continuous
 62
     7
370
    15
100
AcDbSpline
210
0.0
220
0.0
230
1.0
 70
     8
 71
     3
 72
     8
 73
     4
 74
     0
 42
0.00000001
 43
0.00000001
 40
0.0
 40
0.0
 40
0.0
 40
0.0
 40
1.0
 40
1.0
 40
1.0
 40
1.0
 10
47.12183151672409
 20
150.2596838836521
 30
0.0
 10
47.03481348687571
 20
150.2601504484392
 30
0.0
 10
46.95185946049577
 20
150.2611904680153
 30
0.0
 10
46.871906400756
 20
150.2621369169075
 30
0.0
  0
SPLINE
  5
A1
330
1F
100
AcDbEntity
  8
0
  6
Continuous
 62
     7
370
    15
100
AcDbSpline
210
0.0
220
0.0
230
1.0
 70
     8
 71
     3
 72
     8
 73
     4
 74
     0
 42
0.00000001
 43
0.00000001
 40
0.0
 40
0.0
 40
0.0
 40
0.0
 40
1.0
 40
1.0
 40
1.0
 40
1.0
 10
46.871906400756
 20
85.76556651326739
 30
0.0
 10
46.95185946049577
 20
85.76651296215965
 30
0.0
 10
47.03481348687571
 20
85.76755298173578
 30
0.0
 10
47.1218315167241
 20
85.76801954652285
 30
0.0
  0
SPLINE
  5
A2
330
1F
100
AcDbEntity
  8
0
  6
Continuous
 62
     7
370
    15
100
AcDbSpline
210
0.0
220
0.0
230
1.0
 70
     8
 71
     3
 72
    10
 73
     6
 74
     0
 42
0.00000001
 43
0.00000001
 40
0.0
 40
0.0
 40
0.0
 40
0.0
 40
0.4999999999999989
 40
0.4999999999999989
 40
1.0
 40
1.0
 40
1.0
 40
1.0
 10
46.19845864245975
 20
86.6909856146112
 30
0.0
 10
46.28570906159321
 20
86.51891499375779
 30
0.0
 10
46.39598403698941
 20
86.35084592069434
 30
0.0
 10
46.62556801194725
 20
86.04027562800448
 30
0.0
 10
46.74701813000789
 20
85.89656279133918
 30
0.0
 10
46.87190640075831
 20
85.76556651326747
 30
0.0
  0
LINE
  5
A3
330
1F
100
AcDbEntity
  8
0
  6
Continuous
 62
     7
370
    15
100
AcDbLine
 10
123.0719064008
 20
167.0036465708
 30
0.0
 11
118.3839354217
 21
167.0036465708
 31
0.0
  0
LINE
  5
A4
330
1F
100
AcDbEntity
  8
0
  6
Continuous
 62
     7
370
    15
100
AcDbLine
 10
118.3839354217
 20
156.964814476
 30
0.0
 11
123.0719064008
 21
156.964814476
 31
0.0
  0
LINE
  5
A5
330
1F
100
AcDbEntity
  8
0
  6
Continuous
 62
     7
370
    15
100
AcDbLine
 10
118.3839354217
 20
156.964814476
 30
0.0
 11
118.3839354217
 21
167.0036465708
 31
0.0
  0
SPLINE
  5
A6
330
1F
100
AcDbEntity
  8
0
  6
Continuous
 62
     7
370
    15
100
AcDbSpline
210
0.0
220
0.0
230
1.0
 70
     8
 71
     3
 72
     8
 73
     4
 74
     0
 42
0.00000001
 43
0.00000001
 40
0.0
 40
0.0
 40
0.0
 40
0.0
 40
1.0
 40
1.0
 40
1.0
 40
1.0
 10
118.3839354216797
 20
167.003646570751
 30
0.0
 10
117.9329084529664
 20
166.2063360005632
 30
0.0
 10
117.4822146364429
 20
165.408837700906
 30
0.0
 10
117.0319064007583
 20
164.6111225757924
 30
0.0
  0
SPLINE
  5
A7
330
1F
100
AcDbEntity
  8
0
  6
Continuous
 62
     7
370
    15
100
AcDbSpline
210
0.0
220
0.0
230
1.0
 70
     8
 71
     3
 72
     8
 73
     4
 74
     0
 42
0.00000001
 43
0.00000001
 40
0.0
 40
0.0
 40
0.0
 40
0.0
 40
1.0
 40
1.0
 40
1.0
 40
1.0
 10
117.0319064007583
 20
153.9092992212253
 30
0.0
 10
117.4760564117838
 20
154.9306824521769
 30
0.0
 10
117.9271307220417
 20
155.9491669889453
 30
0.0
 10
118.3839354216797
 20
156.9648144759744
 30
0.0
  0
LINE
  5
A8
330
1F
100
AcDbEntity
  8
0
  6
Continuous
 62
     7
370
    15
100
AcDbLine
 10
117.0319064008
 20
153.9092992212
 30
0.0
 11
117.0319064008
 21
164.6111225758
 31
0.0
  0
SPLINE
  5
A9
330
1F
100
AcDbEntity
  8
0
  6
Continuous
 62
     7
370
    15
100
AcDbSpline
210
0.0
220
0.0
230
1.0
 70
     8
 71
     3
 72
     8
 73
     4
 74
     0
 42
0.00000001
 43
0.00000001
 40
0.0
 40
0.0
 40
0.0
 40
0.0
 40
1.0
 40
1.0
 40
1.0
 40
1.0
 10
111.8598773798369
 20
156.9648144759744
 30
0.0
 10
112.3168037336365
 20
155.9488965063001
 30
0.0
 10
112.7680093754395
 20
154.9301006772089
 30
0.0
 10
113.2119064007583
 20
153.9092992212253
 30
0.0
  0
LINE
  5
AA
330
1F
100
AcDbEntity
  8
0
  6
Continuous
 62
     7
370
    15
100
AcDbLine
 10
113.2119064008
 20
153.9092992212
 30
0.0
 11
113.2119064008
 21
152.7280869076
 31
0.0
  0
SPLINE
  5
AB
330
1F
100
AcDbEntity
  8
0
  6
Continuous
 62
     7
370
    15
100
AcDbSpline
210
0.0
220
0.0
230
1.0
 70
     8
 71
     3
 72
    14
 73
    10
 74
     0
 42
0.00000001
 43
0.00000001
 40
0.0
 40
0.0
 40
0.0
 40
0.0
 40
0.25
 40
0.25
 40
0.5
 40
0.5
 40
0.75
 40
0.75
 40
1.0
 40
1.0
 40
1.0
 40
1.0
 10
113.2119064007583
 20
152.7280869075845
 30
0.0
 10
113.2119064007583
 20
152.6042200307953
 30
0.0
 10
113.2277655283859
 20
152.4799603539578
 30
0.0
 10
113.2911271739058
 20
152.2423519915519
 30
0.0
 10
113.3397168819551
 20
152.1255716067995
 30
0.0
 10
113.47200248673
 20
151.9167690781905
 30
0.0
 10
113.5573272779906
 20
151.8222583745979
 30
0.0
 10
113.7642185262968
 20
151.6843015737956
 30
0.0
 10
113.8881864721868
 20
151.6423831281599
 30
0.0
 10
114.0119064007583
 20
151.6423831281599
 30
0.0
  0
LINE
  5
AC
330
1F
100
AcDbEntity
  8
0
  6
Continuous
 62
     7
370
    15
100
AcDbLine
 10
114.0119064008
 20
151.6423831282
 30
0.0
 11
116.2319064008
 21
151.6423831281
 31
0.0
  0
SPLINE
  5
AD
330
1F
100
AcDbEntity
  8
0
  6
Continuous
 62
     7
370
    15
100
AcDbSpline
210
0.0
220
0.0
230
1.0
 70
     8
 71
     3
 72
    12
 73
     8
 74
     0
 42
0.00000001
 43
0.00000001
 40
0.0
 40
0.0
 40
0.0
 40
0.0
 40
0.2499999999999991
 40
0.2499999999999991
 40
0.4999999999999982
 40
0.4999999999999982
 40
1.0
 40
1.0
 40
1.0
 40
1.0
 10
116.2319064007604
 20
151.64238312816
 30
0.0
 10
116.3556073507402
 20
151.6423831281604
 30
0.0
 10
116.4797039630101
 20
151.6843767398932
 30
0.0
 10
116.6863591260965
 20
151.8221720665379
 30
0.0
 10
116.7713998928231
 20
151.9161456650027
 30
0.0
 10
116.9708784612961
 20
152.2309338712234
 30
0.0
 10
117.0319064007583
 20
152.4811728634506
 30
0.0
 10
117.0319064007583
 20
152.7280869075845
 30
0.0
  0
LINE
  5
AE
330
1F
100
AcDbEntity
  8
0
  6
Continuous
 62
     7
370
    15
100
AcDbLine
 10
117.0319064008
 20
152.7280869076
 30
0.0
 11
117.0319064008
 21
153.9092992212
 31
0.0
  0
SPLINE
  5
AF
330
1F
100
AcDbEntity
  8
0
  6
Continuous
 62
     7
370
    15
100
AcDbSpline
210
0.0
220
0.0
230
1.0
 70
     8
 71
     3
 72
    16
 73
    12
 74
     0
 42
0.00000001
 43
0.00000001
 40
0.0
 40
0.0
 40
0.0
 40
0.0
 40
0.125
 40
0.125
 40
0.25
 40
0.25
 40
0.5
 40
0.5
 40
0.75
 40
0.75
 40
1.0
 40
1.0
 40
1.0
 40
1.0
 10
123.0719064007573
 20
156.9648144759744
 30
0.0
 10
123.1475441071686
 20
156.9648144759745
 30
0.0
 10
123.2238597715868
 20
156.9534694758396
 30
0.0
 10
123.3682705094789
 20
156.9108169252013
 30
0.0
 10
123.4367169585874
 20
156.8798826005185
 30
0.0
 10
123.6316482112008
 20
156.7606262287509
 30
0.0
 10
123.7394893849818
 20
156.6504742151304
 30
0.0
 10
123.908202133194
 20
156.4023381294722
 30
0.0
 10
123.9705665459176
 20
156.2619958054685
 30
0.0
 10
124.0518704704261
 20
155.9737241139797
 30
0.0
 10
124.0719064007583
 20
155.8229191409998
 30
0.0
 10
124.0719064007583
 20
155.6725492496544
 30
0.0
  0
LINE
  5
B0
330
1F
100
AcDbEntity
  8
0
  6
Continuous
 62
     7
370
    15
100
AcDbLine
 10
124.0719064008
 20
155.6725492497
 30
0.0
 11
124.0719064008
 21
149.3638517151
 31
0.0
  0
SPLINE
  5
B1
330
1F
100
AcDbEntity
  8
0
  6
Continuous
 62
     7
370
    15
100
AcDbSpline
210
0.0
220
0.0
230
1.0
 70
     8
 71
     3
 72
    14
 73
    10
 74
     0
 42
0.00000001
 43
0.00000001
 40
0.0
 40
0.0
 40
0.0
 40
0.0
 40
0.25
 40
0.25
 40
0.5
 40
0.5
 40
0.75
 40
0.75
 40
1.0
 40
1.0
 40
1.0
 40
1.0
 10
117.0319064007583
 20
163.7074029559354
 30
0.0
 10
117.0319064007583
 20
163.6010462621831
 30
0.0
 10
117.0115188446171
 20
163.4952057744229
 30
0.0
 10
116.9328844991555
 20
163.2986408608865
 30
0.0
 10
116.8741531395168
 20
163.2074701185993
 30
0.0
 10
116.7275442339142
 20
163.0555590295677
 30
0.0
 10
116.6381389138876
 20
162.9934901927481
 30
0.0
 10
116.4442481812873
 20
162.9102221449895
 30
0.0
 10
116.3377431913974
 20
162.8881274752598
 30
0.0
 10
116.231906400758
 20
162.8881274752599
 30
0.0
  0
SPLINE
  5
B2
330
1F
100
AcDbEntity
  8
0
  6
Continuous
 62
     7
370
    15
100
AcDbSpline
210
0.0
220
0.0
230
1.0
 70
     8
 71
     3
 72
    10
 73
     6
 74
     0
 42
0.00000001
 43
0.00000001
 40
0.0
 40
0.0
 40
0.0
 40
0.0
 40
0.5
 40
0.5
 40
1.0
 40
1.0
 40
1.0
 40
1.0
 10
114.0119064007583
 20
162.8881274752599
 30
0.0
 10
113.799370086902
 20
162.8881274752599
 30
0.0
 10
113.589433915248
 20
162.9795400618901
 30
0.0
 10
113.2957267742367
 20
163.2842849277943
 30
0.0
 10
113.2119064007583
 20
163.4964398977029
 30
0.0
 10
113.2119064007583
 20
163.7074029559354
 30
0.0
  0
SPLINE
  5
B3
330
1F
100
AcDbEntity
  8
0
  6
Continuous
 62
     7
370
    15
100
AcDbSpline
210
0.0
220
0.0
230
1.0
 70
     8
 71
     3
 72
     8
 73
     4
 74
     0
 42
0.00000001
 43
0.00000001
 40
0.0
 40
0.0
 40
0.0
 40
0.0
 40
1.0
 40
1.0
 40
1.0
 40
1.0
 10
113.2119064007583
 20
164.6111225757924
 30
0.0
 10
112.7615981650738
 20
165.408837700906
 30
0.0
 10
112.3109043485502
 20
166.2063360005632
 30
0.0
 10
111.8598773798369
 20
167.003646570751
 30
0.0
  0
LINE
  5
B4
330
1F
100
AcDbEntity
  8
0
  6
Continuous
 62
     7
370
    15
100
AcDbLine
 10
113.2119064008
 20
153.9092992212
 30
0.0
 11
113.2119064008
 21
164.6111225758
 31
0.0
  0
SPLINE
  5
B5
330
1F
100
AcDbEntity
  8
0
  6
Continuous
 62
     7
370
    15
100
AcDbSpline
210
0.0
220
0.0
230
1.0
 70
     8
 71
     3
 72
    12
 73
     8
 74
     0
 42
0.00000001
 43
0.00000001
 40
0.0
 40
0.0
 40
0.0
 40
0.0
 40
0.5
 40
0.5
 40
0.75
 40
0.75
 40
1.0
 40
1.0
 40
1.0
 40
1.0
 10
124.0719064007583
 20
165.9825915359333
 30
0.0
 10
124.0719064007583
 20
166.2478609686997
 30
0.0
 10
123.9672996572718
 20
166.5103760743521
 30
0.0
 10
123.6906313055265
 20
166.7959136803894
 30
0.0
 10
123.5802660461745
 20
166.8722352972508
 30
0.0
 10
123.3361939975588
 20
166.9765774620909
 30
0.0
 10
123.2044415362271
 20
167.003646570751
 30
0.0
 10
123.0719064007583
 20
167.003646570751
 30
0.0
  0
LINE
  5
B6
330
1F
100
AcDbEntity
  8
0
  6
Continuous
 62
     7
370
    15
100
AcDbLine
 10
124.0719064008
 20
155.6725492497
 30
0.0
 11
124.0719064008
 21
165.9825915359
 31
0.0
  0
LINE
  5
B7
330
1F
100
AcDbEntity
  8
0
  6
Continuous
 62
     7
370
    15
100
AcDbLine
 10
116.2319064008
 20
162.8881274753
 30
0.0
 11
114.0119064008
 21
162.8881274753
 31
0.0
  0
SPLINE
  5
B8
330
1F
100
AcDbEntity
  8
0
  6
Continuous
 62
     7
370
    15
100
AcDbSpline
210
0.0
220
0.0
230
1.0
 70
     8
 71
     3
 72
    20
 73
    16
 74
     0
 42
0.00000001
 43
0.00000001
 40
0.0
 40
0.0
 40
0.0
 40
0.0
 40
0.0571364893909846
 40
0.1475305663985205
 40
0.2419518511325299
 40
0.3452043633891019
 40
0.458390112973791
 40
0.5790120960074145
 40
0.6401363510929039
 40
0.7031157347293618
 40
0.7626164824486877
 40
0.8241850683845838
 40
0.8782339564278929
 40
0.9343146527526026
 40
1.0
 40
1.0
 40
1.0
 40
1.0
 10
167.4785849543877
 20
93.48482014562761
 30
0.0
 10
167.4823315616519
 20
93.48447606174335
 30
0.0
 10
167.4920055737877
 20
93.48358761215759
 30
0.0
 10
167.1325112937624
 20
93.51775957579669
 30
0.0
 10
166.4821323597457
 20
93.56838168969963
 30
0.0
 10
165.538162597457
 20
93.61733365935575
 30
0.0
 10
164.368439798147
 20
93.63539959753882
 30
0.0
 10
163.3055006803342
 20
93.60574729563716
 30
0.0
 10
162.4764538094066
 20
93.55629254798608
 30
0.0
 10
161.8960365488581
 20
93.51002953295584
 30
0.0
 10
161.3771414957878
 20
93.4594303454879
 30
0.0
 10
160.9590495271742
 20
93.41228309618873
 30
0.0
 10
160.6487508555378
 20
93.3738907851075
 30
0.0
 10
160.4148233087935
 20
93.34296806447931
 30
0.0
 10
160.4152844446777
 20
93.34295795679772
 30
0.0
 10
160.415533199337
 20
93.34295250432051
 30
0.0
  0
SPLINE
  5
B9
330
1F
100
AcDbEntity
  8
0
  6
Continuous
 62
     7
370
    15
100
AcDbSpline
210
0.0
220
0.0
230
1.0
 70
     8
 71
     3
 72
    20
 73
    16
 74
     0
 42
0.00000001
 43
0.00000001
 40
0.0
 40
0.0
 40
0.0
 40
0.0
 40
0.0085315796011069
 40
0.0983723051078986
 40
0.1885542871173402
 40
0.2864335467423004
 40
0.3955821886820876
 40
0.5146588758148474
 40
0.6382079798620145
 40
0.6983961330081606
 40
0.760554138482783
 40
0.8169610402264686
 40
0.8753871301505852
 40
0.9779237051964145
 40
1.0
 40
1.0
 40
1.0
 40
1.0
 10
160.390688140847
 20
142.6881181186138
 30
0.0
 10
160.3857421652775
 20
142.6887787777407
 30
0.0
 10
160.3287132162982
 20
142.6963964246768
 30
0.0
 10
160.5412982799812
 20
142.6674405461211
 30
0.0
 10
161.0141775424246
 20
142.6077045054282
 30
0.0
 10
161.8107883023146
 20
142.5223339593908
 30
0.0
 10
162.868770940569
 20
142.4410377387204
 30
0.0
 10
164.1251976580318
 20
142.3940161275632
 30
0.0
 10
165.1966728212291
 20
142.4026660375978
 30
0.0
 10
165.9783236461643
 20
142.4327873173593
 30
0.0
 10
166.4868124312324
 20
142.4617548440936
 30
0.0
 10
166.9157805760036
 20
142.4929036501163
 30
0.0
 10
167.311226713047
 20
142.5262941209314
 30
0.0
 10
167.5512467102689
 20
142.5499207918672
 30
0.0
 10
167.4986324143472
 20
142.5448385762799
 30
0.0
 10
167.489311316863
 20
142.5439382159103
 30
0.0
  0
LINE
  5
BA
330
1F
100
AcDbEntity
  8
0
  6
Continuous
 62
     7
370
    15
100
AcDbLine
 10
207.7703447313
 20
100.0118083215
 30
0.0
 11
208.7270832745
 21
100.0723973142
 31
0.0
  0
LINE
  5
BB
330
1F
100
AcDbEntity
  8
0
  6
Continuous
 62
     7
370
    15
100
AcDbLine
 10
208.7270832745
 20
102.014180619
 30
0.0
 11
207.7703447313
 21
102.0747696117
 31
0.0
  0
SPLINE
  5
BC
330
1F
100
AcDbEntity
  8
0
  6
Continuous
 62
     7
370
    15
100
AcDbSpline
210
0.0
220
0.0
230
1.0
 70
     8
 71
     3
 72
    10
 73
     6
 74
     0
 42
0.00000001
 43
0.00000001
 40
0.0
 40
0.0
 40
0.0
 40
0.0
 40
0.5
 40
0.5
 40
1.0
 40
1.0
 40
1.0
 40
1.0
 10
208.7270832745338
 20
102.0141806190221
 30
0.0
 10
208.5785737097333
 20
102.0625751009835
 30
0.0
 10
208.4177454275912
 20
102.0931614030659
 30
0.0
 10
208.0941767184539
 20
102.1137539100744
 30
0.0
 10
207.9292866469876
 20
102.1041140206594
 30
0.0
 10
207.7703447313072
 20
102.0747696117442
 30
0.0
  0
SPLINE
  5
BD
330
1F
100
AcDbEntity
  8
0
  6
Continuous
 62
     7
370
    15
100
AcDbSpline
210
0.0
220
0.0
230
1.0
 70
     8
 71
     3
 72
    68
 73
    64
 74
     0
 42
0.00000001
 43
0.00000001
 40
-0.0312500000000004
 40
-0.0312500000000004
 40
0.0
 40
0.0
 40
0.0312499999999998
 40
0.0312499999999998
 40
0.0624999999999996
 40
0.0624999999999996
 40
0.0937499999999994
 40
0.0937499999999994
 40
0.1249999999999992
 40
0.1249999999999992
 40
0.1562499999999989
 40
0.1562499999999989
 40
0.1874999999999988
 40
0.1874999999999988
 40
0.2187499999999986
 40
0.2187499999999986
 40
0.2499999999999983
 40
0.2499999999999983
 40
0.2812499999999981
 40
0.2812499999999981
 40
0.3124999999999979
 40
0.3124999999999979
 40
0.3437499999999977
 40
0.3437499999999977
 40
0.3749999999999975
 40
0.3749999999999975
 40
0.4062499999999973
 40
0.4062499999999973
 40
0.4374999999999971
 40
0.4374999999999971
 40
0.4687499999999969
 40
0.4687499999999969
 40
0.4999999999999967
 40
0.4999999999999967
 40
0.5312499999999964
 40
0.5312499999999964
 40
0.5624999999999962
 40
0.5624999999999962
 40
0.593749999999996
 40
0.593749999999996
 40
0.6249999999999958
 40
0.6249999999999958
 40
0.6562499999999957
 40
0.6562499999999957
 40
0.6874999999999954
 40
0.6874999999999954
 40
0.7499999999999963
 40
0.7499999999999963
 40
0.7812499999999968
 40
0.7812499999999968
 40
0.8124999999999972
 40
0.8124999999999972
 40
0.8437499999999977
 40
0.8437499999999977
 40
0.8749999999999981
 40
0.8749999999999981
 40
0.9062499999999987
 40
0.9062499999999987
 40
0.9374999999999991
 40
0.9374999999999991
 40
0.9687499999999996
 40
0.9687499999999996
 40
1.0
 40
1.0
 40
1.03125
 40
1.03125
 10
161.1214592524541
 20
119.9735893924304
 30
0.0
 10
160.8523720550619
 20
119.6167320516027
 30
0.0
 10
160.7382462346322
 20
119.4272816730016
 30
0.0
 10
160.5524658679993
 20
119.0253611780635
 30
0.0
 10
160.4809352710724
 20
118.8108880201945
 30
0.0
 10
160.3906640317355
 20
118.3786414233626
 30
0.0
 10
160.3704586376465
 20
118.1586717502204
 30
0.0
 10
160.3830233377379
 20
117.7105532770186
 30
0.0
 10
160.4156237697342
 20
117.4912304443781
 30
0.0
 10
160.5300477184131
 20
117.0634296116284
 30
0.0
 10
160.6131628060958
 20
116.8533427241621
 30
0.0
 10
160.8196962147008
 20
116.4620867183108
 30
0.0
 10
160.9442519103679
 20
116.277474620295
 30
0.0
 10
161.2297219339227
 20
115.9354312506273
 30
0.0
 10
161.3876921360201
 20
115.7810972795887
 30
0.0
 10
161.7315808321133
 20
115.502874764175
 30
0.0
 10
161.9188379041723
 20
115.378665975697
 30
0.0
 10
162.3074158946266
 20
115.1682490599834
 30
0.0
 10
162.510065352959
 20
115.0807116161451
 30
0.0
 10
162.9318347640204
 20
114.9402732115243
 30
0.0
 10
163.1493370295495
 20
114.8882742801351
 30
0.0
 10
163.5857075831372
 20
114.821989418155
 30
0.0
 10
163.8062457140364
 20
114.8071174301808
 30
0.0
 10
164.2521728057107
 20
114.8149799198387
 30
0.0
 10
164.473900749061
 20
114.8378711476703
 30
0.0
 10
164.9072302049656
 20
114.9200147842567
 30
0.0
 10
165.1200749764599
 20
114.9792650888628
 30
0.0
 10
165.5376357180625
 20
115.136474641174
 30
0.0
 10
165.7381548607461
 20
115.2330913215537
 30
0.0
 10
166.1159214396709
 20
115.4592156702426
 30
0.0
 10
166.2943110782484
 20
115.5891029630705
 30
0.0
 10
166.6279742139345
 20
115.8860595513577
 30
0.0
 10
166.7784203522574
 20
116.0490834947285
 30
0.0
 10
167.0424718928852
 20
116.4009426371035
 30
0.0
 10
167.1574510143794
 20
116.5918482597988
 30
0.0
 10
167.3439463245425
 20
116.9976033648192
 30
0.0
 10
167.4133835732869
 20
117.2071162170032
 30
0.0
 10
167.5040818100281
 20
117.6395922899376
 30
0.0
 10
167.5248533191271
 20
117.8654080435971
 30
0.0
 10
167.513536024228
 20
118.3085330907394
 30
0.0
 10
167.4824746409677
 20
118.5277679757902
 30
0.0
 10
167.3688507542028
 20
118.9615227371827
 30
0.0
 10
167.2881932206395
 20
119.1684932317755
 30
0.0
 10
167.0837720339197
 20
119.5620099451695
 30
0.0
 10
166.9584839808637
 20
119.7499659459581
 30
0.0
 10
166.5352614945001
 20
120.2625985626564
 30
0.0
 10
166.1814323908605
 20
120.5473783415974
 30
0.0
 10
165.5975455646447
 20
120.8639394569765
 30
0.0
 10
165.3908268987419
 20
120.9528624264406
 30
0.0
 10
164.9686491534799
 20
121.0920476129277
 30
0.0
 10
164.7533724627537
 20
121.14274596224
 30
0.0
 10
164.3147008667385
 20
121.2075398694381
 30
0.0
 10
164.0896723065708
 20
121.2213442960001
 30
0.0
 10
163.6466935470582
 20
121.2110685030938
 30
0.0
 10
163.4272067700477
 20
121.1874716589341
 30
0.0
 10
162.9922516324292
 20
121.1031330024212
 30
0.0
 10
162.7756326644995
 20
121.0416189776765
 30
0.0
 10
162.3627613266193
 20
120.884635396256
 30
0.0
 10
162.1645347419945
 20
120.7890180286007
 30
0.0
 10
161.7851695537785
 20
120.5619428236145
 30
0.0
 10
161.6032809996322
 20
120.429350340581
 30
0.0
 10
161.2724735025583
 20
120.1357040695423
 30
0.0
 10
161.1214592524541
 20
119.9735893924304
 30
0.0
 10
160.8523720550619
 20
119.6167320516027
 30
0.0
  0
CIRCLE
  5
BE
330
1F
100
AcDbEntity
  8
0
  6
Continuous
 62
     7
370
    15
100
AcDbCircle
 10
164.0719064008
 20
118.0138517151
 30
0.0
 40
2.5
  0
ARC
  5
BF
330
1F
100
AcDbEntity
  8
0
  6
Continuous
 62
     7
370
    15
100
AcDbCircle
 10
104.1219730469
 20
150.579422216
 30
0.0
 40
11.45027678818733
100
AcDbArc
 50
77.9103159805
 51
102.108234864
  0
SPLINE
  5
C0
330
1F
100
AcDbEntity
  8
0
  6
Continuous
 62
     7
370
    15
100
AcDbSpline
210
0.0
220
0.0
230
1.0
 70
     8
 71
     3
 72
    39
 73
    35
 74
     0
 42
0.00000001
 43
0.00000001
 40
-0.0929035514954804
 40
-0.0617844675330304
 40
-0.0305606518848954
 40
0.0
 40
0.0305833544996188
 40
0.061820763259242
 40
0.0929574073283553
 40
0.1240731578172224
 40
0.1552546267402978
 40
0.1868126884169505
 40
0.2185638838506352
 40
0.2499315075259874
 40
0.2813251124612477
 40
0.313146405567496
 40
0.3447816985835481
 40
0.3760142222481503
 40
0.4071224531638367
 40
0.4382110606588948
 40
0.469393131649247
 40
0.5000117158875056
 40
0.5306249294235126
 40
0.5618454474694601
 40
0.5929501996324353
 40
0.6240749381357346
 40
0.6552854313505165
 40
0.686896615274659
 40
0.7186677897632042
 40
0.7500607090513617
 40
0.7814251173808833
 40
0.8132188904408342
 40
0.8447997037945888
 40
0.8760022562479344
 40
0.9070964485045196
 40
0.9382155324669696
 40
0.9694393481151046
 40
1.0
 40
1.030583354499619
 40
1.061820763259242
 40
1.092957407328355
 10
232.9561455643351
 20
111.1609613230792
 30
0.0
 10
231.6215749905778
 20
111.0249369139102
 30
0.0
 10
230.2868285379627
 20
111.1611739127139
 30
0.0
 10
229.0061901783853
 20
111.569844932342
 30
0.0
 10
227.8232579680351
 20
112.211300333036
 30
0.0
 10
226.797641230614
 20
113.075463772967
 30
0.0
 10
225.9550209331708
 20
114.1267246852743
 30
0.0
 10
225.330656237488
 20
115.3352825126044
 30
0.0
 10
224.9339019680936
 20
116.6458193367707
 30
0.0
 10
224.8024845301169
 20
118.0111628859468
 30
0.0
 10
224.9347515756995
 20
119.3774238514004
 30
0.0
 10
225.3320944698936
 20
120.6903471198842
 30
0.0
 10
225.9568422687584
 20
121.9019114240535
 30
0.0
 10
226.8001382966477
 20
122.9548663268769
 30
0.0
 10
227.8254031866323
 20
123.8192834690384
 30
0.0
 10
229.0068713447398
 20
124.460195400059
 30
0.0
 10
230.287039155618
 20
124.8673946972483
 30
0.0
 10
231.6222943837953
 20
125.002547036263
 30
0.0
 10
232.9580697999031
 20
124.8669815140655
 30
0.0
 10
234.2387379504139
 20
124.4590531008601
 30
0.0
 10
235.4210207892183
 20
123.8175072476896
 30
0.0
 10
236.4460030478635
 20
122.9524681633636
 30
0.0
 10
237.2885188973211
 20
121.8994711012326
 30
0.0
 10
237.9124703377311
 20
120.6890321223843
 30
0.0
 10
238.3090073386924
 20
119.3770155136514
 30
0.0
 10
238.4413145715402
 20
118.0115753385532
 30
0.0
 10
238.3100258502734
 20
116.6456334117709
 30
0.0
 10
237.9126548088775
 20
115.334327908773
 30
0.0
 10
237.2876460631234
 20
114.1247158948109
 30
0.0
 10
236.4443295602688
 20
113.0735633185956
 30
0.0
 10
235.4184977464409
 20
112.2100762989373
 30
0.0
 10
234.2360694317193
 20
111.5693134297396
 30
0.0
 10
232.9561455643351
 20
111.1609613230792
 30
0.0
 10
231.6215749905778
 20
111.0249369139102
 30
0.0
 10
230.2868285379627
 20
111.1611739127139
 30
0.0
  0
LINE
  5
C1
330
1F
100
AcDbEntity
  8
0
  6
Continuous
 62
     7
370
    15
100
AcDbLine
 10
242.2548648777
 20
94.0138517151
 30
0.0
 11
242.2548648777
 21
142.0138517151
 31
0.0
  0
LINE
  5
C2
330
1F
100
AcDbEntity
  8
0
  6
Continuous
 62
     7
370
    15
100
AcDbLine
 10
255.1219064008
 20
101.2879922367
 30
0.0
 11
255.1219064008
 21
134.7397110768
 31
0.0
  0
ARC
  5
C3
330
1F
100
AcDbEntity
  8
0
  6
Continuous
 62
     7
370
    15
100
AcDbCircle
 10
208.1209691342
 20
100.0273027861
 30
0.0
 40
2.077271738128572
100
AcDbArc
 50
73.0352231687
 51
99.7175223038
  0
LINE
  5
C4
330
1F
100
AcDbEntity
  8
0
  6
Continuous
 62
     7
370
    15
100
AcDbLine
 10
46.8719064008
 20
85.7638517151
 30
0.0
 11
46.8719064008
 21
85.7655665133
 31
0.0
  0
LINE
  5
C5
330
1F
100
AcDbEntity
  8
0
  6
Continuous
 62
     7
370
    15
100
AcDbLine
 10
46.8719064008
 20
150.2638517151
 30
0.0
 11
46.8719064008
 21
150.2621369169
 31
0.0
  0
ARC
  5
C6
330
1F
100
AcDbEntity
  8
0
  6
Continuous
 62
     7
370
    15
100
AcDbCircle
 10
208.1209691342
 20
102.0592751468
 30
0.0
 40
2.077271737815838
100
AcDbArc
 50
260.2824776952
 51
286.9647768319
  0
CIRCLE
  5
C7
330
1F
100
AcDbEntity
  8
0
  6
Continuous
 62
     7
370
    15
100
AcDbCircle
 10
231.6219064008
 20
118.0138517151
 30
0.0
 40
6.000000000000004
  0
ARC
  5
C8
330
1F
100
AcDbEntity
  8
0
  6
Continuous
 62
     7
370
    15
100
AcDbCircle
 10
231.6219064008
 20
118.0138517151
 30
0.0
 40
6.999999999999999
100
AcDbArc
 50
245.8431816966
 51
281.6557228408
  0
ARC
  5
C9
330
1F
100
AcDbEntity
  8
0
  6
Continuous
 62
     7
370
    15
100
AcDbCircle
 10
231.6219064008
 20
118.0138517151
 30
0.0
 40
7.000000000000005
100
AcDbArc
 50
78.3442771592
 51
112.9785031875
  0
LINE
  5
CA
330
1F
100
AcDbEntity
  8
0
  6
Continuous
 62
     7
370
    15
100
AcDbLine
 10
232.0330055201
 20
114.5742300042
 30
0.0
 11
234.8062557415
 21
116.6500631404
 31
0.0
  0
LINE
  5
CB
330
1F
100
AcDbEntity
  8
0
  6
Continuous
 62
     7
370
    15
100
AcDbLine
 10
234.8062557415
 20
116.6500631404
 30
0.0
 11
234.3951566222
 21
120.0896848513
 31
0.0
  0
LINE
  5
CC
330
1F
100
AcDbEntity
  8
0
  6
Continuous
 62
     7
370
    15
100
AcDbLine
 10
228.4375570601
 20
119.3776402898
 30
0.0
 11
228.8486561794
 21
115.9380185788
 31
0.0
  0
LINE
  5
CD
330
1F
100
AcDbEntity
  8
0
  6
Continuous
 62
     7
370
    15
100
AcDbLine
 10
228.4375570601
 20
119.3776402898
 30
0.0
 11
231.2108072815
 21
121.453473426
 31
0.0
  0
LINE
  5
CE
330
1F
100
AcDbEntity
  8
0
  6
Continuous
 62
     7
370
    15
100
AcDbLine
 10
232.0330055201
 20
114.5742300042
 30
0.0
 11
228.8486561794
 21
115.9380185788
 31
0.0
  0
LINE
  5
CF
330
1F
100
AcDbEntity
  8
0
  6
Continuous
 62
     7
370
    15
100
AcDbLine
 10
231.2108072815
 20
121.453473426
 30
0.0
 11
234.3951566222
 21
120.0896848513
 31
0.0
  0
LWPOLYLINE
  5
D0
330
1F
100
AcDbEntity
  8
0
  6
Continuous
 62
     7
370
    15
100
AcDbPolyline
 90
        7
 70
   128
 43
0.0
 10
255.1219064008
 20
127.0570231643
 10
255.1263159345
 20
127.2065878214
 10
255.1366944383
 20
127.6731261534
 10
255.1403388843
 20
128.0687098213
 10
255.1366944383
 20
128.3331147975
 10
255.1263159345
 20
128.4260878214
 10
255.1219064008
 20
128.41693511
  0
ARC
  5
D1
330
1F
100
AcDbEntity
  8
0
  6
Continuous
 62
     7
370
    15
100
AcDbCircle
 10
235.6432833478
 20
108.2967805117
 30
0.0
 40
19.5557739258208
100
AcDbArc
 50
357.9718982864
 51
5.0911211554
  0
LINE
  5
D2
330
1F
100
AcDbEntity
  8
0
  6
HIDDEN
 62
     7
370
     0
100
AcDbLine
 10
111.8598773798
 20
156.964814476
 30
0.0
 11
111.8598773798
 21
149.3638517151
 31
0.0
  0
SPLINE
  5
D3
330
1F
100
AcDbEntity
  8
0
  6
HIDDEN
 62
     7
370
     0
100
AcDbSpline
210
0.0
220
0.0
230
1.0
 70
     8
 71
     3
 72
    80
 73
    76
 74
     0
 42
0.00000001
 43
0.00000001
 40
-0.0312500000000004
 40
-0.0312500000000004
 40
0.0
 40
0.0
 40
0.0312499999999999
 40
0.0312499999999999
 40
0.0468749999999997
 40
0.0468749999999997
 40
0.0624999999999996
 40
0.0624999999999996
 40
0.0937499999999991
 40
0.0937499999999991
 40
0.1249999999999987
 40
0.1249999999999987
 40
0.1562499999999982
 40
0.1562499999999982
 40
0.1874999999999978
 40
0.1874999999999978
 40
0.2187499999999973
 40
0.2187499999999973
 40
0.2499999999999968
 40
0.2499999999999968
 40
0.2812499999999965
 40
0.2812499999999965
 40
0.3124999999999962
 40
0.3124999999999962
 40
0.3281249999999962
 40
0.3281249999999962
 40
0.3437499999999961
 40
0.3437499999999961
 40
0.374999999999996
 40
0.374999999999996
 40
0.4062499999999959
 40
0.4062499999999959
 40
0.4218749999999959
 40
0.4218749999999959
 40
0.4374999999999959
 40
0.4374999999999959
 40
0.4687499999999959
 40
0.4687499999999959
 40
0.4999999999999958
 40
0.4999999999999958
 40
0.5312499999999957
 40
0.5312499999999957
 40
0.5624999999999956
 40
0.5624999999999956
 40
0.5937499999999954
 40
0.5937499999999954
 40
0.6249999999999954
 40
0.6249999999999954
 40
0.6562499999999953
 40
0.6562499999999953
 40
0.6874999999999952
 40
0.6874999999999952
 40
0.7031249999999952
 40
0.7031249999999952
 40
0.7187499999999953
 40
0.7187499999999953
 40
0.749999999999996
 40
0.749999999999996
 40
0.7812499999999967
 40
0.7812499999999967
 40
0.796874999999997
 40
0.796874999999997
 40
0.8124999999999972
 40
0.8124999999999972
 40
0.8437499999999977
 40
0.8437499999999977
 40
0.8749999999999981
 40
0.8749999999999981
 40
0.9062499999999987
 40
0.9062499999999987
 40
0.9374999999999991
 40
0.9374999999999991
 40
0.9687499999999996
 40
0.9687499999999996
 40
1.0
 40
1.0
 40
1.03125
 40
1.03125
 10
104.4524517135346
 20
166.8734009715654
 30
0.0
 10
103.791361087982
 20
166.8734009715654
 30
0.0
 10
103.4663809587304
 20
166.8665028257386
 30
0.0
 10
102.986907547484
 20
166.8459763977581
 30
0.0
 10
102.8284257296431
 20
166.8374201706706
 30
0.0
 10
102.5142061971389
 20
166.8166937954529
 30
0.0
 10
102.3580859134585
 20
166.8044664952465
 30
0.0
 10
101.9040318845019
 20
166.7628972014173
 30
0.0
 10
101.616928501562
 20
166.7285529163195
 30
0.0
 10
101.073573945535
 20
166.6452287919973
 30
0.0
 10
100.8164703343295
 20
166.5957905692228
 30
0.0
 10
100.3555640793907
 20
166.4844108394628
 30
0.0
 10
100.1486663701757
 20
166.4221163259507
 30
0.0
 10
99.78314105618351
 20
166.2821866830797
 30
0.0
 10
99.62793553405754
 20
166.2055707853307
 30
0.0
 10
99.37850514745783
 20
166.0416121654749
 30
0.0
 10
99.28241519167267
 20
165.9530553113792
 30
0.0
 10
99.15389634247909
 20
165.7655746292734
 30
0.0
 10
99.12208547230131
 20
165.6683381678189
 30
0.0
 10
99.12172882252804
 20
165.4667055284919
 30
0.0
 10
99.15422607472512
 20
165.3611567366538
 30
0.0
 10
99.2818515484396
 20
165.1510419539653
 30
0.0
 10
99.3762799494915
 20
165.0459764459963
 30
0.0
 10
99.56414076947705
 20
164.8890987387452
 30
0.0
 10
99.63496876828023
 20
164.8366650050395
 30
0.0
 10
99.78969066024551
 20
164.7342265594098
 30
0.0
 10
99.87366713042891
 20
164.684078830758
 30
0.0
 10
100.1449908000733
 20
164.5370628743244
 30
0.0
 10
100.3515400186757
 20
164.44357505389
 30
0.0
 10
100.8181501588647
 20
164.2677881962757
 30
0.0
 10
101.0705157284901
 20
164.188409721192
 30
0.0
 10
101.4764170701689
 20
164.0829272836979
 30
0.0
 10
101.6163176876464
 20
164.0500417188577
 30
0.0
 10
101.9055416228933
 20
163.9891262396291
 30
0.0
 10
102.0553810791826
 20
163.9610456679867
 30
0.0
 10
102.5094976487933
 20
163.8862436259438
 30
0.0
 10
102.8211488675302
 20
163.8482055676977
 30
0.0
 10
103.4621453324426
 20
163.7965936411736
 30
0.0
 10
103.7936729603947
 20
163.7832797076521
 30
0.0
 10
104.4464640054662
 20
163.7831826213241
 30
0.0
 10
104.771000210498
 20
163.7959707064851
 30
0.0
 10
105.4162696599144
 20
163.8474608960811
 30
0.0
 10
105.7320126660772
 20
163.8859854754011
 30
0.0
 10
106.3339019610609
 20
163.9848880382592
 30
0.0
 10
106.6246511918723
 20
164.0459921361842
 30
0.0
 10
107.1715629835568
 20
164.1878015692949
 30
0.0
 10
107.4233403473938
 20
164.2671360538741
 30
0.0
 10
107.8847283400149
 20
164.4405147985356
 30
0.0
 10
108.095997619613
 20
164.5356747432896
 30
0.0
 10
108.4593019719892
 20
164.7322472666655
 30
0.0
 10
108.613108620432
 20
164.8340034950719
 30
0.0
 10
108.8017280900294
 20
164.9907894578573
 30
0.0
 10
108.8577585762385
 20
165.0440434916073
 30
0.0
 10
108.9533323379746
 20
165.1498480531601
 30
0.0
 10
108.9930952549996
 20
165.2025011175157
 30
0.0
 10
109.0888670053118
 20
165.3595748369748
 30
0.0
 10
109.1215898444379
 20
165.463099872302
 30
0.0
 10
109.122218430767
 20
165.6673146065291
 30
0.0
 10
109.0900322860322
 20
165.7648184441138
 30
0.0
 10
108.9951215841766
 20
165.9041454944654
 30
0.0
 10
108.9556548007777
 20
165.94946222597
 30
0.0
 10
108.8607248020568
 20
166.0379020469587
 30
0.0
 10
108.8049679742934
 20
166.0811562974187
 30
0.0
 10
108.6170278563235
 20
166.2050477720087
 30
0.0
 10
108.4636663866073
 20
166.2807500627827
 30
0.0
 10
108.101402151727
 20
166.420004434241
 30
0.0
 10
107.8905536782611
 20
166.4837662757697
 30
0.0
 10
107.4298837079422
 20
166.5952631152375
 30
0.0
 10
107.1785093283583
 20
166.6437891875541
 30
0.0
 10
106.6326014414602
 20
166.7278431709346
 30
0.0
 10
106.341778866809
 20
166.7626417246013
 30
0.0
 10
105.7404522520289
 20
166.8178381893651
 30
0.0
 10
105.4259336674166
 20
166.838656038119
 30
0.0
 10
104.7793522112966
 20
166.8665033710298
 30
0.0
 10
104.4524517135346
 20
166.8734009715654
 30
0.0
 10
103.791361087982
 20
166.8734009715654
 30
0.0
  0
SPLINE
  5
D4
330
1F
100
AcDbEntity
  8
0
  6
HIDDEN
 62
     7
370
     0
100
AcDbSpline
210
0.0
220
0.0
230
1.0
 70
     8
 71
     3
 72
     9
 73
     5
 74
     0
 42
0.00000001
 43
0.00000001
 40
0.0
 40
0.0
 40
0.0
 40
0.0
 40
0.503816304418689
 40
1.0
 40
1.0
 40
1.0
 40
1.0
 10
75.53533115018566
 20
81.27804535281334
 30
0.0
 10
75.25165196544556
 20
81.25389217871457
 30
0.0
 10
74.68859121839921
 20
81.20595174112458
 30
0.0
 10
74.33223017659091
 20
81.16463939283864
 30
0.0
 10
74.15540963790527
 20
81.14414087919297
 30
0.0
  0
SPLINE
  5
D5
330
1F
100
AcDbEntity
  8
0
  6
HIDDEN
 62
     7
370
     0
100
AcDbSpline
210
0.0
220
0.0
230
1.0
 70
     8
 71
     3
 72
    12
 73
     8
 74
     0
 42
0.00000001
 43
0.00000001
 40
0.0
 40
0.0
 40
0.0
 40
0.0
 40
0.166134861673567
 40
0.3322013257393617
 40
0.5008932044678944
 40
0.7521370782652554
 40
1.0
 40
1.0
 40
1.0
 40
1.0
 10
73.64122806640658
 20
154.9451557381529
 30
0.0
 10
73.65162069051334
 20
154.9437776140915
 30
0.0
 10
73.67240166009071
 20
154.9410219333413
 30
0.0
 10
73.84570114953799
 20
154.9194185583792
 30
0.0
 10
74.16765273878543
 20
154.8815536064376
 30
0.0
 10
74.6888185747059
 20
154.8211698397214
 30
0.0
 10
75.25437651454291
 20
154.7733767025719
 30
0.0
 10
75.53523993822928
 20
154.7496420094786
 30
0.0
  0
SPLINE
  5
D6
330
1F
100
AcDbEntity
  8
0
  6
HIDDEN
 62
     7
370
     0
100
AcDbSpline
210
0.0
220
0.0
230
1.0
 70
     8
 71
     3
 72
     9
 73
     5
 74
     0
 42
0.00000001
 43
0.00000001
 40
0.0
 40
0.0
 40
0.0
 40
0.0
 40
0.6612176594049802
 40
0.9999999999999999
 40
0.9999999999999999
 40
0.9999999999999999
 40
0.9999999999999999
 10
85.37511205594934
 20
149.3801739358345
 30
0.0
 10
85.66661417244796
 20
149.4239594327627
 30
0.0
 10
86.10747069276677
 20
149.4901789238869
 30
0.0
 10
86.0560584283589
 20
149.4823737049673
 30
0.0
 10
86.03864086108749
 20
149.4797294346328
 30
0.0
  0
SPLINE
  5
D7
330
1F
100
AcDbEntity
  8
0
  6
HIDDEN
 62
     7
370
     0
100
AcDbSpline
210
0.0
220
0.0
230
1.0
 70
     8
 71
     3
 72
     9
 73
     5
 74
     0
 42
0.00000001
 43
0.00000001
 40
0.0
 40
0.0
 40
0.0
 40
0.0
 40
0.3224757015004542
 40
1.0
 40
1.0
 40
1.0
 40
1.0
 10
86.03864068877819
 20
86.54797401839639
 30
0.0
 10
86.05728256515161
 20
86.54520603380541
 30
0.0
 10
86.11509118851974
 20
86.53662248912866
 30
0.0
 10
85.67397737977655
 20
86.60273599062069
 30
0.0
 10
85.37511205594934
 20
86.6475294943404
 30
0.0
  0
SPLINE
  5
D8
330
1F
100
AcDbEntity
  8
0
  6
HIDDEN
 62
     7
370
     0
100
AcDbSpline
210
0.0
220
0.0
230
1.0
 70
     8
 71
     3
 72
    15
 73
    11
 74
     0
 42
0.00000001
 43
0.00000001
 40
0.0
 40
0.0
 40
0.0
 40
0.0
 40
0.1285821516379734
 40
0.2571635483376874
 40
0.3853235671991887
 40
0.5113778119466694
 40
0.6369260966772226
 40
0.7643185820319293
 40
0.8930603485208918
 40
1.0
 40
1.0
 40
1.0
 40
1.0
 10
85.37511205594934
 20
86.6475294943404
 30
0.0
 10
84.98958993470919
 20
86.70933528492434
 30
0.0
 10
84.21854795572655
 20
86.83294650321477
 30
0.0
 10
82.43999010896994
 20
87.02369508722055
 30
0.0
 10
80.44617881353028
 20
87.11134252432586
 30
0.0
 10
78.42214090629555
 20
87.06443736162345
 30
0.0
 10
76.59403233933656
 20
86.90418715388194
 30
0.0
 10
75.16260111805751
 20
86.70300779600285
 30
0.0
 10
74.25871764058193
 20
86.54046606135613
 30
0.0
 10
74.1961337028258
 20
86.5280657746558
 30
0.0
 10
74.16773645136011
 20
86.52243918623229
 30
0.0
  0
SPLINE
  5
D9
330
1F
100
AcDbEntity
  8
0
  6
HIDDEN
 62
     7
370
     0
100
AcDbSpline
210
0.0
220
0.0
230
1.0
 70
     8
 71
     3
 72
    16
 73
    12
 74
     0
 42
0.00000001
 43
0.00000001
 40
0.0
 40
0.0
 40
0.0
 40
0.0
 40
0.0205567982654302
 40
0.1461296737692545
 40
0.2720439921275845
 40
0.399953972018782
 40
0.5285040974820504
 40
0.6552455464440803
 40
0.7805594897978888
 40
0.9070378665747946
 40
1.0
 40
1.0
 40
1.0
 40
1.0
 10
74.16773645136011
 20
149.5052642439426
 30
0.0
 10
74.15306923907711
 20
149.5080106205473
 30
0.0
 10
74.0488061666694
 20
149.5275334621937
 30
0.0
 10
74.49958617751602
 20
149.4411589044367
 30
0.0
 10
75.51282530809091
 20
149.2700263025027
 30
0.0
 10
77.10715362607218
 20
149.0664855175654
 30
0.0
 10
79.03365298820671
 20
148.9340945515906
 30
0.0
 10
81.0801447887583
 20
148.9302983728998
 30
0.0
 10
82.99330420448125
 20
149.0530749455296
 30
0.0
 10
84.47801258988046
 20
149.2348898056511
 30
0.0
 10
85.10816079301489
 20
149.3369415145661
 30
0.0
 10
85.37511205594934
 20
149.3801739358345
 30
0.0
  0
LINE
  5
DA
330
1F
100
AcDbEntity
  8
0
  6
HIDDEN
 62
     7
370
     0
100
AcDbLine
 10
65.1185307278
 20
91.5138517151
 30
0.0
 11
65.1185307278
 21
144.5138517151
 31
0.0
  0
LINE
  5
DB
330
1F
100
AcDbEntity
  8
0
  6
HIDDEN
 62
     7
370
     0
100
AcDbLine
 10
104.4059840191
 20
91.5138517151
 30
0.0
 11
104.4059840191
 21
144.5138517151
 31
0.0
  0
LINE
  5
DC
330
1F
100
AcDbEntity
  8
0
  6
HIDDEN
 62
     7
370
     0
100
AcDbLine
 10
107.5719064008
 20
93.1388517151
 30
0.0
 11
107.5719064008
 21
142.8888517151
 31
0.0
  0
SPLINE
  5
DD
330
1F
100
AcDbEntity
  8
0
  6
HIDDEN
 62
     7
370
     0
100
AcDbSpline
210
0.0
220
0.0
230
1.0
 70
     8
 71
     3
 72
    20
 73
    16
 74
     0
 42
0.00000001
 43
0.00000001
 40
0.0
 40
0.0
 40
0.0
 40
0.0
 40
0.2499999999999978
 40
0.2499999999999978
 40
0.3749999999999982
 40
0.3749999999999982
 40
0.4999999999999986
 40
0.4999999999999986
 40
0.6249999999999989
 40
0.6249999999999989
 40
0.7499999999999992
 40
0.7499999999999992
 40
0.8749999999999997
 40
0.8749999999999997
 40
1.0
 40
1.0
 40
1.0
 40
1.0
 10
55.32190640075831
 20
143.2423653455018
 30
0.0
 10
55.32190640075832
 20
143.1631623589695
 30
0.0
 10
55.27492390554557
 20
143.0820661405666
 30
0.0
 10
55.13710231476799
 20
142.9618694488156
 30
0.0
 10
55.08082003085801
 20
142.9229427448136
 30
0.0
 10
54.94773517939078
 20
142.8477540123892
 30
0.0
 10
54.86989523715773
 20
142.8111118070472
 30
0.0
 10
54.69726288104339
 20
142.7435212742154
 30
0.0
 10
54.6028698839523
 20
142.7125630924397
 30
0.0
 10
54.39743257763715
 20
142.65703867107
 30
0.0
 10
54.28508633764999
 20
142.6323301572368
 30
0.0
 10
54.05284547375036
 20
142.5925339301286
 30
0.0
 10
53.93213483132764
 20
142.5771140927316
 30
0.0
 10
53.6810639720586
 20
142.556034117892
 30
0.0
 10
53.55154197564283
 20
142.550556872871
 30
0.0
 10
53.42190640075831
 20
142.550556872871
 30
0.0
  0
LINE
  5
DE
330
1F
100
AcDbEntity
  8
0
  6
HIDDEN
 62
     7
370
     0
100
AcDbLine
 10
53.4219064008
 20
142.5505568729
 30
0.0
 11
46.8719064008
 21
142.5505568729
 31
0.0
  0
LINE
  5
DF
330
1F
100
AcDbEntity
  8
0
  6
HIDDEN
 62
     7
370
     0
100
AcDbLine
 10
46.8719064008
 20
93.4771465573
 30
0.0
 11
58.4219064008
 21
93.4771465573
 31
0.0
  0
SPLINE
  5
E0
330
1F
100
AcDbEntity
  8
0
  6
HIDDEN
 62
     7
370
     0
100
AcDbSpline
210
0.0
220
0.0
230
1.0
 70
     8
 71
     3
 72
    18
 73
    14
 74
     0
 42
0.00000001
 43
0.00000001
 40
0.0
 40
0.0
 40
0.0
 40
0.0
 40
0.1249999999999982
 40
0.1249999999999982
 40
0.2499999999999964
 40
0.2499999999999964
 40
0.4999999999999988
 40
0.4999999999999988
 40
0.7500000000000011
 40
0.7500000000000011
 40
0.8750000000000006
 40
0.8750000000000006
 40
1.0
 40
1.0
 40
1.0
 40
1.0
 10
58.42190640075831
 20
93.47714655730397
 30
0.0
 10
58.55137371371552
 20
93.47714655730395
 30
0.0
 10
58.67838446261216
 20
93.47179355871131
 30
0.0
 10
58.92774778380941
 20
93.45105558602253
 30
0.0
 10
59.05137143843785
 20
93.43538368176823
 30
0.0
 10
59.4004037753719
 20
93.37568895336615
 30
0.0
 10
59.61091554017868
 20
93.31792377368517
 30
0.0
 10
59.9548322178782
 20
93.18340193240766
 30
0.0
 10
60.091182619396
 20
93.10573281890227
 30
0.0
 10
60.22822067595854
 20
92.98644168481493
 30
0.0
 10
60.26343969467145
 20
92.94552267567988
 30
0.0
 10
60.31006327161001
 20
92.86486668238985
 30
0.0
 10
60.32190640075832
 20
92.824898162197
 30
0.0
 10
60.32190640075831
 20
92.78533808467317
 30
0.0
  0
LINE
  5
E1
330
1F
100
AcDbEntity
  8
0
  6
HIDDEN
 62
     7
370
     0
100
AcDbLine
 10
46.8719064008
 20
93.4771465573
 30
0.0
 11
46.8719064008
 21
142.5505568729
 31
0.0
  0
LINE
  5
E2
330
1F
100
AcDbEntity
  8
0
  6
HIDDEN
 62
     7
370
     0
100
AcDbLine
 10
160.9869156538
 20
142.6127995112
 30
0.0
 11
160.7252784502
 21
142.6452741579
 31
0.0
  0
SPLINE
  5
E3
330
1F
100
AcDbEntity
  8
0
  6
HIDDEN
 62
     7
370
     0
100
AcDbSpline
210
0.0
220
0.0
230
1.0
 70
     8
 71
     3
 72
    10
 73
     6
 74
     0
 42
0.00000001
 43
0.00000001
 40
0.0
 40
0.0
 40
0.0
 40
0.0
 40
0.5
 40
0.5
 40
1.0
 40
1.0
 40
1.0
 40
1.0
 10
207.7703447313282
 20
100.0118083214721
 30
0.0
 10
207.9280006841532
 20
99.98718110884671
 30
0.0
 10
208.0942167911898
 20
99.97970703779436
 30
0.0
 10
208.4172820266074
 20
100.0000978182958
 30
0.0
 10
208.578702218579
 20
100.0282609341759
 30
0.0
 10
208.7270832744749
 20
100.0723973141803
 30
0.0
  0
LWPOLYLINE
  5
E4
330
1F
100
AcDbEntity
  8
0
  6
HIDDEN
 62
     7
370
     0
100
AcDbPolyline
 90
       13
 70
   128
 43
0.0
 10
104.1219064008
 20
157.9575822784
 10
105.2749857545
 20
158.0124004727
 10
106.3659023018
 20
158.1738997924
 10
107.3358444492
 20
158.4333737676
 10
108.1325223645
 20
158.7768340889
 10
108.7129869352
 20
159.1857647216
 10
109.0459451658
 20
159.6381201095
 10
109.1134471921
 20
160.1095136564
 10
108.9118539623
 20
160.5745324142
 10
108.4520334197
 20
161.0081071015
 10
107.7587746086
 20
161.3868635944
 10
106.8694512911
 20
161.6903830325
 10
106.5201477777
 20
161.7757428834
  0
LWPOLYLINE
  5
E5
330
1F
100
AcDbEntity
  8
0
  6
HIDDEN
 62
     7
370
     0
100
AcDbPolyline
 90
       13
 70
   128
 43
0.0
 10
101.7201733719
 20
161.7749658316
 10
101.3743615104
 20
161.6903830325
 10
100.4850381929
 20
161.3868635944
 10
99.7917793818
 20
161.0081071015
 10
99.3319588392
 20
160.5745324142
 10
99.1303656094
 20
160.1095136564
 10
99.1978676357
 20
159.6381201095
 10
99.5308258664
 20
159.1857647216
 10
100.111290437
 20
158.7768340889
 10
100.9079683523
 20
158.4333737676
 10
101.8779104998
 20
158.1738997924
 10
102.968827047
 20
158.0124004727
 10
104.1219064008
 20
157.9575822784
  0
SPLINE
  5
E6
330
1F
100
AcDbEntity
  8
0
  6
HIDDEN
 62
     7
370
     0
100
AcDbSpline
210
0.0
220
0.0
230
1.0
 70
     8
 71
     3
 72
    45
 73
    41
 74
     0
 42
0.00000001
 43
0.00000001
 40
0.0
 40
0.0
 40
0.0
 40
0.0
 40
0.0176606035850324
 40
0.049546980868992
 40
0.0667142388252207
 40
0.0847029604616304
 40
0.1144547884305096
 40
0.1518320765606024
 40
0.1771132704591914
 40
0.1995035096021536
 40
0.2190080027062046
 40
0.2539856994624332
 40
0.2859811183904729
 40
0.3179813538639388
 40
0.3351194068828866
 40
0.3530204424520784
 40
0.3833706788339824
 40
0.4201837504586071
 40
0.4460564501175138
 40
0.4684543150149569
 40
0.4873808350419025
 40
0.522486583802665
 40
0.5544210706458843
 40
0.586334804074858
 40
0.6034988605095497
 40
0.62147318476455
 40
0.6511242171753212
 40
0.6885732585333016
 40
0.713870524262836
 40
0.7362937489958633
 40
0.7558481756565644
 40
0.7908691349853215
 40
0.8228932879389202
 40
0.8548694548850314
 40
0.8719911607356391
 40
0.8898731016473883
 40
0.9201550409569134
 40
0.9569408683154041
 40
0.982753250906725
 40
1.0
 40
1.0
 40
1.0
 40
1.0
 10
231.0013899108955
 20
112.0723158924096
 30
0.0
 10
231.2079420314288
 20
112.0467467026204
 30
0.0
 10
231.7874258477794
 20
111.9750121126207
 30
0.0
 10
232.5768074448353
 20
112.0717663978639
 30
0.0
 10
233.3418940926071
 20
112.253951967026
 30
0.0
 10
234.0592263984071
 20
112.5097109432056
 30
0.0
 10
234.9434510000168
 20
112.9707264231533
 30
0.0
 10
235.7871822639163
 20
113.6486631073106
 30
0.0
 10
236.4345052748618
 20
114.3985286830465
 30
0.0
 10
236.8602037752732
 20
115.0575158111234
 30
0.0
 10
237.2524180777025
 20
115.8664279780169
 30
0.0
 10
237.5467704943264
 20
116.8450553883725
 30
0.0
 10
237.6576446873726
 20
118.0113701977616
 30
0.0
 10
237.5672958624323
 20
118.9684255627483
 30
0.0
 10
237.3810444766972
 20
119.7340299734264
 30
0.0
 10
237.1243732702602
 20
120.4568231057782
 30
0.0
 10
236.6615309811822
 20
121.3405700187459
 30
0.0
 10
235.9778181784484
 20
122.1887865486239
 30
0.0
 10
235.2264364026254
 20
122.8351516474562
 30
0.0
 10
234.56603165001
 20
123.2585527883648
 30
0.0
 10
233.7615932818206
 20
123.6468984280506
 30
0.0
 10
232.7888310021357
 20
123.9391619174254
 30
0.0
 10
231.6227427191082
 20
124.0494274593689
 30
0.0
 10
230.6671454442921
 20
123.9591426190341
 30
0.0
 10
229.9015367440414
 20
123.772991101703
 30
0.0
 10
229.1856287403197
 20
123.5186402287604
 30
0.0
 10
228.3017294004669
 20
123.0577236904315
 30
0.0
 10
227.4578236756718
 20
122.3803388908602
 30
0.0
 10
226.8094555143136
 20
121.6294351468927
 30
0.0
 10
226.3831227459447
 20
120.9694488242035
 30
0.0
 10
225.9904608256382
 20
120.1590725751402
 30
0.0
 10
225.6962159120385
 20
119.1788862187354
 30
0.0
 10
225.5861603967629
 20
118.0119145811997
 30
0.0
 10
225.6772360821752
 20
117.0550835761377
 30
0.0
 10
225.8637943623671
 20
116.2902526390146
 30
0.0
 10
226.1205247803927
 20
115.5688856654501
 30
0.0
 10
226.5823998714574
 20
114.6856210135657
 30
0.0
 10
227.2673885600274
 20
113.8427561168906
 30
0.0
 10
227.9661127239351
 20
113.2261786034847
 30
0.0
 10
228.3949126584211
 20
112.9650877282597
 30
0.0
 10
228.5666626355331
 20
112.8605113320487
 30
0.0
  0
LINE
  5
E7
330
1F
100
AcDbEntity
  8
0
  6
HIDDEN
 62
     7
370
     0
100
AcDbLine
 10
60.3219064008
 20
90.6438517151
 30
0.0
 11
60.3219064008
 21
84.1445184497
 31
0.0
  0
LINE
  5
E8
330
1F
100
AcDbEntity
  8
0
  6
HIDDEN
 62
     7
370
     0
100
AcDbLine
 10
46.8719064008
 20
90.6438517151
 30
0.0
 11
46.8719064008
 21
85.7655665133
 31
0.0
  0
LINE
  5
E9
330
1F
100
AcDbEntity
  8
0
  6
HIDDEN
 62
     7
370
     0
100
AcDbLine
 10
55.3219064008
 20
145.3838517151
 30
0.0
 11
55.3219064008
 21
151.7584604521
 31
0.0
  0
LINE
  5
EA
330
1F
100
AcDbEntity
  8
0
  6
HIDDEN
 62
     7
370
     0
100
AcDbLine
 10
46.8719064008
 20
145.3838517151
 30
0.0
 11
46.8719064008
 21
150.2621369169
 31
0.0
  0
SPLINE
  5
EB
330
1F
100
AcDbEntity
  8
0
  6
HIDDEN
 62
     7
370
     0
100
AcDbSpline
210
0.0
220
0.0
230
1.0
 70
     8
 71
     3
 72
    14
 73
    10
 74
     0
 42
0.00000001
 43
0.00000001
 40
0.0
 40
0.0
 40
0.0
 40
0.0
 40
0.25
 40
0.25
 40
0.5
 40
0.5
 40
0.75
 40
0.75
 40
1.0
 40
1.0
 40
1.0
 40
1.0
 10
207.1381263322337
 20
107.0623542765281
 30
0.0
 10
207.1064796029514
 20
107.0259862235015
 30
0.0
 10
207.0762822743749
 20
106.9902328699651
 30
0.0
 10
207.02820866955
 20
106.9082657630338
 30
0.0
 10
207.0107232012187
 20
106.8595867982115
 30
0.0
 10
207.020433037578
 20
106.7266259206504
 30
0.0
 10
207.0457578118157
 20
106.6480183020576
 30
0.0
 10
207.1054528285151
 20
106.4951711213801
 30
0.0
 10
207.1403157569305
 20
106.419337507877
 30
0.0
 10
207.1767258192097
 20
106.3447566621527
 30
0.0
  0
SPLINE
  5
EC
330
1F
100
AcDbEntity
  8
0
  6
HIDDEN
 62
     7
370
     0
100
AcDbSpline
210
0.0
220
0.0
230
1.0
 70
     8
 71
     3
 72
    14
 73
    10
 74
     0
 42
0.00000001
 43
0.00000001
 40
0.0
 40
0.0
 40
0.0
 40
0.0
 40
0.25
 40
0.25
 40
0.5
 40
0.5
 40
0.75
 40
0.75
 40
1.0
 40
1.0
 40
1.0
 40
1.0
 10
207.1767258192101
 20
106.3447566621524
 30
0.0
 10
207.2122990731612
 20
106.3777730235803
 30
0.0
 10
207.2432009041803
 20
106.4178237981071
 30
0.0
 10
207.2857550247604
 20
106.5162864402137
 30
0.0
 10
207.2959816749201
 20
106.5731020908383
 30
0.0
 10
207.2876475684235
 20
106.701039455646
 30
0.0
 10
207.2690299315887
 20
106.7707725523859
 30
0.0
 10
207.2135245490359
 20
106.9142913190314
 30
0.0
 10
207.1774318996765
 20
106.9876168977486
 30
0.0
 10
207.1381263322343
 20
107.0623542765291
 30
0.0
  0
SPLINE
  5
ED
330
1F
100
AcDbEntity
  8
0
  6
HIDDEN
 62
     7
370
     0
100
AcDbSpline
210
0.0
220
0.0
230
1.0
 70
     8
 71
     3
 72
    10
 73
     6
 74
     0
 42
0.00000001
 43
0.00000001
 40
0.0
 40
0.0
 40
0.0
 40
0.0
 40
0.5
 40
0.5
 40
1.0
 40
1.0
 40
1.0
 40
1.0
 10
206.6219064007579
 20
107.743255452876
 30
0.0
 10
206.6219064007578
 20
107.7665088694603
 30
0.0
 10
206.6229860475747
 20
107.7876042653371
 30
0.0
 10
206.627139304572
 20
107.825686287865
 30
0.0
 10
206.6302138702079
 20
107.8426754066587
 30
0.0
 10
206.6342167514607
 20
107.8575409328354
 30
0.0
  0
SPLINE
  5
EE
330
1F
100
AcDbEntity
  8
0
  6
HIDDEN
 62
     7
370
     0
100
AcDbSpline
210
0.0
220
0.0
230
1.0
 70
     8
 71
     3
 72
    18
 73
    14
 74
     0
 42
0.00000001
 43
0.00000001
 40
0.0
 40
0.0
 40
0.0
 40
0.0
 40
0.0725468170436515
 40
0.1614465570821601
 40
0.2237901744065793
 40
0.2739496779913624
 40
0.3241523600613006
 40
0.3940486994924865
 40
0.5073064483301302
 40
0.6272500531559841
 40
0.7710998847882757
 40
0.9051909783954893
 40
0.9999999999999999
 40
0.9999999999999999
 40
0.9999999999999999
 40
0.9999999999999999
 10
206.6504503429101
 20
107.8870487865176
 30
0.0
 10
206.6555560603422
 20
107.8987032017955
 30
0.0
 10
206.6669183851753
 20
107.9246390773872
 30
0.0
 10
206.6887422820588
 20
107.9227446303575
 30
0.0
 10
206.7036754335923
 20
107.8996340784387
 30
0.0
 10
206.7086788794766
 20
107.8575609585189
 30
0.0
 10
206.704428809031
 20
107.7947243410475
 30
0.0
 10
206.6878054134639
 20
107.6939877030011
 30
0.0
 10
206.6602113253217
 20
107.5583280744781
 30
0.0
 10
206.631652918004
 20
107.3953428865767
 30
0.0
 10
206.6181915664871
 20
107.2443971185766
 30
0.0
 10
206.6261335400759
 20
107.1367909545232
 30
0.0
 10
206.6429679797557
 20
107.1086473859374
 30
0.0
 10
206.6499407012584
 20
107.0969904927129
 30
0.0
  0
LWPOLYLINE
  5
EF
330
1F
100
AcDbEntity
  8
0
  6
HIDDEN
 62
     7
370
     0
100
AcDbPolyline
 90
        9
 70
   128
 43
0.0
 10
206.6573330176
 20
107.0807384238
 10
206.6876907511
 20
107.0763248775
 10
206.7017734547
 20
107.1001206474
 10
206.7071800777
 20
107.1388961777
 10
206.7041297931
 20
107.1960935944
 10
206.6918887578
 20
107.2750158105
 10
206.66612998
 20
107.4048344505
 10
206.6344050099
 20
107.5849609801
 10
206.6219064008
 20
107.7432554529
  0
SPLINE
  5
F0
330
1F
100
AcDbEntity
  8
0
  6
HIDDEN
 62
     7
370
     0
100
AcDbSpline
210
0.0
220
0.0
230
1.0
 70
     8
 71
     3
 72
     8
 73
     4
 74
     0
 42
0.00000001
 43
0.00000001
 40
0.0
 40
0.0
 40
0.0
 40
0.0
 40
1.0
 40
1.0
 40
1.0
 40
1.0
 10
209.3639404399688
 20
112.7869265108194
 30
0.0
 10
209.3226814212344
 20
112.8237382267198
 30
0.0
 10
209.2771120112886
 20
112.8626869539877
 30
0.0
 10
209.2271323826386
 20
112.9059436686496
 30
0.0
  0
SPLINE
  5
F1
330
1F
100
AcDbEntity
  8
0
  6
HIDDEN
 62
     7
370
     0
100
AcDbSpline
210
0.0
220
0.0
230
1.0
 70
     8
 71
     3
 72
    34
 73
    30
 74
     0
 42
0.00000001
 43
0.00000001
 40
0.0
 40
0.0
 40
0.0
 40
0.0
 40
0.0624999999999957
 40
0.0624999999999957
 40
0.1249999999999913
 40
0.1249999999999913
 40
0.2499999999999883
 40
0.2499999999999883
 40
0.3124999999999895
 40
0.3124999999999895
 40
0.3749999999999907
 40
0.3749999999999907
 40
0.4999999999999928
 40
0.4999999999999928
 40
0.5624999999999937
 40
0.5624999999999937
 40
0.6249999999999946
 40
0.6249999999999946
 40
0.6874999999999954
 40
0.6874999999999954
 40
0.7499999999999963
 40
0.7499999999999963
 40
0.8124999999999972
 40
0.8124999999999972
 40
0.8749999999999981
 40
0.8749999999999981
 40
0.937499999999999
 40
0.937499999999999
 40
1.0
 40
1.0
 40
1.0
 40
1.0
 10
209.2271323826386
 20
112.9059436686496
 30
0.0
 10
209.1250176268398
 20
112.9943226537213
 30
0.0
 10
209.0090459407229
 20
113.0700898144895
 30
0.0
 10
208.749538735174
 20
113.194383272194
 30
0.0
 10
208.6092787124785
 20
113.2408515742833
 30
0.0
 10
208.1710464330859
 20
113.3262010999968
 30
0.0
 10
207.8559820810614
 20
113.3067866090004
 30
0.0
 10
207.4385335661056
 20
113.1722242758582
 30
0.0
 10
207.3058787439799
 20
113.109499653635
 30
0.0
 10
207.0725171669519
 20
112.9597556882702
 30
0.0
 10
206.9684011137583
 20
112.870630823326
 30
0.0
 10
206.7156836697009
 20
112.5828111525561
 30
0.0
 10
206.6219906662249
 20
112.3582190073683
 30
0.0
 10
206.6218643559008
 20
112.0386333122488
 30
0.0
 10
206.6441996720175
 20
111.9365500947893
 30
0.0
 10
206.7335135804405
 20
111.7432349570945
 30
0.0
 10
206.7984218854936
 20
111.6559995025783
 30
0.0
 10
206.9684314650505
 20
111.4981012973671
 30
0.0
 10
207.0705542548059
 20
111.430497952821
 30
0.0
 10
207.3051340802757
 20
111.3173460649245
 30
0.0
 10
207.4363772995181
 20
111.2726959362027
 30
0.0
 10
207.7150606866379
 20
111.2088081619984
 30
0.0
 10
207.8642076437804
 20
111.1893625309786
 30
0.0
 10
208.1625628403568
 20
111.1768636806379
 30
0.0
 10
208.3156242776915
 20
111.1837227105871
 30
0.0
 10
208.6067345107279
 20
111.2229723341501
 30
0.0
 10
208.7490771707032
 20
111.2559493312451
 30
0.0
 10
209.0067575585749
 20
111.3454731585885
 30
0.0
 10
209.1250149670403
 20
111.4027304671027
 30
0.0
 10
209.2271323826386
 20
111.4717362018047
 30
0.0
  0
SPLINE
  5
F2
330
1F
100
AcDbEntity
  8
0
  6
HIDDEN
 62
     7
370
     0
100
AcDbSpline
210
0.0
220
0.0
230
1.0
 70
     8
 71
     3
 72
     8
 73
     4
 74
     0
 42
0.00000001
 43
0.00000001
 40
0.0
 40
0.0
 40
0.0
 40
0.0
 40
1.0
 40
1.0
 40
1.0
 40
1.0
 10
209.2271323826386
 20
111.4717362018047
 30
0.0
 10
209.2771120112886
 20
111.5055098825713
 30
0.0
 10
209.3226814212344
 20
111.5481566470898
 30
0.0
 10
209.3639404399688
 20
111.5975136763146
 30
0.0
  0
SPLINE
  5
F3
330
1F
100
AcDbEntity
  8
0
  6
HIDDEN
 62
     7
370
     0
100
AcDbSpline
210
0.0
220
0.0
230
1.0
 70
     8
 71
     3
 72
    12
 73
     8
 74
     0
 42
0.00000001
 43
0.00000001
 40
0.0
 40
0.0
 40
0.0
 40
0.0
 40
0.2499999999999998
 40
0.2499999999999998
 40
0.4999999999999996
 40
0.4999999999999996
 40
1.0
 40
1.0
 40
1.0
 40
1.0
 10
209.3639404399688
 20
111.5975136763146
 30
0.0
 10
209.4476660056234
 20
111.6976722675181
 30
0.0
 10
209.5115466927045
 20
111.8006843948272
 30
0.0
 10
209.599459102016
 20
112.0143812822832
 30
0.0
 10
209.6217692726481
 20
112.1219598208557
 30
0.0
 10
209.6221787689357
 20
112.4381089598967
 30
0.0
 10
209.5313970075133
 20
112.6375200591103
 30
0.0
 10
209.3639404399688
 20
112.7869265108194
 30
0.0
  0
SPLINE
  5
F4
330
1F
100
AcDbEntity
  8
0
  6
HIDDEN
 62
     7
370
     0
100
AcDbSpline
210
0.0
220
0.0
230
1.0
 70
     8
 71
     3
 72
    14
 73
    10
 74
     0
 42
0.00000001
 43
0.00000001
 40
0.0
 40
0.0
 40
0.0
 40
0.0
 40
0.25
 40
0.25
 40
0.5
 40
0.5
 40
0.75
 40
0.75
 40
1.0
 40
1.0
 40
1.0
 40
1.0
 10
207.1767258192099
 20
107.9919565093266
 30
0.0
 10
207.1402568235761
 20
108.0248054858224
 30
0.0
 10
207.1053138914161
 20
108.0564213301758
 30
0.0
 10
207.0455765500713
 20
108.1272184731457
 30
0.0
 10
207.0202873507483
 20
108.1671602751148
 30
0.0
 10
207.0108002515171
 20
108.2849086329322
 30
0.0
 10
207.02829525427
 20
108.3612051859087
 30
0.0
 10
207.0764898235275
 20
108.5125416888435
 30
0.0
 10
207.106542373505
 20
108.5886116632734
 30
0.0
 10
207.1381263322324
 20
108.66371418409
 30
0.0
  0
SPLINE
  5
F5
330
1F
100
AcDbEntity
  8
0
  6
HIDDEN
 62
     7
370
     0
100
AcDbSpline
210
0.0
220
0.0
230
1.0
 70
     8
 71
     3
 72
    10
 73
     6
 74
     0
 42
0.00000001
 43
0.00000001
 40
0.0
 40
0.0
 40
0.0
 40
0.0
 40
0.5
 40
0.5
 40
1.0
 40
1.0
 40
1.0
 40
1.0
 10
207.1381263322341
 20
108.6637141840918
 30
0.0
 10
207.2166066502865
 20
108.6109154257961
 30
0.0
 10
207.2830167103821
 20
108.5257570726225
 30
0.0
 10
207.3004605725111
 20
108.2843074680158
 30
0.0
 10
207.2479002037859
 20
108.139696324749
 30
0.0
 10
207.1767258192101
 20
107.9919565093261
 30
0.0
  0
SPLINE
  5
F6
330
1F
100
AcDbEntity
  8
0
  6
HIDDEN
 62
     7
370
     0
100
AcDbSpline
210
0.0
220
0.0
230
1.0
 70
     8
 71
     3
 72
    48
 73
    44
 74
     0
 42
0.00000001
 43
0.00000001
 40
-0.0625000000000036
 40
-0.0625000000000036
 40
0.0
 40
0.0
 40
0.031249999999999
 40
0.031249999999999
 40
0.062499999999998
 40
0.062499999999998
 40
0.124999999999996
 40
0.124999999999996
 40
0.187499999999994
 40
0.187499999999994
 40
0.249999999999992
 40
0.249999999999992
 40
0.31249999999999
 40
0.31249999999999
 40
0.3437499999999901
 40
0.3437499999999901
 40
0.3749999999999901
 40
0.3749999999999901
 40
0.4062499999999902
 40
0.4062499999999902
 40
0.4374999999999902
 40
0.4374999999999902
 40
0.4999999999999909
 40
0.4999999999999909
 40
0.5624999999999916
 40
0.5624999999999916
 40
0.6249999999999922
 40
0.6249999999999922
 40
0.6874999999999929
 40
0.6874999999999929
 40
0.7499999999999936
 40
0.7499999999999936
 40
0.8124999999999942
 40
0.8124999999999942
 40
0.8437499999999948
 40
0.8437499999999948
 40
0.8749999999999953
 40
0.8749999999999953
 40
0.9062499999999959
 40
0.9062499999999959
 40
0.9374999999999964
 40
0.9374999999999964
 40
1.0
 40
1.0
 40
1.031249999999999
 40
1.031249999999999
 10
209.2526963781098
 20
106.2966290385479
 30
0.0
 10
209.3747642086268
 20
106.3000203637698
 30
0.0
 10
209.4132265385445
 20
106.3084671797161
 30
0.0
 10
209.4833760143109
 20
106.3407420437703
 30
0.0
 10
209.5153931470861
 20
106.3650148012361
 30
0.0
 10
209.5941287340038
 20
106.4618374627574
 30
0.0
 10
209.6238571348247
 20
106.5609871004924
 30
0.0
 10
209.6197453807945
 20
106.8099089022621
 30
0.0
 10
209.5856992881291
 20
106.9605103493566
 30
0.0
 10
209.4743331296043
 20
107.2694255198851
 30
0.0
 10
209.3979342060138
 20
107.428185399511
 30
0.0
 10
209.2347610257494
 20
107.7359566463493
 30
0.0
 10
209.146121559734
 20
107.8866941792595
 30
0.0
 10
209.0369074590049
 20
108.104619392782
 30
0.0
 10
209.0039859112931
 20
108.1777750524744
 30
0.0
 10
208.9595351982932
 20
108.3173116961202
 30
0.0
 10
208.9483023798692
 20
108.3853123314888
 30
0.0
 10
208.9550901782931
 20
108.5052458429999
 30
0.0
 10
208.9728371415787
 20
108.5586645776548
 30
0.0
 10
209.0249876680514
 20
108.6468116559843
 30
0.0
 10
209.0593608325186
 20
108.6829338420687
 30
0.0
 10
209.1713074932166
 20
108.7690331924194
 30
0.0
 10
209.2567914703701
 20
108.7981302098137
 30
0.0
 10
209.4149429482706
 20
108.8016688052485
 30
0.0
 10
209.4871878237055
 20
108.7757039517683
 30
0.0
 10
209.5928778800904
 20
108.654006887821
 30
0.0
 10
209.6233769258487
 20
108.5571581285932
 30
0.0
 10
209.6203205499307
 20
108.308009058126
 30
0.0
 10
209.5863978995363
 20
108.1550737352593
 30
0.0
 10
209.4764324719382
 20
107.842192839093
 30
0.0
 10
209.4012772065453
 20
107.6812369170337
 30
0.0
 10
209.2425172767989
 20
107.3717344548297
 30
0.0
 10
209.1558725561571
 20
107.2188559882989
 30
0.0
 10
209.0474024217114
 20
107.000232372807
 30
0.0
 10
209.0144528550607
 20
106.9280853870218
 30
0.0
 10
208.9656633153004
 20
106.78573737716
 30
0.0
 10
208.9510717211767
 20
106.717448725239
 30
0.0
 10
208.9510534843451
 20
106.5923679632497
 30
0.0
 10
208.9657357113044
 20
106.5375064077691
 30
0.0
 10
209.0157480873289
 20
106.4455603843217
 30
0.0
 10
209.0497343933597
 20
106.4092418192493
 30
0.0
 10
209.1640319619522
 20
106.3227687303102
 30
0.0
 10
209.2526963781098
 20
106.2966290385479
 30
0.0
 10
209.3747642086268
 20
106.3000203637698
 30
0.0
  0
LWPOLYLINE
  5
F7
330
1F
100
AcDbEntity
  8
0
  6
HIDDEN
 62
     7
370
     0
100
AcDbPolyline
 90
       17
 70
   128
 43
0.0
 10
208.1219064008
 20
104.9323762631
 10
207.5478812522
 20
105.0131142113
 10
207.061246229
 20
105.2430364349
 10
206.736087102
 20
105.5871393598
 10
206.6219064008
 20
105.9930364349
 10
206.736087102
 20
106.39893351
 10
207.061246229
 20
106.7430364349
 10
207.5478812522
 20
106.9729586586
 10
208.1219064008
 20
107.0536966067
 10
208.6959315493
 20
106.9729586586
 10
209.1825665725
 20
106.7430364349
 10
209.5077256995
 20
106.39893351
 10
209.6219064008
 20
105.9930364349
 10
209.5077256995
 20
105.5871393598
 10
209.1825665725
 20
105.2430364349
 10
208.6959315493
 20
105.0131142113
 10
208.1219064008
 20
104.9323762631
  0
LINE
  5
F8
330
1F
100
AcDbEntity
  8
0
  6
HIDDEN
 62
     7
370
     0
100
AcDbLine
 10
123.4219064008
 20
105.0138517151
 30
0.0
 11
123.4219064008
 21
131.0138517151
 31
0.0
  0
LINE
  5
F9
330
1F
100
AcDbEntity
  8
0
  6
HIDDEN
 62
     7
370
     0
100
AcDbLine
 10
119.4219064008
 20
105.0138517151
 30
0.0
 11
119.4219064008
 21
131.0138517151
 31
0.0
  0
LINE
  5
FA
330
1F
100
AcDbEntity
  8
0
  6
HIDDEN
 62
     7
370
     0
100
AcDbLine
 10
108.3219064008
 20
106.7638517151
 30
0.0
 11
108.3219064008
 21
129.2638517151
 31
0.0
  0
ARC
  5
FB
330
1F
100
AcDbEntity
  8
0
  6
HIDDEN
 62
     7
370
     0
100
AcDbCircle
 10
193.9990628548
 20
107.5717500963
 30
0.0
 40
13.18436098688344
100
AcDbArc
 50
1.8264163085
 51
4.7508319696
  0
ELLIPSE
  5
FC
330
1F
100
AcDbEntity
  8
0
  6
HIDDEN
 62
     7
370
     0
100
AcDbEllipse
 10
38.9372332005
 20
118.0138517151
 30
0.0
 11
31.08108570811662
 21
-1.421085471520200E-14
 31
0.0
210
0.0
220
0.0
230
1.0
 40
0.8164965809
 41
4.915995335118102
 42
4.970536038964787
  0
ELLIPSE
  5
FD
330
1F
100
AcDbEntity
  8
0
  6
HIDDEN
 62
     7
370
     0
100
AcDbEllipse
 10
38.9372332005
 20
118.0138517151
 30
0.0
 11
31.08108570811662
 21
1.421085471520200E-14
 31
0.0
210
0.0
220
0.0
230
1.0
 40
0.8164965809
 41
1.312649268214811
 42
1.367189972061496
  0
LINE
  5
FE
330
1F
100
AcDbEntity
  8
0
  6
HIDDEN
 62
     7
370
     0
100
AcDbLine
 10
124.0719064008
 20
74.1138517151
 30
0.0
 11
110.0719064008
 21
74.1138517151
 31
0.0
  0
LINE
  5
FF
330
1F
100
AcDbEntity
  8
0
  6
HIDDEN
 62
     7
370
     0
100
AcDbLine
 10
100.0719064008
 20
68.0238527153
 30
0.0
 11
100.0719064008
 21
74.1138517151
 31
0.0
  0
LINE
  5
100
330
1F
100
AcDbEntity
  8
0
  6
HIDDEN
 62
     7
370
     0
100
AcDbLine
 10
110.0719064008
 20
74.1138517151
 30
0.0
 11
100.0719064008
 21
74.1138517151
 31
0.0
  0
ARC
  5
101
330
1F
100
AcDbEntity
  8
0
  6
HIDDEN
 62
     7
370
     0
100
AcDbCircle
 10
223.3460970847
 20
107.5743420819
 30
0.0
 40
16.21605523631559
100
AcDbArc
 50
181.8092943
 51
184.3486370525
  0
LINE
  5
102
330
1F
100
AcDbEntity
  8
0
  6
HIDDEN
 62
     7
370
     0
100
AcDbLine
 10
60.3219064008
 20
90.6438517151
 30
0.0
 11
60.3219064008
 21
92.7853380847
 31
0.0
  0
LINE
  5
103
330
1F
100
AcDbEntity
  8
0
  6
HIDDEN
 62
     7
370
     0
100
AcDbLine
 10
46.8719064008
 20
90.6438517151
 30
0.0
 11
46.8719064008
 21
93.4771465573
 31
0.0
  0
LINE
  5
104
330
1F
100
AcDbEntity
  8
0
  6
HIDDEN
 62
     7
370
     0
100
AcDbLine
 10
55.3219064008
 20
145.3838517151
 30
0.0
 11
55.3219064008
 21
143.2423653455
 31
0.0
  0
LINE
  5
105
330
1F
100
AcDbEntity
  8
0
  6
HIDDEN
 62
     7
370
     0
100
AcDbLine
 10
46.8719064008
 20
145.3838517151
 30
0.0
 11
46.8719064008
 21
142.5505568729
 31
0.0
  0
LINE
  5
106
330
1F
100
AcDbEntity
  8
0
  6
HIDDEN
 62
     7
370
     0
100
AcDbLine
 10
110.0719064008
 20
161.9138517151
 30
0.0
 11
100.0719064008
 21
161.9138517151
 31
0.0
  0
LINE
  5
107
330
1F
100
AcDbEntity
  8
0
  6
HIDDEN
 62
     7
370
     0
100
AcDbLine
 10
124.0719064008
 20
161.9138517151
 30
0.0
 11
110.0719064008
 21
161.9138517151
 31
0.0
  0
LINE
  5
108
330
1F
100
AcDbEntity
  8
0
  6
HIDDEN
 62
     7
370
     0
100
AcDbLine
 10
206.1219064008
 20
110.1138517151
 30
0.0
 11
206.1219064008
 21
125.9138511848
 31
0.0
  0
SPLINE
  5
109
330
1F
100
AcDbEntity
  8
0
  6
HIDDEN
 62
     7
370
     0
100
AcDbSpline
210
0.0
220
0.0
230
1.0
 70
     8
 71
     3
 72
    34
 73
    30
 74
     0
 42
0.00000001
 43
0.00000001
 40
0.0
 40
0.0
 40
0.0
 40
0.0
 40
0.0624999999999954
 40
0.0624999999999954
 40
0.1249999999999908
 40
0.1249999999999908
 40
0.2499999999999873
 40
0.2499999999999873
 40
0.3124999999999883
 40
0.3124999999999883
 40
0.3749999999999893
 40
0.3749999999999893
 40
0.4999999999999913
 40
0.4999999999999913
 40
0.5624999999999925
 40
0.5624999999999925
 40
0.6249999999999934
 40
0.6249999999999934
 40
0.6874999999999946
 40
0.6874999999999946
 40
0.7499999999999957
 40
0.7499999999999957
 40
0.8124999999999968
 40
0.8124999999999968
 40
0.8749999999999978
 40
0.8749999999999978
 40
0.9374999999999989
 40
0.9374999999999989
 40
1.0
 40
1.0
 40
1.0
 40
1.0
 10
209.2271323826386
 20
123.1217597615253
 30
0.0
 10
209.1250176268398
 20
123.0333807764536
 30
0.0
 10
209.0090459407229
 20
122.9576136156854
 30
0.0
 10
208.749538735174
 20
122.8333201579809
 30
0.0
 10
208.6092787124785
 20
122.7868518558916
 30
0.0
 10
208.1710464330859
 20
122.7015023301782
 30
0.0
 10
207.8559820810614
 20
122.7209168211745
 30
0.0
 10
207.4385335661056
 20
122.8554791543167
 30
0.0
 10
207.3058787439799
 20
122.9182037765399
 30
0.0
 10
207.0725171669519
 20
123.0679477419047
 30
0.0
 10
206.9684011137583
 20
123.1570726068489
 30
0.0
 10
206.7156836697009
 20
123.4448922776188
 30
0.0
 10
206.6219906662249
 20
123.6694844228067
 30
0.0
 10
206.6218643559008
 20
123.9890701179261
 30
0.0
 10
206.6441996720175
 20
124.0911533353856
 30
0.0
 10
206.7335135804404
 20
124.2844684730805
 30
0.0
 10
206.7984218854936
 20
124.3717039275967
 30
0.0
 10
206.9684314650505
 20
124.5296021328079
 30
0.0
 10
207.0705542548059
 20
124.5972054773539
 30
0.0
 10
207.3051340802757
 20
124.7103573652505
 30
0.0
 10
207.4363772995181
 20
124.7550074939723
 30
0.0
 10
207.715060686638
 20
124.8188952681765
 30
0.0
 10
207.8642076437804
 20
124.8383408991964
 30
0.0
 10
208.1625628403568
 20
124.850839749537
 30
0.0
 10
208.3156242776915
 20
124.8439807195878
 30
0.0
 10
208.6067345107279
 20
124.8047310960248
 30
0.0
 10
208.7490771707032
 20
124.7717540989299
 30
0.0
 10
209.006757558575
 20
124.6822302715864
 30
0.0
 10
209.1250149670403
 20
124.6249729630722
 30
0.0
 10
209.2271323826386
 20
124.5559672283702
 30
0.0
  0
SPLINE
  5
10A
330
1F
100
AcDbEntity
  8
0
  6
HIDDEN
 62
     7
370
     0
100
AcDbSpline
210
0.0
220
0.0
230
1.0
 70
     8
 71
     3
 72
     8
 73
     4
 74
     0
 42
0.00000001
 43
0.00000001
 40
0.0
 40
0.0
 40
0.0
 40
0.0
 40
1.0
 40
1.0
 40
1.0
 40
1.0
 10
209.2271323826386
 20
124.5559672283702
 30
0.0
 10
209.2771120112886
 20
124.5221935476036
 30
0.0
 10
209.3226814212344
 20
124.4795467830852
 30
0.0
 10
209.3639404399688
 20
124.4301897538603
 30
0.0
  0
SPLINE
  5
10B
330
1F
100
AcDbEntity
  8
0
  6
HIDDEN
 62
     7
370
     0
100
AcDbSpline
210
0.0
220
0.0
230
1.0
 70
     8
 71
     3
 72
    12
 73
     8
 74
     0
 42
0.00000001
 43
0.00000001
 40
0.0
 40
0.0
 40
0.0
 40
0.0
 40
0.2499999999999994
 40
0.2499999999999994
 40
0.4999999999999989
 40
0.4999999999999989
 40
1.0
 40
1.0
 40
1.0
 40
1.0
 10
209.3639404399688
 20
124.4301897538603
 30
0.0
 10
209.4476660056234
 20
124.3300311626568
 30
0.0
 10
209.5115466927045
 20
124.2270190353478
 30
0.0
 10
209.599459102016
 20
124.0133221478918
 30
0.0
 10
209.6217692726481
 20
123.9057436093192
 30
0.0
 10
209.6221787689357
 20
123.5895944702782
 30
0.0
 10
209.5313970075133
 20
123.3901833710646
 30
0.0
 10
209.3639404399688
 20
123.2407769193555
 30
0.0
  0
LINE
  5
10C
330
1F
100
AcDbEntity
  8
0
  6
HIDDEN
 62
     7
370
     0
100
AcDbLine
 10
210.1219064008
 20
110.0138517151
 30
0.0
 11
210.1219064008
 21
126.0138517151
 31
0.0
  0
SPLINE
  5
10D
330
1F
100
AcDbEntity
  8
0
  6
HIDDEN
 62
     7
370
     0
100
AcDbSpline
210
0.0
220
0.0
230
1.0
 70
     8
 71
     3
 72
    30
 73
    26
 74
     0
 42
0.00000001
 43
0.00000001
 40
0.0
 40
0.0
 40
0.0
 40
0.0
 40
0.053166600914142
 40
0.1125458528066813
 40
0.1779414041657192
 40
0.2129645531846707
 40
0.2495167047045554
 40
0.2912814364360284
 40
0.3261228556933173
 40
0.3540372501950241
 40
0.3750219727725061
 40
0.4414778636472261
 40
0.5001938960696238
 40
0.5547071440524417
 40
0.6144497518020494
 40
0.6794733539113366
 40
0.7140294317988489
 40
0.749925448356807
 40
0.7913888482141123
 40
0.8260548611594838
 40
0.8539197034802783
 40
0.8749805231518993
 40
0.9411652235858261
 40
0.999914159147364
 40
1.0
 40
1.0
 40
1.0
 40
1.0
 10
86.12148291420252
 20
80.91391481960758
 30
0.0
 10
86.10528142522774
 20
80.91881695782737
 30
0.0
 10
86.07098526256071
 20
80.92919406144199
 30
0.0
 10
85.76963890132022
 20
81.00485526414683
 30
0.0
 10
85.3274666637576
 20
81.1011423899891
 30
0.0
 10
84.83263448834047
 20
81.20080710075256
 30
0.0
 10
84.36215868901932
 20
81.29308527338351
 30
0.0
 10
83.8312373029819
 20
81.38871729832337
 30
0.0
 10
83.29308679196336
 20
81.47436754318814
 30
0.0
 10
82.83503945943681
 20
81.54165933584989
 30
0.0
 10
82.1794751378808
 20
81.6300075049086
 30
0.0
 10
81.29616870025653
 20
81.72666558907781
 30
0.0
 10
80.16750696736193
 20
81.81344076587207
 30
0.0
 10
79.07774521757469
 20
81.85151946358555
 30
0.0
 10
77.98171693906548
 20
81.85336989835959
 30
0.0
 10
77.07632569218114
 20
81.8272084427698
 30
0.0
 10
76.38002298188073
 20
81.79060121763231
 30
0.0
 10
75.85334325411094
 20
81.75158434217356
 30
0.0
 10
75.38669713955332
 20
81.70937521473442
 30
0.0
 10
75.01548186397618
 20
81.6723711251925
 30
0.0
 10
74.76143538629887
 20
81.64367036472295
 30
0.0
 10
74.46038023317462
 20
81.60729041409832
 30
0.0
 10
74.20489643820491
 20
81.574510247064
 30
0.0
 10
74.10567571325333
 20
81.55817236237492
 30
0.0
 10
74.12195627053893
 20
81.56076594854764
 30
0.0
 10
74.12198002412488
 20
81.56076973263015
 30
0.0
  0
SPLINE
  5
10E
330
1F
100
AcDbEntity
  8
0
  6
HIDDEN
 62
     7
370
     0
100
AcDbSpline
210
0.0
220
0.0
230
1.0
 70
     8
 71
     3
 72
    30
 73
    26
 74
     0
 42
0.00000001
 43
0.00000001
 40
0.0
 40
0.0
 40
0.0
 40
0.0
 40
0.0001123288057703
 40
0.0285431152705844
 40
0.0588466796120131
 40
0.0910271964547459
 40
0.1250880910051619
 40
0.1546766142050755
 40
0.1963554561038648
 40
0.2501101496293333
 40
0.320525387231383
 40
0.3856104300152758
 40
0.4454038608822034
 40
0.4999571692318149
 40
0.5283494388509106
 40
0.5586340270286629
 40
0.5908185964995328
 40
0.6249094714583253
 40
0.6541844575486715
 40
0.6958630078269572
 40
0.7499307292181142
 40
0.8215905285759156
 40
0.887142290980208
 40
0.946637874893249
 40
1.0
 40
1.0
 40
1.0
 40
1.0
 10
74.12200173285814
 20
154.4668634241158
 30
0.0
 10
74.12196987310001
 20
154.466870371242
 30
0.0
 10
74.1138742048319
 20
154.4686356586349
 30
0.0
 10
74.14253568250095
 20
154.4631807399095
 30
0.0
 10
74.2159225286702
 20
154.4526378925636
 30
0.0
 10
74.35957907222307
 20
154.4329526849116
 30
0.0
 10
74.56061477228843
 20
154.4081134210359
 30
0.0
 10
74.84324532174841
 20
154.3739049558849
 30
0.0
 10
75.25665444744071
 20
154.3302250591265
 30
0.0
 10
75.93294194843061
 20
154.2671819916049
 30
0.0
 10
76.87137284901597
 20
154.2058848211796
 30
0.0
 10
77.98086606245602
 20
154.1745963776777
 30
0.0
 10
79.0783467931815
 20
154.1762515452783
 30
0.0
 10
79.9783780316986
 20
154.2075577473807
 30
0.0
 10
80.68971895759326
 20
154.2543908961853
 30
0.0
 10
81.25513585858305
 20
154.3015577580812
 30
0.0
 10
81.84405928141236
 20
154.3609967646321
 30
0.0
 10
82.40846893367397
 20
154.4273539712113
 30
0.0
 10
83.00266512741567
 20
154.5092733776206
 30
0.0
 10
83.66927328843302
 20
154.6109213603717
 30
0.0
 10
84.47060603438628
 20
154.753060270996
 30
0.0
 10
85.22311601906424
 20
154.9043048417838
 30
0.0
 10
85.76840251402209
 20
155.0221557150441
 30
0.0
 10
86.07112404548278
 20
155.0983849467951
 30
0.0
 10
86.10541449608915
 20
155.1088372562909
 30
0.0
 10
86.12162793273531
 20
155.1137793860915
 30
0.0
  0
SPLINE
  5
10F
330
1F
100
AcDbEntity
  8
0
  6
HIDDEN
 62
     7
370
     0
100
AcDbSpline
210
0.0
220
0.0
230
1.0
 70
     8
 71
     3
 72
     8
 73
     4
 74
     0
 42
0.00000001
 43
0.00000001
 40
0.0
 40
0.0
 40
0.0
 40
0.0
 40
1.0
 40
1.0
 40
1.0
 40
1.0
 10
209.3639404399688
 20
123.2407769193555
 30
0.0
 10
209.3226814212344
 20
123.2039652034551
 30
0.0
 10
209.2771120112886
 20
123.1650164761872
 30
0.0
 10
209.2271323826386
 20
123.1217597615253
 30
0.0
  0
LINE
  5
110
330
1F
100
AcDbEntity
  8
0
  6
HIDDEN
 62
     7
370
     0
100
AcDbLine
 10
166.5719064008
 20
141.9994601912
 30
0.0
 11
161.5719064008
 21
141.9994601912
 31
0.0
  0
LINE
  5
111
330
1F
100
AcDbEntity
  8
0
  6
HIDDEN
 62
     7
370
     0
100
AcDbLine
 10
164.0719064008
 20
94.028243239
 30
0.0
 11
166.5719064008
 21
94.028243239
 31
0.0
  0
LINE
  5
112
330
1F
100
AcDbEntity
  8
0
  6
HIDDEN
 62
     7
370
     0
100
AcDbLine
 10
161.5719064008
 20
94.028243239
 30
0.0
 11
164.0719064008
 21
94.028243239
 31
0.0
  0
LINE
  5
113
330
1F
100
AcDbEntity
  8
0
  6
HIDDEN
 62
     7
370
     0
100
AcDbLine
 10
164.0719064008
 20
105.528243239
 30
0.0
 11
166.5719064008
 21
105.528243239
 31
0.0
  0
LINE
  5
114
330
1F
100
AcDbEntity
  8
0
  6
HIDDEN
 62
     7
370
     0
100
AcDbLine
 10
161.5719064008
 20
105.528243239
 30
0.0
 11
164.0719064008
 21
105.528243239
 31
0.0
  0
LINE
  5
115
330
1F
100
AcDbEntity
  8
0
  6
HIDDEN
 62
     7
370
     0
100
AcDbLine
 10
166.5719064008
 20
130.4994601912
 30
0.0
 11
161.5719064008
 21
130.4994601912
 31
0.0
  0
LWPOLYLINE
  5
116
330
1F
100
AcDbEntity
  8
0
  6
HIDDEN
 62
     7
370
     0
100
AcDbPolyline
 90
       15
 70
   128
 43
0.0
 10
209.5887937525
 20
129.5491922259
 10
209.3346239374
 20
129.9517862053
 10
208.8709147931
 20
130.2465233331
 10
208.2777882771
 20
130.3824774716
 10
207.6577277202
 20
130.336157793
 10
207.1178702496
 20
130.1155676402
 10
206.7514951073
 20
129.75882167
 10
206.6219064008
 20
129.3275602141
 10
206.7514951073
 20
128.8962987582
 10
207.1178702496
 20
128.5395527879
 10
207.6577277202
 20
128.3189626351
 10
208.2777882771
 20
128.2726429565
 10
208.8709147931
 20
128.408597095
 10
209.3346239374
 20
128.7033342228
 10
209.5887937525
 20
129.1059282023
  0
SPLINE
  5
117
330
1F
100
AcDbEntity
  8
0
  6
HIDDEN
 62
     7
370
     0
100
AcDbSpline
210
0.0
220
0.0
230
1.0
 70
     8
 71
     3
 72
    46
 73
    42
 74
     0
 42
0.00000001
 43
0.00000001
 40
0.0
 40
0.0
 40
0.0
 40
0.0
 40
0.0625000000000013
 40
0.0625000000000013
 40
0.1250000000000026
 40
0.1250000000000026
 40
0.156250000000002
 40
0.156250000000002
 40
0.1875000000000013
 40
0.1875000000000013
 40
0.2187500000000006
 40
0.2187500000000006
 40
0.2499999999999999
 40
0.2499999999999999
 40
0.3124999999999991
 40
0.3124999999999991
 40
0.3749999999999982
 40
0.3749999999999982
 40
0.4374999999999974
 40
0.4374999999999974
 40
0.4687499999999974
 40
0.4687499999999974
 40
0.4999999999999975
 40
0.4999999999999975
 40
0.5624999999999977
 40
0.5624999999999977
 40
0.6249999999999978
 40
0.6249999999999978
 40
0.6874999999999979
 40
0.6874999999999979
 40
0.7499999999999979
 40
0.7499999999999979
 40
0.7812499999999976
 40
0.7812499999999976
 40
0.8124999999999972
 40
0.8124999999999972
 40
0.8749999999999982
 40
0.8749999999999982
 40
0.9374999999999991
 40
0.9374999999999991
 40
1.0
 40
1.0
 40
1.0
 40
1.0
 10
209.5887937525032
 20
129.1059282022927
 30
0.0
 10
209.5556618719763
 20
128.9687838656086
 30
0.0
 10
209.5005485802716
 20
128.8248698487912
 30
0.0
 10
209.3662906182785
 20
128.5349405176003
 30
0.0
 10
209.2877224972899
 20
128.3909954108791
 30
0.0
 10
209.1722894886595
 20
128.1820308392607
 30
0.0
 10
209.1343373604573
 20
128.1136502558323
 30
0.0
 10
209.0634300358895
 20
127.9777083608171
 30
0.0
 10
209.0302562489061
 20
127.9096212706069
 30
0.0
 10
208.9787228858418
 20
127.7781062782609
 30
0.0
 10
208.9601334242468
 20
127.7129143849978
 30
0.0
 10
208.9473124523409
 20
127.5936970783278
 30
0.0
 10
208.9530666766975
 20
127.5382144725261
 30
0.0
 10
209.0009257635575
 20
127.3946810309008
 30
0.0
 10
209.069436251258
 20
127.3281943375753
 30
0.0
 10
209.2139552172669
 20
127.243248301517
 30
0.0
 10
209.2929729365213
 20
127.2236811427554
 30
0.0
 10
209.4351969231159
 20
127.233135769466
 30
0.0
 10
209.5006483880254
 20
127.2628145047664
 30
0.0
 10
209.5706665619516
 20
127.3510445934608
 30
0.0
 10
209.589655904387
 20
127.3884296690704
 30
0.0
 10
209.6150133976377
 20
127.4759716178669
 30
0.0
 10
209.6217469797161
 20
127.5262888074918
 30
0.0
 10
209.6222169166153
 20
127.6986159550863
 30
0.0
 10
209.5949494891894
 20
127.8358535344875
 30
0.0
 10
209.5019941562006
 20
128.1215378947442
 30
0.0
 10
209.4367708318314
 20
128.2702626624999
 30
0.0
 10
209.2944731275107
 20
128.5585531635699
 30
0.0
 10
209.2154486191252
 20
128.7014375498952
 30
0.0
 10
209.0706091313089
 20
128.9762522244701
 30
0.0
 10
209.0017435931466
 20
129.1121332977759
 30
0.0
 10
208.9531215449298
 20
129.3036398568108
 30
0.0
 10
208.9472279867698
 20
129.363419403797
 30
0.0
 10
208.9600572930786
 20
129.4723703522336
 30
0.0
 10
208.9782727198619
 20
129.5190620747157
 30
0.0
 10
209.0561270868358
 20
129.6380126134021
 30
0.0
 10
209.1337355540138
 20
129.6862298984331
 30
0.0
 10
209.2876822019527
 20
129.7351616871515
 30
0.0
 10
209.365786388287
 20
129.7355012020381
 30
0.0
 10
209.4999567382285
 20
129.6837295991952
 30
0.0
 10
209.5556810112502
 20
129.6312861640428
 30
0.0
 10
209.5887937525032
 20
129.5491922258517
 30
0.0
  0
SPLINE
  5
118
330
1F
100
AcDbEntity
  8
0
  6
HIDDEN
 62
     7
370
     0
100
AcDbSpline
210
0.0
220
0.0
230
1.0
 70
     8
 71
     3
 72
    14
 73
    10
 74
     0
 42
0.00000001
 43
0.00000001
 40
0.0
 40
0.0
 40
0.0
 40
0.0
 40
0.25
 40
0.25
 40
0.5
 40
0.5
 40
0.75
 40
0.75
 40
1.0
 40
1.0
 40
1.0
 40
1.0
 10
207.1767258192099
 20
128.0357469208485
 30
0.0
 10
207.140256823576
 20
128.0028979443527
 30
0.0
 10
207.105313891416
 20
127.9712820999993
 30
0.0
 10
207.0455765500712
 20
127.9004849570294
 30
0.0
 10
207.0202873507481
 20
127.8605431550603
 30
0.0
 10
207.010800251517
 20
127.7427947972428
 30
0.0
 10
207.0282952542699
 20
127.6664982442663
 30
0.0
 10
207.0764898235274
 20
127.5151617413313
 30
0.0
 10
207.106542373505
 20
127.4390917669014
 30
0.0
 10
207.1381263322324
 20
127.3639892460847
 30
0.0
  0
SPLINE
  5
119
330
1F
100
AcDbEntity
  8
0
  6
HIDDEN
 62
     7
370
     0
100
AcDbSpline
210
0.0
220
0.0
230
1.0
 70
     8
 71
     3
 72
    10
 73
     6
 74
     0
 42
0.00000001
 43
0.00000001
 40
0.0
 40
0.0
 40
0.0
 40
0.0
 40
0.5
 40
0.5
 40
1.0
 40
1.0
 40
1.0
 40
1.0
 10
207.1381263322341
 20
127.3639892460831
 30
0.0
 10
207.2166066502865
 20
127.4167880043787
 30
0.0
 10
207.2830167103823
 20
127.5019463575523
 30
0.0
 10
207.3004605725113
 20
127.7433959621591
 30
0.0
 10
207.247900203786
 20
127.8880071054258
 30
0.0
 10
207.1767258192102
 20
128.0357469208488
 30
0.0
  0
SPLINE
  5
11A
330
1F
100
AcDbEntity
  8
0
  6
HIDDEN
 62
     7
370
     0
100
AcDbSpline
210
0.0
220
0.0
230
1.0
 70
     8
 71
     3
 72
    10
 73
     6
 74
     0
 42
0.00000001
 43
0.00000001
 40
0.0
 40
0.0
 40
0.0
 40
0.0
 40
0.5041480232556407
 40
0.9976150031745452
 40
0.9999999999999999
 40
0.9999999999999999
 40
0.9999999999999999
 40
0.9999999999999999
 10
206.6412968254943
 20
128.5817406923018
 30
0.0
 10
206.6340462707103
 20
128.6375607882646
 30
0.0
 10
206.6196987737445
 20
128.7480183575543
 30
0.0
 10
206.6192395239879
 20
128.8439539855317
 30
0.0
 10
206.6271698953571
 20
128.8682696770165
 30
0.0
 10
206.6272080396247
 20
128.8683866329826
 30
0.0
  0
SPLINE
  5
11B
330
1F
100
AcDbEntity
  8
0
  6
HIDDEN
 62
     7
370
     0
100
AcDbSpline
210
0.0
220
0.0
230
1.0
 70
     8
 71
     3
 72
    18
 73
    14
 74
     0
 42
0.00000001
 43
0.00000001
 40
0.0
 40
0.0
 40
0.0
 40
0.0
 40
0.0034843705631311
 40
0.144745679635331
 40
0.2135437618055764
 40
0.2697776213436759
 40
0.3264104371965447
 40
0.3870862909225962
 40
0.4810758529987571
 40
0.6213704360341087
 40
0.763846655659686
 40
0.9105219170619436
 40
1.0
 40
1.0
 40
1.0
 40
1.0
 10
206.6490782384589
 20
128.9356576690936
 30
0.0
 10
206.6492764680097
 20
128.9362765850992
 30
0.0
 10
206.6575112038206
 20
128.9619872310375
 30
0.0
 10
206.6798752981171
 20
128.9612462152412
 30
0.0
 10
206.700262728735
 20
128.9388210217648
 30
0.0
 10
206.7085793571712
 20
128.8990413529041
 30
0.0
 10
206.7061934384663
 20
128.8382802096387
 30
0.0
 10
206.6919446804542
 20
128.7482810021071
 30
0.0
 10
206.6645570913208
 20
128.617243373387
 30
0.0
 10
206.6334475418889
 20
128.4550915597353
 30
0.0
 10
206.6181306801977
 20
128.2953284472781
 30
0.0
 10
206.6252491679174
 20
128.1820797189028
 30
0.0
 10
206.6435491559341
 20
128.1515820916449
 30
0.0
 10
206.6504829889065
 20
128.140026594818
 30
0.0
  0
LWPOLYLINE
  5
11C
330
1F
100
AcDbEntity
  8
0
  6
HIDDEN
 62
     7
370
     0
100
AcDbPolyline
 90
        8
 70
   128
 43
0.0
 10
206.6622705111
 20
128.1146937705
 10
206.6880175949
 20
128.1092881923
 10
206.7019834725
 20
128.1305916574
 10
206.7071713526
 20
128.1672762871
 10
206.7046215055
 20
128.2208146739
 10
206.6922286569
 20
128.3049801025
 10
206.6648960514
 20
128.4485663928
 10
206.6412968255
 20
128.5817406923
  0
SPLINE
  5
11D
330
1F
100
AcDbEntity
  8
0
  6
HIDDEN
 62
     7
370
     0
100
AcDbSpline
210
0.0
220
0.0
230
1.0
 70
     8
 71
     3
 72
    14
 73
    10
 74
     0
 42
0.00000001
 43
0.00000001
 40
0.0
 40
0.0
 40
0.0
 40
0.0
 40
0.25
 40
0.25
 40
0.5
 40
0.5
 40
0.75
 40
0.75
 40
1.0
 40
1.0
 40
1.0
 40
1.0
 10
207.1381263322337
 20
128.965349153647
 30
0.0
 10
207.1064796029515
 20
129.0017172066736
 30
0.0
 10
207.076282274375
 20
129.03747056021
 30
0.0
 10
207.0282086695503
 20
129.1194376671413
 30
0.0
 10
207.0107232012188
 20
129.1681166319636
 30
0.0
 10
207.0204330375782
 20
129.3010775095246
 30
0.0
 10
207.0457578118158
 20
129.3796851281174
 30
0.0
 10
207.1054528285152
 20
129.5325323087947
 30
0.0
 10
207.1403157569305
 20
129.6083659222977
 30
0.0
 10
207.1767258192097
 20
129.682946768022
 30
0.0
  0
SPLINE
  5
11E
330
1F
100
AcDbEntity
  8
0
  6
HIDDEN
 62
     7
370
     0
100
AcDbSpline
210
0.0
220
0.0
230
1.0
 70
     8
 71
     3
 72
    14
 73
    10
 74
     0
 42
0.00000001
 43
0.00000001
 40
0.0
 40
0.0
 40
0.0
 40
0.0
 40
0.25
 40
0.25
 40
0.5
 40
0.5
 40
0.75
 40
0.75
 40
1.0
 40
1.0
 40
1.0
 40
1.0
 10
207.1767258192101
 20
129.6829467680225
 30
0.0
 10
207.2122990731612
 20
129.6499304065945
 30
0.0
 10
207.2432009041802
 20
129.6098796320677
 30
0.0
 10
207.2857550247603
 20
129.5114169899611
 30
0.0
 10
207.2959816749199
 20
129.4546013393364
 30
0.0
 10
207.2876475684233
 20
129.3266639745289
 30
0.0
 10
207.2690299315886
 20
129.256930877789
 30
0.0
 10
207.2135245490358
 20
129.1134121111436
 30
0.0
 10
207.1774318996763
 20
129.040086532426
 30
0.0
 10
207.138126332234
 20
128.9653491536455
 30
0.0
  0
SPLINE
  5
11F
330
1F
100
AcDbEntity
  8
0
  6
HIDDEN
 62
     7
370
     0
100
AcDbSpline
210
0.0
220
0.0
230
1.0
 70
     8
 71
     3
 72
    10
 73
     6
 74
     0
 42
0.00000001
 43
0.00000001
 40
0.0
 40
0.0
 40
0.0
 40
0.0
 40
0.5
 40
0.5
 40
1.0
 40
1.0
 40
1.0
 40
1.0
 10
209.5887937525032
 20
129.5491922258517
 30
0.0
 10
209.5644791500179
 20
129.4976243088764
 30
0.0
 10
209.553066419527
 20
129.4319548686024
 30
0.0
 10
209.5530457287651
 20
129.281874090969
 30
0.0
 10
209.5644067010434
 20
129.1956772786875
 30
0.0
 10
209.5887937525032
 20
129.1059282022927
 30
0.0
  0
ARC
  5
120
330
1F
100
AcDbEntity
  8
0
  6
HIDDEN
 62
     7
370
     0
100
AcDbCircle
 10
223.3460970825
 20
128.4533613484
 30
0.0
 40
16.21605523408756
100
AcDbArc
 50
175.6513629474
 51
178.1907057002
  0
LWPOLYLINE
  5
121
330
1F
100
AcDbEntity
  8
0
  6
HIDDEN
 62
     7
370
     0
100
AcDbPolyline
 90
       28
 70
   128
 43
0.0
 10
104.1219064008
 20
163.3265575669
 10
105.2749857545
 20
163.2849096015
 10
106.3659023018
 20
163.1622109579
 10
107.3358444492
 20
162.9650763518
 10
108.1325223645
 20
162.7041333609
 10
108.7129869352
 20
162.3934494892
 10
109.0459451658
 20
162.0497737847
 10
109.1134471921
 20
161.6916338936
 10
108.9118539623
 20
161.3383372302
 10
108.4520334197
 20
161.0089301091
 10
107.7587746086
 20
160.7211709532
 10
106.8694512911
 20
160.4905729334
 10
105.8320071174
 20
160.3295676484
 10
104.7023709714
 20
160.246834935
 10
103.5414418301
 20
160.246834935
 10
102.4118056841
 20
160.3295676484
 10
101.3743615104
 20
160.4905729334
 10
100.4850381929
 20
160.7211709532
 10
99.7917793818
 20
161.0089301091
 10
99.3319588392
 20
161.3383372302
 10
99.1303656094
 20
161.6916338936
 10
99.1978676357
 20
162.0497737847
 10
99.5308258664
 20
162.3934494892
 10
100.111290437
 20
162.7041333609
 10
100.9079683523
 20
162.9650763518
 10
101.8779104998
 20
163.1622109579
 10
102.968827047
 20
163.2849096015
 10
104.1219064008
 20
163.3265575669
  0
LINE
  5
122
330
1F
100
AcDbEntity
  8
0
  6
HIDDEN
 62
     7
370
     0
100
AcDbLine
 10
117.0319064008
 20
152.7280869076
 30
0.0
 11
117.0319064008
 21
149.3638517151
 31
0.0
  0
LINE
  5
123
330
1F
100
AcDbEntity
  8
0
  6
HIDDEN
 62
     7
370
     0
100
AcDbLine
 10
113.2119064008
 20
152.7280869076
 30
0.0
 11
113.2119064008
 21
149.3638517151
 31
0.0
  0
LINE
  5
124
330
1F
100
AcDbEntity
  8
0
  6
HIDDEN
 62
     7
370
     0
100
AcDbLine
 10
118.3839354217
 20
156.964814476
 30
0.0
 11
118.3839354217
 21
149.3638517151
 31
0.0
  0
ARC
  5
125
330
1F
100
AcDbEntity
  8
0
  6
HIDDEN
 62
     7
370
     0
100
AcDbCircle
 10
193.9990628543
 20
128.4559533339
 30
0.0
 40
13.18436098740832
100
AcDbArc
 50
355.2491680305
 51
358.1735836914
  0
CIRCLE
  5
126
330
1F
100
AcDbEntity
  8
0
  6
HIDDEN
 62
     7
370
     0
100
AcDbCircle
 10
102.1219064008
 20
118.0138517151
 30
0.0
 40
5.000000000000014
  0
ARC
  5
127
330
1F
100
AcDbEntity
  8
0
  6
HIDDEN
 62
     7
370
     0
100
AcDbCircle
 10
231.6219064008
 20
118.0138517151
 30
0.0
 40
6.999999999999994
100
AcDbArc
 50
216.8155869364
 51
245.8431816966
  0
ARC
  5
128
330
1F
100
AcDbEntity
  8
0
  6
HIDDEN
 62
     7
370
     0
100
AcDbCircle
 10
231.6219064008
 20
118.0138517151
 30
0.0
 40
6.999999999999999
100
AcDbArc
 50
281.6557228408
 51
78.3442771592
  0
ARC
  5
129
330
1F
100
AcDbEntity
  8
0
  6
HIDDEN
 62
     7
370
     0
100
AcDbCircle
 10
231.6219064008
 20
118.0138517151
 30
0.0
 40
7.000000000000005
100
AcDbArc
 50
112.9785031875
 51
216.8155869364
  0
CIRCLE
  5
12A
330
1F
100
AcDbEntity
  8
0
  6
HIDDEN
 62
     7
370
     0
100
AcDbCircle
 10
231.6219064008
 20
118.0138517151
 30
0.0
 40
4.999999999999985
  0
CIRCLE
  5
12B
330
1F
100
AcDbEntity
  8
0
  6
HIDDEN
 62
     7
370
     0
100
AcDbCircle
 10
231.6219064008
 20
118.0138517151
 30
0.0
 40
3.75
  0
LWPOLYLINE
  5
12C
330
1F
100
AcDbEntity
  8
0
  6
HIDDEN
 62
     7
370
     0
100
AcDbPolyline
 90
        3
 70
   128
 43
0.0
 10
255.0924615389
 20
126.3447411969
 10
255.1107834058
 20
126.7401210571
 10
255.1219064008
 20
127.0570231643
  0
LWPOLYLINE
  5
12D
330
1F
100
AcDbEntity
  8
0
  6
HIDDEN
 62
     7
370
     0
100
AcDbPolyline
 90
       12
 70
   128
 43
0.0
 10
255.1219064008
 20
128.41693511
 10
255.1107834058
 20
128.3334745928
 10
255.0924615389
 20
128.0693746362
 10
255.0741396721
 20
127.673994776
 10
255.0586071434
 20
127.2075280117
 10
255.0482286395
 20
126.7409896797
 10
255.0445841936
 20
126.3454060118
 10
255.0482286395
 20
126.0810010356
 10
255.0586071434
 20
125.9880280117
 10
255.0741396721
 20
126.0806412403
 10
255.0924615389
 20
126.3447411969
 10
255.0924615389
 20
126.3447411969
  0
LWPOLYLINE
  5
12E
330
1F
100
AcDbEntity
  8
0
  6
HIDDEN
 62
     7
370
     0
100
AcDbPolyline
 90
       17
 70
   128
 43
0.0
 10
254.9306396435
 20
126.1508935294
 10
254.9531757651
 20
126.6372156207
 10
254.9722809664
 20
127.2109754783
 10
254.9850466539
 20
127.7848233652
 10
254.9895293671
 20
128.2713961424
 10
254.9850466539
 20
128.5966175154
 10
254.9722809664
 20
128.7109754783
 10
254.9531757651
 20
128.597060068
 10
254.9306396435
 20
128.2722138729
 10
254.9081035219
 20
127.7858917816
 10
254.8889983206
 20
127.212131924
 10
254.8762326332
 20
126.6382840371
 10
254.8717499199
 20
126.1517112599
 10
254.8762326332
 20
125.8264898869
 10
254.8889983206
 20
125.712131924
 10
254.9081035219
 20
125.8260473343
 10
254.9306396435
 20
126.1508935294
  0
LWPOLYLINE
  5
12F
330
1F
100
AcDbEntity
  8
0
  6
HIDDEN
 62
     7
370
     0
100
AcDbPolyline
 90
       17
 70
   128
 43
0.0
 10
249.5967018396
 20
126.2990825955
 10
249.6192379612
 20
126.7854046868
 10
249.6383431625
 20
127.3591645445
 10
249.65110885
 20
127.9330124313
 10
249.6555915633
 20
128.4195852085
 10
249.65110885
 20
128.7448065815
 10
249.6383431625
 20
128.8591645445
 10
249.6192379612
 20
128.7452491341
 10
249.5967018396
 20
128.4204029391
 10
249.574165718
 20
127.9340808478
 10
249.5550605167
 20
127.3603209901
 10
249.5422948293
 20
126.7864731032
 10
249.537812116
 20
126.299900326
 10
249.5422948293
 20
125.974678953
 10
249.5550605167
 20
125.8603209901
 10
249.574165718
 20
125.9742364004
 10
249.5967018396
 20
126.2990825955
  0
LWPOLYLINE
  5
130
330
1F
100
AcDbEntity
  8
0
  6
HIDDEN
 62
     7
370
     0
100
AcDbPolyline
 90
       17
 70
   128
 43
0.0
 10
249.0970873215
 20
126.6665164271
 10
249.1121114025
 20
126.9907311546
 10
249.1248482034
 20
127.3732377264
 10
249.1333586617
 20
127.7558029843
 10
249.1363471373
 20
128.0801848357
 10
249.1333586617
 20
128.2969990844
 10
249.1248482034
 20
128.3732377264
 10
249.1121114025
 20
128.2972941195
 10
249.0970873215
 20
128.0807299894
 10
249.0820632404
 20
127.7565152619
 10
249.0693264395
 20
127.3740086901
 10
249.0608159813
 20
126.9914434322
 10
249.0578275057
 20
126.6670615808
 10
249.0608159813
 20
126.4502473321
 10
249.0693264395
 20
126.3740086901
 10
249.0820632404
 20
126.449952297
 10
249.0970873215
 20
126.6665164271
  0
LINE
  5
131
330
1F
100
AcDbEntity
  8
0
  6
HIDDEN
 62
     7
370
     0
100
AcDbLine
 10
255.1219064008
 20
128.043165355
 30
0.0
 11
255.0924615389
 21
127.8194303522
 31
0.0
  0
LINE
  5
132
330
1F
100
AcDbEntity
  8
0
  6
HIDDEN
 62
     7
370
     0
100
AcDbLine
 10
255.0630166771
 20
126.9833229138
 30
0.0
 11
255.0924615389
 21
127.8194303522
 31
0.0
  0
LINE
  5
133
330
1F
100
AcDbEntity
  8
0
  6
HIDDEN
 62
     7
370
     0
100
AcDbLine
 10
255.0630166771
 20
126.3709504781
 30
0.0
 11
255.0630166771
 21
126.9833229138
 31
0.0
  0
LINE
  5
134
330
1F
100
AcDbEntity
  8
0
  6
HIDDEN
 62
     7
370
     0
100
AcDbLine
 10
255.0630166771
 20
126.3709504781
 30
0.0
 11
255.0924615389
 21
126.5946854808
 31
0.0
  0
LINE
  5
135
330
1F
100
AcDbEntity
  8
0
  6
HIDDEN
 62
     7
370
     0
100
AcDbLine
 10
255.1219064008
 20
127.4307929193
 30
0.0
 11
255.0924615389
 21
126.5946854808
 31
0.0
  0
LINE
  5
136
330
1F
100
AcDbEntity
  8
0
  6
HIDDEN
 62
     7
370
     0
100
AcDbLine
 10
253.0645586046
 20
126.426472242
 30
0.0
 11
253.0940034665
 21
126.6502072447
 31
0.0
  0
LINE
  5
137
330
1F
100
AcDbEntity
  8
0
  6
HIDDEN
 62
     7
370
     0
100
AcDbLine
 10
253.0645586046
 20
126.426472242
 30
0.0
 11
253.0645586046
 21
127.0388446777
 31
0.0
  0
LINE
  5
138
330
1F
100
AcDbEntity
  8
0
  6
HIDDEN
 62
     7
370
     0
100
AcDbLine
 10
253.1234483283
 20
128.0986871189
 30
0.0
 11
253.0940034665
 21
127.8749521161
 31
0.0
  0
LINE
  5
139
330
1F
100
AcDbEntity
  8
0
  6
HIDDEN
 62
     7
370
     0
100
AcDbLine
 10
253.1234483283
 20
127.4863146832
 30
0.0
 11
253.1234483283
 21
128.0986871189
 31
0.0
  0
LINE
  5
13A
330
1F
100
AcDbEntity
  8
0
  6
HIDDEN
 62
     7
370
     0
100
AcDbLine
 10
253.1234483283
 20
127.4863146832
 30
0.0
 11
253.0940034665
 21
126.6502072447
 31
0.0
  0
LINE
  5
13B
330
1F
100
AcDbEntity
  8
0
  6
HIDDEN
 62
     7
370
     0
100
AcDbLine
 10
253.0645586046
 20
127.0388446777
 30
0.0
 11
253.0940034665
 21
127.8749521161
 31
0.0
  0
LINE
  5
13C
330
1F
100
AcDbEntity
  8
0
  6
HIDDEN
 62
     7
370
     0
100
AcDbLine
 10
253.0645586046
 20
127.0388446777
 30
0.0
 11
255.0630166771
 21
126.9833229138
 31
0.0
  0
LINE
  5
13D
330
1F
100
AcDbEntity
  8
0
  6
HIDDEN
 62
     7
370
     0
100
AcDbLine
 10
253.0940034665
 20
127.8749521161
 30
0.0
 11
255.0924615389
 21
127.8194303522
 31
0.0
  0
LINE
  5
13E
330
1F
100
AcDbEntity
  8
0
  6
HIDDEN
 62
     7
370
     0
100
AcDbLine
 10
253.0940034665
 20
126.6502072447
 30
0.0
 11
255.0924615389
 21
126.5946854808
 31
0.0
  0
LINE
  5
13F
330
1F
100
AcDbEntity
  8
0
  6
HIDDEN
 62
     7
370
     0
100
AcDbLine
 10
253.0645586046
 20
126.426472242
 30
0.0
 11
255.0630166771
 21
126.3709504781
 31
0.0
  0
LINE
  5
140
330
1F
100
AcDbEntity
  8
0
  6
HIDDEN
 62
     7
370
     0
100
AcDbLine
 10
253.1234483283
 20
127.4863146832
 30
0.0
 11
255.1219064008
 21
127.4307929193
 31
0.0
  0
LINE
  5
141
330
1F
100
AcDbEntity
  8
0
  6
HIDDEN
 62
     7
370
     0
100
AcDbLine
 10
253.1234483283
 20
128.0986871189
 30
0.0
 11
255.1219064008
 21
128.043165355
 31
0.0
  0
LWPOLYLINE
  5
142
330
1F
100
AcDbEntity
  8
0
  6
HIDDEN
 62
     7
370
     0
100
AcDbPolyline
 90
       17
 70
   128
 43
0.0
 10
249.6555915633
 20
107.6089365832
 10
249.6330554417
 20
108.0952586745
 10
249.6139502403
 20
108.6690185321
 10
249.6011845529
 20
109.242866419
 10
249.5967018396
 20
109.7294391962
 10
249.6011845529
 20
110.0546605692
 10
249.6139502403
 20
110.1690185321
 10
249.6330554417
 20
110.0551031218
 10
249.6555915633
 20
109.7302569267
 10
249.6781276848
 20
109.2439348354
 10
249.6972328862
 20
108.6701749778
 10
249.7099985736
 20
108.0963270909
 10
249.7144812869
 20
107.6097543137
 10
249.7099985736
 20
107.2845329407
 10
249.6972328862
 20
107.1701749778
 10
249.6781276848
 20
107.2840903881
 10
249.6555915633
 20
107.6089365832
  0
LWPOLYLINE
  5
143
330
1F
100
AcDbEntity
  8
0
  6
HIDDEN
 62
     7
370
     0
100
AcDbPolyline
 90
       17
 70
   128
 43
0.0
 10
249.1559770451
 20
107.9486095328
 10
249.1409529641
 20
108.2728242603
 10
249.1282161632
 20
108.6553308321
 10
249.1197057049
 20
109.03789609
 10
249.1167172294
 20
109.3622779415
 10
249.1197057049
 20
109.5790921901
 10
249.1282161632
 20
109.6553308321
 10
249.1409529641
 20
109.5793872252
 10
249.1559770451
 20
109.3628230952
 10
249.1710011262
 20
109.0386083676
 10
249.1837379271
 20
108.6561017959
 10
249.1922483854
 20
108.273536538
 10
249.1952368609
 20
107.9491546865
 10
249.1922483854
 20
107.7323404378
 10
249.1837379271
 20
107.6561017959
 10
249.1710011262
 20
107.7320454028
 10
249.1559770451
 20
107.9486095328
  0
LWPOLYLINE
  5
144
330
1F
100
AcDbEntity
  8
0
  6
HIDDEN
 62
     7
370
     0
100
AcDbPolyline
 90
       17
 70
   128
 43
0.0
 10
254.9895293671
 20
107.7571256493
 10
254.9669932456
 20
108.2434477406
 10
254.9478880442
 20
108.8172075982
 10
254.9351223568
 20
109.3910554851
 10
254.9306396435
 20
109.8776282623
 10
254.9351223568
 20
110.2028496353
 10
254.9478880442
 20
110.3172075982
 10
254.9669932456
 20
110.2032921879
 10
254.9895293671
 20
109.8784459928
 10
255.0120654887
 20
109.3921239015
 10
255.0311706901
 20
108.8183640439
 10
255.0439363775
 20
108.244516157
 10
255.0484190908
 20
107.7579433798
 10
255.0439363775
 20
107.4327220068
 10
255.0311706901
 20
107.3183640439
 10
255.0120654887
 20
107.4322794542
 10
254.9895293671
 20
107.7571256493
  0
LWPOLYLINE
  5
145
330
1F
100
AcDbEntity
  8
0
  6
HIDDEN
 62
     7
370
     0
100
AcDbPolyline
 90
        8
 70
   128
 43
0.0
 10
255.1513512626
 20
107.959964886
 10
255.1330293957
 20
108.3553447463
 10
255.117496867
 20
108.8218115105
 10
255.1071183632
 20
109.2883498425
 10
255.1034739173
 20
109.6839335104
 10
255.1071183632
 20
109.9483384867
 10
255.117496867
 20
110.0413115105
 10
255.1219064008
 20
110.0321587991
  0
LWPOLYLINE
  5
146
330
1F
100
AcDbEntity
  8
0
  6
HIDDEN
 62
     7
370
     0
100
AcDbPolyline
 90
        4
 70
   128
 43
0.0
 10
255.1868073364
 20
107.6047082993
 10
255.1852056581
 20
107.6032517008
 10
255.1696731294
 20
107.6958649295
 10
255.1513512626
 20
107.959964886
  0
LINE
  5
147
330
1F
100
AcDbEntity
  8
0
  6
HIDDEN
 62
     7
370
     0
100
AcDbLine
 10
255.1807961244
 20
108.5985466029
 30
0.0
 11
255.1513512626
 21
109.4346540414
 31
0.0
  0
LINE
  5
148
330
1F
100
AcDbEntity
  8
0
  6
HIDDEN
 62
     7
370
     0
100
AcDbLine
 10
253.1823380519
 20
108.543024839
 30
0.0
 11
253.1528931901
 21
109.3791322775
 31
0.0
  0
LINE
  5
149
330
1F
100
AcDbEntity
  8
0
  6
HIDDEN
 62
     7
370
     0
100
AcDbLine
 10
253.1823380519
 20
107.9306524033
 30
0.0
 11
253.1823380519
 21
108.543024839
 31
0.0
  0
LINE
  5
14A
330
1F
100
AcDbEntity
  8
0
  6
HIDDEN
 62
     7
370
     0
100
AcDbLine
 10
253.1823380519
 20
108.543024839
 30
0.0
 11
255.1807961244
 21
108.5985466029
 31
0.0
  0
LINE
  5
14B
330
1F
100
AcDbEntity
  8
0
  6
HIDDEN
 62
     7
370
     0
100
AcDbLine
 10
255.1807961244
 20
107.9861741672
 30
0.0
 11
255.1807961244
 21
108.5985466029
 31
0.0
  0
LINE
  5
14C
330
1F
100
AcDbEntity
  8
0
  6
HIDDEN
 62
     7
370
     0
100
AcDbLine
 10
253.1234483283
 20
109.6028672802
 30
0.0
 11
253.1528931901
 21
109.3791322775
 31
0.0
  0
LINE
  5
14D
330
1F
100
AcDbEntity
  8
0
  6
HIDDEN
 62
     7
370
     0
100
AcDbLine
 10
253.1528931901
 20
109.3791322775
 30
0.0
 11
255.1513512626
 21
109.4346540414
 31
0.0
  0
LINE
  5
14E
330
1F
100
AcDbEntity
  8
0
  6
HIDDEN
 62
     7
370
     0
100
AcDbLine
 10
255.1219064008
 20
109.6583890442
 30
0.0
 11
255.1513512626
 21
109.4346540414
 31
0.0
  0
LINE
  5
14F
330
1F
100
AcDbEntity
  8
0
  6
HIDDEN
 62
     7
370
     0
100
AcDbLine
 10
253.1528931901
 20
108.1543874061
 30
0.0
 11
255.1513512626
 21
108.20990917
 31
0.0
  0
LINE
  5
150
330
1F
100
AcDbEntity
  8
0
  6
HIDDEN
 62
     7
370
     0
100
AcDbLine
 10
253.1823380519
 20
107.9306524033
 30
0.0
 11
255.1807961244
 21
107.9861741672
 31
0.0
  0
LINE
  5
151
330
1F
100
AcDbEntity
  8
0
  6
HIDDEN
 62
     7
370
     0
100
AcDbLine
 10
253.1823380519
 20
107.9306524033
 30
0.0
 11
253.1528931901
 21
108.1543874061
 31
0.0
  0
LINE
  5
152
330
1F
100
AcDbEntity
  8
0
  6
HIDDEN
 62
     7
370
     0
100
AcDbLine
 10
255.1807961244
 20
107.9861741672
 30
0.0
 11
255.1513512626
 21
108.20990917
 31
0.0
  0
LINE
  5
153
330
1F
100
AcDbEntity
  8
0
  6
HIDDEN
 62
     7
370
     0
100
AcDbLine
 10
253.1234483283
 20
108.9904948446
 30
0.0
 11
255.1219064008
 21
109.0460166085
 31
0.0
  0
LINE
  5
154
330
1F
100
AcDbEntity
  8
0
  6
HIDDEN
 62
     7
370
     0
100
AcDbLine
 10
253.1234483283
 20
109.6028672802
 30
0.0
 11
255.1219064008
 21
109.6583890442
 31
0.0
  0
LINE
  5
155
330
1F
100
AcDbEntity
  8
0
  6
HIDDEN
 62
     7
370
     0
100
AcDbLine
 10
253.1234483283
 20
108.9904948446
 30
0.0
 11
253.1234483283
 21
109.6028672802
 31
0.0
  0
LINE
  5
156
330
1F
100
AcDbEntity
  8
0
  6
HIDDEN
 62
     7
370
     0
100
AcDbLine
 10
253.1234483283
 20
108.9904948446
 30
0.0
 11
253.1528931901
 21
108.1543874061
 31
0.0
  0
LINE
  5
157
330
1F
100
AcDbEntity
  8
0
  6
HIDDEN
 62
     7
370
     0
100
AcDbLine
 10
255.1219064008
 20
109.0460166085
 30
0.0
 11
255.1513512626
 21
108.20990917
 31
0.0
  0
LINE
  5
158
330
1F
100
AcDbEntity
  8
0
  6
HIDDEN
 62
     7
370
     0
100
AcDbLine
 10
95.1219064008
 20
78.6091687585
 30
0.0
 11
95.2115080247
 21
79.2467174404
 31
0.0
  0
LINE
  5
159
330
1F
100
AcDbEntity
  8
0
  6
HIDDEN
 62
     7
370
     0
100
AcDbLine
 10
95.2115080247
 20
156.7809859897
 30
0.0
 11
95.1219064008
 21
157.4185346717
 31
0.0
  0
ARC
  5
15A
330
1F
100
AcDbEntity
  8
0
  6
HIDDEN
 62
     7
370
     0
100
AcDbCircle
 10
94.2249694823
 20
79.3853663906
 30
0.0
 40
0.9962338214386932
100
AcDbArc
 50
352.0
 51
0.0
  0
ARC
  5
15B
330
1F
100
AcDbEntity
  8
0
  6
HIDDEN
 62
     7
370
     0
100
AcDbCircle
 10
94.2249694823
 20
79.3853663906
 30
0.0
 40
0.9962338214386932
100
AcDbArc
 50
0.0
 51
25.7988228126
  0
ARC
  5
15C
330
1F
100
AcDbEntity
  8
0
  6
HIDDEN
 62
     7
370
     0
100
AcDbCircle
 10
94.2249694823
 20
156.6423370395
 30
0.0
 40
0.9962338214386993
100
AcDbArc
 50
348.75
 51
8.0
  0
LWPOLYLINE
  5
15D
330
1F
100
AcDbEntity
  8
0
  6
HIDDEN
 62
     7
370
     0
100
AcDbPolyline
 90
        3
 70
   128
 43
0.0
 10
95.2020609502
 20
156.4479814625
 10
95.1453695195
 20
156.2610948613
 10
95.1219064008
 20
156.2087635264
  0
LINE
  5
15E
330
1F
100
AcDbEntity
  8
0
  6
HIDDEN
 62
     7
370
     0
100
AcDbLine
 10
95.2212033037
 20
79.3853663906
 30
0.0
 11
95.2212033037
 21
156.6423370395
 31
0.0
  0
ARC
  5
15F
330
1F
100
AcDbEntity
  8
0
  6
HIDDEN
 62
     7
370
     0
100
AcDbCircle
 10
85.3751120559
 20
98.5138517151
 30
0.0
 40
11.99999999999999
100
AcDbArc
 50
273.1771414975
 51
324.3146652873
  0
ARC
  5
160
330
1F
100
AcDbEntity
  8
0
  6
HIDDEN
 62
     7
370
     0
100
AcDbCircle
 10
85.3751120559
 20
137.5138517151
 30
0.0
 40
12.00000000000004
100
AcDbArc
 50
35.6853347127
 51
86.8210915586
  0
ARC
  5
161
330
1F
100
AcDbEntity
  8
0
  6
HIDDEN
 62
     7
370
     0
100
AcDbCircle
 10
68.5826323429
 20
87.5138517151
 30
0.0
 40
1.0
100
AcDbArc
 50
210.0
 51
270.0
  0
ARC
  5
162
330
1F
100
AcDbEntity
  8
0
  6
HIDDEN
 62
     7
370
     0
100
AcDbCircle
 10
68.5826323429
 20
148.5138517151
 30
0.0
 40
1.0
100
AcDbArc
 50
90.0
 51
150.0
  0
LINE
  5
163
330
1F
100
AcDbEntity
  8
0
  6
HIDDEN
 62
     7
370
     0
100
AcDbLine
 10
68.5826323429
 20
86.5138517151
 30
0.0
 11
74.1677364514
 21
86.5138517151
 31
0.0
  0
LINE
  5
164
330
1F
100
AcDbEntity
  8
0
  6
HIDDEN
 62
     7
370
     0
100
AcDbLine
 10
74.1677364514
 20
149.5138517151
 30
0.0
 11
68.5826323429
 21
149.5138517151
 31
0.0
  0
LINE
  5
165
330
1F
100
AcDbEntity
  8
0
  6
HIDDEN
 62
     7
370
     0
100
AcDbLine
 10
67.7166069391
 20
149.0138517151
 30
0.0
 11
65.1185307278
 21
144.5138517151
 31
0.0
  0
LINE
  5
166
330
1F
100
AcDbEntity
  8
0
  6
HIDDEN
 62
     7
370
     0
100
AcDbLine
 10
65.1185307278
 20
91.5138517151
 30
0.0
 11
67.7166069391
 21
87.0138517151
 31
0.0
  0
ARC
  5
167
330
1F
100
AcDbEntity
  8
0
  6
HIDDEN
 62
     7
370
     0
100
AcDbCircle
 10
105.5719064008
 20
93.1388517151
 30
0.0
 40
2.0
100
AcDbArc
 50
234.3409123039
 51
0.0
  0
ARC
  5
168
330
1F
100
AcDbEntity
  8
0
  6
HIDDEN
 62
     7
370
     0
100
AcDbCircle
 10
105.5719064008
 20
142.8888517151
 30
0.0
 40
2.0
100
AcDbArc
 50
0.0
 51
125.6590876961
  0
LINE
  5
169
330
1F
100
AcDbEntity
  8
0
  6
HIDDEN
 62
     7
370
     0
100
AcDbLine
 10
95.1219064008
 20
91.5138517151
 30
0.0
 11
104.4059840191
 21
91.5138517151
 31
0.0
  0
LINE
  5
16A
330
1F
100
AcDbEntity
  8
0
  6
HIDDEN
 62
     7
370
     0
100
AcDbLine
 10
104.4059840191
 20
144.5138517151
 30
0.0
 11
95.1219064008
 21
144.5138517151
 31
0.0
  0
LINE
  5
16B
330
1F
100
AcDbEntity
  8
0
  6
HIDDEN
 62
     7
370
     0
100
AcDbLine
 10
60.3219064008
 20
91.5138517151
 30
0.0
 11
65.1185307278
 21
91.5138517151
 31
0.0
  0
LINE
  5
16C
330
1F
100
AcDbEntity
  8
0
  6
HIDDEN
 62
     7
370
     0
100
AcDbLine
 10
65.1185307278
 20
144.5138517151
 30
0.0
 11
55.3219064008
 21
144.5138517151
 31
0.0
  0
LINE
  5
16D
330
1F
100
AcDbEntity
  8
0
  6
HIDDEN
 62
     7
370
     0
100
AcDbLine
 10
99.1219064008
 20
163.6854050942
 30
0.0
 11
99.1219064008
 21
159.9912654938
 31
0.0
  0
LINE
  5
16E
330
1F
100
AcDbEntity
  8
0
  6
HIDDEN
 62
     7
370
     0
100
AcDbLine
 10
109.1219064008
 20
159.9912654938
 30
0.0
 11
109.1219064008
 21
163.6909133526
 31
0.0
  0
LINE
  5
16F
330
1F
100
AcDbEntity
  8
0
  6
HIDDEN
 62
     7
370
     0
100
AcDbLine
 10
209.6219064008
 20
108.4335143756
 30
0.0
 11
209.6219064008
 21
112.2265876196
 31
0.0
  0
LINE
  5
170
330
1F
100
AcDbEntity
  8
0
  6
HIDDEN
 62
     7
370
     0
100
AcDbLine
 10
209.6219064008
 20
105.9930364349
 30
0.0
 11
209.6219064008
 21
106.6813182264
 31
0.0
  0
LINE
  5
171
330
1F
100
AcDbEntity
  8
0
  6
HIDDEN
 62
     7
370
     0
100
AcDbLine
 10
206.6219064008
 20
107.2392688851
 30
0.0
 11
206.6219064008
 21
105.9930364349
 31
0.0
  0
LINE
  5
172
330
1F
100
AcDbEntity
  8
0
  6
HIDDEN
 62
     7
370
     0
100
AcDbLine
 10
206.6219064008
 20
112.1461152082
 30
0.0
 11
206.6219064008
 21
107.7432554529
 31
0.0
  0
LINE
  5
173
330
1F
100
AcDbEntity
  8
0
  6
HIDDEN
 62
     7
370
     0
100
AcDbLine
 10
119.4219064008
 20
105.0138517151
 30
0.0
 11
123.4219064008
 21
105.0138517151
 31
0.0
  0
LINE
  5
174
330
1F
100
AcDbEntity
  8
0
  6
HIDDEN
 62
     7
370
     0
100
AcDbLine
 10
123.4219064008
 20
131.0138517151
 30
0.0
 11
119.4219064008
 21
131.0138517151
 31
0.0
  0
LINE
  5
175
330
1F
100
AcDbEntity
  8
0
  6
HIDDEN
 62
     7
370
     0
100
AcDbLine
 10
107.5719064008
 20
106.0138517151
 30
0.0
 11
108.3219064008
 21
106.7638517151
 31
0.0
  0
LINE
  5
176
330
1F
100
AcDbEntity
  8
0
  6
HIDDEN
 62
     7
370
     0
100
AcDbLine
 10
108.3219064008
 20
129.2638517151
 30
0.0
 11
107.5719064008
 21
130.0138517151
 31
0.0
  0
LINE
  5
177
330
1F
100
AcDbEntity
  8
0
  6
HIDDEN
 62
     7
370
     0
100
AcDbLine
 10
209.3340749318
 20
106.298889922
 30
0.0
 11
255.1219064008
 21
107.5709812426
 31
0.0
  0
LINE
  5
178
330
1F
100
AcDbEntity
  8
0
  6
HIDDEN
 62
     7
370
     0
100
AcDbLine
 10
255.1219064008
 20
110.0719458768
 30
0.0
 11
209.3296946885
 21
108.799732863
 31
0.0
  0
LINE
  5
179
330
1F
100
AcDbEntity
  8
0
  6
HIDDEN
 62
     7
370
     0
100
AcDbLine
 10
108.3219064008
 20
106.7638517151
 30
0.0
 11
119.4219064008
 21
106.7638517151
 31
0.0
  0
LINE
  5
17A
330
1F
100
AcDbEntity
  8
0
  6
HIDDEN
 62
     7
370
     0
100
AcDbLine
 10
119.4219064008
 20
129.2638517151
 30
0.0
 11
108.3219064008
 21
129.2638517151
 31
0.0
  0
LINE
  5
17B
330
1F
100
AcDbEntity
  8
0
  6
HIDDEN
 62
     7
370
     0
100
AcDbLine
 10
206.6457146968
 20
107.8897129498
 30
0.0
 11
206.4084159396
 21
107.4680907001
 31
0.0
  0
LINE
  5
17C
330
1F
100
AcDbEntity
  8
0
  6
HIDDEN
 62
     7
370
     0
100
AcDbLine
 10
206.4084159396
 20
107.4680907001
 30
0.0
 11
206.6466715539
 21
107.0948897975
 31
0.0
  0
LINE
  5
17D
330
1F
100
AcDbEntity
  8
0
  6
HIDDEN
 62
     7
370
     0
100
AcDbLine
 10
100.0719064008
 20
168.0138517151
 30
0.0
 11
100.0719064008
 21
161.9138517151
 31
0.0
  0
ARC
  5
17E
330
1F
100
AcDbEntity
  8
0
  6
HIDDEN
 62
     7
370
     0
100
AcDbCircle
 10
206.5219064008
 20
110.1138517151
 30
0.0
 40
0.4000000000000199
100
AcDbArc
 50
180.0
 51
270.0
  0
ARC
  5
17F
330
1F
100
AcDbEntity
  8
0
  6
HIDDEN
 62
     7
370
     0
100
AcDbCircle
 10
206.5219064008
 20
125.9138517151
 30
0.0
 40
0.4000000000000057
100
AcDbArc
 50
90.0
 51
180.0
  0
LINE
  5
180
330
1F
100
AcDbEntity
  8
0
  6
HIDDEN
 62
     7
370
     0
100
AcDbLine
 10
206.5219064008
 20
109.7138517151
 30
0.0
 11
209.2271323826
 21
109.7138517151
 31
0.0
  0
LINE
  5
181
330
1F
100
AcDbEntity
  8
0
  6
HIDDEN
 62
     7
370
     0
100
AcDbLine
 10
209.2271323826
 20
126.3138517151
 30
0.0
 11
206.5219064008
 21
126.3138517151
 31
0.0
  0
ARC
  5
182
330
1F
100
AcDbEntity
  8
0
  6
HIDDEN
 62
     7
370
     0
100
AcDbCircle
 10
254.8219064008
 20
109.7138517151
 30
0.0
 40
0.3000000000000114
100
AcDbArc
 50
0.0
 51
90.0
  0
ARC
  5
183
330
1F
100
AcDbEntity
  8
0
  6
HIDDEN
 62
     7
370
     0
100
AcDbCircle
 10
254.8219064008
 20
126.3138517151
 30
0.0
 40
0.3000000000000114
100
AcDbArc
 50
270.0
 51
0.0
  0
ARC
  5
184
330
1F
100
AcDbEntity
  8
0
  6
HIDDEN
 62
     7
370
     0
100
AcDbCircle
 10
209.2271323826
 20
125.9138517151
 30
0.0
 40
0.4000000000000057
100
AcDbArc
 50
70.0
 51
90.0
  0
LINE
  5
185
330
1F
100
AcDbEntity
  8
0
  6
HIDDEN
 62
     7
370
     0
100
AcDbLine
 10
209.36394044
 20
109.7379746668
 30
0.0
 11
210.1219064008
 21
110.0138517151
 31
0.0
  0
LINE
  5
186
330
1F
100
AcDbEntity
  8
0
  6
HIDDEN
 62
     7
370
     0
100
AcDbLine
 10
210.1219064008
 20
126.0138517151
 30
0.0
 11
209.36394044
 21
126.2897287634
 31
0.0
  0
LINE
  5
187
330
1F
100
AcDbEntity
  8
0
  6
HIDDEN
 62
     7
370
     0
100
AcDbLine
 10
210.1219064008
 20
110.0138517151
 30
0.0
 11
254.8219064008
 21
110.0138517151
 31
0.0
  0
LINE
  5
188
330
1F
100
AcDbEntity
  8
0
  6
HIDDEN
 62
     7
370
     0
100
AcDbLine
 10
254.8219064008
 20
126.0138517151
 30
0.0
 11
210.1219064008
 21
126.0138517151
 31
0.0
  0
LINE
  5
189
330
1F
100
AcDbEntity
  8
0
  6
HIDDEN
 62
     7
370
     0
100
AcDbLine
 10
86.5546190168
 20
80.4355721445
 30
0.0
 11
86.1219097303
 21
80.9137968619
 31
0.0
  0
LINE
  5
18A
330
1F
100
AcDbEntity
  8
0
  6
HIDDEN
 62
     7
370
     0
100
AcDbLine
 10
74.1219068588
 20
81.5607582185
 30
0.0
 11
73.6412795536
 21
81.0825335077
 31
0.0
  0
LINE
  5
18B
330
1F
100
AcDbEntity
  8
0
  6
HIDDEN
 62
     7
370
     0
100
AcDbLine
 10
73.6411612121
 20
154.9451640063
 30
0.0
 11
74.1219066761
 21
154.4668843345
 31
0.0
  0
LINE
  5
18C
330
1F
100
AcDbEntity
  8
0
  6
HIDDEN
 62
     7
370
     0
100
AcDbLine
 10
86.1219064029
 20
155.1138567218
 30
0.0
 11
86.5547280726
 21
155.5921363947
 31
0.0
  0
LINE
  5
18D
330
1F
100
AcDbEntity
  8
0
  6
HIDDEN
 62
     7
370
     0
100
AcDbLine
 10
86.1219064008
 20
149.4797296422
 30
0.0
 11
86.1219064008
 21
155.2138605478
 31
0.0
  0
LINE
  5
18E
330
1F
100
AcDbEntity
  8
0
  6
HIDDEN
 62
     7
370
     0
100
AcDbLine
 10
74.1219064008
 20
154.4668738352
 30
0.0
 11
74.1219064008
 21
149.5053723471
 31
0.0
  0
LINE
  5
18F
330
1F
100
AcDbEntity
  8
0
  6
HIDDEN
 62
     7
370
     0
100
AcDbLine
 10
86.1219064008
 20
80.8136680193
 30
0.0
 11
86.1219064008
 21
86.547973788
 31
0.0
  0
LINE
  5
190
330
1F
100
AcDbEntity
  8
0
  6
HIDDEN
 62
     7
370
     0
100
AcDbLine
 10
74.1219064008
 20
86.5223310831
 30
0.0
 11
74.1219064008
 21
81.5607966331
 31
0.0
  0
LINE
  5
191
330
1F
100
AcDbEntity
  8
0
  6
HIDDEN
 62
     7
370
     0
100
AcDbLine
 10
123.4219064008
 20
112.0138517151
 30
0.0
 11
206.1219064008
 21
112.0138517151
 31
0.0
  0
LINE
  5
192
330
1F
100
AcDbEntity
  8
0
  6
HIDDEN
 62
     7
370
     0
100
AcDbLine
 10
206.1219064008
 20
124.0138517151
 30
0.0
 11
123.4219064008
 21
124.0138517151
 31
0.0
  0
ARC
  5
193
330
1F
100
AcDbEntity
  8
0
  6
HIDDEN
 62
     7
370
     0
100
AcDbCircle
 10
209.2271323826
 20
110.1138517151
 30
0.0
 40
0.4000000000000199
100
AcDbArc
 50
270.0
 51
290.0
  0
LINE
  5
194
330
1F
100
AcDbEntity
  8
0
  6
HIDDEN
 62
     7
370
     0
100
AcDbLine
 10
160.3880022732
 20
142.6829875579
 30
0.0
 11
161.5719064008
 21
141.9994601912
 31
0.0
  0
LINE
  5
195
330
1F
100
AcDbEntity
  8
0
  6
HIDDEN
 62
     7
370
     0
100
AcDbLine
 10
166.5719064008
 20
141.9994601912
 30
0.0
 11
167.4956638711
 21
142.5327918153
 31
0.0
  0
LINE
  5
196
330
1F
100
AcDbEntity
  8
0
  6
HIDDEN
 62
     7
370
     0
100
AcDbLine
 10
167.4872154449
 20
93.499789316
 30
0.0
 11
166.5719064008
 21
94.028243239
 31
0.0
  0
LINE
  5
197
330
1F
100
AcDbEntity
  8
0
  6
HIDDEN
 62
     7
370
     0
100
AcDbLine
 10
161.5719064008
 20
94.028243239
 30
0.0
 11
160.4079151912
 21
93.3562126009
 31
0.0
  0
LINE
  5
198
330
1F
100
AcDbEntity
  8
0
  6
HIDDEN
 62
     7
370
     0
100
AcDbLine
 10
161.5719064008
 20
105.528243239
 30
0.0
 11
161.5719064008
 21
94.028243239
 31
0.0
  0
LINE
  5
199
330
1F
100
AcDbEntity
  8
0
  6
HIDDEN
 62
     7
370
     0
100
AcDbLine
 10
166.5719064008
 20
94.028243239
 30
0.0
 11
166.5719064008
 21
105.528243239
 31
0.0
  0
LINE
  5
19A
330
1F
100
AcDbEntity
  8
0
  6
HIDDEN
 62
     7
370
     0
100
AcDbLine
 10
166.5719064008
 20
105.528243239
 30
0.0
 11
164.0719064008
 21
107.0303947866
 31
0.0
  0
LINE
  5
19B
330
1F
100
AcDbEntity
  8
0
  6
HIDDEN
 62
     7
370
     0
100
AcDbLine
 10
164.0719064008
 20
107.0303947866
 30
0.0
 11
161.5719064008
 21
105.528243239
 31
0.0
  0
LINE
  5
19C
330
1F
100
AcDbEntity
  8
0
  6
HIDDEN
 62
     7
370
     0
100
AcDbLine
 10
161.5719064008
 20
130.4994601912
 30
0.0
 11
164.0719064008
 21
128.9973086436
 31
0.0
  0
LINE
  5
19D
330
1F
100
AcDbEntity
  8
0
  6
HIDDEN
 62
     7
370
     0
100
AcDbLine
 10
164.0719064008
 20
128.9973086436
 30
0.0
 11
166.5719064008
 21
130.4994601912
 31
0.0
  0
LINE
  5
19E
330
1F
100
AcDbEntity
  8
0
  6
HIDDEN
 62
     7
370
     0
100
AcDbLine
 10
166.5719064008
 20
130.4994601912
 30
0.0
 11
166.5719064008
 21
141.9994601912
 31
0.0
  0
LINE
  5
19F
330
1F
100
AcDbEntity
  8
0
  6
HIDDEN
 62
     7
370
     0
100
AcDbLine
 10
161.5719064008
 20
141.9994601912
 30
0.0
 11
161.5719064008
 21
130.4994601912
 31
0.0
  0
LINE
  5
1A0
330
1F
100
AcDbEntity
  8
0
  6
HIDDEN
 62
     7
370
     0
100
AcDbLine
 10
209.6219064008
 20
123.8011158106
 30
0.0
 11
209.6219064008
 21
127.58736099
 31
0.0
  0
LINE
  5
1A1
330
1F
100
AcDbEntity
  8
0
  6
HIDDEN
 62
     7
370
     0
100
AcDbLine
 10
206.6219064008
 20
128.2868368315
 30
0.0
 11
206.6219064008
 21
123.881588222
 31
0.0
  0
LINE
  5
1A2
330
1F
100
AcDbEntity
  8
0
  6
HIDDEN
 62
     7
370
     0
100
AcDbLine
 10
206.6219064008
 20
129.3275602141
 30
0.0
 11
206.6219064008
 21
128.7851114784
 31
0.0
  0
LINE
  5
1A3
330
1F
100
AcDbEntity
  8
0
  6
HIDDEN
 62
     7
370
     0
100
AcDbLine
 10
209.3277652824
 20
127.2280241705
 30
0.0
 11
255.1219064008
 21
125.9557575534
 31
0.0
  0
LINE
  5
1A4
330
1F
100
AcDbEntity
  8
0
  6
HIDDEN
 62
     7
370
     0
100
AcDbLine
 10
255.1219064008
 20
128.4567221876
 30
0.0
 11
209.3318492
 21
129.7288753441
 31
0.0
  0
LINE
  5
1A5
330
1F
100
AcDbEntity
  8
0
  6
HIDDEN
 62
     7
370
     0
100
AcDbLine
 10
99.1219064008
 20
165.5607231785
 30
0.0
 11
99.1219064008
 21
163.6854050942
 31
0.0
  0
LINE
  5
1A6
330
1F
100
AcDbEntity
  8
0
  6
HIDDEN
 62
     7
370
     0
100
AcDbLine
 10
109.1219064008
 20
163.6909133526
 30
0.0
 11
109.1219064008
 21
165.5664576113
 31
0.0
  0
LINE
  5
1A7
330
1F
100
AcDbEntity
  8
0
  6
HIDDEN
 62
     7
370
     0
100
AcDbLine
 10
206.6486600447
 20
128.9359283821
 30
0.0
 11
206.4084159396
 21
128.5596127301
 31
0.0
  0
LINE
  5
1A8
330
1F
100
AcDbEntity
  8
0
  6
HIDDEN
 62
     7
370
     0
100
AcDbLine
 10
206.4084159396
 20
128.5596127301
 30
0.0
 11
206.6459873789
 21
128.1375059905
 31
0.0
  0
LINE
  5
1A9
330
1F
100
AcDbEntity
  8
0
  6
HIDDEN
 62
     7
370
     0
100
AcDbLine
 10
254.8910327364
 20
125.7138123037
 30
0.0
 11
255.0602611234
 21
125.9893941604
 31
0.0
  0
LINE
  5
1AA
330
1F
100
AcDbEntity
  8
0
  6
HIDDEN
 62
     7
370
     0
100
AcDbLine
 10
255.1219064008
 20
128.4357625069
 30
0.0
 11
254.9742510504
 21
128.7091838444
 31
0.0
  0
LINE
  5
1AB
330
1F
100
AcDbEntity
  8
0
  6
HIDDEN
 62
     7
370
     0
100
AcDbLine
 10
254.9722970215
 20
128.7109751439
 30
0.0
 11
249.6383592176
 21
128.85916421
 31
0.0
  0
LINE
  5
1AC
330
1F
100
AcDbEntity
  8
0
  6
HIDDEN
 62
     7
370
     0
100
AcDbLine
 10
249.5550444616
 20
125.8603213246
 30
0.0
 11
254.8889822655
 21
125.7121322585
 31
0.0
  0
LINE
  5
1AD
330
1F
100
AcDbEntity
  8
0
  6
HIDDEN
 62
     7
370
     0
100
AcDbLine
 10
249.6371871507
 20
128.8586179922
 30
0.0
 11
249.1240775289
 21
128.3728733582
 31
0.0
  0
LINE
  5
1AE
330
1F
100
AcDbEntity
  8
0
  6
HIDDEN
 62
     7
370
     0
100
AcDbLine
 10
249.0685557815
 20
126.3744158801
 30
0.0
 11
249.5539045296
 21
125.860931775
 31
0.0
  0
LINE
  5
1AF
330
1F
100
AcDbEntity
  8
0
  6
HIDDEN
 62
     7
370
     0
100
AcDbLine
 10
249.6127942532
 20
110.1684077472
 30
0.0
 11
249.1274455051
 21
109.6549236421
 31
0.0
  0
LINE
  5
1B0
330
1F
100
AcDbEntity
  8
0
  6
HIDDEN
 62
     7
370
     0
100
AcDbLine
 10
249.1829672525
 20
107.656466164
 30
0.0
 11
249.6960768743
 21
107.1707215301
 31
0.0
  0
LINE
  5
1B1
330
1F
100
AcDbEntity
  8
0
  6
HIDDEN
 62
     7
370
     0
100
AcDbLine
 10
254.9478719892
 20
110.3172072638
 30
0.0
 11
249.6139341853
 21
110.1690181977
 31
0.0
  0
LINE
  5
1B2
330
1F
100
AcDbEntity
  8
0
  6
HIDDEN
 62
     7
370
     0
100
AcDbLine
 10
249.6972489412
 20
107.1701753122
 30
0.0
 11
255.0311867451
 21
107.3183643784
 31
0.0
  0
LINE
  5
1B3
330
1F
100
AcDbEntity
  8
0
  6
HIDDEN
 62
     7
370
     0
100
AcDbLine
 10
255.033140774
 20
107.3201556779
 30
0.0
 11
255.1219064008
 21
107.4845277533
 31
0.0
  0
LINE
  5
1B4
330
1F
100
AcDbEntity
  8
0
  6
HIDDEN
 62
     7
370
     0
100
AcDbLine
 10
255.1191508471
 20
110.0399453618
 30
0.0
 11
254.94992246
 21
110.3155272185
 31
0.0
  0
DIMENSION
  5
1B5
330
1F
100
AcDbEntity
  8
VERMASSUNG
100
AcDbDimension
  2
*D1
 10
40.2279293467
 20
68.0138517151
 30
0.0
 11
40.2279293467
 21
118.2459210542
 31
0.0
 70
   160
  1
HSK A %%c<>
 71
     2
 42
-1.0
  3
SLDDIMSTYLE0
100
AcDbAlignedDimension
 13
95.6219064008
 23
168.0138517151
 33
0.0
 14
95.6219064008
 24
68.0138517151
 34
0.0
 50
90.0
100
AcDbRotatedDimension
  0
DIMENSION
  5
1C2
330
1F
100
AcDbEntity
  8
VERMASSUNG
100
AcDbDimension
  2
*D2
 10
255.1219064008
 20
172.648212351
 30
0.0
 11
189.5969064008
 21
172.648212351
 31
0.0
 70
   160
 71
     2
 42
-1.0
  3
SLDDIMSTYLE0
100
AcDbAlignedDimension
 13
124.0719064008
 23
165.9825915359
 33
0.0
 14
255.1219064008
 24
134.7397111935
 34
0.0
100
AcDbRotatedDimension
  0
DIMENSION
  5
1CC
330
1F
100
AcDbEntity
  8
VERMASSUNG
100
AcDbDimension
  2
*D3
 10
255.1219064008
 20
178.648212351
 30
0.0
 11
175.1219064008
 21
178.648212351
 31
0.0
 70
   160
 71
     2
 42
-1.0
  3
SLDDIMSTYLE0
100
AcDbAlignedDimension
 13
95.1219064008
 23
167.5138517151
 33
0.0
 14
255.1219064008
 24
134.7397111935
 34
0.0
100
AcDbRotatedDimension
  0
DIMENSION
  5
1D6
330
1F
100
AcDbEntity
  8
VERMASSUNG
100
AcDbDimension
  2
*D4
 10
45.2219064008
 20
184.648212351
 30
0.0
 11
150.1719064008
 21
184.648212351
 31
0.0
 70
   160
 71
     2
 42
-1.0
  3
SLDDIMSTYLE0
100
AcDbAlignedDimension
 13
255.1219064008
 23
134.7397111935
 33
0.0
 14
45.2219064008
 24
148.5165214577
 34
0.0
100
AcDbRotatedDimension
  0
DIMENSION
  5
1E0
330
1F
100
AcDbEntity
  8
VERMASSUNG
100
AcDbDimension
  2
*D5
 10
262.6614580817
 20
110.0138517151
 30
0.0
 11
262.6614580817
 21
118.0138517151
 31
0.0
 70
   160
  1
%%c<>
 71
     2
 42
-1.0
  3
SLDDIMSTYLE0
100
AcDbAlignedDimension
 13
254.8219064008
 23
126.0138517151
 33
0.0
 14
254.8219064008
 24
110.0138517151
 34
0.0
 50
90.0
100
AcDbRotatedDimension
  0
DIMENSION
  5
1EB
330
1F
100
AcDbEntity
  8
VERMASSUNG
100
AcDbDimension
  2
*D6
 10
268.6614580817
 20
94.0138517151
 30
0.0
 11
268.6614580817
 21
118.0138517151
 31
0.0
 70
   160
  1
%%c<>
 71
     2
 42
-1.0
  3
SLDDIMSTYLE0
100
AcDbAlignedDimension
 13
242.2548648777
 23
142.0138517151
 33
0.0
 14
242.2548648777
 24
94.0138517151
 34
0.0
 50
90.0
100
AcDbRotatedDimension
  0
LINE
  5
1F6
330
1F
100
AcDbEntity
  8
VERMASSUNG
  6
CENTERX2
 62
     7
370
     0
100
AcDbLine
 10
42.9714370398
 20
118.0138517151
 30
0.0
 11
256.7882034794
 21
118.0138517151
 31
0.0
  0
OLE2FRAME
  5
1F7
330
1F
100
AcDbEntity
  8
0
100
AcDbOle2Frame
 70
     2
  3
Bitmap Image
 10
13.8511154363
 20
38.264191557
 30
0.0
 11
51.6290888628
 21
31.9806341108
 31
0.0
 71
     2
 72
     0
 73
     1
 90
    12928
310
80552BED0767C5B32B40DDAF6807D121434000000000000000006FFBDDFB85D0
310
4940DDAF6807D121434000000000000000006FFBDDFB85D04940416F4BD60AFB
310
3F4000000000000000002BED0767C5B32B40416F4BD60AFB3F40000000000000
310
0000000000000100000000010000010000000100000000000100000000320000
310
D0CF11E0A1B11AE1000000000000000000000000000000003E000300FEFF0900
310
0600000000000000000000000100000001000000000000000010000002000000
310
01000000FEFFFFFF0000000000000000FFFFFFFFFFFFFFFFFFFFFFFFFFFFFFFF
310
FFFFFFFFFFFFFFFFFFFFFFFFFFFFFFFFFFFFFFFFFFFFFFFFFFFFFFFFFFFFFFFF
310
FFFFFFFFFFFFFFFFFFFFFFFFFFFFFFFFFFFFFFFFFFFFFFFFFFFFFFFFFFFFFFFF
310
FFFFFFFFFFFFFFFFFFFFFFFFFFFFFFFFFFFFFFFFFFFFFFFFFFFFFFFFFFFFFFFF
310
FFFFFFFFFFFFFFFFFFFFFFFFFFFFFFFFFFFFFFFFFFFFFFFFFFFFFFFFFFFFFFFF
310
FFFFFFFFFFFFFFFFFFFFFFFFFFFFFFFFFFFFFFFFFFFFFFFFFFFFFFFFFFFFFFFF
310
FFFFFFFFFFFFFFFFFFFFFFFFFFFFFFFFFFFFFFFFFFFFFFFFFFFFFFFFFFFFFFFF
310
FFFFFFFFFFFFFFFFFFFFFFFFFFFFFFFFFFFFFFFFFFFFFFFFFFFFFFFFFFFFFFFF
310
FFFFFFFFFFFFFFFFFFFFFFFFFFFFFFFFFFFFFFFFFFFFFFFFFFFFFFFFFFFFFFFF
310
FFFFFFFFFFFFFFFFFFFFFFFFFFFFFFFFFFFFFFFFFFFFFFFFFFFFFFFFFFFFFFFF
310
FFFFFFFFFFFFFFFFFFFFFFFFFFFFFFFFFFFFFFFFFFFFFFFFFFFFFFFFFFFFFFFF
310
FFFFFFFFFFFFFFFFFFFFFFFFFFFFFFFFFFFFFFFFFFFFFFFFFFFFFFFFFFFFFFFF
310
FFFFFFFFFFFFFFFFFFFFFFFFFFFFFFFFFFFFFFFFFFFFFFFFFFFFFFFFFFFFFFFF
310
FFFFFFFFFFFFFFFFFFFFFFFFFFFFFFFFFFFFFFFFFFFFFFFFFFFFFFFFFFFFFFFF
310
FDFFFFFFFEFFFFFFFEFFFFFFFEFFFFFF05000000060000000700000008000000
310
090000000A0000000B0000000C0000000D0000000E0000000F00000010000000
310
11000000120000001300000014000000150000001600000017000000FEFFFFFF
310
FFFFFFFFFFFFFFFFFFFFFFFFFFFFFFFFFFFFFFFFFFFFFFFFFFFFFFFFFFFFFFFF
310
FFFFFFFFFFFFFFFFFFFFFFFFFFFFFFFFFFFFFFFFFFFFFFFFFFFFFFFFFFFFFFFF
310
FFFFFFFFFFFFFFFFFFFFFFFFFFFFFFFFFFFFFFFFFFFFFFFFFFFFFFFFFFFFFFFF
310
FFFFFFFFFFFFFFFFFFFFFFFFFFFFFFFFFFFFFFFFFFFFFFFFFFFFFFFFFFFFFFFF
310
FFFFFFFFFFFFFFFFFFFFFFFFFFFFFFFFFFFFFFFFFFFFFFFFFFFFFFFFFFFFFFFF
310
FFFFFFFFFFFFFFFFFFFFFFFFFFFFFFFFFFFFFFFFFFFFFFFFFFFFFFFFFFFFFFFF
310
FFFFFFFFFFFFFFFFFFFFFFFFFFFFFFFFFFFFFFFFFFFFFFFFFFFFFFFFFFFFFFFF
310
FFFFFFFFFFFFFFFFFFFFFFFFFFFFFFFFFFFFFFFFFFFFFFFFFFFFFFFFFFFFFFFF
310
FFFFFFFFFFFFFFFFFFFFFFFFFFFFFFFFFFFFFFFFFFFFFFFFFFFFFFFFFFFFFFFF
310
FFFFFFFFFFFFFFFFFFFFFFFFFFFFFFFFFFFFFFFFFFFFFFFFFFFFFFFFFFFFFFFF
310
FFFFFFFFFFFFFFFFFFFFFFFFFFFFFFFFFFFFFFFFFFFFFFFFFFFFFFFFFFFFFFFF
310
FFFFFFFFFFFFFFFFFFFFFFFFFFFFFFFFFFFFFFFFFFFFFFFFFFFFFFFFFFFFFFFF
310
FFFFFFFFFFFFFFFFFFFFFFFFFFFFFFFFFFFFFFFFFFFFFFFFFFFFFFFFFFFFFFFF
310
52006F006F007400200045006E00740072007900000000000000000000000000
310
0000000000000000000000000000000000000000000000000000000000000000
310
16000500FFFFFFFFFFFFFFFF020000000A00030000000000C000000000000046
310
0000000000000000000000003018168F0800CC0103000000C000000000000000
310
01004F006C006500000000000000000000000000000000000000000000000000
310
0000000000000000000000000000000000000000000000000000000000000000
310
0A000200FFFFFFFFFFFFFFFFFFFFFFFF00000000000000000000000000000000
310
0000000000000000000000000000000000000000000000001400000000000000
310
010043006F006D0070004F0062006A0000000000000000000000000000000000
310
0000000000000000000000000000000000000000000000000000000000000000
310
120002010100000003000000FFFFFFFF00000000000000000000000000000000
310
0000000000000000000000000000000000000000010000004D00000000000000
310
01004F006C006500310030004E00610074006900760065000000000000000000
310
0000000000000000000000000000000000000000000000000000000000000000
310
1A000200FFFFFFFFFFFFFFFFFFFFFFFF00000000000000000000000000000000
310
0000000000000000000000000000000000000000040000002426000000000000
310
FEFFFFFF02000000FEFFFFFFFFFFFFFFFFFFFFFFFFFFFFFFFFFFFFFFFFFFFFFF
310
FFFFFFFFFFFFFFFFFFFFFFFFFFFFFFFFFFFFFFFFFFFFFFFFFFFFFFFFFFFFFFFF
310
FFFFFFFFFFFFFFFFFFFFFFFFFFFFFFFFFFFFFFFFFFFFFFFFFFFFFFFFFFFFFFFF
310
FFFFFFFFFFFFFFFFFFFFFFFFFFFFFFFFFFFFFFFFFFFFFFFFFFFFFFFFFFFFFFFF
310
FFFFFFFFFFFFFFFFFFFFFFFFFFFFFFFFFFFFFFFFFFFFFFFFFFFFFFFFFFFFFFFF
310
FFFFFFFFFFFFFFFFFFFFFFFFFFFFFFFFFFFFFFFFFFFFFFFFFFFFFFFFFFFFFFFF
310
FFFFFFFFFFFFFFFFFFFFFFFFFFFFFFFFFFFFFFFFFFFFFFFFFFFFFFFFFFFFFFFF
310
FFFFFFFFFFFFFFFFFFFFFFFFFFFFFFFFFFFFFFFFFFFFFFFFFFFFFFFFFFFFFFFF
310
FFFFFFFFFFFFFFFFFFFFFFFFFFFFFFFFFFFFFFFFFFFFFFFFFFFFFFFFFFFFFFFF
310
FFFFFFFFFFFFFFFFFFFFFFFFFFFFFFFFFFFFFFFFFFFFFFFFFFFFFFFFFFFFFFFF
310
FFFFFFFFFFFFFFFFFFFFFFFFFFFFFFFFFFFFFFFFFFFFFFFFFFFFFFFFFFFFFFFF
310
FFFFFFFFFFFFFFFFFFFFFFFFFFFFFFFFFFFFFFFFFFFFFFFFFFFFFFFFFFFFFFFF
310
FFFFFFFFFFFFFFFFFFFFFFFFFFFFFFFFFFFFFFFFFFFFFFFFFFFFFFFFFFFFFFFF
310
FFFFFFFFFFFFFFFFFFFFFFFFFFFFFFFFFFFFFFFFFFFFFFFFFFFFFFFFFFFFFFFF
310
FFFFFFFFFFFFFFFFFFFFFFFFFFFFFFFFFFFFFFFFFFFFFFFFFFFFFFFFFFFFFFFF
310
FFFFFFFFFFFFFFFFFFFFFFFFFFFFFFFFFFFFFFFFFFFFFFFFFFFFFFFFFFFFFFFF
310
0100000200000000000000000000000000000000610072003D0082005C003107
310
9806250000000000604E280000000000680061007200650064005C003B004300
310
0100FEFF030A0000FFFFFFFF0A00030000000000C00000000000004607000000
310
5042727573680007000000504272757368000700000050427275736800F439B2
310
71000000000000000000000000004100540049002E004100430045005C004300
310
6F00720065002D005300740061007400690063003B0043003A005C0050007200
310
6F006700720061006D002000460069006C006500730020002800780038003600
310
29005C0043006F006D006D006F006E002000460069006C00650073005C004100
310
750074006F006400650073006B0020005300680061007200650064005C003B00
310
43003A005C00500072006F006700720061006D002000460069006C0065007300
310
5C004E006F0072006D0061006E005C004E0070006D005C00420069006E000000
310
43003A005C00500072006F006700720061006D002000460069006C0065007300
310
5C0053006F006C006900640057006F0072006B007300200043006F0072007000
310
5C0053006F006C006900640057006F0072006B00730020002800320029005C00
310
730065007400750070005C0069003300380036005C0073007700610063007400
310
770069007A002E006500780065000000220043003A005C00500072006F006700
310
20260000424D0E260000000000003E00000028000000B40200006E0000000100
310
01000000000000000000130B0000130B00000200000002000000000000FFFFFF
310
FFFFFFFFFFFFFFFFFFFFFFFFFFFFFFFFFFFFFFFFFFFFFFFFFFFFFFFFFFFFFFFF
310
FFFFFFFFFFFFFFFFFFFFFFFFFFFFFFFFFFFFFFFFFFFFFFFFFFFFFFFFFFFFFFFF
310
FFFFFFFFFFFFFFFFFFFFFFFFFFFFFFFFFFFFFFFFFFFFFFFFF000FFFFFFFFFFFF
310
FFFFFFFFFFFFFFFFFFFFFFFFFFFFFFFFFFFFFFFFFFFFFFFFFFFFFFFFFFFFFFFF
310
FFFFFFFFFFFFFFFFFFFFFFFFFFFFFFFFFFFFFFFFFFFFFFFFFFFFFFFFFFFFFFFF
310
FFFFFFFFFFFFFFFFFFFFFFFFFFFFFFFFF000FFFFFFFFFFFFFFFFFFFFFFFFFFFF
310
FFFFFFFFFFFFFFFFFFFFFFFFFFFFFFFFFFFFFFFFFFFFFFFFFFFFFFFFFFFFFFFF
310
FFFFFFFFFFFFFFFFFFFFFFFFFFFFFFFFFFFFFFFFFFFFFFFFFFFFFFFFFFFFFFFF
310
FFFFFFFFFFFFFFFFF000FFFFFFFFFFFFFFFFFFFFFFFFFFFFFFFFFFFFFFFFFFFF
310
FFFFFFFFFFFFFFFFFFFFFFFFFFFFFFFFFFFFFFFFFFFFFFFFFFFFFFFFFFFFFFFF
310
FFFFFFFFFFFFFFFFFFFFFFFFFFFFFFFFFFFFFFFFFFFFFFFFFFFFFFFFFFFFFFFF
310
F000FFFFFFFFFFFFFFFFFFFFFFFFFFFFFFFFFFFFFFFFFFFFFFFFFFFFFFFFFFFF
310
FFFFFFFFFFFFFFFFFFFFFFFFFFFFFFFFFFFFFFFFFFFFFFFFFFFFFFFFFFFFFFFF
310
FFFFFFFFFFFFFFFFFFFFFFFFFFFFFFFFFFFFFFFFFFFFFFFFF000FFFFFFFFFFFF
310
FFFFFFFFFFFFFFFFFFFFFFFFFFFFFFFFFFFFFFFFFFFFFFFFFFFFFFFFFFFFFFFF
310
FFFFFFFFFFFFFFFFFFFFFFFFFFFFFFFFFFFFFFFFFFFFFFFFFFFFFFFFFFFFFFFF
310
FFFFFFFFFFFFFFFFFFFFFFFFFFFFFFFFF000FFFFFFFFFFFFFFFFFFFFFFFFFFFF
310
FFFFFFFFFFFFFFFFFFFFFFFFFFFFFFFFFFFFFFFFFFFFFFFFFFFFFFFFFFFFFFFF
310
FFFFFFFFFFFFFFFFFFFFFFFFFFFFFFFFFFFFFFFFFFFFFFFFFFFFFFFFFFFFFFFF
310
FFFFFFFFFFFFFFFFF000FFFFFFFFFFFFFFFFFFFFFFFFFFFFFFFFFFFFFFFFFFFF
310
FFFFFFFFFFFFFFFFFFFFFFFFFFFFFFFFFFFFFFFFFFFFFFFFFFFFFFFFFFFFFFFF
310
FFFFFFFFFFFFFFFFFFFFFFFFFFFFFFFFFFFFFFFFFFFFFFFFFFFFFFFFFFFFFFFF
310
F000FFFFFFFFFFFFFFFFFFFFFFFFFFFFFFFFFFFFFFFFFFFFFFFFFFFFFFFFFFFF
310
FFFFFFFFFFFFFFFFFFFFFFFFFFFFFFFFFFFFFFFFFFFFFFFFFFFFFFFFFFFFFFFF
310
FFFFFFFFFFFFFFFFFFFFFFFFFFFFFFFFFFFFFFFFFFFFFFFFF000FFFFFFFFFFFF
310
FFFFFFFFFFFFFFFFFFFFFFFFFFFFFFFFFFFFFFFFFFFFFFFFFFFFFFFFFFFFFFFF
310
FFFFFFFFFFFFFFFFFFFFFFFFFFFFFFFFFFFFFFFFFFFFFFFFFFFFFFFFFFFFFFFF
310
FFFFFFFFFFFFFFFFFFFFFFFFFFFFFFFFF000FFFFFFFFFFFFFFFFFFFFFFFFFFFF
310
FFFFFFFFFFFFFFFFFFFFFFFFFFFFFFFFFFFFFFFFFFFFFFFFFFFFFFFFFFFFFFFF
310
FFFFFFFFFFFFFFFFFFFFFFFFFFFFFFFFFFFFFFFFFFFFFFFFFFFFFFFFFFFFFFFF
310
FFFFFFFFFFFFFFFFF000FFFFFFFFFFFFFFFFFFFFFFFFFFFFFFFFFFFFFFFFFFFF
310
FFFFFFFFFFFFFFFFFFFFFFFFFFFFFFFFFFFFFFFFFFFFFFFFFFFFFFFFFFFFFFFF
310
FFFFFFFFFFFFFFFFFFFFFFFFFFFFFFFFFFFFFFFFFFFFFFFFFFFFFFFFFFFFFFFF
310
F000FFFFFFFFFFFFFFFFFFFFFFFFFFFFFFFFFFFFFFFFFFFFFFFFFFFFFFFFFFFF
310
FFFFFFFFFFFFFFFFFFFFFFFFFFFFFFFFFFFFFFFFFFFFFFFFFFFFFFFFFFFFFFFF
310
FFFFFFFFFFFFFFFFFFFFFFFFFFFFFFFFFFFFFFFFFFFFFFFFF000FFFFFFFFFFFF
310
FFFFFFFFFFFFFFFFFFFFFFFFFFFFFFFFFFFFFFFFFFFFFFFFFFFFFFFFFFFFFFFF
310
FFFFFFFFFFFFFFFFFFFFFFFFFFFFFFFFFFFFFFFFFFFFFFFFFFFFFFFFFFFFFFFF
310
FFFFFFFFFFFFFFFFFFFFFFFFFFFFFFFFF000FFFFFFFFFFFFFFFFFFFFFFFFFFFF
310
FFFFFFFFFFFFFFFFFFFFFFFFFFFFFFFFFFFFFFFFFFFFFFFFFFFFFFFFFFFFFFFF
310
FFFFFFFFFFFFFFFFFFFFFFFFFFFFFFFFFFFFFFFFFFFFFFFFFFFFFFFFFFFFFFFF
310
FFFFFFFFFFFFFFFFF000FFFFFFFFFFFFFFFFFFFFFFFFFFFFFFFFFFFFFFFFFFFF
310
FFFFFFFFFFFFFFFFFFFFFFFFFFFFFFFFFFFFFFFFFFFFFFFFFFFFFFFFFFFFFFFF
310
FFFFFFFFFFFFFFFFFFFFFFFFFFFFFFFFFFFFFFFFFFFFFFFFFFFFFFFFFFFFFFFF
310
F000FFFFFFFFFFFFFFFFFFFFFFFFFFFFFFFFFFFFFFFFFFFFFFFFFFFFFFFFFFFF
310
FFFFFFFFFFFFFFFFFFFFFFFFFFFFFFFFFFFFFFFFFFFFFFFFFFFFFFFFFFFFFFFF
310
FFFFFFFFFFFFFFFFFFFFFFFFFFFFFFFFFFFFFFFFFFFFFFFFF000FFFFFFFFFFFF
310
FFFFFFFFFFFFFFFFFFFFFFFFFFFFFFFFFFFFFFFFFFFFFFFFFFFFFFFFFFFFFFFF
310
FFFFFFFFFFFFFFFFFFFFFFFFFFFFFFFFFFFFFFFFFFFFFFFFFFFFFFFFFFFFFFFF
310
FFFFFFFFFFFFFFFFFFFFFFFFFFFFFFFFF000FFFFFFFFFFFFFFFFFFFFFFFFFFFF
310
FFFFFFFFFFFFFFFFFFFFFFFFFFFFFFFFFFFFFFFFFFFFFFFFFFFFFFFFFFFFFFFF
310
FFFFFFFFFFFFFFFFFFFFFFFFFFFFFFFFFFFFFFFFFFFFFFFFFFFFFFFFFFFFFFFF
310
FFFFFFFFFFFFFFFFF000FFFFF80003FFFFFFFFFFFFFFFFFFFFFFFFFFFFFFFFFF
310
FFFFF00007FFFFFFFFFF00007FFFFFF800000000000000007FFFFFFFFFFFFFFF
310
FFFFFFFC001FFFFFFFFFFFFFFC001FFFFFFFFFFFFFFFFFFFFFFFFFFE0007FFFF
310
F000FFFF8000007FFFFFFFF8000FFFFFC0007FFFFF80007FFFFF0000007FFFFF
310
FFF8000007FFFFF800000000000000007FFFFFF0001FFFFFFFFFFFC00001FFFF
310
FFFFFFFFC00001FFFFFFFF000000000003FFFFE000007FFFF000FFFE0000000F
310
FFFFFFF0000FFFFF80007FFFFF80007FFFFC0000001FFFFFFFC0000001FFFFF8
310
00000000000000007FFFFFF0001FFFFFFFFFFE0000003FFFFFFFFFFE0000003F
310
FFFFFF000000000003FFFF0000000FFFF000FFF800000003FFFFFFF00007FFFF
310
80007FFFFF80007FFFF000000007FFFFFF000000003FFFF80000000000000000
310
7FFFFFF0001FFFFFFFFFF80000000FFFFFFFFFF80000000FFFFFFF0000000000
310
03FFFC00000003FFF000FFE000000000FFFFFFF00007FFFF80003FFFFF80007F
310
FFC000000001FFFFFC000000001FFFF800000000000000007FFFFFF0001FFFFF
310
FFFFE000000003FFFFFFFFE000000003FFFFFF000000000003FFF000000000FF
310
F000FF80000000007FFFFFF00007FFFF80003FFFFF80007FFF8000000000FFFF
310
F80000000007FFF800000000000000007FFFFFF0001FFFFFFFFFC000000001FF
310
FFFFFFC000000001FFFFFF000000000003FFC0000000007FF000FF0000000000
310
3FFFFFE00007FFFF00003FFFFF80007FFE00000000003FFFF00000000003FFF8
310
00000000000000007FFFFFF0001FFFFFFFFF8000000000FFFFFFFF8000000000
310
FFFFFF000000000003FF80000000003FF000FE00000000001FFFFFE00003FFFF
310
00003FFFFF80007FFC00000000001FFFE00000000001FFF8000001FFFE000000
310
7FFFFFF0001FFFFFFFFE00000000003FFFFFFE00000000003FFFFF0000000000
310
03FF00000000001FF000FC00000000000FFFFFE00003FFFF00001FFFFF80007F
310
F800000000001FFFC00000000000FFF8000001FFFE0000007FFFFFF0001FFFFF
310
FFFC00000000001FFFFFFC00000000001FFFFF000000000003FE00000000000F
310
F000F8000000000007FFFFE00003FFFF00001FFFFF80007FF800000000000FFF
310
800000000000FFF8000001FFFE0000007FFFFFF0001FFFFFFFF800000000000F
310
FFFFF800000000000FFFFF000000000003FC000000000007F000F80000000000
310
03FFFFC00003FFFE00001FFFFF80007FF0000000000007FF0000000000007FF8
310
000001FFFE0000007FFFFFF0001FFFFFFFF0000000000007FFFFF00000000000
310
07FFFF000000000003F8000000000003F000F0000000000003FFFFC00001FFFE
310
00001FFFFF80007FE0000000000007FE0000000000003FF8000001FFFE000000
310
7FFFFFF0001FFFFFFFF0000000000007FFFFF0000000000007FFFF0000000000
310
03F800001F800003F000E00001FFF00001FFFFC00001FFFE00000FFFFF80007F
310
E00001FFE00003FE00001FFF00003FF8000001FFFE0000007FFFFFF0001FFFFF
310
FFE000003E000003FFFFE000003E000003FFFF000000000003F00001FFF80001
310
F000E00007FFFC0001FFFFC00001FFFE00000FFFFF80007FC0000FFFFC0003FC
310
0000FFFFC0001FF8000001FFFE0000007FFFFFF0001FFFFFFFC00003FFE00001
310
FFFFC00003FFE00001FFFF0001FFFFFFFFF00007FFFE0001F000E0000FFFFF00
310
00FFFF800001FFFC00000FFFFF80007FC0001FFFFE0001FC0001FFFFE0001FF8
310
000001FFFE0000007FFFFFF0001FFFFFFF80000FFFF80000FFFF80000FFFF800
310
00FFFF0003FFFFFFFFE0000FFFFF8000F000C0003FFFFF8000FFFF800000FFFC
310
000007FFFF80007F80003FFFFF0001FC0003FFFFF0001FF8000001FFFE000000
310
7FFFFFF0001FFFFFFF80003FFFFE0000FFFF80003FFFFE0000FFFF0003FFFFFF
310
FFE0003FFFFF8000F000C0003FFFFF8000FFFF800000FFFC000007FFFF80007F
310
80007FFFFF8001F80007FFFFF8000FF8000001FFFE0000007FFFFFF0001FFFFF
310
FF00007FFFFF00007FFF00007FFFFF00007FFF0003FFFFFFFFE0003FFFFFC000
310
F000C0007FFFFFC000FFFF000000FFFC000007FFFF80007F8000FFFFFF8000F8
310
000FFFFFF8000FF8000001FFFE0000007FFFFFF0001FFFFFFF0000FFFFFF8000
310
7FFF0000FFFFFF80007FFF0003FFFFFFFFC0007FFFFFC00070008000FFFFFFC0
310
00FFFF000000FFF8000007FFFF80007F8000FFFFFF8000F8000FFFFFF8000FF8
310
000001FFFE0000007FFFFFF0001FFFFFFE0001FFFFFFC0003FFE0001FFFFFFC0
310
003FFF0003FFFFFFFFC0007FFFFFE00070008000FFFFFFC0007FFF0000007FF8
310
000003FFFF80007F0001FFFFFF8000F8000FFFFFF8000FF8000001FFFE000000
310
7FFFFFF0001FFFFFFE0001FFFFFFC0003FFE0001FFFFFFC0003FFF0003FFFFFF
310
FFC000FFFFFFE00070008000FFFFFFC0007FFF0000007FF8000003FFFF80007F
310
0001FFFFFF8000F8001FFFFFF8000FF8000001FFFE0000007FFFFFF0001FFFFF
310
FE0003FFFFFFE0003FFE0003FFFFFFE0003FFF0003FFFFFFFFC000FFFFFFE000
310
70008000FFFFFFC0007FFE0000007FF8000003FFFF80007F0001FFFFFF8000F0
310
001FFFFFF8000FF8000001FFFE0000007FFFFFF0001FFFFFFC0003FFFFFFE000
310
1FFC0003FFFFFFE0001FFF0003FFFFFFFFC000FFFFFFC00070008000FFFFFF80
310
007FFE0000007FF0000003FFFF80007F0001FFFFFF0000F0001FFFFFF8000FF8
310
000001FFFE0000007FFFFFF0001FFFFFFC0007FFFFFFF0001FFC0007FFFFFFF0
310
001FFF0003FFFFFFFFC000FFFFFFC00070008001FFFFFF0000FFFE0000003FF0
310
000001FFFF80007F0001FFFFFF0000F8001FFFFFF0000FF8000001FFFE000000
310
7FFFFFF0001FFFFFFC0007FFFFFFF0001FFC0007FFFFFFF0001FFF0003FFFFFF
310
FFC001FFFFFF80007000FFFFFFFFFE0000FFFE0008003FF0008001FFFF80007F
310
FFFFFFFFFC0000FFFFFFFFFFE0000FF8000001FFFE0000007FFFFFF0001FFFFF
310
F8000FFFFFFFF8000FF8000FFFFFFFF8000FFF0003FFFFFFFFFFFFFFFFFF0000
310
7000FFFFFFFFFC0000FFFC0008003FF0008001FFFF80007FFFFFFFFFF80001FF
310
FFFFFFFF80000FF8000001FFFE0000007FFFFFF0001FFFFFF8000FFFFFFFF800
310
0FF8000FFFFFFFF8000FFF0003FFFFFFFFFFFFFFFFFE0000F000FFFFFFFFE000
310
00FFFC000C003FE000C001FFFF80007FFFFFFFFFC00001FFFFFFFFFE00001FF8
310
000001FFFE0000007FFFFFF0001FFFFFF8000FFFFFFFF8000FF8000FFFFFFFF8
310
000FFF0003FFFFFFFFFFFFFFFFF00000F000FFFFFFFE000001FFFC000C001FE0
310
00C000FFFF80007FFFFFFFFE000001FFFFFFFFE000001FF80FFFFFFFFFFFFFC0
310
7FFFFFF0001FFFFFF8000FFFFFFFF8000FF8000FFFFFFFF8000FFF0003FFFFFF
310
FFFFFFFFFF800000F000FFFFFFC0000001FFFC001C001FE001C000FFFF80007F
310
FFFFFF80000003FFFFFFF80000001FF80FFFFFFFFFFFFFC07FFFFFF0001FFFFF
310
F8001FFFFFFFFC000FF8001FFFFFFFFC000FFF0003FFFFFFFFFFFFFFF0000001
310
F000FFFFF800000001FFF8001C001FE001C000FFFF80007FFFFFF800000003FF
310
FFFF800000003FF80FFFFFFFFFFFFFC07FFFFFF0001FFFFFF8001FFFFFFFFC00
310
0FF8001FFFFFFFFC000FFF0003FFFFFFFFFFFFFE00000001F000FFFFC0000000
310
03FFF8001E001FC001E000FFFF80007FFFFF8000000007FFFFFC000000003FF8
310
0FFFFFFFFFFFFFC07FFFFFF0001FFFFFF8001FFFFFFFFC000FF8001FFFFFFFFC
310
000FFF0003FFFFFFFFFFFFE000000003F000FFFE0000000007FFF8001E000FC0
310
01E0007FFF80007FFFFE0000000007FFFFE0000000007FF80FFFFFFFFFFFFFC0
310
7FFFFFF0001FFFFFF0001FFFFFFFFC0007F0001FFFFFFFFC0007FF0003FFFFFF
310
FFFFFF0000000003F000FFF80000000007FFF8001E000FC003E0007FFF80007F
310
FFF0000000000FFFFF8000000000FFF80FFFFFFFFFFFFFC07FFFFFF0001FFFFF
310
F0001FFFFFFFFC0007F0001FFFFFFFFC0007FF0003FFFFFFFFFFFC0000000007
310
F000FFE0000000000FFFF0003E000FC003E0007FFF80007FFFC0000000001FFF
310
FE0000000001FFF80FFFFFFFFFFFFFC07FFFFFF0001FFFFFF0001FFFFFFFFC00
310
07F0001FFFFFFFFC0007FF0003FFFFFFFFFFF0000000000FF000FFC000000000
310
1FFFF0003F000F8003F0003FFF80007FFF80000000003FFFF80000000003FFF8
310
0FFFFFFFFFFFFFC07FFFFFF0001FFFFFF0001FFFFFFFFC0007F0001FFFFFFFFC
310
0007FF0003FFFFFFFFFFE0000000001FF000FF00000000007FFFF0003F000780
310
03F0003FFF80007FFF00000000007FFFF00000000007FFF80FFFFFFFFFFFFFC0
310
7FFFFFF0001FFFFFF0001FFFFFFFFC0007F0001FFFFFFFFC0007FF0003FFFFFF
310
FFFF80000000007FF000FE0000000000FFFFE0003F00078007F0003FFF80007F
310
FE0000000001FFFFE0000000001FFFF80FFFFFFFFFFFFFC07FFFFFF0001FFFFF
310
F0001FFFFFFFFC0007F0001FFFFFFFFC0007FF0003FFFFFFFFFF0000000000FF
310
F000FC0000000003FFFFE0007F00078007F0003FFF80007FFC0000000007FFFF
310
C0000000007FFFF80FFFFFFFFFFFFFC07FFFFFF0001FFFFFF8001FFFFFFFFC00
310
0FF8001FFFFFFFFC000FFF0003FFFFFFFFFE0000000003FFF000FC000000000F
310
FFFFE0007F80070007F8001FFF80007FF8000000001FFFFF8000000001FFFFF8
310
0FFFFFFFFFFFFFC07FFFFFF0001FFFFFF8001FFFFFFFFC000FF8001FFFFFFFFC
310
000FFF0003FFFFFFFFFC000000000FFFF000F8000000007FFFFFE0007F800700
310
07F8001FFF80007FF000000000FFFFFF800000000FFFFFF80FFFFFFFFFFFFFC0
310
7FFFFFF0001FFFFFF8000FFFFFFFF8000FF8000FFFFFFFF8000FFF0003FFFFFF
310
FFFC000000007FFFF000F800000007FFFFFFC0007F8003000FF8001FFF80007F
310
F000000007FFFFFF000000007FFFFFF80FFFFFFFFFFFFFC07FFFFFF0001FFFFF
310
F8000FFFFFFFF8000FF8000FFFFFFFF8000FFF0003FFFFFFFFF80000000FFFFF
310
F000F0000000FFFFFFFFC000FF8003000FF8001FFF80007FE0000000FFFFFFFF
310
0000000FFFFFFFF8000001FFFE0000007FFFFFF0001FFFFFF8000FFFFFFFF800
310
0FF8000FFFFFFFF8000FFF0003FFFFFFFFF8000000FFFFFFF000F000000FFFFF
310
FFFFC000FFC002000FF8000FFF80007FE000001FFFFFFFFE000001FFFFFFFFF8
310
000001FFFE0000007FFFFFF0001FFFFFF8000FFFFFFFF8000FF8000FFFFFFFF8
310
000FFF0003FFFFFFFFF000001FFFFFFFF000E00000FFFFFFFFFFC000FFC00200
310
0FFC000FFF80007FE00001FFFFFFFFFE00001FFFFFFFFFF8000001FFFE000000
310
7FFFFFF0001FFFFFFC000FFFFFFFF8001FFC000FFFFFFFF8001FFF0003FFFFFF
310
FFF00001FFFFFFFFF000E00007FFFFFFFFFF8000FFC000001FFC000FFF80007F
310
C0000FFFFFFFFFFE0000FFFFFFFFFFF8000001FFFE0000007FFFFFF0001FFFFF
310
FC0007FFFFFFF0001FFC0007FFFFFFF0001FFF0003FFFFFFFFF00007FFFFFFFF
310
F000E0001FFFFFFFFFFF8000FFC000001FFC000FFF80007FC0003FFFFFFFFFFE
310
0001FFFFFFFFFFF8000001FFFE0000007FFFFFF0001FFFFFFC0007FFFFFFF000
310
1FFC0007FFFFFFF0001FFF0003FFFFFFFFF0001FFFFFFFFFF000E0003FFFFF00
310
03FF8001FFE000001FFC0007FF80007FC0007FFFFF0007FC0003FFFFF0003FF8
310
000001FFFE0000007FFFFFF0001FFFFFFC0003FFFFFFE0001FFC0003FFFFFFE0
310
001FFF0003FFFFFFFFF0003FFFFFFFFFF000E0003FFFFF0001FF8001FFE00000
310
1FFE0007FF80007FC0007FFFFE0003FC0007FFFFE0003FF8000001FFFE000000
310
7FFFFFF0001FFFFFFE0003FFFFFFE0003FFE0003FFFFFFE0003FFF0003FFFFFF
310
FFF0003FFFFF8001F000E0003FFFFF0001FF0001FFE000001FFE0007FF80007F
310
C0007FFFFE0003FC0007FFFFE0003FF8000001FFFE0000007FFFFFF0001FFFFF
310
FE0001FFFFFFC0003FFE0001FFFFFFC0003FFF0003FFFFFFFFF0003FFFFF0001
310
F000E0003FFFFF0003FF0001FFE000003FFE0007FF80007FC0007FFFFE0003FC
310
0007FFFFE0003FF8000001FFFE0000007FFFFFF0001FFFFFFF0001FFFFFFC000
310
7FFF0001FFFFFFC0007FFF0003FFFFFFFFF0003FFFFF0001F000E0003FFFFE00
310
03FF0003FFF000003FFE0003FF80007FC0007FFFFC0003FE0007FFFFE0003FF8
310
000001FFFE0000007FFFFFF0001FFFFFFF0000FFFFFF80007FFF0000FFFFFF80
310
007FFF0003FFFFFFFFF0003FFFFF0001F000E0003FFFFE0003FF0003FFF00000
310
3FFF0003FF80007FC0007FFFFC0007FE0007FFFFC0003FF8000001FFFE000000
310
7FFFFFF0001FFFFFFF80007FFFFF0000FFFF80007FFFFF0000FFFF0003FFFFFF
310
FFF0003FFFFF0003F000E0003FFFFC0003FE0003FFF000003FFF0003FF80007F
310
E0003FFFF80007FE0003FFFFC0007FF8000001FFFE0000007FFFFFF0001FFFFF
310
FF80003FFFFE0000FFFF80003FFFFE0000FFFF0003FFFFFFFFF0001FFFFE0003
310
F000F0001FFFF80003FE0003FFF000007FFF0001FF80007FE0003FFFF00007FE
310
0001FFFF80007FF8000001FFFE0000007FFFFFF0001FFFFFFFC0000FFFF80001
310
FFFFC0000FFFF80001FFFF0003FFFFFFFFF0001FFFFC0003F000F0000FFFF000
310
07FE0007FFF800007FFF0001FF80007FE0001FFFE00007FF0000FFFE00007FF8
310
000001FFFE0000007FFFFFF0001FFFFFFFC00003FFE00001FFFFC00003FFE000
310
01FFFF0003FFFFFFFFF8000FFFF80003F000F00003FFC00007FC0007FFF80000
310
7FFF8001FF80007FF00007FF80000FFF00007FF80000FFF8000001FFFE000000
310
7F80000000000001FFE000003E000003FFFFE000003E000003FFFF0003FFFFFF
310
FFF80003FFE00007F000F800000000000FFC0007FFF800007FFF8001FF80007F
310
F000000000000FFF000000000000FFF8000001FFFE0000007F80000000000001
310
FFF0000000000007FFFFF0000000000007FFFF0003FFFFFFFFFC00007E000007
310
F000F800000000000FFC0007FFF80000FFFF8000FF80007FF800000000001FFF
310
800000000001FFF8000001FFFE0000007F80000000000001FFF800000000000F
310
FFFFF800000000000FFFFF0003FFFFFFFFFC00000000000FF000FC0000000000
310
1FFC0007FFFC0000FFFF8000FF80007FF800000000003FFFC00000000001FFF8
310
000001FFFE0000007F80000000000001FFF800000000000FFFFFF80000000000
310
0FFFFF0003FFFFFFFFFE00000000001FF000FE00000000003FF8000FFFFC0000
310
FFFF8000FF80007FFC00000000003FFFC00000000003FFF8000001FFFE000000
310
7F80000000000001FFFC00000000001FFFFFFC00000000001FFFFF0003FFFFFF
310
FFFF00000000001FF000FF00000000003FF8000FFFFC0000FFFFC000FF80007F
310
FE00000000007FFFE00000000007FFF8000001FFFE0000007F80000000000001
310
FFFE00000000003FFFFFFE00000000003FFFFF0003FFFFFFFFFF80000000003F
310
F000FF80000000007FF8000FFFFC0001FFFFC0007F80007FFF0000000000FFFF
310
F0000000000FFFF800000000000000007F80000000000001FFFF8000000000FF
310
FFFFFF8000000000FFFFFF0003FFFFFFFFFFC0000000007FF000FFC000000000
310
FFF8000FFFFE0001FFFFC0007F80007FFF8000000001FFFFF8000000001FFFF8
310
00000000000000007F80000000000001FFFFC000000001FFFFFFFFC000000001
310
FFFFFF0003FFFFFFFFFFE000000000FFF000FFE000000003FFF0001FFFFE0001
310
FFFFC0007F80007FFFC000000007FFFFFE000000003FFFF80000000000000000
310
7F80000000000001FFFFE000000003FFFFFFFFE000000003FFFFFF0003FFFFFF
310
FFFFF000000003FFF000FFF80000000FFFF0001FFFFE0001FFFFE0007F80007F
310
FFF00000000FFFFFFF00000000FFFFF800000000000000007F80000000000001
310
FFFFF80000000FFFFFFFFFF80000000FFFFFFF0003FFFFFFFFFFFC0000000FFF
310
F000FFFE0000003FFFF0001FFFFE0003FFFFE0003F80007FFFFC0000003FFFFF
310
FFC0000003FFFFF800000000000000007F80000000000001FFFFFE0000003FFF
310
FFFFFFFE0000003FFFFFFF0003FFFFFFFFFFFF0000003FFFF000FFFF800000FF
310
FFF0001FFFFF0003FFFFE0003F80007FFFFF000001FFFFFFFFF800001FFFFFF8
310
00000000000000007F80000000000001FFFFFFC00001FFFFFFFFFFFFC00001FF
310
FFFFFF0003FFFFFFFFFFFFC00000FFFFF000FFFFF8000FFFFFFFFFFFFFFFFFFF
310
FFFFFFFFFFFFFFFFFFFFF0001FFFFFFFFFFF0000FFFFFFF80000000000000000
310
7FFFFFFFFFFFFFFFFFFFFFFC001FFFFFFFFFFFFFFC001FFFFFFFFFFFFFFFFFFF
310
FFFFFFFC001FFFFFF000FFFFFFFFFFFFFFFFFFFFFFFFFFFFFFFFFFFFFFFFFFFF
310
FFFFFFFFFFFFFFFFFFFFFFFFFFFFFFFFFFFFFFFFFFFFFFFFFFFFFFFFFFFFFFFF
310
FFFFFFFFFFFFFFFFFFFFFFFFFFFFFFFFFFFFFFFFFFFFFFFFFFFFFFFFFFFFFFFF
310
F000FFFFFFFFFFFFFFFFFFFFFFFFFFFFFFFFFFFFFFFFFFFFFFFFFFFFFFFFFFFF
310
FFFFFFFFFFFFFFFFFFFFFFFFFFFFFFFFFFFFFFFFFFFFFFFFFFFFFFFFFFFFFFFF
310
FFFFFFFFFFFFFFFFFFFFFFFFFFFFFFFFFFFFFFFFFFFFFFFFF000FFFFFFFFFFFF
310
FFFFFFFFFFFFFFFFFFFFFFFFFFFFFFFFFFFFFFFFFFFFFFFFFFFFFFFFFFFFFFFF
310
FFFFFFFFFFFFFFFFFFFFFFFFFFFFFFFFFFFFFFFFFFFFFFFFFFFFFFFFFFFFFFFF
310
FFFFFFFFFFFFFFFFFFFFFFFFFFFFFFFFF000FFFFFFFFFFFFFFFFFFFFFFFFFFFF
310
FFFFFFFFFFFFFFFFFFFFFFFFFFFFFFFFFFFFFFFFFFFFFFFFFFFFFFFFFFFFFFFF
310
FFFFFFFFFFFFFFFFFFFFFFFFFFFFFFFFFFFFFFFFFFFFFFFFFFFFFFFFFFFFFFFF
310
FFFFFFFFFFFFFFFFF000FFFFFFFFFFFFFFFFFFFFFFFFFFFFFFFFFFFFFFFFFFFF
310
FFFFFFFFFFFFFFFFFFFFFFFFFFFFFFFFFFFFFFFFFFFFFFFFFFFFFFFFFFFFFFFF
310
FFFFFFFFFFFFFFFFFFFFFFFFFFFFFFFFFFFFFFFFFFFFFFFFFFFFFFFFFFFFFFFF
310
F000FFFFFFFFFFFFFFFFFFFFFFFFFFFFFFFFFFFFFFFFFFFFFFFFFFFFFFFFFFFF
310
FFFFFFFFFFFFFFFFFFFFFFFFFFFFFFFFFFFFFFFFFFFFFFFFFFFFFFFFFFFFFFFF
310
FFFFFFFFFFFFFFFFFFFFFFFFFFFFFFFFFFFFFFFFFFFFFFFFF000FFFFFFFFFFFF
310
FFFFFFFFFFFFFFFFFFFFFFFFFFFFFFFFFFFFFFFFFFFFFFFFFFFFFFFFFFFFFFFF
310
FFFFFFFFFFFFFFFFFFFFFFFFFFFFFFFFFFFFFFFFFFFFFFFFFFFFFFFFFFFFFFFF
310
FFFFFFFFFFFFFFFFFFFFFFFFFFFFFFFFF000FFFFFFFFFFFFFFFFFFFFFFFFFFFF
310
FFFFFFFFFFFFFFFFFFFFFFFFFFFFFFFFFFFFFFFFFFFFFFFFFFFFFFFFFFFFFFFF
310
FFFFFFFFFFFFFFFFFFFFFFFFFFFFFFFFFFFFFFFFFFFFFFFFFFFFFFFFFFFFFFFF
310
FFFFFFFFFFFFFFFFF000FFFFFFFFFFFFFFFFFFFFFFFFFFFFFFFFFFFFFFFFFFFF
310
FFFFFFFFFFFFFFFFFFFFFFFFFFFFFFFFFFFFFFFFFFFFFFFFFFFFFFFFFFFFFFFF
310
FFFFFFFFFFFFFFFFFFFFFFFFFFFFFFFFFFFFFFFFFFFFFFFFFFFFFFFFFFFFFFFF
310
F000FFFFFFFFFFFFFFFFFFFFFFFFFFFFFFFFFFFFFFFFFFFFFFFFFFFFFFFFFFFF
310
FFFFFFFFFFFFFFFFFFFFFFFFFFFFFFFFFFFFFFFFFFFFFFFFFFFFFFFFFFFFFFFF
310
FFFFFFFFFFFFFFFFFFFFFFFFFFFFFFFFFFFFFFFFFFFFFFFFF000FFFFFFFFFFFF
310
FFFFFFFFFFFFFFFFFFFFFFFFFFFFFFFFFFFFFFFFFFFFFFFFFFFFFFFFFFFFFFFF
310
FFFFFFFFFFFFFFFFFFFFFFFFFFFFFFFFFFFFFFFFFFFFFFFFFFFFFFFFFFFFFFFF
310
FFFFFFFFFFFFFFFFFFFFFFFFFFFFFFFFF000FFFFFFFFFFFFFFFFFFFFFFFFFFFF
310
FFFFFFFFFFFFFFFFFFFFFFFFFFFFFFFFFFFFFFFFFFFFFFFFFFFFFFFFFFFFFFFF
310
FFFFFFFFFFFFFFFFFFFFFFFFFFFFFFFFFFFFFFFFFFFFFFFFFFFFFFFFFFFFFFFF
310
FFFFFFFFFFFFFFFFF000FFFFFFFFFFFFFFFFFFFFFFFFFFFFFFFFFFFFFFFFFFFF
310
FFFFFFFFFFFFFFFFFFFFFFFFFFFFFFFFFFFFFFFFFFFFFFFFFFFFFFFFFFFFFFFF
310
FFFFFFFFFFFFFFFFFFFFFFFFFFFFFFFFFFFFFFFFFFFFFFFFFFFFFFFFFFFFFFFF
310
F000FFFFFFFFFFFFFFFFFFFFFFFFFFFFFFFFFFFFFFFFFFFFFFFFFFFFFFFFFFFF
310
FFFFFFFFFFFFFFFFFFFFFFFFFFFFFFFFFFFFFFFFFFFFFFFFFFFFFFFFFFFFFFFF
310
FFFFFFFFFFFFFFFFFFFFFFFFFFFFFFFFFFFFFFFFFFFFFFFFF000FFFFFFFFFFFF
310
FFFFFFFFFFFFFFFFFFFFFFFFFFFFFFFFFFFFFFFFFFFFFFFFFFFFFFFFFFFFFFFF
310
FFFFFFFFFFFFFFFFFFFFFFFFFFFFFFFFFFFFFFFFFFFFFFFFFFFFFFFFFFFFFFFF
310
FFFFFFFFFFFFFFFFFFFFFFFFFFFFFFFFF000FFFFFFFFFFFFFFFFFFFFFFFFFFFF
310
FFFFFFFFFFFFFFFFFFFFFFFFFFFFFFFFFFFFFFFFFFFFFFFFFFFFFFFFFFFFFFFF
310
FFFFFFFFFFFFFFFFFFFFFFFFFFFFFFFFFFFFFFFFFFFFFFFFFFFFFFFFFFFFFFFF
310
FFFFFFFFFFFFFFFFF000FFFFFFFFFFFFFFFFFFFFFFFFFFFFFFFFFFFFFFFFFFFF
310
FFFFFFFFFFFFFFFFFFFFFFFFFFFFFFFFFFFFFFFFFFFFFFFFFFFFFFFFFFFFFFFF
310
FFFFFFFFFFFFFFFFFFFFFFFFFFFFFFFFFFFFFFFFFFFFFFFFFFFFFFFFFFFFFFFF
310
F000FFFFFFFFFFFFFFFFFFFFFFFFFFFFFFFFFFFFFFFFFFFFFFFFFFFFFFFFFFFF
310
FFFFFFFFFFFFFFFFFFFFFFFFFFFFFFFFFFFFFFFFFFFFFFFFFFFFFFFFFFFFFFFF
310
FFFFFFFFFFFFFFFFFFFFFFFFFFFFFFFFFFFFFFFFFFFFFFFFF000FFFFFFFFFFFF
310
FFFFFFFFFFFFFFFFFFFFFFFFFFFFFFFFFFFFFFFFFFFFFFFFFFFFFFFFFFFFFFFF
310
FFFFFFFFFFFFFFFFFFFFFFFFFFFFFFFFFFFFFFFFFFFFFFFFFFFFFFFFFFFFFFFF
310
FFFFFFFFFFFFFFFFFFFFFFFFFFFFFFFFF000FFFFFFFFFFFFFFFFFFFFFFFFFFFF
310
FFFFFFFFFFFFFFFFFFFFFFFFFFFFFFFFFFFFFFFFFFFFFFFFFFFFFFFFFFFFFFFF
310
FFFFFFFFFFFFFFFFFFFFFFFFFFFFFFFFFFFFFFFFFFFFFFFFFFFFFFFFFFFFFFFF
310
FFFFFFFFFFFFFFFFF000FFFFFFFFFFFFFFFFFFFFFFFFFFFFFFFFFFFFFFFFFFFF
310
FFFFFFFFFFFFFFFFFFFFFFFFFFFFFFFFFFFFFFFFFFFFFFFFFFFFFFFFFFFFFFFF
310
FFFFFFFFFFFFFFFFFFFFFFFFFFFFFFFFFFFFFFFFFFFFFFFFFFFFFFFFFFFFFFFF
310
F000FFFFFFFFFFFFFFFFFFFFFFFFFFFFFFFFFFFFFFFFFFFFFFFFFFFFFFFFFFFF
310
FFFFFFFFFFFFFFFFFFFFFFFFFFFFFFFFFFFFFFFFFFFFFFFFFFFFFFFFFFFFFFFF
310
FFFFFFFFFFFFFFFFFFFFFFFFFFFFFFFFFFFFFFFFFFFFFFFFF000FFFFFFFFFFFF
310
FFFFFFFFFFFFFFFFFFFFFFFFFFFFFFFFFFFFFFFFFFFFFFFFFFFFFFFFFFFFFFFF
310
FFFFFFFFFFFFFFFFFFFFFFFFFFFFFFFFFFFFFFFFFFFFFFFFFFFFFFFFFFFFFFFF
310
FFFFFFFFFFFFFFFFFFFFFFFFFFFFFFFFF0000000000000000000000000000000
310
0000000001000000010000000100000001000000010000000100000001000000
310
0100000001000000010000000100000001000000010000000100000001000000
310
0100000001000000010000000100000001000000010000000100000001000000
310
0000000001000000010000000100000001000000010000000100000001000000
310
0100000001000000010000000100000001000000010000000100000001000000
310
0100000001000000010000000100000001000000010000000100000001000000
310
0100000001000000010000000000000001000000010000000100000001000000
310
0100000001000000010000000100000000000000010000000000000001000000
310
0000000001000000010000000100000001000000010000000100000001000000
310
0100000000000000010000000100000001000000010000000100000001000000
310
0100000001000000010000000100000001000000010000000100000001000000
310
0100000001000000010000000100000001000000010000000100000001000000
310
0100000001000000010000000100000001000000010000000100000001000000
310
0000000001000000010000000100000001000000000000000100000001000000
310
0100000001000000000000000100000000000000010000000000000001000000
  1
OLE
  0
ENDSEC
  0
SECTION
  2
OBJECTS
  0
DICTIONARY
  5
C
330
0
100
AcDbDictionary
281
     1
  3
ACAD_GROUP
350
D
  3
ACAD_LAYOUT
350
1A
  3
ACAD_MLEADERSTYLE
350
1F9
  3
ACAD_MLINESTYLE
350
17
  3
ACAD_PLOTSETTINGS
350
19
  3
ACAD_PLOTSTYLENAME
350
E
  3
ACAD_TABLESTYLE
350
1F8
  3
ACAD_VISUALSTYLE
350
2A
  3
AcDbVariableDictionary
350
1FA
  0
DICTIONARY
  5
D
102
{ACAD_REACTORS
330
C
102
}
330
C
100
AcDbDictionary
281
     1
  0
DICTIONARY
  5
1A
102
{ACAD_REACTORS
330
C
102
}
330
C
100
AcDbDictionary
281
     1
  3
Layout1
350
1E
  3
Layout2
350
26
  3
Model
350
22
  0
DICTIONARY
  5
1F9
102
{ACAD_REACTORS
330
C
102
}
330
C
100
AcDbDictionary
281
     1
  0
DICTIONARY
  5
17
102
{ACAD_REACTORS
330
C
102
}
330
C
100
AcDbDictionary
281
     1
  3
Standard
350
18
  0
DICTIONARY
  5
19
102
{ACAD_REACTORS
330
C
102
}
330
C
100
AcDbDictionary
281
     1
  0
ACDBDICTIONARYWDFLT
  5
E
102
{ACAD_REACTORS
330
C
102
}
330
C
100
AcDbDictionary
281
     1
  3
Normal
350
F
100
AcDbDictionaryWithDefault
340
F
  0
DICTIONARY
  5
1F8
102
{ACAD_REACTORS
330
C
102
}
330
C
100
AcDbDictionary
281
     1
  0
DICTIONARY
  5
2A
102
{ACAD_REACTORS
330
C
102
}
330
C
100
AcDbDictionary
281
     1
  3
2dWireframe
350
2F
  3
3D Hidden
350
31
  3
3dWireframe
350
30
  3
Basic
350
32
  3
Brighten
350
36
  3
ColorChange
350
3A
  3
Conceptual
350
34
  3
Dim
350
35
  3
Facepattern
350
39
  3
Flat
350
2B
  3
FlatWithEdges
350
2C
  3
Gouraud
350
2D
  3
GouraudWithEdges
350
2E
  3
Linepattern
350
38
  3
Realistic
350
33
  3
Thicken
350
37
  0
DICTIONARY
  5
1FA
102
{ACAD_REACTORS
330
C
102
}
330
C
100
AcDbDictionary
281
     1
  3
PSOLHEIGHT
350
1FC
  3
PSOLWIDTH
350
1FB
  0
LAYOUT
  5
1E
102
{ACAD_REACTORS
330
1A
102
}
330
1A
100
AcDbPlotSettings
  1

  2
none_device
  4

  6

 40
0.0
 41
0.0
 42
0.0
 43
0.0
 44
0.0
 45
0.0
 46
0.0
 47
0.0
 48
0.0
 49
0.0
140
0.0
141
0.0
142
1.0
143
1.0
 70
   688
 72
     0
 73
     0
 74
     5
  7

 75
    16
147
1.0
148
0.0
149
0.0
100
AcDbLayout
  1
Layout1
 70
     1
 71
     1
 10
0.0
 20
0.0
 11
420.0
 21
297.0
 12
0.0
 22
0.0
 32
0.0
 14
1.0000000000E+20
 24
1.0000000000E+20
 34
1.0000000000E+20
 15
-1.0000000000E+20
 25
-1.0000000000E+20
 35
-1.0000000000E+20
146
0.0
 13
0.0
 23
0.0
 33
0.0
 16
1.0
 26
0.0
 36
0.0
 17
0.0
 27
1.0
 37
0.0
 76
     0
330
1B
  0
LAYOUT
  5
26
102
{ACAD_REACTORS
330
1A
102
}
330
1A
100
AcDbPlotSettings
  1

  2
none_device
  4

  6

 40
0.0
 41
0.0
 42
0.0
 43
0.0
 44
0.0
 45
0.0
 46
0.0
 47
0.0
 48
0.0
 49
0.0
140
0.0
141
0.0
142
1.0
143
1.0
 70
   688
 72
     0
 73
     0
 74
     5
  7

 75
    16
147
1.0
148
0.0
149
0.0
100
AcDbLayout
  1
Layout2
 70
     1
 71
     2
 10
0.0
 20
0.0
 11
0.0
 21
0.0
 12
0.0
 22
0.0
 32
0.0
 14
0.0
 24
0.0
 34
0.0
 15
0.0
 25
0.0
 35
0.0
146
0.0
 13
0.0
 23
0.0
 33
0.0
 16
1.0
 26
0.0
 36
0.0
 17
0.0
 27
1.0
 37
0.0
 76
     0
330
23
  0
LAYOUT
  5
22
102
{ACAD_REACTORS
330
1A
102
}
330
1A
100
AcDbPlotSettings
  1

  2
none_device
  4

  6

 40
0.0
 41
0.0
 42
0.0
 43
0.0
 44
0.0
 45
0.0
 46
0.0
 47
0.0
 48
0.0
 49
0.0
140
0.0
141
0.0
142
1.0
143
1.0
 70
  1712
 72
     0
 73
     0
 74
     0
  7

 75
     0
147
1.0
148
0.0
149
0.0
100
AcDbLayout
  1
Model
 70
     1
 71
     0
 10
0.0
 20
0.0
 11
297.0
 21
210.0
 12
0.0
 22
0.0
 32
0.0
 14
0.0
 24
0.0
 34
0.0
 15
297.0
 25
210.0
 35
0.0
146
0.0
 13
0.0
 23
0.0
 33
0.0
 16
1.0
 26
0.0
 36
0.0
 17
0.0
 27
1.0
 37
0.0
 76
     0
330
1F
331
29
  0
MLINESTYLE
  5
18
102
{ACAD_REACTORS
330
17
102
}
330
17
100
AcDbMlineStyle
  2
Standard
 70
     0
  3

 62
   256
 51
90.0
 52
90.0
 71
     2
 49
0.5
 62
   256
  6
BYLAYER
 49
-0.5
 62
   256
  6
BYLAYER
  0
ACDBPLACEHOLDER
  5
F
102
{ACAD_REACTORS
330
E
102
}
330
E
  0
VISUALSTYLE
  5
2F
102
{ACAD_REACTORS
330
2A
102
}
330
2A
100
AcDbVisualStyle
  2
2dWireframe
 70
     4
 71
     0
 72
     2
 73
     0
 90
        0
 40
-0.6
 41
-30.0
 62
     5
 63
     7
 74
     1
 91
        4
 64
     7
 65
   257
 75
     1
175
     1
 42
1.0
 92
        0
 66
   257
 43
1.0
 76
     1
 77
     6
 78
     2
 67
     7
 79
     5
170
     0
171
     0
290
     0
174
     0
 93
        1
 44
0.0
173
     0
291
     0
 45
0.0
1001
ACAD
1000
AcDbSavedByObjectVersion
1070
     0
  0
VISUALSTYLE
  5
31
102
{ACAD_REACTORS
330
2A
102
}
330
2A
100
AcDbVisualStyle
  2
3D Hidden
 70
     6
 71
     1
 72
     2
 73
     2
 90
        0
 40
-0.6
 41
-30.0
 62
     5
 63
     7
 74
     2
 91
        2
 64
     7
 65
   257
 75
     2
175
     1
 42
40.0
 92
        0
 66
   257
 43
1.0
 76
     1
 77
     6
 78
     2
 67
     7
 79
     3
170
     0
171
     0
290
     0
174
     0
 93
        1
 44
0.0
173
     0
291
     0
 45
0.0
1001
ACAD
1000
AcDbSavedByObjectVersion
1070
     0
  0
VISUALSTYLE
  5
30
102
{ACAD_REACTORS
330
2A
102
}
330
2A
100
AcDbVisualStyle
  2
3dWireframe
 70
     5
 71
     0
 72
     2
 73
     0
 90
        0
 40
-0.6
 41
-30.0
 62
     5
 63
     7
 74
     1
 91
        4
 64
     7
 65
   257
 75
     1
175
     1
 42
1.0
 92
        0
 66
   257
 43
1.0
 76
     1
 77
     6
 78
     2
 67
     7
 79
     5
170
     0
171
     0
290
     0
174
     0
 93
        1
 44
0.0
173
     0
291
     0
 45
0.0
1001
ACAD
1000
AcDbSavedByObjectVersion
1070
     0
  0
VISUALSTYLE
  5
32
102
{ACAD_REACTORS
330
2A
102
}
330
2A
100
AcDbVisualStyle
  2
Basic
 70
     7
 71
     1
 72
     0
 73
     1
 90
        0
 40
-0.6
 41
-30.0
 62
     5
 63
     7
 74
     0
 91
        4
 64
     7
 65
   257
 75
     1
175
     1
 42
1.0
 92
        8
 66
     7
 43
1.0
 76
     1
 77
     6
 78
     2
 67
     7
 79
     5
170
     0
171
     0
290
     0
174
     0
 93
        1
 44
0.0
173
     0
291
     1
 45
0.0
1001
ACAD
1000
AcDbSavedByObjectVersion
1070
     0
  0
VISUALSTYLE
  5
36
102
{ACAD_REACTORS
330
2A
102
}
330
2A
100
AcDbVisualStyle
  2
Brighten
 70
    12
 71
     2
 72
     2
 73
     0
 90
        0
 40
-0.6
 41
-30.0
 62
     5
 63
     7
 74
     1
 91
        4
 64
     7
 65
   257
 75
     1
175
     1
 42
1.0
 92
        8
 66
     7
 43
1.0
 76
     1
 77
     6
 78
     2
 67
     7
 79
     5
170
     0
171
     0
290
     0
174
     0
 93
        1
 44
50.0
173
     0
291
     1
 45
0.0
1001
ACAD
1000
AcDbSavedByObjectVersion
1070
     0
  0
VISUALSTYLE
  5
3A
102
{ACAD_REACTORS
330
2A
102
}
330
2A
100
AcDbVisualStyle
  2
ColorChange
 70
    16
 71
     2
 72
     2
 73
     3
 90
        0
 40
-0.6
 41
-30.0
 62
     5
 63
     8
 74
     1
 91
        4
 64
     7
 65
   257
 75
     1
175
     1
 42
1.0
 92
        8
 66
     8
 43
1.0
 76
     1
 77
     6
 78
     2
 67
     7
 79
     5
170
     0
171
     0
290
     0
174
     0
 93
        1
 44
0.0
173
     0
291
     1
 45
0.0
1001
ACAD
1000
AcDbSavedByObjectVersion
1070
     0
  0
VISUALSTYLE
  5
34
102
{ACAD_REACTORS
330
2A
102
}
330
2A
100
AcDbVisualStyle
  2
Conceptual
 70
     9
 71
     3
 72
     2
 73
     0
 90
        0
 40
-0.6
 41
-30.0
 62
     5
 63
     7
 74
     2
 91
        2
 64
     7
 65
   257
 75
     1
175
     1
 42
40.0
 92
        8
 66
     7
 43
1.0
 76
     1
 77
     6
 78
     2
 67
     7
 79
     3
170
     0
171
     0
290
     0
174
     0
 93
        1
 44
0.0
173
     0
291
     0
 45
0.0
1001
ACAD
1000
AcDbSavedByObjectVersion
1070
     0
  0
VISUALSTYLE
  5
35
102
{ACAD_REACTORS
330
2A
102
}
330
2A
100
AcDbVisualStyle
  2
Dim
 70
    11
 71
     2
 72
     2
 73
     0
 90
        0
 40
-0.6
 41
-30.0
 62
     5
 63
     7
 74
     1
 91
        4
 64
     7
 65
   257
 75
     1
175
     1
 42
1.0
 92
        8
 66
     7
 43
1.0
 76
     1
 77
     6
 78
     2
 67
     7
 79
     5
170
     0
171
     0
290
     0
174
     0
 93
        1
 44
-50.0
173
     0
291
     1
 45
0.0
1001
ACAD
1000
AcDbSavedByObjectVersion
1070
     0
  0
VISUALSTYLE
  5
39
102
{ACAD_REACTORS
330
2A
102
}
330
2A
100
AcDbVisualStyle
  2
Facepattern
 70
    15
 71
     2
 72
     2
 73
     0
 90
        0
 40
-0.6
 41
-30.0
 62
     5
 63
     7
 74
     1
 91
        4
 64
     7
 65
   257
 75
     1
175
     1
 42
1.0
 92
        8
 66
     7
 43
1.0
 76
     1
 77
     6
 78
     2
 67
     7
 79
     5
170
     0
171
     0
290
     0
174
     0
 93
        1
 44
0.0
173
     0
291
     1
 45
0.0
1001
ACAD
1000
AcDbSavedByObjectVersion
1070
     0
  0
VISUALSTYLE
  5
2B
102
{ACAD_REACTORS
330
2A
102
}
330
2A
100
AcDbVisualStyle
  2
Flat
 70
     0
 71
     2
 72
     1
 73
     1
 90
        2
 40
-0.6
 41
30.0
 62
     5
 63
     7
 74
     0
 91
        4
 64
     7
 65
   257
 75
     1
175
     1
 42
1.0
 92
        8
 66
     7
 43
1.0
 76
     1
 77
     6
 78
     2
 67
     7
 79
     5
170
     0
171
     0
290
     0
174
     0
 93
       13
 44
0.0
173
     0
291
     1
 45
0.0
1001
ACAD
1000
AcDbSavedByObjectVersion
1070
     0
  0
VISUALSTYLE
  5
2C
102
{ACAD_REACTORS
330
2A
102
}
330
2A
100
AcDbVisualStyle
  2
FlatWithEdges
 70
     1
 71
     2
 72
     1
 73
     1
 90
        2
 40
-0.6
 41
30.0
 62
     5
 63
     7
 74
     1
 91
        4
 64
     7
 65
   257
 75
     1
175
     1
 42
1.0
 92
        0
 66
   257
 43
1.0
 76
     1
 77
     6
 78
     2
 67
     7
 79
     5
170
     0
171
     0
290
     0
174
     0
 93
       13
 44
0.0
173
     0
291
     1
 45
0.0
1001
ACAD
1000
AcDbSavedByObjectVersion
1070
     0
  0
VISUALSTYLE
  5
2D
102
{ACAD_REACTORS
330
2A
102
}
330
2A
100
AcDbVisualStyle
  2
Gouraud
 70
     2
 71
     2
 72
     2
 73
     1
 90
        2
 40
-0.6
 41
30.0
 62
     5
 63
     7
 74
     0
 91
        4
 64
     7
 65
   257
 75
     1
175
     1
 42
1.0
 92
        0
 66
     7
 43
1.0
 76
     1
 77
     6
 78
     2
 67
     7
 79
     5
170
     0
171
     0
290
     0
174
     0
 93
       13
 44
0.0
173
     0
291
     1
 45
0.0
1001
ACAD
1000
AcDbSavedByObjectVersion
1070
     0
  0
VISUALSTYLE
  5
2E
102
{ACAD_REACTORS
330
2A
102
}
330
2A
100
AcDbVisualStyle
  2
GouraudWithEdges
 70
     3
 71
     2
 72
     2
 73
     1
 90
        2
 40
-0.6
 41
30.0
 62
     5
 63
     7
 74
     1
 91
        4
 64
     7
 65
   257
 75
     1
175
     1
 42
1.0
 92
        0
 66
   257
 43
1.0
 76
     1
 77
     6
 78
     2
 67
     7
 79
     5
170
     0
171
     0
290
     0
174
     0
 93
       13
 44
0.0
173
     0
291
     1
 45
0.0
1001
ACAD
1000
AcDbSavedByObjectVersion
1070
     0
  0
VISUALSTYLE
  5
38
102
{ACAD_REACTORS
330
2A
102
}
330
2A
100
AcDbVisualStyle
  2
Linepattern
 70
    14
 71
     2
 72
     2
 73
     0
 90
        0
 40
-0.6
 41
-30.0
 62
     5
 63
     7
 74
     1
 91
        4
 64
     7
 65
   257
 75
     7
175
     7
 42
1.0
 92
        8
 66
     7
 43
1.0
 76
     1
 77
     6
 78
     2
 67
     7
 79
     5
170
     0
171
     0
290
     0
174
     0
 93
        1
 44
0.0
173
     0
291
     1
 45
0.0
1001
ACAD
1000
AcDbSavedByObjectVersion
1070
     0
  0
VISUALSTYLE
  5
33
102
{ACAD_REACTORS
330
2A
102
}
330
2A
100
AcDbVisualStyle
  2
Realistic
 70
     8
 71
     2
 72
     2
 73
     0
 90
        0
 40
-0.6
 41
-30.0
 62
     5
 63
     7
 74
     1
 91
        0
 64
     7
 65
   257
 75
     1
175
     1
 42
1.0
 92
        8
 66
     8
 43
1.0
 76
     1
 77
     6
 78
     2
 67
     7
 79
     5
170
     0
171
     0
290
     0
174
     0
 93
       13
 44
0.0
173
     0
291
     0
 45
0.0
1001
ACAD
1000
AcDbSavedByObjectVersion
1070
     0
  0
VISUALSTYLE
  5
37
102
{ACAD_REACTORS
330
2A
102
}
330
2A
100
AcDbVisualStyle
  2
Thicken
 70
    13
 71
     2
 72
     2
 73
     0
 90
        0
 40
-0.6
 41
-30.0
 62
     5
 63
     7
 74
     1
 91
        4
 64
     7
 65
   257
 75
     1
175
     1
 42
1.0
 92
       12
 66
     7
 43
1.0
 76
     1
 77
     6
 78
     2
 67
     7
 79
     5
170
     0
171
     0
290
     0
174
     0
 93
        1
 44
0.0
173
     0
291
     1
 45
0.0
1001
ACAD
1000
AcDbSavedByObjectVersion
1070
     0
  0
DICTIONARYVAR
  5
1FC
102
{ACAD_REACTORS
330
1FA
102
}
330
1FA
100
DictionaryVariables
280
     0
  1
80.000000
  0
DICTIONARYVAR
  5
1FB
102
{ACAD_REACTORS
330
1FA
102
}
330
1FA
100
DictionaryVariables
280
     0
  1
5.000000
  0
ENDSEC
  0
EOF
