  0
SECTION
  2
HEADER
  9
$ACADVER
  1
AC1015
  9
$ACADMAINTVER
 70
     6
  9
$DWGCODEPAGE
  3
ANSI_1252
  9
$INSBASE
 10
0.0
 20
0.0
 30
0.0
  9
$EXTMIN
 10
0.0
 20
0.0
 30
0.0
  9
$EXTMAX
 10
297.0
 20
210.0
 30
0.0
  9
$LIMMIN
 10
0.0
 20
0.0
  9
$LIMMAX
 10
297.0
 20
210.0
  9
$ORTHOMODE
 70
     0
  9
$REGENMODE
 70
     1
  9
$FILLMODE
 70
     1
  9
$QTEXTMODE
 70
     0
  9
$MIRRTEXT
 70
     1
  9
$LTSCALE
 40
1.0
  9
$ATTMODE
 70
     1
  9
$TEXTSIZE
 40
2.0
  9
$TRACEWID
 40
1.0
  9
$TEXTSTYLE
  7
Standard
  9
$CLAYER
  8
0
  9
$CELTYPE
  6
ByLayer
  9
$CECOLOR
 62
   256
  9
$CELTSCALE
 40
1.0
  9
$DISPSILH
 70
     0
  9
$DIMSCALE
 40
1.0
  9
$DIMASZ
 40
3.0
  9
$DIMEXO
 40
0.0
  9
$DIMDLI
 40
3.75
  9
$DIMRND
 40
0.0
  9
$DIMDLE
 40
0.0
  9
$DIMEXE
 40
1.0
  9
$DIMTP
 40
0.0
  9
$DIMTM
 40
0.0
  9
$DIMTXT
 40
2.0
  9
$DIMCEN
 40
2.5
  9
$DIMTSZ
 40
0.0
  9
$DIMTOL
 70
     0
  9
$DIMLIM
 70
     0
  9
$DIMTIH
 70
     1
  9
$DIMTOH
 70
     1
  9
$DIMSE1
 70
     0
  9
$DIMSE2
 70
     0
  9
$DIMTAD
 70
     1
  9
$DIMZIN
 70
     0
  9
$DIMBLK
  1

  9
$DIMASO
 70
     1
  9
$DIMSHO
 70
     1
  9
$DIMPOST
  1

  9
$DIMAPOST
  1

  9
$DIMALT
 70
     0
  9
$DIMALTD
 70
     3
  9
$DIMALTF
 40
0.0393700787
  9
$DIMLFAC
 40
1.0
  9
$DIMTOFL
 70
     1
  9
$DIMTVP
 40
0.0
  9
$DIMTIX
 70
     0
  9
$DIMSOXD
 70
     0
  9
$DIMSAH
 70
     0
  9
$DIMBLK1
  1

  9
$DIMBLK2
  1

  9
$DIMSTYLE
  2
ISO-25
  9
$DIMCLRD
 70
     0
  9
$DIMCLRE
 70
     0
  9
$DIMCLRT
 70
     0
  9
$DIMTFAC
 40
1.0
  9
$DIMGAP
 40
1.524
  9
$DIMJUST
 70
     0
  9
$DIMSD1
 70
     0
  9
$DIMSD2
 70
     0
  9
$DIMTOLJ
 70
     0
  9
$DIMTZIN
 70
     0
  9
$DIMALTZ
 70
     0
  9
$DIMALTTZ
 70
     0
  9
$DIMUPT
 70
     0
  9
$DIMDEC
 70
     2
  9
$DIMTDEC
 70
     3
  9
$DIMALTU
 70
     2
  9
$DIMALTTD
 70
     3
  9
$DIMTXSTY
  7
Standard
  9
$DIMAUNIT
 70
     0
  9
$DIMADEC
 70
     2
  9
$DIMALTRND
 40
0.0
  9
$DIMAZIN
 70
     0
  9
$DIMDSEP
 70
    44
  9
$DIMATFIT
 70
     3
  9
$DIMFRAC
 70
     0
  9
$DIMLDRBLK
  1

  9
$DIMLUNIT
 70
     2
  9
$DIMLWD
 70
    -2
  9
$DIMLWE
 70
    -2
  9
$DIMTMOVE
 70
     0
  9
$LUNITS
 70
     2
  9
$LUPREC
 70
     2
  9
$SKETCHINC
 40
1.0
  9
$FILLETRAD
 40
10.0
  9
$AUNITS
 70
     0
  9
$AUPREC
 70
     2
  9
$MENU
  1
.
  9
$ELEVATION
 40
0.0
  9
$PELEVATION
 40
0.0
  9
$THICKNESS
 40
0.0
  9
$LIMCHECK
 70
     0
  9
$CHAMFERA
 40
10.0
  9
$CHAMFERB
 40
10.0
  9
$CHAMFERC
 40
20.0
  9
$CHAMFERD
 40
0.0
  9
$SKPOLY
 70
     0
  9
$TDCREATE
 40
2455673.492960845
  9
$TDUCREATE
 40
2455673.409627512
  9
$TDUPDATE
 40
2455673.492960856
  9
$TDUUPDATE
 40
2455673.409627523
  9
$TDINDWG
 40
0.0000000116
  9
$TDUSRTIMER
 40
0.0000000116
  9
$USRTIMER
 70
     1
  9
$ANGBASE
 50
0.0
  9
$ANGDIR
 70
     0
  9
$PDMODE
 70
     0
  9
$PDSIZE
 40
-1.0
  9
$PLINEWID
 40
0.0
  9
$SPLFRAME
 70
     0
  9
$SPLINETYPE
 70
     6
  9
$SPLINESEGS
 70
     8
  9
$HANDSEED
  5
1FA
  9
$SURFTAB1
 70
     6
  9
$SURFTAB2
 70
     6
  9
$SURFTYPE
 70
     6
  9
$SURFU
 70
     6
  9
$SURFV
 70
     6
  9
$UCSBASE
  2

  9
$UCSNAME
  2

  9
$UCSORG
 10
0.0
 20
0.0
 30
0.0
  9
$UCSXDIR
 10
1.0
 20
0.0
 30
0.0
  9
$UCSYDIR
 10
0.0
 20
1.0
 30
0.0
  9
$UCSORTHOREF
  2

  9
$UCSORTHOVIEW
 70
     0
  9
$UCSORGTOP
 10
0.0
 20
0.0
 30
0.0
  9
$UCSORGBOTTOM
 10
0.0
 20
0.0
 30
0.0
  9
$UCSORGLEFT
 10
0.0
 20
0.0
 30
0.0
  9
$UCSORGRIGHT
 10
0.0
 20
0.0
 30
0.0
  9
$UCSORGFRONT
 10
0.0
 20
0.0
 30
0.0
  9
$UCSORGBACK
 10
0.0
 20
0.0
 30
0.0
  9
$PUCSBASE
  2

  9
$PUCSNAME
  2

  9
$PUCSORG
 10
0.0
 20
0.0
 30
0.0
  9
$PUCSXDIR
 10
1.0
 20
0.0
 30
0.0
  9
$PUCSYDIR
 10
0.0
 20
1.0
 30
0.0
  9
$PUCSORTHOREF
  2

  9
$PUCSORTHOVIEW
 70
     0
  9
$PUCSORGTOP
 10
0.0
 20
0.0
 30
0.0
  9
$PUCSORGBOTTOM
 10
0.0
 20
0.0
 30
0.0
  9
$PUCSORGLEFT
 10
0.0
 20
0.0
 30
0.0
  9
$PUCSORGRIGHT
 10
0.0
 20
0.0
 30
0.0
  9
$PUCSORGFRONT
 10
0.0
 20
0.0
 30
0.0
  9
$PUCSORGBACK
 10
0.0
 20
0.0
 30
0.0
  9
$USERI1
 70
     0
  9
$USERI2
 70
     0
  9
$USERI3
 70
     0
  9
$USERI4
 70
     0
  9
$USERI5
 70
     0
  9
$USERR1
 40
0.0
  9
$USERR2
 40
0.0
  9
$USERR3
 40
0.0
  9
$USERR4
 40
0.0
  9
$USERR5
 40
0.0
  9
$WORLDVIEW
 70
     1
  9
$SHADEDGE
 70
     3
  9
$SHADEDIF
 70
    70
  9
$TILEMODE
 70
     1
  9
$MAXACTVP
 70
    64
  9
$PINSBASE
 10
0.0
 20
0.0
 30
0.0
  9
$PLIMCHECK
 70
     0
  9
$PEXTMIN
 10
1.0000000000E+20
 20
1.0000000000E+20
 30
1.0000000000E+20
  9
$PEXTMAX
 10
-1.0000000000E+20
 20
-1.0000000000E+20
 30
-1.0000000000E+20
  9
$PLIMMIN
 10
0.0
 20
0.0
  9
$PLIMMAX
 10
420.0
 20
297.0
  9
$UNITMODE
 70
     0
  9
$VISRETAIN
 70
     1
  9
$PLINEGEN
 70
     0
  9
$PSLTSCALE
 70
     1
  9
$TREEDEPTH
 70
  3020
  9
$CMLSTYLE
  2
Standard
  9
$CMLJUST
 70
     0
  9
$CMLSCALE
 40
20.0
  9
$PROXYGRAPHICS
 70
     1
  9
$MEASUREMENT
 70
     1
  9
$CELWEIGHT
370
    -1
  9
$ENDCAPS
280
     0
  9
$JOINSTYLE
280
     0
  9
$LWDISPLAY
290
     1
  9
$INSUNITS
 70
     4
  9
$HYPERLINKBASE
  1

  9
$STYLESHEET
  1

  9
$XEDIT
290
     1
  9
$CEPSNTYPE
380
     0
  9
$PSTYLEMODE
290
     1
  9
$FINGERPRINTGUID
  2
{0FC7C02B-E834-4063-9259-17EF928C7746}
  9
$VERSIONGUID
  2
{FAEB1C32-E019-11D5-929B-00C0DF256EC4}
  9
$EXTNAMES
290
     1
  9
$PSVPSCALE
 40
0.0
  9
$OLESTARTUP
290
     0
  0
ENDSEC
  0
SECTION
  2
CLASSES
  0
CLASS
  1
ACDBDICTIONARYWDFLT
  2
AcDbDictionaryWithDefault
  3
ObjectDBX Classes
 90
        0
280
     0
281
     0
  0
CLASS
  1
VISUALSTYLE
  2
AcDbVisualStyle
  3
ObjectDBX Classes
 90
     4095
280
     0
281
     0
  0
CLASS
  1
DICTIONARYVAR
  2
AcDbDictionaryVar
  3
ObjectDBX Classes
 90
        0
280
     0
281
     0
  0
CLASS
  1
ACDBPLACEHOLDER
  2
AcDbPlaceHolder
  3
ObjectDBX Classes
 90
        0
280
     0
281
     0
  0
CLASS
  1
LAYOUT
  2
AcDbLayout
  3
ObjectDBX Classes
 90
        0
280
     0
281
     0
  0
ENDSEC
  0
SECTION
  2
TABLES
  0
TABLE
  2
VPORT
  5
8
330
0
100
AcDbSymbolTable
 70
     1
  0
VPORT
  5
29
330
8
100
AcDbSymbolTableRecord
100
AcDbViewportTableRecord
  2
*Active
 70
     0
 10
0.0
 20
0.0
 11
1.0
 21
1.0
 12
148.5
 22
105.0
 13
0.0
 23
0.0
 14
10.0
 24
10.0
 15
10.0
 25
10.0
 16
0.0
 26
0.0
 36
1.0
 17
0.0
 27
0.0
 37
0.0
 40
210.0
 41
1.4142857143
 42
50.0
 43
0.0
 44
0.0
 50
0.0
 51
0.0
 71
     0
 72
  2000
 73
     1
 74
     3
 75
     0
 76
     0
 77
     0
 78
     0
281
     0
 65
     1
110
0.0
120
0.0
130
0.0
111
1.0
121
0.0
131
0.0
112
0.0
122
1.0
132
0.0
 79
     0
146
0.0
  0
ENDTAB
  0
TABLE
  2
LTYPE
  5
5
330
0
100
AcDbSymbolTable
 70
     6
  0
LTYPE
  5
14
330
5
100
AcDbSymbolTableRecord
100
AcDbLinetypeTableRecord
  2
ByBlock
 70
     0
  3

 72
    65
 73
     0
 40
0.0
  0
LTYPE
  5
15
330
5
100
AcDbSymbolTableRecord
100
AcDbLinetypeTableRecord
  2
ByLayer
 70
     0
  3

 72
    65
 73
     0
 40
0.0
  0
LTYPE
  5
16
330
5
100
AcDbSymbolTableRecord
100
AcDbLinetypeTableRecord
  2
Continuous
 70
     0
  3
Solid line
 72
    65
 73
     0
 40
0.0
  0
LTYPE
  5
3B
330
5
100
AcDbSymbolTableRecord
100
AcDbLinetypeTableRecord
  2
HIDDEN
 70
     0
  3
Hidden __ __ __ __ __ __ __ __ __ __ __ __ __ __
 72
    65
 73
     2
 40
1.905
 49
1.27
 74
     0
 49
-0.635
 74
     0
  0
LTYPE
  5
3C
330
5
100
AcDbSymbolTableRecord
100
AcDbLinetypeTableRecord
  2
PHANTOM
 70
     0
  3
Phantom ______  __  __  ______  __  __  ______
 72
    65
 73
     6
 40
12.7
 49
6.35
 74
     0
 49
-1.27
 74
     0
 49
1.27
 74
     0
 49
-1.27
 74
     0
 49
1.27
 74
     0
 49
-1.27
 74
     0
  0
LTYPE
  5
3D
330
5
100
AcDbSymbolTableRecord
100
AcDbLinetypeTableRecord
  2
CENTER
 70
     0
  3
Center ____ _ ____ _ ____ _ ____ _ ____ _ ____
 72
    65
 73
     4
 40
10.16
 49
6.35
 74
     0
 49
-1.27
 74
     0
 49
1.27
 74
     0
 49
-1.27
 74
     0
  0
LTYPE
  5
3E
330
5
100
AcDbSymbolTableRecord
100
AcDbLinetypeTableRecord
  2
CENTERX2
 70
     0
  3
Center (2x) ________  __  ________  __  _____
 72
    65
 73
     4
 40
20.32
 49
12.7
 74
     0
 49
-2.54
 74
     0
 49
2.54
 74
     0
 49
-2.54
 74
     0
  0
LTYPE
  5
3F
330
5
100
AcDbSymbolTableRecord
100
AcDbLinetypeTableRecord
  2
DOT2
 70
     0
  3
Dot (.5x) ........................................
 72
    65
 73
     2
 40
0.635
 49
0.0
 74
     0
 49
-0.635
 74
     0
  0
ENDTAB
  0
TABLE
  2
LAYER
  5
2
330
0
100
AcDbSymbolTable
 70
     5
  0
LAYER
  5
10
330
2
100
AcDbSymbolTableRecord
100
AcDbLayerTableRecord
  2
0
 70
     0
 62
     7
  6
Continuous
370
    -3
390
F
  0
LAYER
  5
40
330
2
100
AcDbSymbolTableRecord
100
AcDbLayerTableRecord
  2
FORMAT
 70
     0
 62
     7
  6
Continuous
370
    -3
390
F
  0
LAYER
  5
41
330
2
100
AcDbSymbolTableRecord
100
AcDbLayerTableRecord
  2
VERMASSUNG
 70
     0
 62
     7
  6
Continuous
370
    -3
390
F
  0
LAYER
  5
42
330
2
100
AcDbSymbolTableRecord
100
AcDbLayerTableRecord
  2
KOPF_DÜNN
 70
     0
 62
     7
  6
Continuous
370
    -3
390
F
  0
LAYER
  5
43
330
2
100
AcDbSymbolTableRecord
100
AcDbLayerTableRecord
  2
KOPF_DICK
 70
     0
 62
     7
  6
Continuous
370
    15
390
F
  0
ENDTAB
  0
TABLE
  2
STYLE
  5
3
330
0
100
AcDbSymbolTable
 70
     3
  0
STYLE
  5
11
330
3
100
AcDbSymbolTableRecord
100
AcDbTextStyleTableRecord
  2
Standard
 70
     0
 40
0.0
 41
1.0
 50
0.0
 71
     0
 42
2.5
  3
txt
  4

  0
STYLE
  5
44
330
3
100
AcDbSymbolTableRecord
100
AcDbTextStyleTableRecord
  2
SLDTEXTSTYLE0
 70
     0
 40
0.0
 41
0.7
 50
0.0
 71
     0
 42
0.2
  3
TXT
  4

  0
STYLE
  5
48
330
3
100
AcDbSymbolTableRecord
100
AcDbTextStyleTableRecord
  2
SLDTEXTSTYLE1
 70
     0
 40
0.0
 41
0.65
 50
0.0
 71
     0
 42
0.2
  3
TXT
  4

  0
ENDTAB
  0
TABLE
  2
VIEW
  5
6
330
0
100
AcDbSymbolTable
 70
     0
  0
ENDTAB
  0
TABLE
  2
UCS
  5
7
330
0
100
AcDbSymbolTable
 70
     0
  0
ENDTAB
  0
TABLE
  2
APPID
  5
9
330
0
100
AcDbSymbolTable
 70
     1
  0
APPID
  5
12
330
9
100
AcDbSymbolTableRecord
100
AcDbRegAppTableRecord
  2
ACAD
 70
     0
  0
ENDTAB
  0
TABLE
  2
DIMSTYLE
  5
A
330
0
100
AcDbSymbolTable
 70
     2
100
AcDbDimStyleTable
  0
DIMSTYLE
105
27
330
A
100
AcDbSymbolTableRecord
100
AcDbDimStyleTableRecord
  2
ISO-25
 70
     0
 41
2.5
 42
0.625
 43
3.75
 44
1.25
 73
     0
 74
     0
 77
     1
 78
     8
140
2.5
141
2.5
143
0.0393700787
147
0.625
171
     3
172
     1
271
     2
272
     2
274
     3
278
    44
283
     0
284
     8
340
11
  0
DIMSTYLE
105
1B3
102
{ACAD_REACTORS
330
1B2
330
1BF
330
1C9
330
1D3
330
1DD
330
1E8
102
}
330
A
100
AcDbSymbolTableRecord
100
AcDbDimStyleTableRecord
  2
SLDDIMSTYLE0
 70
     0
 41
3.0
 44
0.0
 45
0.000000001
 73
     0
 74
     0
 77
     1
 78
    12
140
2.0
147
0.5
173
     1
271
     2
272
     3
284
    12
340
44
  0
ENDTAB
  0
TABLE
  2
BLOCK_RECORD
  5
1
330
0
100
AcDbSymbolTable
 70
     7
  0
BLOCK_RECORD
  5
1F
330
1
100
AcDbSymbolTableRecord
100
AcDbBlockTableRecord
  2
*Model_Space
340
22
  0
BLOCK_RECORD
  5
1B
330
1
100
AcDbSymbolTableRecord
100
AcDbBlockTableRecord
  2
*Paper_Space
340
1E
  0
BLOCK_RECORD
  5
23
330
1
100
AcDbSymbolTableRecord
100
AcDbBlockTableRecord
  2
*Paper_Space0
340
26
  0
BLOCK_RECORD
  5
1B4
330
1
100
AcDbSymbolTableRecord
100
AcDbBlockTableRecord
  2
*D1
340
0
  0
BLOCK_RECORD
  5
1C0
330
1
100
AcDbSymbolTableRecord
100
AcDbBlockTableRecord
  2
*D2
340
0
  0
BLOCK_RECORD
  5
1CA
330
1
100
AcDbSymbolTableRecord
100
AcDbBlockTableRecord
  2
*D3
340
0
  0
BLOCK_RECORD
  5
1D4
330
1
100
AcDbSymbolTableRecord
100
AcDbBlockTableRecord
  2
*D4
340
0
  0
BLOCK_RECORD
  5
1DE
330
1
100
AcDbSymbolTableRecord
100
AcDbBlockTableRecord
  2
*D5
340
0
  0
BLOCK_RECORD
  5
1E9
330
1
100
AcDbSymbolTableRecord
100
AcDbBlockTableRecord
  2
*D6
340
0
  0
ENDTAB
  0
ENDSEC
  0
SECTION
  2
BLOCKS
  0
BLOCK
  5
20
330
1F
100
AcDbEntity
  8
0
100
AcDbBlockBegin
  2
*Model_Space
 70
     0
 10
0.0
 20
0.0
 30
0.0
  3
*Model_Space
  1

  0
ENDBLK
  5
21
330
1F
100
AcDbEntity
  8
0
100
AcDbBlockEnd
  0
BLOCK
  5
1C
330
1B
100
AcDbEntity
 67
     1
  8
0
100
AcDbBlockBegin
  2
*Paper_Space
 70
     0
 10
0.0
 20
0.0
 30
0.0
  3
*Paper_Space
  1

  0
ENDBLK
  5
1D
330
1B
100
AcDbEntity
 67
     1
  8
0
100
AcDbBlockEnd
  0
BLOCK
  5
24
330
23
100
AcDbEntity
  8
0
100
AcDbBlockBegin
  2
*Paper_Space0
 70
     0
 10
0.0
 20
0.0
 30
0.0
  3
*Paper_Space0
  1

  0
ENDBLK
  5
25
330
23
100
AcDbEntity
  8
0
100
AcDbBlockEnd
  0
BLOCK
  5
1B5
330
1B4
100
AcDbEntity
  8
0
100
AcDbBlockBegin
  2
*D1
 70
     1
 10
0.0
 20
0.0
 30
0.0
  3
*D1
  1

  0
SOLID
  5
1B7
330
1B4
100
AcDbEntity
  8
VERMASSUNG
100
AcDbTrace
 10
35.7976271594
 20
160.1737767491
 30
0.0
 11
35.3476271594
 21
157.1737767491
 31
0.0
 12
36.2476271594
 22
157.1737767491
 32
0.0
 13
36.2476271594
 23
157.1737767491
 33
0.0
  0
SOLID
  5
1B8
330
1B4
100
AcDbEntity
  8
VERMASSUNG
100
AcDbTrace
 10
35.7976271594
 20
60.1737767491
 30
0.0
 11
36.2476271594
 21
63.1737767491
 31
0.0
 12
35.3476271594
 22
63.1737767491
 32
0.0
 13
35.3476271594
 23
63.1737767491
 33
0.0
  0
LINE
  5
1B9
330
1B4
100
AcDbEntity
  8
VERMASSUNG
100
AcDbLine
 10
90.7274655352
 20
160.1737767491
 30
0.0
 11
34.7976271594
 21
160.1737767491
 31
0.0
  0
LINE
  5
1BA
330
1B4
100
AcDbEntity
  8
VERMASSUNG
100
AcDbLine
 10
90.7274655352
 20
60.1737767491
 30
0.0
 11
34.7976271594
 21
60.1737767491
 31
0.0
  0
LINE
  5
1BB
330
1B4
100
AcDbEntity
  8
VERMASSUNG
100
AcDbLine
 10
35.7976271594
 20
160.1737767491
 30
0.0
 11
35.7976271594
 21
60.1737767491
 31
0.0
  0
MTEXT
  5
1BC
330
1B4
100
AcDbEntity
  8
VERMASSUNG
100
AcDbMText
 10
33.0194916704
 20
101.0641530986
 30
0.0
 40
2.0
 41
0.0
 71
     1
 72
     1
  1
HSK A 
  7
SLDTEXTSTYLE0
 11
-7.044195017643634E-15
 21
1.0
 31
0.0
 73
     1
 44
1.0
  0
MTEXT
  5
1BD
330
1B4
100
AcDbEntity
  8
VERMASSUNG
100
AcDbMText
 10
33.2194916799
 20
110.0641536425
 30
0.0
 40
2.0
 41
0.0
 71
     1
 72
     1
  1
%%c
  7
SLDTEXTSTYLE0
 11
-7.044195017643634E-15
 21
1.0
 31
0.0
 73
     1
 44
1.0
  0
MTEXT
  5
1BE
330
1B4
100
AcDbEntity
  8
VERMASSUNG
100
AcDbMText
 10
33.2194917963
 20
113.6724802926
 30
0.0
 40
2.0
 41
0.0
 71
     1
 72
     1
  1
100
  7
SLDTEXTSTYLE0
 11
-7.044195017643634E-15
 21
1.0
 31
0.0
 73
     1
 44
1.0
  0
ENDBLK
  5
1B6
330
1B4
100
AcDbEntity
  8
0
100
AcDbBlockEnd
  0
BLOCK
  5
1C1
330
1C0
100
AcDbEntity
  8
0
100
AcDbBlockBegin
  2
*D2
 70
     1
 10
0.0
 20
0.0
 30
0.0
  3
*D2
  1

  0
SOLID
  5
1C3
330
1C0
100
AcDbEntity
  8
VERMASSUNG
100
AcDbTrace
 10
119.1774655352
 20
164.293716143
 30
0.0
 11
122.1774655352
 21
163.843716143
 31
0.0
 12
122.1774655352
 22
164.743716143
 32
0.0
 13
122.1774655352
 23
164.743716143
 33
0.0
  0
SOLID
  5
1C4
330
1C0
100
AcDbEntity
  8
VERMASSUNG
100
AcDbTrace
 10
250.2274655352
 20
164.293716143
 30
0.0
 11
247.2274655352
 21
164.743716143
 31
0.0
 12
247.2274655352
 22
163.843716143
 32
0.0
 13
247.2274655352
 23
163.843716143
 33
0.0
  0
LINE
  5
1C5
330
1C0
100
AcDbEntity
  8
VERMASSUNG
100
AcDbLine
 10
119.1774655352
 20
158.1425165699
 30
0.0
 11
119.1774655352
 21
165.293716143
 31
0.0
  0
LINE
  5
1C6
330
1C0
100
AcDbEntity
  8
VERMASSUNG
100
AcDbLine
 10
250.2274655352
 20
127.8996362275
 30
0.0
 11
250.2274655352
 21
165.293716143
 31
0.0
  0
LINE
  5
1C7
330
1C0
100
AcDbEntity
  8
VERMASSUNG
100
AcDbLine
 10
119.1774655352
 20
164.293716143
 30
0.0
 11
250.2274655352
 21
164.293716143
 31
0.0
  0
MTEXT
  5
1C8
330
1C0
100
AcDbEntity
  8
VERMASSUNG
100
AcDbMText
 10
181.3026497173
 20
166.8718515061
 30
0.0
 40
2.0
 41
0.0
 71
     1
 72
     1
  1
131.05
  7
SLDTEXTSTYLE0
 73
     1
 44
1.0
  0
ENDBLK
  5
1C2
330
1C0
100
AcDbEntity
  8
0
100
AcDbBlockEnd
  0
BLOCK
  5
1CB
330
1CA
100
AcDbEntity
  8
0
100
AcDbBlockBegin
  2
*D3
 70
     1
 10
0.0
 20
0.0
 30
0.0
  3
*D3
  1

  0
SOLID
  5
1CD
330
1CA
100
AcDbEntity
  8
VERMASSUNG
100
AcDbTrace
 10
90.2274655352
 20
170.293716143
 30
0.0
 11
93.2274655352
 21
169.843716143
 31
0.0
 12
93.2274655352
 22
170.743716143
 32
0.0
 13
93.2274655352
 23
170.743716143
 33
0.0
  0
SOLID
  5
1CE
330
1CA
100
AcDbEntity
  8
VERMASSUNG
100
AcDbTrace
 10
250.2274655352
 20
170.293716143
 30
0.0
 11
247.2274655352
 21
170.743716143
 31
0.0
 12
247.2274655352
 22
169.843716143
 32
0.0
 13
247.2274655352
 23
169.843716143
 33
0.0
  0
LINE
  5
1CF
330
1CA
100
AcDbEntity
  8
VERMASSUNG
100
AcDbLine
 10
90.2274655352
 20
159.6737767491
 30
0.0
 11
90.2274655352
 21
171.293716143
 31
0.0
  0
LINE
  5
1D0
330
1CA
100
AcDbEntity
  8
VERMASSUNG
100
AcDbLine
 10
250.2274655352
 20
127.8996362275
 30
0.0
 11
250.2274655352
 21
171.293716143
 31
0.0
  0
LINE
  5
1D1
330
1CA
100
AcDbEntity
  8
VERMASSUNG
100
AcDbLine
 10
90.2274655352
 20
170.293716143
 30
0.0
 11
250.2274655352
 21
170.293716143
 31
0.0
  0
MTEXT
  5
1D2
330
1CA
100
AcDbEntity
  8
VERMASSUNG
100
AcDbMText
 10
168.3279779946
 20
172.8718515061
 30
0.0
 40
2.0
 41
0.0
 71
     1
 72
     1
  1
160
  7
SLDTEXTSTYLE0
 73
     1
 44
1.0
  0
ENDBLK
  5
1CC
330
1CA
100
AcDbEntity
  8
0
100
AcDbBlockEnd
  0
BLOCK
  5
1D5
330
1D4
100
AcDbEntity
  8
0
100
AcDbBlockBegin
  2
*D4
 70
     1
 10
0.0
 20
0.0
 30
0.0
  3
*D4
  1

  0
SOLID
  5
1D7
330
1D4
100
AcDbEntity
  8
VERMASSUNG
100
AcDbTrace
 10
250.2274655352
 20
176.293716143
 30
0.0
 11
247.2274655352
 21
176.743716143
 31
0.0
 12
247.2274655352
 22
175.843716143
 32
0.0
 13
247.2274655352
 23
175.843716143
 33
0.0
  0
SOLID
  5
1D8
330
1D4
100
AcDbEntity
  8
VERMASSUNG
100
AcDbTrace
 10
40.3274655352
 20
176.293716143
 30
0.0
 11
43.3274655352
 21
175.843716143
 31
0.0
 12
43.3274655352
 22
176.743716143
 32
0.0
 13
43.3274655352
 23
176.743716143
 33
0.0
  0
LINE
  5
1D9
330
1D4
100
AcDbEntity
  8
VERMASSUNG
100
AcDbLine
 10
250.2274655352
 20
127.8996362275
 30
0.0
 11
250.2274655352
 21
177.293716143
 31
0.0
  0
LINE
  5
1DA
330
1D4
100
AcDbEntity
  8
VERMASSUNG
100
AcDbLine
 10
40.3274655352
 20
140.6764464916
 30
0.0
 11
40.3274655352
 21
177.293716143
 31
0.0
  0
LINE
  5
1DB
330
1D4
100
AcDbEntity
  8
VERMASSUNG
100
AcDbLine
 10
250.2274655352
 20
176.293716143
 30
0.0
 11
40.3274655352
 21
176.293716143
 31
0.0
  0
MTEXT
  5
1DC
330
1D4
100
AcDbEntity
  8
VERMASSUNG
100
AcDbMText
 10
142.1781795114
 20
178.8718515061
 30
0.0
 40
2.0
 41
0.0
 71
     1
 72
     1
  1
209.9
  7
SLDTEXTSTYLE0
 73
     1
 44
1.0
  0
ENDBLK
  5
1D6
330
1D4
100
AcDbEntity
  8
0
100
AcDbBlockEnd
  0
BLOCK
  5
1DF
330
1DE
100
AcDbEntity
  8
0
100
AcDbBlockBegin
  2
*D5
 70
     1
 10
0.0
 20
0.0
 30
0.0
  3
*D5
  1

  0
SOLID
  5
1E1
330
1DE
100
AcDbEntity
  8
VERMASSUNG
100
AcDbTrace
 10
258.4693912455
 20
119.1737767491
 30
0.0
 11
258.0193912455
 21
116.1737767491
 31
0.0
 12
258.9193912455
 22
116.1737767491
 32
0.0
 13
258.9193912455
 23
116.1737767491
 33
0.0
  0
SOLID
  5
1E2
330
1DE
100
AcDbEntity
  8
VERMASSUNG
100
AcDbTrace
 10
258.4693912455
 20
101.1737767491
 30
0.0
 11
258.9193912455
 21
104.1737767491
 31
0.0
 12
258.0193912455
 22
104.1737767491
 32
0.0
 13
258.0193912455
 23
104.1737767491
 33
0.0
  0
LINE
  5
1E3
330
1DE
100
AcDbEntity
  8
VERMASSUNG
100
AcDbLine
 10
249.9274655352
 20
119.1737767491
 30
0.0
 11
259.4693912455
 21
119.1737767491
 31
0.0
  0
LINE
  5
1E4
330
1DE
100
AcDbEntity
  8
VERMASSUNG
100
AcDbLine
 10
249.9274655352
 20
101.1737767491
 30
0.0
 11
259.4693912455
 21
101.1737767491
 31
0.0
  0
LINE
  5
1E5
330
1DE
100
AcDbEntity
  8
VERMASSUNG
100
AcDbLine
 10
258.4693912455
 20
119.1737767491
 30
0.0
 11
258.4693912455
 21
101.1737767491
 31
0.0
  0
MTEXT
  5
1E6
330
1DE
100
AcDbEntity
  8
VERMASSUNG
100
AcDbMText
 10
255.8912557659
 20
107.1696391543
 30
0.0
 40
2.0
 41
0.0
 71
     1
 72
     1
  1
%%c
  7
SLDTEXTSTYLE0
 11
-7.044195017643634E-15
 21
1.0
 31
0.0
 73
     1
 44
1.0
  0
MTEXT
  5
1E7
330
1DE
100
AcDbEntity
  8
VERMASSUNG
100
AcDbMText
 10
255.8912558824
 20
110.7783173775
 30
0.0
 40
2.0
 41
0.0
 71
     1
 72
     1
  1
18
  7
SLDTEXTSTYLE0
 11
-7.044195017643634E-15
 21
1.0
 31
0.0
 73
     1
 44
1.0
  0
ENDBLK
  5
1E0
330
1DE
100
AcDbEntity
  8
0
100
AcDbBlockEnd
  0
BLOCK
  5
1EA
330
1E9
100
AcDbEntity
  8
0
100
AcDbBlockBegin
  2
*D6
 70
     1
 10
0.0
 20
0.0
 30
0.0
  3
*D6
  1

  0
SOLID
  5
1EC
330
1E9
100
AcDbEntity
  8
VERMASSUNG
100
AcDbTrace
 10
264.4693912455
 20
134.1737767491
 30
0.0
 11
264.0193912455
 21
131.1737767491
 31
0.0
 12
264.9193912455
 22
131.1737767491
 32
0.0
 13
264.9193912455
 23
131.1737767491
 33
0.0
  0
SOLID
  5
1ED
330
1E9
100
AcDbEntity
  8
VERMASSUNG
100
AcDbTrace
 10
264.4693912455
 20
86.1737767491
 30
0.0
 11
264.9193912455
 21
89.1737767491
 31
0.0
 12
264.0193912455
 22
89.1737767491
 32
0.0
 13
264.0193912455
 23
89.1737767491
 33
0.0
  0
LINE
  5
1EE
330
1E9
100
AcDbEntity
  8
VERMASSUNG
100
AcDbLine
 10
239.5049309327
 20
134.1737767491
 30
0.0
 11
265.4693912455
 21
134.1737767491
 31
0.0
  0
LINE
  5
1EF
330
1E9
100
AcDbEntity
  8
VERMASSUNG
100
AcDbLine
 10
239.5049309327
 20
86.1737767491
 30
0.0
 11
265.4693912455
 21
86.1737767491
 31
0.0
  0
LINE
  5
1F0
330
1E9
100
AcDbEntity
  8
VERMASSUNG
100
AcDbLine
 10
264.4693912455
 20
134.1737767491
 30
0.0
 11
264.4693912455
 21
86.1737767491
 31
0.0
  0
MTEXT
  5
1F1
330
1E9
100
AcDbEntity
  8
VERMASSUNG
100
AcDbMText
 10
261.8912557659
 20
106.8702697068
 30
0.0
 40
2.0
 41
0.0
 71
     1
 72
     1
  1
%%c
  7
SLDTEXTSTYLE0
 11
-7.044195017643634E-15
 21
1.0
 31
0.0
 73
     1
 44
1.0
  0
MTEXT
  5
1F2
330
1E9
100
AcDbEntity
  8
VERMASSUNG
100
AcDbMText
 10
261.8912558824
 20
110.47894793
 30
0.0
 40
2.0
 41
0.0
 71
     1
 72
     1
  1
48
  7
SLDTEXTSTYLE0
 11
-7.044195017643634E-15
 21
1.0
 31
0.0
 73
     1
 44
1.0
  0
ENDBLK
  5
1EB
330
1E9
100
AcDbEntity
  8
0
100
AcDbBlockEnd
  0
ENDSEC
  0
SECTION
  2
ENTITIES
  0
MTEXT
  5
45
330
1F
100
AcDbEntity
  8
KOPF_DÜNN
100
AcDbMText
 10
13.8892156294
 20
23.8442973028
 30
0.0
 40
3.0
 41
0.0
 71
     1
 72
     1
  1
HA0.W18.K21.160
  7
SLDTEXTSTYLE0
 73
     1
 44
1.0
  0
MTEXT
  5
46
330
1F
100
AcDbEntity
  8
VERMASSUNG
100
AcDbMText
 10
13.9329988022
 20
28.8834360957
 30
0.0
 40
3.0
 41
0.0
 71
     1
 72
     1
  1
Flächenspannfutter_End mill adapter Weldon ø18
  7
SLDTEXTSTYLE0
 73
     1
 44
1.0
  0
MTEXT
  5
47
330
1F
100
AcDbEntity
  8
VERMASSUNG
100
AcDbMText
 10
98.8601118557
 20
13.8365368179
 30
0.0
 40
2.0
 41
0.0
 71
     1
 72
     1
  1
Datum: 09.10.2006
  7
SLDTEXTSTYLE0
 73
     1
 44
1.0
  0
MTEXT
  5
49
330
1F
100
AcDbEntity
  8
VERMASSUNG
100
AcDbMText
 10
13.933048693
 20
18.0482802738
 30
0.0
 40
2.0
 41
0.0
 71
     1
 72
     1
  1
DIN 69 893 HSK A 100
  7
SLDTEXTSTYLE1
 73
     1
 44
1.0
  0
MTEXT
  5
4A
330
1F
100
AcDbEntity
  8
VERMASSUNG
100
AcDbMText
 10
13.9808475933
 20
13.9090973692
 30
0.0
 40
2.0
 41
0.0
 71
     1
 72
     1
  1
Gewicht: 3708g
  7
SLDTEXTSTYLE0
 73
     1
 44
1.0
  0
LINE
  5
4B
330
1F
100
AcDbEntity
  8
0
  6
Continuous
 62
     7
370
    15
100
AcDbLine
 10
90.7274655352
 20
60.1737767491
 30
0.0
 11
95.1774655352
 21
60.1737767491
 31
0.0
  0
LINE
  5
4C
330
1F
100
AcDbEntity
  8
0
  6
Continuous
 62
     7
370
    15
100
AcDbLine
 10
95.2115383677
 20
160.1737767491
 30
0.0
 11
90.7274655352
 21
160.1737767491
 31
0.0
  0
ARC
  5
4D
330
1F
100
AcDbEntity
  8
0
  6
Continuous
 62
     7
370
    15
100
AcDbCircle
 10
90.7274655352
 20
60.6737767491
 30
0.0
 40
0.5
100
AcDbArc
 50
180.0
 51
270.0
  0
ARC
  5
4E
330
1F
100
AcDbEntity
  8
0
  6
Continuous
 62
     7
370
    15
100
AcDbCircle
 10
90.7274655352
 20
159.6737767491
 30
0.0
 40
0.5
100
AcDbArc
 50
90.0
 51
180.0
  0
ARC
  5
4F
330
1F
100
AcDbEntity
  8
0
  6
Continuous
 62
     7
370
    15
100
AcDbCircle
 10
89.3305286168
 20
71.5452914246
 30
0.0
 40
0.9962338214386793
100
AcDbArc
 50
25.7988228126
 51
90.0
  0
ARC
  5
50
330
1F
100
AcDbEntity
  8
0
  6
Continuous
 62
     7
370
    15
100
AcDbCircle
 10
89.3305286168
 20
148.8022620735
 30
0.0
 40
0.9962338214386793
100
AcDbArc
 50
270.0
 51
334.2011771874
  0
LINE
  5
51
330
1F
100
AcDbEntity
  8
0
  6
Continuous
 62
     7
370
    15
100
AcDbLine
 10
87.7274655352
 20
72.2915252461
 30
0.0
 11
88.5333116896
 21
72.5074510724
 31
0.0
  0
LINE
  5
52
330
1F
100
AcDbEntity
  8
0
  6
Continuous
 62
     7
370
    15
100
AcDbLine
 10
88.5333116896
 20
147.8401024258
 30
0.0
 11
87.7274655352
 21
148.0560282521
 31
0.0
  0
LINE
  5
53
330
1F
100
AcDbEntity
  8
0
  6
Continuous
 62
     7
370
    15
100
AcDbLine
 10
68.7467866166
 20
147.1050924345
 30
0.0
 11
50.4274655352
 21
146.1872907771
 31
0.0
  0
LINE
  5
54
330
1F
100
AcDbEntity
  8
0
  6
Continuous
 62
     7
370
    15
100
AcDbLine
 10
87.7274655352
 20
148.0560282521
 30
0.0
 11
81.6594263808
 21
147.7520182744
 31
0.0
  0
LINE
  5
55
330
1F
100
AcDbEntity
  8
0
  6
Continuous
 62
     7
370
    15
100
AcDbLine
 10
81.6595496572
 20
72.5955290476
 30
0.0
 11
87.7274655352
 21
72.2915252461
 31
0.0
  0
LINE
  5
56
330
1F
100
AcDbEntity
  8
0
  6
Continuous
 62
     7
370
    15
100
AcDbLine
 10
55.4274655352
 20
73.909761719
 30
0.0
 11
68.7474166892
 21
73.2424294969
 31
0.0
  0
ARC
  5
57
330
1F
100
AcDbEntity
  8
0
  6
Continuous
 62
     7
370
    15
100
AcDbCircle
 10
88.7921307347
 20
71.5415252461
 30
0.0
 40
0.9999999999999858
100
AcDbArc
 50
90.0
 51
105.0
  0
ARC
  5
58
330
1F
100
AcDbEntity
  8
0
  6
Continuous
 62
     7
370
    15
100
AcDbCircle
 10
88.7921307347
 20
148.8060282521
 30
0.0
 40
1.0
100
AcDbArc
 50
255.0
 51
270.0
  0
LINE
  5
59
330
1F
100
AcDbEntity
  8
0
  6
Continuous
 62
     7
370
    15
100
AcDbLine
 10
88.7921307347
 20
72.5415252461
 30
0.0
 11
89.3305286168
 21
72.5415252461
 31
0.0
  0
LINE
  5
5A
330
1F
100
AcDbEntity
  8
0
  6
Continuous
 62
     7
370
    15
100
AcDbLine
 10
89.3305286168
 20
147.8060282521
 30
0.0
 11
88.7921307347
 21
147.8060282521
 31
0.0
  0
ARC
  5
5B
330
1F
100
AcDbEntity
  8
0
  6
Continuous
 62
     7
370
    15
100
AcDbCircle
 10
124.1774655352
 20
77.256157043
 30
0.0
 40
5.0
100
AcDbArc
 50
106.5116637356
 51
180.0
  0
ARC
  5
5C
330
1F
100
AcDbEntity
  8
0
  6
Continuous
 62
     7
370
    15
100
AcDbCircle
 10
124.1774655352
 20
143.0913964552
 30
0.0
 40
4.999999999999998
100
AcDbArc
 50
196.7558181791
 51
253.4883362644
  0
ARC
  5
5D
330
1F
100
AcDbEntity
  8
0
  6
Continuous
 62
     7
370
    15
100
AcDbCircle
 10
151.1774655352
 20
-13.8262232509
 30
0.0
 40
100.0
100
AcDbArc
 50
90.0
 51
106.5116637356
  0
ARC
  5
5E
330
1F
100
AcDbEntity
  8
0
  6
Continuous
 62
     7
370
    15
100
AcDbCircle
 10
151.1774655352
 20
234.1737767491
 30
0.0
 40
100.0
100
AcDbArc
 50
253.4883362644
 51
270.0
  0
LINE
  5
5F
330
1F
100
AcDbEntity
  8
0
  6
Continuous
 62
     7
370
    15
100
AcDbLine
 10
162.6447208706
 20
86.1737767491
 30
0.0
 11
239.5049309327
 21
86.1737767491
 31
0.0
  0
LINE
  5
60
330
1F
100
AcDbEntity
  8
0
  6
Continuous
 62
     7
370
    15
100
AcDbLine
 10
151.1774655352
 20
86.1737767491
 30
0.0
 11
155.7204791727
 21
86.1737767491
 31
0.0
  0
LINE
  5
61
330
1F
100
AcDbEntity
  8
0
  6
Continuous
 62
     7
370
    15
100
AcDbLine
 10
155.7094054463
 20
134.1737767491
 30
0.0
 11
151.1774655352
 21
134.1737767491
 31
0.0
  0
LINE
  5
62
330
1F
100
AcDbEntity
  8
0
  6
Continuous
 62
     7
370
    15
100
AcDbLine
 10
239.5049309327
 20
134.1737767491
 30
0.0
 11
162.6342460693
 21
134.1737767491
 31
0.0
  0
LINE
  5
63
330
1F
100
AcDbEntity
  8
0
  6
Continuous
 62
     7
370
    15
100
AcDbLine
 10
239.5049309327
 20
86.1737767491
 30
0.0
 11
249.0727020587
 21
90.6353016966
 31
0.0
  0
LINE
  5
64
330
1F
100
AcDbEntity
  8
0
  6
Continuous
 62
     7
370
    15
100
AcDbLine
 10
249.0727020587
 20
129.7122518015
 30
0.0
 11
239.5049309327
 21
134.1737767491
 31
0.0
  0
ARC
  5
65
330
1F
100
AcDbEntity
  8
0
  6
Continuous
 62
     7
370
    15
100
AcDbCircle
 10
248.2274655352
 20
92.4479172707
 30
0.0
 40
2.000000000000026
100
AcDbArc
 50
295.0
 51
0.0
  0
ARC
  5
66
330
1F
100
AcDbEntity
  8
0
  6
Continuous
 62
     7
370
    15
100
AcDbCircle
 10
248.2274655352
 20
127.8996362275
 30
0.0
 40
2.000000000000013
100
AcDbArc
 50
0.0
 51
65.0
  0
LINE
  5
67
330
1F
100
AcDbEntity
  8
0
  6
Continuous
 62
     7
370
    15
100
AcDbLine
 10
41.9774655352
 20
77.9237767491
 30
0.0
 11
53.5274655352
 21
77.9237767491
 31
0.0
  0
ARC
  5
68
330
1F
100
AcDbEntity
  8
0
  6
Continuous
 62
     7
370
    15
100
AcDbCircle
 10
53.5274655352
 20
76.0237767491
 30
0.0
 40
1.900000000000006
100
AcDbArc
 50
35.6630613694
 51
90.0
  0
ARC
  5
69
330
1F
100
AcDbEntity
  8
0
  6
Continuous
 62
     7
370
    15
100
AcDbCircle
 10
48.5274655352
 20
144.3237767491
 30
0.0
 40
1.900000000000034
100
AcDbArc
 50
270.0
 51
310.9212832533
  0
LINE
  5
6A
330
1F
100
AcDbEntity
  8
0
  6
Continuous
 62
     7
370
    15
100
AcDbLine
 10
41.9774655352
 20
142.4237767491
 30
0.0
 11
40.3781494164
 21
140.8244606302
 31
0.0
  0
LINE
  5
6B
330
1F
100
AcDbEntity
  8
0
  6
Continuous
 62
     7
370
    15
100
AcDbLine
 10
40.3789867863
 20
79.522255498
 30
0.0
 11
41.9774655352
 21
77.9237767491
 31
0.0
  0
LINE
  5
6C
330
1F
100
AcDbEntity
  8
0
  6
Continuous
 62
     7
370
    15
100
AcDbLine
 10
48.5274655352
 20
142.4237767491
 30
0.0
 11
41.9774655352
 21
142.4237767491
 31
0.0
  0
LINE
  5
6D
330
1F
100
AcDbEntity
  8
0
  6
Continuous
 62
     7
370
    15
100
AcDbLine
 10
250.2274655352
 20
98.9373460061
 30
0.0
 11
250.2923664709
 21
99.0575265521
 31
0.0
  0
LINE
  5
6E
330
1F
100
AcDbEntity
  8
0
  6
Continuous
 62
     7
370
    15
100
AcDbLine
 10
250.2334767472
 20
121.2916630381
 30
0.0
 11
250.2274655352
 21
121.302794322
 31
0.0
  0
CIRCLE
  5
6F
330
1F
100
AcDbEntity
  8
0
  6
Continuous
 62
     7
370
    15
100
AcDbCircle
 10
226.7274655352
 20
110.1737767491
 30
0.0
 40
6.000000000000007
  0
LINE
  5
70
330
1F
100
AcDbEntity
  8
0
  6
Continuous
 62
     7
370
    15
100
AcDbLine
 10
230.0727671219
 20
109.2743562166
 30
0.0
 11
229.1790373584
 21
112.6211826402
 31
0.0
  0
LINE
  5
71
330
1F
100
AcDbEntity
  8
0
  6
Continuous
 62
     7
370
    15
100
AcDbLine
 10
225.8337357717
 20
113.5206031727
 30
0.0
 11
229.1790373584
 21
112.6211826402
 31
0.0
  0
LINE
  5
72
330
1F
100
AcDbEntity
  8
0
  6
Continuous
 62
     7
370
    15
100
AcDbLine
 10
223.3821639486
 20
111.0731972815
 30
0.0
 11
225.8337357717
 21
113.5206031727
 31
0.0
  0
LINE
  5
73
330
1F
100
AcDbEntity
  8
0
  6
Continuous
 62
     7
370
    15
100
AcDbLine
 10
223.3821639486
 20
111.0731972815
 30
0.0
 11
224.2758937121
 21
107.7263708579
 31
0.0
  0
LINE
  5
74
330
1F
100
AcDbEntity
  8
0
  6
Continuous
 62
     7
370
    15
100
AcDbLine
 10
227.6211952988
 20
106.8269503255
 30
0.0
 11
224.2758937121
 21
107.7263708579
 31
0.0
  0
LINE
  5
75
330
1F
100
AcDbEntity
  8
0
  6
Continuous
 62
     7
370
    15
100
AcDbLine
 10
227.6211952988
 20
106.8269503255
 30
0.0
 11
230.0727671219
 21
109.2743562166
 31
0.0
  0
LINE
  5
76
330
1F
100
AcDbEntity
  8
0
  6
Continuous
 62
     7
370
    15
100
AcDbLine
 10
119.1774655352
 20
62.4244312038
 30
0.0
 11
119.1774655352
 21
141.5237767491
 31
0.0
  0
SPLINE
  5
77
330
1F
100
AcDbEntity
  8
0
  6
Continuous
 62
     7
370
    15
100
AcDbSpline
210
0.0
220
0.0
230
1.0
 70
     8
 71
     3
 72
    14
 73
    10
 74
     0
 42
0.00000001
 43
0.00000001
 40
0.0
 40
0.0
 40
0.0
 40
0.0
 40
0.25
 40
0.25
 40
0.5
 40
0.5
 40
0.75
 40
0.75
 40
1.0
 40
1.0
 40
1.0
 40
1.0
 10
119.1774655352497
 20
62.4244312038193
 30
0.0
 10
119.1774655352497
 20
62.29100550776477
 30
0.0
 10
119.1521544353388
 20
62.15915769992041
 30
0.0
 10
119.053819671494
 20
61.91263515122631
 30
0.0
 10
118.9806756672379
 20
61.79882996298576
 30
0.0
 10
118.7972376061423
 20
61.60837278603849
 30
0.0
 10
118.6855512718037
 20
61.53073792218858
 30
0.0
 10
118.4430478414974
 20
61.4264465120761
 30
0.0
 10
118.3096734128032
 20
61.39878315604376
 30
0.0
 10
118.1774655352497
 20
61.39878315604376
 30
0.0
  0
SPLINE
  5
78
330
1F
100
AcDbEntity
  8
0
  6
Continuous
 62
     7
370
    15
100
AcDbSpline
210
0.0
220
0.0
230
1.0
 70
    24
 71
     3
 72
    12
 73
     8
 74
     0
 42
0.00000001
 43
0.00000001
 40
0.0
 40
0.0
 40
0.0
 40
0.0
 40
0.2500000000000032
 40
0.2500000000000032
 40
0.5000000000000064
 40
0.5000000000000064
 40
1.0
 40
1.0
 40
1.0
 40
1.0
 10
118.1774655352497
 20
141.5237767490726
 30
0.0
 10
118.3295557721946
 20
141.5237767490726
 30
0.0
 10
118.47801503327
 20
141.5237767490726
 30
0.0
 10
118.7354186655358
 20
141.5237767490726
 30
0.0
 10
118.8445234133777
 20
141.5237767490726
 30
0.0
 10
119.0985828897852
 20
141.5237767490726
 30
0.0
 10
119.1774655352497
 20
141.5237767490726
 30
0.0
 10
119.1774655352497
 20
141.5237767490726
 30
0.0
  0
LINE
  5
79
330
1F
100
AcDbEntity
  8
0
  6
Continuous
 62
     7
370
    15
100
AcDbLine
 10
95.1774655352
 20
141.5237767491
 30
0.0
 11
106.9654365143
 21
141.5237767491
 31
0.0
  0
LINE
  5
7A
330
1F
100
AcDbEntity
  8
0
  6
Continuous
 62
     7
370
    15
100
AcDbLine
 10
106.9654365143
 20
61.398783156
 30
0.0
 11
106.9654365143
 21
141.5237767491
 31
0.0
  0
LINE
  5
7B
330
1F
100
AcDbEntity
  8
0
  6
Continuous
 62
     7
370
    15
100
AcDbLine
 10
106.9654365143
 20
61.398783156
 30
0.0
 11
105.1774655352
 21
61.398783156
 31
0.0
  0
SPLINE
  5
7C
330
1F
100
AcDbEntity
  8
0
  6
Continuous
 62
     7
370
    15
100
AcDbSpline
210
0.0
220
0.0
230
1.0
 70
     8
 71
     3
 72
    30
 73
    26
 74
     0
 42
0.00000001
 43
0.00000001
 40
0.0
 40
0.0
 40
0.0
 40
0.0
 40
0.1250000000000002
 40
0.1250000000000002
 40
0.1875000000000003
 40
0.1875000000000003
 40
0.2500000000000004
 40
0.2500000000000004
 40
0.3750000000000001
 40
0.3750000000000001
 40
0.4374999999999998
 40
0.4374999999999998
 40
0.4999999999999996
 40
0.4999999999999996
 40
0.6249999999999996
 40
0.6249999999999996
 40
0.6874999999999997
 40
0.6874999999999997
 40
0.7499999999999997
 40
0.7499999999999997
 40
0.8124999999999998
 40
0.8124999999999998
 40
0.8749999999999999
 40
0.8749999999999999
 40
1.0
 40
1.0
 40
1.0
 40
1.0
 10
105.1774655352496
 20
61.39878315604379
 30
0.0
 10
104.5147208414046
 20
61.3987831560438
 30
0.0
 10
103.8634649822889
 20
61.38394307945499
 30
0.0
 10
102.9030144440306
 20
61.34157351522536
 30
0.0
 10
102.5856230007977
 20
61.3240954124462
 30
0.0
 10
101.9564594992428
 20
61.28276712589389
 30
0.0
 10
101.6443113128011
 20
61.25884185243619
 30
0.0
 10
100.7370040109528
 20
61.18003533596928
 30
0.0
 10
100.1635790533116
 20
61.11772931599282
 30
0.0
 10
99.3497021837369
 20
61.01459999575346
 30
0.0
 10
99.08489598716703
 20
60.97841607670695
 30
0.0
 10
98.5779885763527
 20
60.90462129250644
 30
0.0
 10
98.33659442499922
 20
60.86714743373479
 30
0.0
 10
97.64745295286687
 20
60.75443549039506
 30
0.0
 10
97.23439813800263
 20
60.67889939292128
 30
0.0
 10
96.68624331862758
 20
60.57050613590378
 30
0.0
 10
96.516780711282
 20
60.53543390424052
 30
0.0
 10
96.20876346326662
 20
60.46919844364067
 30
0.0
 10
96.06938344265825
 20
60.43787174688595
 30
0.0
 10
95.81959793003152
 20
60.37946297530502
 30
0.0
 10
95.7091918173776
 20
60.35237974012217
 30
0.0
 10
95.51793396373986
 20
60.30311998550859
 30
0.0
 10
95.43681444545557
 20
60.28085800570094
 30
0.0
 10
95.24266752534719
 20
60.22329109853267
 30
0.0
 10
95.17746553524964
 20
60.19703149374667
 30
0.0
 10
95.17746553524964
 20
60.18377774927264
 30
0.0
  0
LINE
  5
7D
330
1F
100
AcDbEntity
  8
0
  6
Continuous
 62
     7
370
    15
100
AcDbLine
 10
95.1774655352
 20
60.1837777493
 30
0.0
 11
95.1774655352
 21
60.1737767491
 31
0.0
  0
SPLINE
  5
7E
330
1F
100
AcDbEntity
  8
0
  6
Continuous
 62
     7
370
    15
100
AcDbSpline
210
0.0
220
0.0
230
1.0
 70
     8
 71
     3
 72
    17
 73
    13
 74
     0
 42
0.00000001
 43
0.00000001
 40
0.0
 40
0.0
 40
0.0
 40
0.0
 40
0.104384384054747
 40
0.2118345768143993
 40
0.316208200519045
 40
0.4235375806108392
 40
0.5292276236193852
 40
0.6379275864803491
 40
0.7444714844189683
 40
0.8541836219421859
 40
0.9593080534965217
 40
1.0
 40
1.0
 40
1.0
 40
1.0
 10
105.1774655352496
 20
159.1635716047361
 30
0.0
 10
104.6295270873903
 20
159.1689398084849
 30
0.0
 10
103.5175570329255
 20
159.1798338821499
 30
0.0
 10
101.9047011197106
 20
159.2650112564088
 30
0.0
 10
100.3711879027337
 20
159.3913859627013
 30
0.0
 10
98.98016705339704
 20
159.5482887832782
 30
0.0
 10
97.74465053616669
 20
159.7199876127987
 30
0.0
 10
96.72129476901142
 20
159.8853238888998
 30
0.0
 10
95.9209527707463
 20
160.0290373684864
 30
0.0
 10
95.41062066883273
 20
160.1271921756655
 30
0.0
 10
95.1707122400082
 20
160.1751205725354
 30
0.0
 10
95.20263101942803
 20
160.1687531732958
 30
0.0
 10
95.2115383677102
 20
160.1669762681726
 30
0.0
  0
LINE
  5
7F
330
1F
100
AcDbEntity
  8
0
  6
Continuous
 62
     7
370
    15
100
AcDbLine
 10
106.9654365143
 20
159.1635716047
 30
0.0
 11
105.1774655352
 21
159.1635716047
 31
0.0
  0
LINE
  5
80
330
1F
100
AcDbEntity
  8
0
  6
Continuous
 62
     7
370
    15
100
AcDbLine
 10
106.9654365143
 20
149.12473951
 30
0.0
 11
106.9654365143
 21
159.1635716047
 31
0.0
  0
LINE
  5
81
330
1F
100
AcDbEntity
  8
0
  6
Continuous
 62
     7
370
    15
100
AcDbLine
 10
104.8854323834
 20
149.12473951
 30
0.0
 11
106.9654365143
 21
149.12473951
 31
0.0
  0
SPLINE
  5
82
330
1F
100
AcDbEntity
  8
0
  6
Continuous
 62
     7
370
    15
100
AcDbSpline
210
0.0
220
0.0
230
1.0
 70
     8
 71
     3
 72
    22
 73
    18
 74
     0
 42
0.00000001
 43
0.00000001
 40
0.0
 40
0.0
 40
0.0
 40
0.0
 40
0.2500000000000002
 40
0.2500000000000002
 40
0.3750000000000003
 40
0.3750000000000003
 40
0.5000000000000004
 40
0.5000000000000004
 40
0.6250000000000004
 40
0.6250000000000004
 40
0.7500000000000004
 40
0.7500000000000004
 40
0.8750000000000004
 40
0.8750000000000004
 40
0.9375000000000002
 40
0.9375000000000002
 40
1.0
 40
1.0
 40
1.0
 40
1.0
 10
95.17746553524962
 20
141.5237767490726
 30
0.0
 10
95.38019049116872
 20
142.5430230909372
 30
0.0
 10
95.6949342129641
 20
143.5021312408765
 30
0.0
 10
96.40298968263508
 20
144.8446103183858
 30
0.0
 10
96.68145231285271
 20
145.2788189011258
 30
0.0
 10
97.32021971948991
 20
146.0904466166279
 30
0.0
 10
97.68063339928011
 20
146.4697269095647
 30
0.0
 10
98.4981656312694
 20
147.1726854885858
 30
0.0
 10
98.95933361455653
 20
147.4977143062864
 30
0.0
 10
99.95732386104031
 20
148.0627296296772
 30
0.0
 10
100.4970830550326
 20
148.3064332238838
 30
0.0
 10
101.6716760190639
 20
148.7106331515287
 30
0.0
 10
102.2834122050558
 20
148.8630703445743
 30
0.0
 10
103.2353214299175
 20
149.0183978921829
 30
0.0
 10
103.5585545941781
 20
149.057902672233
 30
0.0
 10
104.2176177654534
 20
149.1112117929017
 30
0.0
 10
104.5516817760274
 20
149.1247395099595
 30
0.0
 10
104.8854323834289
 20
149.1247395099595
 30
0.0
  0
SPLINE
  5
83
330
1F
100
AcDbEntity
  8
0
  6
Continuous
 62
     7
370
    15
100
AcDbSpline
210
0.0
220
0.0
230
1.0
 70
     8
 71
     3
 72
    80
 73
    76
 74
     0
 42
0.00000001
 43
0.00000001
 40
-0.0312499999999993
 40
-0.0312499999999993
 40
0.0
 40
0.0
 40
0.03125
 40
0.03125
 40
0.046875
 40
0.046875
 40
0.0625
 40
0.0625
 40
0.09375
 40
0.09375
 40
0.1250000000000001
 40
0.1250000000000001
 40
0.1562500000000001
 40
0.1562500000000001
 40
0.1875000000000001
 40
0.1875000000000001
 40
0.2187500000000002
 40
0.2187500000000002
 40
0.2500000000000002
 40
0.2500000000000002
 40
0.2812500000000003
 40
0.2812500000000003
 40
0.3125000000000003
 40
0.3125000000000003
 40
0.3281250000000004
 40
0.3281250000000004
 40
0.3437500000000006
 40
0.3437500000000006
 40
0.3750000000000011
 40
0.3750000000000011
 40
0.4062500000000016
 40
0.4062500000000016
 40
0.4218750000000018
 40
0.4218750000000018
 40
0.437500000000002
 40
0.437500000000002
 40
0.4687500000000023
 40
0.4687500000000023
 40
0.5000000000000027
 40
0.5000000000000027
 40
0.531250000000003
 40
0.531250000000003
 40
0.5625000000000033
 40
0.5625000000000033
 40
0.5937500000000037
 40
0.5937500000000037
 40
0.6250000000000039
 40
0.6250000000000039
 40
0.6562500000000042
 40
0.6562500000000042
 40
0.6875000000000046
 40
0.6875000000000046
 40
0.7031250000000047
 40
0.7031250000000047
 40
0.7187500000000048
 40
0.7187500000000048
 40
0.7500000000000048
 40
0.7500000000000048
 40
0.7812500000000048
 40
0.7812500000000048
 40
0.7968750000000044
 40
0.7968750000000044
 40
0.8125000000000041
 40
0.8125000000000041
 40
0.8437500000000034
 40
0.8437500000000034
 40
0.8750000000000027
 40
0.8750000000000027
 40
0.906250000000002
 40
0.906250000000002
 40
0.9375000000000013
 40
0.9375000000000013
 40
0.9687500000000007
 40
0.9687500000000007
 40
1.0
 40
1.0
 40
1.03125
 40
1.03125
 10
99.55801084802593
 20
153.5884062127039
 30
0.0
 10
98.89692022247334
 20
153.5884062127039
 30
0.0
 10
98.5719400932217
 20
153.6046144440861
 30
0.0
 10
98.09246668197527
 20
153.6519790761056
 30
0.0
 10
97.93398486413446
 20
153.6716332879963
 30
0.0
 10
97.61976533163019
 20
153.7187444441889
 30
0.0
 10
97.46364504794978
 20
153.7463257636836
 30
0.0
 10
97.00959101899322
 20
153.8388615504774
 30
0.0
 10
96.72248763605337
 20
153.9139319840739
 30
0.0
 10
96.17913308002638
 20
154.0891702926845
 30
0.0
 10
95.92202946882078
 20
154.1901715905227
 30
0.0
 10
95.461123213882
 20
154.4075277889836
 30
0.0
 10
95.25422550466703
 20
154.5246921207558
 30
0.0
 10
94.88870019067483
 20
154.7747620449845
 30
0.0
 10
94.73349466854887
 20
154.9057081337435
 30
0.0
 10
94.48406428194916
 20
155.1714430774558
 30
0.0
 10
94.387974326164
 20
155.3081966707668
 30
0.0
 10
94.25945547697043
 20
155.5822622456058
 30
0.0
 10
94.22764460679264
 20
155.7172023360746
 30
0.0
 10
94.22728795701936
 20
155.9826739731434
 30
0.0
 10
94.25978520921643
 20
156.1144984502846
 30
0.0
 10
94.38741068293092
 20
156.363948049905
 30
0.0
 10
94.4818390839828
 20
156.482380741833
 30
0.0
 10
94.66969990396836
 20
156.6512499389271
 30
0.0
 10
94.74052790277156
 20
156.7063359340473
 30
0.0
 10
94.89524979473683
 20
156.8115887625357
 30
0.0
 10
94.97922626492023
 20
156.861923991296
 30
0.0
 10
95.25054993456465
 20
157.0064998238341
 30
0.0
 10
95.457099153167
 20
157.0943614102511
 30
0.0
 10
95.92370929335601
 20
157.2540825032506
 30
0.0
 10
96.17607486298147
 20
157.3233207997178
 30
0.0
 10
96.5819762046602
 20
157.4131081889476
 30
0.0
 10
96.72187682213767
 20
157.4406741510338
 30
0.0
 10
97.0111007573846
 20
157.4911649519601
 30
0.0
 10
97.16094021367388
 20
157.5141283908109
 30
0.0
 10
97.61505678328467
 20
157.5747589072297
 30
0.0
 10
97.92670800202153
 20
157.6048329360255
 30
0.0
 10
98.56770446693389
 20
157.6454225232842
 30
0.0
 10
98.89923209488607
 20
157.6557347535002
 30
0.0
 10
99.55202313995756
 20
157.655810320666
 30
0.0
 10
99.87655934498937
 20
157.6459087151982
 30
0.0
 10
100.5218287944058
 20
157.605422184673
 30
0.0
 10
100.8375718005685
 20
157.5749608847883
 30
0.0
 10
101.4394610955522
 20
157.4948102133517
 30
0.0
 10
101.7302103263637
 20
157.4445279815446
 30
0.0
 10
102.2771221180482
 20
157.3238577987716
 30
0.0
 10
102.5288994818851
 20
157.2546339396016
 30
0.0
 10
102.9902874745062
 20
157.0971822119609
 30
0.0
 10
103.2015567541043
 20
157.0078337372872
 30
0.0
 10
103.5648611064805
 20
156.8145858665863
 30
0.0
 10
103.7186677549233
 20
156.7104578747071
 30
0.0
 10
103.9072872245207
 20
156.5418334885236
 30
0.0
 10
103.9633177107298
 20
156.4832050868486
 30
0.0
 10
104.058891472466
 20
156.3637501720224
 30
0.0
 10
104.098654389491
 20
156.3028303831842
 30
0.0
 10
104.1944261398031
 20
156.1164256570103
 30
0.0
 10
104.2271489789292
 20
155.9873128392153
 30
0.0
 10
104.2277775652583
 20
155.7186559162595
 30
0.0
 10
104.1955914205235
 20
155.5832851755026
 30
0.0
 10
104.100680718668
 20
155.3797348672667
 30
0.0
 10
104.061213935269
 20
155.3117629432033
 30
0.0
 10
103.9662839365481
 20
155.1756707200724
 30
0.0
 10
103.9105271087847
 20
155.1073206198629
 30
0.0
 10
103.7225869908148
 20
154.9066176068208
 30
0.0
 10
103.5692255210987
 20
154.7772293330081
 30
0.0
 10
103.2069612862183
 20
154.5285639009583
 30
0.0
 10
102.9961128127524
 20
154.4087542585901
 30
0.0
 10
102.5354428424335
 20
154.1912319710174
 30
0.0
 10
102.2840684628497
 20
154.0921468711815
 30
0.0
 10
101.7381605759515
 20
153.9154743972647
 30
0.0
 10
101.4473380013003
 20
153.8394173091306
 30
0.0
 10
100.8460113865203
 20
153.7165723317776
 30
0.0
 10
100.5314928019079
 20
153.6688662067245
 30
0.0
 10
99.88491134578794
 20
153.6046176716049
 30
0.0
 10
99.55801084802593
 20
153.5884062127039
 30
0.0
 10
98.89692022247334
 20
153.5884062127039
 30
0.0
  0
LINE
  5
84
330
1F
100
AcDbEntity
  8
0
  6
Continuous
 62
     7
370
    15
100
AcDbLine
 10
118.1774655352
 20
61.398783156
 30
0.0
 11
113.4894945562
 21
61.398783156
 31
0.0
  0
LINE
  5
85
330
1F
100
AcDbEntity
  8
0
  6
Continuous
 62
     7
370
    15
100
AcDbLine
 10
113.4894945562
 20
61.398783156
 30
0.0
 11
113.4894945562
 21
141.5237767491
 31
0.0
  0
LINE
  5
86
330
1F
100
AcDbEntity
  8
0
  6
Continuous
 62
     7
370
    15
100
AcDbLine
 10
113.4894945562
 20
141.5237767491
 30
0.0
 11
118.1774655352
 21
141.5237767491
 31
0.0
  0
LINE
  5
87
330
1F
100
AcDbEntity
  8
0
  6
Continuous
 62
     7
370
    15
100
AcDbLine
 10
108.3174655352
 20
63.802388462
 30
0.0
 11
108.3174655352
 21
141.5237767491
 31
0.0
  0
SPLINE
  5
88
330
1F
100
AcDbEntity
  8
0
  6
Continuous
 62
     7
370
    15
100
AcDbSpline
210
0.0
220
0.0
230
1.0
 70
     8
 71
     3
 72
     8
 73
     4
 74
     0
 42
0.00000001
 43
0.00000001
 40
0.0
 40
0.0
 40
0.0
 40
0.0
 40
1.0
 40
1.0
 40
1.0
 40
1.0
 10
108.3174655352497
 20
63.80238846204914
 30
0.0
 10
107.8672390709719
 20
63.00093309942437
 30
0.0
 10
107.4165412437285
 20
62.19974308786371
 30
0.0
 10
106.9654365143282
 20
61.39878315604379
 30
0.0
  0
SPLINE
  5
89
330
1F
100
AcDbEntity
  8
0
  6
Continuous
 62
     7
370
    15
100
AcDbSpline
210
0.0
220
0.0
230
1.0
 70
    24
 71
     3
 72
     8
 73
     4
 74
     0
 42
0.00000001
 43
0.00000001
 40
0.0
 40
0.0
 40
0.0
 40
0.0
 40
1.0
 40
1.0
 40
1.0
 40
1.0
 10
106.9654365143282
 20
141.5237767490726
 30
0.0
 10
107.4222380866565
 20
141.5237767490726
 30
0.0
 10
107.8732526528957
 20
141.5237767490726
 30
0.0
 10
108.3174655352497
 20
141.5237767490726
 30
0.0
  0
LINE
  5
8A
330
1F
100
AcDbEntity
  8
0
  6
Continuous
 62
     7
370
    15
100
AcDbLine
 10
90.2274655352
 20
60.6737767491
 30
0.0
 11
90.2274655352
 21
159.6737767464
 31
0.0
  0
SPLINE
  5
8B
330
1F
100
AcDbEntity
  8
0
  6
Continuous
 62
     7
370
    15
100
AcDbSpline
210
0.0
220
0.0
230
1.0
 70
     8
 71
     3
 72
     8
 73
     4
 74
     0
 42
0.00000001
 43
0.00000001
 40
0.0
 40
0.0
 40
0.0
 40
0.0
 40
1.0
 40
1.0
 40
1.0
 40
1.0
 10
113.489494556171
 20
61.39878315604379
 30
0.0
 10
113.0383898267708
 20
62.19974308786371
 30
0.0
 10
112.5876919995274
 20
63.00093309942437
 30
0.0
 10
112.1374655352496
 20
63.80238846204914
 30
0.0
  0
LINE
  5
8C
330
1F
100
AcDbEntity
  8
0
  6
Continuous
 62
     7
370
    15
100
AcDbLine
 10
112.1374655352
 20
63.802388462
 30
0.0
 11
112.1374655352
 21
141.5237767491
 31
0.0
  0
SPLINE
  5
8D
330
1F
100
AcDbEntity
  8
0
  6
Continuous
 62
     7
370
    15
100
AcDbSpline
210
0.0
220
0.0
230
1.0
 70
    24
 71
     3
 72
     8
 73
     4
 74
     0
 42
0.00000001
 43
0.00000001
 40
0.0
 40
0.0
 40
0.0
 40
0.0
 40
1.0
 40
1.0
 40
1.0
 40
1.0
 10
112.1374655352496
 20
141.5237767490726
 30
0.0
 10
112.5816784176036
 20
141.5237767490726
 30
0.0
 10
113.0326929838428
 20
141.5237767490726
 30
0.0
 10
113.489494556171
 20
141.5237767490726
 30
0.0
  0
SPLINE
  5
8E
330
1F
100
AcDbEntity
  8
0
  6
Continuous
 62
     7
370
    15
100
AcDbSpline
210
0.0
220
0.0
230
1.0
 70
     8
 71
     3
 72
    12
 73
     8
 74
     0
 42
0.00000001
 43
0.00000001
 40
0.0
 40
0.0
 40
0.0
 40
0.0
 40
0.250000000000003
 40
0.250000000000003
 40
0.500000000000006
 40
0.500000000000006
 40
1.0
 40
1.0
 40
1.0
 40
1.0
 10
109.1174655352496
 20
65.53410129102296
 30
0.0
 10
109.0117048819007
 20
65.53410129102295
 30
0.0
 10
108.9037172537177
 20
65.51156178502255
 30
0.0
 10
108.7091225884521
 20
65.42699115302722
 30
0.0
 10
108.6202506756133
 20
65.3645095002684
 30
0.0
 10
108.4010583832874
 20
65.1351205487962
 30
0.0
 10
108.3174655352496
 20
64.92253721127378
 30
0.0
 10
108.3174655352496
 20
64.71059796667755
 30
0.0
  0
SPLINE
  5
8F
330
1F
100
AcDbEntity
  8
0
  6
Continuous
 62
     7
370
    15
100
AcDbSpline
210
0.0
220
0.0
230
1.0
 70
    24
 71
     3
 72
    14
 73
    10
 74
     0
 42
0.00000001
 43
0.00000001
 40
0.0
 40
0.0
 40
0.0
 40
0.0
 40
0.25
 40
0.25
 40
0.5
 40
0.5
 40
0.75
 40
0.75
 40
1.0
 40
1.0
 40
1.0
 40
1.0
 10
108.3174655352496
 20
141.5237767490726
 30
0.0
 10
108.3174655352496
 20
141.5237767490726
 30
0.0
 10
108.3331798557156
 20
141.5237767490726
 30
0.0
 10
108.396863834184
 20
141.5237767490726
 30
0.0
 10
108.4454670285944
 20
141.5237767490726
 30
0.0
 10
108.57815055102
 20
141.5237767490726
 30
0.0
 10
108.6632526553307
 20
141.5237767490726
 30
0.0
 10
108.8696948902407
 20
141.5237767490726
 30
0.0
 10
108.9937758318637
 20
141.5237767490726
 30
0.0
 10
109.1174655352496
 20
141.5237767490726
 30
0.0
  0
SPLINE
  5
90
330
1F
100
AcDbEntity
  8
0
  6
Continuous
 62
     7
370
    15
100
AcDbSpline
210
0.0
220
0.0
230
1.0
 70
     8
 71
     3
 72
    14
 73
    10
 74
     0
 42
0.00000001
 43
0.00000001
 40
0.0
 40
0.0
 40
0.0
 40
0.0
 40
0.25
 40
0.25
 40
0.5
 40
0.5
 40
0.75
 40
0.75
 40
1.0
 40
1.0
 40
1.0
 40
1.0
 10
112.1374655352496
 20
64.71059796667772
 30
0.0
 10
112.1374655352496
 20
64.8176420476721
 30
0.0
 10
112.1173478480915
 20
64.92287718791454
 30
0.0
 10
112.0388566588258
 20
65.12072767476224
 30
0.0
 10
111.9807000340246
 20
65.21177943832716
 30
0.0
 10
111.8341847784066
 20
65.36494553225194
 30
0.0
 10
111.7455422297655
 20
65.42723997846134
 30
0.0
 10
111.5498189069652
 20
65.51203376399734
 30
0.0
 10
111.4445877158942
 20
65.53410129102295
 30
0.0
 10
111.3374655352496
 20
65.53410129102296
 30
0.0
  0
SPLINE
  5
91
330
1F
100
AcDbEntity
  8
0
  6
Continuous
 62
     7
370
    15
100
AcDbSpline
210
0.0
220
0.0
230
1.0
 70
    24
 71
     3
 72
    14
 73
    10
 74
     0
 42
0.00000001
 43
0.00000001
 40
0.0
 40
0.0
 40
0.0
 40
0.0
 40
0.25
 40
0.25
 40
0.5
 40
0.5
 40
0.75
 40
0.75
 40
1.0
 40
1.0
 40
1.0
 40
1.0
 10
111.3374655352496
 20
141.5237767490726
 30
0.0
 10
111.4612353000148
 20
141.5237767490726
 30
0.0
 10
111.5856024040217
 20
141.5237767490726
 30
0.0
 10
111.7919588727477
 20
141.5237767490726
 30
0.0
 10
111.8772870161661
 20
141.5237767490726
 30
0.0
 10
112.0094790748813
 20
141.5237767490726
 30
0.0
 10
112.0581243186319
 20
141.5237767490726
 30
0.0
 10
112.1216601103606
 20
141.5237767490726
 30
0.0
 10
112.1374655352497
 20
141.5237767490726
 30
0.0
 10
112.1374655352497
 20
141.5237767490726
 30
0.0
  0
LINE
  5
92
330
1F
100
AcDbEntity
  8
0
  6
Continuous
 62
     7
370
    15
100
AcDbLine
 10
111.3374655352
 20
65.534101291
 30
0.0
 11
109.1174655352
 21
65.534101291
 31
0.0
  0
LINE
  5
93
330
1F
100
AcDbEntity
  8
0
  6
Continuous
 62
     7
370
    15
100
AcDbLine
 10
109.1174655352
 20
141.5237767491
 30
0.0
 11
111.3374655352
 21
141.5237767491
 31
0.0
  0
LINE
  5
94
330
1F
100
AcDbEntity
  8
0
  6
Continuous
 62
     7
370
    15
100
AcDbLine
 10
87.7274655352
 20
72.2915252461
 30
0.0
 11
87.7274655352
 21
148.0560282521
 31
0.0
  0
LINE
  5
95
330
1F
100
AcDbEntity
  8
0
  6
Continuous
 62
     7
370
    15
100
AcDbLine
 10
55.4274655352
 20
73.909761719
 30
0.0
 11
55.4274655352
 21
76.3044434837
 31
0.0
  0
SPLINE
  5
96
330
1F
100
AcDbEntity
  8
0
  6
Continuous
 62
     7
370
    15
100
AcDbSpline
210
0.0
220
0.0
230
1.0
 70
     8
 71
     3
 72
    14
 73
    10
 74
     0
 42
0.00000001
 43
0.00000001
 40
0.0
 40
0.0
 40
0.0
 40
0.0
 40
0.25
 40
0.25
 40
0.5
 40
0.5
 40
0.75
 40
0.75
 40
1.0
 40
1.0
 40
1.0
 40
1.0
 10
54.42304306391269
 20
78.00729540532907
 30
0.0
 10
54.511811641858
 20
77.84876127402113
 30
0.0
 10
54.63352948053691
 20
77.69631859713256
 30
0.0
 10
54.86857909039375
 20
77.39918397330364
 30
0.0
 10
54.98420927661064
 20
77.25450132968628
 30
0.0
 10
55.18461421003845
 20
76.97121212718287
 30
0.0
 10
55.27001450202279
 20
76.83265813414603
 30
0.0
 10
55.39172013574001
 20
76.56127410411248
 30
0.0
 10
55.42746553525266
 20
76.42913823547786
 30
0.0
 10
55.42746553525264
 20
76.3044434837071
 30
0.0
  0
SPLINE
  5
97
330
1F
100
AcDbEntity
  8
0
  6
Continuous
 62
     7
370
    15
100
AcDbSpline
210
0.0
220
0.0
230
1.0
 70
     8
 71
     3
 72
    14
 73
    10
 74
     0
 42
0.00000001
 43
0.00000001
 40
0.0
 40
0.0
 40
0.0
 40
0.0
 40
0.124999999999999
 40
0.124999999999999
 40
0.249999999999998
 40
0.249999999999998
 40
0.5000000000000007
 40
0.5000000000000007
 40
1.0
 40
1.0
 40
1.0
 40
1.0
 10
53.52746553524965
 20
78.63612534442917
 30
0.0
 10
53.59504783503413
 20
78.64328122953057
 30
0.0
 10
53.66753541278203
 20
78.63885675949156
 30
0.0
 10
53.79982652204799
 20
78.60915060172121
 30
0.0
 10
53.85710390143815
 20
78.58586632014298
 30
0.0
 10
54.00675432863844
 20
78.50838108029266
 30
0.0
 10
54.08046762415994
 20
78.44652925339129
 30
0.0
 10
54.26827560748617
 20
78.26185180074297
 30
0.0
 10
54.35231591384762
 20
78.13360887745178
 30
0.0
 10
54.42304306391391
 20
78.00729540532917
 30
0.0
  0
SPLINE
  5
98
330
1F
100
AcDbEntity
  8
0
  6
Continuous
 62
     7
370
    15
100
AcDbSpline
210
0.0
220
0.0
230
1.0
 70
     8
 71
     3
 72
     8
 73
     4
 74
     0
 42
0.00000001
 43
0.00000001
 40
0.0
 40
0.0
 40
0.0
 40
0.0
 40
1.0
 40
1.0
 40
1.0
 40
1.0
 10
49.98282514716885
 20
78.21807675963741
 30
0.0
 10
51.14812345787772
 20
78.37326423152402
 30
0.0
 10
52.33273867191754
 20
78.50962286983435
 30
0.0
 10
53.52746553524962
 20
78.63612534442917
 30
0.0
  0
SPLINE
  5
99
330
1F
100
AcDbEntity
  8
0
  6
Continuous
 62
     7
370
    15
100
AcDbSpline
210
0.0
220
0.0
230
1.0
 70
     8
 71
     3
 72
    14
 73
    10
 74
     0
 42
0.00000001
 43
0.00000001
 40
0.0
 40
0.0
 40
0.0
 40
0.0
 40
0.5000000000000012
 40
0.5000000000000012
 40
0.7500000000000018
 40
0.7500000000000018
 40
0.8750000000000009
 40
0.8750000000000009
 40
1.0
 40
1.0
 40
1.0
 40
1.0
 10
42.2273906512193
 20
77.92794458050747
 30
0.0
 10
43.53569221375331
 20
77.93495930424858
 30
0.0
 10
44.84075158841041
 20
77.95036788069307
 30
0.0
 10
46.7866276398991
 20
78.00426443615973
 30
0.0
 10
47.43332514363826
 20
78.02729600076243
 30
0.0
 10
48.39716750749282
 20
78.07823852563318
 30
0.0
 10
48.71740619942697
 20
78.09797344786638
 30
0.0
 10
49.35410142576951
 20
78.14746057633796
 30
0.0
 10
49.6708168340525
 20
78.1765253552672
 30
0.0
 10
49.9828251471689
 20
78.21807675963736
 30
0.0
  0
SPLINE
  5
9A
330
1F
100
AcDbEntity
  8
0
  6
Continuous
 62
     7
370
    15
100
AcDbSpline
210
0.0
220
0.0
230
1.0
 70
     8
 71
     3
 72
    12
 73
     8
 74
     0
 42
0.00000001
 43
0.00000001
 40
0.0
 40
0.0
 40
0.0
 40
0.0
 40
0.2500000000000001
 40
0.2500000000000001
 40
0.5000000000000001
 40
0.5000000000000001
 40
1.0
 40
1.0
 40
1.0
 40
1.0
 10
48.52746553524964
 20
142.260299640569
 30
0.0
 10
48.00876671342146
 20
142.2928224154173
 30
0.0
 10
47.48705514021646
 20
142.3161191565877
 30
0.0
 10
46.44076312372089
 20
142.3539646710099
 30
0.0
 10
45.91609149805062
 20
142.368233145506
 30
0.0
 10
44.3392454755114
 20
142.4024426329643
 30
0.0
 10
43.28429016096452
 20
142.4139421369082
 30
0.0
 10
42.22739065121929
 20
142.4196089176377
 30
0.0
  0
SPLINE
  5
9B
330
1F
100
AcDbEntity
  8
0
  6
Continuous
 62
     7
370
    15
100
AcDbSpline
210
0.0
220
0.0
230
1.0
 70
     8
 71
     3
 72
    20
 73
    16
 74
     0
 42
0.00000001
 43
0.00000001
 40
0.0
 40
0.0
 40
0.0
 40
0.0
 40
0.2500000000000011
 40
0.2500000000000011
 40
0.5000000000000021
 40
0.5000000000000021
 40
0.7500000000000031
 40
0.7500000000000031
 40
0.8750000000000008
 40
0.8750000000000008
 40
0.9375000000000006
 40
0.9375000000000006
 40
0.9687500000000003
 40
0.9687500000000003
 40
1.0
 40
1.0
 40
1.0
 40
1.0
 10
50.42746553524964
 20
143.9183854860572
 30
0.0
 10
50.42746553524962
 20
143.7827031663104
 30
0.0
 10
50.37875374603301
 20
143.6416161801703
 30
0.0
 10
50.20959232280784
 20
143.3495444614398
 30
0.0
 10
50.0878119088895
 20
143.1978957193494
 30
0.0
 10
49.79026481414001
 20
142.8954872791963
 30
0.0
 10
49.61635220843721
 20
142.7428986430729
 30
0.0
 10
49.2969373745554
 20
142.5176278792306
 30
0.0
 10
49.18189659910814
 20
142.4429047847199
 30
0.0
 10
48.97481227509172
 20
142.3434943754629
 30
0.0
 10
48.89870444028532
 20
142.3119292831183
 30
0.0
 10
48.76730990073199
 20
142.2774858989254
 30
0.0
 10
48.72075668173053
 20
142.2684343271577
 30
0.0
 10
48.62442333064981
 20
142.2582586783193
 30
0.0
 10
48.57516390729438
 20
142.2573089196443
 30
0.0
 10
48.52746553524764
 20
142.2602996405589
 30
0.0
  0
LINE
  5
9C
330
1F
100
AcDbEntity
  8
0
  6
Continuous
 62
     7
370
    15
100
AcDbLine
 10
50.4274655352
 20
143.9183854861
 30
0.0
 11
50.4274655352
 21
146.1872907771
 31
0.0
  0
SPLINE
  5
9D
330
1F
100
AcDbEntity
  8
0
  6
Continuous
 62
     7
370
    15
100
AcDbSpline
210
0.0
220
0.0
230
1.0
 70
     8
 71
     3
 72
    22
 73
    18
 74
     0
 42
0.00000001
 43
0.00000001
 40
0.0
 40
0.0
 40
0.0
 40
0.0
 40
0.0002937850458186
 40
0.0628841327416245
 40
0.1261981682954119
 40
0.2510182590426545
 40
0.3131038291609287
 40
0.3757650688901397
 40
0.4382989835656159
 40
0.5000628079113862
 40
0.5617337561138577
 40
0.6246555685552369
 40
0.7491916976530832
 40
0.8115302181310354
 40
0.8745847230190956
 40
0.937822758820794
 40
1.0
 40
1.0
 40
1.0
 40
1.0
 10
68.74742179908907
 20
73.24253149076024
 30
0.0
 10
68.74722694567883
 20
73.24250718344037
 30
0.0
 10
68.70551894219818
 20
73.23730424765354
 30
0.0
 10
68.85078204538215
 20
73.25591845554142
 30
0.0
 10
69.32092822255247
 20
73.3124444061374
 30
0.0
 10
70.28938430513654
 20
73.41866603556285
 30
0.0
 10
71.60184411469793
 20
73.50429884299429
 30
0.0
 10
72.73396782333049
 20
73.54295490909315
 30
0.0
 10
73.95615459995247
 20
73.54661621687164
 30
0.0
 10
75.22345298748183
 20
73.5042308021018
 30
0.0
 10
76.49016464171493
 20
73.41585382442645
 30
0.0
 10
78.10582263757948
 20
73.2458046958026
 30
0.0
 10
79.54578524760309
 20
73.02362296124915
 30
0.0
 10
80.61165440376699
 20
72.8206268531146
 30
0.0
 10
81.20085478720495
 20
72.69660142016527
 30
0.0
 10
81.58957430249552
 20
72.61168057972036
 30
0.0
 10
81.63636001532494
 20
72.60095386191603
 30
0.0
 10
81.65955500895221
 20
72.5956358676809
 30
0.0
  0
SPLINE
  5
9E
330
1F
100
AcDbEntity
  8
0
  6
Continuous
 62
     7
370
    15
100
AcDbSpline
210
0.0
220
0.0
230
1.0
 70
     8
 71
     3
 72
    41
 73
    37
 74
     0
 42
0.00000001
 43
0.00000001
 40
0.0
 40
0.0
 40
0.0
 40
0.0
 40
0.0619930061482746
 40
0.1254347783466151
 40
0.1886508898234768
 40
0.2510246408607227
 40
0.3131658188976554
 40
0.3756581641417402
 40
0.4382227146727798
 40
0.4998044922940677
 40
0.56151641971787
 40
0.6240683094121985
 40
0.686725723240935
 40
0.7488365305144522
 40
0.8110685944253986
 40
0.8741742884451361
 40
0.9373212787645211
 40
0.9685511709617411
 40
0.9842086872487193
 40
0.9920641182531791
 40
0.996000486125535
 40
0.9979710794120144
 40
0.9989570090489596
 40
0.9994501359395065
 40
0.9996967403802177
 40
0.9998200529090742
 40
0.9998817117580818
 40
0.999912541829664
 40
0.9999279570273361
 40
0.9999356646666602
 40
0.9999395184964466
 40
0.9999414454138695
 40
0.9999424088732151
 40
0.9999433723329806
 40
0.9999501697010513
 40
1.0
 40
1.0
 40
1.0
 40
1.0
 10
81.65943367847422
 20
147.7518726125128
 30
0.0
 10
81.6358620331306
 20
147.7465631328629
 30
0.0
 10
81.58816787708555
 20
147.7358200919234
 30
0.0
 10
81.19612588766
 20
147.6505909554679
 30
0.0
 10
80.60561183838979
 20
147.5260221768272
 30
0.0
 10
79.80157439234472
 20
147.3730752306754
 30
0.0
 10
78.82549899216319
 20
147.2113186767218
 30
0.0
 10
77.7036902568827
 20
147.0590859087896
 30
0.0
 10
76.49015933709545
 20
146.9313059675882
 30
0.0
 10
75.22532863069624
 20
146.8434574159056
 30
0.0
 10
73.95728559325352
 20
146.8010719320349
 30
0.0
 10
72.73377823555239
 20
146.8048077400066
 30
0.0
 10
71.60027969513838
 20
146.8434032104547
 30
0.0
 10
70.61417388416419
 20
146.9078425817458
 30
0.0
 10
69.80554607537697
 20
146.9813523890271
 30
0.0
 10
69.20892738026777
 20
147.0486660738388
 30
0.0
 10
68.8935360908097
 20
147.0866306251068
 30
0.0
 10
68.78346952201177
 20
147.1004296844386
 30
0.0
 10
68.75605013419757
 20
147.1039157583593
 30
0.0
 10
68.74912808336806
 20
147.1047949840526
 30
0.0
 10
68.74735984318464
 20
147.105015758659
 30
0.0
 10
68.74689946401129
 20
147.1050709613697
 30
0.0
 10
68.74677530532647
 20
147.1050847011568
 30
0.0
 10
68.74673975083331
 20
147.1050880969878
 30
0.0
 10
68.74672860676321
 20
147.1050889253081
 30
0.0
 10
68.7467246935671
 20
147.1050891218969
 30
0.0
 10
68.74672315136227
 20
147.1050891658269
 30
0.0
 10
68.74672248436077
 20
147.1050891741337
 30
0.0
 10
68.74672217618303
 20
147.105089174964
 30
0.0
 10
68.74672202941696
 20
147.1050891744188
 30
0.0
 10
68.74672195646451
 20
147.1050891740889
 30
0.0
 10
68.74672192207213
 20
147.1050891736516
 30
0.0
 10
68.74672189982698
 20
147.1050891737401
 30
0.0
 10
68.74672187271753
 20
147.1050891709052
 30
0.0
 10
68.74671935315618
 20
147.1050894577602
 30
0.0
 10
68.74675544307424
 20
147.1050848376596
 30
0.0
 10
68.74678720089688
 20
147.1050807721381
 30
0.0
  0
SPLINE
  5
9F
330
1F
100
AcDbEntity
  8
0
  6
Continuous
 62
     7
370
    15
100
AcDbSpline
210
0.0
220
0.0
230
1.0
 70
     8
 71
     3
 72
    20
 73
    16
 74
     0
 42
0.00000001
 43
0.00000001
 40
0.0
 40
0.0
 40
0.0
 40
0.0
 40
0.249999999999986
 40
0.249999999999986
 40
0.3749999999999789
 40
0.3749999999999789
 40
0.4374999999999789
 40
0.4374999999999789
 40
0.4999999999999789
 40
0.4999999999999789
 40
0.6249999999999835
 40
0.6249999999999835
 40
0.7499999999999879
 40
0.7499999999999879
 40
1.0
 40
1.0
 40
1.0
 40
1.0
 10
40.61827976696565
 20
79.4952935963719
 30
0.0
 10
40.64455198417906
 20
79.51461153745436
 30
0.0
 10
40.6752321264339
 20
79.52900024855613
 30
0.0
 10
40.74670299681582
 20
79.52209588672012
 30
0.0
 10
40.77473003386014
 20
79.5149298833717
 30
0.0
 10
40.82981362335767
 20
79.48523085666811
 30
0.0
 10
40.8507049519101
 20
79.47175721410677
 30
0.0
 10
40.89591359935554
 20
79.43655894859077
 30
0.0
 10
40.92031781175113
 20
79.4146507198635
 30
0.0
 10
40.99165012980258
 20
79.34252585986795
 30
0.0
 10
41.03354691462282
 20
79.2901853189179
 30
0.0
 10
41.10512287347871
 20
79.19270192701717
 30
0.0
 10
41.13595086329602
 20
79.14594815713875
 30
0.0
 10
41.21905079613158
 20
79.01265494129963
 30
0.0
 10
41.26390570150189
 20
78.93001754338441
 30
0.0
 10
41.30401777695447
 20
78.85091064859364
 30
0.0
  0
SPLINE
  5
A0
330
1F
100
AcDbEntity
  8
0
  6
Continuous
 62
     7
370
    15
100
AcDbSpline
210
0.0
220
0.0
230
1.0
 70
     8
 71
     3
 72
     8
 73
     4
 74
     0
 42
0.00000001
 43
0.00000001
 40
0.0
 40
0.0
 40
0.0
 40
0.0
 40
1.0
 40
1.0
 40
1.0
 40
1.0
 10
40.32746553524966
 20
79.67110700650467
 30
0.0
 10
40.32746553524966
 20
79.64582694927732
 30
0.0
 10
40.33065233968389
 20
79.62222738003926
 30
0.0
 10
40.33675533663131
 20
79.60064993834725
 30
0.0
  0
SPLINE
  5
A1
330
1F
100
AcDbEntity
  8
0
  6
Continuous
 62
     7
370
    15
100
AcDbSpline
210
0.0
220
0.0
230
1.0
 70
     8
 71
     3
 72
     9
 73
     5
 74
     0
 42
0.00000001
 43
0.00000001
 40
0.0
 40
0.0
 40
0.0
 40
0.0
 40
0.7766521846938914
 40
0.9999999999999999
 40
0.9999999999999999
 40
0.9999999999999999
 40
0.9999999999999999
 10
40.41279616174339
 20
79.5560648734822
 30
0.0
 10
40.45598328803695
 20
79.5038667520965
 30
0.0
 10
40.51159006690745
 20
79.4366576172812
 30
0.0
 10
40.59880132336941
 20
79.48458836792452
 30
0.0
 10
40.6182797669703
 20
79.4952935963667
 30
0.0
  0
LINE
  5
A2
330
1F
100
AcDbEntity
  8
0
  6
Continuous
 62
     7
370
    15
100
AcDbLine
 10
40.3274655352
 20
79.6711070065
 30
0.0
 11
40.3274655352
 21
140.6764464916
 31
0.0
  0
SPLINE
  5
A3
330
1F
100
AcDbEntity
  8
0
  6
Continuous
 62
     7
370
    15
100
AcDbSpline
210
0.0
220
0.0
230
1.0
 70
     8
 71
     3
 72
     9
 73
     5
 74
     0
 42
0.00000001
 43
0.00000001
 40
0.0
 40
0.0
 40
0.0
 40
0.0
 40
0.0592950272321202
 40
1.0
 40
1.0
 40
1.0
 40
1.0
 10
40.61827976697029
 20
140.8522599017785
 30
0.0
 10
40.6133969255081
 20
140.855552747172
 30
0.0
 10
40.53104867996176
 20
140.9110859941776
 30
0.0
 10
40.46491662948021
 20
140.8537965916651
 30
0.0
 10
40.40270588073292
 20
140.7999041658346
 30
0.0
  0
SPLINE
  5
A4
330
1F
100
AcDbEntity
  8
0
  6
Continuous
 62
     7
370
    15
100
AcDbSpline
210
0.0
220
0.0
230
1.0
 70
     8
 71
     3
 72
     8
 73
     4
 74
     0
 42
0.00000001
 43
0.00000001
 40
0.0
 40
0.0
 40
0.0
 40
0.0
 40
1.0
 40
1.0
 40
1.0
 40
1.0
 10
40.35109920418585
 20
140.7840259927102
 30
0.0
 10
40.33575016554981
 20
140.7535159377142
 30
0.0
 10
40.32746553524966
 20
140.7172043822019
 30
0.0
 10
40.32746553524966
 20
140.6764464916405
 30
0.0
  0
SPLINE
  5
A5
330
1F
100
AcDbEntity
  8
0
  6
Continuous
 62
     7
370
    15
100
AcDbSpline
210
0.0
220
0.0
230
1.0
 70
     8
 71
     3
 72
    20
 73
    16
 74
     0
 42
0.00000001
 43
0.00000001
 40
0.0
 40
0.0
 40
0.0
 40
0.0
 40
0.2500000000000037
 40
0.2500000000000037
 40
0.3750000000000055
 40
0.3750000000000055
 40
0.5000000000000073
 40
0.5000000000000073
 40
0.5625000000000057
 40
0.5625000000000057
 40
0.625000000000004
 40
0.625000000000004
 40
0.7500000000000027
 40
0.7500000000000027
 40
1.0
 40
1.0
 40
1.0
 40
1.0
 10
41.30401777695206
 20
141.4966428495508
 30
0.0
 10
41.26402155912822
 20
141.4177644429933
 30
0.0
 10
41.21890793129057
 20
141.3346347963018
 30
0.0
 10
41.13565371692404
 20
141.2011461319509
 30
0.0
 10
41.10543438830355
 20
141.1552810760689
 30
0.0
 10
41.03334615316212
 20
141.057089523664
 30
0.0
 10
40.99142883575105
 20
141.0047797041404
 30
0.0
 10
40.92017823119957
 20
140.9327738014059
 30
0.0
 10
40.89594241882026
 20
140.9110035891043
 30
0.0
 10
40.85034422863562
 20
140.8755289307753
 30
0.0
 10
40.8295417390359
 20
140.8621587465978
 30
0.0
 10
40.77460074061678
 20
140.8325888344625
 30
0.0
 10
40.74653175252996
 20
140.8254623121606
 30
0.0
 10
40.67602892246713
 20
140.8185879406779
 30
0.0
 10
40.64460483467626
 20
140.832903099765
 30
0.0
 10
40.61827976696766
 20
140.8522599017756
 30
0.0
  0
SPLINE
  5
A6
330
1F
100
AcDbEntity
  8
0
  6
Continuous
 62
     7
370
    15
100
AcDbSpline
210
0.0
220
0.0
230
1.0
 70
     8
 71
     3
 72
    10
 73
     6
 74
     0
 42
0.00000001
 43
0.00000001
 40
0.0
 40
0.0
 40
0.0
 40
0.0
 40
0.4999999999999989
 40
0.4999999999999989
 40
1.0
 40
1.0
 40
1.0
 40
1.0
 10
41.97746553524964
 20
142.4220619508926
 30
0.0
 10
41.85257726449945
 20
142.2910656728211
 30
0.0
 10
41.73112714643901
 20
142.1473528361561
 30
0.0
 10
41.50154317148158
 20
141.8367825434669
 30
0.0
 10
41.3912681960856
 20
141.6687134704038
 30
0.0
 10
41.30401777695207
 20
141.4966428495508
 30
0.0
  0
SPLINE
  5
A7
330
1F
100
AcDbEntity
  8
0
  6
Continuous
 62
     7
370
    15
100
AcDbSpline
210
0.0
220
0.0
230
1.0
 70
     8
 71
     3
 72
     8
 73
     4
 74
     0
 42
0.00000001
 43
0.00000001
 40
0.0
 40
0.0
 40
0.0
 40
0.0
 40
1.0
 40
1.0
 40
1.0
 40
1.0
 10
42.22739065121542
 20
142.4196089176372
 30
0.0
 10
42.14037262136705
 20
142.4200754824243
 30
0.0
 10
42.0574185949871
 20
142.4211155020004
 30
0.0
 10
41.97746553524734
 20
142.4220619508927
 30
0.0
  0
SPLINE
  5
A8
330
1F
100
AcDbEntity
  8
0
  6
Continuous
 62
     7
370
    15
100
AcDbSpline
210
0.0
220
0.0
230
1.0
 70
     8
 71
     3
 72
     8
 73
     4
 74
     0
 42
0.00000001
 43
0.00000001
 40
0.0
 40
0.0
 40
0.0
 40
0.0
 40
1.0
 40
1.0
 40
1.0
 40
1.0
 10
41.97746553524734
 20
77.92549154725252
 30
0.0
 10
42.0574185949871
 20
77.9264379961448
 30
0.0
 10
42.14037262136705
 20
77.92747801572092
 30
0.0
 10
42.22739065121543
 20
77.92794458050797
 30
0.0
  0
SPLINE
  5
A9
330
1F
100
AcDbEntity
  8
0
  6
Continuous
 62
     7
370
    15
100
AcDbSpline
210
0.0
220
0.0
230
1.0
 70
     8
 71
     3
 72
    10
 73
     6
 74
     0
 42
0.00000001
 43
0.00000001
 40
0.0
 40
0.0
 40
0.0
 40
0.0
 40
0.4999999999999989
 40
0.4999999999999989
 40
1.0
 40
1.0
 40
1.0
 40
1.0
 10
41.30401777695114
 20
78.8509106485962
 30
0.0
 10
41.39126819608463
 20
78.67884002774284
 30
0.0
 10
41.50154317148078
 20
78.5107709546794
 30
0.0
 10
41.73112714643862
 20
78.20020066198957
 30
0.0
 10
41.85257726449926
 20
78.0564878253243
 30
0.0
 10
41.97746553524964
 20
77.92549154725259
 30
0.0
  0
SPLINE
  5
AA
330
1F
100
AcDbEntity
  8
0
  6
Continuous
 62
     7
370
    15
100
AcDbSpline
210
0.0
220
0.0
230
1.0
 70
     8
 71
     3
 72
     8
 73
     4
 74
     0
 42
0.00000001
 43
0.00000001
 40
0.0
 40
0.0
 40
0.0
 40
0.0
 40
1.0
 40
1.0
 40
1.0
 40
1.0
 10
108.3174655352497
 20
156.7710476097775
 30
0.0
 10
107.8671572995651
 20
157.5687627348911
 30
0.0
 10
107.4164634830415
 20
158.3662610345483
 30
0.0
 10
106.9654365143282
 20
159.1635716047361
 30
0.0
  0
LINE
  5
AB
330
1F
100
AcDbEntity
  8
0
  6
Continuous
 62
     7
370
    15
100
AcDbLine
 10
108.3174655352
 20
146.0692242552
 30
0.0
 11
108.3174655352
 21
156.7710476098
 31
0.0
  0
SPLINE
  5
AC
330
1F
100
AcDbEntity
  8
0
  6
Continuous
 62
     7
370
    15
100
AcDbSpline
210
0.0
220
0.0
230
1.0
 70
     8
 71
     3
 72
     8
 73
     4
 74
     0
 42
0.00000001
 43
0.00000001
 40
0.0
 40
0.0
 40
0.0
 40
0.0
 40
1.0
 40
1.0
 40
1.0
 40
1.0
 10
106.9654365143282
 20
149.1247395099595
 30
0.0
 10
107.4223628681278
 20
148.1088215402852
 30
0.0
 10
107.8735685099308
 20
147.0900257111941
 30
0.0
 10
108.3174655352497
 20
146.0692242552104
 30
0.0
  0
LINE
  5
AD
330
1F
100
AcDbEntity
  8
0
  6
Continuous
 62
     7
370
    15
100
AcDbLine
 10
118.1774655352
 20
159.1635716047
 30
0.0
 11
113.4894945562
 21
159.1635716047
 31
0.0
  0
LINE
  5
AE
330
1F
100
AcDbEntity
  8
0
  6
Continuous
 62
     7
370
    15
100
AcDbLine
 10
113.4894945562
 20
149.12473951
 30
0.0
 11
118.1774655352
 21
149.12473951
 31
0.0
  0
LINE
  5
AF
330
1F
100
AcDbEntity
  8
0
  6
Continuous
 62
     7
370
    15
100
AcDbLine
 10
113.4894945562
 20
149.12473951
 30
0.0
 11
113.4894945562
 21
159.1635716047
 31
0.0
  0
SPLINE
  5
B0
330
1F
100
AcDbEntity
  8
0
  6
Continuous
 62
     7
370
    15
100
AcDbSpline
210
0.0
220
0.0
230
1.0
 70
     8
 71
     3
 72
    12
 73
     8
 74
     0
 42
0.00000001
 43
0.00000001
 40
0.0
 40
0.0
 40
0.0
 40
0.0
 40
0.5
 40
0.5
 40
0.75
 40
0.75
 40
1.0
 40
1.0
 40
1.0
 40
1.0
 10
119.1774655352497
 20
158.1425165699184
 30
0.0
 10
119.1774655352497
 20
158.4077860026848
 30
0.0
 10
119.0728587917632
 20
158.6703011083372
 30
0.0
 10
118.7961904400179
 20
158.9558387143745
 30
0.0
 10
118.6858251806659
 20
159.0321603312359
 30
0.0
 10
118.4417531320502
 20
159.136502496076
 30
0.0
 10
118.3100006707184
 20
159.1635716047361
 30
0.0
 10
118.1774655352497
 20
159.1635716047362
 30
0.0
  0
SPLINE
  5
B1
330
1F
100
AcDbEntity
  8
0
  6
Continuous
 62
     7
370
    15
100
AcDbSpline
210
0.0
220
0.0
230
1.0
 70
     8
 71
     3
 72
    16
 73
    12
 74
     0
 42
0.00000001
 43
0.00000001
 40
0.0
 40
0.0
 40
0.0
 40
0.0
 40
0.125
 40
0.125
 40
0.25
 40
0.25
 40
0.5
 40
0.5
 40
0.75
 40
0.75
 40
1.0
 40
1.0
 40
1.0
 40
1.0
 10
118.1774655352487
 20
149.1247395099595
 30
0.0
 10
118.2531032416599
 20
149.1247395099596
 30
0.0
 10
118.3294189060781
 20
149.1133945098248
 30
0.0
 10
118.4738296439702
 20
149.0707419591864
 30
0.0
 10
118.5422760930787
 20
149.0398076345036
 30
0.0
 10
118.7372073456921
 20
148.9205512627361
 30
0.0
 10
118.8450485194731
 20
148.8103992491155
 30
0.0
 10
119.0137612676853
 20
148.5622631634574
 30
0.0
 10
119.0761256804089
 20
148.4219208394536
 30
0.0
 10
119.1574296049174
 20
148.1336491479648
 30
0.0
 10
119.1774655352497
 20
147.9828441749849
 30
0.0
 10
119.1774655352497
 20
147.8324742836396
 30
0.0
  0
LINE
  5
B2
330
1F
100
AcDbEntity
  8
0
  6
Continuous
 62
     7
370
    15
100
AcDbLine
 10
119.1774655352
 20
147.8324742836
 30
0.0
 11
119.1774655352
 21
158.1425165699
 31
0.0
  0
SPLINE
  5
B3
330
1F
100
AcDbEntity
  8
0
  6
Continuous
 62
     7
370
    15
100
AcDbSpline
210
0.0
220
0.0
230
1.0
 70
     8
 71
     3
 72
    14
 73
    10
 74
     0
 42
0.00000001
 43
0.00000001
 40
0.0
 40
0.0
 40
0.0
 40
0.0
 40
0.25
 40
0.25
 40
0.5
 40
0.5
 40
0.75
 40
0.75
 40
1.0
 40
1.0
 40
1.0
 40
1.0
 10
112.1374655352497
 20
155.8673279899206
 30
0.0
 10
112.1374655352497
 20
155.7609712961682
 30
0.0
 10
112.1170779791084
 20
155.6551308084081
 30
0.0
 10
112.0384436336468
 20
155.4585658948716
 30
0.0
 10
111.9797122740082
 20
155.3673951525845
 30
0.0
 10
111.8331033684056
 20
155.2154840635529
 30
0.0
 10
111.743698048379
 20
155.1534152267333
 30
0.0
 10
111.5498073157786
 20
155.0701471789746
 30
0.0
 10
111.4433023258887
 20
155.048052509245
 30
0.0
 10
111.3374655352494
 20
155.048052509245
 30
0.0
  0
SPLINE
  5
B4
330
1F
100
AcDbEntity
  8
0
  6
Continuous
 62
     7
370
    15
100
AcDbSpline
210
0.0
220
0.0
230
1.0
 70
     8
 71
     3
 72
    12
 73
     8
 74
     0
 42
0.00000001
 43
0.00000001
 40
0.0
 40
0.0
 40
0.0
 40
0.0
 40
0.250000000000002
 40
0.250000000000002
 40
0.500000000000004
 40
0.500000000000004
 40
1.0
 40
1.0
 40
1.0
 40
1.0
 10
111.3374655352517
 20
143.8023081621451
 30
0.0
 10
111.4611664852315
 20
143.8023081621456
 30
0.0
 10
111.5852630975014
 20
143.8443017738784
 30
0.0
 10
111.7919182605878
 20
143.982097100523
 30
0.0
 10
111.8769590273144
 20
144.0760706989878
 30
0.0
 10
112.0764375957875
 20
144.3908589052085
 30
0.0
 10
112.1374655352497
 20
144.6410978974357
 30
0.0
 10
112.1374655352497
 20
144.8880119415696
 30
0.0
  0
LINE
  5
B5
330
1F
100
AcDbEntity
  8
0
  6
Continuous
 62
     7
370
    15
100
AcDbLine
 10
108.3174655352
 20
146.0692242552
 30
0.0
 11
108.3174655352
 21
144.8880119416
 31
0.0
  0
SPLINE
  5
B6
330
1F
100
AcDbEntity
  8
0
  6
Continuous
 62
     7
370
    15
100
AcDbSpline
210
0.0
220
0.0
230
1.0
 70
     8
 71
     3
 72
    14
 73
    10
 74
     0
 42
0.00000001
 43
0.00000001
 40
0.0
 40
0.0
 40
0.0
 40
0.0
 40
0.25
 40
0.25
 40
0.5
 40
0.5
 40
0.75
 40
0.75
 40
1.0
 40
1.0
 40
1.0
 40
1.0
 10
108.3174655352496
 20
144.8880119415696
 30
0.0
 10
108.3174655352496
 20
144.7641450647804
 30
0.0
 10
108.3333246628772
 20
144.6398853879429
 30
0.0
 10
108.3966863083971
 20
144.4022770255371
 30
0.0
 10
108.4452760164465
 20
144.2854966407846
 30
0.0
 10
108.5775616212213
 20
144.0766941121756
 30
0.0
 10
108.6628864124819
 20
143.982183408583
 30
0.0
 10
108.8697776607881
 20
143.8442266077807
 30
0.0
 10
108.9937456066781
 20
143.802308162145
 30
0.0
 10
109.1174655352496
 20
143.802308162145
 30
0.0
  0
LINE
  5
B7
330
1F
100
AcDbEntity
  8
0
  6
Continuous
 62
     7
370
    15
100
AcDbLine
 10
109.1174655352
 20
143.8023081621
 30
0.0
 11
111.3374655353
 21
143.8023081621
 31
0.0
  0
LINE
  5
B8
330
1F
100
AcDbEntity
  8
0
  6
Continuous
 62
     7
370
    15
100
AcDbLine
 10
112.1374655352
 20
144.8880119416
 30
0.0
 11
112.1374655352
 21
146.0692242552
 31
0.0
  0
SPLINE
  5
B9
330
1F
100
AcDbEntity
  8
0
  6
Continuous
 62
     7
370
    15
100
AcDbSpline
210
0.0
220
0.0
230
1.0
 70
     8
 71
     3
 72
     8
 73
     4
 74
     0
 42
0.00000001
 43
0.00000001
 40
0.0
 40
0.0
 40
0.0
 40
0.0
 40
1.0
 40
1.0
 40
1.0
 40
1.0
 10
112.1374655352496
 20
146.0692242552104
 30
0.0
 10
112.5816155462751
 20
147.0906074861621
 30
0.0
 10
113.0326898565331
 20
148.1090920229304
 30
0.0
 10
113.489494556171
 20
149.1247395099595
 30
0.0
  0
LINE
  5
BA
330
1F
100
AcDbEntity
  8
0
  6
Continuous
 62
     7
370
    15
100
AcDbLine
 10
119.1774655352
 20
147.8324742836
 30
0.0
 11
119.1774655352
 21
141.5237767491
 31
0.0
  0
SPLINE
  5
BB
330
1F
100
AcDbEntity
  8
0
  6
Continuous
 62
     7
370
    15
100
AcDbSpline
210
0.0
220
0.0
230
1.0
 70
     8
 71
     3
 72
     8
 73
     4
 74
     0
 42
0.00000001
 43
0.00000001
 40
0.0
 40
0.0
 40
0.0
 40
0.0
 40
1.0
 40
1.0
 40
1.0
 40
1.0
 10
113.489494556171
 20
159.1635716047361
 30
0.0
 10
113.0384675874578
 20
158.3662610345483
 30
0.0
 10
112.5877737709342
 20
157.5687627348911
 30
0.0
 10
112.1374655352496
 20
156.7710476097775
 30
0.0
  0
LINE
  5
BC
330
1F
100
AcDbEntity
  8
0
  6
Continuous
 62
     7
370
    15
100
AcDbLine
 10
112.1374655352
 20
146.0692242552
 30
0.0
 11
112.1374655352
 21
156.7710476098
 31
0.0
  0
SPLINE
  5
BD
330
1F
100
AcDbEntity
  8
0
  6
Continuous
 62
     7
370
    15
100
AcDbSpline
210
0.0
220
0.0
230
1.0
 70
     8
 71
     3
 72
    10
 73
     6
 74
     0
 42
0.00000001
 43
0.00000001
 40
0.0
 40
0.0
 40
0.0
 40
0.0
 40
0.5
 40
0.5
 40
1.0
 40
1.0
 40
1.0
 40
1.0
 10
109.1174655352496
 20
155.048052509245
 30
0.0
 10
108.9049292213933
 20
155.048052509245
 30
0.0
 10
108.6949930497393
 20
155.1394650958752
 30
0.0
 10
108.401285908728
 20
155.4442099617794
 30
0.0
 10
108.3174655352496
 20
155.656364931688
 30
0.0
 10
108.3174655352496
 20
155.8673279899206
 30
0.0
  0
LINE
  5
BE
330
1F
100
AcDbEntity
  8
0
  6
Continuous
 62
     7
370
    15
100
AcDbLine
 10
111.3374655352
 20
155.0480525092
 30
0.0
 11
109.1174655352
 21
155.0480525092
 31
0.0
  0
ARC
  5
BF
330
1F
100
AcDbEntity
  8
0
  6
Continuous
 62
     7
370
    15
100
AcDbCircle
 10
99.2275321814
 20
142.73934725
 30
0.0
 40
11.45027678818642
100
AcDbArc
 50
77.9103159805
 51
102.108234864
  0
SPLINE
  5
C0
330
1F
100
AcDbEntity
  8
0
  6
Continuous
 62
     7
370
    15
100
AcDbSpline
210
0.0
220
0.0
230
1.0
 70
     8
 71
     3
 72
    39
 73
    35
 74
     0
 42
0.00000001
 43
0.00000001
 40
-0.0929035514954804
 40
-0.0617844675330305
 40
-0.0305606518848942
 40
0.0
 40
0.0305833544994083
 40
0.0618207632592329
 40
0.0929574073281347
 40
0.1240731578172218
 40
0.1552546267403909
 40
0.1868126884169536
 40
0.2185638838507275
 40
0.2499315075259872
 40
0.2813251124612474
 40
0.3131464055674956
 40
0.3447816985835474
 40
0.3760142222481497
 40
0.4071224531638362
 40
0.4382110606588943
 40
0.4693931316492465
 40
0.5000117158875053
 40
0.5306249294235122
 40
0.56184544746946
 40
0.5929501996324352
 40
0.6240749381357344
 40
0.6552854313530152
 40
0.6868966152747497
 40
0.7186677897656966
 40
0.7500607090513601
 40
0.7814251173831798
 40
0.8132188904409188
 40
0.844799703796897
 40
0.8760022562479344
 40
0.9070964485045195
 40
0.9382155324669694
 40
0.9694393481151057
 40
0.9999999999999999
 40
1.030583354499408
 40
1.061820763259233
 40
1.092957407328135
 10
228.0617046988263
 20
103.3208863570647
 30
0.0
 10
226.7271341250722
 20
103.1848619478949
 30
0.0
 10
225.3923876724576
 20
103.3210989467013
 30
0.0
 10
224.1117493128823
 20
103.7297699663247
 30
0.0
 10
222.9288171025272
 20
104.371225367017
 30
0.0
 10
221.9032003651071
 20
105.2353888069513
 30
0.0
 10
221.0605800676601
 20
106.2866497192597
 30
0.0
 10
220.4362153719784
 20
107.495207546592
 30
0.0
 10
220.0394611025859
 20
108.8057443707574
 30
0.0
 10
219.908043664608
 20
110.1710879199333
 30
0.0
 10
220.0403107101909
 20
111.5373488853855
 30
0.0
 10
220.4376536043849
 20
112.8502721538694
 30
0.0
 10
221.0624014032497
 20
114.0618364580387
 30
0.0
 10
221.905697431139
 20
115.114791360862
 30
0.0
 10
222.9309623211236
 20
115.9792085030235
 30
0.0
 10
224.1124304792313
 20
116.6201204340441
 30
0.0
 10
225.3925982901093
 20
117.0273197312334
 30
0.0
 10
226.7278535182866
 20
117.1624720702481
 30
0.0
 10
228.0636289343946
 20
117.0269065480507
 30
0.0
 10
229.3442970849047
 20
116.6189781348449
 30
0.0
 10
230.5265799237116
 20
115.9774322816761
 30
0.0
 10
231.5515621823752
 20
115.1123931973205
 30
0.0
 10
232.3940780318598
 20
114.0593961352055
 30
0.0
 10
233.0180294722485
 20
112.8489571563034
 30
0.0
 10
233.4145664731601
 20
111.5369405475946
 30
0.0
 10
233.546873706032
 20
110.1715003724713
 30
0.0
 10
233.4155849847863
 20
108.8055584457174
 30
0.0
 10
233.0182139433448
 20
107.4942529426973
 30
0.0
 10
232.3932051975708
 20
106.2846409287849
 30
0.0
 10
231.5498886947413
 20
105.2334883525546
 30
0.0
 10
230.5240568809306
 20
104.3700013329237
 30
0.0
 10
229.3416285662111
 20
103.7292384637243
 30
0.0
 10
228.0617046988263
 20
103.3208863570647
 30
0.0
 10
226.7271341250722
 20
103.1848619478949
 30
0.0
 10
225.3923876724576
 20
103.3210989467013
 30
0.0
  0
LINE
  5
C1
330
1F
100
AcDbEntity
  8
0
  6
Continuous
 62
     7
370
    15
100
AcDbLine
 10
239.5049309327
 20
86.1737767491
 30
0.0
 11
239.5049309327
 21
134.1737767491
 31
0.0
  0
SPLINE
  5
C2
330
1F
100
AcDbEntity
  8
0
  6
Continuous
 62
     7
370
    15
100
AcDbSpline
210
0.0
220
0.0
230
1.0
 70
     8
 71
     3
 72
    68
 73
    64
 74
     0
 42
0.00000001
 43
0.00000001
 40
-0.03125
 40
-0.03125
 40
0.0
 40
0.0
 40
0.03125
 40
0.03125
 40
0.0625
 40
0.0625
 40
0.09375
 40
0.09375
 40
0.125
 40
0.125
 40
0.15625
 40
0.15625
 40
0.1875
 40
0.1875
 40
0.21875
 40
0.21875
 40
0.25
 40
0.25
 40
0.28125
 40
0.28125
 40
0.3125
 40
0.3125
 40
0.34375
 40
0.34375
 40
0.375
 40
0.375
 40
0.40625
 40
0.40625
 40
0.4375
 40
0.4375
 40
0.46875
 40
0.46875
 40
0.5
 40
0.5
 40
0.53125
 40
0.53125
 40
0.5625
 40
0.5625
 40
0.59375
 40
0.59375
 40
0.625
 40
0.625
 40
0.6875
 40
0.6875
 40
0.71875
 40
0.71875
 40
0.75
 40
0.75
 40
0.78125
 40
0.78125
 40
0.8125
 40
0.8125
 40
0.84375
 40
0.84375
 40
0.875
 40
0.875
 40
0.90625
 40
0.90625
 40
0.9375
 40
0.9375
 40
0.96875
 40
0.96875
 40
1.0
 40
1.0
 40
1.03125
 40
1.03125
 10
156.6448544517571
 20
112.346795508587
 30
0.0
 10
156.9828828514767
 20
112.6254947486403
 30
0.0
 10
157.1624175819139
 20
112.7465345246719
 30
0.0
 10
157.5406735233573
 20
112.9553705450717
 30
0.0
 10
157.7408822789674
 20
113.0436085340025
 30
0.0
 10
158.1541363777437
 20
113.1839668985496
 30
0.0
 10
158.3645214751362
 20
113.2354907371587
 30
0.0
 10
158.7924987668514
 20
113.3028485977624
 30
0.0
 10
159.0121531708392
 20
113.3185563919641
 30
0.0
 10
159.4473468357524
 20
113.3126623738502
 30
0.0
 10
159.6625719202169
 20
113.2915005753981
 30
0.0
 10
160.0883167529641
 20
113.2130032974933
 30
0.0
 10
160.3008950546852
 20
113.1547867743379
 30
0.0
 10
160.7081491261685
 20
113.0038357778351
 30
0.0
 10
160.9031523014367
 20
112.9115283254381
 30
0.0
 10
161.2755238244241
 20
112.6923613800421
 30
0.0
 10
161.4547272191951
 20
112.5637097828638
 30
0.0
 10
161.7808782086329
 20
112.2781827570591
 30
0.0
 10
161.9286253054776
 20
112.121480974781
 30
0.0
 10
162.1917367628609
 20
111.7785047470772
 30
0.0
 10
162.3078724625927
 20
111.5897536005868
 30
0.0
 10
162.4929629385557
 20
111.1983696993234
 30
0.0
 10
162.5636010604676
 20
110.9943784277445
 30
0.0
 10
162.65793983247
 20
110.56857401307
 30
0.0
 10
162.6803664235504
 20
110.3489841689611
 30
0.0
 10
162.6739519896174
 20
109.9158210278053
 30
0.0
 10
162.6449968121934
 20
109.6967391712142
 30
0.0
 10
162.5382388896617
 20
109.2737404928741
 30
0.0
 10
162.4614978507961
 20
109.0708152229697
 30
0.0
 10
162.26334954579
 20
108.6813174842534
 30
0.0
 10
162.1429987743815
 20
108.4977542837632
 30
0.0
 10
161.8697029777271
 20
108.1609248673289
 30
0.0
 10
161.7141055281239
 20
108.0046761472687
 30
0.0
 10
161.378988421996
 20
107.7272036426886
 30
0.0
 10
161.1997126029632
 20
107.6054642371404
 30
0.0
 10
160.8188217834984
 20
107.3942465687614
 30
0.0
 10
160.6173590061993
 20
107.3053812681786
 30
0.0
 10
160.2070513147853
 20
107.1654067824777
 30
0.0
 10
159.9964395783671
 20
107.1132421743187
 30
0.0
 10
159.5642121369589
 20
107.0447587718691
 30
0.0
 10
159.3460886328845
 20
107.0292019333791
 30
0.0
 10
158.6965844948419
 20
107.0372569992345
 30
0.0
 10
158.2587905483055
 20
107.1172783788863
 30
0.0
 10
157.6508158159599
 20
107.3420222992777
 30
0.0
 10
157.4547993558449
 20
107.4342787441674
 30
0.0
 10
157.0771486515291
 20
107.6564901236804
 30
0.0
 10
156.9010703286896
 20
107.7832685249166
 30
0.0
 10
156.5764329798894
 20
108.0671055431874
 30
0.0
 10
156.427057252141
 20
108.2249077794501
 30
0.0
 10
156.1604493487712
 20
108.5728134536157
 30
0.0
 10
156.0474053909152
 20
108.7572632087573
 30
0.0
 10
155.8626097916111
 20
109.1476314209412
 30
0.0
 10
155.7902709848713
 20
109.3566816282599
 30
0.0
 10
155.696489734887
 20
109.7825377818965
 30
0.0
 10
155.6744821215595
 20
109.998021304443
 30
0.0
 10
155.6810902234711
 20
110.4341909411495
 30
0.0
 10
155.71052386918
 20
110.6537755153228
 30
0.0
 10
155.8170921154467
 20
111.0747667775547
 30
0.0
 10
155.895438737208
 20
111.2814406113795
 30
0.0
 10
156.0939291764527
 20
111.6700737669417
 30
0.0
 10
156.2130666068266
 20
111.8515992095363
 30
0.0
 10
156.4888162404835
 20
112.1906419840552
 30
0.0
 10
156.6448544517571
 20
112.346795508587
 30
0.0
 10
156.9828828514767
 20
112.6254947486403
 30
0.0
  0
LINE
  5
C3
330
1F
100
AcDbEntity
  8
0
  6
Continuous
 62
     7
370
    15
100
AcDbLine
 10
156.8138686516
 20
86.2854333012
 30
0.0
 11
156.7200787624
 21
86.2768459118
 31
0.0
  0
SPLINE
  5
C4
330
1F
100
AcDbEntity
  8
0
  6
Continuous
 62
     7
370
    15
100
AcDbSpline
210
0.0
220
0.0
230
1.0
 70
     8
 71
     3
 72
    17
 73
    13
 74
     0
 42
0.00000001
 43
0.00000001
 40
0.0
 40
0.0
 40
0.0
 40
0.0
 40
0.0504777872222025
 40
0.1404288124296415
 40
0.2341810880071648
 40
0.3371068668951457
 40
0.4505665643951695
 40
0.5716332380872896
 40
0.695128144978413
 40
0.8151960611037737
 40
0.9252081603293673
 40
1.0
 40
1.0
 40
1.0
 40
1.0
 10
155.7204791726596
 20
86.178754916022
 30
0.0
 10
155.7133596215726
 20
86.17794171259033
 30
0.0
 10
155.6935530856842
 20
86.1756793869525
 30
0.0
 10
156.0207887049093
 20
86.21312734731414
 30
0.0
 10
156.6331190345064
 20
86.2734582691998
 30
0.0
 10
157.5388027255252
 20
86.34056673339147
 30
0.0
 10
158.6761778060402
 20
86.38467747806617
 30
0.0
 10
159.937860979249
 20
86.37982439806984
 30
0.0
 10
161.1452955804471
 20
86.32113988258803
 30
0.0
 10
162.0776447543488
 20
86.24101312320407
 30
0.0
 10
162.6144607157469
 20
86.18124019546602
 30
0.0
 10
162.6360026523843
 20
86.17860941412935
 30
0.0
 10
162.6447208706257
 20
86.17754471292703
 30
0.0
  0
LINE
  5
C5
330
1F
100
AcDbEntity
  8
0
  6
Continuous
 62
     7
370
    15
100
AcDbLine
 10
157.3386408083
 20
86.3205631428
 30
0.0
 11
156.813868651
 21
86.2854333056
 31
0.0
  0
LINE
  5
C6
330
1F
100
AcDbEntity
  8
0
  6
Continuous
 62
     7
370
    15
100
AcDbLine
 10
156.8138686516
 20
134.062120197
 30
0.0
 11
157.0112805956
 21
134.0497590036
 31
0.0
  0
SPLINE
  5
C7
330
1F
100
AcDbEntity
  8
0
  6
Continuous
 62
     7
370
    15
100
AcDbSpline
210
0.0
220
0.0
230
1.0
 70
     8
 71
     3
 72
    17
 73
    13
 74
     0
 42
0.00000001
 43
0.00000001
 40
0.0
 40
0.0
 40
0.0
 40
0.0
 40
0.0496841624914199
 40
0.1396350247597979
 40
0.2333243528575864
 40
0.3361557949939747
 40
0.4495289415375099
 40
0.5705490818533449
 40
0.6940459237109556
 40
0.8141726629891003
 40
0.9242958943086192
 40
1.0
 40
1.0
 40
1.0
 40
1.0
 10
162.6342460693323
 20
134.1687746364329
 30
0.0
 10
162.6417306219764
 20
134.1696308190016
 30
0.0
 10
162.6627656086073
 20
134.1720370802363
 30
0.0
 10
162.3382557375827
 20
134.1348733263155
 30
0.0
 10
161.7286173544555
 20
134.0747016182805
 30
0.0
 10
160.8252237468411
 20
134.0075215951739
 30
0.0
 10
159.6895918356648
 20
133.9630816156896
 30
0.0
 10
158.4282593753416
 20
133.9674327274074
 30
0.0
 10
157.219466300159
 20
134.0257266893543
 30
0.0
 10
156.2838489402937
 20
134.1058699696233
 30
0.0
 10
155.7424381331293
 20
134.1660779968294
 30
0.0
 10
155.7189672412013
 20
134.1689377442961
 30
0.0
 10
155.709405446302
 20
134.1701027753833
 30
0.0
  0
SPLINE
  5
C8
330
1F
100
AcDbEntity
  8
0
  6
Continuous
 62
     7
370
    15
100
AcDbSpline
210
0.0
220
0.0
230
1.0
 70
     8
 71
     3
 72
     9
 73
     5
 74
     0
 42
0.00000001
 43
0.00000001
 40
0.0
 40
0.0
 40
0.0
 40
0.0
 40
0.2142799898927891
 40
0.9999999999999999
 40
0.9999999999999999
 40
0.9999999999999999
 40
0.9999999999999999
 10
156.3495821427229
 20
134.1032525179199
 30
0.0
 10
156.3748848264813
 20
134.1006505868338
 30
0.0
 10
156.4929671717858
 20
134.088507917388
 30
0.0
 10
156.6726714238746
 20
134.0737308388662
 30
0.0
 10
156.8138686506422
 20
134.0621201925807
 30
0.0
  0
CIRCLE
  5
C9
330
1F
100
AcDbEntity
  8
0
  6
Continuous
 62
     7
370
    15
100
AcDbCircle
 10
159.1774655352
 20
110.1737767491
 30
0.0
 40
2.5
  0
LINE
  5
CA
330
1F
100
AcDbEntity
  8
0
  6
Continuous
 62
     7
370
    15
100
AcDbLine
 10
250.2274655352
 20
92.4479172707
 30
0.0
 11
250.2274655352
 21
127.8996361461
 31
0.0
  0
LINE
  5
CB
330
1F
100
AcDbEntity
  8
0
  6
Continuous
 62
     7
370
    15
100
AcDbLine
 10
41.9774655352
 20
77.9237767491
 30
0.0
 11
41.9774655352
 21
77.9254915473
 31
0.0
  0
LINE
  5
CC
330
1F
100
AcDbEntity
  8
0
  6
Continuous
 62
     7
370
    15
100
AcDbLine
 10
41.9774655352
 20
142.4237767491
 30
0.0
 11
41.9774655352
 21
142.4220619509
 31
0.0
  0
ARC
  5
CD
330
1F
100
AcDbEntity
  8
0
  6
Continuous
 62
     7
370
    15
100
AcDbCircle
 10
230.7488424823
 20
99.7495987645
 30
0.0
 40
19.55577392590615
100
AcDbArc
 50
357.9718982864
 51
5.0911211554
  0
LWPOLYLINE
  5
CE
330
1F
100
AcDbEntity
  8
0
  6
Continuous
 62
     7
370
    15
100
AcDbPolyline
 90
        7
 70
   128
 43
0.0
 10
250.2274655352
 20
119.9240549795
 10
250.231875069
 20
120.0736196366
 10
250.2422535728
 20
120.5401579686
 10
250.2458980187
 20
120.9357416364
 10
250.2422535728
 20
121.2001466127
 10
250.231875069
 20
121.2931196366
 10
250.2274655352
 20
121.2839669252
  0
CIRCLE
  5
CF
330
1F
100
AcDbEntity
  8
0
  6
HIDDEN
 62
     7
370
     0
100
AcDbCircle
 10
226.7274655352
 20
110.1737767491
 30
0.0
 40
6.99999999999997
  0
CIRCLE
  5
D0
330
1F
100
AcDbEntity
  8
0
  6
HIDDEN
 62
     7
370
     0
100
AcDbCircle
 10
226.7274655352
 20
110.1737767491
 30
0.0
 40
5.000000000000004
  0
CIRCLE
  5
D1
330
1F
100
AcDbEntity
  8
0
  6
HIDDEN
 62
     7
370
     0
100
AcDbCircle
 10
226.7274655352
 20
110.1737767491
 30
0.0
 40
3.750000000000026
  0
LINE
  5
D2
330
1F
100
AcDbEntity
  8
0
  6
HIDDEN
 62
     7
370
     0
100
AcDbLine
 10
106.9654365143
 20
149.12473951
 30
0.0
 11
106.9654365143
 21
141.5237767491
 31
0.0
  0
SPLINE
  5
D3
330
1F
100
AcDbEntity
  8
0
  6
HIDDEN
 62
     7
370
     0
100
AcDbSpline
210
0.0
220
0.0
230
1.0
 70
     8
 71
     3
 72
    80
 73
    76
 74
     0
 42
0.00000001
 43
0.00000001
 40
-0.0312500000000003
 40
-0.0312500000000003
 40
0.0
 40
0.0
 40
0.03125
 40
0.03125
 40
0.046875
 40
0.046875
 40
0.0624999999999999
 40
0.0624999999999999
 40
0.0937499999999998
 40
0.0937499999999998
 40
0.1249999999999996
 40
0.1249999999999996
 40
0.1562499999999995
 40
0.1562499999999995
 40
0.1874999999999994
 40
0.1874999999999994
 40
0.2187499999999993
 40
0.2187499999999993
 40
0.2499999999999992
 40
0.2499999999999992
 40
0.2812499999999991
 40
0.2812499999999991
 40
0.3124999999999989
 40
0.3124999999999989
 40
0.3281249999999988
 40
0.3281249999999988
 40
0.3437499999999986
 40
0.3437499999999986
 40
0.3749999999999983
 40
0.3749999999999983
 40
0.4062499999999981
 40
0.4062499999999981
 40
0.4218749999999979
 40
0.4218749999999979
 40
0.4374999999999978
 40
0.4374999999999978
 40
0.4687499999999977
 40
0.4687499999999977
 40
0.4999999999999975
 40
0.4999999999999975
 40
0.5312499999999972
 40
0.5312499999999972
 40
0.562499999999997
 40
0.562499999999997
 40
0.5937499999999968
 40
0.5937499999999968
 40
0.6249999999999966
 40
0.6249999999999966
 40
0.6562499999999964
 40
0.6562499999999964
 40
0.6874999999999962
 40
0.6874999999999962
 40
0.7031249999999962
 40
0.7031249999999962
 40
0.7187499999999963
 40
0.7187499999999963
 40
0.7499999999999968
 40
0.7499999999999968
 40
0.7812499999999972
 40
0.7812499999999972
 40
0.7968749999999976
 40
0.7968749999999976
 40
0.8124999999999978
 40
0.8124999999999978
 40
0.8437499999999981
 40
0.8437499999999981
 40
0.8749999999999984
 40
0.8749999999999984
 40
0.9062499999999989
 40
0.9062499999999989
 40
0.9374999999999992
 40
0.9374999999999992
 40
0.9687499999999997
 40
0.9687499999999997
 40
1.0
 40
1.0
 40
1.03125
 40
1.03125
 10
99.55801084802594
 20
159.0333260055505
 30
0.0
 10
98.89692022247334
 20
159.0333260055505
 30
0.0
 10
98.57194009322171
 20
159.0264278597238
 30
0.0
 10
98.09246668197528
 20
159.0059014317432
 30
0.0
 10
97.93398486413447
 20
158.9973452046557
 30
0.0
 10
97.61976533163019
 20
158.976618829438
 30
0.0
 10
97.46364504794978
 20
158.9643915292317
 30
0.0
 10
97.00959101899323
 20
158.9228222354024
 30
0.0
 10
96.72248763605337
 20
158.8884779503047
 30
0.0
 10
96.17913308002638
 20
158.8051538259824
 30
0.0
 10
95.9220294688208
 20
158.7557156032079
 30
0.0
 10
95.461123213882
 20
158.644335873448
 30
0.0
 10
95.25422550466705
 20
158.5820413599358
 30
0.0
 10
94.88870019067484
 20
158.4421117170648
 30
0.0
 10
94.73349466854889
 20
158.3654958193158
 30
0.0
 10
94.48406428194916
 20
158.2015371994601
 30
0.0
 10
94.387974326164
 20
158.1129803453643
 30
0.0
 10
94.25945547697043
 20
157.9254996632586
 30
0.0
 10
94.22764460679264
 20
157.8282632018042
 30
0.0
 10
94.22728795701937
 20
157.6266305624771
 30
0.0
 10
94.25978520921645
 20
157.5210817706389
 30
0.0
 10
94.38741068293093
 20
157.3109669879504
 30
0.0
 10
94.48183908398283
 20
157.2059014799815
 30
0.0
 10
94.66969990396838
 20
157.0490237727304
 30
0.0
 10
94.74052790277157
 20
156.9965900390246
 30
0.0
 10
94.89524979473684
 20
156.8941515933949
 30
0.0
 10
94.97922626492026
 20
156.8440038647431
 30
0.0
 10
95.25054993456467
 20
156.6969879083096
 30
0.0
 10
95.45709915316701
 20
156.6035000878751
 30
0.0
 10
95.92370929335603
 20
156.4277132302608
 30
0.0
 10
96.17607486298148
 20
156.3483347551771
 30
0.0
 10
96.58197620466022
 20
156.242852317683
 30
0.0
 10
96.72187682213769
 20
156.2099667528429
 30
0.0
 10
97.01110075738461
 20
156.1490512736142
 30
0.0
 10
97.16094021367388
 20
156.1209707019718
 30
0.0
 10
97.61505678328469
 20
156.046168659929
 30
0.0
 10
97.92670800202154
 20
156.0081306016829
 30
0.0
 10
98.5677044669339
 20
155.9565186751588
 30
0.0
 10
98.89923209488607
 20
155.9432047416373
 30
0.0
 10
99.55202313995757
 20
155.9431076553092
 30
0.0
 10
99.87655934498937
 20
155.9558957404703
 30
0.0
 10
100.5218287944058
 20
156.0073859300662
 30
0.0
 10
100.8375718005685
 20
156.0459105093863
 30
0.0
 10
101.4394610955522
 20
156.1448130722443
 30
0.0
 10
101.7302103263637
 20
156.2059171701693
 30
0.0
 10
102.2771221180482
 20
156.34772660328
 30
0.0
 10
102.5288994818851
 20
156.4270610878592
 30
0.0
 10
102.9902874745062
 20
156.6004398325207
 30
0.0
 10
103.2015567541043
 20
156.6955997772747
 30
0.0
 10
103.5648611064805
 20
156.8921723006506
 30
0.0
 10
103.7186677549233
 20
156.993928529057
 30
0.0
 10
103.9072872245207
 20
157.1507144918425
 30
0.0
 10
103.9633177107298
 20
157.2039685255925
 30
0.0
 10
104.058891472466
 20
157.3097730871453
 30
0.0
 10
104.098654389491
 20
157.3624261515008
 30
0.0
 10
104.1944261398031
 20
157.5194998709599
 30
0.0
 10
104.2271489789292
 20
157.6230249062871
 30
0.0
 10
104.2277775652583
 20
157.8272396405142
 30
0.0
 10
104.1955914205235
 20
157.9247434780989
 30
0.0
 10
104.1006807186679
 20
158.0640705284506
 30
0.0
 10
104.061213935269
 20
158.109387259955
 30
0.0
 10
103.9662839365481
 20
158.1978270809439
 30
0.0
 10
103.9105271087847
 20
158.2410813314038
 30
0.0
 10
103.7225869908148
 20
158.3649728059938
 30
0.0
 10
103.5692255210987
 20
158.4406750967679
 30
0.0
 10
103.2069612862183
 20
158.5799294682261
 30
0.0
 10
102.9961128127524
 20
158.6436913097548
 30
0.0
 10
102.5354428424335
 20
158.7551881492226
 30
0.0
 10
102.2840684628497
 20
158.8037142215393
 30
0.0
 10
101.7381605759515
 20
158.8877682049198
 30
0.0
 10
101.4473380013003
 20
158.9225667585864
 30
0.0
 10
100.8460113865203
 20
158.9777632233503
 30
0.0
 10
100.5314928019079
 20
158.9985810721041
 30
0.0
 10
99.88491134578794
 20
159.0264284050149
 30
0.0
 10
99.55801084802594
 20
159.0333260055505
 30
0.0
 10
98.89692022247334
 20
159.0333260055505
 30
0.0
  0
SPLINE
  5
D4
330
1F
100
AcDbEntity
  8
0
  6
HIDDEN
 62
     7
370
     0
100
AcDbSpline
210
0.0
220
0.0
230
1.0
 70
     8
 71
     3
 72
     9
 73
     5
 74
     0
 42
0.00000001
 43
0.00000001
 40
0.0
 40
0.0
 40
0.0
 40
0.0
 40
0.5038163044167481
 40
1.0
 40
1.0
 40
1.0
 40
1.0
 10
70.64089028467698
 20
73.43797038679847
 30
0.0
 10
70.3572110999385
 20
73.41381721269974
 30
0.0
 10
69.79415035289315
 20
73.3658767751097
 30
0.0
 10
69.43778931108395
 20
73.32456442682387
 30
0.0
 10
69.26096877239715
 20
73.30406591317818
 30
0.0
  0
SPLINE
  5
D5
330
1F
100
AcDbEntity
  8
0
  6
HIDDEN
 62
     7
370
     0
100
AcDbSpline
210
0.0
220
0.0
230
1.0
 70
     8
 71
     3
 72
    12
 73
     8
 74
     0
 42
0.00000001
 43
0.00000001
 40
0.0
 40
0.0
 40
0.0
 40
0.0
 40
0.1661348616735903
 40
0.3322013257393936
 40
0.5008932044678248
 40
0.752137078264078
 40
1.0
 40
1.0
 40
1.0
 40
1.0
 10
68.74678720089688
 20
147.1050807721381
 30
0.0
 10
68.75717982500493
 20
147.1037026480767
 30
0.0
 10
68.77796079458489
 20
147.1009469673266
 30
0.0
 10
68.9512602840318
 20
147.0793435923646
 30
0.0
 10
69.27321187327553
 20
147.0414786404227
 30
0.0
 10
69.79437770919485
 20
146.9810948737065
 30
0.0
 10
70.35993564903258
 20
146.9333017365571
 30
0.0
 10
70.64079907272061
 20
146.9095670434637
 30
0.0
  0
SPLINE
  5
D6
330
1F
100
AcDbEntity
  8
0
  6
HIDDEN
 62
     7
370
     0
100
AcDbSpline
210
0.0
220
0.0
230
1.0
 70
     8
 71
     3
 72
    15
 73
    11
 74
     0
 42
0.00000001
 43
0.00000001
 40
0.0
 40
0.0
 40
0.0
 40
0.0
 40
0.1285821516379736
 40
0.2571635483376876
 40
0.385323567199189
 40
0.5113778119466696
 40
0.6369260966772228
 40
0.7643185820319293
 40
0.8930603485208921
 40
1.0
 40
1.0
 40
1.0
 40
1.0
 10
80.48067119044067
 20
78.80745452832552
 30
0.0
 10
80.09514906920053
 20
78.86926031890945
 30
0.0
 10
79.32410709021788
 20
78.99287153719993
 30
0.0
 10
77.54554924346127
 20
79.18362012120568
 30
0.0
 10
75.55173794802161
 20
79.27126755831101
 30
0.0
 10
73.52770004078688
 20
79.22436239560857
 30
0.0
 10
71.6995914738279
 20
79.06411218786707
 30
0.0
 10
70.26816025254884
 20
78.86293282998798
 30
0.0
 10
69.36427677507328
 20
78.70039109534125
 30
0.0
 10
69.30169283731713
 20
78.68799080864092
 30
0.0
 10
69.27329558585144
 20
78.68236422021742
 30
0.0
  0
SPLINE
  5
D7
330
1F
100
AcDbEntity
  8
0
  6
HIDDEN
 62
     7
370
     0
100
AcDbSpline
210
0.0
220
0.0
230
1.0
 70
     8
 71
     3
 72
    16
 73
    12
 74
     0
 42
0.00000001
 43
0.00000001
 40
0.0
 40
0.0
 40
0.0
 40
0.0
 40
0.0205567982654305
 40
0.1461296737692548
 40
0.2720439921275847
 40
0.3999539720187822
 40
0.528504097482051
 40
0.655245546444081
 40
0.7805594897978894
 40
0.9070378665747952
 40
1.0
 40
1.0
 40
1.0
 40
1.0
 10
69.27329558585144
 20
141.6651892779278
 30
0.0
 10
69.25862837356844
 20
141.6679356545325
 30
0.0
 10
69.15436530116074
 20
141.6874584961788
 30
0.0
 10
69.60514531200737
 20
141.6010839384219
 30
0.0
 10
70.61838444258223
 20
141.4299513364879
 30
0.0
 10
72.21271276056353
 20
141.2264105515505
 30
0.0
 10
74.13921212269804
 20
141.0940195855758
 30
0.0
 10
76.18570392324963
 20
141.090223406885
 30
0.0
 10
78.09886333897258
 20
141.2129999795147
 30
0.0
 10
79.58357172437181
 20
141.3948148396362
 30
0.0
 10
80.21371992750623
 20
141.4968665485512
 30
0.0
 10
80.48067119044067
 20
141.5400989698197
 30
0.0
  0
SPLINE
  5
D8
330
1F
100
AcDbEntity
  8
0
  6
HIDDEN
 62
     7
370
     0
100
AcDbSpline
210
0.0
220
0.0
230
1.0
 70
     8
 71
     3
 72
     9
 73
     5
 74
     0
 42
0.00000001
 43
0.00000001
 40
0.0
 40
0.0
 40
0.0
 40
0.0
 40
0.661217565271851
 40
1.0
 40
1.0
 40
1.0
 40
1.0
 10
80.48067119044067
 20
141.5400989698197
 30
0.0
 10
80.77217329672595
 20
141.583884465212
 30
0.0
 10
81.21302986436028
 20
141.6501039634407
 30
0.0
 10
81.16161757718692
 20
141.6422987410872
 30
0.0
 10
81.14419999736339
 20
141.6396544688546
 30
0.0
  0
SPLINE
  5
D9
330
1F
100
AcDbEntity
  8
0
  6
HIDDEN
 62
     7
370
     0
100
AcDbSpline
210
0.0
220
0.0
230
1.0
 70
     8
 71
     3
 72
     9
 73
     5
 74
     0
 42
0.00000001
 43
0.00000001
 40
0.0
 40
0.0
 40
0.0
 40
0.0
 40
0.3224758141376582
 40
0.9999999999999999
 40
0.9999999999999999
 40
0.9999999999999999
 40
0.9999999999999999
 10
81.14419982118551
 20
78.70789905265795
 30
0.0
 10
81.16284171321027
 20
78.70513106573557
 30
0.0
 10
81.2206503649214
 20
78.69654751682728
 30
0.0
 10
80.77953650157622
 20
78.76266102650598
 30
0.0
 10
80.48067119044067
 20
78.80745452832552
 30
0.0
  0
LINE
  5
DA
330
1F
100
AcDbEntity
  8
0
  6
HIDDEN
 62
     7
370
     0
100
AcDbLine
 10
60.2240898623
 20
83.6737767491
 30
0.0
 11
60.2240898623
 21
136.6737767491
 31
0.0
  0
LINE
  5
DB
330
1F
100
AcDbEntity
  8
0
  6
HIDDEN
 62
     7
370
     0
100
AcDbLine
 10
99.5115431536
 20
83.6737767491
 30
0.0
 11
99.5115431536
 21
136.6737767491
 31
0.0
  0
LINE
  5
DC
330
1F
100
AcDbEntity
  8
0
  6
HIDDEN
 62
     7
370
     0
100
AcDbLine
 10
102.6774655352
 20
85.2987767491
 30
0.0
 11
102.6774655352
 21
135.0487767491
 31
0.0
  0
SPLINE
  5
DD
330
1F
100
AcDbEntity
  8
0
  6
HIDDEN
 62
     7
370
     0
100
AcDbSpline
210
0.0
220
0.0
230
1.0
 70
     8
 71
     3
 72
    20
 73
    16
 74
     0
 42
0.00000001
 43
0.00000001
 40
0.0
 40
0.0
 40
0.0
 40
0.0
 40
0.2499999999999978
 40
0.2499999999999978
 40
0.3749999999999982
 40
0.3749999999999982
 40
0.4999999999999986
 40
0.4999999999999986
 40
0.6249999999999989
 40
0.6249999999999989
 40
0.7499999999999992
 40
0.7499999999999992
 40
0.8749999999999997
 40
0.8749999999999997
 40
1.0
 40
1.0
 40
1.0
 40
1.0
 10
50.42746553524964
 20
135.4022903794869
 30
0.0
 10
50.42746553524965
 20
135.3230873929546
 30
0.0
 10
50.38048304003691
 20
135.2419911745517
 30
0.0
 10
50.24266144925933
 20
135.1217944828008
 30
0.0
 10
50.18637916534935
 20
135.0828677787987
 30
0.0
 10
50.05329431388213
 20
135.0076790463743
 30
0.0
 10
49.97545437164908
 20
134.9710368410323
 30
0.0
 10
49.80282201553472
 20
134.9034463082005
 30
0.0
 10
49.70842901844363
 20
134.8724881264249
 30
0.0
 10
49.50299171212849
 20
134.8169637050552
 30
0.0
 10
49.39064547214132
 20
134.792255191222
 30
0.0
 10
49.1584046082417
 20
134.7524589641137
 30
0.0
 10
49.03769396581897
 20
134.7370391267167
 30
0.0
 10
48.78662310654994
 20
134.7159591518771
 30
0.0
 10
48.65710111013416
 20
134.7104819068561
 30
0.0
 10
48.52746553524964
 20
134.7104819068561
 30
0.0
  0
LINE
  5
DE
330
1F
100
AcDbEntity
  8
0
  6
HIDDEN
 62
     7
370
     0
100
AcDbLine
 10
48.5274655352
 20
134.7104819069
 30
0.0
 11
41.9774655352
 21
134.7104819069
 31
0.0
  0
LINE
  5
DF
330
1F
100
AcDbEntity
  8
0
  6
HIDDEN
 62
     7
370
     0
100
AcDbLine
 10
41.9774655352
 20
85.6370715913
 30
0.0
 11
53.5274655352
 21
85.6370715913
 31
0.0
  0
SPLINE
  5
E0
330
1F
100
AcDbEntity
  8
0
  6
HIDDEN
 62
     7
370
     0
100
AcDbSpline
210
0.0
220
0.0
230
1.0
 70
     8
 71
     3
 72
    18
 73
    14
 74
     0
 42
0.00000001
 43
0.00000001
 40
0.0
 40
0.0
 40
0.0
 40
0.0
 40
0.1249999999999982
 40
0.1249999999999982
 40
0.2499999999999964
 40
0.2499999999999964
 40
0.4999999999999988
 40
0.4999999999999988
 40
0.7500000000000011
 40
0.7500000000000011
 40
0.8750000000000006
 40
0.8750000000000006
 40
1.0
 40
1.0
 40
1.0
 40
1.0
 10
53.52746553524965
 20
85.63707159128909
 30
0.0
 10
53.65693284820686
 20
85.63707159128909
 30
0.0
 10
53.78394359710349
 20
85.63171859269644
 30
0.0
 10
54.03330691830075
 20
85.61098062000767
 30
0.0
 10
54.15693057292918
 20
85.59530871575336
 30
0.0
 10
54.50596290986323
 20
85.53561398735128
 30
0.0
 10
54.71647467467002
 20
85.47784880767028
 30
0.0
 10
55.06039135236954
 20
85.3433269663928
 30
0.0
 10
55.19674175388734
 20
85.2656578528874
 30
0.0
 10
55.33377981044988
 20
85.14636671880005
 30
0.0
 10
55.36899882916278
 20
85.10544770966501
 30
0.0
 10
55.41562240610134
 20
85.02479171637498
 30
0.0
 10
55.42746553524966
 20
84.98482319618212
 30
0.0
 10
55.42746553524965
 20
84.9452631186583
 30
0.0
  0
LINE
  5
E1
330
1F
100
AcDbEntity
  8
0
  6
HIDDEN
 62
     7
370
     0
100
AcDbLine
 10
41.9774655352
 20
85.6370715913
 30
0.0
 11
41.9774655352
 21
134.7104819069
 31
0.0
  0
LWPOLYLINE
  5
E2
330
1F
100
AcDbEntity
  8
0
  6
HIDDEN
 62
     7
370
     0
100
AcDbPolyline
 90
       13
 70
   128
 43
0.0
 10
99.2274655352
 20
150.1175073124
 10
100.380544889
 20
150.1723255066
 10
101.4714614363
 20
150.3338248264
 10
102.4414035837
 20
150.5932988015
 10
103.238081499
 20
150.9367591229
 10
103.8185460697
 20
151.3456897556
 10
104.1515043003
 20
151.7980451434
 10
104.2190063266
 20
152.2694386904
 10
104.0174130968
 20
152.7344574482
 10
103.5575925542
 20
153.1680321354
 10
102.8643337431
 20
153.5467886284
 10
101.9750104256
 20
153.8503080665
 10
101.6257069122
 20
153.9356679174
  0
LWPOLYLINE
  5
E3
330
1F
100
AcDbEntity
  8
0
  6
HIDDEN
 62
     7
370
     0
100
AcDbPolyline
 90
       13
 70
   128
 43
0.0
 10
96.8257325064
 20
153.9348908655
 10
96.4799206449
 20
153.8503080665
 10
95.5905973274
 20
153.5467886284
 10
94.8973385163
 20
153.1680321354
 10
94.4375179737
 20
152.7344574482
 10
94.2359247439
 20
152.2694386904
 10
94.3034267702
 20
151.7980451434
 10
94.6363850008
 20
151.3456897556
 10
95.2168495715
 20
150.9367591229
 10
96.0135274868
 20
150.5932988015
 10
96.9834696342
 20
150.3338248264
 10
98.0743861815
 20
150.1723255066
 10
99.2274655352
 20
150.1175073124
  0
SPLINE
  5
E4
330
1F
100
AcDbEntity
  8
0
  6
HIDDEN
 62
     7
370
     0
100
AcDbSpline
210
0.0
220
0.0
230
1.0
 70
     8
 71
     3
 72
    43
 73
    39
 74
     0
 42
0.00000001
 43
0.00000001
 40
-0.0801624898442876
 40
-0.0624517874774221
 40
-0.0297160539841288
 40
0.0
 40
0.0297073985860234
 40
0.0624149912524752
 40
0.0901337064969687
 40
0.1249567905560915
 40
0.148510375753013
 40
0.1693705616785146
 40
0.187542201107878
 40
0.2201296716103936
 40
0.2499386603981702
 40
0.279752136590184
 40
0.3123513443111117
 40
0.340627575294274
 40
0.3749249989935007
 40
0.3990296689724011
 40
0.4198969595409251
 40
0.4375301221058068
 40
0.4702368940842373
 40
0.499989114627473
 40
0.5297219999571806
 40
0.5624132421486666
 40
0.5900380497752572
 40
0.6249279837507501
 40
0.6484965424934529
 40
0.669387459914818
 40
0.6876056206600059
 40
0.7202333973532415
 40
0.7500691566086928
 40
0.7798602090132337
 40
0.812426510136487
 40
0.8406391111778827
 40
0.8749111523669695
 40
0.8989596270883476
 40
0.9198375101557122
 40
0.9375482125225778
 40
0.9702839460158711
 40
0.9999999999999999
 40
1.029707398586023
 40
1.062414991252475
 40
1.090133706496969
 10
225.561446674171
 20
104.2482688118081
 30
0.0
 10
226.7273363113888
 20
104.138334667021
 30
0.0
 10
227.8929922419686
 20
104.2482339077272
 30
0.0
 10
228.9873698937232
 20
104.5766171056583
 30
0.0
 10
230.04887710412
 20
105.1307505582136
 30
0.0
 10
230.8927669533283
 20
105.8085689484295
 30
0.0
 10
231.5400592577455
 20
106.5584579276881
 30
0.0
 10
231.9657645464459
 20
107.2174384582395
 30
0.0
 10
232.3579742297574
 20
108.0263602300233
 30
0.0
 10
232.6523468724989
 20
109.0049329962091
 30
0.0
 10
232.7631470094669
 20
110.1714524289495
 30
0.0
 10
232.6531957616006
 20
111.3383252914451
 30
0.0
 10
232.3228108659534
 20
112.4396759284494
 30
0.0
 10
231.7671234000325
 20
113.5003464749666
 30
0.0
 10
231.0833709628606
 20
114.348740973244
 30
0.0
 10
230.3319962745536
 20
114.9950707951039
 30
0.0
 10
229.6715921435292
 20
115.4184795792325
 30
0.0
 10
228.8671457238157
 20
115.8068203653224
 30
0.0
 10
227.8944390690011
 20
116.0991052279231
 30
0.0
 10
226.7281403731831
 20
116.2092927481887
 30
0.0
 10
225.5618948769662
 20
116.0993233782014
 30
0.0
 10
224.468555684059
 20
115.7711952585453
 30
0.0
 10
223.4074353794047
 20
115.217679502433
 30
0.0
 10
222.5633545896113
 20
114.5402582354806
 30
0.0
 10
221.9150203289277
 20
113.7893608323176
 30
0.0
 10
221.4886801046673
 20
113.1293751768334
 30
0.0
 10
221.0960231101554
 20
112.3189910318296
 30
0.0
 10
220.8017570314981
 20
111.3388574876688
 30
0.0
 10
220.6917787956307
 20
110.1716860743734
 30
0.0
 10
220.8025869038357
 20
109.0052615198199
 30
0.0
 10
221.1331816803304
 20
107.9055725570778
 30
0.0
 10
221.6884213627735
 20
106.8464798351827
 30
0.0
 10
222.3709917058706
 20
105.9995404300012
 30
0.0
 10
223.1214947683053
 20
105.3536116928483
 30
0.0
 10
223.7820725650014
 20
104.9297093051691
 30
0.0
 10
224.5878210699329
 20
104.5406099150199
 30
0.0
 10
225.561446674171
 20
104.2482688118081
 30
0.0
 10
226.7273363113888
 20
104.138334667021
 30
0.0
 10
227.8929922419686
 20
104.2482339077272
 30
0.0
  0
SPLINE
  5
E5
330
1F
100
AcDbEntity
  8
0
  6
HIDDEN
 62
     7
370
     0
100
AcDbSpline
210
0.0
220
0.0
230
1.0
 70
     8
 71
     3
 72
    10
 73
     6
 74
     0
 42
0.00000001
 43
0.00000001
 40
0.0
 40
0.0
 40
0.0
 40
0.0
 40
0.3398468547009417
 40
0.6800608342156426
 40
1.0
 40
1.0
 40
1.0
 40
1.0
 10
226.7274655352498
 20
103.836050330201
 30
0.0
 10
225.9154180347719
 20
103.9133945676857
 30
0.0
 10
224.2904458069617
 20
104.0681665949622
 30
0.0
 10
222.1062640179434
 20
105.2165508596053
 30
0.0
 10
221.156318499204
 20
106.475348965301
 30
0.0
 10
220.6959332401616
 20
107.0854177329727
 30
0.0
  0
SPLINE
  5
E6
330
1F
100
AcDbEntity
  8
0
  6
HIDDEN
 62
     7
370
     0
100
AcDbSpline
210
0.0
220
0.0
230
1.0
 70
     8
 71
     3
 72
    14
 73
    10
 74
     0
 42
0.00000001
 43
0.00000001
 40
0.0
 40
0.0
 40
0.0
 40
0.0
 40
0.1194837594250284
 40
0.2588449156533465
 40
0.4094887567454952
 40
0.5686965159330013
 40
0.7308322380033543
 40
0.8891980769634968
 40
1.0
 40
1.0
 40
1.0
 40
1.0
 10
220.6315061683109
 20
113.1339313197052
 30
0.0
 10
220.9716395060771
 20
113.6404271718656
 30
0.0
 10
221.7084909873884
 20
114.737679859278
 30
0.0
 10
223.4884542213483
 20
115.9011747831206
 30
0.0
 10
225.7025697358267
 20
116.5700184626176
 30
0.0
 10
228.1639804644174
 20
116.5155250337589
 30
0.0
 10
230.4785140947481
 20
115.6591967986425
 30
0.0
 10
232.261567422618
 20
114.2622460951611
 30
0.0
 10
232.8417707644412
 20
113.0101569741415
 30
0.0
 10
233.0806093443267
 20
112.4947390749364
 30
0.0
  0
SPLINE
  5
E7
330
1F
100
AcDbEntity
  8
0
  6
HIDDEN
 62
     7
370
     0
100
AcDbSpline
210
0.0
220
0.0
230
1.0
 70
     8
 71
     3
 72
    11
 73
     7
 74
     0
 42
0.00000001
 43
0.00000001
 40
0.0
 40
0.0
 40
0.0
 40
0.0
 40
0.1941123432107596
 40
0.4583177085034701
 40
0.7442173360175944
 40
1.0
 40
1.0
 40
1.0
 40
1.0
 10
233.0297670311925
 20
107.6780332689266
 30
0.0
 10
232.8011537999739
 20
107.2247721989728
 30
0.0
 10
232.2613762127655
 20
106.1545796934426
 30
0.0
 10
230.7477404656825
 20
104.8908913816
 30
0.0
 10
228.8166177045604
 20
103.9933788812128
 30
0.0
 10
227.3975500369675
 20
103.8865126302993
 30
0.0
 10
226.7274655352471
 20
103.8360503302064
 30
0.0
  0
LINE
  5
E8
330
1F
100
AcDbEntity
  8
0
  6
HIDDEN
 62
     7
370
     0
100
AcDbLine
 10
41.9774655352
 20
82.8037767491
 30
0.0
 11
41.9774655352
 21
77.9254915473
 31
0.0
  0
LINE
  5
E9
330
1F
100
AcDbEntity
  8
0
  6
HIDDEN
 62
     7
370
     0
100
AcDbLine
 10
55.4274655352
 20
82.8037767491
 30
0.0
 11
55.4274655352
 21
76.3044434837
 31
0.0
  0
LINE
  5
EA
330
1F
100
AcDbEntity
  8
0
  6
HIDDEN
 62
     7
370
     0
100
AcDbLine
 10
50.4274655352
 20
137.5437767491
 30
0.0
 11
50.4274655352
 21
143.9183854861
 31
0.0
  0
LINE
  5
EB
330
1F
100
AcDbEntity
  8
0
  6
HIDDEN
 62
     7
370
     0
100
AcDbLine
 10
41.9774655352
 20
137.5437767491
 30
0.0
 11
41.9774655352
 21
142.4220619509
 31
0.0
  0
SPLINE
  5
EC
330
1F
100
AcDbEntity
  8
0
  6
HIDDEN
 62
     7
370
     0
100
AcDbSpline
210
0.0
220
0.0
230
1.0
 70
     8
 71
     3
 72
    14
 73
    10
 74
     0
 42
0.00000001
 43
0.00000001
 40
0.0
 40
0.0
 40
0.0
 40
0.0
 40
0.25
 40
0.25
 40
0.5
 40
0.5
 40
0.75
 40
0.75
 40
1.0
 40
1.0
 40
1.0
 40
1.0
 10
202.2822849537015
 20
97.79757491495094
 30
0.0
 10
202.3178582076527
 20
97.83059127637897
 30
0.0
 10
202.3487600386715
 20
97.87064205090527
 30
0.0
 10
202.3913141592518
 20
97.96910469301207
 30
0.0
 10
202.4015408094115
 20
98.02592034363686
 30
0.0
 10
202.3932067029148
 20
98.1538577084448
 30
0.0
 10
202.3745890660801
 20
98.22359080518488
 30
0.0
 10
202.3190836835269
 20
98.36710957183077
 30
0.0
 10
202.2829910341678
 20
98.44043515054724
 30
0.0
 10
202.2436854667255
 20
98.515172529328
 30
0.0
  0
SPLINE
  5
ED
330
1F
100
AcDbEntity
  8
0
  6
HIDDEN
 62
     7
370
     0
100
AcDbSpline
210
0.0
220
0.0
230
1.0
 70
     8
 71
     3
 72
    14
 73
    10
 74
     0
 42
0.00000001
 43
0.00000001
 40
0.0
 40
0.0
 40
0.0
 40
0.0
 40
0.25
 40
0.25
 40
0.5
 40
0.5
 40
0.75
 40
0.75
 40
1.0
 40
1.0
 40
1.0
 40
1.0
 10
202.2436854667256
 20
98.51517252932722
 30
0.0
 10
202.2120387374432
 20
98.4788044763006
 30
0.0
 10
202.1818414088666
 20
98.44305112276412
 30
0.0
 10
202.1337678040416
 20
98.36108401583272
 30
0.0
 10
202.1162823357101
 20
98.31240505101036
 30
0.0
 10
202.1259921720693
 20
98.17944417344908
 30
0.0
 10
202.1513169463071
 20
98.10083655485607
 30
0.0
 10
202.2110119630067
 20
97.94798937417828
 30
0.0
 10
202.2458748914221
 20
97.87215576067506
 30
0.0
 10
202.2822849537014
 20
97.7975749149506
 30
0.0
  0
SPLINE
  5
EE
330
1F
100
AcDbEntity
  8
0
  6
HIDDEN
 62
     7
370
     0
100
AcDbSpline
210
0.0
220
0.0
230
1.0
 70
     8
 71
     3
 72
    48
 73
    44
 74
     0
 42
0.00000001
 43
0.00000001
 40
-0.0625000000000008
 40
-0.0625000000000008
 40
0.0
 40
0.0
 40
0.0312500000000008
 40
0.0312500000000008
 40
0.0625000000000016
 40
0.0625000000000016
 40
0.1250000000000029
 40
0.1250000000000029
 40
0.1875000000000043
 40
0.1875000000000043
 40
0.2500000000000057
 40
0.2500000000000057
 40
0.312500000000007
 40
0.312500000000007
 40
0.3437500000000068
 40
0.3437500000000068
 40
0.3750000000000066
 40
0.3750000000000066
 40
0.4062500000000064
 40
0.4062500000000064
 40
0.4375000000000062
 40
0.4375000000000062
 40
0.5000000000000054
 40
0.5000000000000054
 40
0.5625000000000047
 40
0.5625000000000047
 40
0.625000000000004
 40
0.625000000000004
 40
0.6875000000000032
 40
0.6875000000000032
 40
0.7500000000000024
 40
0.7500000000000024
 40
0.8125000000000018
 40
0.8125000000000018
 40
0.8437500000000011
 40
0.8437500000000011
 40
0.8750000000000004
 40
0.8750000000000004
 40
0.9062499999999998
 40
0.9062499999999998
 40
0.9374999999999992
 40
0.9374999999999992
 40
1.0
 40
1.0
 40
1.031250000000001
 40
1.031250000000001
 10
204.3582555126011
 20
97.74944729134648
 30
0.0
 10
204.4803233431182
 20
97.75283861656837
 30
0.0
 10
204.5187856730358
 20
97.76128543251467
 30
0.0
 10
204.5889351488023
 20
97.79356029656888
 30
0.0
 10
204.6209522815774
 20
97.8178330540347
 30
0.0
 10
204.6996878684951
 20
97.91465571555598
 30
0.0
 10
204.7294162693161
 20
98.01380535329093
 30
0.0
 10
204.7253045152859
 20
98.26272715506067
 30
0.0
 10
204.6912584226205
 20
98.41332860215522
 30
0.0
 10
204.5798922640958
 20
98.72224377268374
 30
0.0
 10
204.5034933405051
 20
98.8810036523096
 30
0.0
 10
204.3403201602408
 20
99.18877489914787
 30
0.0
 10
204.2516806942252
 20
99.33951243205804
 30
0.0
 10
204.1424665934964
 20
99.55743764558058
 30
0.0
 10
204.1095450457844
 20
99.63059330527302
 30
0.0
 10
204.0650943327846
 20
99.77012994891881
 30
0.0
 10
204.0538615143605
 20
99.8381305842874
 30
0.0
 10
204.0606493127845
 20
99.95806409579852
 30
0.0
 10
204.07839627607
 20
100.0114828304534
 30
0.0
 10
204.1305468025428
 20
100.0996299087829
 30
0.0
 10
204.16491996701
 20
100.1357520948673
 30
0.0
 10
204.276866627708
 20
100.221851445218
 30
0.0
 10
204.3623506048615
 20
100.2509484626123
 30
0.0
 10
204.520502082762
 20
100.254487058047
 30
0.0
 10
204.5927469581968
 20
100.2285222045668
 30
0.0
 10
204.6984370145818
 20
100.1068251406195
 30
0.0
 10
204.72893606034
 20
100.0099763813918
 30
0.0
 10
204.7258796844221
 20
99.76082731092453
 30
0.0
 10
204.6919570340277
 20
99.6078919880578
 30
0.0
 10
204.5819916064295
 20
99.29501109189154
 30
0.0
 10
204.5068363410367
 20
99.13405516983228
 30
0.0
 10
204.3480764112903
 20
98.82455270762829
 30
0.0
 10
204.2614316906485
 20
98.67167424109743
 30
0.0
 10
204.1529615562028
 20
98.45305062560553
 30
0.0
 10
204.1200119895521
 20
98.38090363982035
 30
0.0
 10
204.0712224497917
 20
98.23855562995854
 30
0.0
 10
204.0566308556681
 20
98.17026697803757
 30
0.0
 10
204.0566126188365
 20
98.04518621604824
 30
0.0
 10
204.0712948457957
 20
97.99032466056768
 30
0.0
 10
204.1213072218203
 20
97.89837863712023
 30
0.0
 10
204.1552935278511
 20
97.86206007204783
 30
0.0
 10
204.2695910964437
 20
97.7755869831088
 30
0.0
 10
204.3582555126011
 20
97.74944729134648
 30
0.0
 10
204.4803233431182
 20
97.75283861656837
 30
0.0
  0
SPLINE
  5
EF
330
1F
100
AcDbEntity
  8
0
  6
HIDDEN
 62
     7
370
     0
100
AcDbSpline
210
0.0
220
0.0
230
1.0
 70
     8
 71
     3
 72
     8
 73
     4
 74
     0
 42
0.00000001
 43
0.00000001
 40
0.0
 40
0.0
 40
0.0
 40
0.0
 40
1.0
 40
1.0
 40
1.0
 40
1.0
 10
204.4694995744601
 20
104.2364641993439
 30
0.0
 10
204.4282785347636
 20
104.2727751449727
 30
0.0
 10
204.3827238694307
 20
104.3112179305194
 30
0.0
 10
204.3326915171299
 20
104.3540033813472
 30
0.0
  0
SPLINE
  5
F0
330
1F
100
AcDbEntity
  8
0
  6
HIDDEN
 62
     7
370
     0
100
AcDbSpline
210
0.0
220
0.0
230
1.0
 70
     8
 71
     3
 72
    34
 73
    30
 74
     0
 42
0.00000001
 43
0.00000001
 40
0.0
 40
0.0
 40
0.0
 40
0.0
 40
0.0624999999999968
 40
0.0624999999999968
 40
0.1249999999999937
 40
0.1249999999999937
 40
0.2499999999999873
 40
0.2499999999999873
 40
0.312499999999987
 40
0.312499999999987
 40
0.3749999999999866
 40
0.3749999999999866
 40
0.499999999999989
 40
0.499999999999989
 40
0.5624999999999903
 40
0.5624999999999903
 40
0.6249999999999918
 40
0.6249999999999918
 40
0.6874999999999931
 40
0.6874999999999931
 40
0.7499999999999946
 40
0.7499999999999946
 40
0.8124999999999959
 40
0.8124999999999959
 40
0.8749999999999973
 40
0.8749999999999973
 40
0.9374999999999987
 40
0.9374999999999987
 40
1.0
 40
1.0
 40
1.0
 40
1.0
 10
204.3326915171299
 20
104.3540033813472
 30
0.0
 10
204.23053157767
 20
104.441366035017
 30
0.0
 10
204.114500282634
 20
104.516097153422
 30
0.0
 10
203.8549106809651
 20
104.6385377664194
 30
0.0
 10
203.714636033918
 20
104.684219667089
 30
0.0
 10
203.2764761694594
 20
104.7680803734498
 30
0.0
 10
202.9616068078957
 20
104.7490436470516
 30
0.0
 10
202.5441949300707
 20
104.6166808234601
 30
0.0
 10
202.4114890677148
 20
104.5549171796883
 30
0.0
 10
202.1780449326
 20
104.4071722293236
 30
0.0
 10
202.0738940984823
 20
104.3191143290663
 30
0.0
 10
201.8211057766847
 20
104.0340597477916
 30
0.0
 10
201.7275380435935
 20
103.8109515450593
 30
0.0
 10
201.7274293461809
 20
103.4914324903336
 30
0.0
 10
201.7497241966695
 20
103.3891592759845
 30
0.0
 10
201.8390379658279
 20
103.1946110347247
 30
0.0
 10
201.9039504131375
 20
103.1065344032213
 30
0.0
 10
202.073899426071
 20
102.9467106797459
 30
0.0
 10
202.176182615606
 20
102.8779108162434
 30
0.0
 10
202.4107553236095
 20
102.7627140108348
 30
0.0
 10
202.5421654859501
 20
102.7170576961345
 30
0.0
 10
202.820792597415
 20
102.6517622661185
 30
0.0
 10
202.9699682083077
 20
102.6318381643097
 30
0.0
 10
203.2681817865086
 20
102.6190508538391
 30
0.0
 10
203.421188885185
 20
102.6260850670953
 30
0.0
 10
203.712215960584
 20
102.6662624681727
 30
0.0
 10
203.8545416306688
 20
102.6999998550516
 30
0.0
 10
204.1123111612396
 20
102.7913914986027
 30
0.0
 10
204.2305299126641
 20
102.8497048647493
 30
0.0
 10
204.3326915171299
 20
102.9197959145022
 30
0.0
  0
SPLINE
  5
F1
330
1F
100
AcDbEntity
  8
0
  6
HIDDEN
 62
     7
370
     0
100
AcDbSpline
210
0.0
220
0.0
230
1.0
 70
     8
 71
     3
 72
     8
 73
     4
 74
     0
 42
0.00000001
 43
0.00000001
 40
0.0
 40
0.0
 40
0.0
 40
0.0
 40
1.0
 40
1.0
 40
1.0
 40
1.0
 10
204.3326915171299
 20
102.9197959145022
 30
0.0
 10
204.3827238694307
 20
102.9541221186834
 30
0.0
 10
204.4282785347636
 20
102.9972728839045
 30
0.0
 10
204.4694995744601
 20
103.047051364839
 30
0.0
  0
SPLINE
  5
F2
330
1F
100
AcDbEntity
  8
0
  6
HIDDEN
 62
     7
370
     0
100
AcDbSpline
210
0.0
220
0.0
230
1.0
 70
     8
 71
     3
 72
    12
 73
     8
 74
     0
 42
0.00000001
 43
0.00000001
 40
0.0
 40
0.0
 40
0.0
 40
0.0
 40
0.25
 40
0.25
 40
0.5
 40
0.5
 40
1.0
 40
1.0
 40
1.0
 40
1.0
 10
204.4694995744601
 20
103.047051364839
 30
0.0
 10
204.5531642215649
 20
103.1480846980944
 30
0.0
 10
204.617050304182
 20
103.251893848002
 30
0.0
 10
204.7050019859341
 20
103.4668060795841
 30
0.0
 10
204.727328044408
 20
103.5747181673374
 30
0.0
 10
204.7277386209269
 20
103.8910408572838
 30
0.0
 10
204.6368367909251
 20
104.0890595580864
 30
0.0
 10
204.4694995744601
 20
104.2364641993439
 30
0.0
  0
SPLINE
  5
F3
330
1F
100
AcDbEntity
  8
0
  6
HIDDEN
 62
     7
370
     0
100
AcDbSpline
210
0.0
220
0.0
230
1.0
 70
     8
 71
     3
 72
    10
 73
     6
 74
     0
 42
0.00000001
 43
0.00000001
 40
0.0
 40
0.0
 40
0.0
 40
0.0
 40
0.5
 40
0.5
 40
1.0
 40
1.0
 40
1.0
 40
1.0
 10
202.2436854667255
 20
100.1165324368904
 30
0.0
 10
202.3221657847784
 20
100.0637336785944
 30
0.0
 10
202.3885758448727
 20
99.97857532542356
 30
0.0
 10
202.4060197070031
 20
99.73712572081608
 30
0.0
 10
202.3534593382777
 20
99.59251457754858
 30
0.0
 10
202.2822849537015
 20
99.44477476212472
 30
0.0
  0
SPLINE
  5
F4
330
1F
100
AcDbEntity
  8
0
  6
HIDDEN
 62
     7
370
     0
100
AcDbSpline
210
0.0
220
0.0
230
1.0
 70
     8
 71
     3
 72
    14
 73
    10
 74
     0
 42
0.00000001
 43
0.00000001
 40
0.0
 40
0.0
 40
0.0
 40
0.0
 40
0.25
 40
0.25
 40
0.5
 40
0.5
 40
0.75
 40
0.75
 40
1.0
 40
1.0
 40
1.0
 40
1.0
 10
202.2822849537015
 20
99.44477476212505
 30
0.0
 10
202.2458159580675
 20
99.47762373862102
 30
0.0
 10
202.2108730259073
 20
99.50923958297452
 30
0.0
 10
202.1511356845623
 20
99.58003672594478
 30
0.0
 10
202.1258464852392
 20
99.6199785279142
 30
0.0
 10
202.1163593860087
 20
99.73772688573277
 30
0.0
 10
202.133854388762
 20
99.81402343870977
 30
0.0
 10
202.1820489580201
 20
99.96535994164537
 30
0.0
 10
202.2121015079978
 20
100.0414299160756
 30
0.0
 10
202.2436854667255
 20
100.1165324368925
 30
0.0
  0
SPLINE
  5
F5
330
1F
100
AcDbEntity
  8
0
  6
HIDDEN
 62
     7
370
     0
100
AcDbSpline
210
0.0
220
0.0
230
1.0
 70
     8
 71
     3
 72
    10
 73
     6
 74
     0
 42
0.00000001
 43
0.00000001
 40
0.0
 40
0.0
 40
0.0
 40
0.0
 40
0.5
 40
0.5
 40
1.0
 40
1.0
 40
1.0
 40
1.0
 10
201.7274655352493
 20
99.1960737056746
 30
0.0
 10
201.7274655352493
 20
99.21932712225893
 30
0.0
 10
201.7285451820661
 20
99.24042251813573
 30
0.0
 10
201.7326984390634
 20
99.27850454066365
 30
0.0
 10
201.7357730046993
 20
99.29549365945732
 30
0.0
 10
201.739775885952
 20
99.31035918563398
 30
0.0
  0
SPLINE
  5
F6
330
1F
100
AcDbEntity
  8
0
  6
HIDDEN
 62
     7
370
     0
100
AcDbSpline
210
0.0
220
0.0
230
1.0
 70
     8
 71
     3
 72
    18
 73
    14
 74
     0
 42
0.00000001
 43
0.00000001
 40
0.0
 40
0.0
 40
0.0
 40
0.0
 40
0.0725468170436516
 40
0.1614465570821587
 40
0.2237901744065739
 40
0.2739496779913497
 40
0.324152360061283
 40
0.3940486994924565
 40
0.5073064483300862
 40
0.6272500531559329
 40
0.7710998847882362
 40
0.9051909783954538
 40
1.0
 40
1.0
 40
1.0
 40
1.0
 10
201.7560094774015
 20
99.3398670393162
 30
0.0
 10
201.7611151948336
 20
99.35152145459408
 30
0.0
 10
201.7724775196667
 20
99.37745733018582
 30
0.0
 10
201.7943014165503
 20
99.37556288315615
 30
0.0
 10
201.8092345680835
 20
99.35245233123736
 30
0.0
 10
201.814238013968
 20
99.31037921131755
 30
0.0
 10
201.8099879435224
 20
99.24754259384612
 30
0.0
 10
201.7933645479552
 20
99.14680595579979
 30
0.0
 10
201.7657704598131
 20
99.01114632727672
 30
0.0
 10
201.7372120524955
 20
98.84816113937529
 30
0.0
 10
201.7237507009785
 20
98.69721537137521
 30
0.0
 10
201.7316926745673
 20
98.58960920732181
 30
0.0
 10
201.7485271142471
 20
98.56146563873592
 30
0.0
 10
201.7554998357498
 20
98.54980874551147
 30
0.0
  0
LWPOLYLINE
  5
F7
330
1F
100
AcDbEntity
  8
0
  6
HIDDEN
 62
     7
370
     0
100
AcDbPolyline
 90
        9
 70
   128
 43
0.0
 10
201.7628921521
 20
98.5335566766
 10
201.7932498856
 20
98.5291431303
 10
201.8073325892
 20
98.5529389002
 10
201.8127392122
 20
98.5917144305
 10
201.8096889276
 20
98.6489118472
 10
201.7974478923
 20
98.7278340633
 10
201.7716891145
 20
98.8576527033
 10
201.7399641444
 20
99.0377792329
 10
201.7274655352
 20
99.1960737057
  0
LWPOLYLINE
  5
F8
330
1F
100
AcDbEntity
  8
0
  6
HIDDEN
 62
     7
370
     0
100
AcDbPolyline
 90
       17
 70
   128
 43
0.0
 10
203.2274655352
 20
96.9508799409
 10
202.6534403867
 20
97.031617889
 10
202.1668053635
 20
97.2615401127
 10
201.8416462365
 20
97.6056430376
 10
201.7274655352
 20
98.0115401127
 10
201.8416462365
 20
98.4174371878
 10
202.1668053635
 20
98.7615401127
 10
202.6534403867
 20
98.9914623363
 10
203.2274655352
 20
99.0722002844
 10
203.8014906838
 20
98.9914623363
 10
204.288125707
 20
98.7615401127
 10
204.613284834
 20
98.4174371878
 10
204.7274655352
 20
98.0115401127
 10
204.613284834
 20
97.6056430376
 10
204.288125707
 20
97.2615401127
 10
203.8014906838
 20
97.031617889
 10
203.2274655352
 20
96.9508799409
  0
LINE
  5
F9
330
1F
100
AcDbEntity
  8
0
  6
HIDDEN
 62
     7
370
     0
100
AcDbLine
 10
114.5274655352
 20
97.1737767491
 30
0.0
 11
114.5274655352
 21
123.1737767491
 31
0.0
  0
LINE
  5
FA
330
1F
100
AcDbEntity
  8
0
  6
HIDDEN
 62
     7
370
     0
100
AcDbLine
 10
118.5274655352
 20
97.1737767491
 30
0.0
 11
118.5274655352
 21
123.1737767491
 31
0.0
  0
ARC
  5
FB
330
1F
100
AcDbEntity
  8
0
  6
HIDDEN
 62
     7
370
     0
100
AcDbCircle
 10
189.1046219891
 20
99.024568349
 30
0.0
 40
13.18436098706766
100
AcDbArc
 50
1.8264163086
 51
4.7508319696
  0
LINE
  5
FC
330
1F
100
AcDbEntity
  8
0
  6
HIDDEN
 62
     7
370
     0
100
AcDbLine
 10
103.4274655352
 20
98.9237767491
 30
0.0
 11
103.4274655352
 21
121.4237767491
 31
0.0
  0
ELLIPSE
  5
FD
330
1F
100
AcDbEntity
  8
0
  6
HIDDEN
 62
     7
370
     0
100
AcDbEllipse
 10
34.042792335
 20
110.1737767491
 30
0.0
 11
31.08108570811661
 21
-1.421085471520200E-14
 31
0.0
210
0.0
220
0.0
230
1.0
 40
0.8164965809
 41
4.915995335118103
 42
4.970536038964787
  0
ELLIPSE
  5
FE
330
1F
100
AcDbEntity
  8
0
  6
HIDDEN
 62
     7
370
     0
100
AcDbEllipse
 10
34.042792335
 20
110.1737767491
 30
0.0
 11
31.08108570811661
 21
1.421085471520200E-14
 31
0.0
210
0.0
220
0.0
230
1.0
 40
0.8164965809
 41
1.312649268214811
 42
1.367189972061495
  0
LINE
  5
FF
330
1F
100
AcDbEntity
  8
0
  6
HIDDEN
 62
     7
370
     0
100
AcDbLine
 10
119.1774655352
 20
66.2737767491
 30
0.0
 11
105.1774655352
 21
66.2737767491
 31
0.0
  0
LINE
  5
100
330
1F
100
AcDbEntity
  8
0
  6
HIDDEN
 62
     7
370
     0
100
AcDbLine
 10
95.1774655352
 20
60.1837777493
 30
0.0
 11
95.1774655352
 21
66.2737767491
 31
0.0
  0
LINE
  5
101
330
1F
100
AcDbEntity
  8
0
  6
HIDDEN
 62
     7
370
     0
100
AcDbLine
 10
105.1774655352
 20
66.2737767491
 30
0.0
 11
95.1774655352
 21
66.2737767491
 31
0.0
  0
ARC
  5
102
330
1F
100
AcDbEntity
  8
0
  6
HIDDEN
 62
     7
370
     0
100
AcDbCircle
 10
218.451656218
 20
99.0271603346
 30
0.0
 40
16.21605523506134
100
AcDbArc
 50
181.8092942998
 51
184.3486370525
  0
LINE
  5
103
330
1F
100
AcDbEntity
  8
0
  6
HIDDEN
 62
     7
370
     0
100
AcDbLine
 10
55.4274655352
 20
82.8037767491
 30
0.0
 11
55.4274655352
 21
84.9452631187
 31
0.0
  0
LINE
  5
104
330
1F
100
AcDbEntity
  8
0
  6
HIDDEN
 62
     7
370
     0
100
AcDbLine
 10
41.9774655352
 20
82.8037767491
 30
0.0
 11
41.9774655352
 21
85.6370715913
 31
0.0
  0
LINE
  5
105
330
1F
100
AcDbEntity
  8
0
  6
HIDDEN
 62
     7
370
     0
100
AcDbLine
 10
41.9774655352
 20
137.5437767491
 30
0.0
 11
41.9774655352
 21
134.7104819069
 31
0.0
  0
LINE
  5
106
330
1F
100
AcDbEntity
  8
0
  6
HIDDEN
 62
     7
370
     0
100
AcDbLine
 10
50.4274655352
 20
137.5437767491
 30
0.0
 11
50.4274655352
 21
135.4022903795
 31
0.0
  0
LINE
  5
107
330
1F
100
AcDbEntity
  8
0
  6
HIDDEN
 62
     7
370
     0
100
AcDbLine
 10
119.1774655352
 20
154.0737767491
 30
0.0
 11
105.1774655352
 21
154.0737767491
 31
0.0
  0
LINE
  5
108
330
1F
100
AcDbEntity
  8
0
  6
HIDDEN
 62
     7
370
     0
100
AcDbLine
 10
105.1774655352
 20
154.0737767491
 30
0.0
 11
95.1774655352
 21
154.0737767491
 31
0.0
  0
LINE
  5
109
330
1F
100
AcDbEntity
  8
0
  6
HIDDEN
 62
     7
370
     0
100
AcDbLine
 10
201.2274655352
 20
101.2737767491
 30
0.0
 11
201.2274655352
 21
119.0737764198
 31
0.0
  0
SPLINE
  5
10A
330
1F
100
AcDbEntity
  8
0
  6
HIDDEN
 62
     7
370
     0
100
AcDbSpline
210
0.0
220
0.0
230
1.0
 70
     8
 71
     3
 72
    34
 73
    30
 74
     0
 42
0.00000001
 43
0.00000001
 40
0.0
 40
0.0
 40
0.0
 40
0.0
 40
0.062499999999997
 40
0.062499999999997
 40
0.124999999999994
 40
0.124999999999994
 40
0.2499999999999879
 40
0.2499999999999879
 40
0.3124999999999876
 40
0.3124999999999876
 40
0.3749999999999872
 40
0.3749999999999872
 40
0.4999999999999896
 40
0.4999999999999896
 40
0.5624999999999909
 40
0.5624999999999909
 40
0.6249999999999922
 40
0.6249999999999922
 40
0.6874999999999936
 40
0.6874999999999936
 40
0.7499999999999948
 40
0.7499999999999948
 40
0.8124999999999961
 40
0.8124999999999961
 40
0.8749999999999974
 40
0.8749999999999974
 40
0.9374999999999988
 40
0.9374999999999988
 40
1.0
 40
1.0
 40
1.0
 40
1.0
 10
204.3326915171299
 20
115.993550116798
 30
0.0
 10
204.2305315776701
 20
115.9061874631282
 30
0.0
 10
204.114500282634
 20
115.8314563447232
 30
0.0
 10
203.8549106809651
 20
115.7090157317258
 30
0.0
 10
203.714636033918
 20
115.6633338310562
 30
0.0
 10
203.2764761694594
 20
115.5794731246954
 30
0.0
 10
202.9616068078957
 20
115.5985098510936
 30
0.0
 10
202.5441949300707
 20
115.7308726746851
 30
0.0
 10
202.4114890677148
 20
115.7926363184569
 30
0.0
 10
202.1780449326001
 20
115.9403812688216
 30
0.0
 10
202.0738940984823
 20
116.0284391690789
 30
0.0
 10
201.8211057766848
 20
116.3134937503536
 30
0.0
 10
201.7275380435935
 20
116.5366019530858
 30
0.0
 10
201.7274293461809
 20
116.8561210078116
 30
0.0
 10
201.7497241966695
 20
116.9583942221607
 30
0.0
 10
201.8390379658279
 20
117.1529424634205
 30
0.0
 10
201.9039504131375
 20
117.2410190949239
 30
0.0
 10
202.073899426071
 20
117.4008428183993
 30
0.0
 10
202.176182615606
 20
117.4696426819018
 30
0.0
 10
202.4107553236095
 20
117.5848394873104
 30
0.0
 10
202.54216548595
 20
117.6304958020107
 30
0.0
 10
202.820792597415
 20
117.6957912320267
 30
0.0
 10
202.9699682083077
 20
117.7157153338355
 30
0.0
 10
203.2681817865086
 20
117.7285026443061
 30
0.0
 10
203.421188885185
 20
117.7214684310498
 30
0.0
 10
203.712215960584
 20
117.6812910299724
 30
0.0
 10
203.8545416306688
 20
117.6475536430936
 30
0.0
 10
204.1123111612396
 20
117.5561619995425
 30
0.0
 10
204.2305299126642
 20
117.4978486333959
 30
0.0
 10
204.3326915171299
 20
117.427757583643
 30
0.0
  0
SPLINE
  5
10B
330
1F
100
AcDbEntity
  8
0
  6
HIDDEN
 62
     7
370
     0
100
AcDbSpline
210
0.0
220
0.0
230
1.0
 70
     8
 71
     3
 72
     8
 73
     4
 74
     0
 42
0.00000001
 43
0.00000001
 40
0.0
 40
0.0
 40
0.0
 40
0.0
 40
1.0
 40
1.0
 40
1.0
 40
1.0
 10
204.3326915171299
 20
117.4277575836429
 30
0.0
 10
204.3827238694307
 20
117.3934313794617
 30
0.0
 10
204.4282785347636
 20
117.3502806142407
 30
0.0
 10
204.4694995744601
 20
117.3005021333062
 30
0.0
  0
SPLINE
  5
10C
330
1F
100
AcDbEntity
  8
0
  6
HIDDEN
 62
     7
370
     0
100
AcDbSpline
210
0.0
220
0.0
230
1.0
 70
     8
 71
     3
 72
    12
 73
     8
 74
     0
 42
0.00000001
 43
0.00000001
 40
0.0
 40
0.0
 40
0.0
 40
0.0
 40
0.25
 40
0.25
 40
0.5
 40
0.5
 40
1.0
 40
1.0
 40
1.0
 40
1.0
 10
204.4694995744601
 20
117.3005021333062
 30
0.0
 10
204.5531642215649
 20
117.1994688000508
 30
0.0
 10
204.617050304182
 20
117.0956596501432
 30
0.0
 10
204.7050019859341
 20
116.8807474185611
 30
0.0
 10
204.727328044408
 20
116.7728353308078
 30
0.0
 10
204.7277386209269
 20
116.4565126408614
 30
0.0
 10
204.6368367909251
 20
116.2584939400588
 30
0.0
 10
204.4694995744601
 20
116.1110892988013
 30
0.0
  0
LINE
  5
10D
330
1F
100
AcDbEntity
  8
0
  6
HIDDEN
 62
     7
370
     0
100
AcDbLine
 10
205.2274655352
 20
101.1737767491
 30
0.0
 11
205.2274655352
 21
119.1737767491
 31
0.0
  0
SPLINE
  5
10E
330
1F
100
AcDbEntity
  8
0
  6
HIDDEN
 62
     7
370
     0
100
AcDbSpline
210
0.0
220
0.0
230
1.0
 70
     8
 71
     3
 72
    30
 73
    26
 74
     0
 42
0.00000001
 43
0.00000001
 40
0.0
 40
0.0
 40
0.0
 40
0.0
 40
0.0531667895944306
 40
0.1125460296559538
 40
0.1779415679821296
 40
0.2129647100201478
 40
0.2495168542536672
 40
0.2912815776497699
 40
0.3261229899598991
 40
0.3540373789034075
 40
0.3750220973121863
 40
0.4414779749354779
 40
0.5001939956662949
 40
0.5547072327721178
 40
0.6144498286121054
 40
0.679473417768819
 40
0.7140294887762105
 40
0.7499254981893783
 40
0.7913888898760563
 40
0.8260548959441428
 40
0.8539197326816724
 40
0.8749805480645612
 40
0.9411652353121804
 40
0.9999141591644691
 40
1.0
 40
1.0
 40
1.0
 40
1.0
 10
81.22704236159875
 20
73.07383976712546
 30
0.0
 10
81.21084083336511
 20
73.078741918575
 30
0.0
 10
81.17654465541334
 20
73.0891190296744
 30
0.0
 10
80.87519806092307
 20
73.16478029211565
 30
0.0
 10
80.43302579470432
 20
73.26106742482457
 30
0.0
 10
79.9381936235213
 20
73.36073213457114
 30
0.0
 10
79.46771782332333
 20
73.45301030741508
 30
0.0
 10
78.93679643767138
 20
73.54864233227053
 30
0.0
 10
78.3986459266732
 20
73.63429257713996
 30
0.0
 10
77.94059859409971
 20
73.70158436980834
 30
0.0
 10
77.28503427249845
 20
73.78993253888058
 30
0.0
 10
76.40172783480513
 20
73.88659062306579
 30
0.0
 10
75.2730661019967
 20
73.9733657998488
 30
0.0
 10
74.18330435227436
 20
74.01144449755687
 30
0.0
 10
73.0872760738371
 20
74.01329493232183
 30
0.0
 10
72.18188482689517
 20
73.98713347673633
 30
0.0
 10
71.48558211647983
 20
73.95052625160747
 30
0.0
 10
70.95890238820483
 20
73.9115093761304
 30
0.0
 10
70.49225627317219
 20
73.86930024865848
 30
0.0
 10
70.12104099744838
 20
73.8322961590891
 30
0.0
 10
69.8669945202063
 20
73.80359539864473
 30
0.0
 10
69.56593936749691
 20
73.76721544805505
 30
0.0
 10
69.31045557269329
 20
73.73443528106617
 30
0.0
 10
69.21123484774714
 20
73.71809739636366
 30
0.0
 10
69.22751540503025
 20
73.72069098253273
 30
0.0
 10
69.22753915861621
 20
73.72069476661525
 30
0.0
  0
SPLINE
  5
10F
330
1F
100
AcDbEntity
  8
0
  6
HIDDEN
 62
     7
370
     0
100
AcDbSpline
210
0.0
220
0.0
230
1.0
 70
     8
 71
     3
 72
    30
 73
    26
 74
     0
 42
0.00000001
 43
0.00000001
 40
0.0
 40
0.0
 40
0.0
 40
0.0
 40
0.0001123288057695
 40
0.0285431152663135
 40
0.0588466796063202
 40
0.091027196450477
 40
0.1250880910051604
 40
0.1546766141497773
 40
0.1963554560485685
 40
0.2501101496291966
 40
0.320525387238388
 40
0.3856104300246703
 40
0.445403860889207
 40
0.4999571692316274
 40
0.5283494388508946
 40
0.558634027028705
 40
0.5908185964995195
 40
0.6249094714581434
 40
0.6541844575853767
 40
0.6958630078636641
 40
0.7499307292180327
 40
0.8215905285694356
 40
0.8871422909715975
 40
0.9466378748868088
 40
1.0
 40
1.0
 40
1.0
 40
1.0
 10
69.22756086734952
 20
146.6267884581009
 30
0.0
 10
69.22752900759139
 20
146.6267954052272
 30
0.0
 10
69.21943333932052
 20
146.6285606926193
 30
0.0
 10
69.24809481698992
 20
146.6231057738944
 30
0.0
 10
69.32148166314414
 20
146.6125629265483
 30
0.0
 10
69.46513820669487
 20
146.5928777188948
 30
0.0
 10
69.66617390665238
 20
146.5680384550396
 30
0.0
 10
69.94880445592142
 20
146.5338299899008
 30
0.0
 10
70.36221358149608
 20
146.4901500931408
 30
0.0
 10
71.0385010826783
 20
146.4271070256075
 30
0.0
 10
71.97693198359424
 20
146.3658098551747
 30
0.0
 10
73.08642519709014
 20
146.3345214116743
 30
0.0
 10
74.18390592777888
 20
146.336176579271
 30
0.0
 10
75.08393716623618
 20
146.3674827813682
 30
0.0
 10
75.79527809208712
 20
146.4143159301707
 30
0.0
 10
76.36069499307787
 20
146.4614827920666
 30
0.0
 10
76.94961841590622
 20
146.5209217986167
 30
0.0
 10
77.5140280683837
 20
146.5872790052246
 30
0.0
 10
78.1082242623199
 20
146.6691984116562
 30
0.0
 10
78.77483242329038
 20
146.7708463944066
 30
0.0
 10
79.57616516899061
 20
146.9129853050069
 30
0.0
 10
80.32867515349854
 20
147.0642298757733
 30
0.0
 10
80.8739616484647
 20
147.1820807490327
 30
0.0
 10
81.17668317996356
 20
147.2583099807819
 30
0.0
 10
81.21097363057659
 20
147.2687622902764
 30
0.0
 10
81.22718706722662
 20
147.2737044200766
 30
0.0
  0
SPLINE
  5
110
330
1F
100
AcDbEntity
  8
0
  6
HIDDEN
 62
     7
370
     0
100
AcDbSpline
210
0.0
220
0.0
230
1.0
 70
     8
 71
     3
 72
     8
 73
     4
 74
     0
 42
0.00000001
 43
0.00000001
 40
0.0
 40
0.0
 40
0.0
 40
0.0
 40
1.0
 40
1.0
 40
1.0
 40
1.0
 10
204.4694995744601
 20
116.1110892988013
 30
0.0
 10
204.4282785347636
 20
116.0747783531724
 30
0.0
 10
204.3827238694307
 20
116.0363355676258
 30
0.0
 10
204.3326915171299
 20
115.993550116798
 30
0.0
  0
LINE
  5
111
330
1F
100
AcDbEntity
  8
0
  6
HIDDEN
 62
     7
370
     0
100
AcDbLine
 10
161.6774655352
 20
86.7511270183
 30
0.0
 11
156.6774655352
 21
86.7511270183
 31
0.0
  0
LINE
  5
112
330
1F
100
AcDbEntity
  8
0
  6
HIDDEN
 62
     7
370
     0
100
AcDbLine
 10
159.1774655352
 20
133.5964264799
 30
0.0
 11
161.6774655352
 21
133.5964264799
 31
0.0
  0
LINE
  5
113
330
1F
100
AcDbEntity
  8
0
  6
HIDDEN
 62
     7
370
     0
100
AcDbLine
 10
156.6774655352
 20
133.5964264799
 30
0.0
 11
159.1774655352
 21
133.5964264799
 31
0.0
  0
LINE
  5
114
330
1F
100
AcDbEntity
  8
0
  6
HIDDEN
 62
     7
370
     0
100
AcDbLine
 10
159.1774655352
 20
122.1737767491
 30
0.0
 11
161.6774655352
 21
122.1737767491
 31
0.0
  0
LINE
  5
115
330
1F
100
AcDbEntity
  8
0
  6
HIDDEN
 62
     7
370
     0
100
AcDbLine
 10
156.6774655352
 20
122.1737767491
 30
0.0
 11
159.1774655352
 21
122.1737767491
 31
0.0
  0
LINE
  5
116
330
1F
100
AcDbEntity
  8
0
  6
HIDDEN
 62
     7
370
     0
100
AcDbLine
 10
161.6774655352
 20
98.1737767491
 30
0.0
 11
156.6774655352
 21
98.1737767491
 31
0.0
  0
SPLINE
  5
117
330
1F
100
AcDbEntity
  8
0
  6
HIDDEN
 62
     7
370
     0
100
AcDbSpline
210
0.0
220
0.0
230
1.0
 70
     8
 71
     3
 72
    10
 73
     6
 74
     0
 42
0.00000001
 43
0.00000001
 40
0.0
 40
0.0
 40
0.0
 40
0.0
 40
0.5041480232556764
 40
0.9976150031746155
 40
1.0
 40
1.0
 40
1.0
 40
1.0
 10
201.7468559599857
 20
121.4487725074735
 30
0.0
 10
201.7396054052013
 20
121.5045926034363
 30
0.0
 10
201.725257908235
 20
121.615050172726
 30
0.0
 10
201.7247986584815
 20
121.7109858007034
 30
0.0
 10
201.7327290298485
 20
121.7353014921882
 30
0.0
 10
201.7327671741161
 20
121.7354184481544
 30
0.0
  0
SPLINE
  5
118
330
1F
100
AcDbEntity
  8
0
  6
HIDDEN
 62
     7
370
     0
100
AcDbSpline
210
0.0
220
0.0
230
1.0
 70
     8
 71
     3
 72
    18
 73
    14
 74
     0
 42
0.00000001
 43
0.00000001
 40
0.0
 40
0.0
 40
0.0
 40
0.0
 40
0.003484370563157
 40
0.1447456796353622
 40
0.2135437618055911
 40
0.2697776213436819
 40
0.3264104371965442
 40
0.3870862909225855
 40
0.4810758529987447
 40
0.6213704360340951
 40
0.7638466556596771
 40
0.9105219170619372
 40
1.0
 40
1.0
 40
1.0
 40
1.0
 10
201.7546373729503
 20
121.8026894842653
 30
0.0
 10
201.7548356025011
 20
121.8033084002709
 30
0.0
 10
201.7630703383121
 20
121.8290190462093
 30
0.0
 10
201.7854344326084
 20
121.8282780304129
 30
0.0
 10
201.8058218632264
 20
121.8058528369365
 30
0.0
 10
201.8141384916626
 20
121.7660731680758
 30
0.0
 10
201.8117525729577
 20
121.7053120248104
 30
0.0
 10
201.7975038149457
 20
121.6153128172789
 30
0.0
 10
201.7701162258122
 20
121.4842751885587
 30
0.0
 10
201.7390066763803
 20
121.322123374907
 30
0.0
 10
201.723689814689
 20
121.1623602624498
 30
0.0
 10
201.7308083024087
 20
121.0491115340745
 30
0.0
 10
201.7491082904255
 20
121.0186139068166
 30
0.0
 10
201.7560421233979
 20
121.0070584099896
 30
0.0
  0
LWPOLYLINE
  5
119
330
1F
100
AcDbEntity
  8
0
  6
HIDDEN
 62
     7
370
     0
100
AcDbPolyline
 90
        8
 70
   128
 43
0.0
 10
201.7678296456
 20
120.9817255856
 10
201.7935767294
 20
120.9763200074
 10
201.807542607
 20
120.9976234726
 10
201.8127304871
 20
121.0343081023
 10
201.81018064
 20
121.0878464891
 10
201.7977877914
 20
121.1720119177
 10
201.7704551859
 20
121.3155982079
 10
201.74685596
 20
121.4487725075
  0
SPLINE
  5
11A
330
1F
100
AcDbEntity
  8
0
  6
HIDDEN
 62
     7
370
     0
100
AcDbSpline
210
0.0
220
0.0
230
1.0
 70
     8
 71
     3
 72
    10
 73
     6
 74
     0
 42
0.00000001
 43
0.00000001
 40
0.0
 40
0.0
 40
0.0
 40
0.0
 40
0.5
 40
0.5
 40
1.0
 40
1.0
 40
1.0
 40
1.0
 10
202.2436854667255
 20
120.2310210612546
 30
0.0
 10
202.3221657847785
 20
120.2838198195506
 30
0.0
 10
202.3885758448728
 20
120.3689781727214
 30
0.0
 10
202.4060197070032
 20
120.6104277773291
 30
0.0
 10
202.3534593382778
 20
120.7550389205967
 30
0.0
 10
202.2822849537015
 20
120.9027787360207
 30
0.0
  0
SPLINE
  5
11B
330
1F
100
AcDbEntity
  8
0
  6
HIDDEN
 62
     7
370
     0
100
AcDbSpline
210
0.0
220
0.0
230
1.0
 70
     8
 71
     3
 72
    14
 73
    10
 74
     0
 42
0.00000001
 43
0.00000001
 40
0.0
 40
0.0
 40
0.0
 40
0.0
 40
0.25
 40
0.25
 40
0.5
 40
0.5
 40
0.75
 40
0.75
 40
1.0
 40
1.0
 40
1.0
 40
1.0
 10
202.2822849537015
 20
120.9027787360203
 30
0.0
 10
202.2458159580674
 20
120.8699297595244
 30
0.0
 10
202.2108730259072
 20
120.8383139151709
 30
0.0
 10
202.1511356845622
 20
120.7675167722006
 30
0.0
 10
202.1258464852391
 20
120.7275749702312
 30
0.0
 10
202.1163593860085
 20
120.6098266124125
 30
0.0
 10
202.1338543887619
 20
120.5335300594354
 30
0.0
 10
202.18204895802
 20
120.3821935564997
 30
0.0
 10
202.2121015079978
 20
120.3061235820694
 30
0.0
 10
202.2436854667255
 20
120.2310210612524
 30
0.0
  0
SPLINE
  5
11C
330
1F
100
AcDbEntity
  8
0
  6
HIDDEN
 62
     7
370
     0
100
AcDbSpline
210
0.0
220
0.0
230
1.0
 70
     8
 71
     3
 72
    14
 73
    10
 74
     0
 42
0.00000001
 43
0.00000001
 40
0.0
 40
0.0
 40
0.0
 40
0.0
 40
0.25
 40
0.25
 40
0.5
 40
0.5
 40
0.75
 40
0.75
 40
1.0
 40
1.0
 40
1.0
 40
1.0
 10
202.2822849537015
 20
122.5499785831942
 30
0.0
 10
202.3178582076526
 20
122.5169622217661
 30
0.0
 10
202.3487600386713
 20
122.4769114472398
 30
0.0
 10
202.3913141592516
 20
122.3784488051331
 30
0.0
 10
202.4015408094113
 20
122.3216331545083
 30
0.0
 10
202.3932067029147
 20
122.1936957897005
 30
0.0
 10
202.3745890660799
 20
122.1239626929604
 30
0.0
 10
202.3190836835269
 20
121.9804439263146
 30
0.0
 10
202.2829910341677
 20
121.9071183475979
 30
0.0
 10
202.2436854667255
 20
121.8323809688172
 30
0.0
  0
SPLINE
  5
11D
330
1F
100
AcDbEntity
  8
0
  6
HIDDEN
 62
     7
370
     0
100
AcDbSpline
210
0.0
220
0.0
230
1.0
 70
     8
 71
     3
 72
    14
 73
    10
 74
     0
 42
0.00000001
 43
0.00000001
 40
0.0
 40
0.0
 40
0.0
 40
0.0
 40
0.25
 40
0.25
 40
0.5
 40
0.5
 40
0.75
 40
0.75
 40
1.0
 40
1.0
 40
1.0
 40
1.0
 10
202.2436854667255
 20
121.8323809688182
 30
0.0
 10
202.2120387374432
 20
121.8687490218448
 30
0.0
 10
202.1818414088667
 20
121.9045023753813
 30
0.0
 10
202.1337678040417
 20
121.9864694823127
 30
0.0
 10
202.1162823357102
 20
122.0351484471351
 30
0.0
 10
202.1259921720695
 20
122.1681093246963
 30
0.0
 10
202.1513169463073
 20
122.2467169432893
 30
0.0
 10
202.2110119630068
 20
122.399564123967
 30
0.0
 10
202.2458748914222
 20
122.4753977374701
 30
0.0
 10
202.2822849537015
 20
122.5499785831946
 30
0.0
  0
LWPOLYLINE
  5
11E
330
1F
100
AcDbEntity
  8
0
  6
HIDDEN
 62
     7
370
     0
100
AcDbPolyline
 90
       15
 70
   128
 43
0.0
 10
204.694352887
 20
122.416224041
 10
204.4401830719
 20
122.8188180205
 10
203.9764739276
 20
123.1135551483
 10
203.3833474116
 20
123.2495092868
 10
202.7632868547
 20
123.2031896082
 10
202.2234293841
 20
122.9825994554
 10
201.8570542418
 20
122.6258534851
 10
201.7274655352
 20
122.1945920292
 10
201.8570542418
 20
121.7633305734
 10
202.2234293841
 20
121.4065846031
 10
202.7632868547
 20
121.1859944503
 10
203.3833474116
 20
121.1396747717
 10
203.9764739276
 20
121.2756289102
 10
204.4401830719
 20
121.570366038
 10
204.694352887
 20
121.9729600175
  0
SPLINE
  5
11F
330
1F
100
AcDbEntity
  8
0
  6
HIDDEN
 62
     7
370
     0
100
AcDbSpline
210
0.0
220
0.0
230
1.0
 70
     8
 71
     3
 72
    46
 73
    42
 74
     0
 42
0.00000001
 43
0.00000001
 40
0.0
 40
0.0
 40
0.0
 40
0.0
 40
0.0624999999999993
 40
0.0624999999999993
 40
0.1249999999999986
 40
0.1249999999999986
 40
0.1562499999999982
 40
0.1562499999999982
 40
0.1874999999999978
 40
0.1874999999999978
 40
0.2187499999999974
 40
0.2187499999999974
 40
0.2499999999999969
 40
0.2499999999999969
 40
0.3124999999999965
 40
0.3124999999999965
 40
0.3749999999999961
 40
0.3749999999999961
 40
0.4374999999999957
 40
0.4374999999999957
 40
0.4687499999999958
 40
0.4687499999999958
 40
0.4999999999999959
 40
0.4999999999999959
 40
0.5624999999999971
 40
0.5624999999999971
 40
0.6249999999999982
 40
0.6249999999999982
 40
0.6874999999999994
 40
0.6874999999999994
 40
0.7500000000000006
 40
0.7500000000000006
 40
0.781250000000001
 40
0.781250000000001
 40
0.8125000000000014
 40
0.8125000000000014
 40
0.875000000000001
 40
0.875000000000001
 40
0.9375000000000004
 40
0.9375000000000004
 40
1.0
 40
1.0
 40
1.0
 40
1.0
 10
204.6943528869946
 20
121.9729600174644
 30
0.0
 10
204.6612210064677
 20
121.8358156807803
 30
0.0
 10
204.6061077147629
 20
121.6919016639628
 30
0.0
 10
204.4718497527698
 20
121.4019723327719
 30
0.0
 10
204.3932816317813
 20
121.2580272260507
 30
0.0
 10
204.2778486231509
 20
121.0490626544324
 30
0.0
 10
204.2398964949487
 20
120.980682071004
 30
0.0
 10
204.1689891703809
 20
120.8447401759888
 30
0.0
 10
204.1358153833974
 20
120.7766530857785
 30
0.0
 10
204.0842820203332
 20
120.6451380934325
 30
0.0
 10
204.0656925587382
 20
120.5799462001695
 30
0.0
 10
204.0528715868323
 20
120.4607288934995
 30
0.0
 10
204.0586258111889
 20
120.4052462876978
 30
0.0
 10
204.1064848980489
 20
120.2617128460725
 30
0.0
 10
204.1749953857494
 20
120.195226152747
 30
0.0
 10
204.3195143517583
 20
120.1102801166887
 30
0.0
 10
204.3985320710127
 20
120.0907129579271
 30
0.0
 10
204.5407560576072
 20
120.1001675846377
 30
0.0
 10
204.6062075225168
 20
120.1298463199381
 30
0.0
 10
204.6762256964429
 20
120.2180764086324
 30
0.0
 10
204.6952150388784
 20
120.2554614842421
 30
0.0
 10
204.7205725321291
 20
120.3430034330385
 30
0.0
 10
204.7273061142075
 20
120.3933206226635
 30
0.0
 10
204.7277760511066
 20
120.565647770258
 30
0.0
 10
204.7005086236808
 20
120.7028853496592
 30
0.0
 10
204.607553290692
 20
120.9885697099159
 30
0.0
 10
204.5423299663228
 20
121.1372944776716
 30
0.0
 10
204.400032262002
 20
121.4255849787416
 30
0.0
 10
204.3210077536166
 20
121.5684693650669
 30
0.0
 10
204.1761682658003
 20
121.8432840396418
 30
0.0
 10
204.107302727638
 20
121.9791651129476
 30
0.0
 10
204.0586806794212
 20
122.1706716719825
 30
0.0
 10
204.0527871212612
 20
122.2304512189687
 30
0.0
 10
204.06561642757
 20
122.3394021674053
 30
0.0
 10
204.0838318543533
 20
122.3860938898874
 30
0.0
 10
204.1616862213272
 20
122.5050444285738
 30
0.0
 10
204.2392946885052
 20
122.5532617136048
 30
0.0
 10
204.3932413364441
 20
122.6021935023232
 30
0.0
 10
204.4713455227784
 20
122.6025330172099
 30
0.0
 10
204.6055158727199
 20
122.5507614143669
 30
0.0
 10
204.6612401457416
 20
122.4983179792144
 30
0.0
 10
204.6943528869946
 20
122.4162240410234
 30
0.0
  0
SPLINE
  5
120
330
1F
100
AcDbEntity
  8
0
  6
HIDDEN
 62
     7
370
     0
100
AcDbSpline
210
0.0
220
0.0
230
1.0
 70
     8
 71
     3
 72
    10
 73
     6
 74
     0
 42
0.00000001
 43
0.00000001
 40
0.0
 40
0.0
 40
0.0
 40
0.0
 40
0.5
 40
0.5
 40
1.0
 40
1.0
 40
1.0
 40
1.0
 10
204.6943528869946
 20
122.4162240410234
 30
0.0
 10
204.6700382845092
 20
122.3646561240481
 30
0.0
 10
204.6586255540184
 20
122.298986683774
 30
0.0
 10
204.6586048632566
 20
122.1489059061406
 30
0.0
 10
204.6699658355348
 20
122.0627090938592
 30
0.0
 10
204.6943528869946
 20
121.9729600174644
 30
0.0
  0
LWPOLYLINE
  5
121
330
1F
100
AcDbEntity
  8
0
  6
HIDDEN
 62
     7
370
     0
100
AcDbPolyline
 90
       28
 70
   128
 43
0.0
 10
99.2274655352
 20
155.4864826009
 10
100.380544889
 20
155.4448346355
 10
101.4714614363
 20
155.3221359919
 10
102.4414035837
 20
155.1250013858
 10
103.238081499
 20
154.8640583948
 10
103.8185460697
 20
154.5533745231
 10
104.1515043003
 20
154.2096988187
 10
104.2190063266
 20
153.8515589276
 10
104.0174130968
 20
153.4982622642
 10
103.5575925542
 20
153.168855143
 10
102.8643337431
 20
152.8810959872
 10
101.9750104256
 20
152.6504979674
 10
100.9375662519
 20
152.4894926824
 10
99.8079301059
 20
152.4067599689
 10
98.6470009646
 20
152.4067599689
 10
97.5173648186
 20
152.4894926824
 10
96.4799206449
 20
152.6504979674
 10
95.5905973274
 20
152.8810959872
 10
94.8973385163
 20
153.168855143
 10
94.4375179737
 20
153.4982622642
 10
94.2359247439
 20
153.8515589276
 10
94.3034267702
 20
154.2096988187
 10
94.6363850008
 20
154.5533745231
 10
95.2168495715
 20
154.8640583948
 10
96.0135274868
 20
155.1250013858
 10
96.9834696342
 20
155.3221359919
 10
98.0743861815
 20
155.4448346355
 10
99.2274655352
 20
155.4864826009
  0
LINE
  5
122
330
1F
100
AcDbEntity
  8
0
  6
HIDDEN
 62
     7
370
     0
100
AcDbLine
 10
113.4894945562
 20
149.12473951
 30
0.0
 11
113.4894945562
 21
141.5237767491
 31
0.0
  0
LINE
  5
123
330
1F
100
AcDbEntity
  8
0
  6
HIDDEN
 62
     7
370
     0
100
AcDbLine
 10
108.3174655352
 20
144.8880119416
 30
0.0
 11
108.3174655352
 21
141.5237767491
 31
0.0
  0
LINE
  5
124
330
1F
100
AcDbEntity
  8
0
  6
HIDDEN
 62
     7
370
     0
100
AcDbLine
 10
112.1374655352
 20
144.8880119416
 30
0.0
 11
112.1374655352
 21
141.5237767491
 31
0.0
  0
ARC
  5
125
330
1F
100
AcDbEntity
  8
0
  6
HIDDEN
 62
     7
370
     0
100
AcDbCircle
 10
218.4516562182
 20
121.3203931635
 30
0.0
 40
16.21605523525224
100
AcDbArc
 50
175.6513629475
 51
178.1907057002
  0
ARC
  5
126
330
1F
100
AcDbEntity
  8
0
  6
HIDDEN
 62
     7
370
     0
100
AcDbCircle
 10
189.1046219893
 20
121.3229851491
 30
0.0
 40
13.18436098688817
100
AcDbArc
 50
355.2491680304
 51
358.1735836915
  0
CIRCLE
  5
127
330
1F
100
AcDbEntity
  8
0
  6
HIDDEN
 62
     7
370
     0
100
AcDbCircle
 10
97.2274655352
 20
110.1737767491
 30
0.0
 40
5.000000000000014
  0
LWPOLYLINE
  5
128
330
1F
100
AcDbEntity
  8
0
  6
HIDDEN
 62
     7
370
     0
100
AcDbPolyline
 90
       17
 70
   128
 43
0.0
 10
244.7611506977
 20
99.061754836
 10
244.7386145762
 20
99.5480769273
 10
244.7195093748
 20
100.1218367849
 10
244.7067436874
 20
100.6956846718
 10
244.7022609741
 20
101.182257449
 10
244.7067436874
 20
101.507478822
 10
244.7195093748
 20
101.6218367849
 10
244.7386145762
 20
101.5079213746
 10
244.7611506977
 20
101.1830751795
 10
244.7836868193
 20
100.6967530882
 10
244.8027920207
 20
100.1229932306
 10
244.8155577081
 20
99.5491453437
 10
244.8200404214
 20
99.0625725665
 10
244.8155577081
 20
98.7373511935
 10
244.8027920207
 20
98.6229932306
 10
244.7836868193
 20
98.7369086409
 10
244.7611506977
 20
99.061754836
  0
LWPOLYLINE
  5
129
330
1F
100
AcDbEntity
  8
0
  6
HIDDEN
 62
     7
370
     0
100
AcDbPolyline
 90
       17
 70
   128
 43
0.0
 10
244.2615361796
 20
99.4014277856
 10
244.2465120986
 20
99.7256425131
 10
244.2337752977
 20
100.1081490849
 10
244.2252648394
 20
100.4907143428
 10
244.2222763639
 20
100.8150961943
 10
244.2252648394
 20
101.0319104429
 10
244.2337752977
 20
101.1081490849
 10
244.2465120986
 20
101.032205478
 10
244.2615361796
 20
100.815641348
 10
244.2765602607
 20
100.4914266204
 10
244.2892970616
 20
100.1089200487
 10
244.2978075199
 20
99.7263547908
 10
244.3007959954
 20
99.4019729393
 10
244.2978075199
 20
99.1851586906
 10
244.2892970616
 20
99.1089200487
 10
244.2765602607
 20
99.1848636556
 10
244.2615361796
 20
99.4014277856
  0
LWPOLYLINE
  5
12A
330
1F
100
AcDbEntity
  8
0
  6
HIDDEN
 62
     7
370
     0
100
AcDbPolyline
 90
       17
 70
   128
 43
0.0
 10
250.0950885016
 20
99.2099439021
 10
250.0725523801
 20
99.6962659934
 10
250.0534471787
 20
100.270025851
 10
250.0406814913
 20
100.8438737379
 10
250.036198778
 20
101.3304465151
 10
250.0406814913
 20
101.6556678881
 10
250.0534471787
 20
101.770025851
 10
250.0725523801
 20
101.6561104407
 10
250.0950885016
 20
101.3312642456
 10
250.1176246232
 20
100.8449421543
 10
250.1367298246
 20
100.2711822967
 10
250.149495512
 20
99.6973344098
 10
250.1539782253
 20
99.2107616326
 10
250.149495512
 20
98.8855402596
 10
250.1367298246
 20
98.7711822967
 10
250.1176246232
 20
98.885097707
 10
250.0950885016
 20
99.2099439021
  0
LWPOLYLINE
  5
12B
330
1F
100
AcDbEntity
  8
0
  6
HIDDEN
 62
     7
370
     0
100
AcDbPolyline
 90
        8
 70
   128
 43
0.0
 10
250.2569103971
 20
99.4127831388
 10
250.2385885302
 20
99.8081629991
 10
250.2230560015
 20
100.2746297633
 10
250.2126774977
 20
100.7411680953
 10
250.2090330518
 20
101.1367517632
 10
250.2126774977
 20
101.4011567395
 10
250.2230560015
 20
101.4941297633
 10
250.2274655352
 20
101.4849770519
  0
LWPOLYLINE
  5
12C
330
1F
100
AcDbEntity
  8
0
  6
HIDDEN
 62
     7
370
     0
100
AcDbPolyline
 90
        4
 70
   128
 43
0.0
 10
250.2923664709
 20
99.0575265521
 10
250.2907647926
 20
99.0560699536
 10
250.2752322639
 20
99.1486831823
 10
250.2569103971
 20
99.4127831388
  0
LINE
  5
12D
330
1F
100
AcDbEntity
  8
0
  6
HIDDEN
 62
     7
370
     0
100
AcDbLine
 10
248.2878971864
 20
99.9958430918
 30
0.0
 11
248.2584523246
 21
100.8319505303
 31
0.0
  0
LINE
  5
12E
330
1F
100
AcDbEntity
  8
0
  6
HIDDEN
 62
     7
370
     0
100
AcDbLine
 10
250.2863552589
 20
100.0513648557
 30
0.0
 11
250.2569103971
 21
100.8874722942
 31
0.0
  0
LINE
  5
12F
330
1F
100
AcDbEntity
  8
0
  6
HIDDEN
 62
     7
370
     0
100
AcDbLine
 10
248.2878971864
 20
99.9958430918
 30
0.0
 11
250.2863552589
 21
100.0513648557
 31
0.0
  0
LINE
  5
130
330
1F
100
AcDbEntity
  8
0
  6
HIDDEN
 62
     7
370
     0
100
AcDbLine
 10
248.2878971864
 20
99.3834706561
 30
0.0
 11
248.2878971864
 21
99.9958430918
 31
0.0
  0
LINE
  5
131
330
1F
100
AcDbEntity
  8
0
  6
HIDDEN
 62
     7
370
     0
100
AcDbLine
 10
250.2863552589
 20
99.43899242
 30
0.0
 11
250.2863552589
 21
100.0513648557
 31
0.0
  0
LINE
  5
132
330
1F
100
AcDbEntity
  8
0
  6
HIDDEN
 62
     7
370
     0
100
AcDbLine
 10
248.2584523246
 20
100.8319505303
 30
0.0
 11
250.2569103971
 21
100.8874722942
 31
0.0
  0
LINE
  5
133
330
1F
100
AcDbEntity
  8
0
  6
HIDDEN
 62
     7
370
     0
100
AcDbLine
 10
248.2290074628
 20
101.055685533
 30
0.0
 11
248.2584523246
 21
100.8319505303
 31
0.0
  0
LINE
  5
134
330
1F
100
AcDbEntity
  8
0
  6
HIDDEN
 62
     7
370
     0
100
AcDbLine
 10
250.2274655352
 20
101.1112072969
 30
0.0
 11
250.2569103971
 21
100.8874722942
 31
0.0
  0
LINE
  5
135
330
1F
100
AcDbEntity
  8
0
  6
HIDDEN
 62
     7
370
     0
100
AcDbLine
 10
248.2584523246
 20
99.6072056589
 30
0.0
 11
250.2569103971
 21
99.6627274228
 31
0.0
  0
LINE
  5
136
330
1F
100
AcDbEntity
  8
0
  6
HIDDEN
 62
     7
370
     0
100
AcDbLine
 10
248.2878971864
 20
99.3834706561
 30
0.0
 11
250.2863552589
 21
99.43899242
 31
0.0
  0
LINE
  5
137
330
1F
100
AcDbEntity
  8
0
  6
HIDDEN
 62
     7
370
     0
100
AcDbLine
 10
248.2878971864
 20
99.3834706561
 30
0.0
 11
248.2584523246
 21
99.6072056589
 31
0.0
  0
LINE
  5
138
330
1F
100
AcDbEntity
  8
0
  6
HIDDEN
 62
     7
370
     0
100
AcDbLine
 10
250.2863552589
 20
99.43899242
 30
0.0
 11
250.2569103971
 21
99.6627274228
 31
0.0
  0
LINE
  5
139
330
1F
100
AcDbEntity
  8
0
  6
HIDDEN
 62
     7
370
     0
100
AcDbLine
 10
248.2290074628
 20
100.4433130974
 30
0.0
 11
250.2274655352
 21
100.4988348613
 31
0.0
  0
LINE
  5
13A
330
1F
100
AcDbEntity
  8
0
  6
HIDDEN
 62
     7
370
     0
100
AcDbLine
 10
248.2290074628
 20
101.055685533
 30
0.0
 11
250.2274655352
 21
101.1112072969
 31
0.0
  0
LINE
  5
13B
330
1F
100
AcDbEntity
  8
0
  6
HIDDEN
 62
     7
370
     0
100
AcDbLine
 10
248.2290074628
 20
100.4433130974
 30
0.0
 11
248.2290074628
 21
101.055685533
 31
0.0
  0
LINE
  5
13C
330
1F
100
AcDbEntity
  8
0
  6
HIDDEN
 62
     7
370
     0
100
AcDbLine
 10
248.2290074628
 20
100.4433130974
 30
0.0
 11
248.2584523246
 21
99.6072056589
 31
0.0
  0
LINE
  5
13D
330
1F
100
AcDbEntity
  8
0
  6
HIDDEN
 62
     7
370
     0
100
AcDbLine
 10
250.2274655352
 20
100.4988348613
 30
0.0
 11
250.2569103971
 21
99.6627274228
 31
0.0
  0
LWPOLYLINE
  5
13E
330
1F
100
AcDbEntity
  8
0
  6
HIDDEN
 62
     7
370
     0
100
AcDbPolyline
 90
        3
 70
   128
 43
0.0
 10
250.1980206734
 20
119.2117730121
 10
250.2163425403
 20
119.6071528723
 10
250.2274655352
 20
119.9240549795
  0
LWPOLYLINE
  5
13F
330
1F
100
AcDbEntity
  8
0
  6
HIDDEN
 62
     7
370
     0
100
AcDbPolyline
 90
       12
 70
   128
 43
0.0
 10
250.2274655352
 20
121.2839669252
 10
250.2163425403
 20
121.2005064079
 10
250.1980206734
 20
120.9364064514
 10
250.1796988066
 20
120.5410265911
 10
250.1641662779
 20
120.0745598269
 10
250.153787774
 20
119.6080214949
 10
250.1501433281
 20
119.212437827
 10
250.153787774
 20
118.9480328507
 10
250.1641662779
 20
118.8550598269
 10
250.1796988066
 20
118.9476730555
 10
250.1980206734
 20
119.2117730121
 10
250.1980206734
 20
119.2117730121
  0
LWPOLYLINE
  5
140
330
1F
100
AcDbEntity
  8
0
  6
HIDDEN
 62
     7
370
     0
100
AcDbPolyline
 90
       17
 70
   128
 43
0.0
 10
250.036198778
 20
119.0179253446
 10
250.0587348996
 20
119.5042474359
 10
250.0778401009
 20
120.0780072935
 10
250.0906057883
 20
120.6518551804
 10
250.0950885016
 20
121.1384279576
 10
250.0906057883
 20
121.4636493306
 10
250.0778401009
 20
121.5780072935
 10
250.0587348996
 20
121.4640918832
 10
250.036198778
 20
121.1392456881
 10
250.0136626564
 20
120.6529235968
 10
249.9945574551
 20
120.0791637392
 10
249.9817917677
 20
119.5053158523
 10
249.9773090544
 20
119.0187430751
 10
249.9817917677
 20
118.6935217021
 10
249.9945574551
 20
118.5791637392
 10
250.0136626564
 20
118.6930791495
 10
250.036198778
 20
119.0179253446
  0
LWPOLYLINE
  5
141
330
1F
100
AcDbEntity
  8
0
  6
HIDDEN
 62
     7
370
     0
100
AcDbPolyline
 90
       17
 70
   128
 43
0.0
 10
244.7022609741
 20
119.1661144107
 10
244.7247970957
 20
119.652436502
 10
244.743902297
 20
120.2261963596
 10
244.7566679845
 20
120.8000442465
 10
244.7611506977
 20
121.2866170237
 10
244.7566679845
 20
121.6118383967
 10
244.743902297
 20
121.7261963596
 10
244.7247970957
 20
121.6122809493
 10
244.7022609741
 20
121.2874347542
 10
244.6797248525
 20
120.8011126629
 10
244.6606196512
 20
120.2273528053
 10
244.6478539638
 20
119.6535049184
 10
244.6433712505
 20
119.1669321412
 10
244.6478539638
 20
118.8417107682
 10
244.6606196512
 20
118.7273528053
 10
244.6797248525
 20
118.8412682156
 10
244.7022609741
 20
119.1661144107
  0
LWPOLYLINE
  5
142
330
1F
100
AcDbEntity
  8
0
  6
HIDDEN
 62
     7
370
     0
100
AcDbPolyline
 90
       17
 70
   128
 43
0.0
 10
244.202646456
 20
119.5335482422
 10
244.217670537
 20
119.8577629698
 10
244.2304073379
 20
120.2402695415
 10
244.2389177962
 20
120.6228347994
 10
244.2419062717
 20
120.9472166509
 10
244.2389177962
 20
121.1640308996
 10
244.2304073379
 20
121.2402695415
 10
244.217670537
 20
121.1643259346
 10
244.202646456
 20
120.9477618046
 10
244.1876223749
 20
120.6235470771
 10
244.174885574
 20
120.2410405053
 10
244.1663751158
 20
119.8584752474
 10
244.1633866402
 20
119.5340933959
 10
244.1663751158
 20
119.3172791473
 10
244.174885574
 20
119.2410405053
 10
244.1876223749
 20
119.3169841122
 10
244.202646456
 20
119.5335482422
  0
LINE
  5
143
330
1F
100
AcDbEntity
  8
0
  6
HIDDEN
 62
     7
370
     0
100
AcDbLine
 10
250.2274655352
 20
120.9101971702
 30
0.0
 11
250.1980206734
 21
120.6864621674
 31
0.0
  0
LINE
  5
144
330
1F
100
AcDbEntity
  8
0
  6
HIDDEN
 62
     7
370
     0
100
AcDbLine
 10
250.1685758116
 20
119.8503547289
 30
0.0
 11
250.1980206734
 21
120.6864621674
 31
0.0
  0
LINE
  5
145
330
1F
100
AcDbEntity
  8
0
  6
HIDDEN
 62
     7
370
     0
100
AcDbLine
 10
250.1685758116
 20
119.2379822933
 30
0.0
 11
250.1685758116
 21
119.8503547289
 31
0.0
  0
LINE
  5
146
330
1F
100
AcDbEntity
  8
0
  6
HIDDEN
 62
     7
370
     0
100
AcDbLine
 10
250.1685758116
 20
119.2379822933
 30
0.0
 11
250.1980206734
 21
119.461717296
 31
0.0
  0
LINE
  5
147
330
1F
100
AcDbEntity
  8
0
  6
HIDDEN
 62
     7
370
     0
100
AcDbLine
 10
250.2274655352
 20
120.2978247345
 30
0.0
 11
250.1980206734
 21
119.461717296
 31
0.0
  0
LINE
  5
148
330
1F
100
AcDbEntity
  8
0
  6
HIDDEN
 62
     7
370
     0
100
AcDbLine
 10
248.1701177391
 20
119.2935040572
 30
0.0
 11
248.1995626009
 21
119.5172390599
 31
0.0
  0
LINE
  5
149
330
1F
100
AcDbEntity
  8
0
  6
HIDDEN
 62
     7
370
     0
100
AcDbLine
 10
248.1701177391
 20
119.2935040572
 30
0.0
 11
248.1701177391
 21
119.9058764928
 31
0.0
  0
LINE
  5
14A
330
1F
100
AcDbEntity
  8
0
  6
HIDDEN
 62
     7
370
     0
100
AcDbLine
 10
248.2290074628
 20
120.9657189341
 30
0.0
 11
248.1995626009
 21
120.7419839313
 31
0.0
  0
LINE
  5
14B
330
1F
100
AcDbEntity
  8
0
  6
HIDDEN
 62
     7
370
     0
100
AcDbLine
 10
248.2290074628
 20
120.3533464984
 30
0.0
 11
248.2290074628
 21
120.9657189341
 31
0.0
  0
LINE
  5
14C
330
1F
100
AcDbEntity
  8
0
  6
HIDDEN
 62
     7
370
     0
100
AcDbLine
 10
248.2290074628
 20
120.3533464984
 30
0.0
 11
248.1995626009
 21
119.5172390599
 31
0.0
  0
LINE
  5
14D
330
1F
100
AcDbEntity
  8
0
  6
HIDDEN
 62
     7
370
     0
100
AcDbLine
 10
248.1701177391
 20
119.9058764928
 30
0.0
 11
248.1995626009
 21
120.7419839313
 31
0.0
  0
LINE
  5
14E
330
1F
100
AcDbEntity
  8
0
  6
HIDDEN
 62
     7
370
     0
100
AcDbLine
 10
248.1701177391
 20
119.9058764928
 30
0.0
 11
250.1685758116
 21
119.8503547289
 31
0.0
  0
LINE
  5
14F
330
1F
100
AcDbEntity
  8
0
  6
HIDDEN
 62
     7
370
     0
100
AcDbLine
 10
248.1995626009
 20
120.7419839313
 30
0.0
 11
250.1980206734
 21
120.6864621674
 31
0.0
  0
LINE
  5
150
330
1F
100
AcDbEntity
  8
0
  6
HIDDEN
 62
     7
370
     0
100
AcDbLine
 10
248.1995626009
 20
119.5172390599
 30
0.0
 11
250.1980206734
 21
119.461717296
 31
0.0
  0
LINE
  5
151
330
1F
100
AcDbEntity
  8
0
  6
HIDDEN
 62
     7
370
     0
100
AcDbLine
 10
248.1701177391
 20
119.2935040572
 30
0.0
 11
250.1685758116
 21
119.2379822933
 31
0.0
  0
LINE
  5
152
330
1F
100
AcDbEntity
  8
0
  6
HIDDEN
 62
     7
370
     0
100
AcDbLine
 10
248.2290074628
 20
120.3533464984
 30
0.0
 11
250.2274655352
 21
120.2978247345
 31
0.0
  0
LINE
  5
153
330
1F
100
AcDbEntity
  8
0
  6
HIDDEN
 62
     7
370
     0
100
AcDbLine
 10
248.2290074628
 20
120.9657189341
 30
0.0
 11
250.2274655352
 21
120.9101971702
 31
0.0
  0
LINE
  5
154
330
1F
100
AcDbEntity
  8
0
  6
HIDDEN
 62
     7
370
     0
100
AcDbLine
 10
90.2274655352
 20
70.7690937925
 30
0.0
 11
90.3170671592
 21
71.4066424744
 31
0.0
  0
LINE
  5
155
330
1F
100
AcDbEntity
  8
0
  6
HIDDEN
 62
     7
370
     0
100
AcDbLine
 10
90.3170671592
 20
148.9409110237
 30
0.0
 11
90.2274655352
 21
149.5784597057
 31
0.0
  0
ARC
  5
156
330
1F
100
AcDbEntity
  8
0
  6
HIDDEN
 62
     7
370
     0
100
AcDbCircle
 10
89.3305286168
 20
71.5452914246
 30
0.0
 40
0.996233821438679
100
AcDbArc
 50
352.0
 51
0.0
  0
ARC
  5
157
330
1F
100
AcDbEntity
  8
0
  6
HIDDEN
 62
     7
370
     0
100
AcDbCircle
 10
89.3305286168
 20
71.5452914246
 30
0.0
 40
0.9962338214386793
100
AcDbArc
 50
0.0
 51
25.7988228126
  0
ARC
  5
158
330
1F
100
AcDbEntity
  8
0
  6
HIDDEN
 62
     7
370
     0
100
AcDbCircle
 10
89.3305286168
 20
148.8022620735
 30
0.0
 40
0.9962338214386743
100
AcDbArc
 50
348.75
 51
8.0
  0
LWPOLYLINE
  5
159
330
1F
100
AcDbEntity
  8
0
  6
HIDDEN
 62
     7
370
     0
100
AcDbPolyline
 90
        3
 70
   128
 43
0.0
 10
90.3076200847
 20
148.6079064965
 10
90.250928654
 20
148.4210198953
 10
90.2274655352
 20
148.3686885604
  0
LINE
  5
15A
330
1F
100
AcDbEntity
  8
0
  6
HIDDEN
 62
     7
370
     0
100
AcDbLine
 10
90.3267624382
 20
71.5452914246
 30
0.0
 11
90.3267624382
 21
148.8022620735
 31
0.0
  0
LWPOLYLINE
  5
15B
330
1F
100
AcDbEntity
  8
0
  6
HIDDEN
 62
     7
370
     0
100
AcDbPolyline
 90
        3
 70
   128
 43
0.0
 10
119.3897550824
 20
141.6499289324
 10
119.2415896111
 20
142.293192934
 10
119.1774655352
 20
143.0913964552
  0
LINE
  5
15C
330
1F
100
AcDbEntity
  8
0
  6
HIDDEN
 62
     7
370
     0
100
AcDbLine
 10
63.6881914774
 20
78.6737767491
 30
0.0
 11
69.2732955859
 21
78.6737767491
 31
0.0
  0
LINE
  5
15D
330
1F
100
AcDbEntity
  8
0
  6
HIDDEN
 62
     7
370
     0
100
AcDbLine
 10
69.2732955859
 20
141.6737767491
 30
0.0
 11
63.6881914774
 21
141.6737767491
 31
0.0
  0
ARC
  5
15E
330
1F
100
AcDbEntity
  8
0
  6
HIDDEN
 62
     7
370
     0
100
AcDbCircle
 10
63.6881914774
 20
79.6737767491
 30
0.0
 40
1.000000000000002
100
AcDbArc
 50
210.0
 51
270.0
  0
ARC
  5
15F
330
1F
100
AcDbEntity
  8
0
  6
HIDDEN
 62
     7
370
     0
100
AcDbCircle
 10
63.6881914774
 20
140.6737767491
 30
0.0
 40
1.0
100
AcDbArc
 50
90.0
 51
150.0
  0
ARC
  5
160
330
1F
100
AcDbEntity
  8
0
  6
HIDDEN
 62
     7
370
     0
100
AcDbCircle
 10
80.4806711904
 20
90.6737767491
 30
0.0
 40
12.0
100
AcDbArc
 50
273.1770759295
 51
324.3146652873
  0
ARC
  5
161
330
1F
100
AcDbEntity
  8
0
  6
HIDDEN
 62
     7
370
     0
100
AcDbCircle
 10
80.4806711904
 20
129.6737767491
 30
0.0
 40
12.00000000000001
100
AcDbArc
 50
35.6853347127
 51
86.8211274387
  0
LINE
  5
162
330
1F
100
AcDbEntity
  8
0
  6
HIDDEN
 62
     7
370
     0
100
AcDbLine
 10
62.8221660736
 20
141.1737767491
 30
0.0
 11
60.2240898623
 21
136.6737767491
 31
0.0
  0
LINE
  5
163
330
1F
100
AcDbEntity
  8
0
  6
HIDDEN
 62
     7
370
     0
100
AcDbLine
 10
60.2240898623
 20
83.6737767491
 30
0.0
 11
62.8221660736
 21
79.1737767491
 31
0.0
  0
ARC
  5
164
330
1F
100
AcDbEntity
  8
0
  6
HIDDEN
 62
     7
370
     0
100
AcDbCircle
 10
100.6774655352
 20
85.2987767491
 30
0.0
 40
2.000000000000014
100
AcDbArc
 50
234.3409123039
 51
0.0
  0
ARC
  5
165
330
1F
100
AcDbEntity
  8
0
  6
HIDDEN
 62
     7
370
     0
100
AcDbCircle
 10
100.6774655352
 20
135.0487767491
 30
0.0
 40
2.000000000000014
100
AcDbArc
 50
0.0
 51
125.6590876961
  0
LINE
  5
166
330
1F
100
AcDbEntity
  8
0
  6
HIDDEN
 62
     7
370
     0
100
AcDbLine
 10
90.2274655352
 20
83.6737767491
 30
0.0
 11
99.5115431536
 21
83.6737767491
 31
0.0
  0
LINE
  5
167
330
1F
100
AcDbEntity
  8
0
  6
HIDDEN
 62
     7
370
     0
100
AcDbLine
 10
99.5115431536
 20
136.6737767491
 30
0.0
 11
90.2274655352
 21
136.6737767491
 31
0.0
  0
LINE
  5
168
330
1F
100
AcDbEntity
  8
0
  6
HIDDEN
 62
     7
370
     0
100
AcDbLine
 10
55.4274655352
 20
83.6737767491
 30
0.0
 11
60.2240898623
 21
83.6737767491
 31
0.0
  0
LINE
  5
169
330
1F
100
AcDbEntity
  8
0
  6
HIDDEN
 62
     7
370
     0
100
AcDbLine
 10
60.2240898623
 20
136.6737767491
 30
0.0
 11
50.4274655352
 21
136.6737767491
 31
0.0
  0
LINE
  5
16A
330
1F
100
AcDbEntity
  8
0
  6
HIDDEN
 62
     7
370
     0
100
AcDbLine
 10
94.2274655352
 20
155.8453301282
 30
0.0
 11
94.2274655352
 21
152.1511905278
 31
0.0
  0
LINE
  5
16B
330
1F
100
AcDbEntity
  8
0
  6
HIDDEN
 62
     7
370
     0
100
AcDbLine
 10
104.2274655352
 20
152.1511905278
 30
0.0
 11
104.2274655352
 21
155.8508383866
 31
0.0
  0
LINE
  5
16C
330
1F
100
AcDbEntity
  8
0
  6
HIDDEN
 62
     7
370
     0
100
AcDbLine
 10
204.7274655352
 20
99.8863326284
 30
0.0
 11
204.7274655352
 21
103.6792577369
 31
0.0
  0
LINE
  5
16D
330
1F
100
AcDbEntity
  8
0
  6
HIDDEN
 62
     7
370
     0
100
AcDbLine
 10
204.7274655352
 20
98.0115401127
 30
0.0
 11
204.7274655352
 21
98.1341364792
 31
0.0
  0
LINE
  5
16E
330
1F
100
AcDbEntity
  8
0
  6
HIDDEN
 62
     7
370
     0
100
AcDbLine
 10
201.7274655352
 20
98.6920871379
 30
0.0
 11
201.7274655352
 21
98.0115401127
 31
0.0
  0
LINE
  5
16F
330
1F
100
AcDbEntity
  8
0
  6
HIDDEN
 62
     7
370
     0
100
AcDbLine
 10
201.7274655352
 20
103.5987634712
 30
0.0
 11
201.7274655352
 21
99.1960737057
 31
0.0
  0
LINE
  5
170
330
1F
100
AcDbEntity
  8
0
  6
HIDDEN
 62
     7
370
     0
100
AcDbLine
 10
114.5274655352
 20
97.1737767491
 30
0.0
 11
118.5274655352
 21
97.1737767491
 31
0.0
  0
LINE
  5
171
330
1F
100
AcDbEntity
  8
0
  6
HIDDEN
 62
     7
370
     0
100
AcDbLine
 10
118.5274655352
 20
123.1737767491
 30
0.0
 11
114.5274655352
 21
123.1737767491
 31
0.0
  0
LINE
  5
172
330
1F
100
AcDbEntity
  8
0
  6
HIDDEN
 62
     7
370
     0
100
AcDbLine
 10
204.4396340663
 20
97.7517081748
 30
0.0
 11
250.2274655352
 21
99.0237994954
 31
0.0
  0
LINE
  5
173
330
1F
100
AcDbEntity
  8
0
  6
HIDDEN
 62
     7
370
     0
100
AcDbLine
 10
250.2274655352
 20
101.5247641296
 30
0.0
 11
204.435253823
 21
100.2525511158
 31
0.0
  0
LINE
  5
174
330
1F
100
AcDbEntity
  8
0
  6
HIDDEN
 62
     7
370
     0
100
AcDbLine
 10
102.6774655352
 20
98.1737767491
 30
0.0
 11
103.4274655352
 21
98.9237767491
 31
0.0
  0
LINE
  5
175
330
1F
100
AcDbEntity
  8
0
  6
HIDDEN
 62
     7
370
     0
100
AcDbLine
 10
103.4274655352
 20
121.4237767491
 30
0.0
 11
102.6774655352
 21
122.1737767491
 31
0.0
  0
LINE
  5
176
330
1F
100
AcDbEntity
  8
0
  6
HIDDEN
 62
     7
370
     0
100
AcDbLine
 10
201.7512738313
 20
99.3425312026
 30
0.0
 11
201.5139750741
 21
98.9209089529
 31
0.0
  0
LINE
  5
177
330
1F
100
AcDbEntity
  8
0
  6
HIDDEN
 62
     7
370
     0
100
AcDbLine
 10
201.5139750741
 20
98.9209089529
 30
0.0
 11
201.7522306884
 21
98.5477080503
 31
0.0
  0
LINE
  5
178
330
1F
100
AcDbEntity
  8
0
  6
HIDDEN
 62
     7
370
     0
100
AcDbLine
 10
103.4274655352
 20
98.9237767491
 30
0.0
 11
114.5274655352
 21
98.9237767491
 31
0.0
  0
LINE
  5
179
330
1F
100
AcDbEntity
  8
0
  6
HIDDEN
 62
     7
370
     0
100
AcDbLine
 10
114.5274655352
 20
121.4237767491
 30
0.0
 11
103.4274655352
 21
121.4237767491
 31
0.0
  0
LINE
  5
17A
330
1F
100
AcDbEntity
  8
0
  6
HIDDEN
 62
     7
370
     0
100
AcDbLine
 10
95.1774655352
 20
160.1737767491
 30
0.0
 11
95.1774655352
 21
154.0737767491
 31
0.0
  0
ARC
  5
17B
330
1F
100
AcDbEntity
  8
0
  6
HIDDEN
 62
     7
370
     0
100
AcDbCircle
 10
201.6274655352
 20
101.2737767491
 30
0.0
 40
0.4000000000000057
100
AcDbArc
 50
180.0
 51
270.0
  0
ARC
  5
17C
330
1F
100
AcDbEntity
  8
0
  6
HIDDEN
 62
     7
370
     0
100
AcDbCircle
 10
201.6274655352
 20
119.0737767491
 30
0.0
 40
0.4000000000000057
100
AcDbArc
 50
90.0
 51
180.0
  0
LINE
  5
17D
330
1F
100
AcDbEntity
  8
0
  6
HIDDEN
 62
     7
370
     0
100
AcDbLine
 10
201.6274655352
 20
100.8737767491
 30
0.0
 11
204.3326915171
 21
100.8737767491
 31
0.0
  0
LINE
  5
17E
330
1F
100
AcDbEntity
  8
0
  6
HIDDEN
 62
     7
370
     0
100
AcDbLine
 10
204.3326915171
 20
119.4737767491
 30
0.0
 11
201.6274655352
 21
119.4737767491
 31
0.0
  0
ARC
  5
17F
330
1F
100
AcDbEntity
  8
0
  6
HIDDEN
 62
     7
370
     0
100
AcDbCircle
 10
204.3326915171
 20
119.0737767491
 30
0.0
 40
0.3999999999999915
100
AcDbArc
 50
70.0
 51
90.0
  0
ARC
  5
180
330
1F
100
AcDbEntity
  8
0
  6
HIDDEN
 62
     7
370
     0
100
AcDbCircle
 10
249.9274655352
 20
100.8737767491
 30
0.0
 40
0.3000000000000114
100
AcDbArc
 50
0.0
 51
90.0
  0
ARC
  5
181
330
1F
100
AcDbEntity
  8
0
  6
HIDDEN
 62
     7
370
     0
100
AcDbCircle
 10
249.9274655352
 20
119.4737767491
 30
0.0
 40
0.3000000000000114
100
AcDbArc
 50
270.0
 51
0.0
  0
LINE
  5
182
330
1F
100
AcDbEntity
  8
0
  6
HIDDEN
 62
     7
370
     0
100
AcDbLine
 10
204.4694995745
 20
100.8978997008
 30
0.0
 11
205.2274655352
 21
101.1737767491
 31
0.0
  0
LINE
  5
183
330
1F
100
AcDbEntity
  8
0
  6
HIDDEN
 62
     7
370
     0
100
AcDbLine
 10
205.2274655352
 20
119.1737767491
 30
0.0
 11
204.4694995745
 21
119.4496537974
 31
0.0
  0
LINE
  5
184
330
1F
100
AcDbEntity
  8
0
  6
HIDDEN
 62
     7
370
     0
100
AcDbLine
 10
205.2274655352
 20
101.1737767491
 30
0.0
 11
249.9274655352
 21
101.1737767491
 31
0.0
  0
LINE
  5
185
330
1F
100
AcDbEntity
  8
0
  6
HIDDEN
 62
     7
370
     0
100
AcDbLine
 10
249.9274655352
 20
119.1737767491
 30
0.0
 11
205.2274655352
 21
119.1737767491
 31
0.0
  0
LINE
  5
186
330
1F
100
AcDbEntity
  8
0
  6
HIDDEN
 62
     7
370
     0
100
AcDbLine
 10
81.6601781513
 20
72.5954971785
 30
0.0
 11
81.2274688648
 21
73.0737218959
 31
0.0
  0
LINE
  5
187
330
1F
100
AcDbEntity
  8
0
  6
HIDDEN
 62
     7
370
     0
100
AcDbLine
 10
69.2274659933
 20
73.7206832525
 30
0.0
 11
68.7468386881
 21
73.2424585417
 31
0.0
  0
LINE
  5
188
330
1F
100
AcDbEntity
  8
0
  6
HIDDEN
 62
     7
370
     0
100
AcDbLine
 10
68.7467203466
 20
147.1050890403
 30
0.0
 11
69.2274658106
 21
146.6268093685
 31
0.0
  0
LINE
  5
189
330
1F
100
AcDbEntity
  8
0
  6
HIDDEN
 62
     7
370
     0
100
AcDbLine
 10
81.2274655374
 20
147.2737817558
 30
0.0
 11
81.6602872071
 21
147.7520614287
 31
0.0
  0
LINE
  5
18A
330
1F
100
AcDbEntity
  8
0
  6
HIDDEN
 62
     7
370
     0
100
AcDbLine
 10
81.2274655352
 20
72.9735930533
 30
0.0
 11
81.2274655352
 21
78.707898822
 31
0.0
  0
LINE
  5
18B
330
1F
100
AcDbEntity
  8
0
  6
HIDDEN
 62
     7
370
     0
100
AcDbLine
 10
69.2274655352
 20
78.682256117
 30
0.0
 11
69.2274655352
 21
73.720721667
 31
0.0
  0
LINE
  5
18C
330
1F
100
AcDbEntity
  8
0
  6
HIDDEN
 62
     7
370
     0
100
AcDbLine
 10
81.2274655352
 20
141.6396546761
 30
0.0
 11
81.2274655352
 21
147.3737855818
 31
0.0
  0
LINE
  5
18D
330
1F
100
AcDbEntity
  8
0
  6
HIDDEN
 62
     7
370
     0
100
AcDbLine
 10
69.2274655352
 20
146.6267988692
 30
0.0
 11
69.2274655352
 21
141.6652973811
 31
0.0
  0
LINE
  5
18E
330
1F
100
AcDbEntity
  8
0
  6
HIDDEN
 62
     7
370
     0
100
AcDbLine
 10
118.5274655352
 20
104.1737767491
 30
0.0
 11
201.2274655352
 21
104.1737767491
 31
0.0
  0
LINE
  5
18F
330
1F
100
AcDbEntity
  8
0
  6
HIDDEN
 62
     7
370
     0
100
AcDbLine
 10
201.2274655352
 20
116.1737767491
 30
0.0
 11
118.5274655352
 21
116.1737767491
 31
0.0
  0
ARC
  5
190
330
1F
100
AcDbEntity
  8
0
  6
HIDDEN
 62
     7
370
     0
100
AcDbCircle
 10
204.3326915171
 20
101.2737767491
 30
0.0
 40
0.4000000000000057
100
AcDbArc
 50
270.0
 51
290.0
  0
LINE
  5
191
330
1F
100
AcDbEntity
  8
0
  6
HIDDEN
 62
     7
370
     0
100
AcDbLine
 10
162.6774655352
 20
86.1737767491
 30
0.0
 11
161.6774655352
 21
86.7511270183
 31
0.0
  0
LINE
  5
192
330
1F
100
AcDbEntity
  8
0
  6
HIDDEN
 62
     7
370
     0
100
AcDbLine
 10
156.6774655352
 20
86.7511270183
 30
0.0
 11
155.6774655352
 21
86.1737767491
 31
0.0
  0
LINE
  5
193
330
1F
100
AcDbEntity
  8
0
  6
HIDDEN
 62
     7
370
     0
100
AcDbLine
 10
155.6774655352
 20
134.1737767491
 30
0.0
 11
156.6774655352
 21
133.5964264799
 31
0.0
  0
LINE
  5
194
330
1F
100
AcDbEntity
  8
0
  6
HIDDEN
 62
     7
370
     0
100
AcDbLine
 10
161.6774655352
 20
133.5964264799
 30
0.0
 11
162.6774655352
 21
134.1737767491
 31
0.0
  0
LINE
  5
195
330
1F
100
AcDbEntity
  8
0
  6
HIDDEN
 62
     7
370
     0
100
AcDbLine
 10
156.6774655352
 20
133.5964264799
 30
0.0
 11
156.6774655352
 21
122.1737767491
 31
0.0
  0
LINE
  5
196
330
1F
100
AcDbEntity
  8
0
  6
HIDDEN
 62
     7
370
     0
100
AcDbLine
 10
161.6774655352
 20
122.1737767491
 30
0.0
 11
161.6774655352
 21
133.5964264799
 31
0.0
  0
LINE
  5
197
330
1F
100
AcDbEntity
  8
0
  6
HIDDEN
 62
     7
370
     0
100
AcDbLine
 10
156.6774655352
 20
122.1737767491
 30
0.0
 11
159.1774655352
 21
120.6716252015
 31
0.0
  0
LINE
  5
198
330
1F
100
AcDbEntity
  8
0
  6
HIDDEN
 62
     7
370
     0
100
AcDbLine
 10
159.1774655352
 20
120.6716252015
 30
0.0
 11
161.6774655352
 21
122.1737767491
 31
0.0
  0
LINE
  5
199
330
1F
100
AcDbEntity
  8
0
  6
HIDDEN
 62
     7
370
     0
100
AcDbLine
 10
161.6774655352
 20
98.1737767491
 30
0.0
 11
159.1774655352
 21
99.6759282966
 31
0.0
  0
LINE
  5
19A
330
1F
100
AcDbEntity
  8
0
  6
HIDDEN
 62
     7
370
     0
100
AcDbLine
 10
159.1774655352
 20
99.6759282966
 30
0.0
 11
156.6774655352
 21
98.1737767491
 31
0.0
  0
LINE
  5
19B
330
1F
100
AcDbEntity
  8
0
  6
HIDDEN
 62
     7
370
     0
100
AcDbLine
 10
161.6774655352
 20
86.7511270183
 30
0.0
 11
161.6774655352
 21
98.1737767491
 31
0.0
  0
LINE
  5
19C
330
1F
100
AcDbEntity
  8
0
  6
HIDDEN
 62
     7
370
     0
100
AcDbLine
 10
156.6774655352
 20
98.1737767491
 30
0.0
 11
156.6774655352
 21
86.7511270183
 31
0.0
  0
LINE
  5
19D
330
1F
100
AcDbEntity
  8
0
  6
HIDDEN
 62
     7
370
     0
100
AcDbLine
 10
204.7274655352
 20
116.6682957613
 30
0.0
 11
204.7274655352
 21
120.4543928052
 31
0.0
  0
LINE
  5
19E
330
1F
100
AcDbEntity
  8
0
  6
HIDDEN
 62
     7
370
     0
100
AcDbLine
 10
201.7274655352
 20
121.1538686467
 30
0.0
 11
201.7274655352
 21
116.7487900269
 31
0.0
  0
LINE
  5
19F
330
1F
100
AcDbEntity
  8
0
  6
HIDDEN
 62
     7
370
     0
100
AcDbLine
 10
201.7274655352
 20
122.1945920292
 30
0.0
 11
201.7274655352
 21
121.6521432936
 31
0.0
  0
LINE
  5
1A0
330
1F
100
AcDbEntity
  8
0
  6
HIDDEN
 62
     7
370
     0
100
AcDbLine
 10
204.4333244169
 20
120.0950559857
 30
0.0
 11
250.2274655352
 21
118.8227893686
 31
0.0
  0
LINE
  5
1A1
330
1F
100
AcDbEntity
  8
0
  6
HIDDEN
 62
     7
370
     0
100
AcDbLine
 10
250.2274655352
 20
121.3237540028
 30
0.0
 11
204.4374083345
 21
122.5959071593
 31
0.0
  0
LINE
  5
1A2
330
1F
100
AcDbEntity
  8
0
  6
HIDDEN
 62
     7
370
     0
100
AcDbLine
 10
94.2274655352
 20
157.7206482125
 30
0.0
 11
94.2274655352
 21
155.8453301282
 31
0.0
  0
LINE
  5
1A3
330
1F
100
AcDbEntity
  8
0
  6
HIDDEN
 62
     7
370
     0
100
AcDbLine
 10
104.2274655352
 20
155.8508383866
 30
0.0
 11
104.2274655352
 21
157.7263826453
 31
0.0
  0
LINE
  5
1A4
330
1F
100
AcDbEntity
  8
0
  6
HIDDEN
 62
     7
370
     0
100
AcDbLine
 10
201.7542191792
 20
121.8029601972
 30
0.0
 11
201.5139750741
 21
121.4266445452
 31
0.0
  0
LINE
  5
1A5
330
1F
100
AcDbEntity
  8
0
  6
HIDDEN
 62
     7
370
     0
100
AcDbLine
 10
201.5139750741
 20
121.4266445452
 30
0.0
 11
201.7515465134
 21
121.0045378057
 31
0.0
  0
LINE
  5
1A6
330
1F
100
AcDbEntity
  8
0
  6
HIDDEN
 62
     7
370
     0
100
AcDbLine
 10
244.7183533877
 20
101.621226
 30
0.0
 11
244.2330046396
 21
101.1077418949
 31
0.0
  0
LINE
  5
1A7
330
1F
100
AcDbEntity
  8
0
  6
HIDDEN
 62
     7
370
     0
100
AcDbLine
 10
244.288526387
 20
99.1092844168
 30
0.0
 11
244.8016360088
 21
98.6235397829
 31
0.0
  0
LINE
  5
1A8
330
1F
100
AcDbEntity
  8
0
  6
HIDDEN
 62
     7
370
     0
100
AcDbLine
 10
250.0534311236
 20
101.7700255166
 30
0.0
 11
244.7194933197
 21
101.6218364505
 31
0.0
  0
LINE
  5
1A9
330
1F
100
AcDbEntity
  8
0
  6
HIDDEN
 62
     7
370
     0
100
AcDbLine
 10
244.8028080757
 20
98.622993565
 30
0.0
 11
250.1367458796
 21
98.7711826312
 31
0.0
  0
LINE
  5
1AA
330
1F
100
AcDbEntity
  8
0
  6
HIDDEN
 62
     7
370
     0
100
AcDbLine
 10
250.1386999085
 20
98.7729739307
 30
0.0
 11
250.2274655352
 21
98.9373460061
 31
0.0
  0
LINE
  5
1AB
330
1F
100
AcDbEntity
  8
0
  6
HIDDEN
 62
     7
370
     0
100
AcDbLine
 10
250.2247099816
 20
101.4927636146
 30
0.0
 11
250.0554815945
 21
101.7683454713
 31
0.0
  0
LINE
  5
1AC
330
1F
100
AcDbEntity
  8
0
  6
HIDDEN
 62
     7
370
     0
100
AcDbLine
 10
249.9965918709
 20
118.5808441189
 30
0.0
 11
250.1658202579
 21
118.8564259756
 31
0.0
  0
LINE
  5
1AD
330
1F
100
AcDbEntity
  8
0
  6
HIDDEN
 62
     7
370
     0
100
AcDbLine
 10
250.2274655352
 20
121.302794322
 30
0.0
 11
250.0798101849
 21
121.5762156595
 31
0.0
  0
LINE
  5
1AE
330
1F
100
AcDbEntity
  8
0
  6
HIDDEN
 62
     7
370
     0
100
AcDbLine
 10
250.077856156
 20
121.578006959
 30
0.0
 11
244.7439183521
 21
121.7261960252
 31
0.0
  0
LINE
  5
1AF
330
1F
100
AcDbEntity
  8
0
  6
HIDDEN
 62
     7
370
     0
100
AcDbLine
 10
244.6606035961
 20
118.7273531397
 30
0.0
 11
249.9945414
 21
118.5791640736
 31
0.0
  0
LINE
  5
1B0
330
1F
100
AcDbEntity
  8
0
  6
HIDDEN
 62
     7
370
     0
100
AcDbLine
 10
244.7427462851
 20
121.7256498073
 30
0.0
 11
244.2296366633
 21
121.2399051734
 31
0.0
  0
LINE
  5
1B1
330
1F
100
AcDbEntity
  8
0
  6
HIDDEN
 62
     7
370
     0
100
AcDbLine
 10
244.174114916
 20
119.2414476953
 30
0.0
 11
244.6594636641
 21
118.7279635902
 31
0.0
  0
DIMENSION
  5
1B2
330
1F
100
AcDbEntity
  8
VERMASSUNG
100
AcDbDimension
  2
*D1
 10
35.7976271594
 20
60.1737767491
 30
0.0
 11
35.7976271594
 21
109.2678042362
 31
0.0
 70
   160
  1
HSK A %%c<>
 71
     2
 42
-1.0
  3
SLDDIMSTYLE0
100
AcDbAlignedDimension
 13
90.7274655352
 23
160.1737767491
 33
0.0
 14
90.7274655352
 24
60.1737767491
 34
0.0
 50
90.0
100
AcDbRotatedDimension
  0
DIMENSION
  5
1BF
330
1F
100
AcDbEntity
  8
VERMASSUNG
100
AcDbDimension
  2
*D2
 10
250.2274655352
 20
164.293716143
 30
0.0
 11
184.7024655352
 21
164.293716143
 31
0.0
 70
   160
 71
     2
 42
-1.0
  3
SLDDIMSTYLE0
100
AcDbAlignedDimension
 13
119.1774655352
 23
158.1425165699
 33
0.0
 14
250.2274655352
 24
127.8996362275
 34
0.0
100
AcDbRotatedDimension
  0
DIMENSION
  5
1C9
330
1F
100
AcDbEntity
  8
VERMASSUNG
100
AcDbDimension
  2
*D3
 10
250.2274655352
 20
170.293716143
 30
0.0
 11
170.2274655352
 21
170.293716143
 31
0.0
 70
   160
 71
     2
 42
-1.0
  3
SLDDIMSTYLE0
100
AcDbAlignedDimension
 13
90.2274655352
 23
159.6737767491
 33
0.0
 14
250.2274655352
 24
127.8996362275
 34
0.0
100
AcDbRotatedDimension
  0
DIMENSION
  5
1D3
330
1F
100
AcDbEntity
  8
VERMASSUNG
100
AcDbDimension
  2
*D4
 10
40.3274655352
 20
176.293716143
 30
0.0
 11
145.2774655352
 21
176.293716143
 31
0.0
 70
   160
 71
     2
 42
-1.0
  3
SLDDIMSTYLE0
100
AcDbAlignedDimension
 13
250.2274655352
 23
127.8996362275
 33
0.0
 14
40.3274655352
 24
140.6764464916
 34
0.0
100
AcDbRotatedDimension
  0
DIMENSION
  5
1DD
330
1F
100
AcDbEntity
  8
VERMASSUNG
100
AcDbDimension
  2
*D5
 10
258.4693912455
 20
101.1737767491
 30
0.0
 11
258.4693912455
 21
110.1737767491
 31
0.0
 70
   160
  1
%%c<>
 71
     2
 42
-1.0
  3
SLDDIMSTYLE0
100
AcDbAlignedDimension
 13
249.9274655352
 23
119.1737767491
 33
0.0
 14
249.9274655352
 24
101.1737767491
 34
0.0
 50
90.0
100
AcDbRotatedDimension
  0
DIMENSION
  5
1E8
330
1F
100
AcDbEntity
  8
VERMASSUNG
100
AcDbDimension
  2
*D6
 10
264.4693912455
 20
86.1737767491
 30
0.0
 11
264.4693912455
 21
110.1737767491
 31
0.0
 70
   160
  1
%%c<>
 71
     2
 42
-1.0
  3
SLDDIMSTYLE0
100
AcDbAlignedDimension
 13
239.5049309327
 23
134.1737767491
 33
0.0
 14
239.5049309327
 24
86.1737767491
 34
0.0
 50
90.0
100
AcDbRotatedDimension
  0
LINE
  5
1F3
330
1F
100
AcDbEntity
  8
VERMASSUNG
  6
CENTERX2
 62
     7
370
     0
100
AcDbLine
 10
38.0769961743
 20
110.1737767491
 30
0.0
 11
252.3409224116
 21
110.1737767491
 31
0.0
  0
OLE2FRAME
  5
1F4
330
1F
100
AcDbEntity
  8
0
100
AcDbOle2Frame
 70
     2
  3
Bitmap Image
 10
13.8511154363
 20
38.264191557
 30
0.0
 11
51.6290888628
 21
31.9806341108
 31
0.0
 71
     2
 72
     0
 73
     1
 90
    12928
310
80552BED0767C5B32B40DDAF6807D121434000000000000000006FFBDDFB85D0
310
4940DDAF6807D121434000000000000000006FFBDDFB85D04940416F4BD60AFB
310
3F4000000000000000002BED0767C5B32B40416F4BD60AFB3F40000000000000
310
0000000000000100000000010000010000000100000000000100000000320000
310
D0CF11E0A1B11AE1000000000000000000000000000000003E000300FEFF0900
310
0600000000000000000000000100000001000000000000000010000002000000
310
01000000FEFFFFFF0000000000000000FFFFFFFFFFFFFFFFFFFFFFFFFFFFFFFF
310
FFFFFFFFFFFFFFFFFFFFFFFFFFFFFFFFFFFFFFFFFFFFFFFFFFFFFFFFFFFFFFFF
310
FFFFFFFFFFFFFFFFFFFFFFFFFFFFFFFFFFFFFFFFFFFFFFFFFFFFFFFFFFFFFFFF
310
FFFFFFFFFFFFFFFFFFFFFFFFFFFFFFFFFFFFFFFFFFFFFFFFFFFFFFFFFFFFFFFF
310
FFFFFFFFFFFFFFFFFFFFFFFFFFFFFFFFFFFFFFFFFFFFFFFFFFFFFFFFFFFFFFFF
310
FFFFFFFFFFFFFFFFFFFFFFFFFFFFFFFFFFFFFFFFFFFFFFFFFFFFFFFFFFFFFFFF
310
FFFFFFFFFFFFFFFFFFFFFFFFFFFFFFFFFFFFFFFFFFFFFFFFFFFFFFFFFFFFFFFF
310
FFFFFFFFFFFFFFFFFFFFFFFFFFFFFFFFFFFFFFFFFFFFFFFFFFFFFFFFFFFFFFFF
310
FFFFFFFFFFFFFFFFFFFFFFFFFFFFFFFFFFFFFFFFFFFFFFFFFFFFFFFFFFFFFFFF
310
FFFFFFFFFFFFFFFFFFFFFFFFFFFFFFFFFFFFFFFFFFFFFFFFFFFFFFFFFFFFFFFF
310
FFFFFFFFFFFFFFFFFFFFFFFFFFFFFFFFFFFFFFFFFFFFFFFFFFFFFFFFFFFFFFFF
310
FFFFFFFFFFFFFFFFFFFFFFFFFFFFFFFFFFFFFFFFFFFFFFFFFFFFFFFFFFFFFFFF
310
FFFFFFFFFFFFFFFFFFFFFFFFFFFFFFFFFFFFFFFFFFFFFFFFFFFFFFFFFFFFFFFF
310
FFFFFFFFFFFFFFFFFFFFFFFFFFFFFFFFFFFFFFFFFFFFFFFFFFFFFFFFFFFFFFFF
310
FDFFFFFFFEFFFFFFFEFFFFFFFEFFFFFF05000000060000000700000008000000
310
090000000A0000000B0000000C0000000D0000000E0000000F00000010000000
310
11000000120000001300000014000000150000001600000017000000FEFFFFFF
310
FFFFFFFFFFFFFFFFFFFFFFFFFFFFFFFFFFFFFFFFFFFFFFFFFFFFFFFFFFFFFFFF
310
FFFFFFFFFFFFFFFFFFFFFFFFFFFFFFFFFFFFFFFFFFFFFFFFFFFFFFFFFFFFFFFF
310
FFFFFFFFFFFFFFFFFFFFFFFFFFFFFFFFFFFFFFFFFFFFFFFFFFFFFFFFFFFFFFFF
310
FFFFFFFFFFFFFFFFFFFFFFFFFFFFFFFFFFFFFFFFFFFFFFFFFFFFFFFFFFFFFFFF
310
FFFFFFFFFFFFFFFFFFFFFFFFFFFFFFFFFFFFFFFFFFFFFFFFFFFFFFFFFFFFFFFF
310
FFFFFFFFFFFFFFFFFFFFFFFFFFFFFFFFFFFFFFFFFFFFFFFFFFFFFFFFFFFFFFFF
310
FFFFFFFFFFFFFFFFFFFFFFFFFFFFFFFFFFFFFFFFFFFFFFFFFFFFFFFFFFFFFFFF
310
FFFFFFFFFFFFFFFFFFFFFFFFFFFFFFFFFFFFFFFFFFFFFFFFFFFFFFFFFFFFFFFF
310
FFFFFFFFFFFFFFFFFFFFFFFFFFFFFFFFFFFFFFFFFFFFFFFFFFFFFFFFFFFFFFFF
310
FFFFFFFFFFFFFFFFFFFFFFFFFFFFFFFFFFFFFFFFFFFFFFFFFFFFFFFFFFFFFFFF
310
FFFFFFFFFFFFFFFFFFFFFFFFFFFFFFFFFFFFFFFFFFFFFFFFFFFFFFFFFFFFFFFF
310
FFFFFFFFFFFFFFFFFFFFFFFFFFFFFFFFFFFFFFFFFFFFFFFFFFFFFFFFFFFFFFFF
310
FFFFFFFFFFFFFFFFFFFFFFFFFFFFFFFFFFFFFFFFFFFFFFFFFFFFFFFFFFFFFFFF
310
52006F006F007400200045006E00740072007900000000000000000000000000
310
0000000000000000000000000000000000000000000000000000000000000000
310
16000500FFFFFFFFFFFFFFFF020000000A00030000000000C000000000000046
310
0000000000000000000000005032EA750900CC0103000000C000000000000000
310
01004F006C006500000000000000000000000000000000000000000000000000
310
0000000000000000000000000000000000000000000000000000000000000000
310
0A000200FFFFFFFFFFFFFFFFFFFFFFFF00000000000000000000000000000000
310
0000000000000000000000000000000000000000000000001400000000000000
310
010043006F006D0070004F0062006A0000000000000000000000000000000000
310
0000000000000000000000000000000000000000000000000000000000000000
310
120002010100000003000000FFFFFFFF00000000000000000000000000000000
310
0000000000000000000000000000000000000000010000004D00000000000000
310
01004F006C006500310030004E00610074006900760065000000000000000000
310
0000000000000000000000000000000000000000000000000000000000000000
310
1A000200FFFFFFFFFFFFFFFFFFFFFFFF00000000000000000000000000000000
310
0000000000000000000000000000000000000000040000002426000000000000
310
FEFFFFFF02000000FEFFFFFFFFFFFFFFFFFFFFFFFFFFFFFFFFFFFFFFFFFFFFFF
310
FFFFFFFFFFFFFFFFFFFFFFFFFFFFFFFFFFFFFFFFFFFFFFFFFFFFFFFFFFFFFFFF
310
FFFFFFFFFFFFFFFFFFFFFFFFFFFFFFFFFFFFFFFFFFFFFFFFFFFFFFFFFFFFFFFF
310
FFFFFFFFFFFFFFFFFFFFFFFFFFFFFFFFFFFFFFFFFFFFFFFFFFFFFFFFFFFFFFFF
310
FFFFFFFFFFFFFFFFFFFFFFFFFFFFFFFFFFFFFFFFFFFFFFFFFFFFFFFFFFFFFFFF
310
FFFFFFFFFFFFFFFFFFFFFFFFFFFFFFFFFFFFFFFFFFFFFFFFFFFFFFFFFFFFFFFF
310
FFFFFFFFFFFFFFFFFFFFFFFFFFFFFFFFFFFFFFFFFFFFFFFFFFFFFFFFFFFFFFFF
310
FFFFFFFFFFFFFFFFFFFFFFFFFFFFFFFFFFFFFFFFFFFFFFFFFFFFFFFFFFFFFFFF
310
FFFFFFFFFFFFFFFFFFFFFFFFFFFFFFFFFFFFFFFFFFFFFFFFFFFFFFFFFFFFFFFF
310
FFFFFFFFFFFFFFFFFFFFFFFFFFFFFFFFFFFFFFFFFFFFFFFFFFFFFFFFFFFFFFFF
310
FFFFFFFFFFFFFFFFFFFFFFFFFFFFFFFFFFFFFFFFFFFFFFFFFFFFFFFFFFFFFFFF
310
FFFFFFFFFFFFFFFFFFFFFFFFFFFFFFFFFFFFFFFFFFFFFFFFFFFFFFFFFFFFFFFF
310
FFFFFFFFFFFFFFFFFFFFFFFFFFFFFFFFFFFFFFFFFFFFFFFFFFFFFFFFFFFFFFFF
310
FFFFFFFFFFFFFFFFFFFFFFFFFFFFFFFFFFFFFFFFFFFFFFFFFFFFFFFFFFFFFFFF
310
FFFFFFFFFFFFFFFFFFFFFFFFFFFFFFFFFFFFFFFFFFFFFFFFFFFFFFFFFFFFFFFF
310
FFFFFFFFFFFFFFFFFFFFFFFFFFFFFFFFFFFFFFFFFFFFFFFFFFFFFFFFFFFFFFFF
310
0100000200000000000000000000000000000000610072003D0082005C003107
310
9806250000000000604E280000000000680061007200650064005C003B004300
310
0100FEFF030A0000FFFFFFFF0A00030000000000C00000000000004607000000
310
5042727573680007000000504272757368000700000050427275736800F439B2
310
71000000000000000000000000004100540049002E004100430045005C004300
310
6F00720065002D005300740061007400690063003B0043003A005C0050007200
310
6F006700720061006D002000460069006C006500730020002800780038003600
310
29005C0043006F006D006D006F006E002000460069006C00650073005C004100
310
750074006F006400650073006B0020005300680061007200650064005C003B00
310
43003A005C00500072006F006700720061006D002000460069006C0065007300
310
5C004E006F0072006D0061006E005C004E0070006D005C00420069006E000000
310
43003A005C00500072006F006700720061006D002000460069006C0065007300
310
5C0053006F006C006900640057006F0072006B007300200043006F0072007000
310
5C0053006F006C006900640057006F0072006B00730020002800320029005C00
310
730065007400750070005C0069003300380036005C0073007700610063007400
310
770069007A002E006500780065000000220043003A005C00500072006F006700
310
20260000424D0E260000000000003E00000028000000B40200006E0000000100
310
01000000000000000000130B0000130B00000200000002000000000000FFFFFF
310
FFFFFFFFFFFFFFFFFFFFFFFFFFFFFFFFFFFFFFFFFFFFFFFFFFFFFFFFFFFFFFFF
310
FFFFFFFFFFFFFFFFFFFFFFFFFFFFFFFFFFFFFFFFFFFFFFFFFFFFFFFFFFFFFFFF
310
FFFFFFFFFFFFFFFFFFFFFFFFFFFFFFFFFFFFFFFFFFFFFFFFF000FFFFFFFFFFFF
310
FFFFFFFFFFFFFFFFFFFFFFFFFFFFFFFFFFFFFFFFFFFFFFFFFFFFFFFFFFFFFFFF
310
FFFFFFFFFFFFFFFFFFFFFFFFFFFFFFFFFFFFFFFFFFFFFFFFFFFFFFFFFFFFFFFF
310
FFFFFFFFFFFFFFFFFFFFFFFFFFFFFFFFF000FFFFFFFFFFFFFFFFFFFFFFFFFFFF
310
FFFFFFFFFFFFFFFFFFFFFFFFFFFFFFFFFFFFFFFFFFFFFFFFFFFFFFFFFFFFFFFF
310
FFFFFFFFFFFFFFFFFFFFFFFFFFFFFFFFFFFFFFFFFFFFFFFFFFFFFFFFFFFFFFFF
310
FFFFFFFFFFFFFFFFF000FFFFFFFFFFFFFFFFFFFFFFFFFFFFFFFFFFFFFFFFFFFF
310
FFFFFFFFFFFFFFFFFFFFFFFFFFFFFFFFFFFFFFFFFFFFFFFFFFFFFFFFFFFFFFFF
310
FFFFFFFFFFFFFFFFFFFFFFFFFFFFFFFFFFFFFFFFFFFFFFFFFFFFFFFFFFFFFFFF
310
F000FFFFFFFFFFFFFFFFFFFFFFFFFFFFFFFFFFFFFFFFFFFFFFFFFFFFFFFFFFFF
310
FFFFFFFFFFFFFFFFFFFFFFFFFFFFFFFFFFFFFFFFFFFFFFFFFFFFFFFFFFFFFFFF
310
FFFFFFFFFFFFFFFFFFFFFFFFFFFFFFFFFFFFFFFFFFFFFFFFF000FFFFFFFFFFFF
310
FFFFFFFFFFFFFFFFFFFFFFFFFFFFFFFFFFFFFFFFFFFFFFFFFFFFFFFFFFFFFFFF
310
FFFFFFFFFFFFFFFFFFFFFFFFFFFFFFFFFFFFFFFFFFFFFFFFFFFFFFFFFFFFFFFF
310
FFFFFFFFFFFFFFFFFFFFFFFFFFFFFFFFF000FFFFFFFFFFFFFFFFFFFFFFFFFFFF
310
FFFFFFFFFFFFFFFFFFFFFFFFFFFFFFFFFFFFFFFFFFFFFFFFFFFFFFFFFFFFFFFF
310
FFFFFFFFFFFFFFFFFFFFFFFFFFFFFFFFFFFFFFFFFFFFFFFFFFFFFFFFFFFFFFFF
310
FFFFFFFFFFFFFFFFF000FFFFFFFFFFFFFFFFFFFFFFFFFFFFFFFFFFFFFFFFFFFF
310
FFFFFFFFFFFFFFFFFFFFFFFFFFFFFFFFFFFFFFFFFFFFFFFFFFFFFFFFFFFFFFFF
310
FFFFFFFFFFFFFFFFFFFFFFFFFFFFFFFFFFFFFFFFFFFFFFFFFFFFFFFFFFFFFFFF
310
F000FFFFFFFFFFFFFFFFFFFFFFFFFFFFFFFFFFFFFFFFFFFFFFFFFFFFFFFFFFFF
310
FFFFFFFFFFFFFFFFFFFFFFFFFFFFFFFFFFFFFFFFFFFFFFFFFFFFFFFFFFFFFFFF
310
FFFFFFFFFFFFFFFFFFFFFFFFFFFFFFFFFFFFFFFFFFFFFFFFF000FFFFFFFFFFFF
310
FFFFFFFFFFFFFFFFFFFFFFFFFFFFFFFFFFFFFFFFFFFFFFFFFFFFFFFFFFFFFFFF
310
FFFFFFFFFFFFFFFFFFFFFFFFFFFFFFFFFFFFFFFFFFFFFFFFFFFFFFFFFFFFFFFF
310
FFFFFFFFFFFFFFFFFFFFFFFFFFFFFFFFF000FFFFFFFFFFFFFFFFFFFFFFFFFFFF
310
FFFFFFFFFFFFFFFFFFFFFFFFFFFFFFFFFFFFFFFFFFFFFFFFFFFFFFFFFFFFFFFF
310
FFFFFFFFFFFFFFFFFFFFFFFFFFFFFFFFFFFFFFFFFFFFFFFFFFFFFFFFFFFFFFFF
310
FFFFFFFFFFFFFFFFF000FFFFFFFFFFFFFFFFFFFFFFFFFFFFFFFFFFFFFFFFFFFF
310
FFFFFFFFFFFFFFFFFFFFFFFFFFFFFFFFFFFFFFFFFFFFFFFFFFFFFFFFFFFFFFFF
310
FFFFFFFFFFFFFFFFFFFFFFFFFFFFFFFFFFFFFFFFFFFFFFFFFFFFFFFFFFFFFFFF
310
F000FFFFFFFFFFFFFFFFFFFFFFFFFFFFFFFFFFFFFFFFFFFFFFFFFFFFFFFFFFFF
310
FFFFFFFFFFFFFFFFFFFFFFFFFFFFFFFFFFFFFFFFFFFFFFFFFFFFFFFFFFFFFFFF
310
FFFFFFFFFFFFFFFFFFFFFFFFFFFFFFFFFFFFFFFFFFFFFFFFF000FFFFFFFFFFFF
310
FFFFFFFFFFFFFFFFFFFFFFFFFFFFFFFFFFFFFFFFFFFFFFFFFFFFFFFFFFFFFFFF
310
FFFFFFFFFFFFFFFFFFFFFFFFFFFFFFFFFFFFFFFFFFFFFFFFFFFFFFFFFFFFFFFF
310
FFFFFFFFFFFFFFFFFFFFFFFFFFFFFFFFF000FFFFFFFFFFFFFFFFFFFFFFFFFFFF
310
FFFFFFFFFFFFFFFFFFFFFFFFFFFFFFFFFFFFFFFFFFFFFFFFFFFFFFFFFFFFFFFF
310
FFFFFFFFFFFFFFFFFFFFFFFFFFFFFFFFFFFFFFFFFFFFFFFFFFFFFFFFFFFFFFFF
310
FFFFFFFFFFFFFFFFF000FFFFFFFFFFFFFFFFFFFFFFFFFFFFFFFFFFFFFFFFFFFF
310
FFFFFFFFFFFFFFFFFFFFFFFFFFFFFFFFFFFFFFFFFFFFFFFFFFFFFFFFFFFFFFFF
310
FFFFFFFFFFFFFFFFFFFFFFFFFFFFFFFFFFFFFFFFFFFFFFFFFFFFFFFFFFFFFFFF
310
F000FFFFFFFFFFFFFFFFFFFFFFFFFFFFFFFFFFFFFFFFFFFFFFFFFFFFFFFFFFFF
310
FFFFFFFFFFFFFFFFFFFFFFFFFFFFFFFFFFFFFFFFFFFFFFFFFFFFFFFFFFFFFFFF
310
FFFFFFFFFFFFFFFFFFFFFFFFFFFFFFFFFFFFFFFFFFFFFFFFF000FFFFFFFFFFFF
310
FFFFFFFFFFFFFFFFFFFFFFFFFFFFFFFFFFFFFFFFFFFFFFFFFFFFFFFFFFFFFFFF
310
FFFFFFFFFFFFFFFFFFFFFFFFFFFFFFFFFFFFFFFFFFFFFFFFFFFFFFFFFFFFFFFF
310
FFFFFFFFFFFFFFFFFFFFFFFFFFFFFFFFF000FFFFFFFFFFFFFFFFFFFFFFFFFFFF
310
FFFFFFFFFFFFFFFFFFFFFFFFFFFFFFFFFFFFFFFFFFFFFFFFFFFFFFFFFFFFFFFF
310
FFFFFFFFFFFFFFFFFFFFFFFFFFFFFFFFFFFFFFFFFFFFFFFFFFFFFFFFFFFFFFFF
310
FFFFFFFFFFFFFFFFF000FFFFF80003FFFFFFFFFFFFFFFFFFFFFFFFFFFFFFFFFF
310
FFFFF00007FFFFFFFFFF00007FFFFFF800000000000000007FFFFFFFFFFFFFFF
310
FFFFFFFC001FFFFFFFFFFFFFFC001FFFFFFFFFFFFFFFFFFFFFFFFFFE0007FFFF
310
F000FFFF8000007FFFFFFFF8000FFFFFC0007FFFFF80007FFFFF0000007FFFFF
310
FFF8000007FFFFF800000000000000007FFFFFF0001FFFFFFFFFFFC00001FFFF
310
FFFFFFFFC00001FFFFFFFF000000000003FFFFE000007FFFF000FFFE0000000F
310
FFFFFFF0000FFFFF80007FFFFF80007FFFFC0000001FFFFFFFC0000001FFFFF8
310
00000000000000007FFFFFF0001FFFFFFFFFFE0000003FFFFFFFFFFE0000003F
310
FFFFFF000000000003FFFF0000000FFFF000FFF800000003FFFFFFF00007FFFF
310
80007FFFFF80007FFFF000000007FFFFFF000000003FFFF80000000000000000
310
7FFFFFF0001FFFFFFFFFF80000000FFFFFFFFFF80000000FFFFFFF0000000000
310
03FFFC00000003FFF000FFE000000000FFFFFFF00007FFFF80003FFFFF80007F
310
FFC000000001FFFFFC000000001FFFF800000000000000007FFFFFF0001FFFFF
310
FFFFE000000003FFFFFFFFE000000003FFFFFF000000000003FFF000000000FF
310
F000FF80000000007FFFFFF00007FFFF80003FFFFF80007FFF8000000000FFFF
310
F80000000007FFF800000000000000007FFFFFF0001FFFFFFFFFC000000001FF
310
FFFFFFC000000001FFFFFF000000000003FFC0000000007FF000FF0000000000
310
3FFFFFE00007FFFF00003FFFFF80007FFE00000000003FFFF00000000003FFF8
310
00000000000000007FFFFFF0001FFFFFFFFF8000000000FFFFFFFF8000000000
310
FFFFFF000000000003FF80000000003FF000FE00000000001FFFFFE00003FFFF
310
00003FFFFF80007FFC00000000001FFFE00000000001FFF8000001FFFE000000
310
7FFFFFF0001FFFFFFFFE00000000003FFFFFFE00000000003FFFFF0000000000
310
03FF00000000001FF000FC00000000000FFFFFE00003FFFF00001FFFFF80007F
310
F800000000001FFFC00000000000FFF8000001FFFE0000007FFFFFF0001FFFFF
310
FFFC00000000001FFFFFFC00000000001FFFFF000000000003FE00000000000F
310
F000F8000000000007FFFFE00003FFFF00001FFFFF80007FF800000000000FFF
310
800000000000FFF8000001FFFE0000007FFFFFF0001FFFFFFFF800000000000F
310
FFFFF800000000000FFFFF000000000003FC000000000007F000F80000000000
310
03FFFFC00003FFFE00001FFFFF80007FF0000000000007FF0000000000007FF8
310
000001FFFE0000007FFFFFF0001FFFFFFFF0000000000007FFFFF00000000000
310
07FFFF000000000003F8000000000003F000F0000000000003FFFFC00001FFFE
310
00001FFFFF80007FE0000000000007FE0000000000003FF8000001FFFE000000
310
7FFFFFF0001FFFFFFFF0000000000007FFFFF0000000000007FFFF0000000000
310
03F800001F800003F000E00001FFF00001FFFFC00001FFFE00000FFFFF80007F
310
E00001FFE00003FE00001FFF00003FF8000001FFFE0000007FFFFFF0001FFFFF
310
FFE000003E000003FFFFE000003E000003FFFF000000000003F00001FFF80001
310
F000E00007FFFC0001FFFFC00001FFFE00000FFFFF80007FC0000FFFFC0003FC
310
0000FFFFC0001FF8000001FFFE0000007FFFFFF0001FFFFFFFC00003FFE00001
310
FFFFC00003FFE00001FFFF0001FFFFFFFFF00007FFFE0001F000E0000FFFFF00
310
00FFFF800001FFFC00000FFFFF80007FC0001FFFFE0001FC0001FFFFE0001FF8
310
000001FFFE0000007FFFFFF0001FFFFFFF80000FFFF80000FFFF80000FFFF800
310
00FFFF0003FFFFFFFFE0000FFFFF8000F000C0003FFFFF8000FFFF800000FFFC
310
000007FFFF80007F80003FFFFF0001FC0003FFFFF0001FF8000001FFFE000000
310
7FFFFFF0001FFFFFFF80003FFFFE0000FFFF80003FFFFE0000FFFF0003FFFFFF
310
FFE0003FFFFF8000F000C0003FFFFF8000FFFF800000FFFC000007FFFF80007F
310
80007FFFFF8001F80007FFFFF8000FF8000001FFFE0000007FFFFFF0001FFFFF
310
FF00007FFFFF00007FFF00007FFFFF00007FFF0003FFFFFFFFE0003FFFFFC000
310
F000C0007FFFFFC000FFFF000000FFFC000007FFFF80007F8000FFFFFF8000F8
310
000FFFFFF8000FF8000001FFFE0000007FFFFFF0001FFFFFFF0000FFFFFF8000
310
7FFF0000FFFFFF80007FFF0003FFFFFFFFC0007FFFFFC00070008000FFFFFFC0
310
00FFFF000000FFF8000007FFFF80007F8000FFFFFF8000F8000FFFFFF8000FF8
310
000001FFFE0000007FFFFFF0001FFFFFFE0001FFFFFFC0003FFE0001FFFFFFC0
310
003FFF0003FFFFFFFFC0007FFFFFE00070008000FFFFFFC0007FFF0000007FF8
310
000003FFFF80007F0001FFFFFF8000F8000FFFFFF8000FF8000001FFFE000000
310
7FFFFFF0001FFFFFFE0001FFFFFFC0003FFE0001FFFFFFC0003FFF0003FFFFFF
310
FFC000FFFFFFE00070008000FFFFFFC0007FFF0000007FF8000003FFFF80007F
310
0001FFFFFF8000F8001FFFFFF8000FF8000001FFFE0000007FFFFFF0001FFFFF
310
FE0003FFFFFFE0003FFE0003FFFFFFE0003FFF0003FFFFFFFFC000FFFFFFE000
310
70008000FFFFFFC0007FFE0000007FF8000003FFFF80007F0001FFFFFF8000F0
310
001FFFFFF8000FF8000001FFFE0000007FFFFFF0001FFFFFFC0003FFFFFFE000
310
1FFC0003FFFFFFE0001FFF0003FFFFFFFFC000FFFFFFC00070008000FFFFFF80
310
007FFE0000007FF0000003FFFF80007F0001FFFFFF0000F0001FFFFFF8000FF8
310
000001FFFE0000007FFFFFF0001FFFFFFC0007FFFFFFF0001FFC0007FFFFFFF0
310
001FFF0003FFFFFFFFC000FFFFFFC00070008001FFFFFF0000FFFE0000003FF0
310
000001FFFF80007F0001FFFFFF0000F8001FFFFFF0000FF8000001FFFE000000
310
7FFFFFF0001FFFFFFC0007FFFFFFF0001FFC0007FFFFFFF0001FFF0003FFFFFF
310
FFC001FFFFFF80007000FFFFFFFFFE0000FFFE0008003FF0008001FFFF80007F
310
FFFFFFFFFC0000FFFFFFFFFFE0000FF8000001FFFE0000007FFFFFF0001FFFFF
310
F8000FFFFFFFF8000FF8000FFFFFFFF8000FFF0003FFFFFFFFFFFFFFFFFF0000
310
7000FFFFFFFFFC0000FFFC0008003FF0008001FFFF80007FFFFFFFFFF80001FF
310
FFFFFFFF80000FF8000001FFFE0000007FFFFFF0001FFFFFF8000FFFFFFFF800
310
0FF8000FFFFFFFF8000FFF0003FFFFFFFFFFFFFFFFFE0000F000FFFFFFFFE000
310
00FFFC000C003FE000C001FFFF80007FFFFFFFFFC00001FFFFFFFFFE00001FF8
310
000001FFFE0000007FFFFFF0001FFFFFF8000FFFFFFFF8000FF8000FFFFFFFF8
310
000FFF0003FFFFFFFFFFFFFFFFF00000F000FFFFFFFE000001FFFC000C001FE0
310
00C000FFFF80007FFFFFFFFE000001FFFFFFFFE000001FF80FFFFFFFFFFFFFC0
310
7FFFFFF0001FFFFFF8000FFFFFFFF8000FF8000FFFFFFFF8000FFF0003FFFFFF
310
FFFFFFFFFF800000F000FFFFFFC0000001FFFC001C001FE001C000FFFF80007F
310
FFFFFF80000003FFFFFFF80000001FF80FFFFFFFFFFFFFC07FFFFFF0001FFFFF
310
F8001FFFFFFFFC000FF8001FFFFFFFFC000FFF0003FFFFFFFFFFFFFFF0000001
310
F000FFFFF800000001FFF8001C001FE001C000FFFF80007FFFFFF800000003FF
310
FFFF800000003FF80FFFFFFFFFFFFFC07FFFFFF0001FFFFFF8001FFFFFFFFC00
310
0FF8001FFFFFFFFC000FFF0003FFFFFFFFFFFFFE00000001F000FFFFC0000000
310
03FFF8001E001FC001E000FFFF80007FFFFF8000000007FFFFFC000000003FF8
310
0FFFFFFFFFFFFFC07FFFFFF0001FFFFFF8001FFFFFFFFC000FF8001FFFFFFFFC
310
000FFF0003FFFFFFFFFFFFE000000003F000FFFE0000000007FFF8001E000FC0
310
01E0007FFF80007FFFFE0000000007FFFFE0000000007FF80FFFFFFFFFFFFFC0
310
7FFFFFF0001FFFFFF0001FFFFFFFFC0007F0001FFFFFFFFC0007FF0003FFFFFF
310
FFFFFF0000000003F000FFF80000000007FFF8001E000FC003E0007FFF80007F
310
FFF0000000000FFFFF8000000000FFF80FFFFFFFFFFFFFC07FFFFFF0001FFFFF
310
F0001FFFFFFFFC0007F0001FFFFFFFFC0007FF0003FFFFFFFFFFFC0000000007
310
F000FFE0000000000FFFF0003E000FC003E0007FFF80007FFFC0000000001FFF
310
FE0000000001FFF80FFFFFFFFFFFFFC07FFFFFF0001FFFFFF0001FFFFFFFFC00
310
07F0001FFFFFFFFC0007FF0003FFFFFFFFFFF0000000000FF000FFC000000000
310
1FFFF0003F000F8003F0003FFF80007FFF80000000003FFFF80000000003FFF8
310
0FFFFFFFFFFFFFC07FFFFFF0001FFFFFF0001FFFFFFFFC0007F0001FFFFFFFFC
310
0007FF0003FFFFFFFFFFE0000000001FF000FF00000000007FFFF0003F000780
310
03F0003FFF80007FFF00000000007FFFF00000000007FFF80FFFFFFFFFFFFFC0
310
7FFFFFF0001FFFFFF0001FFFFFFFFC0007F0001FFFFFFFFC0007FF0003FFFFFF
310
FFFF80000000007FF000FE0000000000FFFFE0003F00078007F0003FFF80007F
310
FE0000000001FFFFE0000000001FFFF80FFFFFFFFFFFFFC07FFFFFF0001FFFFF
310
F0001FFFFFFFFC0007F0001FFFFFFFFC0007FF0003FFFFFFFFFF0000000000FF
310
F000FC0000000003FFFFE0007F00078007F0003FFF80007FFC0000000007FFFF
310
C0000000007FFFF80FFFFFFFFFFFFFC07FFFFFF0001FFFFFF8001FFFFFFFFC00
310
0FF8001FFFFFFFFC000FFF0003FFFFFFFFFE0000000003FFF000FC000000000F
310
FFFFE0007F80070007F8001FFF80007FF8000000001FFFFF8000000001FFFFF8
310
0FFFFFFFFFFFFFC07FFFFFF0001FFFFFF8001FFFFFFFFC000FF8001FFFFFFFFC
310
000FFF0003FFFFFFFFFC000000000FFFF000F8000000007FFFFFE0007F800700
310
07F8001FFF80007FF000000000FFFFFF800000000FFFFFF80FFFFFFFFFFFFFC0
310
7FFFFFF0001FFFFFF8000FFFFFFFF8000FF8000FFFFFFFF8000FFF0003FFFFFF
310
FFFC000000007FFFF000F800000007FFFFFFC0007F8003000FF8001FFF80007F
310
F000000007FFFFFF000000007FFFFFF80FFFFFFFFFFFFFC07FFFFFF0001FFFFF
310
F8000FFFFFFFF8000FF8000FFFFFFFF8000FFF0003FFFFFFFFF80000000FFFFF
310
F000F0000000FFFFFFFFC000FF8003000FF8001FFF80007FE0000000FFFFFFFF
310
0000000FFFFFFFF8000001FFFE0000007FFFFFF0001FFFFFF8000FFFFFFFF800
310
0FF8000FFFFFFFF8000FFF0003FFFFFFFFF8000000FFFFFFF000F000000FFFFF
310
FFFFC000FFC002000FF8000FFF80007FE000001FFFFFFFFE000001FFFFFFFFF8
310
000001FFFE0000007FFFFFF0001FFFFFF8000FFFFFFFF8000FF8000FFFFFFFF8
310
000FFF0003FFFFFFFFF000001FFFFFFFF000E00000FFFFFFFFFFC000FFC00200
310
0FFC000FFF80007FE00001FFFFFFFFFE00001FFFFFFFFFF8000001FFFE000000
310
7FFFFFF0001FFFFFFC000FFFFFFFF8001FFC000FFFFFFFF8001FFF0003FFFFFF
310
FFF00001FFFFFFFFF000E00007FFFFFFFFFF8000FFC000001FFC000FFF80007F
310
C0000FFFFFFFFFFE0000FFFFFFFFFFF8000001FFFE0000007FFFFFF0001FFFFF
310
FC0007FFFFFFF0001FFC0007FFFFFFF0001FFF0003FFFFFFFFF00007FFFFFFFF
310
F000E0001FFFFFFFFFFF8000FFC000001FFC000FFF80007FC0003FFFFFFFFFFE
310
0001FFFFFFFFFFF8000001FFFE0000007FFFFFF0001FFFFFFC0007FFFFFFF000
310
1FFC0007FFFFFFF0001FFF0003FFFFFFFFF0001FFFFFFFFFF000E0003FFFFF00
310
03FF8001FFE000001FFC0007FF80007FC0007FFFFF0007FC0003FFFFF0003FF8
310
000001FFFE0000007FFFFFF0001FFFFFFC0003FFFFFFE0001FFC0003FFFFFFE0
310
001FFF0003FFFFFFFFF0003FFFFFFFFFF000E0003FFFFF0001FF8001FFE00000
310
1FFE0007FF80007FC0007FFFFE0003FC0007FFFFE0003FF8000001FFFE000000
310
7FFFFFF0001FFFFFFE0003FFFFFFE0003FFE0003FFFFFFE0003FFF0003FFFFFF
310
FFF0003FFFFF8001F000E0003FFFFF0001FF0001FFE000001FFE0007FF80007F
310
C0007FFFFE0003FC0007FFFFE0003FF8000001FFFE0000007FFFFFF0001FFFFF
310
FE0001FFFFFFC0003FFE0001FFFFFFC0003FFF0003FFFFFFFFF0003FFFFF0001
310
F000E0003FFFFF0003FF0001FFE000003FFE0007FF80007FC0007FFFFE0003FC
310
0007FFFFE0003FF8000001FFFE0000007FFFFFF0001FFFFFFF0001FFFFFFC000
310
7FFF0001FFFFFFC0007FFF0003FFFFFFFFF0003FFFFF0001F000E0003FFFFE00
310
03FF0003FFF000003FFE0003FF80007FC0007FFFFC0003FE0007FFFFE0003FF8
310
000001FFFE0000007FFFFFF0001FFFFFFF0000FFFFFF80007FFF0000FFFFFF80
310
007FFF0003FFFFFFFFF0003FFFFF0001F000E0003FFFFE0003FF0003FFF00000
310
3FFF0003FF80007FC0007FFFFC0007FE0007FFFFC0003FF8000001FFFE000000
310
7FFFFFF0001FFFFFFF80007FFFFF0000FFFF80007FFFFF0000FFFF0003FFFFFF
310
FFF0003FFFFF0003F000E0003FFFFC0003FE0003FFF000003FFF0003FF80007F
310
E0003FFFF80007FE0003FFFFC0007FF8000001FFFE0000007FFFFFF0001FFFFF
310
FF80003FFFFE0000FFFF80003FFFFE0000FFFF0003FFFFFFFFF0001FFFFE0003
310
F000F0001FFFF80003FE0003FFF000007FFF0001FF80007FE0003FFFF00007FE
310
0001FFFF80007FF8000001FFFE0000007FFFFFF0001FFFFFFFC0000FFFF80001
310
FFFFC0000FFFF80001FFFF0003FFFFFFFFF0001FFFFC0003F000F0000FFFF000
310
07FE0007FFF800007FFF0001FF80007FE0001FFFE00007FF0000FFFE00007FF8
310
000001FFFE0000007FFFFFF0001FFFFFFFC00003FFE00001FFFFC00003FFE000
310
01FFFF0003FFFFFFFFF8000FFFF80003F000F00003FFC00007FC0007FFF80000
310
7FFF8001FF80007FF00007FF80000FFF00007FF80000FFF8000001FFFE000000
310
7F80000000000001FFE000003E000003FFFFE000003E000003FFFF0003FFFFFF
310
FFF80003FFE00007F000F800000000000FFC0007FFF800007FFF8001FF80007F
310
F000000000000FFF000000000000FFF8000001FFFE0000007F80000000000001
310
FFF0000000000007FFFFF0000000000007FFFF0003FFFFFFFFFC00007E000007
310
F000F800000000000FFC0007FFF80000FFFF8000FF80007FF800000000001FFF
310
800000000001FFF8000001FFFE0000007F80000000000001FFF800000000000F
310
FFFFF800000000000FFFFF0003FFFFFFFFFC00000000000FF000FC0000000000
310
1FFC0007FFFC0000FFFF8000FF80007FF800000000003FFFC00000000001FFF8
310
000001FFFE0000007F80000000000001FFF800000000000FFFFFF80000000000
310
0FFFFF0003FFFFFFFFFE00000000001FF000FE00000000003FF8000FFFFC0000
310
FFFF8000FF80007FFC00000000003FFFC00000000003FFF8000001FFFE000000
310
7F80000000000001FFFC00000000001FFFFFFC00000000001FFFFF0003FFFFFF
310
FFFF00000000001FF000FF00000000003FF8000FFFFC0000FFFFC000FF80007F
310
FE00000000007FFFE00000000007FFF8000001FFFE0000007F80000000000001
310
FFFE00000000003FFFFFFE00000000003FFFFF0003FFFFFFFFFF80000000003F
310
F000FF80000000007FF8000FFFFC0001FFFFC0007F80007FFF0000000000FFFF
310
F0000000000FFFF800000000000000007F80000000000001FFFF8000000000FF
310
FFFFFF8000000000FFFFFF0003FFFFFFFFFFC0000000007FF000FFC000000000
310
FFF8000FFFFE0001FFFFC0007F80007FFF8000000001FFFFF8000000001FFFF8
310
00000000000000007F80000000000001FFFFC000000001FFFFFFFFC000000001
310
FFFFFF0003FFFFFFFFFFE000000000FFF000FFE000000003FFF0001FFFFE0001
310
FFFFC0007F80007FFFC000000007FFFFFE000000003FFFF80000000000000000
310
7F80000000000001FFFFE000000003FFFFFFFFE000000003FFFFFF0003FFFFFF
310
FFFFF000000003FFF000FFF80000000FFFF0001FFFFE0001FFFFE0007F80007F
310
FFF00000000FFFFFFF00000000FFFFF800000000000000007F80000000000001
310
FFFFF80000000FFFFFFFFFF80000000FFFFFFF0003FFFFFFFFFFFC0000000FFF
310
F000FFFE0000003FFFF0001FFFFE0003FFFFE0003F80007FFFFC0000003FFFFF
310
FFC0000003FFFFF800000000000000007F80000000000001FFFFFE0000003FFF
310
FFFFFFFE0000003FFFFFFF0003FFFFFFFFFFFF0000003FFFF000FFFF800000FF
310
FFF0001FFFFF0003FFFFE0003F80007FFFFF000001FFFFFFFFF800001FFFFFF8
310
00000000000000007F80000000000001FFFFFFC00001FFFFFFFFFFFFC00001FF
310
FFFFFF0003FFFFFFFFFFFFC00000FFFFF000FFFFF8000FFFFFFFFFFFFFFFFFFF
310
FFFFFFFFFFFFFFFFFFFFF0001FFFFFFFFFFF0000FFFFFFF80000000000000000
310
7FFFFFFFFFFFFFFFFFFFFFFC001FFFFFFFFFFFFFFC001FFFFFFFFFFFFFFFFFFF
310
FFFFFFFC001FFFFFF000FFFFFFFFFFFFFFFFFFFFFFFFFFFFFFFFFFFFFFFFFFFF
310
FFFFFFFFFFFFFFFFFFFFFFFFFFFFFFFFFFFFFFFFFFFFFFFFFFFFFFFFFFFFFFFF
310
FFFFFFFFFFFFFFFFFFFFFFFFFFFFFFFFFFFFFFFFFFFFFFFFFFFFFFFFFFFFFFFF
310
F000FFFFFFFFFFFFFFFFFFFFFFFFFFFFFFFFFFFFFFFFFFFFFFFFFFFFFFFFFFFF
310
FFFFFFFFFFFFFFFFFFFFFFFFFFFFFFFFFFFFFFFFFFFFFFFFFFFFFFFFFFFFFFFF
310
FFFFFFFFFFFFFFFFFFFFFFFFFFFFFFFFFFFFFFFFFFFFFFFFF000FFFFFFFFFFFF
310
FFFFFFFFFFFFFFFFFFFFFFFFFFFFFFFFFFFFFFFFFFFFFFFFFFFFFFFFFFFFFFFF
310
FFFFFFFFFFFFFFFFFFFFFFFFFFFFFFFFFFFFFFFFFFFFFFFFFFFFFFFFFFFFFFFF
310
FFFFFFFFFFFFFFFFFFFFFFFFFFFFFFFFF000FFFFFFFFFFFFFFFFFFFFFFFFFFFF
310
FFFFFFFFFFFFFFFFFFFFFFFFFFFFFFFFFFFFFFFFFFFFFFFFFFFFFFFFFFFFFFFF
310
FFFFFFFFFFFFFFFFFFFFFFFFFFFFFFFFFFFFFFFFFFFFFFFFFFFFFFFFFFFFFFFF
310
FFFFFFFFFFFFFFFFF000FFFFFFFFFFFFFFFFFFFFFFFFFFFFFFFFFFFFFFFFFFFF
310
FFFFFFFFFFFFFFFFFFFFFFFFFFFFFFFFFFFFFFFFFFFFFFFFFFFFFFFFFFFFFFFF
310
FFFFFFFFFFFFFFFFFFFFFFFFFFFFFFFFFFFFFFFFFFFFFFFFFFFFFFFFFFFFFFFF
310
F000FFFFFFFFFFFFFFFFFFFFFFFFFFFFFFFFFFFFFFFFFFFFFFFFFFFFFFFFFFFF
310
FFFFFFFFFFFFFFFFFFFFFFFFFFFFFFFFFFFFFFFFFFFFFFFFFFFFFFFFFFFFFFFF
310
FFFFFFFFFFFFFFFFFFFFFFFFFFFFFFFFFFFFFFFFFFFFFFFFF000FFFFFFFFFFFF
310
FFFFFFFFFFFFFFFFFFFFFFFFFFFFFFFFFFFFFFFFFFFFFFFFFFFFFFFFFFFFFFFF
310
FFFFFFFFFFFFFFFFFFFFFFFFFFFFFFFFFFFFFFFFFFFFFFFFFFFFFFFFFFFFFFFF
310
FFFFFFFFFFFFFFFFFFFFFFFFFFFFFFFFF000FFFFFFFFFFFFFFFFFFFFFFFFFFFF
310
FFFFFFFFFFFFFFFFFFFFFFFFFFFFFFFFFFFFFFFFFFFFFFFFFFFFFFFFFFFFFFFF
310
FFFFFFFFFFFFFFFFFFFFFFFFFFFFFFFFFFFFFFFFFFFFFFFFFFFFFFFFFFFFFFFF
310
FFFFFFFFFFFFFFFFF000FFFFFFFFFFFFFFFFFFFFFFFFFFFFFFFFFFFFFFFFFFFF
310
FFFFFFFFFFFFFFFFFFFFFFFFFFFFFFFFFFFFFFFFFFFFFFFFFFFFFFFFFFFFFFFF
310
FFFFFFFFFFFFFFFFFFFFFFFFFFFFFFFFFFFFFFFFFFFFFFFFFFFFFFFFFFFFFFFF
310
F000FFFFFFFFFFFFFFFFFFFFFFFFFFFFFFFFFFFFFFFFFFFFFFFFFFFFFFFFFFFF
310
FFFFFFFFFFFFFFFFFFFFFFFFFFFFFFFFFFFFFFFFFFFFFFFFFFFFFFFFFFFFFFFF
310
FFFFFFFFFFFFFFFFFFFFFFFFFFFFFFFFFFFFFFFFFFFFFFFFF000FFFFFFFFFFFF
310
FFFFFFFFFFFFFFFFFFFFFFFFFFFFFFFFFFFFFFFFFFFFFFFFFFFFFFFFFFFFFFFF
310
FFFFFFFFFFFFFFFFFFFFFFFFFFFFFFFFFFFFFFFFFFFFFFFFFFFFFFFFFFFFFFFF
310
FFFFFFFFFFFFFFFFFFFFFFFFFFFFFFFFF000FFFFFFFFFFFFFFFFFFFFFFFFFFFF
310
FFFFFFFFFFFFFFFFFFFFFFFFFFFFFFFFFFFFFFFFFFFFFFFFFFFFFFFFFFFFFFFF
310
FFFFFFFFFFFFFFFFFFFFFFFFFFFFFFFFFFFFFFFFFFFFFFFFFFFFFFFFFFFFFFFF
310
FFFFFFFFFFFFFFFFF000FFFFFFFFFFFFFFFFFFFFFFFFFFFFFFFFFFFFFFFFFFFF
310
FFFFFFFFFFFFFFFFFFFFFFFFFFFFFFFFFFFFFFFFFFFFFFFFFFFFFFFFFFFFFFFF
310
FFFFFFFFFFFFFFFFFFFFFFFFFFFFFFFFFFFFFFFFFFFFFFFFFFFFFFFFFFFFFFFF
310
F000FFFFFFFFFFFFFFFFFFFFFFFFFFFFFFFFFFFFFFFFFFFFFFFFFFFFFFFFFFFF
310
FFFFFFFFFFFFFFFFFFFFFFFFFFFFFFFFFFFFFFFFFFFFFFFFFFFFFFFFFFFFFFFF
310
FFFFFFFFFFFFFFFFFFFFFFFFFFFFFFFFFFFFFFFFFFFFFFFFF000FFFFFFFFFFFF
310
FFFFFFFFFFFFFFFFFFFFFFFFFFFFFFFFFFFFFFFFFFFFFFFFFFFFFFFFFFFFFFFF
310
FFFFFFFFFFFFFFFFFFFFFFFFFFFFFFFFFFFFFFFFFFFFFFFFFFFFFFFFFFFFFFFF
310
FFFFFFFFFFFFFFFFFFFFFFFFFFFFFFFFF000FFFFFFFFFFFFFFFFFFFFFFFFFFFF
310
FFFFFFFFFFFFFFFFFFFFFFFFFFFFFFFFFFFFFFFFFFFFFFFFFFFFFFFFFFFFFFFF
310
FFFFFFFFFFFFFFFFFFFFFFFFFFFFFFFFFFFFFFFFFFFFFFFFFFFFFFFFFFFFFFFF
310
FFFFFFFFFFFFFFFFF000FFFFFFFFFFFFFFFFFFFFFFFFFFFFFFFFFFFFFFFFFFFF
310
FFFFFFFFFFFFFFFFFFFFFFFFFFFFFFFFFFFFFFFFFFFFFFFFFFFFFFFFFFFFFFFF
310
FFFFFFFFFFFFFFFFFFFFFFFFFFFFFFFFFFFFFFFFFFFFFFFFFFFFFFFFFFFFFFFF
310
F000FFFFFFFFFFFFFFFFFFFFFFFFFFFFFFFFFFFFFFFFFFFFFFFFFFFFFFFFFFFF
310
FFFFFFFFFFFFFFFFFFFFFFFFFFFFFFFFFFFFFFFFFFFFFFFFFFFFFFFFFFFFFFFF
310
FFFFFFFFFFFFFFFFFFFFFFFFFFFFFFFFFFFFFFFFFFFFFFFFF000FFFFFFFFFFFF
310
FFFFFFFFFFFFFFFFFFFFFFFFFFFFFFFFFFFFFFFFFFFFFFFFFFFFFFFFFFFFFFFF
310
FFFFFFFFFFFFFFFFFFFFFFFFFFFFFFFFFFFFFFFFFFFFFFFFFFFFFFFFFFFFFFFF
310
FFFFFFFFFFFFFFFFFFFFFFFFFFFFFFFFF000FFFFFFFFFFFFFFFFFFFFFFFFFFFF
310
FFFFFFFFFFFFFFFFFFFFFFFFFFFFFFFFFFFFFFFFFFFFFFFFFFFFFFFFFFFFFFFF
310
FFFFFFFFFFFFFFFFFFFFFFFFFFFFFFFFFFFFFFFFFFFFFFFFFFFFFFFFFFFFFFFF
310
FFFFFFFFFFFFFFFFF000FFFFFFFFFFFFFFFFFFFFFFFFFFFFFFFFFFFFFFFFFFFF
310
FFFFFFFFFFFFFFFFFFFFFFFFFFFFFFFFFFFFFFFFFFFFFFFFFFFFFFFFFFFFFFFF
310
FFFFFFFFFFFFFFFFFFFFFFFFFFFFFFFFFFFFFFFFFFFFFFFFFFFFFFFFFFFFFFFF
310
F000FFFFFFFFFFFFFFFFFFFFFFFFFFFFFFFFFFFFFFFFFFFFFFFFFFFFFFFFFFFF
310
FFFFFFFFFFFFFFFFFFFFFFFFFFFFFFFFFFFFFFFFFFFFFFFFFFFFFFFFFFFFFFFF
310
FFFFFFFFFFFFFFFFFFFFFFFFFFFFFFFFFFFFFFFFFFFFFFFFF000FFFFFFFFFFFF
310
FFFFFFFFFFFFFFFFFFFFFFFFFFFFFFFFFFFFFFFFFFFFFFFFFFFFFFFFFFFFFFFF
310
FFFFFFFFFFFFFFFFFFFFFFFFFFFFFFFFFFFFFFFFFFFFFFFFFFFFFFFFFFFFFFFF
310
FFFFFFFFFFFFFFFFFFFFFFFFFFFFFFFFF0000000000000000000000000000000
310
00000000FF07000080E3A163FF070000309AA163FF0700000000000000000000
310
0000000001000000FB0005030000000700856C6A00000000D0BDF36900000000
310
0000000000000000000000000000000000000000780020C7780020C700000000
310
0000000000000000000000000000000000000000000000000000000000000000
310
0000000000000000000000000000000000000000000000000000000000000000
310
0000000000000000000000000000000000000000000000000000000000000000
310
0000000000000000000000000000000000000000000000000000000000000000
310
0000000000000000000000000000000000000000000000000000000000000000
310
0000000000000000000000000000000000000000000000000000000000000000
310
0000000000000000000000000000000000000000000000000000000000000000
310
0000000000000000000000000000000000000000000000000000000000000000
310
0000000000000000E0040000C002000000000000000000000000000000000000
310
0000000000000000000000000000000050639D63FF07000040AE9D63FF070000
310
0000000000000000000000000000000000000000000000000000000000000000
310
0000000000000000000000000000000000000000000000000000000000000000
  1
OLE
  0
ENDSEC
  0
SECTION
  2
OBJECTS
  0
DICTIONARY
  5
C
330
0
100
AcDbDictionary
281
     1
  3
ACAD_GROUP
350
D
  3
ACAD_LAYOUT
350
1A
  3
ACAD_MLEADERSTYLE
350
1F6
  3
ACAD_MLINESTYLE
350
17
  3
ACAD_PLOTSETTINGS
350
19
  3
ACAD_PLOTSTYLENAME
350
E
  3
ACAD_TABLESTYLE
350
1F5
  3
ACAD_VISUALSTYLE
350
2A
  3
AcDbVariableDictionary
350
1F7
  0
DICTIONARY
  5
D
102
{ACAD_REACTORS
330
C
102
}
330
C
100
AcDbDictionary
281
     1
  0
DICTIONARY
  5
1A
102
{ACAD_REACTORS
330
C
102
}
330
C
100
AcDbDictionary
281
     1
  3
Layout1
350
1E
  3
Layout2
350
26
  3
Model
350
22
  0
DICTIONARY
  5
1F6
102
{ACAD_REACTORS
330
C
102
}
330
C
100
AcDbDictionary
281
     1
  0
DICTIONARY
  5
17
102
{ACAD_REACTORS
330
C
102
}
330
C
100
AcDbDictionary
281
     1
  3
Standard
350
18
  0
DICTIONARY
  5
19
102
{ACAD_REACTORS
330
C
102
}
330
C
100
AcDbDictionary
281
     1
  0
ACDBDICTIONARYWDFLT
  5
E
102
{ACAD_REACTORS
330
C
102
}
330
C
100
AcDbDictionary
281
     1
  3
Normal
350
F
100
AcDbDictionaryWithDefault
340
F
  0
DICTIONARY
  5
1F5
102
{ACAD_REACTORS
330
C
102
}
330
C
100
AcDbDictionary
281
     1
  0
DICTIONARY
  5
2A
102
{ACAD_REACTORS
330
C
102
}
330
C
100
AcDbDictionary
281
     1
  3
2dWireframe
350
2F
  3
3D Hidden
350
31
  3
3dWireframe
350
30
  3
Basic
350
32
  3
Brighten
350
36
  3
ColorChange
350
3A
  3
Conceptual
350
34
  3
Dim
350
35
  3
Facepattern
350
39
  3
Flat
350
2B
  3
FlatWithEdges
350
2C
  3
Gouraud
350
2D
  3
GouraudWithEdges
350
2E
  3
Linepattern
350
38
  3
Realistic
350
33
  3
Thicken
350
37
  0
DICTIONARY
  5
1F7
102
{ACAD_REACTORS
330
C
102
}
330
C
100
AcDbDictionary
281
     1
  3
PSOLHEIGHT
350
1F9
  3
PSOLWIDTH
350
1F8
  0
LAYOUT
  5
1E
102
{ACAD_REACTORS
330
1A
102
}
330
1A
100
AcDbPlotSettings
  1

  2
none_device
  4

  6

 40
0.0
 41
0.0
 42
0.0
 43
0.0
 44
0.0
 45
0.0
 46
0.0
 47
0.0
 48
0.0
 49
0.0
140
0.0
141
0.0
142
1.0
143
1.0
 70
   688
 72
     0
 73
     0
 74
     5
  7

 75
    16
147
1.0
148
0.0
149
0.0
100
AcDbLayout
  1
Layout1
 70
     1
 71
     1
 10
0.0
 20
0.0
 11
420.0
 21
297.0
 12
0.0
 22
0.0
 32
0.0
 14
1.0000000000E+20
 24
1.0000000000E+20
 34
1.0000000000E+20
 15
-1.0000000000E+20
 25
-1.0000000000E+20
 35
-1.0000000000E+20
146
0.0
 13
0.0
 23
0.0
 33
0.0
 16
1.0
 26
0.0
 36
0.0
 17
0.0
 27
1.0
 37
0.0
 76
     0
330
1B
  0
LAYOUT
  5
26
102
{ACAD_REACTORS
330
1A
102
}
330
1A
100
AcDbPlotSettings
  1

  2
none_device
  4

  6

 40
0.0
 41
0.0
 42
0.0
 43
0.0
 44
0.0
 45
0.0
 46
0.0
 47
0.0
 48
0.0
 49
0.0
140
0.0
141
0.0
142
1.0
143
1.0
 70
   688
 72
     0
 73
     0
 74
     5
  7

 75
    16
147
1.0
148
0.0
149
0.0
100
AcDbLayout
  1
Layout2
 70
     1
 71
     2
 10
0.0
 20
0.0
 11
0.0
 21
0.0
 12
0.0
 22
0.0
 32
0.0
 14
0.0
 24
0.0
 34
0.0
 15
0.0
 25
0.0
 35
0.0
146
0.0
 13
0.0
 23
0.0
 33
0.0
 16
1.0
 26
0.0
 36
0.0
 17
0.0
 27
1.0
 37
0.0
 76
     0
330
23
  0
LAYOUT
  5
22
102
{ACAD_REACTORS
330
1A
102
}
330
1A
100
AcDbPlotSettings
  1

  2
none_device
  4

  6

 40
0.0
 41
0.0
 42
0.0
 43
0.0
 44
0.0
 45
0.0
 46
0.0
 47
0.0
 48
0.0
 49
0.0
140
0.0
141
0.0
142
1.0
143
1.0
 70
  1712
 72
     0
 73
     0
 74
     0
  7

 75
     0
147
1.0
148
0.0
149
0.0
100
AcDbLayout
  1
Model
 70
     1
 71
     0
 10
0.0
 20
0.0
 11
297.0
 21
210.0
 12
0.0
 22
0.0
 32
0.0
 14
0.0
 24
0.0
 34
0.0
 15
297.0
 25
210.0
 35
0.0
146
0.0
 13
0.0
 23
0.0
 33
0.0
 16
1.0
 26
0.0
 36
0.0
 17
0.0
 27
1.0
 37
0.0
 76
     0
330
1F
331
29
  0
MLINESTYLE
  5
18
102
{ACAD_REACTORS
330
17
102
}
330
17
100
AcDbMlineStyle
  2
Standard
 70
     0
  3

 62
   256
 51
90.0
 52
90.0
 71
     2
 49
0.5
 62
   256
  6
BYLAYER
 49
-0.5
 62
   256
  6
BYLAYER
  0
ACDBPLACEHOLDER
  5
F
102
{ACAD_REACTORS
330
E
102
}
330
E
  0
VISUALSTYLE
  5
2F
102
{ACAD_REACTORS
330
2A
102
}
330
2A
100
AcDbVisualStyle
  2
2dWireframe
 70
     4
 71
     0
 72
     2
 73
     0
 90
        0
 40
-0.6
 41
-30.0
 62
     5
 63
     7
 74
     1
 91
        4
 64
     7
 65
   257
 75
     1
175
     1
 42
1.0
 92
        0
 66
   257
 43
1.0
 76
     1
 77
     6
 78
     2
 67
     7
 79
     5
170
     0
171
     0
290
     0
174
     0
 93
        1
 44
0.0
173
     0
291
     0
 45
0.0
1001
ACAD
1000
AcDbSavedByObjectVersion
1070
     0
  0
VISUALSTYLE
  5
31
102
{ACAD_REACTORS
330
2A
102
}
330
2A
100
AcDbVisualStyle
  2
3D Hidden
 70
     6
 71
     1
 72
     2
 73
     2
 90
        0
 40
-0.6
 41
-30.0
 62
     5
 63
     7
 74
     2
 91
        2
 64
     7
 65
   257
 75
     2
175
     1
 42
40.0
 92
        0
 66
   257
 43
1.0
 76
     1
 77
     6
 78
     2
 67
     7
 79
     3
170
     0
171
     0
290
     0
174
     0
 93
        1
 44
0.0
173
     0
291
     0
 45
0.0
1001
ACAD
1000
AcDbSavedByObjectVersion
1070
     0
  0
VISUALSTYLE
  5
30
102
{ACAD_REACTORS
330
2A
102
}
330
2A
100
AcDbVisualStyle
  2
3dWireframe
 70
     5
 71
     0
 72
     2
 73
     0
 90
        0
 40
-0.6
 41
-30.0
 62
     5
 63
     7
 74
     1
 91
        4
 64
     7
 65
   257
 75
     1
175
     1
 42
1.0
 92
        0
 66
   257
 43
1.0
 76
     1
 77
     6
 78
     2
 67
     7
 79
     5
170
     0
171
     0
290
     0
174
     0
 93
        1
 44
0.0
173
     0
291
     0
 45
0.0
1001
ACAD
1000
AcDbSavedByObjectVersion
1070
     0
  0
VISUALSTYLE
  5
32
102
{ACAD_REACTORS
330
2A
102
}
330
2A
100
AcDbVisualStyle
  2
Basic
 70
     7
 71
     1
 72
     0
 73
     1
 90
        0
 40
-0.6
 41
-30.0
 62
     5
 63
     7
 74
     0
 91
        4
 64
     7
 65
   257
 75
     1
175
     1
 42
1.0
 92
        8
 66
     7
 43
1.0
 76
     1
 77
     6
 78
     2
 67
     7
 79
     5
170
     0
171
     0
290
     0
174
     0
 93
        1
 44
0.0
173
     0
291
     1
 45
0.0
1001
ACAD
1000
AcDbSavedByObjectVersion
1070
     0
  0
VISUALSTYLE
  5
36
102
{ACAD_REACTORS
330
2A
102
}
330
2A
100
AcDbVisualStyle
  2
Brighten
 70
    12
 71
     2
 72
     2
 73
     0
 90
        0
 40
-0.6
 41
-30.0
 62
     5
 63
     7
 74
     1
 91
        4
 64
     7
 65
   257
 75
     1
175
     1
 42
1.0
 92
        8
 66
     7
 43
1.0
 76
     1
 77
     6
 78
     2
 67
     7
 79
     5
170
     0
171
     0
290
     0
174
     0
 93
        1
 44
50.0
173
     0
291
     1
 45
0.0
1001
ACAD
1000
AcDbSavedByObjectVersion
1070
     0
  0
VISUALSTYLE
  5
3A
102
{ACAD_REACTORS
330
2A
102
}
330
2A
100
AcDbVisualStyle
  2
ColorChange
 70
    16
 71
     2
 72
     2
 73
     3
 90
        0
 40
-0.6
 41
-30.0
 62
     5
 63
     8
 74
     1
 91
        4
 64
     7
 65
   257
 75
     1
175
     1
 42
1.0
 92
        8
 66
     8
 43
1.0
 76
     1
 77
     6
 78
     2
 67
     7
 79
     5
170
     0
171
     0
290
     0
174
     0
 93
        1
 44
0.0
173
     0
291
     1
 45
0.0
1001
ACAD
1000
AcDbSavedByObjectVersion
1070
     0
  0
VISUALSTYLE
  5
34
102
{ACAD_REACTORS
330
2A
102
}
330
2A
100
AcDbVisualStyle
  2
Conceptual
 70
     9
 71
     3
 72
     2
 73
     0
 90
        0
 40
-0.6
 41
-30.0
 62
     5
 63
     7
 74
     2
 91
        2
 64
     7
 65
   257
 75
     1
175
     1
 42
40.0
 92
        8
 66
     7
 43
1.0
 76
     1
 77
     6
 78
     2
 67
     7
 79
     3
170
     0
171
     0
290
     0
174
     0
 93
        1
 44
0.0
173
     0
291
     0
 45
0.0
1001
ACAD
1000
AcDbSavedByObjectVersion
1070
     0
  0
VISUALSTYLE
  5
35
102
{ACAD_REACTORS
330
2A
102
}
330
2A
100
AcDbVisualStyle
  2
Dim
 70
    11
 71
     2
 72
     2
 73
     0
 90
        0
 40
-0.6
 41
-30.0
 62
     5
 63
     7
 74
     1
 91
        4
 64
     7
 65
   257
 75
     1
175
     1
 42
1.0
 92
        8
 66
     7
 43
1.0
 76
     1
 77
     6
 78
     2
 67
     7
 79
     5
170
     0
171
     0
290
     0
174
     0
 93
        1
 44
-50.0
173
     0
291
     1
 45
0.0
1001
ACAD
1000
AcDbSavedByObjectVersion
1070
     0
  0
VISUALSTYLE
  5
39
102
{ACAD_REACTORS
330
2A
102
}
330
2A
100
AcDbVisualStyle
  2
Facepattern
 70
    15
 71
     2
 72
     2
 73
     0
 90
        0
 40
-0.6
 41
-30.0
 62
     5
 63
     7
 74
     1
 91
        4
 64
     7
 65
   257
 75
     1
175
     1
 42
1.0
 92
        8
 66
     7
 43
1.0
 76
     1
 77
     6
 78
     2
 67
     7
 79
     5
170
     0
171
     0
290
     0
174
     0
 93
        1
 44
0.0
173
     0
291
     1
 45
0.0
1001
ACAD
1000
AcDbSavedByObjectVersion
1070
     0
  0
VISUALSTYLE
  5
2B
102
{ACAD_REACTORS
330
2A
102
}
330
2A
100
AcDbVisualStyle
  2
Flat
 70
     0
 71
     2
 72
     1
 73
     1
 90
        2
 40
-0.6
 41
30.0
 62
     5
 63
     7
 74
     0
 91
        4
 64
     7
 65
   257
 75
     1
175
     1
 42
1.0
 92
        8
 66
     7
 43
1.0
 76
     1
 77
     6
 78
     2
 67
     7
 79
     5
170
     0
171
     0
290
     0
174
     0
 93
       13
 44
0.0
173
     0
291
     1
 45
0.0
1001
ACAD
1000
AcDbSavedByObjectVersion
1070
     0
  0
VISUALSTYLE
  5
2C
102
{ACAD_REACTORS
330
2A
102
}
330
2A
100
AcDbVisualStyle
  2
FlatWithEdges
 70
     1
 71
     2
 72
     1
 73
     1
 90
        2
 40
-0.6
 41
30.0
 62
     5
 63
     7
 74
     1
 91
        4
 64
     7
 65
   257
 75
     1
175
     1
 42
1.0
 92
        0
 66
   257
 43
1.0
 76
     1
 77
     6
 78
     2
 67
     7
 79
     5
170
     0
171
     0
290
     0
174
     0
 93
       13
 44
0.0
173
     0
291
     1
 45
0.0
1001
ACAD
1000
AcDbSavedByObjectVersion
1070
     0
  0
VISUALSTYLE
  5
2D
102
{ACAD_REACTORS
330
2A
102
}
330
2A
100
AcDbVisualStyle
  2
Gouraud
 70
     2
 71
     2
 72
     2
 73
     1
 90
        2
 40
-0.6
 41
30.0
 62
     5
 63
     7
 74
     0
 91
        4
 64
     7
 65
   257
 75
     1
175
     1
 42
1.0
 92
        0
 66
     7
 43
1.0
 76
     1
 77
     6
 78
     2
 67
     7
 79
     5
170
     0
171
     0
290
     0
174
     0
 93
       13
 44
0.0
173
     0
291
     1
 45
0.0
1001
ACAD
1000
AcDbSavedByObjectVersion
1070
     0
  0
VISUALSTYLE
  5
2E
102
{ACAD_REACTORS
330
2A
102
}
330
2A
100
AcDbVisualStyle
  2
GouraudWithEdges
 70
     3
 71
     2
 72
     2
 73
     1
 90
        2
 40
-0.6
 41
30.0
 62
     5
 63
     7
 74
     1
 91
        4
 64
     7
 65
   257
 75
     1
175
     1
 42
1.0
 92
        0
 66
   257
 43
1.0
 76
     1
 77
     6
 78
     2
 67
     7
 79
     5
170
     0
171
     0
290
     0
174
     0
 93
       13
 44
0.0
173
     0
291
     1
 45
0.0
1001
ACAD
1000
AcDbSavedByObjectVersion
1070
     0
  0
VISUALSTYLE
  5
38
102
{ACAD_REACTORS
330
2A
102
}
330
2A
100
AcDbVisualStyle
  2
Linepattern
 70
    14
 71
     2
 72
     2
 73
     0
 90
        0
 40
-0.6
 41
-30.0
 62
     5
 63
     7
 74
     1
 91
        4
 64
     7
 65
   257
 75
     7
175
     7
 42
1.0
 92
        8
 66
     7
 43
1.0
 76
     1
 77
     6
 78
     2
 67
     7
 79
     5
170
     0
171
     0
290
     0
174
     0
 93
        1
 44
0.0
173
     0
291
     1
 45
0.0
1001
ACAD
1000
AcDbSavedByObjectVersion
1070
     0
  0
VISUALSTYLE
  5
33
102
{ACAD_REACTORS
330
2A
102
}
330
2A
100
AcDbVisualStyle
  2
Realistic
 70
     8
 71
     2
 72
     2
 73
     0
 90
        0
 40
-0.6
 41
-30.0
 62
     5
 63
     7
 74
     1
 91
        0
 64
     7
 65
   257
 75
     1
175
     1
 42
1.0
 92
        8
 66
     8
 43
1.0
 76
     1
 77
     6
 78
     2
 67
     7
 79
     5
170
     0
171
     0
290
     0
174
     0
 93
       13
 44
0.0
173
     0
291
     0
 45
0.0
1001
ACAD
1000
AcDbSavedByObjectVersion
1070
     0
  0
VISUALSTYLE
  5
37
102
{ACAD_REACTORS
330
2A
102
}
330
2A
100
AcDbVisualStyle
  2
Thicken
 70
    13
 71
     2
 72
     2
 73
     0
 90
        0
 40
-0.6
 41
-30.0
 62
     5
 63
     7
 74
     1
 91
        4
 64
     7
 65
   257
 75
     1
175
     1
 42
1.0
 92
       12
 66
     7
 43
1.0
 76
     1
 77
     6
 78
     2
 67
     7
 79
     5
170
     0
171
     0
290
     0
174
     0
 93
        1
 44
0.0
173
     0
291
     1
 45
0.0
1001
ACAD
1000
AcDbSavedByObjectVersion
1070
     0
  0
DICTIONARYVAR
  5
1F9
102
{ACAD_REACTORS
330
1F7
102
}
330
1F7
100
DictionaryVariables
280
     0
  1
80.000000
  0
DICTIONARYVAR
  5
1F8
102
{ACAD_REACTORS
330
1F7
102
}
330
1F7
100
DictionaryVariables
280
     0
  1
5.000000
  0
ENDSEC
  0
EOF
